  0
SECTION
  2
HEADER
  9
$ACADVER
  1
AC1012
  9
$DWGCODEPAGE
  3
big5
  9
$INSBASE
 10
0.0
 20
0.0
 30
0.0
  9
$EXTMIN
 10
-393.3863200363605
 20
-121.2072851965242
 30
0.0
  9
$EXTMAX
 10
-51.78261980779558
 20
344.5569957083026
 30
0.0
  9
$LIMMIN
 10
0.0
 20
0.0
  9
$LIMMAX
 10
420.0
 20
297.0
  9
$ORTHOMODE
 70
     0
  9
$REGENMODE
 70
     1
  9
$FILLMODE
 70
     1
  9
$QTEXTMODE
 70
     0
  9
$MIRRTEXT
 70
     1
  9
$DRAGMODE
 70
     2
  9
$LTSCALE
 40
0.5
  9
$OSMODE
 70
    39
  9
$ATTMODE
 70
     1
  9
$TEXTSIZE
 40
25.0
  9
$TRACEWID
 40
1.0
  9
$TEXTSTYLE
  7
CHINESET
  9
$CLAYER
  8
0
  9
$CELTYPE
  6
BYBLOCK
  9
$CECOLOR
 62
   256
  9
$CELTSCALE
 40
1.0
  9
$DELOBJ
 70
     1
  9
$DISPSILH
 70
     0
  9
$DIMSCALE
 40
1.0
  9
$DIMASZ
 40
3.0
  9
$DIMEXO
 40
2.0
  9
$DIMDLI
 40
8.0
  9
$DIMRND
 40
0.0
  9
$DIMDLE
 40
0.0
  9
$DIMEXE
 40
2.0
  9
$DIMTP
 40
0.0
  9
$DIMTM
 40
0.0
  9
$DIMTXT
 40
3.0
  9
$DIMCEN
 40
-2.5
  9
$DIMTSZ
 40
0.0
  9
$DIMTOL
 70
     0
  9
$DIMLIM
 70
     0
  9
$DIMTIH
 70
     0
  9
$DIMTOH
 70
     0
  9
$DIMSE1
 70
     0
  9
$DIMSE2
 70
     0
  9
$DIMTAD
 70
     1
  9
$DIMZIN
 70
     8
  9
$DIMBLK
  1

  9
$DIMASO
 70
     1
  9
$DIMSHO
 70
     1
  9
$DIMPOST
  1

  9
$DIMAPOST
  1

  9
$DIMALT
 70
     0
  9
$DIMALTD
 70
     4
  9
$DIMALTF
 40
0.0394
  9
$DIMLFAC
 40
1.0
  9
$DIMTOFL
 70
     0
  9
$DIMTVP
 40
0.0
  9
$DIMTIX
 70
     0
  9
$DIMSOXD
 70
     0
  9
$DIMSAH
 70
     0
  9
$DIMBLK1
  1

  9
$DIMBLK2
  1

  9
$DIMSTYLE
  2
STANDARD
  9
$DIMCLRD
 70
   256
  9
$DIMCLRE
 70
   256
  9
$DIMCLRT
 70
   256
  9
$DIMTFAC
 40
1.0
  9
$DIMGAP
 40
1.0
  9
$DIMJUST
 70
     0
  9
$DIMSD1
 70
     0
  9
$DIMSD2
 70
     0
  9
$DIMTOLJ
 70
     1
  9
$DIMTZIN
 70
     8
  9
$DIMALTZ
 70
     8
  9
$DIMALTTZ
 70
     8
  9
$DIMFIT
 70
     5
  9
$DIMUPT
 70
     0
  9
$DIMUNIT
 70
     2
  9
$DIMDEC
 70
     2
  9
$DIMTDEC
 70
     2
  9
$DIMALTU
 70
     2
  9
$DIMALTTD
 70
     4
  9
$DIMTXSTY
  7
CHINESET
  9
$DIMAUNIT
 70
     0
  9
$LUNITS
 70
     2
  9
$LUPREC
 70
     4
  9
$SKETCHINC
 40
1.0
  9
$FILLETRAD
 40
1.0
  9
$AUNITS
 70
     0
  9
$AUPREC
 70
     0
  9
$MENU
  1
.
  9
$ELEVATION
 40
0.0
  9
$PELEVATION
 40
0.0
  9
$THICKNESS
 40
0.0
  9
$LIMCHECK
 70
     0
  9
$BLIPMODE
 70
     0
  9
$CHAMFERA
 40
0.5
  9
$CHAMFERB
 40
0.5
  9
$CHAMFERC
 40
0.0
  9
$CHAMFERD
 40
0.0
  9
$SKPOLY
 70
     0
  9
$TDCREATE
 40
2451564.589449236
  9
$TDUPDATE
 40
2452657.681035509
  9
$TDINDWG
 40
0.0234351505
  9
$TDUSRTIMER
 40
0.0234351505
  9
$USRTIMER
 70
     1
  9
$ANGBASE
 50
0.0
  9
$ANGDIR
 70
     0
  9
$PDMODE
 70
     0
  9
$PDSIZE
 40
0.0
  9
$PLINEWID
 40
0.0
  9
$COORDS
 70
     2
  9
$SPLFRAME
 70
     0
  9
$SPLINETYPE
 70
     6
  9
$SPLINESEGS
 70
     8
  9
$ATTDIA
 70
     0
  9
$ATTREQ
 70
     1
  9
$HANDLING
 70
 22529
  9
$HANDSEED
  5
21DC
  9
$SURFTAB1
 70
     6
  9
$SURFTAB2
 70
     6
  9
$SURFTYPE
 70
     6
  9
$SURFU
 70
     6
  9
$SURFV
 70
     6
  9
$UCSNAME
  2

  9
$UCSORG
 10
0.0
 20
0.0
 30
0.0
  9
$UCSXDIR
 10
1.0
 20
0.0
 30
0.0
  9
$UCSYDIR
 10
0.0
 20
1.0
 30
0.0
  9
$PUCSNAME
  2

  9
$PUCSORG
 10
0.0
 20
0.0
 30
0.0
  9
$PUCSXDIR
 10
1.0
 20
0.0
 30
0.0
  9
$PUCSYDIR
 10
0.0
 20
1.0
 30
0.0
  9
$USERI1
 70
     0
  9
$USERI2
 70
     0
  9
$USERI3
 70
     0
  9
$USERI4
 70
     0
  9
$USERI5
 70
     0
  9
$USERR1
 40
0.0
  9
$USERR2
 40
0.0
  9
$USERR3
 40
0.0
  9
$USERR4
 40
0.0
  9
$USERR5
 40
0.0
  9
$WORLDVIEW
 70
     1
  9
$SHADEDGE
 70
     3
  9
$SHADEDIF
 70
    70
  9
$TILEMODE
 70
     1
  9
$MAXACTVP
 70
    48
  9
$PINSBASE
 10
0.0
 20
0.0
 30
0.0
  9
$PLIMCHECK
 70
     0
  9
$PEXTMIN
 10
1.000000000000000E+20
 20
1.000000000000000E+20
 30
1.000000000000000E+20
  9
$PEXTMAX
 10
-1.000000000000000E+20
 20
-1.000000000000000E+20
 30
-1.000000000000000E+20
  9
$PLIMMIN
 10
0.0
 20
0.0
  9
$PLIMMAX
 10
420.0
 20
297.0
  9
$UNITMODE
 70
     0
  9
$VISRETAIN
 70
     1
  9
$PLINEGEN
 70
     0
  9
$PSLTSCALE
 70
     1
  9
$TREEDEPTH
 70
  3020
  9
$PICKSTYLE
 70
     1
  9
$CMLSTYLE
  2
STANDARD
  9
$CMLJUST
 70
     0
  9
$CMLSCALE
 40
1.0
  9
$SAVEIMAGES
 70
     1
  0
ENDSEC
  0
SECTION
  2
CLASSES
  0
CLASS
  1
ACDBDICTIONARYWDFLT
  2
AcDbDictionaryWithDefault
  3
AutoCAD 2000
 90
    32768
280
     0
281
     0
  0
CLASS
  1
ACDBPLACEHOLDER
  2
AcDbPlaceHolder
  3
AutoCAD 2000
 90
    32768
280
     0
281
     0
  0
CLASS
  1
LAYOUT
  2
AcDbLayout
  3
AutoCAD 2000
 90
    32768
280
     0
281
     0
  0
CLASS
  1
LONG_TRANSACTION
  2
AcDbLongTransaction
  3
AutoCAD 2000
 90
    32768
280
     0
281
     0
  0
CLASS
  1
LWPOLYLINE
  2
AcDbPolyline
  3
AutoCAD 2000
 90
    32768
280
     0
281
     1
  0
CLASS
  1
HATCH
  2
AcDbHatch
  3
AutoCAD 2000
 90
    32768
280
     0
281
     1
  0
CLASS
  1
XRECORD
  2
AcDbXrecord
  3
AutoCAD 2000
 90
    32768
280
     0
281
     0
  0
CLASS
  1
LONG_TRANSACTION
  2
AcDbLongTransaction
  3
AutoCAD 2000
 90
    32768
280
     0
281
     0
  0
CLASS
  1
LWPOLYLINE
  2
AcDbPolyline
  3
AutoCAD 2000
 90
    32768
280
     0
281
     1
  0
CLASS
  1
HATCH
  2
AcDbHatch
  3
AutoCAD 2000
 90
    32768
280
     0
281
     1
  0
CLASS
  1
XRECORD
  2
AcDbXrecord
  3
AutoCAD 2000
 90
    32768
280
     0
281
     0
  0
CLASS
  1
DICTIONARYVAR
  2
AcDbDictionaryVar
  3
AutoCAD 2000
 90
    32768
280
     0
281
     0
  0
CLASS
  1
LONG_TRANSACTION
  2
AcDbLongTransaction
  3
AutoCAD 2000
 90
    32768
280
     0
281
     0
  0
CLASS
  1
LWPOLYLINE
  2
AcDbPolyline
  3
AutoCAD 2000
 90
    32768
280
     0
281
     1
  0
CLASS
  1
HATCH
  2
AcDbHatch
  3
AutoCAD 2000
 90
    32768
280
     0
281
     1
  0
CLASS
  1
XRECORD
  2
AcDbXrecord
  3
AutoCAD 2000
 90
    32768
280
     0
281
     0
  0
ENDSEC
  0
SECTION
  2
TABLES
  0
TABLE
  2
VPORT
  5
1715
330
0
100
AcDbSymbolTable
 70
     3
  0
VPORT
  5
21BF
330
1715
100
AcDbSymbolTableRecord
100
AcDbViewportTableRecord
  2
*ACTIVE
 70
     0
 10
0.0
 20
0.0
 11
1.0
 21
1.0
 12
-204.6021172245205
 22
111.6885133770139
 13
0.0
 23
0.0
 14
10.0
 24
10.0
 15
10.0
 25
10.0
 16
0.0
 26
0.0
 36
1.0
 17
0.0
 27
0.0
 37
0.0
 40
471.0828018245006
 41
1.442990654205607
 42
50.0
 43
0.0
 44
0.0
 50
0.0
 51
0.0
 71
     0
 72
   100
 73
     1
 74
     1
 75
     0
 76
     0
 77
     0
 78
     0
  0
ENDTAB
  0
TABLE
  2
LTYPE
  5
1712
330
0
100
AcDbSymbolTable
 70
     4
  0
LTYPE
  5
1720
330
1712
100
AcDbSymbolTableRecord
100
AcDbLinetypeTableRecord
  2
BYBLOCK
 70
     0
  3

 72
    65
 73
     0
 40
0.0
  0
LTYPE
  5
1721
330
1712
100
AcDbSymbolTableRecord
100
AcDbLinetypeTableRecord
  2
BYLAYER
 70
     0
  3

 72
    65
 73
     0
 40
0.0
  0
LTYPE
  5
1722
330
1712
100
AcDbSymbolTableRecord
100
AcDbLinetypeTableRecord
  2
CONTINUOUS
 70
     0
  3
Solid line
 72
    65
 73
     0
 40
0.0
  0
LTYPE
  5
177B
330
1712
100
AcDbSymbolTableRecord
100
AcDbLinetypeTableRecord
  2
CENTER
 70
     0
  3
Center ____ _ ____ _ ____ _ ____ _ ____ _ ____
 72
    65
 73
     4
 40
50.8
 49
31.75
 74
     0
 49
-6.349999999999999
 74
     0
 49
6.349999999999999
 74
     0
 49
-6.349999999999999
 74
     0
  0
LTYPE
  5
177C
330
1712
100
AcDbSymbolTableRecord
100
AcDbLinetypeTableRecord
  2
HIDDEN
 70
     0
  3
_ _ _ _ _ _ _ _ _ _ _ _ _ _ _ _ _ _ _ _ _ _ _
 72
    65
 73
     2
 40
0.375
 49
0.25
 74
     0
 49
-0.125
 74
     0
  0
LTYPE
  5
177D
330
1712
100
AcDbSymbolTableRecord
100
AcDbLinetypeTableRecord
  2
PHANTOM
 70
     0
  3
_____ _ _ _____ _ _ _____ _ _ _____ _ _ ____
 72
    65
 73
     6
 40
2.5
 49
1.25
 74
     0
 49
-0.25
 74
     0
 49
0.25
 74
     0
 49
-0.25
 74
     0
 49
0.25
 74
     0
 49
-0.25
 74
     0
  0
ENDTAB
  0
TABLE
  2
LAYER
  5
170F
330
0
100
AcDbSymbolTable
 70
     7
  0
LAYER
  5
171D
330
170F
100
AcDbSymbolTableRecord
100
AcDbLayerTableRecord
  2
0
 70
     0
 62
     7
  6
CONTINUOUS
  0
LAYER
  5
1781
330
170F
100
AcDbSymbolTableRecord
100
AcDbLayerTableRecord
  2
DIM
 70
     0
 62
     5
  6
CONTINUOUS
  0
LAYER
  5
1782
330
170F
100
AcDbSymbolTableRecord
100
AcDbLayerTableRecord
  2
DEFPOINTS
 70
     0
 62
     7
  6
CONTINUOUS
  0
LAYER
  5
1783
330
170F
100
AcDbSymbolTableRecord
100
AcDbLayerTableRecord
  2
CENTER
 70
     0
 62
     1
  6
CENTER
  0
LAYER
  5
178C
330
170F
100
AcDbSymbolTableRecord
100
AcDbLayerTableRecord
  2
LOGO
 70
     0
 62
     7
  6
CONTINUOUS
  0
LAYER
  5
178D
330
170F
100
AcDbSymbolTableRecord
100
AcDbLayerTableRecord
  2
HIDDEN
 70
     0
 62
     6
  6
HIDDEN
  0
LAYER
  5
1878
330
170F
100
AcDbSymbolTableRecord
100
AcDbLayerTableRecord
  2
圖層2
 70
     0
 62
     1
  6
CONTINUOUS
  0
ENDTAB
  0
TABLE
  2
STYLE
  5
1710
330
0
100
AcDbSymbolTable
 70
     4
  0
STYLE
  5
171E
330
1710
100
AcDbSymbolTableRecord
100
AcDbTextStyleTableRecord
  2
STANDARD
 70
     0
 40
0.0
 41
1.0
 50
0.0
 71
     0
 42
25.0
  3
txt
  4

  0
STYLE
  5
1779
330
1710
100
AcDbSymbolTableRecord
100
AcDbTextStyleTableRecord
  2
CHINESET
 70
     0
 40
0.0
 41
1.0
 50
0.0
 71
     0
 42
25.0
  3
simplex.shx
  4
chineset.shx
  0
STYLE
  5
178E
330
1710
100
AcDbSymbolTableRecord
100
AcDbTextStyleTableRecord
  2
LOGO
 70
     0
 40
0.0
 41
1.0
 50
0.0
 71
     0
 42
5.0
  3
LEI00DP.TTF
  4

1001
ACAD
1000
文鼎中粗隸
1071
    34865
  0
STYLE
  5
1879
330
1710
100
AcDbSymbolTableRecord
100
AcDbTextStyleTableRecord
  2
R
 70
     0
 40
0.0
 41
1.0
 50
0.0
 71
     0
 42
1.5
  3
r
  4

  0
ENDTAB
  0
TABLE
  2
VIEW
  5
1713
330
0
100
AcDbSymbolTable
 70
     0
  0
ENDTAB
  0
TABLE
  2
UCS
  5
1714
330
0
100
AcDbSymbolTable
 70
     0
  0
ENDTAB
  0
TABLE
  2
APPID
  5
1716
330
0
100
AcDbSymbolTable
 70
     1
  0
APPID
  5
171F
330
1716
100
AcDbSymbolTableRecord
100
AcDbRegAppTableRecord
  2
ACAD
 70
     0
  0
ENDTAB
  0
TABLE
  2
DIMSTYLE
  5
1717
330
0
100
AcDbSymbolTable
 70
     1
  0
DIMSTYLE
105
1780
102
{ACAD_REACTORS
330
1EC0
330
1ECD
330
1EDA
330
1EE7
330
1EF4
330
1F01
330
1F0E
330
1F1B
330
1F28
330
1F86
330
1F93
330
1FA1
330
1FAE
330
1FBC
330
1FC9
330
1FD6
330
1FE3
330
1FF0
330
1FFD
330
2013
102
}
330
1717
100
AcDbSymbolTableRecord
100
AcDbDimStyleTableRecord
  2
STANDARD
 70
     0
  3

  4

  5

  6

  7

 40
1.0
 41
3.0
 42
2.0
 43
8.0
 44
2.0
 45
0.0
 46
0.0
 47
0.0
 48
0.0
140
3.0
141
-2.5
142
0.0
143
0.0394
144
1.0
145
0.0
146
1.0
147
1.0
 71
     0
 72
     0
 73
     0
 74
     0
 75
     0
 76
     0
 77
     1
 78
     8
170
     0
171
     4
172
     0
173
     0
174
     0
175
     0
176
   256
177
   256
178
   256
270
     2
271
     2
272
     2
273
     2
274
     4
340
1779
275
     0
280
     0
281
     0
282
     0
283
     1
284
     8
285
     8
286
     8
287
     5
288
     0
  0
ENDTAB
  0
TABLE
  2
BLOCK_RECORD
  5
170E
330
0
100
AcDbSymbolTable
 70
    20
  0
BLOCK_RECORD
  5
172B
102
{ACAD_XDICTIONARY
360
1814
102
}
330
170E
100
AcDbSymbolTableRecord
100
AcDbBlockTableRecord
  2
*MODEL_SPACE
  0
BLOCK_RECORD
  5
1727
102
{ACAD_XDICTIONARY
360
1816
102
}
330
170E
100
AcDbSymbolTableRecord
100
AcDbBlockTableRecord
  2
*PAPER_SPACE
  0
BLOCK_RECORD
  5
1EC1
330
170E
100
AcDbSymbolTableRecord
100
AcDbBlockTableRecord
  2
*D0
  0
BLOCK_RECORD
  5
1ECE
330
170E
100
AcDbSymbolTableRecord
100
AcDbBlockTableRecord
  2
*D1
  0
BLOCK_RECORD
  5
1EDB
330
170E
100
AcDbSymbolTableRecord
100
AcDbBlockTableRecord
  2
*D2
  0
BLOCK_RECORD
  5
1EE8
330
170E
100
AcDbSymbolTableRecord
100
AcDbBlockTableRecord
  2
*D3
  0
BLOCK_RECORD
  5
1EF5
330
170E
100
AcDbSymbolTableRecord
100
AcDbBlockTableRecord
  2
*D4
  0
BLOCK_RECORD
  5
1F02
330
170E
100
AcDbSymbolTableRecord
100
AcDbBlockTableRecord
  2
*D5
  0
BLOCK_RECORD
  5
1F0F
330
170E
100
AcDbSymbolTableRecord
100
AcDbBlockTableRecord
  2
*D6
  0
BLOCK_RECORD
  5
1F1C
330
170E
100
AcDbSymbolTableRecord
100
AcDbBlockTableRecord
  2
*D7
  0
BLOCK_RECORD
  5
1F29
330
170E
100
AcDbSymbolTableRecord
100
AcDbBlockTableRecord
  2
*D8
  0
BLOCK_RECORD
  5
1F87
330
170E
100
AcDbSymbolTableRecord
100
AcDbBlockTableRecord
  2
*D9
  0
BLOCK_RECORD
  5
1F94
330
170E
100
AcDbSymbolTableRecord
100
AcDbBlockTableRecord
  2
*D10
  0
BLOCK_RECORD
  5
1FA2
330
170E
100
AcDbSymbolTableRecord
100
AcDbBlockTableRecord
  2
*D11
  0
BLOCK_RECORD
  5
1FAF
330
170E
100
AcDbSymbolTableRecord
100
AcDbBlockTableRecord
  2
*D12
  0
BLOCK_RECORD
  5
1FBD
330
170E
100
AcDbSymbolTableRecord
100
AcDbBlockTableRecord
  2
*D13
  0
BLOCK_RECORD
  5
1FCA
330
170E
100
AcDbSymbolTableRecord
100
AcDbBlockTableRecord
  2
*D14
  0
BLOCK_RECORD
  5
1FD7
330
170E
100
AcDbSymbolTableRecord
100
AcDbBlockTableRecord
  2
*D15
  0
BLOCK_RECORD
  5
1FE4
330
170E
100
AcDbSymbolTableRecord
100
AcDbBlockTableRecord
  2
*D16
  0
BLOCK_RECORD
  5
1FF1
330
170E
100
AcDbSymbolTableRecord
100
AcDbBlockTableRecord
  2
*D17
  0
BLOCK_RECORD
  5
1FFE
330
170E
100
AcDbSymbolTableRecord
100
AcDbBlockTableRecord
  2
*D18
  0
BLOCK_RECORD
  5
2014
330
170E
100
AcDbSymbolTableRecord
100
AcDbBlockTableRecord
  2
*D19
  0
ENDTAB
  0
ENDSEC
  0
SECTION
  2
BLOCKS
  0
BLOCK
  5
1786
330
172B
100
AcDbEntity
  8
0
100
AcDbBlockBegin
  2
*MODEL_SPACE
 70
     0
 10
0.0
 20
0.0
 30
0.0
  3
*MODEL_SPACE
  1

  0
ENDBLK
  5
1787
330
172B
100
AcDbEntity
  8
0
100
AcDbBlockEnd
  0
BLOCK
  5
1784
330
1727
100
AcDbEntity
 67
     1
  8
0
100
AcDbBlockBegin
  2
*PAPER_SPACE
 70
     0
 10
0.0
 20
0.0
 30
0.0
  3
*PAPER_SPACE
  1

  0
ENDBLK
  5
1785
330
1727
100
AcDbEntity
 67
     1
  8
0
100
AcDbBlockEnd
  0
BLOCK
  5
1ECB
330
1EC1
100
AcDbEntity
  8
0
100
AcDbBlockBegin
  2
*D0
 70
     1
 10
0.0
 20
0.0
 30
0.0
  3
*D0
  1

  0
LINE
  5
20BF
330
1EC1
100
AcDbEntity
  8
DIM
  6
BYBLOCK
100
AcDbLine
 10
-314.6182112501211
 20
301.4630403414944
 30
0.0
 11
-314.6182112501211
 21
315.2259320279417
 31
0.0
  0
LINE
  5
20C0
330
1EC1
100
AcDbEntity
  8
DIM
  6
BYBLOCK
100
AcDbLine
 10
-284.618211823829
 20
301.4630403414944
 30
0.0
 11
-284.618211823829
 21
315.2259320279417
 31
0.0
  0
LINE
  5
20C1
330
1EC1
100
AcDbEntity
  8
DIM
  6
BYBLOCK
100
AcDbLine
 10
-311.618211250121
 20
313.2259320279417
 30
0.0
 11
-287.618211823829
 21
313.2259320279417
 31
0.0
  0
SOLID
  5
20C2
330
1EC1
100
AcDbEntity
  8
DIM
  6
BYBLOCK
100
AcDbTrace
 10
-311.618211250121
 20
313.7259320279417
 30
0.0
 11
-311.618211250121
 21
312.7259320279417
 31
0.0
 12
-314.6182112501211
 22
313.2259320279417
 32
0.0
 13
-314.6182112501211
 23
313.2259320279417
 33
0.0
  0
SOLID
  5
20C3
330
1EC1
100
AcDbEntity
  8
DIM
  6
BYBLOCK
100
AcDbTrace
 10
-287.618211823829
 20
313.7259320279417
 30
0.0
 11
-287.618211823829
 21
312.7259320279417
 31
0.0
 12
-284.618211823829
 22
313.2259320279417
 32
0.0
 13
-284.618211823829
 23
313.2259320279417
 33
0.0
  0
MTEXT
  5
20C4
330
1EC1
100
AcDbEntity
  8
DIM
  6
BYBLOCK
100
AcDbMText
 10
-299.618211536975
 20
315.7259320279417
 30
0.0
 40
3.0
 41
0.0
 71
     5
 72
     1
  1
\A1;30
  7
CHINESET
1001
ACAD
1000
MTEXTBEGIN
1070
    73
1070
     1
1070
    44
1040
1.0
1070
    74
1070
     0
1000
MTEXTEND
  0
POINT
  5
20C5
330
1EC1
100
AcDbEntity
  8
DEFPOINTS
  6
BYBLOCK
 62
     0
100
AcDbPoint
 10
-314.6182112501211
 20
299.4630403414944
 30
0.0
  0
POINT
  5
20C6
330
1EC1
100
AcDbEntity
  8
DEFPOINTS
  6
BYBLOCK
 62
     0
100
AcDbPoint
 10
-284.618211823829
 20
299.4630403414944
 30
0.0
  0
POINT
  5
20C7
330
1EC1
100
AcDbEntity
  8
DEFPOINTS
  6
BYBLOCK
 62
     0
100
AcDbPoint
 10
-284.618211823829
 20
313.2259320279417
 30
0.0
  0
ENDBLK
  5
1ECC
330
1EC1
100
AcDbEntity
  8
0
100
AcDbBlockEnd
  0
BLOCK
  5
1ED8
330
1ECE
100
AcDbEntity
  8
0
100
AcDbBlockBegin
  2
*D1
 70
     1
 10
0.0
 20
0.0
 30
0.0
  3
*D1
  1

  0
LINE
  5
20C8
330
1ECE
100
AcDbEntity
  8
DIM
  6
BYBLOCK
100
AcDbLine
 10
-279.6182115369751
 20
309.9496717104814
 30
0.0
 11
-279.6182115369751
 21
324.9325352025449
 31
0.0
  0
LINE
  5
20C9
330
1ECE
100
AcDbEntity
  8
DIM
  6
BYBLOCK
100
AcDbLine
 10
-319.6182115369751
 20
309.9496717104814
 30
0.0
 11
-319.6182115369751
 21
324.9325352025449
 31
0.0
  0
LINE
  5
20CA
330
1ECE
100
AcDbEntity
  8
DIM
  6
BYBLOCK
100
AcDbLine
 10
-282.6182115369752
 20
322.9325352025449
 30
0.0
 11
-316.6182115369752
 21
322.9325352025449
 31
0.0
  0
SOLID
  5
20CB
330
1ECE
100
AcDbEntity
  8
DIM
  6
BYBLOCK
100
AcDbTrace
 10
-282.6182115369752
 20
323.4325352025449
 30
0.0
 11
-282.6182115369752
 21
322.4325352025449
 31
0.0
 12
-279.6182115369751
 22
322.9325352025449
 32
0.0
 13
-279.6182115369751
 23
322.9325352025449
 33
0.0
  0
SOLID
  5
20CC
330
1ECE
100
AcDbEntity
  8
DIM
  6
BYBLOCK
100
AcDbTrace
 10
-316.6182115369752
 20
323.4325352025449
 30
0.0
 11
-316.6182115369752
 21
322.4325352025449
 31
0.0
 12
-319.6182115369751
 22
322.9325352025449
 32
0.0
 13
-319.6182115369751
 23
322.9325352025449
 33
0.0
  0
MTEXT
  5
20CD
330
1ECE
100
AcDbEntity
  8
DIM
  6
BYBLOCK
100
AcDbMText
 10
-299.6182115369752
 20
325.4325352025449
 30
0.0
 40
3.0
 41
0.0
 71
     5
 72
     1
  1
\A1;40
  7
CHINESET
1001
ACAD
1000
MTEXTBEGIN
1070
    73
1070
     1
1070
    44
1040
1.0
1070
    74
1070
     0
1000
MTEXTEND
  0
POINT
  5
20CE
330
1ECE
100
AcDbEntity
  8
DEFPOINTS
  6
BYBLOCK
 62
     0
100
AcDbPoint
 10
-279.6182115369751
 20
307.9496717104814
 30
0.0
  0
POINT
  5
20CF
330
1ECE
100
AcDbEntity
  8
DEFPOINTS
  6
BYBLOCK
 62
     0
100
AcDbPoint
 10
-319.6182115369751
 20
307.9496717104814
 30
0.0
  0
POINT
  5
20D0
330
1ECE
100
AcDbEntity
  8
DEFPOINTS
  6
BYBLOCK
 62
     0
100
AcDbPoint
 10
-319.6182115369751
 20
322.9325352025449
 30
0.0
  0
ENDBLK
  5
1ED9
330
1ECE
100
AcDbEntity
  8
0
100
AcDbBlockEnd
  0
BLOCK
  5
1EE5
330
1EDB
100
AcDbEntity
  8
0
100
AcDbBlockBegin
  2
*D2
 70
     1
 10
0.0
 20
0.0
 30
0.0
  3
*D2
  1

  0
LINE
  5
20B6
330
1EDB
100
AcDbEntity
  8
DIM
100
AcDbLine
 10
-270.618211536975
 20
307.0937225041321
 30
0.0
 11
-270.618211536975
 21
334.6250780596877
 31
0.0
  0
LINE
  5
20B7
330
1EDB
100
AcDbEntity
  8
DIM
100
AcDbLine
 10
-328.6182115369751
 20
307.0937225041321
 30
0.0
 11
-328.6182115369751
 21
334.6250780596877
 31
0.0
  0
LINE
  5
20B8
330
1EDB
100
AcDbEntity
  8
DIM
100
AcDbLine
 10
-273.618211536975
 20
332.6250780596877
 30
0.0
 11
-325.6182115369751
 21
332.6250780596877
 31
0.0
  0
SOLID
  5
20B9
330
1EDB
100
AcDbEntity
  8
DIM
100
AcDbTrace
 10
-273.618211536975
 20
333.1250780596878
 30
0.0
 11
-273.618211536975
 21
332.1250780596877
 31
0.0
 12
-270.618211536975
 22
332.6250780596877
 32
0.0
 13
-270.618211536975
 23
332.6250780596877
 33
0.0
  0
SOLID
  5
20BA
330
1EDB
100
AcDbEntity
  8
DIM
100
AcDbTrace
 10
-325.6182115369751
 20
333.1250780596878
 30
0.0
 11
-325.6182115369751
 21
332.1250780596877
 31
0.0
 12
-328.6182115369751
 22
332.6250780596877
 32
0.0
 13
-328.6182115369751
 23
332.6250780596877
 33
0.0
  0
MTEXT
  5
20BB
330
1EDB
100
AcDbEntity
  8
DIM
100
AcDbMText
 10
-299.618211536975
 20
335.1250780596878
 30
0.0
 40
3.0
 41
0.0
 71
     5
 72
     1
  1
\A1;58
  7
CHINESET
1001
ACAD
1000
MTEXTBEGIN
1070
    73
1070
     1
1070
    44
1040
1.0
1070
    74
1070
     0
1000
MTEXTEND
  0
POINT
  5
20BC
330
1EDB
100
AcDbEntity
  8
DEFPOINTS
 62
     0
100
AcDbPoint
 10
-270.618211536975
 20
305.0937225041321
 30
0.0
  0
POINT
  5
20BD
330
1EDB
100
AcDbEntity
  8
DEFPOINTS
 62
     0
100
AcDbPoint
 10
-328.6182115369751
 20
305.0937225041321
 30
0.0
  0
POINT
  5
20BE
330
1EDB
100
AcDbEntity
  8
DEFPOINTS
 62
     0
100
AcDbPoint
 10
-328.6182115369751
 20
332.6250780596877
 30
0.0
  0
ENDBLK
  5
1EE6
330
1EDB
100
AcDbEntity
  8
0
100
AcDbBlockEnd
  0
BLOCK
  5
1EF2
330
1EE8
100
AcDbEntity
  8
0
100
AcDbBlockBegin
  2
*D3
 70
     1
 10
0.0
 20
0.0
 30
0.0
  3
*D3
  1

  0
LINE
  5
20D1
330
1EE8
100
AcDbEntity
  8
DIM
  6
BYBLOCK
100
AcDbLine
 10
-335.1182115369754
 20
249.093722504132
 30
0.0
 11
-335.1182115369754
 21
217.5454145676241
 31
0.0
  0
LINE
  5
20D2
330
1EE8
100
AcDbEntity
  8
DIM
  6
BYBLOCK
100
AcDbLine
 10
-299.618211536975
 20
224.0426399644495
 30
0.0
 11
-299.618211536975
 21
217.5454145676241
 31
0.0
  0
LINE
  5
20D3
330
1EE8
100
AcDbEntity
  8
DIM
  6
BYBLOCK
100
AcDbLine
 10
-332.1182115369754
 20
219.5454145676241
 30
0.0
 11
-302.6182115369751
 21
219.5454145676241
 31
0.0
  0
SOLID
  5
20D4
330
1EE8
100
AcDbEntity
  8
DIM
  6
BYBLOCK
100
AcDbTrace
 10
-332.1182115369754
 20
220.045414567624
 30
0.0
 11
-332.1182115369754
 21
219.0454145676241
 31
0.0
 12
-335.1182115369754
 22
219.5454145676241
 32
0.0
 13
-335.1182115369754
 23
219.5454145676241
 33
0.0
  0
SOLID
  5
20D5
330
1EE8
100
AcDbEntity
  8
DIM
  6
BYBLOCK
100
AcDbTrace
 10
-302.6182115369751
 20
220.045414567624
 30
0.0
 11
-302.6182115369751
 21
219.0454145676241
 31
0.0
 12
-299.618211536975
 22
219.5454145676241
 32
0.0
 13
-299.618211536975
 23
219.5454145676241
 33
0.0
  0
MTEXT
  5
20D6
330
1EE8
100
AcDbEntity
  8
DIM
  6
BYBLOCK
100
AcDbMText
 10
-317.3682115369752
 20
222.045414567624
 30
0.0
 40
3.0
 41
0.0
 71
     5
 72
     1
  1
\A1;35.5
  7
CHINESET
1001
ACAD
1000
MTEXTBEGIN
1070
    73
1070
     1
1070
    44
1040
1.0
1070
    74
1070
     0
1000
MTEXTEND
  0
POINT
  5
20D7
330
1EE8
100
AcDbEntity
  8
DEFPOINTS
  6
BYBLOCK
 62
     0
100
AcDbPoint
 10
-335.1182115369754
 20
251.093722504132
 30
0.0
  0
POINT
  5
20D8
330
1EE8
100
AcDbEntity
  8
DEFPOINTS
  6
BYBLOCK
 62
     0
100
AcDbPoint
 10
-299.618211536975
 20
226.0426399644495
 30
0.0
  0
POINT
  5
20D9
330
1EE8
100
AcDbEntity
  8
DEFPOINTS
  6
BYBLOCK
 62
     0
100
AcDbPoint
 10
-299.618211536975
 20
219.5454145676241
 30
0.0
  0
ENDBLK
  5
1EF3
330
1EE8
100
AcDbEntity
  8
0
100
AcDbBlockEnd
  0
BLOCK
  5
1EFF
330
1EF5
100
AcDbEntity
  8
0
100
AcDbBlockBegin
  2
*D4
 70
     1
 10
0.0
 20
0.0
 30
0.0
  3
*D4
  1

  0
LINE
  5
20DA
330
1EF5
100
AcDbEntity
  8
DIM
  6
BYBLOCK
100
AcDbLine
 10
-299.618211536975
 20
224.0426399644495
 30
0.0
 11
-299.618211536975
 21
217.5454145676241
 31
0.0
  0
LINE
  5
20DB
330
1EF5
100
AcDbEntity
  8
DIM
  6
BYBLOCK
100
AcDbLine
 10
-259.118211536975
 20
249.093722504132
 30
0.0
 11
-259.118211536975
 21
217.5454145676241
 31
0.0
  0
LINE
  5
20DC
330
1EF5
100
AcDbEntity
  8
DIM
  6
BYBLOCK
100
AcDbLine
 10
-296.618211536975
 20
219.5454145676241
 30
0.0
 11
-262.118211536975
 21
219.5454145676241
 31
0.0
  0
SOLID
  5
20DD
330
1EF5
100
AcDbEntity
  8
DIM
  6
BYBLOCK
100
AcDbTrace
 10
-296.618211536975
 20
220.045414567624
 30
0.0
 11
-296.618211536975
 21
219.0454145676241
 31
0.0
 12
-299.618211536975
 22
219.5454145676241
 32
0.0
 13
-299.618211536975
 23
219.5454145676241
 33
0.0
  0
SOLID
  5
20DE
330
1EF5
100
AcDbEntity
  8
DIM
  6
BYBLOCK
100
AcDbTrace
 10
-262.118211536975
 20
220.045414567624
 30
0.0
 11
-262.118211536975
 21
219.0454145676241
 31
0.0
 12
-259.118211536975
 22
219.5454145676241
 32
0.0
 13
-259.118211536975
 23
219.5454145676241
 33
0.0
  0
MTEXT
  5
20DF
330
1EF5
100
AcDbEntity
  8
DIM
  6
BYBLOCK
100
AcDbMText
 10
-279.3682115369751
 20
222.045414567624
 30
0.0
 40
3.0
 41
0.0
 71
     5
 72
     1
  1
\A1;40.5
  7
CHINESET
1001
ACAD
1000
MTEXTBEGIN
1070
    73
1070
     1
1070
    44
1040
1.0
1070
    74
1070
     0
1000
MTEXTEND
  0
POINT
  5
20E0
330
1EF5
100
AcDbEntity
  8
DEFPOINTS
  6
BYBLOCK
 62
     0
100
AcDbPoint
 10
-299.618211536975
 20
226.0426399644495
 30
0.0
  0
POINT
  5
20E1
330
1EF5
100
AcDbEntity
  8
DEFPOINTS
  6
BYBLOCK
 62
     0
100
AcDbPoint
 10
-259.118211536975
 20
251.093722504132
 30
0.0
  0
POINT
  5
20E2
330
1EF5
100
AcDbEntity
  8
DEFPOINTS
  6
BYBLOCK
 62
     0
100
AcDbPoint
 10
-259.118211536975
 20
219.5454145676241
 30
0.0
  0
ENDBLK
  5
1F00
330
1EF5
100
AcDbEntity
  8
0
100
AcDbBlockEnd
  0
BLOCK
  5
1F0C
330
1F02
100
AcDbEntity
  8
0
100
AcDbBlockBegin
  2
*D5
 70
     1
 10
0.0
 20
0.0
 30
0.0
  3
*D5
  1

  0
LINE
  5
20A4
330
1F02
100
AcDbEntity
  8
DIM
  6
BYBLOCK
100
AcDbLine
 10
-258.118211536975
 20
250.093722504132
 30
0.0
 11
-243.2011670925307
 21
250.093722504132
 31
0.0
  0
LINE
  5
20A5
330
1F02
100
AcDbEntity
  8
DIM
  6
BYBLOCK
100
AcDbLine
 10
-258.118211536975
 20
280.0937225041321
 30
0.0
 11
-243.2011670925307
 21
280.0937225041321
 31
0.0
  0
LINE
  5
20A6
330
1F02
100
AcDbEntity
  8
DIM
  6
BYBLOCK
100
AcDbLine
 10
-245.2011670925307
 20
253.093722504132
 30
0.0
 11
-245.2011670925307
 21
277.0937225041322
 31
0.0
  0
SOLID
  5
20A7
330
1F02
100
AcDbEntity
  8
DIM
  6
BYBLOCK
100
AcDbTrace
 10
-245.7011670925307
 20
253.093722504132
 30
0.0
 11
-244.7011670925307
 21
253.093722504132
 31
0.0
 12
-245.2011670925307
 22
250.093722504132
 32
0.0
 13
-245.2011670925307
 23
250.093722504132
 33
0.0
  0
SOLID
  5
20A8
330
1F02
100
AcDbEntity
  8
DIM
  6
BYBLOCK
100
AcDbTrace
 10
-245.7011670925307
 20
277.0937225041322
 30
0.0
 11
-244.7011670925307
 21
277.0937225041322
 31
0.0
 12
-245.2011670925307
 22
280.0937225041321
 32
0.0
 13
-245.2011670925307
 23
280.0937225041321
 33
0.0
  0
MTEXT
  5
20A9
330
1F02
100
AcDbEntity
  8
DIM
  6
BYBLOCK
100
AcDbMText
 10
-247.7011670925307
 20
265.0937225041321
 30
0.0
 40
3.0
 41
0.0
 71
     5
 72
     1
  1
\A1;30
  7
CHINESET
 11
0.0000000000000001
 21
1.0
 31
0.0
1001
ACAD
1000
MTEXTBEGIN
1070
    73
1070
     1
1070
    44
1040
1.0
1070
    74
1070
     0
1000
MTEXTEND
  0
POINT
  5
20AA
330
1F02
100
AcDbEntity
  8
DEFPOINTS
  6
BYBLOCK
 62
     0
100
AcDbPoint
 10
-260.118211536975
 20
250.093722504132
 30
0.0
  0
POINT
  5
20AB
330
1F02
100
AcDbEntity
  8
DEFPOINTS
  6
BYBLOCK
 62
     0
100
AcDbPoint
 10
-260.118211536975
 20
280.0937225041321
 30
0.0
  0
POINT
  5
20AC
330
1F02
100
AcDbEntity
  8
DEFPOINTS
  6
BYBLOCK
 62
     0
100
AcDbPoint
 10
-245.2011670925307
 20
280.0937225041321
 30
0.0
  0
ENDBLK
  5
1F0D
330
1F02
100
AcDbEntity
  8
0
100
AcDbBlockEnd
  0
BLOCK
  5
1F19
330
1F0F
100
AcDbEntity
  8
0
100
AcDbBlockBegin
  2
*D6
 70
     1
 10
0.0
 20
0.0
 30
0.0
  3
*D6
  1

  0
LINE
  5
20AD
330
1F0F
100
AcDbEntity
  8
DIM
  6
BYBLOCK
100
AcDbLine
 10
-286.7882115369752
 20
236.593722504132
 30
0.0
 11
-231.7025416957052
 21
236.593722504132
 31
0.0
  0
LINE
  5
20AE
330
1F0F
100
AcDbEntity
  8
DIM
  6
BYBLOCK
100
AcDbLine
 10
-286.7882115369752
 20
293.5937225041321
 30
0.0
 11
-231.7025416957052
 21
293.5937225041321
 31
0.0
  0
LINE
  5
20AF
330
1F0F
100
AcDbEntity
  8
DIM
  6
BYBLOCK
100
AcDbLine
 10
-233.7025416957052
 20
239.593722504132
 30
0.0
 11
-233.7025416957052
 21
290.5937225041321
 31
0.0
  0
SOLID
  5
20B0
330
1F0F
100
AcDbEntity
  8
DIM
  6
BYBLOCK
100
AcDbTrace
 10
-234.2025416957052
 20
239.593722504132
 30
0.0
 11
-233.2025416957052
 21
239.593722504132
 31
0.0
 12
-233.7025416957052
 22
236.593722504132
 32
0.0
 13
-233.7025416957052
 23
236.593722504132
 33
0.0
  0
SOLID
  5
20B1
330
1F0F
100
AcDbEntity
  8
DIM
  6
BYBLOCK
100
AcDbTrace
 10
-234.2025416957052
 20
290.5937225041321
 30
0.0
 11
-233.2025416957052
 21
290.5937225041321
 31
0.0
 12
-233.7025416957052
 22
293.5937225041321
 32
0.0
 13
-233.7025416957052
 23
293.5937225041321
 33
0.0
  0
MTEXT
  5
20B2
330
1F0F
100
AcDbEntity
  8
DIM
  6
BYBLOCK
100
AcDbMText
 10
-236.2025416957052
 20
265.0937225041321
 30
0.0
 40
3.0
 41
0.0
 71
     5
 72
     1
  1
\A1;57
  7
CHINESET
 11
0.0000000000000001
 21
1.0
 31
0.0
1001
ACAD
1000
MTEXTBEGIN
1070
    73
1070
     1
1070
    44
1040
1.0
1070
    74
1070
     0
1000
MTEXTEND
  0
POINT
  5
20B3
330
1F0F
100
AcDbEntity
  8
DEFPOINTS
  6
BYBLOCK
 62
     0
100
AcDbPoint
 10
-288.7882115369752
 20
236.593722504132
 30
0.0
  0
POINT
  5
20B4
330
1F0F
100
AcDbEntity
  8
DEFPOINTS
  6
BYBLOCK
 62
     0
100
AcDbPoint
 10
-288.7882115369752
 20
293.5937225041321
 30
0.0
  0
POINT
  5
20B5
330
1F0F
100
AcDbEntity
  8
DEFPOINTS
  6
BYBLOCK
 62
     0
100
AcDbPoint
 10
-233.7025416957052
 20
293.5937225041321
 30
0.0
  0
ENDBLK
  5
1F1A
330
1F0F
100
AcDbEntity
  8
0
100
AcDbBlockEnd
  0
BLOCK
  5
1F26
330
1F1C
100
AcDbEntity
  8
0
100
AcDbBlockBegin
  2
*D7
 70
     1
 10
0.0
 20
0.0
 30
0.0
  3
*D7
  1

  0
LINE
  5
20E3
330
1F1C
100
AcDbEntity
  8
DIM
  6
BYBLOCK
100
AcDbLine
 10
-259.118211536975
 20
249.093722504132
 30
0.0
 11
-259.118211536975
 21
205.8335923454018
 31
0.0
  0
LINE
  5
20E4
330
1F1C
100
AcDbEntity
  8
DIM
  6
BYBLOCK
100
AcDbLine
 10
-335.1182115369754
 20
249.093722504132
 30
0.0
 11
-335.1182115369754
 21
205.8335923454018
 31
0.0
  0
LINE
  5
20E5
330
1F1C
100
AcDbEntity
  8
DIM
  6
BYBLOCK
100
AcDbLine
 10
-262.118211536975
 20
207.8335923454018
 30
0.0
 11
-332.1182115369754
 21
207.8335923454018
 31
0.0
  0
SOLID
  5
20E6
330
1F1C
100
AcDbEntity
  8
DIM
  6
BYBLOCK
100
AcDbTrace
 10
-262.118211536975
 20
208.3335923454018
 30
0.0
 11
-262.118211536975
 21
207.3335923454018
 31
0.0
 12
-259.118211536975
 22
207.8335923454018
 32
0.0
 13
-259.118211536975
 23
207.8335923454018
 33
0.0
  0
SOLID
  5
20E7
330
1F1C
100
AcDbEntity
  8
DIM
  6
BYBLOCK
100
AcDbTrace
 10
-332.1182115369754
 20
208.3335923454018
 30
0.0
 11
-332.1182115369754
 21
207.3335923454018
 31
0.0
 12
-335.1182115369754
 22
207.8335923454018
 32
0.0
 13
-335.1182115369754
 23
207.8335923454018
 33
0.0
  0
MTEXT
  5
20E8
330
1F1C
100
AcDbEntity
  8
DIM
  6
BYBLOCK
100
AcDbMText
 10
-297.1182115369752
 20
210.3335923454018
 30
0.0
 40
3.0
 41
0.0
 71
     5
 72
     1
  1
\A1;76
  7
CHINESET
1001
ACAD
1000
MTEXTBEGIN
1070
    73
1070
     1
1070
    44
1040
1.0
1070
    74
1070
     0
1000
MTEXTEND
  0
POINT
  5
20E9
330
1F1C
100
AcDbEntity
  8
DEFPOINTS
  6
BYBLOCK
 62
     0
100
AcDbPoint
 10
-259.118211536975
 20
251.093722504132
 30
0.0
  0
POINT
  5
20EA
330
1F1C
100
AcDbEntity
  8
DEFPOINTS
  6
BYBLOCK
 62
     0
100
AcDbPoint
 10
-335.1182115369754
 20
251.093722504132
 30
0.0
  0
POINT
  5
20EB
330
1F1C
100
AcDbEntity
  8
DEFPOINTS
  6
BYBLOCK
 62
     0
100
AcDbPoint
 10
-335.1182115369754
 20
207.8335923454018
 30
0.0
  0
ENDBLK
  5
1F27
330
1F1C
100
AcDbEntity
  8
0
100
AcDbBlockEnd
  0
BLOCK
  5
1F33
330
1F29
100
AcDbEntity
  8
0
100
AcDbBlockBegin
  2
*D8
 70
     1
 10
0.0
 20
0.0
 30
0.0
  3
*D8
  1

  0
LINE
  5
20FF
330
1F29
100
AcDbEntity
  8
DIM
  6
BYBLOCK
100
AcDbLine
 10
-131.0741956639589
 20
143.8732552107412
 30
0.0
 11
-131.0741956639589
 21
187.9358038792334
 31
0.0
  0
LINE
  5
2100
330
1F29
100
AcDbEntity
  8
DIM
  6
BYBLOCK
100
AcDbLine
 10
-171.0741956639589
 20
175.8732552107412
 30
0.0
 11
-171.0741956639589
 21
187.9358038792334
 31
0.0
  0
LINE
  5
2101
330
1F29
100
AcDbEntity
  8
DIM
  6
BYBLOCK
100
AcDbLine
 10
-134.0741956639589
 20
185.9358038792334
 30
0.0
 11
-168.0741956639589
 21
185.9358038792334
 31
0.0
  0
SOLID
  5
2102
330
1F29
100
AcDbEntity
  8
DIM
  6
BYBLOCK
100
AcDbTrace
 10
-134.0741956639589
 20
186.4358038792334
 30
0.0
 11
-134.0741956639589
 21
185.4358038792334
 31
0.0
 12
-131.0741956639589
 22
185.9358038792334
 32
0.0
 13
-131.0741956639589
 23
185.9358038792334
 33
0.0
  0
SOLID
  5
2103
330
1F29
100
AcDbEntity
  8
DIM
  6
BYBLOCK
100
AcDbTrace
 10
-168.0741956639589
 20
186.4358038792334
 30
0.0
 11
-168.0741956639589
 21
185.4358038792334
 31
0.0
 12
-171.0741956639589
 22
185.9358038792334
 32
0.0
 13
-171.0741956639589
 23
185.9358038792334
 33
0.0
  0
MTEXT
  5
2104
330
1F29
100
AcDbEntity
  8
DIM
  6
BYBLOCK
100
AcDbMText
 10
-151.0741956639589
 20
188.4358038792334
 30
0.0
 40
3.0
 41
0.0
 71
     5
 72
     1
  1
\A1;40
  7
CHINESET
1001
ACAD
1000
MTEXTBEGIN
1070
    73
1070
     1
1070
    44
1040
1.0
1070
    74
1070
     0
1000
MTEXTEND
  0
POINT
  5
2105
330
1F29
100
AcDbEntity
  8
DEFPOINTS
  6
BYBLOCK
 62
     0
100
AcDbPoint
 10
-131.0741956639589
 20
141.8732552107412
 30
0.0
  0
POINT
  5
2106
330
1F29
100
AcDbEntity
  8
DEFPOINTS
  6
BYBLOCK
 62
     0
100
AcDbPoint
 10
-171.0741956639589
 20
173.8732552107412
 30
0.0
  0
POINT
  5
2107
330
1F29
100
AcDbEntity
  8
DEFPOINTS
  6
BYBLOCK
 62
     0
100
AcDbPoint
 10
-171.0741956639589
 20
185.9358038792334
 30
0.0
  0
ENDBLK
  5
1F34
330
1F29
100
AcDbEntity
  8
0
100
AcDbBlockEnd
  0
BLOCK
  5
1F91
330
1F87
100
AcDbEntity
  8
0
100
AcDbBlockBegin
  2
*D9
 70
     1
 10
0.0
 20
0.0
 30
0.0
  3
*D9
  1

  0
LINE
  5
20F6
330
1F87
100
AcDbEntity
  8
DIM
  6
BYBLOCK
100
AcDbLine
 10
-171.0741956639589
 20
175.8732552107412
 30
0.0
 11
-171.0741956639589
 21
187.3325351771782
 31
0.0
  0
LINE
  5
20F7
330
1F87
100
AcDbEntity
  8
DIM
  6
BYBLOCK
100
AcDbLine
 10
-230.2336559814194
 20
126.3732552107411
 30
0.0
 11
-230.2336559814194
 21
187.3325351771782
 31
0.0
  0
LINE
  5
20F8
330
1F87
100
AcDbEntity
  8
DIM
  6
BYBLOCK
100
AcDbLine
 10
-174.0741956639588
 20
185.3325351771782
 30
0.0
 11
-227.2336559814194
 21
185.3325351771782
 31
0.0
  0
SOLID
  5
20F9
330
1F87
100
AcDbEntity
  8
DIM
  6
BYBLOCK
100
AcDbTrace
 10
-174.0741956639588
 20
185.8325351771782
 30
0.0
 11
-174.0741956639588
 21
184.8325351771782
 31
0.0
 12
-171.0741956639589
 22
185.3325351771782
 32
0.0
 13
-171.0741956639589
 23
185.3325351771782
 33
0.0
  0
SOLID
  5
20FA
330
1F87
100
AcDbEntity
  8
DIM
  6
BYBLOCK
100
AcDbTrace
 10
-227.2336559814194
 20
185.8325351771782
 30
0.0
 11
-227.2336559814194
 21
184.8325351771782
 31
0.0
 12
-230.2336559814194
 22
185.3325351771782
 32
0.0
 13
-230.2336559814194
 23
185.3325351771782
 33
0.0
  0
MTEXT
  5
20FB
330
1F87
100
AcDbEntity
  8
DIM
  6
BYBLOCK
100
AcDbMText
 10
-200.6539258226891
 20
187.8325351771782
 30
0.0
 40
3.0
 41
0.0
 71
     5
 72
     1
  1
\A1;59.16
  7
CHINESET
1001
ACAD
1000
MTEXTBEGIN
1070
    73
1070
     1
1070
    44
1040
1.0
1070
    74
1070
     0
1000
MTEXTEND
  0
POINT
  5
20FC
330
1F87
100
AcDbEntity
  8
DEFPOINTS
  6
BYBLOCK
 62
     0
100
AcDbPoint
 10
-171.0741956639589
 20
173.8732552107412
 30
0.0
  0
POINT
  5
20FD
330
1F87
100
AcDbEntity
  8
DEFPOINTS
  6
BYBLOCK
 62
     0
100
AcDbPoint
 10
-230.2336559814194
 20
124.3732552107411
 30
0.0
  0
POINT
  5
20FE
330
1F87
100
AcDbEntity
  8
DEFPOINTS
  6
BYBLOCK
 62
     0
100
AcDbPoint
 10
-230.2336559814194
 20
185.3325351771782
 30
0.0
  0
ENDBLK
  5
1F92
330
1F87
100
AcDbEntity
  8
0
100
AcDbBlockEnd
  0
BLOCK
  5
1F9F
330
1F94
100
AcDbEntity
  8
0
100
AcDbBlockBegin
  2
*D10
 70
     1
 10
0.0
 20
0.0
 30
0.0
  3
*D10
  1

  0
LINE
  5
20EC
330
1F94
100
AcDbEntity
  8
DIM
  6
BYBLOCK
100
AcDbLine
 10
-129.0741956639589
 20
141.8732552107412
 30
0.0
 11
-117.456033759197
 21
141.8732552107412
 31
0.0
  0
LINE
  5
20ED
330
1F94
100
AcDbEntity
  8
DIM
  6
BYBLOCK
100
AcDbLine
 10
-127.3945416957047
 20
133.8732552107412
 30
0.0
 11
-117.456033759197
 21
133.8732552107412
 31
0.0
  0
LINE
  5
20EE
330
1F94
100
AcDbEntity
  8
DIM
  6
BYBLOCK
100
AcDbLine
 10
-119.456033759197
 20
144.8732552107412
 30
0.0
 11
-119.456033759197
 21
147.8732552107412
 31
0.0
  0
LINE
  5
20EF
330
1F94
100
AcDbEntity
  8
DIM
  6
BYBLOCK
100
AcDbLine
 10
-119.456033759197
 20
130.8732552107412
 30
0.0
 11
-119.456033759197
 21
127.8732552107411
 31
0.0
  0
SOLID
  5
20F0
330
1F94
100
AcDbEntity
  8
DIM
  6
BYBLOCK
100
AcDbTrace
 10
-119.956033759197
 20
144.8732552107412
 30
0.0
 11
-118.956033759197
 21
144.8732552107412
 31
0.0
 12
-119.456033759197
 22
141.8732552107412
 32
0.0
 13
-119.456033759197
 23
141.8732552107412
 33
0.0
  0
SOLID
  5
20F1
330
1F94
100
AcDbEntity
  8
DIM
  6
BYBLOCK
100
AcDbTrace
 10
-119.956033759197
 20
130.8732552107412
 30
0.0
 11
-118.956033759197
 21
130.8732552107412
 31
0.0
 12
-119.456033759197
 22
133.8732552107412
 32
0.0
 13
-119.456033759197
 23
133.8732552107412
 33
0.0
  0
MTEXT
  5
20F2
330
1F94
100
AcDbEntity
  8
DIM
  6
BYBLOCK
100
AcDbMText
 10
-121.956033759197
 20
137.8732552107411
 30
0.0
 40
3.0
 41
0.0
 71
     5
 72
     1
  1
\A1;8
  7
CHINESET
 11
0.0000000000000001
 21
1.0
 31
0.0
1001
ACAD
1000
MTEXTBEGIN
1070
    73
1070
     1
1070
    44
1040
1.0
1070
    74
1070
     0
1000
MTEXTEND
  0
POINT
  5
20F3
330
1F94
100
AcDbEntity
  8
DEFPOINTS
  6
BYBLOCK
 62
     0
100
AcDbPoint
 10
-131.0741956639589
 20
141.8732552107412
 30
0.0
  0
POINT
  5
20F4
330
1F94
100
AcDbEntity
  8
DEFPOINTS
  6
BYBLOCK
 62
     0
100
AcDbPoint
 10
-129.3945416957047
 20
133.8732552107412
 30
0.0
  0
POINT
  5
20F5
330
1F94
100
AcDbEntity
  8
DEFPOINTS
  6
BYBLOCK
 62
     0
100
AcDbPoint
 10
-119.456033759197
 20
133.8732552107412
 30
0.0
  0
ENDBLK
  5
1FA0
330
1F94
100
AcDbEntity
  8
0
100
AcDbBlockEnd
  0
BLOCK
  5
1FAC
330
1FA2
100
AcDbEntity
  8
0
100
AcDbBlockBegin
  2
*D11
 70
     1
 10
0.0
 20
0.0
 30
0.0
  3
*D11
  1

  0
LINE
  5
206C
330
1FA2
100
AcDbEntity
  8
DIM
  6
BYBLOCK
100
AcDbLine
 10
-127.3945416957047
 20
133.8732552107412
 30
0.0
 11
-117.456033759197
 21
133.8732552107412
 31
0.0
  0
LINE
  5
206D
330
1FA2
100
AcDbEntity
  8
DIM
  6
BYBLOCK
100
AcDbLine
 10
-137.1160242353874
 20
102.873255210741
 30
0.0
 11
-117.456033759197
 21
102.873255210741
 31
0.0
  0
LINE
  5
206E
330
1FA2
100
AcDbEntity
  8
DIM
  6
BYBLOCK
100
AcDbLine
 10
-119.456033759197
 20
130.8732552107412
 30
0.0
 11
-119.456033759197
 21
105.873255210741
 31
0.0
  0
SOLID
  5
206F
330
1FA2
100
AcDbEntity
  8
DIM
  6
BYBLOCK
100
AcDbTrace
 10
-119.956033759197
 20
130.8732552107412
 30
0.0
 11
-118.956033759197
 21
130.8732552107412
 31
0.0
 12
-119.456033759197
 22
133.8732552107412
 32
0.0
 13
-119.456033759197
 23
133.8732552107412
 33
0.0
  0
SOLID
  5
2070
330
1FA2
100
AcDbEntity
  8
DIM
  6
BYBLOCK
100
AcDbTrace
 10
-119.956033759197
 20
105.873255210741
 30
0.0
 11
-118.956033759197
 21
105.873255210741
 31
0.0
 12
-119.456033759197
 22
102.873255210741
 32
0.0
 13
-119.456033759197
 23
102.873255210741
 33
0.0
  0
MTEXT
  5
2071
330
1FA2
100
AcDbEntity
  8
DIM
  6
BYBLOCK
100
AcDbMText
 10
-121.956033759197
 20
118.3732552107411
 30
0.0
 40
3.0
 41
0.0
 71
     5
 72
     1
  1
\A1;31
  7
CHINESET
 11
0.0000000000000001
 21
1.0
 31
0.0
1001
ACAD
1000
MTEXTBEGIN
1070
    73
1070
     1
1070
    44
1040
1.0
1070
    74
1070
     0
1000
MTEXTEND
  0
POINT
  5
2072
330
1FA2
100
AcDbEntity
  8
DEFPOINTS
  6
BYBLOCK
 62
     0
100
AcDbPoint
 10
-129.3945416957047
 20
133.8732552107412
 30
0.0
  0
POINT
  5
2073
330
1FA2
100
AcDbEntity
  8
DEFPOINTS
  6
BYBLOCK
 62
     0
100
AcDbPoint
 10
-139.1160242353874
 20
102.873255210741
 30
0.0
  0
POINT
  5
2074
330
1FA2
100
AcDbEntity
  8
DEFPOINTS
  6
BYBLOCK
 62
     0
100
AcDbPoint
 10
-119.456033759197
 20
102.873255210741
 30
0.0
  0
ENDBLK
  5
1FAD
330
1FA2
100
AcDbEntity
  8
0
100
AcDbBlockEnd
  0
BLOCK
  5
1FBA
330
1FAF
100
AcDbEntity
  8
0
100
AcDbBlockBegin
  2
*D12
 70
     1
 10
0.0
 20
0.0
 30
0.0
  3
*D12
  1

  0
LINE
  5
207E
330
1FAF
100
AcDbEntity
  8
DIM
  6
BYBLOCK
100
AcDbLine
 10
-137.1160242353874
 20
102.873255210741
 30
0.0
 11
-117.456033759197
 21
102.873255210741
 31
0.0
  0
LINE
  5
207F
330
1FAF
100
AcDbEntity
  8
DIM
  6
BYBLOCK
100
AcDbLine
 10
-130.5741956639588
 20
96.87325521074109
 30
0.0
 11
-117.456033759197
 21
96.87325521074109
 31
0.0
  0
LINE
  5
2080
330
1FAF
100
AcDbEntity
  8
DIM
  6
BYBLOCK
100
AcDbLine
 10
-119.456033759197
 20
105.873255210741
 30
0.0
 11
-119.456033759197
 21
108.873255210741
 31
0.0
  0
LINE
  5
2081
330
1FAF
100
AcDbEntity
  8
DIM
  6
BYBLOCK
100
AcDbLine
 10
-119.456033759197
 20
93.87325521074108
 30
0.0
 11
-119.456033759197
 21
90.87325521074109
 31
0.0
  0
SOLID
  5
2082
330
1FAF
100
AcDbEntity
  8
DIM
  6
BYBLOCK
100
AcDbTrace
 10
-119.956033759197
 20
105.873255210741
 30
0.0
 11
-118.956033759197
 21
105.873255210741
 31
0.0
 12
-119.456033759197
 22
102.873255210741
 32
0.0
 13
-119.456033759197
 23
102.873255210741
 33
0.0
  0
SOLID
  5
2083
330
1FAF
100
AcDbEntity
  8
DIM
  6
BYBLOCK
100
AcDbTrace
 10
-119.956033759197
 20
93.87325521074108
 30
0.0
 11
-118.956033759197
 21
93.87325521074108
 31
0.0
 12
-119.456033759197
 22
96.87325521074109
 32
0.0
 13
-119.456033759197
 23
96.87325521074109
 33
0.0
  0
MTEXT
  5
2084
330
1FAF
100
AcDbEntity
  8
DIM
  6
BYBLOCK
100
AcDbMText
 10
-121.956033759197
 20
99.87325521074108
 30
0.0
 40
3.0
 41
0.0
 71
     5
 72
     1
  1
\A1;6
  7
CHINESET
 11
0.0000000000000001
 21
1.0
 31
0.0
1001
ACAD
1000
MTEXTBEGIN
1070
    73
1070
     1
1070
    44
1040
1.0
1070
    74
1070
     0
1000
MTEXTEND
  0
POINT
  5
2085
330
1FAF
100
AcDbEntity
  8
DEFPOINTS
  6
BYBLOCK
 62
     0
100
AcDbPoint
 10
-139.1160242353874
 20
102.873255210741
 30
0.0
  0
POINT
  5
2086
330
1FAF
100
AcDbEntity
  8
DEFPOINTS
  6
BYBLOCK
 62
     0
100
AcDbPoint
 10
-132.5741956639588
 20
96.87325521074109
 30
0.0
  0
POINT
  5
2087
330
1FAF
100
AcDbEntity
  8
DEFPOINTS
  6
BYBLOCK
 62
     0
100
AcDbPoint
 10
-119.456033759197
 20
96.87325521074109
 30
0.0
  0
ENDBLK
  5
1FBB
330
1FAF
100
AcDbEntity
  8
0
100
AcDbBlockEnd
  0
BLOCK
  5
1FC7
330
1FBD
100
AcDbEntity
  8
0
100
AcDbBlockBegin
  2
*D13
 70
     1
 10
0.0
 20
0.0
 30
0.0
  3
*D13
  1

  0
LINE
  5
2063
330
1FBD
100
AcDbEntity
  8
DIM
  6
BYBLOCK
100
AcDbLine
 10
-152.6195924893556
 20
172.3732552107412
 30
0.0
 11
-103.9307861401492
 21
172.3732552107412
 31
0.0
  0
LINE
  5
2064
330
1FBD
100
AcDbEntity
  8
DIM
  6
BYBLOCK
100
AcDbLine
 10
-137.1160242353874
 20
102.873255210741
 30
0.0
 11
-103.9307861401493
 21
102.873255210741
 31
0.0
  0
LINE
  5
2065
330
1FBD
100
AcDbEntity
  8
DIM
  6
BYBLOCK
100
AcDbLine
 10
-105.9307861401492
 20
169.3732552107412
 30
0.0
 11
-105.9307861401493
 21
105.873255210741
 31
0.0
  0
SOLID
  5
2066
330
1FBD
100
AcDbEntity
  8
DIM
  6
BYBLOCK
100
AcDbTrace
 10
-106.4307861401492
 20
169.3732552107412
 30
0.0
 11
-105.4307861401492
 21
169.3732552107412
 31
0.0
 12
-105.9307861401492
 22
172.3732552107412
 32
0.0
 13
-105.9307861401492
 23
172.3732552107412
 33
0.0
  0
SOLID
  5
2067
330
1FBD
100
AcDbEntity
  8
DIM
  6
BYBLOCK
100
AcDbTrace
 10
-106.4307861401492
 20
105.873255210741
 30
0.0
 11
-105.4307861401492
 21
105.873255210741
 31
0.0
 12
-105.9307861401493
 22
102.873255210741
 32
0.0
 13
-105.9307861401493
 23
102.873255210741
 33
0.0
  0
MTEXT
  5
2068
330
1FBD
100
AcDbEntity
  8
DIM
  6
BYBLOCK
100
AcDbMText
 10
-108.4307861401493
 20
137.6232552107411
 30
0.0
 40
3.0
 41
0.0
 71
     5
 72
     1
  1
\A1;69.5
  7
CHINESET
 11
0.0000000000000001
 21
1.0
 31
0.0
1001
ACAD
1000
MTEXTBEGIN
1070
    73
1070
     1
1070
    44
1040
1.0
1070
    74
1070
     0
1000
MTEXTEND
  0
POINT
  5
2069
330
1FBD
100
AcDbEntity
  8
DEFPOINTS
  6
BYBLOCK
 62
     0
100
AcDbPoint
 10
-154.6195924893556
 20
172.3732552107412
 30
0.0
  0
POINT
  5
206A
330
1FBD
100
AcDbEntity
  8
DEFPOINTS
  6
BYBLOCK
 62
     0
100
AcDbPoint
 10
-139.1160242353874
 20
102.873255210741
 30
0.0
  0
POINT
  5
206B
330
1FBD
100
AcDbEntity
  8
DEFPOINTS
  6
BYBLOCK
 62
     0
100
AcDbPoint
 10
-105.9307861401493
 20
102.873255210741
 30
0.0
  0
ENDBLK
  5
1FC8
330
1FBD
100
AcDbEntity
  8
0
100
AcDbBlockEnd
  0
BLOCK
  5
1FD4
330
1FCA
100
AcDbEntity
  8
0
100
AcDbBlockBegin
  2
*D14
 70
     1
 10
0.0
 20
0.0
 30
0.0
  3
*D14
  1

  0
LINE
  5
2075
330
1FCA
100
AcDbEntity
  8
DIM
  6
BYBLOCK
100
AcDbLine
 10
-137.1160242353874
 20
102.873255210741
 30
0.0
 11
-103.9307861401493
 21
102.873255210741
 31
0.0
  0
LINE
  5
2076
330
1FCA
100
AcDbEntity
  8
DIM
  6
BYBLOCK
100
AcDbLine
 10
-166.0741956639589
 20
-29.12674478925911
 30
0.0
 11
-103.9307861401493
 21
-29.12674478925913
 31
0.0
  0
LINE
  5
2077
330
1FCA
100
AcDbEntity
  8
DIM
  6
BYBLOCK
100
AcDbLine
 10
-105.9307861401493
 20
99.8732552107411
 30
0.0
 11
-105.9307861401493
 21
-26.12674478925912
 31
0.0
  0
SOLID
  5
2078
330
1FCA
100
AcDbEntity
  8
DIM
  6
BYBLOCK
100
AcDbTrace
 10
-106.4307861401492
 20
99.8732552107411
 30
0.0
 11
-105.4307861401492
 21
99.8732552107411
 31
0.0
 12
-105.9307861401493
 22
102.873255210741
 32
0.0
 13
-105.9307861401493
 23
102.873255210741
 33
0.0
  0
SOLID
  5
2079
330
1FCA
100
AcDbEntity
  8
DIM
  6
BYBLOCK
100
AcDbTrace
 10
-106.4307861401493
 20
-26.12674478925912
 30
0.0
 11
-105.4307861401493
 21
-26.12674478925912
 31
0.0
 12
-105.9307861401493
 22
-29.12674478925912
 32
0.0
 13
-105.9307861401493
 23
-29.12674478925912
 33
0.0
  0
MTEXT
  5
207A
330
1FCA
100
AcDbEntity
  8
DIM
  6
BYBLOCK
100
AcDbMText
 10
-108.4307861401493
 20
36.87325521074096
 30
0.0
 40
3.0
 41
0.0
 71
     5
 72
     1
  1
\A1;132
  7
CHINESET
 11
0.0000000000000001
 21
1.0
 31
0.0
1001
ACAD
1000
MTEXTBEGIN
1070
    73
1070
     1
1070
    44
1040
1.0
1070
    74
1070
     0
1000
MTEXTEND
  0
POINT
  5
207B
330
1FCA
100
AcDbEntity
  8
DEFPOINTS
  6
BYBLOCK
 62
     0
100
AcDbPoint
 10
-139.1160242353874
 20
102.873255210741
 30
0.0
  0
POINT
  5
207C
330
1FCA
100
AcDbEntity
  8
DEFPOINTS
  6
BYBLOCK
 62
     0
100
AcDbPoint
 10
-168.0741956639589
 20
-29.12674478925911
 30
0.0
  0
POINT
  5
207D
330
1FCA
100
AcDbEntity
  8
DEFPOINTS
  6
BYBLOCK
 62
     0
100
AcDbPoint
 10
-105.9307861401493
 20
-29.12674478925912
 30
0.0
  0
ENDBLK
  5
1FD5
330
1FCA
100
AcDbEntity
  8
0
100
AcDbBlockEnd
  0
BLOCK
  5
1FE1
330
1FD7
100
AcDbEntity
  8
0
100
AcDbBlockBegin
  2
*D15
 70
     1
 10
0.0
 20
0.0
 30
0.0
  3
*D15
  1

  0
LINE
  5
205A
330
1FD7
100
AcDbEntity
  8
DIM
  6
BYBLOCK
100
AcDbLine
 10
-153.7193956639589
 20
172.3732552107412
 30
0.0
 11
-93.01814213432951
 21
172.3732552107412
 31
0.0
  0
LINE
  5
205B
330
1FD7
100
AcDbEntity
  8
DIM
  6
BYBLOCK
100
AcDbLine
 10
-166.0741956639589
 20
-29.12674478925911
 30
0.0
 11
-93.01814213432955
 21
-29.12674478925913
 31
0.0
  0
LINE
  5
205C
330
1FD7
100
AcDbEntity
  8
DIM
  6
BYBLOCK
100
AcDbLine
 10
-95.0181421343295
 20
169.3732552107412
 30
0.0
 11
-95.01814213432956
 21
-26.12674478925912
 31
0.0
  0
SOLID
  5
205D
330
1FD7
100
AcDbEntity
  8
DIM
  6
BYBLOCK
100
AcDbTrace
 10
-95.51814213432951
 20
169.3732552107412
 30
0.0
 11
-94.51814213432951
 21
169.3732552107412
 31
0.0
 12
-95.0181421343295
 22
172.3732552107412
 32
0.0
 13
-95.0181421343295
 23
172.3732552107412
 33
0.0
  0
SOLID
  5
205E
330
1FD7
100
AcDbEntity
  8
DIM
  6
BYBLOCK
100
AcDbTrace
 10
-95.51814213432955
 20
-26.12674478925912
 30
0.0
 11
-94.51814213432955
 21
-26.12674478925912
 31
0.0
 12
-95.01814213432956
 22
-29.12674478925913
 32
0.0
 13
-95.01814213432956
 23
-29.12674478925913
 33
0.0
  0
MTEXT
  5
205F
330
1FD7
100
AcDbEntity
  8
DIM
  6
BYBLOCK
100
AcDbMText
 10
-97.51814213432956
 20
71.62325521074103
 30
0.0
 40
3.0
 41
0.0
 71
     5
 72
     1
  1
\A1;201.5
  7
CHINESET
 11
0.0000000000000001
 21
1.0
 31
0.0
1001
ACAD
1000
MTEXTBEGIN
1070
    73
1070
     1
1070
    44
1040
1.0
1070
    74
1070
     0
1000
MTEXTEND
  0
POINT
  5
2060
330
1FD7
100
AcDbEntity
  8
DEFPOINTS
  6
BYBLOCK
 62
     0
100
AcDbPoint
 10
-155.7193956639589
 20
172.3732552107412
 30
0.0
  0
POINT
  5
2061
330
1FD7
100
AcDbEntity
  8
DEFPOINTS
  6
BYBLOCK
 62
     0
100
AcDbPoint
 10
-168.0741956639589
 20
-29.12674478925911
 30
0.0
  0
POINT
  5
2062
330
1FD7
100
AcDbEntity
  8
DEFPOINTS
  6
BYBLOCK
 62
     0
100
AcDbPoint
 10
-95.01814213432956
 20
-29.12674478925913
 30
0.0
  0
ENDBLK
  5
1FE2
330
1FD7
100
AcDbEntity
  8
0
100
AcDbBlockEnd
  0
BLOCK
  5
1FEE
330
1FE4
100
AcDbEntity
  8
0
100
AcDbBlockBegin
  2
*D16
 70
     1
 10
0.0
 20
0.0
 30
0.0
  3
*D16
  1

  0
LINE
  5
209B
330
1FE4
100
AcDbEntity
  8
DIM
  6
BYBLOCK
100
AcDbLine
 10
-277.6182115369751
 20
295.0937225041321
 30
0.0
 11
-220.5523607433242
 21
295.0937225041321
 31
0.0
  0
LINE
  5
209C
330
1FE4
100
AcDbEntity
  8
DIM
  6
BYBLOCK
100
AcDbLine
 10
-277.6182115369751
 20
235.093722504132
 30
0.0
 11
-220.5523607433242
 21
235.093722504132
 31
0.0
  0
LINE
  5
209D
330
1FE4
100
AcDbEntity
  8
DIM
  6
BYBLOCK
100
AcDbLine
 10
-222.5523607433242
 20
292.0937225041321
 30
0.0
 11
-222.5523607433242
 21
238.093722504132
 31
0.0
  0
SOLID
  5
209E
330
1FE4
100
AcDbEntity
  8
DIM
  6
BYBLOCK
100
AcDbTrace
 10
-223.0523607433242
 20
292.0937225041321
 30
0.0
 11
-222.0523607433242
 21
292.0937225041321
 31
0.0
 12
-222.5523607433242
 22
295.0937225041321
 32
0.0
 13
-222.5523607433242
 23
295.0937225041321
 33
0.0
  0
SOLID
  5
209F
330
1FE4
100
AcDbEntity
  8
DIM
  6
BYBLOCK
100
AcDbTrace
 10
-223.0523607433242
 20
238.093722504132
 30
0.0
 11
-222.0523607433242
 21
238.093722504132
 31
0.0
 12
-222.5523607433242
 22
235.093722504132
 32
0.0
 13
-222.5523607433242
 23
235.093722504132
 33
0.0
  0
MTEXT
  5
20A0
330
1FE4
100
AcDbEntity
  8
DIM
  6
BYBLOCK
100
AcDbMText
 10
-225.0523607433242
 20
265.0937225041321
 30
0.0
 40
3.0
 41
0.0
 71
     5
 72
     1
  1
\A1;60
  7
CHINESET
 11
0.0000000000000001
 21
1.0
 31
0.0
1001
ACAD
1000
MTEXTBEGIN
1070
    73
1070
     1
1070
    44
1040
1.0
1070
    74
1070
     0
1000
MTEXTEND
  0
POINT
  5
20A1
330
1FE4
100
AcDbEntity
  8
DEFPOINTS
  6
BYBLOCK
 62
     0
100
AcDbPoint
 10
-279.6182115369751
 20
295.0937225041321
 30
0.0
  0
POINT
  5
20A2
330
1FE4
100
AcDbEntity
  8
DEFPOINTS
  6
BYBLOCK
 62
     0
100
AcDbPoint
 10
-279.6182115369751
 20
235.093722504132
 30
0.0
  0
POINT
  5
20A3
330
1FE4
100
AcDbEntity
  8
DEFPOINTS
  6
BYBLOCK
 62
     0
100
AcDbPoint
 10
-222.5523607433242
 20
235.093722504132
 30
0.0
  0
ENDBLK
  5
1FEF
330
1FE4
100
AcDbEntity
  8
0
100
AcDbBlockEnd
  0
BLOCK
  5
1FFB
330
1FF1
100
AcDbEntity
  8
0
100
AcDbBlockBegin
  2
*D17
 70
     1
 10
0.0
 20
0.0
 30
0.0
  3
*D17
  1

  0
LINE
  5
2092
330
1FF1
100
AcDbEntity
  8
DIM
  6
BYBLOCK
100
AcDbLine
 10
-282.6182115369752
 20
230.093722504132
 30
0.0
 11
-213.2841857553476
 21
230.093722504132
 31
0.0
  0
LINE
  5
2093
330
1FF1
100
AcDbEntity
  8
DIM
  6
BYBLOCK
100
AcDbLine
 10
-282.6182115369752
 20
300.0937225041321
 30
0.0
 11
-213.2841857553476
 21
300.0937225041321
 31
0.0
  0
LINE
  5
2094
330
1FF1
100
AcDbEntity
  8
DIM
  6
BYBLOCK
100
AcDbLine
 10
-215.2841857553476
 20
233.093722504132
 30
0.0
 11
-215.2841857553476
 21
297.0937225041321
 31
0.0
  0
SOLID
  5
2095
330
1FF1
100
AcDbEntity
  8
DIM
  6
BYBLOCK
100
AcDbTrace
 10
-215.7841857553476
 20
233.093722504132
 30
0.0
 11
-214.7841857553476
 21
233.093722504132
 31
0.0
 12
-215.2841857553476
 22
230.093722504132
 32
0.0
 13
-215.2841857553476
 23
230.093722504132
 33
0.0
  0
SOLID
  5
2096
330
1FF1
100
AcDbEntity
  8
DIM
  6
BYBLOCK
100
AcDbTrace
 10
-215.7841857553476
 20
297.0937225041321
 30
0.0
 11
-214.7841857553476
 21
297.0937225041321
 31
0.0
 12
-215.2841857553476
 22
300.0937225041321
 32
0.0
 13
-215.2841857553476
 23
300.0937225041321
 33
0.0
  0
MTEXT
  5
2097
330
1FF1
100
AcDbEntity
  8
DIM
  6
BYBLOCK
100
AcDbMText
 10
-217.7841857553476
 20
265.0937225041321
 30
0.0
 40
3.0
 41
0.0
 71
     5
 72
     1
  1
\A1;70
  7
CHINESET
 11
0.0000000000000001
 21
1.0
 31
0.0
1001
ACAD
1000
MTEXTBEGIN
1070
    73
1070
     1
1070
    44
1040
1.0
1070
    74
1070
     0
1000
MTEXTEND
  0
POINT
  5
2098
330
1FF1
100
AcDbEntity
  8
DEFPOINTS
  6
BYBLOCK
 62
     0
100
AcDbPoint
 10
-284.6182115369752
 20
230.093722504132
 30
0.0
  0
POINT
  5
2099
330
1FF1
100
AcDbEntity
  8
DEFPOINTS
  6
BYBLOCK
 62
     0
100
AcDbPoint
 10
-284.6182115369752
 20
300.0937225041321
 30
0.0
  0
POINT
  5
209A
330
1FF1
100
AcDbEntity
  8
DEFPOINTS
  6
BYBLOCK
 62
     0
100
AcDbPoint
 10
-215.2841857553476
 20
300.0937225041321
 30
0.0
  0
ENDBLK
  5
1FFC
330
1FF1
100
AcDbEntity
  8
0
100
AcDbBlockEnd
  0
BLOCK
  5
2008
330
1FFE
100
AcDbEntity
  8
0
100
AcDbBlockBegin
  2
*D18
 70
     1
 10
0.0
 20
0.0
 30
0.0
  3
*D18
  1

  0
LINE
  5
2051
330
1FFE
100
AcDbEntity
  8
DIM
  6
BYBLOCK
100
AcDbLine
 10
-232.2336559814194
 20
81.37325521074107
 30
0.0
 11
-243.7409894890415
 21
81.37325521074107
 31
0.0
  0
LINE
  5
2052
330
1FFE
100
AcDbEntity
  8
DIM
  6
BYBLOCK
100
AcDbLine
 10
-232.2336559814194
 20
124.3732552107411
 30
0.0
 11
-243.7409894890415
 21
124.3732552107411
 31
0.0
  0
LINE
  5
2053
330
1FFE
100
AcDbEntity
  8
DIM
  6
BYBLOCK
100
AcDbLine
 10
-241.7409894890415
 20
84.37325521074106
 30
0.0
 11
-241.7409894890415
 21
121.3732552107411
 31
0.0
  0
SOLID
  5
2054
330
1FFE
100
AcDbEntity
  8
DIM
  6
BYBLOCK
100
AcDbTrace
 10
-242.2409894890415
 20
84.37325521074106
 30
0.0
 11
-241.2409894890415
 21
84.37325521074106
 31
0.0
 12
-241.7409894890415
 22
81.37325521074107
 32
0.0
 13
-241.7409894890415
 23
81.37325521074107
 33
0.0
  0
SOLID
  5
2055
330
1FFE
100
AcDbEntity
  8
DIM
  6
BYBLOCK
100
AcDbTrace
 10
-242.2409894890415
 20
121.3732552107411
 30
0.0
 11
-241.2409894890415
 21
121.3732552107411
 31
0.0
 12
-241.7409894890415
 22
124.3732552107411
 32
0.0
 13
-241.7409894890415
 23
124.3732552107411
 33
0.0
  0
MTEXT
  5
2056
330
1FFE
100
AcDbEntity
  8
DIM
  6
BYBLOCK
100
AcDbMText
 10
-244.2409894890416
 20
102.873255210741
 30
0.0
 40
3.0
 41
0.0
 71
     5
 72
     1
  1
\A1;%%c43
  7
CHINESET
 11
0.0000000000000001
 21
1.0
 31
0.0
1001
ACAD
1000
MTEXTBEGIN
1070
    73
1070
     1
1070
    44
1040
1.0
1070
    74
1070
     0
1000
MTEXTEND
  0
POINT
  5
2057
330
1FFE
100
AcDbEntity
  8
DEFPOINTS
  6
BYBLOCK
 62
     0
100
AcDbPoint
 10
-230.2336559814194
 20
81.37325521074107
 30
0.0
  0
POINT
  5
2058
330
1FFE
100
AcDbEntity
  8
DEFPOINTS
  6
BYBLOCK
 62
     0
100
AcDbPoint
 10
-230.2336559814194
 20
124.3732552107411
 30
0.0
  0
POINT
  5
2059
330
1FFE
100
AcDbEntity
  8
DEFPOINTS
  6
BYBLOCK
 62
     0
100
AcDbPoint
 10
-241.7409894890415
 20
124.3732552107411
 30
0.0
  0
ENDBLK
  5
2009
330
1FFE
100
AcDbEntity
  8
0
100
AcDbBlockEnd
  0
BLOCK
  5
201E
330
2014
100
AcDbEntity
  8
0
100
AcDbBlockBegin
  2
*D19
 70
     1
 10
0.0
 20
0.0
 30
0.0
  3
*D19
  1

  0
LINE
  5
2088
330
2014
100
AcDbEntity
  8
DIM
  6
BYBLOCK
100
AcDbLine
 10
-168.0741956639589
 20
-28.12674478925913
 30
0.0
 11
-168.0741956639589
 21
-43.37678196395677
 31
0.0
  0
LINE
  5
2089
330
2014
100
AcDbEntity
  8
DIM
  6
BYBLOCK
100
AcDbLine
 10
-174.0741956639588
 20
-28.12674478925913
 30
0.0
 11
-174.0741956639588
 21
-43.37678196395677
 31
0.0
  0
LINE
  5
208A
330
2014
100
AcDbEntity
  8
DIM
  6
BYBLOCK
100
AcDbLine
 10
-165.0741956639589
 20
-41.37678196395677
 30
0.0
 11
-162.0741956639589
 21
-41.37678196395677
 31
0.0
  0
LINE
  5
208B
330
2014
100
AcDbEntity
  8
DIM
  6
BYBLOCK
100
AcDbLine
 10
-177.0741956639588
 20
-41.37678196395677
 30
0.0
 11
-180.0741956639588
 21
-41.37678196395677
 31
0.0
  0
MTEXT
  5
208C
330
2014
100
AcDbEntity
  8
DIM
  6
BYBLOCK
100
AcDbMText
 10
-171.0741956639589
 20
-49.37678196395677
 30
0.0
 40
3.0
 41
0.0
 71
     5
 72
     1
  1
\A1;排水口%%c6
  7
CHINESET
1001
ACAD
1000
MTEXTBEGIN
1070
    73
1070
     1
1070
    44
1040
1.0
1070
    74
1070
     0
1000
MTEXTEND
  0
SOLID
  5
208D
330
2014
100
AcDbEntity
  8
DIM
  6
BYBLOCK
100
AcDbTrace
 10
-165.0741956639589
 20
-40.87678196395677
 30
0.0
 11
-165.0741956639589
 21
-41.87678196395677
 31
0.0
 12
-168.0741956639589
 22
-41.37678196395677
 32
0.0
 13
-168.0741956639589
 23
-41.37678196395677
 33
0.0
  0
SOLID
  5
208E
330
2014
100
AcDbEntity
  8
DIM
  6
BYBLOCK
100
AcDbTrace
 10
-177.0741956639588
 20
-40.87678196395677
 30
0.0
 11
-177.0741956639588
 21
-41.87678196395677
 31
0.0
 12
-174.0741956639588
 22
-41.37678196395677
 32
0.0
 13
-174.0741956639588
 23
-41.37678196395677
 33
0.0
  0
POINT
  5
208F
330
2014
100
AcDbEntity
  8
DEFPOINTS
  6
BYBLOCK
 62
     0
100
AcDbPoint
 10
-168.0741956639589
 20
-26.12674478925913
 30
0.0
  0
POINT
  5
2090
330
2014
100
AcDbEntity
  8
DEFPOINTS
  6
BYBLOCK
 62
     0
100
AcDbPoint
 10
-174.0741956639588
 20
-26.12674478925913
 30
0.0
  0
POINT
  5
2091
330
2014
100
AcDbEntity
  8
DEFPOINTS
  6
BYBLOCK
 62
     0
100
AcDbPoint
 10
-174.0741956639588
 20
-41.37678196395677
 30
0.0
  0
ENDBLK
  5
201F
330
2014
100
AcDbEntity
  8
0
100
AcDbBlockEnd
  0
ENDSEC
  0
SECTION
  2
ENTITIES
  0
POLYLINE
  5
32
330
172B
100
AcDbEntity
  8
0
  6
BYBLOCK
 62
     4
100
AcDb2dPolyline
 66
     1
 10
0.0
 20
0.0
 30
0.0
 70
     1
  0
VERTEX
  5
21C0
330
32
100
AcDbEntity
  8
0
  6
BYBLOCK
 62
     4
100
AcDbVertex
100
AcDb2dVertex
 10
-393.3863200363603
 20
344.5569957083026
 30
0.0
  0
VERTEX
  5
21C1
330
32
100
AcDbEntity
  8
0
  6
BYBLOCK
 62
     4
100
AcDbVertex
100
AcDb2dVertex
 10
-51.78261980779558
 20
344.5569957083024
 30
0.0
  0
VERTEX
  5
21C2
330
32
100
AcDbEntity
  8
0
  6
BYBLOCK
 62
     4
100
AcDbVertex
100
AcDb2dVertex
 10
-51.78261980779558
 20
-61.39590144105612
 30
0.0
  0
VERTEX
  5
21C3
330
32
100
AcDbEntity
  8
0
  6
BYBLOCK
 62
     4
100
AcDbVertex
100
AcDb2dVertex
 10
-393.3863200363603
 20
-61.39590144105611
 30
0.0
  0
SEQEND
  5
21C4
330
32
100
AcDbEntity
  8
0
  6
BYBLOCK
 62
     4
  0
TEXT
  5
1790
330
172B
100
AcDbEntity
  8
LOGO
 62
     6
100
AcDbText
 10
-90.26638185461619
 20
-105.2575828617328
 30
0.0
 40
7.974851167395751
  1
配管口徑
 41
0.9
  7
CHINESET
 72
     4
 11
-75.83688552360951
 21
-101.2701572780349
 31
0.0
100
AcDbText
  0
LINE
  5
1791
330
172B
100
AcDbEntity
  8
LOGO
 62
     6
100
AcDbLine
 10
-55.24340925142116
 20
-116.2230032169018
 30
0.0
 11
-96.4303617957978
 21
-116.2230032169019
 31
0.0
  0
LINE
  5
1792
330
172B
100
AcDbEntity
  8
LOGO
 62
     6
100
AcDbLine
 10
-55.24340925142116
 20
-94.29216250656358
 30
0.0
 11
-96.4303617957978
 21
-94.29216250656358
 31
0.0
  0
TEXT
  5
1793
330
172B
100
AcDbEntity
  8
LOGO
  6
CONTINUOUS
 62
     6
100
AcDbText
 10
-89.5080589534308
 20
-113.7308622270907
 30
0.0
 40
4.984281979622344
  1
Bore size
 41
0.8
  7
CHINESET
 72
     4
 11
-75.83688552360951
 21
-111.2387212372796
 31
0.0
100
AcDbText
  0
TEXT
  5
1794
330
172B
100
AcDbEntity
  8
LOGO
  6
CONTINUOUS
 62
     7
100
AcDbText
 10
-82.97627583574451
 20
-81.44607350299024
 30
0.0
 40
9.968563959244688
  1
?A
  7
CHINESET
 72
     1
 11
-74.906485963975
 21
-76.46179152336791
 31
0.0
100
AcDbText
 73
     2
  0
LINE
  5
1795
330
172B
100
AcDbEntity
  8
LOGO
 62
     6
100
AcDbLine
 10
-59.23083483511902
 20
-67.37703981660292
 30
0.0
 11
-92.44293621209994
 21
-67.37703981660292
 31
0.0
  0
LINE
  5
1796
330
172B
100
AcDbEntity
  8
LOGO
 62
     6
100
AcDbLine
 10
-59.23083483511908
 20
-85.32045494324338
 30
0.0
 11
-92.44293621209994
 21
-85.32045494324336
 31
0.0
  0
LINE
  5
1797
330
172B
100
AcDbEntity
  8
LOGO
 62
     1
100
AcDbLine
 10
-51.78261980779558
 20
-61.39590144105611
 30
0.0
 11
-393.3863200363603
 21
-61.39590144105611
 31
0.0
  0
LINE
  5
1798
330
172B
100
AcDbEntity
  8
LOGO
 62
     1
100
AcDbLine
 10
-51.78261980779558
 20
-121.2072851965242
 30
0.0
 11
-393.3863200363603
 21
-121.2072851965242
 31
0.0
  0
LINE
  5
1799
330
172B
100
AcDbEntity
  8
LOGO
  6
CONTINUOUS
 62
     6
100
AcDbLine
 10
-279.6642886555665
 20
-77.29177552113395
 30
0.0
 11
-268.7772922279664
 21
-75.8537331479722
 31
0.0
  0
LINE
  5
179A
330
172B
100
AcDbEntity
  8
LOGO
  6
CONTINUOUS
 62
     6
100
AcDbLine
 10
-279.6642886555665
 20
-81.36127021675084
 30
0.0
 11
-268.7772922279664
 21
-82.79931258991259
 31
0.0
  0
LINE
  5
179B
330
172B
100
AcDbEntity
  8
LOGO
 62
     1
100
AcDbLine
 10
-261.8012757743305
 20
-73.35817819214972
 30
0.0
 11
-349.5246386156838
 21
-73.35817819214972
 31
0.0
  0
LINE
  5
179C
330
172B
100
AcDbEntity
  8
LOGO
 62
     1
100
AcDbLine
 10
-261.8012757743305
 20
-85.32045494324336
 30
0.0
 11
-349.5246386156838
 21
-85.32045494324336
 31
0.0
  0
TEXT
  5
179D
330
172B
100
AcDbEntity
  8
LOGO
 62
     6
100
AcDbText
 10
-292.7028378376095
 20
-70.36760900437632
 30
0.0
 40
5.981138375546812
  1
1 : 1
  7
CHINESET
 72
     1
 11
-282.1646416521222
 21
-67.37703981660292
 31
0.0
100
AcDbText
 73
     2
  0
TEXT
  5
179E
330
172B
100
AcDbEntity
  8
LOGO
 62
     6
100
AcDbText
 10
-292.7028378376095
 20
-94.29216250656358
 30
0.0
 40
5.981138375546812
  1
m/m
  7
CHINESET
 72
     1
 11
-282.1646416521222
 21
-91.30159331879017
 31
0.0
100
AcDbText
 73
     2
  0
LINE
  5
179F
330
172B
100
AcDbEntity
  8
LOGO
 62
     1
100
AcDbLine
 10
-261.8012757743305
 20
-97.28273169433693
 30
0.0
 11
-393.3863200363605
 21
-97.28273169433693
 31
0.0
  0
TEXT
  5
17A0
330
172B
100
AcDbEntity
  8
LOGO
  6
CONTINUOUS
 62
     5
100
AcDbText
 10
-391.4285924598686
 20
-109.4574291210108
 30
0.0
 40
8.971707563320219
  1
金器工業股份有限公司
 41
0.8
  7
LOGO
100
AcDbText
  0
TEXT
  5
17A1
330
172B
100
AcDbEntity
  8
LOGO
  6
CONTINUOUS
 62
     5
100
AcDbText
 10
-388.8596365355394
 20
-118.4308944356044
 30
0.0
 40
5.981138375546812
  1
MINDMAN INDUSTRIAL CO.,LTD
 41
0.85
  7
CHINESET
100
AcDbText
  0
SOLID
  5
17A2
330
172B
100
AcDbEntity
  8
LOGO
 62
     5
100
AcDbTrace
 10
-387.1807929817601
 20
-87.33994049299823
 30
0.0
 11
-384.5947056932448
 21
-87.3399404929991
 31
0.0
 12
-373.8044794204726
 22
-62.81669896397176
 32
0.0
 13
-371.2183921319574
 23
-62.81669896397346
 33
0.0
  0
SOLID
  5
17A3
330
172B
100
AcDbEntity
  8
LOGO
 62
     5
100
AcDbTrace
 10
-383.5246006083404
 20
-87.33994049299823
 30
0.0
 11
-380.9385133198251
 21
-87.33994049299823
 31
0.0
 12
-371.2183921319574
 22
-64.77855828629478
 32
0.0
 13
-373.8044794204726
 23
-74.26087834418531
 33
0.0
  0
SOLID
  5
17A4
330
172B
100
AcDbEntity
  8
LOGO
 62
     2
100
AcDbTrace
 10
-384.5947056932448
 20
-87.3399404929991
 30
0.0
 11
-383.5246006083404
 21
-87.33994049299823
 31
0.0
 12
-371.2183921319574
 22
-62.81669896397346
 32
0.0
 13
-370.1482870470538
 23
-62.81669896397346
 33
0.0
  0
SOLID
  5
17A5
330
172B
100
AcDbEntity
  8
LOGO
 62
     5
100
AcDbTrace
 10
-384.5209179343464
 20
-91.79871168009404
 30
0.0
 11
-383.6291636969282
 21
-91.79871168009404
 31
0.0
 12
-384.5209179343464
 22
-96.257482867189
 32
0.0
 13
-383.6291636969282
 23
-96.257482867189
 33
0.0
  0
SOLID
  5
17A6
330
172B
100
AcDbEntity
  8
LOGO
 62
     5
100
AcDbTrace
 10
-391.3269250915368
 20
-96.257482867189
 30
0.0
 11
-390.4351708541168
 21
-96.257482867189
 31
0.0
 12
-387.9239215129421
 22
-91.79871168009404
 32
0.0
 13
-387.0321672755236
 23
-91.79871168009404
 33
0.0
  0
SOLID
  5
17A7
330
172B
100
AcDbEntity
  8
LOGO
 62
     5
100
AcDbTrace
 10
-387.9239215129421
 20
-91.79871168009404
 30
0.0
 11
-387.0321672755236
 21
-91.79871168009404
 31
0.0
 12
-387.9239215129421
 22
-96.257482867189
 32
0.0
 13
-387.0321672755236
 23
-96.257482867189
 33
0.0
  0
SOLID
  5
17A8
330
172B
100
AcDbEntity
  8
LOGO
 62
     5
100
AcDbTrace
 10
-387.9239215129421
 20
-96.257482867189
 30
0.0
 11
-387.0321672755236
 21
-96.257482867189
 31
0.0
 12
-384.5209179343464
 22
-91.79871168009404
 32
0.0
 13
-383.6291636969282
 23
-91.79871168009404
 33
0.0
  0
LINE
  5
17A9
330
172B
100
AcDbEntity
  8
LOGO
 62
     1
100
AcDbLine
 10
-393.3863200363603
 20
-121.2072851965242
 30
0.0
 11
-393.3863200363603
 21
-61.39590144105611
 31
0.0
  0
TEXT
  5
17AA
330
172B
100
AcDbEntity
  8
LOGO
 62
     6
100
AcDbText
 10
-344.5928696069182
 20
-70.36466553076632
 30
0.0
 40
5.981138375546812
  1
比例 Scale:
 41
0.9
  7
CHINESET
 72
     4
 11
-325.6000851134965
 21
-67.37703981660292
 31
0.0
100
AcDbText
  0
TEXT
  5
17AB
330
172B
100
AcDbEntity
  8
LOGO
 62
     6
100
AcDbText
 10
-342.5021413265373
 20
-82.24575146811707
 30
0.0
 40
5.981138375546812
  1
投影 View:
 41
0.9
  7
CHINESET
 72
     4
 11
-325.6000851134965
 21
-79.33931656769655
 31
0.0
100
AcDbText
  0
TEXT
  5
17AC
330
172B
100
AcDbEntity
  8
LOGO
 62
     6
100
AcDbText
 10
-341.9173782442852
 20
-94.29216250656358
 30
0.0
 40
5.981138375546812
  1
單位 Unit:
 41
0.9
  7
CHINESET
 72
     4
 11
-325.6000851134965
 21
-91.30159331879017
 31
0.0
100
AcDbText
  0
POLYLINE
  5
17AD
330
172B
100
AcDbEntity
  8
LOGO
 62
     5
100
AcDb2dPolyline
 66
     1
 10
0.0
 20
0.0
 30
0.0
 70
     1
 40
0.8931833307483239
 41
0.8931833307483239
  0
VERTEX
  5
21C7
330
17AD
100
AcDbEntity
  8
LOGO
 62
     5
100
AcDbVertex
100
AcDb2dVertex
 10
-362.8089758953465
 20
-94.02809727364198
 30
0.0
 42
1.0
  0
VERTEX
  5
21C8
330
17AD
100
AcDbEntity
  8
LOGO
 62
     5
100
AcDbVertex
100
AcDb2dVertex
 10
-359.2362425723533
 20
-94.02809727364198
 30
0.0
 42
1.0
  0
SEQEND
  5
21C9
330
17AD
100
AcDbEntity
  8
LOGO
 62
     5
  0
LINE
  5
17AE
330
172B
100
AcDbEntity
  8
LOGO
 62
     5
100
AcDbLine
 10
-354.185886197252
 20
-96.257482867189
 30
0.0
 11
-354.185886197252
 21
-93.5822201549324
 31
0.0
  0
SOLID
  5
17AF
330
172B
100
AcDbEntity
  8
LOGO
 62
     5
100
AcDbTrace
 10
-359.6850670531429
 20
-91.79871168009404
 30
0.0
 11
-358.7933128157245
 21
-91.79871168009404
 31
0.0
 12
-359.6850670531429
 22
-96.257482867189
 32
0.0
 13
-358.7933128157245
 23
-96.257482867189
 33
0.0
  0
SOLID
  5
17B0
330
172B
100
AcDbEntity
  8
LOGO
 62
     5
100
AcDbTrace
 10
-357.7529031469286
 20
-96.257482867189
 30
0.0
 11
-356.8611489095087
 21
-96.257482867189
 31
0.0
 12
-357.7529031469286
 22
-91.79871168009404
 32
0.0
 13
-356.8611489095087
 23
-91.79871168009404
 33
0.0
  0
SOLID
  5
17B1
330
172B
100
AcDbEntity
  8
LOGO
 62
     5
100
AcDbTrace
 10
-355.0776404346702
 20
-93.5822201549324
 30
0.0
 11
-354.185886197252
 21
-93.58222015493252
 31
0.0
 12
-355.0776404346702
 22
-96.257482867189
 32
0.0
 13
-354.185886197252
 23
-96.257482867189
 33
0.0
  0
SOLID
  5
17B2
330
172B
100
AcDbEntity
  8
LOGO
 62
     5
100
AcDbTrace
 10
-372.466937239767
 20
-90.46108032396489
 30
0.0
 11
-371.5751830023488
 21
-90.46108032396489
 31
0.0
 12
-372.466937239767
 22
-96.257482867189
 32
0.0
 13
-371.5751830023488
 23
-96.257482867189
 33
0.0
  0
SOLID
  5
17B3
330
172B
100
AcDbEntity
  8
LOGO
 62
     5
100
AcDbTrace
 10
-370.5347733335504
 20
-91.79871168009404
 30
0.0
 11
-369.6430190961319
 21
-91.79871168009404
 31
0.0
 12
-370.5347733335504
 22
-96.257482867189
 32
0.0
 13
-369.6430190961319
 23
-96.257482867189
 33
0.0
  0
SOLID
  5
17B4
330
172B
100
AcDbEntity
  8
LOGO
 62
     5
100
AcDbTrace
 10
-367.8595106212936
 20
-93.5822201549324
 30
0.0
 11
-366.9677563838753
 21
-93.5822201549324
 31
0.0
 12
-367.8595106212936
 22
-96.257482867189
 32
0.0
 13
-366.9677563838753
 23
-96.257482867189
 33
0.0
  0
SOLID
  5
17B5
330
172B
100
AcDbEntity
  8
LOGO
 62
     5
100
AcDbTrace
 10
-365.1842479090368
 20
-93.5822201549324
 30
0.0
 11
-364.2924936716186
 21
-93.5822201549324
 31
0.0
 12
-365.1842479090368
 22
-96.25748286719071
 32
0.0
 13
-364.2924936716186
 23
-96.25748286719071
 33
0.0
  0
LINE
  5
17B6
330
172B
100
AcDbEntity
  8
LOGO
 62
     1
100
AcDbLine
 10
-349.5246386156838
 20
-97.28273169433698
 30
0.0
 11
-349.5246386156838
 21
-61.39590144105611
 31
0.0
  0
SOLID
  5
17B7
330
172B
100
AcDbEntity
  8
LOGO
 62
     5
100
AcDbTrace
 10
-380.641380807917
 20
-91.79871168009404
 30
0.0
 11
-379.7496265704986
 21
-91.79871168009404
 31
0.0
 12
-380.641380807917
 22
-96.257482867189
 32
0.0
 13
-379.7496265704986
 23
-96.257482867189
 33
0.0
  0
SOLID
  5
17B8
330
172B
100
AcDbEntity
  8
LOGO
 62
     5
100
AcDbTrace
 10
-377.9661180956605
 20
-93.5822201549324
 30
0.0
 11
-377.0743638582406
 21
-93.5822201549324
 31
0.0
 12
-377.9661180956605
 22
-96.257482867189
 32
0.0
 13
-377.0743638582406
 23
-96.257482867189
 33
0.0
  0
SOLID
  5
17B9
330
172B
100
AcDbEntity
  8
LOGO
 62
     5
100
AcDbTrace
 10
-382.5735447141339
 20
-91.79871168009404
 30
0.0
 11
-381.681790476713
 21
-91.79871168009404
 31
0.0
 12
-382.5735447141339
 22
-96.25748286719071
 32
0.0
 13
-381.681790476713
 23
-96.257482867189
 33
0.0
  0
POLYLINE
  5
17BA
330
172B
100
AcDbEntity
  8
LOGO
 62
     5
100
AcDb2dPolyline
 66
     1
 10
0.0
 20
0.0
 30
0.0
 70
     1
 40
0.8931833307483239
 41
0.8931833307483239
  0
VERTEX
  5
21CA
330
17BA
100
AcDbEntity
  8
LOGO
 62
     5
100
AcDbVertex
100
AcDb2dVertex
 10
-375.5908460819698
 20
-94.02809727364198
 30
0.0
 42
1.0
  0
VERTEX
  5
21CB
330
17BA
100
AcDbEntity
  8
LOGO
 62
     5
100
AcDbVertex
100
AcDb2dVertex
 10
-372.0181127589765
 20
-94.02809727364198
 30
0.0
 42
1.0
  0
SEQEND
  5
21CC
330
17BA
100
AcDbEntity
  8
LOGO
 62
     5
  0
POLYLINE
  5
17BB
330
172B
100
AcDbEntity
  8
LOGO
 62
     5
100
AcDb2dPolyline
 66
     1
 10
0.0
 20
0.0
 30
0.0
 40
0.8931833307483239
 41
0.8931833307483239
  0
VERTEX
  5
21CD
330
17BB
100
AcDbEntity
  8
LOGO
 62
     5
100
AcDbVertex
100
AcDb2dVertex
 10
-354.6296196759669
 20
-93.58222015493238
 30
0.0
 42
1.0
  0
VERTEX
  5
21CE
330
17BB
100
AcDbEntity
  8
LOGO
 62
     5
100
AcDbVertex
100
AcDb2dVertex
 10
-357.309169668212
 20
-93.58222015493238
 30
0.0
 42
1.0
  0
SEQEND
  5
21CF
330
17BB
100
AcDbEntity
  8
LOGO
 62
     5
  0
SOLID
  5
17BC
330
172B
100
AcDbEntity
  8
LOGO
 62
     5
100
AcDbTrace
 10
-356.7719734857671
 20
-87.3399404929991
 30
0.0
 11
-354.185886197252
 21
-87.3399404929991
 31
0.0
 12
-356.7719734857671
 22
-62.81669896397346
 32
0.0
 13
-354.185886197252
 23
-62.81669896397176
 33
0.0
  0
SOLID
  5
17BD
330
172B
100
AcDbEntity
  8
LOGO
 62
     5
100
AcDbTrace
 10
-370.1482870470538
 20
-62.81669896397346
 30
0.0
 11
-367.5621997585387
 21
-62.81669896397176
 31
0.0
 12
-370.1482870470538
 22
-85.37808117067696
 32
0.0
 13
-367.5621997585387
 23
-75.89576111278638
 33
0.0
  0
SOLID
  5
17BE
330
172B
100
AcDbEntity
  8
LOGO
 62
     5
100
AcDbTrace
 10
-370.1482870470538
 20
-85.37808117067696
 30
0.0
 11
-367.5621997585387
 21
-75.89576111278638
 31
0.0
 12
-357.8420785706709
 22
-62.81669896397176
 32
0.0
 13
-360.4281658591862
 23
-62.81669896397176
 33
0.0
  0
SOLID
  5
17BF
330
172B
100
AcDbEntity
  8
LOGO
 62
     5
100
AcDbTrace
 10
-357.8420785706709
 20
-64.77855828629478
 30
0.0
 11
-360.4281658591862
 21
-74.26087834418531
 31
0.0
 12
-357.8420785706709
 22
-87.3399404929991
 32
0.0
 13
-360.4281658591862
 23
-87.3399404929991
 33
0.0
  0
SOLID
  5
17C0
330
172B
100
AcDbEntity
  8
LOGO
 62
     2
100
AcDbTrace
 10
-357.8420785706709
 20
-62.81669896397176
 30
0.0
 11
-356.7719734857671
 21
-62.81669896397346
 31
0.0
 12
-357.8420785706709
 22
-87.3399404929991
 32
0.0
 13
-356.7719734857671
 23
-87.3399404929991
 33
0.0
  0
SOLID
  5
17C1
330
172B
100
AcDbEntity
  8
LOGO
 62
     5
100
AcDbTrace
 10
-373.8044794204726
 20
-87.33994049299823
 30
0.0
 11
-371.2183921319574
 21
-87.33994049299823
 31
0.0
 12
-373.8044794204726
 22
-74.26087834418531
 32
0.0
 13
-371.2183921319574
 23
-64.77855828629478
 33
0.0
  0
SOLID
  5
17C2
330
172B
100
AcDbEntity
  8
LOGO
 62
     2
100
AcDbTrace
 10
-371.2183921319574
 20
-62.81669896397346
 30
0.0
 11
-370.1482870470538
 21
-62.81669896397346
 31
0.0
 12
-371.2183921319574
 22
-87.33994049299823
 32
0.0
 13
-370.1482870470538
 23
-87.33994049299823
 33
0.0
  0
SOLID
  5
17C3
330
172B
100
AcDbEntity
  8
LOGO
 62
     5
100
AcDbTrace
 10
-370.1482870470538
 20
-87.33994049299823
 30
0.0
 11
-367.5621997585387
 21
-87.33994049299823
 31
0.0
 12
-357.8420785706709
 22
-64.77855828629478
 32
0.0
 13
-360.4281658591862
 23
-74.26087834418531
 33
0.0
  0
SOLID
  5
17C4
330
172B
100
AcDbEntity
  8
LOGO
 62
     2
100
AcDbTrace
 10
-371.2183921319574
 20
-87.33994049299823
 30
0.0
 11
-370.1482870470538
 21
-87.33994049299823
 31
0.0
 12
-357.8420785706709
 22
-62.81669896397176
 32
0.0
 13
-356.7719734857671
 23
-62.81669896397346
 33
0.0
  0
POLYLINE
  5
17C5
330
172B
100
AcDbEntity
  8
LOGO
 62
     5
100
AcDb2dPolyline
 66
     1
 10
0.0
 20
0.0
 30
0.0
 40
0.8931833307483239
 41
0.8931833307483239
  0
VERTEX
  5
21D0
330
17C5
100
AcDbEntity
  8
LOGO
 62
     5
100
AcDbVertex
100
AcDb2dVertex
 10
-367.4114898625902
 20
-93.58222015493238
 30
0.0
 42
1.0
  0
VERTEX
  5
21D1
330
17C5
100
AcDbEntity
  8
LOGO
 62
     5
100
AcDbVertex
100
AcDb2dVertex
 10
-370.0910398548354
 20
-93.58222015493238
 30
0.0
 42
1.0
  0
SEQEND
  5
21D2
330
17C5
100
AcDbEntity
  8
LOGO
 62
     5
  0
POLYLINE
  5
17C6
330
172B
100
AcDbEntity
  8
LOGO
 62
     5
100
AcDb2dPolyline
 66
     1
 10
0.0
 20
0.0
 30
0.0
 40
0.8931833307483239
 41
0.8931833307483239
  0
VERTEX
  5
21D3
330
17C6
100
AcDbEntity
  8
LOGO
 62
     5
100
AcDbVertex
100
AcDb2dVertex
 10
-377.5180973369569
 20
-93.58222015493238
 30
0.0
 42
1.0
  0
VERTEX
  5
21D4
330
17C6
100
AcDbEntity
  8
LOGO
 62
     5
100
AcDbVertex
100
AcDb2dVertex
 10
-380.1976473292019
 20
-93.58222015493238
 30
0.0
 42
1.0
  0
SEQEND
  5
21D5
330
17C6
100
AcDbEntity
  8
LOGO
 62
     5
  0
SOLID
  5
17C7
330
172B
100
AcDbEntity
  8
LOGO
 62
     5
100
AcDbTrace
 10
-382.5735447141339
 20
-91.17448371390107
 30
0.0
 11
-381.681790476713
 21
-91.17448371390107
 31
0.0
 12
-382.5735447141339
 22
-90.46108032396489
 32
0.0
 13
-381.681790476713
 23
-90.46108032396489
 33
0.0
  0
POLYLINE
  5
17C8
330
172B
100
AcDbEntity
  8
LOGO
 62
     5
100
AcDb2dPolyline
 66
     1
 10
0.0
 20
0.0
 30
0.0
 70
     1
  0
VERTEX
  5
21D6
330
17C8
100
AcDbEntity
  8
LOGO
 62
     5
100
AcDbVertex
100
AcDb2dVertex
 10
-362.3602405899782
 20
-94.02809727364152
 30
0.0
 42
1.000000057330635
  0
VERTEX
  5
21D7
330
17C8
100
AcDbEntity
  8
LOGO
 62
     5
100
AcDbVertex
100
AcDb2dVertex
 10
-359.6849778777203
 20
-94.02809727364152
 30
0.0
 42
1.000000057330635
  0
SEQEND
  5
21D8
330
17C8
100
AcDbEntity
  8
LOGO
 62
     5
  0
CIRCLE
  5
17C9
330
172B
100
AcDbEntity
  8
LOGO
 62
     5
100
AcDbCircle
 10
-361.0226092338493
 20
-94.02809727364152
 30
0.0
 40
1.33763135612869
  0
POLYLINE
  5
17CA
330
172B
100
AcDbEntity
  8
LOGO
 62
     5
100
AcDb2dPolyline
 66
     1
 10
0.0
 20
0.0
 30
0.0
 40
0.8931833307483239
 41
0.8931833307483239
  0
VERTEX
  5
21D9
330
17CA
100
AcDbEntity
  8
LOGO
 62
     5
100
AcDbVertex
100
AcDb2dVertex
 10
-364.7362271503337
 20
-93.58222015493238
 30
0.0
 42
1.0
  0
VERTEX
  5
21DA
330
17CA
100
AcDbEntity
  8
LOGO
 62
     5
100
AcDbVertex
100
AcDb2dVertex
 10
-367.4157771425786
 20
-93.58222015493238
 30
0.0
 42
1.0
  0
SEQEND
  5
21DB
330
17CA
100
AcDbEntity
  8
LOGO
 62
     5
  0
LINE
  5
17CB
330
172B
100
AcDbEntity
  8
LOGO
 62
     1
100
AcDbLine
 10
-301.6755316113092
 20
-97.28273169433698
 30
0.0
 11
-301.6755316113092
 21
-61.39590144105611
 31
0.0
  0
CIRCLE
  5
17CC
330
172B
100
AcDbEntity
  8
LOGO
  6
CONTINUOUS
 62
     6
100
AcDbCircle
 10
-290.6007058000221
 20
-79.32652286894239
 30
0.0
 40
3.472789720970199
  0
CIRCLE
  5
17CD
330
172B
100
AcDbEntity
  8
LOGO
  6
CONTINUOUS
 62
     6
100
AcDbCircle
 10
-290.6007058000221
 20
-79.32652286894239
 30
0.0
 40
2.034747347808438
  0
LINE
  5
17CE
330
172B
100
AcDbEntity
  8
LOGO
 62
     6
100
AcDbLine
 10
-279.6642886555663
 20
-81.36127021675084
 30
0.0
 11
-279.6642886555665
 21
-77.29177552113394
 31
0.0
  0
TEXT
  5
17CF
330
172B
100
AcDbEntity
  8
LOGO
  6
CONTINUOUS
 62
     6
100
AcDbText
 10
-152.6918465423858
 20
-113.7308622270907
 30
0.0
 40
4.984281979622344
  1
Model
  7
CHINESET
 72
     4
 11
-143.1979761050099
 21
-111.2387212372795
 31
0.0
100
AcDbText
  0
TEXT
  5
17D0
330
172B
100
AcDbEntity
  8
LOGO
  6
CONTINUOUS
 62
     7
100
AcDbText
 10
-177.4922086517638
 20
-81.33302935954549
 30
0.0
 40
9.968563959244688
  1
MACC300
  7
CHINESET
 72
     1
 11
-143.7889685990793
 21
-76.34874737992316
 31
0.0
100
AcDbText
 73
     2
  0
LINE
  5
17D1
330
172B
100
AcDbEntity
  8
LOGO
 62
     6
100
AcDbLine
 10
-106.8625802273659
 20
-67.37703981660292
 30
0.0
 11
-179.5333719826539
 21
-67.37703981660292
 31
0.0
  0
LINE
  5
17D2
330
172B
100
AcDbEntity
  8
LOGO
 62
     6
100
AcDbLine
 10
-106.8625802273659
 20
-85.32045494324336
 30
0.0
 11
-179.5333719826539
 21
-85.32045494324336
 31
0.0
  0
LINE
  5
17D3
330
172B
100
AcDbEntity
  8
LOGO
 62
     6
100
AcDbLine
 10
-123.2608481865205
 20
-94.29216250656358
 30
0.0
 11
-163.1351040234992
 21
-94.29216250656358
 31
0.0
  0
LINE
  5
17D4
330
172B
100
AcDbEntity
  8
LOGO
 62
     6
100
AcDbLine
 10
-123.2608481865205
 20
-116.2230032169019
 30
0.0
 11
-163.1351040234992
 21
-116.2230032169019
 31
0.0
  0
TEXT
  5
17D5
330
172B
100
AcDbEntity
  8
LOGO
 62
     7
100
AcDbText
 10
-256.90542164419
 20
-76.37131165697335
 30
0.0
 40
11.96227675109362
  1
訂購代號:
  7
CHINESET
100
AcDbText
  0
TEXT
  5
17D6
330
172B
100
AcDbEntity
  8
LOGO
 62
     7
100
AcDbText
 10
-258.3361758929567
 20
-87.59825088666294
 30
0.0
 40
7.974851167395751
  1
Order example:
 41
0.8
  7
CHINESET
100
AcDbText
  0
LINE
  5
17D7
330
172B
100
AcDbEntity
  8
LOGO
 62
     1
100
AcDbLine
 10
-261.8012757743305
 20
-121.2072851965242
 30
0.0
 11
-261.8012757743305
 21
-61.39590144105611
 31
0.0
  0
LINE
  5
17D8
330
172B
100
AcDbEntity
  8
LOGO
 62
     6
100
AcDbLine
 10
-268.7772922279664
 20
-82.79931258991259
 30
0.0
 11
-268.7772922279664
 21
-75.8537331479722
 31
0.0
  0
LINE
  5
17D9
330
172B
100
AcDbEntity
  8
LOGO
 62
     6
100
AcDbLine
 10
-163.1351040234992
 20
-94.29216250656358
 30
0.0
 11
-163.1351040234992
 21
-116.2230032169019
 31
0.0
  0
LINE
  5
17DA
330
172B
100
AcDbEntity
  8
LOGO
 62
     6
100
AcDbLine
 10
-179.5333719826539
 20
-67.37703981660292
 30
0.0
 11
-179.5333719826539
 21
-85.32045494324336
 31
0.0
  0
LINE
  5
17DB
330
172B
100
AcDbEntity
  8
LOGO
 62
     6
100
AcDbLine
 10
-123.2608481865205
 20
-94.29216250656358
 30
0.0
 11
-123.2608481865205
 21
-116.2230032169018
 31
0.0
  0
TEXT
  5
17DC
330
172B
100
AcDbEntity
  8
LOGO
 62
     6
100
AcDbText
 10
-151.1728272724057
 20
-105.0535020247718
 30
0.0
 40
7.974851167395751
  1
型式
  7
CHINESET
 72
     4
 11
-143.1979761050099
 21
-101.2701572780348
 31
0.0
100
AcDbText
  0
LINE
  5
17DD
330
172B
100
AcDbEntity
  8
LOGO
 62
     6
100
AcDbLine
 10
-143.1979761050099
 20
-85.32045494324336
 30
0.0
 11
-143.1979761050099
 21
-94.29216250656358
 31
0.0
  0
LINE
  5
17DE
330
172B
100
AcDbEntity
  8
LOGO
 62
     6
100
AcDbLine
 10
-106.8625802273659
 20
-67.37703981660292
 30
0.0
 11
-106.8625802273659
 21
-85.32045494324336
 31
0.0
  0
LINE
  5
17DF
330
172B
100
AcDbEntity
  8
LOGO
 62
     6
100
AcDbLine
 10
-96.4303617957978
 20
-94.29216250656358
 30
0.0
 11
-96.4303617957978
 21
-116.2230032169019
 31
0.0
  0
LINE
  5
17E0
330
172B
100
AcDbEntity
  8
LOGO
  6
CONTINUOUS
 62
     7
100
AcDbLine
 10
-103.4691301251899
 20
-76.41230579203136
 30
0.0
 11
-95.54597273139057
 21
-76.41230579203136
 31
0.0
  0
LINE
  5
17E1
330
172B
100
AcDbEntity
  8
LOGO
 62
     6
100
AcDbLine
 10
-92.44293621209981
 20
-67.37703981660292
 30
0.0
 11
-92.44293621209994
 21
-85.32045494324336
 31
0.0
  0
LINE
  5
17E2
330
172B
100
AcDbEntity
  8
LOGO
 62
     6
100
AcDbLine
 10
-75.41463525691819
 20
-85.32045494324336
 30
0.0
 11
-75.41463525691819
 21
-94.29216250656358
 31
0.0
  0
LINE
  5
17E3
330
172B
100
AcDbEntity
  8
LOGO
 62
     6
100
AcDbLine
 10
-55.24340925142116
 20
-94.29216250656358
 30
0.0
 11
-55.24340925142116
 21
-116.3056970282386
 31
0.0
  0
LINE
  5
17E4
330
172B
100
AcDbEntity
  8
LOGO
 62
     6
100
AcDbLine
 10
-59.23083483511902
 20
-67.37703981660292
 30
0.0
 11
-59.23083483511908
 21
-85.32045494324338
 31
0.0
  0
LINE
  5
17E5
330
172B
100
AcDbEntity
  8
LOGO
 62
     1
100
AcDbLine
 10
-51.78261980779558
 20
-121.2072851965242
 30
0.0
 11
-51.78261980779558
 21
-61.39590144105611
 31
0.0
  0
ARC
  5
1BA1
330
172B
100
AcDbEntity
  8
0
100
AcDbCircle
 10
-260.1182115369748
 20
117.3732552107411
 30
0.0
 40
0.500000000000001
100
AcDbArc
 50
0.0
 51
90.0
  0
ARC
  5
1BA2
330
172B
100
AcDbEntity
  8
0
100
AcDbCircle
 10
-260.6182115369749
 20
126.3732552107411
 30
0.0
 40
0.500000000000001
100
AcDbArc
 50
0.0
 51
90.0
  0
ARC
  5
1BA3
330
172B
100
AcDbEntity
  8
0
100
AcDbCircle
 10
-319.1182115369751
 20
126.3732552107411
 30
0.0
 40
0.500000000000001
100
AcDbArc
 50
90.0
 51
180.0
  0
ARC
  5
1BA4
330
172B
100
AcDbEntity
  8
0
100
AcDbCircle
 10
-320.6182115369749
 20
118.8732552107411
 30
0.0
 40
1.000000000000001
100
AcDbArc
 50
270.0
 51
0.0
  0
LINE
  5
1BA5
330
172B
100
AcDbEntity
  8
0
100
AcDbLine
 10
-269.1182115369749
 20
68.37325521074103
 30
0.0
 11
-260.6182115369749
 21
68.37325521074103
 31
0.0
  0
LINE
  5
1BA6
330
172B
100
AcDbEntity
  8
0
100
AcDbLine
 10
-260.1182115369748
 20
117.8732552107411
 30
0.0
 11
-260.1182115369748
 21
117.8732552107411
 31
0.0
  0
LINE
  5
1BA7
330
172B
100
AcDbEntity
  8
0
100
AcDbLine
 10
-260.1182115369748
 20
126.3732552107411
 30
0.0
 11
-260.1182115369748
 21
117.8732552107411
 31
0.0
  0
LINE
  5
1BA8
330
172B
100
AcDbEntity
  8
0
100
AcDbLine
 10
-261.1182115369748
 20
126.8732552107411
 30
0.0
 11
-260.6182115369749
 21
126.8732552107411
 31
0.0
  0
LINE
  5
1BA9
330
172B
100
AcDbEntity
  8
0
100
AcDbLine
 10
-261.1182115369748
 20
127.8732552107411
 30
0.0
 11
-261.1182115369748
 21
126.8732552107411
 31
0.0
  0
LINE
  5
1BAA
330
172B
100
AcDbEntity
  8
0
100
AcDbLine
 10
-333.4274242353878
 20
117.8732552107411
 30
0.0
 11
-307.2191505857981
 21
117.8732552107411
 31
0.0
  0
LINE
  5
1BAB
330
172B
100
AcDbEntity
  8
0
100
AcDbLine
 10
-319.618211536975
 20
126.3732552107411
 30
0.0
 11
-319.618211536975
 21
118.8732552107411
 31
0.0
  0
LINE
  5
1BAC
330
172B
100
AcDbEntity
  8
0
100
AcDbLine
 10
-319.1182115369751
 20
126.8732552107411
 30
0.0
 11
-318.6182115369749
 21
126.8732552107411
 31
0.0
  0
LINE
  5
1BAD
330
172B
100
AcDbEntity
  8
0
100
AcDbLine
 10
-318.6182115369749
 20
127.8732552107411
 30
0.0
 11
-318.6182115369749
 21
126.8732552107411
 31
0.0
  0
LINE
  5
1BAE
330
172B
100
AcDbEntity
  8
0
100
AcDbLine
 10
-259.6182115369749
 20
117.3732552107411
 30
0.0
 11
-259.6182115369749
 21
69.37325521074109
 31
0.0
  0
LINE
  5
1BAF
330
172B
100
AcDbEntity
  8
0
100
AcDbLine
 10
-318.6182115369749
 20
127.8732552107411
 30
0.0
 11
-282.1182115369749
 21
127.8732552107411
 31
0.0
  0
LINE
  5
1BB0
330
172B
100
AcDbEntity
  8
0
100
AcDbLine
 10
-269.1182115369749
 20
68.37325521074103
 30
0.0
 11
-269.1182115369749
 21
1.757994893280624
 31
0.0
  0
LINE
  5
1BB1
330
172B
100
AcDbEntity
  8
0
100
AcDbLine
 10
-330.118211536975
 20
68.37325521074103
 30
0.0
 11
-330.118211536975
 21
1.757994893280624
 31
0.0
  0
LINE
  5
1BB2
330
172B
100
AcDbEntity
  8
0
100
AcDbLine
 10
-329.4635575687211
 20
0.2781155282012833
 30
0.0
 11
-320.7903448703084
 21
-7.606624154338419
 31
0.0
  0
LINE
  5
1BB3
330
172B
100
AcDbEntity
  8
0
100
AcDbLine
 10
-269.772868679832
 20
0.2781155282012833
 30
0.0
 11
-278.4460813782449
 21
-7.606624154338419
 31
0.0
  0
ARC
  5
1BB4
330
172B
100
AcDbEntity
  8
0
100
AcDbCircle
 10
-271.1182115369749
 20
1.757994893280624
 30
0.0
 40
2.000000000000003
100
AcDbArc
 50
312.2736890000006
 51
0.0
  0
ARC
  5
1BB5
330
172B
100
AcDbEntity
  8
0
100
AcDbCircle
 10
-279.7914274099908
 20
-6.126744789259078
 30
0.0
 40
2.000000000000003
100
AcDbArc
 50
270.0
 51
312.2736890000006
  0
ARC
  5
1BB6
330
172B
100
AcDbEntity
  8
0
100
AcDbCircle
 10
-328.118211536975
 20
1.757994893280624
 30
0.0
 40
2.000000000000003
100
AcDbArc
 50
180.0
 51
227.7263109999992
  0
ARC
  5
1BB7
330
172B
100
AcDbEntity
  8
0
100
AcDbCircle
 10
-319.4449988385624
 20
-6.126744789259078
 30
0.0
 40
2.000000000000003
100
AcDbArc
 50
227.7263109999992
 51
270.0
  0
LINE
  5
1BB8
330
172B
100
AcDbEntity
  8
0
 62
     7
100
AcDbLine
 10
-286.618211536975
 20
134.3732552107411
 30
0.0
 11
-287.6182115369749
 21
134.3732552107411
 31
0.0
  0
LINE
  5
1BB9
330
172B
100
AcDbEntity
  8
0
 62
     7
100
AcDbLine
 10
-311.7984083623718
 20
172.3732552107412
 30
0.0
 11
-287.4380178861813
 21
172.3732552107412
 31
0.0
  0
LINE
  5
1BBA
330
172B
100
AcDbEntity
  8
0
 62
     7
100
AcDbLine
 10
-315.618211536975
 20
132.5694075916935
 30
0.0
 11
-315.618211536975
 21
129.3732552107411
 31
0.0
  0
LINE
  5
1BBB
330
172B
100
AcDbEntity
  8
0
 62
     7
100
AcDbLine
 10
-315.618211536975
 20
129.3732552107411
 30
0.0
 11
-317.1182115369751
 21
128.5072298139157
 31
0.0
  0
LINE
  5
1BBC
330
172B
100
AcDbEntity
  8
0
 62
     7
100
AcDbLine
 10
-317.1182115369751
 20
128.5072298139157
 30
0.0
 11
-317.1182115369751
 21
127.8732552107411
 31
0.0
  0
LINE
  5
1BBD
330
172B
100
AcDbEntity
  8
0
 62
     7
100
AcDbLine
 10
-311.618211536975
 20
135.3732552107411
 30
0.0
 11
-311.618211536975
 21
134.3732552107411
 31
0.0
  0
ARC
  5
1BBE
330
172B
100
AcDbEntity
  8
0
 62
     7
100
AcDbCircle
 10
-314.1023448703084
 20
135.8732552107411
 30
0.0
 40
0.500000000000001
100
AcDbArc
 50
178.2100889999999
 51
270.0
  0
LINE
  5
1BBF
330
172B
100
AcDbEntity
  8
0
 62
     7
100
AcDbLine
 10
-312.618211536975
 20
133.3732552107411
 30
0.0
 11
-315.618211536975
 21
132.5694075916935
 31
0.0
  0
LINE
  5
1BC0
330
172B
100
AcDbEntity
  8
0
 62
     7
100
AcDbLine
 10
-312.618211536975
 20
134.3732552107411
 30
0.0
 11
-287.6182115369749
 21
134.3732552107411
 31
0.0
  0
LINE
  5
1BC1
330
172B
100
AcDbEntity
  8
0
 62
     7
100
AcDbLine
 10
-280.0579893147526
 20
135.3732552107411
 30
0.0
 11
-319.1784369338005
 21
135.3732552107411
 31
0.0
  0
LINE
  5
1BC2
330
172B
100
AcDbEntity
  8
0
 62
     7
100
AcDbLine
 10
-312.618211536975
 20
134.3732552107411
 30
0.0
 11
-312.618211536975
 21
133.3732552107411
 31
0.0
  0
LINE
  5
1BC3
330
172B
100
AcDbEntity
  8
0
 62
     7
100
AcDbLine
 10
-287.6182115369749
 20
135.3732552107411
 30
0.0
 11
-287.6182115369749
 21
134.3732552107411
 31
0.0
  0
LINE
  5
1BC4
330
172B
100
AcDbEntity
  8
CENTER
  6
CENTER
100
AcDbLine
 10
-299.618211536975
 20
175.4694742583603
 30
0.0
 11
-299.618211536975
 21
-34.0144019321163
 31
0.0
  0
LINE
  5
1BC5
330
172B
100
AcDbEntity
  8
0
 62
     7
100
AcDbLine
 10
-283.6182115369749
 20
132.5694075916935
 30
0.0
 11
-283.6182115369749
 21
129.3732552107411
 31
0.0
  0
LINE
  5
1BC6
330
172B
100
AcDbEntity
  8
0
 62
     7
100
AcDbLine
 10
-283.6182115369749
 20
129.3732552107411
 30
0.0
 11
-282.1182115369749
 21
128.5072298139157
 31
0.0
  0
LINE
  5
1BC8
330
172B
100
AcDbEntity
  8
0
 62
     7
100
AcDbLine
 10
-282.1182115369749
 20
128.5072298139157
 30
0.0
 11
-282.1182115369749
 21
127.8732552107411
 31
0.0
  0
LINE
  5
1BC9
330
172B
100
AcDbEntity
  8
0
 62
     7
100
AcDbLine
 10
-286.618211536975
 20
133.3732552107411
 30
0.0
 11
-283.6182115369749
 21
132.5694075916935
 31
0.0
  0
LINE
  5
1BCA
330
172B
100
AcDbEntity
  8
0
 62
     7
100
AcDbLine
 10
-286.7182115369749
 20
135.3732552107411
 30
0.0
 11
-280.0579893147527
 21
135.3732552107411
 31
0.0
  0
LINE
  5
1BCB
330
172B
100
AcDbEntity
  8
0
 62
     7
100
AcDbLine
 10
-286.618211536975
 20
134.3732552107411
 30
0.0
 11
-286.618211536975
 21
133.3732552107411
 31
0.0
  0
LINE
  5
1BCC
330
172B
100
AcDbEntity
  8
0
100
AcDbLine
 10
-282.1182115369749
 20
127.8732552107411
 30
0.0
 11
-261.6191639179274
 21
127.8732552107411
 31
0.0
  0
LINE
  5
1BCD
330
172B
100
AcDbEntity
  8
CENTER
  6
CENTER
100
AcDbLine
 10
-271.1182115369749
 20
123.4745034797067
 30
0.0
 11
-271.1182115369749
 21
147.6615536234396
 31
0.0
  0
ARC
  5
1BCE
330
172B
100
AcDbEntity
  8
0
 62
     7
100
AcDbCircle
 10
-268.1762369338004
 20
142.8717567980427
 30
0.0
 40
2.999698412698418
100
AcDbArc
 50
14.79249699999947
 51
90.0
  0
ARC
  5
1BCF
330
172B
100
AcDbEntity
  8
0
 62
     7
100
AcDbCircle
 10
-274.0601893147527
 20
142.8717567980427
 30
0.0
 40
2.999698412698418
100
AcDbArc
 50
90.0
 51
165.2075030000005
  0
ARC
  5
1BD0
330
172B
100
AcDbEntity
  8
0
 62
     7
100
AcDbCircle
 10
-228.6224623306256
 20
130.8729567980427
 30
0.0
 40
49.9950000000001
100
AcDbArc
 50
165.2075030000005
 51
180.0
  0
LINE
  5
1BD1
330
172B
100
AcDbEntity
  8
0
 62
     7
100
AcDbLine
 10
-280.6172623306256
 20
130.8729567980427
 30
0.0
 11
-263.6189639179272
 21
130.8729567980427
 31
0.0
  0
ARC
  5
1BD3
330
172B
100
AcDbEntity
  8
0
 62
     7
100
AcDbCircle
 10
-313.6139639179272
 20
130.8729567980427
 30
0.0
 40
49.9950000000001
100
AcDbArc
 50
0.0
 51
14.79249699999947
  0
LINE
  5
1BD4
330
172B
100
AcDbEntity
  8
0
 62
     7
100
AcDbLine
 10
-261.6191639179272
 20
130.8729567980427
 30
0.0
 11
-261.6191639179272
 21
127.8732552107411
 31
0.0
  0
LINE
  5
1BD5
330
172B
100
AcDbEntity
  8
0
 62
     7
100
AcDbLine
 10
-263.6189639179273
 20
130.8729567980427
 30
0.0
 11
-261.6191639179272
 21
130.8729567980427
 31
0.0
  0
LINE
  5
1BDA
330
172B
100
AcDbEntity
  8
0
 62
     7
100
AcDbLine
 10
-274.0601893147527
 20
145.8714552107412
 30
0.0
 11
-268.1762369338004
 21
145.8714552107412
 31
0.0
  0
LINE
  5
1BDD
330
172B
100
AcDbEntity
  8
0
 62
     7
100
AcDbLine
 10
-280.6172623306256
 20
130.8729567980427
 30
0.0
 11
-280.6172623306256
 21
127.8732552107411
 31
0.0
  0
LINE
  5
1BDE
330
172B
100
AcDbEntity
  8
0
100
AcDbLine
 10
-263.6182115369749
 20
127.8732552107411
 30
0.0
 11
-261.1182115369748
 21
127.8732552107411
 31
0.0
  0
LINE
  5
1BDF
330
172B
100
AcDbEntity
  8
0
100
AcDbLine
 10
-319.4449988385624
 20
-8.126744789259078
 30
0.0
 11
-279.7914274099908
 21
-8.126744789259078
 31
0.0
  0
LINE
  5
1BE0
330
172B
100
AcDbEntity
  8
0
100
AcDbLine
 10
-334.4274242353876
 20
116.8732552107411
 30
0.0
 11
-334.4274242353876
 21
69.37325521074109
 31
0.0
  0
LINE
  5
1BE1
330
172B
100
AcDbEntity
  8
0
100
AcDbLine
 10
-334.4274242353876
 20
117.3671853694713
 30
0.0
 11
-334.4274242353876
 21
117.8732552107411
 31
0.0
  0
LINE
  5
1BE2
330
172B
100
AcDbEntity
  8
0
100
AcDbLine
 10
-333.4274242353878
 20
68.37325521074103
 30
0.0
 11
-330.118211536975
 21
68.37325521074103
 31
0.0
  0
ARC
  5
1BE3
330
172B
100
AcDbEntity
  8
0
100
AcDbCircle
 10
-333.4274242353878
 20
116.8732552107411
 30
0.0
 40
1.000000000000001
100
AcDbArc
 50
90.0
 51
180.0
  0
ARC
  5
1BE4
330
172B
100
AcDbEntity
  8
0
100
AcDbCircle
 10
-260.6182115369749
 20
69.37325521074109
 30
0.0
 40
1.000000000000001
100
AcDbArc
 50
270.0
 51
0.0
  0
ARC
  5
1BE5
330
172B
100
AcDbEntity
  8
0
100
AcDbCircle
 10
-333.4274242353878
 20
69.37325521074109
 30
0.0
 40
1.000000000000001
100
AcDbArc
 50
180.0
 51
270.0
  0
ARC
  5
1BE6
330
172B
100
AcDbEntity
  8
0
100
AcDbCircle
 10
-299.618211536975
 20
265.0937225041321
 30
0.0
 40
37.50000000000007
100
AcDbArc
 50
203.5781779999989
 51
246.4218220000015
  0
LINE
  5
1BE7
330
172B
100
AcDbEntity
  8
0
100
AcDbLine
 10
-335.1182115369752
 20
279.0937225041322
 30
0.0
 11
-335.1182115369752
 21
251.093722504132
 31
0.0
  0
LINE
  5
1BE8
330
172B
100
AcDbEntity
  8
0
100
AcDbLine
 10
-259.118211536975
 20
279.0937225041322
 30
0.0
 11
-259.118211536975
 21
251.093722504132
 31
0.0
  0
ARC
  5
1BE9
330
172B
100
AcDbEntity
  8
0
100
AcDbCircle
 10
-299.618211536975
 20
265.0937225041321
 30
0.0
 40
37.50000000000007
100
AcDbArc
 50
23.57817799999893
 51
66.4218220000016
  0
LINE
  5
1BEA
330
172B
100
AcDbEntity
  8
0
100
AcDbLine
 10
-314.6182115369752
 20
300.0937225041321
 30
0.0
 11
-314.6182115369752
 21
299.4630399644496
 31
0.0
  0
LINE
  5
1BEB
330
172B
100
AcDbEntity
  8
0
100
AcDbLine
 10
-284.6182115369752
 20
300.0937225041321
 30
0.0
 11
-284.6182115369752
 21
299.4630399644496
 31
0.0
  0
LINE
  5
1BEC
330
172B
100
AcDbEntity
  8
0
100
AcDbLine
 10
-314.6182115369752
 20
300.0937225041321
 30
0.0
 11
-284.6182115369752
 21
300.0937225041321
 31
0.0
  0
LINE
  5
1BED
330
172B
100
AcDbEntity
  8
0
100
AcDbLine
 10
-314.6182115369752
 20
230.093722504132
 30
0.0
 11
-284.6182115369752
 21
230.093722504132
 31
0.0
  0
ARC
  5
1BEE
330
172B
100
AcDbEntity
  8
0
100
AcDbCircle
 10
-299.618211536975
 20
265.0937225041321
 30
0.0
 40
37.50000000000007
100
AcDbArc
 50
293.5781779999984
 51
336.4218220000011
  0
ARC
  5
1BEF
330
172B
100
AcDbEntity
  8
0
100
AcDbCircle
 10
-299.618211536975
 20
265.0937225041321
 30
0.0
 40
37.50000000000007
100
AcDbArc
 50
113.5781779999984
 51
156.421822000001
  0
LINE
  5
1BF0
330
172B
100
AcDbEntity
  8
0
100
AcDbLine
 10
-314.6182115369752
 20
230.7244050438146
 30
0.0
 11
-314.6182115369752
 21
230.093722504132
 31
0.0
  0
LINE
  5
1BF1
330
172B
100
AcDbEntity
  8
0
100
AcDbLine
 10
-284.6182115369752
 20
230.7244050438146
 30
0.0
 11
-284.6182115369752
 21
230.093722504132
 31
0.0
  0
LINE
  5
1BF2
330
172B
100
AcDbEntity
  8
CENTER
  6
CENTER
100
AcDbLine
 10
-338.568608362372
 20
265.0937225041321
 30
0.0
 11
-253.2675258226893
 21
265.0937225041321
 31
0.0
  0
LINE
  5
1BF3
330
172B
100
AcDbEntity
  8
CENTER
  6
CENTER
100
AcDbLine
 10
-299.618211536975
 20
302.7937225041322
 30
0.0
 11
-299.618211536975
 21
226.0426399644495
 31
0.0
  0
ARC
  5
1BF4
330
172B
100
AcDbEntity
  8
0
100
AcDbCircle
 10
-299.618211536975
 20
265.0937225041321
 30
0.0
 40
35.10000000000006
100
AcDbArc
 50
265.6739930000015
 51
274.3260069999984
  0
ARC
  5
1BF5
330
172B
100
AcDbEntity
  8
0
 62
     7
100
AcDbCircle
 10
-299.618211536975
 20
265.0937225041321
 30
0.0
 40
18.50000000000003
100
AcDbArc
 50
69.64764499999988
 51
296.0165340000012
  0
CIRCLE
  5
1BF6
330
172B
100
AcDbEntity
  8
0
 62
     7
100
AcDbCircle
 10
-299.618211536975
 20
265.0937225041321
 30
0.0
 40
16.50000000000003
  0
ARC
  5
1BF7
330
172B
100
AcDbEntity
  8
0
100
AcDbCircle
 10
-271.1182115369751
 20
265.0937225041321
 30
0.0
 40
10.00000000000001
100
AcDbArc
 50
280.8662330000013
 51
135.2607649999995
  0
ARC
  5
1BF8
330
172B
100
AcDbEntity
  8
0
 62
     7
100
AcDbCircle
 10
-282.6476464576099
 20
282.0642875834972
 30
0.0
 40
5.15000000000001
100
AcDbArc
 50
286.3576829999984
 51
150.0823020000003
  0
ARC
  5
1BF9
330
172B
100
AcDbEntity
  8
0
100
AcDbCircle
 10
-280.4671004258639
 20
249.0240336152432
 30
0.0
 40
7.250000000000013
100
AcDbArc
 50
198.4958050000003
 51
6.27362799999976
  0
ARC
  5
1BFA
330
172B
100
AcDbEntity
  8
0
 62
     7
100
AcDbCircle
 10
-291.4450877274513
 20
287.1266558374654
 30
0.0
 40
5.000000000000008
100
AcDbArc
 50
249.6476459999983
 51
330.0823020000003
  0
ARC
  5
1BFB
330
172B
100
AcDbEntity
  8
0
 62
     7
100
AcDbCircle
 10
-268.2904591560226
 20
250.3626748850845
 30
0.0
 40
5.000000000000008
100
AcDbArc
 50
100.866231999999
 51
186.2736259999998
  0
ARC
  5
1BFC
330
172B
100
AcDbEntity
  8
0
 62
     7
100
AcDbCircle
 10
-290.1876559814196
 20
245.7723732977828
 30
0.0
 40
3.000000000000005
100
AcDbArc
 50
18.49580599999949
 51
116.0165340000012
  0
ARC
  5
1BFD
330
172B
100
AcDbEntity
  8
0
 62
     7
100
AcDbCircle
 10
-280.3523385211022
 20
274.2441796469893
 30
0.0
 40
3.000000000000005
100
AcDbArc
 50
106.3576829999983
 51
315.2607699999994
  0
ARC
  5
1BFE
330
172B
100
AcDbEntity
  8
0
 62
     7
100
AcDbCircle
 10
-280.4671004258639
 20
249.0240336152432
 30
0.0
 40
4.900000000000009
100
AcDbArc
 50
7.033461000000266
 51
172.9665389999997
  0
ARC
  5
1BFF
330
172B
100
AcDbEntity
  8
0
 62
     7
100
AcDbCircle
 10
-282.6476464576099
 20
282.0642875834972
 30
0.0
 40
3.150000000000005
100
AcDbArc
 50
190.9805750000003
 51
349.0194249999996
  0
LINE
  5
1C00
330
172B
100
AcDbEntity
  8
0
100
AcDbLine
 10
-310.4482115369753
 20
293.5937225041321
 30
0.0
 11
-288.7882115369752
 21
293.5937225041321
 31
0.0
  0
LINE
  5
1C01
330
172B
100
AcDbEntity
  8
0
100
AcDbLine
 10
-310.4482115369753
 20
236.593722504132
 30
0.0
 11
-288.7882115369752
 21
236.593722504132
 31
0.0
  0
LINE
  5
1C02
330
172B
100
AcDbEntity
  8
0
100
AcDbLine
 10
-310.4482115369753
 20
230.093722504132
 30
0.0
 11
-310.4482115369753
 21
236.593722504132
 31
0.0
  0
LINE
  5
1C03
330
172B
100
AcDbEntity
  8
0
100
AcDbLine
 10
-288.7882115369752
 20
230.093722504132
 30
0.0
 11
-288.7882115369752
 21
236.593722504132
 31
0.0
  0
LINE
  5
1C04
330
172B
100
AcDbEntity
  8
0
100
AcDbLine
 10
-310.4482115369753
 20
293.5937225041321
 30
0.0
 11
-310.4482115369753
 21
300.0937225041321
 31
0.0
  0
LINE
  5
1C05
330
172B
100
AcDbEntity
  8
0
100
AcDbLine
 10
-288.7882115369752
 20
293.5937225041321
 30
0.0
 11
-288.7882115369752
 21
300.0937225041321
 31
0.0
  0
LINE
  5
1C06
330
172B
100
AcDbEntity
  8
0
100
AcDbLine
 10
-305.618211536975
 20
230.093722504132
 30
0.0
 11
-305.618211536975
 21
236.593722504132
 31
0.0
  0
LINE
  5
1C07
330
172B
100
AcDbEntity
  8
0
100
AcDbLine
 10
-293.618211536975
 20
230.093722504132
 30
0.0
 11
-293.618211536975
 21
236.593722504132
 31
0.0
  0
LINE
  5
1C08
330
172B
100
AcDbEntity
  8
0
100
AcDbLine
 10
-305.618211536975
 20
293.5937225041321
 30
0.0
 11
-305.618211536975
 21
300.0937225041321
 31
0.0
  0
LINE
  5
1C09
330
172B
100
AcDbEntity
  8
0
100
AcDbLine
 10
-293.618211536975
 20
293.5937225041321
 30
0.0
 11
-293.618211536975
 21
300.0937225041321
 31
0.0
  0
ARC
  5
1C0A
330
172B
100
AcDbEntity
  8
0
 62
     7
100
AcDbCircle
 10
-299.618211536975
 20
265.0937225041321
 30
0.0
 40
20.00000000000003
100
AcDbArc
 50
99.31466499999853
 51
257.387108
  0
ARC
  5
1C0B
330
172B
100
AcDbEntity
  8
0
100
AcDbCircle
 10
-282.6476464576099
 20
282.0642875834972
 30
0.0
 40
6.000000000000011
100
AcDbArc
 50
48.2967019999983
 51
99.31466499999853
  0
ARC
  5
1C0C
330
172B
100
AcDbEntity
  8
0
100
AcDbCircle
 10
-271.1182115369751
 20
265.0937225041321
 30
0.0
 40
11.00000000000002
100
AcDbArc
 50
322.0823070000002
 51
48.29673799999981
  0
ARC
  5
1C0D
330
172B
100
AcDbEntity
  8
0
100
AcDbCircle
 10
-280.4671004258639
 20
249.0240336152432
 30
0.0
 40
8.500000000000015
100
AcDbArc
 50
257.387108
 51
322.0823150000001
  0
LINE
  5
1C0E
330
172B
100
AcDbEntity
  8
0
100
AcDbLine
 10
-302.8553385211021
 20
284.8300113930209
 30
0.0
 11
-283.6187861401498
 21
287.9851732977829
 31
0.0
  0
LINE
  5
1C0F
330
172B
100
AcDbEntity
  8
0
 62
     7
100
AcDbLine
 10
-278.656008362372
 20
286.5438875834972
 30
0.0
 11
-263.8002051877687
 21
273.3063256787353
 31
0.0
  0
LINE
  5
1C10
330
172B
100
AcDbEntity
  8
0
100
AcDbLine
 10
-262.4403702671338
 20
258.3339066311161
 30
0.0
 11
-273.7614972512608
 21
243.8005383771479
 31
0.0
  0
LINE
  5
1C11
330
172B
100
AcDbEntity
  8
0
100
AcDbLine
 10
-282.3231829655465
 20
240.7291574247669
 30
0.0
 11
-303.9854686798323
 21
245.5763701231796
 31
0.0
  0
LINE
  5
1C12
330
172B
100
AcDbEntity
  8
0
100
AcDbLine
 10
-307.6182115369752
 20
236.593722504132
 30
0.0
 11
-307.6182115369752
 21
246.7634209168305
 31
0.0
  0
LINE
  5
1C13
330
172B
100
AcDbEntity
  8
0
100
AcDbLine
 10
-291.6182115369751
 20
236.593722504132
 30
0.0
 11
-291.6182115369751
 21
240.0937225041321
 31
0.0
  0
LINE
  5
1C14
330
172B
100
AcDbEntity
  8
0
100
AcDbLine
 10
-291.6182115369751
 20
286.6731129803226
 30
0.0
 11
-291.6182115369751
 21
293.5937225041321
 31
0.0
  0
LINE
  5
1C15
330
172B
100
AcDbEntity
  8
0
100
AcDbLine
 10
-307.6182115369752
 20
283.4240272660369
 30
0.0
 11
-307.6182115369752
 21
293.5937225041321
 31
0.0
  0
LINE
  5
1C16
330
172B
100
AcDbEntity
  8
0
100
AcDbLine
 10
-291.118211536975
 20
240.593722504132
 30
0.0
 11
-279.3808782036418
 21
240.593722504132
 31
0.0
  0
LINE
  5
1C17
330
172B
100
AcDbEntity
  8
0
100
AcDbLine
 10
-334.1182115369753
 20
280.0937225041321
 30
0.0
 11
-312.8469670925306
 21
280.0937225041321
 31
0.0
  0
LINE
  5
1C18
330
172B
100
AcDbEntity
  8
0
100
AcDbLine
 10
-334.1182115369753
 20
250.093722504132
 30
0.0
 11
-312.8469670925306
 21
250.093722504132
 31
0.0
  0
LINE
  5
1C19
330
172B
100
AcDbEntity
  8
0
100
AcDbLine
 10
-271.4173385211021
 20
280.0937225041321
 30
0.0
 11
-260.118211536975
 21
280.0937225041321
 31
0.0
  0
LINE
  5
1C1A
330
172B
100
AcDbEntity
  8
0
100
AcDbLine
 10
-268.8592655052291
 20
250.093722504132
 30
0.0
 11
-260.118211536975
 21
250.093722504132
 31
0.0
  0
CIRCLE
  5
1C1B
330
172B
100
AcDbEntity
  8
0
100
AcDbCircle
 10
-314.6182115369752
 20
295.0937225041321
 30
0.0
 40
2.250000000000003
  0
CIRCLE
  5
1C1C
330
172B
100
AcDbEntity
  8
0
100
AcDbCircle
 10
-284.6182115369752
 20
295.0937225041321
 30
0.0
 40
2.250000000000003
  0
CIRCLE
  5
1C1D
330
172B
100
AcDbEntity
  8
0
100
AcDbCircle
 10
-284.6182115369752
 20
235.093722504132
 30
0.0
 40
2.250000000000003
  0
CIRCLE
  5
1C1E
330
172B
100
AcDbEntity
  8
0
100
AcDbCircle
 10
-314.6182115369752
 20
235.093722504132
 30
0.0
 40
2.250000000000003
  0
ARC
  5
1C1F
330
172B
100
AcDbEntity
  8
0
 62
     3
100
AcDbCircle
 10
-314.6182115369752
 20
295.0937225041321
 30
0.0
 40
2.500000000000004
100
AcDbArc
 50
90.0
 51
0.0
  0
ARC
  5
1C20
330
172B
100
AcDbEntity
  8
0
 62
     3
100
AcDbCircle
 10
-284.6182115369752
 20
295.0937225041321
 30
0.0
 40
2.500000000000004
100
AcDbArc
 50
90.0
 51
0.0
  0
ARC
  5
1C21
330
172B
100
AcDbEntity
  8
0
 62
     3
100
AcDbCircle
 10
-284.6182115369752
 20
235.093722504132
 30
0.0
 40
2.500000000000004
100
AcDbArc
 50
90.0
 51
0.0
  0
ARC
  5
1C22
330
172B
100
AcDbEntity
  8
0
 62
     3
100
AcDbCircle
 10
-314.6182115369752
 20
235.093722504132
 30
0.0
 40
2.500000000000004
100
AcDbArc
 50
90.0
 51
0.0
  0
CIRCLE
  5
1C23
330
172B
100
AcDbEntity
  8
0
 62
     7
100
AcDbCircle
 10
-271.1182115369751
 20
265.0937225041321
 30
0.0
 40
5.400000000000009
  0
ARC
  5
1C24
330
172B
100
AcDbEntity
  8
0
100
AcDbCircle
 10
-291.118211536975
 20
240.0937225041321
 30
0.0
 40
0.500000000000001
100
AcDbArc
 50
90.0
 51
180.0
  0
ARC
  5
1C25
330
172B
100
AcDbEntity
  8
0
100
AcDbCircle
 10
-291.118211536975
 20
240.0937225041321
 30
0.0
 40
0.500000000000001
100
AcDbArc
 50
90.0
 51
180.0
  0
LINE
  5
1C26
330
172B
100
AcDbEntity
  8
CENTER
  6
CENTER
100
AcDbLine
 10
-319.6182115369751
 20
235.093722504132
 30
0.0
 11
-309.6182115369752
 21
235.093722504132
 31
0.0
  0
LINE
  5
1C27
330
172B
100
AcDbEntity
  8
CENTER
  6
CENTER
100
AcDbLine
 10
-314.6182115369752
 20
230.093722504132
 30
0.0
 11
-314.6182115369752
 21
240.0937225041321
 31
0.0
  0
LINE
  5
1C28
330
172B
100
AcDbEntity
  8
CENTER
  6
CENTER
100
AcDbLine
 10
-289.6182115369751
 20
235.093722504132
 30
0.0
 11
-279.6182115369751
 21
235.093722504132
 31
0.0
  0
LINE
  5
1C29
330
172B
100
AcDbEntity
  8
CENTER
  6
CENTER
100
AcDbLine
 10
-284.6182115369752
 20
230.093722504132
 30
0.0
 11
-284.6182115369752
 21
240.0937225041321
 31
0.0
  0
LINE
  5
1C2A
330
172B
100
AcDbEntity
  8
CENTER
  6
CENTER
100
AcDbLine
 10
-289.6182115369751
 20
295.0937225041321
 30
0.0
 11
-279.6182115369751
 21
295.0937225041321
 31
0.0
  0
LINE
  5
1C2B
330
172B
100
AcDbEntity
  8
CENTER
  6
CENTER
100
AcDbLine
 10
-284.6182115369752
 20
290.0937225041321
 30
0.0
 11
-284.6182115369752
 21
300.0937225041321
 31
0.0
  0
LINE
  5
1C2C
330
172B
100
AcDbEntity
  8
CENTER
  6
CENTER
100
AcDbLine
 10
-319.6182115369751
 20
295.0937225041321
 30
0.0
 11
-309.6182115369752
 21
295.0937225041321
 31
0.0
  0
LINE
  5
1C2D
330
172B
100
AcDbEntity
  8
CENTER
  6
CENTER
100
AcDbLine
 10
-314.6182115369752
 20
290.0937225041321
 30
0.0
 11
-314.6182115369752
 21
300.0937225041321
 31
0.0
  0
POINT
  5
1C2E
330
172B
100
AcDbEntity
  8
0
 62
     7
100
AcDbPoint
 10
-271.1182115369751
 20
260.0937225041321
 30
0.0
  0
CIRCLE
  5
1C31
330
172B
100
AcDbEntity
  8
0
 62
     7
100
AcDbCircle
 10
-282.6476464576099
 20
282.0642875834972
 30
0.0
 40
3.650000000000007
  0
LINE
  5
1C32
330
172B
100
AcDbEntity
  8
0
 62
     7
100
AcDbLine
 10
-286.2479956639592
 20
282.6642875834972
 30
0.0
 11
-279.047300425864
 21
282.6642875834972
 31
0.0
  0
LINE
  5
1C33
330
172B
100
AcDbEntity
  8
0
 62
     7
100
AcDbLine
 10
-286.2479956639592
 20
281.4642875834972
 30
0.0
 11
-279.047300425864
 21
281.4642875834972
 31
0.0
  0
ARC
  5
1C34
330
172B
100
AcDbEntity
  8
0
 62
     7
100
AcDbCircle
 10
-282.6476464576099
 20
282.0642875834972
 30
0.0
 40
3.150000000000005
100
AcDbArc
 50
10.98057500000034
 51
169.0194249999996
  0
CIRCLE
  5
1C35
330
172B
100
AcDbEntity
  8
0
100
AcDbCircle
 10
-280.4671004258639
 20
249.0240336152432
 30
0.0
 40
5.500000000000009
  0
LINE
  5
1C36
330
172B
100
AcDbEntity
  8
0
 62
     7
100
AcDbLine
 10
-285.9342750290386
 20
249.6240336152431
 30
0.0
 11
-274.9999258226894
 21
249.6240336152431
 31
0.0
  0
LINE
  5
1C37
330
172B
100
AcDbEntity
  8
0
 62
     7
100
AcDbLine
 10
-285.9342750290386
 20
248.4240336152432
 30
0.0
 11
-274.9999258226894
 21
248.4240336152432
 31
0.0
  0
ARC
  5
1C38
330
172B
100
AcDbEntity
  8
0
 62
     7
100
AcDbCircle
 10
-280.4671004258639
 20
249.0240336152432
 30
0.0
 40
4.900000000000009
100
AcDbArc
 50
187.0334610000002
 51
352.9665389999997
  0
CIRCLE
  5
1C39
330
172B
100
AcDbEntity
  8
0
 62
     7
100
AcDbCircle
 10
-271.1182115369751
 20
265.0937225041321
 30
0.0
 40
6.765831746031759
  0
ARC
  5
1C3A
330
172B
100
AcDbEntity
  8
0
100
AcDbCircle
 10
-260.118211536975
 20
279.0937225041322
 30
0.0
 40
1.000000000000001
100
AcDbArc
 50
0.0
 51
90.0
  0
ARC
  5
1C3B
330
172B
100
AcDbEntity
  8
0
100
AcDbCircle
 10
-260.118211536975
 20
251.093722504132
 30
0.0
 40
1.000000000000001
100
AcDbArc
 50
270.0
 51
0.0
  0
ARC
  5
1C3C
330
172B
100
AcDbEntity
  8
0
100
AcDbCircle
 10
-334.1182115369753
 20
251.093722504132
 30
0.0
 40
1.000000000000001
100
AcDbArc
 50
180.0
 51
270.0
  0
ARC
  5
1C3D
330
172B
100
AcDbEntity
  8
0
100
AcDbCircle
 10
-334.1182115369753
 20
279.0937225041322
 30
0.0
 40
1.000000000000001
100
AcDbArc
 50
90.0
 51
180.0
  0
TEXT
  5
1C3E
330
172B
100
AcDbEntity
  8
0
 62
     7
100
AcDbText
 10
-306.4216083623719
 20
266.5334558374654
 30
0.0
 40
2.700000000000005
  1
P
 50
69.88162499999892
  7
R
100
AcDbText
  0
TEXT
  5
1C3F
330
172B
100
AcDbEntity
  8
0
 62
     7
100
AcDbText
 10
-305.8238401084038
 20
268.1095479009574
 30
0.0
 40
2.700000000000005
  1
U
 50
53.02378499999988
  7
R
100
AcDbText
  0
TEXT
  5
1C40
330
172B
100
AcDbEntity
  8
0
 62
     7
100
AcDbText
 10
-304.6798147115784
 20
269.9973796469893
 30
0.0
 40
2.700000000000005
  1
S
 50
32.08922999999993
  7
R
100
AcDbText
  0
TEXT
  5
1C41
330
172B
100
AcDbEntity
  8
0
 62
     7
100
AcDbText
 10
-302.8832655052291
 20
271.3036526628623
 30
0.0
 40
2.700000000000005
  1
H
 50
13.60038399999943
  7
R
100
AcDbText
  0
TEXT
  5
1C42
330
172B
100
AcDbEntity
  8
0
 62
     7
100
AcDbText
 10
-299.2140750290386
 20
271.9178431390528
 30
0.0
 40
2.700000000000005
  1
L
 50
349.535834
  7
R
100
AcDbText
  0
TEXT
  5
1C43
330
172B
100
AcDbEntity
  8
0
 62
     7
100
AcDbText
 10
-297.3596972512609
 20
271.7916304406401
 30
0.0
 40
2.700000000000005
  1
O
 50
325.7110820000011
  7
R
100
AcDbText
  0
TEXT
  5
1C44
330
172B
100
AcDbEntity
  8
0
 62
     7
100
AcDbText
 10
-295.3421702671338
 20
270.7491732977829
 30
0.0
 40
2.700000000000005
  1
C
 50
305.7883209999999
  7
R
100
AcDbText
  0
TEXT
  5
1C45
330
172B
100
AcDbEntity
  8
0
 62
     7
100
AcDbText
 10
-293.9307512195148
 20
269.0145796469892
 30
0.0
 40
2.700000000000005
  1
K
 50
293.1713179999996
  7
R
100
AcDbText
  0
LINE
  5
1C46
330
172B
100
AcDbEntity
  8
0
 62
     7
100
AcDbLine
 10
-281.3324305845941
 20
268.0048431390527
 30
0.0
 11
-283.1662242353878
 21
266.9857161549257
 31
0.0
  0
LINE
  5
1C47
330
172B
100
AcDbEntity
  8
0
 62
     7
100
AcDbLine
 10
-281.3324305845941
 20
262.1826050438146
 30
0.0
 11
-283.1662242353878
 21
263.2017320279416
 31
0.0
  0
ARC
  5
1C48
330
172B
100
AcDbEntity
  8
0
 62
     7
100
AcDbCircle
 10
-294.0022940766577
 20
265.0937225041321
 30
0.0
 40
11.00000000000002
100
AcDbArc
 50
350.0959230000002
 51
9.904076999999706
  0
ARC
  5
1C49
330
172B
100
AcDbEntity
  8
0
100
AcDbCircle
 10
-346.2771575687213
 20
265.0937225041321
 30
0.0
 40
16.15742222222225
100
AcDbArc
 50
348.2678269999997
 51
11.73217300000023
  0
LINE
  5
1C4A
330
172B
100
AcDbEntity
  8
0
100
AcDbLine
 10
-329.725735346499
 20
261.2691129803225
 30
0.0
 11
-323.6017480449117
 21
264.6561859961956
 31
0.0
  0
LINE
  5
1C4B
330
172B
100
AcDbEntity
  8
0
100
AcDbLine
 10
-329.725735346499
 20
268.9183320279417
 30
0.0
 11
-323.6017480449117
 21
265.5312621866717
 31
0.0
  0
ARC
  5
1C4C
330
172B
100
AcDbEntity
  8
0
100
AcDbCircle
 10
-323.8437416957054
 20
265.0937225041321
 30
0.0
 40
0.500000000000001
100
AcDbArc
 50
298.9462300000012
 51
61.05376999999872
  0
ARC
  5
1C4D
330
172B
100
AcDbEntity
  8
0
100
AcDbCircle
 10
-329.9677289972927
 20
268.4807955200051
 30
0.0
 40
0.500000000000001
100
AcDbArc
 50
61.05376999999872
 51
191.7321730000002
  0
ARC
  5
1C4E
330
172B
100
AcDbEntity
  8
0
100
AcDbCircle
 10
-329.9677289972927
 20
261.7066526628623
 30
0.0
 40
0.500000000000001
100
AcDbArc
 50
168.2678269999997
 51
298.9462300000012
  0
LINE
  5
1C4F
330
172B
100
AcDbEntity
  8
0
100
AcDbLine
 10
-183.2543924893556
 20
172.3732552107412
 30
0.0
 11
-158.8939988385621
 21
172.3732552107412
 31
0.0
  0
LINE
  5
1C50
330
172B
100
AcDbEntity
  8
HIDDEN
  6
PHANTOM
100
AcDbLine
 10
-230.2336559814194
 20
124.3732552107411
 30
0.0
 11
-230.2336559814194
 21
81.37325521074107
 31
0.0
  0
LINE
  5
1C51
330
172B
100
AcDbEntity
  8
HIDDEN
  6
PHANTOM
100
AcDbLine
 10
-230.2336559814194
 20
124.3732552107411
 30
0.0
 11
-223.7274401084033
 21
124.3732552107411
 31
0.0
  0
LINE
  5
1C52
330
172B
100
AcDbEntity
  8
HIDDEN
  6
PHANTOM
100
AcDbLine
 10
-230.2336559814194
 20
81.37325521074107
 30
0.0
 11
-223.7274401084033
 21
81.37325521074107
 31
0.0
  0
LINE
  5
1C53
330
172B
100
AcDbEntity
  8
HIDDEN
  6
PHANTOM
100
AcDbLine
 10
-210.2170782036413
 20
122.3547663218522
 30
0.0
 11
-210.2170782036413
 21
83.39174409962993
 31
0.0
  0
LINE
  5
1C54
330
172B
100
AcDbEntity
  8
HIDDEN
  6
PHANTOM
100
AcDbLine
 10
-202.8300083623716
 20
108.3732552107411
 30
0.0
 11
-202.8300083623716
 21
97.3732552107411
 31
0.0
  0
LINE
  5
1C55
330
172B
100
AcDbEntity
  8
HIDDEN
  6
PHANTOM
100
AcDbLine
 10
-222.7274401084034
 20
123.3732552107411
 30
0.0
 11
-222.7274401084034
 21
82.3732552107411
 31
0.0
  0
LINE
  5
1C56
330
172B
100
AcDbEntity
  8
HIDDEN
  6
PHANTOM
100
AcDbLine
 10
-222.7274401084034
 20
123.3547663218522
 30
0.0
 11
-211.2170782036415
 21
123.3547663218522
 31
0.0
  0
LINE
  5
1C57
330
172B
100
AcDbEntity
  8
HIDDEN
  6
PHANTOM
100
AcDbLine
 10
-210.2170782036413
 20
108.3732552107411
 30
0.0
 11
-202.8300083623716
 21
108.3732552107411
 31
0.0
  0
LINE
  5
1C58
330
172B
100
AcDbEntity
  8
HIDDEN
  6
PHANTOM
100
AcDbLine
 10
-210.2170782036413
 20
97.3732552107411
 30
0.0
 11
-202.8300083623716
 21
97.3732552107411
 31
0.0
  0
LINE
  5
1C59
330
172B
100
AcDbEntity
  8
HIDDEN
  6
HIDDEN
100
AcDbLine
 10
-199.574195663959
 20
107.2595599726458
 30
0.0
 11
-193.8476115369748
 21
107.0595821948681
 31
0.0
  0
LINE
  5
1C5A
330
172B
100
AcDbEntity
  8
HIDDEN
  6
HIDDEN
100
AcDbLine
 10
-199.574195663959
 20
98.48695044883635
 30
0.0
 11
-193.8476115369748
 21
98.6869282266141
 31
0.0
  0
LINE
  5
1C5B
330
172B
100
AcDbEntity
  8
HIDDEN
  6
HIDDEN
100
AcDbLine
 10
-202.86490677507
 20
99.3726456869316
 30
0.0
 11
-193.8476115369748
 21
99.68753775042365
 31
0.0
  0
LINE
  5
1C5C
330
172B
100
AcDbEntity
  8
HIDDEN
  6
HIDDEN
100
AcDbLine
 10
-202.86490677507
 20
106.3738647345507
 30
0.0
 11
-193.8476115369748
 21
106.0589726710585
 31
0.0
  0
LINE
  5
1C5D
330
172B
100
AcDbEntity
  8
HIDDEN
  6
PHANTOM
100
AcDbLine
 10
-210.2170782036413
 20
108.3732552107411
 30
0.0
 11
-202.8300083623716
 21
97.3732552107411
 31
0.0
  0
LINE
  5
1C5E
330
172B
100
AcDbEntity
  8
HIDDEN
  6
PHANTOM
100
AcDbLine
 10
-210.2170782036413
 20
97.3732552107411
 30
0.0
 11
-202.8300083623716
 21
108.3732552107411
 31
0.0
  0
ARC
  5
1C5F
330
172B
100
AcDbEntity
  8
0
100
AcDbCircle
 10
-211.2170782036415
 20
122.3547663218522
 30
0.0
 40
1.000000000000001
100
AcDbArc
 50
0.0
 51
90.0
  0
ARC
  5
1C60
330
172B
100
AcDbEntity
  8
0
100
AcDbCircle
 10
-223.7274401084033
 20
123.3732552107411
 30
0.0
 40
1.000000000000001
100
AcDbArc
 50
0.0
 51
90.0
  0
LINE
  5
1C61
330
172B
100
AcDbEntity
  8
HIDDEN
  6
PHANTOM
100
AcDbLine
 10
-222.7274401084034
 20
82.39174409962997
 30
0.0
 11
-211.2170782036415
 21
82.39174409962997
 31
0.0
  0
ARC
  5
1C62
330
172B
100
AcDbEntity
  8
0
100
AcDbCircle
 10
-211.2170782036415
 20
83.39174409962993
 30
0.0
 40
1.000000000000001
100
AcDbArc
 50
270.0
 51
0.0
  0
ARC
  5
1C63
330
172B
100
AcDbEntity
  8
0
100
AcDbCircle
 10
-223.7274401084033
 20
82.3732552107411
 30
0.0
 40
1.000000000000001
100
AcDbArc
 50
270.0
 51
0.0
  0
POINT
  5
1C67
330
172B
100
AcDbEntity
  8
0
 62
     7
100
AcDbPoint
 10
-152.0741956639589
 20
127.8732552107411
 30
0.0
  0
LINE
  5
1C69
330
172B
100
AcDbEntity
  8
0
100
AcDbLine
 10
-155.0741956639587
 20
96.87325521074113
 30
0.0
 11
-132.5741956639588
 21
96.87325521074113
 31
0.0
  0
LINE
  5
1C6A
330
172B
100
AcDbEntity
  8
0
 62
     7
100
AcDbLine
 10
-205.5741956639589
 20
96.87325521074113
 30
0.0
 11
-187.0741956639589
 21
96.87325521074113
 31
0.0
  0
LINE
  5
1C6B
330
172B
100
AcDbEntity
  8
0
 62
     7
100
AcDbLine
 10
-199.574195663959
 20
109.8732552107411
 30
0.0
 11
-199.574195663959
 21
96.87325521074113
 31
0.0
  0
LINE
  5
1C6C
330
172B
100
AcDbEntity
  8
0
 62
     7
100
AcDbLine
 10
-136.0741956639587
 20
96.3732552107411
 30
0.0
 11
-136.0741956639587
 21
69.37325521074109
 31
0.0
  0
LINE
  5
1C6D
330
172B
100
AcDbEntity
  8
CENTER
  6
CENTER
100
AcDbLine
 10
-171.0741956639589
 20
173.8732552107412
 30
0.0
 11
-171.0741956639589
 21
-31.7766939956083
 31
0.0
  0
LINE
  5
1C6E
330
172B
100
AcDbEntity
  8
0
 62
     7
100
AcDbLine
 10
-194.3165448703081
 20
127.8732552107411
 30
0.0
 11
-147.8318432830063
 21
127.8732552107411
 31
0.0
  0
LINE
  5
1C6F
330
172B
100
AcDbEntity
  8
0
 62
     7
100
AcDbLine
 10
-205.0741956639588
 20
68.37325521074103
 30
0.0
 11
-183.074195663959
 21
68.37325521074103
 31
0.0
  0
LINE
  5
1C70
330
172B
100
AcDbEntity
  8
0
 62
     7
100
AcDbLine
 10
-206.074195663959
 20
96.3732552107411
 30
0.0
 11
-206.074195663959
 21
69.37325521074109
 31
0.0
  0
LINE
  5
1C71
330
172B
100
AcDbEntity
  8
0
 62
     7
100
AcDbLine
 10
-194.3165448703081
 20
127.8732552107411
 30
0.0
 11
-194.3165448703081
 21
126.8732552107411
 31
0.0
  0
LINE
  5
1C72
330
172B
100
AcDbEntity
  8
0
 62
     7
100
AcDbLine
 10
-194.5741956639588
 20
126.8732552107411
 30
0.0
 11
-147.5741956639589
 21
126.8732552107411
 31
0.0
  0
LINE
  5
1C73
330
172B
100
AcDbEntity
  8
0
 62
     7
100
AcDbLine
 10
-183.074195663959
 20
70.87325521074109
 30
0.0
 11
-183.074195663959
 21
68.37325521074103
 31
0.0
  0
LINE
  5
1C74
330
172B
100
AcDbEntity
  8
0
 62
     7
100
AcDbLine
 10
-159.0741956639587
 20
70.87325521074109
 30
0.0
 11
-159.0741956639587
 21
68.37325521074103
 31
0.0
  0
LINE
  5
1C75
330
172B
100
AcDbEntity
  8
0
 62
     7
100
AcDbLine
 10
-159.0741956639587
 20
68.37325521074103
 30
0.0
 11
-137.0741956639589
 21
68.37325521074103
 31
0.0
  0
LINE
  5
1C76
330
172B
100
AcDbEntity
  8
CENTER
  6
CENTER
100
AcDbLine
 10
-233.935233759197
 20
102.873255210741
 30
0.0
 11
-139.1160242353874
 21
102.873255210741
 31
0.0
  0
LINE
  5
1C77
330
172B
100
AcDbEntity
  8
0
 62
     7
100
AcDbLine
 10
-136.0741956639587
 20
69.37325521074109
 30
0.0
 11
-137.0741956639589
 21
68.37325521074103
 31
0.0
  0
LINE
  5
1C78
330
172B
100
AcDbEntity
  8
0
 62
     7
100
AcDbLine
 10
-205.0741956639588
 20
68.37325521074103
 30
0.0
 11
-206.074195663959
 21
69.37325521074109
 31
0.0
  0
ARC
  5
1C79
330
172B
100
AcDbEntity
  8
0
 62
     7
100
AcDbCircle
 10
-136.5741956639587
 20
96.3732552107411
 30
0.0
 40
0.500000000000001
100
AcDbArc
 50
0.0
 51
90.0
  0
ARC
  5
1C7A
330
172B
100
AcDbEntity
  8
0
 62
     7
100
AcDbCircle
 10
-205.5741956639589
 20
96.3732552107411
 30
0.0
 40
0.500000000000001
100
AcDbArc
 50
90.0
 51
180.0
  0
LINE
  5
1C7B
330
172B
100
AcDbEntity
  8
0
 62
     7
100
AcDbLine
 10
-181.074195663959
 20
134.3732552107411
 30
0.0
 11
-178.4510051877683
 21
134.3732552107411
 31
0.0
  0
LINE
  5
1C7C
330
172B
100
AcDbEntity
  8
0
 62
     7
100
AcDbLine
 10
-158.0741956639589
 20
134.3732552107411
 30
0.0
 11
-158.0741956639589
 21
133.3732552107411
 31
0.0
  0
LINE
  5
1C7D
330
172B
100
AcDbEntity
  8
0
 62
     7
100
AcDbLine
 10
-187.0741956639589
 20
132.5694075916935
 30
0.0
 11
-187.0741956639589
 21
129.3732552107411
 31
0.0
  0
LINE
  5
1C7E
330
172B
100
AcDbEntity
  8
0
 62
     7
100
AcDbLine
 10
-158.0741956639589
 20
134.3732552107411
 30
0.0
 11
-158.0741956639589
 21
133.3732552107411
 31
0.0
  0
LINE
  5
1C7F
330
172B
100
AcDbEntity
  8
0
100
AcDbLine
 10
-181.074195663959
 20
133.3732552107411
 30
0.0
 11
-178.5110591560223
 21
133.3732552107411
 31
0.0
  0
LINE
  5
1C80
330
172B
100
AcDbEntity
  8
0
100
AcDbLine
 10
-158.0741956639589
 20
132.5694075916935
 30
0.0
 11
-163.6036178861811
 21
132.5694075916935
 31
0.0
  0
LINE
  5
1C81
330
172B
100
AcDbEntity
  8
0
 62
     7
100
AcDbLine
 10
-181.074195663959
 20
129.3732552107411
 30
0.0
 11
-180.5732464576095
 21
129.3732552107411
 31
0.0
  0
LINE
  5
1C82
330
172B
100
AcDbEntity
  8
0
 62
     7
100
AcDbLine
 10
-157.4190242353874
 20
128.5072298139157
 30
0.0
 11
-161.5751448703081
 21
128.5072298139157
 31
0.0
  0
ARC
  5
1C83
330
172B
100
AcDbEntity
  8
0
 62
     7
100
AcDbCircle
 10
-213.569944870308
 20
130.8764266393125
 30
0.0
 40
49.9950000000001
100
AcDbArc
 50
0.0
 51
14.79249699999947
  0
ARC
  5
1C84
330
172B
100
AcDbEntity
  8
0
 62
     7
100
AcDbCircle
 10
-128.5784464576095
 20
130.8764266393125
 30
0.0
 40
49.9950000000001
100
AcDbArc
 50
165.2075030000005
 51
180.0
  0
LINE
  5
1C85
330
172B
100
AcDbEntity
  8
0
 62
     7
100
AcDbLine
 10
-180.5732464576095
 20
130.8764266393125
 30
0.0
 11
-180.5732464576095
 21
127.8767282266141
 31
0.0
  0
LINE
  5
1C87
330
172B
100
AcDbEntity
  8
0
 62
     7
100
AcDbLine
 10
-180.5732464576095
 20
130.8764266393125
 30
0.0
 11
-161.5751448703081
 21
130.8764266393125
 31
0.0
  0
LINE
  5
1C88
330
172B
100
AcDbEntity
  8
0
 62
     7
100
AcDbLine
 10
-161.5751448703081
 20
130.8764266393125
 30
0.0
 11
-161.5751448703081
 21
127.8767282266141
 31
0.0
  0
POINT
  5
1C8A
330
172B
100
AcDbEntity
  8
0
 62
     7
100
AcDbPoint
 10
-161.5751448703081
 20
130.8764266393125
 30
0.0
  0
POINT
  5
1C8B
330
172B
100
AcDbEntity
  8
0
 62
     7
100
AcDbPoint
 10
-161.5751448703081
 20
130.8764266393125
 30
0.0
  0
ARC
  5
1C8D
330
172B
100
AcDbEntity
  8
0
 62
     7
100
AcDbCircle
 10
-168.1322178861811
 20
142.8752266393126
 30
0.0
 40
2.999698412698418
100
AcDbArc
 50
14.79249699999947
 51
90.0
  0
ARC
  5
1C8E
330
172B
100
AcDbEntity
  8
0
 62
     7
100
AcDbCircle
 10
-174.0161702671334
 20
142.8752266393126
 30
0.0
 40
2.999698412698418
100
AcDbArc
 50
90.0
 51
165.2075030000005
  0
LINE
  5
1C8F
330
172B
100
AcDbEntity
  8
0
 62
     7
100
AcDbLine
 10
-174.0161702671334
 20
145.8749282266142
 30
0.0
 11
-168.1322178861811
 21
145.8749282266142
 31
0.0
  0
LINE
  5
1C92
330
172B
100
AcDbEntity
  8
0
 62
     7
100
AcDbLine
 10
-163.6973861401494
 20
134.3732552107411
 30
0.0
 11
-158.0741956639589
 21
134.3732552107411
 31
0.0
  0
LINE
  5
1C93
330
172B
100
AcDbEntity
  8
0
100
AcDbLine
 10
-163.6373321718954
 20
133.3732552107411
 30
0.0
 11
-158.0741956639589
 21
133.3732552107411
 31
0.0
  0
LINE
  5
1C94
330
172B
100
AcDbEntity
  8
0
100
AcDbLine
 10
-178.5447734417366
 20
132.5694075916935
 30
0.0
 11
-181.074195663959
 21
132.5694075916935
 31
0.0
  0
LINE
  5
1C95
330
172B
100
AcDbEntity
  8
0
 62
     7
100
AcDbLine
 10
-161.5751448703081
 20
129.3732552107411
 30
0.0
 11
-158.0741956639589
 21
129.3732552107411
 31
0.0
  0
LINE
  5
1C96
330
172B
100
AcDbEntity
  8
0
 62
     7
100
AcDbLine
 10
-180.5732464576095
 20
128.5072298139157
 30
0.0
 11
-181.074195663959
 21
128.5072298139157
 31
0.0
  0
LINE
  5
1C97
330
172B
100
AcDbEntity
  8
0
100
AcDbLine
 10
-175.4687099496732
 20
130.8764266393125
 30
0.0
 11
-175.4687099496732
 21
127.8732552107411
 31
0.0
  0
LINE
  5
1C98
330
172B
100
AcDbEntity
  8
0
100
AcDbLine
 10
-166.6796782036415
 20
130.8764266393125
 30
0.0
 11
-166.6796782036415
 21
127.8732552107411
 31
0.0
  0
LINE
  5
1C99
330
172B
100
AcDbEntity
  8
0
 62
     7
100
AcDbLine
 10
-187.0741956639589
 20
134.3732552107411
 30
0.0
 11
-187.0741956639589
 21
127.8732552107411
 31
0.0
  0
LINE
  5
1C9A
330
172B
100
AcDbEntity
  8
0
 62
     7
100
AcDbLine
 10
-181.074195663959
 20
134.8732552107412
 30
0.0
 11
-181.074195663959
 21
127.8732552107411
 31
0.0
  0
LINE
  5
1C9B
330
172B
100
AcDbEntity
  8
0
 62
     7
100
AcDbLine
 10
-193.0741956639589
 20
134.8732552107412
 30
0.0
 11
-193.0741956639589
 21
127.8732552107411
 31
0.0
  0
LINE
  5
1C9C
330
172B
100
AcDbEntity
  8
0
 62
     7
100
AcDbLine
 10
-195.574195663959
 20
125.8732552107411
 30
0.0
 11
-195.574195663959
 21
97.87325521074112
 31
0.0
  0
ARC
  5
1C9D
330
172B
100
AcDbEntity
  8
0
 62
     7
100
AcDbCircle
 10
-194.5741956639588
 20
125.8732552107411
 30
0.0
 40
1.000000000000001
100
AcDbArc
 50
90.0
 51
180.0
  0
LINE
  5
1C9E
330
172B
100
AcDbEntity
  8
0
 62
     7
100
AcDbLine
 10
-192.0741956639589
 20
135.8732552107411
 30
0.0
 11
-187.6741956639588
 21
135.8732552107411
 31
0.0
  0
LINE
  5
1C9F
330
172B
100
AcDbEntity
  8
0
 62
     7
100
AcDbLine
 10
-182.0741956639588
 20
135.8732552107411
 30
0.0
 11
-181.074195663959
 21
134.8732552107412
 31
0.0
  0
LINE
  5
1CA0
330
172B
100
AcDbEntity
  8
0
 62
     7
100
AcDbLine
 10
-192.0741956639589
 20
135.8732552107411
 30
0.0
 11
-193.0741956639589
 21
134.8732552107412
 31
0.0
  0
LINE
  5
1CA1
330
172B
100
AcDbEntity
  8
0
 62
     7
100
AcDbLine
 10
-193.0741956639589
 20
134.8732552107412
 30
0.0
 11
-187.6741956639588
 21
134.8732552107412
 31
0.0
  0
LINE
  5
1CA2
330
172B
100
AcDbEntity
  8
0
 62
     7
100
AcDbLine
 10
-187.6741956639588
 20
135.8732552107411
 30
0.0
 11
-187.6741956639588
 21
134.3732552107411
 31
0.0
  0
LINE
  5
1CA3
330
172B
100
AcDbEntity
  8
0
 62
     7
100
AcDbLine
 10
-186.4741956639589
 20
135.8732552107411
 30
0.0
 11
-186.4741956639589
 21
134.3732552107411
 31
0.0
  0
LINE
  5
1CA4
330
172B
100
AcDbEntity
  8
0
 62
     7
100
AcDbLine
 10
-187.6741956639588
 20
134.3732552107411
 30
0.0
 11
-186.4741956639589
 21
134.3732552107411
 31
0.0
  0
LINE
  5
1CA5
330
172B
100
AcDbEntity
  8
0
 62
     7
100
AcDbLine
 10
-186.4741956639589
 20
135.8732552107411
 30
0.0
 11
-182.0741956639588
 21
135.8732552107411
 31
0.0
  0
LINE
  5
1CA6
330
172B
100
AcDbEntity
  8
0
 62
     7
100
AcDbLine
 10
-186.4741956639589
 20
134.8732552107412
 30
0.0
 11
-181.074195663959
 21
134.8732552107412
 31
0.0
  0
LINE
  5
1CA7
330
172B
100
AcDbEntity
  8
0
 62
     7
100
AcDbLine
 10
-187.8741956639588
 20
134.8732552107412
 30
0.0
 11
-187.8741956639588
 21
127.8732552107411
 31
0.0
  0
LINE
  5
1CA8
330
172B
100
AcDbEntity
  8
0
 62
     7
100
AcDbLine
 10
-188.674195663959
 20
134.8732552107412
 30
0.0
 11
-188.674195663959
 21
127.8732552107411
 31
0.0
  0
LINE
  5
1CA9
330
172B
100
AcDbEntity
  8
0
 62
     7
100
AcDbLine
 10
-189.4741956639589
 20
134.8732552107412
 30
0.0
 11
-189.4741956639589
 21
127.8732552107411
 31
0.0
  0
LINE
  5
1CAA
330
172B
100
AcDbEntity
  8
0
 62
     7
100
AcDbLine
 10
-190.2741956639589
 20
134.8732552107412
 30
0.0
 11
-190.2741956639589
 21
127.8732552107411
 31
0.0
  0
LINE
  5
1CAB
330
172B
100
AcDbEntity
  8
0
 62
     7
100
AcDbLine
 10
-191.0741956639589
 20
134.8732552107412
 30
0.0
 11
-191.0741956639589
 21
127.8732552107411
 31
0.0
  0
LINE
  5
1CAC
330
172B
100
AcDbEntity
  8
0
 62
     7
100
AcDbLine
 10
-191.8741956639589
 20
134.8732552107412
 30
0.0
 11
-191.8741956639589
 21
127.8732552107411
 31
0.0
  0
LINE
  5
1CAD
330
172B
100
AcDbEntity
  8
0
 62
     7
100
AcDbLine
 10
-192.674195663959
 20
134.8732552107412
 30
0.0
 11
-192.674195663959
 21
127.8732552107411
 31
0.0
  0
LINE
  5
1CAE
330
172B
100
AcDbEntity
  8
0
 62
     7
100
AcDbLine
 10
-181.4741956639589
 20
134.8732552107412
 30
0.0
 11
-181.4741956639589
 21
127.8732552107411
 31
0.0
  0
LINE
  5
1CAF
330
172B
100
AcDbEntity
  8
0
 62
     7
100
AcDbLine
 10
-183.074195663959
 20
134.8732552107412
 30
0.0
 11
-183.074195663959
 21
127.8732552107411
 31
0.0
  0
LINE
  5
1CB0
330
172B
100
AcDbEntity
  8
0
 62
     7
100
AcDbLine
 10
-182.2741956639589
 20
134.8732552107412
 30
0.0
 11
-182.2741956639589
 21
127.8732552107411
 31
0.0
  0
LINE
  5
1CB1
330
172B
100
AcDbEntity
  8
0
 62
     7
100
AcDbLine
 10
-183.8741956639588
 20
134.8732552107412
 30
0.0
 11
-183.8741956639588
 21
127.8732552107411
 31
0.0
  0
LINE
  5
1CB2
330
172B
100
AcDbEntity
  8
0
 62
     7
100
AcDbLine
 10
-184.674195663959
 20
134.8732552107412
 30
0.0
 11
-184.674195663959
 21
127.8732552107411
 31
0.0
  0
LINE
  5
1CB3
330
172B
100
AcDbEntity
  8
0
 62
     7
100
AcDbLine
 10
-185.4741956639589
 20
134.8732552107412
 30
0.0
 11
-185.4741956639589
 21
127.8732552107411
 31
0.0
  0
LINE
  5
1CB4
330
172B
100
AcDbEntity
  8
0
 62
     7
100
AcDbLine
 10
-186.2741956639589
 20
134.8732552107412
 30
0.0
 11
-186.2741956639589
 21
127.8732552107411
 31
0.0
  0
ARC
  5
1CB5
330
172B
100
AcDbEntity
  8
0
 62
     7
100
AcDbCircle
 10
-147.5741956639589
 20
125.8732552107411
 30
0.0
 40
1.000000000000001
100
AcDbArc
 50
0.0
 51
90.0
  0
LINE
  5
1CB6
330
172B
100
AcDbEntity
  8
0
 62
     7
100
AcDbLine
 10
-146.5741956639587
 20
125.8732552107411
 30
0.0
 11
-146.5741956639587
 21
97.87325521074112
 31
0.0
  0
LINE
  5
1CB7
330
172B
100
AcDbEntity
  8
0
 62
     7
100
AcDbLine
 10
-147.8318432830063
 20
127.8732552107411
 30
0.0
 11
-147.8318432830063
 21
126.8732552107411
 31
0.0
  0
LINE
  5
1CB8
330
172B
100
AcDbEntity
  8
0
  6
CONTINUOUS
 62
     7
100
AcDbLine
 10
-186.0741956639588
 20
115.8732552107411
 30
0.0
 11
-186.0741956639588
 21
68.37325521074103
 31
0.0
  0
LINE
  5
1CB9
330
172B
100
AcDbEntity
  8
0
  6
CONTINUOUS
 62
     7
100
AcDbLine
 10
-156.0741956639589
 20
115.8732552107411
 30
0.0
 11
-156.0741956639589
 21
68.37325521074103
 31
0.0
  0
LINE
  5
1CBA
330
172B
100
AcDbEntity
  8
0
 62
     7
100
AcDbLine
 10
-154.0741956639589
 20
137.3732552107411
 30
0.0
 11
-154.0741956639589
 21
128.8732552107411
 31
0.0
  0
LINE
  5
1CBB
330
172B
100
AcDbEntity
  8
0
 62
     7
100
AcDbLine
 10
-158.0741956639589
 20
138.3732552107411
 30
0.0
 11
-158.0741956639589
 21
128.8732552107411
 31
0.0
  0
LINE
  5
1CBC
330
172B
100
AcDbEntity
  8
0
 62
     7
100
AcDbLine
 10
-150.0741956639589
 20
138.3732552107411
 30
0.0
 11
-150.0741956639589
 21
128.8732552107411
 31
0.0
  0
LINE
  5
1CBD
330
172B
100
AcDbEntity
  8
0
 62
     7
100
AcDbLine
 10
-158.0741956639589
 20
128.8732552107411
 30
0.0
 11
-150.0741956639589
 21
128.8732552107411
 31
0.0
  0
LINE
  5
1CBE
330
172B
100
AcDbEntity
  8
0
 62
     7
100
AcDbLine
 10
-157.5741956639588
 20
138.8732552107411
 30
0.0
 11
-154.6741956639588
 21
138.8732552107411
 31
0.0
  0
LINE
  5
1CBF
330
172B
100
AcDbEntity
  8
0
 62
     7
100
AcDbLine
 10
-150.5741956639589
 20
138.8732552107411
 30
0.0
 11
-150.0741956639589
 21
138.3732552107411
 31
0.0
  0
LINE
  5
1CC0
330
172B
100
AcDbEntity
  8
0
 62
     7
100
AcDbLine
 10
-157.5741956639588
 20
138.8732552107411
 30
0.0
 11
-158.0741956639589
 21
138.3732552107411
 31
0.0
  0
LINE
  5
1CC1
330
172B
100
AcDbEntity
  8
0
 62
     7
100
AcDbLine
 10
-150.7293639179271
 20
128.8732552107411
 30
0.0
 11
-150.7293639179271
 21
127.8732552107411
 31
0.0
  0
LINE
  5
1CC2
330
172B
100
AcDbEntity
  8
0
 62
     7
100
AcDbLine
 10
-157.4190242353874
 20
128.8732552107411
 30
0.0
 11
-157.4190242353874
 21
127.8732552107411
 31
0.0
  0
LINE
  5
1CC3
330
172B
100
AcDbEntity
  8
0
 62
     7
100
AcDbLine
 10
-158.0741956639589
 20
138.3732552107411
 30
0.0
 11
-154.6741956639588
 21
138.3732552107411
 31
0.0
  0
LINE
  5
1CC4
330
172B
100
AcDbEntity
  8
0
 62
     7
100
AcDbLine
 10
-154.6741956639588
 20
138.8732552107411
 30
0.0
 11
-154.6741956639588
 21
137.3732552107411
 31
0.0
  0
LINE
  5
1CC5
330
172B
100
AcDbEntity
  8
0
 62
     7
100
AcDbLine
 10
-153.4741956639589
 20
138.8732552107411
 30
0.0
 11
-153.4741956639589
 21
137.3732552107411
 31
0.0
  0
LINE
  5
1CC6
330
172B
100
AcDbEntity
  8
0
 62
     7
100
AcDbLine
 10
-154.6741956639588
 20
137.3732552107411
 30
0.0
 11
-153.4741956639589
 21
137.3732552107411
 31
0.0
  0
LINE
  5
1CC7
330
172B
100
AcDbEntity
  8
0
 62
     7
100
AcDbLine
 10
-153.4741956639589
 20
138.8732552107411
 30
0.0
 11
-150.5741956639589
 21
138.8732552107411
 31
0.0
  0
LINE
  5
1CC8
330
172B
100
AcDbEntity
  8
0
 62
     7
100
AcDbLine
 10
-153.4741956639589
 20
138.3732552107411
 30
0.0
 11
-150.0741956639589
 21
138.3732552107411
 31
0.0
  0
LINE
  5
1CC9
330
172B
100
AcDbEntity
  8
0
 62
     7
100
AcDbLine
 10
-154.8741956639588
 20
138.3732552107411
 30
0.0
 11
-154.8741956639588
 21
128.8732552107411
 31
0.0
  0
LINE
  5
1CCA
330
172B
100
AcDbEntity
  8
0
 62
     7
100
AcDbLine
 10
-155.6741956639588
 20
138.3732552107411
 30
0.0
 11
-155.6741956639588
 21
128.8732552107411
 31
0.0
  0
LINE
  5
1CCB
330
172B
100
AcDbEntity
  8
0
 62
     7
100
AcDbLine
 10
-156.4741956639589
 20
138.3732552107411
 30
0.0
 11
-156.4741956639589
 21
128.8732552107411
 31
0.0
  0
LINE
  5
1CCC
330
172B
100
AcDbEntity
  8
0
 62
     7
100
AcDbLine
 10
-157.2741956639589
 20
138.3732552107411
 30
0.0
 11
-157.2741956639589
 21
128.8732552107411
 31
0.0
  0
LINE
  5
1CCD
330
172B
100
AcDbEntity
  8
0
 62
     7
100
AcDbLine
 10
-150.8741956639588
 20
138.3732552107411
 30
0.0
 11
-150.8741956639588
 21
128.8732552107411
 31
0.0
  0
LINE
  5
1CCE
330
172B
100
AcDbEntity
  8
0
 62
     7
100
AcDbLine
 10
-151.6741956639588
 20
138.3732552107411
 30
0.0
 11
-151.6741956639588
 21
128.8732552107411
 31
0.0
  0
LINE
  5
1CCF
330
172B
100
AcDbEntity
  8
0
 62
     7
100
AcDbLine
 10
-152.4741956639589
 20
138.3732552107411
 30
0.0
 11
-152.4741956639589
 21
128.8732552107411
 31
0.0
  0
LINE
  5
1CD0
330
172B
100
AcDbEntity
  8
0
 62
     7
100
AcDbLine
 10
-153.2741956639587
 20
138.3732552107411
 30
0.0
 11
-153.2741956639587
 21
128.8732552107411
 31
0.0
  0
LINE
  5
1CD1
330
172B
100
AcDbEntity
  8
0
 62
     7
100
AcDbLine
 10
-184.0741956639588
 20
117.8732552107411
 30
0.0
 11
-158.0741956639589
 21
117.8732552107411
 31
0.0
  0
LINE
  5
1CD2
330
172B
100
AcDbEntity
  8
0
 62
     7
100
AcDbLine
 10
-183.074195663959
 20
70.87325521074109
 30
0.0
 11
-159.0741956639587
 21
70.87325521074109
 31
0.0
  0
LINE
  5
1CD3
330
172B
100
AcDbEntity
  8
0
 62
     7
100
AcDbLine
 10
-198.5741956639588
 20
110.8732552107411
 30
0.0
 11
-196.5741956639588
 21
110.8732552107411
 31
0.0
  0
ARC
  5
1CD4
330
172B
100
AcDbEntity
  8
0
 62
     7
100
AcDbCircle
 10
-196.5741956639588
 20
111.8732552107411
 30
0.0
 40
1.000000000000001
100
AcDbArc
 50
270.0
 51
0.0
  0
ARC
  5
1CD5
330
172B
100
AcDbEntity
  8
0
 62
     7
100
AcDbCircle
 10
-198.5741956639588
 20
109.8732552107411
 30
0.0
 40
1.000000000000001
100
AcDbArc
 50
90.0
 51
180.0
  0
LINE
  5
1CD6
330
172B
100
AcDbEntity
  8
0
 62
     7
100
AcDbLine
 10
-142.5741956639587
 20
109.8732552107411
 30
0.0
 11
-142.5741956639587
 21
96.87325521074113
 31
0.0
  0
LINE
  5
1CD7
330
172B
100
AcDbEntity
  8
0
 62
     7
100
AcDbLine
 10
-143.5741956639589
 20
110.8732552107411
 30
0.0
 11
-145.5741956639589
 21
110.8732552107411
 31
0.0
  0
ARC
  5
1CD8
330
172B
100
AcDbEntity
  8
0
 62
     7
100
AcDbCircle
 10
-143.5741956639589
 20
109.8732552107411
 30
0.0
 40
1.000000000000001
100
AcDbArc
 50
0.0
 51
90.0
  0
ARC
  5
1CD9
330
172B
100
AcDbEntity
  8
0
 62
     7
100
AcDbCircle
 10
-145.5741956639589
 20
111.8732552107411
 30
0.0
 40
1.000000000000001
100
AcDbArc
 50
180.0
 51
270.0
  0
ARC
  5
1CDA
330
172B
100
AcDbEntity
  8
0
 62
     7
100
AcDbCircle
 10
-155.0741956639587
 20
97.87325521074112
 30
0.0
 40
1.000000000000001
100
AcDbArc
 50
180.0
 51
270.0
  0
ARC
  5
1CDB
330
172B
100
AcDbEntity
  8
0
 62
     7
100
AcDbCircle
 10
-187.0741956639589
 20
97.87325521074112
 30
0.0
 40
1.000000000000001
100
AcDbArc
 50
270.0
 51
0.0
  0
CIRCLE
  5
1CDC
330
172B
100
AcDbEntity
  8
0
100
AcDbCircle
 10
-171.0741956639589
 20
102.873255210741
 30
0.0
 40
7.000000000000014
  0
CIRCLE
  5
1CDD
330
172B
100
AcDbEntity
  8
0
100
AcDbCircle
 10
-171.0741956639589
 20
102.873255210741
 30
0.0
 40
5.500000000000009
  0
ARC
  5
1CDE
330
172B
100
AcDbEntity
  8
0
 62
     7
100
AcDbCircle
 10
-158.0741956639589
 20
115.8732552107411
 30
0.0
 40
2.000000000000003
100
AcDbArc
 50
0.0
 51
90.0
  0
ARC
  5
1CDF
330
172B
100
AcDbEntity
  8
0
 62
     7
100
AcDbCircle
 10
-184.0741956639588
 20
115.8732552107411
 30
0.0
 40
2.000000000000003
100
AcDbArc
 50
90.0
 51
180.0
  0
ARC
  5
1CE0
330
172B
100
AcDbEntity
  8
0
 62
     7
100
AcDbCircle
 10
-145.5741956639589
 20
97.87325521074112
 30
0.0
 40
1.000000000000001
100
AcDbArc
 50
180.0
 51
270.0
  0
ARC
  5
1CE1
330
172B
100
AcDbEntity
  8
0
 62
     7
100
AcDbCircle
 10
-196.5741956639588
 20
97.87325521074112
 30
0.0
 40
1.000000000000001
100
AcDbArc
 50
270.0
 51
0.0
  0
LINE
  5
1CE2
330
172B
100
AcDbEntity
  8
0
100
AcDbLine
 10
-140.5741956639587
 20
68.37325521074103
 30
0.0
 11
-140.5741956639587
 21
1.757994893280624
 31
0.0
  0
LINE
  5
1CE3
330
172B
100
AcDbEntity
  8
0
100
AcDbLine
 10
-141.2288496322128
 20
0.2781155282012833
 30
0.0
 11
-149.9020623306255
 21
-7.606624154338419
 31
0.0
  0
ARC
  5
1CE4
330
172B
100
AcDbEntity
  8
0
100
AcDbCircle
 10
-142.5741956639587
 20
1.757994893280624
 30
0.0
 40
2.000000000000003
100
AcDbArc
 50
312.2736890000006
 51
0.0
  0
LINE
  5
1CE5
330
172B
100
AcDbEntity
  8
0
100
AcDbLine
 10
-190.9009797909429
 20
-8.126744789259078
 30
0.0
 11
-151.2474083623716
 21
-8.126744789259078
 31
0.0
  0
ARC
  5
1CE6
330
172B
100
AcDbEntity
  8
0
100
AcDbCircle
 10
-151.2474083623716
 20
-6.126744789259078
 30
0.0
 40
2.000000000000003
100
AcDbArc
 50
270.0
 51
312.2736890000006
  0
LINE
  5
1CE7
330
172B
100
AcDbEntity
  8
0
 62
     7
100
AcDbLine
 10
-161.0741956639587
 20
-9.126744789259078
 30
0.0
 11
-161.0741956639587
 21
-23.12674478925913
 31
0.0
  0
LINE
  5
1CE8
330
172B
100
AcDbEntity
  8
0
 62
     7
100
AcDbLine
 10
-161.0741956639587
 20
-12.92674478925914
 30
0.0
 11
-159.0741956639587
 21
-12.92674478925914
 31
0.0
  0
LINE
  5
1CE9
330
172B
100
AcDbEntity
  8
0
 62
     7
100
AcDbLine
 10
-159.0741956639587
 20
-12.92674478925914
 30
0.0
 11
-158.5741956639588
 21
-13.42674478925909
 31
0.0
  0
LINE
  5
1CEA
330
172B
100
AcDbEntity
  8
0
 62
     7
100
AcDbLine
 10
-158.5741956639588
 20
-13.42674478925909
 30
0.0
 11
-158.5741956639588
 21
-18.82674478925912
 31
0.0
  0
LINE
  5
1CEB
330
172B
100
AcDbEntity
  8
CENTER
  6
CENTER
100
AcDbLine
 10
-184.6159162988795
 20
-16.12674478925907
 30
0.0
 11
-157.1584528068161
 21
-16.12674478925907
 31
0.0
  0
LINE
  5
1CEC
330
172B
100
AcDbEntity
  8
0
 62
     7
100
AcDbLine
 10
-158.5741956639588
 20
-18.82674478925912
 30
0.0
 11
-159.0741956639587
 21
-19.32674478925912
 31
0.0
  0
LINE
  5
1CED
330
172B
100
AcDbEntity
  8
0
 62
     7
100
AcDbLine
 10
-161.0741956639587
 20
-19.32674478925912
 30
0.0
 11
-159.0741956639587
 21
-19.32674478925912
 31
0.0
  0
LINE
  5
1CEE
330
172B
100
AcDbEntity
  8
0
 62
     7
100
AcDbLine
 10
-181.074195663959
 20
-23.12674478925913
 30
0.0
 11
-161.0741956639587
 21
-23.12674478925913
 31
0.0
  0
LINE
  5
1CEF
330
172B
100
AcDbEntity
  8
0
 62
     7
100
AcDbLine
 10
-168.0741956639589
 20
-23.12674478925913
 30
0.0
 11
-168.0741956639589
 21
-26.12674478925913
 31
0.0
  0
ARC
  5
1CF0
330
172B
100
AcDbEntity
  8
0
 62
     7
100
AcDbCircle
 10
-168.0741956639589
 20
-27.12674478925908
 30
0.0
 40
1.000000000000001
100
AcDbArc
 50
0.0
 51
90.0
  0
LINE
  5
1CF1
330
172B
100
AcDbEntity
  8
0
 62
     7
100
AcDbLine
 10
-174.0741956639588
 20
-29.12674478925907
 30
0.0
 11
-168.0741956639589
 21
-29.12674478925907
 31
0.0
  0
LINE
  5
1CF2
330
172B
100
AcDbEntity
  8
0
 62
     7
100
AcDbLine
 10
-168.0741956639589
 20
-28.85879558290992
 30
0.0
 11
-168.0741956639589
 21
-29.12674478925907
 31
0.0
  0
LINE
  5
1CF3
330
172B
100
AcDbEntity
  8
0
 62
     7
100
AcDbLine
 10
-168.0741956639589
 20
-28.85879558290992
 30
0.0
 11
-167.0741956639589
 21
-27.12674478925908
 31
0.0
  0
LINE
  5
1CF4
330
172B
100
AcDbEntity
  8
0
100
AcDbLine
 10
-160.9075289972922
 20
-8.126744789259078
 30
0.0
 11
-161.0741956639587
 21
-9.126744789259078
 31
0.0
  0
LINE
  5
1CF5
330
172B
100
AcDbEntity
  8
0
 62
     7
100
AcDbLine
 10
-182.5741956639589
 20
-13.92674478925909
 30
0.0
 11
-181.074195663959
 21
-13.92674478925909
 31
0.0
  0
LINE
  5
1CF6
330
172B
100
AcDbEntity
  8
0
 62
     7
100
AcDbLine
 10
-183.074195663959
 20
-14.42674478925908
 30
0.0
 11
-183.074195663959
 21
-17.82674478925912
 31
0.0
  0
LINE
  5
1CF7
330
172B
100
AcDbEntity
  8
0
 62
     7
100
AcDbLine
 10
-182.5741956639589
 20
-18.32674478925912
 30
0.0
 11
-181.074195663959
 21
-18.32674478925912
 31
0.0
  0
LINE
  5
1CF8
330
172B
100
AcDbEntity
  8
0
 62
     7
100
AcDbLine
 10
-181.074195663959
 20
-9.126744789259078
 30
0.0
 11
-181.074195663959
 21
-23.12674478925913
 31
0.0
  0
LINE
  5
1CF9
330
172B
100
AcDbEntity
  8
0
100
AcDbLine
 10
-181.2408623306257
 20
-8.126744789259078
 30
0.0
 11
-181.074195663959
 21
-9.126744789259078
 31
0.0
  0
LINE
  5
1CFA
330
172B
100
AcDbEntity
  8
0
 62
     7
100
AcDbLine
 10
-174.0741956639588
 20
-23.12674478925913
 30
0.0
 11
-174.0741956639588
 21
-26.12674478925913
 31
0.0
  0
LINE
  5
1CFB
330
172B
100
AcDbEntity
  8
0
 62
     7
100
AcDbLine
 10
-174.0741956639588
 20
-28.85879558290992
 30
0.0
 11
-174.0741956639588
 21
-29.12674478925907
 31
0.0
  0
LINE
  5
1CFC
330
172B
100
AcDbEntity
  8
0
 62
     7
100
AcDbLine
 10
-175.074195663959
 20
-27.12674478925908
 30
0.0
 11
-174.0741956639588
 21
-28.85879558290992
 31
0.0
  0
ARC
  5
1CFD
330
172B
100
AcDbEntity
  8
0
 62
     7
100
AcDbCircle
 10
-174.0741956639588
 20
-27.12674478925908
 30
0.0
 40
1.000000000000001
100
AcDbArc
 50
90.0
 51
180.0
  0
LINE
  5
1CFE
330
172B
100
AcDbEntity
  8
0
100
AcDbLine
 10
-200.9195416957048
 20
0.2781155282012833
 30
0.0
 11
-192.246325822689
 21
-7.606624154338419
 31
0.0
  0
ARC
  5
1CFF
330
172B
100
AcDbEntity
  8
0
100
AcDbCircle
 10
-190.9009797909429
 20
-6.126744789259078
 30
0.0
 40
2.000000000000003
100
AcDbArc
 50
227.7263109999992
 51
270.0
  0
LINE
  5
1D00
330
172B
100
AcDbEntity
  8
0
100
AcDbLine
 10
-174.0741956639588
 20
-26.12674478925913
 30
0.0
 11
-168.0741956639589
 21
-26.12674478925913
 31
0.0
  0
LINE
  5
1D01
330
172B
100
AcDbEntity
  8
0
100
AcDbLine
 10
-174.0741956639588
 20
-28.85879558290992
 30
0.0
 11
-168.0741956639589
 21
-28.85879558290992
 31
0.0
  0
LINE
  5
1D02
330
172B
100
AcDbEntity
  8
0
100
AcDbLine
 10
-181.074195663959
 20
-9.126744789259078
 30
0.0
 11
-161.0741956639587
 21
-9.126744789259078
 31
0.0
  0
LINE
  5
1D03
330
172B
100
AcDbEntity
  8
0
100
AcDbLine
 10
-201.5741956639589
 20
68.37325521074103
 30
0.0
 11
-201.5741956639589
 21
1.757994893280624
 31
0.0
  0
ARC
  5
1D04
330
172B
100
AcDbEntity
  8
0
100
AcDbCircle
 10
-199.574195663959
 20
1.757994893280624
 30
0.0
 40
2.000000000000003
100
AcDbArc
 50
180.0
 51
227.7263109999992
  0
LINE
  5
1D05
330
172B
100
AcDbEntity
  8
0
100
AcDbLine
 10
-201.4032242353875
 20
0.9488869567726965
 30
0.0
 11
-140.7451670925302
 21
0.9488869567726965
 31
0.0
  0
LINE
  5
1D06
330
172B
100
AcDbEntity
  8
0
100
AcDbLine
 10
-184.8885512195144
 20
68.37325521074103
 30
0.0
 11
-184.8885512195144
 21
0.9488869567726965
 31
0.0
  0
LINE
  5
1D07
330
172B
100
AcDbEntity
  8
0
100
AcDbLine
 10
-198.7007321718954
 20
57.24177267105847
 30
0.0
 11
-198.7007321718954
 21
0.9488869567726965
 31
0.0
  0
LINE
  5
1D08
330
172B
100
AcDbEntity
  8
0
100
AcDbLine
 10
-157.2598401084033
 20
68.37325521074103
 30
0.0
 11
-157.2598401084033
 21
0.9488869567726965
 31
0.0
  0
LINE
  5
1D09
330
172B
100
AcDbEntity
  8
0
100
AcDbLine
 10
-191.9721321718954
 20
68.37325521074103
 30
0.0
 11
-191.9721321718954
 21
0.9488869567726965
 31
0.0
  0
LINE
  5
1D0A
330
172B
100
AcDbEntity
  8
0
100
AcDbLine
 10
-198.7007321718954
 20
0.9488869567726965
 30
0.0
 11
-190.9009797909429
 21
-8.126744789259078
 31
0.0
  0
LINE
  5
1D0B
330
172B
100
AcDbEntity
  8
0
100
AcDbLine
 10
-143.4476591560223
 20
0.9488869567726965
 30
0.0
 11
-151.2474083623716
 21
-8.126744789259078
 31
0.0
  0
LINE
  5
1D0C
330
172B
100
AcDbEntity
  8
0
100
AcDbLine
 10
-150.1762591560225
 20
68.37325521074103
 30
0.0
 11
-150.1762591560225
 21
0.9488869567726965
 31
0.0
  0
LINE
  5
1D0D
330
172B
100
AcDbEntity
  8
0
100
AcDbLine
 10
-143.4476591560223
 20
68.37325521074103
 30
0.0
 11
-143.4476591560223
 21
0.9488869567726965
 31
0.0
  0
LINE
  5
1D0E
330
172B
100
AcDbEntity
  8
0
100
AcDbLine
 10
-200.2786305845939
 20
68.37325521074103
 30
0.0
 11
-200.2786305845939
 21
58.94424568693148
 31
0.0
  0
LINE
  5
1D0F
330
172B
100
AcDbEntity
  8
0
100
AcDbLine
 10
-200.2786305845939
 20
58.94424568693148
 30
0.0
 11
-198.7007321718954
 21
57.24177267105847
 31
0.0
  0
LINE
  5
1D10
330
172B
100
AcDbEntity
  8
0
100
AcDbLine
 10
-193.5500305845938
 20
58.94424568693148
 30
0.0
 11
-191.9721321718954
 21
57.24177267105847
 31
0.0
  0
LINE
  5
1D11
330
172B
100
AcDbEntity
  8
0
100
AcDbLine
 10
-193.5500305845938
 20
68.37325521074103
 30
0.0
 11
-193.5500305845938
 21
58.94424568693148
 31
0.0
  0
LINE
  5
1D12
330
172B
100
AcDbEntity
  8
0
100
AcDbLine
 10
-191.9721321718954
 20
0.9488869567726965
 30
0.0
 11
-189.0391702671335
 21
-8.126744789259078
 31
0.0
  0
LINE
  5
1D13
330
172B
100
AcDbEntity
  8
0
100
AcDbLine
 10
-150.1762591560225
 20
0.9488869567726965
 30
0.0
 11
-153.109217886181
 21
-8.126744789259078
 31
0.0
  0
LINE
  5
1D14
330
172B
100
AcDbEntity
  8
0
100
AcDbLine
 10
-184.8885512195144
 20
0.9488869567726965
 30
0.0
 11
-182.1760528068161
 21
-8.126744789259078
 31
0.0
  0
LINE
  5
1D15
330
172B
100
AcDbEntity
  8
0
100
AcDbLine
 10
-157.2598401084033
 20
0.9488869567726965
 30
0.0
 11
-159.9723353464984
 21
-8.126744789259078
 31
0.0
  0
LINE
  5
1D16
330
172B
100
AcDbEntity
  8
HIDDEN
  6
HIDDEN
100
AcDbLine
 10
-193.8476115369748
 20
107.0595821948681
 30
0.0
 11
-193.8476115369748
 21
98.6869282266141
 31
0.0
  0
LINE
  5
1D17
330
172B
100
AcDbEntity
  8
HIDDEN
  6
HIDDEN
100
AcDbLine
 10
-142.5741956639587
 20
99.48755997264587
 30
0.0
 11
-149.2710813782445
 21
99.72142029010621
 31
0.0
  0
LINE
  5
1D18
330
172B
100
AcDbEntity
  8
HIDDEN
  6
HIDDEN
100
AcDbLine
 10
-142.5741956639587
 20
98.48695044883635
 30
0.0
 11
-148.3007766163399
 21
98.6869282266141
 31
0.0
  0
LINE
  5
1D19
330
172B
100
AcDbEntity
  8
HIDDEN
  6
HIDDEN
100
AcDbLine
 10
-142.5741956639587
 20
106.2589504488363
 30
0.0
 11
-149.2710813782445
 21
106.025090131376
 31
0.0
  0
LINE
  5
1D1A
330
172B
100
AcDbEntity
  8
HIDDEN
  6
HIDDEN
100
AcDbLine
 10
-142.5741956639587
 20
107.2595599726458
 30
0.0
 11
-148.3007766163399
 21
107.0595821948681
 31
0.0
  0
LINE
  5
1D1B
330
172B
100
AcDbEntity
  8
HIDDEN
  6
HIDDEN
100
AcDbLine
 10
-148.3007766163399
 20
107.0595821948681
 30
0.0
 11
-148.3007766163399
 21
98.6869282266141
 31
0.0
  0
LINE
  5
1D1C
330
172B
100
AcDbEntity
  8
HIDDEN
  6
HIDDEN
100
AcDbLine
 10
-148.3007766163399
 20
107.0595821948681
 30
0.0
 11
-149.2710813782445
 21
106.025090131376
 31
0.0
  0
LINE
  5
1D1D
330
172B
100
AcDbEntity
  8
HIDDEN
  6
HIDDEN
100
AcDbLine
 10
-148.3007766163399
 20
98.6869282266141
 30
0.0
 11
-149.2710813782445
 21
99.72142029010621
 31
0.0
  0
LINE
  5
1D1E
330
172B
100
AcDbEntity
  8
0
100
AcDbLine
 10
-159.0741956639587
 20
-12.92674478925914
 30
0.0
 11
-159.0741956639587
 21
-19.32674478925912
 31
0.0
  0
LINE
  5
1D1F
330
172B
100
AcDbEntity
  8
0
 62
     7
100
AcDbLine
 10
-182.5741956639589
 20
-13.92674478925909
 30
0.0
 11
-183.074195663959
 21
-14.42674478925908
 31
0.0
  0
LINE
  5
1D20
330
172B
100
AcDbEntity
  8
0
 62
     7
100
AcDbLine
 10
-183.074195663959
 20
-17.82674478925912
 30
0.0
 11
-182.5741956639589
 21
-18.32674478925912
 31
0.0
  0
LINE
  5
1D21
330
172B
100
AcDbEntity
  8
0
100
AcDbLine
 10
-182.5741956639589
 20
-13.92674478925909
 30
0.0
 11
-182.5741956639589
 21
-18.32674478925912
 31
0.0
  0
LINE
  5
1D22
330
172B
100
AcDbEntity
  8
CENTER
  6
CENTER
100
AcDbLine
 10
-338.4687480449116
 20
102.873255210741
 30
0.0
 11
-256.3646750290384
 21
102.873255210741
 31
0.0
  0
LINE
  5
1D23
330
172B
100
AcDbEntity
  8
0
100
AcDbLine
 10
-328.618211536975
 20
305.0937225041321
 30
0.0
 11
-270.618211536975
 21
305.0937225041321
 31
0.0
  0
LINE
  5
1D24
330
172B
100
AcDbEntity
  8
0
100
AcDbLine
 10
-325.6182115369753
 20
290.0937225041321
 30
0.0
 11
-311.1182115369753
 21
290.0937225041321
 31
0.0
  0
LINE
  5
1D25
330
172B
100
AcDbEntity
  8
0
100
AcDbLine
 10
-308.6182115369751
 20
295.5937225041322
 30
0.0
 11
-290.6182115369751
 21
295.5937225041322
 31
0.0
  0
LINE
  5
1D26
330
172B
100
AcDbEntity
  8
0
100
AcDbLine
 10
-308.6182115369751
 20
295.5937225041322
 30
0.0
 11
-311.1182115369753
 21
290.0937225041321
 31
0.0
  0
LINE
  5
1D27
330
172B
100
AcDbEntity
  8
0
100
AcDbLine
 10
-290.6182115369751
 20
295.5937225041322
 30
0.0
 11
-288.1182115369752
 21
290.0937225041321
 31
0.0
  0
LINE
  5
1D28
330
172B
100
AcDbEntity
  8
0
100
AcDbLine
 10
-273.6182115369751
 20
290.0937225041321
 30
0.0
 11
-288.1182115369752
 21
290.0937225041321
 31
0.0
  0
LINE
  5
1D29
330
172B
100
AcDbEntity
  8
0
100
AcDbLine
 10
-328.618211536975
 20
305.0937225041321
 30
0.0
 11
-328.618211536975
 21
293.0937225041322
 31
0.0
  0
LINE
  5
1D2A
330
172B
100
AcDbEntity
  8
0
100
AcDbLine
 10
-270.618211536975
 20
305.0937225041321
 30
0.0
 11
-270.618211536975
 21
293.0937225041322
 31
0.0
  0
ARC
  5
1D2B
330
172B
100
AcDbEntity
  8
0
100
AcDbCircle
 10
-325.6182115369753
 20
293.0937225041322
 30
0.0
 40
3.000000000000005
100
AcDbArc
 50
180.0
 51
270.0
  0
ARC
  5
1D2C
330
172B
100
AcDbEntity
  8
0
100
AcDbCircle
 10
-273.6182115369751
 20
293.0937225041322
 30
0.0
 40
3.000000000000005
100
AcDbArc
 50
270.0
 51
0.0
  0
LINE
  5
1D2D
330
172B
100
AcDbEntity
  8
0
100
AcDbLine
 10
-328.618211536975
 20
302.7937225041322
 30
0.0
 11
-270.618211536975
 21
302.7937225041322
 31
0.0
  0
LINE
  5
1D2E
330
172B
100
AcDbEntity
  8
CENTER
  6
CENTER
100
AcDbLine
 10
-319.6182115369751
 20
307.9496717104814
 30
0.0
 11
-319.6182115369751
 21
300.6762844088941
 31
0.0
  0
LINE
  5
1D2F
330
172B
100
AcDbEntity
  8
HIDDEN
  6
PHANTOM
100
AcDbLine
 10
-314.118211536975
 20
305.0937225041321
 30
0.0
 11
-314.118211536975
 21
302.7937225041322
 31
0.0
  0
LINE
  5
1D30
330
172B
100
AcDbEntity
  8
HIDDEN
  6
PHANTOM
100
AcDbLine
 10
-325.1182115369752
 20
305.0937225041321
 30
0.0
 11
-325.1182115369752
 21
302.7937225041322
 31
0.0
  0
LINE
  5
1D31
330
172B
100
AcDbEntity
  8
HIDDEN
  6
PHANTOM
100
AcDbLine
 10
-274.1182115369751
 20
305.0937225041321
 30
0.0
 11
-274.1182115369751
 21
302.7937225041322
 31
0.0
  0
LINE
  5
1D32
330
172B
100
AcDbEntity
  8
CENTER
  6
CENTER
100
AcDbLine
 10
-279.6182115369751
 20
307.9496717104814
 30
0.0
 11
-279.6182115369751
 21
300.6762844088941
 31
0.0
  0
LINE
  5
1D33
330
172B
100
AcDbEntity
  8
HIDDEN
  6
PHANTOM
100
AcDbLine
 10
-285.118211536975
 20
305.0937225041321
 30
0.0
 11
-285.118211536975
 21
302.7937225041322
 31
0.0
  0
LINE
  5
1D34
330
172B
100
AcDbEntity
  8
0
100
AcDbLine
 10
-131.0741956639589
 20
141.8732552107412
 30
0.0
 11
-131.0741956639589
 21
98.37325521074109
 31
0.0
  0
LINE
  5
1D35
330
172B
100
AcDbEntity
  8
0
100
AcDbLine
 10
-133.3741956639588
 20
141.8732552107412
 30
0.0
 11
-131.0741956639589
 21
141.8732552107412
 31
0.0
  0
LINE
  5
1D36
330
172B
100
AcDbEntity
  8
0
100
AcDbLine
 10
-133.3741956639588
 20
141.8732552107412
 30
0.0
 11
-133.3741956639588
 21
100.6732552107411
 31
0.0
  0
LINE
  5
1D37
330
172B
100
AcDbEntity
  8
0
100
AcDbLine
 10
-142.5741956639587
 20
99.17325521074117
 30
0.0
 11
-134.8741956639589
 21
99.17325521074117
 31
0.0
  0
ARC
  5
1D38
330
172B
100
AcDbEntity
  8
0
100
AcDbCircle
 10
-134.8741956639589
 20
100.6732552107411
 30
0.0
 40
1.500000000000002
100
AcDbArc
 50
270.0
 51
0.0
  0
ARC
  5
1D39
330
172B
100
AcDbEntity
  8
0
100
AcDbCircle
 10
-132.5741956639588
 20
98.37325521074109
 30
0.0
 40
1.500000000000002
100
AcDbArc
 50
270.0
 51
0.0
  0
LINE
  5
1D3A
330
172B
100
AcDbEntity
  8
HIDDEN
  6
PHANTOM
100
AcDbLine
 10
-135.8431385211017
 20
133.8732552107412
 30
0.0
 11
-129.3945416957047
 21
133.8732552107412
 31
0.0
  0
LINE
  5
1D3B
330
172B
100
AcDbEntity
  8
HIDDEN
  6
PHANTOM
100
AcDbLine
 10
-133.3741956639588
 20
137.3732552107411
 30
0.0
 11
-131.0741956639589
 21
137.3732552107411
 31
0.0
  0
LINE
  5
1D3C
330
172B
100
AcDbEntity
  8
HIDDEN
  6
PHANTOM
100
AcDbLine
 10
-133.3741956639588
 20
130.3732552107411
 30
0.0
 11
-131.0741956639589
 21
130.3732552107411
 31
0.0
  0
TEXT
  5
1D3D
330
172B
100
AcDbEntity
  8
圖層2
100
AcDbText
 10
-191.3633305993018
 20
-4.002685316963692
 30
0.0
 40
6.349206349206361
  1

  7
CHINESET
100
AcDbText
  0
SOLID
  5
1D3E
330
172B
100
AcDbEntity
  8
DIM
100
AcDbTrace
 10
-279.8271556639592
 20
297.5175809168305
 30
0.0
 11
-280.3169061401497
 21
298.3343885358781
 31
0.0
 12
-282.5224528068163
 22
296.4567352025448
 32
0.0
 13
-282.5224528068163
 23
296.4567352025448
 33
0.0
  0
LINE
  5
1D3F
330
172B
100
AcDbEntity
  8
DIM
100
AcDbLine
 10
-280.0720299496735
 20
297.9259847263544
 30
0.0
 11
-269.955778521102
 21
303.9915885358781
 31
0.0
  0
LINE
  5
1D40
330
172B
100
AcDbEntity
  8
DIM
100
AcDbLine
 10
-269.955778521102
 20
303.9915885358781
 30
0.0
 11
-268.7013823306259
 21
303.9915885358781
 31
0.0
  0
LINE
  5
1D41
330
172B
100
AcDbEntity
  8
DIM
100
AcDbLine
 10
-268.7013823306259
 20
303.9915885358781
 30
0.0
 11
-245.4864166163401
 21
303.9915885358781
 31
0.0
  0
TEXT
  5
1D42
330
172B
100
AcDbEntity
  8
DIM
100
AcDbText
 10
-268.6156680449116
 20
305.4201599644496
 30
0.0
 40
2.857142857142862
  1
4-M5*P0.8
  7
R
 11
-268.6156680449116
 21
306.848731393021
 31
0.0
100
AcDbText
 73
     2
  0
SOLID
  5
1D55
330
172B
100
AcDbEntity
  8
DIM
100
AcDbTrace
 10
-179.4407067750701
 20
94.54120759169345
 30
0.0
 11
-178.2187194734826
 21
93.52815679804269
 31
0.0
 12
-175.7905575687208
 22
97.70064251232842
 32
0.0
 13
-175.7905575687208
 23
97.70064251232842
 33
0.0
  0
LINE
  5
1D56
330
172B
100
AcDbEntity
  8
DIM
100
AcDbLine
 10
-178.8297131242762
 20
94.03468060756649
 30
0.0
 11
-211.8021924893557
 21
54.26184568693151
 31
0.0
  0
LINE
  5
1D57
330
172B
100
AcDbEntity
  8
DIM
100
AcDbLine
 10
-211.8021924893557
 20
54.26184568693151
 30
0.0
 11
-213.3632178861811
 21
54.26184568693151
 31
0.0
  0
LINE
  5
1D58
330
172B
100
AcDbEntity
  8
DIM
100
AcDbLine
 10
-213.3632178861811
 20
54.26184568693151
 30
0.0
 11
-260.2180940766575
 21
54.26184568693151
 31
0.0
  0
TEXT
  5
1D59
330
172B
100
AcDbEntity
  8
DIM
100
AcDbText
 10
-259.9913358000134
 20
56.64279806788388
 30
0.0
 40
4.76190476190477
  1
2-Rc(PT)1/4
  7
R
 72
     2
 11
-213.5060750290382
 21
59.02375044883626
 31
0.0
100
AcDbText
 73
     2
  0
TEXT
  5
1D5A
330
172B
100
AcDbEntity
  8
DIM
100
AcDbText
 10
-260.6716079088569
 20
45.3348298139156
 30
0.0
 40
4.76190476190477
  1
2-Rc(PT)3/8
  7
R
 72
     2
 11
-213.5060750290382
 21
47.71578219486798
 31
0.0
100
AcDbText
 73
     2
  0
LINE
  5
1D5B
330
172B
100
AcDbEntity
  8
DIM
100
AcDbLine
 10
-213.3632178861811
 20
42.95387743296323
 30
0.0
 11
-260.2180940766575
 21
42.95387743296323
 31
0.0
  0
LINE
  5
1D5C
330
172B
100
AcDbEntity
  8
DIM
100
AcDbLine
 10
-211.8021924893557
 20
42.95387743296323
 30
0.0
 11
-213.3632178861811
 21
42.95387743296323
 31
0.0
  0
LINE
  5
1D5D
330
172B
100
AcDbEntity
  8
0
100
AcDbLine
 10
-321.6182115369749
 20
130.3732552107411
 30
0.0
 11
-317.6182115369749
 21
130.3732552107411
 31
0.0
  0
LINE
  5
1D5E
330
172B
100
AcDbEntity
  8
CENTER
  6
CENTER
100
AcDbLine
 10
-326.1023607433242
 20
133.8732552107412
 30
0.0
 11
-312.618211536975
 21
133.8732552107412
 31
0.0
  0
LINE
  5
1D5F
330
172B
100
AcDbEntity
  8
0
100
AcDbLine
 10
-321.6182115369749
 20
137.3732552107411
 30
0.0
 11
-319.1220972512607
 21
137.3732552107411
 31
0.0
  0
LINE
  5
1D60
330
172B
100
AcDbEntity
  8
0
100
AcDbLine
 10
-326.2372591560227
 20
141.8732552107412
 30
0.0
 11
-318.995338521102
 21
141.8732552107412
 31
0.0
  0
LINE
  5
1D61
330
172B
100
AcDbEntity
  8
0
100
AcDbLine
 10
-328.618211536975
 20
139.4923028297888
 30
0.0
 11
-328.618211536975
 21
117.8732552107411
 31
0.0
  0
ARC
  5
1D62
330
172B
100
AcDbEntity
  8
0
100
AcDbCircle
 10
-326.2372591560227
 20
139.4923028297888
 30
0.0
 40
2.380952380952385
100
AcDbArc
 50
90.0
 51
180.0
  0
LINE
  5
1D63
330
172B
100
AcDbEntity
  8
0
100
AcDbLine
 10
-280.2410877274512
 20
141.8732552107412
 30
0.0
 11
-277.3922623306256
 21
141.8732552107412
 31
0.0
  0
LINE
  5
1D64
330
172B
100
AcDbEntity
  8
CENTER
  6
CENTER
100
AcDbLine
 10
-319.618211536975
 20
138.4814075916935
 30
0.0
 11
-319.618211536975
 21
129.3953663218522
 31
0.0
  0
ARC
  5
1D65
330
172B
100
AcDbEntity
  8
0
100
AcDbCircle
 10
-321.6182115369749
 20
133.8732552107412
 30
0.0
 40
3.500000000000007
100
AcDbArc
 50
90.0
 51
270.0
  0
ARC
  5
1D66
330
172B
100
AcDbEntity
  8
0
100
AcDbCircle
 10
-317.6182115369749
 20
133.8732552107412
 30
0.0
 40
3.500000000000007
100
AcDbArc
 50
270.0
 51
304.8499050000009
  0
ARC
  5
1D67
330
172B
100
AcDbEntity
  8
0
100
AcDbCircle
 10
-317.6182115369749
 20
133.8732552107412
 30
0.0
 40
3.500000000000007
100
AcDbArc
 50
344.4871959999994
 51
25.37693400000121
  0
SOLID
  5
1D68
330
172B
100
AcDbEntity
  8
DIM
100
AcDbTrace
 10
-320.977173441737
 20
142.1897599726459
 30
0.0
 11
-322.5216083623718
 21
141.8233726710587
 31
0.0
 12
-320.6502242353877
 22
137.3732552107411
 32
0.0
 13
-320.6502242353877
 23
137.3732552107411
 33
0.0
  0
LINE
  5
1D69
330
172B
100
AcDbEntity
  8
DIM
100
AcDbLine
 10
-321.7493893147528
 20
142.0065663218523
 30
0.0
 11
-323.8464178861813
 21
150.8461663218523
 31
0.0
  0
LINE
  5
1D6A
330
172B
100
AcDbEntity
  8
DIM
100
AcDbLine
 10
-323.8464178861813
 20
150.8461663218523
 30
0.0
 11
-325.2847067750701
 21
150.8461663218523
 31
0.0
  0
LINE
  5
1D6B
330
172B
100
AcDbEntity
  8
DIM
100
AcDbLine
 10
-325.2847067750701
 20
150.8461663218523
 30
0.0
 11
-343.1146401084037
 21
150.8461663218523
 31
0.0
  0
TEXT
  5
1D6C
330
172B
100
AcDbEntity
  8
DIM
100
AcDbText
 10
-343.3413961174739
 20
153.2271187028046
 30
0.0
 40
4.76190476190477
  1
2-%%C7
  7
R
 72
     2
 11
-325.4275639179273
 21
155.608071083757
 31
0.0
100
AcDbText
 73
     2
  0
LINE
  5
1D6D
330
172B
100
AcDbEntity
  8
DIM
100
AcDbLine
 10
-206.2904655052289
 20
151.3527536234396
 30
0.0
 11
-207.9674623306256
 21
151.3527536234396
 31
0.0
  0
LINE
  5
1D6E
330
172B
100
AcDbEntity
  8
DIM
100
AcDbLine
 10
-206.6258655052288
 20
151.3527536234396
 30
0.0
 11
-238.968268679832
 21
151.3527536234396
 31
0.0
  0
TEXT
  5
1D6F
330
172B
100
AcDbEntity
  8
DIM
100
AcDbText
 10
-239.6485412421902
 20
153.733706004392
 30
0.0
 40
4.76190476190477
  1
2-Rc(PT)
  7
R
 72
     2
 11
-206.7687226480858
 21
156.1146583853443
 31
0.0
100
AcDbText
 73
     2
  0
TEXT
  5
1D70
330
172B
100
AcDbEntity
  8
DIM
100
AcDbText
 10
-233.214066865773
 20
142.3396806075665
 30
0.0
 40
4.76190476190477
  1
1 / 8
  7
R
 72
     2
 11
-212.8059036004668
 21
144.7206329885189
 31
0.0
100
AcDbText
 73
     2
  0
LINE
  5
1D71
330
172B
100
AcDbEntity
  8
DIM
100
AcDbLine
 10
-206.6258655052288
 20
139.9587282266141
 30
0.0
 11
-238.968268679832
 21
139.9587282266141
 31
0.0
  0
SOLID
  5
1D72
330
172B
100
AcDbEntity
  8
DIM
100
AcDbTrace
 10
-197.1218845528479
 20
111.9894044170903
 30
0.0
 11
-198.6745766163398
 21
111.6597504488364
 31
0.0
 12
-196.909271854435
 22
107.1664996551855
 32
0.0
 13
-196.909271854435
 23
107.1664996551855
 33
0.0
  0
LINE
  5
1D73
330
172B
100
AcDbEntity
  8
DIM
100
AcDbLine
 10
-197.8982305845938
 20
111.8245790202649
 30
0.0
 11
-206.2904655052289
 21
151.3527536234396
 31
0.0
  0
POINT
  5
1DDB
330
172B
100
AcDbEntity
  8
0
100
AcDbPoint
 10
-328.618211536975
 20
305.0937225041321
 30
0.0
  0
LINE
  5
1E05
330
172B
100
AcDbEntity
  8
0
100
AcDbLine
 10
-263.7256401084036
 20
259.7713161549257
 30
0.0
 11
-262.1273639179273
 21
266.5575510755607
 31
0.0
  0
LINE
  5
1E06
330
172B
100
AcDbEntity
  8
0
100
AcDbLine
 10
-262.1273639179273
 20
266.5575510755607
 30
0.0
 11
-265.7958020131656
 21
272.4862939327035
 31
0.0
  0
LINE
  5
1E07
330
172B
100
AcDbEntity
  8
0
 62
     7
100
AcDbLine
 10
-265.7958020131656
 20
272.4862939327035
 30
0.0
 11
-272.5820369338005
 21
274.0845701231797
 31
0.0
  0
LINE
  5
1E08
330
172B
100
AcDbEntity
  8
0
 62
     7
100
AcDbLine
 10
-272.5820369338005
 20
274.0845701231797
 30
0.0
 11
-278.5107797909434
 21
270.4161320279416
 31
0.0
  0
LINE
  5
1E09
330
172B
100
AcDbEntity
  8
0
 62
     7
100
AcDbLine
 10
-278.5107797909434
 20
270.4161320279416
 30
0.0
 11
-280.1090559814196
 21
263.6298971073066
 31
0.0
  0
LINE
  5
1E0A
330
172B
100
AcDbEntity
  8
0
 62
     7
100
AcDbLine
 10
-280.1090559814196
 20
263.6298971073066
 30
0.0
 11
-276.4406178861814
 21
257.7011542501638
 31
0.0
  0
LINE
  5
1E0B
330
172B
100
AcDbEntity
  8
0
 62
     7
100
AcDbLine
 10
-276.4406178861814
 20
257.7011542501638
 30
0.0
 11
-269.6543829655464
 21
256.1028780596876
 31
0.0
  0
LINE
  5
1E0C
330
172B
100
AcDbEntity
  8
0
 62
     7
100
AcDbLine
 10
-269.6543829655464
 20
256.1028780596876
 30
0.0
 11
-263.7256401084036
 21
259.7713161549257
 31
0.0
  0
LINE
  5
1E0D
330
172B
100
AcDbEntity
  8
0
100
AcDbLine
 10
-190.6203353464986
 20
135.8732552107411
 30
0.0
 11
-189.6519734417368
 21
170.2500806075666
 31
0.0
  0
LINE
  5
1E0E
330
172B
100
AcDbEntity
  8
0
100
AcDbLine
 10
-151.612563917927
 20
138.8732552107411
 30
0.0
 11
-152.4964178861809
 21
170.2500806075666
 31
0.0
  0
LINE
  5
1E0F
330
172B
100
AcDbEntity
  8
0
100
AcDbLine
 10
-174.3191194734827
 20
145.8595917186777
 30
0.0
 11
-174.3191194734827
 21
170.2500806075666
 31
0.0
  0
LINE
  5
1E10
330
172B
100
AcDbEntity
  8
0
100
AcDbLine
 10
-167.9495956639587
 20
145.8693631472491
 30
0.0
 11
-167.9495956639587
 21
170.2500806075666
 31
0.0
  0
LINE
  5
1E11
330
172B
100
AcDbEntity
  8
0
100
AcDbLine
 10
-174.8499131242764
 20
170.7808742583603
 30
0.0
 11
-174.8499131242764
 21
145.7567345758205
 31
0.0
  0
LINE
  5
1E12
330
172B
100
AcDbEntity
  8
0
100
AcDbLine
 10
-167.4188020131651
 20
170.7808742583603
 30
0.0
 11
-167.4188020131651
 21
145.7888583853443
 31
0.0
  0
LINE
  5
1E13
330
172B
100
AcDbEntity
  8
0
100
AcDbLine
 10
-161.2652972512603
 20
170.7808742583603
 30
0.0
 11
-161.2652972512603
 21
139.4640488615348
 31
0.0
  0
LINE
  5
1E14
330
172B
100
AcDbEntity
  8
0
100
AcDbLine
 10
-160.4341702671334
 20
170.2500806075666
 30
0.0
 11
-160.4341702671334
 21
139.4640488615348
 31
0.0
  0
LINE
  5
1E15
330
172B
100
AcDbEntity
  8
0
100
AcDbLine
 10
-155.9154305845937
 20
170.2500806075666
 30
0.0
 11
-155.9154305845937
 21
139.4640488615348
 31
0.0
  0
LINE
  5
1E16
330
172B
100
AcDbEntity
  8
0
100
AcDbLine
 10
-180.9860750290381
 20
170.7808742583603
 30
0.0
 11
-180.9860750290381
 21
139.4640488615348
 31
0.0
  0
LINE
  5
1E17
330
172B
100
AcDbEntity
  8
0
100
AcDbLine
 10
-181.81410677507
 20
170.2500806075666
 30
0.0
 11
-181.81410677507
 21
139.4640488615348
 31
0.0
  0
LINE
  5
1E18
330
172B
100
AcDbEntity
  8
0
100
AcDbLine
 10
-186.3032369338001
 20
170.2500806075666
 30
0.0
 11
-186.3032369338001
 21
139.4640488615348
 31
0.0
  0
LINE
  5
1E19
330
172B
100
AcDbEntity
  8
0
100
AcDbLine
 10
-189.121179790943
 20
170.7808742583603
 30
0.0
 11
-189.7728623306256
 21
139.4640488615348
 31
0.0
  0
LINE
  5
1E1A
330
172B
100
AcDbEntity
  8
0
100
AcDbLine
 10
-153.0272115369747
 20
170.7808742583603
 30
0.0
 11
-151.9800591560223
 21
139.4640488615348
 31
0.0
  0
LINE
  5
1E1B
330
172B
100
AcDbEntity
  8
0
100
AcDbLine
 10
-181.074195663959
 20
132.5637314012174
 30
0.0
 11
-178.5449639179272
 21
132.5637314012174
 31
0.0
  0
LINE
  5
1E1C
330
172B
100
AcDbEntity
  8
0
100
AcDbLine
 10
-190.5191861401492
 20
139.4640488615348
 30
0.0
 11
-177.8303766163398
 21
139.4640488615348
 31
0.0
  0
LINE
  5
1E1D
330
172B
100
AcDbEntity
  8
0
100
AcDbLine
 10
-154.6195924893556
 20
172.3732552107412
 30
0.0
 11
-152.4964178861809
 21
170.2500806075666
 31
0.0
  0
LINE
  5
1E1E
330
172B
100
AcDbEntity
  8
0
100
AcDbLine
 10
-155.9928083623714
 20
170.7808742583603
 30
0.0
 11
-153.0272115369747
 21
170.7808742583603
 31
0.0
  0
LINE
  5
1E1F
330
172B
100
AcDbEntity
  8
0
100
AcDbLine
 10
-189.121179790943
 20
170.7808742583603
 30
0.0
 11
-186.2227639179273
 21
170.7808742583603
 31
0.0
  0
LINE
  5
1E20
330
172B
100
AcDbEntity
  8
0
100
AcDbLine
 10
-187.528798838562
 20
172.3732552107412
 30
0.0
 11
-189.6519734417368
 21
170.2500806075666
 31
0.0
  0
LINE
  5
1E21
330
172B
100
AcDbEntity
  8
0
100
AcDbLine
 10
-187.528798838562
 20
172.3732552107412
 30
0.0
 11
-154.6195924893556
 21
172.3732552107412
 31
0.0
  0
LINE
  5
1E22
330
172B
100
AcDbEntity
  8
0
100
AcDbLine
 10
-174.3191194734827
 20
170.2500806075666
 30
0.0
 11
-167.9495956639587
 21
170.2500806075666
 31
0.0
  0
LINE
  5
1E23
330
172B
100
AcDbEntity
  8
0
100
AcDbLine
 10
-180.9860750290381
 20
170.7808742583603
 30
0.0
 11
-174.8499131242764
 21
170.7808742583603
 31
0.0
  0
LINE
  5
1E24
330
172B
100
AcDbEntity
  8
0
100
AcDbLine
 10
-181.81410677507
 20
170.2500806075666
 30
0.0
 11
-180.9860750290381
 21
170.7808742583603
 31
0.0
  0
LINE
  5
1E25
330
172B
100
AcDbEntity
  8
0
100
AcDbLine
 10
-186.3032369338001
 20
170.2500806075666
 30
0.0
 11
-186.2227639179273
 21
170.7808742583603
 31
0.0
  0
LINE
  5
1E26
330
172B
100
AcDbEntity
  8
0
100
AcDbLine
 10
-181.81410677507
 20
170.2500806075666
 30
0.0
 11
-186.3032369338001
 21
170.2500806075666
 31
0.0
  0
LINE
  5
1E27
330
172B
100
AcDbEntity
  8
0
100
AcDbLine
 10
-174.3191194734827
 20
170.2500806075666
 30
0.0
 11
-174.8499131242764
 21
170.7808742583603
 31
0.0
  0
LINE
  5
1E28
330
172B
100
AcDbEntity
  8
0
100
AcDbLine
 10
-167.4188020131651
 20
170.7808742583603
 30
0.0
 11
-161.2652972512603
 21
170.7808742583603
 31
0.0
  0
LINE
  5
1E29
330
172B
100
AcDbEntity
  8
0
100
AcDbLine
 10
-167.9495956639587
 20
170.2500806075666
 30
0.0
 11
-167.4188020131651
 21
170.7808742583603
 31
0.0
  0
LINE
  5
1E2A
330
172B
100
AcDbEntity
  8
0
100
AcDbLine
 10
-155.9928083623714
 20
170.7808742583603
 30
0.0
 11
-155.9154305845937
 21
170.2500806075666
 31
0.0
  0
LINE
  5
1E2B
330
172B
100
AcDbEntity
  8
0
100
AcDbLine
 10
-161.2652972512603
 20
170.7808742583603
 30
0.0
 11
-160.4341702671334
 21
170.2500806075666
 31
0.0
  0
LINE
  5
1E2C
330
172B
100
AcDbEntity
  8
0
100
AcDbLine
 10
-160.4341702671334
 20
170.2500806075666
 30
0.0
 11
-155.9154305845937
 21
170.2500806075666
 31
0.0
  0
LINE
  5
1E2D
330
172B
100
AcDbEntity
  8
0
100
AcDbLine
 10
-163.6034274099905
 20
132.5637314012174
 30
0.0
 11
-158.0741956639589
 21
132.5637314012174
 31
0.0
  0
LINE
  5
1E2E
330
172B
100
AcDbEntity
  8
0
100
AcDbLine
 10
-164.3180147115779
 20
139.4640488615348
 30
0.0
 11
-151.6292051877684
 21
139.4640488615348
 31
0.0
  0
LINE
  5
1E2F
330
172B
100
AcDbEntity
  8
0
100
AcDbLine
 10
-315.9139607433242
 20
172.3732552107412
 30
0.0
 11
-283.3224655052289
 21
172.3732552107412
 31
0.0
  0
LINE
  5
1E30
330
172B
100
AcDbEntity
  8
0
100
AcDbLine
 10
-311.7984083623718
 20
172.3732552107412
 30
0.0
 11
-287.4380178861813
 21
172.3732552107412
 31
0.0
  0
LINE
  5
1E31
330
172B
100
AcDbEntity
  8
0
100
AcDbLine
 10
-280.0579893147527
 20
135.3732552107411
 30
0.0
 11
-281.037668679832
 21
170.1519155282015
 31
0.0
  0
LINE
  5
1E32
330
172B
100
AcDbEntity
  8
0
100
AcDbLine
 10
-319.1784369338005
 20
135.3732552107411
 30
0.0
 11
-318.1987575687209
 21
170.1519155282015
 31
0.0
  0
LINE
  5
1E33
330
172B
100
AcDbEntity
  8
0
100
AcDbLine
 10
-283.3224655052289
 20
172.3732552107412
 30
0.0
 11
-281.037668679832
 21
170.1519155282015
 31
0.0
  0
LINE
  5
1E34
330
172B
100
AcDbEntity
  8
0
100
AcDbLine
 10
-315.9139607433242
 20
172.3732552107412
 30
0.0
 11
-318.1987575687209
 21
170.1519155282015
 31
0.0
  0
CIRCLE
  5
1E35
330
172B
100
AcDbEntity
  8
0
 62
     7
100
AcDbCircle
 10
-299.618211536975
 20
265.0937225041321
 30
0.0
 40
18.57142857142861
  0
LINE
  5
1E36
330
172B
100
AcDbEntity
  8
0
 62
     7
100
AcDbLine
 10
-288.746684552848
 20
280.0821923454019
 30
0.0
 11
-289.3227385211021
 21
278.0648748850845
 31
0.0
  0
LINE
  5
1E37
330
172B
100
AcDbEntity
  8
0
 62
     7
100
AcDbLine
 10
-284.6297416957052
 20
275.9652494882591
 30
0.0
 11
-286.6470591560227
 21
275.3891955200051
 31
0.0
  0
ARC
  5
1E38
330
172B
100
AcDbEntity
  8
0
 62
     7
100
AcDbCircle
 10
-295.6471575687211
 20
269.0647764723861
 30
0.0
 40
11.00000000000002
100
AcDbArc
 50
35.09592300000116
 51
54.90407700000115
  0
LINE
  5
1E39
330
172B
100
AcDbEntity
  8
0
 62
     7
100
AcDbLine
 10
-302.5293289972926
 20
283.3795034565131
 30
0.0
 11
-301.5102020131657
 21
281.5457098057194
 31
0.0
  0
LINE
  5
1E3A
330
172B
100
AcDbEntity
  8
0
 62
     7
100
AcDbLine
 10
-296.7070909020545
 20
283.3795034565131
 30
0.0
 11
-297.7262178861816
 21
281.5457098057194
 31
0.0
  0
ARC
  5
1E3B
330
172B
100
AcDbEntity
  8
0
 62
     7
100
AcDbCircle
 10
-299.618211536975
 20
270.7096399644495
 30
0.0
 40
11.00000000000002
100
AcDbArc
 50
80.09592299999853
 51
99.90407700000146
  0
LINE
  5
1E3C
330
172B
100
AcDbEntity
  8
0
 62
     7
100
AcDbLine
 10
-314.6066813782449
 20
275.9652494882591
 30
0.0
 11
-312.5893607433243
 21
275.3891955200051
 31
0.0
  0
LINE
  5
1E3D
330
172B
100
AcDbEntity
  8
0
 62
     7
100
AcDbLine
 10
-310.4897353464989
 20
280.0821923454019
 30
0.0
 11
-309.913681378245
 21
278.0648748850845
 31
0.0
  0
ARC
  5
1E3E
330
172B
100
AcDbEntity
  8
0
 62
     7
100
AcDbCircle
 10
-303.589262330626
 20
269.0647764723861
 30
0.0
 40
11.00000000000002
100
AcDbArc
 50
125.0959229999988
 51
144.9040769999988
  0
LINE
  5
1E3F
330
172B
100
AcDbEntity
  8
0
 62
     7
100
AcDbLine
 10
-317.903989314753
 20
262.1826050438146
 30
0.0
 11
-316.0701956639594
 21
263.2017320279416
 31
0.0
  0
LINE
  5
1E40
330
172B
100
AcDbEntity
  8
0
 62
     7
100
AcDbLine
 10
-317.903989314753
 20
268.0048431390527
 30
0.0
 11
-316.0701956639594
 21
266.9857161549257
 31
0.0
  0
ARC
  5
1E41
330
172B
100
AcDbEntity
  8
0
 62
     7
100
AcDbCircle
 10
-305.2341289972926
 20
265.0937225041321
 30
0.0
 40
11.00000000000002
100
AcDbArc
 50
170.0959230000002
 51
189.9040769999997
  0
LINE
  5
1E42
330
172B
100
AcDbEntity
  8
0
 62
     7
100
AcDbLine
 10
-310.4897353464989
 20
250.1052526628622
 30
0.0
 11
-309.913681378245
 21
252.1225732977828
 31
0.0
  0
LINE
  5
1E43
330
172B
100
AcDbEntity
  8
0
 62
     7
100
AcDbLine
 10
-314.6066813782449
 20
254.2221986946083
 30
0.0
 11
-312.5893607433243
 21
254.7982526628622
 31
0.0
  0
ARC
  5
1E44
330
172B
100
AcDbEntity
  8
0
 62
     7
100
AcDbCircle
 10
-303.589262330626
 20
261.1226717104813
 30
0.0
 40
11.00000000000002
100
AcDbArc
 50
215.0959230000011
 51
234.9040770000011
  0
LINE
  5
1E45
330
172B
100
AcDbEntity
  8
0
 62
     7
100
AcDbLine
 10
-296.7070909020545
 20
246.8079447263543
 30
0.0
 11
-297.7262178861816
 21
248.6417383771479
 31
0.0
  0
LINE
  5
1E46
330
172B
100
AcDbEntity
  8
0
 62
     7
100
AcDbLine
 10
-302.5293289972926
 20
246.8079447263543
 30
0.0
 11
-301.5102020131657
 21
248.6417383771479
 31
0.0
  0
ARC
  5
1E47
330
172B
100
AcDbEntity
  8
0
 62
     7
100
AcDbCircle
 10
-299.618211536975
 20
259.4778050438146
 30
0.0
 40
11.00000000000002
100
AcDbArc
 50
260.0959229999985
 51
279.9040770000014
  0
LINE
  5
1E48
330
172B
100
AcDbEntity
  8
0
 62
     7
100
AcDbLine
 10
-284.6297416957052
 20
254.2221986946083
 30
0.0
 11
-286.6470591560227
 21
254.7982526628622
 31
0.0
  0
LINE
  5
1E49
330
172B
100
AcDbEntity
  8
0
 62
     7
100
AcDbLine
 10
-288.746684552848
 20
250.1052526628622
 30
0.0
 11
-289.3227385211021
 21
252.1225732977828
 31
0.0
  0
ARC
  5
1E4A
330
172B
100
AcDbEntity
  8
0
 62
     7
100
AcDbCircle
 10
-295.6471575687211
 20
261.1226717104813
 30
0.0
 40
11.00000000000002
100
AcDbArc
 50
305.0959229999988
 51
324.9040769999988
  0
CIRCLE
  5
1E4B
330
172B
100
AcDbEntity
  8
0
 62
     7
100
AcDbCircle
 10
-299.618211536975
 20
265.0937225041321
 30
0.0
 40
10.50966349206351
  0
CIRCLE
  5
1E4C
330
172B
100
AcDbEntity
  8
0
 62
     7
100
AcDbCircle
 10
-299.618211536975
 20
265.0937225041321
 30
0.0
 40
6.255177777777789
  0
LINE
  5
1E4D
330
172B
100
AcDbEntity
  8
0
100
AcDbLine
 10
-312.618211536975
 20
133.3732552107411
 30
0.0
 11
-286.618211536975
 21
133.3732552107411
 31
0.0
  0
LINE
  5
1E4E
330
172B
100
AcDbEntity
  8
0
100
AcDbLine
 10
-315.618211536975
 20
132.5694075916935
 30
0.0
 11
-283.6182115369749
 21
132.5694075916935
 31
0.0
  0
LINE
  5
1E4F
330
172B
100
AcDbEntity
  8
0
100
AcDbLine
 10
-315.618211536975
 20
129.3732552107411
 30
0.0
 11
-283.6182115369749
 21
129.3732552107411
 31
0.0
  0
LINE
  5
1E50
330
172B
100
AcDbEntity
  8
0
100
AcDbLine
 10
-317.1182115369751
 20
128.5072298139157
 30
0.0
 11
-282.1182115369749
 21
128.5072298139157
 31
0.0
  0
LINE
  5
1E51
330
172B
100
AcDbEntity
  8
0
100
AcDbLine
 10
-318.6182115369749
 20
126.8732552107411
 30
0.0
 11
-261.1182115369748
 21
126.8732552107411
 31
0.0
  0
LINE
  5
1E52
330
172B
100
AcDbEntity
  8
0
100
AcDbLine
 10
-330.118211536975
 20
68.37325521074103
 30
0.0
 11
-269.1182115369749
 21
68.37325521074103
 31
0.0
  0
LINE
  5
1E53
330
172B
100
AcDbEntity
  8
0
100
AcDbLine
 10
-264.2722260705125
 20
97.3732552107411
 30
0.0
 11
-288.8379318359093
 21
97.3732552107411
 31
0.0
  0
LINE
  5
1E54
330
172B
100
AcDbEntity
  8
0
100
AcDbLine
 10
-310.3984912380407
 20
97.3732552107411
 30
0.0
 11
-334.4274242353879
 21
97.3732552107411
 31
0.0
  0
LINE
  5
1E55
330
172B
100
AcDbEntity
  8
0
100
AcDbLine
 10
-260.118211536975
 20
117.8732552107411
 30
0.0
 11
-270.6121935312551
 21
117.8732552107411
 31
0.0
  0
LINE
  5
1E56
330
172B
100
AcDbEntity
  8
0
100
AcDbLine
 10
-272.1994951185566
 20
116.2859536234395
 30
0.0
 11
-272.1994951185566
 21
97.3732552107411
 31
0.0
  0
LINE
  5
1E57
330
172B
100
AcDbEntity
  8
0
100
AcDbLine
 10
-262.6849244832109
 20
95.78595362343952
 30
0.0
 11
-262.6849244832109
 21
68.37325521074103
 31
0.0
  0
ARC
  5
1E58
330
172B
100
AcDbEntity
  8
0
100
AcDbCircle
 10
-264.2722260705125
 20
95.78595362343952
 30
0.0
 40
1.58730158730159
100
AcDbArc
 50
0.0
 51
90.0
  0
ARC
  5
1E59
330
172B
100
AcDbEntity
  8
0
100
AcDbCircle
 10
-270.6121935312551
 20
116.2859536234395
 30
0.0
 40
1.58730158730159
100
AcDbArc
 50
90.0
 51
180.0
  0
CIRCLE
  5
1E5A
330
172B
100
AcDbEntity
  8
0
100
AcDbCircle
 10
-299.618211536975
 20
102.873255210741
 30
0.0
 40
4.912216142932344
  0
CIRCLE
  5
1E5B
330
172B
100
AcDbEntity
  8
0
100
AcDbCircle
 10
-299.618211536975
 20
102.873255210741
 30
0.0
 40
5.951046796828256
  0
LINE
  5
1E5C
330
172B
100
AcDbEntity
  8
0
100
AcDbLine
 10
-307.2238880634376
 20
112.8062662920821
 30
0.0
 11
-292.0125350105124
 21
112.8062662920821
 31
0.0
  0
LINE
  5
1E5D
330
172B
100
AcDbEntity
  8
0
100
AcDbLine
 10
-308.8111896507391
 20
111.2189647047806
 30
0.0
 11
-308.8111896507391
 21
98.96055679804266
 31
0.0
  0
LINE
  5
1E5E
330
172B
100
AcDbEntity
  8
0
100
AcDbLine
 10
-290.4252334232109
 20
111.2189647047806
 30
0.0
 11
-290.4252334232109
 21
98.96055679804272
 31
0.0
  0
ARC
  5
1E5F
330
172B
100
AcDbEntity
  8
0
100
AcDbCircle
 10
-292.0125350105124
 20
111.2189647047806
 30
0.0
 40
1.58730158730159
100
AcDbArc
 50
0.0
 51
90.0
  0
ARC
  5
1E60
330
172B
100
AcDbEntity
  8
0
100
AcDbCircle
 10
-307.2238880634376
 20
111.2189647047806
 30
0.0
 40
1.58730158730159
100
AcDbArc
 50
90.0
 51
180.0
  0
ARC
  5
1E61
330
172B
100
AcDbEntity
  8
0
100
AcDbCircle
 10
-310.3984912380407
 20
98.96055679804266
 30
0.0
 40
1.58730158730159
100
AcDbArc
 50
270.0
 51
0.0
  0
ARC
  5
1E62
330
172B
100
AcDbEntity
  8
0
100
AcDbCircle
 10
-288.8379318359093
 20
98.96055679804272
 30
0.0
 40
1.58730158730159
100
AcDbArc
 50
180.0
 51
270.0
  0
LINE
  5
1E63
330
172B
100
AcDbEntity
  8
0
100
AcDbLine
 10
-310.9213248074288
 20
97.3732552107411
 30
0.0
 11
-306.5863195551465
 21
93.69234045775099
 31
0.0
  0
LINE
  5
1E64
330
172B
100
AcDbEntity
  8
0
100
AcDbLine
 10
-306.5863195551465
 20
93.69234045775099
 30
0.0
 11
-299.618211536975
 21
93.69234045775099
 31
0.0
  0
LINE
  5
1E65
330
172B
100
AcDbEntity
  8
0
100
AcDbLine
 10
-288.3150982665211
 20
97.3732552107411
 30
0.0
 11
-292.6501035188035
 21
93.69234045775099
 31
0.0
  0
LINE
  5
1E66
330
172B
100
AcDbEntity
  8
0
100
AcDbLine
 10
-292.6501035188035
 20
93.69234045775099
 30
0.0
 11
-299.618211536975
 21
93.69234045775099
 31
0.0
  0
LINE
  5
1E67
330
172B
100
AcDbEntity
  8
0
100
AcDbLine
 10
-284.4566813782448
 20
170.1519155282015
 30
0.0
 11
-284.4566813782448
 21
139.3658837821697
 31
0.0
  0
LINE
  5
1E68
330
172B
100
AcDbEntity
  8
0
100
AcDbLine
 10
-288.9754210607845
 20
170.1519155282015
 30
0.0
 11
-288.9754210607845
 21
139.3658837821697
 31
0.0
  0
LINE
  5
1E69
330
172B
100
AcDbEntity
  8
0
100
AcDbLine
 10
-295.9600528068162
 20
170.6827091789952
 30
0.0
 11
-295.9600528068164
 21
139.3658837821697
 31
0.0
  0
LINE
  5
1E6A
330
172B
100
AcDbEntity
  8
0
100
AcDbLine
 10
-296.49084645761
 20
139.3658837821697
 30
0.0
 11
-296.4908464576097
 21
170.1519155282015
 31
0.0
  0
LINE
  5
1E6B
330
172B
100
AcDbEntity
  8
0
100
AcDbLine
 10
-302.8603702671338
 20
170.1519155282015
 30
0.0
 11
-296.4908464576097
 21
170.1519155282015
 31
0.0
  0
LINE
  5
1E6C
330
172B
100
AcDbEntity
  8
0
100
AcDbLine
 10
-296.4908464576097
 20
170.1519155282015
 30
0.0
 11
-295.9600528068162
 21
170.6827091789952
 31
0.0
  0
LINE
  5
1E6D
330
172B
100
AcDbEntity
  8
0
100
AcDbLine
 10
-295.9600528068162
 20
170.6827091789952
 30
0.0
 11
-289.8065480449114
 21
170.6827091789952
 31
0.0
  0
LINE
  5
1E6E
330
172B
100
AcDbEntity
  8
0
100
AcDbLine
 10
-281.5684623306258
 20
170.6827091789952
 30
0.0
 11
-280.5213099496733
 21
139.3658837821697
 31
0.0
  0
LINE
  5
1E6F
330
172B
100
AcDbEntity
  8
0
100
AcDbLine
 10
-317.6624305845941
 20
170.6827091789952
 30
0.0
 11
-318.3141131242766
 21
139.3658837821697
 31
0.0
  0
LINE
  5
1E70
330
172B
100
AcDbEntity
  8
0
100
AcDbLine
 10
-314.8444877274512
 20
170.1519155282015
 30
0.0
 11
-314.8444877274512
 21
139.3658837821697
 31
0.0
  0
LINE
  5
1E71
330
172B
100
AcDbEntity
  8
0
100
AcDbLine
 10
-310.3553575687211
 20
170.1519155282015
 30
0.0
 11
-310.3553575687211
 21
139.3658837821697
 31
0.0
  0
LINE
  5
1E72
330
172B
100
AcDbEntity
  8
0
100
AcDbLine
 10
-309.5273258226892
 20
170.6827091789952
 30
0.0
 11
-309.5273258226892
 21
139.3658837821697
 31
0.0
  0
LINE
  5
1E73
330
172B
100
AcDbEntity
  8
0
100
AcDbLine
 10
-289.8065480449114
 20
170.6827091789952
 30
0.0
 11
-289.8065480449114
 21
139.3658837821697
 31
0.0
  0
LINE
  5
1E74
330
172B
100
AcDbEntity
  8
0
100
AcDbLine
 10
-303.3911639179275
 20
170.6827091789952
 30
0.0
 11
-303.3911639179274
 21
139.3658837821697
 31
0.0
  0
LINE
  5
1E75
330
172B
100
AcDbEntity
  8
0
100
AcDbLine
 10
-302.8603702671338
 20
139.3658837821697
 30
0.0
 11
-302.8603702671338
 21
170.1519155282015
 31
0.0
  0
LINE
  5
1E76
330
172B
100
AcDbEntity
  8
0
100
AcDbLine
 10
-280.1538147115781
 20
138.775090131376
 30
0.0
 11
-281.037668679832
 21
170.1519155282015
 31
0.0
  0
LINE
  5
1E77
330
172B
100
AcDbEntity
  8
0
100
AcDbLine
 10
-319.0604369338003
 20
139.3658837821697
 30
0.0
 11
-306.3716274099908
 21
139.3658837821697
 31
0.0
  0
LINE
  5
1E78
330
172B
100
AcDbEntity
  8
0
100
AcDbLine
 10
-319.0659686619305
 20
139.3658837821697
 30
0.0
 11
-280.1704559814195
 21
139.3658837821697
 31
0.0
  0
LINE
  5
1E7B
330
172B
100
AcDbEntity
  8
0
100
AcDbLine
 10
-302.8603702671338
 20
170.1519155282015
 30
0.0
 11
-303.3911639179275
 21
170.6827091789952
 31
0.0
  0
LINE
  5
1E7C
330
172B
100
AcDbEntity
  8
0
100
AcDbLine
 10
-310.3553575687211
 20
170.1519155282015
 30
0.0
 11
-314.8444877274512
 21
170.1519155282015
 31
0.0
  0
LINE
  5
1E7D
330
172B
100
AcDbEntity
  8
0
100
AcDbLine
 10
-314.8444877274512
 20
170.1519155282015
 30
0.0
 11
-314.7640147115783
 21
170.6827091789952
 31
0.0
  0
LINE
  5
1E7E
330
172B
100
AcDbEntity
  8
0
100
AcDbLine
 10
-317.6624305845941
 20
170.6827091789952
 30
0.0
 11
-314.7640147115783
 21
170.6827091789952
 31
0.0
  0
LINE
  5
1E7F
330
172B
100
AcDbEntity
  8
0
100
AcDbLine
 10
-309.5273258226892
 20
170.6827091789952
 30
0.0
 11
-303.3911639179275
 21
170.6827091789952
 31
0.0
  0
LINE
  5
1E80
330
172B
100
AcDbEntity
  8
0
100
AcDbLine
 10
-310.3553575687211
 20
170.1519155282015
 30
0.0
 11
-309.5273258226892
 21
170.6827091789952
 31
0.0
  0
LINE
  5
1E81
330
172B
100
AcDbEntity
  8
0
100
AcDbLine
 10
-288.9754210607845
 20
170.1519155282015
 30
0.0
 11
-284.4566813782448
 21
170.1519155282015
 31
0.0
  0
LINE
  5
1E82
330
172B
100
AcDbEntity
  8
0
100
AcDbLine
 10
-289.8065480449114
 20
170.6827091789952
 30
0.0
 11
-288.9754210607845
 21
170.1519155282015
 31
0.0
  0
LINE
  5
1E83
330
172B
100
AcDbEntity
  8
0
100
AcDbLine
 10
-284.5340591560225
 20
170.6827091789952
 30
0.0
 11
-284.4566813782448
 21
170.1519155282015
 31
0.0
  0
LINE
  5
1E84
330
172B
100
AcDbEntity
  8
0
100
AcDbLine
 10
-284.5340591560225
 20
170.6827091789952
 30
0.0
 11
-281.5684623306258
 21
170.6827091789952
 31
0.0
  0
LINE
  5
1E85
330
172B
100
AcDbEntity
  8
0
100
AcDbLine
 10
-278.7202750290385
 20
0.9488869567726965
 30
0.0
 11
-281.653233759197
 21
-8.126744789259078
 31
0.0
  0
LINE
  5
1E86
330
172B
100
AcDbEntity
  8
0
100
AcDbLine
 10
-329.9472401084036
 20
0.9488869567726965
 30
0.0
 11
-269.2891829655462
 21
0.9488869567726965
 31
0.0
  0
LINE
  5
1E87
330
172B
100
AcDbEntity
  8
0
100
AcDbLine
 10
-327.2447480449116
 20
0.9488869567726965
 30
0.0
 11
-319.444995663959
 21
-8.126744789259078
 31
0.0
  0
LINE
  5
1E88
330
172B
100
AcDbEntity
  8
0
100
AcDbLine
 10
-329.4635575687211
 20
0.2781155282012833
 30
0.0
 11
-320.7903416957052
 21
-7.606624154338419
 31
0.0
  0
LINE
  5
1E89
330
172B
100
AcDbEntity
  8
0
100
AcDbLine
 10
-327.2447480449116
 20
68.37325521074103
 30
0.0
 11
-327.2447480449116
 21
0.9488869567726965
 31
0.0
  0
LINE
  5
1E8A
330
172B
100
AcDbEntity
  8
0
100
AcDbLine
 10
-330.118211536975
 20
68.37325521074103
 30
0.0
 11
-330.118211536975
 21
1.757994893280624
 31
0.0
  0
ARC
  5
1E8B
330
172B
100
AcDbEntity
  8
0
100
AcDbCircle
 10
-328.118211536975
 20
1.757994893280624
 30
0.0
 40
2.000000000000003
100
AcDbArc
 50
180.0
 51
227.7263109999992
  0
LINE
  5
1E8C
330
172B
100
AcDbEntity
  8
0
100
AcDbLine
 10
-320.5161480449116
 20
68.37325521074103
 30
0.0
 11
-320.5161480449116
 21
0.9488869567726965
 31
0.0
  0
LINE
  5
1E8D
330
172B
100
AcDbEntity
  8
0
100
AcDbLine
 10
-285.8038559814193
 20
68.37325521074103
 30
0.0
 11
-285.8038559814193
 21
0.9488869567726965
 31
0.0
  0
LINE
  5
1E8E
330
172B
100
AcDbEntity
  8
0
100
AcDbLine
 10
-313.4325670925306
 20
68.37325521074103
 30
0.0
 11
-313.4325670925306
 21
0.9488869567726965
 31
0.0
  0
LINE
  5
1E8F
330
172B
100
AcDbEntity
  8
0
100
AcDbLine
 10
-320.5161480449116
 20
0.9488869567726965
 30
0.0
 11
-317.5831861401495
 21
-8.126744789259078
 31
0.0
  0
LINE
  5
1E90
330
172B
100
AcDbEntity
  8
0
100
AcDbLine
 10
-313.4325670925306
 20
0.9488869567726965
 30
0.0
 11
-310.7200686798321
 21
-8.126744789259078
 31
0.0
  0
LINE
  5
1E91
330
172B
100
AcDbEntity
  8
0
100
AcDbLine
 10
-285.8038559814193
 20
0.9488869567726965
 30
0.0
 11
-288.5163512195146
 21
-8.126744789259078
 31
0.0
  0
LINE
  5
1E92
330
172B
100
AcDbEntity
  8
0
100
AcDbLine
 10
-271.9916750290385
 20
68.37325521074103
 30
0.0
 11
-271.9916750290385
 21
0.9488869567726965
 31
0.0
  0
LINE
  5
1E93
330
172B
100
AcDbEntity
  8
0
100
AcDbLine
 10
-278.7202750290385
 20
68.37325521074103
 30
0.0
 11
-278.7202750290385
 21
0.9488869567726965
 31
0.0
  0
LINE
  5
1E94
330
172B
100
AcDbEntity
  8
0
100
AcDbLine
 10
-269.1182115369749
 20
68.37325521074103
 30
0.0
 11
-269.1182115369749
 21
1.757994893280624
 31
0.0
  0
ARC
  5
1E95
330
172B
100
AcDbEntity
  8
0
100
AcDbCircle
 10
-271.1182115369749
 20
1.757994893280624
 30
0.0
 40
2.000000000000003
100
AcDbArc
 50
312.2736890000006
 51
0.0
  0
LINE
  5
1E96
330
172B
100
AcDbEntity
  8
0
100
AcDbLine
 10
-271.9916750290385
 20
0.9488869567726965
 30
0.0
 11
-279.7914242353876
 21
-8.126744789259078
 31
0.0
  0
LINE
  5
1E97
330
172B
100
AcDbEntity
  8
0
100
AcDbLine
 10
-269.7728655052288
 20
0.2781155282012833
 30
0.0
 11
-278.4460782036418
 21
-7.606624154338419
 31
0.0
  0
LINE
  5
1E98
330
172B
100
AcDbEntity
  8
0
100
AcDbLine
 10
-266.0235822567858
 20
130.8729567980428
 30
0.0
 11
-266.0235822567858
 21
127.8732552107411
 31
0.0
  0
LINE
  5
1E99
330
172B
100
AcDbEntity
  8
0
100
AcDbLine
 10
-276.212840817164
 20
130.8729567980428
 30
0.0
 11
-276.212840817164
 21
127.8732552107411
 31
0.0
  0
CIRCLE
  5
1E9A
330
172B
100
AcDbEntity
  8
0
 62
     7
100
AcDbCircle
 10
-271.1182115369751
 20
265.0937225041321
 30
0.0
 40
8.415834645994522
  0
LINE
  5
1E9B
330
172B
100
AcDbEntity
  8
0
100
AcDbLine
 10
-202.8300083623716
 20
107.3732552107411
 30
0.0
 11
-199.574195663959
 21
107.2595599726458
 31
0.0
  0
LINE
  5
1E9C
330
172B
100
AcDbEntity
  8
0
100
AcDbLine
 10
-202.8300083623716
 20
98.37325521074109
 30
0.0
 11
-199.574195663959
 21
98.48695044883635
 31
0.0
  0
LINE
  5
1E9D
330
172B
100
AcDbEntity
  8
0
 62
     7
100
AcDbLine
 10
-289.6182115369749
 20
-9.126744789259078
 30
0.0
 11
-289.6182115369749
 21
-23.12674478925913
 31
0.0
  0
LINE
  5
1E9E
330
172B
100
AcDbEntity
  8
0
 62
     7
100
AcDbLine
 10
-289.6182115369749
 20
-12.92674478925914
 30
0.0
 11
-287.6182115369749
 21
-12.92674478925914
 31
0.0
  0
LINE
  5
1E9F
330
172B
100
AcDbEntity
  8
0
 62
     7
100
AcDbLine
 10
-287.6182115369749
 20
-12.92674478925914
 30
0.0
 11
-287.118211536975
 21
-13.42674478925909
 31
0.0
  0
LINE
  5
1EA0
330
172B
100
AcDbEntity
  8
0
 62
     7
100
AcDbLine
 10
-287.118211536975
 20
-13.42674478925909
 30
0.0
 11
-287.118211536975
 21
-18.82674478925912
 31
0.0
  0
LINE
  5
1EA1
330
172B
100
AcDbEntity
  8
CENTER
  6
CENTER
100
AcDbLine
 10
-313.1599321718958
 20
-16.12674478925907
 30
0.0
 11
-285.7024686798323
 21
-16.12674478925907
 31
0.0
  0
LINE
  5
1EA2
330
172B
100
AcDbEntity
  8
0
 62
     7
100
AcDbLine
 10
-287.118211536975
 20
-18.82674478925912
 30
0.0
 11
-287.6182115369749
 21
-19.32674478925912
 31
0.0
  0
LINE
  5
1EA3
330
172B
100
AcDbEntity
  8
0
 62
     7
100
AcDbLine
 10
-289.6182115369749
 20
-19.32674478925912
 30
0.0
 11
-287.6182115369749
 21
-19.32674478925912
 31
0.0
  0
LINE
  5
1EA4
330
172B
100
AcDbEntity
  8
0
 62
     7
100
AcDbLine
 10
-309.6182115369752
 20
-23.12674478925913
 30
0.0
 11
-289.6182115369749
 21
-23.12674478925913
 31
0.0
  0
LINE
  5
1EA5
330
172B
100
AcDbEntity
  8
0
 62
     7
100
AcDbLine
 10
-296.6182115369751
 20
-23.12674478925913
 30
0.0
 11
-296.6182115369751
 21
-26.12674478925913
 31
0.0
  0
ARC
  5
1EA6
330
172B
100
AcDbEntity
  8
0
 62
     7
100
AcDbCircle
 10
-296.6182115369751
 20
-27.12674478925908
 30
0.0
 40
1.000000000000001
100
AcDbArc
 50
0.0
 51
90.0
  0
LINE
  5
1EA7
330
172B
100
AcDbEntity
  8
0
 62
     7
100
AcDbLine
 10
-302.6182115369751
 20
-29.12674478925907
 30
0.0
 11
-296.6182115369751
 21
-29.12674478925907
 31
0.0
  0
LINE
  5
1EA8
330
172B
100
AcDbEntity
  8
0
 62
     7
100
AcDbLine
 10
-296.6182115369751
 20
-28.85879558290992
 30
0.0
 11
-296.6182115369751
 21
-29.12674478925907
 31
0.0
  0
LINE
  5
1EA9
330
172B
100
AcDbEntity
  8
0
 62
     7
100
AcDbLine
 10
-296.6182115369751
 20
-28.85879558290992
 30
0.0
 11
-295.618211536975
 21
-27.12674478925908
 31
0.0
  0
LINE
  5
1EAA
330
172B
100
AcDbEntity
  8
0
100
AcDbLine
 10
-289.4515448703084
 20
-8.126744789259078
 30
0.0
 11
-289.6182115369749
 21
-9.126744789259078
 31
0.0
  0
LINE
  5
1EAB
330
172B
100
AcDbEntity
  8
0
 62
     7
100
AcDbLine
 10
-311.1182115369751
 20
-13.92674478925909
 30
0.0
 11
-309.6182115369752
 21
-13.92674478925909
 31
0.0
  0
LINE
  5
1EAC
330
172B
100
AcDbEntity
  8
0
 62
     7
100
AcDbLine
 10
-311.6182115369752
 20
-14.42674478925908
 30
0.0
 11
-311.6182115369752
 21
-17.82674478925912
 31
0.0
  0
LINE
  5
1EAD
330
172B
100
AcDbEntity
  8
0
 62
     7
100
AcDbLine
 10
-311.1182115369751
 20
-18.32674478925912
 30
0.0
 11
-309.6182115369752
 21
-18.32674478925912
 31
0.0
  0
LINE
  5
1EAE
330
172B
100
AcDbEntity
  8
0
 62
     7
100
AcDbLine
 10
-309.6182115369752
 20
-9.126744789259078
 30
0.0
 11
-309.6182115369752
 21
-23.12674478925913
 31
0.0
  0
LINE
  5
1EAF
330
172B
100
AcDbEntity
  8
0
100
AcDbLine
 10
-309.7848782036419
 20
-8.126744789259078
 30
0.0
 11
-309.6182115369752
 21
-9.126744789259078
 31
0.0
  0
LINE
  5
1EB0
330
172B
100
AcDbEntity
  8
0
 62
     7
100
AcDbLine
 10
-302.6182115369751
 20
-23.12674478925913
 30
0.0
 11
-302.6182115369751
 21
-26.12674478925913
 31
0.0
  0
LINE
  5
1EB1
330
172B
100
AcDbEntity
  8
0
 62
     7
100
AcDbLine
 10
-302.6182115369751
 20
-28.85879558290992
 30
0.0
 11
-302.6182115369751
 21
-29.12674478925907
 31
0.0
  0
LINE
  5
1EB2
330
172B
100
AcDbEntity
  8
0
 62
     7
100
AcDbLine
 10
-303.6182115369752
 20
-27.12674478925908
 30
0.0
 11
-302.6182115369751
 21
-28.85879558290992
 31
0.0
  0
ARC
  5
1EB3
330
172B
100
AcDbEntity
  8
0
 62
     7
100
AcDbCircle
 10
-302.6182115369751
 20
-27.12674478925908
 30
0.0
 40
1.000000000000001
100
AcDbArc
 50
90.0
 51
180.0
  0
LINE
  5
1EB4
330
172B
100
AcDbEntity
  8
0
100
AcDbLine
 10
-302.6182115369751
 20
-26.12674478925913
 30
0.0
 11
-296.6182115369751
 21
-26.12674478925913
 31
0.0
  0
LINE
  5
1EB5
330
172B
100
AcDbEntity
  8
0
100
AcDbLine
 10
-302.6182115369751
 20
-28.85879558290992
 30
0.0
 11
-296.6182115369751
 21
-28.85879558290992
 31
0.0
  0
LINE
  5
1EB6
330
172B
100
AcDbEntity
  8
0
100
AcDbLine
 10
-309.6182115369752
 20
-9.126744789259078
 30
0.0
 11
-289.6182115369749
 21
-9.126744789259078
 31
0.0
  0
LINE
  5
1EB7
330
172B
100
AcDbEntity
  8
0
100
AcDbLine
 10
-287.6182115369749
 20
-12.92674478925914
 30
0.0
 11
-287.6182115369749
 21
-19.32674478925912
 31
0.0
  0
LINE
  5
1EB8
330
172B
100
AcDbEntity
  8
0
 62
     7
100
AcDbLine
 10
-311.1182115369751
 20
-13.92674478925909
 30
0.0
 11
-311.6182115369752
 21
-14.42674478925908
 31
0.0
  0
LINE
  5
1EB9
330
172B
100
AcDbEntity
  8
0
 62
     7
100
AcDbLine
 10
-311.6182115369752
 20
-17.82674478925912
 30
0.0
 11
-311.1182115369751
 21
-18.32674478925912
 31
0.0
  0
LINE
  5
1EBA
330
172B
100
AcDbEntity
  8
0
100
AcDbLine
 10
-311.1182115369751
 20
-13.92674478925909
 30
0.0
 11
-311.1182115369751
 21
-18.32674478925912
 31
0.0
  0
DIMENSION
  5
1EC0
330
172B
100
AcDbEntity
  8
DIM
  6
BYBLOCK
100
AcDbDimension
  2
*D0
 10
-284.618211823829
 20
313.2259320279417
 30
0.0
 11
-299.618211536975
 21
315.7259320279417
 31
0.0
 70
    32
  3
STANDARD
100
AcDbAlignedDimension
 13
-314.6182112501211
 23
299.4630403414944
 33
0.0
 14
-284.618211823829
 24
299.4630403414944
 34
0.0
100
AcDbRotatedDimension
  0
DIMENSION
  5
1ECD
330
172B
100
AcDbEntity
  8
DIM
  6
BYBLOCK
100
AcDbDimension
  2
*D1
 10
-319.6182115369751
 20
322.9325352025449
 30
0.0
 11
-299.6182115369752
 21
325.4325352025449
 31
0.0
 70
    32
  3
STANDARD
100
AcDbAlignedDimension
 13
-279.6182115369751
 23
307.9496717104814
 33
0.0
 14
-319.6182115369751
 24
307.9496717104814
 34
0.0
100
AcDbRotatedDimension
  0
DIMENSION
  5
1EDA
330
172B
100
AcDbEntity
  8
DIM
100
AcDbDimension
  2
*D2
 10
-328.6182115369751
 20
332.6250780596877
 30
0.0
 11
-299.618211536975
 21
335.1250780596878
 31
0.0
 70
    32
  3
STANDARD
100
AcDbAlignedDimension
 13
-270.618211536975
 23
305.0937225041321
 33
0.0
 14
-328.6182115369751
 24
305.0937225041321
 34
0.0
100
AcDbRotatedDimension
  0
DIMENSION
  5
1EE7
330
172B
100
AcDbEntity
  8
DIM
  6
BYBLOCK
100
AcDbDimension
  2
*D3
 10
-299.618211536975
 20
219.5454145676241
 30
0.0
 11
-317.3682115369752
 21
222.045414567624
 31
0.0
 70
    32
  3
STANDARD
100
AcDbAlignedDimension
 13
-335.1182115369754
 23
251.093722504132
 33
0.0
 14
-299.618211536975
 24
226.0426399644495
 34
0.0
100
AcDbRotatedDimension
  0
DIMENSION
  5
1EF4
330
172B
100
AcDbEntity
  8
DIM
  6
BYBLOCK
100
AcDbDimension
  2
*D4
 10
-259.118211536975
 20
219.5454145676241
 30
0.0
 11
-279.3682115369751
 21
222.045414567624
 31
0.0
 70
    32
  3
STANDARD
100
AcDbAlignedDimension
 13
-299.618211536975
 23
226.0426399644495
 33
0.0
 14
-259.118211536975
 24
251.093722504132
 34
0.0
100
AcDbRotatedDimension
  0
DIMENSION
  5
1F01
330
172B
100
AcDbEntity
  8
DIM
  6
BYBLOCK
100
AcDbDimension
  2
*D5
 10
-245.2011670925307
 20
280.0937225041321
 30
0.0
 11
-247.7011670925307
 21
265.0937225041321
 31
0.0
 70
    32
  3
STANDARD
100
AcDbAlignedDimension
 13
-260.118211536975
 23
250.093722504132
 33
0.0
 14
-260.118211536975
 24
280.0937225041321
 34
0.0
 50
90.0
100
AcDbRotatedDimension
  0
DIMENSION
  5
1F0E
330
172B
100
AcDbEntity
  8
DIM
  6
BYBLOCK
100
AcDbDimension
  2
*D6
 10
-233.7025416957052
 20
293.5937225041321
 30
0.0
 11
-236.2025416957052
 21
265.0937225041321
 31
0.0
 70
    32
  3
STANDARD
100
AcDbAlignedDimension
 13
-288.7882115369752
 23
236.593722504132
 33
0.0
 14
-288.7882115369752
 24
293.5937225041321
 34
0.0
 50
90.0
100
AcDbRotatedDimension
  0
DIMENSION
  5
1F1B
330
172B
100
AcDbEntity
  8
DIM
  6
BYBLOCK
100
AcDbDimension
  2
*D7
 10
-335.1182115369754
 20
207.8335923454018
 30
0.0
 11
-297.1182115369752
 21
210.3335923454018
 31
0.0
 70
    32
  3
STANDARD
100
AcDbAlignedDimension
 13
-259.118211536975
 23
251.093722504132
 33
0.0
 14
-335.1182115369754
 24
251.093722504132
 34
0.0
100
AcDbRotatedDimension
  0
DIMENSION
  5
1F28
330
172B
100
AcDbEntity
  8
DIM
  6
BYBLOCK
100
AcDbDimension
  2
*D8
 10
-171.0741956639589
 20
185.9358038792334
 30
0.0
 11
-151.0741956639589
 21
188.4358038792334
 31
0.0
 70
    32
  3
STANDARD
100
AcDbAlignedDimension
 13
-131.0741956639589
 23
141.8732552107412
 33
0.0
 14
-171.0741956639589
 24
173.8732552107412
 34
0.0
100
AcDbRotatedDimension
  0
DIMENSION
  5
1F86
330
172B
100
AcDbEntity
  8
DIM
  6
BYBLOCK
100
AcDbDimension
  2
*D9
 10
-230.2336559814194
 20
185.3325351771782
 30
0.0
 11
-200.6539258226891
 21
187.8325351771782
 31
0.0
 70
    32
  3
STANDARD
100
AcDbAlignedDimension
 13
-171.0741956639589
 23
173.8732552107412
 33
0.0
 14
-230.2336559814194
 24
124.3732552107411
 34
0.0
100
AcDbRotatedDimension
  0
DIMENSION
  5
1F93
330
172B
100
AcDbEntity
  8
DIM
  6
BYBLOCK
100
AcDbDimension
  2
*D10
 10
-119.456033759197
 20
133.8732552107412
 30
0.0
 11
-121.956033759197
 21
137.8732552107411
 31
0.0
 70
    32
  3
STANDARD
100
AcDbAlignedDimension
 13
-131.0741956639589
 23
141.8732552107412
 33
0.0
 14
-129.3945416957047
 24
133.8732552107412
 34
0.0
 50
90.0
100
AcDbRotatedDimension
  0
DIMENSION
  5
1FA1
330
172B
100
AcDbEntity
  8
DIM
  6
BYBLOCK
100
AcDbDimension
  2
*D11
 10
-119.456033759197
 20
102.873255210741
 30
0.0
 11
-121.956033759197
 21
118.3732552107411
 31
0.0
 70
    32
  3
STANDARD
100
AcDbAlignedDimension
 13
-129.3945416957047
 23
133.8732552107412
 33
0.0
 14
-139.1160242353874
 24
102.873255210741
 34
0.0
 50
90.0
100
AcDbRotatedDimension
  0
DIMENSION
  5
1FAE
330
172B
100
AcDbEntity
  8
DIM
  6
BYBLOCK
100
AcDbDimension
  2
*D12
 10
-119.456033759197
 20
96.87325521074109
 30
0.0
 11
-121.956033759197
 21
99.87325521074108
 31
0.0
 70
    32
  3
STANDARD
100
AcDbAlignedDimension
 13
-139.1160242353874
 23
102.873255210741
 33
0.0
 14
-132.5741956639588
 24
96.87325521074109
 34
0.0
 50
90.0
100
AcDbRotatedDimension
  0
DIMENSION
  5
1FBC
330
172B
100
AcDbEntity
  8
DIM
  6
BYBLOCK
100
AcDbDimension
  2
*D13
 10
-105.9307861401493
 20
102.873255210741
 30
0.0
 11
-108.4307861401493
 21
137.6232552107411
 31
0.0
 70
    32
  3
STANDARD
100
AcDbAlignedDimension
 13
-154.6195924893556
 23
172.3732552107412
 33
0.0
 14
-139.1160242353874
 24
102.873255210741
 34
0.0
 50
90.0
100
AcDbRotatedDimension
  0
DIMENSION
  5
1FC9
330
172B
100
AcDbEntity
  8
DIM
  6
BYBLOCK
100
AcDbDimension
  2
*D14
 10
-105.9307861401493
 20
-29.12674478925912
 30
0.0
 11
-108.4307861401493
 21
36.87325521074096
 31
0.0
 70
    32
  3
STANDARD
100
AcDbAlignedDimension
 13
-139.1160242353874
 23
102.873255210741
 33
0.0
 14
-168.0741956639589
 24
-29.12674478925911
 34
0.0
 50
90.0
100
AcDbRotatedDimension
  0
DIMENSION
  5
1FD6
330
172B
100
AcDbEntity
  8
DIM
  6
BYBLOCK
100
AcDbDimension
  2
*D15
 10
-95.01814213432956
 20
-29.12674478925913
 30
0.0
 11
-97.51814213432956
 21
71.62325521074103
 31
0.0
 70
    32
  3
STANDARD
100
AcDbAlignedDimension
 13
-155.7193956639589
 23
172.3732552107412
 33
0.0
 14
-168.0741956639589
 24
-29.12674478925911
 34
0.0
 50
90.0
100
AcDbRotatedDimension
  0
DIMENSION
  5
1FE3
330
172B
100
AcDbEntity
  8
DIM
  6
BYBLOCK
100
AcDbDimension
  2
*D16
 10
-222.5523607433242
 20
235.093722504132
 30
0.0
 11
-225.0523607433242
 21
265.0937225041321
 31
0.0
 70
    32
  3
STANDARD
100
AcDbAlignedDimension
 13
-279.6182115369751
 23
295.0937225041321
 33
0.0
 14
-279.6182115369751
 24
235.093722504132
 34
0.0
 50
90.0
100
AcDbRotatedDimension
  0
DIMENSION
  5
1FF0
330
172B
100
AcDbEntity
  8
DIM
  6
BYBLOCK
100
AcDbDimension
  2
*D17
 10
-215.2841857553476
 20
300.0937225041321
 30
0.0
 11
-217.7841857553476
 21
265.0937225041321
 31
0.0
 70
    32
  3
STANDARD
100
AcDbAlignedDimension
 13
-284.6182115369752
 23
230.093722504132
 33
0.0
 14
-284.6182115369752
 24
300.0937225041321
 34
0.0
 50
90.0
100
AcDbRotatedDimension
  0
DIMENSION
  5
1FFD
330
172B
100
AcDbEntity
  8
DIM
  6
BYBLOCK
100
AcDbDimension
  2
*D18
 10
-241.7409894890415
 20
124.3732552107411
 30
0.0
 11
-244.2409894890416
 21
102.873255210741
 31
0.0
 70
    32
  1
%%c<>
  3
STANDARD
100
AcDbAlignedDimension
 13
-230.2336559814194
 23
81.37325521074107
 33
0.0
 14
-230.2336559814194
 24
124.3732552107411
 34
0.0
 50
90.0
100
AcDbRotatedDimension
  0
DIMENSION
  5
2013
330
172B
100
AcDbEntity
  8
DIM
  6
BYBLOCK
100
AcDbDimension
  2
*D19
 10
-174.0741956639588
 20
-41.37678196395677
 30
0.0
 11
-171.0741956639589
 21
-49.37678196395677
 31
0.0
 70
    32
  1
排水口%%c<>
  3
STANDARD
100
AcDbAlignedDimension
 13
-168.0741956639589
 23
-26.12674478925913
 33
0.0
 14
-174.0741956639588
 24
-26.12674478925913
 34
0.0
100
AcDbRotatedDimension
  0
ENDSEC
  0
SECTION
  2
OBJECTS
  0
DICTIONARY
  5
1719
330
0
100
AcDbDictionary
  3
ACAD_GROUP
350
171A
  3
ACAD_LAYOUT
350
1726
  3
ACAD_MLINESTYLE
350
1723
  3
ACAD_PLOTSETTINGS
350
1725
1001
ACAD
1000
TREAT_AS_HARD
1070
     0
  0
DICTIONARY
  5
1814
330
172B
100
AcDbDictionary
  3
ACAD_LAYOUTSELFREF
350
21C6
1001
ACAD
1000
TREAT_AS_HARD
1070
     1
  0
DICTIONARY
  5
1816
330
1727
100
AcDbDictionary
  3
ACAD_LAYOUTSELFREF
350
21C5
1001
ACAD
1000
TREAT_AS_HARD
1070
     1
  0
DICTIONARY
  5
171A
102
{ACAD_REACTORS
330
1719
102
}
330
1719
100
AcDbDictionary
1001
ACAD
1000
TREAT_AS_HARD
1070
     0
  0
DICTIONARY
  5
1726
102
{ACAD_REACTORS
330
1719
102
}
330
1719
100
AcDbDictionary
1001
ACAD
1000
TREAT_AS_HARD
1070
     0
  0
DICTIONARY
  5
1723
102
{ACAD_REACTORS
330
1719
102
}
330
1719
100
AcDbDictionary
  3
STANDARD
350
1724
1001
ACAD
1000
TREAT_AS_HARD
1070
     0
  0
DICTIONARY
  5
1725
102
{ACAD_REACTORS
330
1719
102
}
330
1719
100
AcDbDictionary
1001
ACAD
1000
TREAT_AS_HARD
1070
     0
  0
XRECORD
  5
21C6
102
{ACAD_REACTORS
330
1814
102
}
330
1814
100
AcDbXrecord
340
172B
  0
XRECORD
  5
21C5
102
{ACAD_REACTORS
330
1816
102
}
330
1816
100
AcDbXrecord
340
1727
  0
MLINESTYLE
  5
1724
102
{ACAD_REACTORS
330
1723
102
}
330
1723
100
AcDbMlineStyle
  2
STANDARD
 70
     0
  3

 62
   256
 51
90.0
 52
90.0
 71
     2
 49
0.5
 62
   256
  6
BYLAYER
 49
-0.5
 62
   256
  6
BYLAYER
  0
ENDSEC
  0
EOF
