  0
SECTION
  2
HEADER
  9
$ACADVER
  1
AC1009
  9
$INSBASE
 10
0.0
 20
0.0
 30
0.0
  9
$EXTMIN
 10
-393.4244783850985
 20
-146.82320389033529
 30
-0.0000000000112498
  9
$EXTMAX
 10
94.446505280104248
 20
467.05547619000748
 30
0.0000000000002956
  9
$LIMMIN
 10
0.0
 20
0.0
  9
$LIMMAX
 10
420.0
 20
297.0
  9
$ORTHOMODE
 70
     1
  9
$REGENMODE
 70
     1
  9
$FILLMODE
 70
     1
  9
$QTEXTMODE
 70
     0
  9
$MIRRTEXT
 70
     1
  9
$DRAGMODE
 70
     2
  9
$LTSCALE
 40
0.5
  9
$OSMODE
 70
    39
  9
$ATTMODE
 70
     1
  9
$TEXTSIZE
 40
25.0
  9
$TRACEWID
 40
1.0
  9
$TEXTSTYLE
  7
CHINESET
  9
$CLAYER
  8
0
  9
$CELTYPE
  6
BYBLOCK
  9
$CECOLOR
 62
   256
  9
$DIMSCALE
 40
1.0
  9
$DIMASZ
 40
3.0
  9
$DIMEXO
 40
2.0
  9
$DIMDLI
 40
8.0
  9
$DIMRND
 40
0.0
  9
$DIMDLE
 40
0.0
  9
$DIMEXE
 40
2.0
  9
$DIMTP
 40
0.0
  9
$DIMTM
 40
0.0
  9
$DIMTXT
 40
3.0
  9
$DIMCEN
 40
-2.5
  9
$DIMTSZ
 40
0.0
  9
$DIMTOL
 70
     0
  9
$DIMLIM
 70
     0
  9
$DIMTIH
 70
     0
  9
$DIMTOH
 70
     0
  9
$DIMSE1
 70
     0
  9
$DIMSE2
 70
     0
  9
$DIMTAD
 70
     1
  9
$DIMZIN
 70
     8
  9
$DIMBLK
  1

  9
$DIMASO
 70
     1
  9
$DIMSHO
 70
     1
  9
$DIMPOST
  1

  9
$DIMAPOST
  1

  9
$DIMALT
 70
     0
  9
$DIMALTD
 70
     4
  9
$DIMALTF
 40
0.0394
  9
$DIMLFAC
 40
1.0
  9
$DIMTOFL
 70
     0
  9
$DIMTVP
 40
0.0
  9
$DIMTIX
 70
     0
  9
$DIMSOXD
 70
     0
  9
$DIMSAH
 70
     0
  9
$DIMBLK1
  1

  9
$DIMBLK2
  1

  9
$DIMSTYLE
  2
STANDARD
  9
$DIMCLRD
 70
   256
  9
$DIMCLRE
 70
   256
  9
$DIMCLRT
 70
   256
  9
$DIMTFAC
 40
1.0
  9
$DIMGAP
 40
1.0
  9
$LUNITS
 70
     2
  9
$LUPREC
 70
     4
  9
$SKETCHINC
 40
1.0
  9
$FILLETRAD
 40
1.0
  9
$AUNITS
 70
     0
  9
$AUPREC
 70
     0
  9
$MENU
  1
.
  9
$ELEVATION
 40
0.0
  9
$PELEVATION
 40
0.0
  9
$THICKNESS
 40
0.0
  9
$LIMCHECK
 70
     0
  9
$BLIPMODE
 70
     0
  9
$CHAMFERA
 40
0.5
  9
$CHAMFERB
 40
0.5
  9
$SKPOLY
 70
     0
  9
$TDCREATE
 40
2451564.5894492362
  9
$TDUPDATE
 40
2451948.5494291089
  9
$TDINDWG
 40
0.0031671759
  9
$TDUSRTIMER
 40
0.0031671759
  9
$USRTIMER
 70
     1
  9
$ANGBASE
 50
0.0
  9
$ANGDIR
 70
     0
  9
$PDMODE
 70
     0
  9
$PDSIZE
 40
0.0
  9
$PLINEWID
 40
0.0
  9
$COORDS
 70
     2
  9
$SPLFRAME
 70
     0
  9
$SPLINETYPE
 70
     6
  9
$SPLINESEGS
 70
     8
  9
$ATTDIA
 70
     0
  9
$ATTREQ
 70
     1
  9
$HANDLING
 70
 12289
  9
$HANDSEED
  5
1813
  9
$SURFTAB1
 70
     6
  9
$SURFTAB2
 70
     6
  9
$SURFTYPE
 70
     6
  9
$SURFU
 70
     6
  9
$SURFV
 70
     6
  9
$UCSNAME
  2

  9
$UCSORG
 10
0.0
 20
0.0
 30
0.0
  9
$UCSXDIR
 10
1.0
 20
0.0
 30
0.0
  9
$UCSYDIR
 10
0.0
 20
1.0
 30
0.0
  9
$PUCSNAME
  2

  9
$PUCSORG
 10
0.0
 20
0.0
 30
0.0
  9
$PUCSXDIR
 10
1.0
 20
0.0
 30
0.0
  9
$PUCSYDIR
 10
0.0
 20
1.0
 30
0.0
  9
$USERI1
 70
     0
  9
$USERI2
 70
     0
  9
$USERI3
 70
     0
  9
$USERI4
 70
     0
  9
$USERI5
 70
     0
  9
$USERR1
 40
0.0
  9
$USERR2
 40
0.0
  9
$USERR3
 40
0.0
  9
$USERR4
 40
0.0
  9
$USERR5
 40
0.0
  9
$WORLDVIEW
 70
     1
  9
$SHADEDGE
 70
     3
  9
$SHADEDIF
 70
    70
  9
$TILEMODE
 70
     1
  9
$MAXACTVP
 70
    48
  9
$PLIMCHECK
 70
     0
  9
$PEXTMIN
 10
1.0000000000000000E+020
 20
1.0000000000000000E+020
 30
1.0000000000000000E+020
  9
$PEXTMAX
 10
-1.0000000000000000E+020
 20
-1.0000000000000000E+020
 30
-1.0000000000000000E+020
  9
$PLIMMIN
 10
0.0
 20
0.0
  9
$PLIMMAX
 10
420.0
 20
297.0
  9
$UNITMODE
 70
     0
  9
$VISRETAIN
 70
     1
  9
$PLINEGEN
 70
     0
  9
$PSLTSCALE
 70
     1
  0
ENDSEC
  0
SECTION
  2
TABLES
  0
TABLE
  2
VPORT
 70
     2
  0
VPORT
  2
*ACTIVE
 70
     0
 10
0.0
 20
0.0
 11
1.0
 21
1.0
 12
-149.4889865524971
 22
160.11613614983611
 13
0.0
 23
0.0
 14
10.0
 24
10.0
 15
10.0
 25
10.0
 16
0.0
 26
0.0
 36
1.0
 17
0.0
 27
0.0
 37
0.0
 40
620.6494008165231
 41
1.7274401473296499
 42
50.0
 43
0.0
 44
0.0
 50
0.0
 51
0.0
 71
     0
 72
   100
 73
     1
 74
     1
 75
     0
 76
     0
 77
     0
 78
     0
  0
ENDTAB
  0
TABLE
  2
LTYPE
 70
     6
  0
LTYPE
  2
CONTINUOUS
 70
     0
  3
Solid line
 72
    65
 73
     0
 40
0.0
  0
LTYPE
  2
CENTER
 70
     0
  3
Center ____ _ ____ _ ____ _ ____ _ ____ _ ____
 72
    65
 73
     4
 40
50.799999999999997
 49
31.75
 49
-6.3499999999999988
 49
6.3499999999999988
 49
-6.3499999999999988
  0
LTYPE
  2
HIDDEN
 70
     0
  3
_ _ _ _ _ _ _ _ _ _ _ _ _ _ _ _ _ _ _ _ _ _ _
 72
    65
 73
     2
 40
0.375
 49
0.25
 49
-0.125
  0
LTYPE
  2
PHANTOM
 70
     0
  3
_____ _ _ _____ _ _ _____ _ _ _____ _ _ ____
 72
    65
 73
     6
 40
2.5
 49
1.25
 49
-0.25
 49
0.25
 49
-0.25
 49
0.25
 49
-0.25
  0
ENDTAB
  0
TABLE
  2
LAYER
 70
     6
  0
LAYER
  2
0
 70
     0
 62
     7
  6
CONTINUOUS
  0
LAYER
  2
DIM
 70
     0
 62
     5
  6
CONTINUOUS
  0
LAYER
  2
DEFPOINTS
 70
     0
 62
     7
  6
CONTINUOUS
  0
LAYER
  2
CENTER
 70
     0
 62
     1
  6
CENTER
  0
LAYER
  2
LOGO
 70
     0
 62
     7
  6
CONTINUOUS
  0
LAYER
  2
HIDDEN
 70
     0
 62
     6
  6
HIDDEN
  0
ENDTAB
  0
TABLE
  2
STYLE
 70
     6
  0
STYLE
  2
STANDARD
 70
     0
 40
0.0
 41
1.0
 50
0.0
 71
     0
 42
25.0
  3
txt
  4

  0
STYLE
  2
ROMANS
 70
     0
 40
0.0
 41
1.0
 50
0.0
 71
     0
 42
4.0
  3
romans
  4

  0
STYLE
  2
CHINESET
 70
     0
 40
0.0
 41
1.0
 50
0.0
 71
     0
 42
25.0
  3
simplex.shx
  4
chineset.shx
  0
STYLE
  2
LOGO
 70
     0
 40
0.0
 41
1.0
 50
0.0
 71
     0
 42
5.0
  3
txt
  4

  0
ENDTAB
  0
TABLE
  2
VIEW
 70
     0
  0
ENDTAB
  0
TABLE
  2
UCS
 70
     0
  0
ENDTAB
  0
TABLE
  2
APPID
 70
     1
  0
APPID
  2
ACAD
 70
     0
  0
ENDTAB
  0
TABLE
  2
DIMSTYLE
 70
     1
  0
DIMSTYLE
  2
STANDARD
 70
     0
  3

  4

  5

  6

  7

 40
1.0
 41
3.0
 42
2.0
 43
8.0
 44
2.0
 45
0.0
 46
0.0
 47
0.0
 48
0.0
140
3.0
141
-2.5
142
0.0
143
0.0394
144
1.0
145
0.0
146
1.0
147
1.0
 71
     0
 72
     0
 73
     0
 74
     0
 75
     0
 76
     0
 77
     1
 78
     8
170
     0
171
     4
172
     0
173
     0
174
     0
175
     0
176
   256
177
   256
178
   256
  0
ENDTAB
  0
ENDSEC
  0
SECTION
  2
BLOCKS
  0
BLOCK
  8
0
  2
$MODEL_SPACE
 70
     0
 10
0.0
 20
0.0
 30
0.0
  3
$MODEL_SPACE
  1

  0
ENDBLK
  5
1787
  8
0
  0
BLOCK
 67
     1
  8
0
  2
$PAPER_SPACE
 70
     0
 10
0.0
 20
0.0
 30
0.0
  3
$PAPER_SPACE
  1

  0
ENDBLK
  5
1785
 67
     1
  8
0
  0
BLOCK
  8
0
  2
*D14
 70
     1
 10
0.0
 20
0.0
 30
0.0
  3
*D14
  1

  0
LINE
  5
12CA
  8
0
  6
BYBLOCK
 10
-230.6293483796764
 20
395.06525852263383
 30
0.0
 11
-175.27245352722409
 21
395.06525852263383
 31
0.0
  0
LINE
  5
12CB
  8
0
  6
BYBLOCK
 10
-230.6293483796764
 20
315.06525852263383
 30
0.0
 11
-175.27245352722409
 21
315.06525852263383
 31
0.0
  0
LINE
  5
12CC
  8
0
  6
BYBLOCK
 10
-177.27245352722409
 20
392.06525852263383
 30
0.0
 11
-177.27245352722409
 21
318.06525852263383
 31
0.0
  0
SOLID
  5
12CD
  8
0
  6
BYBLOCK
 10
-177.77245352722409
 20
392.06525852263383
 30
0.0
 11
-176.77245352722409
 21
392.06525852263383
 31
0.0
 12
-177.27245352722409
 22
395.06525852263383
 32
0.0
 13
-177.27245352722409
 23
395.06525852263383
 33
0.0
  0
SOLID
  5
12CE
  8
0
  6
BYBLOCK
 10
-177.77245352722409
 20
318.06525852263383
 30
0.0
 11
-176.77245352722409
 21
318.06525852263383
 31
0.0
 12
-177.27245352722409
 22
315.06525852263383
 32
0.0
 13
-177.27245352722409
 23
315.06525852263383
 33
0.0
  0
TEXT
  5
12CF
  8
0
  6
BYBLOCK
 10
-178.27245352722409
 20
351.27954423691949
 30
0.0
 40
3.0
  1
%%c80
 50
90.0
  7
CHINESET
  0
POINT
  5
12D0
  8
DEFPOINTS
  6
BYBLOCK
 62
     0
 10
-232.6293483796764
 20
395.06525852263383
 30
0.0
  0
POINT
  5
12D1
  8
DEFPOINTS
  6
BYBLOCK
 62
     0
 10
-232.6293483796764
 20
315.06525852263383
 30
0.0
  0
POINT
  5
12D2
  8
DEFPOINTS
  6
BYBLOCK
 62
     0
 10
-177.27245352722409
 20
315.06525852263383
 30
0.0
  0
ENDBLK
  5
12D3
  8
0
  0
BLOCK
  8
0
  2
*D15
 70
     1
 10
0.0
 20
0.0
 30
0.0
  3
*D15
  1

  0
LINE
  5
12D6
  8
0
  6
BYBLOCK
 10
-363.1293483796764
 20
357.06525852263383
 30
0.0
 11
-363.1293483796764
 21
451.80333393730319
 31
0.0
  0
LINE
  5
12D7
  8
0
  6
BYBLOCK
 10
-195.1293483796764
 20
370.98466942970879
 30
0.0
 11
-195.1293483796764
 21
451.80333393730319
 31
0.0
  0
LINE
  5
12D8
  8
0
  6
BYBLOCK
 10
-360.1293483796764
 20
449.80333393730319
 30
0.0
 11
-198.1293483796764
 21
449.80333393730319
 31
0.0
  0
SOLID
  5
12D9
  8
0
  6
BYBLOCK
 10
-360.1293483796764
 20
450.30333393730319
 30
0.0
 11
-360.1293483796764
 21
449.30333393730319
 31
0.0
 12
-363.1293483796764
 22
449.80333393730319
 32
0.0
 13
-363.1293483796764
 23
449.80333393730319
 33
0.0
  0
SOLID
  5
12DA
  8
0
  6
BYBLOCK
 10
-198.1293483796764
 20
450.30333393730319
 30
0.0
 11
-198.1293483796764
 21
449.30333393730319
 31
0.0
 12
-195.1293483796764
 22
449.80333393730319
 32
0.0
 13
-195.1293483796764
 23
449.80333393730319
 33
0.0
  0
TEXT
  5
12DB
  8
0
  6
BYBLOCK
 10
-282.70077695110501
 20
450.80333393730319
 30
0.0
 40
3.0
  1
168
  7
CHINESET
  0
POINT
  5
12DC
  8
DEFPOINTS
  6
BYBLOCK
 62
     0
 10
-363.1293483796764
 20
355.06525852263383
 30
0.0
  0
POINT
  5
12DD
  8
DEFPOINTS
  6
BYBLOCK
 62
     0
 10
-195.1293483796764
 20
368.98466942970879
 30
0.0
  0
POINT
  5
12DE
  8
DEFPOINTS
  6
BYBLOCK
 62
     0
 10
-195.1293483796764
 20
449.80333393730319
 30
0.0
  0
ENDBLK
  5
12DF
  8
0
  0
BLOCK
  8
0
  2
*D16
 70
     1
 10
0.0
 20
0.0
 30
0.0
  3
*D16
  1

  0
LINE
  5
12E2
  8
0
  6
BYBLOCK
 10
-322.1293483796764
 20
398.06525852263383
 30
0.0
 11
-378.62058906476699
 21
398.06525852263383
 31
0.0
  0
LINE
  5
12E3
  8
0
  6
BYBLOCK
 10
-322.1293483796764
 20
312.06525852263383
 30
0.0
 11
-378.62058906476699
 21
312.06525852263383
 31
0.0
  0
LINE
  5
12E4
  8
0
  6
BYBLOCK
 10
-376.62058906476699
 20
395.06525852263383
 30
0.0
 11
-376.62058906476699
 21
315.06525852263383
 31
0.0
  0
SOLID
  5
12E5
  8
0
  6
BYBLOCK
 10
-377.12058906476699
 20
395.06525852263383
 30
0.0
 11
-376.12058906476699
 21
395.06525852263383
 31
0.0
 12
-376.62058906476699
 22
398.06525852263383
 32
0.0
 13
-376.62058906476699
 23
398.06525852263383
 33
0.0
  0
SOLID
  5
12E6
  8
0
  6
BYBLOCK
 10
-377.12058906476699
 20
315.06525852263383
 30
0.0
 11
-376.12058906476699
 21
315.06525852263383
 31
0.0
 12
-376.62058906476699
 22
312.06525852263383
 32
0.0
 13
-376.62058906476699
 23
312.06525852263383
 33
0.0
  0
TEXT
  5
12E7
  8
0
  6
BYBLOCK
 10
-377.62058906476699
 20
351.3509728083481
 30
0.0
 40
3.0
  1
%%c86
 50
90.0
  7
CHINESET
  0
POINT
  5
12E8
  8
DEFPOINTS
  6
BYBLOCK
 62
     0
 10
-320.1293483796764
 20
398.06525852263383
 30
0.0
  0
POINT
  5
12E9
  8
DEFPOINTS
  6
BYBLOCK
 62
     0
 10
-320.1293483796764
 20
312.06525852263383
 30
0.0
  0
POINT
  5
12EA
  8
DEFPOINTS
  6
BYBLOCK
 62
     0
 10
-376.62058906476699
 20
312.06525852263383
 30
0.0
  0
ENDBLK
  5
12EB
  8
0
  0
BLOCK
  8
0
  2
*D17
 70
     1
 10
0.0
 20
0.0
 30
0.0
  3
*D17
  1

  0
LINE
  5
12EE
  8
0
  6
BYBLOCK
 10
-360.1293483796764
 20
193.79066660529551
 30
0.0
 11
-360.1293483796764
 21
280.73329831480299
 31
0.0
  0
LINE
  5
12EF
  8
0
  6
BYBLOCK
 10
-280.12934837967651
 20
193.79066660529551
 30
0.0
 11
-280.12934837967651
 21
280.73329831480299
 31
0.0
  0
LINE
  5
12F0
  8
0
  6
BYBLOCK
 10
-357.1293483796764
 20
278.73329831480299
 30
0.0
 11
-283.12934837967651
 21
278.73329831480299
 31
0.0
  0
SOLID
  5
12F1
  8
0
  6
BYBLOCK
 10
-357.1293483796764
 20
279.23329831480299
 30
0.0
 11
-357.1293483796764
 21
278.23329831480299
 31
0.0
 12
-360.1293483796764
 22
278.73329831480299
 32
0.0
 13
-360.1293483796764
 23
278.73329831480299
 33
0.0
  0
SOLID
  5
12F2
  8
0
  6
BYBLOCK
 10
-283.12934837967651
 20
279.23329831480299
 30
0.0
 11
-283.12934837967651
 21
278.23329831480299
 31
0.0
 12
-280.12934837967651
 22
278.73329831480299
 32
0.0
 13
-280.12934837967651
 23
278.73329831480299
 33
0.0
  0
TEXT
  5
12F3
  8
0
  6
BYBLOCK
 10
-322.5579198082479
 20
279.73329831480299
 30
0.0
 40
3.0
  1
80
  7
CHINESET
  0
POINT
  5
12F4
  8
DEFPOINTS
  6
BYBLOCK
 62
     0
 10
-360.1293483796764
 20
191.79066660529551
 30
0.0
  0
POINT
  5
12F5
  8
DEFPOINTS
  6
BYBLOCK
 62
     0
 10
-280.12934837967651
 20
191.79066660529551
 30
0.0
  0
POINT
  5
12F6
  8
DEFPOINTS
  6
BYBLOCK
 62
     0
 10
-280.12934837967651
 20
278.73329831480299
 30
0.0
  0
ENDBLK
  5
12F7
  8
0
  0
BLOCK
  8
0
  2
*D18
 70
     1
 10
0.0
 20
0.0
 30
0.0
  3
*D18
  1

  0
LINE
  5
12FA
  8
0
  6
BYBLOCK
 10
-320.12934837967651
 20
426.7629925062887
 30
0.0
 11
-320.12934837967651
 21
440.10883875474872
 31
0.0
  0
LINE
  5
12FB
  8
0
  6
BYBLOCK
 10
-232.6293483796764
 20
402.81169341547229
 30
0.0
 11
-232.6293483796764
 21
440.10883875474872
 31
0.0
  0
LINE
  5
12FC
  8
0
  6
BYBLOCK
 10
-317.12934837967651
 20
438.10883875474877
 30
0.0
 11
-235.6293483796764
 21
438.10883875474877
 31
0.0
  0
SOLID
  5
12FD
  8
0
  6
BYBLOCK
 10
-317.12934837967651
 20
438.60883875474877
 30
0.0
 11
-317.12934837967651
 21
437.60883875474877
 31
0.0
 12
-320.12934837967651
 22
438.10883875474877
 32
0.0
 13
-320.12934837967651
 23
438.10883875474877
 33
0.0
  0
SOLID
  5
12FE
  8
0
  6
BYBLOCK
 10
-235.6293483796764
 20
438.60883875474877
 30
0.0
 11
-235.6293483796764
 21
437.60883875474877
 31
0.0
 12
-232.6293483796764
 22
438.10883875474877
 32
0.0
 13
-232.6293483796764
 23
438.10883875474877
 33
0.0
  0
TEXT
  5
12FF
  8
0
  6
BYBLOCK
 10
-280.95077695110501
 20
439.10883875474877
 30
0.0
 40
3.0
  1
87.5
  7
CHINESET
  0
POINT
  5
1300
  8
DEFPOINTS
  6
BYBLOCK
 62
     0
 10
-320.12934837967651
 20
424.76299250628881
 30
0.0
  0
POINT
  5
1301
  8
DEFPOINTS
  6
BYBLOCK
 62
     0
 10
-232.6293483796764
 20
400.81169341547218
 30
0.0
  0
POINT
  5
1302
  8
DEFPOINTS
  6
BYBLOCK
 62
     0
 10
-232.6293483796764
 20
438.10883875474877
 30
0.0
  0
ENDBLK
  5
1303
  8
0
  0
BLOCK
  8
0
  2
*D19
 70
     1
 10
0.0
 20
0.0
 30
0.0
  3
*D19
  1

  0
LINE
  5
1653
  8
0
  6
BYBLOCK
 10
-320.12934837967651
 20
426.7629925062887
 30
0.0
 11
-320.12934837967651
 21
432.47832366966082
 31
0.0
  0
LINE
  5
1654
  8
0
  6
BYBLOCK
 10
-290.12794056216381
 20
424.86783437969268
 30
0.0
 11
-290.12794056216381
 21
432.47832366966082
 31
0.0
  0
LINE
  5
1655
  8
0
  6
BYBLOCK
 10
-317.12934837967651
 20
430.47832366966071
 30
0.0
 11
-293.12794056216387
 21
430.47832366966071
 31
0.0
  0
SOLID
  5
1656
  8
0
  6
BYBLOCK
 10
-317.12934837967651
 20
430.97832366966071
 30
0.0
 11
-317.12934837967651
 21
429.97832366966071
 31
0.0
 12
-320.12934837967651
 22
430.47832366966071
 32
0.0
 13
-320.12934837967651
 23
430.47832366966071
 33
0.0
  0
SOLID
  5
1657
  8
0
  6
BYBLOCK
 10
-293.12794056216387
 20
430.97832366966071
 30
0.0
 11
-293.12794056216387
 21
429.97832366966071
 31
0.0
 12
-290.12794056216381
 22
430.47832366966071
 32
0.0
 13
-290.12794056216381
 23
430.47832366966071
 33
0.0
  0
TEXT
  5
1658
  8
0
  6
BYBLOCK
 10
-307.55721589949161
 20
431.47832366966071
 30
0.0
 40
3.0
  1
30
  7
CHINESET
  0
POINT
  5
1659
  8
DEFPOINTS
  6
BYBLOCK
 62
     0
 10
-320.12934837967651
 20
424.76299250628881
 30
0.0
  0
POINT
  5
165A
  8
DEFPOINTS
  6
BYBLOCK
 62
     0
 10
-290.12794056216381
 20
422.86783437969279
 30
0.0
  0
POINT
  5
165B
  8
DEFPOINTS
  6
BYBLOCK
 62
     0
 10
-290.12794056216381
 20
430.47832366966071
 30
0.0
  0
ENDBLK
  5
165C
  8
0
  0
BLOCK
  8
0
  2
*D20
 70
     1
 10
0.0
 20
0.0
 30
0.0
  3
*D20
  1

  0
LINE
  5
165E
  8
0
  6
BYBLOCK
 10
-350.12794056216381
 20
425.03483567373581
 30
0.0
 11
-350.12794056216381
 21
432.47832366966082
 31
0.0
  0
LINE
  5
165F
  8
0
  6
BYBLOCK
 10
-320.12934837967651
 20
426.7629925062887
 30
0.0
 11
-320.12934837967651
 21
432.47832366966082
 31
0.0
  0
LINE
  5
1660
  8
0
  6
BYBLOCK
 10
-347.12794056216381
 20
430.47832366966071
 30
0.0
 11
-323.12934837967651
 21
430.47832366966071
 31
0.0
  0
SOLID
  5
1661
  8
0
  6
BYBLOCK
 10
-347.12794056216381
 20
430.97832366966071
 30
0.0
 11
-347.12794056216381
 21
429.97832366966071
 31
0.0
 12
-350.12794056216381
 22
430.47832366966071
 32
0.0
 13
-350.12794056216381
 23
430.47832366966071
 33
0.0
  0
SOLID
  5
1662
  8
0
  6
BYBLOCK
 10
-323.12934837967651
 20
430.97832366966071
 30
0.0
 11
-323.12934837967651
 21
429.97832366966071
 31
0.0
 12
-320.12934837967651
 22
430.47832366966071
 32
0.0
 13
-320.12934837967651
 23
430.47832366966071
 33
0.0
  0
TEXT
  5
1663
  8
0
  6
BYBLOCK
 10
-337.55721589949161
 20
431.47832366966071
 30
0.0
 40
3.0
  1
30
  7
CHINESET
  0
POINT
  5
1664
  8
DEFPOINTS
  6
BYBLOCK
 62
     0
 10
-350.12794056216381
 20
423.03483567373581
 30
0.0
  0
POINT
  5
1665
  8
DEFPOINTS
  6
BYBLOCK
 62
     0
 10
-320.12934837967651
 20
424.76299250628881
 30
0.0
  0
POINT
  5
1666
  8
DEFPOINTS
  6
BYBLOCK
 62
     0
 10
-320.12934837967651
 20
430.47832366966071
 30
0.0
  0
ENDBLK
  5
1667
  8
0
  0
BLOCK
  8
0
  2
*D40
 70
     1
 10
0.0
 20
0.0
 30
0.0
  3
*D40
  1

  0
LINE
  5
1406
  8
0
  6
BYBLOCK
 10
-71.920831223258574
 20
258.49606315815282
 30
0.0
 11
33.171270885016391
 21
258.49606315815282
 31
0.0
  0
LINE
  5
1407
  8
0
  6
BYBLOCK
 10
-68.906431223258551
 20
-21.99993684184723
 30
0.0
 11
33.171270885016384
 21
-21.999936841847241
 31
0.0
  0
LINE
  5
1408
  8
0
  6
BYBLOCK
 10
31.171270885016391
 20
255.49606315815279
 30
0.0
 11
31.17127088501638
 21
-18.999936841847241
 31
0.0
  0
SOLID
  5
1409
  8
0
  6
BYBLOCK
 10
30.671270885016391
 20
255.49606315815279
 30
0.0
 11
31.671270885016401
 21
255.49606315815279
 31
0.0
 12
31.171270885016391
 22
258.49606315815282
 32
0.0
 13
31.171270885016391
 23
258.49606315815282
 33
0.0
  0
SOLID
  5
140A
  8
0
  6
BYBLOCK
 10
30.67127088501638
 20
-18.999936841847241
 30
0.0
 11
31.67127088501638
 21
-18.999936841847241
 31
0.0
 12
31.17127088501638
 22
-21.999936841847241
 32
0.0
 13
31.17127088501638
 23
-21.999936841847241
 33
0.0
  0
TEXT
  5
140B
  8
0
  6
BYBLOCK
 10
30.171270885016391
 20
112.2480631581527
 30
0.0
 40
3.0
  1
280.5
 50
90.0
  7
CHINESET
  0
POINT
  5
140C
  8
DEFPOINTS
  6
BYBLOCK
 62
     0
 10
-73.920831223258574
 20
258.49606315815282
 30
0.0
  0
POINT
  5
140D
  8
DEFPOINTS
  6
BYBLOCK
 62
     0
 10
-70.906431223258551
 20
-21.99993684184723
 30
0.0
  0
POINT
  5
140E
  8
DEFPOINTS
  6
BYBLOCK
 62
     0
 10
31.17127088501638
 20
-21.999936841847241
 30
0.0
  0
ENDBLK
  5
140F
  8
0
  0
BLOCK
  8
0
  2
*D41
 70
     1
 10
0.0
 20
0.0
 30
0.0
  3
*D41
  1

  0
LINE
  5
1412
  8
0
  6
BYBLOCK
 10
-18.689295702873089
 20
191.99606315815271
 30
0.0
 11
4.7404678170437373
 21
191.99606315815271
 31
0.0
  0
LINE
  5
1413
  8
0
  6
BYBLOCK
 10
-51.940770477138578
 20
142.99606315815279
 30
0.0
 11
4.7404678170437382
 21
142.99606315815279
 31
0.0
  0
LINE
  5
1414
  8
0
  6
BYBLOCK
 10
2.7404678170437391
 20
188.99606315815271
 30
0.0
 11
2.740467817043736
 21
145.99606315815279
 31
0.0
  0
SOLID
  5
1415
  8
0
  6
BYBLOCK
 10
2.2404678170437391
 20
188.99606315815271
 30
0.0
 11
3.2404678170437391
 21
188.99606315815271
 31
0.0
 12
2.7404678170437391
 22
191.99606315815271
 32
0.0
 13
2.7404678170437391
 23
191.99606315815271
 33
0.0
  0
SOLID
  5
1416
  8
0
  6
BYBLOCK
 10
2.240467817043736
 20
145.99606315815279
 30
0.0
 11
3.240467817043736
 21
145.99606315815279
 31
0.0
 12
2.740467817043736
 22
142.99606315815279
 32
0.0
 13
2.740467817043736
 23
142.99606315815279
 33
0.0
  0
TEXT
  5
1417
  8
0
  6
BYBLOCK
 10
1.740467817043736
 20
165.1389203010099
 30
0.0
 40
3.0
  1
49
 50
90.0
  7
CHINESET
  0
POINT
  5
1418
  8
DEFPOINTS
  6
BYBLOCK
 62
     0
 10
-20.689295702873089
 20
191.99606315815271
 30
0.0
  0
POINT
  5
1419
  8
DEFPOINTS
  6
BYBLOCK
 62
     0
 10
-53.940770477138578
 20
142.99606315815279
 30
0.0
  0
POINT
  5
141A
  8
DEFPOINTS
  6
BYBLOCK
 62
     0
 10
2.740467817043736
 20
142.99606315815279
 30
0.0
  0
ENDBLK
  5
141B
  8
0
  0
BLOCK
  8
0
  2
*D42
 70
     1
 10
0.0
 20
0.0
 30
0.0
  3
*D42
  1

  0
LINE
  5
141E
  8
0
  6
BYBLOCK
 10
-21.92083122325846
 20
201.99606315815279
 30
0.0
 11
-5.3835007565112374
 21
201.99606315815279
 31
0.0
  0
LINE
  5
141F
  8
0
  6
BYBLOCK
 10
-21.92083122325846
 20
171.99606315815279
 30
0.0
 11
-5.3835007565112392
 21
171.99606315815279
 31
0.0
  0
LINE
  5
1420
  8
0
  6
BYBLOCK
 10
-7.3835007565112374
 20
198.99606315815279
 30
0.0
 11
-7.3835007565112392
 21
174.99606315815279
 31
0.0
  0
SOLID
  5
1421
  8
0
  6
BYBLOCK
 10
-7.8835007565112374
 20
198.99606315815279
 30
0.0
 11
-6.8835007565112374
 21
198.99606315815279
 31
0.0
 12
-7.3835007565112374
 22
201.99606315815279
 32
0.0
 13
-7.3835007565112374
 23
201.99606315815279
 33
0.0
  0
SOLID
  5
1422
  8
0
  6
BYBLOCK
 10
-7.8835007565112392
 20
174.99606315815279
 30
0.0
 11
-6.8835007565112392
 21
174.99606315815279
 31
0.0
 12
-7.3835007565112392
 22
171.99606315815279
 32
0.0
 13
-7.3835007565112392
 23
171.99606315815279
 33
0.0
  0
TEXT
  5
1423
  8
0
  6
BYBLOCK
 10
-8.3835007565112392
 20
184.56749172958141
 30
0.0
 40
3.0
  1
30
 50
90.0
  7
CHINESET
  0
POINT
  5
1424
  8
DEFPOINTS
  6
BYBLOCK
 62
     0
 10
-23.92083122325846
 20
201.99606315815279
 30
0.0
  0
POINT
  5
1425
  8
DEFPOINTS
  6
BYBLOCK
 62
     0
 10
-23.92083122325846
 20
171.99606315815279
 30
0.0
  0
POINT
  5
1426
  8
DEFPOINTS
  6
BYBLOCK
 62
     0
 10
-7.3835007565112392
 20
171.99606315815279
 30
0.0
  0
ENDBLK
  5
1427
  8
0
  0
BLOCK
  8
0
  2
*D43
 70
     1
 10
0.0
 20
0.0
 30
0.0
  3
*D43
  1

  0
LINE
  5
142A
  8
0
  6
BYBLOCK
 10
-153.92083122325829
 20
168.49606315815271
 30
0.0
 11
-153.92083122325829
 21
279.81920188189542
 31
0.0
  0
LINE
  5
142B
  8
0
  6
BYBLOCK
 10
-73.920831223258574
 20
269.0229634462379
 30
0.0
 11
-73.920831223258574
 21
279.81920188189542
 31
0.0
  0
LINE
  5
142C
  8
0
  6
BYBLOCK
 10
-150.92083122325829
 20
277.81920188189542
 30
0.0
 11
-76.920831223258574
 21
277.81920188189542
 31
0.0
  0
SOLID
  5
142D
  8
0
  6
BYBLOCK
 10
-150.92083122325829
 20
278.31920188189542
 30
0.0
 11
-150.92083122325829
 21
277.31920188189542
 31
0.0
 12
-153.92083122325829
 22
277.81920188189542
 32
0.0
 13
-153.92083122325829
 23
277.81920188189542
 33
0.0
  0
SOLID
  5
142E
  8
0
  6
BYBLOCK
 10
-76.920831223258574
 20
278.31920188189542
 30
0.0
 11
-76.920831223258574
 21
277.31920188189542
 31
0.0
 12
-73.920831223258574
 22
277.81920188189542
 32
0.0
 13
-73.920831223258574
 23
277.81920188189542
 33
0.0
  0
TEXT
  5
142F
  8
0
  6
BYBLOCK
 10
-116.34940265182981
 20
278.81920188189542
 30
0.0
 40
3.0
  1
80
  7
CHINESET
  0
POINT
  5
1430
  8
DEFPOINTS
  6
BYBLOCK
 62
     0
 10
-153.92083122325829
 20
166.49606315815271
 30
0.0
  0
POINT
  5
1431
  8
DEFPOINTS
  6
BYBLOCK
 62
     0
 10
-73.920831223258574
 20
267.0229634462379
 30
0.0
  0
POINT
  5
1432
  8
DEFPOINTS
  6
BYBLOCK
 62
     0
 10
-73.920831223258574
 20
277.81920188189542
 30
0.0
  0
ENDBLK
  5
1433
  8
0
  0
BLOCK
  8
0
  2
*D44
 70
     1
 10
0.0
 20
0.0
 30
0.0
  3
*D44
  1

  0
LINE
  5
1436
  8
0
  6
BYBLOCK
 10
-49.940770477138578
 20
142.99606315815279
 30
0.0
 11
4.7404678170437453
 21
142.99606315815279
 31
0.0
  0
LINE
  5
1437
  8
0
  6
BYBLOCK
 10
-68.906431223258551
 20
-21.99993684184723
 30
0.0
 11
4.7404678170437338
 21
-21.99993684184723
 31
0.0
  0
LINE
  5
1438
  8
0
  6
BYBLOCK
 10
2.7404678170437462
 20
139.99606315815279
 30
0.0
 11
2.740467817043736
 21
-18.99993684184723
 31
0.0
  0
SOLID
  5
1439
  8
0
  6
BYBLOCK
 10
2.2404678170437462
 20
139.99606315815279
 30
0.0
 11
3.2404678170437462
 21
139.99606315815279
 31
0.0
 12
2.7404678170437462
 22
142.99606315815279
 32
0.0
 13
2.7404678170437462
 23
142.99606315815279
 33
0.0
  0
SOLID
  5
143A
  8
0
  6
BYBLOCK
 10
2.240467817043736
 20
-18.99993684184723
 30
0.0
 11
3.240467817043736
 21
-18.99993684184723
 31
0.0
 12
2.740467817043736
 22
-21.99993684184723
 32
0.0
 13
2.740467817043736
 23
-21.99993684184723
 33
0.0
  0
TEXT
  5
143B
  8
0
  6
BYBLOCK
 10
1.7404678170437411
 20
56.926634586724219
 30
0.0
 40
3.0
  1
165
 50
90.0
  7
CHINESET
  0
POINT
  5
143C
  8
DEFPOINTS
  6
BYBLOCK
 62
     0
 10
-51.940770477138578
 20
142.99606315815279
 30
0.0
  0
POINT
  5
143D
  8
DEFPOINTS
  6
BYBLOCK
 62
     0
 10
-70.906431223258551
 20
-21.99993684184723
 30
0.0
  0
POINT
  5
143E
  8
DEFPOINTS
  6
BYBLOCK
 62
     0
 10
2.740467817043736
 20
-21.99993684184723
 30
0.0
  0
ENDBLK
  5
143F
  8
0
  0
BLOCK
  8
0
  2
*D46
 70
     1
 10
0.0
 20
0.0
 30
0.0
  3
*D46
  1

  0
LINE
  5
1450
  8
0
  6
BYBLOCK
 10
-71.920831223258574
 20
258.49606315815282
 30
0.0
 11
4.7404678170437382
 21
258.49606315815282
 31
0.0
  0
LINE
  5
1451
  8
0
  6
BYBLOCK
 10
-18.689295702873089
 20
191.99606315815271
 30
0.0
 11
4.7404678170437373
 21
191.99606315815271
 31
0.0
  0
LINE
  5
1452
  8
0
  6
BYBLOCK
 10
2.74046781704374
 20
255.49606315815279
 30
0.0
 11
2.740467817043736
 21
194.99606315815271
 31
0.0
  0
SOLID
  5
1453
  8
0
  6
BYBLOCK
 10
2.24046781704374
 20
255.49606315815279
 30
0.0
 11
3.24046781704374
 21
255.49606315815279
 31
0.0
 12
2.74046781704374
 22
258.49606315815282
 32
0.0
 13
2.74046781704374
 23
258.49606315815282
 33
0.0
  0
SOLID
  5
1454
  8
0
  6
BYBLOCK
 10
2.240467817043736
 20
194.99606315815271
 30
0.0
 11
3.240467817043736
 21
194.99606315815271
 31
0.0
 12
2.740467817043736
 22
191.99606315815271
 32
0.0
 13
2.740467817043736
 23
191.99606315815271
 33
0.0
  0
TEXT
  5
1455
  8
0
  6
BYBLOCK
 10
1.740467817043738
 20
220.67463458672421
 30
0.0
 40
3.0
  1
66.5
 50
90.0
  7
CHINESET
  0
POINT
  5
1456
  8
DEFPOINTS
  6
BYBLOCK
 62
     0
 10
-73.920831223258574
 20
258.49606315815282
 30
0.0
  0
POINT
  5
1457
  8
DEFPOINTS
  6
BYBLOCK
 62
     0
 10
-20.689295702873089
 20
191.99606315815271
 30
0.0
  0
POINT
  5
1458
  8
DEFPOINTS
  6
BYBLOCK
 62
     0
 10
2.740467817043736
 20
191.99606315815271
 30
0.0
  0
ENDBLK
  5
1459
  8
0
  0
BLOCK
  8
0
  2
*D47
 70
     1
 10
0.0
 20
0.0
 30
0.0
  3
*D47
  1

  0
LINE
  5
145C
  8
0
  6
BYBLOCK
 10
-73.920831223258574
 20
269.0229634462379
 30
0.0
 11
-73.920831223258574
 21
279.81920188189542
 31
0.0
  0
LINE
  5
145D
  8
0
  6
BYBLOCK
 10
-23.92083122325846
 20
203.99606315815279
 30
0.0
 11
-23.92083122325845
 21
279.81920188189542
 31
0.0
  0
LINE
  5
145E
  8
0
  6
BYBLOCK
 10
-70.920831223258574
 20
277.81920188189542
 30
0.0
 11
-26.92083122325845
 21
277.81920188189542
 31
0.0
  0
SOLID
  5
145F
  8
0
  6
BYBLOCK
 10
-70.920831223258574
 20
278.31920188189542
 30
0.0
 11
-70.920831223258574
 21
277.31920188189542
 31
0.0
 12
-73.920831223258574
 22
277.81920188189542
 32
0.0
 13
-73.920831223258574
 23
277.81920188189542
 33
0.0
  0
SOLID
  5
1460
  8
0
  6
BYBLOCK
 10
-26.92083122325845
 20
278.31920188189542
 30
0.0
 11
-26.92083122325845
 21
277.31920188189542
 31
0.0
 12
-23.92083122325845
 22
277.81920188189542
 32
0.0
 13
-23.92083122325845
 23
277.81920188189542
 33
0.0
  0
TEXT
  5
1461
  8
0
  6
BYBLOCK
 10
-51.349402651829941
 20
278.81920188189542
 30
0.0
 40
3.0
  1
50
  7
CHINESET
  0
POINT
  5
1462
  8
DEFPOINTS
  6
BYBLOCK
 62
     0
 10
-73.920831223258574
 20
267.0229634462379
 30
0.0
  0
POINT
  5
1463
  8
DEFPOINTS
  6
BYBLOCK
 62
     0
 10
-23.92083122325846
 20
201.99606315815279
 30
0.0
  0
POINT
  5
1464
  8
DEFPOINTS
  6
BYBLOCK
 62
     0
 10
-23.92083122325845
 20
277.81920188189542
 30
0.0
  0
ENDBLK
  5
1465
  8
0
  0
BLOCK
  8
0
  2
*X71
 70
     1
 10
0.0
 20
0.0
 30
0.0
  3
*X71
  1

  0
LINE
  5
16D2
  8
0
  6
BYBLOCK
 62
     0
 10
-315.1293483796764
 20
254.17302682873131
 30
0.0
 11
-315.95238470909823
 21
254.99606315815311
 31
0.0
  0
LINE
  5
16D3
  8
0
  6
BYBLOCK
 62
     0
 10
-315.1293483796764
 20
253.27500121662439
 30
0.0
 11
-316.85041032120517
 21
254.99606315815311
 31
0.0
  0
LINE
  5
16D4
  8
0
  6
BYBLOCK
 62
     0
 10
-315.12934837967651
 20
252.3769756045175
 30
0.0
 11
-317.74843593331212
 21
254.99606315815311
 31
0.0
  0
LINE
  5
16D5
  8
0
  6
BYBLOCK
 62
     0
 10
-315.1293483796764
 20
251.47894999241061
 30
0.0
 11
-318.64646154541902
 21
254.99606315815311
 31
0.0
  0
LINE
  5
16D6
  8
0
  6
BYBLOCK
 62
     0
 10
-315.1293483796764
 20
250.5809243803036
 30
0.0
 11
-319.54448715752591
 21
254.99606315815311
 31
0.0
  0
LINE
  5
16D7
  8
0
  6
BYBLOCK
 62
     0
 10
-315.4425127696328
 20
249.99606315815311
 30
0.0
 11
-320.4425127696328
 21
254.99606315815311
 31
0.0
  0
LINE
  5
16D8
  8
0
  6
BYBLOCK
 62
     0
 10
-316.34053838173969
 20
249.99606315815311
 30
0.0
 11
-321.3405383817398
 21
254.99606315815311
 31
0.0
  0
LINE
  5
16D9
  8
0
  6
BYBLOCK
 62
     0
 10
-317.23856399384658
 20
249.99606315815311
 30
0.0
 11
-322.2385639938467
 21
254.99606315815311
 31
0.0
  0
LINE
  5
16DA
  8
0
  6
BYBLOCK
 62
     0
 10
-318.13658960595359
 20
249.99606315815311
 30
0.0
 11
-323.13658960595359
 21
254.99606315815311
 31
0.0
  0
LINE
  5
16DB
  8
0
  6
BYBLOCK
 62
     0
 10
-319.03461521806048
 20
249.99606315815311
 30
0.0
 11
-324.03461521806059
 21
254.99606315815311
 31
0.0
  0
LINE
  5
16DC
  8
0
  6
BYBLOCK
 62
     0
 10
-319.93264083016737
 20
249.99606315815311
 30
0.0
 11
-324.93264083016737
 21
254.99606315815311
 31
0.0
  0
LINE
  5
16DD
  8
0
  6
BYBLOCK
 62
     0
 10
-320.83066644227432
 20
249.99606315815311
 30
0.0
 11
-325.1293483796764
 21
254.29474509555519
 31
0.0
  0
LINE
  5
16DE
  8
0
  6
BYBLOCK
 62
     0
 10
-321.72869205438121
 20
249.99606315815311
 30
0.0
 11
-325.1293483796764
 21
253.39671948344829
 31
0.0
  0
LINE
  5
16DF
  8
0
  6
BYBLOCK
 62
     0
 10
-322.6267176664881
 20
249.99606315815311
 30
0.0
 11
-325.1293483796764
 21
252.4986938713414
 31
0.0
  0
LINE
  5
16E0
  8
0
  6
BYBLOCK
 62
     0
 10
-323.52474327859511
 20
249.99606315815311
 30
0.0
 11
-325.1293483796764
 21
251.60066825923451
 31
0.0
  0
LINE
  5
16E1
  8
0
  6
BYBLOCK
 62
     0
 10
-324.422768890702
 20
249.99606315815311
 30
0.0
 11
-325.12934837967651
 21
250.70264264712759
 31
0.0
  0
LINE
  5
16E2
  8
0
  6
BYBLOCK
 62
     0
 10
-315.46036517865542
 20
249.99606315815311
 30
0.0
 11
-315.1293483796764
 21
250.3270799571321
 31
0.0
  0
LINE
  5
16E3
  8
0
  6
BYBLOCK
 62
     0
 10
-316.35839079076231
 20
249.99606315815311
 30
0.0
 11
-315.12934837967629
 21
251.22510556923899
 31
0.0
  0
LINE
  5
16E4
  8
0
  6
BYBLOCK
 62
     0
 10
-317.25641640286909
 20
249.99606315815311
 30
0.0
 11
-315.12934837967629
 21
252.12313118134591
 31
0.0
  0
LINE
  5
16E5
  8
0
  6
BYBLOCK
 62
     0
 10
-318.1544420149761
 20
249.99606315815311
 30
0.0
 11
-315.12934837967629
 21
253.0211567934528
 31
0.0
  0
LINE
  5
16E6
  8
0
  6
BYBLOCK
 62
     0
 10
-319.05246762708299
 20
249.99606315815311
 30
0.0
 11
-315.12934837967629
 21
253.91918240555981
 31
0.0
  0
LINE
  5
16E7
  8
0
  6
BYBLOCK
 62
     0
 10
-319.95049323918988
 20
249.99606315815299
 30
0.0
 11
-315.1293483796764
 21
254.81720801766659
 31
0.0
  0
LINE
  5
16E8
  8
0
  6
BYBLOCK
 62
     0
 10
-320.84851885129689
 20
249.99606315815299
 30
0.0
 11
-315.84851885129689
 21
254.99606315815311
 31
0.0
  0
LINE
  5
16E9
  8
0
  6
BYBLOCK
 62
     0
 10
-321.74654446340389
 20
249.99606315815311
 30
0.0
 11
-316.74654446340378
 21
254.99606315815311
 31
0.0
  0
LINE
  5
16EA
  8
0
  6
BYBLOCK
 62
     0
 10
-322.64457007551073
 20
249.99606315815311
 30
0.0
 11
-317.64457007551073
 21
254.99606315815311
 31
0.0
  0
LINE
  5
16EB
  8
0
  6
BYBLOCK
 62
     0
 10
-323.54259568761762
 20
249.99606315815311
 30
0.0
 11
-318.54259568761762
 21
254.99606315815311
 31
0.0
  0
LINE
  5
16EC
  8
0
  6
BYBLOCK
 62
     0
 10
-324.44062129972451
 20
249.99606315815311
 30
0.0
 11
-319.44062129972451
 21
254.99606315815311
 31
0.0
  0
LINE
  5
16ED
  8
0
  6
BYBLOCK
 62
     0
 10
-325.12934837967629
 20
250.20536169030819
 30
0.0
 11
-320.3386469118314
 21
254.99606315815311
 31
0.0
  0
LINE
  5
16EE
  8
0
  6
BYBLOCK
 62
     0
 10
-325.1293483796764
 20
251.10338730241509
 30
0.0
 11
-321.23667252393841
 21
254.99606315815311
 31
0.0
  0
LINE
  5
16EF
  8
0
  6
BYBLOCK
 62
     0
 10
-325.1293483796764
 20
252.00141291452201
 30
0.0
 11
-322.1346981360453
 21
254.99606315815311
 31
0.0
  0
LINE
  5
16F0
  8
0
  6
BYBLOCK
 62
     0
 10
-325.1293483796764
 20
252.8994385266289
 30
0.0
 11
-323.03272374815231
 21
254.99606315815311
 31
0.0
  0
LINE
  5
16F1
  8
0
  6
BYBLOCK
 62
     0
 10
-325.12934837967629
 20
253.79746413873579
 30
0.0
 11
-323.93074936025909
 21
254.99606315815311
 31
0.0
  0
LINE
  5
16F2
  8
0
  6
BYBLOCK
 62
     0
 10
-325.12934837967629
 20
254.69548975084271
 30
0.0
 11
-324.82877497236592
 21
254.99606315815311
 31
0.0
  0
ENDBLK
  5
16F4
  8
0
  0
ENDSEC
  0
SECTION
  2
ENTITIES
  0
POLYLINE
  5
32
  8
0
  6
BYBLOCK
 62
     4
 66
     1
 10
0.0
 20
0.0
 30
0.0
 70
     1
  0
VERTEX
  5
17E9
  8
0
  6
BYBLOCK
 62
     4
 10
-393.3863200363603
 20
467.0477249398964
 30
0.0
  0
VERTEX
  5
17EA
  8
0
  6
BYBLOCK
 62
     4
 10
94.410721277164996
 20
467.04772493989623
 30
0.0
  0
VERTEX
  5
17EB
  8
0
  6
BYBLOCK
 62
     4
 10
94.410721277164996
 20
-61.395901441056118
 30
0.0
  0
VERTEX
  5
17EC
  8
0
  6
BYBLOCK
 62
     4
 10
-393.3863200363603
 20
-61.395901441056111
 30
0.0
  0
SEQEND
  5
17ED
  8
0
  6
BYBLOCK
 62
     4
  0
TEXT
  5
189
  8
DIM
  6
BYBLOCK
 10
-253.426960122455
 20
212.36676269859791
 30
0.0
 40
3.0
  1
2-PT1/4
  7
CHINESET
  0
SOLID
  5
18A
  8
DIM
  6
CONTINUOUS
 10
312.66871597734212
 20
151.25036983856151
 30
0.0
 11
315.09815903249392
 21
149.42066864935759
 31
0.0
 12
313.39345382547037
 22
151.9393945489241
 32
0.0
 13
313.39345382547037
 23
151.9393945489241
 33
0.0
210
0.0
220
0.0
230
-1.0
  0
POLYLINE
  5
16FA
  8
DIM
  6
BYBLOCK
 66
     1
 10
0.0
 20
0.0
 30
0.0
 70
   128
1001
ACAD
1000
R13OBJECT
1002
{
1005
18A
1002
}
  0
VERTEX
  5
17EE
  8
DIM
  6
BYBLOCK
 10
-313.0310849014063
 20
151.59488219374279
 30
0.0
  0
VERTEX
  5
17EF
  8
DIM
  6
BYBLOCK
 10
-257.426960122455
 20
210.08104841288369
 30
0.0
  0
VERTEX
  5
17F0
  8
DIM
  6
BYBLOCK
 10
-233.71267440816931
 20
210.08104841288369
 30
0.0
  0
SEQEND
  5
17F1
  8
DIM
  6
BYBLOCK
  0
LINE
  5
1AA
  8
0
 10
-291.8450771322145
 20
174.7906666052956
 30
0.0
 11
-291.8450771322145
 21
172.56864616018359
 31
0.0
  0
LINE
  5
1AB
  8
0
 10
-296.1293483796764
 20
175.99606315815311
 30
0.0
 11
-291.1293483796764
 21
171.99606315815311
 31
0.0
  0
LINE
  5
1AC
  8
0
 10
-348.4136196271383
 20
174.7906666052956
 30
0.0
 11
-348.4136196271383
 21
172.5686461601835
 31
0.0
  0
LINE
  5
1AD
  8
0
 10
-344.1293483796764
 20
175.99606315815311
 30
0.0
 11
-349.1293483796764
 21
171.99606315815311
 31
0.0
  0
LINE
  5
1AE
  8
CENTER
  6
CENTER
 10
-320.1293483796764
 20
267.78255781368631
 30
0.0
 11
-320.1293483796764
 21
-25.21313294558578
 31
0.0
  0
LINE
  5
1B0
  8
0
 10
-360.1293483796764
 20
191.79066660529551
 30
0.0
 11
-360.1293483796764
 21
171.99606315815311
 31
0.0
  0
LINE
  5
1B1
  8
0
 10
-280.1293483796764
 20
191.79066660529551
 30
0.0
 11
-280.1293483796764
 21
171.99606315815311
 31
0.0
  0
LINE
  5
1B2
  8
0
 10
-215.6293483796762
 20
180.8629119078619
 30
0.0
 11
-215.6293483796762
 21
171.8629119078619
 31
0.0
  0
LINE
  5
1B3
  8
CENTER
  6
CENTER
 10
-219.6293483796762
 20
182.41117828152261
 30
0.0
 11
-219.6293483796762
 21
155.03307482734459
 31
0.0
  0
LINE
  5
1B4
  8
0
 10
-223.6293483796762
 20
180.8629119078619
 30
0.0
 11
-223.6293483796762
 21
171.8629119078619
 31
0.0
  0
ARC
  5
1B5
  8
0
 10
-275.12934837967668
 20
170.99606315815291
 30
0.0
 40
49.999999999999993
 50
0.0000000000000325
 51
14.79249704140153
  0
ARC
  5
1B6
  8
0
 10
-190.1293483796766
 20
170.99606315815291
 30
0.0
 40
49.999999999999993
 50
165.20750295859841
 51
179.99999999999989
  0
LINE
  5
1B7
  8
CENTER
  6
CENTER
 10
-248.4730058289046
 20
174.59987822308989
 30
0.0
 11
-248.4730058289046
 21
156.86351224768279
 31
0.0
  0
LINE
  5
1B8
  8
CENTER
  6
CENTER
 10
-232.6293483796764
 20
193.74165348514779
 30
0.0
 11
-232.6293483796764
 21
-8.0596499980624952
 31
0.0
  0
TEXT
  5
20E
  8
DIM
  6
BYBLOCK
 10
-314.16333764648789
 20
-37.840042863298613
 30
0.0
 40
3.0
  1
%%c
  7
CHINESET
  0
TEXT
  5
16FF
  8
DIM
  6
BYBLOCK
 10
-311.44905193220222
 20
-37.840042863298613
 30
0.0
 40
3.0
  1
6-排水口
  7
CHINESET
1001
ACAD
1000
R13OBJECT
1002
{
1005
20E
1002
}
  0
LINE
  5
20F
  8
DIM
  6
BYBLOCK
 10
-314.11494837967649
 20
-39.029723095856752
 30
0.0
 11
-295.82243550420611
 21
-39.029723095856752
 31
0.0
  0
SOLID
  5
210
  8
DIM
  6
BYBLOCK
 10
-326.14374837967659
 20
-38.529723095856752
 30
0.0
 11
-326.14374837967659
 21
-39.529723095856752
 31
0.0
 12
-323.14374837967648
 22
-39.029723095856752
 32
0.0
 13
-323.14374837967648
 23
-39.029723095856752
 33
0.0
  0
LINE
  5
211
  8
DIM
  6
BYBLOCK
 10
-326.14374837967659
 20
-39.029723095856752
 30
0.0
 11
-329.14374837967648
 21
-39.029723095856752
 31
0.0
  0
SOLID
  5
213
  8
DIM
  6
BYBLOCK
 10
-314.11494837967649
 20
-38.529723095856752
 30
0.0
 11
-314.11494837967649
 21
-39.529723095856752
 31
0.0
 12
-317.11494837967649
 22
-39.029723095856752
 32
0.0
 13
-317.11494837967649
 23
-39.029723095856752
 33
0.0
  0
LINE
  5
214
  8
DIM
  6
BYBLOCK
 10
-323.14374837967648
 20
-39.029723095856752
 30
0.0
 11
-317.11494837967649
 21
-39.029723095856752
 31
0.0
  0
LINE
  5
215
  8
DIM
  6
BYBLOCK
 10
-317.11494837967649
 20
-23.999936841847241
 30
0.0
 11
-317.11494837967649
 21
-41.029723095856752
 31
0.0
  0
LINE
  5
216
  8
DIM
  6
BYBLOCK
 10
-323.14374837967648
 20
-23.999936841847241
 30
0.0
 11
-323.14374837967648
 21
-41.029723095856752
 31
0.0
  0
LINE
  5
217
  8
0
  6
BYBLOCK
 10
-337.01129139581047
 20
0.9960631581527935
 30
0.0
 11
-303.24740536354233
 21
0.9960631581528218
 31
0.0
  0
LINE
  5
218
  8
CENTER
  6
CENTER
 10
-335.37184843000023
 20
144.99606315815299
 30
0.0
 11
-303.13072127391752
 21
144.99606315815299
 31
0.0
  0
LINE
  5
219
  8
0
 10
-308.6293483796764
 20
117.99606315815269
 30
0.0
 11
-304.6293483796764
 21
117.99606315815269
 31
0.0
  0
LINE
  5
21A
  8
0
 10
-360.1293483796764
 20
109.6964904227636
 30
0.0
 11
-280.1293483796764
 21
109.6964904227636
 31
0.0
  0
LINE
  5
21B
  8
0
 10
-360.1293483796764
 20
122.99606315815269
 30
0.0
 11
-280.1293483796764
 21
122.99606315815269
 31
0.0
  0
LINE
  5
21C
  8
0
 62
     7
 10
-359.12934837967629
 20
127.99606315815311
 30
0.0
 11
-281.12934532992148
 21
127.99606315815311
 31
0.0
  0
LINE
  5
21D
  8
0
 10
-363.1293483796764
 20
162.99606315815311
 30
0.0
 11
-277.1293483796764
 21
162.99606315815311
 31
0.0
  0
LINE
  5
21E
  8
0
 62
     7
 10
-362.6293483796764
 20
162.99606315815311
 30
0.0
 11
-277.6293483796764
 21
162.99606315815311
 31
0.0
  0
LINE
  5
21F
  8
0
 62
     7
 10
-363.6293483796764
 20
161.99606315815311
 30
0.0
 11
-276.62934837967629
 21
161.99606315815311
 31
0.0
  0
LINE
  5
220
  8
0
 62
     7
 10
-363.12935103057572
 20
156.99606315815311
 30
0.0
 11
-277.12934837967629
 21
156.99606315815311
 31
0.0
  0
LINE
  5
221
  8
0
 10
-349.1293483796764
 20
171.99606315815311
 30
0.0
 11
-291.1293483796764
 21
171.99606315815311
 31
0.0
  0
ARC
  5
222
  8
0
 10
-299.1293483796764
 20
92.996063158152793
 30
0.0
 40
7.0
 50
0.0
 51
180.0
  0
ARC
  5
223
  8
0
 10
-299.1293483796764
 20
24.99606315815279
 30
0.0
 40
7.0
 50
180.0
 51
0.0
  0
LINE
  5
224
  8
0
 10
-346.6293483796764
 20
92.996063158152793
 30
0.0
 11
-346.6293483796764
 21
24.99606315815279
 31
0.0
  0
LINE
  5
225
  8
0
 10
-334.1293483796764
 20
92.996063158152793
 30
0.0
 11
-334.1293483796764
 21
24.99606315815279
 31
0.0
  0
LINE
  5
226
  8
0
 10
-348.1293483796764
 20
92.996063158152793
 30
0.0
 11
-348.1293483796764
 21
24.99606315815279
 31
0.0
  0
LINE
  5
227
  8
0
 10
-306.1293483796764
 20
92.996063158152793
 30
0.0
 11
-306.1293483796764
 21
24.99606315815279
 31
0.0
  0
LINE
  5
228
  8
0
 10
-351.1293483796764
 20
26.99606315815279
 30
0.0
 11
-351.8793483796764
 21
104.595208628931
 31
0.0
  0
ARC
  5
229
  8
0
 10
-320.1293483796764
 20
26.99606315815279
 30
0.0
 40
31.0
 50
180.0
 51
237.00411452642041
  0
ARC
  5
22A
  8
0
 10
-341.1293483796764
 20
24.99606315815279
 30
0.0
 40
7.0
 50
180.0
 51
0.0
  0
ARC
  5
22B
  8
0
 10
-339.91186347632907
 20
24.613372725068579
 30
0.0
 40
6.7283768766526313
 50
176.7394237284004
 51
259.57502944633751
  0
LINE
  5
22C
  8
0
 10
-330.6653483796764
 20
-0.0039368418471781
 30
0.0
 11
-309.59334837967651
 21
-0.0039368418471781
 31
0.0
  0
LINE
  5
22D
  8
CENTER
  6
CENTER
 10
-329.81161587824209
 20
-8.9375368418473045
 30
0.0
 11
-310.45227302388759
 21
-8.9375368418473045
 31
0.0
  0
ARC
  5
22E
  8
0
 10
-323.14374837967648
 20
-19.990336841847231
 30
0.0
 40
1.0047999999999999
 50
90.0
 51
180.0
  0
LINE
  5
22F
  8
0
 10
-324.14854837967852
 20
-19.990336841847181
 30
0.0
 11
-323.14374837967648
 21
-21.730701493295811
 31
0.0
  0
LINE
  5
230
  8
0
 10
-327.26342837967633
 20
-15.971136841847249
 30
0.0
 11
-312.9952683796763
 21
-15.971136841847249
 31
0.0
  0
LINE
  5
231
  8
0
 10
-324.14854837967948
 20
-19.990336841845242
 30
0.0
 11
-316.11014837967821
 21
-19.990336841845242
 31
0.0
  0
CIRCLE
  5
232
  8
0
 10
-320.12934837967629
 20
-8.9375368418473045
 30
0.0
 40
5.5263999999999847
  0
CIRCLE
  5
233
  8
0
 10
-320.12934837967629
 20
-8.9375368418473045
 30
0.0
 40
3.2153599999999738
  0
LINE
  5
234
  8
0
 10
-330.6653483796764
 20
0.996063158152765
 30
0.0
 11
-330.6653483796764
 21
-0.0039368418472066
 31
0.0
  0
ARC
  5
235
  8
0
 10
-327.26342837967633
 20
-15.569216841847229
 30
0.0
 40
0.4019200000000001
 50
180.0
 51
270.0
  0
LINE
  5
236
  8
0
 10
-327.6653483796764
 20
-0.0039368418472066
 30
0.0
 11
-327.6653483796764
 21
-15.569216841847229
 31
0.0
  0
LINE
  5
239
  8
0
 10
-309.59334837967651
 20
0.996063158152765
 30
0.0
 11
-309.59334837967651
 21
-0.0039368418472066
 31
0.0
  0
LINE
  5
23A
  8
0
 10
-317.11494837967649
 20
-21.730701493287171
 30
0.0
 11
-316.11014837967952
 21
-19.990336841847231
 31
0.0
  0
ARC
  5
23B
  8
0
 10
-317.11494837967649
 20
-19.990336841847231
 30
0.0
 40
1.0047999999999999
 50
0.0
 51
90.0
  0
LINE
  5
23C
  8
0
 10
-317.11494837967649
 20
-18.830701493287162
 30
0.0
 11
-317.11494837967649
 21
-18.985536841847232
 31
0.0
  0
LINE
  5
23D
  8
0
 10
-317.11494837967649
 20
-15.971136841847191
 30
0.0
 11
-317.11494837967649
 21
-18.985536841847239
 31
0.0
  0
LINE
  5
23E
  8
0
 10
-317.11494837967649
 20
-21.730701493287171
 30
0.0
 11
-317.11494837967649
 21
-21.999936841847241
 31
0.0
  0
ARC
  5
23F
  8
0
 10
-312.9952683796763
 20
-15.569216841847229
 30
0.0
 40
0.4019200000000001
 50
270.0
 51
0.0
  0
LINE
  5
240
  8
0
 10
-323.14374837967648
 20
-21.730701493295719
 30
0.0
 11
-323.14374837967648
 21
-21.999936841847241
 31
0.0
  0
LINE
  5
241
  8
0
 10
-323.14374837967648
 20
-15.971136841847249
 30
0.0
 11
-323.14374837967648
 21
-18.98553684184267
 31
0.0
  0
LINE
  5
242
  8
0
 10
-323.14374837967648
 20
-21.999936841847241
 30
0.0
 11
-317.11494837967649
 21
-21.999936841847241
 31
0.0
  0
LINE
  5
243
  8
0
 10
-323.14374837967648
 20
-18.985536841843722
 30
0.0
 11
-317.11494837967649
 21
-18.98553684184909
 31
0.0
  0
LINE
  5
244
  8
0
 10
-312.59334837967651
 20
-0.0039368418472066
 30
0.0
 11
-312.59334837967651
 21
-15.569216841847229
 31
0.0
  0
LINE
  5
245
  8
0
 62
     7
 10
-355.1293483796764
 20
127.99606315815311
 30
0.0
 11
-355.1293483796764
 21
122.99606315815321
 31
0.0
  0
LINE
  5
246
  8
0
 10
-360.1293483796764
 20
109.6964904227636
 30
0.0
 11
-310.1293483796764
 21
109.6964904227636
 31
0.0
  0
ARC
  5
247
  8
0
 10
-340.1293483796764
 20
110.6964904227635
 30
0.0
 40
1.0
 50
180.0
 51
270.0
  0
ARC
  5
248
  8
0
 10
-341.1293483796764
 20
92.996063158152793
 30
0.0
 40
7.0
 50
0.0
 51
180.0
  0
ARC
  5
249
  8
0
 10
-336.53477275210969
 20
90.725325165064746
 30
0.0
 40
10.34682116081626
 50
116.3630047583348
 51
167.32254206692741
  0
LINE
  5
24A
  8
0
 10
-359.47109144276311
 20
108.75669699927511
 30
0.0
 11
-353.19586225350298
 21
106.4747954759079
 31
0.0
  0
ARC
  5
24B
  8
0
 10
-359.1293483796764
 20
109.6964904227636
 30
0.0
 40
1.0
 50
180.0
 51
250.0168934781002
  0
LINE
  5
24C
  8
0
 10
-360.1293483796764
 20
109.6964904227636
 30
0.0
 11
-360.1293483796764
 21
122.99606315815269
 31
0.0
  0
LINE
  5
24D
  8
0
 10
-355.6293483796764
 20
117.99606315815269
 30
0.0
 11
-351.6293483796764
 21
117.99606315815269
 31
0.0
  0
LINE
  5
24E
  8
0
 62
     7
 10
-357.52934837967638
 20
122.99606315815321
 30
0.0
 11
-355.57068002573271
 21
122.99606315815321
 31
0.0
  0
LINE
  5
24F
  8
0
 62
     7
 10
-355.57068002573271
 20
122.99606315815321
 30
0.0
 11
-351.52934837967632
 21
122.99606315815321
 31
0.0
  0
LINE
  5
250
  8
0
 10
-345.6293483796764
 20
117.99606315815259
 30
0.0
 11
-341.6293483796764
 21
117.99606315815269
 31
0.0
  0
LINE
  5
251
  8
0
 10
-351.1293483796764
 20
110.6964904227635
 30
0.0
 11
-351.1293483796764
 21
117.49606315815269
 31
0.0
  0
LINE
  5
252
  8
0
 10
-356.1293483796764
 20
110.6964904227635
 30
0.0
 11
-356.1293483796764
 21
117.49606315815269
 31
0.0
  0
LINE
  5
253
  8
0
 10
-346.1293483796764
 20
110.6964904227635
 30
0.0
 11
-346.1293483796764
 21
117.49606315815259
 31
0.0
  0
LINE
  5
254
  8
0
 10
-341.1293483796764
 20
110.6964904227635
 30
0.0
 11
-341.1293483796764
 21
117.49606315815269
 31
0.0
  0
ARC
  5
255
  8
0
 10
-350.1293483796764
 20
110.6964904227635
 30
0.0
 40
1.0
 50
180.0
 51
270.0
  0
ARC
  5
256
  8
0
 10
-357.1293483796764
 20
110.6964904227635
 30
0.0
 40
1.0
 50
270.0
 51
0.0000000000004198
  0
ARC
  5
257
  8
0
 10
-347.1293483796764
 20
110.6964904227635
 30
0.0
 40
1.0
 50
270.0
 51
0.0
  0
ARC
  5
259
  8
0
 10
-351.6293483796764
 20
117.49606315815269
 30
0.0
 40
0.5
 50
0.0000000000002036
 51
90.0
  0
ARC
  5
25A
  8
0
 10
-355.6293483796764
 20
117.49606315815269
 30
0.0
 40
0.5
 50
90.000000000000355
 51
180.0000000000002
  0
ARC
  5
25B
  8
0
 10
-345.6293483796764
 20
117.49606315815259
 30
0.0
 40
0.5
 50
90.000000000000327
 51
180.0
  0
ARC
  5
25C
  8
0
 10
-341.6293483796764
 20
117.49606315815269
 30
0.0
 40
0.5
 50
359.99999999999972
 51
90.000000000000725
  0
ARC
  5
25D
  8
0
 10
-353.8793483796764
 20
104.595208628931
 30
0.0
 40
2.0
 50
0.0
 51
70.016893478100371
  0
LINE
  5
25E
  8
0
 10
-320.1293483796764
 20
120.7612255978437
 30
0.0
 11
-329.1293483796764
 21
117.99606315815269
 31
0.0
  0
LINE
  5
25F
  8
0
 10
-329.1293483796764
 20
117.99606315815269
 30
0.0
 11
-311.1293483796764
 21
117.99606315815269
 31
0.0
  0
LINE
  5
260
  8
0
 62
     7
 10
-332.6293483796764
 20
122.99606315815289
 30
0.0
 11
-307.6293483796764
 21
122.99606315815259
 31
0.0
  0
LINE
  5
261
  8
0
 10
-335.6293483796764
 20
117.99606315815269
 30
0.0
 11
-331.6293483796764
 21
117.99606315815269
 31
0.0
  0
LINE
  5
263
  8
0
 10
-336.1293483796764
 20
110.6964904227635
 30
0.0
 11
-336.1293483796764
 21
117.49606315815269
 31
0.0
  0
LINE
  5
264
  8
0
 10
-331.1293483796764
 20
110.6964904227635
 30
0.0
 11
-331.1293483796764
 21
117.49606315815269
 31
0.0
  0
ARC
  5
265
  8
0
 10
-337.1293483796764
 20
110.6964904227635
 30
0.0
 40
1.0
 50
270.0
 51
0.0
  0
ARC
  5
266
  8
0
 10
-330.1293483796764
 20
110.6964904227635
 30
0.0
 40
1.0
 50
180.0
 51
270.0
  0
LINE
  5
267
  8
0
 10
-331.1293483796764
 20
110.6964904227635
 30
0.0
 11
-331.1293483796764
 21
122.99606315815269
 31
0.0
  0
ARC
  5
268
  8
0
 10
-331.6293483796764
 20
117.49606315815269
 30
0.0
 40
0.5
 50
0.0000000000002036
 51
90.0
  0
ARC
  5
269
  8
0
 10
-335.6293483796764
 20
117.49606315815269
 30
0.0
 40
0.5
 50
90.0
 51
180.0
  0
LINE
  5
26A
  8
0
 10
-320.1293483796764
 20
120.7612255978437
 30
0.0
 11
-311.1293483796764
 21
117.99606315815269
 31
0.0
  0
ARC
  5
26B
  8
0
 10
-310.1293483796764
 20
110.6964904227636
 30
0.0
 40
1.0
 50
270.0
 51
0.0000000000004198
  0
LINE
  5
26D
  8
0
 10
-309.1293483796764
 20
110.6964904227636
 30
0.0
 11
-309.1293483796764
 21
122.99606315815269
 31
0.0
  0
ARC
  5
26E
  8
0
 10
-308.6293483796764
 20
117.49606315815269
 30
0.0
 40
0.5
 50
89.999999999999915
 51
180.0000000000002
  0
LINE
  5
26F
  8
0
 62
     7
 10
-360.1293483796764
 20
155.99606315815311
 30
0.0
 11
-360.1293483796764
 21
128.99606315815311
 31
0.0
  0
LINE
  5
270
  8
0
 62
     7
 10
-357.12934837967629
 20
156.99606315815311
 30
0.0
 11
-356.11664606441582
 21
127.99606315815311
 31
0.0
  0
LINE
  5
271
  8
CENTER
  6
CENTER
 10
-342.92071103173811
 20
142.99606315815311
 30
0.0
 11
-362.69927493760582
 21
142.99606315815311
 31
0.0
  0
ARC
  5
273
  8
0
 62
     7
 10
-359.12934837967629
 20
128.99606315815311
 30
0.0
 40
1.0
 50
180.0
 51
270.0
  0
LINE
  5
275
  8
0
 10
-362.6293483796764
 20
171.99606315815311
 30
0.0
 11
-349.1293483796764
 21
171.99606315815311
 31
0.0
  0
ARC
  5
276
  8
0
 10
-362.6293483796764
 20
171.49606315815311
 30
0.0
 40
0.5
 50
90.000000000000114
 51
180.0
  0
ARC
  5
277
  8
0
 62
     7
 10
-361.1293483796764
 20
155.99606315815311
 30
0.0
 40
1.0
 50
0.0
 51
90.0
  0
ARC
  5
278
  8
0
 62
     7
 10
-363.1293483796764
 20
157.49606315815299
 30
0.0
 40
0.5
 50
179.99999999999969
 51
270.0
  0
LINE
  5
279
  8
0
 62
     7
 10
-362.6293483796764
 20
162.99606315815311
 30
0.0
 11
-363.6293483796764
 21
161.99606315815311
 31
0.0
  0
LINE
  5
27A
  8
0
 62
     7
 10
-363.6293483796764
 20
161.99606315815311
 30
0.0
 11
-363.6293483796764
 21
157.49606315815299
 31
0.0
  0
LINE
  5
27B
  8
0
 10
-363.1293483796764
 20
171.49606315815311
 30
0.0
 11
-363.1293483796764
 21
162.99606315815311
 31
0.0
  0
LINE
  5
27C
  8
0
 62
     7
 10
-332.59564632746418
 20
156.03096265485561
 30
0.0
 11
-331.61664606441559
 21
127.99606315815311
 31
0.0
  0
LINE
  5
27D
  8
0
 62
     7
 10
-307.66305043188839
 20
156.03096265485561
 30
0.0
 11
-308.64205069493698
 21
127.99606315815311
 31
0.0
  0
CIRCLE
  5
27E
  8
0
 62
     7
 10
-320.1293483796764
 20
144.99606315815299
 30
0.0
 40
6.7000000000000002
  0
CIRCLE
  5
27F
  8
0
 62
     7
 10
-320.1293483796764
 20
144.99606315815299
 30
0.0
 40
5.7000000000000011
  0
ARC
  5
282
  8
0
 62
     7
 10
-333.59503715448352
 20
155.99606315815311
 30
0.0
 40
1.0
 50
2.000000000000028
 51
89.999999999999986
  0
ARC
  5
284
  8
0
 62
     7
 10
-306.66365960486928
 20
155.99606315815311
 30
0.0
 40
1.0
 50
90.000000000000028
 51
177.99999999999989
  0
LINE
  5
286
  8
0
 10
-293.6293483796764
 20
92.996063158152793
 30
0.0
 11
-293.6293483796764
 21
24.99606315815279
 31
0.0
  0
LINE
  5
287
  8
0
 10
-292.1293483796764
 20
92.996063158152793
 30
0.0
 11
-292.1293483796764
 21
24.99606315815279
 31
0.0
  0
LINE
  5
288
  8
0
 10
-288.3793483796764
 20
104.595208628931
 30
0.0
 11
-289.1293483796764
 21
26.99606315815279
 31
0.0
  0
LINE
  5
289
  8
0
 10
-263.6293483796764
 20
29.496063158153131
 30
0.0
 11
-264.36699888257971
 21
105.81746140001199
 31
0.0
  0
LINE
  5
28A
  8
0
 10
-259.1293483796764
 20
95.496063158153078
 30
0.0
 11
-259.1293483796764
 21
27.496063158153131
 31
0.0
  0
LINE
  5
28B
  8
0
 10
-260.6293483796764
 20
95.496063158153078
 30
0.0
 11
-260.6293483796764
 21
27.496063158153131
 31
0.0
  0
LINE
  5
28C
  8
0
 10
-206.1293483796764
 20
95.496063158153078
 30
0.0
 11
-206.1293483796764
 21
27.496063158153131
 31
0.0
  0
LINE
  5
28D
  8
0
 10
-218.6293483796764
 20
95.496063158153078
 30
0.0
 11
-218.6293483796764
 21
27.496063158153131
 31
0.0
  0
LINE
  5
28E
  8
0
 10
-204.6293483796764
 20
95.496063158153078
 30
0.0
 11
-204.6293483796764
 21
27.496063158153131
 31
0.0
  0
LINE
  5
28F
  8
0
 10
-200.88578273838101
 20
106.4294743127699
 30
0.0
 11
-201.6293483796764
 21
29.496063158153131
 31
0.0
  0
LINE
  5
290
  8
0
 10
-246.6293483796764
 20
95.496063158153078
 30
0.0
 11
-246.6293483796764
 21
27.496063158153131
 31
0.0
  0
LINE
  5
291
  8
0
 10
-240.16534837967649
 20
3.4960631581531341
 30
0.0
 11
-225.09334837967631
 21
3.4960631581531341
 31
0.0
  0
LINE
  5
292
  8
0
 10
-243.16534837967649
 20
2.4960631581531341
 30
0.0
 11
-222.0933483796764
 21
2.4960631581531341
 31
0.0
  0
LINE
  5
293
  8
0
 10
-249.5112913958105
 20
3.4960631581531341
 30
0.0
 11
-215.7474053635423
 21
3.4960631581531341
 31
0.0
  0
ARC
  5
294
  8
0
 10
-320.1293483796764
 20
26.99606315815279
 30
0.0
 40
31.0
 50
302.99588547357951
 51
0.0
  0
ARC
  5
295
  8
0
 10
-252.41186347632919
 20
27.113372725068899
 30
0.0
 40
6.7283768766526313
 50
176.7394237284004
 51
259.57502944633751
  0
ARC
  5
296
  8
0
 10
-253.6293483796764
 20
27.496063158153131
 30
0.0
 40
7.0
 50
180.0
 51
0.0
  0
ARC
  5
297
  8
0
 10
-232.6293483796764
 20
29.496063158153131
 30
0.0
 40
31.0
 50
180.0
 51
237.00411452642041
  0
ARC
  5
298
  8
0
 10
-300.03459574184541
 20
24.368043228428402
 30
0.0
 40
6.4359616843719687
 50
278.08572460240032
 51
5.5998222228616896
  0
LINE
  5
299
  8
0
 10
-243.16534837967649
 20
3.4960631581530772
 30
0.0
 11
-243.16534837967649
 21
2.4960631581531341
 31
0.0
  0
ARC
  5
29A
  8
0
 10
-211.6293483796764
 20
27.496063158153131
 30
0.0
 40
7.0
 50
180.0
 51
0.0
  0
ARC
  5
29B
  8
0
 10
-212.53459574184549
 20
26.868043228428771
 30
0.0
 40
6.4359616843719687
 50
278.08572460240032
 51
5.5998222228616896
  0
ARC
  5
29C
  8
0
 10
-232.6293483796764
 20
29.496063158153131
 30
0.0
 40
31.0
 50
302.99588547357951
 51
0.0
  0
LINE
  5
29D
  8
0
 10
-222.0933483796764
 20
3.4960631581530772
 30
0.0
 11
-222.0933483796764
 21
2.4960631581531341
 31
0.0
  0
LINE
  5
29E
  8
0
  6
BYBLOCK
 10
-240.1293483796766
 20
170.99606315815291
 30
0.0
 11
-225.12934837967671
 21
170.99606315815291
 31
0.0
  0
LINE
  5
29F
  8
0
  6
BYBLOCK
 10
-225.27934837967649
 20
167.99606315815311
 30
0.0
 11
-239.97934837967659
 21
167.99606315815311
 31
0.0
  0
LINE
  5
2A0
  8
0
 10
-223.57934837967619
 20
167.99606315815311
 30
0.0
 11
-259.12934837967617
 21
167.99606315815311
 31
0.0
  0
LINE
  5
2A2
  8
CENTER
  6
CENTER
 10
-281.15973242182048
 20
142.99606315815311
 30
0.0
 11
-184.23410264310451
 21
142.99606315815311
 31
0.0
  0
LINE
  5
2A3
  8
0
  6
BYBLOCK
 10
-237.47300582890489
 20
149.69606315815309
 30
0.0
 11
-214.62934837967671
 21
149.69606315815309
 31
0.0
  0
LINE
  5
2A4
  8
0
  6
BYBLOCK
 10
-269.12934836467662
 20
133.99606315815319
 30
0.0
 11
-196.1293483946765
 21
133.99606315815331
 31
0.0
  0
LINE
  5
2A5
  8
0
  6
BYBLOCK
 10
-270.12934836467662
 20
127.99606315815311
 30
0.0
 11
-195.1293483946765
 21
127.99606315815311
 31
0.0
  0
LINE
  5
2A6
  8
0
 10
-232.6293483796764
 20
123.261225597844
 30
0.0
 11
-241.6293483796764
 21
120.49606315815301
 31
0.0
  0
LINE
  5
2A7
  8
0
 10
-241.6293483796764
 20
120.49606315815301
 30
0.0
 11
-223.6293483796764
 21
120.49606315815301
 31
0.0
  0
LINE
  5
2A8
  8
0
 10
-270.0397726478372
 20
112.1964904227639
 30
0.0
 11
-195.2361387400162
 21
112.1964904227638
 31
0.0
  0
LINE
  5
2A9
  8
0
 10
-270.12934836467662
 20
125.49606315815301
 30
0.0
 11
-195.1293483946765
 21
125.49606315815301
 31
0.0
  0
LINE
  5
2AA
  8
0
 10
-270.12934836467662
 20
125.49606315815321
 30
0.0
 11
-195.1293483946765
 21
125.49606315815301
 31
0.0
  0
LINE
  5
2AB
  8
0
 62
     7
 10
-285.12934837967629
 20
127.99606315815311
 30
0.0
 11
-285.12934837967629
 21
122.99606315815321
 31
0.0
  0
LINE
  5
2AC
  8
0
 10
-243.6293483796764
 20
113.1964904227638
 30
0.0
 11
-243.6293483796764
 21
125.49606315815301
 31
0.0
  0
LINE
  5
2AD
  8
0
 10
-270.12934836467662
 20
125.49606315815321
 30
0.0
 11
-270.12934836467662
 21
112.61016617094261
 31
0.0
  0
ARC
  5
2AE
  8
0
 10
-300.13900409827761
 20
93.542047950680455
 30
0.0
 40
6.5325123014341511
 50
355.20564847487941
 51
81.108804699858496
  0
LINE
  5
2AF
  8
0
 10
-293.1293483796764
 20
109.6964904227636
 30
0.0
 11
-280.1293483796764
 21
109.6964904227636
 31
0.0
  0
ARC
  5
2B0
  8
0
 10
-288.6293483796764
 20
117.49606315815269
 30
0.0
 40
0.5
 50
90.0
 51
180.0
  0
LINE
  5
2B1
  8
0
 10
-294.1293483796764
 20
110.6964904227636
 30
0.0
 11
-294.1293483796764
 21
117.49606315815269
 31
0.0
  0
LINE
  5
2B2
  8
0
 10
-289.1293483796764
 20
110.6964904227636
 30
0.0
 11
-289.1293483796764
 21
117.49606315815269
 31
0.0
  0
ARC
  5
2B3
  8
0
 10
-293.1293483796764
 20
110.6964904227636
 30
0.0
 40
1.0
 50
180.0
 51
270.0
  0
ARC
  5
2B4
  8
0
 10
-290.1293483796764
 20
110.6964904227636
 30
0.0
 40
1.0
 50
270.0
 51
0.0
  0
ARC
  5
2B5
  8
0
 10
-294.6293483796764
 20
117.49606315815269
 30
0.0
 40
0.5
 50
359.99999999999972
 51
90.000000000000725
  0
LINE
  5
2B6
  8
0
 10
-304.1293483796764
 20
110.6964904227636
 30
0.0
 11
-304.1293483796764
 21
117.49606315815269
 31
0.0
  0
LINE
  5
2B7
  8
0
 10
-299.1293483796764
 20
110.6964904227636
 30
0.0
 11
-299.1293483796764
 21
117.49606315815269
 31
0.0
  0
ARC
  5
2B8
  8
0
 10
-300.1293483796764
 20
110.6964904227636
 30
0.0
 40
1.0
 50
270.0
 51
0.0
  0
LINE
  5
2B9
  8
0
 10
-303.1293483796764
 20
109.6964904227636
 30
0.0
 11
-300.1293483796764
 21
109.6964904227636
 31
0.0
  0
ARC
  5
2BA
  8
0
 10
-303.1293483796764
 20
110.6964904227636
 30
0.0
 40
1.0
 50
180.0
 51
270.0
  0
ARC
  5
2BB
  8
0
 10
-304.6293483796764
 20
117.49606315815269
 30
0.0
 40
0.5
 50
0.0000000000002036
 51
90.0
  0
ARC
  5
2BC
  8
0
 10
-298.6293483796764
 20
117.49606315815269
 30
0.0
 40
0.5
 50
90.000000000000327
 51
180.0
  0
LINE
  5
2BD
  8
0
 10
-298.6293483796764
 20
117.99606315815269
 30
0.0
 11
-294.6293483796764
 21
117.99606315815269
 31
0.0
  0
LINE
  5
2BE
  8
0
 62
     7
 10
-284.68801673361997
 20
122.99606315815321
 30
0.0
 11
-282.72934837967631
 21
122.99606315815321
 31
0.0
  0
LINE
  5
2BF
  8
0
 10
-288.6293483796764
 20
117.99606315815269
 30
0.0
 11
-284.6293483796764
 21
117.99606315815269
 31
0.0
  0
LINE
  5
2C0
  8
0
 62
     7
 10
-288.72934837967631
 20
122.99606315815321
 30
0.0
 11
-284.68801673361997
 21
122.99606315815321
 31
0.0
  0
LINE
  5
2C1
  8
0
 10
-284.1293483796764
 20
110.6964904227636
 30
0.0
 11
-284.1293483796764
 21
117.49606315815269
 31
0.0
  0
ARC
  5
2C2
  8
0
 10
-283.1293483796764
 20
110.6964904227636
 30
0.0
 40
1.0
 50
180.0
 51
270.0
  0
ARC
  5
2C3
  8
0
 10
-281.1293483796764
 20
109.6964904227636
 30
0.0
 40
1.0
 50
289.98310652189957
 51
0.0000000000001145
  0
LINE
  5
2C4
  8
0
 10
-283.1293483796764
 20
109.6964904227636
 30
0.0
 11
-280.1293483796764
 21
109.6964904227636
 31
0.0
  0
LINE
  5
2C5
  8
0
 10
-280.1293483796764
 20
109.6964904227636
 30
0.0
 11
-280.1293483796764
 21
122.99606315815269
 31
0.0
  0
ARC
  5
2C6
  8
0
 10
-284.6293483796764
 20
117.49606315815269
 30
0.0
 40
0.5
 50
0.0000000000002036
 51
90.0
  0
ARC
  5
2C7
  8
0
 10
-286.3793483796764
 20
104.595208628931
 30
0.0
 40
2.0
 50
109.9831065218995
 51
180.0
  0
LINE
  5
2C8
  8
0
 10
-280.78760531658969
 20
108.75669699927511
 30
0.0
 11
-287.06283450584982
 21
106.4747954759079
 31
0.0
  0
ARC
  5
2C9
  8
0
 10
-253.6293483796764
 20
95.496063158153078
 30
0.0
 40
7.0
 50
0.0
 51
180.0
  0
ARC
  5
2CA
  8
0
 10
-249.03477275210969
 20
93.225325165065072
 30
0.0
 40
10.34682116081626
 50
116.3630047583348
 51
167.32254206692741
  0
LINE
  5
2CB
  8
0
 10
-258.1293483796764
 20
120.49606315815289
 30
0.0
 11
-254.1293483796764
 21
120.49606315815301
 31
0.0
  0
ARC
  5
2CC
  8
0
 10
-258.1293483796764
 20
119.99606315815289
 30
0.0
 40
0.5
 50
90.000000000000327
 51
180.0
  0
ARC
  5
2CD
  8
0
 10
-259.6293483796764
 20
113.1964904227638
 30
0.0
 40
1.0
 50
270.0
 51
0.0
  0
LINE
  5
2CE
  8
0
 10
-258.6293483796764
 20
113.1964904227638
 30
0.0
 11
-258.6293483796764
 21
119.99606315815289
 31
0.0
  0
ARC
  5
2CF
  8
0
 10
-264.1293483796764
 20
119.99606315815301
 30
0.0
 40
0.5
 50
0.0000000000002036
 51
90.0
  0
LINE
  5
2D0
  8
0
 10
-268.1293483796764
 20
120.49606315815301
 30
0.0
 11
-264.1293483796764
 21
120.49606315815301
 31
0.0
  0
ARC
  5
2D1
  8
0
 10
-268.1293483796764
 20
119.99606315815301
 30
0.0
 40
0.5
 50
90.000000000000355
 51
180.0000000000002
  0
ARC
  5
2D2
  8
0
 10
-269.6293483796764
 20
113.1964904227638
 30
0.0
 40
1.0
 50
270.0
 51
0.0000000000004198
  0
ARC
  5
2D3
  8
0
 10
-269.12934836467662
 20
112.61016617094261
 30
0.0
 40
1.0
 50
180.0
 51
224.9473863856833
  0
LINE
  5
2D4
  8
0
 10
-263.6293483796764
 20
113.1964904227638
 30
0.0
 11
-263.6293483796764
 21
119.99606315815301
 31
0.0
  0
LINE
  5
2D5
  8
0
 10
-268.6293483796764
 20
113.1964904227638
 30
0.0
 11
-268.6293483796764
 21
119.99606315815301
 31
0.0
  0
ARC
  5
2D6
  8
0
 10
-262.6293483796764
 20
113.1964904227638
 30
0.0
 40
1.0
 50
180.0
 51
270.0
  0
ARC
  5
2D7
  8
0
 10
-265.8669288275234
 20
105.80296449477051
 30
0.0
 40
1.5
 50
0.5537496115755838
 51
44.947386385683373
  0
LINE
  5
2D8
  8
0
 10
-269.8371041702232
 20
111.9037090103766
 30
0.0
 11
-264.80529511920338
 21
106.8626502356196
 31
0.0
  0
ARC
  5
2D9
  8
0
 10
-254.1293483796764
 20
119.99606315815301
 30
0.0
 40
0.5
 50
359.99999999999972
 51
90.000000000000725
  0
ARC
  5
2DA
  8
0
 10
-248.1293483796764
 20
119.99606315815301
 30
0.0
 40
0.5
 50
90.0
 51
180.0
  0
LINE
  5
2DB
  8
0
 10
-248.1293483796764
 20
120.49606315815301
 30
0.0
 11
-244.1293483796764
 21
120.49606315815301
 31
0.0
  0
ARC
  5
2DC
  8
0
 10
-244.1293483796764
 20
119.99606315815301
 30
0.0
 40
0.5
 50
0.0000000000002036
 51
90.0
  0
ARC
  5
2DD
  8
0
 10
-242.6293483796764
 20
113.1964904227638
 30
0.0
 40
1.0
 50
180.0
 51
270.0
  0
ARC
  5
2DE
  8
0
 10
-252.6293483796764
 20
113.1964904227638
 30
0.0
 40
1.0
 50
180.0
 51
270.0
  0
ARC
  5
2DF
  8
0
 10
-249.6293483796764
 20
113.1964904227638
 30
0.0
 40
1.0
 50
270.0
 51
0.0
  0
LINE
  5
2E0
  8
0
 10
-243.6293483796764
 20
113.1964904227638
 30
0.0
 11
-243.6293483796764
 21
119.99606315815301
 31
0.0
  0
LINE
  5
2E1
  8
0
 10
-253.6293483796764
 20
113.1964904227638
 30
0.0
 11
-253.6293483796764
 21
119.99606315815301
 31
0.0
  0
LINE
  5
2E2
  8
0
 10
-248.6293483796764
 20
113.1964904227638
 30
0.0
 11
-248.6293483796764
 21
119.99606315815301
 31
0.0
  0
LINE
  5
2E3
  8
0
  6
BYBLOCK
 10
-271.06689789296519
 20
134.80837016399201
 30
0.0
 11
-272.04918781396458
 21
139.28747342952329
 31
0.0
  0
LINE
  5
2E4
  8
0
  6
BYBLOCK
 10
-272.04918781396458
 20
139.28747342952329
 30
0.0
 11
-271.06689789296519
 21
142.57888370089341
 31
0.0
  0
LINE
  5
2E5
  8
0
  6
BYBLOCK
 10
-271.06689789296519
 20
142.57888370089341
 30
0.0
 11
-272.04918781396458
 21
146.2874734295232
 31
0.0
  0
LINE
  5
2E6
  8
0
  6
BYBLOCK
 10
-272.04918781396458
 20
146.2874734295232
 30
0.0
 11
-271.06689789296519
 21
150.10307294083799
 31
0.0
  0
LINE
  5
2E7
  8
0
  6
BYBLOCK
 10
-271.06689789296519
 20
152.78747342952329
 30
0.0
 11
-271.56689789296519
 21
153.2874734295232
 31
0.0
  0
LINE
  5
2E8
  8
0
  6
BYBLOCK
 10
-271.06689789296519
 20
131.7874734295232
 30
0.0
 11
-271.56689789296519
 21
131.2874734295232
 31
0.0
  0
LINE
  5
2E9
  8
0
  6
BYBLOCK
 10
-279.06689789296519
 20
150.7665766950544
 30
0.0
 11
-278.0846079719658
 21
146.2874734295232
 31
0.0
  0
LINE
  5
2EA
  8
0
  6
BYBLOCK
 10
-279.06689789296519
 20
152.78747342952329
 30
0.0
 11
-279.06689789296519
 21
131.7874734295232
 31
0.0
  0
LINE
  5
2EB
  8
0
 62
     7
 10
-280.1293483796764
 20
155.99606315815311
 30
0.0
 11
-280.1293483796764
 21
128.99606315815311
 31
0.0
  0
LINE
  5
2EC
  8
0
 62
     7
 10
-283.1293483796764
 20
156.99606315815311
 30
0.0
 11
-284.1420506949371
 21
127.99606315815311
 31
0.0
  0
LINE
  5
2ED
  8
CENTER
  6
CENTER
 10
-297.33798572761452
 20
142.99606315815311
 30
0.0
 11
-277.55942182174692
 21
142.99606315815311
 31
0.0
  0
LINE
  5
2EF
  8
0
  6
BYBLOCK
 10
-272.04918781396458
 20
139.28747342952329
 30
0.0
 11
-278.0846079719658
 21
139.28747342952329
 31
0.0
  0
LINE
  5
2F0
  8
0
  6
BYBLOCK
 10
-278.0846079719658
 20
139.28747342952329
 30
0.0
 11
-279.06689789296519
 21
135.4718739182085
 31
0.0
  0
LINE
  5
2F1
  8
0
  6
BYBLOCK
 10
-279.06689789296519
 20
142.99606315815311
 30
0.0
 11
-278.0846079719658
 21
139.28747342952329
 31
0.0
  0
LINE
  5
2F2
  8
0
  6
BYBLOCK
 10
-278.0846079719658
 20
146.2874734295232
 30
0.0
 11
-279.06689789296519
 21
142.99606315815311
 31
0.0
  0
LINE
  5
2F3
  8
0
  6
BYBLOCK
 10
-279.06689789296519
 20
131.7874734295232
 30
0.0
 11
-278.56689789296519
 21
131.2874734295232
 31
0.0
  0
LINE
  5
2F4
  8
0
  6
BYBLOCK
 10
-280.1293483796764
 20
134.31755546679361
 30
0.0
 11
-279.06689789296519
 21
134.31755546679361
 31
0.0
  0
LINE
  5
2F5
  8
0
  6
BYBLOCK
 10
-272.04918781396458
 20
139.28747342952329
 30
0.0
 11
-278.0846079719658
 21
139.28747342952329
 31
0.0
  0
LINE
  5
2F6
  8
0
  6
BYBLOCK
 10
-272.04918781396458
 20
146.2874734295232
 30
0.0
 11
-278.0846079719658
 21
146.2874734295232
 31
0.0
  0
LINE
  5
2F7
  8
0
  6
BYBLOCK
 10
-278.56689789296519
 20
131.2874734295232
 30
0.0
 11
-271.56689789296519
 21
131.2874734295232
 31
0.0
  0
ARC
  5
2FB
  8
0
 62
     7
 10
-281.1293483796764
 20
128.99606315815311
 30
0.0
 40
1.0
 50
270.0
 51
359.99999999999989
  0
LINE
  5
2FD
  8
0
 10
-291.1293483796764
 20
171.99606315815311
 30
0.0
 11
-277.6293483796764
 21
171.99606315815311
 31
0.0
  0
LINE
  5
2FE
  8
0
  6
BYBLOCK
 10
-278.56689789296519
 20
153.2874734295232
 30
0.0
 11
-279.06689789296519
 21
152.78747342952329
 31
0.0
  0
LINE
  5
2FF
  8
0
  6
BYBLOCK
 10
-280.1293483796764
 20
150.7665766950544
 30
0.0
 11
-279.06689789296519
 21
150.7665766950544
 31
0.0
  0
LINE
  5
300
  8
0
  6
BYBLOCK
 10
-271.56689789296519
 20
153.2874734295232
 30
0.0
 11
-278.56689789296519
 21
153.2874734295232
 31
0.0
  0
ARC
  5
301
  8
0
 10
-277.6293483796764
 20
171.49606315815311
 30
0.0
 40
0.5
 50
0.0
 51
90.0
  0
LINE
  5
302
  8
0
 62
     7
 10
-276.62934837967629
 20
161.99606315815311
 30
0.0
 11
-276.62934837967629
 21
157.496062349911
 31
0.0
  0
ARC
  5
303
  8
0
 62
     7
 10
-277.12934837967629
 20
157.49606315815299
 30
0.0
 40
0.5
 50
270.0
 51
0.0
  0
LINE
  5
308
  8
0
 62
     7
 10
-277.6293483796764
 20
162.99606315815311
 30
0.0
 11
-276.62934837967629
 21
161.99606315815311
 31
0.0
  0
ARC
  5
30A
  8
0
 62
     7
 10
-279.12934837967629
 20
155.99606315815311
 30
0.0
 40
1.0
 50
90.0
 51
180.0
  0
LINE
  5
30C
  8
0
 10
-277.1293483796764
 20
171.49606315815311
 30
0.0
 11
-277.1293483796764
 21
162.99606315815311
 31
0.0
  0
LINE
  5
30D
  8
0
  6
BYBLOCK
 10
-271.06689789296519
 20
131.7874734295232
 30
0.0
 11
-271.06689789296519
 21
152.78747342952329
 31
0.0
  0
LINE
  5
30E
  8
0
  6
BYBLOCK
 10
-270.12934836467662
 20
132.99606315815311
 30
0.0
 11
-270.12934836467662
 21
156.99606315815311
 31
0.0
  0
LINE
  5
30F
  8
0
  6
BYBLOCK
 10
-259.62934837967617
 20
158.99606315815311
 30
0.0
 11
-259.62934837967617
 21
134.99606315815311
 31
0.0
  0
LINE
  5
310
  8
CENTER
  6
CENTER
 10
-238.4730058289048
 20
169.99606315815299
 30
0.0
 11
-238.4730058289048
 21
134.99606315815319
 31
0.0
  0
LINE
  5
311
  8
0
  6
BYBLOCK
 10
-271.06689789296519
 20
134.31755546679361
 30
0.0
 11
-270.12934836467662
 21
134.31755546679361
 31
0.0
  0
ARC
  5
312
  8
0
  6
BYBLOCK
 10
-260.62934837967617
 20
134.99606315815311
 30
0.0
 40
1.0
 50
270.0
 51
0.0
  0
ARC
  5
313
  8
0
  6
BYBLOCK
 10
-269.12934836467662
 20
132.99606315815311
 30
0.0
 40
1.0
 50
90.0
 51
180.0
  0
LINE
  5
314
  8
0
  6
BYBLOCK
 10
-270.12934836467662
 20
127.99606315815311
 30
0.0
 11
-270.12934836467662
 21
132.99606315815311
 31
0.0
  0
LINE
  5
315
  8
0
 10
-267.62934836467662
 20
127.99606315815311
 30
0.0
 11
-267.62934836467662
 21
125.49606315815321
 31
0.0
  0
ARC
  5
316
  8
0
  6
BYBLOCK
 10
-237.47300582890489
 20
134.99606315815319
 30
0.0
 40
1.0
 50
179.99999999999989
 51
270.00000000000011
  0
LINE
  5
317
  8
0
 10
-238.4730058289046
 20
167.99606315815311
 30
0.0
 11
-258.4730058289046
 21
167.99606315815311
 31
0.0
  0
LINE
  5
318
  8
0
 10
-238.9730058289048
 20
170.49606315815311
 30
0.0
 11
-257.9730058289046
 21
170.49606315815311
 31
0.0
  0
LINE
  5
319
  8
0
  6
BYBLOCK
 10
-271.06689789296519
 20
150.7665766950544
 30
0.0
 11
-270.12934836467662
 21
150.7665766950544
 31
0.0
  0
LINE
  5
31A
  8
0
  6
BYBLOCK
 10
-257.4730058289046
 20
170.49606315815311
 30
0.0
 11
-257.4730058289046
 21
167.99606315815311
 31
0.0
  0
LINE
  5
31B
  8
0
 10
-258.4730058289046
 20
169.99606315815299
 30
0.0
 11
-257.9730058289046
 21
170.49606315815311
 31
0.0
  0
ARC
  5
31C
  8
0
 10
-259.12934837967617
 20
167.49606315815311
 30
0.0
 40
0.5
 50
90.0
 51
180.0
  0
LINE
  5
31D
  8
0
  6
BYBLOCK
 10
-258.4730058289046
 20
169.99606315815299
 30
0.0
 11
-258.4730058289046
 21
167.99606315815311
 31
0.0
  0
LINE
  5
31E
  8
0
  6
BYBLOCK
 10
-255.4730058289046
 20
170.49606315815311
 30
0.0
 11
-255.4730058289046
 21
167.99606315815311
 31
0.0
  0
LINE
  5
31F
  8
0
  6
BYBLOCK
 10
-254.4730058289046
 20
170.49606315815311
 30
0.0
 11
-254.4730058289046
 21
167.99606315815311
 31
0.0
  0
LINE
  5
320
  8
0
  6
BYBLOCK
 10
-256.4730058289046
 20
170.49606315815311
 30
0.0
 11
-256.4730058289046
 21
167.99606315815311
 31
0.0
  0
ARC
  5
321
  8
0
  6
BYBLOCK
 10
-260.62934837967617
 20
158.99606315815311
 30
0.0
 40
1.0
 50
270.0
 51
0.0
  0
ARC
  5
322
  8
0
  6
BYBLOCK
 10
-269.12934836467662
 20
156.99606315815311
 30
0.0
 40
1.0
 50
90.0
 51
180.0
  0
LINE
  5
323
  8
0
  6
BYBLOCK
 10
-269.12934836467662
 20
157.99606315815311
 30
0.0
 11
-260.62934837967617
 21
157.99606315815311
 31
0.0
  0
LINE
  5
324
  8
0
 10
-259.62934837967617
 20
167.49606315815311
 30
0.0
 11
-259.62934837967617
 21
158.99606315815311
 31
0.0
  0
LINE
  5
325
  8
0
  6
BYBLOCK
 10
-238.9730058289048
 20
170.49606315815311
 30
0.0
 11
-238.4730058289048
 21
169.99606315815299
 31
0.0
  0
LINE
  5
326
  8
0
  6
BYBLOCK
 10
-239.4730058289046
 20
170.49606315815311
 30
0.0
 11
-239.4730058289046
 21
167.99606315815311
 31
0.0
  0
LINE
  5
327
  8
0
  6
BYBLOCK
 10
-241.4730058289046
 20
170.49606315815311
 30
0.0
 11
-241.4730058289046
 21
167.99606315815311
 31
0.0
  0
LINE
  5
328
  8
0
  6
BYBLOCK
 10
-240.4730058289046
 20
170.49606315815311
 30
0.0
 11
-240.4730058289046
 21
167.99606315815311
 31
0.0
  0
LINE
  5
329
  8
0
 10
-242.12934837967671
 20
170.99606315815291
 30
0.0
 11
-242.12934837967671
 21
170.49606315815311
 31
0.0
  0
LINE
  5
32A
  8
0
 10
-240.1293483796766
 20
170.99606315815291
 30
0.0
 11
-242.12934837967671
 21
170.99606315815291
 31
0.0
  0
LINE
  5
32B
  8
0
 10
-239.97934837967659
 20
167.99606315815311
 30
0.0
 11
-242.12934837967671
 21
167.99606315815311
 31
0.0
  0
LINE
  5
32C
  8
0
  6
BYBLOCK
 10
-242.4730058289046
 20
170.49606315815311
 30
0.0
 11
-242.4730058289046
 21
167.99606315815311
 31
0.0
  0
LINE
  5
32D
  8
0
  6
BYBLOCK
 10
-243.4730058289046
 20
170.49606315815311
 30
0.0
 11
-243.4730058289046
 21
167.99606315815311
 31
0.0
  0
LINE
  5
32E
  8
0
  6
BYBLOCK
 10
-243.4730058289046
 20
170.49606315815311
 30
0.0
 11
-243.4730058289046
 21
167.99606315815311
 31
0.0
  0
LINE
  5
32F
  8
0
  6
BYBLOCK
 10
-244.4730058289046
 20
170.49606315815311
 30
0.0
 11
-244.4730058289046
 21
167.99606315815311
 31
0.0
  0
LINE
  5
330
  8
0
  6
BYBLOCK
 10
-245.4730058289046
 20
170.49606315815311
 30
0.0
 11
-245.4730058289046
 21
167.99606315815311
 31
0.0
  0
LINE
  5
331
  8
0
  6
BYBLOCK
 10
-253.4730058289046
 20
170.49606315815311
 30
0.0
 11
-253.4730058289046
 21
167.99606315815311
 31
0.0
  0
LINE
  5
332
  8
0
  6
BYBLOCK
 10
-247.4730058289046
 20
170.49606315815311
 30
0.0
 11
-247.4730058289046
 21
167.99606315815311
 31
0.0
  0
LINE
  5
333
  8
0
  6
BYBLOCK
 10
-246.4730058289046
 20
170.49606315815311
 30
0.0
 11
-246.4730058289046
 21
167.99606315815311
 31
0.0
  0
LINE
  5
334
  8
0
  6
BYBLOCK
 10
-251.4730058289046
 20
170.49606315815311
 30
0.0
 11
-251.4730058289046
 21
167.99606315815311
 31
0.0
  0
LINE
  5
335
  8
0
  6
BYBLOCK
 10
-252.4730058289046
 20
170.49606315815311
 30
0.0
 11
-252.4730058289046
 21
167.99606315815311
 31
0.0
  0
LINE
  5
336
  8
0
  6
BYBLOCK
 10
-249.4730058289046
 20
170.49606315815311
 30
0.0
 11
-249.4730058289046
 21
167.99606315815311
 31
0.0
  0
LINE
  5
337
  8
0
  6
BYBLOCK
 10
-250.4730058289046
 20
170.49606315815311
 30
0.0
 11
-250.4730058289046
 21
167.99606315815311
 31
0.0
  0
ARC
  5
339
  8
0
  6
BYBLOCK
 10
-237.47300582890489
 20
150.69606315815309
 30
0.0
 40
1.0
 50
180.0
 51
270.0
  0
LINE
  5
33A
  8
0
 10
-195.1293483946765
 20
125.49606315815301
 30
0.0
 11
-195.1293483946765
 21
112.64613084890669
 31
0.0
  0
LINE
  5
33B
  8
0
 10
-221.6293483796764
 20
113.1964904227639
 30
0.0
 11
-221.6293483796764
 21
125.49606315815301
 31
0.0
  0
ARC
  5
33C
  8
0
 10
-202.6293483796764
 20
113.1964904227639
 30
0.0
 40
1.0
 50
270.0
 51
0.0
  0
ARC
  5
33D
  8
0
 10
-212.63900409827761
 20
96.042047950680782
 30
0.0
 40
6.5325123014341511
 50
355.20564847487941
 51
81.108804699858496
  0
ARC
  5
33E
  8
0
 10
-211.6293483796764
 20
95.496063158153078
 30
0.0
 40
7.0
 50
0.0
 51
180.0
  0
LINE
  5
33F
  8
0
 10
-221.1293483796764
 20
120.49606315815301
 30
0.0
 11
-217.1293483796764
 21
120.49606315815301
 31
0.0
  0
LINE
  5
340
  8
0
 10
-232.6293483796764
 20
123.261225597844
 30
0.0
 11
-223.6293483796764
 21
120.49606315815301
 31
0.0
  0
ARC
  5
341
  8
0
 10
-221.1293483796764
 20
119.99606315815301
 30
0.0
 40
0.5
 50
89.999999999999915
 51
180.0000000000002
  0
ARC
  5
342
  8
0
 10
-222.6293483796764
 20
113.1964904227639
 30
0.0
 40
1.0
 50
270.0
 51
0.0000000000004198
  0
ARC
  5
343
  8
0
 10
-207.1293483796764
 20
119.99606315815301
 30
0.0
 40
0.5
 50
359.99999999999972
 51
90.000000000000725
  0
ARC
  5
344
  8
0
 10
-211.1293483796764
 20
119.99606315815301
 30
0.0
 40
0.5
 50
90.000000000000327
 51
180.0
  0
LINE
  5
345
  8
0
 10
-211.1293483796764
 20
120.49606315815301
 30
0.0
 11
-207.1293483796764
 21
120.49606315815301
 31
0.0
  0
ARC
  5
346
  8
0
 10
-217.1293483796764
 20
119.99606315815301
 30
0.0
 40
0.5
 50
0.0000000000002036
 51
90.0
  0
ARC
  5
347
  8
0
 10
-205.6293483796764
 20
113.1964904227639
 30
0.0
 40
1.0
 50
180.0
 51
270.0
  0
ARC
  5
348
  8
0
 10
-215.6293483796764
 20
113.1964904227639
 30
0.0
 40
1.0
 50
180.0
 51
270.0
  0
LINE
  5
349
  8
0
 10
-215.6293483796764
 20
112.1964904227639
 30
0.0
 11
-212.6293483796764
 21
112.1964904227639
 31
0.0
  0
ARC
  5
34A
  8
0
 10
-212.6293483796764
 20
113.1964904227639
 30
0.0
 40
1.0
 50
270.0
 51
0.0
  0
LINE
  5
34B
  8
0
 10
-206.6293483796764
 20
113.1964904227639
 30
0.0
 11
-206.6293483796764
 21
119.99606315815301
 31
0.0
  0
LINE
  5
34C
  8
0
 10
-211.6293483796764
 20
113.1964904227639
 30
0.0
 11
-211.6293483796764
 21
119.99606315815301
 31
0.0
  0
LINE
  5
34D
  8
0
 10
-216.6293483796764
 20
113.1964904227639
 30
0.0
 11
-216.6293483796764
 21
119.99606315815301
 31
0.0
  0
ARC
  5
34E
  8
0
 10
-197.1293483796764
 20
119.99606315815301
 30
0.0
 40
0.5
 50
0.0000000000002036
 51
90.0
  0
ARC
  5
34F
  8
0
 10
-201.1293483796764
 20
119.99606315815301
 30
0.0
 40
0.5
 50
90.0
 51
180.0
  0
LINE
  5
350
  8
0
 10
-201.1293483796764
 20
120.49606315815301
 30
0.0
 11
-197.1293483796764
 21
120.49606315815301
 31
0.0
  0
ARC
  5
351
  8
0
 10
-196.1293483946765
 20
112.64613084890669
 30
0.0
 40
1.0
 50
311.57877936227942
 51
0.0
  0
ARC
  5
352
  8
0
 10
-195.6293483796764
 20
113.1964904227639
 30
0.0
 40
1.0
 50
180.0
 51
270.0
  0
LINE
  5
353
  8
0
 10
-195.46569918953151
 20
111.8980869113532
 30
0.0
 11
-200.38132660115471
 21
107.5370433138587
 31
0.0
  0
LINE
  5
354
  8
0
 10
-196.6293483796764
 20
113.1964904227639
 30
0.0
 11
-196.6293483796764
 21
119.99606315815301
 31
0.0
  0
LINE
  5
355
  8
0
 10
-201.6293483796764
 20
113.1964904227639
 30
0.0
 11
-201.6293483796764
 21
119.99606315815301
 31
0.0
  0
ARC
  5
356
  8
0
 10
-199.38585279343729
 20
106.4149774075284
 30
0.0
 40
1.5
 50
131.57877936227931
 51
179.4462503884244
  0
LINE
  5
357
  8
0
  6
BYBLOCK
 10
-213.6293483796766
 20
157.99606315815319
 30
0.0
 11
-196.1293483946765
 21
157.99606315815311
 31
0.0
  0
ARC
  5
358
  8
0
  6
BYBLOCK
 10
-207.6293483796764
 20
160.99606315815311
 30
0.0
 40
5.0
 50
359.9999999999996
 51
90.0
  0
LINE
  5
359
  8
0
  6
BYBLOCK
 10
-213.6293483796766
 20
157.99606315815319
 30
0.0
 11
-213.6293483796764
 21
134.99606315815319
 31
0.0
  0
ARC
  5
35A
  8
0
  6
BYBLOCK
 10
-214.6293483796764
 20
134.99606315815319
 30
0.0
 40
1.0
 50
270.00000000000011
 51
0.0
  0
LINE
  5
35B
  8
0
 10
-215.6293483796762
 20
171.8629119078619
 30
0.0
 11
-223.6293483796762
 21
171.8629119078619
 31
0.0
  0
LINE
  5
35C
  8
0
 10
-216.1293483796762
 20
171.3629119078619
 30
0.0
 11
-223.1293483796762
 21
171.3629119078619
 31
0.0
  0
LINE
  5
35D
  8
0
 10
-216.67934837967641
 20
167.99606315815311
 30
0.0
 11
-222.5793483796763
 21
167.99606315815311
 31
0.0
  0
LINE
  5
35E
  8
0
  6
BYBLOCK
 10
-223.12934837967671
 20
167.99606315815311
 30
0.0
 11
-215.1293483796766
 21
167.99606315815311
 31
0.0
  0
LINE
  5
362
  8
0
 10
-222.5793483796763
 20
171.3629119078619
 30
0.0
 11
-222.5793483796763
 21
167.99606315815311
 31
0.0
  0
LINE
  5
363
  8
0
  6
BYBLOCK
 62
     0
 10
-222.5793483796763
 20
168.66272982481979
 30
0.0
 11
-222.5793483796763
 21
171.3629119078619
 31
0.0
  0
LINE
  5
364
  8
0
 10
-223.12934837967671
 20
170.99606315815299
 30
0.0
 11
-223.12934837967671
 21
167.99606315815311
 31
0.0
  0
ARC
  5
365
  8
0
  6
BYBLOCK
 10
-223.57934837967619
 20
166.99606315815311
 30
0.0
 40
1.0
 50
0.0
 51
90.000000000000099
  0
LINE
  5
366
  8
0
 10
-223.12934837967671
 20
170.99606315815299
 30
0.0
 11
-225.12934837967671
 21
170.99606315815299
 31
0.0
  0
LINE
  5
367
  8
0
 10
-223.12934837967671
 20
167.99606315815311
 30
0.0
 11
-225.27934837967649
 21
167.99606315815311
 31
0.0
  0
LINE
  5
368
  8
0
 10
-223.6293483796762
 20
171.8629119078619
 30
0.0
 11
-223.1293483796762
 21
171.3629119078619
 31
0.0
  0
LINE
  5
369
  8
0
  6
BYBLOCK
 10
-222.5793483796763
 20
166.99606315815311
 30
0.0
 11
-222.5793483796763
 21
149.69606315815309
 31
0.0
  0
LINE
  5
36A
  8
0
 10
-213.6293483796766
 20
166.49606315815311
 30
0.0
 11
-213.6293483796766
 21
165.99606315815311
 31
0.0
  0
LINE
  5
36C
  8
0
  6
BYBLOCK
 62
     0
 10
-216.67934837967641
 20
167.99606315815311
 30
0.0
 11
-216.67934837967641
 21
169.3629119078619
 31
0.0
  0
LINE
  5
36D
  8
0
 10
-216.67934837967641
 20
171.3629119078619
 30
0.0
 11
-216.67934837967641
 21
167.99606315815311
 31
0.0
  0
ARC
  5
36E
  8
0
  6
BYBLOCK
 10
-215.1293483796766
 20
166.49606315815311
 30
0.0
 40
1.5
 50
359.99999999999977
 51
90.0
  0
LINE
  5
36F
  8
0
 10
-213.6293483796766
 20
165.99606315815311
 30
0.0
 11
-207.6293483796764
 21
165.99606315815311
 31
0.0
  0
LINE
  5
370
  8
0
 10
-215.6293483796762
 20
171.8629119078619
 30
0.0
 11
-216.1293483796762
 21
171.3629119078619
 31
0.0
  0
LINE
  5
371
  8
0
  6
BYBLOCK
 10
-202.6293483796764
 20
160.99606315815311
 30
0.0
 11
-202.6293483796764
 21
157.99606315815319
 31
0.0
  0
ARC
  5
372
  8
0
  6
BYBLOCK
 10
-214.62934837967671
 20
150.69606315815309
 30
0.0
 40
1.0
 50
270.00000000000011
 51
0.0
  0
LINE
  5
373
  8
0
  6
BYBLOCK
 10
-195.1293483946765
 20
132.99606315815311
 30
0.0
 11
-195.1293483946765
 21
156.99606315815311
 31
0.0
  0
ARC
  5
374
  8
0
  6
BYBLOCK
 10
-196.1293483946765
 20
132.99606315815311
 30
0.0
 40
1.0
 50
0.0
 51
90.0
  0
LINE
  5
375
  8
0
  6
BYBLOCK
 10
-195.1293483946765
 20
127.99606315815311
 30
0.0
 11
-195.1293483946765
 21
132.99606315815311
 31
0.0
  0
LINE
  5
376
  8
0
 10
-197.6293483946765
 20
127.99606315815311
 30
0.0
 11
-197.6293483946765
 21
125.49606315815301
 31
0.0
  0
ARC
  5
377
  8
0
  6
BYBLOCK
 10
-196.1293483946765
 20
156.99606315815311
 30
0.0
 40
1.0
 50
0.0
 51
89.999999999999915
  0
ARC
  5
3BD
  8
0
 10
-219.6293483796766
 20
368.06525852263383
 30
0.0
 40
2.0
 50
239.47751218592751
 51
30.522487814071042
  0
LINE
  5
3BE
  8
0
  6
BYBLOCK
 10
-221.36744505541861
 20
365.6200550657054
 30
0.0
 11
-217.1841449227482
 21
369.8033551983757
 31
0.0
  0
LINE
  5
3BF
  8
0
  6
BYBLOCK
 10
-222.074551836605
 20
366.3271618468919
 30
0.0
 11
-217.89125170393461
 21
370.51046197956219
 31
0.0
  0
DIMENSION
  5
3C0
  8
DIM
  6
BYBLOCK
  2
*D14
 10
-177.27245352722409
 20
315.06525852263383
 30
0.0
 11
-179.77245352722409
 21
355.06525852263383
 31
0.0
  1
%%c<>
 13
-232.6293483796764
 23
395.06525852263383
 33
0.0
 14
-232.6293483796764
 24
315.06525852263383
 34
0.0
 50
90.0
  0
DIMENSION
  5
3CD
  8
DIM
  6
BYBLOCK
  2
*D15
 10
-195.1293483796764
 20
449.80333393730319
 30
0.0
 11
-279.1293483796764
 21
452.30333393730319
 31
0.0
 13
-363.1293483796764
 23
355.06525852263383
 33
0.0
 14
-195.1293483796764
 24
368.98466942970879
 34
0.0
  0
DIMENSION
  5
3DA
  8
DIM
  6
BYBLOCK
  2
*D16
 10
-376.62058906476699
 20
312.06525852263383
 30
0.0
 11
-379.12058906476699
 21
355.06525852263383
 31
0.0
  1
%%c<>
 13
-320.1293483796764
 23
398.06525852263383
 33
0.0
 14
-320.1293483796764
 24
312.06525852263383
 34
0.0
 50
90.0
  0
CIRCLE
  5
3E7
  8
0
 10
-320.12934837967651
 20
355.06525852263383
 30
0.0
 40
19.0
  0
CIRCLE
  5
3E8
  8
CENTER
  6
CENTER
 10
-320.12934837967651
 20
355.06525852263383
 30
0.0
 40
36.0
  0
ARC
  5
3E9
  8
0
 10
-320.1293483796764
 20
355.06525852263383
 30
0.0
 40
43.0
 50
12.832891382816429
 51
347.61920108285619
  0
CIRCLE
  5
3EA
  8
0
 10
-320.12934837967651
 20
355.06525852263383
 30
0.0
 40
27.5
  0
LINE
  5
3EB
  8
CENTER
  6
CENTER
 10
-320.12934837967651
 20
424.76299250628881
 30
0.0
 11
-320.1293483796764
 21
300.98731083672192
 31
0.0
  0
LINE
  5
3EC
  8
0
 10
-195.1293483796766
 20
368.9846694297085
 30
0.0
 11
-195.1293483796766
 21
341.14584761555881
 31
0.0
  0
ARC
  5
3ED
  8
0
 10
-254.1293483796764
 20
368.06525852263383
 30
0.0
 40
2.0
 50
0.0
 51
90.0
  0
ARC
  5
3EE
  8
0
 10
-232.6293483796764
 20
355.06525852263383
 30
0.0
 40
11.0
 50
67.063191976693744
 51
195.49180655004801
  0
LINE
  5
3EF
  8
0
 10
-270.1293483796764
 20
368.98466942970902
 30
0.0
 11
-270.1293483796764
 21
341.14584761555881
 31
0.0
  0
ARC
  5
3F0
  8
0
 10
-219.6293483796766
 20
368.06525852263383
 30
0.0
 40
2.0
 50
59.477512185930351
 51
210.52248781407101
  0
CIRCLE
  5
3F1
  8
0
 10
-219.6293483796766
 20
368.06525852263383
 30
0.0
 40
3.0
  0
LINE
  5
3F2
  8
CENTER
  6
CENTER
 10
-219.6293483796766
 20
360.43220239296761
 30
0.0
 11
-219.6293483796766
 21
375.53561367640708
 31
0.0
  0
ARC
  5
3F3
  8
0
 10
-219.6293483796766
 20
368.06525852263383
 30
0.0
 40
6.0
 50
262.61822134794141
 51
187.38177865205861
  0
ARC
  5
3F4
  8
0
 10
-219.6293483796766
 20
368.06525852263383
 30
0.0
 40
7.0
 50
26.38780827595992
 51
184.0652250891913
  0
LINE
  5
3F5
  8
CENTER
  6
CENTER
 10
-232.6293483796764
 20
400.81169341547218
 30
0.0
 11
-232.6293483796764
 21
306.55303809203082
 31
0.0
  0
LINE
  5
3F6
  8
CENTER
  6
CENTER
 10
-350.73925849403622
 20
252.49606315815311
 30
0.0
 11
-289.1828734894334
 21
252.49606315815311
 31
0.0
  0
DIMENSION
  5
3F7
  8
DIM
  6
BYBLOCK
  2
*D17
 10
-280.12934837967651
 20
278.73329831480299
 30
0.0
 11
-320.12934837967651
 21
281.23329831480299
 31
0.0
 13
-360.1293483796764
 23
191.79066660529551
 33
0.0
 14
-280.12934837967651
 24
191.79066660529551
 34
0.0
  0
LINE
  5
404
  8
CENTER
  6
CENTER
 10
-367.08022465751912
 20
355.06525852263383
 30
0.0
 11
-270.6293483796764
 21
355.06525852263383
 31
0.0
  0
LINE
  5
405
  8
0
 10
-344.1293483796764
 20
357.56525852263383
 30
0.0
 11
-296.1293483796764
 21
357.56525852263383
 31
0.0
  0
LINE
  5
406
  8
0
 10
-344.1293483796764
 20
352.56525852263383
 30
0.0
 11
-296.1293483796764
 21
352.56525852263383
 31
0.0
  0
LINE
  5
407
  8
0
 10
-306.62934837967629
 20
223.99606315815311
 30
0.0
 11
-301.04948126124242
 21
223.99606315815311
 31
0.0
  0
LINE
  5
408
  8
0
 10
-350.1293483796764
 20
201.79066660529551
 30
0.0
 11
-341.97979809241463
 21
201.79066660529551
 31
0.0
  0
LINE
  5
409
  8
0
 10
-344.1293483796764
 20
249.99606315815311
 30
0.0
 11
-296.1293483796764
 21
249.99606315815311
 31
0.0
  0
LINE
  5
40A
  8
0
 10
-296.1293483796764
 20
254.99606315815311
 30
0.0
 11
-344.1293483796764
 21
254.99606315815311
 31
0.0
  0
LINE
  5
40B
  8
0
 10
-344.1293483796764
 20
175.99606315815311
 30
0.0
 11
-296.1293483796764
 21
175.99606315815311
 31
0.0
  0
LINE
  5
40C
  8
0
 10
-340.20576125635529
 20
223.07910863800689
 30
0.0
 11
-344.1293483796764
 21
175.99606315815311
 31
0.0
  0
ARC
  5
40D
  8
0
 10
-350.1293483796764
 20
191.79066660529551
 30
0.0
 40
10.0
 50
90.0
 51
180.0
  0
LINE
  5
40E
  8
0
 10
-360.1293483796764
 20
174.79066660529551
 30
0.0
 11
-345.63609407074841
 21
174.79066660529551
 31
0.0
  0
LINE
  5
40F
  8
CENTER
  6
CENTER
 10
-348.1293483796764
 20
191.79066660529551
 30
0.0
 11
-344.6293483796764
 21
191.79066660529551
 31
0.0
  0
LINE
  5
410
  8
CENTER
  6
CENTER
 10
-350.1293483796764
 20
189.79066660529551
 30
0.0
 11
-350.1293483796764
 21
186.29066660529551
 31
0.0
  0
LINE
  5
411
  8
CENTER
  6
CENTER
 10
-351.1293483796764
 20
191.79066660529551
 30
0.0
 11
-349.1293483796764
 21
191.79066660529551
 31
0.0
  0
LINE
  5
412
  8
CENTER
  6
CENTER
 10
-350.1293483796764
 20
190.79066660529551
 30
0.0
 11
-350.1293483796764
 21
192.79066660529551
 31
0.0
  0
LINE
  5
413
  8
CENTER
  6
CENTER
 10
-352.1293483796764
 20
191.79066660529551
 30
0.0
 11
-355.6293483796764
 21
191.79066660529551
 31
0.0
  0
LINE
  5
414
  8
CENTER
  6
CENTER
 10
-350.1293483796764
 20
193.79066660529551
 30
0.0
 11
-350.1293483796764
 21
197.29066660529551
 31
0.0
  0
CIRCLE
  5
415
  8
0
 10
-350.1293483796764
 20
191.79066660529551
 30
0.0
 40
4.5
  0
ARC
  5
416
  8
0
 10
-341.5043483796764
 20
252.49606315815311
 30
0.0
 40
3.62499999999998
 50
136.397181027296
 51
223.6028189727032
  0
LINE
  5
417
  8
0
 10
-344.1293483796764
 20
254.99606315815311
 30
0.0
 11
-344.1293483796764
 21
249.99606315815311
 31
0.0
  0
LINE
  5
418
  8
0
 10
-315.6293483796764
 20
232.99606315815311
 30
0.0
 11
-315.6293483796764
 21
247.99606315815311
 31
0.0
  0
LINE
  5
419
  8
0
 10
-324.6293483796764
 20
247.99606315815311
 30
0.0
 11
-324.6293483796764
 21
232.99606315815311
 31
0.0
  0
LINE
  5
41A
  8
0
 10
-315.1293483796764
 20
245.99606315815311
 30
0.0
 11
-325.1293483796764
 21
245.99606315815311
 31
0.0
  0
LINE
  5
41B
  8
0
 10
-325.1293483796764
 20
232.99606315815311
 30
0.0
 11
-320.1293483796764
 21
232.99606315815311
 31
0.0
  0
LINE
  5
41C
  8
0
 10
-331.6293483796764
 20
232.99606315815311
 30
0.0
 11
-308.6293483796764
 21
232.99606315815311
 31
0.0
  0
ARC
  5
41D
  8
0
 10
-331.6293483796764
 20
231.99606315815311
 30
0.0
 40
1.0
 50
90.0
 51
179.9999999999998
  0
LINE
  5
41E
  8
0
 10
-339.20921549811038
 20
223.99606315815311
 30
0.0
 11
-333.6293483796764
 21
223.99606315815311
 31
0.0
  0
ARC
  5
41F
  8
0
 10
-333.6293483796764
 20
224.99606315815311
 30
0.0
 40
1.0
 50
270.0
 51
359.9999999999996
  0
LINE
  5
420
  8
0
 10
-332.6293483796764
 20
224.99606315815311
 30
0.0
 11
-332.6293483796764
 21
231.99606315815311
 31
0.0
  0
LINE
  5
421
  8
0
 10
-325.1293483796764
 20
245.99606315815311
 30
0.0
 11
-325.1293483796764
 21
232.99606315815311
 31
0.0
  0
ARC
  5
422
  8
0
 10
-339.20921549811038
 20
222.99606315815311
 30
0.0
 40
1.0
 50
90.0
 51
175.2363583092737
  0
LINE
  5
423
  8
0
 10
-315.6293483796764
 20
232.99606315815311
 30
0.0
 11
-315.1293483796764
 21
232.99606315815311
 31
0.0
  0
ARC
  5
424
  8
0
 10
-308.6293483796764
 20
231.99606315815311
 30
0.0
 40
1.0
 50
0.0000000000002036
 51
90.0
  0
ARC
  5
425
  8
0
 10
-306.62934837967629
 20
224.99606315815311
 30
0.0
 40
1.0
 50
180.0000000000002
 51
270.0
  0
LINE
  5
426
  8
0
 10
-307.62934837967629
 20
224.99606315815311
 30
0.0
 11
-307.6293483796764
 21
231.99606315815311
 31
0.0
  0
LINE
  5
427
  8
0
 10
-315.1293483796764
 20
232.99606315815311
 30
0.0
 11
-315.1293483796764
 21
245.99606315815311
 31
0.0
  0
ARC
  5
428
  8
0
 10
-320.1293483796764
 20
249.41272982481979
 30
0.0
 40
9.0833333333333162
 50
56.601511532012687
 51
123.39848846798731
  0
LINE
  5
429
  8
0
 10
-315.1293483796764
 20
256.99606315815311
 30
0.0
 11
-325.1293483796764
 21
256.99606315815311
 31
0.0
  0
LINE
  5
42A
  8
0
 10
-315.1293483796764
 20
247.99606315815311
 30
0.0
 11
-325.1293483796764
 21
247.99606315815311
 31
0.0
  0
INSERT
  5
42B
  8
0
  6
CONTINUOUS
  2
*X71
 10
0.0
 20
0.0
 30
0.0
1001
ACAD
1000
HATCH
1002
{
1070
    19
1000
ANSI37
1040
0.2
1040
0.0
1000
R14_HATCH_DATA
1000
42B
1011
1.0
1021
0.0
1031
-2.2216760726794135E+225
1021
0.0
1031
0.0
1011
0.0
1021
0.0
1031
-2.2216760726794135E+225
1021
1.0
1031
0.0
1011
0.0
1021
0.0
1031
-2.2216760726794135E+225
1021
0.0
1031
1.0
1040
0.0
1010
0.0
1020
0.0
1030
1.0
1000
ANSI37
1070
     0
1070
     0
1071
        1
1071
        7
1070
     0
1070
     1
1071
        4
1040
-315.1293483796764
1040
254.99606315815311
1040
-325.1293483796764
1040
254.99606315815311
1040
-325.1293483796764
1040
249.99606315815311
1040
-315.1293483796764
1040
249.99606315815311
1071
        0
1070
     0
1070
     1
1040
0.0
1040
0.2
1070
     0
1070
     2
1040
0.7853981633974483
1040
-493.2605101713134
1040
-3.2382332514857231
1040
-0.4490128060534576
1040
0.4490128060534577
1070
     0
1040
2.3561944901923439
1040
-493.2605101713134
1040
-3.2382332514857231
1040
-0.4490128060534577
1040
-0.4490128060534576
1070
     0
1040
0.1363548444505158
1071
        2
1040
-493.2605101713134
1040
-3.2382332514857231
1040
0.0
1040
-323.87646763001169
1040
252.06165013789911
1040
0.0
1002
}
  0
LINE
  5
42C
  8
0
 10
-325.1293483796764
 20
256.99606315815311
 30
0.0
 11
-325.1293483796764
 21
247.99606315815311
 31
0.0
  0
LINE
  5
42D
  8
0
 10
-325.1293483796764
 20
249.99606315815311
 30
0.0
 11
-325.1293483796764
 21
254.99606315815311
 31
0.0
  0
LINE
  5
42E
  8
0
 10
-315.1293483796764
 20
247.99606315815311
 30
0.0
 11
-315.1293483796764
 21
256.99606315815311
 31
0.0
  0
LINE
  5
42F
  8
0
 10
-315.1293483796764
 20
249.99606315815311
 30
0.0
 11
-315.12934837967651
 21
254.99606315815311
 31
0.0
  0
CIRCLE
  5
430
  8
0
 10
-320.12934837967651
 20
319.06525852263383
 30
0.0
 40
2.5
  0
CIRCLE
  5
431
  8
0
 10
-351.30626291591631
 20
337.06525852263383
 30
0.0
 40
2.5
  0
ARC
  5
432
  8
0
 10
-341.5043483796764
 20
355.06525852263383
 30
0.0
 40
3.625
 50
136.39718102729631
 51
223.60281897270349
  0
LINE
  5
433
  8
0
 10
-344.1293483796764
 20
357.56525852263383
 30
0.0
 11
-344.1293483796764
 21
352.56525852263383
 31
0.0
  0
ARC
  5
434
  8
0
 10
-235.57161944968351
 20
182.99606315815311
 30
0.0
 40
2.9999999999999991
 50
90.0
 51
165.20750295859861
  0
TEXT
  5
435
  8
DIM
  6
BYBLOCK
 10
-264.13840583248651
 20
230.3490673819114
 30
0.0
 40
3.0
  1
2-
  7
CHINESET
  0
TEXT
  5
1700
  8
DIM
  6
BYBLOCK
 10
-257.56697726105801
 20
230.3490673819114
 30
0.0
 40
3.0
  1
%%c
  7
CHINESET
1001
ACAD
1000
R13OBJECT
1002
{
1005
435
1002
}
  0
TEXT
  5
1701
  8
DIM
  6
BYBLOCK
 10
-254.85269154677221
 20
230.3490673819114
 30
0.0
 40
3.0
  1
9
  7
CHINESET
1001
ACAD
1000
R13OBJECT
1002
{
1005
435
1002
}
  0
SOLID
  5
436
  8
DIM
  6
CONTINUOUS
 10
285.48576098852089
 20
197.73186727807129
 30
0.0
 11
287.40013139011739
 21
195.36856747366821
 31
0.0
 12
286.35571608192708
 22
198.22499822970241
 32
0.0
 13
286.35571608192708
 23
198.22499822970241
 33
0.0
210
0.0
220
0.0
230
-1.0
  0
POLYLINE
  5
1702
  8
DIM
  6
BYBLOCK
 66
     1
 10
0.0
 20
0.0
 30
0.0
 70
   128
1001
ACAD
1000
R13OBJECT
1002
{
1005
436
1002
}
  0
VERTEX
  5
17F2
  8
DIM
  6
BYBLOCK
 10
-285.92073853522402
 20
197.97843275388681
 30
0.0
  0
VERTEX
  5
17F3
  8
DIM
  6
BYBLOCK
 10
-268.13840583248651
 20
229.3490673819114
 30
0.0
  0
VERTEX
  5
17F4
  8
DIM
  6
BYBLOCK
 10
-252.9955486896294
 20
229.3490673819114
 30
0.0
  0
SEQEND
  5
17F5
  8
DIM
  6
BYBLOCK
  0
LINE
  5
437
  8
0
 10
-300.05293550299751
 20
223.07910863800689
 30
0.0
 11
-296.1293483796764
 21
175.99606315815311
 31
0.0
  0
ARC
  5
438
  8
0
 10
-290.1293483796764
 20
191.79066660529551
 30
0.0
 40
10.0
 50
0.0
 51
90.0
  0
CIRCLE
  5
439
  8
0
 10
-290.1293483796764
 20
191.79066660529551
 30
0.0
 40
4.5
  0
LINE
  5
43A
  8
0
 10
-294.6226026886045
 20
174.7906666052956
 30
0.0
 11
-280.1293483796764
 21
174.7906666052956
 31
0.0
  0
LINE
  5
43B
  8
CENTER
  6
CENTER
 10
-290.1293483796764
 20
189.79066660529551
 30
0.0
 11
-290.1293483796764
 21
186.29066660529551
 31
0.0
  0
LINE
  5
43C
  8
CENTER
  6
CENTER
 10
-291.1293483796764
 20
191.79066660529551
 30
0.0
 11
-289.1293483796764
 21
191.79066660529551
 31
0.0
  0
LINE
  5
43D
  8
CENTER
  6
CENTER
 10
-290.1293483796764
 20
190.79066660529551
 30
0.0
 11
-290.1293483796764
 21
192.79066660529551
 31
0.0
  0
LINE
  5
43E
  8
CENTER
  6
CENTER
 10
-292.1293483796764
 20
191.79066660529551
 30
0.0
 11
-295.6293483796764
 21
191.79066660529551
 31
0.0
  0
LINE
  5
43F
  8
CENTER
  6
CENTER
 10
-290.1293483796764
 20
193.79066660529551
 30
0.0
 11
-290.1293483796764
 21
197.29066660529551
 31
0.0
  0
LINE
  5
440
  8
CENTER
  6
CENTER
 10
-288.1293483796764
 20
191.79066660529551
 30
0.0
 11
-284.6293483796764
 21
191.79066660529551
 31
0.0
  0
ARC
  5
441
  8
0
 10
-301.04948126124242
 20
222.99606315815311
 30
0.0
 40
1.0
 50
4.7636416907261268
 51
90.0
  0
LINE
  5
442
  8
0
 10
-296.1293483796764
 20
249.99606315815311
 30
0.0
 11
-296.1293483796764
 21
254.99606315815311
 31
0.0
  0
ARC
  5
443
  8
0
 10
-298.7543483796764
 20
252.49606315815311
 30
0.0
 40
3.6250000000000191
 50
316.3971810272966
 51
43.602818972703922
  0
LINE
  5
444
  8
0
 10
-219.02934837967629
 20
179.8629119078619
 30
0.0
 11
-220.22934837967631
 21
179.8629119078619
 31
0.0
  0
LINE
  5
445
  8
0
 10
-220.22934837967631
 20
181.3629119078619
 30
0.0
 11
-220.22934837967631
 21
179.8629119078619
 31
0.0
  0
LINE
  5
448
  8
0
 10
-229.68707730966929
 20
185.99606315815311
 30
0.0
 11
-235.57161944968351
 21
185.99606315815311
 31
0.0
  0
ARC
  5
449
  8
0
 10
-229.68707730966929
 20
182.99606315815311
 30
0.0
 40
2.9999999999999991
 50
14.79249704140161
 51
90.0
  0
LINE
  5
44A
  8
0
 10
-223.1293483796762
 20
181.3629119078619
 30
0.0
 11
-223.6293483796762
 21
180.8629119078619
 31
0.0
  0
LINE
  5
44C
  8
0
 10
-220.22934837967631
 20
180.8629119078619
 30
0.0
 11
-223.6293483796762
 21
180.8629119078619
 31
0.0
  0
LINE
  5
44D
  8
0
 10
-220.22934837967631
 20
181.3629119078619
 30
0.0
 11
-223.1293483796762
 21
181.3629119078619
 31
0.0
  0
LINE
  5
44E
  8
0
 10
-217.2472198240136
 20
180.8629119078619
 30
0.0
 11
-217.2472198240136
 21
175.5063080364163
 31
0.0
  0
LINE
  5
44F
  8
0
 10
-216.1293483796762
 20
181.3629119078619
 30
0.0
 11
-219.02934837967629
 21
181.3629119078619
 31
0.0
  0
LINE
  5
450
  8
0
 10
-219.02934837967629
 20
181.3629119078619
 30
0.0
 11
-219.02934837967629
 21
179.8629119078619
 31
0.0
  0
LINE
  5
452
  8
0
 10
-217.9972198240136
 20
180.8629119078619
 30
0.0
 11
-217.9972198240136
 21
177.5875626298693
 31
0.0
  0
LINE
  5
453
  8
0
 10
-217.6222198240136
 20
180.8629119078619
 30
0.0
 11
-217.6222198240136
 21
176.49490417313211
 31
0.0
  0
LINE
  5
454
  8
0
 10
-215.6293483796762
 20
180.8629119078619
 30
0.0
 11
-219.02934837967629
 21
180.8629119078619
 31
0.0
  0
LINE
  5
455
  8
0
 10
-216.1293483796762
 20
181.3629119078619
 30
0.0
 11
-215.6293483796762
 21
180.8629119078619
 31
0.0
  0
LINE
  5
456
  8
0
 10
-216.1222198240136
 20
180.8629119078619
 30
0.0
 11
-216.1222198240136
 21
173.8811636021064
 31
0.0
  0
LINE
  5
457
  8
0
 10
-216.4972198240136
 20
180.8629119078619
 30
0.0
 11
-216.4972198240136
 21
174.3616184196683
 31
0.0
  0
LINE
  5
458
  8
0
 10
-216.8722198240136
 20
180.8629119078619
 30
0.0
 11
-216.8722198240136
 21
174.7778690652581
 31
0.0
  0
LINE
  5
459
  8
0
 10
-252.12934837967671
 20
366.065258522634
 30
0.0
 11
-232.6293483796764
 21
366.06525852263383
 31
0.0
  0
LINE
  5
45A
  8
CENTER
  6
CENTER
 10
-260.94729628784353
 20
339.06525852263383
 30
0.0
 11
-236.6293483796764
 21
339.06525852263383
 31
0.0
  0
ARC
  5
45B
  8
0
 10
-236.10165581060801
 20
342.53756595356509
 30
0.0
 40
2.0
 50
74.508193449952003
 51
195.49180655004781
  0
CIRCLE
  5
45C
  8
0
 10
-232.6293483796764
 20
355.06525852263383
 30
0.0
 40
5.5
  0
CIRCLE
  5
45D
  8
0
 10
-232.6293483796764
 20
355.06525852263383
 30
0.0
 40
7.5
  0
CIRCLE
  5
45E
  8
0
 10
-232.6293483796764
 20
355.06525852263383
 30
0.0
 40
8.0
  0
ARC
  5
45F
  8
0
 10
-232.6293483796764
 20
355.06525852263383
 30
0.0
 40
36.0
 50
256.00984254245429
 51
283.99015745754582
  0
LINE
  5
460
  8
CENTER
  6
CENTER
 10
-191.6293483796764
 20
355.06525852263383
 30
0.0
 11
-273.62934837967663
 21
355.06525852263383
 31
0.0
  0
ARC
  5
461
  8
0
 10
-232.6293483796764
 20
355.06525852263383
 30
0.0
 40
37.0
 50
249.9999999999998
 51
290.0
  0
ARC
  5
462
  8
0
 10
-232.6293483796764
 20
355.06525852263383
 30
0.0
 40
40.0
 50
200.36413480631771
 51
339.63586519368232
  0
LINE
  5
463
  8
0
  6
BYBLOCK
 10
-270.6293483796764
 20
366.06525852263383
 30
0.0
 11
-277.6293483796764
 21
366.06525852263383
 31
0.0
  0
LINE
  5
464
  8
0
  6
BYBLOCK
 10
-277.6293483796764
 20
344.06525852263383
 30
0.0
 11
-270.6293483796764
 21
344.06525852263383
 31
0.0
  0
CIRCLE
  5
465
  8
0
 10
-288.95243384343672
 20
337.06525852263371
 30
0.0
 40
2.5
  0
LINE
  5
466
  8
0
 10
-296.1293483796764
 20
357.56525852263383
 30
0.0
 11
-296.1293483796764
 21
352.56525852263383
 31
0.0
  0
ARC
  5
467
  8
0
 10
-298.75434837967629
 20
355.06525852263383
 30
0.0
 40
3.624999999999917
 50
316.39718102729569
 51
43.602818972704881
  0
LINE
  5
468
  8
0
  6
BYBLOCK
 10
-277.6293483796764
 20
366.06525852263383
 30
0.0
 11
-277.6293483796764
 21
344.06525852263383
 31
0.0
  0
LINE
  5
469
  8
0
  6
BYBLOCK
 10
-277.6293483796764
 20
366.06525852263383
 30
0.0
 11
-278.1293483796764
 21
365.56525852263383
 31
0.0
  0
LINE
  5
46A
  8
0
  6
BYBLOCK
 10
-278.1293483796764
 20
344.56525852263383
 30
0.0
 11
-277.6293483796764
 21
344.06525852263383
 31
0.0
  0
LINE
  5
46B
  8
0
  6
BYBLOCK
 10
-278.1293483796764
 20
365.56525852263383
 30
0.0
 11
-278.1293483796764
 21
344.56525852263383
 31
0.0
  0
LINE
  5
46C
  8
0
  6
BYBLOCK
 10
-253.92159096306449
 20
333.0659102367224
 30
0.0
 11
-242.63000117242831
 21
344.35750002735858
 31
0.0
  0
LINE
  5
46D
  8
0
  6
BYBLOCK
 10
-254.6286977442511
 20
333.7730170179089
 30
0.0
 11
-243.33710795361489
 21
345.06460680854508
 31
0.0
  0
LINE
  5
46E
  8
CENTER
  6
CENTER
 10
-248.62934945833959
 20
351.73771087339082
 30
0.0
 11
-248.62934945833959
 21
326.95652078167171
 31
0.0
  0
CIRCLE
  5
46F
  8
0
 10
-248.62934945833959
 20
339.06525852263383
 30
0.0
 40
8.0
  0
ARC
  5
470
  8
0
 10
-248.6293483796766
 20
339.06525852263383
 30
0.0
 40
11.0
 50
74.508193014881385
 51
15.491806550047871
  0
ARC
  5
471
  8
0
 10
-261.5908297764924
 20
338.06525852263383
 30
0.0
 40
2.0
 50
4.4117257857694741
 51
90.0
  0
LINE
  5
472
  8
0
 10
-269.71034081515489
 20
340.06525852263383
 30
0.0
 11
-261.5908297764924
 21
340.06525852263383
 31
0.0
  0
LINE
  5
473
  8
0
 10
-241.89830921389481
 20
321.14091831993397
 30
0.0
 11
-241.3325359396851
 21
320.1331167861855
 31
0.0
  0
TEXT
  5
474
  8
0
 10
-243.2218748923282
 20
321.92498375570233
 30
0.0
 40
3.0
  1
O
  7
ROMANS
  0
LINE
  5
476
  8
0
 10
-245.28409368272651
 20
320.2966315535553
 30
0.0
 11
-241.89830921389481
 21
321.14091831993397
 31
0.0
  0
LINE
  5
477
  8
0
  6
BYBLOCK
 10
-270.6293483796764
 20
366.06525852263383
 30
0.0
 11
-270.6293483796764
 21
344.06525852263383
 31
0.0
  0
LINE
  5
478
  8
0
  6
BYBLOCK
 10
-270.1293483796764
 20
365.56525852263383
 30
0.0
 11
-270.6293483796764
 21
366.06525852263383
 31
0.0
  0
LINE
  5
479
  8
0
  6
BYBLOCK
 10
-270.1293483796764
 20
344.56525852263383
 30
0.0
 11
-270.6293483796764
 21
344.06525852263383
 31
0.0
  0
LINE
  5
47A
  8
0
  6
BYBLOCK
 10
-270.1293483796764
 20
344.56525852263383
 30
0.0
 11
-270.1293483796764
 21
365.56525852263383
 31
0.0
  0
LINE
  5
47B
  8
0
 10
-261.12934837967663
 20
358.06525852263383
 30
0.0
 11
-261.12934837967663
 21
356.56525852263383
 31
0.0
  0
LINE
  5
47C
  8
0
 10
-261.12934837967663
 20
358.06525852263383
 30
0.0
 11
-255.1293483796766
 21
355.06525852263383
 31
0.0
  0
LINE
  5
47D
  8
0
 10
-267.12934837967668
 20
356.56525852263383
 30
0.0
 11
-261.12934837967663
 21
356.56525852263383
 31
0.0
  0
LINE
  5
47E
  8
0
 10
-261.12934837967663
 20
353.56525852263383
 30
0.0
 11
-261.12934837967663
 21
352.06525852263383
 31
0.0
  0
LINE
  5
47F
  8
0
 10
-267.12934837967668
 20
353.56525852263383
 30
0.0
 11
-261.12934837967663
 21
353.56525852263383
 31
0.0
  0
LINE
  5
480
  8
0
 10
-267.12934837967668
 20
356.56525852263383
 30
0.0
 11
-267.12934837967668
 21
353.56525852263383
 31
0.0
  0
LINE
  5
481
  8
0
 10
-255.1293483796766
 20
355.06525852263383
 30
0.0
 11
-261.12934837967663
 21
352.06525852263383
 31
0.0
  0
ARC
  5
482
  8
0
 10
-245.15704094874511
 20
351.59295109170239
 30
0.0
 40
2.0
 50
254.50819344995199
 51
15.49180655004778
  0
ARC
  5
483
  8
0
 10
-250.1293483796764
 20
351.97843009277892
 30
0.0
 40
2.0
 50
180.0
 51
276.62580956482321
  0
LINE
  5
484
  8
0
 10
-252.12934837967671
 20
368.06525852263383
 30
0.0
 11
-252.12934837967671
 21
351.97843009277892
 31
0.0
  0
LINE
  5
485
  8
0
 10
-211.1293483796766
 20
340.06525852263383
 30
0.0
 11
-195.54835594419811
 21
340.06525852263383
 31
0.0
  0
LINE
  5
486
  8
0
 10
-213.1293483796764
 20
361.45088024497232
 30
0.0
 11
-213.1293483796764
 21
342.06525852263383
 31
0.0
  0
ARC
  5
487
  8
0
 10
-232.6293483796764
 20
355.06525852263383
 30
0.0
 40
11.0
 50
254.50819388502271
 51
22.936808023306249
  0
LINE
  5
488
  8
0
 10
-223.36038754545839
 20
321.14091831993397
 30
0.0
 11
-223.9261608196677
 21
320.1331167861855
 31
0.0
  0
TEXT
  5
489
  8
0
 10
-224.61606613594151
 20
321.44133923166362
 30
0.0
 40
3.0
  1
S
  7
ROMANS
  0
LINE
  5
48A
  8
0
 10
-219.97460307662661
 20
320.2966315535553
 30
0.0
 11
-223.36038754545839
 21
321.14091831993397
 31
0.0
  0
ARC
  5
48B
  8
0
 10
-211.1293483796766
 20
342.06525852263383
 30
0.0
 40
2.0
 50
180.0
 51
270.0
  0
LINE
  5
48C
  8
CENTER
  6
CENTER
 10
-213.23778465672689
 20
368.06525852263383
 30
0.0
 11
-227.0447137150249
 21
368.06525852263383
 31
0.0
  0
LINE
  5
48D
  8
0
 10
-232.6293483796764
 20
344.06525852263383
 30
0.0
 11
-213.1293483796764
 21
344.06525852263383
 31
0.0
  0
ARC
  5
48E
  8
0
 10
-228.606704303844
 20
367.42722983141658
 30
0.0
 40
2.0
 50
251.97486635635511
 51
4.0652267554684061
  0
ARC
  5
48F
  8
0
 10
-227.56304493383249
 20
367.03741661525152
 30
0.0
 40
2.0
 50
247.06319254621931
 51
7.38177992950295
  0
CIRCLE
  5
490
  8
0
 10
-232.6293483796764
 20
355.06525852263383
 30
0.0
 40
0.8000000000000002
  0
ARC
  5
491
  8
0
 10
-220.65719028705891
 20
360.13156196847768
 30
0.0
 40
2.0
 50
82.618220070496236
 51
202.93680745378069
  0
ARC
  5
492
  8
0
 10
-215.1293483796766
 20
361.45088024497232
 30
0.0
 40
2.0
 50
0.0
 51
124.22886632781309
  0
DIMENSION
  5
493
  8
DIM
  6
BYBLOCK
  2
*D18
 10
-232.6293483796764
 20
438.10883875474877
 30
0.0
 11
-276.37934837967651
 21
440.60883875474877
 31
0.0
 13
-320.12934837967651
 23
424.76299250628881
 33
0.0
 14
-232.6293483796764
 24
400.81169341547218
 34
0.0
  0
DIMENSION
  5
4A0
  8
DIM
  6
BYBLOCK
  2
*D19
 10
-290.12794056216381
 20
430.47832366966071
 30
0.0
 11
-305.12864447092022
 21
432.97832366966082
 31
0.0
 13
-320.12934837967651
 23
424.76299250628881
 33
0.0
 14
-290.12794056216381
 24
422.86783437969279
 34
0.0
  0
LINE
  5
4AD
  8
0
 10
-360.62794056216381
 20
420.20288058548317
 30
0.0
 11
-280.62794056216387
 21
420.202880585483
 31
0.0
  0
LINE
  5
4AE
  8
0
 10
-360.62794056216381
 20
417.20288058548311
 30
0.0
 11
-280.62794056216387
 21
417.202880585483
 31
0.0
  0
LINE
  5
4AF
  8
CENTER
  6
CENTER
 10
-350.12794056216381
 20
423.03870928755077
 30
0.0
 11
-350.12794056216381
 21
413.48490309892702
 31
0.0
  0
LINE
  5
4B0
  8
HIDDEN
  6
HIDDEN
 10
-355.12794056216381
 20
420.20288058548317
 30
0.0
 11
-355.12794056216381
 21
417.20288058548311
 31
0.0
  0
LINE
  5
4B1
  8
HIDDEN
  6
HIDDEN
 10
-346.12794056216381
 20
420.20288058548317
 30
0.0
 11
-346.12794056216381
 21
417.20288058548311
 31
0.0
  0
LINE
  5
4B2
  8
0
 10
-360.62794056216381
 20
420.202880585483
 30
0.0
 11
-360.62794056216381
 21
384.202880585483
 31
0.0
  0
ARC
  5
4B3
  8
0
 10
-356.62794056216381
 20
384.202880585483
 30
0.0
 40
4.0
 50
180.0
 51
270.00000000000011
  0
LINE
  5
4B4
  8
0
 10
-356.62794056216381
 20
380.202880585483
 30
0.0
 11
-355.63075619718933
 21
380.202880585483
 31
0.0
  0
CIRCLE
  5
4B5
  8
0
 10
-351.30626291591631
 20
373.06525852263383
 30
0.0
 40
2.5
  0
CIRCLE
  5
4B6
  8
0
 10
-320.12934837967651
 20
391.06525852263383
 30
0.0
 40
2.5
  0
DIMENSION
  5
4B7
  8
DIM
  6
BYBLOCK
  2
*D20
 10
-320.12934837967651
 20
430.47832366966071
 30
0.0
 11
-335.12864447092022
 21
432.97832366966082
 31
0.0
 13
-350.12794056216381
 23
423.03483567373581
 33
0.0
 14
-320.12934837967651
 24
424.76299250628881
 34
0.0
  0
ARC
  5
4C4
  8
0
 10
-232.6293483796764
 20
355.06525852263383
 30
0.0
 40
40.0
 50
20.364134806317772
 51
159.63586519368221
  0
LINE
  5
4C5
  8
CENTER
  6
CENTER
 10
-290.12794056216381
 20
422.86783437969279
 30
0.0
 11
-290.12794056216381
 21
412.81310492544799
 31
0.0
  0
LINE
  5
4C6
  8
HIDDEN
  6
HIDDEN
 10
-295.12794056216381
 20
420.202880585483
 30
0.0
 11
-295.12794056216381
 21
417.202880585483
 31
0.0
  0
LINE
  5
4C7
  8
HIDDEN
  6
HIDDEN
 10
-286.12794056216381
 20
420.202880585483
 30
0.0
 11
-286.12794056216381
 21
417.202880585483
 31
0.0
  0
LINE
  5
4C8
  8
0
 10
-280.62794056216387
 20
420.202880585483
 30
0.0
 11
-280.62794056216387
 21
384.202880585483
 31
0.0
  0
CIRCLE
  5
4C9
  8
0
 10
-288.95243384343672
 20
373.06525852263383
 30
0.0
 40
2.5
  0
ARC
  5
4CA
  8
0
 10
-284.62794056216381
 20
384.202880585483
 30
0.0
 40
4.0
 50
270.0
 51
0.0000000000000254
  0
LINE
  5
4CB
  8
CENTER
  6
CENTER
 10
-250.6293483796764
 20
382.56525852263383
 30
0.0
 11
-255.6293483796764
 21
382.56525852263383
 31
0.0
  0
CIRCLE
  5
4CC
  8
0
 10
-248.6293483796766
 20
382.56525852263383
 30
0.0
 40
6.0
  0
LINE
  5
4CD
  8
0
 10
-269.71034081515489
 20
370.06525852263383
 30
0.0
 11
-254.1293483796764
 21
370.06525852263383
 31
0.0
  0
LINE
  5
4CE
  8
CENTER
  6
CENTER
 10
-248.6293483796766
 20
384.56525852263383
 30
0.0
 11
-248.6293483796766
 21
389.56525852263383
 31
0.0
  0
LINE
  5
4CF
  8
CENTER
  6
CENTER
 10
-249.6293483796766
 20
382.56525852263383
 30
0.0
 11
-247.6293483796764
 21
382.56525852263383
 31
0.0
  0
LINE
  5
4D0
  8
CENTER
  6
CENTER
 10
-248.6293483796766
 20
380.56525852263383
 30
0.0
 11
-248.6293483796766
 21
375.56525852263383
 31
0.0
  0
LINE
  5
4D1
  8
CENTER
  6
CENTER
 10
-246.6293483796764
 20
382.56525852263383
 30
0.0
 11
-241.6293483796764
 21
382.56525852263383
 31
0.0
  0
LINE
  5
4D2
  8
CENTER
  6
CENTER
 10
-248.6293483796766
 20
381.56525852263383
 30
0.0
 11
-248.6293483796766
 21
383.56525852263383
 31
0.0
  0
CIRCLE
  5
4D3
  8
0
 10
-248.6293483796766
 20
382.56525852263383
 30
0.0
 40
2.5
  0
CIRCLE
  5
4D4
  8
0
 10
-248.6293483796766
 20
382.56525852263383
 30
0.0
 40
3.0
  0
LINE
  5
4D5
  8
0
 10
-211.56709063137851
 20
370.06525852263383
 30
0.0
 11
-195.54835594419811
 21
370.06525852263383
 31
0.0
  0
LINE
  5
4D6
  8
CENTER
  6
CENTER
 10
-218.6293483796766
 20
382.56525852263383
 30
0.0
 11
-223.6293483796766
 21
382.56525852263383
 31
0.0
  0
CIRCLE
  5
4D7
  8
0
 10
-216.6293483796764
 20
382.56525852263383
 30
0.0
 40
6.0
  0
LINE
  5
4D8
  8
CENTER
  6
CENTER
 10
-216.6293483796764
 20
384.56525852263383
 30
0.0
 11
-216.6293483796764
 21
389.56525852263383
 31
0.0
  0
LINE
  5
4D9
  8
CENTER
  6
CENTER
 10
-217.6293483796766
 20
382.56525852263383
 30
0.0
 11
-215.6293483796764
 21
382.56525852263383
 31
0.0
  0
LINE
  5
4DA
  8
CENTER
  6
CENTER
 10
-216.6293483796764
 20
380.56525852263383
 30
0.0
 11
-216.6293483796764
 21
375.56525852263383
 31
0.0
  0
LINE
  5
4DB
  8
CENTER
  6
CENTER
 10
-214.62934837967671
 20
382.56525852263383
 30
0.0
 11
-209.6293483796766
 21
382.56525852263383
 31
0.0
  0
LINE
  5
4DC
  8
CENTER
  6
CENTER
 10
-216.6293483796764
 20
381.56525852263383
 30
0.0
 11
-216.6293483796764
 21
383.56525852263383
 31
0.0
  0
CIRCLE
  5
4DD
  8
0
 10
-216.6293483796764
 20
382.56525852263383
 30
0.0
 40
2.5
  0
CIRCLE
  5
4DE
  8
0
 10
-216.6293483796764
 20
382.56525852263383
 30
0.0
 40
3.0
  0
ARC
  5
4DF
  8
0
 10
-211.56709063137851
 20
372.06525852263383
 30
0.0
 40
2.0
 50
206.38779996124481
 51
270.0
  0
DIMENSION
  5
A51
  8
DIM
  6
BYBLOCK
  2
*D40
 10
31.17127088501638
 20
-21.999936841847241
 30
0.0
 11
28.671270885016391
 21
118.2480631581527
 31
0.0
 13
-73.920831223258574
 23
258.49606315815282
 33
0.0
 14
-70.906431223258551
 24
-21.99993684184723
 34
0.0
 50
90.0
  0
DIMENSION
  5
A5E
  8
DIM
  6
BYBLOCK
  2
*D41
 10
2.740467817043736
 20
142.99606315815279
 30
0.0
 11
0.2404678170437374
 21
167.49606315815271
 31
0.0
 13
-20.689295702873089
 23
191.99606315815271
 33
0.0
 14
-53.940770477138578
 24
142.99606315815279
 34
0.0
 50
90.0
  0
DIMENSION
  5
A6B
  8
DIM
  6
BYBLOCK
  2
*D42
 10
-7.3835007565112392
 20
171.99606315815279
 30
0.0
 11
-9.8835007565112392
 21
186.99606315815279
 31
0.0
 13
-23.92083122325846
 23
201.99606315815279
 33
0.0
 14
-23.92083122325846
 24
171.99606315815279
 34
0.0
 50
90.0
  0
DIMENSION
  5
A78
  8
DIM
  6
BYBLOCK
  2
*D43
 10
-73.920831223258574
 20
277.81920188189542
 30
0.0
 11
-113.9208312232584
 21
280.31920188189542
 31
0.0
 13
-153.92083122325829
 23
166.49606315815271
 33
0.0
 14
-73.920831223258574
 24
267.0229634462379
 34
0.0
  0
LINE
  5
A85
  8
CENTER
  6
CENTER
 10
-73.920831223258574
 20
267.0229634462379
 30
0.0
 11
-73.920831223258574
 21
-26.244744505901959
 31
0.0
  0
LINE
  5
A86
  8
0
 10
-97.920831223258574
 20
175.99606315815279
 30
0.0
 11
-102.9208312232585
 21
171.99606315815279
 31
0.0
  0
LINE
  5
A87
  8
0
 10
-23.92083122325846
 20
171.99606315815279
 30
0.0
 11
-23.92083122325846
 21
201.99606315815279
 31
0.0
  0
LINE
  5
A88
  8
0
 10
-56.920831223258112
 20
180.8629119078619
 30
0.0
 11
-56.920831223258112
 21
171.8629119078619
 31
0.0
  0
LINE
  5
A89
  8
0
 10
-64.920831223258119
 20
180.8629119078619
 30
0.0
 11
-64.920831223258119
 21
171.8629119078619
 31
0.0
  0
ARC
  5
A8A
  8
0
 10
-116.4208312232583
 20
170.99606315815291
 30
0.0
 40
49.999999999999993
 50
0.0000000000000325
 51
14.79249704140153
  0
ARC
  5
A8B
  8
0
 10
-31.42083122325834
 20
170.99606315815291
 30
0.0
 40
49.999999999999993
 50
165.20750295859841
 51
179.99999999999989
  0
LINE
  5
A8C
  8
CENTER
  6
CENTER
 10
-89.764488672486536
 20
174.59987822308989
 30
0.0
 11
-89.764488672486536
 21
156.86351224768279
 31
0.0
  0
LINE
  5
A8D
  8
CENTER
  6
CENTER
 10
-60.920831223258119
 20
182.41117828152261
 30
0.0
 11
-60.920831223258119
 21
155.03307482734459
 31
0.0
  0
DIMENSION
  5
A8E
  8
DIM
  6
BYBLOCK
  2
*D44
 10
2.740467817043736
 20
-21.99993684184723
 30
0.0
 11
0.2404678170437414
 21
60.498063158152789
 31
0.0
 13
-51.940770477138578
 23
142.99606315815279
 33
0.0
 14
-70.906431223258551
 24
-21.99993684184723
 34
0.0
 50
90.0
  0
LINE
  5
A9B
  8
0
 10
-23.92083122325846
 20
171.99606315815279
 30
0.0
 11
-56.920831223258119
 21
171.99606315815279
 31
0.0
  0
TEXT
  5
A9C
  8
DIM
  6
BYBLOCK
 10
-144.357390308974
 20
68.963873800705329
 30
0.0
 40
3.0
  1
2-PT1/4
  7
CHINESET
  0
TEXT
  5
1707
  8
DIM
  6
BYBLOCK
 10
-144.78596173754539
 20
63.392445229276753
 30
0.0
 40
3.0
  1
2-PT3/8
  7
CHINESET
1001
ACAD
1000
R13OBJECT
1002
{
1005
A9C
1002
}
  0
TEXT
  5
1708
  8
DIM
  6
BYBLOCK
 10
-144.21453316611681
 20
57.821016657848183
 30
0.0
 40
3.0
  1
2-PT1/2
  7
CHINESET
1001
ACAD
1000
R13OBJECT
1002
{
1005
A9C
1002
}
  0
SOLID
  5
A9D
  8
DIM
  6
CONTINUOUS
 10
80.889608476298449
 20
132.8755986188865
 30
0.0
 11
79.059459999431738
 21
135.30470474102739
 31
0.0
 12
80.002863329827534
 22
132.41333998434271
 32
0.0
 13
80.002863329827534
 23
132.41333998434271
 33
0.0
210
0.0
220
0.0
230
-1.0
  0
POLYLINE
  5
1709
  8
DIM
  6
BYBLOCK
 66
     1
 10
0.0
 20
0.0
 30
0.0
 70
   128
1001
ACAD
1000
R13OBJECT
1002
{
1005
A9D
1002
}
  0
VERTEX
  5
17F6
  8
DIM
  6
BYBLOCK
 10
-80.446235903062984
 20
132.64446930161461
 30
0.0
  0
VERTEX
  5
17F7
  8
DIM
  6
BYBLOCK
 10
-120.6431045946883
 20
55.535302372133891
 30
0.0
  0
VERTEX
  5
17F8
  8
DIM
  6
BYBLOCK
 10
-144.78596173754539
 20
55.535302372133891
 30
0.0
  0
SEQEND
  5
17F9
  8
DIM
  6
BYBLOCK
  0
LINE
  5
A9E
  8
0
 10
-59.92083122325834
 20
92.996063158152822
 30
0.0
 11
-59.92083122325834
 21
27.496063158153099
 31
0.0
  0
LINE
  5
A9F
  8
0
 10
-47.42083122325834
 20
92.996063158152822
 30
0.0
 11
-47.42083122325834
 21
26.730682291982109
 31
0.0
  0
LINE
  5
AA0
  8
0
 10
-101.9208312232583
 20
92.996063158152822
 30
0.0
 11
-101.9208312232583
 21
24.99606315815279
 31
0.0
  0
LINE
  5
AA1
  8
0
 10
-87.920831223258347
 20
92.996063158152822
 30
0.0
 11
-87.920831223258347
 21
24.99606315815279
 31
0.0
  0
LINE
  5
AA2
  8
0
 10
-100.4208312232583
 20
92.996063158152822
 30
0.0
 11
-100.4208312232583
 21
24.99606315815279
 31
0.0
  0
LINE
  5
AA3
  8
0
 10
-104.9208312232583
 20
26.99606315815279
 30
0.0
 11
-105.6708312232583
 21
104.595208628931
 31
0.0
  0
LINE
  5
AA4
  8
0
 10
-42.17083122325834
 20
104.595208628931
 30
0.0
 11
-42.92083122325834
 21
26.99606315815279
 31
0.0
  0
LINE
  5
AA5
  8
0
 10
-45.92083122325834
 20
95.496063158153049
 30
0.0
 11
-45.92083122325834
 21
27.496063158153099
 31
0.0
  0
LINE
  5
AA6
  8
0
 10
-47.42083122325834
 20
95.496063158153049
 30
0.0
 11
-47.42083122325834
 21
27.496063158153099
 31
0.0
  0
LINE
  5
AA7
  8
0
 10
-42.92083122325834
 20
29.496063158153099
 30
0.0
 11
-42.183180720355033
 21
105.81746140001199
 31
0.0
  0
LINE
  5
AA8
  8
0
 10
-59.92083122325834
 20
95.496063158153049
 30
0.0
 11
-59.92083122325834
 21
27.496063158153099
 31
0.0
  0
LINE
  5
AA9
  8
0
 10
-101.9208312232583
 20
95.496063158153049
 30
0.0
 11
-101.9208312232583
 21
27.496063158153099
 31
0.0
  0
LINE
  5
AAA
  8
0
 10
-87.920831223258347
 20
95.496063158153049
 30
0.0
 11
-87.920831223258347
 21
27.496063158153099
 31
0.0
  0
LINE
  5
AAB
  8
0
 10
-100.4208312232583
 20
95.496063158153049
 30
0.0
 11
-100.4208312232583
 21
27.496063158153099
 31
0.0
  0
LINE
  5
AAC
  8
0
 10
-105.66439686455369
 20
106.4294743127699
 30
0.0
 11
-104.9208312232583
 21
29.496063158153099
 31
0.0
  0
ARC
  5
AAD
  8
0
 10
-94.920831223258347
 20
24.99606315815279
 30
0.0
 40
7.0
 50
180.0
 51
0.0
  0
ARC
  5
AAE
  8
0
 10
-93.703346319911134
 20
24.613372725068579
 30
0.0
 40
6.7283768766526313
 50
176.7394237284004
 51
259.57502944633751
  0
ARC
  5
AAF
  8
0
 10
-73.920831223258347
 20
26.99606315815279
 30
0.0
 40
31.0
 50
180.0
 51
237.00411452642041
  0
ARC
  5
AB0
  8
0
 10
-73.920831223258347
 20
29.496063158153099
 30
0.0
 40
31.0
 50
180.0
 51
237.00411452642041
  0
ARC
  5
AB1
  8
0
 10
-73.920831223258347
 20
26.99606315815279
 30
0.0
 40
31.0
 50
302.99588547357951
 51
0.0
  0
ARC
  5
AB2
  8
0
 10
-52.92083122325834
 20
27.496063158153099
 30
0.0
 40
7.0
 50
180.0
 51
0.000000000000007
  0
ARC
  5
AB3
  8
0
 10
-54.138316126605559
 20
27.113372725068871
 30
0.0
 40
6.7283768766526313
 50
280.42497055366238
 51
3.2605762715995938
  0
ARC
  5
AB4
  8
0
 10
-73.920831223258347
 20
29.496063158153099
 30
0.0
 40
31.0
 50
302.99588547357951
 51
0.000000000000007
  0
LINE
  5
AB5
  8
0
  6
BYBLOCK
 10
-90.802774239392406
 20
0.9960631581527935
 30
0.0
 11
-57.038888207124273
 21
0.9960631581528218
 31
0.0
  0
LINE
  5
AB6
  8
0
 10
-84.456831223258405
 20
-0.0039368418471781
 30
0.0
 11
-63.384831223258509
 21
-0.0039368418471781
 31
0.0
  0
LINE
  5
AB7
  8
CENTER
  6
CENTER
 10
-83.603098721824153
 20
-8.9375368418472902
 30
0.0
 11
-64.243755867469645
 21
-8.9375368418472902
 31
0.0
  0
LINE
  5
AB8
  8
0
 10
-63.384831223258288
 20
2.4960631581531061
 30
0.0
 11
-84.456831223258405
 21
2.4960631581531061
 31
0.0
  0
LINE
  5
AB9
  8
0
 10
-57.038888207124501
 20
3.4960631581531061
 30
0.0
 11
-90.802774239392633
 21
3.4960631581531061
 31
0.0
  0
LINE
  5
ABA
  8
0
 10
-84.456831223258405
 20
0.996063158152765
 30
0.0
 11
-84.456831223258405
 21
-0.0039368418472066
 31
0.0
  0
CIRCLE
  5
ABB
  8
0
 10
-73.920831223258347
 20
-8.9375368418472902
 30
0.0
 40
3.2153599999999738
  0
LINE
  5
ABC
  8
0
 10
-77.940031223260576
 20
-19.99033684184716
 30
0.0
 11
-76.935231223258597
 21
-21.73070149329579
 31
0.0
  0
LINE
  5
ABD
  8
0
 10
-70.906431223258551
 20
-21.73070149328715
 30
0.0
 11
-69.901631223261575
 21
-19.99033684184722
 31
0.0
  0
LINE
  5
ABE
  8
0
 10
-76.935231223258597
 20
-21.99993684184723
 30
0.0
 11
-70.906431223258551
 21
-21.99993684184723
 31
0.0
  0
LINE
  5
ABF
  8
0
 10
-76.935231223258597
 20
-21.730701493295712
 30
0.0
 11
-76.935231223258597
 21
-21.99993684184723
 31
0.0
  0
LINE
  5
AC0
  8
0
 10
-70.906431223258551
 20
-21.73070149328715
 30
0.0
 11
-70.906431223258551
 21
-21.99993684184723
 31
0.0
  0
LINE
  5
AC1
  8
0
 10
-76.935231223258597
 20
-18.985536841843711
 30
0.0
 11
-70.906431223258551
 21
-18.985536841849079
 31
0.0
  0
LINE
  5
AC2
  8
0
 10
-77.940031223261485
 20
-19.990336841845231
 30
0.0
 11
-69.90163122326021
 21
-19.990336841845231
 31
0.0
  0
LINE
  5
AC3
  8
0
 10
-76.935231223258597
 20
-15.97113684184724
 30
0.0
 11
-76.935231223258597
 21
-18.985536841842659
 31
0.0
  0
ARC
  5
AC4
  8
0
 10
-76.935231223258597
 20
-19.99033684184722
 30
0.0
 40
1.0047999999999999
 50
90.0
 51
180.0
  0
LINE
  5
AC5
  8
0
 10
-70.906431223258551
 20
-15.97113684184718
 30
0.0
 11
-70.906431223258551
 21
-18.985536841847232
 31
0.0
  0
LINE
  5
AC6
  8
0
 10
-70.906431223258551
 20
-18.830701493287151
 30
0.0
 11
-70.906431223258551
 21
-18.9855368418472
 31
0.0
  0
ARC
  5
AC7
  8
0
 10
-70.906431223258551
 20
-19.99033684184722
 30
0.0
 40
1.0047999999999999
 50
0.0
 51
90.0
  0
ARC
  5
AC8
  8
0
 10
-66.786751223258307
 20
-15.56921684184722
 30
0.0
 40
0.4019200000000001
 50
270.0
 51
0.0
  0
ARC
  5
AC9
  8
0
 10
-81.054911223258387
 20
-15.56921684184722
 30
0.0
 40
0.4019200000000001
 50
180.0
 51
270.0
  0
LINE
  5
ACA
  8
0
 10
-81.054911223258387
 20
-15.97113684184724
 30
0.0
 11
-66.786751223258307
 21
-15.97113684184724
 31
0.0
  0
LINE
  5
ACB
  8
0
 10
-81.456831223258405
 20
-0.0039368418472066
 30
0.0
 11
-81.456831223258405
 21
-15.56921684184722
 31
0.0
  0
CIRCLE
  5
ACC
  8
0
 10
-73.920831223258347
 20
-8.9375368418472902
 30
0.0
 40
5.5263999999999847
  0
LINE
  5
ACD
  8
0
 10
-66.384831223258516
 20
-0.0039368418472066
 30
0.0
 11
-66.384831223258516
 21
-15.56921684184722
 31
0.0
  0
LINE
  5
ACE
  8
0
 10
-84.456831223258405
 20
3.4960631581530488
 30
0.0
 11
-84.456831223258405
 21
2.4960631581531061
 31
0.0
  0
LINE
  5
ACF
  8
0
 10
-66.384831223258288
 20
3.4960631581531061
 30
0.0
 11
-81.456831223258405
 21
3.4960631581531061
 31
0.0
  0
LINE
  5
AD0
  8
0
 10
-63.384831223258509
 20
0.996063158152765
 30
0.0
 11
-63.384831223258509
 21
-0.0039368418472066
 31
0.0
  0
LINE
  5
AD1
  8
0
 10
-63.384831223258288
 20
3.4960631581531061
 30
0.0
 11
-63.384831223258288
 21
2.4960631581531061
 31
0.0
  0
LINE
  5
AD2
  8
0
 62
     7
 10
-114.4208312232585
 20
127.99606315815269
 30
0.0
 11
-33.42083122325834
 21
127.99606315815269
 31
0.0
  0
LINE
  5
AD3
  8
0
 10
-113.9208312232583
 20
122.99606315815279
 30
0.0
 11
-33.92083122325834
 21
122.99606315815269
 31
0.0
  0
LINE
  5
AD4
  8
0
 10
-109.8408307862575
 20
109.6964904227636
 30
0.0
 11
-37.510864575044486
 21
109.6964904227636
 31
0.0
  0
LINE
  5
AD5
  8
0
 10
-83.420831223258347
 20
170.49606315815311
 30
0.0
 11
-99.26448867248655
 21
170.49606315815311
 31
0.0
  0
LINE
  5
AD6
  8
0
 10
-79.76448867248655
 20
167.99606315815311
 30
0.0
 11
-99.764488672486564
 21
167.99606315815311
 31
0.0
  0
LINE
  5
AD7
  8
0
 10
-55.420831223258119
 20
167.99606315815311
 30
0.0
 11
-100.42083122325811
 21
167.99606315815299
 31
0.0
  0
LINE
  5
AD8
  8
0
 10
-89.920831223258347
 20
133.99606315815311
 30
0.0
 11
-112.9208312232583
 21
133.99606315815311
 31
0.0
  0
LINE
  5
AD9
  8
0
 10
-36.420831238258181
 20
127.99606315815311
 30
0.0
 11
-111.42083120825841
 21
127.99606315815301
 31
0.0
  0
LINE
  5
ADA
  8
0
 10
-33.92083122325834
 20
127.99606315815311
 30
0.0
 11
-113.9208312232583
 21
127.99606315815311
 31
0.0
  0
LINE
  5
ADB
  8
0
 10
-95.420831223258347
 20
120.49606315815289
 30
0.0
 11
-99.420831223258347
 21
120.49606315815301
 31
0.0
  0
ARC
  5
ADC
  8
0
 10
-94.920831223258347
 20
95.496063158153049
 30
0.0
 40
7.0
 50
0.000000000000007
 51
180.0
  0
ARC
  5
ADD
  8
0
 10
-93.911175504657194
 20
96.04204795068074
 30
0.0
 40
6.5325123014341511
 50
98.89119530014149
 51
184.7943515251205
  0
LINE
  5
ADE
  8
0
 10
-33.92083122325834
 20
125.49606315815311
 30
0.0
 11
-113.9208312232583
 21
125.49606315815311
 31
0.0
  0
LINE
  5
ADF
  8
0
 10
-34.010406940097482
 20
112.1964904227639
 30
0.0
 11
-113.8140408779183
 21
112.1964904227638
 31
0.0
  0
LINE
  5
AE0
  8
0
 62
     7
 10
-108.9208312232585
 20
127.99606315815269
 30
0.0
 11
-108.9208312232585
 21
122.99606315815279
 31
0.0
  0
ARC
  5
AE1
  8
0
 10
-147.41461455055901
 20
124.49606315815279
 30
0.0
 40
1.0
 50
270.0
 51
359.99999999999989
  0
LINE
  5
AE2
  8
HIDDEN
  6
PHANTOM
 10
-153.92083122325829
 20
166.49606315815271
 30
0.0
 11
-153.92083122325829
 21
123.49606315815269
 31
0.0
  0
LINE
  5
AE3
  8
0
  6
BYBLOCK
 10
-113.9208312232583
 20
125.49606315815311
 30
0.0
 11
-113.9208312232583
 21
112.64613084890659
 31
0.0
  0
LINE
  5
AE4
  8
HIDDEN
  6
PHANTOM
 10
-153.92083122325829
 20
123.49606315815269
 30
0.0
 11
-147.41461455055901
 21
123.49606315815269
 31
0.0
  0
LINE
  5
AE6
  8
0
 62
     7
 10
-111.32083122325849
 20
122.99606315815279
 30
0.0
 11
-105.32083122325839
 21
122.99606315815279
 31
0.0
  0
LINE
  5
AE7
  8
0
 10
-113.2625742863451
 20
108.75669699927521
 30
0.0
 11
-106.9873450970849
 21
106.4747954759079
 31
0.0
  0
ARC
  5
AE8
  8
0
 10
-112.9208312232583
 20
109.6964904227636
 30
0.0
 40
1.0
 50
180.0
 51
250.0168934781002
  0
ARC
  5
AE9
  8
0
 10
-107.6708312232583
 20
104.595208628931
 30
0.0
 40
2.0
 50
0.0
 51
70.016893478100371
  0
LINE
  5
AEA
  8
0
 10
-113.9208312232583
 20
109.6964904227636
 30
0.0
 11
-113.9208312232583
 21
122.99606315815269
 31
0.0
  0
ARC
  5
AEB
  8
0
 10
-99.420831223258347
 20
119.99606315815301
 30
0.0
 40
0.5
 50
89.999999999999275
 51
180.0000000000002
  0
ARC
  5
AEC
  8
0
 10
-100.9208312232583
 20
113.1964904227639
 30
0.0
 40
1.0
 50
270.0
 51
0.000000000000007
  0
LINE
  5
AED
  8
0
 10
-99.920831223258347
 20
113.1964904227639
 30
0.0
 11
-99.920831223258347
 21
119.99606315815301
 31
0.0
  0
LINE
  5
AEE
  8
0
 10
-105.4208312232583
 20
120.49606315815301
 30
0.0
 11
-109.4208312232583
 21
120.49606315815301
 31
0.0
  0
ARC
  5
AEF
  8
0
 10
-109.4208312232583
 20
119.99606315815301
 30
0.0
 40
0.5
 50
90.0
 51
179.9999999999998
  0
ARC
  5
AF0
  8
0
 10
-105.4208312232583
 20
119.99606315815301
 30
0.0
 40
0.5
 50
0.000000000000007
 51
90.0
  0
ARC
  5
AF1
  8
0
 10
-112.9208312232583
 20
112.64613084890659
 30
0.0
 40
1.0
 50
180.0
 51
228.4212206377205
  0
ARC
  5
AF2
  8
0
 10
-110.9208312232583
 20
113.1964904227639
 30
0.0
 40
1.0
 50
270.0
 51
0.000000000000007
  0
LINE
  5
AF3
  8
0
 10
-113.5844804284031
 20
111.8980869113532
 30
0.0
 11
-106.16885300178021
 21
107.5370433138587
 31
0.0
  0
LINE
  5
AF4
  8
0
 10
-109.9208312232583
 20
113.1964904227639
 30
0.0
 11
-109.9208312232583
 21
119.99606315815301
 31
0.0
  0
LINE
  5
AF5
  8
0
 10
-104.9208312232583
 20
113.1964904227639
 30
0.0
 11
-104.9208312232583
 21
119.99606315815301
 31
0.0
  0
ARC
  5
AF6
  8
0
 10
-107.1643268094974
 20
106.4149774075284
 30
0.0
 40
1.5
 50
0.5537496115756162
 51
48.421220637720658
  0
ARC
  5
AF7
  8
0
 10
-103.9208312232583
 20
113.1964904227639
 30
0.0
 40
1.0
 50
180.0
 51
270.0
  0
LINE
  5
AF8
  8
HIDDEN
  6
PHANTOM
 10
-133.90425342939369
 20
150.49606315815271
 30
0.0
 11
-126.5171830530864
 21
150.49606315815271
 31
0.0
  0
LINE
  5
AF9
  8
HIDDEN
  6
PHANTOM
 10
-133.90425342939369
 20
139.49606315815271
 30
0.0
 11
-126.5171830530864
 21
139.49606315815271
 31
0.0
  0
LINE
  5
AFA
  8
CENTER
  6
CENTER
 10
-157.91197110327261
 20
144.99606315815271
 30
0.0
 11
-100.1819987958044
 21
144.99606315815271
 31
0.0
  0
LINE
  5
AFB
  8
HIDDEN
  6
PHANTOM
 10
-133.90425342939369
 20
150.49606315815271
 30
0.0
 11
-126.5171830530864
 21
139.49606315815271
 31
0.0
  0
LINE
  5
AFC
  8
HIDDEN
  6
PHANTOM
 10
-133.90425342939369
 20
139.49606315815271
 30
0.0
 11
-126.5171830530864
 21
150.49606315815271
 31
0.0
  0
LINE
  5
AFD
  8
HIDDEN
  6
PHANTOM
 10
-133.90425342939369
 20
164.4775732173126
 30
0.0
 11
-133.90425342939369
 21
125.51455181576149
 31
0.0
  0
LINE
  5
AFE
  8
HIDDEN
  6
PHANTOM
 10
-146.41461455055901
 20
165.49606315815271
 30
0.0
 11
-146.41461455055901
 21
124.49606315815279
 31
0.0
  0
ARC
  5
AFF
  8
0
 10
-134.90425342939369
 20
125.51455309899291
 30
0.0
 40
1.0
 50
270.00000000000011
 51
0.0
  0
LINE
  5
B00
  8
HIDDEN
  6
PHANTOM
 10
-146.41461455055901
 20
124.51455309899281
 30
0.0
 11
-134.90425342939369
 21
124.51455309899291
 31
0.0
  0
LINE
  5
B01
  8
HIDDEN
  6
PHANTOM
 10
-153.92083122325829
 20
166.49606315815271
 30
0.0
 11
-147.41461455055901
 21
166.49606315815271
 31
0.0
  0
ARC
  5
B04
  8
0
 10
-134.90425342939369
 20
164.4775732173126
 30
0.0
 40
1.0
 50
0.0
 51
89.999999999999872
  0
ARC
  5
B05
  8
0
 10
-147.41461455055901
 20
165.49606315815271
 30
0.0
 40
1.0
 50
0.0
 51
89.999999999999758
  0
LINE
  5
B06
  8
HIDDEN
  6
PHANTOM
 10
-146.41461455055901
 20
165.4775732173126
 30
0.0
 11
-134.90425342939369
 21
165.4775732173126
 31
0.0
  0
LINE
  5
B07
  8
0
 62
     7
 10
-115.4208312232585
 20
155.9960662264896
 30
0.0
 11
-115.4208312232585
 21
128.99606315815271
 31
0.0
  0
LINE
  5
B08
  8
HIDDEN
  6
PHANTOM
 10
-126.5171830530864
 20
150.49606315815271
 30
0.0
 11
-126.5171830530864
 21
139.49606315815271
 31
0.0
  0
LINE
  5
B09
  8
0
 10
-100.92083122325811
 20
167.49606315815311
 30
0.0
 11
-100.92083122325811
 21
133.99606315815311
 31
0.0
  0
LINE
  5
B0A
  8
HIDDEN
  6
HIDDEN
 10
-126.5171830530864
 20
140.49606315815271
 30
0.0
 11
-115.0619800912734
 21
140.89608766026339
 31
0.0
  0
LINE
  5
B0B
  8
HIDDEN
  6
HIDDEN
 10
-126.55208254978901
 20
141.49545398517179
 30
0.0
 11
-115.09687958797591
 21
141.89547848728239
 31
0.0
  0
LINE
  5
B0C
  8
HIDDEN
  6
HIDDEN
 10
-126.55208254978901
 20
148.49667233113371
 30
0.0
 11
-115.09687958797591
 21
148.096647829023
 31
0.0
  0
ARC
  5
B0D
  8
0
 62
     7
 10
-114.4208312232585
 20
128.99606315815271
 30
0.0
 40
1.0
 50
180.0
 51
270.0
  0
ARC
  5
B0E
  8
0
 10
-112.9208312232583
 20
132.99606315815311
 30
0.0
 40
1.0
 50
90.0
 51
180.0
  0
LINE
  5
B0F
  8
0
 10
-113.9208312232583
 20
132.99606315815311
 30
0.0
 11
-113.9208312232583
 21
127.99606315815311
 31
0.0
  0
LINE
  5
B10
  8
0
  6
BYBLOCK
 10
-111.4208312232583
 20
127.99606315815311
 30
0.0
 11
-111.4208312232583
 21
125.49606315815311
 31
0.0
  0
LINE
  5
B11
  8
0
 62
     7
 10
-100.92083122325811
 20
161.99606315815271
 30
0.0
 11
-117.4208312232585
 21
161.99606315815271
 31
0.0
  0
LINE
  5
B12
  8
0
 10
-116.4208312232585
 20
171.99606315815271
 30
0.0
 11
-102.9208312232585
 21
171.99606315815279
 31
0.0
  0
ARC
  5
B13
  8
0
 62
     7
 10
-116.4208312232585
 20
155.99606315815271
 30
0.0
 40
1.0
 50
0.0
 51
90.0
  0
LINE
  5
B14
  8
HIDDEN
  6
HIDDEN
 10
-126.5171830530864
 20
149.49606315815271
 30
0.0
 11
-115.0619800912734
 21
149.0960386560422
 31
0.0
  0
LINE
  5
B15
  8
0
 62
     7
 10
-116.92083387415801
 20
156.99606315815271
 30
0.0
 11
-100.92083122325811
 21
156.99606315815271
 31
0.0
  0
LINE
  5
B16
  8
0
 62
     7
 10
-116.4208312232585
 20
162.99606315815279
 30
0.0
 11
-100.92083122325811
 21
162.99606315815279
 31
0.0
  0
ARC
  5
B17
  8
0
 10
-116.4208312232585
 20
171.49606315815271
 30
0.0
 40
0.5
 50
90.000000000000114
 51
180.0
  0
LINE
  5
B18
  8
0
 62
     7
 10
-116.4208312232585
 20
162.99606315815279
 30
0.0
 11
-117.4208312232585
 21
161.99606315815271
 31
0.0
  0
ARC
  5
B19
  8
0
 62
     7
 10
-116.9208312232585
 20
157.49606315815279
 30
0.0
 40
0.5
 50
179.99999999999969
 51
270.0
  0
LINE
  5
B1A
  8
0
 62
     7
 10
-117.4208312232585
 20
161.99606315815271
 30
0.0
 11
-117.4208312232585
 21
157.49606315815271
 31
0.0
  0
LINE
  5
B1B
  8
0
 10
-116.9208312232585
 20
171.49606315815271
 30
0.0
 11
-116.9208312232585
 21
162.99606315815279
 31
0.0
  0
LINE
  5
B1C
  8
0
 10
-99.764488672486564
 20
169.99606315815299
 30
0.0
 11
-99.26448867248655
 21
170.49606315815311
 31
0.0
  0
LINE
  5
B1D
  8
0
  6
BYBLOCK
 10
-99.764488672486564
 20
169.99606315815299
 30
0.0
 11
-99.764488672486564
 21
167.99606315815311
 31
0.0
  0
ARC
  5
B1E
  8
0
 10
-100.42083122325811
 20
167.49606315815311
 30
0.0
 40
0.5
 50
90.0
 51
180.0
  0
LINE
  5
B1F
  8
0
 62
     7
 10
-38.920831223258567
 20
127.99606315815269
 30
0.0
 11
-38.92083122325834
 21
122.99606315815279
 31
0.0
  0
LINE
  5
B20
  8
0
  6
BYBLOCK
 10
-33.92083122325834
 20
125.49606315815311
 30
0.0
 11
-33.92083122325834
 21
112.6101661709427
 31
0.0
  0
LINE
  5
B21
  8
0
 10
-62.92083122325834
 20
113.1964904227638
 30
0.0
 11
-62.92083122325834
 21
125.49606315815301
 31
0.0
  0
LINE
  5
B22
  8
0
 10
-84.920831223258347
 20
113.1964904227639
 30
0.0
 11
-84.920831223258347
 21
125.49606315815301
 31
0.0
  0
LINE
  5
B23
  8
0
 62
     7
 10
-86.420831223258574
 20
122.99606315815279
 30
0.0
 11
-61.420831223258567
 21
122.99606315815279
 31
0.0
  0
LINE
  5
B24
  8
0
 10
-82.920831223258347
 20
117.99606315815269
 30
0.0
 11
-64.920831223258347
 21
117.99606315815269
 31
0.0
  0
LINE
  5
B25
  8
0
 10
-73.920831223258347
 20
120.7612255978437
 30
0.0
 11
-82.920831223258347
 21
117.99606315815269
 31
0.0
  0
ARC
  5
B2B
  8
0
 10
-89.420831223258347
 20
119.99606315815301
 30
0.0
 40
0.5
 50
90.0
 51
179.9999999999998
  0
LINE
  5
B2C
  8
0
 10
-85.420831223258347
 20
120.49606315815301
 30
0.0
 11
-89.420831223258347
 21
120.49606315815301
 31
0.0
  0
ARC
  5
B2D
  8
0
 10
-95.420831223258347
 20
119.99606315815289
 30
0.0
 40
0.5
 50
0.000000000000007
 51
89.999999999999673
  0
ARC
  5
B2E
  8
0
 10
-85.420831223258347
 20
119.99606315815301
 30
0.0
 40
0.5
 50
359.99999999999972
 51
90.000000000000057
  0
ARC
  5
B2F
  8
0
 10
-90.920831223258347
 20
113.1964904227639
 30
0.0
 40
1.0
 50
270.0
 51
0.000000000000007
  0
ARC
  5
B30
  8
0
 10
-93.920831223258347
 20
113.1964904227639
 30
0.0
 40
1.0
 50
180.0
 51
270.0
  0
LINE
  5
B31
  8
0
 10
-90.920831223258347
 20
112.1964904227639
 30
0.0
 11
-93.920831223258347
 21
112.1964904227639
 31
0.0
  0
ARC
  5
B32
  8
0
 10
-83.920831223258347
 20
113.1964904227639
 30
0.0
 40
1.0
 50
179.9999999999996
 51
270.0
  0
LINE
  5
B33
  8
0
 10
-89.920831223258347
 20
113.1964904227639
 30
0.0
 11
-89.920831223258347
 21
119.99606315815301
 31
0.0
  0
LINE
  5
B34
  8
0
 10
-94.920831223258347
 20
113.1964904227639
 30
0.0
 11
-94.920831223258347
 21
119.99606315815289
 31
0.0
  0
LINE
  5
B36
  8
0
 10
-73.920831223258347
 20
120.7612255978437
 30
0.0
 11
-64.920831223258347
 21
117.99606315815269
 31
0.0
  0
ARC
  5
B37
  8
0
 10
-57.515406850825229
 20
93.225325165065044
 30
0.0
 40
10.34682116081626
 50
12.67745793307256
 51
63.636995241665161
  0
ARC
  5
B38
  8
0
 10
-52.92083122325834
 20
95.496063158153049
 30
0.0
 40
7.0
 50
0.000000000000007
 51
180.0
  0
ARC
  5
B39
  8
0
 10
-46.920831223258347
 20
113.1964904227638
 30
0.0
 40
1.0
 50
180.0
 51
270.0
  0
ARC
  5
B3B
  8
0
 10
-48.420831223258347
 20
119.99606315815289
 30
0.0
 40
0.5
 50
0.000000000000007
 51
89.999999999999673
  0
ARC
  5
B3C
  8
0
 10
-52.42083122325834
 20
119.99606315815301
 30
0.0
 40
0.5
 50
89.999999999999275
 51
180.0000000000002
  0
LINE
  5
B3D
  8
0
 10
-58.420831223258347
 20
120.49606315815301
 30
0.0
 11
-62.42083122325834
 21
120.49606315815301
 31
0.0
  0
ARC
  5
B3E
  8
0
 10
-58.420831223258347
 20
119.99606315815301
 30
0.0
 40
0.5
 50
0.000000000000007
 51
90.0
  0
LINE
  5
B3F
  8
0
 10
-48.420831223258347
 20
120.49606315815289
 30
0.0
 11
-52.42083122325834
 21
120.49606315815301
 31
0.0
  0
ARC
  5
B40
  8
0
 10
-56.920831223258347
 20
113.1964904227638
 30
0.0
 40
1.0
 50
180.0
 51
270.0
  0
ARC
  5
B41
  8
0
 10
-53.920831223258347
 20
113.1964904227638
 30
0.0
 40
1.0
 50
270.0
 51
0.000000000000007
  0
LINE
  5
B42
  8
0
 10
-47.92083122325834
 20
113.1964904227638
 30
0.0
 11
-47.92083122325834
 21
119.99606315815289
 31
0.0
  0
LINE
  5
B43
  8
0
 10
-52.92083122325834
 20
113.1964904227638
 30
0.0
 11
-52.92083122325834
 21
119.99606315815301
 31
0.0
  0
LINE
  5
B44
  8
0
 10
-57.92083122325834
 20
113.1964904227638
 30
0.0
 11
-57.92083122325834
 21
119.99606315815301
 31
0.0
  0
LINE
  5
B45
  8
0
 10
-62.92083122325834
 20
113.1964904227638
 30
0.0
 11
-62.92083122325834
 21
119.99606315815301
 31
0.0
  0
ARC
  5
B46
  8
0
 10
-62.42083122325834
 20
119.99606315815301
 30
0.0
 40
0.5
 50
90.0
 51
179.9999999999998
  0
ARC
  5
B47
  8
0
 10
-63.920831223258347
 20
113.1964904227638
 30
0.0
 40
1.0
 50
270.0
 51
0.000000000000007
  0
LINE
  5
B48
  8
0
 62
     7
 10
-42.520831223258483
 20
122.99606315815279
 30
0.0
 11
-36.520831223258483
 21
122.99606315815279
 31
0.0
  0
ARC
  5
B49
  8
0
 10
-34.92083122325834
 20
109.6964904227636
 30
0.0
 40
1.0
 50
289.98310652189957
 51
0.0000000000001145
  0
ARC
  5
B4A
  8
0
 10
-40.170831223258347
 20
104.595208628931
 30
0.0
 40
2.0
 50
109.9831065218995
 51
180.0
  0
LINE
  5
B4B
  8
0
 10
-34.57908816017175
 20
108.75669699927511
 30
0.0
 11
-40.854317349431767
 21
106.4747954759079
 31
0.0
  0
LINE
  5
B4C
  8
0
 10
-33.92083122325834
 20
109.6964904227636
 30
0.0
 11
-33.92083122325834
 21
122.99606315815269
 31
0.0
  0
ARC
  5
B4D
  8
0
 10
-38.420831223258347
 20
119.99606315815301
 30
0.0
 40
0.5
 50
359.99999999999972
 51
89.999999999999659
  0
ARC
  5
B4E
  8
0
 10
-42.42083122325834
 20
119.99606315815301
 30
0.0
 40
0.5
 50
90.0
 51
179.9999999999998
  0
LINE
  5
B4F
  8
0
 10
-38.420831223258347
 20
120.49606315815301
 30
0.0
 11
-42.42083122325834
 21
120.49606315815301
 31
0.0
  0
ARC
  5
B50
  8
0
 10
-34.92083122325834
 20
112.6101661709427
 30
0.0
 40
1.0
 50
315.05261361431661
 51
0.000000000000007
  0
ARC
  5
B51
  8
0
 10
-36.920831223258347
 20
113.1964904227638
 30
0.0
 40
1.0
 50
179.9999999999996
 51
270.0
  0
ARC
  5
B52
  8
0
 10
-43.920831223258347
 20
113.1964904227638
 30
0.0
 40
1.0
 50
270.0
 51
0.000000000000007
  0
LINE
  5
B53
  8
0
 10
-37.92083122325834
 20
113.1964904227638
 30
0.0
 11
-37.92083122325834
 21
119.99606315815301
 31
0.0
  0
LINE
  5
B54
  8
0
 10
-42.92083122325834
 20
113.1964904227638
 30
0.0
 11
-42.92083122325834
 21
119.99606315815301
 31
0.0
  0
ARC
  5
B55
  8
0
 10
-40.683250775411352
 20
105.80296449477041
 30
0.0
 40
1.5
 50
135.05261361431661
 51
179.4462503884244
  0
LINE
  5
B56
  8
0
 10
-34.2130754177117
 20
111.9037090103766
 30
0.0
 11
-41.744884483731532
 21
106.8626502356195
 31
0.0
  0
ARC
  5
B57
  8
0
 62
     7
 10
-73.920831223258574
 20
142.99606315815279
 30
0.0
 40
11.25
 50
0.0
 51
270.00000000000171
  0
LINE
  5
B58
  8
0
 10
-64.420831223258347
 20
170.99606315815299
 30
0.0
 11
-66.420831223258347
 21
170.99606315815299
 31
0.0
  0
LINE
  5
B59
  8
0
 10
-64.420831223258347
 20
167.99606315815311
 30
0.0
 11
-66.570831223258423
 21
167.99606315815311
 31
0.0
  0
LINE
  5
B5A
  8
0
 10
-64.920831223258119
 20
171.8629119078619
 30
0.0
 11
-64.420831223258105
 21
171.3629119078619
 31
0.0
  0
LINE
  5
B5B
  8
0
 10
-56.920831223258112
 20
171.8629119078619
 30
0.0
 11
-64.920831223258119
 21
171.8629119078619
 31
0.0
  0
ARC
  5
B5C
  8
0
 10
-73.920831223258347
 20
127.99606315815311
 30
0.0
 40
30.0
 50
61.726286368634973
 51
118.273713631365
  0
LINE
  5
B5D
  8
CENTER
  6
CENTER
 10
-90.787085519225016
 20
142.99606315815311
 30
0.0
 11
-54.92083122325834
 21
142.99606315815311
 31
0.0
  0
CIRCLE
  5
B5E
  8
0
 62
     7
 10
-73.920831223258574
 20
142.99606315815279
 30
0.0
 40
9.25
  0
LINE
  5
B5F
  8
0
 10
-88.920831223258347
 20
153.09586395417529
 30
0.0
 11
-88.920831223258347
 21
134.99606315815311
 31
0.0
  0
ARC
  5
B60
  8
0
 10
-89.920831223258347
 20
134.99606315815311
 30
0.0
 40
1.0
 50
270.0
 51
0.000000000000007
  0
LINE
  5
B61
  8
0
 10
-81.420831223258347
 20
170.99606315815291
 30
0.0
 11
-83.420831223258347
 21
170.99606315815291
 31
0.0
  0
LINE
  5
B62
  8
0
 10
-81.270831223258256
 20
167.99606315815311
 30
0.0
 11
-83.420831223258347
 21
167.99606315815311
 31
0.0
  0
LINE
  5
B64
  8
0
 10
-83.420831223258347
 20
170.99606315815291
 30
0.0
 11
-83.420831223258347
 21
167.99606315815311
 31
0.0
  0
LINE
  5
B65
  8
0
  6
BYBLOCK
 10
-83.76448867248655
 20
170.49606315815311
 30
0.0
 11
-83.76448867248655
 21
167.99606315815311
 31
0.0
  0
LINE
  5
B66
  8
0
  6
BYBLOCK
 10
-84.764488672486536
 20
170.49606315815311
 30
0.0
 11
-84.764488672486536
 21
167.99606315815311
 31
0.0
  0
LINE
  5
B67
  8
0
  6
BYBLOCK
 10
-92.76448867248655
 20
170.49606315815311
 30
0.0
 11
-92.76448867248655
 21
167.99606315815311
 31
0.0
  0
LINE
  5
B68
  8
0
  6
BYBLOCK
 10
-93.76448867248655
 20
170.49606315815311
 30
0.0
 11
-93.76448867248655
 21
167.99606315815311
 31
0.0
  0
LINE
  5
B69
  8
0
  6
BYBLOCK
 10
-94.764488672486536
 20
170.49606315815311
 30
0.0
 11
-94.764488672486536
 21
167.99606315815311
 31
0.0
  0
LINE
  5
B6A
  8
0
  6
BYBLOCK
 10
-88.76448867248655
 20
170.49606315815311
 30
0.0
 11
-88.76448867248655
 21
167.99606315815311
 31
0.0
  0
LINE
  5
B6B
  8
0
  6
BYBLOCK
 10
-85.764488672486564
 20
170.49606315815311
 30
0.0
 11
-85.764488672486564
 21
167.99606315815311
 31
0.0
  0
LINE
  5
B6C
  8
0
  6
BYBLOCK
 10
-86.76448867248655
 20
170.49606315815311
 30
0.0
 11
-86.76448867248655
 21
167.99606315815311
 31
0.0
  0
LINE
  5
B6D
  8
0
  6
BYBLOCK
 10
-87.76448867248655
 20
170.49606315815311
 30
0.0
 11
-87.76448867248655
 21
167.99606315815311
 31
0.0
  0
LINE
  5
B6E
  8
0
  6
BYBLOCK
 10
-90.764488672486564
 20
170.49606315815311
 30
0.0
 11
-90.764488672486564
 21
167.99606315815311
 31
0.0
  0
LINE
  5
B6F
  8
0
  6
BYBLOCK
 10
-91.76448867248655
 20
170.49606315815311
 30
0.0
 11
-91.76448867248655
 21
167.99606315815311
 31
0.0
  0
LINE
  5
B70
  8
0
  6
BYBLOCK
 10
-95.764488672486564
 20
170.49606315815311
 30
0.0
 11
-95.764488672486564
 21
167.99606315815311
 31
0.0
  0
LINE
  5
B71
  8
0
  6
BYBLOCK
 10
-96.76448867248655
 20
170.49606315815311
 30
0.0
 11
-96.76448867248655
 21
167.99606315815311
 31
0.0
  0
LINE
  5
B72
  8
0
  6
BYBLOCK
 10
-97.76448867248655
 20
170.49606315815311
 30
0.0
 11
-97.76448867248655
 21
167.99606315815311
 31
0.0
  0
LINE
  5
B73
  8
0
  6
BYBLOCK
 10
-98.76448867248655
 20
170.49606315815311
 30
0.0
 11
-98.76448867248655
 21
167.99606315815311
 31
0.0
  0
ARC
  5
B75
  8
0
  6
BYBLOCK
 10
-83.070872669656637
 20
166.99606315815299
 30
0.0
 40
1.0
 50
90.0
 51
180.0
  0
ARC
  5
B76
  8
0
 10
-87.420831223258347
 20
153.09586395417529
 30
0.0
 40
1.5
 50
118.273713631365
 51
180.0
  0
LINE
  5
B77
  8
0
  6
BYBLOCK
 10
-84.070872669656637
 20
166.99606315815299
 30
0.0
 11
-84.070872669656637
 21
156.22683818535339
 31
0.0
  0
ARC
  5
B79
  8
0
  6
BYBLOCK
 10
-66.254326412445835
 20
167.0474722533198
 30
0.0
 40
1.0
 50
108.4516817731766
 51
180.0
  0
LINE
  5
B7A
  8
0
  6
BYBLOCK
 10
-81.420831223258347
 20
170.99606315815291
 30
0.0
 11
-66.420831223258347
 21
170.99606315815291
 31
0.0
  0
LINE
  5
B7B
  8
0
  6
BYBLOCK
 10
-66.570831223258423
 20
167.99606315815311
 30
0.0
 11
-81.270831223258256
 21
167.99606315815311
 31
0.0
  0
LINE
  5
B7C
  8
0
  6
BYBLOCK
 10
-67.254326412445835
 20
167.0474722533198
 30
0.0
 11
-67.254326412445835
 21
157.24598133936189
 31
0.0
  0
LINE
  5
B7D
  8
0
 62
     7
 10
-32.420831223258567
 20
155.99606315815271
 30
0.0
 11
-32.420831223258567
 21
128.99606315815271
 31
0.0
  0
LINE
  5
B7E
  8
CENTER
  6
CENTER
 10
-46.420831223258347
 20
149.99606315815299
 30
0.0
 11
-46.420831223258347
 21
130.4762105743811
 31
0.0
  0
LINE
  5
B7F
  8
0
 10
-58.920831223258347
 20
153.09586395417529
 30
0.0
 11
-58.920831223258347
 21
134.99606315815311
 31
0.0
  0
LINE
  5
B80
  8
0
 10
-54.92083122325834
 20
167.49606315815311
 30
0.0
 11
-54.92083122325834
 21
133.99606315815311
 31
0.0
  0
LINE
  5
B81
  8
0
 10
-41.420831223258347
 20
139.99606315815311
 30
0.0
 11
-51.420831223258347
 21
139.99606315815311
 31
0.0
  0
LINE
  5
B82
  8
0
 10
-34.92083122325834
 20
133.99606315815311
 30
0.0
 11
-57.92083122325834
 21
133.99606315815311
 31
0.0
  0
ARC
  5
B86
  8
0
 10
-51.420831223258347
 20
138.99606315815319
 30
0.0
 40
1.0
 50
90.0
 51
180.0
  0
ARC
  5
B87
  8
0
 10
-57.92083122325834
 20
134.99606315815311
 30
0.0
 40
1.0
 50
180.0
 51
270.0
  0
LINE
  5
B88
  8
0
 10
-52.42083122325834
 20
138.99606315815319
 30
0.0
 11
-52.42083122325834
 21
133.99606315815311
 31
0.0
  0
ARC
  5
B89
  8
0
 62
     7
 10
-33.42083122325834
 20
128.99606315815271
 30
0.0
 40
1.0
 50
270.0
 51
0.0
  0
ARC
  5
B8A
  8
0
 10
-41.420831223258347
 20
138.99606315815311
 30
0.0
 40
1.0
 50
0.000000000000007
 51
90.0
  0
ARC
  5
B8B
  8
0
 10
-34.92083122325834
 20
132.99606315815311
 30
0.0
 40
1.0
 50
0.000000000000007
 51
90.0
  0
LINE
  5
B8C
  8
0
 10
-33.92083122325834
 20
132.99606315815311
 30
0.0
 11
-33.92083122325834
 21
127.99606315815311
 31
0.0
  0
LINE
  5
B8F
  8
0
 10
-40.420831223258119
 20
138.99606315815311
 30
0.0
 11
-40.420831223258119
 21
133.99606315815311
 31
0.0
  0
LINE
  5
B90
  8
0
  6
BYBLOCK
 10
-36.42083122325834
 20
127.99606315815311
 30
0.0
 11
-36.42083122325834
 21
125.49606315815311
 31
0.0
  0
LINE
  5
B91
  8
0
 62
     7
 10
-54.920831223258332
 20
162.99606315815279
 30
0.0
 11
-31.42083122325857
 21
162.99606315815279
 31
0.0
  0
LINE
  5
B92
  8
0
 62
     7
 10
-30.42083122325857
 20
161.99606315815271
 30
0.0
 11
-54.92083122325834
 21
161.99606315815271
 31
0.0
  0
LINE
  5
B93
  8
0
 62
     7
 10
-54.920831223258332
 20
156.99606315815271
 30
0.0
 11
-30.92082865956581
 21
156.99606315815271
 31
0.0
  0
ARC
  5
B94
  8
0
 10
-55.420831223258119
 20
167.49606315815311
 30
0.0
 40
0.5
 50
0.000000000000007
 51
90.0
  0
LINE
  5
B96
  8
0
  6
BYBLOCK
 62
     0
 10
-57.970831223258067
 20
167.99606315815311
 30
0.0
 11
-57.970831223258067
 21
169.3629119078619
 31
0.0
  0
LINE
  5
B97
  8
0
 10
-57.970831223258067
 20
171.3629119078619
 30
0.0
 11
-57.970831223258067
 21
167.99606315815311
 31
0.0
  0
LINE
  5
B98
  8
0
 10
-56.920831223258112
 20
171.8629119078619
 30
0.0
 11
-57.420831223258119
 21
171.3629119078619
 31
0.0
  0
LINE
  5
B9C
  8
0
 10
-63.870831223258158
 20
171.3629119078619
 30
0.0
 11
-63.870831223258158
 21
167.99606315815311
 31
0.0
  0
LINE
  5
B9D
  8
0
  6
BYBLOCK
 62
     0
 10
-63.870831223258158
 20
168.66272982481979
 30
0.0
 11
-63.870831223258158
 21
171.3629119078619
 31
0.0
  0
LINE
  5
B9E
  8
0
 10
-64.420831223258347
 20
170.99606315815299
 30
0.0
 11
-64.420831223258347
 21
167.99606315815311
 31
0.0
  0
LINE
  5
B9F
  8
0
 10
-57.420831223258119
 20
171.3629119078619
 30
0.0
 11
-64.420831223258105
 21
171.3629119078619
 31
0.0
  0
LINE
  5
BA0
  8
0
 10
-57.970831223258067
 20
167.99606315815311
 30
0.0
 11
-63.870831223258158
 21
167.99606315815311
 31
0.0
  0
ARC
  5
BA1
  8
0
 10
-60.420831223258119
 20
153.09586395417529
 30
0.0
 40
1.5
 50
0.000000000000007
 51
61.726286368634909
  0
ARC
  5
BA2
  8
0
 10
-31.42083122325857
 20
171.49606315815279
 30
0.0
 40
0.5
 50
0.0
 51
90.0
  0
LINE
  5
BA3
  8
0
 10
-44.92083122325834
 20
171.99606315815279
 30
0.0
 11
-31.42083122325857
 21
171.99606315815279
 31
0.0
  0
LINE
  5
BA4
  8
0
 62
     7
 10
-31.42083122325857
 20
162.99606315815279
 30
0.0
 11
-30.42083122325857
 21
161.99606315815271
 31
0.0
  0
ARC
  5
BA8
  8
0
 62
     7
 10
-30.92083122325834
 20
157.49606315815279
 30
0.0
 40
0.5
 50
270.0
 51
0.0
  0
ARC
  5
BA9
  8
0
 62
     7
 10
-31.42083122325857
 20
155.99606315815271
 30
0.0
 40
1.0
 50
90.00000000000081
 51
180.0
  0
LINE
  5
BAA
  8
0
 62
     7
 10
-30.42083122325857
 20
161.99606315815271
 30
0.0
 11
-30.42083122325857
 21
157.49606315815271
 31
0.0
  0
LINE
  5
BAB
  8
0
 10
-30.92083122325857
 20
171.49606315815279
 30
0.0
 11
-30.92083122325857
 21
162.99606315815279
 31
0.0
  0
DIMENSION
  5
CDB
  8
DIM
  6
BYBLOCK
  2
*D46
 10
2.740467817043736
 20
191.99606315815271
 30
0.0
 11
0.2404678170437387
 21
225.24606315815279
 31
0.0
 13
-73.920831223258574
 23
258.49606315815282
 33
0.0
 14
-20.689295702873089
 24
191.99606315815271
 34
0.0
 50
90.0
  0
DIMENSION
  5
CE8
  8
DIM
  6
BYBLOCK
  2
*D47
 10
-23.92083122325845
 20
277.81920188189542
 30
0.0
 11
-48.920831223258517
 21
280.31920188189542
 31
0.0
 13
-73.920831223258574
 23
267.0229634462379
 33
0.0
 14
-23.92083122325846
 24
201.99606315815279
 34
0.0
  0
LINE
  5
CF5
  8
0
 10
-26.92083122325846
 20
174.99606315815279
 30
0.0
 11
-56.920831223258112
 21
174.99606315815271
 31
0.0
  0
LINE
  5
CF6
  8
0
 10
-93.997244099937234
 20
223.07910863800649
 30
0.0
 11
-97.920831223258574
 21
175.99606315815279
 31
0.0
  0
LINE
  5
CF7
  8
0
 10
-53.844418346579687
 20
223.07910863800649
 30
0.0
 11
-49.920831223258567
 21
175.99606315815279
 31
0.0
  0
LINE
  5
CF8
  8
0
 10
-64.420831223258105
 20
181.3629119078619
 30
0.0
 11
-64.920831223258119
 21
180.8629119078619
 31
0.0
  0
LINE
  5
CF9
  8
0
 10
-61.520831223258263
 20
180.8629119078619
 30
0.0
 11
-64.920831223258119
 21
180.8629119078619
 31
0.0
  0
LINE
  5
CFA
  8
0
 10
-97.920831223258574
 20
175.99606315815279
 30
0.0
 11
-81.170203078589338
 21
175.99606315815279
 31
0.0
  0
LINE
  5
CFB
  8
0
 10
-66.671459367927355
 20
175.99606315815279
 30
0.0
 11
-64.920831223258133
 21
175.99606315815279
 31
0.0
  0
LINE
  5
CFC
  8
0
 10
-70.978560153251237
 20
185.99606315815311
 30
0.0
 11
-76.863102293265456
 21
185.99606315815311
 31
0.0
  0
ARC
  5
CFD
  8
0
 10
-76.863102293265456
 20
182.99606315815311
 30
0.0
 40
2.9999999999999991
 50
90.0
 51
165.20750295859861
  0
ARC
  5
CFE
  8
0
 10
-70.978560153251237
 20
182.99606315815311
 30
0.0
 40
2.9999999999999991
 50
14.79249704140161
 51
90.0
  0
LINE
  5
CFF
  8
0
 10
-56.920831223258133
 20
175.99606315815279
 30
0.0
 11
-49.920831223258567
 21
175.99606315815279
 31
0.0
  0
LINE
  5
D00
  8
0
 10
-49.920831223258567
 20
175.99606315815279
 30
0.0
 11
-48.67083122325834
 21
174.99606315815271
 31
0.0
  0
LINE
  5
D01
  8
0
 10
-58.538702667595537
 20
180.8629119078619
 30
0.0
 11
-58.538702667595537
 21
175.5063080364163
 31
0.0
  0
LINE
  5
D02
  8
0
 10
-60.320831223257983
 20
179.8629119078619
 30
0.0
 11
-61.520831223258263
 21
179.8629119078619
 31
0.0
  0
LINE
  5
D03
  8
0
 10
-61.520831223258263
 20
181.3629119078619
 30
0.0
 11
-61.520831223258263
 21
179.8629119078619
 31
0.0
  0
LINE
  5
D06
  8
0
 10
-57.420831223258119
 20
181.3629119078619
 30
0.0
 11
-60.320831223257983
 21
181.3629119078619
 31
0.0
  0
LINE
  5
D07
  8
0
 10
-60.320831223257983
 20
181.3629119078619
 30
0.0
 11
-60.320831223257983
 21
179.8629119078619
 31
0.0
  0
LINE
  5
D09
  8
0
 10
-59.288702667595537
 20
180.8629119078619
 30
0.0
 11
-59.288702667595537
 21
177.5875626298693
 31
0.0
  0
LINE
  5
D0A
  8
0
 10
-58.913702667595551
 20
180.8629119078619
 30
0.0
 11
-58.913702667595551
 21
176.49490417313211
 31
0.0
  0
LINE
  5
D0B
  8
0
 10
-56.920831223258112
 20
180.8629119078619
 30
0.0
 11
-60.320831223257983
 21
180.8629119078619
 31
0.0
  0
LINE
  5
D0C
  8
0
 10
-57.420831223258119
 20
181.3629119078619
 30
0.0
 11
-56.920831223258112
 21
180.8629119078619
 31
0.0
  0
LINE
  5
D0D
  8
0
 10
-57.413702667595537
 20
180.8629119078619
 30
0.0
 11
-57.413702667595537
 21
173.8811636021064
 31
0.0
  0
LINE
  5
D0E
  8
0
 10
-57.788702667595537
 20
180.8629119078619
 30
0.0
 11
-57.788702667595537
 21
174.3616184196683
 31
0.0
  0
LINE
  5
D0F
  8
0
 10
-58.163702667595537
 20
180.8629119078619
 30
0.0
 11
-58.163702667595537
 21
174.7778690652581
 31
0.0
  0
LINE
  5
D11
  8
0
 10
-61.520831223258263
 20
181.3629119078619
 30
0.0
 11
-64.420831223258105
 21
181.3629119078619
 31
0.0
  0
LINE
  5
D12
  8
CENTER
  6
CENTER
 10
-84.117780161301425
 20
252.49606315815279
 30
0.0
 11
-64.41953810542941
 21
252.49606315815279
 31
0.0
  0
LINE
  5
D13
  8
0
 10
-73.92083122325846
 20
232.99606315815279
 30
0.0
 11
-62.420831223258567
 21
232.99606315815279
 31
0.0
  0
LINE
  5
D14
  8
0
 10
-78.420831223258574
 20
247.99606315815291
 30
0.0
 11
-78.420831223258688
 21
232.99606315815279
 31
0.0
  0
LINE
  5
D15
  8
0
 10
-69.420831223258674
 20
232.99606315815279
 30
0.0
 11
-69.420831223258574
 21
247.99606315815291
 31
0.0
  0
LINE
  5
D16
  8
0
 10
-85.420831223258574
 20
232.99606315815279
 30
0.0
 11
-78.420831223258688
 21
232.99606315815271
 31
0.0
  0
LINE
  5
D17
  8
0
 10
-86.420831223258574
 20
224.99606315815291
 30
0.0
 11
-86.420831223258574
 21
231.99606315815279
 31
0.0
  0
ARC
  5
D18
  8
0
 10
-85.420831223258574
 20
231.99606315815279
 30
0.0
 40
1.0
 50
90.0
 51
179.9999999999998
  0
ARC
  5
D19
  8
0
 10
-93.000698341692441
 20
222.99606315815291
 30
0.0
 40
1.0
 50
90.0
 51
175.2363583092737
  0
LINE
  5
D1A
  8
0
 10
-93.000698341692441
 20
223.99606315815279
 30
0.0
 11
-87.420831223258574
 21
223.99606315815279
 31
0.0
  0
ARC
  5
D1B
  8
0
 10
-87.420831223258574
 20
224.99606315815291
 30
0.0
 40
1.0
 50
270.0
 51
359.9999999999996
  0
LINE
  5
D1C
  8
0
 10
-68.920831223258574
 20
245.99606315815291
 30
0.0
 11
-78.920831223258574
 21
245.99606315815291
 31
0.0
  0
LINE
  5
D1D
  8
0
 10
-78.920831223258574
 20
232.99606315815279
 30
0.0
 11
-68.920831223258574
 21
232.99606315815279
 31
0.0
  0
LINE
  5
D1E
  8
0
 10
-68.920831223258674
 20
232.99606315815279
 30
0.0
 11
-68.920831223258574
 21
245.99606315815291
 31
0.0
  0
LINE
  5
D1F
  8
0
 10
-78.920831223258574
 20
245.99606315815291
 30
0.0
 11
-78.920831223258574
 21
232.99606315815279
 31
0.0
  0
ARC
  5
D20
  8
0
 10
-73.920831223258574
 20
249.41272982481951
 30
0.0
 40
9.0833333333333162
 50
56.601511532012687
 51
123.39848846798731
  0
LINE
  5
D21
  8
0
 10
-68.920831223258574
 20
256.99606315815282
 30
0.0
 11
-78.920831223258574
 21
256.99606315815282
 31
0.0
  0
LINE
  5
D22
  8
0
 10
-68.920831223258574
 20
247.99606315815291
 30
0.0
 11
-78.920831223258574
 21
247.99606315815291
 31
0.0
  0
LINE
  5
D25
  8
0
 10
-68.920831223258574
 20
247.99606315815291
 30
0.0
 11
-68.920831223258574
 21
256.99606315815282
 31
0.0
  0
LINE
  5
D26
  8
0
 10
-78.920831223258574
 20
256.99606315815282
 30
0.0
 11
-78.920831223258574
 21
247.99606315815291
 31
0.0
  0
LINE
  5
D27
  8
0
 10
-68.920831223258574
 20
249.99606315815291
 30
0.0
 11
-68.920831223258574
 21
254.99606315815279
 31
0.0
  0
CIRCLE
  5
D28
  8
0
 10
-73.920831223258574
 20
252.49606315815271
 30
0.0
 40
2.5
  0
LINE
  5
D29
  8
0
 10
-78.920831223258574
 20
251.49606315815279
 30
0.0
 11
-78.920831223258574
 21
256.49606315815282
 31
0.0
  0
LINE
  5
D2A
  8
0
 10
-61.420831223258347
 20
224.99606315815291
 30
0.0
 11
-61.420831223258567
 21
231.99606315815279
 31
0.0
  0
ARC
  5
D2B
  8
0
 10
-62.420831223258567
 20
231.99606315815279
 30
0.0
 40
1.0
 50
0.0000000000002036
 51
90.0
  0
ARC
  5
D2C
  8
0
 10
-54.840964104824479
 20
222.99606315815291
 30
0.0
 40
1.0
 50
4.7636416907261268
 51
90.0
  0
LINE
  5
D2D
  8
0
 10
-60.42083122325834
 20
223.99606315815279
 30
0.0
 11
-54.840964104824479
 21
223.99606315815279
 31
0.0
  0
ARC
  5
D2E
  8
0
 10
-60.42083122325834
 20
224.99606315815291
 30
0.0
 40
1.0
 50
180.0000000000002
 51
270.0
  0
LINE
  5
D2F
  8
0
 10
-26.92083122325835
 20
174.99606315815279
 30
0.0
 11
-26.92083122325846
 21
201.99606315815279
 31
0.0
  0
LINE
  5
D30
  8
0
 10
-26.92083122325835
 20
196.49606315815271
 30
0.0
 11
-23.92083122325846
 21
196.49606315815271
 31
0.0
  0
LINE
  5
D31
  8
0
 10
-26.92083122325835
 20
187.49606315815271
 30
0.0
 11
-23.92083122325846
 21
187.49606315815271
 31
0.0
  0
LINE
  5
D32
  8
CENTER
  6
CENTER
 10
-29.945501591091212
 20
191.99606315815271
 30
0.0
 11
-20.689295702873089
 21
191.99606315815271
 31
0.0
  0
LINE
  5
D33
  8
0
 10
-26.92083122325846
 20
201.99606315815279
 30
0.0
 11
-23.92083122325846
 21
201.99606315815279
 31
0.0
  0
TEXT
  5
D34
  8
0
  6
BYBLOCK
 10
-119.8555206074106
 20
435.18230174999923
 30
0.0
 40
15.0
  1
MACP-400
  7
CHINESET
  0
LINE
  5
16D0
  8
0
 10
-298.27889866693829
 20
201.79066660529551
 30
0.0
 11
-290.1293483796764
 21
201.79066660529551
 31
0.0
  0
TEXT
  5
1790
  8
LOGO
 62
     6
 10
39.45737840502278
 20
-124.0287078472128
 30
0.0
 40
11.38778298293758
  1
配管口徑
 41
0.9
  7
CHINESET
 72
     4
 11
60.062148239775468
 21
-118.3348163557441
 31
0.0
  0
LINE
  5
1791
  8
LOGO
 62
     6
 10
89.468846086468659
 20
-139.68690944875189
 30
0.0
 11
30.655450393082269
 21
-139.686909448752
 31
0.0
  0
LINE
  5
1792
  8
LOGO
 62
     6
 10
89.468846086468659
 20
-108.3705062456736
 30
0.0
 11
30.655450393082269
 21
-108.3705062456736
 31
0.0
  0
TEXT
  5
1793
  8
LOGO
  6
CONTINUOUS
 62
     6
 10
40.540234554739612
 20
-136.12822726658399
 30
0.0
 40
7.1173643643359892
  1
Bore size
 41
0.8
  7
CHINESET
 72
     4
 11
60.062148239775468
 21
-132.56954508441601
 31
0.0
  0
TEXT
  5
1794
  8
LOGO
  6
CONTINUOUS
 62
     7
 10
49.86737145980576
 20
-90.026781619153027
 30
0.0
 40
14.234728728671969
  1
?A
  7
CHINESET
 72
     1
 11
61.390723287778322
 21
-82.909417254817043
 31
0.0
 73
     2
  0
LINE
  5
1795
  8
LOGO
 62
     6
 10
83.774954594999869
 20
-69.936738678259289
 30
0.0
 11
36.349341884551102
 21
-69.936738678259289
 31
0.0
  0
LINE
  5
1796
  8
LOGO
 62
     6
 10
83.77495459499977
 20
-95.559250389868879
 30
0.0
 11
36.349341884551102
 21
-95.559250389868851
 31
0.0
  0
LINE
  5
1797
  8
LOGO
 62
     1
 10
94.410721277164996
 20
-61.395901441056111
 30
0.0
 11
-393.3863200363603
 21
-61.395901441056111
 31
0.0
  0
LINE
  5
1798
  8
LOGO
 62
     1
 10
94.410721277164996
 20
-146.80427381308789
 30
0.0
 11
-393.3863200363603
 21
-146.80427381308789
 31
0.0
  0
LINE
  5
1799
  8
LOGO
  6
CONTINUOUS
 62
     6
 10
-230.99560119286321
 20
-84.094602714391854
 30
0.0
 11
-215.449385965625
 21
-82.041133110747538
 31
0.0
  0
LINE
  5
179A
  8
LOGO
  6
CONTINUOUS
 62
     6
 10
-230.99560119286321
 20
-89.9056857642382
 30
0.0
 11
-215.449385965625
 21
-91.959155367882516
 31
0.0
  0
LINE
  5
179B
  8
LOGO
 62
     1
 10
-205.48790081789031
 20
-78.477575915462467
 30
0.0
 11
-330.75351363020371
 21
-78.477575915462467
 31
0.0
  0
LINE
  5
179C
  8
LOGO
 62
     1
 10
-205.48790081789031
 20
-95.559250389868851
 30
0.0
 11
-330.75351363020371
 21
-95.559250389868851
 31
0.0
  0
TEXT
  5
179D
  8
LOGO
 62
     6
 10
-249.61415160600549
 20
-74.207157296860885
 30
0.0
 40
8.5408372372031867
  1
1 : 1
  7
CHINESET
 72
     1
 11
-234.56600980712369
 21
-69.936738678259289
 31
0.0
 73
     2
  0
TEXT
  5
179E
  8
LOGO
 62
     6
 10
-249.61415160600549
 20
-108.3705062456736
 30
0.0
 40
8.5408372372031867
  1
m/m
  7
CHINESET
 72
     1
 11
-234.56600980712369
 21
-104.100087627072
 31
0.0
 73
     2
  0
LINE
  5
179F
  8
LOGO
 62
     1
 10
-205.48790081789031
 20
-112.64092486427511
 30
0.0
 11
-393.38632003636047
 21
-112.64092486427511
 31
0.0
  0
TEXT
  5
17A0
  8
LOGO
  6
CONTINUOUS
 62
     5
 10
-390.59075980422102
 20
-130.0259279530745
 30
0.0
 40
12.81125585580477
  1
金器工業股份有限公司
 41
0.8
  7
LOGO
  0
TEXT
  5
17A1
  8
LOGO
  6
CONTINUOUS
 62
     5
 10
-386.92238882839678
 20
-142.8396938105858
 30
0.0
 40
8.5408372372031867
  1
MINDMAN INDUSTRIAL CO.,LTD
 41
0.85
  7
CHINESET
  0
SOLID
  5
17A2
  8
LOGO
 62
     5
 10
-384.52506433274931
 20
-98.442998649875193
 30
0.0
 11
-380.83223042295191
 21
-98.442998649876415
 31
0.0
 12
-365.4241992820713
 22
-63.424746056966647
 32
0.0
 13
-361.73136537227418
 23
-63.42474605696907
 33
0.0
  0
SOLID
  5
17A3
  8
LOGO
 62
     5
 10
-379.30416121889562
 20
-98.442998649875193
 30
0.0
 11
-375.61132730909839
 21
-98.442998649875193
 31
0.0
 12
-361.73136537227418
 22
-66.226206264400616
 32
0.0
 13
-365.4241992820713
 23
-79.766597266992349
 33
0.0
  0
SOLID
  5
17A4
  8
LOGO
 62
     2
 10
-380.83223042295191
 20
-98.442998649876415
 30
0.0
 11
-379.30416121889562
 21
-98.442998649875193
 31
0.0
 12
-361.73136537227418
 22
-63.42474605696907
 32
0.0
 13
-360.20329616821908
 23
-63.42474605696907
 33
0.0
  0
SOLID
  5
17A5
  8
LOGO
 62
     5
 10
-380.72686432050131
 20
-104.8099536667677
 30
0.0
 11
-379.45347331712412
 21
-104.8099536667677
 31
0.0
 12
-380.72686432050131
 22
-111.17690868365909
 32
0.0
 13
-379.45347331712412
 23
-111.17690868365909
 33
0.0
  0
SOLID
  5
17A6
  8
LOGO
 62
     5
 10
-390.44558268395809
 20
-111.17690868365909
 30
0.0
 11
-389.17219168057829
 21
-111.17690868365909
 31
0.0
 12
-385.5862235022305
 22
-104.8099536667677
 32
0.0
 13
-384.31283249885303
 23
-104.8099536667677
 33
0.0
  0
SOLID
  5
17A7
  8
LOGO
 62
     5
 10
-385.5862235022305
 20
-104.8099536667677
 30
0.0
 11
-384.31283249885303
 21
-104.8099536667677
 31
0.0
 12
-385.5862235022305
 22
-111.17690868365909
 32
0.0
 13
-384.31283249885303
 23
-111.17690868365909
 33
0.0
  0
SOLID
  5
17A8
  8
LOGO
 62
     5
 10
-385.5862235022305
 20
-111.17690868365909
 30
0.0
 11
-384.31283249885303
 21
-111.17690868365909
 31
0.0
 12
-380.72686432050131
 22
-104.8099536667677
 32
0.0
 13
-379.45347331712412
 23
-104.8099536667677
 33
0.0
  0
LINE
  5
17A9
  8
LOGO
 62
     1
 10
-393.3863200363603
 20
-146.80427381308789
 30
0.0
 11
-393.3863200363603
 21
-61.395901441056111
 31
0.0
  0
TEXT
  5
17AA
  8
LOGO
 62
     6
 10
-323.71113578327771
 20
-74.202954128929193
 30
0.0
 40
8.5408372372031867
  1
比例 Scale:
 41
0.9
  7
CHINESET
 72
     4
 11
-296.590164681391
 21
-69.936738678259289
 31
0.0
  0
TEXT
  5
17AB
  8
LOGO
 62
     6
 10
-320.7256556240232
 20
-91.168691221219675
 30
0.0
 40
8.5408372372031867
  1
投影 View:
 41
0.9
  7
CHINESET
 72
     4
 11
-296.590164681391
 21
-87.018413152665687
 31
0.0
  0
TEXT
  5
17AC
  8
LOGO
 62
     6
 10
-319.89063626913588
 20
-108.3705062456736
 30
0.0
 40
8.5408372372031867
  1
單位 Unit:
 41
0.9
  7
CHINESET
 72
     4
 11
-296.590164681391
 21
-104.100087627072
 31
0.0
  0
POLYLINE
  5
17AD
  8
LOGO
 62
     5
 66
     1
 10
0.0
 20
0.0
 30
0.0
 70
     1
 40
1.2754316940890089
 41
1.2754316940890089
  0
VERTEX
  5
17FE
  8
LOGO
 62
     5
 10
-349.72304006242518
 20
-107.993431175214
 30
0.0
 42
1.0
  0
VERTEX
  5
17FF
  8
LOGO
 62
     5
 10
-344.62131328606932
 20
-107.993431175214
 30
0.0
 42
1.0
  0
SEQEND
  5
1800
  8
LOGO
 62
     5
  0
LINE
  5
17AE
  8
LOGO
 62
     5
 10
-337.40959720774532
 20
-111.17690868365909
 30
0.0
 11
-337.40959720774532
 21
-107.3567356735248
 31
0.0
  0
SOLID
  5
17AF
  8
LOGO
 62
     5
 10
-345.26221750827699
 20
-104.8099536667677
 30
0.0
 11
-343.98882650489958
 21
-104.8099536667677
 31
0.0
 12
-345.26221750827699
 22
-111.17690868365909
 32
0.0
 13
-343.98882650489958
 23
-111.17690868365909
 33
0.0
  0
SOLID
  5
17B0
  8
LOGO
 62
     5
 10
-342.50316122125952
 20
-111.17690868365909
 30
0.0
 11
-341.22977021787977
 21
-111.17690868365909
 31
0.0
 12
-342.50316122125952
 22
-104.8099536667677
 32
0.0
 13
-341.22977021787977
 23
-104.8099536667677
 33
0.0
  0
SOLID
  5
17B1
  8
LOGO
 62
     5
 10
-338.68298821112262
 20
-107.3567356735248
 30
0.0
 11
-337.40959720774532
 21
-107.35673567352489
 31
0.0
 12
-338.68298821112262
 22
-111.17690868365909
 32
0.0
 13
-337.40959720774532
 23
-111.17690868365909
 33
0.0
  0
SOLID
  5
17B2
  8
LOGO
 62
     5
 10
-363.51424011610311
 20
-102.8998671616994
 30
0.0
 11
-362.24084911272593
 21
-102.8998671616994
 31
0.0
 12
-363.51424011610311
 22
-111.17690868365909
 32
0.0
 13
-362.24084911272593
 23
-111.17690868365909
 33
0.0
  0
SOLID
  5
17B3
  8
LOGO
 62
     5
 10
-360.755183829082
 20
-104.8099536667677
 30
0.0
 11
-359.48179282570459
 21
-104.8099536667677
 31
0.0
 12
-360.755183829082
 22
-111.17690868365909
 32
0.0
 13
-359.48179282570459
 23
-111.17690868365909
 33
0.0
  0
SOLID
  5
17B4
  8
LOGO
 62
     5
 10
-356.9350108189476
 20
-107.3567356735248
 30
0.0
 11
-355.66161981557019
 21
-107.3567356735248
 31
0.0
 12
-356.9350108189476
 22
-111.17690868365909
 32
0.0
 13
-355.66161981557019
 23
-111.17690868365909
 33
0.0
  0
SOLID
  5
17B5
  8
LOGO
 62
     5
 10
-353.11483780881298
 20
-107.3567356735248
 30
0.0
 11
-351.84144680543579
 21
-107.3567356735248
 31
0.0
 12
-353.11483780881298
 22
-111.17690868366149
 32
0.0
 13
-351.84144680543579
 23
-111.17690868366149
 33
0.0
  0
LINE
  5
17B6
  8
LOGO
 62
     1
 10
-330.75351363020371
 20
-112.64092486427521
 30
0.0
 11
-330.75351363020371
 21
-61.395901441056111
 31
0.0
  0
SOLID
  5
17B7
  8
LOGO
 62
     5
 10
-375.18703342677247
 20
-104.8099536667677
 30
0.0
 11
-373.91364242339529
 21
-104.8099536667677
 31
0.0
 12
-375.18703342677247
 22
-111.17690868365909
 32
0.0
 13
-373.91364242339529
 23
-111.17690868365909
 33
0.0
  0
SOLID
  5
17B8
  8
LOGO
 62
     5
 10
-371.36686041663842
 20
-107.3567356735248
 30
0.0
 11
-370.09346941325879
 21
-107.3567356735248
 31
0.0
 12
-371.36686041663842
 22
-111.17690868365909
 32
0.0
 13
-370.09346941325879
 23
-111.17690868365909
 33
0.0
  0
SOLID
  5
17B9
  8
LOGO
 62
     5
 10
-377.94608971379392
 20
-104.8099536667677
 30
0.0
 11
-376.67269871041299
 21
-104.8099536667677
 31
0.0
 12
-377.94608971379392
 22
-111.17690868366149
 32
0.0
 13
-376.67269871041299
 23
-111.17690868365909
 33
0.0
  0
POLYLINE
  5
17BA
  8
LOGO
 62
     5
 66
     1
 10
0.0
 20
0.0
 30
0.0
 70
     1
 40
1.2754316940890089
 41
1.2754316940890089
  0
VERTEX
  5
1801
  8
LOGO
 62
     5
 10
-367.97506267025022
 20
-107.993431175214
 30
0.0
 42
1.0
  0
VERTEX
  5
1802
  8
LOGO
 62
     5
 10
-362.87333589389419
 20
-107.993431175214
 30
0.0
 42
1.0
  0
SEQEND
  5
1803
  8
LOGO
 62
     5
  0
POLYLINE
  5
17BB
  8
LOGO
 62
     5
 66
     1
 10
0.0
 20
0.0
 30
0.0
 40
1.2754316940890089
 41
1.2754316940890089
  0
VERTEX
  5
1804
  8
LOGO
 62
     5
 10
-338.04323167336759
 20
-107.3567356735248
 30
0.0
 42
1.0
  0
VERTEX
  5
1805
  8
LOGO
 62
     5
 10
-341.86952675563458
 20
-107.3567356735248
 30
0.0
 42
1.0
  0
SEQEND
  5
1806
  8
LOGO
 62
     5
  0
SOLID
  5
17BC
  8
LOGO
 62
     5
 10
-341.10243111754238
 20
-98.442998649876415
 30
0.0
 11
-337.40959720774532
 21
-98.442998649876415
 31
0.0
 12
-341.10243111754238
 22
-63.42474605696907
 32
0.0
 13
-337.40959720774532
 23
-63.424746056966647
 33
0.0
  0
SOLID
  5
17BD
  8
LOGO
 62
     5
 10
-360.20329616821908
 20
-63.42474605696907
 30
0.0
 11
-356.51046225842202
 21
-63.424746056966647
 31
0.0
 12
-360.20329616821908
 22
-95.641538442443675
 32
0.0
 13
-356.51046225842202
 23
-82.101147439851914
 33
0.0
  0
SOLID
  5
17BE
  8
LOGO
 62
     5
 10
-360.20329616821908
 20
-95.641538442443675
 30
0.0
 11
-356.51046225842202
 21
-82.101147439851914
 31
0.0
 12
-342.63050032159782
 22
-63.424746056966647
 32
0.0
 13
-346.32333423139511
 23
-63.424746056966647
 33
0.0
  0
SOLID
  5
17BF
  8
LOGO
 62
     5
 10
-342.63050032159782
 20
-66.226206264400616
 30
0.0
 11
-346.32333423139511
 21
-79.766597266992349
 31
0.0
 12
-342.63050032159782
 22
-98.442998649876415
 32
0.0
 13
-346.32333423139511
 23
-98.442998649876415
 33
0.0
  0
SOLID
  5
17C0
  8
LOGO
 62
     2
 10
-342.63050032159782
 20
-63.424746056966647
 30
0.0
 11
-341.10243111754238
 21
-63.42474605696907
 31
0.0
 12
-342.63050032159782
 22
-98.442998649876415
 32
0.0
 13
-341.10243111754238
 23
-98.442998649876415
 33
0.0
  0
SOLID
  5
17C1
  8
LOGO
 62
     5
 10
-365.4241992820713
 20
-98.442998649875193
 30
0.0
 11
-361.73136537227418
 21
-98.442998649875193
 31
0.0
 12
-365.4241992820713
 22
-79.766597266992349
 32
0.0
 13
-361.73136537227418
 23
-66.226206264400616
 33
0.0
  0
SOLID
  5
17C2
  8
LOGO
 62
     2
 10
-361.73136537227418
 20
-63.42474605696907
 30
0.0
 11
-360.20329616821908
 21
-63.42474605696907
 31
0.0
 12
-361.73136537227418
 22
-98.442998649875193
 32
0.0
 13
-360.20329616821908
 23
-98.442998649875193
 33
0.0
  0
SOLID
  5
17C3
  8
LOGO
 62
     5
 10
-360.20329616821908
 20
-98.442998649875193
 30
0.0
 11
-356.51046225842202
 21
-98.442998649875193
 31
0.0
 12
-342.63050032159782
 22
-66.226206264400616
 32
0.0
 13
-346.32333423139511
 23
-79.766597266992349
 33
0.0
  0
SOLID
  5
17C4
  8
LOGO
 62
     2
 10
-361.73136537227418
 20
-98.442998649875193
 30
0.0
 11
-360.20329616821908
 21
-98.442998649875193
 31
0.0
 12
-342.63050032159782
 22
-63.424746056966647
 32
0.0
 13
-341.10243111754238
 23
-63.42474605696907
 33
0.0
  0
POLYLINE
  5
17C5
  8
LOGO
 62
     5
 66
     1
 10
0.0
 20
0.0
 30
0.0
 40
1.2754316940890089
 41
1.2754316940890089
  0
VERTEX
  5
1807
  8
LOGO
 62
     5
 10
-356.29525428119251
 20
-107.3567356735248
 30
0.0
 42
1.0
  0
VERTEX
  5
1808
  8
LOGO
 62
     5
 10
-360.12154936345968
 20
-107.3567356735248
 30
0.0
 42
1.0
  0
SEQEND
  5
1809
  8
LOGO
 62
     5
  0
POLYLINE
  5
17C6
  8
LOGO
 62
     5
 66
     1
 10
0.0
 20
0.0
 30
0.0
 40
1.2754316940890089
 41
1.2754316940890089
  0
VERTEX
  5
180A
  8
LOGO
 62
     5
 10
-370.72710387888299
 20
-107.3567356735248
 30
0.0
 42
1.0
  0
VERTEX
  5
180B
  8
LOGO
 62
     5
 10
-374.55339896115021
 20
-107.3567356735248
 30
0.0
 42
1.0
  0
SEQEND
  5
180C
  8
LOGO
 62
     5
  0
SOLID
  5
17C7
  8
LOGO
 62
     5
 10
-377.94608971379392
 20
-103.91857996440341
 30
0.0
 11
-376.67269871041299
 21
-103.91857996440341
 31
0.0
 12
-377.94608971379392
 22
-102.8998671616994
 32
0.0
 13
-376.67269871041299
 23
-102.8998671616994
 33
0.0
  0
POLYLINE
  5
17C8
  8
LOGO
 62
     5
 66
     1
 10
0.0
 20
0.0
 30
0.0
 70
     1
  0
VERTEX
  5
180D
  8
LOGO
 62
     5
 10
-349.0822631793144
 20
-107.9934311752134
 30
0.0
 42
1.0000000573306349
  0
VERTEX
  5
180E
  8
LOGO
 62
     5
 10
-345.26209016917829
 20
-107.9934311752134
 30
0.0
 42
1.0000000573306349
  0
SEQEND
  5
180F
  8
LOGO
 62
     5
  0
CIRCLE
  5
17C9
  8
LOGO
 62
     5
 10
-347.17217667424649
 20
-107.9934311752134
 30
0.0
 40
1.9100865050677001
  0
POLYLINE
  5
17CA
  8
LOGO
 62
     5
 66
     1
 10
0.0
 20
0.0
 30
0.0
 40
1.2754316940890089
 41
1.2754316940890089
  0
VERTEX
  5
1810
  8
LOGO
 62
     5
 10
-352.47508127105817
 20
-107.3567356735248
 30
0.0
 42
1.0
  0
VERTEX
  5
1811
  8
LOGO
 62
     5
 10
-356.30137635332528
 20
-107.3567356735248
 30
0.0
 42
1.0
  0
SEQEND
  5
1812
  8
LOGO
 62
     5
  0
LINE
  5
17CB
  8
LOGO
 62
     1
 10
-262.42681573257818
 20
-112.64092486427521
 30
0.0
 11
-262.42681573257818
 21
-61.395901441056111
 31
0.0
  0
CIRCLE
  5
17CC
  8
LOGO
  6
CONTINUOUS
 62
     6
 10
-246.61238731686171
 20
-87.000144239315034
 30
0.0
 40
4.959011128567492
  0
CIRCLE
  5
17CD
  8
LOGO
  6
CONTINUOUS
 62
     6
 10
-246.61238731686171
 20
-87.000144239315034
 30
0.0
 40
2.9055415249231631
  0
LINE
  5
17CE
  8
LOGO
 62
     6
 10
-230.99560119286309
 20
-89.9056857642382
 30
0.0
 11
-230.99560119286321
 21
-84.094602714391854
 31
0.0
  0
TEXT
  5
17CF
  8
LOGO
  6
CONTINUOUS
 62
     6
 10
-49.68380173132082
 20
-136.12822726658399
 30
0.0
 40
7.1173643643359892
  1
Model
  7
CHINESET
 72
     4
 11
-36.126917227823689
 21
-132.56954508441601
 31
0.0
  0
TEXT
  5
17D0
  8
LOGO
  6
CONTINUOUS
 62
     7
 10
-85.097771932358526
 20
-89.865358898400075
 30
0.0
 40
14.234728728671969
  1
MACP400
  7
CHINESET
 72
     1
 11
-36.970831944943768
 21
-82.747994534064091
 31
0.0
 73
     2
  0
LINE
  5
17D1
  8
LOGO
 62
     6
 10
15.758640780509319
 20
-69.936738678259289
 30
0.0
 11
-88.012475236156703
 21
-69.936738678259289
 31
0.0
  0
LINE
  5
17D2
  8
LOGO
 62
     6
 10
15.758640780509319
 20
-95.559250389868851
 30
0.0
 11
-88.012475236156703
 21
-95.559250389868851
 31
0.0
  0
LINE
  5
17D3
  8
LOGO
 62
     6
 10
-7.6574597704797043
 20
-108.3705062456736
 30
0.0
 11
-64.596374685167575
 21
-108.3705062456736
 31
0.0
  0
LINE
  5
17D4
  8
LOGO
 62
     6
 10
-7.6574597704797043
 20
-139.686909448752
 30
0.0
 11
-64.596374685167575
 21
-139.686909448752
 31
0.0
  0
TEXT
  5
17D5
  8
LOGO
 62
     7
 10
-198.49680804639149
 20
-82.780215460175555
 30
0.0
 40
17.08167447440637
  1
訂購代號:
  7
CHINESET
  0
TEXT
  5
17D6
  8
LOGO
 62
     7
 10
-200.5398704866642
 20
-98.811856029598744
 30
0.0
 40
11.38778298293758
  1
Order example:
 41
0.8
  7
CHINESET
  0
LINE
  5
17D7
  8
LOGO
 62
     1
 10
-205.48790081789031
 20
-146.80427381308789
 30
0.0
 11
-205.48790081789031
 21
-61.395901441056111
 31
0.0
  0
LINE
  5
17D8
  8
LOGO
 62
     6
 10
-215.449385965625
 20
-91.959155367882516
 30
0.0
 11
-215.449385965625
 21
-82.041133110747538
 31
0.0
  0
LINE
  5
17D9
  8
LOGO
 62
     6
 10
-64.596374685167575
 20
-108.3705062456736
 30
0.0
 11
-64.596374685167575
 21
-139.686909448752
 31
0.0
  0
LINE
  5
17DA
  8
LOGO
 62
     6
 10
-88.012475236156703
 20
-69.936738678259289
 30
0.0
 11
-88.012475236156703
 21
-95.559250389868851
 31
0.0
  0
LINE
  5
17DB
  8
LOGO
 62
     6
 10
-7.6574597704796474
 20
-108.3705062456736
 30
0.0
 11
-7.6574597704796474
 21
-139.68690944875189
 31
0.0
  0
TEXT
  5
17DC
  8
LOGO
 62
     6
 10
-47.514700210761283
 20
-123.73728820394859
 30
0.0
 40
11.38778298293758
  1
型式
  7
CHINESET
 72
     4
 11
-36.126917227823689
 21
-118.334816355744
 31
0.0
  0
LINE
  5
17DD
  8
LOGO
 62
     6
 10
-36.126917227823689
 20
-95.559250389868851
 30
0.0
 11
-36.126917227823689
 21
-108.3705062456736
 31
0.0
  0
LINE
  5
17DE
  8
LOGO
 62
     6
 10
15.75864078050938
 20
-69.936738678259289
 30
0.0
 11
15.75864078050938
 21
-95.559250389868851
 31
0.0
  0
LINE
  5
17DF
  8
LOGO
 62
     6
 10
30.655450393082269
 20
-108.3705062456736
 30
0.0
 11
30.655450393082269
 21
-139.686909448752
 31
0.0
  0
LINE
  5
17E0
  8
LOGO
  6
CONTINUOUS
 62
     7
 10
20.604357962668129
 20
-82.83875351986029
 30
0.0
 11
31.918324210606041
 21
-82.83875351986029
 31
0.0
  0
LINE
  5
17E1
  8
LOGO
 62
     6
 10
36.349341884551222
 20
-69.936738678259289
 30
0.0
 11
36.349341884551102
 21
-95.559250389868851
 31
0.0
  0
LINE
  5
17E2
  8
LOGO
 62
     6
 10
60.665105498868513
 20
-95.559250389868851
 30
0.0
 11
60.665105498868513
 21
-108.3705062456736
 31
0.0
  0
LINE
  5
17E3
  8
LOGO
 62
     6
 10
89.468846086468659
 20
-108.3705062456736
 30
0.0
 11
89.468846086468659
 21
-139.80499305404669
 31
0.0
  0
LINE
  5
17E4
  8
LOGO
 62
     6
 10
83.774954594999869
 20
-69.936738678259289
 30
0.0
 11
83.77495459499977
 21
-95.559250389868879
 31
0.0
  0
LINE
  5
17E5
  8
LOGO
 62
     1
 10
94.410721277164996
 20
-146.80427381308789
 30
0.0
 11
94.410721277164996
 21
-61.395901441056111
 31
0.0
  0
ENDSEC
  0
EOF
