  0
SECTION
  2
HEADER
  9
$ACADVER
  1
AC1015
  9
$ACADMAINTVER
 70
    20
  9
$DWGCODEPAGE
  3
ANSI_950
  9
$INSBASE
 10
0.0
 20
0.0
 30
0.0
  9
$EXTMIN
 10
-154.9667105011624
 20
169.0887802135423
 30
-0.0059988888704652
  9
$EXTMAX
 10
145.0679306109675
 20
581.6270614489233
 30
196.5925884443726
  9
$LIMMIN
 10
0.0
 20
0.0
  9
$LIMMAX
 10
420.0
 20
297.0
  9
$ORTHOMODE
 70
     1
  9
$REGENMODE
 70
     1
  9
$FILLMODE
 70
     1
  9
$QTEXTMODE
 70
     0
  9
$MIRRTEXT
 70
     1
  9
$LTSCALE
 40
3.0
  9
$ATTMODE
 70
     1
  9
$TEXTSIZE
 40
3.0
  9
$TRACEWID
 40
1.0
  9
$TEXTSTYLE
  7
CHINESET
  9
$CLAYER
  8
0
  9
$CELTYPE
  6
ByLayer
  9
$CECOLOR
 62
   256
  9
$CELTSCALE
 40
1.0
  9
$DISPSILH
 70
     0
  9
$DIMSCALE
 40
1.0
  9
$DIMASZ
 40
3.0
  9
$DIMEXO
 40
1.5
  9
$DIMDLI
 40
8.0
  9
$DIMRND
 40
0.0
  9
$DIMDLE
 40
0.0
  9
$DIMEXE
 40
1.5
  9
$DIMTP
 40
0.1
  9
$DIMTM
 40
0.1
  9
$DIMTXT
 40
3.0
  9
$DIMCEN
 40
0.0
  9
$DIMTSZ
 40
0.0
  9
$DIMTOL
 70
     0
  9
$DIMLIM
 70
     0
  9
$DIMTIH
 70
     0
  9
$DIMTOH
 70
     0
  9
$DIMSE1
 70
     0
  9
$DIMSE2
 70
     0
  9
$DIMTAD
 70
     1
  9
$DIMZIN
 70
     8
  9
$DIMBLK
  1

  9
$DIMASO
 70
     1
  9
$DIMSHO
 70
     1
  9
$DIMPOST
  1

  9
$DIMAPOST
  1
"
  9
$DIMALT
 70
     0
  9
$DIMALTD
 70
     2
  9
$DIMALTF
 40
0.0393701
  9
$DIMLFAC
 40
1.0
  9
$DIMTOFL
 70
     1
  9
$DIMTVP
 40
0.0
  9
$DIMTIX
 70
     0
  9
$DIMSOXD
 70
     0
  9
$DIMSAH
 70
     0
  9
$DIMBLK1
  1

  9
$DIMBLK2
  1

  9
$DIMSTYLE
  2
AM_ISO
  9
$DIMCLRD
 70
   256
  9
$DIMCLRE
 70
   256
  9
$DIMCLRT
 70
   256
  9
$DIMTFAC
 40
0.6
  9
$DIMGAP
 40
1.0
  9
$DIMJUST
 70
     0
  9
$DIMSD1
 70
     0
  9
$DIMSD2
 70
     0
  9
$DIMTOLJ
 70
     0
  9
$DIMTZIN
 70
     8
  9
$DIMALTZ
 70
     0
  9
$DIMALTTZ
 70
     0
  9
$DIMUPT
 70
     0
  9
$DIMDEC
 70
     2
  9
$DIMTDEC
 70
     8
  9
$DIMALTU
 70
     2
  9
$DIMALTTD
 70
     2
  9
$DIMTXSTY
  7
CHINESET
  9
$DIMAUNIT
 70
     0
  9
$DIMADEC
 70
     0
  9
$DIMALTRND
 40
0.0
  9
$DIMAZIN
 70
     2
  9
$DIMDSEP
 70
    46
  9
$DIMATFIT
 70
     3
  9
$DIMFRAC
 70
     0
  9
$DIMLDRBLK
  1

  9
$DIMLUNIT
 70
     2
  9
$DIMLWD
 70
    -1
  9
$DIMLWE
 70
    -1
  9
$DIMTMOVE
 70
     0
  9
$LUNITS
 70
     2
  9
$LUPREC
 70
     2
  9
$SKETCHINC
 40
1.0
  9
$FILLETRAD
 40
2.5
  9
$AUNITS
 70
     0
  9
$AUPREC
 70
     0
  9
$MENU
  1
.
  9
$ELEVATION
 40
0.0
  9
$PELEVATION
 40
0.0
  9
$THICKNESS
 40
0.0
  9
$LIMCHECK
 70
     0
  9
$CHAMFERA
 40
2.5
  9
$CHAMFERB
 40
2.5
  9
$CHAMFERC
 40
20.0
  9
$CHAMFERD
 40
0.0
  9
$SKPOLY
 70
     0
  9
$TDCREATE
 40
2454314.615040868
  9
$TDUCREATE
 40
2454314.281707535
  9
$TDUPDATE
 40
2454314.640990660
  9
$TDUUPDATE
 40
2454314.307657327
  9
$TDINDWG
 40
0.0253206250
  9
$TDUSRTIMER
 40
0.0253206250
  9
$USRTIMER
 70
     1
  9
$ANGBASE
 50
0.0
  9
$ANGDIR
 70
     0
  9
$PDMODE
 70
     0
  9
$PDSIZE
 40
0.0
  9
$PLINEWID
 40
0.0
  9
$SPLFRAME
 70
     0
  9
$SPLINETYPE
 70
     6
  9
$SPLINESEGS
 70
     8
  9
$HANDSEED
  5
1995
  9
$SURFTAB1
 70
     6
  9
$SURFTAB2
 70
     6
  9
$SURFTYPE
 70
     6
  9
$SURFU
 70
     6
  9
$SURFV
 70
     6
  9
$UCSBASE
  2

  9
$UCSNAME
  2

  9
$UCSORG
 10
0.0
 20
0.0
 30
0.0
  9
$UCSXDIR
 10
1.0
 20
0.0
 30
0.0
  9
$UCSYDIR
 10
0.0
 20
1.0
 30
0.0
  9
$UCSORTHOREF
  2

  9
$UCSORTHOVIEW
 70
     0
  9
$UCSORGTOP
 10
0.0
 20
0.0
 30
0.0
  9
$UCSORGBOTTOM
 10
0.0
 20
0.0
 30
0.0
  9
$UCSORGLEFT
 10
0.0
 20
0.0
 30
0.0
  9
$UCSORGRIGHT
 10
0.0
 20
0.0
 30
0.0
  9
$UCSORGFRONT
 10
0.0
 20
0.0
 30
0.0
  9
$UCSORGBACK
 10
0.0
 20
0.0
 30
0.0
  9
$PUCSBASE
  2

  9
$PUCSNAME
  2

  9
$PUCSORG
 10
0.0
 20
0.0
 30
0.0
  9
$PUCSXDIR
 10
1.0
 20
0.0
 30
0.0
  9
$PUCSYDIR
 10
0.0
 20
1.0
 30
0.0
  9
$PUCSORTHOREF
  2

  9
$PUCSORTHOVIEW
 70
     0
  9
$PUCSORGTOP
 10
0.0
 20
0.0
 30
0.0
  9
$PUCSORGBOTTOM
 10
0.0
 20
0.0
 30
0.0
  9
$PUCSORGLEFT
 10
0.0
 20
0.0
 30
0.0
  9
$PUCSORGRIGHT
 10
0.0
 20
0.0
 30
0.0
  9
$PUCSORGFRONT
 10
0.0
 20
0.0
 30
0.0
  9
$PUCSORGBACK
 10
0.0
 20
0.0
 30
0.0
  9
$USERI1
 70
     0
  9
$USERI2
 70
     0
  9
$USERI3
 70
     0
  9
$USERI4
 70
     0
  9
$USERI5
 70
     0
  9
$USERR1
 40
0.0
  9
$USERR2
 40
0.0
  9
$USERR3
 40
0.0
  9
$USERR4
 40
0.0
  9
$USERR5
 40
0.0
  9
$WORLDVIEW
 70
     1
  9
$SHADEDGE
 70
     3
  9
$SHADEDIF
 70
    70
  9
$TILEMODE
 70
     1
  9
$MAXACTVP
 70
    64
  9
$PINSBASE
 10
0.0
 20
0.0
 30
0.0
  9
$PLIMCHECK
 70
     0
  9
$PEXTMIN
 10
1.000000000000000E+20
 20
1.000000000000000E+20
 30
1.000000000000000E+20
  9
$PEXTMAX
 10
-1.000000000000000E+20
 20
-1.000000000000000E+20
 30
-1.000000000000000E+20
  9
$PLIMMIN
 10
0.0
 20
0.0
  9
$PLIMMAX
 10
420.0
 20
297.0
  9
$UNITMODE
 70
     0
  9
$VISRETAIN
 70
     1
  9
$PLINEGEN
 70
     0
  9
$PSLTSCALE
 70
     1
  9
$TREEDEPTH
 70
  3020
  9
$CMLSTYLE
  2
Standard
  9
$CMLJUST
 70
     0
  9
$CMLSCALE
 40
20.0
  9
$PROXYGRAPHICS
 70
     1
  9
$MEASUREMENT
 70
     1
  9
$CELWEIGHT
370
    -1
  9
$ENDCAPS
280
     0
  9
$JOINSTYLE
280
     0
  9
$LWDISPLAY
290
     0
  9
$INSUNITS
 70
     4
  9
$HYPERLINKBASE
  1

  9
$STYLESHEET
  1
彩色出圖.ctb
  9
$XEDIT
290
     1
  9
$CEPSNTYPE
380
     0
  9
$PSTYLEMODE
290
     1
  9
$FINGERPRINTGUID
  2
{F91B2B0A-EDDD-4F46-BB43-57EDAAE643EB}
  9
$VERSIONGUID
  2
{7D98B01F-F99D-4A9D-8F4D-CD6D746E773F}
  9
$EXTNAMES
290
     1
  9
$PSVPSCALE
 40
0.0
  9
$OLESTARTUP
290
     0
  0
ENDSEC
  0
SECTION
  2
CLASSES
  0
CLASS
  1
ACDBDICTIONARYWDFLT
  2
AcDbDictionaryWithDefault
  3
ObjectDBX Classes
 90
        0
280
     0
281
     0
  0
CLASS
  1
ACDBPLACEHOLDER
  2
AcDbPlaceHolder
  3
ObjectDBX Classes
 90
        0
280
     0
281
     0
  0
CLASS
  1
LAYOUT
  2
AcDbLayout
  3
ObjectDBX Classes
 90
        0
280
     0
281
     0
  0
CLASS
  1
ACME_DOCUMENT
  2
AcMeDbDoc
  3
AcMeServices
 90
        0
280
     0
281
     0
  0
CLASS
  1
AMGSETTINGSOBJ
  2
AmgSettingsObj
  3
"AcadM|Product Description: AutoCAD Mechanical 2000|Company: Autodesk"
 90
        0
280
     0
281
     0
  0
CLASS
  1
ACMESCOPE
  2
AcMeScope
  3
AcMeServices
 90
        0
280
     0
281
     0
  0
CLASS
  1
ACMECOMMANDHISTORY
  2
AcMeCommandHistory
  3
AcMeServices
 90
        0
280
     0
281
     0
  0
CLASS
  1
ACIMSYSVARMAN
  2
AcImSysVarManager
  3
AcMeServices
 90
        0
280
     0
281
     0
  0
CLASS
  1
ACIMREALSYSVAR
  2
AcImRealSysVar
  3
AcMeServices
 90
        0
280
     0
281
     0
  0
CLASS
  1
ACIMINTSYSVAR
  2
AcImIntSysVar
  3
AcMeServices
 90
        0
280
     0
281
     0
  0
CLASS
  1
ACMEDRAWINGMAN
  2
AcMeDrawingMan
  3
AcMeServices
 90
        0
280
     0
281
     0
  0
CLASS
  1
ACMEVIEW
  2
AcMeView
  3
AcMeServices
 90
        0
280
     0
281
     0
  0
CLASS
  1
ACDBENTITYCACHE
  2
AcMeEntityCache
  3
AcMeServices
 90
        0
280
     0
281
     0
  0
CLASS
  1
GSMANAGER
  2
AcMeGSManager
  3
AcMeServices
 90
        0
280
     0
281
     0
  0
CLASS
  1
AMDTINTERNALREACTOR
  2
AmdtInternalReactor
  3
AcMeServices
 90
        0
280
     0
281
     0
  0
CLASS
  1
ACMESTATEMGR
  2
AcMeStateMgr
  3
AcMeServices
 90
        0
280
     0
281
     0
  0
CLASS
  1
ACGREFMASTER
  2
AcGrefMaster
  3
AcAttribServices
 90
        0
280
     0
281
     0
  0
CLASS
  1
ACME_DATABASE
  2
AcMeDbDatabase
  3
AcMeServices
 90
        0
280
     0
281
     0
  0
CLASS
  1
ACRFINSADJUSTERMGR
  2
AcRfInsAdjusterMgr
  3
AcMeServices
 90
        0
280
     0
281
     0
  0
CLASS
  1
ACGREFACADMASTER
  2
AcGrefacadMaster
  3
AcGrefServices
 90
        0
280
     0
281
     0
  0
CLASS
  1
AMIMASTER
  2
AmiMaster
  3
AmiServices
 90
        0
280
     0
281
     0
  0
CLASS
  1
ACMDATADICTIONARY
  2
AcmDataDictionary
  3
"AcmSymBB|Product Description: AutoCAD Mechanical 2004 DX|Company: Autodesk"
 90
        0
280
     0
281
     0
  0
CLASS
  1
ACMDATAENTRYBLOCK
  2
AcmDataEntryBlock
  3
"AcmSymBB|Product Description: AutoCAD Mechanical 2004 DX|Company: Autodesk"
 90
        0
280
     0
281
     0
  0
CLASS
  1
ACIMSTRSYSVAR
  2
AcImStrSysVar
  3
AcMeServices
 90
        0
280
     0
281
     0
  0
CLASS
  1
ACMSTANDARDISO
  2
AcmStandardISO
  3
"Amdt_StdImp|Product Description: AutoCAD Mechanical 2004 DX|Company: Autodesk"
 90
        0
280
     0
281
     0
  0
CLASS
  1
AMGOBJPROPCFG
  2
AmgObjPropCfg
  3
"AmgLay|Product Description: AutoCAD Mechanical 2000|Company: Autodesk"
 90
        1
280
     0
281
     0
  0
CLASS
  1
AMDTEDGESTANDARDISO
  2
AmdtEdgeStdISO
  3
"Amdt_StdImp|Product Description: AutoCAD Mechanical 2004 DX|Company: Autodesk"
 90
        0
280
     0
281
     0
  0
CLASS
  1
ACMSURFSTANDARDISO
  2
AcmSurfTextStdISO
  3
"Amdt_StdImp|Product Description: AutoCAD Mechanical 2004 DX|Company: Autodesk"
 90
        0
280
     0
281
     0
  0
CLASS
  1
ACMFCFSTANDARDISO
  2
AcmFCFStdISO
  3
"Amdt_StdImp|Product Description: AutoCAD Mechanical 2004 DX|Company: Autodesk"
 90
        0
280
     0
281
     0
  0
CLASS
  1
ACMWELDSTANDARDISO
  2
AcmWeldingStdISO
  3
"Amdt_StdImp|Product Description: AutoCAD Mechanical 2004 DX|Company: Autodesk"
 90
        0
280
     0
281
     0
  0
CLASS
  1
ACMIDSTANDARDISO
  2
AcmIdStdISO
  3
"Amdt_StdImp|Product Description: AutoCAD Mechanical 2004 DX|Company: Autodesk"
 90
        0
280
     0
281
     0
  0
CLASS
  1
ACMDATUMSTANDARDISO
  2
AcmDatumStdISO
  3
"Amdt_StdImp|Product Description: AutoCAD Mechanical 2004 DX|Company: Autodesk"
 90
        0
280
     0
281
     0
  0
CLASS
  1
ACMBOMSTANDARDISO
  2
AcmBOMStdISO
  3
"Amdt_StdImp|Product Description: AutoCAD Mechanical 2004 DX|Company: Autodesk"
 90
        0
280
     0
281
     0
  0
CLASS
  1
ACMDETAILSTANDARDISO
  2
AmdtDetailSymStdISO
  3
"Amdt_StdImp|Product Description: AutoCAD Mechanical 2004 DX|Company: Autodesk"
 90
        0
280
     0
281
     0
  0
CLASS
  1
ACMSECTIONSTANDARDISO
  2
AmdtSectionSymStdISO
  3
"Amdt_StdImp|Product Description: AutoCAD Mechanical 2004 DX|Company: Autodesk"
 90
        0
280
     0
281
     0
  0
CLASS
  1
ACMCENTERLINESTANDARDISO
  2
AmdtCenterLineStdISO
  3
"Amdt_StdImp|Product Description: AutoCAD Mechanical 2004 DX|Company: Autodesk"
 90
        0
280
     0
281
     0
  0
CLASS
  1
ACMNOTESTANDARDISO
  2
AmdtNoteStdISO
  3
"Amdt_StdImp|Product Description: AutoCAD Mechanical 2004 DX|Company: Autodesk"
 90
        0
280
     0
281
     0
  0
CLASS
  1
ACAMGLAYSTD
  2
AcAmgLayStd
  3
"AcAmgLayStd|Product Description: AutoCAD Mechanical 2000|Company: Autodesk"
 90
        0
280
     0
281
     0
  0
CLASS
  1
ACAMGDIMSTD
  2
AcAmgDimStd
  3
"AcAmgDimStd|Product Description: AutoCAD Mechanical 2000|Company: Autodesk"
 90
        0
280
     0
281
     0
  0
CLASS
  1
ACAMGHOLECHARTSTDISO
  2
AcAmgHoleChartStdISO
  3
ACMSYMBB_MODULE_NAME
 90
        0
280
     0
281
     0
  0
CLASS
  1
ACAMGTITLESTD
  2
AcAmgTitleStd
  3
"TITLEAPP"
 90
        0
280
     0
281
     0
  0
CLASS
  1
LAYER_INDEX
  2
AcDbLayerIndex
  3
ObjectDBX Classes
 90
    32768
280
     0
281
     0
  0
CLASS
  1
IDBUFFER
  2
AcDbIdBuffer
  3
ObjectDBX Classes
 90
    32768
280
     0
281
     0
  0
CLASS
  1
DICTIONARYVAR
  2
AcDbDictionaryVar
  3
ObjectDBX Classes
 90
        0
280
     0
281
     0
  0
CLASS
  1
AM_DRAWING_MGR
  2
AcDmDwgMgr
  3
AcMechDwgViewMgmt
 90
        0
280
     0
281
     0
  0
CLASS
  1
AM_DWG_DOCUMENT
  2
AcDmDwgDocument
  3
AcMechDwgViewMgmt
 90
        0
280
     0
281
     0
  0
CLASS
  1
AM_DWG_SHEET
  2
AcDmSheet
  3
AcMechDwgViewMgmt
 90
        0
280
     0
281
     0
  0
CLASS
  1
AM_VIEWDIMPARMAP
  2
AcDmViewDimParMap
  3
AcMechDwgViewMgmt
 90
        0
280
     0
281
     0
  0
CLASS
  1
AM_DWGMGR_NAME
  2
AcDmDwgMgrName
  3
AcMechDwgViewMgmt
 90
        0
280
     0
281
     0
  0
CLASS
  1
AMDTMENUSTATEMGR
  2
AmdtMenuStateMgr
  3
McadcomServices
 90
        0
280
     0
281
     0
  0
CLASS
  1
AMDTMCOMMENUSTATE
  2
AmdtMcomMenuState
  3
McadcomServices
 90
        0
280
     0
281
     0
  0
CLASS
  1
MAPIAMMOUDLE
  2
MApiAmModule
  3
MApiAmServices
 90
        0
280
     0
281
     0
  0
CLASS
  1
AMDTADMENUSTATE
  2
AmdtAdMenuState
  3
DesignerServices
 90
        0
280
     0
281
     0
  0
CLASS
  1
ADAPPL
  2
AcAdAppl
  3
DesignerServices
 90
        0
280
     0
281
     0
  0
CLASS
  1
DEPMGR
  2
AcAdDepMgr
  3
DesignerServices
 90
        0
280
     0
281
     0
  0
CLASS
  1
PARAMMGR
  2
AcAdParamMgr
  3
DesignerServices
 90
        0
280
     0
281
     0
  0
CLASS
  1
PARAMSCOPE
  2
AcAdParamScope
  3
DesignerServices
 90
        0
280
     0
281
     0
  0
CLASS
  1
NAMEDAPPL
  2
AcAdNamedAppl
  3
DesignerServices
 90
        0
280
     0
281
     0
  0
CLASS
  1
AMDTDMMENUSTATE
  2
AmdtDmMenuState
  3
AcMechDwgViewMgmt
 90
        0
280
     0
281
     0
  0
CLASS
  1
AMDTAMMENUSTATE
  2
AmdtAmMenuState
  3
DesignerAssemblies
 90
        0
280
     0
281
     0
  0
CLASS
  1
ACAMPROJECT
  2
AcAmProject
  3
DesignerAssemblies
 90
        0
280
     0
281
     0
  0
CLASS
  1
ACAMGRCOMPDEF
  2
AcAmGrCompDef
  3
DesignerAssemblies
 90
        0
280
     0
281
     0
  0
CLASS
  1
ACCMCONTEXT
  2
AcCmContext
  3
DesignerAssemblies
 90
        0
280
     0
281
     0
  0
CLASS
  1
ACAMCOMPDEF
  2
AcAmCompDef
  3
DesignerAssemblies
 90
        0
280
     0
281
     0
  0
CLASS
  1
ACAMCOMPDEFMGR
  2
AcAmCompDefMgr
  3
DesignerAssemblies
 90
        0
280
     0
281
     0
  0
CLASS
  1
AMCONTEXTMGR
  2
AcAmContextMgr
  3
DesignerAssemblies
 90
        0
280
     0
281
     0
  0
CLASS
  1
ACAMCONTEXTMODELER
  2
AcAmContextModeler
  3
DesignerAssemblies
 90
        0
280
     0
281
     0
  0
CLASS
  1
ACMTHREADLINESTANDARDISO
  2
AmdtThreadLineStdISO
  3
"Amdt_StdImp|Product Description: AutoCAD Mechanical 2004 DX|Company: Autodesk"
 90
        0
280
     0
281
     0
  0
CLASS
  1
CATALOGSTATE
  2
AcAmCatalogState
  3
DesignerAssemblies
 90
        0
280
     0
281
     0
  0
CLASS
  1
ACAMGRCOMPDEFSET
  2
AcAmGrCompDefSet
  3
DesignerAssemblies
 90
        0
280
     0
281
     0
  0
CLASS
  1
AMDTBROWSERDBTAB
  2
AmdtBrowserDbTab
  3
McadcomServices
 90
        0
280
     0
281
     0
  0
CLASS
  1
CBROWSERAPPOBJECT
  2
CBrowserAppObject
  3
McadcomServices
 90
        0
280
     0
281
     0
  0
CLASS
  1
DM_PLACEHOLDER
  2
AcDmSelsetPlaceholder
  3
AcMechDwgViewMgmt
 90
        0
280
     0
281
     0
  0
CLASS
  1
TABLESTYLE
  2
AcDbTableStyle
  3
ObjectDBX Classes
 90
     2047
280
     0
281
     0
  0
CLASS
  1
VAACXREFPANELOBJECT
  2
VaAcXREFPanelObject
  3
VAAC_ADDIN
 90
    32768
280
     0
281
     0
  0
CLASS
  1
VAACIMAGEINVENTORY
  2
VaAcImageInventory
  3
VAAC_ADDIN
 90
    32768
280
     0
281
     0
  0
CLASS
  1
AMDTNOTETEMPLATEDB
  2
AmdtNoteTemplateDB
  3
AMDT_STDIMP_MODULE_NAME
 90
        0
280
     0
281
     0
  0
CLASS
  1
ACMBOM
  2
AcmBom
  3
"AcmSymBB|Product Description: AutoCAD Mechanical 2004 DX|Company: Autodesk"
 90
    32768
280
     0
281
     0
  0
CLASS
  1
AMDTFORMULAUPDATEDISPATCHER
  2
AmdtFormulaUpdateDispatcher
  3
AcMeServices
 90
        0
280
     0
281
     0
  0
CLASS
  1
ACMPARTLIST
  2
AcmPartList
  3
"AcmSymBB|Product Description: AutoCAD Mechanical 2004 DX|Company: Autodesk"
 90
    33791
280
     0
281
     1
  0
CLASS
  1
ACAMGFILTERDAT
  2
AcAmgFilterDat
  3
"AcadM|Product Description: AutoCAD Mechanical 2000|Company: Autodesk"
 90
        0
280
     0
281
     0
  0
CLASS
  1
DIMASSOC
  2
AcDbDimAssoc
  3
"AcDbDimAssoc|Product Desc:     AcDim ARX App For Dimension|Company:          Autodesk, Inc.|WEB Address:      www.autodesk.com"
 90
        0
280
     0
281
     0
  0
CLASS
  1
SORTENTSTABLE
  2
AcDbSortentsTable
  3
ObjectDBX Classes
 90
        0
280
     0
281
     0
  0
CLASS
  1
ACMSTANDARDANSI
  2
AcmStandardANSI
  3
"Amdt_StdImp|Product Description: AutoCAD Mechanical 2004 DX|Company: Autodesk"
 90
        0
280
     0
281
     0
  0
CLASS
  1
ACMSURFSTANDARDANSI
  2
AcmSurfTextStdANSI
  3
"Amdt_StdImp|Product Description: AutoCAD Mechanical 2004 DX|Company: Autodesk"
 90
        0
280
     0
281
     0
  0
CLASS
  1
ACMFCFSTANDARDANSI
  2
AcmFCFStdANSI
  3
"Amdt_StdImp|Product Description: AutoCAD Mechanical 2004 DX|Company: Autodesk"
 90
        0
280
     0
281
     0
  0
CLASS
  1
ACMWELDSTANDARDANSI
  2
AcmWeldingStdANSI
  3
"Amdt_StdImp|Product Description: AutoCAD Mechanical 2004 DX|Company: Autodesk"
 90
        0
280
     0
281
     0
  0
CLASS
  1
ACMIDSTANDARDANSI
  2
AcmIdStdANSI
  3
"Amdt_StdImp|Product Description: AutoCAD Mechanical 2004 DX|Company: Autodesk"
 90
        0
280
     0
281
     0
  0
CLASS
  1
ACMDATUMSTANDARDANSI
  2
AcmDatumStdANSI
  3
"Amdt_StdImp|Product Description: AutoCAD Mechanical 2004 DX|Company: Autodesk"
 90
        0
280
     0
281
     0
  0
CLASS
  1
ACMBOMSTANDARDANSI
  2
AcmBOMStdANSI
  3
"Amdt_StdImp|Product Description: AutoCAD Mechanical 2004 DX|Company: Autodesk"
 90
        0
280
     0
281
     0
  0
CLASS
  1
ACMDETAILSTANDARDANSI
  2
AmdtDetailSymStdANSI
  3
"Amdt_StdImp|Product Description: AutoCAD Mechanical 2004 DX|Company: Autodesk"
 90
        0
280
     0
281
     0
  0
CLASS
  1
ACMSECTIONSTANDARDANSI
  2
AmdtSectionSymStdANSI
  3
"Amdt_StdImp|Product Description: AutoCAD Mechanical 2004 DX|Company: Autodesk"
 90
        0
280
     0
281
     0
  0
CLASS
  1
ACMCENTERLINESTANDARDANSI
  2
AmdtCenterLineStdANSI
  3
"Amdt_StdImp|Product Description: AutoCAD Mechanical 2004 DX|Company: Autodesk"
 90
        0
280
     0
281
     0
  0
CLASS
  1
ACMTHREADLINESTANDARDANSI
  2
AmdtThreadLineStdANSI
  3
"Amdt_StdImp|Product Description: AutoCAD Mechanical 2004 DX|Company: Autodesk"
 90
        0
280
     0
281
     0
  0
CLASS
  1
ACMNOTESTANDARDANSI
  2
AmdtNoteStdANSI
  3
"Amdt_StdImp|Product Description: AutoCAD Mechanical 2004 DX|Company: Autodesk"
 90
        0
280
     0
281
     0
  0
CLASS
  1
ACAMGHOLECHARTSTDANSI
  2
AcAmgHoleChartStdANSI
  3
ACMSYMBB_MODULE_NAME
 90
        0
280
     0
281
     0
  0
CLASS
  1
AMDTNOTE
  2
AmdtNote
  3
"AcmSymBB|Product Description: AutoCAD Mechanical 2004 DX|Company: Autodesk"
 90
     1023
280
     0
281
     1
  0
CLASS
  1
ACDBCIRCARCRES
  2
AcDbCircArcRes
  3
AcGrefServices
 90
    32768
280
     0
281
     0
  0
CLASS
  1
ACRFATTGENMGR
  2
AcRfAttGeneralMgr
  3
AcAttribServices
 90
        0
280
     0
281
     0
  0
ENDSEC
  0
SECTION
  2
TABLES
  0
TABLE
  2
VPORT
  5
8
330
0
100
AcDbSymbolTable
 70
    16
  0
VPORT
  5
198C
330
8
100
AcDbSymbolTableRecord
100
AcDbViewportTableRecord
  2
*Active
 70
     0
 10
0.0
 20
0.0
 11
1.0
 21
1.0
 12
-4.949389945097465
 22
375.3579208312328
 13
0.0
 23
0.0
 14
2.5
 24
2.5
 15
10.0
 25
10.0
 16
0.0
 26
0.0
 36
1.0
 17
0.0
 27
0.0
 37
0.0
 40
415.8968018424531
 41
1.661684782608695
 42
50.0
 43
0.0
 44
0.0
 50
0.0
 51
0.0
 71
     0
 72
   100
 73
     1
 74
     3
 75
     0
 76
     0
 77
     0
 78
     0
281
     0
 65
     1
110
0.0
120
0.0
130
0.0
111
1.0
121
0.0
131
0.0
112
0.0
122
1.0
132
0.0
 79
     0
146
0.0
  0
ENDTAB
  0
TABLE
  2
LTYPE
  5
5
330
0
100
AcDbSymbolTable
 70
    16
  0
LTYPE
  5
14
330
5
100
AcDbSymbolTableRecord
100
AcDbLinetypeTableRecord
  2
ByBlock
 70
     0
  3

 72
    65
 73
     0
 40
0.0
  0
LTYPE
  5
15
330
5
100
AcDbSymbolTableRecord
100
AcDbLinetypeTableRecord
  2
ByLayer
 70
     0
  3

 72
    65
 73
     0
 40
0.0
  0
LTYPE
  5
16
330
5
100
AcDbSymbolTableRecord
100
AcDbLinetypeTableRecord
  2
Continuous
 70
     0
  3
Solid line
 72
    65
 73
     0
 40
0.0
  0
LTYPE
  5
64
330
5
100
AcDbSymbolTableRecord
100
AcDbLinetypeTableRecord
  2
AM_ISO02W050
 70
     0
  3
__ __ __ __ __ __ __ __ __ __ __ __ __ __ __
 72
    65
 73
     2
 40
7.5
 49
6.0
 74
     0
 49
-1.5
 74
     0
  0
LTYPE
  5
65
330
5
100
AcDbSymbolTableRecord
100
AcDbLinetypeTableRecord
  2
AM_ISO08W050
 70
     0
  3
____ . ____ . ____ . ____ . ____ . ____ . ____
 72
    65
 73
     4
 40
18.0
 49
12.0
 74
     0
 49
-1.5
 74
     0
 49
3.0
 74
     0
 49
-1.5
 74
     0
  0
LTYPE
  5
66
330
5
100
AcDbSymbolTableRecord
100
AcDbLinetypeTableRecord
  2
AM_ISO09W050
 70
     0
  3
_____ . . _____ . . _____ . . ____ .. ____
 72
    65
 73
     6
 40
22.5
 49
12.0
 74
     0
 49
-1.5
 74
     0
 49
3.0
 74
     0
 49
-1.5
 74
     0
 49
3.0
 74
     0
 49
-1.5
 74
     0
  0
LTYPE
  5
67
330
5
100
AcDbSymbolTableRecord
100
AcDbLinetypeTableRecord
  2
Amconstr
 70
     0
  3
_______________________
 72
    65
 73
     2
 40
9999.0
 49
9999.0
 74
     0
 49
0.0
 74
     0
  0
LTYPE
  5
68
330
5
100
AcDbSymbolTableRecord
100
AcDbLinetypeTableRecord
  2
AM_ISO08W050x2
 70
     0
  3
__ . __ . __ . __ . __ . __
 72
    65
 73
     4
 40
9.0
 49
6.0
 74
     0
 49
-0.75
 74
     0
 49
1.5
 74
     0
 49
-0.75
 74
     0
  0
LTYPE
  5
69
330
5
100
AcDbSymbolTableRecord
100
AcDbLinetypeTableRecord
  2
AM_ISO02W050x2
 70
     0
  3
 _ _ _ _ _ _ _ _ _ _ _ _
 72
    65
 73
     2
 40
3.75
 49
3.0
 74
     0
 49
-0.75
 74
     0
  0
LTYPE
  5
6C
330
5
100
AcDbSymbolTableRecord
100
AcDbLinetypeTableRecord
  2
Amzigzag
 70
     0
  3
/\/-/\/-/\/-/\/-/\/-/\/
 72
    65
 73
     2
 40
11.0001
 49
0.0001
 74
     4
 75
   135
340
6B
 46
0.04
 50
0.0
 44
0.0
 45
0.0
 49
-11.0
 74
     0
  0
LTYPE
  5
7A
330
5
100
AcDbSymbolTableRecord
100
AcDbLinetypeTableRecord
  2
ACISOWELD
 70
     0
  3
_ _ _ _ _
 72
    65
 73
     2
 40
2.0
 49
2.0
 74
     0
 49
-1.0
 74
     0
  0
LTYPE
  5
7B
330
5
100
AcDbSymbolTableRecord
100
AcDbLinetypeTableRecord
  2
ACISOTGB
 70
     0
  3
__ . . __ . .
 72
    65
 73
     6
 40
9.0
 49
4.0
 74
     0
 49
-1.0
 74
     0
 49
1.0
 74
     0
 49
-1.0
 74
     0
 49
1.0
 74
     0
 49
-1.0
 74
     0
  0
LTYPE
  5
7C
330
5
100
AcDbSymbolTableRecord
100
AcDbLinetypeTableRecord
  2
ACISOTGL
 70
     0
  3
_ _ _ _ _
 72
    65
 73
     2
 40
3.0
 49
2.0
 74
     0
 49
-1.0
 74
     0
  0
LTYPE
  5
7E
330
5
100
AcDbSymbolTableRecord
100
AcDbLinetypeTableRecord
  2
CENTER
 70
     0
  3
__ . __
 72
    65
 73
     4
 40
7.0
 49
4.0
 74
     0
 49
-1.0
 74
     0
 49
1.0
 74
     0
 49
-1.0
 74
     0
  0
LTYPE
  5
D8
330
5
100
AcDbSymbolTableRecord
100
AcDbLinetypeTableRecord
  2
HIDDEN
 70
     0
  3
Hidden __ __ __ __ __ __ __ __ __ __ __ __ __ _
 72
    65
 73
     2
 40
9.524999999999998
 49
6.349999999999999
 74
     0
 49
-3.174999999999999
 74
     0
  0
LTYPE
  5
D9
330
5
100
AcDbSymbolTableRecord
100
AcDbLinetypeTableRecord
  2
PHANTOM2
 70
     0
  3
Phantom (.5x) ___ _ _ ___ _ _ ___ _ _ ___ _ _
 72
    65
 73
     6
 40
31.75
 49
15.875
 74
     0
 49
-3.174999999999999
 74
     0
 49
3.174999999999999
 74
     0
 49
-3.174999999999999
 74
     0
 49
3.174999999999999
 74
     0
 49
-3.174999999999999
 74
     0
  0
LTYPE
  5
D76
330
5
100
AcDbSymbolTableRecord
100
AcDbLinetypeTableRecord
  2
ACANSTGB
 70
     0
  3
__ . . __ . .
 72
    65
 73
     6
 40
0.35433070866
 49
0.15748031496
 74
     0
 49
-0.03937007874
 74
     0
 49
0.03937007874
 74
     0
 49
-0.03937007874
 74
     0
 49
0.03937007874
 74
     0
 49
-0.03937007874
 74
     0
  0
LTYPE
  5
D77
330
5
100
AcDbSymbolTableRecord
100
AcDbLinetypeTableRecord
  2
ACANSTGL
 70
     0
  3
_ _ _ _ _
 72
    65
 73
     2
 40
0.11811023622
 49
0.07874015748
 74
     0
 49
-0.03937007874
 74
     0
  0
ENDTAB
  0
TABLE
  2
LAYER
  5
2
102
{ACAD_XDICTIONARY
360
3F9
102
}
330
0
100
AcDbSymbolTable
 70
    10
  0
LAYER
  5
10
330
2
100
AcDbSymbolTableRecord
100
AcDbLayerTableRecord
  2
0
 70
     0
 62
     7
  6
Continuous
370
    -3
390
F
  0
LAYER
  5
ECB
330
2
100
AcDbSymbolTableRecord
100
AcDbLayerTableRecord
  2
AM_VIS
 70
     0
 62
     7
  6
Continuous
370
    50
390
F
  0
LAYER
  5
ECC
330
2
100
AcDbSymbolTableRecord
100
AcDbLayerTableRecord
  2
AM_4
 70
     0
 62
     3
  6
Continuous
370
    25
390
F
  0
LAYER
  5
10A9
330
2
100
AcDbSymbolTableRecord
100
AcDbLayerTableRecord
  2
AM_7
 70
     0
 62
     1
  6
CENTER
370
    25
390
F
  0
LAYER
  5
10DF
330
2
100
AcDbSymbolTableRecord
100
AcDbLayerTableRecord
  2
AM_5
 70
     0
 62
     5
  6
Continuous
370
    50
390
F
  0
LAYER
  5
10EF
330
2
100
AcDbSymbolTableRecord
100
AcDbLayerTableRecord
  2
Defpoints
 70
     0
 62
     7
  6
Continuous
290
     0
370
    -3
390
F
  0
LAYER
  5
17FA
330
2
100
AcDbSymbolTableRecord
100
AcDbLayerTableRecord
  2
LOGO
 70
     0
 62
     7
  6
Continuous
370
    -3
390
F
  0
ENDTAB
  0
TABLE
  2
STYLE
  5
3
330
0
100
AcDbSymbolTable
 70
    12
  0
STYLE
  5
11
330
3
100
AcDbSymbolTableRecord
100
AcDbTextStyleTableRecord
  2
STANDARD
 70
     0
 40
0.0
 41
1.0
 50
0.0
 71
     0
 42
3.0
  3
ISOCP.SHX
  4
CHINESET.SHX
  0
STYLE
  5
6B
330
3
100
AcDbSymbolTableRecord
100
AcDbTextStyleTableRecord
  2

 70
     1
 40
0.0
 41
1.0
 50
0.0
 71
     0
 42
2.5
  3
ltypeshp.shx
  4

  0
STYLE
  5
6D
330
3
100
AcDbSymbolTableRecord
100
AcDbTextStyleTableRecord
  2
ACISOTS
 70
     0
 40
1.0
 41
1.0
 50
0.0
 71
     0
 42
1.0
  3
isocp.shx
  4
chineset.shx
  0
STYLE
  5
79
330
3
100
AcDbSymbolTableRecord
100
AcDbTextStyleTableRecord
  2
ACISOGDT
 70
     0
 40
0.0
 41
1.0
 50
0.0
 71
     0
 42
2.5
  3
amgdt.shx
  4
chineset.shx
  0
STYLE
  5
60C
330
3
100
AcDbSymbolTableRecord
100
AcDbTextStyleTableRecord
  2
CHINESET
 70
     0
 40
0.0
 41
1.0
 50
0.0
 71
     0
 42
3.0
  3
simplex.shx
  4
CHINESET.SHX
  0
STYLE
  5
CF2
330
3
100
AcDbSymbolTableRecord
100
AcDbTextStyleTableRecord
  2
DAYUS
 70
     0
 40
0.0
 41
1.0
 50
0.0
 71
     0
 42
1.0
  3
simplex.shx
  4
dayus.shx
  0
STYLE
  5
D7B
330
3
100
AcDbSymbolTableRecord
100
AcDbTextStyleTableRecord
  2
ACANSTS
 70
     0
 40
1.0
 41
1.0
 50
0.0
 71
     0
 42
1.0
  3
romans.shx
  4
chineset.shx
  0
STYLE
  5
D7C
330
3
100
AcDbSymbolTableRecord
100
AcDbTextStyleTableRecord
  2
ACANSGDT
 70
     0
 40
0.0
 41
1.0
 50
0.0
 71
     0
 42
1.0
  3
amgdtans.shx
  4

  0
ENDTAB
  0
TABLE
  2
VIEW
  5
6
330
0
100
AcDbSymbolTable
 70
     0
  0
ENDTAB
  0
TABLE
  2
UCS
  5
7
330
0
100
AcDbSymbolTable
 70
     0
  0
ENDTAB
  0
TABLE
  2
APPID
  5
9
330
0
100
AcDbSymbolTable
 70
    23
  0
APPID
  5
12
330
9
100
AcDbSymbolTableRecord
100
AcDbRegAppTableRecord
  2
ACAD
 70
     0
  0
APPID
  5
46
330
9
100
AcDbSymbolTableRecord
100
AcDbRegAppTableRecord
  2
MCAD_NO_VIS
 70
     0
  0
APPID
  5
47
330
9
100
AcDbSymbolTableRecord
100
AcDbRegAppTableRecord
  2
ACAD_TEMP_GRAPHIC
 70
     0
  0
APPID
  5
58
330
9
100
AcDbSymbolTableRecord
100
AcDbRegAppTableRecord
  2
ACATTRIBSERVICES
 70
     0
  0
APPID
  5
EE
330
9
100
AcDbSymbolTableRecord
100
AcDbRegAppTableRecord
  2
AD_DRAW
 70
     0
  0
APPID
  5
10C
330
9
100
AcDbSymbolTableRecord
100
AcDbRegAppTableRecord
  2
DESIGNERASSEMBLIES
 70
     0
  0
APPID
  5
111
330
9
100
AcDbSymbolTableRecord
100
AcDbRegAppTableRecord
  2
ACADM_DIM_EDIT
 70
     0
  0
APPID
  5
112
330
9
100
AcDbSymbolTableRecord
100
AcDbRegAppTableRecord
  2
AMDT_DM_ADJ
 70
     0
  0
APPID
  5
22C
330
9
100
AcDbSymbolTableRecord
100
AcDbRegAppTableRecord
  2
ACAD_DSTYLE_DIMTEXT_FILL
 70
     0
  0
APPID
  5
452
330
9
100
AcDbSymbolTableRecord
100
AcDbRegAppTableRecord
  2
GENIUS_GENOENT_13
 70
     0
  0
APPID
  5
453
330
9
100
AcDbSymbolTableRecord
100
AcDbRegAppTableRecord
  2
GENIUS_GENOBJ-N-CRS_13
 70
     0
  0
APPID
  5
454
330
9
100
AcDbSymbolTableRecord
100
AcDbRegAppTableRecord
  2
GENIUS_GENOLIS_13
 70
     0
  0
APPID
  5
455
330
9
100
AcDbSymbolTableRecord
100
AcDbRegAppTableRecord
  2
GENIUS_GENODEF_13
 70
     0
  0
APPID
  5
456
330
9
100
AcDbSymbolTableRecord
100
AcDbRegAppTableRecord
  2
GENIUS_GENOREF_13
 70
     0
  0
APPID
  5
6F3
330
9
100
AcDbSymbolTableRecord
100
AcDbRegAppTableRecord
  2
ACAD_PSEXT
 70
     0
  0
APPID
  5
808
330
9
100
AcDbSymbolTableRecord
100
AcDbRegAppTableRecord
  2
GENIUS_GENDTOL_13
 70
     0
  0
APPID
  5
10AB
330
9
100
AcDbSymbolTableRecord
100
AcDbRegAppTableRecord
  2
GENIUS_GENOBJ-N-CEN_13
 70
     0
  0
APPID
  5
10AC
330
9
100
AcDbSymbolTableRecord
100
AcDbRegAppTableRecord
  2
GENIUS_GENCEN_19
 70
     0
  0
APPID
  5
1587
330
9
100
AcDbSymbolTableRecord
100
AcDbRegAppTableRecord
  2
GENIUS_GENOBJ-N-HTC_13
 70
     0
  0
APPID
  5
1588
330
9
100
AcDbSymbolTableRecord
100
AcDbRegAppTableRecord
  2
GENIUS_GENHATCH_13
 70
     0
  0
APPID
  5
179F
330
9
100
AcDbSymbolTableRecord
100
AcDbRegAppTableRecord
  2
AcAecLayerStandard
 70
     0
  0
APPID
  5
17FB
330
9
100
AcDbSymbolTableRecord
100
AcDbRegAppTableRecord
  2
GENIUS_GENREC_14
 70
     0
  0
APPID
  5
17FC
330
9
100
AcDbSymbolTableRecord
100
AcDbRegAppTableRecord
  2
GENIUS_GENOBJ-N-REC_13
 70
     0
  0
ENDTAB
  0
TABLE
  2
DIMSTYLE
  5
A
330
0
100
AcDbSymbolTable
 70
    16
100
AcDbDimStyleTable
 71
     3
340
81
340
8B
340
86
  0
DIMSTYLE
105
81
330
A
100
AcDbSymbolTableRecord
100
AcDbDimStyleTableRecord
  2
AM_ISO
 70
     0
  4
"
 41
3.0
 42
1.5
 43
8.0
 44
1.5
 47
0.1
 48
0.1
 73
     0
 74
     0
 77
     1
 78
     8
 79
     2
140
3.0
141
0.0
143
0.0393701
146
0.6
147
1.0
172
     1
176
   256
177
   256
178
   256
271
     2
272
     2
283
     0
284
     8
340
60C
371
    -1
372
    -1
  0
DIMSTYLE
105
82
102
{ACAD_REACTORS
330
11CD
102
}
330
A
100
AcDbSymbolTableRecord
100
AcDbDimStyleTableRecord
  2
AM_ISO$3
 70
     0
  4
"
 41
3.0
 42
1.5
 43
8.0
 44
1.5
 47
0.1
 48
0.1
 73
     0
 77
     1
 78
     8
 79
     2
140
3.0
141
0.0
143
0.0393701
146
0.6
147
1.0
176
   256
177
   256
178
   256
271
     2
272
     2
283
     0
284
     8
288
     1
289
     0
340
60C
371
    -1
372
    -1
  0
DIMSTYLE
105
83
330
A
100
AcDbSymbolTableRecord
100
AcDbDimStyleTableRecord
  2
AM_ISO$4
 70
     0
  4
"
 41
3.0
 42
1.5
 43
8.0
 44
1.5
 47
0.1
 48
0.1
 73
     0
 77
     1
 78
     8
 79
     2
140
3.0
141
0.0
143
0.0393701
146
0.6
147
1.0
176
   256
177
   256
178
   256
271
     2
272
     2
283
     0
284
     8
288
     1
289
     0
340
60C
371
    -1
372
    -1
  0
DIMSTYLE
105
84
330
A
100
AcDbSymbolTableRecord
100
AcDbDimStyleTableRecord
  2
AM_ISO$6
 70
     0
  4
"
 41
3.0
 42
1.5
 43
8.0
 44
1.5
 47
0.1
 48
0.1
 73
     0
 74
     0
 78
     8
 79
     2
140
3.0
141
0.0
143
0.0393701
146
0.6
147
1.0
172
     1
176
   256
177
   256
178
   256
271
     2
272
     2
283
     0
284
     8
340
60C
371
    -1
372
    -1
  0
DIMSTYLE
105
85
330
A
100
AcDbSymbolTableRecord
100
AcDbDimStyleTableRecord
  2
AM_ISO$7
 70
     0
  4
"
 41
3.0
 42
1.5
 43
8.0
 44
1.5
 47
0.1
 48
0.1
 73
     0
 74
     0
 77
     1
 78
     8
 79
     2
140
5.0
141
0.0
143
0.0393701
146
0.6
147
1.0
172
     1
176
   256
177
   256
178
   256
271
     2
272
     2
283
     0
284
     8
340
60C
371
    -1
372
    -1
  0
DIMSTYLE
105
86
330
A
100
AcDbSymbolTableRecord
100
AcDbDimStyleTableRecord
  2
AM_ISO$SF
 70
     0
  4
"
 41
2.5
 42
1.0
 43
10.0
 44
1.0
 47
0.1
 48
0.1
 73
     0
 74
     0
 75
     1
 76
     1
 77
     1
 78
     8
 79
     2
140
3.5
141
0.0
143
0.0393701
146
0.71
147
1.5
172
     1
176
   256
177
   256
178
     2
271
     2
272
     3
274
     4
283
     0
284
     8
340
11
371
    -1
372
    -1
  0
DIMSTYLE
105
8B
330
A
100
AcDbSymbolTableRecord
100
AcDbDimStyleTableRecord
  2
AM_ISO$SH
 70
     0
  4
"
 41
2.5
 42
1.0
 43
10.0
 44
1.0
 47
0.1
 48
0.1
 73
     0
 74
     0
 75
     1
 76
     1
 77
     1
 78
     8
 79
     2
140
3.5
141
0.0
143
0.0393701
144
2.0
146
0.71
147
1.5
172
     1
173
     1
176
   256
177
   256
178
     2
271
     2
272
     3
274
     4
283
     0
284
     8
340
11
343
87
371
    -1
372
    -1
  0
DIMSTYLE
105
40B
102
{ACAD_REACTORS
330
10EE
330
1213
102
}
330
A
100
AcDbSymbolTableRecord
100
AcDbDimStyleTableRecord
  2
AM_ISO$0
 70
     0
  4
"
 41
3.0
 42
1.5
 43
8.0
 44
1.5
 47
0.1
 48
0.1
 73
     0
 74
     0
 77
     1
 78
     8
 79
     2
140
3.0
141
0.0
143
0.0393701
146
0.6
147
1.0
172
     1
176
   256
177
   256
178
   256
271
     2
272
     2
283
     0
284
     8
340
60C
371
    -1
372
    -1
  0
DIMSTYLE
105
CF4
330
A
100
AcDbSymbolTableRecord
100
AcDbDimStyleTableRecord
  2
AM_ANSI
 70
     0
  4
mm
 41
0.1
 42
0.05
 43
0.5
 44
0.1
 47
0.1
 48
0.1
 78
     7
 79
     2
140
0.12
141
0.0
146
0.71
147
0.06
176
   256
177
   256
178
     2
274
     4
284
     7
340
11
371
    -1
372
    -1
  0
DIMSTYLE
105
D7E
330
A
100
AcDbSymbolTableRecord
100
AcDbDimStyleTableRecord
  2
AM_ANSI$3
 70
     0
  4
mm
 41
0.1
 42
0.05
 43
0.5
 44
0.1
 47
0.1
 48
0.1
 78
     7
 79
     2
140
0.12
141
0.0
146
0.71
147
0.06
176
   256
177
   256
178
     2
274
     4
284
     7
288
     1
289
     0
340
11
371
    -1
372
    -1
  0
DIMSTYLE
105
D7F
330
A
100
AcDbSymbolTableRecord
100
AcDbDimStyleTableRecord
  2
AM_ANSI$4
 70
     0
  4
mm
 41
0.1
 42
0.05
 43
0.5
 44
0.1
 47
0.1
 48
0.1
 78
     7
 79
     2
140
0.12
141
0.0
146
0.71
147
0.06
176
   256
177
   256
178
     2
274
     4
284
     7
288
     1
289
     0
340
11
371
    -1
372
    -1
  0
DIMSTYLE
105
D80
330
A
100
AcDbSymbolTableRecord
100
AcDbDimStyleTableRecord
  2
AM_ANSI$7
 70
     0
  4
mm
 41
0.1
 42
0.05
 43
0.5
 44
0.1
 47
0.1
 48
0.1
 78
     7
 79
     2
140
0.24
141
0.0
146
0.71
147
0.06
176
   256
177
   256
178
     2
274
     4
284
     7
340
11
371
    -1
372
    -1
  0
DIMSTYLE
105
D81
330
A
100
AcDbSymbolTableRecord
100
AcDbDimStyleTableRecord
  2
AM_ANSI$SF
 70
     0
  4
mm
 41
0.1
 42
0.05
 43
0.5
 44
0.1
 47
0.1
 48
0.1
 75
     1
 76
     1
 78
     7
 79
     2
140
0.12
141
0.0
146
0.71
147
0.06
176
   256
177
   256
178
     2
274
     4
284
     7
340
11
371
    -1
372
    -1
  0
DIMSTYLE
105
D82
330
A
100
AcDbSymbolTableRecord
100
AcDbDimStyleTableRecord
  2
AM_ANSI$SH
 70
     0
  4
mm
 41
0.1
 42
0.05
 43
0.5
 44
0.1
 47
0.1
 48
0.1
 75
     1
 76
     1
 78
     7
 79
     2
140
0.12
141
0.0
146
0.71
147
0.06
173
     1
176
   256
177
   256
178
     2
274
     4
284
     7
340
11
343
87
371
    -1
372
    -1
  0
ENDTAB
  0
TABLE
  2
BLOCK_RECORD
  5
1
330
0
100
AcDbSymbolTable
 70
    15
  0
BLOCK_RECORD
  5
1F
102
{ACAD_XDICTIONARY
360
8F
102
}
330
1
100
AcDbSymbolTableRecord
100
AcDbBlockTableRecord
  2
*Model_Space
340
22
  0
BLOCK_RECORD
  5
1B
330
1
100
AcDbSymbolTableRecord
100
AcDbBlockTableRecord
  2
*Paper_Space
340
1E
  0
BLOCK_RECORD
  5
23
330
1
100
AcDbSymbolTableRecord
100
AcDbBlockTableRecord
  2
*Paper_Space0
340
26
  0
BLOCK_RECORD
  5
87
330
1
100
AcDbSymbolTableRecord
100
AcDbBlockTableRecord
  2
GENAXEH
340
0
  0
BLOCK_RECORD
  5
10F0
330
1
100
AcDbSymbolTableRecord
100
AcDbBlockTableRecord
  2
*D3
340
0
  0
BLOCK_RECORD
  5
11CE
330
1
100
AcDbSymbolTableRecord
100
AcDbBlockTableRecord
  2
*D5
340
0
  0
BLOCK_RECORD
  5
1214
330
1
100
AcDbSymbolTableRecord
100
AcDbBlockTableRecord
  2
*D6
340
0
  0
BLOCK_RECORD
  5
1982
330
1
100
AcDbSymbolTableRecord
100
AcDbBlockTableRecord
  2
*S14
340
0
  0
ENDTAB
  0
ENDSEC
  0
SECTION
  2
BLOCKS
  0
BLOCK
  5
20
330
1F
100
AcDbEntity
  8
0
100
AcDbBlockBegin
  2
*Model_Space
 70
     0
 10
0.0
 20
0.0
 30
0.0
  3
*Model_Space
  1

  0
ENDBLK
  5
21
330
1F
100
AcDbEntity
  8
0
100
AcDbBlockEnd
  0
BLOCK
  5
1C
330
1B
100
AcDbEntity
 67
     1
  8
0
100
AcDbBlockBegin
  2
*Paper_Space
 70
     0
 10
0.0
 20
0.0
 30
0.0
  3
*Paper_Space
  1

  0
ENDBLK
  5
1D
330
1B
100
AcDbEntity
 67
     1
  8
0
100
AcDbBlockEnd
  0
BLOCK
  5
24
330
23
100
AcDbEntity
  8
0
100
AcDbBlockBegin
  2
*Paper_Space0
 70
     0
 10
0.0
 20
0.0
 30
0.0
  3
*Paper_Space0
  1

  0
ENDBLK
  5
25
330
23
100
AcDbEntity
  8
0
100
AcDbBlockEnd
  0
BLOCK
  5
89
330
87
100
AcDbEntity
  8
0
100
AcDbBlockBegin
  2
GENAXEH
 70
     0
 10
0.0
 20
0.0
 30
0.0
  3
GENAXEH
  1

  0
LINE
  5
88
330
87
100
AcDbEntity
  8
0
100
AcDbLine
 10
-1.0
 20
0.0
 30
0.0
 11
1.0
 21
0.0
 31
0.0
  0
ENDBLK
  5
8A
330
87
100
AcDbEntity
  8
0
100
AcDbBlockEnd
  0
BLOCK
  5
10FA
330
10F0
100
AcDbEntity
  8
0
100
AcDbBlockBegin
  2
*D3
 70
     1
 10
0.0
 20
0.0
 30
0.0
  3
*D3
  1

  0
LINE
  5
17AE
330
10F0
100
AcDbEntity
  8
AM_5
100
AcDbLine
 10
-4.917446939011961
 20
235.5281903172802
 30
0.0
 11
46.15746979361443
 21
235.5281903172802
 31
0.0
  0
LINE
  5
17AF
330
10F0
100
AcDbEntity
  8
AM_5
100
AcDbLine
 10
3.481903060988122
 20
415.0281801172802
 30
0.0
 11
46.15746979361447
 21
415.0281801172802
 31
0.0
  0
LINE
  5
17B0
330
10F0
100
AcDbEntity
  8
AM_5
100
AcDbLine
 10
44.05746979361443
 20
239.7281903172803
 30
0.0
 11
44.05746979361447
 21
410.8281801172802
 31
0.0
  0
SOLID
  5
17B1
330
10F0
100
AcDbEntity
  8
AM_5
100
AcDbTrace
 10
43.35746979361442
 20
239.7281903172803
 30
0.0
 11
44.75746979361443
 21
239.7281903172803
 31
0.0
 12
44.05746979361443
 22
235.5281903172802
 32
0.0
 13
44.05746979361443
 23
235.5281903172802
 33
0.0
  0
SOLID
  5
17B2
330
10F0
100
AcDbEntity
  8
AM_5
100
AcDbTrace
 10
43.35746979361447
 20
410.8281801172802
 30
0.0
 11
44.75746979361447
 21
410.8281801172802
 31
0.0
 12
44.05746979361447
 22
415.0281801172802
 32
0.0
 13
44.05746979361447
 23
415.0281801172802
 33
0.0
  0
MTEXT
  5
17B3
330
10F0
100
AcDbEntity
  8
AM_5
100
AcDbMText
 10
40.5574697936144
 20
325.2781852172802
 30
0.0
 40
4.199999999999999
 41
0.0
 71
     5
 72
     1
  1
179.5
  7
CHINESET
 11
0.0000000000000001
 21
1.0
 31
0.0
 73
     1
 44
1.0
1001
ACAD
1000
MTEXTBEGIN
1070
    73
1070
     1
1070
    44
1040
1.0
1070
    74
1070
     0
1000
MTEXTEND
  0
POINT
  5
17B4
330
10F0
100
AcDbEntity
  8
Defpoints
 62
     0
100
AcDbPoint
 10
-7.017446939011961
 20
235.5281903172802
 30
0.0
  0
POINT
  5
17B5
330
10F0
100
AcDbEntity
  8
Defpoints
 62
     0
100
AcDbPoint
 10
1.381903060988122
 20
415.0281801172802
 30
0.0
  0
POINT
  5
17B6
330
10F0
100
AcDbEntity
  8
Defpoints
 62
     0
100
AcDbPoint
 10
44.05746979361447
 20
415.0281801172802
 30
0.0
  0
ENDBLK
  5
10FB
330
10F0
100
AcDbEntity
  8
0
100
AcDbBlockEnd
  0
BLOCK
  5
11D7
330
11CE
100
AcDbEntity
  8
0
100
AcDbBlockBegin
  2
*D5
 70
     1
 10
0.0
 20
0.0
 30
0.0
  3
*D5
  1

  0
LINE
  5
195D
330
11CE
100
AcDbEntity
  8
AM_5
100
AcDbLine
 10
-45.35831870484321
 20
455.6100013793033
 30
0.0
 11
-48.307631346801
 21
452.6197580882
 31
0.0
  0
LINE
  5
195E
330
11CE
100
AcDbEntity
  8
AM_5
100
AcDbLine
 10
18.12212482681991
 20
519.9714284068586
 30
0.0
 11
24.65530546373595
 21
526.5952767202527
 31
0.0
  0
LINE
  5
195F
330
11CE
100
AcDbEntity
  8
AM_5
100
AcDbLine
 10
24.65530546373595
 20
526.5952767202527
 30
0.0
 11
36.65530546373592
 21
526.5952767202526
 31
0.0
  0
LINE
  5
1960
330
11CE
100
AcDbEntity
  8
AM_5
100
AcDbLine
 10
-42.40900606288542
 20
458.6002446704064
 30
0.0
 11
15.17281218486215
 21
516.9811851157554
 31
0.0
  0
SOLID
  5
1961
330
11CE
100
AcDbEntity
  8
AM_5
100
AcDbTrace
 10
-45.85669258669372
 20
456.1015534862962
 30
0.0
 11
-44.85994482299267
 21
455.1184492723103
 31
0.0
 12
-42.40900606288542
 22
458.6002446704064
 32
0.0
 13
-42.40900606288542
 23
458.6002446704064
 33
0.0
  0
SOLID
  5
1962
330
11CE
100
AcDbEntity
  8
AM_5
100
AcDbTrace
 10
17.6237509449694
 20
520.4629805138516
 30
0.0
 11
18.62049870867045
 21
519.4798762998657
 31
0.0
 12
15.17281218486215
 22
516.9811851157554
 32
0.0
 13
15.17281218486215
 23
516.9811851157554
 33
0.0
  0
MTEXT
  5
1963
330
11CE
100
AcDbEntity
  8
AM_5
100
AcDbMText
 10
31.35530546373599
 20
530.0952767202527
 30
0.0
 40
4.199999999999999
 41
0.0
 71
     5
 72
     1
  1
\U+220582
  7
CHINESET
 73
     1
 44
1.0
1001
ACAD
1000
MTEXTBEGIN
1070
    73
1070
     1
1070
    44
1040
1.0
1070
    74
1070
     0
1000
MTEXTEND
  0
POINT
  5
1964
330
11CE
100
AcDbEntity
  8
Defpoints
 62
     0
100
AcDbPoint
 10
15.17281218486215
 20
516.9811851157554
 30
0.0
  0
POINT
  5
1965
330
11CE
100
AcDbEntity
  8
Defpoints
 62
     0
100
AcDbPoint
 10
-42.40900606288542
 20
458.6002446704064
 30
0.0
  0
ENDBLK
  5
11D8
330
11CE
100
AcDbEntity
  8
0
100
AcDbBlockEnd
  0
BLOCK
  5
1220
330
1214
100
AcDbEntity
  8
0
100
AcDbBlockBegin
  2
*D6
 70
     1
 10
0.0
 20
0.0
 30
0.0
  3
*D6
  1

  0
LINE
  5
1948
330
1214
100
AcDbEntity
  8
AM_5
100
AcDbLine
 10
-17.61809693901165
 20
233.4281903172803
 30
0.0
 11
-17.61809693901165
 21
221.4260804768541
 31
0.0
  0
LINE
  5
1949
330
1214
100
AcDbEntity
  8
AM_5
100
AcDbLine
 10
-9.61809693901165
 20
233.4281903172803
 30
0.0
 11
-9.61809693901165
 21
221.4260804768541
 31
0.0
  0
LINE
  5
194A
330
1214
100
AcDbEntity
  8
AM_5
100
AcDbLine
 10
-21.81809693901165
 20
223.5260804768541
 30
0.0
 11
-26.01809693901165
 21
223.5260804768541
 31
0.0
  0
LINE
  5
194B
330
1214
100
AcDbEntity
  8
AM_5
100
AcDbLine
 10
-5.41809693901165
 20
223.5260804768541
 30
0.0
 11
8.181903060988345
 21
223.5260804768541
 31
0.0
  0
LINE
  5
194C
330
1214
100
AcDbEntity
  8
AM_5
100
AcDbLine
 10
-17.61809693901165
 20
223.5260804768541
 30
0.0
 11
-9.61809693901165
 21
223.5260804768541
 31
0.0
  0
SOLID
  5
194D
330
1214
100
AcDbEntity
  8
AM_5
100
AcDbTrace
 10
-21.81809693901165
 20
224.2260804768541
 30
0.0
 11
-21.81809693901165
 21
222.8260804768541
 31
0.0
 12
-17.61809693901165
 22
223.5260804768541
 32
0.0
 13
-17.61809693901165
 23
223.5260804768541
 33
0.0
  0
SOLID
  5
194E
330
1214
100
AcDbEntity
  8
AM_5
100
AcDbTrace
 10
-5.41809693901165
 20
224.2260804768541
 30
0.0
 11
-5.41809693901165
 21
222.8260804768541
 31
0.0
 12
-9.61809693901165
 22
223.5260804768541
 32
0.0
 13
-9.61809693901165
 23
223.5260804768541
 33
0.0
  0
MTEXT
  5
194F
330
1214
100
AcDbEntity
  8
AM_5
100
AcDbMText
 10
3.481903060988347
 20
227.0260804768541
 30
0.0
 40
4.199999999999999
 41
0.0
 71
     5
 72
     1
  1
%%c8
  7
CHINESET
 73
     1
 44
1.0
1001
ACAD
1000
MTEXTBEGIN
1070
    73
1070
     1
1070
    44
1040
1.0
1070
    74
1070
     0
1000
MTEXTEND
  0
POINT
  5
1950
330
1214
100
AcDbEntity
  8
Defpoints
 62
     0
100
AcDbPoint
 10
-17.61809693901165
 20
235.5281903172802
 30
0.0
  0
POINT
  5
1951
330
1214
100
AcDbEntity
  8
Defpoints
 62
     0
100
AcDbPoint
 10
-9.61809693901165
 20
235.5281903172802
 30
0.0
  0
POINT
  5
1952
330
1214
100
AcDbEntity
  8
Defpoints
 62
     0
100
AcDbPoint
 10
-9.61809693901165
 20
223.5260804768541
 30
0.0
  0
ENDBLK
  5
1221
330
1214
100
AcDbEntity
  8
0
100
AcDbBlockEnd
  0
BLOCK
  5
1987
330
1982
100
AcDbEntity
  8
0
100
AcDbBlockBegin
  2
*S14
 70
     1
 10
0.0
 20
0.0
 30
0.0
  3
*S14
  1

  0
LINE
  5
1983
330
1982
100
AcDbEntity
  8
AM_5
 62
     5
100
AcDbLine
 10
55.09961844060035
 20
451.8999331370416
 30
0.0
 11
30.5029795399073
 21
451.8999331370416
 31
0.0
  0
LINE
  5
1984
330
1982
100
AcDbEntity
  8
AM_5
 62
     5
100
AcDbLine
 10
30.5029795399073
 20
451.8999331370416
 30
0.0
 11
-2.252862678680749
 21
478.7832164435325
 31
0.0
  0
TRACE
  5
1985
330
1982
100
AcDbEntity
  8
AM_5
 62
     5
370
    35
100
AcDbTrace
 10
-1.902071135662025
 20
479.2106371682906
 30
0.0
 11
-2.603654221699466
 21
478.3557957187745
 31
0.0
 12
-5.499445421110976
 22
481.4477427610145
 32
0.0
 13
-5.499445421110976
 23
481.4477427610145
 33
0.0
  0
MTEXT
  5
1986
330
1982
100
AcDbEntity
  8
AM_5
 62
     3
100
AcDbMText
 10
55.09961844060035
 20
458.6619225979723
 30
0.0
 40
4.899999999999999
 41
0.0
 71
     7
 72
     5
  1

  7
DAYUS
 73
     1
 44
1.0
1001
ACAD
1000
MTEXTBEGIN
1070
    73
1070
     1
1070
    44
1040
1.0
1070
    74
1070
     0
1000
MTEXTEND
  0
ENDBLK
  5
1988
330
1982
100
AcDbEntity
  8
0
100
AcDbBlockEnd
  0
ENDSEC
  0
SECTION
  2
ENTITIES
  0
LINE
  5
D02
330
1F
100
AcDbEntity
  8
0
  6
Continuous
 62
     7
100
AcDbLine
 10
-25.11809693901194
 20
264.7281903172802
 30
0.0
 11
-2.11811693901194
 21
264.7281903172802
 31
0.0
  0
LINE
  5
D03
330
1F
100
AcDbEntity
  8
0
  6
Continuous
 62
     7
100
AcDbLine
 10
-17.45918693901194
 20
240.3282003172802
 30
0.0
 11
-15.45703693901191
 21
240.3282003172802
 31
0.0
  0
LINE
  5
D04
330
1F
100
AcDbEntity
  8
0
  6
Continuous
 62
     7
100
AcDbLine
 10
-15.51505693901197
 20
255.7281903172802
 30
0.0
 11
-16.79351693901196
 21
256.3830703172803
 31
0.0
  0
LINE
  5
D05
330
1F
100
AcDbEntity
  8
0
  6
Continuous
 62
     7
100
AcDbLine
 10
-20.88915693901197
 20
240.3282003172802
 30
0.0
 11
-20.05983693901192
 21
240.3282003172802
 31
0.0
  0
LINE
  5
D06
330
1F
100
AcDbEntity
  8
0
  6
Continuous
 62
     7
100
AcDbLine
 10
-24.29907693901191
 20
261.2281903172802
 30
0.0
 11
-21.12364693901191
 21
261.2281903172802
 31
0.0
  0
LINE
  5
D07
330
1F
100
AcDbEntity
  8
0
  6
Continuous
 62
     7
100
AcDbLine
 10
-22.11809693901193
 20
255.7281903172802
 30
0.0
 11
-21.74214693901195
 21
255.7281903172802
 31
0.0
  0
LINE
  5
D08
330
1F
100
AcDbEntity
  8
0
  6
Continuous
 62
     7
100
AcDbLine
 10
-21.12365693901194
 20
256.3817403172802
 30
0.0
 11
-19.84519693901194
 21
255.7281903172802
 31
0.0
  0
LINE
  5
D09
330
1F
100
AcDbEntity
  8
0
  6
Continuous
 62
     7
100
AcDbLine
 10
-21.74214693901195
 20
261.2281903172802
 30
0.0
 11
-21.74214693901195
 21
255.7281903172802
 31
0.0
  0
LINE
  5
D0A
330
1F
100
AcDbEntity
  8
0
  6
Continuous
 62
     7
100
AcDbLine
 10
-22.11809693901193
 20
251.2281903172802
 30
0.0
 11
-5.118096939011934
 21
251.2281903172802
 31
0.0
  0
LINE
  5
D0C
330
1F
100
AcDbEntity
  8
0
  6
Continuous
 62
     7
100
AcDbLine
 10
-24.29907693901191
 20
256.3817403172802
 30
0.0
 11
-21.74213693901192
 21
255.7281903172802
 31
0.0
  0
LINE
  5
D0D
330
1F
100
AcDbEntity
  8
0
  6
Continuous
 62
     7
100
AcDbLine
 10
-15.11809693901193
 20
250.7281903172803
 30
0.0
 11
-15.11809693901193
 21
240.8282003172803
 31
0.0
  0
LINE
  5
D0E
330
1F
100
AcDbEntity
  8
0
  6
Continuous
 62
     7
100
AcDbLine
 10
-25.11809693901194
 20
264.7281903172802
 30
0.0
 11
-25.11809693901194
 21
256.5320403172802
 31
0.0
  0
LINE
  5
D0F
330
1F
100
AcDbEntity
  8
0
  6
Continuous
 62
     7
100
AcDbLine
 10
-20.36615693901195
 20
264.7281903172802
 30
0.0
 11
-20.36615693901195
 21
256.5320403172802
 31
0.0
  0
LINE
  5
D10
330
1F
100
AcDbEntity
  8
0
  6
Continuous
 62
     7
100
AcDbLine
 10
-16.79352693901194
 20
261.2281903172802
 30
0.0
 11
-16.79352693901194
 21
256.3830703172803
 31
0.0
  0
LINE
  5
D11
330
1F
100
AcDbEntity
  8
0
  6
Continuous
 62
     7
100
AcDbLine
 10
-20.61811693901194
 20
240.2281903172803
 30
0.0
 11
-20.61811693901194
 21
239.5281903172802
 31
0.0
  0
LINE
  5
D12
330
1F
100
AcDbEntity
  8
0
  6
Continuous
 62
     7
100
AcDbLine
 10
-21.12364693901191
 20
261.2281903172802
 30
0.0
 11
-21.12364693901191
 21
256.3817403172802
 31
0.0
  0
LINE
  5
D13
330
1F
100
AcDbEntity
  8
0
  6
Continuous
 62
     7
100
AcDbLine
 10
-18.1139669390119
 20
240.8281803172803
 30
0.0
 11
-17.45918693901194
 21
240.3281803172802
 31
0.0
  0
LINE
  5
D14
330
1F
100
AcDbEntity
  8
0
  6
Continuous
 62
     7
100
AcDbLine
 10
-15.45703693901191
 20
250.7281903172803
 30
0.0
 11
-15.45703693901191
 21
240.3282003172802
 31
0.0
  0
LINE
  5
D15
330
1F
100
AcDbEntity
  8
0
  6
Continuous
 62
     7
100
AcDbLine
 10
-22.11810693901191
 20
255.7281903172802
 30
0.0
 11
-25.11809693901194
 21
256.5320403172802
 31
0.0
  0
LINE
  5
D16
330
1F
100
AcDbEntity
  8
0
  6
Continuous
 62
     7
100
AcDbLine
 10
-15.51505693901197
 20
261.2281903172802
 30
0.0
 11
-15.51505693901197
 21
255.7281903172802
 31
0.0
  0
LINE
  5
D17
330
1F
100
AcDbEntity
  8
0
  6
Continuous
 62
     7
100
AcDbLine
 10
-15.11809693901193
 20
240.8281703172802
 30
0.0
 11
-15.45702693901194
 21
240.3281803172802
 31
0.0
  0
LINE
  5
D18
330
1F
100
AcDbEntity
  8
0
  6
Continuous
 62
     7
100
AcDbLine
 10
-17.45918693901194
 20
250.7281903172803
 30
0.0
 11
-17.45918693901194
 21
240.3282003172802
 31
0.0
  0
LINE
  5
D19
330
1F
100
AcDbEntity
  8
0
  6
Continuous
 62
     7
100
AcDbLine
 10
-20.41809693901194
 20
239.3282003172803
 30
0.0
 11
-6.818096939011923
 21
239.3282003172803
 31
0.0
  0
LINE
  5
D1A
330
1F
100
AcDbEntity
  8
0
  6
Continuous
 62
     7
100
AcDbLine
 10
-18.11397693901193
 20
250.7281903172803
 30
0.0
 11
-18.11397693901193
 21
240.8282003172803
 31
0.0
  0
LINE
  5
D1B
330
1F
100
AcDbEntity
  8
0
  6
Continuous
 62
     7
100
AcDbLine
 10
-21.61809693901194
 20
240.8282003172803
 30
0.0
 11
-21.47620693901195
 21
240.8282003172803
 31
0.0
  0
LINE
  5
D1C
330
1F
100
AcDbEntity
  8
0
  6
Continuous
 62
     7
100
AcDbLine
 10
-24.29907693901191
 20
261.2281903172802
 30
0.0
 11
-24.29907693901191
 21
256.3817403172802
 31
0.0
  0
LINE
  5
D1D
330
1F
100
AcDbEntity
  8
0
  6
Continuous
 62
     7
100
AcDbLine
 10
-20.23528693901193
 20
250.7281903172803
 30
0.0
 11
-20.23528693901193
 21
240.8282003172803
 31
0.0
  0
LINE
  5
D1E
330
1F
100
AcDbEntity
  8
0
  6
Continuous
 62
     7
100
AcDbLine
 10
-20.31809693901192
 20
238.3282003172802
 30
0.0
 11
-6.918096939011945
 21
238.3282003172802
 31
0.0
  0
LINE
  5
D1F
330
1F
100
AcDbEntity
  8
0
  6
Continuous
 62
     7
100
AcDbLine
 10
-21.61809693901194
 20
250.7281903172803
 30
0.0
 11
-21.61809693901194
 21
240.8282003172803
 31
0.0
  0
LINE
  5
D20
330
1F
100
AcDbEntity
  8
0
  6
Continuous
 62
     7
100
AcDbLine
 10
-5.494056939011954
 20
261.2281903172802
 30
0.0
 11
-5.494056939011954
 21
255.7281903172802
 31
0.0
  0
LINE
  5
D21
330
1F
100
AcDbEntity
  8
0
  6
Continuous
 62
     7
100
AcDbLine
 10
-20.23528693901193
 20
240.8282003172803
 30
0.0
 11
-18.11397693901193
 21
240.8282003172803
 31
0.0
  0
LINE
  5
D23
330
1F
100
AcDbEntity
  8
0
  6
Continuous
 62
     7
100
AcDbLine
 10
-6.112546939011963
 20
256.3817203172803
 30
0.0
 11
-7.391026939011908
 21
255.7281703172802
 31
0.0
  0
LINE
  5
D24
330
1F
100
AcDbEntity
  8
0
  6
Continuous
 62
     7
100
AcDbLine
 10
-20.88915693901197
 20
250.7281903172803
 30
0.0
 11
-20.88915693901197
 21
240.3282003172802
 31
0.0
  0
LINE
  5
D25
330
1F
100
AcDbEntity
  8
0
  6
Continuous
 62
     7
100
AcDbLine
 10
-21.47620693901195
 20
250.7281903172803
 30
0.0
 11
-21.47620693901195
 21
240.8282003172803
 31
0.0
  0
LINE
  5
D26
330
1F
100
AcDbEntity
  8
0
  6
Continuous
 62
     7
100
AcDbLine
 10
-5.118096939011934
 20
255.7281903172802
 30
0.0
 11
-5.494056939011954
 21
255.7281903172802
 31
0.0
  0
LINE
  5
D27
330
1F
100
AcDbEntity
  8
0
  6
Continuous
 62
     7
100
AcDbLine
 10
-2.937126939011932
 20
261.2281903172802
 30
0.0
 11
-6.112546939011963
 21
261.2281903172802
 31
0.0
  0
LINE
  5
D28
330
1F
100
AcDbEntity
  8
0
  6
Continuous
 62
     7
100
AcDbLine
 10
-9.777016939011957
 20
240.3282003172802
 30
0.0
 11
-11.77916693901193
 21
240.3282003172802
 31
0.0
  0
LINE
  5
D29
330
1F
100
AcDbEntity
  8
0
  6
Continuous
 62
     7
100
AcDbLine
 10
-21.01809693901191
 20
240.2281903172803
 30
0.0
 11
-21.61809693901194
 21
240.8282003172803
 31
0.0
  0
LINE
  5
D2A
330
1F
100
AcDbEntity
  8
0
  6
Continuous
 62
     7
100
AcDbLine
 10
-18.30850693901197
 20
264.7281903172802
 30
0.0
 11
-18.30850693901197
 21
256.5241003172803
 31
0.0
  0
LINE
  5
D2B
330
1F
100
AcDbEntity
  8
0
  6
Continuous
 62
     7
100
AcDbLine
 10
-18.51810693901194
 20
238.3282003172802
 30
0.0
 11
-18.51810693901194
 21
238.0281903172803
 31
0.0
  0
LINE
  5
D2C
330
1F
100
AcDbEntity
  8
0
  6
Continuous
 62
     7
100
AcDbLine
 10
-11.72114693901193
 20
255.7281903172802
 30
0.0
 11
-10.4426769390119
 21
256.3830703172803
 31
0.0
  0
LINE
  5
D2D
330
1F
100
AcDbEntity
  8
0
  6
Continuous
 62
     7
100
AcDbLine
 10
-22.11809693901193
 20
255.7281903172802
 30
0.0
 11
-22.11809693901193
 21
251.2281903172802
 31
0.0
  0
LINE
  5
D2E
330
1F
100
AcDbEntity
  8
0
  6
Continuous
 62
     7
100
AcDbLine
 10
-21.61809693901194
 20
250.7281903172803
 30
0.0
 11
-5.618096939011934
 21
250.7281903172803
 31
0.0
  0
LINE
  5
D2F
330
1F
100
AcDbEntity
  8
0
  6
Continuous
 62
     7
100
AcDbLine
 10
-19.84517693901193
 20
255.7281903172802
 30
0.0
 11
-15.51505693901197
 21
255.7281903172802
 31
0.0
  0
LINE
  5
D30
330
1F
100
AcDbEntity
  8
0
  6
Continuous
 62
     7
100
AcDbLine
 10
-21.47620693901195
 20
240.8282003172803
 30
0.0
 11
-20.88915693901197
 21
240.3282003172802
 31
0.0
  0
LINE
  5
D31
330
1F
100
AcDbEntity
  8
0
  6
Continuous
 62
     7
100
AcDbLine
 10
-15.11809693901193
 20
240.8282003172803
 30
0.0
 11
-12.11811693901194
 21
240.8282003172803
 31
0.0
  0
LINE
  5
D32
330
1F
100
AcDbEntity
  8
0
  6
Continuous
 62
     7
100
AcDbLine
 10
-21.61809693901194
 20
250.7281903172803
 30
0.0
 11
-22.11809693901193
 21
251.2281903172802
 31
0.0
  0
LINE
  5
D33
330
1F
100
AcDbEntity
  8
0
  6
Continuous
 62
     7
100
AcDbLine
 10
-20.61809693901194
 20
238.6281803172803
 30
0.0
 11
-20.31809693901192
 21
238.3281803172803
 31
0.0
  0
LINE
  5
D34
330
1F
100
AcDbEntity
  8
0
  6
Continuous
 62
     7
100
AcDbLine
 10
-20.23529693901196
 20
240.8282003172803
 30
0.0
 11
-20.05984693901195
 21
240.3282003172802
 31
0.0
  0
LINE
  5
D35
330
1F
100
AcDbEntity
  8
0
  6
Continuous
 62
     7
100
AcDbLine
 10
-16.79352693901194
 20
261.2281903172802
 30
0.0
 11
-10.4426769390119
 21
261.2281903172802
 31
0.0
  0
LINE
  5
D36
330
1F
100
AcDbEntity
  8
0
  6
Continuous
 62
     7
100
AcDbLine
 10
-21.01808693901194
 20
240.2281903172803
 30
0.0
 11
-6.218106939011931
 21
240.2281903172803
 31
0.0
  0
LINE
  5
D37
330
1F
100
AcDbEntity
  8
0
  6
Continuous
 62
     7
100
AcDbLine
 10
-20.41809693901194
 20
239.3281803172802
 30
0.0
 11
-20.61810693901191
 21
239.5281903172802
 31
0.0
  0
LINE
  5
D38
330
1F
100
AcDbEntity
  8
0
  6
Continuous
 62
     7
100
AcDbLine
 10
-20.41809693901194
 20
239.3281803172802
 30
0.0
 11
-20.61809693901194
 21
239.1281803172803
 31
0.0
  0
LINE
  5
D3A
330
1F
100
AcDbEntity
  8
0
  6
Continuous
 62
     7
100
AcDbLine
 10
-2.937106939011982
 20
256.3817203172803
 30
0.0
 11
-5.494046939011923
 21
255.7281703172802
 31
0.0
  0
LINE
  5
D3B
330
1F
100
AcDbEntity
  8
0
  6
Continuous
 62
     7
100
AcDbLine
 10
-12.11811693901194
 20
250.7281903172803
 30
0.0
 11
-12.11811693901194
 21
240.8282003172803
 31
0.0
  0
LINE
  5
D3C
330
1F
100
AcDbEntity
  8
0
  6
Continuous
 62
     7
100
AcDbLine
 10
-20.61811693901194
 20
239.1281803172803
 30
0.0
 11
-20.61811693901194
 21
238.6281803172803
 31
0.0
  0
LINE
  5
D3D
102
{ACAD_REACTORS
330
10FD
102
}
330
1F
100
AcDbEntity
  8
0
  6
Continuous
 62
     7
100
AcDbLine
 10
-20.21810693901193
 20
235.5281903172802
 30
0.0
 11
-7.017446939011961
 21
235.5281903172802
 31
0.0
  0
LINE
  5
D3E
330
1F
100
AcDbEntity
  8
0
  6
Continuous
 62
     7
100
AcDbLine
 10
-20.51808693901194
 20
237.5281903172802
 30
0.0
 11
-6.718106939011931
 21
237.5281903172802
 31
0.0
  0
LINE
  5
D3F
330
1F
100
AcDbEntity
  8
0
  6
Continuous
 62
     7
100
AcDbLine
 10
-20.51808693901194
 20
237.5281903172802
 30
0.0
 11
-20.51808693901194
 21
235.8282003172802
 31
0.0
  0
LINE
  5
D40
330
1F
100
AcDbEntity
  8
0
  6
Continuous
 62
     7
100
AcDbLine
 10
-6.3470369390119
 20
240.3282003172802
 30
0.0
 11
-7.176366939011927
 21
240.3282003172802
 31
0.0
  0
LINE
  5
D41
330
1F
100
AcDbEntity
  8
0
  6
Continuous
 62
     7
100
AcDbLine
 10
-2.11811693901194
 20
264.7281903172802
 30
0.0
 11
-2.11811693901194
 21
256.5320403172802
 31
0.0
  0
LINE
  5
D42
330
1F
100
AcDbEntity
  8
0
  6
Continuous
 62
     7
100
AcDbLine
 10
-6.870046939011899
 20
264.7281903172802
 30
0.0
 11
-6.870046939011899
 21
256.5320403172802
 31
0.0
  0
LINE
  5
D43
330
1F
100
AcDbEntity
  8
0
  6
Continuous
 62
     7
100
AcDbLine
 10
-10.4426769390119
 20
261.2281903172802
 30
0.0
 11
-10.4426769390119
 21
256.3830703172803
 31
0.0
  0
LINE
  5
D44
330
1F
100
AcDbEntity
  8
0
  6
Continuous
 62
     7
100
AcDbLine
 10
-6.618096939011934
 20
240.2281903172803
 30
0.0
 11
-6.618096939011934
 21
239.5281903172802
 31
0.0
  0
LINE
  5
D45
330
1F
100
AcDbEntity
  8
0
  6
Continuous
 62
     7
100
AcDbLine
 10
-6.112546939011963
 20
261.2281903172802
 30
0.0
 11
-6.112546939011963
 21
256.3817403172802
 31
0.0
  0
LINE
  5
D46
330
1F
100
AcDbEntity
  8
0
  6
Continuous
 62
     7
100
AcDbLine
 10
-9.122236939011941
 20
240.8282003172803
 30
0.0
 11
-9.777006939011926
 21
240.3282003172802
 31
0.0
  0
LINE
  5
D47
330
1F
100
AcDbEntity
  8
0
  6
Continuous
 62
     7
100
AcDbLine
 10
-11.77916693901193
 20
250.7281903172803
 30
0.0
 11
-11.77916693901193
 21
240.3282003172802
 31
0.0
  0
LINE
  5
D48
330
1F
100
AcDbEntity
  8
0
  6
Continuous
 62
     7
100
AcDbLine
 10
-5.118086939011959
 20
255.7281903172802
 30
0.0
 11
-2.118106939011909
 21
256.5320403172802
 31
0.0
  0
LINE
  5
D49
330
1F
100
AcDbEntity
  8
0
  6
Continuous
 62
     7
100
AcDbLine
 10
-11.7211369390119
 20
261.2281903172802
 30
0.0
 11
-11.7211369390119
 21
255.7281903172802
 31
0.0
  0
LINE
  5
D4A
330
1F
100
AcDbEntity
  8
0
  6
Continuous
 62
     7
100
AcDbLine
 10
-12.11810693901191
 20
240.8282003172803
 30
0.0
 11
-11.77915693901195
 21
240.3281803172802
 31
0.0
  0
LINE
  5
D4B
330
1F
100
AcDbEntity
  8
0
  6
Continuous
 62
     7
100
AcDbLine
 10
-9.777016939011957
 20
250.7281903172803
 30
0.0
 11
-9.777016939011957
 21
240.3282003172802
 31
0.0
  0
LINE
  5
D4C
330
1F
100
AcDbEntity
  8
0
  6
Continuous
 62
     7
100
AcDbLine
 10
-9.122236939011941
 20
250.7281903172803
 30
0.0
 11
-9.122236939011941
 21
240.8282003172803
 31
0.0
  0
LINE
  5
D4D
330
1F
100
AcDbEntity
  8
0
  6
Continuous
 62
     7
100
AcDbLine
 10
-5.618096939011934
 20
240.8282003172803
 30
0.0
 11
-5.759986939011923
 21
240.8282003172803
 31
0.0
  0
LINE
  5
D4E
330
1F
100
AcDbEntity
  8
0
  6
Continuous
 62
     7
100
AcDbLine
 10
-2.937126939011932
 20
261.2281903172802
 30
0.0
 11
-2.937126939011932
 21
256.3817403172802
 31
0.0
  0
LINE
  5
D4F
330
1F
100
AcDbEntity
  8
0
  6
Continuous
 62
     7
100
AcDbLine
 10
-7.00090693901194
 20
250.7281903172803
 30
0.0
 11
-7.00090693901194
 21
240.8282003172803
 31
0.0
  0
LINE
  5
D50
330
1F
100
AcDbEntity
  8
0
  6
Continuous
 62
     7
100
AcDbLine
 10
-5.618096939011934
 20
250.7281903172803
 30
0.0
 11
-5.618096939011934
 21
240.8282003172803
 31
0.0
  0
LINE
  5
D51
330
1F
100
AcDbEntity
  8
0
  6
Continuous
 62
     7
100
AcDbLine
 10
-7.00090693901194
 20
240.8282003172803
 30
0.0
 11
-9.122236939011941
 21
240.8282003172803
 31
0.0
  0
LINE
  5
D52
330
1F
100
AcDbEntity
  8
0
  6
Continuous
 62
     7
100
AcDbLine
 10
-6.3470369390119
 20
250.7281903172803
 30
0.0
 11
-6.3470369390119
 21
240.3282003172802
 31
0.0
  0
LINE
  5
D53
330
1F
100
AcDbEntity
  8
0
  6
Continuous
 62
     7
100
AcDbLine
 10
-5.759986939011923
 20
250.7281903172803
 30
0.0
 11
-5.759986939011923
 21
240.8282003172803
 31
0.0
  0
LINE
  5
D54
330
1F
100
AcDbEntity
  8
0
  6
Continuous
 62
     7
100
AcDbLine
 10
-6.218096939011957
 20
240.2281903172803
 30
0.0
 11
-5.618096939011934
 21
240.8282003172803
 31
0.0
  0
LINE
  5
D55
330
1F
100
AcDbEntity
  8
0
  6
Continuous
 62
     7
100
AcDbLine
 10
-8.927686939011891
 20
264.7281903172802
 30
0.0
 11
-8.927686939011891
 21
256.5241003172803
 31
0.0
  0
LINE
  5
D56
330
1F
100
AcDbEntity
  8
0
  6
Continuous
 62
     7
100
AcDbLine
 10
-8.718106939011931
 20
238.3282003172802
 30
0.0
 11
-8.718106939011931
 21
238.0281903172803
 31
0.0
  0
LINE
  5
D57
330
1F
100
AcDbEntity
  8
0
  6
Continuous
 62
     7
100
AcDbLine
 10
-5.118096939011934
 20
255.7281903172802
 30
0.0
 11
-5.118096939011934
 21
251.2281903172802
 31
0.0
  0
LINE
  5
D58
330
1F
100
AcDbEntity
  8
0
  6
Continuous
 62
     7
100
AcDbLine
 10
-7.391016939011933
 20
255.7281903172802
 30
0.0
 11
-11.7211369390119
 21
255.7281903172802
 31
0.0
  0
LINE
  5
D59
330
1F
100
AcDbEntity
  8
0
  6
Continuous
 62
     7
100
AcDbLine
 10
-5.759976939011949
 20
240.8281803172803
 30
0.0
 11
-6.347046939011931
 21
240.3281803172802
 31
0.0
  0
LINE
  5
D5A
330
1F
100
AcDbEntity
  8
0
  6
Continuous
 62
     7
100
AcDbLine
 10
-5.618096939011934
 20
250.7281903172803
 30
0.0
 11
-5.118096939011934
 21
251.2281903172802
 31
0.0
  0
LINE
  5
D5B
330
1F
100
AcDbEntity
  8
0
  6
Continuous
 62
     7
100
AcDbLine
 10
-6.618096939011934
 20
238.6281803172803
 30
0.0
 11
-6.918096939011945
 21
238.3281803172803
 31
0.0
  0
LINE
  5
D5C
330
1F
100
AcDbEntity
  8
0
  6
Continuous
 62
     7
100
AcDbLine
 10
-7.00090693901194
 20
240.8281803172803
 30
0.0
 11
-7.176346939011921
 21
240.3282003172802
 31
0.0
  0
LINE
  5
D5D
330
1F
100
AcDbEntity
  8
0
  6
Continuous
 62
     7
100
AcDbLine
 10
-6.818096939011923
 20
239.3281803172802
 30
0.0
 11
-6.618086939011959
 21
239.5281903172802
 31
0.0
  0
LINE
  5
D5E
330
1F
100
AcDbEntity
  8
0
  6
Continuous
 62
     7
100
AcDbLine
 10
-6.818096939011923
 20
239.3281803172802
 30
0.0
 11
-6.618106939011909
 21
239.1281803172803
 31
0.0
  0
LINE
  5
D5F
330
1F
100
AcDbEntity
  8
0
  6
Continuous
 62
     7
100
AcDbLine
 10
-6.618096939011934
 20
239.1281803172803
 30
0.0
 11
-6.618096939011934
 21
238.6281803172803
 31
0.0
  0
LINE
  5
D60
330
1F
100
AcDbEntity
  8
0
  6
Continuous
 62
     7
100
AcDbLine
 10
-6.718106939011931
 20
237.5281903172802
 30
0.0
 11
-6.718106939011931
 21
235.8282003172802
 31
0.0
  0
ARC
  5
D64
330
1F
100
AcDbEntity
  8
0
  6
Continuous
 62
     7
100
AcDbCircle
 10
-22.71135693901192
 20
267.0361103172803
 30
0.0
 40
10.772028
100
AcDbArc
 50
278.4758300000001
 51
282.6750000000018
  0
ARC
  5
D65
330
1F
100
AcDbEntity
  8
0
  6
Continuous
 62
     7
100
AcDbCircle
 10
-19.33733693901195
 20
259.9781303172802
 30
0.0
 40
3.596389999999999
100
AcDbArc
 50
253.3771399999996
 51
286.2989499999986
  0
ARC
  5
D66
330
1F
100
AcDbEntity
  8
0
  6
Continuous
 62
     7
100
AcDbCircle
 10
-4.524836939011947
 20
267.0361103172803
 30
0.0
 40
10.772028
100
AcDbArc
 50
257.3249999999982
 51
261.5241699999999
  0
ARC
  5
D67
330
1F
100
AcDbEntity
  8
0
  6
Continuous
 62
     7
100
AcDbCircle
 10
-13.61809693901193
 20
298.6993303172802
 30
0.0
 40
42.43524599999999
100
AcDbArc
 50
263.6540700000002
 51
265.7085500000015
  0
ARC
  5
D68
330
1F
100
AcDbEntity
  8
0
  6
Continuous
 62
     7
100
AcDbCircle
 10
-22.71135693901192
 20
267.0361103172803
 30
0.0
 40
10.772028
100
AcDbArc
 50
257.0897599999989
 51
261.5241699999999
  0
ARC
  5
D69
330
1F
100
AcDbEntity
  8
0
  6
Continuous
 62
     7
100
AcDbCircle
 10
-20.21810693901193
 20
235.8282003172802
 30
0.0
 40
0.29999998
100
AcDbArc
 50
179.999989999999
 51
270.0
  0
ARC
  5
D6A
330
1F
100
AcDbEntity
  8
0
  6
Continuous
 62
     7
100
AcDbCircle
 10
-19.01810693901194
 20
238.0281903172803
 30
0.0
 40
0.5
100
AcDbArc
 50
270.0
 51
0.0
  0
ARC
  5
D6B
330
1F
100
AcDbEntity
  8
0
  6
Continuous
 62
     7
100
AcDbCircle
 10
-7.898876939011927
 20
259.9781303172802
 30
0.0
 40
3.596389999999999
100
AcDbArc
 50
253.7010600000008
 51
286.6228500000023
  0
ARC
  5
D6C
330
1F
100
AcDbEntity
  8
0
  6
Continuous
 62
     7
100
AcDbCircle
 10
-13.61809693901193
 20
298.6993303172802
 30
0.0
 40
42.43524599999999
100
AcDbArc
 50
274.2914499999985
 51
276.3459299999998
  0
ARC
  5
D6D
330
1F
100
AcDbEntity
  8
0
  6
Continuous
 62
     7
100
AcDbCircle
 10
-4.524836939011947
 20
267.0361103172803
 30
0.0
 40
10.772028
100
AcDbArc
 50
278.4758300000001
 51
282.9102400000011
  0
ARC
  5
D6E
330
1F
100
AcDbEntity
  8
0
  6
Continuous
 62
     7
100
AcDbCircle
 10
-7.018106939011943
 20
235.8282003172802
 30
0.0
 40
0.29999998
100
AcDbArc
 50
270.0
 51
0.0
  0
ARC
  5
D6F
330
1F
100
AcDbEntity
  8
0
  6
Continuous
 62
     7
100
AcDbCircle
 10
-8.218106939011931
 20
238.0281903172803
 30
0.0
 40
0.5
100
AcDbArc
 50
179.999989999999
 51
270.0
  0
LWPOLYLINE
  5
D70
330
1F
100
AcDbEntity
  8
0
100
AcDbPolyline
 90
        4
 70
     0
 43
0.0
 10
-4.368096939011905
 20
264.7281903172802
 10
-4.368096939011905
 20
265.0281903172802
 10
-22.86809693901188
 20
265.0281903172802
 10
-22.86809693901188
 20
264.7281903172802
  0
LINE
  5
FB7
330
1F
100
AcDbEntity
  8
AM_4
100
AcDbLine
 10
6.162403060988083
 20
404.3281801172802
 30
0.0
 11
6.162403060988083
 21
403.3281801172802
 31
0.0
  0
LINE
  5
FB8
330
1F
100
AcDbEntity
  8
AM_4
100
AcDbLine
 10
8.601403060988161
 20
404.3281801172802
 30
0.0
 11
8.601403060988161
 21
403.3281801172802
 31
0.0
  0
LINE
  5
FB9
330
1F
100
AcDbEntity
  8
AM_4
100
AcDbLine
 10
8.601403060988161
 20
403.3281801172802
 30
0.0
 11
8.881903060988122
 21
403.0476801172802
 31
0.0
  0
LINE
  5
FBA
330
1F
100
AcDbEntity
  8
AM_4
100
AcDbLine
 10
6.162403060988083
 20
403.3281801172802
 30
0.0
 11
5.881903060988122
 21
403.0476801172802
 31
0.0
  0
LINE
  5
FBB
330
1F
100
AcDbEntity
  8
AM_4
 62
     7
100
AcDbLine
 10
5.881903060988122
 20
403.3281801172802
 30
0.0
 11
8.881903060988122
 21
403.3281801172802
 31
0.0
  0
ARC
  5
FBD
330
1F
100
AcDbEntity
  8
AM_4
100
AcDbCircle
 10
-13.61809693901188
 20
487.7907148930813
 30
0.0
 40
10.4775
100
AcDbArc
 50
259.9999999999998
 51
190.0000000000002
  0
LINE
  5
FBE
330
1F
100
AcDbEntity
  8
AM_VIS
100
AcDbLine
 10
-28.61809694274558
 20
401.0281801172801
 30
0.0
 11
-28.61809694274558
 21
413.6884341542777
 31
0.0
  0
LINE
  5
FBF
330
1F
100
AcDbEntity
  8
AM_VIS
100
AcDbLine
 10
-13.61809693035167
 20
401.0281801172801
 30
0.0
 11
-13.61809693035167
 21
413.6884341530332
 31
0.0
  0
SPLINE
  5
FC0
330
1F
100
AcDbEntity
  8
AM_VIS
100
AcDbSpline
210
0.0
220
0.0
230
1.0
 70
    12
 71
     2
 72
     6
 73
     3
 74
     0
 42
0.0000000001
 43
0.0000000001
 40
4.177907697250768
 40
4.177907697250768
 40
4.177907697250768
 40
13.59864490265187
 40
13.59864490265187
 40
13.59864490265187
 10
-13.61809693035166
 20
413.6884341530329
 30
0.0
 41
1.034106888772075
 10
-17.63733481931893
 20
415.02818011728
 30
0.0
 41
1.055507146489964
 10
-21.11809693841536
 20
415.0281801172802
 30
0.0
 41
1.0
  0
SPLINE
  5
FC1
330
1F
100
AcDbEntity
  8
AM_VIS
100
AcDbSpline
210
0.0
220
0.0
230
1.0
 70
    12
 71
     2
 72
     6
 73
     3
 74
     0
 42
0.0000000001
 43
0.0000000001
 40
13.59864489243918
 40
13.59864489243918
 40
13.59864489243918
 40
23.01938207692007
 40
23.01938207692007
 40
23.01938207692007
 10
-6.118096935278288
 20
415.0281801172802
 30
0.0
 41
1.0
 10
-9.598859032294456
 20
415.0281801172802
 30
0.0
 41
1.055507140677061
 10
-13.61809693035213
 20
413.6884341530331
 30
0.0
 41
1.034106885313309
  0
SPLINE
  5
FC2
330
1F
100
AcDbEntity
  8
AM_VIS
100
AcDbSpline
210
-0.0000000000000721
220
-0.0000000000003946
230
1.0
 70
    12
 71
     2
 72
     6
 73
     3
 74
     0
 42
0.0000000001
 43
0.0000000001
 40
4.177907702301611
 40
4.177907702301611
 40
4.177907702301611
 40
13.59864489243918
 40
13.59864489243918
 40
13.59864489243918
 10
1.381903064721363
 20
413.6884341513909
 30
-0.0000000000001137
 41
1.034106885287608
 10
-2.637334836282037
 20
415.0281801172802
 30
0.0
 41
1.055507140710389
 10
-6.118096935278288
 20
415.0281801172802
 30
0.0
 41
1.0
  0
SPLINE
  5
FC3
330
1F
100
AcDbEntity
  8
AM_VIS
100
AcDbSpline
210
0.0
220
0.0
230
1.0
 70
    12
 71
     2
 72
     6
 73
     3
 74
     0
 42
0.0000000001
 43
0.0000000001
 40
13.59864490265187
 40
13.59864490265187
 40
13.59864490265187
 40
23.01938210376604
 40
23.01938210376604
 40
23.01938210376604
 10
-21.11809693841536
 20
415.0281801172802
 30
0.0
 41
1.0
 10
-24.59885905601143
 20
415.0281801172801
 30
0.0
 41
1.055507146464708
 10
-28.61809694274557
 20
413.6884341542776
 30
0.0
 41
1.034106888791553
  0
LINE
  5
FC4
330
1F
100
AcDbEntity
  8
AM_VIS
100
AcDbLine
 10
-28.61809694087873
 20
415.0281801172802
 30
0.0
 11
-28.61809694087873
 21
413.6884341542777
 31
0.0
  0
LINE
  5
FC5
330
1F
100
AcDbEntity
  8
AM_VIS
100
AcDbLine
 10
1.381903064721711
 20
401.0281801172801
 30
0.0
 11
1.381903064721711
 21
413.6884341513909
 31
0.0
  0
LINE
  5
FC6
330
1F
100
AcDbEntity
  8
AM_VIS
100
AcDbLine
 10
1.381903064721711
 20
415.0281801172802
 30
0.0
 11
1.381903064721711
 21
413.6884341513909
 31
0.0
  0
ARC
  5
FC7
330
1F
100
AcDbEntity
  8
AM_VIS
100
AcDbCircle
 10
-29.61809694274558
 20
401.0281801172801
 30
0.0
 40
1.000000000000023
100
AcDbArc
 50
270.0
 51
0.0
  0
LINE
  5
FC8
330
1F
100
AcDbEntity
  8
AM_VIS
100
AcDbLine
 10
-13.61809693035167
 20
401.0281801172801
 30
0.0
 11
-13.61809693035167
 21
400.0281801172802
 31
0.0
  0
ARC
  5
FC9
330
1F
100
AcDbEntity
  8
AM_VIS
100
AcDbCircle
 10
2.381903064721711
 20
401.0281801172801
 30
0.0
 40
1.0
100
AcDbArc
 50
180.0
 51
270.0
  0
LINE
  5
FCA
330
1F
100
AcDbEntity
  8
AM_VIS
100
AcDbLine
 10
26.38190306098812
 20
389.0281801172802
 30
0.0
 11
26.38190306098812
 21
391.0281801172802
 31
0.0
  0
LINE
  5
FCB
330
1F
100
AcDbEntity
  8
AM_VIS
100
AcDbLine
 10
-53.61809693901188
 20
389.0281801172802
 30
0.0
 11
-53.61809693901188
 21
391.0281801172802
 31
0.0
  0
LINE
  5
FCC
330
1F
100
AcDbEntity
  8
AM_VIS
100
AcDbLine
 10
-39.61809693901188
 20
400.0281801172802
 30
0.0
 11
-53.61809693901188
 21
391.0281801172802
 31
0.0
  0
LINE
  5
FCD
330
1F
100
AcDbEntity
  8
AM_VIS
100
AcDbLine
 10
12.38190306098812
 20
400.0281801172802
 30
0.0
 11
26.38190306098812
 21
391.0281801172802
 31
0.0
  0
LINE
  5
FCE
330
1F
100
AcDbEntity
  8
AM_VIS
100
AcDbLine
 10
21.38190306098812
 20
388.0281801172802
 30
0.0
 11
21.38190306098812
 21
389.0281801172802
 31
0.0
  0
LINE
  5
FCF
330
1F
100
AcDbEntity
  8
AM_VIS
100
AcDbLine
 10
-48.61809693901188
 20
388.0281801172802
 30
0.0
 11
-48.61809693901188
 21
389.0281801172802
 31
0.0
  0
LINE
  5
FD0
330
1F
100
AcDbEntity
  8
AM_VIS
100
AcDbLine
 10
26.38190306098812
 20
389.0281801172802
 30
0.0
 11
-53.61809693901188
 21
389.0281801172802
 31
0.0
  0
LINE
  5
FD1
330
1F
100
AcDbEntity
  8
AM_VIS
100
AcDbLine
 10
-53.61809693901188
 20
391.0281801172802
 30
0.0
 11
26.38190306098812
 21
391.0281801172802
 31
0.0
  0
LINE
  5
FD2
330
1F
100
AcDbEntity
  8
AM_VIS
100
AcDbLine
 10
-21.11809693901188
 20
415.0281801172802
 30
0.0
 11
-28.61809693901188
 21
415.0281801172802
 31
0.0
  0
LINE
  5
FD3
102
{ACAD_REACTORS
330
10FD
102
}
330
1F
100
AcDbEntity
  8
AM_VIS
100
AcDbLine
 10
1.381903060988122
 20
415.0281801172802
 30
0.0
 11
-6.118096939011877
 21
415.0281801172802
 31
0.0
  0
LINE
  5
FD4
330
1F
100
AcDbEntity
  8
AM_VIS
100
AcDbLine
 10
-6.118096939011877
 20
415.0281801172802
 30
0.0
 11
-21.11809693901188
 21
415.0281801172802
 31
0.0
  0
LINE
  5
FD5
330
1F
100
AcDbEntity
  8
AM_VIS
100
AcDbLine
 10
-39.61809693901188
 20
400.0281801172802
 30
0.0
 11
12.38190306098812
 21
400.0281801172802
 31
0.0
  0
LINE
  5
FD6
330
1F
100
AcDbEntity
  8
AM_VIS
100
AcDbLine
 10
-3.618096939011877
 20
265.0281903172802
 30
0.0
 11
-3.329404361680587
 21
266.1056056836488
 31
0.0
  0
LINE
  5
FD7
330
1F
100
AcDbEntity
  8
AM_VIS
100
AcDbLine
 10
-23.61809693901188
 20
265.0281903172802
 30
0.0
 11
-23.90678951634317
 21
266.1056056836488
 31
0.0
  0
LINE
  5
FD8
330
1F
100
AcDbEntity
  8
AM_VIS
100
AcDbLine
 10
-3.618096939011877
 20
265.0281903172802
 30
0.0
 11
-23.61809693901188
 21
265.0281903172802
 31
0.0
  0
LINE
  5
FD9
330
1F
100
AcDbEntity
  8
AM_VIS
100
AcDbLine
 10
-22.61809693901165
 20
374.0281801172802
 30
0.0
 11
-22.61809693901165
 21
388.0281801172802
 31
0.0
  0
LINE
  5
FDA
330
1F
100
AcDbEntity
  8
AM_VIS
100
AcDbLine
 10
-22.61809693901165
 20
388.0281801172802
 30
0.0
 11
-4.61809693901165
 21
388.0281801172802
 31
0.0
  0
LINE
  5
FDB
330
1F
100
AcDbEntity
  8
AM_VIS
100
AcDbLine
 10
-4.61809693901165
 20
388.0281801172802
 30
0.0
 11
-4.61809693901165
 21
374.0281801172802
 31
0.0
  0
LINE
  5
FDC
330
1F
100
AcDbEntity
  8
AM_VIS
100
AcDbLine
 10
-50.30906898615882
 20
383.0281801172802
 30
0.0
 11
-50.30906898615882
 21
374.0281801172802
 31
0.0
  0
LINE
  5
FDD
330
1F
100
AcDbEntity
  8
AM_VIS
100
AcDbLine
 10
-53.1149322552746
 20
374.0281801172802
 30
0.0
 11
-53.1149322552746
 21
383.0281801172802
 31
0.0
  0
LINE
  5
FDE
330
1F
100
AcDbEntity
  8
AM_VIS
100
AcDbLine
 10
-52.07586598507049
 20
383.0281801172802
 30
0.0
 11
-52.07586598507049
 21
373.7039115151181
 31
0.0
  0
LINE
  5
FDF
330
1F
100
AcDbEntity
  8
AM_VIS
100
AcDbLine
 10
-26.62474691138613
 20
383.0281801172802
 30
0.0
 11
-26.62474691138613
 21
374.0281801172802
 31
0.0
  0
LINE
  5
FE0
330
1F
100
AcDbEntity
  8
AM_VIS
100
AcDbLine
 10
-33.76840243349756
 20
374.0281801172802
 30
0.0
 11
-33.76840243349756
 21
383.0281801172802
 31
0.0
  0
LINE
  5
FE1
330
1F
100
AcDbEntity
  8
AM_VIS
100
AcDbLine
 10
-33.0336716277339
 20
383.0281801172802
 30
0.0
 11
-33.0336716277339
 21
373.7039115151181
 31
0.0
  0
LINE
  5
FE2
330
1F
100
AcDbEntity
  8
AM_VIS
100
AcDbLine
 10
4.678694316163785
 20
383.0281801172802
 30
0.0
 11
4.678694316163785
 21
374.0281801172802
 31
0.0
  0
LINE
  5
FE3
330
1F
100
AcDbEntity
  8
AM_VIS
100
AcDbLine
 10
-2.61809693901165
 20
374.0281801172802
 30
0.0
 11
-2.61809693901165
 21
383.0281801172802
 31
0.0
  0
LINE
  5
FE4
330
1F
100
AcDbEntity
  8
AM_VIS
100
AcDbLine
 10
4.177738839626215
 20
383.0281801172802
 30
0.0
 11
4.177738839626215
 21
373.7039115151181
 31
0.0
  0
LINE
  5
FE5
330
1F
100
AcDbEntity
  8
AM_VIS
100
AcDbLine
 10
25.26412337434141
 20
383.0281801172802
 30
0.0
 11
25.26412337434141
 21
374.0281801172802
 31
0.0
  0
LINE
  5
FE6
330
1F
100
AcDbEntity
  8
AM_VIS
100
AcDbLine
 10
22.0885577415782
 20
374.0281801172802
 30
0.0
 11
22.0885577415782
 21
383.0281801172802
 31
0.0
  0
LINE
  5
FE7
330
1F
100
AcDbEntity
  8
AM_VIS
100
AcDbLine
 10
24.29635170951014
 20
383.0281801172802
 30
0.0
 11
24.29635170951014
 21
373.7039115151181
 31
0.0
  0
LINE
  5
FE8
330
1F
100
AcDbEntity
  8
AM_VIS
100
AcDbLine
 10
-44.32329638989671
 20
383.0281801172802
 30
0.0
 11
-44.32329638989671
 21
374.0281801172802
 31
0.0
  0
LINE
  5
FE9
330
1F
100
AcDbEntity
  8
AM_VIS
100
AcDbLine
 10
-47.80906898497909
 20
374.0281801172802
 30
0.0
 11
-47.80906898497909
 21
383.0281801172802
 31
0.0
  0
LINE
  5
FEA
330
1F
100
AcDbEntity
  8
AM_VIS
100
AcDbLine
 10
-46.94138864783195
 20
383.0281801172802
 30
0.0
 11
-46.94138864783195
 21
373.7039115151181
 31
0.0
  0
LINE
  5
FEB
330
1F
100
AcDbEntity
  8
AM_VIS
100
AcDbLine
 10
-36.24501519379811
 20
383.0281801172802
 30
0.0
 11
-36.24501519379811
 21
374.0281801172802
 31
0.0
  0
LINE
  5
FEC
330
1F
100
AcDbEntity
  8
AM_VIS
100
AcDbLine
 10
-40.78776248300079
 20
374.0281801172802
 30
0.0
 11
-40.78776248300079
 21
383.0281801172802
 31
0.0
  0
LINE
  5
FED
330
1F
100
AcDbEntity
  8
AM_VIS
100
AcDbLine
 10
-40.0793044544635
 20
383.0281801172802
 30
0.0
 11
-40.0793044544635
 21
373.7039115151181
 31
0.0
  0
LINE
  5
FEE
330
1F
100
AcDbEntity
  8
AM_VIS
100
AcDbLine
 10
13.55156862170821
 20
383.0281801172802
 30
0.0
 11
13.55156862170821
 21
374.0281801172802
 31
0.0
  0
LINE
  5
FEF
330
1F
100
AcDbEntity
  8
AM_VIS
100
AcDbLine
 10
9.008821334404899
 20
374.0281801172802
 30
0.0
 11
9.008821334404899
 21
383.0281801172802
 31
0.0
  0
LINE
  5
FF0
330
1F
100
AcDbEntity
  8
AM_VIS
100
AcDbLine
 10
12.84311059278485
 20
383.0281801172802
 30
0.0
 11
12.84311059278485
 21
373.7039115151181
 31
0.0
  0
LINE
  5
FF1
330
1F
100
AcDbEntity
  8
AM_VIS
100
AcDbLine
 10
20.57287511928479
 20
383.0281801172802
 30
0.0
 11
20.57287511928479
 21
374.0281801172802
 31
0.0
  0
LINE
  5
FF2
330
1F
100
AcDbEntity
  8
AM_VIS
100
AcDbLine
 10
17.08710252667771
 20
374.0281801172802
 30
0.0
 11
17.08710252667771
 21
383.0281801172802
 31
0.0
  0
LINE
  5
FF3
330
1F
100
AcDbEntity
  8
AM_VIS
100
AcDbLine
 10
19.70519478186469
 20
383.0281801172802
 30
0.0
 11
19.70519478186469
 21
373.7039115151181
 31
0.0
  0
LINE
  5
FF4
330
1F
100
AcDbEntity
  8
AM_VIS
100
AcDbLine
 10
21.35384693576458
 20
373.7038661993247
 30
0.0
 11
22.08857700498626
 21
374.02813647034
 31
0.0
  0
LINE
  5
FF5
330
1F
100
AcDbEntity
  8
AM_VIS
100
AcDbLine
 10
24.29635249262202
 20
373.7039091779394
 30
0.0
 11
25.26412412896605
 21
374.0281778651221
 31
0.0
  0
LINE
  5
FF6
330
1F
100
AcDbEntity
  8
AM_VIS
100
AcDbLine
 10
-53.11494708710705
 20
374.0281325913634
 30
0.0
 11
-52.0758813806271
 21
373.7038621828506
 31
0.0
  0
LINE
  5
FF7
330
1F
100
AcDbEntity
  8
AM_VIS
100
AcDbLine
 10
-50.30906980759943
 20
374.0281779192639
 30
0.0
 11
-49.44138950146484
 21
373.7039092341181
 31
0.0
  0
LINE
  5
FF8
330
1F
100
AcDbEntity
  8
AM_VIS
100
AcDbLine
 10
-47.80906980641981
 20
374.0281779192639
 30
0.0
 11
-46.94138950028511
 21
373.7039092341181
 31
0.0
  0
LINE
  5
FF9
330
1F
100
AcDbEntity
  8
AM_VIS
100
AcDbLine
 10
-44.32329733786168
 20
374.0281780461788
 30
0.0
 11
-43.61483934512079
 21
373.7039093658091
 31
0.0
  0
LINE
  5
FFA
330
1F
100
AcDbEntity
  8
AM_VIS
100
AcDbLine
 10
-40.78776343096575
 20
374.0281780461787
 30
0.0
 11
-40.07930543822488
 21
373.703909365809
 31
0.0
  0
LINE
  5
FFB
330
1F
100
AcDbEntity
  8
AM_VIS
100
AcDbLine
 10
-36.24501633648498
 20
374.0281783519689
 30
0.0
 11
-35.74406090358963
 21
373.7039096831145
 31
0.0
  0
LINE
  5
FFC
330
1F
100
AcDbEntity
  8
AM_VIS
100
AcDbLine
 10
-33.76842169690559
 20
374.02813647034
 30
0.0
 11
-33.0336916276838
 21
373.7038661993247
 31
0.0
  0
LINE
  5
FFD
330
1F
100
AcDbEntity
  8
AM_VIS
100
AcDbLine
 10
-26.62474813319142
 20
374.0281791402178
 30
0.0
 11
-26.36543454364028
 21
373.7039105010977
 31
0.0
  0
SPLINE
  5
FFE
330
1F
100
AcDbEntity
  8
AM_VIS
100
AcDbSpline
210
0.0
220
0.0
230
1.0
 70
    12
 71
     2
 72
     6
 73
     3
 74
     0
 42
0.0000000001
 43
0.0000000001
 40
0.0
 40
0.0
 40
0.0
 40
18.01167955814752
 40
18.01167955814752
 40
18.01167955814752
 10
-4.61809693901165
 20
374.0281801172802
 30
0.0
 41
1.0
 10
-13.61809693901199
 20
373.3875519032525
 30
0.0
 41
1.024999999999943
 10
-22.61809693901165
 20
374.0281801172802
 30
0.0
 41
1.0
  0
LINE
  5
FFF
330
1F
100
AcDbEntity
  8
AM_VIS
100
AcDbLine
 10
-2.61809693901165
 20
374.0281801172802
 30
0.0
 11
-2.61809693901165
 21
373.7039115151181
 31
0.0
  0
LINE
  5
1000
330
1F
100
AcDbEntity
  8
AM_VIS
100
AcDbLine
 10
4.177740025482819
 20
373.7039096831146
 30
0.0
 11
4.678695458850512
 21
374.0281783519689
 31
0.0
  0
LINE
  5
1001
330
1F
100
AcDbEntity
  8
AM_VIS
100
AcDbLine
 10
8.507867043723933
 20
373.7039096831145
 30
0.0
 11
9.008822477091769
 21
374.0281783519689
 31
0.0
  0
LINE
  5
1002
330
1F
100
AcDbEntity
  8
AM_VIS
100
AcDbLine
 10
12.84311157654627
 20
373.7039093658089
 30
0.0
 11
13.55156956967323
 21
374.0281780461787
 31
0.0
  0
LINE
  5
1003
330
1F
100
AcDbEntity
  8
AM_VIS
100
AcDbLine
 10
16.37864548151577
 20
373.7039093658089
 30
0.0
 11
17.08710347464273
 21
374.0281780461787
 31
0.0
  0
LINE
  5
1004
330
1F
100
AcDbEntity
  8
AM_VIS
100
AcDbLine
 10
19.70519563431793
 20
373.7039092341181
 30
0.0
 11
20.5728759407256
 21
374.0281779192638
 31
0.0
  0
LINE
  5
1005
330
1F
100
AcDbEntity
  8
AM_VIS
100
AcDbLine
 10
-24.61809693901165
 20
358.0281801172802
 30
0.0
 11
-24.61809693901165
 21
292.8644363164875
 31
0.0
  0
ARC
  5
1006
330
1F
100
AcDbEntity
  8
AM_VIS
100
AcDbCircle
 10
-31.61809693901165
 20
358.0280857641683
 30
0.0
 40
7.000000000635893
100
AcDbArc
 50
0.0007722908048035
 51
179.9992277092717
  0
LINE
  5
1007
330
1F
100
AcDbEntity
  8
AM_VIS
100
AcDbLine
 10
-38.61809693901165
 20
358.0281801172802
 30
0.0
 11
-38.61809693901165
 21
292.8644363164875
 31
0.0
  0
ARC
  5
1008
330
1F
100
AcDbEntity
  8
AM_VIS
100
AcDbCircle
 10
-31.61809693901165
 20
290.0281844319625
 30
0.0
 40
7.00000000000133
100
AcDbArc
 50
180.0000353049134
 51
359.9999646838455
  0
ARC
  5
1009
330
1F
100
AcDbEntity
  8
AM_VIS
100
AcDbCircle
 10
4.381903060988349
 20
358.0280857641683
 30
0.0
 40
7.000000000635893
100
AcDbArc
 50
0.0007722908048035
 51
179.9992277092717
  0
LINE
  5
100A
330
1F
100
AcDbEntity
  8
AM_VIS
100
AcDbLine
 10
-2.61809693901165
 20
358.0281801172802
 30
0.0
 11
-2.61809693901165
 21
292.8644363164875
 31
0.0
  0
LINE
  5
100B
330
1F
100
AcDbEntity
  8
AM_VIS
100
AcDbLine
 10
11.38190306098835
 20
358.0281801172802
 30
0.0
 11
11.38190306098835
 21
292.8644363164875
 31
0.0
  0
ARC
  5
100C
330
1F
100
AcDbEntity
  8
AM_VIS
100
AcDbCircle
 10
4.381903060988349
 20
290.0281843437973
 30
0.0
 40
7.000000000001219
100
AcDbArc
 50
180.0000345980335
 51
359.9999654054871
  0
LINE
  5
100D
330
1F
100
AcDbEntity
  8
AM_VIS
100
AcDbLine
 10
-53.61809693901165
 20
388.0281801172802
 30
0.0
 11
-53.61809693901165
 21
383.0281801172802
 31
0.0
  0
LINE
  5
100E
330
1F
100
AcDbEntity
  8
AM_VIS
100
AcDbLine
 10
-53.61809693901165
 20
383.0281801172802
 30
0.0
 11
-53.61809693901165
 21
374.0281801172802
 31
0.0
  0
LINE
  5
100F
330
1F
100
AcDbEntity
  8
AM_VIS
100
AcDbLine
 10
-53.61809693901142
 20
374.0281801172802
 30
0.0
 11
-53.61809693901142
 21
373.7039115151181
 31
0.0
  0
LINE
  5
1010
330
1F
100
AcDbEntity
  8
AM_VIS
100
AcDbLine
 10
-53.61809693901165
 20
381.6130365141471
 30
0.0
 11
-53.61809693901165
 21
380.5281801172802
 31
0.0
  0
LINE
  5
1011
330
1F
100
AcDbEntity
  8
AM_VIS
100
AcDbLine
 10
-53.61809693901165
 20
381.92635244104
 30
0.0
 11
-53.61809693901165
 21
381.6130365141471
 31
0.0
  0
LINE
  5
1012
330
1F
100
AcDbEntity
  8
AM_VIS
100
AcDbLine
 10
-53.61809693901165
 20
379.4629059658442
 30
0.0
 11
-53.61809693901165
 21
379.1417571407789
 31
0.0
  0
LINE
  5
1013
330
1F
100
AcDbEntity
  8
AM_VIS
100
AcDbLine
 10
-53.61809693901165
 20
380.5281801172802
 30
0.0
 11
-53.61809693901165
 21
379.4629059658442
 31
0.0
  0
LINE
  5
1014
330
1F
100
AcDbEntity
  8
AM_VIS
100
AcDbLine
 10
26.38190306098835
 20
381.92635244104
 30
0.0
 11
26.38190306098835
 21
381.6130365141471
 31
0.0
  0
LINE
  5
1015
330
1F
100
AcDbEntity
  8
AM_VIS
100
AcDbLine
 10
26.38190306098835
 20
381.6130365141471
 30
0.0
 11
26.38190306098835
 21
380.5281801172802
 31
0.0
  0
LINE
  5
1016
330
1F
100
AcDbEntity
  8
AM_VIS
100
AcDbLine
 10
26.38190306098835
 20
380.5281801172802
 30
0.0
 11
26.38190306098835
 21
379.4629059658442
 31
0.0
  0
LINE
  5
1017
330
1F
100
AcDbEntity
  8
AM_VIS
100
AcDbLine
 10
26.38190306098835
 20
379.4629059658442
 30
0.0
 11
26.38190306098835
 21
379.1417571407789
 31
0.0
  0
LINE
  5
1018
330
1F
100
AcDbEntity
  8
AM_VIS
100
AcDbLine
 10
26.38190306098835
 20
383.0281801172802
 30
0.0
 11
26.38190306098835
 21
388.0281801172802
 31
0.0
  0
LINE
  5
1019
330
1F
100
AcDbEntity
  8
AM_VIS
100
AcDbLine
 10
26.38190306098835
 20
374.0281801172802
 30
0.0
 11
26.38190306098835
 21
373.7039115151181
 31
0.0
  0
LINE
  5
101A
330
1F
100
AcDbEntity
  8
AM_VIS
100
AcDbLine
 10
26.38190306098835
 20
374.0281801172802
 30
0.0
 11
26.38190306098835
 21
383.0281801172802
 31
0.0
  0
LINE
  5
101B
330
1F
100
AcDbEntity
  8
AM_VIS
100
AcDbLine
 10
17.37063205969656
 20
292.8644363164875
 30
0.0
 11
18.1178872924159
 21
369.5896125319608
 31
0.0
  0
LINE
  5
101C
330
1F
100
AcDbEntity
  8
AM_VIS
100
AcDbLine
 10
-44.60682593771986
 20
292.8644363164875
 30
0.0
 11
-45.3540811704392
 21
369.5896125319608
 31
0.0
  0
LINE
  5
101D
330
1F
100
AcDbEntity
  8
AM_VIS
100
AcDbLine
 10
19.50087896904421
 20
371.4726114513792
 30
0.0
 11
26.38190306098835
 21
373.7039115151181
 31
0.0
  0
LINE
  5
101E
330
1F
100
AcDbEntity
  8
AM_VIS
100
AcDbLine
 10
-46.7370728470675
 20
371.4726114513792
 30
0.0
 11
-53.61809693901165
 21
373.7039115151181
 31
0.0
  0
LINE
  5
101F
330
1F
100
AcDbEntity
  8
AM_VIS
100
AcDbLine
 10
26.38190306098835
 20
388.0281801172802
 30
0.0
 11
-4.61809693901165
 21
388.0281801172802
 31
0.0
  0
LINE
  5
1020
330
1F
100
AcDbEntity
  8
AM_VIS
100
AcDbLine
 10
-22.61809693901165
 20
388.0281801172802
 30
0.0
 11
-53.61809693901165
 21
388.0281801172802
 31
0.0
  0
LINE
  5
1021
330
1F
100
AcDbEntity
  8
AM_VIS
100
AcDbLine
 10
-50.30906898615882
 20
383.0281801172802
 30
0.0
 11
-53.1149322552746
 21
383.0281801172802
 31
0.0
  0
LINE
  5
1022
330
1F
100
AcDbEntity
  8
AM_VIS
100
AcDbLine
 10
-26.62474691138624
 20
383.0281801172802
 30
0.0
 11
-33.76840243349756
 21
383.0281801172802
 31
0.0
  0
LINE
  5
1023
330
1F
100
AcDbEntity
  8
AM_VIS
100
AcDbLine
 10
4.678694316163785
 20
383.0281801172802
 30
0.0
 11
-2.61809693901165
 21
383.0281801172802
 31
0.0
  0
LINE
  5
1024
330
1F
100
AcDbEntity
  8
AM_VIS
100
AcDbLine
 10
25.26412337434141
 20
383.0281801172802
 30
0.0
 11
22.0885577415782
 21
383.0281801172802
 31
0.0
  0
LINE
  5
1025
330
1F
100
AcDbEntity
  8
AM_VIS
100
AcDbLine
 10
-44.32329638989671
 20
383.0281801172802
 30
0.0
 11
-47.80906898497909
 21
383.0281801172802
 31
0.0
  0
LINE
  5
1026
330
1F
100
AcDbEntity
  8
AM_VIS
100
AcDbLine
 10
-36.24501519379811
 20
383.0281801172802
 30
0.0
 11
-40.78776248300079
 21
383.0281801172802
 31
0.0
  0
LINE
  5
1027
330
1F
100
AcDbEntity
  8
AM_VIS
100
AcDbLine
 10
13.55156862170821
 20
383.0281801172802
 30
0.0
 11
9.008821334404899
 21
383.0281801172802
 31
0.0
  0
LINE
  5
1028
330
1F
100
AcDbEntity
  8
AM_VIS
100
AcDbLine
 10
20.57287511928479
 20
383.0281801172802
 30
0.0
 11
17.08710252667771
 21
383.0281801172802
 31
0.0
  0
LINE
  5
1029
330
1F
100
AcDbEntity
  8
AM_VIS
100
AcDbLine
 10
22.0885577415782
 20
374.0281801172802
 30
0.0
 11
20.57287511928479
 21
374.0281801172802
 31
0.0
  0
LINE
  5
102A
330
1F
100
AcDbEntity
  8
AM_VIS
100
AcDbLine
 10
21.35382693581465
 20
373.7039115151181
 30
0.0
 11
24.29635170951014
 21
373.7039115151181
 31
0.0
  0
LINE
  5
102B
330
1F
100
AcDbEntity
  8
AM_VIS
100
AcDbLine
 10
26.38190306098835
 20
374.0281801172802
 30
0.0
 11
25.26412337434141
 21
374.0281801172802
 31
0.0
  0
LINE
  5
102C
330
1F
100
AcDbEntity
  8
AM_VIS
100
AcDbLine
 10
-53.1149322552746
 20
374.0281801172802
 30
0.0
 11
-53.61809693901165
 21
374.0281801172802
 31
0.0
  0
LINE
  5
102D
330
1F
100
AcDbEntity
  8
AM_VIS
100
AcDbLine
 10
-52.07586598507049
 20
373.7039115151181
 30
0.0
 11
-49.44138864901169
 21
373.7039115151181
 31
0.0
  0
LINE
  5
102E
330
1F
100
AcDbEntity
  8
AM_VIS
100
AcDbLine
 10
-47.80906898497909
 20
374.0281801172802
 30
0.0
 11
-50.30906898615882
 21
374.0281801172802
 31
0.0
  0
LINE
  5
102F
330
1F
100
AcDbEntity
  8
AM_VIS
100
AcDbLine
 10
-46.94138864783195
 20
373.7039115151181
 30
0.0
 11
-43.61483836135943
 21
373.7039115151181
 31
0.0
  0
LINE
  5
1030
330
1F
100
AcDbEntity
  8
AM_VIS
100
AcDbLine
 10
-40.78776248300079
 20
374.0281801172802
 30
0.0
 11
-44.32329638989671
 21
374.0281801172802
 31
0.0
  0
LINE
  5
1031
330
1F
100
AcDbEntity
  8
AM_VIS
100
AcDbLine
 10
-40.0793044544635
 20
373.7039115151181
 30
0.0
 11
-35.74405971773325
 21
373.7039115151181
 31
0.0
  0
LINE
  5
1032
330
1F
100
AcDbEntity
  8
AM_VIS
100
AcDbLine
 10
-33.76840243349756
 20
374.0281801172802
 30
0.0
 11
-36.24501519379811
 21
374.0281801172802
 31
0.0
  0
LINE
  5
1033
330
1F
100
AcDbEntity
  8
AM_VIS
100
AcDbLine
 10
-33.03367162773401
 20
373.7039115151181
 30
0.0
 11
-26.36543327561941
 21
373.7039115151181
 31
0.0
  0
LINE
  5
1034
330
1F
100
AcDbEntity
  8
AM_VIS
100
AcDbLine
 10
-22.61809693901165
 20
374.0281801172802
 30
0.0
 11
-26.62474691138613
 21
374.0281801172802
 31
0.0
  0
LINE
  5
1035
330
1F
100
AcDbEntity
  8
AM_VIS
100
AcDbLine
 10
-2.61809693901165
 20
374.0281801172802
 30
0.0
 11
-4.61809693901165
 21
374.0281801172802
 31
0.0
  0
LINE
  5
1036
330
1F
100
AcDbEntity
  8
AM_VIS
100
AcDbLine
 10
-2.61809693901165
 20
373.7039115151181
 30
0.0
 11
4.177738839626101
 21
373.7039115151181
 31
0.0
  0
LINE
  5
1037
330
1F
100
AcDbEntity
  8
AM_VIS
100
AcDbLine
 10
9.008821334404899
 20
374.0281801172802
 30
0.0
 11
4.678694316163785
 21
374.0281801172802
 31
0.0
  0
LINE
  5
1038
330
1F
100
AcDbEntity
  8
AM_VIS
100
AcDbLine
 10
8.507865857867216
 20
373.7039115151181
 30
0.0
 11
12.84311059278485
 21
373.7039115151181
 31
0.0
  0
LINE
  5
1039
330
1F
100
AcDbEntity
  8
AM_VIS
100
AcDbLine
 10
17.08710252667771
 20
374.0281801172802
 30
0.0
 11
13.55156862170821
 21
374.0281801172802
 31
0.0
  0
LINE
  5
103A
330
1F
100
AcDbEntity
  8
AM_VIS
100
AcDbLine
 10
16.37864449775435
 20
373.7039115151181
 30
0.0
 11
19.70519478186469
 21
373.7039115151181
 31
0.0
  0
LINE
  5
103D
330
1F
100
AcDbEntity
  8
AM_VIS
100
AcDbLine
 10
-38.61809693901165
 20
292.8644363164875
 30
0.0
 11
-38.61809693901165
 21
290.0281801172802
 31
0.0
  0
LINE
  5
103E
330
1F
100
AcDbEntity
  8
AM_VIS
100
AcDbLine
 10
-24.61809693901165
 20
290.0281801172802
 30
0.0
 11
-24.61809693901165
 21
292.8644363164875
 31
0.0
  0
LINE
  5
1040
330
1F
100
AcDbEntity
  8
AM_VIS
100
AcDbLine
 10
3.381903060988349
 20
266.1056056836488
 30
0.0
 11
-30.61809693901165
 21
266.1056056836488
 31
0.0
  0
LINE
  5
1041
330
1F
100
AcDbEntity
  8
AM_VIS
100
AcDbLine
 10
-2.61809693901165
 20
292.8644363164875
 30
0.0
 11
-2.61809693901165
 21
290.0281801172802
 31
0.0
  0
LINE
  5
1042
330
1F
100
AcDbEntity
  8
AM_VIS
100
AcDbLine
 10
11.38190306098835
 20
290.0281801172802
 30
0.0
 11
11.38190306098835
 21
292.8644363164875
 31
0.0
  0
ARC
  5
1043
330
1F
100
AcDbEntity
  8
AM_VIS
100
AcDbCircle
 10
-47.35398632176912
 20
369.5701347065196
 30
0.0
 40
2.0
100
AcDbArc
 50
0.5580074170093243
 51
72.03374909136096
  0
ARC
  5
1044
330
1F
100
AcDbEntity
  8
AM_VIS
100
AcDbCircle
 10
20.11779244374583
 20
369.5701347065196
 30
0.0
 40
2.0
100
AcDbArc
 50
107.966250908639
 51
179.4419925829906
  0
ARC
  5
1045
330
1F
100
AcDbEntity
  8
AM_VIS
100
AcDbCircle
 10
-13.61809693901165
 20
292.0285684772802
 30
0.0
 40
31.0
100
AcDbArc
 50
178.4549192120257
 51
236.7435687140301
  0
ARC
  5
1046
330
1F
100
AcDbEntity
  8
AM_VIS
100
AcDbCircle
 10
-13.61809693901165
 20
292.0285684772802
 30
0.0
 40
31.0
100
AcDbArc
 50
303.2564312859699
 51
1.545080787974317
  0
LINE
  5
1047
330
1F
100
AcDbEntity
  8
AM_VIS
100
AcDbLine
 10
4.881903060988122
 20
411.3281801172802
 30
0.0
 11
4.381903060988122
 21
410.8281801172802
 31
0.0
  0
LINE
  5
1048
330
1F
100
AcDbEntity
  8
AM_VIS
100
AcDbLine
 10
9.881903060988122
 20
411.3281801172802
 30
0.0
 11
10.38190306098812
 21
410.8281801172802
 31
0.0
  0
LINE
  5
1049
330
1F
100
AcDbEntity
  8
AM_VIS
100
AcDbLine
 10
10.38190306098812
 20
404.8281801172802
 30
0.0
 11
10.38190306098812
 21
410.8281801172802
 31
0.0
  0
LINE
  5
104A
330
1F
100
AcDbEntity
  8
AM_VIS
100
AcDbLine
 10
4.381903060988122
 20
404.8281801172802
 30
0.0
 11
4.381903060988122
 21
410.8281801172802
 31
0.0
  0
LINE
  5
104B
330
1F
100
AcDbEntity
  8
AM_VIS
100
AcDbLine
 10
9.881903060988122
 20
404.3281801172802
 30
0.0
 11
10.38190306098812
 21
404.8281801172802
 31
0.0
  0
LINE
  5
104C
330
1F
100
AcDbEntity
  8
AM_VIS
100
AcDbLine
 10
4.881903060988122
 20
404.3281801172802
 30
0.0
 11
4.381903060988122
 21
404.8281801172802
 31
0.0
  0
LINE
  5
104D
330
1F
100
AcDbEntity
  8
AM_VIS
100
AcDbLine
 10
4.881903060988122
 20
411.3281801172802
 30
0.0
 11
9.881903060988122
 21
411.3281801172802
 31
0.0
  0
LINE
  5
104E
330
1F
100
AcDbEntity
  8
AM_VIS
100
AcDbLine
 10
9.881903060988122
 20
404.3281801172802
 30
0.0
 11
4.881903060988122
 21
404.3281801172802
 31
0.0
  0
LINE
  5
104F
330
1F
100
AcDbEntity
  8
AM_VIS
100
AcDbLine
 10
8.881903060988122
 20
401.5281801172802
 30
0.0
 11
8.881903060988122
 21
403.8281801172802
 31
0.0
  0
LINE
  5
1050
330
1F
100
AcDbEntity
  8
AM_VIS
100
AcDbLine
 10
5.881903060988122
 20
401.5281801172802
 30
0.0
 11
5.881903060988122
 21
403.8281801172802
 31
0.0
  0
LINE
  5
1051
330
1F
100
AcDbEntity
  8
AM_VIS
100
AcDbLine
 10
8.881903060988122
 20
403.8281801172802
 30
0.0
 11
8.881903060988122
 21
404.3281801172802
 31
0.0
  0
LINE
  5
1052
330
1F
100
AcDbEntity
  8
AM_VIS
100
AcDbLine
 10
5.881903060988122
 20
403.8281801172802
 30
0.0
 11
5.881903060988122
 21
404.3281801172802
 31
0.0
  0
LINE
  5
1053
330
1F
100
AcDbEntity
  8
AM_VIS
100
AcDbLine
 10
3.917801445988118
 20
400.0281801172802
 30
0.0
 11
3.917801445988118
 21
401.5281801172802
 31
0.0
  0
LINE
  5
1054
330
1F
100
AcDbEntity
  8
AM_VIS
100
AcDbLine
 10
5.64985225598815
 20
400.0281801172802
 30
0.0
 11
5.64985225598815
 21
401.5281801172802
 31
0.0
  0
LINE
  5
1055
330
1F
100
AcDbEntity
  8
AM_VIS
100
AcDbLine
 10
9.113953875988102
 20
400.0281801172802
 30
0.0
 11
9.113953875988102
 21
401.5281801172802
 31
0.0
  0
LINE
  5
1056
330
1F
100
AcDbEntity
  8
AM_VIS
100
AcDbLine
 10
10.84600468098807
 20
400.0281801172802
 30
0.0
 11
10.84600468098807
 21
401.5281801172802
 31
0.0
  0
LINE
  5
1057
330
1F
100
AcDbEntity
  8
AM_VIS
100
AcDbLine
 10
10.84600468098807
 20
401.5281801172802
 30
0.0
 11
9.113953875988102
 21
401.5281801172802
 31
0.0
  0
LINE
  5
1058
330
1F
100
AcDbEntity
  8
AM_VIS
100
AcDbLine
 10
9.113953875988215
 20
401.5281801172802
 30
0.0
 11
5.64985225598815
 21
401.5281801172802
 31
0.0
  0
LINE
  5
1059
330
1F
100
AcDbEntity
  8
AM_VIS
100
AcDbLine
 10
5.649852255988037
 20
401.5281801172802
 30
0.0
 11
3.917801445988118
 21
401.5281801172802
 31
0.0
  0
LINE
  5
105A
330
1F
100
AcDbEntity
  8
AM_VIS
100
AcDbLine
 10
-21.11809693841536
 20
474.8003338373478
 30
0.0
 11
-13.61809693035167
 21
470.47020681377
 31
0.0
  0
LINE
  5
105B
330
1F
100
AcDbEntity
  8
AM_VIS
100
AcDbLine
 10
-13.61809693035201
 20
470.47020681377
 30
0.0
 11
-6.118096935278288
 21
474.8003338298478
 31
0.0
  0
LINE
  5
105C
330
1F
100
AcDbEntity
  8
AM_VIS
100
AcDbLine
 10
-6.118096935278288
 20
474.8003338298478
 30
0.0
 11
1.38190306472137
 21
479.1304608487701
 31
0.0
  0
LINE
  5
105D
330
1F
100
AcDbEntity
  8
AM_VIS
100
AcDbLine
 10
-28.61809694087873
 20
496.4509689287699
 30
0.0
 11
-28.61809694087873
 21
487.7907148930813
 31
0.0
  0
LINE
  5
105E
330
1F
100
AcDbEntity
  8
AM_VIS
100
AcDbLine
 10
-28.61809694274558
 20
479.1304608587702
 30
0.0
 11
-21.11809693841536
 21
474.8003338373478
 31
0.0
  0
LINE
  5
105F
330
1F
100
AcDbEntity
  8
AM_VIS
100
AcDbLine
 10
-28.61809694087884
 20
487.7907148930813
 30
0.0
 11
-28.61809694087884
 21
479.13046085877
 31
0.0
  0
LINE
  5
1066
330
1F
100
AcDbEntity
  8
AM_VIS
100
AcDbLine
 10
-21.11809693901188
 20
500.7810959498478
 30
0.0
 11
-13.61809693901188
 21
505.1112229687699
 31
0.0
  0
LINE
  5
1067
330
1F
100
AcDbEntity
  8
AM_VIS
100
AcDbLine
 10
-28.61809694274536
 20
496.4509689287695
 30
0.0
 11
-21.11809693901188
 21
500.7810959498478
 31
0.0
  0
LINE
  5
1068
330
1F
100
AcDbEntity
  8
AM_VIS
100
AcDbLine
 10
-6.118096939011877
 20
500.7810959498478
 30
0.0
 11
1.381903064721711
 21
496.4509689287701
 31
0.0
  0
LINE
  5
1069
330
1F
100
AcDbEntity
  8
AM_VIS
100
AcDbLine
 10
-13.61809693901153
 20
505.1112229687699
 30
0.0
 11
-6.118096939011877
 21
500.7810959498478
 31
0.0
  0
LINE
  5
106A
330
1F
100
AcDbEntity
  8
AM_VIS
100
AcDbLine
 10
1.381903064721711
 20
487.7907148930813
 30
0.0
 11
1.381903064721711
 21
479.1304608487704
 31
0.0
  0
LINE
  5
106B
330
1F
100
AcDbEntity
  8
AM_VIS
100
AcDbLine
 10
1.381903064721825
 20
496.4509689287701
 30
0.0
 11
1.381903064721825
 21
487.7907148930813
 31
0.0
  0
LINE
  5
106C
330
1F
100
AcDbEntity
  8
AM_VIS
100
AcDbLine
 10
-28.61809694274558
 20
479.1304608587701
 30
0.0
 11
-29.61809694274558
 21
478.5531105895804
 31
0.0
  0
LINE
  5
106D
330
1F
100
AcDbEntity
  8
AM_VIS
100
AcDbLine
 10
-13.61809693035167
 20
470.47020681377
 30
0.0
 11
-13.61809693035167
 21
469.3155062753908
 31
0.0
  0
LINE
  5
106E
330
1F
100
AcDbEntity
  8
AM_VIS
100
AcDbLine
 10
1.381903064721711
 20
479.1304608487701
 30
0.0
 11
2.381903064721711
 21
478.5531105795804
 31
0.0
  0
LINE
  5
106F
330
1F
100
AcDbEntity
  8
AM_VIS
100
AcDbLine
 10
1.381903064721711
 20
496.4509689287699
 30
0.0
 11
2.381903064721711
 21
497.0283191979596
 31
0.0
  0
LINE
  5
1070
330
1F
100
AcDbEntity
  8
AM_VIS
100
AcDbLine
 10
-29.61809694274558
 20
497.0283191979596
 30
0.0
 11
-28.61809694274558
 21
496.4509689287699
 31
0.0
  0
LINE
  5
1071
330
1F
100
AcDbEntity
  8
AM_VIS
100
AcDbLine
 10
-13.61809693901188
 20
505.1112229687699
 30
0.0
 11
-13.61809693901188
 21
506.2659235071492
 31
0.0
  0
CIRCLE
  5
1072
330
1F
100
AcDbEntity
  8
AM_VIS
100
AcDbCircle
 10
-13.61809693901188
 20
487.7907148930813
 30
0.0
 40
40.0
  0
ARC
  5
1073
330
1F
100
AcDbEntity
  8
AM_VIS
100
AcDbCircle
 10
-13.61809693901188
 20
487.7907148930813
 30
0.0
 40
15.0
100
AcDbArc
 50
180.0
 51
240.0000000000002
  0
ARC
  5
1074
330
1F
100
AcDbEntity
  8
AM_VIS
100
AcDbCircle
 10
-13.61809693901188
 20
487.7907148930813
 30
0.0
 40
15.0
100
AcDbArc
 50
119.9999999999997
 51
180.0
  0
ARC
  5
1075
330
1F
100
AcDbEntity
  8
AM_VIS
100
AcDbCircle
 10
-13.61809693901188
 20
487.7907148930813
 30
0.0
 40
15.0
100
AcDbArc
 50
60.00000000000028
 51
119.9999999999997
  0
ARC
  5
1076
330
1F
100
AcDbEntity
  8
AM_VIS
100
AcDbCircle
 10
-13.61809693901188
 20
487.7907148930813
 30
0.0
 40
15.0
100
AcDbArc
 50
0.0
 51
60.00000000000028
  0
ARC
  5
1077
330
1F
100
AcDbEntity
  8
AM_VIS
100
AcDbCircle
 10
-13.61809693901188
 20
487.7907148930813
 30
0.0
 40
15.0
100
AcDbArc
 50
299.9999999999997
 51
0.0
  0
ARC
  5
1078
330
1F
100
AcDbEntity
  8
AM_VIS
100
AcDbCircle
 10
-13.61809693901188
 20
487.7907148930813
 30
0.0
 40
15.0
100
AcDbArc
 50
240.0000000000002
 51
299.9999999999997
  0
CIRCLE
  5
107A
330
1F
100
AcDbEntity
  8
AM_VIS
100
AcDbCircle
 10
-13.61809693901188
 20
487.7907148930813
 30
0.0
 40
9.25
  0
CIRCLE
  5
107D
330
1F
100
AcDbEntity
  8
AM_VIS
100
AcDbCircle
 10
-13.61809693901188
 20
487.7907148930813
 30
0.0
 40
26.0
  0
ARC
  5
107E
330
1F
100
AcDbEntity
  8
AM_VIS
100
AcDbCircle
 10
7.381903060988122
 20
487.7907148930813
 30
0.0
 40
3.049999999999999
100
AcDbArc
 50
319.6111428425173
 51
340.3888571574828
  0
ARC
  5
107F
330
1F
100
AcDbEntity
  8
AM_VIS
100
AcDbCircle
 10
7.381903060988122
 20
487.7907148930813
 30
0.0
 40
3.049999999999999
100
AcDbArc
 50
19.6111424038607
 51
40.38885759613991
  0
ARC
  5
1080
330
1F
100
AcDbEntity
  8
AM_VIS
100
AcDbCircle
 10
7.381903060988122
 20
487.7907148930813
 30
0.0
 40
3.049999999999999
100
AcDbArc
 50
79.61114218453116
 51
100.3888578154688
  0
ARC
  5
1081
330
1F
100
AcDbEntity
  8
AM_VIS
100
AcDbCircle
 10
7.381903060988122
 20
487.7907148930813
 30
0.0
 40
3.049999999999999
100
AcDbArc
 50
139.6111424038652
 51
160.3888575961343
  0
ARC
  5
1082
330
1F
100
AcDbEntity
  8
AM_VIS
100
AcDbCircle
 10
7.381903060988122
 20
487.7907148930813
 30
0.0
 40
3.049999999999999
100
AcDbArc
 50
199.6111419403483
 51
220.3888580596512
  0
ARC
  5
1083
330
1F
100
AcDbEntity
  8
AM_VIS
100
AcDbCircle
 10
7.381903060988122
 20
487.7907148930813
 30
0.0
 40
3.049999999999999
100
AcDbArc
 50
259.6111421596728
 51
280.3888578403272
  0
LINE
  5
1084
330
1F
100
AcDbEntity
  8
AM_VIS
100
AcDbLine
 10
-4.61809693901165
 20
527.7907148930811
 30
0.0
 11
-22.61809693901165
 21
527.7907148930811
 31
0.0
  0
LINE
  5
1085
330
1F
100
AcDbEntity
  8
AM_VIS
100
AcDbLine
 10
-22.61809693901165
 20
447.7907148930811
 30
0.0
 11
-4.61809693901165
 21
447.7907148930811
 31
0.0
  0
LINE
  5
1086
330
1F
100
AcDbEntity
  8
AM_VIS
100
AcDbLine
 10
-53.61809693901165
 20
496.7907148930811
 30
0.0
 11
-53.61809693901165
 21
478.7907148930812
 31
0.0
  0
LINE
  5
1087
330
1F
100
AcDbEntity
  8
AM_VIS
100
AcDbLine
 10
-53.61809693901165
 20
494.8554015173939
 30
0.0
 11
-53.61809693901165
 21
494.5303362432425
 31
0.0
  0
LINE
  5
1088
330
1F
100
AcDbEntity
  8
AM_VIS
100
AcDbLine
 10
-53.61809693901165
 20
495.485949820266
 30
0.0
 11
-53.61809693901165
 21
494.8554015173939
 31
0.0
  0
LINE
  5
1089
330
1F
100
AcDbEntity
  8
AM_VIS
100
AcDbLine
 10
-53.61809693901165
 20
496.1086652249657
 30
0.0
 11
-53.61809693901165
 21
495.485949820266
 31
0.0
  0
LINE
  5
108A
330
1F
100
AcDbEntity
  8
AM_VIS
100
AcDbLine
 10
-53.61809693901165
 20
496.4337305588775
 30
0.0
 11
-53.61809693901165
 21
496.1086652249657
 31
0.0
  0
LINE
  5
108B
330
1F
100
AcDbEntity
  8
AM_VIS
100
AcDbLine
 10
26.38190306098835
 20
481.0510935429197
 30
0.0
 11
26.38190306098835
 21
480.7260282687683
 31
0.0
  0
LINE
  5
108C
330
1F
100
AcDbEntity
  8
AM_VIS
100
AcDbLine
 10
26.38190306098835
 20
480.7260282687683
 30
0.0
 11
26.38190306098835
 21
480.0954799658962
 31
0.0
  0
LINE
  5
108D
330
1F
100
AcDbEntity
  8
AM_VIS
100
AcDbLine
 10
26.38190306098835
 20
480.0954799658962
 30
0.0
 11
26.38190306098835
 21
479.4727645611965
 31
0.0
  0
LINE
  5
108E
330
1F
100
AcDbEntity
  8
AM_VIS
100
AcDbLine
 10
26.38190306098835
 20
479.4727645611965
 30
0.0
 11
26.38190306098835
 21
479.1476992272847
 31
0.0
  0
LINE
  5
108F
330
1F
100
AcDbEntity
  8
AM_VIS
100
AcDbLine
 10
26.38190306098835
 20
478.7907148930811
 30
0.0
 11
26.38190306098835
 21
496.7907148930811
 31
0.0
  0
ARC
  5
1090
330
1F
100
AcDbEntity
  8
AM_VIS
100
AcDbCircle
 10
-13.61809693901165
 20
487.7907148930811
 30
0.0
 40
40.99999999999999
100
AcDbArc
 50
282.6803834918198
 51
347.3196165081802
  0
ARC
  5
1091
330
1F
100
AcDbEntity
  8
AM_VIS
100
AcDbCircle
 10
-13.61809693901165
 20
487.7907148930811
 30
0.0
 40
40.99999999999999
100
AcDbArc
 50
192.6803834918197
 51
257.3196165081802
  0
ARC
  5
1092
330
1F
100
AcDbEntity
  8
AM_VIS
100
AcDbCircle
 10
-13.61809693901165
 20
487.7907148930811
 30
0.0
 40
40.99999999999999
100
AcDbArc
 50
102.6803834918198
 51
167.3196165081802
  0
ARC
  5
1093
330
1F
100
AcDbEntity
  8
AM_VIS
100
AcDbCircle
 10
-13.61809693901165
 20
487.7907148930811
 30
0.0
 40
40.99999999999999
100
AcDbArc
 50
12.68038349181977
 51
77.31961650818014
  0
CIRCLE
  5
1094
330
1F
100
AcDbEntity
  8
AM_VIS
100
AcDbCircle
 10
7.381903060988122
 20
487.7907148930813
 30
0.0
 40
2.5
  0
CIRCLE
  5
1095
330
1F
100
AcDbEntity
  8
AM_VIS
100
AcDbCircle
 10
7.381903060988122
 20
487.7907148930813
 30
0.0
 40
3.0
  0
LINE
  5
1096
330
1F
100
AcDbEntity
  8
AM_VIS
100
AcDbLine
 10
10.84600468098807
 20
487.7907148888704
 30
0.0
 11
9.113953875988102
 21
484.7907148933199
 31
0.0
  0
LINE
  5
1097
330
1F
100
AcDbEntity
  8
AM_VIS
100
AcDbLine
 10
9.113953875988215
 20
484.7907148933199
 30
0.0
 11
5.64985225598815
 21
484.7907148933199
 31
0.0
  0
LINE
  5
1098
330
1F
100
AcDbEntity
  8
AM_VIS
100
AcDbLine
 10
5.649852255988037
 20
484.7907148933199
 30
0.0
 11
3.917801445988118
 21
487.7907148975307
 31
0.0
  0
LINE
  5
1099
330
1F
100
AcDbEntity
  8
AM_VIS
100
AcDbLine
 10
3.917801445988118
 20
487.7907148975307
 30
0.0
 11
5.649852250988089
 21
490.7907148930812
 31
0.0
  0
LINE
  5
109A
330
1F
100
AcDbEntity
  8
AM_VIS
100
AcDbLine
 10
5.649852250988203
 20
490.7907148930812
 30
0.0
 11
9.113953870988154
 21
490.7907148930812
 31
0.0
  0
LINE
  5
109B
330
1F
100
AcDbEntity
  8
AM_VIS
100
AcDbLine
 10
9.113953870988154
 20
490.7907148930812
 30
0.0
 11
10.84600468098807
 21
487.7907148888704
 31
0.0
  0
LINE
  5
10AA
330
1F
100
AcDbEntity
  8
AM_7
100
AcDbLine
 10
-13.61809693901165
 20
419.7619856545343
 30
0.0
 11
-13.61809693901165
 21
233.1937139146603
 31
0.0
1001
GENIUS_GENODEF_13
1002
{
1000
HIER
1070
     0
1002
}
1002
{
1000
MANEDIT
1070
     0
1002
}
1002
{
1000
NOSEL
1070
     0
1002
}
1002
{
1000
BEHIND
1070
     0
1002
}
1002
{
1000
OTHER
1070
     0
1002
}
1002
{
1000
REACTOR
1002
}
1001
GENIUS_GENOBJ-N-CEN_13
1002
{
1000
OWNER
1000
GEN
1002
}
1001
GENIUS_GENCEN_19
1002
{
1040
2.0
1002
}
  0
LINE
  5
10BA
330
1F
100
AcDbEntity
  8
AM_7
100
AcDbLine
 10
-13.61809693901188
 20
487.7907148930813
 30
0.0
 11
28.38190306098835
 21
487.7907148930813
 31
0.0
1001
GENIUS_GENOREF_13
1005
10BE
  0
LINE
  5
10BB
330
1F
100
AcDbEntity
  8
AM_7
100
AcDbLine
 10
-13.61809693901188
 20
487.7907148930813
 30
0.0
 11
-13.61809693901188
 21
529.7907148930814
 31
0.0
1001
GENIUS_GENOREF_13
1005
10BE
  0
LINE
  5
10BC
330
1F
100
AcDbEntity
  8
AM_7
100
AcDbLine
 10
-13.61809693901188
 20
487.7907148930813
 30
0.0
 11
-55.6180969390121
 21
487.7907148930813
 31
0.0
1001
GENIUS_GENOREF_13
1005
10BE
  0
LINE
  5
10BD
330
1F
100
AcDbEntity
  8
AM_7
100
AcDbLine
 10
-13.61809693901188
 20
487.7907148930813
 30
0.0
 11
-13.61809693901188
 21
445.790714893081
 31
0.0
1001
GENIUS_GENOREF_13
1005
10BE
  0
POINT
  5
10BE
330
1F
100
AcDbEntity
  8
0
 60
     1
100
AcDbPoint
 10
0.0
 20
0.0
 30
0.0
1001
GENIUS_GENODEF_13
1002
{
1000
HIER
1070
    10
1002
}
1002
{
1000
MANEDIT
1070
     0
1002
}
1002
{
1000
NOSEL
1070
     0
1002
}
1002
{
1000
BEHIND
1070
     0
1002
}
1002
{
1000
OTHER
1070
     0
1002
}
1002
{
1000
REACTOR
1002
}
1001
GENIUS_GENOLIS_13
1002
{
1000
ENT
1005
10BD
1005
10BC
1005
10BB
1005
10BA
1002
}
1001
GENIUS_GENOENT_13
1002
{
1000
MYREF
1005
10BE
1002
}
1002
{
1000
GRP
1005
0
1002
}
1001
GENIUS_GENOBJ-N-CRS_13
1002
{
1000
OWNER
1000
GEN
1002
}
  0
LINE
  5
10CC
330
1F
100
AcDbEntity
  8
AM_7
  6
AM_ISO08W050x2
100
AcDbLine
 10
7.381903060988236
 20
487.7907148930813
 30
0.0
 11
12.38190306098823
 21
487.7907148930813
 31
0.0
1001
GENIUS_GENOREF_13
1005
10D0
  0
LINE
  5
10CD
330
1F
100
AcDbEntity
  8
AM_7
  6
AM_ISO08W050x2
100
AcDbLine
 10
7.381903060988236
 20
487.7907148930813
 30
0.0
 11
7.381903060988236
 21
492.7907148930812
 31
0.0
1001
GENIUS_GENOREF_13
1005
10D0
  0
LINE
  5
10CE
330
1F
100
AcDbEntity
  8
AM_7
  6
AM_ISO08W050x2
100
AcDbLine
 10
7.381903060988236
 20
487.7907148930813
 30
0.0
 11
2.381903060988236
 21
487.7907148930813
 31
0.0
1001
GENIUS_GENOREF_13
1005
10D0
  0
LINE
  5
10CF
330
1F
100
AcDbEntity
  8
AM_7
  6
AM_ISO08W050x2
100
AcDbLine
 10
7.381903060988236
 20
487.7907148930813
 30
0.0
 11
7.381903060988236
 21
482.7907148930812
 31
0.0
1001
GENIUS_GENOREF_13
1005
10D0
  0
POINT
  5
10D0
330
1F
100
AcDbEntity
  8
0
 60
     1
100
AcDbPoint
 10
0.0
 20
0.0
 30
0.0
1001
GENIUS_GENOBJ-N-CRS_13
1002
{
1000
OWNER
1000
GEN
1002
}
1001
GENIUS_GENOLIS_13
1002
{
1000
ENT
1005
10CF
1005
10CE
1005
10CD
1005
10CC
1002
}
1001
GENIUS_GENOENT_13
1002
{
1000
MYREF
1005
10D0
1002
}
1002
{
1000
GRP
1005
0
1002
}
1001
GENIUS_GENODEF_13
1002
{
1000
HIER
1070
    10
1002
}
1002
{
1000
MANEDIT
1070
     0
1002
}
1002
{
1000
NOSEL
1070
     0
1002
}
1002
{
1000
BEHIND
1070
     0
1002
}
1002
{
1000
OTHER
1070
     0
1002
}
1002
{
1000
REACTOR
1002
}
  0
LINE
  5
10DD
330
1F
100
AcDbEntity
  8
AM_7
100
AcDbLine
 10
7.381903060988122
 20
413.3281801172802
 30
0.0
 11
7.381903060988122
 21
396.7467120473964
 31
0.0
1001
GENIUS_GENODEF_13
1002
{
1000
HIER
1070
     0
1002
}
1002
{
1000
MANEDIT
1070
     0
1002
}
1002
{
1000
NOSEL
1070
     0
1002
}
1002
{
1000
BEHIND
1070
     0
1002
}
1002
{
1000
OTHER
1070
     0
1002
}
1002
{
1000
REACTOR
1002
}
1001
GENIUS_GENOBJ-N-CEN_13
1002
{
1000
OWNER
1000
GEN
1002
}
1001
GENIUS_GENCEN_19
1002
{
1040
2.0
1002
}
  0
DIMENSION
  5
10EE
102
{ACAD_XDICTIONARY
360
10FC
102
}
102
{ACAD_REACTORS
330
10FD
102
}
330
1F
100
AcDbEntity
  8
AM_5
100
AcDbDimension
  2
*D3
 10
44.05746979361447
 20
415.0281801172802
 30
0.0
 11
40.5574697936144
 21
325.2781852172802
 31
0.0
 70
    32
 71
     5
 42
179.4999897999999
  3
AM_ISO$0
100
AcDbAlignedDimension
 13
-7.017446939011961
 23
235.5281903172802
 33
0.0
 14
1.381903060988122
 24
415.0281801172802
 34
0.0
 50
90.0
100
AcDbRotatedDimension
1001
ACAD
1000
DSTYLE
1002
{
1070
    40
1040
1.399999999999999
1070
   271
1070
     1
1070
   272
1070
     8
1002
}
  0
DIMENSION
  5
11CD
330
1F
100
AcDbEntity
  8
AM_5
100
AcDbDimension
  2
*D5
 10
-42.40900606288542
 20
458.6002446704064
 30
0.0
 11
31.35530546373599
 21
526.5952767202527
 31
0.0
 70
   163
 71
     5
 42
82.0
  3
AM_ISO$3
100
AcDbDiametricDimension
 15
15.17281218486215
 25
516.9811851157554
 35
0.0
 40
0.0
1001
ACAD
1000
DSTYLE
1002
{
1070
    40
1040
1.399999999999999
1070
   172
1070
     1
1070
   272
1070
     8
1002
}
  0
LINE
  5
1202
102
{ACAD_REACTORS
330
1223
102
}
330
1F
100
AcDbEntity
  8
0
  6
HIDDEN
 62
     3
100
AcDbLine
 10
-17.61809693901165
 20
235.5281903172802
 30
0.0
 11
-17.61809693901165
 21
237.5281903172802
 31
0.0
  0
LINE
  5
1203
102
{ACAD_REACTORS
330
1223
102
}
330
1F
100
AcDbEntity
  8
0
  6
HIDDEN
 62
     3
100
AcDbLine
 10
-9.61809693901165
 20
235.5281903172802
 30
0.0
 11
-9.61809693901165
 21
237.5281903172802
 31
0.0
  0
DIMENSION
  5
1213
102
{ACAD_XDICTIONARY
360
1222
102
}
102
{ACAD_REACTORS
330
1223
102
}
330
1F
100
AcDbEntity
  8
AM_5
100
AcDbDimension
  2
*D6
 10
-9.61809693901165
 20
223.5260804768541
 30
0.0
 11
3.481903060988347
 21
223.5260804768541
 31
0.0
 70
   160
  1
%%c<>
 71
     5
 42
8.0
  3
AM_ISO$0
100
AcDbAlignedDimension
 13
-17.61809693901165
 23
235.5281903172802
 33
0.0
 14
-9.61809693901165
 24
235.5281903172802
 34
0.0
 50
0.0000000000001018
100
AcDbRotatedDimension
1001
ACAD
1000
DSTYLE
1002
{
1070
    40
1040
1.399999999999999
1070
   271
1070
     1
1070
   272
1070
     8
1002
}
  0
LINE
  5
176E
330
1F
100
AcDbEntity
  8
0
100
AcDbLine
 10
7.381903060988122
 20
411.3281801172802
 30
0.0
 11
7.381903060988122
 21
404.3281801172802
 31
0.0
  0
LINE
  5
176F
330
1F
100
AcDbEntity
  8
0
100
AcDbLine
 10
8.381903060988122
 20
411.3281801172802
 30
0.0
 11
8.381903060988122
 21
404.3281801172802
 31
0.0
  0
LINE
  5
1770
330
1F
100
AcDbEntity
  8
0
100
AcDbLine
 10
9.381903060988122
 20
411.3281801172802
 30
0.0
 11
9.381903060988122
 21
404.3281801172802
 31
0.0
  0
LINE
  5
1771
330
1F
100
AcDbEntity
  8
0
100
AcDbLine
 10
6.381903060988122
 20
411.3281801172802
 30
0.0
 11
6.381903060988122
 21
404.3281801172802
 31
0.0
  0
LINE
  5
1772
330
1F
100
AcDbEntity
  8
0
100
AcDbLine
 10
5.381903060988122
 20
411.3281801172802
 30
0.0
 11
5.381903060988122
 21
404.3281801172802
 31
0.0
  0
INSERT
  5
1774
330
1F
100
AcDbEntity
  8
AM_5
100
AcDbBlockReference
  2
*S14
 10
0.0
 20
0.0
 30
0.0
  0
TEXT
  5
1776
330
1F
100
AcDbEntity
  8
AM_5
100
AcDbText
 10
32.97917838899357
 20
453.2436643205978
 30
0.0
 40
4.199999999999999
  1
PT1/4
  7
CHINESET
100
AcDbText
  0
TEXT
  5
1777
330
1F
100
AcDbEntity
  8
AM_5
100
AcDbText
 10
32.97917838899357
 20
446.0436643205978
 30
0.0
 40
4.199999999999999
  1
PT3/8
  7
CHINESET
100
AcDbText
  0
TEXT
  5
1778
330
1F
100
AcDbEntity
  8
AM_5
100
AcDbText
 10
32.97917838899357
 20
438.8436643205977
 30
0.0
 40
4.199999999999999
  1
PT1/2
  7
CHINESET
100
AcDbText
  0
LINE
  5
17D5
330
1F
100
AcDbEntity
  8
AM_5
100
AcDbLine
 10
30.71986647577205
 20
444.6228771804235
 30
0.0
 11
55.12468372515513
 21
444.6228771804235
 31
0.0
  0
LWPOLYLINE
  5
189A
330
1F
100
AcDbEntity
  8
LOGO
 62
     4
100
AcDbPolyline
 90
        4
 70
     1
 43
0.0
 10
-154.9321302725818
 20
199.1049668957557
 10
145.0678697274181
 20
199.1049668957557
 10
145.0678697274181
 20
581.6093107871579
 10
-154.9321302725818
 20
581.6093107871579
1001
GENIUS_GENREC_14
1002
{
1000
PYDIR
1011
-154.9321302725818
1021
581.6093107871579
1031
0.0
1002
}
1002
{
1000
PXDIR
1011
145.0678697274181
1021
199.1049668957557
1031
0.0
1002
}
1002
{
1000
PORI
1011
-154.9321302725818
1021
199.1049668957557
1031
0.0
1002
}
1002
{
1000
PINS
1011
-154.9321302725818
1021
199.1049668957557
1031
0.0
1002
}
1002
{
1000
PINS2
1011
145.0678697274181
1021
581.6093107871579
1031
0.0
1002
}
1002
{
1000
C
1070
     1
1002
}
1001
GENIUS_GENODEF_13
1002
{
1000
HIER
1070
     0
1002
}
1002
{
1000
MANEDIT
1070
     0
1002
}
1002
{
1000
NOSEL
1070
     0
1002
}
1002
{
1000
BEHIND
1070
     0
1002
}
1002
{
1000
OTHER
1070
     0
1002
}
1002
{
1000
REACTOR
1002
}
1001
GENIUS_GENOBJ-N-REC_13
1002
{
1000
OWNER
1000
GEN
1002
}
  0
LWPOLYLINE
  5
189B
330
1F
100
AcDbEntity
  8
LOGO
 62
     4
100
AcDbPolyline
 90
        4
 70
     1
 43
0.0
 10
-154.9321302725818
 20
199.1049668957557
 10
145.0678697274181
 20
199.1049668957557
 10
145.0678697274181
 20
169.1093107871578
 10
-154.9321302725818
 20
169.1093107871578
1001
GENIUS_GENREC_14
1002
{
1000
PYDIR
1011
-154.9321302725818
1021
169.1093107871578
1031
0.0
1002
}
1002
{
1000
PXDIR
1011
145.0678697274181
1021
199.1049668957557
1031
0.0
1002
}
1002
{
1000
PORI
1011
-154.9321302725818
1021
199.1049668957557
1031
0.0
1002
}
1002
{
1000
PINS
1011
-154.9321302725818
1021
199.1049668957557
1031
0.0
1002
}
1002
{
1000
PINS2
1011
145.0678697274181
1021
169.1093107871578
1031
0.0
1002
}
1002
{
1000
C
1070
     1
1002
}
1001
GENIUS_GENOBJ-N-REC_13
1002
{
1000
OWNER
1000
GEN
1002
}
1001
GENIUS_GENODEF_13
1002
{
1000
HIER
1070
     0
1002
}
1002
{
1000
MANEDIT
1070
     0
1002
}
1002
{
1000
NOSEL
1070
     0
1002
}
1002
{
1000
BEHIND
1070
     0
1002
}
1002
{
1000
OTHER
1070
     0
1002
}
1002
{
1000
REACTOR
1002
}
  0
TEXT
  5
189C
330
1F
100
AcDbEntity
  8
LOGO
 62
     7
100
AcDbText
 10
-87.20392492452083
 20
185.9643803742832
 30
0.0
 40
3.999420814479637
  1
Order example:
 41
0.8
  7
CHINESET
100
AcDbText
  0
TEXT
  5
189D
330
1F
100
AcDbEntity
  8
LOGO
 62
     7
100
AcDbText
 10
-86.4863957565385
 20
191.5947367904245
 30
0.0
 40
5.999131221719456
  1
訂購代號：
  7
CHINESET
100
AcDbText
  0
LINE
  5
189E
330
1F
100
AcDbEntity
  8
LOGO
 62
     4
100
AcDbLine
 10
-88.94168683366775
 20
169.1093107871582
 30
0.0
 11
-88.94168683366775
 21
199.1049668957557
 31
0.0
  0
TEXT
  5
189F
330
1F
100
AcDbEntity
  8
LOGO
  6
Continuous
100
AcDbText
 10
-144.1575557652907
 20
175.0019121623002
 30
0.0
 40
4.499348416289592
  1
金器工業股份有限公司
  7
CHINESET
100
AcDbText
  0
TEXT
  5
18A0
330
1F
100
AcDbEntity
  8
LOGO
  6
Continuous
100
AcDbText
 10
-152.4219686538281
 20
170.5016822264836
 30
0.0
 40
2.999565610859728
  1
MINDMAN INDUSTRIAL CO., LTD.
 41
0.85
  7
CHINESET
100
AcDbText
  0
LINE
  5
18A1
330
1F
100
AcDbEntity
  8
LOGO
 62
     4
100
AcDbLine
 10
-88.94168683366775
 20
193.1058356740362
 30
0.0
 11
-132.935315792944
 21
193.1058356740362
 31
0.0
  0
LINE
  5
18A2
330
1F
100
AcDbEntity
  8
LOGO
 62
     4
100
AcDbLine
 10
-88.94168683366775
 20
187.1067044523167
 30
0.0
 11
-132.935315792944
 21
187.1067044523167
 31
0.0
  0
LINE
  5
18A3
330
1F
100
AcDbEntity
  8
LOGO
 62
     4
100
AcDbLine
 10
-88.94168683366775
 20
181.1075732305975
 30
0.0
 11
-154.9321302725818
 21
181.1075732305975
 31
0.0
  0
LINE
  5
18A4
330
1F
100
AcDbEntity
  8
LOGO
 62
     4
100
AcDbLine
 10
-132.935315792944
 20
181.1075732305975
 30
0.0
 11
-132.935315792944
 21
199.1049668957557
 31
0.0
  0
TEXT
  5
18A5
330
1F
100
AcDbEntity
  8
LOGO
100
AcDbText
 10
-102.867746866937
 20
182.6073560360269
 30
0.0
 40
2.999565610859728
  1
mm
  7
CHINESET
 72
     1
 11
-99.1539989677774
 21
184.1071388414568
 31
0.0
100
AcDbText
 73
     2
  0
TEXT
  5
18A6
330
1F
100
AcDbEntity
  8
LOGO
100
AcDbText
 10
-104.4389479011969
 20
194.6056184794659
 30
0.0
 40
2.999565610859728
  1
1 : 1
  7
CHINESET
 72
     1
 11
-99.1539989677774
 21
196.1054012848958
 31
0.0
100
AcDbText
 73
     2
  0
LINE
  5
18A7
330
1F
100
AcDbEntity
  8
LOGO
 62
     4
100
AcDbLine
 10
-108.938790906066
 20
181.1075732305975
 30
0.0
 11
-108.938790906066
 21
199.1049668957557
 31
0.0
  0
CIRCLE
  5
18A8
330
1F
100
AcDbEntity
  8
LOGO
  6
Continuous
100
AcDbCircle
 10
-103.3847199978236
 20
190.1126861559684
 30
0.0
 40
1.741618395480947
  0
CIRCLE
  5
18A9
330
1F
100
AcDbEntity
  8
LOGO
  6
Continuous
100
AcDbCircle
 10
-103.3847199978236
 20
190.1126861559684
 30
0.0
 40
1.020434202998395
  0
LINE
  5
18AA
330
1F
100
AcDbEntity
  8
LOGO
100
AcDbLine
 10
-92.44018791176882
 20
188.3710677604872
 30
0.0
 11
-92.44018791176882
 21
191.8543045514497
 31
0.0
  0
LINE
  5
18AB
330
1F
100
AcDbEntity
  8
LOGO
100
AcDbLine
 10
-97.90006160793518
 20
189.0922519529702
 30
0.0
 11
-97.90006160793518
 21
191.133120358967
 31
0.0
  0
LINE
  5
18AC
330
1F
100
AcDbEntity
  8
LOGO
  6
Continuous
100
AcDbLine
 10
-97.90006160793518
 20
191.133120358967
 30
0.0
 11
-92.44018791176882
 21
191.8543045514497
 31
0.0
  0
LINE
  5
18AD
330
1F
100
AcDbEntity
  8
LOGO
  6
Continuous
100
AcDbLine
 10
-97.90006160793518
 20
189.0922519529702
 30
0.0
 11
-92.44018791176882
 21
188.3710677604872
 31
0.0
  0
TEXT
  5
18AE
330
1F
100
AcDbEntity
  8
LOGO
100
AcDbText
 10
-130.4620132557752
 20
194.6070946436444
 30
196.5865886400747
 40
2.999565610859728
  1
比例 Scale:
 41
0.9
  7
CHINESET
 72
     4
 11
-120.937053349505
 21
196.1054012848958
 31
196.5865886400747
100
AcDbText
  0
TEXT
  5
18AF
330
1F
100
AcDbEntity
  8
LOGO
100
AcDbText
 10
-130.6347560967578
 20
188.6486809505173
 30
196.5865886400747
 40
2.999565610859728
  1
投影  View:
 41
0.9
  7
CHINESET
 72
     4
 11
-120.937053349505
 21
190.1062700631763
 31
196.5865886400747
100
AcDbText
  0
TEXT
  5
18B0
330
1F
100
AcDbEntity
  8
LOGO
100
AcDbText
 10
-130.3414949946246
 20
182.6073560360269
 30
196.5865886400747
 40
2.999565610859728
  1
單位  Unit:
 41
0.9
  7
CHINESET
 72
     4
 11
-120.937053349505
 21
184.1071388414568
 31
196.5865886400747
100
AcDbText
  0
SOLID
  5
18B1
330
1F
100
AcDbEntity
  8
LOGO
 62
     5
100
AcDbTrace
 10
-151.8200328119485
 20
186.0939241041076
 30
0.0
 11
-150.5230993504144
 21
186.0939241041073
 31
0.0
 12
-145.1117562867723
 22
198.3924310669315
 32
0.0
 13
-143.8148228252375
 23
198.3924310669308
 33
0.0
  0
SOLID
  5
18B2
330
1F
100
AcDbEntity
  8
LOGO
 62
     5
100
AcDbTrace
 10
-149.9864372283989
 20
186.0939241041076
 30
0.0
 11
-148.6895037668648
 21
186.0939241041076
 31
0.0
 12
-143.8148228252375
 22
197.408550509905
 32
0.0
 13
-145.1117562867723
 23
192.6531278176132
 33
0.0
  0
SOLID
  5
18B3
330
1F
100
AcDbEntity
  8
LOGO
 62
     2
100
AcDbTrace
 10
-150.5230993504144
 20
186.0939241041073
 30
0.0
 11
-149.9864372283989
 21
186.0939241041076
 31
0.0
 12
-143.8148228252375
 22
198.3924310669308
 32
0.0
 13
-143.2781607032227
 23
198.3924310669308
 33
0.0
  0
SOLID
  5
18B4
330
1F
100
AcDbEntity
  8
LOGO
 62
     5
100
AcDbTrace
 10
-153.899335197831
 20
181.6217397539903
 30
0.0
 11
-153.4521167628188
 21
181.6217397539903
 31
0.0
 12
-152.1927148411246
 22
183.8578319290488
 32
0.0
 13
-151.7454964061137
 23
183.8578319290488
 33
0.0
  0
SOLID
  5
18B5
330
1F
100
AcDbEntity
  8
LOGO
 62
     5
100
AcDbTrace
 10
-152.1927148411246
 20
183.8578319290488
 30
0.0
 11
-151.7454964061137
 21
183.8578319290488
 31
0.0
 12
-152.1927148411246
 22
181.6217397539903
 32
0.0
 13
-151.7454964061137
 23
181.6217397539903
 33
0.0
  0
SOLID
  5
18B6
330
1F
100
AcDbEntity
  8
LOGO
 62
     5
100
AcDbTrace
 10
-152.1927148411246
 20
181.6217397539903
 30
0.0
 11
-151.7454964061137
 21
181.6217397539903
 31
0.0
 12
-150.4860944844174
 22
183.8578319290488
 32
0.0
 13
-150.0388760494058
 23
183.8578319290488
 33
0.0
  0
SOLID
  5
18B7
330
1F
100
AcDbEntity
  8
LOGO
 62
     5
100
AcDbTrace
 10
-150.4860944844174
 20
183.8578319290488
 30
0.0
 11
-150.0388760494058
 21
183.8578319290488
 31
0.0
 12
-150.4860944844174
 22
181.6217397539903
 32
0.0
 13
-150.0388760494058
 23
181.6217397539903
 33
0.0
  0
POLYLINE
  5
18B8
330
1F
100
AcDbEntity
  8
LOGO
 62
     5
100
AcDb2dPolyline
 66
     1
 10
0.0
 20
0.0
 30
0.0
 40
0.4479351312217194
 41
0.4479351312217194
  0
VERTEX
  5
18B9
330
18B8
100
AcDbEntity
  8
LOGO
 62
     5
100
AcDbVertex
100
AcDb2dVertex
 10
-135.4954848897032
 20
182.9633950590253
 30
0.0
 42
1.0
  0
VERTEX
  5
18BA
330
18B8
100
AcDbEntity
  8
LOGO
 62
     5
100
AcDbVertex
100
AcDb2dVertex
 10
-136.8392902833686
 20
182.9633950590253
 30
0.0
 42
1.0
  0
SEQEND
  5
18BB
330
18B8
100
AcDbEntity
  8
LOGO
 62
     5
  0
POLYLINE
  5
18BC
330
1F
100
AcDbEntity
  8
LOGO
 62
     5
100
AcDb2dPolyline
 66
     1
 10
0.0
 20
0.0
 30
0.0
 70
     1
  0
VERTEX
  5
18BD
330
18BC
100
AcDbEntity
  8
LOGO
 62
     5
100
AcDbVertex
100
AcDb2dVertex
 10
-139.3724232228921
 20
182.7397858415192
 30
0.0
 42
1.000000057330635
  0
VERTEX
  5
18BE
330
18BC
100
AcDbEntity
  8
LOGO
 62
     5
100
AcDbVertex
100
AcDb2dVertex
 10
-138.0307679178568
 20
182.7397858415192
 30
0.0
 42
1.000000057330635
  0
SEQEND
  5
18BF
330
18BC
100
AcDbEntity
  8
LOGO
 62
     5
  0
CIRCLE
  5
18C0
330
1F
100
AcDbEntity
  8
LOGO
 62
     5
100
AcDbCircle
 10
-138.7015955703734
 20
182.7397858415192
 30
0.0
 40
0.6708276525176471
  0
POLYLINE
  5
18C1
330
1F
100
AcDbEntity
  8
LOGO
 62
     5
100
AcDb2dPolyline
 66
     1
 10
0.0
 20
0.0
 30
0.0
 70
     1
 40
0.4479351312217194
 41
0.4479351312217194
  0
VERTEX
  5
18C2
330
18C1
100
AcDbEntity
  8
LOGO
 62
     5
100
AcDbVertex
100
AcDb2dVertex
 10
-139.5974658328175
 20
182.7397858415192
 30
0.0
 42
1.0
  0
VERTEX
  5
18C3
330
18C1
100
AcDbEntity
  8
LOGO
 62
     5
100
AcDbVertex
100
AcDb2dVertex
 10
-137.8057253079307
 20
182.7397858415192
 30
0.0
 42
1.0
  0
SEQEND
  5
18C4
330
18C1
100
AcDbEntity
  8
LOGO
 62
     5
  0
LINE
  5
18C5
330
1F
100
AcDbEntity
  8
LOGO
100
AcDbLine
 10
-135.2729507165131
 20
181.6217397539903
 30
0.0
 11
-135.2729507165131
 21
182.9633950590253
 31
0.0
  0
SOLID
  5
18C6
330
1F
100
AcDbEntity
  8
LOGO
 62
     5
100
AcDbTrace
 10
-138.0308126396983
 20
183.8578319290488
 30
0.0
 11
-137.5835942046874
 21
183.8578319290488
 31
0.0
 12
-138.0308126396983
 22
181.6217397539903
 32
0.0
 13
-137.5835942046874
 23
181.6217397539903
 33
0.0
  0
SOLID
  5
18C7
330
1F
100
AcDbEntity
  8
LOGO
 62
     5
100
AcDbTrace
 10
-137.0618244565601
 20
181.6217397539903
 30
0.0
 11
-136.6146060215478
 21
181.6217397539903
 31
0.0
 12
-137.0618244565601
 22
183.8578319290488
 32
0.0
 13
-136.6146060215478
 23
183.8578319290488
 33
0.0
  0
SOLID
  5
18C8
330
1F
100
AcDbEntity
  8
LOGO
 62
     5
100
AcDbTrace
 10
-135.720169151524
 20
182.9633950590253
 30
0.0
 11
-135.2729507165131
 21
182.9633950590253
 31
0.0
 12
-135.720169151524
 22
181.6217397539903
 32
0.0
 13
-135.2729507165131
 23
181.6217397539903
 33
0.0
  0
SOLID
  5
18C9
330
1F
100
AcDbEntity
  8
LOGO
 62
     5
100
AcDbTrace
 10
-137.1065463000614
 20
197.408550509905
 30
0.0
 11
-138.4034797615948
 21
192.6531278176132
 31
0.0
 12
-137.1065463000614
 22
186.0939241041073
 32
0.0
 13
-138.4034797615948
 23
186.0939241041073
 33
0.0
  0
SOLID
  5
18CA
330
1F
100
AcDbEntity
  8
LOGO
 62
     5
100
AcDbTrace
 10
-136.5698841780465
 20
186.0939241041073
 30
0.0
 11
-135.2729507165131
 21
186.0939241041073
 31
0.0
 12
-136.5698841780465
 22
198.3924310669308
 32
0.0
 13
-135.2729507165131
 23
198.3924310669315
 33
0.0
  0
SOLID
  5
18CB
330
1F
100
AcDbEntity
  8
LOGO
 62
     2
100
AcDbTrace
 10
-137.1065463000614
 20
198.3924310669315
 30
0.0
 11
-136.5698841780465
 21
198.3924310669308
 31
0.0
 12
-137.1065463000614
 22
186.0939241041073
 32
0.0
 13
-136.5698841780465
 23
186.0939241041073
 33
0.0
  0
POLYLINE
  5
18CC
330
1F
100
AcDbEntity
  8
LOGO
 62
     5
100
AcDb2dPolyline
 66
     1
 10
0.0
 20
0.0
 30
0.0
 40
0.4479351312217194
 41
0.4479351312217194
  0
VERTEX
  5
18CD
330
18CC
100
AcDbEntity
  8
LOGO
 62
     5
100
AcDbVertex
100
AcDb2dVertex
 10
-141.9056456061007
 20
182.9633950590253
 30
0.0
 42
1.0
  0
VERTEX
  5
18CE
330
18CC
100
AcDbEntity
  8
LOGO
 62
     5
100
AcDbVertex
100
AcDb2dVertex
 10
-143.2494509997662
 20
182.9633950590253
 30
0.0
 42
1.0
  0
SEQEND
  5
18CF
330
18CC
100
AcDbEntity
  8
LOGO
 62
     5
  0
POLYLINE
  5
18D0
330
1F
100
AcDbEntity
  8
LOGO
 62
     5
100
AcDb2dPolyline
 66
     1
 10
0.0
 20
0.0
 30
0.0
 40
0.4479351312217194
 41
0.4479351312217194
  0
VERTEX
  5
18D1
330
18D0
100
AcDbEntity
  8
LOGO
 62
     5
100
AcDbVertex
100
AcDb2dVertex
 10
-140.5639903010667
 20
182.9633950590253
 30
0.0
 42
1.0
  0
VERTEX
  5
18D2
330
18D0
100
AcDbEntity
  8
LOGO
 62
     5
100
AcDbVertex
100
AcDb2dVertex
 10
-141.9077956947315
 20
182.9633950590253
 30
0.0
 42
1.0
  0
SEQEND
  5
18D3
330
18D0
100
AcDbEntity
  8
LOGO
 62
     5
  0
POLYLINE
  5
18D4
330
1F
100
AcDbEntity
  8
LOGO
 62
     5
100
AcDb2dPolyline
 66
     1
 10
0.0
 20
0.0
 30
0.0
 40
0.4479351312217194
 41
0.4479351312217194
  0
VERTEX
  5
18D5
330
18D4
100
AcDbEntity
  8
LOGO
 62
     5
100
AcDbVertex
100
AcDb2dVertex
 10
-146.9741510174642
 20
182.9633950590253
 30
0.0
 42
1.0
  0
VERTEX
  5
18D6
330
18D4
100
AcDbEntity
  8
LOGO
 62
     5
100
AcDbVertex
100
AcDb2dVertex
 10
-148.317956411129
 20
182.9633950590253
 30
0.0
 42
1.0
  0
SEQEND
  5
18D7
330
18D4
100
AcDbEntity
  8
LOGO
 62
     5
  0
SOLID
  5
18D8
330
1F
100
AcDbEntity
  8
LOGO
 62
     5
100
AcDbTrace
 10
-148.5404905843197
 20
183.8578319290488
 30
0.0
 11
-148.0932721493088
 21
183.8578319290488
 31
0.0
 12
-148.5404905843197
 22
181.6217397539903
 32
0.0
 13
-148.0932721493088
 23
181.6217397539903
 33
0.0
  0
SOLID
  5
18D9
330
1F
100
AcDbEntity
  8
LOGO
 62
     5
100
AcDbTrace
 10
-147.1988352792843
 20
182.9633950590253
 30
0.0
 11
-146.7516168442721
 21
182.9633950590253
 31
0.0
 12
-147.1988352792843
 22
181.6217397539903
 32
0.0
 13
-146.7516168442721
 23
181.6217397539903
 33
0.0
  0
POLYLINE
  5
18DA
330
1F
100
AcDbEntity
  8
LOGO
 62
     5
100
AcDb2dPolyline
 66
     1
 10
0.0
 20
0.0
 30
0.0
 70
     1
 40
0.4479351312217194
 41
0.4479351312217194
  0
VERTEX
  5
18DB
330
18DA
100
AcDbEntity
  8
LOGO
 62
     5
100
AcDbVertex
100
AcDb2dVertex
 10
-146.0076265492157
 20
182.7397858415192
 30
0.0
 42
1.0
  0
VERTEX
  5
18DC
330
18DA
100
AcDbEntity
  8
LOGO
 62
     5
100
AcDbVertex
100
AcDb2dVertex
 10
-144.2158860243282
 20
182.7397858415192
 30
0.0
 42
1.0
  0
SEQEND
  5
18DD
330
18DA
100
AcDbEntity
  8
LOGO
 62
     5
  0
SOLID
  5
18DE
330
1F
100
AcDbEntity
  8
LOGO
 62
     5
100
AcDbTrace
 10
-144.4409733560972
 20
184.5286595815668
 30
0.0
 11
-143.9937549210856
 21
184.5286595815668
 31
0.0
 12
-144.4409733560972
 22
181.6217397539903
 32
0.0
 13
-143.9937549210856
 23
181.6217397539903
 33
0.0
  0
SOLID
  5
18DF
330
1F
100
AcDbEntity
  8
LOGO
 62
     5
100
AcDbTrace
 10
-143.4719851729562
 20
183.8578319290488
 30
0.0
 11
-143.0247667379453
 21
183.8578319290488
 31
0.0
 12
-143.4719851729562
 22
181.6217397539903
 32
0.0
 13
-143.0247667379453
 23
181.6217397539903
 33
0.0
  0
SOLID
  5
18E0
330
1F
100
AcDbEntity
  8
LOGO
 62
     5
100
AcDbTrace
 10
-142.1303298679222
 20
182.9633950590253
 30
0.0
 11
-141.68311143291
 21
182.9633950590253
 31
0.0
 12
-142.1303298679222
 22
181.6217397539903
 32
0.0
 13
-141.68311143291
 23
181.6217397539903
 33
0.0
  0
SOLID
  5
18E1
330
1F
100
AcDbEntity
  8
LOGO
 62
     5
100
AcDbTrace
 10
-140.7886745628868
 20
182.9633950590253
 30
0.0
 11
-140.3414561278753
 21
182.9633950590253
 31
0.0
 12
-140.7886745628868
 22
181.6217397539896
 32
0.0
 13
-140.3414561278753
 23
181.6217397539896
 33
0.0
  0
SOLID
  5
18E2
330
1F
100
AcDbEntity
  8
LOGO
 62
     5
100
AcDbTrace
 10
-149.50947876746
 20
184.1708848335572
 30
0.0
 11
-149.062260332447
 21
184.1708848335572
 31
0.0
 12
-149.50947876746
 22
184.5286595815668
 32
0.0
 13
-149.062260332447
 23
184.5286595815668
 33
0.0
  0
SOLID
  5
18E3
330
1F
100
AcDbEntity
  8
LOGO
 62
     5
100
AcDbTrace
 10
-149.50947876746
 20
183.8578319290488
 30
0.0
 11
-149.062260332447
 21
183.8578319290488
 31
0.0
 12
-149.50947876746
 22
181.6217397539896
 32
0.0
 13
-149.062260332447
 23
181.6217397539903
 33
0.0
  0
SOLID
  5
18E4
330
1F
100
AcDbEntity
  8
LOGO
 62
     5
100
AcDbTrace
 10
-145.1117562867723
 20
186.0939241041076
 30
0.0
 11
-143.8148228252375
 21
186.0939241041076
 31
0.0
 12
-145.1117562867723
 22
192.6531278176132
 32
0.0
 13
-143.8148228252375
 23
197.408550509905
 33
0.0
  0
SOLID
  5
18E5
330
1F
100
AcDbEntity
  8
LOGO
 62
     5
100
AcDbTrace
 10
-143.2781607032227
 20
198.3924310669308
 30
0.0
 11
-141.9812272416893
 21
198.3924310669315
 31
0.0
 12
-143.2781607032227
 22
187.0778046611333
 32
0.0
 13
-141.9812272416893
 23
191.8332273534252
 33
0.0
  0
SOLID
  5
18E6
330
1F
100
AcDbEntity
  8
LOGO
 62
     2
100
AcDbTrace
 10
-143.8148228252375
 20
198.3924310669308
 30
0.0
 11
-143.2781607032227
 21
198.3924310669308
 31
0.0
 12
-143.8148228252375
 22
186.0939241041076
 32
0.0
 13
-143.2781607032227
 23
186.0939241041076
 33
0.0
  0
SOLID
  5
18E7
330
1F
100
AcDbEntity
  8
LOGO
 62
     5
100
AcDbTrace
 10
-143.2781607032227
 20
187.0778046611333
 30
0.0
 11
-141.9812272416893
 21
191.8332273534252
 31
0.0
 12
-137.1065463000614
 22
198.3924310669315
 32
0.0
 13
-138.4034797615948
 23
198.3924310669315
 33
0.0
  0
SOLID
  5
18E8
330
1F
100
AcDbEntity
  8
LOGO
 62
     5
100
AcDbTrace
 10
-143.2781607032227
 20
186.0939241041076
 30
0.0
 11
-141.9812272416893
 21
186.0939241041076
 31
0.0
 12
-137.1065463000614
 22
197.408550509905
 32
0.0
 13
-138.4034797615948
 23
192.6531278176132
 33
0.0
  0
SOLID
  5
18E9
330
1F
100
AcDbEntity
  8
LOGO
 62
     2
100
AcDbTrace
 10
-143.8148228252375
 20
186.0939241041076
 30
0.0
 11
-143.2781607032227
 21
186.0939241041076
 31
0.0
 12
-137.1065463000614
 22
198.3924310669315
 32
0.0
 13
-136.5698841780465
 23
198.3924310669308
 33
0.0
  0
LINE
  5
18EA
330
1F
100
AcDbEntity
  8
LOGO
 62
     4
100
AcDbLine
 10
-27.68688905869431
 20
182.6073560360275
 30
0.0
 11
-27.68688905869431
 21
171.6089487962079
 31
0.0
  0
LINE
  5
18EB
330
1F
100
AcDbEntity
  8
LOGO
 62
     4
100
AcDbLine
 10
-47.68399313109262
 20
182.6073560360275
 30
0.0
 11
-47.68399313109262
 21
171.6089487962079
 31
0.0
  0
LINE
  5
18EC
330
1F
100
AcDbEntity
  8
LOGO
 62
     4
100
AcDbLine
 10
-27.68688905869431
 20
171.6089487962079
 30
0.0
 11
-47.68399313109262
 21
171.6089487962079
 31
0.0
  0
LINE
  5
18ED
330
1F
100
AcDbEntity
  8
LOGO
 62
     4
100
AcDbLine
 10
-13.19932542468768
 20
196.1054012848958
 30
0.0
 11
-47.68399313109262
 21
196.1054012848958
 31
0.0
  0
LINE
  5
18EE
330
1F
100
AcDbEntity
  8
LOGO
 62
     4
100
AcDbLine
 10
-13.19932542468768
 20
187.1067044523167
 30
0.0
 11
-47.68399313109262
 21
187.1067044523167
 31
0.0
  0
LINE
  5
18EF
330
1F
100
AcDbEntity
  8
LOGO
 62
     4
100
AcDbLine
 10
-47.68399313109262
 20
196.1054012848958
 30
0.0
 11
-47.68399313109262
 21
187.1067044523167
 31
0.0
  0
LINE
  5
18F0
330
1F
100
AcDbEntity
  8
LOGO
 62
     4
100
AcDbLine
 10
-13.19932542468768
 20
196.1054012848958
 30
0.0
 11
-13.19932542468768
 21
187.1067044523167
 31
0.0
  0
LINE
  5
18F1
330
1F
100
AcDbEntity
  8
LOGO
 62
     4
100
AcDbLine
 10
-36.6420945275388
 20
187.1067044523167
 30
0.0
 11
-36.6420945275388
 21
182.6073560360275
 31
0.0
  0
TEXT
  5
18F2
330
1F
100
AcDbEntity
  8
LOGO
  6
Continuous
100
AcDbText
 10
-46.08506563617265
 20
188.9851692600242
 30
0.0
 40
5.25
  1
MAD400
  7
CHINESET
100
AcDbText
  0
LINE
  5
18F3
330
1F
100
AcDbEntity
  8
LOGO
 62
     4
100
AcDbLine
 10
-27.68688905869431
 20
182.6073560360275
 30
0.0
 11
-47.68399313109262
 21
182.6073560360275
 31
0.0
  0
TEXT
  5
18F4
330
1F
100
AcDbEntity
  8
LOGO
  6
Continuous
100
AcDbText
 10
-41.26698574412808
 20
173.1613506554441
 30
196.5865886400747
 40
2.25
  1
Model
 41
0.8
  7
CHINESET
100
AcDbText
  0
TEXT
  5
18F5
330
1F
100
AcDbEntity
  8
LOGO
100
AcDbText
 10
-41.86586260112676
 20
177.3323657458351
 30
196.5865886400747
 40
3.75
  1
型號
  7
CHINESET
100
AcDbText
  0
LINE
  5
1901
330
1F
100
AcDbEntity
  8
LOGO
  6
Continuous
100
AcDbLine
 10
-11.91196517801199
 20
191.5741780622951
 30
0.0
 11
-7.938469004602666
 21
191.5741780622951
 31
0.0
  0
LINE
  5
1902
330
1F
100
AcDbEntity
  8
LOGO
 62
     4
100
AcDbLine
 10
6.188982220688444
 20
182.6073560360275
 30
0.0
 11
6.188982220688444
 21
171.6089487962079
 31
0.0
  0
LINE
  5
1903
330
1F
100
AcDbEntity
  8
LOGO
 62
     4
100
AcDbLine
 10
-21.12148528382466
 20
182.6073560360275
 30
0.0
 11
-21.12148528382466
 21
171.6089487962079
 31
0.0
  0
LINE
  5
1904
330
1F
100
AcDbEntity
  8
LOGO
 62
     4
100
AcDbLine
 10
6.188982220688444
 20
171.6089487962079
 30
0.0
 11
-21.12148528382466
 21
171.6089487962079
 31
0.0
  0
LINE
  5
1905
330
1F
100
AcDbEntity
  8
LOGO
 62
     4
100
AcDbLine
 10
5.698866160387524
 20
196.1054012848958
 30
0.0
 11
-6.167887334694569
 21
196.1054012848958
 31
0.0
  0
LINE
  5
1906
330
1F
100
AcDbEntity
  8
LOGO
 62
     4
100
AcDbLine
 10
5.698866160387524
 20
187.1067044523167
 30
0.0
 11
-6.167887334694569
 21
187.1067044523167
 31
0.0
  0
LINE
  5
1907
330
1F
100
AcDbEntity
  8
LOGO
 62
     4
100
AcDbLine
 10
-6.167887334694569
 20
196.1054012848958
 30
0.0
 11
-6.167887334694569
 21
187.1067044523167
 31
0.0
  0
LINE
  5
1908
330
1F
100
AcDbEntity
  8
LOGO
 62
     4
100
AcDbLine
 10
5.698866160387524
 20
196.1054012848958
 30
0.0
 11
5.698866160387524
 21
187.1067044523167
 31
0.0
  0
LINE
  5
1909
330
1F
100
AcDbEntity
  8
LOGO
 62
     4
100
AcDbLine
 10
-0.2345105871535225
 20
187.1067044523167
 30
0.0
 11
-0.2345105871535225
 21
182.6073560360275
 31
0.0
  0
LINE
  5
190B
330
1F
100
AcDbEntity
  8
LOGO
 62
     4
100
AcDbLine
 10
6.188982220688444
 20
182.6073560360275
 30
0.0
 11
-21.12148528382466
 21
182.6073560360275
 31
0.0
  0
TEXT
  5
1919
330
1F
100
AcDbEntity
  8
LOGO
  6
Continuous
100
AcDbText
 10
-14.9086757538563
 20
173.1613506554441
 30
196.5865886400747
 40
2.25
  1
Bore size
 41
0.8
  7
CHINESET
100
AcDbText
  0
TEXT
  5
191A
330
1F
100
AcDbEntity
  8
LOGO
100
AcDbText
 10
-18.37640837082051
 20
177.3323657458351
 30
196.5865886400747
 40
3.75
  1
配管口徑代號
  7
CHINESET
100
AcDbText
  0
TEXT
  5
1929
330
1F
100
AcDbEntity
  8
LOGO
100
AcDbText
 10
-87.10188344681123
 20
170.7050678530402
 30
0.0
 40
3.0
  1
10708011
 41
0.7
  7
CHINESET
 72
     1
 11
-80.25188344681124
 21
170.7050678530402
 31
0.0
100
AcDbText
  0
LINE
  5
192A
330
1F
100
AcDbEntity
  8
LOGO
 62
     4
100
AcDbLine
 10
-70.94168683366911
 20
175.1084420088784
 30
0.0
 11
-70.94168683366774
 21
169.1093107871585
 31
0.0
  0
LINE
  5
192B
330
1F
100
AcDbEntity
  8
LOGO
 62
     4
100
AcDbLine
 10
-70.94168683366911
 20
175.1084420088784
 30
0.0
 11
-88.94168683366775
 21
175.1084420088784
 31
0.0
  0
LINE
  5
192C
330
1F
100
AcDbEntity
  8
LOGO
  6
AM_ISO08W050x2
 48
0.3
100
AcDbLine
 10
-105.785567034676
 20
190.1126861559684
 30
0.0
 11
-100.9838729609712
 21
190.1126861559684
 31
0.0
1001
GENIUS_GENOREF_13
1005
1931
  0
LINE
  5
192D
330
1F
100
AcDbEntity
  8
LOGO
  6
AM_ISO08W050x2
 48
0.3
100
AcDbLine
 10
-103.3847199978236
 20
187.711839119116
 30
0.0
 11
-103.3847199978236
 21
192.5135331928208
 31
0.0
1001
GENIUS_GENOREF_13
1005
1930
  0
LINE
  5
192E
330
1F
100
AcDbEntity
  8
LOGO
  6
CENTER
 48
0.5
100
AcDbLine
 10
-98.33669974714917
 20
190.1126861559684
 30
0.0
 11
-91.89039630508728
 21
190.1126861559684
 31
0.0
1001
GENIUS_GENOREF_13
1005
192F
  0
POINT
  5
192F
330
1F
100
AcDbEntity
  8
0
 60
     1
100
AcDbPoint
 10
-2182.927183784027
 20
-759.4863134747757
 30
0.0
1001
GENIUS_GENOBJ-N-CRS_13
1002
{
1000
OWNER
1000
GEN
1002
}
1001
GENIUS_GENOLIS_13
1002
{
1000
ENT
1005
0
1005
0
1005
0
1005
192E
1002
}
1001
GENIUS_GENOENT_13
1002
{
1000
MYREF
1005
192F
1002
}
1002
{
1000
GRP
1005
0
1002
}
1001
GENIUS_GENODEF_13
1002
{
1000
HIER
1070
    10
1002
}
1002
{
1000
MANEDIT
1070
     1
1002
}
1002
{
1000
NOSEL
1070
     0
1002
}
1002
{
1000
BEHIND
1070
     0
1002
}
1002
{
1000
OTHER
1070
     0
1002
}
1002
{
1000
REACTOR
1002
}
  0
POINT
  5
1930
330
1F
100
AcDbEntity
  8
0
 60
     1
100
AcDbPoint
 10
-2194.251769006881
 20
-750.6107269961394
 30
0.0
1001
GENIUS_GENOBJ-N-CRS_13
1002
{
1000
OWNER
1000
GEN
1002
}
1001
GENIUS_GENOLIS_13
1002
{
1000
ENT
1005
0
1005
0
1005
0
1005
192D
1002
}
1001
GENIUS_GENOENT_13
1002
{
1000
MYREF
1005
1930
1002
}
1002
{
1000
GRP
1005
0
1002
}
1001
GENIUS_GENODEF_13
1002
{
1000
HIER
1070
    10
1002
}
1002
{
1000
MANEDIT
1070
     1
1002
}
1002
{
1000
NOSEL
1070
     0
1002
}
1002
{
1000
BEHIND
1070
     0
1002
}
1002
{
1000
OTHER
1070
     0
1002
}
1002
{
1000
REACTOR
1002
}
  0
POINT
  5
1931
330
1F
100
AcDbEntity
  8
0
 60
     1
100
AcDbPoint
 10
-2187.893095309044
 20
-759.4863134747757
 30
0.0
1001
GENIUS_GENOBJ-N-CRS_13
1002
{
1000
OWNER
1000
GEN
1002
}
1001
GENIUS_GENOLIS_13
1002
{
1000
ENT
1005
0
1005
0
1005
0
1005
192C
1002
}
1001
GENIUS_GENOENT_13
1002
{
1000
MYREF
1005
1931
1002
}
1002
{
1000
GRP
1005
0
1002
}
1001
GENIUS_GENODEF_13
1002
{
1000
HIER
1070
    10
1002
}
1002
{
1000
MANEDIT
1070
     1
1002
}
1002
{
1000
NOSEL
1070
     0
1002
}
1002
{
1000
BEHIND
1070
     0
1002
}
1002
{
1000
OTHER
1070
     0
1002
}
1002
{
1000
REACTOR
1002
}
  0
ENDSEC
  0
SECTION
  2
OBJECTS
  0
DICTIONARY
  5
C
330
0
100
AcDbDictionary
281
     1
  3
ACAD_COLOR
350
BE
  3
ACAD_GROUP
350
D
  3
ACAD_LAYOUT
350
1A
  3
ACAD_MATERIAL
350
BD
  3
ACAD_MLINESTYLE
350
17
  3
ACAD_PLOTSETTINGS
350
19
  3
ACAD_PLOTSTYLENAME
350
E
  3
ACAD_TABLESTYLE
350
11A
  3
ACDBHEADERROUNDTRIPXREC
350
198E
  3
AcDbVariableDictionary
350
94
  3
AcmDictionary
350
5B
  3
AMG
350
41
  3
AMGSNAPSETTINGS
350
1B8
  3
DWGPROPS
350
198D
  0
DICTIONARY
  5
3F9
330
2
100
AcDbDictionary
280
     1
281
     1
  3
ACAD_LAYERFILTERS
360
17A7
  3
ACAD_LAYERSTATES
360
CF8
  3
ACLYDICTIONARY
360
17A6
  3
AMLAYER_GROUPCOLORS
360
11CC
  0
DICTIONARY
  5
8F
330
1F
100
AcDbDictionary
280
     1
281
     1
  3
ACAD_SORTENTS
360
D71
  0
DICTIONARY
  5
10FC
330
10EE
100
AcDbDictionary
280
     1
281
     1
  3
ACAD_DIMASSOC
360
10FD
  0
DICTIONARY
  5
1222
330
1213
100
AcDbDictionary
280
     1
281
     1
  3
ACAD_DIMASSOC
360
1223
  0
DICTIONARY
  5
BE
102
{ACAD_REACTORS
330
C
102
}
330
C
100
AcDbDictionary
281
     1
  0
DICTIONARY
  5
D
102
{ACAD_REACTORS
330
C
102
}
330
C
100
AcDbDictionary
281
     1
  0
DICTIONARY
  5
1A
102
{ACAD_REACTORS
330
C
102
}
330
C
100
AcDbDictionary
281
     1
  3
Model
350
22
  3
配置1
350
1E
  3
配置2
350
26
  0
DICTIONARY
  5
BD
102
{ACAD_REACTORS
330
C
102
}
330
C
100
AcDbDictionary
281
     1
  0
DICTIONARY
  5
17
102
{ACAD_REACTORS
330
C
102
}
330
C
100
AcDbDictionary
281
     1
  3
Standard
350
18
  0
DICTIONARY
  5
19
102
{ACAD_REACTORS
330
C
102
}
330
C
100
AcDbDictionary
281
     1
  0
ACDBDICTIONARYWDFLT
  5
E
102
{ACAD_REACTORS
330
C
102
}
330
C
100
AcDbDictionary
281
     1
  3
Normal
350
F
100
AcDbDictionaryWithDefault
340
F
  0
DICTIONARY
  5
11A
102
{ACAD_REACTORS
330
C
102
}
330
C
100
AcDbDictionary
281
     1
  3
Standard
350
11B
  0
DICTIONARY
  5
198E
102
{ACAD_REACTORS
330
C
102
}
330
C
100
AcDbDictionary
281
     1
  0
DICTIONARY
  5
94
102
{ACAD_REACTORS
330
C
102
}
330
C
100
AcDbDictionary
281
     1
  3
CTABLESTYLE
350
138
  3
DIMASSOC
350
96
  3
INDEXCTL
350
95
  3
PROJECTNAME
350
198B
  0
DICTIONARY
  5
5B
102
{ACAD_REACTORS
330
C
102
}
330
C
100
AcDbDictionary
281
     1
  3
AcmBOM
350
1B5
  3
AcmStdDictionary
350
61
  3
AMDTSECTSYM_ARROWCOLOR
350
123
  0
DICTIONARY
  5
41
102
{ACAD_REACTORS
330
C
102
}
330
C
100
AcDbDictionary
281
     1
  0
DICTIONARY
  5
1B8
102
{ACAD_REACTORS
330
C
102
}
330
C
100
AcDbDictionary
281
     1
  0
XRECORD
  5
198D
102
{ACAD_REACTORS
330
C
102
}
330
C
100
AcDbXrecord
280
     1
  1
DWGPROPS COOKIE
  2

  3

  4

  6

  7

  8

  9

300
AmdtFileType=84
301
=
302
=
303
=
304
=
305
=
306
=
307
=
308
=
309
=
 40
0.0253202662037037
 41
2454314.615040868
 42
2454314.64099066
  1

 90
        1
  0
DICTIONARY
  5
17A7
102
{ACAD_REACTORS
330
3F9
102
}
330
3F9
100
AcDbDictionary
281
     1
  0
DICTIONARY
  5
CF8
102
{ACAD_REACTORS
330
3F9
102
}
330
3F9
100
AcDbDictionary
281
     1
  0
DICTIONARY
  5
17A6
102
{ACAD_REACTORS
330
3F9
102
}
330
3F9
100
AcDbDictionary
281
     1
1001
ACAD
1000
<All
  0
DICTIONARY
  5
11CC
102
{ACAD_REACTORS
330
3F9
102
}
330
3F9
100
AcDbDictionary
280
     1
281
     1
  0
SORTENTSTABLE
  5
D71
102
{ACAD_REACTORS
330
8F
102
}
330
8F
100
AcDbSortentsTable
330
1F
331
D30
  5
D30
331
D55
  5
D55
331
D12
  5
D12
331
D37
  5
D37
331
D43
  5
D43
331
D5C
  5
D5C
331
D68
  5
D68
331
D19
  5
D19
331
D25
  5
D25
331
D4A
  5
D4A
331
D3E
  5
D3E
331
D07
  5
D07
331
D6F
  5
D6F
331
D2C
  5
D2C
331
D51
  5
D51
331
D0E
  5
D0E
331
D33
  5
D33
331
D58
  5
D58
331
D64
  5
D64
331
D15
  5
D15
331
D21
  5
D21
331
D46
  5
D46
331
D3A
  5
D3A
331
D03
  5
D03
331
D6B
  5
D6B
331
D5F
  5
D5F
331
D28
  5
D28
331
D1C
  5
D1C
331
D4D
  5
D4D
331
D0A
  5
D0A
331
D2F
  5
D2F
331
D60
  5
D60
331
D54
  5
D54
331
D11
  5
D11
331
D42
  5
D42
331
D36
  5
D36
331
D5B
  5
D5B
331
D67
  5
D67
331
D18
  5
D18
331
D24
  5
D24
331
D49
  5
D49
331
D3D
  5
D3D
331
D06
  5
D06
331
D6E
  5
D6E
331
D1F
  5
D1F
331
D2B
  5
D2B
331
D50
  5
D50
331
D0D
  5
D0D
331
D32
  5
D32
331
D57
  5
D57
331
D14
  5
D14
331
D20
  5
D20
331
D45
  5
D45
331
D02
  5
D02
331
D5E
  5
D5E
331
D6A
  5
D6A
331
D1B
  5
D1B
331
D27
  5
D27
331
D4C
  5
D4C
331
D09
  5
D09
331
D2E
  5
D2E
331
D53
  5
D53
331
D10
  5
D10
331
D41
  5
D41
331
D35
  5
D35
331
D5A
  5
D5A
331
D66
  5
D66
331
D17
  5
D17
331
D23
  5
D23
331
D48
  5
D48
331
D3C
  5
D3C
331
D05
  5
D05
331
D6D
  5
D6D
331
D2A
  5
D2A
331
D1E
  5
D1E
331
D4F
  5
D4F
331
D0C
  5
D0C
331
D31
  5
D31
331
D56
  5
D56
331
D13
  5
D13
331
D44
  5
D44
331
D38
  5
D38
331
D69
  5
D69
331
D5D
  5
D5D
331
D26
  5
D26
331
D1A
  5
D1A
331
D4B
  5
D4B
331
D3F
  5
D3F
331
D08
  5
D08
331
D70
  5
D70
331
D2D
  5
D2D
331
D52
  5
D52
331
D0F
  5
D0F
331
D40
  5
D40
331
D34
  5
D34
331
D59
  5
D59
331
D65
  5
D65
331
D16
  5
D16
331
D47
  5
D47
331
D3B
  5
D3B
331
D04
  5
D04
331
D6C
  5
D6C
331
D1D
  5
D1D
331
D29
  5
D29
331
D4E
  5
D4E
  0
DIMASSOC
  5
10FD
102
{ACAD_REACTORS
330
10FC
102
}
330
10FC
100
AcDbDimAssoc
330
10EE
 90
        3
 70
     0
 71
     0
  1
AcDbOsnapPointRef
 72
     1
331
D3D
 73
     0
 91
        0
 40
0.0
 10
0.0
 20
0.0
 30
2.000000000000000E+50
 75
     0
  1
AcDbOsnapPointRef
 72
    13
331
FD3
 73
     0
 91
        0
 40
0.0
 10
0.0
 20
0.0
 30
2.000000000000000E+50
 75
     0
  0
DIMASSOC
  5
1223
102
{ACAD_REACTORS
330
1222
102
}
330
1222
100
AcDbDimAssoc
330
1213
 90
        3
 70
     0
 71
     0
  1
AcDbOsnapPointRef
 72
    13
331
1202
 73
     0
 91
        0
 40
0.0
 10
0.0
 20
0.0
 30
2.000000000000000E+50
 75
     0
  1
AcDbOsnapPointRef
 72
    13
331
1203
 73
     0
 91
        0
 40
0.0
 10
0.0
 20
0.0
 30
2.000000000000000E+50
 75
     0
  0
LAYOUT
  5
22
102
{ACAD_XDICTIONARY
360
1991
102
}
102
{ACAD_REACTORS
330
1A
102
}
330
1A
100
AcDbPlotSettings
  1

  2
\\RD\EPSON Stylus C63 Series單色
  4
A4
  6

 40
3.757083177566528
 41
3.757076978683471
 42
3.757080078125
 43
3.757080078125
 44
209.9733276367187
 45
296.9683227539062
 46
0.0
 47
0.0
 48
0.0
 49
0.0
140
0.0
141
0.0
142
1.0
143
0.3405120737814363
 70
 11952
 72
     1
 73
     0
 74
     0
  7
彩色出圖.ctb
 75
     0
147
2.936753428137963
148
-2047.07469463503
149
-1261.649717473083
100
AcDbLayout
  1
Model
 70
     1
 71
     0
 10
0.0
 20
0.0
 11
12.0
 21
9.0
 12
0.0
 22
0.0
 32
0.0
 14
0.0
 24
0.0
 34
0.0
 15
0.0
 25
0.0
 35
0.0
146
0.0
 13
0.0
 23
0.0
 33
0.0
 16
1.0
 26
0.0
 36
0.0
 17
0.0
 27
1.0
 37
0.0
 76
     0
330
1F
1001
ACAD_PSEXT
1000
\\RD\EPSON Stylus C63 Series單色
1000
EPSON Stylus C63 Series
1000
\\RD
1000

1070
     0
  0
LAYOUT
  5
1E
102
{ACAD_XDICTIONARY
360
198F
102
}
102
{ACAD_REACTORS
330
1A
102
}
330
1A
100
AcDbPlotSettings
  1

  2

  4

  6

 40
0.0
 41
0.0
 42
0.0
 43
0.0
 44
0.0
 45
0.0
 46
0.0
 47
0.0
 48
0.0
 49
0.0
140
0.0
141
0.0
142
1.0
143
1.0
 70
   688
 72
     0
 73
     0
 74
     5
  7
彩色出圖.ctb
 75
    16
147
1.0
148
0.0
149
0.0
100
AcDbLayout
  1
配置1
 70
     1
 71
     1
 10
0.0
 20
0.0
 11
420.0
 21
297.0
 12
0.0
 22
0.0
 32
0.0
 14
1.000000000000000E+20
 24
1.000000000000000E+20
 34
1.000000000000000E+20
 15
-1.000000000000000E+20
 25
-1.000000000000000E+20
 35
-1.000000000000000E+20
146
0.0
 13
0.0
 23
0.0
 33
0.0
 16
1.0
 26
0.0
 36
0.0
 17
0.0
 27
1.0
 37
0.0
 76
     0
330
1B
  0
LAYOUT
  5
26
102
{ACAD_XDICTIONARY
360
1993
102
}
102
{ACAD_REACTORS
330
1A
102
}
330
1A
100
AcDbPlotSettings
  1

  2

  4

  6

 40
0.0
 41
0.0
 42
0.0
 43
0.0
 44
0.0
 45
0.0
 46
0.0
 47
0.0
 48
0.0
 49
0.0
140
0.0
141
0.0
142
1.0
143
1.0
 70
   688
 72
     0
 73
     0
 74
     5
  7
彩色出圖.ctb
 75
    16
147
1.0
148
0.0
149
0.0
100
AcDbLayout
  1
配置2
 70
     1
 71
     2
 10
0.0
 20
0.0
 11
12.0
 21
9.0
 12
0.0
 22
0.0
 32
0.0
 14
0.0
 24
0.0
 34
0.0
 15
0.0
 25
0.0
 35
0.0
146
0.0
 13
0.0
 23
0.0
 33
0.0
 16
1.0
 26
0.0
 36
0.0
 17
0.0
 27
1.0
 37
0.0
 76
     0
330
23
  0
MLINESTYLE
  5
18
102
{ACAD_REACTORS
330
17
102
}
330
17
100
AcDbMlineStyle
  2
STANDARD
 70
     0
  3

 62
   256
 51
90.0
 52
90.0
 71
     2
 49
0.5
 62
   256
  6
BYLAYER
 49
-0.5
 62
   256
  6
BYLAYER
  0
ACDBPLACEHOLDER
  5
F
102
{ACAD_REACTORS
330
E
102
}
330
E
  0
TABLESTYLE
  5
11B
102
{ACAD_REACTORS
330
11A
102
}
330
11A
100
AcDbTableStyle
  3
Standard
 70
     0
 71
     0
 40
1.5
 41
1.5
280
     0
281
     0
  7
STANDARD
140
4.5
170
     2
 62
     0
 63
     7
283
     0
274
    -2
284
     1
 64
     0
275
    -2
285
     1
 65
     0
276
    -2
286
     1
 66
     0
277
    -2
287
     1
 67
     0
278
    -2
288
     1
 68
     0
279
    -2
289
     1
 69
     0
  7
STANDARD
140
6.0
170
     5
 62
     0
 63
     7
283
     0
274
    -2
284
     1
 64
     0
275
    -2
285
     1
 65
     0
276
    -2
286
     1
 66
     0
277
    -2
287
     1
 67
     0
278
    -2
288
     1
 68
     0
279
    -2
289
     1
 69
     0
  7
STANDARD
140
4.5
170
     5
 62
     0
 63
     7
283
     0
274
    -2
284
     1
 64
     0
275
    -2
285
     1
 65
     0
276
    -2
286
     1
 66
     0
277
    -2
287
     1
 67
     0
278
    -2
288
     1
 68
     0
279
    -2
289
     1
 69
     0
  0
DICTIONARYVAR
  5
138
102
{ACAD_REACTORS
330
94
102
}
330
94
100
DictionaryVariables
280
     0
  1
STANDARD
  0
DICTIONARYVAR
  5
96
102
{ACAD_REACTORS
330
94
102
}
330
94
100
DictionaryVariables
280
     0
  1
2
  0
DICTIONARYVAR
  5
95
102
{ACAD_REACTORS
330
94
102
}
330
94
100
DictionaryVariables
280
     0
  1
0
  0
DICTIONARYVAR
  5
198B
102
{ACAD_REACTORS
330
94
102
}
330
94
100
DictionaryVariables
280
     0
  1

  0
DICTIONARY
  5
1B5
102
{ACAD_REACTORS
330
5B
102
}
330
5B
100
AcDbDictionary
281
     1
  0
DICTIONARY
  5
61
102
{ACAD_REACTORS
330
5B
102
}
330
5B
100
AcDbDictionary
281
     1
  0
XRECORD
  5
123
102
{ACAD_REACTORS
330
5B
102
}
330
5B
100
AcDbXrecord
280
     1
 90
-1023410169
  0
DICTIONARY
  5
1991
330
22
100
AcDbDictionary
280
     1
281
     1
  3
ACAD_XREC_ROUNDTRIP
360
1992
  0
DICTIONARY
  5
198F
330
1E
100
AcDbDictionary
280
     1
281
     1
  3
ACAD_XREC_ROUNDTRIP
360
1990
  0
DICTIONARY
  5
1993
330
26
100
AcDbDictionary
280
     1
281
     1
  3
ACAD_XREC_ROUNDTRIP
360
1994
  0
XRECORD
  5
1992
102
{ACAD_REACTORS
330
1991
102
}
330
1991
100
AcDbXrecord
280
     1
102
SHADEPLOT
 70
     0
102
SHADEPLOTRESLEVEL
 70
     2
102
SHADEPLOTCUSTOMDPI
 70
   300
  0
XRECORD
  5
1990
102
{ACAD_REACTORS
330
198F
102
}
330
198F
100
AcDbXrecord
280
     1
102
SHADEPLOT
 70
     0
102
SHADEPLOTRESLEVEL
 70
     2
102
SHADEPLOTCUSTOMDPI
 70
   300
  0
XRECORD
  5
1994
102
{ACAD_REACTORS
330
1993
102
}
330
1993
100
AcDbXrecord
280
     1
102
SHADEPLOT
 70
     0
102
SHADEPLOTRESLEVEL
 70
     2
102
SHADEPLOTCUSTOMDPI
 70
   300
  0
ENDSEC
  0
EOF
