  0
SECTION
  2
HEADER
  9
$ACADVER
  1
AC1015
  9
$ACADMAINTVER
 70
    20
  9
$DWGCODEPAGE
  3
ANSI_950
  9
$INSBASE
 10
0.0
 20
0.0
 30
0.0
  9
$EXTMIN
 10
-154.9403892751727
 20
169.0939407872988
 30
-0.0119981438838863
  9
$EXTMAX
 10
145.1063251743669
 20
581.6448126524371
 30
196.5985886148695
  9
$LIMMIN
 10
0.0
 20
0.0
  9
$LIMMAX
 10
420.0
 20
297.0
  9
$ORTHOMODE
 70
     0
  9
$REGENMODE
 70
     1
  9
$FILLMODE
 70
     1
  9
$QTEXTMODE
 70
     0
  9
$MIRRTEXT
 70
     1
  9
$LTSCALE
 40
3.0
  9
$ATTMODE
 70
     1
  9
$TEXTSIZE
 40
3.0
  9
$TRACEWID
 40
1.0
  9
$TEXTSTYLE
  7
CHINESET
  9
$CLAYER
  8
0
  9
$CELTYPE
  6
ByLayer
  9
$CECOLOR
 62
   256
  9
$CELTSCALE
 40
1.0
  9
$DISPSILH
 70
     0
  9
$DIMSCALE
 40
1.0
  9
$DIMASZ
 40
3.0
  9
$DIMEXO
 40
1.5
  9
$DIMDLI
 40
8.0
  9
$DIMRND
 40
0.0
  9
$DIMDLE
 40
0.0
  9
$DIMEXE
 40
1.5
  9
$DIMTP
 40
0.1
  9
$DIMTM
 40
0.1
  9
$DIMTXT
 40
3.0
  9
$DIMCEN
 40
0.0
  9
$DIMTSZ
 40
0.0
  9
$DIMTOL
 70
     0
  9
$DIMLIM
 70
     0
  9
$DIMTIH
 70
     0
  9
$DIMTOH
 70
     0
  9
$DIMSE1
 70
     0
  9
$DIMSE2
 70
     0
  9
$DIMTAD
 70
     1
  9
$DIMZIN
 70
     8
  9
$DIMBLK
  1

  9
$DIMASO
 70
     1
  9
$DIMSHO
 70
     1
  9
$DIMPOST
  1

  9
$DIMAPOST
  1
"
  9
$DIMALT
 70
     0
  9
$DIMALTD
 70
     2
  9
$DIMALTF
 40
0.0393701
  9
$DIMLFAC
 40
1.0
  9
$DIMTOFL
 70
     1
  9
$DIMTVP
 40
0.0
  9
$DIMTIX
 70
     0
  9
$DIMSOXD
 70
     0
  9
$DIMSAH
 70
     0
  9
$DIMBLK1
  1

  9
$DIMBLK2
  1

  9
$DIMSTYLE
  2
AM_ISO
  9
$DIMCLRD
 70
   256
  9
$DIMCLRE
 70
   256
  9
$DIMCLRT
 70
   256
  9
$DIMTFAC
 40
0.6
  9
$DIMGAP
 40
1.0
  9
$DIMJUST
 70
     0
  9
$DIMSD1
 70
     0
  9
$DIMSD2
 70
     0
  9
$DIMTOLJ
 70
     0
  9
$DIMTZIN
 70
     8
  9
$DIMALTZ
 70
     0
  9
$DIMALTTZ
 70
     0
  9
$DIMUPT
 70
     0
  9
$DIMDEC
 70
     2
  9
$DIMTDEC
 70
     8
  9
$DIMALTU
 70
     2
  9
$DIMALTTD
 70
     2
  9
$DIMTXSTY
  7
CHINESET
  9
$DIMAUNIT
 70
     0
  9
$DIMADEC
 70
     0
  9
$DIMALTRND
 40
0.0
  9
$DIMAZIN
 70
     2
  9
$DIMDSEP
 70
    46
  9
$DIMATFIT
 70
     3
  9
$DIMFRAC
 70
     0
  9
$DIMLDRBLK
  1

  9
$DIMLUNIT
 70
     2
  9
$DIMLWD
 70
    -1
  9
$DIMLWE
 70
    -1
  9
$DIMTMOVE
 70
     0
  9
$LUNITS
 70
     2
  9
$LUPREC
 70
     2
  9
$SKETCHINC
 40
1.0
  9
$FILLETRAD
 40
2.5
  9
$AUNITS
 70
     0
  9
$AUPREC
 70
     0
  9
$MENU
  1
.
  9
$ELEVATION
 40
0.0
  9
$PELEVATION
 40
0.0
  9
$THICKNESS
 40
0.0
  9
$LIMCHECK
 70
     0
  9
$CHAMFERA
 40
2.5
  9
$CHAMFERB
 40
2.5
  9
$CHAMFERC
 40
20.0
  9
$CHAMFERD
 40
0.0
  9
$SKPOLY
 70
     0
  9
$TDCREATE
 40
2454314.615040868
  9
$TDUCREATE
 40
2454314.281707535
  9
$TDUPDATE
 40
2455322.411461204
  9
$TDUUPDATE
 40
2455322.078127871
  9
$TDINDWG
 40
0.0262235764
  9
$TDUSRTIMER
 40
0.0262235764
  9
$USRTIMER
 70
     1
  9
$ANGBASE
 50
0.0
  9
$ANGDIR
 70
     0
  9
$PDMODE
 70
     0
  9
$PDSIZE
 40
0.0
  9
$PLINEWID
 40
0.0
  9
$SPLFRAME
 70
     0
  9
$SPLINETYPE
 70
     6
  9
$SPLINESEGS
 70
     8
  9
$HANDSEED
  5
20E3
  9
$SURFTAB1
 70
     6
  9
$SURFTAB2
 70
     6
  9
$SURFTYPE
 70
     6
  9
$SURFU
 70
     6
  9
$SURFV
 70
     6
  9
$UCSBASE
  2

  9
$UCSNAME
  2

  9
$UCSORG
 10
0.0
 20
0.0
 30
0.0
  9
$UCSXDIR
 10
1.0
 20
0.0
 30
0.0
  9
$UCSYDIR
 10
0.0
 20
1.0
 30
0.0
  9
$UCSORTHOREF
  2

  9
$UCSORTHOVIEW
 70
     0
  9
$UCSORGTOP
 10
0.0
 20
0.0
 30
0.0
  9
$UCSORGBOTTOM
 10
0.0
 20
0.0
 30
0.0
  9
$UCSORGLEFT
 10
0.0
 20
0.0
 30
0.0
  9
$UCSORGRIGHT
 10
0.0
 20
0.0
 30
0.0
  9
$UCSORGFRONT
 10
0.0
 20
0.0
 30
0.0
  9
$UCSORGBACK
 10
0.0
 20
0.0
 30
0.0
  9
$PUCSBASE
  2

  9
$PUCSNAME
  2

  9
$PUCSORG
 10
0.0
 20
0.0
 30
0.0
  9
$PUCSXDIR
 10
1.0
 20
0.0
 30
0.0
  9
$PUCSYDIR
 10
0.0
 20
1.0
 30
0.0
  9
$PUCSORTHOREF
  2

  9
$PUCSORTHOVIEW
 70
     0
  9
$PUCSORGTOP
 10
0.0
 20
0.0
 30
0.0
  9
$PUCSORGBOTTOM
 10
0.0
 20
0.0
 30
0.0
  9
$PUCSORGLEFT
 10
0.0
 20
0.0
 30
0.0
  9
$PUCSORGRIGHT
 10
0.0
 20
0.0
 30
0.0
  9
$PUCSORGFRONT
 10
0.0
 20
0.0
 30
0.0
  9
$PUCSORGBACK
 10
0.0
 20
0.0
 30
0.0
  9
$USERI1
 70
     0
  9
$USERI2
 70
     0
  9
$USERI3
 70
     0
  9
$USERI4
 70
     0
  9
$USERI5
 70
     0
  9
$USERR1
 40
0.0
  9
$USERR2
 40
0.0
  9
$USERR3
 40
0.0
  9
$USERR4
 40
0.0
  9
$USERR5
 40
0.0
  9
$WORLDVIEW
 70
     1
  9
$SHADEDGE
 70
     3
  9
$SHADEDIF
 70
    70
  9
$TILEMODE
 70
     1
  9
$MAXACTVP
 70
    64
  9
$PINSBASE
 10
0.0
 20
0.0
 30
0.0
  9
$PLIMCHECK
 70
     0
  9
$PEXTMIN
 10
1.000000000000000E+20
 20
1.000000000000000E+20
 30
1.000000000000000E+20
  9
$PEXTMAX
 10
-1.000000000000000E+20
 20
-1.000000000000000E+20
 30
-1.000000000000000E+20
  9
$PLIMMIN
 10
0.0
 20
0.0
  9
$PLIMMAX
 10
420.0
 20
297.0
  9
$UNITMODE
 70
     0
  9
$VISRETAIN
 70
     1
  9
$PLINEGEN
 70
     0
  9
$PSLTSCALE
 70
     1
  9
$TREEDEPTH
 70
  3020
  9
$CMLSTYLE
  2
Standard
  9
$CMLJUST
 70
     0
  9
$CMLSCALE
 40
20.0
  9
$PROXYGRAPHICS
 70
     1
  9
$MEASUREMENT
 70
     1
  9
$CELWEIGHT
370
    -1
  9
$ENDCAPS
280
     0
  9
$JOINSTYLE
280
     0
  9
$LWDISPLAY
290
     0
  9
$INSUNITS
 70
     4
  9
$HYPERLINKBASE
  1

  9
$STYLESHEET
  1
彩色出圖.ctb
  9
$XEDIT
290
     1
  9
$CEPSNTYPE
380
     0
  9
$PSTYLEMODE
290
     1
  9
$FINGERPRINTGUID
  2
{F91B2B0A-EDDD-4F46-BB43-57EDAAE643EB}
  9
$VERSIONGUID
  2
{BA766A3A-A1C8-4EEA-A667-6B38E96FF814}
  9
$EXTNAMES
290
     1
  9
$PSVPSCALE
 40
0.0
  9
$OLESTARTUP
290
     0
  0
ENDSEC
  0
SECTION
  2
CLASSES
  0
CLASS
  1
ACDBDICTIONARYWDFLT
  2
AcDbDictionaryWithDefault
  3
ObjectDBX Classes
 90
        0
280
     0
281
     0
  0
CLASS
  1
ACDBPLACEHOLDER
  2
AcDbPlaceHolder
  3
ObjectDBX Classes
 90
        0
280
     0
281
     0
  0
CLASS
  1
LAYOUT
  2
AcDbLayout
  3
ObjectDBX Classes
 90
        0
280
     0
281
     0
  0
CLASS
  1
ACME_DOCUMENT
  2
AcMeDbDoc
  3
AcMeServices
 90
        0
280
     0
281
     0
  0
CLASS
  1
AMGSETTINGSOBJ
  2
AmgSettingsObj
  3
"AcadM|Product Description: AutoCAD Mechanical 2000|Company: Autodesk"
 90
        0
280
     0
281
     0
  0
CLASS
  1
ACMESCOPE
  2
AcMeScope
  3
AcMeServices
 90
        0
280
     0
281
     0
  0
CLASS
  1
ACMECOMMANDHISTORY
  2
AcMeCommandHistory
  3
AcMeServices
 90
        0
280
     0
281
     0
  0
CLASS
  1
ACIMSYSVARMAN
  2
AcImSysVarManager
  3
AcMeServices
 90
        0
280
     0
281
     0
  0
CLASS
  1
ACIMREALSYSVAR
  2
AcImRealSysVar
  3
AcMeServices
 90
        0
280
     0
281
     0
  0
CLASS
  1
ACIMINTSYSVAR
  2
AcImIntSysVar
  3
AcMeServices
 90
        0
280
     0
281
     0
  0
CLASS
  1
ACMEDRAWINGMAN
  2
AcMeDrawingMan
  3
AcMeServices
 90
        0
280
     0
281
     0
  0
CLASS
  1
ACMEVIEW
  2
AcMeView
  3
AcMeServices
 90
        0
280
     0
281
     0
  0
CLASS
  1
ACDBENTITYCACHE
  2
AcMeEntityCache
  3
AcMeServices
 90
        0
280
     0
281
     0
  0
CLASS
  1
GSMANAGER
  2
AcMeGSManager
  3
AcMeServices
 90
        0
280
     0
281
     0
  0
CLASS
  1
AMDTINTERNALREACTOR
  2
AmdtInternalReactor
  3
AcMeServices
 90
        0
280
     0
281
     0
  0
CLASS
  1
ACMESTATEMGR
  2
AcMeStateMgr
  3
AcMeServices
 90
        0
280
     0
281
     0
  0
CLASS
  1
ACGREFMASTER
  2
AcGrefMaster
  3
AcAttribServices
 90
        0
280
     0
281
     0
  0
CLASS
  1
ACME_DATABASE
  2
AcMeDbDatabase
  3
AcMeServices
 90
        0
280
     0
281
     0
  0
CLASS
  1
ACRFINSADJUSTERMGR
  2
AcRfInsAdjusterMgr
  3
AcMeServices
 90
        0
280
     0
281
     0
  0
CLASS
  1
ACGREFACADMASTER
  2
AcGrefacadMaster
  3
AcGrefServices
 90
        0
280
     0
281
     0
  0
CLASS
  1
AMIMASTER
  2
AmiMaster
  3
AmiServices
 90
        0
280
     0
281
     0
  0
CLASS
  1
ACMDATADICTIONARY
  2
AcmDataDictionary
  3
"AcmSymBB|Product Description: AutoCAD Mechanical 2004 DX|Company: Autodesk"
 90
        0
280
     0
281
     0
  0
CLASS
  1
ACMDATAENTRYBLOCK
  2
AcmDataEntryBlock
  3
"AcmSymBB|Product Description: AutoCAD Mechanical 2004 DX|Company: Autodesk"
 90
        0
280
     0
281
     0
  0
CLASS
  1
ACIMSTRSYSVAR
  2
AcImStrSysVar
  3
AcMeServices
 90
        0
280
     0
281
     0
  0
CLASS
  1
ACMSTANDARDISO
  2
AcmStandardISO
  3
"Amdt_StdImp|Product Description: AutoCAD Mechanical 2004 DX|Company: Autodesk"
 90
        0
280
     0
281
     0
  0
CLASS
  1
AMGOBJPROPCFG
  2
AmgObjPropCfg
  3
"AmgLay|Product Description: AutoCAD Mechanical 2000|Company: Autodesk"
 90
        1
280
     0
281
     0
  0
CLASS
  1
AMDTEDGESTANDARDISO
  2
AmdtEdgeStdISO
  3
"Amdt_StdImp|Product Description: AutoCAD Mechanical 2004 DX|Company: Autodesk"
 90
    32768
280
     0
281
     0
  0
CLASS
  1
ACMSURFSTANDARDISO
  2
AcmSurfTextStdISO
  3
"Amdt_StdImp|Product Description: AutoCAD Mechanical 2004 DX|Company: Autodesk"
 90
        0
280
     0
281
     0
  0
CLASS
  1
ACMFCFSTANDARDISO
  2
AcmFCFStdISO
  3
"Amdt_StdImp|Product Description: AutoCAD Mechanical 2004 DX|Company: Autodesk"
 90
        0
280
     0
281
     0
  0
CLASS
  1
ACMWELDSTANDARDISO
  2
AcmWeldingStdISO
  3
"Amdt_StdImp|Product Description: AutoCAD Mechanical 2004 DX|Company: Autodesk"
 90
        0
280
     0
281
     0
  0
CLASS
  1
ACMIDSTANDARDISO
  2
AcmIdStdISO
  3
"Amdt_StdImp|Product Description: AutoCAD Mechanical 2004 DX|Company: Autodesk"
 90
        0
280
     0
281
     0
  0
CLASS
  1
ACMDATUMSTANDARDISO
  2
AcmDatumStdISO
  3
"Amdt_StdImp|Product Description: AutoCAD Mechanical 2004 DX|Company: Autodesk"
 90
        0
280
     0
281
     0
  0
CLASS
  1
ACMBOMSTANDARDISO
  2
AcmBOMStdISO
  3
"Amdt_StdImp|Product Description: AutoCAD Mechanical 2004 DX|Company: Autodesk"
 90
        0
280
     0
281
     0
  0
CLASS
  1
ACMDETAILSTANDARDISO
  2
AmdtDetailSymStdISO
  3
"Amdt_StdImp|Product Description: AutoCAD Mechanical 2004 DX|Company: Autodesk"
 90
        0
280
     0
281
     0
  0
CLASS
  1
ACMSECTIONSTANDARDISO
  2
AmdtSectionSymStdISO
  3
"Amdt_StdImp|Product Description: AutoCAD Mechanical 2004 DX|Company: Autodesk"
 90
        0
280
     0
281
     0
  0
CLASS
  1
ACMCENTERLINESTANDARDISO
  2
AmdtCenterLineStdISO
  3
"Amdt_StdImp|Product Description: AutoCAD Mechanical 2004 DX|Company: Autodesk"
 90
        0
280
     0
281
     0
  0
CLASS
  1
ACMNOTESTANDARDISO
  2
AmdtNoteStdISO
  3
"Amdt_StdImp|Product Description: AutoCAD Mechanical 2004 DX|Company: Autodesk"
 90
        0
280
     0
281
     0
  0
CLASS
  1
ACAMGLAYSTD
  2
AcAmgLayStd
  3
"AcAmgLayStd|Product Description: AutoCAD Mechanical 2000|Company: Autodesk"
 90
        0
280
     0
281
     0
  0
CLASS
  1
ACAMGDIMSTD
  2
AcAmgDimStd
  3
"AcAmgDimStd|Product Description: AutoCAD Mechanical 2000|Company: Autodesk"
 90
        0
280
     0
281
     0
  0
CLASS
  1
ACAMGHOLECHARTSTDISO
  2
AcAmgHoleChartStdISO
  3
ACMSYMBB_MODULE_NAME
 90
        0
280
     0
281
     0
  0
CLASS
  1
ACAMGTITLESTD
  2
AcAmgTitleStd
  3
"TITLEAPP"
 90
        0
280
     0
281
     0
  0
CLASS
  1
LAYER_INDEX
  2
AcDbLayerIndex
  3
ObjectDBX Classes
 90
        0
280
     0
281
     0
  0
CLASS
  1
IDBUFFER
  2
AcDbIdBuffer
  3
ObjectDBX Classes
 90
        0
280
     0
281
     0
  0
CLASS
  1
DICTIONARYVAR
  2
AcDbDictionaryVar
  3
ObjectDBX Classes
 90
        0
280
     0
281
     0
  0
CLASS
  1
AM_DRAWING_MGR
  2
AcDmDwgMgr
  3
AcMechDwgViewMgmt
 90
        0
280
     0
281
     0
  0
CLASS
  1
AM_DWG_DOCUMENT
  2
AcDmDwgDocument
  3
AcMechDwgViewMgmt
 90
        0
280
     0
281
     0
  0
CLASS
  1
AM_DWG_SHEET
  2
AcDmSheet
  3
AcMechDwgViewMgmt
 90
        0
280
     0
281
     0
  0
CLASS
  1
AM_VIEWDIMPARMAP
  2
AcDmViewDimParMap
  3
AcMechDwgViewMgmt
 90
        0
280
     0
281
     0
  0
CLASS
  1
AM_DWGMGR_NAME
  2
AcDmDwgMgrName
  3
AcMechDwgViewMgmt
 90
        0
280
     0
281
     0
  0
CLASS
  1
AMDTMENUSTATEMGR
  2
AmdtMenuStateMgr
  3
McadcomServices
 90
        0
280
     0
281
     0
  0
CLASS
  1
AMDTMCOMMENUSTATE
  2
AmdtMcomMenuState
  3
McadcomServices
 90
        0
280
     0
281
     0
  0
CLASS
  1
MAPIAMMOUDLE
  2
MApiAmModule
  3
MApiAmServices
 90
        0
280
     0
281
     0
  0
CLASS
  1
AMDTADMENUSTATE
  2
AmdtAdMenuState
  3
DesignerServices
 90
        0
280
     0
281
     0
  0
CLASS
  1
ADAPPL
  2
AcAdAppl
  3
DesignerServices
 90
        0
280
     0
281
     0
  0
CLASS
  1
DEPMGR
  2
AcAdDepMgr
  3
DesignerServices
 90
        0
280
     0
281
     0
  0
CLASS
  1
PARAMMGR
  2
AcAdParamMgr
  3
DesignerServices
 90
        0
280
     0
281
     0
  0
CLASS
  1
PARAMSCOPE
  2
AcAdParamScope
  3
DesignerServices
 90
        0
280
     0
281
     0
  0
CLASS
  1
NAMEDAPPL
  2
AcAdNamedAppl
  3
DesignerServices
 90
        0
280
     0
281
     0
  0
CLASS
  1
AMDTDMMENUSTATE
  2
AmdtDmMenuState
  3
AcMechDwgViewMgmt
 90
        0
280
     0
281
     0
  0
CLASS
  1
AMDTAMMENUSTATE
  2
AmdtAmMenuState
  3
DesignerAssemblies
 90
        0
280
     0
281
     0
  0
CLASS
  1
ACAMPROJECT
  2
AcAmProject
  3
DesignerAssemblies
 90
        0
280
     0
281
     0
  0
CLASS
  1
ACAMGRCOMPDEF
  2
AcAmGrCompDef
  3
DesignerAssemblies
 90
        0
280
     0
281
     0
  0
CLASS
  1
ACCMCONTEXT
  2
AcCmContext
  3
DesignerAssemblies
 90
        0
280
     0
281
     0
  0
CLASS
  1
ACAMCOMPDEF
  2
AcAmCompDef
  3
DesignerAssemblies
 90
        0
280
     0
281
     0
  0
CLASS
  1
ACAMCOMPDEFMGR
  2
AcAmCompDefMgr
  3
DesignerAssemblies
 90
        0
280
     0
281
     0
  0
CLASS
  1
AMCONTEXTMGR
  2
AcAmContextMgr
  3
DesignerAssemblies
 90
        0
280
     0
281
     0
  0
CLASS
  1
ACAMCONTEXTMODELER
  2
AcAmContextModeler
  3
DesignerAssemblies
 90
        0
280
     0
281
     0
  0
CLASS
  1
ACMTHREADLINESTANDARDISO
  2
AmdtThreadLineStdISO
  3
"Amdt_StdImp|Product Description: AutoCAD Mechanical 2004 DX|Company: Autodesk"
 90
        0
280
     0
281
     0
  0
CLASS
  1
CATALOGSTATE
  2
AcAmCatalogState
  3
DesignerAssemblies
 90
        0
280
     0
281
     0
  0
CLASS
  1
ACAMGRCOMPDEFSET
  2
AcAmGrCompDefSet
  3
DesignerAssemblies
 90
        0
280
     0
281
     0
  0
CLASS
  1
AMDTBROWSERDBTAB
  2
AmdtBrowserDbTab
  3
McadcomServices
 90
        0
280
     0
281
     0
  0
CLASS
  1
CBROWSERAPPOBJECT
  2
CBrowserAppObject
  3
McadcomServices
 90
        0
280
     0
281
     0
  0
CLASS
  1
DM_PLACEHOLDER
  2
AcDmSelsetPlaceholder
  3
AcMechDwgViewMgmt
 90
        0
280
     0
281
     0
  0
CLASS
  1
TABLESTYLE
  2
AcDbTableStyle
  3
ObjectDBX Classes
 90
     2047
280
     0
281
     0
  0
CLASS
  1
VAACXREFPANELOBJECT
  2
VaAcXREFPanelObject
  3
VAAC_ADDIN
 90
    32768
280
     0
281
     0
  0
CLASS
  1
VAACIMAGEINVENTORY
  2
VaAcImageInventory
  3
VAAC_ADDIN
 90
    32768
280
     0
281
     0
  0
CLASS
  1
AMDTNOTETEMPLATEDB
  2
AmdtNoteTemplateDB
  3
AMDT_STDIMP_MODULE_NAME
 90
        0
280
     0
281
     0
  0
CLASS
  1
ACMBOM
  2
AcmBom
  3
"AcmSymBB|Product Description: AutoCAD Mechanical 2004 DX|Company: Autodesk"
 90
    32768
280
     0
281
     0
  0
CLASS
  1
AMDTFORMULAUPDATEDISPATCHER
  2
AmdtFormulaUpdateDispatcher
  3
AcMeServices
 90
    32768
280
     0
281
     0
  0
CLASS
  1
ACMPARTLIST
  2
AcmPartList
  3
"AcmSymBB|Product Description: AutoCAD Mechanical 2004 DX|Company: Autodesk"
 90
    33791
280
     0
281
     1
  0
CLASS
  1
ACAMGFILTERDAT
  2
AcAmgFilterDat
  3
"AcadM|Product Description: AutoCAD Mechanical 2000|Company: Autodesk"
 90
    32768
280
     0
281
     0
  0
CLASS
  1
DIMASSOC
  2
AcDbDimAssoc
  3
"AcDbDimAssoc|Product Desc:     AcDim ARX App For Dimension|Company:          Autodesk, Inc.|WEB Address:      www.autodesk.com"
 90
        0
280
     0
281
     0
  0
CLASS
  1
SORTENTSTABLE
  2
AcDbSortentsTable
  3
ObjectDBX Classes
 90
        0
280
     0
281
     0
  0
CLASS
  1
ACMSTANDARDANSI
  2
AcmStandardANSI
  3
"Amdt_StdImp|Product Description: AutoCAD Mechanical 2004 DX|Company: Autodesk"
 90
    32768
280
     0
281
     0
  0
CLASS
  1
ACMSURFSTANDARDANSI
  2
AcmSurfTextStdANSI
  3
"Amdt_StdImp|Product Description: AutoCAD Mechanical 2004 DX|Company: Autodesk"
 90
    32768
280
     0
281
     0
  0
CLASS
  1
ACMFCFSTANDARDANSI
  2
AcmFCFStdANSI
  3
"Amdt_StdImp|Product Description: AutoCAD Mechanical 2004 DX|Company: Autodesk"
 90
    32768
280
     0
281
     0
  0
CLASS
  1
ACMWELDSTANDARDANSI
  2
AcmWeldingStdANSI
  3
"Amdt_StdImp|Product Description: AutoCAD Mechanical 2004 DX|Company: Autodesk"
 90
    32768
280
     0
281
     0
  0
CLASS
  1
ACMIDSTANDARDANSI
  2
AcmIdStdANSI
  3
"Amdt_StdImp|Product Description: AutoCAD Mechanical 2004 DX|Company: Autodesk"
 90
    32768
280
     0
281
     0
  0
CLASS
  1
ACMDATUMSTANDARDANSI
  2
AcmDatumStdANSI
  3
"Amdt_StdImp|Product Description: AutoCAD Mechanical 2004 DX|Company: Autodesk"
 90
    32768
280
     0
281
     0
  0
CLASS
  1
ACMBOMSTANDARDANSI
  2
AcmBOMStdANSI
  3
"Amdt_StdImp|Product Description: AutoCAD Mechanical 2004 DX|Company: Autodesk"
 90
    32768
280
     0
281
     0
  0
CLASS
  1
ACMDETAILSTANDARDANSI
  2
AmdtDetailSymStdANSI
  3
"Amdt_StdImp|Product Description: AutoCAD Mechanical 2004 DX|Company: Autodesk"
 90
    32768
280
     0
281
     0
  0
CLASS
  1
ACMSECTIONSTANDARDANSI
  2
AmdtSectionSymStdANSI
  3
"Amdt_StdImp|Product Description: AutoCAD Mechanical 2004 DX|Company: Autodesk"
 90
    32768
280
     0
281
     0
  0
CLASS
  1
ACMCENTERLINESTANDARDANSI
  2
AmdtCenterLineStdANSI
  3
"Amdt_StdImp|Product Description: AutoCAD Mechanical 2004 DX|Company: Autodesk"
 90
    32768
280
     0
281
     0
  0
CLASS
  1
ACMTHREADLINESTANDARDANSI
  2
AmdtThreadLineStdANSI
  3
"Amdt_StdImp|Product Description: AutoCAD Mechanical 2004 DX|Company: Autodesk"
 90
    32768
280
     0
281
     0
  0
CLASS
  1
ACMNOTESTANDARDANSI
  2
AmdtNoteStdANSI
  3
"Amdt_StdImp|Product Description: AutoCAD Mechanical 2004 DX|Company: Autodesk"
 90
    32768
280
     0
281
     0
  0
CLASS
  1
ACAMGHOLECHARTSTDANSI
  2
AcAmgHoleChartStdANSI
  3
ACMSYMBB_MODULE_NAME
 90
    32768
280
     0
281
     0
  0
CLASS
  1
AMDTNOTE
  2
AmdtNote
  3
"AcmSymBB|Product Description: AutoCAD Mechanical 2004 DX|Company: Autodesk"
 90
    33791
280
     0
281
     1
  0
CLASS
  1
ACDBCIRCARCRES
  2
AcDbCircArcRes
  3
AcGrefServices
 90
    32768
280
     0
281
     0
  0
CLASS
  1
ACRFATTGENMGR
  2
AcRfAttGeneralMgr
  3
AcAttribServices
 90
    32768
280
     0
281
     0
  0
CLASS
  1
ASAPP
  2
AcAsAppObject
  3
AutoSurfServices
 90
        0
280
     0
281
     0
  0
CLASS
  1
IM_STATIC_MAN
  2
AcImStaticVarManager
  3
AcMeServices
 90
        0
280
     0
281
     0
  0
CLASS
  1
ACIMDBLSTATICVAR
  2
AcImDblStaticVar
  3
AcMeServices
 90
        0
280
     0
281
     0
  0
CLASS
  1
ACIMSTRSTATICVAR
  2
AcImStrStaticVar
  3
AcMeServices
 90
        0
280
     0
281
     0
  0
CLASS
  1
ACIMINTSTATICVAR
  2
AcImIntStaticVar
  3
AcMeServices
 90
        0
280
     0
281
     0
  0
CLASS
  1
ACASGREFMASTER
  2
AcAsGrefMaster
  3
AutoSurfResolverServices
 90
        0
280
     0
281
     0
  0
CLASS
  1
ACADGREFMODULE
  2
AcAdGrefModule
  3
AdGrefServices
 90
        0
280
     0
281
     0
  0
CLASS
  1
AMDTMAPISURFMOUDULE
  2
AmdtMApiSurfModule
  3
MApiSurfServices
 90
        0
280
     0
281
     0
  0
CLASS
  1
MAPIADMODULE
  2
MApiAdModule
  3
MApiAdServices
 90
        0
280
     0
281
     0
  0
CLASS
  1
AMDTEDGESTANDARDISO13715
  2
AmdtEdgeStdISO13715
  3
"Amdt_StdImp|Product Description: AutoCAD Mechanical 2004 DX|Company: Autodesk"
 90
        0
280
     0
281
     0
  0
ENDSEC
  0
SECTION
  2
TABLES
  0
TABLE
  2
VPORT
  5
8
330
0
100
AcDbSymbolTable
 70
     6
  0
VPORT
  5
20DA
330
8
100
AcDbSymbolTableRecord
100
AcDbViewportTableRecord
  2
*Active
 70
     0
 10
0.0
 20
0.0
 11
1.0
 21
1.0
 12
0.0323578946944778
 22
-144.0762831206629
 13
0.0
 23
0.0
 14
2.5
 24
2.5
 15
10.0
 25
10.0
 16
0.0
 26
0.0
 36
1.0
 17
-4.949389945097379
 27
519.4456598405309
 37
0.0
 40
416.0569699263151
 41
0.9815602836879431
 42
50.0
 43
0.0
 44
0.0
 50
0.0
 51
0.0
 71
     0
 72
   100
 73
     1
 74
     3
 75
     0
 76
     0
 77
     0
 78
     0
281
     0
 65
     0
110
0.0
120
0.0
130
0.0
111
1.0
121
0.0
131
0.0
112
0.0
122
1.0
132
0.0
 79
     0
146
0.0
  0
ENDTAB
  0
TABLE
  2
LTYPE
  5
5
330
0
100
AcDbSymbolTable
 70
    18
  0
LTYPE
  5
14
330
5
100
AcDbSymbolTableRecord
100
AcDbLinetypeTableRecord
  2
ByBlock
 70
     0
  3

 72
    65
 73
     0
 40
0.0
  0
LTYPE
  5
15
330
5
100
AcDbSymbolTableRecord
100
AcDbLinetypeTableRecord
  2
ByLayer
 70
     0
  3

 72
    65
 73
     0
 40
0.0
  0
LTYPE
  5
16
330
5
100
AcDbSymbolTableRecord
100
AcDbLinetypeTableRecord
  2
Continuous
 70
     0
  3
Solid line
 72
    65
 73
     0
 40
0.0
  0
LTYPE
  5
64
330
5
100
AcDbSymbolTableRecord
100
AcDbLinetypeTableRecord
  2
AM_ISO02W050
 70
     0
  3
__ __ __ __ __ __ __ __ __ __ __ __ __ __ __
 72
    65
 73
     2
 40
7.5
 49
6.0
 74
     0
 49
-1.5
 74
     0
  0
LTYPE
  5
65
330
5
100
AcDbSymbolTableRecord
100
AcDbLinetypeTableRecord
  2
AM_ISO08W050
 70
     0
  3
____ . ____ . ____ . ____ . ____ . ____ . ____
 72
    65
 73
     4
 40
18.0
 49
12.0
 74
     0
 49
-1.5
 74
     0
 49
3.0
 74
     0
 49
-1.5
 74
     0
  0
LTYPE
  5
66
330
5
100
AcDbSymbolTableRecord
100
AcDbLinetypeTableRecord
  2
AM_ISO09W050
 70
     0
  3
_____ . . _____ . . _____ . . ____ .. ____
 72
    65
 73
     6
 40
22.5
 49
12.0
 74
     0
 49
-1.5
 74
     0
 49
3.0
 74
     0
 49
-1.5
 74
     0
 49
3.0
 74
     0
 49
-1.5
 74
     0
  0
LTYPE
  5
67
330
5
100
AcDbSymbolTableRecord
100
AcDbLinetypeTableRecord
  2
Amconstr
 70
     0
  3
_______________________
 72
    65
 73
     2
 40
9999.0
 49
9999.0
 74
     0
 49
0.0
 74
     0
  0
LTYPE
  5
68
330
5
100
AcDbSymbolTableRecord
100
AcDbLinetypeTableRecord
  2
AM_ISO08W050x2
 70
     0
  3
__ . __ . __ . __ . __ . __
 72
    65
 73
     4
 40
9.0
 49
6.0
 74
     0
 49
-0.75
 74
     0
 49
1.5
 74
     0
 49
-0.75
 74
     0
  0
LTYPE
  5
69
330
5
100
AcDbSymbolTableRecord
100
AcDbLinetypeTableRecord
  2
AM_ISO02W050x2
 70
     0
  3
 _ _ _ _ _ _ _ _ _ _ _ _
 72
    65
 73
     2
 40
3.75
 49
3.0
 74
     0
 49
-0.75
 74
     0
  0
LTYPE
  5
6C
330
5
100
AcDbSymbolTableRecord
100
AcDbLinetypeTableRecord
  2
Amzigzag
 70
     0
  3
/\/-/\/-/\/-/\/-/\/-/\/
 72
    65
 73
     2
 40
11.0001
 49
0.0001
 74
     4
 75
   135
340
6B
 46
0.04
 50
0.0
 44
0.0
 45
0.0
 49
-11.0
 74
     0
  0
LTYPE
  5
7A
330
5
100
AcDbSymbolTableRecord
100
AcDbLinetypeTableRecord
  2
ACISOWELD
 70
     0
  3
_ _ _ _ _
 72
    65
 73
     2
 40
2.0
 49
2.0
 74
     0
 49
-1.0
 74
     0
  0
LTYPE
  5
7B
330
5
100
AcDbSymbolTableRecord
100
AcDbLinetypeTableRecord
  2
ACISOTGB
 70
     0
  3
__ . . __ . .
 72
    65
 73
     6
 40
9.0
 49
4.0
 74
     0
 49
-1.0
 74
     0
 49
1.0
 74
     0
 49
-1.0
 74
     0
 49
1.0
 74
     0
 49
-1.0
 74
     0
  0
LTYPE
  5
7C
330
5
100
AcDbSymbolTableRecord
100
AcDbLinetypeTableRecord
  2
ACISOTGL
 70
     0
  3
_ _ _ _ _
 72
    65
 73
     2
 40
3.0
 49
2.0
 74
     0
 49
-1.0
 74
     0
  0
LTYPE
  5
7E
330
5
100
AcDbSymbolTableRecord
100
AcDbLinetypeTableRecord
  2
CENTER
 70
     0
  3
__ . __
 72
    65
 73
     4
 40
7.0
 49
4.0
 74
     0
 49
-1.0
 74
     0
 49
1.0
 74
     0
 49
-1.0
 74
     0
  0
LTYPE
  5
D8
330
5
100
AcDbSymbolTableRecord
100
AcDbLinetypeTableRecord
  2
HIDDEN
 70
     0
  3
Hidden __ __ __ __ __ __ __ __ __ __ __ __ __ _
 72
    65
 73
     2
 40
9.524999999999998
 49
6.349999999999999
 74
     0
 49
-3.174999999999999
 74
     0
  0
LTYPE
  5
D9
330
5
100
AcDbSymbolTableRecord
100
AcDbLinetypeTableRecord
  2
PHANTOM2
 70
     0
  3
Phantom (.5x) ___ _ _ ___ _ _ ___ _ _ ___ _ _
 72
    65
 73
     6
 40
31.75
 49
15.875
 74
     0
 49
-3.174999999999999
 74
     0
 49
3.174999999999999
 74
     0
 49
-3.174999999999999
 74
     0
 49
3.174999999999999
 74
     0
 49
-3.174999999999999
 74
     0
  0
ENDTAB
  0
TABLE
  2
LAYER
  5
2
102
{ACAD_XDICTIONARY
360
3F9
102
}
330
0
100
AcDbSymbolTable
 70
     9
  0
LAYER
  5
10
330
2
100
AcDbSymbolTableRecord
100
AcDbLayerTableRecord
  2
0
 70
     0
 62
     7
  6
Continuous
370
    -3
390
F
  0
LAYER
  5
ECB
330
2
100
AcDbSymbolTableRecord
100
AcDbLayerTableRecord
  2
AM_VIS
 70
     0
 62
     7
  6
Continuous
370
    50
390
F
  0
LAYER
  5
ECC
330
2
100
AcDbSymbolTableRecord
100
AcDbLayerTableRecord
  2
AM_4
 70
     0
 62
     3
  6
Continuous
370
    25
390
F
  0
LAYER
  5
10A9
330
2
100
AcDbSymbolTableRecord
100
AcDbLayerTableRecord
  2
AM_7
 70
     0
 62
     1
  6
CENTER
370
    25
390
F
  0
LAYER
  5
10DF
330
2
100
AcDbSymbolTableRecord
100
AcDbLayerTableRecord
  2
AM_5
 70
     0
 62
     5
  6
Continuous
370
    50
390
F
  0
LAYER
  5
10EF
330
2
100
AcDbSymbolTableRecord
100
AcDbLayerTableRecord
  2
Defpoints
 70
     0
 62
     7
  6
Continuous
290
     0
370
    -3
390
F
  0
LAYER
  5
17FA
330
2
100
AcDbSymbolTableRecord
100
AcDbLayerTableRecord
  2
LOGO
 70
     0
 62
     7
  6
Continuous
370
    -3
390
F
  0
LAYER
  5
1AA0
330
2
100
AcDbSymbolTableRecord
100
AcDbLayerTableRecord
  2
AM_10
 70
     0
 62
     7
  6
AM_ISO08W050
370
    50
390
F
  0
ENDTAB
  0
TABLE
  2
STYLE
  5
3
330
0
100
AcDbSymbolTable
 70
     8
  0
STYLE
  5
11
330
3
100
AcDbSymbolTableRecord
100
AcDbTextStyleTableRecord
  2
STANDARD
 70
     0
 40
0.0
 41
1.0
 50
0.0
 71
     0
 42
3.0
  3
ISOCP.SHX
  4
CHINESET.SHX
  0
STYLE
  5
6B
330
3
100
AcDbSymbolTableRecord
100
AcDbTextStyleTableRecord
  2

 70
     1
 40
0.0
 41
1.0
 50
0.0
 71
     0
 42
2.5
  3
ltypeshp.shx
  4

  0
STYLE
  5
6D
330
3
100
AcDbSymbolTableRecord
100
AcDbTextStyleTableRecord
  2
ACISOTS
 70
     0
 40
1.0
 41
1.0
 50
0.0
 71
     0
 42
1.0
  3
isocp.shx
  4
chineset.shx
  0
STYLE
  5
79
330
3
100
AcDbSymbolTableRecord
100
AcDbTextStyleTableRecord
  2
ACISOGDT
 70
     0
 40
0.0
 41
1.0
 50
0.0
 71
     0
 42
2.5
  3
amgdt.shx
  4
chineset.shx
  0
STYLE
  5
60C
330
3
100
AcDbSymbolTableRecord
100
AcDbTextStyleTableRecord
  2
CHINESET
 70
     0
 40
0.0
 41
1.0
 50
0.0
 71
     0
 42
3.0
  3
simplex.shx
  4
CHINESET.SHX
  0
ENDTAB
  0
TABLE
  2
VIEW
  5
6
330
0
100
AcDbSymbolTable
 70
     0
  0
ENDTAB
  0
TABLE
  2
UCS
  5
7
330
0
100
AcDbSymbolTable
 70
     0
  0
ENDTAB
  0
TABLE
  2
APPID
  5
9
330
0
100
AcDbSymbolTable
 70
    27
  0
APPID
  5
12
330
9
100
AcDbSymbolTableRecord
100
AcDbRegAppTableRecord
  2
ACAD
 70
     0
  0
APPID
  5
46
330
9
100
AcDbSymbolTableRecord
100
AcDbRegAppTableRecord
  2
MCAD_NO_VIS
 70
     0
  0
APPID
  5
47
330
9
100
AcDbSymbolTableRecord
100
AcDbRegAppTableRecord
  2
ACAD_TEMP_GRAPHIC
 70
     0
  0
APPID
  5
58
330
9
100
AcDbSymbolTableRecord
100
AcDbRegAppTableRecord
  2
ACATTRIBSERVICES
 70
     0
  0
APPID
  5
EE
330
9
100
AcDbSymbolTableRecord
100
AcDbRegAppTableRecord
  2
AD_DRAW
 70
     0
  0
APPID
  5
10C
330
9
100
AcDbSymbolTableRecord
100
AcDbRegAppTableRecord
  2
DESIGNERASSEMBLIES
 70
     0
  0
APPID
  5
111
330
9
100
AcDbSymbolTableRecord
100
AcDbRegAppTableRecord
  2
ACADM_DIM_EDIT
 70
     0
  0
APPID
  5
112
330
9
100
AcDbSymbolTableRecord
100
AcDbRegAppTableRecord
  2
AMDT_DM_ADJ
 70
     0
  0
APPID
  5
22C
330
9
100
AcDbSymbolTableRecord
100
AcDbRegAppTableRecord
  2
ACAD_DSTYLE_DIMTEXT_FILL
 70
     0
  0
APPID
  5
452
330
9
100
AcDbSymbolTableRecord
100
AcDbRegAppTableRecord
  2
GENIUS_GENOENT_13
 70
     0
  0
APPID
  5
453
330
9
100
AcDbSymbolTableRecord
100
AcDbRegAppTableRecord
  2
GENIUS_GENOBJ-N-CRS_13
 70
     0
  0
APPID
  5
454
330
9
100
AcDbSymbolTableRecord
100
AcDbRegAppTableRecord
  2
GENIUS_GENOLIS_13
 70
     0
  0
APPID
  5
455
330
9
100
AcDbSymbolTableRecord
100
AcDbRegAppTableRecord
  2
GENIUS_GENODEF_13
 70
     0
  0
APPID
  5
456
330
9
100
AcDbSymbolTableRecord
100
AcDbRegAppTableRecord
  2
GENIUS_GENOREF_13
 70
     0
  0
APPID
  5
6F3
330
9
100
AcDbSymbolTableRecord
100
AcDbRegAppTableRecord
  2
ACAD_PSEXT
 70
     0
  0
APPID
  5
808
330
9
100
AcDbSymbolTableRecord
100
AcDbRegAppTableRecord
  2
GENIUS_GENDTOL_13
 70
     0
  0
APPID
  5
10AB
330
9
100
AcDbSymbolTableRecord
100
AcDbRegAppTableRecord
  2
GENIUS_GENOBJ-N-CEN_13
 70
     0
  0
APPID
  5
10AC
330
9
100
AcDbSymbolTableRecord
100
AcDbRegAppTableRecord
  2
GENIUS_GENCEN_19
 70
     0
  0
APPID
  5
1587
330
9
100
AcDbSymbolTableRecord
100
AcDbRegAppTableRecord
  2
GENIUS_GENOBJ-N-HTC_13
 70
     0
  0
APPID
  5
1588
330
9
100
AcDbSymbolTableRecord
100
AcDbRegAppTableRecord
  2
GENIUS_GENHATCH_13
 70
     0
  0
APPID
  5
179F
330
9
100
AcDbSymbolTableRecord
100
AcDbRegAppTableRecord
  2
AcAecLayerStandard
 70
     0
  0
APPID
  5
17FB
330
9
100
AcDbSymbolTableRecord
100
AcDbRegAppTableRecord
  2
GENIUS_GENREC_14
 70
     0
  0
APPID
  5
17FC
330
9
100
AcDbSymbolTableRecord
100
AcDbRegAppTableRecord
  2
GENIUS_GENOBJ-N-REC_13
 70
     0
  0
APPID
  5
198E
330
9
100
AcDbSymbolTableRecord
100
AcDbRegAppTableRecord
  2
GENIUS_GENDIM_13
 70
     0
  0
APPID
  5
198F
330
9
100
AcDbSymbolTableRecord
100
AcDbRegAppTableRecord
  2
GENIUS_GE3DTOL_13
 70
     0
  0
APPID
  5
1A0F
330
9
100
AcDbSymbolTableRecord
100
AcDbRegAppTableRecord
  2
ASURF_PCURVE_APPNAME
 70
     0
  0
APPID
  5
1A14
330
9
100
AcDbSymbolTableRecord
100
AcDbRegAppTableRecord
  2
AMG_3D2D_5.0
 70
     0
  0
ENDTAB
  0
TABLE
  2
DIMSTYLE
  5
A
330
0
100
AcDbSymbolTable
 70
    14
100
AcDbDimStyleTable
 71
     3
340
81
340
8B
340
86
  0
DIMSTYLE
105
81
330
A
100
AcDbSymbolTableRecord
100
AcDbDimStyleTableRecord
  2
AM_ISO
 70
     0
  4
"
 41
3.0
 42
1.5
 43
8.0
 44
1.5
 47
0.1
 48
0.1
 73
     0
 74
     0
 77
     1
 78
     8
 79
     2
140
3.0
141
0.0
143
0.0393701
146
0.6
147
1.0
172
     1
176
   256
177
   256
178
   256
271
     2
272
     2
283
     0
284
     8
340
60C
371
    -1
372
    -1
  0
DIMSTYLE
105
82
102
{ACAD_REACTORS
330
2085
102
}
330
A
100
AcDbSymbolTableRecord
100
AcDbDimStyleTableRecord
  2
AM_ISO$3
 70
     0
  4
"
 41
3.0
 42
1.5
 43
8.0
 44
1.5
 47
0.1
 48
0.1
 73
     0
 77
     1
 78
     8
 79
     2
140
3.0
141
0.0
143
0.0393701
146
0.6
147
1.0
176
   256
177
   256
178
   256
271
     2
272
     2
283
     0
284
     8
288
     1
289
     0
340
60C
371
    -1
372
    -1
  0
DIMSTYLE
105
83
330
A
100
AcDbSymbolTableRecord
100
AcDbDimStyleTableRecord
  2
AM_ISO$4
 70
     0
  4
"
 41
3.0
 42
1.5
 43
8.0
 44
1.5
 47
0.1
 48
0.1
 73
     0
 77
     1
 78
     8
 79
     2
140
3.0
141
0.0
143
0.0393701
146
0.6
147
1.0
176
   256
177
   256
178
   256
271
     2
272
     2
283
     0
284
     8
288
     1
289
     0
340
60C
371
    -1
372
    -1
  0
DIMSTYLE
105
84
330
A
100
AcDbSymbolTableRecord
100
AcDbDimStyleTableRecord
  2
AM_ISO$6
 70
     0
  4
"
 41
3.0
 42
1.5
 43
8.0
 44
1.5
 47
0.1
 48
0.1
 73
     0
 74
     0
 78
     8
 79
     2
140
3.0
141
0.0
143
0.0393701
146
0.6
147
1.0
172
     1
176
   256
177
   256
178
   256
271
     2
272
     2
283
     0
284
     8
340
60C
371
    -1
372
    -1
  0
DIMSTYLE
105
85
330
A
100
AcDbSymbolTableRecord
100
AcDbDimStyleTableRecord
  2
AM_ISO$7
 70
     0
  4
"
 41
3.0
 42
1.5
 43
8.0
 44
1.5
 47
0.1
 48
0.1
 73
     0
 74
     0
 77
     1
 78
     8
 79
     2
140
5.0
141
0.0
143
0.0393701
146
0.6
147
1.0
172
     1
176
   256
177
   256
178
   256
271
     2
272
     2
283
     0
284
     8
340
60C
371
    -1
372
    -1
  0
DIMSTYLE
105
86
330
A
100
AcDbSymbolTableRecord
100
AcDbDimStyleTableRecord
  2
AM_ISO$SF
 70
     0
  4
"
 41
2.5
 42
1.0
 43
10.0
 44
1.0
 47
0.1
 48
0.1
 73
     0
 74
     0
 75
     1
 76
     1
 77
     1
 78
     8
 79
     2
140
3.5
141
0.0
143
0.0393701
146
0.71
147
1.5
172
     1
176
   256
177
   256
178
     2
271
     2
272
     3
274
     4
283
     0
284
     8
340
11
371
    -1
372
    -1
  0
DIMSTYLE
105
8B
330
A
100
AcDbSymbolTableRecord
100
AcDbDimStyleTableRecord
  2
AM_ISO$SH
 70
     0
  4
"
 41
2.5
 42
1.0
 43
10.0
 44
1.0
 47
0.1
 48
0.1
 73
     0
 74
     0
 75
     1
 76
     1
 77
     1
 78
     8
 79
     2
140
3.5
141
0.0
143
0.0393701
144
2.0
146
0.71
147
1.5
172
     1
173
     1
176
   256
177
   256
178
     2
271
     2
272
     3
274
     4
283
     0
284
     8
340
11
343
87
371
    -1
372
    -1
  0
DIMSTYLE
105
40B
102
{ACAD_REACTORS
330
1F4F
330
1F52
330
1F55
330
1F58
102
}
330
A
100
AcDbSymbolTableRecord
100
AcDbDimStyleTableRecord
  2
AM_ISO$0
 70
     0
  4
"
 41
3.0
 42
1.5
 43
8.0
 44
1.5
 47
0.1
 48
0.1
 73
     0
 74
     0
 77
     1
 78
     8
 79
     2
140
3.0
141
0.0
143
0.0393701
146
0.6
147
1.0
172
     1
176
   256
177
   256
178
   256
271
     2
272
     2
283
     0
284
     8
340
60C
371
    -1
372
    -1
  0
ENDTAB
  0
TABLE
  2
BLOCK_RECORD
  5
1
330
0
100
AcDbSymbolTable
 70
    18
  0
BLOCK_RECORD
  5
1F
102
{ACAD_XDICTIONARY
360
8F
102
}
330
1
100
AcDbSymbolTableRecord
100
AcDbBlockTableRecord
  2
*Model_Space
340
22
  0
BLOCK_RECORD
  5
1B
330
1
100
AcDbSymbolTableRecord
100
AcDbBlockTableRecord
  2
*Paper_Space
340
1E
  0
BLOCK_RECORD
  5
23
330
1
100
AcDbSymbolTableRecord
100
AcDbBlockTableRecord
  2
*Paper_Space0
340
26
  0
BLOCK_RECORD
  5
87
330
1
100
AcDbSymbolTableRecord
100
AcDbBlockTableRecord
  2
GENAXEH
340
0
  0
BLOCK_RECORD
  5
208E
330
1
100
AcDbSymbolTableRecord
100
AcDbBlockTableRecord
  2
*D13
340
0
  0
BLOCK_RECORD
  5
209A
330
1
100
AcDbSymbolTableRecord
100
AcDbBlockTableRecord
  2
*D14
340
0
  0
BLOCK_RECORD
  5
20A6
330
1
100
AcDbSymbolTableRecord
100
AcDbBlockTableRecord
  2
*D15
340
0
  0
BLOCK_RECORD
  5
20B2
330
1
100
AcDbSymbolTableRecord
100
AcDbBlockTableRecord
  2
*D16
340
0
  0
BLOCK_RECORD
  5
20BE
330
1
100
AcDbSymbolTableRecord
100
AcDbBlockTableRecord
  2
*D17
340
0
  0
ENDTAB
  0
ENDSEC
  0
SECTION
  2
BLOCKS
  0
BLOCK
  5
20
330
1F
100
AcDbEntity
  8
0
100
AcDbBlockBegin
  2
*Model_Space
 70
     0
 10
0.0
 20
0.0
 30
0.0
  3
*Model_Space
  1

  0
ENDBLK
  5
21
330
1F
100
AcDbEntity
  8
0
100
AcDbBlockEnd
  0
BLOCK
  5
1C
330
1B
100
AcDbEntity
 67
     1
  8
0
100
AcDbBlockBegin
  2
*Paper_Space
 70
     0
 10
0.0
 20
0.0
 30
0.0
  3
*Paper_Space
  1

  0
ENDBLK
  5
1D
330
1B
100
AcDbEntity
 67
     1
  8
0
100
AcDbBlockEnd
  0
BLOCK
  5
24
330
23
100
AcDbEntity
  8
0
100
AcDbBlockBegin
  2
*Paper_Space0
 70
     0
 10
0.0
 20
0.0
 30
0.0
  3
*Paper_Space0
  1

  0
ENDBLK
  5
25
330
23
100
AcDbEntity
  8
0
100
AcDbBlockEnd
  0
BLOCK
  5
89
330
87
100
AcDbEntity
  8
0
100
AcDbBlockBegin
  2
GENAXEH
 70
     0
 10
0.0
 20
0.0
 30
0.0
  3
GENAXEH
  1

  0
LINE
  5
88
330
87
100
AcDbEntity
  8
0
100
AcDbLine
 10
-1.0
 20
0.0
 30
0.0
 11
1.0
 21
0.0
 31
0.0
  0
ENDBLK
  5
8A
330
87
100
AcDbEntity
  8
0
100
AcDbBlockEnd
  0
BLOCK
  5
2098
330
208E
100
AcDbEntity
  8
0
100
AcDbBlockBegin
  2
*D13
 70
     1
 10
0.0
 20
0.0
 30
0.0
  3
*D13
  1

  0
LINE
  5
208F
330
208E
100
AcDbEntity
  8
AM_5
100
AcDbLine
 10
-10.88905453788465
 20
495.8236990982856
 30
0.0
 11
-10.88905453788464
 21
529.4988546710222
 31
0.0
  0
LINE
  5
2090
330
208E
100
AcDbEntity
  8
AM_5
100
AcDbLine
 10
-92.4390545378846
 20
481.3236990982856
 30
0.0
 11
-92.4390545378846
 21
529.4988546710222
 31
0.0
  0
LINE
  5
2091
330
208E
100
AcDbEntity
  8
AM_5
100
AcDbLine
 10
-15.38905453788464
 20
527.2488546710222
 30
0.0
 11
-87.93905453788459
 21
527.2488546710222
 31
0.0
  0
SOLID
  5
2092
330
208E
100
AcDbEntity
  8
AM_5
100
AcDbTrace
 10
-15.38905453788464
 20
527.9988546710221
 30
0.0
 11
-15.38905453788464
 21
526.4988546710221
 31
0.0
 12
-10.88905453788464
 22
527.2488546710222
 32
0.0
 13
-10.88905453788464
 23
527.2488546710222
 33
0.0
  0
SOLID
  5
2093
330
208E
100
AcDbEntity
  8
AM_5
100
AcDbTrace
 10
-87.93905453788459
 20
527.9988546710221
 30
0.0
 11
-87.93905453788459
 21
526.4988546710221
 31
0.0
 12
-92.4390545378846
 22
527.2488546710222
 32
0.0
 13
-92.4390545378846
 23
527.2488546710222
 33
0.0
  0
MTEXT
  5
2094
330
208E
100
AcDbEntity
  8
AM_5
100
AcDbMText
 10
-51.66405453788462
 20
530.9988546710221
 30
0.0
 40
4.5
 41
0.0
 71
     5
 72
     1
  1
81.55
  7
CHINESET
 73
     1
 44
1.0
1001
ACAD
1000
MTEXTBEGIN
1070
    73
1070
     1
1070
    44
1040
1.0
1070
    74
1070
     0
1000
MTEXTEND
  0
POINT
  5
2095
330
208E
100
AcDbEntity
  8
Defpoints
 62
     0
100
AcDbPoint
 10
-10.88905453788465
 20
493.5736990982856
 30
0.0
  0
POINT
  5
2096
330
208E
100
AcDbEntity
  8
Defpoints
 62
     0
100
AcDbPoint
 10
-92.4390545378846
 20
479.0736990982856
 30
0.0
  0
POINT
  5
2097
330
208E
100
AcDbEntity
  8
Defpoints
 62
     0
100
AcDbPoint
 10
-92.4390545378846
 20
527.2488546710222
 30
0.0
  0
ENDBLK
  5
2099
330
208E
100
AcDbEntity
  8
0
100
AcDbBlockEnd
  0
BLOCK
  5
20A4
330
209A
100
AcDbEntity
  8
0
100
AcDbBlockBegin
  2
*D14
 70
     1
 10
0.0
 20
0.0
 30
0.0
  3
*D14
  1

  0
LINE
  5
209B
330
209A
100
AcDbEntity
  8
AM_5
100
AcDbLine
 10
-73.13905453788462
 20
404.5593131679647
 30
0.0
 11
-114.438057297528
 21
404.5593131679647
 31
0.0
  0
LINE
  5
209C
330
209A
100
AcDbEntity
  8
AM_5
100
AcDbLine
 10
-52.8790545378846
 20
236.0593131679648
 30
0.0
 11
-114.4380572975281
 21
236.0593131679648
 31
0.0
  0
LINE
  5
209D
330
209A
100
AcDbEntity
  8
AM_5
100
AcDbLine
 10
-112.188057297528
 20
400.0593131679647
 30
0.0
 11
-112.1880572975281
 21
240.5593131679648
 31
0.0
  0
SOLID
  5
209E
330
209A
100
AcDbEntity
  8
AM_5
100
AcDbTrace
 10
-112.938057297528
 20
400.0593131679647
 30
0.0
 11
-111.438057297528
 21
400.0593131679647
 31
0.0
 12
-112.188057297528
 22
404.5593131679647
 32
0.0
 13
-112.188057297528
 23
404.5593131679647
 33
0.0
  0
SOLID
  5
209F
330
209A
100
AcDbEntity
  8
AM_5
100
AcDbTrace
 10
-112.9380572975281
 20
240.5593131679648
 30
0.0
 11
-111.4380572975281
 21
240.5593131679648
 31
0.0
 12
-112.1880572975281
 22
236.0593131679648
 32
0.0
 13
-112.1880572975281
 23
236.0593131679648
 33
0.0
  0
MTEXT
  5
20A0
330
209A
100
AcDbEntity
  8
AM_5
100
AcDbMText
 10
-115.9380572975281
 20
320.3093131679648
 30
0.0
 40
4.5
 41
0.0
 71
     5
 72
     1
  1
168.5
  7
CHINESET
 11
0.0000000000000001
 21
1.0
 31
0.0
 73
     1
 44
1.0
1001
ACAD
1000
MTEXTBEGIN
1070
    73
1070
     1
1070
    44
1040
1.0
1070
    74
1070
     0
1000
MTEXTEND
  0
POINT
  5
20A1
330
209A
100
AcDbEntity
  8
Defpoints
 62
     0
100
AcDbPoint
 10
-70.88905453788462
 20
404.5593131679647
 30
0.0
  0
POINT
  5
20A2
330
209A
100
AcDbEntity
  8
Defpoints
 62
     0
100
AcDbPoint
 10
-50.62905453788459
 20
236.0593131679648
 30
0.0
  0
POINT
  5
20A3
330
209A
100
AcDbEntity
  8
Defpoints
 62
     0
100
AcDbPoint
 10
-112.1880572975281
 20
236.0593131679648
 30
0.0
  0
ENDBLK
  5
20A5
330
209A
100
AcDbEntity
  8
0
100
AcDbBlockEnd
  0
BLOCK
  5
20B0
330
20A6
100
AcDbEntity
  8
0
100
AcDbBlockBegin
  2
*D15
 70
     1
 10
0.0
 20
0.0
 30
0.0
  3
*D15
  1

  0
LINE
  5
20A7
330
20A6
100
AcDbEntity
  8
AM_5
100
AcDbLine
 10
-56.44567840080267
 20
510.5736990982856
 30
0.0
 11
-114.4380572975282
 21
510.5736990982856
 31
0.0
  0
LINE
  5
20A8
330
20A6
100
AcDbEntity
  8
AM_5
100
AcDbLine
 10
-43.13905453788459
 20
436.5736990982857
 30
0.0
 11
-114.4380572975282
 21
436.5736990982857
 31
0.0
  0
LINE
  5
20A9
330
20A6
100
AcDbEntity
  8
AM_5
100
AcDbLine
 10
-112.1880572975282
 20
506.0736990982857
 30
0.0
 11
-112.1880572975282
 21
441.0736990982857
 31
0.0
  0
SOLID
  5
20AA
330
20A6
100
AcDbEntity
  8
AM_5
100
AcDbTrace
 10
-112.9380572975281
 20
506.0736990982857
 30
0.0
 11
-111.4380572975282
 21
506.0736990982857
 31
0.0
 12
-112.1880572975282
 22
510.5736990982856
 32
0.0
 13
-112.1880572975282
 23
510.5736990982856
 33
0.0
  0
SOLID
  5
20AB
330
20A6
100
AcDbEntity
  8
AM_5
100
AcDbTrace
 10
-112.9380572975282
 20
441.0736990982857
 30
0.0
 11
-111.4380572975282
 21
441.0736990982857
 31
0.0
 12
-112.1880572975282
 22
436.5736990982857
 32
0.0
 13
-112.1880572975282
 23
436.5736990982857
 33
0.0
  0
MTEXT
  5
20AC
330
20A6
100
AcDbEntity
  8
AM_5
100
AcDbMText
 10
-115.9380572975282
 20
473.5736990982856
 30
0.0
 40
4.5
 41
0.0
 71
     5
 72
     1
  1
74
  7
CHINESET
 11
0.0000000000000001
 21
1.0
 31
0.0
 73
     1
 44
1.0
1001
ACAD
1000
MTEXTBEGIN
1070
    73
1070
     1
1070
    44
1040
1.0
1070
    74
1070
     0
1000
MTEXTEND
  0
POINT
  5
20AD
330
20A6
100
AcDbEntity
  8
Defpoints
 62
     0
100
AcDbPoint
 10
-54.19567840080268
 20
510.5736990982856
 30
0.0
  0
POINT
  5
20AE
330
20A6
100
AcDbEntity
  8
Defpoints
 62
     0
100
AcDbPoint
 10
-40.88905453788458
 20
436.5736990982857
 30
0.0
  0
POINT
  5
20AF
330
20A6
100
AcDbEntity
  8
Defpoints
 62
     0
100
AcDbPoint
 10
-112.1880572975282
 20
436.5736990982857
 30
0.0
  0
ENDBLK
  5
20B1
330
20A6
100
AcDbEntity
  8
0
100
AcDbBlockEnd
  0
BLOCK
  5
20BC
330
20B2
100
AcDbEntity
  8
0
100
AcDbBlockBegin
  2
*D16
 70
     1
 10
0.0
 20
0.0
 30
0.0
  3
*D16
  1

  0
LINE
  5
20B3
330
20B2
100
AcDbEntity
  8
AM_5
100
AcDbLine
 10
-73.13905453788462
 20
404.5593131679647
 30
0.0
 11
-100.5200014307308
 21
404.5593131679647
 31
0.0
  0
LINE
  5
20B4
330
20B2
100
AcDbEntity
  8
AM_5
100
AcDbLine
 10
-97.18905453788464
 20
388.5593131679648
 30
0.0
 11
-100.5200014307308
 21
388.5593131679648
 31
0.0
  0
LINE
  5
20B5
330
20B2
100
AcDbEntity
  8
AM_5
100
AcDbLine
 10
-98.27000143073087
 20
400.0593131679647
 30
0.0
 11
-98.27000143073087
 21
393.0593131679648
 31
0.0
  0
SOLID
  5
20B6
330
20B2
100
AcDbEntity
  8
AM_5
100
AcDbTrace
 10
-99.02000143073088
 20
400.0593131679647
 30
0.0
 11
-97.52000143073088
 21
400.0593131679647
 31
0.0
 12
-98.27000143073087
 22
404.5593131679647
 32
0.0
 13
-98.27000143073087
 23
404.5593131679647
 33
0.0
  0
SOLID
  5
20B7
330
20B2
100
AcDbEntity
  8
AM_5
100
AcDbTrace
 10
-99.02000143073088
 20
393.0593131679648
 30
0.0
 11
-97.52000143073088
 21
393.0593131679648
 31
0.0
 12
-98.27000143073087
 22
388.5593131679648
 32
0.0
 13
-98.27000143073087
 23
388.5593131679648
 33
0.0
  0
MTEXT
  5
20B8
330
20B2
100
AcDbEntity
  8
AM_5
100
AcDbMText
 10
-102.0200014307309
 20
396.5593131679648
 30
0.0
 40
4.5
 41
0.0
 71
     5
 72
     1
  1
16
  7
CHINESET
 11
0.0000000000000001
 21
1.0
 31
0.0
 73
     1
 44
1.0
1001
ACAD
1000
MTEXTBEGIN
1070
    73
1070
     1
1070
    44
1040
1.0
1070
    74
1070
     0
1000
MTEXTEND
  0
POINT
  5
20B9
330
20B2
100
AcDbEntity
  8
Defpoints
 62
     0
100
AcDbPoint
 10
-70.88905453788462
 20
404.5593131679647
 30
0.0
  0
POINT
  5
20BA
330
20B2
100
AcDbEntity
  8
Defpoints
 62
     0
100
AcDbPoint
 10
-94.93905453788462
 20
388.5593131679648
 30
0.0
  0
POINT
  5
20BB
330
20B2
100
AcDbEntity
  8
Defpoints
 62
     0
100
AcDbPoint
 10
-98.27000143073087
 20
388.5593131679648
 30
0.0
  0
ENDBLK
  5
20BD
330
20B2
100
AcDbEntity
  8
0
100
AcDbBlockEnd
  0
BLOCK
  5
20C5
330
20BE
100
AcDbEntity
  8
0
100
AcDbBlockBegin
  2
*D17
 70
     1
 10
0.0
 20
0.0
 30
0.0
  3
*D17
  1

  0
LINE
  5
20C7
330
20BE
100
AcDbEntity
  8
AM_5
100
AcDbLine
 10
73.98017967688073
 20
399.5572652631718
 30
0.0
 11
86.71347447761744
 21
418.6909071180329
 31
0.0
  0
LINE
  5
20C8
330
20BE
100
AcDbEntity
  8
AM_5
100
AcDbLine
 10
86.71347447761744
 20
418.6909071180329
 30
0.0
 11
107.7134744776174
 21
418.6909071180329
 31
0.0
  0
SOLID
  5
20C9
330
20BE
100
AcDbEntity
  8
AM_5
100
AcDbTrace
 10
73.3558037935419
 20
399.972782719249
 30
0.0
 11
74.60455556021958
 21
399.1417478070946
 31
0.0
 12
71.48707494041767
 22
395.8110099631388
 32
0.0
 13
71.48707494041767
 23
395.8110099631388
 33
0.0
  0
MTEXT
  5
20CA
330
20BE
100
AcDbEntity
  8
AM_5
100
AcDbMText
 10
97.96347447761743
 20
423.6194785466043
 30
0.0
 40
4.5
 41
0.0
 71
     5
 72
     1
  1
PT1/2
  7
CHINESET
 73
     1
 44
1.0
1001
ACAD
1000
MTEXTBEGIN
1070
    73
1070
     1
1070
    44
1040
1.0
1070
    74
1070
     0
1000
MTEXTEND
  0
POINT
  5
20CB
330
20BE
100
AcDbEntity
  8
Defpoints
 62
     0
100
AcDbPoint
 10
71.48707494041767
 20
395.8110099631388
 30
0.0
  0
POINT
  5
20CC
330
20BE
100
AcDbEntity
  8
Defpoints
 62
     0
100
AcDbPoint
 10
61.835175547825
 20
381.3076163727906
 30
0.0
  0
ENDBLK
  5
20C6
330
20BE
100
AcDbEntity
  8
0
100
AcDbBlockEnd
  0
ENDSEC
  0
SECTION
  2
ENTITIES
  0
LWPOLYLINE
  5
189A
330
1F
100
AcDbEntity
  8
LOGO
 62
     4
100
AcDbPolyline
 90
        4
 70
     1
 43
0.0
 10
-154.9321302725818
 20
199.1049668957557
 10
145.0678697274181
 20
199.1049668957557
 10
145.0678697274181
 20
581.6093107871579
 10
-154.9321302725818
 20
581.6093107871579
1001
GENIUS_GENREC_14
1002
{
1000
PYDIR
1011
-154.9321302725818
1021
581.6093107871579
1031
0.0
1002
}
1002
{
1000
PXDIR
1011
145.0678697274181
1021
199.1049668957557
1031
0.0
1002
}
1002
{
1000
PORI
1011
-154.9321302725818
1021
199.1049668957557
1031
0.0
1002
}
1002
{
1000
PINS
1011
-154.9321302725818
1021
199.1049668957557
1031
0.0
1002
}
1002
{
1000
PINS2
1011
145.0678697274181
1021
581.6093107871579
1031
0.0
1002
}
1002
{
1000
C
1070
     1
1002
}
1001
GENIUS_GENODEF_13
1002
{
1000
HIER
1070
     0
1002
}
1002
{
1000
MANEDIT
1070
     0
1002
}
1002
{
1000
NOSEL
1070
     0
1002
}
1002
{
1000
BEHIND
1070
     0
1002
}
1002
{
1000
OTHER
1070
     0
1002
}
1002
{
1000
REACTOR
1002
}
1001
GENIUS_GENOBJ-N-REC_13
1002
{
1000
OWNER
1000
GEN
1002
}
  0
LWPOLYLINE
  5
189B
330
1F
100
AcDbEntity
  8
LOGO
 62
     4
100
AcDbPolyline
 90
        4
 70
     1
 43
0.0
 10
-154.9321302725818
 20
199.1049668957557
 10
145.0678697274181
 20
199.1049668957557
 10
145.0678697274181
 20
169.1093107871578
 10
-154.9321302725818
 20
169.1093107871578
1001
GENIUS_GENREC_14
1002
{
1000
PYDIR
1011
-154.9321302725818
1021
169.1093107871578
1031
0.0
1002
}
1002
{
1000
PXDIR
1011
145.0678697274181
1021
199.1049668957557
1031
0.0
1002
}
1002
{
1000
PORI
1011
-154.9321302725818
1021
199.1049668957557
1031
0.0
1002
}
1002
{
1000
PINS
1011
-154.9321302725818
1021
199.1049668957557
1031
0.0
1002
}
1002
{
1000
PINS2
1011
145.0678697274181
1021
169.1093107871578
1031
0.0
1002
}
1002
{
1000
C
1070
     1
1002
}
1001
GENIUS_GENOBJ-N-REC_13
1002
{
1000
OWNER
1000
GEN
1002
}
1001
GENIUS_GENODEF_13
1002
{
1000
HIER
1070
     0
1002
}
1002
{
1000
MANEDIT
1070
     0
1002
}
1002
{
1000
NOSEL
1070
     0
1002
}
1002
{
1000
BEHIND
1070
     0
1002
}
1002
{
1000
OTHER
1070
     0
1002
}
1002
{
1000
REACTOR
1002
}
  0
TEXT
  5
189C
330
1F
100
AcDbEntity
  8
LOGO
 62
     7
100
AcDbText
 10
-87.20392492452083
 20
185.9643803742832
 30
0.0
 40
3.999420814479637
  1
Order example:
 41
0.8
  7
CHINESET
100
AcDbText
  0
TEXT
  5
189D
330
1F
100
AcDbEntity
  8
LOGO
 62
     7
100
AcDbText
 10
-86.4863957565385
 20
191.5947367904245
 30
0.0
 40
5.999131221719456
  1
訂購代號：
  7
CHINESET
100
AcDbText
  0
LINE
  5
189E
330
1F
100
AcDbEntity
  8
LOGO
 62
     4
100
AcDbLine
 10
-88.94168683366775
 20
169.1093107871582
 30
0.0
 11
-88.94168683366775
 21
199.1049668957557
 31
0.0
  0
TEXT
  5
189F
330
1F
100
AcDbEntity
  8
LOGO
  6
Continuous
100
AcDbText
 10
-144.1575557652907
 20
175.0019121623002
 30
0.0
 40
4.499348416289592
  1
金器工業股份有限公司
  7
CHINESET
100
AcDbText
  0
TEXT
  5
18A0
330
1F
100
AcDbEntity
  8
LOGO
  6
Continuous
100
AcDbText
 10
-152.4219686538281
 20
170.5016822264836
 30
0.0
 40
2.999565610859728
  1
MINDMAN INDUSTRIAL CO., LTD.
 41
0.85
  7
CHINESET
100
AcDbText
  0
LINE
  5
18A1
330
1F
100
AcDbEntity
  8
LOGO
 62
     4
100
AcDbLine
 10
-88.94168683366775
 20
193.1058356740362
 30
0.0
 11
-132.935315792944
 21
193.1058356740362
 31
0.0
  0
LINE
  5
18A2
330
1F
100
AcDbEntity
  8
LOGO
 62
     4
100
AcDbLine
 10
-88.94168683366775
 20
187.1067044523167
 30
0.0
 11
-132.935315792944
 21
187.1067044523167
 31
0.0
  0
LINE
  5
18A3
330
1F
100
AcDbEntity
  8
LOGO
 62
     4
100
AcDbLine
 10
-88.94168683366775
 20
181.1075732305975
 30
0.0
 11
-154.9321302725818
 21
181.1075732305975
 31
0.0
  0
LINE
  5
18A4
330
1F
100
AcDbEntity
  8
LOGO
 62
     4
100
AcDbLine
 10
-132.935315792944
 20
181.1075732305975
 30
0.0
 11
-132.935315792944
 21
199.1049668957557
 31
0.0
  0
TEXT
  5
18A5
330
1F
100
AcDbEntity
  8
LOGO
100
AcDbText
 10
-102.867746866937
 20
182.6073560360269
 30
0.0
 40
2.999565610859728
  1
mm
  7
CHINESET
 72
     1
 11
-99.1539989677774
 21
184.1071388414568
 31
0.0
100
AcDbText
 73
     2
  0
TEXT
  5
18A6
330
1F
100
AcDbEntity
  8
LOGO
100
AcDbText
 10
-104.4389479011969
 20
194.6056184794659
 30
0.0
 40
2.999565610859728
  1
1 : 1
  7
CHINESET
 72
     1
 11
-99.1539989677774
 21
196.1054012848958
 31
0.0
100
AcDbText
 73
     2
  0
LINE
  5
18A7
330
1F
100
AcDbEntity
  8
LOGO
 62
     4
100
AcDbLine
 10
-108.938790906066
 20
181.1075732305975
 30
0.0
 11
-108.938790906066
 21
199.1049668957557
 31
0.0
  0
CIRCLE
  5
18A8
330
1F
100
AcDbEntity
  8
LOGO
  6
Continuous
100
AcDbCircle
 10
-103.3847199978236
 20
190.1126861559684
 30
0.0
 40
1.741618395480947
  0
CIRCLE
  5
18A9
330
1F
100
AcDbEntity
  8
LOGO
  6
Continuous
100
AcDbCircle
 10
-103.3847199978236
 20
190.1126861559684
 30
0.0
 40
1.020434202998395
  0
LINE
  5
18AA
330
1F
100
AcDbEntity
  8
LOGO
100
AcDbLine
 10
-92.44018791176882
 20
188.3710677604872
 30
0.0
 11
-92.44018791176882
 21
191.8543045514497
 31
0.0
  0
LINE
  5
18AB
330
1F
100
AcDbEntity
  8
LOGO
100
AcDbLine
 10
-97.90006160793518
 20
189.0922519529702
 30
0.0
 11
-97.90006160793518
 21
191.133120358967
 31
0.0
  0
LINE
  5
18AC
330
1F
100
AcDbEntity
  8
LOGO
  6
Continuous
100
AcDbLine
 10
-97.90006160793518
 20
191.133120358967
 30
0.0
 11
-92.44018791176882
 21
191.8543045514497
 31
0.0
  0
LINE
  5
18AD
330
1F
100
AcDbEntity
  8
LOGO
  6
Continuous
100
AcDbLine
 10
-97.90006160793518
 20
189.0922519529702
 30
0.0
 11
-92.44018791176882
 21
188.3710677604872
 31
0.0
  0
TEXT
  5
18AE
330
1F
100
AcDbEntity
  8
LOGO
100
AcDbText
 10
-130.4620132557752
 20
194.6070946436444
 30
196.5865886400747
 40
2.999565610859728
  1
比例 Scale:
 41
0.9
  7
CHINESET
 72
     4
 11
-120.937053349505
 21
196.1054012848958
 31
196.5865886400747
100
AcDbText
  0
TEXT
  5
18AF
330
1F
100
AcDbEntity
  8
LOGO
100
AcDbText
 10
-130.6347560967578
 20
188.6486809505173
 30
196.5865886400747
 40
2.999565610859728
  1
投影  View:
 41
0.9
  7
CHINESET
 72
     4
 11
-120.937053349505
 21
190.1062700631763
 31
196.5865886400747
100
AcDbText
  0
TEXT
  5
18B0
330
1F
100
AcDbEntity
  8
LOGO
100
AcDbText
 10
-130.3414949946246
 20
182.6073560360269
 30
196.5865886400747
 40
2.999565610859728
  1
單位  Unit:
 41
0.9
  7
CHINESET
 72
     4
 11
-120.937053349505
 21
184.1071388414568
 31
196.5865886400747
100
AcDbText
  0
SOLID
  5
18B1
330
1F
100
AcDbEntity
  8
LOGO
 62
     5
100
AcDbTrace
 10
-151.8200328119485
 20
186.0939241041076
 30
0.0
 11
-150.5230993504144
 21
186.0939241041073
 31
0.0
 12
-145.1117562867723
 22
198.3924310669315
 32
0.0
 13
-143.8148228252375
 23
198.3924310669308
 33
0.0
  0
SOLID
  5
18B2
330
1F
100
AcDbEntity
  8
LOGO
 62
     5
100
AcDbTrace
 10
-149.9864372283989
 20
186.0939241041076
 30
0.0
 11
-148.6895037668648
 21
186.0939241041076
 31
0.0
 12
-143.8148228252375
 22
197.408550509905
 32
0.0
 13
-145.1117562867723
 23
192.6531278176132
 33
0.0
  0
SOLID
  5
18B3
330
1F
100
AcDbEntity
  8
LOGO
 62
     2
100
AcDbTrace
 10
-150.5230993504144
 20
186.0939241041073
 30
0.0
 11
-149.9864372283989
 21
186.0939241041076
 31
0.0
 12
-143.8148228252375
 22
198.3924310669308
 32
0.0
 13
-143.2781607032227
 23
198.3924310669308
 33
0.0
  0
SOLID
  5
18B4
330
1F
100
AcDbEntity
  8
LOGO
 62
     5
100
AcDbTrace
 10
-153.899335197831
 20
181.6217397539903
 30
0.0
 11
-153.4521167628188
 21
181.6217397539903
 31
0.0
 12
-152.1927148411246
 22
183.8578319290488
 32
0.0
 13
-151.7454964061137
 23
183.8578319290488
 33
0.0
  0
SOLID
  5
18B5
330
1F
100
AcDbEntity
  8
LOGO
 62
     5
100
AcDbTrace
 10
-152.1927148411246
 20
183.8578319290488
 30
0.0
 11
-151.7454964061137
 21
183.8578319290488
 31
0.0
 12
-152.1927148411246
 22
181.6217397539903
 32
0.0
 13
-151.7454964061137
 23
181.6217397539903
 33
0.0
  0
SOLID
  5
18B6
330
1F
100
AcDbEntity
  8
LOGO
 62
     5
100
AcDbTrace
 10
-152.1927148411246
 20
181.6217397539903
 30
0.0
 11
-151.7454964061137
 21
181.6217397539903
 31
0.0
 12
-150.4860944844174
 22
183.8578319290488
 32
0.0
 13
-150.0388760494058
 23
183.8578319290488
 33
0.0
  0
SOLID
  5
18B7
330
1F
100
AcDbEntity
  8
LOGO
 62
     5
100
AcDbTrace
 10
-150.4860944844174
 20
183.8578319290488
 30
0.0
 11
-150.0388760494058
 21
183.8578319290488
 31
0.0
 12
-150.4860944844174
 22
181.6217397539903
 32
0.0
 13
-150.0388760494058
 23
181.6217397539903
 33
0.0
  0
POLYLINE
  5
18B8
330
1F
100
AcDbEntity
  8
LOGO
 62
     5
100
AcDb2dPolyline
 66
     1
 10
0.0
 20
0.0
 30
0.0
 40
0.4479351312217194
 41
0.4479351312217194
  0
VERTEX
  5
18B9
330
18B8
100
AcDbEntity
  8
LOGO
 62
     5
100
AcDbVertex
100
AcDb2dVertex
 10
-135.4954848897032
 20
182.9633950590253
 30
0.0
 42
1.0
  0
VERTEX
  5
18BA
330
18B8
100
AcDbEntity
  8
LOGO
 62
     5
100
AcDbVertex
100
AcDb2dVertex
 10
-136.8392902833686
 20
182.9633950590253
 30
0.0
 42
1.0
  0
SEQEND
  5
18BB
330
18B8
100
AcDbEntity
  8
LOGO
 62
     5
  0
POLYLINE
  5
18BC
330
1F
100
AcDbEntity
  8
LOGO
 62
     5
100
AcDb2dPolyline
 66
     1
 10
0.0
 20
0.0
 30
0.0
 70
     1
  0
VERTEX
  5
18BD
330
18BC
100
AcDbEntity
  8
LOGO
 62
     5
100
AcDbVertex
100
AcDb2dVertex
 10
-139.3724232228921
 20
182.7397858415192
 30
0.0
 42
1.000000057330635
  0
VERTEX
  5
18BE
330
18BC
100
AcDbEntity
  8
LOGO
 62
     5
100
AcDbVertex
100
AcDb2dVertex
 10
-138.0307679178568
 20
182.7397858415192
 30
0.0
 42
1.000000057330635
  0
SEQEND
  5
18BF
330
18BC
100
AcDbEntity
  8
LOGO
 62
     5
  0
CIRCLE
  5
18C0
330
1F
100
AcDbEntity
  8
LOGO
 62
     5
100
AcDbCircle
 10
-138.7015955703734
 20
182.7397858415192
 30
0.0
 40
0.6708276525176471
  0
POLYLINE
  5
18C1
330
1F
100
AcDbEntity
  8
LOGO
 62
     5
100
AcDb2dPolyline
 66
     1
 10
0.0
 20
0.0
 30
0.0
 70
     1
 40
0.4479351312217194
 41
0.4479351312217194
  0
VERTEX
  5
18C2
330
18C1
100
AcDbEntity
  8
LOGO
 62
     5
100
AcDbVertex
100
AcDb2dVertex
 10
-139.5974658328175
 20
182.7397858415192
 30
0.0
 42
1.0
  0
VERTEX
  5
18C3
330
18C1
100
AcDbEntity
  8
LOGO
 62
     5
100
AcDbVertex
100
AcDb2dVertex
 10
-137.8057253079307
 20
182.7397858415192
 30
0.0
 42
1.0
  0
SEQEND
  5
18C4
330
18C1
100
AcDbEntity
  8
LOGO
 62
     5
  0
LINE
  5
18C5
330
1F
100
AcDbEntity
  8
LOGO
100
AcDbLine
 10
-135.2729507165131
 20
181.6217397539903
 30
0.0
 11
-135.2729507165131
 21
182.9633950590253
 31
0.0
  0
SOLID
  5
18C6
330
1F
100
AcDbEntity
  8
LOGO
 62
     5
100
AcDbTrace
 10
-138.0308126396983
 20
183.8578319290488
 30
0.0
 11
-137.5835942046874
 21
183.8578319290488
 31
0.0
 12
-138.0308126396983
 22
181.6217397539903
 32
0.0
 13
-137.5835942046874
 23
181.6217397539903
 33
0.0
  0
SOLID
  5
18C7
330
1F
100
AcDbEntity
  8
LOGO
 62
     5
100
AcDbTrace
 10
-137.0618244565601
 20
181.6217397539903
 30
0.0
 11
-136.6146060215478
 21
181.6217397539903
 31
0.0
 12
-137.0618244565601
 22
183.8578319290488
 32
0.0
 13
-136.6146060215478
 23
183.8578319290488
 33
0.0
  0
SOLID
  5
18C8
330
1F
100
AcDbEntity
  8
LOGO
 62
     5
100
AcDbTrace
 10
-135.720169151524
 20
182.9633950590253
 30
0.0
 11
-135.2729507165131
 21
182.9633950590253
 31
0.0
 12
-135.720169151524
 22
181.6217397539903
 32
0.0
 13
-135.2729507165131
 23
181.6217397539903
 33
0.0
  0
SOLID
  5
18C9
330
1F
100
AcDbEntity
  8
LOGO
 62
     5
100
AcDbTrace
 10
-137.1065463000614
 20
197.408550509905
 30
0.0
 11
-138.4034797615948
 21
192.6531278176132
 31
0.0
 12
-137.1065463000614
 22
186.0939241041073
 32
0.0
 13
-138.4034797615948
 23
186.0939241041073
 33
0.0
  0
SOLID
  5
18CA
330
1F
100
AcDbEntity
  8
LOGO
 62
     5
100
AcDbTrace
 10
-136.5698841780465
 20
186.0939241041073
 30
0.0
 11
-135.2729507165131
 21
186.0939241041073
 31
0.0
 12
-136.5698841780465
 22
198.3924310669308
 32
0.0
 13
-135.2729507165131
 23
198.3924310669315
 33
0.0
  0
SOLID
  5
18CB
330
1F
100
AcDbEntity
  8
LOGO
 62
     2
100
AcDbTrace
 10
-137.1065463000614
 20
198.3924310669315
 30
0.0
 11
-136.5698841780465
 21
198.3924310669308
 31
0.0
 12
-137.1065463000614
 22
186.0939241041073
 32
0.0
 13
-136.5698841780465
 23
186.0939241041073
 33
0.0
  0
POLYLINE
  5
18CC
330
1F
100
AcDbEntity
  8
LOGO
 62
     5
100
AcDb2dPolyline
 66
     1
 10
0.0
 20
0.0
 30
0.0
 40
0.4479351312217194
 41
0.4479351312217194
  0
VERTEX
  5
18CD
330
18CC
100
AcDbEntity
  8
LOGO
 62
     5
100
AcDbVertex
100
AcDb2dVertex
 10
-141.9056456061007
 20
182.9633950590253
 30
0.0
 42
1.0
  0
VERTEX
  5
18CE
330
18CC
100
AcDbEntity
  8
LOGO
 62
     5
100
AcDbVertex
100
AcDb2dVertex
 10
-143.2494509997662
 20
182.9633950590253
 30
0.0
 42
1.0
  0
SEQEND
  5
18CF
330
18CC
100
AcDbEntity
  8
LOGO
 62
     5
  0
POLYLINE
  5
18D0
330
1F
100
AcDbEntity
  8
LOGO
 62
     5
100
AcDb2dPolyline
 66
     1
 10
0.0
 20
0.0
 30
0.0
 40
0.4479351312217194
 41
0.4479351312217194
  0
VERTEX
  5
18D1
330
18D0
100
AcDbEntity
  8
LOGO
 62
     5
100
AcDbVertex
100
AcDb2dVertex
 10
-140.5639903010667
 20
182.9633950590253
 30
0.0
 42
1.0
  0
VERTEX
  5
18D2
330
18D0
100
AcDbEntity
  8
LOGO
 62
     5
100
AcDbVertex
100
AcDb2dVertex
 10
-141.9077956947315
 20
182.9633950590253
 30
0.0
 42
1.0
  0
SEQEND
  5
18D3
330
18D0
100
AcDbEntity
  8
LOGO
 62
     5
  0
POLYLINE
  5
18D4
330
1F
100
AcDbEntity
  8
LOGO
 62
     5
100
AcDb2dPolyline
 66
     1
 10
0.0
 20
0.0
 30
0.0
 40
0.4479351312217194
 41
0.4479351312217194
  0
VERTEX
  5
18D5
330
18D4
100
AcDbEntity
  8
LOGO
 62
     5
100
AcDbVertex
100
AcDb2dVertex
 10
-146.9741510174642
 20
182.9633950590253
 30
0.0
 42
1.0
  0
VERTEX
  5
18D6
330
18D4
100
AcDbEntity
  8
LOGO
 62
     5
100
AcDbVertex
100
AcDb2dVertex
 10
-148.317956411129
 20
182.9633950590253
 30
0.0
 42
1.0
  0
SEQEND
  5
18D7
330
18D4
100
AcDbEntity
  8
LOGO
 62
     5
  0
SOLID
  5
18D8
330
1F
100
AcDbEntity
  8
LOGO
 62
     5
100
AcDbTrace
 10
-148.5404905843197
 20
183.8578319290488
 30
0.0
 11
-148.0932721493088
 21
183.8578319290488
 31
0.0
 12
-148.5404905843197
 22
181.6217397539903
 32
0.0
 13
-148.0932721493088
 23
181.6217397539903
 33
0.0
  0
SOLID
  5
18D9
330
1F
100
AcDbEntity
  8
LOGO
 62
     5
100
AcDbTrace
 10
-147.1988352792843
 20
182.9633950590253
 30
0.0
 11
-146.7516168442721
 21
182.9633950590253
 31
0.0
 12
-147.1988352792843
 22
181.6217397539903
 32
0.0
 13
-146.7516168442721
 23
181.6217397539903
 33
0.0
  0
POLYLINE
  5
18DA
330
1F
100
AcDbEntity
  8
LOGO
 62
     5
100
AcDb2dPolyline
 66
     1
 10
0.0
 20
0.0
 30
0.0
 70
     1
 40
0.4479351312217194
 41
0.4479351312217194
  0
VERTEX
  5
18DB
330
18DA
100
AcDbEntity
  8
LOGO
 62
     5
100
AcDbVertex
100
AcDb2dVertex
 10
-146.0076265492157
 20
182.7397858415192
 30
0.0
 42
1.0
  0
VERTEX
  5
18DC
330
18DA
100
AcDbEntity
  8
LOGO
 62
     5
100
AcDbVertex
100
AcDb2dVertex
 10
-144.2158860243282
 20
182.7397858415192
 30
0.0
 42
1.0
  0
SEQEND
  5
18DD
330
18DA
100
AcDbEntity
  8
LOGO
 62
     5
  0
SOLID
  5
18DE
330
1F
100
AcDbEntity
  8
LOGO
 62
     5
100
AcDbTrace
 10
-144.4409733560972
 20
184.5286595815668
 30
0.0
 11
-143.9937549210856
 21
184.5286595815668
 31
0.0
 12
-144.4409733560972
 22
181.6217397539903
 32
0.0
 13
-143.9937549210856
 23
181.6217397539903
 33
0.0
  0
SOLID
  5
18DF
330
1F
100
AcDbEntity
  8
LOGO
 62
     5
100
AcDbTrace
 10
-143.4719851729562
 20
183.8578319290488
 30
0.0
 11
-143.0247667379453
 21
183.8578319290488
 31
0.0
 12
-143.4719851729562
 22
181.6217397539903
 32
0.0
 13
-143.0247667379453
 23
181.6217397539903
 33
0.0
  0
SOLID
  5
18E0
330
1F
100
AcDbEntity
  8
LOGO
 62
     5
100
AcDbTrace
 10
-142.1303298679222
 20
182.9633950590253
 30
0.0
 11
-141.68311143291
 21
182.9633950590253
 31
0.0
 12
-142.1303298679222
 22
181.6217397539903
 32
0.0
 13
-141.68311143291
 23
181.6217397539903
 33
0.0
  0
SOLID
  5
18E1
330
1F
100
AcDbEntity
  8
LOGO
 62
     5
100
AcDbTrace
 10
-140.7886745628868
 20
182.9633950590253
 30
0.0
 11
-140.3414561278753
 21
182.9633950590253
 31
0.0
 12
-140.7886745628868
 22
181.6217397539896
 32
0.0
 13
-140.3414561278753
 23
181.6217397539896
 33
0.0
  0
SOLID
  5
18E2
330
1F
100
AcDbEntity
  8
LOGO
 62
     5
100
AcDbTrace
 10
-149.50947876746
 20
184.1708848335572
 30
0.0
 11
-149.062260332447
 21
184.1708848335572
 31
0.0
 12
-149.50947876746
 22
184.5286595815668
 32
0.0
 13
-149.062260332447
 23
184.5286595815668
 33
0.0
  0
SOLID
  5
18E3
330
1F
100
AcDbEntity
  8
LOGO
 62
     5
100
AcDbTrace
 10
-149.50947876746
 20
183.8578319290488
 30
0.0
 11
-149.062260332447
 21
183.8578319290488
 31
0.0
 12
-149.50947876746
 22
181.6217397539896
 32
0.0
 13
-149.062260332447
 23
181.6217397539903
 33
0.0
  0
SOLID
  5
18E4
330
1F
100
AcDbEntity
  8
LOGO
 62
     5
100
AcDbTrace
 10
-145.1117562867723
 20
186.0939241041076
 30
0.0
 11
-143.8148228252375
 21
186.0939241041076
 31
0.0
 12
-145.1117562867723
 22
192.6531278176132
 32
0.0
 13
-143.8148228252375
 23
197.408550509905
 33
0.0
  0
SOLID
  5
18E5
330
1F
100
AcDbEntity
  8
LOGO
 62
     5
100
AcDbTrace
 10
-143.2781607032227
 20
198.3924310669308
 30
0.0
 11
-141.9812272416893
 21
198.3924310669315
 31
0.0
 12
-143.2781607032227
 22
187.0778046611333
 32
0.0
 13
-141.9812272416893
 23
191.8332273534252
 33
0.0
  0
SOLID
  5
18E6
330
1F
100
AcDbEntity
  8
LOGO
 62
     2
100
AcDbTrace
 10
-143.8148228252375
 20
198.3924310669308
 30
0.0
 11
-143.2781607032227
 21
198.3924310669308
 31
0.0
 12
-143.8148228252375
 22
186.0939241041076
 32
0.0
 13
-143.2781607032227
 23
186.0939241041076
 33
0.0
  0
SOLID
  5
18E7
330
1F
100
AcDbEntity
  8
LOGO
 62
     5
100
AcDbTrace
 10
-143.2781607032227
 20
187.0778046611333
 30
0.0
 11
-141.9812272416893
 21
191.8332273534252
 31
0.0
 12
-137.1065463000614
 22
198.3924310669315
 32
0.0
 13
-138.4034797615948
 23
198.3924310669315
 33
0.0
  0
SOLID
  5
18E8
330
1F
100
AcDbEntity
  8
LOGO
 62
     5
100
AcDbTrace
 10
-143.2781607032227
 20
186.0939241041076
 30
0.0
 11
-141.9812272416893
 21
186.0939241041076
 31
0.0
 12
-137.1065463000614
 22
197.408550509905
 32
0.0
 13
-138.4034797615948
 23
192.6531278176132
 33
0.0
  0
SOLID
  5
18E9
330
1F
100
AcDbEntity
  8
LOGO
 62
     2
100
AcDbTrace
 10
-143.8148228252375
 20
186.0939241041076
 30
0.0
 11
-143.2781607032227
 21
186.0939241041076
 31
0.0
 12
-137.1065463000614
 22
198.3924310669315
 32
0.0
 13
-136.5698841780465
 23
198.3924310669308
 33
0.0
  0
LINE
  5
18EA
330
1F
100
AcDbEntity
  8
LOGO
 62
     4
100
AcDbLine
 10
-27.68688905869431
 20
182.6073560360275
 30
0.0
 11
-27.68688905869431
 21
171.6089487962079
 31
0.0
  0
LINE
  5
18EB
330
1F
100
AcDbEntity
  8
LOGO
 62
     4
100
AcDbLine
 10
-47.68399313109262
 20
182.6073560360275
 30
0.0
 11
-47.68399313109262
 21
171.6089487962079
 31
0.0
  0
LINE
  5
18EC
330
1F
100
AcDbEntity
  8
LOGO
 62
     4
100
AcDbLine
 10
-27.68688905869431
 20
171.6089487962079
 30
0.0
 11
-47.68399313109262
 21
171.6089487962079
 31
0.0
  0
LINE
  5
18ED
330
1F
100
AcDbEntity
  8
LOGO
 62
     4
100
AcDbLine
 10
-13.19932542468768
 20
196.1054012848958
 30
0.0
 11
-47.68399313109262
 21
196.1054012848958
 31
0.0
  0
LINE
  5
18EE
330
1F
100
AcDbEntity
  8
LOGO
 62
     4
100
AcDbLine
 10
-13.19932542468768
 20
187.1067044523167
 30
0.0
 11
-47.68399313109262
 21
187.1067044523167
 31
0.0
  0
LINE
  5
18EF
330
1F
100
AcDbEntity
  8
LOGO
 62
     4
100
AcDbLine
 10
-47.68399313109262
 20
196.1054012848958
 30
0.0
 11
-47.68399313109262
 21
187.1067044523167
 31
0.0
  0
LINE
  5
18F0
330
1F
100
AcDbEntity
  8
LOGO
 62
     4
100
AcDbLine
 10
-13.19932542468768
 20
196.1054012848958
 30
0.0
 11
-13.19932542468768
 21
187.1067044523167
 31
0.0
  0
LINE
  5
18F1
330
1F
100
AcDbEntity
  8
LOGO
 62
     4
100
AcDbLine
 10
-36.6420945275388
 20
187.1067044523167
 30
0.0
 11
-36.6420945275388
 21
182.6073560360275
 31
0.0
  0
TEXT
  5
18F2
330
1F
100
AcDbEntity
  8
LOGO
  6
Continuous
100
AcDbText
 10
-46.4242015580146
 20
189.5504102429211
 30
0.0
 40
4.799999999999999
  1
MAD401H
  7
CHINESET
100
AcDbText
  0
LINE
  5
18F3
330
1F
100
AcDbEntity
  8
LOGO
 62
     4
100
AcDbLine
 10
-27.68688905869431
 20
182.6073560360275
 30
0.0
 11
-47.68399313109262
 21
182.6073560360275
 31
0.0
  0
TEXT
  5
18F4
330
1F
100
AcDbEntity
  8
LOGO
  6
Continuous
100
AcDbText
 10
-41.26698574412808
 20
173.1613506554441
 30
196.5865886400747
 40
2.25
  1
Model
 41
0.8
  7
CHINESET
100
AcDbText
  0
TEXT
  5
18F5
330
1F
100
AcDbEntity
  8
LOGO
100
AcDbText
 10
-41.86586260112676
 20
177.3323657458351
 30
196.5865886400747
 40
3.75
  1
型號
  7
CHINESET
100
AcDbText
  0
LINE
  5
1901
330
1F
100
AcDbEntity
  8
LOGO
  6
Continuous
100
AcDbLine
 10
-11.91196517801199
 20
191.5741780622951
 30
0.0
 11
-7.938469004602666
 21
191.5741780622951
 31
0.0
  0
LINE
  5
1902
330
1F
100
AcDbEntity
  8
LOGO
 62
     4
100
AcDbLine
 10
6.188982220688444
 20
182.6073560360275
 30
0.0
 11
6.188982220688444
 21
171.6089487962079
 31
0.0
  0
LINE
  5
1903
330
1F
100
AcDbEntity
  8
LOGO
 62
     4
100
AcDbLine
 10
-21.12148528382466
 20
182.6073560360275
 30
0.0
 11
-21.12148528382466
 21
171.6089487962079
 31
0.0
  0
LINE
  5
1904
330
1F
100
AcDbEntity
  8
LOGO
 62
     4
100
AcDbLine
 10
6.188982220688444
 20
171.6089487962079
 30
0.0
 11
-21.12148528382466
 21
171.6089487962079
 31
0.0
  0
LINE
  5
1905
330
1F
100
AcDbEntity
  8
LOGO
 62
     4
100
AcDbLine
 10
5.698866160387524
 20
196.1054012848958
 30
0.0
 11
-6.167887334694569
 21
196.1054012848958
 31
0.0
  0
LINE
  5
1906
330
1F
100
AcDbEntity
  8
LOGO
 62
     4
100
AcDbLine
 10
5.698866160387524
 20
187.1067044523167
 30
0.0
 11
-6.167887334694569
 21
187.1067044523167
 31
0.0
  0
LINE
  5
1907
330
1F
100
AcDbEntity
  8
LOGO
 62
     4
100
AcDbLine
 10
-6.167887334694569
 20
196.1054012848958
 30
0.0
 11
-6.167887334694569
 21
187.1067044523167
 31
0.0
  0
LINE
  5
1908
330
1F
100
AcDbEntity
  8
LOGO
 62
     4
100
AcDbLine
 10
5.698866160387524
 20
196.1054012848958
 30
0.0
 11
5.698866160387524
 21
187.1067044523167
 31
0.0
  0
LINE
  5
1909
330
1F
100
AcDbEntity
  8
LOGO
 62
     4
100
AcDbLine
 10
-0.2345105871535225
 20
187.1067044523167
 30
0.0
 11
-0.2345105871535225
 21
182.6073560360275
 31
0.0
  0
LINE
  5
190B
330
1F
100
AcDbEntity
  8
LOGO
 62
     4
100
AcDbLine
 10
6.188982220688444
 20
182.6073560360275
 30
0.0
 11
-21.12148528382466
 21
182.6073560360275
 31
0.0
  0
TEXT
  5
1919
330
1F
100
AcDbEntity
  8
LOGO
  6
Continuous
100
AcDbText
 10
-14.9086757538563
 20
173.1613506554441
 30
196.5865886400747
 40
2.25
  1
Bore size
 41
0.8
  7
CHINESET
100
AcDbText
  0
TEXT
  5
191A
330
1F
100
AcDbEntity
  8
LOGO
100
AcDbText
 10
-18.37640837082051
 20
177.3323657458351
 30
196.5865886400747
 40
3.75
  1
配管口徑代號
  7
CHINESET
100
AcDbText
  0
TEXT
  5
1929
330
1F
100
AcDbEntity
  8
LOGO
100
AcDbText
 10
-87.30188344681122
 20
170.7050678530402
 30
0.0
 40
3.0
  1
01005051
 41
0.7
  7
CHINESET
 72
     1
 11
-80.25188344681124
 21
170.7050678530402
 31
0.0
100
AcDbText
  0
LINE
  5
192A
330
1F
100
AcDbEntity
  8
LOGO
 62
     4
100
AcDbLine
 10
-70.94168683366911
 20
175.1084420088784
 30
0.0
 11
-70.94168683366774
 21
169.1093107871585
 31
0.0
  0
LINE
  5
192B
330
1F
100
AcDbEntity
  8
LOGO
 62
     4
100
AcDbLine
 10
-70.94168683366911
 20
175.1084420088784
 30
0.0
 11
-88.94168683366775
 21
175.1084420088784
 31
0.0
  0
LINE
  5
192C
330
1F
100
AcDbEntity
  8
LOGO
  6
AM_ISO08W050x2
 48
0.3
100
AcDbLine
 10
-105.785567034676
 20
190.1126861559684
 30
0.0
 11
-100.9838729609712
 21
190.1126861559684
 31
0.0
1001
GENIUS_GENOREF_13
1005
1931
  0
LINE
  5
192D
330
1F
100
AcDbEntity
  8
LOGO
  6
AM_ISO08W050x2
 48
0.3
100
AcDbLine
 10
-103.3847199978236
 20
187.711839119116
 30
0.0
 11
-103.3847199978236
 21
192.5135331928208
 31
0.0
1001
GENIUS_GENOREF_13
1005
1930
  0
LINE
  5
192E
330
1F
100
AcDbEntity
  8
LOGO
  6
CENTER
 48
0.5
100
AcDbLine
 10
-98.33669974714917
 20
190.1126861559684
 30
0.0
 11
-91.89039630508728
 21
190.1126861559684
 31
0.0
1001
GENIUS_GENOREF_13
1005
192F
  0
POINT
  5
192F
330
1F
100
AcDbEntity
  8
0
 60
     1
100
AcDbPoint
 10
-2182.927183784027
 20
-759.4863134747757
 30
0.0
1001
GENIUS_GENOBJ-N-CRS_13
1002
{
1000
OWNER
1000
GEN
1002
}
1001
GENIUS_GENOLIS_13
1002
{
1000
ENT
1005
0
1005
0
1005
0
1005
192E
1002
}
1001
GENIUS_GENOENT_13
1002
{
1000
MYREF
1005
192F
1002
}
1002
{
1000
GRP
1005
0
1002
}
1001
GENIUS_GENODEF_13
1002
{
1000
HIER
1070
    10
1002
}
1002
{
1000
MANEDIT
1070
     1
1002
}
1002
{
1000
NOSEL
1070
     0
1002
}
1002
{
1000
BEHIND
1070
     0
1002
}
1002
{
1000
OTHER
1070
     0
1002
}
1002
{
1000
REACTOR
1002
}
  0
POINT
  5
1930
330
1F
100
AcDbEntity
  8
0
 60
     1
100
AcDbPoint
 10
-2194.251769006881
 20
-750.6107269961394
 30
0.0
1001
GENIUS_GENOBJ-N-CRS_13
1002
{
1000
OWNER
1000
GEN
1002
}
1001
GENIUS_GENOLIS_13
1002
{
1000
ENT
1005
0
1005
0
1005
0
1005
192D
1002
}
1001
GENIUS_GENOENT_13
1002
{
1000
MYREF
1005
1930
1002
}
1002
{
1000
GRP
1005
0
1002
}
1001
GENIUS_GENODEF_13
1002
{
1000
HIER
1070
    10
1002
}
1002
{
1000
MANEDIT
1070
     1
1002
}
1002
{
1000
NOSEL
1070
     0
1002
}
1002
{
1000
BEHIND
1070
     0
1002
}
1002
{
1000
OTHER
1070
     0
1002
}
1002
{
1000
REACTOR
1002
}
  0
POINT
  5
1931
330
1F
100
AcDbEntity
  8
0
 60
     1
100
AcDbPoint
 10
-2187.893095309044
 20
-759.4863134747757
 30
0.0
1001
GENIUS_GENOBJ-N-CRS_13
1002
{
1000
OWNER
1000
GEN
1002
}
1001
GENIUS_GENOLIS_13
1002
{
1000
ENT
1005
0
1005
0
1005
0
1005
192C
1002
}
1001
GENIUS_GENOENT_13
1002
{
1000
MYREF
1005
1931
1002
}
1002
{
1000
GRP
1005
0
1002
}
1001
GENIUS_GENODEF_13
1002
{
1000
HIER
1070
    10
1002
}
1002
{
1000
MANEDIT
1070
     1
1002
}
1002
{
1000
NOSEL
1070
     0
1002
}
1002
{
1000
BEHIND
1070
     0
1002
}
1002
{
1000
OTHER
1070
     0
1002
}
1002
{
1000
REACTOR
1002
}
  0
LINE
  5
1D9B
330
1F
100
AcDbEntity
  8
AM_10
  6
CENTER
 62
     1
 48
5.0
100
AcDbLine
 10
-45.88905453788458
 20
435.6338216029095
 30
0.0
 11
-45.88905453788458
 21
515.0736990982856
 31
0.0
  0
LINE
  5
1D9C
330
1F
100
AcDbEntity
  8
AM_10
  6
CENTER
 62
     1
 48
5.0
100
AcDbLine
 10
-35.88905453788459
 20
434.0377124451102
 30
0.0
 11
-35.88905453788459
 21
441.0736990982857
 31
0.0
  0
LINE
  5
1D9D
330
1F
100
AcDbEntity
  8
AM_10
  6
CENTER
 62
     1
 48
5.0
100
AcDbLine
 10
-45.88905453788458
 20
233.0593131679648
 30
0.0
 11
-45.88905453788458
 21
407.5593131679648
 31
0.0
  0
LINE
  5
1D9E
330
1F
100
AcDbEntity
  8
AM_10
  6
CENTER
 62
     1
 48
5.0
100
AcDbLine
 10
-42.88905453788458
 20
338.0593131679648
 30
0.0
 11
-29.66634722484838
 21
338.0593131679648
 31
0.0
  0
LINE
  5
1D9F
330
1F
100
AcDbEntity
  8
AM_10
  6
CENTER
 62
     1
 48
5.0
100
AcDbLine
 10
-35.88905453788459
 20
331.0593131679648
 30
0.0
 11
-35.88905453788459
 21
343.7320789478026
 31
0.0
  0
LINE
  5
1DA0
102
{ACAD_REACTORS
330
1F5A
102
}
330
1F
100
AcDbEntity
  8
AM_10
  6
CENTER
 62
     1
 48
5.0
100
AcDbLine
 10
-70.88807868963167
 20
388.5593131679648
 30
0.0
 11
-94.93905453788462
 21
388.5593131679648
 31
0.0
  0
LINE
  5
1DA1
330
1F
100
AcDbEntity
  8
AM_10
  6
CENTER
 62
     1
 48
5.0
100
AcDbLine
 10
-10.46155453788464
 20
476.5736990982856
 30
0.0
 11
-92.8665545378846
 21
476.5736990982856
 31
0.0
  0
LINE
  5
1DA2
330
1F
100
AcDbEntity
  8
AM_VIS
100
AcDbLine
 10
-80.88905453788461
 20
459.5736990982856
 30
0.0
 11
-64.21935731770799
 21
459.5736990982856
 31
0.0
  0
LINE
  5
1DA3
330
1F
100
AcDbEntity
  8
AM_VIS
100
AcDbLine
 10
-27.55875175806125
 20
459.5736990982856
 30
0.0
 11
-10.88905453788465
 21
459.5736990982856
 31
0.0
  0
LINE
  5
1DA4
102
{ACAD_REACTORS
330
1F51
102
}
330
1F
100
AcDbEntity
  8
AM_VIS
100
AcDbLine
 10
-10.88905453788465
 20
493.5736990982856
 30
0.0
 11
-27.55875175806125
 21
493.5736990982856
 31
0.0
  0
LINE
  5
1DA5
330
1F
100
AcDbEntity
  8
AM_VIS
100
AcDbLine
 10
-64.21935731770799
 20
493.5736990982856
 30
0.0
 11
-80.88905453788465
 21
493.5736990982856
 31
0.0
  0
LINE
  5
1DA6
330
1F
100
AcDbEntity
  8
AM_VIS
100
AcDbLine
 10
-80.88905453788461
 20
460.5736990982856
 30
0.0
 11
-80.88905453788461
 21
492.5736990982856
 31
0.0
  0
LINE
  5
1DA7
330
1F
100
AcDbEntity
  8
AM_VIS
100
AcDbLine
 10
-10.88905453788465
 20
492.5736990982856
 30
0.0
 11
-10.88905453788465
 21
460.5736990982856
 31
0.0
  0
LINE
  5
1DA8
330
1F
100
AcDbEntity
  8
AM_VIS
100
AcDbLine
 10
-37.5824306749665
 20
510.5736990982856
 30
0.0
 11
-54.19567840080268
 21
510.5736990982856
 31
0.0
  0
LINE
  5
1DA9
330
1F
100
AcDbEntity
  8
AM_VIS
100
AcDbLine
 10
-37.70355466520084
 20
509.5736812593986
 30
0.0
 11
-37.58228483867714
 21
510.5736814127469
 31
0.0
  0
LINE
  5
1DAA
330
1F
100
AcDbEntity
  8
AM_VIS
100
AcDbLine
 10
-54.07440730975702
 20
509.5736990982857
 30
0.0
 11
-37.70370176601216
 21
509.5736990982857
 31
0.0
  0
LINE
  5
1DAB
330
1F
100
AcDbEntity
  8
AM_VIS
100
AcDbLine
 10
-54.19582423709204
 20
510.5736814127469
 30
0.0
 11
-54.07455441056834
 21
509.5736812593986
 31
0.0
  0
LINE
  5
1DAC
330
1F
100
AcDbEntity
  8
AM_VIS
100
AcDbLine
 10
-54.19567840080259
 20
442.5736990982857
 30
0.0
 11
-37.5824306749665
 21
442.5736990982857
 31
0.0
  0
LINE
  5
1DAD
330
1F
100
AcDbEntity
  8
AM_VIS
100
AcDbLine
 10
-54.19582423709204
 20
442.5737167838246
 30
0.0
 11
-54.07455441056834
 21
443.5737169371728
 31
0.0
  0
LINE
  5
1DAE
330
1F
100
AcDbEntity
  8
AM_VIS
100
AcDbLine
 10
-37.7037017660121
 20
443.5736990982857
 30
0.0
 11
-54.07440730975702
 21
443.5736990982857
 31
0.0
  0
LINE
  5
1DAF
330
1F
100
AcDbEntity
  8
AM_VIS
100
AcDbLine
 10
-37.70355466520084
 20
443.5737169371728
 30
0.0
 11
-37.58228483867714
 21
442.5737167838244
 31
0.0
  0
LINE
  5
1DB0
330
1F
100
AcDbEntity
  8
AM_VIS
100
AcDbLine
 10
-25.18507281464704
 20
447.7363077321471
 30
0.0
 11
-25.18507281464704
 21
447.8736990982858
 31
0.0
  0
LINE
  5
1DB1
330
1F
100
AcDbEntity
  8
AM_VIS
100
AcDbLine
 10
-25.31757934206217
 20
447.8736990982858
 30
0.0
 11
-24.99503625513197
 21
447.8736990982858
 31
0.0
  0
LINE
  5
1DB2
330
1F
100
AcDbEntity
  8
AM_VIS
100
AcDbLine
 10
-25.69225297130501
 20
447.8736990982858
 30
0.0
 11
-25.31757934206221
 21
447.8736990982858
 31
0.0
  0
LINE
  5
1DB3
330
1F
100
AcDbEntity
  8
AM_VIS
100
AcDbLine
 10
-25.18507281464704
 20
447.8736990982858
 30
0.0
 11
-25.85633130812875
 21
447.8736990982858
 31
0.0
  0
LINE
  5
1DB4
330
1F
100
AcDbEntity
  8
AM_VIS
100
AcDbLine
 10
-34.10413286686634
 20
443.0869013832464
 30
0.0
 11
-34.10413286686634
 21
443.6174307839276
 31
0.0
  0
LINE
  5
1DB5
330
1F
100
AcDbEntity
  8
AM_VIS
100
AcDbLine
 10
-33.65635218801518
 20
443.2478683776645
 30
0.0
 11
-33.65635218801518
 21
443.781001843874
 31
0.0
  0
LINE
  5
1DB6
330
1F
100
AcDbEntity
  8
AM_VIS
100
AcDbLine
 10
-28.3880754256131
 20
445.6873634446049
 30
0.0
 11
-28.3880754256131
 21
446.2633752776492
 31
0.0
  0
LINE
  5
1DB7
330
1F
100
AcDbEntity
  8
AM_VIS
100
AcDbLine
 10
-28.3515219008089
 20
445.70810419063
 30
0.0
 11
-28.3515219008089
 21
446.2845104494707
 31
0.0
  0
LINE
  5
1DB8
330
1F
100
AcDbEntity
  8
AM_VIS
100
AcDbLine
 10
-28.50687438122668
 20
445.6203501195163
 30
0.0
 11
-28.50687438122668
 21
446.1950912796004
 31
0.0
  0
LINE
  5
1DB9
330
1F
100
AcDbEntity
  8
AM_VIS
100
AcDbLine
 10
-66.59303626112222
 20
505.4110904644243
 30
0.0
 11
-66.59303626112222
 21
505.2736990982857
 31
0.0
  0
LINE
  5
1DBA
330
1F
100
AcDbEntity
  8
AM_VIS
100
AcDbLine
 10
-66.78307282063719
 20
505.2736990982857
 30
0.0
 11
-66.46052973370706
 21
505.2736990982857
 31
0.0
  0
LINE
  5
1DBB
330
1F
100
AcDbEntity
  8
AM_VIS
100
AcDbLine
 10
-66.46052973370706
 20
505.2736990982857
 30
0.0
 11
-66.08585610446425
 21
505.2736990982857
 31
0.0
  0
LINE
  5
1DBC
330
1F
100
AcDbEntity
  8
AM_VIS
100
AcDbLine
 10
-66.59303626112222
 20
505.2736990982857
 30
0.0
 11
-65.92177776764046
 21
505.2736990982857
 31
0.0
  0
LINE
  5
1DBD
330
1F
100
AcDbEntity
  8
AM_VIS
100
AcDbLine
 10
-57.6739762089029
 20
510.060496813325
 30
0.0
 11
-57.6739762089029
 21
509.5299674126438
 31
0.0
  0
LINE
  5
1DBE
330
1F
100
AcDbEntity
  8
AM_VIS
100
AcDbLine
 10
-58.12175688775409
 20
509.8995298189069
 30
0.0
 11
-58.12175688775409
 21
509.3663963526974
 31
0.0
  0
LINE
  5
1DBF
330
1F
100
AcDbEntity
  8
AM_VIS
100
AcDbLine
 10
-63.39003365015617
 20
507.4600347519665
 30
0.0
 11
-63.39003365015617
 21
506.884022918922
 31
0.0
  0
LINE
  5
1DC0
330
1F
100
AcDbEntity
  8
AM_VIS
100
AcDbLine
 10
-63.42658717496033
 20
507.4392940059415
 30
0.0
 11
-63.42658717496033
 21
506.8628877471008
 31
0.0
  0
LINE
  5
1DC1
330
1F
100
AcDbEntity
  8
AM_VIS
100
AcDbLine
 10
-63.27123469454258
 20
507.5270480770551
 30
0.0
 11
-63.27123469454258
 21
506.952306916971
 31
0.0
  0
LINE
  5
1DC2
330
1F
100
AcDbEntity
  8
AM_VIS
100
AcDbLine
 10
-65.47815375459482
 20
506.1797321300494
 30
0.0
 11
-65.47815375459482
 21
505.578305488959
 31
0.0
  0
LINE
  5
1DC3
330
1F
100
AcDbEntity
  8
AM_VIS
100
AcDbLine
 10
-64.99838874153997
 20
506.4916426488208
 30
0.0
 11
-64.99838874153997
 21
505.8966141357272
 31
0.0
  0
LINE
  5
1DC4
330
1F
100
AcDbEntity
  8
AM_VIS
100
AcDbLine
 10
-63.77841485120055
 20
507.236718968813
 30
0.0
 11
-63.77841485120055
 21
506.6564314805072
 31
0.0
  0
LINE
  5
1DC5
330
1F
100
AcDbEntity
  8
AM_VIS
100
AcDbLine
 10
-60.54342790603084
 20
508.9078813391738
 30
0.0
 11
-60.54342790603084
 21
508.3581188851399
 31
0.0
  0
LINE
  5
1DC6
330
1F
100
AcDbEntity
  8
AM_VIS
100
AcDbLine
 10
-60.10021641778019
 20
509.1051128090884
 30
0.0
 11
-60.10021641778019
 21
508.5587405711899
 31
0.0
  0
LINE
  5
1DC7
330
1F
100
AcDbEntity
  8
AM_VIS
100
AcDbLine
 10
-54.88905453788461
 20
510.5736990982856
 30
0.0
 11
-56.09934346621566
 21
510.5736990982856
 31
0.0
  0
LINE
  5
1DC8
330
1F
100
AcDbEntity
  8
AM_VIS
100
AcDbLine
 10
-54.88905453788461
 20
510.5736990982856
 30
0.0
 11
-54.88905453788461
 21
510.3967681488613
 31
0.0
  0
LINE
  5
1DC9
330
1F
100
AcDbEntity
  8
AM_VIS
100
AcDbLine
 10
-56.10445923762353
 20
510.5721623991549
 30
0.0
 11
-56.10445923762353
 21
510.0497428732086
 31
0.0
  0
LINE
  5
1DCA
330
1F
100
AcDbEntity
  8
AM_VIS
100
AcDbLine
 10
-57.46607803657912
 20
510.1329381675894
 30
0.0
 11
-57.46607803657912
 21
509.6035723482798
 31
0.0
  0
LINE
  5
1DCB
330
1F
100
AcDbEntity
  8
AM_VIS
100
AcDbLine
 10
-56.89949840211437
 20
510.3230713281901
 30
0.0
 11
-56.89949840211437
 21
509.7967351713577
 31
0.0
  0
LINE
  5
1DCC
330
1F
100
AcDbEntity
  8
AM_VIS
100
AcDbLine
 10
-57.37012503396818
 20
510.1658859914303
 30
0.0
 11
-57.37012503396818
 21
509.6370476925216
 31
0.0
  0
LINE
  5
1DCD
330
1F
100
AcDbEntity
  8
AM_VIS
100
AcDbLine
 10
-61.28363678331544
 20
508.5620850764601
 30
0.0
 11
-61.28363678331544
 21
508.0062751538473
 31
0.0
  0
LINE
  5
1DCE
330
1F
100
AcDbEntity
  8
AM_VIS
100
AcDbLine
 10
-60.81757934206217
 20
508.7822250995024
 30
0.0
 11
-60.81757934206217
 21
508.2302805178113
 31
0.0
  0
LINE
  5
1DCF
330
1F
100
AcDbEntity
  8
AM_VIS
100
AcDbLine
 10
-63.49055584336764
 20
507.4028598360204
 30
0.0
 11
-63.49055584336764
 21
506.82575938834
 31
0.0
  0
LINE
  5
1DD0
330
1F
100
AcDbEntity
  8
AM_VIS
100
AcDbLine
 10
-63.43572555616137
 20
507.4340998762465
 30
0.0
 11
-63.43572555616137
 21
506.8575947554888
 31
0.0
  0
ARC
  5
1DD1
330
1F
100
AcDbEntity
  8
AM_VIS
100
AcDbCircle
 10
-45.88905453788458
 20
476.5736990982857
 30
0.0
 40
35.5
100
AcDbArc
 50
119.3168488158827
 51
119.5369880495884
  0
ARC
  5
1DD2
330
1F
100
AcDbEntity
  8
AM_VIS
100
AcDbCircle
 10
-45.88905453788458
 20
476.5736990982857
 30
0.0
 40
35.5
100
AcDbArc
 50
119.5369880495884
 51
119.6048195306093
  0
LINE
  5
1DD3
330
1F
100
AcDbEntity
  8
AM_VIS
100
AcDbLine
 10
-63.43572568540702
 20
507.4341001036369
 30
0.0
 11
-63.4265873062273
 21
507.439294236888
 31
0.0
  0
ARC
  5
1DD4
330
1F
100
AcDbEntity
  8
AM_VIS
100
AcDbCircle
 10
-45.88905453788458
 20
476.5736990982857
 30
0.0
 40
35.5
100
AcDbArc
 50
119.6217845277636
 51
119.7236346022984
  0
LINE
  5
1DD5
330
1F
100
AcDbEntity
  8
AM_VIS
100
AcDbLine
 10
-61.28376430220021
 20
508.5623548253842
 30
0.0
 11
-60.81777644371612
 21
508.7826420878822
 31
0.0
  0
LINE
  5
1DD6
330
1F
100
AcDbEntity
  8
AM_VIS
100
AcDbLine
 10
-62.32174986341357
 20
508.0436827994843
 30
0.0
 11
-61.28499719144034
 21
508.5647916258165
 31
0.0
  0
LINE
  5
1DD7
330
1F
100
AcDbEntity
  8
AM_VIS
100
AcDbLine
 10
-62.83289950882235
 20
507.7698927788231
 30
0.0
 11
-62.32115293089435
 21
508.0424604847504
 31
0.0
  0
LINE
  5
1DD8
330
1F
100
AcDbEntity
  8
AM_VIS
100
AcDbLine
 10
-63.11137623970665
 20
507.6164271309474
 30
0.0
 11
-62.83264266279508
 21
507.7694077607921
 31
0.0
  0
LINE
  5
1DD9
330
1F
100
AcDbEntity
  8
AM_VIS
100
AcDbLine
 10
-63.27126557474008
 20
507.5271033987834
 30
0.0
 11
-63.11134529667433
 21
507.6163697670737
 31
0.0
  0
LINE
  5
1DDA
330
1F
100
AcDbEntity
  8
AM_VIS
100
AcDbLine
 10
-56.109028497299
 20
510.5707894048483
 30
0.0
 11
-56.09934353529064
 21
510.5736993281848
 31
0.0
  0
LINE
  5
1DDB
330
1F
100
AcDbEntity
  8
AM_VIS
100
AcDbLine
 10
-56.89988515084607
 20
510.3243068495709
 30
0.0
 11
-56.10933500780607
 21
510.5717685850868
 31
0.0
  0
LINE
  5
1DDC
330
1F
100
AcDbEntity
  8
AM_VIS
100
AcDbLine
 10
-57.37026388560394
 20
510.1663014840587
 30
0.0
 11
-56.89966469573284
 21
510.3235689368228
 31
0.0
  0
LINE
  5
1DDD
330
1F
100
AcDbEntity
  8
AM_VIS
100
AcDbLine
 10
-58.12188066137395
 20
509.8998741059659
 30
0.0
 11
-57.67410418595756
 21
510.0608528990834
 31
0.0
  0
LINE
  5
1DDE
330
1F
100
AcDbEntity
  8
AM_VIS
100
AcDbLine
 10
-59.10932167205323
 20
509.5220981504865
 30
0.0
 11
-58.12265342119838
 21
509.9018591290133
 31
0.0
  0
LINE
  5
1DDF
330
1F
100
AcDbEntity
  8
AM_VIS
100
AcDbLine
 10
-60.10100728272431
 20
509.106998449388
 30
0.0
 11
-59.10966413574112
 21
509.5227821716024
 31
0.0
  0
LINE
  5
1DE0
330
1F
100
AcDbEntity
  8
AM_VIS
100
AcDbLine
 10
-60.54359258563181
 20
508.9082513901237
 30
0.0
 11
-60.1003833039743
 21
509.1054878184658
 31
0.0
  0
LINE
  5
1DE1
330
1F
100
AcDbEntity
  8
AM_VIS
100
AcDbLine
 10
-66.7831227942012
 20
505.2737682104718
 30
0.0
 11
-66.59309576049503
 21
505.411172750565
 31
0.0
  0
LINE
  5
1DE2
330
1F
100
AcDbEntity
  8
AM_VIS
100
AcDbLine
 10
-65.47842598132977
 20
506.1801505610576
 30
0.0
 11
-64.99876128711355
 21
506.4922152767076
 31
0.0
  0
LINE
  5
1DE3
330
1F
100
AcDbEntity
  8
AM_VIS
100
AcDbLine
 10
-26.29995532117445
 20
446.967666066522
 30
0.0
 11
-26.29995532117445
 21
447.5690927076124
 31
0.0
  0
LINE
  5
1DE4
330
1F
100
AcDbEntity
  8
AM_VIS
100
AcDbLine
 10
-26.7797203342293
 20
446.6557555477505
 30
0.0
 11
-26.7797203342293
 21
447.2507840608442
 31
0.0
  0
LINE
  5
1DE5
330
1F
100
AcDbEntity
  8
AM_VIS
100
AcDbLine
 10
-27.99969422456872
 20
445.9106792277583
 30
0.0
 11
-27.99969422456872
 21
446.4909667160642
 31
0.0
  0
LINE
  5
1DE6
330
1F
100
AcDbEntity
  8
AM_VIS
100
AcDbLine
 10
-31.23468116973842
 20
444.2395168573975
 30
0.0
 11
-31.23468116973842
 21
444.7892793114315
 31
0.0
  0
LINE
  5
1DE7
330
1F
100
AcDbEntity
  8
AM_VIS
100
AcDbLine
 10
-31.67789265798908
 20
444.042285387483
 30
0.0
 11
-31.67789265798908
 21
444.5886576253815
 31
0.0
  0
LINE
  5
1DE8
330
1F
100
AcDbEntity
  8
AM_VIS
100
AcDbLine
 10
-36.88905453788462
 20
442.5736990982857
 30
0.0
 11
-35.67876560955352
 21
442.5736990982857
 31
0.0
  0
LINE
  5
1DE9
330
1F
100
AcDbEntity
  8
AM_VIS
100
AcDbLine
 10
-36.88905453788462
 20
442.5736990982857
 30
0.0
 11
-36.88905453788462
 21
442.7506300477102
 31
0.0
  0
LINE
  5
1DEA
330
1F
100
AcDbEntity
  8
AM_VIS
100
AcDbLine
 10
-35.67364983814571
 20
442.5752357974164
 30
0.0
 11
-35.67364983814571
 21
443.0976553233628
 31
0.0
  0
LINE
  5
1DEB
330
1F
100
AcDbEntity
  8
AM_VIS
100
AcDbLine
 10
-34.31203103919012
 20
443.014460028982
 30
0.0
 11
-34.31203103919012
 21
443.5438258482916
 31
0.0
  0
LINE
  5
1DEC
330
1F
100
AcDbEntity
  8
AM_VIS
100
AcDbLine
 10
-34.87861067365486
 20
442.8243268683813
 30
0.0
 11
-34.87861067365486
 21
443.3506630252137
 31
0.0
  0
LINE
  5
1DED
330
1F
100
AcDbEntity
  8
AM_VIS
100
AcDbLine
 10
-34.40798404180106
 20
442.981512205141
 30
0.0
 11
-34.40798404180106
 21
443.5103505040498
 31
0.0
  0
LINE
  5
1DEE
330
1F
100
AcDbEntity
  8
AM_VIS
100
AcDbLine
 10
-30.49447229245382
 20
444.5853131201113
 30
0.0
 11
-30.49447229245382
 21
445.1411230427241
 31
0.0
  0
LINE
  5
1DEF
330
1F
100
AcDbEntity
  8
AM_VIS
100
AcDbLine
 10
-30.96052973370709
 20
444.3651730970689
 30
0.0
 11
-30.96052973370709
 21
444.91711767876
 31
0.0
  0
LINE
  5
1DF0
330
1F
100
AcDbEntity
  8
AM_VIS
100
AcDbLine
 10
-28.28755323240159
 20
445.7445383605509
 30
0.0
 11
-28.28755323240159
 21
446.3216388082314
 31
0.0
  0
LINE
  5
1DF1
330
1F
100
AcDbEntity
  8
AM_VIS
100
AcDbLine
 10
-28.34238351960787
 20
445.7132983203248
 30
0.0
 11
-28.34238351960787
 21
446.2898034410825
 31
0.0
  0
ARC
  5
1DF2
330
1F
100
AcDbEntity
  8
AM_VIS
100
AcDbCircle
 10
-45.88905453788458
 20
476.5736990982857
 30
0.0
 40
35.5
100
AcDbArc
 50
299.3168488158827
 51
299.5369880495884
  0
ARC
  5
1DF3
330
1F
100
AcDbEntity
  8
AM_VIS
100
AcDbCircle
 10
-45.88905453788458
 20
476.5736990982857
 30
0.0
 40
35.5
100
AcDbArc
 50
299.5369880495884
 51
299.6048195306093
  0
LINE
  5
1DF4
330
1F
100
AcDbEntity
  8
AM_VIS
100
AcDbLine
 10
-28.35152176954196
 20
445.7081039596833
 30
0.0
 11
-28.34238339036222
 21
445.7132980929344
 31
0.0
  0
ARC
  5
1DF5
330
1F
100
AcDbEntity
  8
AM_VIS
100
AcDbCircle
 10
-45.88905453788458
 20
476.5736990982857
 30
0.0
 40
35.5
100
AcDbArc
 50
299.6217845277637
 51
299.7236346022983
  0
LINE
  5
1DF6
330
1F
100
AcDbEntity
  8
AM_VIS
100
AcDbLine
 10
-30.96033263205314
 20
444.3647561086891
 30
0.0
 11
-30.49434477356906
 21
444.5850433711872
 31
0.0
  0
LINE
  5
1DF7
330
1F
100
AcDbEntity
  8
AM_VIS
100
AcDbLine
 10
-30.49311188432893
 20
444.5826065707549
 30
0.0
 11
-29.45635921235569
 21
445.1037153970871
 31
0.0
  0
LINE
  5
1DF8
330
1F
100
AcDbEntity
  8
AM_VIS
100
AcDbLine
 10
-29.45695614487491
 20
445.1049377118209
 30
0.0
 11
-28.94520956694691
 21
445.3775054177482
 31
0.0
  0
LINE
  5
1DF9
330
1F
100
AcDbEntity
  8
AM_VIS
100
AcDbLine
 10
-28.94546641297419
 20
445.3779904357793
 30
0.0
 11
-28.66673283606258
 21
445.5309710656239
 31
0.0
  0
LINE
  5
1DFA
330
1F
100
AcDbEntity
  8
AM_VIS
100
AcDbLine
 10
-28.66676377909491
 20
445.5310284294977
 30
0.0
 11
-28.50684350102915
 21
445.620294797788
 31
0.0
  0
LINE
  5
1DFB
330
1F
100
AcDbEntity
  8
AM_VIS
100
AcDbLine
 10
-35.67876554047854
 20
442.5736988683866
 30
0.0
 11
-35.66908057847027
 21
442.5766087917232
 31
0.0
  0
LINE
  5
1DFC
330
1F
100
AcDbEntity
  8
AM_VIS
100
AcDbLine
 10
-35.6687740679632
 20
442.5756296114846
 30
0.0
 11
-34.87822392492319
 21
442.8230913470005
 31
0.0
  0
LINE
  5
1DFD
330
1F
100
AcDbEntity
  8
AM_VIS
100
AcDbLine
 10
-34.8784443800364
 20
442.8238292597485
 30
0.0
 11
-34.40784519016532
 21
442.9810967125127
 31
0.0
  0
LINE
  5
1DFE
330
1F
100
AcDbEntity
  8
AM_VIS
100
AcDbLine
 10
-34.10400488981165
 20
443.0865452974879
 30
0.0
 11
-33.65622841439529
 21
443.2475240906054
 31
0.0
  0
LINE
  5
1DFF
330
1F
100
AcDbEntity
  8
AM_VIS
100
AcDbLine
 10
-33.65545565457086
 20
443.245539067558
 30
0.0
 11
-32.66878740371601
 21
443.6253000460849
 31
0.0
  0
LINE
  5
1E00
330
1F
100
AcDbEntity
  8
AM_VIS
100
AcDbLine
 10
-32.66844494002811
 20
443.6246160249689
 30
0.0
 11
-31.67710179304496
 21
444.0403997471833
 31
0.0
  0
LINE
  5
1E01
330
1F
100
AcDbEntity
  8
AM_VIS
100
AcDbLine
 10
-31.67772577179494
 20
444.0419103781055
 30
0.0
 11
-31.23451649013742
 21
444.2391468064477
 31
0.0
  0
LINE
  5
1E02
330
1F
100
AcDbEntity
  8
AM_VIS
100
AcDbLine
 10
-25.18501331527421
 20
447.7362254460063
 30
0.0
 11
-24.99498628156798
 21
447.8736299860997
 31
0.0
  0
LINE
  5
1E03
330
1F
100
AcDbEntity
  8
AM_VIS
100
AcDbLine
 10
-26.77934778865572
 20
446.6551829198639
 30
0.0
 11
-26.2996830944395
 21
446.9672476355139
 31
0.0
  0
CIRCLE
  5
1E04
330
1F
100
AcDbEntity
  8
AM_VIS
100
AcDbCircle
 10
-45.88905453788462
 20
476.5736990982856
 30
0.0
 40
25.0
  0
LINE
  5
1E05
330
1F
100
AcDbEntity
  8
AM_VIS
100
AcDbLine
 10
-80.88905453788461
 20
492.5736990982856
 30
0.0
 11
-80.88905453788461
 21
493.5736990982856
 31
0.0
  0
LINE
  5
1E06
330
1F
100
AcDbEntity
  8
AM_VIS
100
AcDbLine
 10
-80.88905453788461
 20
459.5736990982856
 30
0.0
 11
-80.88905453788461
 21
460.5736990982856
 31
0.0
  0
LINE
  5
1E07
330
1F
100
AcDbEntity
  8
AM_VIS
100
AcDbLine
 10
-10.88905453788465
 20
460.5736990982856
 30
0.0
 11
-10.88905453788465
 21
459.5736990982856
 31
0.0
  0
LINE
  5
1E08
330
1F
100
AcDbEntity
  8
AM_VIS
100
AcDbLine
 10
-10.88905453788465
 20
493.5736990982856
 30
0.0
 11
-10.88905453788465
 21
492.5736990982856
 31
0.0
  0
ARC
  5
1E09
330
1F
100
AcDbEntity
  8
AM_VIS
100
AcDbCircle
 10
-45.88905453788458
 20
476.5736990982857
 30
0.0
 40
35.0
100
AcDbArc
 50
29.05928106804091
 51
76.27086732458876
  0
ARC
  5
1E0A
330
1F
100
AcDbEntity
  8
AM_VIS
100
AcDbCircle
 10
-45.88905453788458
 20
476.5736990982857
 30
0.0
 40
34.0
100
AcDbArc
 50
29.99999999999973
 51
76.06944543764152
  0
ARC
  5
1E0B
330
1F
100
AcDbEntity
  8
AM_VIS
100
AcDbCircle
 10
-45.88905453788458
 20
476.5736990982857
 30
0.0
 40
34.0
100
AcDbArc
 50
103.9305545623585
 51
149.9999999999998
  0
ARC
  5
1E0C
330
1F
100
AcDbEntity
  8
AM_VIS
100
AcDbCircle
 10
-45.88905453788458
 20
476.5736990982857
 30
0.0
 40
35.0
100
AcDbArc
 50
103.7291326754112
 51
150.9407189319591
  0
ARC
  5
1E0D
330
1F
100
AcDbEntity
  8
AM_VIS
100
AcDbCircle
 10
-45.88905453788458
 20
476.5736990982857
 30
0.0
 40
35.0
100
AcDbArc
 50
209.0592810680409
 51
256.2708673245888
  0
ARC
  5
1E0E
330
1F
100
AcDbEntity
  8
AM_VIS
100
AcDbCircle
 10
-45.88905453788458
 20
476.5736990982857
 30
0.0
 40
34.0
100
AcDbArc
 50
209.9999999999997
 51
256.0694454376415
  0
ARC
  5
1E0F
330
1F
100
AcDbEntity
  8
AM_VIS
100
AcDbCircle
 10
-45.88905453788458
 20
476.5736990982857
 30
0.0
 40
34.00000000000001
100
AcDbArc
 50
283.9305545623585
 51
330.0000000000003
  0
ARC
  5
1E10
330
1F
100
AcDbEntity
  8
AM_VIS
100
AcDbCircle
 10
-45.88905453788458
 20
476.5736990982857
 30
0.0
 40
35.0
100
AcDbArc
 50
283.7291326754112
 51
330.940718931959
  0
ARC
  5
1E11
330
1F
100
AcDbEntity
  8
AM_VIS
100
AcDbCircle
 10
-45.88905453788458
 20
476.5736990982857
 30
0.0
 40
35.5
100
AcDbArc
 50
108.8692995479231
 51
109.0330398784013
  0
ARC
  5
1E12
330
1F
100
AcDbEntity
  8
AM_VIS
100
AcDbCircle
 10
-45.88905453788458
 20
476.5736990982857
 30
0.0
 40
35.5
100
AcDbArc
 50
106.7151498750711
 51
106.7237710143095
  0
ARC
  5
1E13
330
1F
100
AcDbEntity
  8
AM_VIS
100
AcDbCircle
 10
-45.88905453788458
 20
476.5736990982857
 30
0.0
 40
35.5
100
AcDbArc
 50
120.2600600666716
 51
122.5673825157635
  0
ARC
  5
1E14
330
1F
100
AcDbEntity
  8
AM_VIS
100
AcDbCircle
 10
-45.88905453788458
 20
476.5736990982857
 30
0.0
 40
35.5
100
AcDbArc
 50
123.4909738734758
 51
125.6766882162312
  0
ARC
  5
1E15
330
1F
100
AcDbEntity
  8
AM_VIS
100
AcDbCircle
 10
-45.88905453788458
 20
476.5736990982857
 30
0.0
 40
35.5
100
AcDbArc
 50
288.8692995479231
 51
289.0330398783998
  0
ARC
  5
1E16
330
1F
100
AcDbEntity
  8
AM_VIS
100
AcDbCircle
 10
-45.88905453788458
 20
476.5736990982857
 30
0.0
 40
35.5
100
AcDbArc
 50
286.7151498750711
 51
286.7237710143095
  0
ARC
  5
1E17
330
1F
100
AcDbEntity
  8
AM_VIS
100
AcDbCircle
 10
-45.88905453788458
 20
476.5736990982857
 30
0.0
 40
35.5
100
AcDbArc
 50
300.2600600666716
 51
302.5673825157635
  0
ARC
  5
1E18
330
1F
100
AcDbEntity
  8
AM_VIS
100
AcDbCircle
 10
-45.88905453788458
 20
476.5736990982857
 30
0.0
 40
35.5
100
AcDbArc
 50
303.4909738734758
 51
305.6766882162321
  0
LINE
  5
1E19
330
1F
100
AcDbEntity
  8
AM_VIS
100
AcDbLine
 10
-26.88905453788459
 20
438.0736990982857
 30
0.0
 11
-26.88905453788459
 21
446.5862017035381
 31
0.0
  0
LINE
  5
1E1A
330
1F
100
AcDbEntity
  8
AM_VIS
100
AcDbLine
 10
-43.88905453788459
 20
437.0736990982857
 30
0.0
 11
-27.88905453788459
 21
437.0736990982857
 31
0.0
  0
LINE
  5
1E1B
330
1F
100
AcDbEntity
  8
AM_VIS
100
AcDbLine
 10
-44.88905453788459
 20
442.5736990982857
 30
0.0
 11
-44.88905453788459
 21
438.0736990982857
 31
0.0
  0
LINE
  5
1E1C
330
1F
100
AcDbEntity
  8
AM_VIS
100
AcDbLine
 10
-39.88905453788459
 20
436.5736990982857
 30
0.0
 11
-31.88905453788459
 21
436.5736990982857
 31
0.0
  0
LINE
  5
1E1D
330
1F
100
AcDbEntity
  8
AM_VIS
100
AcDbLine
 10
-40.88905453788458
 20
437.0736990982857
 30
0.0
 11
-40.88905453788458
 21
436.5736990982857
 31
0.0
  0
LINE
  5
1E1E
330
1F
100
AcDbEntity
  8
AM_VIS
100
AcDbLine
 10
-30.88905453788459
 20
436.5736990982857
 30
0.0
 11
-30.88905453788459
 21
437.0736990982857
 31
0.0
  0
ARC
  5
1E1F
330
1F
100
AcDbEntity
  8
AM_VIS
100
AcDbCircle
 10
-43.88905453788459
 20
438.0736990982857
 30
0.0
 40
0.9999999999999998
100
AcDbArc
 50
180.0
 51
270.0
  0
ARC
  5
1E20
330
1F
100
AcDbEntity
  8
AM_VIS
100
AcDbCircle
 10
-27.88905453788459
 20
438.0736990982857
 30
0.0
 40
0.9999999999999998
100
AcDbArc
 50
270.0
 51
0.0
  0
LINE
  5
1E21
330
1F
100
AcDbEntity
  8
AM_VIS
100
AcDbLine
 10
-30.88905453788459
 20
436.5736990982857
 30
0.0
 11
-31.88905453788459
 21
436.5736990982857
 31
0.0
  0
LINE
  5
1E22
102
{ACAD_REACTORS
330
1F57
102
}
330
1F
100
AcDbEntity
  8
AM_VIS
100
AcDbLine
 10
-39.88905453788459
 20
436.5736990982857
 30
0.0
 11
-40.88905453788458
 21
436.5736990982857
 31
0.0
  0
LINE
  5
1E23
330
1F
100
AcDbEntity
  8
AM_VIS
100
AcDbLine
 10
-92.4390545378846
 20
474.0736990982855
 30
0.0
 11
-91.9390545378846
 21
473.5736990982855
 31
0.0
  0
LINE
  5
1E24
330
1F
100
AcDbEntity
  8
AM_VIS
100
AcDbLine
 10
-92.4390545378846
 20
479.0736990982856
 30
0.0
 11
-91.9390545378846
 21
479.5736990982856
 31
0.0
  0
LINE
  5
1E25
330
1F
100
AcDbEntity
  8
AM_VIS
100
AcDbLine
 10
-90.88905453788461
 20
479.5736990982856
 30
0.0
 11
-91.9390545378846
 21
479.5736990982856
 31
0.0
  0
LINE
  5
1E26
330
1F
100
AcDbEntity
  8
AM_VIS
100
AcDbLine
 10
-90.88905453788461
 20
473.5736990982855
 30
0.0
 11
-91.9390545378846
 21
473.5736990982855
 31
0.0
  0
LINE
  5
1E27
102
{ACAD_REACTORS
330
1F51
102
}
330
1F
100
AcDbEntity
  8
AM_VIS
100
AcDbLine
 10
-92.4390545378846
 20
474.0736990982855
 30
0.0
 11
-92.4390545378846
 21
479.0736990982856
 31
0.0
  0
LINE
  5
1E28
330
1F
100
AcDbEntity
  8
AM_VIS
100
AcDbLine
 10
-91.9390545378846
 20
479.5736990982856
 30
0.0
 11
-91.9390545378846
 21
473.5736990982855
 31
0.0
  0
ARC
  5
1E29
330
1F
100
AcDbEntity
  8
AM_VIS
100
AcDbCircle
 10
-35.2490545378846
 20
441.8968392105242
 30
0.0
 40
4.901093033432654
100
AcDbArc
 50
262.4967103532455
 51
277.5032896467529
  0
LINE
  5
1E2A
330
1F
100
AcDbEntity
  8
AM_VIS
100
AcDbLine
 10
-34.60905453788462
 20
437.0377124451103
 30
0.0
 11
-34.60905453788462
 21
436.9957461770916
 31
0.0
  0
ARC
  5
1E2B
330
1F
100
AcDbEntity
  8
AM_VIS
100
AcDbCircle
 10
-36.52905453788458
 20
441.8968392105242
 30
0.0
 40
4.901093033432654
100
AcDbArc
 50
262.4967103532455
 51
277.5032896467529
  0
LINE
  5
1E2C
330
1F
100
AcDbEntity
  8
AM_VIS
100
AcDbLine
 10
-37.16905453788459
 20
437.0377124451103
 30
0.0
 11
-37.16905453788459
 21
436.9957461770916
 31
0.0
  0
LINE
  5
1E2D
330
1F
100
AcDbEntity
  8
AM_VIS
100
AcDbLine
 10
-35.93181342023925
 20
436.8736990982856
 30
0.0
 11
-35.84629565552993
 21
436.8736990982856
 31
0.0
  0
ARC
  5
1E2E
330
1F
100
AcDbEntity
  8
AM_VIS
100
AcDbCircle
 10
-35.91043397906219
 20
443.4226642012233
 30
0.0
 40
6.549
100
AcDbArc
 50
269.8129555774068
 51
270.0
  0
ARC
  5
1E2F
330
1F
100
AcDbEntity
  8
AM_VIS
100
AcDbCircle
 10
-35.86767509670699
 20
443.4226642012233
 30
0.0
 40
6.549
100
AcDbArc
 50
270.0
 51
270.1870444225932
  0
ARC
  5
1E30
330
1F
100
AcDbEntity
  8
AM_VIS
100
AcDbCircle
 10
-35.91043397906219
 20
443.4226642012233
 30
0.0
 40
6.549000000000001
100
AcDbArc
 50
255.8024077894608
 51
258.9196653010858
  0
ARC
  5
1E31
330
1F
100
AcDbEntity
  8
AM_10
  6
CENTER
 62
     1
 48
5.0
100
AcDbCircle
 10
-35.86767509670699
 20
443.4226642012233
 30
0.0
 40
6.548999999999999
100
AcDbArc
 50
281.0803346989142
 51
284.1975922105376
  0
LINE
  5
1E32
330
1F
100
AcDbEntity
  8
AM_VIS
100
AcDbLine
 10
-82.88905453788462
 20
483.131393018155
 30
0.0
 11
-82.88905453788462
 21
489.068564061674
 31
0.0
  0
LINE
  5
1E33
330
1F
100
AcDbEntity
  8
AM_VIS
100
AcDbLine
 10
-82.88905453788462
 20
470.6365280547666
 30
0.0
 11
-82.88905453788462
 21
482.5108701418046
 31
0.0
  0
LINE
  5
1E34
330
1F
100
AcDbEntity
  8
AM_VIS
100
AcDbLine
 10
-90.88905453788461
 20
483.131393018155
 30
0.0
 11
-90.88905453788461
 21
489.068564061674
 31
0.0
  0
LINE
  5
1E35
330
1F
100
AcDbEntity
  8
AM_VIS
100
AcDbLine
 10
-90.88905453788461
 20
470.6365280547666
 30
0.0
 11
-90.88905453788461
 21
482.5108701418046
 31
0.0
  0
LINE
  5
1E36
330
1F
100
AcDbEntity
  8
AM_VIS
100
AcDbLine
 10
-82.88905453788462
 20
464.0788341348972
 30
0.0
 11
-82.88905453788462
 21
470.0160051784162
 31
0.0
  0
LINE
  5
1E37
330
1F
100
AcDbEntity
  8
AM_VIS
100
AcDbLine
 10
-90.88905453788461
 20
464.0788341348972
 30
0.0
 11
-90.88905453788461
 21
470.0160051784162
 31
0.0
  0
LINE
  5
1E38
330
1F
100
AcDbEntity
  8
AM_VIS
100
AcDbLine
 10
-90.88905453788461
 20
470.6365280547666
 30
0.0
 11
-82.88905453788462
 21
470.6365280547666
 31
0.0
  0
LINE
  5
1E39
330
1F
100
AcDbEntity
  8
AM_VIS
100
AcDbLine
 10
-82.88905453788462
 20
470.0160051784162
 30
0.0
 11
-90.88905453788461
 21
470.0160051784162
 31
0.0
  0
LINE
  5
1E3A
330
1F
100
AcDbEntity
  8
AM_VIS
100
AcDbLine
 10
-90.88905453788461
 20
483.131393018155
 30
0.0
 11
-82.88905453788462
 21
483.131393018155
 31
0.0
  0
LINE
  5
1E3B
330
1F
100
AcDbEntity
  8
AM_VIS
100
AcDbLine
 10
-82.88905453788462
 20
482.5108701418046
 30
0.0
 11
-90.88905453788461
 21
482.5108701418046
 31
0.0
  0
LINE
  5
1E3C
330
1F
100
AcDbEntity
  8
AM_VIS
100
AcDbLine
 10
-82.88905453788462
 20
489.0685640616738
 30
0.0
 11
-90.88905453788461
 21
489.0685640616738
 31
0.0
  0
LINE
  5
1E3D
330
1F
100
AcDbEntity
  8
AM_VIS
100
AcDbLine
 10
-90.88905453788461
 20
464.0788341348972
 30
0.0
 11
-82.88905453788462
 21
464.0788341348972
 31
0.0
  0
LINE
  5
1E3E
330
1F
100
AcDbEntity
  8
AM_VIS
100
AcDbLine
 10
-80.88905453788461
 20
487.0774491598823
 30
0.0
 11
-82.88905453788462
 21
487.1399491735704
 31
0.0
  0
LINE
  5
1E3F
330
1F
100
AcDbEntity
  8
AM_VIS
100
AcDbLine
 10
-80.88905453788461
 20
466.0699490366889
 30
0.0
 11
-82.88905453788462
 21
466.0074490230008
 31
0.0
  0
LINE
  5
1E40
330
1F
100
AcDbEntity
  8
AM_VIS
100
AcDbLine
 10
-90.88905453788461
 20
489.0736990982856
 30
0.0
 11
-82.88905453788462
 21
489.0736990982856
 31
0.0
  0
LINE
  5
1E41
330
1F
100
AcDbEntity
  8
AM_VIS
100
AcDbLine
 10
-90.88905453788461
 20
464.0736990982856
 30
0.0
 11
-82.88905453788462
 21
464.0736990982856
 31
0.0
  0
LINE
  5
1E42
330
1F
100
AcDbEntity
  8
AM_VIS
100
AcDbLine
 10
-90.88905453788461
 20
470.6365280547666
 30
0.0
 11
-90.88905453788461
 21
470.0160051784162
 31
0.0
  0
LINE
  5
1E43
330
1F
100
AcDbEntity
  8
AM_VIS
100
AcDbLine
 10
-82.88905453788462
 20
470.0160051784162
 30
0.0
 11
-82.88905453788462
 21
470.6365280547666
 31
0.0
  0
LINE
  5
1E44
330
1F
100
AcDbEntity
  8
AM_VIS
100
AcDbLine
 10
-90.88905453788461
 20
483.1313930181549
 30
0.0
 11
-90.88905453788461
 21
482.5108701418046
 31
0.0
  0
LINE
  5
1E45
330
1F
100
AcDbEntity
  8
AM_VIS
100
AcDbLine
 10
-82.88905453788462
 20
482.5108701418046
 30
0.0
 11
-82.88905453788462
 21
483.131393018155
 31
0.0
  0
LINE
  5
1E46
330
1F
100
AcDbEntity
  8
AM_VIS
100
AcDbLine
 10
-90.88905453788461
 20
489.0736990982856
 30
0.0
 11
-90.88905453788461
 21
489.0685640616738
 31
0.0
  0
LINE
  5
1E47
330
1F
100
AcDbEntity
  8
AM_VIS
100
AcDbLine
 10
-82.88905453788462
 20
489.0685640616738
 30
0.0
 11
-82.88905453788462
 21
489.0736990982856
 31
0.0
  0
LINE
  5
1E48
330
1F
100
AcDbEntity
  8
AM_VIS
100
AcDbLine
 10
-82.88905453788462
 20
464.0736990982856
 30
0.0
 11
-82.88905453788462
 21
464.0788341348972
 31
0.0
  0
LINE
  5
1E49
330
1F
100
AcDbEntity
  8
AM_VIS
100
AcDbLine
 10
-90.88905453788461
 20
464.0788341348972
 30
0.0
 11
-90.88905453788461
 21
464.0736990982856
 31
0.0
  0
LINE
  5
1E4A
330
1F
100
AcDbEntity
  8
AM_VIS
100
AcDbLine
 10
-67.88905453788462
 20
379.5593131679648
 30
0.0
 11
-67.88905453788462
 21
399.5593131679648
 31
0.0
  0
LINE
  5
1E4B
330
1F
100
AcDbEntity
  8
AM_VIS
100
AcDbLine
 10
-77.88905453788462
 20
379.5593131679648
 30
0.0
 11
-77.88905453788462
 21
399.5593131679648
 31
0.0
  0
LINE
  5
1E4C
330
1F
100
AcDbEntity
  8
AM_VIS
100
AcDbLine
 10
-13.88905453788465
 20
379.5593131679648
 30
0.0
 11
-13.88905453788465
 21
399.5593131679648
 31
0.0
  0
LINE
  5
1E4D
330
1F
100
AcDbEntity
  8
AM_VIS
100
AcDbLine
 10
-23.88905453788462
 20
379.5593131679648
 30
0.0
 11
-23.88905453788462
 21
399.5593131679648
 31
0.0
  0
LINE
  5
1E4E
330
1F
100
AcDbEntity
  8
AM_VIS
100
AcDbLine
 10
-79.88905453788465
 20
353.5593131679648
 30
0.0
 11
-79.88905453788465
 21
352.0593131679649
 31
0.0
  0
LINE
  5
1E4F
330
1F
100
AcDbEntity
  8
AM_VIS
100
AcDbLine
 10
-11.88905453788459
 20
353.5593131679648
 30
0.0
 11
-11.88905453788459
 21
352.0593131679648
 31
0.0
  0
ARC
  5
1E50
330
1F
100
AcDbEntity
  8
AM_VIS
100
AcDbCircle
 10
-65.1772631261199
 20
402.6036289467374
 30
0.0
 40
0.9589303551549232
100
AcDbArc
 50
357.3512030923601
 51
85.28425945079318
  0
LINE
  5
1E51
330
1F
100
AcDbEntity
  8
AM_VIS
100
AcDbLine
 10
-64.21935731770799
 20
378.5593131679648
 30
0.0
 11
-64.21935731770799
 21
402.5593131679647
 31
0.0
  0
LINE
  5
1E52
330
1F
100
AcDbEntity
  8
AM_VIS
100
AcDbLine
 10
-65.88905453788462
 20
379.5593131679648
 30
0.0
 11
-78.88905453788462
 21
379.5593131679648
 31
0.0
  0
LINE
  5
1E53
330
1F
100
AcDbEntity
  8
AM_VIS
100
AcDbLine
 10
-65.88905453788462
 20
399.5593131679648
 30
0.0
 11
-65.88905453788462
 21
379.5593131679648
 31
0.0
  0
LINE
  5
1E54
330
1F
100
AcDbEntity
  8
AM_VIS
100
AcDbLine
 10
-78.88905453788462
 20
399.5593131679648
 30
0.0
 11
-65.88905453788462
 21
399.5593131679648
 31
0.0
  0
LINE
  5
1E55
330
1F
100
AcDbEntity
  8
AM_VIS
100
AcDbLine
 10
-78.88905453788462
 20
379.5593131679648
 30
0.0
 11
-78.88905453788462
 21
399.5593131679648
 31
0.0
  0
LINE
  5
1E56
330
1F
100
AcDbEntity
  8
AM_VIS
100
AcDbLine
 10
-80.88905453788461
 20
373.5593131679648
 30
0.0
 11
-77.01781937043128
 21
373.5593131679648
 31
0.0
  0
LINE
  5
1E57
330
1F
100
AcDbEntity
  8
AM_VIS
100
AcDbLine
 10
-14.76028970533787
 20
373.5593131679648
 30
0.0
 11
-10.88905453788465
 21
373.5593131679648
 31
0.0
  0
LINE
  5
1E58
330
1F
100
AcDbEntity
  8
AM_VIS
100
AcDbLine
 10
-27.55875175806125
 20
402.5593131679647
 30
0.0
 11
-27.55875175806125
 21
378.5593131679648
 31
0.0
  0
LINE
  5
1E59
330
1F
100
AcDbEntity
  8
AM_VIS
100
AcDbLine
 10
-25.88905453788462
 20
399.5593131679648
 30
0.0
 11
-12.88905453788465
 21
399.5593131679648
 31
0.0
  0
LINE
  5
1E5A
330
1F
100
AcDbEntity
  8
AM_VIS
100
AcDbLine
 10
-25.88905453788462
 20
379.5593131679648
 30
0.0
 11
-25.88905453788462
 21
399.5593131679648
 31
0.0
  0
LINE
  5
1E5B
330
1F
100
AcDbEntity
  8
AM_VIS
100
AcDbLine
 10
-12.88905453788465
 20
379.5593131679648
 30
0.0
 11
-25.88905453788462
 21
379.5593131679648
 31
0.0
  0
LINE
  5
1E5C
330
1F
100
AcDbEntity
  8
AM_VIS
100
AcDbLine
 10
-12.88905453788465
 20
399.5593131679648
 30
0.0
 11
-12.88905453788465
 21
379.5593131679648
 31
0.0
  0
ARC
  5
1E5D
330
1F
100
AcDbEntity
  8
AM_VIS
100
AcDbCircle
 10
-26.60084594964928
 20
402.6036289467374
 30
0.0
 40
0.9589303551549516
100
AcDbArc
 50
94.71574054920845
 51
182.6487969076365
  0
LINE
  5
1E5E
330
1F
100
AcDbEntity
  8
AM_VIS
100
AcDbLine
 10
-10.88905453788465
 20
403.5593131679648
 30
0.0
 11
-26.67968182558607
 21
403.5593131679648
 31
0.0
  0
LINE
  5
1E5F
330
1F
100
AcDbEntity
  8
AM_VIS
100
AcDbLine
 10
-65.09842725018316
 20
403.5593131679648
 30
0.0
 11
-80.88905453788461
 21
403.5593131679648
 31
0.0
  0
LINE
  5
1E60
330
1F
100
AcDbEntity
  8
AM_VIS
100
AcDbLine
 10
-80.88905453788461
 20
402.5593131679647
 30
0.0
 11
-80.88905453788461
 21
374.5593131679648
 31
0.0
  0
LINE
  5
1E61
330
1F
100
AcDbEntity
  8
AM_VIS
100
AcDbLine
 10
-10.88905453788465
 20
402.5593131679647
 30
0.0
 11
-10.88905453788465
 21
374.5593131679648
 31
0.0
  0
LINE
  5
1E62
330
1F
100
AcDbEntity
  8
AM_VIS
100
AcDbLine
 10
-79.88905453788465
 20
353.5593131679648
 30
0.0
 11
-79.88905453788465
 21
373.5593131679648
 31
0.0
  0
SPLINE
  5
1E63
330
1F
100
AcDbEntity
  8
AM_VIS
100
AcDbSpline
210
0.0
220
0.0
230
1.0
 70
     8
 71
     3
 72
    14
 73
    10
 74
     0
 42
0.0000000001
 43
0.0000000001
 40
3.2042679097339
 40
3.2042679097339
 40
3.2042679097339
 40
3.2042679097339
 40
3.579269345908525
 40
3.579269345908525
 40
3.954270782083151
 40
3.954270782083151
 40
4.383462473197177
 40
4.383462473197177
 40
4.812654164311203
 40
4.812654164311203
 40
4.812654164311203
 40
4.812654164311203
 10
-76.48317161944124
 20
374.5593131679648
 30
0.0
 10
-76.48317161944124
 20
374.4343126892399
 30
0.0
 10
-76.49706576674936
 20
374.3023887153146
 30
0.0
 10
-76.55097052180929
 20
374.0625729348882
 30
0.0
 10
-76.59085347165052
 20
373.9546021586771
 30
0.0
 10
-76.68498780689017
 20
373.7728078434543
 30
0.0
 10
-76.74761671860861
 20
373.6916817539139
 30
0.0
 10
-76.88135239119432
 20
373.5849450170326
 30
0.0
 10
-76.95241873178535
 20
373.5593131679648
 30
0.0
 10
-77.01781937043131
 20
373.5593131679648
 30
0.0
  0
LINE
  5
1E64
330
1F
100
AcDbEntity
  8
AM_VIS
100
AcDbLine
 10
-76.48317161944124
 20
377.5593131679648
 30
0.0
 11
-76.48317161944124
 21
374.5593131679648
 31
0.0
  0
SPLINE
  5
1E65
330
1F
100
AcDbEntity
  8
AM_VIS
100
AcDbSpline
210
0.0
220
0.0
230
1.0
 70
    12
 71
     2
 72
     6
 73
     3
 74
     0
 42
0.0000000001
 43
0.0000000001
 40
0.0
 40
0.0
 40
0.0
 40
16.88194301613415
 40
16.88194301613415
 40
16.88194301613415
 10
-54.19567840080268
 20
353.5593131679648
 30
0.0
 41
1.0
 10
-45.88905453788458
 20
350.602170310822
 30
0.0
 41
1.029411764705878
 10
-37.5824306749665
 20
353.5593131679648
 30
0.0
 41
1.0
  0
LINE
  5
1E66
330
1F
100
AcDbEntity
  8
AM_VIS
100
AcDbLine
 10
-54.19567840080259
 20
353.5593131679648
 30
0.0
 11
-54.19567840080259
 21
377.5593131679648
 31
0.0
  0
LINE
  5
1E67
330
1F
100
AcDbEntity
  8
AM_VIS
100
AcDbLine
 10
-15.29493745632794
 20
374.5593131679648
 30
0.0
 11
-15.29493745632794
 21
377.5593131679648
 31
0.0
  0
SPLINE
  5
1E68
330
1F
100
AcDbEntity
  8
AM_VIS
100
AcDbSpline
210
0.0
220
0.0
230
1.0
 70
     8
 71
     3
 72
    14
 73
    10
 74
     0
 42
0.0000000001
 43
0.0000000001
 40
1.595881655156595
 40
1.595881655156595
 40
1.595881655156595
 40
1.595881655156595
 40
2.025073346270621
 40
2.025073346270621
 40
2.454265037384648
 40
2.454265037384648
 40
2.829266473559274
 40
2.829266473559274
 40
3.2042679097339
 40
3.2042679097339
 40
3.2042679097339
 40
3.2042679097339
 10
-14.76028970533787
 20
373.5593131679648
 30
0.0
 10
-14.82569034398381
 20
373.5593131679648
 30
0.0
 10
-14.89675668457482
 20
373.5849450170326
 30
0.0
 10
-15.03049235716054
 20
373.6916817539139
 30
0.0
 10
-15.09312126887897
 20
373.7728078434543
 30
0.0
 10
-15.18725560411866
 20
373.9546021586771
 30
0.0
 10
-15.22713855395989
 20
374.0625729348882
 30
0.0
 10
-15.28104330901982
 20
374.3023887153146
 30
0.0
 10
-15.29493745632794
 20
374.4343126892399
 30
0.0
 10
-15.29493745632794
 20
374.5593131679648
 30
0.0
  0
LINE
  5
1E69
330
1F
100
AcDbEntity
  8
AM_VIS
100
AcDbLine
 10
-11.88905453788464
 20
353.5593131679648
 30
0.0
 11
-11.88905453788464
 21
373.5593131679648
 31
0.0
  0
LINE
  5
1E6A
330
1F
100
AcDbEntity
  8
AM_VIS
100
AcDbLine
 10
-37.5824306749665
 20
353.5593131679648
 30
0.0
 11
-37.5824306749665
 21
377.5593131679648
 31
0.0
  0
LINE
  5
1E6B
330
1F
100
AcDbEntity
  8
AM_VIS
100
AcDbLine
 10
-76.48354578307436
 20
377.5597431602885
 30
0.0
 11
-75.33431141661527
 21
378.5597649796665
 31
0.0
  0
LINE
  5
1E6C
330
1F
100
AcDbEntity
  8
AM_VIS
100
AcDbLine
 10
-54.19567840080259
 20
377.5593131679648
 30
0.0
 11
-37.5824306749665
 21
377.5593131679648
 31
0.0
  0
LINE
  5
1E6D
330
1F
100
AcDbEntity
  8
AM_VIS
100
AcDbLine
 10
-54.19582423709204
 20
377.5593308535036
 30
0.0
 11
-54.07455441056834
 21
378.559331006852
 31
0.0
  0
LINE
  5
1E6E
330
1F
100
AcDbEntity
  8
AM_VIS
100
AcDbLine
 10
-37.7037017660121
 20
378.5593131679648
 30
0.0
 11
-54.07440730975702
 21
378.5593131679648
 31
0.0
  0
LINE
  5
1E6F
330
1F
100
AcDbEntity
  8
AM_VIS
100
AcDbLine
 10
-37.70355466520084
 20
378.559331006852
 30
0.0
 11
-37.58228483867714
 21
377.5593308535036
 31
0.0
  0
LINE
  5
1E70
330
1F
100
AcDbEntity
  8
AM_VIS
100
AcDbLine
 10
-16.44379765915386
 20
378.5597649796665
 30
0.0
 11
-15.29456329269482
 21
377.5597431602885
 31
0.0
  0
SPLINE
  5
1E71
330
1F
100
AcDbEntity
  8
AM_VIS
100
AcDbSpline
210
0.0
220
0.0
230
1.0
 70
     8
 71
     3
 72
     8
 73
     4
 74
     0
 42
0.0000000001
 43
0.0000000001
 40
0.8023169249077238
 40
0.8023169249077238
 40
0.8023169249077238
 40
0.8023169249077238
 40
80.0
 40
80.0
 40
80.0
 40
80.0
 10
-35.67876560955352
 20
358.8902462222028
 30
0.0
 10
-35.8465492464147
 20
358.8897925755289
 30
0.0
 10
-35.96059679527747
 20
358.8669489203738
 30
0.0
 10
-36.02090832378539
 20
358.8217152567377
 30
0.0
  0
SPLINE
  5
1E72
330
1F
100
AcDbEntity
  8
AM_VIS
100
AcDbSpline
210
0.0
220
0.0
230
1.0
 70
     8
 71
     3
 72
     8
 73
     4
 74
     0
 42
0.0000000001
 43
0.0000000001
 40
0.0
 40
0.0
 40
0.0
 40
0.0
 40
80.0
 40
80.0
 40
80.0
 40
80.0
 10
-36.02090832378539
 20
358.8217152567377
 30
0.0
 10
-36.10619990490193
 20
358.7547004380232
 30
0.0
 10
-36.14884566060002
 20
358.6191477603009
 30
0.0
 10
-36.14884566060002
 20
358.4150572932912
 30
0.0
  0
LINE
  5
1E73
330
1F
100
AcDbEntity
  8
AM_VIS
100
AcDbLine
 10
-36.14884566060002
 20
358.4150572932912
 30
0.0
 11
-36.14884566060002
 21
356.0162322280171
 31
0.0
  0
SPLINE
  5
1E74
330
1F
100
AcDbEntity
  8
AM_VIS
100
AcDbSpline
210
0.0
220
0.0
230
1.0
 70
     8
 71
     3
 72
     8
 73
     4
 74
     0
 42
0.0000000001
 43
0.0000000001
 40
0.0
 40
0.0
 40
0.0
 40
0.0
 40
80.0
 40
80.0
 40
80.0
 40
80.0
 10
-36.14884566060002
 20
356.016232228017
 30
0.0
 10
-36.14884566060002
 20
355.9065716536045
 30
0.0
 10
-36.12143051699689
 20
355.8380337945966
 30
0.0
 10
-36.06660022979062
 20
355.8106186509935
 30
0.0
  0
SPLINE
  5
1E75
330
1F
100
AcDbEntity
  8
AM_VIS
100
AcDbSpline
210
0.0
220
0.0
230
1.0
 70
     8
 71
     3
 72
     8
 73
     4
 74
     0
 42
0.0000000001
 43
0.0000000001
 40
0.0
 40
0.0
 40
0.0
 40
0.0
 40
78.74608197375656
 40
78.74608197375656
 40
78.74608197375656
 40
78.74608197375656
 10
-36.06660022979062
 20
355.8106186509935
 30
0.0
 10
-36.00963101475841
 20
355.7866316166971
 30
0.0
 10
-35.8803528080127
 20
355.7744500796812
 30
0.0
 10
-35.67876560955352
 20
355.7740741064387
 30
0.0
  0
LINE
  5
1E76
330
1F
100
AcDbEntity
  8
AM_VIS
100
AcDbLine
 10
-35.67876560955352
 20
355.6187126457715
 30
0.0
 11
-36.88905453788462
 21
355.6187126457715
 31
0.0
  0
LINE
  5
1E77
330
1F
100
AcDbEntity
  8
AM_VIS
100
AcDbLine
 10
-36.88905453788462
 20
355.6187126457715
 30
0.0
 11
-36.88905453788462
 21
355.710096457782
 31
0.0
  0
SPLINE
  5
1E78
330
1F
100
AcDbEntity
  8
AM_VIS
100
AcDbSpline
210
0.0
220
0.0
230
1.0
 70
     8
 71
     3
 72
     8
 73
     4
 74
     0
 42
0.0000000001
 43
0.0000000001
 40
0.0
 40
0.0
 40
0.0
 40
0.0
 40
80.0
 40
80.0
 40
80.0
 40
80.0
 10
-36.88905453788462
 20
355.710096457782
 30
0.0
 10
-36.73065597688006
 20
355.7253271395973
 30
0.0
 10
-36.61947229245382
 20
355.7618806644015
 30
0.0
 10
-36.55550362404651
 20
355.8197570321945
 30
0.0
  0
SPLINE
  5
1E79
330
1F
100
AcDbEntity
  8
AM_VIS
100
AcDbSpline
210
0.0
220
0.0
230
1.0
 70
     8
 71
     3
 72
     8
 73
     4
 74
     0
 42
0.0000000001
 43
0.0000000001
 40
0.0
 40
0.0
 40
0.0
 40
0.0
 40
80.0
 40
80.0
 40
80.0
 40
80.0
 10
-36.55550362404651
 20
355.8197570321945
 30
0.0
 10
-36.47630434354423
 20
355.8959102321101
 30
0.0
 10
-36.43670466843293
 20
356.0284166898049
 30
0.0
 10
-36.43670466843293
 20
356.21727661444
 30
0.0
  0
LINE
  5
1E7A
330
1F
100
AcDbEntity
  8
AM_VIS
100
AcDbLine
 10
-36.43670466843293
 20
356.21727661444
 30
0.0
 11
-36.43670466843293
 21
358.4150572932912
 31
0.0
  0
SPLINE
  5
1E7B
330
1F
100
AcDbEntity
  8
AM_VIS
100
AcDbSpline
210
0.0
220
0.0
230
1.0
 70
     8
 71
     3
 72
     8
 73
     4
 74
     0
 42
0.0000000001
 43
0.0000000001
 40
0.0
 40
0.0
 40
0.0
 40
0.0
 40
80.0
 40
80.0
 40
80.0
 40
80.0
 10
-36.43670466843293
 20
358.4150572932912
 30
0.0
 10
-36.43670466843293
 20
358.6100093790999
 30
0.0
 10
-36.47782738383762
 20
358.7409928662216
 30
0.0
 10
-36.56007281464701
 20
358.8080076849361
 30
0.0
  0
SPLINE
  5
1E7C
330
1F
100
AcDbEntity
  8
AM_VIS
100
AcDbSpline
210
0.0
220
0.0
230
1.0
 70
     8
 71
     3
 72
     8
 73
     4
 74
     0
 42
0.0000000001
 43
0.0000000001
 40
0.0
 40
0.0
 40
0.0
 40
0.0
 40
80.0
 40
80.0
 40
80.0
 40
80.0
 10
-36.56007281464701
 20
358.8080076849361
 30
0.0
 10
-36.61490310185329
 20
358.8506534406342
 30
0.0
 10
-36.72456374598613
 20
358.8780685842373
 30
0.0
 10
-36.88905453788462
 20
358.8902531157455
 30
0.0
  0
LINE
  5
1E7D
330
1F
100
AcDbEntity
  8
AM_VIS
100
AcDbLine
 10
-36.88905453788462
 20
358.8902531157455
 30
0.0
 11
-36.88905453788462
 21
358.9816369277559
 31
0.0
  0
LINE
  5
1E7E
330
1F
100
AcDbEntity
  8
AM_VIS
100
AcDbLine
 10
-36.88905453788462
 20
358.9816369277559
 30
0.0
 11
-35.67876560955352
 21
358.9816369277559
 31
0.0
  0
LINE
  5
1E7F
330
1F
100
AcDbEntity
  8
AM_VIS
100
AcDbLine
 10
-28.38807542561315
 20
359.0593131679648
 30
0.0
 11
-28.50687438122674
 21
359.0501747867637
 31
0.0
  0
LINE
  5
1E80
330
1F
100
AcDbEntity
  8
AM_VIS
100
AcDbLine
 10
-28.3515219008089
 20
357.9581382332384
 30
0.0
 11
-28.38807542561312
 21
359.0593131679652
 31
0.0
  0
LINE
  5
1E81
330
1F
100
AcDbEntity
  8
AM_VIS
100
AcDbLine
 10
-28.44747490341987
 20
357.9489998520379
 30
0.0
 11
-28.35152190080894
 21
357.958138233239
 31
0.0
  0
SPLINE
  5
1E82
330
1F
100
AcDbEntity
  8
AM_VIS
100
AcDbSpline
210
0.0
220
0.0
230
1.0
 70
     8
 71
     3
 72
    14
 73
    10
 74
     0
 42
0.0000000001
 43
0.0000000001
 40
-1.608112432013847
 40
-1.608112432013847
 40
-1.608112432013847
 40
-1.608112432013847
 40
-1.193157471304488
 40
-1.193157471304488
 40
-0.8349003316812176
 40
-0.8349003316812176
 40
-0.4536288099811766
 40
-0.4536288099811766
 40
0.0
 40
0.0
 40
0.0
 40
0.0
 10
-28.44747490341987
 20
357.9489998520379
 30
0.0
 10
-28.47791129084763
 20
358.0827931287636
 30
0.0
 10
-28.51906229355242
 20
358.2158490008412
 30
0.0
 10
-28.62365255079095
 20
358.4440735246818
 30
0.0
 10
-28.68344301643592
 20
358.5423110978995
 30
0.0
 10
-28.83648811496767
 20
358.7162412628646
 30
0.0
 10
-28.92752852126594
 20
358.7853990003869
 30
0.0
 10
-29.15441794255733
 20
358.890273255723
 30
0.0
 10
-29.28675755218728
 20
358.9130990687481
 30
0.0
 10
-29.42071250133111
 20
358.9130990687481
 30
0.0
  0
ARC
  5
1E83
330
1F
100
AcDbEntity
  8
AM_VIS
100
AcDbCircle
 10
-29.4105681225258
 20
357.5784556161426
 30
0.0
 40
1.334682004825081
100
AcDbArc
 50
90.43548626980603
 51
109.6485610012538
  0
ARC
  5
1E84
330
1F
100
AcDbEntity
  8
AM_VIS
100
AcDbCircle
 10
-29.50440735741154
 20
357.8476707271804
 30
0.0
 40
1.049591301419482
100
AcDbArc
 50
109.7658345532179
 51
135.0892754383274
  0
ARC
  5
1E85
330
1F
100
AcDbEntity
  8
AM_VIS
100
AcDbCircle
 10
-28.69371086638597
 20
357.4243660668829
 30
0.0
 40
1.941812625112781
100
AcDbArc
 50
143.1583902231464
 51
183.6669326629983
  0
ARC
  5
1E86
330
1F
100
AcDbEntity
  8
AM_VIS
100
AcDbCircle
 10
-29.0007369685865
 20
357.1958286468354
 30
0.0
 40
1.634145884321656
100
AcDbArc
 50
176.3389660036508
 51
221.9681506321473
  0
ARC
  5
1E87
330
1F
100
AcDbEntity
  8
AM_VIS
100
AcDbCircle
 10
-29.37207358036727
 20
356.8935885225692
 30
0.0
 40
1.156178554052599
100
AcDbArc
 50
223.1376923555151
 51
270.7597058115389
  0
ARC
  5
1E88
330
1F
100
AcDbEntity
  8
AM_VIS
100
AcDbCircle
 10
-29.40300995145418
 20
357.0617063208001
 30
0.0
 40
1.325002720242561
100
AcDbArc
 50
272.001046682226
 51
323.1751160492656
  0
LINE
  5
1E89
330
1F
100
AcDbEntity
  8
AM_VIS
100
AcDbLine
 10
-28.28755323240162
 20
356.1852922802363
 30
0.0
 11
-28.34238351960789
 21
356.2675377110458
 31
0.0
  0
ARC
  5
1E8A
330
1F
100
AcDbEntity
  8
AM_VIS
100
AcDbCircle
 10
-29.33023452801066
 20
356.8529936456319
 30
0.0
 40
1.23814756695803
100
AcDbArc
 50
304.9411630108466
 51
327.3657378913634
  0
ARC
  5
1E8B
330
1F
100
AcDbEntity
  8
AM_VIS
100
AcDbCircle
 10
-29.47068972932849
 20
356.9931594892012
 30
0.0
 40
1.433914583693131
100
AcDbArc
 50
269.4409268061069
 51
306.3341803379818
  0
ARC
  5
1E8C
330
1F
100
AcDbEntity
  8
AM_VIS
100
AcDbCircle
 10
-29.52183761471059
 20
356.923993857101
 30
0.0
 40
1.365186428552579
100
AcDbArc
 50
224.837562237651
 51
271.5596187896463
  0
ARC
  5
1E8D
330
1F
100
AcDbEntity
  8
AM_VIS
100
AcDbCircle
 10
-29.12406308042145
 20
357.1944043128554
 30
0.0
 40
1.840058100607871
100
AcDbArc
 50
176.4196352208893
 51
222.0739207900296
  0
ARC
  5
1E8E
330
1F
100
AcDbEntity
  8
AM_VIS
100
AcDbCircle
 10
-29.13852383369345
 20
357.3917362590744
 30
0.0
 40
1.823869256726631
100
AcDbArc
 50
138.0258024763544
 51
182.590155046172
  0
ARC
  5
1E8F
330
1F
100
AcDbEntity
  8
AM_VIS
100
AcDbCircle
 10
-29.47882339377972
 20
357.6841025349488
 30
0.0
 40
1.375379585881714
100
AcDbArc
 50
89.10192300795124
 51
137.5995365368851
  0
ARC
  5
1E90
330
1F
100
AcDbEntity
  8
AM_VIS
100
AcDbCircle
 10
-29.47760172249403
 20
357.2995481504124
 30
0.0
 40
1.759882512427308
100
AcDbArc
 50
72.4017227688375
 51
89.33792426660698
  0
LINE
  5
1E91
330
1F
100
AcDbEntity
  8
AM_VIS
100
AcDbLine
 10
-28.94553152660177
 20
358.9770178730741
 30
0.0
 11
-28.66701535642233
 21
358.8940858028508
 31
0.0
  0
SPLINE
  5
1E92
330
1F
100
AcDbEntity
  8
AM_VIS
100
AcDbSpline
210
0.0
220
0.0
230
1.0
 70
     8
 71
     3
 72
    14
 73
    10
 74
     0
 42
0.0000000001
 43
0.0000000001
 40
-0.2604329022945249
 40
-0.2604329022945249
 40
-0.2604329022945249
 40
-0.2604329022945249
 40
-0.2119083035077304
 40
-0.2119083035077304
 40
-0.1665934578837816
 40
-0.1665934578837816
 40
-0.0993147059779253
 40
-0.0993147059779253
 40
0.0
 40
0.0
 40
0.0
 40
0.0
 10
-28.66679605224494
 20
358.894822306346
 30
0.0
 10
-28.65263666943235
 20
358.894822306346
 30
0.0
 10
-28.63851863041171
 20
358.8964774763779
 30
0.0
 10
-28.61194448310715
 20
358.9039470674554
 30
0.0
 10
-28.59973773488036
 20
358.9093952568195
 30
0.0
 10
-28.57124693077571
 20
358.9280327268392
 30
0.0
 10
-28.55696327268475
 20
358.9429686935201
 30
0.0
 10
-28.52730962485566
 20
358.9869662698431
 30
0.0
 10
-28.51525954546744
 20
359.0184974925238
 30
0.0
 10
-28.50687438122668
 20
359.0501747867637
 30
0.0
  0
LINE
  5
1E93
330
1F
100
AcDbEntity
  8
AM_VIS
100
AcDbLine
 10
-35.67876560955352
 20
355.6187126457715
 30
0.0
 11
-35.67876560955352
 21
355.7740741064387
 31
0.0
  0
LINE
  5
1E94
330
1F
100
AcDbEntity
  8
AM_VIS
100
AcDbLine
 10
-35.67876561095232
 20
355.7740725961523
 30
0.0
 11
-35.66908064893457
 21
355.7740636260828
 31
0.0
  0
ARC
  5
1E95
330
1F
100
AcDbEntity
  8
AM_VIS
100
AcDbCircle
 10
-35.54769015170587
 20
358.1885118802601
 30
0.0
 40
2.417496386910015
100
AcDbArc
 50
267.1217788751925
 51
286.0672511892614
  0
SPLINE
  5
1E96
330
1F
100
AcDbEntity
  8
AM_VIS
100
AcDbSpline
210
0.0
220
0.0
230
1.0
 70
     8
 71
     3
 72
    12
 73
     8
 74
     0
 42
0.0000000001
 43
0.0000000001
 40
-0.7910501646128524
 40
-0.7910501646128524
 40
-0.7910501646128524
 40
-0.7910501646128524
 40
-0.6197694514922676
 40
-0.6197694514922676
 40
-0.4323084087518441
 40
-0.4323084087518441
 40
0.0
 40
0.0
 40
0.0
 40
0.0
 10
-34.87861067365486
 20
355.8654489381998
 30
0.0
 10
-34.82825388093775
 20
355.8870304286334
 30
0.0
 10
-34.78178520635686
 20
355.9160544193241
 30
0.0
 10
-34.69185735352275
 20
355.9893942458667
 30
0.0
 10
-34.64989043627602
 20
356.034250289495
 30
0.0
 10
-34.52583554050975
 20
356.1945783165498
 30
0.0
 10
-34.45932892840892
 20
356.3305162075637
 30
0.0
 10
-34.40798404180106
 20
356.4640129068682
 30
0.0
  0
LINE
  5
1E97
330
1F
100
AcDbEntity
  8
AM_VIS
100
AcDbLine
 10
-34.5130754256131
 20
355.6187126457716
 30
0.0
 11
-34.31203103919012
 21
356.4640129068682
 31
0.0
  0
LINE
  5
1E98
330
1F
100
AcDbEntity
  8
AM_VIS
100
AcDbLine
 10
-35.67876560955352
 20
358.8902462222028
 30
0.0
 11
-35.67876560955352
 21
358.9816369277559
 31
0.0
  0
LINE
  5
1E99
330
1F
100
AcDbEntity
  8
AM_VIS
100
AcDbLine
 10
-35.67364983814571
 20
358.9816369277559
 30
0.0
 11
-35.67364983814571
 21
358.8902531157455
 31
0.0
  0
LINE
  5
1E9A
330
1F
100
AcDbEntity
  8
AM_VIS
100
AcDbLine
 10
-35.6787656111087
 20
358.8902473770568
 30
0.0
 11
-35.67364983969492
 21
358.8902542661601
 31
0.0
  0
ARC
  5
1E9B
330
1F
100
AcDbEntity
  8
AM_VIS
100
AcDbCircle
 10
-32.68219547958807
 20
357.991772375267
 30
0.0
 40
0.948828023498417
100
AcDbArc
 50
37.92721607826869
 51
89.22773460902815
  0
ARC
  5
1E9C
330
1F
100
AcDbEntity
  8
AM_VIS
100
AcDbCircle
 10
-32.65569435101048
 20
358.0085319897639
 30
0.0
 40
0.9320830974022634
100
AcDbArc
 50
90.84295735914206
 51
142.5750628791597
  0
ARC
  5
1E9D
330
1F
100
AcDbEntity
  8
AM_VIS
100
AcDbCircle
 10
-31.84022088532908
 20
357.4191834870202
 30
0.0
 40
1.938047107655805
100
AcDbArc
 50
143.3895563851576
 51
183.2499119387836
  0
ARC
  5
1E9E
330
1F
100
AcDbEntity
  8
AM_VIS
100
AcDbCircle
 10
-31.85241413083699
 20
357.1996589488734
 30
0.0
 40
1.925861279564007
100
AcDbArc
 50
176.735941649987
 51
216.0431390180838
  0
ARC
  5
1E9F
330
1F
100
AcDbEntity
  8
AM_VIS
100
AcDbCircle
 10
-32.66530312277359
 20
356.6184461458028
 30
0.0
 40
0.9266355381603091
100
AcDbArc
 50
216.5591648966814
 51
269.74624687662
  0
ARC
  5
1EA0
330
1F
100
AcDbEntity
  8
AM_VIS
100
AcDbCircle
 10
-32.67750700172405
 20
356.6447037353304
 30
0.0
 40
0.9529184662517826
100
AcDbArc
 50
270.487030600755
 51
322.6430717534013
  0
ARC
  5
1EA1
330
1F
100
AcDbEntity
  8
AM_VIS
100
AcDbCircle
 10
-33.47754092853046
 20
357.1997411265098
 30
0.0
 40
1.926135553739583
100
AcDbArc
 50
323.9597747389479
 51
3.261144592981148
  0
ARC
  5
1EA2
330
1F
100
AcDbEntity
  8
AM_VIS
100
AcDbCircle
 10
-33.48788754014535
 20
357.419653090212
 30
0.0
 40
1.936509100910963
100
AcDbArc
 50
356.7335874219684
 51
36.62694425408896
  0
ARC
  5
1EA3
330
1F
100
AcDbEntity
  8
AM_VIS
100
AcDbCircle
 10
-32.20293055096821
 20
357.2206780020098
 30
0.0
 40
1.903059992272634
100
AcDbArc
 50
177.4681862507724
 51
218.9099051485302
  0
ARC
  5
1EA4
330
1F
100
AcDbEntity
  8
AM_VIS
100
AcDbCircle
 10
-32.22298114074778
 20
357.3987782019786
 30
0.0
 40
1.88350053147796
100
AcDbArc
 50
139.5537078991086
 51
182.8616954539196
  0
ARC
  5
1EA5
330
1F
100
AcDbEntity
  8
AM_VIS
100
AcDbCircle
 10
-32.68844651227713
 20
357.772517564656
 30
0.0
 40
1.286936450266902
100
AcDbArc
 50
89.15231055345341
 51
138.7726673957034
  0
ARC
  5
1EA6
330
1F
100
AcDbEntity
  8
AM_VIS
100
AcDbCircle
 10
-32.64810134294925
 20
357.7675339301567
 30
0.0
 40
1.291954926084596
100
AcDbArc
 50
41.32624671908745
 51
90.94490960154745
  0
ARC
  5
1EA7
330
1F
100
AcDbEntity
  8
AM_VIS
100
AcDbCircle
 10
-33.1191130598738
 20
357.4026583399402
 30
0.0
 40
1.886973971987396
100
AcDbArc
 50
357.0256079724814
 51
40.20201450203502
  0
ARC
  5
1EA8
330
1F
100
AcDbEntity
  8
AM_VIS
100
AcDbCircle
 10
-33.14828796984552
 20
357.2194125973207
 30
0.0
 40
1.915508399834428
100
AcDbArc
 50
321.4384400310172
 51
2.553236757155243
  0
ARC
  5
1EA9
330
1F
100
AcDbEntity
  8
AM_VIS
100
AcDbCircle
 10
-32.6420873410037
 20
356.8464433753471
 30
0.0
 40
1.287420108404293
100
AcDbArc
 50
268.7840645809966
 51
320.3745636503946
  0
ARC
  5
1EAA
330
1F
100
AcDbEntity
  8
AM_VIS
100
AcDbCircle
 10
-32.69446327059589
 20
356.8416703863259
 30
0.0
 40
1.28260198474103
100
AcDbArc
 50
219.5269015912234
 51
271.119372068103
  0
LINE
  5
1EAB
330
1F
100
AcDbEntity
  8
AM_VIS
100
AcDbLine
 10
-25.18507281464704
 20
358.9816369277559
 30
0.0
 11
-25.18507281464704
 21
358.8902531157455
 31
0.0
  0
LINE
  5
1EAC
330
1F
100
AcDbEntity
  8
AM_VIS
100
AcDbLine
 10
-25.39986193781215
 20
358.8771269193287
 30
0.0
 11
-25.18511129357597
 21
358.8908550459995
 31
0.0
  0
ARC
  5
1EAD
330
1F
100
AcDbEntity
  8
AM_VIS
100
AcDbCircle
 10
-25.35443101016307
 20
358.4305333806634
 30
0.0
 40
0.4483162315676296
100
AcDbArc
 50
95.8113796443613
 51
122.6499651069621
  0
ARC
  5
1EAE
330
1F
100
AcDbEntity
  8
AM_VIS
100
AcDbCircle
 10
-24.70980648292155
 20
357.5799422134459
 30
0.0
 40
1.514600773333853
100
AcDbArc
 50
125.8240769696568
 51
140.292950248515
  0
LINE
  5
1EAF
330
1F
100
AcDbEntity
  8
AM_VIS
100
AcDbLine
 10
-26.79342790603084
 20
357.5423418885914
 30
0.0
 11
-25.87502059532588
 21
358.5475638207063
 31
0.0
  0
LINE
  5
1EB0
330
1F
100
AcDbEntity
  8
AM_VIS
100
AcDbLine
 10
-25.69225297130501
 20
356.1852922802363
 30
0.0
 11
-26.79342790603084
 21
357.5423418885914
 31
0.0
  0
ARC
  5
1EB1
330
1F
100
AcDbEntity
  8
AM_VIS
100
AcDbCircle
 10
-23.94703987993196
 20
357.5558317423666
 30
0.0
 40
2.219041944523823
100
AcDbArc
 50
218.1430269161946
 51
231.8569730838049
  0
ARC
  5
1EB2
330
1F
100
AcDbEntity
  8
AM_VIS
100
AcDbCircle
 10
-24.97523185010738
 20
356.3433078227715
 30
0.0
 40
0.6332136756082396
100
AcDbArc
 50
237.2720461279319
 51
268.2077236448566
  0
LINE
  5
1EB3
330
1F
100
AcDbEntity
  8
AM_VIS
100
AcDbLine
 10
-24.99503625513199
 20
355.7104039244434
 30
0.0
 11
-24.99503625513199
 21
355.6187126457715
 31
0.0
  0
LINE
  5
1EB4
330
1F
100
AcDbEntity
  8
AM_VIS
100
AcDbLine
 10
-26.27254017757133
 20
355.6187126457715
 30
0.0
 11
-26.27254017757133
 21
355.710096457782
 31
0.0
  0
ARC
  5
1EB5
330
1F
100
AcDbEntity
  8
AM_VIS
100
AcDbCircle
 10
-26.33414571386393
 20
356.788627268037
 30
0.0
 40
1.080288827476778
100
AcDbArc
 50
273.2691749628402
 51
287.852846419551
  0
SPLINE
  5
1EB6
330
1F
100
AcDbEntity
  8
AM_VIS
100
AcDbSpline
210
0.0
220
0.0
230
1.0
 70
     8
 71
     3
 72
    14
 73
    10
 74
     0
 42
0.0000000001
 43
0.0000000001
 40
-0.1531726380934112
 40
-0.1531726380934112
 40
-0.1531726380934112
 40
-0.1531726380934112
 40
-0.1208721410525331
 40
-0.1208721410525331
 40
-0.0915873767462261
 40
-0.0915873767462261
 40
-0.0514964941566076
 40
-0.0514964941566076
 40
0.0
 40
0.0
 40
0.0
 40
0.0
 10
-26.0029579321405
 20
355.7603575543878
 30
0.0
 10
-25.99448922008221
 20
355.7637450392111
 30
0.0
 10
-25.98622589460388
 20
355.7680444919024
 30
0.0
 10
-25.97157821851283
 20
355.7784737993595
 30
0.0
 10
-25.96515127666709
 20
355.7843516956257
 30
0.0
 10
-25.95172210851081
 20
355.8008427536695
 30
0.0
 10
-25.94583025132752
 20
355.811852861726
 30
0.0
 10
-25.93642944261347
 20
355.840204109012
 30
0.0
 10
-25.93442007313269
 20
355.8574218213486
 30
0.0
 10
-25.93442007313269
 20
355.8745873194008
 30
0.0
  0
ARC
  5
1EB7
330
1F
100
AcDbEntity
  8
AM_VIS
100
AcDbCircle
 10
-29.35225296628733
 20
354.1460666851282
 30
0.0
 40
3.830060739549224
100
AcDbArc
 50
26.82735965872091
 51
42.49953204828034
  0
LINE
  5
1EB8
330
1F
100
AcDbEntity
  8
AM_VIS
100
AcDbLine
 10
-27.00361067365486
 20
357.3138823585653
 30
0.0
 11
-26.52841485120055
 21
356.733595152299
 31
0.0
  0
LINE
  5
1EB9
330
1F
100
AcDbEntity
  8
AM_VIS
100
AcDbLine
 10
-27.25034696608307
 20
357.0671460661371
 30
0.0
 11
-27.00361067365486
 21
357.3138823585654
 31
0.0
  0
LINE
  5
1EBA
330
1F
100
AcDbEntity
  8
AM_VIS
100
AcDbLine
 10
-27.25034696608307
 20
357.0671460661371
 30
0.0
 11
-27.25034696608307
 21
356.1807230896358
 31
0.0
  0
ARC
  5
1EBB
330
1F
100
AcDbEntity
  8
AM_VIS
100
AcDbCircle
 10
-26.71207525148586
 20
356.1305716998914
 30
0.0
 40
0.5406029972435576
100
AcDbArc
 50
174.6770539476541
 51
215.0954797503847
  0
ARC
  5
1EBC
330
1F
100
AcDbEntity
  8
AM_VIS
100
AcDbCircle
 10
-26.78070899701538
 20
356.401317886441
 30
0.0
 40
0.6912694708633105
100
AcDbArc
 50
237.2770155238639
 51
269.3244960081502
  0
LINE
  5
1EBD
330
1F
100
AcDbEntity
  8
AM_VIS
100
AcDbLine
 10
-26.78885871543034
 20
355.710096457782
 30
0.0
 11
-26.78885871543034
 21
355.6187126457715
 31
0.0
  0
LINE
  5
1EBE
330
1F
100
AcDbEntity
  8
AM_VIS
100
AcDbLine
 10
-27.99969422456872
 20
355.6187126457715
 30
0.0
 11
-27.99969422456872
 21
355.710096457782
 31
0.0
  0
SPLINE
  5
1EBF
330
1F
100
AcDbEntity
  8
AM_VIS
100
AcDbSpline
210
0.0
220
0.0
230
1.0
 70
     8
 71
     3
 72
    10
 73
     6
 74
     0
 42
0.0000000001
 43
0.0000000001
 40
-0.3963858617535622
 40
-0.3963858617535622
 40
-0.3963858617535622
 40
-0.3963858617535622
 40
-0.0994926975763721
 40
-0.0994926975763721
 40
0.0
 40
0.0
 40
0.0
 40
0.0
 10
-27.99969422456872
 20
355.710096457782
 30
0.0
 10
-27.88822700325096
 20
355.7193854212394
 30
0.0
 10
-27.78170744036393
 20
355.7391150308892
 30
0.0
 10
-27.67738968502135
 20
355.7906546766636
 30
0.0
 10
-27.65117912121727
 20
355.8073060781047
 30
0.0
 10
-27.62958978592641
 20
355.8288954133956
 30
0.0
  0
SPLINE
  5
1EC0
330
1F
100
AcDbEntity
  8
AM_VIS
100
AcDbSpline
210
0.0
220
0.0
230
1.0
 70
     8
 71
     3
 72
    12
 73
     8
 74
     0
 42
0.0000000001
 43
0.0000000001
 40
-0.4233469574412786
 40
-0.4233469574412786
 40
-0.4233469574412786
 40
-0.4233469574412786
 40
-0.3460605099151339
 40
-0.3460605099151339
 40
-0.2515676211573338
 40
-0.2515676211573338
 40
0.0
 40
0.0
 40
0.0
 40
0.0
 10
-27.62958978592641
 20
355.8288954133956
 30
0.0
 10
-27.61380744032761
 20
355.8471697293128
 30
0.0
 10
-27.60142716613115
 20
355.8693240897893
 30
0.0
 10
-27.57960610167336
 20
355.9210043925799
 30
0.0
 10
-27.57090076586874
 20
355.9523470531092
 30
0.0
 10
-27.54737869827636
 20
356.0650086507122
 30
0.0
 10
-27.54277516451649
 20
356.160835884324
 30
0.0
 10
-27.54277516451649
 20
356.2446917580431
 30
0.0
  0
LINE
  5
1EC1
330
1F
100
AcDbEntity
  8
AM_VIS
100
AcDbLine
 10
-27.54277516451649
 20
356.2446917580431
 30
0.0
 11
-27.54277516451649
 21
358.4424724368943
 31
0.0
  0
SPLINE
  5
1EC2
330
1F
100
AcDbEntity
  8
AM_VIS
100
AcDbSpline
210
0.0
220
0.0
230
1.0
 70
     8
 71
     3
 72
    12
 73
     8
 74
     0
 42
0.0000000001
 43
0.0000000001
 40
-0.4087596760899748
 40
-0.4087596760899748
 40
-0.4087596760899748
 40
-0.4087596760899748
 40
-0.1942424470515969
 40
-0.1942424470515969
 40
-0.0844960232748131
 40
-0.0844960232748131
 40
0.0
 40
0.0
 40
0.0
 40
0.0
 10
-27.54277516451649
 20
358.4424724368943
 30
0.0
 10
-27.54277516451649
 20
358.5137047808844
 30
0.0
 10
-27.54801841520782
 20
358.5917724451941
 30
0.0
 10
-27.57479979825479
 20
358.6951704090696
 30
0.0
 10
-27.58758927628278
 20
358.7294676481598
 30
0.0
 10
-27.61986517508851
 20
358.782139958361
 30
0.0
 10
-27.63676178141853
 20
358.8017612580049
 30
0.0
 10
-27.65700492952954
 20
358.8171460661371
 30
0.0
  0
ARC
  5
1EC3
330
1F
100
AcDbEntity
  8
AM_VIS
100
AcDbCircle
 10
-28.01507181497263
 20
357.9784391006748
 30
0.0
 40
0.9119436760929557
100
AcDbArc
 50
66.88104182880332
 51
89.03380788542849
  0
LINE
  5
1EC4
330
1F
100
AcDbEntity
  8
AM_VIS
100
AcDbLine
 10
-27.99969422456872
 20
358.8902531157455
 30
0.0
 11
-27.99969422456872
 21
358.9816369277559
 31
0.0
  0
LINE
  5
1EC5
330
1F
100
AcDbEntity
  8
AM_VIS
100
AcDbLine
 10
-26.7797203342293
 20
358.9816369277559
 30
0.0
 11
-26.7797203342293
 21
358.8902531157455
 31
0.0
  0
SPLINE
  5
1EC6
330
1F
100
AcDbEntity
  8
AM_VIS
100
AcDbSpline
210
0.0
220
0.0
230
1.0
 70
     8
 71
     3
 72
    10
 73
     6
 74
     0
 42
0.0000000001
 43
0.0000000001
 40
-0.3041110503072323
 40
-0.3041110503072323
 40
-0.3041110503072323
 40
-0.3041110503072323
 40
-0.0622187259415476
 40
-0.0622187259415476
 40
0.0
 40
0.0
 40
0.0
 40
0.0
 10
-26.7797203342293
 20
358.8902531157455
 30
0.0
 10
-26.90611448812485
 20
358.8803785435148
 30
0.0
 10
-27.02300593227335
 20
358.863820509038
 30
0.0
 10
-27.11610441028034
 20
358.8283619910179
 30
0.0
 10
-27.13505236865993
 20
358.8193042211436
 30
0.0
 10
-27.14982477287157
 20
358.8080076849361
 30
0.0
  0
SPLINE
  5
1EC7
330
1F
100
AcDbEntity
  8
AM_VIS
100
AcDbSpline
210
0.0
220
0.0
230
1.0
 70
     8
 71
     3
 72
    12
 73
     8
 74
     0
 42
0.0000000001
 43
0.0000000001
 40
-0.4286539677926123
 40
-0.4286539677926123
 40
-0.4286539677926123
 40
-0.4286539677926123
 40
-0.3419771503709849
 40
-0.3419771503709849
 40
-0.2431876069041224
 40
-0.2431876069041224
 40
0.0
 40
0.0
 40
0.0
 40
0.0
 10
-27.14982477287157
 20
358.8080076849361
 30
0.0
 10
-27.16736016527011
 20
358.7928634815808
 30
0.0
 10
-27.18183849010879
 20
358.773997117735
 30
0.0
 10
-27.20743649579944
 20
358.7282323584862
 30
0.0
 10
-27.21758620831989
 20
358.7009638260669
 30
0.0
 10
-27.24400379203681
 20
358.6048962776414
 30
0.0
 10
-27.25034696608307
 20
358.523534972529
 30
0.0
 10
-27.25034696608307
 20
358.4424724368943
 30
0.0
  0
LINE
  5
1EC8
330
1F
100
AcDbEntity
  8
AM_VIS
100
AcDbLine
 10
-27.25034696608307
 20
358.4424724368943
 30
0.0
 11
-27.25034696608307
 21
357.2544828807585
 31
0.0
  0
LINE
  5
1EC9
330
1F
100
AcDbEntity
  8
AM_VIS
100
AcDbLine
 10
-27.24731558148747
 20
357.2516581064832
 30
0.0
 11
-26.22453635148946
 21
358.3492457012133
 31
0.0
  0
SPLINE
  5
1ECA
330
1F
100
AcDbEntity
  8
AM_VIS
100
AcDbSpline
210
0.0
220
0.0
230
1.0
 70
     8
 71
     3
 72
    12
 73
     8
 74
     0
 42
0.0000000001
 43
0.0000000001
 40
-0.4361758250565723
 40
-0.4361758250565723
 40
-0.4361758250565723
 40
-0.4361758250565723
 40
-0.184232534982831
 40
-0.184232534982831
 40
-0.061391432063359
 40
-0.061391432063359
 40
0.0
 40
0.0
 40
0.0
 40
0.0
 10
-26.23141746216663
 20
358.3556578154844
 30
0.0
 10
-26.17677715455361
 20
358.4228198835992
 30
0.0
 10
-26.11508320608701
 20
358.505067001202
 30
0.0
 10
-26.05021714760596
 20
358.62217027076
 30
0.0
 10
-26.03151597783977
 20
358.6627528319553
 30
0.0
 10
-26.01576696734464
 20
358.7210795381747
 30
0.0
 10
-26.01209632895422
 20
358.741851968243
 30
0.0
 10
-26.01209631334155
 20
358.7623157789309
 30
0.0
  0
ARC
  5
1ECB
330
1F
100
AcDbEntity
  8
AM_VIS
100
AcDbCircle
 10
-26.10371422817849
 20
358.7719619808489
 30
0.0
 40
0.0921243264860552
100
AcDbArc
 50
353.9896265619578
 51
69.52933360766441
  0
ARC
  5
1ECC
330
1F
100
AcDbEntity
  8
AM_VIS
100
AcDbCircle
 10
-26.31826096853479
 20
357.9275794316907
 30
0.0
 40
0.9628477131388862
100
AcDbArc
 50
75.15015140968157
 51
88.91062780167862
  0
LINE
  5
1ECD
330
1F
100
AcDbEntity
  8
AM_VIS
100
AcDbLine
 10
-26.29995532117445
 20
358.8902531157455
 30
0.0
 11
-26.29995532117445
 21
358.9816369277559
 31
0.0
  0
LINE
  5
1ECE
330
1F
100
AcDbEntity
  8
AM_VIS
100
AcDbLine
 10
-20.88905453788462
 20
403.5593131679648
 30
0.0
 11
-20.88905453788462
 21
404.5593131679647
 31
0.0
  0
LINE
  5
1ECF
330
1F
100
AcDbEntity
  8
AM_VIS
100
AcDbLine
 10
-70.88905453788462
 20
403.5593131679648
 30
0.0
 11
-70.88905453788462
 21
404.5593131679647
 31
0.0
  0
LINE
  5
1ED0
330
1F
100
AcDbEntity
  8
AM_VIS
100
AcDbLine
 10
-12.88905453788459
 20
350.5593131679648
 30
0.0
 11
-11.88905453788459
 21
352.0593131679648
 31
0.0
  0
LINE
  5
1ED1
330
1F
100
AcDbEntity
  8
AM_VIS
100
AcDbLine
 10
-78.88905453788459
 20
350.5593131679648
 30
0.0
 11
-79.88905453788468
 21
352.0593131679649
 31
0.0
  0
LINE
  5
1ED2
102
{ACAD_REACTORS
330
1F54
330
1F5A
102
}
330
1F
100
AcDbEntity
  8
AM_VIS
100
AcDbLine
 10
-70.88905453788462
 20
404.5593131679647
 30
0.0
 11
-20.88905453788462
 21
404.5593131679647
 31
0.0
  0
LINE
  5
1ED3
330
1F
100
AcDbEntity
  8
AM_VIS
100
AcDbLine
 10
-78.88905453788459
 20
350.5593131679648
 30
0.0
 11
-12.88905453788459
 21
350.5593131679648
 31
0.0
  0
LINE
  5
1ED4
330
1F
100
AcDbEntity
  8
AM_VIS
100
AcDbLine
 10
-80.88905453788461
 20
402.5593131679647
 30
0.0
 11
-80.88905453788461
 21
403.5593131679648
 31
0.0
  0
LINE
  5
1ED5
330
1F
100
AcDbEntity
  8
AM_VIS
100
AcDbLine
 10
-80.88905453788461
 20
373.5593131679648
 30
0.0
 11
-80.88905453788461
 21
374.5593131679648
 31
0.0
  0
LINE
  5
1ED6
330
1F
100
AcDbEntity
  8
AM_VIS
100
AcDbLine
 10
-10.88905453788465
 20
374.5593131679648
 30
0.0
 11
-10.88905453788465
 21
373.5593131679648
 31
0.0
  0
LINE
  5
1ED7
330
1F
100
AcDbEntity
  8
AM_VIS
100
AcDbLine
 10
-10.88905453788465
 20
403.5593131679648
 30
0.0
 11
-10.88905453788465
 21
402.5593131679647
 31
0.0
  0
LINE
  5
1ED8
330
1F
100
AcDbEntity
  8
AM_VIS
100
AcDbLine
 10
-54.1956784008027
 20
353.5593131679648
 30
0.0
 11
-79.88905453788465
 21
353.5593131679648
 31
0.0
  0
LINE
  5
1ED9
330
1F
100
AcDbEntity
  8
AM_VIS
100
AcDbLine
 10
-11.88905453788459
 20
353.5593131679648
 30
0.0
 11
-37.5824306749665
 21
353.5593131679648
 31
0.0
  0
LINE
  5
1EDA
330
1F
100
AcDbEntity
  8
AM_VIS
100
AcDbLine
 10
-54.19567840080259
 20
377.5593131679648
 30
0.0
 11
-76.48317161944124
 21
377.5593131679648
 31
0.0
  0
LINE
  5
1EDB
330
1F
100
AcDbEntity
  8
AM_VIS
100
AcDbLine
 10
-75.33391826655543
 20
378.5593131679648
 30
0.0
 11
-54.07440730975705
 21
378.5593131679648
 31
0.0
  0
LINE
  5
1EDC
330
1F
100
AcDbEntity
  8
AM_VIS
100
AcDbLine
 10
-37.7037017660121
 20
378.5593131679648
 30
0.0
 11
-16.44419080921369
 21
378.5593131679648
 31
0.0
  0
LINE
  5
1EDD
330
1F
100
AcDbEntity
  8
AM_VIS
100
AcDbLine
 10
-15.29493745632794
 20
377.5593131679648
 30
0.0
 11
-37.5824306749665
 21
377.5593131679648
 31
0.0
  0
LINE
  5
1EDE
330
1F
100
AcDbEntity
  8
AM_VIS
100
AcDbLine
 10
-34.31203103919012
 20
356.4640129068682
 30
0.0
 11
-34.40798404180109
 21
356.4640129068682
 31
0.0
  0
LINE
  5
1EDF
330
1F
100
AcDbEntity
  8
AM_VIS
100
AcDbLine
 10
-35.67876560955352
 20
355.6187126457715
 30
0.0
 11
-34.51307542561307
 21
355.6187126457715
 31
0.0
  0
LINE
  5
1EE0
330
1F
100
AcDbEntity
  8
AM_VIS
100
AcDbLine
 10
-35.67364983814574
 20
358.9816369277559
 30
0.0
 11
-35.67876560955352
 21
358.9816369277559
 31
0.0
  0
LINE
  5
1EE1
330
1F
100
AcDbEntity
  8
AM_VIS
100
AcDbLine
 10
-26.2725401775713
 20
355.6187126457715
 30
0.0
 11
-24.99503625513199
 21
355.6187126457715
 31
0.0
  0
LINE
  5
1EE2
330
1F
100
AcDbEntity
  8
AM_VIS
100
AcDbLine
 10
-27.99969422456868
 20
355.6187126457715
 30
0.0
 11
-26.78885871543031
 21
355.6187126457715
 31
0.0
  0
LINE
  5
1EE3
330
1F
100
AcDbEntity
  8
AM_VIS
100
AcDbLine
 10
-26.7797203342293
 20
358.9816369277559
 30
0.0
 11
-27.99969422456872
 21
358.9816369277559
 31
0.0
  0
LINE
  5
1EE4
330
1F
100
AcDbEntity
  8
AM_VIS
100
AcDbLine
 10
-25.18507281464704
 20
358.9816369277559
 30
0.0
 11
-26.29995532117448
 21
358.9816369277559
 31
0.0
  0
LINE
  5
1EE5
330
1F
100
AcDbEntity
  8
AM_VIS
100
AcDbLine
 10
-20.33349898232891
 20
262.0593131679648
 30
0.0
 11
-19.3890545378847
 21
347.0593131679648
 31
0.0
  0
LINE
  5
1EE6
330
1F
100
AcDbEntity
  8
AM_VIS
100
AcDbLine
 10
-20.36780129886802
 20
258.9721046794553
 30
0.0
 11
-20.33349898232902
 21
262.0593131679648
 31
0.0
  0
LINE
  5
1EE7
330
1F
100
AcDbEntity
  8
AM_VIS
100
AcDbLine
 10
-72.38905453788476
 20
347.0593131679648
 30
0.0
 11
-71.44461009343996
 21
262.0593131679648
 31
0.0
  0
LINE
  5
1EE8
330
1F
100
AcDbEntity
  8
AM_VIS
100
AcDbLine
 10
-71.44461009344013
 20
262.0593131679648
 30
0.0
 11
-71.41030777690113
 21
258.9721046794553
 31
0.0
  0
LINE
  5
1EE9
330
1F
100
AcDbEntity
  8
AM_VIS
100
AcDbLine
 10
-58.23402806026502
 20
347.0593131692595
 30
0.0
 11
-57.79865267868672
 21
262.0593131693336
 31
0.0
  0
SPLINE
  5
1EEA
330
1F
100
AcDbEntity
  8
AM_VIS
100
AcDbSpline
210
0.0
220
0.0
230
1.0
 70
     8
 71
     3
 72
    47
 73
    43
 74
     0
 42
0.0000000001
 43
0.0000000001
 40
-9.338053573506391
 40
-9.338053573506391
 40
-9.338053573506391
 40
-9.338053573506391
 40
-9.311986833724887
 40
-9.311986833724887
 40
-9.010079576214476
 40
-9.010079576214476
 40
-8.708172318704065
 40
-8.708172318704065
 40
-8.285004503825931
 40
-8.285004503825931
 40
-7.861836688947793
 40
-7.861836688947793
 40
-7.110927823292456
 40
-7.110927823292456
 40
-6.360018957637119
 40
-6.360018957637119
 40
-4.770014218227842
 40
-4.770014218227842
 40
-3.180009478818561
 40
-3.180009478818561
 40
0.0
 40
0.0
 40
0.0
 40
3.180009478818564
 40
3.180009478818564
 40
4.770014218227847
 40
4.770014218227847
 40
6.360018957637129
 40
6.360018957637129
 40
7.110927823292463
 40
7.110927823292463
 40
7.861836688947798
 40
7.861836688947798
 40
8.285004503825934
 40
8.285004503825934
 40
8.708172318704072
 40
8.708172318704072
 40
9.010079576214483
 40
9.010079576214483
 40
9.311986833724894
 40
9.311986833724894
 40
9.338053573508576
 40
9.338053573508576
 40
9.338053573508576
 40
9.338053573508576
 10
-57.79865294591934
 20
262.0593131679648
 30
0.0
 10
-57.79846846312887
 20
262.0505019843694
 30
0.0
 10
-57.79834901935586
 20
262.0417483562943
 30
0.0
 10
-57.79763253132455
 20
261.9324306237946
 30
0.0
 10
-57.80587385503753
 20
261.8230805088763
 30
0.0
 10
-57.84156013219638
 20
261.6107930840917
 30
0.0
 10
-57.86887196656687
 20
261.5078091057439
 30
0.0
 10
-57.94276360161854
 20
261.2910604164984
 30
0.0
 10
-58.0018376562806
 20
261.162497504194
 30
0.0
 10
-58.1387223863174
 20
260.9259615718778
 30
0.0
 10
-58.21627149681777
 20
260.8176847804019
 30
0.0
 10
-58.42428675069976
 20
260.5628531699994
 30
0.0
 10
-58.58346564107489
 20
260.4095431761071
 30
0.0
 10
-58.91889257853484
 20
260.1422904553934
 30
0.0
 10
-59.09492331924011
 20
260.0278099293685
 30
0.0
 10
-59.60446088727659
 20
259.7363816783917
 30
0.0
 10
-59.97671633757295
 20
259.5821694390334
 30
0.0
 10
-60.74972855383379
 20
259.3332974129249
 30
0.0
 10
-61.15057764395669
 20
259.2391860228897
 30
0.0
 10
-62.36360545517292
 20
259.0249359668898
 30
0.0
 10
-63.18577034533564
 20
258.9721046794553
 30
0.0
 10
-63.93530576757235
 20
258.9721046794553
 30
0.0
 10
-64.68484118980902
 20
258.9721046794553
 30
0.0
 10
-65.50783624356291
 20
259.0249359668898
 30
0.0
 10
-66.72423066961176
 20
259.2391860228897
 30
0.0
 10
-67.12655857755868
 20
259.3332974129249
 30
0.0
 10
-67.90348144042636
 20
259.5821694390334
 30
0.0
 10
-68.27816010228255
 20
259.7363816783917
 30
0.0
 10
-68.79227702348561
 20
260.0278099293685
 30
0.0
 10
-68.97010665210792
 20
260.1422904553934
 30
0.0
 10
-69.30973306092579
 20
260.4095431761071
 30
0.0
 10
-69.47132098544102
 20
260.5628531699994
 30
0.0
 10
-69.68334053176249
 20
260.8176847804019
 30
0.0
 10
-69.76259104789614
 20
260.9259615718778
 30
0.0
 10
-69.90319258152704
 20
261.162497504194
 30
0.0
 10
-69.964286807458
 20
261.2910604164984
 30
0.0
 10
-70.04158431957583
 20
261.5078091057439
 30
0.0
 10
-70.07051439104509
 20
261.6107930840917
 30
0.0
 10
-70.1095364432623
 20
261.8230805088763
 30
0.0
 10
-70.11949603825931
 20
261.9324306237946
 30
0.0
 10
-70.12049731267143
 20
262.041748356295
 30
0.0
 10
-70.12051541889338
 20
262.0505019843687
 30
0.0
 10
-70.12046939049554
 20
262.0593131679648
 30
0.0
  0
LINE
  5
1EEB
330
1F
100
AcDbEntity
  8
AM_VIS
100
AcDbLine
 10
-71.0207404183688
 20
347.0593131652876
 30
0.0
 11
-70.12046965770588
 21
262.0593131651347
 31
0.0
  0
SPLINE
  5
1EEC
330
1F
100
AcDbEntity
  8
AM_VIS
100
AcDbSpline
210
0.0
220
0.0
230
1.0
 70
    12
 71
     2
 72
     6
 73
     3
 74
     0
 42
0.0000000001
 43
0.0000000001
 40
0.0
 40
0.0
 40
0.0
 40
18.36330544891768
 40
18.36330544891768
 40
18.36330544891768
 10
-58.23402831305597
 20
347.0593131679648
 30
0.0
 41
1.0
 10
-64.60296777497254
 20
343.9516046146386
 30
0.0
 41
1.057982348340952
 10
-71.02074016560024
 20
347.0593131679648
 30
0.0
 41
1.0
  0
LINE
  5
1EED
330
1F
100
AcDbEntity
  8
AM_VIS
100
AcDbLine
 10
-33.54920284370943
 20
346.059313167965
 30
0.0
 11
-33.54408076274734
 21
347.0593131679649
 31
0.0
  0
SPLINE
  5
1EEE
330
1F
100
AcDbEntity
  8
AM_VIS
100
AcDbSpline
210
-0.0000000000000002
220
0.0000000000000006
230
1.0
 70
    12
 71
     2
 72
     6
 73
     3
 74
     0
 42
0.0000000001
 43
0.0000000001
 40
0.0
 40
0.0
 40
0.0
 40
8.902279961629373
 40
8.902279961629373
 40
8.902279961629373
 10
-20.75736891016894
 20
347.0593131679648
 30
0.0
 41
1.0
 10
-23.95901954314494
 20
345.5089626021839
 30
0.0000000000000004
 41
1.02810905145589
 10
-26.97420916936903
 20
345.4631175162648
 30
0.0
 41
1.028964333571367
  0
SPLINE
  5
1EEF
330
1F
100
AcDbEntity
  8
AM_VIS
100
AcDbSpline
210
0.0
220
0.0
230
1.0
 70
    12
 71
     2
 72
     6
 73
     3
 74
     0
 42
0.0000000001
 43
0.0000000001
 40
14.84747883554312
 40
14.84747883554312
 40
14.84747883554312
 40
18.36330544891766
 40
18.36330544891766
 40
18.36330544891766
 10
-31.03422768149951
 20
346.0593131679648
 30
0.0
 41
1.017951644702703
 10
-32.26814890562895
 20
346.4367253149271
 30
0.0
 41
1.011101263003556
 10
-33.54408076271321
 20
347.0593131679648
 30
0.0
 41
1.0
  0
LINE
  5
1EF0
330
1F
100
AcDbEntity
  8
AM_VIS
100
AcDbLine
 10
-21.65763941806353
 20
262.0593131651347
 30
0.0
 11
-20.75736865740015
 21
347.0593131652876
 31
0.0
  0
SPLINE
  5
1EF1
330
1F
100
AcDbEntity
  8
AM_VIS
100
AcDbSpline
210
0.0
220
0.0
230
1.0
 70
     8
 71
     3
 72
    47
 73
    43
 74
     0
 42
0.0000000001
 43
0.0000000001
 40
-9.33805357350635
 40
-9.33805357350635
 40
-9.33805357350635
 40
-9.33805357350635
 40
-9.311986833724837
 40
-9.311986833724837
 40
-9.010079576214437
 40
-9.010079576214437
 40
-8.708172318704033
 40
-8.708172318704033
 40
-8.285004503825895
 40
-8.285004503825895
 40
-7.861836688947757
 40
-7.861836688947757
 40
-7.110927823292435
 40
-7.110927823292435
 40
-6.360018957637109
 40
-6.360018957637109
 40
-4.770014218227828
 40
-4.770014218227828
 40
-3.180009478818554
 40
-3.180009478818554
 40
0.0
 40
0.0
 40
0.0
 40
3.180009478818549
 40
3.180009478818549
 40
4.770014218227824
 40
4.770014218227824
 40
6.360018957637098
 40
6.360018957637098
 40
7.110927823292424
 40
7.110927823292424
 40
7.861836688947751
 40
7.861836688947751
 40
8.285004503825886
 40
8.285004503825886
 40
8.708172318704022
 40
8.708172318704022
 40
9.010079576214426
 40
9.010079576214426
 40
9.311986833724828
 40
9.311986833724828
 40
9.338053573508519
 40
9.338053573508519
 40
9.338053573508519
 40
9.338053573508519
 10
-21.65763968527366
 20
262.0593131679648
 30
0.0
 10
-21.65759365687583
 20
262.0505019843694
 30
0.0
 10
-21.65761176309775
 20
262.0417483562943
 30
0.0
 10
-21.65861303750987
 20
261.9324306237946
 30
0.0
 10
-21.66857263250688
 20
261.8230805088763
 30
0.0
 10
-21.70759468472409
 20
261.6107930840916
 30
0.0
 10
-21.73652475619335
 20
261.5078091057439
 30
0.0
 10
-21.81382226831118
 20
261.2910604164984
 30
0.0
 10
-21.87491649424214
 20
261.162497504194
 30
0.0
 10
-22.01551802787304
 20
260.9259615718779
 30
0.0
 10
-22.09476854400668
 20
260.8176847804019
 30
0.0
 10
-22.30678809032816
 20
260.5628531699994
 30
0.0
 10
-22.46837601484338
 20
260.4095431761071
 30
0.0
 10
-22.80800242366126
 20
260.1422904553934
 30
0.0
 10
-22.98583205228357
 20
260.0278099293685
 30
0.0
 10
-23.49994897348659
 20
259.7363816783917
 30
0.0
 10
-23.87462763534279
 20
259.5821694390334
 30
0.0
 10
-24.6515504982105
 20
259.3332974129249
 30
0.0
 10
-25.05387840615739
 20
259.2391860228897
 30
0.0
 10
-26.27027283220622
 20
259.0249359668898
 30
0.0
 10
-27.09326788596013
 20
258.9721046794553
 30
0.0
 10
-27.84280330819683
 20
258.9721046794553
 30
0.0
 10
-28.59233873043354
 20
258.9721046794553
 30
0.0
 10
-29.41450362059624
 20
259.0249359668899
 30
0.0
 10
-30.62753143181246
 20
259.2391860228898
 30
0.0
 10
-31.02838052193533
 20
259.3332974129249
 30
0.0
 10
-31.80139273819617
 20
259.5821694390334
 30
0.0
 10
-32.17364818849254
 20
259.7363816783917
 30
0.0
 10
-32.68318575652902
 20
260.0278099293685
 30
0.0
 10
-32.85921649723429
 20
260.1422904553934
 30
0.0
 10
-33.19464343469423
 20
260.4095431761071
 30
0.0
 10
-33.35382232506936
 20
260.5628531699994
 30
0.0
 10
-33.56183757895136
 20
260.8176847804019
 30
0.0
 10
-33.6393866894517
 20
260.9259615718779
 30
0.0
 10
-33.77627141948849
 20
261.162497504194
 30
0.0
 10
-33.83534547415056
 20
261.2910604164984
 30
0.0
 10
-33.90923710920223
 20
261.5078091057439
 30
0.0
 10
-33.93654894357275
 20
261.6107930840917
 30
0.0
 10
-33.97223522073162
 20
261.8230805088763
 30
0.0
 10
-33.98047654444457
 20
261.9324306237946
 30
0.0
 10
-33.97976005641325
 20
262.041748356295
 30
0.0
 10
-33.97964061264025
 20
262.0505019843687
 30
0.0
 10
-33.97945612984975
 20
262.0593131679648
 30
0.0
  0
LINE
  5
1EF2
330
1F
100
AcDbEntity
  8
AM_VIS
100
AcDbLine
 10
-33.97945613000187
 20
262.0593131679656
 30
0.0
 11
-33.96921204021092
 21
264.0593131679656
 31
0.0
  0
LINE
  5
1EF3
330
1F
100
AcDbEntity
  8
AM_VIS
100
AcDbLine
 10
-19.40680601717452
 20
345.4616800318702
 30
0.0
 11
-16.9390545378846
 21
348.0593131679648
 31
0.0
  0
LINE
  5
1EF4
330
1F
100
AcDbEntity
  8
AM_VIS
100
AcDbLine
 10
-72.37130305859466
 20
345.4616800318702
 30
0.0
 11
-74.83905453788458
 21
348.0593131679648
 31
0.0
  0
LINE
  5
1EF5
330
1F
100
AcDbEntity
  8
AM_VIS
100
AcDbLine
 10
-31.88905453788459
 20
254.0593131679648
 30
0.0
 11
-21.3700868901206
 21
258.3771148356277
 31
0.0
  0
LINE
  5
1EF6
330
1F
100
AcDbEntity
  8
AM_VIS
100
AcDbLine
 10
-59.88905453788456
 20
254.0593131679648
 30
0.0
 11
-70.40802218564852
 21
258.3771148356277
 31
0.0
  0
LINE
  5
1EF7
330
1F
100
AcDbEntity
  8
AM_VIS
100
AcDbLine
 10
-33.88905453788459
 20
252.0593131679648
 30
0.0
 11
-31.88905453788459
 21
254.0593131679648
 31
0.0
  0
LINE
  5
1EF8
330
1F
100
AcDbEntity
  8
AM_VIS
100
AcDbLine
 10
-57.88905453788456
 20
252.0593131679648
 30
0.0
 11
-59.88905453788459
 21
254.0593131679648
 31
0.0
  0
LINE
  5
1EF9
330
1F
100
AcDbEntity
  8
AM_VIS
100
AcDbLine
 10
-16.9390545378846
 20
348.0593131679648
 30
0.0
 11
-16.9390545378846
 21
350.5593131679648
 31
0.0
  0
LINE
  5
1EFA
330
1F
100
AcDbEntity
  8
AM_VIS
100
AcDbLine
 10
-74.83905453788458
 20
348.0593131679648
 30
0.0
 11
-74.83905453788458
 21
350.5593131679648
 31
0.0
  0
LINE
  5
1EFB
330
1F
100
AcDbEntity
  8
AM_VIS
100
AcDbLine
 10
-71.0207401656003
 20
347.0593131679648
 30
0.0
 11
-72.38905453788459
 21
347.0593131679648
 31
0.0
  0
LINE
  5
1EFC
330
1F
100
AcDbEntity
  8
AM_VIS
100
AcDbLine
 10
-31.88905453788459
 20
254.0593131679648
 30
0.0
 11
-59.88905453788456
 21
254.0593131679648
 31
0.0
  0
LINE
  5
1EFD
330
1F
100
AcDbEntity
  8
AM_VIS
100
AcDbLine
 10
-33.88905453788459
 20
252.0593131679648
 30
0.0
 11
-57.88905453788456
 21
252.0593131679648
 31
0.0
  0
LINE
  5
1EFE
330
1F
100
AcDbEntity
  8
AM_VIS
100
AcDbLine
 10
-16.9390545378846
 20
348.0593131679648
 30
0.0
 11
-74.83905453788458
 21
348.0593131679648
 31
0.0
  0
LINE
  5
1EFF
330
1F
100
AcDbEntity
  8
AM_VIS
100
AcDbLine
 10
-19.38905453788459
 20
347.0593131679648
 30
0.0
 11
-20.75736891016888
 21
347.0593131679648
 31
0.0
  0
LINE
  5
1F00
330
1F
100
AcDbEntity
  8
AM_VIS
100
AcDbLine
 10
-20.33349898232902
 20
262.0593131679648
 30
0.0
 11
-21.65763968527366
 21
262.0593131679648
 31
0.0
  0
LINE
  5
1F01
330
1F
100
AcDbEntity
  8
AM_VIS
100
AcDbLine
 10
-70.12046939049554
 20
262.0593131679648
 30
0.0
 11
-71.44461009344013
 21
262.0593131679648
 31
0.0
  0
LINE
  5
1F02
330
1F
100
AcDbEntity
  8
AM_VIS
100
AcDbLine
 10
-33.97945612984975
 20
262.0593131679648
 30
0.0
 11
-57.79865294591937
 21
262.0593131679648
 31
0.0
  0
LINE
  5
1F03
330
1F
100
AcDbEntity
  8
AM_VIS
100
AcDbLine
 10
-33.54408076271326
 20
347.0593131679648
 30
0.0
 11
-58.23402831305589
 21
347.0593131679648
 31
0.0
  0
ARC
  5
1F04
330
1F
100
AcDbEntity
  8
AM_VIS
100
AcDbCircle
 10
-68.88909589091415
 20
262.0775016952904
 30
0.0
 40
3.999999999999999
100
AcDbArc
 50
230.9275212378202
 51
247.682943291689
  0
ARC
  5
1F05
330
1F
100
AcDbEntity
  8
AM_VIS
100
AcDbCircle
 10
-22.889013184855
 20
262.0775016952904
 30
0.0
 40
4.0
100
AcDbArc
 50
292.3170567083109
 51
309.0724787621798
  0
LINE
  5
1F06
330
1F
100
AcDbEntity
  8
AM_VIS
100
AcDbLine
 10
-33.63905453788459
 20
328.0593131679648
 30
0.0
 11
-33.63905453788459
 21
282.0593131679648
 31
0.0
  0
LINE
  5
1F07
330
1F
100
AcDbEntity
  8
AM_VIS
100
AcDbLine
 10
-38.13905453788459
 20
282.0593131679648
 30
0.0
 11
-38.13905453788459
 21
328.0593131679648
 31
0.0
  0
LINE
  5
1F08
330
1F
100
AcDbEntity
  8
AM_VIS
100
AcDbLine
 10
-33.63905453788459
 20
282.0593131679648
 30
0.0
 11
-38.13905453788459
 21
282.0593131679648
 31
0.0
  0
LINE
  5
1F09
330
1F
100
AcDbEntity
  8
AM_VIS
100
AcDbLine
 10
-26.88905453788459
 20
265.0593131679648
 30
0.0
 11
-26.88905453788459
 21
345.0593131679648
 31
0.0
  0
LINE
  5
1F0A
330
1F
100
AcDbEntity
  8
AM_VIS
100
AcDbLine
 10
-27.88905453788459
 20
346.0593131679648
 30
0.0
 11
-43.88905453788459
 21
346.0593131679648
 31
0.0
  0
LINE
  5
1F0B
330
1F
100
AcDbEntity
  8
AM_VIS
100
AcDbLine
 10
-43.88905453788459
 20
264.0593131679648
 30
0.0
 11
-27.88905453788459
 21
264.0593131679648
 31
0.0
  0
LINE
  5
1F0C
330
1F
100
AcDbEntity
  8
AM_VIS
100
AcDbLine
 10
-44.88905453788459
 20
345.0593131679648
 30
0.0
 11
-44.88905453788459
 21
265.0593131679648
 31
0.0
  0
LINE
  5
1F0D
330
1F
100
AcDbEntity
  8
AM_VIS
100
AcDbLine
 10
-38.13905453788459
 20
328.0593131679648
 30
0.0
 11
-33.63905453788459
 21
328.0593131679648
 31
0.0
  0
LINE
  5
1F0E
330
1F
100
AcDbEntity
  8
AM_VIS
100
AcDbLine
 10
-39.88905453788459
 20
333.0593131679648
 30
0.0
 11
-31.88905453788459
 21
333.0593131679648
 31
0.0
  0
LINE
  5
1F0F
330
1F
100
AcDbEntity
  8
AM_VIS
100
AcDbLine
 10
-40.88905453788458
 20
278.0593131679648
 30
0.0
 11
-40.88905453788458
 21
332.0593131679648
 31
0.0
  0
LINE
  5
1F10
330
1F
100
AcDbEntity
  8
AM_VIS
100
AcDbLine
 10
-31.88905453788459
 20
277.0593131679648
 30
0.0
 11
-39.88905453788459
 21
277.0593131679648
 31
0.0
  0
LINE
  5
1F11
330
1F
100
AcDbEntity
  8
AM_VIS
100
AcDbLine
 10
-30.88905453788459
 20
332.0593131679648
 30
0.0
 11
-30.88905453788459
 21
278.0593131679648
 31
0.0
  0
CIRCLE
  5
1F12
330
1F
100
AcDbEntity
  8
AM_VIS
100
AcDbCircle
 10
-35.88905453788459
 20
272.0593131679648
 30
0.0
 40
4.0
  0
CIRCLE
  5
1F13
330
1F
100
AcDbEntity
  8
AM_VIS
100
AcDbCircle
 10
-35.88905453788459
 20
338.0593131679648
 30
0.0
 40
4.0
  0
ARC
  5
1F14
330
1F
100
AcDbEntity
  8
AM_VIS
100
AcDbCircle
 10
-27.88905453788459
 20
345.0593131679648
 30
0.0
 40
0.9999999999999998
100
AcDbArc
 50
0.0
 51
90.0
  0
ARC
  5
1F15
330
1F
100
AcDbEntity
  8
AM_VIS
100
AcDbCircle
 10
-27.88905453788459
 20
265.0593131679648
 30
0.0
 40
1.0
100
AcDbArc
 50
270.0
 51
0.0
  0
ARC
  5
1F16
330
1F
100
AcDbEntity
  8
AM_VIS
100
AcDbCircle
 10
-43.88905453788459
 20
265.0593131679648
 30
0.0
 40
0.9999999999999998
100
AcDbArc
 50
180.0
 51
270.0
  0
ARC
  5
1F17
330
1F
100
AcDbEntity
  8
AM_VIS
100
AcDbCircle
 10
-43.88905453788459
 20
345.0593131679648
 30
0.0
 40
1.0
100
AcDbArc
 50
90.0
 51
180.0
  0
ARC
  5
1F18
330
1F
100
AcDbEntity
  8
AM_VIS
100
AcDbCircle
 10
-31.88905453788459
 20
332.0593131679648
 30
0.0
 40
0.9999999999999998
100
AcDbArc
 50
0.0
 51
90.0
  0
ARC
  5
1F19
330
1F
100
AcDbEntity
  8
AM_VIS
100
AcDbCircle
 10
-39.88905453788459
 20
332.0593131679648
 30
0.0
 40
0.9999999999999998
100
AcDbArc
 50
90.0
 51
180.0
  0
ARC
  5
1F1A
330
1F
100
AcDbEntity
  8
AM_VIS
100
AcDbCircle
 10
-39.88905453788459
 20
278.0593131679648
 30
0.0
 40
0.9999999999999998
100
AcDbArc
 50
180.0
 51
270.0
  0
ARC
  5
1F1B
330
1F
100
AcDbEntity
  8
AM_VIS
100
AcDbCircle
 10
-31.88905453788459
 20
278.0593131679648
 30
0.0
 40
0.9999999999999998
100
AcDbArc
 50
270.0
 51
0.0
  0
LINE
  5
1F1C
330
1F
100
AcDbEntity
  8
AM_VIS
100
AcDbLine
 10
-37.88905453788459
 20
282.0593131679648
 30
0.0
 11
-37.88905453788459
 21
328.0593131679648
 31
0.0
  0
LINE
  5
1F1D
330
1F
100
AcDbEntity
  8
AM_VIS
100
AcDbLine
 10
-33.88905453788459
 20
328.0593131679648
 30
0.0
 11
-33.88905453788459
 21
282.0593131679648
 31
0.0
  0
LINE
  5
1F1E
330
1F
100
AcDbEntity
  8
AM_VIS
100
AcDbLine
 10
-92.4390545378846
 20
386.0593131679648
 30
0.0
 11
-91.9390545378846
 21
385.5593131679648
 31
0.0
  0
LINE
  5
1F1F
330
1F
100
AcDbEntity
  8
AM_VIS
100
AcDbLine
 10
-92.4390545378846
 20
391.0593131679648
 30
0.0
 11
-91.9390545378846
 21
391.5593131679648
 31
0.0
  0
LINE
  5
1F20
330
1F
100
AcDbEntity
  8
AM_VIS
100
AcDbLine
 10
-90.88905453788461
 20
391.5593131679648
 30
0.0
 11
-91.9390545378846
 21
391.5593131679648
 31
0.0
  0
LINE
  5
1F21
330
1F
100
AcDbEntity
  8
AM_VIS
100
AcDbLine
 10
-90.88905453788461
 20
385.5593131679648
 30
0.0
 11
-91.93905453788463
 21
385.5593131679648
 31
0.0
  0
LINE
  5
1F22
330
1F
100
AcDbEntity
  8
AM_VIS
100
AcDbLine
 10
-92.4390545378846
 20
386.0593131679648
 30
0.0
 11
-92.4390545378846
 21
391.0593131679648
 31
0.0
  0
LINE
  5
1F23
330
1F
100
AcDbEntity
  8
AM_VIS
100
AcDbLine
 10
-91.9390545378846
 20
391.5593131679648
 30
0.0
 11
-91.9390545378846
 21
385.5593131679648
 31
0.0
  0
LINE
  5
1F24
330
1F
100
AcDbEntity
  8
AM_VIS
100
AcDbLine
 10
-35.88905453788459
 20
339.5373298570902
 30
0.0
 11
-34.60905453788459
 21
338.7983215125276
 31
0.0
  0
LINE
  5
1F25
330
1F
100
AcDbEntity
  8
AM_VIS
100
AcDbLine
 10
-34.60905453788462
 20
338.7983215125276
 30
0.0
 11
-34.60905453788462
 21
337.3203048234021
 31
0.0
  0
LINE
  5
1F26
330
1F
100
AcDbEntity
  8
AM_VIS
100
AcDbLine
 10
-37.16905453788459
 20
338.7983215125276
 30
0.0
 11
-35.88905453788459
 21
339.5373298570902
 31
0.0
  0
LINE
  5
1F27
330
1F
100
AcDbEntity
  8
AM_VIS
100
AcDbLine
 10
-37.16905453788462
 20
338.7983215125276
 30
0.0
 11
-37.16905453788462
 21
337.320304823402
 31
0.0
  0
LINE
  5
1F28
330
1F
100
AcDbEntity
  8
AM_VIS
100
AcDbLine
 10
-37.16905453788459
 20
337.320304823402
 30
0.0
 11
-35.88905453788459
 21
336.5812964788394
 31
0.0
  0
LINE
  5
1F29
330
1F
100
AcDbEntity
  8
AM_VIS
100
AcDbLine
 10
-35.88905453788459
 20
336.5812964788394
 30
0.0
 11
-34.60905453788459
 21
337.3203048234021
 31
0.0
  0
CIRCLE
  5
1F2A
330
1F
100
AcDbEntity
  8
AM_VIS
100
AcDbCircle
 10
-35.88905453788459
 20
338.0593131679648
 30
0.0
 40
3.800000000000011
  0
LINE
  5
1F2B
330
1F
100
AcDbEntity
  8
AM_VIS
100
AcDbLine
 10
-35.88905453788459
 20
273.5373298570902
 30
0.0
 11
-34.60905453788459
 21
272.7983215125275
 31
0.0
  0
LINE
  5
1F2C
330
1F
100
AcDbEntity
  8
AM_VIS
100
AcDbLine
 10
-34.60905453788462
 20
272.7983215125275
 30
0.0
 11
-34.60905453788462
 21
271.3203048234021
 31
0.0
  0
LINE
  5
1F2D
330
1F
100
AcDbEntity
  8
AM_VIS
100
AcDbLine
 10
-37.16905453788459
 20
272.7983215125275
 30
0.0
 11
-35.88905453788459
 21
273.5373298570902
 31
0.0
  0
LINE
  5
1F2E
330
1F
100
AcDbEntity
  8
AM_VIS
100
AcDbLine
 10
-37.16905453788462
 20
272.7983215125275
 30
0.0
 11
-37.16905453788462
 21
271.3203048234021
 31
0.0
  0
LINE
  5
1F2F
330
1F
100
AcDbEntity
  8
AM_VIS
100
AcDbLine
 10
-37.16905453788459
 20
271.3203048234021
 30
0.0
 11
-35.88905453788459
 21
270.5812964788393
 31
0.0
  0
LINE
  5
1F30
330
1F
100
AcDbEntity
  8
AM_VIS
100
AcDbLine
 10
-35.88905453788459
 20
270.5812964788393
 30
0.0
 11
-34.60905453788459
 21
271.3203048234021
 31
0.0
  0
CIRCLE
  5
1F31
330
1F
100
AcDbEntity
  8
AM_VIS
100
AcDbCircle
 10
-35.88905453788459
 20
272.0593131679648
 30
0.0
 40
3.800000000000011
  0
LINE
  5
1F32
330
1F
100
AcDbEntity
  8
AM_VIS
100
AcDbLine
 10
-51.88905453788459
 20
248.1593131679648
 30
0.0
 11
-51.88905453788459
 21
246.0593131679648
 31
0.0
  0
LINE
  5
1F33
330
1F
100
AcDbEntity
  8
AM_VIS
100
AcDbLine
 10
-39.88905453788459
 20
248.1593131679648
 30
0.0
 11
-39.88905453788459
 21
246.0593131679648
 31
0.0
  0
LINE
  5
1F34
102
{ACAD_REACTORS
330
1F54
102
}
330
1F
100
AcDbEntity
  8
AM_VIS
100
AcDbLine
 10
-50.62905453788459
 20
246.0593131679648
 30
0.0
 11
-50.62905453788459
 21
236.0593131679648
 31
0.0
  0
LINE
  5
1F35
330
1F
100
AcDbEntity
  8
AM_VIS
100
AcDbLine
 10
-41.14905453788458
 20
246.0593131679648
 30
0.0
 11
-41.14905453788458
 21
236.0593131679648
 31
0.0
  0
LINE
  5
1F36
330
1F
100
AcDbEntity
  8
AM_VIS
100
AcDbLine
 10
-55.78905453788459
 20
252.0593131679648
 30
0.0
 11
-55.78905453788459
 21
248.1593131679648
 31
0.0
  0
LINE
  5
1F37
330
1F
100
AcDbEntity
  8
AM_VIS
100
AcDbLine
 10
-35.98905453788459
 20
252.0593131679648
 30
0.0
 11
-35.98905453788459
 21
248.1593131679648
 31
0.0
  0
LINE
  5
1F38
330
1F
100
AcDbEntity
  8
AM_VIS
100
AcDbLine
 10
-39.88905453788459
 20
246.0593131679648
 30
0.0
 11
-51.88905453788459
 21
246.0593131679648
 31
0.0
  0
LINE
  5
1F39
330
1F
100
AcDbEntity
  8
AM_VIS
100
AcDbLine
 10
-41.14905453788458
 20
236.0593131679648
 30
0.0
 11
-50.62905453788459
 21
236.0593131679648
 31
0.0
  0
LINE
  5
1F3A
330
1F
100
AcDbEntity
  8
AM_VIS
100
AcDbLine
 10
-35.98905453788459
 20
248.1593131679648
 30
0.0
 11
-55.78905453788457
 21
248.1593131679648
 31
0.0
  0
LINE
  5
1F3B
330
1F
100
AcDbEntity
  8
AM_VIS
100
AcDbLine
 10
-82.88905453788462
 20
377.917572217664
 30
0.0
 11
-82.88905453788462
 21
388.2010541182656
 31
0.0
  0
LINE
  5
1F3C
330
1F
100
AcDbEntity
  8
AM_VIS
100
AcDbLine
 10
-90.88905453788461
 20
377.917572217664
 30
0.0
 11
-90.88905453788461
 21
388.2010541182656
 31
0.0
  0
LINE
  5
1F3D
330
1F
100
AcDbEntity
  8
AM_VIS
100
AcDbLine
 10
-82.88905453788462
 20
388.9175722176641
 30
0.0
 11
-82.88905453788462
 21
399.2010541182656
 31
0.0
  0
LINE
  5
1F3E
330
1F
100
AcDbEntity
  8
AM_VIS
100
AcDbLine
 10
-90.88905453788461
 20
388.9175722176641
 30
0.0
 11
-90.88905453788461
 21
399.2010541182656
 31
0.0
  0
LINE
  5
1F3F
330
1F
100
AcDbEntity
  8
AM_VIS
100
AcDbLine
 10
-90.88905453788461
 20
399.5593131679648
 30
0.0
 11
-82.88905453788462
 21
399.5593131679648
 31
0.0
  0
LINE
  5
1F40
330
1F
100
AcDbEntity
  8
AM_VIS
100
AcDbLine
 10
-82.88905453788462
 20
399.2010541182656
 30
0.0
 11
-90.88905453788461
 21
399.2010541182656
 31
0.0
  0
LINE
  5
1F41
330
1F
100
AcDbEntity
  8
AM_VIS
100
AcDbLine
 10
-82.88905453788462
 20
388.2010541182656
 30
0.0
 11
-90.88905453788461
 21
388.2010541182656
 31
0.0
  0
LINE
  5
1F42
330
1F
100
AcDbEntity
  8
AM_VIS
100
AcDbLine
 10
-90.88905453788461
 20
388.9175722176641
 30
0.0
 11
-82.88905453788462
 21
388.9175722176641
 31
0.0
  0
LINE
  5
1F43
330
1F
100
AcDbEntity
  8
AM_VIS
100
AcDbLine
 10
-82.88905453788462
 20
377.5593131679648
 30
0.0
 11
-90.88905453788461
 21
377.5593131679648
 31
0.0
  0
LINE
  5
1F44
330
1F
100
AcDbEntity
  8
AM_VIS
100
AcDbLine
 10
-90.88905453788461
 20
377.917572217664
 30
0.0
 11
-82.88905453788462
 21
377.917572217664
 31
0.0
  0
LINE
  5
1F45
330
1F
100
AcDbEntity
  8
AM_VIS
100
AcDbLine
 10
-80.88905453788461
 20
399.0630632295615
 30
0.0
 11
-82.88905453788462
 21
399.1255632432496
 31
0.0
  0
LINE
  5
1F46
330
1F
100
AcDbEntity
  8
AM_VIS
100
AcDbLine
 10
-80.88905453788461
 20
378.0555631063681
 30
0.0
 11
-82.88905453788462
 21
377.99306309268
 31
0.0
  0
LINE
  5
1F47
330
1F
100
AcDbEntity
  8
AM_VIS
100
AcDbLine
 10
-90.88905453788461
 20
399.5593131679648
 30
0.0
 11
-90.88905453788461
 21
399.2010541182656
 31
0.0
  0
LINE
  5
1F48
330
1F
100
AcDbEntity
  8
AM_VIS
100
AcDbLine
 10
-82.88905453788462
 20
399.2010541182656
 30
0.0
 11
-82.88905453788462
 21
399.5593131679648
 31
0.0
  0
LINE
  5
1F49
330
1F
100
AcDbEntity
  8
AM_VIS
100
AcDbLine
 10
-82.88905453788462
 20
388.2010541182656
 30
0.0
 11
-82.88905453788462
 21
388.9175722176641
 31
0.0
  0
LINE
  5
1F4A
330
1F
100
AcDbEntity
  8
AM_VIS
100
AcDbLine
 10
-90.88905453788461
 20
388.9175722176641
 30
0.0
 11
-90.88905453788461
 21
388.2010541182656
 31
0.0
  0
LINE
  5
1F4B
330
1F
100
AcDbEntity
  8
AM_VIS
100
AcDbLine
 10
-82.88905453788462
 20
377.5593131679648
 30
0.0
 11
-82.88905453788462
 21
377.917572217664
 31
0.0
  0
LINE
  5
1F4C
330
1F
100
AcDbEntity
  8
AM_VIS
100
AcDbLine
 10
-90.88905453788461
 20
377.917572217664
 30
0.0
 11
-90.88905453788461
 21
377.5593131679648
 31
0.0
  0
LINE
  5
1F4D
330
1F
100
AcDbEntity
  8
AM_10
  6
CENTER
 62
     1
 48
5.0
100
AcDbLine
 10
-42.88905453788458
 20
272.0593131679648
 30
0.0
 11
-29.66634722484838
 21
272.0593131679648
 31
0.0
  0
LINE
  5
1F4E
330
1F
100
AcDbEntity
  8
AM_10
  6
CENTER
 62
     1
 48
5.0
100
AcDbLine
 10
-35.88905453788459
 20
265.0593131679648
 30
0.0
 11
-35.88905453788459
 21
277.7320789478027
 31
0.0
  0
DIMENSION
  5
1F4F
102
{ACAD_XDICTIONARY
360
1F50
102
}
102
{ACAD_REACTORS
330
1F51
102
}
330
1F
100
AcDbEntity
  8
AM_5
100
AcDbDimension
  2
*D13
 10
-92.4390545378846
 20
527.2488546710222
 30
0.0
 11
-51.66405453788462
 21
530.9988546710221
 31
0.0
 70
    32
 71
     5
 42
81.54999999999995
  3
AM_ISO$0
100
AcDbAlignedDimension
 13
-10.88905453788465
 23
493.5736990982856
 33
0.0
 14
-92.4390545378846
 24
479.0736990982856
 34
0.0
100
AcDbRotatedDimension
1001
ACAD
1000
DSTYLE
1002
{
1070
    40
1040
1.5
1070
   272
1070
     8
1002
}
  0
DIMENSION
  5
1F52
102
{ACAD_XDICTIONARY
360
1F53
102
}
102
{ACAD_REACTORS
330
1F54
102
}
330
1F
100
AcDbEntity
  8
AM_5
100
AcDbDimension
  2
*D14
 10
-112.1880572975281
 20
236.0593131679648
 30
0.0
 11
-112.1880572975281
 21
320.3093131679648
 31
0.0
 70
   160
 71
     5
 42
168.5
  3
AM_ISO$0
100
AcDbAlignedDimension
 13
-70.88905453788462
 23
404.5593131679647
 33
0.0
 14
-50.62905453788459
 24
236.0593131679648
 34
0.0
 50
90.0
100
AcDbRotatedDimension
1001
ACAD
1000
DSTYLE
1002
{
1070
    40
1040
1.5
1070
   272
1070
     8
1002
}
  0
DIMENSION
  5
1F55
102
{ACAD_XDICTIONARY
360
1F56
102
}
102
{ACAD_REACTORS
330
1F57
102
}
330
1F
100
AcDbEntity
  8
AM_5
100
AcDbDimension
  2
*D15
 10
-112.1880572975282
 20
436.5736990982857
 30
0.0
 11
-115.9380572975282
 21
473.5736990982856
 31
0.0
 70
    32
 71
     5
 42
74.0
  3
AM_ISO$0
100
AcDbAlignedDimension
 13
-54.19567840080268
 23
510.5736990982856
 33
0.0
 14
-40.88905453788458
 24
436.5736990982857
 34
0.0
 50
90.0
100
AcDbRotatedDimension
1001
ACAD
1000
DSTYLE
1002
{
1070
    40
1040
1.5
1070
   272
1070
     8
1002
}
  0
DIMENSION
  5
1F58
102
{ACAD_XDICTIONARY
360
1F59
102
}
102
{ACAD_REACTORS
330
1F5A
102
}
330
1F
100
AcDbEntity
  8
AM_5
100
AcDbDimension
  2
*D16
 10
-98.27000143073087
 20
388.5593131679648
 30
0.0
 11
-98.27000143073092
 21
396.5593131679648
 31
0.0
 70
   160
 71
     5
 42
16.0
  3
AM_ISO$0
100
AcDbAlignedDimension
 13
-70.88905453788462
 23
404.5593131679647
 33
0.0
 14
-94.93905453788462
 24
388.5593131679648
 34
0.0
 50
90.0
100
AcDbRotatedDimension
1001
ACAD
1000
DSTYLE
1002
{
1070
    40
1040
1.5
1070
   272
1070
     8
1002
}
  0
LINE
  5
1F5B
330
1F
100
AcDbEntity
  8
AM_7
100
AcDbLine
 10
66.66112524412148
 20
233.0593131679648
 30
0.0
 11
66.66112524412148
 21
407.5593131679648
 31
0.0
  0
LINE
  5
1F5C
330
1F
100
AcDbEntity
  8
AM_7
100
AcDbLine
 10
66.66112524412136
 20
388.5593131679648
 30
0.0
 11
66.66112524412136
 21
388.5593131679648
 31
0.0
  0
LINE
  5
1F5D
330
1F
100
AcDbEntity
  8
AM_7
100
AcDbLine
 10
66.66112524412136
 20
388.5593131679648
 30
0.0
 11
66.66112524412136
 21
388.5593131679648
 31
0.0
  0
LINE
  5
1F5E
330
1F
100
AcDbEntity
  8
AM_7
100
AcDbLine
 10
55.30391406765915
 20
388.5593131679648
 30
0.0
 11
66.66112524412136
 21
388.5593131679648
 31
0.0
  0
LINE
  5
1F5F
330
1F
100
AcDbEntity
  8
AM_7
100
AcDbLine
 10
66.66112524412136
 20
388.5593131679648
 30
0.0
 11
78.01833642058358
 21
388.5593131679648
 31
0.0
  0
LINE
  5
1F60
330
1F
100
AcDbEntity
  8
AM_7
100
AcDbLine
 10
66.66112524412136
 20
377.2021019915026
 30
0.0
 11
66.66112524412136
 21
388.5593131679648
 31
0.0
  0
LINE
  5
1F61
330
1F
100
AcDbEntity
  8
AM_7
100
AcDbLine
 10
66.66112524412136
 20
388.5593131679648
 30
0.0
 11
66.66112524412136
 21
399.916524344427
 31
0.0
  0
LINE
  5
1F62
330
1F
100
AcDbEntity
  8
AM_7
100
AcDbLine
 10
24.12513859094605
 20
338.0593131679648
 30
0.0
 11
31.16112524412148
 21
338.0593131679648
 31
0.0
  0
LINE
  5
1F63
330
1F
100
AcDbEntity
  8
AM_7
100
AcDbLine
 10
24.12513859094605
 20
272.0593131679648
 30
0.0
 11
31.16112524412148
 21
272.0593131679648
 31
0.0
  0
LINE
  5
1F64
330
1F
100
AcDbEntity
  8
AM_4
100
AcDbLine
 10
63.35162524412147
 20
246.0593131679648
 30
0.0
 11
63.35162524412147
 21
236.0593131679648
 31
0.0
  0
LINE
  5
1F65
330
1F
100
AcDbEntity
  8
AM_4
100
AcDbLine
 10
69.97062524412143
 20
246.0593131679648
 30
0.0
 11
69.97062524412143
 21
236.0593131679648
 31
0.0
  0
SPLINE
  5
1F66
330
1F
100
AcDbEntity
  8
AM_VIS
100
AcDbSpline
210
0.0
220
0.0
230
1.0
 70
    12
 71
     2
 72
     6
 73
     3
 74
     0
 42
0.0000000001
 43
0.0000000001
 40
0.0
 40
0.0
 40
0.0
 40
16.88194301613415
 40
16.88194301613415
 40
16.88194301613415
 10
58.35450138120342
 20
353.5593131679648
 30
0.0
 41
1.0
 10
66.66112524412148
 20
350.602170310822
 30
0.0
 41
1.029411764705878
 10
74.96774910703954
 20
353.5593131679648
 30
0.0
 41
1.0
  0
LINE
  5
1F67
330
1F
100
AcDbEntity
  8
AM_VIS
100
AcDbLine
 10
50.66112524412137
 20
373.5593131679648
 30
0.0
 11
82.66112524412136
 21
373.5593131679648
 31
0.0
  0
LINE
  5
1F68
330
1F
100
AcDbEntity
  8
AM_VIS
100
AcDbLine
 10
49.66112524412136
 20
402.5593131679647
 30
0.0
 11
49.66112524412136
 21
374.5593131679648
 31
0.0
  0
LINE
  5
1F69
330
1F
100
AcDbEntity
  8
AM_VIS
100
AcDbLine
 10
82.66112524412136
 20
403.5593131679648
 30
0.0
 11
50.66112524412137
 21
403.5593131679648
 31
0.0
  0
LINE
  5
1F6A
330
1F
100
AcDbEntity
  8
AM_VIS
100
AcDbLine
 10
83.66112524412136
 20
374.5593131679648
 30
0.0
 11
83.66112524412136
 21
402.5593131679647
 31
0.0
  0
LINE
  5
1F6B
330
1F
100
AcDbEntity
  8
AM_VIS
100
AcDbLine
 10
74.96774910703954
 20
353.5593131679648
 30
0.0
 11
74.96774910703954
 21
373.5593131679648
 31
0.0
  0
LINE
  5
1F6C
330
1F
100
AcDbEntity
  8
AM_VIS
100
AcDbLine
 10
100.6611252441214
 20
353.5593131679648
 30
0.0
 11
100.6611252441214
 21
352.0593131679648
 31
0.0
  0
LINE
  5
1F6D
330
1F
100
AcDbEntity
  8
AM_VIS
100
AcDbLine
 10
100.6611252441214
 20
353.5593131679648
 30
0.0
 11
100.6611252441214
 21
377.5593131679648
 31
0.0
  0
LINE
  5
1F6E
330
1F
100
AcDbEntity
  8
AM_VIS
100
AcDbLine
 10
99.66112524412148
 20
378.5593131679648
 30
0.0
 11
100.6611252441214
 21
377.5593131679648
 31
0.0
  0
LINE
  5
1F6F
330
1F
100
AcDbEntity
  8
AM_VIS
100
AcDbLine
 10
32.66112524412148
 20
353.5593131679648
 30
0.0
 11
32.66112524412148
 21
352.0593131679648
 31
0.0
  0
LINE
  5
1F70
330
1F
100
AcDbEntity
  8
AM_VIS
100
AcDbLine
 10
58.3545013812033
 20
353.5593131679648
 30
0.0
 11
58.3545013812033
 21
373.5593131679648
 31
0.0
  0
LINE
  5
1F71
330
1F
100
AcDbEntity
  8
AM_VIS
100
AcDbLine
 10
32.66112524412148
 20
353.5593131679648
 30
0.0
 11
32.66112524412148
 21
355.6187126457715
 31
0.0
  0
LINE
  5
1F72
330
1F
100
AcDbEntity
  8
AM_VIS
100
AcDbLine
 10
32.66112524412148
 20
358.9816369277559
 30
0.0
 11
32.66112524412148
 21
377.5593131679648
 31
0.0
  0
LINE
  5
1F73
330
1F
100
AcDbEntity
  8
AM_VIS
100
AcDbLine
 10
32.66112524412148
 20
377.5593131679648
 30
0.0
 11
33.66112524412148
 21
378.5593131679648
 31
0.0
  0
LINE
  5
1F74
330
1F
100
AcDbEntity
  8
AM_VIS
100
AcDbLine
 10
37.82373387798287
 20
358.8902531157455
 30
0.0
 11
37.96112524412149
 21
358.8902531157455
 31
0.0
  0
LINE
  5
1F75
330
1F
100
AcDbEntity
  8
AM_VIS
100
AcDbLine
 10
37.67075678084552
 20
358.8765455439439
 30
0.0
 11
37.96112524412149
 21
358.8765455439439
 31
0.0
  0
LINE
  5
1F76
330
1F
100
AcDbEntity
  8
AM_VIS
100
AcDbLine
 10
37.72905984485101
 20
355.8106186509935
 30
0.0
 11
37.96112524412149
 21
355.8106186509935
 31
0.0
  0
LINE
  5
1F77
330
1F
100
AcDbEntity
  8
AM_VIS
100
AcDbLine
 10
37.82373387798287
 20
358.9816369277559
 30
0.0
 11
37.96112524412149
 21
358.9816369277559
 31
0.0
  0
LINE
  5
1F78
330
1F
100
AcDbEntity
  8
AM_VIS
100
AcDbLine
 10
37.96112524412149
 20
355.8106186509935
 30
0.0
 11
37.96112524412149
 21
355.7104039244434
 31
0.0
  0
LINE
  5
1F79
330
1F
100
AcDbEntity
  8
AM_VIS
100
AcDbLine
 10
37.96112524412149
 20
356.1852922802363
 30
0.0
 11
37.96112524412149
 21
355.8106186509935
 31
0.0
  0
LINE
  5
1F7A
330
1F
100
AcDbEntity
  8
AM_VIS
100
AcDbLine
 10
37.96112524412149
 20
358.8765455439439
 30
0.0
 11
37.96112524412149
 21
358.8080076849361
 31
0.0
  0
LINE
  5
1F7B
330
1F
100
AcDbEntity
  8
AM_VIS
100
AcDbLine
 10
37.96112524412149
 20
358.8902531157455
 30
0.0
 11
37.96112524412149
 21
358.8765455439439
 31
0.0
  0
LINE
  5
1F7C
330
1F
100
AcDbEntity
  8
AM_VIS
100
AcDbLine
 10
37.96112524412149
 20
358.8902531157455
 30
0.0
 11
37.96112524412149
 21
358.9816369277559
 31
0.0
  0
LINE
  5
1F7D
330
1F
100
AcDbEntity
  8
AM_VIS
100
AcDbLine
 10
37.53288959562059
 20
358.8080076849361
 30
0.0
 11
37.96112524412149
 21
358.8080076849361
 31
0.0
  0
LINE
  5
1F7E
330
1F
100
AcDbEntity
  8
AM_VIS
100
AcDbLine
 10
37.96112524412149
 20
358.8080076849361
 30
0.0
 11
37.96112524412149
 21
358.5686616568275
 31
0.0
  0
LINE
  5
1F7F
330
1F
100
AcDbEntity
  8
AM_VIS
100
AcDbLine
 10
37.9480740762969
 20
358.5475730955313
 30
0.0
 11
37.96110992782514
 21
358.5686711203184
 31
0.0
  0
LINE
  5
1F80
330
1F
100
AcDbEntity
  8
AM_VIS
100
AcDbLine
 10
37.34068109083302
 20
358.5475638207063
 30
0.0
 11
37.9480890872448
 21
358.5475638207063
 31
0.0
  0
ELLIPSE
  5
1F81
330
1F
100
AcDbEntity
  8
AM_VIS
100
AcDbEllipse
 10
66.66112524412148
 20
336.6416560228809
 30
0.0
 11
0.0
 21
38.30845771144279
 31
0.0
210
0.0
220
0.0
230
1.0
 40
0.9136363636363636
 41
0.9620620655572363
 42
0.9937041565488339
  0
LINE
  5
1F82
330
1F
100
AcDbEntity
  8
AM_VIS
100
AcDbLine
 10
36.73443074678619
 20
357.5423418885914
 30
0.0
 11
37.32928173681973
 21
357.5423418885914
 31
0.0
  0
ELLIPSE
  5
1F83
330
1F
100
AcDbEntity
  8
AM_VIS
100
AcDbEllipse
 10
66.66112524412148
 20
381.0751265759795
 30
0.0
 11
0.0
 21
-43.13278008298754
 31
0.0
210
0.0
220
0.0
230
1.0
 40
0.8114478114478114
 41
5.28948115063075
 42
5.321774288415483
  0
LINE
  5
1F84
330
1F
100
AcDbEntity
  8
AM_VIS
100
AcDbLine
 10
37.96112524412149
 20
356.1852922802363
 30
0.0
 11
37.96112524412149
 21
356.3874967036249
 31
0.0
  0
LINE
  5
1F85
330
1F
100
AcDbEntity
  8
AM_VIS
100
AcDbLine
 10
37.4662762724243
 20
356.1852922802363
 30
0.0
 11
37.96112524412149
 21
356.1852922802363
 31
0.0
  0
LINE
  5
1F86
330
1F
100
AcDbEntity
  8
AM_VIS
100
AcDbLine
 10
36.44774112295972
 20
357.0671460661371
 30
0.0
 11
36.72924407158701
 21
357.0671460661371
 31
0.0
  0
LINE
  5
1F87
330
1F
100
AcDbEntity
  8
AM_VIS
100
AcDbLine
 10
37.03683487198146
 20
356.4847348015745
 30
0.0
 11
37.03683487198146
 21
356.1807230896357
 31
0.0
  0
ARC
  5
1F88
330
1F
100
AcDbEntity
  8
AM_VIS
100
AcDbCircle
 10
37.82033379091018
 20
356.1266653499798
 30
0.0
 40
0.7853615697111776
100
AcDbArc
 50
176.0531156663784
 51
203.0034163619582
  0
LINE
  5
1F89
330
1F
100
AcDbEntity
  8
AM_VIS
100
AcDbLine
 10
36.50714552068274
 20
355.8197570321945
 30
0.0
 11
37.09742295294092
 21
355.8197570321945
 31
0.0
  0
ARC
  5
1F8A
330
1F
100
AcDbEntity
  8
AM_VIS
100
AcDbCircle
 10
37.28462613738958
 20
355.9617570619455
 30
0.0
 40
0.2349660416251967
100
AcDbArc
 50
217.1815633180936
 51
251.0976427675819
  0
ARC
  5
1F8B
330
1F
100
AcDbEntity
  8
AM_VIS
100
AcDbCircle
 10
38.27019897098279
 20
357.4499338293359
 30
0.0
 40
4.448065246559472
100
AcDbArc
 50
165.3490908795441
 51
181.8116445331334
  0
LINE
  5
1F8C
330
1F
100
AcDbEntity
  8
AM_VIS
100
AcDbLine
 10
33.96650725496653
 20
358.5750682760267
 30
0.0
 11
33.99108491102726
 21
358.6455513443561
 31
0.0
  0
LINE
  5
1F8D
330
1F
100
AcDbEntity
  8
AM_VIS
100
AcDbLine
 10
33.43205216536802
 20
358.5749789643095
 30
0.0
 11
33.96676338044319
 21
358.5749789643095
 31
0.0
  0
ARC
  5
1F8E
330
1F
100
AcDbEntity
  8
AM_VIS
100
AcDbCircle
 10
33.17772507882296
 20
358.7882341913122
 30
0.0
 40
0.1022838082097316
100
AcDbArc
 50
85.87564885224825
 51
160.8929025011727
  0
LINE
  5
1F8F
330
1F
100
AcDbEntity
  8
AM_VIS
100
AcDbLine
 10
32.66112524412148
 20
358.8902462222028
 30
0.0
 11
32.66112524412148
 21
358.8217152567377
 31
0.0
  0
LINE
  5
1F90
330
1F
100
AcDbEntity
  8
AM_VIS
100
AcDbLine
 10
32.66112524412148
 20
358.8217152567377
 30
0.0
 11
32.66112524412148
 21
358.4150572932912
 31
0.0
  0
LINE
  5
1F91
330
1F
100
AcDbEntity
  8
AM_VIS
100
AcDbLine
 10
32.66112524412148
 20
358.8217152567377
 30
0.0
 11
33.08107625224
 21
358.8217152567377
 31
0.0
  0
ARC
  5
1F92
330
1F
100
AcDbEntity
  8
AM_VIS
100
AcDbCircle
 10
34.56102160706104
 20
358.480809350329
 30
0.0
 40
1.518701777927698
100
AcDbArc
 50
167.0281727947179
 51
182.4813912457603
  0
LINE
  5
1F93
330
1F
100
AcDbEntity
  8
AM_VIS
100
AcDbLine
 10
32.66112524412148
 20
358.4150572932912
 30
0.0
 11
32.66112524412148
 21
356.016232228017
 31
0.0
  0
LINE
  5
1F94
330
1F
100
AcDbEntity
  8
AM_VIS
100
AcDbLine
 10
33.04374386146668
 20
358.4150572932912
 30
0.0
 11
33.04374386146668
 21
356.2946579676387
 31
0.0
  0
LINE
  5
1F95
330
1F
100
AcDbEntity
  8
AM_VIS
100
AcDbLine
 10
32.66112524412148
 20
356.016232228017
 30
0.0
 11
32.66112524412148
 21
355.8106186509935
 31
0.0
  0
LINE
  5
1F96
330
1F
100
AcDbEntity
  8
AM_VIS
100
AcDbLine
 10
32.66112524412148
 20
355.8106186509935
 30
0.0
 11
32.66112524412148
 21
355.7740741064387
 31
0.0
  0
LINE
  5
1F97
330
1F
100
AcDbEntity
  8
AM_VIS
100
AcDbLine
 10
32.66112524412148
 20
355.8106186509935
 30
0.0
 11
32.84775790203634
 21
355.8106186509935
 31
0.0
  0
LINE
  5
1F98
330
1F
100
AcDbEntity
  8
AM_VIS
100
AcDbLine
 10
35.77478959044066
 20
359.0593131679648
 30
0.0
 11
36.35080142348511
 21
359.0593131679648
 31
0.0
  0
ELLIPSE
  5
1F99
330
1F
100
AcDbEntity
  8
AM_VIS
100
AcDbEllipse
 10
66.66112524412148
 20
886.2763089251433
 30
0.0
 11
0.0
 21
-1054.375
 31
0.0
210
0.0
220
0.0
230
1.0
 40
0.033195020746888
 41
5.236020058611841
 42
5.236105129551746
  0
LINE
  5
1F9A
330
1F
100
AcDbEntity
  8
AM_VIS
100
AcDbLine
 10
35.79553033646567
 20
357.958138233239
 30
0.0
 11
36.26928368829721
 21
357.958138233239
 31
0.0
  0
LINE
  5
1F9B
330
1F
100
AcDbEntity
  8
AM_VIS
100
AcDbLine
 10
35.74120771747488
 20
357.9489998520379
 30
0.0
 11
36.26928368829721
 21
357.9489998520379
 31
0.0
  0
LINE
  5
1F9C
330
1F
100
AcDbEntity
  8
AM_VIS
100
AcDbLine
 10
34.98623414279956
 20
358.8354228285392
 30
0.0
 11
35.41664538949459
 21
358.8354228285392
 31
0.0
  0
ARC
  5
1F9D
330
1F
100
AcDbEntity
  8
AM_VIS
100
AcDbCircle
 10
35.95483821511113
 20
358.3105227033701
 30
0.0
 40
0.6651932730575272
100
AcDbArc
 50
135.9057276661779
 51
155.2808978838978
  0
LINE
  5
1F9E
330
1F
100
AcDbEntity
  8
AM_VIS
100
AcDbLine
 10
34.79265878592446
 20
358.588686536111
 30
0.0
 11
35.35059739170055
 21
358.588686536111
 31
0.0
  0
ARC
  5
1F9F
330
1F
100
AcDbEntity
  8
AM_VIS
100
AcDbCircle
 10
38.62855229560307
 20
357.4502583744843
 30
0.0
 40
3.470015422329355
100
AcDbArc
 50
160.8479727453416
 51
182.4789052592869
  0
LINE
  5
1FA0
330
1F
100
AcDbEntity
  8
AM_VIS
100
AcDbLine
 10
34.60713181793688
 20
357.3001747867637
 30
0.0
 11
35.16178406742563
 21
357.3001747867637
 31
0.0
  0
ARC
  5
1FA1
330
1F
100
AcDbEntity
  8
AM_VIS
100
AcDbCircle
 10
37.96211369457524
 20
357.1631874455484
 30
0.0
 40
2.803678218402573
100
AcDbArc
 50
177.1994208557643
 51
202.2175840244011
  0
LINE
  5
1FA2
330
1F
100
AcDbEntity
  8
AM_VIS
100
AcDbLine
 10
34.80837689989545
 20
356.103046849427
 30
0.0
 11
35.36659573686421
 21
356.103046849427
 31
0.0
  0
SPLINE
  5
1FA3
330
1F
100
AcDbEntity
  8
AM_VIS
100
AcDbSpline
210
0.0
220
0.0
230
1.0
 70
     8
 71
     3
 72
     8
 73
     4
 74
     0
 42
0.0000000001
 43
0.0000000001
 40
0.0
 40
0.0
 40
0.0
 40
0.0
 40
0.4349421134941412
 40
0.4349421134941412
 40
0.4349421134941412
 40
0.4349421134941412
 10
35.36659573686421
 20
356.1030468494268
 30
0.0
 10
35.41444516736311
 20
356.0050572134937
 30
0.0
 10
35.46772052492867
 20
355.9248347875225
 30
0.0
 10
35.52726848107176
 20
355.8647737653181
 30
0.0
  0
LINE
  5
1FA4
330
1F
100
AcDbEntity
  8
AM_VIS
100
AcDbLine
 10
100.6611252441214
 20
355.8197570321946
 30
0.0
 11
100.6611252441214
 21
355.710096457782
 31
0.0
  0
LINE
  5
1FA5
330
1F
100
AcDbEntity
  8
AM_VIS
100
AcDbLine
 10
100.6611252441214
 20
356.21727661444
 30
0.0
 11
100.6611252441214
 21
355.8197570321946
 31
0.0
  0
LINE
  5
1FA6
330
1F
100
AcDbEntity
  8
AM_VIS
100
AcDbLine
 10
37.03683487198146
 20
358.4424724368943
 30
0.0
 11
37.03683487198146
 21
358.241502959354
 31
0.0
  0
ARC
  5
1FA7
330
1F
100
AcDbEntity
  8
AM_VIS
100
AcDbCircle
 10
37.78219961694862
 20
358.5013021077979
 30
0.0
 40
0.7476827757936948
100
AcDbArc
 50
155.7820881244569
 51
184.5128491090772
  0
ARC
  5
1FA8
330
1F
100
AcDbEntity
  8
AM_VIS
100
AcDbCircle
 10
37.24572067791849
 20
358.663505837683
 30
0.0
 40
0.2049937601376509
100
AcDbArc
 50
103.3802900176051
 51
135.1778463272471
  0
LINE
  5
1FA9
330
1F
100
AcDbEntity
  8
AM_VIS
100
AcDbLine
 10
36.50998483759537
 20
358.8080076849361
 30
0.0
 11
37.10031896597593
 21
358.8080076849361
 31
0.0
  0
LINE
  5
1FAA
330
1F
100
AcDbEntity
  8
AM_VIS
100
AcDbLine
 10
36.74318169358634
 20
358.8902531157455
 30
0.0
 11
37.05509221235775
 21
358.8902531157455
 31
0.0
  0
LINE
  5
1FAB
330
1F
100
AcDbEntity
  8
AM_VIS
100
AcDbLine
 10
36.74318169358634
 20
358.9816369277559
 30
0.0
 11
37.05509221235775
 21
358.9816369277559
 31
0.0
  0
LINE
  5
1FAC
330
1F
100
AcDbEntity
  8
AM_VIS
100
AcDbLine
 10
36.73734674701484
 20
355.710096457782
 30
0.0
 11
37.07324995116363
 21
355.710096457782
 31
0.0
  0
LINE
  5
1FAD
330
1F
100
AcDbEntity
  8
AM_VIS
100
AcDbLine
 10
36.73734674701484
 20
355.6187126457715
 30
0.0
 11
37.07324995116363
 21
355.6187126457715
 31
0.0
  0
SPLINE
  5
1FAE
330
1F
100
AcDbEntity
  8
AM_VIS
100
AcDbSpline
210
0.0
220
0.0
230
1.0
 70
     8
 71
     3
 72
    12
 73
     8
 74
     0
 42
0.0000000001
 43
0.0000000001
 40
0.0703738883334575
 40
0.0703738883334575
 40
0.0703738883334575
 40
0.0703738883334575
 40
0.5902519203382775
 40
0.5902519203382775
 40
0.9101367669051802
 40
0.9101367669051802
 40
1.24655183935772
 40
1.24655183935772
 40
1.24655183935772
 40
1.24655183935772
 10
34.66828853977705
 20
355.9754146839353
 30
0.0
 10
34.61823736223227
 20
355.8554022687258
 30
0.0
 10
34.56209701552103
 20
355.7577811756114
 30
0.0
 10
34.46121999529367
 20
355.6439706469785
 30
0.0
 10
34.42164863043655
 20
355.6122946123344
 30
0.0
 10
34.33875429901088
 20
355.5692153009957
 30
0.0
 10
34.29605588417639
 20
355.5593131679648
 30
0.0
 10
34.25370449735425
 20
355.5593131679648
 30
0.0
  0
LINE
  5
1FAF
330
1F
100
AcDbEntity
  8
AM_VIS
100
AcDbLine
 10
33.71433603093709
 20
355.5593131679648
 30
0.0
 11
34.2537044973542
 21
355.5593131679648
 31
0.0
  0
LINE
  5
1FB0
330
1F
100
AcDbEntity
  8
AM_VIS
100
AcDbLine
 10
34.14170144316989
 20
356.0253706092181
 30
0.0
 11
34.64605561139825
 21
356.0253706092181
 31
0.0
  0
LINE
  5
1FB1
330
1F
100
AcDbEntity
  8
AM_VIS
100
AcDbLine
 10
34.67608381953989
 20
358.6206708899453
 30
0.0
 11
34.67648622186545
 21
358.6196803391975
 31
0.0
  0
LINE
  5
1FB2
330
1F
100
AcDbEntity
  8
AM_VIS
100
AcDbLine
 10
33.71433603093709
 20
359.0593131679648
 30
0.0
 11
34.2537044973542
 21
359.0593131679648
 31
0.0
  0
SPLINE
  5
1FB3
330
1F
100
AcDbEntity
  8
AM_VIS
100
AcDbSpline
210
0.0
220
0.0
230
1.0
 70
     8
 71
     3
 72
    12
 73
     8
 74
     0
 42
0.0000000001
 43
0.0000000001
 40
0.0
 40
0.0
 40
0.0
 40
0.0
 40
0.6031638409606606
 40
0.6031638409606606
 40
0.89835435818262
 40
0.89835435818262
 40
1.203307908094037
 40
1.203307908094037
 40
1.203307908094037
 40
1.203307908094037
 10
34.25370449735425
 20
359.0593131679648
 30
0.0
 10
34.32964367234518
 20
359.0593131679648
 30
0.0
 10
34.40543380268156
 20
359.0264979062717
 30
0.0
 10
34.51461025887369
 20
358.9145561918006
 30
0.0
 10
34.5489214046907
 20
358.8686155009483
 30
0.0
 10
34.61540228646521
 20
358.7573432704181
 30
0.0
 10
34.64685434683173
 20
358.6924380893535
 30
0.0
 10
34.6760837712173
 20
358.6206708703146
 30
0.0
  0
LINE
  5
1FB4
330
1F
100
AcDbEntity
  8
AM_VIS
100
AcDbLine
 10
34.12971153331876
 20
358.6206708703146
 30
0.0
 11
34.67608377121724
 21
358.6206708703146
 31
0.0
  0
LINE
  5
1FB5
330
1F
100
AcDbEntity
  8
AM_VIS
100
AcDbLine
 10
33.96113658579901
 20
356.0663594374387
 30
0.0
 11
33.99068620381746
 21
355.9798076943911
 31
0.0
  0
ARC
  5
1FB6
330
1F
100
AcDbEntity
  8
AM_VIS
100
AcDbCircle
 10
38.27346238791205
 20
357.1713870184748
 30
0.0
 40
4.451242726625987
100
AcDbArc
 50
178.2243494976056
 51
194.3722886280857
  0
LINE
  5
1FB7
330
1F
100
AcDbEntity
  8
AM_VIS
100
AcDbLine
 10
33.42690175126506
 20
356.0664933246228
 30
0.0
 11
33.96152874549279
 21
356.0664933246228
 31
0.0
  0
LINE
  5
1FB8
330
1F
100
AcDbEntity
  8
AM_VIS
100
AcDbLine
 10
33.18508146919857
 20
358.9816369277559
 30
0.0
 11
33.18508146919857
 21
358.8902531157455
 31
0.0
  0
LINE
  5
1FB9
330
1F
100
AcDbEntity
  8
AM_VIS
100
AcDbLine
 10
32.66266194325221
 20
358.8902531157455
 30
0.0
 11
33.18508146919857
 21
358.8902531157455
 31
0.0
  0
LINE
  5
1FBA
330
1F
100
AcDbEntity
  8
AM_VIS
100
AcDbLine
 10
32.66266194325221
 20
358.9816369277559
 30
0.0
 11
33.18508146919857
 21
358.9816369277559
 31
0.0
  0
LINE
  5
1FBB
330
1F
100
AcDbEntity
  8
AM_VIS
100
AcDbLine
 10
33.03320382103669
 20
355.6187126457715
 30
0.0
 11
33.55262789584202
 21
355.6187126457715
 31
0.0
  0
LINE
  5
1FBC
330
1F
100
AcDbEntity
  8
AM_VIS
100
AcDbLine
 10
33.10188617481782
 20
356.4640129068682
 30
0.0
 11
33.22807822888985
 21
356.4640129068682
 31
0.0
  0
LINE
  5
1FBD
330
1F
100
AcDbEntity
  8
AM_VIS
100
AcDbLine
 10
35.75811120549616
 20
359.0593574977995
 30
0.0
 11
35.77282890049133
 21
359.0590908799506
 31
0.0
  0
LINE
  5
1FBE
330
1F
100
AcDbEntity
  8
AM_VIS
100
AcDbLine
 10
35.19294566053031
 20
359.0593131679648
 30
0.0
 11
35.75811040244065
 21
359.0593131679648
 31
0.0
  0
LINE
  5
1FBF
330
1F
100
AcDbEntity
  8
AM_VIS
100
AcDbLine
 10
36.15474692104164
 20
355.7633495418636
 30
0.0
 11
36.21796931026774
 21
355.8375841506194
 31
0.0
  0
ARC
  5
1FC0
330
1F
100
AcDbEntity
  8
AM_VIS
100
AcDbCircle
 10
35.74021203392232
 20
356.0417629859558
 30
0.0
 40
0.4824613567485251
100
AcDbArc
 50
270.3962659478659
 51
302.3125023655282
  0
LINE
  5
1FC1
330
1F
100
AcDbEntity
  8
AM_VIS
100
AcDbLine
 10
35.17864544346952
 20
355.5593131679648
 30
0.0
 11
35.74354878026429
 21
355.5593131679648
 31
0.0
  0
LINE
  5
1FC2
330
1F
100
AcDbEntity
  8
AM_VIS
100
AcDbLine
 10
36.21745041142578
 20
355.8380269576679
 30
0.0
 11
36.22654743456838
 21
355.8500887831317
 31
0.0
  0
LINE
  5
1FC3
330
1F
100
AcDbEntity
  8
AM_VIS
100
AcDbLine
 10
35.64390600590326
 20
355.8380337945966
 30
0.0
 11
36.21744134628
 21
355.8380337945966
 31
0.0
  0
LINE
  5
1FC4
330
1F
100
AcDbEntity
  8
AM_VIS
100
AcDbLine
 10
35.83196450638678
 20
356.1852922802363
 30
0.0
 11
36.26878616570264
 21
356.1852922802363
 31
0.0
  0
LINE
  5
1FC5
330
1F
100
AcDbEntity
  8
AM_VIS
100
AcDbLine
 10
35.8007244661606
 20
356.2675377110458
 30
0.0
 11
36.26928368829721
 21
356.2675377110458
 31
0.0
  0
ELLIPSE
  5
1FC6
330
1F
100
AcDbEntity
  8
AM_VIS
100
AcDbEllipse
 10
66.66112524412148
 20
357.7130840054824
 30
0.0
 11
35.49999999999999
 21
0.0
 31
0.0
210
0.0
220
0.0
230
1.0
 40
0.0769230769230769
 41
2.626074961002272
 42
2.62991711544325
  0
ELLIPSE
  5
1FC7
330
1F
100
AcDbEntity
  8
AM_VIS
100
AcDbEllipse
 10
66.66112524412148
 20
886.2763089251433
 30
0.0
 11
0.0
 21
-1069.4375
 31
0.0
210
0.0
220
0.0
230
1.0
 40
0.033195020746888
 41
5.227906672972209
 42
5.229090555652557
  0
ELLIPSE
  5
1FC8
330
1F
100
AcDbEntity
  8
AM_VIS
100
AcDbEllipse
 10
66.66112524412148
 20
356.2878970297079
 30
0.0
 11
-35.5
 21
0.0
 31
0.0
210
0.0
220
0.0
230
1.0
 40
0.0952380952380953
 41
5.766483731911718
 42
5.769589732709974
  0
SPLINE
  5
1FC9
330
1F
100
AcDbEntity
  8
AM_VIS
100
AcDbSpline
210
0.0
220
0.0
230
1.0
 70
     8
 71
     3
 72
    14
 73
    10
 74
     0
 42
0.0000000001
 43
0.0000000001
 40
-1.608112432013847
 40
-1.608112432013847
 40
-1.608112432013847
 40
-1.608112432013847
 40
-1.193157471304488
 40
-1.193157471304488
 40
-0.8349003316812176
 40
-0.8349003316812176
 40
-0.4536288099811766
 40
-0.4536288099811766
 40
0.0
 40
0.0
 40
0.0
 40
0.0
 10
35.74120771747488
 20
357.9489998520379
 30
0.0
 10
35.72403889176093
 20
358.0827931287636
 30
0.0
 10
35.70086840913353
 20
358.2158490008412
 30
0.0
 10
35.64243772209073
 20
358.4440735246818
 30
0.0
 10
35.60916720893505
 20
358.5423110978995
 30
0.0
 10
35.52484264248761
 20
358.7162412628646
 30
0.0
 10
35.47506270633579
 20
358.7853990003869
 30
0.0
 10
35.35263502357742
 20
358.8902732557228
 30
0.0
 10
35.28220558230322
 20
358.9130990687481
 30
0.0
 10
35.2120599071821
 20
358.9130990687481
 30
0.0
  0
ARC
  5
1FCA
330
1F
100
AcDbEntity
  8
AM_VIS
100
AcDbCircle
 10
35.22281975428479
 20
358.5147109942306
 30
0.0
 40
0.3985333514619609
100
AcDbArc
 50
91.54709447981302
 51
126.4157901132653
  0
ARC
  5
1FCB
330
1F
100
AcDbEntity
  8
AM_VIS
100
AcDbCircle
 10
35.38067104529643
 20
358.326667625462
 30
0.0
 40
0.6437486518117107
100
AcDbArc
 50
127.7863507170466
 51
155.982194599112
  0
ARC
  5
1FCC
330
1F
100
AcDbEntity
  8
AM_VIS
100
AcDbCircle
 10
38.12907285796564
 20
357.4506789242223
 30
0.0
 40
3.525155341943235
100
AcDbArc
 50
161.1661561281327
 51
182.4469485574767
  0
ARC
  5
1FCD
330
1F
100
AcDbEntity
  8
AM_VIS
100
AcDbCircle
 10
37.44906333438752
 20
357.1624428914573
 30
0.0
 40
2.845267091009264
100
AcDbArc
 50
177.2253776954584
 51
201.8597714091447
  0
SPLINE
  5
1FCE
330
1F
100
AcDbEntity
  8
AM_VIS
100
AcDbSpline
210
0.0
220
0.0
230
1.0
 70
     8
 71
     3
 72
    10
 73
     6
 74
     0
 42
0.0000000001
 43
0.0000000001
 40
-1.067059437503691
 40
-1.067059437503691
 40
-1.067059437503691
 40
-1.067059437503691
 40
-0.5265320638901166
 40
-0.5265320638901166
 40
0.0
 40
0.0
 40
0.0
 40
0.0
 10
34.80837689989545
 20
356.1030468494268
 30
0.0
 10
34.8669142059087
 20
355.9810314667532
 30
0.0
 10
34.93368166982913
 20
355.8866233685649
 30
0.0
 10
35.08486127373209
 20
355.7636903214686
 30
0.0
 10
35.16390503191843
 20
355.7375116013851
 30
0.0
 10
35.24564016502967
 20
355.7375116013851
 30
0.0
  0
SPLINE
  5
1FCF
330
1F
100
AcDbEntity
  8
AM_VIS
100
AcDbSpline
210
0.0
220
0.0
230
1.0
 70
     8
 71
     3
 72
    12
 73
     8
 74
     0
 42
0.0000000001
 43
0.0000000001
 40
-1.312419775836867
 40
-1.312419775836867
 40
-1.312419775836867
 40
-1.312419775836867
 40
-0.9924167323257995
 40
-0.9924167323257995
 40
-0.6716083796267501
 40
-0.6716083796267501
 40
0.0
 40
0.0
 40
0.0
 40
0.0
 10
35.24564016502967
 20
355.7375116013851
 30
0.0
 10
35.29532385282716
 20
355.7375116013851
 30
0.0
 10
35.34488849065934
 20
355.7487296401728
 30
0.0
 10
35.44364169589841
 20
355.7951731333003
 30
0.0
 10
35.49167021694421
 20
355.8299146172411
 30
0.0
 10
35.63582002600134
 20
355.9701723571966
 30
0.0
 10
35.7232048879776
 20
356.107787632305
 30
0.0
 10
35.8007244661606
 20
356.2675377110456
 30
0.0
  0
ELLIPSE
  5
1FD0
330
1F
100
AcDbEntity
  8
AM_VIS
100
AcDbEllipse
 10
66.66112524412148
 20
382.5875442384608
 30
0.0
 11
0.0
 21
-53.25
 31
0.0
210
0.0
220
0.0
230
1.0
 40
0.6666666666666666
 41
5.22938665071049
 42
5.231164269854501
  0
ARC
  5
1FD1
330
1F
100
AcDbEntity
  8
AM_VIS
100
AcDbCircle
 10
34.658997572707
 20
356.5959638140807
 30
0.0
 40
1.242780164074203
100
AcDbArc
 50
322.4201475509377
 51
340.7041616784955
  0
ARC
  5
1FD2
330
1F
100
AcDbEntity
  8
AM_VIS
100
AcDbCircle
 10
35.13830497354331
 20
356.1543359370507
 30
0.0
 40
0.5963886729679429
100
AcDbArc
 50
273.8785190593195
 51
327.9700543484605
  0
SPLINE
  5
1FD3
330
1F
100
AcDbEntity
  8
AM_VIS
100
AcDbSpline
210
0.0
220
0.0
230
1.0
 70
     8
 71
     3
 72
    10
 73
     6
 74
     0
 42
0.0000000001
 43
0.0000000001
 40
-1.233437922323978
 40
-1.233437922323978
 40
-1.233437922323978
 40
-1.233437922323978
 40
-0.587533488157856
 40
-0.587533488157856
 40
0.0
 40
0.0
 40
0.0
 40
0.0
 10
35.17864544346952
 20
355.5593131679648
 30
0.0
 10
35.07918194523387
 20
355.5593131679648
 30
0.0
 10
34.98245213736272
 20
355.5895164943939
 30
0.0
 10
34.81012059297774
 20
355.7307213586842
 30
0.0
 10
34.73805184184283
 20
355.8303069613558
 30
0.0
 10
34.67493861535655
 20
355.9614019408107
 30
0.0
  0
ARC
  5
1FD4
330
1F
100
AcDbEntity
  8
AM_VIS
100
AcDbCircle
 10
37.71536764816705
 20
357.1552170728001
 30
0.0
 40
3.266405252402562
100
AcDbArc
 50
177.2960078571689
 51
201.437301719393
  0
ARC
  5
1FD5
330
1F
100
AcDbEntity
  8
AM_VIS
100
AcDbCircle
 10
37.66992821433309
 20
357.4351410669162
 30
0.0
 40
3.219788559913034
100
AcDbArc
 50
158.5700794976514
 51
182.2396637951081
  0
SPLINE
  5
1FD6
330
1F
100
AcDbEntity
  8
AM_VIS
100
AcDbSpline
210
0.0
220
0.0
230
1.0
 70
     8
 71
     3
 72
    12
 73
     8
 74
     0
 42
0.0000000001
 43
0.0000000001
 40
-1.282652671236749
 40
-1.282652671236749
 40
-1.282652671236749
 40
-1.282652671236749
 40
-0.9522339024507182
 40
-0.9522339024507182
 40
-0.6297797705509558
 40
-0.6297797705509558
 40
0.0
 40
0.0
 40
0.0
 40
0.0
 10
34.67273926594709
 20
358.6115324891137
 30
0.0
 10
34.70738005808579
 20
358.6873824440977
 30
0.0
 10
34.74503285478824
 20
358.7552942967127
 30
0.0
 10
34.82616067672751
 20
358.871116205322
 30
0.0
 10
34.86869124010576
 20
358.9183500529564
 30
0.0
 10
35.00196322942617
 20
359.0282937780135
 30
0.0
 10
35.09577751030799
 20
359.0593131679648
 30
0.0
 10
35.19294566053037
 20
359.0593131679648
 30
0.0
  0
ARC
  5
1FD7
330
1F
100
AcDbEntity
  8
AM_VIS
100
AcDbCircle
 10
35.17141174772411
 20
358.4951887878926
 30
0.0
 40
0.5645352297178245
100
AcDbArc
 50
58.60378978751812
 51
87.81395093003663
  0
LINE
  5
1FD8
330
1F
100
AcDbEntity
  8
AM_VIS
100
AcDbLine
 10
35.46545889987362
 20
358.9769769294827
 30
0.0
 11
35.61814200739724
 21
358.8941396241562
 31
0.0
  0
SPLINE
  5
1FD9
330
1F
100
AcDbEntity
  8
AM_VIS
100
AcDbSpline
210
0.0
220
0.0
230
1.0
 70
     8
 71
     3
 72
    14
 73
    10
 74
     0
 42
0.0000000001
 43
0.0000000001
 40
-0.2604329022945249
 40
-0.2604329022945249
 40
-0.2604329022945249
 40
-0.2604329022945249
 40
-0.2119083035077304
 40
-0.2119083035077304
 40
-0.1665934578837816
 40
-0.1665934578837816
 40
-0.0993147059779253
 40
-0.0993147059779253
 40
0.0
 40
0.0
 40
0.0
 40
0.0
 10
35.61851239252968
 20
358.894822306346
 30
0.0
 10
35.62636793458608
 20
358.894822306346
 30
0.0
 10
35.63421340571045
 20
358.8964774763779
 30
0.0
 10
35.64900368107118
 20
358.9039470674553
 30
0.0
 10
35.6558080078658
 20
358.9093952568194
 30
0.0
 10
35.67170898975559
 20
358.9280327268391
 30
0.0
 10
35.67969853784672
 20
358.94296869352
 30
0.0
 10
35.69630287951878
 20
358.9869662698431
 30
0.0
 10
35.70306748777915
 20
359.0184974925237
 30
0.0
 10
35.70777626535204
 20
359.0501747867637
 30
0.0
  0
LINE
  5
1FDA
330
1F
100
AcDbEntity
  8
AM_VIS
100
AcDbLine
 10
32.66112524412148
 20
355.6187126457715
 30
0.0
 11
32.66112524412148
 21
355.7740741064387
 31
0.0
  0
LINE
  5
1FDB
330
1F
100
AcDbEntity
  8
AM_VIS
100
AcDbLine
 10
32.66112523946168
 20
355.7740725944747
 30
0.0
 11
32.66403516283509
 21
355.7740636262414
 31
0.0
  0
SPLINE
  5
1FDC
330
1F
100
AcDbEntity
  8
AM_VIS
100
AcDbSpline
210
0.0
220
0.0
230
1.0
 70
     8
 71
     3
 72
    10
 73
     6
 74
     0
 42
0.0000000001
 43
0.0000000001
 40
-0.6848724765848414
 40
-0.6848724765848414
 40
-0.6848724765848414
 40
-0.6848724765848414
 40
-0.1792227408305838
 40
-0.1792227408305838
 40
0.0
 40
0.0
 40
0.0
 40
0.0
 10
32.66403516745782
 20
355.7740651261893
 30
0.0
 10
32.71970282166768
 20
355.7740651261893
 30
0.0
 10
32.79423051722739
 20
355.7805628434548
 30
0.0
 10
32.87329912852391
 20
355.8248425412092
 30
0.0
 10
32.89480692797309
 20
355.8412892357287
 30
0.0
 10
32.91175301421703
 20
355.8654489381997
 30
0.0
  0
ARC
  5
1FDD
330
1F
100
AcDbEntity
  8
AM_VIS
100
AcDbCircle
 10
31.4759133208317
 20
356.5624270306267
 30
0.0
 40
1.596062055943934
100
AcDbArc
 50
334.1073692243096
 51
356.4648660537017
  0
ELLIPSE
  5
1FDE
330
1F
100
AcDbEntity
  8
AM_VIS
100
AcDbEllipse
 10
66.66112524412148
 20
307.7878913782663
 30
0.0
 11
0.0
 21
149.2613636363636
 31
0.0
210
0.0
220
0.0
230
1.0
 40
0.2378378378378378
 41
1.23860711425343
 42
1.244591703716962
  0
LINE
  5
1FDF
330
1F
100
AcDbEntity
  8
AM_VIS
100
AcDbLine
 10
32.66112524412148
 20
358.8902462222028
 30
0.0
 11
32.66112524412148
 21
358.9816369277559
 31
0.0
  0
LINE
  5
1FE0
330
1F
100
AcDbEntity
  8
AM_VIS
100
AcDbLine
 10
32.66266194325221
 20
358.9816369277559
 30
0.0
 11
32.66266194325221
 21
358.8902531157455
 31
0.0
  0
LINE
  5
1FE1
330
1F
100
AcDbEntity
  8
AM_VIS
100
AcDbLine
 10
32.66112523894185
 20
358.8902473777015
 30
0.0
 11
32.66266193809566
 21
358.8902542661002
 31
0.0
  0
SPLINE
  5
1FE2
330
1F
100
AcDbEntity
  8
AM_VIS
100
AcDbSpline
210
0.0
220
0.0
230
1.0
 70
     8
 71
     3
 72
    12
 73
     8
 74
     0
 42
0.0000000001
 43
0.0000000001
 40
-0.9088338609416513
 40
-0.9088338609416513
 40
-0.9088338609416513
 40
-0.9088338609416513
 40
-0.6501981440018034
 40
-0.6501981440018034
 40
-0.4089917467383196
 40
-0.4089917467383196
 40
0.0
 40
0.0
 40
0.0
 40
0.0
 10
34.01912838439154
 20
358.5749789643094
 30
0.0
 10
33.99594372086137
 20
358.6378541950925
 30
0.0
 10
33.97080455208453
 20
358.6956427461547
 30
0.0
 10
33.91821635186176
 20
358.7925880583663
 30
0.0
 10
33.89135820506402
 20
358.8321476947615
 30
0.0
 10
33.81483205358512
 20
358.9156776749697
 30
0.0
 10
33.76510341807608
 20
358.9405142123512
 30
0.0
 10
33.71433603093709
 20
358.9405142123512
 30
0.0
  0
SPLINE
  5
1FE3
330
1F
100
AcDbEntity
  8
AM_VIS
100
AcDbSpline
210
0.0
220
0.0
230
1.0
 70
     8
 71
     3
 72
    12
 73
     8
 74
     0
 42
0.0000000001
 43
0.0000000001
 40
-0.892592271972121
 40
-0.892592271972121
 40
-0.892592271972121
 40
-0.892592271972121
 40
-0.6689624917400497
 40
-0.6689624917400497
 40
-0.4488920263445597
 40
-0.4488920263445597
 40
0.0
 40
0.0
 40
0.0
 40
0.0
 10
33.71433603093709
 20
358.9405142123512
 30
0.0
 10
33.6865691262147
 20
358.9405142123512
 30
0.0
 10
33.65928399164971
 20
358.9329202359569
 30
0.0
 10
33.60635187669499
 20
358.9006748490148
 30
0.0
 10
33.58131997687446
 20
358.8766839673986
 30
0.0
 10
33.50873930564745
 20
358.7798857509404
 30
0.0
 10
33.46745238695104
 20
358.6857518491447
 30
0.0
 10
33.43205216536802
 20
358.5749789643094
 30
0.0
  0
ARC
  5
1FE4
330
1F
100
AcDbEntity
  8
AM_VIS
100
AcDbCircle
 10
37.81124503548694
 20
357.4495598858761
 30
0.0
 40
4.521492927762101
100
AcDbArc
 50
165.5873156101351
 51
181.7774735507727
  0
ARC
  5
1FE5
330
1F
100
AcDbEntity
  8
AM_VIS
100
AcDbCircle
 10
37.8063595113037
 20
357.1708550950636
 30
0.0
 40
4.51655457090621
100
AcDbArc
 50
178.2432834228506
 51
194.1531268448808
  0
SPLINE
  5
1FE6
330
1F
100
AcDbEntity
  8
AM_VIS
100
AcDbSpline
210
0.0
220
0.0
230
1.0
 70
     8
 71
     3
 72
    12
 73
     8
 74
     0
 42
0.0000000001
 43
0.0000000001
 40
-0.913574326314335
 40
-0.913574326314335
 40
-0.913574326314335
 40
-0.913574326314335
 40
-0.6515554079476983
 40
-0.6515554079476983
 40
-0.4062533274741592
 40
-0.4062533274741592
 40
0.0
 40
0.0
 40
0.0
 40
0.0
 10
33.42690175126501
 20
356.0664933246228
 30
0.0
 10
33.44708956695541
 20
356.0006943865137
 30
0.0
 10
33.46950325059396
 20
355.9404050632234
 30
0.0
 10
33.51791585129348
 20
355.839588247962
 30
0.0
 10
33.54317499195082
 20
355.7989202191763
 30
0.0
 10
33.61577538007333
 20
355.7153759192673
 30
0.0
 10
33.66390855870355
 20
355.6918196953799
 30
0.0
 10
33.71433603093709
 20
355.6918196953799
 30
0.0
  0
SPLINE
  5
1FE7
330
1F
100
AcDbEntity
  8
AM_VIS
100
AcDbSpline
210
0.0
220
0.0
230
1.0
 70
     8
 71
     3
 72
    12
 73
     8
 74
     0
 42
0.0000000001
 43
0.0000000001
 40
-0.9266131644267144
 40
-0.9266131644267144
 40
-0.9266131644267144
 40
-0.9266131644267144
 40
-0.6935838796819845
 40
-0.6935838796819845
 40
-0.4652094337699562
 40
-0.4652094337699562
 40
0.0
 40
0.0
 40
0.0
 40
0.0
 10
33.71433603093709
 20
355.6918196953799
 30
0.0
 10
33.74326388294838
 20
355.6918196953799
 30
0.0
 10
33.77217857675447
 20
355.6995715554025
 30
0.0
 10
33.82903391696192
 20
355.7324901273439
 30
0.0
 10
33.85634203189471
 20
355.7569357075684
 30
0.0
 10
33.93660218456108
 20
355.8557997592064
 30
0.0
 10
33.98379354270713
 20
355.9521053142808
 30
0.0
 10
34.02499212620575
 20
356.0664933246228
 30
0.0
  0
ARC
  5
1FE8
330
1F
100
AcDbEntity
  8
AM_VIS
100
AcDbCircle
 10
30.24826566879409
 20
357.1809042431848
 30
0.0
 40
3.937711826622652
100
AcDbArc
 50
343.5600803735996
 51
1.868748746672108
  0
ARC
  5
1FE9
330
1F
100
AcDbEntity
  8
AM_VIS
100
AcDbCircle
 10
30.24144434079062
 20
357.4396723266171
 30
0.0
 40
3.944593501853521
100
AcDbArc
 50
358.1061699221312
 51
16.72708918010227
  0
ARC
  5
1FEA
330
1F
100
AcDbEntity
  8
AM_VIS
100
AcDbCircle
 10
37.62045347991096
 20
357.1806273939109
 30
0.0
 40
4.447858012225853
100
AcDbArc
 50
178.4009652258038
 51
195.0542369736616
  0
ARC
  5
1FEB
330
1F
100
AcDbEntity
  8
AM_VIS
100
AcDbCircle
 10
37.51121198310767
 20
357.4420553475518
 30
0.0
 40
4.339057637316098
100
AcDbArc
 50
164.2387526958099
 51
181.813452677403
  0
SPLINE
  5
1FEC
330
1F
100
AcDbEntity
  8
AM_VIS
100
AcDbSpline
210
0.0
220
0.0
230
1.0
 70
     8
 71
     3
 72
    12
 73
     8
 74
     0
 42
0.0000000001
 43
0.0000000001
 40
-1.184365514332061
 40
-1.184365514332061
 40
-1.184365514332061
 40
-1.184365514332061
 40
-0.8639764341030154
 40
-0.8639764341030154
 40
-0.5558573687827875
 40
-0.5558573687827875
 40
0.0
 40
0.0
 40
0.0
 40
0.0
 10
33.3352945235003
 20
358.6206708703146
 30
0.0
 10
33.36100673705352
 20
358.6970872886305
 30
0.0
 10
33.38927229893312
 20
358.7658351046464
 30
0.0
 10
33.45051477144733
 20
358.8818843282118
 30
0.0
 10
33.48263986821218
 20
358.9287096051517
 30
0.0
 10
33.57910919780392
 20
359.0308744497268
 30
0.0
 10
33.64533848646312
 20
359.0593131679648
 30
0.0
 10
33.71433603093709
 20
359.0593131679648
 30
0.0
  0
SPLINE
  5
1FED
330
1F
100
AcDbEntity
  8
AM_VIS
100
AcDbSpline
210
0.0
220
0.0
230
1.0
 70
     8
 71
     3
 72
    12
 73
     8
 74
     0
 42
0.0000000001
 43
0.0000000001
 40
-1.201305769599311
 40
-1.201305769599311
 40
-1.201305769599311
 40
-1.201305769599311
 40
-0.8844535771398998
 40
-0.8844535771398998
 40
-0.5804038630245363
 40
-0.5804038630245363
 40
0.0
 40
0.0
 40
0.0
 40
0.0
 10
33.71433603093709
 20
359.0593131679648
 30
0.0
 10
33.75366350449593
 20
359.0593131679648
 30
0.0
 10
33.79326377474848
 20
359.0502164450076
 30
0.0
 10
33.87059900777723
 20
359.0109693147617
 30
0.0
 10
33.90775795428914
 20
358.9819812360927
 30
0.0
 10
34.01311738149997
 20
358.8670311181106
 30
0.0
 10
34.07493888866253
 20
358.7574518104536
 30
0.0
 10
34.1297115333187
 20
358.6206708703146
 30
0.0
  0
ARC
  5
1FEE
330
1F
100
AcDbEntity
  8
AM_VIS
100
AcDbCircle
 10
30.6753548860051
 20
357.430186985755
 30
0.0
 40
3.653742153770084
100
AcDbArc
 50
358.0324917856652
 51
19.01562036942872
  0
ARC
  5
1FEF
330
1F
100
AcDbEntity
  8
AM_VIS
100
AcDbCircle
 10
30.58334740997185
 20
357.1936850473102
 30
0.0
 40
3.745242589183181
100
AcDbArc
 50
341.8234393165948
 51
1.6992599909266
  0
SPLINE
  5
1FF0
330
1F
100
AcDbEntity
  8
AM_VIS
100
AcDbSpline
210
0.0
220
0.0
230
1.0
 70
     8
 71
     3
 72
    12
 73
     8
 74
     0
 42
0.0000000001
 43
0.0000000001
 40
-1.242654558732686
 40
-1.242654558732686
 40
-1.242654558732686
 40
-1.242654558732686
 40
-0.9142698756126357
 40
-0.9142698756126357
 40
-0.5971960501628128
 40
-0.5971960501628128
 40
0.0
 40
0.0
 40
0.0
 40
0.0
 10
34.14170144316989
 20
356.0253706092181
 30
0.0
 10
34.11160035050301
 20
355.9456857195436
 30
0.0
 10
34.07882302444756
 20
355.8739141182901
 30
0.0
 10
34.00883774501819
 20
355.752056370781
 30
0.0
 10
33.9725572224516
 20
355.7025860277324
 30
0.0
 10
33.86272237757811
 20
355.5906670982844
 30
0.0
 10
33.78846486927733
 20
355.5593131679648
 30
0.0
 10
33.71433603093709
 20
355.5593131679648
 30
0.0
  0
SPLINE
  5
1FF1
330
1F
100
AcDbEntity
  8
AM_VIS
100
AcDbSpline
210
0.0
220
0.0
230
1.0
 70
     8
 71
     3
 72
    12
 73
     8
 74
     0
 42
0.0000000001
 43
0.0000000001
 40
-1.2276122238759
 40
-1.2276122238759
 40
-1.2276122238759
 40
-1.2276122238759
 40
-0.8929247034456292
 40
-0.8929247034456292
 40
-0.5733896277861756
 40
-0.5733896277861756
 40
0.0
 40
0.0
 40
0.0
 40
0.0
 10
33.71433603093709
 20
355.5593131679648
 30
0.0
 10
33.67279006493067
 20
355.5593131679648
 30
0.0
 10
33.63188935321756
 20
355.5693096286995
 30
0.0
 10
33.55419987067131
 20
355.6132938148656
 30
0.0
 10
33.51796990451879
 20
355.6457981446051
 30
0.0
 10
33.42180938263408
 20
355.7704888473663
 30
0.0
 10
33.3697026260216
 20
355.8846247979641
 30
0.0
 10
33.32524421162811
 20
356.0253706092181
 30
0.0
  0
LINE
  5
1FF2
330
1F
100
AcDbEntity
  8
AM_VIS
100
AcDbLine
 10
37.82373387798287
 20
358.9816369277559
 30
0.0
 11
37.82373387798287
 21
358.8902531157455
 31
0.0
  0
LINE
  5
1FF3
330
1F
100
AcDbEntity
  8
AM_VIS
100
AcDbLine
 10
37.67070321351457
 20
358.8771427430773
 30
0.0
 11
37.823679055372
 21
358.890864309455
 31
0.0
  0
ARC
  5
1FF4
330
1F
100
AcDbEntity
  8
AM_VIS
100
AcDbCircle
 10
37.71156887452224
 20
358.6215179114649
 30
0.0
 40
0.2582725698136094
100
AcDbArc
 50
99.09195762434581
 51
133.7747040747619
  0
ARC
  5
1FF5
330
1F
100
AcDbEntity
  8
AM_VIS
100
AcDbCircle
 10
38.46566250493907
 20
357.9184707217388
 30
0.0
 40
1.288930296506586
100
AcDbArc
 50
136.3591390809951
 51
150.7859439705988
  0
ELLIPSE
  5
1FF6
330
1F
100
AcDbEntity
  8
AM_VIS
100
AcDbEllipse
 10
66.66112524412148
 20
336.6416560228809
 30
0.0
 11
0.0
 21
38.85572139303482
 31
0.0
210
0.0
220
0.0
230
1.0
 40
0.9136363636363638
 41
0.9718462733807328
 42
1.00284637839256
  0
ELLIPSE
  5
1FF7
330
1F
100
AcDbEntity
  8
AM_VIS
100
AcDbEllipse
 10
66.66112524412148
 20
381.0751265759795
 30
0.0
 11
0.0
 21
-43.74896265560166
 31
0.0
210
0.0
220
0.0
230
1.0
 40
0.8114478114478114
 41
5.280338928787026
 42
5.317585846210444
  0
ARC
  5
1FF8
330
1F
100
AcDbEntity
  8
AM_VIS
100
AcDbCircle
 10
39.16410411956946
 20
357.0966014122259
 30
0.0
 40
1.926941548825296
100
AcDbArc
 50
208.2246803381031
 51
221.8643944295082
  0
ARC
  5
1FF9
330
1F
100
AcDbEntity
  8
AM_VIS
100
AcDbCircle
 10
37.9823064156804
 20
356.0782549258074
 30
0.0
 40
0.3684603116118438
100
AcDbArc
 50
226.5824281251919
 51
266.7044995120885
  0
LINE
  5
1FFA
330
1F
100
AcDbEntity
  8
AM_VIS
100
AcDbLine
 10
37.96112524412149
 20
355.7104039244434
 30
0.0
 11
37.96112524412149
 21
355.6187126457715
 31
0.0
  0
LINE
  5
1FFB
330
1F
100
AcDbEntity
  8
AM_VIS
100
AcDbLine
 10
37.07324995116363
 20
355.6187126457715
 30
0.0
 11
37.07324995116363
 21
355.710096457782
 31
0.0
  0
ARC
  5
1FFC
330
1F
100
AcDbEntity
  8
AM_VIS
100
AcDbCircle
 10
37.02509495309596
 20
356.232316810301
 30
0.0
 40
0.5244358878107941
100
AcDbArc
 50
275.268461090036
 51
295.8502135124965
  0
SPLINE
  5
1FFD
330
1F
100
AcDbEntity
  8
AM_VIS
100
AcDbSpline
210
0.0
220
0.0
230
1.0
 70
     8
 71
     3
 72
    14
 73
    10
 74
     0
 42
0.0000000001
 43
0.0000000001
 40
-0.1531726380934112
 40
-0.1531726380934112
 40
-0.1531726380934112
 40
-0.1531726380934112
 40
-0.1208721410525331
 40
-0.1208721410525331
 40
-0.0915873767462261
 40
-0.0915873767462261
 40
-0.0514964941566076
 40
-0.0514964941566076
 40
0.0
 40
0.0
 40
0.0
 40
0.0
 10
37.25375946976129
 20
355.7603575543877
 30
0.0
 10
37.25948625356802
 20
355.763745039211
 30
0.0
 10
37.26507962396175
 20
355.7680444919024
 30
0.0
 10
37.2750025355104
 20
355.7784737993595
 30
0.0
 10
37.27936005276064
 20
355.7843516956257
 30
0.0
 10
37.28847021361122
 20
355.8008427536695
 30
0.0
 10
37.29247137978774
 20
355.811852861726
 30
0.0
 10
37.29885706473562
 20
355.8402041090119
 30
0.0
 10
37.30022329308912
 20
355.8574218213486
 30
0.0
 10
37.30022329308912
 20
355.8745873194008
 30
0.0
  0
ARC
  5
1FFE
330
1F
100
AcDbEntity
  8
AM_VIS
100
AcDbCircle
 10
32.94646221288303
 20
354.3927564980678
 30
0.0
 40
4.599027954532342
100
AcDbArc
 50
18.79633988526783
 51
30.59627961854701
  0
ELLIPSE
  5
1FFF
330
1F
100
AcDbEntity
  8
AM_VIS
100
AcDbEllipse
 10
66.66112524412148
 20
380.3759147696919
 30
0.0
 11
0.0
 21
-43.35096153846151
 31
0.0
210
0.0
220
0.0
230
1.0
 40
0.8188976377952755
 41
5.273331284798823
 42
5.28921961377304
  0
ARC
  5
2000
330
1F
100
AcDbEntity
  8
AM_VIS
100
AcDbCircle
 10
66.66112524412148
 20
338.4284384943356
 30
0.0
 40
35.5
100
AcDbArc
 50
147.8603734067274
 51
148.3294667707823
  0
LINE
  5
2001
330
1F
100
AcDbEntity
  8
AM_VIS
100
AcDbLine
 10
36.44774112295972
 20
357.0671460661371
 30
0.0
 11
36.44774112295972
 21
356.1807230896357
 31
0.0
  0
ARC
  5
2002
330
1F
100
AcDbEntity
  8
AM_VIS
100
AcDbCircle
 10
37.24858215719735
 20
356.1271468354775
 30
0.0
 40
0.8026311588322617
100
AcDbArc
 50
176.1726162975617
 51
202.5182481913296
  0
SPLINE
  5
2003
330
1F
100
AcDbEntity
  8
AM_VIS
100
AcDbSpline
210
0.0
220
0.0
230
1.0
 70
     8
 71
     3
 72
    12
 73
     8
 74
     0
 42
0.0000000001
 43
0.0000000001
 40
-0.4369956089875457
 40
-0.4369956089875457
 40
-0.4369956089875457
 40
-0.4369956089875457
 40
-0.3579898768290532
 40
-0.3579898768290532
 40
-0.2590000808649359
 40
-0.2590000808649359
 40
0.0
 40
0.0
 40
0.0
 40
0.0
 10
36.50714552068274
 20
355.8197570321945
 30
0.0
 10
36.51823335301429
 20
355.8036104942794
 30
0.0
 10
36.53111105468662
 20
355.7906344277394
 30
0.0
 10
36.56011433465568
 20
355.7670755350932
 30
0.0
 10
36.57762325757534
 20
355.7568068328693
 30
0.0
 10
36.63939049850188
 20
355.7274320019028
 30
0.0
 10
36.69101455420054
 20
355.7162479527384
 30
0.0
 10
36.73734674701478
 20
355.710096457782
 30
0.0
  0
LINE
  5
2004
330
1F
100
AcDbEntity
  8
AM_VIS
100
AcDbLine
 10
36.73734674701484
 20
355.710096457782
 30
0.0
 11
36.73734674701484
 21
355.6187126457715
 31
0.0
  0
LINE
  5
2005
330
1F
100
AcDbEntity
  8
AM_VIS
100
AcDbLine
 10
35.99810537359406
 20
355.6187126457715
 30
0.0
 11
35.99810537359406
 21
355.710096457782
 31
0.0
  0
SPLINE
  5
2006
330
1F
100
AcDbEntity
  8
AM_VIS
100
AcDbSpline
210
0.0
220
0.0
230
1.0
 70
     8
 71
     3
 72
    10
 73
     6
 74
     0
 42
0.0000000001
 43
0.0000000001
 40
-0.3963858617535622
 40
-0.3963858617535622
 40
-0.3963858617535622
 40
-0.3963858617535622
 40
-0.0994926975763721
 40
-0.0994926975763721
 40
0.0
 40
0.0
 40
0.0
 40
0.0
 10
35.998105373594
 20
355.710096457782
 30
0.0
 10
36.06313736632336
 20
355.7193854212394
 30
0.0
 10
36.12619020189124
 20
355.7391150308892
 30
0.0
 10
36.18841297900536
 20
355.7906546766636
 30
0.0
 10
36.20409758131365
 20
355.8073060781047
 30
0.0
 10
36.21704623075669
 20
355.8288954133956
 30
0.0
  0
ARC
  5
2007
330
1F
100
AcDbEntity
  8
AM_VIS
100
AcDbCircle
 10
35.10749120646295
 20
356.1794709089311
 30
0.0
 40
1.163621729775415
100
AcDbArc
 50
342.4655245985541
 51
3.213104988223759
  0
LINE
  5
2008
330
1F
100
AcDbEntity
  8
AM_VIS
100
AcDbLine
 10
36.26928368829721
 20
356.2446917580431
 30
0.0
 11
36.26928368829721
 21
358.4424724368943
 31
0.0
  0
ARC
  5
2009
330
1F
100
AcDbEntity
  8
AM_VIS
100
AcDbCircle
 10
35.54749375820865
 20
358.5038242116266
 30
0.0
 40
0.7243926721330444
100
AcDbArc
 50
355.14156618776
 51
25.62825339210699
  0
ARC
  5
200A
330
1F
100
AcDbEntity
  8
AM_VIS
100
AcDbCircle
 10
35.97936397846269
 20
358.5212892467156
 30
0.0
 40
0.3694395438241326
100
AcDbArc
 50
53.20905916315503
 51
87.09217933011348
  0
LINE
  5
200B
330
1F
100
AcDbEntity
  8
AM_VIS
100
AcDbLine
 10
35.99810537359406
 20
358.8902531157455
 30
0.0
 11
35.99810537359406
 21
358.9816369277559
 31
0.0
  0
LINE
  5
200C
330
1F
100
AcDbEntity
  8
AM_VIS
100
AcDbLine
 10
36.74318169358634
 20
358.9816369277559
 30
0.0
 11
36.74318169358634
 21
358.8902531157455
 31
0.0
  0
SPLINE
  5
200D
330
1F
100
AcDbEntity
  8
AM_VIS
100
AcDbSpline
210
0.0
220
0.0
230
1.0
 70
     8
 71
     3
 72
    10
 73
     6
 74
     0
 42
0.0000000001
 43
0.0000000001
 40
-0.3041110503072323
 40
-0.3041110503072323
 40
-0.3041110503072323
 40
-0.3041110503072323
 40
-0.0622187259415476
 40
-0.0622187259415476
 40
0.0
 40
0.0
 40
0.0
 40
0.0
 10
36.74318169358634
 20
358.8902531157455
 30
0.0
 10
36.66245060576609
 20
358.8803785435148
 30
0.0
 10
36.58904802343164
 20
358.8638205090378
 30
0.0
 10
36.53096016757553
 20
358.8283619910179
 30
0.0
 10
36.51916603183787
 20
358.8193042211436
 30
0.0
 10
36.50998483759537
 20
358.808007684936
 30
0.0
  0
ARC
  5
200E
330
1F
100
AcDbEntity
  8
AM_VIS
100
AcDbCircle
 10
37.19516479397913
 20
358.5032674579339
 30
0.0
 40
0.7498921112955466
100
AcDbArc
 50
156.022443711223
 51
184.6501691782098
  0
LINE
  5
200F
330
1F
100
AcDbEntity
  8
AM_VIS
100
AcDbLine
 10
36.44774112295972
 20
358.4424724368943
 30
0.0
 11
36.44774112295972
 21
357.2544828807585
 31
0.0
  0
LINE
  5
2010
330
1F
100
AcDbEntity
  8
AM_VIS
100
AcDbLine
 10
36.44808450694688
 20
357.2542779538494
 30
0.0
 11
37.10410779057208
 21
358.3535376446168
 31
0.0
  0
ARC
  5
2011
330
1F
100
AcDbEntity
  8
AM_VIS
100
AcDbCircle
 10
36.19396202092952
 20
358.9133432769162
 30
0.0
 40
1.064389104635238
100
AcDbArc
 50
328.4024918350149
 51
351.8427005961108
  0
SPLINE
  5
2012
330
1F
100
AcDbEntity
  8
AM_VIS
100
AcDbSpline
210
0.0
220
0.0
230
1.0
 70
     8
 71
     3
 72
    14
 73
    10
 74
     0
 42
0.0000000001
 43
0.0000000001
 40
-0.1301473336609273
 40
-0.1301473336609273
 40
-0.1301473336609273
 40
-0.1301473336609273
 40
-0.1031024286484683
 40
-0.1031024286484683
 40
-0.0784939106506536
 40
-0.0784939106506536
 40
-0.0447190693279371
 40
-0.0447190693279371
 40
0.0
 40
0.0
 40
0.0
 40
0.0
 10
37.24758190538427
 20
358.7623157789308
 30
0.0
 10
37.24758189666585
 20
358.7713344820405
 30
0.0
 10
37.24712369230491
 20
358.7803887359202
 30
0.0
 10
37.2450184817456
 20
358.7972010221049
 30
0.0
 10
37.24349423273128
 20
358.8049077968142
 30
0.0
 10
37.23838748828774
 20
358.8221104055724
 30
0.0
 10
37.23442790052826
 20
358.8306036310238
 30
0.0
 10
37.22311091498335
 20
358.8472102067653
 30
0.0
 10
37.21545592401077
 20
358.8537371705488
 30
0.0
 10
37.20752842947656
 20
358.8582687815418
 30
0.0
  0
ARC
  5
2013
330
1F
100
AcDbEntity
  8
AM_VIS
100
AcDbCircle
 10
37.04019533934627
 20
358.4400101361961
 30
0.0
 40
0.4504893533248081
100
AcDbArc
 50
68.195091304063
 51
88.10498610429588
  0
LINE
  5
2014
330
1F
100
AcDbEntity
  8
AM_VIS
100
AcDbLine
 10
37.05509221235769
 20
358.8902531157455
 30
0.0
 11
37.05509221235769
 21
358.9816369277559
 31
0.0
  0
LINE
  5
2015
330
1F
100
AcDbEntity
  8
AM_VIS
100
AcDbLine
 10
91.66112524412136
 20
378.5593131679648
 30
0.0
 11
91.66112524412136
 21
404.5593131679647
 31
0.0
  0
LINE
  5
2016
330
1F
100
AcDbEntity
  8
AM_VIS
100
AcDbLine
 10
41.66112524412136
 20
378.5593131679648
 30
0.0
 11
41.66112524412136
 21
404.5593131679647
 31
0.0
  0
LINE
  5
2017
330
1F
100
AcDbEntity
  8
AM_VIS
100
AcDbLine
 10
99.66112524412148
 20
350.5593131679648
 30
0.0
 11
100.6611252441214
 21
352.0593131679648
 31
0.0
  0
LINE
  5
2018
330
1F
100
AcDbEntity
  8
AM_VIS
100
AcDbLine
 10
33.66112524412148
 20
350.5593131679648
 30
0.0
 11
32.66112524412148
 21
352.0593131679648
 31
0.0
  0
LINE
  5
2019
330
1F
100
AcDbEntity
  8
AM_VIS
100
AcDbLine
 10
41.66112524412136
 20
404.5593131679647
 30
0.0
 11
91.66112524412136
 21
404.5593131679647
 31
0.0
  0
LINE
  5
201A
330
1F
100
AcDbEntity
  8
AM_VIS
100
AcDbLine
 10
33.66112524412148
 20
350.5593131679648
 30
0.0
 11
99.66112524412148
 21
350.5593131679648
 31
0.0
  0
CIRCLE
  5
201B
330
1F
100
AcDbEntity
  8
AM_VIS
100
AcDbCircle
 10
66.66112524412136
 20
388.5593131679648
 30
0.0
 40
7.0
  0
ARC
  5
201C
330
1F
100
AcDbEntity
  8
AM_VIS
100
AcDbCircle
 10
50.66112524412137
 20
374.5593131679648
 30
0.0
 40
0.9999999999999998
100
AcDbArc
 50
180.0
 51
270.0
  0
ARC
  5
201D
330
1F
100
AcDbEntity
  8
AM_VIS
100
AcDbCircle
 10
50.66112524412137
 20
402.5593131679647
 30
0.0
 40
0.9999999999999998
100
AcDbArc
 50
90.0
 51
180.0
  0
ARC
  5
201E
330
1F
100
AcDbEntity
  8
AM_VIS
100
AcDbCircle
 10
82.66112524412136
 20
402.5593131679647
 30
0.0
 40
0.9999999999999998
100
AcDbArc
 50
0.0
 51
90.0
  0
ARC
  5
201F
330
1F
100
AcDbEntity
  8
AM_VIS
100
AcDbCircle
 10
82.66112524412136
 20
374.5593131679648
 30
0.0
 40
1.0
100
AcDbArc
 50
270.0
 51
0.0
  0
CIRCLE
  5
2020
330
1F
100
AcDbEntity
  8
AM_VIS
100
AcDbCircle
 10
66.66112524412136
 20
388.5593131679648
 30
0.0
 40
8.357211176462195
  0
CIRCLE
  5
2021
330
1F
100
AcDbEntity
  8
AM_VIS
100
AcDbCircle
 10
66.66112524412136
 20
388.5593131679648
 30
0.0
 40
10.25
  0
ARC
  5
2022
102
{ACAD_REACTORS
330
2087
102
}
330
1F
100
AcDbEntity
  8
AM_VIS
 62
     3
100
AcDbCircle
 10
66.66112524412136
 20
388.5593131679648
 30
0.0
 40
8.71073457753819
100
AcDbArc
 50
257.0860812891216
 51
188.3494769371146
  0
LINE
  5
2023
330
1F
100
AcDbEntity
  8
AM_VIS
100
AcDbLine
 10
71.49074535767619
 20
393.5593131679648
 30
0.0
 11
61.83150513056654
 21
393.5593131679648
 31
0.0
  0
LINE
  5
2024
330
1F
100
AcDbEntity
  8
AM_VIS
100
AcDbLine
 10
100.6611252441214
 20
353.5593131679648
 30
0.0
 11
74.96774910703954
 21
353.5593131679648
 31
0.0
  0
LINE
  5
2025
330
1F
100
AcDbEntity
  8
AM_VIS
100
AcDbLine
 10
100.6611252441214
 20
377.5593131679648
 30
0.0
 11
83.66112524412136
 21
377.5593131679648
 31
0.0
  0
LINE
  5
2026
330
1F
100
AcDbEntity
  8
AM_VIS
100
AcDbLine
 10
83.66112524412136
 20
378.5593131679648
 30
0.0
 11
99.66112524412148
 21
378.5593131679648
 31
0.0
  0
LINE
  5
2027
330
1F
100
AcDbEntity
  8
AM_VIS
100
AcDbLine
 10
58.35450138120342
 20
353.5593131679648
 30
0.0
 11
32.66112524412148
 21
353.5593131679648
 31
0.0
  0
LINE
  5
2028
330
1F
100
AcDbEntity
  8
AM_VIS
100
AcDbLine
 10
33.66112524412148
 20
378.5593131679648
 30
0.0
 11
49.66112524412136
 21
378.5593131679648
 31
0.0
  0
LINE
  5
2029
330
1F
100
AcDbEntity
  8
AM_VIS
100
AcDbLine
 10
49.66112524412136
 20
377.5593131679648
 30
0.0
 11
32.66112524412148
 21
377.5593131679648
 31
0.0
  0
LINE
  5
202A
330
1F
100
AcDbEntity
  8
AM_VIS
100
AcDbLine
 10
33.10188617481782
 20
356.4640129068682
 30
0.0
 11
33.06893835097679
 21
356.4640129068682
 31
0.0
  0
LINE
  5
202B
330
1F
100
AcDbEntity
  8
AM_VIS
100
AcDbLine
 10
32.66112524412148
 20
355.6187126457715
 30
0.0
 11
33.03320382103675
 21
355.6187126457715
 31
0.0
  0
LINE
  5
202C
330
1F
100
AcDbEntity
  8
AM_VIS
100
AcDbLine
 10
32.66266194325221
 20
358.9816369277559
 30
0.0
 11
32.66112524412148
 21
358.9816369277559
 31
0.0
  0
LINE
  5
202D
330
1F
100
AcDbEntity
  8
AM_VIS
100
AcDbLine
 10
37.07324995116369
 20
355.6187126457715
 30
0.0
 11
37.96112524412149
 21
355.6187126457715
 31
0.0
  0
LINE
  5
202E
330
1F
100
AcDbEntity
  8
AM_VIS
100
AcDbLine
 10
35.99810537359412
 20
355.6187126457715
 30
0.0
 11
36.7373467470149
 21
355.6187126457715
 31
0.0
  0
LINE
  5
202F
330
1F
100
AcDbEntity
  8
AM_VIS
100
AcDbLine
 10
36.74318169358634
 20
358.9816369277559
 30
0.0
 11
35.99810537359412
 21
358.9816369277559
 31
0.0
  0
LINE
  5
2030
330
1F
100
AcDbEntity
  8
AM_VIS
100
AcDbLine
 10
37.82373387798287
 20
358.9816369277559
 30
0.0
 11
37.05509221235769
 21
358.9816369277559
 31
0.0
  0
ARC
  5
2031
330
1F
100
AcDbEntity
  8
AM_VIS
100
AcDbCircle
 10
61.83150513056654
 20
394.0593131679648
 30
0.0
 40
0.5
100
AcDbArc
 50
262.527847678084
 51
270.0
  0
ARC
  5
2032
330
1F
100
AcDbEntity
  8
AM_VIS
100
AcDbCircle
 10
71.49074535767619
 20
394.0593131679648
 30
0.0
 40
0.5
100
AcDbArc
 50
270.0
 51
277.472152321916
  0
SPLINE
  5
2033
330
1F
100
AcDbEntity
  8
AM_VIS
100
AcDbSpline
210
0.0
220
0.0
230
1.0
 70
    12
 71
     2
 72
     6
 73
     3
 74
     0
 42
0.0000000001
 43
0.0000000001
 40
0.0
 40
0.0
 40
0.0
 40
18.3633054489176
 40
18.3633054489176
 40
18.3633054489176
 10
75.70269590413392
 20
347.0593131679648
 30
0.0
 41
1.0
 10
66.66112524412172
 20
343.9516046146388
 30
0.0
 41
1.057982348340953
 10
57.61955458410904
 20
347.0593131679648
 30
0.0
 41
1.0
  0
LINE
  5
2034
330
1F
100
AcDbEntity
  8
AM_VIS
100
AcDbLine
 10
57.61955422660577
 20
347.0593131665821
 30
0.0
 11
57.94828490169641
 21
262.0593131665032
 31
0.0
  0
LINE
  5
2035
330
1F
100
AcDbEntity
  8
AM_VIS
100
AcDbLine
 10
75.37396558654626
 20
262.0593131665032
 30
0.0
 11
75.70269626163741
 21
347.0593131665821
 31
0.0
  0
SPLINE
  5
2036
330
1F
100
AcDbEntity
  8
AM_VIS
100
AcDbSpline
210
0.0
220
0.0
230
1.0
 70
     8
 71
     3
 72
    47
 73
    43
 74
     0
 42
0.0000000001
 43
0.0000000001
 40
-9.338053573506343
 40
-9.338053573506343
 40
-9.338053573506343
 40
-9.338053573506343
 40
-9.31198683372483
 40
-9.31198683372483
 40
-9.010079576214423
 40
-9.010079576214423
 40
-8.708172318704011
 40
-8.708172318704011
 40
-8.285004503825881
 40
-8.285004503825881
 40
-7.86183668894775
 40
-7.86183668894775
 40
-7.110927823292406
 40
-7.110927823292406
 40
-6.360018957637066
 40
-6.360018957637066
 40
-4.7700142182278
 40
-4.7700142182278
 40
-3.180009478818533
 40
-3.180009478818533
 40
0.0
 40
0.0
 40
0.0
 40
3.180009478818531
 40
3.180009478818531
 40
4.770014218227797
 40
4.770014218227797
 40
6.360018957637063
 40
6.360018957637063
 40
7.110927823292406
 40
7.110927823292406
 40
7.861836688947748
 40
7.861836688947748
 40
8.285004503825881
 40
8.285004503825881
 40
8.708172318704011
 40
8.708172318704011
 40
9.010079576214421
 40
9.010079576214421
 40
9.31198683372483
 40
9.31198683372483
 40
9.338053573508522
 40
9.338053573508522
 40
9.338053573508522
 40
9.338053573508522
 10
75.37396520861711
 20
262.0593131679648
 30
0.0
 10
75.37412820464152
 20
262.0505019843694
 30
0.0
 10
75.37419986111109
 20
262.0417483562942
 30
0.0
 10
75.37399848673004
 20
261.9324306237946
 30
0.0
 10
75.36112849368641
 20
261.8230805088763
 30
0.0
 10
75.30830172737347
 20
261.6107930840916
 30
0.0
 10
75.26853269436725
 20
261.5078091057439
 30
0.0
 10
75.16162582316195
 20
261.2910604164984
 30
0.0
 10
75.076654017071
 20
261.162497504194
 30
0.0
 10
74.8804415983455
 20
260.9259615718779
 30
0.0
 10
74.7695675190651
 20
260.8176847804019
 30
0.0
 10
74.47255806350693
 20
260.5628531699994
 30
0.0
 10
74.24574167351835
 20
260.409543176107
 30
0.0
 10
73.76840687470263
 20
260.1422904553933
 30
0.0
 10
73.51818980795787
 20
260.0278099293685
 30
0.0
 10
72.79435677702458
 20
259.7363816783917
 30
0.0
 10
72.26619460122191
 20
259.5821694390334
 30
0.0
 10
71.17022499637124
 20
259.3332974129248
 30
0.0
 10
70.60229309454308
 20
259.2391860228897
 30
0.0
 10
68.88443215620753
 20
259.0249359668898
 30
0.0
 10
67.72112840372762
 20
258.9721046794553
 30
0.0
 10
66.66112524412148
 20
258.9721046794553
 30
0.0
 10
65.60112208451534
 20
258.9721046794553
 30
0.0
 10
64.43781833203542
 20
259.0249359668898
 30
0.0
 10
62.71995739369987
 20
259.2391860228897
 30
0.0
 10
62.15202549187171
 20
259.3332974129248
 30
0.0
 10
61.05605588702093
 20
259.5821694390334
 30
0.0
 10
60.52789371121838
 20
259.7363816783917
 30
0.0
 10
59.80406068028509
 20
260.0278099293685
 30
0.0
 10
59.55384361354032
 20
260.1422904553933
 30
0.0
 10
59.0765088147246
 20
260.409543176107
 30
0.0
 10
58.84969242473601
 20
260.5628531699994
 30
0.0
 10
58.55268296917785
 20
260.8176847804019
 30
0.0
 10
58.44180888989746
 20
260.9259615718778
 30
0.0
 10
58.24559647117195
 20
261.162497504194
 30
0.0
 10
58.160624665081
 20
261.2910604164984
 30
0.0
 10
58.05371779387559
 20
261.5078091057439
 30
0.0
 10
58.01394876086948
 20
261.6107930840916
 30
0.0
 10
57.96112199455655
 20
261.8230805088763
 30
0.0
 10
57.94825200151291
 20
261.9324306237946
 30
0.0
 10
57.94805062713186
 20
262.041748356295
 30
0.0
 10
57.94812228360143
 20
262.0505019843686
 30
0.0
 10
57.94828527962573
 20
262.0593131679648
 30
0.0
  0
LINE
  5
2037
330
1F
100
AcDbEntity
  8
AM_VIS
100
AcDbLine
 10
41.52943961637169
 20
347.0593131679645
 30
0.0
 11
41.54003101943601
 21
346.0593131679644
 31
0.0
  0
SPLINE
  5
2038
330
1F
100
AcDbEntity
  8
AM_VIS
100
AcDbSpline
210
0.0
220
0.0
230
1.0
 70
    12
 71
     2
 72
     6
 73
     3
 74
     0
 42
0.0000000001
 43
0.0000000001
 40
0.0
 40
0.0
 40
0.0
 40
13.89862213660341
 40
13.89862213660341
 40
13.89862213660341
 10
54.31615146895007
 20
347.0593131679648
 30
0.0
 41
1.0
 10
49.43059822581886
 20
344.6754193199863
 30
0.0
 41
1.043885059387894
 10
44.71621616124178
 20
345.8745290719258
 30
0.0
 41
1.021339610437139
  0
SPLINE
  5
2039
330
1F
100
AcDbEntity
  8
AM_VIS
100
AcDbSpline
210
0.0
220
0.0
230
1.0
 70
    12
 71
     2
 72
     6
 73
     3
 74
     0
 42
0.0000000001
 43
0.0000000001
 40
14.84747883554312
 40
14.84747883554312
 40
14.84747883554312
 40
18.36330544891766
 40
18.36330544891766
 40
18.36330544891766
 10
44.05500618164597
 20
346.0593131679648
 30
0.0
 41
1.017951644702703
 10
42.81515449777413
 20
346.4367253149273
 30
0.0
 41
1.011101263003556
 10
41.5294396164058
 20
347.0593131679648
 30
0.0
 41
1.0
  0
LINE
  5
203A
330
1F
100
AcDbEntity
  8
AM_VIS
100
AcDbLine
 10
54.31615172174059
 20
347.0593131692595
 30
0.0
 11
54.75152710331968
 21
262.0593131693336
 31
0.0
  0
SPLINE
  5
203B
330
1F
100
AcDbEntity
  8
AM_VIS
100
AcDbSpline
210
0.0
220
0.0
230
1.0
 70
     8
 71
     3
 72
    47
 73
    43
 74
     0
 42
0.0000000001
 43
0.0000000001
 40
-9.33805357350635
 40
-9.33805357350635
 40
-9.33805357350635
 40
-9.33805357350635
 40
-9.311986833724837
 40
-9.311986833724837
 40
-9.010079576214437
 40
-9.010079576214437
 40
-8.708172318704033
 40
-8.708172318704033
 40
-8.285004503825895
 40
-8.285004503825895
 40
-7.861836688947757
 40
-7.861836688947757
 40
-7.110927823292435
 40
-7.110927823292435
 40
-6.360018957637109
 40
-6.360018957637109
 40
-4.770014218227828
 40
-4.770014218227828
 40
-3.180009478818554
 40
-3.180009478818554
 40
0.0
 40
0.0
 40
0.0
 40
3.180009478818549
 40
3.180009478818549
 40
4.770014218227824
 40
4.770014218227824
 40
6.360018957637098
 40
6.360018957637098
 40
7.110927823292424
 40
7.110927823292424
 40
7.861836688947751
 40
7.861836688947751
 40
8.285004503825886
 40
8.285004503825886
 40
8.708172318704022
 40
8.708172318704022
 40
9.010079576214426
 40
9.010079576214426
 40
9.311986833724828
 40
9.311986833724828
 40
9.338053573508519
 40
9.338053573508519
 40
9.338053573508519
 40
9.338053573508519
 10
54.75152683608661
 20
262.0593131679648
 30
0.0
 10
54.75171131887709
 20
262.0505019843694
 30
0.0
 10
54.75183076265017
 20
262.0417483562942
 30
0.0
 10
54.7525472506814
 20
261.9324306237946
 30
0.0
 10
54.74430592696847
 20
261.8230805088763
 30
0.0
 10
54.70861964980969
 20
261.6107930840916
 30
0.0
 10
54.68130781543909
 20
261.5078091057439
 30
0.0
 10
54.60741618038747
 20
261.2910604164984
 30
0.0
 10
54.54834212572535
 20
261.162497504194
 30
0.0
 10
54.41145739568861
 20
260.9259615718779
 30
0.0
 10
54.33390828518821
 20
260.8176847804019
 30
0.0
 10
54.12589303130625
 20
260.5628531699994
 30
0.0
 10
53.96671414093117
 20
260.409543176107
 30
0.0
 10
53.63128720347123
 20
260.1422904553933
 30
0.0
 10
53.45525646276593
 20
260.0278099293685
 30
0.0
 10
52.9457188947294
 20
259.7363816783917
 30
0.0
 10
52.573463444433
 20
259.5821694390334
 30
0.0
 10
51.80045122817222
 20
259.3332974129248
 30
0.0
 10
51.39960213804937
 20
259.2391860228897
 30
0.0
 10
50.18657432683307
 20
259.0249359668898
 30
0.0
 10
49.36440943667043
 20
258.9721046794553
 30
0.0
 10
48.61487401443373
 20
258.9721046794553
 30
0.0
 10
47.86533859219701
 20
258.9721046794553
 30
0.0
 10
47.04234353844305
 20
259.0249359668899
 30
0.0
 10
45.82594911239431
 20
259.2391860228897
 30
0.0
 10
45.42362120444733
 20
259.3332974129248
 30
0.0
 10
44.64669834157968
 20
259.5821694390334
 30
0.0
 10
44.27201967972343
 20
259.7363816783917
 30
0.0
 10
43.75790275852051
 20
260.0278099293685
 30
0.0
 10
43.58007312989815
 20
260.1422904553933
 30
0.0
 10
43.24044672108022
 20
260.409543176107
 30
0.0
 10
43.07885879656504
 20
260.5628531699994
 30
0.0
 10
42.86683925024357
 20
260.8176847804019
 30
0.0
 10
42.78758873410999
 20
260.9259615718779
 30
0.0
 10
42.64698720047903
 20
261.162497504194
 30
0.0
 10
42.58589297454801
 20
261.2910604164984
 30
0.0
 10
42.50859546243026
 20
261.5078091057439
 30
0.0
 10
42.47966539096097
 20
261.6107930840916
 30
0.0
 10
42.44064333874376
 20
261.8230805088763
 30
0.0
 10
42.43068374374678
 20
261.9324306237946
 30
0.0
 10
42.42968246933464
 20
262.041748356295
 30
0.0
 10
42.42966436311263
 20
262.0505019843687
 30
0.0
 10
42.42971039151058
 20
262.0593131679648
 30
0.0
  0
LINE
  5
203C
330
1F
100
AcDbEntity
  8
AM_VIS
100
AcDbLine
 10
42.4085275130966
 20
264.0593131679632
 30
0.0
 11
42.42971039135841
 21
262.0593131679632
 31
0.0
  0
SPLINE
  5
203D
330
1F
100
AcDbEntity
  8
AM_VIS
100
AcDbSpline
210
0.0
220
0.0
230
1.0
 70
     8
 71
     3
 72
    47
 73
    43
 74
     0
 42
0.0000000001
 43
0.0000000001
 40
-9.338053573506341
 40
-9.338053573506341
 40
-9.338053573506341
 40
-9.338053573506341
 40
-9.311986833724827
 40
-9.311986833724827
 40
-9.010079576214419
 40
-9.010079576214419
 40
-8.708172318704011
 40
-8.708172318704011
 40
-8.285004503825877
 40
-8.285004503825877
 40
-7.861836688947743
 40
-7.861836688947743
 40
-7.110927823292406
 40
-7.110927823292406
 40
-6.360018957637073
 40
-6.360018957637073
 40
-4.770014218227807
 40
-4.770014218227807
 40
-3.18000947881854
 40
-3.18000947881854
 40
0.0
 40
0.0
 40
0.0
 40
3.180009478818542
 40
3.180009478818542
 40
4.770014218227813
 40
4.770014218227813
 40
6.360018957637084
 40
6.360018957637084
 40
7.110927823292421
 40
7.110927823292421
 40
7.861836688947757
 40
7.861836688947757
 40
8.285004503825888
 40
8.285004503825888
 40
8.70817231870402
 40
8.70817231870402
 40
9.01007957621443
 40
9.01007957621443
 40
9.311986833724837
 40
9.311986833724837
 40
9.338053573508529
 40
9.338053573508529
 40
9.338053573508529
 40
9.338053573508529
 10
90.89254009673238
 20
262.0593131679648
 30
0.0
 10
90.8925861251302
 20
262.0505019843694
 30
0.0
 10
90.89256801890831
 20
262.0417483562942
 30
0.0
 10
90.89156674449617
 20
261.9324306237946
 30
0.0
 10
90.88160714949919
 20
261.8230805088763
 30
0.0
 10
90.84258509728199
 20
261.6107930840916
 30
0.0
 10
90.81365502581268
 20
261.5078091057439
 30
0.0
 10
90.73635751369483
 20
261.2910604164984
 30
0.0
 10
90.67526328776393
 20
261.162497504194
 30
0.0
 10
90.53466175413296
 20
260.9259615718778
 30
0.0
 10
90.45541123799926
 20
260.8176847804019
 30
0.0
 10
90.24339169167792
 20
260.5628531699994
 30
0.0
 10
90.08180376716262
 20
260.409543176107
 30
0.0
 10
89.7421773583447
 20
260.1422904553933
 30
0.0
 10
89.56434772972244
 20
260.0278099293685
 30
0.0
 10
89.05023080851941
 20
259.7363816783917
 30
0.0
 10
88.67555214666328
 20
259.5821694390334
 30
0.0
 10
87.89862928379552
 20
259.3332974129248
 30
0.0
 10
87.49630137584864
 20
259.2391860228897
 30
0.0
 10
86.27990694979979
 20
259.0249359668898
 30
0.0
 10
85.45691189604594
 20
258.9721046794553
 30
0.0
 10
84.70737647380923
 20
258.9721046794553
 30
0.0
 10
83.95784105157252
 20
258.9721046794553
 30
0.0
 10
83.13567616140977
 20
259.0249359668898
 30
0.0
 10
81.92264835019358
 20
259.2391860228897
 30
0.0
 10
81.52179926007073
 20
259.3332974129248
 30
0.0
 10
80.74878704380996
 20
259.5821694390334
 30
0.0
 10
80.37653159351355
 20
259.7363816783917
 30
0.0
 10
79.86699402547703
 20
260.0278099293685
 30
0.0
 10
79.69096328477172
 20
260.1422904553933
 30
0.0
 10
79.35553634731178
 20
260.409543176107
 30
0.0
 10
79.19635745693671
 20
260.5628531699994
 30
0.0
 10
78.98834220305463
 20
260.8176847804019
 30
0.0
 10
78.91079309255434
 20
260.9259615718778
 30
0.0
 10
78.77390836251748
 20
261.162497504194
 30
0.0
 10
78.71483430785549
 20
261.2910604164984
 30
0.0
 10
78.64094267280376
 20
261.5078091057439
 30
0.0
 10
78.61363083843326
 20
261.6107930840916
 30
0.0
 10
78.57794456127436
 20
261.8230805088763
 30
0.0
 10
78.56970323756155
 20
261.9324306237946
 30
0.0
 10
78.57041972559279
 20
262.041748356295
 30
0.0
 10
78.57053916936576
 20
262.0505019843686
 30
0.0
 10
78.57072365215635
 20
262.0593131679648
 30
0.0
  0
LINE
  5
203E
330
1F
100
AcDbEntity
  8
AM_VIS
100
AcDbLine
 10
78.57072338492315
 20
262.0593131693336
 30
0.0
 11
79.00609876650247
 21
347.0593131692595
 31
0.0
  0
SPLINE
  5
203F
330
1F
100
AcDbEntity
  8
AM_VIS
100
AcDbSpline
210
0.0
220
0.0
230
1.0
 70
    12
 71
     2
 72
     6
 73
     3
 74
     0
 42
0.0000000001
 43
0.0000000001
 40
0.0
 40
0.0
 40
0.0
 40
18.36330544891765
 40
18.36330544891765
 40
18.36330544891765
 10
91.79281087183705
 20
347.0593131679648
 30
0.0
 41
1.0
 10
85.37503848120911
 20
343.9516046146382
 30
0.0
 41
1.05798234834096
 10
79.00609901929289
 20
347.0593131679648
 30
0.0
 41
1.0
  0
LINE
  5
2040
330
1F
100
AcDbEntity
  8
AM_VIS
100
AcDbLine
 10
91.07787933817503
 20
279.5582857078782
 30
0.0
 11
91.10945765148931
 21
282.5397820934858
 31
0.0
  0
LINE
  5
2041
330
1F
100
AcDbEntity
  8
AM_VIS
100
AcDbLine
 10
91.10945772643253
 20
282.539782092692
 30
0.0
 11
91.59056210851934
 21
327.9637538779354
 31
0.0
  0
LINE
  5
2042
330
1F
100
AcDbEntity
  8
AM_VIS
100
AcDbLine
 10
91.5905620356114
 20
327.9637538787076
 30
0.0
 11
91.6135246517523
 21
330.1317952892665
 31
0.0
  0
LINE
  5
2043
330
1F
100
AcDbEntity
  8
AM_VIS
100
AcDbLine
 10
91.61352465688066
 20
330.1317952892122
 30
0.0
 11
91.74439079020595
 21
342.4876730138358
 31
0.0
  0
LINE
  5
2044
330
1F
100
AcDbEntity
  8
AM_VIS
100
AcDbLine
 10
91.74439078567075
 20
342.4876730138838
 30
0.0
 11
91.79281087254992
 21
347.0593131679572
 31
0.0
  0
LINE
  5
2045
330
1F
100
AcDbEntity
  8
AM_VIS
100
AcDbLine
 10
90.89254009783616
 20
262.0593131679531
 30
0.0
 11
90.949633555062
 21
267.449842319224
 31
0.0
  0
LINE
  5
2046
330
1F
100
AcDbEntity
  8
AM_VIS
100
AcDbLine
 10
90.9496335594793
 20
267.4498423191772
 30
0.0
 11
91.07787934331781
 21
279.5582857078238
 31
0.0
  0
LINE
  5
2047
330
1F
100
AcDbEntity
  8
AM_VIS
100
AcDbLine
 10
94.66112524412148
 20
347.0593131679648
 30
0.0
 11
95.61112524412147
 21
348.0593131679648
 31
0.0
  0
LINE
  5
2048
330
1F
100
AcDbEntity
  8
AM_VIS
100
AcDbLine
 10
38.66112524412148
 20
347.0593131679648
 30
0.0
 11
37.71112524412149
 21
348.0593131679648
 31
0.0
  0
LINE
  5
2049
330
1F
100
AcDbEntity
  8
AM_VIS
100
AcDbLine
 10
80.66112524412147
 20
254.0593131679648
 30
0.0
 11
91.1800928918854
 21
258.3771148356277
 31
0.0
  0
LINE
  5
204A
330
1F
100
AcDbEntity
  8
AM_VIS
100
AcDbLine
 10
52.66112524412148
 20
254.0593131679648
 30
0.0
 11
42.14215759635749
 21
258.3771148356277
 31
0.0
  0
LINE
  5
204B
330
1F
100
AcDbEntity
  8
AM_VIS
100
AcDbLine
 10
78.66112524412148
 20
252.0593131679648
 30
0.0
 11
80.66112524412147
 21
254.0593131679648
 31
0.0
  0
LINE
  5
204C
330
1F
100
AcDbEntity
  8
AM_VIS
100
AcDbLine
 10
54.66112524412148
 20
252.0593131679648
 30
0.0
 11
52.66112524412148
 21
254.0593131679648
 31
0.0
  0
LINE
  5
204D
330
1F
100
AcDbEntity
  8
AM_VIS
100
AcDbLine
 10
95.61112524412147
 20
348.0593131679648
 30
0.0
 11
95.61112524412147
 21
350.5593131679648
 31
0.0
  0
LINE
  5
204E
330
1F
100
AcDbEntity
  8
AM_VIS
100
AcDbLine
 10
37.71112524412149
 20
348.0593131679648
 30
0.0
 11
37.71112524412149
 21
350.5593131679648
 31
0.0
  0
LINE
  5
204F
330
1F
100
AcDbEntity
  8
AM_VIS
100
AcDbLine
 10
39.66112524412148
 20
262.0593131679648
 30
0.0
 11
39.63759583235674
 21
264.0593131679648
 31
0.0
  0
LINE
  5
2050
330
1F
100
AcDbEntity
  8
AM_VIS
100
AcDbLine
 10
38.67288995000382
 20
346.0593131679648
 30
0.0
 11
38.66112524412148
 21
347.0593131679648
 31
0.0
  0
LINE
  5
2051
330
1F
100
AcDbEntity
  8
AM_VIS
100
AcDbLine
 10
93.66112524412148
 20
262.0593131679648
 30
0.0
 11
94.66112524412148
 21
347.0593131679648
 31
0.0
  0
LINE
  5
2052
330
1F
100
AcDbEntity
  8
AM_VIS
100
AcDbLine
 10
80.66112524412147
 20
254.0593131679648
 30
0.0
 11
52.66112524412148
 21
254.0593131679648
 31
0.0
  0
LINE
  5
2053
330
1F
100
AcDbEntity
  8
AM_VIS
100
AcDbLine
 10
78.66112524412148
 20
252.0593131679648
 30
0.0
 11
54.66112524412148
 21
252.0593131679648
 31
0.0
  0
LINE
  5
2054
330
1F
100
AcDbEntity
  8
AM_VIS
100
AcDbLine
 10
95.61112524412147
 20
348.0593131679648
 30
0.0
 11
37.71112524412149
 21
348.0593131679648
 31
0.0
  0
LINE
  5
2055
330
1F
100
AcDbEntity
  8
AM_VIS
100
AcDbLine
 10
57.61955458410892
 20
347.0593131679648
 30
0.0
 11
54.31615146895018
 21
347.0593131679648
 31
0.0
  0
LINE
  5
2056
330
1F
100
AcDbEntity
  8
AM_VIS
100
AcDbLine
 10
79.00609901929278
 20
347.0593131679648
 30
0.0
 11
75.70269590413403
 21
347.0593131679648
 31
0.0
  0
LINE
  5
2057
330
1F
100
AcDbEntity
  8
AM_VIS
100
AcDbLine
 10
57.94828527962579
 20
262.0593131679648
 30
0.0
 11
54.75152683608661
 21
262.0593131679648
 31
0.0
  0
LINE
  5
2058
330
1F
100
AcDbEntity
  8
AM_VIS
100
AcDbLine
 10
78.57072365215635
 20
262.0593131679648
 30
0.0
 11
75.37396520861711
 21
262.0593131679648
 31
0.0
  0
LINE
  5
2059
330
1F
100
AcDbEntity
  8
AM_VIS
100
AcDbLine
 10
42.42971039151052
 20
262.0593131679648
 30
0.0
 11
39.66112524412148
 21
262.0593131679648
 31
0.0
  0
LINE
  5
205A
330
1F
100
AcDbEntity
  8
AM_VIS
100
AcDbLine
 10
41.5294396164058
 20
347.0593131679648
 30
0.0
 11
38.66112524412148
 21
347.0593131679648
 31
0.0
  0
LINE
  5
205B
330
1F
100
AcDbEntity
  8
AM_VIS
100
AcDbLine
 10
94.66112524412148
 20
347.0593131679648
 30
0.0
 11
91.79281087183722
 21
347.0593131679648
 31
0.0
  0
LINE
  5
205C
330
1F
100
AcDbEntity
  8
AM_VIS
100
AcDbLine
 10
93.66112524412148
 20
262.0593131679648
 30
0.0
 11
90.89254009673238
 21
262.0593131679648
 31
0.0
  0
ARC
  5
205D
330
1F
100
AcDbEntity
  8
AM_VIS
100
AcDbCircle
 10
43.66108389109188
 20
262.0775016952904
 30
0.0
 40
3.999999999999999
100
AcDbArc
 50
180.2605323606464
 51
247.6829432916875
  0
ARC
  5
205E
330
1F
100
AcDbEntity
  8
AM_VIS
100
AcDbCircle
 10
89.66116659715101
 20
262.0775016952904
 30
0.0
 40
4.0
100
AcDbArc
 50
292.3170567083125
 51
359.7394676393536
  0
LINE
  5
205F
330
1F
100
AcDbEntity
  8
AM_VIS
100
AcDbLine
 10
44.21351465459423
 20
346.0593131679648
 30
0.0
 11
28.16112524412148
 21
346.0593131679648
 31
0.0
  0
LINE
  5
2060
330
1F
100
AcDbEntity
  8
AM_VIS
100
AcDbLine
 10
27.16112524412148
 20
345.0593131679648
 30
0.0
 11
27.16112524412148
 21
265.0593131679648
 31
0.0
  0
LINE
  5
2061
330
1F
100
AcDbEntity
  8
AM_VIS
100
AcDbLine
 10
28.16112524412148
 20
264.0593131679648
 30
0.0
 11
45.53133944779
 21
264.0593131679648
 31
0.0
  0
ARC
  5
2062
330
1F
100
AcDbEntity
  8
AM_VIS
100
AcDbCircle
 10
45.48874483860276
 20
265.025500554084
 30
0.0
 40
0.9671258272985269
100
AcDbArc
 50
272.5242641061607
 51
2.003581032660149
  0
LINE
  5
2063
330
1F
100
AcDbEntity
  8
AM_VIS
100
AcDbLine
 10
45.10726997604194
 20
345.0592554842459
 30
0.0
 11
46.45147950588028
 21
265.0592493196692
 31
0.0
  0
ARC
  5
2064
330
1F
100
AcDbEntity
  8
AM_VIS
100
AcDbCircle
 10
44.13380937680898
 20
345.0853290622169
 30
0.0
 40
0.9772399754186592
100
AcDbArc
 50
358.4745025740665
 51
85.3216665162199
  0
LINE
  5
2065
330
1F
100
AcDbEntity
  8
AM_VIS
100
AcDbLine
 10
27.16112524412148
 20
333.0593131679648
 30
0.0
 11
26.66112524412148
 21
333.0593131679648
 31
0.0
  0
LINE
  5
2066
330
1F
100
AcDbEntity
  8
AM_VIS
100
AcDbLine
 10
26.66112524412148
 20
332.0593131679648
 30
0.0
 11
26.66112524412148
 21
278.0593131679648
 31
0.0
  0
LINE
  5
2067
330
1F
100
AcDbEntity
  8
AM_VIS
100
AcDbLine
 10
26.66112524412148
 20
277.0593131679648
 30
0.0
 11
27.16112524412148
 21
277.0593131679648
 31
0.0
  0
ARC
  5
2068
330
1F
100
AcDbEntity
  8
AM_VIS
100
AcDbCircle
 10
28.16112524412148
 20
345.0593131679648
 30
0.0
 40
1.0
100
AcDbArc
 50
90.0
 51
180.0
  0
ARC
  5
2069
330
1F
100
AcDbEntity
  8
AM_VIS
100
AcDbCircle
 10
28.16112524412148
 20
265.0593131679648
 30
0.0
 40
1.0
100
AcDbArc
 50
180.0
 51
270.0
  0
LINE
  5
206A
330
1F
100
AcDbEntity
  8
AM_VIS
100
AcDbLine
 10
26.66112524412148
 20
332.0593131679648
 30
0.0
 11
26.66112524412148
 21
333.0593131679648
 31
0.0
  0
LINE
  5
206B
330
1F
100
AcDbEntity
  8
AM_VIS
100
AcDbLine
 10
26.66112524412148
 20
277.0593131679648
 30
0.0
 11
26.66112524412148
 21
278.0593131679648
 31
0.0
  0
ARC
  5
206C
330
1F
100
AcDbEntity
  8
AM_VIS
100
AcDbCircle
 10
28.7308587567444
 20
339.1678256848088
 30
0.0
 40
1.647686433817056
100
AcDbArc
 50
167.0408463154073
 51
192.9591536845927
  0
ARC
  5
206D
330
1F
100
AcDbEntity
  8
AM_VIS
100
AcDbCircle
 10
33.61096865616782
 20
338.0593131679648
 30
0.0
 40
6.527796333240448
100
AcDbArc
 50
173.4996393892999
 51
186.5003606107
  0
ARC
  5
206E
330
1F
100
AcDbEntity
  8
AM_VIS
100
AcDbCircle
 10
28.73085875674451
 20
336.9508006511207
 30
0.0
 40
1.647686433817177
100
AcDbArc
 50
167.0408463154073
 51
192.9591536845927
  0
LINE
  5
206F
330
1F
100
AcDbEntity
  8
AM_VIS
100
AcDbLine
 10
26.96112524412143
 20
338.1020720503194
 30
0.0
 11
26.96112524412143
 21
338.0165542856101
 31
0.0
  0
ARC
  5
2070
330
1F
100
AcDbEntity
  8
AM_VIS
100
AcDbCircle
 10
33.51009034705914
 20
338.0806926091424
 30
0.0
 40
6.549
100
AcDbArc
 50
179.8129555774068
 51
180.0
  0
ARC
  5
2071
330
1F
100
AcDbEntity
  8
AM_VIS
100
AcDbCircle
 10
33.51009034705914
 20
338.0379337267872
 30
0.0
 40
6.549
100
AcDbArc
 50
180.0
 51
180.1870444225931
  0
ARC
  5
2072
330
1F
100
AcDbEntity
  8
AM_VIS
100
AcDbCircle
 10
33.51009034705914
 20
338.0806926091424
 30
0.0
 40
6.549
100
AcDbArc
 50
165.8024077894608
 51
167.1487111030379
  0
ARC
  5
2073
330
1F
100
AcDbEntity
  8
AM_VIS
100
AcDbCircle
 10
33.51009034705914
 20
338.0379337267872
 30
0.0
 40
6.549
100
AcDbArc
 50
192.851288896962
 51
194.1975922105392
  0
ARC
  5
2074
330
1F
100
AcDbEntity
  8
AM_VIS
100
AcDbCircle
 10
28.7308587567444
 20
273.1678256848089
 30
0.0
 40
1.647686433817056
100
AcDbArc
 50
167.0408463154073
 51
192.9591536845927
  0
ARC
  5
2075
330
1F
100
AcDbEntity
  8
AM_VIS
100
AcDbCircle
 10
33.6109686561677
 20
272.0593131679648
 30
0.0
 40
6.527796333240387
100
AcDbArc
 50
173.4996393892999
 51
186.5003606107
  0
ARC
  5
2076
330
1F
100
AcDbEntity
  8
AM_VIS
100
AcDbCircle
 10
28.73085875674451
 20
270.9508006511208
 30
0.0
 40
1.647686433817177
100
AcDbArc
 50
167.0408463154073
 51
192.9591536845927
  0
LINE
  5
2077
330
1F
100
AcDbEntity
  8
AM_VIS
100
AcDbLine
 10
26.96112524412143
 20
272.1020720503195
 30
0.0
 11
26.96112524412143
 21
272.0165542856102
 31
0.0
  0
ARC
  5
2078
330
1F
100
AcDbEntity
  8
AM_VIS
100
AcDbCircle
 10
33.51009034705914
 20
272.0806926091424
 30
0.0
 40
6.549
100
AcDbArc
 50
179.8129555774068
 51
180.0
  0
ARC
  5
2079
330
1F
100
AcDbEntity
  8
AM_VIS
100
AcDbCircle
 10
33.51009034705914
 20
272.0379337267872
 30
0.0
 40
6.549
100
AcDbArc
 50
180.0
 51
180.1870444225931
  0
ARC
  5
207A
330
1F
100
AcDbEntity
  8
AM_VIS
100
AcDbCircle
 10
33.51009034705914
 20
272.0806926091424
 30
0.0
 40
6.549
100
AcDbArc
 50
165.8024077894608
 51
167.1487111030379
  0
ARC
  5
207B
330
1F
100
AcDbEntity
  8
AM_VIS
100
AcDbCircle
 10
33.51009034705914
 20
272.0379337267872
 30
0.0
 40
6.549
100
AcDbArc
 50
192.851288896962
 51
194.1975922105392
  0
LINE
  5
207C
330
1F
100
AcDbEntity
  8
AM_VIS
100
AcDbLine
 10
60.66112524412147
 20
248.1593131679648
 30
0.0
 11
60.66112524412147
 21
246.0593131679648
 31
0.0
  0
LINE
  5
207D
330
1F
100
AcDbEntity
  8
AM_VIS
100
AcDbLine
 10
72.66112524412148
 20
248.1593131679648
 30
0.0
 11
72.66112524412148
 21
246.0593131679648
 31
0.0
  0
LINE
  5
207E
330
1F
100
AcDbEntity
  8
AM_VIS
100
AcDbLine
 10
61.92112524412147
 20
246.0593131679648
 30
0.0
 11
61.92112524412147
 21
236.0593131679648
 31
0.0
  0
LINE
  5
207F
102
{ACAD_REACTORS
330
208A
102
}
330
1F
100
AcDbEntity
  8
AM_VIS
100
AcDbLine
 10
71.40112524412143
 20
246.0593131679648
 30
0.0
 11
71.40112524412143
 21
236.0593131679648
 31
0.0
  0
LINE
  5
2080
330
1F
100
AcDbEntity
  8
AM_VIS
100
AcDbLine
 10
56.76112524412144
 20
252.0593131679648
 30
0.0
 11
56.76112524412144
 21
248.1593131679648
 31
0.0
  0
LINE
  5
2081
330
1F
100
AcDbEntity
  8
AM_VIS
100
AcDbLine
 10
76.56112524412145
 20
252.0593131679648
 30
0.0
 11
76.56112524412145
 21
248.1593131679648
 31
0.0
  0
LINE
  5
2082
330
1F
100
AcDbEntity
  8
AM_VIS
100
AcDbLine
 10
72.66112524412148
 20
246.0593131679648
 30
0.0
 11
60.66112524412147
 21
246.0593131679648
 31
0.0
  0
LINE
  5
2083
330
1F
100
AcDbEntity
  8
AM_VIS
100
AcDbLine
 10
71.40112524412149
 20
236.0593131679648
 30
0.0
 11
61.92112524412147
 21
236.0593131679648
 31
0.0
  0
LINE
  5
2084
330
1F
100
AcDbEntity
  8
AM_VIS
100
AcDbLine
 10
76.56112524412145
 20
248.1593131679648
 30
0.0
 11
56.76112524412144
 21
248.1593131679648
 31
0.0
  0
DIMENSION
  5
2085
102
{ACAD_XDICTIONARY
360
2086
102
}
102
{ACAD_REACTORS
330
2087
102
}
330
1F
100
AcDbEntity
  8
AM_5
100
AcDbDimension
  2
*D17
 10
61.835175547825
 20
381.3076163727906
 30
0.0
 11
97.96347447761743
 21
418.6909071180329
 31
0.0
 70
   163
  1
PT1/2
 71
     5
 42
17.42146915507658
  3
AM_ISO$3
100
AcDbDiametricDimension
 15
71.48707494041767
 25
395.8110099631388
 35
0.0
 40
0.0
1001
ACAD
1000
DSTYLE
1002
{
1070
    40
1040
1.5
1002
}
  0
LEADER
  5
2088
102
{ACAD_XDICTIONARY
360
2089
102
}
102
{ACAD_REACTORS
330
208A
102
}
330
1F
100
AcDbEntity
  8
AM_5
100
AcDbLeader
  3
AM_ISO$7
 73
     0
 74
     0
 75
     1
 40
5.0
 41
16.0
 76
     3
 10
71.40112524412149
 20
240.1868868806655
 30
0.0
 10
84.72329508308332
 20
231.9420253386558
 30
0.0
 10
89.22329508308331
 20
231.9420253386558
 30
0.0
213
5.423331664318595
223
-0.5958004195203444
233
0.0
1001
ACAD
1000
DSTYLE
1002
{
1070
    40
1040
1.5
1070
   140
1040
3.5
1070
   272
1070
     8
1002
}
  0
MTEXT
  5
208B
102
{ACAD_REACTORS
330
2088
102
}
330
1F
100
AcDbEntity
  8
AM_5
100
AcDbMText
 10
85.59996341876473
 20
234.3378257581762
 30
0.0
 40
5.0
 41
0.0
 71
     7
 72
     1
  1
PT1/8
 73
     1
 44
1.0
1001
ACAD
1000
MTEXTBEGIN
1070
    73
1070
     1
1070
    44
1040
1.0
1070
    74
1070
     0
1000
MTEXTEND
  0
LINE
  5
208C
330
1F
100
AcDbEntity
  8
AM_4
100
AcDbLine
 10
-49.19855453788461
 20
246.0593131679648
 30
0.0
 11
-49.19855453788461
 21
236.0593131679648
 31
0.0
  0
LINE
  5
208D
330
1F
100
AcDbEntity
  8
AM_4
100
AcDbLine
 10
-42.57955453788463
 20
246.0593131679648
 30
0.0
 11
-42.57955453788463
 21
236.0593131679648
 31
0.0
  0
ENDSEC
  0
SECTION
  2
OBJECTS
  0
DICTIONARY
  5
C
330
0
100
AcDbDictionary
281
     1
  3
ACAD_COLOR
350
BE
  3
ACAD_GROUP
350
D
  3
ACAD_LAYOUT
350
1A
  3
ACAD_MATERIAL
350
BD
  3
ACAD_MLINESTYLE
350
17
  3
ACAD_PLOTSETTINGS
350
19
  3
ACAD_PLOTSTYLENAME
350
E
  3
ACAD_TABLESTYLE
350
11A
  3
ACDBHEADERROUNDTRIPXREC
350
20DC
  3
AcDbVariableDictionary
350
94
  3
AcmDictionary
350
5B
  3
AMG
350
41
  3
AMGSNAPSETTINGS
350
1B8
  3
DWGPROPS
350
20DB
  3
MAPISURF_MODULE
350
1A12
  0
DICTIONARY
  5
3F9
330
2
100
AcDbDictionary
280
     1
281
     1
  3
ACAD_LAYERFILTERS
360
17A7
  3
ACAD_LAYERSTATES
360
CF8
  3
ACLYDICTIONARY
360
17A6
  3
AMLAYER_GROUPCOLORS
360
11CC
  0
DICTIONARY
  5
8F
330
1F
100
AcDbDictionary
280
     1
281
     1
  3
ACAD_INDEX
360
20CF
  3
ACAD_SORTENTS
360
D71
  0
DICTIONARY
  5
1F50
330
1F4F
100
AcDbDictionary
280
     1
281
     1
  3
ACAD_DIMASSOC
360
1F51
  0
DICTIONARY
  5
1F53
330
1F52
100
AcDbDictionary
280
     1
281
     1
  3
ACAD_DIMASSOC
360
1F54
  0
DICTIONARY
  5
1F56
330
1F55
100
AcDbDictionary
280
     1
281
     1
  3
ACAD_DIMASSOC
360
1F57
  0
DICTIONARY
  5
1F59
330
1F58
100
AcDbDictionary
280
     1
281
     1
  3
ACAD_DIMASSOC
360
1F5A
  0
DICTIONARY
  5
2086
330
2085
100
AcDbDictionary
280
     1
281
     1
  3
ACAD_DIMASSOC
360
2087
  0
DICTIONARY
  5
2089
330
2088
100
AcDbDictionary
280
     1
281
     1
  3
ACAD_DIMASSOC
360
208A
  0
DICTIONARY
  5
BE
102
{ACAD_REACTORS
330
C
102
}
330
C
100
AcDbDictionary
281
     1
  0
DICTIONARY
  5
D
102
{ACAD_REACTORS
330
C
102
}
330
C
100
AcDbDictionary
281
     1
  0
DICTIONARY
  5
1A
102
{ACAD_REACTORS
330
C
102
}
330
C
100
AcDbDictionary
281
     1
  3
Model
350
22
  3
配置1
350
1E
  3
配置2
350
26
  0
DICTIONARY
  5
BD
102
{ACAD_REACTORS
330
C
102
}
330
C
100
AcDbDictionary
281
     1
  0
DICTIONARY
  5
17
102
{ACAD_REACTORS
330
C
102
}
330
C
100
AcDbDictionary
281
     1
  3
Standard
350
18
  0
DICTIONARY
  5
19
102
{ACAD_REACTORS
330
C
102
}
330
C
100
AcDbDictionary
281
     1
  0
ACDBDICTIONARYWDFLT
  5
E
102
{ACAD_REACTORS
330
C
102
}
330
C
100
AcDbDictionary
281
     1
  3
Normal
350
F
100
AcDbDictionaryWithDefault
340
F
  0
DICTIONARY
  5
11A
102
{ACAD_REACTORS
330
C
102
}
330
C
100
AcDbDictionary
281
     1
  3
Standard
350
11B
  0
DICTIONARY
  5
20DC
102
{ACAD_REACTORS
330
C
102
}
330
C
100
AcDbDictionary
281
     1
  0
DICTIONARY
  5
94
102
{ACAD_REACTORS
330
C
102
}
330
C
100
AcDbDictionary
281
     1
  3
CTABLESTYLE
350
138
  3
DIMASSOC
350
96
  3
INDEXCTL
350
95
  3
PROJECTNAME
350
1981
  0
DICTIONARY
  5
5B
102
{ACAD_REACTORS
330
C
102
}
330
C
100
AcDbDictionary
281
     1
  3
AcmBOM
350
1B5
  3
AcmStdDictionary
350
61
  3
AMDTSECTSYM_ARROWCOLOR
350
123
  0
DICTIONARY
  5
41
102
{ACAD_REACTORS
330
C
102
}
330
C
100
AcDbDictionary
281
     1
  3
AcMgSettings
350
198C
  0
DICTIONARY
  5
1B8
102
{ACAD_REACTORS
330
C
102
}
330
C
100
AcDbDictionary
281
     1
  0
XRECORD
  5
20DB
102
{ACAD_REACTORS
330
C
102
}
330
C
100
AcDbXrecord
280
     1
  1
DWGPROPS COOKIE
  2

  3

  4

  6

  7

  8

  9

300
AmdtFileType=84
301
=
302
=
303
=
304
=
305
=
306
=
307
=
308
=
309
=
 40
0.0262232060185185
 41
2454314.615040868
 42
2455322.411461204
  1

 90
        1
  0
DICTIONARY
  5
17A7
102
{ACAD_REACTORS
330
3F9
102
}
330
3F9
100
AcDbDictionary
281
     1
  0
DICTIONARY
  5
CF8
102
{ACAD_REACTORS
330
3F9
102
}
330
3F9
100
AcDbDictionary
281
     1
  0
DICTIONARY
  5
17A6
102
{ACAD_REACTORS
330
3F9
102
}
330
3F9
100
AcDbDictionary
281
     1
1001
ACAD
1000
<All
  0
DICTIONARY
  5
11CC
102
{ACAD_REACTORS
330
3F9
102
}
330
3F9
100
AcDbDictionary
280
     1
281
     1
  0
DICTIONARY
  5
20CF
102
{ACAD_REACTORS
330
8F
102
}
330
8F
100
AcDbDictionary
281
     1
  3
*A1
350
20D0
  0
SORTENTSTABLE
  5
D71
102
{ACAD_REACTORS
330
8F
102
}
330
8F
100
AcDbSortentsTable
330
1F
  0
DIMASSOC
  5
1F51
102
{ACAD_REACTORS
330
1F50
102
}
330
1F50
100
AcDbDimAssoc
330
1F4F
 90
        3
 70
     0
 71
     0
  1
AcDbOsnapPointRef
 72
    13
331
1DA4
 73
     0
 91
        0
 40
0.0
 10
0.0
 20
0.0
 30
2.000000000000000E+50
 75
     0
  1
AcDbOsnapPointRef
 72
     1
331
1E27
 73
     0
 91
        0
 40
0.0
 10
0.0
 20
0.0
 30
2.000000000000000E+50
 75
     0
  0
DIMASSOC
  5
1F54
102
{ACAD_REACTORS
330
1F53
102
}
330
1F53
100
AcDbDimAssoc
330
1F52
 90
        3
 70
     0
 71
     0
  1
AcDbOsnapPointRef
 72
    13
331
1ED2
 73
     0
 91
        0
 40
0.0
 10
0.0
 20
0.0
 30
2.000000000000000E+50
 75
     0
  1
AcDbOsnapPointRef
 72
     1
331
1F34
 73
     0
 91
        0
 40
0.0
 10
0.0
 20
0.0
 30
2.000000000000000E+50
 75
     0
  0
DIMASSOC
  5
1F57
102
{ACAD_REACTORS
330
1F56
102
}
330
1F56
100
AcDbDimAssoc
330
1F55
 90
        2
 70
     0
 71
     0
  1
AcDbOsnapPointRef
 72
     1
331
1E22
 73
     0
 91
        0
 40
0.0
 10
0.0
 20
0.0
 30
2.000000000000000E+50
 75
     0
  0
DIMASSOC
  5
1F5A
102
{ACAD_REACTORS
330
1F59
102
}
330
1F59
100
AcDbDimAssoc
330
1F58
 90
        3
 70
     0
 71
     0
  1
AcDbOsnapPointRef
 72
    13
331
1ED2
 73
     0
 91
        0
 40
0.0
 10
0.0
 20
0.0
 30
2.000000000000000E+50
 75
     0
  1
AcDbOsnapPointRef
 72
     1
331
1DA0
 73
     0
 91
        0
 40
0.0
 10
0.0
 20
0.0
 30
2.000000000000000E+50
 75
     0
  0
DIMASSOC
  5
2087
102
{ACAD_REACTORS
330
2086
102
}
330
2086
100
AcDbDimAssoc
330
2085
 90
        2
 70
     0
 71
     0
  1
AcDbOsnapPointRef
 72
     3
331
2022
 73
     2
 91
        0
 40
0.0
 10
0.0
 20
0.0
 30
0.0
 75
     0
  0
DIMASSOC
  5
208A
102
{ACAD_REACTORS
330
2089
102
}
330
2089
100
AcDbDimAssoc
330
2088
 90
        1
 70
     0
 71
     0
  1
AcDbOsnapPointRef
 72
    10
331
207F
 73
     2
 91
        0
 40
0.5872426287299334
 10
0.0
 20
0.0
 30
0.0
 75
     0
  0
LAYOUT
  5
22
102
{ACAD_XDICTIONARY
360
20DF
102
}
102
{ACAD_REACTORS
330
1A
102
}
330
1A
100
AcDbPlotSettings
  1

  2
\\RD\EPSON Stylus C63 Series單色
  4
A4
  6

 40
3.757083177566528
 41
3.757076978683471
 42
3.757080078125
 43
3.757080078125
 44
209.9733276367187
 45
296.9683227539062
 46
0.0
 47
0.0
 48
0.0
 49
0.0
140
0.0
141
0.0
142
1.0
143
0.3405120737814363
 70
 11952
 72
     1
 73
     0
 74
     0
  7
彩色出圖.ctb
 75
     0
147
2.936753428137963
148
-2047.07469463503
149
-1261.649717473083
100
AcDbLayout
  1
Model
 70
     1
 71
     0
 10
0.0
 20
0.0
 11
12.0
 21
9.0
 12
0.0
 22
0.0
 32
0.0
 14
0.0
 24
0.0
 34
0.0
 15
0.0
 25
0.0
 35
0.0
146
0.0
 13
0.0
 23
0.0
 33
0.0
 16
1.0
 26
0.0
 36
0.0
 17
0.0
 27
1.0
 37
0.0
 76
     0
330
1F
1001
ACAD_PSEXT
1000
\\RD\EPSON Stylus C63 Series單色
1000
EPSON Stylus C63 Series
1000
\\RD
1000

1070
     0
  0
LAYOUT
  5
1E
102
{ACAD_XDICTIONARY
360
20DD
102
}
102
{ACAD_REACTORS
330
1A
102
}
330
1A
100
AcDbPlotSettings
  1

  2

  4

  6

 40
0.0
 41
0.0
 42
0.0
 43
0.0
 44
0.0
 45
0.0
 46
0.0
 47
0.0
 48
0.0
 49
0.0
140
0.0
141
0.0
142
1.0
143
1.0
 70
   688
 72
     0
 73
     0
 74
     5
  7
彩色出圖.ctb
 75
    16
147
1.0
148
0.0
149
0.0
100
AcDbLayout
  1
配置1
 70
     1
 71
     1
 10
0.0
 20
0.0
 11
420.0
 21
297.0
 12
0.0
 22
0.0
 32
0.0
 14
1.000000000000000E+20
 24
1.000000000000000E+20
 34
1.000000000000000E+20
 15
-1.000000000000000E+20
 25
-1.000000000000000E+20
 35
-1.000000000000000E+20
146
0.0
 13
0.0
 23
0.0
 33
0.0
 16
1.0
 26
0.0
 36
0.0
 17
0.0
 27
1.0
 37
0.0
 76
     0
330
1B
  0
LAYOUT
  5
26
102
{ACAD_XDICTIONARY
360
20E1
102
}
102
{ACAD_REACTORS
330
1A
102
}
330
1A
100
AcDbPlotSettings
  1

  2

  4

  6

 40
0.0
 41
0.0
 42
0.0
 43
0.0
 44
0.0
 45
0.0
 46
0.0
 47
0.0
 48
0.0
 49
0.0
140
0.0
141
0.0
142
1.0
143
1.0
 70
   688
 72
     0
 73
     0
 74
     5
  7
彩色出圖.ctb
 75
    16
147
1.0
148
0.0
149
0.0
100
AcDbLayout
  1
配置2
 70
     1
 71
     2
 10
0.0
 20
0.0
 11
12.0
 21
9.0
 12
0.0
 22
0.0
 32
0.0
 14
0.0
 24
0.0
 34
0.0
 15
0.0
 25
0.0
 35
0.0
146
0.0
 13
0.0
 23
0.0
 33
0.0
 16
1.0
 26
0.0
 36
0.0
 17
0.0
 27
1.0
 37
0.0
 76
     0
330
23
  0
MLINESTYLE
  5
18
102
{ACAD_REACTORS
330
17
102
}
330
17
100
AcDbMlineStyle
  2
STANDARD
 70
     0
  3

 62
   256
 51
90.0
 52
90.0
 71
     2
 49
0.5
 62
   256
  6
BYLAYER
 49
-0.5
 62
   256
  6
BYLAYER
  0
ACDBPLACEHOLDER
  5
F
102
{ACAD_REACTORS
330
E
102
}
330
E
  0
TABLESTYLE
  5
11B
102
{ACAD_REACTORS
330
11A
102
}
330
11A
100
AcDbTableStyle
  3
Standard
 70
     0
 71
     0
 40
1.5
 41
1.5
280
     0
281
     0
  7
STANDARD
140
4.5
170
     2
 62
     0
 63
     7
283
     0
274
    -2
284
     1
 64
     0
275
    -2
285
     1
 65
     0
276
    -2
286
     1
 66
     0
277
    -2
287
     1
 67
     0
278
    -2
288
     1
 68
     0
279
    -2
289
     1
 69
     0
  7
STANDARD
140
6.0
170
     5
 62
     0
 63
     7
283
     0
274
    -2
284
     1
 64
     0
275
    -2
285
     1
 65
     0
276
    -2
286
     1
 66
     0
277
    -2
287
     1
 67
     0
278
    -2
288
     1
 68
     0
279
    -2
289
     1
 69
     0
  7
STANDARD
140
4.5
170
     5
 62
     0
 63
     7
283
     0
274
    -2
284
     1
 64
     0
275
    -2
285
     1
 65
     0
276
    -2
286
     1
 66
     0
277
    -2
287
     1
 67
     0
278
    -2
288
     1
 68
     0
279
    -2
289
     1
 69
     0
  0
DICTIONARYVAR
  5
138
102
{ACAD_REACTORS
330
94
102
}
330
94
100
DictionaryVariables
280
     0
  1
STANDARD
  0
DICTIONARYVAR
  5
96
102
{ACAD_REACTORS
330
94
102
}
330
94
100
DictionaryVariables
280
     0
  1
2
  0
DICTIONARYVAR
  5
95
102
{ACAD_REACTORS
330
94
102
}
330
94
100
DictionaryVariables
280
     0
  1
1
  0
DICTIONARYVAR
  5
1981
102
{ACAD_REACTORS
330
94
102
}
330
94
100
DictionaryVariables
280
     0
  1

  0
DICTIONARY
  5
1B5
102
{ACAD_REACTORS
330
5B
102
}
330
5B
100
AcDbDictionary
281
     1
  0
DICTIONARY
  5
61
102
{ACAD_REACTORS
330
5B
102
}
330
5B
100
AcDbDictionary
281
     1
  0
XRECORD
  5
123
102
{ACAD_REACTORS
330
5B
102
}
330
5B
100
AcDbXrecord
280
     1
 90
-1023410169
  0
DICTIONARY
  5
198C
102
{ACAD_REACTORS
330
41
102
}
330
41
100
AcDbDictionary
281
     1
  3
DWGSETTINGS
350
198D
  3
TRANSSETTINGS
350
1990
  0
LAYER_INDEX
  5
20D0
102
{ACAD_REACTORS
330
20CF
102
}
330
20CF
100
AcDbIndex
 40
2455322.411461204
100
AcDbLayerIndex
  8
0
360
20D1
 90
        3
  8
AM_VIS
360
20D2
 90
      713
  8
AM_4
360
20D3
 90
        4
  8
AM_7
360
20D4
 90
        9
  8
AM_5
360
20D5
 90
        7
  8
Defpoints
360
20D6
 90
        0
  8
LOGO
360
20D7
 90
       89
  8
AM_10
360
20D8
 90
       10
  0
DICTIONARY
  5
20DF
330
22
100
AcDbDictionary
280
     1
281
     1
  3
ACAD_XREC_ROUNDTRIP
360
20E0
  0
DICTIONARY
  5
20DD
330
1E
100
AcDbDictionary
280
     1
281
     1
  3
ACAD_XREC_ROUNDTRIP
360
20DE
  0
DICTIONARY
  5
20E1
330
26
100
AcDbDictionary
280
     1
281
     1
  3
ACAD_XREC_ROUNDTRIP
360
20E2
  0
IDBUFFER
  5
20D1
330
0
100
AcDbIdBuffer
330
192F
330
1930
330
1931
  0
IDBUFFER
  5
20D2
330
0
100
AcDbIdBuffer
330
1FAC
330
1FAD
330
1FAE
330
1FAF
330
1FB0
330
1FB1
330
1FB2
330
1FB3
330
1FB4
330
1FB5
330
1FB6
330
1FB7
330
1FB8
330
1FB9
330
1FBA
330
1FBB
330
1FBC
330
1FBD
330
1FBE
330
1FBF
330
1FC0
330
1FC1
330
1FC2
330
1FC3
330
1FC4
330
1FC5
330
1FC6
330
1FC7
330
1FC8
330
1FC9
330
1FCA
330
1FCB
330
1FCC
330
1FCD
330
1FCE
330
1FCF
330
1FD0
330
1FD1
330
1FD2
330
1FD3
330
1FD4
330
1FD5
330
1FD6
330
1FD7
330
1FD8
330
1FD9
330
1FDA
330
1FDB
330
1FDC
330
1FDD
330
1FDE
330
1FDF
330
1FE0
330
1FE1
330
1FE2
330
1FE3
330
1FE4
330
1FE5
330
1FE6
330
1FE7
330
1FE8
330
1FE9
330
1FEA
330
1FEB
330
1FEC
330
1FED
330
1FEE
330
1FEF
330
1FF0
330
1FF1
330
1FF2
330
1FF3
330
1FF4
330
1FF5
330
1FF6
330
1FF7
330
1FF8
330
1FF9
330
1FFA
330
1FFB
330
1FFC
330
1FFD
330
1FFE
330
1FFF
330
2000
330
2001
330
2002
330
2003
330
2004
330
2005
330
2006
330
2007
330
2008
330
2009
330
200A
330
200B
330
200C
330
200D
330
200E
330
200F
330
2010
330
2011
330
2012
330
2013
330
2014
330
2015
330
2016
330
2017
330
2018
330
2019
330
201A
330
201B
330
201C
330
201D
330
201E
330
201F
330
2020
330
2021
330
2022
330
2023
330
2024
330
2025
330
2026
330
2027
330
2028
330
2029
330
202A
330
202B
330
202C
330
202D
330
202E
330
202F
330
2030
330
2031
330
2032
330
2033
330
2034
330
2035
330
2036
330
2037
330
2038
330
2039
330
203A
330
203B
330
203C
330
203D
330
203E
330
203F
330
2040
330
2041
330
2042
330
2043
330
2044
330
2045
330
2046
330
2047
330
2048
330
2049
330
204A
330
204B
330
204C
330
204D
330
204E
330
204F
330
2050
330
2051
330
2052
330
2053
330
2054
330
2055
330
2056
330
2057
330
2058
330
2059
330
205A
330
205B
330
205C
330
205D
330
205E
330
205F
330
2060
330
2061
330
2062
330
2063
330
2064
330
2065
330
2066
330
2067
330
2068
330
2069
330
206A
330
206B
330
206C
330
206D
330
206E
330
206F
330
2070
330
2071
330
2072
330
2073
330
2074
330
2075
330
2076
330
2077
330
2078
330
2079
330
207A
330
207B
330
207C
330
207D
330
207E
330
207F
330
2080
330
2081
330
2082
330
2083
330
2084
330
1DA2
330
1DA3
330
1DA4
330
1DA5
330
1DA6
330
1DA7
330
1DA8
330
1DA9
330
1DAA
330
1DAB
330
1DAC
330
1DAD
330
1DAE
330
1DAF
330
1DB0
330
1DB1
330
1DB2
330
1DB3
330
1DB4
330
1DB5
330
1DB6
330
1DB7
330
1DB8
330
1DB9
330
1DBA
330
1DBB
330
1DBC
330
1DBD
330
1DBE
330
1DBF
330
1DC0
330
1DC1
330
1DC2
330
1DC3
330
1DC4
330
1DC5
330
1DC6
330
1DC7
330
1DC8
330
1DC9
330
1DCA
330
1DCB
330
1DCC
330
1DCD
330
1DCE
330
1DCF
330
1DD0
330
1DD1
330
1DD2
330
1DD3
330
1DD4
330
1DD5
330
1DD6
330
1DD7
330
1DD8
330
1DD9
330
1DDA
330
1DDB
330
1DDC
330
1DDD
330
1DDE
330
1DDF
330
1DE0
330
1DE1
330
1DE2
330
1DE3
330
1DE4
330
1DE5
330
1DE6
330
1DE7
330
1DE8
330
1DE9
330
1DEA
330
1DEB
330
1DEC
330
1DED
330
1DEE
330
1DEF
330
1DF0
330
1DF1
330
1DF2
330
1DF3
330
1DF4
330
1DF5
330
1DF6
330
1DF7
330
1DF8
330
1DF9
330
1DFA
330
1DFB
330
1DFC
330
1DFD
330
1DFE
330
1DFF
330
1E00
330
1E01
330
1E02
330
1E03
330
1E04
330
1E05
330
1E06
330
1E07
330
1E08
330
1E09
330
1E0A
330
1E0B
330
1E0C
330
1E0D
330
1E0E
330
1E0F
330
1E10
330
1E11
330
1E12
330
1E13
330
1E14
330
1E15
330
1E16
330
1E17
330
1E18
330
1E19
330
1E1A
330
1E1B
330
1E1C
330
1E1D
330
1E1E
330
1E1F
330
1E20
330
1E21
330
1E22
330
1E23
330
1E24
330
1E25
330
1E26
330
1E27
330
1E28
330
1E29
330
1E2A
330
1E2B
330
1E2C
330
1E2D
330
1E2E
330
1E2F
330
1E30
330
1E32
330
1E33
330
1E34
330
1E35
330
1E36
330
1E37
330
1E38
330
1E39
330
1E3A
330
1E3B
330
1E3C
330
1E3D
330
1E3E
330
1E3F
330
1E40
330
1E41
330
1E42
330
1E43
330
1E44
330
1E45
330
1E46
330
1E47
330
1E48
330
1E49
330
1E4A
330
1E4B
330
1E4C
330
1E4D
330
1E4E
330
1E4F
330
1E50
330
1E51
330
1E52
330
1E53
330
1E54
330
1E55
330
1E56
330
1E57
330
1E58
330
1E59
330
1E5A
330
1E5B
330
1E5C
330
1E5D
330
1E5E
330
1E5F
330
1E60
330
1E61
330
1E62
330
1E63
330
1E64
330
1E65
330
1E66
330
1E67
330
1E68
330
1E69
330
1E6A
330
1E6B
330
1E6C
330
1E6D
330
1E6E
330
1E6F
330
1E70
330
1E71
330
1E72
330
1E73
330
1E74
330
1E75
330
1E76
330
1E77
330
1E78
330
1E79
330
1E7A
330
1E7B
330
1E7C
330
1E7D
330
1E7E
330
1E7F
330
1E80
330
1E81
330
1E82
330
1E83
330
1E84
330
1E85
330
1E86
330
1E87
330
1E88
330
1E89
330
1E8A
330
1E8B
330
1E8C
330
1E8D
330
1E8E
330
1E8F
330
1E90
330
1E91
330
1E92
330
1E93
330
1E94
330
1E95
330
1E96
330
1E97
330
1E98
330
1E99
330
1E9A
330
1E9B
330
1E9C
330
1E9D
330
1E9E
330
1E9F
330
1EA0
330
1EA1
330
1EA2
330
1EA3
330
1EA4
330
1EA5
330
1EA6
330
1EA7
330
1EA8
330
1EA9
330
1EAA
330
1EAB
330
1EAC
330
1EAD
330
1EAE
330
1EAF
330
1EB0
330
1EB1
330
1EB2
330
1EB3
330
1EB4
330
1EB5
330
1EB6
330
1EB7
330
1EB8
330
1EB9
330
1EBA
330
1EBB
330
1EBC
330
1EBD
330
1EBE
330
1EBF
330
1EC0
330
1EC1
330
1EC2
330
1EC3
330
1EC4
330
1EC5
330
1EC6
330
1EC7
330
1EC8
330
1EC9
330
1ECA
330
1ECB
330
1ECC
330
1ECD
330
1ECE
330
1ECF
330
1ED0
330
1ED1
330
1ED2
330
1ED3
330
1ED4
330
1ED5
330
1ED6
330
1ED7
330
1ED8
330
1ED9
330
1EDA
330
1EDB
330
1EDC
330
1EDD
330
1EDE
330
1EDF
330
1EE0
330
1EE1
330
1EE2
330
1EE3
330
1EE4
330
1EE5
330
1EE6
330
1EE7
330
1EE8
330
1EE9
330
1EEA
330
1EEB
330
1EEC
330
1EED
330
1EEE
330
1EEF
330
1EF0
330
1EF1
330
1EF2
330
1EF3
330
1EF4
330
1EF5
330
1EF6
330
1EF7
330
1EF8
330
1EF9
330
1EFA
330
1EFB
330
1EFC
330
1EFD
330
1EFE
330
1EFF
330
1F00
330
1F01
330
1F02
330
1F03
330
1F04
330
1F05
330
1F06
330
1F07
330
1F08
330
1F09
330
1F0A
330
1F0B
330
1F0C
330
1F0D
330
1F0E
330
1F0F
330
1F10
330
1F11
330
1F12
330
1F13
330
1F14
330
1F15
330
1F16
330
1F17
330
1F18
330
1F19
330
1F1A
330
1F1B
330
1F1C
330
1F1D
330
1F1E
330
1F1F
330
1F20
330
1F21
330
1F22
330
1F23
330
1F24
330
1F25
330
1F26
330
1F27
330
1F28
330
1F29
330
1F2A
330
1F2B
330
1F2C
330
1F2D
330
1F2E
330
1F2F
330
1F30
330
1F31
330
1F32
330
1F33
330
1F34
330
1F35
330
1F36
330
1F37
330
1F38
330
1F39
330
1F3A
330
1F3B
330
1F3C
330
1F3D
330
1F3E
330
1F3F
330
1F40
330
1F41
330
1F42
330
1F43
330
1F44
330
1F45
330
1F46
330
1F47
330
1F48
330
1F49
330
1F4A
330
1F4B
330
1F4C
330
1F66
330
1F67
330
1F68
330
1F69
330
1F6A
330
1F6B
330
1F6C
330
1F6D
330
1F6E
330
1F6F
330
1F70
330
1F71
330
1F72
330
1F73
330
1F74
330
1F75
330
1F76
330
1F77
330
1F78
330
1F79
330
1F7A
330
1F7B
330
1F7C
330
1F7D
330
1F7E
330
1F7F
330
1F80
330
1F81
330
1F82
330
1F83
330
1F84
330
1F85
330
1F86
330
1F87
330
1F88
330
1F89
330
1F8A
330
1F8B
330
1F8C
330
1F8D
330
1F8E
330
1F8F
330
1F90
330
1F91
330
1F92
330
1F93
330
1F94
330
1F95
330
1F96
330
1F97
330
1F98
330
1F99
330
1F9A
330
1F9B
330
1F9C
330
1F9D
330
1F9E
330
1F9F
330
1FA0
330
1FA1
330
1FA2
330
1FA3
330
1FA4
330
1FA5
330
1FA6
330
1FA7
330
1FA8
330
1FA9
330
1FAA
330
1FAB
  0
IDBUFFER
  5
20D3
330
0
100
AcDbIdBuffer
330
1F64
330
1F65
330
208C
330
208D
  0
IDBUFFER
  5
20D4
330
0
100
AcDbIdBuffer
330
1F5B
330
1F5C
330
1F5D
330
1F5E
330
1F5F
330
1F60
330
1F61
330
1F62
330
1F63
  0
IDBUFFER
  5
20D5
330
0
100
AcDbIdBuffer
330
1F4F
330
1F52
330
1F55
330
1F58
330
2085
330
2088
330
208B
  0
IDBUFFER
  5
20D6
330
0
100
AcDbIdBuffer
  0
IDBUFFER
  5
20D7
330
0
100
AcDbIdBuffer
330
18DF
330
18E0
330
18E1
330
18E2
330
18E3
330
18E4
330
18E5
330
18E6
330
18E7
330
18E8
330
18E9
330
18EA
330
18EB
330
18EC
330
18ED
330
18EE
330
18EF
330
18F0
330
18F1
330
18F2
330
18F3
330
18F4
330
18F5
330
1901
330
1902
330
1903
330
1904
330
1905
330
1906
330
1907
330
1908
330
1909
330
190B
330
1919
330
191A
330
1929
330
192A
330
192B
330
192C
330
192D
330
192E
330
189A
330
189B
330
189C
330
189D
330
189E
330
189F
330
18A0
330
18A1
330
18A2
330
18A3
330
18A4
330
18A5
330
18A6
330
18A7
330
18A8
330
18A9
330
18AA
330
18AB
330
18AC
330
18AD
330
18AE
330
18AF
330
18B0
330
18B1
330
18B2
330
18B3
330
18B4
330
18B5
330
18B6
330
18B7
330
18B8
330
18BC
330
18C0
330
18C1
330
18C5
330
18C6
330
18C7
330
18C8
330
18C9
330
18CA
330
18CB
330
18CC
330
18D0
330
18D4
330
18D8
330
18D9
330
18DA
330
18DE
  0
IDBUFFER
  5
20D8
330
0
100
AcDbIdBuffer
330
1D9B
330
1D9C
330
1D9D
330
1D9E
330
1D9F
330
1DA0
330
1DA1
330
1E31
330
1F4D
330
1F4E
  0
XRECORD
  5
20E0
102
{ACAD_REACTORS
330
20DF
102
}
330
20DF
100
AcDbXrecord
280
     1
102
SHADEPLOT
 70
     0
102
SHADEPLOTRESLEVEL
 70
     2
102
SHADEPLOTCUSTOMDPI
 70
   300
  0
XRECORD
  5
20DE
102
{ACAD_REACTORS
330
20DD
102
}
330
20DD
100
AcDbXrecord
280
     1
102
SHADEPLOT
 70
     0
102
SHADEPLOTRESLEVEL
 70
     2
102
SHADEPLOTCUSTOMDPI
 70
   300
  0
XRECORD
  5
20E2
102
{ACAD_REACTORS
330
20E1
102
}
330
20E1
100
AcDbXrecord
280
     1
102
SHADEPLOT
 70
     0
102
SHADEPLOTRESLEVEL
 70
     2
102
SHADEPLOTCUSTOMDPI
 70
   300
  0
ENDSEC
  0
EOF
