  0
SECTION
  2
HEADER
  9
$ACADVER
  1
AC1015
  9
$ACADMAINTVER
 70
    20
  9
$DWGCODEPAGE
  3
ANSI_950
  9
$INSBASE
 10
0.0
 20
0.0
 30
0.0
  9
$EXTMIN
 10
384.0035937937744
 20
55.87323886484307
 30
-0.0054838286498011
  9
$EXTMAX
 10
529.6052091113105
 20
305.7694542296275
 30
132.4565672305166
  9
$LIMMIN
 10
0.0
 20
0.0
  9
$LIMMAX
 10
420.0
 20
297.0
  9
$ORTHOMODE
 70
     1
  9
$REGENMODE
 70
     1
  9
$FILLMODE
 70
     1
  9
$QTEXTMODE
 70
     0
  9
$MIRRTEXT
 70
     1
  9
$LTSCALE
 40
1.0
  9
$ATTMODE
 70
     1
  9
$TEXTSIZE
 40
2.5
  9
$TRACEWID
 40
1.0
  9
$TEXTSTYLE
  7
Standard
  9
$CLAYER
  8
0
  9
$CELTYPE
  6
ByLayer
  9
$CECOLOR
 62
   256
  9
$CELTSCALE
 40
1.0
  9
$DISPSILH
 70
     0
  9
$DIMSCALE
 40
1.0
  9
$DIMASZ
 40
2.5
  9
$DIMEXO
 40
0.625
  9
$DIMDLI
 40
3.75
  9
$DIMRND
 40
0.0
  9
$DIMDLE
 40
0.0
  9
$DIMEXE
 40
1.25
  9
$DIMTP
 40
0.0
  9
$DIMTM
 40
0.0
  9
$DIMTXT
 40
2.5
  9
$DIMCEN
 40
2.5
  9
$DIMTSZ
 40
0.0
  9
$DIMTOL
 70
     0
  9
$DIMLIM
 70
     0
  9
$DIMTIH
 70
     0
  9
$DIMTOH
 70
     0
  9
$DIMSE1
 70
     0
  9
$DIMSE2
 70
     0
  9
$DIMTAD
 70
     1
  9
$DIMZIN
 70
     8
  9
$DIMBLK
  1

  9
$DIMASO
 70
     1
  9
$DIMSHO
 70
     1
  9
$DIMPOST
  1

  9
$DIMAPOST
  1

  9
$DIMALT
 70
     0
  9
$DIMALTD
 70
     3
  9
$DIMALTF
 40
0.03937007874016
  9
$DIMLFAC
 40
1.0
  9
$DIMTOFL
 70
     1
  9
$DIMTVP
 40
0.0
  9
$DIMTIX
 70
     0
  9
$DIMSOXD
 70
     0
  9
$DIMSAH
 70
     0
  9
$DIMBLK1
  1

  9
$DIMBLK2
  1

  9
$DIMSTYLE
  2
ISO-25
  9
$DIMCLRD
 70
     0
  9
$DIMCLRE
 70
     0
  9
$DIMCLRT
 70
     0
  9
$DIMTFAC
 40
1.0
  9
$DIMGAP
 40
0.625
  9
$DIMJUST
 70
     0
  9
$DIMSD1
 70
     0
  9
$DIMSD2
 70
     0
  9
$DIMTOLJ
 70
     0
  9
$DIMTZIN
 70
     8
  9
$DIMALTZ
 70
     0
  9
$DIMALTTZ
 70
     0
  9
$DIMUPT
 70
     0
  9
$DIMDEC
 70
     0
  9
$DIMTDEC
 70
     8
  9
$DIMALTU
 70
     2
  9
$DIMALTTD
 70
     3
  9
$DIMTXSTY
  7
Standard
  9
$DIMAUNIT
 70
     0
  9
$DIMADEC
 70
     0
  9
$DIMALTRND
 40
0.0
  9
$DIMAZIN
 70
     0
  9
$DIMDSEP
 70
    46
  9
$DIMATFIT
 70
     3
  9
$DIMFRAC
 70
     0
  9
$DIMLDRBLK
  1

  9
$DIMLUNIT
 70
     2
  9
$DIMLWD
 70
    -2
  9
$DIMLWE
 70
    -2
  9
$DIMTMOVE
 70
     0
  9
$LUNITS
 70
     2
  9
$LUPREC
 70
     2
  9
$SKETCHINC
 40
1.0
  9
$FILLETRAD
 40
10.0
  9
$AUNITS
 70
     0
  9
$AUPREC
 70
     0
  9
$MENU
  1
.
  9
$ELEVATION
 40
0.0
  9
$PELEVATION
 40
0.0
  9
$THICKNESS
 40
0.0
  9
$LIMCHECK
 70
     0
  9
$CHAMFERA
 40
10.0
  9
$CHAMFERB
 40
10.0
  9
$CHAMFERC
 40
20.0
  9
$CHAMFERD
 40
0.0
  9
$SKPOLY
 70
     0
  9
$TDCREATE
 40
2452654.711406424
  9
$TDUCREATE
 40
2452654.378073090
  9
$TDUPDATE
 40
2454781.461267500
  9
$TDUUPDATE
 40
2454781.127934167
  9
$TDINDWG
 40
0.0175097917
  9
$TDUSRTIMER
 40
0.0175092477
  9
$USRTIMER
 70
     1
  9
$ANGBASE
 50
0.0
  9
$ANGDIR
 70
     0
  9
$PDMODE
 70
     0
  9
$PDSIZE
 40
0.0
  9
$PLINEWID
 40
0.0
  9
$SPLFRAME
 70
     0
  9
$SPLINETYPE
 70
     6
  9
$SPLINESEGS
 70
     8
  9
$HANDSEED
  5
183C
  9
$SURFTAB1
 70
     6
  9
$SURFTAB2
 70
     6
  9
$SURFTYPE
 70
     6
  9
$SURFU
 70
     6
  9
$SURFV
 70
     6
  9
$UCSBASE
  2

  9
$UCSNAME
  2

  9
$UCSORG
 10
0.0
 20
0.0
 30
0.0
  9
$UCSXDIR
 10
1.0
 20
0.0
 30
0.0
  9
$UCSYDIR
 10
0.0
 20
1.0
 30
0.0
  9
$UCSORTHOREF
  2

  9
$UCSORTHOVIEW
 70
     0
  9
$UCSORGTOP
 10
0.0
 20
0.0
 30
0.0
  9
$UCSORGBOTTOM
 10
0.0
 20
0.0
 30
0.0
  9
$UCSORGLEFT
 10
0.0
 20
0.0
 30
0.0
  9
$UCSORGRIGHT
 10
0.0
 20
0.0
 30
0.0
  9
$UCSORGFRONT
 10
0.0
 20
0.0
 30
0.0
  9
$UCSORGBACK
 10
0.0
 20
0.0
 30
0.0
  9
$PUCSBASE
  2

  9
$PUCSNAME
  2

  9
$PUCSORG
 10
0.0
 20
0.0
 30
0.0
  9
$PUCSXDIR
 10
1.0
 20
0.0
 30
0.0
  9
$PUCSYDIR
 10
0.0
 20
1.0
 30
0.0
  9
$PUCSORTHOREF
  2

  9
$PUCSORTHOVIEW
 70
     0
  9
$PUCSORGTOP
 10
0.0
 20
0.0
 30
0.0
  9
$PUCSORGBOTTOM
 10
0.0
 20
0.0
 30
0.0
  9
$PUCSORGLEFT
 10
0.0
 20
0.0
 30
0.0
  9
$PUCSORGRIGHT
 10
0.0
 20
0.0
 30
0.0
  9
$PUCSORGFRONT
 10
0.0
 20
0.0
 30
0.0
  9
$PUCSORGBACK
 10
0.0
 20
0.0
 30
0.0
  9
$USERI1
 70
     0
  9
$USERI2
 70
     0
  9
$USERI3
 70
     0
  9
$USERI4
 70
     0
  9
$USERI5
 70
     0
  9
$USERR1
 40
0.0
  9
$USERR2
 40
0.0
  9
$USERR3
 40
0.0
  9
$USERR4
 40
0.0
  9
$USERR5
 40
0.0
  9
$WORLDVIEW
 70
     1
  9
$SHADEDGE
 70
     3
  9
$SHADEDIF
 70
    70
  9
$TILEMODE
 70
     1
  9
$MAXACTVP
 70
    48
  9
$PINSBASE
 10
0.0
 20
0.0
 30
0.0
  9
$PLIMCHECK
 70
     0
  9
$PEXTMIN
 10
1.000000000000000E+20
 20
1.000000000000000E+20
 30
1.000000000000000E+20
  9
$PEXTMAX
 10
-1.000000000000000E+20
 20
-1.000000000000000E+20
 30
-1.000000000000000E+20
  9
$PLIMMIN
 10
0.0
 20
0.0
  9
$PLIMMAX
 10
420.0
 20
297.0
  9
$UNITMODE
 70
     0
  9
$VISRETAIN
 70
     1
  9
$PLINEGEN
 70
     0
  9
$PSLTSCALE
 70
     1
  9
$TREEDEPTH
 70
  3020
  9
$CMLSTYLE
  2
Standard
  9
$CMLJUST
 70
     0
  9
$CMLSCALE
 40
20.0
  9
$PROXYGRAPHICS
 70
     1
  9
$MEASUREMENT
 70
     1
  9
$CELWEIGHT
370
    -1
  9
$ENDCAPS
280
     0
  9
$JOINSTYLE
280
     0
  9
$LWDISPLAY
290
     0
  9
$INSUNITS
 70
     4
  9
$HYPERLINKBASE
  1

  9
$STYLESHEET
  1
acad.ctb
  9
$XEDIT
290
     1
  9
$CEPSNTYPE
380
     0
  9
$PSTYLEMODE
290
     1
  9
$FINGERPRINTGUID
  2
{D51528BA-184F-48EF-A588-A3861E2C4088}
  9
$VERSIONGUID
  2
{BD18F47A-88CD-480B-AB65-E4B1956C4CD4}
  9
$EXTNAMES
290
     1
  9
$PSVPSCALE
 40
0.0
  9
$OLESTARTUP
290
     0
  0
ENDSEC
  0
SECTION
  2
CLASSES
  0
CLASS
  1
ACDBDICTIONARYWDFLT
  2
AcDbDictionaryWithDefault
  3
ObjectDBX Classes
 90
        0
280
     0
281
     0
  0
CLASS
  1
AMDTNOTE
  2
AmdtNote
  3
"AcmSymBB|Product Description: AutoCAD Mechanical 2004 DX|Company: Autodesk"
 90
    33791
280
     1
281
     1
  0
CLASS
  1
ACDB_PROXY_ENTITY_DATA
  2
AcDbProxyEntityData
  3
ObjectDBX Classes
 90
    32768
280
     0
281
     0
  0
CLASS
  1
DICTIONARYVAR
  2
AcDbDictionaryVar
  3
ObjectDBX Classes
 90
        0
280
     0
281
     0
  0
CLASS
  1
ACAD_PROXY_ENTITY_WRAPPER
  2
AcDbProxyEntityWrapper
  3
ObjectDBX Classes
 90
    32768
280
     0
281
     1
  0
CLASS
  1
ACME_DOCUMENT
  2
AcMeDbDoc
  3
AcMeServices
 90
        0
280
     0
281
     0
  0
CLASS
  1
AMGSETTINGSOBJ
  2
AmgSettingsObj
  3
"AcadM|Product Description: AutoCAD Mechanical 2000|Company: Autodesk"
 90
        0
280
     0
281
     0
  0
CLASS
  1
ACMESCOPE
  2
AcMeScope
  3
AcMeServices
 90
        0
280
     0
281
     0
  0
CLASS
  1
ACMECOMMANDHISTORY
  2
AcMeCommandHistory
  3
AcMeServices
 90
        0
280
     0
281
     0
  0
CLASS
  1
ACIMSYSVARMAN
  2
AcImSysVarManager
  3
AcMeServices
 90
        0
280
     0
281
     0
  0
CLASS
  1
ACIMREALSYSVAR
  2
AcImRealSysVar
  3
AcMeServices
 90
        0
280
     0
281
     0
  0
CLASS
  1
ACIMINTSYSVAR
  2
AcImIntSysVar
  3
AcMeServices
 90
        0
280
     0
281
     0
  0
CLASS
  1
ACMEDRAWINGMAN
  2
AcMeDrawingMan
  3
AcMeServices
 90
        0
280
     0
281
     0
  0
CLASS
  1
ACMEVIEW
  2
AcMeView
  3
AcMeServices
 90
        0
280
     0
281
     0
  0
CLASS
  1
ACDBENTITYCACHE
  2
AcMeEntityCache
  3
AcMeServices
 90
        0
280
     0
281
     0
  0
CLASS
  1
GSMANAGER
  2
AcMeGSManager
  3
AcMeServices
 90
        0
280
     0
281
     0
  0
CLASS
  1
AMDTINTERNALREACTOR
  2
AmdtInternalReactor
  3
AcMeServices
 90
        0
280
     0
281
     0
  0
CLASS
  1
ACMESTATEMGR
  2
AcMeStateMgr
  3
AcMeServices
 90
        0
280
     0
281
     0
  0
CLASS
  1
ACGREFMASTER
  2
AcGrefMaster
  3
AcAttribServices
 90
        0
280
     0
281
     0
  0
CLASS
  1
ACME_DATABASE
  2
AcMeDbDatabase
  3
AcMeServices
 90
        0
280
     0
281
     0
  0
CLASS
  1
ACRFINSADJUSTERMGR
  2
AcRfInsAdjusterMgr
  3
AcMeServices
 90
        0
280
     0
281
     0
  0
CLASS
  1
ACGREFACADMASTER
  2
AcGrefacadMaster
  3
AcGrefServices
 90
        0
280
     0
281
     0
  0
CLASS
  1
AMIMASTER
  2
AmiMaster
  3
AmiServices
 90
        0
280
     0
281
     0
  0
CLASS
  1
ACMDATADICTIONARY
  2
AcmDataDictionary
  3
"AcmSymBB|Product Description: AutoCAD Mechanical 2004 DX|Company: Autodesk"
 90
        0
280
     0
281
     0
  0
CLASS
  1
ACMDATAENTRYBLOCK
  2
AcmDataEntryBlock
  3
"AcmSymBB|Product Description: AutoCAD Mechanical 2004 DX|Company: Autodesk"
 90
        0
280
     0
281
     0
  0
CLASS
  1
ACIMSTRSYSVAR
  2
AcImStrSysVar
  3
AcMeServices
 90
        0
280
     0
281
     0
  0
CLASS
  1
ACMSTANDARDISO
  2
AcmStandardISO
  3
"Amdt_StdImp|Product Description: AutoCAD Mechanical 2004 DX|Company: Autodesk"
 90
        0
280
     0
281
     0
  0
CLASS
  1
AMGOBJPROPCFG
  2
AmgObjPropCfg
  3
"AmgLay|Product Description: AutoCAD Mechanical 2000|Company: Autodesk"
 90
        1
280
     0
281
     0
  0
CLASS
  1
AMDTEDGESTANDARDISO
  2
AmdtEdgeStdISO
  3
"Amdt_StdImp|Product Description: AutoCAD Mechanical 2004 DX|Company: Autodesk"
 90
    32768
280
     0
281
     0
  0
CLASS
  1
ACMSURFSTANDARDISO
  2
AcmSurfTextStdISO
  3
"Amdt_StdImp|Product Description: AutoCAD Mechanical 2004 DX|Company: Autodesk"
 90
        0
280
     0
281
     0
  0
CLASS
  1
ACMFCFSTANDARDISO
  2
AcmFCFStdISO
  3
"Amdt_StdImp|Product Description: AutoCAD Mechanical 2004 DX|Company: Autodesk"
 90
        0
280
     0
281
     0
  0
CLASS
  1
ACMWELDSTANDARDISO
  2
AcmWeldingStdISO
  3
"Amdt_StdImp|Product Description: AutoCAD Mechanical 2004 DX|Company: Autodesk"
 90
        0
280
     0
281
     0
  0
CLASS
  1
ACMIDSTANDARDISO
  2
AcmIdStdISO
  3
"Amdt_StdImp|Product Description: AutoCAD Mechanical 2004 DX|Company: Autodesk"
 90
        0
280
     0
281
     0
  0
CLASS
  1
ACMDATUMSTANDARDISO
  2
AcmDatumStdISO
  3
"Amdt_StdImp|Product Description: AutoCAD Mechanical 2004 DX|Company: Autodesk"
 90
        0
280
     0
281
     0
  0
CLASS
  1
ACMBOMSTANDARDISO
  2
AcmBOMStdISO
  3
"Amdt_StdImp|Product Description: AutoCAD Mechanical 2004 DX|Company: Autodesk"
 90
        0
280
     0
281
     0
  0
CLASS
  1
ACMDETAILSTANDARDISO
  2
AmdtDetailSymStdISO
  3
"Amdt_StdImp|Product Description: AutoCAD Mechanical 2004 DX|Company: Autodesk"
 90
        0
280
     0
281
     0
  0
CLASS
  1
ACMSECTIONSTANDARDISO
  2
AmdtSectionSymStdISO
  3
"Amdt_StdImp|Product Description: AutoCAD Mechanical 2004 DX|Company: Autodesk"
 90
        0
280
     0
281
     0
  0
CLASS
  1
ACMCENTERLINESTANDARDISO
  2
AmdtCenterLineStdISO
  3
"Amdt_StdImp|Product Description: AutoCAD Mechanical 2004 DX|Company: Autodesk"
 90
        0
280
     0
281
     0
  0
CLASS
  1
ACMNOTESTANDARDISO
  2
AmdtNoteStdISO
  3
"Amdt_StdImp|Product Description: AutoCAD Mechanical 2004 DX|Company: Autodesk"
 90
        0
280
     0
281
     0
  0
CLASS
  1
ACAMGLAYSTD
  2
AcAmgLayStd
  3
"AcAmgLayStd|Product Description: AutoCAD Mechanical 2000|Company: Autodesk"
 90
        0
280
     0
281
     0
  0
CLASS
  1
ACAMGDIMSTD
  2
AcAmgDimStd
  3
"AcAmgDimStd|Product Description: AutoCAD Mechanical 2000|Company: Autodesk"
 90
        0
280
     0
281
     0
  0
CLASS
  1
ACAMGHOLECHARTSTDISO
  2
AcAmgHoleChartStdISO
  3
ACMSYMBB_MODULE_NAME
 90
        0
280
     0
281
     0
  0
CLASS
  1
ACAMGTITLESTD
  2
AcAmgTitleStd
  3
"TITLEAPP"
 90
        0
280
     0
281
     0
  0
CLASS
  1
ACMSTANDARDANSI
  2
AcmStandardANSI
  3
"Amdt_StdImp|Product Description: AutoCAD Mechanical 2004 DX|Company: Autodesk"
 90
    32768
280
     0
281
     0
  0
CLASS
  1
ACMSURFSTANDARDANSI
  2
AcmSurfTextStdANSI
  3
"Amdt_StdImp|Product Description: AutoCAD Mechanical 2004 DX|Company: Autodesk"
 90
    32768
280
     0
281
     0
  0
CLASS
  1
ACMFCFSTANDARDANSI
  2
AcmFCFStdANSI
  3
"Amdt_StdImp|Product Description: AutoCAD Mechanical 2004 DX|Company: Autodesk"
 90
    32768
280
     0
281
     0
  0
CLASS
  1
ACMWELDSTANDARDANSI
  2
AcmWeldingStdANSI
  3
"Amdt_StdImp|Product Description: AutoCAD Mechanical 2004 DX|Company: Autodesk"
 90
    32768
280
     0
281
     0
  0
CLASS
  1
ACMIDSTANDARDANSI
  2
AcmIdStdANSI
  3
"Amdt_StdImp|Product Description: AutoCAD Mechanical 2004 DX|Company: Autodesk"
 90
    32768
280
     0
281
     0
  0
CLASS
  1
ACMDATUMSTANDARDANSI
  2
AcmDatumStdANSI
  3
"Amdt_StdImp|Product Description: AutoCAD Mechanical 2004 DX|Company: Autodesk"
 90
    32768
280
     0
281
     0
  0
CLASS
  1
ACMBOMSTANDARDANSI
  2
AcmBOMStdANSI
  3
"Amdt_StdImp|Product Description: AutoCAD Mechanical 2004 DX|Company: Autodesk"
 90
    32768
280
     0
281
     0
  0
CLASS
  1
ACMDETAILSTANDARDANSI
  2
AmdtDetailSymStdANSI
  3
"Amdt_StdImp|Product Description: AutoCAD Mechanical 2004 DX|Company: Autodesk"
 90
    32768
280
     0
281
     0
  0
CLASS
  1
ACMSECTIONSTANDARDANSI
  2
AmdtSectionSymStdANSI
  3
"Amdt_StdImp|Product Description: AutoCAD Mechanical 2004 DX|Company: Autodesk"
 90
    32768
280
     0
281
     0
  0
CLASS
  1
ACMCENTERLINESTANDARDANSI
  2
AmdtCenterLineStdANSI
  3
"Amdt_StdImp|Product Description: AutoCAD Mechanical 2004 DX|Company: Autodesk"
 90
    32768
280
     0
281
     0
  0
CLASS
  1
ACMNOTESTANDARDANSI
  2
AmdtNoteStdANSI
  3
"Amdt_StdImp|Product Description: AutoCAD Mechanical 2004 DX|Company: Autodesk"
 90
    32768
280
     0
281
     0
  0
CLASS
  1
ACAMGHOLECHARTSTDANSI
  2
AcAmgHoleChartStdANSI
  3
ACMSYMBB_MODULE_NAME
 90
    32768
280
     0
281
     0
  0
CLASS
  1
ACAMGFILTERDAT
  2
AcAmgFilterDat
  3
"AcadM|Product Description: AutoCAD Mechanical 2000|Company: Autodesk"
 90
    32768
280
     0
281
     0
  0
CLASS
  1
AMDTFORMULAUPDATEDISPATCHER
  2
AmdtFormulaUpdateDispatcher
  3
AcMeServices
 90
    32768
280
     0
281
     0
  0
CLASS
  1
LAYER_INDEX
  2
AcDbLayerIndex
  3
ObjectDBX Classes
 90
        0
280
     0
281
     0
  0
CLASS
  1
IDBUFFER
  2
AcDbIdBuffer
  3
ObjectDBX Classes
 90
        0
280
     0
281
     0
  0
CLASS
  1
TABLESTYLE
  2
AcDbTableStyle
  3
ObjectDBX Classes
 90
     2047
280
     0
281
     0
  0
CLASS
  1
AM_DRAWING_MGR
  2
AcDmDwgMgr
  3
AcMechDwgViewMgmt
 90
        0
280
     0
281
     0
  0
CLASS
  1
AM_DWG_DOCUMENT
  2
AcDmDwgDocument
  3
AcMechDwgViewMgmt
 90
        0
280
     0
281
     0
  0
CLASS
  1
AM_DWG_SHEET
  2
AcDmSheet
  3
AcMechDwgViewMgmt
 90
        0
280
     0
281
     0
  0
CLASS
  1
AM_VIEWDIMPARMAP
  2
AcDmViewDimParMap
  3
AcMechDwgViewMgmt
 90
        0
280
     0
281
     0
  0
CLASS
  1
AM_DWGMGR_NAME
  2
AcDmDwgMgrName
  3
AcMechDwgViewMgmt
 90
        0
280
     0
281
     0
  0
CLASS
  1
AMDTMENUSTATEMGR
  2
AmdtMenuStateMgr
  3
McadcomServices
 90
        0
280
     0
281
     0
  0
CLASS
  1
AMDTMCOMMENUSTATE
  2
AmdtMcomMenuState
  3
McadcomServices
 90
        0
280
     0
281
     0
  0
CLASS
  1
ASAPP
  2
AcAsAppObject
  3
AutoSurfServices
 90
    32768
280
     0
281
     0
  0
CLASS
  1
IM_STATIC_MAN
  2
AcImStaticVarManager
  3
AcMeServices
 90
    32768
280
     0
281
     0
  0
CLASS
  1
ACIMDBLSTATICVAR
  2
AcImDblStaticVar
  3
AcMeServices
 90
    32768
280
     0
281
     0
  0
CLASS
  1
ACIMSTRSTATICVAR
  2
AcImStrStaticVar
  3
AcMeServices
 90
    32768
280
     0
281
     0
  0
CLASS
  1
ACIMINTSTATICVAR
  2
AcImIntStaticVar
  3
AcMeServices
 90
    32768
280
     0
281
     0
  0
CLASS
  1
ACASGREFMASTER
  2
AcAsGrefMaster
  3
AutoSurfResolverServices
 90
    32768
280
     0
281
     0
  0
CLASS
  1
ACADGREFMODULE
  2
AcAdGrefModule
  3
AdGrefServices
 90
    32768
280
     0
281
     0
  0
CLASS
  1
AMDTMAPISURFMOUDULE
  2
AmdtMApiSurfModule
  3
MApiSurfServices
 90
    32768
280
     0
281
     0
  0
CLASS
  1
MAPIAMMOUDLE
  2
MApiAmModule
  3
MApiAmServices
 90
        0
280
     0
281
     0
  0
CLASS
  1
AMDTADMENUSTATE
  2
AmdtAdMenuState
  3
DesignerServices
 90
        0
280
     0
281
     0
  0
CLASS
  1
ADAPPL
  2
AcAdAppl
  3
DesignerServices
 90
        0
280
     0
281
     0
  0
CLASS
  1
DEPMGR
  2
AcAdDepMgr
  3
DesignerServices
 90
        0
280
     0
281
     0
  0
CLASS
  1
PARAMMGR
  2
AcAdParamMgr
  3
DesignerServices
 90
        0
280
     0
281
     0
  0
CLASS
  1
PARAMSCOPE
  2
AcAdParamScope
  3
DesignerServices
 90
        0
280
     0
281
     0
  0
CLASS
  1
NAMEDAPPL
  2
AcAdNamedAppl
  3
DesignerServices
 90
        0
280
     0
281
     0
  0
CLASS
  1
AMDTDMMENUSTATE
  2
AmdtDmMenuState
  3
AcMechDwgViewMgmt
 90
        0
280
     0
281
     0
  0
CLASS
  1
MAPIADMODULE
  2
MApiAdModule
  3
MApiAdServices
 90
    32768
280
     0
281
     0
  0
CLASS
  1
AMDTAMMENUSTATE
  2
AmdtAmMenuState
  3
DesignerAssemblies
 90
        0
280
     0
281
     0
  0
CLASS
  1
ACAMPROJECT
  2
AcAmProject
  3
DesignerAssemblies
 90
        0
280
     0
281
     0
  0
CLASS
  1
ACAMGRCOMPDEF
  2
AcAmGrCompDef
  3
DesignerAssemblies
 90
        0
280
     0
281
     0
  0
CLASS
  1
ACCMCONTEXT
  2
AcCmContext
  3
DesignerAssemblies
 90
        0
280
     0
281
     0
  0
CLASS
  1
ACAMCOMPDEF
  2
AcAmCompDef
  3
DesignerAssemblies
 90
        0
280
     0
281
     0
  0
CLASS
  1
ACAMCOMPDEFMGR
  2
AcAmCompDefMgr
  3
DesignerAssemblies
 90
        0
280
     0
281
     0
  0
CLASS
  1
AMCONTEXTMGR
  2
AcAmContextMgr
  3
DesignerAssemblies
 90
        0
280
     0
281
     0
  0
CLASS
  1
ACAMCONTEXTMODELER
  2
AcAmContextModeler
  3
DesignerAssemblies
 90
        0
280
     0
281
     0
  0
CLASS
  1
CATALOGSTATE
  2
AcAmCatalogState
  3
DesignerAssemblies
 90
        0
280
     0
281
     0
  0
CLASS
  1
ACAMGRCOMPDEFSET
  2
AcAmGrCompDefSet
  3
DesignerAssemblies
 90
        0
280
     0
281
     0
  0
CLASS
  1
AMDTBROWSERDBTAB
  2
AmdtBrowserDbTab
  3
McadcomServices
 90
        0
280
     0
281
     0
  0
CLASS
  1
CBROWSERAPPOBJECT
  2
CBrowserAppObject
  3
McadcomServices
 90
        0
280
     0
281
     0
  0
CLASS
  1
DM_PLACEHOLDER
  2
AcDmSelsetPlaceholder
  3
AcMechDwgViewMgmt
 90
        0
280
     0
281
     0
  0
CLASS
  1
AMDTEDGESTANDARDISO13715
  2
AmdtEdgeStdISO13715
  3
"Amdt_StdImp|Product Description: AutoCAD Mechanical 2004 DX|Company: Autodesk"
 90
        0
280
     0
281
     0
  0
CLASS
  1
ACMTHREADLINESTANDARDISO
  2
AmdtThreadLineStdISO
  3
"Amdt_StdImp|Product Description: AutoCAD Mechanical 2004 DX|Company: Autodesk"
 90
        0
280
     0
281
     0
  0
CLASS
  1
AMDTNOTETEMPLATEDB
  2
AmdtNoteTemplateDB
  3
AMDT_STDIMP_MODULE_NAME
 90
        0
280
     0
281
     0
  0
CLASS
  1
SORTENTSTABLE
  2
AcDbSortentsTable
  3
ObjectDBX Classes
 90
    32768
280
     0
281
     0
  0
CLASS
  1
DIMASSOC
  2
AcDbDimAssoc
  3
"AcDbDimAssoc|Product Desc:     AcDim ARX App For Dimension|Company:          Autodesk, Inc.|WEB Address:      www.autodesk.com"
 90
        0
280
     0
281
     0
  0
CLASS
  1
ACRFATTGENMGR
  2
AcRfAttGeneralMgr
  3
AcAttribServices
 90
        0
280
     0
281
     0
  0
CLASS
  1
ACDBPLACEHOLDER
  2
AcDbPlaceHolder
  3
ObjectDBX Classes
 90
        0
280
     0
281
     0
  0
CLASS
  1
LAYOUT
  2
AcDbLayout
  3
ObjectDBX Classes
 90
        0
280
     0
281
     0
  0
ENDSEC
  0
SECTION
  2
TABLES
  0
TABLE
  2
VPORT
  5
8
330
0
100
AcDbSymbolTable
 70
     4
  0
VPORT
  5
1833
330
8
100
AcDbSymbolTableRecord
100
AcDbViewportTableRecord
  2
*Active
 70
     0
 10
0.0
 20
0.0
 11
1.0
 21
1.0
 12
298.6667357401076
 22
-17.41116909180499
 13
0.0
 23
0.0
 14
10.0
 24
10.0
 15
10.0
 25
10.0
 16
0.0
 26
0.0
 36
1.0
 17
158.1376657124349
 27
198.2325156390403
 37
0.0
 40
251.8639020999402
 41
1.283837056504599
 42
50.0
 43
0.0
 44
0.0
 50
0.0
 51
0.0
 71
     0
 72
   100
 73
     1
 74
     3
 75
     0
 76
     0
 77
     0
 78
     0
281
     0
 65
     0
110
0.0
120
0.0
130
0.0
111
1.0
121
0.0
131
0.0
112
0.0
122
1.0
132
0.0
 79
     0
146
0.0
  0
ENDTAB
  0
TABLE
  2
LTYPE
  5
5
330
0
100
AcDbSymbolTable
 70
    18
  0
LTYPE
  5
14
330
5
100
AcDbSymbolTableRecord
100
AcDbLinetypeTableRecord
  2
ByBlock
 70
     0
  3

 72
    65
 73
     0
 40
0.0
  0
LTYPE
  5
15
330
5
100
AcDbSymbolTableRecord
100
AcDbLinetypeTableRecord
  2
ByLayer
 70
     0
  3

 72
    65
 73
     0
 40
0.0
  0
LTYPE
  5
16
330
5
100
AcDbSymbolTableRecord
100
AcDbLinetypeTableRecord
  2
Continuous
 70
     0
  3
Solid line
 72
    65
 73
     0
 40
0.0
  0
LTYPE
  5
1F5
330
5
100
AcDbSymbolTableRecord
100
AcDbLinetypeTableRecord
  2
CENTER
 70
     0
  3
____ _ ____ _ ____ _ ____ _ ____ _ ____ _ ____ 
 72
    65
 73
     4
 40
2.0
 49
1.25
 74
     0
 49
-0.25
 74
     0
 49
0.25
 74
     0
 49
-0.25
 74
     0
  0
LTYPE
  5
1F6
330
5
100
AcDbSymbolTableRecord
100
AcDbLinetypeTableRecord
  2
AM_ISO08W050x2
 70
     0
  3
__ . __ . __ . __ . __ . __
 72
    65
 73
     4
 40
9.0
 49
6.0
 74
     0
 49
-0.75
 74
     0
 49
1.5
 74
     0
 49
-0.75
 74
     0
  0
LTYPE
  5
1154
330
5
100
AcDbSymbolTableRecord
100
AcDbLinetypeTableRecord
  2
AM_ISO02W050
 70
     0
  3
__ __ __ __ __ __ __ __ __ __ __ __ __ __ __
 72
    65
 73
     2
 40
7.5
 49
6.0
 74
     0
 49
-1.5
 74
     0
  0
LTYPE
  5
1155
330
5
100
AcDbSymbolTableRecord
100
AcDbLinetypeTableRecord
  2
AM_ISO08W050
 70
     0
  3
____ . ____ . ____ . ____ . ____ . ____ . ____
 72
    65
 73
     4
 40
18.0
 49
12.0
 74
     0
 49
-1.5
 74
     0
 49
3.0
 74
     0
 49
-1.5
 74
     0
  0
LTYPE
  5
1156
330
5
100
AcDbSymbolTableRecord
100
AcDbLinetypeTableRecord
  2
AM_ISO09W050
 70
     0
  3
_____ . . _____ . . _____ . . ____ .. ____
 72
    65
 73
     6
 40
22.5
 49
12.0
 74
     0
 49
-1.5
 74
     0
 49
3.0
 74
     0
 49
-1.5
 74
     0
 49
3.0
 74
     0
 49
-1.5
 74
     0
  0
LTYPE
  5
1157
330
5
100
AcDbSymbolTableRecord
100
AcDbLinetypeTableRecord
  2
Amconstr
 70
     0
  3
_______________________
 72
    65
 73
     2
 40
9999.0
 49
9999.0
 74
     0
 49
0.0
 74
     0
  0
LTYPE
  5
1158
330
5
100
AcDbSymbolTableRecord
100
AcDbLinetypeTableRecord
  2
AM_ISO02W050x2
 70
     0
  3
 _ _ _ _ _ _ _ _ _ _ _ _
 72
    65
 73
     2
 40
3.75
 49
3.0
 74
     0
 49
-0.75
 74
     0
  0
LTYPE
  5
115B
330
5
100
AcDbSymbolTableRecord
100
AcDbLinetypeTableRecord
  2
Amzigzag
 70
     0
  3
/\/-/\/-/\/-/\/-/\/-/\/
 72
    65
 73
     2
 40
11.0001
 49
0.0001
 74
     4
 75
   135
340
115A
 46
0.04
 50
0.0
 44
0.0
 45
0.0
 49
-11.0
 74
     0
  0
LTYPE
  5
1168
330
5
100
AcDbSymbolTableRecord
100
AcDbLinetypeTableRecord
  2
ACISOWELD
 70
     0
  3
_ _ _ _ _
 72
    65
 73
     2
 40
2.0
 49
2.0
 74
     0
 49
-1.0
 74
     0
  0
LTYPE
  5
1169
330
5
100
AcDbSymbolTableRecord
100
AcDbLinetypeTableRecord
  2
ACISOTGB
 70
     0
  3
__ . . __ . .
 72
    65
 73
     6
 40
9.0
 49
4.0
 74
     0
 49
-1.0
 74
     0
 49
1.0
 74
     0
 49
-1.0
 74
     0
 49
1.0
 74
     0
 49
-1.0
 74
     0
  0
LTYPE
  5
116A
330
5
100
AcDbSymbolTableRecord
100
AcDbLinetypeTableRecord
  2
ACISOTGL
 70
     0
  3
_ _ _ _ _
 72
    65
 73
     2
 40
3.0
 49
2.0
 74
     0
 49
-1.0
 74
     0
  0
LTYPE
  5
117E
330
5
100
AcDbSymbolTableRecord
100
AcDbLinetypeTableRecord
  2
PHANTOM2
 70
     0
  3
Phantom (.5x) ___ _ _ ___ _ _ ___ _ _ ___ _ _
 72
    65
 73
     6
 40
1.25
 49
0.625
 74
     0
 49
-0.125
 74
     0
 49
0.125
 74
     0
 49
-0.125
 74
     0
 49
0.125
 74
     0
 49
-0.125
 74
     0
  0
LTYPE
  5
12AF
330
5
100
AcDbSymbolTableRecord
100
AcDbLinetypeTableRecord
  2
HIDDEN
 70
     0
  3
Hidden __ __ __ __ __ __ __ __ __ __ __ __ __ _
 72
    65
 73
     2
 40
9.524999999999996
 49
6.349999999999998
 74
     0
 49
-3.174999999999998
 74
     0
  0
ENDTAB
  0
TABLE
  2
LAYER
  5
2
102
{ACAD_XDICTIONARY
360
1361
102
}
330
0
100
AcDbSymbolTable
 70
    11
  0
LAYER
  5
10
330
2
100
AcDbSymbolTableRecord
100
AcDbLayerTableRecord
  2
0
 70
     0
 62
     7
  6
Continuous
370
    -3
390
F
  0
LAYER
  5
1F7
330
2
100
AcDbSymbolTableRecord
100
AcDbLayerTableRecord
  2
AM_5
 70
     0
 62
     5
  6
Continuous
370
    30
390
F
  0
LAYER
  5
1F8
330
2
100
AcDbSymbolTableRecord
100
AcDbLayerTableRecord
  2
AM_VIS
 70
     0
 62
     7
  6
Continuous
370
    30
390
F
  0
LAYER
  5
1F9
330
2
100
AcDbSymbolTableRecord
100
AcDbLayerTableRecord
  2
AM_7
 70
     0
 62
     1
  6
CENTER
370
    15
390
F
  0
LAYER
  5
1FA
330
2
100
AcDbSymbolTableRecord
100
AcDbLayerTableRecord
  2
AM_4
 70
     0
 62
     5
  6
Continuous
370
    30
390
F
  0
LAYER
  5
1FB
330
2
100
AcDbSymbolTableRecord
100
AcDbLayerTableRecord
  2
DIM
 70
     0
 62
     5
  6
Continuous
370
    -3
390
F
  0
LAYER
  5
1FC
330
2
100
AcDbSymbolTableRecord
100
AcDbLayerTableRecord
  2
Defpoints
 70
     0
 62
     7
  6
Continuous
290
     0
370
    -3
390
F
  0
LAYER
  5
1FD
330
2
100
AcDbSymbolTableRecord
100
AcDbLayerTableRecord
  2
LOGO
 70
     0
 62
     7
  6
Continuous
370
    -3
390
F
  0
LAYER
  5
1FE
330
2
100
AcDbSymbolTableRecord
100
AcDbLayerTableRecord
  2
AM_8
 70
     0
 62
     1
  6
Continuous
370
    25
390
F
  0
ENDTAB
  0
TABLE
  2
STYLE
  5
3
330
0
100
AcDbSymbolTable
 70
    12
  0
STYLE
  5
11
330
3
100
AcDbSymbolTableRecord
100
AcDbTextStyleTableRecord
  2
Standard
 70
     0
 40
0.0
 41
1.0
 50
0.0
 71
     0
 42
2.5
  3
txt
  4

  0
STYLE
  5
201
330
3
100
AcDbSymbolTableRecord
100
AcDbTextStyleTableRecord
  2
DAYUS
 70
     0
 40
0.0
 41
1.0
 50
0.0
 71
     0
 42
3.0
  3
simplex.shx
  4
dayus.shx
  0
STYLE
  5
202
330
3
100
AcDbSymbolTableRecord
100
AcDbTextStyleTableRecord
  2
CHINESET
 70
     0
 40
0.0
 41
1.0
 50
0.0
 71
     0
 42
5.0
  3
simplex.shx
  4
chineset.shx
  0
STYLE
  5
204
330
3
100
AcDbSymbolTableRecord
100
AcDbTextStyleTableRecord
  2
ACISOTS
 70
     0
 40
1.0
 41
1.0
 50
0.0
 71
     0
 42
1.0
  3
isocp.shx
  4
chineset.shx
  0
STYLE
  5
115A
330
3
100
AcDbSymbolTableRecord
100
AcDbTextStyleTableRecord
  2

 70
     1
 40
0.0
 41
1.0
 50
0.0
 71
     0
 42
2.5
  3
ltypeshp.shx
  4

  0
STYLE
  5
1167
330
3
100
AcDbSymbolTableRecord
100
AcDbTextStyleTableRecord
  2
ACISOGDT
 70
     0
 40
0.0
 41
1.0
 50
0.0
 71
     0
 42
2.5
  3
amgdt.shx
  4

  0
ENDTAB
  0
TABLE
  2
VIEW
  5
6
330
0
100
AcDbSymbolTable
 70
     0
  0
ENDTAB
  0
TABLE
  2
UCS
  5
7
330
0
100
AcDbSymbolTable
 70
     0
  0
ENDTAB
  0
TABLE
  2
APPID
  5
9
330
0
100
AcDbSymbolTable
 70
    26
  0
APPID
  5
12
330
9
100
AcDbSymbolTableRecord
100
AcDbRegAppTableRecord
  2
ACAD
 70
     0
  0
APPID
  5
207
330
9
100
AcDbSymbolTableRecord
100
AcDbRegAppTableRecord
  2
GENIUS_GENFIL_13
 70
     0
  0
APPID
  5
208
330
9
100
AcDbSymbolTableRecord
100
AcDbRegAppTableRecord
  2
GENIUS_GENODEF_13
 70
     0
  0
APPID
  5
209
330
9
100
AcDbSymbolTableRecord
100
AcDbRegAppTableRecord
  2
GENIUS_GENOBJ-N-CHA_13
 70
     0
  0
APPID
  5
20A
330
9
100
AcDbSymbolTableRecord
100
AcDbRegAppTableRecord
  2
GENIUS_GENOBJ-N-CEN_13
 70
     0
  0
APPID
  5
20B
330
9
100
AcDbSymbolTableRecord
100
AcDbRegAppTableRecord
  2
GENIUS_GENOBJ-N-HTC_13
 70
     0
  0
APPID
  5
20C
330
9
100
AcDbSymbolTableRecord
100
AcDbRegAppTableRecord
  2
GENIUS_GENHATCH_13
 70
     0
  0
APPID
  5
1137
330
9
100
AcDbSymbolTableRecord
100
AcDbRegAppTableRecord
  2
MCAD_NO_VIS
 70
     0
  0
APPID
  5
1138
330
9
100
AcDbSymbolTableRecord
100
AcDbRegAppTableRecord
  2
ACAD_TEMP_GRAPHIC
 70
     0
  0
APPID
  5
1149
330
9
100
AcDbSymbolTableRecord
100
AcDbRegAppTableRecord
  2
ACATTRIBSERVICES
 70
     0
  0
APPID
  5
127C
330
9
100
AcDbSymbolTableRecord
100
AcDbRegAppTableRecord
  2
GENIUS_GENDIM_13
 70
     0
  0
APPID
  5
127D
330
9
100
AcDbSymbolTableRecord
100
AcDbRegAppTableRecord
  2
GENIUS_GENDTOL_13
 70
     0
  0
APPID
  5
127E
330
9
100
AcDbSymbolTableRecord
100
AcDbRegAppTableRecord
  2
GENIUS_GE3DTOL_13
 70
     0
  0
APPID
  5
12B1
330
9
100
AcDbSymbolTableRecord
100
AcDbRegAppTableRecord
  2
AD_DRAW
 70
     0
  0
APPID
  5
12FD
330
9
100
AcDbSymbolTableRecord
100
AcDbRegAppTableRecord
  2
ASURF_PCURVE_APPNAME
 70
     0
  0
APPID
  5
1302
330
9
100
AcDbSymbolTableRecord
100
AcDbRegAppTableRecord
  2
AMG_3D2D_5.0
 70
     0
  0
APPID
  5
1331
330
9
100
AcDbSymbolTableRecord
100
AcDbRegAppTableRecord
  2
DESIGNERASSEMBLIES
 70
     0
  0
APPID
  5
1337
330
9
100
AcDbSymbolTableRecord
100
AcDbRegAppTableRecord
  2
ACADM_DIM_EDIT
 70
     0
  0
APPID
  5
1338
330
9
100
AcDbSymbolTableRecord
100
AcDbRegAppTableRecord
  2
AMDT_DM_ADJ
 70
     0
  0
APPID
  5
135A
330
9
100
AcDbSymbolTableRecord
100
AcDbRegAppTableRecord
  2
GENIUS_GENOENT_13
 70
     0
  0
APPID
  5
135B
330
9
100
AcDbSymbolTableRecord
100
AcDbRegAppTableRecord
  2
GENIUS_GENOBJ-N-CRS_13
 70
     0
  0
APPID
  5
135C
330
9
100
AcDbSymbolTableRecord
100
AcDbRegAppTableRecord
  2
GENIUS_GENOLIS_13
 70
     0
  0
APPID
  5
135D
330
9
100
AcDbSymbolTableRecord
100
AcDbRegAppTableRecord
  2
GENIUS_GENOREF_13
 70
     0
  0
APPID
  5
135E
330
9
100
AcDbSymbolTableRecord
100
AcDbRegAppTableRecord
  2
ACAD_PSEXT
 70
     0
  0
APPID
  5
135F
330
9
100
AcDbSymbolTableRecord
100
AcDbRegAppTableRecord
  2
GENIUS_GENREC_14
 70
     0
  0
APPID
  5
1360
330
9
100
AcDbSymbolTableRecord
100
AcDbRegAppTableRecord
  2
GENIUS_GENOBJ-N-REC_13
 70
     0
  0
ENDTAB
  0
TABLE
  2
DIMSTYLE
  5
A
330
0
100
AcDbSymbolTable
 70
    20
100
AcDbDimStyleTable
 71
     2
340
27
340
205
  0
DIMSTYLE
105
27
330
A
100
AcDbSymbolTableRecord
100
AcDbDimStyleTableRecord
  2
ISO-25
 70
     0
 41
2.5
 42
0.625
 43
3.75
 44
1.25
 73
     0
 74
     0
 77
     1
 78
     8
140
2.5
141
2.5
143
0.03937007874016
147
0.625
171
     3
172
     1
271
     2
272
     2
274
     3
283
     0
284
     8
340
11
  0
DIMSTYLE
105
205
102
{ACAD_REACTORS
330
549
330
54B
330
54C
330
1475
330
54D
330
54A
330
4E8
330
4E7
330
4E5
330
4E6
330
4B0
330
1663
102
}
330
A
100
AcDbSymbolTableRecord
100
AcDbDimStyleTableRecord
  2
STANDARD
 70
     0
 41
3.0
 42
1.5
 43
8.0
 44
2.0
 47
0.01
 48
0.01
 73
     0
 74
     0
 77
     3
 78
     8
 79
     2
140
3.0
141
0.0
146
0.6
147
0.8
172
     1
176
   256
177
   256
178
   256
271
     2
272
     2
284
     8
340
201
371
    -1
372
    -1
  0
DIMSTYLE
105
206
330
A
100
AcDbSymbolTableRecord
100
AcDbDimStyleTableRecord
  2
AM_ISO$7
 70
     0
  4
"
 40
0.8
 41
3.0
 42
2.0
 43
5.0
 44
1.5
 48
0.000000001
 73
     0
 74
     0
 77
     1
 78
     8
 79
     2
140
5.0
141
1.0
143
0.0393701
146
0.8
147
0.8
172
     1
176
   256
177
   256
178
   256
271
     2
272
     2
340
11
371
    -1
372
    -1
  0
DIMSTYLE
105
116D
330
A
100
AcDbSymbolTableRecord
100
AcDbDimStyleTableRecord
  2
AM_ISO
 70
     0
  4
"
 41
2.5
 42
1.0
 43
10.0
 44
1.0
 47
0.1
 48
0.1
 73
     0
 74
     0
 77
     1
 78
     8
 79
     2
140
3.5
141
0.0
143
0.0393701
146
0.71
147
1.5
172
     1
176
   256
177
   256
178
     2
271
     2
272
     3
274
     4
283
     0
284
     8
340
11
371
    -1
372
    -1
  0
DIMSTYLE
105
116E
330
A
100
AcDbSymbolTableRecord
100
AcDbDimStyleTableRecord
  2
AM_ISO$3
 70
     0
  4
"
 41
2.5
 42
1.0
 43
10.0
 44
1.0
 47
0.1
 48
0.1
 73
     0
 77
     1
 78
     8
 79
     2
140
3.5
141
0.0
143
0.0393701
146
0.71
147
1.5
176
   256
177
   256
178
     2
271
     2
272
     3
274
     4
283
     0
284
     8
288
     1
289
     0
340
11
371
    -1
372
    -1
  0
DIMSTYLE
105
116F
330
A
100
AcDbSymbolTableRecord
100
AcDbDimStyleTableRecord
  2
AM_ISO$4
 70
     0
  4
"
 41
2.5
 42
1.0
 43
10.0
 44
1.0
 47
0.1
 48
0.1
 73
     0
 77
     1
 78
     8
 79
     2
140
3.5
141
0.0
143
0.0393701
146
0.71
147
1.5
176
   256
177
   256
178
     2
271
     2
272
     3
274
     4
283
     0
284
     8
288
     1
289
     0
340
11
371
    -1
372
    -1
  0
DIMSTYLE
105
1170
330
A
100
AcDbSymbolTableRecord
100
AcDbDimStyleTableRecord
  2
AM_ISO$6
 70
     0
  4
"
 41
2.5
 42
1.0
 43
10.0
 44
1.0
 47
0.1
 48
0.1
 73
     0
 74
     0
 78
     8
 79
     2
140
3.5
141
0.0
143
0.0393701
146
0.71
147
1.5
172
     1
176
   256
177
   256
178
     2
271
     2
272
     3
274
     4
283
     0
284
     8
340
11
371
    -1
372
    -1
  0
DIMSTYLE
105
1171
330
A
100
AcDbSymbolTableRecord
100
AcDbDimStyleTableRecord
  2
AM_ISO$SF
 70
     0
  4
"
 41
2.5
 42
1.0
 43
10.0
 44
1.0
 47
0.1
 48
0.1
 73
     0
 74
     0
 75
     1
 76
     1
 77
     1
 78
     8
 79
     2
140
3.5
141
0.0
143
0.0393701
146
0.71
147
1.5
172
     1
176
   256
177
   256
178
     2
271
     2
272
     3
274
     4
283
     0
284
     8
340
11
371
    -1
372
    -1
  0
DIMSTYLE
105
1176
330
A
100
AcDbSymbolTableRecord
100
AcDbDimStyleTableRecord
  2
AM_ISO$SH
 70
     0
  4
"
 41
2.5
 42
1.0
 43
10.0
 44
1.0
 47
0.1
 48
0.1
 73
     0
 74
     0
 75
     1
 76
     1
 77
     1
 78
     8
 79
     2
140
3.5
141
0.0
143
0.0393701
144
2.0
146
0.71
147
1.5
172
     1
173
     1
176
   256
177
   256
178
     2
271
     2
272
     3
274
     4
283
     0
284
     8
340
11
341
1172
343
1172
371
    -1
372
    -1
  0
DIMSTYLE
105
1359
330
A
100
AcDbSymbolTableRecord
100
AcDbDimStyleTableRecord
  2
AM_ISO$0
 70
     0
  4
"
 41
3.0
 42
1.0
 43
15.0
 44
1.5
 47
0.1
 48
0.1
 73
     0
 74
     0
 77
     1
 78
     8
 79
     2
140
3.5
141
0.0
143
0.0393701
146
0.6
147
0.8
172
     1
176
   256
177
   256
178
   256
271
     2
272
     2
283
     0
284
     8
340
202
371
    -1
372
    -1
  0
ENDTAB
  0
TABLE
  2
BLOCK_RECORD
  5
1
330
0
100
AcDbSymbolTable
 70
    54
  0
BLOCK_RECORD
  5
1F
102
{ACAD_XDICTIONARY
360
10DD
102
}
330
1
100
AcDbSymbolTableRecord
100
AcDbBlockTableRecord
  2
*Model_Space
340
22
  0
BLOCK_RECORD
  5
1B
102
{ACAD_XDICTIONARY
360
10DF
102
}
330
1
100
AcDbSymbolTableRecord
100
AcDbBlockTableRecord
  2
*Paper_Space
340
1E
  0
BLOCK_RECORD
  5
23
102
{ACAD_XDICTIONARY
360
10E1
102
}
330
1
100
AcDbSymbolTableRecord
100
AcDbBlockTableRecord
  2
*Paper_Space0
340
26
  0
BLOCK_RECORD
  5
737
330
1
100
AcDbSymbolTableRecord
100
AcDbBlockTableRecord
  2
*D1
340
0
  0
BLOCK_RECORD
  5
743
330
1
100
AcDbSymbolTableRecord
100
AcDbBlockTableRecord
  2
*D2
340
0
  0
BLOCK_RECORD
  5
74F
330
1
100
AcDbSymbolTableRecord
100
AcDbBlockTableRecord
  2
*D3
340
0
  0
BLOCK_RECORD
  5
75B
330
1
100
AcDbSymbolTableRecord
100
AcDbBlockTableRecord
  2
*D4
340
0
  0
BLOCK_RECORD
  5
767
330
1
100
AcDbSymbolTableRecord
100
AcDbBlockTableRecord
  2
*D5
340
0
  0
BLOCK_RECORD
  5
8C5
330
1
100
AcDbSymbolTableRecord
100
AcDbBlockTableRecord
  2
*D34
340
0
  0
BLOCK_RECORD
  5
8D1
330
1
100
AcDbSymbolTableRecord
100
AcDbBlockTableRecord
  2
*D35
340
0
  0
BLOCK_RECORD
  5
8DD
330
1
100
AcDbSymbolTableRecord
100
AcDbBlockTableRecord
  2
*D36
340
0
  0
BLOCK_RECORD
  5
8E9
330
1
100
AcDbSymbolTableRecord
100
AcDbBlockTableRecord
  2
*D37
340
0
  0
BLOCK_RECORD
  5
8F5
330
1
100
AcDbSymbolTableRecord
100
AcDbBlockTableRecord
  2
*D38
340
0
  0
BLOCK_RECORD
  5
1172
330
1
100
AcDbSymbolTableRecord
100
AcDbBlockTableRecord
  2
GENAXEH
340
0
  0
BLOCK_RECORD
  5
120C
330
1
100
AcDbSymbolTableRecord
100
AcDbBlockTableRecord
  2
*S4040
340
0
102
{BLKREFS
331
4F6
102
}
  0
BLOCK_RECORD
  5
1214
330
1
100
AcDbSymbolTableRecord
100
AcDbBlockTableRecord
  2
*S4141
340
0
102
{BLKREFS
331
4FA
102
}
  0
BLOCK_RECORD
  5
1476
330
1
100
AcDbSymbolTableRecord
100
AcDbBlockTableRecord
  2
*D49
340
0
  0
ENDTAB
  0
ENDSEC
  0
SECTION
  2
BLOCKS
  0
BLOCK
  5
20
330
1F
100
AcDbEntity
  8
0
100
AcDbBlockBegin
  2
*Model_Space
 70
     0
 10
0.0
 20
0.0
 30
0.0
  3
*Model_Space
  1

  0
ENDBLK
  5
21
330
1F
100
AcDbEntity
  8
0
100
AcDbBlockEnd
  0
BLOCK
  5
1C
330
1B
100
AcDbEntity
 67
     1
  8
0
100
AcDbBlockBegin
  2
*Paper_Space
 70
     0
 10
0.0
 20
0.0
 30
0.0
  3
*Paper_Space
  1

  0
ENDBLK
  5
1D
330
1B
100
AcDbEntity
 67
     1
  8
0
100
AcDbBlockEnd
  0
BLOCK
  5
24
330
23
100
AcDbEntity
  8
0
100
AcDbBlockBegin
  2
*Paper_Space0
 70
     0
 10
0.0
 20
0.0
 30
0.0
  3
*Paper_Space0
  1

  0
ENDBLK
  5
25
330
23
100
AcDbEntity
  8
0
100
AcDbBlockEnd
  0
BLOCK
  5
741
330
737
100
AcDbEntity
  8
0
100
AcDbBlockBegin
  2
*D1
 70
     1
 10
0.0
 20
0.0
 30
0.0
  3
*D1
  1

  0
LINE
  5
1817
330
737
100
AcDbEntity
  8
DIM
100
AcDbLine
 10
457.4009285499048
 20
279.5993205228175
 30
0.0
 11
425.6412505885759
 21
279.5993205228175
 31
0.0
  0
LINE
  5
1818
330
737
100
AcDbEntity
  8
DIM
100
AcDbLine
 10
464.9295449497808
 20
209.5993205228177
 30
0.0
 11
425.6412505885759
 21
209.5993205228177
 31
0.0
  0
LINE
  5
1819
330
737
100
AcDbEntity
  8
DIM
100
AcDbLine
 10
427.6412505885758
 20
276.5993205228175
 30
0.0
 11
427.6412505885758
 21
212.5993205228177
 31
0.0
  0
SOLID
  5
181A
330
737
100
AcDbEntity
  8
DIM
100
AcDbTrace
 10
427.1412505885758
 20
276.5993205228175
 30
0.0
 11
428.1412505885758
 21
276.5993205228175
 31
0.0
 12
427.6412505885758
 22
279.5993205228175
 32
0.0
 13
427.6412505885758
 23
279.5993205228175
 33
0.0
  0
SOLID
  5
181B
330
737
100
AcDbEntity
  8
DIM
100
AcDbTrace
 10
427.1412505885758
 20
212.5993205228177
 30
0.0
 11
428.1412505885758
 21
212.5993205228177
 31
0.0
 12
427.6412505885758
 22
209.5993205228177
 32
0.0
 13
427.6412505885758
 23
209.5993205228177
 33
0.0
  0
MTEXT
  5
181C
330
737
100
AcDbEntity
  8
DIM
100
AcDbMText
 10
424.5555363028615
 20
244.5993205228177
 30
0.0
 40
3.0
 41
0.0
 71
     5
 72
     1
  1
\A1;(70)
  7
DAYUS
 11
0.0000000000000001
 21
1.0
 31
0.0
 73
     1
 44
1.0
1001
ACAD
1000
MTEXTBEGIN
1070
    73
1070
     1
1070
    44
1040
1.0
1070
    74
1070
     0
1000
MTEXTEND
  0
POINT
  5
181D
330
737
100
AcDbEntity
  8
Defpoints
 62
     0
100
AcDbPoint
 10
458.9009285499048
 20
279.5993205228175
 30
0.0
  0
POINT
  5
181E
330
737
100
AcDbEntity
  8
Defpoints
 62
     0
100
AcDbPoint
 10
466.4295449497808
 20
209.5993205228177
 30
0.0
  0
POINT
  5
181F
330
737
100
AcDbEntity
  8
Defpoints
 62
     0
100
AcDbPoint
 10
427.6412505885758
 20
209.5993205228177
 30
0.0
  0
ENDBLK
  5
742
330
737
100
AcDbEntity
  8
0
100
AcDbBlockEnd
  0
BLOCK
  5
74D
330
743
100
AcDbEntity
  8
0
100
AcDbBlockBegin
  2
*D2
 70
     1
 10
0.0
 20
0.0
 30
0.0
  3
*D2
  1

  0
LINE
  5
180E
330
743
100
AcDbEntity
  8
DIM
100
AcDbLine
 10
457.4009285499048
 20
279.5993205228177
 30
0.0
 11
434.6301055731768
 21
279.5993205228177
 31
0.0
  0
LINE
  5
180F
330
743
100
AcDbEntity
  8
DIM
100
AcDbLine
 10
460.9295449497808
 20
232.5993205228177
 30
0.0
 11
434.6301055731768
 21
232.5993205228177
 31
0.0
  0
LINE
  5
1810
330
743
100
AcDbEntity
  8
DIM
100
AcDbLine
 10
436.6301055731768
 20
276.5993205228177
 30
0.0
 11
436.6301055731768
 21
235.5993205228177
 31
0.0
  0
SOLID
  5
1811
330
743
100
AcDbEntity
  8
DIM
100
AcDbTrace
 10
436.1301055731768
 20
276.5993205228177
 30
0.0
 11
437.1301055731769
 21
276.5993205228177
 31
0.0
 12
436.6301055731768
 22
279.5993205228177
 32
0.0
 13
436.6301055731768
 23
279.5993205228177
 33
0.0
  0
SOLID
  5
1812
330
743
100
AcDbEntity
  8
DIM
100
AcDbTrace
 10
436.1301055731768
 20
235.5993205228177
 30
0.0
 11
437.1301055731769
 21
235.5993205228177
 31
0.0
 12
436.6301055731768
 22
232.5993205228177
 32
0.0
 13
436.6301055731768
 23
232.5993205228177
 33
0.0
  0
MTEXT
  5
1813
330
743
100
AcDbEntity
  8
DIM
100
AcDbMText
 10
434.3301055731767
 20
256.0993205228178
 30
0.0
 40
3.0
 41
0.0
 71
     5
 72
     1
  1
\A1;47
  7
DAYUS
 11
0.0000000000000001
 21
1.0
 31
0.0
 73
     1
 44
1.0
1001
ACAD
1000
MTEXTBEGIN
1070
    73
1070
     1
1070
    44
1040
1.0
1070
    74
1070
     0
1000
MTEXTEND
  0
POINT
  5
1814
330
743
100
AcDbEntity
  8
Defpoints
 62
     0
100
AcDbPoint
 10
458.9009285499048
 20
279.5993205228177
 30
0.0
  0
POINT
  5
1815
330
743
100
AcDbEntity
  8
Defpoints
 62
     0
100
AcDbPoint
 10
462.4295449497808
 20
232.5993205228177
 30
0.0
  0
POINT
  5
1816
330
743
100
AcDbEntity
  8
Defpoints
 62
     0
100
AcDbPoint
 10
436.6301055731768
 20
232.5993205228177
 30
0.0
  0
ENDBLK
  5
74E
330
743
100
AcDbEntity
  8
0
100
AcDbBlockEnd
  0
BLOCK
  5
759
330
74F
100
AcDbEntity
  8
0
100
AcDbBlockBegin
  2
*D3
 70
     1
 10
0.0
 20
0.0
 30
0.0
  3
*D3
  1

  0
LINE
  5
1805
330
74F
100
AcDbEntity
  8
DIM
100
AcDbLine
 10
461.7795449497808
 20
229.5993205228177
 30
0.0
 11
434.6301055731768
 21
229.5993205228177
 31
0.0
  0
LINE
  5
1806
330
74F
100
AcDbEntity
  8
DIM
100
AcDbLine
 10
464.9295449497808
 20
209.5993205228177
 30
0.0
 11
434.6301055731768
 21
209.5993205228177
 31
0.0
  0
LINE
  5
1807
330
74F
100
AcDbEntity
  8
DIM
100
AcDbLine
 10
436.6301055731768
 20
226.5993205228177
 30
0.0
 11
436.6301055731768
 21
212.5993205228177
 31
0.0
  0
SOLID
  5
1808
330
74F
100
AcDbEntity
  8
DIM
100
AcDbTrace
 10
436.1301055731768
 20
226.5993205228177
 30
0.0
 11
437.1301055731769
 21
226.5993205228177
 31
0.0
 12
436.6301055731768
 22
229.5993205228177
 32
0.0
 13
436.6301055731768
 23
229.5993205228177
 33
0.0
  0
SOLID
  5
1809
330
74F
100
AcDbEntity
  8
DIM
100
AcDbTrace
 10
436.1301055731768
 20
212.5993205228177
 30
0.0
 11
437.1301055731769
 21
212.5993205228177
 31
0.0
 12
436.6301055731768
 22
209.5993205228177
 32
0.0
 13
436.6301055731768
 23
209.5993205228177
 33
0.0
  0
MTEXT
  5
180A
330
74F
100
AcDbEntity
  8
DIM
100
AcDbMText
 10
434.3301055731767
 20
219.5993205228178
 30
0.0
 40
3.0
 41
0.0
 71
     5
 72
     1
  1
\A1;20
  7
DAYUS
 11
0.0000000000000001
 21
1.0
 31
0.0
 73
     1
 44
1.0
1001
ACAD
1000
MTEXTBEGIN
1070
    73
1070
     1
1070
    44
1040
1.0
1070
    74
1070
     0
1000
MTEXTEND
  0
POINT
  5
180B
330
74F
100
AcDbEntity
  8
Defpoints
 62
     0
100
AcDbPoint
 10
463.2795449497808
 20
229.5993205228177
 30
0.0
  0
POINT
  5
180C
330
74F
100
AcDbEntity
  8
Defpoints
 62
     0
100
AcDbPoint
 10
466.4295449497808
 20
209.5993205228177
 30
0.0
  0
POINT
  5
180D
330
74F
100
AcDbEntity
  8
Defpoints
 62
     0
100
AcDbPoint
 10
436.6301055731768
 20
209.5993205228177
 30
0.0
  0
ENDBLK
  5
75A
330
74F
100
AcDbEntity
  8
0
100
AcDbBlockEnd
  0
BLOCK
  5
765
330
75B
100
AcDbEntity
  8
0
100
AcDbBlockBegin
  2
*D4
 70
     1
 10
0.0
 20
0.0
 30
0.0
  3
*D4
  1

  0
LINE
  5
17FC
330
75B
100
AcDbEntity
  8
DIM
100
AcDbLine
 10
466.5655449497808
 20
219.5993205228175
 30
0.0
 11
452.1023701483619
 21
219.5993205228175
 31
0.0
  0
LINE
  5
17FD
330
75B
100
AcDbEntity
  8
DIM
100
AcDbLine
 10
464.9295449497808
 20
209.5993205228177
 30
0.0
 11
452.1023701483619
 21
209.5993205228177
 31
0.0
  0
LINE
  5
17FE
330
75B
100
AcDbEntity
  8
DIM
100
AcDbLine
 10
454.1023701483618
 20
216.5993205228176
 30
0.0
 11
454.1023701483618
 21
212.5993205228177
 31
0.0
  0
SOLID
  5
17FF
330
75B
100
AcDbEntity
  8
DIM
100
AcDbTrace
 10
453.6023701483618
 20
216.5993205228176
 30
0.0
 11
454.6023701483618
 21
216.5993205228176
 31
0.0
 12
454.1023701483618
 22
219.5993205228175
 32
0.0
 13
454.1023701483618
 23
219.5993205228175
 33
0.0
  0
SOLID
  5
1800
330
75B
100
AcDbEntity
  8
DIM
100
AcDbTrace
 10
453.6023701483618
 20
212.5993205228177
 30
0.0
 11
454.6023701483618
 21
212.5993205228177
 31
0.0
 12
454.1023701483618
 22
209.5993205228177
 32
0.0
 13
454.1023701483618
 23
209.5993205228177
 33
0.0
  0
MTEXT
  5
1801
330
75B
100
AcDbEntity
  8
DIM
100
AcDbMText
 10
451.8023701483618
 20
214.5993205228177
 30
0.0
 40
3.0
 41
0.0
 71
     5
 72
     1
  1
\A1;10
  7
DAYUS
 11
0.0000000000000001
 21
1.0
 31
0.0
 73
     1
 44
1.0
1001
ACAD
1000
MTEXTBEGIN
1070
    73
1070
     1
1070
    44
1040
1.0
1070
    74
1070
     0
1000
MTEXTEND
  0
POINT
  5
1802
330
75B
100
AcDbEntity
  8
Defpoints
 62
     0
100
AcDbPoint
 10
468.0655449497808
 20
219.5993205228175
 30
0.0
  0
POINT
  5
1803
330
75B
100
AcDbEntity
  8
Defpoints
 62
     0
100
AcDbPoint
 10
466.4295449497808
 20
209.5993205228177
 30
0.0
  0
POINT
  5
1804
330
75B
100
AcDbEntity
  8
Defpoints
 62
     0
100
AcDbPoint
 10
454.1023701483618
 20
209.5993205228177
 30
0.0
  0
ENDBLK
  5
766
330
75B
100
AcDbEntity
  8
0
100
AcDbBlockEnd
  0
BLOCK
  5
771
330
767
100
AcDbEntity
  8
0
100
AcDbBlockBegin
  2
*D5
 70
     1
 10
0.0
 20
0.0
 30
0.0
  3
*D5
  1

  0
LINE
  5
17F3
330
767
100
AcDbEntity
  8
DIM
100
AcDbLine
 10
452.429544149781
 20
278.1353607036441
 30
0.0
 11
452.429544149781
 21
292.0165737042227
 31
0.0
  0
LINE
  5
17F4
330
767
100
AcDbEntity
  8
DIM
100
AcDbLine
 10
493.4295457497807
 20
278.1353607036441
 30
0.0
 11
493.4295457497807
 21
292.0165737042227
 31
0.0
  0
LINE
  5
17F5
330
767
100
AcDbEntity
  8
DIM
100
AcDbLine
 10
455.429544149781
 20
290.0165737042227
 30
0.0
 11
490.4295457497807
 21
290.0165737042227
 31
0.0
  0
SOLID
  5
17F6
330
767
100
AcDbEntity
  8
DIM
100
AcDbTrace
 10
455.429544149781
 20
290.5165737042227
 30
0.0
 11
455.429544149781
 21
289.5165737042227
 31
0.0
 12
452.429544149781
 22
290.0165737042227
 32
0.0
 13
452.429544149781
 23
290.0165737042227
 33
0.0
  0
SOLID
  5
17F7
330
767
100
AcDbEntity
  8
DIM
100
AcDbTrace
 10
490.4295457497807
 20
290.5165737042227
 30
0.0
 11
490.4295457497807
 21
289.5165737042227
 31
0.0
 12
493.4295457497807
 22
290.0165737042227
 32
0.0
 13
493.4295457497807
 23
290.0165737042227
 33
0.0
  0
MTEXT
  5
17F8
330
767
100
AcDbEntity
  8
DIM
100
AcDbMText
 10
472.9295449497808
 20
292.3165737042227
 30
0.0
 40
3.0
 41
0.0
 71
     5
 72
     1
  1
\A1;%%c41
  7
DAYUS
 73
     1
 44
1.0
1001
ACAD
1000
MTEXTBEGIN
1070
    73
1070
     1
1070
    44
1040
1.0
1070
    74
1070
     0
1000
MTEXTEND
  0
POINT
  5
17F9
330
767
100
AcDbEntity
  8
Defpoints
 62
     0
100
AcDbPoint
 10
452.429544149781
 20
276.6353607036441
 30
0.0
  0
POINT
  5
17FA
330
767
100
AcDbEntity
  8
Defpoints
 62
     0
100
AcDbPoint
 10
493.4295457497807
 20
276.6353607036441
 30
0.0
  0
POINT
  5
17FB
330
767
100
AcDbEntity
  8
Defpoints
 62
     0
100
AcDbPoint
 10
493.4295457497807
 20
290.0165737042227
 30
0.0
  0
ENDBLK
  5
772
330
767
100
AcDbEntity
  8
0
100
AcDbBlockEnd
  0
BLOCK
  5
8CF
330
8C5
100
AcDbEntity
  8
0
100
AcDbBlockBegin
  2
*D34
 70
     1
 10
0.0
 20
0.0
 30
0.0
  3
*D34
  1

  0
LINE
  5
1749
330
8C5
100
AcDbEntity
  8
DIM
100
AcDbLine
 10
452.4295441497809
 20
166.3489461953325
 30
0.0
 11
452.4295441497809
 21
182.6165255504539
 31
0.0
  0
LINE
  5
174A
330
8C5
100
AcDbEntity
  8
DIM
100
AcDbLine
 10
493.4295457497809
 20
166.3489461953323
 30
0.0
 11
493.4295457497809
 21
182.6165255504539
 31
0.0
  0
LINE
  5
174B
330
8C5
100
AcDbEntity
  8
DIM
100
AcDbLine
 10
455.4295441497808
 20
180.616525550454
 30
0.0
 11
490.429545749781
 21
180.616525550454
 31
0.0
  0
SOLID
  5
174C
330
8C5
100
AcDbEntity
  8
DIM
100
AcDbTrace
 10
455.4295441497808
 20
181.116525550454
 30
0.0
 11
455.4295441497808
 21
180.116525550454
 31
0.0
 12
452.4295441497809
 22
180.616525550454
 32
0.0
 13
452.4295441497809
 23
180.616525550454
 33
0.0
  0
SOLID
  5
174D
330
8C5
100
AcDbEntity
  8
DIM
100
AcDbTrace
 10
490.429545749781
 20
181.116525550454
 30
0.0
 11
490.429545749781
 21
180.116525550454
 31
0.0
 12
493.4295457497809
 22
180.616525550454
 32
0.0
 13
493.4295457497809
 23
180.616525550454
 33
0.0
  0
MTEXT
  5
174E
330
8C5
100
AcDbEntity
  8
DIM
100
AcDbMText
 10
472.929544949781
 20
182.916525550454
 30
0.0
 40
3.0
 41
0.0
 71
     5
 72
     1
  1
\A1;%%c41
  7
DAYUS
 73
     1
 44
1.0
1001
ACAD
1000
MTEXTBEGIN
1070
    73
1070
     1
1070
    44
1040
1.0
1070
    74
1070
     0
1000
MTEXTEND
  0
POINT
  5
174F
330
8C5
100
AcDbEntity
  8
Defpoints
 62
     0
100
AcDbPoint
 10
452.4295441497809
 20
164.8489461953325
 30
0.0
  0
POINT
  5
1750
330
8C5
100
AcDbEntity
  8
Defpoints
 62
     0
100
AcDbPoint
 10
493.4295457497809
 20
164.8489461953323
 30
0.0
  0
POINT
  5
1751
330
8C5
100
AcDbEntity
  8
Defpoints
 62
     0
100
AcDbPoint
 10
493.4295457497809
 20
180.616525550454
 30
0.0
  0
ENDBLK
  5
8D0
330
8C5
100
AcDbEntity
  8
0
100
AcDbBlockEnd
  0
BLOCK
  5
8DB
330
8D1
100
AcDbEntity
  8
0
100
AcDbBlockBegin
  2
*D35
 70
     1
 10
0.0
 20
0.0
 30
0.0
  3
*D35
  1

  0
LINE
  5
1752
330
8D1
100
AcDbEntity
  8
DIM
100
AcDbLine
 10
457.9295449497808
 20
167.8129060145059
 30
0.0
 11
427.3829390760502
 21
167.812906014506
 31
0.0
  0
LINE
  5
1753
330
8D1
100
AcDbEntity
  8
DIM
100
AcDbLine
 10
466.9295449497808
 20
89.81290601450606
 30
0.0
 11
427.3829390760501
 21
89.81290601450606
 31
0.0
  0
LINE
  5
1754
330
8D1
100
AcDbEntity
  8
DIM
100
AcDbLine
 10
429.3829390760501
 20
164.812906014506
 30
0.0
 11
429.3829390760501
 21
92.81290601450605
 31
0.0
  0
SOLID
  5
1755
330
8D1
100
AcDbEntity
  8
DIM
100
AcDbTrace
 10
428.8829390760501
 20
164.812906014506
 30
0.0
 11
429.8829390760501
 21
164.812906014506
 31
0.0
 12
429.3829390760501
 22
167.812906014506
 32
0.0
 13
429.3829390760501
 23
167.812906014506
 33
0.0
  0
SOLID
  5
1756
330
8D1
100
AcDbEntity
  8
DIM
100
AcDbTrace
 10
428.8829390760501
 20
92.81290601450605
 30
0.0
 11
429.8829390760501
 21
92.81290601450605
 31
0.0
 12
429.3829390760501
 22
89.81290601450606
 32
0.0
 13
429.3829390760501
 23
89.81290601450606
 33
0.0
  0
MTEXT
  5
1757
330
8D1
100
AcDbEntity
  8
DIM
100
AcDbMText
 10
426.2972247903358
 20
128.8129060145061
 30
0.0
 40
3.0
 41
0.0
 71
     5
 72
     1
  1
\A1;(78)
  7
DAYUS
 11
0.0000000000000001
 21
1.0
 31
0.0
 73
     1
 44
1.0
1001
ACAD
1000
MTEXTBEGIN
1070
    73
1070
     1
1070
    44
1040
1.0
1070
    74
1070
     0
1000
MTEXTEND
  0
POINT
  5
1758
330
8D1
100
AcDbEntity
  8
Defpoints
 62
     0
100
AcDbPoint
 10
459.4295449497808
 20
167.8129060145059
 30
0.0
  0
POINT
  5
1759
330
8D1
100
AcDbEntity
  8
Defpoints
 62
     0
100
AcDbPoint
 10
468.4295449497808
 20
89.81290601450606
 30
0.0
  0
POINT
  5
175A
330
8D1
100
AcDbEntity
  8
Defpoints
 62
     0
100
AcDbPoint
 10
429.3829390760501
 20
89.81290601450606
 30
0.0
  0
ENDBLK
  5
8DC
330
8D1
100
AcDbEntity
  8
0
100
AcDbBlockEnd
  0
BLOCK
  5
8E7
330
8DD
100
AcDbEntity
  8
0
100
AcDbBlockBegin
  2
*D36
 70
     1
 10
0.0
 20
0.0
 30
0.0
  3
*D36
  1

  0
LINE
  5
175B
330
8DD
100
AcDbEntity
  8
DIM
100
AcDbLine
 10
457.4009285499052
 20
167.8129060145061
 30
0.0
 11
442.5241689396122
 21
167.8129060145061
 31
0.0
  0
LINE
  5
175C
330
8DD
100
AcDbEntity
  8
DIM
100
AcDbLine
 10
460.929544949781
 20
120.816237534506
 30
0.0
 11
442.5241689396121
 21
120.816237534506
 31
0.0
  0
LINE
  5
175D
330
8DD
100
AcDbEntity
  8
DIM
100
AcDbLine
 10
444.5241689396121
 20
164.8129060145061
 30
0.0
 11
444.5241689396121
 21
123.816237534506
 31
0.0
  0
SOLID
  5
175E
330
8DD
100
AcDbEntity
  8
DIM
100
AcDbTrace
 10
444.0241689396121
 20
164.8129060145061
 30
0.0
 11
445.0241689396121
 21
164.8129060145061
 31
0.0
 12
444.5241689396121
 22
167.8129060145061
 32
0.0
 13
444.5241689396121
 23
167.8129060145061
 33
0.0
  0
SOLID
  5
175F
330
8DD
100
AcDbEntity
  8
DIM
100
AcDbTrace
 10
444.0241689396121
 20
123.816237534506
 30
0.0
 11
445.0241689396121
 21
123.816237534506
 31
0.0
 12
444.5241689396121
 22
120.816237534506
 32
0.0
 13
444.5241689396121
 23
120.816237534506
 33
0.0
  0
MTEXT
  5
1760
330
8DD
100
AcDbEntity
  8
DIM
100
AcDbMText
 10
442.2241689396121
 20
144.3145717745061
 30
0.0
 40
3.0
 41
0.0
 71
     5
 72
     1
  1
\A1;47
  7
DAYUS
 11
0.0000000000000001
 21
1.0
 31
0.0
 73
     1
 44
1.0
1001
ACAD
1000
MTEXTBEGIN
1070
    73
1070
     1
1070
    44
1040
1.0
1070
    74
1070
     0
1000
MTEXTEND
  0
POINT
  5
1761
330
8DD
100
AcDbEntity
  8
Defpoints
 62
     0
100
AcDbPoint
 10
458.9009285499052
 20
167.8129060145061
 30
0.0
  0
POINT
  5
1762
330
8DD
100
AcDbEntity
  8
Defpoints
 62
     0
100
AcDbPoint
 10
462.429544949781
 20
120.816237534506
 30
0.0
  0
POINT
  5
1763
330
8DD
100
AcDbEntity
  8
Defpoints
 62
     0
100
AcDbPoint
 10
444.5241689396121
 20
120.816237534506
 30
0.0
  0
ENDBLK
  5
8E8
330
8DD
100
AcDbEntity
  8
0
100
AcDbBlockEnd
  0
BLOCK
  5
8F3
330
8E9
100
AcDbEntity
  8
0
100
AcDbBlockBegin
  2
*D37
 70
     1
 10
0.0
 20
0.0
 30
0.0
  3
*D37
  1

  0
LINE
  5
1764
330
8E9
100
AcDbEntity
  8
DIM
100
AcDbLine
 10
464.6795449497808
 20
114.316237534506
 30
0.0
 11
442.5241689396121
 21
114.316237534506
 31
0.0
  0
LINE
  5
1765
330
8E9
100
AcDbEntity
  8
DIM
100
AcDbLine
 10
466.4295449497808
 20
99.81290601450606
 30
0.0
 11
442.5241689396121
 21
99.81290601450606
 31
0.0
  0
LINE
  5
1766
330
8E9
100
AcDbEntity
  8
DIM
100
AcDbLine
 10
444.5241689396121
 20
111.316237534506
 30
0.0
 11
444.5241689396121
 21
102.812906014506
 31
0.0
  0
SOLID
  5
1767
330
8E9
100
AcDbEntity
  8
DIM
100
AcDbTrace
 10
444.0241689396121
 20
111.316237534506
 30
0.0
 11
445.0241689396121
 21
111.316237534506
 31
0.0
 12
444.5241689396121
 22
114.316237534506
 32
0.0
 13
444.5241689396121
 23
114.316237534506
 33
0.0
  0
SOLID
  5
1768
330
8E9
100
AcDbEntity
  8
DIM
100
AcDbTrace
 10
444.0241689396121
 20
102.812906014506
 30
0.0
 11
445.0241689396121
 21
102.812906014506
 31
0.0
 12
444.5241689396121
 22
99.81290601450606
 32
0.0
 13
444.5241689396121
 23
99.81290601450606
 33
0.0
  0
MTEXT
  5
1769
330
8E9
100
AcDbEntity
  8
DIM
100
AcDbMText
 10
442.2241689396121
 20
107.0645717745061
 30
0.0
 40
3.0
 41
0.0
 71
     5
 72
     1
  1
\A1;14.5
  7
DAYUS
 11
0.0000000000000001
 21
1.0
 31
0.0
 73
     1
 44
1.0
1001
ACAD
1000
MTEXTBEGIN
1070
    73
1070
     1
1070
    44
1040
1.0
1070
    74
1070
     0
1000
MTEXTEND
  0
POINT
  5
176A
330
8E9
100
AcDbEntity
  8
Defpoints
 62
     0
100
AcDbPoint
 10
466.1795449497808
 20
114.316237534506
 30
0.0
  0
POINT
  5
176B
330
8E9
100
AcDbEntity
  8
Defpoints
 62
     0
100
AcDbPoint
 10
467.9295449497808
 20
99.81290601450606
 30
0.0
  0
POINT
  5
176C
330
8E9
100
AcDbEntity
  8
Defpoints
 62
     0
100
AcDbPoint
 10
444.5241689396121
 20
99.81290601450606
 30
0.0
  0
ENDBLK
  5
8F4
330
8E9
100
AcDbEntity
  8
0
100
AcDbBlockEnd
  0
BLOCK
  5
8FF
330
8F5
100
AcDbEntity
  8
0
100
AcDbBlockBegin
  2
*D38
 70
     1
 10
0.0
 20
0.0
 30
0.0
  3
*D38
  1

  0
LINE
  5
176D
330
8F5
100
AcDbEntity
  8
DIM
100
AcDbLine
 10
466.9295449497808
 20
89.81290601450606
 30
0.0
 11
442.5241689396121
 21
89.81290601450606
 31
0.0
  0
LINE
  5
176E
330
8F5
100
AcDbEntity
  8
DIM
100
AcDbLine
 10
466.4295449497808
 20
99.81290601450606
 30
0.0
 11
442.5241689396121
 21
99.81290601450606
 31
0.0
  0
LINE
  5
176F
330
8F5
100
AcDbEntity
  8
DIM
100
AcDbLine
 10
444.5241689396121
 20
92.81290601450605
 30
0.0
 11
444.5241689396121
 21
96.81290601450605
 31
0.0
  0
SOLID
  5
1770
330
8F5
100
AcDbEntity
  8
DIM
100
AcDbTrace
 10
444.0241689396121
 20
92.81290601450605
 30
0.0
 11
445.0241689396121
 21
92.81290601450605
 31
0.0
 12
444.5241689396121
 22
89.81290601450606
 32
0.0
 13
444.5241689396121
 23
89.81290601450606
 33
0.0
  0
SOLID
  5
1771
330
8F5
100
AcDbEntity
  8
DIM
100
AcDbTrace
 10
444.0241689396121
 20
96.81290601450605
 30
0.0
 11
445.0241689396121
 21
96.81290601450605
 31
0.0
 12
444.5241689396121
 22
99.81290601450606
 32
0.0
 13
444.5241689396121
 23
99.81290601450606
 33
0.0
  0
MTEXT
  5
1772
330
8F5
100
AcDbEntity
  8
DIM
100
AcDbMText
 10
442.2241689396121
 20
94.81290601450613
 30
0.0
 40
3.0
 41
0.0
 71
     5
 72
     1
  1
\A1;10
  7
DAYUS
 11
0.0000000000000001
 21
1.0
 31
0.0
 73
     1
 44
1.0
1001
ACAD
1000
MTEXTBEGIN
1070
    73
1070
     1
1070
    44
1040
1.0
1070
    74
1070
     0
1000
MTEXTEND
  0
POINT
  5
1773
330
8F5
100
AcDbEntity
  8
Defpoints
 62
     0
100
AcDbPoint
 10
468.4295449497808
 20
89.81290601450606
 30
0.0
  0
POINT
  5
1774
330
8F5
100
AcDbEntity
  8
Defpoints
 62
     0
100
AcDbPoint
 10
467.9295449497808
 20
99.81290601450606
 30
0.0
  0
POINT
  5
1775
330
8F5
100
AcDbEntity
  8
Defpoints
 62
     0
100
AcDbPoint
 10
444.5241689396121
 20
99.81290601450606
 30
0.0
  0
ENDBLK
  5
900
330
8F5
100
AcDbEntity
  8
0
100
AcDbBlockEnd
  0
BLOCK
  5
1174
330
1172
100
AcDbEntity
  8
0
100
AcDbBlockBegin
  2
GENAXEH
 70
     0
 10
0.0
 20
0.0
 30
0.0
  3
GENAXEH
  1

  0
LINE
  5
1173
330
1172
100
AcDbEntity
  8
0
100
AcDbLine
 10
-1.0
 20
0.0
 30
0.0
 11
1.0
 21
0.0
 31
0.0
  0
ENDBLK
  5
1175
330
1172
100
AcDbEntity
  8
0
100
AcDbBlockEnd
  0
BLOCK
  5
1211
330
120C
100
AcDbEntity
  8
0
100
AcDbBlockBegin
  2
*S4040
 70
     1
 10
0.0
 20
0.0
 30
0.0
  3
*S4040
  1

  0
LINE
  5
120D
330
120C
100
AcDbEntity
  8
AM_5
100
AcDbLine
 10
87.25382981608118
 20
60.6397941911867
 30
0.0
 11
73.55584002058026
 21
60.6397941911867
 31
0.0
  0
LINE
  5
120E
330
120C
100
AcDbEntity
  8
AM_5
100
AcDbLine
 10
73.55584002058026
 20
60.6397941911867
 30
0.0
 11
67.83435724278702
 21
67.19693560397303
 31
0.0
  0
TRACE
  5
120F
330
120C
100
AcDbEntity
  8
AM_5
100
AcDbTrace
 10
68.1815522771183
 20
67.49988322770247
 30
0.0
 11
67.48716220845579
 21
66.89398798024356
 31
0.0
 12
65.53324157363682
 22
69.83414372567885
 32
0.0
 13
65.53324157363682
 23
69.83414372567885
 33
0.0
  0
MTEXT
  5
1210
330
120C
100
AcDbEntity
  8
AM_5
 62
     2
100
AcDbMText
 10
87.25382981608118
 20
59.39544609492207
 30
0.0
 40
3.5
 41
0.0
 71
     7
 72
     5
  1

  7
ACISOTS
 73
     1
 44
1.0
1001
ACAD
1000
MTEXTBEGIN
1070
    73
1070
     1
1070
    44
1040
1.0
1070
    74
1070
     0
1000
MTEXTEND
  0
ENDBLK
  5
1212
330
120C
100
AcDbEntity
  8
0
100
AcDbBlockEnd
  0
BLOCK
  5
1219
330
1214
100
AcDbEntity
  8
0
100
AcDbBlockBegin
  2
*S4141
 70
     1
 10
0.0
 20
0.0
 30
0.0
  3
*S4141
  1

  0
LINE
  5
1215
330
1214
100
AcDbEntity
  8
AM_5
100
AcDbLine
 10
91.38355663673815
 20
71.17782043053347
 30
0.0
 11
74.72575647506983
 21
71.17782043053347
 31
0.0
  0
LINE
  5
1216
330
1214
100
AcDbEntity
  8
AM_5
100
AcDbLine
 10
74.72575647506983
 20
71.17782043053347
 30
0.0
 11
69.0042736972766
 21
77.73496184331979
 31
0.0
  0
TRACE
  5
1217
330
1214
100
AcDbEntity
  8
AM_5
100
AcDbTrace
 10
69.35146873160785
 20
78.03790946704925
 30
0.0
 11
68.65707866294535
 21
77.43201421959034
 31
0.0
 12
66.70315802812638
 22
80.37216996502564
 32
0.0
 13
66.70315802812638
 23
80.37216996502564
 33
0.0
  0
MTEXT
  5
1218
330
1214
100
AcDbEntity
  8
AM_5
 62
     2
100
AcDbMText
 10
91.38355663673815
 20
68.43276943025734
 30
0.0
 40
3.5
 41
0.0
 71
     7
 72
     5
  1

  7
ACISOTS
 73
     1
 44
1.0
1001
ACAD
1000
MTEXTBEGIN
1070
    73
1070
     1
1070
    44
1040
1.0
1070
    74
1070
     0
1000
MTEXTEND
  0
ENDBLK
  5
121A
330
1214
100
AcDbEntity
  8
0
100
AcDbBlockEnd
  0
BLOCK
  5
1480
330
1476
100
AcDbEntity
  8
0
100
AcDbBlockBegin
  2
*D49
 70
     1
 10
0.0
 20
0.0
 30
0.0
  3
*D49
  1

  0
LINE
  5
17EA
330
1476
100
AcDbEntity
  8
DIM
100
AcDbLine
 10
465.2795449497808
 20
213.5993205228177
 30
0.0
 11
465.2795449497808
 21
193.8149849008749
 31
0.0
  0
LINE
  5
17EB
330
1476
100
AcDbEntity
  8
DIM
100
AcDbLine
 10
480.5795449497808
 20
213.5993205228177
 30
0.0
 11
480.5795449497808
 21
193.8149849008749
 31
0.0
  0
LINE
  5
17EC
330
1476
100
AcDbEntity
  8
DIM
100
AcDbLine
 10
468.2795449497809
 20
195.8149849008749
 30
0.0
 11
477.5795449497809
 21
195.8149849008749
 31
0.0
  0
SOLID
  5
17ED
330
1476
100
AcDbEntity
  8
DIM
100
AcDbTrace
 10
468.2795449497809
 20
196.3149849008749
 30
0.0
 11
468.2795449497809
 21
195.3149849008749
 31
0.0
 12
465.2795449497808
 22
195.8149849008749
 32
0.0
 13
465.2795449497808
 23
195.8149849008749
 33
0.0
  0
SOLID
  5
17EE
330
1476
100
AcDbEntity
  8
DIM
100
AcDbTrace
 10
477.5795449497809
 20
196.3149849008749
 30
0.0
 11
477.5795449497809
 21
195.3149849008749
 31
0.0
 12
480.5795449497808
 22
195.8149849008749
 32
0.0
 13
480.5795449497808
 23
195.8149849008749
 33
0.0
  0
MTEXT
  5
17EF
330
1476
100
AcDbEntity
  8
DIM
100
AcDbMText
 10
472.5728260346636
 20
198.1149849008749
 30
0.0
 40
3.0
 41
0.0
 71
     5
 72
     1
  1
\A1;%%c15
  7
DAYUS
 73
     1
 44
1.0
1001
ACAD
1000
MTEXTBEGIN
1070
    73
1070
     1
1070
    44
1040
1.0
1070
    74
1070
     0
1000
MTEXTEND
  0
POINT
  5
17F0
330
1476
100
AcDbEntity
  8
Defpoints
 62
     0
100
AcDbPoint
 10
465.2795449497808
 20
215.0993205228177
 30
0.0
  0
POINT
  5
17F1
330
1476
100
AcDbEntity
  8
Defpoints
 62
     0
100
AcDbPoint
 10
480.5795449497808
 20
215.0993205228177
 30
0.0
  0
POINT
  5
17F2
330
1476
100
AcDbEntity
  8
Defpoints
 62
     0
100
AcDbPoint
 10
480.5795449497808
 20
195.8149849008749
 30
0.0
  0
ENDBLK
  5
1481
330
1476
100
AcDbEntity
  8
0
100
AcDbBlockEnd
  0
ENDSEC
  0
SECTION
  2
ENTITIES
  0
DIMENSION
  5
4B0
330
1F
100
AcDbEntity
  8
DIM
100
AcDbDimension
  2
*D34
 10
493.4295457497809
 20
180.616525550454
 30
0.0
 11
472.929544949781
 21
182.916525550454
 31
0.0
 70
    32
  1
%%c<>
 71
     5
 42
41.00000160000013
  3
STANDARD
100
AcDbAlignedDimension
 13
452.4295441497809
 23
164.8489461953325
 33
0.0
 14
493.4295457497809
 24
164.8489461953323
 34
0.0
100
AcDbRotatedDimension
  0
DIMENSION
  5
4E5
330
1F
100
AcDbEntity
  8
DIM
100
AcDbDimension
  2
*D35
 10
429.3829390760501
 20
89.81290601450606
 30
0.0
 11
426.2972247903358
 21
128.8129060145061
 31
0.0
 70
    32
  1
(<>)
 71
     5
 42
77.99999999999994
  3
STANDARD
100
AcDbAlignedDimension
 13
459.4295449497808
 23
167.8129060145059
 33
0.0
 14
468.4295449497808
 24
89.81290601450606
 34
0.0
 50
90.0
100
AcDbRotatedDimension
  0
DIMENSION
  5
4E6
330
1F
100
AcDbEntity
  8
DIM
100
AcDbDimension
  2
*D36
 10
444.5241689396121
 20
120.816237534506
 30
0.0
 11
442.2241689396121
 21
144.3145717745061
 31
0.0
 70
    32
 71
     5
 42
46.99666848000011
  3
STANDARD
100
AcDbAlignedDimension
 13
458.9009285499052
 23
167.8129060145061
 33
0.0
 14
462.429544949781
 24
120.816237534506
 34
0.0
 50
90.0
100
AcDbRotatedDimension
  0
DIMENSION
  5
4E7
330
1F
100
AcDbEntity
  8
DIM
100
AcDbDimension
  2
*D37
 10
444.5241689396121
 20
99.81290601450606
 30
0.0
 11
442.2241689396121
 21
107.0645717745061
 31
0.0
 70
    32
 71
     5
 42
14.50333151999994
  3
STANDARD
100
AcDbAlignedDimension
 13
466.1795449497808
 23
114.316237534506
 33
0.0
 14
467.9295449497808
 24
99.81290601450606
 34
0.0
 50
90.0
100
AcDbRotatedDimension
  0
DIMENSION
  5
4E8
330
1F
100
AcDbEntity
  8
DIM
100
AcDbDimension
  2
*D38
 10
444.5241689396121
 20
99.81290601450606
 30
0.0
 11
442.2241689396121
 21
94.81290601450613
 31
0.0
 70
    32
 71
     5
 42
10.0
  3
STANDARD
100
AcDbAlignedDimension
 13
468.4295449497808
 23
89.81290601450606
 33
0.0
 14
467.9295449497808
 24
99.81290601450606
 34
0.0
 50
90.0
100
AcDbRotatedDimension
  0
ARC
  5
4EA
330
1F
100
AcDbEntity
  8
AM_VIS
100
AcDbCircle
 10
461.9295449497808
 20
127.812906014506
 30
0.0
 40
7.0
100
AcDbArc
 50
180.0
 51
270.0
  0
LINE
  5
4EB
330
1F
100
AcDbEntity
  8
AM_VIS
100
AcDbLine
 10
452.4295449497808
 20
153.812906014506
 30
0.0
 11
493.4295449497808
 21
153.812906014506
 31
0.0
  0
LINE
  5
4EC
330
1F
100
AcDbEntity
  8
AM_VIS
100
AcDbLine
 10
452.4295449497808
 20
133.812906014506
 30
0.0
 11
493.4295449497808
 21
133.812906014506
 31
0.0
  0
LINE
  5
4ED
330
1F
100
AcDbEntity
  8
AM_VIS
100
AcDbLine
 10
452.4295449497808
 20
130.812906014506
 30
0.0
 11
493.4295449497808
 21
130.812906014506
 31
0.0
  0
LINE
  5
4EE
330
1F
100
AcDbEntity
  8
0
100
AcDbLine
 10
453.1636949618282
 20
165.8815960666964
 30
0.0
 11
458.5417459859522
 21
167.7522225098699
 31
0.0
  0
LINE
  5
4EF
330
1F
100
AcDbEntity
  8
0
100
AcDbLine
 10
452.6317871385804
 20
165.4824568842039
 30
0.0
 11
493.2273027609812
 21
165.4824568842039
 31
0.0
  0
LINE
  5
4F1
330
1F
100
AcDbEntity
  8
0
100
AcDbLine
 10
452.4295441497809
 20
164.8489461953325
 30
0.0
 11
452.4295441497809
 21
130.812906014506
 31
0.0
  0
ARC
  5
4F2
330
1F
100
AcDbEntity
  8
0
100
AcDbCircle
 10
453.5228775257809
 20
164.8489461953325
 30
0.0
 40
1.093333375999999
100
AcDbArc
 50
109.1790080258155
 51
180.0
  0
ARC
  5
4F3
330
1F
100
AcDbEntity
  8
AM_VIS
100
AcDbCircle
 10
483.9295449497808
 20
127.812906014506
 30
0.0
 40
7.0
100
AcDbArc
 50
270.0
 51
0.0
  0
TEXT
  5
4F5
330
1F
100
AcDbEntity
  8
AM_5
100
AcDbText
 10
486.8661493982993
 20
85.21198170009411
 30
0.0
 40
3.0
  1
PT 1/8
100
AcDbText
  0
INSERT
  5
4F6
330
1F
100
AcDbEntity
  8
AM_5
100
AcDbBlockReference
  2
*S4040
 10
412.288514449426
 20
23.56833639199732
 30
0.0
  0
TEXT
  5
4F9
330
1F
100
AcDbEntity
  8
AM_5
100
AcDbText
 10
487.264035902507
 20
95.44578077804017
 30
0.0
 40
3.0
  1
M12x1.25
100
AcDbText
  0
INSERT
  5
4FA
330
1F
100
AcDbEntity
  8
AM_5
100
AcDbBlockReference
  2
*S4141
 10
412.288514449426
 20
23.56833639199732
 30
0.0
  0
LINE
  5
4FD
330
1F
100
AcDbEntity
  8
AM_4
100
AcDbLine
 10
468.6795449497808
 20
89.81290601450604
 30
0.0
 11
468.6795449497808
 21
99.81290601450604
 31
0.0
  0
LINE
  5
4FE
330
1F
100
AcDbEntity
  8
0
100
AcDbLine
 10
467.9295449497808
 20
99.81290601450604
 30
0.0
 11
467.9295449497808
 21
90.31290601450605
 31
0.0
  0
LINE
  5
4FF
330
1F
100
AcDbEntity
  8
AM_4
100
AcDbLine
 10
477.214544949781
 20
89.81290601450604
 30
0.0
 11
477.214544949781
 21
99.81290601450604
 31
0.0
  0
LINE
  5
500
330
1F
100
AcDbEntity
  8
0
100
AcDbLine
 10
477.9295449497808
 20
99.81290601450604
 30
0.0
 11
477.9295449497808
 21
90.31290601450605
 31
0.0
  0
LINE
  5
501
330
1F
100
AcDbEntity
  8
AM_VIS
100
AcDbLine
 10
477.9295449497808
 20
90.31290601450605
 30
0.0
 11
467.9295449497808
 21
90.31290601450605
 31
0.0
  0
LINE
  5
502
330
1F
100
AcDbEntity
  8
AM_VIS
100
AcDbLine
 10
472.9295449497808
 20
89.81290601450604
 30
0.0
 11
477.4295449497808
 21
89.81290601450604
 31
0.0
  0
LINE
  5
504
330
1F
100
AcDbEntity
  8
0
100
AcDbLine
 10
468.4295449497808
 20
89.81290601450604
 30
0.0
 11
467.9295449497808
 21
90.31290601450605
 31
0.0
  0
LINE
  5
505
330
1F
100
AcDbEntity
  8
AM_VIS
100
AcDbLine
 10
472.9295449497808
 20
89.81290601450604
 30
0.0
 11
468.4295449497808
 21
89.81290601450604
 31
0.0
  0
LINE
  5
506
330
1F
100
AcDbEntity
  8
0
100
AcDbLine
 10
477.4295449497808
 20
89.81290601450604
 30
0.0
 11
477.9295449497808
 21
90.31290601450605
 31
0.0
  0
LINE
  5
507
330
1F
100
AcDbEntity
  8
AM_VIS
100
AcDbLine
 10
478.929544949781
 20
100.812906014506
 30
0.0
 11
466.9295449497808
 21
100.812906014506
 31
0.0
  0
LINE
  5
508
330
1F
100
AcDbEntity
  8
AM_VIS
100
AcDbLine
 10
477.9295449497811
 20
99.81290601450604
 30
0.0
 11
467.9295449497808
 21
99.81290601450604
 31
0.0
  0
LINE
  5
509
330
1F
100
AcDbEntity
  8
AM_VIS
100
AcDbLine
 10
479.6795449497808
 20
114.316237534506
 30
0.0
 11
472.929544949781
 21
114.316237534506
 31
0.0
  0
LINE
  5
50A
330
1F
100
AcDbEntity
  8
AM_VIS
100
AcDbLine
 10
483.929544949781
 20
120.816237534506
 30
0.0
 11
461.929544949781
 21
120.816237534506
 31
0.0
  0
LINE
  5
50B
330
1F
100
AcDbEntity
  8
AM_VIS
100
AcDbLine
 10
483.429544949781
 20
118.316237534506
 30
0.0
 11
462.429544949781
 21
118.316237534506
 31
0.0
  0
LINE
  5
50C
330
1F
100
AcDbEntity
  8
AM_VIS
100
AcDbLine
 10
482.4295449497811
 20
117.816237534506
 30
0.0
 11
472.929544949781
 21
117.816237534506
 31
0.0
  0
LINE
  5
50D
330
1F
100
AcDbEntity
  8
0
100
AcDbLine
 10
463.034877896981
 20
120.816237534506
 30
0.0
 11
482.8242120025808
 21
120.816237534506
 31
0.0
  0
LINE
  5
50E
330
1F
100
AcDbEntity
  8
0
100
AcDbLine
 10
464.4562112857808
 20
120.8162375345061
 30
0.0
 11
481.4028786137809
 21
120.8162375345061
 31
0.0
  0
LINE
  5
50F
330
1F
100
AcDbEntity
  8
0
100
AcDbLine
 10
461.7136047243143
 20
120.8162375345061
 30
0.0
 11
484.1454851752471
 21
120.8162375345061
 31
0.0
  0
LINE
  5
510
330
1F
100
AcDbEntity
  8
0
100
AcDbLine
 10
461.7136047243136
 20
120.8162375345061
 30
0.0
 11
484.1454851752471
 21
120.8162375345061
 31
0.0
  0
LINE
  5
511
330
1F
100
AcDbEntity
  8
0
100
AcDbLine
 10
462.9295449497808
 20
110.136237022506
 30
0.0
 11
479.7628785497808
 21
110.136237022506
 31
0.0
  0
LINE
  5
512
330
1F
100
AcDbEntity
  8
0
100
AcDbLine
 10
462.9295449497808
 20
106.132903518506
 30
0.0
 11
479.7628785497808
 21
106.132903518506
 31
0.0
  0
LINE
  5
513
330
1F
100
AcDbEntity
  8
DIM
100
AcDbLine
 10
469.8747379499093
 20
110.136237022506
 30
0.0
 11
469.8747379499093
 21
106.132903518506
 31
0.0
  0
LINE
  5
514
330
1F
100
AcDbEntity
  8
DIM
100
AcDbLine
 10
468.7814045739095
 20
110.136237022506
 30
0.0
 11
468.7814045739095
 21
106.132903518506
 31
0.0
  0
LINE
  5
515
330
1F
100
AcDbEntity
  8
0
100
AcDbLine
 10
462.9295449497808
 20
110.136237022506
 30
0.0
 11
462.9295449497808
 21
106.132903518506
 31
0.0
  0
LINE
  5
516
330
1F
100
AcDbEntity
  8
DIM
100
AcDbLine
 10
465.3958160197464
 20
110.136237022506
 30
0.0
 11
465.3958160197464
 21
106.132903518506
 31
0.0
  0
LINE
  5
517
330
1F
100
AcDbEntity
  8
DIM
100
AcDbLine
 10
464.3024826437465
 20
110.136237022506
 30
0.0
 11
464.3024826437465
 21
106.132903518506
 31
0.0
  0
LINE
  5
518
330
1F
100
AcDbEntity
  8
AM_VIS
100
AcDbLine
 10
466.929544949781
 20
106.1329035185062
 30
0.0
 11
466.929544949781
 21
100.812906014506
 31
0.0
  0
LINE
  5
519
330
1F
100
AcDbEntity
  8
AM_4
100
AcDbLine
 10
467.6795449497809
 20
106.1329035185062
 30
0.0
 11
467.6795449497809
 21
100.812906014506
 31
0.0
  0
LINE
  5
51A
330
1F
100
AcDbEntity
  8
0
100
AcDbLine
 10
466.929544949781
 20
100.8129060145058
 30
0.0
 11
467.9295449497808
 21
99.81290601450604
 31
0.0
  0
LINE
  5
51B
330
1F
100
AcDbEntity
  8
AM_VIS
100
AcDbLine
 10
463.279544949781
 20
117.816237534506
 30
0.0
 11
472.929544949781
 21
117.816237534506
 31
0.0
  0
LINE
  5
51C
330
1F
100
AcDbEntity
  8
AM_VIS
100
AcDbLine
 10
463.279544949781
 20
118.316237534506
 30
0.0
 11
463.279544949781
 21
117.816237534506
 31
0.0
  0
LINE
  5
51D
330
1F
100
AcDbEntity
  8
AM_VIS
100
AcDbLine
 10
462.429544949781
 20
120.816237534506
 30
0.0
 11
462.429544949781
 21
118.316237534506
 31
0.0
  0
LINE
  5
51E
330
1F
100
AcDbEntity
  8
AM_4
100
AcDbLine
 10
466.929544949781
 20
114.316237534506
 30
0.0
 11
467.6795449497809
 21
113.816237534506
 31
0.0
  0
LINE
  5
51F
330
1F
100
AcDbEntity
  8
AM_4
100
AcDbLine
 10
467.6795449497809
 20
113.816237534506
 30
0.0
 11
467.6795449497809
 21
110.1362370225062
 31
0.0
  0
LINE
  5
520
330
1F
100
AcDbEntity
  8
AM_VIS
100
AcDbLine
 10
466.929544949781
 20
114.316237534506
 30
0.0
 11
466.929544949781
 21
110.1362370225062
 31
0.0
  0
LINE
  5
521
330
1F
100
AcDbEntity
  8
AM_VIS
100
AcDbLine
 10
466.1795449497808
 20
114.316237534506
 30
0.0
 11
472.9295449497808
 21
114.316237534506
 31
0.0
  0
LINE
  5
522
330
1F
100
AcDbEntity
  8
AM_VIS
100
AcDbLine
 10
466.1795449497808
 20
117.816237534506
 30
0.0
 11
466.1795449497808
 21
114.316237534506
 31
0.0
  0
LINE
  5
523
330
1F
100
AcDbEntity
  8
AM_VIS
100
AcDbLine
 10
465.279544949781
 20
117.816237534506
 30
0.0
 11
465.279544949781
 21
117.816237534506
 31
0.0
  0
LINE
  5
524
330
1F
100
AcDbEntity
  8
DIM
100
AcDbLine
 10
475.9843519496524
 20
110.136237022506
 30
0.0
 11
475.9843519496524
 21
106.132903518506
 31
0.0
  0
LINE
  5
525
330
1F
100
AcDbEntity
  8
DIM
100
AcDbLine
 10
477.0776853256523
 20
110.136237022506
 30
0.0
 11
477.0776853256523
 21
106.132903518506
 31
0.0
  0
LINE
  5
526
330
1F
100
AcDbEntity
  8
DIM
100
AcDbLine
 10
480.4632738798152
 20
110.136237022506
 30
0.0
 11
480.4632738798152
 21
106.132903518506
 31
0.0
  0
LINE
  5
527
330
1F
100
AcDbEntity
  8
DIM
100
AcDbLine
 10
481.5566072558153
 20
110.136237022506
 30
0.0
 11
481.5566072558153
 21
106.132903518506
 31
0.0
  0
LINE
  5
528
330
1F
100
AcDbEntity
  8
0
100
AcDbLine
 10
482.9295449497811
 20
110.136237022506
 30
0.0
 11
482.9295449497811
 21
106.132903518506
 31
0.0
  0
LINE
  5
529
330
1F
100
AcDbEntity
  8
0
100
AcDbLine
 10
482.9295449497808
 20
110.136237022506
 30
0.0
 11
482.9295449497808
 21
106.132903518506
 31
0.0
  0
LINE
  5
52A
330
1F
100
AcDbEntity
  8
0
100
AcDbLine
 10
478.9295449497808
 20
100.8129060145058
 30
0.0
 11
477.9295449497811
 21
99.81290601450604
 31
0.0
  0
LINE
  5
52B
330
1F
100
AcDbEntity
  8
AM_VIS
100
AcDbLine
 10
478.929544949781
 20
106.1329035185061
 30
0.0
 11
478.929544949781
 21
100.812906014506
 31
0.0
  0
LINE
  5
52C
330
1F
100
AcDbEntity
  8
AM_4
100
AcDbLine
 10
478.1795449497808
 20
106.1329035185061
 30
0.0
 11
478.1795449497808
 21
100.812906014506
 31
0.0
  0
LINE
  5
52D
330
1F
100
AcDbEntity
  8
0
100
AcDbLine
 10
479.7628785497808
 20
106.132903518506
 30
0.0
 11
482.9295449497811
 21
106.132903518506
 31
0.0
  0
LINE
  5
52E
330
1F
100
AcDbEntity
  8
AM_4
100
AcDbLine
 10
478.929544949781
 20
114.316237534506
 30
0.0
 11
478.1795449497808
 21
113.816237534506
 31
0.0
  0
LINE
  5
52F
330
1F
100
AcDbEntity
  8
AM_4
100
AcDbLine
 10
478.1795449497808
 20
113.816237534506
 30
0.0
 11
478.1795449497808
 21
110.1362370225062
 31
0.0
  0
LINE
  5
530
330
1F
100
AcDbEntity
  8
AM_VIS
100
AcDbLine
 10
478.929544949781
 20
114.316237534506
 30
0.0
 11
478.929544949781
 21
110.136237022506
 31
0.0
  0
LINE
  5
531
330
1F
100
AcDbEntity
  8
AM_VIS
100
AcDbLine
 10
479.6795449497808
 20
117.816237534506
 30
0.0
 11
479.6795449497808
 21
114.316237534506
 31
0.0
  0
LINE
  5
532
330
1F
100
AcDbEntity
  8
AM_VIS
100
AcDbLine
 10
482.4295449497811
 20
118.316237534506
 30
0.0
 11
482.4295449497811
 21
117.816237534506
 31
0.0
  0
LINE
  5
533
330
1F
100
AcDbEntity
  8
AM_VIS
100
AcDbLine
 10
483.429544949781
 20
120.816237534506
 30
0.0
 11
483.429544949781
 21
118.316237534506
 31
0.0
  0
LINE
  5
534
330
1F
100
AcDbEntity
  8
AM_VIS
100
AcDbLine
 10
480.5795449497808
 20
117.816237534506
 30
0.0
 11
480.5795449497808
 21
117.816237534506
 31
0.0
  0
LINE
  5
535
330
1F
100
AcDbEntity
  8
0
100
AcDbLine
 10
479.7628785497808
 20
110.136237022506
 30
0.0
 11
482.9295449497808
 21
110.136237022506
 31
0.0
  0
HATCH
  5
538
330
1F
100
AcDbEntity
  8
AM_8
100
AcDbHatch
 10
0.0
 20
0.0
 30
0.0
210
0.0
220
0.0
230
1.0
  2
ANSI37
 70
     0
 71
     0
 91
        1
 92
        1
 93
        4
 72
     1
 10
454.4295449497808
 20
153.812906014506
 11
454.4295449497808
 21
133.812906014506
 72
     1
 10
454.4295449497808
 20
133.812906014506
 11
469.4295449497808
 21
133.812906014506
 72
     1
 10
469.4295449497808
 20
133.812906014506
 11
469.4295449497808
 21
153.812906014506
 72
     1
 10
469.4295449497808
 20
153.812906014506
 11
454.4295449497808
 21
153.812906014506
 97
        0
 75
     0
 76
     1
 52
0.0
 41
0.3
 77
     0
 78
     2
 53
45.0
 43
215.9344042336439
 44
-55.39695603928385
 45
-0.6735192090801864
 46
0.6735192090801866
 79
     0
 53
135.0
 43
215.9344042336439
 44
-55.39695603928385
 45
-0.6735192090801866
 46
-0.6735192090801864
 79
     0
 98
        1
 10
217.9897039864861
 20
69.61425151974793
1001
GENIUS_GENOBJ-N-HTC_13
1002
{
1000
OWNER
1000
GEN
1002
}
1001
GENIUS_GENODEF_13
1002
{
1000
HIER
1070
     0
1002
}
1002
{
1000
MANEDIT
1070
     0
1002
}
1002
{
1000
NOSEL
1070
     0
1002
}
1002
{
1000
BEHIND
1070
     0
1002
}
1002
{
1000
OTHER
1070
     0
1002
}
1002
{
1000
REACTOR
1002
}
1001
GENIUS_GENHATCH_13
1002
{
1000
DATA
1040
45.0
1042
2.5
1000
_U
1070
     0
1011
463.0294172931692
1021
144.0531337373684
1031
0.0
1002
}
1002
{
1000
UCS
1010
0.0
1020
0.0
1030
0.0
1010
1.0
1020
0.0
1030
0.0
1010
0.0
1020
1.0
1030
0.0
1002
}
  0
HATCH
  5
539
330
1F
100
AcDbEntity
  8
AM_8
100
AcDbHatch
 10
0.0
 20
0.0
 30
0.0
210
0.0
220
0.0
230
1.0
  2
ANSI37
 70
     0
 71
     0
 91
        1
 92
        1
 93
        4
 72
     1
 10
476.4295449497808
 20
153.812906014506
 11
476.4295449497808
 21
133.812906014506
 72
     1
 10
476.4295449497808
 20
133.812906014506
 11
491.4295449497808
 21
133.812906014506
 72
     1
 10
491.4295449497808
 20
133.812906014506
 11
491.4295449497808
 21
153.812906014506
 72
     1
 10
491.4295449497808
 20
153.812906014506
 11
476.4295449497808
 21
153.812906014506
 97
        0
 75
     0
 76
     1
 52
0.0
 41
0.3
 77
     0
 78
     2
 53
45.0
 43
215.9344042336439
 44
-55.39695603928385
 45
-0.6735192090801864
 46
0.6735192090801866
 79
     0
 53
135.0
 43
215.9344042336439
 44
-55.39695603928385
 45
-0.6735192090801866
 46
-0.6735192090801864
 79
     0
 98
        1
 10
217.9897039864861
 20
69.61425151974793
1001
GENIUS_GENODEF_13
1002
{
1000
HIER
1070
     0
1002
}
1002
{
1000
MANEDIT
1070
     0
1002
}
1002
{
1000
NOSEL
1070
     0
1002
}
1002
{
1000
BEHIND
1070
     0
1002
}
1002
{
1000
OTHER
1070
     0
1002
}
1002
{
1000
REACTOR
1002
}
1001
GENIUS_GENOBJ-N-HTC_13
1002
{
1000
OWNER
1000
GEN
1002
}
1001
GENIUS_GENHATCH_13
1002
{
1000
DATA
1040
45.0
1042
2.5
1000
_U
1070
     0
1011
486.0901945567769
1021
147.6374582670139
1031
0.0
1002
}
1002
{
1000
UCS
1010
0.0
1020
0.0
1030
0.0
1010
1.0
1020
0.0
1030
0.0
1010
0.0
1020
1.0
1030
0.0
1002
}
  0
LINE
  5
53A
330
1F
100
AcDbEntity
  8
AM_VIS
100
AcDbLine
 10
454.4295449497808
 20
153.812906014506
 30
0.0
 11
454.4295449497808
 21
133.812906014506
 31
0.0
  0
LINE
  5
53B
330
1F
100
AcDbEntity
  8
AM_7
100
AcDbLine
 10
472.9295449497808
 20
168.812906014506
 30
0.0
 11
472.9295449497808
 21
87.76765650962847
 31
0.0
  0
LINE
  5
53C
330
1F
100
AcDbEntity
  8
AM_VIS
100
AcDbLine
 10
469.4295449497808
 20
153.812906014506
 30
0.0
 11
469.4295449497808
 21
133.812906014506
 31
0.0
  0
LINE
  5
53D
330
1F
100
AcDbEntity
  8
AM_VIS
100
AcDbLine
 10
476.4295449497808
 20
153.812906014506
 30
0.0
 11
476.4295449497808
 21
133.812906014506
 31
0.0
  0
LINE
  5
53E
330
1F
100
AcDbEntity
  8
AM_VIS
100
AcDbLine
 10
491.4295449497808
 20
153.812906014506
 30
0.0
 11
491.4295449497808
 21
133.812906014506
 31
0.0
  0
LINE
  5
53F
330
1F
100
AcDbEntity
  8
0
100
AcDbLine
 10
493.4295457497809
 20
164.8489461953325
 30
0.0
 11
493.4295457497809
 21
130.812906014506
 31
0.0
  0
LINE
  5
540
330
1F
100
AcDbEntity
  8
0
100
AcDbLine
 10
454.9295449497808
 20
127.812906014506
 30
0.0
 11
454.9295449497808
 21
130.812906014506
 31
0.0
  0
LINE
  5
541
330
1F
100
AcDbEntity
  8
0
100
AcDbLine
 10
490.9295449497808
 20
127.812906014506
 30
0.0
 11
490.9295449497808
 21
130.812906014506
 31
0.0
  0
LINE
  5
542
330
1F
100
AcDbEntity
  8
AM_VIS
100
AcDbLine
 10
459.4295449497808
 20
167.8129060145059
 30
0.0
 11
486.4295449497809
 21
167.8129060145059
 31
0.0
  0
LINE
  5
543
330
1F
100
AcDbEntity
  8
0
100
AcDbLine
 10
458.9009285499048
 20
167.8129060145059
 30
0.0
 11
486.9581613496571
 21
167.8129060145059
 31
0.0
  0
ARC
  5
544
330
1F
100
AcDbEntity
  8
0
100
AcDbCircle
 10
458.9009285499048
 20
166.719572638506
 30
0.0
 40
1.093333375999999
100
AcDbArc
 50
90.0
 51
109.1790080258155
  0
LINE
  5
545
330
1F
100
AcDbEntity
  8
0
100
AcDbLine
 10
487.3173439136095
 20
167.75222250987
 30
0.0
 11
492.6953949377335
 21
165.8815960666964
 31
0.0
  0
ARC
  5
546
330
1F
100
AcDbEntity
  8
0
100
AcDbCircle
 10
492.3362123737808
 20
164.8489461953325
 30
0.0
 40
1.093333375999999
100
AcDbArc
 50
0.0
 51
70.82099197418447
  0
ARC
  5
547
330
1F
100
AcDbEntity
  8
0
100
AcDbCircle
 10
486.9581613496571
 20
166.719572638506
 30
0.0
 40
1.093333375999999
100
AcDbArc
 50
70.82099197418447
 51
90.0
  0
TEXT
  5
548
330
1F
100
AcDbEntity
  8
DIM
 62
     6
100
AcDbText
 10
389.6673193691585
 20
177.1353401864546
 30
0.0
 40
4.0
  1
MADV400-WB
  7
CHINESET
100
AcDbText
  0
DIMENSION
  5
549
330
1F
100
AcDbEntity
  8
DIM
100
AcDbDimension
  2
*D1
 10
427.6412505885758
 20
209.5993205228177
 30
0.0
 11
424.5555363028615
 21
244.5993205228177
 31
0.0
 70
    32
  1
(<>)
 71
     5
 42
69.9999999999998
  3
STANDARD
100
AcDbAlignedDimension
 13
458.9009285499048
 23
279.5993205228175
 33
0.0
 14
466.4295449497808
 24
209.5993205228177
 34
0.0
 50
90.0
100
AcDbRotatedDimension
  0
DIMENSION
  5
54A
330
1F
100
AcDbEntity
  8
DIM
100
AcDbDimension
  2
*D2
 10
436.6301055731768
 20
232.5993205228177
 30
0.0
 11
434.3301055731767
 21
256.0993205228178
 31
0.0
 70
    32
 71
     5
 42
46.99999999999997
  3
STANDARD
100
AcDbAlignedDimension
 13
458.9009285499048
 23
279.5993205228177
 33
0.0
 14
462.4295449497808
 24
232.5993205228177
 34
0.0
 50
90.0
100
AcDbRotatedDimension
  0
DIMENSION
  5
54B
330
1F
100
AcDbEntity
  8
DIM
100
AcDbDimension
  2
*D3
 10
436.6301055731768
 20
209.5993205228177
 30
0.0
 11
434.3301055731767
 21
219.5993205228178
 31
0.0
 70
    32
 71
     5
 42
20.0
  3
STANDARD
100
AcDbAlignedDimension
 13
463.2795449497808
 23
229.5993205228177
 33
0.0
 14
466.4295449497808
 24
209.5993205228177
 34
0.0
 50
90.0
100
AcDbRotatedDimension
  0
DIMENSION
  5
54C
330
1F
100
AcDbEntity
  8
DIM
100
AcDbDimension
  2
*D4
 10
454.1023701483618
 20
209.5993205228177
 30
0.0
 11
451.8023701483618
 21
214.5993205228177
 31
0.0
 70
    32
 71
     5
 42
9.999999999999857
  3
STANDARD
100
AcDbAlignedDimension
 13
468.0655449497808
 23
219.5993205228175
 33
0.0
 14
466.4295449497808
 24
209.5993205228177
 34
0.0
 50
90.0
100
AcDbRotatedDimension
  0
DIMENSION
  5
54D
330
1F
100
AcDbEntity
  8
DIM
100
AcDbDimension
  2
*D5
 10
493.4295457497807
 20
290.0165737042227
 30
0.0
 11
472.9295449497808
 21
290.0165737042227
 31
0.0
 70
   160
  1
%%c<>
 71
     5
 42
41.00000159999973
  3
STANDARD
100
AcDbAlignedDimension
 13
452.429544149781
 23
276.6353607036441
 33
0.0
 14
493.4295457497807
 24
276.6353607036441
 34
0.0
100
AcDbRotatedDimension
  0
LINE
  5
54F
330
1F
100
AcDbEntity
  8
AM_VIS
100
AcDbLine
 10
458.5417459859522
 20
279.5386370181816
 30
0.0
 11
453.1636949618282
 21
277.668010575008
 31
0.0
  0
ARC
  5
550
330
1F
100
AcDbEntity
  8
AM_VIS
100
AcDbCircle
 10
461.9295449497808
 20
239.5993205228177
 30
0.0
 40
7.0
100
AcDbArc
 50
180.0
 51
270.0
  0
LINE
  5
551
330
1F
100
AcDbEntity
  8
AM_VIS
100
AcDbLine
 10
452.4295449497808
 20
265.5993205228177
 30
0.0
 11
493.4295449497808
 21
265.5993205228175
 31
0.0
  0
LINE
  5
552
330
1F
100
AcDbEntity
  8
AM_VIS
100
AcDbLine
 10
492.8521187006412
 20
277.5993205228175
 30
0.0
 11
453.0069711989206
 21
277.5993205228175
 31
0.0
  0
LINE
  5
553
330
1F
100
AcDbEntity
  8
AM_VIS
100
AcDbLine
 10
452.4295449497808
 20
245.5993205228176
 30
0.0
 11
493.4295449497808
 21
245.5993205228176
 31
0.0
  0
LINE
  5
554
330
1F
100
AcDbEntity
  8
AM_VIS
100
AcDbLine
 10
452.4295449497808
 20
242.5993205228177
 30
0.0
 11
493.4295449497808
 21
242.5993205228175
 31
0.0
  0
LINE
  5
555
330
1F
100
AcDbEntity
  8
AM_VIS
100
AcDbLine
 10
452.4295449497808
 20
276.636683327
 30
0.0
 11
452.4295449497808
 21
242.5993205228175
 31
0.0
  0
ARC
  5
556
330
1F
100
AcDbEntity
  8
AM_VIS
100
AcDbCircle
 10
453.522877525781
 20
276.6353607036441
 30
0.0
 40
1.093333375999999
100
AcDbArc
 50
109.1790080258155
 51
180.0
  0
LINE
  5
557
330
1F
100
AcDbEntity
  8
AM_VIS
100
AcDbLine
 10
463.2795449497808
 20
230.0993205228177
 30
0.0
 11
463.2795449497808
 21
229.5993205228177
 31
0.0
  0
LINE
  5
558
330
1F
100
AcDbEntity
  8
AM_VIS
100
AcDbLine
 10
482.4295449497808
 20
230.0993205228177
 30
0.0
 11
482.4295449497808
 21
229.5993205228177
 31
0.0
  0
LINE
  5
559
330
1F
100
AcDbEntity
  8
AM_7
100
AcDbLine
 10
472.9295449497808
 20
235.5993205228177
 30
0.0
 11
472.9295449497808
 21
208.2756186200285
 31
0.0
  0
LINE
  5
55E
330
1F
100
AcDbEntity
  8
0
100
AcDbLine
 10
484.4295449497808
 20
223.8412184406776
 30
0.0
 11
472.9295449497808
 21
223.8412184406776
 31
0.0
  0
LINE
  5
55F
330
1F
100
AcDbEntity
  8
0
100
AcDbLine
 10
472.9295449497808
 20
227.8412184406775
 30
0.0
 11
484.4295449497808
 21
227.8412184406775
 31
0.0
  0
LINE
  5
560
330
1F
100
AcDbEntity
  8
0
100
AcDbLine
 10
484.4295449497808
 20
227.8412184406775
 30
0.0
 11
472.9295449497808
 21
227.8412184406775
 31
0.0
  0
LWPOLYLINE
  5
561
330
1F
100
AcDbEntity
  8
0
100
AcDbPolyline
 90
        4
 70
     0
 43
0.0
 10
465.2795449497808
 20
222.0240088611505
 42
-0.297112524624258
 10
471.5171046537052
 20
222.4527195398746
 42
0.1364904288241066
 10
476.8329273250359
 20
222.8860671673146
 42
-0.2242953996087565
 10
480.5795449497808
 20
222.2475372606788
  0
LINE
  5
562
330
1F
100
AcDbEntity
  8
0
100
AcDbLine
 10
477.2114366638684
 20
221.0993205228177
 30
0.0
 11
472.9295449497807
 21
221.0993205228175
 31
0.0
  0
LINE
  5
563
330
1F
100
AcDbEntity
  8
0
100
AcDbLine
 10
477.7935449497806
 20
219.5993205228175
 30
0.0
 11
472.9295449497807
 21
219.5993205228175
 31
0.0
  0
LINE
  5
564
330
1F
100
AcDbEntity
  8
AM_VIS
100
AcDbLine
 10
472.929544949781
 20
209.5993205228177
 30
0.0
 11
479.4295449497808
 21
209.5993205228177
 31
0.0
  0
LINE
  5
565
330
1F
100
AcDbEntity
  8
AM_VIS
100
AcDbLine
 10
482.4295449497808
 20
229.5993205228177
 30
0.0
 11
472.9295449497808
 21
229.5993205228177
 31
0.0
  0
LINE
  5
56A
102
{ACAD_REACTORS
330
1666
102
}
330
1F
100
AcDbEntity
  8
0
100
AcDbLine
 10
468.6476532356933
 20
209.5993205228177
 30
0.0
 11
468.6476532356932
 21
221.0993205228175
 31
0.0
  0
LINE
  5
56B
330
1F
100
AcDbEntity
  8
AM_4
100
AcDbLine
 10
468.0655449497808
 20
209.5993205228177
 30
0.0
 11
468.0655449497808
 21
219.2993205228175
 31
0.0
1001
GENIUS_GENODEF_13
1002
{
1000
HIER
1070
     0
1002
}
1002
{
1000
MANEDIT
1070
     0
1002
}
1002
{
1000
NOSEL
1070
     0
1002
}
1002
{
1000
BEHIND
1070
     0
1002
}
1002
{
1000
REACTOR
1002
}
1001
GENIUS_GENOBJ-N-CEN_13
1002
{
1000
OWNER
1000
GEN
1002
}
  0
LINE
  5
56C
330
1F
100
AcDbEntity
  8
AM_VIS
100
AcDbLine
 10
465.9295449497808
 20
214.5993205228177
 30
0.0
 11
465.2795449497808
 21
215.0993205228177
 31
0.0
  0
LINE
  5
56E
330
1F
100
AcDbEntity
  8
AM_4
100
AcDbLine
 10
465.984044949781
 20
214.5993205228177
 30
0.0
 11
465.9295449497808
 21
214.5993205228177
 31
0.0
  0
LINE
  5
56F
330
1F
100
AcDbEntity
  8
AM_VIS
100
AcDbLine
 10
465.9295449497808
 20
214.5993205228177
 30
0.0
 11
465.9295449497808
 21
214.5993205228177
 31
0.0
  0
LINE
  5
570
330
1F
100
AcDbEntity
  8
AM_VIS
100
AcDbLine
 10
472.929544949781
 20
209.5993205228177
 30
0.0
 11
466.4295449497808
 21
209.5993205228177
 31
0.0
  0
LINE
  5
571
330
1F
100
AcDbEntity
  8
AM_VIS
100
AcDbLine
 10
465.9295449497808
 20
210.0993205228177
 30
0.0
 11
466.4295449497808
 21
209.5993205228177
 31
0.0
  0
LINE
  5
572
330
1F
100
AcDbEntity
  8
AM_VIS
100
AcDbLine
 10
465.9295449497808
 20
210.0993205228177
 30
0.0
 11
465.9295449497808
 21
214.5993205228177
 31
0.0
  0
LINE
  5
573
330
1F
100
AcDbEntity
  8
AM_VIS
100
AcDbLine
 10
463.2795449497808
 20
229.5993205228177
 30
0.0
 11
472.9295449497808
 21
229.5993205228177
 31
0.0
  0
LINE
  5
574
330
1F
100
AcDbEntity
  8
0
100
AcDbLine
 10
461.4295449497809
 20
223.8412184406776
 30
0.0
 11
472.9295449497808
 21
223.8412184406776
 31
0.0
  0
LINE
  5
575
330
1F
100
AcDbEntity
  8
0
100
AcDbLine
 10
472.9295449497808
 20
227.8412184406775
 30
0.0
 11
461.4295449497809
 21
227.8412184406775
 31
0.0
  0
LINE
  5
576
330
1F
100
AcDbEntity
  8
0
100
AcDbLine
 10
461.4295449497809
 20
227.8412184406775
 30
0.0
 11
472.9295449497808
 21
227.8412184406775
 31
0.0
  0
LINE
  5
577
330
1F
100
AcDbEntity
  8
DIM
100
AcDbLine
 10
463.7795449497808
 20
223.8412184406776
 30
0.0
 11
463.7795449497808
 21
227.8412184406775
 31
0.0
  0
LINE
  5
578
330
1F
100
AcDbEntity
  8
0
100
AcDbLine
 10
461.4295449497809
 20
223.8412184406776
 30
0.0
 11
461.4295449497809
 21
227.8412184406775
 31
0.0
  0
LINE
  5
579
102
{ACAD_REACTORS
330
1483
102
}
330
1F
100
AcDbEntity
  8
AM_VIS
100
AcDbLine
 10
465.2795449497808
 20
223.8412184406776
 30
0.0
 11
465.2795449497808
 21
215.0993205228177
 31
0.0
  0
LINE
  5
57A
330
1F
100
AcDbEntity
  8
0
100
AcDbLine
 10
470.9295449497808
 20
221.0993205228175
 30
0.0
 11
470.9295449497808
 21
222.7379349980517
 31
0.0
1001
GENIUS_GENODEF_13
1002
{
1000
HIER
1070
     0
1002
}
1002
{
1000
MANEDIT
1070
     0
1002
}
1002
{
1000
NOSEL
1070
     0
1002
}
1002
{
1000
BEHIND
1070
     0
1002
}
1002
{
1000
REACTOR
1002
}
1001
GENIUS_GENOBJ-N-CEN_13
1002
{
1000
OWNER
1000
GEN
1002
}
  0
LINE
  5
57B
330
1F
100
AcDbEntity
  8
0
100
AcDbLine
 10
468.6476532356932
 20
221.0993205228175
 30
0.0
 11
472.9295449497808
 21
221.0993205228175
 31
0.0
  0
LINE
  5
57C
330
1F
100
AcDbEntity
  8
AM_4
100
AcDbLine
 10
468.0655449497808
 20
219.5993205228175
 30
0.0
 11
468.6476532356932
 21
220.1814288087298
 31
0.0
  0
LINE
  5
57D
330
1F
100
AcDbEntity
  8
AM_4
100
AcDbLine
 10
468.0655449497808
 20
217.6852902037136
 30
0.0
 11
468.0655449497808
 21
219.5993205228177
 31
0.0
1001
GENIUS_GENODEF_13
1002
{
1000
HIER
1070
     0
1002
}
1002
{
1000
MANEDIT
1070
     0
1002
}
1002
{
1000
NOSEL
1070
     0
1002
}
1002
{
1000
BEHIND
1070
     0
1002
}
1002
{
1000
REACTOR
1002
}
1001
GENIUS_GENOBJ-N-CEN_13
1002
{
1000
OWNER
1000
GEN
1002
}
  0
LINE
  5
57E
330
1F
100
AcDbEntity
  8
0
100
AcDbLine
 10
468.0655449497808
 20
219.5993205228175
 30
0.0
 11
472.9295449497808
 21
219.5993205228175
 31
0.0
  0
LINE
  5
57F
330
1F
100
AcDbEntity
  8
AM_VIS
100
AcDbLine
 10
465.2795449497808
 20
229.5993205228177
 30
0.0
 11
465.2795449497808
 21
229.5993205228177
 31
0.0
  0
LINE
  5
580
330
1F
100
AcDbEntity
  8
DIM
100
AcDbLine
 10
466.249544949781
 20
227.8412184406775
 30
0.0
 11
466.249544949781
 21
223.8412184406776
 31
0.0
  0
LINE
  5
581
330
1F
100
AcDbEntity
  8
DIM
100
AcDbLine
 10
465.4595449497809
 20
227.8412184406775
 30
0.0
 11
465.4595449497809
 21
223.8412184406776
 31
0.0
  0
LINE
  5
582
330
1F
100
AcDbEntity
  8
DIM
100
AcDbLine
 10
469.1095449497808
 20
227.8412184406775
 30
0.0
 11
469.1095449497808
 21
223.8412184406776
 31
0.0
  0
LINE
  5
583
330
1F
100
AcDbEntity
  8
DIM
100
AcDbLine
 10
469.749544949781
 20
227.8412184406775
 30
0.0
 11
469.749544949781
 21
223.8412184406776
 31
0.0
  0
LINE
  5
584
330
1F
100
AcDbEntity
  8
AM_4
100
AcDbLine
 10
465.984044949781
 20
229.5993205228177
 30
0.0
 11
465.984044949781
 21
227.8412184406775
 31
0.0
  0
LINE
  5
585
330
1F
100
AcDbEntity
  8
AM_VIS
100
AcDbLine
 10
465.2795449497808
 20
229.5993205228177
 30
0.0
 11
465.2795449497808
 21
227.8412184406775
 31
0.0
  0
LINE
  5
587
330
1F
100
AcDbEntity
  8
0
100
AcDbLine
 10
477.2114366638684
 20
209.5993205228177
 30
0.0
 11
477.2114366638684
 21
221.0993205228175
 31
0.0
  0
LINE
  5
588
330
1F
100
AcDbEntity
  8
AM_4
100
AcDbLine
 10
477.7935449497809
 20
209.5993205228177
 30
0.0
 11
477.7935449497806
 21
219.5993205228177
 31
0.0
1001
GENIUS_GENODEF_13
1002
{
1000
HIER
1070
     0
1002
}
1002
{
1000
MANEDIT
1070
     0
1002
}
1002
{
1000
NOSEL
1070
     0
1002
}
1002
{
1000
BEHIND
1070
     0
1002
}
1002
{
1000
REACTOR
1002
}
1001
GENIUS_GENOBJ-N-CEN_13
1002
{
1000
OWNER
1000
GEN
1002
}
  0
LINE
  5
589
330
1F
100
AcDbEntity
  8
AM_VIS
100
AcDbLine
 10
479.9295449497808
 20
214.5993205228177
 30
0.0
 11
480.5795449497808
 21
215.0993205228177
 31
0.0
  0
LINE
  5
58B
330
1F
100
AcDbEntity
  8
AM_VIS
100
AcDbLine
 10
479.9295449497808
 20
214.5993205228177
 30
0.0
 11
479.9295449497808
 21
214.5993205228177
 31
0.0
  0
LINE
  5
58C
330
1F
100
AcDbEntity
  8
AM_4
100
AcDbLine
 10
479.8750449497808
 20
214.5993205228177
 30
0.0
 11
479.9295449497808
 21
214.5993205228177
 31
0.0
  0
LINE
  5
58D
330
1F
100
AcDbEntity
  8
AM_VIS
100
AcDbLine
 10
479.9295449497808
 20
210.0993205228177
 30
0.0
 11
479.4295449497808
 21
209.5993205228177
 31
0.0
  0
LINE
  5
58E
330
1F
100
AcDbEntity
  8
AM_VIS
100
AcDbLine
 10
479.9295449497808
 20
210.0993205228177
 30
0.0
 11
479.9295449497808
 21
214.5993205228177
 31
0.0
  0
LINE
  5
58F
330
1F
100
AcDbEntity
  8
AM_VIS
100
AcDbLine
 10
480.5795449497808
 20
227.8412184406775
 30
0.0
 11
480.5795449497808
 21
229.5993205228177
 31
0.0
  0
LINE
  5
590
330
1F
100
AcDbEntity
  8
DIM
100
AcDbLine
 10
479.6095449497807
 20
227.8412184406775
 30
0.0
 11
479.6095449497807
 21
223.8412184406776
 31
0.0
  0
LINE
  5
591
330
1F
100
AcDbEntity
  8
DIM
100
AcDbLine
 10
480.3995449497809
 20
227.8412184406775
 30
0.0
 11
480.3995449497809
 21
223.8412184406776
 31
0.0
  0
LINE
  5
592
330
1F
100
AcDbEntity
  8
DIM
100
AcDbLine
 10
476.7495449497809
 20
227.8412184406775
 30
0.0
 11
476.7495449497809
 21
223.8412184406776
 31
0.0
  0
LINE
  5
593
330
1F
100
AcDbEntity
  8
DIM
100
AcDbLine
 10
476.1095449497807
 20
227.8412184406775
 30
0.0
 11
476.1095449497807
 21
223.8412184406776
 31
0.0
  0
LINE
  5
594
330
1F
100
AcDbEntity
  8
DIM
100
AcDbLine
 10
482.0795449497809
 20
223.8412184406776
 30
0.0
 11
482.0795449497809
 21
227.8412184406775
 31
0.0
  0
LINE
  5
595
330
1F
100
AcDbEntity
  8
0
100
AcDbLine
 10
484.4295449497808
 20
223.8412184406776
 30
0.0
 11
484.4295449497808
 21
227.8412184406775
 31
0.0
  0
LINE
  5
596
330
1F
100
AcDbEntity
  8
0
100
AcDbLine
 10
474.9295449497808
 20
221.0993205228175
 30
0.0
 11
474.9295449497808
 21
222.39258026033
 31
0.0
1001
GENIUS_GENODEF_13
1002
{
1000
HIER
1070
     0
1002
}
1002
{
1000
MANEDIT
1070
     0
1002
}
1002
{
1000
NOSEL
1070
     0
1002
}
1002
{
1000
BEHIND
1070
     0
1002
}
1002
{
1000
REACTOR
1002
}
1001
GENIUS_GENOBJ-N-CEN_13
1002
{
1000
OWNER
1000
GEN
1002
}
  0
LINE
  5
597
330
1F
100
AcDbEntity
  8
AM_4
100
AcDbLine
 10
477.7935525382263
 20
219.5993205228175
 30
0.0
 11
477.1999934998805
 21
220.1928795611632
 31
0.0
  0
LINE
  5
598
330
1F
100
AcDbEntity
  8
AM_VIS
100
AcDbLine
 10
480.5795449497808
 20
229.5993205228177
 30
0.0
 11
480.5795449497808
 21
229.5993205228177
 31
0.0
  0
LINE
  5
599
330
1F
100
AcDbEntity
  8
AM_4
100
AcDbLine
 10
479.8750449497808
 20
229.5993205228177
 30
0.0
 11
479.8750449497808
 21
227.8412184406775
 31
0.0
  0
LINE
  5
59A
102
{ACAD_REACTORS
330
1483
102
}
330
1F
100
AcDbEntity
  8
AM_VIS
100
AcDbLine
 10
480.5795449497808
 20
215.0993205228177
 30
0.0
 11
480.5795449497808
 21
223.8412184406776
 31
0.0
  0
HATCH
  5
59B
330
1F
100
AcDbEntity
  8
AM_8
100
AcDbHatch
 10
0.0
 20
0.0
 30
0.0
210
0.0
220
0.0
230
1.0
  2
ANSI37
 70
     0
 71
     0
 91
        1
 92
        1
 93
        4
 72
     1
 10
454.4295449497808
 20
265.5993205228177
 11
454.4295449497808
 21
245.5993205228176
 72
     1
 10
454.4295449497808
 20
245.5993205228176
 11
469.4295449497808
 21
245.5993205228176
 72
     1
 10
469.4295449497808
 20
245.5993205228176
 11
469.4295449497808
 21
265.5993205228175
 72
     1
 10
469.4295449497808
 20
265.5993205228175
 11
454.4295449497808
 21
265.5993205228177
 97
        0
 75
     0
 76
     1
 52
0.0
 41
0.3
 77
     0
 78
     2
 53
45.0
 43
217.9897039864861
 44
181.4006660280595
 45
-0.6735192090801864
 46
0.6735192090801866
 79
     0
 53
135.0
 43
217.9897039864861
 44
181.4006660280595
 45
-0.6735192090801866
 46
-0.6735192090801864
 79
     0
 98
        1
 10
217.9897039864861
 20
181.4006660280595
1001
GENIUS_GENOBJ-N-HTC_13
1002
{
1000
OWNER
1000
GEN
1002
}
1001
GENIUS_GENODEF_13
1002
{
1000
HIER
1070
     0
1002
}
1002
{
1000
MANEDIT
1070
     0
1002
}
1002
{
1000
NOSEL
1070
     0
1002
}
1002
{
1000
BEHIND
1070
     0
1002
}
1002
{
1000
OTHER
1070
     0
1002
}
1002
{
1000
REACTOR
1002
}
1001
GENIUS_GENHATCH_13
1002
{
1000
DATA
1040
45.0
1042
2.5
1000
_U
1070
     0
1011
463.0294172931692
1021
243.4058913531218
1031
0.0
1002
}
1002
{
1000
UCS
1010
0.0
1020
0.0
1030
0.0
1010
1.0
1020
0.0
1030
0.0
1010
0.0
1020
1.0
1030
0.0
1002
}
  0
HATCH
  5
59C
330
1F
100
AcDbEntity
  8
AM_8
100
AcDbHatch
 10
0.0
 20
0.0
 30
0.0
210
0.0
220
0.0
230
1.0
  2
ANSI37
 70
     0
 71
     0
 91
        1
 92
        1
 93
        4
 72
     1
 10
476.4295449497808
 20
265.5993205228175
 11
476.4295449497808
 21
245.5993205228176
 72
     1
 10
476.4295449497808
 20
245.5993205228176
 11
491.4295449497808
 21
245.5993205228176
 72
     1
 10
491.4295449497808
 20
245.5993205228176
 11
491.4295449497808
 21
265.5993205228175
 72
     1
 10
491.4295449497808
 20
265.5993205228175
 11
476.4295449497808
 21
265.5993205228175
 97
        0
 75
     0
 76
     1
 52
0.0
 41
0.3
 77
     0
 78
     2
 53
45.0
 43
217.9897039864861
 44
181.4006660280595
 45
-0.6735192090801864
 46
0.6735192090801866
 79
     0
 53
135.0
 43
217.9897039864861
 44
181.4006660280595
 45
-0.6735192090801866
 46
-0.6735192090801864
 79
     0
 98
        1
 10
217.9897039864861
 20
181.4006660280595
1001
GENIUS_GENODEF_13
1002
{
1000
HIER
1070
     0
1002
}
1002
{
1000
MANEDIT
1070
     0
1002
}
1002
{
1000
NOSEL
1070
     0
1002
}
1002
{
1000
BEHIND
1070
     0
1002
}
1002
{
1000
OTHER
1070
     0
1002
}
1002
{
1000
REACTOR
1002
}
1001
GENIUS_GENOBJ-N-HTC_13
1002
{
1000
OWNER
1000
GEN
1002
}
1001
GENIUS_GENHATCH_13
1002
{
1000
DATA
1040
45.0
1042
2.5
1000
_U
1070
     0
1011
486.0901945567769
1021
246.9902158827673
1031
0.0
1002
}
1002
{
1000
UCS
1010
0.0
1020
0.0
1030
0.0
1010
1.0
1020
0.0
1030
0.0
1010
0.0
1020
1.0
1030
0.0
1002
}
  0
LINE
  5
59D
330
1F
100
AcDbEntity
  8
AM_VIS
100
AcDbLine
 10
454.4295449497808
 20
265.5993205228177
 30
0.0
 11
454.4295449497808
 21
245.5993205228176
 31
0.0
  0
LINE
  5
59E
330
1F
100
AcDbEntity
  8
AM_VIS
100
AcDbLine
 10
493.4295449497808
 20
276.636683327
 30
0.0
 11
493.4295449497808
 21
242.5993205228175
 31
0.0
  0
LINE
  5
59F
330
1F
100
AcDbEntity
  8
AM_7
100
AcDbLine
 10
472.9295449497808
 20
280.5993205228176
 30
0.0
 11
472.9295449497808
 21
236.5993205228177
 31
0.0
  0
LINE
  5
5A0
330
1F
100
AcDbEntity
  8
AM_VIS
100
AcDbLine
 10
469.4295449497808
 20
265.5993205228175
 30
0.0
 11
469.4295449497808
 21
245.5993205228176
 31
0.0
  0
LINE
  5
5A1
330
1F
100
AcDbEntity
  8
AM_VIS
100
AcDbLine
 10
476.4295449497808
 20
265.5993205228175
 30
0.0
 11
476.4295449497808
 21
245.5993205228176
 31
0.0
  0
LINE
  5
5A2
330
1F
100
AcDbEntity
  8
AM_VIS
100
AcDbLine
 10
491.4295449497808
 20
265.5993205228175
 30
0.0
 11
491.4295449497808
 21
245.5993205228176
 31
0.0
  0
LINE
  5
5A3
330
1F
100
AcDbEntity
  8
AM_VIS
100
AcDbLine
 10
483.9295449497808
 20
232.5993205228177
 30
0.0
 11
461.9295449497808
 21
232.5993205228177
 31
0.0
  0
LINE
  5
5A4
330
1F
100
AcDbEntity
  8
AM_VIS
100
AcDbLine
 10
483.4295449497808
 20
230.0993205228177
 30
0.0
 11
462.4295449497808
 21
230.0993205228177
 31
0.0
  0
LINE
  5
5A5
330
1F
100
AcDbEntity
  8
0
100
AcDbLine
 10
454.9295449497808
 20
239.5993205228177
 30
0.0
 11
454.9295449497808
 21
242.5993205228177
 31
0.0
  0
LINE
  5
5A6
330
1F
100
AcDbEntity
  8
AM_VIS
100
AcDbLine
 10
462.4295449497808
 20
232.5993205228177
 30
0.0
 11
462.4295449497808
 21
230.0993205228177
 31
0.0
  0
ARC
  5
5A7
330
1F
100
AcDbEntity
  8
AM_VIS
100
AcDbCircle
 10
483.9295449497808
 20
239.5993205228177
 30
0.0
 40
7.0
100
AcDbArc
 50
270.0
 51
0.0
  0
LINE
  5
5A8
330
1F
100
AcDbEntity
  8
AM_VIS
100
AcDbLine
 10
483.4295449497808
 20
232.5993205228177
 30
0.0
 11
483.4295449497808
 21
230.0993205228177
 31
0.0
  0
LINE
  5
5A9
330
1F
100
AcDbEntity
  8
0
100
AcDbLine
 10
490.9295449497808
 20
239.5993205228177
 30
0.0
 11
490.9295449497808
 21
242.5993205228177
 31
0.0
  0
LINE
  5
5AA
330
1F
100
AcDbEntity
  8
AM_VIS
100
AcDbLine
 10
458.9009285499048
 20
279.5993205228177
 30
0.0
 11
486.9581613496571
 21
279.5993205228177
 31
0.0
  0
ARC
  5
5AB
330
1F
100
AcDbEntity
  8
AM_VIS
100
AcDbCircle
 10
458.9009285499048
 20
278.5059871468176
 30
0.0
 40
1.093333375999999
100
AcDbArc
 50
90.0
 51
109.1790080258155
  0
ARC
  5
5AC
330
1F
100
AcDbEntity
  8
AM_VIS
100
AcDbCircle
 10
492.3362123737808
 20
276.6353607036441
 30
0.0
 40
1.093333375999999
100
AcDbArc
 50
0.0
 51
70.82099197418447
  0
ARC
  5
5AD
330
1F
100
AcDbEntity
  8
AM_VIS
100
AcDbCircle
 10
486.9581613496571
 20
278.5059871468176
 30
0.0
 40
1.093333375999999
100
AcDbArc
 50
70.82099197418447
 51
90.0
  0
LINE
  5
5AE
330
1F
100
AcDbEntity
  8
AM_VIS
100
AcDbLine
 10
487.3173439136095
 20
279.5386370181816
 30
0.0
 11
492.6953949377335
 21
277.668010575008
 31
0.0
  0
TEXT
  5
5AF
330
1F
100
AcDbEntity
  8
DIM
 62
     6
100
AcDbText
 10
389.0082373800772
 20
294.4575654565047
 30
0.0
 40
4.0
  1
MADV400-WA
  7
CHINESET
100
AcDbText
  0
LWPOLYLINE
  5
13E7
330
1F
100
AcDbEntity
  8
LOGO
 62
     4
100
AcDbPolyline
 90
        4
 70
     1
 43
0.0
 10
384.0410376613298
 20
76.10593240441095
 10
529.5943971115946
 20
76.10593240441095
 10
529.5943971115946
 20
305.7490597569132
 10
384.0410376613298
 20
305.7490597569132
1001
GENIUS_GENREC_14
1002
{
1000
PYDIR
1011
384.0410376613298
1021
305.7490597569132
1031
0.0
1002
}
1002
{
1000
PXDIR
1011
529.5943971115946
1021
76.10593240441095
1031
0.0
1002
}
1002
{
1000
PORI
1011
384.0410376613298
1021
76.10593240441095
1031
0.0
1002
}
1002
{
1000
PINS
1011
384.0410376613298
1021
76.10593240441095
1031
0.0
1002
}
1002
{
1000
PINS2
1011
529.5943971115946
1021
305.7490597569132
1031
0.0
1002
}
1002
{
1000
C
1070
     1
1002
}
1001
GENIUS_GENODEF_13
1002
{
1000
HIER
1070
     0
1002
}
1002
{
1000
MANEDIT
1070
     0
1002
}
1002
{
1000
NOSEL
1070
     0
1002
}
1002
{
1000
BEHIND
1070
     0
1002
}
1002
{
1000
OTHER
1070
     0
1002
}
1002
{
1000
REACTOR
1002
}
1001
GENIUS_GENOBJ-N-REC_13
1002
{
1000
OWNER
1000
GEN
1002
}
  0
LWPOLYLINE
  5
13E8
330
1F
100
AcDbEntity
  8
LOGO
 62
     4
100
AcDbPolyline
 90
        4
 70
     1
 43
0.0
 10
384.0410376613298
 20
76.10593240441095
 10
529.5943971115946
 20
76.10593240441095
 10
529.5943971115946
 20
55.89635910124319
 10
384.0410376613298
 20
55.89635910124319
1001
GENIUS_GENREC_14
1002
{
1000
PYDIR
1011
384.0410376613298
1021
55.89635910124319
1031
0.0
1002
}
1002
{
1000
PXDIR
1011
529.5943971115946
1021
76.10593240441095
1031
0.0
1002
}
1002
{
1000
PORI
1011
384.0410376613298
1021
76.10593240441095
1031
0.0
1002
}
1002
{
1000
PINS
1011
384.0410376613298
1021
76.10593240441095
1031
0.0
1002
}
1002
{
1000
PINS2
1011
529.5943971115946
1021
55.89635910124319
1031
0.0
1002
}
1002
{
1000
C
1070
     1
1002
}
1001
GENIUS_GENOBJ-N-REC_13
1002
{
1000
OWNER
1000
GEN
1002
}
1001
GENIUS_GENODEF_13
1002
{
1000
HIER
1070
     0
1002
}
1002
{
1000
MANEDIT
1070
     0
1002
}
1002
{
1000
NOSEL
1070
     0
1002
}
1002
{
1000
BEHIND
1070
     0
1002
}
1002
{
1000
OTHER
1070
     0
1002
}
1002
{
1000
REACTOR
1002
}
  0
TEXT
  5
13E9
330
1F
100
AcDbEntity
  8
LOGO
 62
     7
100
AcDbText
 10
429.6729160145859
 20
67.25246223556884
 30
0.0
 40
2.694609773755654
  1
Order example:
 41
0.8
  7
CHINESET
100
AcDbText
  0
TEXT
  5
13EA
330
1F
100
AcDbEntity
  8
LOGO
 62
     7
100
AcDbText
 10
430.156351291514
 20
71.04591487094406
 30
0.0
 40
4.041914660633483
  1
訂購代號：
  7
CHINESET
100
AcDbText
  0
LINE
  5
13EB
330
1F
100
AcDbEntity
  8
LOGO
 62
     4
100
AcDbLine
 10
428.5020989282982
 20
55.89635910124339
 30
0.0
 11
428.5020989282982
 21
76.10593240441095
 31
0.0
  0
TEXT
  5
13EC
330
1F
100
AcDbEntity
  8
LOGO
  6
Continuous
100
AcDbText
 10
391.3004072356173
 20
59.86649927774536
 30
0.0
 40
3.031435995475113
  1
金器工業股份有限公司
  7
CHINESET
100
AcDbText
  0
TEXT
  5
13ED
330
1F
100
AcDbEntity
  8
LOGO
  6
Continuous
100
AcDbText
 10
385.7322590519651
 20
56.8344693584889
 30
0.0
 40
2.02095733031674
  1
MINDMAN INDUSTRIAL CO., LTD.
 41
0.85
  7
CHINESET
100
AcDbText
  0
LINE
  5
13EE
330
1F
100
AcDbEntity
  8
LOGO
 62
     4
100
AcDbLine
 10
428.5020989282982
 20
72.06401774377744
 30
0.0
 11
398.8613914169858
 21
72.06401774377744
 31
0.0
  0
LINE
  5
13EF
330
1F
100
AcDbEntity
  8
LOGO
 62
     4
100
AcDbLine
 10
428.5020989282982
 20
68.02210308314393
 30
0.0
 11
398.8613914169858
 21
68.02210308314393
 31
0.0
  0
LINE
  5
13F0
330
1F
100
AcDbEntity
  8
LOGO
 62
     4
100
AcDbLine
 10
428.5020989282982
 20
63.98018842251065
 30
0.0
 11
384.0410376613298
 21
63.98018842251065
 31
0.0
  0
LINE
  5
13F1
330
1F
100
AcDbEntity
  8
LOGO
 62
     4
100
AcDbLine
 10
398.8613914169858
 20
63.98018842251065
 30
0.0
 11
398.8613914169858
 21
76.10593240441095
 31
0.0
  0
TEXT
  5
13F2
330
1F
100
AcDbEntity
  8
LOGO
100
AcDbText
 10
419.1194159808829
 20
64.99066708766868
 30
0.0
 40
2.02095733031674
  1
mm
  7
CHINESET
 72
     1
 11
421.6215536279418
 21
66.00114575282706
 31
0.0
100
AcDbText
 73
     2
  0
TEXT
  5
13F3
330
1F
100
AcDbEntity
  8
LOGO
100
AcDbText
 10
418.0608192840503
 20
73.07449640893572
 30
0.0
 40
2.02095733031674
  1
1 : 1
  7
CHINESET
 72
     1
 11
421.6215536279418
 21
74.08497507409409
 31
0.0
100
AcDbText
 73
     2
  0
LINE
  5
13F4
330
1F
100
AcDbEntity
  8
LOGO
 62
     4
100
AcDbLine
 10
415.0290500595198
 20
63.98018842251065
 30
0.0
 11
415.0290500595198
 21
76.10593240441095
 31
0.0
  0
CIRCLE
  5
13F5
330
1F
100
AcDbEntity
  8
LOGO
  6
Continuous
100
AcDbCircle
 10
418.7711053339481
 20
70.0473832559793
 30
0.0
 40
1.173415393955288
  0
CIRCLE
  5
13F6
330
1F
100
AcDbEntity
  8
LOGO
  6
Continuous
100
AcDbCircle
 10
418.7711053339481
 20
70.0473832559793
 30
0.0
 40
0.687517544270169
  0
LINE
  5
13F7
330
1F
100
AcDbEntity
  8
LOGO
100
AcDbLine
 10
426.1449838269276
 20
68.87396786202379
 30
0.0
 11
426.1449838269276
 21
71.22079864993482
 31
0.0
  0
LINE
  5
13F8
330
1F
100
AcDbEntity
  8
LOGO
100
AcDbLine
 10
422.4663939241355
 20
69.35986571170926
 30
0.0
 11
422.4663939241355
 21
70.73490080024956
 31
0.0
  0
LINE
  5
13F9
330
1F
100
AcDbEntity
  8
LOGO
  6
Continuous
100
AcDbLine
 10
422.4663939241355
 20
70.73490080024956
 30
0.0
 11
426.1449838269276
 21
71.22079864993482
 31
0.0
  0
LINE
  5
13FA
330
1F
100
AcDbEntity
  8
LOGO
  6
Continuous
100
AcDbLine
 10
422.4663939241355
 20
69.35986571170926
 30
0.0
 11
426.1449838269276
 21
68.87396786202379
 31
0.0
  0
TEXT
  5
13FB
330
1F
100
AcDbEntity
  8
LOGO
100
AcDbText
 10
400.5277790014032
 20
73.07549097455103
 30
132.4502140962503
 40
2.02095733031674
  1
比例 Scale:
 41
0.9
  7
CHINESET
 72
     4
 11
406.9452207382528
 21
74.08497507409409
 31
132.4502140962503
100
AcDbText
  0
TEXT
  5
13FC
330
1F
100
AcDbEntity
  8
LOGO
100
AcDbText
 10
400.4113935122912
 20
69.06100974880657
 30
132.4502140962503
 40
2.02095733031674
  1
投影  View:
 41
0.9
  7
CHINESET
 72
     4
 11
406.9452207382528
 21
70.04306041346056
 31
132.4502140962503
100
AcDbText
  0
TEXT
  5
13FD
330
1F
100
AcDbEntity
  8
LOGO
100
AcDbText
 10
400.6089781798534
 20
64.99066708766868
 30
132.4502140962503
 40
2.02095733031674
  1
單位  Unit:
 41
0.9
  7
CHINESET
 72
     4
 11
406.9452207382528
 21
66.00114575282706
 31
132.4502140962503
100
AcDbText
  0
SOLID
  5
13FE
330
1F
100
AcDbEntity
  8
LOGO
 62
     5
100
AcDbTrace
 10
386.1378133254315
 20
67.33974232353808
 30
0.0
 11
387.0116222451401
 21
67.33974232353786
 31
0.0
 12
390.657514634269
 22
75.62586138974063
 32
0.0
 13
391.531323553978
 23
75.62586138974015
 33
0.0
  0
SOLID
  5
13FF
330
1F
100
AcDbEntity
  8
LOGO
 62
     5
100
AcDbTrace
 10
387.3731983498481
 20
67.33974232353808
 30
0.0
 11
388.2470072695566
 21
67.33974232353808
 31
0.0
 12
391.531323553978
 22
74.9629718644441
 32
0.0
 13
390.657514634269
 23
71.75900582551246
 33
0.0
  0
SOLID
  5
1400
330
1F
100
AcDbEntity
  8
LOGO
 62
     2
100
AcDbTrace
 10
387.0116222451401
 20
67.33974232353786
 30
0.0
 11
387.3731983498481
 21
67.33974232353808
 31
0.0
 12
391.531323553978
 22
75.62586138974015
 32
0.0
 13
391.8928996586855
 23
75.62586138974015
 33
0.0
  0
SOLID
  5
1401
330
1F
100
AcDbEntity
  8
LOGO
 62
     5
100
AcDbTrace
 10
384.7368833429431
 20
64.32660811764653
 30
0.0
 11
385.0381967635327
 21
64.32660811764653
 31
0.0
 12
385.886718808274
 22
65.83317522059218
 32
0.0
 13
386.1880322288627
 23
65.83317522059218
 33
0.0
  0
SOLID
  5
1402
330
1F
100
AcDbEntity
  8
LOGO
 62
     5
100
AcDbTrace
 10
385.886718808274
 20
65.83317522059218
 30
0.0
 11
386.1880322288627
 21
65.83317522059218
 31
0.0
 12
385.886718808274
 22
64.32660811764653
 32
0.0
 13
386.1880322288627
 23
64.32660811764653
 33
0.0
  0
SOLID
  5
1403
330
1F
100
AcDbEntity
  8
LOGO
 62
     5
100
AcDbTrace
 10
385.886718808274
 20
64.32660811764653
 30
0.0
 11
386.1880322288627
 21
64.32660811764653
 31
0.0
 12
387.0365542736056
 22
65.83317522059218
 32
0.0
 13
387.3378676941947
 23
65.83317522059218
 33
0.0
  0
SOLID
  5
1404
330
1F
100
AcDbEntity
  8
LOGO
 62
     5
100
AcDbTrace
 10
387.0365542736056
 20
65.83317522059218
 30
0.0
 11
387.3378676941947
 21
65.83317522059218
 31
0.0
 12
387.0365542736056
 22
64.32660811764653
 32
0.0
 13
387.3378676941947
 23
64.32660811764653
 33
0.0
  0
POLYLINE
  5
1405
330
1F
100
AcDbEntity
  8
LOGO
 62
     5
100
AcDb2dPolyline
 66
     1
 10
0.0
 20
0.0
 30
0.0
 40
0.3017962946606334
 41
0.3017962946606334
  0
VERTEX
  5
1406
330
1405
100
AcDbEntity
  8
LOGO
 62
     5
100
AcDbVertex
100
AcDb2dVertex
 10
397.1364774880442
 20
65.23054837941391
 30
0.0
 42
1.0
  0
VERTEX
  5
1407
330
1405
100
AcDbEntity
  8
LOGO
 62
     5
100
AcDbVertex
100
AcDb2dVertex
 10
396.2310886040622
 20
65.23054837941391
 30
0.0
 42
1.0
  0
SEQEND
  5
1408
330
1405
100
AcDbEntity
  8
LOGO
 62
     5
  0
POLYLINE
  5
1409
330
1F
100
AcDbEntity
  8
LOGO
 62
     5
100
AcDb2dPolyline
 66
     1
 10
0.0
 20
0.0
 30
0.0
 70
     1
  0
VERTEX
  5
140A
330
1409
100
AcDbEntity
  8
LOGO
 62
     5
100
AcDbVertex
100
AcDb2dVertex
 10
394.5243902860582
 20
65.07989166911913
 30
0.0
 42
1.000000057330635
  0
VERTEX
  5
140B
330
1409
100
AcDbEntity
  8
LOGO
 62
     5
100
AcDbVertex
100
AcDb2dVertex
 10
395.4283305478258
 20
65.07989166911913
 30
0.0
 42
1.000000057330635
  0
SEQEND
  5
140C
330
1409
100
AcDbEntity
  8
LOGO
 62
     5
  0
CIRCLE
  5
140D
330
1F
100
AcDbEntity
  8
LOGO
 62
     5
100
AcDbCircle
 10
394.9763604169427
 20
65.07989166911913
 30
0.0
 40
0.4519701308837649
  0
POLYLINE
  5
140E
330
1F
100
AcDbEntity
  8
LOGO
 62
     5
100
AcDb2dPolyline
 66
     1
 10
0.0
 20
0.0
 30
0.0
 70
     1
 40
0.3017962946606334
 41
0.3017962946606334
  0
VERTEX
  5
140F
330
140E
100
AcDbEntity
  8
LOGO
 62
     5
100
AcDbVertex
100
AcDb2dVertex
 10
394.372767827621
 20
65.07989166911913
 30
0.0
 42
1.0
  0
VERTEX
  5
1410
330
140E
100
AcDbEntity
  8
LOGO
 62
     5
100
AcDbVertex
100
AcDb2dVertex
 10
395.5799530062634
 20
65.07989166911913
 30
0.0
 42
1.0
  0
SEQEND
  5
1411
330
140E
100
AcDbEntity
  8
LOGO
 62
     5
  0
LINE
  5
1412
330
1F
100
AcDbEntity
  8
LOGO
100
AcDbLine
 10
397.2864098872311
 20
64.32660811764653
 30
0.0
 11
397.2864098872311
 21
65.23054837941391
 31
0.0
  0
SOLID
  5
1413
330
1F
100
AcDbEntity
  8
LOGO
 62
     5
100
AcDbTrace
 10
395.428300416485
 20
65.83317522059218
 30
0.0
 11
395.7296138370736
 21
65.83317522059218
 31
0.0
 12
395.428300416485
 22
64.32660811764653
 32
0.0
 13
395.7296138370736
 23
64.32660811764653
 33
0.0
  0
SOLID
  5
1414
330
1F
100
AcDbEntity
  8
LOGO
 62
     5
100
AcDbTrace
 10
396.0811562048744
 20
64.32660811764653
 30
0.0
 11
396.382469625464
 21
64.32660811764653
 31
0.0
 12
396.0811562048744
 22
65.83317522059218
 32
0.0
 13
396.382469625464
 23
65.83317522059218
 33
0.0
  0
SOLID
  5
1415
330
1F
100
AcDbEntity
  8
LOGO
 62
     5
100
AcDbTrace
 10
396.9850964666425
 20
65.23054837941391
 30
0.0
 11
397.2864098872311
 21
65.23054837941391
 31
0.0
 12
396.9850964666425
 22
64.32660811764653
 32
0.0
 13
397.2864098872311
 23
64.32660811764653
 33
0.0
  0
SOLID
  5
1416
330
1F
100
AcDbEntity
  8
LOGO
 62
     5
100
AcDbTrace
 10
396.0510248628154
 20
74.9629718644441
 30
0.0
 11
395.1772159431073
 21
71.75900582551246
 31
0.0
 12
396.0510248628154
 22
67.33974232353786
 32
0.0
 13
395.1772159431073
 23
67.33974232353786
 33
0.0
  0
SOLID
  5
1417
330
1F
100
AcDbEntity
  8
LOGO
 62
     5
100
AcDbTrace
 10
396.412600967523
 20
67.33974232353786
 30
0.0
 11
397.2864098872311
 21
67.33974232353786
 31
0.0
 12
396.412600967523
 22
75.62586138974015
 32
0.0
 13
397.2864098872311
 23
75.62586138974063
 33
0.0
  0
SOLID
  5
1418
330
1F
100
AcDbEntity
  8
LOGO
 62
     2
100
AcDbTrace
 10
396.0510248628154
 20
75.62586138974063
 30
0.0
 11
396.412600967523
 21
75.62586138974015
 31
0.0
 12
396.0510248628154
 22
67.33974232353786
 32
0.0
 13
396.412600967523
 23
67.33974232353786
 33
0.0
  0
POLYLINE
  5
1419
330
1F
100
AcDbEntity
  8
LOGO
 62
     5
100
AcDb2dPolyline
 66
     1
 10
0.0
 20
0.0
 30
0.0
 40
0.3017962946606334
 41
0.3017962946606334
  0
VERTEX
  5
141A
330
1419
100
AcDbEntity
  8
LOGO
 62
     5
100
AcDbVertex
100
AcDb2dVertex
 10
392.8176317053713
 20
65.23054837941391
 30
0.0
 42
1.0
  0
VERTEX
  5
141B
330
1419
100
AcDbEntity
  8
LOGO
 62
     5
100
AcDbVertex
100
AcDb2dVertex
 10
391.9122428213893
 20
65.23054837941391
 30
0.0
 42
1.0
  0
SEQEND
  5
141C
330
1419
100
AcDbEntity
  8
LOGO
 62
     5
  0
POLYLINE
  5
141D
330
1F
100
AcDbEntity
  8
LOGO
 62
     5
100
AcDb2dPolyline
 66
     1
 10
0.0
 20
0.0
 30
0.0
 40
0.3017962946606334
 41
0.3017962946606334
  0
VERTEX
  5
141E
330
141D
100
AcDbEntity
  8
LOGO
 62
     5
100
AcDbVertex
100
AcDb2dVertex
 10
393.7215719671381
 20
65.23054837941391
 30
0.0
 42
1.0
  0
VERTEX
  5
141F
330
141D
100
AcDbEntity
  8
LOGO
 62
     5
100
AcDbVertex
100
AcDb2dVertex
 10
392.8161830831565
 20
65.23054837941391
 30
0.0
 42
1.0
  0
SEQEND
  5
1420
330
141D
100
AcDbEntity
  8
LOGO
 62
     5
  0
POLYLINE
  5
1421
330
1F
100
AcDbEntity
  8
LOGO
 62
     5
100
AcDb2dPolyline
 66
     1
 10
0.0
 20
0.0
 30
0.0
 40
0.3017962946606334
 41
0.3017962946606334
  0
VERTEX
  5
1422
330
1421
100
AcDbEntity
  8
LOGO
 62
     5
100
AcDbVertex
100
AcDb2dVertex
 10
389.4027261844653
 20
65.23054837941391
 30
0.0
 42
1.0
  0
VERTEX
  5
1423
330
1421
100
AcDbEntity
  8
LOGO
 62
     5
100
AcDbVertex
100
AcDb2dVertex
 10
388.4973373004837
 20
65.23054837941391
 30
0.0
 42
1.0
  0
SEQEND
  5
1424
330
1421
100
AcDbEntity
  8
LOGO
 62
     5
  0
SOLID
  5
1425
330
1F
100
AcDbEntity
  8
LOGO
 62
     5
100
AcDbTrace
 10
388.3474049012964
 20
65.83317522059218
 30
0.0
 11
388.648718321885
 21
65.83317522059218
 31
0.0
 12
388.3474049012964
 22
64.32660811764653
 32
0.0
 13
388.648718321885
 23
64.32660811764653
 33
0.0
  0
SOLID
  5
1426
330
1F
100
AcDbEntity
  8
LOGO
 62
     5
100
AcDbTrace
 10
389.251345163064
 20
65.23054837941391
 30
0.0
 11
389.5526585836534
 21
65.23054837941391
 31
0.0
 12
389.251345163064
 22
64.32660811764653
 32
0.0
 13
389.5526585836534
 23
64.32660811764653
 33
0.0
  0
POLYLINE
  5
1427
330
1F
100
AcDbEntity
  8
LOGO
 62
     5
100
AcDb2dPolyline
 66
     1
 10
0.0
 20
0.0
 30
0.0
 70
     1
 40
0.3017962946606334
 41
0.3017962946606334
  0
VERTEX
  5
1428
330
1427
100
AcDbEntity
  8
LOGO
 62
     5
100
AcDbVertex
100
AcDb2dVertex
 10
390.0539220449477
 20
65.07989166911913
 30
0.0
 42
1.0
  0
VERTEX
  5
1429
330
1427
100
AcDbEntity
  8
LOGO
 62
     5
100
AcDbVertex
100
AcDb2dVertex
 10
391.2611072235906
 20
65.07989166911913
 30
0.0
 42
1.0
  0
SEQEND
  5
142A
330
1427
100
AcDbEntity
  8
LOGO
 62
     5
  0
SOLID
  5
142B
330
1F
100
AcDbEntity
  8
LOGO
 62
     5
100
AcDbTrace
 10
391.1094546338114
 20
66.28514535147622
 30
0.0
 11
391.4107680544004
 21
66.28514535147622
 31
0.0
 12
391.1094546338114
 22
64.32660811764653
 32
0.0
 13
391.4107680544004
 23
64.32660811764653
 33
0.0
  0
SOLID
  5
142C
330
1F
100
AcDbEntity
  8
LOGO
 62
     5
100
AcDbTrace
 10
391.7623104222025
 20
65.83317522059218
 30
0.0
 11
392.0636238427911
 21
65.83317522059218
 31
0.0
 12
391.7623104222025
 22
64.32660811764653
 32
0.0
 13
392.0636238427911
 23
64.32660811764653
 33
0.0
  0
SOLID
  5
142D
330
1F
100
AcDbEntity
  8
LOGO
 62
     5
100
AcDbTrace
 10
392.6662506839694
 20
65.23054837941391
 30
0.0
 11
392.9675641045587
 21
65.23054837941391
 31
0.0
 12
392.6662506839694
 22
64.32660811764653
 32
0.0
 13
392.9675641045587
 23
64.32660811764653
 33
0.0
  0
SOLID
  5
142E
330
1F
100
AcDbEntity
  8
LOGO
 62
     5
100
AcDbTrace
 10
393.5701909457368
 20
65.23054837941391
 30
0.0
 11
393.8715043663258
 21
65.23054837941391
 31
0.0
 12
393.5701909457368
 22
64.32660811764607
 32
0.0
 13
393.8715043663258
 23
64.32660811764607
 33
0.0
  0
SOLID
  5
142F
330
1F
100
AcDbEntity
  8
LOGO
 62
     5
100
AcDbTrace
 10
387.6945491129056
 20
66.04409461500472
 30
0.0
 11
387.9958625334957
 21
66.04409461500472
 31
0.0
 12
387.6945491129056
 22
66.28514535147622
 32
0.0
 13
387.9958625334957
 23
66.28514535147622
 33
0.0
  0
SOLID
  5
1430
330
1F
100
AcDbEntity
  8
LOGO
 62
     5
100
AcDbTrace
 10
387.6945491129056
 20
65.83317522059218
 30
0.0
 11
387.9958625334957
 21
65.83317522059218
 31
0.0
 12
387.6945491129056
 22
64.32660811764607
 32
0.0
 13
387.9958625334957
 23
64.32660811764653
 33
0.0
  0
SOLID
  5
1431
330
1F
100
AcDbEntity
  8
LOGO
 62
     5
100
AcDbTrace
 10
390.657514634269
 20
67.33974232353808
 30
0.0
 11
391.531323553978
 21
67.33974232353808
 31
0.0
 12
390.657514634269
 22
71.75900582551246
 32
0.0
 13
391.531323553978
 23
74.9629718644441
 33
0.0
  0
SOLID
  5
1432
330
1F
100
AcDbEntity
  8
LOGO
 62
     5
100
AcDbTrace
 10
391.8928996586855
 20
75.62586138974015
 30
0.0
 11
392.7667085783937
 21
75.62586138974063
 31
0.0
 12
391.8928996586855
 22
68.00263184883417
 32
0.0
 13
392.7667085783937
 23
71.20659788776579
 33
0.0
  0
SOLID
  5
1433
330
1F
100
AcDbEntity
  8
LOGO
 62
     2
100
AcDbTrace
 10
391.531323553978
 20
75.62586138974015
 30
0.0
 11
391.8928996586855
 21
75.62586138974015
 31
0.0
 12
391.531323553978
 22
67.33974232353808
 32
0.0
 13
391.8928996586855
 23
67.33974232353808
 33
0.0
  0
SOLID
  5
1434
330
1F
100
AcDbEntity
  8
LOGO
 62
     5
100
AcDbTrace
 10
391.8928996586855
 20
68.00263184883417
 30
0.0
 11
392.7667085783937
 21
71.20659788776579
 31
0.0
 12
396.0510248628154
 22
75.62586138974063
 32
0.0
 13
395.1772159431073
 23
75.62586138974063
 33
0.0
  0
SOLID
  5
1435
330
1F
100
AcDbEntity
  8
LOGO
 62
     5
100
AcDbTrace
 10
391.8928996586855
 20
67.33974232353808
 30
0.0
 11
392.7667085783937
 21
67.33974232353808
 31
0.0
 12
396.0510248628154
 22
74.9629718644441
 32
0.0
 13
395.1772159431073
 23
71.75900582551246
 33
0.0
  0
SOLID
  5
1436
330
1F
100
AcDbEntity
  8
LOGO
 62
     2
100
AcDbTrace
 10
391.531323553978
 20
67.33974232353808
 30
0.0
 11
391.8928996586855
 21
67.33974232353808
 31
0.0
 12
396.0510248628154
 22
75.62586138974063
 32
0.0
 13
396.412600967523
 23
75.62586138974015
 33
0.0
  0
LINE
  5
1437
330
1F
100
AcDbEntity
  8
LOGO
 62
     4
100
AcDbLine
 10
469.7725189291865
 20
64.9906670876691
 30
0.0
 11
469.7725189291865
 21
57.58049020984064
 31
0.0
  0
LINE
  5
1438
330
1F
100
AcDbEntity
  8
LOGO
 62
     4
100
AcDbLine
 10
456.299470060408
 20
64.9906670876691
 30
0.0
 11
456.299470060408
 21
57.58049020984064
 31
0.0
  0
LINE
  5
1439
330
1F
100
AcDbEntity
  8
LOGO
 62
     4
100
AcDbLine
 10
469.7725189291865
 20
57.58049020984064
 30
0.0
 11
456.299470060408
 21
57.58049020984064
 31
0.0
  0
LINE
  5
143A
330
1F
100
AcDbEntity
  8
LOGO
 62
     4
100
AcDbLine
 10
482.7019732208328
 20
74.08497507409409
 30
0.0
 11
456.299470060408
 21
74.08497507409409
 31
0.0
  0
LINE
  5
143B
330
1F
100
AcDbEntity
  8
LOGO
 62
     4
100
AcDbLine
 10
482.7019732208328
 20
68.02210308314393
 30
0.0
 11
456.299470060408
 21
68.02210308314393
 31
0.0
  0
LINE
  5
143C
330
1F
100
AcDbEntity
  8
LOGO
 62
     4
100
AcDbLine
 10
456.299470060408
 20
74.08497507409409
 30
0.0
 11
456.299470060408
 21
68.02210308314393
 31
0.0
  0
LINE
  5
143D
330
1F
100
AcDbEntity
  8
LOGO
 62
     4
100
AcDbLine
 10
482.7019732208328
 20
74.08497507409409
 30
0.0
 11
482.7019732208328
 21
68.02210308314393
 31
0.0
  0
LINE
  5
143E
330
1F
100
AcDbEntity
  8
LOGO
 62
     4
100
AcDbLine
 10
463.7389492445525
 20
68.02210308314393
 30
0.0
 11
463.7389492445525
 21
64.9906670876691
 31
0.0
  0
TEXT
  5
143F
330
1F
100
AcDbEntity
  8
LOGO
  6
Continuous
 62
     7
100
AcDbText
 10
457.6903837742556
 20
69.28771874733685
 30
0.0
 40
3.537187499999998
  1
MADV400
  7
CHINESET
100
AcDbText
  0
LINE
  5
1440
330
1F
100
AcDbEntity
  8
LOGO
 62
     4
100
AcDbLine
 10
469.7725189291865
 20
64.9906670876691
 30
0.0
 11
456.299470060408
 21
64.9906670876691
 31
0.0
  0
TEXT
  5
1441
330
1F
100
AcDbEntity
  8
LOGO
  6
Continuous
100
AcDbText
 10
460.6229287873754
 20
58.62642096250102
 30
132.4502140962503
 40
1.515937499999999
  1
Model
 41
0.8
  7
CHINESET
100
AcDbText
  0
TEXT
  5
1442
330
1F
100
AcDbEntity
  8
LOGO
100
AcDbText
 10
460.2194355049726
 20
61.43664237965198
 30
132.4502140962503
 40
2.526562499999998
  1
型號
  7
CHINESET
100
AcDbText
  0
LINE
  5
1443
330
1F
100
AcDbEntity
  8
LOGO
  6
Continuous
 62
     7
100
AcDbLine
 10
484.0290374726628
 20
71.0320634278669
 30
0.0
 11
486.7061805194973
 21
71.0320634278669
 31
0.0
  0
LINE
  5
1444
330
1F
100
AcDbEntity
  8
LOGO
 62
     4
100
AcDbLine
 10
497.1981311650006
 20
64.9906670876691
 30
0.0
 11
497.1981311650006
 21
57.58049020984064
 31
0.0
  0
LINE
  5
1445
330
1F
100
AcDbEntity
  8
LOGO
 62
     4
100
AcDbLine
 10
486.892150279689
 20
64.9906670876691
 30
0.0
 11
486.892150279689
 21
57.58049020984064
 31
0.0
  0
LINE
  5
1446
330
1F
100
AcDbEntity
  8
LOGO
 62
     4
100
AcDbLine
 10
497.1981311650006
 20
57.58049020984064
 30
0.0
 11
486.892150279689
 21
57.58049020984064
 31
0.0
  0
LINE
  5
1447
330
1F
100
AcDbEntity
  8
LOGO
 62
     4
100
AcDbLine
 10
496.4427645454732
 20
74.08497507409409
 30
0.0
 11
488.1331129043497
 21
74.08497507409409
 31
0.0
  0
LINE
  5
1448
330
1F
100
AcDbEntity
  8
LOGO
 62
     4
100
AcDbLine
 10
496.4427645454732
 20
68.02210308314393
 30
0.0
 11
488.1331129043497
 21
68.02210308314393
 31
0.0
  0
LINE
  5
1449
330
1F
100
AcDbEntity
  8
LOGO
 62
     4
100
AcDbLine
 10
488.1331129043497
 20
74.08497507409409
 30
0.0
 11
488.1331129043497
 21
68.02210308314393
 31
0.0
  0
LINE
  5
144A
330
1F
100
AcDbEntity
  8
LOGO
 62
     4
100
AcDbLine
 10
496.4427645454732
 20
74.08497507409409
 30
0.0
 11
496.4427645454732
 21
68.02210308314393
 31
0.0
  0
LINE
  5
144B
330
1F
100
AcDbEntity
  8
LOGO
 62
     4
100
AcDbLine
 10
492.4229823404812
 20
68.02210308314393
 30
0.0
 11
492.4229823404812
 21
64.9906670876691
 31
0.0
  0
TEXT
  5
144C
330
1F
100
AcDbEntity
  8
LOGO
  6
Continuous
 62
     7
100
AcDbText
 10
489.5227870938417
 20
69.28771874733685
 30
0.0
 40
3.537187499999998
  1
W*
  7
CHINESET
100
AcDbText
  0
LINE
  5
144D
330
1F
100
AcDbEntity
  8
LOGO
 62
     4
100
AcDbLine
 10
497.1981311650006
 20
64.9906670876691
 30
0.0
 11
486.892150279689
 21
64.9906670876691
 31
0.0
  0
TEXT
  5
144E
330
1F
100
AcDbEntity
  8
LOGO
  6
Continuous
100
AcDbText
 10
490.2740379461721
 20
58.62642096250102
 30
132.4502140962503
 40
1.515937499999999
  1
Type
 41
0.8
  7
CHINESET
100
AcDbText
  0
TEXT
  5
144F
330
1F
100
AcDbEntity
  8
LOGO
100
AcDbText
 10
489.4194851710583
 20
61.43664237965198
 30
132.4502140962503
 40
2.526562499999998
  1
型式
  7
CHINESET
100
AcDbText
  0
TEXT
  5
1450
330
1F
100
AcDbEntity
  8
LOGO
100
AcDbText
 10
429.7079789601927
 20
56.97150042438142
 30
0.0
 40
2.021249999999999
  1
10811103
 41
0.7
  7
CHINESET
 72
     1
 11
434.3568539601927
 21
56.97150042438142
 31
0.0
100
AcDbText
  0
LINE
  5
1451
330
1F
100
AcDbEntity
  8
LOGO
 62
     4
100
AcDbLine
 10
440.6295989282972
 20
59.93827376187736
 30
0.0
 11
440.629598928298
 21
55.89635910124362
 31
0.0
  0
LINE
  5
1452
330
1F
100
AcDbEntity
  8
LOGO
 62
     4
100
AcDbLine
 10
440.6295989282972
 20
59.93827376187736
 30
0.0
 11
428.5020989282982
 21
59.93827376187736
 31
0.0
  0
LINE
  5
1453
330
1F
100
AcDbEntity
  8
LOGO
  6
AM_ISO08W050x2
 48
0.3
100
AcDbLine
 10
417.1535346428686
 20
70.0473832559793
 30
0.0
 11
420.3886760250274
 21
70.0473832559793
 31
0.0
1001
GENIUS_GENOREF_13
1005
1464
  0
LINE
  5
1454
330
1F
100
AcDbEntity
  8
LOGO
  6
AM_ISO08W050x2
 48
0.3
100
AcDbLine
 10
418.7711053339481
 20
68.4298125649
 30
0.0
 11
418.7711053339481
 21
71.66495394705858
 31
0.0
1001
GENIUS_GENOREF_13
1005
1463
  0
LINE
  5
1455
330
1F
100
AcDbEntity
  8
LOGO
  6
CENTER
 48
0.5
100
AcDbLine
 10
422.1722089778399
 20
70.0473832559793
 30
0.0
 11
426.5154059219291
 21
70.0473832559793
 31
0.0
1001
GENIUS_GENOREF_13
1005
1462
  0
POINT
  5
1462
330
1F
100
AcDbEntity
  8
0
 60
     1
100
AcDbPoint
 10
-1785.162738964181
 20
-848.889065864882
 30
0.0
1001
GENIUS_GENOBJ-N-CRS_13
1002
{
1000
OWNER
1000
GEN
1002
}
1001
GENIUS_GENOLIS_13
1002
{
1000
ENT
1005
0
1005
0
1005
0
1005
1455
1002
}
1001
GENIUS_GENOENT_13
1002
{
1000
MYREF
1005
1462
1002
}
1002
{
1000
GRP
1005
0
1002
}
1001
GENIUS_GENODEF_13
1002
{
1000
HIER
1070
    10
1002
}
1002
{
1000
MANEDIT
1070
     1
1002
}
1002
{
1000
NOSEL
1070
     0
1002
}
1002
{
1000
BEHIND
1070
     0
1002
}
1002
{
1000
OTHER
1070
     0
1002
}
1002
{
1000
REACTOR
1002
}
  0
POINT
  5
1463
330
1F
100
AcDbEntity
  8
0
 60
     1
100
AcDbPoint
 10
-1796.487324187036
 20
-840.0134793862457
 30
0.0
1001
GENIUS_GENOBJ-N-CRS_13
1002
{
1000
OWNER
1000
GEN
1002
}
1001
GENIUS_GENOLIS_13
1002
{
1000
ENT
1005
0
1005
0
1005
0
1005
1454
1002
}
1001
GENIUS_GENOENT_13
1002
{
1000
MYREF
1005
1463
1002
}
1002
{
1000
GRP
1005
0
1002
}
1001
GENIUS_GENODEF_13
1002
{
1000
HIER
1070
    10
1002
}
1002
{
1000
MANEDIT
1070
     1
1002
}
1002
{
1000
NOSEL
1070
     0
1002
}
1002
{
1000
BEHIND
1070
     0
1002
}
1002
{
1000
OTHER
1070
     0
1002
}
1002
{
1000
REACTOR
1002
}
  0
POINT
  5
1464
330
1F
100
AcDbEntity
  8
0
 60
     1
100
AcDbPoint
 10
-1790.128650489199
 20
-848.889065864882
 30
0.0
1001
GENIUS_GENOBJ-N-CRS_13
1002
{
1000
OWNER
1000
GEN
1002
}
1001
GENIUS_GENOLIS_13
1002
{
1000
ENT
1005
0
1005
0
1005
0
1005
1453
1002
}
1001
GENIUS_GENOENT_13
1002
{
1000
MYREF
1005
1464
1002
}
1002
{
1000
GRP
1005
0
1002
}
1001
GENIUS_GENODEF_13
1002
{
1000
HIER
1070
    10
1002
}
1002
{
1000
MANEDIT
1070
     1
1002
}
1002
{
1000
NOSEL
1070
     0
1002
}
1002
{
1000
BEHIND
1070
     0
1002
}
1002
{
1000
OTHER
1070
     0
1002
}
1002
{
1000
REACTOR
1002
}
  0
DIMENSION
  5
1475
102
{ACAD_XDICTIONARY
360
1482
102
}
102
{ACAD_REACTORS
330
1483
102
}
330
1F
100
AcDbEntity
  8
DIM
100
AcDbDimension
  2
*D49
 10
480.5795449497808
 20
195.8149849008749
 30
0.0
 11
472.5728260346636
 21
195.8149849008749
 31
0.0
 70
   160
  1
%%c15
 71
     5
 42
15.30000000000001
  3
STANDARD
100
AcDbAlignedDimension
 13
465.2795449497808
 23
215.0993205228177
 33
0.0
 14
480.5795449497808
 24
215.0993205228177
 34
0.0
100
AcDbRotatedDimension
  0
LEADER
  5
1663
102
{ACAD_XDICTIONARY
360
1665
102
}
102
{ACAD_REACTORS
330
1666
102
}
330
1F
100
AcDbEntity
  8
DIM
100
AcDbLeader
  3
STANDARD
 73
     0
 74
     0
 75
     1
 40
2.5
 41
13.33333333333333
 76
     3
 10
468.6476532356933
 20
215.4215865242367
 30
0.0
 10
483.9284827233888
 20
200.3170066851801
 30
0.0
 10
486.9284827233888
 20
200.3170066851801
 30
0.0
340
1664
213
1.845379866006453
223
-0.4998944300068048
233
0.0
  0
MTEXT
  5
1664
102
{ACAD_REACTORS
330
1663
102
}
330
1F
100
AcDbEntity
  8
DIM
100
AcDbMText
 10
485.8831028573823
 20
204.1169011151869
 30
0.0
 40
2.5
 41
0.0
 71
     1
 72
     1
  1
PT 1/8
 73
     1
 44
1.0
1001
ACAD
1000
MTEXTBEGIN
1070
    73
1070
     1
1070
    44
1040
1.0
1070
    74
1070
     0
1000
MTEXTEND
  0
LINE
  5
1668
330
1F
100
AcDbEntity
  8
0
100
AcDbLine
 10
384.0410376613298
 20
191.1427620831951
 30
0.0
 11
384.0410376613298
 21
191.1427620831951
 31
0.0
  0
LINE
  5
1669
330
1F
100
AcDbEntity
  8
LOGO
 62
     4
100
AcDbLine
 10
384.0410376613298
 20
191.1427620831951
 30
0.0
 11
529.5943971115946
 21
191.1427620831951
 31
0.0
  0
ENDSEC
  0
SECTION
  2
OBJECTS
  0
DICTIONARY
  5
C
330
0
100
AcDbDictionary
281
     1
  3
ACAD_COLOR
350
126D
  3
ACAD_GROUP
350
D
  3
ACAD_LAYOUT
350
1A
  3
ACAD_MATERIAL
350
126C
  3
ACAD_MLINESTYLE
350
17
  3
ACAD_PLOTSETTINGS
350
19
  3
ACAD_PLOTSTYLENAME
350
E
  3
ACAD_TABLESTYLE
350
126E
  3
ACDBHEADERROUNDTRIPXREC
350
1835
  3
AcDbVariableDictionary
350
A5A
  3
AcmDictionary
350
114C
  3
AMG
350
1132
  3
AMGSNAPSETTINGS
350
11A3
  3
DWGPROPS
350
1834
  0
DICTIONARY
  5
1361
330
2
100
AcDbDictionary
280
     1
281
     1
  3
ACAD_LAYERSTATES
360
1362
  0
DICTIONARY
  5
10DD
330
1F
100
AcDbDictionary
280
     1
281
     1
  3
ACAD_INDEX
360
11AE
  3
ACAD_LAYOUTSELFREF
360
11FA
  0
DICTIONARY
  5
10DF
330
1B
100
AcDbDictionary
280
     1
281
     1
  3
ACAD_LAYOUTSELFREF
360
11F9
  0
DICTIONARY
  5
10E1
330
23
100
AcDbDictionary
280
     1
281
     1
  3
ACAD_LAYOUTSELFREF
360
11FB
  0
DICTIONARY
  5
1482
330
1475
100
AcDbDictionary
280
     1
281
     1
  3
ACAD_DIMASSOC
360
1483
  0
DICTIONARY
  5
1665
330
1663
100
AcDbDictionary
280
     1
281
     1
  3
ACAD_DIMASSOC
360
1666
  0
DICTIONARY
  5
126D
102
{ACAD_REACTORS
330
C
102
}
330
C
100
AcDbDictionary
281
     1
  0
DICTIONARY
  5
D
102
{ACAD_REACTORS
330
C
102
}
330
C
100
AcDbDictionary
281
     1
  0
DICTIONARY
  5
1A
102
{ACAD_REACTORS
330
C
102
}
330
C
100
AcDbDictionary
281
     1
  3
Model
350
22
  3
配置1
350
1E
  3
配置2
350
26
  0
DICTIONARY
  5
126C
102
{ACAD_REACTORS
330
C
102
}
330
C
100
AcDbDictionary
281
     1
  0
DICTIONARY
  5
17
102
{ACAD_REACTORS
330
C
102
}
330
C
100
AcDbDictionary
281
     1
  3
Standard
350
18
  0
DICTIONARY
  5
19
102
{ACAD_REACTORS
330
C
102
}
330
C
100
AcDbDictionary
281
     1
  0
ACDBDICTIONARYWDFLT
  5
E
102
{ACAD_REACTORS
330
C
102
}
330
C
100
AcDbDictionary
281
     1
  3
Normal
350
F
100
AcDbDictionaryWithDefault
340
F
  0
DICTIONARY
  5
126E
102
{ACAD_REACTORS
330
C
102
}
330
C
100
AcDbDictionary
281
     1
  3
Standard
350
126F
  0
DICTIONARY
  5
1835
102
{ACAD_REACTORS
330
C
102
}
330
C
100
AcDbDictionary
281
     1
  0
DICTIONARY
  5
A5A
102
{ACAD_REACTORS
330
C
102
}
330
C
100
AcDbDictionary
281
     1
  3
CTABLESTYLE
350
157D
  3
DIMASSOC
350
A5C
  3
HIDETEXT
350
A5B
  3
INDEXCTL
350
126A
  3
PROJECTNAME
350
1832
  0
DICTIONARY
  5
114C
102
{ACAD_REACTORS
330
C
102
}
330
C
100
AcDbDictionary
281
     1
  3
AcmStdDictionary
350
16D2
  3
AMDTSECTSYM_ARROWCOLOR
350
134D
  0
DICTIONARY
  5
1132
102
{ACAD_REACTORS
330
C
102
}
330
C
100
AcDbDictionary
281
     1
  0
DICTIONARY
  5
11A3
102
{ACAD_REACTORS
330
C
102
}
330
C
100
AcDbDictionary
281
     1
  0
XRECORD
  5
1834
102
{ACAD_REACTORS
330
C
102
}
330
C
100
AcDbXrecord
280
     1
  1
DWGPROPS COOKIE
  2

  3

  4

  6

  7

  8

  9

300
AmdtFileType=84
301
=
302
=
303
=
304
=
305
=
306
=
307
=
308
=
309
=
 40
0.0175087037037037
 41
2452654.711406424
 42
2454781.4612675
  1

 90
        1
  0
DICTIONARY
  5
1362
102
{ACAD_REACTORS
330
1361
102
}
330
1361
100
AcDbDictionary
281
     1
  0
DICTIONARY
  5
11AE
102
{ACAD_REACTORS
330
10DD
102
}
330
10DD
100
AcDbDictionary
281
     1
  3
*A1
350
11AF
  0
XRECORD
  5
11FA
102
{ACAD_REACTORS
330
10DD
102
}
330
10DD
100
AcDbXrecord
280
     1
340
1F
  0
XRECORD
  5
11F9
102
{ACAD_REACTORS
330
10DF
102
}
330
10DF
100
AcDbXrecord
280
     1
340
1B
  0
XRECORD
  5
11FB
102
{ACAD_REACTORS
330
10E1
102
}
330
10E1
100
AcDbXrecord
280
     1
340
23
  0
DIMASSOC
  5
1483
102
{ACAD_REACTORS
330
1482
102
}
330
1482
100
AcDbDimAssoc
330
1475
 90
        3
 70
     0
 71
     0
  1
AcDbOsnapPointRef
 72
     1
331
579
 73
     0
 91
        0
 40
0.0
 10
0.0
 20
0.0
 30
2.000000000000000E+50
 75
     0
  1
AcDbOsnapPointRef
 72
    13
331
59A
 73
     0
 91
        0
 40
0.0
 10
0.0
 20
0.0
 30
2.000000000000000E+50
 75
     0
  0
DIMASSOC
  5
1666
102
{ACAD_REACTORS
330
1665
102
}
330
1665
100
AcDbDimAssoc
330
1663
 90
        1
 70
     0
 71
     0
  1
AcDbOsnapPointRef
 72
    10
331
56A
 73
     2
 91
        0
 40
0.5062840001234008
 10
0.0
 20
0.0
 30
0.0
 75
     0
  0
LAYOUT
  5
22
102
{ACAD_XDICTIONARY
360
1838
102
}
102
{ACAD_REACTORS
330
1A
102
}
330
1A
100
AcDbPlotSettings
  1

  2
none_device
  4
ISO_A4_(210.00_x_297.00_MM)
  6

 40
7.5
 41
20.0
 42
7.5
 43
20.0
 44
210.0
 45
297.0
 46
0.0
 47
0.0
 48
0.0
 49
0.0
140
0.0
141
0.0
142
1.0
143
1.549802550725086
 70
 11952
 72
     1
 73
     1
 74
     0
  7
acad.ctb
 75
     0
147
0.6452434857150948
148
-125.0612187645936
149
143.5687029335431
100
AcDbLayout
  1
Model
 70
     1
 71
     0
 10
0.0
 20
0.0
 11
12.0
 21
9.0
 12
0.0
 22
0.0
 32
0.0
 14
0.0
 24
0.0
 34
0.0
 15
0.0
 25
0.0
 35
0.0
146
0.0
 13
0.0
 23
0.0
 33
0.0
 16
1.0
 26
0.0
 36
0.0
 17
0.0
 27
1.0
 37
0.0
 76
     0
330
1F
1001
ACAD_PSEXT
1000
無
1000
無
1000
不適用
1000
除非另選一新建的繪圖機規劃名稱，否則配置將不會出圖。
1070
     0
  0
LAYOUT
  5
1E
102
{ACAD_XDICTIONARY
360
1836
102
}
102
{ACAD_REACTORS
330
1A
102
}
330
1A
100
AcDbPlotSettings
  1

  2
自動 RD 上的 Epson Stylus Photo 750 單色
  4

  6

 40
0.0
 41
0.0
 42
0.0
 43
0.0
 44
0.0
 45
0.0
 46
0.0
 47
0.0
 48
0.0
 49
0.0
140
0.0
141
0.0
142
1.0
143
1.0
 70
   688
 72
     0
 73
     0
 74
     5
  7
acad.ctb
 75
    16
147
1.0
148
0.0
149
0.0
100
AcDbLayout
  1
配置1
 70
     1
 71
     1
 10
0.0
 20
0.0
 11
420.0
 21
297.0
 12
0.0
 22
0.0
 32
0.0
 14
1.000000000000000E+20
 24
1.000000000000000E+20
 34
1.000000000000000E+20
 15
-1.000000000000000E+20
 25
-1.000000000000000E+20
 35
-1.000000000000000E+20
146
0.0
 13
0.0
 23
0.0
 33
0.0
 16
1.0
 26
0.0
 36
0.0
 17
0.0
 27
1.0
 37
0.0
 76
     0
330
1B
  0
LAYOUT
  5
26
102
{ACAD_XDICTIONARY
360
183A
102
}
102
{ACAD_REACTORS
330
1A
102
}
330
1A
100
AcDbPlotSettings
  1

  2
自動 RD 上的 Epson Stylus Photo 750 單色
  4

  6

 40
0.0
 41
0.0
 42
0.0
 43
0.0
 44
0.0
 45
0.0
 46
0.0
 47
0.0
 48
0.0
 49
0.0
140
0.0
141
0.0
142
1.0
143
1.0
 70
   688
 72
     0
 73
     0
 74
     5
  7
acad.ctb
 75
    16
147
1.0
148
0.0
149
0.0
100
AcDbLayout
  1
配置2
 70
     1
 71
     2
 10
0.0
 20
0.0
 11
12.0
 21
9.0
 12
0.0
 22
0.0
 32
0.0
 14
0.0
 24
0.0
 34
0.0
 15
0.0
 25
0.0
 35
0.0
146
0.0
 13
0.0
 23
0.0
 33
0.0
 16
1.0
 26
0.0
 36
0.0
 17
0.0
 27
1.0
 37
0.0
 76
     0
330
23
  0
MLINESTYLE
  5
18
102
{ACAD_REACTORS
330
17
102
}
330
17
100
AcDbMlineStyle
  2
STANDARD
 70
     0
  3

 62
   256
 51
90.0
 52
90.0
 71
     2
 49
0.5
 62
   256
  6
BYLAYER
 49
-0.5
 62
   256
  6
BYLAYER
  0
ACDBPLACEHOLDER
  5
F
102
{ACAD_REACTORS
330
E
102
}
330
E
  0
TABLESTYLE
  5
126F
102
{ACAD_REACTORS
330
126E
102
}
330
126E
100
AcDbTableStyle
  3
Standard
 70
     0
 71
     0
 40
1.5
 41
1.5
280
     0
281
     0
  7
Standard
140
4.5
170
     2
 62
     0
 63
     7
283
     0
274
    -2
284
     1
 64
     0
275
    -2
285
     1
 65
     0
276
    -2
286
     1
 66
     0
277
    -2
287
     1
 67
     0
278
    -2
288
     1
 68
     0
279
    -2
289
     1
 69
     0
  7
Standard
140
6.0
170
     5
 62
     0
 63
     7
283
     0
274
    -2
284
     1
 64
     0
275
    -2
285
     1
 65
     0
276
    -2
286
     1
 66
     0
277
    -2
287
     1
 67
     0
278
    -2
288
     1
 68
     0
279
    -2
289
     1
 69
     0
  7
Standard
140
4.5
170
     5
 62
     0
 63
     7
283
     0
274
    -2
284
     1
 64
     0
275
    -2
285
     1
 65
     0
276
    -2
286
     1
 66
     0
277
    -2
287
     1
 67
     0
278
    -2
288
     1
 68
     0
279
    -2
289
     1
 69
     0
  0
DICTIONARYVAR
  5
157D
102
{ACAD_REACTORS
330
A5A
102
}
330
A5A
100
DictionaryVariables
280
     0
  1
STANDARD
  0
DICTIONARYVAR
  5
A5C
102
{ACAD_REACTORS
330
A5A
102
}
330
A5A
100
DictionaryVariables
280
     0
  1
2
  0
DICTIONARYVAR
  5
A5B
102
{ACAD_REACTORS
330
A5A
102
}
330
A5A
100
DictionaryVariables
280
     0
  1
1
  0
DICTIONARYVAR
  5
126A
102
{ACAD_REACTORS
330
A5A
102
}
330
A5A
100
DictionaryVariables
280
     0
  1
1
  0
DICTIONARYVAR
  5
1832
102
{ACAD_REACTORS
330
A5A
102
}
330
A5A
100
DictionaryVariables
280
     0
  1

  0
DICTIONARY
  5
16D2
102
{ACAD_REACTORS
330
114C
102
}
330
114C
100
AcDbDictionary
281
     1
  0
XRECORD
  5
134D
102
{ACAD_REACTORS
330
114C
102
}
330
114C
100
AcDbXrecord
280
     1
 90
-1023410169
  0
LAYER_INDEX
  5
11AF
102
{ACAD_REACTORS
330
11AE
102
}
330
11AE
100
AcDbIndex
 40
2454781.4612675
100
AcDbLayerIndex
  8
0
360
1829
 90
       52
  8
AM_5
360
182A
 90
        4
  8
AM_VIS
360
182B
 90
       76
  8
AM_7
360
182C
 90
        3
  8
AM_4
360
182D
 90
       17
  8
DIM
360
182E
 90
       33
  8
Defpoints
360
182F
 90
        0
  8
LOGO
360
1830
 90
       91
  8
AM_8
360
1831
 90
        4
  0
DICTIONARY
  5
1838
330
22
100
AcDbDictionary
280
     1
281
     1
  3
ACAD_XREC_ROUNDTRIP
360
1839
  0
DICTIONARY
  5
1836
330
1E
100
AcDbDictionary
280
     1
281
     1
  3
ACAD_XREC_ROUNDTRIP
360
1837
  0
DICTIONARY
  5
183A
330
26
100
AcDbDictionary
280
     1
281
     1
  3
ACAD_XREC_ROUNDTRIP
360
183B
  0
IDBUFFER
  5
1829
330
0
100
AcDbIdBuffer
330
1462
330
1463
330
1464
330
1668
330
4EE
330
4EF
330
4F1
330
4F2
330
4FE
330
500
330
504
330
506
330
50D
330
50E
330
50F
330
510
330
511
330
512
330
515
330
51A
330
528
330
529
330
52A
330
52D
330
535
330
53F
330
540
330
541
330
543
330
544
330
545
330
546
330
547
330
55E
330
55F
330
560
330
561
330
562
330
563
330
56A
330
574
330
575
330
576
330
578
330
57A
330
57B
330
57E
330
587
330
595
330
596
330
5A5
330
5A9
  0
IDBUFFER
  5
182A
330
0
100
AcDbIdBuffer
330
4F5
330
4F6
330
4F9
330
4FA
  0
IDBUFFER
  5
182B
330
0
100
AcDbIdBuffer
330
571
330
572
330
573
330
579
330
57F
330
585
330
589
330
58B
330
58D
330
58E
330
58F
330
598
330
59A
330
59D
330
59E
330
5A0
330
5A1
330
5A2
330
5A3
330
5A4
330
5A6
330
5A7
330
5A8
330
5AA
330
5AB
330
5AC
330
5AD
330
5AE
330
4EA
330
4EB
330
4EC
330
4ED
330
4F3
330
501
330
502
330
505
330
507
330
508
330
509
330
50A
330
50B
330
50C
330
518
330
51B
330
51C
330
51D
330
520
330
521
330
522
330
523
330
52B
330
530
330
531
330
532
330
533
330
534
330
53A
330
53C
330
53D
330
53E
330
542
330
54F
330
550
330
551
330
552
330
553
330
554
330
555
330
556
330
557
330
558
330
564
330
565
330
56C
330
56F
330
570
  0
IDBUFFER
  5
182C
330
0
100
AcDbIdBuffer
330
53B
330
559
330
59F
  0
IDBUFFER
  5
182D
330
0
100
AcDbIdBuffer
330
599
330
4FD
330
4FF
330
519
330
51E
330
51F
330
52C
330
52E
330
52F
330
56B
330
56E
330
57C
330
57D
330
584
330
588
330
58C
330
597
  0
IDBUFFER
  5
182E
330
0
100
AcDbIdBuffer
330
54B
330
54C
330
54D
330
577
330
580
330
581
330
582
330
583
330
590
330
591
330
592
330
593
330
594
330
5AF
330
1475
330
1663
330
1664
330
4B0
330
4E5
330
4E6
330
4E7
330
4E8
330
513
330
514
330
516
330
517
330
524
330
525
330
526
330
527
330
548
330
549
330
54A
  0
IDBUFFER
  5
182F
330
0
100
AcDbIdBuffer
  0
IDBUFFER
  5
1830
330
0
100
AcDbIdBuffer
330
142C
330
142D
330
142E
330
142F
330
1430
330
1431
330
1432
330
1433
330
1434
330
1435
330
1436
330
1437
330
1438
330
1439
330
143A
330
143B
330
143C
330
143D
330
143E
330
143F
330
1440
330
1441
330
1442
330
1443
330
1444
330
1445
330
1446
330
1447
330
1448
330
1449
330
144A
330
144B
330
144C
330
144D
330
144E
330
144F
330
1450
330
1451
330
1452
330
1453
330
1454
330
1455
330
1669
330
13E7
330
13E8
330
13E9
330
13EA
330
13EB
330
13EC
330
13ED
330
13EE
330
13EF
330
13F0
330
13F1
330
13F2
330
13F3
330
13F4
330
13F5
330
13F6
330
13F7
330
13F8
330
13F9
330
13FA
330
13FB
330
13FC
330
13FD
330
13FE
330
13FF
330
1400
330
1401
330
1402
330
1403
330
1404
330
1405
330
1409
330
140D
330
140E
330
1412
330
1413
330
1414
330
1415
330
1416
330
1417
330
1418
330
1419
330
141D
330
1421
330
1425
330
1426
330
1427
330
142B
  0
IDBUFFER
  5
1831
330
0
100
AcDbIdBuffer
330
538
330
539
330
59B
330
59C
  0
XRECORD
  5
1839
102
{ACAD_REACTORS
330
1838
102
}
330
1838
100
AcDbXrecord
280
     1
102
SHADEPLOT
 70
     0
102
SHADEPLOTRESLEVEL
 70
     2
102
SHADEPLOTCUSTOMDPI
 70
   300
  0
XRECORD
  5
1837
102
{ACAD_REACTORS
330
1836
102
}
330
1836
100
AcDbXrecord
280
     1
102
SHADEPLOT
 70
     0
102
SHADEPLOTRESLEVEL
 70
     2
102
SHADEPLOTCUSTOMDPI
 70
   300
  0
XRECORD
  5
183B
102
{ACAD_REACTORS
330
183A
102
}
330
183A
100
AcDbXrecord
280
     1
102
SHADEPLOT
 70
     0
102
SHADEPLOTRESLEVEL
 70
     2
102
SHADEPLOTCUSTOMDPI
 70
   300
  0
ENDSEC
  0
EOF
