  0
SECTION
  2
HEADER
  9
$ACADVER
  1
AC1015
  9
$ACADMAINTVER
 70
    20
  9
$DWGCODEPAGE
  3
ANSI_950
  9
$INSBASE
 10
0.0
 20
0.0
 30
0.0
  9
$EXTMIN
 10
-1133.694040965687
 20
24.73968028053196
 30
-0.0061868540548744
  9
$EXTMAX
 10
-824.2022094006925
 20
426.3447549455556
 30
202.7524895489631
  9
$LIMMIN
 10
0.0
 20
0.0
  9
$LIMMAX
 10
420.0
 20
297.0
  9
$ORTHOMODE
 70
     1
  9
$REGENMODE
 70
     1
  9
$FILLMODE
 70
     1
  9
$QTEXTMODE
 70
     0
  9
$MIRRTEXT
 70
     1
  9
$LTSCALE
 40
3.0
  9
$ATTMODE
 70
     1
  9
$TEXTSIZE
 40
4.0
  9
$TRACEWID
 40
1.0
  9
$TEXTSTYLE
  7
CHINESET
  9
$CLAYER
  8
0
  9
$CELTYPE
  6
ByLayer
  9
$CECOLOR
 62
   256
  9
$CELTSCALE
 40
1.0
  9
$DISPSILH
 70
     0
  9
$DIMSCALE
 40
1.0
  9
$DIMASZ
 40
3.0
  9
$DIMEXO
 40
1.0
  9
$DIMDLI
 40
15.0
  9
$DIMRND
 40
0.0
  9
$DIMDLE
 40
0.0
  9
$DIMEXE
 40
1.0
  9
$DIMTP
 40
0.1
  9
$DIMTM
 40
0.1
  9
$DIMTXT
 40
3.5
  9
$DIMCEN
 40
0.0
  9
$DIMTSZ
 40
0.0
  9
$DIMTOL
 70
     0
  9
$DIMLIM
 70
     0
  9
$DIMTIH
 70
     0
  9
$DIMTOH
 70
     0
  9
$DIMSE1
 70
     0
  9
$DIMSE2
 70
     0
  9
$DIMTAD
 70
     1
  9
$DIMZIN
 70
     8
  9
$DIMBLK
  1

  9
$DIMASO
 70
     1
  9
$DIMSHO
 70
     1
  9
$DIMPOST
  1

  9
$DIMAPOST
  1
"
  9
$DIMALT
 70
     0
  9
$DIMALTD
 70
     2
  9
$DIMALTF
 40
0.0393701
  9
$DIMLFAC
 40
1.0
  9
$DIMTOFL
 70
     1
  9
$DIMTVP
 40
0.0
  9
$DIMTIX
 70
     0
  9
$DIMSOXD
 70
     0
  9
$DIMSAH
 70
     0
  9
$DIMBLK1
  1

  9
$DIMBLK2
  1

  9
$DIMSTYLE
  2
AM_ISO
  9
$DIMCLRD
 70
   256
  9
$DIMCLRE
 70
   256
  9
$DIMCLRT
 70
   256
  9
$DIMTFAC
 40
0.71
  9
$DIMGAP
 40
1.0
  9
$DIMJUST
 70
     0
  9
$DIMSD1
 70
     0
  9
$DIMSD2
 70
     0
  9
$DIMTOLJ
 70
     0
  9
$DIMTZIN
 70
     8
  9
$DIMALTZ
 70
     0
  9
$DIMALTTZ
 70
     0
  9
$DIMUPT
 70
     0
  9
$DIMDEC
 70
     2
  9
$DIMTDEC
 70
     2
  9
$DIMALTU
 70
     2
  9
$DIMALTTD
 70
     2
  9
$DIMTXSTY
  7
STANDARD
  9
$DIMAUNIT
 70
     0
  9
$DIMADEC
 70
     0
  9
$DIMALTRND
 40
0.0
  9
$DIMAZIN
 70
     2
  9
$DIMDSEP
 70
    46
  9
$DIMATFIT
 70
     3
  9
$DIMFRAC
 70
     0
  9
$DIMLDRBLK
  1

  9
$DIMLUNIT
 70
     2
  9
$DIMLWD
 70
    -1
  9
$DIMLWE
 70
    -1
  9
$DIMTMOVE
 70
     0
  9
$LUNITS
 70
     2
  9
$LUPREC
 70
     2
  9
$SKETCHINC
 40
1.0
  9
$FILLETRAD
 40
2.5
  9
$AUNITS
 70
     0
  9
$AUPREC
 70
     0
  9
$MENU
  1
.
  9
$ELEVATION
 40
0.0
  9
$PELEVATION
 40
0.0
  9
$THICKNESS
 40
0.0
  9
$LIMCHECK
 70
     0
  9
$CHAMFERA
 40
2.5
  9
$CHAMFERB
 40
2.5
  9
$CHAMFERC
 40
0.0
  9
$CHAMFERD
 40
0.0
  9
$SKPOLY
 70
     0
  9
$TDCREATE
 40
2451457.340116412
  9
$TDUCREATE
 40
2451457.006783079
  9
$TDUPDATE
 40
2454649.413993414
  9
$TDUUPDATE
 40
2454649.080660081
  9
$TDINDWG
 40
1.0517333565
  9
$TDUSRTIMER
 40
1.0517333565
  9
$USRTIMER
 70
     1
  9
$ANGBASE
 50
0.0
  9
$ANGDIR
 70
     0
  9
$PDMODE
 70
     0
  9
$PDSIZE
 40
0.0
  9
$PLINEWID
 40
0.0
  9
$SPLFRAME
 70
     0
  9
$SPLINETYPE
 70
     6
  9
$SPLINESEGS
 70
     8
  9
$HANDSEED
  5
3908
  9
$SURFTAB1
 70
     6
  9
$SURFTAB2
 70
     6
  9
$SURFTYPE
 70
     6
  9
$SURFU
 70
     6
  9
$SURFV
 70
     6
  9
$UCSBASE
  2

  9
$UCSNAME
  2

  9
$UCSORG
 10
0.0
 20
0.0
 30
0.0
  9
$UCSXDIR
 10
1.0
 20
0.0
 30
0.0
  9
$UCSYDIR
 10
0.0
 20
1.0
 30
0.0
  9
$UCSORTHOREF
  2

  9
$UCSORTHOVIEW
 70
     0
  9
$UCSORGTOP
 10
0.0
 20
0.0
 30
0.0
  9
$UCSORGBOTTOM
 10
0.0
 20
0.0
 30
0.0
  9
$UCSORGLEFT
 10
0.0
 20
0.0
 30
0.0
  9
$UCSORGRIGHT
 10
0.0
 20
0.0
 30
0.0
  9
$UCSORGFRONT
 10
0.0
 20
0.0
 30
0.0
  9
$UCSORGBACK
 10
0.0
 20
0.0
 30
0.0
  9
$PUCSBASE
  2

  9
$PUCSNAME
  2

  9
$PUCSORG
 10
0.0
 20
0.0
 30
0.0
  9
$PUCSXDIR
 10
1.0
 20
0.0
 30
0.0
  9
$PUCSYDIR
 10
0.0
 20
1.0
 30
0.0
  9
$PUCSORTHOREF
  2

  9
$PUCSORTHOVIEW
 70
     0
  9
$PUCSORGTOP
 10
0.0
 20
0.0
 30
0.0
  9
$PUCSORGBOTTOM
 10
0.0
 20
0.0
 30
0.0
  9
$PUCSORGLEFT
 10
0.0
 20
0.0
 30
0.0
  9
$PUCSORGRIGHT
 10
0.0
 20
0.0
 30
0.0
  9
$PUCSORGFRONT
 10
0.0
 20
0.0
 30
0.0
  9
$PUCSORGBACK
 10
0.0
 20
0.0
 30
0.0
  9
$USERI1
 70
     0
  9
$USERI2
 70
     0
  9
$USERI3
 70
     0
  9
$USERI4
 70
     0
  9
$USERI5
 70
     0
  9
$USERR1
 40
0.0
  9
$USERR2
 40
0.0
  9
$USERR3
 40
0.0
  9
$USERR4
 40
0.0
  9
$USERR5
 40
0.0
  9
$WORLDVIEW
 70
     1
  9
$SHADEDGE
 70
     3
  9
$SHADEDIF
 70
    70
  9
$TILEMODE
 70
     1
  9
$MAXACTVP
 70
    48
  9
$PINSBASE
 10
0.0
 20
0.0
 30
0.0
  9
$PLIMCHECK
 70
     0
  9
$PEXTMIN
 10
1.000000000000000E+20
 20
1.000000000000000E+20
 30
1.000000000000000E+20
  9
$PEXTMAX
 10
-1.000000000000000E+20
 20
-1.000000000000000E+20
 30
-1.000000000000000E+20
  9
$PLIMMIN
 10
0.0
 20
0.0
  9
$PLIMMAX
 10
420.0
 20
297.0
  9
$UNITMODE
 70
     0
  9
$VISRETAIN
 70
     1
  9
$PLINEGEN
 70
     0
  9
$PSLTSCALE
 70
     1
  9
$TREEDEPTH
 70
  3020
  9
$CMLSTYLE
  2
Standard
  9
$CMLJUST
 70
     0
  9
$CMLSCALE
 40
1.0
  9
$PROXYGRAPHICS
 70
     1
  9
$MEASUREMENT
 70
     1
  9
$CELWEIGHT
370
    -1
  9
$ENDCAPS
280
     0
  9
$JOINSTYLE
280
     0
  9
$LWDISPLAY
290
     0
  9
$INSUNITS
 70
     4
  9
$HYPERLINKBASE
  1

  9
$STYLESHEET
  1
單色出圖.ctb
  9
$XEDIT
290
     1
  9
$CEPSNTYPE
380
     0
  9
$PSTYLEMODE
290
     1
  9
$FINGERPRINTGUID
  2
{C1BC4B2F-FC92-11D4-9D7A-0050BAE3FAE1}
  9
$VERSIONGUID
  2
{1065E2CD-4785-4F5E-BE4A-6F14EA223BFB}
  9
$EXTNAMES
290
     1
  9
$PSVPSCALE
 40
0.0
  9
$OLESTARTUP
290
     0
  0
ENDSEC
  0
SECTION
  2
CLASSES
  0
CLASS
  1
ACDBDICTIONARYWDFLT
  2
AcDbDictionaryWithDefault
  3
ObjectDBX Classes
 90
        0
280
     0
281
     0
  0
CLASS
  1
ACDBPLACEHOLDER
  2
AcDbPlaceHolder
  3
ObjectDBX Classes
 90
        0
280
     0
281
     0
  0
CLASS
  1
LAYOUT
  2
AcDbLayout
  3
ObjectDBX Classes
 90
        0
280
     0
281
     0
  0
CLASS
  1
DICTIONARYVAR
  2
AcDbDictionaryVar
  3
ObjectDBX Classes
 90
        0
280
     0
281
     0
  0
CLASS
  1
ACME_DOCUMENT
  2
AcMeDbDoc
  3
AcMeServices
 90
        0
280
     0
281
     0
  0
CLASS
  1
AMGSETTINGSOBJ
  2
AmgSettingsObj
  3
"AcadM|Product Description: AutoCAD Mechanical 2000|Company: Autodesk"
 90
        0
280
     0
281
     0
  0
CLASS
  1
ACMESCOPE
  2
AcMeScope
  3
AcMeServices
 90
        0
280
     0
281
     0
  0
CLASS
  1
ACMECOMMANDHISTORY
  2
AcMeCommandHistory
  3
AcMeServices
 90
        0
280
     0
281
     0
  0
CLASS
  1
ACIMSYSVARMAN
  2
AcImSysVarManager
  3
AcMeServices
 90
        0
280
     0
281
     0
  0
CLASS
  1
ACIMREALSYSVAR
  2
AcImRealSysVar
  3
AcMeServices
 90
        0
280
     0
281
     0
  0
CLASS
  1
ACIMINTSYSVAR
  2
AcImIntSysVar
  3
AcMeServices
 90
        0
280
     0
281
     0
  0
CLASS
  1
ACMEDRAWINGMAN
  2
AcMeDrawingMan
  3
AcMeServices
 90
        0
280
     0
281
     0
  0
CLASS
  1
ACMEVIEW
  2
AcMeView
  3
AcMeServices
 90
        0
280
     0
281
     0
  0
CLASS
  1
ACDBENTITYCACHE
  2
AcMeEntityCache
  3
AcMeServices
 90
        0
280
     0
281
     0
  0
CLASS
  1
GSMANAGER
  2
AcMeGSManager
  3
AcMeServices
 90
        0
280
     0
281
     0
  0
CLASS
  1
AMDTINTERNALREACTOR
  2
AmdtInternalReactor
  3
AcMeServices
 90
        0
280
     0
281
     0
  0
CLASS
  1
ACMESTATEMGR
  2
AcMeStateMgr
  3
AcMeServices
 90
        0
280
     0
281
     0
  0
CLASS
  1
ACGREFMASTER
  2
AcGrefMaster
  3
AcAttribServices
 90
        0
280
     0
281
     0
  0
CLASS
  1
ACME_DATABASE
  2
AcMeDbDatabase
  3
AcMeServices
 90
        0
280
     0
281
     0
  0
CLASS
  1
ACRFINSADJUSTERMGR
  2
AcRfInsAdjusterMgr
  3
AcMeServices
 90
        0
280
     0
281
     0
  0
CLASS
  1
ACGREFACADMASTER
  2
AcGrefacadMaster
  3
AcGrefServices
 90
        0
280
     0
281
     0
  0
CLASS
  1
AMIMASTER
  2
AmiMaster
  3
AmiServices
 90
        0
280
     0
281
     0
  0
CLASS
  1
ACMDATADICTIONARY
  2
AcmDataDictionary
  3
"AcmSymBB|Product Description: AutoCAD Mechanical 2004 DX|Company: Autodesk"
 90
        0
280
     0
281
     0
  0
CLASS
  1
ACMDATAENTRYBLOCK
  2
AcmDataEntryBlock
  3
"AcmSymBB|Product Description: AutoCAD Mechanical 2004 DX|Company: Autodesk"
 90
    32768
280
     0
281
     0
  0
CLASS
  1
ACIMSTRSYSVAR
  2
AcImStrSysVar
  3
AcMeServices
 90
        0
280
     0
281
     0
  0
CLASS
  1
ACMSTANDARDANSI
  2
AcmStandardANSI
  3
"Amdt_StdImp|Product Description: AutoCAD Mechanical 2004 DX|Company: Autodesk"
 90
    32768
280
     0
281
     0
  0
CLASS
  1
AMGOBJPROPCFG
  2
AmgObjPropCfg
  3
"AmgLay|Product Description: AutoCAD Mechanical 2000|Company: Autodesk"
 90
        1
280
     0
281
     0
  0
CLASS
  1
ACMSURFSTANDARDANSI
  2
AcmSurfTextStdANSI
  3
"Amdt_StdImp|Product Description: AutoCAD Mechanical 2004 DX|Company: Autodesk"
 90
    32768
280
     0
281
     0
  0
CLASS
  1
ACMFCFSTANDARDANSI
  2
AcmFCFStdANSI
  3
"Amdt_StdImp|Product Description: AutoCAD Mechanical 2004 DX|Company: Autodesk"
 90
    32768
280
     0
281
     0
  0
CLASS
  1
ACMWELDSTANDARDANSI
  2
AcmWeldingStdANSI
  3
"Amdt_StdImp|Product Description: AutoCAD Mechanical 2004 DX|Company: Autodesk"
 90
    32768
280
     0
281
     0
  0
CLASS
  1
ACMIDSTANDARDANSI
  2
AcmIdStdANSI
  3
"Amdt_StdImp|Product Description: AutoCAD Mechanical 2004 DX|Company: Autodesk"
 90
    32768
280
     0
281
     0
  0
CLASS
  1
ACMDATUMSTANDARDANSI
  2
AcmDatumStdANSI
  3
"Amdt_StdImp|Product Description: AutoCAD Mechanical 2004 DX|Company: Autodesk"
 90
    32768
280
     0
281
     0
  0
CLASS
  1
ACMBOMSTANDARDANSI
  2
AcmBOMStdANSI
  3
"Amdt_StdImp|Product Description: AutoCAD Mechanical 2004 DX|Company: Autodesk"
 90
    32768
280
     0
281
     0
  0
CLASS
  1
ACMDETAILSTANDARDANSI
  2
AmdtDetailSymStdANSI
  3
"Amdt_StdImp|Product Description: AutoCAD Mechanical 2004 DX|Company: Autodesk"
 90
    32768
280
     0
281
     0
  0
CLASS
  1
ACMSECTIONSTANDARDANSI
  2
AmdtSectionSymStdANSI
  3
"Amdt_StdImp|Product Description: AutoCAD Mechanical 2004 DX|Company: Autodesk"
 90
    32768
280
     0
281
     0
  0
CLASS
  1
ACMCENTERLINESTANDARDANSI
  2
AmdtCenterLineStdANSI
  3
"Amdt_StdImp|Product Description: AutoCAD Mechanical 2004 DX|Company: Autodesk"
 90
    32768
280
     0
281
     0
  0
CLASS
  1
ACMNOTESTANDARDANSI
  2
AmdtNoteStdANSI
  3
"Amdt_StdImp|Product Description: AutoCAD Mechanical 2004 DX|Company: Autodesk"
 90
    32768
280
     0
281
     0
  0
CLASS
  1
ACAMGLAYSTD
  2
AcAmgLayStd
  3
"AcAmgLayStd|Product Description: AutoCAD Mechanical 2000|Company: Autodesk"
 90
        0
280
     0
281
     0
  0
CLASS
  1
ACAMGDIMSTD
  2
AcAmgDimStd
  3
"AcAmgDimStd|Product Description: AutoCAD Mechanical 2000|Company: Autodesk"
 90
        0
280
     0
281
     0
  0
CLASS
  1
ACAMGHOLECHARTSTDANSI
  2
AcAmgHoleChartStdANSI
  3
ACMSYMBB_MODULE_NAME
 90
    32768
280
     0
281
     0
  0
CLASS
  1
ACAMGTITLESTD
  2
AcAmgTitleStd
  3
"TITLEAPP"
 90
        0
280
     0
281
     0
  0
CLASS
  1
LAYER_INDEX
  2
AcDbLayerIndex
  3
ObjectDBX Classes
 90
        0
280
     0
281
     0
  0
CLASS
  1
IDBUFFER
  2
AcDbIdBuffer
  3
ObjectDBX Classes
 90
        0
280
     0
281
     0
  0
CLASS
  1
ACAMGFILTERDAT
  2
AcAmgFilterDat
  3
"AcadM|Product Description: AutoCAD Mechanical 2000|Company: Autodesk"
 90
    32768
280
     0
281
     0
  0
CLASS
  1
AMDTNOTE
  2
AmdtNote
  3
"AcmSymBB|Product Description: AutoCAD Mechanical 2004 DX|Company: Autodesk"
 90
    33791
280
     0
281
     1
  0
CLASS
  1
AMDTFORMULAUPDATEDISPATCHER
  2
AmdtFormulaUpdateDispatcher
  3
AcMeServices
 90
    32768
280
     0
281
     0
  0
CLASS
  1
TABLESTYLE
  2
AcDbTableStyle
  3
ObjectDBX Classes
 90
     2047
280
     0
281
     0
  0
CLASS
  1
AM_DRAWING_MGR
  2
AcDmDwgMgr
  3
AcMechDwgViewMgmt
 90
        0
280
     0
281
     0
  0
CLASS
  1
AM_DWG_DOCUMENT
  2
AcDmDwgDocument
  3
AcMechDwgViewMgmt
 90
        0
280
     0
281
     0
  0
CLASS
  1
AM_DWG_SHEET
  2
AcDmSheet
  3
AcMechDwgViewMgmt
 90
        0
280
     0
281
     0
  0
CLASS
  1
AM_VIEWDIMPARMAP
  2
AcDmViewDimParMap
  3
AcMechDwgViewMgmt
 90
        0
280
     0
281
     0
  0
CLASS
  1
AM_DWGMGR_NAME
  2
AcDmDwgMgrName
  3
AcMechDwgViewMgmt
 90
        0
280
     0
281
     0
  0
CLASS
  1
AMDTMENUSTATEMGR
  2
AmdtMenuStateMgr
  3
McadcomServices
 90
        0
280
     0
281
     0
  0
CLASS
  1
AMDTMCOMMENUSTATE
  2
AmdtMcomMenuState
  3
McadcomServices
 90
        0
280
     0
281
     0
  0
CLASS
  1
MAPIAMMOUDLE
  2
MApiAmModule
  3
MApiAmServices
 90
        0
280
     0
281
     0
  0
CLASS
  1
AMDTADMENUSTATE
  2
AmdtAdMenuState
  3
DesignerServices
 90
        0
280
     0
281
     0
  0
CLASS
  1
ADAPPL
  2
AcAdAppl
  3
DesignerServices
 90
        0
280
     0
281
     0
  0
CLASS
  1
DEPMGR
  2
AcAdDepMgr
  3
DesignerServices
 90
        0
280
     0
281
     0
  0
CLASS
  1
PARAMMGR
  2
AcAdParamMgr
  3
DesignerServices
 90
        0
280
     0
281
     0
  0
CLASS
  1
PARAMSCOPE
  2
AcAdParamScope
  3
DesignerServices
 90
        0
280
     0
281
     0
  0
CLASS
  1
NAMEDAPPL
  2
AcAdNamedAppl
  3
DesignerServices
 90
        0
280
     0
281
     0
  0
CLASS
  1
AMDTDMMENUSTATE
  2
AmdtDmMenuState
  3
AcMechDwgViewMgmt
 90
        0
280
     0
281
     0
  0
CLASS
  1
AMDTAMMENUSTATE
  2
AmdtAmMenuState
  3
DesignerAssemblies
 90
        0
280
     0
281
     0
  0
CLASS
  1
ACAMPROJECT
  2
AcAmProject
  3
DesignerAssemblies
 90
        0
280
     0
281
     0
  0
CLASS
  1
ACAMGRCOMPDEF
  2
AcAmGrCompDef
  3
DesignerAssemblies
 90
        0
280
     0
281
     0
  0
CLASS
  1
ACCMCONTEXT
  2
AcCmContext
  3
DesignerAssemblies
 90
        0
280
     0
281
     0
  0
CLASS
  1
ACAMCOMPDEF
  2
AcAmCompDef
  3
DesignerAssemblies
 90
        0
280
     0
281
     0
  0
CLASS
  1
ACAMCOMPDEFMGR
  2
AcAmCompDefMgr
  3
DesignerAssemblies
 90
        0
280
     0
281
     0
  0
CLASS
  1
AMCONTEXTMGR
  2
AcAmContextMgr
  3
DesignerAssemblies
 90
        0
280
     0
281
     0
  0
CLASS
  1
ACAMCONTEXTMODELER
  2
AcAmContextModeler
  3
DesignerAssemblies
 90
        0
280
     0
281
     0
  0
CLASS
  1
CATALOGSTATE
  2
AcAmCatalogState
  3
DesignerAssemblies
 90
        0
280
     0
281
     0
  0
CLASS
  1
ACAMGRCOMPDEFSET
  2
AcAmGrCompDefSet
  3
DesignerAssemblies
 90
        0
280
     0
281
     0
  0
CLASS
  1
AMDTBROWSERDBTAB
  2
AmdtBrowserDbTab
  3
McadcomServices
 90
        0
280
     0
281
     0
  0
CLASS
  1
CBROWSERAPPOBJECT
  2
CBrowserAppObject
  3
McadcomServices
 90
        0
280
     0
281
     0
  0
CLASS
  1
DM_PLACEHOLDER
  2
AcDmSelsetPlaceholder
  3
AcMechDwgViewMgmt
 90
        0
280
     0
281
     0
  0
CLASS
  1
ACMTHREADLINESTANDARDANSI
  2
AmdtThreadLineStdANSI
  3
"Amdt_StdImp|Product Description: AutoCAD Mechanical 2004 DX|Company: Autodesk"
 90
    32768
280
     0
281
     0
  0
CLASS
  1
AMDTNOTETEMPLATEDB
  2
AmdtNoteTemplateDB
  3
AMDT_STDIMP_MODULE_NAME
 90
        0
280
     0
281
     0
  0
CLASS
  1
SORTENTSTABLE
  2
AcDbSortentsTable
  3
ObjectDBX Classes
 90
        0
280
     0
281
     0
  0
CLASS
  1
ACMSTANDARDISO
  2
AcmStandardISO
  3
"Amdt_StdImp|Product Description: AutoCAD Mechanical 2004 DX|Company: Autodesk"
 90
        0
280
     0
281
     0
  0
CLASS
  1
AMDTEDGESTANDARDISO13715
  2
AmdtEdgeStdISO13715
  3
"Amdt_StdImp|Product Description: AutoCAD Mechanical 2004 DX|Company: Autodesk"
 90
        0
280
     0
281
     0
  0
CLASS
  1
ACMSURFSTANDARDISO
  2
AcmSurfTextStdISO
  3
"Amdt_StdImp|Product Description: AutoCAD Mechanical 2004 DX|Company: Autodesk"
 90
        0
280
     0
281
     0
  0
CLASS
  1
ACMFCFSTANDARDISO
  2
AcmFCFStdISO
  3
"Amdt_StdImp|Product Description: AutoCAD Mechanical 2004 DX|Company: Autodesk"
 90
        0
280
     0
281
     0
  0
CLASS
  1
ACMWELDSTANDARDISO
  2
AcmWeldingStdISO
  3
"Amdt_StdImp|Product Description: AutoCAD Mechanical 2004 DX|Company: Autodesk"
 90
        0
280
     0
281
     0
  0
CLASS
  1
ACMIDSTANDARDISO
  2
AcmIdStdISO
  3
"Amdt_StdImp|Product Description: AutoCAD Mechanical 2004 DX|Company: Autodesk"
 90
        0
280
     0
281
     0
  0
CLASS
  1
ACMDATUMSTANDARDISO
  2
AcmDatumStdISO
  3
"Amdt_StdImp|Product Description: AutoCAD Mechanical 2004 DX|Company: Autodesk"
 90
        0
280
     0
281
     0
  0
CLASS
  1
ACMBOMSTANDARDISO
  2
AcmBOMStdISO
  3
"Amdt_StdImp|Product Description: AutoCAD Mechanical 2004 DX|Company: Autodesk"
 90
        0
280
     0
281
     0
  0
CLASS
  1
ACMDETAILSTANDARDISO
  2
AmdtDetailSymStdISO
  3
"Amdt_StdImp|Product Description: AutoCAD Mechanical 2004 DX|Company: Autodesk"
 90
        0
280
     0
281
     0
  0
CLASS
  1
ACMSECTIONSTANDARDISO
  2
AmdtSectionSymStdISO
  3
"Amdt_StdImp|Product Description: AutoCAD Mechanical 2004 DX|Company: Autodesk"
 90
        0
280
     0
281
     0
  0
CLASS
  1
ACMCENTERLINESTANDARDISO
  2
AmdtCenterLineStdISO
  3
"Amdt_StdImp|Product Description: AutoCAD Mechanical 2004 DX|Company: Autodesk"
 90
        0
280
     0
281
     0
  0
CLASS
  1
ACMTHREADLINESTANDARDISO
  2
AmdtThreadLineStdISO
  3
"Amdt_StdImp|Product Description: AutoCAD Mechanical 2004 DX|Company: Autodesk"
 90
        0
280
     0
281
     0
  0
CLASS
  1
ACMNOTESTANDARDISO
  2
AmdtNoteStdISO
  3
"Amdt_StdImp|Product Description: AutoCAD Mechanical 2004 DX|Company: Autodesk"
 90
        0
280
     0
281
     0
  0
CLASS
  1
ACAMGHOLECHARTSTDISO
  2
AcAmgHoleChartStdISO
  3
ACMSYMBB_MODULE_NAME
 90
        0
280
     0
281
     0
  0
ENDSEC
  0
SECTION
  2
TABLES
  0
TABLE
  2
VPORT
  5
20D9
330
0
100
AcDbSymbolTable
 70
     4
  0
VPORT
  5
3901
330
20D9
100
AcDbSymbolTableRecord
100
AcDbViewportTableRecord
  2
*Active
 70
     0
 10
0.0
 20
0.0
 11
1.0
 21
1.0
 12
-978.9481251831901
 22
225.5422176130438
 13
0.0
 23
0.0
 14
2.5
 24
2.5
 15
10.0
 25
10.0
 16
0.0
 26
0.0
 36
1.0
 17
0.0
 27
0.0
 37
0.0
 40
404.8394779509164
 41
0.9704301075268817
 42
50.0
 43
0.0
 44
0.0
 50
0.0
 51
0.0
 71
     0
 72
   100
 73
     1
 74
     1
 75
     0
 76
     0
 77
     0
 78
     0
281
     0
 65
     1
110
0.0
120
0.0
130
0.0
111
1.0
121
0.0
131
0.0
112
0.0
122
1.0
132
0.0
 79
     0
146
0.0
  0
ENDTAB
  0
TABLE
  2
LTYPE
  5
20D6
330
0
100
AcDbSymbolTable
 70
    19
  0
LTYPE
  5
20E4
330
20D6
100
AcDbSymbolTableRecord
100
AcDbLinetypeTableRecord
  2
ByBlock
 70
     0
  3

 72
    65
 73
     0
 40
0.0
  0
LTYPE
  5
20E5
330
20D6
100
AcDbSymbolTableRecord
100
AcDbLinetypeTableRecord
  2
ByLayer
 70
     0
  3

 72
    65
 73
     0
 40
0.0
  0
LTYPE
  5
20E6
330
20D6
100
AcDbSymbolTableRecord
100
AcDbLinetypeTableRecord
  2
CONTINUOUS
 70
     0
  3
Solid line
 72
    65
 73
     0
 40
0.0
  0
LTYPE
  5
2156
330
20D6
100
AcDbSymbolTableRecord
100
AcDbLinetypeTableRecord
  2
CENTER
 70
     0
  3
---- - ---- - ---- 3,-.3,.3,-.3
 72
    65
 73
     4
 40
3.9
 49
3.0
 74
     0
 49
-0.3
 74
     0
 49
0.3
 74
     0
 49
-0.3
 74
     0
  0
LTYPE
  5
2342
330
20D6
100
AcDbSymbolTableRecord
100
AcDbLinetypeTableRecord
  2
Amconstr
 70
     0
  3
_______________________
 72
    65
 73
     2
 40
9999.0
 49
9999.0
 74
     0
 49
0.0
 74
     0
  0
LTYPE
  5
2348
330
20D6
100
AcDbSymbolTableRecord
100
AcDbLinetypeTableRecord
  2
HIDDEN
 70
     0
  3
Hidden __ __ __ __ __ __ __ __ __ __ __ __ __ _
 72
    65
 73
     2
 40
0.375
 49
0.25
 74
     0
 49
-0.125
 74
     0
  0
LTYPE
  5
2349
330
20D6
100
AcDbSymbolTableRecord
100
AcDbLinetypeTableRecord
  2
PHANTOM2
 70
     0
  3
Phantom (.5x) ___ _ _ ___ _ _ ___ _ _ ___ _ _
 72
    65
 73
     6
 40
1.25
 49
0.625
 74
     0
 49
-0.125
 74
     0
 49
0.125
 74
     0
 49
-0.125
 74
     0
 49
0.125
 74
     0
 49
-0.125
 74
     0
  0
LTYPE
  5
234A
330
20D6
100
AcDbSymbolTableRecord
100
AcDbLinetypeTableRecord
  2
CENTER2
 70
     0
  3
Center (.5x) ___ _ ___ _ ___ _ ___ _ ___ _ ___
 72
    65
 73
     4
 40
1.125
 49
0.75
 74
     0
 49
-0.125
 74
     0
 49
0.125
 74
     0
 49
-0.125
 74
     0
  0
LTYPE
  5
234B
330
20D6
100
AcDbSymbolTableRecord
100
AcDbLinetypeTableRecord
  2
HIDDEN2
 70
     0
  3
Hidden (.5x) _ _ _ _ _ _ _ _ _ _ _ _ _ _ _ _ _
 72
    65
 73
     2
 40
0.1875
 49
0.125
 74
     0
 49
-0.0625
 74
     0
  0
LTYPE
  5
234C
330
20D6
100
AcDbSymbolTableRecord
100
AcDbLinetypeTableRecord
  2
Amzigzag2
 70
     0
  3
/\/-/\/-/\/-/\/-/\/-/\/
 72
    65
 73
     2
 40
0.4401
 49
0.0001
 74
     4
 75
   135
340
2346
 46
0.0016
 50
0.0
 44
0.0
 45
0.0
 49
-0.4400000000000001
 74
     0
  0
LTYPE
  5
2359
330
20D6
100
AcDbSymbolTableRecord
100
AcDbLinetypeTableRecord
  2
ACANSTGB
 70
     0
  3
__ . . __ . .
 72
    65
 73
     6
 40
0.35433070866
 49
0.15748031496
 74
     0
 49
-0.03937007874
 74
     0
 49
0.03937007874
 74
     0
 49
-0.03937007874
 74
     0
 49
0.03937007874
 74
     0
 49
-0.03937007874
 74
     0
  0
LTYPE
  5
235A
330
20D6
100
AcDbSymbolTableRecord
100
AcDbLinetypeTableRecord
  2
ACANSTGL
 70
     0
  3
_ _ _ _ _
 72
    65
 73
     2
 40
0.11811023622
 49
0.07874015748
 74
     0
 49
-0.03937007874
 74
     0
  0
LTYPE
  5
29CD
330
20D6
100
AcDbSymbolTableRecord
100
AcDbLinetypeTableRecord
  2
AM_ISO02W050
 70
     0
  3
__ __ __ __ __ __ __ __ __ __ __ __ __ __ __
 72
    65
 73
     2
 40
7.5
 49
6.0
 74
     0
 49
-1.5
 74
     0
  0
LTYPE
  5
29CE
330
20D6
100
AcDbSymbolTableRecord
100
AcDbLinetypeTableRecord
  2
AM_ISO08W050
 70
     0
  3
____ . ____ . ____ . ____ . ____ . ____ . ____
 72
    65
 73
     4
 40
18.0
 49
12.0
 74
     0
 49
-1.5
 74
     0
 49
3.0
 74
     0
 49
-1.5
 74
     0
  0
LTYPE
  5
29CF
330
20D6
100
AcDbSymbolTableRecord
100
AcDbLinetypeTableRecord
  2
AM_ISO09W050
 70
     0
  3
_____ . . _____ . . _____ . . ____ .. ____
 72
    65
 73
     6
 40
22.5
 49
12.0
 74
     0
 49
-1.5
 74
     0
 49
3.0
 74
     0
 49
-1.5
 74
     0
 49
3.0
 74
     0
 49
-1.5
 74
     0
  0
LTYPE
  5
29D0
330
20D6
100
AcDbSymbolTableRecord
100
AcDbLinetypeTableRecord
  2
AM_ISO08W050x2
 70
     0
  3
__ . __ . __ . __ . __ . __
 72
    65
 73
     4
 40
9.0
 49
6.0
 74
     0
 49
-0.75
 74
     0
 49
1.5
 74
     0
 49
-0.75
 74
     0
  0
LTYPE
  5
29D1
330
20D6
100
AcDbSymbolTableRecord
100
AcDbLinetypeTableRecord
  2
AM_ISO02W050x2
 70
     0
  3
 _ _ _ _ _ _ _ _ _ _ _ _
 72
    65
 73
     2
 40
3.75
 49
3.0
 74
     0
 49
-0.75
 74
     0
  0
LTYPE
  5
29D2
330
20D6
100
AcDbSymbolTableRecord
100
AcDbLinetypeTableRecord
  2
Amzigzag
 70
     0
  3
/\/-/\/-/\/-/\/-/\/-/\/
 72
    65
 73
     2
 40
11.0001
 49
0.0001
 74
     4
 75
   135
340
2346
 46
0.04
 50
0.0
 44
0.0
 45
0.0
 49
-11.0
 74
     0
  0
LTYPE
  5
2A22
330
20D6
100
AcDbSymbolTableRecord
100
AcDbLinetypeTableRecord
  2
ACISOWELD
 70
     0
  3
_ _ _ _ _
 72
    65
 73
     2
 40
2.0
 49
2.0
 74
     0
 49
-1.0
 74
     0
  0
LTYPE
  5
2A23
330
20D6
100
AcDbSymbolTableRecord
100
AcDbLinetypeTableRecord
  2
ACISOTGB
 70
     0
  3
__ . . __ . .
 72
    65
 73
     6
 40
9.0
 49
4.0
 74
     0
 49
-1.0
 74
     0
 49
1.0
 74
     0
 49
-1.0
 74
     0
 49
1.0
 74
     0
 49
-1.0
 74
     0
  0
LTYPE
  5
2A24
330
20D6
100
AcDbSymbolTableRecord
100
AcDbLinetypeTableRecord
  2
ACISOTGL
 70
     0
  3
_ _ _ _ _
 72
    65
 73
     2
 40
3.0
 49
2.0
 74
     0
 49
-1.0
 74
     0
  0
ENDTAB
  0
TABLE
  2
LAYER
  5
20D3
102
{ACAD_XDICTIONARY
360
2A30
102
}
330
0
100
AcDbSymbolTable
 70
     8
  0
LAYER
  5
20E1
330
20D3
100
AcDbSymbolTableRecord
100
AcDbLayerTableRecord
  2
0
 70
     0
 62
     7
  6
CONTINUOUS
370
    -3
390
20E0
  0
LAYER
  5
215F
330
20D3
100
AcDbSymbolTableRecord
100
AcDbLayerTableRecord
  2
DEFPOINTS
 70
     0
 62
    -7
  6
CONTINUOUS
290
     0
370
    -3
390
20E0
  0
LAYER
  5
2160
330
20D3
100
AcDbSymbolTableRecord
100
AcDbLayerTableRecord
  2
DIM
 70
     0
 62
     5
  6
CONTINUOUS
370
    -3
390
20E0
  0
LAYER
  5
2161
330
20D3
100
AcDbSymbolTableRecord
100
AcDbLayerTableRecord
  2
CENTER
 70
     0
 62
     1
  6
CENTER
370
    -3
390
20E0
  0
LAYER
  5
2176
330
20D3
100
AcDbSymbolTableRecord
100
AcDbLayerTableRecord
  2
LOGO
 70
     0
 62
     7
  6
CONTINUOUS
370
    -3
390
20E0
  0
LAYER
  5
260B
330
20D3
100
AcDbSymbolTableRecord
100
AcDbLayerTableRecord
  2
AM_VIS
 70
     0
 62
     7
  6
CONTINUOUS
370
    50
390
20E0
  0
LAYER
  5
260C
330
20D3
100
AcDbSymbolTableRecord
100
AcDbLayerTableRecord
  2
AM_7
 70
     0
 62
     1
  6
AM_ISO08W050x2
370
    25
390
20E0
  0
LAYER
  5
31A2
330
20D3
100
AcDbSymbolTableRecord
100
AcDbLayerTableRecord
  2
ASHADE
 70
     4
 62
     7
  6
CONTINUOUS
370
    -3
390
20E0
  0
ENDTAB
  0
TABLE
  2
STYLE
  5
20D4
330
0
100
AcDbSymbolTable
 70
     8
  0
STYLE
  5
20E2
330
20D4
100
AcDbSymbolTableRecord
100
AcDbTextStyleTableRecord
  2
STANDARD
 70
     0
 40
0.0
 41
1.0
 50
0.0
 71
     0
 42
25.0
  3
ISOCP.SHX
  4

  0
STYLE
  5
2155
330
20D4
100
AcDbSymbolTableRecord
100
AcDbTextStyleTableRecord
  2
CHINESET
 70
     0
 40
0.0
 41
1.0
 50
0.0
 71
     0
 42
4.0
  3
simplex.shx
  4
chineset.shx
  0
STYLE
  5
2346
330
20D4
100
AcDbSymbolTableRecord
100
AcDbTextStyleTableRecord
  2

 70
     1
 40
0.0
 41
1.0
 50
0.0
 71
     0
 42
25.0
  3
ltypeshp.shx
  4

  0
STYLE
  5
234D
330
20D4
100
AcDbSymbolTableRecord
100
AcDbTextStyleTableRecord
  2
ACANSTS
 70
     0
 40
1.0
 41
1.0
 50
0.0
 71
     0
 42
25.0
  3
romans.shx
  4
chineset.shx
  0
STYLE
  5
2358
330
20D4
100
AcDbSymbolTableRecord
100
AcDbTextStyleTableRecord
  2
ACANSGDT
 70
     0
 40
0.0
 41
1.0
 50
0.0
 71
     0
 42
25.0
  3
amgdtans.shx
  4

  0
STYLE
  5
2A26
330
20D4
100
AcDbSymbolTableRecord
100
AcDbTextStyleTableRecord
  2
ACISOTS
 70
     0
 40
1.0
 41
1.0
 50
0.0
 71
     0
 42
2.5
  3
isocp.shx
  4
chineset.shx
  0
STYLE
  5
2A27
330
20D4
100
AcDbSymbolTableRecord
100
AcDbTextStyleTableRecord
  2
ACISOGDT
 70
     0
 40
0.0
 41
1.0
 50
0.0
 71
     0
 42
2.5
  3
amgdt.shx
  4

  0
STYLE
  5
2E21
330
20D4
100
AcDbSymbolTableRecord
100
AcDbTextStyleTableRecord
  2
DAYUS
 70
     0
 40
0.0
 41
1.0
 50
0.0
 71
     0
 42
3.75
  3
simplex.shx
  4
dayus.shx
  0
ENDTAB
  0
TABLE
  2
VIEW
  5
20D7
330
0
100
AcDbSymbolTable
 70
     0
  0
ENDTAB
  0
TABLE
  2
UCS
  5
20D8
330
0
100
AcDbSymbolTable
 70
     0
  0
ENDTAB
  0
TABLE
  2
APPID
  5
20DA
330
0
100
AcDbSymbolTable
 70
    22
  0
APPID
  5
20E3
330
20DA
100
AcDbSymbolTableRecord
100
AcDbRegAppTableRecord
  2
ACAD
 70
     0
  0
APPID
  5
2321
330
20DA
100
AcDbSymbolTableRecord
100
AcDbRegAppTableRecord
  2
MCAD_NO_VIS
 70
     0
  0
APPID
  5
2322
330
20DA
100
AcDbSymbolTableRecord
100
AcDbRegAppTableRecord
  2
ACAD_TEMP_GRAPHIC
 70
     0
  0
APPID
  5
2333
330
20DA
100
AcDbSymbolTableRecord
100
AcDbRegAppTableRecord
  2
ACATTRIBSERVICES
 70
     0
  0
APPID
  5
252C
330
20DA
100
AcDbSymbolTableRecord
100
AcDbRegAppTableRecord
  2
GENIUS_GENDTOL_13
 70
     0
  0
APPID
  5
29A0
330
20DA
100
AcDbSymbolTableRecord
100
AcDbRegAppTableRecord
  2
AD_DRAW
 70
     0
  0
APPID
  5
29BE
330
20DA
100
AcDbSymbolTableRecord
100
AcDbRegAppTableRecord
  2
DESIGNERASSEMBLIES
 70
     0
  0
APPID
  5
29C3
330
20DA
100
AcDbSymbolTableRecord
100
AcDbRegAppTableRecord
  2
ACADM_DIM_EDIT
 70
     0
  0
APPID
  5
29C4
330
20DA
100
AcDbSymbolTableRecord
100
AcDbRegAppTableRecord
  2
AMDT_DM_ADJ
 70
     0
  0
APPID
  5
2E22
330
20DA
100
AcDbSymbolTableRecord
100
AcDbRegAppTableRecord
  2
ACAD_PSEXT
 70
     0
  0
APPID
  5
31A0
330
20DA
100
AcDbSymbolTableRecord
100
AcDbRegAppTableRecord
  2
AVE_RENDER
 70
     0
  0
APPID
  5
31A1
330
20DA
100
AcDbSymbolTableRecord
100
AcDbRegAppTableRecord
  2
AVE_ENTITY_MATERIAL
 70
     0
  0
APPID
  5
31AE
330
20DA
100
AcDbSymbolTableRecord
100
AcDbRegAppTableRecord
  2
AVE_FINISH
 70
     0
  0
APPID
  5
31AF
330
20DA
100
AcDbSymbolTableRecord
100
AcDbRegAppTableRecord
  2
AVE_MATERIAL
 70
     0
  0
APPID
  5
31B0
330
20DA
100
AcDbSymbolTableRecord
100
AcDbRegAppTableRecord
  2
AVE_GLOBAL
 70
     0
  0
APPID
  5
3455
330
20DA
100
AcDbSymbolTableRecord
100
AcDbRegAppTableRecord
  2
GENIUS_GENOENT_13
 70
     0
  0
APPID
  5
3456
330
20DA
100
AcDbSymbolTableRecord
100
AcDbRegAppTableRecord
  2
GENIUS_GENOBJ-N-CRS_13
 70
     0
  0
APPID
  5
3457
330
20DA
100
AcDbSymbolTableRecord
100
AcDbRegAppTableRecord
  2
GENIUS_GENOLIS_13
 70
     0
  0
APPID
  5
3458
330
20DA
100
AcDbSymbolTableRecord
100
AcDbRegAppTableRecord
  2
GENIUS_GENODEF_13
 70
     0
  0
APPID
  5
3459
330
20DA
100
AcDbSymbolTableRecord
100
AcDbRegAppTableRecord
  2
GENIUS_GENOREF_13
 70
     0
  0
APPID
  5
345A
330
20DA
100
AcDbSymbolTableRecord
100
AcDbRegAppTableRecord
  2
GENIUS_GENREC_14
 70
     0
  0
APPID
  5
345B
330
20DA
100
AcDbSymbolTableRecord
100
AcDbRegAppTableRecord
  2
GENIUS_GENOBJ-N-REC_13
 70
     0
  0
ENDTAB
  0
TABLE
  2
DIMSTYLE
  5
20DB
330
0
100
AcDbSymbolTable
 70
    15
100
AcDbDimStyleTable
 71
     2
340
2A28
340
215E
  0
DIMSTYLE
105
215E
102
{ACAD_REACTORS
330
2CFD
330
2D21
330
311B
330
311C
330
311A
102
}
330
20DB
100
AcDbSymbolTableRecord
100
AcDbDimStyleTableRecord
  2
STANDARD
 70
     0
 41
3.0
 42
2.0
 43
8.0
 44
2.0
 73
     0
 74
     0
 77
     1
 78
     8
 79
     2
140
3.0
141
2.5
143
0.0394
147
1.0
171
     4
176
   256
177
   256
178
   256
271
     2
272
     2
274
     4
279
     2
284
     8
285
     8
286
     8
340
2155
  0
DIMSTYLE
105
235E
330
20DB
100
AcDbSymbolTableRecord
100
AcDbDimStyleTableRecord
  2
AM_ANSI
 70
     0
  4
mm
 41
0.1
 42
0.05
 43
0.5
 44
0.1
 47
0.1
 48
0.1
 78
     7
 79
     2
140
0.12
141
0.0
146
0.71
147
0.06
176
   256
177
   256
178
     2
274
     4
284
     7
340
20E2
371
    -1
372
    -1
  0
DIMSTYLE
105
235F
330
20DB
100
AcDbSymbolTableRecord
100
AcDbDimStyleTableRecord
  2
AM_ANSI$3
 70
     0
  4
mm
 41
0.1
 42
0.05
 43
0.5
 44
0.1
 47
0.1
 48
0.1
 78
     7
 79
     2
140
0.12
141
0.0
146
0.71
147
0.06
176
   256
177
   256
178
     2
274
     4
284
     7
288
     1
289
     0
340
20E2
371
    -1
372
    -1
  0
DIMSTYLE
105
2360
330
20DB
100
AcDbSymbolTableRecord
100
AcDbDimStyleTableRecord
  2
AM_ANSI$4
 70
     0
  4
mm
 41
0.1
 42
0.05
 43
0.5
 44
0.1
 47
0.1
 48
0.1
 78
     7
 79
     2
140
0.12
141
0.0
146
0.71
147
0.06
176
   256
177
   256
178
     2
274
     4
284
     7
288
     1
289
     0
340
20E2
371
    -1
372
    -1
  0
DIMSTYLE
105
2361
330
20DB
100
AcDbSymbolTableRecord
100
AcDbDimStyleTableRecord
  2
AM_ANSI$7
 70
     0
  4
mm
 41
0.1
 42
0.05
 43
0.5
 44
0.1
 47
0.1
 48
0.1
 78
     7
 79
     2
140
0.24
141
0.0
146
0.71
147
0.06
176
   256
177
   256
178
     2
274
     4
284
     7
340
20E2
371
    -1
372
    -1
  0
DIMSTYLE
105
2362
330
20DB
100
AcDbSymbolTableRecord
100
AcDbDimStyleTableRecord
  2
AM_ANSI$SF
 70
     0
  4
mm
 41
0.1
 42
0.05
 43
0.5
 44
0.1
 47
0.1
 48
0.1
 75
     1
 76
     1
 78
     7
 79
     2
140
0.12
141
0.0
146
0.71
147
0.06
176
   256
177
   256
178
     2
274
     4
284
     7
340
20E2
371
    -1
372
    -1
  0
DIMSTYLE
105
2367
330
20DB
100
AcDbSymbolTableRecord
100
AcDbDimStyleTableRecord
  2
AM_ANSI$SH
 70
     0
  4
mm
 41
0.1
 42
0.05
 43
0.5
 44
0.1
 47
0.1
 48
0.1
 75
     1
 76
     1
 78
     7
 79
     2
140
0.12
141
0.0
146
0.71
147
0.06
173
     1
176
   256
177
   256
178
     2
274
     4
284
     7
340
20E2
341
2363
343
2363
371
    -1
372
    -1
  0
DIMSTYLE
105
2A28
330
20DB
100
AcDbSymbolTableRecord
100
AcDbDimStyleTableRecord
  2
AM_ISO
 70
     0
  4
"
 40
1.5
 41
3.0
 42
1.0
 43
15.0
 44
1.0
 47
0.1
 48
0.1
 73
     0
 74
     0
 77
     1
 78
     8
 79
     2
140
3.5
141
0.0
143
0.0393701
146
0.71
147
1.0
172
     1
176
   256
177
   256
178
   256
271
     2
272
     2
283
     0
284
     8
340
20E2
371
    -1
372
    -1
  0
DIMSTYLE
105
2A29
102
{ACAD_REACTORS
330
2C29
102
}
330
20DB
100
AcDbSymbolTableRecord
100
AcDbDimStyleTableRecord
  2
AM_ISO$3
 70
     0
  4
"
 40
1.5
 41
3.0
 42
1.0
 43
15.0
 44
1.0
 47
0.1
 48
0.1
 73
     0
 77
     1
 78
     8
 79
     2
140
3.5
141
0.0
143
0.0393701
146
0.71
147
1.0
176
   256
177
   256
178
   256
271
     2
272
     2
283
     0
284
     8
288
     1
289
     0
340
20E2
371
    -1
372
    -1
  0
DIMSTYLE
105
2A2A
330
20DB
100
AcDbSymbolTableRecord
100
AcDbDimStyleTableRecord
  2
AM_ISO$4
 70
     0
  4
"
 40
1.5
 41
3.0
 42
1.0
 43
15.0
 44
1.0
 47
0.1
 48
0.1
 73
     0
 77
     1
 78
     8
 79
     2
140
3.5
141
0.0
143
0.0393701
146
0.71
147
1.0
176
   256
177
   256
178
   256
271
     2
272
     2
283
     0
284
     8
288
     1
289
     0
340
20E2
371
    -1
372
    -1
  0
DIMSTYLE
105
2A2B
330
20DB
100
AcDbSymbolTableRecord
100
AcDbDimStyleTableRecord
  2
AM_ISO$6
 70
     0
  4
"
 40
1.5
 41
3.0
 42
1.0
 43
15.0
 44
1.0
 47
0.1
 48
0.1
 73
     0
 74
     0
 78
     8
 79
     2
140
3.5
141
0.0
143
0.0393701
146
0.71
147
1.0
172
     1
176
   256
177
   256
178
   256
271
     2
272
     2
283
     0
284
     8
340
20E2
371
    -1
372
    -1
  0
DIMSTYLE
105
2A2C
330
20DB
100
AcDbSymbolTableRecord
100
AcDbDimStyleTableRecord
  2
AM_ISO$7
 70
     0
  4
"
 40
1.5
 41
3.0
 42
1.0
 43
15.0
 44
1.0
 47
0.1
 48
0.1
 73
     0
 74
     0
 77
     1
 78
     8
 79
     2
140
3.5
141
0.0
143
0.0393701
146
0.71
147
1.0
172
     1
176
   256
177
   256
178
   256
271
     2
272
     2
283
     0
284
     8
340
20E2
371
    -1
372
    -1
  0
DIMSTYLE
105
2A2D
330
20DB
100
AcDbSymbolTableRecord
100
AcDbDimStyleTableRecord
  2
AM_ISO$SF
 70
     0
  4
"
 40
1.5
 41
2.5
 42
1.0
 43
10.0
 44
1.0
 47
0.1
 48
0.1
 73
     0
 74
     0
 75
     1
 76
     1
 77
     1
 78
     8
 79
     2
140
3.5
141
0.0
143
0.0393701
146
0.71
147
1.5
172
     1
176
   256
177
   256
178
     2
271
     2
272
     3
274
     4
283
     0
284
     8
340
20E2
371
    -1
372
    -1
  0
DIMSTYLE
105
2A2E
330
20DB
100
AcDbSymbolTableRecord
100
AcDbDimStyleTableRecord
  2
AM_ISO$SH
 70
     0
  4
"
 40
1.5
 41
2.5
 42
1.0
 43
10.0
 44
1.0
 47
0.1
 48
0.1
 73
     0
 74
     0
 75
     1
 76
     1
 77
     1
 78
     8
 79
     2
140
3.5
141
0.0
143
0.0393701
144
2.0
146
0.71
147
1.5
172
     1
173
     1
176
   256
177
   256
178
     2
271
     2
272
     3
274
     4
283
     0
284
     8
340
20E2
343
2363
371
    -1
372
    -1
  0
DIMSTYLE
105
2A2F
330
20DB
100
AcDbSymbolTableRecord
100
AcDbDimStyleTableRecord
  2
AM_ISO$0
 70
     0
  4
"
 40
1.5
 41
3.0
 42
1.0
 43
15.0
 44
1.0
 47
0.1
 48
0.1
 73
     0
 74
     0
 77
     1
 78
     8
 79
     2
140
3.5
141
0.0
143
0.0393701
146
0.71
147
1.0
172
     1
176
   256
177
   256
178
   256
271
     2
272
     2
283
     0
284
     8
340
20E2
371
    -1
372
    -1
  0
ENDTAB
  0
TABLE
  2
BLOCK_RECORD
  5
20D2
330
0
100
AcDbSymbolTable
 70
    14
  0
BLOCK_RECORD
  5
20EF
102
{ACAD_XDICTIONARY
360
2241
102
}
330
20D2
100
AcDbSymbolTableRecord
100
AcDbBlockTableRecord
  2
*Model_Space
340
20F2
  0
BLOCK_RECORD
  5
20EB
102
{ACAD_XDICTIONARY
360
2243
102
}
330
20D2
100
AcDbSymbolTableRecord
100
AcDbBlockTableRecord
  2
*Paper_Space
340
20EE
  0
BLOCK_RECORD
  5
2363
330
20D2
100
AcDbSymbolTableRecord
100
AcDbBlockTableRecord
  2
GENAXEH
340
0
  0
BLOCK_RECORD
  5
2C2A
330
20D2
100
AcDbSymbolTableRecord
100
AcDbBlockTableRecord
  2
*D1
340
0
  0
BLOCK_RECORD
  5
2CFE
330
20D2
100
AcDbSymbolTableRecord
100
AcDbBlockTableRecord
  2
*D2
340
0
  0
BLOCK_RECORD
  5
2D22
330
20D2
100
AcDbSymbolTableRecord
100
AcDbBlockTableRecord
  2
*D3
340
0
  0
BLOCK_RECORD
  5
312C
330
20D2
100
AcDbSymbolTableRecord
100
AcDbBlockTableRecord
  2
*D4
340
0
  0
BLOCK_RECORD
  5
3138
330
20D2
100
AcDbSymbolTableRecord
100
AcDbBlockTableRecord
  2
*D5
340
0
  0
BLOCK_RECORD
  5
3144
330
20D2
100
AcDbSymbolTableRecord
100
AcDbBlockTableRecord
  2
*D6
340
0
  0
BLOCK_RECORD
  5
31A3
330
20D2
100
AcDbSymbolTableRecord
100
AcDbBlockTableRecord
  2
AVE_RENDER
340
0
102
{BLKREFS
331
31A6
331
31A7
331
31A8
331
31A9
331
31AA
331
31AB
331
31AC
331
31AD
102
}
  0
BLOCK_RECORD
  5
31B1
330
20D2
100
AcDbSymbolTableRecord
100
AcDbBlockTableRecord
  2
AVE_GLOBAL
340
0
102
{BLKREFS
331
31B4
102
}
  0
BLOCK_RECORD
  5
3752
330
20D2
100
AcDbSymbolTableRecord
100
AcDbBlockTableRecord
  2
*D9
340
0
  0
BLOCK_RECORD
  5
3760
102
{ACAD_XDICTIONARY
360
379C
102
}
330
20D2
100
AcDbSymbolTableRecord
100
AcDbBlockTableRecord
  2
A$C05BB03F9
340
0
102
{BLKREFS
331
37A0
102
}
  0
BLOCK_RECORD
  5
37BB
330
20D2
100
AcDbSymbolTableRecord
100
AcDbBlockTableRecord
  2
*D11
340
0
  0
BLOCK_RECORD
  5
37C9
102
{ACAD_XDICTIONARY
360
3825
102
}
330
20D2
100
AcDbSymbolTableRecord
100
AcDbBlockTableRecord
  2
A$C2E9102B8
340
0
102
{BLKREFS
331
3829
102
}
  0
ENDTAB
  0
ENDSEC
  0
SECTION
  2
BLOCKS
  0
BLOCK
  5
2164
330
20EF
100
AcDbEntity
  8
0
100
AcDbBlockBegin
  2
*Model_Space
 70
     0
 10
0.0
 20
0.0
 30
0.0
  3
*Model_Space
  1

  0
ENDBLK
  5
2165
330
20EF
100
AcDbEntity
  8
0
100
AcDbBlockEnd
  0
BLOCK
  5
2162
330
20EB
100
AcDbEntity
 67
     1
  8
0
100
AcDbBlockBegin
  2
*Paper_Space
 70
     0
 10
0.0
 20
0.0
 30
0.0
  3
*Paper_Space
  1

  0
ENDBLK
  5
2163
330
20EB
100
AcDbEntity
 67
     1
  8
0
100
AcDbBlockEnd
  0
BLOCK
  5
2365
330
2363
100
AcDbEntity
  8
0
100
AcDbBlockBegin
  2
GENAXEH
 70
     0
 10
0.0
 20
0.0
 30
0.0
  3
GENAXEH
  1

  0
LINE
  5
2364
330
2363
100
AcDbEntity
  8
0
100
AcDbLine
 10
-1.0
 20
0.0
 30
0.0
 11
1.0
 21
0.0
 31
0.0
  0
ENDBLK
  5
2366
330
2363
100
AcDbEntity
  8
0
100
AcDbBlockEnd
  0
BLOCK
  5
2C30
330
2C2A
100
AcDbEntity
  8
0
100
AcDbBlockBegin
  2
*D1
 70
     1
 10
0.0
 20
0.0
 30
0.0
  3
*D1
  1

  0
LINE
  5
35A4
330
2C2A
100
AcDbEntity
  8
DIM
100
AcDbLine
 10
-949.119293575597
 20
324.8110569487449
 30
0.0
 11
-923.8113537389898
 21
354.4016905442112
 31
0.0
  0
LINE
  5
35A5
330
2C2A
100
AcDbEntity
  8
DIM
100
AcDbLine
 10
-923.8113537389898
 20
354.4016905442112
 30
0.0
 11
-897.5030368098559
 21
354.4016905442112
 31
0.0
  0
SOLID
  5
35A6
330
2C2A
100
AcDbEntity
  8
DIM
100
AcDbTrace
 10
-949.6892635449276
 20
325.2985343677718
 30
0.0
 11
-948.5493236062662
 21
324.3235795297178
 31
0.0
 12
-952.0441580897591
 22
321.391237132761
 32
0.0
 13
-952.0441580897591
 23
321.391237132761
 33
0.0
  0
MTEXT
  5
35A7
330
2C2A
100
AcDbEntity
  8
DIM
100
AcDbMText
 10
-909.907195274423
 20
358.5272072764949
 30
0.0
 40
5.25
 41
0.0
 71
     5
 72
     1
  1
2-PT1/4
 73
     1
 44
1.0
1001
ACAD
1000
MTEXTBEGIN
1070
    73
1070
     1
1070
    44
1040
1.0
1070
    74
1070
     0
1000
MTEXTEND
  0
POINT
  5
35A8
330
2C2A
100
AcDbEntity
  8
DEFPOINTS
 62
     0
100
AcDbPoint
 10
-952.0441580897591
 20
321.391237132761
 30
0.0
  0
POINT
  5
35A9
330
2C2A
100
AcDbEntity
  8
DEFPOINTS
 62
     0
100
AcDbPoint
 10
-959.4345757501653
 20
312.7501884137257
 30
0.0
  0
ENDBLK
  5
2C31
330
2C2A
100
AcDbEntity
  8
0
100
AcDbBlockEnd
  0
BLOCK
  5
2D08
330
2CFE
100
AcDbEntity
  8
0
100
AcDbBlockBegin
  2
*D2
 70
     1
 10
0.0
 20
0.0
 30
0.0
  3
*D2
  1

  0
LINE
  5
35AA
330
2CFE
100
AcDbEntity
  8
DIM
370
    -2
100
AcDbLine
 10
-1061.145534173791
 20
373.6769282030392
 30
0.0
 11
-1061.145534173791
 21
350.0296600157411
 31
0.0
  0
LINE
  5
35AB
330
2CFE
100
AcDbEntity
  8
DIM
370
    -2
100
AcDbLine
 10
-1008.145534173792
 20
373.6769282030393
 30
0.0
 11
-1008.145534173792
 21
350.0296600157411
 31
0.0
  0
LINE
  5
35AC
330
2CFE
100
AcDbEntity
  8
DIM
370
    -2
100
AcDbLine
 10
-1056.645534173791
 20
353.0296600157411
 30
0.0
 11
-1012.645534173792
 21
353.0296600157411
 31
0.0
  0
SOLID
  5
35AD
330
2CFE
100
AcDbEntity
  8
DIM
100
AcDbTrace
 10
-1056.645534173791
 20
353.7796600157411
 30
0.0
 11
-1056.645534173791
 21
352.2796600157411
 31
0.0
 12
-1061.145534173791
 22
353.0296600157411
 32
0.0
 13
-1061.145534173791
 23
353.0296600157411
 33
0.0
  0
SOLID
  5
35AE
330
2CFE
100
AcDbEntity
  8
DIM
100
AcDbTrace
 10
-1012.645534173792
 20
353.7796600157411
 30
0.0
 11
-1012.645534173792
 21
352.2796600157411
 31
0.0
 12
-1008.145534173792
 22
353.0296600157411
 32
0.0
 13
-1008.145534173792
 23
353.0296600157411
 33
0.0
  0
MTEXT
  5
35AF
330
2CFE
100
AcDbEntity
  8
DIM
100
AcDbMText
 10
-1034.734555407767
 20
356.7796600157411
 30
0.0
 40
4.5
 41
0.0
 71
     5
 72
     1
  1
\A1;53
  7
CHINESET
 73
     1
 44
1.0
1001
ACAD
1000
MTEXTBEGIN
1070
    73
1070
     1
1070
    44
1040
1.0
1070
    74
1070
     0
1000
MTEXTEND
  0
POINT
  5
35B0
330
2CFE
100
AcDbEntity
  8
DEFPOINTS
 62
     0
100
AcDbPoint
 10
-1061.145534173791
 20
376.6769282030392
 30
0.0
  0
POINT
  5
35B1
330
2CFE
100
AcDbEntity
  8
DEFPOINTS
 62
     0
100
AcDbPoint
 10
-1008.145534173792
 20
376.6769282030393
 30
0.0
  0
POINT
  5
35B2
330
2CFE
100
AcDbEntity
  8
DEFPOINTS
 62
     0
100
AcDbPoint
 10
-1008.145534173792
 20
353.0296600157411
 30
0.0
  0
ENDBLK
  5
2D09
330
2CFE
100
AcDbEntity
  8
0
100
AcDbBlockEnd
  0
BLOCK
  5
2D2C
330
2D22
100
AcDbEntity
  8
0
100
AcDbBlockBegin
  2
*D3
 70
     1
 10
0.0
 20
0.0
 30
0.0
  3
*D3
  1

  0
LINE
  5
35B3
330
2D22
100
AcDbEntity
  8
DIM
370
    -2
100
AcDbLine
 10
-1019.866315184401
 20
365.1769282030393
 30
0.0
 11
-985.4964746813754
 21
365.1769282030393
 31
0.0
  0
LINE
  5
35B4
330
2D22
100
AcDbEntity
  8
DIM
370
    -2
100
AcDbLine
 10
-1019.866315184401
 20
418.1769282030391
 30
0.0
 11
-985.4964746813754
 21
418.1769282030391
 31
0.0
  0
LINE
  5
35B5
330
2D22
100
AcDbEntity
  8
DIM
370
    -2
100
AcDbLine
 10
-988.4964746813754
 20
369.6769282030393
 30
0.0
 11
-988.4964746813754
 21
413.6769282030392
 31
0.0
  0
SOLID
  5
35B6
330
2D22
100
AcDbEntity
  8
DIM
100
AcDbTrace
 10
-989.2464746813754
 20
369.6769282030393
 30
0.0
 11
-987.7464746813753
 21
369.6769282030393
 31
0.0
 12
-988.4964746813754
 22
365.1769282030393
 32
0.0
 13
-988.4964746813754
 23
365.1769282030393
 33
0.0
  0
SOLID
  5
35B7
330
2D22
100
AcDbEntity
  8
DIM
100
AcDbTrace
 10
-989.2464746813754
 20
413.6769282030392
 30
0.0
 11
-987.7464746813753
 21
413.6769282030392
 31
0.0
 12
-988.4964746813754
 22
418.1769282030391
 32
0.0
 13
-988.4964746813754
 23
418.1769282030391
 33
0.0
  0
MTEXT
  5
35B8
330
2D22
100
AcDbEntity
  8
DIM
100
AcDbMText
 10
-992.2464746813755
 20
391.833396321177
 30
0.0
 40
4.5
 41
0.0
 71
     5
 72
     1
  1
\A1;53
  7
CHINESET
 11
0.0000000000000001
 21
1.0
 31
0.0
 73
     1
 44
1.0
1001
ACAD
1000
MTEXTBEGIN
1070
    73
1070
     1
1070
    44
1040
1.0
1070
    74
1070
     0
1000
MTEXTEND
  0
POINT
  5
35B9
330
2D22
100
AcDbEntity
  8
DEFPOINTS
 62
     0
100
AcDbPoint
 10
-1022.866315184401
 20
365.1769282030393
 30
0.0
  0
POINT
  5
35BA
330
2D22
100
AcDbEntity
  8
DEFPOINTS
 62
     0
100
AcDbPoint
 10
-1022.866315184401
 20
418.1769282030391
 30
0.0
  0
POINT
  5
35BB
330
2D22
100
AcDbEntity
  8
DEFPOINTS
 62
     0
100
AcDbPoint
 10
-988.4964746813754
 20
418.1769282030391
 30
0.0
  0
ENDBLK
  5
2D2D
330
2D22
100
AcDbEntity
  8
0
100
AcDbBlockEnd
  0
BLOCK
  5
3136
330
312C
100
AcDbEntity
  8
0
100
AcDbBlockBegin
  2
*D4
 70
     1
 10
0.0
 20
0.0
 30
0.0
  3
*D4
  1

  0
LINE
  5
35BC
330
312C
100
AcDbEntity
  8
DIM
370
    -2
100
AcDbLine
 10
-929.3255142629693
 20
337.0707127732426
 30
0.0
 11
-911.2786568314851
 21
337.0707127732426
 31
0.0
  0
LINE
  5
35BD
330
312C
100
AcDbEntity
  8
DIM
370
    -2
100
AcDbLine
 10
-943.039366919962
 20
317.0707127732426
 30
0.0
 11
-911.2786568314851
 21
317.0707127732426
 31
0.0
  0
LINE
  5
35BE
330
312C
100
AcDbEntity
  8
DIM
370
    -2
100
AcDbLine
 10
-914.2786568314852
 20
332.5707127732426
 30
0.0
 11
-914.2786568314852
 21
321.5707127732426
 31
0.0
  0
SOLID
  5
35BF
330
312C
100
AcDbEntity
  8
DIM
100
AcDbTrace
 10
-915.0286568314852
 20
332.5707127732426
 30
0.0
 11
-913.5286568314851
 21
332.5707127732426
 31
0.0
 12
-914.2786568314852
 22
337.0707127732426
 32
0.0
 13
-914.2786568314852
 23
337.0707127732426
 33
0.0
  0
SOLID
  5
35C0
330
312C
100
AcDbEntity
  8
DIM
100
AcDbTrace
 10
-915.0286568314852
 20
321.5707127732426
 30
0.0
 11
-913.5286568314851
 21
321.5707127732426
 31
0.0
 12
-914.2786568314852
 22
317.0707127732426
 32
0.0
 13
-914.2786568314852
 23
317.0707127732426
 33
0.0
  0
MTEXT
  5
35C1
330
312C
100
AcDbEntity
  8
DIM
100
AcDbMText
 10
-918.0286568314853
 20
327.0707127732424
 30
0.0
 40
4.5
 41
0.0
 71
     5
 72
     1
  1
\A1;20
  7
CHINESET
 11
0.0000000000000001
 21
1.0
 31
0.0
 73
     1
 44
1.0
1001
ACAD
1000
MTEXTBEGIN
1070
    73
1070
     1
1070
    44
1040
1.0
1070
    74
1070
     0
1000
MTEXTEND
  0
POINT
  5
35C2
330
312C
100
AcDbEntity
  8
DEFPOINTS
 62
     0
100
AcDbPoint
 10
-932.3255142629694
 20
337.0707127732426
 30
0.0
  0
POINT
  5
35C3
330
312C
100
AcDbEntity
  8
DEFPOINTS
 62
     0
100
AcDbPoint
 10
-946.0393669199619
 20
317.0707127732426
 30
0.0
  0
POINT
  5
35C4
330
312C
100
AcDbEntity
  8
DEFPOINTS
 62
     0
100
AcDbPoint
 10
-914.2786568314852
 20
317.0707127732426
 30
0.0
  0
ENDBLK
  5
3137
330
312C
100
AcDbEntity
  8
0
100
AcDbBlockEnd
  0
BLOCK
  5
3142
330
3138
100
AcDbEntity
  8
0
100
AcDbBlockBegin
  2
*D5
 70
     1
 10
0.0
 20
0.0
 30
0.0
  3
*D5
  1

  0
LINE
  5
35C5
330
3138
100
AcDbEntity
  8
DIM
370
    -2
100
AcDbLine
 10
-944.039366919962
 20
317.0707127732426
 30
0.0
 11
-911.2786568314851
 21
317.0707127732426
 31
0.0
  0
LINE
  5
35C6
330
3138
100
AcDbEntity
  8
DIM
370
    -2
100
AcDbLine
 10
-955.4893669199621
 20
172.0707127732425
 30
0.0
 11
-911.2786568314852
 21
172.0707127732425
 31
0.0
  0
LINE
  5
35C7
330
3138
100
AcDbEntity
  8
DIM
370
    -2
100
AcDbLine
 10
-914.2786568314852
 20
312.5707127732426
 30
0.0
 11
-914.2786568314852
 21
176.5707127732426
 31
0.0
  0
SOLID
  5
35C8
330
3138
100
AcDbEntity
  8
DIM
100
AcDbTrace
 10
-915.0286568314852
 20
312.5707127732426
 30
0.0
 11
-913.5286568314851
 21
312.5707127732426
 31
0.0
 12
-914.2786568314852
 22
317.0707127732426
 32
0.0
 13
-914.2786568314852
 23
317.0707127732426
 33
0.0
  0
SOLID
  5
35C9
330
3138
100
AcDbEntity
  8
DIM
100
AcDbTrace
 10
-915.0286568314852
 20
176.5707127732426
 30
0.0
 11
-913.5286568314851
 21
176.5707127732426
 31
0.0
 12
-914.2786568314852
 22
172.0707127732425
 32
0.0
 13
-914.2786568314852
 23
172.0707127732425
 33
0.0
  0
MTEXT
  5
35CA
330
3138
100
AcDbEntity
  8
DIM
100
AcDbMText
 10
-918.0286568314853
 20
239.5707127732426
 30
0.0
 40
4.5
 41
0.0
 71
     5
 72
     1
  1
\A1;145
  7
CHINESET
 11
0.0000000000000001
 21
1.0
 31
0.0
 73
     1
 44
1.0
1001
ACAD
1000
MTEXTBEGIN
1070
    73
1070
     1
1070
    44
1040
1.0
1070
    74
1070
     0
1000
MTEXTEND
  0
POINT
  5
35CB
330
3138
100
AcDbEntity
  8
DEFPOINTS
 62
     0
100
AcDbPoint
 10
-947.0393669199621
 20
317.0707127732426
 30
0.0
  0
POINT
  5
35CC
330
3138
100
AcDbEntity
  8
DEFPOINTS
 62
     0
100
AcDbPoint
 10
-958.4893669199621
 20
172.0707127732425
 30
0.0
  0
POINT
  5
35CD
330
3138
100
AcDbEntity
  8
DEFPOINTS
 62
     0
100
AcDbPoint
 10
-914.2786568314852
 20
172.0707127732425
 30
0.0
  0
ENDBLK
  5
3143
330
3138
100
AcDbEntity
  8
0
100
AcDbBlockEnd
  0
BLOCK
  5
314E
330
3144
100
AcDbEntity
  8
0
100
AcDbBlockBegin
  2
*D6
 70
     1
 10
0.0
 20
0.0
 30
0.0
  3
*D6
  1

  0
LINE
  5
35CE
330
3144
100
AcDbEntity
  8
DIM
370
    -2
100
AcDbLine
 10
-929.3255142629693
 20
337.0707127732426
 30
0.0
 11
-890.2715784322241
 21
337.0707127732425
 31
0.0
  0
LINE
  5
35CF
330
3144
100
AcDbEntity
  8
DIM
370
    -2
100
AcDbLine
 10
-955.4893669199621
 20
172.0707127732425
 30
0.0
 11
-890.2715784322243
 21
172.0707127732425
 31
0.0
  0
LINE
  5
35D0
330
3144
100
AcDbEntity
  8
DIM
370
    -2
100
AcDbLine
 10
-893.271578432224
 20
332.5707127732425
 30
0.0
 11
-893.2715784322242
 21
176.5707127732426
 31
0.0
  0
SOLID
  5
35D1
330
3144
100
AcDbEntity
  8
DIM
100
AcDbTrace
 10
-894.0215784322241
 20
332.5707127732425
 30
0.0
 11
-892.5215784322242
 21
332.5707127732425
 31
0.0
 12
-893.271578432224
 22
337.0707127732425
 32
0.0
 13
-893.271578432224
 23
337.0707127732425
 33
0.0
  0
SOLID
  5
35D2
330
3144
100
AcDbEntity
  8
DIM
100
AcDbTrace
 10
-894.0215784322242
 20
176.5707127732426
 30
0.0
 11
-892.5215784322242
 21
176.5707127732426
 31
0.0
 12
-893.2715784322242
 22
172.0707127732425
 32
0.0
 13
-893.2715784322242
 23
172.0707127732425
 33
0.0
  0
MTEXT
  5
35D3
330
3144
100
AcDbEntity
  8
DIM
100
AcDbMText
 10
-898.2001498607957
 20
249.5707127732426
 30
0.0
 40
4.5
 41
0.0
 71
     5
 72
     1
  1
\A1;(165)
  7
CHINESET
 11
0.0000000000000001
 21
1.0
 31
0.0
 73
     1
 44
1.0
1001
ACAD
1000
MTEXTBEGIN
1070
    73
1070
     1
1070
    44
1040
1.0
1070
    74
1070
     0
1000
MTEXTEND
  0
POINT
  5
35D4
330
3144
100
AcDbEntity
  8
DEFPOINTS
 62
     0
100
AcDbPoint
 10
-932.3255142629694
 20
337.0707127732426
 30
0.0
  0
POINT
  5
35D5
330
3144
100
AcDbEntity
  8
DEFPOINTS
 62
     0
100
AcDbPoint
 10
-958.4893669199621
 20
172.0707127732425
 30
0.0
  0
POINT
  5
35D6
330
3144
100
AcDbEntity
  8
DEFPOINTS
 62
     0
100
AcDbPoint
 10
-893.2715784322242
 20
172.0707127732425
 30
0.0
  0
ENDBLK
  5
314F
330
3144
100
AcDbEntity
  8
0
100
AcDbBlockEnd
  0
BLOCK
  5
31A4
330
31A3
100
AcDbEntity
  8
ASHADE
100
AcDbBlockBegin
  2
AVE_RENDER
 70
     0
 10
0.0
 20
0.0
 30
0.0
  3
AVE_RENDER
  1
AVE_RENDER
  0
ENDBLK
  5
31A5
330
31A3
100
AcDbEntity
  8
0
100
AcDbBlockEnd
  0
BLOCK
  5
31B2
330
31B1
100
AcDbEntity
  8
ASHADE
100
AcDbBlockBegin
  2
AVE_GLOBAL
 70
     0
 10
0.0
 20
0.0
 30
0.0
  3
AVE_GLOBAL
  1
AVE_GLOBAL
  0
ENDBLK
  5
31B3
330
31B1
100
AcDbEntity
  8
0
100
AcDbBlockEnd
  0
BLOCK
  5
3753
330
3752
100
AcDbEntity
  8
0
100
AcDbBlockBegin
  2
*D9
 70
     1
 10
0.0
 20
0.0
 30
0.0
  3
*D9
  1

  0
LINE
  5
3754
330
3752
100
AcDbEntity
  8
DIM
370
    -2
100
AcDbLine
 10
-1028.014449403109
 20
-56.1009624018609
 30
0.0
 11
-1028.014449403109
 21
-68.10096240186091
 31
0.0
  0
LINE
  5
3755
330
3752
100
AcDbEntity
  8
DIM
370
    -2
100
AcDbLine
 10
-1022.014449403109
 20
-56.1009624018609
 30
0.0
 11
-1022.014449403109
 21
-68.10096240186091
 31
0.0
  0
LINE
  5
3756
330
3752
100
AcDbEntity
  8
DIM
370
    -2
100
AcDbLine
 10
-1032.514449403109
 20
-65.10096240186091
 30
0.0
 11
-1037.014449403109
 21
-65.10096240186091
 31
0.0
  0
LINE
  5
3757
330
3752
100
AcDbEntity
  8
DIM
370
    -2
100
AcDbLine
 10
-1017.514449403109
 20
-65.10096240186091
 30
0.0
 11
-1003.157306545966
 21
-65.10096240186091
 31
0.0
  0
LINE
  5
3758
330
3752
100
AcDbEntity
  8
DIM
370
    -2
100
AcDbLine
 10
-1028.014449403109
 20
-65.10096240186091
 30
0.0
 11
-1022.014449403109
 21
-65.10096240186091
 31
0.0
  0
SOLID
  5
3759
330
3752
100
AcDbEntity
  8
DIM
100
AcDbTrace
 10
-1032.514449403109
 20
-64.35096240186091
 30
0.0
 11
-1032.514449403109
 21
-65.85096240186091
 31
0.0
 12
-1028.014449403109
 22
-65.10096240186091
 32
0.0
 13
-1028.014449403109
 23
-65.10096240186091
 33
0.0
  0
SOLID
  5
375A
330
3752
100
AcDbEntity
  8
DIM
100
AcDbTrace
 10
-1017.514449403109
 20
-64.35096240186091
 30
0.0
 11
-1017.514449403109
 21
-65.85096240186091
 31
0.0
 12
-1022.014449403109
 22
-65.10096240186091
 32
0.0
 13
-1022.014449403109
 23
-65.10096240186091
 33
0.0
  0
MTEXT
  5
375B
330
3752
100
AcDbEntity
  8
DIM
100
AcDbMText
 10
-1008.085877974537
 20
-61.35096240186091
 30
0.0
 40
4.5
 41
0.0
 71
     5
 72
     1
  1
\A1;%%c6
  7
CHINESET
 73
     1
 44
1.0
1001
ACAD
1000
MTEXTBEGIN
1070
    73
1070
     1
1070
    44
1040
1.0
1070
    74
1070
     0
1000
MTEXTEND
  0
POINT
  5
375C
330
3752
100
AcDbEntity
  8
DEFPOINTS
 62
     0
100
AcDbPoint
 10
-1028.014449403109
 20
-53.1009624018609
 30
0.0
  0
POINT
  5
375D
330
3752
100
AcDbEntity
  8
DEFPOINTS
 62
     0
100
AcDbPoint
 10
-1022.014449403109
 20
-53.1009624018609
 30
0.0
  0
POINT
  5
375E
330
3752
100
AcDbEntity
  8
DEFPOINTS
 62
     0
100
AcDbPoint
 10
-1022.014449403109
 20
-65.10096240186091
 30
0.0
  0
ENDBLK
  5
375F
330
3752
100
AcDbEntity
  8
0
100
AcDbBlockEnd
  0
BLOCK
  5
379E
330
3760
100
AcDbEntity
  8
0
100
AcDbBlockBegin
  2
A$C05BB03F9
 70
     0
 10
0.0
 20
0.0
 30
0.0
  3
A$C05BB03F9
  1

  0
LINE
  5
3761
330
3760
100
AcDbEntity
  8
AM_7
100
AcDbLine
 10
41.67028704090557
 20
9.000000008502411
 30
0.0
 11
41.67028704090557
 21
37.78511930985292
 31
0.0
  0
LINE
  5
3762
330
3760
100
AcDbEntity
  8
AM_7
100
AcDbLine
 10
26.57312545504647
 20
25.00000000850253
 30
0.0
 11
55.17028704090603
 21
25.00000000850253
 31
0.0
  0
LINE
  5
3763
330
3760
100
AcDbEntity
  8
CENTER
  6
CENTER
100
AcDbLine
 10
120.5764542947349
 20
25.00000000850241
 30
0.0
 11
120.5764542947349
 21
25.00000000850241
 31
0.0
  0
LINE
  5
3764
330
3760
100
AcDbEntity
  8
CENTER
  6
CENTER
100
AcDbLine
 10
120.5764542947349
 20
25.00000000850241
 30
0.0
 11
120.5764542947349
 21
25.00000000850241
 31
0.0
  0
LINE
  5
3765
330
3760
100
AcDbEntity
  8
CENTER
  6
CENTER
100
AcDbLine
 10
112.0764542947349
 20
25.00000000850241
 30
0.0
 11
120.5764542947349
 21
25.00000000850241
 31
0.0
  0
LINE
  5
3766
330
3760
100
AcDbEntity
  8
CENTER
  6
CENTER
100
AcDbLine
 10
120.5764542947349
 20
25.00000000850241
 30
0.0
 11
129.0764542947349
 21
25.00000000850241
 31
0.0
  0
LINE
  5
3767
330
3760
100
AcDbEntity
  8
AM_VIS
100
AcDbLine
 10
51.67028704090569
 20
32.00000000850241
 30
0.0
 11
31.67028704090558
 21
32.00000000850241
 31
0.0
  0
LINE
  5
3768
330
3760
100
AcDbEntity
  8
AM_VIS
100
AcDbLine
 10
51.67028704090558
 20
18.00000000850252
 30
0.0
 11
31.67028704090558
 21
18.00000000850241
 31
0.0
  0
LINE
  5
3769
330
3760
100
AcDbEntity
  8
AM_VIS
100
AcDbLine
 10
31.67028704090558
 20
32.00000000850241
 30
0.0
 11
31.67028704090558
 21
18.00000000850241
 31
0.0
  0
LINE
  5
376A
330
3760
100
AcDbEntity
  8
AM_VIS
100
AcDbLine
 10
51.67028704090558
 20
32.00000000850252
 30
0.0
 11
51.67028704090558
 21
18.00000000850252
 31
0.0
  0
LINE
  5
376B
330
3760
100
AcDbEntity
  8
AM_VIS
100
AcDbLine
 10
28.67028704090581
 20
22.80000000850248
 30
0.0
 11
31.67028704090581
 21
22.80000000850248
 31
0.0
  0
LINE
  5
376C
330
3760
100
AcDbEntity
  8
AM_VIS
100
AcDbLine
 10
28.67028704090581
 20
27.20000000850246
 30
0.0
 11
31.67028704090535
 21
27.20000000850246
 31
0.0
  0
LINE
  5
376D
330
3760
100
AcDbEntity
  8
AM_VIS
100
AcDbLine
 10
28.17028704090581
 20
23.30000000850248
 30
0.0
 11
28.67028704090581
 21
22.80000000850248
 31
0.0
  0
LINE
  5
376E
330
3760
100
AcDbEntity
  8
AM_VIS
100
AcDbLine
 10
28.17028704090581
 20
26.70000000850246
 30
0.0
 11
28.67028704090581
 21
27.20000000850246
 31
0.0
  0
LINE
  5
376F
330
3760
100
AcDbEntity
  8
AM_VIS
100
AcDbLine
 10
51.6702870409058
 20
21.80000000850248
 30
0.0
 11
52.17028704090603
 21
21.80000000850248
 31
0.0
  0
LINE
  5
3770
330
3760
100
AcDbEntity
  8
AM_VIS
100
AcDbLine
 10
51.67028704090535
 20
28.20000000850246
 30
0.0
 11
52.17028704090603
 21
28.20000000850246
 31
0.0
  0
LINE
  5
3771
330
3760
100
AcDbEntity
  8
AM_VIS
100
AcDbLine
 10
52.67028704090603
 20
27.70000000850246
 30
0.0
 11
52.17028704090603
 21
28.20000000850246
 31
0.0
  0
LINE
  5
3772
330
3760
100
AcDbEntity
  8
AM_VIS
100
AcDbLine
 10
52.67028704090603
 20
22.30000000850248
 30
0.0
 11
52.17028704090603
 21
21.80000000850248
 31
0.0
  0
LINE
  5
3773
330
3760
100
AcDbEntity
  8
AM_VIS
100
AcDbLine
 10
28.67028704090581
 20
27.20000000850246
 30
0.0
 11
28.67028704090581
 21
22.80000000850248
 31
0.0
  0
LINE
  5
3774
330
3760
100
AcDbEntity
  8
AM_VIS
100
AcDbLine
 10
28.17028704090581
 20
23.30000000850248
 30
0.0
 11
28.17028704090581
 21
26.70000000850246
 31
0.0
  0
LINE
  5
3775
330
3760
100
AcDbEntity
  8
AM_VIS
100
AcDbLine
 10
52.67028704090603
 20
27.70000000850246
 30
0.0
 11
52.67028704090603
 21
22.30000000850248
 31
0.0
  0
LINE
  5
3776
330
3760
100
AcDbEntity
  8
AM_VIS
100
AcDbLine
 10
52.17028704090603
 20
21.80000000850248
 30
0.0
 11
52.17028704090603
 21
28.20000000850246
 31
0.0
  0
LINE
  5
3777
330
3760
100
AcDbEntity
  8
AM_VIS
100
AcDbLine
 10
113.0764542947349
 20
18.00000000850252
 30
0.0
 11
128.0764542947349
 21
18.00000000850241
 31
0.0
  0
LINE
  5
3778
330
3760
100
AcDbEntity
  8
AM_VIS
100
AcDbLine
 10
113.0764542947349
 20
32.00000000850252
 30
0.0
 11
113.0764542947349
 21
18.00000000850252
 31
0.0
  0
LINE
  5
3779
330
3760
100
AcDbEntity
  8
AM_VIS
100
AcDbLine
 10
128.0764542947349
 20
32.00000000850241
 30
0.0
 11
113.0764542947349
 21
32.00000000850252
 31
0.0
  0
LINE
  5
377A
330
3760
100
AcDbEntity
  8
AM_VIS
100
AcDbLine
 10
128.0764542947349
 20
18.00000000850241
 30
0.0
 11
128.0764542947349
 21
32.00000000850241
 31
0.0
  0
CIRCLE
  5
377B
330
3760
100
AcDbEntity
  8
AM_VIS
100
AcDbCircle
 10
120.5764542947349
 20
25.00000000850241
 30
0.0
 40
5.999999999999999
  0
CIRCLE
  5
377C
330
3760
100
AcDbEntity
  8
AM_VIS
100
AcDbCircle
 10
120.5764542947349
 20
25.00000000850241
 30
0.0
 40
5.499999999999999
  0
CIRCLE
  5
377D
330
3760
100
AcDbEntity
  8
AM_VIS
100
AcDbCircle
 10
120.5764542947347
 20
25.00000000850253
 30
0.0
 40
2.699999999999988
  0
CIRCLE
  5
377E
330
3760
100
AcDbEntity
  8
AM_VIS
100
AcDbCircle
 10
120.5764542947347
 20
25.00000000850253
 30
0.0
 40
3.199999999999988
  0
CIRCLE
  5
377F
330
3760
100
AcDbEntity
  8
AM_VIS
100
AcDbCircle
 10
120.5764542947349
 20
25.00000000850241
 30
0.0
 40
3.499999999999999
  0
LINE
  5
3780
330
3760
100
AcDbEntity
  8
AM_VIS
100
AcDbLine
 10
44.42028704090557
 20
12.00000000850264
 30
0.0
 11
44.42028704090557
 21
12.70096190282595
 31
0.0
  0
LINE
  5
3781
330
3760
100
AcDbEntity
  8
AM_VIS
100
AcDbLine
 10
38.92028704090558
 20
12.00000000850264
 30
0.0
 11
38.92028704090558
 21
12.70096190282595
 31
0.0
  0
LINE
  5
3782
330
3760
100
AcDbEntity
  8
AM_VIS
100
AcDbLine
 10
44.67028704090558
 20
15.00000000850264
 30
0.0
 11
44.67028704090558
 21
18.00000000850264
 31
0.0
  0
LINE
  5
3783
330
3760
100
AcDbEntity
  8
AM_VIS
100
AcDbLine
 10
38.67028704090558
 20
15.00000000850264
 30
0.0
 11
38.67028704090558
 21
18.00000000850264
 31
0.0
  0
LINE
  5
3784
330
3760
100
AcDbEntity
  8
AM_VIS
100
AcDbLine
 10
44.42028704090557
 20
12.70096190282595
 30
0.0
 11
45.17028704090558
 21
14.00000000850264
 31
0.0
  0
LINE
  5
3785
330
3760
100
AcDbEntity
  8
AM_VIS
100
AcDbLine
 10
38.92028704090558
 20
12.70096190282595
 30
0.0
 11
38.17028704090558
 21
14.00000000850264
 31
0.0
  0
LINE
  5
3786
330
3760
100
AcDbEntity
  8
AM_VIS
100
AcDbLine
 10
44.42028704090557
 20
12.00000000850264
 30
0.0
 11
38.92028704090558
 21
12.00000000850264
 31
0.0
  0
LINE
  5
3787
330
3760
100
AcDbEntity
  8
AM_VIS
100
AcDbLine
 10
44.67028704090558
 20
15.00000000850264
 30
0.0
 11
38.67028704090558
 21
15.00000000850264
 31
0.0
  0
LINE
  5
3788
330
3760
100
AcDbEntity
  8
AM_VIS
100
AcDbLine
 10
44.42028704090557
 20
12.70096190282595
 30
0.0
 11
38.92028704090558
 21
12.70096190282595
 31
0.0
  0
LINE
  5
3789
330
3760
100
AcDbEntity
  8
AM_VIS
100
AcDbLine
 10
45.17028704090558
 20
14.00000000850264
 30
0.0
 11
38.17028704090558
 21
14.00000000850264
 31
0.0
  0
ARC
  5
378A
330
3760
100
AcDbEntity
  8
AM_VIS
100
AcDbCircle
 10
39.16190688961524
 20
14.12919008414781
 30
0.0
 40
1.0
100
AcDbArc
 50
119.4471052414492
 51
187.4227924043959
  0
ARC
  5
378B
330
3760
100
AcDbEntity
  8
AM_VIS
100
AcDbCircle
 10
44.17866719219591
 20
14.12919008414781
 30
0.0
 40
0.9999999999999998
100
AcDbArc
 50
352.5772075956041
 51
60.55289475855072
  0
LINE
  5
378C
330
3760
100
AcDbEntity
  8
AM_VIS
100
AcDbLine
 10
123.3264542947349
 20
12.00000000850252
 30
0.0
 11
123.3264542947349
 21
12.70096190282584
 31
0.0
  0
LINE
  5
378D
330
3760
100
AcDbEntity
  8
AM_VIS
100
AcDbLine
 10
117.8264542947349
 20
12.00000000850252
 30
0.0
 11
117.8264542947349
 21
12.70096190282584
 31
0.0
  0
LINE
  5
378E
330
3760
100
AcDbEntity
  8
AM_VIS
100
AcDbLine
 10
123.5764542947349
 20
15.00000000850252
 30
0.0
 11
123.5764542947349
 21
18.00000000850252
 31
0.0
  0
LINE
  5
378F
330
3760
100
AcDbEntity
  8
AM_VIS
100
AcDbLine
 10
117.5764542947349
 20
15.00000000850252
 30
0.0
 11
117.5764542947349
 21
18.00000000850252
 31
0.0
  0
LINE
  5
3790
330
3760
100
AcDbEntity
  8
AM_VIS
100
AcDbLine
 10
123.3264542947349
 20
12.70096190282584
 30
0.0
 11
124.0764542947349
 21
14.00000000850252
 31
0.0
  0
LINE
  5
3791
330
3760
100
AcDbEntity
  8
AM_VIS
100
AcDbLine
 10
117.8264542947349
 20
12.70096190282584
 30
0.0
 11
117.0764542947349
 21
14.00000000850252
 31
0.0
  0
LINE
  5
3792
330
3760
100
AcDbEntity
  8
AM_VIS
100
AcDbLine
 10
123.3264542947349
 20
12.00000000850252
 30
0.0
 11
117.8264542947349
 21
12.00000000850252
 31
0.0
  0
LINE
  5
3793
330
3760
100
AcDbEntity
  8
AM_VIS
100
AcDbLine
 10
123.5764542947349
 20
15.00000000850252
 30
0.0
 11
117.5764542947349
 21
15.00000000850252
 31
0.0
  0
LINE
  5
3794
330
3760
100
AcDbEntity
  8
AM_VIS
100
AcDbLine
 10
123.3264542947349
 20
12.70096190282584
 30
0.0
 11
117.8264542947349
 21
12.70096190282584
 31
0.0
  0
LINE
  5
3795
330
3760
100
AcDbEntity
  8
AM_VIS
100
AcDbLine
 10
124.0764542947349
 20
14.00000000850252
 30
0.0
 11
117.0764542947349
 21
14.00000000850252
 31
0.0
  0
ARC
  5
3796
330
3760
100
AcDbEntity
  8
AM_VIS
100
AcDbCircle
 10
118.0680741434446
 20
14.12919008414769
 30
0.0
 40
1.0
100
AcDbArc
 50
119.4471052414492
 51
187.4227924043959
  0
ARC
  5
3797
330
3760
100
AcDbEntity
  8
AM_VIS
100
AcDbCircle
 10
123.0848344460253
 20
14.12919008414769
 30
0.0
 40
0.9999999999999998
100
AcDbArc
 50
352.5772075956041
 51
60.55289475855072
  0
LINE
  5
3798
330
3760
100
AcDbEntity
  8
AM_7
100
AcDbLine
 10
120.5764542947347
 20
10.60744035782727
 30
0.0
 11
120.5764542947347
 21
39.39255965917778
 31
0.0
  0
LEADER
  5
3799
330
3760
100
AcDbEntity
  8
DIM
100
AcDbLeader
  3
STANDARD
 73
     0
 75
     1
 40
5.25
 41
17.32499999999999
 76
     3
 10
41.67028704090557
 20
32.00000000850241
 30
0.0
 10
27.4246356139804
 20
9.306843829827357
 30
0.0
 10
22.9246356139804
 20
9.306843829827357
 30
0.0
340
379A
213
4.099635613980353
223
0.3183015432118736
233
0.0
1001
ACAD
1000
DSTYLE
1002
{
1070
    40
1040
1.5
1070
   172
1070
     1
1070
   279
1070
     0
1002
}
  0
MTEXT
  5
379A
102
{ACAD_REACTORS
330
3799
102
}
330
3760
100
AcDbEntity
  8
DIM
100
AcDbMText
 10
17.32500000000004
 20
10.48854228661548
 30
0.0
 40
5.25
 41
0.0
 71
     9
 72
     1
  1
PIVOT
 73
     1
 44
1.0
1001
ACAD
1000
MTEXTBEGIN
1070
    73
1070
     1
1070
    44
1040
1.0
1070
    74
1070
     0
1000
MTEXTEND
  0
DIMENSION
  5
379B
330
3760
100
AcDbEntity
  8
DIM
100
AcDbDimension
  2
*D9
 10
44.67028704090558
 20
3.000000008502624
 30
0.0
 11
58.59885846947702
 21
6.750000008502624
 31
0.0
 12
1066.684736444014
 22
68.10096241036354
 32
0.0
  1
%%c<>
 71
     5
 42
6.0
  3
STANDARD
100
AcDbAlignedDimension
 13
38.67028704090558
 23
15.00000000850264
 33
0.0
 14
44.67028704090558
 24
15.00000000850264
 34
0.0
100
AcDbRotatedDimension
1001
ACAD
1000
DSTYLE
1002
{
1070
    40
1040
1.5
1070
   172
1070
     1
1070
   279
1070
     0
1002
}
  0
ENDBLK
  5
379F
330
3760
100
AcDbEntity
  8
0
100
AcDbBlockEnd
  0
BLOCK
  5
37BC
330
37BB
100
AcDbEntity
  8
0
100
AcDbBlockBegin
  2
*D11
 70
     1
 10
0.0
 20
0.0
 30
0.0
  3
*D11
  1

  0
LINE
  5
37BD
330
37BB
100
AcDbEntity
  8
DIM
370
    -2
100
AcDbLine
 10
-1038.650269812114
 20
-61.12708778005696
 30
0.0
 11
-1038.650269812114
 21
-68.25404165672887
 31
0.0
  0
LINE
  5
37BE
330
37BB
100
AcDbEntity
  8
DIM
370
    -2
100
AcDbLine
 10
-1030.650269812114
 20
-61.12708778005696
 30
0.0
 11
-1030.650269812114
 21
-68.25404165672887
 31
0.0
  0
LINE
  5
37BF
330
37BB
100
AcDbEntity
  8
DIM
370
    -2
100
AcDbLine
 10
-1043.150269812114
 20
-65.25404165672887
 30
0.0
 11
-1047.650269812114
 21
-65.25404165672887
 31
0.0
  0
LINE
  5
37C0
330
37BB
100
AcDbEntity
  8
DIM
370
    -2
100
AcDbLine
 10
-1026.150269812114
 20
-65.25404165672887
 30
0.0
 11
-1011.578841240686
 21
-65.25404165672887
 31
0.0
  0
LINE
  5
37C1
330
37BB
100
AcDbEntity
  8
DIM
370
    -2
100
AcDbLine
 10
-1038.650269812114
 20
-65.25404165672887
 30
0.0
 11
-1030.650269812114
 21
-65.25404165672887
 31
0.0
  0
SOLID
  5
37C2
330
37BB
100
AcDbEntity
  8
DIM
100
AcDbTrace
 10
-1043.150269812114
 20
-64.50404165672887
 30
0.0
 11
-1043.150269812114
 21
-66.00404165672888
 31
0.0
 12
-1038.650269812114
 22
-65.25404165672887
 32
0.0
 13
-1038.650269812114
 23
-65.25404165672887
 33
0.0
  0
SOLID
  5
37C3
330
37BB
100
AcDbEntity
  8
DIM
100
AcDbTrace
 10
-1026.150269812114
 20
-64.50404165672887
 30
0.0
 11
-1026.150269812114
 21
-66.00404165672888
 31
0.0
 12
-1030.650269812114
 22
-65.25404165672887
 32
0.0
 13
-1030.650269812114
 23
-65.25404165672887
 33
0.0
  0
MTEXT
  5
37C4
330
37BB
100
AcDbEntity
  8
DIM
100
AcDbMText
 10
-1016.6145555264
 20
-61.50404165672887
 30
0.0
 40
4.5
 41
0.0
 71
     5
 72
     1
  1
\A1;%%c8
  7
CHINESET
 73
     1
 44
1.0
1001
ACAD
1000
MTEXTBEGIN
1070
    73
1070
     1
1070
    44
1040
1.0
1070
    74
1070
     0
1000
MTEXTEND
  0
POINT
  5
37C5
330
37BB
100
AcDbEntity
  8
DEFPOINTS
 62
     0
100
AcDbPoint
 10
-1038.650269812114
 20
-58.12708778005696
 30
0.0
  0
POINT
  5
37C6
330
37BB
100
AcDbEntity
  8
DEFPOINTS
 62
     0
100
AcDbPoint
 10
-1030.650269812114
 20
-58.12708778005696
 30
0.0
  0
POINT
  5
37C7
330
37BB
100
AcDbEntity
  8
DEFPOINTS
 62
     0
100
AcDbPoint
 10
-1030.650269812114
 20
-65.25404165672887
 30
0.0
  0
ENDBLK
  5
37C8
330
37BB
100
AcDbEntity
  8
0
100
AcDbBlockEnd
  0
BLOCK
  5
3827
330
37C9
100
AcDbEntity
  8
0
100
AcDbBlockBegin
  2
A$C2E9102B8
 70
     0
 10
0.0
 20
0.0
 30
0.0
  3
A$C2E9102B8
  1

  0
LEADER
  5
37CA
330
37C9
100
AcDbEntity
  8
DIM
100
AcDbLeader
  3
STANDARD
 73
     0
 74
     0
 75
     1
 40
5.25
 41
17.32499999999999
 76
     3
 10
13.00473552945027
 20
39.32167437976728
 30
0.0
 10
21.39101882365162
 20
49.01095690562101
 30
0.0
 10
25.89101882365162
 20
49.01095690562101
 30
0.0
213
4.099635613980353
223
0.3183015432118736
233
0.0
1001
ACAD
1000
DSTYLE
1002
{
1070
    40
1040
1.5
1070
   172
1070
     1
1070
   279
1070
     0
1002
}
  0
MTEXT
  5
37CB
102
{ACAD_REACTORS
330
37CA
102
}
330
37C9
100
AcDbEntity
  8
DIM
100
AcDbMText
 10
23.29138320967127
 20
50.19265536240914
 30
0.0
 40
5.25
 41
0.0
 71
     7
 72
     1
  1
PIVOT
 73
     1
 44
1.0
1001
ACAD
1000
MTEXTBEGIN
1070
    73
1070
     1
1070
    44
1040
1.0
1070
    74
1070
     0
1000
MTEXTEND
  0
LINE
  5
37CC
330
37C9
100
AcDbEntity
  8
CENTER
  6
CENTER
100
AcDbLine
 10
12.99969065434811
 20
8.220541654199564
 30
0.0
 11
13.00494548373672
 21
40.61602082003253
 31
0.0
  0
LINE
  5
37CD
330
37C9
100
AcDbEntity
  8
CENTER
100
AcDbLine
 10
91.90060986383958
 20
6.819342857955575
 30
0.0
 11
91.91186160947257
 21
42.34939523115133
 31
0.0
  0
LINE
  5
37CE
330
37C9
100
AcDbEntity
  8
0
 62
     7
100
AcDbLine
 10
2.965087987681499
 20
39.32167437976728
 30
0.0
 11
23.03429332101496
 21
39.32167437976728
 31
0.0
  0
LINE
  5
37CF
330
37C9
100
AcDbEntity
  8
0
100
AcDbLine
 10
21.49969065434811
 20
30.32695437976725
 30
0.0
 11
21.49969065434811
 21
25.32695437976725
 31
0.0
  0
LINE
  5
37D0
330
37C9
100
AcDbEntity
  8
0
100
AcDbLine
 10
4.499690654348114
 20
30.32695437976725
 30
0.0
 11
4.499690654348114
 21
25.32695437976725
 31
0.0
  0
LINE
  5
37D1
330
37C9
100
AcDbEntity
  8
0
100
AcDbLine
 10
5.999690654348114
 20
13.12695437976731
 30
0.0
 11
4.499690654348114
 21
13.67290973116667
 31
0.0
  0
LINE
  5
37D2
330
37C9
100
AcDbEntity
  8
0
100
AcDbLine
 10
4.499690654348114
 20
25.32695437976725
 30
0.0
 11
21.49969065434811
 21
25.32695437976725
 31
0.0
  0
LINE
  5
37D3
330
37C9
100
AcDbEntity
  8
0
100
AcDbLine
 10
4.499690654348114
 20
13.67290973116667
 30
0.0
 11
21.49969065434811
 21
13.67290973116655
 31
0.0
  0
LINE
  5
37D4
330
37C9
100
AcDbEntity
  8
0
100
AcDbLine
 10
4.499690654348341
 20
25.32695437976725
 30
0.0
 11
4.499690654348114
 21
13.67290973116667
 31
0.0
  0
LINE
  5
37D5
330
37C9
100
AcDbEntity
  8
0
100
AcDbLine
 10
19.99969065434811
 20
13.1269543797672
 30
0.0
 11
21.49969065434811
 21
13.67290973116655
 31
0.0
  0
LINE
  5
37D6
330
37C9
100
AcDbEntity
  8
CENTER
100
AcDbLine
 10
10.99969065434811
 20
25.32695437976725
 30
0.0
 11
10.99969065434811
 21
13.67290973116655
 31
0.0
  0
LINE
  5
37D7
330
37C9
100
AcDbEntity
  8
CENTER
100
AcDbLine
 10
9.999690654348114
 20
25.32695437976725
 30
0.0
 11
9.999690654348114
 21
13.67290973116655
 31
0.0
  0
LINE
  5
37D8
330
37C9
100
AcDbEntity
  8
CENTER
100
AcDbLine
 10
17.99969065434811
 20
25.32695437976725
 30
0.0
 11
17.99969065434811
 21
13.67290973116655
 31
0.0
  0
LINE
  5
37D9
330
37C9
100
AcDbEntity
  8
CENTER
100
AcDbLine
 10
18.99969065434834
 20
25.32695437976725
 30
0.0
 11
18.99969065434811
 21
13.67290973116655
 31
0.0
  0
LINE
  5
37DA
330
37C9
100
AcDbEntity
  8
CENTER
100
AcDbLine
 10
14.99969065434834
 20
25.32695437976725
 30
0.0
 11
14.99969065434811
 21
13.67290973116655
 31
0.0
  0
LINE
  5
37DB
330
37C9
100
AcDbEntity
  8
CENTER
100
AcDbLine
 10
15.99969065434811
 20
25.32695437976725
 30
0.0
 11
15.99969065434811
 21
13.67290973116655
 31
0.0
  0
LINE
  5
37DC
330
37C9
100
AcDbEntity
  8
CENTER
100
AcDbLine
 10
7.999690654348114
 20
25.32695437976725
 30
0.0
 11
7.999690654348114
 21
13.67290973116667
 31
0.0
  0
LINE
  5
37DD
330
37C9
100
AcDbEntity
  8
CENTER
100
AcDbLine
 10
6.999690654348114
 20
25.32695437976725
 30
0.0
 11
6.999690654348114
 21
13.67290973116667
 31
0.0
  0
LINE
  5
37DE
330
37C9
100
AcDbEntity
  8
CENTER
100
AcDbLine
 10
4.999690654348114
 20
25.32695437976725
 30
0.0
 11
4.999690654348114
 21
13.67290973116667
 31
0.0
  0
LINE
  5
37DF
330
37C9
100
AcDbEntity
  8
0
100
AcDbLine
 10
5.999690654348114
 20
10.1269543797672
 30
0.0
 11
19.99969065434811
 21
10.1269543797672
 31
0.0
  0
LINE
  5
37E0
330
37C9
100
AcDbEntity
  8
0
100
AcDbLine
 10
5.999690654348114
 20
12.1269543797672
 30
0.0
 11
19.99969065434811
 21
12.1269543797672
 31
0.0
  0
LINE
  5
37E1
330
37C9
100
AcDbEntity
  8
0
100
AcDbLine
 10
5.999690654348114
 20
13.1269543797672
 30
0.0
 11
19.99969065434811
 21
13.1269543797672
 31
0.0
  0
LINE
  5
37E2
330
37C9
100
AcDbEntity
  8
0
100
AcDbLine
 10
5.999690654348114
 20
13.1269543797672
 30
0.0
 11
5.999690654348114
 21
10.1269543797672
 31
0.0
  0
LINE
  5
37E3
330
37C9
100
AcDbEntity
  8
0
100
AcDbLine
 10
19.99969065434811
 20
13.1269543797672
 30
0.0
 11
19.99969065434811
 21
10.1269543797672
 31
0.0
  0
LINE
  5
37E4
330
37C9
100
AcDbEntity
  8
CENTER
100
AcDbLine
 10
20.99969065434811
 20
25.32695437976725
 30
0.0
 11
20.99969065434811
 21
13.67290973116655
 31
0.0
  0
LINE
  5
37E5
330
37C9
100
AcDbEntity
  8
0
100
AcDbLine
 10
21.49969065434811
 20
25.32695437976725
 30
0.0
 11
21.49969065434811
 21
13.67290973116655
 31
0.0
  0
LINE
  5
37E6
330
37C9
100
AcDbEntity
  8
0
 48
4.0
100
AcDbLine
 10
4.499690654348114
 20
30.32695437976725
 30
0.0
 11
21.49969065434811
 21
30.32695437976725
 31
0.0
  0
LINE
  5
37E7
330
37C9
100
AcDbEntity
  8
0
100
AcDbLine
 10
2.499690654348114
 20
39.32695437976724
 30
0.0
 11
23.49969065434811
 21
39.32695437976724
 31
0.0
  0
LINE
  5
37E8
330
37C9
100
AcDbEntity
  8
0
100
AcDbLine
 10
3.013023987681435
 20
39.32695437976724
 30
0.0
 11
22.98635732101502
 21
39.32695437976724
 31
0.0
  0
LINE
  5
37E9
330
37C9
100
AcDbEntity
  8
0
100
AcDbLine
 10
2.499690654348114
 20
39.32695437976724
 30
0.0
 11
2.499690654348114
 21
31.32695437976725
 31
0.0
  0
LINE
  5
37EA
330
37C9
100
AcDbEntity
  8
0
100
AcDbLine
 10
4.499690654348114
 20
30.32695437976725
 30
0.0
 11
2.499690654348114
 21
31.32695437976725
 31
0.0
  0
LINE
  5
37EB
330
37C9
100
AcDbEntity
  8
0
100
AcDbLine
 10
19.99969065434834
 20
39.32695437976724
 30
0.0
 11
22.99969065434834
 21
39.32695437976724
 31
0.0
  0
LINE
  5
37EC
330
37C9
100
AcDbEntity
  8
0
100
AcDbLine
 10
19.41443402048298
 20
39.32695437976724
 30
0.0
 11
19.41443402048298
 21
30.32695437976725
 31
0.0
  0
LINE
  5
37ED
330
37C9
100
AcDbEntity
  8
0
100
AcDbLine
 10
17.98906081306791
 20
39.32695437976724
 30
0.0
 11
17.98906081306791
 21
30.32695437976725
 31
0.0
  0
LINE
  5
37EE
330
37C9
100
AcDbEntity
  8
0
100
AcDbLine
 10
6.584947288213243
 20
39.32695437976724
 30
0.0
 11
6.584947288213243
 21
30.32695437976725
 31
0.0
  0
LINE
  5
37EF
330
37C9
100
AcDbEntity
  8
0
100
AcDbLine
 10
8.01032049562832
 20
39.32695437976724
 30
0.0
 11
8.01032049562832
 21
30.32695437976725
 31
0.0
  0
LINE
  5
37F0
330
37C9
100
AcDbEntity
  8
0
100
AcDbLine
 10
13.99969065434811
 20
39.32695437976724
 30
0.0
 11
13.99969065434811
 21
30.32695437976725
 31
0.0
  0
LINE
  5
37F1
330
37C9
100
AcDbEntity
  8
0
100
AcDbLine
 10
11.99969065434811
 20
39.32695437976724
 30
0.0
 11
11.99969065434811
 21
30.32695437976725
 31
0.0
  0
LINE
  5
37F2
330
37C9
100
AcDbEntity
  8
0
 48
4.0
100
AcDbLine
 10
11.99969065434834
 20
31.32695437976725
 30
0.0
 11
13.99969065434811
 21
31.32695437976725
 31
0.0
  0
LINE
  5
37F3
330
37C9
100
AcDbEntity
  8
0
 48
4.0
100
AcDbLine
 10
6.584947288213243
 20
31.32695437976725
 30
0.0
 11
8.010320495628548
 21
31.32695437976725
 31
0.0
  0
LINE
  5
37F4
330
37C9
100
AcDbEntity
  8
0
 48
4.0
100
AcDbLine
 10
19.41443402048298
 20
31.32695437976725
 30
0.0
 11
17.98906081306791
 21
31.32695437976725
 31
0.0
  0
LINE
  5
37F5
330
37C9
100
AcDbEntity
  8
0
100
AcDbLine
 10
23.49969065434811
 20
39.32695437976724
 30
0.0
 11
23.49969065434811
 21
31.32695437976725
 31
0.0
  0
LINE
  5
37F6
330
37C9
100
AcDbEntity
  8
0
100
AcDbLine
 10
21.49969065434811
 20
30.32695437976725
 30
0.0
 11
23.49969065434811
 21
31.32695437976725
 31
0.0
  0
LINE
  5
37F7
330
37C9
100
AcDbEntity
  8
CENTER
100
AcDbLine
 10
83.99775367534505
 20
25.32695437976725
 30
0.0
 11
83.99775367534505
 21
13.67290973116667
 31
0.0
  0
LINE
  5
37F8
330
37C9
100
AcDbEntity
  8
CENTER
100
AcDbLine
 10
85.99775367534505
 20
25.32695437976725
 30
0.0
 11
85.99775367534505
 21
13.67290973116667
 31
0.0
  0
LINE
  5
37F9
330
37C9
100
AcDbEntity
  8
CENTER
100
AcDbLine
 10
86.99775367534504
 20
25.32695437976725
 30
0.0
 11
86.99775367534504
 21
13.67290973116667
 31
0.0
  0
LINE
  5
37FA
330
37C9
100
AcDbEntity
  8
CENTER
100
AcDbLine
 10
94.99775367534505
 20
25.32695437976725
 30
0.0
 11
94.99775367534505
 21
13.67290973116655
 31
0.0
  0
LINE
  5
37FB
330
37C9
100
AcDbEntity
  8
CENTER
100
AcDbLine
 10
93.99775367534516
 20
25.32695437976725
 30
0.0
 11
93.99775367534505
 21
13.67290973116655
 31
0.0
  0
LINE
  5
37FC
330
37C9
100
AcDbEntity
  8
CENTER
100
AcDbLine
 10
88.99775367534505
 20
25.32695437976725
 30
0.0
 11
88.99775367534505
 21
13.67290973116655
 31
0.0
  0
LINE
  5
37FD
330
37C9
100
AcDbEntity
  8
CENTER
100
AcDbLine
 10
89.99775367534505
 20
25.32695437976725
 30
0.0
 11
89.99775367534505
 21
13.67290973116655
 31
0.0
  0
LINE
  5
37FE
330
37C9
100
AcDbEntity
  8
0
100
AcDbLine
 10
83.49775367534517
 20
25.32695437976725
 30
0.0
 11
83.49775367534505
 21
13.67290973116667
 31
0.0
  0
LINE
  5
37FF
330
37C9
100
AcDbEntity
  8
0
100
AcDbLine
 10
100.497753675345
 20
25.32695437976725
 30
0.0
 11
100.497753675345
 21
13.67290973116655
 31
0.0
  0
LINE
  5
3800
330
37C9
100
AcDbEntity
  8
CENTER
100
AcDbLine
 10
99.99775367534505
 20
25.32695437976725
 30
0.0
 11
99.99775367534505
 21
13.67290973116655
 31
0.0
  0
LINE
  5
3801
330
37C9
100
AcDbEntity
  8
CENTER
100
AcDbLine
 10
97.99775367534516
 20
25.32695437976725
 30
0.0
 11
97.99775367534506
 21
13.67290973116655
 31
0.0
  0
LINE
  5
3802
330
37C9
100
AcDbEntity
  8
CENTER
100
AcDbLine
 10
96.99775367534506
 20
25.32695437976725
 30
0.0
 11
96.99775367534506
 21
13.67290973116655
 31
0.0
  0
LINE
  5
3803
330
37C9
100
AcDbEntity
  8
0
100
AcDbLine
 10
84.99775367534505
 20
13.1269543797672
 30
0.0
 11
98.99775367534505
 21
13.1269543797672
 31
0.0
  0
LINE
  5
3804
330
37C9
100
AcDbEntity
  8
0
100
AcDbLine
 10
84.99775367534505
 20
12.1269543797672
 30
0.0
 11
98.99775367534505
 21
12.1269543797672
 31
0.0
  0
LINE
  5
3805
330
37C9
100
AcDbEntity
  8
0
100
AcDbLine
 10
84.99775367534505
 20
10.1269543797672
 30
0.0
 11
98.99775367534505
 21
10.1269543797672
 31
0.0
  0
LINE
  5
3806
330
37C9
100
AcDbEntity
  8
0
100
AcDbLine
 10
83.49775367534505
 20
13.67290973116667
 30
0.0
 11
100.497753675345
 21
13.67290973116655
 31
0.0
  0
LINE
  5
3807
330
37C9
100
AcDbEntity
  8
0
100
AcDbLine
 10
84.99775367534505
 20
13.1269543797672
 30
0.0
 11
84.99775367534505
 21
10.1269543797672
 31
0.0
  0
LINE
  5
3808
330
37C9
100
AcDbEntity
  8
0
100
AcDbLine
 10
84.99775367534505
 20
13.12695437976731
 30
0.0
 11
83.49775367534505
 21
13.67290973116667
 31
0.0
  0
LINE
  5
3809
330
37C9
100
AcDbEntity
  8
0
100
AcDbLine
 10
98.99775367534505
 20
13.1269543797672
 30
0.0
 11
100.497753675345
 21
13.67290973116655
 31
0.0
  0
LINE
  5
380A
330
37C9
100
AcDbEntity
  8
0
100
AcDbLine
 10
98.99775367534505
 20
13.1269543797672
 30
0.0
 11
98.99775367534505
 21
10.1269543797672
 31
0.0
  0
LINE
  5
380B
330
37C9
100
AcDbEntity
  8
0
 62
     7
100
AcDbLine
 10
81.96315100867844
 20
39.32167437976728
 30
0.0
 11
102.0323563420119
 21
39.32167437976728
 31
0.0
  0
LINE
  5
380C
330
37C9
100
AcDbEntity
  8
0
100
AcDbLine
 10
82.01108700867838
 20
39.32695437976724
 30
0.0
 11
101.9844203420118
 21
39.32695437976724
 31
0.0
  0
LINE
  5
380D
330
37C9
100
AcDbEntity
  8
0
100
AcDbLine
 10
81.49775367534505
 20
39.32695437976724
 30
0.0
 11
102.497753675345
 21
39.32695437976724
 31
0.0
  0
LINE
  5
380E
330
37C9
100
AcDbEntity
  8
0
 48
4.0
100
AcDbLine
 10
83.49775367534505
 20
30.32695437976725
 30
0.0
 11
100.497753675345
 21
30.32695437976725
 31
0.0
  0
LINE
  5
380F
330
37C9
100
AcDbEntity
  8
0
100
AcDbLine
 10
83.49775367534505
 20
25.32695437976725
 30
0.0
 11
100.497753675345
 21
25.32695437976725
 31
0.0
  0
LINE
  5
3810
330
37C9
100
AcDbEntity
  8
0
 48
4.0
100
AcDbLine
 10
90.99775367534517
 20
31.32695437976725
 30
0.0
 11
92.99775367534506
 21
31.32695437976725
 31
0.0
  0
LINE
  5
3811
330
37C9
100
AcDbEntity
  8
0
100
AcDbLine
 10
83.49775367534505
 20
30.32695437976725
 30
0.0
 11
81.49775367534505
 21
31.32695437976725
 31
0.0
  0
LINE
  5
3812
330
37C9
100
AcDbEntity
  8
0
100
AcDbLine
 10
81.49775367534505
 20
39.32695437976724
 30
0.0
 11
81.49775367534505
 21
31.32695437976725
 31
0.0
  0
LINE
  5
3813
330
37C9
100
AcDbEntity
  8
0
100
AcDbLine
 10
83.49775367534505
 20
30.32695437976725
 30
0.0
 11
83.49775367534505
 21
25.32695437976725
 31
0.0
  0
LINE
  5
3814
330
37C9
100
AcDbEntity
  8
0
100
AcDbLine
 10
90.99775367534505
 20
39.32695437976724
 30
0.0
 11
90.99775367534505
 21
30.32695437976725
 31
0.0
  0
LINE
  5
3815
330
37C9
100
AcDbEntity
  8
0
100
AcDbLine
 10
87.00838351662525
 20
39.32695437976724
 30
0.0
 11
87.00838351662525
 21
30.32695437976725
 31
0.0
  0
LINE
  5
3816
330
37C9
100
AcDbEntity
  8
0
100
AcDbLine
 10
85.58301030921018
 20
39.32695437976724
 30
0.0
 11
85.58301030921018
 21
30.32695437976725
 31
0.0
  0
LINE
  5
3817
330
37C9
100
AcDbEntity
  8
0
 48
4.0
100
AcDbLine
 10
85.58301030921018
 20
31.32695437976725
 30
0.0
 11
87.00838351662538
 21
31.32695437976725
 31
0.0
  0
LINE
  5
3818
330
37C9
100
AcDbEntity
  8
0
100
AcDbLine
 10
98.99775367534529
 20
39.32695437976724
 30
0.0
 11
101.9977536753452
 21
39.32695437976724
 31
0.0
  0
LINE
  5
3819
330
37C9
100
AcDbEntity
  8
0
100
AcDbLine
 10
92.99775367534506
 20
39.32695437976724
 30
0.0
 11
92.99775367534506
 21
30.32695437976725
 31
0.0
  0
LINE
  5
381A
330
37C9
100
AcDbEntity
  8
0
100
AcDbLine
 10
96.98712383406485
 20
39.32695437976724
 30
0.0
 11
96.98712383406485
 21
30.32695437976725
 31
0.0
  0
LINE
  5
381B
330
37C9
100
AcDbEntity
  8
0
100
AcDbLine
 10
98.41249704147992
 20
39.32695437976724
 30
0.0
 11
98.41249704147992
 21
30.32695437976725
 31
0.0
  0
LINE
  5
381C
330
37C9
100
AcDbEntity
  8
0
 48
4.0
100
AcDbLine
 10
98.41249704147992
 20
31.32695437976725
 30
0.0
 11
96.98712383406485
 21
31.32695437976725
 31
0.0
  0
LINE
  5
381D
330
37C9
100
AcDbEntity
  8
0
100
AcDbLine
 10
102.497753675345
 20
39.32695437976724
 30
0.0
 11
102.497753675345
 21
31.32695437976725
 31
0.0
  0
LINE
  5
381E
330
37C9
100
AcDbEntity
  8
0
100
AcDbLine
 10
100.497753675345
 20
30.32695437976725
 30
0.0
 11
102.497753675345
 21
31.32695437976725
 31
0.0
  0
LINE
  5
381F
330
37C9
100
AcDbEntity
  8
0
100
AcDbLine
 10
100.497753675345
 20
30.32695437976725
 30
0.0
 11
100.497753675345
 21
25.32695437976725
 31
0.0
  0
LINE
  5
3820
330
37C9
100
AcDbEntity
  8
0
  6
AM_ISO02W050x2
 62
     3
 48
0.5
100
AcDbLine
 10
87.90165732650882
 20
10.1269543797672
 30
0.0
 11
87.90165732650882
 21
29.20075603657029
 31
0.0
  0
LINE
  5
3821
330
37C9
100
AcDbEntity
  8
0
  6
AM_ISO02W050x2
 62
     3
 48
0.5
100
AcDbLine
 10
95.90165732650882
 20
10.1269543797672
 30
0.0
 11
95.90165732650882
 21
29.20075603657029
 31
0.0
  0
DIMENSION
  5
3822
330
37C9
100
AcDbEntity
  8
DIM
100
AcDbDimension
  2
*D11
 10
16.99999989112666
 20
3.000000503095293
 30
0.0
 11
31.035714176841
 21
3.000000503095293
 31
0.0
 12
1047.650269703241
 22
68.25404215982416
 32
0.0
 70
   128
  1
%%c<>
 71
     5
 42
8.0
  3
STANDARD
100
AcDbAlignedDimension
 13
8.999999891126662
 23
10.1269543797672
 33
0.0
 14
16.99999989112666
 24
10.1269543797672
 34
0.0
100
AcDbRotatedDimension
1001
ACAD
1000
DSTYLE
1002
{
1070
    40
1040
1.5
1070
   172
1070
     1
1070
   279
1070
     0
1002
}
  0
LINE
  5
3823
330
37C9
100
AcDbEntity
  8
0
  6
AM_ISO02W050x2
 62
     3
 48
0.5
100
AcDbLine
 10
8.999999891126662
 20
10.1269543797672
 30
0.0
 11
8.999999891126662
 21
29.20075603657029
 31
0.0
  0
LINE
  5
3824
330
37C9
100
AcDbEntity
  8
0
  6
AM_ISO02W050x2
 62
     3
 48
0.5
100
AcDbLine
 10
16.99999989112666
 20
10.1269543797672
 30
0.0
 11
16.99999989112666
 21
29.20075603657029
 31
0.0
  0
ENDBLK
  5
3828
330
37C9
100
AcDbEntity
  8
0
100
AcDbBlockEnd
  0
ENDSEC
  0
SECTION
  2
ENTITIES
  0
LINE
  5
675
330
20EF
100
AcDbEntity
  8
CENTER
  6
CENTER
100
AcDbLine
 10
-1034.645534173791
 20
361.9030180131266
 30
0.0
 11
-1034.645534173791
 21
421.9645692520629
 31
0.0
  0
LINE
  5
676
330
20EF
100
AcDbEntity
  8
0
100
AcDbLine
 10
-1061.145534173791
 20
406.6769282030391
 30
0.0
 11
-1061.145534173791
 21
376.6769282030392
 31
0.0
  0
LINE
  5
677
330
20EF
100
AcDbEntity
  8
0
100
AcDbLine
 10
-1008.145534173792
 20
406.6769282030391
 30
0.0
 11
-1008.145534173792
 21
376.6769282030392
 31
0.0
  0
ARC
  5
683
330
20EF
100
AcDbEntity
  8
0
100
AcDbCircle
 10
-1026.618474989356
 20
376.6769282030393
 30
0.0
 40
10.0
100
AcDbArc
 50
270.0000000000001
 51
331.6992442339937
  0
ARC
  5
684
330
20EF
100
AcDbEntity
  8
0
100
AcDbCircle
 10
-1034.645534173791
 20
391.6769282030392
 30
0.0
 40
29.0
100
AcDbArc
 50
293.9650909849874
 51
328.852610078491
  0
LINE
  5
6DE
330
20EF
100
AcDbEntity
  8
0
100
AcDbLine
 10
-1059.464881465773
 20
376.6769282030392
 30
0.0
 11
-1058.145534173791
 21
379.6769282030392
 31
0.0
  0
LINE
  5
6DF
330
20EF
100
AcDbEntity
  8
0
100
AcDbLine
 10
-1061.145534173791
 20
379.6769282030392
 30
0.0
 11
-1055.645534173791
 21
379.6769282030392
 31
0.0
  0
ARC
  5
6E0
330
20EF
100
AcDbEntity
  8
0
100
AcDbCircle
 10
-1034.645534173791
 20
391.6769282030392
 30
0.0
 40
29.0
100
AcDbArc
 50
211.147389921509
 51
246.0349090150126
  0
LINE
  5
6E3
330
20EF
100
AcDbEntity
  8
0
100
AcDbLine
 10
-1061.145534173791
 20
376.6769282030392
 30
0.0
 11
-1059.464881465773
 21
376.6769282030392
 31
0.0
  0
LINE
  5
6E6
330
20EF
100
AcDbEntity
  8
0
100
AcDbLine
 10
-1042.672593358227
 20
366.6769282030392
 30
0.0
 11
-1026.618474989356
 21
366.6769282030393
 31
0.0
  0
LINE
  5
6E7
330
20EF
100
AcDbEntity
  8
0
100
AcDbLine
 10
-1046.424753163181
 20
365.1769282030393
 30
0.0
 11
-1022.866315184401
 21
365.1769282030393
 31
0.0
  0
LINE
  5
6E9
330
20EF
100
AcDbEntity
  8
0
100
AcDbLine
 10
-1046.645534173791
 20
370.9769282030388
 30
0.0
 11
-1046.645534173791
 21
374.3769282030397
 31
0.0
  0
CIRCLE
  5
6EA
330
20EF
100
AcDbEntity
  8
0
100
AcDbCircle
 10
-1046.645534173791
 20
372.6769282030392
 30
0.0
 40
1.7
  0
ARC
  5
6EB
330
20EF
100
AcDbEntity
  8
0
100
AcDbCircle
 10
-1042.672593358227
 20
376.6769282030392
 30
0.0
 40
10.0
100
AcDbArc
 50
208.3007557660063
 51
270.0000000000001
  0
LINE
  5
6EC
330
20EF
100
AcDbEntity
  8
0
100
AcDbLine
 10
-1051.477304357449
 20
371.9359299726891
 30
0.0
 11
-1055.645534173791
 21
379.6769282030393
 31
0.0
  0
LINE
  5
7A8
330
20EF
100
AcDbEntity
  8
0
100
AcDbLine
 10
-1013.645534173791
 20
379.6769282030392
 30
0.0
 11
-1008.145534173792
 21
379.6769282030392
 31
0.0
  0
LINE
  5
7A9
330
20EF
100
AcDbEntity
  8
0
100
AcDbLine
 10
-1013.645534173791
 20
379.6769282030393
 30
0.0
 11
-1017.813763990133
 21
371.9359299726891
 31
0.0
  0
LINE
  5
7AA
330
20EF
100
AcDbEntity
  8
0
100
AcDbLine
 10
-1009.826186881809
 20
376.6769282030392
 30
0.0
 11
-1011.145534173792
 21
379.6769282030392
 31
0.0
  0
LINE
  5
7AB
330
20EF
100
AcDbEntity
  8
0
100
AcDbLine
 10
-1009.826186881809
 20
376.6769282030392
 30
0.0
 11
-1008.145534173792
 21
376.6769282030393
 31
0.0
  0
LINE
  5
7E1
330
20EF
100
AcDbEntity
  8
0
100
AcDbLine
 10
-1024.345534173792
 20
410.6769282030393
 30
0.0
 11
-1020.945534173791
 21
410.6769282030393
 31
0.0
  0
CIRCLE
  5
7E2
330
20EF
100
AcDbEntity
  8
0
100
AcDbCircle
 10
-1022.645534173791
 20
410.6769282030393
 30
0.0
 40
1.7
  0
ARC
  5
7E3
330
20EF
100
AcDbEntity
  8
0
100
AcDbCircle
 10
-1026.618474989356
 20
406.6769282030393
 30
0.0
 40
10.0
100
AcDbArc
 50
28.30075576600614
 51
89.99999999999994
  0
LINE
  5
7E4
330
20EF
100
AcDbEntity
  8
0
100
AcDbLine
 10
-1048.645534173791
 20
416.6769282030393
 30
0.0
 11
-1020.645534173791
 21
416.6769282030392
 31
0.0
  0
ARC
  5
7E5
330
20EF
100
AcDbEntity
  8
0
100
AcDbCircle
 10
-1034.645534173791
 20
391.6769282030392
 30
0.0
 40
29.0
100
AcDbArc
 50
31.14738992150897
 51
66.03490901501261
  0
LINE
  5
7E6
330
20EF
100
AcDbEntity
  8
0
100
AcDbLine
 10
-1059.464881465773
 20
406.6769282030391
 30
0.0
 11
-1058.145534173791
 21
403.6769282030392
 31
0.0
  0
LINE
  5
7E7
330
20EF
100
AcDbEntity
  8
0
100
AcDbLine
 10
-1061.145534173791
 20
403.6769282030392
 30
0.0
 11
-1055.645534173791
 21
403.6769282030392
 31
0.0
  0
ARC
  5
7E8
330
20EF
100
AcDbEntity
  8
0
100
AcDbCircle
 10
-1034.645534173791
 20
391.6769282030392
 30
0.0
 40
29.0
100
AcDbArc
 50
113.9650909849874
 51
148.852610078491
  0
LINE
  5
7E9
330
20EF
100
AcDbEntity
  8
0
100
AcDbLine
 10
-1061.145534173791
 20
406.6769282030391
 30
0.0
 11
-1059.464881465773
 21
406.6769282030391
 31
0.0
  0
LINE
  5
7EA
330
20EF
100
AcDbEntity
  8
0
100
AcDbLine
 10
-1022.645534173791
 20
408.9769282030379
 30
0.0
 11
-1022.645534173791
 21
412.3769282030406
 31
0.0
  0
LINE
  5
7EB
330
20EF
100
AcDbEntity
  8
0
100
AcDbLine
 10
-1055.645534173791
 20
403.6769282030392
 30
0.0
 11
-1048.645534173791
 21
416.6769282030393
 31
0.0
  0
ARC
  5
7EC
330
20EF
100
AcDbEntity
  8
0
100
AcDbCircle
 10
-1064.036717704189
 20
391.6769282030393
 30
0.0
 40
6.39118353039754
100
AcDbArc
 50
337.1858215657788
 51
22.81417843422121
  0
ARC
  5
7ED
330
20EF
100
AcDbEntity
  8
0
100
AcDbCircle
 10
-1057.945534173791
 20
389.1987870588757
 30
0.0
 40
0.2
100
AcDbArc
 50
180.0
 51
296.139068100435
  0
ARC
  5
7EE
330
20EF
100
AcDbEntity
  8
0
100
AcDbCircle
 10
-1057.945534173791
 20
394.1550693472028
 30
0.0
 40
0.2
100
AcDbArc
 50
63.86093189956504
 51
179.9999999999999
  0
ARC
  5
7EF
330
20EF
100
AcDbEntity
  8
0
100
AcDbCircle
 10
-1052.895737125307
 20
391.6769282030393
 30
0.0
 40
0.2
100
AcDbArc
 50
296.1390681004349
 51
63.86093189956512
  0
LINE
  5
7F0
330
20EF
100
AcDbEntity
  8
0
100
AcDbLine
 10
-1052.807626844729
 20
391.4973827256347
 30
0.0
 11
-1057.857423893213
 21
389.0192415814712
 31
0.0
  0
LINE
  5
7F1
330
20EF
100
AcDbEntity
  8
0
100
AcDbLine
 10
-1057.857423893213
 20
394.3346148246074
 30
0.0
 11
-1052.807626844729
 21
391.8564736804439
 31
0.0
  0
LINE
  5
7F2
330
20EF
100
AcDbEntity
  8
0
100
AcDbLine
 10
-1046.424753163181
 20
418.1769282030391
 30
0.0
 11
-1022.866315184401
 21
418.1769282030391
 31
0.0
  0
ARC
  5
7F3
330
20EF
100
AcDbEntity
  8
0
100
AcDbCircle
 10
-1042.672593358227
 20
406.6769282030393
 30
0.0
 40
10.0
100
AcDbArc
 50
90.0
 51
151.6992442339936
  0
LINE
  5
7F7
330
20EF
100
AcDbEntity
  8
0
100
AcDbLine
 10
-1020.645534173791
 20
416.6769282030392
 30
0.0
 11
-1013.645534173791
 21
403.6769282030392
 31
0.0
  0
LINE
  5
7F9
330
20EF
100
AcDbEntity
  8
0
100
AcDbLine
 10
-1013.645534173791
 20
403.6769282030392
 30
0.0
 11
-1008.145534173792
 21
403.6769282030392
 31
0.0
  0
LINE
  5
7FA
330
20EF
100
AcDbEntity
  8
0
100
AcDbLine
 10
-1009.895534173792
 20
406.6769282030391
 30
0.0
 11
-1011.145534173792
 21
403.6769282030392
 31
0.0
  0
LINE
  5
7FB
330
20EF
100
AcDbEntity
  8
0
100
AcDbLine
 10
-1009.826186881809
 20
406.6769282030391
 30
0.0
 11
-1008.145534173792
 21
406.6769282030391
 31
0.0
  0
LINE
  5
1AB1
330
20EF
100
AcDbEntity
  8
CENTER
  6
CENTER
100
AcDbLine
 10
-1064.540297830407
 20
391.6769282030392
 30
0.0
 11
-1003.556433254285
 21
391.6769282030392
 31
0.0
  0
TEXT
  5
28E9
330
20EF
100
AcDbEntity
  8
DIM
100
AcDbText
 10
-923.0260738577923
 20
347.6024975901643
 30
0.0
 40
5.0
  1
%%U2-PT3/8
100
AcDbText
  0
DIMENSION
  5
2C29
330
20EF
100
AcDbEntity
  8
DIM
100
AcDbDimension
  2
*D1
 10
-959.4345757501653
 20
312.7501884137257
 30
0.0
 11
-909.907195274423
 21
354.4016905442114
 31
0.0
 70
   163
  1
2-PT1/4
 71
     5
 42
11.37039999999922
  3
AM_ISO$3
100
AcDbDiametricDimension
 15
-952.0441580897591
 25
321.391237132761
 35
0.0
 40
0.0
1001
ACAD
1000
DSTYLE
1002
{
1070
   144
1040
1.0
1070
    40
1040
1.5
1002
}
  0
DIMENSION
  5
2CFD
330
20EF
100
AcDbEntity
  8
DIM
100
AcDbDimension
  2
*D2
 10
-1008.145534173792
 20
353.0296600157411
 30
0.0
 11
-1034.734555407767
 21
353.0296600157411
 31
0.0
 70
   160
 71
     5
 42
52.99999999999954
  3
STANDARD
100
AcDbAlignedDimension
 13
-1061.145534173791
 23
376.6769282030392
 33
0.0
 14
-1008.145534173792
 24
376.6769282030393
 34
0.0
100
AcDbRotatedDimension
1001
ACAD
1000
DSTYLE
1002
{
1070
    40
1040
1.5
1070
   279
1070
     0
1002
}
  0
DIMENSION
  5
2D21
330
20EF
100
AcDbEntity
  8
DIM
100
AcDbDimension
  2
*D3
 10
-988.4964746813754
 20
418.1769282030391
 30
0.0
 11
-988.4964746813755
 21
391.833396321177
 31
0.0
 70
   160
 71
     5
 42
52.99999999999989
  3
STANDARD
100
AcDbAlignedDimension
 13
-1022.866315184401
 23
365.1769282030393
 33
0.0
 14
-1022.866315184401
 24
418.1769282030391
 34
0.0
 50
90.0
100
AcDbRotatedDimension
1001
ACAD
1000
DSTYLE
1002
{
1070
    40
1040
1.5
1070
   279
1070
     0
1002
}
  0
LINE
  5
2FAA
330
20EF
100
AcDbEntity
  8
CENTER
  6
CENTER
100
AcDbLine
 10
-1034.645534173791
 20
189.0707127732426
 30
0.0
 11
-1034.645534173791
 21
339.6998206305052
 31
0.0
  0
LINE
  5
2FAF
330
20EF
100
AcDbEntity
  8
AM_7
100
AcDbLine
 10
-1034.645534173791
 20
209.5707127732426
 30
0.0
 11
-1034.645534173791
 21
209.5707127732426
 31
0.0
  0
LINE
  5
2FB0
330
20EF
100
AcDbEntity
  8
AM_7
100
AcDbLine
 10
-1034.645534173791
 20
209.5707127732426
 30
0.0
 11
-1034.645534173791
 21
209.5707127732426
 31
0.0
  0
LINE
  5
2FB6
330
20EF
100
AcDbEntity
  8
AM_7
100
AcDbLine
 10
-1034.645534173791
 20
259.5707127732426
 30
0.0
 11
-1034.645534173791
 21
259.5707127732426
 31
0.0
  0
LINE
  5
2FB7
330
20EF
100
AcDbEntity
  8
AM_7
100
AcDbLine
 10
-1034.645534173791
 20
259.5707127732426
 30
0.0
 11
-1034.645534173791
 21
259.5707127732426
 31
0.0
  0
LINE
  5
2FBA
330
20EF
100
AcDbEntity
  8
AM_7
100
AcDbLine
 10
-1034.645534173791
 20
251.5707127732426
 30
0.0
 11
-1034.645534173791
 21
259.5707127732426
 31
0.0
  0
LINE
  5
2FBB
330
20EF
100
AcDbEntity
  8
AM_7
100
AcDbLine
 10
-1034.645534173791
 20
259.5707127732426
 30
0.0
 11
-1034.645534173791
 21
267.5707127732426
 31
0.0
  0
LINE
  5
2FBC
330
20EF
100
AcDbEntity
  8
CENTER
  6
CENTER
100
AcDbLine
 10
-955.7393669199619
 20
189.0707127732426
 30
0.0
 11
-955.7393669199619
 21
339.3408892104934
 31
0.0
  0
LINE
  5
2FBD
330
20EF
100
AcDbEntity
  8
CENTER
  6
CENTER
100
AcDbLine
 10
-955.7393669199619
 20
317.0707127732426
 30
0.0
 11
-955.7393669199619
 21
317.0707127732426
 31
0.0
  0
LINE
  5
2FBE
330
20EF
100
AcDbEntity
  8
CENTER
  6
CENTER
100
AcDbLine
 10
-955.7393669199619
 20
317.0707127732426
 30
0.0
 11
-955.7393669199619
 21
317.0707127732426
 31
0.0
  0
LINE
  5
2FBF
330
20EF
100
AcDbEntity
  8
CENTER
  6
CENTER
100
AcDbLine
 10
-964.4393669199619
 20
317.0707127732426
 30
0.0
 11
-955.7393669199619
 21
317.0707127732426
 31
0.0
  0
LINE
  5
2FC0
330
20EF
100
AcDbEntity
  8
CENTER
  6
CENTER
100
AcDbLine
 10
-955.7393669199619
 20
317.0707127732426
 30
0.0
 11
-947.0393669199621
 21
317.0707127732426
 31
0.0
  0
LINE
  5
2FC1
330
20EF
100
AcDbEntity
  8
CENTER
  6
CENTER
100
AcDbLine
 10
-955.7393669199619
 20
308.3707127732425
 30
0.0
 11
-955.7393669199619
 21
317.0707127732426
 31
0.0
  0
LINE
  5
2FC2
330
20EF
100
AcDbEntity
  8
CENTER
  6
CENTER
100
AcDbLine
 10
-955.7393669199619
 20
317.0707127732426
 30
0.0
 11
-955.7393669199619
 21
325.7707127732425
 31
0.0
  0
LINE
  5
2FC9
330
20EF
100
AcDbEntity
  8
CENTER
  6
CENTER
100
AcDbLine
 10
-955.7393669199621
 20
171.0329667357396
 30
0.0
 11
-955.7393669199621
 21
193.5707127732426
 31
0.0
  0
LINE
  5
2FCD
330
20EF
100
AcDbEntity
  8
AM_7
100
AcDbLine
 10
-955.7393669199619
 20
259.5707127732426
 30
0.0
 11
-955.7393669199619
 21
259.5707127732426
 31
0.0
  0
LINE
  5
2FCE
330
20EF
100
AcDbEntity
  8
AM_7
100
AcDbLine
 10
-955.7393669199619
 20
259.5707127732426
 30
0.0
 11
-955.7393669199619
 21
259.5707127732426
 31
0.0
  0
LINE
  5
2FD1
330
20EF
100
AcDbEntity
  8
CENTER
  6
CENTER
100
AcDbLine
 10
-955.7393669199619
 20
251.5707127732426
 30
0.0
 11
-955.7393669199619
 21
259.5707127732426
 31
0.0
  0
LINE
  5
2FD2
330
20EF
100
AcDbEntity
  8
CENTER
  6
CENTER
100
AcDbLine
 10
-955.7393669199619
 20
259.5707127732426
 30
0.0
 11
-955.7393669199619
 21
267.5707127732426
 31
0.0
  0
LINE
  5
2FD3
330
20EF
100
AcDbEntity
  8
CENTER
  6
CENTER
100
AcDbLine
 10
-955.7393669199619
 20
209.5707127732426
 30
0.0
 11
-955.7393669199619
 21
209.5707127732426
 31
0.0
  0
LINE
  5
2FD4
330
20EF
100
AcDbEntity
  8
CENTER
  6
CENTER
100
AcDbLine
 10
-955.7393669199619
 20
209.5707127732426
 30
0.0
 11
-955.7393669199619
 21
209.5707127732426
 31
0.0
  0
LINE
  5
2FD7
330
20EF
100
AcDbEntity
  8
CENTER
  6
CENTER
100
AcDbLine
 10
-955.7393669199619
 20
201.5707127732426
 30
0.0
 11
-955.7393669199619
 21
209.5707127732426
 31
0.0
  0
LINE
  5
2FD8
330
20EF
100
AcDbEntity
  8
CENTER
  6
CENTER
100
AcDbLine
 10
-955.7393669199619
 20
209.5707127732426
 30
0.0
 11
-955.7393669199619
 21
217.5707127732426
 31
0.0
  0
LINE
  5
2FDA
330
20EF
100
AcDbEntity
  8
AM_VIS
100
AcDbLine
 10
-1046.424753163181
 20
285.5707127732426
 30
0.0
 11
-1046.424753163181
 21
296.5707127732425
 31
0.0
  0
LINE
  5
2FDB
330
20EF
100
AcDbEntity
  8
AM_VIS
100
AcDbLine
 10
-1022.866315184401
 20
296.5707127732425
 30
0.0
 11
-1022.866315184401
 21
285.5707127732426
 31
0.0
  0
LINE
  5
2FDC
330
20EF
100
AcDbEntity
  8
AM_VIS
100
AcDbLine
 10
-1008.145534173791
 20
325.0707127732426
 30
0.0
 11
-1009.895534173791
 21
325.0707127732426
 31
0.0
  0
LINE
  5
2FDD
330
20EF
100
AcDbEntity
  8
AM_VIS
100
AcDbLine
 10
-1009.895534173791
 20
325.0707127732426
 30
0.0
 11
-1011.145534173791
 21
327.0707127732426
 31
0.0
  0
LINE
  5
2FDE
330
20EF
100
AcDbEntity
  8
AM_VIS
100
AcDbLine
 10
-1009.895534173791
 20
309.0707127732426
 30
0.0
 11
-1009.895534173791
 21
325.0707127732426
 31
0.0
  0
LINE
  5
2FDF
330
20EF
100
AcDbEntity
  8
AM_VIS
100
AcDbLine
 10
-1009.895534173791
 20
309.0707127732426
 30
0.0
 11
-1008.145534173791
 21
309.0707127732426
 31
0.0
  0
LINE
  5
2FE0
330
20EF
100
AcDbEntity
  8
AM_VIS
100
AcDbLine
 10
-1011.145534173791
 20
307.0707127732426
 30
0.0
 11
-1009.895534173791
 21
309.0707127732426
 31
0.0
  0
LINE
  5
2FE1
330
20EF
100
AcDbEntity
  8
AM_VIS
100
AcDbLine
 10
-1046.424753163181
 20
296.5707127732425
 30
0.0
 11
-1022.866315184401
 21
296.5707127732425
 31
0.0
  0
LINE
  5
2FE2
330
20EF
100
AcDbEntity
  8
AM_VIS
100
AcDbLine
 10
-1059.395534173791
 20
309.0707127732426
 30
0.0
 11
-1059.395534173791
 21
325.0707127732426
 31
0.0
  0
LINE
  5
2FE3
330
20EF
100
AcDbEntity
  8
AM_VIS
100
AcDbLine
 10
-1061.145534173791
 20
309.0707127732426
 30
0.0
 11
-1059.395534173791
 21
309.0707127732426
 31
0.0
  0
LINE
  5
2FE4
330
20EF
100
AcDbEntity
  8
AM_VIS
100
AcDbLine
 10
-1059.395534173791
 20
309.0707127732426
 30
0.0
 11
-1058.145534173791
 21
307.0707127732426
 31
0.0
  0
LINE
  5
2FE5
330
20EF
100
AcDbEntity
  8
AM_VIS
100
AcDbLine
 10
-1059.395534173791
 20
325.0707127732426
 30
0.0
 11
-1061.145534173791
 21
325.0707127732426
 31
0.0
  0
LINE
  5
2FE6
330
20EF
100
AcDbEntity
  8
AM_VIS
100
AcDbLine
 10
-1058.145534173791
 20
327.0707127732426
 30
0.0
 11
-1059.395534173791
 21
325.0707127732426
 31
0.0
  0
ELLIPSE
  5
2FE7
330
20EF
100
AcDbEntity
  8
AM_VIS
100
AcDbEllipse
 10
-1012.805571249522
 20
336.0707127732426
 30
0.0
 11
0.0256889013279165
 21
-0.9998901041079919
 31
0.0
210
0.0
220
0.0
230
1.0
 40
0.5770962660710928
 41
4.68272816961532
 42
4.697563468257271
  0
ELLIPSE
  5
2FE8
330
20EF
100
AcDbEntity
  8
AM_VIS
100
AcDbEllipse
 10
-1013.960398866315
 20
336.0707127732426
 30
0.0
 11
0.0
 21
-1.0
 31
0.0
210
0.0
220
0.0
230
1.0
 40
0.5773502691896279
 41
1.585631625436846
 42
3.141592653589793
  0
ARC
  5
2FE9
330
20EF
100
AcDbEntity
  8
AM_VIS
100
AcDbCircle
 10
-1060.145534173791
 20
336.0707127732426
 30
0.0
 40
1.0
100
AcDbArc
 50
90.0
 51
180.0
  0
ELLIPSE
  5
2FEA
330
20EF
100
AcDbEntity
  8
AM_VIS
100
AcDbEllipse
 10
-1056.48549709806
 20
336.0707127732426
 30
0.0
 11
0.0256889013279164
 21
0.9998901041079918
 31
0.0
210
0.0
220
0.0
230
1.0
 40
0.5770962660710918
 41
4.727214492512105
 42
4.742049791154056
  0
ELLIPSE
  5
2FEB
330
20EF
100
AcDbEntity
  8
AM_VIS
100
AcDbEllipse
 10
-1055.330669481267
 20
336.0707127732426
 30
0.0
 11
0.0
 21
-1.0
 31
0.0
210
0.0
220
0.0
230
1.0
 40
0.577350269189628
 41
3.141592653589793
 42
4.697553681742738
  0
ARC
  5
2FEC
330
20EF
100
AcDbEntity
  8
AM_VIS
100
AcDbCircle
 10
-1009.145534173791
 20
336.0707127732426
 30
0.0
 40
1.0
100
AcDbArc
 50
0.0
 51
90.0
  0
LINE
  5
2FED
330
20EF
100
AcDbEntity
  8
AM_VIS
100
AcDbLine
 10
-1008.145534173791
 20
296.5707127732425
 30
0.0
 11
-1008.244776608903
 21
296.5707127732425
 31
0.0
  0
LINE
  5
2FEE
330
20EF
100
AcDbEntity
  8
AM_VIS
100
AcDbLine
 10
-1012.706223944586
 20
296.5707127732425
 30
0.0
 11
-1013.382921518711
 21
336.0707127732426
 31
0.0
  0
LINE
  5
2FEF
330
20EF
100
AcDbEntity
  8
AM_VIS
100
AcDbLine
 10
-1008.145534173791
 20
327.0707127732426
 30
0.0
 11
-1011.145534173791
 21
327.0707127732426
 31
0.0
  0
LINE
  5
2FF0
330
20EF
100
AcDbEntity
  8
AM_VIS
100
AcDbLine
 10
-1011.145534173791
 20
307.0707127732426
 30
0.0
 11
-1011.145534173791
 21
327.0707127732426
 31
0.0
  0
LINE
  5
2FF1
330
20EF
100
AcDbEntity
  8
AM_VIS
100
AcDbLine
 10
-1008.145534173791
 20
307.0707127732426
 30
0.0
 11
-1011.145534173791
 21
307.0707127732426
 31
0.0
  0
LINE
  5
2FF2
330
20EF
100
AcDbEntity
  8
AM_VIS
100
AcDbLine
 10
-1008.145534173791
 20
336.0707127732426
 30
0.0
 11
-1008.145534173791
 21
333.6707127732426
 31
0.0
  0
LINE
  5
2FF3
330
20EF
100
AcDbEntity
  8
AM_VIS
100
AcDbLine
 10
-1010.245534173791
 20
333.2707127732425
 30
0.0
 11
-1008.145534173791
 21
333.6707127732425
 31
0.0
  0
LINE
  5
2FF4
330
20EF
100
AcDbEntity
  8
AM_VIS
100
AcDbLine
 10
-1010.245534173791
 20
329.8707127732425
 30
0.0
 11
-1010.245534173791
 21
333.2707127732425
 31
0.0
  0
LINE
  5
2FF5
330
20EF
100
AcDbEntity
  8
AM_VIS
100
AcDbLine
 10
-1008.145534173791
 20
329.4707127732426
 30
0.0
 11
-1010.245534173791
 21
329.8707127732425
 31
0.0
  0
LINE
  5
2FF6
330
20EF
100
AcDbEntity
  8
AM_VIS
100
AcDbLine
 10
-1008.145534173791
 20
285.5707127732426
 30
0.0
 11
-1008.145534173791
 21
296.5707127732425
 31
0.0
  0
LINE
  5
2FF7
330
20EF
100
AcDbEntity
  8
AM_VIS
100
AcDbLine
 10
-1008.145534173791
 20
300.4707127732426
 30
0.0
 11
-1008.145534173791
 21
296.5707127732425
 31
0.0
  0
LINE
  5
2FF8
330
20EF
100
AcDbEntity
  8
AM_VIS
100
AcDbLine
 10
-1010.245534173791
 20
300.8707127732425
 30
0.0
 11
-1010.245534173791
 21
304.2707127732426
 31
0.0
  0
LINE
  5
2FF9
330
20EF
100
AcDbEntity
  8
AM_VIS
100
AcDbLine
 10
-1008.145534173791
 20
300.4707127732426
 30
0.0
 11
-1010.245534173791
 21
300.8707127732425
 31
0.0
  0
LINE
  5
2FFA
330
20EF
100
AcDbEntity
  8
AM_VIS
100
AcDbLine
 10
-1010.245534173791
 20
304.2707127732425
 30
0.0
 11
-1008.145534173791
 21
304.6707127732425
 31
0.0
  0
LINE
  5
2FFB
330
20EF
100
AcDbEntity
  8
AM_VIS
100
AcDbLine
 10
-1061.145534173791
 20
307.0707127732426
 30
0.0
 11
-1058.145534173791
 21
307.0707127732426
 31
0.0
  0
LINE
  5
2FFC
330
20EF
100
AcDbEntity
  8
AM_VIS
100
AcDbLine
 10
-1058.145534173791
 20
307.0707127732426
 30
0.0
 11
-1058.145534173791
 21
327.0707127732426
 31
0.0
  0
LINE
  5
2FFD
330
20EF
100
AcDbEntity
  8
AM_VIS
100
AcDbLine
 10
-1061.145534173791
 20
327.0707127732426
 30
0.0
 11
-1058.145534173791
 21
327.0707127732426
 31
0.0
  0
LINE
  5
2FFE
330
20EF
100
AcDbEntity
  8
AM_VIS
100
AcDbLine
 10
-1059.045534173791
 20
329.8707127732425
 30
0.0
 11
-1061.145534173791
 21
329.4707127732426
 31
0.0
  0
LINE
  5
2FFF
330
20EF
100
AcDbEntity
  8
AM_VIS
100
AcDbLine
 10
-1059.045534173791
 20
333.2707127732425
 30
0.0
 11
-1059.045534173791
 21
329.8707127732425
 31
0.0
  0
LINE
  5
3000
330
20EF
100
AcDbEntity
  8
AM_VIS
100
AcDbLine
 10
-1061.145534173791
 20
333.6707127732426
 30
0.0
 11
-1059.045534173791
 21
333.2707127732425
 31
0.0
  0
LINE
  5
3001
330
20EF
100
AcDbEntity
  8
AM_VIS
100
AcDbLine
 10
-1061.145534173791
 20
333.6707127732426
 30
0.0
 11
-1061.145534173791
 21
336.0707127732426
 31
0.0
  0
LINE
  5
3002
330
20EF
100
AcDbEntity
  8
AM_VIS
100
AcDbLine
 10
-1055.908146828871
 20
336.0707127732426
 30
0.0
 11
-1056.584844402997
 21
296.5707127732425
 31
0.0
  0
LINE
  5
3003
330
20EF
100
AcDbEntity
  8
AM_VIS
100
AcDbLine
 10
-1061.046291738679
 20
296.5707127732425
 30
0.0
 11
-1061.145534173791
 21
296.5707127732425
 31
0.0
  0
LINE
  5
3004
330
20EF
100
AcDbEntity
  8
AM_VIS
100
AcDbLine
 10
-1061.145534173791
 20
327.0707127732426
 30
0.0
 11
-1061.145534173791
 21
329.4707127732426
 31
0.0
  0
LINE
  5
3005
330
20EF
100
AcDbEntity
  8
AM_VIS
100
AcDbLine
 10
-1061.145534173791
 20
325.0707127732426
 30
0.0
 11
-1061.145534173791
 21
327.0707127732426
 31
0.0
  0
LINE
  5
3006
330
20EF
100
AcDbEntity
  8
AM_VIS
100
AcDbLine
 10
-1061.145534173791
 20
309.0707127732426
 30
0.0
 11
-1061.145534173791
 21
325.0707127732426
 31
0.0
  0
LINE
  5
3007
330
20EF
100
AcDbEntity
  8
AM_VIS
100
AcDbLine
 10
-1061.145534173791
 20
307.0707127732426
 30
0.0
 11
-1061.145534173791
 21
309.0707127732426
 31
0.0
  0
LINE
  5
3008
330
20EF
100
AcDbEntity
  8
AM_VIS
100
AcDbLine
 10
-1061.145534173791
 20
304.6707127732426
 30
0.0
 11
-1061.145534173791
 21
307.0707127732426
 31
0.0
  0
LINE
  5
3009
330
20EF
100
AcDbEntity
  8
AM_VIS
100
AcDbLine
 10
-1059.045534173791
 20
300.8707127732425
 30
0.0
 11
-1061.145534173791
 21
300.4707127732426
 31
0.0
  0
LINE
  5
300A
330
20EF
100
AcDbEntity
  8
AM_VIS
100
AcDbLine
 10
-1059.045534173791
 20
304.2707127732426
 30
0.0
 11
-1059.045534173791
 21
300.8707127732425
 31
0.0
  0
LINE
  5
300B
330
20EF
100
AcDbEntity
  8
AM_VIS
100
AcDbLine
 10
-1061.145534173791
 20
304.6707127732426
 30
0.0
 11
-1059.045534173791
 21
304.2707127732426
 31
0.0
  0
LINE
  5
300C
330
20EF
100
AcDbEntity
  8
AM_VIS
100
AcDbLine
 10
-1008.145534173791
 20
307.0707127732426
 30
0.0
 11
-1008.145534173791
 21
304.6707127732426
 31
0.0
  0
LINE
  5
300D
330
20EF
100
AcDbEntity
  8
AM_VIS
100
AcDbLine
 10
-1008.145534173791
 20
309.0707127732426
 30
0.0
 11
-1008.145534173791
 21
307.0707127732426
 31
0.0
  0
LINE
  5
300E
330
20EF
100
AcDbEntity
  8
AM_VIS
100
AcDbLine
 10
-1008.145534173791
 20
309.0707127732426
 30
0.0
 11
-1008.145534173791
 21
325.0707127732426
 31
0.0
  0
LINE
  5
300F
330
20EF
100
AcDbEntity
  8
AM_VIS
100
AcDbLine
 10
-1008.145534173791
 20
327.0707127732426
 30
0.0
 11
-1008.145534173791
 21
325.0707127732426
 31
0.0
  0
LINE
  5
3010
330
20EF
100
AcDbEntity
  8
AM_VIS
100
AcDbLine
 10
-1008.145534173791
 20
329.4707127732426
 30
0.0
 11
-1008.145534173791
 21
327.0707127732426
 31
0.0
  0
SPLINE
  5
3011
330
20EF
100
AcDbEntity
  8
AM_VIS
100
AcDbSpline
210
-0.0000000000002036
220
0.0000000000002901
230
1.0
 70
    12
 71
     2
 72
     6
 73
     3
 74
     0
 42
0.0000000001
 43
0.0000000001
 40
0.0
 40
0.0
 40
0.0
 40
3.333802718682254
 40
3.333802718682254
 40
3.333802718682254
 10
-1022.866315184401
 20
285.5707127732426
 30
0.0
 41
1.0
 10
-1024.280636184816
 20
284.4659649758164
 30
0.0000000000000284
 41
1.001601757869553
 10
-1025.645534173791
 20
283.6218741930752
 30
0.0
 41
1.000819973128107
  0
LINE
  5
3012
330
20EF
100
AcDbEntity
  8
AM_VIS
100
AcDbLine
 10
-1008.145534173791
 20
285.5707127732426
 30
0.0
 11
-1008.145534173791
 21
283.6218741930753
 31
0.0
  0
LINE
  5
3013
330
20EF
100
AcDbEntity
  8
AM_VIS
100
AcDbLine
 10
-1025.645534173791
 20
285.0707127732426
 30
0.0
 11
-1025.645534173791
 21
283.6218741930753
 31
0.0
  0
LINE
  5
3014
330
20EF
100
AcDbEntity
  8
AM_VIS
100
AcDbLine
 10
-1025.645534173791
 20
283.6218741930753
 30
0.0
 11
-1025.645534173791
 21
283.0707127732426
 31
0.0
  0
LINE
  5
3015
330
20EF
100
AcDbEntity
  8
AM_VIS
100
AcDbLine
 10
-1043.645534173791
 20
283.6218741930753
 30
0.0
 11
-1043.645534173791
 21
285.0707127732426
 31
0.0
  0
SPLINE
  5
3016
330
20EF
100
AcDbEntity
  8
AM_VIS
100
AcDbSpline
210
-0.0000000000023849
220
-0.0000000000033987
230
-1.0
 70
    12
 71
     2
 72
     6
 73
     3
 74
     0
 42
0.0000000001
 43
0.0000000001
 40
1.146876347465926
 40
1.146876347465926
 40
1.146876347465926
 40
4.480679066148133
 40
4.480679066148133
 40
4.480679066148133
 10
-1043.64553417379
 20
283.6218741930752
 30
0.0000000000000284
 41
1.000819973128055
 10
-1045.010432162766
 20
284.4659649758164
 30
0.0000000000000284
 41
1.001601757869451
 10
-1046.424753163181
 20
285.5707127732426
 30
0.0
 41
1.0
  0
LINE
  5
3017
330
20EF
100
AcDbEntity
  8
AM_VIS
100
AcDbLine
 10
-1043.645534173791
 20
283.6218741930753
 30
0.0
 11
-1043.645534173791
 21
283.0707127732426
 31
0.0
  0
LINE
  5
3018
330
20EF
100
AcDbEntity
  8
AM_VIS
100
AcDbLine
 10
-1061.145534173791
 20
296.5707127732425
 30
0.0
 11
-1061.145534173791
 21
300.4707127732426
 31
0.0
  0
LINE
  5
3019
330
20EF
100
AcDbEntity
  8
AM_VIS
100
AcDbLine
 10
-1061.145534173791
 20
296.5707127732425
 30
0.0
 11
-1061.145534173791
 21
285.5707127732426
 31
0.0
  0
LINE
  5
301A
330
20EF
100
AcDbEntity
  8
AM_VIS
100
AcDbLine
 10
-1061.145534173791
 20
285.5707127732426
 30
0.0
 11
-1061.145534173791
 21
283.6218741930753
 31
0.0
  0
LINE
  5
301B
330
20EF
100
AcDbEntity
  8
AM_VIS
100
AcDbLine
 10
-1061.14555725935
 20
283.6218615076012
 30
0.0
 11
-1060.842694899214
 21
283.0706998725389
 31
0.0
  0
LINE
  5
301C
330
20EF
100
AcDbEntity
  8
AM_VIS
100
AcDbLine
 10
-1008.448373448369
 20
283.070699872539
 30
0.0
 11
-1008.145511088233
 21
283.6218615076013
 31
0.0
  0
LINE
  5
301D
330
20EF
100
AcDbEntity
  8
AM_VIS
100
AcDbLine
 10
-1043.645534173791
 20
285.0707127732426
 30
0.0
 11
-1025.645534173791
 21
285.0707127732426
 31
0.0
  0
LINE
  5
301E
330
20EF
100
AcDbEntity
  8
AM_VIS
100
AcDbLine
 10
-1055.330669481267
 20
337.0707127732426
 30
0.0
 11
-1060.145534173791
 21
337.0707127732426
 31
0.0
  0
LINE
  5
301F
330
20EF
100
AcDbEntity
  8
AM_VIS
100
AcDbLine
 10
-1009.145534173791
 20
337.0707127732426
 30
0.0
 11
-1013.960398866315
 21
337.0707127732426
 31
0.0
  0
LINE
  5
3020
330
20EF
100
AcDbEntity
  8
AM_VIS
100
AcDbLine
 10
-1013.960398866315
 20
337.0707127732426
 30
0.0
 11
-1018.529749723126
 21
337.0707127732426
 31
0.0
  0
LINE
  5
3021
330
20EF
100
AcDbEntity
  8
AM_VIS
100
AcDbLine
 10
-1026.32312067228
 20
337.0707127732426
 30
0.0
 11
-1018.529749723126
 21
337.0707127732426
 31
0.0
  0
LINE
  5
3022
330
20EF
100
AcDbEntity
  8
AM_VIS
100
AcDbLine
 10
-1026.32312067228
 20
337.0707127732426
 30
0.0
 11
-1042.967947675302
 21
337.0707127732426
 31
0.0
  0
LINE
  5
3023
330
20EF
100
AcDbEntity
  8
AM_VIS
100
AcDbLine
 10
-1050.761318624457
 20
337.0707127732426
 30
0.0
 11
-1042.967947675302
 21
337.0707127732426
 31
0.0
  0
LINE
  5
3024
330
20EF
100
AcDbEntity
  8
AM_VIS
100
AcDbLine
 10
-1050.761318624457
 20
337.0707127732426
 30
0.0
 11
-1055.330669481267
 21
337.0707127732426
 31
0.0
  0
LINE
  5
3025
330
20EF
100
AcDbEntity
  8
AM_VIS
100
AcDbLine
 10
-1022.866315184401
 20
296.5707127732425
 30
0.0
 11
-1008.244776608903
 21
296.5707127732425
 31
0.0
  0
LINE
  5
3026
330
20EF
100
AcDbEntity
  8
AM_VIS
100
AcDbLine
 10
-1061.046291738679
 20
296.5707127732425
 30
0.0
 11
-1046.424753163181
 21
296.5707127732425
 31
0.0
  0
LINE
  5
3027
330
20EF
100
AcDbEntity
  8
AM_VIS
100
AcDbLine
 10
-1022.866315184401
 20
285.5707127732426
 30
0.0
 11
-1008.145534173791
 21
285.5707127732426
 31
0.0
  0
LINE
  5
3028
330
20EF
100
AcDbEntity
  8
AM_VIS
100
AcDbLine
 10
-1061.145534173791
 20
285.5707127732426
 30
0.0
 11
-1046.424753163181
 21
285.5707127732426
 31
0.0
  0
LINE
  5
3029
330
20EF
100
AcDbEntity
  8
AM_VIS
100
AcDbLine
 10
-1043.645534173791
 20
283.0707127732426
 30
0.0
 11
-1060.842671421972
 21
283.0707127732426
 31
0.0
  0
LINE
  5
302A
330
20EF
100
AcDbEntity
  8
AM_VIS
100
AcDbLine
 10
-1008.448396925611
 20
283.0707127732426
 30
0.0
 11
-1025.645534173791
 21
283.0707127732426
 31
0.0
  0
LINE
  5
302B
330
20EF
100
AcDbEntity
  8
AM_VIS
100
AcDbLine
 10
-1024.645534173791
 20
192.0707127732426
 30
0.0
 11
-1024.512200840458
 21
193.0707127732425
 31
0.0
  0
LINE
  5
302C
330
20EF
100
AcDbEntity
  8
AM_VIS
100
AcDbLine
 10
-1044.645534173791
 20
192.0707127732426
 30
0.0
 11
-1044.778867507124
 21
193.0707127732425
 31
0.0
  0
LINE
  5
302D
330
20EF
100
AcDbEntity
  8
AM_VIS
100
AcDbLine
 10
-1028.03115589613
 20
192.0707127732426
 30
0.0
 11
-1041.259912451452
 21
192.0707127732426
 31
0.0
  0
LINE
  5
3030
330
20EF
100
AcDbEntity
  8
AM_VIS
100
AcDbLine
 10
-1024.645534173791
 20
192.0707127732427
 30
0.0
 11
-1028.03115589613
 21
192.0707127732427
 31
0.0
  0
LINE
  5
3031
330
20EF
100
AcDbEntity
  8
AM_VIS
100
AcDbLine
 10
-1041.259912451452
 20
192.0707127732426
 30
0.0
 11
-1044.645534173791
 21
192.0707127732426
 31
0.0
  0
LINE
  5
304B
330
20EF
100
AcDbEntity
  8
AM_VIS
100
AcDbLine
 10
-1041.422012319379
 20
197.6345607343385
 30
0.0
 11
-1040.673223814265
 21
193.5041086563647
 31
0.0
  0
LINE
  5
304C
330
20EF
100
AcDbEntity
  8
AM_VIS
100
AcDbLine
 10
-1028.617844533356
 20
193.5041086563708
 30
0.0
 11
-1027.869056028351
 21
197.6345607308628
 31
0.0
  0
LINE
  5
304D
330
20EF
100
AcDbEntity
  8
AM_VIS
100
AcDbLine
 10
-1023.747233345462
 20
193.5020974688349
 30
0.0
 11
-1022.481997297276
 21
197.6326507161451
 31
0.0
  0
LINE
  5
304E
330
20EF
100
AcDbEntity
  8
AM_VIS
100
AcDbLine
 10
-1019.461875986751
 20
193.5054347098073
 30
0.0
 11
-1015.295307812142
 21
197.6358004510031
 31
0.0
  0
ARC
  5
304F
330
20EF
100
AcDbEntity
  8
AM_VIS
100
AcDbCircle
 10
-1016.351329821348
 20
198.7010784857712
 30
0.0
 40
1.499999923256975
100
AcDbArc
 50
314.749998956187
 51
359.5000011074674
  0
ARC
  5
3050
330
20EF
100
AcDbEntity
  8
AM_VIS
100
AcDbCircle
 10
-1026.37007046271
 20
198.6382919543755
 30
0.0
 40
4.005277429982398
100
AcDbArc
 50
345.5051697012423
 51
0.7109339102318508
  0
ARC
  5
3051
330
20EF
100
AcDbEntity
  8
AM_VIS
100
AcDbCircle
 10
-1034.473576968039
 20
198.6348259141981
 30
0.0
 40
6.672890315229976
100
AcDbArc
 50
351.3896440763305
 51
0.4564792813737541
  0
ARC
  5
3052
330
20EF
100
AcDbEntity
  8
AM_VIS
100
AcDbCircle
 10
-1034.817491379618
 20
198.6348259141922
 30
0.0
 40
6.672890315155351
100
AcDbArc
 50
179.5435207185701
 51
188.610355923713
  0
ARC
  5
3053
330
20EF
100
AcDbEntity
  8
AM_VIS
100
AcDbCircle
 10
-1042.920997884694
 20
198.6382919543972
 30
0.0
 40
4.005277430160669
100
AcDbArc
 50
179.2890660901076
 51
194.4948302984163
  0
ARC
  5
3054
330
20EF
100
AcDbEntity
  8
AM_VIS
100
AcDbCircle
 10
-1052.939738391502
 20
198.701078542615
 30
0.0
 40
1.500000058479726
100
AcDbArc
 50
180.5000010188101
 51
225.2499989175371
  0
LINE
  5
3055
330
20EF
100
AcDbEntity
  8
AM_VIS
100
AcDbLine
 10
-1027.800747582492
 20
198.6879884927946
 30
0.0
 11
-1027.689657135489
 21
285.0707125590865
 31
0.0
  0
LINE
  5
3056
330
20EF
100
AcDbEntity
  8
AM_VIS
100
AcDbLine
 10
-1026.895534173791
 20
284.5707127732426
 30
0.0
 11
-1026.895534173791
 21
285.0707127732426
 31
0.0
  0
LINE
  5
3057
330
20EF
100
AcDbEntity
  8
AM_VIS
100
AcDbLine
 10
-1022.364871710721
 20
198.6879881452566
 30
0.0
 11
-1022.181244133095
 21
283.0707122187961
 31
0.0
  0
LINE
  5
3058
330
20EF
100
AcDbEntity
  8
AM_VIS
100
AcDbLine
 10
-1014.851387013228
 20
198.6879887121856
 30
0.0
 11
-1014.202258814431
 21
283.0707127732426
 31
0.0
  0
LINE
  5
3059
330
20EF
100
AcDbEntity
  8
AM_VIS
100
AcDbLine
 10
-1055.08880953315
 20
283.0707127732426
 30
0.0
 11
-1054.439681334354
 21
198.6879887121857
 31
0.0
  0
LINE
  5
305A
330
20EF
100
AcDbEntity
  8
AM_VIS
100
AcDbLine
 10
-1041.601411212093
 20
285.0707125590865
 30
0.0
 11
-1041.490320765088
 21
198.6879884927946
 31
0.0
  0
LINE
  5
305B
330
20EF
100
AcDbEntity
  8
AM_VIS
100
AcDbLine
 10
-1047.109824214486
 20
283.0707122187961
 30
0.0
 11
-1046.926196636859
 21
198.6879881452568
 31
0.0
  0
LINE
  5
305C
330
20EF
100
AcDbEntity
  8
AM_VIS
100
AcDbLine
 10
-1042.395534173791
 20
285.0707127732426
 30
0.0
 11
-1042.395534173791
 21
284.5707127732426
 31
0.0
  0
LINE
  5
305D
330
20EF
100
AcDbEntity
  8
AM_VIS
100
AcDbLine
 10
-1025.645534173791
 20
284.5707127732426
 30
0.0
 11
-1026.895534173791
 21
284.5707127732426
 31
0.0
  0
LINE
  5
305E
330
20EF
100
AcDbEntity
  8
AM_VIS
100
AcDbLine
 10
-1042.395534173791
 20
284.5707127732426
 30
0.0
 11
-1043.645534173791
 21
284.5707127732426
 31
0.0
  0
LINE
  5
305F
330
20EF
100
AcDbEntity
  8
AM_VIS
100
AcDbLine
 10
-1014.16423310499
 20
209.5707125114402
 30
0.0
 11
-1013.805081958207
 21
259.5707125181788
 31
0.0
  0
ARC
  5
3060
330
20EF
100
AcDbEntity
  8
AM_VIS
100
AcDbCircle
 10
-1077.798776240793
 20
259.2771389785893
 30
0.0
 40
22.31474947705552
100
AcDbArc
 50
0.7538074619635148
 51
13.72270256236227
  0
LINE
  5
3061
330
20EF
100
AcDbEntity
  8
AM_VIS
100
AcDbLine
 10
-1029.645534173791
 20
259.5707127732426
 30
0.0
 11
-1029.645534173791
 21
209.5707127732426
 31
0.0
  0
ARC
  5
3062
330
20EF
100
AcDbEntity
  8
AM_VIS
100
AcDbCircle
 10
-1034.645534173791
 20
209.5707127732426
 30
0.0
 40
5.0
100
AcDbArc
 50
180.0
 51
0.0
  0
LINE
  5
3063
330
20EF
100
AcDbEntity
  8
AM_VIS
100
AcDbLine
 10
-1055.485986389375
 20
259.5707125181789
 30
0.0
 11
-1055.126835242591
 21
209.5707125114403
 31
0.0
  0
ARC
  5
3064
330
20EF
100
AcDbEntity
  8
AM_VIS
100
AcDbCircle
 10
-991.4922921067898
 20
259.2771389785887
 30
0.0
 40
22.31474947705495
100
AcDbArc
 50
166.2772974376369
 51
179.2461925380356
  0
ARC
  5
3065
330
20EF
100
AcDbEntity
  8
AM_VIS
100
AcDbCircle
 10
-1076.797250647059
 20
209.4573533947096
 30
0.0
 40
21.67074105514401
100
AcDbArc
 50
346.9680208599366
 51
0.2997148811281027
  0
ARC
  5
3066
330
20EF
100
AcDbEntity
  8
AM_VIS
100
AcDbCircle
 10
-992.493817700514
 20
209.4573533947099
 30
0.0
 40
21.67074105515306
100
AcDbArc
 50
179.7002851188735
 51
193.0319791400585
  0
LINE
  5
3067
330
20EF
100
AcDbEntity
  8
AM_VIS
100
AcDbLine
 10
-1039.645534173791
 20
259.5707127732426
 30
0.0
 11
-1039.645534173791
 21
209.5707127732426
 31
0.0
  0
ARC
  5
3068
330
20EF
100
AcDbEntity
  8
AM_VIS
100
AcDbCircle
 10
-1034.645534173791
 20
259.5707127732426
 30
0.0
 40
5.0
100
AcDbArc
 50
0.0
 51
180.0
  0
LINE
  5
3069
330
20EF
100
AcDbEntity
  8
AM_VIS
100
AcDbLine
 10
-1046.809071049715
 20
197.6326507095116
 30
0.0
 11
-1045.543835002008
 21
193.5020974688653
 31
0.0
  0
LINE
  5
306A
330
20EF
100
AcDbEntity
  8
AM_VIS
100
AcDbLine
 10
-1053.99576053958
 20
197.63580045772
 30
0.0
 11
-1049.82919236095
 21
193.5054347096884
 31
0.0
  0
ARC
  5
306B
330
20EF
100
AcDbEntity
  8
AM_VIS
100
AcDbCircle
 10
-1020.517898050671
 20
194.5707127179448
 30
0.0
 40
1.49999994470231
100
AcDbArc
 50
269.9999991462263
 51
314.7500008852533
  0
SPLINE
  5
306C
330
20EF
100
AcDbEntity
  8
AM_VIS
100
AcDbSpline
210
0.0
220
0.0
230
1.0
 70
     8
 71
     3
 72
    12
 73
     8
 74
     0
 42
0.0000000001
 43
0.0000000001
 40
-1.223984536090348
 40
-1.223984536090348
 40
-1.223984536090348
 40
-1.223984536090348
 40
-1.221752649813002
 40
-1.221752649813002
 40
-0.6063716823398849
 40
-0.6063716823398849
 40
0.0
 40
0.0
 40
0.0
 40
0.0
 10
-1024.103074655135
 20
193.0707127732425
 30
0.0
 10
-1024.102839996555
 20
193.0707127732425
 30
0.0
 10
-1024.102605345015
 20
193.0707132728406
 30
0.0
 10
-1024.037674030729
 20
193.0709897754126
 30
0.0
 10
-1023.973950277549
 20
193.1092448640672
 30
0.0
 10
-1023.856313405457
 20
193.2581694091765
 30
0.0
 10
-1023.803116584641
 20
193.3667060759308
 30
0.0
 10
-1023.758128270212
 20
193.5054347098075
 30
0.0
  0
LINE
  5
306D
330
20EF
100
AcDbEntity
  8
AM_VIS
100
AcDbLine
 10
-1028.830376133736
 20
193.0707127732425
 30
0.0
 11
-1024.103074655136
 21
193.0707127732424
 31
0.0
  0
SPLINE
  5
306E
330
20EF
100
AcDbEntity
  8
AM_VIS
100
AcDbSpline
210
0.0
220
0.0
230
1.0
 70
     8
 71
     3
 72
    12
 73
     8
 74
     0
 42
0.0000000001
 43
0.0000000001
 40
0.0
 40
0.0
 40
0.0
 40
0.0
 40
0.5930711260102758
 40
0.5930711260102758
 40
1.190594073882564
 40
1.190594073882564
 40
1.192755197791194
 40
1.192755197791194
 40
1.192755197791194
 40
1.192755197791194
 10
-1028.625159282624
 20
193.5054347098075
 30
0.0
 10
-1028.651734185712
 20
193.3675210122164
 30
0.0
 10
-1028.683299264559
 20
193.2586576122119
 30
0.0
 10
-1028.753366720542
 20
193.1094729484389
 30
0.0
 10
-1028.791303713615
 20
193.0709906559201
 30
0.0
 10
-1028.830096518169
 20
193.0707132730529
 30
0.0
 10
-1028.830236323525
 20
193.0707127732425
 30
0.0
 10
-1028.830376133736
 20
193.0707127732425
 30
0.0
  0
SPLINE
  5
306F
330
20EF
100
AcDbEntity
  8
AM_VIS
100
AcDbSpline
210
0.0
220
0.0
230
1.0
 70
     8
 71
     3
 72
    12
 73
     8
 74
     0
 42
0.0000000001
 43
0.0000000001
 40
-1.191072920087334
 40
-1.191072920087334
 40
-1.191072920087334
 40
-1.191072920087334
 40
-0.5977632662150666
 40
-0.5977632662150666
 40
0.0
 40
0.0
 40
0.0021619930932113
 40
0.0021619930932113
 40
0.0021619930932113
 40
0.0021619930932113
 10
-1040.665909064958
 20
193.5054347098077
 30
0.0
 10
-1040.63933416187
 20
193.3675210122165
 30
0.0
 10
-1040.607769083023
 20
193.2586576122119
 30
0.0
 10
-1040.53770162704
 20
193.1094729484392
 30
0.0
 10
-1040.499764633967
 20
193.0709906559201
 30
0.0
 10
-1040.460971829413
 20
193.0707132730529
 30
0.0
 10
-1040.460832024057
 20
193.0707127732425
 30
0.0
 10
-1040.460692213846
 20
193.0707127732425
 30
0.0
  0
LINE
  5
3070
330
20EF
100
AcDbEntity
  8
AM_VIS
100
AcDbLine
 10
-1045.187993692447
 20
193.0707127732425
 30
0.0
 11
-1040.460692213846
 21
193.0707127732425
 31
0.0
  0
ARC
  5
3071
330
20EF
100
AcDbEntity
  8
AM_VIS
100
AcDbCircle
 10
-1048.773170296912
 20
194.570712717944
 30
0.0
 40
1.499999944701414
100
AcDbArc
 50
225.2499991304714
 51
270.0000008695239
  0
SPLINE
  5
3072
330
20EF
100
AcDbEntity
  8
AM_VIS
100
AcDbSpline
210
0.0
220
0.0
230
1.0
 70
     8
 71
     3
 72
    12
 73
     8
 74
     0
 42
0.0000000001
 43
0.0000000001
 40
-0.0022342702688356
 40
-0.0022342702688356
 40
-0.0022342702688356
 40
-0.0022342702688356
 40
0.0
 40
0.0
 40
0.6160382872722267
 40
0.6160382872722267
 40
1.223057666124346
 40
1.223057666124346
 40
1.223057666124346
 40
1.223057666124346
 10
-1045.187993692447
 20
193.0707127732425
 30
0.0
 10
-1045.188228351026
 20
193.0707127732425
 30
0.0
 10
-1045.188463002567
 20
193.0707132728407
 30
0.0
 10
-1045.253394316848
 20
193.0709897754127
 30
0.0
 10
-1045.317118070032
 20
193.1092448640661
 30
0.0
 10
-1045.434754942125
 20
193.2581694091766
 30
0.0
 10
-1045.487951762941
 20
193.3667060759309
 30
0.0
 10
-1045.53294007737
 20
193.5054347098077
 30
0.0
  0
LINE
  5
3073
330
20EF
100
AcDbEntity
  8
AM_VIS
100
AcDbLine
 10
-1018.311875986751
 20
193.5054347098075
 30
0.0
 11
-1014.145307811141
 21
197.6358004519982
 31
0.0
  0
LINE
  5
3074
330
20EF
100
AcDbEntity
  8
AM_VIS
100
AcDbLine
 10
-1013.170071529606
 20
264.5707127732425
 30
0.0
 11
-1013.052258814431
 21
283.0707127732426
 31
0.0
  0
LINE
  5
3075
330
20EF
100
AcDbEntity
  8
AM_VIS
100
AcDbLine
 10
-1013.701387013228
 20
198.6879887121856
 30
0.0
 11
-1013.606414919144
 21
204.5707127732423
 31
0.0
  0
LINE
  5
3076
330
20EF
100
AcDbEntity
  8
AM_VIS
100
AcDbLine
 10
-1056.120996817976
 20
264.5707127732427
 30
0.0
 11
-1056.238809533151
 21
283.0707127732426
 31
0.0
  0
LINE
  5
3077
330
20EF
100
AcDbEntity
  8
AM_VIS
100
AcDbLine
 10
-1055.589681334354
 20
198.6879887121858
 30
0.0
 11
-1055.684653428438
 21
204.5707127732426
 31
0.0
  0
LINE
  5
3078
330
20EF
100
AcDbEntity
  8
AM_VIS
100
AcDbLine
 10
-1050.979192360832
 20
193.5054347098078
 30
0.0
 11
-1055.145760536442
 21
197.6358004519984
 31
0.0
  0
LINE
  5
3079
330
20EF
100
AcDbEntity
  8
AM_VIS
100
AcDbLine
 10
-1019.367898073435
 20
193.0707127732424
 30
0.0
 11
-1020.517898073435
 21
193.0707127732424
 31
0.0
  0
LINE
  5
307A
330
20EF
100
AcDbEntity
  8
AM_VIS
100
AcDbLine
 10
-1020.517898073435
 20
193.0707127732424
 30
0.0
 11
-1024.103074655136
 21
193.0707127732424
 31
0.0
  0
LINE
  5
307B
330
20EF
100
AcDbEntity
  8
AM_VIS
100
AcDbLine
 10
-1028.830376133736
 20
193.0707127732425
 30
0.0
 11
-1040.460692213846
 21
193.0707127732425
 31
0.0
  0
LINE
  5
307C
330
20EF
100
AcDbEntity
  8
AM_VIS
100
AcDbLine
 10
-1045.187993692447
 20
193.0707127732425
 30
0.0
 11
-1048.773170274147
 21
193.0707127732425
 31
0.0
  0
LINE
  5
307D
330
20EF
100
AcDbEntity
  8
AM_VIS
100
AcDbLine
 10
-1048.773170274147
 20
193.0707127732425
 30
0.0
 11
-1049.923170274147
 21
193.0707127732425
 31
0.0
  0
ARC
  5
307E
330
20EF
100
AcDbEntity
  8
AM_VIS
100
AcDbCircle
 10
-1015.201329897824
 20
198.7010785154332
 30
0.0
 40
1.5
100
AcDbArc
 50
314.7499999999951
 51
359.5000000000003
  0
ARC
  5
307F
330
20EF
100
AcDbEntity
  8
AM_VIS
100
AcDbCircle
 10
-1054.089738449758
 20
198.7010785154333
 30
0.0
 40
1.5
100
AcDbArc
 50
180.4999999999981
 51
225.2500000000043
  0
ARC
  5
3080
330
20EF
100
AcDbEntity
  8
AM_VIS
100
AcDbCircle
 10
-1019.367898073435
 20
194.5707127732424
 30
0.0
 40
1.5
100
AcDbArc
 50
270.0
 51
314.7500000000078
  0
ARC
  5
3081
330
20EF
100
AcDbEntity
  8
AM_VIS
100
AcDbCircle
 10
-1049.923170274147
 20
194.5707127732426
 30
0.0
 40
1.5
100
AcDbArc
 50
225.2499999999922
 51
270.0
  0
LINE
  5
3082
330
20EF
100
AcDbEntity
  8
AM_VIS
100
AcDbLine
 10
-929.2393669199618
 20
285.5707127732426
 30
0.0
 11
-929.2393669199618
 21
296.5707127732425
 31
0.0
  0
LINE
  5
3083
330
20EF
100
AcDbEntity
  8
AM_VIS
100
AcDbLine
 10
-982.2393669199618
 20
296.5707127732425
 30
0.0
 11
-982.2393669199618
 21
285.5707127732426
 31
0.0
  0
LINE
  5
3084
330
20EF
100
AcDbEntity
  8
AM_VIS
100
AcDbLine
 10
-930.7393669199619
 20
296.5707127732425
 30
0.0
 11
-931.3256243039941
 21
336.0855475277167
 31
0.0
  0
LINE
  5
3085
330
20EF
100
AcDbEntity
  8
AM_VIS
100
AcDbLine
 10
-980.1531095359301
 20
336.0855475277167
 30
0.0
 11
-980.7393669199619
 21
296.5707127732425
 31
0.0
  0
ARC
  5
3086
330
20EF
100
AcDbEntity
  8
AM_VIS
100
AcDbCircle
 10
-966.739366919962
 20
336.0707127732426
 30
0.0
 40
1.0
100
AcDbArc
 50
90.0
 51
180.0
  0
ARC
  5
3087
330
20EF
100
AcDbEntity
  8
AM_VIS
100
AcDbCircle
 10
-944.7393669199618
 20
336.0707127732426
 30
0.0
 40
1.0
100
AcDbArc
 50
0.0
 51
90.0
  0
LINE
  5
3088
330
20EF
100
AcDbEntity
  8
AM_VIS
100
AcDbLine
 10
-967.7393669199618
 20
336.0707127732426
 30
0.0
 11
-967.7393669199618
 21
333.6707127732426
 31
0.0
  0
LINE
  5
3089
330
20EF
100
AcDbEntity
  8
AM_VIS
100
AcDbLine
 10
-967.7393669199618
 20
333.2707127732425
 30
0.0
 11
-967.7393669199618
 21
333.6707127732425
 31
0.0
  0
LINE
  5
308A
330
20EF
100
AcDbEntity
  8
AM_VIS
100
AcDbLine
 10
-967.7393669199618
 20
333.6707127732426
 30
0.0
 11
-943.7393669199618
 21
333.6707127732426
 31
0.0
  0
LINE
  5
308B
330
20EF
100
AcDbEntity
  8
AM_VIS
100
AcDbLine
 10
-967.7393669199618
 20
329.8707127732425
 30
0.0
 11
-967.7393669199618
 21
333.2707127732425
 31
0.0
  0
LINE
  5
308C
330
20EF
100
AcDbEntity
  8
AM_VIS
100
AcDbLine
 10
-943.7393669199618
 20
333.2707127732425
 30
0.0
 11
-967.7393669199618
 21
333.2707127732425
 31
0.0
  0
LINE
  5
308D
330
20EF
100
AcDbEntity
  8
AM_VIS
100
AcDbLine
 10
-967.7393669199618
 20
329.4707127732426
 30
0.0
 11
-967.7393669199618
 21
329.8707127732425
 31
0.0
  0
LINE
  5
308E
330
20EF
100
AcDbEntity
  8
AM_VIS
100
AcDbLine
 10
-943.7393669199618
 20
329.8707127732425
 30
0.0
 11
-967.7393669199618
 21
329.8707127732425
 31
0.0
  0
LINE
  5
308F
330
20EF
100
AcDbEntity
  8
AM_VIS
100
AcDbLine
 10
-943.7393669199618
 20
329.8707127732425
 30
0.0
 11
-943.7393669199618
 21
329.4707127732426
 31
0.0
  0
LINE
  5
3090
330
20EF
100
AcDbEntity
  8
AM_VIS
100
AcDbLine
 10
-943.7393669199618
 20
333.2707127732425
 30
0.0
 11
-943.7393669199618
 21
329.8707127732425
 31
0.0
  0
LINE
  5
3091
330
20EF
100
AcDbEntity
  8
AM_VIS
100
AcDbLine
 10
-943.7393669199618
 20
333.6707127732425
 30
0.0
 11
-943.7393669199618
 21
333.2707127732425
 31
0.0
  0
LINE
  5
3092
330
20EF
100
AcDbEntity
  8
AM_VIS
100
AcDbLine
 10
-943.7393669199618
 20
333.6707127732426
 30
0.0
 11
-943.7393669199618
 21
336.0707127732426
 31
0.0
  0
LINE
  5
3093
330
20EF
100
AcDbEntity
  8
AM_VIS
100
AcDbLine
 10
-967.5185859093517
 20
285.5707127732426
 30
0.0
 11
-967.5185859093517
 21
296.5707127732425
 31
0.0
  0
LINE
  5
3094
330
20EF
100
AcDbEntity
  8
AM_VIS
100
AcDbLine
 10
-967.5185859093517
 20
296.5707127732425
 30
0.0
 11
-967.739366919962
 21
296.5707127732425
 31
0.0
  0
LINE
  5
3095
330
20EF
100
AcDbEntity
  8
AM_VIS
100
AcDbLine
 10
-967.7393669199618
 20
300.4707127732426
 30
0.0
 11
-967.7393669199618
 21
296.5707127732425
 31
0.0
  0
LINE
  5
3096
330
20EF
100
AcDbEntity
  8
AM_VIS
100
AcDbLine
 10
-943.7393669199618
 20
296.5707127732425
 30
0.0
 11
-943.7393669199618
 21
300.4707127732426
 31
0.0
  0
LINE
  5
3097
330
20EF
100
AcDbEntity
  8
AM_VIS
100
AcDbLine
 10
-943.7393669199618
 20
296.5707127732425
 30
0.0
 11
-943.9601479305721
 21
296.5707127732425
 31
0.0
  0
LINE
  5
3098
330
20EF
100
AcDbEntity
  8
AM_VIS
100
AcDbLine
 10
-943.9601479305721
 20
296.5707127732425
 30
0.0
 11
-943.9601479305721
 21
285.5707127732426
 31
0.0
  0
LINE
  5
3099
330
20EF
100
AcDbEntity
  8
AM_VIS
100
AcDbLine
 10
-943.7393669199618
 20
304.2707127732425
 30
0.0
 11
-943.7393669199618
 21
300.8707127732425
 31
0.0
  0
LINE
  5
309A
330
20EF
100
AcDbEntity
  8
AM_VIS
100
AcDbLine
 10
-967.7393669199618
 20
300.8707127732425
 30
0.0
 11
-967.7393669199618
 21
304.2707127732426
 31
0.0
  0
LINE
  5
309B
330
20EF
100
AcDbEntity
  8
AM_VIS
100
AcDbLine
 10
-943.7393669199618
 20
300.8707127732425
 30
0.0
 11
-967.7393669199618
 21
300.8707127732425
 31
0.0
  0
LINE
  5
309C
330
20EF
100
AcDbEntity
  8
AM_VIS
100
AcDbLine
 10
-943.7393669199618
 20
300.8707127732425
 30
0.0
 11
-943.7393669199618
 21
300.4707127732426
 31
0.0
  0
LINE
  5
309D
330
20EF
100
AcDbEntity
  8
AM_VIS
100
AcDbLine
 10
-943.7393669199618
 20
300.4707127732426
 30
0.0
 11
-967.7393669199618
 21
300.4707127732426
 31
0.0
  0
LINE
  5
309E
330
20EF
100
AcDbEntity
  8
AM_VIS
100
AcDbLine
 10
-967.7393669199618
 20
300.4707127732426
 30
0.0
 11
-967.7393669199618
 21
300.8707127732425
 31
0.0
  0
LINE
  5
309F
330
20EF
100
AcDbEntity
  8
AM_VIS
100
AcDbLine
 10
-943.7393669199618
 20
304.6707127732425
 30
0.0
 11
-943.7393669199618
 21
304.2707127732425
 31
0.0
  0
LINE
  5
30A0
330
20EF
100
AcDbEntity
  8
AM_VIS
100
AcDbLine
 10
-943.7393669199618
 20
304.2707127732425
 30
0.0
 11
-967.7393669199618
 21
304.2707127732425
 31
0.0
  0
LINE
  5
30A1
330
20EF
100
AcDbEntity
  8
AM_VIS
100
AcDbLine
 10
-967.7393669199618
 20
304.2707127732425
 30
0.0
 11
-967.7393669199618
 21
304.6707127732425
 31
0.0
  0
LINE
  5
30A2
330
20EF
100
AcDbEntity
  8
AM_VIS
100
AcDbLine
 10
-967.7393669199618
 20
307.0707127732426
 30
0.0
 11
-967.7393669199618
 21
304.6707127732426
 31
0.0
  0
LINE
  5
30A3
330
20EF
100
AcDbEntity
  8
AM_VIS
100
AcDbLine
 10
-970.7393669199621
 20
309.0707127732426
 30
0.0
 11
-967.739366919962
 21
307.0707127732426
 31
0.0
  0
LINE
  5
30A4
330
20EF
100
AcDbEntity
  8
AM_VIS
100
AcDbLine
 10
-970.7393669199618
 20
309.0707127732426
 30
0.0
 11
-970.7393669199618
 21
325.0707127732426
 31
0.0
  0
LINE
  5
30A5
330
20EF
100
AcDbEntity
  8
AM_VIS
100
AcDbLine
 10
-967.739366919962
 20
327.0707127732426
 30
0.0
 11
-970.7393669199621
 21
325.0707127732426
 31
0.0
  0
LINE
  5
30A6
330
20EF
100
AcDbEntity
  8
AM_VIS
100
AcDbLine
 10
-967.7393669199618
 20
329.4707127732426
 30
0.0
 11
-967.7393669199618
 21
327.0707127732426
 31
0.0
  0
LINE
  5
30A7
330
20EF
100
AcDbEntity
  8
AM_VIS
100
AcDbLine
 10
-943.7393669199618
 20
329.4707127732426
 30
0.0
 11
-967.7393669199618
 21
329.4707127732426
 31
0.0
  0
LINE
  5
30A8
330
20EF
100
AcDbEntity
  8
AM_VIS
100
AcDbLine
 10
-943.7393669199618
 20
327.0707127732426
 30
0.0
 11
-943.7393669199618
 21
329.4707127732426
 31
0.0
  0
LINE
  5
30A9
330
20EF
100
AcDbEntity
  8
AM_VIS
100
AcDbLine
 10
-940.7393669199619
 20
325.0707127732426
 30
0.0
 11
-943.7393669199618
 21
327.0707127732426
 31
0.0
  0
LINE
  5
30AA
330
20EF
100
AcDbEntity
  8
AM_VIS
100
AcDbLine
 10
-940.7393669199619
 20
309.0707127732426
 30
0.0
 11
-940.7393669199619
 21
325.0707127732426
 31
0.0
  0
LINE
  5
30AB
330
20EF
100
AcDbEntity
  8
AM_VIS
100
AcDbLine
 10
-943.7393669199618
 20
307.0707127732426
 30
0.0
 11
-940.7393669199619
 21
309.0707127732426
 31
0.0
  0
LINE
  5
30AC
330
20EF
100
AcDbEntity
  8
AM_VIS
100
AcDbLine
 10
-943.7393669199618
 20
304.6707127732426
 30
0.0
 11
-943.7393669199618
 21
307.0707127732426
 31
0.0
  0
LINE
  5
30AD
330
20EF
100
AcDbEntity
  8
AM_VIS
100
AcDbLine
 10
-967.7393669199618
 20
304.6707127732425
 30
0.0
 11
-943.7393669199618
 21
304.6707127732425
 31
0.0
  0
SPLINE
  5
30AF
330
20EF
100
AcDbEntity
  8
AM_VIS
100
AcDbSpline
210
0.0
220
0.0
230
1.0
 70
    12
 71
     2
 72
     6
 73
     3
 74
     0
 42
0.0000000001
 43
0.0000000001
 40
0.0
 40
0.0
 40
0.0
 40
3.333802718682296
 40
3.333802718682296
 40
3.333802718682296
 10
-943.9601479305721
 20
285.5707127732426
 30
0.0
 41
1.0
 10
-945.3744689309878
 20
284.4659649758165
 30
0.0
 41
1.001601757869639
 10
-946.7393669199619
 20
283.6218741930757
 30
0.0
 41
1.000819973128151
  0
LINE
  5
30B0
330
20EF
100
AcDbEntity
  8
AM_VIS
100
AcDbLine
 10
-929.239366919962
 20
285.5707127732426
 30
0.0
 11
-929.239366919962
 21
283.6218741930753
 31
0.0
  0
LINE
  5
30B1
330
20EF
100
AcDbEntity
  8
AM_VIS
100
AcDbLine
 10
-982.2393669199618
 20
285.5707127732426
 30
0.0
 11
-982.2393669199618
 21
283.6218741930753
 31
0.0
  0
SPLINE
  5
30B2
330
20EF
100
AcDbEntity
  8
AM_VIS
100
AcDbSpline
210
0.0000000000087252
220
0.0000000000124344
230
1.0
 70
    12
 71
     2
 72
     6
 73
     3
 74
     0
 42
0.0000000001
 43
0.0000000001
 40
1.146876347465834
 40
1.146876347465834
 40
1.146876347465834
 40
4.480679066148136
 40
4.480679066148136
 40
4.480679066148136
 10
-964.7393669199619
 20
283.6218741930755
 30
0.0000000000001137
 41
1.000819973128144
 10
-966.1042649089361
 20
284.4659649758165
 30
0.0
 41
1.001601757869626
 10
-967.5185859093517
 20
285.5707127732426
 30
0.0
 41
1.0
  0
LINE
  5
30B3
330
20EF
100
AcDbEntity
  8
AM_VIS
100
AcDbLine
 10
-982.2393900055201
 20
283.6218615076012
 30
0.0
 11
-981.9365276453844
 21
283.0706998725389
 31
0.0
  0
LINE
  5
30B4
330
20EF
100
AcDbEntity
  8
AM_VIS
100
AcDbLine
 10
-946.7393669199619
 20
285.0707127732426
 30
0.0
 11
-946.7393669199619
 21
283.6218741930753
 31
0.0
  0
LINE
  5
30B5
330
20EF
100
AcDbEntity
  8
AM_VIS
100
AcDbLine
 10
-946.7393669199621
 20
283.6218741930753
 30
0.0
 11
-946.7393669199621
 21
283.0707127732426
 31
0.0
  0
LINE
  5
30B6
330
20EF
100
AcDbEntity
  8
AM_VIS
100
AcDbLine
 10
-964.7393669199621
 20
283.6218741930754
 30
0.0
 11
-964.7393669199621
 21
283.0707127732426
 31
0.0
  0
LINE
  5
30B7
330
20EF
100
AcDbEntity
  8
AM_VIS
100
AcDbLine
 10
-964.7393669199619
 20
283.6218741930754
 30
0.0
 11
-964.7393669199619
 21
285.0707127732426
 31
0.0
  0
LINE
  5
30B8
330
20EF
100
AcDbEntity
  8
AM_VIS
100
AcDbLine
 10
-929.5422061945396
 20
283.0706998725389
 30
0.0
 11
-929.2393438344038
 21
283.6218615076012
 31
0.0
  0
LINE
  5
30B9
330
20EF
100
AcDbEntity
  8
AM_VIS
100
AcDbLine
 10
-964.7393669199619
 20
285.0707127732426
 30
0.0
 11
-946.7393669199619
 21
285.0707127732426
 31
0.0
  0
LINE
  5
30BA
330
20EF
100
AcDbEntity
  8
AM_VIS
100
AcDbLine
 10
-936.8250190783582
 20
337.0707127732426
 30
0.0
 11
-932.3255142629694
 21
337.0707127732426
 31
0.0
  0
LINE
  5
30BB
330
20EF
100
AcDbEntity
  8
AM_VIS
100
AcDbLine
 10
-936.8250190783582
 20
337.0707127732426
 30
0.0
 11
-944.7393669199618
 21
337.0707127732426
 31
0.0
  0
LINE
  5
30BC
330
20EF
100
AcDbEntity
  8
AM_VIS
100
AcDbLine
 10
-944.7393669199618
 20
337.0707127732426
 30
0.0
 11
-966.7393669199618
 21
337.0707127732426
 31
0.0
  0
LINE
  5
30BD
330
20EF
100
AcDbEntity
  8
AM_VIS
100
AcDbLine
 10
-966.739366919962
 20
337.0707127732426
 30
0.0
 11
-974.6537147615656
 21
337.0707127732426
 31
0.0
  0
LINE
  5
30BE
330
20EF
100
AcDbEntity
  8
AM_VIS
100
AcDbLine
 10
-979.1532195769546
 20
337.0707127732426
 30
0.0
 11
-974.6537147615656
 21
337.0707127732426
 31
0.0
  0
LINE
  5
30BF
330
20EF
100
AcDbEntity
  8
AM_VIS
100
AcDbLine
 10
-943.7393669199618
 20
296.5707127732425
 30
0.0
 11
-929.2393669199618
 21
296.5707127732425
 31
0.0
  0
LINE
  5
30C0
330
20EF
100
AcDbEntity
  8
AM_VIS
100
AcDbLine
 10
-982.2393669199618
 20
296.5707127732425
 30
0.0
 11
-967.7393669199618
 21
296.5707127732425
 31
0.0
  0
ARC
  5
30C1
330
20EF
100
AcDbEntity
  8
AM_VIS
100
AcDbCircle
 10
-932.3255142629694
 20
336.0707127732426
 30
0.0
 40
1.0
100
AcDbArc
 50
0.8500000000008054
 51
90.0
  0
ARC
  5
30C2
330
20EF
100
AcDbEntity
  8
AM_VIS
100
AcDbCircle
 10
-979.1532195769546
 20
336.0707127732426
 30
0.0
 40
0.9999999999999912
100
AcDbArc
 50
90.0
 51
179.1499999999992
  0
CIRCLE
  5
30C3
330
20EF
100
AcDbEntity
  8
AM_VIS
100
AcDbCircle
 10
-955.7393669199619
 20
317.0707127732426
 30
0.0
 40
7.2
  0
LINE
  5
30C5
330
20EF
100
AcDbEntity
  8
AM_VIS
100
AcDbLine
 10
-943.9601479305721
 20
285.5707127732426
 30
0.0
 11
-929.2393669199618
 21
285.5707127732426
 31
0.0
  0
LINE
  5
30C6
330
20EF
100
AcDbEntity
  8
AM_VIS
100
AcDbLine
 10
-982.2393669199618
 20
285.5707127732426
 30
0.0
 11
-967.5185859093517
 21
285.5707127732426
 31
0.0
  0
LINE
  5
30C7
330
20EF
100
AcDbEntity
  8
AM_VIS
100
AcDbLine
 10
-964.7393669199619
 20
283.0707127732426
 30
0.0
 11
-981.9365041681423
 21
283.0707127732426
 31
0.0
  0
LINE
  5
30C8
330
20EF
100
AcDbEntity
  8
AM_VIS
100
AcDbLine
 10
-929.5422296717815
 20
283.0707127732426
 30
0.0
 11
-946.7393669199619
 21
283.0707127732426
 31
0.0
  0
LINE
  5
30C9
330
20EF
100
AcDbEntity
  8
AM_VIS
100
AcDbLine
 10
-947.674669724619
 20
284.5707125259185
 30
0.0
 11
-947.6509052112042
 21
285.0707125270595
 31
0.0
  0
LINE
  5
30CA
330
20EF
100
AcDbEntity
  8
AM_VIS
100
AcDbLine
 10
-945.7393669199618
 20
192.0707127732426
 30
0.0
 11
-945.6060335866286
 21
193.0707127732425
 31
0.0
  0
LINE
  5
30CB
330
20EF
100
AcDbEntity
  8
AM_VIS
100
AcDbLine
 10
-965.7393669199619
 20
192.0707127732426
 30
0.0
 11
-965.872700253295
 21
193.0707127732424
 31
0.0
  0
LINE
  5
30CC
330
20EF
100
AcDbEntity
  8
AM_VIS
100
AcDbLine
 10
-963.2393669199618
 20
192.0707127732426
 30
0.0
 11
-965.7393669199619
 21
192.0707127732426
 31
0.0
  0
LINE
  5
30CD
330
20EF
100
AcDbEntity
  8
AM_VIS
100
AcDbLine
 10
-945.7393669199618
 20
192.0707127732426
 30
0.0
 11
-948.2393669199622
 21
192.0707127732426
 31
0.0
  0
LINE
  5
30D0
330
20EF
100
AcDbEntity
  8
AM_VIS
100
AcDbLine
 10
-948.2393669199622
 20
192.0707127732426
 30
0.0
 11
-963.239366919962
 21
192.0707127732427
 31
0.0
  0
LINE
  5
30E3
330
20EF
100
AcDbEntity
  8
AM_VIS
100
AcDbLine
 10
-944.8410660916326
 20
193.5020974688349
 30
0.0
 11
-943.5758300434471
 21
197.632650716145
 31
0.0
  0
LINE
  5
30E4
330
20EF
100
AcDbEntity
  8
AM_VIS
100
AcDbLine
 10
-949.7116772795271
 20
193.5041086563708
 30
0.0
 11
-948.9628887745224
 21
197.6345607308628
 31
0.0
  0
LINE
  5
30E5
330
20EF
100
AcDbEntity
  8
AM_VIS
100
AcDbLine
 10
-975.0895932857508
 20
197.6358004577199
 30
0.0
 11
-970.9230251071202
 21
193.5054347096883
 31
0.0
  0
LINE
  5
30E6
330
20EF
100
AcDbEntity
  8
AM_VIS
100
AcDbLine
 10
-967.9029037958867
 20
197.6326507095114
 30
0.0
 11
-966.6376677481789
 21
193.5020974688652
 31
0.0
  0
LINE
  5
30E7
330
20EF
100
AcDbEntity
  8
AM_VIS
100
AcDbLine
 10
-962.5158450655494
 20
197.6345607343382
 30
0.0
 11
-961.7670565604365
 21
193.5041086563645
 31
0.0
  0
ARC
  5
30E8
330
20EF
100
AcDbEntity
  8
AM_VIS
100
AcDbCircle
 10
-947.4639032088736
 20
198.6382919543747
 30
0.0
 40
4.005277429975373
100
AcDbArc
 50
345.5051697012281
 51
0.7109339102440633
  0
ARC
  5
30E9
330
20EF
100
AcDbEntity
  8
AM_VIS
100
AcDbCircle
 10
-955.5674097142043
 20
198.6348259141967
 30
0.0
 40
6.672890315224662
100
AcDbArc
 50
351.3896440763346
 51
0.4564792813851528
  0
ARC
  5
30EA
330
20EF
100
AcDbEntity
  8
AM_VIS
100
AcDbCircle
 10
-937.4451627022503
 20
198.7010785426149
 30
0.0
 40
1.500000058479829
100
AcDbArc
 50
314.750001082463
 51
359.4999989811891
  0
ARC
  5
30EB
330
20EF
100
AcDbEntity
  8
AM_VIS
100
AcDbCircle
 10
-955.9113241257833
 20
198.6348259141923
 30
0.0
 40
6.672890315160935
100
AcDbArc
 50
179.5435207185725
 51
188.6103559237082
  0
ARC
  5
30EC
330
20EF
100
AcDbEntity
  8
AM_VIS
100
AcDbCircle
 10
-964.0148306308566
 20
198.6382919543981
 30
0.0
 40
4.005277430168679
100
AcDbArc
 50
179.2890660901247
 51
194.4948302984029
  0
ARC
  5
30ED
330
20EF
100
AcDbEntity
  8
AM_VIS
100
AcDbCircle
 10
-974.0335712724062
 20
198.7010784857707
 30
0.0
 40
1.499999923255947
100
AcDbArc
 50
180.4999988925171
 51
225.2500010438286
  0
LINE
  5
30EE
330
20EF
100
AcDbEntity
  8
AM_VIS
100
AcDbLine
 10
-948.894580328664
 20
198.6879884927945
 30
0.0
 11
-948.7834898816599
 21
285.0707125590865
 31
0.0
  0
LINE
  5
30EF
330
20EF
100
AcDbEntity
  8
AM_VIS
100
AcDbLine
 10
-947.9893669199618
 20
284.5707127732424
 30
0.0
 11
-947.9893669199618
 21
285.0707127732426
 31
0.0
  0
LINE
  5
30F0
330
20EF
100
AcDbEntity
  8
AM_VIS
100
AcDbLine
 10
-943.458704456893
 20
198.6879881452565
 30
0.0
 11
-943.2750768792667
 21
283.0707122187961
 31
0.0
  0
LINE
  5
30F1
330
20EF
100
AcDbEntity
  8
AM_VIS
100
AcDbLine
 10
-935.9452197593991
 20
198.6879887121856
 30
0.0
 11
-935.2960915606017
 21
283.0707127732426
 31
0.0
  0
LINE
  5
30F2
330
20EF
100
AcDbEntity
  8
AM_VIS
100
AcDbLine
 10
-946.7393669199619
 20
284.5707127732424
 30
0.0
 11
-947.9893669199618
 21
284.5707127732424
 31
0.0
  0
LINE
  5
30F3
330
20EF
100
AcDbEntity
  8
AM_VIS
100
AcDbLine
 10
-976.182642279322
 20
283.0707127732426
 30
0.0
 11
-975.5335140805245
 21
198.6879887121856
 31
0.0
  0
LINE
  5
30F4
330
20EF
100
AcDbEntity
  8
AM_VIS
100
AcDbLine
 10
-962.6952439582641
 20
285.0707125590865
 30
0.0
 11
-962.5841535112598
 21
198.6879884927945
 31
0.0
  0
LINE
  5
30F5
330
20EF
100
AcDbEntity
  8
AM_VIS
100
AcDbLine
 10
-968.2036569606575
 20
283.0707122187961
 30
0.0
 11
-968.0200293830308
 21
198.6879881452566
 31
0.0
  0
LINE
  5
30F6
330
20EF
100
AcDbEntity
  8
AM_VIS
100
AcDbLine
 10
-963.4893669199618
 20
285.0707127732426
 30
0.0
 11
-963.4893669199618
 21
284.5707127732424
 31
0.0
  0
LINE
  5
30F7
330
20EF
100
AcDbEntity
  8
AM_VIS
100
AcDbLine
 10
-963.4893669199618
 20
284.5707127732424
 30
0.0
 11
-964.7393669199619
 21
284.5707127732424
 31
0.0
  0
ARC
  5
30F8
330
20EF
100
AcDbEntity
  8
AM_VIS
100
AcDbCircle
 10
-912.5861248529597
 20
259.2771389785891
 30
0.0
 40
22.31474947705597
100
AcDbArc
 50
166.2772974376385
 51
179.2461925380364
  0
ARC
  5
30F9
330
20EF
100
AcDbEntity
  8
AM_VIS
100
AcDbCircle
 10
-913.5876504466994
 20
209.457353394708
 30
0.0
 40
21.67074105513829
100
AcDbArc
 50
179.7002851188686
 51
193.0319791400625
  0
LINE
  5
30FA
330
20EF
100
AcDbEntity
  8
AM_VIS
100
AcDbLine
 10
-935.2580658511612
 20
209.5707125114402
 30
0.0
 11
-934.8989147043782
 21
259.5707125181788
 31
0.0
  0
LINE
  5
30FB
330
20EF
100
AcDbEntity
  8
AM_VIS
100
AcDbLine
 10
-960.7393669199618
 20
259.5707127732425
 30
0.0
 11
-960.7393669199618
 21
209.5707127732425
 31
0.0
  0
LINE
  5
30FC
330
20EF
100
AcDbEntity
  8
AM_VIS
100
AcDbLine
 10
-976.5798191355456
 20
259.5707125181789
 30
0.0
 11
-976.2206679887626
 21
209.5707125114402
 31
0.0
  0
ARC
  5
30FD
330
20EF
100
AcDbEntity
  8
AM_VIS
100
AcDbCircle
 10
-997.8910833932275
 20
209.4573533947082
 30
0.0
 40
21.67074105514114
100
AcDbArc
 50
346.968020859939
 51
0.2997148811313596
  0
ARC
  5
30FE
330
20EF
100
AcDbEntity
  8
AM_VIS
100
AcDbCircle
 10
-955.7393669199621
 20
259.5707127732425
 30
0.0
 40
4.999999999999985
100
AcDbArc
 50
0.0
 51
180.0
  0
LINE
  5
30FF
330
20EF
100
AcDbEntity
  8
AM_VIS
100
AcDbLine
 10
-950.7393669199618
 20
259.5707127732425
 30
0.0
 11
-950.7393669199618
 21
209.5707127732425
 31
0.0
  0
ARC
  5
3100
330
20EF
100
AcDbEntity
  8
AM_VIS
100
AcDbCircle
 10
-955.7393669199619
 20
209.5707127732425
 30
0.0
 40
5.0
100
AcDbArc
 50
180.0
 51
0.0
  0
ARC
  5
3101
330
20EF
100
AcDbEntity
  8
AM_VIS
100
AcDbCircle
 10
-998.8926089869645
 20
259.2771389785891
 30
0.0
 40
22.31474947705607
100
AcDbArc
 50
0.7538074619635148
 51
13.72270256236147
  0
LINE
  5
3102
330
20EF
100
AcDbEntity
  8
AM_VIS
100
AcDbLine
 10
-940.5557087329215
 20
193.5054347098073
 30
0.0
 11
-936.3891405583135
 21
197.6358004510032
 31
0.0
  0
SPLINE
  5
3103
330
20EF
100
AcDbEntity
  8
AM_VIS
100
AcDbSpline
210
0.0
220
0.0
230
1.0
 70
     8
 71
     3
 72
    12
 73
     8
 74
     0
 42
0.0000000001
 43
0.0000000001
 40
-1.223984536093833
 40
-1.223984536093833
 40
-1.223984536093833
 40
-1.223984536093833
 40
-1.221752649816529
 40
-1.221752649816529
 40
-0.606371682339853
 40
-0.606371682339853
 40
0.0
 40
0.0
 40
0.0
 40
0.0
 10
-945.1969074013064
 20
193.0707127732424
 30
0.0
 10
-945.1966727427265
 20
193.0707127732424
 30
0.0
 10
-945.196438091186
 20
193.0707132728405
 30
0.0
 10
-945.1315067769019
 20
193.0709897754126
 30
0.0
 10
-945.0677830237205
 20
193.1092448640668
 30
0.0
 10
-944.950146151628
 20
193.2581694091765
 30
0.0
 10
-944.8969493308117
 20
193.3667060759308
 30
0.0
 10
-944.8519610163833
 20
193.5054347098075
 30
0.0
  0
LINE
  5
3104
330
20EF
100
AcDbEntity
  8
AM_VIS
100
AcDbLine
 10
-949.9242088799066
 20
193.0707127732424
 30
0.0
 11
-945.1969074013064
 21
193.0707127732424
 31
0.0
  0
SPLINE
  5
3105
330
20EF
100
AcDbEntity
  8
AM_VIS
100
AcDbSpline
210
0.0
220
0.0
230
1.0
 70
     8
 71
     3
 72
    12
 73
     8
 74
     0
 42
0.0000000001
 43
0.0000000001
 40
0.0
 40
0.0
 40
0.0
 40
0.0
 40
0.5930711260102657
 40
0.5930711260102657
 40
1.190594073882567
 40
1.190594073882567
 40
1.192755197791147
 40
1.192755197791147
 40
1.192755197791147
 40
1.192755197791147
 10
-949.7189920287951
 20
193.5054347098075
 30
0.0
 10
-949.7455669318833
 20
193.3675210122164
 30
0.0
 10
-949.7771320107299
 20
193.2586576122119
 30
0.0
 10
-949.8471994667129
 20
193.1094729484389
 30
0.0
 10
-949.8851364597863
 20
193.07099065592
 30
0.0
 10
-949.9239292643402
 20
193.0707132730528
 30
0.0
 10
-949.9240690696963
 20
193.0707127732424
 30
0.0
 10
-949.9242088799066
 20
193.0707127732424
 30
0.0
  0
SPLINE
  5
3106
330
20EF
100
AcDbEntity
  8
AM_VIS
100
AcDbSpline
210
0.0
220
0.0
230
1.0
 70
     8
 71
     3
 72
    12
 73
     8
 74
     0
 42
0.0000000001
 43
0.0000000001
 40
-1.191072920087237
 40
-1.191072920087237
 40
-1.191072920087237
 40
-1.191072920087237
 40
-0.5977632662149855
 40
-0.5977632662149855
 40
0.0
 40
0.0
 40
0.0021619930933586
 40
0.0021619930933586
 40
0.0021619930933586
 40
0.0021619930933586
 10
-961.7597418111287
 20
193.5054347098075
 30
0.0
 10
-961.7331669080408
 20
193.3675210122164
 30
0.0
 10
-961.7016018291939
 20
193.2586576122119
 30
0.0
 10
-961.6315343732109
 20
193.1094729484391
 30
0.0
 10
-961.5935973801379
 20
193.07099065592
 30
0.0
 10
-961.554804575584
 20
193.0707132730528
 30
0.0
 10
-961.5546647702275
 20
193.0707127732424
 30
0.0
 10
-961.5545249600172
 20
193.0707127732424
 30
0.0
  0
LINE
  5
3107
330
20EF
100
AcDbEntity
  8
AM_VIS
100
AcDbLine
 10
-966.2818264386176
 20
193.0707127732424
 30
0.0
 11
-961.5545249600172
 21
193.0707127732424
 31
0.0
  0
SPLINE
  5
3108
330
20EF
100
AcDbEntity
  8
AM_VIS
100
AcDbSpline
210
0.0
220
0.0
230
1.0
 70
     8
 71
     3
 72
    12
 73
     8
 74
     0
 42
0.0000000001
 43
0.0000000001
 40
-0.0022342702691178
 40
-0.0022342702691178
 40
-0.0022342702691178
 40
-0.0022342702691178
 40
0.0
 40
0.0
 40
0.616038287311689
 40
0.616038287311689
 40
1.22305766621014
 40
1.22305766621014
 40
1.22305766621014
 40
1.22305766621014
 10
-966.2818264386176
 20
193.0707127732424
 30
0.0
 10
-966.2820610971973
 20
193.0707127732424
 30
0.0
 10
-966.2822957487378
 20
193.0707132728405
 30
0.0
 10
-966.347227063022
 20
193.0709897754126
 30
0.0
 10
-966.4109508162034
 20
193.1092448640669
 30
0.0
 10
-966.5285876882958
 20
193.2581694091765
 30
0.0
 10
-966.5817845091124
 20
193.3667060759308
 30
0.0
 10
-966.6267728235407
 20
193.5054347098075
 30
0.0
  0
ARC
  5
3109
330
20EF
100
AcDbEntity
  8
AM_VIS
100
AcDbCircle
 10
-969.8670030430823
 20
194.5707127179442
 30
0.0
 40
1.499999944701741
100
AcDbArc
 50
225.249998260953
 51
270.0
  0
ARC
  5
310A
330
20EF
100
AcDbEntity
  8
AM_VIS
100
AcDbCircle
 10
-941.6117307968416
 20
194.5707127179441
 30
0.0
 40
1.499999944701713
100
AcDbArc
 50
270.0
 51
314.750001739047
  0
LINE
  5
310B
330
20EF
100
AcDbEntity
  8
AM_VIS
100
AcDbLine
 10
-977.2148295641468
 20
264.5707127732426
 30
0.0
 11
-977.3326422793219
 21
283.0707127732426
 31
0.0
  0
LINE
  5
310C
330
20EF
100
AcDbEntity
  8
AM_VIS
100
AcDbLine
 10
-976.6835140805246
 20
198.6879887121856
 30
0.0
 11
-976.7784861746088
 21
204.5707127732426
 31
0.0
  0
LINE
  5
310D
330
20EF
100
AcDbEntity
  8
AM_VIS
100
AcDbLine
 10
-972.0730251070021
 20
193.5054347098075
 30
0.0
 11
-976.2395932826123
 21
197.6358004519983
 31
0.0
  0
LINE
  5
310E
330
20EF
100
AcDbEntity
  8
AM_VIS
100
AcDbLine
 10
-934.263904275777
 20
264.5707127732426
 30
0.0
 11
-934.1460915606019
 21
283.0707127732426
 31
0.0
  0
LINE
  5
310F
330
20EF
100
AcDbEntity
  8
AM_VIS
100
AcDbLine
 10
-934.7952197593993
 20
198.6879887121856
 30
0.0
 11
-934.7002476653152
 21
204.5707127732426
 31
0.0
  0
LINE
  5
3110
330
20EF
100
AcDbEntity
  8
AM_VIS
100
AcDbLine
 10
-939.4057087329217
 20
193.5054347098075
 30
0.0
 11
-935.2391405573117
 21
197.6358004519983
 31
0.0
  0
LINE
  5
3111
330
20EF
100
AcDbEntity
  8
AM_VIS
100
AcDbLine
 10
-941.6117308196058
 20
193.0707127732424
 30
0.0
 11
-945.1969074013064
 21
193.0707127732424
 31
0.0
  0
LINE
  5
3112
330
20EF
100
AcDbEntity
  8
AM_VIS
100
AcDbLine
 10
-949.9242088799066
 20
193.0707127732424
 30
0.0
 11
-961.5545249600172
 21
193.0707127732424
 31
0.0
  0
LINE
  5
3113
330
20EF
100
AcDbEntity
  8
AM_VIS
100
AcDbLine
 10
-966.2818264386176
 20
193.0707127732424
 30
0.0
 11
-969.8670030203182
 21
193.0707127732424
 31
0.0
  0
LINE
  5
3114
330
20EF
100
AcDbEntity
  8
AM_VIS
100
AcDbLine
 10
-969.8670030203182
 20
193.0707127732425
 30
0.0
 11
-971.0170030203183
 21
193.0707127732425
 31
0.0
  0
LINE
  5
3115
330
20EF
100
AcDbEntity
  8
AM_VIS
100
AcDbLine
 10
-940.4617308196057
 20
193.0707127732425
 30
0.0
 11
-941.6117308196058
 21
193.0707127732425
 31
0.0
  0
ARC
  5
3116
330
20EF
100
AcDbEntity
  8
AM_VIS
100
AcDbCircle
 10
-936.2951626439953
 20
198.7010785154332
 30
0.0
 40
1.5
100
AcDbArc
 50
314.7499999999957
 51
359.5000000000011
  0
ARC
  5
3117
330
20EF
100
AcDbEntity
  8
AM_VIS
100
AcDbCircle
 10
-975.1835711959284
 20
198.7010785154332
 30
0.0
 40
1.5
100
AcDbArc
 50
180.4999999999989
 51
225.2500000000043
  0
ARC
  5
3118
330
20EF
100
AcDbEntity
  8
AM_VIS
100
AcDbCircle
 10
-971.0170030203183
 20
194.5707127732426
 30
0.0
 40
1.5
100
AcDbArc
 50
225.2500000000038
 51
270.0
  0
ARC
  5
3119
330
20EF
100
AcDbEntity
  8
AM_VIS
100
AcDbCircle
 10
-940.4617308196057
 20
194.5707127732426
 30
0.0
 40
1.499999999999999
100
AcDbArc
 50
270.0
 51
314.7499999999963
  0
DIMENSION
  5
311A
330
20EF
100
AcDbEntity
  8
DIM
100
AcDbDimension
  2
*D4
 10
-914.2786568314852
 20
317.0707127732426
 30
0.0
 11
-914.2786568314852
 21
327.0707127732424
 31
0.0
 70
   160
 71
     5
 42
20.0
  3
STANDARD
100
AcDbAlignedDimension
 13
-932.3255142629694
 23
337.0707127732426
 33
0.0
 14
-946.0393669199619
 24
317.0707127732426
 34
0.0
 50
90.0
100
AcDbRotatedDimension
1001
ACAD
1000
DSTYLE
1002
{
1070
    40
1040
1.5
1070
   279
1070
     0
1002
}
  0
DIMENSION
  5
311B
330
20EF
100
AcDbEntity
  8
DIM
100
AcDbDimension
  2
*D5
 10
-914.2786568314852
 20
172.0707127732425
 30
0.0
 11
-914.2786568314852
 21
239.5707127732426
 31
0.0
 70
   160
 71
     5
 42
145.0
  3
STANDARD
100
AcDbAlignedDimension
 13
-947.0393669199621
 23
317.0707127732426
 33
0.0
 14
-958.4893669199621
 24
172.0707127732425
 34
0.0
 50
90.0
100
AcDbRotatedDimension
1001
ACAD
1000
DSTYLE
1002
{
1070
    40
1040
1.5
1070
   279
1070
     0
1002
}
  0
DIMENSION
  5
311C
330
20EF
100
AcDbEntity
  8
DIM
100
AcDbDimension
  2
*D6
 10
-893.2715784322242
 20
172.0707127732425
 30
0.0
 11
-893.2715784322242
 21
249.5707127732426
 31
0.0
 70
   160
  1
(<>)
 71
     5
 42
164.9999999999999
  3
STANDARD
100
AcDbAlignedDimension
 13
-932.3255142629694
 23
337.0707127732426
 33
0.0
 14
-958.4893669199621
 24
172.0707127732425
 34
0.0
 50
90.0
100
AcDbRotatedDimension
1001
ACAD
1000
DSTYLE
1002
{
1070
    40
1040
1.5
1070
   279
1070
     0
1002
}
  0
LINE
  5
311D
330
20EF
100
AcDbEntity
  8
CENTER
  6
CENTER
100
AcDbLine
 10
-1064.416234623515
 20
317.0707127732426
 30
0.0
 11
-1003.347869865669
 21
317.0707127732426
 31
0.0
  0
INSERT
  5
31A6
330
20EF
100
AcDbEntity
  8
ASHADE
 62
     1
100
AcDbBlockReference
  2
AVE_RENDER
 10
0.0
 20
0.0
 30
0.0
1001
AVE_RENDER
1002
{
1070
     7
1000
Pref
1070
    50
1070
    20
1070
     1
1070
     0
1000

1070
    10
1070
     1
1070
    10
1040
1.0
1070
     1
1040
0.7
1040
1.0
1040
0.0
1040
10.0
1010
-1.0
1020
-1.0
1030
-1.0
1040
0.3
1070
    49
1070
     0
1070
     0
1010
1.0
1020
1.0
1030
1.0
1040
45.0
1070
     1
1070
     0
1000
WCS
1040
0.0
1070
     0
1040
10.0
1002
}
  0
INSERT
  5
31A7
330
20EF
100
AcDbEntity
  8
ASHADE
 62
     3
100
AcDbBlockReference
  2
AVE_RENDER
 10
0.0
 20
0.0
 30
0.0
1001
AVE_RENDER
1002
{
1070
     0
1000
Full Opt
1070
     0
1070
     1
1070
     1
1070
     1
1070
     0
1070
     0
1070
     0
1070
     1
1070
     1
1040
0.0001
1040
0.0001
1002
}
  0
INSERT
  5
31A8
330
20EF
100
AcDbEntity
  8
ASHADE
 62
     4
100
AcDbBlockReference
  2
AVE_RENDER
 10
0.0
 20
0.0
 30
0.0
1001
AVE_RENDER
1002
{
1070
     0
1000
Quick Opt
1070
     0
1070
     1
1070
     1
1070
     1
1070
     0
1070
     0
1070
     1
1002
}
  0
INSERT
  5
31A9
330
20EF
100
AcDbEntity
  8
ASHADE
 62
     5
100
AcDbBlockReference
  2
AVE_RENDER
 10
0.0
 20
0.0
 30
0.0
1001
AVE_RENDER
1002
{
1070
     1
1000
Scanl Opt
1070
     2
1070
     0
1070
     2
1040
2.0
1040
4.0
1070
     0
1070
     1
1070
     0
1040
0.03
1002
}
  0
INSERT
  5
31AA
330
20EF
100
AcDbEntity
  8
ASHADE
 62
     6
100
AcDbBlockReference
  2
AVE_RENDER
 10
0.0
 20
0.0
 30
0.0
1001
AVE_RENDER
1002
{
1070
     2
1000
Raytr Opt
1070
     2
1070
     0
1070
     2
1040
2.0
1040
4.0
1070
     0
1070
     1
1070
     1
1040
0.03
1070
     3
1040
0.03
1002
}
  0
INSERT
  5
31AB
330
20EF
100
AcDbEntity
  8
ASHADE
 62
     7
100
AcDbBlockReference
  2
AVE_RENDER
 10
0.0
 20
0.0
 30
0.0
1001
AVE_RENDER
1002
{
1070
     0
1000
RFile Opt
1070
     1
1070
   640
1070
   480
1070
 10000
1070
     1
1070
     8
1070
     8
1070
     0
1070
     0
1070
     0
1070
     0
1070
     0
1070
     0
1070
     0
1002
}
  0
INSERT
  5
31AC
330
20EF
100
AcDbEntity
  8
ASHADE
 62
     8
100
AcDbBlockReference
  2
AVE_RENDER
 10
0.0
 20
0.0
 30
0.0
1001
AVE_RENDER
1002
{
1070
     0
1000
Fog Opt
1070
     0
1070
     0
1040
0.0
1040
1.0
1040
0.0
1040
1.0
1010
0.5
1020
0.5
1030
0.5
1002
}
  0
INSERT
  5
31AD
330
20EF
100
AcDbEntity
  8
ASHADE
 62
     9
100
AcDbBlockReference
  2
AVE_RENDER
 10
0.0
 20
0.0
 30
0.0
1001
AVE_RENDER
1002
{
1070
     0
1000
BG Opt
1070
     0
1070
     1
1010
0.0
1020
0.0
1030
0.0
1010
1.0
1020
0.0
1030
0.0
1010
0.0
1020
1.0
1030
0.0
1010
0.0
1020
0.0
1030
1.0
1040
0.5
1040
0.33
1040
0.0
1000

1070
     1
1000

1070
     1
1070
     1
1040
1.0
1040
1.0
1040
0.0
1040
0.0
1070
     0
1002
}
  0
INSERT
  5
31B4
330
20EF
100
AcDbEntity
  8
ASHADE
 62
     1
100
AcDbBlockReference
  2
AVE_GLOBAL
 10
0.0
 20
0.0
 30
0.0
1001
AVE_MATERIAL
1002
{
1000
*整體*
1000
2
1000
整體修飾。
1002
{
1002
}
1002
{
1070
    63
1002
{
1002
{
1010
-1.0
1020
-1.0
1030
-1.0
1002
}
1040
0.6999999880790711
1000

1040
0.0
1002
{
1002
}
1040
0.0
1002
{
1002
}
1040
0.0
1002
}
1002
{
1002
{
1010
-1.0
1020
-1.0
1030
-1.0
1002
}
1040
1.0
1000

1040
0.0
1002
{
1002
}
1040
0.0
1002
{
1002
}
1040
0.0
1002
}
1002
{
1002
{
1010
-1.0
1020
-1.0
1030
-1.0
1002
}
1040
0.2000000029802322
1000

1040
0.0
1002
{
1002
}
1040
0.0
1002
{
1002
}
1040
0.0
1002
}
1002
{
1070
     0
1002
{
1070
     1
1002
{
1040
1.0
1040
1.0
1000

1040
0.0
1002
{
1002
}
1040
0.0
1002
{
1002
}
1040
0.0
1002
}
1002
}
1040
1.0
1040
0.0
1040
0.0
1002
}
1002
{
1040
1.0
1040
1.0
1000

1040
0.0
1002
{
1002
}
1040
0.0
1002
{
1002
}
1040
0.0
1002
}
1002
{
1040
0.5
1040
1.0
1000

1040
0.0
1002
{
1002
}
1040
0.0
1002
{
1002
}
1040
0.0
1002
}
1002
{
1070
     0
1040
0.0
1002
{
1002
}
1040
1.0
1002
{
1002
}
1040
0.0
1002
}
1002
{
1040
0.0
1002
{
1002
{
1010
0.0
1020
0.0
1030
0.0
1002
}
1040
1.0
1000

1040
0.0
1002
{
1002
}
1040
0.0
1002
{
1002
}
1040
0.0
1002
}
1002
}
1002
{
1002
{
1070
     1
1002
{
1040
0.0
1040
1.0
1000

1040
0.0
1002
{
1002
}
1040
0.0
1002
{
1002
}
1040
0.0
1002
}
1002
}
1040
0.0
1002
{
1002
}
1010
1.0
1020
0.0
1030
0.0
1010
0.0
1020
1.0
1030
0.0
1010
0.0
1020
0.0
1030
1.0
1070
     0
1002
}
1002
{
1002
{
1040
1.0
1040
1.0
1002
{
1070
     1
1002
{
1040
1.0
1040
1.0
1000

1040
0.0
1002
{
1002
}
1040
0.0
1002
{
1002
}
1040
0.0
1002
}
1002
}
1002
}
1070
     0
1040
0.0
1002
{
1002
}
1002
}
1002
{
1002
}
1002
}
1002
{
1071
        3
1070
     3
1070
     0
1002
{
1070
     2
1070
     0
1070
     0
1040
0.0
1002
}
1070
     0
1070
     2
1002
{
1002
}
1002
}
1002
{
1040
8030.0
1040
190.3000030517578
1040
0.3050000071525574
1040
228.0
1040
545.0
1040
14.0
1040
17.39999961853027
1040
0.4560000002384186
1002
}
1000

1002
}
  0
CIRCLE
  5
31B5
330
20EF
100
AcDbEntity
  8
0
100
AcDbCircle
 10
-955.7393669199619
 20
317.0707127732426
 30
0.0
 40
5.685199999999952
  0
LWPOLYLINE
  5
34E4
330
20EF
100
AcDbEntity
  8
LOGO
 62
     4
100
AcDbPolyline
 90
        4
 70
     1
 43
0.0
 10
-1133.646631050556
 20
55.69784360795376
 10
-824.2466310505562
 20
55.69784360795376
 10
-824.2466310505562
 20
426.3317433406252
 10
-1133.646631050556
 20
426.3317433406252
1001
GENIUS_GENREC_14
1002
{
1000
PYDIR
1011
-1133.646631050556
1021
426.3317433406252
1031
0.0
1002
}
1002
{
1000
PXDIR
1011
-824.2466310505562
1021
55.69784360795376
1031
0.0
1002
}
1002
{
1000
PORI
1011
-1133.646631050556
1021
55.69784360795376
1031
0.0
1002
}
1002
{
1000
PINS
1011
-1133.646631050556
1021
55.69784360795376
1031
0.0
1002
}
1002
{
1000
PINS2
1011
-824.2466310505562
1021
426.3317433406252
1031
0.0
1002
}
1002
{
1000
C
1070
     1
1002
}
1001
GENIUS_GENODEF_13
1002
{
1000
HIER
1070
     0
1002
}
1002
{
1000
MANEDIT
1070
     0
1002
}
1002
{
1000
NOSEL
1070
     0
1002
}
1002
{
1000
BEHIND
1070
     0
1002
}
1002
{
1000
OTHER
1070
     0
1002
}
1002
{
1000
REACTOR
1002
}
1001
GENIUS_GENOBJ-N-REC_13
1002
{
1000
OWNER
1000
GEN
1002
}
  0
LWPOLYLINE
  5
34E5
330
20EF
100
AcDbEntity
  8
LOGO
 62
     4
100
AcDbPolyline
 90
        4
 70
     1
 43
0.0
 10
-1133.646631050556
 20
55.69784360795376
 10
-824.2466310505562
 20
55.69784360795376
 10
-824.2466310505562
 20
24.76232360795319
 10
-1133.646631050556
 20
24.76232360795319
1001
GENIUS_GENREC_14
1002
{
1000
PYDIR
1011
-1133.646631050556
1021
24.76232360795319
1031
0.0
1002
}
1002
{
1000
PXDIR
1011
-824.2466310505562
1021
55.69784360795376
1031
0.0
1002
}
1002
{
1000
PORI
1011
-1133.646631050556
1021
55.69784360795376
1031
0.0
1002
}
1002
{
1000
PINS
1011
-1133.646631050556
1021
55.69784360795376
1031
0.0
1002
}
1002
{
1000
PINS2
1011
-824.2466310505562
1021
24.76232360795319
1031
0.0
1002
}
1002
{
1000
C
1070
     1
1002
}
1001
GENIUS_GENOBJ-N-REC_13
1002
{
1000
OWNER
1000
GEN
1002
}
1001
GENIUS_GENODEF_13
1002
{
1000
HIER
1070
     0
1002
}
1002
{
1000
MANEDIT
1070
     0
1002
}
1002
{
1000
NOSEL
1070
     0
1002
}
1002
{
1000
BEHIND
1070
     0
1002
}
1002
{
1000
OTHER
1070
     0
1002
}
1002
{
1000
REACTOR
1002
}
  0
TEXT
  5
34E6
330
20EF
100
AcDbEntity
  8
LOGO
 62
     7
100
AcDbText
 10
-1063.796275268256
 20
42.14551870880842
 30
0.0
 40
4.124735999999999
  1
Order example:
 41
0.8
  7
CHINESET
100
AcDbText
  0
TEXT
  5
34E7
330
20EF
100
AcDbEntity
  8
LOGO
 62
     7
100
AcDbText
 10
-1063.056263519676
 20
47.9522929593222
 30
0.0
 40
6.187103999999998
  1
訂購代號：
  7
CHINESET
100
AcDbText
  0
LINE
  5
34E8
330
20EF
100
AcDbEntity
  8
LOGO
 62
     4
100
AcDbLine
 10
-1065.588487050556
 20
24.76232360795359
 30
0.0
 11
-1065.588487050556
 21
55.69784360795376
 31
0.0
  0
TEXT
  5
34E9
330
20EF
100
AcDbEntity
  8
LOGO
  6
Continuous
100
AcDbText
 10
-1122.534453208703
 20
30.83955982618338
 30
0.0
 40
4.640328000000001
  1
金器工業股份有限公司
  7
CHINESET
100
AcDbText
  0
TEXT
  5
34EA
330
20EF
100
AcDbEntity
  8
LOGO
  6
Continuous
100
AcDbText
 10
-1131.057817701082
 20
26.19832268571116
 30
0.0
 40
3.093551999999999
  1
MINDMAN INDUSTRIAL CO., LTD.
 41
0.85
  7
CHINESET
100
AcDbText
  0
LINE
  5
34EB
330
20EF
100
AcDbEntity
  8
LOGO
 62
     4
100
AcDbLine
 10
-1065.588487050556
 20
49.51073960795375
 30
0.0
 11
-1110.960583050556
 21
49.51073960795375
 31
0.0
  0
LINE
  5
34EC
330
20EF
100
AcDbEntity
  8
LOGO
 62
     4
100
AcDbLine
 10
-1065.588487050556
 20
43.32363560795367
 30
0.0
 11
-1110.960583050556
 21
43.32363560795367
 31
0.0
  0
LINE
  5
34ED
330
20EF
100
AcDbEntity
  8
LOGO
 62
     4
100
AcDbLine
 10
-1065.588487050556
 20
37.13653160795399
 30
0.0
 11
-1133.646631050556
 21
37.13653160795399
 31
0.0
  0
LINE
  5
34EE
330
20EF
100
AcDbEntity
  8
LOGO
 62
     4
100
AcDbLine
 10
-1110.960583050556
 20
37.13653160795399
 30
0.0
 11
-1110.960583050556
 21
55.69784360795376
 31
0.0
  0
TEXT
  5
34EF
330
20EF
100
AcDbEntity
  8
LOGO
100
AcDbText
 10
-1079.950896964868
 20
38.68330760795347
 30
0.0
 40
3.093551999999999
  1
mm
  7
CHINESET
 72
     1
 11
-1076.120784964868
 21
40.23008360795347
 31
0.0
100
AcDbText
 73
     2
  0
TEXT
  5
34F0
330
20EF
100
AcDbEntity
  8
LOGO
100
AcDbText
 10
-1081.571328964868
 20
51.05751560795355
 30
0.0
 40
3.093551999999999
  1
1 : 1
  7
CHINESET
 72
     1
 11
-1076.120784964868
 21
52.60429160795355
 31
0.0
100
AcDbText
 73
     2
  0
LINE
  5
34F1
330
20EF
100
AcDbEntity
  8
LOGO
 62
     4
100
AcDbLine
 10
-1086.212167050556
 20
37.13653160795399
 30
0.0
 11
-1086.212167050556
 21
55.69784360795376
 31
0.0
  0
CIRCLE
  5
34F2
330
20EF
100
AcDbEntity
  8
LOGO
  6
Continuous
100
AcDbCircle
 10
-1080.484068587189
 20
46.42380473831977
 30
0.0
 40
1.796189105206016
  0
CIRCLE
  5
34F3
330
20EF
100
AcDbEntity
  8
LOGO
  6
Continuous
100
AcDbCircle
 10
-1080.484068587189
 20
46.42380473831977
 30
0.0
 40
1.052407808025678
  0
LINE
  5
34F4
330
20EF
100
AcDbEntity
  8
LOGO
100
AcDbLine
 10
-1069.196607829104
 20
44.62761563311348
 30
0.0
 11
-1069.196607829104
 21
48.21999384352617
 31
0.0
  0
LINE
  5
34F5
330
20EF
100
AcDbEntity
  8
LOGO
100
AcDbLine
 10
-1074.827557567751
 20
45.37139693029435
 30
0.0
 11
-1074.827557567751
 21
47.47621254634569
 31
0.0
  0
LINE
  5
34F6
330
20EF
100
AcDbEntity
  8
LOGO
  6
Continuous
100
AcDbLine
 10
-1074.827557567751
 20
47.47621254634569
 30
0.0
 11
-1069.196607829104
 21
48.21999384352617
 31
0.0
  0
LINE
  5
34F7
330
20EF
100
AcDbEntity
  8
LOGO
  6
Continuous
100
AcDbLine
 10
-1074.827557567751
 20
45.37139693029435
 30
0.0
 11
-1069.196607829104
 21
44.62761563311348
 31
0.0
  0
TEXT
  5
34F8
330
20EF
100
AcDbEntity
  8
LOGO
100
AcDbText
 10
-1108.409783700556
 20
51.05903802527639
 30
202.7463017507971
 40
3.093551999999999
  1
比例 Scale:
 41
0.9
  7
CHINESET
 72
     4
 11
-1098.586375050556
 21
52.60429160795355
 31
202.7463017507971
100
AcDbText
  0
TEXT
  5
34F9
330
20EF
100
AcDbEntity
  8
LOGO
100
AcDbText
 10
-1108.587939150556
 20
44.91392736976457
 30
202.7463017507971
 40
3.093551999999999
  1
投影  View:
 41
0.9
  7
CHINESET
 72
     4
 11
-1098.586375050556
 21
46.41718760795355
 31
202.7463017507971
100
AcDbText
  0
TEXT
  5
34FA
330
20EF
100
AcDbEntity
  8
LOGO
100
AcDbText
 10
-1108.285489200556
 20
38.68330760795347
 30
202.7463017507971
 40
3.093551999999999
  1
單位  Unit:
 41
0.9
  7
CHINESET
 72
     4
 11
-1098.586375050556
 21
40.23008360795347
 31
202.7463017507971
100
AcDbText
  0
SOLID
  5
34FB
330
20EF
100
AcDbEntity
  8
LOGO
 62
     5
100
AcDbTrace
 10
-1130.437021202823
 20
42.27912147550076
 30
0.0
 11
-1129.099450492828
 21
42.27912147550037
 31
0.0
 12
-1123.518552013191
 22
54.96298165649303
 32
0.0
 13
-1122.180981303195
 23
54.96298165649233
 33
0.0
  0
SOLID
  5
34FC
330
20EF
100
AcDbEntity
  8
LOGO
 62
     5
100
AcDbTrace
 10
-1128.545972957655
 20
42.27912147550076
 30
0.0
 11
-1127.20840224766
 21
42.27912147550076
 31
0.0
 12
-1122.180981303195
 22
53.94827284201314
 32
0.0
 13
-1123.518552013191
 23
49.04384690536274
 33
0.0
  0
SOLID
  5
34FD
330
20EF
100
AcDbEntity
  8
LOGO
 62
     2
100
AcDbTrace
 10
-1129.099450492828
 20
42.27912147550037
 30
0.0
 11
-1128.545972957655
 21
42.27912147550076
 31
0.0
 12
-1122.180981303195
 22
54.96298165649233
 32
0.0
 13
-1121.627503768024
 23
54.96298165649233
 33
0.0
  0
SOLID
  5
34FE
330
20EF
100
AcDbEntity
  8
LOGO
 62
     5
100
AcDbTrace
 10
-1132.581475063463
 20
37.66680868241306
 30
0.0
 11
-1132.120243784154
 21
37.66680868241306
 31
0.0
 12
-1130.821380602247
 22
39.97296507895671
 32
0.0
 13
-1130.360149322939
 23
39.97296507895671
 33
0.0
  0
SOLID
  5
34FF
330
20EF
100
AcDbEntity
  8
LOGO
 62
     5
100
AcDbTrace
 10
-1130.821380602247
 20
39.97296507895671
 30
0.0
 11
-1130.360149322939
 21
39.97296507895671
 31
0.0
 12
-1130.821380602247
 22
37.66680868241306
 32
0.0
 13
-1130.360149322939
 23
37.66680868241306
 33
0.0
  0
SOLID
  5
3500
330
20EF
100
AcDbEntity
  8
LOGO
 62
     5
100
AcDbTrace
 10
-1130.821380602247
 20
37.66680868241306
 30
0.0
 11
-1130.360149322939
 21
37.66680868241306
 31
0.0
 12
-1129.061286141029
 22
39.97296507895671
 32
0.0
 13
-1128.60005486172
 23
39.97296507895671
 33
0.0
  0
SOLID
  5
3501
330
20EF
100
AcDbEntity
  8
LOGO
 62
     5
100
AcDbTrace
 10
-1129.061286141029
 20
39.97296507895671
 30
0.0
 11
-1128.60005486172
 21
39.97296507895671
 31
0.0
 12
-1129.061286141029
 22
37.66680868241306
 32
0.0
 13
-1128.60005486172
 23
37.66680868241306
 33
0.0
  0
POLYLINE
  5
3502
330
20EF
100
AcDbEntity
  8
LOGO
 62
     5
100
AcDb2dPolyline
 66
     1
 10
0.0
 20
0.0
 30
0.0
 40
0.461970432
 41
0.461970432
  0
VERTEX
  5
3503
330
3502
100
AcDbEntity
  8
LOGO
 62
     5
100
AcDbVertex
100
AcDb2dVertex
 10
-1113.600970779014
 20
39.05050252033912
 30
0.0
 42
1.0
  0
VERTEX
  5
3504
330
3502
100
AcDbEntity
  8
LOGO
 62
     5
100
AcDbVertex
100
AcDb2dVertex
 10
-1114.986882075014
 20
39.05050252033912
 30
0.0
 42
1.0
  0
SEQEND
  5
3505
330
3502
100
AcDbEntity
  8
LOGO
 62
     5
  0
POLYLINE
  5
3506
330
20EF
100
AcDbEntity
  8
LOGO
 62
     5
100
AcDb2dPolyline
 66
     1
 10
0.0
 20
0.0
 30
0.0
 70
     1
  0
VERTEX
  5
3507
330
3506
100
AcDbEntity
  8
LOGO
 62
     5
100
AcDbVertex
100
AcDb2dVertex
 10
-1117.59938651331
 20
38.81988688068453
 30
0.0
 42
1.000000057330635
  0
VERTEX
  5
3508
330
3506
100
AcDbEntity
  8
LOGO
 62
     5
100
AcDbVertex
100
AcDb2dVertex
 10
-1116.215692675383
 20
38.81988688068453
 30
0.0
 42
1.000000057330635
  0
SEQEND
  5
3509
330
3506
100
AcDbEntity
  8
LOGO
 62
     5
  0
CIRCLE
  5
350A
330
20EF
100
AcDbEntity
  8
LOGO
 62
     5
100
AcDbCircle
 10
-1116.907539594345
 20
38.81988688068453
 30
0.0
 40
0.6918469189632001
  0
POLYLINE
  5
350B
330
20EF
100
AcDbEntity
  8
LOGO
 62
     5
100
AcDb2dPolyline
 66
     1
 10
0.0
 20
0.0
 30
0.0
 70
     1
 40
0.461970432
 41
0.461970432
  0
VERTEX
  5
350C
330
350B
100
AcDbEntity
  8
LOGO
 62
     5
100
AcDbVertex
100
AcDb2dVertex
 10
-1117.831480458346
 20
38.81988688068453
 30
0.0
 42
1.0
  0
VERTEX
  5
350D
330
350B
100
AcDbEntity
  8
LOGO
 62
     5
100
AcDbVertex
100
AcDb2dVertex
 10
-1115.983598730346
 20
38.81988688068453
 30
0.0
 42
1.0
  0
SEQEND
  5
350E
330
350B
100
AcDbEntity
  8
LOGO
 62
     5
  0
LINE
  5
350F
330
20EF
100
AcDbEntity
  8
LOGO
100
AcDbLine
 10
-1113.371463868397
 20
37.66680868241306
 30
0.0
 11
-1113.371463868397
 21
39.05050252033912
 31
0.0
  0
SOLID
  5
3510
330
20EF
100
AcDbEntity
  8
LOGO
 62
     5
100
AcDbTrace
 10
-1116.215738798509
 20
39.97296507895671
 30
0.0
 11
-1115.754507519201
 21
39.97296507895671
 31
0.0
 12
-1116.215738798509
 22
37.66680868241306
 32
0.0
 13
-1115.754507519201
 23
37.66680868241306
 33
0.0
  0
SOLID
  5
3511
330
20EF
100
AcDbEntity
  8
LOGO
 62
     5
100
AcDbTrace
 10
-1115.216388985632
 20
37.66680868241306
 30
0.0
 11
-1114.755157706323
 21
37.66680868241306
 31
0.0
 12
-1115.216388985632
 22
39.97296507895671
 32
0.0
 13
-1114.755157706323
 23
39.97296507895671
 33
0.0
  0
SOLID
  5
3512
330
20EF
100
AcDbEntity
  8
LOGO
 62
     5
100
AcDbTrace
 10
-1113.832695147705
 20
39.05050252033912
 30
0.0
 11
-1113.371463868397
 21
39.05050252033912
 31
0.0
 12
-1113.832695147705
 22
37.66680868241306
 32
0.0
 13
-1113.371463868397
 23
37.66680868241306
 33
0.0
  0
SOLID
  5
3513
330
20EF
100
AcDbEntity
  8
LOGO
 62
     5
100
AcDbTrace
 10
-1115.262512113563
 20
53.94827284201314
 30
0.0
 11
-1116.600082823558
 21
49.04384690536274
 31
0.0
 12
-1115.262512113563
 22
42.27912147550037
 32
0.0
 13
-1116.600082823558
 23
42.27912147550037
 33
0.0
  0
SOLID
  5
3514
330
20EF
100
AcDbEntity
  8
LOGO
 62
     5
100
AcDbTrace
 10
-1114.709034578392
 20
42.27912147550037
 30
0.0
 11
-1113.371463868397
 21
42.27912147550037
 31
0.0
 12
-1114.709034578392
 22
54.96298165649233
 32
0.0
 13
-1113.371463868397
 23
54.96298165649303
 33
0.0
  0
SOLID
  5
3515
330
20EF
100
AcDbEntity
  8
LOGO
 62
     2
100
AcDbTrace
 10
-1115.262512113563
 20
54.96298165649303
 30
0.0
 11
-1114.709034578392
 21
54.96298165649233
 31
0.0
 12
-1115.262512113563
 22
42.27912147550037
 32
0.0
 13
-1114.709034578392
 23
42.27912147550037
 33
0.0
  0
POLYLINE
  5
3516
330
20EF
100
AcDbEntity
  8
LOGO
 62
     5
100
AcDb2dPolyline
 66
     1
 10
0.0
 20
0.0
 30
0.0
 40
0.461970432
 41
0.461970432
  0
VERTEX
  5
3517
330
3516
100
AcDbEntity
  8
LOGO
 62
     5
100
AcDbVertex
100
AcDb2dVertex
 10
-1120.211983197859
 20
39.05050252033912
 30
0.0
 42
1.0
  0
VERTEX
  5
3518
330
3516
100
AcDbEntity
  8
LOGO
 62
     5
100
AcDbVertex
100
AcDb2dVertex
 10
-1121.597894493859
 20
39.05050252033912
 30
0.0
 42
1.0
  0
SEQEND
  5
3519
330
3516
100
AcDbEntity
  8
LOGO
 62
     5
  0
POLYLINE
  5
351A
330
20EF
100
AcDbEntity
  8
LOGO
 62
     5
100
AcDb2dPolyline
 66
     1
 10
0.0
 20
0.0
 30
0.0
 40
0.461970432
 41
0.461970432
  0
VERTEX
  5
351B
330
351A
100
AcDbEntity
  8
LOGO
 62
     5
100
AcDbVertex
100
AcDb2dVertex
 10
-1118.828289359933
 20
39.05050252033912
 30
0.0
 42
1.0
  0
VERTEX
  5
351C
330
351A
100
AcDbEntity
  8
LOGO
 62
     5
100
AcDbVertex
100
AcDb2dVertex
 10
-1120.214200655933
 20
39.05050252033912
 30
0.0
 42
1.0
  0
SEQEND
  5
351D
330
351A
100
AcDbEntity
  8
LOGO
 62
     5
  0
POLYLINE
  5
351E
330
20EF
100
AcDbEntity
  8
LOGO
 62
     5
100
AcDb2dPolyline
 66
     1
 10
0.0
 20
0.0
 30
0.0
 40
0.461970432
 41
0.461970432
  0
VERTEX
  5
351F
330
351E
100
AcDbEntity
  8
LOGO
 62
     5
100
AcDbVertex
100
AcDb2dVertex
 10
-1125.439301778778
 20
39.05050252033912
 30
0.0
 42
1.0
  0
VERTEX
  5
3520
330
351E
100
AcDbEntity
  8
LOGO
 62
     5
100
AcDbVertex
100
AcDb2dVertex
 10
-1126.825213074778
 20
39.05050252033912
 30
0.0
 42
1.0
  0
SEQEND
  5
3521
330
351E
100
AcDbEntity
  8
LOGO
 62
     5
  0
SOLID
  5
3522
330
20EF
100
AcDbEntity
  8
LOGO
 62
     5
100
AcDbTrace
 10
-1127.054719985395
 20
39.97296507895671
 30
0.0
 11
-1126.593488706087
 21
39.97296507895671
 31
0.0
 12
-1127.054719985395
 22
37.66680868241306
 32
0.0
 13
-1126.593488706087
 23
37.66680868241306
 33
0.0
  0
SOLID
  5
3523
330
20EF
100
AcDbEntity
  8
LOGO
 62
     5
100
AcDbTrace
 10
-1125.671026147469
 20
39.05050252033912
 30
0.0
 11
-1125.209794868159
 21
39.05050252033912
 31
0.0
 12
-1125.671026147469
 22
37.66680868241306
 32
0.0
 13
-1125.209794868159
 23
37.66680868241306
 33
0.0
  0
POLYLINE
  5
3524
330
20EF
100
AcDbEntity
  8
LOGO
 62
     5
100
AcDb2dPolyline
 66
     1
 10
0.0
 20
0.0
 30
0.0
 70
     1
 40
0.461970432
 41
0.461970432
  0
VERTEX
  5
3525
330
3524
100
AcDbEntity
  8
LOGO
 62
     5
100
AcDbVertex
100
AcDb2dVertex
 10
-1124.442492877191
 20
38.81988688068453
 30
0.0
 42
1.0
  0
VERTEX
  5
3526
330
3524
100
AcDbEntity
  8
LOGO
 62
     5
100
AcDbVertex
100
AcDb2dVertex
 10
-1122.594611149191
 20
38.81988688068453
 30
0.0
 42
1.0
  0
SEQEND
  5
3527
330
3524
100
AcDbEntity
  8
LOGO
 62
     5
  0
SOLID
  5
3528
330
20EF
100
AcDbEntity
  8
LOGO
 62
     5
100
AcDbTrace
 10
-1122.826751217355
 20
40.66481199792029
 30
0.0
 11
-1122.365519938046
 21
40.66481199792029
 31
0.0
 12
-1122.826751217355
 22
37.66680868241306
 32
0.0
 13
-1122.365519938046
 23
37.66680868241306
 33
0.0
  0
SOLID
  5
3529
330
20EF
100
AcDbEntity
  8
LOGO
 62
     5
100
AcDbTrace
 10
-1121.827401404476
 20
39.97296507895671
 30
0.0
 11
-1121.366170125168
 21
39.97296507895671
 31
0.0
 12
-1121.827401404476
 22
37.66680868241306
 32
0.0
 13
-1121.366170125168
 23
37.66680868241306
 33
0.0
  0
SOLID
  5
352A
330
20EF
100
AcDbEntity
  8
LOGO
 62
     5
100
AcDbTrace
 10
-1120.44370756655
 20
39.05050252033912
 30
0.0
 11
-1119.982476287241
 21
39.05050252033912
 31
0.0
 12
-1120.44370756655
 22
37.66680868241306
 32
0.0
 13
-1119.982476287241
 23
37.66680868241306
 33
0.0
  0
SOLID
  5
352B
330
20EF
100
AcDbEntity
  8
LOGO
 62
     5
100
AcDbTrace
 10
-1119.060013728624
 20
39.05050252033912
 30
0.0
 11
-1118.598782449315
 21
39.05050252033912
 31
0.0
 12
-1119.060013728624
 22
37.66680868241235
 32
0.0
 13
-1118.598782449315
 23
37.66680868241235
 33
0.0
  0
SOLID
  5
352C
330
20EF
100
AcDbEntity
  8
LOGO
 62
     5
100
AcDbTrace
 10
-1128.054069798274
 20
40.29582697447303
 30
0.0
 11
-1127.592838518964
 21
40.29582697447303
 31
0.0
 12
-1128.054069798274
 22
40.66481199792029
 32
0.0
 13
-1127.592838518964
 23
40.66481199792029
 33
0.0
  0
SOLID
  5
352D
330
20EF
100
AcDbEntity
  8
LOGO
 62
     5
100
AcDbTrace
 10
-1128.054069798274
 20
39.97296507895671
 30
0.0
 11
-1127.592838518964
 21
39.97296507895671
 31
0.0
 12
-1128.054069798274
 22
37.66680868241235
 32
0.0
 13
-1127.592838518964
 23
37.66680868241306
 33
0.0
  0
SOLID
  5
352E
330
20EF
100
AcDbEntity
  8
LOGO
 62
     5
100
AcDbTrace
 10
-1123.518552013191
 20
42.27912147550076
 30
0.0
 11
-1122.180981303195
 21
42.27912147550076
 31
0.0
 12
-1123.518552013191
 22
49.04384690536274
 32
0.0
 13
-1122.180981303195
 23
53.94827284201314
 33
0.0
  0
SOLID
  5
352F
330
20EF
100
AcDbEntity
  8
LOGO
 62
     5
100
AcDbTrace
 10
-1121.627503768024
 20
54.96298165649233
 30
0.0
 11
-1120.289933058029
 21
54.96298165649303
 31
0.0
 12
-1121.627503768024
 22
43.29383028997995
 32
0.0
 13
-1120.289933058029
 23
48.19825622663024
 33
0.0
  0
SOLID
  5
3530
330
20EF
100
AcDbEntity
  8
LOGO
 62
     2
100
AcDbTrace
 10
-1122.180981303195
 20
54.96298165649233
 30
0.0
 11
-1121.627503768024
 21
54.96298165649233
 31
0.0
 12
-1122.180981303195
 22
42.27912147550076
 32
0.0
 13
-1121.627503768024
 23
42.27912147550076
 33
0.0
  0
SOLID
  5
3531
330
20EF
100
AcDbEntity
  8
LOGO
 62
     5
100
AcDbTrace
 10
-1121.627503768024
 20
43.29383028997995
 30
0.0
 11
-1120.289933058029
 21
48.19825622663024
 31
0.0
 12
-1115.262512113563
 22
54.96298165649303
 32
0.0
 13
-1116.600082823558
 23
54.96298165649303
 33
0.0
  0
SOLID
  5
3532
330
20EF
100
AcDbEntity
  8
LOGO
 62
     5
100
AcDbTrace
 10
-1121.627503768024
 20
42.27912147550076
 30
0.0
 11
-1120.289933058029
 21
42.27912147550076
 31
0.0
 12
-1115.262512113563
 22
53.94827284201314
 32
0.0
 13
-1116.600082823558
 23
49.04384690536274
 33
0.0
  0
SOLID
  5
3533
330
20EF
100
AcDbEntity
  8
LOGO
 62
     2
100
AcDbTrace
 10
-1122.180981303195
 20
42.27912147550076
 30
0.0
 11
-1121.627503768024
 21
42.27912147550076
 31
0.0
 12
-1115.262512113563
 22
54.96298165649303
 32
0.0
 13
-1114.709034578392
 23
54.96298165649233
 33
0.0
  0
LINE
  5
3534
330
20EF
100
AcDbEntity
  8
LOGO
 62
     4
100
AcDbLine
 10
-992.3309202519815
 20
38.68330760795404
 30
0.0
 11
-992.3309202519815
 21
27.34028360795353
 31
0.0
  0
LINE
  5
3535
330
20EF
100
AcDbEntity
  8
LOGO
 62
     4
100
AcDbLine
 10
-1012.954600251981
 20
38.68330760795404
 30
0.0
 11
-1012.954600251981
 21
27.34028360795353
 31
0.0
  0
LINE
  5
3536
330
20EF
100
AcDbEntity
  8
LOGO
 62
     4
100
AcDbLine
 10
-992.3309202519815
 20
27.34028360795353
 30
0.0
 11
-1012.954600251981
 21
27.34028360795353
 31
0.0
  0
LINE
  5
3537
330
20EF
100
AcDbEntity
  8
LOGO
 62
     4
100
AcDbLine
 10
-993.0349947673725
 20
52.60429160795355
 30
0.0
 11
-1023.038052278634
 21
52.60429160795355
 31
0.0
  0
LINE
  5
3538
330
20EF
100
AcDbEntity
  8
LOGO
 62
     4
100
AcDbLine
 10
-993.0349947673725
 20
43.32363560795367
 30
0.0
 11
-1023.038052278634
 21
43.32363560795367
 31
0.0
  0
LINE
  5
3539
330
20EF
100
AcDbEntity
  8
LOGO
 62
     4
100
AcDbLine
 10
-1023.038052278634
 20
52.60429160795355
 30
0.0
 11
-1023.038052278634
 21
43.32363560795367
 31
0.0
  0
LINE
  5
353A
330
20EF
100
AcDbEntity
  8
LOGO
 62
     4
100
AcDbLine
 10
-993.0349947673725
 20
52.60429160795355
 30
0.0
 11
-993.0349947673725
 21
43.32363560795367
 31
0.0
  0
LINE
  5
353B
330
20EF
100
AcDbEntity
  8
LOGO
 62
     4
100
AcDbLine
 10
-1003.092230387844
 20
43.32363560795367
 30
0.0
 11
-1003.092230387844
 21
38.68330760795404
 31
0.0
  0
TEXT
  5
353C
330
20EF
100
AcDbEntity
  8
LOGO
  6
Continuous
 62
     7
100
AcDbText
 10
-1020.908930680294
 20
45.26095897963604
 30
0.0
 40
5.099999999999999
  1
MAF300L
100
AcDbText
  0
LINE
  5
353D
330
20EF
100
AcDbEntity
  8
LOGO
 62
     4
100
AcDbLine
 10
-992.3309202519815
 20
38.68330760795404
 30
0.0
 11
-1012.954600251981
 21
38.68330760795404
 31
0.0
  0
TEXT
  5
353E
330
20EF
100
AcDbEntity
  8
LOGO
  6
Continuous
100
AcDbText
 10
-1007.469361259646
 20
28.94132739211237
 30
202.7463017507971
 40
2.38
  1
Model
100
AcDbText
  0
TEXT
  5
353F
330
20EF
100
AcDbEntity
  8
LOGO
100
AcDbText
 10
-1008.08700292483
 20
33.24303428866902
 30
202.7463017507971
 40
3.867499999999999
  1
型號
  7
DAYUS
100
AcDbText
  0
LINE
  5
3540
330
20EF
100
AcDbEntity
  8
LOGO
  6
Continuous
 62
     7
100
AcDbLine
 10
-990.4969604747595
 20
47.9310900577115
 30
0.0
 11
-986.3989614212501
 21
47.9310900577115
 31
0.0
  0
LINE
  5
3541
330
20EF
100
AcDbEntity
  8
LOGO
 62
     4
100
AcDbLine
 10
-957.7674526836791
 20
38.68330760795404
 30
0.0
 11
-957.7674526836791
 21
27.34028360795353
 31
0.0
  0
LINE
  5
3542
330
20EF
100
AcDbEntity
  8
LOGO
 62
     4
100
AcDbLine
 10
-987.9945893217955
 20
38.68330760795404
 30
0.0
 11
-987.9945893217955
 21
27.34028360795353
 31
0.0
  0
LINE
  5
3543
330
20EF
100
AcDbEntity
  8
LOGO
 62
     4
100
AcDbLine
 10
-957.7674526836791
 20
27.34028360795353
 30
0.0
 11
-987.9945893217955
 21
27.34028360795353
 31
0.0
  0
LINE
  5
3544
330
20EF
100
AcDbEntity
  8
LOGO
 62
     4
100
AcDbLine
 10
-957.7604199588513
 20
52.60429160795355
 30
0.0
 11
-982.2852924364903
 21
52.60429160795355
 31
0.0
  0
LINE
  5
3545
330
20EF
100
AcDbEntity
  8
LOGO
 62
     4
100
AcDbLine
 10
-957.7604199588513
 20
43.32363560795367
 30
0.0
 11
-982.2852924364903
 21
43.32363560795367
 31
0.0
  0
LINE
  5
3546
330
20EF
100
AcDbEntity
  8
LOGO
 62
     4
100
AcDbLine
 10
-982.2852924364903
 20
52.60429160795355
 30
0.0
 11
-982.2852924364903
 21
43.32363560795367
 31
0.0
  0
LINE
  5
3547
330
20EF
100
AcDbEntity
  8
LOGO
 62
     4
100
AcDbLine
 10
-957.7604199588513
 20
52.60429160795355
 30
0.0
 11
-957.7604199588513
 21
43.32363560795367
 31
0.0
  0
LINE
  5
3548
330
20EF
100
AcDbEntity
  8
LOGO
 62
     4
100
AcDbLine
 10
-970.0228561976704
 20
43.32363560795367
 30
0.0
 11
-970.0228561976704
 21
38.68330760795404
 31
0.0
  0
TEXT
  5
3549
330
20EF
100
AcDbEntity
  8
LOGO
  6
Continuous
 62
     7
100
AcDbText
 10
-974.2209265156956
 20
45.26095897963604
 30
0.0
 40
5.099999999999999
  1
*A
  7
DAYUS
100
AcDbText
  0
LINE
  5
354A
330
20EF
100
AcDbEntity
  8
LOGO
 62
     4
100
AcDbLine
 10
-957.7674526836791
 20
38.68330760795404
 30
0.0
 11
-987.9945893217955
 21
38.68330760795404
 31
0.0
  0
TEXT
  5
354B
330
20EF
100
AcDbEntity
  8
LOGO
  6
Continuous
100
AcDbText
 10
-981.1949294211737
 20
28.94132739211237
 30
202.7463017507971
 40
2.38
  1
Bore size
100
AcDbText
  0
TEXT
  5
354C
330
20EF
100
AcDbEntity
  8
LOGO
100
AcDbText
 10
-987.3295431672859
 20
33.24303428866902
 30
202.7463017507971
 40
3.867499999999999
  1
配管口徑代號
  7
DAYUS
100
AcDbText
  0
TEXT
  5
354D
330
20EF
100
AcDbEntity
  8
LOGO
100
AcDbText
 10
-1063.897303157578
 20
26.40808106189988
 30
0.0
 40
3.093999999999999
  1
10806271
 41
0.7
  7
CHINESET
 72
     1
 11
-1056.626403157578
 21
26.40808106189988
 31
0.0
100
AcDbText
  0
LINE
  5
354E
330
20EF
100
AcDbEntity
  8
LOGO
 62
     4
100
AcDbLine
 10
-1047.024487050558
 20
30.94942760795435
 30
0.0
 11
-1047.024487050556
 21
24.76232360795388
 31
0.0
  0
LINE
  5
354F
330
20EF
100
AcDbEntity
  8
LOGO
 62
     4
100
AcDbLine
 10
-1047.024487050558
 20
30.94942760795435
 30
0.0
 11
-1065.588487050556
 21
30.94942760795435
 31
0.0
  0
LINE
  5
3550
330
20EF
100
AcDbEntity
  8
LOGO
  6
AM_ISO08W050x2
 48
0.3
100
AcDbLine
 10
-1082.960142164529
 20
46.42380473831977
 30
0.0
 11
-1078.007995009848
 21
46.42380473831977
 31
0.0
1001
GENIUS_GENOREF_13
1005
3565
  0
LINE
  5
3551
330
20EF
100
AcDbEntity
  8
LOGO
  6
AM_ISO08W050x2
 48
0.3
100
AcDbLine
 10
-1080.484068587189
 20
43.94773116097944
 30
0.0
 11
-1080.484068587189
 21
48.89987831566028
 31
0.0
1001
GENIUS_GENOREF_13
1005
3564
  0
LINE
  5
3552
330
20EF
100
AcDbEntity
  8
LOGO
  6
CENTER
 48
0.5
100
AcDbLine
 10
-1075.277877035327
 20
46.42380473831977
 30
0.0
 11
-1068.629589418747
 21
46.42380473831977
 31
0.0
1001
GENIUS_GENOREF_13
1005
3563
  0
LINE
  5
3553
330
20EF
100
AcDbEntity
  8
LOGO
  6
Continuous
 62
     7
100
AcDbLine
 10
-954.9929598764485
 20
47.9310900577115
 30
0.0
 11
-950.8949608229393
 21
47.9310900577115
 31
0.0
  0
LINE
  5
3554
330
20EF
100
AcDbEntity
  8
LOGO
 62
     4
100
AcDbLine
 10
-920.1581492479999
 20
38.68330760795404
 30
0.0
 11
-920.1581492479999
 21
27.34028360795353
 31
0.0
  0
LINE
  5
3555
330
20EF
100
AcDbEntity
  8
LOGO
 62
     4
100
AcDbLine
 10
-950.3852858861163
 20
38.68330760795404
 30
0.0
 11
-950.3852858861163
 21
27.34028360795353
 31
0.0
  0
LINE
  5
3556
330
20EF
100
AcDbEntity
  8
LOGO
 62
     4
100
AcDbLine
 10
-920.1581492479999
 20
27.34028360795353
 30
0.0
 11
-950.3852858861163
 21
27.34028360795353
 31
0.0
  0
LINE
  5
3557
330
20EF
100
AcDbEntity
  8
LOGO
 62
     4
100
AcDbLine
 10
-931.9670664221161
 20
52.60429160795355
 30
0.0
 11
-948.7107041507151
 21
52.60429160795355
 31
0.0
  0
LINE
  5
3558
330
20EF
100
AcDbEntity
  8
LOGO
 62
     4
100
AcDbLine
 10
-931.9670664221161
 20
43.32363560795367
 30
0.0
 11
-948.7107041507151
 21
43.32363560795367
 31
0.0
  0
LINE
  5
3559
330
20EF
100
AcDbEntity
  8
LOGO
 62
     4
100
AcDbLine
 10
-948.7107041507151
 20
52.60429160795355
 30
0.0
 11
-948.7107041507151
 21
43.32363560795367
 31
0.0
  0
LINE
  5
355A
330
20EF
100
AcDbEntity
  8
LOGO
 62
     4
100
AcDbLine
 10
-931.9670664221161
 20
52.60429160795355
 30
0.0
 11
-931.9670664221161
 21
43.32363560795367
 31
0.0
  0
LINE
  5
355B
330
20EF
100
AcDbEntity
  8
LOGO
 62
     4
100
AcDbLine
 10
-936.4482679118953
 20
43.32363560795367
 30
0.0
 11
-936.4482679118953
 21
38.68330760795404
 31
0.0
  0
TEXT
  5
355C
330
20EF
100
AcDbEntity
  8
LOGO
  6
Continuous
 62
     7
100
AcDbText
 10
-942.5195996409781
 20
45.26095897963604
 30
0.0
 40
5.099999999999999
  1
D
  7
DAYUS
100
AcDbText
  0
LINE
  5
355D
330
20EF
100
AcDbEntity
  8
LOGO
 62
     4
100
AcDbLine
 10
-920.1581492479999
 20
38.68330760795404
 30
0.0
 11
-950.3852858861163
 21
38.68330760795404
 31
0.0
  0
TEXT
  5
355E
330
20EF
100
AcDbEntity
  8
LOGO
  6
Continuous
100
AcDbText
 10
-947.3321471961195
 20
28.94132739211237
 30
202.7463017507971
 40
2.38
  1
Auto draim valve
100
AcDbText
  0
TEXT
  5
355F
330
20EF
100
AcDbEntity
  8
LOGO
100
AcDbText
 10
-947.037417230385
 20
33.24303428866902
 30
202.7463017507971
 40
3.867499999999999
  1
自動排水閥
  7
DAYUS
100
AcDbText
  0
LWPOLYLINE
  5
3560
330
20EF
100
AcDbEntity
  8
0
  6
AM_ISO08W050
 62
     3
100
AcDbPolyline
 90
        4
 70
     1
 43
0.0
 10
-1076.365149207127
 20
141.9932878217213
 10
-923.0432518943327
 20
141.9932878217213
 10
-923.0432518943327
 20
71.97522177383132
 10
-1076.365149207127
 20
71.97522177383132
  0
TEXT
  5
3561
330
20EF
100
AcDbEntity
  8
0
100
AcDbText
 10
-1077.179535670728
 20
144.9929376723147
 30
0.0
 40
8.0
  1
Auto drain (Code-D)
100
AcDbText
  0
POINT
  5
3563
330
20EF
100
AcDbEntity
  8
0
 60
     1
100
AcDbPoint
 10
-2413.184214106412
 20
-816.6660499671646
 30
0.0
1001
GENIUS_GENOBJ-N-CRS_13
1002
{
1000
OWNER
1000
GEN
1002
}
1001
GENIUS_GENOLIS_13
1002
{
1000
ENT
1005
0
1005
0
1005
0
1005
3552
1002
}
1001
GENIUS_GENOENT_13
1002
{
1000
MYREF
1005
3563
1002
}
1002
{
1000
GRP
1005
0
1002
}
1001
GENIUS_GENODEF_13
1002
{
1000
HIER
1070
    10
1002
}
1002
{
1000
MANEDIT
1070
     1
1002
}
1002
{
1000
NOSEL
1070
     0
1002
}
1002
{
1000
BEHIND
1070
     0
1002
}
1002
{
1000
OTHER
1070
     0
1002
}
1002
{
1000
REACTOR
1002
}
  0
POINT
  5
3564
330
20EF
100
AcDbEntity
  8
0
 60
     1
100
AcDbPoint
 10
-2424.508799329267
 20
-807.7904634885282
 30
0.0
1001
GENIUS_GENOBJ-N-CRS_13
1002
{
1000
OWNER
1000
GEN
1002
}
1001
GENIUS_GENOLIS_13
1002
{
1000
ENT
1005
0
1005
0
1005
0
1005
3551
1002
}
1001
GENIUS_GENOENT_13
1002
{
1000
MYREF
1005
3564
1002
}
1002
{
1000
GRP
1005
0
1002
}
1001
GENIUS_GENODEF_13
1002
{
1000
HIER
1070
    10
1002
}
1002
{
1000
MANEDIT
1070
     1
1002
}
1002
{
1000
NOSEL
1070
     0
1002
}
1002
{
1000
BEHIND
1070
     0
1002
}
1002
{
1000
OTHER
1070
     0
1002
}
1002
{
1000
REACTOR
1002
}
  0
POINT
  5
3565
330
20EF
100
AcDbEntity
  8
0
 60
     1
100
AcDbPoint
 10
-2418.150125631429
 20
-816.6660499671646
 30
0.0
1001
GENIUS_GENOBJ-N-CRS_13
1002
{
1000
OWNER
1000
GEN
1002
}
1001
GENIUS_GENOLIS_13
1002
{
1000
ENT
1005
0
1005
0
1005
0
1005
3550
1002
}
1001
GENIUS_GENOENT_13
1002
{
1000
MYREF
1005
3565
1002
}
1002
{
1000
GRP
1005
0
1002
}
1001
GENIUS_GENODEF_13
1002
{
1000
HIER
1070
    10
1002
}
1002
{
1000
MANEDIT
1070
     1
1002
}
1002
{
1000
NOSEL
1070
     0
1002
}
1002
{
1000
BEHIND
1070
     0
1002
}
1002
{
1000
OTHER
1070
     0
1002
}
1002
{
1000
REACTOR
1002
}
  0
INSERT
  5
37A0
330
20EF
100
AcDbEntity
  8
0
100
AcDbBlockReference
  2
A$C05BB03F9
 10
-1076.315821214697
 20
160.0707127647401
 30
0.0
  0
INSERT
  5
3829
330
20EF
100
AcDbEntity
  8
0
100
AcDbBlockReference
  2
A$C2E9102B8
 10
-1047.650271375325
 20
78.38144846620696
 30
0.0
  0
ENDSEC
  0
SECTION
  2
OBJECTS
  0
DICTIONARY
  5
20DD
330
0
100
AcDbDictionary
281
     1
  3
ACAD_COLOR
350
2967
  3
ACAD_GROUP
350
20DE
  3
ACAD_LAYOUT
350
20EA
  3
ACAD_MATERIAL
350
2966
  3
ACAD_MLINESTYLE
350
20E7
  3
ACAD_PLOTSETTINGS
350
20E9
  3
ACAD_PLOTSTYLENAME
350
20DF
  3
ACAD_TABLESTYLE
350
2968
  3
ACDBHEADERROUNDTRIPXREC
350
3903
  3
AcDbVariableDictionary
350
2314
  3
AcmDictionary
350
2336
  3
AMG
350
231C
  3
AMGSNAPSETTINGS
350
23EA
  3
DWGPROPS
350
3902
  0
DICTIONARY
  5
2A30
330
20D3
100
AcDbDictionary
280
     1
281
     1
  3
ACAD_LAYERFILTERS
360
368B
  3
ACAD_LAYERSTATES
360
2A31
  3
ACLYDICTIONARY
360
368A
  0
DICTIONARY
  5
2241
330
20EF
100
AcDbDictionary
280
     1
281
     1
  3
ACAD_INDEX
360
382A
  3
ACAD_LAYOUTSELFREF
360
294A
  3
ACAD_SORTENTS
360
36F5
  0
DICTIONARY
  5
2243
330
20EB
100
AcDbDictionary
280
     1
281
     1
  3
ACAD_LAYOUTSELFREF
360
2949
  0
DICTIONARY
  5
379C
330
3760
100
AcDbDictionary
280
     1
281
     1
  3
ACAD_SORTENTS
360
379D
  0
DICTIONARY
  5
3825
330
37C9
100
AcDbDictionary
280
     1
281
     1
  3
ACAD_SORTENTS
360
3826
  0
DICTIONARY
  5
2967
102
{ACAD_REACTORS
330
20DD
102
}
330
20DD
100
AcDbDictionary
281
     1
  0
DICTIONARY
  5
20DE
102
{ACAD_REACTORS
330
20DD
102
}
330
20DD
100
AcDbDictionary
281
     1
  0
DICTIONARY
  5
20EA
102
{ACAD_REACTORS
330
20DD
102
}
330
20DD
100
AcDbDictionary
281
     1
  3
Model
350
20F2
  3
配置1
350
20EE
  0
DICTIONARY
  5
2966
102
{ACAD_REACTORS
330
20DD
102
}
330
20DD
100
AcDbDictionary
281
     1
  0
DICTIONARY
  5
20E7
102
{ACAD_REACTORS
330
20DD
102
}
330
20DD
100
AcDbDictionary
281
     1
  3
Standard
350
20E8
  0
DICTIONARY
  5
20E9
102
{ACAD_REACTORS
330
20DD
102
}
330
20DD
100
AcDbDictionary
281
     1
  0
ACDBDICTIONARYWDFLT
  5
20DF
102
{ACAD_REACTORS
330
20DD
102
}
330
20DD
100
AcDbDictionary
281
     1
  3
Normal
350
20E0
100
AcDbDictionaryWithDefault
340
20E0
1001
ACAD
1000
TREAT_AS_HARD
1070
     0
  0
DICTIONARY
  5
2968
102
{ACAD_REACTORS
330
20DD
102
}
330
20DD
100
AcDbDictionary
281
     1
  3
Standard
350
2969
  0
DICTIONARY
  5
3903
102
{ACAD_REACTORS
330
20DD
102
}
330
20DD
100
AcDbDictionary
281
     1
  0
DICTIONARY
  5
2314
102
{ACAD_REACTORS
330
20DD
102
}
330
20DD
100
AcDbDictionary
281
     1
  3
CTABLESTYLE
350
29EA
  3
DIMASSOC
350
2315
  3
INDEXCTL
350
2373
  3
PROJECTNAME
350
3884
  0
DICTIONARY
  5
2336
102
{ACAD_REACTORS
330
20DD
102
}
330
20DD
100
AcDbDictionary
281
     1
  3
AcmStdDictionary
350
233C
  3
AMDTSECTSYM_ARROWCOLOR
350
29DE
  0
DICTIONARY
  5
231C
102
{ACAD_REACTORS
330
20DD
102
}
330
20DD
100
AcDbDictionary
281
     1
  0
DICTIONARY
  5
23EA
102
{ACAD_REACTORS
330
20DD
102
}
330
20DD
100
AcDbDictionary
281
     1
  0
XRECORD
  5
3902
102
{ACAD_REACTORS
330
20DD
102
}
330
20DD
100
AcDbXrecord
280
     1
  1
DWGPROPS COOKIE
  2

  3

  4

  6

  7

  8

  9

300
AmdtFileType=84
301
=
302
=
303
=
304
=
305
=
306
=
307
=
308
=
309
=
 40
1.0517328125
 41
2451457.340116412
 42
2454649.413993414
  1

 90
        1
  0
DICTIONARY
  5
368B
102
{ACAD_REACTORS
330
2A30
102
}
330
2A30
100
AcDbDictionary
281
     1
  0
DICTIONARY
  5
2A31
102
{ACAD_REACTORS
330
2A30
102
}
330
2A30
100
AcDbDictionary
281
     1
  0
DICTIONARY
  5
368A
102
{ACAD_REACTORS
330
2A30
102
}
330
2A30
100
AcDbDictionary
281
     1
1001
ACAD
1000
<All
  0
DICTIONARY
  5
382A
102
{ACAD_REACTORS
330
2241
102
}
330
2241
100
AcDbDictionary
281
     1
  3
*A1
350
382B
  0
XRECORD
  5
294A
102
{ACAD_REACTORS
330
2241
102
}
330
2241
100
AcDbXrecord
280
     1
340
20EF
  0
SORTENTSTABLE
  5
36F5
102
{ACAD_REACTORS
330
2241
102
}
330
2241
100
AcDbSortentsTable
330
20EF
331
6EA
  5
6EA
331
7AA
  5
7AA
331
7E2
  5
7E2
331
30F8
  5
30F8
331
307A
  5
307A
331
30B9
  5
30B9
331
7EA
  5
7EA
331
355C
  5
355C
331
3100
  5
3100
331
3082
  5
3082
331
30C1
  5
30C1
331
34E6
  5
34E6
331
352D
  5
352D
331
34EE
  5
34EE
331
30C9
  5
30C9
331
308A
  5
308A
331
3108
  5
3108
331
3535
  5
3535
331
3110
  5
3110
331
3092
  5
3092
331
31A7
  5
31A7
331
34F6
  5
34F6
331
2FBF
  5
2FBF
331
2FF6
  5
2FF6
331
304D
  5
304D
331
34FE
  5
34FE
331
2FFE
  5
2FFE
331
3055
  5
3055
331
3006
  5
3006
331
300E
  5
300E
331
7F2
  5
7F2
331
683
  5
683
331
7FA
  5
7FA
331
3118
  5
3118
331
309A
  5
309A
331
305B
  5
305B
331
6E3
  5
6E3
331
3506
  5
3506
331
353D
  5
353D
331
3063
  5
3063
331
30A2
  5
30A2
331
3545
  5
3545
331
30E9
  5
30E9
331
306B
  5
306B
331
30AA
  5
30AA
331
2FD7
  5
2FD7
331
3016
  5
3016
331
354D
  5
354D
331
30B2
  5
30B2
331
3073
  5
3073
331
30F1
  5
30F1
331
3516
  5
3516
331
301E
  5
301E
331
2FDF
  5
2FDF
331
3555
  5
3555
331
351E
  5
351E
331
3026
  5
3026
331
2FE7
  5
2FE7
331
2C29
  5
2C29
331
2FB0
  5
2FB0
331
2FEF
  5
2FEF
331
6EB
  5
6EB
331
7AB
  5
7AB
331
7E3
  5
7E3
331
30BA
  5
30BA
331
7EB
  5
7EB
331
307B
  5
307B
331
30F9
  5
30F9
331
355D
  5
355D
331
3101
  5
3101
331
3083
  5
3083
331
30C2
  5
30C2
331
34E7
  5
34E7
331
34EF
  5
34EF
331
3109
  5
3109
331
308B
  5
308B
331
30CA
  5
30CA
331
352E
  5
352E
331
2FF7
  5
2FF7
331
3536
  5
3536
331
3111
  5
3111
331
3093
  5
3093
331
34F7
  5
34F7
331
2FC0
  5
2FC0
331
304E
  5
304E
331
2FFF
  5
2FFF
331
34FF
  5
34FF
331
3007
  5
3007
331
3056
  5
3056
331
2D21
  5
2D21
331
300F
  5
300F
331
7F3
  5
7F3
331
7FB
  5
7FB
331
684
  5
684
331
3119
  5
3119
331
309B
  5
309B
331
31A8
  5
31A8
331
305C
  5
305C
331
30A3
  5
30A3
331
3064
  5
3064
331
353E
  5
353E
331
3546
  5
3546
331
350F
  5
350F
331
30AB
  5
30AB
331
306C
  5
306C
331
30EA
  5
30EA
331
2FD8
  5
2FD8
331
3017
  5
3017
331
354E
  5
354E
331
30F2
  5
30F2
331
3074
  5
3074
331
30B3
  5
30B3
331
2FE0
  5
2FE0
331
301F
  5
301F
331
3556
  5
3556
331
3027
  5
3027
331
2FE8
  5
2FE8
331
6EC
  5
6EC
331
7E4
  5
7E4
331
30FA
  5
30FA
331
7EC
  5
7EC
331
307C
  5
307C
331
30BB
  5
30BB
331
34E8
  5
34E8
331
30C3
  5
30C3
331
3084
  5
3084
331
3102
  5
3102
331
355E
  5
355E
331
2FF0
  5
2FF0
331
352F
  5
352F
331
34F0
  5
34F0
331
30CB
  5
30CB
331
308C
  5
308C
331
310A
  5
310A
331
2FF8
  5
2FF8
331
34F8
  5
34F8
331
3112
  5
3112
331
3094
  5
3094
331
3537
  5
3537
331
2FC1
  5
2FC1
331
304F
  5
304F
331
3000
  5
3000
331
2FC9
  5
2FC9
331
3057
  5
3057
331
3008
  5
3008
331
675
  5
675
331
3500
  5
3500
331
311A
  5
311A
331
309C
  5
309C
331
305D
  5
305D
331
31A9
  5
31A9
331
30E3
  5
30E3
331
3065
  5
3065
331
30A4
  5
30A4
331
353F
  5
353F
331
3010
  5
3010
331
3547
  5
3547
331
30EB
  5
30EB
331
306D
  5
306D
331
30AC
  5
30AC
331
3510
  5
3510
331
2FD1
  5
2FD1
331
3018
  5
3018
331
354F
  5
354F
331
30B4
  5
30B4
331
3075
  5
3075
331
30F3
  5
30F3
331
3020
  5
3020
331
2FE1
  5
2FE1
331
3557
  5
3557
331
2FAA
  5
2FAA
331
2FE9
  5
2FE9
331
3028
  5
3028
331
7E5
  5
7E5
331
30BC
  5
30BC
331
7ED
  5
7ED
331
307D
  5
307D
331
30FB
  5
30FB
331
34E9
  5
34E9
331
3103
  5
3103
331
3085
  5
3085
331
3528
  5
3528
331
355F
  5
355F
331
2FF1
  5
2FF1
331
3030
  5
3030
331
34F1
  5
34F1
331
310B
  5
310B
331
308D
  5
308D
331
30CC
  5
30CC
331
3530
  5
3530
331
2FBA
  5
2FBA
331
2FF9
  5
2FF9
331
3113
  5
3113
331
3095
  5
3095
331
34F9
  5
34F9
331
2FC2
  5
2FC2
331
3050
  5
3050
331
3001
  5
3001
331
3009
  5
3009
331
676
  5
676
331
6DE
  5
6DE
331
3501
  5
3501
331
3538
  5
3538
331
311B
  5
311B
331
309D
  5
309D
331
31AA
  5
31AA
331
6E6
  5
6E6
331
305E
  5
305E
331
3540
  5
3540
331
30A5
  5
30A5
331
3066
  5
3066
331
30E4
  5
30E4
331
3011
  5
3011
331
3548
  5
3548
331
3511
  5
3511
331
306E
  5
306E
331
30AD
  5
30AD
331
30EC
  5
30EC
331
2FD2
  5
2FD2
331
2FDA
  5
2FDA
331
3019
  5
3019
331
3550
  5
3550
331
30F4
  5
30F4
331
3076
  5
3076
331
30B5
  5
30B5
331
2FE2
  5
2FE2
331
3021
  5
3021
331
3029
  5
3029
331
2FEA
  5
2FEA
331
7E6
  5
7E6
331
3558
  5
3558
331
30FC
  5
30FC
331
7EE
  5
7EE
331
307E
  5
307E
331
30BD
  5
30BD
331
3560
  5
3560
331
3529
  5
3529
331
34EA
  5
34EA
331
30C5
  5
30C5
331
3086
  5
3086
331
3104
  5
3104
331
3031
  5
3031
331
2FF2
  5
2FF2
331
3531
  5
3531
331
34F2
  5
34F2
331
30CD
  5
30CD
331
308E
  5
308E
331
310C
  5
310C
331
2FBB
  5
2FBB
331
2FFA
  5
2FFA
331
34FA
  5
34FA
331
3114
  5
3114
331
3096
  5
3096
331
3051
  5
3051
331
3002
  5
3002
331
300A
  5
300A
331
677
  5
677
331
6DF
  5
6DF
331
3502
  5
3502
331
311C
  5
311C
331
309E
  5
309E
331
6E7
  5
6E7
331
305F
  5
305F
331
31AB
  5
31AB
331
3539
  5
3539
331
3541
  5
3541
331
30E5
  5
30E5
331
3067
  5
3067
331
30A6
  5
30A6
331
350A
  5
350A
331
3012
  5
3012
331
3549
  5
3549
331
30ED
  5
30ED
331
306F
  5
306F
331
3512
  5
3512
331
2FD3
  5
2FD3
331
301A
  5
301A
331
2FDB
  5
2FDB
331
3551
  5
3551
331
351A
  5
351A
331
30B6
  5
30B6
331
3077
  5
3077
331
30F5
  5
30F5
331
3022
  5
3022
331
2FE3
  5
2FE3
331
2FEB
  5
2FEB
331
302A
  5
302A
331
7E7
  5
7E7
331
3559
  5
3559
331
3522
  5
3522
331
7EF
  5
7EF
331
307F
  5
307F
331
30BE
  5
30BE
331
30FD
  5
30FD
331
3561
  5
3561
331
34EB
  5
34EB
331
3105
  5
3105
331
3087
  5
3087
331
30C6
  5
30C6
331
352A
  5
352A
331
2FF3
  5
2FF3
331
34F3
  5
34F3
331
310D
  5
310D
331
308F
  5
308F
331
3532
  5
3532
331
2FBC
  5
2FBC
331
2FFB
  5
2FFB
331
3115
  5
3115
331
3097
  5
3097
331
34FB
  5
34FB
331
2CFD
  5
2CFD
331
3052
  5
3052
331
3003
  5
3003
331
300B
  5
300B
331
7F7
  5
7F7
331
6E0
  5
6E0
331
3058
  5
3058
331
353A
  5
353A
331
311D
  5
311D
331
3060
  5
3060
331
309F
  5
309F
331
31AC
  5
31AC
331
3542
  5
3542
331
350B
  5
350B
331
31B4
  5
31B4
331
30A7
  5
30A7
331
3068
  5
3068
331
30E6
  5
30E6
331
3013
  5
3013
331
354A
  5
354A
331
30EE
  5
30EE
331
3070
  5
3070
331
30AF
  5
30AF
331
3513
  5
3513
331
2FD4
  5
2FD4
331
2FDC
  5
2FDC
331
301B
  5
301B
331
3552
  5
3552
331
30F6
  5
30F6
331
30B7
  5
30B7
331
2FE4
  5
2FE4
331
3023
  5
3023
331
302B
  5
302B
331
2FEC
  5
2FEC
331
7A8
  5
7A8
331
7E8
  5
7E8
331
3078
  5
3078
331
355A
  5
355A
331
34E4
  5
34E4
331
30FE
  5
30FE
331
3080
  5
3080
331
30BF
  5
30BF
331
3523
  5
3523
331
352B
  5
352B
331
34EC
  5
34EC
331
30C7
  5
30C7
331
3088
  5
3088
331
3106
  5
3106
331
2FF4
  5
2FF4
331
3533
  5
3533
331
34F4
  5
34F4
331
3090
  5
3090
331
310E
  5
310E
331
2FBD
  5
2FBD
331
304B
  5
304B
331
2FFC
  5
2FFC
331
34FC
  5
34FC
331
3116
  5
3116
331
3053
  5
3053
331
3004
  5
3004
331
2FCD
  5
2FCD
331
300C
  5
300C
331
7F0
  5
7F0
331
3098
  5
3098
331
3059
  5
3059
331
3061
  5
3061
331
30A0
  5
30A0
331
31AD
  5
31AD
331
353B
  5
353B
331
3543
  5
3543
331
31B5
  5
31B5
331
30E7
  5
30E7
331
3069
  5
3069
331
30A8
  5
30A8
331
3014
  5
3014
331
354B
  5
354B
331
30EF
  5
30EF
331
3071
  5
3071
331
30B0
  5
30B0
331
3514
  5
3514
331
301C
  5
301C
331
3553
  5
3553
331
30F7
  5
30F7
331
2FDD
  5
2FDD
331
3024
  5
3024
331
2FE5
  5
2FE5
331
2FB6
  5
2FB6
331
2FED
  5
2FED
331
302C
  5
302C
331
6E9
  5
6E9
331
7A9
  5
7A9
331
7E1
  5
7E1
331
30B8
  5
30B8
331
3079
  5
3079
331
7E9
  5
7E9
331
355B
  5
355B
331
3524
  5
3524
331
3081
  5
3081
331
30C0
  5
30C0
331
30FF
  5
30FF
331
34E5
  5
34E5
331
34ED
  5
34ED
331
3107
  5
3107
331
3089
  5
3089
331
30C8
  5
30C8
331
352C
  5
352C
331
28E9
  5
28E9
331
3534
  5
3534
331
31A6
  5
31A6
331
310F
  5
310F
331
3091
  5
3091
331
34F5
  5
34F5
331
2FBE
  5
2FBE
331
2FF5
  5
2FF5
331
304C
  5
304C
331
34FD
  5
34FD
331
3117
  5
3117
331
2FFD
  5
2FFD
331
2FCE
  5
2FCE
331
3005
  5
3005
331
3054
  5
3054
331
300D
  5
300D
331
7F1
  5
7F1
331
7F9
  5
7F9
331
1AB1
  5
1AB1
331
3099
  5
3099
331
305A
  5
305A
331
30D0
  5
30D0
331
30A1
  5
30A1
331
3062
  5
3062
331
353C
  5
353C
331
3544
  5
3544
331
30A9
  5
30A9
331
306A
  5
306A
331
30E8
  5
30E8
331
354C
  5
354C
331
30F0
  5
30F0
331
3072
  5
3072
331
30B1
  5
30B1
331
3515
  5
3515
331
3015
  5
3015
331
3554
  5
3554
331
2FDE
  5
2FDE
331
301D
  5
301D
331
2FAF
  5
2FAF
331
2FE6
  5
2FE6
331
3025
  5
3025
331
302D
  5
302D
331
2FB7
  5
2FB7
331
2FEE
  5
2FEE
  0
XRECORD
  5
2949
102
{ACAD_REACTORS
330
2243
102
}
330
2243
100
AcDbXrecord
280
     1
340
20EB
  0
SORTENTSTABLE
  5
379D
102
{ACAD_REACTORS
330
379C
102
}
330
379C
100
AcDbSortentsTable
330
3760
  0
SORTENTSTABLE
  5
3826
102
{ACAD_REACTORS
330
3825
102
}
330
3825
100
AcDbSortentsTable
330
37C9
  0
LAYOUT
  5
20F2
102
{ACAD_XDICTIONARY
360
3906
102
}
102
{ACAD_REACTORS
330
20EA
102
}
330
20EA
100
AcDbPlotSettings
  1

  2
DWF eView (optimized for viewing).pc3
  4
ISO_A3_(297.00_x_420.00_MM)
  6

 40
5.793749809265136
 41
17.79375076293945
 42
5.79376220703125
 43
17.79376220703125
 44
297.0
 45
420.0
 46
14.76
 47
0.0
 48
0.0
 49
0.0
140
0.0
141
0.0
142
1.0
143
0.8045630428932227
 70
 11924
 72
     1
 73
     0
 74
     1
  7

 75
     0
147
1.242910681559499
148
1473.83480424092
149
-31.87320496922882
100
AcDbLayout
  1
Model
 70
     1
 71
     0
 10
0.0
 20
0.0
 11
12.0
 21
9.0
 12
0.0
 22
0.0
 32
0.0
 14
0.0
 24
0.0
 34
0.0
 15
0.0
 25
0.0
 35
0.0
146
0.0
 13
0.0
 23
0.0
 33
0.0
 16
1.0
 26
0.0
 36
0.0
 17
0.0
 27
1.0
 37
0.0
 76
     0
330
20EF
  0
LAYOUT
  5
20EE
102
{ACAD_XDICTIONARY
360
3904
102
}
102
{ACAD_REACTORS
330
20EA
102
}
330
20EA
100
AcDbPlotSettings
  1

  2
\\WINNT\EPSON Stylus Photo 750 單色
  4

  6

 40
0.0
 41
0.0
 42
0.0
 43
0.0
 44
0.0
 45
0.0
 46
0.0
 47
0.0
 48
0.0
 49
0.0
140
0.0
141
0.0
142
1.0
143
1.0
 70
   688
 72
     0
 73
     0
 74
     5
  7

 75
    16
147
1.0
148
0.0
149
0.0
100
AcDbLayout
  1
配置1
 70
     1
 71
     1
 10
0.0
 20
0.0
 11
420.0
 21
297.0
 12
0.0
 22
0.0
 32
0.0
 14
1.000000000000000E+20
 24
1.000000000000000E+20
 34
1.000000000000000E+20
 15
-1.000000000000000E+20
 25
-1.000000000000000E+20
 35
-1.000000000000000E+20
146
0.0
 13
0.0
 23
0.0
 33
0.0
 16
1.0
 26
0.0
 36
0.0
 17
0.0
 27
1.0
 37
0.0
 76
     0
330
20EB
  0
MLINESTYLE
  5
20E8
102
{ACAD_REACTORS
330
20E7
102
}
330
20E7
100
AcDbMlineStyle
  2
STANDARD
 70
     0
  3

 62
   256
 51
90.0
 52
90.0
 71
     2
 49
0.5
 62
   256
  6
BYLAYER
 49
-0.5
 62
   256
  6
BYLAYER
  0
ACDBPLACEHOLDER
  5
20E0
102
{ACAD_REACTORS
330
20DF
102
}
330
20DF
  0
TABLESTYLE
  5
2969
102
{ACAD_REACTORS
330
2968
102
}
330
2968
100
AcDbTableStyle
  3
Standard
 70
     0
 71
     0
 40
0.06
 41
0.06
280
     0
281
     0
  7
STANDARD
140
0.18
170
     2
 62
     0
 63
     7
283
     0
274
    -2
284
     1
 64
     0
275
    -2
285
     1
 65
     0
276
    -2
286
     1
 66
     0
277
    -2
287
     1
 67
     0
278
    -2
288
     1
 68
     0
279
    -2
289
     1
 69
     0
  7
STANDARD
140
0.25
170
     5
 62
     0
 63
     7
283
     0
274
    -2
284
     1
 64
     0
275
    -2
285
     1
 65
     0
276
    -2
286
     1
 66
     0
277
    -2
287
     1
 67
     0
278
    -2
288
     1
 68
     0
279
    -2
289
     1
 69
     0
  7
STANDARD
140
0.18
170
     5
 62
     0
 63
     7
283
     0
274
    -2
284
     1
 64
     0
275
    -2
285
     1
 65
     0
276
    -2
286
     1
 66
     0
277
    -2
287
     1
 67
     0
278
    -2
288
     1
 68
     0
279
    -2
289
     1
 69
     0
  0
DICTIONARYVAR
  5
29EA
102
{ACAD_REACTORS
330
2314
102
}
330
2314
100
DictionaryVariables
280
     0
  1
STANDARD
  0
DICTIONARYVAR
  5
2315
102
{ACAD_REACTORS
330
2314
102
}
330
2314
100
DictionaryVariables
280
     0
  1
1
  0
DICTIONARYVAR
  5
2373
102
{ACAD_REACTORS
330
2314
102
}
330
2314
100
DictionaryVariables
280
     0
  1
1
  0
DICTIONARYVAR
  5
3884
102
{ACAD_REACTORS
330
2314
102
}
330
2314
100
DictionaryVariables
280
     0
  1

  0
DICTIONARY
  5
233C
102
{ACAD_REACTORS
330
2336
102
}
330
2336
100
AcDbDictionary
281
     1
  0
XRECORD
  5
29DE
102
{ACAD_REACTORS
330
2336
102
}
330
2336
100
AcDbXrecord
280
     1
 90
-1023410169
  0
LAYER_INDEX
  5
382B
102
{ACAD_REACTORS
330
382A
102
}
330
382A
100
AcDbIndex
 40
2454649.413993414
100
AcDbLayerIndex
  8
0
360
382C
 90
       49
  8
DEFPOINTS
360
382D
 90
        0
  8
DIM
360
382E
 90
        7
  8
CENTER
360
382F
 90
       18
  8
LOGO
360
3830
 90
      103
  8
AM_VIS
360
3831
 90
      271
  8
AM_7
360
3832
 90
        8
  8
ASHADE
360
3834
 90
        9
  0
DICTIONARY
  5
3906
330
20F2
100
AcDbDictionary
280
     1
281
     1
  3
ACAD_XREC_ROUNDTRIP
360
3907
  0
DICTIONARY
  5
3904
330
20EE
100
AcDbDictionary
280
     1
281
     1
  3
ACAD_XREC_ROUNDTRIP
360
3905
  0
IDBUFFER
  5
382C
330
0
100
AcDbIdBuffer
330
676
330
677
330
683
330
684
330
6DE
330
6DF
330
6E0
330
6E3
330
6E6
330
6E7
330
6E9
330
6EA
330
6EB
330
6EC
330
7A8
330
7A9
330
7AA
330
7AB
330
7E1
330
7E2
330
7E3
330
7E4
330
7E5
330
7E6
330
7E7
330
7E8
330
7E9
330
7EA
330
7EB
330
7EC
330
7ED
330
7EE
330
7EF
330
7F0
330
7F1
330
7F2
330
7F3
330
7F7
330
7F9
330
7FA
330
7FB
330
31B5
330
3560
330
3561
330
3563
330
3564
330
3565
330
37A0
330
3829
  0
IDBUFFER
  5
382D
330
0
100
AcDbIdBuffer
  0
IDBUFFER
  5
382E
330
0
100
AcDbIdBuffer
330
28E9
330
2C29
330
2CFD
330
2D21
330
311A
330
311B
330
311C
  0
IDBUFFER
  5
382F
330
0
100
AcDbIdBuffer
330
675
330
1AB1
330
2FAA
330
2FBC
330
2FBD
330
2FBE
330
2FBF
330
2FC0
330
2FC1
330
2FC2
330
2FC9
330
2FD1
330
2FD2
330
2FD3
330
2FD4
330
2FD7
330
2FD8
330
311D
  0
IDBUFFER
  5
3830
330
0
100
AcDbIdBuffer
330
34E4
330
34E5
330
34E6
330
34E7
330
34E8
330
34E9
330
34EA
330
34EB
330
34EC
330
34ED
330
34EE
330
34EF
330
34F0
330
34F1
330
34F2
330
34F3
330
34F4
330
34F5
330
34F6
330
34F7
330
34F8
330
34F9
330
34FA
330
34FB
330
34FC
330
34FD
330
34FE
330
34FF
330
3500
330
3501
330
3502
330
3506
330
350A
330
350B
330
350F
330
3510
330
3511
330
3512
330
3513
330
3514
330
3515
330
3516
330
351A
330
351E
330
3522
330
3523
330
3524
330
3528
330
3529
330
352A
330
352B
330
352C
330
352D
330
352E
330
352F
330
3530
330
3531
330
3532
330
3533
330
3534
330
3535
330
3536
330
3537
330
3538
330
3539
330
353A
330
353B
330
353C
330
353D
330
353E
330
353F
330
3540
330
3541
330
3542
330
3543
330
3544
330
3545
330
3546
330
3547
330
3548
330
3549
330
354A
330
354B
330
354C
330
354D
330
354E
330
354F
330
3550
330
3551
330
3552
330
3553
330
3554
330
3555
330
3556
330
3557
330
3558
330
3559
330
355A
330
355B
330
355C
330
355D
330
355E
330
355F
  0
IDBUFFER
  5
3831
330
0
100
AcDbIdBuffer
330
2FDA
330
2FDB
330
2FDC
330
2FDD
330
2FDE
330
2FDF
330
2FE0
330
2FE1
330
2FE2
330
2FE3
330
2FE4
330
2FE5
330
2FE6
330
2FE7
330
2FE8
330
2FE9
330
2FEA
330
2FEB
330
2FEC
330
2FED
330
2FEE
330
2FEF
330
2FF0
330
2FF1
330
2FF2
330
2FF3
330
2FF4
330
2FF5
330
2FF6
330
2FF7
330
2FF8
330
2FF9
330
2FFA
330
2FFB
330
2FFC
330
2FFD
330
2FFE
330
2FFF
330
3000
330
3001
330
3002
330
3003
330
3004
330
3005
330
3006
330
3007
330
3008
330
3009
330
300A
330
300B
330
300C
330
300D
330
300E
330
300F
330
3010
330
3011
330
3012
330
3013
330
3014
330
3015
330
3016
330
3017
330
3018
330
3019
330
301A
330
301B
330
301C
330
301D
330
301E
330
301F
330
3020
330
3021
330
3022
330
3023
330
3024
330
3025
330
3026
330
3027
330
3028
330
3029
330
302A
330
302B
330
302C
330
302D
330
3030
330
3031
330
304B
330
304C
330
304D
330
304E
330
304F
330
3050
330
3051
330
3052
330
3053
330
3054
330
3055
330
3056
330
3057
330
3058
330
3059
330
305A
330
305B
330
305C
330
305D
330
305E
330
305F
330
3060
330
3061
330
3062
330
3063
330
3064
330
3065
330
3066
330
3067
330
3068
330
3069
330
306A
330
306B
330
306C
330
306D
330
306E
330
306F
330
3070
330
3071
330
3072
330
3073
330
3074
330
3075
330
3076
330
3077
330
3078
330
3079
330
307A
330
307B
330
307C
330
307D
330
307E
330
307F
330
3080
330
3081
330
3082
330
3083
330
3084
330
3085
330
3086
330
3087
330
3088
330
3089
330
308A
330
308B
330
308C
330
308D
330
308E
330
308F
330
3090
330
3091
330
3092
330
3093
330
3094
330
3095
330
3096
330
3097
330
3098
330
3099
330
309A
330
309B
330
309C
330
309D
330
309E
330
309F
330
30A0
330
30A1
330
30A2
330
30A3
330
30A4
330
30A5
330
30A6
330
30A7
330
30A8
330
30A9
330
30AA
330
30AB
330
30AC
330
30AD
330
30AF
330
30B0
330
30B1
330
30B2
330
30B3
330
30B4
330
30B5
330
30B6
330
30B7
330
30B8
330
30B9
330
30BA
330
30BB
330
30BC
330
30BD
330
30BE
330
30BF
330
30C0
330
30C1
330
30C2
330
30C3
330
30C5
330
30C6
330
30C7
330
30C8
330
30C9
330
30CA
330
30CB
330
30CC
330
30CD
330
30D0
330
30E3
330
30E4
330
30E5
330
30E6
330
30E7
330
30E8
330
30E9
330
30EA
330
30EB
330
30EC
330
30ED
330
30EE
330
30EF
330
30F0
330
30F1
330
30F2
330
30F3
330
30F4
330
30F5
330
30F6
330
30F7
330
30F8
330
30F9
330
30FA
330
30FB
330
30FC
330
30FD
330
30FE
330
30FF
330
3100
330
3101
330
3102
330
3103
330
3104
330
3105
330
3106
330
3107
330
3108
330
3109
330
310A
330
310B
330
310C
330
310D
330
310E
330
310F
330
3110
330
3111
330
3112
330
3113
330
3114
330
3115
330
3116
330
3117
330
3118
330
3119
  0
IDBUFFER
  5
3832
330
0
100
AcDbIdBuffer
330
2FAF
330
2FB0
330
2FB6
330
2FB7
330
2FBA
330
2FBB
330
2FCD
330
2FCE
  0
IDBUFFER
  5
3834
330
0
100
AcDbIdBuffer
330
31A6
330
31A7
330
31A8
330
31A9
330
31AA
330
31AB
330
31AC
330
31AD
330
31B4
  0
XRECORD
  5
3907
102
{ACAD_REACTORS
330
3906
102
}
330
3906
100
AcDbXrecord
280
     1
102
SHADEPLOT
 70
     0
102
SHADEPLOTRESLEVEL
 70
     2
102
SHADEPLOTCUSTOMDPI
 70
   300
  0
XRECORD
  5
3905
102
{ACAD_REACTORS
330
3904
102
}
330
3904
100
AcDbXrecord
280
     1
102
SHADEPLOT
 70
     0
102
SHADEPLOTRESLEVEL
 70
     2
102
SHADEPLOTCUSTOMDPI
 70
   300
  0
ENDSEC
  0
EOF
