  0
SECTION
  2
HEADER
  9
$ACADVER
  1
AC1015
  9
$ACADMAINTVER
 70
    20
  9
$DWGCODEPAGE
  3
ANSI_950
  9
$INSBASE
 10
0.0
 20
0.0
 30
0.0
  9
$EXTMIN
 10
-1473.863685110711
 20
31.8698695201241
 30
-0.0000000000000058
  9
$EXTMAX
 10
-1253.811625725413
 20
351.1579451006928
 30
0.0000000000000104
  9
$LIMMIN
 10
0.0
 20
0.0
  9
$LIMMAX
 10
420.0
 20
297.0
  9
$ORTHOMODE
 70
     1
  9
$REGENMODE
 70
     1
  9
$FILLMODE
 70
     1
  9
$QTEXTMODE
 70
     0
  9
$MIRRTEXT
 70
     1
  9
$LTSCALE
 40
3.0
  9
$ATTMODE
 70
     1
  9
$TEXTSIZE
 40
4.0
  9
$TRACEWID
 40
1.0
  9
$TEXTSTYLE
  7
CHINESET
  9
$CLAYER
  8
0
  9
$CELTYPE
  6
ByLayer
  9
$CECOLOR
 62
   256
  9
$CELTSCALE
 40
1.0
  9
$DISPSILH
 70
     0
  9
$DIMSCALE
 40
1.0
  9
$DIMASZ
 40
3.0
  9
$DIMEXO
 40
2.0
  9
$DIMDLI
 40
8.0
  9
$DIMRND
 40
0.0
  9
$DIMDLE
 40
0.0
  9
$DIMEXE
 40
2.0
  9
$DIMTP
 40
0.0
  9
$DIMTM
 40
0.0
  9
$DIMTXT
 40
3.0
  9
$DIMCEN
 40
2.5
  9
$DIMTSZ
 40
0.0
  9
$DIMTOL
 70
     0
  9
$DIMLIM
 70
     0
  9
$DIMTIH
 70
     0
  9
$DIMTOH
 70
     0
  9
$DIMSE1
 70
     0
  9
$DIMSE2
 70
     0
  9
$DIMTAD
 70
     1
  9
$DIMZIN
 70
     8
  9
$DIMBLK
  1

  9
$DIMASO
 70
     1
  9
$DIMSHO
 70
     1
  9
$DIMPOST
  1

  9
$DIMAPOST
  1

  9
$DIMALT
 70
     0
  9
$DIMALTD
 70
     4
  9
$DIMALTF
 40
0.0394
  9
$DIMLFAC
 40
1.0
  9
$DIMTOFL
 70
     0
  9
$DIMTVP
 40
0.0
  9
$DIMTIX
 70
     0
  9
$DIMSOXD
 70
     0
  9
$DIMSAH
 70
     0
  9
$DIMBLK1
  1

  9
$DIMBLK2
  1

  9
$DIMSTYLE
  2
STANDARD
  9
$DIMCLRD
 70
   256
  9
$DIMCLRE
 70
   256
  9
$DIMCLRT
 70
   256
  9
$DIMTFAC
 40
1.0
  9
$DIMGAP
 40
1.0
  9
$DIMJUST
 70
     0
  9
$DIMSD1
 70
     0
  9
$DIMSD2
 70
     0
  9
$DIMTOLJ
 70
     1
  9
$DIMTZIN
 70
     8
  9
$DIMALTZ
 70
     8
  9
$DIMALTTZ
 70
     8
  9
$DIMUPT
 70
     0
  9
$DIMDEC
 70
     2
  9
$DIMTDEC
 70
     8
  9
$DIMALTU
 70
     2
  9
$DIMALTTD
 70
     4
  9
$DIMTXSTY
  7
CHINESET
  9
$DIMAUNIT
 70
     0
  9
$DIMADEC
 70
     0
  9
$DIMALTRND
 40
0.0
  9
$DIMAZIN
 70
     2
  9
$DIMDSEP
 70
    46
  9
$DIMATFIT
 70
     1
  9
$DIMFRAC
 70
     0
  9
$DIMLDRBLK
  1

  9
$DIMLUNIT
 70
     2
  9
$DIMLWD
 70
    -2
  9
$DIMLWE
 70
    -2
  9
$DIMTMOVE
 70
     0
  9
$LUNITS
 70
     2
  9
$LUPREC
 70
     4
  9
$SKETCHINC
 40
1.0
  9
$FILLETRAD
 40
0.0
  9
$AUNITS
 70
     0
  9
$AUPREC
 70
     0
  9
$MENU
  1
.
  9
$ELEVATION
 40
0.0
  9
$PELEVATION
 40
0.0
  9
$THICKNESS
 40
0.0
  9
$LIMCHECK
 70
     0
  9
$CHAMFERA
 40
2.0
  9
$CHAMFERB
 40
2.0
  9
$CHAMFERC
 40
0.0
  9
$CHAMFERD
 40
0.0
  9
$SKPOLY
 70
     0
  9
$TDCREATE
 40
2451457.340116412
  9
$TDUCREATE
 40
2451457.006783079
  9
$TDUPDATE
 40
2453438.629513993
  9
$TDUUPDATE
 40
2453438.296180660
  9
$TDINDWG
 40
0.9911944792
  9
$TDUSRTIMER
 40
0.9911944792
  9
$USRTIMER
 70
     1
  9
$ANGBASE
 50
0.0
  9
$ANGDIR
 70
     0
  9
$PDMODE
 70
     0
  9
$PDSIZE
 40
0.0
  9
$PLINEWID
 40
0.0
  9
$SPLFRAME
 70
     0
  9
$SPLINETYPE
 70
     6
  9
$SPLINESEGS
 70
     8
  9
$HANDSEED
  5
3460
  9
$SURFTAB1
 70
     6
  9
$SURFTAB2
 70
     6
  9
$SURFTYPE
 70
     6
  9
$SURFU
 70
     6
  9
$SURFV
 70
     6
  9
$UCSBASE
  2

  9
$UCSNAME
  2

  9
$UCSORG
 10
0.0
 20
0.0
 30
0.0
  9
$UCSXDIR
 10
1.0
 20
0.0
 30
0.0
  9
$UCSYDIR
 10
0.0
 20
1.0
 30
0.0
  9
$UCSORTHOREF
  2

  9
$UCSORTHOVIEW
 70
     0
  9
$UCSORGTOP
 10
0.0
 20
0.0
 30
0.0
  9
$UCSORGBOTTOM
 10
0.0
 20
0.0
 30
0.0
  9
$UCSORGLEFT
 10
0.0
 20
0.0
 30
0.0
  9
$UCSORGRIGHT
 10
0.0
 20
0.0
 30
0.0
  9
$UCSORGFRONT
 10
0.0
 20
0.0
 30
0.0
  9
$UCSORGBACK
 10
0.0
 20
0.0
 30
0.0
  9
$PUCSBASE
  2

  9
$PUCSNAME
  2

  9
$PUCSORG
 10
0.0
 20
0.0
 30
0.0
  9
$PUCSXDIR
 10
1.0
 20
0.0
 30
0.0
  9
$PUCSYDIR
 10
0.0
 20
1.0
 30
0.0
  9
$PUCSORTHOREF
  2

  9
$PUCSORTHOVIEW
 70
     0
  9
$PUCSORGTOP
 10
0.0
 20
0.0
 30
0.0
  9
$PUCSORGBOTTOM
 10
0.0
 20
0.0
 30
0.0
  9
$PUCSORGLEFT
 10
0.0
 20
0.0
 30
0.0
  9
$PUCSORGRIGHT
 10
0.0
 20
0.0
 30
0.0
  9
$PUCSORGFRONT
 10
0.0
 20
0.0
 30
0.0
  9
$PUCSORGBACK
 10
0.0
 20
0.0
 30
0.0
  9
$USERI1
 70
     0
  9
$USERI2
 70
     0
  9
$USERI3
 70
     0
  9
$USERI4
 70
     0
  9
$USERI5
 70
     0
  9
$USERR1
 40
0.0
  9
$USERR2
 40
0.0
  9
$USERR3
 40
0.0
  9
$USERR4
 40
0.0
  9
$USERR5
 40
0.0
  9
$WORLDVIEW
 70
     1
  9
$SHADEDGE
 70
     3
  9
$SHADEDIF
 70
    70
  9
$TILEMODE
 70
     1
  9
$MAXACTVP
 70
    48
  9
$PINSBASE
 10
0.0
 20
0.0
 30
0.0
  9
$PLIMCHECK
 70
     0
  9
$PEXTMIN
 10
1.000000000000000E+20
 20
1.000000000000000E+20
 30
1.000000000000000E+20
  9
$PEXTMAX
 10
-1.000000000000000E+20
 20
-1.000000000000000E+20
 30
-1.000000000000000E+20
  9
$PLIMMIN
 10
0.0
 20
0.0
  9
$PLIMMAX
 10
420.0
 20
297.0
  9
$UNITMODE
 70
     0
  9
$VISRETAIN
 70
     1
  9
$PLINEGEN
 70
     0
  9
$PSLTSCALE
 70
     1
  9
$TREEDEPTH
 70
  3020
  9
$CMLSTYLE
  2
Standard
  9
$CMLJUST
 70
     0
  9
$CMLSCALE
 40
1.0
  9
$PROXYGRAPHICS
 70
     1
  9
$MEASUREMENT
 70
     0
  9
$CELWEIGHT
370
    -1
  9
$ENDCAPS
280
     0
  9
$JOINSTYLE
280
     0
  9
$LWDISPLAY
290
     0
  9
$INSUNITS
 70
     0
  9
$HYPERLINKBASE
  1

  9
$STYLESHEET
  1
彩色出圖.ctb
  9
$XEDIT
290
     1
  9
$CEPSNTYPE
380
     0
  9
$PSTYLEMODE
290
     1
  9
$FINGERPRINTGUID
  2
{C1BC4B2F-FC92-11D4-9D7A-0050BAE3FAE1}
  9
$VERSIONGUID
  2
{BE5399ED-496F-4B6F-9285-9B334EBED43A}
  9
$EXTNAMES
290
     1
  9
$PSVPSCALE
 40
0.0
  9
$OLESTARTUP
290
     0
  0
ENDSEC
  0
SECTION
  2
CLASSES
  0
CLASS
  1
ACDBDICTIONARYWDFLT
  2
AcDbDictionaryWithDefault
  3
ObjectDBX Classes
 90
        0
280
     0
281
     0
  0
CLASS
  1
ACDBPLACEHOLDER
  2
AcDbPlaceHolder
  3
ObjectDBX Classes
 90
        0
280
     0
281
     0
  0
CLASS
  1
LAYOUT
  2
AcDbLayout
  3
ObjectDBX Classes
 90
        0
280
     0
281
     0
  0
CLASS
  1
DICTIONARYVAR
  2
AcDbDictionaryVar
  3
ObjectDBX Classes
 90
        0
280
     0
281
     0
  0
CLASS
  1
ACME_DOCUMENT
  2
AcMeDbDoc
  3
AcMeServices
 90
        0
280
     0
281
     0
  0
CLASS
  1
AMGSETTINGSOBJ
  2
AmgSettingsObj
  3
"AcadM|Product Description: AutoCAD Mechanical 2000|Company: Autodesk"
 90
        0
280
     0
281
     0
  0
CLASS
  1
ACMESCOPE
  2
AcMeScope
  3
AcMeServices
 90
        0
280
     0
281
     0
  0
CLASS
  1
ACMECOMMANDHISTORY
  2
AcMeCommandHistory
  3
AcMeServices
 90
        0
280
     0
281
     0
  0
CLASS
  1
ACIMSYSVARMAN
  2
AcImSysVarManager
  3
AcMeServices
 90
        0
280
     0
281
     0
  0
CLASS
  1
ACIMREALSYSVAR
  2
AcImRealSysVar
  3
AcMeServices
 90
        0
280
     0
281
     0
  0
CLASS
  1
ACIMINTSYSVAR
  2
AcImIntSysVar
  3
AcMeServices
 90
        0
280
     0
281
     0
  0
CLASS
  1
ACMEDRAWINGMAN
  2
AcMeDrawingMan
  3
AcMeServices
 90
        0
280
     0
281
     0
  0
CLASS
  1
ACMEVIEW
  2
AcMeView
  3
AcMeServices
 90
        0
280
     0
281
     0
  0
CLASS
  1
ACDBENTITYCACHE
  2
AcMeEntityCache
  3
AcMeServices
 90
        0
280
     0
281
     0
  0
CLASS
  1
GSMANAGER
  2
AcMeGSManager
  3
AcMeServices
 90
        0
280
     0
281
     0
  0
CLASS
  1
AMDTINTERNALREACTOR
  2
AmdtInternalReactor
  3
AcMeServices
 90
        0
280
     0
281
     0
  0
CLASS
  1
ACMESTATEMGR
  2
AcMeStateMgr
  3
AcMeServices
 90
        0
280
     0
281
     0
  0
CLASS
  1
ACGREFMASTER
  2
AcGrefMaster
  3
AcAttribServices
 90
        0
280
     0
281
     0
  0
CLASS
  1
ACME_DATABASE
  2
AcMeDbDatabase
  3
AcMeServices
 90
        0
280
     0
281
     0
  0
CLASS
  1
ACRFINSADJUSTERMGR
  2
AcRfInsAdjusterMgr
  3
AcMeServices
 90
        0
280
     0
281
     0
  0
CLASS
  1
ACGREFACADMASTER
  2
AcGrefacadMaster
  3
AcGrefServices
 90
        0
280
     0
281
     0
  0
CLASS
  1
AMIMASTER
  2
AmiMaster
  3
AmiServices
 90
        0
280
     0
281
     0
  0
CLASS
  1
ACMDATADICTIONARY
  2
AcmDataDictionary
  3
"AcmSymBB|Product Description: AutoCAD Mechanical 2004 DX|Company: Autodesk"
 90
        0
280
     0
281
     0
  0
CLASS
  1
ACMDATAENTRYBLOCK
  2
AcmDataEntryBlock
  3
"AcmSymBB|Product Description: AutoCAD Mechanical 2004 DX|Company: Autodesk"
 90
    32768
280
     0
281
     0
  0
CLASS
  1
ACIMSTRSYSVAR
  2
AcImStrSysVar
  3
AcMeServices
 90
        0
280
     0
281
     0
  0
CLASS
  1
ACMSTANDARDANSI
  2
AcmStandardANSI
  3
"Amdt_StdImp|Product Description: AutoCAD Mechanical 2004 DX|Company: Autodesk"
 90
        0
280
     0
281
     0
  0
CLASS
  1
AMGOBJPROPCFG
  2
AmgObjPropCfg
  3
"AmgLay|Product Description: AutoCAD Mechanical 2000|Company: Autodesk"
 90
        1
280
     0
281
     0
  0
CLASS
  1
ACMSURFSTANDARDANSI
  2
AcmSurfTextStdANSI
  3
"Amdt_StdImp|Product Description: AutoCAD Mechanical 2004 DX|Company: Autodesk"
 90
        0
280
     0
281
     0
  0
CLASS
  1
ACMFCFSTANDARDANSI
  2
AcmFCFStdANSI
  3
"Amdt_StdImp|Product Description: AutoCAD Mechanical 2004 DX|Company: Autodesk"
 90
        0
280
     0
281
     0
  0
CLASS
  1
ACMWELDSTANDARDANSI
  2
AcmWeldingStdANSI
  3
"Amdt_StdImp|Product Description: AutoCAD Mechanical 2004 DX|Company: Autodesk"
 90
        0
280
     0
281
     0
  0
CLASS
  1
ACMIDSTANDARDANSI
  2
AcmIdStdANSI
  3
"Amdt_StdImp|Product Description: AutoCAD Mechanical 2004 DX|Company: Autodesk"
 90
        0
280
     0
281
     0
  0
CLASS
  1
ACMDATUMSTANDARDANSI
  2
AcmDatumStdANSI
  3
"Amdt_StdImp|Product Description: AutoCAD Mechanical 2004 DX|Company: Autodesk"
 90
        0
280
     0
281
     0
  0
CLASS
  1
ACMBOMSTANDARDANSI
  2
AcmBOMStdANSI
  3
"Amdt_StdImp|Product Description: AutoCAD Mechanical 2004 DX|Company: Autodesk"
 90
        0
280
     0
281
     0
  0
CLASS
  1
ACMDETAILSTANDARDANSI
  2
AmdtDetailSymStdANSI
  3
"Amdt_StdImp|Product Description: AutoCAD Mechanical 2004 DX|Company: Autodesk"
 90
        0
280
     0
281
     0
  0
CLASS
  1
ACMSECTIONSTANDARDANSI
  2
AmdtSectionSymStdANSI
  3
"Amdt_StdImp|Product Description: AutoCAD Mechanical 2004 DX|Company: Autodesk"
 90
        0
280
     0
281
     0
  0
CLASS
  1
ACMCENTERLINESTANDARDANSI
  2
AmdtCenterLineStdANSI
  3
"Amdt_StdImp|Product Description: AutoCAD Mechanical 2004 DX|Company: Autodesk"
 90
        0
280
     0
281
     0
  0
CLASS
  1
ACMNOTESTANDARDANSI
  2
AmdtNoteStdANSI
  3
"Amdt_StdImp|Product Description: AutoCAD Mechanical 2004 DX|Company: Autodesk"
 90
        0
280
     0
281
     0
  0
CLASS
  1
ACAMGLAYSTD
  2
AcAmgLayStd
  3
"AcAmgLayStd|Product Description: AutoCAD Mechanical 2000|Company: Autodesk"
 90
        0
280
     0
281
     0
  0
CLASS
  1
ACAMGDIMSTD
  2
AcAmgDimStd
  3
"AcAmgDimStd|Product Description: AutoCAD Mechanical 2000|Company: Autodesk"
 90
        0
280
     0
281
     0
  0
CLASS
  1
ACAMGHOLECHARTSTDANSI
  2
AcAmgHoleChartStdANSI
  3
ACMSYMBB_MODULE_NAME
 90
        0
280
     0
281
     0
  0
CLASS
  1
ACAMGTITLESTD
  2
AcAmgTitleStd
  3
"TITLEAPP"
 90
        0
280
     0
281
     0
  0
CLASS
  1
LAYER_INDEX
  2
AcDbLayerIndex
  3
ObjectDBX Classes
 90
        0
280
     0
281
     0
  0
CLASS
  1
IDBUFFER
  2
AcDbIdBuffer
  3
ObjectDBX Classes
 90
        0
280
     0
281
     0
  0
CLASS
  1
ACAMGFILTERDAT
  2
AcAmgFilterDat
  3
"AcadM|Product Description: AutoCAD Mechanical 2000|Company: Autodesk"
 90
    32768
280
     0
281
     0
  0
CLASS
  1
AMDTNOTE
  2
AmdtNote
  3
"AcmSymBB|Product Description: AutoCAD Mechanical 2004 DX|Company: Autodesk"
 90
    33791
280
     0
281
     1
  0
CLASS
  1
AMDTFORMULAUPDATEDISPATCHER
  2
AmdtFormulaUpdateDispatcher
  3
AcMeServices
 90
    32768
280
     0
281
     0
  0
CLASS
  1
TABLESTYLE
  2
AcDbTableStyle
  3
ObjectDBX Classes
 90
     2047
280
     0
281
     0
  0
CLASS
  1
AM_DRAWING_MGR
  2
AcDmDwgMgr
  3
AcMechDwgViewMgmt
 90
        0
280
     0
281
     0
  0
CLASS
  1
AM_DWG_DOCUMENT
  2
AcDmDwgDocument
  3
AcMechDwgViewMgmt
 90
        0
280
     0
281
     0
  0
CLASS
  1
AM_DWG_SHEET
  2
AcDmSheet
  3
AcMechDwgViewMgmt
 90
        0
280
     0
281
     0
  0
CLASS
  1
AM_VIEWDIMPARMAP
  2
AcDmViewDimParMap
  3
AcMechDwgViewMgmt
 90
        0
280
     0
281
     0
  0
CLASS
  1
AM_DWGMGR_NAME
  2
AcDmDwgMgrName
  3
AcMechDwgViewMgmt
 90
        0
280
     0
281
     0
  0
CLASS
  1
AMDTMENUSTATEMGR
  2
AmdtMenuStateMgr
  3
McadcomServices
 90
        0
280
     0
281
     0
  0
CLASS
  1
AMDTMCOMMENUSTATE
  2
AmdtMcomMenuState
  3
McadcomServices
 90
        0
280
     0
281
     0
  0
CLASS
  1
MAPIAMMOUDLE
  2
MApiAmModule
  3
MApiAmServices
 90
        0
280
     0
281
     0
  0
CLASS
  1
AMDTADMENUSTATE
  2
AmdtAdMenuState
  3
DesignerServices
 90
        0
280
     0
281
     0
  0
CLASS
  1
ADAPPL
  2
AcAdAppl
  3
DesignerServices
 90
        0
280
     0
281
     0
  0
CLASS
  1
DEPMGR
  2
AcAdDepMgr
  3
DesignerServices
 90
        0
280
     0
281
     0
  0
CLASS
  1
PARAMMGR
  2
AcAdParamMgr
  3
DesignerServices
 90
        0
280
     0
281
     0
  0
CLASS
  1
PARAMSCOPE
  2
AcAdParamScope
  3
DesignerServices
 90
        0
280
     0
281
     0
  0
CLASS
  1
NAMEDAPPL
  2
AcAdNamedAppl
  3
DesignerServices
 90
        0
280
     0
281
     0
  0
CLASS
  1
AMDTDMMENUSTATE
  2
AmdtDmMenuState
  3
AcMechDwgViewMgmt
 90
        0
280
     0
281
     0
  0
CLASS
  1
AMDTAMMENUSTATE
  2
AmdtAmMenuState
  3
DesignerAssemblies
 90
        0
280
     0
281
     0
  0
CLASS
  1
ACAMPROJECT
  2
AcAmProject
  3
DesignerAssemblies
 90
        0
280
     0
281
     0
  0
CLASS
  1
ACAMGRCOMPDEF
  2
AcAmGrCompDef
  3
DesignerAssemblies
 90
        0
280
     0
281
     0
  0
CLASS
  1
ACCMCONTEXT
  2
AcCmContext
  3
DesignerAssemblies
 90
        0
280
     0
281
     0
  0
CLASS
  1
ACAMCOMPDEF
  2
AcAmCompDef
  3
DesignerAssemblies
 90
        0
280
     0
281
     0
  0
CLASS
  1
ACAMCOMPDEFMGR
  2
AcAmCompDefMgr
  3
DesignerAssemblies
 90
        0
280
     0
281
     0
  0
CLASS
  1
AMCONTEXTMGR
  2
AcAmContextMgr
  3
DesignerAssemblies
 90
        0
280
     0
281
     0
  0
CLASS
  1
ACAMCONTEXTMODELER
  2
AcAmContextModeler
  3
DesignerAssemblies
 90
        0
280
     0
281
     0
  0
CLASS
  1
CATALOGSTATE
  2
AcAmCatalogState
  3
DesignerAssemblies
 90
        0
280
     0
281
     0
  0
CLASS
  1
ACAMGRCOMPDEFSET
  2
AcAmGrCompDefSet
  3
DesignerAssemblies
 90
        0
280
     0
281
     0
  0
CLASS
  1
AMDTBROWSERDBTAB
  2
AmdtBrowserDbTab
  3
McadcomServices
 90
        0
280
     0
281
     0
  0
CLASS
  1
CBROWSERAPPOBJECT
  2
CBrowserAppObject
  3
McadcomServices
 90
        0
280
     0
281
     0
  0
CLASS
  1
DM_PLACEHOLDER
  2
AcDmSelsetPlaceholder
  3
AcMechDwgViewMgmt
 90
        0
280
     0
281
     0
  0
CLASS
  1
VAACXREFPANELOBJECT
  2
VaAcXREFPanelObject
  3
VAAC_ADDIN
 90
        0
280
     0
281
     0
  0
CLASS
  1
ACMTHREADLINESTANDARDANSI
  2
AmdtThreadLineStdANSI
  3
"Amdt_StdImp|Product Description: AutoCAD Mechanical 2004 DX|Company: Autodesk"
 90
        0
280
     0
281
     0
  0
CLASS
  1
AMDTNOTETEMPLATEDB
  2
AmdtNoteTemplateDB
  3
AMDT_STDIMP_MODULE_NAME
 90
        0
280
     0
281
     0
  0
CLASS
  1
VAACIMAGEINVENTORY
  2
VaAcImageInventory
  3
VAAC_ADDIN
 90
        0
280
     0
281
     0
  0
CLASS
  1
SORTENTSTABLE
  2
AcDbSortentsTable
  3
ObjectDBX Classes
 90
    32768
280
     0
281
     0
  0
CLASS
  1
ACMSTANDARDISO
  2
AcmStandardISO
  3
"Amdt_StdImp|Product Description: AutoCAD Mechanical 2004 DX|Company: Autodesk"
 90
    32768
280
     0
281
     0
  0
CLASS
  1
AMDTEDGESTANDARDISO13715
  2
AmdtEdgeStdISO13715
  3
"Amdt_StdImp|Product Description: AutoCAD Mechanical 2004 DX|Company: Autodesk"
 90
    32768
280
     0
281
     0
  0
CLASS
  1
ACMSURFSTANDARDISO
  2
AcmSurfTextStdISO
  3
"Amdt_StdImp|Product Description: AutoCAD Mechanical 2004 DX|Company: Autodesk"
 90
    32768
280
     0
281
     0
  0
CLASS
  1
ACMFCFSTANDARDISO
  2
AcmFCFStdISO
  3
"Amdt_StdImp|Product Description: AutoCAD Mechanical 2004 DX|Company: Autodesk"
 90
    32768
280
     0
281
     0
  0
CLASS
  1
ACMWELDSTANDARDISO
  2
AcmWeldingStdISO
  3
"Amdt_StdImp|Product Description: AutoCAD Mechanical 2004 DX|Company: Autodesk"
 90
    32768
280
     0
281
     0
  0
CLASS
  1
ACMIDSTANDARDISO
  2
AcmIdStdISO
  3
"Amdt_StdImp|Product Description: AutoCAD Mechanical 2004 DX|Company: Autodesk"
 90
    32768
280
     0
281
     0
  0
CLASS
  1
ACMDATUMSTANDARDISO
  2
AcmDatumStdISO
  3
"Amdt_StdImp|Product Description: AutoCAD Mechanical 2004 DX|Company: Autodesk"
 90
    32768
280
     0
281
     0
  0
CLASS
  1
ACMBOMSTANDARDISO
  2
AcmBOMStdISO
  3
"Amdt_StdImp|Product Description: AutoCAD Mechanical 2004 DX|Company: Autodesk"
 90
    32768
280
     0
281
     0
  0
CLASS
  1
ACMDETAILSTANDARDISO
  2
AmdtDetailSymStdISO
  3
"Amdt_StdImp|Product Description: AutoCAD Mechanical 2004 DX|Company: Autodesk"
 90
    32768
280
     0
281
     0
  0
CLASS
  1
ACMSECTIONSTANDARDISO
  2
AmdtSectionSymStdISO
  3
"Amdt_StdImp|Product Description: AutoCAD Mechanical 2004 DX|Company: Autodesk"
 90
    32768
280
     0
281
     0
  0
CLASS
  1
ACMCENTERLINESTANDARDISO
  2
AmdtCenterLineStdISO
  3
"Amdt_StdImp|Product Description: AutoCAD Mechanical 2004 DX|Company: Autodesk"
 90
    32768
280
     0
281
     0
  0
CLASS
  1
ACMTHREADLINESTANDARDISO
  2
AmdtThreadLineStdISO
  3
"Amdt_StdImp|Product Description: AutoCAD Mechanical 2004 DX|Company: Autodesk"
 90
    32768
280
     0
281
     0
  0
CLASS
  1
ACMNOTESTANDARDISO
  2
AmdtNoteStdISO
  3
"Amdt_StdImp|Product Description: AutoCAD Mechanical 2004 DX|Company: Autodesk"
 90
    32768
280
     0
281
     0
  0
CLASS
  1
ACAMGHOLECHARTSTDISO
  2
AcAmgHoleChartStdISO
  3
ACMSYMBB_MODULE_NAME
 90
    32768
280
     0
281
     0
  0
CLASS
  1
ACRFATTGENMGR
  2
AcRfAttGeneralMgr
  3
AcAttribServices
 90
        0
280
     0
281
     0
  0
ENDSEC
  0
SECTION
  2
TABLES
  0
TABLE
  2
VPORT
  5
20D9
330
0
100
AcDbSymbolTable
 70
     3
  0
VPORT
  5
3459
330
20D9
100
AcDbSymbolTableRecord
100
AcDbViewportTableRecord
  2
*Active
 70
     0
 10
0.0
 20
0.0
 11
1.0
 21
1.0
 12
-1363.837655418062
 22
191.5139073104084
 13
0.0
 23
0.0
 14
10.0
 24
10.0
 15
10.0
 25
10.0
 16
0.0
 26
0.0
 36
1.0
 17
0.0
 27
0.0
 37
0.0
 40
322.8823128291304
 41
1.817669172932331
 42
50.0
 43
0.0
 44
0.0
 50
0.0
 51
0.0
 71
     0
 72
   100
 73
     1
 74
     1
 75
     0
 76
     0
 77
     0
 78
     0
281
     0
 65
     1
110
0.0
120
0.0
130
0.0
111
1.0
121
0.0
131
0.0
112
0.0
122
1.0
132
0.0
 79
     0
146
0.0
  0
ENDTAB
  0
TABLE
  2
LTYPE
  5
20D6
330
0
100
AcDbSymbolTable
 70
    16
  0
LTYPE
  5
20E4
330
20D6
100
AcDbSymbolTableRecord
100
AcDbLinetypeTableRecord
  2
ByBlock
 70
     0
  3

 72
    65
 73
     0
 40
0.0
  0
LTYPE
  5
20E5
330
20D6
100
AcDbSymbolTableRecord
100
AcDbLinetypeTableRecord
  2
ByLayer
 70
     0
  3

 72
    65
 73
     0
 40
0.0
  0
LTYPE
  5
20E6
330
20D6
100
AcDbSymbolTableRecord
100
AcDbLinetypeTableRecord
  2
CONTINUOUS
 70
     0
  3
Solid line
 72
    65
 73
     0
 40
0.0
  0
LTYPE
  5
2156
330
20D6
100
AcDbSymbolTableRecord
100
AcDbLinetypeTableRecord
  2
CENTER
 70
     0
  3
---- - ---- - ---- 3,-.3,.3,-.3
 72
    65
 73
     4
 40
3.9
 49
3.0
 74
     0
 49
-0.3
 74
     0
 49
0.3
 74
     0
 49
-0.3
 74
     0
  0
LTYPE
  5
2342
330
20D6
100
AcDbSymbolTableRecord
100
AcDbLinetypeTableRecord
  2
Amconstr
 70
     0
  3
_______________________
 72
    65
 73
     2
 40
9999.0
 49
9999.0
 74
     0
 49
0.0
 74
     0
  0
LTYPE
  5
2348
330
20D6
100
AcDbSymbolTableRecord
100
AcDbLinetypeTableRecord
  2
HIDDEN
 70
     0
  3
Hidden __ __ __ __ __ __ __ __ __ __ __ __ __ _
 72
    65
 73
     2
 40
0.375
 49
0.25
 74
     0
 49
-0.125
 74
     0
  0
LTYPE
  5
2349
330
20D6
100
AcDbSymbolTableRecord
100
AcDbLinetypeTableRecord
  2
PHANTOM2
 70
     0
  3
Phantom (.5x) ___ _ _ ___ _ _ ___ _ _ ___ _ _
 72
    65
 73
     6
 40
1.25
 49
0.625
 74
     0
 49
-0.125
 74
     0
 49
0.125
 74
     0
 49
-0.125
 74
     0
 49
0.125
 74
     0
 49
-0.125
 74
     0
  0
LTYPE
  5
234A
330
20D6
100
AcDbSymbolTableRecord
100
AcDbLinetypeTableRecord
  2
CENTER2
 70
     0
  3
Center (.5x) ___ _ ___ _ ___ _ ___ _ ___ _ ___
 72
    65
 73
     4
 40
1.125
 49
0.75
 74
     0
 49
-0.125
 74
     0
 49
0.125
 74
     0
 49
-0.125
 74
     0
  0
LTYPE
  5
234B
330
20D6
100
AcDbSymbolTableRecord
100
AcDbLinetypeTableRecord
  2
HIDDEN2
 70
     0
  3
Hidden (.5x) _ _ _ _ _ _ _ _ _ _ _ _ _ _ _ _ _
 72
    65
 73
     2
 40
0.1875
 49
0.125
 74
     0
 49
-0.0625
 74
     0
  0
LTYPE
  5
234C
330
20D6
100
AcDbSymbolTableRecord
100
AcDbLinetypeTableRecord
  2
Amzigzag2
 70
     0
  3
/\/-/\/-/\/-/\/-/\/-/\/
 72
    65
 73
     2
 40
0.4401
 49
0.0001
 74
     4
 75
   135
340
2346
 46
0.0016
 50
0.0
 44
0.0
 45
0.0
 49
-0.4400000000000001
 74
     0
  0
LTYPE
  5
2359
330
20D6
100
AcDbSymbolTableRecord
100
AcDbLinetypeTableRecord
  2
ACANSTGB
 70
     0
  3
__ . . __ . .
 72
    65
 73
     6
 40
0.35433070866
 49
0.15748031496
 74
     0
 49
-0.03937007874
 74
     0
 49
0.03937007874
 74
     0
 49
-0.03937007874
 74
     0
 49
0.03937007874
 74
     0
 49
-0.03937007874
 74
     0
  0
LTYPE
  5
235A
330
20D6
100
AcDbSymbolTableRecord
100
AcDbLinetypeTableRecord
  2
ACANSTGL
 70
     0
  3
_ _ _ _ _
 72
    65
 73
     2
 40
0.11811023622
 49
0.07874015748
 74
     0
 49
-0.03937007874
 74
     0
  0
ENDTAB
  0
TABLE
  2
LAYER
  5
20D3
102
{ACAD_XDICTIONARY
360
29FD
102
}
330
0
100
AcDbSymbolTable
 70
     5
  0
LAYER
  5
20E1
330
20D3
100
AcDbSymbolTableRecord
100
AcDbLayerTableRecord
  2
0
 70
     0
 62
     7
  6
CONTINUOUS
370
    -3
390
20E0
  0
LAYER
  5
215F
330
20D3
100
AcDbSymbolTableRecord
100
AcDbLayerTableRecord
  2
DEFPOINTS
 70
     0
 62
    -7
  6
CONTINUOUS
290
     0
370
    -3
390
20E0
  0
LAYER
  5
2160
330
20D3
100
AcDbSymbolTableRecord
100
AcDbLayerTableRecord
  2
DIM
 70
     0
 62
     5
  6
CONTINUOUS
370
    -3
390
20E0
  0
LAYER
  5
2161
330
20D3
100
AcDbSymbolTableRecord
100
AcDbLayerTableRecord
  2
CENTER
 70
     0
 62
     1
  6
CENTER
370
    -3
390
20E0
  0
LAYER
  5
2176
330
20D3
100
AcDbSymbolTableRecord
100
AcDbLayerTableRecord
  2
LOGO
 70
     0
 62
     7
  6
CONTINUOUS
370
    -3
390
20E0
  0
ENDTAB
  0
TABLE
  2
STYLE
  5
20D4
330
0
100
AcDbSymbolTable
 70
     7
  0
STYLE
  5
20E2
330
20D4
100
AcDbSymbolTableRecord
100
AcDbTextStyleTableRecord
  2
STANDARD
 70
     0
 40
0.0
 41
1.0
 50
0.0
 71
     0
 42
25.0
  3
txt
  4

  0
STYLE
  5
2155
330
20D4
100
AcDbSymbolTableRecord
100
AcDbTextStyleTableRecord
  2
CHINESET
 70
     0
 40
0.0
 41
1.0
 50
0.0
 71
     0
 42
4.0
  3
simplex.shx
  4
chineset.shx
  0
STYLE
  5
2346
330
20D4
100
AcDbSymbolTableRecord
100
AcDbTextStyleTableRecord
  2

 70
     1
 40
0.0
 41
1.0
 50
0.0
 71
     0
 42
25.0
  3
ltypeshp.shx
  4

  0
STYLE
  5
234D
330
20D4
100
AcDbSymbolTableRecord
100
AcDbTextStyleTableRecord
  2
ACANSTS
 70
     0
 40
1.0
 41
1.0
 50
0.0
 71
     0
 42
25.0
  3
romans.shx
  4
chineset.shx
  0
STYLE
  5
2358
330
20D4
100
AcDbSymbolTableRecord
100
AcDbTextStyleTableRecord
  2
ACANSGDT
 70
     0
 40
0.0
 41
1.0
 50
0.0
 71
     0
 42
25.0
  3
amgdtans.shx
  4

  0
ENDTAB
  0
TABLE
  2
VIEW
  5
20D7
330
0
100
AcDbSymbolTable
 70
     0
  0
ENDTAB
  0
TABLE
  2
UCS
  5
20D8
330
0
100
AcDbSymbolTable
 70
     0
  0
ENDTAB
  0
TABLE
  2
APPID
  5
20DA
330
0
100
AcDbSymbolTable
 70
    10
  0
APPID
  5
20E3
330
20DA
100
AcDbSymbolTableRecord
100
AcDbRegAppTableRecord
  2
ACAD
 70
     0
  0
APPID
  5
2321
330
20DA
100
AcDbSymbolTableRecord
100
AcDbRegAppTableRecord
  2
MCAD_NO_VIS
 70
     0
  0
APPID
  5
2322
330
20DA
100
AcDbSymbolTableRecord
100
AcDbRegAppTableRecord
  2
ACAD_TEMP_GRAPHIC
 70
     0
  0
APPID
  5
2333
330
20DA
100
AcDbSymbolTableRecord
100
AcDbRegAppTableRecord
  2
ACATTRIBSERVICES
 70
     0
  0
APPID
  5
252C
330
20DA
100
AcDbSymbolTableRecord
100
AcDbRegAppTableRecord
  2
GENIUS_GENDTOL_13
 70
     0
  0
APPID
  5
29A0
330
20DA
100
AcDbSymbolTableRecord
100
AcDbRegAppTableRecord
  2
AD_DRAW
 70
     0
  0
APPID
  5
29BE
330
20DA
100
AcDbSymbolTableRecord
100
AcDbRegAppTableRecord
  2
DESIGNERASSEMBLIES
 70
     0
  0
APPID
  5
29C3
330
20DA
100
AcDbSymbolTableRecord
100
AcDbRegAppTableRecord
  2
ACADM_DIM_EDIT
 70
     0
  0
APPID
  5
29C4
330
20DA
100
AcDbSymbolTableRecord
100
AcDbRegAppTableRecord
  2
AMDT_DM_ADJ
 70
     0
  0
APPID
  5
29FC
330
20DA
100
AcDbSymbolTableRecord
100
AcDbRegAppTableRecord
  2
ACAD_PSEXT
 70
     0
  0
ENDTAB
  0
TABLE
  2
DIMSTYLE
  5
20DB
330
0
100
AcDbSymbolTable
 70
     8
100
AcDbDimStyleTable
 71
     1
340
215E
  0
DIMSTYLE
105
215E
102
{ACAD_REACTORS
330
312B
330
312C
330
312D
330
3134
330
31CC
102
}
330
20DB
100
AcDbSymbolTableRecord
100
AcDbDimStyleTableRecord
  2
STANDARD
 70
     0
 41
3.0
 42
2.0
 43
8.0
 44
2.0
 73
     0
 74
     0
 77
     1
 78
     8
 79
     2
140
3.0
141
2.5
143
0.0394
147
1.0
171
     4
176
   256
177
   256
178
   256
271
     2
272
     2
274
     4
279
     2
284
     8
285
     8
286
     8
340
2155
  0
DIMSTYLE
105
235E
330
20DB
100
AcDbSymbolTableRecord
100
AcDbDimStyleTableRecord
  2
AM_ANSI
 70
     0
  4
mm
 41
0.1
 42
0.05
 43
0.5
 44
0.1
 47
0.1
 48
0.1
 78
     7
 79
     2
140
0.12
141
0.0
146
0.71
147
0.06
176
   256
177
   256
178
     2
274
     4
284
     7
340
20E2
371
    -1
372
    -1
  0
DIMSTYLE
105
235F
330
20DB
100
AcDbSymbolTableRecord
100
AcDbDimStyleTableRecord
  2
AM_ANSI$3
 70
     0
  4
mm
 41
0.1
 42
0.05
 43
0.5
 44
0.1
 47
0.1
 48
0.1
 78
     7
 79
     2
140
0.12
141
0.0
146
0.71
147
0.06
176
   256
177
   256
178
     2
274
     4
284
     7
288
     1
289
     0
340
20E2
371
    -1
372
    -1
  0
DIMSTYLE
105
2360
330
20DB
100
AcDbSymbolTableRecord
100
AcDbDimStyleTableRecord
  2
AM_ANSI$4
 70
     0
  4
mm
 41
0.1
 42
0.05
 43
0.5
 44
0.1
 47
0.1
 48
0.1
 78
     7
 79
     2
140
0.12
141
0.0
146
0.71
147
0.06
176
   256
177
   256
178
     2
274
     4
284
     7
288
     1
289
     0
340
20E2
371
    -1
372
    -1
  0
DIMSTYLE
105
2361
330
20DB
100
AcDbSymbolTableRecord
100
AcDbDimStyleTableRecord
  2
AM_ANSI$7
 70
     0
  4
mm
 41
0.1
 42
0.05
 43
0.5
 44
0.1
 47
0.1
 48
0.1
 78
     7
 79
     2
140
0.24
141
0.0
146
0.71
147
0.06
176
   256
177
   256
178
     2
274
     4
284
     7
340
20E2
371
    -1
372
    -1
  0
DIMSTYLE
105
2362
330
20DB
100
AcDbSymbolTableRecord
100
AcDbDimStyleTableRecord
  2
AM_ANSI$SF
 70
     0
  4
mm
 41
0.1
 42
0.05
 43
0.5
 44
0.1
 47
0.1
 48
0.1
 75
     1
 76
     1
 78
     7
 79
     2
140
0.12
141
0.0
146
0.71
147
0.06
176
   256
177
   256
178
     2
274
     4
284
     7
340
20E2
371
    -1
372
    -1
  0
DIMSTYLE
105
2367
330
20DB
100
AcDbSymbolTableRecord
100
AcDbDimStyleTableRecord
  2
AM_ANSI$SH
 70
     0
  4
mm
 41
0.1
 42
0.05
 43
0.5
 44
0.1
 47
0.1
 48
0.1
 75
     1
 76
     1
 78
     7
 79
     2
140
0.12
141
0.0
146
0.71
147
0.06
173
     1
176
   256
177
   256
178
     2
274
     4
284
     7
340
20E2
341
2363
343
2363
371
    -1
372
    -1
  0
ENDTAB
  0
TABLE
  2
BLOCK_RECORD
  5
20D2
330
0
100
AcDbSymbolTable
 70
     8
  0
BLOCK_RECORD
  5
20EF
102
{ACAD_XDICTIONARY
360
2241
102
}
330
20D2
100
AcDbSymbolTableRecord
100
AcDbBlockTableRecord
  2
*Model_Space
340
20F2
  0
BLOCK_RECORD
  5
20EB
102
{ACAD_XDICTIONARY
360
2243
102
}
330
20D2
100
AcDbSymbolTableRecord
100
AcDbBlockTableRecord
  2
*Paper_Space
340
20EE
  0
BLOCK_RECORD
  5
2363
330
20D2
100
AcDbSymbolTableRecord
100
AcDbBlockTableRecord
  2
GENAXEH
340
0
  0
BLOCK_RECORD
  5
31FC
330
20D2
100
AcDbSymbolTableRecord
100
AcDbBlockTableRecord
  2
*D1
340
0
  0
BLOCK_RECORD
  5
3208
330
20D2
100
AcDbSymbolTableRecord
100
AcDbBlockTableRecord
  2
*D2
340
0
  0
BLOCK_RECORD
  5
3214
330
20D2
100
AcDbSymbolTableRecord
100
AcDbBlockTableRecord
  2
*D3
340
0
  0
BLOCK_RECORD
  5
3220
330
20D2
100
AcDbSymbolTableRecord
100
AcDbBlockTableRecord
  2
*D4
340
0
  0
BLOCK_RECORD
  5
322C
330
20D2
100
AcDbSymbolTableRecord
100
AcDbBlockTableRecord
  2
*D5
340
0
  0
ENDTAB
  0
ENDSEC
  0
SECTION
  2
BLOCKS
  0
BLOCK
  5
2164
330
20EF
100
AcDbEntity
  8
0
100
AcDbBlockBegin
  2
*Model_Space
 70
     0
 10
0.0
 20
0.0
 30
0.0
  3
*Model_Space
  1

  0
ENDBLK
  5
2165
330
20EF
100
AcDbEntity
  8
0
100
AcDbBlockEnd
  0
BLOCK
  5
2162
330
20EB
100
AcDbEntity
 67
     1
  8
0
100
AcDbBlockBegin
  2
*Paper_Space
 70
     0
 10
0.0
 20
0.0
 30
0.0
  3
*Paper_Space
  1

  0
ENDBLK
  5
2163
330
20EB
100
AcDbEntity
 67
     1
  8
0
100
AcDbBlockEnd
  0
BLOCK
  5
2365
330
2363
100
AcDbEntity
  8
0
100
AcDbBlockBegin
  2
GENAXEH
 70
     0
 10
0.0
 20
0.0
 30
0.0
  3
GENAXEH
  1

  0
LINE
  5
2364
330
2363
100
AcDbEntity
  8
0
100
AcDbLine
 10
-1.0
 20
0.0
 30
0.0
 11
1.0
 21
0.0
 31
0.0
  0
ENDBLK
  5
2366
330
2363
100
AcDbEntity
  8
0
100
AcDbBlockEnd
  0
BLOCK
  5
3206
330
31FC
100
AcDbEntity
  8
0
100
AcDbBlockBegin
  2
*D1
 70
     1
 10
0.0
 20
0.0
 30
0.0
  3
*D1
  1

  0
LINE
  5
3373
330
31FC
100
AcDbEntity
  8
DIM
370
    -2
100
AcDbLine
 10
-1298.246064948783
 20
262.5389299094454
 30
0.0
 11
-1272.852951870519
 21
262.5389299094454
 31
0.0
  0
LINE
  5
3374
330
31FC
100
AcDbEntity
  8
DIM
370
    -2
100
AcDbLine
 10
-1321.779875113132
 20
97.53764990944539
 30
0.0
 11
-1272.852951870519
 21
97.53764990944539
 31
0.0
  0
LINE
  5
3375
330
31FC
100
AcDbEntity
  8
DIM
370
    -2
100
AcDbLine
 10
-1274.852951870519
 20
259.5389299094454
 30
0.0
 11
-1274.852951870519
 21
100.5376499094454
 31
0.0
  0
SOLID
  5
3376
330
31FC
100
AcDbEntity
  8
DIM
100
AcDbTrace
 10
-1275.352951870519
 20
259.5389299094454
 30
0.0
 11
-1274.352951870519
 21
259.5389299094454
 31
0.0
 12
-1274.852951870519
 22
262.5389299094454
 32
0.0
 13
-1274.852951870519
 23
262.5389299094454
 33
0.0
  0
SOLID
  5
3377
330
31FC
100
AcDbEntity
  8
DIM
100
AcDbTrace
 10
-1275.352951870519
 20
100.5376499094454
 30
0.0
 11
-1274.352951870519
 21
100.5376499094454
 31
0.0
 12
-1274.852951870519
 22
97.53764990944539
 32
0.0
 13
-1274.852951870519
 23
97.53764990944539
 33
0.0
  0
MTEXT
  5
3378
330
31FC
100
AcDbEntity
  8
DIM
100
AcDbMText
 10
-1277.352951870519
 20
180.0382899094452
 30
0.0
 40
3.0
 41
0.0
 71
     5
 72
     1
  1
\A1;165
  7
CHINESET
 11
0.0000000000000001
 21
1.0
 31
0.0
 73
     1
 44
1.0
1001
ACAD
1000
MTEXTBEGIN
1070
    73
1070
     1
1070
    44
1040
1.0
1070
    74
1070
     0
1000
MTEXTEND
  0
POINT
  5
3379
330
31FC
100
AcDbEntity
  8
DEFPOINTS
 62
     0
100
AcDbPoint
 10
-1300.246064948783
 20
262.5389299094454
 30
0.0
  0
POINT
  5
337A
330
31FC
100
AcDbEntity
  8
DEFPOINTS
 62
     0
100
AcDbPoint
 10
-1323.779875113132
 20
97.53764990944539
 30
0.0
  0
POINT
  5
337B
330
31FC
100
AcDbEntity
  8
DEFPOINTS
 62
     0
100
AcDbPoint
 10
-1274.852951870519
 20
97.53764990944539
 30
0.0
  0
ENDBLK
  5
3207
330
31FC
100
AcDbEntity
  8
0
100
AcDbBlockEnd
  0
BLOCK
  5
3212
330
3208
100
AcDbEntity
  8
0
100
AcDbBlockBegin
  2
*D2
 70
     1
 10
0.0
 20
0.0
 30
0.0
  3
*D2
  1

  0
LINE
  5
336A
330
3208
100
AcDbEntity
  8
DIM
370
    -2
100
AcDbLine
 10
-1311.417895626269
 20
242.5389299094454
 30
0.0
 11
-1284.796627764938
 21
242.5389299094454
 31
0.0
  0
LINE
  5
336B
330
3208
100
AcDbEntity
  8
DIM
370
    -2
100
AcDbLine
 10
-1321.746064948783
 20
97.53764990944539
 30
0.0
 11
-1284.796627764938
 21
97.53764990944539
 31
0.0
  0
LINE
  5
336C
330
3208
100
AcDbEntity
  8
DIM
370
    -2
100
AcDbLine
 10
-1286.796627764938
 20
239.5389299094455
 30
0.0
 11
-1286.796627764938
 21
100.5376499094454
 31
0.0
  0
SOLID
  5
336D
330
3208
100
AcDbEntity
  8
DIM
100
AcDbTrace
 10
-1287.296627764938
 20
239.5389299094455
 30
0.0
 11
-1286.296627764938
 21
239.5389299094455
 31
0.0
 12
-1286.796627764938
 22
242.5389299094454
 32
0.0
 13
-1286.796627764938
 23
242.5389299094454
 33
0.0
  0
SOLID
  5
336E
330
3208
100
AcDbEntity
  8
DIM
100
AcDbTrace
 10
-1287.296627764938
 20
100.5376499094454
 30
0.0
 11
-1286.296627764938
 21
100.5376499094454
 31
0.0
 12
-1286.796627764938
 22
97.53764990944539
 32
0.0
 13
-1286.796627764938
 23
97.53764990944539
 33
0.0
  0
MTEXT
  5
336F
330
3208
100
AcDbEntity
  8
DIM
100
AcDbMText
 10
-1289.296627764938
 20
170.0382899094452
 30
0.0
 40
3.0
 41
0.0
 71
     5
 72
     1
  1
\A1;145
  7
CHINESET
 11
0.0000000000000001
 21
1.0
 31
0.0
 73
     1
 44
1.0
1001
ACAD
1000
MTEXTBEGIN
1070
    73
1070
     1
1070
    44
1040
1.0
1070
    74
1070
     0
1000
MTEXTEND
  0
POINT
  5
3370
330
3208
100
AcDbEntity
  8
DEFPOINTS
 62
     0
100
AcDbPoint
 10
-1313.41789562627
 20
242.5389299094454
 30
0.0
  0
POINT
  5
3371
330
3208
100
AcDbEntity
  8
DEFPOINTS
 62
     0
100
AcDbPoint
 10
-1323.746064948783
 20
97.53764990944539
 30
0.0
  0
POINT
  5
3372
330
3208
100
AcDbEntity
  8
DEFPOINTS
 62
     0
100
AcDbPoint
 10
-1286.796627764938
 20
97.53764990944539
 30
0.0
  0
ENDBLK
  5
3213
330
3208
100
AcDbEntity
  8
0
100
AcDbBlockEnd
  0
BLOCK
  5
321E
330
3214
100
AcDbEntity
  8
0
100
AcDbBlockBegin
  2
*D3
 70
     1
 10
0.0
 20
0.0
 30
0.0
  3
*D3
  1

  0
LINE
  5
33A9
330
3214
100
AcDbEntity
  8
DIM
370
    -2
100
AcDbLine
 10
-1330.813475113135
 20
97.54724990944739
 30
0.0
 11
-1330.813475113135
 21
87.12050855569215
 31
0.0
  0
LINE
  5
33AA
330
3214
100
AcDbEntity
  8
DIM
370
    -2
100
AcDbLine
 10
-1322.775075113134
 20
97.54724990944739
 30
0.0
 11
-1322.775075113134
 21
87.12050855569215
 31
0.0
  0
LINE
  5
33AB
330
3214
100
AcDbEntity
  8
DIM
370
    -2
100
AcDbLine
 10
-1327.813475113135
 20
89.12050855569214
 30
0.0
 11
-1325.775075113134
 21
89.12050855569214
 31
0.0
  0
MTEXT
  5
33AC
330
3214
100
AcDbEntity
  8
DIM
100
AcDbMText
 10
-1320.548770942885
 20
92.153909745992
 30
0.0
 40
3.0
 41
0.0
 71
     5
 72
     1
  1
\A1;%%c6-排水口
  7
CHINESET
 73
     1
 44
1.0
1001
ACAD
1000
MTEXTBEGIN
1070
    73
1070
     1
1070
    44
1040
1.0
1070
    74
1070
     0
1000
MTEXTEND
  0
SOLID
  5
33AD
330
3214
100
AcDbEntity
  8
DIM
100
AcDbTrace
 10
-1327.813475113135
 20
89.62050855569215
 30
0.0
 11
-1327.813475113135
 21
88.62050855569213
 31
0.0
 12
-1330.813475113135
 22
89.12050855569214
 32
0.0
 13
-1330.813475113135
 23
89.12050855569214
 33
0.0
  0
SOLID
  5
33AE
330
3214
100
AcDbEntity
  8
DIM
100
AcDbTrace
 10
-1325.775075113134
 20
89.62050855569215
 30
0.0
 11
-1325.775075113134
 21
88.62050855569213
 31
0.0
 12
-1322.775075113134
 22
89.12050855569214
 32
0.0
 13
-1322.775075113134
 23
89.12050855569214
 33
0.0
  0
POINT
  5
33AF
330
3214
100
AcDbEntity
  8
DEFPOINTS
 62
     0
100
AcDbPoint
 10
-1330.813475113135
 20
99.5472499094474
 30
0.0
  0
POINT
  5
33B0
330
3214
100
AcDbEntity
  8
DEFPOINTS
 62
     0
100
AcDbPoint
 10
-1322.775075113134
 20
99.5472499094474
 30
0.0
  0
POINT
  5
33B1
330
3214
100
AcDbEntity
  8
DEFPOINTS
 62
     0
100
AcDbPoint
 10
-1322.775075113134
 20
89.12050855569214
 30
0.0
  0
ENDBLK
  5
321F
330
3214
100
AcDbEntity
  8
0
100
AcDbBlockEnd
  0
BLOCK
  5
322A
330
3220
100
AcDbEntity
  8
0
100
AcDbBlockBegin
  2
*D4
 70
     1
 10
0.0
 20
0.0
 30
0.0
  3
*D4
  1

  0
LINE
  5
3361
330
3220
100
AcDbEntity
  8
DIM
370
    -2
100
AcDbLine
 10
-1298.246064948783
 20
262.5389299094454
 30
0.0
 11
-1284.796627764938
 21
262.5389299094454
 31
0.0
  0
LINE
  5
3362
330
3220
100
AcDbEntity
  8
DIM
370
    -2
100
AcDbLine
 10
-1299.024022910566
 20
242.5389299094454
 30
0.0
 11
-1284.796627764938
 21
242.5389299094454
 31
0.0
  0
LINE
  5
3363
330
3220
100
AcDbEntity
  8
DIM
370
    -2
100
AcDbLine
 10
-1286.796627764938
 20
259.5389299094454
 30
0.0
 11
-1286.796627764938
 21
245.5389299094455
 31
0.0
  0
SOLID
  5
3364
330
3220
100
AcDbEntity
  8
DIM
100
AcDbTrace
 10
-1287.296627764938
 20
259.5389299094454
 30
0.0
 11
-1286.296627764938
 21
259.5389299094454
 31
0.0
 12
-1286.796627764938
 22
262.5389299094454
 32
0.0
 13
-1286.796627764938
 23
262.5389299094454
 33
0.0
  0
SOLID
  5
3365
330
3220
100
AcDbEntity
  8
DIM
100
AcDbTrace
 10
-1287.296627764938
 20
245.5389299094455
 30
0.0
 11
-1286.296627764938
 21
245.5389299094455
 31
0.0
 12
-1286.796627764938
 22
242.5389299094454
 32
0.0
 13
-1286.796627764938
 23
242.5389299094454
 33
0.0
  0
MTEXT
  5
3366
330
3220
100
AcDbEntity
  8
DIM
100
AcDbMText
 10
-1289.296627764938
 20
252.5389299094452
 30
0.0
 40
3.0
 41
0.0
 71
     5
 72
     1
  1
\A1;20
  7
CHINESET
 11
0.0000000000000001
 21
1.0
 31
0.0
 73
     1
 44
1.0
1001
ACAD
1000
MTEXTBEGIN
1070
    73
1070
     1
1070
    44
1040
1.0
1070
    74
1070
     0
1000
MTEXTEND
  0
POINT
  5
3367
330
3220
100
AcDbEntity
  8
DEFPOINTS
 62
     0
100
AcDbPoint
 10
-1300.246064948783
 20
262.5389299094454
 30
0.0
  0
POINT
  5
3368
330
3220
100
AcDbEntity
  8
DEFPOINTS
 62
     0
100
AcDbPoint
 10
-1301.024022910566
 20
242.5389299094454
 30
0.0
  0
POINT
  5
3369
330
3220
100
AcDbEntity
  8
DEFPOINTS
 62
     0
100
AcDbPoint
 10
-1286.796627764938
 20
242.5389299094454
 30
0.0
  0
ENDBLK
  5
322B
330
3220
100
AcDbEntity
  8
0
100
AcDbBlockEnd
  0
BLOCK
  5
3236
330
322C
100
AcDbEntity
  8
0
100
AcDbBlockBegin
  2
*D5
 70
     1
 10
0.0
 20
0.0
 30
0.0
  3
*D5
  1

  0
LINE
  5
3358
330
322C
100
AcDbEntity
  8
DIM
370
    -2
100
AcDbLine
 10
-1300.246064948783
 20
264.5389299094455
 30
0.0
 11
-1300.246064948783
 21
274.4154365844873
 31
0.0
  0
LINE
  5
3359
330
322C
100
AcDbEntity
  8
DIM
370
    -2
100
AcDbLine
 10
-1353.246064948783
 20
264.5389299094455
 30
0.0
 11
-1353.246064948783
 21
274.4154365844873
 31
0.0
  0
LINE
  5
335A
330
322C
100
AcDbEntity
  8
DIM
370
    -2
100
AcDbLine
 10
-1303.246064948783
 20
272.4154365844873
 30
0.0
 11
-1350.246064948783
 21
272.4154365844873
 31
0.0
  0
SOLID
  5
335B
330
322C
100
AcDbEntity
  8
DIM
100
AcDbTrace
 10
-1303.246064948783
 20
272.9154365844873
 30
0.0
 11
-1303.246064948783
 21
271.9154365844874
 31
0.0
 12
-1300.246064948783
 22
272.4154365844873
 32
0.0
 13
-1300.246064948783
 23
272.4154365844873
 33
0.0
  0
SOLID
  5
335C
330
322C
100
AcDbEntity
  8
DIM
100
AcDbTrace
 10
-1350.246064948783
 20
272.9154365844873
 30
0.0
 11
-1350.246064948783
 21
271.9154365844874
 31
0.0
 12
-1353.246064948783
 22
272.4154365844873
 32
0.0
 13
-1353.246064948783
 23
272.4154365844873
 33
0.0
  0
MTEXT
  5
335D
330
322C
100
AcDbEntity
  8
DIM
100
AcDbMText
 10
-1326.746064948783
 20
274.9154365844873
 30
0.0
 40
3.0
 41
0.0
 71
     5
 72
     1
  1
\A1;53
  7
CHINESET
 73
     1
 44
1.0
1001
ACAD
1000
MTEXTBEGIN
1070
    73
1070
     1
1070
    44
1040
1.0
1070
    74
1070
     0
1000
MTEXTEND
  0
POINT
  5
335E
330
322C
100
AcDbEntity
  8
DEFPOINTS
 62
     0
100
AcDbPoint
 10
-1300.246064948783
 20
262.5389299094455
 30
0.0
  0
POINT
  5
335F
330
322C
100
AcDbEntity
  8
DEFPOINTS
 62
     0
100
AcDbPoint
 10
-1353.246064948783
 20
262.5389299094455
 30
0.0
  0
POINT
  5
3360
330
322C
100
AcDbEntity
  8
DEFPOINTS
 62
     0
100
AcDbPoint
 10
-1353.246064948783
 20
272.4154365844873
 30
0.0
  0
ENDBLK
  5
3237
330
322C
100
AcDbEntity
  8
0
100
AcDbBlockEnd
  0
ENDSEC
  0
SECTION
  2
ENTITIES
  0
LWPOLYLINE
  5
674
330
20EF
100
AcDbEntity
  8
0
 62
     4
100
AcDbPolyline
 90
        4
 70
     1
 43
0.0
 10
-1473.777015162134
 20
67.89998856376451
 10
-1253.847905176084
 20
67.89998856376451
 10
-1253.847905176084
 20
351.1468734895903
 10
-1473.777015162134
 20
351.1468734895903
  0
LINE
  5
2181
330
20EF
100
AcDbEntity
  8
LOGO
 62
     1
100
AcDbLine
 10
-1253.847905176084
 20
67.89998856376451
 30
0.0
 11
-1473.777015162134
 21
67.89998856376451
 31
0.0
  0
LINE
  5
2182
330
20EF
100
AcDbEntity
  8
LOGO
 62
     1
100
AcDbLine
 10
-1253.847905176084
 20
31.87972176072029
 30
0.0
 11
-1473.777015162134
 21
31.87972176072029
 31
0.0
  0
LINE
  5
2183
330
20EF
100
AcDbEntity
  8
LOGO
  6
Continuous
 62
     6
100
AcDbLine
 10
-1405.290087515257
 20
58.32700112423461
 30
0.0
 11
-1398.733601251551
 21
59.19303475701498
 31
0.0
  0
LINE
  5
2184
330
20EF
100
AcDbEntity
  8
LOGO
  6
Continuous
 62
     6
100
AcDbLine
 10
-1405.290087515257
 20
55.87622544432415
 30
0.0
 11
-1398.733601251551
 21
55.01019181154376
 31
0.0
  0
LINE
  5
2185
330
20EF
100
AcDbEntity
  8
LOGO
 62
     1
100
AcDbLine
 10
-1394.532428195437
 20
60.69593520315566
 30
0.0
 11
-1447.362152839902
 21
60.69593520315566
 31
0.0
  0
LINE
  5
2186
330
20EF
100
AcDbEntity
  8
LOGO
 62
     1
100
AcDbLine
 10
-1394.532428195437
 20
53.49188184254682
 30
0.0
 11
-1447.362152839902
 21
53.49188184254682
 31
0.0
  0
TEXT
  5
2187
330
20EF
100
AcDbEntity
  8
LOGO
 62
     6
100
AcDbText
 10
-1413.14230545059
 20
62.49694854330788
 30
0.0
 40
3.602026680304422
  1
1 : 1
  7
CHINESET
 72
     1
 11
-1406.795877490054
 21
64.29796188346009
 31
0.0
100
AcDbText
 73
     2
  0
TEXT
  5
2188
330
20EF
100
AcDbEntity
  8
LOGO
 62
     6
100
AcDbText
 10
-1413.14230545059
 20
48.08884182209019
 30
0.0
 40
3.602026680304422
  1
m/m
  7
CHINESET
 72
     1
 11
-1406.795877490054
 21
49.88985516224239
 31
0.0
100
AcDbText
 73
     2
  0
LINE
  5
2189
330
20EF
100
AcDbEntity
  8
LOGO
 62
     1
100
AcDbLine
 10
-1394.532428195437
 20
46.28782848193801
 30
0.0
 11
-1473.777015162134
 21
46.28782848193801
 31
0.0
  0
TEXT
  5
218A
330
20EF
100
AcDbEntity
  8
LOGO
  6
Continuous
 62
     5
100
AcDbText
 10
-1461.639953024791
 20
38.95584881485603
 30
0.0
 40
5.403040020456633
  1
金器工業股份有限公司
  7
CHINESET
100
AcDbText
  0
TEXT
  5
218B
330
20EF
100
AcDbEntity
  8
LOGO
  6
Continuous
 62
     5
100
AcDbText
 10
-1471.050906231113
 20
33.55175022217008
 30
0.0
 40
3.602026680304422
  1
MINDMAN INDUSTRIAL CO.,LTD
 41
0.85
  7
CHINESET
100
AcDbText
  0
SOLID
  5
218C
330
20EF
100
AcDbEntity
  8
LOGO
 62
     5
100
AcDbTrace
 10
-1470.039854673187
 20
52.27568512981965
 30
0.0
 11
-1468.482432853803
 21
52.27568512981914
 31
0.0
 12
-1461.984224572926
 22
67.04434031362939
 32
0.0
 13
-1460.426802753543
 23
67.04434031362836
 33
0.0
  0
SOLID
  5
218D
330
20EF
100
AcDbEntity
  8
LOGO
 62
     5
100
AcDbTrace
 10
-1467.837982445782
 20
52.27568512981965
 30
0.0
 11
-1466.280560626398
 21
52.27568512981965
 31
0.0
 12
-1460.426802753543
 22
65.86284789892407
 32
0.0
 13
-1461.984224572926
 23
60.15230122785079
 33
0.0
  0
SOLID
  5
218E
330
20EF
100
AcDbEntity
  8
LOGO
 62
     2
100
AcDbTrace
 10
-1468.482432853803
 20
52.27568512981914
 30
0.0
 11
-1467.837982445782
 21
52.27568512981965
 31
0.0
 12
-1460.426802753543
 22
67.04434031362836
 32
0.0
 13
-1459.782352345522
 23
67.04434031362836
 33
0.0
  0
SOLID
  5
218F
330
20EF
100
AcDbEntity
  8
LOGO
 62
     5
100
AcDbTrace
 10
-1468.43799558124
 20
49.59047509639965
 30
0.0
 11
-1467.900953574557
 21
49.59047509639965
 31
0.0
 12
-1468.43799558124
 22
46.90526506298016
 32
0.0
 13
-1467.900953574557
 23
46.90526506298016
 33
0.0
  0
SOLID
  5
2190
330
20EF
100
AcDbEntity
  8
LOGO
 62
     5
100
AcDbTrace
 10
-1472.536783776272
 20
46.90526506298016
 30
0.0
 11
-1471.999741769588
 21
46.90526506298016
 31
0.0
 12
-1470.487389678756
 22
49.59047509639965
 32
0.0
 13
-1469.950347672073
 23
49.59047509639965
 33
0.0
  0
SOLID
  5
2191
330
20EF
100
AcDbEntity
  8
LOGO
 62
     5
100
AcDbTrace
 10
-1470.487389678756
 20
49.59047509639965
 30
0.0
 11
-1469.950347672073
 21
49.59047509639965
 31
0.0
 12
-1470.487389678756
 22
46.90526506298016
 32
0.0
 13
-1469.950347672073
 23
46.90526506298016
 33
0.0
  0
SOLID
  5
2192
330
20EF
100
AcDbEntity
  8
LOGO
 62
     5
100
AcDbTrace
 10
-1470.487389678756
 20
46.90526506298016
 30
0.0
 11
-1469.950347672073
 21
46.90526506298016
 31
0.0
 12
-1468.43799558124
 22
49.59047509639965
 32
0.0
 13
-1467.900953574557
 23
49.59047509639965
 33
0.0
  0
LINE
  5
2193
330
20EF
100
AcDbEntity
  8
LOGO
 62
     1
100
AcDbLine
 10
-1473.777015162134
 20
31.87972176072029
 30
0.0
 11
-1473.777015162134
 21
67.89998856376451
 31
0.0
  0
TEXT
  5
2194
330
20EF
100
AcDbEntity
  8
LOGO
 62
     6
100
AcDbText
 10
-1444.392088876275
 20
62.49872119423322
 30
0.0
 40
3.602026680304422
  1
比例 Scale:
 41
0.9
  7
CHINESET
 72
     4
 11
-1432.954046118684
 21
64.29796188346009
 31
0.0
100
AcDbText
  0
TEXT
  5
2195
330
20EF
100
AcDbEntity
  8
LOGO
 62
     6
100
AcDbText
 10
-1443.132987585794
 20
55.34356345498185
 30
0.0
 40
3.602026680304422
  1
投影 View:
 41
0.9
  7
CHINESET
 72
     4
 11
-1432.954046118684
 21
57.09390852285124
 31
0.0
100
AcDbText
  0
TEXT
  5
2196
330
20EF
100
AcDbEntity
  8
LOGO
 62
     6
100
AcDbText
 10
-1442.78082515589
 20
48.08884182209019
 30
0.0
 40
3.602026680304422
  1
單位 Unit:
 41
0.9
  7
CHINESET
 72
     4
 11
-1432.954046118684
 21
49.88985516224239
 31
0.0
100
AcDbText
  0
LWPOLYLINE
  5
2197
330
20EF
100
AcDbEntity
  8
LOGO
 62
     5
100
AcDbPolyline
 90
        2
 70
     1
 43
0.5379026509254605
 10
-1455.362391976174
 20
48.24787007968964
 42
1.0
 10
-1453.210781372472
 20
48.24787007968964
 42
1.0
  0
LINE
  5
2198
330
20EF
100
AcDbEntity
  8
LOGO
 62
     5
100
AcDbLine
 10
-1450.169300425879
 20
46.90526506298016
 30
0.0
 11
-1450.169300425879
 21
48.51639108303164
 31
0.0
  0
SOLID
  5
2199
330
20EF
100
AcDbEntity
  8
LOGO
 62
     5
100
AcDbTrace
 10
-1453.481077368496
 20
49.59047509639965
 30
0.0
 11
-1452.944035361813
 21
49.59047509639965
 31
0.0
 12
-1453.481077368496
 22
46.90526506298016
 32
0.0
 13
-1452.944035361813
 23
46.90526506298016
 33
0.0
  0
SOLID
  5
219A
330
20EF
100
AcDbEntity
  8
LOGO
 62
     5
100
AcDbTrace
 10
-1452.317468452615
 20
46.90526506298016
 30
0.0
 11
-1451.780426445931
 21
46.90526506298016
 31
0.0
 12
-1452.317468452615
 22
49.59047509639965
 32
0.0
 13
-1451.780426445931
 23
49.59047509639965
 33
0.0
  0
SOLID
  5
219B
330
20EF
100
AcDbEntity
  8
LOGO
 62
     5
100
AcDbTrace
 10
-1450.706342432563
 20
48.51639108303164
 30
0.0
 11
-1450.169300425879
 21
48.51639108303157
 31
0.0
 12
-1450.706342432563
 22
46.90526506298016
 32
0.0
 13
-1450.169300425879
 23
46.90526506298016
 33
0.0
  0
SOLID
  5
219C
330
20EF
100
AcDbEntity
  8
LOGO
 62
     5
100
AcDbTrace
 10
-1461.178715267101
 20
50.3960381064259
 30
0.0
 11
-1460.641673260418
 21
50.3960381064259
 31
0.0
 12
-1461.178715267101
 22
46.90526506298016
 32
0.0
 13
-1460.641673260418
 23
46.90526506298016
 33
0.0
  0
SOLID
  5
219D
330
20EF
100
AcDbEntity
  8
LOGO
 62
     5
100
AcDbTrace
 10
-1460.015106351218
 20
49.59047509639965
 30
0.0
 11
-1459.478064344535
 21
49.59047509639965
 31
0.0
 12
-1460.015106351218
 22
46.90526506298016
 32
0.0
 13
-1459.478064344535
 23
46.90526506298016
 33
0.0
  0
SOLID
  5
219E
330
20EF
100
AcDbEntity
  8
LOGO
 62
     5
100
AcDbTrace
 10
-1458.403980331167
 20
48.51639108303164
 30
0.0
 11
-1457.866938324483
 21
48.51639108303164
 31
0.0
 12
-1458.403980331167
 22
46.90526506298016
 32
0.0
 13
-1457.866938324483
 23
46.90526506298016
 33
0.0
  0
SOLID
  5
219F
330
20EF
100
AcDbEntity
  8
LOGO
 62
     5
100
AcDbTrace
 10
-1456.792854311115
 20
48.51639108303164
 30
0.0
 11
-1456.255812304432
 21
48.51639108303164
 31
0.0
 12
-1456.792854311115
 22
46.90526506297914
 32
0.0
 13
-1456.255812304432
 23
46.90526506297914
 33
0.0
  0
LINE
  5
21A0
330
20EF
100
AcDbEntity
  8
LOGO
 62
     1
100
AcDbLine
 10
-1447.362152839902
 20
46.28782848193798
 30
0.0
 11
-1447.362152839902
 21
67.89998856376451
 31
0.0
  0
SOLID
  5
21A1
330
20EF
100
AcDbEntity
  8
LOGO
 62
     5
100
AcDbTrace
 10
-1466.101618229771
 20
49.59047509639965
 30
0.0
 11
-1465.564576223088
 21
49.59047509639965
 31
0.0
 12
-1466.101618229771
 22
46.90526506298016
 32
0.0
 13
-1465.564576223088
 23
46.90526506298016
 33
0.0
  0
SOLID
  5
21A2
330
20EF
100
AcDbEntity
  8
LOGO
 62
     5
100
AcDbTrace
 10
-1464.49049220972
 20
48.51639108303164
 30
0.0
 11
-1463.953450203035
 21
48.51639108303164
 31
0.0
 12
-1464.49049220972
 22
46.90526506298016
 32
0.0
 13
-1463.953450203035
 23
46.90526506298016
 33
0.0
  0
SOLID
  5
21A3
330
20EF
100
AcDbEntity
  8
LOGO
 62
     5
100
AcDbTrace
 10
-1467.265227145654
 20
49.59047509639965
 30
0.0
 11
-1466.728185138969
 21
49.59047509639965
 31
0.0
 12
-1467.265227145654
 22
46.90526506297914
 32
0.0
 13
-1466.728185138969
 23
46.90526506298016
 33
0.0
  0
LWPOLYLINE
  5
21A4
330
20EF
100
AcDbEntity
  8
LOGO
 62
     5
100
AcDbPolyline
 90
        2
 70
     1
 43
0.5379026509254605
 10
-1463.060029874778
 20
48.24787007968964
 42
1.0
 10
-1460.908419271076
 20
48.24787007968964
 42
1.0
  0
LWPOLYLINE
  5
21A5
330
20EF
100
AcDbEntity
  8
LOGO
 62
     5
100
AcDbPolyline
 90
        2
 70
     0
 43
0.5379026509254605
 10
-1450.436530462859
 20
48.51639108303165
 42
1.0
 10
-1452.050238415635
 20
48.51639108303165
 42
1.0
  0
SOLID
  5
21A6
330
20EF
100
AcDbEntity
  8
LOGO
 62
     5
100
AcDbTrace
 10
-1451.726722245263
 20
52.27568512981914
 30
0.0
 11
-1450.169300425879
 21
52.27568512981914
 31
0.0
 12
-1451.726722245263
 22
67.04434031362836
 32
0.0
 13
-1450.169300425879
 23
67.04434031362939
 33
0.0
  0
SOLID
  5
21A7
330
20EF
100
AcDbEntity
  8
LOGO
 62
     5
100
AcDbTrace
 10
-1459.782352345522
 20
67.04434031362836
 30
0.0
 11
-1458.224930526139
 21
67.04434031362939
 31
0.0
 12
-1459.782352345522
 22
53.45717754452394
 32
0.0
 13
-1458.224930526139
 23
59.16772421559723
 33
0.0
  0
SOLID
  5
21A8
330
20EF
100
AcDbEntity
  8
LOGO
 62
     5
100
AcDbTrace
 10
-1459.782352345522
 20
53.45717754452394
 30
0.0
 11
-1458.224930526139
 21
59.16772421559723
 31
0.0
 12
-1452.371172653284
 22
67.04434031362939
 32
0.0
 13
-1453.928594472667
 23
67.04434031362939
 33
0.0
  0
SOLID
  5
21A9
330
20EF
100
AcDbEntity
  8
LOGO
 62
     5
100
AcDbTrace
 10
-1452.371172653284
 20
65.86284789892407
 30
0.0
 11
-1453.928594472667
 21
60.15230122785079
 31
0.0
 12
-1452.371172653284
 22
52.27568512981914
 32
0.0
 13
-1453.928594472667
 23
52.27568512981914
 33
0.0
  0
SOLID
  5
21AA
330
20EF
100
AcDbEntity
  8
LOGO
 62
     2
100
AcDbTrace
 10
-1452.371172653284
 20
67.04434031362939
 30
0.0
 11
-1451.726722245263
 21
67.04434031362836
 31
0.0
 12
-1452.371172653284
 22
52.27568512981914
 32
0.0
 13
-1451.726722245263
 23
52.27568512981914
 33
0.0
  0
SOLID
  5
21AB
330
20EF
100
AcDbEntity
  8
LOGO
 62
     5
100
AcDbTrace
 10
-1461.984224572926
 20
52.27568512981965
 30
0.0
 11
-1460.426802753543
 21
52.27568512981965
 31
0.0
 12
-1461.984224572926
 22
60.15230122785079
 32
0.0
 13
-1460.426802753543
 23
65.86284789892407
 33
0.0
  0
SOLID
  5
21AC
330
20EF
100
AcDbEntity
  8
LOGO
 62
     2
100
AcDbTrace
 10
-1460.426802753543
 20
67.04434031362836
 30
0.0
 11
-1459.782352345522
 21
67.04434031362836
 31
0.0
 12
-1460.426802753543
 22
52.27568512981965
 32
0.0
 13
-1459.782352345522
 23
52.27568512981965
 33
0.0
  0
SOLID
  5
21AD
330
20EF
100
AcDbEntity
  8
LOGO
 62
     5
100
AcDbTrace
 10
-1459.782352345522
 20
52.27568512981965
 30
0.0
 11
-1458.224930526139
 21
52.27568512981965
 31
0.0
 12
-1452.371172653284
 22
65.86284789892407
 32
0.0
 13
-1453.928594472667
 23
60.15230122785079
 33
0.0
  0
SOLID
  5
21AE
330
20EF
100
AcDbEntity
  8
LOGO
 62
     2
100
AcDbTrace
 10
-1460.426802753543
 20
52.27568512981965
 30
0.0
 11
-1459.782352345522
 21
52.27568512981965
 31
0.0
 12
-1452.371172653284
 22
67.04434031362939
 32
0.0
 13
-1451.726722245263
 23
67.04434031362836
 33
0.0
  0
LWPOLYLINE
  5
21AF
330
20EF
100
AcDbEntity
  8
LOGO
 62
     5
100
AcDbPolyline
 90
        2
 70
     0
 43
0.5379026509254605
 10
-1458.134168361463
 20
48.51639108303165
 42
1.0
 10
-1459.747876314239
 20
48.51639108303165
 42
1.0
  0
LWPOLYLINE
  5
21B0
330
20EF
100
AcDbEntity
  8
LOGO
 62
     5
100
AcDbPolyline
 90
        2
 70
     0
 43
0.5379026509254605
 10
-1464.220680240015
 20
48.51639108303165
 42
1.0
 10
-1465.834388192792
 20
48.51639108303165
 42
1.0
  0
SOLID
  5
21B1
330
20EF
100
AcDbEntity
  8
LOGO
 62
     5
100
AcDbTrace
 10
-1467.265227145654
 20
49.9664045010782
 30
0.0
 11
-1466.728185138969
 21
49.9664045010782
 31
0.0
 12
-1467.265227145654
 22
50.3960381064259
 32
0.0
 13
-1466.728185138969
 23
50.3960381064259
 33
0.0
  0
LWPOLYLINE
  5
21B2
330
20EF
100
AcDbEntity
  8
LOGO
 62
     5
100
AcDbPolyline
 90
        2
 70
     1
 43
0.0
 10
-1455.092149684349
 20
48.2478700796899
 42
1.000000057330635
 10
-1453.481023664297
 20
48.2478700796899
 42
1.000000057330635
  0
CIRCLE
  5
21B3
330
20EF
100
AcDbEntity
  8
LOGO
 62
     5
100
AcDbCircle
 10
-1454.286586674323
 20
48.2478700796899
 30
0.0
 40
0.8055630100259698
  0
LWPOLYLINE
  5
21B4
330
20EF
100
AcDbEntity
  8
LOGO
 62
     5
100
AcDbPolyline
 90
        2
 70
     0
 43
0.5379026509254605
 10
-1456.523042341411
 20
48.51639108303165
 42
1.0
 10
-1458.136750294188
 20
48.51639108303165
 42
1.0
  0
LINE
  5
21B5
330
20EF
100
AcDbEntity
  8
LOGO
 62
     1
100
AcDbLine
 10
-1418.545939397466
 20
46.28782848193798
 30
0.0
 11
-1418.545939397466
 21
67.89998856376451
 31
0.0
  0
CIRCLE
  5
21B6
330
20EF
100
AcDbEntity
  8
LOGO
  6
Continuous
 62
     6
100
AcDbCircle
 10
-1411.876336464507
 20
57.10161328427936
 30
0.0
 40
2.091421472735613
  0
CIRCLE
  5
21B7
330
20EF
100
AcDbEntity
  8
LOGO
  6
Continuous
 62
     6
100
AcDbCircle
 10
-1411.876336464507
 20
57.10161328427936
 30
0.0
 40
1.225387839955232
  0
LINE
  5
21B8
330
20EF
100
AcDbEntity
  8
LOGO
 62
     6
100
AcDbLine
 10
-1405.290087515257
 20
55.87622544432413
 30
0.0
 11
-1405.290087515257
 21
58.32700112423461
 31
0.0
  0
TEXT
  5
21BF
330
20EF
100
AcDbEntity
  8
LOGO
 62
     7
100
AcDbText
 10
-1391.583993283491
 20
58.88133295686997
 30
0.0
 40
7.204053360608845
  1
訂購代號:
  7
CHINESET
100
AcDbText
  0
TEXT
  5
21C0
330
20EF
100
AcDbEntity
  8
LOGO
 62
     7
100
AcDbText
 10
-1392.445637782151
 20
52.120122614566
 30
0.0
 40
4.802702240405896
  1
Order example:
 41
0.8
  7
CHINESET
100
AcDbText
  0
LINE
  5
21C1
330
20EF
100
AcDbEntity
  8
LOGO
 62
     1
100
AcDbLine
 10
-1394.532428195437
 20
31.87972176072029
 30
0.0
 11
-1394.532428195437
 21
67.89998856376451
 31
0.0
  0
LINE
  5
21C2
330
20EF
100
AcDbEntity
  8
LOGO
 62
     6
100
AcDbLine
 10
-1398.733601251551
 20
55.01019181154376
 30
0.0
 11
-1398.733601251551
 21
59.19303475701498
 31
0.0
  0
LINE
  5
21CF
330
20EF
100
AcDbEntity
  8
LOGO
 62
     1
100
AcDbLine
 10
-1253.847905176084
 20
31.87972176072029
 30
0.0
 11
-1253.847905176084
 21
67.89998856376451
 31
0.0
  0
TEXT
  5
2A46
330
20EF
100
AcDbEntity
  8
LOGO
 62
     6
100
AcDbText
 10
-1281.022316180524
 20
41.48512624153204
 30
0.0
 40
4.802702240405896
  1
配管口徑
 41
0.9
  7
CHINESET
 72
     4
 11
-1272.332426814289
 21
43.88647736173498
 31
0.0
100
AcDbText
  0
LINE
  5
2A47
330
20EF
100
AcDbEntity
  8
LOGO
 62
     6
100
AcDbLine
 10
-1259.93039791693
 20
34.88141066097397
 30
0.0
 11
-1284.734455711649
 21
34.88141066097393
 31
0.0
  0
LINE
  5
2A48
330
20EF
100
AcDbEntity
  8
LOGO
 62
     6
100
AcDbLine
 10
-1259.93039791693
 20
48.08884182209019
 30
0.0
 11
-1284.734455711649
 21
48.08884182209019
 31
0.0
  0
TEXT
  5
2A49
330
20EF
100
AcDbEntity
  8
LOGO
  6
Continuous
 62
     6
100
AcDbText
 10
-1280.565630654985
 20
36.38225511110078
 30
0.0
 40
3.001688900253685
  1
Bore size
 41
0.8
  7
CHINESET
 72
     4
 11
-1272.332426814289
 21
37.88309956122763
 31
0.0
100
AcDbText
  0
TEXT
  5
2A4A
330
20EF
100
AcDbEntity
  8
LOGO
  6
Continuous
 62
     7
100
AcDbText
 10
-1276.63198866535
 20
55.8251542802025
 30
0.0
 40
6.003377800507371
  1
?A
  7
CHINESET
 72
     1
 11
-1271.772111398273
 21
58.82684318045618
 31
0.0
100
AcDbText
 73
     2
  0
LINE
  5
2A4B
330
20EF
100
AcDbEntity
  8
LOGO
 62
     6
100
AcDbLine
 10
-1262.331749037133
 20
64.29796188346009
 30
0.0
 11
-1282.333104591446
 21
64.29796188346009
 31
0.0
  0
LINE
  5
2A4C
330
20EF
100
AcDbEntity
  8
LOGO
 62
     6
100
AcDbLine
 10
-1262.331749037133
 20
53.49188184254681
 30
0.0
 11
-1282.333104591446
 21
53.49188184254682
 31
0.0
  0
TEXT
  5
2A4D
330
20EF
100
AcDbEntity
  8
LOGO
  6
Continuous
 62
     6
100
AcDbText
 10
-1338.698896934581
 20
36.38225511110081
 30
0.0
 40
3.001688900253685
  1
Model
  7
CHINESET
 72
     4
 11
-1332.981394267431
 21
37.88309956122765
 31
0.0
100
AcDbText
  0
TEXT
  5
2A4E
330
20EF
100
AcDbEntity
  8
LOGO
  6
Continuous
 62
     7
100
AcDbText
 10
-1342.837135859214
 20
55.89323296274977
 30
0.0
 40
6.003377800507371
  1
MAF300L
  7
CHINESET
 72
     1
 11
-1323.397626790904
 21
58.89492186300345
 31
0.0
100
AcDbText
 73
     2
  0
LINE
  5
2A4F
330
20EF
100
AcDbEntity
  8
LOGO
 62
     6
100
AcDbLine
 10
-1302.026060335554
 20
64.29796188346009
 30
0.0
 11
-1344.988149868446
 21
64.29796188346009
 31
0.0
  0
LINE
  5
2A50
330
20EF
100
AcDbEntity
  8
LOGO
 62
     6
100
AcDbLine
 10
-1302.026060335554
 20
53.49188184254682
 30
0.0
 11
-1344.988149868446
 21
53.49188184254682
 31
0.0
  0
LINE
  5
2A51
330
20EF
100
AcDbEntity
  8
LOGO
 62
     6
100
AcDbLine
 10
-1320.974638666416
 20
48.08884182209019
 30
0.0
 11
-1344.988149868446
 21
48.08884182209019
 31
0.0
  0
LINE
  5
2A52
330
20EF
100
AcDbEntity
  8
LOGO
 62
     6
100
AcDbLine
 10
-1320.974638666416
 20
34.88141066097396
 30
0.0
 11
-1344.988149868446
 21
34.88141066097393
 31
0.0
  0
LINE
  5
2A53
330
20EF
100
AcDbEntity
  8
LOGO
 62
     6
100
AcDbLine
 10
-1344.988149868446
 20
48.08884182209019
 30
0.0
 11
-1344.988149868446
 21
34.88141066097393
 31
0.0
  0
LINE
  5
2A54
330
20EF
100
AcDbEntity
  8
LOGO
 62
     6
100
AcDbLine
 10
-1344.988149868446
 20
64.29796188346009
 30
0.0
 11
-1344.988149868446
 21
53.49188184254682
 31
0.0
  0
LINE
  5
2A55
330
20EF
100
AcDbEntity
  8
LOGO
 62
     6
100
AcDbLine
 10
-1320.974638666416
 20
48.08884182209019
 30
0.0
 11
-1320.974638666416
 21
34.88141066097397
 31
0.0
  0
TEXT
  5
2A56
330
20EF
100
AcDbEntity
  8
LOGO
 62
     6
100
AcDbText
 10
-1337.784096507837
 20
41.60803003902278
 30
0.0
 40
4.802702240405896
  1
型式
  7
CHINESET
 72
     4
 11
-1332.981394267431
 21
43.88647736173502
 31
0.0
100
AcDbText
  0
LINE
  5
2A57
330
20EF
100
AcDbEntity
  8
LOGO
 62
     6
100
AcDbLine
 10
-1323.105849681948
 20
53.49188184254682
 30
0.0
 11
-1323.105849681948
 21
50.7903618323185
 31
0.0
  0
LINE
  5
2A58
330
20EF
100
AcDbEntity
  8
LOGO
 62
     6
100
AcDbLine
 10
-1302.026060335554
 20
64.29796188346009
 30
0.0
 11
-1302.026060335554
 21
53.49188184254682
 31
0.0
  0
LINE
  5
2A59
330
20EF
100
AcDbEntity
  8
LOGO
 62
     6
100
AcDbLine
 10
-1284.734455711649
 20
48.08884182209019
 30
0.0
 11
-1284.734455711649
 21
34.88141066097393
 31
0.0
  0
LINE
  5
2A5A
330
20EF
100
AcDbEntity
  8
LOGO
  6
Continuous
 62
     7
100
AcDbLine
 10
-1288.973419889874
 20
58.85664501973436
 30
0.0
 11
-1284.201849240147
 21
58.85664501973436
 31
0.0
  0
LINE
  5
2A5B
330
20EF
100
AcDbEntity
  8
LOGO
 62
     6
100
AcDbLine
 10
-1282.333104591446
 20
64.29796188346009
 30
0.0
 11
-1282.333104591446
 21
53.49188184254682
 31
0.0
  0
LINE
  5
2A5C
330
20EF
100
AcDbEntity
  8
LOGO
 62
     6
100
AcDbLine
 10
-1272.078134632619
 20
53.49188184254682
 30
0.0
 11
-1272.078134632619
 21
48.08884182209019
 31
0.0
  0
LINE
  5
2A5D
330
20EF
100
AcDbEntity
  8
LOGO
 62
     6
100
AcDbLine
 10
-1259.93039791693
 20
48.08884182209019
 30
0.0
 11
-1259.93039791693
 21
34.83160988793907
 31
0.0
  0
LINE
  5
2A5E
330
20EF
100
AcDbEntity
  8
LOGO
 62
     6
100
AcDbLine
 10
-1262.331749037133
 20
64.29796188346009
 30
0.0
 11
-1262.331749037133
 21
53.49188184254681
 31
0.0
  0
TEXT
  5
2A60
330
20EF
100
AcDbEntity
  8
LOGO
  6
Continuous
 62
     7
100
AcDbText
 10
-1297.187200936078
 20
55.89323296274977
 30
0.0
 40
6.003377800507371
  1
D
  7
CHINESET
 72
     1
 11
-1295.186075002576
 21
58.89492186300345
 31
0.0
100
AcDbText
 73
     2
  0
LINE
  5
2A61
330
20EF
100
AcDbEntity
  8
LOGO
 62
     6
100
AcDbLine
 10
-1290.277604459516
 20
64.29796188346009
 30
0.0
 11
-1300.270026421282
 21
64.29796188346009
 31
0.0
  0
LINE
  5
2A62
330
20EF
100
AcDbEntity
  8
LOGO
 62
     6
100
AcDbLine
 10
-1290.277604459516
 20
53.49188184254681
 30
0.0
 11
-1300.270026421282
 21
53.49188184254682
 31
0.0
  0
LINE
  5
2A63
330
20EF
100
AcDbEntity
  8
LOGO
 62
     6
100
AcDbLine
 10
-1300.270026421282
 20
64.29796188346009
 30
0.0
 11
-1300.270026421282
 21
53.49188184254682
 31
0.0
  0
LINE
  5
2A64
330
20EF
100
AcDbEntity
  8
LOGO
 62
     6
100
AcDbLine
 10
-1290.277604459516
 20
64.29796188346009
 30
0.0
 11
-1290.277604459516
 21
53.49188184254682
 31
0.0
  0
TEXT
  5
2A65
330
20EF
100
AcDbEntity
  8
LOGO
  6
Continuous
 62
     6
100
AcDbText
 10
-1306.716181100802
 20
36.38225511110081
 30
0.0
 40
3.001688900253685
  1
Model
  7
CHINESET
 72
     4
 11
-1300.998678433652
 21
37.88309956122765
 31
0.0
100
AcDbText
  0
LINE
  5
2A66
330
20EF
100
AcDbEntity
  8
LOGO
 62
     6
100
AcDbLine
 10
-1288.991922832637
 20
48.08884182209019
 30
0.0
 11
-1313.005434034667
 21
48.08884182209019
 31
0.0
  0
LINE
  5
2A67
330
20EF
100
AcDbEntity
  8
LOGO
 62
     6
100
AcDbLine
 10
-1288.991922832637
 20
34.88141066097396
 30
0.0
 11
-1313.005434034667
 21
34.88141066097393
 31
0.0
  0
LINE
  5
2A68
330
20EF
100
AcDbEntity
  8
LOGO
 62
     6
100
AcDbLine
 10
-1313.005434034667
 20
48.08884182209019
 30
0.0
 11
-1313.005434034667
 21
34.88141066097393
 31
0.0
  0
LINE
  5
2A69
330
20EF
100
AcDbEntity
  8
LOGO
 62
     6
100
AcDbLine
 10
-1288.991922832637
 20
48.08884182209019
 30
0.0
 11
-1288.991922832637
 21
34.88141066097397
 31
0.0
  0
TEXT
  5
2A6A
330
20EF
100
AcDbEntity
  8
LOGO
 62
     6
100
AcDbText
 10
-1310.604082914464
 20
41.63501372533083
 30
0.0
 40
4.802702240405896
  1
過濾精度
  7
CHINESET
 72
     4
 11
-1300.998678433652
 21
43.88647736173502
 31
0.0
100
AcDbText
  0
LINE
  5
2A6B
330
20EF
100
AcDbEntity
  8
LOGO
 62
     6
100
AcDbLine
 10
-1295.273815440399
 20
53.49188184254682
 30
0.0
 11
-1295.273815440399
 21
48.0888418220902
 31
0.0
  0
LINE
  5
2A6C
330
20EF
100
AcDbEntity
  8
LOGO
 62
     6
100
AcDbLine
 10
-1332.981394267431
 20
48.08884182209019
 30
0.0
 11
-1332.981394267431
 21
50.7903618323185
 31
0.0
  0
LINE
  5
2A6D
330
20EF
100
AcDbEntity
  8
LOGO
 62
     6
100
AcDbLine
 10
-1323.105849681948
 20
50.7903618323185
 30
0.0
 11
-1332.981394267431
 21
50.7903618323185
 31
0.0
  0
LINE
  5
30C5
330
20EF
100
AcDbEntity
  8
CENTER
  6
CENTER
100
AcDbLine
 10
-1407.001478720893
 20
284.4733142353615
 30
0.0
 11
-1407.001478720893
 21
344.5348654742978
 31
0.0
  0
LINE
  5
30C6
330
20EF
100
AcDbEntity
  8
0
100
AcDbLine
 10
-1433.501478720893
 20
329.2472244252741
 30
0.0
 11
-1433.501478720893
 21
299.2472244252741
 31
0.0
  0
LINE
  5
30C7
330
20EF
100
AcDbEntity
  8
0
100
AcDbLine
 10
-1380.501478720893
 20
329.2472244252741
 30
0.0
 11
-1380.501478720893
 21
299.2472244252741
 31
0.0
  0
LINE
  5
30C8
330
20EF
100
AcDbEntity
  8
0
100
AcDbLine
 10
-1419.329759561965
 20
107.6000499094453
 30
0.0
 11
-1417.036081387559
 21
107.6000499094453
 31
0.0
  0
LINE
  5
30C9
330
20EF
100
AcDbEntity
  8
0
100
AcDbLine
 10
-1419.329759561965
 20
113.6000499094453
 30
0.0
 11
-1417.03608138756
 21
113.6000499094453
 31
0.0
  0
LINE
  5
30CA
330
20EF
100
AcDbEntity
  8
0
100
AcDbLine
 10
-1421.001478720893
 20
124.41191800149
 30
0.0
 11
-1393.001478720893
 21
124.41191800149
 31
0.0
  0
LINE
  5
30CB
330
20EF
100
AcDbEntity
  8
0
100
AcDbLine
 10
-1421.758838033773
 20
120.2389299094455
 30
0.0
 11
-1392.244119408012
 21
120.2389299094455
 31
0.0
  0
LINE
  5
30CC
330
20EF
100
AcDbEntity
  8
0
100
AcDbLine
 10
-1399.251478720893
 20
205.5389299094455
 30
0.0
 11
-1386.891403726721
 21
205.5389299094455
 31
0.0
  0
LINE
  5
30CD
330
20EF
100
AcDbEntity
  8
0
100
AcDbLine
 10
-1422.380158377334
 20
118.7389299094455
 30
0.0
 11
-1391.622799064452
 21
118.7389299094455
 31
0.0
  0
LINE
  5
30CE
330
20EF
100
AcDbEntity
  8
CENTER
  6
CENTER
100
AcDbLine
 10
-1436.896242377509
 20
242.5389299094454
 30
0.0
 11
-1375.912377801386
 21
242.5389299094454
 31
0.0
  0
LINE
  5
30CF
330
20EF
100
AcDbEntity
  8
0
100
AcDbLine
 10
-1398.001478720893
 20
208.5389299094455
 30
0.0
 11
-1380.501478720893
 21
208.5389299094455
 31
0.0
  0
LINE
  5
30D0
330
20EF
100
AcDbEntity
  8
0
100
AcDbLine
 10
-1433.501478720893
 20
222.0389299094455
 30
0.0
 11
-1380.501478720893
 21
222.0389299094455
 31
0.0
  0
LINE
  5
30D1
330
20EF
100
AcDbEntity
  8
0
100
AcDbLine
 10
-1433.501478720893
 20
262.5389299094454
 30
0.0
 11
-1380.501478720893
 21
262.5389299094454
 31
0.0
  0
ARC
  5
30D2
330
20EF
100
AcDbEntity
  8
0
100
AcDbCircle
 10
-1398.974419536457
 20
299.2472244252742
 30
0.0
 40
10.0
100
AcDbArc
 50
270.0
 51
331.699244233998
  0
ARC
  5
30D3
330
20EF
100
AcDbEntity
  8
0
100
AcDbCircle
 10
-1407.001478720893
 20
314.2472244252741
 30
0.0
 40
29.0
100
AcDbArc
 50
293.9650909849828
 51
328.8526100784891
  0
LINE
  5
30D5
330
20EF
100
AcDbEntity
  8
0
 62
     7
100
AcDbLine
 10
-1403.987078720893
 20
97.80688525800549
 30
0.0
 11
-1402.982278720896
 21
99.54724990944539
 31
0.0
  0
LINE
  5
30D6
330
20EF
100
AcDbEntity
  8
0
 62
     7
100
AcDbLine
 10
-1411.020678720895
 20
99.54724990944544
 30
0.0
 11
-1410.015878720893
 21
97.80688525799684
 31
0.0
  0
LINE
  5
30D7
330
20EF
100
AcDbEntity
  8
CENTER
  6
CENTER
100
AcDbLine
 10
-1407.001478720893
 20
271.2376434650765
 30
0.0
 11
-1407.001478720893
 21
94.07977248080062
 31
0.0
  0
LINE
  5
30D8
330
20EF
100
AcDbEntity
  8
0
 62
     7
100
AcDbLine
 10
-1403.987078720893
 20
97.80688525800549
 30
0.0
 11
-1403.987078720893
 21
97.5376499094454
 31
0.0
  0
LINE
  5
30D9
330
20EF
100
AcDbEntity
  8
0
 62
     7
100
AcDbLine
 10
-1410.015878720893
 20
97.5376499094454
 30
0.0
 11
-1403.987078720893
 21
97.5376499094454
 31
0.0
  0
LINE
  5
30DA
330
20EF
100
AcDbEntity
  8
0
 62
     7
100
AcDbLine
 10
-1410.015878720893
 20
97.80688525799689
 30
0.0
 11
-1410.015878720893
 21
97.5376499094454
 31
0.0
  0
LINE
  5
30DB
330
20EF
100
AcDbEntity
  8
0
100
AcDbLine
 10
-1419.306337093195
 20
205.5389299094455
 30
0.0
 11
-1419.091607470376
 21
178.6151387406345
 31
0.0
  0
LINE
  5
30DC
330
20EF
100
AcDbEntity
  8
0
100
AcDbLine
 10
-1426.001478720893
 20
205.5389299094455
 30
0.0
 11
-1425.786749098074
 21
178.6151387406345
 31
0.0
  0
LINE
  5
30DD
330
20EF
100
AcDbEntity
  8
0
100
AcDbLine
 10
-1413.539360186613
 20
208.5389299094455
 30
0.0
 11
-1413.300704183427
 21
178.6151387406345
 31
0.0
  0
LINE
  5
30DE
330
20EF
100
AcDbEntity
  8
0
100
AcDbLine
 10
-1400.303178605303
 20
208.5389299094455
 30
0.0
 11
-1400.541834608489
 21
178.6151387406345
 31
0.0
  0
LINE
  5
30DF
330
20EF
100
AcDbEntity
  8
0
100
AcDbLine
 10
-1394.696620369438
 20
205.5389299094455
 30
0.0
 11
-1394.911349992257
 21
178.6151387406345
 31
0.0
  0
LINE
  5
30E0
330
20EF
100
AcDbEntity
  8
0
100
AcDbLine
 10
-1427.135480095433
 20
208.5389299094455
 30
0.0
 11
-1426.896824092246
 21
178.6151387406345
 31
0.0
  0
LINE
  5
30E1
330
20EF
100
AcDbEntity
  8
0
100
AcDbLine
 10
-1428.635527800647
 20
208.5389299094455
 30
0.0
 11
-1428.396871797461
 21
178.6151387406345
 31
0.0
  0
LINE
  5
30E2
330
20EF
100
AcDbEntity
  8
0
100
AcDbLine
 10
-1428.36496995697
 20
178.6151387406345
 30
0.0
 11
-1428.006378082728
 21
124.3532345088129
 31
0.0
  0
LINE
  5
30E3
330
20EF
100
AcDbEntity
  8
0
100
AcDbLine
 10
-1426.864922251755
 20
178.6151387406345
 30
0.0
 11
-1426.511325148261
 21
124.9795019179053
 31
0.0
  0
LINE
  5
30E4
330
20EF
100
AcDbEntity
  8
0
100
AcDbLine
 10
-1425.754847257583
 20
178.6151387406345
 30
0.0
 11
-1425.431980784112
 21
128.8326501438367
 31
0.0
  0
LINE
  5
30E5
330
20EF
100
AcDbEntity
  8
0
100
AcDbLine
 10
-1419.059705629886
 20
178.6151387406345
 30
0.0
 11
-1418.7015817835
 21
124.41191800149
 31
0.0
  0
LINE
  5
30E6
330
20EF
100
AcDbEntity
  8
0
100
AcDbLine
 10
-1413.268802342936
 20
178.6151387406345
 30
0.0
 11
-1412.91067849655
 21
124.41191800149
 31
0.0
  0
LINE
  5
30E7
330
20EF
100
AcDbEntity
  8
0
100
AcDbLine
 10
-1412.001478720893
 20
178.6151387406345
 30
0.0
 11
-1412.001478720893
 21
135.238930517661
 31
0.0
  0
LINE
  5
30E8
330
20EF
100
AcDbEntity
  8
0
100
AcDbLine
 10
-1402.001478720893
 20
178.6151387406345
 30
0.0
 11
-1402.001478720893
 21
135.2389307034129
 31
0.0
  0
LINE
  5
30E9
330
20EF
100
AcDbEntity
  8
0
100
AcDbLine
 10
-1400.57373644898
 20
178.6151387406345
 30
0.0
 11
-1400.931860295366
 21
124.41191800149
 31
0.0
  0
LINE
  5
30EA
330
20EF
100
AcDbEntity
  8
0
100
AcDbLine
 10
-1394.943251832748
 20
178.6151387406345
 30
0.0
 11
-1395.301375679133
 21
124.41191800149
 31
0.0
  0
LINE
  5
30EB
330
20EF
100
AcDbEntity
  8
0
100
AcDbLine
 10
-1401.092278945236
 20
124.41191800149
 30
0.0
 11
-1400.79497802207
 21
120.2389299094455
 31
0.0
  0
LINE
  5
30EC
330
20EF
100
AcDbEntity
  8
0
100
AcDbLine
 10
-1395.301375658286
 20
124.41191800149
 30
0.0
 11
-1396.266634364258
 21
120.2389299094455
 31
0.0
  0
LINE
  5
30ED
330
20EF
100
AcDbEntity
  8
0
100
AcDbLine
 10
-1418.7015817835
 20
124.41191800149
 30
0.0
 11
-1417.736323077528
 21
120.2389299094455
 31
0.0
  0
LINE
  5
30EE
330
20EF
100
AcDbEntity
  8
0
100
AcDbLine
 10
-1412.91067849655
 20
124.41191800149
 30
0.0
 11
-1413.207979419716
 21
120.2389299094455
 31
0.0
  0
LINE
  5
30EF
330
20EF
100
AcDbEntity
  8
0
100
AcDbLine
 10
-1421.001478720893
 20
118.7389299094455
 30
0.0
 11
-1421.001478720893
 21
125.2389299094455
 31
0.0
  0
LINE
  5
30F0
330
20EF
100
AcDbEntity
  8
0
100
AcDbLine
 10
-1426.072033023738
 20
123.9308045558506
 30
0.0
 11
-1422.819498205553
 21
120.6782697376657
 31
0.0
  0
LINE
  5
30F1
330
20EF
100
AcDbEntity
  8
0
100
AcDbLine
 10
-1427.567085958206
 20
123.3045371467581
 30
0.0
 11
-1423.440818549113
 21
119.1782697376657
 31
0.0
  0
LINE
  5
30F2
330
20EF
100
AcDbEntity
  8
0
 62
     7
100
AcDbLine
 10
-1417.03608138756
 20
117.6336499094454
 30
0.0
 11
-1396.966876054226
 21
117.6336499094454
 31
0.0
  0
LINE
  5
30F3
330
20EF
100
AcDbEntity
  8
0
 62
     7
100
AcDbLine
 10
-1417.03608138756
 20
103.5664499094454
 30
0.0
 11
-1396.966876054226
 21
103.5664499094454
 31
0.0
  0
LINE
  5
30F4
330
20EF
100
AcDbEntity
  8
0
 62
     7
100
AcDbLine
 10
-1419.329759561965
 20
113.6000499094453
 30
0.0
 11
-1419.329759561965
 21
107.6000499094453
 31
0.0
  0
LINE
  5
30F5
330
20EF
100
AcDbEntity
  8
0
 62
     7
100
AcDbLine
 10
-1417.03608138756
 20
117.6336499094454
 30
0.0
 11
-1417.036081387559
 21
103.5664499094453
 31
0.0
  0
ARC
  5
30F6
330
20EF
100
AcDbEntity
  8
0
100
AcDbCircle
 10
-1422.380158377334
 20
120.2389299094455
 30
0.0
 40
1.5
100
AcDbArc
 50
225.0000000000069
 51
270.0
  0
ARC
  5
30F7
330
20EF
100
AcDbEntity
  8
0
100
AcDbCircle
 10
-1421.758838033773
 20
121.7389299094455
 30
0.0
 40
1.5
100
AcDbArc
 50
225.0000000000069
 51
270.0
  0
LINE
  5
30F8
330
20EF
100
AcDbEntity
  8
0
 62
     7
100
AcDbLine
 10
-1411.020678720893
 20
99.54724990944322
 30
0.0
 11
-1402.982278720893
 21
99.54724990944539
 31
0.0
  0
LINE
  5
30F9
330
20EF
100
AcDbEntity
  8
0
 62
     7
100
AcDbLine
 10
-1396.966876054226
 20
117.6336499094454
 30
0.0
 11
-1396.966876054226
 21
103.5664499094453
 31
0.0
  0
LINE
  5
30FA
330
20EF
100
AcDbEntity
  8
0
 62
     7
100
AcDbLine
 10
-1396.81950538756
 20
118.7389299094455
 30
0.0
 11
-1396.966876054226
 21
117.6336499094454
 31
0.0
  0
ARC
  5
30FB
330
20EF
100
AcDbEntity
  8
0
 62
     7
100
AcDbCircle
 10
-1403.987078720893
 20
99.54724990944539
 30
0.0
 40
1.0048
100
AcDbArc
 50
0.0
 51
90.0
  0
LINE
  5
30FC
330
20EF
100
AcDbEntity
  8
0
 62
     7
100
AcDbLine
 10
-1410.015878720893
 20
100.5520499094489
 30
0.0
 11
-1403.987078720893
 21
100.5520499094435
 31
0.0
  0
ARC
  5
30FD
330
20EF
100
AcDbEntity
  8
0
 62
     7
100
AcDbCircle
 10
-1410.015878720893
 20
99.54724990944539
 30
0.0
 40
1.0048
100
AcDbArc
 50
90.0
 51
180.0
  0
LINE
  5
30FE
330
20EF
100
AcDbEntity
  8
0
 62
     7
100
AcDbLine
 10
-1403.987078720893
 20
103.5664499094454
 30
0.0
 11
-1403.987078720893
 21
100.5520499094453
 31
0.0
  0
LINE
  5
30FF
330
20EF
100
AcDbEntity
  8
0
 62
     7
100
AcDbLine
 10
-1410.015878720893
 20
103.5664499094454
 30
0.0
 11
-1410.015878720893
 21
100.5520499094499
 31
0.0
  0
LINE
  5
3100
330
20EF
100
AcDbEntity
  8
0
100
AcDbLine
 10
-1428.049331481629
 20
130.2389299094455
 30
0.0
 11
-1426.549283776415
 21
130.2389299094455
 31
0.0
  0
LINE
  5
3101
330
20EF
100
AcDbEntity
  8
0
100
AcDbLine
 10
-1426.549283776415
 20
129.7389299094455
 30
0.0
 11
-1421.001478720893
 21
125.2389299094455
 31
0.0
  0
ARC
  5
3102
330
20EF
100
AcDbEntity
  8
0
100
AcDbCircle
 10
-1426.506425786426
 20
124.365197318538
 30
0.0
 40
1.5
100
AcDbArc
 50
180.4569505163059
 51
225.0000000000069
  0
ARC
  5
3103
330
20EF
100
AcDbEntity
  8
0
100
AcDbCircle
 10
-1425.011372851959
 20
124.9914647276304
 30
0.0
 40
1.5
100
AcDbArc
 50
180.4569505163059
 51
225.0000000000069
  0
ARC
  5
3104
330
20EF
100
AcDbEntity
  8
0
100
AcDbCircle
 10
-1407.001478720893
 20
135.2389299094453
 30
0.0
 40
5.0
100
AcDbArc
 50
180.0
 51
0.0
  0
LINE
  5
3105
330
20EF
100
AcDbEntity
  8
0
100
AcDbLine
 10
-1412.001478720893
 20
180.5389313776446
 30
0.0
 11
-1412.001478720893
 21
178.6151387406345
 31
0.0
  0
LINE
  5
3106
330
20EF
100
AcDbEntity
  8
0
100
AcDbLine
 10
-1402.001478720893
 20
180.5389305444516
 30
0.0
 11
-1402.001478720893
 21
178.6151387406345
 31
0.0
  0
LINE
  5
3107
330
20EF
100
AcDbEntity
  8
0
100
AcDbLine
 10
-1428.448104487764
 20
185.5389299094455
 30
0.0
 11
-1426.948056782549
 21
185.5389299094455
 31
0.0
  0
ARC
  5
3108
330
20EF
100
AcDbEntity
  8
0
100
AcDbCircle
 10
-1407.001478720893
 20
180.5389299094453
 30
0.0
 40
5.0
100
AcDbArc
 50
0.0
 51
180.0
  0
LINE
  5
3109
330
20EF
100
AcDbEntity
  8
0
100
AcDbLine
 10
-1430.501478720892
 20
252.5389299094455
 30
0.0
 11
-1431.751478720892
 21
250.5389299094454
 31
0.0
  0
LINE
  5
310A
330
20EF
100
AcDbEntity
  8
0
100
AcDbLine
 10
-1430.501478720892
 20
252.5389299094455
 30
0.0
 11
-1430.501478720892
 21
232.5389299094455
 31
0.0
  0
LINE
  5
310B
330
20EF
100
AcDbEntity
  8
0
100
AcDbLine
 10
-1428.001478720893
 20
262.5389299094454
 30
0.0
 11
-1428.001478720893
 21
222.0389299094455
 31
0.0
  0
LINE
  5
310C
330
20EF
100
AcDbEntity
  8
0
100
AcDbLine
 10
-1421.001478720892
 20
262.5389299094454
 30
0.0
 11
-1421.001478720892
 21
222.0389299094455
 31
0.0
  0
LINE
  5
310D
330
20EF
100
AcDbEntity
  8
0
100
AcDbLine
 10
-1433.501478720893
 20
254.9389299094455
 30
0.0
 11
-1433.501478720893
 21
230.1389299094454
 31
0.0
  0
LINE
  5
310E
330
20EF
100
AcDbEntity
  8
0
100
AcDbLine
 10
-1431.751478720892
 20
234.5389299094455
 30
0.0
 11
-1430.501478720892
 21
232.5389299094455
 31
0.0
  0
LINE
  5
310F
330
20EF
100
AcDbEntity
  8
0
100
AcDbLine
 10
-1433.501478720893
 20
232.5389299094455
 30
0.0
 11
-1430.501478720892
 21
232.5389299094455
 31
0.0
  0
LINE
  5
3110
330
20EF
100
AcDbEntity
  8
0
100
AcDbLine
 10
-1433.501478720893
 20
208.5389299094455
 30
0.0
 11
-1416.001478720892
 21
208.5389299094455
 31
0.0
  0
LINE
  5
3111
330
20EF
100
AcDbEntity
  8
0
100
AcDbLine
 10
-1433.501478720893
 20
225.9389299094454
 30
0.0
 11
-1431.401478720893
 21
226.3389299094454
 31
0.0
  0
LINE
  5
3112
330
20EF
100
AcDbEntity
  8
0
100
AcDbLine
 10
-1431.401478720893
 20
229.7389299094453
 30
0.0
 11
-1433.501478720893
 21
230.1389299094454
 31
0.0
  0
LINE
  5
3113
330
20EF
100
AcDbEntity
  8
0
100
AcDbLine
 10
-1433.501478720893
 20
225.9389299094454
 30
0.0
 11
-1433.501478720893
 21
208.5389299094455
 31
0.0
  0
LINE
  5
3114
330
20EF
100
AcDbEntity
  8
0
100
AcDbLine
 10
-1433.501478720893
 20
234.5389299094455
 30
0.0
 11
-1431.751478720892
 21
234.5389299094455
 31
0.0
  0
LINE
  5
3115
330
20EF
100
AcDbEntity
  8
0
100
AcDbLine
 10
-1433.501478720893
 20
250.5389299094454
 30
0.0
 11
-1431.751478720892
 21
250.5389299094454
 31
0.0
  0
LINE
  5
3116
330
20EF
100
AcDbEntity
  8
0
100
AcDbLine
 10
-1431.751478720892
 20
250.5389299094454
 30
0.0
 11
-1431.751478720892
 21
234.5389299094455
 31
0.0
  0
LINE
  5
3117
330
20EF
100
AcDbEntity
  8
0
100
AcDbLine
 10
-1431.401478720893
 20
226.3389299094454
 30
0.0
 11
-1431.401478720893
 21
229.7389299094454
 31
0.0
  0
LINE
  5
3118
330
20EF
100
AcDbEntity
  8
0
100
AcDbLine
 10
-1416.001478720892
 20
208.5389299094455
 30
0.0
 11
-1398.001478720893
 21
208.5389299094455
 31
0.0
  0
LINE
  5
3119
330
20EF
100
AcDbEntity
  8
0
100
AcDbLine
 10
-1414.751478720893
 20
208.5389299094455
 30
0.0
 11
-1414.751478720893
 21
205.5389299094455
 31
0.0
  0
LINE
  5
311A
330
20EF
100
AcDbEntity
  8
0
100
AcDbLine
 10
-1427.111553715065
 20
205.5389299094455
 30
0.0
 11
-1414.751478720893
 21
205.5389299094455
 31
0.0
  0
LINE
  5
311B
330
20EF
100
AcDbEntity
  8
0
100
AcDbLine
 10
-1399.251478720893
 20
208.5389299094455
 30
0.0
 11
-1399.251478720893
 21
205.5389299094455
 31
0.0
  0
LINE
  5
311C
330
20EF
100
AcDbEntity
  8
0
100
AcDbLine
 10
-1433.501478720893
 20
252.5389299094454
 30
0.0
 11
-1430.501478720892
 21
252.5389299094454
 31
0.0
  0
LINE
  5
311D
330
20EF
100
AcDbEntity
  8
0
100
AcDbLine
 10
-1431.401478720893
 20
255.3389299094455
 30
0.0
 11
-1433.501478720893
 21
254.9389299094455
 31
0.0
  0
LINE
  5
311E
330
20EF
100
AcDbEntity
  8
0
100
AcDbLine
 10
-1433.501478720893
 20
259.1389299094454
 30
0.0
 11
-1431.401478720893
 21
258.7389299094454
 31
0.0
  0
LINE
  5
311F
330
20EF
100
AcDbEntity
  8
0
100
AcDbLine
 10
-1431.820826012875
 20
299.2472244252741
 30
0.0
 11
-1430.501478720892
 21
302.2472244252741
 31
0.0
  0
LINE
  5
3120
330
20EF
100
AcDbEntity
  8
0
100
AcDbLine
 10
-1433.501478720893
 20
302.2472244252741
 30
0.0
 11
-1428.001478720893
 21
302.2472244252741
 31
0.0
  0
ARC
  5
3121
330
20EF
100
AcDbEntity
  8
0
100
AcDbCircle
 10
-1407.001478720893
 20
314.2472244252741
 30
0.0
 40
29.0
100
AcDbArc
 50
211.147389921511
 51
246.0349090150172
  0
LINE
  5
3122
330
20EF
100
AcDbEntity
  8
0
100
AcDbLine
 10
-1433.501478720893
 20
262.5389299094454
 30
0.0
 11
-1433.501478720893
 21
259.1389299094454
 31
0.0
  0
LINE
  5
3123
330
20EF
100
AcDbEntity
  8
0
100
AcDbLine
 10
-1433.501478720893
 20
299.2472244252741
 30
0.0
 11
-1431.820826012875
 21
299.2472244252741
 31
0.0
  0
LINE
  5
3124
330
20EF
100
AcDbEntity
  8
0
100
AcDbLine
 10
-1431.401478720893
 20
258.7389299094454
 30
0.0
 11
-1431.401478720893
 21
255.3389299094454
 31
0.0
  0
LINE
  5
3125
330
20EF
100
AcDbEntity
  8
0
100
AcDbLine
 10
-1415.028537905328
 20
289.2472244252741
 30
0.0
 11
-1398.974419536457
 21
289.2472244252742
 31
0.0
  0
LINE
  5
3126
330
20EF
100
AcDbEntity
  8
0
100
AcDbLine
 10
-1418.780697710282
 20
287.7472244252743
 30
0.0
 11
-1395.222259731503
 21
287.7472244252743
 31
0.0
  0
ARC
  5
3129
330
20EF
100
AcDbEntity
  8
0
100
AcDbCircle
 10
-1415.028537905328
 20
299.2472244252741
 30
0.0
 40
10.0
100
AcDbArc
 50
208.300755766002
 51
270.0
  0
LINE
  5
312A
330
20EF
100
AcDbEntity
  8
0
100
AcDbLine
 10
-1423.83324890455
 20
294.506226194924
 30
0.0
 11
-1428.001478720893
 21
302.2472244252742
 31
0.0
  0
DIMENSION
  5
312B
330
20EF
100
AcDbEntity
  8
DIM
100
AcDbDimension
  2
*D1
 10
-1274.852951870519
 20
97.53764990944539
 30
0.0
 11
-1277.352951870519
 21
180.0382899094452
 31
0.0
 70
    32
 71
     5
 42
165.00128
  3
STANDARD
100
AcDbAlignedDimension
 13
-1300.246064948783
 23
262.5389299094454
 33
0.0
 14
-1323.779875113132
 24
97.53764990944539
 34
0.0
 50
90.0
100
AcDbRotatedDimension
  0
DIMENSION
  5
312C
330
20EF
100
AcDbEntity
  8
DIM
100
AcDbDimension
  2
*D2
 10
-1286.796627764938
 20
97.53764990944539
 30
0.0
 11
-1289.296627764938
 21
170.0382899094452
 31
0.0
 70
    32
 71
     5
 42
145.0012800000001
  3
STANDARD
100
AcDbAlignedDimension
 13
-1313.41789562627
 23
242.5389299094454
 33
0.0
 14
-1323.746064948783
 24
97.53764990944539
 34
0.0
 50
90.0
100
AcDbRotatedDimension
  0
DIMENSION
  5
312D
330
20EF
100
AcDbEntity
  8
DIM
100
AcDbDimension
  2
*D3
 10
-1322.775075113134
 20
89.12050855569214
 30
0.0
 11
-1320.548770942885
 21
92.153909745992
 31
0.0
 70
   160
  1
%%c6-排水口
 71
     5
 42
8.038400000001274
  3
STANDARD
100
AcDbAlignedDimension
 13
-1330.813475113135
 23
99.5472499094474
 33
0.0
 14
-1322.775075113134
 24
99.5472499094474
 34
0.0
100
AcDbRotatedDimension
1001
ACAD
1000
DSTYLE
1002
{
1070
    40
1040
1.0
1002
}
  0
LINE
  5
312E
330
20EF
100
AcDbEntity
  8
CENTER
  6
CENTER
100
AcDbLine
 10
-1326.746064948782
 20
267.5485734464715
 30
0.0
 11
-1326.746064948783
 21
95.86922907547052
 31
0.0
  0
LINE
  5
312F
330
20EF
100
AcDbEntity
  8
0
 62
     7
100
AcDbLine
 10
-1330.813475113133
 20
99.54724990944544
 30
0.0
 11
-1329.808675113132
 21
97.80688525799684
 31
0.0
  0
LINE
  5
3130
330
20EF
100
AcDbEntity
  8
0
 62
     7
100
AcDbLine
 10
-1323.779875113132
 20
97.80688525800549
 30
0.0
 11
-1322.775075113135
 21
99.54724990944539
 31
0.0
  0
LINE
  5
3131
330
20EF
100
AcDbEntity
  8
0
 62
     7
100
AcDbLine
 10
-1329.808675113132
 20
97.80688525799689
 30
0.0
 11
-1329.808675113132
 21
97.5376499094454
 31
0.0
  0
LINE
  5
3132
330
20EF
100
AcDbEntity
  8
0
 62
     7
100
AcDbLine
 10
-1329.808675113132
 20
97.5376499094454
 30
0.0
 11
-1323.779875113132
 21
97.5376499094454
 31
0.0
  0
LINE
  5
3133
330
20EF
100
AcDbEntity
  8
0
 62
     7
100
AcDbLine
 10
-1323.779875113132
 20
97.80688525800549
 30
0.0
 11
-1323.779875113132
 21
97.5376499094454
 31
0.0
  0
DIMENSION
  5
3134
330
20EF
100
AcDbEntity
  8
DIM
100
AcDbDimension
  2
*D4
 10
-1286.796627764938
 20
242.5389299094454
 30
0.0
 11
-1289.296627764938
 21
252.5389299094452
 31
0.0
 70
    32
 71
     5
 42
19.99999999999988
  3
STANDARD
100
AcDbAlignedDimension
 13
-1300.246064948783
 23
262.5389299094454
 33
0.0
 14
-1301.024022910566
 24
242.5389299094454
 34
0.0
 50
90.0
100
AcDbRotatedDimension
  0
LINE
  5
3135
330
20EF
100
AcDbEntity
  8
0
100
AcDbLine
 10
-1305.127966789274
 20
208.5389299094454
 30
0.0
 11
-1305.286570501482
 21
186.6524644556544
 31
0.0
  0
LINE
  5
3136
330
20EF
100
AcDbEntity
  8
0
100
AcDbLine
 10
-1306.628014494488
 20
208.5389299094455
 30
0.0
 11
-1306.786618206695
 21
186.6524644556544
 31
0.0
  0
LINE
  5
3137
330
20EF
100
AcDbEntity
  8
0
100
AcDbLine
 10
-1307.746064948783
 20
208.5389299094455
 30
0.0
 11
-1307.898988783526
 21
186.6524644556544
 31
0.0
  0
LINE
  5
3138
330
20EF
100
AcDbEntity
  8
0
100
AcDbLine
 10
-1333.283946414503
 20
210.5389299094455
 30
0.0
 11
-1333.10939178205
 21
186.6524644556544
 31
0.0
  0
LINE
  5
3139
330
20EF
100
AcDbEntity
  8
0
100
AcDbLine
 10
-1320.047764833192
 20
210.5389299094455
 30
0.0
 11
-1320.222319465646
 21
186.6524644556544
 31
0.0
  0
LINE
  5
313A
330
20EF
100
AcDbEntity
  8
0
100
AcDbLine
 10
-1348.364163108292
 20
208.5389299094454
 30
0.0
 11
-1348.221510316329
 21
190.6524644556544
 31
0.0
  0
LINE
  5
313B
330
20EF
100
AcDbEntity
  8
0
100
AcDbLine
 10
-1346.864115403077
 20
208.5389299094454
 30
0.0
 11
-1346.705511690869
 21
186.6524644556544
 31
0.0
  0
LINE
  5
313C
330
20EF
100
AcDbEntity
  8
0
100
AcDbLine
 10
-1345.746064948783
 20
208.5389299094454
 30
0.0
 11
-1345.59314111404
 21
186.6524644556544
 31
0.0
  0
LINE
  5
313D
330
20EF
100
AcDbEntity
  8
0
100
AcDbLine
 10
-1339.050923321085
 20
208.5389299094454
 30
0.0
 11
-1338.897999486343
 21
186.6524644556544
 31
0.0
  0
LINE
  5
313E
330
20EF
100
AcDbEntity
  8
0
100
AcDbLine
 10
-1314.441206597328
 20
208.5389299094455
 30
0.0
 11
-1314.594130432071
 21
186.6524644556544
 31
0.0
  0
LINE
  5
313F
330
20EF
100
AcDbEntity
  8
0
100
AcDbLine
 10
-1388.001478720893
 20
205.5389299094455
 30
0.0
 11
-1388.216208343712
 21
178.6151387406345
 31
0.0
  0
LINE
  5
3140
330
20EF
100
AcDbEntity
  8
0
100
AcDbLine
 10
-1386.867477346353
 20
208.5389299094455
 30
0.0
 11
-1387.106133349539
 21
178.6151387406345
 31
0.0
  0
LINE
  5
3141
330
20EF
100
AcDbEntity
  8
0
100
AcDbLine
 10
-1385.367429641139
 20
208.5389299094455
 30
0.0
 11
-1385.606085644325
 21
178.6151387406345
 31
0.0
  0
LINE
  5
3142
330
20EF
100
AcDbEntity
  8
0
100
AcDbLine
 10
-1388.248110184202
 20
178.6151387406345
 30
0.0
 11
-1388.570976657673
 21
128.8326501438369
 31
0.0
  0
LINE
  5
3143
330
20EF
100
AcDbEntity
  8
0
100
AcDbLine
 10
-1387.13803519003
 20
178.6151387406345
 30
0.0
 11
-1387.491632293525
 21
124.9795019179053
 31
0.0
  0
LINE
  5
3144
330
20EF
100
AcDbEntity
  8
0
100
AcDbLine
 10
-1385.637987484816
 20
178.6151387406345
 30
0.0
 11
-1385.996579359058
 21
124.3532345088129
 31
0.0
  0
LINE
  5
3145
330
20EF
100
AcDbEntity
  8
0
100
AcDbLine
 10
-1393.001478720893
 20
118.7389299094455
 30
0.0
 11
-1393.001478720893
 21
125.2389299094455
 31
0.0
  0
LINE
  5
3146
330
20EF
100
AcDbEntity
  8
0
100
AcDbLine
 10
-1386.43587148358
 20
123.3045371467581
 30
0.0
 11
-1390.562138892672
 21
119.1782697376657
 31
0.0
  0
LINE
  5
3147
330
20EF
100
AcDbEntity
  8
0
100
AcDbLine
 10
-1387.930924418047
 20
123.9308045558506
 30
0.0
 11
-1391.183459236233
 21
120.6782697376657
 31
0.0
  0
LINE
  5
3148
330
20EF
100
AcDbEntity
  8
0
 62
     7
100
AcDbLine
 10
-1392.288805684005
 20
113.6000499094453
 30
0.0
 11
-1392.288805684005
 21
107.6000499094453
 31
0.0
  0
ARC
  5
3149
330
20EF
100
AcDbEntity
  8
0
100
AcDbCircle
 10
-1391.622799064452
 20
120.2389299094455
 30
0.0
 40
1.5
100
AcDbArc
 50
270.0
 51
314.9999999999931
  0
ARC
  5
314A
330
20EF
100
AcDbEntity
  8
0
100
AcDbCircle
 10
-1392.244119408012
 20
121.7389299094455
 30
0.0
 40
1.5
100
AcDbArc
 50
270.0
 51
314.9999999999931
  0
LINE
  5
314B
330
20EF
100
AcDbEntity
  8
0
100
AcDbLine
 10
-1387.453673665371
 20
130.2389299094455
 30
0.0
 11
-1385.953625960157
 21
130.2389299094455
 31
0.0
  0
LINE
  5
314C
330
20EF
100
AcDbEntity
  8
0
100
AcDbLine
 10
-1387.453673665371
 20
129.7389299094455
 30
0.0
 11
-1393.001478720893
 21
125.2389299094455
 31
0.0
  0
ARC
  5
314D
330
20EF
100
AcDbEntity
  8
0
100
AcDbCircle
 10
-1387.49653165536
 20
124.365197318538
 30
0.0
 40
1.5
100
AcDbArc
 50
314.9999999999931
 51
359.5430494836941
  0
ARC
  5
314E
330
20EF
100
AcDbEntity
  8
0
100
AcDbCircle
 10
-1388.991584589827
 20
124.9914647276304
 30
0.0
 40
1.5
100
AcDbArc
 50
314.9999999999931
 51
359.5430494836941
  0
LINE
  5
314F
330
20EF
100
AcDbEntity
  8
0
100
AcDbLine
 10
-1387.054900659236
 20
185.5389299094454
 30
0.0
 11
-1385.554852954022
 21
185.5389299094454
 31
0.0
  0
LINE
  5
3150
330
20EF
100
AcDbEntity
  8
0
100
AcDbLine
 10
-1305.382573712706
 20
178.6151387406345
 30
0.0
 11
-1305.741165586948
 21
124.3532345088129
 31
0.0
  0
LINE
  5
3151
330
20EF
100
AcDbEntity
  8
0
100
AcDbLine
 10
-1306.88262141792
 20
178.6151387406345
 30
0.0
 11
-1307.236218521415
 21
124.9795019179053
 31
0.0
  0
LINE
  5
3152
330
20EF
100
AcDbEntity
  8
0
100
AcDbLine
 10
-1307.992696412092
 20
178.6151387406345
 30
0.0
 11
-1308.315562885563
 21
128.8326501438369
 31
0.0
  0
LINE
  5
3153
330
20EF
100
AcDbEntity
  8
0
100
AcDbLine
 10
-1320.31832267687
 20
178.6151387406345
 30
0.0
 11
-1320.676446523256
 21
124.41191800149
 31
0.0
  0
LINE
  5
3154
330
20EF
100
AcDbEntity
  8
0
100
AcDbLine
 10
-1321.746064948783
 20
178.6151387406345
 30
0.0
 11
-1321.746064948783
 21
135.2389307034129
 31
0.0
  0
LINE
  5
3155
330
20EF
100
AcDbEntity
  8
0
100
AcDbLine
 10
-1331.746064948783
 20
178.6151387406345
 30
0.0
 11
-1331.746064948783
 21
135.238930517661
 31
0.0
  0
LINE
  5
3156
330
20EF
100
AcDbEntity
  8
0
100
AcDbLine
 10
-1333.013388570826
 20
178.6151387406345
 30
0.0
 11
-1332.65526472444
 21
124.41191800149
 31
0.0
  0
LINE
  5
3157
330
20EF
100
AcDbEntity
  8
0
100
AcDbLine
 10
-1338.804291857776
 20
178.6151387406345
 30
0.0
 11
-1338.44616801139
 21
124.41191800149
 31
0.0
  0
LINE
  5
3158
330
20EF
100
AcDbEntity
  8
0
100
AcDbLine
 10
-1345.499433485473
 20
178.6151387406345
 30
0.0
 11
-1345.176567012002
 21
128.8326501438367
 31
0.0
  0
LINE
  5
3159
330
20EF
100
AcDbEntity
  8
0
100
AcDbLine
 10
-1346.609508479645
 20
178.6151387406345
 30
0.0
 11
-1346.255911376151
 21
124.9795019179053
 31
0.0
  0
LINE
  5
315A
330
20EF
100
AcDbEntity
  8
0
100
AcDbLine
 10
-1348.10955618486
 20
178.6151387406345
 30
0.0
 11
-1347.750964310618
 21
124.3532345088129
 31
0.0
  0
LINE
  5
315B
330
20EF
100
AcDbEntity
  8
0
100
AcDbLine
 10
-1314.687838060638
 20
178.6151387406345
 30
0.0
 11
-1315.045961907023
 21
124.41191800149
 31
0.0
  0
LINE
  5
315C
330
20EF
100
AcDbEntity
  8
CENTER
  6
CENTER
100
AcDbLine
 10
-1317.373601503645
 20
110.6000499094453
 30
0.0
 11
-1335.909231530258
 21
110.6000499094453
 31
0.0
  0
ARC
  5
315D
330
20EF
100
AcDbEntity
  8
0
100
AcDbCircle
 10
-1326.746064948783
 20
135.2389299094453
 30
0.0
 40
5.0
100
AcDbArc
 50
180.0
 51
0.0
  0
LINE
  5
315E
330
20EF
100
AcDbEntity
  8
0
100
AcDbLine
 10
-1341.503424261663
 20
120.2389299094455
 30
0.0
 11
-1311.988705635902
 21
120.2389299094455
 31
0.0
  0
LINE
  5
315F
330
20EF
100
AcDbEntity
  8
0
100
AcDbLine
 10
-1342.124744605223
 20
118.7389299094455
 30
0.0
 11
-1311.367385292342
 21
118.7389299094455
 31
0.0
  0
LINE
  5
3160
330
20EF
100
AcDbEntity
  8
0
100
AcDbLine
 10
-1340.746064948783
 20
124.41191800149
 30
0.0
 11
-1312.746064948783
 21
124.41191800149
 31
0.0
  0
CIRCLE
  5
3161
330
20EF
100
AcDbEntity
  8
0
 62
     7
100
AcDbCircle
 10
-1326.794275113132
 20
110.6000499094453
 30
0.0
 40
5.526399999999985
  0
LINE
  5
3162
330
20EF
100
AcDbEntity
  8
0
 62
     7
100
AcDbLine
 10
-1333.928355113132
 20
103.5664499094454
 30
0.0
 11
-1319.660195113132
 21
103.5664499094454
 31
0.0
  0
LINE
  5
3163
330
20EF
100
AcDbEntity
  8
0
 62
     7
100
AcDbLine
 10
-1336.828877779799
 20
117.6336499094454
 30
0.0
 11
-1316.759672446466
 21
117.6336499094454
 31
0.0
  0
LINE
  5
3164
330
20EF
100
AcDbEntity
  8
0
100
AcDbLine
 10
-1338.44616801139
 20
124.41191800149
 30
0.0
 11
-1337.480909305418
 21
120.2389299094455
 31
0.0
  0
LINE
  5
3165
330
20EF
100
AcDbEntity
  8
0
100
AcDbLine
 10
-1332.65526472444
 20
124.41191800149
 30
0.0
 11
-1332.952565647606
 21
120.2389299094455
 31
0.0
  0
LINE
  5
3166
330
20EF
100
AcDbEntity
  8
0
100
AcDbLine
 10
-1345.816619251628
 20
123.9308045558506
 30
0.0
 11
-1342.564084433443
 21
120.6782697376657
 31
0.0
  0
LINE
  5
3167
330
20EF
100
AcDbEntity
  8
0
100
AcDbLine
 10
-1347.311672186095
 20
123.3045371467581
 30
0.0
 11
-1343.185404777003
 21
119.1782697376657
 31
0.0
  0
LINE
  5
3168
330
20EF
100
AcDbEntity
  8
0
100
AcDbLine
 10
-1340.746064948783
 20
118.7389299094455
 30
0.0
 11
-1340.746064948783
 21
125.2389299094455
 31
0.0
  0
ARC
  5
3169
330
20EF
100
AcDbEntity
  8
0
100
AcDbCircle
 10
-1342.124744605223
 20
120.2389299094455
 30
0.0
 40
1.5
100
AcDbArc
 50
225.0000000000069
 51
270.0
  0
ARC
  5
316A
330
20EF
100
AcDbEntity
  8
0
100
AcDbCircle
 10
-1341.503424261663
 20
121.7389299094455
 30
0.0
 40
1.5
100
AcDbArc
 50
225.0000000000069
 51
270.0
  0
LINE
  5
316B
330
20EF
100
AcDbEntity
  8
0
 62
     7
100
AcDbLine
 10
-1336.976248446465
 20
118.7389299094455
 30
0.0
 11
-1336.828877779799
 21
117.6336499094454
 31
0.0
  0
ARC
  5
316C
330
20EF
100
AcDbEntity
  8
0
 62
     7
100
AcDbCircle
 10
-1333.928355113132
 20
103.9683699094454
 30
0.0
 40
0.4019200000000001
100
AcDbArc
 50
180.0
 51
270.0
  0
LINE
  5
316D
330
20EF
100
AcDbEntity
  8
0
 62
     7
100
AcDbLine
 10
-1334.330275113132
 20
117.6336499094454
 30
0.0
 11
-1334.330275113132
 21
103.9683699094454
 31
0.0
  0
LINE
  5
316E
330
20EF
100
AcDbEntity
  8
0
100
AcDbLine
 10
-1347.793917709519
 20
130.2389299094455
 30
0.0
 11
-1346.293870004305
 21
130.2389299094455
 31
0.0
  0
ARC
  5
316F
330
20EF
100
AcDbEntity
  8
0
100
AcDbCircle
 10
-1346.251012014315
 20
124.365197318538
 30
0.0
 40
1.5
100
AcDbArc
 50
180.4569505163059
 51
225.0000000000069
  0
ARC
  5
3170
330
20EF
100
AcDbEntity
  8
0
100
AcDbCircle
 10
-1344.755959079849
 20
124.9914647276304
 30
0.0
 40
1.5
100
AcDbArc
 50
180.4569505163059
 51
225.0000000000069
  0
LINE
  5
3171
330
20EF
100
AcDbEntity
  8
0
100
AcDbLine
 10
-1346.293870004305
 20
129.7389299094455
 30
0.0
 11
-1340.746064948783
 21
125.2389299094455
 31
0.0
  0
LINE
  5
3172
330
20EF
100
AcDbEntity
  8
0
100
AcDbLine
 10
-1307.675510645937
 20
123.9308045558506
 30
0.0
 11
-1310.928045464123
 21
120.6782697376657
 31
0.0
  0
LINE
  5
3173
330
20EF
100
AcDbEntity
  8
0
100
AcDbLine
 10
-1312.746064948783
 20
118.7389299094455
 30
0.0
 11
-1312.746064948783
 21
125.2389299094455
 31
0.0
  0
LINE
  5
3174
330
20EF
100
AcDbEntity
  8
0
100
AcDbLine
 10
-1306.18045771147
 20
123.3045371467581
 30
0.0
 11
-1310.306725120562
 21
119.1782697376657
 31
0.0
  0
LINE
  5
3175
330
20EF
100
AcDbEntity
  8
0
100
AcDbLine
 10
-1315.045961886176
 20
124.41191800149
 30
0.0
 11
-1316.011220592148
 21
120.2389299094455
 31
0.0
  0
LINE
  5
3176
330
20EF
100
AcDbEntity
  8
0
100
AcDbLine
 10
-1320.836865173126
 20
124.41191800149
 30
0.0
 11
-1320.539564249959
 21
120.2389299094455
 31
0.0
  0
LINE
  5
3177
330
20EF
100
AcDbEntity
  8
0
 62
     7
100
AcDbLine
 10
-1329.808675113132
 20
103.5664499094454
 30
0.0
 11
-1329.808675113132
 21
100.5520499094499
 31
0.0
  0
ARC
  5
3178
330
20EF
100
AcDbEntity
  8
0
 62
     7
100
AcDbCircle
 10
-1329.808675113132
 20
99.54724990944539
 30
0.0
 40
1.0048
100
AcDbArc
 50
90.0
 51
180.0
  0
CIRCLE
  5
3179
330
20EF
100
AcDbEntity
  8
0
 62
     7
100
AcDbCircle
 10
-1326.794275113132
 20
110.6000499094453
 30
0.0
 40
3.215359999999974
  0
LINE
  5
317A
330
20EF
100
AcDbEntity
  8
0
 62
     7
100
AcDbLine
 10
-1329.808675113132
 20
100.5520499094489
 30
0.0
 11
-1323.779875113132
 21
100.5520499094435
 31
0.0
  0
LINE
  5
317B
330
20EF
100
AcDbEntity
  8
0
 62
     7
100
AcDbLine
 10
-1323.779875113132
 20
103.5664499094454
 30
0.0
 11
-1323.779875113132
 21
100.5520499094453
 31
0.0
  0
LINE
  5
317C
330
20EF
100
AcDbEntity
  8
0
 62
     7
100
AcDbLine
 10
-1316.612301779799
 20
118.7389299094455
 30
0.0
 11
-1316.759672446466
 21
117.6336499094454
 31
0.0
  0
ARC
  5
317D
330
20EF
100
AcDbEntity
  8
0
 62
     7
100
AcDbCircle
 10
-1319.660195113132
 20
103.9683699094454
 30
0.0
 40
0.4019200000000001
100
AcDbArc
 50
270.0
 51
0.0
  0
LINE
  5
317E
330
20EF
100
AcDbEntity
  8
0
 62
     7
100
AcDbLine
 10
-1319.258275113132
 20
117.6336499094454
 30
0.0
 11
-1319.258275113132
 21
103.9683699094454
 31
0.0
  0
LINE
  5
317F
330
20EF
100
AcDbEntity
  8
0
 62
     7
100
AcDbLine
 10
-1330.813475113135
 20
99.54724990944738
 30
0.0
 11
-1322.775075113134
 21
99.54724990944738
 31
0.0
  0
ARC
  5
3180
330
20EF
100
AcDbEntity
  8
0
 62
     7
100
AcDbCircle
 10
-1323.779875113132
 20
99.54724990944539
 30
0.0
 40
1.0048
100
AcDbArc
 50
0.0
 51
90.0
  0
ARC
  5
3181
330
20EF
100
AcDbEntity
  8
0
100
AcDbCircle
 10
-1311.367385292342
 20
120.2389299094455
 30
0.0
 40
1.5
100
AcDbArc
 50
270.0
 51
314.9999999999931
  0
ARC
  5
3182
330
20EF
100
AcDbEntity
  8
0
100
AcDbCircle
 10
-1311.988705635902
 20
121.7389299094455
 30
0.0
 40
1.5
100
AcDbArc
 50
270.0
 51
314.9999999999931
  0
LINE
  5
3183
330
20EF
100
AcDbEntity
  8
0
100
AcDbLine
 10
-1307.198259893261
 20
129.7389299094455
 30
0.0
 11
-1312.746064948783
 21
125.2389299094455
 31
0.0
  0
LINE
  5
3184
330
20EF
100
AcDbEntity
  8
0
100
AcDbLine
 10
-1307.198259893261
 20
130.2389299094455
 30
0.0
 11
-1305.698212188047
 21
130.2389299094455
 31
0.0
  0
ARC
  5
3185
330
20EF
100
AcDbEntity
  8
0
100
AcDbCircle
 10
-1307.24111788325
 20
124.365197318538
 30
0.0
 40
1.5
100
AcDbArc
 50
314.9999999999931
 51
359.5430494836941
  0
ARC
  5
3186
330
20EF
100
AcDbEntity
  8
0
100
AcDbCircle
 10
-1308.736170817717
 20
124.9914647276304
 30
0.0
 40
1.5
100
AcDbArc
 50
314.9999999999931
 51
359.5430494836941
  0
ARC
  5
3187
330
20EF
100
AcDbEntity
  8
0
100
AcDbCircle
 10
-1326.746064948783
 20
180.5389299094453
 30
0.0
 40
5.0
100
AcDbArc
 50
0.0
 51
180.0
  0
LINE
  5
3188
330
20EF
100
AcDbEntity
  8
0
100
AcDbLine
 10
-1345.59314111404
 20
186.6524644556544
 30
0.0
 11
-1345.531335325964
 21
178.6151387406345
 31
0.0
  0
LINE
  5
3189
330
20EF
100
AcDbEntity
  8
0
100
AcDbLine
 10
-1346.705511690869
 20
186.6524644556544
 30
0.0
 11
-1346.641410320136
 21
178.6151387406345
 31
0.0
  0
LINE
  5
318A
330
20EF
100
AcDbEntity
  8
0
100
AcDbLine
 10
-1348.380114028537
 20
208.5389299094454
 30
0.0
 11
-1348.141458025351
 21
178.6151387406345
 31
0.0
  0
LINE
  5
318B
330
20EF
100
AcDbEntity
  8
0
100
AcDbLine
 10
-1338.897999486343
 20
186.6524644556544
 30
0.0
 11
-1338.836193698266
 21
178.6151387406345
 31
0.0
  0
LINE
  5
318C
330
20EF
100
AcDbEntity
  8
0
100
AcDbLine
 10
-1333.10939178205
 20
186.6524644556544
 30
0.0
 11
-1333.045290411317
 21
178.6151387406345
 31
0.0
  0
LINE
  5
318D
330
20EF
100
AcDbEntity
  8
0
100
AcDbLine
 10
-1331.746064948783
 20
180.5389313776446
 30
0.0
 11
-1331.746064948783
 21
178.6151387406345
 31
0.0
  0
LINE
  5
318E
330
20EF
100
AcDbEntity
  8
0
100
AcDbLine
 10
-1348.192690715654
 20
185.5389299094455
 30
0.0
 11
-1346.692643010439
 21
185.5389299094455
 31
0.0
  0
LINE
  5
318F
330
20EF
100
AcDbEntity
  8
0
100
AcDbLine
 10
-1305.286570501482
 20
186.6524644556544
 30
0.0
 11
-1305.350671872215
 21
178.6151387406345
 31
0.0
  0
LINE
  5
3190
330
20EF
100
AcDbEntity
  8
0
100
AcDbLine
 10
-1306.786618206695
 20
186.6524644556544
 30
0.0
 11
-1306.850719577429
 21
178.6151387406345
 31
0.0
  0
LINE
  5
3191
330
20EF
100
AcDbEntity
  8
0
100
AcDbLine
 10
-1307.898988783526
 20
186.6524644556544
 30
0.0
 11
-1307.960794571602
 21
178.6151387406345
 31
0.0
  0
LINE
  5
3192
330
20EF
100
AcDbEntity
  8
0
100
AcDbLine
 10
-1314.594130432071
 20
186.6524644556544
 30
0.0
 11
-1314.655936220147
 21
178.6151387406345
 31
0.0
  0
LINE
  5
3193
330
20EF
100
AcDbEntity
  8
0
100
AcDbLine
 10
-1320.222319465646
 20
186.6524644556544
 30
0.0
 11
-1320.286420836379
 21
178.6151387406345
 31
0.0
  0
LINE
  5
3194
330
20EF
100
AcDbEntity
  8
0
100
AcDbLine
 10
-1321.746064948783
 20
180.5389305444516
 30
0.0
 11
-1321.746064948783
 21
178.6151387406345
 31
0.0
  0
LINE
  5
3195
330
20EF
100
AcDbEntity
  8
0
100
AcDbLine
 10
-1306.799486887126
 20
185.5389299094454
 30
0.0
 11
-1305.299439181912
 21
185.5389299094454
 31
0.0
  0
LINE
  5
3196
330
20EF
100
AcDbEntity
  8
0
100
AcDbLine
 10
-1383.501478720893
 20
252.5389299094455
 30
0.0
 11
-1382.251478720893
 21
250.5389299094454
 31
0.0
  0
LINE
  5
3197
330
20EF
100
AcDbEntity
  8
0
100
AcDbLine
 10
-1383.501478720893
 20
252.5389299094455
 30
0.0
 11
-1383.501478720893
 21
232.5389299094455
 31
0.0
  0
LINE
  5
3198
330
20EF
100
AcDbEntity
  8
0
100
AcDbLine
 10
-1386.001478720893
 20
262.5389299094454
 30
0.0
 11
-1386.001478720892
 21
222.0389299094455
 31
0.0
  0
LINE
  5
3199
330
20EF
100
AcDbEntity
  8
0
100
AcDbLine
 10
-1393.001478720893
 20
262.5389299094454
 30
0.0
 11
-1393.001478720893
 21
222.0389299094455
 31
0.0
  0
LINE
  5
319A
330
20EF
100
AcDbEntity
  8
0
100
AcDbLine
 10
-1380.501478720893
 20
254.9389299094454
 30
0.0
 11
-1380.501478720893
 21
230.1389299094454
 31
0.0
  0
LINE
  5
319B
330
20EF
100
AcDbEntity
  8
0
100
AcDbLine
 10
-1382.601478720892
 20
226.3389299094454
 30
0.0
 11
-1382.601478720892
 21
229.7389299094454
 31
0.0
  0
LINE
  5
319C
330
20EF
100
AcDbEntity
  8
0
100
AcDbLine
 10
-1380.501478720893
 20
225.9389299094454
 30
0.0
 11
-1382.601478720892
 21
226.3389299094454
 31
0.0
  0
LINE
  5
319D
330
20EF
100
AcDbEntity
  8
0
100
AcDbLine
 10
-1380.501478720893
 20
225.9389299094454
 30
0.0
 11
-1380.501478720893
 21
208.5389299094455
 31
0.0
  0
LINE
  5
319E
330
20EF
100
AcDbEntity
  8
0
100
AcDbLine
 10
-1383.501478720893
 20
232.5389299094454
 30
0.0
 11
-1382.251478720893
 21
234.5389299094454
 31
0.0
  0
LINE
  5
319F
330
20EF
100
AcDbEntity
  8
0
100
AcDbLine
 10
-1383.501478720893
 20
232.5389299094454
 30
0.0
 11
-1380.501478720893
 21
232.5389299094455
 31
0.0
  0
LINE
  5
31A0
330
20EF
100
AcDbEntity
  8
0
100
AcDbLine
 10
-1382.251478720893
 20
250.5389299094454
 30
0.0
 11
-1380.501478720893
 21
250.5389299094454
 31
0.0
  0
LINE
  5
31A1
330
20EF
100
AcDbEntity
  8
0
100
AcDbLine
 10
-1382.251478720893
 20
234.5389299094454
 30
0.0
 11
-1380.501478720893
 21
234.5389299094455
 31
0.0
  0
LINE
  5
31A2
330
20EF
100
AcDbEntity
  8
0
100
AcDbLine
 10
-1382.251478720893
 20
250.5389299094454
 30
0.0
 11
-1382.251478720893
 21
234.5389299094455
 31
0.0
  0
LINE
  5
31A3
330
20EF
100
AcDbEntity
  8
0
100
AcDbLine
 10
-1382.601478720892
 20
229.7389299094453
 30
0.0
 11
-1380.501478720893
 21
230.1389299094454
 31
0.0
  0
LINE
  5
31A4
330
20EF
100
AcDbEntity
  8
0
100
AcDbLine
 10
-1383.501478720893
 20
252.5389299094455
 30
0.0
 11
-1380.501478720893
 21
252.5389299094454
 31
0.0
  0
LINE
  5
31A5
330
20EF
100
AcDbEntity
  8
0
100
AcDbLine
 10
-1380.501478720893
 20
262.5389299094454
 30
0.0
 11
-1380.501478720893
 21
259.1389299094454
 31
0.0
  0
LINE
  5
31A6
330
20EF
100
AcDbEntity
  8
0
100
AcDbLine
 10
-1382.601478720892
 20
258.7389299094454
 30
0.0
 11
-1382.601478720892
 21
255.3389299094454
 31
0.0
  0
LINE
  5
31A7
330
20EF
100
AcDbEntity
  8
0
100
AcDbLine
 10
-1380.501478720893
 20
259.1389299094454
 30
0.0
 11
-1382.601478720892
 21
258.7389299094454
 31
0.0
  0
LINE
  5
31A8
330
20EF
100
AcDbEntity
  8
0
100
AcDbLine
 10
-1382.601478720892
 20
255.3389299094455
 30
0.0
 11
-1380.501478720893
 21
254.9389299094455
 31
0.0
  0
LINE
  5
31A9
330
20EF
100
AcDbEntity
  8
0
100
AcDbLine
 10
-1386.001478720892
 20
302.2472244252741
 30
0.0
 11
-1380.501478720893
 21
302.2472244252741
 31
0.0
  0
LINE
  5
31AA
330
20EF
100
AcDbEntity
  8
0
100
AcDbLine
 10
-1386.001478720892
 20
302.2472244252742
 30
0.0
 11
-1390.169708537235
 21
294.506226194924
 31
0.0
  0
LINE
  5
31AB
330
20EF
100
AcDbEntity
  8
0
100
AcDbLine
 10
-1382.182131428911
 20
299.2472244252741
 30
0.0
 11
-1383.501478720893
 21
302.2472244252741
 31
0.0
  0
LINE
  5
31AC
330
20EF
100
AcDbEntity
  8
0
100
AcDbLine
 10
-1382.182131428911
 20
299.2472244252741
 30
0.0
 11
-1380.501478720893
 21
299.2472244252742
 31
0.0
  0
LINE
  5
31AD
330
20EF
100
AcDbEntity
  8
0
100
AcDbLine
 10
-1300.246064948783
 20
222.0389299094454
 30
0.0
 11
-1300.246064948783
 21
262.5389299094455
 31
0.0
  0
LINE
  5
31AE
330
20EF
100
AcDbEntity
  8
0
100
AcDbLine
 10
-1353.246064948782
 20
222.0389299094454
 30
0.0
 11
-1353.246064948783
 21
262.5389299094455
 31
0.0
  0
CIRCLE
  5
31AF
330
20EF
100
AcDbEntity
  8
0
100
AcDbCircle
 10
-1326.746064948783
 20
242.5389299094454
 30
0.0
 40
11.09999999999999
  0
LINE
  5
31B0
330
20EF
100
AcDbEntity
  8
0
100
AcDbLine
 10
-1314.746064948782
 20
252.5389299094455
 30
0.0
 11
-1311.746064948783
 21
250.5389299094455
 31
0.0
  0
LINE
  5
31B1
330
20EF
100
AcDbEntity
  8
0
100
AcDbLine
 10
-1341.746064948783
 20
250.5389299094455
 30
0.0
 11
-1338.746064948783
 21
252.5389299094455
 31
0.0
  0
CIRCLE
  5
31B2
330
20EF
100
AcDbEntity
  8
0
100
AcDbCircle
 10
-1326.746064948783
 20
242.5389299094454
 30
0.0
 40
5.685199999999952
  0
LINE
  5
31B3
330
20EF
100
AcDbEntity
  8
0
100
AcDbLine
 10
-1338.746064948783
 20
225.9389299094455
 30
0.0
 11
-1314.746064948783
 21
225.9389299094455
 31
0.0
  0
LINE
  5
31B4
330
20EF
100
AcDbEntity
  8
0
100
AcDbLine
 10
-1338.746064948783
 20
230.1389299094454
 30
0.0
 11
-1314.746064948783
 21
230.1389299094454
 31
0.0
  0
LINE
  5
31B5
330
20EF
100
AcDbEntity
  8
0
100
AcDbLine
 10
-1338.746064948783
 20
226.3389299094454
 30
0.0
 11
-1314.746064948783
 21
226.3389299094454
 31
0.0
  0
LINE
  5
31B6
330
20EF
100
AcDbEntity
  8
0
100
AcDbLine
 10
-1338.746064948783
 20
229.7389299094454
 30
0.0
 11
-1314.746064948783
 21
229.7389299094454
 31
0.0
  0
LINE
  5
31B7
330
20EF
100
AcDbEntity
  8
CENTER
  6
CENTER
100
AcDbLine
 10
-1340.396978959465
 20
228.0389299094455
 30
0.0
 11
-1313.513858429593
 21
228.0389299094455
 31
0.0
  0
LINE
  5
31B8
330
20EF
100
AcDbEntity
  8
CENTER
  6
CENTER
100
AcDbLine
 10
-1339.234899084341
 20
242.5389299094454
 30
0.0
 11
-1313.41789562627
 21
242.5389299094454
 31
0.0
  0
LINE
  5
31B9
330
20EF
100
AcDbEntity
  8
0
100
AcDbLine
 10
-1335.746064948783
 20
210.5389299094455
 30
0.0
 11
-1317.746064948783
 21
210.5389299094455
 31
0.0
  0
LINE
  5
31BA
330
20EF
100
AcDbEntity
  8
0
100
AcDbLine
 10
-1338.746064948783
 20
232.5389299094455
 30
0.0
 11
-1338.746064948783
 21
208.5389299094454
 31
0.0
  0
LINE
  5
31BB
330
20EF
100
AcDbEntity
  8
0
100
AcDbLine
 10
-1353.246064948782
 20
211.0389299094455
 30
0.0
 11
-1338.746064948783
 21
211.0389299094455
 31
0.0
  0
LINE
  5
31BC
330
20EF
100
AcDbEntity
  8
0
100
AcDbLine
 10
-1351.946064948782
 20
208.5389299094454
 30
0.0
 11
-1335.746064948783
 21
208.5389299094454
 31
0.0
  0
LINE
  5
31BD
330
20EF
100
AcDbEntity
  8
0
100
AcDbLine
 10
-1353.246064948782
 20
222.0389299094454
 30
0.0
 11
-1338.746064948783
 21
222.0389299094454
 31
0.0
  0
LINE
  5
31BE
330
20EF
100
AcDbEntity
  8
0
100
AcDbLine
 10
-1353.246064948782
 20
211.0389299094455
 30
0.0
 11
-1351.946064948782
 21
208.5389299094454
 31
0.0
  0
LINE
  5
31BF
330
20EF
100
AcDbEntity
  8
0
100
AcDbLine
 10
-1353.246064948782
 20
222.0389299094454
 30
0.0
 11
-1353.246064948783
 21
211.0389299094456
 31
0.0
  0
LINE
  5
31C0
330
20EF
100
AcDbEntity
  8
0
100
AcDbLine
 10
-1335.746064948783
 20
210.5389299094455
 30
0.0
 11
-1335.746064948783
 21
208.5389299094454
 31
0.0
  0
LINE
  5
31C1
330
20EF
100
AcDbEntity
  8
0
100
AcDbLine
 10
-1341.746064948783
 20
234.5389299094455
 30
0.0
 11
-1338.746064948783
 21
232.5389299094455
 31
0.0
  0
LINE
  5
31C2
330
20EF
100
AcDbEntity
  8
0
100
AcDbLine
 10
-1341.746064948783
 20
250.5389299094455
 30
0.0
 11
-1341.746064948783
 21
234.5389299094455
 31
0.0
  0
LINE
  5
31C3
330
20EF
100
AcDbEntity
  8
0
100
AcDbLine
 10
-1314.746064948783
 20
232.5389299094455
 30
0.0
 11
-1314.746064948783
 21
208.5389299094455
 31
0.0
  0
LINE
  5
31C4
330
20EF
100
AcDbEntity
  8
0
100
AcDbLine
 10
-1314.746064948783
 20
222.0389299094454
 30
0.0
 11
-1300.246064948783
 21
222.0389299094454
 31
0.0
  0
LINE
  5
31C5
330
20EF
100
AcDbEntity
  8
0
100
AcDbLine
 10
-1317.746064948783
 20
208.5389299094455
 30
0.0
 11
-1301.546064948783
 21
208.5389299094454
 31
0.0
  0
LINE
  5
31C6
330
20EF
100
AcDbEntity
  8
0
100
AcDbLine
 10
-1314.746064948783
 20
211.0389299094455
 30
0.0
 11
-1300.246064948783
 21
211.0389299094455
 31
0.0
  0
LINE
  5
31C7
330
20EF
100
AcDbEntity
  8
0
100
AcDbLine
 10
-1317.746064948783
 20
210.5389299094455
 30
0.0
 11
-1317.746064948783
 21
208.5389299094454
 31
0.0
  0
LINE
  5
31C8
330
20EF
100
AcDbEntity
  8
0
100
AcDbLine
 10
-1300.246064948783
 20
211.0389299094455
 30
0.0
 11
-1301.546064948783
 21
208.5389299094454
 31
0.0
  0
LINE
  5
31C9
330
20EF
100
AcDbEntity
  8
0
100
AcDbLine
 10
-1300.246064948783
 20
222.0389299094454
 30
0.0
 11
-1300.246064948783
 21
211.0389299094449
 31
0.0
  0
LINE
  5
31CA
330
20EF
100
AcDbEntity
  8
0
100
AcDbLine
 10
-1311.746064948783
 20
234.5389299094455
 30
0.0
 11
-1314.746064948783
 21
232.5389299094455
 31
0.0
  0
LINE
  5
31CB
330
20EF
100
AcDbEntity
  8
0
100
AcDbLine
 10
-1311.746064948783
 20
250.5389299094455
 30
0.0
 11
-1311.746064948783
 21
234.5389299094455
 31
0.0
  0
DIMENSION
  5
31CC
330
20EF
100
AcDbEntity
  8
DIM
100
AcDbDimension
  2
*D5
 10
-1353.246064948783
 20
272.4154365844873
 30
0.0
 11
-1326.746064948783
 21
274.9154365844873
 31
0.0
 70
    32
 71
     5
 42
53.00000000000022
  3
STANDARD
100
AcDbAlignedDimension
 13
-1300.246064948783
 23
262.5389299094455
 33
0.0
 14
-1353.246064948783
 24
262.5389299094455
 34
0.0
100
AcDbRotatedDimension
  0
LINE
  5
31CD
330
20EF
100
AcDbEntity
  8
0
100
AcDbLine
 10
-1353.246064948782
 20
262.5389299094455
 30
0.0
 11
-1300.246064948783
 21
262.5389299094455
 31
0.0
  0
LINE
  5
31CE
330
20EF
100
AcDbEntity
  8
0
100
AcDbLine
 10
-1338.746064948783
 20
254.9389299094455
 30
0.0
 11
-1314.746064948783
 21
254.9389299094455
 31
0.0
  0
LINE
  5
31CF
330
20EF
100
AcDbEntity
  8
0
100
AcDbLine
 10
-1338.746064948783
 20
259.1389299094454
 30
0.0
 11
-1314.746064948783
 21
259.1389299094454
 31
0.0
  0
LINE
  5
31D0
330
20EF
100
AcDbEntity
  8
0
100
AcDbLine
 10
-1338.746064948783
 20
255.3389299094455
 30
0.0
 11
-1314.746064948783
 21
255.3389299094455
 31
0.0
  0
LINE
  5
31D1
330
20EF
100
AcDbEntity
  8
0
100
AcDbLine
 10
-1338.746064948783
 20
258.7389299094454
 30
0.0
 11
-1314.746064948783
 21
258.7389299094454
 31
0.0
  0
LINE
  5
31D2
330
20EF
100
AcDbEntity
  8
0
100
AcDbLine
 10
-1338.746064948783
 20
262.5389299094455
 30
0.0
 11
-1338.746064948783
 21
252.5389299094455
 31
0.0
  0
LINE
  5
31D3
330
20EF
100
AcDbEntity
  8
0
100
AcDbLine
 10
-1314.746064948782
 20
262.5389299094455
 30
0.0
 11
-1314.746064948782
 21
252.5389299094455
 31
0.0
  0
ARC
  5
31D6
330
20EF
100
AcDbEntity
  8
0
100
AcDbCircle
 10
-1398.974419536457
 20
329.2472244252742
 30
0.0
 40
10.0
100
AcDbArc
 50
28.30075576600197
 51
90.0
  0
LINE
  5
31D7
330
20EF
100
AcDbEntity
  8
0
100
AcDbLine
 10
-1421.001478720892
 20
339.2472244252742
 30
0.0
 11
-1393.001478720893
 21
339.2472244252741
 31
0.0
  0
ARC
  5
31D8
330
20EF
100
AcDbEntity
  8
0
100
AcDbCircle
 10
-1407.001478720893
 20
314.2472244252741
 30
0.0
 40
29.0
100
AcDbArc
 50
31.14738992151095
 51
66.03490901501721
  0
LINE
  5
31D9
330
20EF
100
AcDbEntity
  8
0
100
AcDbLine
 10
-1431.820826012875
 20
329.2472244252741
 30
0.0
 11
-1430.501478720892
 21
326.2472244252741
 31
0.0
  0
LINE
  5
31DA
330
20EF
100
AcDbEntity
  8
0
100
AcDbLine
 10
-1433.501478720893
 20
326.2472244252741
 30
0.0
 11
-1428.001478720893
 21
326.2472244252741
 31
0.0
  0
ARC
  5
31DB
330
20EF
100
AcDbEntity
  8
0
100
AcDbCircle
 10
-1407.001478720893
 20
314.2472244252741
 30
0.0
 40
29.0
100
AcDbArc
 50
113.9650909849828
 51
148.852610078489
  0
LINE
  5
31DC
330
20EF
100
AcDbEntity
  8
0
100
AcDbLine
 10
-1433.501478720893
 20
329.2472244252741
 30
0.0
 11
-1431.820826012875
 21
329.2472244252741
 31
0.0
  0
LINE
  5
31DE
330
20EF
100
AcDbEntity
  8
0
100
AcDbLine
 10
-1428.001478720893
 20
326.2472244252741
 30
0.0
 11
-1421.001478720892
 21
339.2472244252742
 31
0.0
  0
ARC
  5
31DF
330
20EF
100
AcDbEntity
  8
0
100
AcDbCircle
 10
-1394.937718989597
 20
314.2472244252742
 30
0.0
 40
6.39118353039754
100
AcDbArc
 50
337.1858215657756
 51
22.81417843422446
  0
ARC
  5
31E0
330
20EF
100
AcDbEntity
  8
0
100
AcDbCircle
 10
-1388.8465354592
 20
311.7690832811106
 30
0.0
 40
0.2
100
AcDbArc
 50
180.0
 51
296.1390681004338
  0
ARC
  5
31E1
330
20EF
100
AcDbEntity
  8
0
100
AcDbCircle
 10
-1388.8465354592
 20
316.7253655694377
 30
0.0
 40
0.2
100
AcDbArc
 50
63.86093189956615
 51
180.0
  0
ARC
  5
31E2
330
20EF
100
AcDbEntity
  8
0
100
AcDbCircle
 10
-1383.796738410715
 20
314.2472244252742
 30
0.0
 40
0.2
100
AcDbArc
 50
296.1390681004338
 51
63.86093189956615
  0
LINE
  5
31E3
330
20EF
100
AcDbEntity
  8
0
100
AcDbLine
 10
-1383.708628130137
 20
314.0676789478696
 30
0.0
 11
-1388.758425178621
 21
311.5895378037061
 31
0.0
  0
LINE
  5
31E4
330
20EF
100
AcDbEntity
  8
0
100
AcDbLine
 10
-1388.758425178621
 20
316.9049110468423
 30
0.0
 11
-1383.708628130137
 21
314.4267699026788
 31
0.0
  0
LINE
  5
31E5
330
20EF
100
AcDbEntity
  8
0
100
AcDbLine
 10
-1418.780697710282
 20
340.7472244252741
 30
0.0
 11
-1395.222259731503
 21
340.7472244252741
 31
0.0
  0
ARC
  5
31E6
330
20EF
100
AcDbEntity
  8
0
100
AcDbCircle
 10
-1415.028537905328
 20
329.2472244252742
 30
0.0
 40
10.0
100
AcDbArc
 50
90.0
 51
151.699244233998
  0
LINE
  5
31E7
330
20EF
100
AcDbEntity
  8
0
100
AcDbLine
 10
-1393.001478720893
 20
339.2472244252741
 30
0.0
 11
-1386.001478720892
 21
326.2472244252741
 31
0.0
  0
LINE
  5
31E8
330
20EF
100
AcDbEntity
  8
0
100
AcDbLine
 10
-1386.001478720892
 20
326.2472244252741
 30
0.0
 11
-1380.501478720893
 21
326.2472244252741
 31
0.0
  0
LINE
  5
31E9
330
20EF
100
AcDbEntity
  8
0
100
AcDbLine
 10
-1382.251478720893
 20
329.2472244252741
 30
0.0
 11
-1383.501478720893
 21
326.2472244252741
 31
0.0
  0
LINE
  5
31EA
330
20EF
100
AcDbEntity
  8
0
100
AcDbLine
 10
-1382.182131428911
 20
329.2472244252741
 30
0.0
 11
-1380.501478720893
 21
329.2472244252741
 31
0.0
  0
LINE
  5
31EB
330
20EF
100
AcDbEntity
  8
CENTER
  6
CENTER
100
AcDbLine
 10
-1436.896242377509
 20
314.2472244252741
 30
0.0
 11
-1375.912377801386
 21
314.2472244252741
 31
0.0
  0
LINE
  5
31EC
330
20EF
100
AcDbEntity
  8
0
 62
     7
100
AcDbLine
 10
-1417.183452054226
 20
118.7389299094455
 30
0.0
 11
-1417.03608138756
 21
117.6336499094454
 31
0.0
  0
LINE
  5
31ED
330
20EF
100
AcDbEntity
  8
0
100
AcDbLine
 10
-1396.966876054226
 20
113.6000499094453
 30
0.0
 11
-1392.288805684005
 21
113.6000499094453
 31
0.0
  0
LINE
  5
31EE
330
20EF
100
AcDbEntity
  8
0
100
AcDbLine
 10
-1396.966876054226
 20
107.6000499094453
 30
0.0
 11
-1392.288805684005
 21
107.6000499094453
 31
0.0
  0
LINE
  5
31EF
330
20EF
100
AcDbEntity
  8
CENTER
  6
CENTER
100
AcDbLine
 10
-1340.396978959465
 20
257.0389299094455
 30
0.0
 11
-1313.513858429593
 21
257.0389299094455
 31
0.0
  0
ENDSEC
  0
SECTION
  2
OBJECTS
  0
DICTIONARY
  5
20DD
330
0
100
AcDbDictionary
281
     1
  3
ACAD_COLOR
350
2967
  3
ACAD_GROUP
350
20DE
  3
ACAD_LAYOUT
350
20EA
  3
ACAD_MATERIAL
350
2966
  3
ACAD_MLINESTYLE
350
20E7
  3
ACAD_PLOTSETTINGS
350
20E9
  3
ACAD_PLOTSTYLENAME
350
20DF
  3
ACAD_TABLESTYLE
350
2968
  3
ACDBHEADERROUNDTRIPXREC
350
345B
  3
AcDbVariableDictionary
350
2314
  3
AcmDictionary
350
2336
  3
AMG
350
231C
  3
AMGSNAPSETTINGS
350
23EA
  3
DWGPROPS
350
345A
  0
DICTIONARY
  5
29FD
330
20D3
100
AcDbDictionary
280
     1
281
     1
  3
ACAD_LAYERSTATES
360
29FE
  0
DICTIONARY
  5
2241
330
20EF
100
AcDbDictionary
280
     1
281
     1
  3
ACAD_INDEX
360
276D
  3
ACAD_LAYOUTSELFREF
360
294A
  0
DICTIONARY
  5
2243
330
20EB
100
AcDbDictionary
280
     1
281
     1
  3
ACAD_LAYOUTSELFREF
360
2949
  0
DICTIONARY
  5
2967
102
{ACAD_REACTORS
330
20DD
102
}
330
20DD
100
AcDbDictionary
281
     1
  0
DICTIONARY
  5
20DE
102
{ACAD_REACTORS
330
20DD
102
}
330
20DD
100
AcDbDictionary
281
     1
  0
DICTIONARY
  5
20EA
102
{ACAD_REACTORS
330
20DD
102
}
330
20DD
100
AcDbDictionary
281
     1
  3
Model
350
20F2
  3
配置1
350
20EE
  0
DICTIONARY
  5
2966
102
{ACAD_REACTORS
330
20DD
102
}
330
20DD
100
AcDbDictionary
281
     1
  0
DICTIONARY
  5
20E7
102
{ACAD_REACTORS
330
20DD
102
}
330
20DD
100
AcDbDictionary
281
     1
  3
Standard
350
20E8
  0
DICTIONARY
  5
20E9
102
{ACAD_REACTORS
330
20DD
102
}
330
20DD
100
AcDbDictionary
281
     1
  0
ACDBDICTIONARYWDFLT
  5
20DF
102
{ACAD_REACTORS
330
20DD
102
}
330
20DD
100
AcDbDictionary
281
     1
  3
Normal
350
20E0
100
AcDbDictionaryWithDefault
340
20E0
1001
ACAD
1000
TREAT_AS_HARD
1070
     0
  0
DICTIONARY
  5
2968
102
{ACAD_REACTORS
330
20DD
102
}
330
20DD
100
AcDbDictionary
281
     1
  3
Standard
350
2969
  0
DICTIONARY
  5
345B
102
{ACAD_REACTORS
330
20DD
102
}
330
20DD
100
AcDbDictionary
281
     1
  0
DICTIONARY
  5
2314
102
{ACAD_REACTORS
330
20DD
102
}
330
20DD
100
AcDbDictionary
281
     1
  3
CTABLESTYLE
350
29EC
  3
DIMASSOC
350
2315
  3
INDEXCTL
350
2373
  3
PROJECTNAME
350
2EC8
  0
DICTIONARY
  5
2336
102
{ACAD_REACTORS
330
20DD
102
}
330
20DD
100
AcDbDictionary
281
     1
  3
AcmStdDictionary
350
233C
  3
AMDTSECTSYM_ARROWCOLOR
350
29DF
  0
DICTIONARY
  5
231C
102
{ACAD_REACTORS
330
20DD
102
}
330
20DD
100
AcDbDictionary
281
     1
  0
DICTIONARY
  5
23EA
102
{ACAD_REACTORS
330
20DD
102
}
330
20DD
100
AcDbDictionary
281
     1
  0
XRECORD
  5
345A
102
{ACAD_REACTORS
330
20DD
102
}
330
20DD
100
AcDbXrecord
280
     1
  1
DWGPROPS COOKIE
  2

  3

  4

  6

  7

  8

  9

300
AmdtFileType=84
301
=
302
=
303
=
304
=
305
=
306
=
307
=
308
=
309
=
 40
0.9911942939814814
 41
2451457.340116412
 42
2453438.629513993
  1

 90
        1
  0
DICTIONARY
  5
29FE
102
{ACAD_REACTORS
330
29FD
102
}
330
29FD
100
AcDbDictionary
281
     1
  0
DICTIONARY
  5
276D
102
{ACAD_REACTORS
330
2241
102
}
330
2241
100
AcDbDictionary
281
     1
  3
*A1
350
276E
  0
XRECORD
  5
294A
102
{ACAD_REACTORS
330
2241
102
}
330
2241
100
AcDbXrecord
280
     1
340
20EF
  0
XRECORD
  5
2949
102
{ACAD_REACTORS
330
2243
102
}
330
2243
100
AcDbXrecord
280
     1
340
20EB
  0
LAYOUT
  5
20F2
102
{ACAD_XDICTIONARY
360
345E
102
}
102
{ACAD_REACTORS
330
20EA
102
}
330
20EA
100
AcDbPlotSettings
  1

  2
DWF eView (optimized for viewing).pc3
  4
ISO_A3_(297.00_x_420.00_MM)
  6

 40
5.793749809265136
 41
17.79375076293945
 42
5.79376220703125
 43
17.79376220703125
 44
297.0
 45
420.0
 46
14.76
 47
0.0
 48
0.0
 49
0.0
140
0.0
141
0.0
142
1.0
143
0.8045630428932227
 70
 11924
 72
     1
 73
     0
 74
     1
  7
彩色出圖.ctb
 75
     0
147
1.242910681559499
148
1473.83480424092
149
-31.87320496922882
100
AcDbLayout
  1
Model
 70
     1
 71
     0
 10
0.0
 20
0.0
 11
12.0
 21
9.0
 12
0.0
 22
0.0
 32
0.0
 14
0.0
 24
0.0
 34
0.0
 15
0.0
 25
0.0
 35
0.0
146
0.0
 13
0.0
 23
0.0
 33
0.0
 16
1.0
 26
0.0
 36
0.0
 17
0.0
 27
1.0
 37
0.0
 76
     0
330
20EF
  0
LAYOUT
  5
20EE
102
{ACAD_XDICTIONARY
360
345C
102
}
102
{ACAD_REACTORS
330
20EA
102
}
330
20EA
100
AcDbPlotSettings
  1

  2
\\WINNT\EPSON Stylus Photo 750 單色
  4

  6

 40
0.0
 41
0.0
 42
0.0
 43
0.0
 44
0.0
 45
0.0
 46
0.0
 47
0.0
 48
0.0
 49
0.0
140
0.0
141
0.0
142
1.0
143
1.0
 70
   688
 72
     0
 73
     0
 74
     5
  7
彩色出圖.ctb
 75
    16
147
1.0
148
0.0
149
0.0
100
AcDbLayout
  1
配置1
 70
     1
 71
     1
 10
0.0
 20
0.0
 11
420.0
 21
297.0
 12
0.0
 22
0.0
 32
0.0
 14
1.000000000000000E+20
 24
1.000000000000000E+20
 34
1.000000000000000E+20
 15
-1.000000000000000E+20
 25
-1.000000000000000E+20
 35
-1.000000000000000E+20
146
0.0
 13
0.0
 23
0.0
 33
0.0
 16
1.0
 26
0.0
 36
0.0
 17
0.0
 27
1.0
 37
0.0
 76
     0
330
20EB
  0
MLINESTYLE
  5
20E8
102
{ACAD_REACTORS
330
20E7
102
}
330
20E7
100
AcDbMlineStyle
  2
STANDARD
 70
     0
  3

 62
   256
 51
90.0
 52
90.0
 71
     2
 49
0.5
 62
   256
  6
BYLAYER
 49
-0.5
 62
   256
  6
BYLAYER
  0
ACDBPLACEHOLDER
  5
20E0
102
{ACAD_REACTORS
330
20DF
102
}
330
20DF
  0
TABLESTYLE
  5
2969
102
{ACAD_REACTORS
330
2968
102
}
330
2968
100
AcDbTableStyle
  3
Standard
 70
     0
 71
     0
 40
0.06
 41
0.06
280
     0
281
     0
  7
STANDARD
140
0.18
170
     2
 62
     0
 63
     7
283
     0
274
    -2
284
     1
 64
     0
275
    -2
285
     1
 65
     0
276
    -2
286
     1
 66
     0
277
    -2
287
     1
 67
     0
278
    -2
288
     1
 68
     0
279
    -2
289
     1
 69
     0
  7
STANDARD
140
0.25
170
     5
 62
     0
 63
     7
283
     0
274
    -2
284
     1
 64
     0
275
    -2
285
     1
 65
     0
276
    -2
286
     1
 66
     0
277
    -2
287
     1
 67
     0
278
    -2
288
     1
 68
     0
279
    -2
289
     1
 69
     0
  7
STANDARD
140
0.18
170
     5
 62
     0
 63
     7
283
     0
274
    -2
284
     1
 64
     0
275
    -2
285
     1
 65
     0
276
    -2
286
     1
 66
     0
277
    -2
287
     1
 67
     0
278
    -2
288
     1
 68
     0
279
    -2
289
     1
 69
     0
  0
DICTIONARYVAR
  5
29EC
102
{ACAD_REACTORS
330
2314
102
}
330
2314
100
DictionaryVariables
280
     0
  1
STANDARD
  0
DICTIONARYVAR
  5
2315
102
{ACAD_REACTORS
330
2314
102
}
330
2314
100
DictionaryVariables
280
     0
  1
1
  0
DICTIONARYVAR
  5
2373
102
{ACAD_REACTORS
330
2314
102
}
330
2314
100
DictionaryVariables
280
     0
  1
1
  0
DICTIONARYVAR
  5
2EC8
102
{ACAD_REACTORS
330
2314
102
}
330
2314
100
DictionaryVariables
280
     0
  1

  0
DICTIONARY
  5
233C
102
{ACAD_REACTORS
330
2336
102
}
330
2336
100
AcDbDictionary
281
     1
  0
XRECORD
  5
29DF
102
{ACAD_REACTORS
330
2336
102
}
330
2336
100
AcDbXrecord
280
     1
 90
-1023410169
  0
LAYER_INDEX
  5
276E
102
{ACAD_REACTORS
330
276D
102
}
330
276D
100
AcDbIndex
 40
2453438.629513993
100
AcDbLayerIndex
  8
0
360
3454
 90
      280
  8
DEFPOINTS
360
3455
 90
        0
  8
DIM
360
3456
 90
        5
  8
CENTER
360
3457
 90
        9
  8
LOGO
360
3458
 90
      100
  0
DICTIONARY
  5
345E
330
20F2
100
AcDbDictionary
280
     1
281
     1
  3
ACAD_XREC_ROUNDTRIP
360
345F
  0
DICTIONARY
  5
345C
330
20EE
100
AcDbDictionary
280
     1
281
     1
  3
ACAD_XREC_ROUNDTRIP
360
345D
  0
IDBUFFER
  5
3454
330
0
100
AcDbIdBuffer
330
31C2
330
31C3
330
31C4
330
31C5
330
31C6
330
31C7
330
31C8
330
31C9
330
31CA
330
31CB
330
31CD
330
31CE
330
31CF
330
31D0
330
31D1
330
31D2
330
31D3
330
31D6
330
31D7
330
31D8
330
31D9
330
31DA
330
31DB
330
31DC
330
31DE
330
31DF
330
31E0
330
31E1
330
31E2
330
31E3
330
31E4
330
31E5
330
31E6
330
31E7
330
31E8
330
31E9
330
31EA
330
31EC
330
31ED
330
31EE
330
674
330
30C6
330
30C7
330
30C8
330
30C9
330
30CA
330
30CB
330
30CC
330
30CD
330
30CF
330
30D0
330
30D1
330
30D2
330
30D3
330
30D5
330
30D6
330
30D8
330
30D9
330
30DA
330
30DB
330
30DC
330
30DD
330
30DE
330
30DF
330
30E0
330
30E1
330
30E2
330
30E3
330
30E4
330
30E5
330
30E6
330
30E7
330
30E8
330
30E9
330
30EA
330
30EB
330
30EC
330
30ED
330
30EE
330
30EF
330
30F0
330
30F1
330
30F2
330
30F3
330
30F4
330
30F5
330
30F6
330
30F7
330
30F8
330
30F9
330
30FA
330
30FB
330
30FC
330
30FD
330
30FE
330
30FF
330
3100
330
3101
330
3102
330
3103
330
3104
330
3105
330
3106
330
3107
330
3108
330
3109
330
310A
330
310B
330
310C
330
310D
330
310E
330
310F
330
3110
330
3111
330
3112
330
3113
330
3114
330
3115
330
3116
330
3117
330
3118
330
3119
330
311A
330
311B
330
311C
330
311D
330
311E
330
311F
330
3120
330
3121
330
3122
330
3123
330
3124
330
3125
330
3126
330
3129
330
312A
330
312F
330
3130
330
3131
330
3132
330
3133
330
3135
330
3136
330
3137
330
3138
330
3139
330
313A
330
313B
330
313C
330
313D
330
313E
330
313F
330
3140
330
3141
330
3142
330
3143
330
3144
330
3145
330
3146
330
3147
330
3148
330
3149
330
314A
330
314B
330
314C
330
314D
330
314E
330
314F
330
3150
330
3151
330
3152
330
3153
330
3154
330
3155
330
3156
330
3157
330
3158
330
3159
330
315A
330
315B
330
315D
330
315E
330
315F
330
3160
330
3161
330
3162
330
3163
330
3164
330
3165
330
3166
330
3167
330
3168
330
3169
330
316A
330
316B
330
316C
330
316D
330
316E
330
316F
330
3170
330
3171
330
3172
330
3173
330
3174
330
3175
330
3176
330
3177
330
3178
330
3179
330
317A
330
317B
330
317C
330
317D
330
317E
330
317F
330
3180
330
3181
330
3182
330
3183
330
3184
330
3185
330
3186
330
3187
330
3188
330
3189
330
318A
330
318B
330
318C
330
318D
330
318E
330
318F
330
3190
330
3191
330
3192
330
3193
330
3194
330
3195
330
3196
330
3197
330
3198
330
3199
330
319A
330
319B
330
319C
330
319D
330
319E
330
319F
330
31A0
330
31A1
330
31A2
330
31A3
330
31A4
330
31A5
330
31A6
330
31A7
330
31A8
330
31A9
330
31AA
330
31AB
330
31AC
330
31AD
330
31AE
330
31AF
330
31B0
330
31B1
330
31B2
330
31B3
330
31B4
330
31B5
330
31B6
330
31B9
330
31BA
330
31BB
330
31BC
330
31BD
330
31BE
330
31BF
330
31C0
330
31C1
  0
IDBUFFER
  5
3455
330
0
100
AcDbIdBuffer
  0
IDBUFFER
  5
3456
330
0
100
AcDbIdBuffer
330
312B
330
312C
330
312D
330
3134
330
31CC
  0
IDBUFFER
  5
3457
330
0
100
AcDbIdBuffer
330
30C5
330
30CE
330
30D7
330
312E
330
315C
330
31B7
330
31B8
330
31EB
330
31EF
  0
IDBUFFER
  5
3458
330
0
100
AcDbIdBuffer
330
21B1
330
21B2
330
21B3
330
21B4
330
21B5
330
21B6
330
21B7
330
21B8
330
21BF
330
21C0
330
21C1
330
21C2
330
21CF
330
2A46
330
2A47
330
2A48
330
2A49
330
2A4A
330
2A4B
330
2A4C
330
2A4D
330
2A4E
330
2A4F
330
2A50
330
2A51
330
2A52
330
2A53
330
2A54
330
2A55
330
2A56
330
2A57
330
2A58
330
2A59
330
2A5A
330
2A5B
330
2A5C
330
2A5D
330
2A5E
330
2A60
330
2A61
330
2A62
330
2A63
330
2A64
330
2A65
330
2A66
330
2A67
330
2A68
330
2A69
330
2A6A
330
2A6B
330
2A6C
330
2A6D
330
2181
330
2182
330
2183
330
2184
330
2185
330
2186
330
2187
330
2188
330
2189
330
218A
330
218B
330
218C
330
218D
330
218E
330
218F
330
2190
330
2191
330
2192
330
2193
330
2194
330
2195
330
2196
330
2197
330
2198
330
2199
330
219A
330
219B
330
219C
330
219D
330
219E
330
219F
330
21A0
330
21A1
330
21A2
330
21A3
330
21A4
330
21A5
330
21A6
330
21A7
330
21A8
330
21A9
330
21AA
330
21AB
330
21AC
330
21AD
330
21AE
330
21AF
330
21B0
  0
XRECORD
  5
345F
102
{ACAD_REACTORS
330
345E
102
}
330
345E
100
AcDbXrecord
280
     1
102
SHADEPLOT
 70
     0
102
SHADEPLOTRESLEVEL
 70
     2
102
SHADEPLOTCUSTOMDPI
 70
   300
  0
XRECORD
  5
345D
102
{ACAD_REACTORS
330
345C
102
}
330
345C
100
AcDbXrecord
280
     1
102
SHADEPLOT
 70
     0
102
SHADEPLOTRESLEVEL
 70
     2
102
SHADEPLOTCUSTOMDPI
 70
   300
  0
ENDSEC
  0
EOF
