  0
SECTION
  2
HEADER
  9
$ACADVER
  1
AC1009
  9
$INSBASE
 10
0.0
 20
0.0
 30
0.0
  9
$EXTMIN
 10
182.03333786962821
 20
-107.2181562215772
 30
-0.0000000000112498
  9
$EXTMAX
 10
456.4340983168301
 20
328.1966616445381
 30
0.0000000000002956
  9
$LIMMIN
 10
0.0
 20
0.0
  9
$LIMMAX
 10
420.0
 20
297.0
  9
$ORTHOMODE
 70
     1
  9
$REGENMODE
 70
     1
  9
$FILLMODE
 70
     1
  9
$QTEXTMODE
 70
     0
  9
$MIRRTEXT
 70
     1
  9
$DRAGMODE
 70
     2
  9
$LTSCALE
 40
0.5
  9
$OSMODE
 70
    39
  9
$ATTMODE
 70
     1
  9
$TEXTSIZE
 40
4.0
  9
$TRACEWID
 40
1.0
  9
$TEXTSTYLE
  7
DAYUS
  9
$CLAYER
  8
0
  9
$CELTYPE
  6
BYLAYER
  9
$CECOLOR
 62
   256
  9
$DIMSCALE
 40
1.0
  9
$DIMASZ
 40
3.0
  9
$DIMEXO
 40
2.0
  9
$DIMDLI
 40
8.0
  9
$DIMRND
 40
0.0
  9
$DIMDLE
 40
0.0
  9
$DIMEXE
 40
2.0
  9
$DIMTP
 40
0.0
  9
$DIMTM
 40
0.0
  9
$DIMTXT
 40
3.0
  9
$DIMCEN
 40
-2.5
  9
$DIMTSZ
 40
0.0
  9
$DIMTOL
 70
     0
  9
$DIMLIM
 70
     0
  9
$DIMTIH
 70
     0
  9
$DIMTOH
 70
     0
  9
$DIMSE1
 70
     0
  9
$DIMSE2
 70
     0
  9
$DIMTAD
 70
     1
  9
$DIMZIN
 70
     8
  9
$DIMBLK
  1

  9
$DIMASO
 70
     1
  9
$DIMSHO
 70
     1
  9
$DIMPOST
  1

  9
$DIMAPOST
  1

  9
$DIMALT
 70
     0
  9
$DIMALTD
 70
     4
  9
$DIMALTF
 40
0.0394
  9
$DIMLFAC
 40
1.0
  9
$DIMTOFL
 70
     0
  9
$DIMTVP
 40
0.0
  9
$DIMTIX
 70
     0
  9
$DIMSOXD
 70
     0
  9
$DIMSAH
 70
     0
  9
$DIMBLK1
  1

  9
$DIMBLK2
  1

  9
$DIMSTYLE
  2
STANDARD
  9
$DIMCLRD
 70
   256
  9
$DIMCLRE
 70
   256
  9
$DIMCLRT
 70
   256
  9
$DIMTFAC
 40
1.0
  9
$DIMGAP
 40
1.0
  9
$LUNITS
 70
     2
  9
$LUPREC
 70
     4
  9
$SKETCHINC
 40
1.0
  9
$FILLETRAD
 40
1.0
  9
$AUNITS
 70
     0
  9
$AUPREC
 70
     0
  9
$MENU
  1
.
  9
$ELEVATION
 40
0.0
  9
$PELEVATION
 40
0.0
  9
$THICKNESS
 40
0.0
  9
$LIMCHECK
 70
     0
  9
$BLIPMODE
 70
     0
  9
$CHAMFERA
 40
0.5
  9
$CHAMFERB
 40
0.5
  9
$SKPOLY
 70
     0
  9
$TDCREATE
 40
2451465.6580335069
  9
$TDUPDATE
 40
2451948.696796678
  9
$TDINDWG
 40
1.3549454166999999
  9
$TDUSRTIMER
 40
1.3549454166999999
  9
$USRTIMER
 70
     1
  9
$ANGBASE
 50
0.0
  9
$ANGDIR
 70
     0
  9
$PDMODE
 70
     0
  9
$PDSIZE
 40
0.0
  9
$PLINEWID
 40
0.0
  9
$COORDS
 70
     2
  9
$SPLFRAME
 70
     0
  9
$SPLINETYPE
 70
     6
  9
$SPLINESEGS
 70
     8
  9
$ATTDIA
 70
     0
  9
$ATTREQ
 70
     1
  9
$HANDLING
 70
 12289
  9
$HANDSEED
  5
1927
  9
$SURFTAB1
 70
     6
  9
$SURFTAB2
 70
     6
  9
$SURFTYPE
 70
     6
  9
$SURFU
 70
     6
  9
$SURFV
 70
     6
  9
$UCSNAME
  2

  9
$UCSORG
 10
0.0
 20
0.0
 30
0.0
  9
$UCSXDIR
 10
1.0
 20
0.0
 30
0.0
  9
$UCSYDIR
 10
0.0
 20
1.0
 30
0.0
  9
$PUCSNAME
  2

  9
$PUCSORG
 10
0.0
 20
0.0
 30
0.0
  9
$PUCSXDIR
 10
1.0
 20
0.0
 30
0.0
  9
$PUCSYDIR
 10
0.0
 20
1.0
 30
0.0
  9
$USERI1
 70
     0
  9
$USERI2
 70
     0
  9
$USERI3
 70
     0
  9
$USERI4
 70
     0
  9
$USERI5
 70
     0
  9
$USERR1
 40
0.0
  9
$USERR2
 40
0.0
  9
$USERR3
 40
0.0
  9
$USERR4
 40
0.0
  9
$USERR5
 40
0.0
  9
$WORLDVIEW
 70
     1
  9
$SHADEDGE
 70
     3
  9
$SHADEDIF
 70
    70
  9
$TILEMODE
 70
     1
  9
$MAXACTVP
 70
    48
  9
$PLIMCHECK
 70
     0
  9
$PEXTMIN
 10
1.0000000000000000E+020
 20
1.0000000000000000E+020
 30
1.0000000000000000E+020
  9
$PEXTMAX
 10
-1.0000000000000000E+020
 20
-1.0000000000000000E+020
 30
-1.0000000000000000E+020
  9
$PLIMMIN
 10
0.0
 20
0.0
  9
$PLIMMAX
 10
420.0
 20
297.0
  9
$UNITMODE
 70
     0
  9
$VISRETAIN
 70
     1
  9
$PLINEGEN
 70
     0
  9
$PSLTSCALE
 70
     1
  0
ENDSEC
  0
SECTION
  2
TABLES
  0
TABLE
  2
VPORT
 70
     3
  0
VPORT
  2
*ACTIVE
 70
     0
 10
0.0
 20
0.0
 11
1.0
 21
1.0
 12
319.23371809322919
 22
110.4892527114804
 13
0.0
 23
0.0
 14
10.0
 24
10.0
 15
10.0
 25
10.0
 16
0.0
 26
0.0
 36
1.0
 17
0.0
 27
0.0
 37
0.0
 40
440.21718718081519
 41
1.7274401473296499
 42
50.0
 43
0.0
 44
0.0
 50
0.0
 51
0.0
 71
     0
 72
   100
 73
     1
 74
     1
 75
     0
 76
     0
 77
     0
 78
     0
  0
ENDTAB
  0
TABLE
  2
LTYPE
 70
     6
  0
LTYPE
  2
CONTINUOUS
 70
     0
  3
Solid line
 72
    65
 73
     0
 40
0.0
  0
LTYPE
  2
CENTER
 70
     0
  3
Center ____ _ ____ _ ____ _ ____ _ ____ _ ____
 72
    65
 73
     4
 40
50.799999999999997
 49
31.75
 49
-6.3499999999999988
 49
6.3499999999999988
 49
-6.3499999999999988
  0
LTYPE
  2
HIDDEN
 70
     0
  3
_ _ _ _ _ _ _ _ _ _ _ _ _ _ _ _ _ _ _ _ _ _ _
 72
    65
 73
     2
 40
0.375
 49
0.25
 49
-0.125
  0
ENDTAB
  0
TABLE
  2
LAYER
 70
     6
  0
LAYER
  2
0
 70
     0
 62
     7
  6
CONTINUOUS
  0
LAYER
  2
DIM
 70
     0
 62
     5
  6
CONTINUOUS
  0
LAYER
  2
DEFPOINTS
 70
     0
 62
     7
  6
CONTINUOUS
  0
LAYER
  2
CENTER
 70
     0
 62
     1
  6
CENTER
  0
LAYER
  2
LOGO
 70
     0
 62
     7
  6
CONTINUOUS
  0
LAYER
  2
HIDDEN
 70
     0
 62
     6
  6
HIDDEN
  0
ENDTAB
  0
TABLE
  2
STYLE
 70
     6
  0
STYLE
  2
STANDARD
 70
     0
 40
0.0
 41
1.0
 50
0.0
 71
     0
 42
25.0
  3
txt
  4

  0
STYLE
  2
DAYUS
 70
     0
 40
0.0
 41
1.0
 50
0.0
 71
     0
 42
4.0
  3
simplex
  4
dayus
  0
STYLE
  2
CHINESET
 70
     0
 40
0.0
 41
1.0
 50
0.0
 71
     0
 42
25.0
  3
simplex.shx
  4
chineset.shx
  0
STYLE
  2
LOGO
 70
     0
 40
0.0
 41
1.0
 50
0.0
 71
     0
 42
5.0
  3
txt
  4

  0
ENDTAB
  0
TABLE
  2
VIEW
 70
     0
  0
ENDTAB
  0
TABLE
  2
UCS
 70
     0
  0
ENDTAB
  0
TABLE
  2
APPID
 70
     1
  0
APPID
  2
ACAD
 70
     0
  0
ENDTAB
  0
TABLE
  2
DIMSTYLE
 70
     1
  0
DIMSTYLE
  2
STANDARD
 70
     0
  3

  4

  5

  6

  7

 40
1.0
 41
3.0
 42
2.0
 43
8.0
 44
2.0
 45
0.0
 46
0.0
 47
0.0
 48
0.0
140
3.0
141
-2.5
142
0.0
143
0.0394
144
1.0
145
0.0
146
1.0
147
1.0
 71
     0
 72
     0
 73
     0
 74
     0
 75
     0
 76
     0
 77
     1
 78
     8
170
     0
171
     4
172
     0
173
     0
174
     0
175
     0
176
   256
177
   256
178
   256
  0
ENDTAB
  0
ENDSEC
  0
SECTION
  2
BLOCKS
  0
BLOCK
  8
0
  2
$MODEL_SPACE
 70
     0
 10
0.0
 20
0.0
 30
0.0
  3
$MODEL_SPACE
  1

  0
ENDBLK
  5
1771
  8
0
  0
BLOCK
 67
     1
  8
0
  2
$PAPER_SPACE
 70
     0
 10
0.0
 20
0.0
 30
0.0
  3
$PAPER_SPACE
  1

  0
ENDBLK
  5
176F
 67
     1
  8
0
  0
BLOCK
  8
0
  2
*D53
 70
     1
 10
0.0
 20
0.0
 30
0.0
  3
*D53
  1

  0
LINE
  5
186B
  8
DIM
 10
346.72420204833651
 20
156.61739634957971
 30
0.0
 11
346.72420204833651
 21
164.25761450255769
 31
0.0
  0
LINE
  5
186C
  8
DIM
 10
396.72420203973638
 20
157.3416866112413
 30
0.0
 11
396.72420203973638
 21
164.25761450255769
 31
0.0
  0
LINE
  5
186D
  8
DIM
 10
349.72420204833651
 20
162.25761450255769
 30
0.0
 11
393.72420203973633
 21
162.25761450255769
 31
0.0
  0
SOLID
  5
186E
  8
DIM
 10
349.72420204833651
 20
162.75761450255769
 30
0.0
 11
349.72420204833651
 21
161.75761450255769
 31
0.0
 12
346.72420204833651
 22
162.25761450255769
 32
0.0
 13
346.72420204833651
 23
162.25761450255769
 33
0.0
  0
SOLID
  5
186F
  8
DIM
 10
393.72420203973633
 20
162.75761450255769
 30
0.0
 11
393.72420203973633
 21
161.75761450255769
 31
0.0
 12
396.72420203973638
 22
162.25761450255769
 32
0.0
 13
396.72420203973638
 23
162.25761450255769
 33
0.0
  0
TEXT
  5
1870
  8
0
 10
369.29563061546497
 20
163.25761450255769
 30
0.0
 40
3.0
  1
50
  7
CHINESET
  0
POINT
  5
1871
  8
DEFPOINTS
 62
     0
 10
346.72420204833651
 20
154.61739634957971
 30
0.0
  0
POINT
  5
1872
  8
DEFPOINTS
 62
     0
 10
396.72420203973638
 20
155.3416866112413
 30
0.0
  0
POINT
  5
1873
  8
DEFPOINTS
 62
     0
 10
396.72420203973638
 20
162.25761450255769
 30
0.0
  0
ENDBLK
  5
17DD
  8
0
  0
BLOCK
  8
0
  2
*D54
 70
     1
 10
0.0
 20
0.0
 30
0.0
  3
*D54
  1

  0
LINE
  5
1874
  8
DIM
 10
400.1836908107843
 20
144.30981203766979
 30
0.0
 11
426.26290754211527
 21
144.30981203766979
 31
0.0
  0
LINE
  5
1875
  8
DIM
 10
351.7386020483363
 20
-27.654313388758791
 30
0.0
 11
426.26290754211522
 21
-27.654313388758808
 31
0.0
  0
LINE
  5
1876
  8
DIM
 10
424.26290754211527
 20
141.30981203766979
 30
0.0
 11
424.26290754211522
 21
-24.654313388758808
 31
0.0
  0
SOLID
  5
1877
  8
DIM
 10
423.76290754211522
 20
141.30981203766979
 30
0.0
 11
424.76290754211527
 21
141.30981203766979
 31
0.0
 12
424.26290754211527
 22
144.30981203766979
 32
0.0
 13
424.26290754211527
 23
144.30981203766979
 33
0.0
  0
SOLID
  5
1878
  8
DIM
 10
423.76290754211522
 20
-24.654313388758808
 30
0.0
 11
424.76290754211522
 21
-24.654313388758808
 31
0.0
 12
424.26290754211522
 22
-27.654313388758808
 32
0.0
 13
424.26290754211522
 23
-27.654313388758808
 33
0.0
  0
TEXT
  5
1879
  8
0
 10
423.26290754211527
 20
54.756320753027012
 30
0.0
 40
3.0
  1
172
 50
90.0
  7
CHINESET
  0
POINT
  5
187A
  8
DEFPOINTS
 62
     0
 10
398.1836908107843
 20
144.30981203766979
 30
0.0
  0
POINT
  5
187B
  8
DEFPOINTS
 62
     0
 10
349.7386020483363
 20
-27.654313388758791
 30
0.0
  0
POINT
  5
187C
  8
DEFPOINTS
 62
     0
 10
424.26290754211522
 20
-27.654313388758808
 30
0.0
  0
ENDBLK
  5
17E9
  8
0
  0
BLOCK
  8
0
  2
*D55
 70
     1
 10
0.0
 20
0.0
 30
0.0
  3
*D55
  1

  0
LINE
  5
187D
  8
DIM
 10
360.52170637955709
 20
132.34168661124119
 30
0.0
 11
409.40696520387542
 21
132.34168661124119
 31
0.0
  0
LINE
  5
187E
  8
DIM
 10
351.7386020483363
 20
-27.654313388758791
 30
0.0
 11
409.4069652038753
 21
-27.654313388758808
 31
0.0
  0
LINE
  5
187F
  8
DIM
 10
407.40696520387547
 20
129.34168661124119
 30
0.0
 11
407.40696520387542
 21
-24.654313388758801
 31
0.0
  0
SOLID
  5
1880
  8
DIM
 10
406.90696520387542
 20
129.34168661124119
 30
0.0
 11
407.90696520387547
 21
129.34168661124119
 31
0.0
 12
407.40696520387547
 22
132.34168661124119
 32
0.0
 13
407.40696520387547
 23
132.34168661124119
 33
0.0
  0
SOLID
  5
1881
  8
DIM
 10
406.90696520387542
 20
-24.654313388758801
 30
0.0
 11
407.90696520387542
 21
-24.654313388758801
 31
0.0
 12
407.40696520387542
 22
-27.654313388758808
 32
0.0
 13
407.40696520387542
 23
-27.654313388758808
 33
0.0
  0
TEXT
  5
1882
  8
0
 10
406.40696520387542
 20
48.772258039812712
 30
0.0
 40
3.0
  1
160
 50
90.0
  7
CHINESET
  0
POINT
  5
1883
  8
DEFPOINTS
 62
     0
 10
358.52170637955709
 20
132.34168661124119
 30
0.0
  0
POINT
  5
1884
  8
DEFPOINTS
 62
     0
 10
349.7386020483363
 20
-27.654313388758791
 30
0.0
  0
POINT
  5
1885
  8
DEFPOINTS
 62
     0
 10
407.40696520387542
 20
-27.654313388758808
 30
0.0
  0
ENDBLK
  5
17F5
  8
0
  0
BLOCK
  8
0
  2
*D56
 70
     1
 10
0.0
 20
0.0
 30
0.0
  3
*D56
  1

  0
LINE
  5
1886
  8
DIM
 10
358.2242020439366
 20
148.3416866112413
 30
0.0
 11
441.92579649307987
 21
148.3416866112413
 31
0.0
  0
LINE
  5
1887
  8
DIM
 10
351.7386020483363
 20
-27.654313388758791
 30
0.0
 11
441.92579649307982
 21
-27.654313388758819
 31
0.0
  0
LINE
  5
1888
  8
DIM
 10
439.92579649307982
 20
145.3416866112413
 30
0.0
 11
439.9257964930797
 21
-24.654313388758819
 31
0.0
  0
SOLID
  5
1889
  8
DIM
 10
439.42579649307982
 20
145.3416866112413
 30
0.0
 11
440.42579649307982
 21
145.3416866112413
 31
0.0
 12
439.92579649307982
 22
148.3416866112413
 32
0.0
 13
439.92579649307982
 23
148.3416866112413
 33
0.0
  0
SOLID
  5
188A
  8
DIM
 10
439.42579649307982
 20
-24.654313388758819
 30
0.0
 11
440.42579649307982
 21
-24.654313388758819
 31
0.0
 12
439.9257964930797
 22
-27.654313388758808
 32
0.0
 13
439.9257964930797
 23
-27.654313388758808
 33
0.0
  0
TEXT
  5
188B
  8
0
 10
438.92579649307982
 20
56.843686611241331
 30
0.0
 40
3.0
  1
176
 50
90.0
  7
CHINESET
  0
POINT
  5
188C
  8
DEFPOINTS
 62
     0
 10
356.2242020439366
 20
148.3416866112413
 30
0.0
  0
POINT
  5
188D
  8
DEFPOINTS
 62
     0
 10
349.7386020483363
 20
-27.654313388758791
 30
0.0
  0
POINT
  5
188E
  8
DEFPOINTS
 62
     0
 10
439.9257964930797
 20
-27.654313388758808
 30
0.0
  0
ENDBLK
  5
1801
  8
0
  0
BLOCK
  8
0
  2
*D57
 70
     1
 10
0.0
 20
0.0
 30
0.0
  3
*D57
  1

  0
LINE
  5
188F
  8
DIM
 10
360.52170637955709
 20
132.34168661124119
 30
0.0
 11
409.4069652038753
 21
132.34168661124119
 31
0.0
  0
LINE
  5
1890
  8
DIM
 10
400.1836908107843
 20
144.30981203766979
 30
0.0
 11
409.4069652038753
 21
144.30981203766979
 31
0.0
  0
LINE
  5
1891
  8
DIM
 10
407.40696520387542
 20
135.34168661124119
 30
0.0
 11
407.40696520387542
 21
141.30981203766979
 31
0.0
  0
SOLID
  5
1892
  8
DIM
 10
406.90696520387542
 20
135.34168661124119
 30
0.0
 11
407.90696520387542
 21
135.34168661124119
 31
0.0
 12
407.40696520387542
 22
132.34168661124119
 32
0.0
 13
407.40696520387542
 23
132.34168661124119
 33
0.0
  0
SOLID
  5
1893
  8
DIM
 10
406.90696520387542
 20
141.30981203766979
 30
0.0
 11
407.90696520387542
 21
141.30981203766979
 31
0.0
 12
407.40696520387542
 22
144.30981203766979
 32
0.0
 13
407.40696520387542
 23
144.30981203766979
 33
0.0
  0
TEXT
  5
1894
  8
0
 10
406.4069652038753
 20
136.18289218159839
 30
0.0
 40
3.0
  1
12
 50
90.0
  7
CHINESET
  0
POINT
  5
1895
  8
DEFPOINTS
 62
     0
 10
358.52170637955709
 20
132.34168661124119
 30
0.0
  0
POINT
  5
1896
  8
DEFPOINTS
 62
     0
 10
398.1836908107843
 20
144.30981203766979
 30
0.0
  0
POINT
  5
1897
  8
DEFPOINTS
 62
     0
 10
407.40696520387542
 20
144.30981203766979
 30
0.0
  0
ENDBLK
  5
180D
  8
0
  0
BLOCK
  8
0
  2
*D58
 70
     1
 10
0.0
 20
0.0
 30
0.0
  3
*D58
  1

  0
LINE
  5
1898
  8
DIM
 10
227.4365447229579
 20
-26.639913388755271
 30
0.0
 11
227.4365447229579
 21
-40.573634978084208
 31
0.0
  0
LINE
  5
1899
  8
DIM
 10
233.46534472295701
 20
-26.63991338876064
 30
0.0
 11
233.46534472295701
 21
-40.573634978084208
 31
0.0
  0
LINE
  5
189A
  8
DIM
 10
224.4365447229579
 20
-38.573634978084208
 30
0.0
 11
221.4365447229579
 21
-38.573634978084208
 31
0.0
  0
LINE
  5
189B
  8
DIM
 10
236.46534472295701
 20
-38.573634978084208
 30
0.0
 11
239.46534472295701
 21
-38.573634978084208
 31
0.0
  0
INSERT
  5
189C
  8
0
  2
*U64
 10
0.0
 20
0.0
 30
0.0
  0
SOLID
  5
189D
  8
DIM
 10
224.4365447229579
 20
-38.073634978084208
 30
0.0
 11
224.4365447229579
 21
-39.073634978084208
 31
0.0
 12
227.4365447229579
 22
-38.573634978084208
 32
0.0
 13
227.4365447229579
 23
-38.573634978084208
 33
0.0
  0
SOLID
  5
189E
  8
DIM
 10
236.46534472295701
 20
-38.073634978084208
 30
0.0
 11
236.46534472295701
 21
-39.073634978084208
 31
0.0
 12
233.46534472295701
 22
-38.573634978084208
 32
0.0
 13
233.46534472295701
 23
-38.573634978084208
 33
0.0
  0
POINT
  5
189F
  8
DEFPOINTS
 62
     0
 10
227.4365447229579
 20
-24.639913388755271
 30
0.0
  0
POINT
  5
18A0
  8
DEFPOINTS
 62
     0
 10
233.46534472295701
 20
-24.63991338876065
 30
0.0
  0
POINT
  5
18A1
  8
DEFPOINTS
 62
     0
 10
233.46534472295701
 20
-38.573634978084208
 30
0.0
  0
ENDBLK
  5
181A
  8
0
  0
BLOCK
  8
0
  2
*D59
 70
     1
 10
0.0
 20
0.0
 30
0.0
  3
*D59
  1

  0
LINE
  5
18A2
  8
DIM
 10
232.4509447229571
 20
283.79949463344548
 30
0.0
 11
282.02918166324878
 21
283.79949463344548
 31
0.0
  0
LINE
  5
18A3
  8
DIM
 10
232.4509447229571
 20
203.79949466544559
 30
0.0
 11
282.02918166324878
 21
203.79949466544559
 31
0.0
  0
LINE
  5
18A4
  8
DIM
 10
280.02918166324878
 20
280.79949463344559
 30
0.0
 11
280.02918166324878
 21
206.79949466544551
 31
0.0
  0
SOLID
  5
18A5
  8
DIM
 10
279.52918166324878
 20
280.79949463344559
 30
0.0
 11
280.52918166324889
 21
280.79949463344559
 31
0.0
 12
280.02918166324878
 22
283.79949463344548
 32
0.0
 13
280.02918166324878
 23
283.79949463344548
 33
0.0
  0
SOLID
  5
18A6
  8
DIM
 10
279.52918166324878
 20
206.79949466544551
 30
0.0
 11
280.52918166324889
 21
206.79949466544551
 31
0.0
 12
280.02918166324878
 22
203.79949466544559
 32
0.0
 13
280.02918166324878
 23
203.79949466544559
 33
0.0
  0
TEXT
  5
18A7
  8
0
 10
279.02918166324878
 20
241.37092322087409
 30
0.0
 40
3.0
  1
80
 50
90.0
  7
CHINESET
  0
POINT
  5
18A8
  8
DEFPOINTS
 62
     0
 10
230.4509447229571
 20
283.79949463344548
 30
0.0
  0
POINT
  5
18A9
  8
DEFPOINTS
 62
     0
 10
230.4509447229571
 20
203.79949466544559
 30
0.0
  0
POINT
  5
18AA
  8
DEFPOINTS
 62
     0
 10
280.02918166324878
 20
203.79949466544559
 30
0.0
  0
ENDBLK
  5
1826
  8
0
  0
BLOCK
  8
0
  2
*D60
 70
     1
 10
0.0
 20
0.0
 30
0.0
  3
*D60
  1

  0
LINE
  5
18AB
  8
DIM
 10
192.95094473795709
 20
259.29949464404552
 30
0.0
 11
192.95094473795709
 21
316.55617212899227
 31
0.0
  0
LINE
  5
18AC
  8
DIM
 10
267.95094470795709
 20
259.7189055509528
 30
0.0
 11
267.95094470795709
 21
316.55617212899227
 31
0.0
  0
LINE
  5
18AD
  8
DIM
 10
195.95094473795709
 20
314.55617212899227
 30
0.0
 11
264.95094470795721
 21
314.55617212899227
 31
0.0
  0
SOLID
  5
18AE
  8
DIM
 10
195.95094473795709
 20
315.05617212899227
 30
0.0
 11
195.95094473795709
 21
314.05617212899227
 31
0.0
 12
192.95094473795709
 22
314.55617212899227
 32
0.0
 13
192.95094473795709
 23
314.55617212899227
 33
0.0
  0
SOLID
  5
18AF
  8
DIM
 10
264.95094470795721
 20
315.05617212899227
 30
0.0
 11
264.95094470795721
 21
314.05617212899227
 31
0.0
 12
267.95094470795709
 22
314.55617212899227
 32
0.0
 13
267.95094470795709
 23
314.55617212899227
 33
0.0
  0
TEXT
  5
18B0
  8
0
 10
228.02237329438569
 20
315.55617212899227
 30
0.0
 40
3.0
  1
75
  7
CHINESET
  0
POINT
  5
18B1
  8
DEFPOINTS
 62
     0
 10
192.95094473795709
 20
257.29949464404552
 30
0.0
  0
POINT
  5
18B2
  8
DEFPOINTS
 62
     0
 10
267.95094470795709
 20
257.7189055509528
 30
0.0
  0
POINT
  5
18B3
  8
DEFPOINTS
 62
     0
 10
267.95094470795709
 20
314.55617212899227
 30
0.0
  0
ENDBLK
  5
1832
  8
0
  0
BLOCK
  8
0
  2
*D61
 70
     1
 10
0.0
 20
0.0
 30
0.0
  3
*D61
  1

  0
LINE
  5
18B4
  8
DIM
 10
203.95094472295699
 20
294.29949464944548
 30
0.0
 11
203.95094472295699
 21
311.0853015350699
 31
0.0
  0
LINE
  5
18B5
  8
DIM
 10
256.95094472295699
 20
294.29949464944548
 30
0.0
 11
256.95094472295699
 21
311.0853015350699
 31
0.0
  0
LINE
  5
18B6
  8
DIM
 10
206.95094472295699
 20
309.0853015350699
 30
0.0
 11
253.95094472295699
 21
309.0853015350699
 31
0.0
  0
SOLID
  5
18B7
  8
DIM
 10
206.95094472295699
 20
309.58530153506979
 30
0.0
 11
206.95094472295699
 21
308.5853015350699
 31
0.0
 12
203.95094472295699
 22
309.0853015350699
 32
0.0
 13
203.95094472295699
 23
309.0853015350699
 33
0.0
  0
SOLID
  5
18B8
  8
DIM
 10
253.95094472295699
 20
309.58530153506979
 30
0.0
 11
253.95094472295699
 21
308.5853015350699
 31
0.0
 12
256.95094472295699
 22
309.0853015350699
 32
0.0
 13
256.95094472295699
 23
309.0853015350699
 33
0.0
  0
TEXT
  5
18B9
  8
0
 10
228.0223732943856
 20
310.0853015350699
 30
0.0
 40
3.0
  1
53
  7
CHINESET
  0
POINT
  5
18BA
  8
DEFPOINTS
 62
     0
 10
203.95094472295699
 20
292.29949464944548
 30
0.0
  0
POINT
  5
18BB
  8
DEFPOINTS
 62
     0
 10
256.95094472295699
 20
292.29949464944548
 30
0.0
  0
POINT
  5
18BC
  8
DEFPOINTS
 62
     0
 10
256.95094472295699
 20
309.0853015350699
 30
0.0
  0
ENDBLK
  5
183E
  8
0
  0
BLOCK
  8
0
  2
*D62
 70
     1
 10
0.0
 20
0.0
 30
0.0
  3
*D62
  1

  0
LINE
  5
18BD
  8
DIM
 10
211.45094472295699
 20
296.29949464944548
 30
0.0
 11
211.45094472295699
 21
304.24671183711962
 31
0.0
  0
LINE
  5
18BE
  8
DIM
 10
249.45094472295699
 20
296.29949464944548
 30
0.0
 11
249.45094472295699
 21
304.24671183711962
 31
0.0
  0
LINE
  5
18BF
  8
DIM
 10
214.45094472295699
 20
302.24671183711962
 30
0.0
 11
246.45094472295699
 21
302.24671183711962
 31
0.0
  0
SOLID
  5
18C0
  8
DIM
 10
214.45094472295699
 20
302.74671183711962
 30
0.0
 11
214.45094472295699
 21
301.74671183711962
 31
0.0
 12
211.45094472295699
 22
302.24671183711962
 32
0.0
 13
211.45094472295699
 23
302.24671183711962
 33
0.0
  0
SOLID
  5
18C1
  8
DIM
 10
246.45094472295699
 20
302.74671183711962
 30
0.0
 11
246.45094472295699
 21
301.74671183711962
 31
0.0
 12
249.45094472295699
 22
302.24671183711962
 32
0.0
 13
249.45094472295699
 23
302.24671183711962
 33
0.0
  0
TEXT
  5
18C2
  8
0
 10
228.0223732943856
 20
303.24671183711962
 30
0.0
 40
3.0
  1
38
  7
CHINESET
  0
POINT
  5
18C3
  8
DEFPOINTS
 62
     0
 10
211.45094472295699
 20
294.29949464944548
 30
0.0
  0
POINT
  5
18C4
  8
DEFPOINTS
 62
     0
 10
249.45094472295699
 20
294.29949464944548
 30
0.0
  0
POINT
  5
18C5
  8
DEFPOINTS
 62
     0
 10
249.45094472295699
 20
302.24671183711962
 30
0.0
  0
ENDBLK
  5
184A
  8
0
  0
BLOCK
  8
0
  2
*D63
 70
     1
 10
0.0
 20
0.0
 30
0.0
  3
*D63
  1

  0
LINE
  5
18C6
  8
DIM
 10
398.72420203973633
 20
155.3416866112413
 30
0.0
 11
409.4069652038753
 21
155.3416866112413
 31
0.0
  0
LINE
  5
18C7
  8
DIM
 10
400.1836908107843
 20
144.30981203766979
 30
0.0
 11
409.4069652038753
 21
144.30981203766979
 31
0.0
  0
LINE
  5
18C8
  8
DIM
 10
407.40696520387542
 20
152.3416866112413
 30
0.0
 11
407.40696520387542
 21
147.30981203766979
 31
0.0
  0
SOLID
  5
18C9
  8
DIM
 10
406.90696520387542
 20
152.3416866112413
 30
0.0
 11
407.90696520387542
 21
152.3416866112413
 31
0.0
 12
407.40696520387542
 22
155.3416866112413
 32
0.0
 13
407.40696520387542
 23
155.3416866112413
 33
0.0
  0
SOLID
  5
18CA
  8
DIM
 10
406.90696520387542
 20
147.30981203766979
 30
0.0
 11
407.90696520387542
 21
147.30981203766979
 31
0.0
 12
407.40696520387542
 22
144.30981203766979
 32
0.0
 13
407.40696520387542
 23
144.30981203766979
 33
0.0
  0
TEXT
  5
18CB
  8
0
 10
406.4069652038753
 20
148.32574932445559
 30
0.0
 40
3.0
  1
11
 50
90.0
  7
CHINESET
  0
POINT
  5
18CC
  8
DEFPOINTS
 62
     0
 10
396.72420203973638
 20
155.3416866112413
 30
0.0
  0
POINT
  5
18CD
  8
DEFPOINTS
 62
     0
 10
398.1836908107843
 20
144.30981203766979
 30
0.0
  0
POINT
  5
18CE
  8
DEFPOINTS
 62
     0
 10
407.40696520387542
 20
144.30981203766979
 30
0.0
  0
ENDBLK
  5
1856
  8
0
  0
BLOCK
  8
0
  2
*U64
 70
     1
 10
0.0
 20
0.0
 30
0.0
  3
*U64
  1

  0
TEXT
  5
1923
  8
0
 10
223.4509447229575
 20
-48.073634978084208
 30
0.0
 40
3.0
  1
\U+2205
  7
CHINESET
  0
TEXT
  5
1924
  8
0
 10
226.1652304372432
 20
-48.073634978084208
 30
0.0
 40
3.0
  1
6排水口
  7
CHINESET
  0
ENDBLK
  5
1926
  8
0
  0
ENDSEC
  0
SECTION
  2
ENTITIES
  0
TEXT
  5
A05
  8
0
 10
310.39135231483101
 20
235.77273464436121
 30
0.0
 40
15.0
  1
MAF-400
  7
CHINESET
  0
POLYLINE
  5
A06
  8
0
 62
     4
 66
     1
 10
0.0
 20
0.0
 30
0.0
 70
     1
  0
VERTEX
  5
18FC
  8
0
 62
     4
 10
456.41032240048997
 20
-59.149951881354127
 30
0.0
  0
VERTEX
  5
18FD
  8
0
 62
     4
 10
182.04969223187609
 20
-59.149951881354127
 30
0.0
  0
VERTEX
  5
18FE
  8
0
 62
     4
 10
182.04969223187609
 20
328.16884364665702
 30
0.0
  0
VERTEX
  5
18FF
  8
0
 62
     4
 10
456.41032240048997
 20
328.16884364665702
 30
0.0
  0
SEQEND
  5
1900
  8
0
 62
     4
  0
DIMENSION
  5
A07
  8
DIM
  2
*D53
 10
396.72420203973638
 20
162.25761450255769
 30
0.0
 11
371.72420204403642
 21
164.75761450255769
 31
0.0
 70
     0
 13
346.72420204833651
 23
154.61739634957971
 33
0.0
 14
396.72420203973638
 24
155.3416866112413
 34
0.0
  0
DIMENSION
  5
A14
  8
DIM
  2
*D54
 10
424.26290754211522
 20
-27.654313388758808
 30
0.0
 11
421.76290754211522
 21
58.327749324455588
 31
0.0
 70
     0
 13
398.1836908107843
 23
144.30981203766979
 33
0.0
 14
349.7386020483363
 24
-27.654313388758791
 34
0.0
 50
90.0
  0
DIMENSION
  5
A21
  8
DIM
  2
*D55
 10
407.40696520387542
 20
-27.654313388758808
 30
0.0
 11
404.9069652038753
 21
52.343686611241282
 31
0.0
 70
     0
 13
358.52170637955709
 23
132.34168661124119
 33
0.0
 14
349.7386020483363
 24
-27.654313388758791
 34
0.0
 50
90.0
  0
DIMENSION
  5
A2E
  8
DIM
  2
*D56
 10
439.9257964930797
 20
-27.654313388758808
 30
0.0
 11
437.42579649307982
 21
60.343686611241331
 31
0.0
 70
     0
 13
356.2242020439366
 23
148.3416866112413
 33
0.0
 14
349.7386020483363
 24
-27.654313388758791
 34
0.0
 50
90.0
  0
DIMENSION
  5
A3B
  8
DIM
  2
*D57
 10
407.40696520387542
 20
144.30981203766979
 30
0.0
 11
404.9069652038753
 21
138.32574932445559
 31
0.0
 70
     0
 13
358.52170637955709
 23
132.34168661124119
 33
0.0
 14
398.1836908107843
 24
144.30981203766979
 34
0.0
 50
90.0
  0
LINE
  5
A48
  8
0
 10
394.42420203973637
 20
131.64168661124131
 30
0.0
 11
369.22420203973638
 21
131.64168661124131
 31
0.0
  0
LINE
  5
A49
  8
0
 10
396.72420203973638
 20
129.3416866112413
 30
0.0
 11
369.22420203973638
 21
129.3416866112413
 31
0.0
  0
LINE
  5
A4A
  8
0
 10
381.22420203493652
 20
123.3416866112412
 30
0.0
 11
385.72420204833651
 21
123.3416866112412
 31
0.0
  0
LINE
  5
A4B
  8
0
 10
306.72420204833651
 20
117.3416866112412
 30
0.0
 11
386.72420204833651
 21
117.3416866112412
 31
0.0
  0
LINE
  5
A4C
  8
0
 10
373.72420204833651
 20
104.042113875852
 30
0.0
 11
386.72420204833651
 21
104.042113875852
 31
0.0
  0
LINE
  5
A4D
  8
0
 10
383.72420204833651
 20
104.042113875852
 30
0.0
 11
386.72420204833651
 21
104.042113875852
 31
0.0
  0
LINE
  5
A4E
  8
0
 10
306.72420204833651
 20
104.042113875852
 30
0.0
 11
386.72420204833651
 21
104.042113875852
 31
0.0
  0
LINE
  5
A4F
  8
0
 10
386.06594511142339
 20
103.1023204523636
 30
0.0
 11
379.79071592216309
 21
100.8204189289963
 31
0.0
  0
LINE
  5
A50
  8
0
 10
306.72420204833651
 20
117.3416866112412
 30
0.0
 11
386.72420204833651
 21
117.3416866112412
 31
0.0
  0
LINE
  5
BAC
  8
0
 10
227.436544722957
 20
-21.625513388758801
 30
0.0
 11
227.436544722957
 21
-24.63991338875422
 31
0.0
  0
LINE
  5
BAD
  8
0
 10
233.46534472295701
 20
-21.625513388758751
 30
0.0
 11
233.46534472295701
 21
-24.639913388758799
 31
0.0
  0
LINE
  5
BAE
  8
0
 10
343.70980204833643
 20
-21.625513388758801
 30
0.0
 11
343.70980204833643
 21
-24.63991338875422
 31
0.0
  0
LINE
  5
BAF
  8
0
 10
349.73860204833642
 20
-21.625513388758751
 30
0.0
 11
349.73860204833642
 21
-24.639913388758799
 31
0.0
  0
LINE
  5
BB0
  8
CENTER
  6
CENTER
 10
230.4509447229571
 20
159.86988886502451
 30
0.0
 11
230.45094472295699
 21
-28.809205648874109
 31
0.0
  0
LINE
  5
BB1
  8
CENTER
  6
CENTER
 10
346.72420204833651
 20
154.61739634957971
 30
0.0
 11
346.72420204833651
 21
-28.809205648874119
 31
0.0
  0
DIMENSION
  5
BB2
  8
DIM
  2
*D58
 10
233.46534472295701
 20
-38.573634978084208
 30
0.0
 11
230.4509447229575
 21
-46.573634978084208
 31
0.0
 70
     0
  1
%%c<>排水口
 13
227.4365447229579
 23
-24.639913388755271
 33
0.0
 14
233.46534472295701
 24
-24.63991338876065
 34
0.0
1001
ACAD
1000
DSTYLE
1002
{
1070
   340
1005
24
1002
}
  0
LINE
  5
BC2
  8
0
 10
227.436544722957
 20
-24.639913388755271
 30
0.0
 11
233.46534472295701
 21
-24.63991338876065
 31
0.0
  0
LINE
  5
BC3
  8
0
 10
227.436544722957
 20
-27.654313388758791
 30
0.0
 11
233.46534472295701
 21
-27.654313388758791
 31
0.0
  0
LINE
  5
BC4
  8
0
 10
226.43174472295411
 20
-25.644713388756799
 30
0.0
 11
234.4701447229553
 21
-25.644713388756799
 31
0.0
  0
LINE
  5
BC5
  8
0
 10
226.43174472295499
 20
-25.644713388758731
 30
0.0
 11
227.436544722957
 21
-27.385078040207361
 31
0.0
  0
LINE
  5
BC6
  8
0
 10
227.436544722957
 20
-27.385078040207269
 30
0.0
 11
227.436544722957
 21
-27.654313388758791
 31
0.0
  0
ARC
  5
BC7
  8
0
 10
227.436544722957
 20
-25.644713388758792
 30
0.0
 40
1.0047999999999999
 50
90.0
 51
180.0
  0
LINE
  5
BC8
  8
0
 10
233.46534472295701
 20
-27.654313388758791
 30
0.0
 11
233.46534472295701
 21
-27.385078040198721
 31
0.0
  0
LINE
  5
BC9
  8
0
 10
233.46534472295701
 20
-24.485078040198712
 30
0.0
 11
233.46534472295701
 21
-24.754313388758781
 31
0.0
  0
LINE
  5
BCA
  8
0
 10
233.46534472295701
 20
-27.385078040198721
 30
0.0
 11
234.47014472295399
 21
-25.644713388758792
 31
0.0
  0
ARC
  5
BCB
  8
0
 10
233.46534472295701
 20
-25.644713388758792
 30
0.0
 40
1.0047999999999999
 50
0.0
 51
90.0
  0
LINE
  5
BCC
  8
0
 10
343.70980204833643
 20
-27.654313388758791
 30
0.0
 11
349.73860204833642
 21
-27.654313388758791
 31
0.0
  0
LINE
  5
BCD
  8
0
 10
342.70500204833348
 20
-25.644713388756799
 30
0.0
 11
350.74340204833481
 21
-25.644713388756799
 31
0.0
  0
LINE
  5
BCE
  8
0
 10
343.70980204833643
 20
-24.639913388755271
 30
0.0
 11
349.73860204833642
 21
-24.63991338876065
 31
0.0
  0
ARC
  5
BCF
  8
0
 10
343.70980204833643
 20
-25.644713388758792
 30
0.0
 40
1.0047999999999999
 50
90.0
 51
180.0
  0
LINE
  5
BD0
  8
0
 10
342.70500204833439
 20
-25.644713388758731
 30
0.0
 11
343.70980204833643
 21
-27.385078040207361
 31
0.0
  0
LINE
  5
BD1
  8
0
 10
343.70980204833643
 20
-27.385078040207269
 30
0.0
 11
343.70980204833643
 21
-27.654313388758791
 31
0.0
  0
LINE
  5
BD2
  8
0
 10
349.7386020483363
 20
-27.385078040207269
 30
0.0
 11
349.7386020483363
 21
-27.654313388758791
 31
0.0
  0
LINE
  5
BD3
  8
0
 10
349.73860204833642
 20
-24.485078040198712
 30
0.0
 11
349.73860204833642
 21
-24.639913388758782
 31
0.0
  0
ARC
  5
BD4
  8
0
 10
349.73860204833642
 20
-25.644713388758792
 30
0.0
 40
1.0047999999999999
 50
0.0
 51
90.0
  0
LINE
  5
BD5
  8
0
 10
349.73860204833642
 20
-27.385078040198721
 30
0.0
 11
350.74340204833339
 21
-25.644713388758792
 31
0.0
  0
LINE
  5
BD6
  8
CENTER
  6
CENTER
 10
188.35975058182879
 20
132.34168661124119
 30
0.0
 11
276.29781088690549
 21
132.34168661124119
 31
0.0
  0
ARC
  5
BD7
  8
0
 10
248.4509447229571
 20
144.34168661124119
 30
0.0
 40
3.25
 50
90.0
 51
215.78015201902591
  0
LINE
  5
BD8
  8
0
 10
251.9509447229571
 20
155.3416866112413
 30
0.0
 11
208.9509447229571
 21
155.3416866112413
 31
0.0
  0
ARC
  5
BD9
  8
0
 10
251.4509447229571
 20
87.341686611241244
 30
0.0
 40
7.0
 50
0.0
 51
180.0
  0
ARC
  5
BDA
  8
0
 10
245.9509447229571
 20
111.8416866112412
 30
0.0
 40
0.5
 50
0.0000000000002036
 51
90.0
  0
LINE
  5
BDB
  8
0
 10
193.04052045479631
 20
104.0421138758521
 30
0.0
 11
267.84415436261719
 21
104.0421138758519
 31
0.0
  0
LINE
  5
BDC
  8
0
 10
192.95094473795709
 20
117.3416866112412
 30
0.0
 11
267.95094470795709
 21
117.3416866112412
 31
0.0
  0
ARC
  5
BDD
  8
0
 10
251.4509447229571
 20
19.34168661124124
 30
0.0
 40
7.0
 50
180.0
 51
0.0
  0
LINE
  5
BDE
  8
0
 10
213.56900170682309
 20
-4.6583133887587556
 30
0.0
 11
247.33288773909129
 21
-4.6583133887587556
 31
0.0
  0
LINE
  5
BDF
  8
0
 10
251.45094471415709
 20
129.3416866112413
 30
0.0
 11
241.450944718957
 21
129.3416866112413
 31
0.0
  0
LINE
  5
BE0
  8
0
 10
248.45094471515699
 20
142.4414874104904
 30
0.0
 11
242.95094471855711
 21
142.44148741049059
 31
0.0
  0
LINE
  5
BE1
  8
0
 10
267.95094470795709
 20
123.341686611241
 30
0.0
 11
192.95094473795709
 21
123.3416866112412
 31
0.0
  0
LINE
  5
BE2
  8
0
 10
192.95094473795709
 20
117.3416866112413
 30
0.0
 11
267.95094470795709
 21
117.3416866112412
 31
0.0
  0
LINE
  5
BE3
  8
0
 10
199.4509447229571
 20
21.34168661124124
 30
0.0
 11
198.71329422005371
 21
97.663084853100173
 31
0.0
  0
LINE
  5
BE4
  8
0
 10
203.9509447229571
 20
87.341686611241244
 30
0.0
 11
203.9509447229571
 21
19.34168661124124
 31
0.0
  0
LINE
  5
BE5
  8
0
 10
216.4509447229571
 20
87.341686611241244
 30
0.0
 11
216.4509447229571
 21
19.34168661124124
 31
0.0
  0
LINE
  5
BE6
  8
0
 10
202.4509447229571
 20
87.341686611241244
 30
0.0
 11
202.4509447229571
 21
19.34168661124124
 31
0.0
  0
LINE
  5
BE7
  8
0
 10
244.4509447229571
 20
87.341686611241244
 30
0.0
 11
244.4509447229571
 21
19.34168661124124
 31
0.0
  0
ARC
  5
BE8
  8
0
 10
209.4509447229571
 20
19.34168661124124
 30
0.0
 40
7.0
 50
180.0
 51
0.0
  0
ARC
  5
BE9
  8
0
 10
230.4509447229571
 20
21.34168661124124
 30
0.0
 40
31.0
 50
180.0
 51
237.00411452642041
  0
ARC
  5
BEA
  8
0
 10
210.6684296263044
 20
18.958996178157001
 30
0.0
 40
6.7283768766526313
 50
176.7394237284004
 51
259.57502944633751
  0
LINE
  5
BEB
  8
0
 10
219.91494472295719
 20
-5.6583133887587422
 30
0.0
 11
240.98694472295711
 21
-5.658313388758728
 31
0.0
  0
LINE
  5
BEC
  8
CENTER
  6
CENTER
 10
220.76867722439141
 20
-14.591913388758851
 30
0.0
 11
240.12802007874589
 21
-14.591913388758851
 31
0.0
  0
CIRCLE
  5
BED
  8
0
 10
230.45094472295719
 20
-14.591913388758851
 30
0.0
 40
3.2153599999999738
  0
CIRCLE
  5
BEE
  8
0
 10
230.45094472295719
 20
-14.591913388758851
 30
0.0
 40
5.5263999999999847
  0
LINE
  5
BEF
  8
0
 10
223.31686472295721
 20
-21.625513388758801
 30
0.0
 11
237.58502472295729
 21
-21.625513388758801
 31
0.0
  0
LINE
  5
BF0
  8
0
 10
222.91494472295719
 20
-4.6583133887587556
 30
0.0
 11
237.98694472295699
 21
-4.6583133887587556
 31
0.0
  0
LINE
  5
BF1
  8
0
 10
219.91494472295719
 20
-4.6583133887587698
 30
0.0
 11
219.91494472295719
 21
-5.6583133887587556
 31
0.0
  0
ARC
  5
BF2
  8
0
 10
223.31686472295721
 20
-21.223593388758779
 30
0.0
 40
0.4019200000000001
 50
180.0
 51
270.0
  0
LINE
  5
BF3
  8
0
 10
222.91494472295719
 20
-5.6583133887587556
 30
0.0
 11
222.91494472295719
 21
-21.223593388758779
 31
0.0
  0
LINE
  5
BF4
  8
0
 10
240.98694472295711
 20
-4.6583133887587698
 30
0.0
 11
240.98694472295711
 21
-5.6583133887587556
 31
0.0
  0
ARC
  5
BF5
  8
0
 10
237.58502472295729
 20
-21.223593388758779
 30
0.0
 40
0.4019200000000001
 50
270.0
 51
0.0
  0
LINE
  5
BF6
  8
0
 10
237.98694472295699
 20
-5.6583133887587556
 30
0.0
 11
237.98694472295699
 21
-21.223593388758779
 31
0.0
  0
LINE
  5
BF7
  8
0
 10
192.95094473795709
 20
147.34168661124119
 30
0.0
 11
192.95094473795709
 21
104.4557896240307
 31
0.0
  0
ARC
  5
BF8
  8
0
 10
207.45094473175701
 20
124.3416866112412
 30
0.0
 40
1.0
 50
269.99999999999977
 51
0.0000000000001654
  0
ARC
  5
BF9
  8
0
 10
239.450944718957
 20
124.3416866112412
 30
0.0
 40
1.0
 50
269.99999999999977
 51
0.0
  0
ARC
  5
BFA
  8
0
 10
221.45094472695709
 20
124.3416866112412
 30
0.0
 40
1.0
 50
180.0
 51
269.99999999999989
  0
ARC
  5
BFB
  8
0
 10
209.4509447229571
 20
87.341686611241244
 30
0.0
 40
7.0
 50
0.0
 51
180.0
  0
LINE
  5
BFC
  8
0
 10
193.24318893241039
 20
103.7493324634647
 30
0.0
 11
198.2749979834301
 21
98.708273688707749
 31
0.0
  0
ARC
  5
BFD
  8
0
 10
197.21336427511011
 20
97.648587947858687
 30
0.0
 40
1.5
 50
0.5537496115755838
 51
44.947386385683373
  0
ARC
  5
BFE
  8
0
 10
214.04552035052359
 20
85.07094861815321
 30
0.0
 40
10.34682116081626
 50
116.3630047583348
 51
167.32254206692741
  0
ARC
  5
BFF
  8
0
 10
193.4509447229571
 20
105.042113875852
 30
0.0
 40
1.0
 50
270.0
 51
0.0000000000004198
  0
ARC
  5
C00
  8
0
 10
193.95094473795709
 20
104.4557896240307
 30
0.0
 40
1.0
 50
180.0
 51
224.9473863856833
  0
ARC
  5
C01
  8
0
 10
210.4509447229571
 20
105.042113875852
 30
0.0
 40
1.0
 50
180.0
 51
270.0
  0
LINE
  5
C02
  8
0
 10
209.4509447229571
 20
105.042113875852
 30
0.0
 11
209.4509447229571
 21
111.8416866112411
 31
0.0
  0
ARC
  5
C03
  8
0
 10
204.9509447229571
 20
111.8416866112411
 30
0.0
 40
0.5
 50
90.000000000000327
 51
180.0
  0
LINE
  5
C04
  8
0
 10
204.9509447229571
 20
112.3416866112411
 30
0.0
 11
208.9509447229571
 21
112.3416866112411
 31
0.0
  0
ARC
  5
C05
  8
0
 10
203.4509447229571
 20
105.042113875852
 30
0.0
 40
1.0
 50
270.0
 51
0.0
  0
LINE
  5
C06
  8
0
 10
204.4509447229571
 20
105.042113875852
 30
0.0
 11
204.4509447229571
 21
111.8416866112411
 31
0.0
  0
ARC
  5
C07
  8
0
 10
198.9509447229571
 20
111.8416866112411
 30
0.0
 40
0.5
 50
0.0000000000002036
 51
90.0
  0
ARC
  5
C08
  8
0
 10
194.9509447229571
 20
111.8416866112411
 30
0.0
 40
0.5
 50
90.000000000000355
 51
180.0000000000002
  0
LINE
  5
C09
  8
0
 10
194.9509447229571
 20
112.3416866112411
 30
0.0
 11
198.9509447229571
 21
112.3416866112411
 31
0.0
  0
ARC
  5
C0A
  8
0
 10
200.4509447229571
 20
105.042113875852
 30
0.0
 40
1.0
 50
180.0
 51
270.0
  0
LINE
  5
C0B
  8
0
 10
199.4509447229571
 20
105.042113875852
 30
0.0
 11
199.4509447229571
 21
111.8416866112411
 31
0.0
  0
LINE
  5
C0C
  8
0
 10
194.4509447229571
 20
105.042113875852
 30
0.0
 11
194.4509447229571
 21
111.8416866112411
 31
0.0
  0
ARC
  5
C0D
  8
0
 10
208.9509447229571
 20
111.8416866112411
 30
0.0
 40
0.5
 50
359.99999999999972
 51
90.000000000000725
  0
LINE
  5
C0E
  8
0
 10
221.4509447229571
 20
112.3416866112412
 30
0.0
 11
239.4509447229571
 21
112.3416866112411
 31
0.0
  0
LINE
  5
C0F
  8
0
 10
230.4509447229571
 20
115.1068490509321
 30
0.0
 11
221.4509447229571
 21
112.3416866112412
 31
0.0
  0
ARC
  5
C10
  8
0
 10
218.9509447229571
 20
111.8416866112412
 30
0.0
 40
0.5
 50
0.0000000000002036
 51
90.0
  0
ARC
  5
C11
  8
0
 10
220.4509447229571
 20
105.042113875852
 30
0.0
 40
1.0
 50
180.0
 51
270.0
  0
LINE
  5
C12
  8
0
 10
219.4509447229571
 20
105.042113875852
 30
0.0
 11
219.4509447229571
 21
111.8416866112412
 31
0.0
  0
ARC
  5
C13
  8
0
 10
214.9509447229571
 20
111.8416866112411
 30
0.0
 40
0.5
 50
90.0
 51
180.0
  0
ARC
  5
C14
  8
0
 10
213.4509447229571
 20
105.042113875852
 30
0.0
 40
1.0
 50
270.0
 51
0.0
  0
LINE
  5
C15
  8
0
 10
214.4509447229571
 20
105.042113875852
 30
0.0
 11
214.4509447229571
 21
111.8416866112411
 31
0.0
  0
LINE
  5
C16
  8
0
 10
214.9509447229571
 20
112.3416866112411
 30
0.0
 11
218.9509447229571
 21
112.3416866112412
 31
0.0
  0
LINE
  5
C17
  8
0
 10
219.4509447229571
 20
105.042113875852
 30
0.0
 11
219.4509447229571
 21
117.3416866112412
 31
0.0
  0
ARC
  5
C18
  8
0
 10
241.9509447229571
 20
111.8416866112411
 30
0.0
 40
0.5
 50
89.999999999999915
 51
180.0000000000002
  0
ARC
  5
C19
  8
0
 10
240.4509447229571
 20
105.042113875852
 30
0.0
 40
1.0
 50
270.0
 51
0.0000000000004198
  0
LINE
  5
C1A
  8
0
 10
230.4509447229571
 20
115.1068490509321
 30
0.0
 11
239.4509447229571
 21
112.3416866112411
 31
0.0
  0
LINE
  5
C1B
  8
0
 10
241.4509447229571
 20
105.042113875852
 30
0.0
 11
241.4509447229571
 21
117.3416866112412
 31
0.0
  0
LINE
  5
C1C
  8
0
 10
241.9509447229571
 20
112.3416866112411
 30
0.0
 11
245.9509447229571
 21
112.3416866112412
 31
0.0
  0
LINE
  5
C1D
  8
0
 10
210.4509447229571
 20
147.5916866112413
 30
0.0
 11
212.4509447229571
 21
147.5916866112413
 31
0.0
  0
LINE
  5
C1E
  8
0
 10
209.45094473175701
 20
129.3416866112413
 30
0.0
 11
219.45094472695709
 21
129.3416866112413
 31
0.0
  0
LINE
  5
C1F
  8
0
 10
219.45094472695709
 20
129.34168661124119
 30
0.0
 11
209.45094473175701
 21
129.3416866112413
 31
0.0
  0
ARC
  5
C20
  8
0
 10
212.45094473075639
 20
143.94148741049071
 30
0.0
 40
1.5
 50
180.0
 51
269.99999999999972
  0
LINE
  5
C21
  8
0
 10
203.9509447229571
 20
150.34168661124119
 30
0.0
 11
203.9509447229571
 21
147.34168661124119
 31
0.0
  0
LINE
  5
C22
  8
0
 10
192.95094473795709
 20
147.34168661124119
 30
0.0
 11
209.45094473075639
 21
147.34168661124119
 31
0.0
  0
LINE
  5
C23
  8
0
 10
210.9509447229571
 20
134.6416866112412
 30
0.0
 11
210.9509447229571
 21
132.34168661124119
 31
0.0
  0
ARC
  5
C24
  8
0
 10
210.4509447229571
 20
144.34168661124119
 30
0.0
 40
3.25
 50
90.0
 51
112.6198649480426
  0
ARC
  5
C25
  8
0
 10
209.45094473175701
 20
128.3416866112413
 30
0.0
 40
1.0
 50
90.0
 51
180.00000000000011
  0
LINE
  5
C26
  8
0
 10
208.45094473175709
 20
128.3416866112413
 30
0.0
 11
208.45094473175709
 21
124.3416866112412
 31
0.0
  0
ARC
  5
C27
  8
0
 10
209.45094473075639
 20
145.84168661124119
 30
0.0
 40
1.5
 50
0.0
 51
90.0
  0
LINE
  5
C28
  8
0
 10
210.95094473075639
 20
145.84168661124119
 30
0.0
 11
210.95094473075611
 21
129.34168661124119
 31
0.0
  0
ARC
  5
C29
  8
0
 10
208.9509447229571
 20
150.34168661124119
 30
0.0
 40
5.0
 50
90.0
 51
180.0
  0
ARC
  5
C2A
  8
0
 10
220.9509447273571
 20
146.84168661124119
 30
0.0
 40
1.5
 50
89.999999999999758
 51
180.0
  0
ARC
  5
C2B
  8
0
 10
239.95094471855711
 20
146.8416866112411
 30
0.0
 40
1.5
 50
0.0000000000001527
 51
89.999999999999915
  0
LINE
  5
C2C
  8
0
 10
219.45094472735721
 20
143.94148741049071
 30
0.0
 11
230.4509447229571
 21
132.34168661124119
 31
0.0
  0
LINE
  5
C2D
  8
0
 10
239.95094471855711
 20
148.3416866112411
 30
0.0
 11
220.9509447273571
 21
148.34168661124119
 31
0.0
  0
ARC
  5
C2E
  8
0
 10
212.4509447229571
 20
144.34168661124119
 30
0.0
 40
3.25
 50
324.21984798097787
 51
90.0
  0
ARC
  5
C2F
  8
0
 10
219.45094472695709
 20
128.34168661124119
 30
0.0
 40
1.0
 50
0.0000000000001018
 51
90.0
  0
LINE
  5
C30
  8
0
 10
220.45094472695709
 20
128.34168661124119
 30
0.0
 11
220.45094472695709
 21
124.3416866112412
 31
0.0
  0
LINE
  5
C31
  8
0
 10
212.45094473075639
 20
142.44148741049071
 30
0.0
 11
217.9509447273571
 21
142.44148741049071
 31
0.0
  0
ARC
  5
C32
  8
0
 10
217.9509447273571
 20
143.94148741049071
 30
0.0
 40
1.5
 50
269.99999999999977
 51
0.0
  0
LINE
  5
C33
  8
0
 10
219.45094472735721
 20
146.84168661124119
 30
0.0
 11
219.45094472735721
 21
143.94148741049071
 31
0.0
  0
ARC
  5
C34
  8
0
 10
241.450944718957
 20
128.3416866112413
 30
0.0
 40
1.0
 50
90.000000000000114
 51
180.0
  0
LINE
  5
C35
  8
0
 10
240.45094471895709
 20
128.3416866112413
 30
0.0
 11
240.45094471895709
 21
124.3416866112412
 31
0.0
  0
LINE
  5
C36
  8
0
 10
241.45094471855711
 20
143.94148741049051
 30
0.0
 11
230.4509447229571
 21
132.34168661124119
 31
0.0
  0
ARC
  5
C37
  8
0
 10
242.95094471855711
 20
143.94148741049051
 30
0.0
 40
1.5
 50
180.0000000000002
 51
269.99999999999972
  0
LINE
  5
C38
  8
0
 10
241.45094471855711
 20
146.8416866112411
 30
0.0
 11
241.45094471855711
 21
143.94148741049051
 31
0.0
  0
LINE
  5
C39
  8
0
 10
262.19451036425261
 20
98.275097765858078
 30
0.0
 11
261.4509447229571
 21
21.34168661124124
 31
0.0
  0
LINE
  5
C3A
  8
0
 10
256.9509447229571
 20
87.341686611241244
 30
0.0
 11
256.9509447229571
 21
19.34168661124124
 31
0.0
  0
LINE
  5
C3B
  8
0
 10
258.4509447229571
 20
87.341686611241244
 30
0.0
 11
258.4509447229571
 21
19.34168661124124
 31
0.0
  0
LINE
  5
C3C
  8
0
 10
378.47420204833651
 20
98.940832082019483
 30
0.0
 11
377.72420204833651
 21
21.34168661124124
 31
0.0
  0
LINE
  5
C3D
  8
0
 10
315.72420204833651
 20
21.34168661124124
 30
0.0
 11
314.97420204833651
 21
98.940832082019483
 31
0.0
  0
LINE
  5
C3E
  8
0
 10
320.22420204833651
 20
87.341686611241244
 30
0.0
 11
320.22420204833651
 21
19.34168661124124
 31
0.0
  0
LINE
  5
C3F
  8
0
 10
373.22420204833651
 20
87.341686611241244
 30
0.0
 11
373.22420204833651
 21
19.34168661124124
 31
0.0
  0
LINE
  5
C40
  8
0
 10
360.72420204833651
 20
87.341686611241244
 30
0.0
 11
360.72420204833651
 21
19.34168661124124
 31
0.0
  0
LINE
  5
C41
  8
0
 10
374.72420204833651
 20
87.341686611241244
 30
0.0
 11
374.72420204833651
 21
19.34168661124124
 31
0.0
  0
LINE
  5
C42
  8
0
 10
332.72420204833651
 20
87.341686611241244
 30
0.0
 11
332.72420204833651
 21
19.34168661124124
 31
0.0
  0
LINE
  5
C43
  8
0
 10
318.72420204833651
 20
87.341686611241244
 30
0.0
 11
318.72420204833651
 21
19.34168661124124
 31
0.0
  0
ARC
  5
C44
  8
0
 10
346.72420204833651
 20
21.34168661124124
 30
0.0
 40
31.0
 50
180.0
 51
237.00411452642041
  0
ARC
  5
C45
  8
0
 10
230.4509447229571
 20
21.34168661124124
 30
0.0
 40
31.0
 50
302.99588547357951
 51
0.0
  0
ARC
  5
C46
  8
0
 10
250.5456973607881
 20
18.71366668151688
 30
0.0
 40
6.4359616843719687
 50
278.08572460240032
 51
5.5998222228616896
  0
LINE
  5
C47
  8
0
 10
336.18820204833662
 20
-5.6583133887587422
 30
0.0
 11
357.2602020483364
 21
-5.658313388758728
 31
0.0
  0
CIRCLE
  5
C48
  8
0
 10
346.72420204833662
 20
-14.591913388758851
 30
0.0
 40
3.2153599999999738
  0
CIRCLE
  5
C49
  8
0
 10
346.72420204833662
 20
-14.591913388758851
 30
0.0
 40
5.5263999999999847
  0
LINE
  5
C4A
  8
CENTER
  6
CENTER
 10
337.04193454977082
 20
-14.591913388758851
 30
0.0
 11
356.40127740412521
 21
-14.591913388758851
 31
0.0
  0
LINE
  5
C4B
  8
0
 10
339.59012204833658
 20
-21.625513388758801
 30
0.0
 11
353.8582820483366
 21
-21.625513388758801
 31
0.0
  0
LINE
  5
C4C
  8
0
 10
329.84225903220249
 20
-4.6583133887587556
 30
0.0
 11
363.60614506447058
 21
-4.6583133887587556
 31
0.0
  0
LINE
  5
C4D
  8
0
 10
336.18820204833662
 20
-4.6583133887587698
 30
0.0
 11
336.18820204833662
 21
-5.6583133887587556
 31
0.0
  0
ARC
  5
C4E
  8
0
 10
339.59012204833658
 20
-21.223593388758779
 30
0.0
 40
0.4019200000000001
 50
180.0
 51
270.0
  0
LINE
  5
C4F
  8
0
 10
339.18820204833662
 20
-5.6583133887587556
 30
0.0
 11
339.18820204833662
 21
-21.223593388758779
 31
0.0
  0
ARC
  5
C50
  8
0
 10
325.72420204833651
 20
19.34168661124124
 30
0.0
 40
7.0
 50
180.0
 51
0.0
  0
ARC
  5
C51
  8
0
 10
326.94168695168389
 20
18.958996178157001
 30
0.0
 40
6.7283768766526313
 50
176.7394237284004
 51
259.57502944633751
  0
ARC
  5
C52
  8
0
 10
346.72420204833651
 20
21.34168661124124
 30
0.0
 40
31.0
 50
302.99588547357951
 51
0.0
  0
LINE
  5
C53
  8
0
 10
357.2602020483364
 20
-4.6583133887587698
 30
0.0
 11
357.2602020483364
 21
-5.6583133887587556
 31
0.0
  0
ARC
  5
C54
  8
0
 10
353.8582820483366
 20
-21.223593388758779
 30
0.0
 40
0.4019200000000001
 50
270.0
 51
0.0
  0
LINE
  5
C55
  8
0
 10
354.26020204833628
 20
-5.6583133887587556
 30
0.0
 11
354.26020204833628
 21
-21.223593388758779
 31
0.0
  0
ARC
  5
C56
  8
0
 10
367.72420204833651
 20
19.34168661124124
 30
0.0
 40
7.0
 50
180.0
 51
0.0
  0
ARC
  5
C57
  8
0
 10
366.81895468616761
 20
18.71366668151688
 30
0.0
 40
6.4359616843719687
 50
278.08572460240032
 51
5.5998222228616896
  0
TEXT
  5
C58
  8
DIM
 10
307.1334221658513
 20
163.89920564541771
 30
0.0
 40
3.0
  1
2-PT1/4
  7
CHINESET
  0
TEXT
  5
16FD
  8
DIM
 10
306.70485073727991
 20
158.3277770739891
 30
0.0
 40
3.0
  1
2-PT3/8
  7
CHINESET
1001
ACAD
1000
R13OBJECT
1002
{
1005
C58
1002
}
  0
TEXT
  5
16FE
  8
DIM
 10
307.27627930870841
 20
152.7563485025606
 30
0.0
 40
3.0
  1
2-PT1/2
  7
CHINESET
1001
ACAD
1000
R13OBJECT
1002
{
1005
C58
1002
}
  0
SOLID
  5
C59
  8
DIM
  6
CONTINUOUS
 10
-340.63725135789861
 20
138.83050019465821
 30
0.0
 11
-342.09863991854968
 21
136.16322752865679
 31
0.0
 12
-339.85118392896038
 22
138.2123594362848
 32
0.0
 13
-339.85118392896038
 23
138.2123594362848
 33
0.0
210
0.0
220
0.0
230
-1.0
  0
POLYLINE
  5
16FF
  8
DIM
 66
     1
 10
0.0
 20
0.0
 30
0.0
 70
   128
1001
ACAD
1000
R13OBJECT
1002
{
1005
C59
1002
}
  0
VERTEX
  5
1901
  8
DIM
 10
340.24421764342952
 20
138.52142981547149
 30
0.0
  0
VERTEX
  5
1902
  8
DIM
 10
330.84770788013702
 20
150.47063421684629
 30
0.0
  0
VERTEX
  5
1903
  8
DIM
 10
306.70485073727991
 20
150.47063421684629
 30
0.0
  0
SEQEND
  5
1904
  8
DIM
  0
LINE
  5
C5A
  8
0
 10
312.22420206173649
 20
123.3416866112413
 30
0.0
 11
330.22420205433662
 21
123.3416866112413
 31
0.0
  0
LINE
  5
C5B
  8
0
 10
324.22420205693652
 20
129.3416866112413
 30
0.0
 11
314.22420206173661
 21
129.3416866112413
 31
0.0
  0
LINE
  5
C5C
  8
0
 10
311.22420204833651
 20
112.3416866112411
 30
0.0
 11
315.22420204833651
 21
112.3416866112411
 31
0.0
  0
LINE
  5
C5D
  8
0
 10
306.72420204833651
 20
104.042113875852
 30
0.0
 11
356.72420204833651
 21
104.042113875852
 31
0.0
  0
ARC
  5
C5E
  8
0
 10
312.97420204833651
 20
98.940832082019483
 30
0.0
 40
2.0
 50
0.0
 51
70.016893478100371
  0
LINE
  5
C5F
  8
0
 10
267.95094470795709
 20
147.34168661124119
 30
0.0
 11
267.95094470795709
 21
104.4917543019948
 31
0.0
  0
ARC
  5
C60
  8
0
 10
253.45094471415709
 20
124.3416866112412
 30
0.0
 40
1.0
 50
180.00000000000011
 51
269.99999999999989
  0
ARC
  5
C61
  8
0
 10
312.22420206173649
 20
124.3416866112413
 30
0.0
 40
1.0
 50
270.0
 51
359.99999999999932
  0
LINE
  5
C62
  8
0
 10
267.614593913102
 20
103.7437103644413
 30
0.0
 11
262.69896650147888
 21
99.382666766946883
 31
0.0
  0
ARC
  5
C63
  8
0
 10
263.69444030919618
 20
98.26060086061662
 30
0.0
 40
1.5
 50
131.57877936227931
 51
179.4462503884244
  0
ARC
  5
C64
  8
0
 10
250.44128900435589
 20
87.887671403768906
 30
0.0
 40
6.5325123014341511
 50
355.20564847487941
 51
81.108804699858496
  0
LINE
  5
C65
  8
0
 10
261.9509447229571
 20
112.3416866112412
 30
0.0
 11
265.9509447229571
 21
112.3416866112412
 31
0.0
  0
ARC
  5
C66
  8
0
 10
261.9509447229571
 20
111.8416866112412
 30
0.0
 40
0.5
 50
90.0
 51
180.0
  0
ARC
  5
C67
  8
0
 10
260.4509447229571
 20
105.042113875852
 30
0.0
 40
1.0
 50
270.0
 51
0.0
  0
LINE
  5
C68
  8
0
 10
261.4509447229571
 20
105.042113875852
 30
0.0
 11
261.4509447229571
 21
111.8416866112412
 31
0.0
  0
ARC
  5
C69
  8
0
 10
255.9509447229571
 20
111.8416866112412
 30
0.0
 40
0.5
 50
359.99999999999972
 51
90.000000000000725
  0
ARC
  5
C6A
  8
0
 10
251.9509447229571
 20
111.8416866112411
 30
0.0
 40
0.5
 50
90.000000000000327
 51
180.0
  0
LINE
  5
C6B
  8
0
 10
251.9509447229571
 20
112.3416866112411
 30
0.0
 11
255.9509447229571
 21
112.3416866112412
 31
0.0
  0
ARC
  5
C6C
  8
0
 10
257.4509447229571
 20
105.042113875852
 30
0.0
 40
1.0
 50
180.0
 51
270.0
  0
ARC
  5
C6D
  8
0
 10
250.4509447229571
 20
105.042113875852
 30
0.0
 40
1.0
 50
270.0
 51
0.0
  0
LINE
  5
C6E
  8
0
 10
256.4509447229571
 20
105.042113875852
 30
0.0
 11
256.4509447229571
 21
111.8416866112412
 31
0.0
  0
LINE
  5
C6F
  8
0
 10
251.4509447229571
 20
105.042113875852
 30
0.0
 11
251.4509447229571
 21
111.8416866112411
 31
0.0
  0
ARC
  5
C70
  8
0
 10
247.4509447229571
 20
105.042113875852
 30
0.0
 40
1.0
 50
180.0
 51
270.0
  0
LINE
  5
C71
  8
0
 10
246.4509447229571
 20
105.042113875852
 30
0.0
 11
246.4509447229571
 21
111.8416866112412
 31
0.0
  0
LINE
  5
C72
  8
0
 10
247.4509447229571
 20
104.042113875852
 30
0.0
 11
250.4509447229571
 21
104.042113875852
 31
0.0
  0
ARC
  5
C73
  8
0
 10
266.95094470795721
 20
104.4917543019948
 30
0.0
 40
1.0
 50
311.57877936227942
 51
0.0
  0
ARC
  5
C74
  8
0
 10
265.9509447229571
 20
111.8416866112412
 30
0.0
 40
0.5
 50
0.0000000000002036
 51
90.0
  0
LINE
  5
C75
  8
0
 10
266.4509447229571
 20
105.042113875852
 30
0.0
 11
266.4509447229571
 21
111.8416866112412
 31
0.0
  0
ARC
  5
C76
  8
0
 10
267.4509447229571
 20
105.042113875852
 30
0.0
 40
1.0
 50
180.0
 51
270.0
  0
LINE
  5
C77
  8
0
 10
306.72420204833651
 20
123.3416866112412
 30
0.0
 11
312.22420206173649
 21
123.3416866112413
 31
0.0
  0
LINE
  5
C78
  8
0
 10
306.72420204833651
 20
117.3416866112412
 30
0.0
 11
306.72420204833651
 21
123.3416866112412
 31
0.0
  0
ARC
  5
C79
  8
0
 10
311.22420204833651
 20
111.8416866112411
 30
0.0
 40
0.5
 50
90.000000000000355
 51
180.0000000000002
  0
ARC
  5
C7A
  8
0
 10
309.72420204833651
 20
105.042113875852
 30
0.0
 40
1.0
 50
270.0
 51
0.0000000000004198
  0
LINE
  5
C7B
  8
0
 10
310.72420204833651
 20
105.042113875852
 30
0.0
 11
310.72420204833651
 21
111.8416866112411
 31
0.0
  0
ARC
  5
C7C
  8
0
 10
307.72420204833651
 20
104.042113875852
 30
0.0
 40
1.0
 50
180.0
 51
250.0168934781002
  0
LINE
  5
C7D
  8
0
 10
307.3824589852498
 20
103.1023204523636
 30
0.0
 11
313.65768817450987
 21
100.8204189289963
 31
0.0
  0
LINE
  5
C7E
  8
0
 10
306.72420204833651
 20
104.042113875852
 30
0.0
 11
306.72420204833651
 21
117.3416866112411
 31
0.0
  0
LINE
  5
C7F
  8
0
 10
256.9509447229571
 20
150.34168661124119
 30
0.0
 11
256.9509447229571
 21
147.34168661124119
 31
0.0
  0
LINE
  5
C80
  8
0
 10
251.45094471515691
 20
147.34168661124119
 30
0.0
 11
267.95094470795709
 21
147.34168661124119
 31
0.0
  0
LINE
  5
C81
  8
0
 10
249.9509447229571
 20
134.6416866112412
 30
0.0
 11
249.9509447229571
 21
132.34168661124119
 31
0.0
  0
LINE
  5
C82
  8
0
 10
248.4509447229571
 20
147.5916866112413
 30
0.0
 11
250.4509447229571
 21
147.5916866112413
 31
0.0
  0
ARC
  5
C83
  8
0
 10
250.4509447229571
 20
144.34168661124119
 30
0.0
 40
3.25
 50
67.380135051957339
 51
90.0
  0
ARC
  5
C84
  8
0
 10
251.45094471415709
 20
128.3416866112413
 30
0.0
 40
1.0
 50
0.0
 51
90.0
  0
LINE
  5
C85
  8
0
 10
252.45094471415709
 20
128.3416866112413
 30
0.0
 11
252.45094471415709
 21
124.3416866112412
 31
0.0
  0
LINE
  5
C86
  8
0
 10
249.95094471515711
 20
143.9414874104904
 30
0.0
 11
249.95094471515699
 21
129.3416866112413
 31
0.0
  0
ARC
  5
C87
  8
0
 10
248.45094471515699
 20
143.9414874104904
 30
0.0
 40
1.5
 50
269.99999999999949
 51
359.99999999999989
  0
ARC
  5
C88
  8
0
 10
251.45094471515691
 20
145.84168661124119
 30
0.0
 40
1.5
 50
90.0
 51
179.9999999999998
  0
LINE
  5
C89
  8
0
 10
249.95094471515711
 20
145.84168661124119
 30
0.0
 11
249.95094471515711
 21
143.9414874104904
 31
0.0
  0
ARC
  5
C8A
  8
0
 10
251.9509447229571
 20
150.34168661124119
 30
0.0
 40
5.0
 50
0.0
 51
90.0
  0
ARC
  5
C8B
  8
0
 10
314.22420206173661
 20
128.3416866112413
 30
0.0
 40
1.0
 50
89.999999999999844
 51
179.99999999999969
  0
LINE
  5
C8C
  8
0
 10
313.22420206173661
 20
128.3416866112413
 30
0.0
 11
313.22420206173638
 21
124.3416866112413
 31
0.0
  0
ARC
  5
C8D
  8
0
 10
330.22420205433662
 20
124.8416866112413
 30
0.0
 40
1.5
 50
270.0
 51
359.99999999999977
  0
ARC
  5
C8E
  8
0
 10
363.2242020423364
 20
124.8416866112412
 30
0.0
 40
1.5
 50
179.9999999999998
 51
270.00000000000023
  0
ARC
  5
C8F
  8
0
 10
367.22420203973661
 20
124.3416866112412
 30
0.0
 40
1.0
 50
269.99999999999977
 51
0.0000000000012977
  0
ARC
  5
C90
  8
0
 10
326.22420205693652
 20
124.3416866112412
 30
0.0
 40
1.0
 50
180.0
 51
270.0
  0
ARC
  5
C91
  8
0
 10
381.22420203493652
 20
124.3416866112412
 30
0.0
 40
1.0
 50
180.0
 51
269.99999999999989
  0
LINE
  5
C92
  8
0
 10
337.72420204833651
 20
112.3416866112412
 30
0.0
 11
355.72420204833651
 21
112.3416866112411
 31
0.0
  0
LINE
  5
C93
  8
0
 10
346.72420204833651
 20
115.1068490509321
 30
0.0
 11
355.72420204833651
 21
112.3416866112411
 31
0.0
  0
ARC
  5
C94
  8
0
 10
325.72420204833651
 20
87.341686611241244
 30
0.0
 40
7.0
 50
0.0
 51
180.0
  0
ARC
  5
C95
  8
0
 10
330.31877767590322
 20
85.07094861815321
 30
0.0
 40
10.34682116081626
 50
116.3630047583348
 51
167.32254206692741
  0
LINE
  5
C96
  8
0
 10
331.22420204833651
 20
112.3416866112411
 30
0.0
 11
335.22420204833651
 21
112.3416866112412
 31
0.0
  0
LINE
  5
C97
  8
0
 10
330.22420205433662
 20
123.3416866112412
 30
0.0
 11
326.22420205693652
 21
123.3416866112412
 31
0.0
  0
ARC
  5
C98
  8
0
 10
316.72420204833651
 20
105.042113875852
 30
0.0
 40
1.0
 50
180.0
 51
270.0
  0
ARC
  5
C99
  8
0
 10
329.72420204833651
 20
105.042113875852
 30
0.0
 40
1.0
 50
270.0
 51
0.0
  0
ARC
  5
C9A
  8
0
 10
326.72420204833651
 20
105.042113875852
 30
0.0
 40
1.0
 50
180.0
 51
270.0
  0
ARC
  5
C9B
  8
0
 10
319.72420204833651
 20
105.042113875852
 30
0.0
 40
1.0
 50
270.0
 51
0.0
  0
ARC
  5
C9C
  8
0
 10
321.22420204833651
 20
111.8416866112411
 30
0.0
 40
0.5
 50
90.000000000000327
 51
180.0
  0
ARC
  5
C9D
  8
0
 10
315.22420204833651
 20
111.8416866112411
 30
0.0
 40
0.5
 50
0.0000000000002036
 51
90.0
  0
ARC
  5
C9E
  8
0
 10
331.22420204833651
 20
111.8416866112411
 30
0.0
 40
0.5
 50
90.0
 51
180.0
  0
LINE
  5
C9F
  8
0
 10
330.72420204833651
 20
105.042113875852
 30
0.0
 11
330.72420204833651
 21
111.8416866112411
 31
0.0
  0
ARC
  5
CA0
  8
0
 10
325.22420204833651
 20
111.8416866112411
 30
0.0
 40
0.5
 50
359.99999999999972
 51
90.000000000000725
  0
LINE
  5
CA1
  8
0
 10
321.22420204833651
 20
112.3416866112411
 30
0.0
 11
325.22420204833651
 21
112.3416866112411
 31
0.0
  0
LINE
  5
CA2
  8
0
 10
320.72420204833651
 20
105.042113875852
 30
0.0
 11
320.72420204833651
 21
111.8416866112411
 31
0.0
  0
LINE
  5
CA3
  8
0
 10
325.72420204833651
 20
105.042113875852
 30
0.0
 11
325.72420204833651
 21
111.8416866112411
 31
0.0
  0
LINE
  5
CA4
  8
0
 10
315.72420204833651
 20
105.042113875852
 30
0.0
 11
315.72420204833651
 21
111.8416866112411
 31
0.0
  0
LINE
  5
CA5
  8
0
 10
346.72420204833651
 20
115.1068490509321
 30
0.0
 11
337.72420204833651
 21
112.3416866112412
 31
0.0
  0
ARC
  5
CA6
  8
0
 10
336.72420204833651
 20
105.042113875852
 30
0.0
 40
1.0
 50
180.0
 51
270.0
  0
ARC
  5
CA7
  8
0
 10
335.22420204833651
 20
111.8416866112412
 30
0.0
 40
0.5
 50
0.0000000000002036
 51
90.0
  0
LINE
  5
CA8
  8
0
 10
335.72420204833651
 20
105.042113875852
 30
0.0
 11
335.72420204833651
 21
111.8416866112412
 31
0.0
  0
LINE
  5
CA9
  8
0
 10
335.72420204833651
 20
105.042113875852
 30
0.0
 11
335.72420204833651
 21
117.3416866112412
 31
0.0
  0
ARC
  5
CAA
  8
0
 10
380.47420204833651
 20
98.940832082019483
 30
0.0
 40
2.0
 50
109.9831065218995
 51
180.0
  0
ARC
  5
CAB
  8
0
 10
367.72420204833651
 20
87.341686611241244
 30
0.0
 40
7.0
 50
0.0
 51
180.0
  0
ARC
  5
CAC
  8
0
 10
366.71454632973541
 20
87.887671403768906
 30
0.0
 40
6.5325123014341511
 50
355.20564847487941
 51
81.108804699858496
  0
LINE
  5
CAD
  8
0
 10
363.2242020423364
 20
123.3416866112412
 30
0.0
 11
381.22420203493652
 21
123.3416866112412
 31
0.0
  0
LINE
  5
CAE
  8
0
 10
367.22420203973661
 20
123.3416866112412
 30
0.0
 11
363.2242020423364
 21
123.3416866112412
 31
0.0
  0
ARC
  5
CAF
  8
0
 10
366.72420204833651
 20
105.042113875852
 30
0.0
 40
1.0
 50
270.0
 51
0.0
  0
ARC
  5
CB0
  8
0
 10
356.72420204833651
 20
105.042113875852
 30
0.0
 40
1.0
 50
270.0
 51
0.0000000000004198
  0
ARC
  5
CB1
  8
0
 10
362.22420204833651
 20
111.8416866112412
 30
0.0
 40
0.5
 50
0.0000000000002036
 51
90.0
  0
ARC
  5
CB2
  8
0
 10
358.22420204833651
 20
111.8416866112411
 30
0.0
 40
0.5
 50
89.999999999999915
 51
180.0000000000002
  0
ARC
  5
CB3
  8
0
 10
363.72420204833651
 20
105.042113875852
 30
0.0
 40
1.0
 50
180.0
 51
270.0
  0
LINE
  5
CB4
  8
0
 10
362.72420204833651
 20
105.042113875852
 30
0.0
 11
362.72420204833651
 21
111.8416866112412
 31
0.0
  0
LINE
  5
CB5
  8
0
 10
357.72420204833651
 20
105.042113875852
 30
0.0
 11
357.72420204833651
 21
117.3416866112412
 31
0.0
  0
LINE
  5
CB6
  8
0
 10
358.22420204833651
 20
112.3416866112411
 30
0.0
 11
362.22420204833651
 21
112.3416866112412
 31
0.0
  0
LINE
  5
CB7
  8
0
 10
363.72420204833651
 20
104.042113875852
 30
0.0
 11
366.72420204833651
 21
104.042113875852
 31
0.0
  0
ARC
  5
CB8
  8
0
 10
382.22420204833651
 20
111.8416866112412
 30
0.0
 40
0.5
 50
0.0000000000002036
 51
90.0
  0
ARC
  5
CB9
  8
0
 10
378.22420204833651
 20
111.8416866112412
 30
0.0
 40
0.5
 50
90.0
 51
180.0
  0
ARC
  5
CBA
  8
0
 10
372.22420204833651
 20
111.8416866112412
 30
0.0
 40
0.5
 50
359.99999999999972
 51
90.000000000000725
  0
ARC
  5
CBB
  8
0
 10
368.22420204833651
 20
111.8416866112411
 30
0.0
 40
0.5
 50
90.000000000000327
 51
180.0
  0
ARC
  5
CBC
  8
0
 10
383.72420204833651
 20
105.042113875852
 30
0.0
 40
1.0
 50
180.0
 51
270.0
  0
ARC
  5
CBD
  8
0
 10
376.72420204833651
 20
105.042113875852
 30
0.0
 40
1.0
 50
270.0
 51
0.0
  0
ARC
  5
CBE
  8
0
 10
373.72420204833651
 20
105.042113875852
 30
0.0
 40
1.0
 50
180.0
 51
270.0
  0
LINE
  5
CBF
  8
0
 10
378.22420204833651
 20
112.3416866112412
 30
0.0
 11
382.22420204833651
 21
112.3416866112412
 31
0.0
  0
LINE
  5
CC0
  8
0
 10
368.22420204833651
 20
112.3416866112411
 30
0.0
 11
372.22420204833651
 21
112.3416866112412
 31
0.0
  0
LINE
  5
CC1
  8
0
 10
382.72420204833651
 20
105.042113875852
 30
0.0
 11
382.72420204833651
 21
111.8416866112412
 31
0.0
  0
LINE
  5
CC2
  8
0
 10
377.72420204833651
 20
105.042113875852
 30
0.0
 11
377.72420204833651
 21
111.8416866112412
 31
0.0
  0
LINE
  5
CC3
  8
0
 10
372.72420204833651
 20
105.042113875852
 30
0.0
 11
372.72420204833651
 21
111.8416866112412
 31
0.0
  0
LINE
  5
CC4
  8
0
 10
367.72420204833651
 20
105.042113875852
 30
0.0
 11
367.72420204833651
 21
111.8416866112411
 31
0.0
  0
LINE
  5
CC5
  8
CENTER
  6
CENTER
 10
337.5512189221335
 20
132.34168661124119
 30
0.0
 11
358.52170637955709
 21
132.34168661124119
 31
0.0
  0
CIRCLE
  5
CC6
  8
0
 10
346.72420204833651
 20
132.34168661124119
 30
0.0
 40
6.0
  0
CIRCLE
  5
CC7
  8
0
 10
346.72420204833651
 20
132.34168661124119
 30
0.0
 40
5.0
  0
CIRCLE
  5
CC8
  8
0
 10
346.72420204833651
 20
132.34168661124119
 30
0.0
 40
4.0
  0
LINE
  5
CC9
  8
0
 10
337.22420205273659
 20
148.34168661124119
 30
0.0
 11
356.2242020439366
 21
148.34168661124119
 31
0.0
  0
ARC
  5
CCA
  8
0
 10
346.72420204833651
 20
117.3416866112412
 30
0.0
 40
30.0
 50
61.726286382331082
 51
118.27371361766831
  0
ARC
  5
CCB
  8
0
 10
337.22420205273659
 20
146.84168661124119
 30
0.0
 40
1.5
 50
90.000000000000071
 51
180.00000000000111
  0
ARC
  5
CCC
  8
0
 10
333.22420205433667
 20
142.44148741049071
 30
0.0
 40
1.5
 50
118.27371361766789
 51
180.0
  0
ARC
  5
CCD
  8
0
 10
324.22420205693652
 20
128.3416866112413
 30
0.0
 40
1.0
 50
359.99999999999932
 51
89.999999999999872
  0
LINE
  5
CCE
  8
0
 10
325.22420205693652
 20
128.3416866112413
 30
0.0
 11
325.22420205693652
 21
124.3416866112412
 31
0.0
  0
LINE
  5
CCF
  8
0
 10
331.72420205433667
 20
142.44148741049071
 30
0.0
 11
331.72420205433662
 21
124.8416866112413
 31
0.0
  0
LINE
  5
CD0
  8
0
 10
335.7242020527367
 20
146.84168661124119
 30
0.0
 11
335.7242020527367
 21
145.25225808688111
 31
0.0
  0
ARC
  5
CD1
  8
0
 10
356.2242020439366
 20
146.8416866112413
 30
0.0
 40
1.5
 50
0.0
 51
90.0
  0
LINE
  5
CD2
  8
0
 10
357.7242020439366
 20
146.8416866112413
 30
0.0
 11
357.7242020439366
 21
145.252258086881
 31
0.0
  0
ARC
  5
CD3
  8
0
 10
360.22420204233657
 20
142.44148741049059
 30
0.0
 40
1.5
 50
0.0
 51
61.726286382330173
  0
LINE
  5
CD4
  8
0
 10
361.72420204233629
 20
124.8416866112412
 30
0.0
 11
361.72420204233657
 21
142.44148741049059
 31
0.0
  0
LINE
  5
CD5
  8
0
 10
369.22420203973638
 20
131.64168661124131
 30
0.0
 11
369.22420203973638
 21
129.3416866112413
 31
0.0
  0
ARC
  5
CD6
  8
0
 10
369.22420203973638
 20
128.3416866112413
 30
0.0
 40
1.0
 50
90.0
 51
180.00000000000111
  0
ARC
  5
CD7
  8
0
 10
379.22420203493652
 20
128.3416866112413
 30
0.0
 40
1.0
 50
0.0
 51
89.999999999999872
  0
LINE
  5
CD8
  8
0
 10
380.22420203493652
 20
128.3416866112413
 30
0.0
 11
380.22420203493652
 21
124.3416866112412
 31
0.0
  0
LINE
  5
CD9
  8
0
 10
379.22420203493652
 20
129.3416866112413
 30
0.0
 11
369.22420203973638
 21
129.3416866112413
 31
0.0
  0
LINE
  5
CDA
  8
0
 10
368.22420203973633
 20
128.34168661124119
 30
0.0
 11
368.22420203973661
 21
124.3416866112413
 31
0.0
  0
DIMENSION
  5
D35
  8
DIM
  2
*D59
 10
280.02918166324878
 20
203.79949466544559
 30
0.0
 11
277.52918166324878
 21
243.79949464944559
 31
0.0
 70
     0
 13
230.4509447229571
 23
283.79949463344548
 33
0.0
 14
230.4509447229571
 24
203.79949466544559
 34
0.0
 50
90.0
  0
DIMENSION
  5
D42
  8
DIM
  2
*D60
 10
267.95094470795709
 20
314.55617212899227
 30
0.0
 11
230.4509447229571
 21
317.05617212899227
 31
0.0
 70
     0
 13
192.95094473795709
 23
257.29949464404552
 33
0.0
 14
267.95094470795709
 24
257.7189055509528
 34
0.0
  0
DIMENSION
  5
D4F
  8
DIM
  2
*D61
 10
256.95094472295699
 20
309.0853015350699
 30
0.0
 11
230.45094472295699
 21
311.58530153506979
 31
0.0
 70
     0
 13
203.95094472295699
 23
292.29949464944548
 33
0.0
 14
256.95094472295699
 24
292.29949464944548
 34
0.0
  0
DIMENSION
  5
D5C
  8
DIM
  2
*D62
 10
249.45094472295699
 20
302.24671183711962
 30
0.0
 11
230.45094472295699
 21
304.74671183711962
 31
0.0
 70
     0
 13
211.45094472295699
 23
294.29949464944548
 33
0.0
 14
249.45094472295699
 24
294.29949464944548
 34
0.0
  0
CIRCLE
  5
D69
  8
0
 10
246.45094472295699
 20
271.29949464944548
 30
0.0
 40
3.5
  0
LINE
  5
D6A
  8
0
 10
256.95094472295699
 20
289.99949464944552
 30
0.0
 11
203.95094472295699
 21
289.99949464944552
 31
0.0
  0
LINE
  5
D6B
  8
0
 10
256.95094472295699
 20
292.29949464944548
 30
0.0
 11
203.95094472295699
 21
292.29949464944548
 31
0.0
  0
LINE
  5
D6C
  8
0
 10
208.95094472295699
 20
264.79949464944548
 30
0.0
 11
251.95094472295699
 21
264.79949464944548
 31
0.0
  0
LINE
  5
D6D
  8
CENTER
  6
CENTER
 10
245.450944716957
 20
271.29949463844548
 30
0.0
 11
247.4509447161571
 21
271.29949463844548
 31
0.0
  0
LINE
  5
D6E
  8
CENTER
  6
CENTER
 10
245.450944716957
 20
216.29949466044559
 30
0.0
 11
247.4509447161571
 21
216.29949466044559
 31
0.0
  0
CIRCLE
  5
D6F
  8
0
 10
246.4509447165571
 20
216.29949466044559
 30
0.0
 40
3.1499999987399989
  0
CIRCLE
  5
D70
  8
0
 10
246.4509447165571
 20
271.29949463844548
 30
0.0
 40
3.1499999987399989
  0
CIRCLE
  5
D71
  8
0
 10
246.4509447165571
 20
216.29949466044559
 30
0.0
 40
2.5499999989799988
  0
CIRCLE
  5
D72
  8
0
 10
246.4509447165571
 20
271.29949463844548
 30
0.0
 40
2.5499999989799988
  0
CIRCLE
  5
D73
  8
0
 10
246.4509447165571
 20
216.29949466044559
 30
0.0
 40
5.9999999975999989
  0
CIRCLE
  5
D74
  8
0
 10
246.4509447165571
 20
271.29949463844548
 30
0.0
 40
5.9999999975999989
  0
LINE
  5
D75
  8
0
 10
212.45094473015629
 20
232.79949465384561
 30
0.0
 11
248.450944715757
 21
232.79949465384561
 31
0.0
  0
LINE
  5
D76
  8
0
 10
212.450944730157
 20
254.7994946450456
 30
0.0
 11
248.450944715757
 21
254.7994946450456
 31
0.0
  0
ARC
  5
D77
  8
0
 10
230.4509447229571
 20
243.79949464944551
 30
0.0
 40
39.999999983999992
 50
20.364134806317789
 51
159.63586519368221
  0
ARC
  5
D78
  8
0
 10
230.4509447229571
 20
243.79949464944551
 30
0.0
 40
39.999999983999992
 50
200.36413480631771
 51
339.63586519368238
  0
LINE
  5
D79
  8
CENTER
  6
CENTER
 10
191.95094473835701
 20
243.79949464944551
 30
0.0
 11
269.59383051890808
 21
243.79949464944559
 31
0.0
  0
CIRCLE
  5
D7A
  8
0
 10
214.45094472295699
 20
271.29949464944548
 30
0.0
 40
3.5
  0
LINE
  5
D7B
  8
0
 10
203.95094472295699
 20
292.29949464944548
 30
0.0
 11
203.95094472295699
 21
269.79949464944559
 31
0.0
  0
LINE
  5
D7C
  8
CENTER
  6
CENTER
 10
214.4509447293571
 20
270.29949463884549
 30
0.0
 11
214.4509447293571
 21
272.29949463804559
 31
0.0
  0
CIRCLE
  5
D7D
  8
0
 10
214.4509447293571
 20
271.29949463844548
 30
0.0
 40
3.1499999987399989
  0
CIRCLE
  5
D7E
  8
0
 10
214.4509447293571
 20
271.29949463844548
 30
0.0
 40
2.5499999989799988
  0
CIRCLE
  5
D7F
  8
0
 10
214.4509447293571
 20
271.29949463844548
 30
0.0
 40
5.9999999975999989
  0
LINE
  5
D80
  8
CENTER
  6
CENTER
 10
230.45094472295699
 20
294.29949464944559
 30
0.0
 11
230.4509447229571
 21
202.7994946658456
 31
0.0
  0
LINE
  5
D81
  8
CENTER
  6
CENTER
 10
214.4509447293571
 20
218.29949465964549
 30
0.0
 11
214.4509447293571
 21
223.2994946576456
 31
0.0
  0
CIRCLE
  5
D82
  8
0
 10
214.4509447293571
 20
216.29949466044559
 30
0.0
 40
5.9999999975999989
  0
LINE
  5
D83
  8
CENTER
  6
CENTER
 10
212.45094473015709
 20
216.29949466044559
 30
0.0
 11
207.4509447321571
 21
216.29949466044559
 31
0.0
  0
CIRCLE
  5
D84
  8
0
 10
214.4509447293571
 20
216.29949466044559
 30
0.0
 40
3.1499999987399989
  0
ARC
  5
D85
  8
0
 10
230.4509447229571
 20
243.79949464944559
 30
0.0
 40
34.999999985999992
 50
259.90255855571138
 51
280.09744144428862
  0
ARC
  5
D86
  8
0
 10
230.4509447229571
 20
243.79949464944559
 30
0.0
 40
35.999999985599992
 50
253.87237978683919
 51
286.1276202131607
  0
TEXT
  5
D87
  8
0
 10
222.60132170397031
 20
211.41177077954819
 30
0.0
 40
2.999999998799999
  1
O
  7
CHINESET
  0
LINE
  5
D88
  8
0
 10
224.31464803056789
 20
210.25153791169359
 30
0.0
 11
224.31464803056789
 21
209.34160931208089
 31
0.0
  0
LINE
  5
D89
  8
0
 10
220.45094472695709
 20
209.21626173169781
 30
0.0
 11
224.31464803056789
 21
210.25153791169359
 31
0.0
  0
LINE
  5
D8A
  8
CENTER
  6
CENTER
 10
214.4509447293571
 20
214.2994946612456
 30
0.0
 11
214.4509447293571
 21
209.29949466324561
 31
0.0
  0
LINE
  5
D8B
  8
CENTER
  6
CENTER
 10
216.45094472855709
 20
216.29949466044559
 30
0.0
 11
221.45094472655711
 21
216.29949466044559
 31
0.0
  0
LINE
  5
D8C
  8
CENTER
  6
CENTER
 10
214.4509447293571
 20
215.2994946608456
 30
0.0
 11
214.4509447293571
 21
217.2994946600455
 31
0.0
  0
LINE
  5
D8D
  8
CENTER
  6
CENTER
 10
213.450944729757
 20
216.29949466044559
 30
0.0
 11
215.45094472895721
 21
216.29949466044559
 31
0.0
  0
CIRCLE
  5
D8E
  8
0
 10
214.4509447293571
 20
216.29949466044559
 30
0.0
 40
2.5499999989799988
  0
TEXT
  5
D8F
  8
0
 10
236.24207451271141
 20
211.41177077954819
 30
0.0
 40
2.999999998799999
  1
S
  7
CHINESET
  0
LINE
  5
D90
  8
0
 10
236.58724141534631
 20
210.25153791169359
 30
0.0
 11
236.58724141534631
 21
209.34160931208089
 31
0.0
  0
LINE
  5
D91
  8
0
 10
240.45094471895709
 20
209.21626173169781
 30
0.0
 11
236.58724141534631
 21
210.25153791169359
 31
0.0
  0
LINE
  5
D92
  8
CENTER
  6
CENTER
 10
244.450944717357
 20
216.29949466044559
 30
0.0
 11
239.4509447193571
 21
216.29949466044559
 31
0.0
  0
ARC
  5
D93
  8
0
 10
212.45094473015629
 20
231.29949465444551
 30
0.0
 40
1.4999999993999991
 50
90.0
 51
179.99999999999829
  0
ARC
  5
D94
  8
0
 10
212.450944730157
 20
256.29949464444547
 30
0.0
 40
1.4999999993999991
 50
179.99999999999989
 51
270.0
  0
LINE
  5
D95
  8
0
 10
201.95094473435711
 20
246.79949464824551
 30
0.0
 11
207.95094473195709
 21
243.79949464944551
 31
0.0
  0
LINE
  5
D96
  8
0
 10
201.95094473435711
 20
246.79949464824551
 30
0.0
 11
201.95094473435711
 21
245.2994946488455
 31
0.0
  0
LINE
  5
D97
  8
0
 10
210.9509447307571
 20
257.29949464404552
 30
0.0
 11
210.95094473075639
 21
230.29949465484549
 31
0.0
  0
LINE
  5
D98
  8
0
 10
192.95094473795709
 20
257.29949464404552
 30
0.0
 11
192.95094473795709
 21
230.2994946548456
 31
0.0
  0
ARC
  5
D99
  8
0
 10
194.45094473735699
 20
230.2994946548456
 30
0.0
 40
1.4999999993999991
 50
180.0
 51
270.0
  0
LINE
  5
D9A
  8
0
 10
201.95094473435711
 20
242.29949465004549
 30
0.0
 11
201.95094473435711
 21
240.79949465064561
 31
0.0
  0
LINE
  5
D9B
  8
0
 10
207.95094473195709
 20
243.79949464944551
 30
0.0
 11
201.95094473435711
 21
240.79949465064561
 31
0.0
  0
LINE
  5
D9C
  8
0
 10
195.95094473675709
 20
242.29949465004549
 30
0.0
 11
201.95094473435711
 21
242.29949465004549
 31
0.0
  0
LINE
  5
D9D
  8
0
 10
195.95094473675709
 20
245.2994946488455
 30
0.0
 11
201.95094473435711
 21
245.2994946488455
 31
0.0
  0
LINE
  5
D9E
  8
0
 10
195.95094473675709
 20
245.29949464884561
 30
0.0
 11
195.95094473675709
 21
242.29949465004549
 31
0.0
  0
ARC
  5
D9F
  8
0
 10
209.45094473135711
 20
230.2994946548456
 30
0.0
 40
1.4999999993999991
 50
270.0
 51
359.99999999999989
  0
LINE
  5
DA0
  8
0
 10
194.45094473735699
 20
228.79949465544561
 30
0.0
 11
209.45094473135711
 21
228.79949465544561
 31
0.0
  0
ARC
  5
DA1
  8
0
 10
194.45094473735699
 20
257.29949464404552
 30
0.0
 40
1.4999999993999991
 50
90.0
 51
180.0
  0
ARC
  5
DA2
  8
0
 10
208.95094472295699
 20
269.79949464944559
 30
0.0
 40
5.0
 50
180.0
 51
270.0
  0
ARC
  5
DA3
  8
0
 10
209.45094473135711
 20
257.29949464404552
 30
0.0
 40
1.4999999993999991
 50
359.99999999999989
 51
90.000000000000099
  0
LINE
  5
DA4
  8
0
 10
194.45094473735699
 20
258.79949464344548
 30
0.0
 11
209.45094473135711
 21
258.79949464344548
 31
0.0
  0
CIRCLE
  5
DA5
  8
0
 10
230.4509447229571
 20
243.79949464944551
 30
0.0
 40
10.9999999956
  0
LINE
  5
DA6
  8
CENTER
  6
CENTER
 10
214.4509447293571
 20
269.29949463924549
 30
0.0
 11
214.4509447293571
 21
264.29949464124547
 31
0.0
  0
LINE
  5
DA7
  8
CENTER
  6
CENTER
 10
212.45094473015709
 20
271.29949463844548
 30
0.0
 11
207.4509447321571
 21
271.29949463844548
 31
0.0
  0
LINE
  5
DA8
  8
HIDDEN
  6
HIDDEN
 10
207.20094472295699
 20
289.99949464944558
 30
0.0
 11
207.20094472295699
 21
292.29949464944548
 31
0.0
  0
LINE
  5
DA9
  8
CENTER
  6
CENTER
 10
211.45094472295699
 20
287.99949464944552
 30
0.0
 11
211.45094472295699
 21
294.29949464944548
 31
0.0
  0
LINE
  5
DAA
  8
HIDDEN
  6
HIDDEN
 10
215.70094472295699
 20
289.99949464944552
 30
0.0
 11
215.70094472295699
 21
292.29949464944559
 31
0.0
  0
LINE
  5
DAB
  8
CENTER
  6
CENTER
 10
214.4509447293571
 20
273.29949463764558
 30
0.0
 11
214.4509447293571
 21
278.29949463564549
 31
0.0
  0
LINE
  5
DAC
  8
CENTER
  6
CENTER
 10
216.45094472855709
 20
271.29949463844548
 30
0.0
 11
221.45094472655711
 21
271.29949463844548
 31
0.0
  0
LINE
  5
DAD
  8
CENTER
  6
CENTER
 10
213.450944729757
 20
271.29949463844548
 30
0.0
 11
215.45094472895721
 21
271.29949463844548
 31
0.0
  0
LINE
  5
DAE
  8
HIDDEN
  6
HIDDEN
 10
245.20094472295699
 20
289.99949464944558
 30
0.0
 11
245.20094472295699
 21
292.29949464944548
 31
0.0
  0
LINE
  5
DAF
  8
CENTER
  6
CENTER
 10
244.450944717357
 20
271.29949463844548
 30
0.0
 11
239.4509447193571
 21
271.29949463844548
 31
0.0
  0
LINE
  5
DB0
  8
0
 10
256.95094472295699
 20
269.79949464944559
 30
0.0
 11
256.95094472295699
 21
292.29949464944548
 31
0.0
  0
LINE
  5
DB1
  8
CENTER
  6
CENTER
 10
246.4509447165571
 20
270.29949463884549
 30
0.0
 11
246.4509447165571
 21
272.29949463804559
 31
0.0
  0
LINE
  5
DB2
  8
CENTER
  6
CENTER
 10
246.4509447165571
 20
218.29949465964549
 30
0.0
 11
246.4509447165571
 21
223.2994946576456
 31
0.0
  0
LINE
  5
DB3
  8
CENTER
  6
CENTER
 10
246.4509447165571
 20
214.2994946612456
 30
0.0
 11
246.4509447165571
 21
209.29949466324561
 31
0.0
  0
LINE
  5
DB4
  8
CENTER
  6
CENTER
 10
248.45094471575709
 20
216.29949466044559
 30
0.0
 11
253.45094471375711
 21
216.29949466044559
 31
0.0
  0
LINE
  5
DB5
  8
CENTER
  6
CENTER
 10
246.4509447165571
 20
215.2994946608456
 30
0.0
 11
246.4509447165571
 21
217.2994946600455
 31
0.0
  0
LINE
  5
DB6
  8
0
 10
249.95094471515699
 20
257.29949464404552
 30
0.0
 11
249.95094471515699
 21
230.2994946548456
 31
0.0
  0
LINE
  5
DB7
  8
0
 10
267.95094470795709
 20
257.29949464404552
 30
0.0
 11
267.95094470795709
 21
229.88008374793839
 31
0.0
  0
LINE
  5
DB8
  8
0
 10
251.45094471455721
 20
228.79949465544561
 30
0.0
 11
266.45094470855707
 21
228.79949465544561
 31
0.0
  0
ARC
  5
DB9
  8
0
 10
248.450944715757
 20
231.29949465444551
 30
0.0
 40
1.4999999993999991
 50
0.0
 51
90.0
  0
ARC
  5
DBA
  8
0
 10
251.45094471455721
 20
230.2994946548456
 30
0.0
 40
1.4999999993999991
 50
180.00000000000011
 51
270.0
  0
ARC
  5
DBB
  8
0
 10
266.45094470855707
 20
230.2994946548456
 30
0.0
 40
1.4999999993999991
 50
270.0
 51
0.0000000000000636
  0
LINE
  5
DBC
  8
0
 10
251.45094471455701
 20
258.79949464344548
 30
0.0
 11
266.45094470855707
 21
258.79949464344548
 31
0.0
  0
ARC
  5
DBD
  8
0
 10
251.95094472295699
 20
269.79949464944559
 30
0.0
 40
5.0
 50
270.0
 51
0.0
  0
LINE
  5
DBE
  8
CENTER
  6
CENTER
 10
246.4509447165571
 20
269.29949463924549
 30
0.0
 11
246.4509447165571
 21
264.29949464124547
 31
0.0
  0
ARC
  5
DBF
  8
0
 10
248.450944715757
 20
256.29949464444547
 30
0.0
 40
1.4999999993999991
 50
270.0
 51
0.0000000000002417
  0
ARC
  5
DC0
  8
0
 10
251.45094471455701
 20
257.29949464404552
 30
0.0
 40
1.4999999993999991
 50
90.0
 51
180.00000000000011
  0
ARC
  5
DC1
  8
0
 10
266.45094470855707
 20
257.29949464404552
 30
0.0
 40
1.4999999993999991
 50
0.0000000000000509
 51
90.0
  0
TEXT
  5
DC2
  8
DIM
 10
277.24531873002161
 20
311.2445342831345
 30
0.0
 40
3.0
  1
2-
  7
CHINESET
  0
TEXT
  5
1704
  8
DIM
 10
283.81674730145011
 20
311.2445342831345
 30
0.0
 40
3.0
  1
%%c
  7
CHINESET
1001
ACAD
1000
R13OBJECT
1002
{
1005
DC2
1002
}
  0
TEXT
  5
1705
  8
DIM
 10
286.53103301573577
 20
311.2445342831345
 30
0.0
 40
3.0
  1
6.5
  7
CHINESET
1001
ACAD
1000
R13OBJECT
1002
{
1005
DC2
1002
}
  0
SOLID
  5
DC3
  8
DIM
  6
CONTINUOUS
 10
-253.01297179037689
 20
293.76566740599588
 30
0.0
 11
-250.3346407164087
 21
292.3246460119089
 31
0.0
 12
-252.40083884775581
 22
294.55642227354838
 32
0.0
 13
-252.40083884775581
 23
294.55642227354838
 33
0.0
210
0.0
220
0.0
230
-1.0
  0
POLYLINE
  5
1706
  8
DIM
 66
     1
 10
0.0
 20
0.0
 30
0.0
 70
   128
1001
ACAD
1000
R13OBJECT
1002
{
1005
DC3
1002
}
  0
VERTEX
  5
1905
  8
DIM
 10
252.70690531906641
 20
294.16104483977222
 30
0.0
  0
VERTEX
  5
1906
  8
DIM
 10
272.9917149756352
 20
309.86376224955001
 30
0.0
  0
VERTEX
  5
1907
  8
DIM
 10
292.5631435470637
 20
309.86376224955001
 30
0.0
  0
SEQEND
  5
1908
  8
DIM
  0
LINE
  5
DC4
  8
HIDDEN
  6
HIDDEN
 10
253.70094472295699
 20
289.99949464944552
 30
0.0
 11
253.70094472295699
 21
292.29949464944559
 31
0.0
  0
LINE
  5
DC5
  8
CENTER
  6
CENTER
 10
249.45094472295699
 20
287.99949464944552
 30
0.0
 11
249.45094472295699
 21
294.29949464944548
 31
0.0
  0
LINE
  5
DC6
  8
CENTER
  6
CENTER
 10
246.4509447165571
 20
273.29949463764558
 30
0.0
 11
246.4509447165571
 21
278.29949463564549
 31
0.0
  0
LINE
  5
DC7
  8
CENTER
  6
CENTER
 10
248.45094471575709
 20
271.29949463844548
 30
0.0
 11
253.45094471375711
 21
271.29949463844548
 31
0.0
  0
ARC
  5
DC8
  8
0
 10
385.72420204833651
 20
122.3416866112412
 30
0.0
 40
1.0
 50
0.0
 51
89.999999999999915
  0
LINE
  5
DC9
  8
0
 10
386.72420204833651
 20
117.3416866112412
 30
0.0
 11
386.72420204833651
 21
122.3416866112412
 31
0.0
  0
ARC
  5
DCA
  8
0
 10
385.72420204833651
 20
104.042113875852
 30
0.0
 40
1.0
 50
289.98310652189957
 51
0.0000000000001145
  0
LINE
  5
DCB
  8
0
 10
386.72420204833651
 20
104.042113875852
 30
0.0
 11
386.72420204833651
 21
117.3416866112411
 31
0.0
  0
DIMENSION
  5
DCC
  8
DIM
  2
*D63
 10
407.40696520387542
 20
144.30981203766979
 30
0.0
 11
404.9069652038753
 21
149.82574932445559
 31
0.0
 70
     0
 13
396.72420203973638
 23
155.3416866112413
 33
0.0
 14
398.1836908107843
 24
144.30981203766979
 34
0.0
 50
90.0
  0
LINE
  5
DD9
  8
0
 10
394.42420203973637
 20
131.64168661124131
 30
0.0
 11
394.42420203973637
 21
155.3416866112413
 31
0.0
  0
LINE
  5
DDA
  8
0
 10
396.72420203973638
 20
129.3416866112413
 30
0.0
 11
396.72420203973638
 21
155.3416866112413
 31
0.0
  0
LINE
  5
DDB
  8
0
 10
396.72420203973638
 20
141.0916866112413
 30
0.0
 11
394.42420203973637
 21
141.0916866112413
 31
0.0
  0
LINE
  5
DDC
  8
0
 10
396.72420203973638
 20
147.5916866112413
 30
0.0
 11
394.42420203973637
 21
147.5916866112413
 31
0.0
  0
LINE
  5
DDD
  8
CENTER
  6
CENTER
 10
398.1836908107843
 20
144.30981203766979
 30
0.0
 11
393.21903724574707
 21
144.30981203766979
 31
0.0
  0
LINE
  5
DDE
  8
0
 10
394.42420203973637
 20
155.3416866112413
 30
0.0
 11
396.72420203973638
 21
155.3416866112413
 31
0.0
  0
TEXT
  5
177A
  8
LOGO
 62
     6
 10
425.50190659773352
 20
-94.377669106840926
 30
0.0
 40
6.4050394955430443
  1
配管口徑
 41
0.9
  7
CHINESET
 72
     4
 11
437.0910249349817
 21
-91.175149359069394
 31
0.0
  0
LINE
  5
177B
  8
LOGO
 62
     6
 10
453.6307729635293
 20
-103.1845984132125
 30
0.0
 11
420.551276906434
 21
-103.1845984132126
 31
0.0
  0
LINE
  5
177C
  8
LOGO
 62
     6
 10
453.6307729635293
 20
-85.570739800469184
 30
0.0
 11
420.551276906434
 21
-85.570739800469184
 31
0.0
  0
TEXT
  5
177D
  8
LOGO
  6
CONTINUOUS
 62
     6
 10
426.11095722833642
 20
-101.1830235708554
 30
0.0
 40
4.003149684714403
  1
Bore size
 41
0.8
  7
CHINESET
 72
     4
 11
437.0910249349817
 21
-99.181448728498196
 31
0.0
  0
TEXT
  5
177E
  8
LOGO
  6
CONTINUOUS
 62
     7
 10
431.35698978329441
 20
-75.253342559560238
 30
0.0
 40
8.006299369428806
  1
?A
  7
CHINESET
 72
     1
 11
437.83827974902249
 21
-71.250192874845837
 31
0.0
 73
     2
  0
LINE
  5
177F
  8
LOGO
 62
     6
 10
450.42825321575782
 20
-63.953731503011397
 30
0.0
 11
423.75379665420547
 21
-63.953731503011397
 31
0.0
  0
LINE
  5
1780
  8
LOGO
 62
     6
 10
450.42825321575771
 20
-78.365070367983265
 30
0.0
 11
423.75379665420547
 21
-78.365070367983265
 31
0.0
  0
LINE
  5
1781
  8
LOGO
 62
     1
 10
456.41032240048997
 20
-59.149951881354127
 30
0.0
 11
182.04969223187609
 21
-59.149951881354127
 31
0.0
  0
LINE
  5
1782
  8
LOGO
 62
     1
 10
456.41032240048997
 20
-107.1877480979269
 30
0.0
 11
182.04969223187609
 21
-107.1877480979269
 31
0.0
  0
LINE
  5
1783
  8
LOGO
  6
CONTINUOUS
 62
     6
 10
273.38608048766258
 20
-71.916798454658334
 30
0.0
 11
282.13002324507789
 21
-70.761827910001344
 31
0.0
  0
LINE
  5
1784
  8
LOGO
  6
CONTINUOUS
 62
     6
 10
273.38608048766258
 20
-75.185232398465828
 30
0.0
 11
282.13002324507789
 21
-76.340202943122819
 31
0.0
  0
LINE
  5
1785
  8
LOGO
 62
     1
 10
287.73284390833641
 20
-68.757511124668682
 30
0.0
 11
217.27740945736289
 21
-68.757511124668682
 31
0.0
  0
LINE
  5
1786
  8
LOGO
 62
     1
 10
287.73284390833641
 20
-78.365070367983265
 30
0.0
 11
217.27740945736289
 21
-78.365070367983265
 31
0.0
  0
TEXT
  5
1787
  8
LOGO
 62
     6
 10
262.9141079426455
 20
-66.355621313840047
 30
0.0
 40
4.8037796216572817
  1
1 : 1
  7
CHINESET
 72
     1
 11
271.37791013318451
 21
-63.953731503011397
 31
0.0
 73
     2
  0
TEXT
  5
1788
  8
LOGO
 62
     6
 10
262.9141079426455
 20
-85.57073980046917
 30
0.0
 40
4.8037796216572817
  1
m/m
  7
CHINESET
 72
     1
 11
271.37791013318451
 21
-83.168849989640535
 31
0.0
 73
     2
  0
LINE
  5
1789
  8
LOGO
 62
     1
 10
287.73284390833641
 20
-87.972629611297776
 30
0.0
 11
182.04969223187609
 21
-87.972629611297776
 31
0.0
  0
TEXT
  5
178A
  8
LOGO
  6
CONTINUOUS
 62
     5
 10
183.62205040956971
 20
-97.75079552653672
 30
0.0
 40
7.2056694324859238
  1
金器工業股份有限公司
 41
0.8
  7
LOGO
  0
TEXT
  5
178B
  8
LOGO
  6
CONTINUOUS
 62
     5
 10
185.68531953049191
 20
-104.9578767052851
 30
0.0
 40
4.8037796216572817
  1
MINDMAN INDUSTRIAL CO.,LTD
 41
0.85
  7
CHINESET
  0
SOLID
  5
178C
  8
LOGO
 62
     5
 10
187.033690684145
 20
-79.9870297544783
 30
0.0
 11
189.11071894137231
 21
-79.987029754478996
 31
0.0
 12
197.77694029049391
 22
-60.291072142839369
 32
0.0
 13
199.85396854772091
 23
-60.291072142840733
 33
0.0
  0
SOLID
  5
178D
  8
LOGO
 62
     5
 10
189.97017890988141
 20
-79.9870297544783
 30
0.0
 11
192.0472071671085
 21
-79.9870297544783
 31
0.0
 12
199.85396854772091
 22
-61.866748751771198
 32
0.0
 13
197.77694029049391
 23
-69.482519028271824
 33
0.0
  0
SOLID
  5
178E
  8
LOGO
 62
     2
 10
189.11071894137231
 20
-79.987029754478996
 30
0.0
 11
189.97017890988141
 21
-79.9870297544783
 31
0.0
 12
199.85396854772091
 22
-60.291072142840733
 32
0.0
 13
200.71342851622941
 23
-60.291072142840733
 33
0.0
  0
SOLID
  5
178F
  8
LOGO
 62
     5
 10
189.1699819294972
 20
-83.568112956594518
 30
0.0
 11
189.88619856991971
 21
-83.568112956594518
 31
0.0
 12
189.1699819294972
 22
-87.149196158710083
 32
0.0
 13
189.88619856991971
 23
-87.149196158710083
 33
0.0
  0
SOLID
  5
1790
  8
LOGO
 62
     5
 10
183.70370503808931
 20
-87.149196158710083
 30
0.0
 11
184.4199216785133
 21
-87.149196158710083
 31
0.0
 12
186.43684348379281
 22
-83.568112956594518
 32
0.0
 13
187.1530601242155
 23
-83.568112956594518
 33
0.0
  0
SOLID
  5
1791
  8
LOGO
 62
     5
 10
186.43684348379281
 20
-83.568112956594518
 30
0.0
 11
187.1530601242155
 21
-83.568112956594518
 31
0.0
 12
186.43684348379281
 22
-87.149196158710083
 32
0.0
 13
187.1530601242155
 23
-87.149196158710083
 33
0.0
  0
SOLID
  5
1792
  8
LOGO
 62
     5
 10
186.43684348379281
 20
-87.149196158710083
 30
0.0
 11
187.1530601242155
 21
-87.149196158710083
 31
0.0
 12
189.1699819294972
 22
-83.568112956594518
 32
0.0
 13
189.88619856991971
 23
-83.568112956594518
 33
0.0
  0
LINE
  5
1793
  8
LOGO
 62
     1
 10
182.04969223187609
 20
-107.1877480979269
 30
0.0
 11
182.04969223187609
 21
-59.149951881354127
 31
0.0
  0
TEXT
  5
1794
  8
LOGO
 62
     6
 10
221.23838310075621
 20
-66.353257249065607
 30
0.0
 40
4.8037796216572817
  1
比例 Scale:
 41
0.9
  7
CHINESET
 72
     4
 11
236.492527943992
 21
-63.953731503011397
 31
0.0
  0
TEXT
  5
1795
  8
LOGO
 62
     6
 10
222.91756142386231
 20
-75.895607705685279
 30
0.0
 40
4.8037796216572817
  1
投影 View:
 41
0.9
  7
CHINESET
 72
     4
 11
236.492527943992
 21
-73.56129074632598
 31
0.0
  0
TEXT
  5
1796
  8
LOGO
 62
     6
 10
223.38721666365831
 20
-85.57073980046917
 30
0.0
 40
4.8037796216572817
  1
單位 Unit:
 41
0.9
  7
CHINESET
 72
     4
 11
236.492527943992
 21
-83.168849989640535
 31
0.0
  0
POLYLINE
  5
1797
  8
LOGO
 62
     5
 66
     1
 10
0.0
 20
0.0
 30
0.0
 70
     1
 40
0.717364423500821
 41
0.717364423500821
  0
VERTEX
  5
190D
  8
LOGO
 62
     5
 10
206.60803103733389
 20
-85.358654557652656
 30
0.0
 42
1.0
  0
VERTEX
  5
190E
  8
LOGO
 62
     5
 10
209.47748873133719
 20
-85.358654557652656
 30
0.0
 42
1.0
  0
SEQEND
  5
190F
  8
LOGO
 62
     5
  0
LINE
  5
1798
  8
LOGO
 62
     5
 10
213.5337063798045
 20
-87.149196158710083
 30
0.0
 11
213.5337063798045
 21
-85.000546237441029
 31
0.0
  0
SOLID
  5
1799
  8
LOGO
 62
     5
 10
209.11701322330799
 20
-83.568112956594518
 30
0.0
 11
209.83322986373059
 21
-83.568112956594518
 31
0.0
 12
209.11701322330799
 22
-87.149196158710083
 32
0.0
 13
209.83322986373059
 23
-87.149196158710083
 33
0.0
  0
SOLID
  5
179A
  8
LOGO
 62
     5
 10
210.66883981811151
 20
-87.149196158710083
 30
0.0
 11
211.38505645853539
 21
-87.149196158710083
 31
0.0
 12
210.66883981811151
 22
-83.568112956594518
 32
0.0
 13
211.38505645853539
 23
-83.568112956594518
 33
0.0
  0
SOLID
  5
179B
  8
LOGO
 62
     5
 10
212.81748973938201
 20
-85.000546237441029
 30
0.0
 11
213.5337063798045
 21
-85.000546237441142
 31
0.0
 12
212.81748973938201
 22
-87.149196158710083
 32
0.0
 13
213.5337063798045
 23
-87.149196158710083
 33
0.0
  0
SOLID
  5
179C
  8
LOGO
 62
     5
 10
198.85119362946509
 20
-82.493787995959337
 30
0.0
 11
199.56741026988769
 21
-82.493787995959337
 31
0.0
 12
198.85119362946509
 22
-87.149196158710083
 32
0.0
 13
199.56741026988769
 23
-87.149196158710083
 33
0.0
  0
SOLID
  5
179D
  8
LOGO
 62
     5
 10
200.4030202242707
 20
-83.568112956594518
 30
0.0
 11
201.11923686469331
 21
-83.568112956594518
 31
0.0
 12
200.4030202242707
 22
-87.149196158710083
 32
0.0
 13
201.11923686469331
 23
-87.149196158710083
 33
0.0
  0
SOLID
  5
179E
  8
LOGO
 62
     5
 10
202.55167014553979
 20
-85.000546237441029
 30
0.0
 11
203.2678867859623
 21
-85.000546237441029
 31
0.0
 12
202.55167014553979
 22
-87.149196158710083
 32
0.0
 13
203.2678867859623
 23
-87.149196158710083
 33
0.0
  0
SOLID
  5
179F
  8
LOGO
 62
     5
 10
204.7003200668089
 20
-85.000546237441029
 30
0.0
 11
205.4165367072315
 21
-85.000546237441029
 31
0.0
 12
204.7003200668089
 22
-87.149196158711433
 32
0.0
 13
205.4165367072315
 23
-87.149196158711433
 33
0.0
  0
LINE
  5
17A0
  8
LOGO
 62
     1
 10
217.27740945736289
 20
-87.972629611297833
 30
0.0
 11
217.27740945736289
 21
-59.149951881354127
 31
0.0
  0
SOLID
  5
17A1
  8
LOGO
 62
     5
 10
192.28585055169759
 20
-83.568112956594518
 30
0.0
 11
193.00206719212019
 21
-83.568112956594518
 31
0.0
 12
192.28585055169759
 22
-87.149196158710083
 32
0.0
 13
193.00206719212019
 23
-87.149196158710083
 33
0.0
  0
SOLID
  5
17A2
  8
LOGO
 62
     5
 10
194.4345004729665
 20
-85.000546237441029
 30
0.0
 11
195.15071711339041
 21
-85.000546237441029
 31
0.0
 12
194.4345004729665
 22
-87.149196158710083
 32
0.0
 13
195.15071711339041
 23
-87.149196158710083
 33
0.0
  0
SOLID
  5
17A3
  8
LOGO
 62
     5
 10
190.73402395689189
 20
-83.568112956594518
 30
0.0
 11
191.45024059731651
 21
-83.568112956594518
 31
0.0
 12
190.73402395689189
 22
-87.149196158711433
 32
0.0
 13
191.45024059731651
 23
-87.149196158710083
 33
0.0
  0
POLYLINE
  5
17A4
  8
LOGO
 62
     5
 66
     1
 10
0.0
 20
0.0
 30
0.0
 70
     1
 40
0.717364423500821
 41
0.717364423500821
  0
VERTEX
  5
1910
  8
LOGO
 62
     5
 10
196.34221144349169
 20
-85.358654557652656
 30
0.0
 42
1.0
  0
VERTEX
  5
1911
  8
LOGO
 62
     5
 10
199.21166913749511
 20
-85.358654557652656
 30
0.0
 42
1.0
  0
SEQEND
  5
1912
  8
LOGO
 62
     5
  0
POLYLINE
  5
17A5
  8
LOGO
 62
     5
 66
     1
 10
0.0
 20
0.0
 30
0.0
 40
0.717364423500821
 41
0.717364423500821
  0
VERTEX
  5
1913
  8
LOGO
 62
     5
 10
213.17731973420999
 20
-85.000546237441029
 30
0.0
 42
1.0
  0
VERTEX
  5
1914
  8
LOGO
 62
     5
 10
211.02522646370741
 20
-85.000546237441029
 30
0.0
 42
1.0
  0
SEQEND
  5
1915
  8
LOGO
 62
     5
  0
SOLID
  5
17A6
  8
LOGO
 62
     5
 10
211.4566781225775
 20
-79.987029754478996
 30
0.0
 11
213.5337063798045
 21
-79.987029754478996
 31
0.0
 12
211.4566781225775
 22
-60.291072142840733
 32
0.0
 13
213.5337063798045
 23
-60.291072142839369
 33
0.0
  0
SOLID
  5
17A7
  8
LOGO
 62
     5
 10
200.71342851622941
 20
-60.291072142840733
 30
0.0
 11
202.79045677345641
 21
-60.291072142839369
 31
0.0
 12
200.71342851622941
 22
-78.411353145547835
 32
0.0
 13
202.79045677345641
 23
-70.795582869047195
 33
0.0
  0
SOLID
  5
17A8
  8
LOGO
 62
     5
 10
200.71342851622941
 20
-78.411353145547835
 30
0.0
 11
202.79045677345641
 21
-70.795582869047195
 31
0.0
 12
210.59721815406891
 22
-60.291072142839369
 32
0.0
 13
208.52018989684171
 23
-60.291072142839369
 33
0.0
  0
SOLID
  5
17A9
  8
LOGO
 62
     5
 10
210.59721815406891
 20
-61.866748751771198
 30
0.0
 11
208.52018989684171
 21
-69.482519028271824
 31
0.0
 12
210.59721815406891
 22
-79.987029754478996
 32
0.0
 13
208.52018989684171
 23
-79.987029754478996
 33
0.0
  0
SOLID
  5
17AA
  8
LOGO
 62
     2
 10
210.59721815406891
 20
-60.291072142839369
 30
0.0
 11
211.4566781225775
 21
-60.291072142840733
 31
0.0
 12
210.59721815406891
 22
-79.987029754478996
 32
0.0
 13
211.4566781225775
 23
-79.987029754478996
 33
0.0
  0
SOLID
  5
17AB
  8
LOGO
 62
     5
 10
197.77694029049391
 20
-79.9870297544783
 30
0.0
 11
199.85396854772091
 21
-79.9870297544783
 31
0.0
 12
197.77694029049391
 22
-69.482519028271824
 32
0.0
 13
199.85396854772091
 23
-61.866748751771198
 33
0.0
  0
SOLID
  5
17AC
  8
LOGO
 62
     2
 10
199.85396854772091
 20
-60.291072142840733
 30
0.0
 11
200.71342851622941
 21
-60.291072142840733
 31
0.0
 12
199.85396854772091
 22
-79.9870297544783
 32
0.0
 13
200.71342851622941
 23
-79.9870297544783
 33
0.0
  0
SOLID
  5
17AD
  8
LOGO
 62
     5
 10
200.71342851622941
 20
-79.9870297544783
 30
0.0
 11
202.79045677345641
 21
-79.9870297544783
 31
0.0
 12
210.59721815406891
 22
-61.866748751771198
 32
0.0
 13
208.52018989684171
 23
-69.482519028271824
 33
0.0
  0
SOLID
  5
17AE
  8
LOGO
 62
     2
 10
199.85396854772091
 20
-79.9870297544783
 30
0.0
 11
200.71342851622941
 21
-79.9870297544783
 31
0.0
 12
210.59721815406891
 22
-60.291072142839369
 32
0.0
 13
211.4566781225775
 23
-60.291072142840733
 33
0.0
  0
POLYLINE
  5
17AF
  8
LOGO
 62
     5
 66
     1
 10
0.0
 20
0.0
 30
0.0
 40
0.717364423500821
 41
0.717364423500821
  0
VERTEX
  5
1916
  8
LOGO
 62
     5
 10
202.91150014036779
 20
-85.000546237441029
 30
0.0
 42
1.0
  0
VERTEX
  5
1917
  8
LOGO
 62
     5
 10
200.75940686986519
 20
-85.000546237441029
 30
0.0
 42
1.0
  0
SEQEND
  5
1918
  8
LOGO
 62
     5
  0
POLYLINE
  5
17B0
  8
LOGO
 62
     5
 66
     1
 10
0.0
 20
0.0
 30
0.0
 40
0.717364423500821
 41
0.717364423500821
  0
VERTEX
  5
1919
  8
LOGO
 62
     5
 10
194.79433046779471
 20
-85.000546237441029
 30
0.0
 42
1.0
  0
VERTEX
  5
191A
  8
LOGO
 62
     5
 10
192.64223719729219
 20
-85.000546237441029
 30
0.0
 42
1.0
  0
SEQEND
  5
191B
  8
LOGO
 62
     5
  0
SOLID
  5
17B1
  8
LOGO
 62
     5
 10
190.73402395689189
 20
-83.066761308298624
 30
0.0
 11
191.45024059731651
 21
-83.066761308298624
 31
0.0
 12
190.73402395689189
 22
-82.493787995959337
 32
0.0
 13
191.45024059731651
 23
-82.493787995959337
 33
0.0
  0
POLYLINE
  5
17B2
  8
LOGO
 62
     5
 66
     1
 10
0.0
 20
0.0
 30
0.0
 70
     1
  0
VERTEX
  5
191C
  8
LOGO
 62
     5
 10
206.96843492370101
 20
-85.358654557652315
 30
0.0
 42
1.0000000573306349
  0
VERTEX
  5
191D
  8
LOGO
 62
     5
 10
209.117084844971
 20
-85.358654557652315
 30
0.0
 42
1.0000000573306349
  0
SEQEND
  5
191E
  8
LOGO
 62
     5
  0
CIRCLE
  5
17B3
  8
LOGO
 62
     5
 10
208.04275988433599
 20
-85.358654557652315
 30
0.0
 40
1.0743249606348291
  0
POLYLINE
  5
17B4
  8
LOGO
 62
     5
 66
     1
 10
0.0
 20
0.0
 30
0.0
 40
0.717364423500821
 41
0.717364423500821
  0
VERTEX
  5
191F
  8
LOGO
 62
     5
 10
205.0601500616369
 20
-85.000546237441029
 30
0.0
 42
1.0
  0
VERTEX
  5
1920
  8
LOGO
 62
     5
 10
202.9080567911343
 20
-85.000546237441029
 30
0.0
 42
1.0
  0
SEQEND
  5
1921
  8
LOGO
 62
     5
  0
LINE
  5
17B5
  8
LOGO
 62
     1
 10
255.70764643062111
 20
-87.972629611297833
 30
0.0
 11
255.70764643062111
 21
-59.149951881354127
 31
0.0
  0
CIRCLE
  5
17B6
  8
LOGO
  6
CONTINUOUS
 62
     6
 10
264.60244524737669
 20
-73.551015426562088
 30
0.0
 40
2.7891875165607352
  0
CIRCLE
  5
17B7
  8
LOGO
  6
CONTINUOUS
 62
     6
 10
264.60244524737669
 20
-73.551015426562088
 30
0.0
 40
1.634216971903742
  0
LINE
  5
17B8
  8
LOGO
 62
     6
 10
273.3860804876627
 20
-75.185232398465828
 30
0.0
 11
273.38608048766258
 21
-71.916798454658334
 31
0.0
  0
TEXT
  5
17B9
  8
LOGO
  6
CONTINUOUS
 62
     6
 10
375.36459889630811
 20
-101.1830235708553
 30
0.0
 40
4.003149684714403
  1
Model
  7
CHINESET
 72
     4
 11
382.9896459148116
 21
-99.181448728498168
 31
0.0
  0
TEXT
  5
17BA
  8
LOGO
  6
CONTINUOUS
 62
     7
 10
360.02109878881743
 20
-75.162550620211746
 30
0.0
 40
8.006299369428806
  1
MAF400
  7
CHINESET
 72
     1
 11
382.51498749340311
 21
-71.159400935497345
 31
0.0
 73
     2
  0
LINE
  5
17BB
  8
LOGO
 62
     6
 10
412.1725912510193
 20
-63.953731503011397
 30
0.0
 11
353.80670057860402
 21
-63.953731503011397
 31
0.0
  0
LINE
  5
17BC
  8
LOGO
 62
     6
 10
412.1725912510193
 20
-78.365070367983265
 30
0.0
 11
353.80670057860402
 21
-78.365070367983265
 31
0.0
  0
LINE
  5
17BD
  8
LOGO
 62
     6
 10
399.00224465366932
 20
-85.570739800469184
 30
0.0
 11
366.97704717595411
 21
-85.570739800469184
 31
0.0
  0
LINE
  5
17BE
  8
LOGO
 62
     6
 10
399.00224465366932
 20
-103.1845984132125
 30
0.0
 11
366.97704717595411
 21
-103.1845984132126
 31
0.0
  0
TEXT
  5
17BF
  8
LOGO
 62
     7
 10
291.66497234681702
 20
-71.177523541507327
 30
0.0
 40
9.6075592433145651
  1
訂購代號:
  7
CHINESET
  0
TEXT
  5
17C0
  8
LOGO
 62
     7
 10
290.51585529379508
 20
-80.194492970882379
 30
0.0
 40
6.4050394955430443
  1
Order example:
 41
0.8
  7
CHINESET
  0
LINE
  5
17C1
  8
LOGO
 62
     1
 10
287.73284390833641
 20
-107.1877480979269
 30
0.0
 11
287.73284390833641
 21
-59.149951881354127
 31
0.0
  0
LINE
  5
17C2
  8
LOGO
 62
     6
 10
282.13002324507789
 20
-76.340202943122819
 30
0.0
 11
282.13002324507789
 21
-70.761827910001344
 31
0.0
  0
LINE
  5
17C3
  8
LOGO
 62
     6
 10
366.97704717595411
 20
-85.570739800469184
 30
0.0
 11
366.97704717595411
 21
-103.1845984132126
 31
0.0
  0
LINE
  5
17C4
  8
LOGO
 62
     6
 10
353.80670057860402
 20
-63.953731503011397
 30
0.0
 11
353.80670057860402
 21
-78.365070367983265
 31
0.0
  0
LINE
  5
17C5
  8
LOGO
 62
     6
 10
399.00224465366932
 20
-85.570739800469184
 30
0.0
 11
399.00224465366932
 21
-103.1845984132125
 31
0.0
  0
TEXT
  5
17C6
  8
LOGO
 62
     6
 10
376.5846064192686
 20
-94.213760615813186
 30
0.0
 40
6.4050394955430443
  1
型式
  7
CHINESET
 72
     4
 11
382.9896459148116
 21
-91.175149359069337
 31
0.0
  0
LINE
  5
17C7
  8
LOGO
 62
     6
 10
382.9896459148116
 20
-78.365070367983265
 30
0.0
 11
382.9896459148116
 21
-85.570739800469184
 31
0.0
  0
LINE
  5
17C8
  8
LOGO
 62
     6
 10
412.1725912510193
 20
-63.953731503011397
 30
0.0
 11
412.1725912510193
 21
-78.365070367983265
 31
0.0
  0
LINE
  5
17C9
  8
LOGO
 62
     6
 10
420.551276906434
 20
-85.570739800469184
 30
0.0
 11
420.551276906434
 21
-103.1845984132126
 31
0.0
  0
LINE
  5
17CA
  8
LOGO
  6
CONTINUOUS
 62
     7
 10
414.89805677687821
 20
-71.210448175286785
 30
0.0
 11
421.26157817326072
 21
-71.210448175286785
 31
0.0
  0
LINE
  5
17CB
  8
LOGO
 62
     6
 10
423.75379665420559
 20
-63.953731503011397
 30
0.0
 11
423.75379665420547
 21
-78.365070367983265
 31
0.0
  0
LINE
  5
17CC
  8
LOGO
 62
     6
 10
437.43015723706378
 20
-78.365070367983265
 30
0.0
 11
437.43015723706378
 21
-85.570739800469184
 31
0.0
  0
LINE
  5
17CD
  8
LOGO
 62
     6
 10
453.6307729635293
 20
-85.570739800469184
 30
0.0
 11
453.6307729635293
 21
-103.25101433954531
 31
0.0
  0
LINE
  5
17CE
  8
LOGO
 62
     6
 10
450.42825321575782
 20
-63.953731503011397
 30
0.0
 11
450.42825321575771
 21
-78.365070367983265
 31
0.0
  0
LINE
  5
17CF
  8
LOGO
 62
     1
 10
456.41032240048997
 20
-107.1877480979269
 30
0.0
 11
456.41032240048997
 21
-59.149951881354127
 31
0.0
  0
ENDSEC
  0
EOF
