  0
SECTION
  2
HEADER
  9
$ACADVER
  1
AC1015
  9
$ACADMAINTVER
 70
    20
  9
$DWGCODEPAGE
  3
ANSI_950
  9
$INSBASE
 10
196.8846923010438
 20
-148.80236534061
 30
0.0
  9
$EXTMIN
 10
51.47306898329452
 20
324.1000401732303
 30
-0.0095982221924942
  9
$EXTMAX
 10
346.6370339721775
 20
763.2530227073052
 30
268.9531074715711
  9
$LIMMIN
 10
0.0
 20
0.0
  9
$LIMMAX
 10
12.0
 20
9.0
  9
$ORTHOMODE
 70
     1
  9
$REGENMODE
 70
     0
  9
$FILLMODE
 70
     1
  9
$QTEXTMODE
 70
     0
  9
$MIRRTEXT
 70
     1
  9
$LTSCALE
 40
6.0
  9
$ATTMODE
 70
     1
  9
$TEXTSIZE
 40
4.0
  9
$TRACEWID
 40
0.05
  9
$TEXTSTYLE
  7
DAYUS
  9
$CLAYER
  8
0
  9
$CELTYPE
  6
BYLAYER
  9
$CECOLOR
 62
   256
  9
$CELTSCALE
 40
1.0
  9
$DISPSILH
 70
     0
  9
$DIMSCALE
 40
1.0
  9
$DIMASZ
 40
3.0
  9
$DIMEXO
 40
1.0
  9
$DIMDLI
 40
8.0
  9
$DIMRND
 40
0.0
  9
$DIMDLE
 40
0.0
  9
$DIMEXE
 40
1.0
  9
$DIMTP
 40
0.1
  9
$DIMTM
 40
0.1
  9
$DIMTXT
 40
3.5
  9
$DIMCEN
 40
0.0
  9
$DIMTSZ
 40
0.0
  9
$DIMTOL
 70
     0
  9
$DIMLIM
 70
     0
  9
$DIMTIH
 70
     0
  9
$DIMTOH
 70
     0
  9
$DIMSE1
 70
     0
  9
$DIMSE2
 70
     0
  9
$DIMTAD
 70
     1
  9
$DIMZIN
 70
     8
  9
$DIMBLK
  1

  9
$DIMASO
 70
     1
  9
$DIMSHO
 70
     0
  9
$DIMPOST
  1

  9
$DIMAPOST
  1
"
  9
$DIMALT
 70
     0
  9
$DIMALTD
 70
     2
  9
$DIMALTF
 40
0.0393701
  9
$DIMLFAC
 40
1.0
  9
$DIMTOFL
 70
     1
  9
$DIMTVP
 40
0.0
  9
$DIMTIX
 70
     0
  9
$DIMSOXD
 70
     0
  9
$DIMSAH
 70
     0
  9
$DIMBLK1
  1

  9
$DIMBLK2
  1

  9
$DIMSTYLE
  2
AM_ISO
  9
$DIMCLRD
 70
   256
  9
$DIMCLRE
 70
   256
  9
$DIMCLRT
 70
   256
  9
$DIMTFAC
 40
0.71
  9
$DIMGAP
 40
1.0
  9
$DIMJUST
 70
     0
  9
$DIMSD1
 70
     0
  9
$DIMSD2
 70
     0
  9
$DIMTOLJ
 70
     0
  9
$DIMTZIN
 70
     8
  9
$DIMALTZ
 70
     8
  9
$DIMALTTZ
 70
     0
  9
$DIMUPT
 70
     0
  9
$DIMDEC
 70
     2
  9
$DIMTDEC
 70
     2
  9
$DIMALTU
 70
     2
  9
$DIMALTTD
 70
     2
  9
$DIMTXSTY
  7
STANDARD
  9
$DIMAUNIT
 70
     0
  9
$DIMADEC
 70
     0
  9
$DIMALTRND
 40
0.0
  9
$DIMAZIN
 70
     2
  9
$DIMDSEP
 70
    46
  9
$DIMATFIT
 70
     3
  9
$DIMFRAC
 70
     0
  9
$DIMLDRBLK
  1

  9
$DIMLUNIT
 70
     2
  9
$DIMLWD
 70
    -1
  9
$DIMLWE
 70
    -1
  9
$DIMTMOVE
 70
     0
  9
$LUNITS
 70
     2
  9
$LUPREC
 70
     2
  9
$SKETCHINC
 40
0.1
  9
$FILLETRAD
 40
2.5
  9
$AUNITS
 70
     0
  9
$AUPREC
 70
     0
  9
$MENU
  1
ACAD
  9
$ELEVATION
 40
0.0
  9
$PELEVATION
 40
0.0
  9
$THICKNESS
 40
0.0
  9
$LIMCHECK
 70
     0
  9
$CHAMFERA
 40
2.5
  9
$CHAMFERB
 40
2.5
  9
$CHAMFERC
 40
0.0
  9
$CHAMFERD
 40
0.0
  9
$SKPOLY
 70
     0
  9
$TDCREATE
 40
2450294.561725000
  9
$TDUCREATE
 40
2450294.228391667
  9
$TDUPDATE
 40
2454735.621579757
  9
$TDUUPDATE
 40
2454735.288246423
  9
$TDINDWG
 40
0.8881933681
  9
$TDUSRTIMER
 40
0.8881933681
  9
$USRTIMER
 70
     1
  9
$ANGBASE
 50
0.0
  9
$ANGDIR
 70
     0
  9
$PDMODE
 70
    65
  9
$PDSIZE
 40
6.299999999999999
  9
$PLINEWID
 40
0.0
  9
$SPLFRAME
 70
     0
  9
$SPLINETYPE
 70
     6
  9
$SPLINESEGS
 70
     8
  9
$HANDSEED
  5
68AE
  9
$SURFTAB1
 70
     6
  9
$SURFTAB2
 70
     6
  9
$SURFTYPE
 70
     6
  9
$SURFU
 70
     6
  9
$SURFV
 70
     6
  9
$UCSBASE
  2

  9
$UCSNAME
  2

  9
$UCSORG
 10
0.0
 20
0.0
 30
0.0
  9
$UCSXDIR
 10
1.0
 20
0.0
 30
0.0
  9
$UCSYDIR
 10
0.0
 20
1.0
 30
0.0
  9
$UCSORTHOREF
  2

  9
$UCSORTHOVIEW
 70
     0
  9
$UCSORGTOP
 10
0.0
 20
0.0
 30
0.0
  9
$UCSORGBOTTOM
 10
0.0
 20
0.0
 30
0.0
  9
$UCSORGLEFT
 10
0.0
 20
0.0
 30
0.0
  9
$UCSORGRIGHT
 10
0.0
 20
0.0
 30
0.0
  9
$UCSORGFRONT
 10
0.0
 20
0.0
 30
0.0
  9
$UCSORGBACK
 10
0.0
 20
0.0
 30
0.0
  9
$PUCSBASE
  2

  9
$PUCSNAME
  2

  9
$PUCSORG
 10
0.0
 20
0.0
 30
0.0
  9
$PUCSXDIR
 10
1.0
 20
0.0
 30
0.0
  9
$PUCSYDIR
 10
0.0
 20
1.0
 30
0.0
  9
$PUCSORTHOREF
  2

  9
$PUCSORTHOVIEW
 70
     0
  9
$PUCSORGTOP
 10
0.0
 20
0.0
 30
0.0
  9
$PUCSORGBOTTOM
 10
0.0
 20
0.0
 30
0.0
  9
$PUCSORGLEFT
 10
0.0
 20
0.0
 30
0.0
  9
$PUCSORGRIGHT
 10
0.0
 20
0.0
 30
0.0
  9
$PUCSORGFRONT
 10
0.0
 20
0.0
 30
0.0
  9
$PUCSORGBACK
 10
0.0
 20
0.0
 30
0.0
  9
$USERI1
 70
     0
  9
$USERI2
 70
     0
  9
$USERI3
 70
     0
  9
$USERI4
 70
     0
  9
$USERI5
 70
     0
  9
$USERR1
 40
0.0
  9
$USERR2
 40
0.0
  9
$USERR3
 40
0.0
  9
$USERR4
 40
0.0
  9
$USERR5
 40
0.0
  9
$WORLDVIEW
 70
     1
  9
$SHADEDGE
 70
     3
  9
$SHADEDIF
 70
    70
  9
$TILEMODE
 70
     1
  9
$MAXACTVP
 70
    16
  9
$PINSBASE
 10
0.0
 20
0.0
 30
0.0
  9
$PLIMCHECK
 70
     0
  9
$PEXTMIN
 10
1.000000000000000E+20
 20
1.000000000000000E+20
 30
1.000000000000000E+20
  9
$PEXTMAX
 10
-1.000000000000000E+20
 20
-1.000000000000000E+20
 30
-1.000000000000000E+20
  9
$PLIMMIN
 10
0.0
 20
0.0
  9
$PLIMMAX
 10
12.0
 20
9.0
  9
$UNITMODE
 70
     0
  9
$VISRETAIN
 70
     0
  9
$PLINEGEN
 70
     0
  9
$PSLTSCALE
 70
     0
  9
$TREEDEPTH
 70
  3020
  9
$CMLSTYLE
  2
STANDARD
  9
$CMLJUST
 70
     0
  9
$CMLSCALE
 40
1.0
  9
$PROXYGRAPHICS
 70
     1
  9
$MEASUREMENT
 70
     1
  9
$CELWEIGHT
370
    -1
  9
$ENDCAPS
280
     0
  9
$JOINSTYLE
280
     0
  9
$LWDISPLAY
290
     0
  9
$INSUNITS
 70
     4
  9
$HYPERLINKBASE
  1

  9
$STYLESHEET
  1
acad.ctb
  9
$XEDIT
290
     1
  9
$CEPSNTYPE
380
     0
  9
$PSTYLEMODE
290
     1
  9
$FINGERPRINTGUID
  2
{45CED059-6816-11D4-9CDD-0050BAE3FAE1}
  9
$VERSIONGUID
  2
{31F1CE8F-9FF7-4071-B893-171A1E35E770}
  9
$EXTNAMES
290
     1
  9
$PSVPSCALE
 40
0.0
  9
$OLESTARTUP
290
     0
  0
ENDSEC
  0
SECTION
  2
CLASSES
  0
CLASS
  1
DICTIONARYVAR
  2
AcDbDictionaryVar
  3
ObjectDBX Classes
 90
        0
280
     0
281
     0
  0
CLASS
  1
ACDBDICTIONARYWDFLT
  2
AcDbDictionaryWithDefault
  3
ObjectDBX Classes
 90
        0
280
     0
281
     0
  0
CLASS
  1
ACDBPLACEHOLDER
  2
AcDbPlaceHolder
  3
ObjectDBX Classes
 90
        0
280
     0
281
     0
  0
CLASS
  1
LAYOUT
  2
AcDbLayout
  3
ObjectDBX Classes
 90
        0
280
     0
281
     0
  0
CLASS
  1
SORTENTSTABLE
  2
AcDbSortentsTable
  3
ObjectDBX Classes
 90
        0
280
     0
281
     0
  0
CLASS
  1
TABLESTYLE
  2
AcDbTableStyle
  3
ObjectDBX Classes
 90
     2047
280
     0
281
     0
  0
CLASS
  1
ACME_DOCUMENT
  2
AcMeDbDoc
  3
AcMeServices
 90
        0
280
     0
281
     0
  0
CLASS
  1
AMGSETTINGSOBJ
  2
AmgSettingsObj
  3
"AcadM|Product Description: AutoCAD Mechanical 2000|Company: Autodesk"
 90
        0
280
     0
281
     0
  0
CLASS
  1
ACMESCOPE
  2
AcMeScope
  3
AcMeServices
 90
        0
280
     0
281
     0
  0
CLASS
  1
ACMECOMMANDHISTORY
  2
AcMeCommandHistory
  3
AcMeServices
 90
        0
280
     0
281
     0
  0
CLASS
  1
ACIMSYSVARMAN
  2
AcImSysVarManager
  3
AcMeServices
 90
        0
280
     0
281
     0
  0
CLASS
  1
ACIMINTSYSVAR
  2
AcImIntSysVar
  3
AcMeServices
 90
        0
280
     0
281
     0
  0
CLASS
  1
ACMEDRAWINGMAN
  2
AcMeDrawingMan
  3
AcMeServices
 90
        0
280
     0
281
     0
  0
CLASS
  1
ACMEVIEW
  2
AcMeView
  3
AcMeServices
 90
        0
280
     0
281
     0
  0
CLASS
  1
ACDBENTITYCACHE
  2
AcMeEntityCache
  3
AcMeServices
 90
        0
280
     0
281
     0
  0
CLASS
  1
GSMANAGER
  2
AcMeGSManager
  3
AcMeServices
 90
        0
280
     0
281
     0
  0
CLASS
  1
AMDTINTERNALREACTOR
  2
AmdtInternalReactor
  3
AcMeServices
 90
        0
280
     0
281
     0
  0
CLASS
  1
ACMESTATEMGR
  2
AcMeStateMgr
  3
AcMeServices
 90
        0
280
     0
281
     0
  0
CLASS
  1
ACGREFMASTER
  2
AcGrefMaster
  3
AcAttribServices
 90
        0
280
     0
281
     0
  0
CLASS
  1
AM_DRAWING_MGR
  2
AcDmDwgMgr
  3
AcMechDwgViewMgmt
 90
        0
280
     0
281
     0
  0
CLASS
  1
AM_DWG_DOCUMENT
  2
AcDmDwgDocument
  3
AcMechDwgViewMgmt
 90
        0
280
     0
281
     0
  0
CLASS
  1
AM_DWG_SHEET
  2
AcDmSheet
  3
AcMechDwgViewMgmt
 90
        0
280
     0
281
     0
  0
CLASS
  1
AM_VIEWDIMPARMAP
  2
AcDmViewDimParMap
  3
AcMechDwgViewMgmt
 90
        0
280
     0
281
     0
  0
CLASS
  1
ACIMREALSYSVAR
  2
AcImRealSysVar
  3
AcMeServices
 90
        0
280
     0
281
     0
  0
CLASS
  1
AM_DWGMGR_NAME
  2
AcDmDwgMgrName
  3
AcMechDwgViewMgmt
 90
        0
280
     0
281
     0
  0
CLASS
  1
ACME_DATABASE
  2
AcMeDbDatabase
  3
AcMeServices
 90
        0
280
     0
281
     0
  0
CLASS
  1
ACRFINSADJUSTERMGR
  2
AcRfInsAdjusterMgr
  3
AcMeServices
 90
        0
280
     0
281
     0
  0
CLASS
  1
ACGREFACADMASTER
  2
AcGrefacadMaster
  3
AcGrefServices
 90
        0
280
     0
281
     0
  0
CLASS
  1
AMDTMENUSTATEMGR
  2
AmdtMenuStateMgr
  3
McadcomServices
 90
        0
280
     0
281
     0
  0
CLASS
  1
AMDTMCOMMENUSTATE
  2
AmdtMcomMenuState
  3
McadcomServices
 90
        0
280
     0
281
     0
  0
CLASS
  1
AMIMASTER
  2
AmiMaster
  3
AmiServices
 90
        0
280
     0
281
     0
  0
CLASS
  1
MAPIAMMOUDLE
  2
MApiAmModule
  3
MApiAmServices
 90
        0
280
     0
281
     0
  0
CLASS
  1
AMDTADMENUSTATE
  2
AmdtAdMenuState
  3
DesignerServices
 90
        0
280
     0
281
     0
  0
CLASS
  1
ADAPPL
  2
AcAdAppl
  3
DesignerServices
 90
        0
280
     0
281
     0
  0
CLASS
  1
DEPMGR
  2
AcAdDepMgr
  3
DesignerServices
 90
        0
280
     0
281
     0
  0
CLASS
  1
PARAMMGR
  2
AcAdParamMgr
  3
DesignerServices
 90
        0
280
     0
281
     0
  0
CLASS
  1
PARAMSCOPE
  2
AcAdParamScope
  3
DesignerServices
 90
        0
280
     0
281
     0
  0
CLASS
  1
NAMEDAPPL
  2
AcAdNamedAppl
  3
DesignerServices
 90
        0
280
     0
281
     0
  0
CLASS
  1
AMDTDMMENUSTATE
  2
AmdtDmMenuState
  3
AcMechDwgViewMgmt
 90
        0
280
     0
281
     0
  0
CLASS
  1
AMDTAMMENUSTATE
  2
AmdtAmMenuState
  3
DesignerAssemblies
 90
        0
280
     0
281
     0
  0
CLASS
  1
ACIMSTRSYSVAR
  2
AcImStrSysVar
  3
AcMeServices
 90
        0
280
     0
281
     0
  0
CLASS
  1
ACAMPROJECT
  2
AcAmProject
  3
DesignerAssemblies
 90
        0
280
     0
281
     0
  0
CLASS
  1
ACAMGRCOMPDEF
  2
AcAmGrCompDef
  3
DesignerAssemblies
 90
        0
280
     0
281
     0
  0
CLASS
  1
ACCMCONTEXT
  2
AcCmContext
  3
DesignerAssemblies
 90
        0
280
     0
281
     0
  0
CLASS
  1
ACAMCOMPDEF
  2
AcAmCompDef
  3
DesignerAssemblies
 90
        0
280
     0
281
     0
  0
CLASS
  1
ACAMCOMPDEFMGR
  2
AcAmCompDefMgr
  3
DesignerAssemblies
 90
        0
280
     0
281
     0
  0
CLASS
  1
AMCONTEXTMGR
  2
AcAmContextMgr
  3
DesignerAssemblies
 90
        0
280
     0
281
     0
  0
CLASS
  1
ACAMCONTEXTMODELER
  2
AcAmContextModeler
  3
DesignerAssemblies
 90
        0
280
     0
281
     0
  0
CLASS
  1
ACMDATADICTIONARY
  2
AcmDataDictionary
  3
"AcmSymBB|Product Description: AutoCAD Mechanical 2004 DX|Company: Autodesk"
 90
        0
280
     0
281
     0
  0
CLASS
  1
CATALOGSTATE
  2
AcAmCatalogState
  3
DesignerAssemblies
 90
        0
280
     0
281
     0
  0
CLASS
  1
ACAMGRCOMPDEFSET
  2
AcAmGrCompDefSet
  3
DesignerAssemblies
 90
        0
280
     0
281
     0
  0
CLASS
  1
AMDTBROWSERDBTAB
  2
AmdtBrowserDbTab
  3
McadcomServices
 90
        0
280
     0
281
     0
  0
CLASS
  1
CBROWSERAPPOBJECT
  2
CBrowserAppObject
  3
McadcomServices
 90
        0
280
     0
281
     0
  0
CLASS
  1
DM_PLACEHOLDER
  2
AcDmSelsetPlaceholder
  3
AcMechDwgViewMgmt
 90
        0
280
     0
281
     0
  0
CLASS
  1
ACMSTANDARDANSI
  2
AcmStandardANSI
  3
"Amdt_StdImp|Product Description: AutoCAD Mechanical 2004 DX|Company: Autodesk"
 90
        0
280
     0
281
     0
  0
CLASS
  1
AMGOBJPROPCFG
  2
AmgObjPropCfg
  3
"AmgLay|Product Description: AutoCAD Mechanical 2000|Company: Autodesk"
 90
        1
280
     0
281
     0
  0
CLASS
  1
ACMSURFSTANDARDANSI
  2
AcmSurfTextStdANSI
  3
"Amdt_StdImp|Product Description: AutoCAD Mechanical 2004 DX|Company: Autodesk"
 90
        0
280
     0
281
     0
  0
CLASS
  1
ACMFCFSTANDARDANSI
  2
AcmFCFStdANSI
  3
"Amdt_StdImp|Product Description: AutoCAD Mechanical 2004 DX|Company: Autodesk"
 90
        0
280
     0
281
     0
  0
CLASS
  1
ACMWELDSTANDARDANSI
  2
AcmWeldingStdANSI
  3
"Amdt_StdImp|Product Description: AutoCAD Mechanical 2004 DX|Company: Autodesk"
 90
        0
280
     0
281
     0
  0
CLASS
  1
ACMIDSTANDARDANSI
  2
AcmIdStdANSI
  3
"Amdt_StdImp|Product Description: AutoCAD Mechanical 2004 DX|Company: Autodesk"
 90
        0
280
     0
281
     0
  0
CLASS
  1
ACMDATUMSTANDARDANSI
  2
AcmDatumStdANSI
  3
"Amdt_StdImp|Product Description: AutoCAD Mechanical 2004 DX|Company: Autodesk"
 90
        0
280
     0
281
     0
  0
CLASS
  1
ACMBOMSTANDARDANSI
  2
AcmBOMStdANSI
  3
"Amdt_StdImp|Product Description: AutoCAD Mechanical 2004 DX|Company: Autodesk"
 90
        0
280
     0
281
     0
  0
CLASS
  1
ACMDETAILSTANDARDANSI
  2
AmdtDetailSymStdANSI
  3
"Amdt_StdImp|Product Description: AutoCAD Mechanical 2004 DX|Company: Autodesk"
 90
        0
280
     0
281
     0
  0
CLASS
  1
ACMSECTIONSTANDARDANSI
  2
AmdtSectionSymStdANSI
  3
"Amdt_StdImp|Product Description: AutoCAD Mechanical 2004 DX|Company: Autodesk"
 90
        0
280
     0
281
     0
  0
CLASS
  1
ACMCENTERLINESTANDARDANSI
  2
AmdtCenterLineStdANSI
  3
"Amdt_StdImp|Product Description: AutoCAD Mechanical 2004 DX|Company: Autodesk"
 90
        0
280
     0
281
     0
  0
CLASS
  1
ACMTHREADLINESTANDARDANSI
  2
AmdtThreadLineStdANSI
  3
"Amdt_StdImp|Product Description: AutoCAD Mechanical 2004 DX|Company: Autodesk"
 90
        0
280
     0
281
     0
  0
CLASS
  1
ACMNOTESTANDARDANSI
  2
AmdtNoteStdANSI
  3
"Amdt_StdImp|Product Description: AutoCAD Mechanical 2004 DX|Company: Autodesk"
 90
        0
280
     0
281
     0
  0
CLASS
  1
AMDTNOTETEMPLATEDB
  2
AmdtNoteTemplateDB
  3
AMDT_STDIMP_MODULE_NAME
 90
        0
280
     0
281
     0
  0
CLASS
  1
ACAMGLAYSTD
  2
AcAmgLayStd
  3
"AcAmgLayStd|Product Description: AutoCAD Mechanical 2000|Company: Autodesk"
 90
        0
280
     0
281
     0
  0
CLASS
  1
ACAMGDIMSTD
  2
AcAmgDimStd
  3
"AcAmgDimStd|Product Description: AutoCAD Mechanical 2000|Company: Autodesk"
 90
        0
280
     0
281
     0
  0
CLASS
  1
ACAMGHOLECHARTSTDANSI
  2
AcAmgHoleChartStdANSI
  3
ACMSYMBB_MODULE_NAME
 90
        0
280
     0
281
     0
  0
CLASS
  1
ACAMGTITLESTD
  2
AcAmgTitleStd
  3
"TITLEAPP"
 90
        0
280
     0
281
     0
  0
CLASS
  1
ACMSTANDARDISO
  2
AcmStandardISO
  3
"Amdt_StdImp|Product Description: AutoCAD Mechanical 2004 DX|Company: Autodesk"
 90
        0
280
     0
281
     0
  0
CLASS
  1
AMDTEDGESTANDARDISO13715
  2
AmdtEdgeStdISO13715
  3
"Amdt_StdImp|Product Description: AutoCAD Mechanical 2004 DX|Company: Autodesk"
 90
        0
280
     0
281
     0
  0
CLASS
  1
ACMSURFSTANDARDISO
  2
AcmSurfTextStdISO
  3
"Amdt_StdImp|Product Description: AutoCAD Mechanical 2004 DX|Company: Autodesk"
 90
        0
280
     0
281
     0
  0
CLASS
  1
ACMFCFSTANDARDISO
  2
AcmFCFStdISO
  3
"Amdt_StdImp|Product Description: AutoCAD Mechanical 2004 DX|Company: Autodesk"
 90
        0
280
     0
281
     0
  0
CLASS
  1
ACMWELDSTANDARDISO
  2
AcmWeldingStdISO
  3
"Amdt_StdImp|Product Description: AutoCAD Mechanical 2004 DX|Company: Autodesk"
 90
        0
280
     0
281
     0
  0
CLASS
  1
ACMIDSTANDARDISO
  2
AcmIdStdISO
  3
"Amdt_StdImp|Product Description: AutoCAD Mechanical 2004 DX|Company: Autodesk"
 90
        0
280
     0
281
     0
  0
CLASS
  1
ACMDATUMSTANDARDISO
  2
AcmDatumStdISO
  3
"Amdt_StdImp|Product Description: AutoCAD Mechanical 2004 DX|Company: Autodesk"
 90
        0
280
     0
281
     0
  0
CLASS
  1
ACMBOMSTANDARDISO
  2
AcmBOMStdISO
  3
"Amdt_StdImp|Product Description: AutoCAD Mechanical 2004 DX|Company: Autodesk"
 90
        0
280
     0
281
     0
  0
CLASS
  1
ACMDETAILSTANDARDISO
  2
AmdtDetailSymStdISO
  3
"Amdt_StdImp|Product Description: AutoCAD Mechanical 2004 DX|Company: Autodesk"
 90
        0
280
     0
281
     0
  0
CLASS
  1
ACMSECTIONSTANDARDISO
  2
AmdtSectionSymStdISO
  3
"Amdt_StdImp|Product Description: AutoCAD Mechanical 2004 DX|Company: Autodesk"
 90
        0
280
     0
281
     0
  0
CLASS
  1
ACMCENTERLINESTANDARDISO
  2
AmdtCenterLineStdISO
  3
"Amdt_StdImp|Product Description: AutoCAD Mechanical 2004 DX|Company: Autodesk"
 90
        0
280
     0
281
     0
  0
CLASS
  1
ACMTHREADLINESTANDARDISO
  2
AmdtThreadLineStdISO
  3
"Amdt_StdImp|Product Description: AutoCAD Mechanical 2004 DX|Company: Autodesk"
 90
        0
280
     0
281
     0
  0
CLASS
  1
ACMNOTESTANDARDISO
  2
AmdtNoteStdISO
  3
"Amdt_StdImp|Product Description: AutoCAD Mechanical 2004 DX|Company: Autodesk"
 90
        0
280
     0
281
     0
  0
CLASS
  1
ACAMGHOLECHARTSTDISO
  2
AcAmgHoleChartStdISO
  3
ACMSYMBB_MODULE_NAME
 90
        0
280
     0
281
     0
  0
CLASS
  1
ACAMGFILTERDAT
  2
AcAmgFilterDat
  3
"AcadM|Product Description: AutoCAD Mechanical 2000|Company: Autodesk"
 90
        0
280
     0
281
     0
  0
CLASS
  1
DIMASSOC
  2
AcDbDimAssoc
  3
"AcDbDimAssoc|Product Desc:     AcDim ARX App For Dimension|Company:          Autodesk, Inc.|WEB Address:      www.autodesk.com"
 90
        0
280
     0
281
     0
  0
CLASS
  1
ACRFATTGENMGR
  2
AcRfAttGeneralMgr
  3
AcAttribServices
 90
        0
280
     0
281
     0
  0
ENDSEC
  0
SECTION
  2
TABLES
  0
TABLE
  2
VPORT
  5
12
330
0
100
AcDbSymbolTable
 70
     5
  0
VPORT
  5
68A8
330
12
100
AcDbSymbolTableRecord
100
AcDbViewportTableRecord
  2
*Active
 70
     0
 10
0.0
 20
0.0
 11
1.0
 21
1.0
 12
199.055051477736
 22
543.6765314402678
 13
0.0
 23
0.0
 14
2.5
 24
2.5
 15
10.0
 25
10.0
 16
0.0
 26
0.0
 36
1.0
 17
0.0
 27
0.0
 37
0.0
 40
442.518139488359
 41
0.9411764705882353
 42
50.0
 43
0.0
 44
0.0
 50
0.0
 51
0.0
 71
     0
 72
   100
 73
     1
 74
     1
 75
     0
 76
     0
 77
     0
 78
     0
281
     0
 65
     1
110
0.0
120
0.0
130
0.0
111
1.0
121
0.0
131
0.0
112
0.0
122
1.0
132
0.0
 79
     0
146
0.0
  0
ENDTAB
  0
TABLE
  2
LTYPE
  5
D
330
0
100
AcDbSymbolTable
 70
    19
  0
LTYPE
  5
E
330
D
100
AcDbSymbolTableRecord
100
AcDbLinetypeTableRecord
  2
BYBLOCK
 70
     0
  3

 72
    65
 73
     0
 40
0.0
  0
LTYPE
  5
F
330
D
100
AcDbSymbolTableRecord
100
AcDbLinetypeTableRecord
  2
BYLAYER
 70
     0
  3

 72
    65
 73
     0
 40
0.0
  0
LTYPE
  5
5
330
D
100
AcDbSymbolTableRecord
100
AcDbLinetypeTableRecord
  2
CONTINUOUS
 70
     0
  3
Solid line
 72
    65
 73
     0
 40
0.0
  0
LTYPE
  5
4E
330
D
100
AcDbSymbolTableRecord
100
AcDbLinetypeTableRecord
  2
CENTER
 70
     0
  3
____ _ ____ _ ____ _ ____ _ ____ _ ____ _ ____
 72
    65
 73
     4
 40
2.0
 49
1.25
 74
     0
 49
-0.25
 74
     0
 49
0.25
 74
     0
 49
-0.25
 74
     0
  0
LTYPE
  5
5A86
330
D
100
AcDbSymbolTableRecord
100
AcDbLinetypeTableRecord
  2
HIDDEN
 70
     0
  3
Hidden __ __ __ __ __ __ __ __ __ __ __ __ __ _
 72
    65
 73
     2
 40
0.375
 49
0.25
 74
     0
 49
-0.125
 74
     0
  0
LTYPE
  5
5BA9
330
D
100
AcDbSymbolTableRecord
100
AcDbLinetypeTableRecord
  2
PHANTOM2
 70
     0
  3
Phantom (.5x) ___ _ _ ___ _ _ ___ _ _ ___ _ _
 72
    65
 73
     6
 40
1.25
 49
0.625
 74
     0
 49
-0.125
 74
     0
 49
0.125
 74
     0
 49
-0.125
 74
     0
 49
0.125
 74
     0
 49
-0.125
 74
     0
  0
LTYPE
  5
5BDB
330
D
100
AcDbSymbolTableRecord
100
AcDbLinetypeTableRecord
  2
AM_ISO02W050
 70
     0
  3
__ __ __ __ __ __ __ __ __ __ __ __ __ __ __
 72
    65
 73
     2
 40
7.5
 49
6.0
 74
     0
 49
-1.5
 74
     0
  0
LTYPE
  5
5BDC
330
D
100
AcDbSymbolTableRecord
100
AcDbLinetypeTableRecord
  2
AM_ISO08W050
 70
     0
  3
____ . ____ . ____ . ____ . ____ . ____ . ____
 72
    65
 73
     4
 40
18.0
 49
12.0
 74
     0
 49
-1.5
 74
     0
 49
3.0
 74
     0
 49
-1.5
 74
     0
  0
LTYPE
  5
5BDD
330
D
100
AcDbSymbolTableRecord
100
AcDbLinetypeTableRecord
  2
AM_ISO09W050
 70
     0
  3
_____ . . _____ . . _____ . . ____ .. ____
 72
    65
 73
     6
 40
22.5
 49
12.0
 74
     0
 49
-1.5
 74
     0
 49
3.0
 74
     0
 49
-1.5
 74
     0
 49
3.0
 74
     0
 49
-1.5
 74
     0
  0
LTYPE
  5
5BDE
330
D
100
AcDbSymbolTableRecord
100
AcDbLinetypeTableRecord
  2
Amconstr
 70
     0
  3
_______________________
 72
    65
 73
     2
 40
9999.0
 49
9999.0
 74
     0
 49
0.0
 74
     0
  0
LTYPE
  5
5BDF
330
D
100
AcDbSymbolTableRecord
100
AcDbLinetypeTableRecord
  2
AM_ISO08W050x2
 70
     0
  3
__ . __ . __ . __ . __ . __
 72
    65
 73
     4
 40
9.0
 49
6.0
 74
     0
 49
-0.75
 74
     0
 49
1.5
 74
     0
 49
-0.75
 74
     0
  0
LTYPE
  5
5BE0
330
D
100
AcDbSymbolTableRecord
100
AcDbLinetypeTableRecord
  2
AM_ISO02W050x2
 70
     0
  3
 _ _ _ _ _ _ _ _ _ _ _ _
 72
    65
 73
     2
 40
3.75
 49
3.0
 74
     0
 49
-0.75
 74
     0
  0
LTYPE
  5
5BE3
330
D
100
AcDbSymbolTableRecord
100
AcDbLinetypeTableRecord
  2
Amzigzag
 70
     0
  3
/\/-/\/-/\/-/\/-/\/-/\/
 72
    65
 73
     2
 40
11.0001
 49
0.0001
 74
     4
 75
   135
340
5BE2
 46
0.04
 50
0.0
 44
0.0
 45
0.0
 49
-11.0
 74
     0
  0
LTYPE
  5
5BE4
330
D
100
AcDbSymbolTableRecord
100
AcDbLinetypeTableRecord
  2
CENTER2
 70
     0
  3
Center (.5x) ___ _ ___ _ ___ _ ___ _ ___ _ ___
 72
    65
 73
     4
 40
1.125
 49
0.75
 74
     0
 49
-0.125
 74
     0
 49
0.125
 74
     0
 49
-0.125
 74
     0
  0
LTYPE
  5
5BE5
330
D
100
AcDbSymbolTableRecord
100
AcDbLinetypeTableRecord
  2
HIDDEN2
 70
     0
  3
Hidden (.5x) _ _ _ _ _ _ _ _ _ _ _ _ _ _ _ _ _
 72
    65
 73
     2
 40
0.1875
 49
0.125
 74
     0
 49
-0.0625
 74
     0
  0
LTYPE
  5
5BE6
330
D
100
AcDbSymbolTableRecord
100
AcDbLinetypeTableRecord
  2
Amzigzag2
 70
     0
  3
/\/-/\/-/\/-/\/-/\/-/\/
 72
    65
 73
     2
 40
0.4401
 49
0.0001
 74
     4
 75
   135
340
5BE2
 46
0.0016
 50
0.0
 44
0.0
 45
0.0
 49
-0.4400000000000001
 74
     0
  0
LTYPE
  5
5BF4
330
D
100
AcDbSymbolTableRecord
100
AcDbLinetypeTableRecord
  2
ACANSTGB
 70
     0
  3
__ . . __ . .
 72
    65
 73
     6
 40
0.35433070866
 49
0.15748031496
 74
     0
 49
-0.03937007874
 74
     0
 49
0.03937007874
 74
     0
 49
-0.03937007874
 74
     0
 49
0.03937007874
 74
     0
 49
-0.03937007874
 74
     0
  0
LTYPE
  5
5BF5
330
D
100
AcDbSymbolTableRecord
100
AcDbLinetypeTableRecord
  2
ACANSTGL
 70
     0
  3
_ _ _ _ _
 72
    65
 73
     2
 40
0.11811023622
 49
0.07874015748
 74
     0
 49
-0.03937007874
 74
     0
  0
LTYPE
  5
5C0E
330
D
100
AcDbSymbolTableRecord
100
AcDbLinetypeTableRecord
  2
ACISOWELD
 70
     0
  3
_ _ _ _ _
 72
    65
 73
     2
 40
2.0
 49
2.0
 74
     0
 49
-1.0
 74
     0
  0
LTYPE
  5
5C0F
330
D
100
AcDbSymbolTableRecord
100
AcDbLinetypeTableRecord
  2
ACISOTGB
 70
     0
  3
__ . . __ . .
 72
    65
 73
     6
 40
9.0
 49
4.0
 74
     0
 49
-1.0
 74
     0
 49
1.0
 74
     0
 49
-1.0
 74
     0
 49
1.0
 74
     0
 49
-1.0
 74
     0
  0
LTYPE
  5
5C10
330
D
100
AcDbSymbolTableRecord
100
AcDbLinetypeTableRecord
  2
ACISOTGL
 70
     0
  3
_ _ _ _ _
 72
    65
 73
     2
 40
3.0
 49
2.0
 74
     0
 49
-1.0
 74
     0
  0
ENDTAB
  0
TABLE
  2
LAYER
  5
A
102
{ACAD_XDICTIONARY
360
5C22
102
}
330
0
100
AcDbSymbolTable
 70
     9
  0
LAYER
  5
4
330
A
100
AcDbSymbolTableRecord
100
AcDbLayerTableRecord
  2
0
 70
     0
 62
     7
  6
CONTINUOUS
370
    -3
390
59A4
  0
LAYER
  5
31E
330
A
100
AcDbSymbolTableRecord
100
AcDbLayerTableRecord
  2
DEFPOINTS
 70
     0
 62
     7
  6
CONTINUOUS
290
     0
370
    -3
390
59A4
  0
LAYER
  5
5A87
330
A
100
AcDbSymbolTableRecord
100
AcDbLayerTableRecord
  2
LOGO
 70
     0
 62
     7
  6
CONTINUOUS
370
    -3
390
59A4
  0
LAYER
  5
5DF2
330
A
100
AcDbSymbolTableRecord
100
AcDbLayerTableRecord
  2
AM_VIS
 70
     0
 62
     7
  6
CONTINUOUS
370
    50
390
59A4
  0
LAYER
  5
5DF3
330
A
100
AcDbSymbolTableRecord
100
AcDbLayerTableRecord
  2
AM_7
 70
     0
 62
     1
  6
AM_ISO08W050
370
    25
390
59A4
  0
LAYER
  5
5DF4
330
A
100
AcDbSymbolTableRecord
100
AcDbLayerTableRecord
  2
假想
 70
     0
 62
     3
  6
AM_ISO08W050x2
370
    25
390
59A4
1001
AcAecLayerStandard
1000

1000

  0
LAYER
  5
5DF5
330
A
100
AcDbSymbolTableRecord
100
AcDbLayerTableRecord
  2
AM_REFDIM
 70
     0
 62
     5
  6
CONTINUOUS
370
    25
390
59A4
  0
ENDTAB
  0
TABLE
  2
STYLE
  5
B
330
0
100
AcDbSymbolTable
 70
    12
  0
STYLE
  5
C
330
B
100
AcDbSymbolTableRecord
100
AcDbTextStyleTableRecord
  2
STANDARD
 70
     0
 40
0.0
 41
1.0
 50
0.0
 71
     0
 42
5.0
  3
ISOCP.SHX
  4

  0
STYLE
  5
1C
330
B
100
AcDbSymbolTableRecord
100
AcDbTextStyleTableRecord
  2
DAYUS
 70
     0
 40
0.0
 41
1.0
 50
0.0
 71
     0
 42
4.0
  3
simplex
  4
dayus
  0
STYLE
  5
5A89
330
B
100
AcDbSymbolTableRecord
100
AcDbTextStyleTableRecord
  2
CHINESET
 70
     0
 40
0.0
 41
1.0
 50
0.0
 71
     0
 42
4.0
  3
C:\r13\com\fonts\simplex.shx
  4
C:\r13\com\fonts\chineset.shx
  0
STYLE
  5
5BE2
330
B
100
AcDbSymbolTableRecord
100
AcDbTextStyleTableRecord
  2

 70
     1
 40
0.0
 41
1.0
 50
0.0
 71
     0
 42
4.0
  3
ltypeshp.shx
  4

  0
STYLE
  5
5BE7
330
B
100
AcDbSymbolTableRecord
100
AcDbTextStyleTableRecord
  2
ACANSTS
 70
     0
 40
1.0
 41
1.0
 50
0.0
 71
     0
 42
4.0
  3
romans.shx
  4
chineset.shx
  0
STYLE
  5
5BF3
330
B
100
AcDbSymbolTableRecord
100
AcDbTextStyleTableRecord
  2
ACANSGDT
 70
     0
 40
0.0
 41
1.0
 50
0.0
 71
     0
 42
4.0
  3
amgdtans.shx
  4

  0
STYLE
  5
5C11
330
B
100
AcDbSymbolTableRecord
100
AcDbTextStyleTableRecord
  2
ACISOTS
 70
     0
 40
1.0
 41
1.0
 50
0.0
 71
     0
 42
6.0
  3
isocp.shx
  4
chineset.shx
  0
STYLE
  5
5C12
330
B
100
AcDbSymbolTableRecord
100
AcDbTextStyleTableRecord
  2
ACISOGDT
 70
     0
 40
0.0
 41
1.0
 50
0.0
 71
     0
 42
6.0
  3
amgdt.shx
  4

  0
ENDTAB
  0
TABLE
  2
VIEW
  5
10
330
0
100
AcDbSymbolTable
 70
     0
  0
ENDTAB
  0
TABLE
  2
UCS
  5
11
330
0
100
AcDbSymbolTable
 70
     0
  0
ENDTAB
  0
TABLE
  2
APPID
  5
14
330
0
100
AcDbSymbolTable
 70
    19
  0
APPID
  5
15
330
14
100
AcDbSymbolTableRecord
100
AcDbRegAppTableRecord
  2
ACAD
 70
     0
  0
APPID
  5
1C15
330
14
100
AcDbSymbolTableRecord
100
AcDbRegAppTableRecord
  2
MCAD_NO_VIS
 70
     0
  0
APPID
  5
1C16
330
14
100
AcDbSymbolTableRecord
100
AcDbRegAppTableRecord
  2
AD_DRAW
 70
     0
  0
APPID
  5
1C17
330
14
100
AcDbSymbolTableRecord
100
AcDbRegAppTableRecord
  2
DESIGNERASSEMBLIES
 70
     0
  0
APPID
  5
1C18
330
14
100
AcDbSymbolTableRecord
100
AcDbRegAppTableRecord
  2
ASURF_PCURVE_APPNAME
 70
     0
  0
APPID
  5
2639
330
14
100
AcDbSymbolTableRecord
100
AcDbRegAppTableRecord
  2
BLKBOM
 70
     0
  0
APPID
  5
5B7D
330
14
100
AcDbSymbolTableRecord
100
AcDbRegAppTableRecord
  2
ACAD_TEMP_GRAPHIC
 70
     0
  0
APPID
  5
5BAD
330
14
100
AcDbSymbolTableRecord
100
AcDbRegAppTableRecord
  2
ACATTRIBSERVICES
 70
     0
  0
APPID
  5
5BD0
330
14
100
AcDbSymbolTableRecord
100
AcDbRegAppTableRecord
  2
ACADM_DIM_EDIT
 70
     0
  0
APPID
  5
5BD1
330
14
100
AcDbSymbolTableRecord
100
AcDbRegAppTableRecord
  2
AMDT_DM_ADJ
 70
     0
  0
APPID
  5
5C1B
330
14
100
AcDbSymbolTableRecord
100
AcDbRegAppTableRecord
  2
GENIUS_GENOENT_13
 70
     0
  0
APPID
  5
5C1C
330
14
100
AcDbSymbolTableRecord
100
AcDbRegAppTableRecord
  2
GENIUS_GENOBJ-N-CRS_13
 70
     0
  0
APPID
  5
5C1D
330
14
100
AcDbSymbolTableRecord
100
AcDbRegAppTableRecord
  2
GENIUS_GENOLIS_13
 70
     0
  0
APPID
  5
5C1E
330
14
100
AcDbSymbolTableRecord
100
AcDbRegAppTableRecord
  2
GENIUS_GENODEF_13
 70
     0
  0
APPID
  5
5C1F
330
14
100
AcDbSymbolTableRecord
100
AcDbRegAppTableRecord
  2
GENIUS_GENOREF_13
 70
     0
  0
APPID
  5
5C20
330
14
100
AcDbSymbolTableRecord
100
AcDbRegAppTableRecord
  2
GENIUS_GENREC_14
 70
     0
  0
APPID
  5
5C21
330
14
100
AcDbSymbolTableRecord
100
AcDbRegAppTableRecord
  2
GENIUS_GENOBJ-N-REC_13
 70
     0
  0
APPID
  5
5DF6
330
14
100
AcDbSymbolTableRecord
100
AcDbRegAppTableRecord
  2
ACAD_PSEXT
 70
     0
  0
APPID
  5
5DF7
330
14
100
AcDbSymbolTableRecord
100
AcDbRegAppTableRecord
  2
AcAecLayerStandard
 70
     0
  0
ENDTAB
  0
TABLE
  2
DIMSTYLE
  5
16
330
0
100
AcDbSymbolTable
 70
    17
100
AcDbDimStyleTable
 71
     1
340
5C13
  0
DIMSTYLE
105
1E
102
{ACAD_REACTORS
330
25E0
102
}
330
16
100
AcDbSymbolTableRecord
100
AcDbDimStyleTableRecord
  2
STANDARD
 70
     0
 41
3.0
 42
2.0
 43
8.0
 44
2.0
 73
     0
 74
     0
 77
     1
 78
     8
 79
     2
140
3.0
141
0.0
146
0.6
147
1.0
176
   256
177
   256
178
   256
271
     2
272
     2
279
     2
284
     8
340
1C
371
    -1
372
    -1
  0
DIMSTYLE
105
5C00
330
16
100
AcDbSymbolTableRecord
100
AcDbDimStyleTableRecord
  2
AM_ANSI
 70
     0
  4
mm
 41
0.1
 42
0.05
 43
0.5
 44
0.1
 47
0.1
 48
0.1
 78
     7
 79
     2
140
0.12
141
0.0
146
0.71
147
0.06
176
   256
177
   256
178
     2
274
     4
284
     7
340
C
371
    -1
372
    -1
  0
DIMSTYLE
105
5C01
330
16
100
AcDbSymbolTableRecord
100
AcDbDimStyleTableRecord
  2
AM_ANSI$3
 70
     0
  4
mm
 41
0.1
 42
0.05
 43
0.5
 44
0.1
 47
0.1
 48
0.1
 78
     7
 79
     2
140
0.12
141
0.0
146
0.71
147
0.06
176
   256
177
   256
178
     2
274
     4
284
     7
288
     1
289
     0
340
C
371
    -1
372
    -1
  0
DIMSTYLE
105
5C02
330
16
100
AcDbSymbolTableRecord
100
AcDbDimStyleTableRecord
  2
AM_ANSI$4
 70
     0
  4
mm
 41
0.1
 42
0.05
 43
0.5
 44
0.1
 47
0.1
 48
0.1
 78
     7
 79
     2
140
0.12
141
0.0
146
0.71
147
0.06
176
   256
177
   256
178
     2
274
     4
284
     7
288
     1
289
     0
340
C
371
    -1
372
    -1
  0
DIMSTYLE
105
5C03
330
16
100
AcDbSymbolTableRecord
100
AcDbDimStyleTableRecord
  2
AM_ANSI$7
 70
     0
  4
mm
 41
0.1
 42
0.05
 43
0.5
 44
0.1
 47
0.1
 48
0.1
 78
     7
 79
     2
140
0.24
141
0.0
146
0.71
147
0.06
176
   256
177
   256
178
     2
274
     4
284
     7
340
C
371
    -1
372
    -1
  0
DIMSTYLE
105
5C04
330
16
100
AcDbSymbolTableRecord
100
AcDbDimStyleTableRecord
  2
AM_ANSI$SF
 70
     0
  4
mm
 41
0.1
 42
0.05
 43
0.5
 44
0.1
 47
0.1
 48
0.1
 75
     1
 76
     1
 78
     7
 79
     2
140
0.12
141
0.0
146
0.71
147
0.06
176
   256
177
   256
178
     2
274
     4
284
     7
340
C
371
    -1
372
    -1
  0
DIMSTYLE
105
5C09
330
16
100
AcDbSymbolTableRecord
100
AcDbDimStyleTableRecord
  2
AM_ANSI$SH
 70
     0
  4
mm
 41
0.1
 42
0.05
 43
0.5
 44
0.1
 47
0.1
 48
0.1
 75
     1
 76
     1
 78
     7
 79
     2
140
0.12
141
0.0
146
0.71
147
0.06
173
     1
176
   256
177
   256
178
     2
274
     4
284
     7
340
C
343
5C05
371
    -1
372
    -1
  0
DIMSTYLE
105
5C13
330
16
100
AcDbSymbolTableRecord
100
AcDbDimStyleTableRecord
  2
AM_ISO
 70
     0
  4
"
 40
2.0
 41
3.0
 42
1.0
 43
8.0
 44
1.0
 47
0.1
 48
0.1
 73
     0
 74
     0
 77
     1
 78
     8
 79
     2
140
3.5
141
0.0
143
0.0393701
146
0.71
147
1.0
172
     1
176
   256
177
   256
178
   256
271
     2
272
     2
283
     0
284
     8
285
     8
340
C
371
    -1
372
    -1
  0
DIMSTYLE
105
5C14
330
16
100
AcDbSymbolTableRecord
100
AcDbDimStyleTableRecord
  2
AM_ISO$3
 70
     0
  4
"
 40
2.0
 41
3.0
 42
1.0
 43
8.0
 44
1.0
 47
0.1
 48
0.1
 73
     0
 77
     1
 78
     8
 79
     2
140
3.5
141
0.0
143
0.0393701
146
0.71
147
1.0
176
   256
177
   256
178
   256
271
     2
272
     2
283
     0
284
     8
285
     8
288
     1
289
     0
340
C
371
    -1
372
    -1
  0
DIMSTYLE
105
5C15
102
{ACAD_REACTORS
330
6601
102
}
330
16
100
AcDbSymbolTableRecord
100
AcDbDimStyleTableRecord
  2
AM_ISO$4
 70
     0
  4
"
 40
2.0
 41
3.0
 42
1.0
 43
8.0
 44
1.0
 47
0.1
 48
0.1
 73
     0
 77
     1
 78
     8
 79
     2
140
3.5
141
0.0
143
0.0393701
146
0.71
147
1.0
176
   256
177
   256
178
   256
271
     2
272
     2
283
     0
284
     8
285
     8
288
     1
289
     0
340
C
371
    -1
372
    -1
  0
DIMSTYLE
105
5C16
330
16
100
AcDbSymbolTableRecord
100
AcDbDimStyleTableRecord
  2
AM_ISO$6
 70
     0
  4
"
 40
2.0
 41
3.0
 42
1.0
 43
8.0
 44
1.0
 47
0.1
 48
0.1
 73
     0
 74
     0
 78
     8
 79
     2
140
3.5
141
0.0
143
0.0393701
146
0.71
147
1.0
172
     1
176
   256
177
   256
178
   256
271
     2
272
     2
283
     0
284
     8
285
     8
340
C
371
    -1
372
    -1
  0
DIMSTYLE
105
5C17
330
16
100
AcDbSymbolTableRecord
100
AcDbDimStyleTableRecord
  2
AM_ISO$7
 70
     0
  4
"
 40
2.0
 41
3.0
 42
1.0
 43
8.0
 44
1.0
 47
0.1
 48
0.1
 73
     0
 74
     0
 77
     1
 78
     8
 79
     2
140
3.5
141
0.0
143
0.0393701
146
0.71
147
1.0
172
     1
176
   256
177
   256
178
   256
271
     2
272
     2
283
     0
284
     8
285
     8
340
C
371
    -1
372
    -1
  0
DIMSTYLE
105
5C18
330
16
100
AcDbSymbolTableRecord
100
AcDbDimStyleTableRecord
  2
AM_ISO$SF
 70
     0
  4
"
 40
2.0
 41
2.5
 42
1.0
 43
10.0
 44
1.0
 47
0.1
 48
0.1
 73
     0
 74
     0
 75
     1
 76
     1
 77
     1
 78
     8
 79
     2
140
3.5
141
0.0
143
0.0393701
146
0.71
147
1.5
172
     1
176
   256
177
   256
178
   256
271
     2
272
     3
274
     4
283
     0
284
     8
340
C
371
    -1
372
    -1
  0
DIMSTYLE
105
5C19
330
16
100
AcDbSymbolTableRecord
100
AcDbDimStyleTableRecord
  2
AM_ISO$SH
 70
     0
  4
"
 40
2.0
 41
2.5
 42
1.0
 43
10.0
 44
1.0
 47
0.1
 48
0.1
 73
     0
 74
     0
 75
     1
 76
     1
 77
     1
 78
     8
 79
     2
140
3.5
141
0.0
143
0.0393701
144
2.0
146
0.71
147
1.5
172
     1
173
     1
176
   256
177
   256
178
   256
271
     2
272
     3
274
     4
283
     0
284
     8
340
C
343
5C05
371
    -1
372
    -1
  0
DIMSTYLE
105
5C1A
102
{ACAD_REACTORS
330
65CB
330
65FC
330
65FD
330
65FE
330
65FF
330
6600
330
6603
330
6606
330
6609
330
660C
330
6225
330
622C
330
622D
330
622E
330
622F
102
}
330
16
100
AcDbSymbolTableRecord
100
AcDbDimStyleTableRecord
  2
AM_ISO$0
 70
     0
  4
"
 40
2.0
 41
3.0
 42
1.0
 43
8.0
 44
1.0
 47
0.1
 48
0.1
 73
     0
 74
     0
 77
     1
 78
     8
 79
     2
140
3.5
141
0.0
143
0.0393701
146
0.71
147
1.0
172
     1
176
   256
177
   256
178
   256
271
     2
272
     2
283
     0
284
     8
285
     8
340
C
371
    -1
372
    -1
  0
ENDTAB
  0
TABLE
  2
BLOCK_RECORD
  5
1
330
0
100
AcDbSymbolTable
 70
    45
  0
BLOCK_RECORD
  5
2
102
{ACAD_XDICTIONARY
360
59CA
102
}
330
1
100
AcDbSymbolTableRecord
100
AcDbBlockTableRecord
  2
*MODEL_SPACE
340
59A7
  0
BLOCK_RECORD
  5
7
102
{ACAD_XDICTIONARY
360
59F8
102
}
330
1
100
AcDbSymbolTableRecord
100
AcDbBlockTableRecord
  2
*PAPER_SPACE
340
59A8
  0
BLOCK_RECORD
  5
5C05
330
1
100
AcDbSymbolTableRecord
100
AcDbBlockTableRecord
  2
GENAXEH
340
0
  0
BLOCK_RECORD
  5
660F
330
1
100
AcDbSymbolTableRecord
100
AcDbBlockTableRecord
  2
*D27
340
0
  0
BLOCK_RECORD
  5
661B
330
1
100
AcDbSymbolTableRecord
100
AcDbBlockTableRecord
  2
*D28
340
0
  0
BLOCK_RECORD
  5
6627
330
1
100
AcDbSymbolTableRecord
100
AcDbBlockTableRecord
  2
*D29
340
0
  0
BLOCK_RECORD
  5
6633
330
1
100
AcDbSymbolTableRecord
100
AcDbBlockTableRecord
  2
*D30
340
0
  0
BLOCK_RECORD
  5
663F
330
1
100
AcDbSymbolTableRecord
100
AcDbBlockTableRecord
  2
*D31
340
0
  0
BLOCK_RECORD
  5
664D
330
1
100
AcDbSymbolTableRecord
100
AcDbBlockTableRecord
  2
*D32
340
0
  0
BLOCK_RECORD
  5
6659
330
1
100
AcDbSymbolTableRecord
100
AcDbBlockTableRecord
  2
*D33
340
0
  0
BLOCK_RECORD
  5
6662
330
1
100
AcDbSymbolTableRecord
100
AcDbBlockTableRecord
  2
*D34
340
0
  0
BLOCK_RECORD
  5
666E
330
1
100
AcDbSymbolTableRecord
100
AcDbBlockTableRecord
  2
*D35
340
0
  0
BLOCK_RECORD
  5
667A
330
1
100
AcDbSymbolTableRecord
100
AcDbBlockTableRecord
  2
*D36
340
0
  0
BLOCK_RECORD
  5
6686
330
1
100
AcDbSymbolTableRecord
100
AcDbBlockTableRecord
  2
*D37
340
0
  0
BLOCK_RECORD
  5
6692
330
1
100
AcDbSymbolTableRecord
100
AcDbBlockTableRecord
  2
*D38
340
0
  0
BLOCK_RECORD
  5
66DC
330
1
100
AcDbSymbolTableRecord
100
AcDbBlockTableRecord
  2
*D39
340
0
  0
BLOCK_RECORD
  5
66E8
330
1
100
AcDbSymbolTableRecord
100
AcDbBlockTableRecord
  2
*D40
340
0
  0
BLOCK_RECORD
  5
66F4
330
1
100
AcDbSymbolTableRecord
100
AcDbBlockTableRecord
  2
*D41
340
0
  0
BLOCK_RECORD
  5
6700
330
1
100
AcDbSymbolTableRecord
100
AcDbBlockTableRecord
  2
*D42
340
0
  0
ENDTAB
  0
ENDSEC
  0
SECTION
  2
BLOCKS
  0
BLOCK
  5
3
330
2
100
AcDbEntity
  8
0
100
AcDbBlockBegin
  2
*MODEL_SPACE
 70
     0
 10
0.0
 20
0.0
 30
0.0
  3
*MODEL_SPACE
  1

  0
ENDBLK
  5
6
330
2
100
AcDbEntity
  8
0
100
AcDbBlockEnd
  0
BLOCK
  5
8
330
7
100
AcDbEntity
 67
     1
  8
0
100
AcDbBlockBegin
  2
*PAPER_SPACE
 70
     0
 10
0.0
 20
0.0
 30
0.0
  3
*PAPER_SPACE
  1

  0
ENDBLK
  5
9
330
7
100
AcDbEntity
 67
     1
  8
0
100
AcDbBlockEnd
  0
BLOCK
  5
5C07
330
5C05
100
AcDbEntity
  8
0
100
AcDbBlockBegin
  2
GENAXEH
 70
     0
 10
0.0
 20
0.0
 30
0.0
  3
GENAXEH
  1

  0
LINE
  5
5C06
330
5C05
100
AcDbEntity
  8
0
100
AcDbLine
 10
-1.0
 20
0.0
 30
0.0
 11
1.0
 21
0.0
 31
0.0
  0
ENDBLK
  5
5C08
330
5C05
100
AcDbEntity
  8
0
100
AcDbBlockEnd
  0
BLOCK
  5
6619
330
660F
100
AcDbEntity
  8
0
100
AcDbBlockBegin
  2
*D27
 70
     1
 10
0.0
 20
0.0
 30
0.0
  3
*D27
  1

  0
LINE
  5
6824
330
660F
100
AcDbEntity
  8
AM_REFDIM
100
AcDbLine
 10
274.2957454300788
 20
566.803348637821
 30
0.0
 11
274.2957454300788
 21
616.803348637821
 31
0.0
  0
LINE
  5
6825
330
660F
100
AcDbEntity
  8
AM_REFDIM
100
AcDbLine
 10
314.2957454300788
 20
587.0093486378212
 30
0.0
 11
314.2957454300788
 21
616.803348637821
 31
0.0
  0
LINE
  5
6826
330
660F
100
AcDbEntity
  8
AM_REFDIM
100
AcDbLine
 10
278.7957454300788
 20
615.303348637821
 30
0.0
 11
309.7957454300788
 21
615.303348637821
 31
0.0
  0
SOLID
  5
6827
330
660F
100
AcDbEntity
  8
AM_REFDIM
100
AcDbTrace
 10
278.7957454300788
 20
616.053348637821
 30
0.0
 11
278.7957454300788
 21
614.553348637821
 31
0.0
 12
274.2957454300788
 22
615.303348637821
 32
0.0
 13
274.2957454300788
 23
615.303348637821
 33
0.0
  0
SOLID
  5
6828
330
660F
100
AcDbEntity
  8
AM_REFDIM
100
AcDbTrace
 10
309.7957454300788
 20
616.053348637821
 30
0.0
 11
309.7957454300788
 21
614.553348637821
 31
0.0
 12
314.2957454300788
 22
615.303348637821
 32
0.0
 13
314.2957454300788
 23
615.303348637821
 33
0.0
  0
MTEXT
  5
6829
330
660F
100
AcDbEntity
  8
AM_REFDIM
100
AcDbMText
 10
294.2957454300788
 20
619.4283486378211
 30
0.0
 40
5.25
 41
0.0
 71
     5
 72
     1
  1
40
 73
     1
 44
1.0
1001
ACAD
1000
MTEXTBEGIN
1070
    73
1070
     1
1070
    44
1040
1.0
1070
    74
1070
     0
1000
MTEXTEND
  0
POINT
  5
682A
330
660F
100
AcDbEntity
  8
DEFPOINTS
 62
     0
100
AcDbPoint
 10
274.2957454300788
 20
565.303348637821
 30
0.0
  0
POINT
  5
682B
330
660F
100
AcDbEntity
  8
DEFPOINTS
 62
     0
100
AcDbPoint
 10
314.2957454300788
 20
585.5093486378211
 30
0.0
  0
POINT
  5
682C
330
660F
100
AcDbEntity
  8
DEFPOINTS
 62
     0
100
AcDbPoint
 10
314.2957454300788
 20
615.303348637821
 30
0.0
  0
ENDBLK
  5
661A
330
660F
100
AcDbEntity
  8
0
100
AcDbBlockEnd
  0
BLOCK
  5
6625
330
661B
100
AcDbEntity
  8
0
100
AcDbBlockBegin
  2
*D28
 70
     1
 10
0.0
 20
0.0
 30
0.0
  3
*D28
  1

  0
LINE
  5
682D
330
661B
100
AcDbEntity
  8
AM_REFDIM
100
AcDbLine
 10
315.7957454300788
 20
585.5093486378211
 30
0.0
 11
327.7957454300788
 21
585.5093486378211
 31
0.0
  0
LINE
  5
682E
330
661B
100
AcDbEntity
  8
AM_REFDIM
100
AcDbLine
 10
285.1529566065412
 20
548.5093486378211
 30
0.0
 11
327.7957454300788
 21
548.5093486378211
 31
0.0
  0
LINE
  5
682F
330
661B
100
AcDbEntity
  8
AM_REFDIM
100
AcDbLine
 10
326.2957454300788
 20
581.0093486378211
 30
0.0
 11
326.2957454300788
 21
553.0093486378212
 31
0.0
  0
SOLID
  5
6830
330
661B
100
AcDbEntity
  8
AM_REFDIM
100
AcDbTrace
 10
325.5457454300788
 20
581.0093486378211
 30
0.0
 11
327.0457454300788
 21
581.0093486378211
 31
0.0
 12
326.2957454300788
 22
585.5093486378211
 32
0.0
 13
326.2957454300788
 23
585.5093486378211
 33
0.0
  0
SOLID
  5
6831
330
661B
100
AcDbEntity
  8
AM_REFDIM
100
AcDbTrace
 10
325.5457454300788
 20
553.0093486378212
 30
0.0
 11
327.0457454300788
 21
553.0093486378212
 31
0.0
 12
326.2957454300788
 22
548.5093486378211
 32
0.0
 13
326.2957454300788
 23
548.5093486378211
 33
0.0
  0
MTEXT
  5
6832
330
661B
100
AcDbEntity
  8
AM_REFDIM
100
AcDbMText
 10
322.1707454300787
 20
567.0093486378212
 30
0.0
 40
5.25
 41
0.0
 71
     5
 72
     1
  1
37
 11
0.0000000000000001
 21
1.0
 31
0.0
 73
     1
 44
1.0
1001
ACAD
1000
MTEXTBEGIN
1070
    73
1070
     1
1070
    44
1040
1.0
1070
    74
1070
     0
1000
MTEXTEND
  0
POINT
  5
6833
330
661B
100
AcDbEntity
  8
DEFPOINTS
 62
     0
100
AcDbPoint
 10
314.2957454300788
 20
585.5093486378211
 30
0.0
  0
POINT
  5
6834
330
661B
100
AcDbEntity
  8
DEFPOINTS
 62
     0
100
AcDbPoint
 10
283.6529566065412
 20
548.5093486378211
 30
0.0
  0
POINT
  5
6835
330
661B
100
AcDbEntity
  8
DEFPOINTS
 62
     0
100
AcDbPoint
 10
326.2957454300788
 20
548.5093486378211
 30
0.0
  0
ENDBLK
  5
6626
330
661B
100
AcDbEntity
  8
0
100
AcDbBlockEnd
  0
BLOCK
  5
6631
330
6627
100
AcDbEntity
  8
0
100
AcDbBlockBegin
  2
*D29
 70
     1
 10
0.0
 20
0.0
 30
0.0
  3
*D29
  1

  0
LINE
  5
6836
330
6627
100
AcDbEntity
  8
AM_REFDIM
100
AcDbLine
 10
123.7427337186973
 20
584.803348637821
 30
0.0
 11
123.7427337186973
 21
606.803348637821
 31
0.0
  0
LINE
  5
6837
330
6627
100
AcDbEntity
  8
AM_REFDIM
100
AcDbLine
 10
162.7427337186973
 20
584.803348637821
 30
0.0
 11
162.7427337186973
 21
606.803348637821
 31
0.0
  0
LINE
  5
6838
330
6627
100
AcDbEntity
  8
AM_REFDIM
100
AcDbLine
 10
128.2427337186973
 20
605.303348637821
 30
0.0
 11
158.2427337186973
 21
605.303348637821
 31
0.0
  0
SOLID
  5
6839
330
6627
100
AcDbEntity
  8
AM_REFDIM
100
AcDbTrace
 10
128.2427337186973
 20
606.053348637821
 30
0.0
 11
128.2427337186973
 21
604.553348637821
 31
0.0
 12
123.7427337186973
 22
605.303348637821
 32
0.0
 13
123.7427337186973
 23
605.303348637821
 33
0.0
  0
SOLID
  5
683A
330
6627
100
AcDbEntity
  8
AM_REFDIM
100
AcDbTrace
 10
158.2427337186973
 20
606.053348637821
 30
0.0
 11
158.2427337186973
 21
604.553348637821
 31
0.0
 12
162.7427337186973
 22
605.303348637821
 32
0.0
 13
162.7427337186973
 23
605.303348637821
 33
0.0
  0
MTEXT
  5
683B
330
6627
100
AcDbEntity
  8
AM_REFDIM
100
AcDbMText
 10
143.2427337186973
 20
609.428348637821
 30
0.0
 40
5.25
 41
0.0
 71
     5
 72
     1
  1
39
 73
     1
 44
1.0
1001
ACAD
1000
MTEXTBEGIN
1070
    73
1070
     1
1070
    44
1040
1.0
1070
    74
1070
     0
1000
MTEXTEND
  0
POINT
  5
683C
330
6627
100
AcDbEntity
  8
DEFPOINTS
 62
     0
100
AcDbPoint
 10
123.7427337186973
 20
583.303348637821
 30
0.0
  0
POINT
  5
683D
330
6627
100
AcDbEntity
  8
DEFPOINTS
 62
     0
100
AcDbPoint
 10
162.7427337186973
 20
583.303348637821
 30
0.0
  0
POINT
  5
683E
330
6627
100
AcDbEntity
  8
DEFPOINTS
 62
     0
100
AcDbPoint
 10
162.7427337186973
 20
605.303348637821
 30
0.0
  0
ENDBLK
  5
6632
330
6627
100
AcDbEntity
  8
0
100
AcDbBlockEnd
  0
BLOCK
  5
663D
330
6633
100
AcDbEntity
  8
0
100
AcDbBlockBegin
  2
*D30
 70
     1
 10
0.0
 20
0.0
 30
0.0
  3
*D30
  1

  0
LINE
  5
683F
330
6633
100
AcDbEntity
  8
AM_REFDIM
100
AcDbLine
 10
110.7427337186973
 20
582.0093486378211
 30
0.0
 11
110.7427337186973
 21
616.803348637821
 31
0.0
  0
LINE
  5
6840
330
6633
100
AcDbEntity
  8
AM_REFDIM
100
AcDbLine
 10
175.7427337186973
 20
582.0093486378211
 30
0.0
 11
175.7427337186973
 21
616.803348637821
 31
0.0
  0
LINE
  5
6841
330
6633
100
AcDbEntity
  8
AM_REFDIM
100
AcDbLine
 10
115.2427337186973
 20
615.303348637821
 30
0.0
 11
171.2427337186973
 21
615.303348637821
 31
0.0
  0
SOLID
  5
6842
330
6633
100
AcDbEntity
  8
AM_REFDIM
100
AcDbTrace
 10
115.2427337186973
 20
616.053348637821
 30
0.0
 11
115.2427337186973
 21
614.553348637821
 31
0.0
 12
110.7427337186973
 22
615.303348637821
 32
0.0
 13
110.7427337186973
 23
615.303348637821
 33
0.0
  0
SOLID
  5
6843
330
6633
100
AcDbEntity
  8
AM_REFDIM
100
AcDbTrace
 10
171.2427337186973
 20
616.053348637821
 30
0.0
 11
171.2427337186973
 21
614.553348637821
 31
0.0
 12
175.7427337186973
 22
615.303348637821
 32
0.0
 13
175.7427337186973
 23
615.303348637821
 33
0.0
  0
MTEXT
  5
6844
330
6633
100
AcDbEntity
  8
AM_REFDIM
100
AcDbMText
 10
143.2427337186973
 20
619.4283486378211
 30
0.0
 40
5.25
 41
0.0
 71
     5
 72
     1
  1
65
 73
     1
 44
1.0
1001
ACAD
1000
MTEXTBEGIN
1070
    73
1070
     1
1070
    44
1040
1.0
1070
    74
1070
     0
1000
MTEXTEND
  0
POINT
  5
6845
330
6633
100
AcDbEntity
  8
DEFPOINTS
 62
     0
100
AcDbPoint
 10
110.7427337186973
 20
580.5093486378211
 30
0.0
  0
POINT
  5
6846
330
6633
100
AcDbEntity
  8
DEFPOINTS
 62
     0
100
AcDbPoint
 10
175.7427337186973
 20
580.5093486378211
 30
0.0
  0
POINT
  5
6847
330
6633
100
AcDbEntity
  8
DEFPOINTS
 62
     0
100
AcDbPoint
 10
175.7427337186973
 20
615.303348637821
 30
0.0
  0
ENDBLK
  5
663E
330
6633
100
AcDbEntity
  8
0
100
AcDbBlockEnd
  0
BLOCK
  5
664B
330
663F
100
AcDbEntity
  8
0
100
AcDbBlockBegin
  2
*D31
 70
     1
 10
0.0
 20
0.0
 30
0.0
  3
*D31
  1

  0
LINE
  5
6848
330
663F
100
AcDbEntity
  8
AM_REFDIM
100
AcDbLine
 10
140.9927337186971
 20
398.709348637821
 30
0.0
 11
140.9927337186971
 21
383.1978190089497
 31
0.0
  0
LINE
  5
6849
330
663F
100
AcDbEntity
  8
AM_REFDIM
100
AcDbLine
 10
145.8927337186969
 20
398.709348637821
 30
0.0
 11
145.8927337186969
 21
383.1978190089497
 31
0.0
  0
LINE
  5
684A
330
663F
100
AcDbEntity
  8
AM_REFDIM
100
AcDbLine
 10
136.4927337186971
 20
384.6978190089497
 30
0.0
 11
131.9927337186971
 21
384.6978190089497
 31
0.0
  0
LINE
  5
684B
330
663F
100
AcDbEntity
  8
AM_REFDIM
100
AcDbLine
 10
150.3927337186969
 20
384.6978190089497
 30
0.0
 11
166.4351958389429
 21
384.6978190089497
 31
0.0
  0
LINE
  5
684C
330
663F
100
AcDbEntity
  8
AM_REFDIM
100
AcDbLine
 10
140.9927337186971
 20
384.6978190089497
 30
0.0
 11
145.8927337186969
 21
384.6978190089497
 31
0.0
  0
SOLID
  5
684D
330
663F
100
AcDbEntity
  8
AM_REFDIM
100
AcDbTrace
 10
136.4927337186971
 20
385.4478190089496
 30
0.0
 11
136.4927337186971
 21
383.9478190089496
 31
0.0
 12
140.9927337186971
 22
384.6978190089497
 32
0.0
 13
140.9927337186971
 23
384.6978190089497
 33
0.0
  0
SOLID
  5
684E
330
663F
100
AcDbEntity
  8
AM_REFDIM
100
AcDbTrace
 10
150.3927337186969
 20
385.4478190089496
 30
0.0
 11
150.3927337186969
 21
383.9478190089496
 31
0.0
 12
145.8927337186969
 22
384.6978190089497
 32
0.0
 13
145.8927337186969
 23
384.6978190089497
 33
0.0
  0
MTEXT
  5
684F
330
663F
100
AcDbEntity
  8
AM_REFDIM
100
AcDbMText
 10
161.4139647788199
 20
388.8228190089496
 30
0.0
 40
5.25
 41
0.0
 71
     5
 72
     1
  1
%%c5
 73
     1
 44
1.0
1001
ACAD
1000
MTEXTBEGIN
1070
    73
1070
     1
1070
    44
1040
1.0
1070
    74
1070
     0
1000
MTEXTEND
  0
POINT
  5
6850
330
663F
100
AcDbEntity
  8
DEFPOINTS
 62
     0
100
AcDbPoint
 10
140.9927337186971
 20
400.209348637821
 30
0.0
  0
POINT
  5
6851
330
663F
100
AcDbEntity
  8
DEFPOINTS
 62
     0
100
AcDbPoint
 10
145.8927337186969
 20
400.209348637821
 30
0.0
  0
POINT
  5
6852
330
663F
100
AcDbEntity
  8
DEFPOINTS
 62
     0
100
AcDbPoint
 10
145.8927337186969
 20
384.6978190089497
 30
0.0
  0
ENDBLK
  5
664C
330
663F
100
AcDbEntity
  8
0
100
AcDbBlockEnd
  0
BLOCK
  5
6657
330
664D
100
AcDbEntity
  8
0
100
AcDbBlockBegin
  2
*D32
 70
     1
 10
0.0
 20
0.0
 30
0.0
  3
*D32
  1

  0
LINE
  5
6853
330
664D
100
AcDbEntity
  8
AM_REFDIM
100
AcDbLine
 10
192.2642067187155
 20
548.5093486378211
 30
0.0
 11
198.0887897342021
 21
548.5093486378211
 31
0.0
  0
LINE
  5
6854
330
664D
100
AcDbEntity
  8
AM_REFDIM
100
AcDbLine
 10
175.0367337186974
 20
577.5093486378211
 30
0.0
 11
198.0887897342021
 21
577.5093486378211
 31
0.0
  0
LINE
  5
6855
330
664D
100
AcDbEntity
  8
AM_REFDIM
100
AcDbLine
 10
196.5887897342021
 20
553.0093486378212
 30
0.0
 11
196.5887897342021
 21
573.0093486378211
 31
0.0
  0
SOLID
  5
6856
330
664D
100
AcDbEntity
  8
AM_REFDIM
100
AcDbTrace
 10
195.8387897342021
 20
553.0093486378212
 30
0.0
 11
197.3387897342021
 21
553.0093486378212
 31
0.0
 12
196.5887897342021
 22
548.5093486378211
 32
0.0
 13
196.5887897342021
 23
548.5093486378211
 33
0.0
  0
SOLID
  5
6857
330
664D
100
AcDbEntity
  8
AM_REFDIM
100
AcDbTrace
 10
195.8387897342021
 20
573.0093486378211
 30
0.0
 11
197.3387897342021
 21
573.0093486378211
 31
0.0
 12
196.5887897342021
 22
577.5093486378211
 32
0.0
 13
196.5887897342021
 23
577.5093486378211
 33
0.0
  0
MTEXT
  5
6858
330
664D
100
AcDbEntity
  8
AM_REFDIM
100
AcDbMText
 10
192.4632730019185
 20
563.0093486378211
 30
0.0
 40
5.25
 41
0.0
 71
     5
 72
     1
  1
29
 11
0.0000000000000001
 21
1.0
 31
0.0
 73
     1
 44
1.0
1001
ACAD
1000
MTEXTBEGIN
1070
    73
1070
     1
1070
    44
1040
1.0
1070
    74
1070
     0
1000
MTEXTEND
  0
POINT
  5
6859
330
664D
100
AcDbEntity
  8
DEFPOINTS
 62
     0
100
AcDbPoint
 10
190.7642067187155
 20
548.5093486378211
 30
0.0
  0
POINT
  5
685A
330
664D
100
AcDbEntity
  8
DEFPOINTS
 62
     0
100
AcDbPoint
 10
173.5367337186974
 20
577.5093486378211
 30
0.0
  0
POINT
  5
685B
330
664D
100
AcDbEntity
  8
DEFPOINTS
 62
     0
100
AcDbPoint
 10
196.5887897342021
 20
577.5093486378211
 30
0.0
  0
ENDBLK
  5
6658
330
664D
100
AcDbEntity
  8
0
100
AcDbBlockEnd
  0
BLOCK
  5
6660
330
6659
100
AcDbEntity
  8
0
100
AcDbBlockBegin
  2
*D33
 70
     1
 10
0.0
 20
0.0
 30
0.0
  3
*D33
  1

  0
LINE
  5
685C
330
6659
100
AcDbEntity
  8
AM_REFDIM
100
AcDbLine
 10
264.3060963939949
 20
537.6571870035705
 30
0.0
 11
224.1965567470327
 21
494.0845644067263
 31
0.0
  0
LINE
  5
685D
330
6659
100
AcDbEntity
  8
AM_REFDIM
100
AcDbLine
 10
224.1965567470327
 20
494.0845644067263
 30
0.0
 11
197.8882398178989
 21
494.0845644067264
 31
0.0
  0
SOLID
  5
685E
330
6659
100
AcDbEntity
  8
AM_REFDIM
100
AcDbTrace
 10
263.7542915651348
 20
538.1651352596425
 30
0.0
 11
264.8579012228551
 21
537.1492387474984
 31
0.0
 12
267.3537859304271
 22
540.9680159767313
 32
0.0
 13
267.3537859304271
 23
540.9680159767313
 33
0.0
  0
MTEXT
  5
685F
330
6659
100
AcDbEntity
  8
AM_REFDIM
100
AcDbMText
 10
210.2923982824659
 20
498.2100811390098
 30
0.0
 40
5.25
 41
0.0
 71
     5
 72
     1
  1
2-PT1/4
 73
     1
 44
1.0
1001
ACAD
1000
MTEXTBEGIN
1070
    73
1070
     1
1070
    44
1040
1.0
1070
    74
1070
     0
1000
MTEXTEND
  0
POINT
  5
6860
330
6659
100
AcDbEntity
  8
DEFPOINTS
 62
     0
100
AcDbPoint
 10
267.3537859304271
 20
540.9680159767313
 30
0.0
  0
POINT
  5
6861
330
6659
100
AcDbEntity
  8
DEFPOINTS
 62
     0
100
AcDbPoint
 10
274.295745430078
 20
548.50934863782
 30
0.0
  0
ENDBLK
  5
6661
330
6659
100
AcDbEntity
  8
0
100
AcDbBlockEnd
  0
BLOCK
  5
666C
330
6662
100
AcDbEntity
  8
0
100
AcDbBlockBegin
  2
*D34
 70
     1
 10
0.0
 20
0.0
 30
0.0
  3
*D34
  1

  0
LINE
  5
67F7
330
6662
100
AcDbEntity
  8
AM_REFDIM
100
AcDbLine
 10
98.67139492768728
 20
548.5093486378211
 30
0.0
 11
95.48904606769541
 21
548.5093486378211
 31
0.0
  0
LINE
  5
67F8
330
6662
100
AcDbEntity
  8
AM_REFDIM
100
AcDbLine
 10
139.842733718697
 20
394.5093486378212
 30
0.0
 11
95.48904606769538
 21
394.5093486378212
 31
0.0
  0
LINE
  5
67F9
330
6662
100
AcDbEntity
  8
AM_REFDIM
100
AcDbLine
 10
96.98904606769541
 20
544.0093486378211
 30
0.0
 11
96.98904606769538
 21
399.0093486378212
 31
0.0
  0
SOLID
  5
67FA
330
6662
100
AcDbEntity
  8
AM_REFDIM
100
AcDbTrace
 10
96.23904606769542
 20
544.0093486378211
 30
0.0
 11
97.73904606769541
 21
544.0093486378211
 31
0.0
 12
96.98904606769541
 22
548.5093486378211
 32
0.0
 13
96.98904606769541
 23
548.5093486378211
 33
0.0
  0
SOLID
  5
67FB
330
6662
100
AcDbEntity
  8
AM_REFDIM
100
AcDbTrace
 10
96.23904606769537
 20
399.0093486378212
 30
0.0
 11
97.73904606769537
 21
399.0093486378212
 31
0.0
 12
96.98904606769538
 22
394.5093486378212
 32
0.0
 13
96.98904606769538
 23
394.5093486378212
 33
0.0
  0
MTEXT
  5
67FC
330
6662
100
AcDbEntity
  8
AM_REFDIM
100
AcDbMText
 10
92.86404606769531
 20
471.5093486378211
 30
0.0
 40
5.25
 41
0.0
 71
     5
 72
     1
  1
154
 11
0.0000000000000001
 21
1.0
 31
0.0
 73
     1
 44
1.0
1001
ACAD
1000
MTEXTBEGIN
1070
    73
1070
     1
1070
    44
1040
1.0
1070
    74
1070
     0
1000
MTEXTEND
  0
POINT
  5
67FD
330
6662
100
AcDbEntity
  8
DEFPOINTS
 62
     0
100
AcDbPoint
 10
100.1713949276873
 20
548.5093486378211
 30
0.0
  0
POINT
  5
67FE
330
6662
100
AcDbEntity
  8
DEFPOINTS
 62
     0
100
AcDbPoint
 10
141.342733718697
 20
394.5093486378212
 30
0.0
  0
POINT
  5
67FF
330
6662
100
AcDbEntity
  8
DEFPOINTS
 62
     0
100
AcDbPoint
 10
96.98904606769538
 20
394.5093486378212
 30
0.0
  0
ENDBLK
  5
666D
330
6662
100
AcDbEntity
  8
0
100
AcDbBlockEnd
  0
BLOCK
  5
6678
330
666E
100
AcDbEntity
  8
0
100
AcDbBlockBegin
  2
*D35
 70
     1
 10
0.0
 20
0.0
 30
0.0
  3
*D35
  1

  0
LINE
  5
6800
330
666E
100
AcDbEntity
  8
AM_REFDIM
100
AcDbLine
 10
117.9427337186973
 20
564.5093486378211
 30
0.0
 11
84.49238017896099
 21
564.5093486378211
 31
0.0
  0
LINE
  5
6801
330
666E
100
AcDbEntity
  8
AM_REFDIM
100
AcDbLine
 10
139.842733718697
 20
394.5093486378212
 30
0.0
 11
84.49238017896096
 21
394.5093486378212
 31
0.0
  0
LINE
  5
6802
330
666E
100
AcDbEntity
  8
AM_REFDIM
100
AcDbLine
 10
85.992380178961
 20
560.0093486378211
 30
0.0
 11
85.99238017896096
 21
399.0093486378212
 31
0.0
  0
SOLID
  5
6803
330
666E
100
AcDbEntity
  8
AM_REFDIM
100
AcDbTrace
 10
85.24238017896101
 20
560.0093486378211
 30
0.0
 11
86.74238017896099
 21
560.0093486378211
 31
0.0
 12
85.992380178961
 22
564.5093486378211
 32
0.0
 13
85.992380178961
 23
564.5093486378211
 33
0.0
  0
SOLID
  5
6804
330
666E
100
AcDbEntity
  8
AM_REFDIM
100
AcDbTrace
 10
85.24238017896095
 20
399.0093486378212
 30
0.0
 11
86.74238017896096
 21
399.0093486378212
 31
0.0
 12
85.99238017896096
 22
394.5093486378212
 32
0.0
 13
85.99238017896096
 23
394.5093486378212
 33
0.0
  0
MTEXT
  5
6805
330
666E
100
AcDbEntity
  8
AM_REFDIM
100
AcDbMText
 10
81.6048801789609
 20
479.5093486378211
 30
0.0
 40
5.25
 41
0.0
 71
     5
 72
     1
  1
(170)
 11
0.0000000000000001
 21
1.0
 31
0.0
 73
     1
 44
1.0
1001
ACAD
1000
MTEXTBEGIN
1070
    73
1070
     1
1070
    44
1040
1.0
1070
    74
1070
     0
1000
MTEXTEND
  0
POINT
  5
6806
330
666E
100
AcDbEntity
  8
DEFPOINTS
 62
     0
100
AcDbPoint
 10
119.4427337186973
 20
564.5093486378211
 30
0.0
  0
POINT
  5
6807
330
666E
100
AcDbEntity
  8
DEFPOINTS
 62
     0
100
AcDbPoint
 10
141.342733718697
 20
394.5093486378212
 30
0.0
  0
POINT
  5
6808
330
666E
100
AcDbEntity
  8
DEFPOINTS
 62
     0
100
AcDbPoint
 10
85.99238017896096
 20
394.5093486378212
 30
0.0
  0
ENDBLK
  5
6679
330
666E
100
AcDbEntity
  8
0
100
AcDbBlockEnd
  0
BLOCK
  5
6684
330
667A
100
AcDbEntity
  8
0
100
AcDbBlockBegin
  2
*D36
 70
     1
 10
0.0
 20
0.0
 30
0.0
  3
*D36
  1

  0
LINE
  5
6809
330
667A
100
AcDbEntity
  8
AM_REFDIM
100
AcDbLine
 10
240.295745430079
 20
538.0093486378211
 30
0.0
 11
240.295745430079
 21
606.803348637821
 31
0.0
  0
LINE
  5
680A
330
667A
100
AcDbEntity
  8
AM_REFDIM
100
AcDbLine
 10
308.295745430079
 20
538.0093486378211
 30
0.0
 11
308.295745430079
 21
606.803348637821
 31
0.0
  0
LINE
  5
680B
330
667A
100
AcDbEntity
  8
AM_REFDIM
100
AcDbLine
 10
244.795745430079
 20
605.303348637821
 30
0.0
 11
303.795745430079
 21
605.303348637821
 31
0.0
  0
SOLID
  5
680C
330
667A
100
AcDbEntity
  8
AM_REFDIM
100
AcDbTrace
 10
244.795745430079
 20
606.053348637821
 30
0.0
 11
244.795745430079
 21
604.553348637821
 31
0.0
 12
240.295745430079
 22
605.303348637821
 32
0.0
 13
240.295745430079
 23
605.303348637821
 33
0.0
  0
SOLID
  5
680D
330
667A
100
AcDbEntity
  8
AM_REFDIM
100
AcDbTrace
 10
303.795745430079
 20
606.053348637821
 30
0.0
 11
303.795745430079
 21
604.553348637821
 31
0.0
 12
308.295745430079
 22
605.303348637821
 32
0.0
 13
308.295745430079
 23
605.303348637821
 33
0.0
  0
MTEXT
  5
680E
330
667A
100
AcDbEntity
  8
AM_REFDIM
100
AcDbMText
 10
267.4605638801743
 20
609.428348637821
 30
0.0
 40
5.25
 41
0.0
 71
     5
 72
     1
  1
68
 73
     1
 44
1.0
1001
ACAD
1000
MTEXTBEGIN
1070
    73
1070
     1
1070
    44
1040
1.0
1070
    74
1070
     0
1000
MTEXTEND
  0
POINT
  5
680F
330
667A
100
AcDbEntity
  8
DEFPOINTS
 62
     0
100
AcDbPoint
 10
240.295745430079
 20
536.5093486378212
 30
0.0
  0
POINT
  5
6810
330
667A
100
AcDbEntity
  8
DEFPOINTS
 62
     0
100
AcDbPoint
 10
308.295745430079
 20
536.5093486378212
 30
0.0
  0
POINT
  5
6811
330
667A
100
AcDbEntity
  8
DEFPOINTS
 62
     0
100
AcDbPoint
 10
308.295745430079
 20
605.303348637821
 30
0.0
  0
ENDBLK
  5
6685
330
667A
100
AcDbEntity
  8
0
100
AcDbBlockEnd
  0
BLOCK
  5
6690
330
6686
100
AcDbEntity
  8
0
100
AcDbBlockBegin
  2
*D37
 70
     1
 10
0.0
 20
0.0
 30
0.0
  3
*D37
  1

  0
LINE
  5
6812
330
6686
100
AcDbEntity
  8
AM_REFDIM
100
AcDbLine
 10
249.295745430079
 20
565.0093486378211
 30
0.0
 11
249.295745430079
 21
596.803348637821
 31
0.0
  0
LINE
  5
6813
330
6686
100
AcDbEntity
  8
AM_REFDIM
100
AcDbLine
 10
299.295745430079
 20
565.0093486378211
 30
0.0
 11
299.295745430079
 21
596.803348637821
 31
0.0
  0
LINE
  5
6814
330
6686
100
AcDbEntity
  8
AM_REFDIM
100
AcDbLine
 10
253.795745430079
 20
595.303348637821
 30
0.0
 11
294.7957454300791
 21
595.303348637821
 31
0.0
  0
SOLID
  5
6815
330
6686
100
AcDbEntity
  8
AM_REFDIM
100
AcDbTrace
 10
253.795745430079
 20
596.053348637821
 30
0.0
 11
253.795745430079
 21
594.553348637821
 31
0.0
 12
249.295745430079
 22
595.303348637821
 32
0.0
 13
249.295745430079
 23
595.303348637821
 33
0.0
  0
SOLID
  5
6816
330
6686
100
AcDbEntity
  8
AM_REFDIM
100
AcDbTrace
 10
294.7957454300791
 20
596.053348637821
 30
0.0
 11
294.7957454300791
 21
594.553348637821
 31
0.0
 12
299.295745430079
 22
595.303348637821
 32
0.0
 13
299.295745430079
 23
595.303348637821
 33
0.0
  0
MTEXT
  5
6817
330
6686
100
AcDbEntity
  8
AM_REFDIM
100
AcDbMText
 10
268.1597578200269
 20
599.428348637821
 30
0.0
 40
5.25
 41
0.0
 71
     5
 72
     1
  1
50
 73
     1
 44
1.0
1001
ACAD
1000
MTEXTBEGIN
1070
    73
1070
     1
1070
    44
1040
1.0
1070
    74
1070
     0
1000
MTEXTEND
  0
POINT
  5
6818
330
6686
100
AcDbEntity
  8
DEFPOINTS
 62
     0
100
AcDbPoint
 10
249.295745430079
 20
563.5093486378211
 30
0.0
  0
POINT
  5
6819
330
6686
100
AcDbEntity
  8
DEFPOINTS
 62
     0
100
AcDbPoint
 10
299.295745430079
 20
563.5093486378211
 30
0.0
  0
POINT
  5
681A
330
6686
100
AcDbEntity
  8
DEFPOINTS
 62
     0
100
AcDbPoint
 10
299.295745430079
 20
595.303348637821
 30
0.0
  0
ENDBLK
  5
6691
330
6686
100
AcDbEntity
  8
0
100
AcDbBlockEnd
  0
BLOCK
  5
669C
330
6692
100
AcDbEntity
  8
0
100
AcDbBlockBegin
  2
*D38
 70
     1
 10
0.0
 20
0.0
 30
0.0
  3
*D38
  1

  0
LINE
  5
681B
330
6692
100
AcDbEntity
  8
AM_REFDIM
100
AcDbLine
 10
108.4427337186973
 20
565.0093486378211
 30
0.0
 11
108.4427337186973
 21
626.803348637821
 31
0.0
  0
LINE
  5
681C
330
6692
100
AcDbEntity
  8
AM_REFDIM
100
AcDbLine
 10
178.4427337186973
 20
565.0093486378211
 30
0.0
 11
178.4427337186973
 21
626.803348637821
 31
0.0
  0
LINE
  5
681D
330
6692
100
AcDbEntity
  8
AM_REFDIM
100
AcDbLine
 10
112.9427337186973
 20
625.303348637821
 30
0.0
 11
173.9427337186973
 21
625.303348637821
 31
0.0
  0
SOLID
  5
681E
330
6692
100
AcDbEntity
  8
AM_REFDIM
100
AcDbTrace
 10
112.9427337186973
 20
626.053348637821
 30
0.0
 11
112.9427337186973
 21
624.553348637821
 31
0.0
 12
108.4427337186973
 22
625.303348637821
 32
0.0
 13
108.4427337186973
 23
625.303348637821
 33
0.0
  0
SOLID
  5
681F
330
6692
100
AcDbEntity
  8
AM_REFDIM
100
AcDbTrace
 10
173.9427337186973
 20
626.053348637821
 30
0.0
 11
173.9427337186973
 21
624.553348637821
 31
0.0
 12
178.4427337186973
 22
625.303348637821
 32
0.0
 13
178.4427337186973
 23
625.303348637821
 33
0.0
  0
MTEXT
  5
6820
330
6692
100
AcDbEntity
  8
AM_REFDIM
100
AcDbMText
 10
143.4427337186973
 20
629.428348637821
 30
0.0
 40
5.25
 41
0.0
 71
     5
 72
     1
  1
70
 73
     1
 44
1.0
1001
ACAD
1000
MTEXTBEGIN
1070
    73
1070
     1
1070
    44
1040
1.0
1070
    74
1070
     0
1000
MTEXTEND
  0
POINT
  5
6821
330
6692
100
AcDbEntity
  8
DEFPOINTS
 62
     0
100
AcDbPoint
 10
108.4427337186973
 20
563.5093486378211
 30
0.0
  0
POINT
  5
6822
330
6692
100
AcDbEntity
  8
DEFPOINTS
 62
     0
100
AcDbPoint
 10
178.4427337186973
 20
563.5093486378211
 30
0.0
  0
POINT
  5
6823
330
6692
100
AcDbEntity
  8
DEFPOINTS
 62
     0
100
AcDbPoint
 10
178.4427337186973
 20
625.303348637821
 30
0.0
  0
ENDBLK
  5
669D
330
6692
100
AcDbEntity
  8
0
100
AcDbBlockEnd
  0
BLOCK
  5
66E6
330
66DC
100
AcDbEntity
  8
0
100
AcDbBlockBegin
  2
*D39
 70
     1
 10
0.0
 20
0.0
 30
0.0
  3
*D39
  1

  0
LINE
  5
6862
330
66DC
100
AcDbEntity
  8
AM_REFDIM
100
AcDbLine
 10
105.7427337186973
 20
725.7774618932451
 30
0.0
 11
105.7427337186973
 21
749.6130225218573
 31
0.0
  0
LINE
  5
6863
330
66DC
100
AcDbEntity
  8
AM_REFDIM
100
AcDbLine
 10
180.7427337186973
 20
725.7774618932451
 30
0.0
 11
180.7427337186973
 21
749.6130225218573
 31
0.0
  0
LINE
  5
6864
330
66DC
100
AcDbEntity
  8
AM_REFDIM
100
AcDbLine
 10
110.2427337186973
 20
748.1130225218573
 30
0.0
 11
176.2427337186973
 21
748.1130225218573
 31
0.0
  0
SOLID
  5
6865
330
66DC
100
AcDbEntity
  8
AM_REFDIM
100
AcDbTrace
 10
110.2427337186973
 20
748.8630225218574
 30
0.0
 11
110.2427337186973
 21
747.3630225218573
 31
0.0
 12
105.7427337186973
 22
748.1130225218573
 32
0.0
 13
105.7427337186973
 23
748.1130225218573
 33
0.0
  0
SOLID
  5
6866
330
66DC
100
AcDbEntity
  8
AM_REFDIM
100
AcDbTrace
 10
176.2427337186973
 20
748.8630225218574
 30
0.0
 11
176.2427337186973
 21
747.3630225218573
 31
0.0
 12
180.7427337186973
 22
748.1130225218573
 32
0.0
 13
180.7427337186973
 23
748.1130225218573
 33
0.0
  0
MTEXT
  5
6867
330
66DC
100
AcDbEntity
  8
AM_REFDIM
100
AcDbMText
 10
143.2427337186973
 20
752.2380225218573
 30
0.0
 40
5.25
 41
0.0
 71
     5
 72
     1
  1
75
 73
     1
 44
1.0
1001
ACAD
1000
MTEXTBEGIN
1070
    73
1070
     1
1070
    44
1040
1.0
1070
    74
1070
     0
1000
MTEXTEND
  0
POINT
  5
6868
330
66DC
100
AcDbEntity
  8
DEFPOINTS
 62
     0
100
AcDbPoint
 10
105.7427337186973
 20
724.277461893245
 30
0.0
  0
POINT
  5
6869
330
66DC
100
AcDbEntity
  8
DEFPOINTS
 62
     0
100
AcDbPoint
 10
180.7427337186973
 20
724.277461893245
 30
0.0
  0
POINT
  5
686A
330
66DC
100
AcDbEntity
  8
DEFPOINTS
 62
     0
100
AcDbPoint
 10
180.7427337186973
 20
748.1130225218573
 30
0.0
  0
ENDBLK
  5
66E7
330
66DC
100
AcDbEntity
  8
0
100
AcDbBlockEnd
  0
BLOCK
  5
66F2
330
66E8
100
AcDbEntity
  8
0
100
AcDbBlockBegin
  2
*D40
 70
     1
 10
0.0
 20
0.0
 30
0.0
  3
*D40
  1

  0
LINE
  5
686B
330
66E8
100
AcDbEntity
  8
AM_REFDIM
100
AcDbLine
 10
179.2427337186973
 20
727.2774618932451
 30
0.0
 11
202.2672606785849
 21
727.2774618932451
 31
0.0
  0
LINE
  5
686C
330
66E8
100
AcDbEntity
  8
AM_REFDIM
100
AcDbLine
 10
159.9427337186973
 20
649.277461893245
 30
0.0
 11
202.2672606785849
 21
649.277461893245
 31
0.0
  0
LINE
  5
686D
330
66E8
100
AcDbEntity
  8
AM_REFDIM
100
AcDbLine
 10
200.7672606785849
 20
722.7774618932451
 30
0.0
 11
200.7672606785849
 21
653.7774618932451
 31
0.0
  0
SOLID
  5
686E
330
66E8
100
AcDbEntity
  8
AM_REFDIM
100
AcDbTrace
 10
200.0172606785849
 20
722.7774618932451
 30
0.0
 11
201.5172606785849
 21
722.7774618932451
 31
0.0
 12
200.7672606785849
 22
727.2774618932451
 32
0.0
 13
200.7672606785849
 23
727.2774618932451
 33
0.0
  0
SOLID
  5
686F
330
66E8
100
AcDbEntity
  8
AM_REFDIM
100
AcDbTrace
 10
200.0172606785849
 20
653.7774618932451
 30
0.0
 11
201.5172606785849
 21
653.7774618932451
 31
0.0
 12
200.7672606785849
 22
649.277461893245
 32
0.0
 13
200.7672606785849
 23
649.277461893245
 33
0.0
  0
MTEXT
  5
6870
330
66E8
100
AcDbEntity
  8
AM_REFDIM
100
AcDbMText
 10
196.6422606785847
 20
687.4900746933556
 30
0.0
 40
5.25
 41
0.0
 71
     5
 72
     1
  1
78
 11
0.0000000000000001
 21
1.0
 31
0.0
 73
     1
 44
1.0
1001
ACAD
1000
MTEXTBEGIN
1070
    73
1070
     1
1070
    44
1040
1.0
1070
    74
1070
     0
1000
MTEXTEND
  0
POINT
  5
6871
330
66E8
100
AcDbEntity
  8
DEFPOINTS
 62
     0
100
AcDbPoint
 10
177.7427337186973
 20
727.2774618932451
 30
0.0
  0
POINT
  5
6872
330
66E8
100
AcDbEntity
  8
DEFPOINTS
 62
     0
100
AcDbPoint
 10
158.4427337186973
 20
649.277461893245
 30
0.0
  0
POINT
  5
6873
330
66E8
100
AcDbEntity
  8
DEFPOINTS
 62
     0
100
AcDbPoint
 10
200.7672606785849
 20
649.277461893245
 30
0.0
  0
ENDBLK
  5
66F3
330
66E8
100
AcDbEntity
  8
0
100
AcDbBlockEnd
  0
BLOCK
  5
66FE
330
66F4
100
AcDbEntity
  8
0
100
AcDbBlockBegin
  2
*D41
 70
     1
 10
0.0
 20
0.0
 30
0.0
  3
*D41
  1

  0
LINE
  5
6874
330
66F4
100
AcDbEntity
  8
AM_REFDIM
100
AcDbLine
 10
115.7427337186973
 20
579.0093486378212
 30
0.0
 11
115.7427337186973
 21
596.803348637821
 31
0.0
  0
LINE
  5
6875
330
66F4
100
AcDbEntity
  8
AM_REFDIM
100
AcDbLine
 10
131.7427337186973
 20
579.0093486378212
 30
0.0
 11
131.7427337186973
 21
596.803348637821
 31
0.0
  0
LINE
  5
6876
330
66F4
100
AcDbEntity
  8
AM_REFDIM
100
AcDbLine
 10
120.2427337186973
 20
595.303348637821
 30
0.0
 11
127.2427337186973
 21
595.303348637821
 31
0.0
  0
SOLID
  5
6877
330
66F4
100
AcDbEntity
  8
AM_REFDIM
100
AcDbTrace
 10
120.2427337186973
 20
596.053348637821
 30
0.0
 11
120.2427337186973
 21
594.553348637821
 31
0.0
 12
115.7427337186973
 22
595.303348637821
 32
0.0
 13
115.7427337186973
 23
595.303348637821
 33
0.0
  0
SOLID
  5
6878
330
66F4
100
AcDbEntity
  8
AM_REFDIM
100
AcDbTrace
 10
127.2427337186973
 20
596.053348637821
 30
0.0
 11
127.2427337186973
 21
594.553348637821
 31
0.0
 12
131.7427337186973
 22
595.303348637821
 32
0.0
 13
131.7427337186973
 23
595.303348637821
 33
0.0
  0
MTEXT
  5
6879
330
66F4
100
AcDbEntity
  8
AM_REFDIM
100
AcDbMText
 10
123.7427337186973
 20
599.428348637821
 30
0.0
 40
5.25
 41
0.0
 71
     5
 72
     1
  1
16
 73
     1
 44
1.0
1001
ACAD
1000
MTEXTBEGIN
1070
    73
1070
     1
1070
    44
1040
1.0
1070
    74
1070
     0
1000
MTEXTEND
  0
POINT
  5
687A
330
66F4
100
AcDbEntity
  8
DEFPOINTS
 62
     0
100
AcDbPoint
 10
115.7427337186973
 20
577.5093486378211
 30
0.0
  0
POINT
  5
687B
330
66F4
100
AcDbEntity
  8
DEFPOINTS
 62
     0
100
AcDbPoint
 10
131.7427337186973
 20
577.5093486378211
 30
0.0
  0
POINT
  5
687C
330
66F4
100
AcDbEntity
  8
DEFPOINTS
 62
     0
100
AcDbPoint
 10
131.7427337186973
 20
595.303348637821
 30
0.0
  0
ENDBLK
  5
66FF
330
66F4
100
AcDbEntity
  8
0
100
AcDbBlockEnd
  0
BLOCK
  5
670C
330
6700
100
AcDbEntity
  8
0
100
AcDbBlockBegin
  2
*D42
 70
     1
 10
0.0
 20
0.0
 30
0.0
  3
*D42
  1

  0
LINE
  5
687D
330
6700
100
AcDbEntity
  8
AM_REFDIM
100
AcDbLine
 10
117.2427337186973
 20
580.5093486378211
 30
0.0
 11
95.37300648440735
 21
580.5093486378211
 31
0.0
  0
LINE
  5
687E
330
6700
100
AcDbEntity
  8
AM_REFDIM
100
AcDbLine
 10
117.2427337186973
 20
574.5093486378212
 30
0.0
 11
95.37300648440735
 21
574.5093486378212
 31
0.0
  0
LINE
  5
687F
330
6700
100
AcDbEntity
  8
AM_REFDIM
100
AcDbLine
 10
96.87300648440736
 20
585.0093486378211
 30
0.0
 11
96.87300648440736
 21
589.5093486378211
 31
0.0
  0
LINE
  5
6880
330
6700
100
AcDbEntity
  8
AM_REFDIM
100
AcDbLine
 10
96.87300648440736
 20
570.0093486378212
 30
0.0
 11
96.87300648440736
 21
565.5093486378212
 31
0.0
  0
LINE
  5
6881
330
6700
100
AcDbEntity
  8
AM_REFDIM
100
AcDbLine
 10
96.87300648440736
 20
580.5093486378211
 30
0.0
 11
96.87300648440736
 21
574.5093486378212
 31
0.0
  0
SOLID
  5
6882
330
6700
100
AcDbEntity
  8
AM_REFDIM
100
AcDbTrace
 10
96.12300648440736
 20
585.0093486378211
 30
0.0
 11
97.62300648440735
 21
585.0093486378211
 31
0.0
 12
96.87300648440736
 22
580.5093486378211
 32
0.0
 13
96.87300648440736
 23
580.5093486378211
 33
0.0
  0
SOLID
  5
6883
330
6700
100
AcDbEntity
  8
AM_REFDIM
100
AcDbTrace
 10
96.12300648440736
 20
570.0093486378212
 30
0.0
 11
97.62300648440735
 21
570.0093486378212
 31
0.0
 12
96.87300648440736
 22
574.5093486378212
 32
0.0
 13
96.87300648440736
 23
574.5093486378212
 33
0.0
  0
MTEXT
  5
6884
330
6700
100
AcDbEntity
  8
AM_REFDIM
100
AcDbMText
 10
92.74800648440725
 20
577.5093486378211
 30
0.0
 40
5.25
 41
0.0
 71
     5
 72
     1
  1
6
 11
0.0000000000000001
 21
1.0
 31
0.0
 73
     1
 44
1.0
1001
ACAD
1000
MTEXTBEGIN
1070
    73
1070
     1
1070
    44
1040
1.0
1070
    74
1070
     0
1000
MTEXTEND
  0
POINT
  5
6885
330
6700
100
AcDbEntity
  8
DEFPOINTS
 62
     0
100
AcDbPoint
 10
118.7427337186973
 20
580.5093486378211
 30
0.0
  0
POINT
  5
6886
330
6700
100
AcDbEntity
  8
DEFPOINTS
 62
     0
100
AcDbPoint
 10
118.7427337186973
 20
574.5093486378212
 30
0.0
  0
POINT
  5
6887
330
6700
100
AcDbEntity
  8
DEFPOINTS
 62
     0
100
AcDbPoint
 10
96.87300648440736
 20
574.5093486378212
 30
0.0
  0
ENDBLK
  5
670D
330
6700
100
AcDbEntity
  8
0
100
AcDbBlockEnd
  0
ENDSEC
  0
SECTION
  2
ENTITIES
  0
MTEXT
  5
1F73
330
2
100
AcDbEntity
  8
0
100
AcDbMText
 10
1390.456900191412
 20
-138.5007534971338
 30
0.0
 40
3.0
 41
0.0
 71
     4
 72
     5
  1
\A1; 
  7
DAYUS
 73
     1
 44
1.0
1001
ACAD
1000
MTEXTBEGIN
1070
    73
1070
     1
1070
    44
1040
1.0
1070
    74
1070
     0
1000
MTEXTEND
  0
MTEXT
  5
1FBB
330
2
100
AcDbEntity
  8
0
100
AcDbMText
 10
1342.728821614999
 20
-142.218465522253
 30
0.0
 40
3.0
 41
0.0
 71
     4
 72
     5
  1
\A1; 
  7
DAYUS
 73
     1
 44
1.0
1001
ACAD
1000
MTEXTBEGIN
1070
    73
1070
     1
1070
    44
1040
1.0
1070
    74
1070
     0
1000
MTEXTEND
  0
MTEXT
  5
2095
330
2
100
AcDbEntity
  8
0
100
AcDbMText
 10
1790.901573512263
 20
-309.0767481339192
 30
0.0
 40
3.0
 41
0.0
 71
     4
 72
     5
  1
\A1; 
  7
DAYUS
 73
     1
 44
1.0
1001
ACAD
1000
MTEXTBEGIN
1070
    73
1070
     1
1070
    44
1040
1.0
1070
    74
1070
     0
1000
MTEXTEND
  0
MTEXT
  5
4482
330
2
100
AcDbEntity
  8
0
100
AcDbMText
 10
1320.557617281614
 20
257.7973527445213
 30
0.0
 40
3.0
 41
0.0
 71
     4
 72
     5
  1
\A1; 
  7
DAYUS
 73
     1
 44
1.0
1001
ACAD
1000
MTEXTBEGIN
1070
    73
1070
     1
1070
    44
1040
1.0
1070
    74
1070
     0
1000
MTEXTEND
  0
TEXT
  5
5652
330
2
100
AcDbEntity
  8
0
100
AcDbText
 10
549.210501383538
 20
90.98652696147508
 30
0.0
 40
3.6
  1
 
  7
DAYUS
100
AcDbText
  0
TEXT
  5
5655
330
2
100
AcDbEntity
  8
0
100
AcDbText
 10
664.2001390109811
 20
90.98652696147508
 30
0.0
 40
3.6
  1
 
  7
DAYUS
100
AcDbText
  0
TEXT
  5
5656
330
2
100
AcDbEntity
  8
0
100
AcDbText
 10
695.157424693998
 20
90.51232720048508
 30
0.0
 40
3.6
  1
 
  7
DAYUS
100
AcDbText
  0
TEXT
  5
5CBC
330
2
100
AcDbEntity
  8
LOGO
 62
     7
100
AcDbText
 10
144.1793519104209
 20
347.1849546628932
 30
0.0
 40
5.471207674208144
  1
Order example:
 41
0.8
  7
CHINESET
100
AcDbText
  0
TEXT
  5
5CBD
330
2
100
AcDbEntity
  8
LOGO
 62
     7
100
AcDbText
 10
145.1609318122207
 20
354.8872822401746
 30
0.0
 40
8.206811511312215
  1
訂購代號：
  7
CHINESET
100
AcDbText
  0
LINE
  5
5CBE
330
2
100
AcDbEntity
  8
LOGO
 62
     4
100
AcDbLine
 10
141.8020936187081
 20
324.1272194677063
 30
0.0
 11
141.8020936187081
 21
365.1612770242676
 31
0.0
  0
TEXT
  5
5CBF
330
2
100
AcDbEntity
  8
LOGO
  6
Continuous
100
AcDbText
 10
66.26678492024794
 20
332.1882981489006
 30
0.0
 40
6.155108633484163
  1
金器工業股份有限公司
  7
CHINESET
100
AcDbText
  0
TEXT
  5
5CC0
330
2
100
AcDbEntity
  8
LOGO
  6
Continuous
100
AcDbText
 10
54.96106808872872
 20
326.0319835967035
 30
0.0
 40
4.103405755656107
  1
MINDMAN INDUSTRIAL CO., LTD.
 41
0.85
  7
CHINESET
100
AcDbText
  0
LINE
  5
5CC1
330
2
100
AcDbEntity
  8
LOGO
 62
     4
100
AcDbLine
 10
141.8020936187081
 20
356.9544655129554
 30
0.0
 11
81.61880920241783
 21
356.9544655129554
 31
0.0
  0
LINE
  5
5CC2
330
2
100
AcDbEntity
  8
LOGO
 62
     4
100
AcDbLine
 10
141.8020936187081
 20
348.7476540016431
 30
0.0
 11
81.61880920241783
 21
348.7476540016431
 31
0.0
  0
LINE
  5
5CC3
330
2
100
AcDbEntity
  8
LOGO
 62
     4
100
AcDbLine
 10
141.8020936187081
 20
340.5408424903314
 30
0.0
 11
51.52716699427347
 21
340.5408424903314
 31
0.0
  0
LINE
  5
5CC4
330
2
100
AcDbEntity
  8
LOGO
 62
     4
100
AcDbLine
 10
81.61880920241783
 20
340.5408424903314
 30
0.0
 11
81.61880920241783
 21
365.1612770242676
 31
0.0
  0
TEXT
  5
5CC5
330
2
100
AcDbEntity
  8
LOGO
100
AcDbText
 10
122.7512434931956
 20
342.5925453681587
 30
0.0
 40
4.103405755656107
  1
mm
  7
CHINESET
 72
     1
 11
127.831650619246
 21
344.6442482459868
 31
0.0
100
AcDbText
 73
     2
  0
TEXT
  5
5CC6
330
2
100
AcDbEntity
  8
LOGO
100
AcDbText
 10
120.6018404783281
 20
359.0061683907832
 30
0.0
 40
4.103405755656107
  1
1 : 1
  7
CHINESET
 72
     1
 11
127.831650619246
 21
361.0578712686113
 31
0.0
100
AcDbText
 73
     2
  0
LINE
  5
5CC7
330
2
100
AcDbEntity
  8
LOGO
 62
     4
100
AcDbLine
 10
114.4460552476672
 20
340.5408424903314
 30
0.0
 11
114.4460552476672
 21
365.1612770242676
 31
0.0
  0
TEXT
  5
5CC8
330
2
100
AcDbEntity
  8
LOGO
100
AcDbText
 10
85.00228707326488
 20
359.0081877833795
 30
268.9304532596222
 40
4.103405755656107
  1
比例 Scale:
 41
0.9
  7
CHINESET
 72
     4
 11
98.03243222504251
 21
361.0578712686113
 31
268.9304532596222
100
AcDbText
  0
TEXT
  5
5CC9
330
2
100
AcDbEntity
  8
LOGO
100
AcDbText
 10
84.76597486680075
 20
350.8570778511816
 30
268.9304532596222
 40
4.103405755656107
  1
投影  View:
 41
0.9
  7
CHINESET
 72
     4
 11
98.03243222504251
 21
352.851059757299
 31
268.9304532596222
100
AcDbText
  0
TEXT
  5
5CCA
330
2
100
AcDbEntity
  8
LOGO
100
AcDbText
 10
85.16715605451892
 20
342.5925453681587
 30
268.9304532596222
 40
4.103405755656107
  1
單位  Unit:
 41
0.9
  7
CHINESET
 72
     4
 11
98.03243222504251
 21
344.6442482459868
 31
268.9304532596222
100
AcDbText
  0
LWPOLYLINE
  5
5CCB
330
2
100
AcDbEntity
  8
LOGO
 62
     4
100
AcDbPolyline
 90
        4
 70
     1
 43
0.0
 10
51.52716699427346
 20
365.1612770242676
 10
346.6320751193239
 20
365.1612770242676
 10
346.6320751193239
 20
763.1903569101933
 10
51.52716699427346
 20
763.1903569101933
1001
GENIUS_GENREC_14
1002
{
1000
PYDIR
1011
51.52716699427346
1021
763.1903569101933
1031
0.0
1002
}
1002
{
1000
PXDIR
1011
346.6320751193239
1021
365.1612770242676
1031
0.0
1002
}
1002
{
1000
PORI
1011
51.52716699427346
1021
365.1612770242676
1031
0.0
1002
}
1002
{
1000
PINS
1011
51.52716699427346
1021
365.1612770242676
1031
0.0
1002
}
1002
{
1000
PINS2
1011
346.6320751193239
1021
763.1903569101933
1031
0.0
1002
}
1002
{
1000
C
1070
     1
1002
}
1001
GENIUS_GENODEF_13
1002
{
1000
HIER
1070
     0
1002
}
1002
{
1000
MANEDIT
1070
     0
1002
}
1002
{
1000
NOSEL
1070
     0
1002
}
1002
{
1000
BEHIND
1070
     0
1002
}
1002
{
1000
OTHER
1070
     0
1002
}
1002
{
1000
REACTOR
1002
}
1001
GENIUS_GENOBJ-N-REC_13
1002
{
1000
OWNER
1000
GEN
1002
}
  0
SOLID
  5
5CCC
330
2
100
AcDbEntity
  8
LOGO
 62
     5
100
AcDbTrace
 10
55.78451632041979
 20
347.3621704852932
 30
0.0
 11
57.55872129579834
 21
347.3621704852927
 31
0.0
 12
64.96143860686095
 22
364.1865280104361
 32
0.0
 13
66.73564358224027
 23
364.1865280104351
 33
0.0
  0
SOLID
  5
5CCD
330
2
100
AcDbEntity
  8
LOGO
 62
     5
100
AcDbTrace
 10
58.29287507871569
 20
347.3621704852932
 30
0.0
 11
60.06708005409425
 21
347.3621704852932
 31
0.0
 12
66.73564358224027
 22
362.840579408424
 32
0.0
 13
64.96143860686095
 23
356.3351611653688
 33
0.0
  0
SOLID
  5
5CCE
330
2
100
AcDbEntity
  8
LOGO
 62
     2
100
AcDbTrace
 10
57.55872129579834
 20
347.3621704852927
 30
0.0
 11
58.29287507871569
 21
347.3621704852932
 31
0.0
 12
66.73564358224027
 22
364.1865280104351
 32
0.0
 13
67.46979736515687
 23
364.1865280104351
 33
0.0
  0
SOLID
  5
5CCF
330
2
100
AcDbEntity
  8
LOGO
 62
     5
100
AcDbTrace
 10
52.94003065653234
 20
341.2442222943326
 30
0.0
 11
53.55182547562927
 21
341.2442222943326
 31
0.0
 12
55.27468730450698
 22
344.3031963898127
 32
0.0
 13
55.88648212360192
 23
344.3031963898127
 33
0.0
  0
SOLID
  5
5CD0
330
2
100
AcDbEntity
  8
LOGO
 62
     5
100
AcDbTrace
 10
55.27468730450698
 20
344.3031963898127
 30
0.0
 11
55.88648212360192
 21
344.3031963898127
 31
0.0
 12
55.27468730450698
 22
341.2442222943326
 32
0.0
 13
55.88648212360192
 23
341.2442222943326
 33
0.0
  0
SOLID
  5
5CD1
330
2
100
AcDbEntity
  8
LOGO
 62
     5
100
AcDbTrace
 10
55.27468730450698
 20
341.2442222943326
 30
0.0
 11
55.88648212360192
 21
341.2442222943326
 31
0.0
 12
57.60934395248236
 22
344.3031963898127
 32
0.0
 13
58.2211387715781
 23
344.3031963898127
 33
0.0
  0
SOLID
  5
5CD2
330
2
100
AcDbEntity
  8
LOGO
 62
     5
100
AcDbTrace
 10
57.60934395248236
 20
344.3031963898127
 30
0.0
 11
58.2211387715781
 21
344.3031963898127
 31
0.0
 12
57.60934395248236
 22
341.2442222943326
 32
0.0
 13
58.2211387715781
 23
341.2442222943326
 33
0.0
  0
POLYLINE
  5
5CD3
330
2
100
AcDbEntity
  8
LOGO
 62
     5
100
AcDb2dPolyline
 66
     1
 10
0.0
 20
0.0
 30
0.0
 40
0.6127752595113121
 41
0.6127752595113121
  0
VERTEX
  5
5CD4
330
5CD3
100
AcDbEntity
  8
LOGO
 62
     5
100
AcDbVertex
100
AcDb2dVertex
 10
78.11649787805143
 20
343.0796067516206
 30
0.0
 42
1.0
  0
VERTEX
  5
5CD5
330
5CD3
100
AcDbEntity
  8
LOGO
 62
     5
100
AcDbVertex
100
AcDb2dVertex
 10
76.27817209951726
 20
343.0796067516206
 30
0.0
 42
1.0
  0
SEQEND
  5
5CD6
330
5CD3
100
AcDbEntity
  8
LOGO
 62
     5
  0
POLYLINE
  5
5CD7
330
2
100
AcDbEntity
  8
LOGO
 62
     5
100
AcDb2dPolyline
 66
     1
 10
0.0
 20
0.0
 30
0.0
 70
     1
  0
VERTEX
  5
5CD8
330
5CD7
100
AcDbEntity
  8
LOGO
 62
     5
100
AcDbVertex
100
AcDb2dVertex
 10
72.8128462382488
 20
342.7737093420721
 30
0.0
 42
1.000000057330635
  0
VERTEX
  5
5CD9
330
5CD7
100
AcDbEntity
  8
LOGO
 62
     5
100
AcDbVertex
100
AcDb2dVertex
 10
74.64823069553716
 20
342.7737093420721
 30
0.0
 42
1.000000057330635
  0
SEQEND
  5
5CDA
330
5CD7
100
AcDbEntity
  8
LOGO
 62
     5
  0
CIRCLE
  5
5CDB
330
2
100
AcDbEntity
  8
LOGO
 62
     5
100
AcDbCircle
 10
73.73053846689455
 20
342.7737093420721
 30
0.0
 40
0.917692228644141
  0
POLYLINE
  5
5CDC
330
2
100
AcDbEntity
  8
LOGO
 62
     5
100
AcDb2dPolyline
 66
     1
 10
0.0
 20
0.0
 30
0.0
 70
     1
 40
0.6127752595113121
 41
0.6127752595113121
  0
VERTEX
  5
5CDD
330
5CDC
100
AcDbEntity
  8
LOGO
 62
     5
100
AcDbVertex
100
AcDb2dVertex
 10
72.50498794787112
 20
342.7737093420721
 30
0.0
 42
1.0
  0
VERTEX
  5
5CDE
330
5CDC
100
AcDbEntity
  8
LOGO
 62
     5
100
AcDbVertex
100
AcDb2dVertex
 10
74.95608898591601
 20
342.7737093420721
 30
0.0
 42
1.0
  0
SEQEND
  5
5CDF
330
5CDC
100
AcDbEntity
  8
LOGO
 62
     5
  0
LINE
  5
5CE0
330
2
100
AcDbEntity
  8
LOGO
100
AcDbLine
 10
78.42092462697545
 20
341.2442222943326
 30
0.0
 11
78.42092462697545
 21
343.0796067516206
 31
0.0
  0
SOLID
  5
5CE1
330
2
100
AcDbEntity
  8
LOGO
 62
     5
100
AcDbTrace
 10
74.64816951605809
 20
344.3031963898127
 30
0.0
 11
75.25996433515302
 21
344.3031963898127
 31
0.0
 12
74.64816951605809
 22
341.2442222943326
 32
0.0
 13
75.25996433515302
 23
341.2442222943326
 33
0.0
  0
SOLID
  5
5CE2
330
2
100
AcDbEntity
  8
LOGO
 62
     5
100
AcDbTrace
 10
75.97374535059131
 20
341.2442222943326
 30
0.0
 11
76.58554016968782
 21
341.2442222943326
 31
0.0
 12
75.97374535059131
 22
344.3031963898127
 32
0.0
 13
76.58554016968782
 23
344.3031963898127
 33
0.0
  0
SOLID
  5
5CE3
330
2
100
AcDbEntity
  8
LOGO
 62
     5
100
AcDbTrace
 10
77.80912980788045
 20
343.0796067516206
 30
0.0
 11
78.42092462697545
 21
343.0796067516206
 31
0.0
 12
77.80912980788045
 22
341.2442222943326
 32
0.0
 13
78.42092462697545
 23
341.2442222943326
 33
0.0
  0
SOLID
  5
5CE4
330
2
100
AcDbEntity
  8
LOGO
 62
     5
100
AcDbTrace
 10
75.91256586868147
 20
362.840579408424
 30
0.0
 11
74.13836089330368
 21
356.3351611653688
 31
0.0
 12
75.91256586868147
 22
347.3621704852927
 32
0.0
 13
74.13836089330368
 23
347.3621704852927
 33
0.0
  0
SOLID
  5
5CE5
330
2
100
AcDbEntity
  8
LOGO
 62
     5
100
AcDbTrace
 10
76.64671965159766
 20
347.3621704852927
 30
0.0
 11
78.42092462697545
 21
347.3621704852927
 31
0.0
 12
76.64671965159766
 22
364.1865280104351
 32
0.0
 13
78.42092462697545
 23
364.1865280104361
 33
0.0
  0
SOLID
  5
5CE6
330
2
100
AcDbEntity
  8
LOGO
 62
     2
100
AcDbTrace
 10
75.91256586868147
 20
364.1865280104361
 30
0.0
 11
76.64671965159766
 21
364.1865280104351
 31
0.0
 12
75.91256586868147
 22
347.3621704852927
 32
0.0
 13
76.64671965159766
 23
347.3621704852927
 33
0.0
  0
POLYLINE
  5
5CE7
330
2
100
AcDbEntity
  8
LOGO
 62
     5
100
AcDb2dPolyline
 66
     1
 10
0.0
 20
0.0
 30
0.0
 40
0.6127752595113121
 41
0.6127752595113121
  0
VERTEX
  5
5CE8
330
5CE7
100
AcDbEntity
  8
LOGO
 62
     5
100
AcDbVertex
100
AcDb2dVertex
 10
69.34739801801976
 20
343.0796067516206
 30
0.0
 42
1.0
  0
VERTEX
  5
5CE9
330
5CE7
100
AcDbEntity
  8
LOGO
 62
     5
100
AcDbVertex
100
AcDb2dVertex
 10
67.50907223948525
 20
343.0796067516206
 30
0.0
 42
1.0
  0
SEQEND
  5
5CEA
330
5CE7
100
AcDbEntity
  8
LOGO
 62
     5
  0
POLYLINE
  5
5CEB
330
2
100
AcDbEntity
  8
LOGO
 62
     5
100
AcDb2dPolyline
 66
     1
 10
0.0
 20
0.0
 30
0.0
 40
0.6127752595113121
 41
0.6127752595113121
  0
VERTEX
  5
5CEC
330
5CEB
100
AcDbEntity
  8
LOGO
 62
     5
100
AcDbVertex
100
AcDb2dVertex
 10
71.18278247530622
 20
343.0796067516206
 30
0.0
 42
1.0
  0
VERTEX
  5
5CED
330
5CEB
100
AcDbEntity
  8
LOGO
 62
     5
100
AcDbVertex
100
AcDb2dVertex
 10
69.34445669677285
 20
343.0796067516206
 30
0.0
 42
1.0
  0
SEQEND
  5
5CEE
330
5CEB
100
AcDbEntity
  8
LOGO
 62
     5
  0
POLYLINE
  5
5CEF
330
2
100
AcDbEntity
  8
LOGO
 62
     5
100
AcDb2dPolyline
 66
     1
 10
0.0
 20
0.0
 30
0.0
 40
0.6127752595113121
 41
0.6127752595113121
  0
VERTEX
  5
5CF0
330
5CEF
100
AcDbEntity
  8
LOGO
 62
     5
100
AcDbVertex
100
AcDb2dVertex
 10
62.41368261527418
 20
343.0796067516206
 30
0.0
 42
1.0
  0
VERTEX
  5
5CF1
330
5CEF
100
AcDbEntity
  8
LOGO
 62
     5
100
AcDbVertex
100
AcDb2dVertex
 10
60.57535683674081
 20
343.0796067516206
 30
0.0
 42
1.0
  0
SEQEND
  5
5CF2
330
5CEF
100
AcDbEntity
  8
LOGO
 62
     5
  0
SOLID
  5
5CF3
330
2
100
AcDbEntity
  8
LOGO
 62
     5
100
AcDbTrace
 10
60.27093008781602
 20
344.3031963898127
 30
0.0
 11
60.88272490691096
 21
344.3031963898127
 31
0.0
 12
60.27093008781602
 22
341.2442222943326
 32
0.0
 13
60.88272490691096
 23
341.2442222943326
 33
0.0
  0
SOLID
  5
5CF4
330
2
100
AcDbEntity
  8
LOGO
 62
     5
100
AcDbTrace
 10
62.10631454510442
 20
343.0796067516206
 30
0.0
 11
62.71810936420132
 21
343.0796067516206
 31
0.0
 12
62.10631454510442
 22
341.2442222943326
 32
0.0
 13
62.71810936420132
 23
341.2442222943326
 33
0.0
  0
POLYLINE
  5
5CF5
330
2
100
AcDbEntity
  8
LOGO
 62
     5
100
AcDb2dPolyline
 66
     1
 10
0.0
 20
0.0
 30
0.0
 70
     1
 40
0.6127752595113121
 41
0.6127752595113121
  0
VERTEX
  5
5CF6
330
5CF5
100
AcDbEntity
  8
LOGO
 62
     5
100
AcDbVertex
100
AcDb2dVertex
 10
63.7358880878383
 20
342.7737093420721
 30
0.0
 42
1.0
  0
VERTEX
  5
5CF7
330
5CF5
100
AcDbEntity
  8
LOGO
 62
     5
100
AcDbVertex
100
AcDb2dVertex
 10
66.18698912588437
 20
342.7737093420721
 30
0.0
 42
1.0
  0
SEQEND
  5
5CF8
330
5CF5
100
AcDbEntity
  8
LOGO
 62
     5
  0
SOLID
  5
5CF9
330
2
100
AcDbEntity
  8
LOGO
 62
     5
100
AcDbTrace
 10
65.87906965602448
 20
345.2208886184574
 30
0.0
 11
66.49086447512025
 21
345.2208886184574
 31
0.0
 12
65.87906965602448
 22
341.2442222943326
 32
0.0
 13
66.49086447512025
 23
341.2442222943326
 33
0.0
  0
SOLID
  5
5CFA
330
2
100
AcDbEntity
  8
LOGO
 62
     5
100
AcDbTrace
 10
67.20464549056123
 20
344.3031963898127
 30
0.0
 11
67.81644030965617
 21
344.3031963898127
 31
0.0
 12
67.20464549056123
 22
341.2442222943326
 32
0.0
 13
67.81644030965617
 23
341.2442222943326
 33
0.0
  0
SOLID
  5
5CFB
330
2
100
AcDbEntity
  8
LOGO
 62
     5
100
AcDbTrace
 10
69.04002994784767
 20
343.0796067516206
 30
0.0
 11
69.65182476694457
 21
343.0796067516206
 31
0.0
 12
69.04002994784767
 22
341.2442222943326
 32
0.0
 13
69.65182476694457
 23
341.2442222943326
 33
0.0
  0
SOLID
  5
5CFC
330
2
100
AcDbEntity
  8
LOGO
 62
     5
100
AcDbTrace
 10
70.87541440513604
 20
343.0796067516206
 30
0.0
 11
71.48720922423217
 21
343.0796067516206
 31
0.0
 12
70.87541440513604
 22
341.2442222943318
 32
0.0
 13
71.48720922423217
 23
341.2442222943318
 33
0.0
  0
SOLID
  5
5CFD
330
2
100
AcDbEntity
  8
LOGO
 62
     5
100
AcDbTrace
 10
58.94535425328007
 20
344.7314527631802
 30
0.0
 11
59.55714907237776
 21
344.7314527631802
 31
0.0
 12
58.94535425328007
 22
345.2208886184574
 32
0.0
 13
59.55714907237776
 23
345.2208886184574
 33
0.0
  0
SOLID
  5
5CFE
330
2
100
AcDbEntity
  8
LOGO
 62
     5
100
AcDbTrace
 10
58.94535425328007
 20
344.3031963898127
 30
0.0
 11
59.55714907237776
 21
344.3031963898127
 31
0.0
 12
58.94535425328007
 22
341.2442222943318
 32
0.0
 13
59.55714907237776
 23
341.2442222943326
 33
0.0
  0
SOLID
  5
5CFF
330
2
100
AcDbEntity
  8
LOGO
 62
     5
100
AcDbTrace
 10
64.96143860686095
 20
347.3621704852932
 30
0.0
 11
66.73564358224027
 21
347.3621704852932
 31
0.0
 12
64.96143860686095
 22
356.3351611653688
 32
0.0
 13
66.73564358224027
 23
362.840579408424
 33
0.0
  0
SOLID
  5
5D00
330
2
100
AcDbEntity
  8
LOGO
 62
     5
100
AcDbTrace
 10
67.46979736515687
 20
364.1865280104351
 30
0.0
 11
69.24400234053425
 21
364.1865280104361
 31
0.0
 12
67.46979736515687
 22
348.7081190873043
 32
0.0
 13
69.24400234053425
 23
355.2135373303595
 33
0.0
  0
SOLID
  5
5D01
330
2
100
AcDbEntity
  8
LOGO
 62
     2
100
AcDbTrace
 10
66.73564358224027
 20
364.1865280104351
 30
0.0
 11
67.46979736515687
 21
364.1865280104351
 31
0.0
 12
66.73564358224027
 22
347.3621704852932
 32
0.0
 13
67.46979736515687
 23
347.3621704852932
 33
0.0
  0
SOLID
  5
5D02
330
2
100
AcDbEntity
  8
LOGO
 62
     5
100
AcDbTrace
 10
67.46979736515687
 20
348.7081190873043
 30
0.0
 11
69.24400234053425
 21
355.2135373303595
 31
0.0
 12
75.91256586868147
 22
364.1865280104361
 32
0.0
 13
74.13836089330368
 23
364.1865280104361
 33
0.0
  0
SOLID
  5
5D03
330
2
100
AcDbEntity
  8
LOGO
 62
     5
100
AcDbTrace
 10
67.46979736515687
 20
347.3621704852932
 30
0.0
 11
69.24400234053425
 21
347.3621704852932
 31
0.0
 12
75.91256586868147
 22
362.840579408424
 32
0.0
 13
74.13836089330368
 23
356.3351611653688
 33
0.0
  0
SOLID
  5
5D04
330
2
100
AcDbEntity
  8
LOGO
 62
     2
100
AcDbTrace
 10
66.73564358224027
 20
347.3621704852932
 30
0.0
 11
67.46979736515687
 21
347.3621704852932
 31
0.0
 12
75.91256586868147
 22
364.1865280104361
 32
0.0
 13
76.64671965159766
 23
364.1865280104351
 33
0.0
  0
LWPOLYLINE
  5
5D05
330
2
100
AcDbEntity
  8
LOGO
 62
     4
100
AcDbPolyline
 90
        4
 70
     1
 43
0.0
 10
51.52716699427346
 20
365.1612770242676
 10
346.6320751193239
 20
365.1612770242676
 10
346.6320751193239
 20
324.1272194677059
 10
51.52716699427346
 20
324.1272194677059
1001
GENIUS_GENREC_14
1002
{
1000
PYDIR
1011
51.52716699427346
1021
324.1272194677059
1031
0.0
1002
}
1002
{
1000
PXDIR
1011
346.6320751193239
1021
365.1612770242676
1031
0.0
1002
}
1002
{
1000
PORI
1011
51.52716699427346
1021
365.1612770242676
1031
0.0
1002
}
1002
{
1000
PINS
1011
51.52716699427346
1021
365.1612770242676
1031
0.0
1002
}
1002
{
1000
PINS2
1011
346.6320751193239
1021
324.1272194677059
1031
0.0
1002
}
1002
{
1000
C
1070
     1
1002
}
1001
GENIUS_GENOBJ-N-REC_13
1002
{
1000
OWNER
1000
GEN
1002
}
1001
GENIUS_GENODEF_13
1002
{
1000
HIER
1070
     0
1002
}
1002
{
1000
MANEDIT
1070
     0
1002
}
1002
{
1000
NOSEL
1070
     0
1002
}
1002
{
1000
BEHIND
1070
     0
1002
}
1002
{
1000
OTHER
1070
     0
1002
}
1002
{
1000
REACTOR
1002
}
  0
LINE
  5
5D06
330
2
100
AcDbEntity
  8
LOGO
 62
     4
100
AcDbLine
 10
236.478205098064
 20
342.5925453681596
 30
0.0
 11
236.478205098064
 21
327.5467242640863
 31
0.0
  0
LINE
  5
5D07
330
2
100
AcDbEntity
  8
LOGO
 62
     4
100
AcDbLine
 10
209.1221667270232
 20
342.5925453681596
 30
0.0
 11
209.1221667270232
 21
327.5467242640863
 31
0.0
  0
LINE
  5
5D08
330
2
100
AcDbEntity
  8
LOGO
 62
     4
100
AcDbLine
 10
236.478205098064
 20
327.5467242640863
 30
0.0
 11
209.1221667270232
 21
327.5467242640863
 31
0.0
  0
LINE
  5
5D09
330
2
100
AcDbEntity
  8
LOGO
 62
     4
100
AcDbLine
 10
242.02066034134
 20
361.0578712686113
 30
0.0
 11
198.2426186038307
 21
361.0578712686113
 31
0.0
  0
LINE
  5
5D0A
330
2
100
AcDbEntity
  8
LOGO
 62
     4
100
AcDbLine
 10
242.02066034134
 20
348.7476540016431
 30
0.0
 11
198.2426186038307
 21
348.7476540016431
 31
0.0
  0
LINE
  5
5D0B
330
2
100
AcDbEntity
  8
LOGO
 62
     4
100
AcDbLine
 10
198.2426186038307
 20
361.0578712686113
 30
0.0
 11
198.2426186038307
 21
348.7476540016431
 31
0.0
  0
LINE
  5
5D0C
330
2
100
AcDbEntity
  8
LOGO
 62
     4
100
AcDbLine
 10
242.02066034134
 20
361.0578712686113
 30
0.0
 11
242.02066034134
 21
348.7476540016431
 31
0.0
  0
LINE
  5
5D0D
330
2
100
AcDbEntity
  8
LOGO
 62
     4
100
AcDbLine
 10
224.2274840166847
 20
348.7476540016431
 30
0.0
 11
224.2274840166847
 21
342.5925453681596
 31
0.0
  0
TEXT
  5
5D0E
330
2
100
AcDbEntity
  8
LOGO
  6
Continuous
 62
     7
100
AcDbText
 10
200.4299514168813
 20
351.317393858587
 30
0.0
 40
7.182
  1
MAF401
  7
CHINESET
100
AcDbText
  0
LINE
  5
5D0F
330
2
100
AcDbEntity
  8
LOGO
 62
     4
100
AcDbLine
 10
236.478205098064
 20
342.5925453681596
 30
0.0
 11
209.1221667270232
 21
342.5925453681596
 31
0.0
  0
TEXT
  5
5D10
330
2
100
AcDbEntity
  8
LOGO
  6
Continuous
100
AcDbText
 10
217.9006328323905
 20
329.6704100075215
 30
268.9304532596222
 40
3.077999999999999
  1
Model
 41
0.8
  7
CHINESET
100
AcDbText
  0
TEXT
  5
5D11
330
2
100
AcDbEntity
  8
LOGO
100
AcDbText
 10
217.0813692920164
 20
335.3763586511764
 30
268.9304532596222
 40
5.129999999999999
  1
型號
  7
CHINESET
100
AcDbText
  0
LINE
  5
5D12
330
2
100
AcDbEntity
  8
LOGO
  6
Continuous
 62
     7
100
AcDbLine
 10
244.8607997127196
 20
354.8591579000937
 30
0.0
 11
250.2965424779434
 21
354.8591579000937
 31
0.0
  0
LINE
  5
5D13
330
2
100
AcDbEntity
  8
LOGO
 62
     4
100
AcDbLine
 10
280.0932454976782
 20
342.5925453681596
 30
0.0
 11
280.0932454976782
 21
327.5467242640863
 31
0.0
  0
LINE
  5
5D14
330
2
100
AcDbEntity
  8
LOGO
 62
     4
100
AcDbLine
 10
243.770610027865
 20
342.5925453681596
 30
0.0
 11
243.770610027865
 21
327.5467242640863
 31
0.0
  0
LINE
  5
5D15
330
2
100
AcDbEntity
  8
LOGO
 62
     4
100
AcDbLine
 10
280.0932454976782
 20
327.5467242640863
 30
0.0
 11
243.770610027865
 21
327.5467242640863
 31
0.0
  0
LINE
  5
5D16
330
2
100
AcDbEntity
  8
LOGO
 62
     4
100
AcDbLine
 10
273.0462736701609
 20
361.0578712686113
 30
0.0
 11
252.0112327852705
 21
361.0578712686113
 31
0.0
  0
LINE
  5
5D17
330
2
100
AcDbEntity
  8
LOGO
 62
     4
100
AcDbLine
 10
273.0462736701609
 20
348.7476540016431
 30
0.0
 11
252.0112327852705
 21
348.7476540016431
 31
0.0
  0
LINE
  5
5D18
330
2
100
AcDbEntity
  8
LOGO
 62
     4
100
AcDbLine
 10
252.0112327852705
 20
361.0578712686113
 30
0.0
 11
252.0112327852705
 21
348.7476540016431
 31
0.0
  0
LINE
  5
5D19
330
2
100
AcDbEntity
  8
LOGO
 62
     4
100
AcDbLine
 10
273.0462736701609
 20
361.0578712686113
 30
0.0
 11
273.0462736701609
 21
348.7476540016431
 31
0.0
  0
LINE
  5
5D1A
330
2
100
AcDbEntity
  8
LOGO
 62
     4
100
AcDbLine
 10
261.4694005733269
 20
348.7476540016431
 30
0.0
 11
261.4694005733269
 21
342.5925453681596
 31
0.0
  0
TEXT
  5
5D1B
330
2
100
AcDbEntity
  8
LOGO
  6
Continuous
 62
     7
100
AcDbText
 10
257.4126194201873
 20
351.317393858587
 30
0.0
 40
7.182
  1
*A
  7
CHINESET
100
AcDbText
  0
LINE
  5
5D1C
330
2
100
AcDbEntity
  8
LOGO
 62
     4
100
AcDbLine
 10
280.0932454976782
 20
342.5925453681596
 30
0.0
 11
243.770610027865
 21
342.5925453681596
 31
0.0
  0
TEXT
  5
5D1D
330
2
100
AcDbEntity
  8
LOGO
  6
Continuous
100
AcDbText
 10
253.2675488589528
 20
329.6704100075215
 30
268.9304532596222
 40
3.077999999999999
  1
Bore size
 41
0.8
  7
CHINESET
100
AcDbText
  0
TEXT
  5
5D1E
330
2
100
AcDbEntity
  8
LOGO
100
AcDbText
 10
246.4698981098061
 20
335.3763586511764
 30
268.9304532596222
 40
5.129999999999999
  1
配管口徑代號
  7
CHINESET
100
AcDbText
  0
TEXT
  5
5D1F
330
2
100
AcDbEntity
  8
LOGO
100
AcDbText
 10
143.1561446519277
 20
326.310215133833
 30
0.0
 40
4.104
  1
20809252
 41
0.7
  7
CHINESET
 72
     1
 11
153.6897446519277
 21
326.310215133833
 31
0.0
100
AcDbText
  0
LINE
  5
5D20
330
2
100
AcDbEntity
  8
LOGO
 62
     4
100
AcDbLine
 10
166.4260936187059
 20
332.3340309790195
 30
0.0
 11
166.4260936187079
 21
324.1272194677068
 31
0.0
  0
LINE
  5
5D21
330
2
100
AcDbEntity
  8
LOGO
 62
     4
100
AcDbLine
 10
166.4260936187059
 20
332.3340309790195
 30
0.0
 11
141.8020936187081
 21
332.3340309790195
 31
0.0
  0
CIRCLE
  5
5D22
330
2
100
AcDbEntity
  8
LOGO
  6
Continuous
100
AcDbCircle
 10
122.0440242501429
 20
352.8598369722388
 30
0.0
 40
2.382533965017935
  0
CIRCLE
  5
5D23
330
2
100
AcDbEntity
  8
LOGO
  6
Continuous
100
AcDbCircle
 10
122.0440242501429
 20
352.8598369722388
 30
0.0
 40
1.395953989701805
  0
LINE
  5
5D24
330
2
100
AcDbEntity
  8
LOGO
100
AcDbLine
 10
137.0161441438657
 20
350.4773030072203
 30
0.0
 11
137.0161441438657
 21
355.2423709372572
 31
0.0
  0
LINE
  5
5D25
330
2
100
AcDbEntity
  8
LOGO
100
AcDbLine
 10
129.5470369275099
 20
351.4638829825372
 30
0.0
 11
129.5470369275099
 21
354.2557909619408
 31
0.0
  0
LINE
  5
5D26
330
2
100
AcDbEntity
  8
LOGO
  6
Continuous
100
AcDbLine
 10
129.5470369275099
 20
354.2557909619408
 30
0.0
 11
137.0161441438657
 21
355.2423709372572
 31
0.0
  0
LINE
  5
5D27
330
2
100
AcDbEntity
  8
LOGO
  6
Continuous
100
AcDbLine
 10
129.5470369275099
 20
351.4638829825372
 30
0.0
 11
137.0161441438657
 21
350.4773030072203
 31
0.0
  0
LINE
  5
5D28
330
2
100
AcDbEntity
  8
LOGO
  6
AM_ISO08W050x2
 48
0.3
100
AcDbLine
 10
118.7596655037286
 20
352.8598369722388
 30
0.0
 11
125.3283829965568
 21
352.8598369722388
 31
0.0
1001
GENIUS_GENOREF_13
1005
5D2D
  0
LINE
  5
5D29
330
2
100
AcDbEntity
  8
LOGO
  6
AM_ISO08W050x2
 48
0.3
100
AcDbLine
 10
122.0440242501429
 20
349.5754782258247
 30
0.0
 11
122.0440242501429
 21
356.1441957186527
 31
0.0
1001
GENIUS_GENOREF_13
1005
5D2C
  0
LINE
  5
5D2A
330
2
100
AcDbEntity
  8
LOGO
  6
CENTER
 48
0.5
100
AcDbLine
 10
128.9497159530652
 20
352.8598369722388
 30
0.0
 11
137.768259061806
 21
352.8598369722388
 31
0.0
1001
GENIUS_GENOREF_13
1005
5D2B
  0
POINT
  5
5D2B
330
2
100
AcDbEntity
  8
0
 60
     1
100
AcDbPoint
 10
340.5549399683128
 20
627.8899463475538
 30
0.0
1001
GENIUS_GENOBJ-N-CRS_13
1002
{
1000
OWNER
1000
GEN
1002
}
1001
GENIUS_GENOLIS_13
1002
{
1000
ENT
1005
0
1005
0
1005
0
1005
5D2A
1002
}
1001
GENIUS_GENOENT_13
1002
{
1000
MYREF
1005
5D2B
1002
}
1002
{
1000
GRP
1005
0
1002
}
1001
GENIUS_GENODEF_13
1002
{
1000
HIER
1070
    10
1002
}
1002
{
1000
MANEDIT
1070
     1
1002
}
1002
{
1000
NOSEL
1070
     0
1002
}
1002
{
1000
BEHIND
1070
     0
1002
}
1002
{
1000
OTHER
1070
     0
1002
}
1002
{
1000
REACTOR
1002
}
  0
POINT
  5
5D2C
330
2
100
AcDbEntity
  8
0
 60
     1
100
AcDbPoint
 10
329.230354745458
 20
636.7655328261901
 30
0.0
1001
GENIUS_GENOBJ-N-CRS_13
1002
{
1000
OWNER
1000
GEN
1002
}
1001
GENIUS_GENOLIS_13
1002
{
1000
ENT
1005
0
1005
0
1005
0
1005
5D29
1002
}
1001
GENIUS_GENOENT_13
1002
{
1000
MYREF
1005
5D2C
1002
}
1002
{
1000
GRP
1005
0
1002
}
1001
GENIUS_GENODEF_13
1002
{
1000
HIER
1070
    10
1002
}
1002
{
1000
MANEDIT
1070
     1
1002
}
1002
{
1000
NOSEL
1070
     0
1002
}
1002
{
1000
BEHIND
1070
     0
1002
}
1002
{
1000
OTHER
1070
     0
1002
}
1002
{
1000
REACTOR
1002
}
  0
POINT
  5
5D2D
330
2
100
AcDbEntity
  8
0
 60
     1
100
AcDbPoint
 10
335.5890284432949
 20
627.8899463475538
 30
0.0
1001
GENIUS_GENOBJ-N-CRS_13
1002
{
1000
OWNER
1000
GEN
1002
}
1001
GENIUS_GENOLIS_13
1002
{
1000
ENT
1005
0
1005
0
1005
0
1005
5D28
1002
}
1001
GENIUS_GENOENT_13
1002
{
1000
MYREF
1005
5D2D
1002
}
1002
{
1000
GRP
1005
0
1002
}
1001
GENIUS_GENODEF_13
1002
{
1000
HIER
1070
    10
1002
}
1002
{
1000
MANEDIT
1070
     1
1002
}
1002
{
1000
NOSEL
1070
     0
1002
}
1002
{
1000
BEHIND
1070
     0
1002
}
1002
{
1000
OTHER
1070
     0
1002
}
1002
{
1000
REACTOR
1002
}
  0
LINE
  5
6206
330
2
100
AcDbEntity
  8
AM_7
100
AcDbLine
 10
142.9427337186973
 20
687.2774618932456
 30
0.0
 11
143.9427337186973
 21
687.2774618932456
 31
0.0
  0
LINE
  5
6207
330
2
100
AcDbEntity
  8
AM_7
100
AcDbLine
 10
143.4427337186973
 20
686.7774618932456
 30
0.0
 11
143.4427337186973
 21
687.7774618932456
 31
0.0
  0
LINE
  5
6208
330
2
100
AcDbEntity
  8
AM_7
100
AcDbLine
 10
106.9427337186973
 20
687.2774618932456
 30
0.0
 11
140.9427337186973
 21
687.2774618932456
 31
0.0
  0
LINE
  5
6209
330
2
100
AcDbEntity
  8
AM_7
100
AcDbLine
 10
145.9427337186973
 20
687.2774618932456
 30
0.0
 11
179.9427337186973
 21
687.2774618932456
 31
0.0
  0
LINE
  5
620A
330
2
100
AcDbEntity
  8
AM_7
100
AcDbLine
 10
143.4427337186973
 20
650.7774618932455
 30
0.0
 11
143.4427337186973
 21
684.7774618932455
 31
0.0
  0
LINE
  5
620B
330
2
100
AcDbEntity
  8
AM_7
100
AcDbLine
 10
143.4427337186973
 20
689.7774618932455
 30
0.0
 11
143.4427337186973
 21
723.7774618932455
 31
0.0
  0
LINE
  5
620C
330
2
100
AcDbEntity
  8
AM_7
100
AcDbLine
 10
127.9427337186973
 20
687.2774618932451
 30
0.0
 11
128.9427337186973
 21
687.2774618932451
 31
0.0
  0
LINE
  5
620D
330
2
100
AcDbEntity
  8
AM_7
100
AcDbLine
 10
128.4427337186973
 20
686.777461893245
 30
0.0
 11
128.4427337186973
 21
687.7774618932451
 31
0.0
  0
LINE
  5
620E
330
2
100
AcDbEntity
  8
AM_7
100
AcDbLine
 10
122.9427337186973
 20
687.2774618932451
 30
0.0
 11
125.9427337186973
 21
687.2774618932451
 31
0.0
  0
LINE
  5
620F
330
2
100
AcDbEntity
  8
AM_7
100
AcDbLine
 10
130.9427337186973
 20
687.2774618932451
 30
0.0
 11
133.9427337186973
 21
687.2774618932451
 31
0.0
  0
LINE
  5
6210
330
2
100
AcDbEntity
  8
AM_7
100
AcDbLine
 10
128.4427337186973
 20
681.7774618932451
 30
0.0
 11
128.4427337186973
 21
684.7774618932451
 31
0.0
  0
LINE
  5
6211
330
2
100
AcDbEntity
  8
AM_7
100
AcDbLine
 10
128.4427337186973
 20
689.7774618932451
 30
0.0
 11
128.4427337186973
 21
692.7774618932451
 31
0.0
  0
LINE
  5
6212
330
2
100
AcDbEntity
  8
AM_7
100
AcDbLine
 10
143.4427337186971
 20
393.5093486378212
 30
0.0
 11
143.4427337186971
 21
410.5093486378211
 31
0.0
  0
LINE
  5
6213
330
2
100
AcDbEntity
  8
AM_7
100
AcDbLine
 10
152.9427337186973
 20
432.5093486378212
 30
0.0
 11
153.9427337186973
 21
432.5093486378212
 31
0.0
  0
LINE
  5
6214
330
2
100
AcDbEntity
  8
AM_7
100
AcDbLine
 10
153.4427337186973
 20
432.0093486378211
 30
0.0
 11
153.4427337186973
 21
433.0093486378212
 31
0.0
  0
LINE
  5
6215
330
2
100
AcDbEntity
  8
AM_7
100
AcDbLine
 10
148.4427337186973
 20
432.5093486378212
 30
0.0
 11
150.9427337186973
 21
432.5093486378212
 31
0.0
  0
LINE
  5
6216
330
2
100
AcDbEntity
  8
AM_7
100
AcDbLine
 10
155.9427337186973
 20
432.5093486378212
 30
0.0
 11
158.4427337186973
 21
432.5093486378212
 31
0.0
  0
LINE
  5
6217
330
2
100
AcDbEntity
  8
AM_7
100
AcDbLine
 10
153.4427337186973
 20
427.5093486378211
 30
0.0
 11
153.4427337186973
 21
430.0093486378211
 31
0.0
  0
LINE
  5
6218
330
2
100
AcDbEntity
  8
AM_7
100
AcDbLine
 10
153.4427337186973
 20
435.0093486378211
 30
0.0
 11
153.4427337186973
 21
437.5093486378212
 31
0.0
  0
LINE
  5
6219
330
2
100
AcDbEntity
  8
AM_7
100
AcDbLine
 10
152.9427337186973
 20
498.5093486378211
 30
0.0
 11
153.9427337186973
 21
498.5093486378211
 31
0.0
  0
LINE
  5
621A
330
2
100
AcDbEntity
  8
AM_7
100
AcDbLine
 10
153.4427337186973
 20
498.0093486378211
 30
0.0
 11
153.4427337186973
 21
499.0093486378212
 31
0.0
  0
LINE
  5
621B
330
2
100
AcDbEntity
  8
AM_7
100
AcDbLine
 10
148.4427337186973
 20
498.5093486378211
 30
0.0
 11
150.9427337186973
 21
498.5093486378211
 31
0.0
  0
LINE
  5
621C
330
2
100
AcDbEntity
  8
AM_7
100
AcDbLine
 10
155.9427337186973
 20
498.5093486378211
 30
0.0
 11
158.4427337186973
 21
498.5093486378211
 31
0.0
  0
LINE
  5
621D
330
2
100
AcDbEntity
  8
AM_7
100
AcDbLine
 10
153.4427337186973
 20
493.5093486378211
 30
0.0
 11
153.4427337186973
 21
496.0093486378212
 31
0.0
  0
LINE
  5
621E
330
2
100
AcDbEntity
  8
AM_7
100
AcDbLine
 10
153.4427337186973
 20
501.0093486378211
 30
0.0
 11
153.4427337186973
 21
503.5093486378212
 31
0.0
  0
LINE
  5
621F
330
2
100
AcDbEntity
  8
AM_7
100
AcDbLine
 10
143.4427337186973
 20
422.0078951555904
 30
0.0
 11
143.4427337186973
 21
565.5093486378212
 31
0.0
  0
LINE
  5
6220
330
2
100
AcDbEntity
  8
AM_7
100
AcDbLine
 10
143.4427337186973
 20
411.5093486378212
 30
0.0
 11
143.4427337186973
 21
416.373819912161
 31
0.0
  0
LINE
  5
6221
330
2
100
AcDbEntity
  8
AM_7
100
AcDbLine
 10
274.295745430079
 20
393.5093486378212
 30
0.0
 11
274.2957454300788
 21
410.5093486378211
 31
0.0
  0
LINE
  5
6222
330
2
100
AcDbEntity
  8
AM_7
100
AcDbLine
 10
274.295745430079
 20
422.0078951555904
 30
0.0
 11
274.295745430079
 21
565.5093486378212
 31
0.0
  0
LINE
  5
6223
330
2
100
AcDbEntity
  8
AM_7
100
AcDbLine
 10
274.295745430079
 20
411.5093486378212
 30
0.0
 11
274.295745430079
 21
416.373819912161
 31
0.0
  0
LINE
  5
6224
330
2
100
AcDbEntity
  8
AM_7
100
AcDbLine
 10
100.1713949276873
 20
548.5093486378211
 30
0.0
 11
190.7642067187155
 21
548.5093486378211
 31
0.0
  0
DIMENSION
  5
6225
330
2
100
AcDbEntity
  8
AM_REFDIM
100
AcDbDimension
  2
*D34
 10
96.98904606769538
 20
394.5093486378212
 30
0.0
 11
96.98904606769531
 21
471.5093486378211
 31
0.0
 70
   160
 71
     5
 42
153.9999999999999
  3
AM_ISO$0
100
AcDbAlignedDimension
 13
100.1713949276873
 23
548.5093486378211
 33
0.0
 14
141.342733718697
 24
394.5093486378212
 34
0.0
 50
90.0
100
AcDbRotatedDimension
1001
ACAD
1000
DSTYLE
1002
{
1070
    40
1040
1.5
1002
}
  0
LINE
  5
6226
330
2
100
AcDbEntity
  8
AM_7
100
AcDbLine
 10
273.795745430079
 20
548.5093486378211
 30
0.0
 11
274.795745430079
 21
548.5093486378211
 31
0.0
  0
LINE
  5
6227
330
2
100
AcDbEntity
  8
AM_7
100
AcDbLine
 10
274.295745430079
 20
548.0093486378211
 30
0.0
 11
274.295745430079
 21
549.0093486378212
 31
0.0
  0
LINE
  5
6228
330
2
100
AcDbEntity
  8
AM_7
100
AcDbLine
 10
264.9385342536168
 20
548.5093486378211
 30
0.0
 11
271.795745430079
 21
548.5093486378211
 31
0.0
  0
LINE
  5
6229
330
2
100
AcDbEntity
  8
AM_7
100
AcDbLine
 10
276.795745430079
 20
548.5093486378211
 30
0.0
 11
283.6529566065412
 21
548.5093486378211
 31
0.0
  0
LINE
  5
622A
330
2
100
AcDbEntity
  8
AM_7
100
AcDbLine
 10
274.295745430079
 20
539.1521374613587
 30
0.0
 11
274.295745430079
 21
546.0093486378212
 31
0.0
  0
LINE
  5
622B
330
2
100
AcDbEntity
  8
AM_7
100
AcDbLine
 10
274.295745430079
 20
551.0093486378211
 30
0.0
 11
274.295745430079
 21
557.8665598142832
 31
0.0
  0
DIMENSION
  5
622C
330
2
100
AcDbEntity
  8
AM_REFDIM
100
AcDbDimension
  2
*D35
 10
85.99238017896096
 20
394.5093486378212
 30
0.0
 11
81.6048801789609
 21
479.5093486378211
 31
0.0
 70
    32
  1
(<>)
 71
     5
 42
169.9999999999999
  3
AM_ISO$0
100
AcDbAlignedDimension
 13
119.4427337186973
 23
564.5093486378211
 33
0.0
 14
141.342733718697
 24
394.5093486378212
 34
0.0
 50
90.0
100
AcDbRotatedDimension
1001
ACAD
1000
DSTYLE
1002
{
1070
    40
1040
1.5
1002
}
  0
DIMENSION
  5
622D
330
2
100
AcDbEntity
  8
AM_REFDIM
100
AcDbDimension
  2
*D36
 10
308.295745430079
 20
605.303348637821
 30
0.0
 11
267.4605638801743
 21
605.303348637821
 31
0.0
 70
   160
 71
     5
 42
68.0
  3
AM_ISO$0
100
AcDbAlignedDimension
 13
240.295745430079
 23
536.5093486378212
 33
0.0
 14
308.295745430079
 24
536.5093486378212
 34
0.0
100
AcDbRotatedDimension
1001
ACAD
1000
DSTYLE
1002
{
1070
    40
1040
1.5
1002
}
  0
DIMENSION
  5
622E
330
2
100
AcDbEntity
  8
AM_REFDIM
100
AcDbDimension
  2
*D37
 10
299.295745430079
 20
595.303348637821
 30
0.0
 11
268.1597578200269
 21
595.303348637821
 31
0.0
 70
   160
 71
     5
 42
50.0
  3
AM_ISO$0
100
AcDbAlignedDimension
 13
249.295745430079
 23
563.5093486378211
 33
0.0
 14
299.295745430079
 24
563.5093486378211
 34
0.0
100
AcDbRotatedDimension
1001
ACAD
1000
DSTYLE
1002
{
1070
    40
1040
1.5
1002
}
  0
DIMENSION
  5
622F
330
2
100
AcDbEntity
  8
AM_REFDIM
100
AcDbDimension
  2
*D38
 10
178.4427337186973
 20
625.303348637821
 30
0.0
 11
143.4427337186973
 21
629.428348637821
 31
0.0
 70
    32
 71
     5
 42
70.0
  3
AM_ISO$0
100
AcDbAlignedDimension
 13
108.4427337186973
 23
563.5093486378211
 33
0.0
 14
178.4427337186973
 24
563.5093486378211
 34
0.0
100
AcDbRotatedDimension
1001
ACAD
1000
DSTYLE
1002
{
1070
    40
1040
1.5
1002
}
  0
LINE
  5
6230
330
2
100
AcDbEntity
  8
AM_VIS
100
AcDbLine
 10
151.5427337186972
 20
649.5774618932452
 30
0.0
 11
155.3427337186974
 21
649.5774618932452
 31
0.0
  0
ARC
  5
6231
330
2
100
AcDbEntity
  8
AM_VIS
100
AcDbCircle
 10
155.3427337186974
 20
651.4774618932453
 30
0.0
 40
1.9
100
AcDbArc
 50
270.0
 51
296.5253520165975
  0
ARC
  5
6232
330
2
100
AcDbEntity
  8
AM_VIS
100
AcDbCircle
 10
151.5427337186972
 20
651.4774618932453
 30
0.0
 40
1.9
100
AcDbArc
 50
243.474647983396
 51
270.0
  0
LINE
  5
6233
330
2
100
AcDbEntity
  8
AM_VIS
100
AcDbLine
 10
162.4427337186973
 20
650.7774618932451
 30
0.0
 11
162.4427337186973
 21
657.2899644984975
 31
0.0
  0
LINE
  5
6234
330
2
100
AcDbEntity
  8
AM_VIS
100
AcDbLine
 10
145.4427337186973
 20
649.7774618932451
 30
0.0
 11
161.4427337186973
 21
649.7774618932451
 31
0.0
  0
LINE
  5
6235
330
2
100
AcDbEntity
  8
AM_VIS
100
AcDbLine
 10
144.4427337186973
 20
652.7774618932451
 30
0.0
 11
144.4427337186973
 21
650.7774618932451
 31
0.0
  0
LINE
  5
6236
330
2
100
AcDbEntity
  8
AM_VIS
100
AcDbLine
 10
149.4427337186973
 20
649.277461893245
 30
0.0
 11
157.4427337186973
 21
649.277461893245
 31
0.0
  0
LINE
  5
6237
330
2
100
AcDbEntity
  8
AM_VIS
100
AcDbLine
 10
148.4427337186973
 20
649.7774618932451
 30
0.0
 11
148.4427337186973
 21
649.277461893245
 31
0.0
  0
LINE
  5
6238
330
2
100
AcDbEntity
  8
AM_VIS
100
AcDbLine
 10
158.4427337186973
 20
649.277461893245
 30
0.0
 11
158.4427337186973
 21
649.7774618932451
 31
0.0
  0
ARC
  5
6239
330
2
100
AcDbEntity
  8
AM_VIS
100
AcDbCircle
 10
145.4427337186973
 20
650.7774618932451
 30
0.0
 40
0.9999999999999998
100
AcDbArc
 50
180.0
 51
270.0
  0
ARC
  5
623A
330
2
100
AcDbEntity
  8
AM_VIS
100
AcDbCircle
 10
161.4427337186973
 20
650.7774618932451
 30
0.0
 40
0.9999999999999998
100
AcDbArc
 50
270.0
 51
0.0
  0
LINE
  5
623B
330
2
100
AcDbEntity
  8
AM_VIS
100
AcDbLine
 10
158.4427337186973
 20
649.277461893245
 30
0.0
 11
157.4427337186973
 21
649.277461893245
 31
0.0
  0
LINE
  5
623C
330
2
100
AcDbEntity
  8
AM_VIS
100
AcDbLine
 10
149.4427337186973
 20
649.277461893245
 30
0.0
 11
148.4427337186973
 21
649.277461893245
 31
0.0
  0
LINE
  5
623D
330
2
100
AcDbEntity
  8
AM_VIS
100
AcDbLine
 10
108.4427337186973
 20
670.2774618932451
 30
0.0
 11
125.112430938874
 21
670.2774618932451
 31
0.0
  0
LINE
  5
623E
330
2
100
AcDbEntity
  8
AM_VIS
100
AcDbLine
 10
161.7730364985207
 20
670.2774618932451
 30
0.0
 11
178.4427337186973
 21
670.2774618932451
 31
0.0
  0
LINE
  5
623F
330
2
100
AcDbEntity
  8
AM_VIS
100
AcDbLine
 10
178.4427337186973
 20
704.2774618932451
 30
0.0
 11
161.7730364985207
 21
704.2774618932451
 31
0.0
  0
LINE
  5
6240
330
2
100
AcDbEntity
  8
AM_VIS
100
AcDbLine
 10
125.112430938874
 20
704.2774618932451
 30
0.0
 11
108.4427337186973
 21
704.2774618932451
 31
0.0
  0
LINE
  5
6241
330
2
100
AcDbEntity
  8
AM_VIS
100
AcDbLine
 10
108.4427337186973
 20
671.2774618932451
 30
0.0
 11
108.4427337186973
 21
703.277461893245
 31
0.0
  0
LINE
  5
6242
330
2
100
AcDbEntity
  8
AM_VIS
100
AcDbLine
 10
178.4427337186973
 20
703.277461893245
 30
0.0
 11
178.4427337186973
 21
671.2774618932451
 31
0.0
  0
LINE
  5
6243
330
2
100
AcDbEntity
  8
AM_VIS
100
AcDbLine
 10
151.7493575816154
 20
721.2774618932455
 30
0.0
 11
135.1361098557793
 21
721.2774618932455
 31
0.0
  0
LINE
  5
6244
330
2
100
AcDbEntity
  8
AM_VIS
100
AcDbLine
 10
151.6282335913811
 20
720.2774440543582
 30
0.0
 11
151.7495034179049
 21
721.2774442077063
 31
0.0
  0
LINE
  5
6245
330
2
100
AcDbEntity
  8
AM_VIS
100
AcDbLine
 10
135.2573809468249
 20
720.2774618932456
 30
0.0
 11
151.6280864905698
 21
720.2774618932456
 31
0.0
  0
LINE
  5
6246
330
2
100
AcDbEntity
  8
AM_VIS
100
AcDbLine
 10
135.1359640194898
 20
721.2774442077063
 30
0.0
 11
135.2572338460136
 21
720.2774440543582
 31
0.0
  0
LINE
  5
6247
330
2
100
AcDbEntity
  8
AM_VIS
100
AcDbLine
 10
135.1361098557793
 20
653.2774618932456
 30
0.0
 11
151.7493575816154
 21
653.2774618932456
 31
0.0
  0
LINE
  5
6248
330
2
100
AcDbEntity
  8
AM_VIS
100
AcDbLine
 10
135.1359640194898
 20
653.2774795787843
 30
0.0
 11
135.2572338460136
 21
654.2774797321324
 31
0.0
  0
LINE
  5
6249
330
2
100
AcDbEntity
  8
AM_VIS
100
AcDbLine
 10
151.6280864905698
 20
654.2774618932456
 30
0.0
 11
135.2573809468249
 21
654.2774618932456
 31
0.0
  0
LINE
  5
624A
330
2
100
AcDbEntity
  8
AM_VIS
100
AcDbLine
 10
151.6282335913811
 20
654.2774797321324
 30
0.0
 11
151.7495034179049
 21
653.2774795787843
 31
0.0
  0
LINE
  5
624B
330
2
100
AcDbEntity
  8
AM_VIS
100
AcDbLine
 10
138.9427337186973
 20
721.2774618932455
 30
0.0
 11
138.9427337186973
 21
721.7774618932455
 31
0.0
  0
LINE
  5
624C
330
2
100
AcDbEntity
  8
AM_VIS
100
AcDbLine
 10
143.9427337186973
 20
721.7774618932455
 30
0.0
 11
138.9427337186973
 21
721.7774618932455
 31
0.0
  0
LINE
  5
624D
330
2
100
AcDbEntity
  8
AM_VIS
100
AcDbLine
 10
143.9427337186973
 20
721.2774618932455
 30
0.0
 11
143.9427337186973
 21
721.7774618932455
 31
0.0
  0
LINE
  5
624E
330
2
100
AcDbEntity
  8
AM_VIS
100
AcDbLine
 10
147.9427337186973
 20
721.7774618932455
 30
0.0
 11
143.9427337186973
 21
721.7774618932455
 31
0.0
  0
LINE
  5
624F
330
2
100
AcDbEntity
  8
AM_VIS
100
AcDbLine
 10
147.9427337186973
 20
721.2774618932455
 30
0.0
 11
147.9427337186973
 21
721.7774618932455
 31
0.0
  0
LINE
  5
6250
330
2
100
AcDbEntity
  8
AM_VIS
100
AcDbLine
 10
147.9427337186973
 20
653.2774618932456
 30
0.0
 11
147.9427337186973
 21
652.7774618932455
 31
0.0
  0
LINE
  5
6251
330
2
100
AcDbEntity
  8
AM_VIS
100
AcDbLine
 10
143.9427337186973
 20
652.7774618932455
 30
0.0
 11
147.9427337186973
 21
652.7774618932455
 31
0.0
  0
LINE
  5
6252
330
2
100
AcDbEntity
  8
AM_VIS
100
AcDbLine
 10
143.9427337186973
 20
653.2774618932456
 30
0.0
 11
143.9427337186973
 21
652.7774618932455
 31
0.0
  0
LINE
  5
6253
330
2
100
AcDbEntity
  8
AM_VIS
100
AcDbLine
 10
138.9427337186973
 20
652.7774618932455
 30
0.0
 11
143.9427337186973
 21
652.7774618932455
 31
0.0
  0
LINE
  5
6254
330
2
100
AcDbEntity
  8
AM_VIS
100
AcDbLine
 10
138.9427337186973
 20
653.2774618932456
 30
0.0
 11
138.9427337186973
 21
652.7774618932455
 31
0.0
  0
LINE
  5
6255
330
2
100
AcDbEntity
  8
AM_VIS
100
AcDbLine
 10
164.0142089145197
 20
658.5774618932453
 30
0.0
 11
164.3367520014499
 21
658.5774618932453
 31
0.0
  0
LINE
  5
6256
330
2
100
AcDbEntity
  8
AM_VIS
100
AcDbLine
 10
163.6395352852769
 20
658.5774618932453
 30
0.0
 11
164.0142089145197
 21
658.5774618932453
 31
0.0
  0
LINE
  5
6257
330
2
100
AcDbEntity
  8
AM_VIS
100
AcDbLine
 10
164.1467154419349
 20
658.5774618932453
 30
0.0
 11
163.4754569484532
 21
658.5774618932453
 31
0.0
  0
LINE
  5
6258
330
2
100
AcDbEntity
  8
AM_VIS
100
AcDbLine
 10
155.2276553897156
 20
653.7906641782058
 30
0.0
 11
155.2276553897156
 21
654.3211935788869
 31
0.0
  0
LINE
  5
6259
330
2
100
AcDbEntity
  8
AM_VIS
100
AcDbLine
 10
122.5487154359448
 20
715.9774618932454
 30
0.0
 11
122.871258522875
 21
715.9774618932454
 31
0.0
  0
LINE
  5
625A
330
2
100
AcDbEntity
  8
AM_VIS
100
AcDbLine
 10
122.871258522875
 20
715.9774618932454
 30
0.0
 11
123.2459321521178
 21
715.9774618932454
 31
0.0
  0
LINE
  5
625B
330
2
100
AcDbEntity
  8
AM_VIS
100
AcDbLine
 10
122.7387519954598
 20
715.9774618932454
 30
0.0
 11
123.4100104889414
 21
715.9774618932454
 31
0.0
  0
LINE
  5
625C
330
2
100
AcDbEntity
  8
AM_VIS
100
AcDbLine
 10
131.657812047679
 20
720.7642596082848
 30
0.0
 11
131.657812047679
 21
720.2337302076032
 31
0.0
  0
LINE
  5
625D
330
2
100
AcDbEntity
  8
AM_VIS
100
AcDbLine
 10
125.5533734053813
 20
717.9404817637726
 30
0.0
 11
125.5533734053813
 21
717.3601942754669
 31
0.0
  0
LINE
  5
625E
330
2
100
AcDbEntity
  8
AM_VIS
100
AcDbLine
 10
128.7883603505511
 20
719.6116441341334
 30
0.0
 11
128.7883603505511
 21
719.0618816800995
 31
0.0
  0
LINE
  5
625F
330
2
100
AcDbEntity
  8
AM_VIS
100
AcDbLine
 10
134.4427337186973
 20
721.2774618932455
 30
0.0
 11
133.2324447903663
 21
721.2774618932455
 31
0.0
  0
LINE
  5
6260
330
2
100
AcDbEntity
  8
AM_VIS
100
AcDbLine
 10
134.4427337186973
 20
721.2774618932455
 30
0.0
 11
134.4427337186973
 21
721.1005309438207
 31
0.0
  0
LINE
  5
6261
330
2
100
AcDbEntity
  8
AM_VIS
100
AcDbLine
 10
131.8657102200029
 20
720.8367009625487
 30
0.0
 11
131.8657102200029
 21
720.3073351432392
 31
0.0
  0
LINE
  5
6262
330
2
100
AcDbEntity
  8
AM_VIS
100
AcDbLine
 10
128.5142089145197
 20
719.4859878944619
 30
0.0
 11
128.5142089145197
 21
718.9340433127711
 31
0.0
  0
LINE
  5
6263
330
2
100
AcDbEntity
  8
AM_VIS
100
AcDbLine
 10
125.8412324132143
 20
718.1066226309801
 30
0.0
 11
125.8412324132143
 21
717.5295221832996
 31
0.0
  0
ARC
  5
6264
330
2
100
AcDbEntity
  8
AM_VIS
100
AcDbCircle
 10
143.4427337186973
 20
687.2774618932456
 30
0.0
 40
35.5
100
AcDbArc
 50
119.3168488158819
 51
119.5369880495848
  0
ARC
  5
6265
330
2
100
AcDbEntity
  8
AM_VIS
100
AcDbCircle
 10
143.4427337186973
 20
687.2774618932456
 30
0.0
 40
35.5
100
AcDbArc
 50
119.5369880495848
 51
119.6048195306093
  0
LINE
  5
6266
330
2
100
AcDbEntity
  8
AM_VIS
100
AcDbLine
 10
125.896062571175
 20
718.1378628985965
 30
0.0
 11
125.9052009503546
 21
718.1430570318477
 31
0.0
  0
ARC
  5
6267
330
2
100
AcDbEntity
  8
AM_VIS
100
AcDbCircle
 10
143.4427337186973
 20
687.2774618932456
 30
0.0
 40
35.5
100
AcDbArc
 50
119.6217845277599
 51
119.723634602302
  0
LINE
  5
6268
330
2
100
AcDbEntity
  8
AM_VIS
100
AcDbLine
 10
128.0480239543817
 20
719.2661176203439
 30
0.0
 11
128.5140118128659
 21
719.4864048828419
 31
0.0
  0
LINE
  5
6269
330
2
100
AcDbEntity
  8
AM_VIS
100
AcDbLine
 10
127.0100383931683
 20
718.7474455944441
 30
0.0
 11
128.0467910651416
 21
719.2685544207758
 31
0.0
  0
LINE
  5
626A
330
2
100
AcDbEntity
  8
AM_VIS
100
AcDbLine
 10
126.4988887477595
 20
718.4736555737829
 30
0.0
 11
127.0106353256876
 21
718.7462232797099
 31
0.0
  0
LINE
  5
626B
330
2
100
AcDbEntity
  8
AM_VIS
100
AcDbLine
 10
126.2204120168753
 20
718.3201899259072
 30
0.0
 11
126.4991455937868
 21
718.4731705557517
 31
0.0
  0
LINE
  5
626C
330
2
100
AcDbEntity
  8
AM_VIS
100
AcDbLine
 10
126.0605226818418
 20
718.2308661937429
 30
0.0
 11
126.2204429599076
 21
718.3201325620331
 31
0.0
  0
LINE
  5
626D
330
2
100
AcDbEntity
  8
AM_VIS
100
AcDbLine
 10
133.222759759283
 20
721.2745521998079
 30
0.0
 11
133.2324447212913
 21
721.2774621231444
 31
0.0
  0
LINE
  5
626E
330
2
100
AcDbEntity
  8
AM_VIS
100
AcDbLine
 10
132.4319031057359
 20
721.0280696445304
 30
0.0
 11
133.222453248776
 21
721.2755313800464
 31
0.0
  0
LINE
  5
626F
330
2
100
AcDbEntity
  8
AM_VIS
100
AcDbLine
 10
131.9615243709779
 20
720.8700642790184
 30
0.0
 11
132.432123560849
 21
721.0273317317826
 31
0.0
  0
LINE
  5
6270
330
2
100
AcDbEntity
  8
AM_VIS
100
AcDbLine
 10
131.209907595208
 20
720.6036369009255
 30
0.0
 11
131.6576840706243
 21
720.7646156940429
 31
0.0
  0
LINE
  5
6271
330
2
100
AcDbEntity
  8
AM_VIS
100
AcDbLine
 10
130.2224665845288
 20
720.2258609454463
 30
0.0
 11
131.2091348353835
 21
720.6056219239728
 31
0.0
  0
LINE
  5
6272
330
2
100
AcDbEntity
  8
AM_VIS
100
AcDbLine
 10
129.2307809738577
 20
719.8107612443475
 30
0.0
 11
130.2221241208408
 21
720.2265449665621
 31
0.0
  0
LINE
  5
6273
330
2
100
AcDbEntity
  8
AM_VIS
100
AcDbLine
 10
128.78819567095
 20
719.6120141850835
 30
0.0
 11
129.2314049526076
 21
719.8092506134255
 31
0.0
  0
LINE
  5
6274
330
2
100
AcDbEntity
  8
AM_VIS
100
AcDbLine
 10
122.5486654623807
 20
715.9775310054312
 30
0.0
 11
122.7386924960869
 21
716.1149355455247
 31
0.0
  0
LINE
  5
6275
330
2
100
AcDbEntity
  8
AM_VIS
100
AcDbLine
 10
123.8533622752522
 20
716.883913356017
 30
0.0
 11
124.3330269694684
 21
717.1959780716672
 31
0.0
  0
LINE
  5
6276
330
2
100
AcDbEntity
  8
AM_VIS
100
AcDbLine
 10
161.3320940320132
 20
656.6144420227181
 30
0.0
 11
161.3320940320132
 21
657.1947295110237
 31
0.0
  0
LINE
  5
6277
330
2
100
AcDbEntity
  8
AM_VIS
100
AcDbLine
 10
158.0971070868436
 20
654.9432796523571
 30
0.0
 11
158.0971070868436
 21
655.4930421063911
 31
0.0
  0
LINE
  5
6278
330
2
100
AcDbEntity
  8
AM_VIS
100
AcDbLine
 10
152.4427337186973
 20
653.2774618932456
 30
0.0
 11
153.6530226470283
 21
653.2774618932456
 31
0.0
  0
LINE
  5
6279
330
2
100
AcDbEntity
  8
AM_VIS
100
AcDbLine
 10
152.4427337186973
 20
653.2774618932456
 30
0.0
 11
152.4427337186973
 21
653.4543928426699
 31
0.0
  0
LINE
  5
627A
330
2
100
AcDbEntity
  8
AM_VIS
100
AcDbLine
 10
155.0197572173918
 20
653.7182228239418
 30
0.0
 11
155.0197572173918
 21
654.2475886432514
 31
0.0
  0
LINE
  5
627B
330
2
100
AcDbEntity
  8
AM_VIS
100
AcDbLine
 10
158.3712585228747
 20
655.0689358920287
 30
0.0
 11
158.3712585228747
 21
655.6208804737195
 31
0.0
  0
LINE
  5
627C
330
2
100
AcDbEntity
  8
AM_VIS
100
AcDbLine
 10
161.0442350241803
 20
656.4483011555105
 30
0.0
 11
161.0442350241803
 21
657.0254016031911
 31
0.0
  0
ARC
  5
627D
330
2
100
AcDbEntity
  8
AM_VIS
100
AcDbCircle
 10
143.4427337186973
 20
687.2774618932456
 30
0.0
 40
35.5
100
AcDbArc
 50
299.3168488158819
 51
299.5369880495848
  0
ARC
  5
627E
330
2
100
AcDbEntity
  8
AM_VIS
100
AcDbCircle
 10
143.4427337186973
 20
687.2774618932456
 30
0.0
 40
35.5
100
AcDbArc
 50
299.5369880495848
 51
299.6048195306094
  0
LINE
  5
627F
330
2
100
AcDbEntity
  8
AM_VIS
100
AcDbLine
 10
160.9802664870401
 20
656.4118667546429
 30
0.0
 11
160.9894048662197
 21
656.4170608878941
 31
0.0
  0
ARC
  5
6280
330
2
100
AcDbEntity
  8
AM_VIS
100
AcDbCircle
 10
143.4427337186973
 20
687.2774618932456
 30
0.0
 40
35.5
100
AcDbArc
 50
299.6217845277599
 51
299.7236346023021
  0
LINE
  5
6281
330
2
100
AcDbEntity
  8
AM_VIS
100
AcDbLine
 10
158.3714556245288
 20
655.0685189036487
 30
0.0
 11
158.837443483013
 21
655.2888061661467
 31
0.0
  0
LINE
  5
6282
330
2
100
AcDbEntity
  8
AM_VIS
100
AcDbLine
 10
158.8386763722531
 20
655.2863693657148
 30
0.0
 11
159.8754290442264
 21
655.8074781920465
 31
0.0
  0
LINE
  5
6283
330
2
100
AcDbEntity
  8
AM_VIS
100
AcDbLine
 10
159.8748321117071
 20
655.8087005067807
 30
0.0
 11
160.3865786896351
 21
656.0812682127077
 31
0.0
  0
LINE
  5
6284
330
2
100
AcDbEntity
  8
AM_VIS
100
AcDbLine
 10
160.3863218436079
 20
656.0817532307389
 30
0.0
 11
160.6650554205193
 21
656.2347338605834
 31
0.0
  0
LINE
  5
6285
330
2
100
AcDbEntity
  8
AM_VIS
100
AcDbLine
 10
160.6650244774871
 20
656.2347912244574
 30
0.0
 11
160.8249447555529
 21
656.3240575927477
 31
0.0
  0
LINE
  5
6286
330
2
100
AcDbEntity
  8
AM_VIS
100
AcDbLine
 10
153.6530227161035
 20
653.2774616633462
 30
0.0
 11
153.6627076781117
 21
653.2803715866828
 31
0.0
  0
LINE
  5
6287
330
2
100
AcDbEntity
  8
AM_VIS
100
AcDbLine
 10
153.6630141886187
 20
653.2793924064442
 30
0.0
 11
154.4535643316587
 21
653.5268541419602
 31
0.0
  0
LINE
  5
6288
330
2
100
AcDbEntity
  8
AM_VIS
100
AcDbLine
 10
154.4533438765456
 20
653.527592054708
 30
0.0
 11
154.9239430664165
 21
653.6848595074722
 31
0.0
  0
LINE
  5
6289
330
2
100
AcDbEntity
  8
AM_VIS
100
AcDbLine
 10
155.2277833667704
 20
653.7903080924477
 30
0.0
 11
155.6755598421866
 21
653.9512868855652
 31
0.0
  0
LINE
  5
628A
330
2
100
AcDbEntity
  8
AM_VIS
100
AcDbLine
 10
155.6763326020111
 20
653.9493018625178
 30
0.0
 11
156.6630008528659
 21
654.3290628410443
 31
0.0
  0
LINE
  5
628B
330
2
100
AcDbEntity
  8
AM_VIS
100
AcDbLine
 10
156.6633433165539
 20
654.3283788199285
 30
0.0
 11
157.654686463537
 21
654.7441625421432
 31
0.0
  0
LINE
  5
628C
330
2
100
AcDbEntity
  8
AM_VIS
100
AcDbLine
 10
157.6540624847871
 20
654.7456731730651
 30
0.0
 11
158.0972717664444
 21
654.9429096014071
 31
0.0
  0
LINE
  5
628D
330
2
100
AcDbEntity
  8
AM_VIS
100
AcDbLine
 10
164.1467749413077
 20
658.4399882409659
 30
0.0
 11
164.3368019750139
 21
658.5773927810594
 31
0.0
  0
LINE
  5
628E
330
2
100
AcDbEntity
  8
AM_VIS
100
AcDbLine
 10
162.5524404679263
 20
657.3589457148234
 30
0.0
 11
163.0321051621424
 21
657.6710104304736
 31
0.0
  0
LINE
  5
628F
330
2
100
AcDbEntity
  8
AM_VIS
100
AcDbLine
 10
132.9427337172812
 20
687.277461895708
 30
0.0
 11
126.1787351186974
 21
683.388463263245
 31
0.0
  0
LINE
  5
6290
330
2
100
AcDbEntity
  8
AM_VIS
100
AcDbLine
 10
126.1787351186974
 20
683.388463263245
 30
0.0
 11
126.1787351186974
 21
691.1664605232451
 31
0.0
  0
LINE
  5
6291
330
2
100
AcDbEntity
  8
AM_VIS
100
AcDbLine
 10
126.1787351186974
 20
691.1664605232451
 30
0.0
 11
132.94273371796
 21
687.2774618919627
 31
0.0
  0
ARC
  5
6292
330
2
100
AcDbEntity
  8
AM_VIS
100
AcDbCircle
 10
143.4427337186973
 20
687.2774618932451
 30
0.0
 40
25.0
100
AcDbArc
 50
219.7918194995645
 51
320.2081805004355
  0
ARC
  5
6293
330
2
100
AcDbEntity
  8
AM_VIS
100
AcDbCircle
 10
143.4427337186973
 20
687.2774618932451
 30
0.0
 40
25.0
100
AcDbArc
 50
39.79181949956448
 51
140.2081805004355
  0
CIRCLE
  5
6294
330
2
100
AcDbEntity
  8
AM_VIS
100
AcDbCircle
 10
143.4427337186973
 20
687.2774618932451
 30
0.0
 40
24.0
  0
ARC
  5
6295
330
2
100
AcDbEntity
  8
AM_VIS
100
AcDbCircle
 10
143.4427337186973
 20
687.2774618932451
 30
0.0
 40
25.0
100
AcDbArc
 50
140.2081805004355
 51
219.7918194995645
  0
ARC
  5
6296
330
2
100
AcDbEntity
  8
AM_VIS
100
AcDbCircle
 10
143.4427337186973
 20
687.2774618932451
 30
0.0
 40
25.0
100
AcDbArc
 50
320.2081805004355
 51
39.79181949956448
  0
LINE
  5
6297
330
2
100
AcDbEntity
  8
AM_VIS
100
AcDbLine
 10
108.4427337186973
 20
703.277461893245
 30
0.0
 11
108.4427337186973
 21
704.2774618932451
 31
0.0
  0
LINE
  5
6298
330
2
100
AcDbEntity
  8
AM_VIS
100
AcDbLine
 10
108.4427337186973
 20
670.2774618932451
 30
0.0
 11
108.4427337186973
 21
671.2774618932451
 31
0.0
  0
LINE
  5
6299
330
2
100
AcDbEntity
  8
AM_VIS
100
AcDbLine
 10
178.4427337186973
 20
671.2774618932451
 30
0.0
 11
178.4427337186973
 21
670.2774618932451
 31
0.0
  0
LINE
  5
629A
330
2
100
AcDbEntity
  8
AM_VIS
100
AcDbLine
 10
178.4427337186973
 20
704.2774618932451
 30
0.0
 11
178.4427337186973
 21
703.277461893245
 31
0.0
  0
ARC
  5
629B
330
2
100
AcDbEntity
  8
AM_VIS
100
AcDbCircle
 10
143.4427337186973
 20
687.2774618932456
 30
0.0
 40
35.0
100
AcDbArc
 50
29.05928106803909
 51
76.27086732458955
  0
ARC
  5
629C
330
2
100
AcDbEntity
  8
AM_VIS
100
AcDbCircle
 10
143.4427337186973
 20
687.2774618932456
 30
0.0
 40
34.0
100
AcDbArc
 50
30.00000000000014
 51
76.06944543764349
  0
ARC
  5
629D
330
2
100
AcDbEntity
  8
AM_VIS
100
AcDbCircle
 10
143.4427337186973
 20
687.2774618932456
 30
0.0
 40
34.0
100
AcDbArc
 50
103.9305545623565
 51
149.9999999999998
  0
ARC
  5
629E
330
2
100
AcDbEntity
  8
AM_VIS
100
AcDbCircle
 10
143.4427337186973
 20
687.2774618932456
 30
0.0
 40
35.0
100
AcDbArc
 50
103.7291326754104
 51
150.9407189319609
  0
ARC
  5
629F
330
2
100
AcDbEntity
  8
AM_VIS
100
AcDbCircle
 10
143.4427337186973
 20
687.2774618932456
 30
0.0
 40
35.0
100
AcDbArc
 50
209.0592810680391
 51
256.2708673245895
  0
ARC
  5
62A0
330
2
100
AcDbEntity
  8
AM_VIS
100
AcDbCircle
 10
143.4427337186973
 20
687.2774618932456
 30
0.0
 40
34.0
100
AcDbArc
 50
210.0000000000001
 51
256.0694454376435
  0
ARC
  5
62A1
330
2
100
AcDbEntity
  8
AM_VIS
100
AcDbCircle
 10
143.4427337186973
 20
687.2774618932456
 30
0.0
 40
34.00000000000001
100
AcDbArc
 50
283.9305545623565
 51
329.9999999999999
  0
ARC
  5
62A2
330
2
100
AcDbEntity
  8
AM_VIS
100
AcDbCircle
 10
143.4427337186973
 20
687.2774618932456
 30
0.0
 40
35.0
100
AcDbArc
 50
283.7291326754104
 51
330.9407189319609
  0
ARC
  5
62A3
330
2
100
AcDbEntity
  8
AM_VIS
100
AcDbCircle
 10
143.4427337186973
 20
687.2774618932456
 30
0.0
 40
35.5
100
AcDbArc
 50
108.8692995479259
 51
109.0330398784011
  0
ARC
  5
62A4
330
2
100
AcDbEntity
  8
AM_VIS
100
AcDbCircle
 10
143.4427337186973
 20
687.2774618932456
 30
0.0
 40
35.5
100
AcDbArc
 50
106.7151498750675
 51
106.7237710143134
  0
ARC
  5
62A5
330
2
100
AcDbEntity
  8
AM_VIS
100
AcDbCircle
 10
143.4427337186973
 20
687.2774618932456
 30
0.0
 40
35.5
100
AcDbArc
 50
120.2600600666732
 51
122.5673825157606
  0
ARC
  5
62A6
330
2
100
AcDbEntity
  8
AM_VIS
100
AcDbCircle
 10
143.4427337186973
 20
687.2774618932456
 30
0.0
 40
35.5
100
AcDbArc
 50
123.4909738734758
 51
125.6766882162334
  0
ARC
  5
62A7
330
2
100
AcDbEntity
  8
AM_VIS
100
AcDbCircle
 10
143.4427337186973
 20
687.2774618932456
 30
0.0
 40
35.5
100
AcDbArc
 50
288.869299547926
 51
289.0330398784011
  0
ARC
  5
62A8
330
2
100
AcDbEntity
  8
AM_VIS
100
AcDbCircle
 10
143.4427337186973
 20
687.2774618932456
 30
0.0
 40
35.5
100
AcDbArc
 50
286.7151498750676
 51
286.7237710143134
  0
ARC
  5
62A9
330
2
100
AcDbEntity
  8
AM_VIS
100
AcDbCircle
 10
143.4427337186973
 20
687.2774618932456
 30
0.0
 40
35.5
100
AcDbArc
 50
300.2600600666732
 51
302.5673825157606
  0
ARC
  5
62AA
330
2
100
AcDbEntity
  8
AM_VIS
100
AcDbCircle
 10
143.4427337186973
 20
687.2774618932456
 30
0.0
 40
35.5
100
AcDbArc
 50
303.4909738734758
 51
305.6766882162335
  0
ARC
  5
62AB
330
2
100
AcDbEntity
  8
AM_VIS
100
AcDbCircle
 10
128.4427337186973
 20
687.2774618932451
 30
0.0
 40
4.5
100
AcDbArc
 50
120.2060231657473
 51
239.7939768342527
  0
ARC
  5
62AC
330
2
100
AcDbEntity
  8
AM_VIS
100
AcDbCircle
 10
128.4427337186973
 20
687.2774618932451
 30
0.0
 40
4.5
100
AcDbArc
 50
0.0
 51
120.2060231657473
  0
ARC
  5
62AD
330
2
100
AcDbEntity
  8
AM_VIS
100
AcDbCircle
 10
128.4427337186973
 20
687.2774618932451
 30
0.0
 40
4.5
100
AcDbArc
 50
239.7939768342527
 51
0.0
  0
SPLINE
  5
62AE
330
2
100
AcDbEntity
  8
AM_VIS
100
AcDbSpline
210
0.0
220
0.0
230
1.0
 70
    12
 71
     2
 72
     6
 73
     3
 74
     0
 42
0.0000000001
 43
0.0000000001
 40
0.0
 40
0.0
 40
0.0
 40
11.81893801825526
 40
11.81893801825526
 40
11.81893801825526
 10
136.743360942117
 20
411.4354771371283
 30
0.0
 41
1.0
 10
142.5611379789729
 20
413.1213399231621
 30
0.0
 41
1.154700538379299
 10
148.3789150158288
 20
411.4354771371283
 30
0.0
 41
1.0
  0
SPLINE
  5
62AF
330
2
100
AcDbEntity
  8
AM_VIS
100
AcDbSpline
210
0.0
220
0.0
230
1.0
 70
    12
 71
     2
 72
     6
 73
     3
 74
     0
 42
0.0000000001
 43
0.0000000001
 40
0.0
 40
0.0
 40
0.0
 40
11.81893801825515
 40
11.81893801825515
 40
11.81893801825515
 10
148.3789150158288
 20
406.5832201385135
 30
0.0
 41
1.0
 10
142.5611379789729
 20
404.8973573524797
 30
0.0
 41
1.154700538379293
 10
136.743360942117
 20
406.583220138514
 30
0.0
 41
1.0
  0
LINE
  5
62B0
330
2
100
AcDbEntity
  8
AM_VIS
100
AcDbLine
 10
148.3789150158288
 20
406.5832201385135
 30
0.0
 11
148.3789150158288
 21
411.4354771371283
 31
0.0
  0
SPLINE
  5
62B1
330
2
100
AcDbEntity
  8
AM_VIS
100
AcDbSpline
210
0.0
220
0.0
230
1.0
 70
    12
 71
     2
 72
     6
 73
     3
 74
     0
 42
0.0000000001
 43
0.0000000001
 40
0.0
 40
0.0
 40
0.0
 40
11.81893801825497
 40
11.81893801825497
 40
11.81893801825497
 10
148.3789150158288
 20
411.4354771371283
 30
0.0
 41
1.0
 10
151.728601404119
 20
413.1213399231617
 30
0.0
 41
1.154700538379268
 10
155.0782877924091
 20
411.4354771371283
 30
0.0
 41
1.0
  0
SPLINE
  5
62B2
330
2
100
AcDbEntity
  8
AM_VIS
100
AcDbSpline
210
0.0
220
0.0
230
1.0
 70
    12
 71
     2
 72
     6
 73
     3
 74
     0
 42
0.0000000001
 43
0.0000000001
 40
0.0
 40
0.0
 40
0.0
 40
11.81893801825484
 40
11.81893801825484
 40
11.81893801825484
 10
155.0782877924089
 20
406.5832201385135
 30
0.0
 41
1.0
 10
151.7286014041188
 20
404.8973573524797
 30
0.0
 41
1.154700538379263
 10
148.3789150158288
 20
406.5832201385135
 30
0.0
 41
1.0
  0
LINE
  5
62B3
330
2
100
AcDbEntity
  8
AM_VIS
100
AcDbLine
 10
155.0782877924089
 20
406.5832201385135
 30
0.0
 11
155.0782877924089
 21
411.4354771371283
 31
0.0
  0
SPLINE
  5
62B4
330
2
100
AcDbEntity
  8
AM_VIS
100
AcDbSpline
210
0.0
220
0.0
230
1.0
 70
    12
 71
     2
 72
     6
 73
     3
 74
     0
 42
0.0000000001
 43
0.0000000001
 40
0.0
 40
0.0
 40
0.0
 40
1.020117686621819
 40
1.020117686621819
 40
1.020117686621819
 10
155.0782877924091
 20
411.4354771371283
 30
0.0
 41
1.0
 10
154.8355475731789
 20
411.6012841355507
 30
0.0
 41
1.013352532612224
 10
154.6035963537585
 20
411.735201234522
 30
0.0
 41
1.024400094226566
  0
SPLINE
  5
62B5
330
2
100
AcDbEntity
  8
AM_VIS
100
AcDbSpline
210
0.0
220
0.0
230
1.0
 70
    12
 71
     2
 72
     6
 73
     3
 74
     0
 42
0.0000000001
 43
0.0000000001
 40
10.79882033163306
 40
10.79882033163306
 40
10.79882033163306
 40
11.81893801825488
 40
11.81893801825488
 40
11.81893801825488
 10
154.6035963537585
 20
406.2834960411201
 30
0.0
 41
1.024400094226565
 10
154.8355475731789
 20
406.4174131400911
 30
0.0
 41
1.013352532612224
 10
155.0782877924089
 20
406.5832201385135
 30
0.0
 41
1.0
  0
LINE
  5
62B6
330
2
100
AcDbEntity
  8
AM_VIS
100
AcDbLine
 10
131.8071796449858
 20
406.583220138514
 30
0.0
 11
131.8071796449858
 21
411.4354771371283
 31
0.0
  0
SPLINE
  5
62B7
330
2
100
AcDbEntity
  8
AM_VIS
100
AcDbSpline
210
0.0
220
0.0
230
1.0
 70
    12
 71
     2
 72
     6
 73
     3
 74
     0
 42
0.0000000001
 43
0.0000000001
 40
0.0
 40
0.0
 40
0.0
 40
11.81893801825497
 40
11.81893801825497
 40
11.81893801825497
 10
131.8071796449858
 20
411.4354771371283
 30
0.0
 41
1.0
 10
134.2752702935515
 20
413.1213399231621
 30
0.0
 41
1.154700538379268
 10
136.743360942117
 20
411.4354771371283
 30
0.0
 41
1.0
  0
LINE
  5
62B8
330
2
100
AcDbEntity
  8
AM_VIS
100
AcDbLine
 10
136.743360942117
 20
406.583220138514
 30
0.0
 11
136.743360942117
 21
411.4354771371283
 31
0.0
  0
SPLINE
  5
62B9
330
2
100
AcDbEntity
  8
AM_VIS
100
AcDbSpline
210
0.0
220
0.0
230
1.0
 70
    12
 71
     2
 72
     6
 73
     3
 74
     0
 42
0.0000000001
 43
0.0000000001
 40
0.0
 40
0.0
 40
0.0
 40
11.81893801825485
 40
11.81893801825485
 40
11.81893801825485
 10
136.743360942117
 20
406.583220138514
 30
0.0
 41
1.0
 10
134.2752702935513
 20
404.8973573524801
 30
0.0
 41
1.154700538379263
 10
131.8071796449858
 20
406.583220138514
 30
0.0
 41
1.0
  0
LINE
  5
62BA
330
2
100
AcDbEntity
  8
AM_VIS
100
AcDbLine
 10
153.2627337186973
 20
405.5093486378211
 30
0.0
 11
154.6035963537585
 21
406.2834960411199
 31
0.0
  0
LINE
  5
62BB
330
2
100
AcDbEntity
  8
AM_VIS
100
AcDbLine
 10
133.6227337186974
 20
405.5093486378211
 30
0.0
 11
132.2818710836361
 21
406.2834960411199
 31
0.0
  0
LINE
  5
62BC
330
2
100
AcDbEntity
  8
AM_VIS
100
AcDbLine
 10
133.6227337186974
 20
412.5093486378212
 30
0.0
 11
132.2818710836363
 21
411.735201234522
 31
0.0
  0
LINE
  5
62BD
330
2
100
AcDbEntity
  8
AM_VIS
100
AcDbLine
 10
153.2627337186975
 20
412.5093486378207
 30
0.0
 11
154.6035963537585
 21
411.735201234522
 31
0.0
  0
LINE
  5
62BE
330
2
100
AcDbEntity
  8
AM_VIS
100
AcDbLine
 10
133.6227337186974
 20
405.5093486378211
 30
0.0
 11
153.2627337186973
 21
405.5093486378207
 31
0.0
  0
LINE
  5
62BF
330
2
100
AcDbEntity
  8
AM_VIS
100
AcDbLine
 10
141.075422887239
 20
403.0093486378211
 30
0.0
 11
141.4341910098774
 21
403.0093486378211
 31
0.0
  0
LINE
  5
62C0
330
2
100
AcDbEntity
  8
AM_VIS
100
AcDbLine
 10
141.6313859417582
 20
403.609348637821
 30
0.0
 11
141.075422887239
 21
403.609348637821
 31
0.0
  0
LINE
  5
62C1
330
2
100
AcDbEntity
  8
AM_VIS
100
AcDbLine
 10
145.4512764275198
 20
403.0093486378211
 30
0.0
 11
145.8100445501602
 21
403.0093486378211
 31
0.0
  0
LINE
  5
62C2
330
2
100
AcDbEntity
  8
AM_VIS
100
AcDbLine
 10
145.8100445501602
 20
403.609348637821
 30
0.0
 11
145.2540814956378
 21
403.609348637821
 31
0.0
  0
LINE
  5
62C3
330
2
100
AcDbEntity
  8
AM_VIS
100
AcDbLine
 10
147.6927337186973
 20
403.0093486378211
 30
0.0
 11
147.6927337186973
 21
403.609348637821
 31
0.0
  0
LINE
  5
62C4
330
2
100
AcDbEntity
  8
AM_VIS
100
AcDbLine
 10
139.1927337186973
 20
403.0093486378211
 30
0.0
 11
139.1927337186973
 21
403.609348637821
 31
0.0
  0
LINE
  5
62C5
330
2
100
AcDbEntity
  8
AM_VIS
100
AcDbLine
 10
147.6927337186973
 20
403.0093486378211
 30
0.0
 11
146.8271360491724
 21
403.0093486378211
 31
0.0
  0
LINE
  5
62C6
330
2
100
AcDbEntity
  8
AM_VIS
100
AcDbLine
 10
140.0583313882275
 20
403.0093486378211
 30
0.0
 11
139.1927337186973
 21
403.0093486378211
 31
0.0
  0
LINE
  5
62C7
330
2
100
AcDbEntity
  8
AM_VIS
100
AcDbLine
 10
139.1927337186973
 20
403.609348637821
 30
0.0
 11
140.0583313882275
 21
403.609348637821
 31
0.0
  0
LINE
  5
62C8
330
2
100
AcDbEntity
  8
AM_VIS
100
AcDbLine
 10
146.8271360491724
 20
403.609348637821
 30
0.0
 11
147.6927337186973
 21
403.609348637821
 31
0.0
  0
LINE
  5
62C9
330
2
100
AcDbEntity
  8
AM_VIS
100
AcDbLine
 10
141.0754228872392
 20
403.0093486378211
 30
0.0
 11
140.0583313882275
 21
403.0093486378211
 31
0.0
  0
LINE
  5
62CA
330
2
100
AcDbEntity
  8
AM_VIS
100
AcDbLine
 10
140.0583313882275
 20
403.609348637821
 30
0.0
 11
141.0754228872392
 21
403.609348637821
 31
0.0
  0
LINE
  5
62CB
330
2
100
AcDbEntity
  8
AM_VIS
100
AcDbLine
 10
146.8271360491724
 20
403.0093486378211
 30
0.0
 11
145.8100445501602
 21
403.0093486378211
 31
0.0
  0
LINE
  5
62CC
330
2
100
AcDbEntity
  8
AM_VIS
100
AcDbLine
 10
145.8100445501602
 20
403.609348637821
 30
0.0
 11
146.8271360491724
 21
403.609348637821
 31
0.0
  0
LINE
  5
62CD
330
2
100
AcDbEntity
  8
AM_VIS
100
AcDbLine
 10
148.8427337186974
 20
404.0093486378212
 30
0.0
 11
150.3427337186974
 21
405.5093486378211
 31
0.0
  0
LINE
  5
62CE
330
2
100
AcDbEntity
  8
AM_VIS
100
AcDbLine
 10
138.0427337186972
 20
404.0093486378212
 30
0.0
 11
136.5427337186972
 21
405.5093486378211
 31
0.0
  0
LINE
  5
62CF
330
2
100
AcDbEntity
  8
AM_VIS
100
AcDbLine
 10
148.8427337186974
 20
404.0093486378212
 30
0.0
 11
138.0427337186975
 21
404.0093486378212
 31
0.0
  0
LINE
  5
62D0
330
2
100
AcDbEntity
  8
AM_VIS
100
AcDbLine
 10
145.8927337186969
 20
395.709348637821
 30
0.0
 11
145.8927337186969
 21
396.0093486378212
 31
0.0
  0
LINE
  5
62D1
330
2
100
AcDbEntity
  8
AM_VIS
100
AcDbLine
 10
140.9927337186971
 20
395.709348637821
 30
0.0
 11
140.9927337186971
 21
396.0093486378212
 31
0.0
  0
LINE
  5
62D2
330
2
100
AcDbEntity
  8
AM_VIS
100
AcDbLine
 10
145.542733718697
 20
394.5093486378212
 30
0.0
 11
145.8927337186971
 21
395.709348637821
 31
0.0
  0
LINE
  5
62D3
330
2
100
AcDbEntity
  8
AM_VIS
100
AcDbLine
 10
141.342733718697
 20
394.5093486378212
 30
0.0
 11
140.9927337186971
 21
395.709348637821
 31
0.0
  0
LINE
  5
62D4
330
2
100
AcDbEntity
  8
AM_VIS
100
AcDbLine
 10
145.8927337186969
 20
397.209348637821
 30
0.0
 11
145.8927337186969
 21
397.5093486378212
 31
0.0
  0
LINE
  5
62D5
330
2
100
AcDbEntity
  8
AM_VIS
100
AcDbLine
 10
140.9927337186971
 20
397.209348637821
 30
0.0
 11
140.9927337186971
 21
397.5093486378212
 31
0.0
  0
LINE
  5
62D6
330
2
100
AcDbEntity
  8
AM_VIS
100
AcDbLine
 10
145.542733718697
 20
396.0093486378212
 30
0.0
 11
145.8927337186971
 21
397.209348637821
 31
0.0
  0
LINE
  5
62D7
330
2
100
AcDbEntity
  8
AM_VIS
100
AcDbLine
 10
141.342733718697
 20
396.0093486378212
 30
0.0
 11
140.9927337186971
 21
397.209348637821
 31
0.0
  0
LINE
  5
62D8
330
2
100
AcDbEntity
  8
AM_VIS
100
AcDbLine
 10
145.8927337186969
 20
398.709348637821
 30
0.0
 11
145.8927337186969
 21
399.0093486378212
 31
0.0
  0
LINE
  5
62D9
330
2
100
AcDbEntity
  8
AM_VIS
100
AcDbLine
 10
140.9927337186971
 20
398.709348637821
 30
0.0
 11
140.9927337186971
 21
399.0093486378212
 31
0.0
  0
LINE
  5
62DA
330
2
100
AcDbEntity
  8
AM_VIS
100
AcDbLine
 10
145.542733718697
 20
397.5093486378212
 30
0.0
 11
145.8927337186971
 21
398.709348637821
 31
0.0
  0
LINE
  5
62DB
330
2
100
AcDbEntity
  8
AM_VIS
100
AcDbLine
 10
141.342733718697
 20
397.5093486378212
 30
0.0
 11
140.9927337186971
 21
398.709348637821
 31
0.0
  0
LINE
  5
62DC
330
2
100
AcDbEntity
  8
AM_VIS
100
AcDbLine
 10
145.542733718697
 20
399.0093486378212
 30
0.0
 11
145.8927337186971
 21
400.209348637821
 31
0.0
  0
LINE
  5
62DD
330
2
100
AcDbEntity
  8
AM_VIS
100
AcDbLine
 10
141.342733718697
 20
399.0093486378212
 30
0.0
 11
140.9927337186971
 21
400.209348637821
 31
0.0
  0
LINE
  5
62DE
330
2
100
AcDbEntity
  8
AM_VIS
100
AcDbLine
 10
145.8927337186969
 20
400.209348637821
 30
0.0
 11
145.8927337186969
 21
403.0093486378211
 31
0.0
  0
LINE
  5
62DF
330
2
100
AcDbEntity
  8
AM_VIS
100
AcDbLine
 10
140.9927337186971
 20
400.209348637821
 30
0.0
 11
140.9927337186971
 21
403.0093486378211
 31
0.0
  0
LINE
  5
62E0
330
2
100
AcDbEntity
  8
AM_VIS
100
AcDbLine
 10
141.4427337186971
 20
403.709348637821
 30
0.0
 11
141.4427337186971
 21
403.609348637821
 31
0.0
  0
LINE
  5
62E1
330
2
100
AcDbEntity
  8
AM_VIS
100
AcDbLine
 10
145.4427337186971
 20
403.709348637821
 30
0.0
 11
145.4427337186971
 21
403.609348637821
 31
0.0
  0
LINE
  5
62E2
330
2
100
AcDbEntity
  8
AM_VIS
100
AcDbLine
 10
145.8927337186969
 20
403.709348637821
 30
0.0
 11
145.8927337186969
 21
404.0093486378212
 31
0.0
  0
LINE
  5
62E3
330
2
100
AcDbEntity
  8
AM_VIS
100
AcDbLine
 10
140.9927337186971
 20
403.709348637821
 30
0.0
 11
140.9927337186971
 21
404.0093486378212
 31
0.0
  0
LINE
  5
62E4
330
2
100
AcDbEntity
  8
AM_VIS
100
AcDbLine
 10
145.8927337186969
 20
395.709348637821
 30
0.0
 11
140.9927337186971
 21
395.709348637821
 31
0.0
  0
LINE
  5
62E5
330
2
100
AcDbEntity
  8
AM_VIS
100
AcDbLine
 10
141.342733718697
 20
394.5093486378212
 30
0.0
 11
145.542733718697
 21
394.5093486378212
 31
0.0
  0
LINE
  5
62E6
330
2
100
AcDbEntity
  8
AM_VIS
100
AcDbLine
 10
145.8927337186969
 20
397.209348637821
 30
0.0
 11
140.9927337186971
 21
397.209348637821
 31
0.0
  0
LINE
  5
62E7
330
2
100
AcDbEntity
  8
AM_VIS
100
AcDbLine
 10
140.9927337186971
 20
396.0093486378212
 30
0.0
 11
145.8927337186969
 21
396.0093486378212
 31
0.0
  0
LINE
  5
62E8
330
2
100
AcDbEntity
  8
AM_VIS
100
AcDbLine
 10
145.8927337186969
 20
398.709348637821
 30
0.0
 11
140.9927337186971
 21
398.709348637821
 31
0.0
  0
LINE
  5
62E9
330
2
100
AcDbEntity
  8
AM_VIS
100
AcDbLine
 10
140.9927337186971
 20
397.5093486378212
 30
0.0
 11
145.8927337186969
 21
397.5093486378212
 31
0.0
  0
LINE
  5
62EA
330
2
100
AcDbEntity
  8
AM_VIS
100
AcDbLine
 10
140.9927337186971
 20
399.0093486378212
 30
0.0
 11
145.8927337186969
 21
399.0093486378212
 31
0.0
  0
LINE
  5
62EB
330
2
100
AcDbEntity
  8
AM_VIS
100
AcDbLine
 10
145.8927337186969
 20
400.209348637821
 30
0.0
 11
140.9927337186971
 21
400.209348637821
 31
0.0
  0
LINE
  5
62EC
330
2
100
AcDbEntity
  8
AM_VIS
100
AcDbLine
 10
141.4341910098774
 20
403.0093486378211
 30
0.0
 11
145.4512764275198
 21
403.0093486378211
 31
0.0
  0
LINE
  5
62ED
330
2
100
AcDbEntity
  8
AM_VIS
100
AcDbLine
 10
145.8927337186969
 20
403.709348637821
 30
0.0
 11
140.9927337186971
 21
403.709348637821
 31
0.0
  0
LINE
  5
62EE
330
2
100
AcDbEntity
  8
AM_VIS
100
AcDbLine
 10
151.4427337186973
 20
442.5093486378211
 30
0.0
 11
151.4427337186973
 21
488.5093486378211
 31
0.0
  0
LINE
  5
62EF
330
2
100
AcDbEntity
  8
AM_VIS
100
AcDbLine
 10
155.4427337186973
 20
488.5093486378211
 30
0.0
 11
155.4427337186973
 21
442.5093486378211
 31
0.0
  0
LINE
  5
62F0
330
2
100
AcDbEntity
  8
AM_VIS
100
AcDbLine
 10
154.6927337186973
 20
431.7869124382156
 30
0.0
 11
153.4427337186973
 21
431.0655986378212
 31
0.0
  0
LINE
  5
62F1
330
2
100
AcDbEntity
  8
AM_VIS
100
AcDbLine
 10
152.1927337186973
 20
431.7869124382156
 30
0.0
 11
152.1927337186973
 21
433.2317848374262
 31
0.0
  0
LINE
  5
62F2
330
2
100
AcDbEntity
  8
AM_VIS
100
AcDbLine
 10
153.4427337186973
 20
431.0655986378212
 30
0.0
 11
152.1927337186973
 21
431.7869124382156
 31
0.0
  0
LINE
  5
62F3
330
2
100
AcDbEntity
  8
AM_VIS
100
AcDbLine
 10
154.6927337186973
 20
433.2317848374262
 30
0.0
 11
154.6927337186973
 21
431.7869124382156
 31
0.0
  0
LINE
  5
62F4
330
2
100
AcDbEntity
  8
AM_VIS
100
AcDbLine
 10
153.4427337186973
 20
433.953098637821
 30
0.0
 11
154.6927337186973
 21
433.2317848374262
 31
0.0
  0
LINE
  5
62F5
330
2
100
AcDbEntity
  8
AM_VIS
100
AcDbLine
 10
152.1927337186973
 20
433.2317848374262
 30
0.0
 11
153.4427337186973
 21
433.953098637821
 31
0.0
  0
CIRCLE
  5
62F6
330
2
100
AcDbEntity
  8
AM_VIS
100
AcDbCircle
 10
153.4427337186973
 20
432.5093486378212
 30
0.0
 40
3.800000000000012
  0
LINE
  5
62F7
330
2
100
AcDbEntity
  8
AM_VIS
100
AcDbLine
 10
154.6927337186973
 20
497.7869124382157
 30
0.0
 11
153.4427337186973
 21
497.0655986378212
 31
0.0
  0
LINE
  5
62F8
330
2
100
AcDbEntity
  8
AM_VIS
100
AcDbLine
 10
152.1927337186973
 20
497.7869124382157
 30
0.0
 11
152.1927337186973
 21
499.2317848374262
 31
0.0
  0
LINE
  5
62F9
330
2
100
AcDbEntity
  8
AM_VIS
100
AcDbLine
 10
153.4427337186973
 20
497.0655986378212
 30
0.0
 11
152.1927337186973
 21
497.7869124382157
 31
0.0
  0
LINE
  5
62FA
330
2
100
AcDbEntity
  8
AM_VIS
100
AcDbLine
 10
154.6927337186973
 20
499.2317848374262
 30
0.0
 11
154.6927337186973
 21
497.7869124382157
 31
0.0
  0
LINE
  5
62FB
330
2
100
AcDbEntity
  8
AM_VIS
100
AcDbLine
 10
153.4427337186973
 20
499.9530986378211
 30
0.0
 11
154.6927337186973
 21
499.2317848374262
 31
0.0
  0
LINE
  5
62FC
330
2
100
AcDbEntity
  8
AM_VIS
100
AcDbLine
 10
152.1927337186973
 20
499.2317848374262
 30
0.0
 11
153.4427337186973
 21
499.9530986378211
 31
0.0
  0
CIRCLE
  5
62FD
330
2
100
AcDbEntity
  8
AM_VIS
100
AcDbCircle
 10
153.4427337186973
 20
498.5093486378211
 30
0.0
 40
3.800000000000012
  0
LINE
  5
62FE
330
2
100
AcDbEntity
  8
AM_VIS
100
AcDbLine
 10
155.6927337186973
 20
488.5093486378211
 30
0.0
 11
155.6927337186973
 21
442.5093486378211
 31
0.0
  0
LINE
  5
62FF
330
2
100
AcDbEntity
  8
AM_VIS
100
AcDbLine
 10
151.1927337186973
 20
442.5093486378211
 30
0.0
 11
151.1927337186973
 21
488.5093486378211
 31
0.0
  0
LINE
  5
6300
330
2
100
AcDbEntity
  8
AM_VIS
100
AcDbLine
 10
155.6927337186973
 20
442.5093486378211
 30
0.0
 11
151.1927337186973
 21
442.5093486378211
 31
0.0
  0
LINE
  5
6301
330
2
100
AcDbEntity
  8
AM_VIS
100
AcDbLine
 10
162.4427337186973
 20
425.5093486378211
 30
0.0
 11
162.4427337186973
 21
505.5093486378211
 31
0.0
  0
LINE
  5
6302
330
2
100
AcDbEntity
  8
AM_VIS
100
AcDbLine
 10
161.4427337186973
 20
506.5093486378211
 30
0.0
 11
145.4427337186973
 21
506.5093486378211
 31
0.0
  0
LINE
  5
6303
330
2
100
AcDbEntity
  8
AM_VIS
100
AcDbLine
 10
145.4427337186973
 20
424.5093486378212
 30
0.0
 11
161.4427337186973
 21
424.5093486378212
 31
0.0
  0
LINE
  5
6304
330
2
100
AcDbEntity
  8
AM_VIS
100
AcDbLine
 10
144.4427337186973
 20
505.5093486378211
 30
0.0
 11
144.4427337186973
 21
425.5093486378211
 31
0.0
  0
LINE
  5
6305
330
2
100
AcDbEntity
  8
AM_VIS
100
AcDbLine
 10
151.1927337186973
 20
488.5093486378211
 30
0.0
 11
155.6927337186973
 21
488.5093486378211
 31
0.0
  0
LINE
  5
6306
330
2
100
AcDbEntity
  8
AM_VIS
100
AcDbLine
 10
149.4427337186973
 20
493.5093486378211
 30
0.0
 11
157.4427337186973
 21
493.5093486378211
 31
0.0
  0
LINE
  5
6307
330
2
100
AcDbEntity
  8
AM_VIS
100
AcDbLine
 10
148.4427337186973
 20
438.5093486378211
 30
0.0
 11
148.4427337186973
 21
492.5093486378211
 31
0.0
  0
LINE
  5
6308
330
2
100
AcDbEntity
  8
AM_VIS
100
AcDbLine
 10
157.4427337186973
 20
437.5093486378212
 30
0.0
 11
149.4427337186973
 21
437.5093486378212
 31
0.0
  0
LINE
  5
6309
330
2
100
AcDbEntity
  8
AM_VIS
100
AcDbLine
 10
158.4427337186973
 20
492.5093486378211
 30
0.0
 11
158.4427337186973
 21
438.5093486378211
 31
0.0
  0
CIRCLE
  5
630A
330
2
100
AcDbEntity
  8
AM_VIS
100
AcDbCircle
 10
153.4427337186973
 20
432.5093486378212
 30
0.0
 40
4.0
  0
CIRCLE
  5
630B
330
2
100
AcDbEntity
  8
AM_VIS
100
AcDbCircle
 10
153.4427337186973
 20
498.5093486378211
 30
0.0
 40
4.0
  0
ARC
  5
630C
330
2
100
AcDbEntity
  8
AM_VIS
100
AcDbCircle
 10
161.4427337186973
 20
505.5093486378211
 30
0.0
 40
0.9999999999999998
100
AcDbArc
 50
0.0
 51
90.0
  0
ARC
  5
630D
330
2
100
AcDbEntity
  8
AM_VIS
100
AcDbCircle
 10
161.4427337186973
 20
425.5093486378211
 30
0.0
 40
1.0
100
AcDbArc
 50
270.0
 51
0.0
  0
ARC
  5
630E
330
2
100
AcDbEntity
  8
AM_VIS
100
AcDbCircle
 10
145.4427337186973
 20
425.5093486378211
 30
0.0
 40
0.9999999999999998
100
AcDbArc
 50
180.0
 51
270.0
  0
ARC
  5
630F
330
2
100
AcDbEntity
  8
AM_VIS
100
AcDbCircle
 10
145.4427337186973
 20
505.5093486378211
 30
0.0
 40
1.0
100
AcDbArc
 50
90.0
 51
180.0
  0
ARC
  5
6310
330
2
100
AcDbEntity
  8
AM_VIS
100
AcDbCircle
 10
157.4427337186973
 20
492.5093486378211
 30
0.0
 40
0.9999999999999998
100
AcDbArc
 50
0.0
 51
90.0
  0
ARC
  5
6311
330
2
100
AcDbEntity
  8
AM_VIS
100
AcDbCircle
 10
149.4427337186973
 20
492.5093486378211
 30
0.0
 40
0.9999999999999998
100
AcDbArc
 50
90.0
 51
180.0
  0
ARC
  5
6312
330
2
100
AcDbEntity
  8
AM_VIS
100
AcDbCircle
 10
149.4427337186973
 20
438.5093486378211
 30
0.0
 40
0.9999999999999998
100
AcDbArc
 50
180.0
 51
270.0
  0
ARC
  5
6313
330
2
100
AcDbEntity
  8
AM_VIS
100
AcDbCircle
 10
157.4427337186973
 20
438.5093486378211
 30
0.0
 40
0.9999999999999998
100
AcDbArc
 50
270.0
 51
0.0
  0
LINE
  5
6314
330
2
100
AcDbEntity
  8
AM_VIS
100
AcDbLine
 10
116.9427337186973
 20
423.0078951555904
 30
0.0
 11
116.9427337186973
 21
422.5093486378211
 31
0.0
  0
LINE
  5
6315
330
2
100
AcDbEntity
  8
AM_VIS
100
AcDbLine
 10
116.9427337186973
 20
508.5093486378212
 30
0.0
 11
116.9427337186973
 21
423.0078951555904
 31
0.0
  0
LINE
  5
6316
330
2
100
AcDbEntity
  8
AM_VIS
100
AcDbLine
 10
169.9427337186973
 20
423.0078951555904
 30
0.0
 11
169.9427337186973
 21
422.5093486378211
 31
0.0
  0
LINE
  5
6317
330
2
100
AcDbEntity
  8
AM_VIS
100
AcDbLine
 10
169.9427337186973
 20
508.5093486378212
 30
0.0
 11
169.9427337186973
 21
423.0078951555904
 31
0.0
  0
LINE
  5
6318
330
2
100
AcDbEntity
  8
AM_VIS
100
AcDbLine
 10
155.4427337186973
 20
412.5093486378212
 30
0.0
 11
158.3072049930372
 21
415.373819912161
 31
0.0
  0
LINE
  5
6319
330
2
100
AcDbEntity
  8
AM_VIS
100
AcDbLine
 10
131.4427337186973
 20
412.5093486378212
 30
0.0
 11
128.5782624443575
 21
415.373819912161
 31
0.0
  0
LINE
  5
631A
330
2
100
AcDbEntity
  8
AM_VIS
100
AcDbLine
 10
115.9469003853639
 20
510.5093486378211
 30
0.0
 11
115.9427337186973
 21
508.5093486378212
 31
0.0
  0
LINE
  5
631B
330
2
100
AcDbEntity
  8
AM_VIS
100
AcDbLine
 10
170.9385670520307
 20
510.5093486378211
 30
0.0
 11
170.9427337186973
 21
508.5093486378212
 31
0.0
  0
LINE
  5
631C
330
2
100
AcDbEntity
  8
AM_VIS
100
AcDbLine
 10
158.3072049930372
 20
415.373819912161
 30
0.0
 11
128.5782624443575
 21
415.373819912161
 31
0.0
  0
LINE
  5
631D
330
2
100
AcDbEntity
  8
AM_VIS
100
AcDbLine
 10
169.9427337186973
 20
422.5093486378211
 30
0.0
 11
116.9427337186973
 21
422.5093486378211
 31
0.0
  0
LINE
  5
631E
330
2
100
AcDbEntity
  8
AM_VIS
100
AcDbLine
 10
116.9427337186973
 20
508.5093486378212
 30
0.0
 11
115.9427337186973
 21
508.5093486378212
 31
0.0
  0
LINE
  5
631F
330
2
100
AcDbEntity
  8
AM_VIS
100
AcDbLine
 10
169.9427337186973
 20
508.5093486378212
 30
0.0
 11
116.9427337186973
 21
508.5093486378212
 31
0.0
  0
LINE
  5
6320
330
2
100
AcDbEntity
  8
AM_VIS
100
AcDbLine
 10
170.9427337186973
 20
508.5093486378212
 30
0.0
 11
169.9427337186973
 21
508.5093486378212
 31
0.0
  0
LINE
  5
6321
330
2
100
AcDbEntity
  8
AM_VIS
100
AcDbLine
 10
155.4427337186973
 20
412.5093486378212
 30
0.0
 11
131.4427337186973
 21
412.5093486378212
 31
0.0
  0
ARC
  5
6322
330
2
100
AcDbEntity
  8
AM_VIS
100
AcDbCircle
 10
143.4427337186973
 20
452.5093486378211
 30
0.0
 40
40.0
100
AcDbArc
 50
228.5903778907297
 51
248.1849455660709
  0
ARC
  5
6323
330
2
100
AcDbEntity
  8
AM_VIS
100
AcDbCircle
 10
143.4427337186973
 20
452.5093486378211
 30
0.0
 40
40.0
100
AcDbArc
 50
291.8150544339291
 51
311.4096221092704
  0
LINE
  5
6324
330
2
100
AcDbEntity
  8
AM_VIS
100
AcDbLine
 10
161.7730364985207
 20
562.5093486378212
 30
0.0
 11
161.7730364985207
 21
537.5093486378212
 31
0.0
  0
LINE
  5
6325
330
2
100
AcDbEntity
  8
AM_VIS
100
AcDbLine
 10
125.112430938874
 20
537.5093486378212
 30
0.0
 11
125.112430938874
 21
562.5093486378212
 31
0.0
  0
LINE
  5
6326
330
2
100
AcDbEntity
  8
AM_VIS
100
AcDbLine
 10
123.4427337186973
 20
538.5093486378211
 30
0.0
 11
110.4427337186973
 21
538.5093486378211
 31
0.0
  0
LINE
  5
6327
330
2
100
AcDbEntity
  8
AM_VIS
100
AcDbLine
 10
110.4427337186973
 20
558.5093486378212
 30
0.0
 11
123.4427337186973
 21
558.5093486378212
 31
0.0
  0
LINE
  5
6328
330
2
100
AcDbEntity
  8
AM_VIS
100
AcDbLine
 10
110.4427337186973
 20
538.5093486378211
 30
0.0
 11
110.4427337186973
 21
558.5093486378212
 31
0.0
  0
LINE
  5
6329
330
2
100
AcDbEntity
  8
AM_VIS
100
AcDbLine
 10
123.4427337186973
 20
558.5093486378212
 30
0.0
 11
123.4427337186973
 21
538.5093486378211
 31
0.0
  0
LINE
  5
632A
330
2
100
AcDbEntity
  8
AM_VIS
100
AcDbLine
 10
121.4427337186973
 20
538.5093486378211
 30
0.0
 11
121.4427337186973
 21
558.5093486378212
 31
0.0
  0
LINE
  5
632B
330
2
100
AcDbEntity
  8
AM_VIS
100
AcDbLine
 10
111.4427337186973
 20
538.5093486378211
 30
0.0
 11
111.4427337186973
 21
558.5093486378212
 31
0.0
  0
LINE
  5
632C
330
2
100
AcDbEntity
  8
AM_VIS
100
AcDbLine
 10
163.4427337186973
 20
558.5093486378212
 30
0.0
 11
176.4427337186973
 21
558.5093486378212
 31
0.0
  0
LINE
  5
632D
330
2
100
AcDbEntity
  8
AM_VIS
100
AcDbLine
 10
176.4427337186973
 20
538.5093486378211
 30
0.0
 11
163.4427337186973
 21
538.5093486378211
 31
0.0
  0
LINE
  5
632E
330
2
100
AcDbEntity
  8
AM_VIS
100
AcDbLine
 10
176.4427337186973
 20
558.5093486378212
 30
0.0
 11
176.4427337186973
 21
538.5093486378211
 31
0.0
  0
LINE
  5
632F
330
2
100
AcDbEntity
  8
AM_VIS
100
AcDbLine
 10
175.4427337186973
 20
538.5093486378211
 30
0.0
 11
175.4427337186973
 21
558.5093486378212
 31
0.0
  0
LINE
  5
6330
330
2
100
AcDbEntity
  8
AM_VIS
100
AcDbLine
 10
165.4427337186973
 20
538.5093486378211
 30
0.0
 11
165.4427337186973
 21
558.5093486378212
 31
0.0
  0
LINE
  5
6331
330
2
100
AcDbEntity
  8
AM_VIS
100
AcDbLine
 10
163.4427337186973
 20
538.5093486378211
 30
0.0
 11
163.4427337186973
 21
558.5093486378212
 31
0.0
  0
LINE
  5
6332
330
2
100
AcDbEntity
  8
AM_VIS
100
AcDbLine
 10
109.4427337186973
 20
513.5093486378211
 30
0.0
 11
109.4427337186973
 21
512.0093486378212
 31
0.0
  0
LINE
  5
6333
330
2
100
AcDbEntity
  8
AM_VIS
100
AcDbLine
 10
177.4427337186973
 20
513.5093486378211
 30
0.0
 11
177.4427337186973
 21
512.0093486378212
 31
0.0
  0
ARC
  5
6334
330
2
100
AcDbEntity
  8
AM_VIS
100
AcDbCircle
 10
124.1545251304621
 20
562.5536644165938
 30
0.0
 40
0.9589303551548965
100
AcDbArc
 50
357.3512030923601
 51
85.28425945079318
  0
LINE
  5
6335
330
2
100
AcDbEntity
  8
AM_VIS
100
AcDbLine
 10
108.4427337186973
 20
533.5093486378212
 30
0.0
 11
112.3139688861506
 21
533.5093486378212
 31
0.0
  0
LINE
  5
6336
330
2
100
AcDbEntity
  8
AM_VIS
100
AcDbLine
 10
124.2333610063988
 20
563.5093486378211
 30
0.0
 11
108.4427337186973
 21
563.5093486378211
 31
0.0
  0
ARC
  5
6337
330
2
100
AcDbEntity
  8
AM_VIS
100
AcDbCircle
 10
162.7309423069325
 20
562.5536644165938
 30
0.0
 40
0.9589303551549319
100
AcDbArc
 50
94.71574054920683
 51
182.6487969076398
  0
LINE
  5
6338
330
2
100
AcDbEntity
  8
AM_VIS
100
AcDbLine
 10
178.4427337186973
 20
563.5093486378211
 30
0.0
 11
162.6521064309959
 21
563.5093486378211
 31
0.0
  0
LINE
  5
6339
330
2
100
AcDbEntity
  8
AM_VIS
100
AcDbLine
 10
174.571498551244
 20
533.5093486378212
 30
0.0
 11
178.4427337186973
 21
533.5093486378212
 31
0.0
  0
LINE
  5
633A
330
2
100
AcDbEntity
  8
AM_VIS
100
AcDbLine
 10
108.4427337186973
 20
562.5093486378212
 30
0.0
 11
108.4427337186973
 21
534.5093486378211
 31
0.0
  0
LINE
  5
633B
330
2
100
AcDbEntity
  8
AM_VIS
100
AcDbLine
 10
178.4427337186973
 20
562.5093486378212
 30
0.0
 11
178.4427337186973
 21
534.5093486378211
 31
0.0
  0
LINE
  5
633C
330
2
100
AcDbEntity
  8
AM_VIS
100
AcDbLine
 10
109.4427337186973
 20
513.5093486378211
 30
0.0
 11
109.4427337186973
 21
533.5093486378212
 31
0.0
  0
SPLINE
  5
633D
330
2
100
AcDbEntity
  8
AM_VIS
100
AcDbSpline
210
0.0
220
0.0
230
1.0
 70
     8
 71
     3
 72
    14
 73
    10
 74
     0
 42
0.0000000001
 43
0.0000000001
 40
3.2042679097339
 40
3.2042679097339
 40
3.2042679097339
 40
3.2042679097339
 40
3.579269345908525
 40
3.579269345908525
 40
3.954270782083151
 40
3.954270782083151
 40
4.383462473197177
 40
4.383462473197177
 40
4.812654164311203
 40
4.812654164311203
 40
4.812654164311203
 40
4.812654164311203
 10
112.8486166371408
 20
534.5093486378211
 30
0.0
 10
112.8486166371408
 20
534.3843481590964
 30
0.0
 10
112.8347224898325
 20
534.2524241851708
 30
0.0
 10
112.7808177347726
 20
534.0126084047445
 30
0.0
 10
112.7409347849313
 20
533.9046376285335
 30
0.0
 10
112.6468004496917
 20
533.7228433133106
 30
0.0
 10
112.5841715379733
 20
533.64171722377
 30
0.0
 10
112.4504358653876
 20
533.534980486889
 30
0.0
 10
112.3793695247966
 20
533.5093486378212
 30
0.0
 10
112.3139688861506
 20
533.5093486378212
 30
0.0
  0
LINE
  5
633E
330
2
100
AcDbEntity
  8
AM_VIS
100
AcDbLine
 10
112.8486166371408
 20
536.5093486378212
 30
0.0
 11
112.8486166371408
 21
534.5093486378211
 31
0.0
  0
SPLINE
  5
633F
330
2
100
AcDbEntity
  8
AM_VIS
100
AcDbSpline
210
0.0
220
0.0
230
1.0
 70
    12
 71
     2
 72
     6
 73
     3
 74
     0
 42
0.0000000001
 43
0.0000000001
 40
0.0
 40
0.0
 40
0.0
 40
16.88194301613415
 40
16.88194301613415
 40
16.88194301613415
 10
135.1361098557793
 20
513.5093486378211
 30
0.0
 41
1.0
 10
143.4427337186973
 20
510.5522057806781
 30
0.0
 41
1.029411764705878
 10
151.7493575816154
 20
513.5093486378211
 30
0.0
 41
1.0
  0
LINE
  5
6340
330
2
100
AcDbEntity
  8
AM_VIS
100
AcDbLine
 10
135.1361098557793
 20
513.5093486378211
 30
0.0
 11
135.1361098557793
 21
536.5093486378212
 31
0.0
  0
LINE
  5
6341
330
2
100
AcDbEntity
  8
AM_VIS
100
AcDbLine
 10
174.0368508002541
 20
534.5093486378211
 30
0.0
 11
174.0368508002541
 21
536.5093486378212
 31
0.0
  0
SPLINE
  5
6342
330
2
100
AcDbEntity
  8
AM_VIS
100
AcDbSpline
210
0.0
220
0.0
230
1.0
 70
     8
 71
     3
 72
    14
 73
    10
 74
     0
 42
0.0000000001
 43
0.0000000001
 40
1.595881655156595
 40
1.595881655156595
 40
1.595881655156595
 40
1.595881655156595
 40
2.025073346270621
 40
2.025073346270621
 40
2.454265037384648
 40
2.454265037384648
 40
2.829266473559274
 40
2.829266473559274
 40
3.2042679097339
 40
3.2042679097339
 40
3.2042679097339
 40
3.2042679097339
 10
174.571498551244
 20
533.5093486378212
 30
0.0
 10
174.506097912598
 20
533.5093486378212
 30
0.0
 10
174.4350315720071
 20
533.534980486889
 30
0.0
 10
174.3012958994213
 20
533.64171722377
 30
0.0
 10
174.238666987703
 20
533.7228433133106
 30
0.0
 10
174.1445326524633
 20
533.9046376285335
 30
0.0
 10
174.104649702622
 20
534.0126084047445
 30
0.0
 10
174.0507449475622
 20
534.2524241851708
 30
0.0
 10
174.0368508002541
 20
534.3843481590964
 30
0.0
 10
174.0368508002541
 20
534.5093486378211
 30
0.0
  0
LINE
  5
6343
330
2
100
AcDbEntity
  8
AM_VIS
100
AcDbLine
 10
177.4427337186973
 20
513.5093486378211
 30
0.0
 11
177.4427337186973
 21
533.5093486378212
 31
0.0
  0
LINE
  5
6344
330
2
100
AcDbEntity
  8
AM_VIS
100
AcDbLine
 10
151.7493575816154
 20
513.5093486378211
 30
0.0
 11
151.7493575816154
 21
536.5093486378212
 31
0.0
  0
LINE
  5
6345
330
2
100
AcDbEntity
  8
AM_VIS
100
AcDbLine
 10
112.8482424735075
 20
536.5097786301446
 30
0.0
 11
113.9974768399665
 21
537.5098004495227
 31
0.0
  0
LINE
  5
6346
330
2
100
AcDbEntity
  8
AM_VIS
100
AcDbLine
 10
135.1361098557793
 20
536.5093486378212
 30
0.0
 11
151.7493575816154
 21
536.5093486378212
 31
0.0
  0
LINE
  5
6347
330
2
100
AcDbEntity
  8
AM_VIS
100
AcDbLine
 10
135.1359640194898
 20
536.5093663233599
 30
0.0
 11
135.2572338460136
 21
537.5093664767084
 31
0.0
  0
LINE
  5
6348
330
2
100
AcDbEntity
  8
AM_VIS
100
AcDbLine
 10
151.6280864905698
 20
537.5093486378212
 30
0.0
 11
135.2573809468249
 21
537.5093486378212
 31
0.0
  0
LINE
  5
6349
330
2
100
AcDbEntity
  8
AM_VIS
100
AcDbLine
 10
151.6282335913811
 20
537.5093664767084
 30
0.0
 11
151.7495034179049
 21
536.5093663233599
 31
0.0
  0
LINE
  5
634A
330
2
100
AcDbEntity
  8
AM_VIS
100
AcDbLine
 10
172.8879905974281
 20
537.5098004495227
 30
0.0
 11
174.0372249638872
 21
536.5097786301446
 31
0.0
  0
LINE
  5
634B
330
2
100
AcDbEntity
  8
AM_VIS
100
AcDbLine
 10
143.9427337186973
 20
518.5093486378211
 30
0.0
 11
138.9427337186973
 21
518.5093486378211
 31
0.0
  0
LINE
  5
634C
330
2
100
AcDbEntity
  8
AM_VIS
100
AcDbLine
 10
143.9427337186973
 20
517.5093486378211
 30
0.0
 11
143.9427337186973
 21
518.5093486378211
 31
0.0
  0
LINE
  5
634D
330
2
100
AcDbEntity
  8
AM_VIS
100
AcDbLine
 10
147.9427337186973
 20
519.5093486378211
 30
0.0
 11
143.9427337186973
 21
517.5093486378211
 31
0.0
  0
LINE
  5
634E
330
2
100
AcDbEntity
  8
AM_VIS
100
AcDbLine
 10
143.9427337186973
 20
521.5093486378211
 30
0.0
 11
147.9427337186973
 21
519.5093486378211
 31
0.0
  0
LINE
  5
634F
330
2
100
AcDbEntity
  8
AM_VIS
100
AcDbLine
 10
143.9427337186973
 20
520.5093486378212
 30
0.0
 11
143.9427337186973
 21
521.5093486378211
 31
0.0
  0
LINE
  5
6350
330
2
100
AcDbEntity
  8
AM_VIS
100
AcDbLine
 10
138.9427337186973
 20
520.5093486378212
 30
0.0
 11
143.9427337186973
 21
520.5093486378212
 31
0.0
  0
LINE
  5
6351
330
2
100
AcDbEntity
  8
AM_VIS
100
AcDbLine
 10
138.9427337186973
 20
518.5093486378211
 30
0.0
 11
138.9427337186973
 21
520.5093486378212
 31
0.0
  0
SPLINE
  5
6352
330
2
100
AcDbEntity
  8
AM_VIS
100
AcDbSpline
210
0.0
220
0.0
230
1.0
 70
     8
 71
     3
 72
     8
 73
     4
 74
     0
 42
0.0000000001
 43
0.0000000001
 40
0.8023169249077238
 40
0.8023169249077238
 40
0.8023169249077238
 40
0.8023169249077238
 40
80.0
 40
80.0
 40
80.0
 40
80.0
 10
153.6530226470283
 20
518.840281692059
 30
0.0
 10
153.4852390101673
 20
518.839828045385
 30
0.0
 10
153.3711914613045
 20
518.8169843902303
 30
0.0
 10
153.3108799327965
 20
518.771750726594
 30
0.0
  0
SPLINE
  5
6353
330
2
100
AcDbEntity
  8
AM_VIS
100
AcDbSpline
210
0.0
220
0.0
230
1.0
 70
     8
 71
     3
 72
     8
 73
     4
 74
     0
 42
0.0000000001
 43
0.0000000001
 40
0.0
 40
0.0
 40
0.0
 40
0.0
 40
80.0
 40
80.0
 40
80.0
 40
80.0
 10
153.3108799327965
 20
518.771750726594
 30
0.0
 10
153.22558835168
 20
518.7047359078794
 30
0.0
 10
153.182942595982
 20
518.569183230157
 30
0.0
 10
153.182942595982
 20
518.3650927631476
 30
0.0
  0
LINE
  5
6354
330
2
100
AcDbEntity
  8
AM_VIS
100
AcDbLine
 10
153.182942595982
 20
518.3650927631476
 30
0.0
 11
153.182942595982
 21
515.9662676978735
 31
0.0
  0
SPLINE
  5
6355
330
2
100
AcDbEntity
  8
AM_VIS
100
AcDbSpline
210
0.0
220
0.0
230
1.0
 70
     8
 71
     3
 72
     8
 73
     4
 74
     0
 42
0.0000000001
 43
0.0000000001
 40
0.0
 40
0.0
 40
0.0
 40
0.0
 40
80.0
 40
80.0
 40
80.0
 40
80.0
 10
153.182942595982
 20
515.9662676978735
 30
0.0
 10
153.182942595982
 20
515.8566071234607
 30
0.0
 10
153.2103577395851
 20
515.7880692644527
 30
0.0
 10
153.2651880267913
 20
515.7606541208499
 30
0.0
  0
SPLINE
  5
6356
330
2
100
AcDbEntity
  8
AM_VIS
100
AcDbSpline
210
0.0
220
0.0
230
1.0
 70
     8
 71
     3
 72
     8
 73
     4
 74
     0
 42
0.0000000001
 43
0.0000000001
 40
0.0
 40
0.0
 40
0.0
 40
0.0
 40
78.74608197375656
 40
78.74608197375656
 40
78.74608197375656
 40
78.74608197375656
 10
153.2651880267913
 20
515.7606541208499
 30
0.0
 10
153.3221572418235
 20
515.7366670865533
 30
0.0
 10
153.4514354485693
 20
515.7244855495376
 30
0.0
 10
153.6530226470283
 20
515.7241095762949
 30
0.0
  0
LINE
  5
6357
330
2
100
AcDbEntity
  8
AM_VIS
100
AcDbLine
 10
153.6530226470283
 20
515.568748115628
 30
0.0
 11
152.4427337186973
 21
515.568748115628
 31
0.0
  0
LINE
  5
6358
330
2
100
AcDbEntity
  8
AM_VIS
100
AcDbLine
 10
152.4427337186973
 20
515.568748115628
 30
0.0
 11
152.4427337186973
 21
515.6601319276385
 31
0.0
  0
SPLINE
  5
6359
330
2
100
AcDbEntity
  8
AM_VIS
100
AcDbSpline
210
0.0
220
0.0
230
1.0
 70
     8
 71
     3
 72
     8
 73
     4
 74
     0
 42
0.0000000001
 43
0.0000000001
 40
0.0
 40
0.0
 40
0.0
 40
0.0
 40
80.0
 40
80.0
 40
80.0
 40
80.0
 10
152.4427337186973
 20
515.6601319276385
 30
0.0
 10
152.6011322797019
 20
515.6753626094534
 30
0.0
 10
152.712315964128
 20
515.7119161342577
 30
0.0
 10
152.7762846325354
 20
515.7697925020508
 30
0.0
  0
SPLINE
  5
635A
330
2
100
AcDbEntity
  8
AM_VIS
100
AcDbSpline
210
0.0
220
0.0
230
1.0
 70
     8
 71
     3
 72
     8
 73
     4
 74
     0
 42
0.0000000001
 43
0.0000000001
 40
0.0
 40
0.0
 40
0.0
 40
0.0
 40
80.0
 40
80.0
 40
80.0
 40
80.0
 10
152.7762846325354
 20
515.7697925020508
 30
0.0
 10
152.8554839130377
 20
515.8459457019664
 30
0.0
 10
152.8950835881489
 20
515.9784521596609
 30
0.0
 10
152.8950835881489
 20
516.1673120842963
 30
0.0
  0
LINE
  5
635B
330
2
100
AcDbEntity
  8
AM_VIS
100
AcDbLine
 10
152.8950835881489
 20
516.1673120842963
 30
0.0
 11
152.8950835881489
 21
518.3650927631472
 31
0.0
  0
SPLINE
  5
635C
330
2
100
AcDbEntity
  8
AM_VIS
100
AcDbSpline
210
0.0
220
0.0
230
1.0
 70
     8
 71
     3
 72
     8
 73
     4
 74
     0
 42
0.0000000001
 43
0.0000000001
 40
0.0
 40
0.0
 40
0.0
 40
0.0
 40
80.0
 40
80.0
 40
80.0
 40
80.0
 10
152.8950835881489
 20
518.3650927631476
 30
0.0
 10
152.8950835881489
 20
518.5600448489561
 30
0.0
 10
152.8539608727444
 20
518.6910283360778
 30
0.0
 10
152.7717154419349
 20
518.7580431547924
 30
0.0
  0
SPLINE
  5
635D
330
2
100
AcDbEntity
  8
AM_VIS
100
AcDbSpline
210
0.0
220
0.0
230
1.0
 70
     8
 71
     3
 72
     8
 73
     4
 74
     0
 42
0.0000000001
 43
0.0000000001
 40
0.0
 40
0.0
 40
0.0
 40
0.0
 40
80.0
 40
80.0
 40
80.0
 40
80.0
 10
152.7717154419349
 20
518.7580431547924
 30
0.0
 10
152.7168851547287
 20
518.8006889104906
 30
0.0
 10
152.6072245105958
 20
518.8281040540934
 30
0.0
 10
152.4427337186973
 20
518.8402885856019
 30
0.0
  0
LINE
  5
635E
330
2
100
AcDbEntity
  8
AM_VIS
100
AcDbLine
 10
152.4427337186973
 20
518.8402885856019
 30
0.0
 11
152.4427337186973
 21
518.9316723976124
 31
0.0
  0
LINE
  5
635F
330
2
100
AcDbEntity
  8
AM_VIS
100
AcDbLine
 10
152.4427337186973
 20
518.9316723976124
 30
0.0
 11
153.6530226470283
 21
518.9316723976124
 31
0.0
  0
LINE
  5
6360
330
2
100
AcDbEntity
  8
AM_VIS
100
AcDbLine
 10
160.9437128309689
 20
519.0093486378211
 30
0.0
 11
160.8249138753551
 21
519.0002102566202
 31
0.0
  0
LINE
  5
6361
330
2
100
AcDbEntity
  8
AM_VIS
100
AcDbLine
 10
160.980266355773
 20
517.9081737030944
 30
0.0
 11
160.9437128309689
 21
519.0093486378215
 31
0.0
  0
LINE
  5
6362
330
2
100
AcDbEntity
  8
AM_VIS
100
AcDbLine
 10
160.884313353162
 20
517.8990353218944
 30
0.0
 11
160.980266355773
 21
517.9081737030953
 31
0.0
  0
SPLINE
  5
6363
330
2
100
AcDbEntity
  8
AM_VIS
100
AcDbSpline
210
0.0
220
0.0
230
1.0
 70
     8
 71
     3
 72
    14
 73
    10
 74
     0
 42
0.0000000001
 43
0.0000000001
 40
-1.608112432013847
 40
-1.608112432013847
 40
-1.608112432013847
 40
-1.608112432013847
 40
-1.193157471304488
 40
-1.193157471304488
 40
-0.8349003316812176
 40
-0.8349003316812176
 40
-0.4536288099811766
 40
-0.4536288099811766
 40
0.0
 40
0.0
 40
0.0
 40
0.0
 10
160.884313353162
 20
517.8990353218944
 30
0.0
 10
160.8538769657343
 20
518.0328285986199
 30
0.0
 10
160.8127259630296
 20
518.1658844706974
 30
0.0
 10
160.7081357057909
 20
518.394108994538
 30
0.0
 10
160.648345240146
 20
518.4923465677559
 30
0.0
 10
160.4953001416143
 20
518.6662767327208
 30
0.0
 10
160.4042597353161
 20
518.7354344702432
 30
0.0
 10
160.1773703140245
 20
518.840308725579
 30
0.0
 10
160.0450307043945
 20
518.8631345386045
 30
0.0
 10
159.911075755251
 20
518.8631345386045
 30
0.0
  0
ARC
  5
6364
330
2
100
AcDbEntity
  8
AM_VIS
100
AcDbCircle
 10
159.921220134056
 20
517.5284910859993
 30
0.0
 40
1.334682004824825
100
AcDbArc
 50
90.43548626980438
 51
109.6485610012548
  0
ARC
  5
6365
330
2
100
AcDbEntity
  8
AM_VIS
100
AcDbCircle
 10
159.8273808991707
 20
517.7977061970361
 30
0.0
 40
1.049591301419944
100
AcDbArc
 50
109.7658345532209
 51
135.0892754383193
  0
ARC
  5
6366
330
2
100
AcDbEntity
  8
AM_VIS
100
AcDbCircle
 10
160.6380773901962
 20
517.374401536739
 30
0.0
 40
1.941812625112978
100
AcDbArc
 50
143.1583902231428
 51
183.6669326629918
  0
ARC
  5
6367
330
2
100
AcDbEntity
  8
AM_VIS
100
AcDbCircle
 10
160.3310512879957
 20
517.1458641166916
 30
0.0
 40
1.634145884321901
100
AcDbArc
 50
176.338966003654
 51
221.9681506321427
  0
ARC
  5
6368
330
2
100
AcDbEntity
  8
AM_VIS
100
AcDbCircle
 10
159.9597146762148
 20
516.8436239924256
 30
0.0
 40
1.156178554052664
100
AcDbArc
 50
223.1376923555145
 51
270.759705811539
  0
ARC
  5
6369
330
2
100
AcDbEntity
  8
AM_VIS
100
AcDbCircle
 10
159.9287783051277
 20
517.0117417906565
 30
0.0
 40
1.325002720242755
100
AcDbArc
 50
272.0010466822309
 51
323.1751160492656
  0
LINE
  5
636A
330
2
100
AcDbEntity
  8
AM_VIS
100
AcDbLine
 10
161.0442350241803
 20
516.1353277500928
 30
0.0
 11
160.9894047369741
 21
516.2175731809022
 31
0.0
  0
ARC
  5
636B
330
2
100
AcDbEntity
  8
AM_VIS
100
AcDbCircle
 10
160.0015537285719
 20
516.8030291154876
 30
0.0
 40
1.238147566957289
100
AcDbArc
 50
304.9411630108333
 51
327.3657378913751
  0
ARC
  5
636C
330
2
100
AcDbEntity
  8
AM_VIS
100
AcDbCircle
 10
159.8610985272535
 20
516.9431949590573
 30
0.0
 40
1.433914583692903
100
AcDbArc
 50
269.4409268061053
 51
306.3341803379802
  0
ARC
  5
636D
330
2
100
AcDbEntity
  8
AM_VIS
100
AcDbCircle
 10
159.8099506418714
 20
516.8740293269572
 30
0.0
 40
1.365186428552367
100
AcDbArc
 50
224.8375622376464
 51
271.5596187896463
  0
ARC
  5
636E
330
2
100
AcDbEntity
  8
AM_VIS
100
AcDbCircle
 10
160.2077251761607
 20
517.1444397827119
 30
0.0
 40
1.840058100607968
100
AcDbArc
 50
176.4196352208877
 51
222.0739207900237
  0
ARC
  5
636F
330
2
100
AcDbEntity
  8
AM_VIS
100
AcDbCircle
 10
160.1932644228884
 20
517.3417717289305
 30
0.0
 40
1.823869256726474
100
AcDbArc
 50
138.0258024763515
 51
182.5901550461736
  0
ARC
  5
6370
330
2
100
AcDbEntity
  8
AM_VIS
100
AcDbCircle
 10
159.8529648628021
 20
517.6341380048049
 30
0.0
 40
1.375379585881563
100
AcDbArc
 50
89.10192300794962
 51
137.5995365368886
  0
ARC
  5
6371
330
2
100
AcDbEntity
  8
AM_VIS
100
AcDbCircle
 10
159.8541865340878
 20
517.249583620269
 30
0.0
 40
1.759882512427152
100
AcDbArc
 50
72.4017227688344
 51
89.33792426660698
  0
LINE
  5
6372
330
2
100
AcDbEntity
  8
AM_VIS
100
AcDbLine
 10
160.3862567299802
 20
518.9270533429305
 30
0.0
 11
160.6647729001597
 21
518.8441212727073
 31
0.0
  0
SPLINE
  5
6373
330
2
100
AcDbEntity
  8
AM_VIS
100
AcDbSpline
210
0.0
220
0.0
230
1.0
 70
     8
 71
     3
 72
    14
 73
    10
 74
     0
 42
0.0000000001
 43
0.0000000001
 40
-0.2604329022945249
 40
-0.2604329022945249
 40
-0.2604329022945249
 40
-0.2604329022945249
 40
-0.2119083035077304
 40
-0.2119083035077304
 40
-0.1665934578837816
 40
-0.1665934578837816
 40
-0.0993147059779253
 40
-0.0993147059779253
 40
0.0
 40
0.0
 40
0.0
 40
0.0
 10
160.664992204337
 20
518.8448577762021
 30
0.0
 10
160.6791515871496
 20
518.8448577762021
 30
0.0
 10
160.6932696261704
 20
518.846512946234
 30
0.0
 10
160.7198437734748
 20
518.8539825373116
 30
0.0
 10
160.7320505217017
 20
518.8594307266755
 30
0.0
 10
160.7605413258063
 20
518.8780681966952
 30
0.0
 10
160.7748249838971
 20
518.8930041633764
 30
0.0
 10
160.8044786317264
 20
518.9370017396993
 30
0.0
 10
160.8165287111144
 20
518.9685329623801
 30
0.0
 10
160.8249138753554
 20
519.0002102566202
 30
0.0
  0
LINE
  5
6374
330
2
100
AcDbEntity
  8
AM_VIS
100
AcDbLine
 10
153.6530226470283
 20
515.568748115628
 30
0.0
 11
153.6530226470283
 21
515.7241095762949
 31
0.0
  0
LINE
  5
6375
330
2
100
AcDbEntity
  8
AM_VIS
100
AcDbLine
 10
153.6530226456295
 20
515.7241080660084
 30
0.0
 11
153.6627076076474
 21
515.7240990959392
 31
0.0
  0
ARC
  5
6376
330
2
100
AcDbEntity
  8
AM_VIS
100
AcDbCircle
 10
153.7840981048762
 20
518.1385473501165
 30
0.0
 40
2.417496386910001
100
AcDbArc
 50
267.1217788751958
 51
286.0672511892629
  0
SPLINE
  5
6377
330
2
100
AcDbEntity
  8
AM_VIS
100
AcDbSpline
210
0.0
220
0.0
230
1.0
 70
     8
 71
     3
 72
    12
 73
     8
 74
     0
 42
0.0000000001
 43
0.0000000001
 40
-0.7910501646128524
 40
-0.7910501646128524
 40
-0.7910501646128524
 40
-0.7910501646128524
 40
-0.6197694514922676
 40
-0.6197694514922676
 40
-0.4323084087518441
 40
-0.4323084087518441
 40
0.0
 40
0.0
 40
0.0
 40
0.0
 10
154.4531775829271
 20
515.8154844080561
 30
0.0
 10
154.5035343756442
 20
515.8370658984897
 30
0.0
 10
154.5500030502251
 20
515.8660898891805
 30
0.0
 10
154.6399309030591
 20
515.939429715723
 30
0.0
 10
154.6818978203059
 20
515.9842857593514
 30
0.0
 10
154.8059527160722
 20
516.1446137864061
 30
0.0
 10
154.8724593281731
 20
516.2805516774199
 30
0.0
 10
154.9238042147808
 20
516.4140483767243
 30
0.0
  0
LINE
  5
6378
330
2
100
AcDbEntity
  8
AM_VIS
100
AcDbLine
 10
154.8187128309689
 20
515.568748115628
 30
0.0
 11
155.0197572173918
 21
516.4140483767243
 31
0.0
  0
LINE
  5
6379
330
2
100
AcDbEntity
  8
AM_VIS
100
AcDbLine
 10
153.6530226470283
 20
518.840281692059
 30
0.0
 11
153.6530226470283
 21
518.9316723976124
 31
0.0
  0
LINE
  5
637A
330
2
100
AcDbEntity
  8
AM_VIS
100
AcDbLine
 10
153.6581384184362
 20
518.9316723976124
 30
0.0
 11
153.6581384184362
 21
518.8402885856019
 31
0.0
  0
LINE
  5
637B
330
2
100
AcDbEntity
  8
AM_VIS
100
AcDbLine
 10
153.6530226454733
 20
518.8402828469131
 30
0.0
 11
153.6581384168871
 21
518.8402897360163
 31
0.0
  0
ARC
  5
637C
330
2
100
AcDbEntity
  8
AM_VIS
100
AcDbCircle
 10
157.1288577056141
 20
517.170713471866
 30
0.0
 40
1.903059992272876
100
AcDbArc
 50
177.4681862507691
 51
218.9099051485261
  0
ARC
  5
637D
330
2
100
AcDbEntity
  8
AM_VIS
100
AcDbCircle
 10
157.1088071158344
 20
517.3488136718349
 30
0.0
 40
1.883500531478083
100
AcDbArc
 50
139.5537078991119
 51
182.8616954539228
  0
ARC
  5
637E
330
2
100
AcDbEntity
  8
AM_VIS
100
AcDbCircle
 10
156.6433417443049
 20
517.7225530345119
 30
0.0
 40
1.286936450267064
100
AcDbArc
 50
89.15231055345181
 51
138.7726673957006
  0
ARC
  5
637F
330
2
100
AcDbEntity
  8
AM_VIS
100
AcDbCircle
 10
156.6836869136327
 20
517.7175694000132
 30
0.0
 40
1.291954926084512
100
AcDbArc
 50
41.32624671908745
 51
90.9449096015523
  0
ARC
  5
6380
330
2
100
AcDbEntity
  8
AM_VIS
100
AcDbCircle
 10
156.2126751967084
 20
517.3526938097968
 30
0.0
 40
1.886973971987175
100
AcDbArc
 50
357.0256079724749
 51
40.20201450204544
  0
ARC
  5
6381
330
2
100
AcDbEntity
  8
AM_VIS
100
AcDbCircle
 10
156.1835002867365
 20
517.1694480671769
 30
0.0
 40
1.915508399834438
100
AcDbArc
 50
321.4384400310218
 51
2.55323675715687
  0
ARC
  5
6382
330
2
100
AcDbEntity
  8
AM_VIS
100
AcDbCircle
 10
156.6897009155782
 20
516.7964788452033
 30
0.0
 40
1.287420108404363
100
AcDbArc
 50
268.7840645809999
 51
320.3745636503974
  0
ARC
  5
6383
330
2
100
AcDbEntity
  8
AM_VIS
100
AcDbCircle
 10
156.6373249859859
 20
516.7917058561823
 30
0.0
 40
1.28260198474105
100
AcDbArc
 50
219.5269015912206
 51
271.1193720681014
  0
ARC
  5
6384
330
2
100
AcDbEntity
  8
AM_VIS
100
AcDbCircle
 10
157.4915673712526
 20
517.3692189568766
 30
0.0
 40
1.938047107655534
100
AcDbArc
 50
143.389556385154
 51
183.2499119387868
  0
ARC
  5
6385
330
2
100
AcDbEntity
  8
AM_VIS
100
AcDbCircle
 10
157.4793741257451
 20
517.1496944187299
 30
0.0
 40
1.925861279564267
100
AcDbArc
 50
176.7359416499951
 51
216.043139018082
  0
ARC
  5
6386
330
2
100
AcDbEntity
  8
AM_VIS
100
AcDbCircle
 10
156.6664851338084
 20
516.5684816156588
 30
0.0
 40
0.9266355381602524
100
AcDbArc
 50
216.5591648966801
 51
269.7462468766233
  0
ARC
  5
6387
330
2
100
AcDbEntity
  8
AM_VIS
100
AcDbCircle
 10
156.654281254858
 20
516.5947392051864
 30
0.0
 40
0.9529184662516112
100
AcDbArc
 50
270.4870306007517
 51
322.6430717534113
  0
ARC
  5
6388
330
2
100
AcDbEntity
  8
AM_VIS
100
AcDbCircle
 10
155.8542473280515
 20
517.149776596366
 30
0.0
 40
1.92613555373946
100
AcDbArc
 50
323.9597747389484
 51
3.261144592982773
  0
ARC
  5
6389
330
2
100
AcDbEntity
  8
AM_VIS
100
AcDbCircle
 10
155.843900716437
 20
517.3696885600686
 30
0.0
 40
1.936509100910613
100
AcDbArc
 50
356.7335874219635
 51
36.62694425410166
  0
ARC
  5
638A
330
2
100
AcDbEntity
  8
AM_VIS
100
AcDbCircle
 10
156.6495927769938
 20
517.9418078451233
 30
0.0
 40
0.9488280234984816
100
AcDbArc
 50
37.92721607827326
 51
89.22773460902654
  0
ARC
  5
638B
330
2
100
AcDbEntity
  8
AM_VIS
100
AcDbCircle
 10
156.6760939055714
 20
517.9585674596203
 30
0.0
 40
0.9320830974021633
100
AcDbArc
 50
90.84295735913718
 51
142.5750628791647
  0
LINE
  5
638C
330
2
100
AcDbEntity
  8
AM_VIS
100
AcDbLine
 10
164.1467154419349
 20
518.9316723976124
 30
0.0
 11
164.1467154419349
 21
518.8402885856019
 31
0.0
  0
LINE
  5
638D
330
2
100
AcDbEntity
  8
AM_VIS
100
AcDbLine
 10
163.9319263187699
 20
518.8271623891848
 30
0.0
 11
164.146676963006
 21
518.840890515856
 31
0.0
  0
ARC
  5
638E
330
2
100
AcDbEntity
  8
AM_VIS
100
AcDbCircle
 10
163.9773572464189
 20
518.3805688505197
 30
0.0
 40
0.4483162315674853
100
AcDbArc
 50
95.81137964435468
 51
122.6499651069709
  0
ARC
  5
638F
330
2
100
AcDbEntity
  8
AM_VIS
100
AcDbCircle
 10
164.6219817736587
 20
517.5299776833042
 30
0.0
 40
1.514600773331184
100
AcDbArc
 50
125.8240769696503
 51
140.2929502485242
  0
LINE
  5
6390
330
2
100
AcDbEntity
  8
AM_VIS
100
AcDbLine
 10
162.5383603505511
 20
517.4923773584476
 30
0.0
 11
163.4567676612562
 21
518.4975992905626
 31
0.0
  0
LINE
  5
6391
330
2
100
AcDbEntity
  8
AM_VIS
100
AcDbLine
 10
163.6395352852769
 20
516.1353277500928
 30
0.0
 11
162.5383603505511
 21
517.4923773584476
 31
0.0
  0
ARC
  5
6392
330
2
100
AcDbEntity
  8
AM_VIS
100
AcDbCircle
 10
165.3847483766501
 20
517.5058672122229
 30
0.0
 40
2.219041944523951
100
AcDbArc
 50
218.1430269161864
 51
231.8569730838078
  0
ARC
  5
6393
330
2
100
AcDbEntity
  8
AM_VIS
100
AcDbCircle
 10
164.3565564064745
 20
516.2933432926276
 30
0.0
 40
0.6332136756082893
100
AcDbArc
 50
237.2720461279364
 51
268.2077236448551
  0
LINE
  5
6394
330
2
100
AcDbEntity
  8
AM_VIS
100
AcDbLine
 10
164.3367520014499
 20
515.6604393942996
 30
0.0
 11
164.3367520014499
 21
515.568748115628
 31
0.0
  0
LINE
  5
6395
330
2
100
AcDbEntity
  8
AM_VIS
100
AcDbLine
 10
163.0592480790105
 20
515.568748115628
 30
0.0
 11
163.0592480790105
 21
515.6601319276385
 31
0.0
  0
ARC
  5
6396
330
2
100
AcDbEntity
  8
AM_VIS
100
AcDbCircle
 10
162.9976425427178
 20
516.7386627378943
 30
0.0
 40
1.080288827477788
100
AcDbArc
 50
273.269174962845
 51
287.8528464195402
  0
SPLINE
  5
6397
330
2
100
AcDbEntity
  8
AM_VIS
100
AcDbSpline
210
0.0
220
0.0
230
1.0
 70
     8
 71
     3
 72
    14
 73
    10
 74
     0
 42
0.0000000001
 43
0.0000000001
 40
-0.1531726380934112
 40
-0.1531726380934112
 40
-0.1531726380934112
 40
-0.1531726380934112
 40
-0.1208721410525331
 40
-0.1208721410525331
 40
-0.0915873767462261
 40
-0.0915873767462261
 40
-0.0514964941566076
 40
-0.0514964941566076
 40
0.0
 40
0.0
 40
0.0
 40
0.0
 10
163.3288303244414
 20
515.710393024244
 30
0.0
 10
163.3372990364998
 20
515.7137805090671
 30
0.0
 10
163.3455623619782
 20
515.7180799617588
 30
0.0
 10
163.3602100380692
 20
515.7285092692156
 30
0.0
 10
163.3666369799148
 20
515.7343871654818
 30
0.0
 10
163.3800661480711
 20
515.7508782235256
 30
0.0
 10
163.3859580052544
 20
515.7618883315824
 30
0.0
 10
163.3953588139684
 20
515.790239578868
 30
0.0
 10
163.3973681834493
 20
515.8074572912048
 30
0.0
 10
163.3973681834493
 20
515.824622789257
 30
0.0
  0
ARC
  5
6398
330
2
100
AcDbEntity
  8
AM_VIS
100
AcDbCircle
 10
159.9795352902952
 20
514.0961021549848
 30
0.0
 40
3.830060739548521
100
AcDbArc
 50
26.82735965872454
 51
42.49953204828154
  0
LINE
  5
6399
330
2
100
AcDbEntity
  8
AM_VIS
100
AcDbLine
 10
162.3281775829271
 20
517.2639178284214
 30
0.0
 11
162.8033734053813
 21
516.6836306221551
 31
0.0
  0
LINE
  5
639A
330
2
100
AcDbEntity
  8
AM_VIS
100
AcDbLine
 10
162.081441290499
 20
517.0171815359934
 30
0.0
 11
162.3281775829271
 21
517.2639178284214
 31
0.0
  0
LINE
  5
639B
330
2
100
AcDbEntity
  8
AM_VIS
100
AcDbLine
 10
162.081441290499
 20
517.0171815359934
 30
0.0
 11
162.081441290499
 21
516.130758559492
 31
0.0
  0
ARC
  5
639C
330
2
100
AcDbEntity
  8
AM_VIS
100
AcDbCircle
 10
162.6197130050961
 20
516.0806071697477
 30
0.0
 40
0.5406029972435859
100
AcDbArc
 50
174.6770539476589
 51
215.0954797503829
  0
ARC
  5
639D
330
2
100
AcDbEntity
  8
AM_VIS
100
AcDbCircle
 10
162.5510792595667
 20
516.3513533562975
 30
0.0
 40
0.6912694708632809
100
AcDbArc
 50
237.2770155238618
 51
269.3244960081453
  0
LINE
  5
639E
330
2
100
AcDbEntity
  8
AM_VIS
100
AcDbLine
 10
162.5429295411516
 20
515.6601319276385
 30
0.0
 11
162.5429295411516
 21
515.568748115628
 31
0.0
  0
LINE
  5
639F
330
2
100
AcDbEntity
  8
AM_VIS
100
AcDbLine
 10
161.3320940320132
 20
515.568748115628
 30
0.0
 11
161.3320940320132
 21
515.6601319276385
 31
0.0
  0
SPLINE
  5
63A0
330
2
100
AcDbEntity
  8
AM_VIS
100
AcDbSpline
210
0.0
220
0.0
230
1.0
 70
     8
 71
     3
 72
    10
 73
     6
 74
     0
 42
0.0000000001
 43
0.0000000001
 40
-0.3963858617535622
 40
-0.3963858617535622
 40
-0.3963858617535622
 40
-0.3963858617535622
 40
-0.0994926975763721
 40
-0.0994926975763721
 40
0.0
 40
0.0
 40
0.0
 40
0.0
 10
161.3320940320132
 20
515.6601319276385
 30
0.0
 10
161.4435612533309
 20
515.6694208910955
 30
0.0
 10
161.550080816218
 20
515.6891505007454
 30
0.0
 10
161.6543985715607
 20
515.7406901465199
 30
0.0
 10
161.6806091353646
 20
515.7573415479612
 30
0.0
 10
161.7021984706555
 20
515.7789308832518
 30
0.0
  0
SPLINE
  5
63A1
330
2
100
AcDbEntity
  8
AM_VIS
100
AcDbSpline
210
0.0
220
0.0
230
1.0
 70
     8
 71
     3
 72
    12
 73
     8
 74
     0
 42
0.0000000001
 43
0.0000000001
 40
-0.4233469574412786
 40
-0.4233469574412786
 40
-0.4233469574412786
 40
-0.4233469574412786
 40
-0.3460605099151339
 40
-0.3460605099151339
 40
-0.2515676211573338
 40
-0.2515676211573338
 40
0.0
 40
0.0
 40
0.0
 40
0.0
 10
161.7021984706555
 20
515.7789308832518
 30
0.0
 10
161.7179808162543
 20
515.797205199169
 30
0.0
 10
161.7303610904507
 20
515.8193595596456
 30
0.0
 10
161.7521821549087
 20
515.8710398624363
 30
0.0
 10
161.7608874907132
 20
515.9023825229653
 30
0.0
 10
161.7844095583057
 20
516.0150441205685
 30
0.0
 10
161.7890130920654
 20
516.1108713541805
 30
0.0
 10
161.7890130920654
 20
516.1947272278996
 30
0.0
  0
LINE
  5
63A2
330
2
100
AcDbEntity
  8
AM_VIS
100
AcDbLine
 10
161.7890130920654
 20
516.1947272278996
 30
0.0
 11
161.7890130920654
 21
518.3925079067505
 31
0.0
  0
SPLINE
  5
63A3
330
2
100
AcDbEntity
  8
AM_VIS
100
AcDbSpline
210
0.0
220
0.0
230
1.0
 70
     8
 71
     3
 72
    12
 73
     8
 74
     0
 42
0.0000000001
 43
0.0000000001
 40
-0.4087596760899748
 40
-0.4087596760899748
 40
-0.4087596760899748
 40
-0.4087596760899748
 40
-0.1942424470515969
 40
-0.1942424470515969
 40
-0.0844960232748131
 40
-0.0844960232748131
 40
0.0
 40
0.0
 40
0.0
 40
0.0
 10
161.7890130920654
 20
518.3925079067505
 30
0.0
 10
161.7890130920654
 20
518.4637402507408
 30
0.0
 10
161.7837698413741
 20
518.5418079150501
 30
0.0
 10
161.7569884583272
 20
518.6452058789257
 30
0.0
 10
161.7441989802992
 20
518.679503118016
 30
0.0
 10
161.7119230814935
 20
518.7321754282172
 30
0.0
 10
161.6950264751633
 20
518.7517967278611
 30
0.0
 10
161.6747833270524
 20
518.7671815359933
 30
0.0
  0
ARC
  5
63A4
330
2
100
AcDbEntity
  8
AM_VIS
100
AcDbCircle
 10
161.3167164416093
 20
517.928474570531
 30
0.0
 40
0.9119436760930572
100
AcDbArc
 50
66.88104182880481
 51
89.0338078854236
  0
LINE
  5
63A5
330
2
100
AcDbEntity
  8
AM_VIS
100
AcDbLine
 10
161.3320940320132
 20
518.8402885856019
 30
0.0
 11
161.3320940320132
 21
518.9316723976124
 31
0.0
  0
LINE
  5
63A6
330
2
100
AcDbEntity
  8
AM_VIS
100
AcDbLine
 10
162.5520679223527
 20
518.9316723976124
 30
0.0
 11
162.5520679223527
 21
518.8402885856019
 31
0.0
  0
SPLINE
  5
63A7
330
2
100
AcDbEntity
  8
AM_VIS
100
AcDbSpline
210
0.0
220
0.0
230
1.0
 70
     8
 71
     3
 72
    10
 73
     6
 74
     0
 42
0.0000000001
 43
0.0000000001
 40
-0.3041110503072323
 40
-0.3041110503072323
 40
-0.3041110503072323
 40
-0.3041110503072323
 40
-0.0622187259415476
 40
-0.0622187259415476
 40
0.0
 40
0.0
 40
0.0
 40
0.0
 10
162.5520679223527
 20
518.8402885856019
 30
0.0
 10
162.425673768457
 20
518.8304140133712
 30
0.0
 10
162.3087823243086
 20
518.8138559788942
 30
0.0
 10
162.2156838463015
 20
518.7783974608744
 30
0.0
 10
162.1967358879221
 20
518.7693396910001
 30
0.0
 10
162.1819634837104
 20
518.7580431547924
 30
0.0
  0
SPLINE
  5
63A8
330
2
100
AcDbEntity
  8
AM_VIS
100
AcDbSpline
210
0.0
220
0.0
230
1.0
 70
     8
 71
     3
 72
    12
 73
     8
 74
     0
 42
0.0000000001
 43
0.0000000001
 40
-0.4286539677926123
 40
-0.4286539677926123
 40
-0.4286539677926123
 40
-0.4286539677926123
 40
-0.3419771503709849
 40
-0.3419771503709849
 40
-0.2431876069041224
 40
-0.2431876069041224
 40
0.0
 40
0.0
 40
0.0
 40
0.0
 10
162.1819634837104
 20
518.7580431547924
 30
0.0
 10
162.1644280913117
 20
518.7428989514371
 30
0.0
 10
162.1499497664731
 20
518.7240325875912
 30
0.0
 10
162.1243517607824
 20
518.6782678283427
 30
0.0
 10
162.114202048262
 20
518.6509992959233
 30
0.0
 10
162.0877844645451
 20
518.5549317474976
 30
0.0
 10
162.081441290499
 20
518.4735704423854
 30
0.0
 10
162.081441290499
 20
518.3925079067505
 30
0.0
  0
LINE
  5
63A9
330
2
100
AcDbEntity
  8
AM_VIS
100
AcDbLine
 10
162.081441290499
 20
518.3925079067505
 30
0.0
 11
162.081441290499
 21
517.2045183506149
 31
0.0
  0
LINE
  5
63AA
330
2
100
AcDbEntity
  8
AM_VIS
100
AcDbLine
 10
162.0844726750945
 20
517.2016935763397
 30
0.0
 11
163.1072519050924
 21
518.2992811710694
 31
0.0
  0
SPLINE
  5
63AB
330
2
100
AcDbEntity
  8
AM_VIS
100
AcDbSpline
210
0.0
220
0.0
230
1.0
 70
     8
 71
     3
 72
    12
 73
     8
 74
     0
 42
0.0000000001
 43
0.0000000001
 40
-0.4361758250565723
 40
-0.4361758250565723
 40
-0.4361758250565723
 40
-0.4361758250565723
 40
-0.184232534982831
 40
-0.184232534982831
 40
-0.061391432063359
 40
-0.061391432063359
 40
0.0
 40
0.0
 40
0.0
 40
0.0
 10
163.1003707944153
 20
518.3056932853408
 30
0.0
 10
163.1550111020283
 20
518.3728553534554
 30
0.0
 10
163.2167050504949
 20
518.4551024710583
 30
0.0
 10
163.2815711089761
 20
518.5722057406162
 30
0.0
 10
163.3002722787421
 20
518.6127883018114
 30
0.0
 10
163.3160212892373
 20
518.6711150080311
 30
0.0
 10
163.3196919276277
 20
518.6918874380991
 30
0.0
 10
163.3196919432405
 20
518.7123512487871
 30
0.0
  0
ARC
  5
63AC
330
2
100
AcDbEntity
  8
AM_VIS
100
AcDbCircle
 10
163.2280740284034
 20
518.7219974507054
 30
0.0
 40
0.0921243264860693
100
AcDbArc
 50
353.9896265619562
 51
69.52933360763601
  0
ARC
  5
63AD
330
2
100
AcDbEntity
  8
AM_VIS
100
AcDbCircle
 10
163.0135272880472
 20
517.8776149015468
 30
0.0
 40
0.9628477131391925
100
AcDbArc
 50
75.15015140968393
 51
88.91062780167702
  0
LINE
  5
63AE
330
2
100
AcDbEntity
  8
AM_VIS
100
AcDbLine
 10
163.0318329354074
 20
518.8402885856019
 30
0.0
 11
163.0318329354074
 21
518.9316723976124
 31
0.0
  0
LINE
  5
63AF
330
2
100
AcDbEntity
  8
AM_VIS
100
AcDbLine
 10
119.4427337186973
 20
564.5093486378211
 30
0.0
 11
118.4427337186973
 21
563.5093486378211
 31
0.0
  0
LINE
  5
63B0
330
2
100
AcDbEntity
  8
AM_VIS
100
AcDbLine
 10
167.4427337186973
 20
564.5093486378211
 30
0.0
 11
168.4427337186973
 21
563.5093486378211
 31
0.0
  0
LINE
  5
63B1
330
2
100
AcDbEntity
  8
AM_VIS
100
AcDbLine
 10
176.4427337186973
 20
510.5093486378211
 30
0.0
 11
177.4427337186973
 21
512.0093486378212
 31
0.0
  0
LINE
  5
63B2
330
2
100
AcDbEntity
  8
AM_VIS
100
AcDbLine
 10
110.4427337186973
 20
510.5093486378211
 30
0.0
 11
109.4427337186973
 21
512.0093486378212
 31
0.0
  0
LINE
  5
63B3
330
2
100
AcDbEntity
  8
AM_VIS
100
AcDbLine
 10
124.2333610063988
 20
563.5093486378211
 30
0.0
 11
162.6521064309959
 21
563.5093486378211
 31
0.0
  0
LINE
  5
63B4
330
2
100
AcDbEntity
  8
AM_VIS
100
AcDbLine
 10
119.4427337186973
 20
564.5093486378211
 30
0.0
 11
167.4427337186973
 21
564.5093486378211
 31
0.0
  0
LINE
  5
63B5
330
2
100
AcDbEntity
  8
AM_VIS
100
AcDbLine
 10
110.4427337186973
 20
510.5093486378211
 30
0.0
 11
176.4427337186973
 21
510.5093486378211
 31
0.0
  0
LINE
  5
63B6
330
2
100
AcDbEntity
  8
AM_VIS
100
AcDbLine
 10
108.4427337186973
 20
562.5093486378212
 30
0.0
 11
108.4427337186973
 21
563.5093486378211
 31
0.0
  0
LINE
  5
63B7
330
2
100
AcDbEntity
  8
AM_VIS
100
AcDbLine
 10
108.4427337186973
 20
533.5093486378212
 30
0.0
 11
108.4427337186973
 21
534.5093486378211
 31
0.0
  0
LINE
  5
63B8
330
2
100
AcDbEntity
  8
AM_VIS
100
AcDbLine
 10
178.4427337186973
 20
534.5093486378211
 30
0.0
 11
178.4427337186973
 21
533.5093486378212
 31
0.0
  0
LINE
  5
63B9
330
2
100
AcDbEntity
  8
AM_VIS
100
AcDbLine
 10
178.4427337186973
 20
563.5093486378211
 30
0.0
 11
178.4427337186973
 21
562.5093486378212
 31
0.0
  0
LINE
  5
63BA
330
2
100
AcDbEntity
  8
AM_VIS
100
AcDbLine
 10
135.1361098557793
 20
513.5093486378211
 30
0.0
 11
109.4427337186973
 21
513.5093486378211
 31
0.0
  0
LINE
  5
63BB
330
2
100
AcDbEntity
  8
AM_VIS
100
AcDbLine
 10
177.4427337186973
 20
513.5093486378211
 30
0.0
 11
151.7493575816154
 21
513.5093486378211
 31
0.0
  0
LINE
  5
63BC
330
2
100
AcDbEntity
  8
AM_VIS
100
AcDbLine
 10
135.1361098557793
 20
536.5093486378212
 30
0.0
 11
112.8486166371408
 21
536.5093486378212
 31
0.0
  0
LINE
  5
63BD
330
2
100
AcDbEntity
  8
AM_VIS
100
AcDbLine
 10
113.9978699900266
 20
537.5093486378212
 30
0.0
 11
135.2573809468249
 21
537.5093486378212
 31
0.0
  0
LINE
  5
63BE
330
2
100
AcDbEntity
  8
AM_VIS
100
AcDbLine
 10
151.6280864905698
 20
537.5093486378212
 30
0.0
 11
172.8875974473683
 21
537.5093486378212
 31
0.0
  0
LINE
  5
63BF
330
2
100
AcDbEntity
  8
AM_VIS
100
AcDbLine
 10
174.0368508002541
 20
536.5093486378212
 30
0.0
 11
151.7493575816154
 21
536.5093486378212
 31
0.0
  0
LINE
  5
63C0
330
2
100
AcDbEntity
  8
AM_VIS
100
AcDbLine
 10
155.0197572173918
 20
516.4140483767243
 30
0.0
 11
154.9238042147808
 21
516.4140483767243
 31
0.0
  0
LINE
  5
63C1
330
2
100
AcDbEntity
  8
AM_VIS
100
AcDbLine
 10
153.6530226470283
 20
515.568748115628
 30
0.0
 11
154.8187128309689
 21
515.568748115628
 31
0.0
  0
LINE
  5
63C2
330
2
100
AcDbEntity
  8
AM_VIS
100
AcDbLine
 10
153.6581384184362
 20
518.9316723976124
 30
0.0
 11
153.6530226470283
 21
518.9316723976124
 31
0.0
  0
LINE
  5
63C3
330
2
100
AcDbEntity
  8
AM_VIS
100
AcDbLine
 10
163.0592480790108
 20
515.568748115628
 30
0.0
 11
164.3367520014499
 21
515.568748115628
 31
0.0
  0
LINE
  5
63C4
330
2
100
AcDbEntity
  8
AM_VIS
100
AcDbLine
 10
161.3320940320132
 20
515.568748115628
 30
0.0
 11
162.5429295411516
 21
515.568748115628
 31
0.0
  0
LINE
  5
63C5
330
2
100
AcDbEntity
  8
AM_VIS
100
AcDbLine
 10
162.5520679223527
 20
518.9316723976124
 30
0.0
 11
161.3320940320132
 21
518.9316723976124
 31
0.0
  0
LINE
  5
63C6
330
2
100
AcDbEntity
  8
AM_VIS
100
AcDbLine
 10
164.1467154419349
 20
518.9316723976124
 30
0.0
 11
163.0318329354074
 21
518.9316723976124
 31
0.0
  0
SPLINE
  5
63C7
330
2
100
AcDbEntity
  8
AM_VIS
100
AcDbSpline
210
0.0
220
0.0
230
1.0
 70
    12
 71
     2
 72
     6
 73
     3
 74
     0
 42
0.0000000001
 43
0.0000000001
 40
6.872386593189472
 40
6.872386593189472
 40
6.872386593189472
 40
11.81893801825526
 40
11.81893801825526
 40
11.81893801825526
 10
264.1419303820996
 20
412.3166204300104
 30
0.0
 41
1.075296540142515
 10
263.9410939461222
 20
412.2006674596352
 30
0.0
 41
1.064746440618996
 10
263.7100704774919
 20
411.4354771371283
 30
0.0
 41
1.0
  0
SPLINE
  5
63C8
330
2
100
AcDbEntity
  8
AM_VIS
100
AcDbSpline
210
0.0
220
0.0
230
1.0
 70
    12
 71
     2
 72
     6
 73
     3
 74
     0
 42
0.0000000001
 43
0.0000000001
 40
0.0
 40
0.0
 40
0.0
 40
4.946551425065464
 40
4.946551425065464
 40
4.946551425065464
 10
263.7100704774919
 20
406.5832201385135
 30
0.0
 41
1.0
 10
263.9410939461222
 20
405.8180298160066
 30
0.0
 41
1.06474644061899
 10
264.1419303820996
 20
405.7020768456321
 30
0.0
 41
1.075296540142511
  0
LINE
  5
63C9
330
2
100
AcDbEntity
  8
AM_VIS
100
AcDbLine
 10
263.7100704774919
 20
406.5832201385135
 30
0.0
 11
263.7100704774919
 21
411.4354771371283
 31
0.0
  0
SPLINE
  5
63CA
330
2
100
AcDbEntity
  8
AM_VIS
100
AcDbSpline
210
0.0
220
0.0
230
1.0
 70
    12
 71
     2
 72
     6
 73
     3
 74
     0
 42
0.0000000001
 43
0.0000000001
 40
0.0
 40
0.0
 40
0.0
 40
11.81893801825497
 40
11.81893801825497
 40
11.81893801825497
 10
263.7100704774919
 20
411.4354771371283
 30
0.0
 41
1.0
 10
268.4939184161397
 20
413.1213399231617
 30
0.0
 41
1.154700538379268
 10
273.2777663547874
 20
411.4354771371283
 30
0.0
 41
1.0
  0
SPLINE
  5
63CB
330
2
100
AcDbEntity
  8
AM_VIS
100
AcDbSpline
210
0.0
220
0.0
230
1.0
 70
    12
 71
     2
 72
     6
 73
     3
 74
     0
 42
0.0000000001
 43
0.0000000001
 40
0.0
 40
0.0
 40
0.0
 40
11.81893801825484
 40
11.81893801825484
 40
11.81893801825484
 10
273.2777663547872
 20
406.5832201385135
 30
0.0
 41
1.0
 10
268.4939184161394
 20
404.8973573524797
 30
0.0
 41
1.154700538379263
 10
263.7100704774919
 20
406.5832201385135
 30
0.0
 41
1.0
  0
LINE
  5
63CC
330
2
100
AcDbEntity
  8
AM_VIS
100
AcDbLine
 10
273.2777663547874
 20
406.5832201385135
 30
0.0
 11
273.2777663547874
 21
411.4354771371283
 31
0.0
  0
SPLINE
  5
63CD
330
2
100
AcDbEntity
  8
AM_VIS
100
AcDbSpline
210
0.0
220
0.0
230
1.0
 70
    12
 71
     2
 72
     6
 73
     3
 74
     0
 42
0.0000000001
 43
0.0000000001
 40
0.0
 40
0.0
 40
0.0
 40
11.818938018255
 40
11.818938018255
 40
11.818938018255
 10
273.2777663547872
 20
411.4354771371283
 30
0.0
 41
1.0
 10
278.5706038310814
 20
413.1213399231617
 30
0.0
 41
1.154700538379268
 10
283.8634413073753
 20
411.4354771371283
 30
0.0
 41
1.0
  0
SPLINE
  5
63CE
330
2
100
AcDbEntity
  8
AM_VIS
100
AcDbSpline
210
0.0
220
0.0
230
1.0
 70
    12
 71
     2
 72
     6
 73
     3
 74
     0
 42
0.0000000001
 43
0.0000000001
 40
0.0
 40
0.0
 40
0.0
 40
11.81893801825488
 40
11.81893801825488
 40
11.81893801825488
 10
283.8634413073753
 20
406.5832201385135
 30
0.0
 41
1.0
 10
278.5706038310812
 20
404.8973573524797
 30
0.0
 41
1.154700538379263
 10
273.2777663547874
 20
406.5832201385135
 30
0.0
 41
1.0
  0
LINE
  5
63CF
330
2
100
AcDbEntity
  8
AM_VIS
100
AcDbLine
 10
283.8634413073753
 20
406.5832201385135
 30
0.0
 11
283.8634413073753
 21
411.4354771371283
 31
0.0
  0
SPLINE
  5
63D0
330
2
100
AcDbEntity
  8
AM_VIS
100
AcDbSpline
210
0.0
220
0.0
230
1.0
 70
    12
 71
     2
 72
     6
 73
     3
 74
     0
 42
0.0000000001
 43
0.0000000001
 40
0.0
 40
0.0
 40
0.0
 40
11.81893801825526
 40
11.81893801825526
 40
11.81893801825526
 10
283.8634413073753
 20
411.4354771371283
 30
0.0
 41
1.0
 10
284.3724308450216
 20
413.1213399231621
 30
0.0
 41
1.154700538379299
 10
284.881420382668
 20
411.4354771371283
 30
0.0
 41
1.0
  0
SPLINE
  5
63D1
330
2
100
AcDbEntity
  8
AM_VIS
100
AcDbSpline
210
0.0
220
0.0
230
1.0
 70
    12
 71
     2
 72
     6
 73
     3
 74
     0
 42
0.0000000001
 43
0.0000000001
 40
0.0
 40
0.0
 40
0.0
 40
11.81893801825515
 40
11.81893801825515
 40
11.81893801825515
 10
284.8814203826678
 20
406.583220138514
 30
0.0
 41
1.0
 10
284.3724308450216
 20
404.8973573524797
 30
0.0
 41
1.154700538379293
 10
283.8634413073753
 20
406.5832201385135
 30
0.0
 41
1.0
  0
LINE
  5
63D2
330
2
100
AcDbEntity
  8
AM_VIS
100
AcDbLine
 10
284.881420382668
 20
411.4354771371283
 30
0.0
 11
284.881420382668
 21
406.583220138514
 31
0.0
  0
LINE
  5
63D3
330
2
100
AcDbEntity
  8
AM_VIS
100
AcDbLine
 10
284.1157454300799
 20
405.5093486378211
 30
0.0
 11
284.4495604780602
 21
405.702076845632
 31
0.0
  0
LINE
  5
63D4
330
2
100
AcDbEntity
  8
AM_VIS
100
AcDbLine
 10
264.47574543008
 20
405.5093486378211
 30
0.0
 11
264.1419303820996
 21
405.702076845632
 31
0.0
  0
LINE
  5
63D5
330
2
100
AcDbEntity
  8
AM_VIS
100
AcDbLine
 10
264.47574543008
 20
412.5093486378212
 30
0.0
 11
264.1419303820996
 21
412.3166204300098
 31
0.0
  0
LINE
  5
63D6
330
2
100
AcDbEntity
  8
AM_VIS
100
AcDbLine
 10
284.1157454300799
 20
412.5093486378212
 30
0.0
 11
284.4495604780602
 21
412.3166204300098
 31
0.0
  0
LINE
  5
63D7
330
2
100
AcDbEntity
  8
AM_VIS
100
AcDbLine
 10
264.47574543008
 20
405.5093486378211
 30
0.0
 11
284.1157454300799
 21
405.5093486378211
 31
0.0
  0
LINE
  5
63D8
330
2
100
AcDbEntity
  8
AM_VIS
100
AcDbLine
 10
278.545745430079
 20
403.0093486378211
 30
0.0
 11
278.545745430079
 21
403.609348637821
 31
0.0
  0
LINE
  5
63D9
330
2
100
AcDbEntity
  8
AM_VIS
100
AcDbLine
 10
271.4939245168718
 20
403.0093486378211
 30
0.0
 11
271.4939245168718
 21
403.609348637821
 31
0.0
  0
LINE
  5
63DA
330
2
100
AcDbEntity
  8
AM_VIS
100
AcDbLine
 10
278.545745430079
 20
403.0093486378211
 30
0.0
 11
271.7250799782016
 21
403.0093486378211
 31
0.0
  0
LINE
  5
63DB
330
2
100
AcDbEntity
  8
AM_VIS
100
AcDbLine
 10
271.7250799782016
 20
403.609348637821
 30
0.0
 11
278.545745430079
 21
403.609348637821
 31
0.0
  0
LINE
  5
63DC
330
2
100
AcDbEntity
  8
AM_VIS
100
AcDbLine
 10
271.7250799782016
 20
403.0093486378211
 30
0.0
 11
271.4939245168718
 21
403.0093486378211
 31
0.0
  0
LINE
  5
63DD
330
2
100
AcDbEntity
  8
AM_VIS
100
AcDbLine
 10
271.4939245168718
 20
403.609348637821
 30
0.0
 11
271.7250799782016
 21
403.609348637821
 31
0.0
  0
LINE
  5
63DE
330
2
100
AcDbEntity
  8
AM_VIS
100
AcDbLine
 10
279.6957454300789
 20
404.0093486378212
 30
0.0
 11
281.1957454300789
 21
405.5093486378211
 31
0.0
  0
LINE
  5
63DF
330
2
100
AcDbEntity
  8
AM_VIS
100
AcDbLine
 10
268.8957454300789
 20
404.0093486378212
 30
0.0
 11
267.395745430079
 21
405.5093486378211
 31
0.0
  0
LINE
  5
63E0
330
2
100
AcDbEntity
  8
AM_VIS
100
AcDbLine
 10
279.6957454300789
 20
404.0093486378212
 30
0.0
 11
268.8957454300789
 21
404.0093486378212
 31
0.0
  0
LINE
  5
63E1
330
2
100
AcDbEntity
  8
AM_VIS
100
AcDbLine
 10
276.7457454300791
 20
395.709348637821
 30
0.0
 11
276.7457454300791
 21
396.0093486378212
 31
0.0
  0
LINE
  5
63E2
330
2
100
AcDbEntity
  8
AM_VIS
100
AcDbLine
 10
271.845745430079
 20
395.709348637821
 30
0.0
 11
271.845745430079
 21
396.0093486378212
 31
0.0
  0
LINE
  5
63E3
330
2
100
AcDbEntity
  8
AM_VIS
100
AcDbLine
 10
276.3957454300789
 20
394.5093486378212
 30
0.0
 11
276.7457454300791
 21
395.709348637821
 31
0.0
  0
LINE
  5
63E4
330
2
100
AcDbEntity
  8
AM_VIS
100
AcDbLine
 10
272.1957454300789
 20
394.5093486378212
 30
0.0
 11
271.845745430079
 21
395.709348637821
 31
0.0
  0
LINE
  5
63E5
330
2
100
AcDbEntity
  8
AM_VIS
100
AcDbLine
 10
276.7457454300791
 20
397.209348637821
 30
0.0
 11
276.7457454300791
 21
397.5093486378212
 31
0.0
  0
LINE
  5
63E6
330
2
100
AcDbEntity
  8
AM_VIS
100
AcDbLine
 10
271.845745430079
 20
397.209348637821
 30
0.0
 11
271.845745430079
 21
397.5093486378212
 31
0.0
  0
LINE
  5
63E7
330
2
100
AcDbEntity
  8
AM_VIS
100
AcDbLine
 10
276.3957454300789
 20
396.0093486378212
 30
0.0
 11
276.7457454300791
 21
397.209348637821
 31
0.0
  0
LINE
  5
63E8
330
2
100
AcDbEntity
  8
AM_VIS
100
AcDbLine
 10
272.1957454300789
 20
396.0093486378212
 30
0.0
 11
271.845745430079
 21
397.209348637821
 31
0.0
  0
LINE
  5
63E9
330
2
100
AcDbEntity
  8
AM_VIS
100
AcDbLine
 10
276.7457454300791
 20
398.709348637821
 30
0.0
 11
276.7457454300791
 21
399.0093486378212
 31
0.0
  0
LINE
  5
63EA
330
2
100
AcDbEntity
  8
AM_VIS
100
AcDbLine
 10
271.845745430079
 20
398.709348637821
 30
0.0
 11
271.845745430079
 21
399.0093486378212
 31
0.0
  0
LINE
  5
63EB
330
2
100
AcDbEntity
  8
AM_VIS
100
AcDbLine
 10
276.3957454300789
 20
397.5093486378212
 30
0.0
 11
276.7457454300791
 21
398.709348637821
 31
0.0
  0
LINE
  5
63EC
330
2
100
AcDbEntity
  8
AM_VIS
100
AcDbLine
 10
272.1957454300789
 20
397.5093486378212
 30
0.0
 11
271.845745430079
 21
398.709348637821
 31
0.0
  0
LINE
  5
63ED
330
2
100
AcDbEntity
  8
AM_VIS
100
AcDbLine
 10
276.3957454300789
 20
399.0093486378212
 30
0.0
 11
276.7457454300791
 21
400.209348637821
 31
0.0
  0
LINE
  5
63EE
330
2
100
AcDbEntity
  8
AM_VIS
100
AcDbLine
 10
272.1957454300789
 20
399.0093486378212
 30
0.0
 11
271.845745430079
 21
400.209348637821
 31
0.0
  0
LINE
  5
63EF
330
2
100
AcDbEntity
  8
AM_VIS
100
AcDbLine
 10
276.7457454300791
 20
400.209348637821
 30
0.0
 11
276.7457454300788
 21
403.0093486378211
 31
0.0
  0
LINE
  5
63F0
330
2
100
AcDbEntity
  8
AM_VIS
100
AcDbLine
 10
271.845745430079
 20
400.209348637821
 30
0.0
 11
271.845745430079
 21
403.0093486378211
 31
0.0
  0
LINE
  5
63F1
330
2
100
AcDbEntity
  8
AM_VIS
100
AcDbLine
 10
272.295745430079
 20
403.709348637821
 30
0.0
 11
272.295745430079
 21
403.609348637821
 31
0.0
  0
LINE
  5
63F2
330
2
100
AcDbEntity
  8
AM_VIS
100
AcDbLine
 10
276.295745430079
 20
403.709348637821
 30
0.0
 11
276.295745430079
 21
403.609348637821
 31
0.0
  0
LINE
  5
63F3
330
2
100
AcDbEntity
  8
AM_VIS
100
AcDbLine
 10
276.7457454300788
 20
403.709348637821
 30
0.0
 11
276.7457454300788
 21
404.0093486378212
 31
0.0
  0
LINE
  5
63F4
330
2
100
AcDbEntity
  8
AM_VIS
100
AcDbLine
 10
271.845745430079
 20
403.709348637821
 30
0.0
 11
271.845745430079
 21
404.0093486378212
 31
0.0
  0
LINE
  5
63F5
330
2
100
AcDbEntity
  8
AM_VIS
100
AcDbLine
 10
276.7457454300791
 20
395.709348637821
 30
0.0
 11
271.845745430079
 21
395.709348637821
 31
0.0
  0
LINE
  5
63F6
330
2
100
AcDbEntity
  8
AM_VIS
100
AcDbLine
 10
272.1957454300789
 20
394.5093486378212
 30
0.0
 11
276.3957454300789
 21
394.5093486378212
 31
0.0
  0
LINE
  5
63F7
330
2
100
AcDbEntity
  8
AM_VIS
100
AcDbLine
 10
276.7457454300791
 20
397.209348637821
 30
0.0
 11
271.845745430079
 21
397.209348637821
 31
0.0
  0
LINE
  5
63F8
330
2
100
AcDbEntity
  8
AM_VIS
100
AcDbLine
 10
271.845745430079
 20
396.0093486378212
 30
0.0
 11
276.7457454300791
 21
396.0093486378212
 31
0.0
  0
LINE
  5
63F9
330
2
100
AcDbEntity
  8
AM_VIS
100
AcDbLine
 10
276.7457454300791
 20
398.709348637821
 30
0.0
 11
271.845745430079
 21
398.709348637821
 31
0.0
  0
LINE
  5
63FA
330
2
100
AcDbEntity
  8
AM_VIS
100
AcDbLine
 10
271.845745430079
 20
397.5093486378212
 30
0.0
 11
276.7457454300791
 21
397.5093486378212
 31
0.0
  0
LINE
  5
63FB
330
2
100
AcDbEntity
  8
AM_VIS
100
AcDbLine
 10
271.845745430079
 20
399.0093486378212
 30
0.0
 11
276.7457454300791
 21
399.0093486378212
 31
0.0
  0
LINE
  5
63FC
330
2
100
AcDbEntity
  8
AM_VIS
100
AcDbLine
 10
276.7457454300791
 20
400.209348637821
 30
0.0
 11
271.845745430079
 21
400.209348637821
 31
0.0
  0
LINE
  5
63FD
330
2
100
AcDbEntity
  8
AM_VIS
100
AcDbLine
 10
276.7457454300788
 20
403.709348637821
 30
0.0
 11
271.845745430079
 21
403.709348637821
 31
0.0
  0
LINE
  5
63FE
330
2
100
AcDbEntity
  8
AM_VIS
100
AcDbLine
 10
236.595745430079
 20
434.4093486378212
 30
0.0
 11
236.595745430079
 21
430.6093486378211
 31
0.0
  0
ARC
  5
63FF
330
2
100
AcDbEntity
  8
AM_VIS
100
AcDbCircle
 10
238.4957454300791
 20
430.6093486378211
 30
0.0
 40
1.9
100
AcDbArc
 50
180.0
 51
206.5253520166008
  0
ARC
  5
6400
330
2
100
AcDbEntity
  8
AM_VIS
100
AcDbCircle
 10
238.4957454300791
 20
434.4093486378212
 30
0.0
 40
1.9
100
AcDbArc
 50
153.4746479833992
 51
180.0
  0
LINE
  5
6401
330
2
100
AcDbEntity
  8
AM_VIS
100
AcDbLine
 10
236.595745430079
 20
500.4093486378212
 30
0.0
 11
236.595745430079
 21
496.6093486378211
 31
0.0
  0
ARC
  5
6402
330
2
100
AcDbEntity
  8
AM_VIS
100
AcDbCircle
 10
238.4957454300791
 20
496.6093486378211
 30
0.0
 40
1.9
100
AcDbArc
 50
180.0
 51
206.5253520166008
  0
ARC
  5
6403
330
2
100
AcDbEntity
  8
AM_VIS
100
AcDbCircle
 10
238.4957454300791
 20
500.4093486378212
 30
0.0
 40
1.9
100
AcDbArc
 50
153.4746479833992
 51
180.0
  0
LINE
  5
6404
330
2
100
AcDbEntity
  8
AM_VIS
100
AcDbLine
 10
253.5128133376095
 20
506.5093486378211
 30
0.0
 11
237.7957454300788
 21
506.5093486378211
 31
0.0
  0
LINE
  5
6405
330
2
100
AcDbEntity
  8
AM_VIS
100
AcDbLine
 10
236.7957454300788
 20
505.5093486378211
 30
0.0
 11
236.7957454300788
 21
425.5093486378211
 31
0.0
  0
LINE
  5
6406
330
2
100
AcDbEntity
  8
AM_VIS
100
AcDbLine
 10
237.7957454300788
 20
424.5093486378212
 30
0.0
 11
253.8292021394505
 21
424.5093486378212
 31
0.0
  0
LINE
  5
6407
330
2
100
AcDbEntity
  8
AM_VIS
100
AcDbLine
 10
236.7957454300788
 20
493.5093486378211
 30
0.0
 11
236.2957454300788
 21
493.5093486378211
 31
0.0
  0
LINE
  5
6408
330
2
100
AcDbEntity
  8
AM_VIS
100
AcDbLine
 10
236.2957454300788
 20
492.5093486378211
 30
0.0
 11
236.2957454300788
 21
438.5093486378211
 31
0.0
  0
LINE
  5
6409
330
2
100
AcDbEntity
  8
AM_VIS
100
AcDbLine
 10
236.2957454300788
 20
437.5093486378212
 30
0.0
 11
236.7957454300788
 21
437.5093486378212
 31
0.0
  0
ARC
  5
640A
330
2
100
AcDbEntity
  8
AM_VIS
100
AcDbCircle
 10
237.7957454300788
 20
505.5093486378211
 30
0.0
 40
1.0
100
AcDbArc
 50
90.0
 51
180.0
  0
ARC
  5
640B
330
2
100
AcDbEntity
  8
AM_VIS
100
AcDbCircle
 10
237.7957454300788
 20
425.5093486378211
 30
0.0
 40
1.0
100
AcDbArc
 50
180.0
 51
270.0
  0
LINE
  5
640C
330
2
100
AcDbEntity
  8
AM_VIS
100
AcDbLine
 10
236.2957454300788
 20
492.5093486378211
 30
0.0
 11
236.2957454300788
 21
493.5093486378211
 31
0.0
  0
LINE
  5
640D
330
2
100
AcDbEntity
  8
AM_VIS
100
AcDbLine
 10
236.2957454300788
 20
437.5093486378212
 30
0.0
 11
236.2957454300788
 21
438.5093486378211
 31
0.0
  0
LINE
  5
640E
330
2
100
AcDbEntity
  8
AM_VIS
100
AcDbLine
 10
280.6636045826831
 20
423.0077511507468
 30
0.0
 11
281.6542072162245
 21
508.5092328660955
 31
0.0
  0
SPLINE
  5
640F
330
2
100
AcDbEntity
  8
AM_VIS
100
AcDbSpline
210
0.0
220
0.0
230
1.0
 70
     8
 71
     3
 72
    22
 73
    18
 74
     0
 42
0.0000000001
 43
0.0000000001
 40
-6.1006211501114
 40
-6.1006211501114
 40
-6.1006211501114
 40
-6.1006211501114
 40
-6.065908688766395
 40
-6.065908688766395
 40
-6.022565889213563
 40
-6.022565889213563
 40
-5.873408695712271
 40
-5.873408695712271
 40
-5.619075567145561
 40
-5.619075567145561
 40
-5.364742438578847
 40
-5.364742438578847
 40
-4.85607618144542
 40
-4.85607618144542
 40
-4.13943573711699
 40
-4.13943573711699
 40
-3.431992775673761
 40
-3.431992775673761
 40
-3.431992775673761
 40
-3.431992775673761
 10
280.6511751512792
 20
423.0078951555904
 30
0.0
 10
280.6510289014409
 20
422.9961621533322
 30
0.0
 10
280.6486323410777
 20
422.9825780467633
 30
0.0
 10
280.6405866194957
 20
422.9578348747943
 30
0.0
 10
280.6325338404786
 20
422.9424814232673
 30
0.0
 10
280.5962047340304
 20
422.8895894877889
 30
0.0
 10
280.5481156660635
 20
422.8542751779161
 30
0.0
 10
280.432276205564
 20
422.7859333780149
 30
0.0
 10
280.3512670033956
 20
422.7545937749408
 30
0.0
 10
280.182069447919
 20
422.70013682492
 30
0.0
 10
280.09362727962
 20
422.6778112540248
 30
0.0
 10
279.8243568752766
 20
422.6202084939175
 30
0.0
 10
279.6401014961737
 20
422.5944972394756
 30
0.0
 10
279.2341255880083
 20
422.5497404019468
 30
0.0
 10
278.9721432746994
 20
422.5324980252955
 30
0.0
 10
278.4507793077432
 20
422.5125036757915
 30
0.0
 10
278.1914158704324
 20
422.5093486378211
 30
0.0
 10
277.9550009156956
 20
422.5093486378211
 30
0.0
  0
LINE
  5
6410
330
2
100
AcDbEntity
  8
AM_VIS
100
AcDbLine
 10
277.9550009156956
 20
422.5093486378211
 30
0.0
 11
270.6364899444622
 21
422.5093486378211
 31
0.0
  0
SPLINE
  5
6411
330
2
100
AcDbEntity
  8
AM_VIS
100
AcDbSpline
210
0.0
220
0.0
230
1.0
 70
     8
 71
     3
 72
    22
 73
    18
 74
     0
 42
0.0000000001
 43
0.0000000001
 40
3.431992775673763
 40
3.431992775673763
 40
3.431992775673763
 40
3.431992775673763
 40
4.139435737116992
 40
4.139435737116992
 40
4.856076181445422
 40
4.856076181445422
 40
5.364742438578848
 40
5.364742438578848
 40
5.619075567145561
 40
5.619075567145561
 40
5.873408695712274
 40
5.873408695712274
 40
6.022565889213567
 40
6.022565889213567
 40
6.065908688766398
 40
6.065908688766398
 40
6.100621150111405
 40
6.100621150111405
 40
6.100621150111405
 40
6.100621150111405
 10
270.6364899444622
 20
422.5093486378211
 30
0.0
 10
270.4000749897255
 20
422.5093486378211
 30
0.0
 10
270.1407115524146
 20
422.5125036757915
 30
0.0
 10
269.6193475854584
 20
422.5324980252955
 30
0.0
 10
269.3573652721495
 20
422.5497404019468
 30
0.0
 10
268.9513893639841
 20
422.5944972394756
 30
0.0
 10
268.7671339848814
 20
422.6202084939175
 30
0.0
 10
268.4978635805378
 20
422.6778112540248
 30
0.0
 10
268.4094214122388
 20
422.70013682492
 30
0.0
 10
268.2402238567622
 20
422.7545937749408
 30
0.0
 10
268.1592146545938
 20
422.7859333780149
 30
0.0
 10
268.0433751940943
 20
422.8542751779161
 30
0.0
 10
267.9952861261274
 20
422.8895894877889
 30
0.0
 10
267.9589570196795
 20
422.9424814232673
 30
0.0
 10
267.9509042406621
 20
422.9578348747943
 30
0.0
 10
267.9428585190801
 20
422.9825780467633
 30
0.0
 10
267.9404619587169
 20
422.9961621533322
 30
0.0
 10
267.9403157088787
 20
423.0078951555904
 30
0.0
  0
LINE
  5
6412
330
2
100
AcDbEntity
  8
AM_VIS
100
AcDbLine
 10
266.9372836439334
 20
508.5092328660955
 30
0.0
 11
267.9278862774747
 21
423.0077511507468
 31
0.0
  0
LINE
  5
6413
330
2
100
AcDbEntity
  8
AM_VIS
100
AcDbLine
 10
286.295745430079
 20
412.5093486378212
 30
0.0
 11
289.1602167044189
 21
415.373819912161
 31
0.0
  0
LINE
  5
6414
330
2
100
AcDbEntity
  8
AM_VIS
100
AcDbLine
 10
262.295745430079
 20
412.5093486378212
 30
0.0
 11
259.431274155739
 21
415.373819912161
 31
0.0
  0
LINE
  5
6415
330
2
100
AcDbEntity
  8
AM_VIS
100
AcDbLine
 10
246.7999120967456
 20
510.5093486378211
 30
0.0
 11
246.795745430079
 21
508.5093486378212
 31
0.0
  0
LINE
  5
6416
330
2
100
AcDbEntity
  8
AM_VIS
100
AcDbLine
 10
301.7915787634122
 20
510.5093486378211
 30
0.0
 11
301.795745430079
 21
508.5093486378212
 31
0.0
  0
LINE
  5
6417
330
2
100
AcDbEntity
  8
AM_VIS
100
AcDbLine
 10
301.5471946932121
 20
423.0078951555904
 30
0.0
 11
301.795745430079
 21
508.5093486378212
 31
0.0
  0
LINE
  5
6418
330
2
100
AcDbEntity
  8
AM_VIS
100
AcDbLine
 10
247.044296166946
 20
423.0078951555904
 30
0.0
 11
247.0399314765907
 21
424.5093486378212
 31
0.0
  0
LINE
  5
6419
330
2
100
AcDbEntity
  8
AM_VIS
100
AcDbLine
 10
246.8015593835673
 20
506.5093486378211
 30
0.0
 11
246.795745430079
 21
508.5093486378212
 31
0.0
  0
LINE
  5
641A
330
2
100
AcDbEntity
  8
AM_VIS
100
AcDbLine
 10
289.1602167044189
 20
415.373819912161
 30
0.0
 11
259.431274155739
 21
415.373819912161
 31
0.0
  0
LINE
  5
641B
330
2
100
AcDbEntity
  8
AM_VIS
100
AcDbLine
 10
270.6364899444622
 20
422.5093486378211
 30
0.0
 11
247.5442940543307
 21
422.5093486378211
 31
0.0
  0
LINE
  5
641C
330
2
100
AcDbEntity
  8
AM_VIS
100
AcDbLine
 10
301.0471968058271
 20
422.5093486378211
 30
0.0
 11
277.9550009156956
 21
422.5093486378211
 31
0.0
  0
LINE
  5
641D
330
2
100
AcDbEntity
  8
AM_VIS
100
AcDbLine
 10
301.795745430079
 20
508.5093486378212
 30
0.0
 11
281.6442146584284
 21
508.5093486378212
 31
0.0
  0
LINE
  5
641E
330
2
100
AcDbEntity
  8
AM_VIS
100
AcDbLine
 10
266.9472762017294
 20
508.5093486378212
 30
0.0
 11
246.795745430079
 21
508.5093486378212
 31
0.0
  0
LINE
  5
641F
330
2
100
AcDbEntity
  8
AM_VIS
100
AcDbLine
 10
281.6442146584284
 20
508.5093486378212
 30
0.0
 11
266.9472762017294
 21
508.5093486378212
 31
0.0
  0
LINE
  5
6420
330
2
100
AcDbEntity
  8
AM_VIS
100
AcDbLine
 10
286.295745430079
 20
412.5093486378212
 30
0.0
 11
262.295745430079
 21
412.5093486378212
 31
0.0
  0
ARC
  5
6421
330
2
100
AcDbEntity
  8
AM_VIS
100
AcDbCircle
 10
274.295745430079
 20
452.5093486378211
 30
0.0
 40
40.0
100
AcDbArc
 50
228.5903778907297
 51
248.1849455660709
  0
ARC
  5
6422
330
2
100
AcDbEntity
  8
AM_VIS
100
AcDbCircle
 10
274.295745430079
 20
452.5093486378211
 30
0.0
 40
40.0
100
AcDbArc
 50
291.8150544339291
 51
311.4096221092704
  0
ARC
  5
6423
330
2
100
AcDbEntity
  8
AM_VIS
100
AcDbCircle
 10
247.5442940543307
 20
423.0093486378211
 30
0.0
 40
0.5
100
AcDbArc
 50
180.1665570294217
 51
270.0
  0
ARC
  5
6424
330
2
100
AcDbEntity
  8
AM_VIS
100
AcDbCircle
 10
301.0471968058271
 20
423.0093486378211
 30
0.0
 40
0.5
100
AcDbArc
 50
270.0
 51
359.8334429705783
  0
SPLINE
  5
6425
330
2
100
AcDbEntity
  8
AM_VIS
100
AcDbSpline
210
0.0
220
0.0
230
1.0
 70
    12
 71
     2
 72
     6
 73
     3
 74
     0
 42
0.0000000001
 43
0.0000000001
 40
0.0
 40
0.0
 40
0.0
 40
16.88194301613415
 40
16.88194301613415
 40
16.88194301613415
 10
265.989121567161
 20
513.5093486378211
 30
0.0
 41
1.0
 10
274.295745430079
 20
510.5522057806781
 30
0.0
 41
1.029411764705878
 10
282.6023692929971
 20
513.5093486378211
 30
0.0
 41
1.0
  0
LINE
  5
6426
330
2
100
AcDbEntity
  8
AM_VIS
100
AcDbLine
 10
258.295745430079
 20
533.5093486378212
 30
0.0
 11
290.295745430079
 21
533.5093486378212
 31
0.0
  0
LINE
  5
6427
330
2
100
AcDbEntity
  8
AM_VIS
100
AcDbLine
 10
257.295745430079
 20
562.5093486378212
 30
0.0
 11
257.295745430079
 21
534.5093486378211
 31
0.0
  0
LINE
  5
6428
330
2
100
AcDbEntity
  8
AM_VIS
100
AcDbLine
 10
290.295745430079
 20
563.5093486378211
 30
0.0
 11
258.295745430079
 21
563.5093486378211
 31
0.0
  0
LINE
  5
6429
330
2
100
AcDbEntity
  8
AM_VIS
100
AcDbLine
 10
291.295745430079
 20
534.5093486378211
 30
0.0
 11
291.295745430079
 21
562.5093486378212
 31
0.0
  0
LINE
  5
642A
330
2
100
AcDbEntity
  8
AM_VIS
100
AcDbLine
 10
282.6023692929971
 20
513.5093486378211
 30
0.0
 11
282.6023692929971
 21
533.5093486378212
 31
0.0
  0
LINE
  5
642B
330
2
100
AcDbEntity
  8
AM_VIS
100
AcDbLine
 10
308.295745430079
 20
513.5093486378211
 30
0.0
 11
308.295745430079
 21
512.0093486378212
 31
0.0
  0
LINE
  5
642C
330
2
100
AcDbEntity
  8
AM_VIS
100
AcDbLine
 10
308.295745430079
 20
513.5093486378211
 30
0.0
 11
308.295745430079
 21
536.5093486378212
 31
0.0
  0
LINE
  5
642D
330
2
100
AcDbEntity
  8
AM_VIS
100
AcDbLine
 10
307.295745430079
 20
537.5093486378212
 30
0.0
 11
308.295745430079
 21
536.5093486378212
 31
0.0
  0
LINE
  5
642E
330
2
100
AcDbEntity
  8
AM_VIS
100
AcDbLine
 10
240.295745430079
 20
513.5093486378211
 30
0.0
 11
240.295745430079
 21
512.0093486378212
 31
0.0
  0
LINE
  5
642F
330
2
100
AcDbEntity
  8
AM_VIS
100
AcDbLine
 10
265.989121567161
 20
513.5093486378211
 30
0.0
 11
265.989121567161
 21
533.5093486378212
 31
0.0
  0
LINE
  5
6430
330
2
100
AcDbEntity
  8
AM_VIS
100
AcDbLine
 10
240.295745430079
 20
513.5093486378211
 30
0.0
 11
240.295745430079
 21
515.568748115628
 31
0.0
  0
LINE
  5
6431
330
2
100
AcDbEntity
  8
AM_VIS
100
AcDbLine
 10
240.295745430079
 20
518.9316723976124
 30
0.0
 11
240.295745430079
 21
536.5093486378212
 31
0.0
  0
LINE
  5
6432
330
2
100
AcDbEntity
  8
AM_VIS
100
AcDbLine
 10
240.295745430079
 20
536.5093486378212
 30
0.0
 11
241.295745430079
 21
537.5093486378212
 31
0.0
  0
LINE
  5
6433
330
2
100
AcDbEntity
  8
AM_VIS
100
AcDbLine
 10
308.295745430079
 20
521.5093486378211
 30
0.0
 11
308.795745430079
 21
521.5093486378211
 31
0.0
  0
LINE
  5
6434
330
2
100
AcDbEntity
  8
AM_VIS
100
AcDbLine
 10
308.795745430079
 20
519.5093486378211
 30
0.0
 11
308.795745430079
 21
521.5093486378211
 31
0.0
  0
LINE
  5
6435
330
2
100
AcDbEntity
  8
AM_VIS
100
AcDbLine
 10
308.295745430079
 20
519.5093486378211
 30
0.0
 11
308.795745430079
 21
519.5093486378211
 31
0.0
  0
LINE
  5
6436
330
2
100
AcDbEntity
  8
AM_VIS
100
AcDbLine
 10
308.795745430079
 20
517.5093486378211
 30
0.0
 11
308.795745430079
 21
519.5093486378211
 31
0.0
  0
LINE
  5
6437
330
2
100
AcDbEntity
  8
AM_VIS
100
AcDbLine
 10
308.295745430079
 20
517.5093486378211
 30
0.0
 11
308.795745430079
 21
517.5093486378211
 31
0.0
  0
LINE
  5
6438
330
2
100
AcDbEntity
  8
AM_VIS
100
AcDbLine
 10
240.295745430079
 20
517.5093486378211
 30
0.0
 11
239.795745430079
 21
517.5093486378211
 31
0.0
  0
LINE
  5
6439
330
2
100
AcDbEntity
  8
AM_VIS
100
AcDbLine
 10
239.795745430079
 20
519.5093486378211
 30
0.0
 11
239.795745430079
 21
517.5093486378211
 31
0.0
  0
LINE
  5
643A
330
2
100
AcDbEntity
  8
AM_VIS
100
AcDbLine
 10
240.295745430079
 20
519.5093486378211
 30
0.0
 11
239.795745430079
 21
519.5093486378211
 31
0.0
  0
LINE
  5
643B
330
2
100
AcDbEntity
  8
AM_VIS
100
AcDbLine
 10
239.795745430079
 20
521.5093486378211
 30
0.0
 11
239.795745430079
 21
519.5093486378211
 31
0.0
  0
LINE
  5
643C
330
2
100
AcDbEntity
  8
AM_VIS
100
AcDbLine
 10
240.295745430079
 20
521.5093486378211
 30
0.0
 11
239.795745430079
 21
521.5093486378211
 31
0.0
  0
LINE
  5
643D
330
2
100
AcDbEntity
  8
AM_VIS
100
AcDbLine
 10
245.4583540639405
 20
518.8402885856019
 30
0.0
 11
245.595745430079
 21
518.8402885856019
 31
0.0
  0
LINE
  5
643E
330
2
100
AcDbEntity
  8
AM_VIS
100
AcDbLine
 10
245.3053769668031
 20
518.8265810138002
 30
0.0
 11
245.595745430079
 21
518.8265810138002
 31
0.0
  0
LINE
  5
643F
330
2
100
AcDbEntity
  8
AM_VIS
100
AcDbLine
 10
245.3636800308086
 20
515.7606541208499
 30
0.0
 11
245.595745430079
 21
515.7606541208499
 31
0.0
  0
LINE
  5
6440
330
2
100
AcDbEntity
  8
AM_VIS
100
AcDbLine
 10
245.4583540639405
 20
518.9316723976124
 30
0.0
 11
245.595745430079
 21
518.9316723976124
 31
0.0
  0
LINE
  5
6441
330
2
100
AcDbEntity
  8
AM_VIS
100
AcDbLine
 10
245.595745430079
 20
515.7606541208499
 30
0.0
 11
245.595745430079
 21
515.6604393942996
 31
0.0
  0
LINE
  5
6442
330
2
100
AcDbEntity
  8
AM_VIS
100
AcDbLine
 10
245.595745430079
 20
516.1353277500928
 30
0.0
 11
245.595745430079
 21
515.7606541208499
 31
0.0
  0
LINE
  5
6443
330
2
100
AcDbEntity
  8
AM_VIS
100
AcDbLine
 10
245.595745430079
 20
518.8265810138002
 30
0.0
 11
245.595745430079
 21
518.7580431547924
 31
0.0
  0
LINE
  5
6444
330
2
100
AcDbEntity
  8
AM_VIS
100
AcDbLine
 10
245.595745430079
 20
518.8402885856019
 30
0.0
 11
245.595745430079
 21
518.8265810138002
 31
0.0
  0
LINE
  5
6445
330
2
100
AcDbEntity
  8
AM_VIS
100
AcDbLine
 10
245.595745430079
 20
518.8402885856019
 30
0.0
 11
245.595745430079
 21
518.9316723976124
 31
0.0
  0
LINE
  5
6446
330
2
100
AcDbEntity
  8
AM_VIS
100
AcDbLine
 10
245.1675097815782
 20
518.7580431547924
 30
0.0
 11
245.595745430079
 21
518.7580431547924
 31
0.0
  0
LINE
  5
6447
330
2
100
AcDbEntity
  8
AM_VIS
100
AcDbLine
 10
245.595745430079
 20
518.7580431547924
 30
0.0
 11
245.595745430079
 21
518.5186971266837
 31
0.0
  0
LINE
  5
6448
330
2
100
AcDbEntity
  8
AM_VIS
100
AcDbLine
 10
245.5826942622546
 20
518.4976085653877
 30
0.0
 11
245.5957301137828
 21
518.5187065901748
 31
0.0
  0
LINE
  5
6449
330
2
100
AcDbEntity
  8
AM_VIS
100
AcDbLine
 10
244.9753012767906
 20
518.4975992905626
 30
0.0
 11
245.5827092732024
 21
518.4975992905626
 31
0.0
  0
ELLIPSE
  5
644A
330
2
100
AcDbEntity
  8
AM_VIS
100
AcDbEllipse
 10
274.295745430079
 20
496.5916914927372
 30
0.0
 11
0.0
 21
38.30845771144279
 31
0.0
210
0.0
220
0.0
230
1.0
 40
0.9136363636363636
 41
0.9620620655572363
 42
0.9937041565488339
  0
LINE
  5
644B
330
2
100
AcDbEntity
  8
AM_VIS
100
AcDbLine
 10
244.3690509327437
 20
517.4923773584476
 30
0.0
 11
244.9639019227773
 21
517.4923773584476
 31
0.0
  0
ELLIPSE
  5
644C
330
2
100
AcDbEntity
  8
AM_VIS
100
AcDbEllipse
 10
274.295745430079
 20
541.0251620458359
 30
0.0
 11
0.0
 21
-43.13278008298754
 31
0.0
210
0.0
220
0.0
230
1.0
 40
0.8114478114478114
 41
5.28948115063075
 42
5.321774288415483
  0
LINE
  5
644D
330
2
100
AcDbEntity
  8
AM_VIS
100
AcDbLine
 10
245.595745430079
 20
516.1353277500928
 30
0.0
 11
245.595745430079
 21
516.3375321734813
 31
0.0
  0
LINE
  5
644E
330
2
100
AcDbEntity
  8
AM_VIS
100
AcDbLine
 10
245.1008964583818
 20
516.1353277500928
 30
0.0
 11
245.595745430079
 21
516.1353277500928
 31
0.0
  0
LINE
  5
644F
330
2
100
AcDbEntity
  8
AM_VIS
100
AcDbLine
 10
244.0823613089174
 20
517.0171815359934
 30
0.0
 11
244.3638642575445
 21
517.0171815359934
 31
0.0
  0
LINE
  5
6450
330
2
100
AcDbEntity
  8
AM_VIS
100
AcDbLine
 10
244.6714550579391
 20
516.434770271431
 30
0.0
 11
244.6714550579391
 21
516.130758559492
 31
0.0
  0
ARC
  5
6451
330
2
100
AcDbEntity
  8
AM_VIS
100
AcDbCircle
 10
245.4549539768684
 20
516.076700819836
 30
0.0
 40
0.7853615697119256
100
AcDbArc
 50
176.0531156663882
 51
203.0034163619476
  0
LINE
  5
6452
330
2
100
AcDbEntity
  8
AM_VIS
100
AcDbLine
 10
244.1417657066404
 20
515.7697925020508
 30
0.0
 11
244.7320431388984
 21
515.7697925020508
 31
0.0
  0
ARC
  5
6453
330
2
100
AcDbEntity
  8
AM_VIS
100
AcDbCircle
 10
244.9192463233471
 20
515.9117925318017
 30
0.0
 40
0.2349660416252054
100
AcDbArc
 50
217.1815633180918
 51
251.0976427675893
  0
ARC
  5
6454
330
2
100
AcDbEntity
  8
AM_VIS
100
AcDbCircle
 10
245.9048191569418
 20
517.3999692991921
 30
0.0
 40
4.44806524656083
100
AcDbArc
 50
165.3490908795458
 51
181.8116445331318
  0
ARC
  5
6455
330
2
100
AcDbEntity
  8
AM_VIS
100
AcDbCircle
 10
245.9080825738715
 20
517.1214224883312
 30
0.0
 40
4.451242726627824
100
AcDbArc
 50
178.2243494976007
 51
194.3722886280859
  0
LINE
  5
6456
330
2
100
AcDbEntity
  8
AM_VIS
100
AcDbLine
 10
241.0615219372226
 20
516.0165287944789
 30
0.0
 11
241.5961489314504
 21
516.0165287944789
 31
0.0
  0
LINE
  5
6457
330
2
100
AcDbEntity
  8
AM_VIS
100
AcDbLine
 10
241.5957567717567
 20
516.016394907295
 30
0.0
 11
241.625306389775
 21
515.9298431642476
 31
0.0
  0
LINE
  5
6458
330
2
100
AcDbEntity
  8
AM_VIS
100
AcDbLine
 10
241.6011274409241
 20
518.5251037458831
 30
0.0
 11
241.6257050969848
 21
518.5955868142125
 31
0.0
  0
LINE
  5
6459
330
2
100
AcDbEntity
  8
AM_VIS
100
AcDbLine
 10
241.0666723513257
 20
518.5250144341655
 30
0.0
 11
241.6013835664007
 21
518.5250144341655
 31
0.0
  0
ARC
  5
645A
330
2
100
AcDbEntity
  8
AM_VIS
100
AcDbCircle
 10
240.8123452647806
 20
518.7382696611682
 30
0.0
 40
0.102283808209746
100
AcDbArc
 50
85.87564885225148
 51
160.8929025011642
  0
LINE
  5
645B
330
2
100
AcDbEntity
  8
AM_VIS
100
AcDbLine
 10
240.295745430079
 20
518.840281692059
 30
0.0
 11
240.295745430079
 21
518.771750726594
 31
0.0
  0
LINE
  5
645C
330
2
100
AcDbEntity
  8
AM_VIS
100
AcDbLine
 10
240.295745430079
 20
518.771750726594
 30
0.0
 11
240.295745430079
 21
518.3650927631476
 31
0.0
  0
LINE
  5
645D
330
2
100
AcDbEntity
  8
AM_VIS
100
AcDbLine
 10
240.295745430079
 20
518.771750726594
 30
0.0
 11
240.7156964381975
 21
518.771750726594
 31
0.0
  0
ARC
  5
645E
330
2
100
AcDbEntity
  8
AM_VIS
100
AcDbCircle
 10
242.1956417930173
 20
518.4308448201853
 30
0.0
 40
1.51870177792645
100
AcDbArc
 50
167.0281727947112
 51
182.4813912457569
  0
LINE
  5
645F
330
2
100
AcDbEntity
  8
AM_VIS
100
AcDbLine
 10
240.295745430079
 20
518.3650927631476
 30
0.0
 11
240.295745430079
 21
515.9662676978735
 31
0.0
  0
LINE
  5
6460
330
2
100
AcDbEntity
  8
AM_VIS
100
AcDbLine
 10
240.6783640474243
 20
518.3650927631476
 30
0.0
 11
240.6783640474243
 21
516.2446934374949
 31
0.0
  0
LINE
  5
6461
330
2
100
AcDbEntity
  8
AM_VIS
100
AcDbLine
 10
240.295745430079
 20
515.9662676978735
 30
0.0
 11
240.295745430079
 21
515.7606541208499
 31
0.0
  0
LINE
  5
6462
330
2
100
AcDbEntity
  8
AM_VIS
100
AcDbLine
 10
240.295745430079
 20
515.7606541208499
 30
0.0
 11
240.295745430079
 21
515.7241095762949
 31
0.0
  0
LINE
  5
6463
330
2
100
AcDbEntity
  8
AM_VIS
100
AcDbLine
 10
240.295745430079
 20
515.7606541208499
 30
0.0
 11
240.482378087994
 21
515.7606541208499
 31
0.0
  0
LINE
  5
6464
330
2
100
AcDbEntity
  8
AM_VIS
100
AcDbLine
 10
243.4094097763982
 20
519.0093486378211
 30
0.0
 11
243.9854216094427
 21
519.0093486378211
 31
0.0
  0
ELLIPSE
  5
6465
330
2
100
AcDbEntity
  8
AM_VIS
100
AcDbEllipse
 10
274.295745430079
 20
1046.226344395
 30
0.0
 11
0.0
 21
-1054.375
 31
0.0
210
0.0
220
0.0
230
1.0
 40
0.033195020746888
 41
5.236020058611841
 42
5.236105129551746
  0
LINE
  5
6466
330
2
100
AcDbEntity
  8
AM_VIS
100
AcDbLine
 10
243.4301505224232
 20
517.9081737030953
 30
0.0
 11
243.9039038742546
 21
517.9081737030953
 31
0.0
  0
LINE
  5
6467
330
2
100
AcDbEntity
  8
AM_VIS
100
AcDbLine
 10
243.3758279034325
 20
517.8990353218944
 30
0.0
 11
243.9039038742546
 21
517.8990353218944
 31
0.0
  0
LINE
  5
6468
330
2
100
AcDbEntity
  8
AM_VIS
100
AcDbLine
 10
242.6208543287571
 20
518.7854582983957
 30
0.0
 11
243.0512655754522
 21
518.7854582983957
 31
0.0
  0
ARC
  5
6469
330
2
100
AcDbEntity
  8
AM_VIS
100
AcDbCircle
 10
243.58945840107
 20
518.2605581732257
 30
0.0
 40
0.6651932730590458
100
AcDbArc
 50
135.9057276661998
 51
155.2808978838762
  0
LINE
  5
646A
330
2
100
AcDbEntity
  8
AM_VIS
100
AcDbLine
 10
242.4272789718821
 20
518.5387220059672
 30
0.0
 11
242.985217577658
 21
518.5387220059672
 31
0.0
  0
ARC
  5
646B
330
2
100
AcDbEntity
  8
AM_VIS
100
AcDbCircle
 10
246.2631724815603
 20
517.4002938443407
 30
0.0
 40
3.470015422328911
100
AcDbArc
 50
160.8479727453434
 51
182.4789052592967
  0
LINE
  5
646C
330
2
100
AcDbEntity
  8
AM_VIS
100
AcDbLine
 10
242.2417520038944
 20
517.2502102566202
 30
0.0
 11
242.7964042533834
 21
517.2502102566202
 31
0.0
  0
ARC
  5
646D
330
2
100
AcDbEntity
  8
AM_VIS
100
AcDbCircle
 10
245.5967338805347
 20
517.1132229154047
 30
0.0
 40
2.803678218404408
100
AcDbArc
 50
177.1994208557643
 51
202.217584024394
  0
LINE
  5
646E
330
2
100
AcDbEntity
  8
AM_VIS
100
AcDbLine
 10
242.442997085853
 20
516.0530823192832
 30
0.0
 11
243.0012159228218
 21
516.0530823192832
 31
0.0
  0
SPLINE
  5
646F
330
2
100
AcDbEntity
  8
AM_VIS
100
AcDbSpline
210
0.0
220
0.0
230
1.0
 70
     8
 71
     3
 72
     8
 73
     4
 74
     0
 42
0.0000000001
 43
0.0000000001
 40
0.0
 40
0.0
 40
0.0
 40
0.0
 40
0.434942113494141
 40
0.434942113494141
 40
0.434942113494141
 40
0.434942113494141
 10
243.0012159228218
 20
516.0530823192832
 30
0.0
 10
243.0490653533206
 20
515.9550926833501
 30
0.0
 10
243.1023407108862
 20
515.8748702573786
 30
0.0
 10
243.1618886670292
 20
515.8148092351746
 30
0.0
  0
LINE
  5
6470
330
2
100
AcDbEntity
  8
AM_VIS
100
AcDbLine
 10
308.295745430079
 20
515.7697925020508
 30
0.0
 11
308.295745430079
 21
515.6601319276385
 31
0.0
  0
LINE
  5
6471
330
2
100
AcDbEntity
  8
AM_VIS
100
AcDbLine
 10
308.295745430079
 20
516.1673120842963
 30
0.0
 11
308.295745430079
 21
515.7697925020508
 31
0.0
  0
LINE
  5
6472
330
2
100
AcDbEntity
  8
AM_VIS
100
AcDbLine
 10
244.6714550579391
 20
518.3925079067505
 30
0.0
 11
244.6714550579391
 21
518.1915384292103
 31
0.0
  0
ARC
  5
6473
330
2
100
AcDbEntity
  8
AM_VIS
100
AcDbCircle
 10
245.4168198029063
 20
518.4513375776544
 30
0.0
 40
0.7476827757938666
100
AcDbArc
 50
155.7820881244621
 51
184.5128491090756
  0
ARC
  5
6474
330
2
100
AcDbEntity
  8
AM_VIS
100
AcDbCircle
 10
244.8803408638762
 20
518.6135413075387
 30
0.0
 40
0.2049937601382078
100
AcDbArc
 50
103.3802900176426
 51
135.1778463272
  0
LINE
  5
6475
330
2
100
AcDbEntity
  8
AM_VIS
100
AcDbLine
 10
244.1446050235529
 20
518.7580431547924
 30
0.0
 11
244.7349391519335
 21
518.7580431547924
 31
0.0
  0
LINE
  5
6476
330
2
100
AcDbEntity
  8
AM_VIS
100
AcDbLine
 10
244.377801879544
 20
518.8402885856019
 30
0.0
 11
244.6897123983153
 21
518.8402885856019
 31
0.0
  0
LINE
  5
6477
330
2
100
AcDbEntity
  8
AM_VIS
100
AcDbLine
 10
244.377801879544
 20
518.9316723976124
 30
0.0
 11
244.6897123983153
 21
518.9316723976124
 31
0.0
  0
LINE
  5
6478
330
2
100
AcDbEntity
  8
AM_VIS
100
AcDbLine
 10
244.3719669329723
 20
515.6601319276385
 30
0.0
 11
244.7078701371213
 21
515.6601319276385
 31
0.0
  0
LINE
  5
6479
330
2
100
AcDbEntity
  8
AM_VIS
100
AcDbLine
 10
244.3719669329723
 20
515.568748115628
 30
0.0
 11
244.7078701371213
 21
515.568748115628
 31
0.0
  0
SPLINE
  5
647A
330
2
100
AcDbEntity
  8
AM_VIS
100
AcDbSpline
210
0.0
220
0.0
230
1.0
 70
     8
 71
     3
 72
    12
 73
     8
 74
     0
 42
0.0000000001
 43
0.0000000001
 40
0.0703738883334352
 40
0.0703738883334352
 40
0.0703738883334352
 40
0.0703738883334352
 40
0.5902519203382775
 40
0.5902519203382775
 40
0.9101367669051802
 40
0.9101367669051802
 40
1.24655183935772
 40
1.24655183935772
 40
1.24655183935772
 40
1.24655183935772
 10
242.3029087257346
 20
515.9254501537918
 30
0.0
 10
242.2528575481899
 20
515.8054377385822
 30
0.0
 10
242.1967172014786
 20
515.7078166454677
 30
0.0
 10
242.0958401812513
 20
515.594006116835
 30
0.0
 10
242.0562688163941
 20
515.5623300821905
 30
0.0
 10
241.9733744849684
 20
515.5192507708518
 30
0.0
 10
241.930676070134
 20
515.5093486378212
 30
0.0
 10
241.8883246833118
 20
515.5093486378212
 30
0.0
  0
LINE
  5
647B
330
2
100
AcDbEntity
  8
AM_VIS
100
AcDbLine
 10
241.3489562168948
 20
515.5093486378212
 30
0.0
 11
241.8883246833118
 21
515.5093486378212
 31
0.0
  0
LINE
  5
647C
330
2
100
AcDbEntity
  8
AM_VIS
100
AcDbLine
 10
241.7763216291275
 20
515.9754060790744
 30
0.0
 11
242.2806757973558
 21
515.9754060790744
 31
0.0
  0
LINE
  5
647D
330
2
100
AcDbEntity
  8
AM_VIS
100
AcDbLine
 10
242.3107040054974
 20
518.5707063598017
 30
0.0
 11
242.311106407823
 21
518.569715809054
 31
0.0
  0
LINE
  5
647E
330
2
100
AcDbEntity
  8
AM_VIS
100
AcDbLine
 10
241.3489562168948
 20
519.0093486378211
 30
0.0
 11
241.8883246833118
 21
519.0093486378211
 31
0.0
  0
SPLINE
  5
647F
330
2
100
AcDbEntity
  8
AM_VIS
100
AcDbSpline
210
0.0
220
0.0
230
1.0
 70
     8
 71
     3
 72
    12
 73
     8
 74
     0
 42
0.0000000001
 43
0.0000000001
 40
0.0
 40
0.0
 40
0.0
 40
0.0
 40
0.6031638409606606
 40
0.6031638409606606
 40
0.89835435818262
 40
0.89835435818262
 40
1.203307908094037
 40
1.203307908094037
 40
1.203307908094037
 40
1.203307908094037
 10
241.8883246833118
 20
519.0093486378211
 30
0.0
 10
241.9642638583027
 20
519.0093486378211
 30
0.0
 10
242.0400539886391
 20
518.9765333761281
 30
0.0
 10
242.1492304448313
 20
518.8645916616567
 30
0.0
 10
242.1835415906482
 20
518.8186509708045
 30
0.0
 10
242.2500224724229
 20
518.7073787402744
 30
0.0
 10
242.2814745327894
 20
518.6424735592097
 30
0.0
 10
242.3107039571748
 20
518.5707063401707
 30
0.0
  0
LINE
  5
6480
330
2
100
AcDbEntity
  8
AM_VIS
100
AcDbLine
 10
241.7643317192762
 20
518.5707063401707
 30
0.0
 11
242.3107039571748
 21
518.5707063401707
 31
0.0
  0
LINE
  5
6481
330
2
100
AcDbEntity
  8
AM_VIS
100
AcDbLine
 10
240.8197016551562
 20
518.9316723976124
 30
0.0
 11
240.8197016551562
 21
518.8402885856019
 31
0.0
  0
LINE
  5
6482
330
2
100
AcDbEntity
  8
AM_VIS
100
AcDbLine
 10
240.2972821292099
 20
518.8402885856019
 30
0.0
 11
240.8197016551562
 21
518.8402885856019
 31
0.0
  0
LINE
  5
6483
330
2
100
AcDbEntity
  8
AM_VIS
100
AcDbLine
 10
240.2972821292099
 20
518.9316723976124
 30
0.0
 11
240.8197016551562
 21
518.9316723976124
 31
0.0
  0
LINE
  5
6484
330
2
100
AcDbEntity
  8
AM_VIS
100
AcDbLine
 10
240.6678240069943
 20
515.568748115628
 30
0.0
 11
241.1872480817997
 21
515.568748115628
 31
0.0
  0
LINE
  5
6485
330
2
100
AcDbEntity
  8
AM_VIS
100
AcDbLine
 10
240.7365063607754
 20
516.4140483767243
 30
0.0
 11
240.8626984148475
 21
516.4140483767243
 31
0.0
  0
LINE
  5
6486
330
2
100
AcDbEntity
  8
AM_VIS
100
AcDbLine
 10
243.3927313914537
 20
519.0093929676557
 30
0.0
 11
243.4074490864489
 21
519.0091263498068
 31
0.0
  0
LINE
  5
6487
330
2
100
AcDbEntity
  8
AM_VIS
100
AcDbLine
 10
242.8275658464879
 20
519.0093486378211
 30
0.0
 11
243.3927305883983
 21
519.0093486378211
 31
0.0
  0
LINE
  5
6488
330
2
100
AcDbEntity
  8
AM_VIS
100
AcDbLine
 10
243.7893671069992
 20
515.7133850117199
 30
0.0
 11
243.8525894962254
 21
515.7876196204759
 31
0.0
  0
ARC
  5
6489
330
2
100
AcDbEntity
  8
AM_VIS
100
AcDbCircle
 10
243.3748322198796
 20
515.9917984558126
 30
0.0
 40
0.4824613567490875
100
AcDbArc
 50
270.3962659478871
 51
302.3125023655031
  0
LINE
  5
648A
330
2
100
AcDbEntity
  8
AM_VIS
100
AcDbLine
 10
242.8132656294272
 20
515.5093486378212
 30
0.0
 11
243.3781689662219
 21
515.5093486378212
 31
0.0
  0
LINE
  5
648B
330
2
100
AcDbEntity
  8
AM_VIS
100
AcDbLine
 10
243.8520705973833
 20
515.7880624275242
 30
0.0
 11
243.861167620526
 21
515.8001242529878
 31
0.0
  0
LINE
  5
648C
330
2
100
AcDbEntity
  8
AM_VIS
100
AcDbLine
 10
243.2785261918609
 20
515.7880692644527
 30
0.0
 11
243.8520615322375
 21
515.7880692644527
 31
0.0
  0
LINE
  5
648D
330
2
100
AcDbEntity
  8
AM_VIS
100
AcDbLine
 10
243.4665846923445
 20
516.1353277500928
 30
0.0
 11
243.9034063516601
 21
516.1353277500928
 31
0.0
  0
LINE
  5
648E
330
2
100
AcDbEntity
  8
AM_VIS
100
AcDbLine
 10
243.4353446521182
 20
516.2175731809022
 30
0.0
 11
243.9039038742546
 21
516.2175731809022
 31
0.0
  0
ELLIPSE
  5
648F
330
2
100
AcDbEntity
  8
AM_VIS
100
AcDbEllipse
 10
274.295745430079
 20
517.6631194753388
 30
0.0
 11
35.49999999999999
 21
0.0
 31
0.0
210
0.0
220
0.0
230
1.0
 40
0.0769230769230769
 41
2.626074961002272
 42
2.62991711544325
  0
ELLIPSE
  5
6490
330
2
100
AcDbEntity
  8
AM_VIS
100
AcDbEllipse
 10
274.295745430079
 20
1046.226344395
 30
0.0
 11
0.0
 21
-1069.4375
 31
0.0
210
0.0
220
0.0
230
1.0
 40
0.033195020746888
 41
5.227906672972209
 42
5.229090555652557
  0
ELLIPSE
  5
6491
330
2
100
AcDbEntity
  8
AM_VIS
100
AcDbEllipse
 10
274.295745430079
 20
516.2379324995643
 30
0.0
 11
-35.5
 21
0.0
 31
0.0
210
0.0
220
0.0
230
1.0
 40
0.0952380952380953
 41
5.766483731911718
 42
5.769589732709974
  0
SPLINE
  5
6492
330
2
100
AcDbEntity
  8
AM_VIS
100
AcDbSpline
210
0.0
220
0.0
230
1.0
 70
     8
 71
     3
 72
    14
 73
    10
 74
     0
 42
0.0000000001
 43
0.0000000001
 40
-1.608112432013847
 40
-1.608112432013847
 40
-1.608112432013847
 40
-1.608112432013847
 40
-1.193157471304488
 40
-1.193157471304488
 40
-0.8349003316812176
 40
-0.8349003316812176
 40
-0.4536288099811766
 40
-0.4536288099811766
 40
0.0
 40
0.0
 40
0.0
 40
0.0
 10
243.3758279034325
 20
517.8990353218944
 30
0.0
 10
243.3586590777184
 20
518.0328285986199
 30
0.0
 10
243.3354885950912
 20
518.1658844706974
 30
0.0
 10
243.2770579080482
 20
518.394108994538
 30
0.0
 10
243.2437873948927
 20
518.4923465677559
 30
0.0
 10
243.1594628284452
 20
518.6662767327208
 30
0.0
 10
243.1096828922934
 20
518.7354344702432
 30
0.0
 10
242.9872552095351
 20
518.840308725579
 30
0.0
 10
242.9168257682609
 20
518.8631345386045
 30
0.0
 10
242.8466800931396
 20
518.8631345386045
 30
0.0
  0
ARC
  5
6493
330
2
100
AcDbEntity
  8
AM_VIS
100
AcDbCircle
 10
242.8574399402423
 20
518.4647464640863
 30
0.0
 40
0.3985333514621823
100
AcDbArc
 50
91.54709447981627
 51
126.4157901132565
  0
ARC
  5
6494
330
2
100
AcDbEntity
  8
AM_VIS
100
AcDbCircle
 10
243.0152912312538
 20
518.2767030953185
 30
0.0
 40
0.6437486518114567
100
AcDbArc
 50
127.7863507170528
 51
155.9821945991157
  0
ARC
  5
6495
330
2
100
AcDbEntity
  8
AM_VIS
100
AcDbCircle
 10
245.763693043925
 20
517.4007143940782
 30
0.0
 40
3.525155341945029
100
AcDbArc
 50
161.1661561281327
 51
182.4469485574766
  0
ARC
  5
6496
330
2
100
AcDbEntity
  8
AM_VIS
100
AcDbCircle
 10
245.0836835203443
 20
517.1124783613134
 30
0.0
 40
2.845267091008349
100
AcDbArc
 50
177.2253776954518
 51
201.8597714091535
  0
SPLINE
  5
6497
330
2
100
AcDbEntity
  8
AM_VIS
100
AcDbSpline
210
0.0
220
0.0
230
1.0
 70
     8
 71
     3
 72
    10
 73
     6
 74
     0
 42
0.0000000001
 43
0.0000000001
 40
-1.067059437503691
 40
-1.067059437503691
 40
-1.067059437503691
 40
-1.067059437503691
 40
-0.5265320638901166
 40
-0.5265320638901166
 40
0.0
 40
0.0
 40
0.0
 40
0.0
 10
242.442997085853
 20
516.0530823192832
 30
0.0
 10
242.5015343918663
 20
515.9310669366093
 30
0.0
 10
242.5683018557868
 20
515.8366588384212
 30
0.0
 10
242.7194814596896
 20
515.7137257913253
 30
0.0
 10
242.798525217876
 20
515.6875470712414
 30
0.0
 10
242.8802603509873
 20
515.6875470712414
 30
0.0
  0
SPLINE
  5
6498
330
2
100
AcDbEntity
  8
AM_VIS
100
AcDbSpline
210
0.0
220
0.0
230
1.0
 70
     8
 71
     3
 72
    12
 73
     8
 74
     0
 42
0.0000000001
 43
0.0000000001
 40
-1.312419775836867
 40
-1.312419775836867
 40
-1.312419775836867
 40
-1.312419775836867
 40
-0.9924167323257995
 40
-0.9924167323257995
 40
-0.6716083796267501
 40
-0.6716083796267501
 40
0.0
 40
0.0
 40
0.0
 40
0.0
 10
242.8802603509873
 20
515.6875470712414
 30
0.0
 10
242.9299440387847
 20
515.6875470712414
 30
0.0
 10
242.9795086766169
 20
515.6987651100291
 30
0.0
 10
243.078261881856
 20
515.7452086031565
 30
0.0
 10
243.1262904029018
 20
515.7799500870976
 30
0.0
 10
243.2704402119589
 20
515.920207827053
 30
0.0
 10
243.3578250739351
 20
516.0578231021611
 30
0.0
 10
243.4353446521182
 20
516.2175731809022
 30
0.0
  0
ELLIPSE
  5
6499
330
2
100
AcDbEntity
  8
AM_VIS
100
AcDbEllipse
 10
274.295745430079
 20
542.5375797083172
 30
0.0
 11
0.0
 21
-53.25
 31
0.0
210
0.0
220
0.0
230
1.0
 40
0.6666666666666666
 41
5.22938665071049
 42
5.231164269854501
  0
ARC
  5
649A
330
2
100
AcDbEntity
  8
AM_VIS
100
AcDbCircle
 10
242.2936177586664
 20
516.5459992839362
 30
0.0
 40
1.24278016407228
100
AcDbArc
 50
322.4201475509295
 51
340.7041616785028
  0
ARC
  5
649B
330
2
100
AcDbEntity
  8
AM_VIS
100
AcDbCircle
 10
242.7729251595008
 20
516.1043714069071
 30
0.0
 40
0.5963886729679392
100
AcDbArc
 50
273.8785190593228
 51
327.9700543484682
  0
SPLINE
  5
649C
330
2
100
AcDbEntity
  8
AM_VIS
100
AcDbSpline
210
0.0
220
0.0
230
1.0
 70
     8
 71
     3
 72
    10
 73
     6
 74
     0
 42
0.0000000001
 43
0.0000000001
 40
-1.233437922323978
 40
-1.233437922323978
 40
-1.233437922323978
 40
-1.233437922323978
 40
-0.587533488157856
 40
-0.587533488157856
 40
0.0
 40
0.0
 40
0.0
 40
0.0
 10
242.8132656294272
 20
515.5093486378212
 30
0.0
 10
242.7138021311914
 20
515.5093486378212
 30
0.0
 10
242.6170723233204
 20
515.5395519642504
 30
0.0
 10
242.4447407789353
 20
515.6807568285405
 30
0.0
 10
242.3726720278003
 20
515.7803424312121
 30
0.0
 10
242.3095588013141
 20
515.9114374106668
 30
0.0
  0
ARC
  5
649D
330
2
100
AcDbEntity
  8
AM_VIS
100
AcDbCircle
 10
245.3499878341245
 20
517.1052525426564
 30
0.0
 40
3.266405252402424
100
AcDbArc
 50
177.296007857164
 51
201.4373017193945
  0
ARC
  5
649E
330
2
100
AcDbEntity
  8
AM_VIS
100
AcDbCircle
 10
245.3045484002903
 20
517.3851765367728
 30
0.0
 40
3.219788559912795
100
AcDbArc
 50
158.5700794976496
 51
182.2396637951147
  0
SPLINE
  5
649F
330
2
100
AcDbEntity
  8
AM_VIS
100
AcDbSpline
210
0.0
220
0.0
230
1.0
 70
     8
 71
     3
 72
    12
 73
     8
 74
     0
 42
0.0000000001
 43
0.0000000001
 40
-1.282652671236749
 40
-1.282652671236749
 40
-1.282652671236749
 40
-1.282652671236749
 40
-0.9522339024507182
 40
-0.9522339024507182
 40
-0.6297797705509558
 40
-0.6297797705509558
 40
0.0
 40
0.0
 40
0.0
 40
0.0
 10
242.3073594519046
 20
518.5615679589698
 30
0.0
 10
242.3420002440435
 20
518.6374179139541
 30
0.0
 10
242.3796530407458
 20
518.705329766569
 30
0.0
 10
242.4607808626852
 20
518.8211516751782
 30
0.0
 10
242.5033114260634
 20
518.8683855228125
 30
0.0
 10
242.6365834153837
 20
518.9783292478698
 30
0.0
 10
242.7303976962655
 20
519.0093486378211
 30
0.0
 10
242.8275658464879
 20
519.0093486378211
 30
0.0
  0
ARC
  5
64A0
330
2
100
AcDbEntity
  8
AM_VIS
100
AcDbCircle
 10
242.8060319336816
 20
518.4452242577488
 30
0.0
 40
0.5645352297180533
100
AcDbArc
 50
58.60378978752176
 51
87.81395093003167
  0
LINE
  5
64A1
330
2
100
AcDbEntity
  8
AM_VIS
100
AcDbLine
 10
243.1000790858311
 20
518.927012399339
 30
0.0
 11
243.2527621933548
 21
518.8441750940126
 31
0.0
  0
SPLINE
  5
64A2
330
2
100
AcDbEntity
  8
AM_VIS
100
AcDbSpline
210
0.0
220
0.0
230
1.0
 70
     8
 71
     3
 72
    14
 73
    10
 74
     0
 42
0.0000000001
 43
0.0000000001
 40
-0.2604329022945249
 40
-0.2604329022945249
 40
-0.2604329022945249
 40
-0.2604329022945249
 40
-0.2119083035077304
 40
-0.2119083035077304
 40
-0.1665934578837816
 40
-0.1665934578837816
 40
-0.0993147059779253
 40
-0.0993147059779253
 40
0.0
 40
0.0
 40
0.0
 40
0.0
 10
243.2531325784873
 20
518.8448577762021
 30
0.0
 10
243.2609881205437
 20
518.8448577762021
 30
0.0
 10
243.268833591668
 20
518.846512946234
 30
0.0
 10
243.2836238670288
 20
518.8539825373116
 30
0.0
 10
243.2904281938233
 20
518.8594307266755
 30
0.0
 10
243.3063291757132
 20
518.8780681966952
 30
0.0
 10
243.3143187238043
 20
518.8930041633764
 30
0.0
 10
243.3309230654763
 20
518.9370017396993
 30
0.0
 10
243.3376876737368
 20
518.9685329623801
 30
0.0
 10
243.3423964513097
 20
519.0002102566202
 30
0.0
  0
LINE
  5
64A3
330
2
100
AcDbEntity
  8
AM_VIS
100
AcDbLine
 10
240.295745430079
 20
515.568748115628
 30
0.0
 11
240.295745430079
 21
515.7241095762949
 31
0.0
  0
LINE
  5
64A4
330
2
100
AcDbEntity
  8
AM_VIS
100
AcDbLine
 10
240.2957454254192
 20
515.7241080643309
 30
0.0
 11
240.2986553487926
 21
515.7240990960978
 31
0.0
  0
SPLINE
  5
64A5
330
2
100
AcDbEntity
  8
AM_VIS
100
AcDbSpline
210
0.0
220
0.0
230
1.0
 70
     8
 71
     3
 72
    10
 73
     6
 74
     0
 42
0.0000000001
 43
0.0000000001
 40
-0.6848724765848414
 40
-0.6848724765848414
 40
-0.6848724765848414
 40
-0.6848724765848414
 40
-0.1792227408305838
 40
-0.1792227408305838
 40
0.0
 40
0.0
 40
0.0
 40
0.0
 10
240.2986553534154
 20
515.7241005960456
 30
0.0
 10
240.3543230076252
 20
515.7241005960456
 30
0.0
 10
240.428850703185
 20
515.7305983133112
 30
0.0
 10
240.5079193144816
 20
515.7748780110653
 30
0.0
 10
240.5294271139307
 20
515.7913247055851
 30
0.0
 10
240.5463732001747
 20
515.8154844080561
 30
0.0
  0
ARC
  5
64A6
330
2
100
AcDbEntity
  8
AM_VIS
100
AcDbCircle
 10
239.1105335067896
 20
516.512462500483
 30
0.0
 40
1.596062055943607
100
AcDbArc
 50
334.1073692243132
 51
356.4648660537082
  0
ELLIPSE
  5
64A7
330
2
100
AcDbEntity
  8
AM_VIS
100
AcDbEllipse
 10
274.295745430079
 20
467.7379268481224
 30
0.0
 11
0.0
 21
149.2613636363636
 31
0.0
210
0.0
220
0.0
230
1.0
 40
0.2378378378378378
 41
1.23860711425343
 42
1.244591703716962
  0
LINE
  5
64A8
330
2
100
AcDbEntity
  8
AM_VIS
100
AcDbLine
 10
240.295745430079
 20
518.840281692059
 30
0.0
 11
240.295745430079
 21
518.9316723976124
 31
0.0
  0
LINE
  5
64A9
330
2
100
AcDbEntity
  8
AM_VIS
100
AcDbLine
 10
240.2972821292099
 20
518.9316723976124
 30
0.0
 11
240.2972821292099
 21
518.8402885856019
 31
0.0
  0
LINE
  5
64AA
330
2
100
AcDbEntity
  8
AM_VIS
100
AcDbLine
 10
240.2957454248995
 20
518.840282847558
 30
0.0
 11
240.2972821240533
 21
518.8402897359567
 31
0.0
  0
ARC
  5
64AB
330
2
100
AcDbEntity
  8
AM_VIS
100
AcDbCircle
 10
245.2550736658702
 20
517.1306628637673
 30
0.0
 40
4.447858012227471
100
AcDbArc
 50
178.4009652258136
 51
195.0542369736531
  0
ARC
  5
64AC
330
2
100
AcDbEntity
  8
AM_VIS
100
AcDbCircle
 10
245.1458321690627
 20
517.3920908174084
 30
0.0
 40
4.339057637313684
100
AcDbArc
 50
164.2387526958014
 51
181.8134526774029
  0
SPLINE
  5
64AD
330
2
100
AcDbEntity
  8
AM_VIS
100
AcDbSpline
210
0.0
220
0.0
230
1.0
 70
     8
 71
     3
 72
    12
 73
     8
 74
     0
 42
0.0000000001
 43
0.0000000001
 40
-1.184365514332061
 40
-1.184365514332061
 40
-1.184365514332061
 40
-1.184365514332061
 40
-0.8639764341030154
 40
-0.8639764341030154
 40
-0.5558573687827875
 40
-0.5558573687827875
 40
0.0
 40
0.0
 40
0.0
 40
0.0
 10
240.9699147094579
 20
518.5707063401707
 30
0.0
 10
240.9956269230111
 20
518.6471227584868
 30
0.0
 10
241.0238924848907
 20
518.7158705745026
 30
0.0
 10
241.085134957405
 20
518.8319197980679
 30
0.0
 10
241.1172600541697
 20
518.878745075008
 30
0.0
 10
241.2137293837616
 20
518.9809099195829
 30
0.0
 10
241.2799586724207
 20
519.0093486378211
 30
0.0
 10
241.3489562168948
 20
519.0093486378211
 30
0.0
  0
SPLINE
  5
64AE
330
2
100
AcDbEntity
  8
AM_VIS
100
AcDbSpline
210
0.0
220
0.0
230
1.0
 70
     8
 71
     3
 72
    12
 73
     8
 74
     0
 42
0.0000000001
 43
0.0000000001
 40
-1.201305769599311
 40
-1.201305769599311
 40
-1.201305769599311
 40
-1.201305769599311
 40
-0.8844535771398998
 40
-0.8844535771398998
 40
-0.5804038630245363
 40
-0.5804038630245363
 40
0.0
 40
0.0
 40
0.0
 40
0.0
 10
241.3489562168948
 20
519.0093486378211
 30
0.0
 10
241.3882836904536
 20
519.0093486378211
 30
0.0
 10
241.4278839607062
 20
519.0002519148641
 30
0.0
 10
241.5052191937348
 20
518.9610047846179
 30
0.0
 10
241.5423781402467
 20
518.9320167059492
 30
0.0
 10
241.6477375674576
 20
518.8170665879668
 30
0.0
 10
241.7095590746201
 20
518.7074872803098
 30
0.0
 10
241.7643317192762
 20
518.5707063401707
 30
0.0
  0
ARC
  5
64AF
330
2
100
AcDbEntity
  8
AM_VIS
100
AcDbCircle
 10
238.3099750719639
 20
517.3802224556113
 30
0.0
 40
3.653742153768842
100
AcDbArc
 50
358.0324917856668
 51
19.01562036943541
  0
ARC
  5
64B0
330
2
100
AcDbEntity
  8
AM_VIS
100
AcDbCircle
 10
238.2179675959299
 20
517.1437205171662
 30
0.0
 40
3.7452425891827
100
AcDbArc
 50
341.8234393165896
 51
1.699259990928227
  0
SPLINE
  5
64B1
330
2
100
AcDbEntity
  8
AM_VIS
100
AcDbSpline
210
0.0
220
0.0
230
1.0
 70
     8
 71
     3
 72
    12
 73
     8
 74
     0
 42
0.0000000001
 43
0.0000000001
 40
-1.242654558732686
 40
-1.242654558732686
 40
-1.242654558732686
 40
-1.242654558732686
 40
-0.9142698756126357
 40
-0.9142698756126357
 40
-0.5971960501628128
 40
-0.5971960501628128
 40
0.0
 40
0.0
 40
0.0
 40
0.0
 10
241.7763216291275
 20
515.9754060790744
 30
0.0
 10
241.7462205364607
 20
515.8957211894001
 30
0.0
 10
241.7134432104051
 20
515.8239495881464
 30
0.0
 10
241.6434579309757
 20
515.7020918406372
 30
0.0
 10
241.6071774084092
 20
515.6526214975886
 30
0.0
 10
241.4973425635358
 20
515.5407025681409
 30
0.0
 10
241.4230850552349
 20
515.5093486378212
 30
0.0
 10
241.3489562168948
 20
515.5093486378212
 30
0.0
  0
SPLINE
  5
64B2
330
2
100
AcDbEntity
  8
AM_VIS
100
AcDbSpline
210
0.0
220
0.0
230
1.0
 70
     8
 71
     3
 72
    12
 73
     8
 74
     0
 42
0.0000000001
 43
0.0000000001
 40
-1.2276122238759
 40
-1.2276122238759
 40
-1.2276122238759
 40
-1.2276122238759
 40
-0.8929247034456292
 40
-0.8929247034456292
 40
-0.5733896277861756
 40
-0.5733896277861756
 40
0.0
 40
0.0
 40
0.0
 40
0.0
 10
241.3489562168948
 20
515.5093486378212
 30
0.0
 10
241.3074102508883
 20
515.5093486378212
 30
0.0
 10
241.2665095391751
 20
515.5193450985559
 30
0.0
 10
241.1888200566289
 20
515.5633292847221
 30
0.0
 10
241.1525900904765
 20
515.5958336144615
 30
0.0
 10
241.0564295685917
 20
515.7205243172227
 30
0.0
 10
241.0043228119791
 20
515.8346602678204
 30
0.0
 10
240.9598643975858
 20
515.9754060790744
 30
0.0
  0
ARC
  5
64B3
330
2
100
AcDbEntity
  8
AM_VIS
100
AcDbCircle
 10
245.4458652214421
 20
517.3995953557326
 30
0.0
 40
4.521492927759683
100
AcDbArc
 50
165.5873156101299
 51
181.777473550776
  0
ARC
  5
64B4
330
2
100
AcDbEntity
  8
AM_VIS
100
AcDbCircle
 10
245.4409796972616
 20
517.1208905649198
 30
0.0
 40
4.516554570906623
100
AcDbArc
 50
178.2432834228539
 51
194.1531268448759
  0
SPLINE
  5
64B5
330
2
100
AcDbEntity
  8
AM_VIS
100
AcDbSpline
210
0.0
220
0.0
230
1.0
 70
     8
 71
     3
 72
    12
 73
     8
 74
     0
 42
0.0000000001
 43
0.0000000001
 40
-0.913574326314335
 40
-0.913574326314335
 40
-0.913574326314335
 40
-0.913574326314335
 40
-0.6515554079476983
 40
-0.6515554079476983
 40
-0.4062533274741592
 40
-0.4062533274741592
 40
0.0
 40
0.0
 40
0.0
 40
0.0
 10
241.0615219372226
 20
516.0165287944789
 30
0.0
 10
241.0817097529129
 20
515.9507298563701
 30
0.0
 10
241.1041234365516
 20
515.8904405330797
 30
0.0
 10
241.1525360372511
 20
515.7896237178181
 30
0.0
 10
241.1777951779084
 20
515.7489556890324
 30
0.0
 10
241.2503955660309
 20
515.6654113891238
 30
0.0
 10
241.2985287446611
 20
515.6418551652361
 30
0.0
 10
241.3489562168948
 20
515.6418551652361
 30
0.0
  0
SPLINE
  5
64B6
330
2
100
AcDbEntity
  8
AM_VIS
100
AcDbSpline
210
0.0
220
0.0
230
1.0
 70
     8
 71
     3
 72
    12
 73
     8
 74
     0
 42
0.0000000001
 43
0.0000000001
 40
-0.9266131644267144
 40
-0.9266131644267144
 40
-0.9266131644267144
 40
-0.9266131644267144
 40
-0.6935838796819845
 40
-0.6935838796819845
 40
-0.4652094337699562
 40
-0.4652094337699562
 40
0.0
 40
0.0
 40
0.0
 40
0.0
 10
241.3489562168948
 20
515.6418551652361
 30
0.0
 10
241.377884068906
 20
515.6418551652361
 30
0.0
 10
241.406798762712
 20
515.649607025259
 30
0.0
 10
241.4636541029195
 20
515.6825255972005
 30
0.0
 10
241.4909622178523
 20
515.7069711774245
 30
0.0
 10
241.5712223705186
 20
515.805835229063
 30
0.0
 10
241.6184137286648
 20
515.9021407841371
 30
0.0
 10
241.6596123121633
 20
516.0165287944789
 30
0.0
  0
ARC
  5
64B7
330
2
100
AcDbEntity
  8
AM_VIS
100
AcDbCircle
 10
237.8828858547527
 20
517.130939713041
 30
0.0
 40
3.937711826621579
100
AcDbArc
 50
343.5600803735928
 51
1.868748746676991
  0
ARC
  5
64B8
330
2
100
AcDbEntity
  8
AM_VIS
100
AcDbCircle
 10
237.8760645267464
 20
517.3897077964731
 30
0.0
 40
3.944593501855345
100
AcDbArc
 50
358.1061699221296
 51
16.72708918009869
  0
SPLINE
  5
64B9
330
2
100
AcDbEntity
  8
AM_VIS
100
AcDbSpline
210
0.0
220
0.0
230
1.0
 70
     8
 71
     3
 72
    12
 73
     8
 74
     0
 42
0.0000000001
 43
0.0000000001
 40
-0.9088338609416513
 40
-0.9088338609416513
 40
-0.9088338609416513
 40
-0.9088338609416513
 40
-0.6501981440018034
 40
-0.6501981440018034
 40
-0.4089917467383196
 40
-0.4089917467383196
 40
0.0
 40
0.0
 40
0.0
 40
0.0
 10
241.6537485703491
 20
518.5250144341655
 30
0.0
 10
241.6305639068189
 20
518.587889664949
 30
0.0
 10
241.6054247380421
 20
518.6456782160109
 30
0.0
 10
241.5528365378193
 20
518.7426235282226
 30
0.0
 10
241.5259783910217
 20
518.7821831646176
 30
0.0
 10
241.4494522395428
 20
518.865713144826
 30
0.0
 10
241.3997236040336
 20
518.8905496822074
 30
0.0
 10
241.3489562168948
 20
518.8905496822074
 30
0.0
  0
SPLINE
  5
64BA
330
2
100
AcDbEntity
  8
AM_VIS
100
AcDbSpline
210
0.0
220
0.0
230
1.0
 70
     8
 71
     3
 72
    12
 73
     8
 74
     0
 42
0.0000000001
 43
0.0000000001
 40
-0.892592271972121
 40
-0.892592271972121
 40
-0.892592271972121
 40
-0.892592271972121
 40
-0.6689624917400497
 40
-0.6689624917400497
 40
-0.4488920263445597
 40
-0.4488920263445597
 40
0.0
 40
0.0
 40
0.0
 40
0.0
 10
241.3489562168948
 20
518.8905496822074
 30
0.0
 10
241.3211893121722
 20
518.8905496822074
 30
0.0
 10
241.2939041776074
 20
518.8829557058132
 30
0.0
 10
241.2409720626527
 20
518.850710318871
 30
0.0
 10
241.2159401628321
 20
518.8267194372549
 30
0.0
 10
241.143359491605
 20
518.7299212207965
 30
0.0
 10
241.1020725729086
 20
518.6357873190011
 30
0.0
 10
241.0666723513257
 20
518.5250144341655
 30
0.0
  0
LINE
  5
64BB
330
2
100
AcDbEntity
  8
AM_VIS
100
AcDbLine
 10
245.4583540639405
 20
518.9316723976124
 30
0.0
 11
245.4583540639405
 21
518.8402885856019
 31
0.0
  0
LINE
  5
64BC
330
2
100
AcDbEntity
  8
AM_VIS
100
AcDbLine
 10
245.3053233994722
 20
518.8271782129334
 30
0.0
 11
245.4582992413295
 21
518.8408997793114
 31
0.0
  0
ARC
  5
64BD
330
2
100
AcDbEntity
  8
AM_VIS
100
AcDbCircle
 10
245.3461890604797
 20
518.5715533813215
 30
0.0
 40
0.258272569813425
100
AcDbArc
 50
99.0919576243367
 51
133.7747040747757
  0
ARC
  5
64BE
330
2
100
AcDbEntity
  8
AM_VIS
100
AcDbCircle
 10
246.1002826908907
 20
517.8685061915996
 30
0.0
 40
1.28893029649926
100
AcDbArc
 50
136.3591390809582
 51
150.7859439706454
  0
ELLIPSE
  5
64BF
330
2
100
AcDbEntity
  8
AM_VIS
100
AcDbEllipse
 10
274.295745430079
 20
496.5916914927372
 30
0.0
 11
0.0
 21
38.85572139303482
 31
0.0
210
0.0
220
0.0
230
1.0
 40
0.9136363636363638
 41
0.9718462733807328
 42
1.00284637839256
  0
ELLIPSE
  5
64C0
330
2
100
AcDbEntity
  8
AM_VIS
100
AcDbEllipse
 10
274.295745430079
 20
541.0251620458359
 30
0.0
 11
0.0
 21
-43.74896265560166
 31
0.0
210
0.0
220
0.0
230
1.0
 40
0.8114478114478114
 41
5.280338928787026
 42
5.317585846210444
  0
ARC
  5
64C1
330
2
100
AcDbEntity
  8
AM_VIS
100
AcDbCircle
 10
246.7987243055288
 20
517.0466368820837
 30
0.0
 40
1.926941548827532
100
AcDbArc
 50
208.2246803381081
 51
221.864394429499
  0
ARC
  5
64C2
330
2
100
AcDbEntity
  8
AM_VIS
100
AcDbCircle
 10
245.616926601638
 20
516.0282903956638
 30
0.0
 40
0.3684603116119885
100
AcDbArc
 50
226.5824281251943
 51
266.7044995120805
  0
LINE
  5
64C3
330
2
100
AcDbEntity
  8
AM_VIS
100
AcDbLine
 10
245.595745430079
 20
515.6604393942996
 30
0.0
 11
245.595745430079
 21
515.568748115628
 31
0.0
  0
LINE
  5
64C4
330
2
100
AcDbEntity
  8
AM_VIS
100
AcDbLine
 10
244.7078701371213
 20
515.568748115628
 30
0.0
 11
244.7078701371213
 21
515.6601319276385
 31
0.0
  0
ARC
  5
64C5
330
2
100
AcDbEntity
  8
AM_VIS
100
AcDbCircle
 10
244.6597151390536
 20
516.1823522801567
 30
0.0
 40
0.5244358878101658
100
AcDbArc
 50
275.2684610900278
 51
295.850213512514
  0
SPLINE
  5
64C6
330
2
100
AcDbEntity
  8
AM_VIS
100
AcDbSpline
210
0.0
220
0.0
230
1.0
 70
     8
 71
     3
 72
    14
 73
    10
 74
     0
 42
0.0000000001
 43
0.0000000001
 40
-0.1531726380934112
 40
-0.1531726380934112
 40
-0.1531726380934112
 40
-0.1531726380934112
 40
-0.1208721410525331
 40
-0.1208721410525331
 40
-0.0915873767462261
 40
-0.0915873767462261
 40
-0.0514964941566076
 40
-0.0514964941566076
 40
0.0
 40
0.0
 40
0.0
 40
0.0
 10
244.8883796557189
 20
515.710393024244
 30
0.0
 10
244.8941064395256
 20
515.7137805090671
 30
0.0
 10
244.8996998099194
 20
515.7180799617588
 30
0.0
 10
244.9096227214679
 20
515.7285092692156
 30
0.0
 10
244.9139802387183
 20
515.7343871654818
 30
0.0
 10
244.9230903995688
 20
515.7508782235256
 30
0.0
 10
244.9270915657453
 20
515.7618883315824
 30
0.0
 10
244.9334772506932
 20
515.790239578868
 30
0.0
 10
244.9348434790468
 20
515.8074572912048
 30
0.0
 10
244.9348434790468
 20
515.824622789257
 30
0.0
  0
ARC
  5
64C7
330
2
100
AcDbEntity
  8
AM_VIS
100
AcDbCircle
 10
240.581082398842
 20
514.342791967925
 30
0.0
 40
4.599027954530746
100
AcDbArc
 50
18.79633988526268
 51
30.59627961854479
  0
ELLIPSE
  5
64C8
330
2
100
AcDbEntity
  8
AM_VIS
100
AcDbEllipse
 10
274.295745430079
 20
540.3259502395483
 30
0.0
 11
0.0
 21
-43.35096153846151
 31
0.0
210
0.0
220
0.0
230
1.0
 40
0.8188976377952755
 41
5.273331284798823
 42
5.28921961377304
  0
ARC
  5
64C9
330
2
100
AcDbEntity
  8
AM_VIS
100
AcDbCircle
 10
274.295745430079
 20
498.3784739641917
 30
0.0
 40
35.5
100
AcDbArc
 50
147.8603734067329
 51
148.3294667707801
  0
LINE
  5
64CA
330
2
100
AcDbEntity
  8
AM_VIS
100
AcDbLine
 10
244.0823613089174
 20
517.0171815359934
 30
0.0
 11
244.0823613089174
 21
516.130758559492
 31
0.0
  0
ARC
  5
64CB
330
2
100
AcDbEntity
  8
AM_VIS
100
AcDbCircle
 10
244.8832023431539
 20
516.0771823053335
 30
0.0
 40
0.8026311588311514
100
AcDbArc
 50
176.1726162975486
 51
202.5182481913507
  0
SPLINE
  5
64CC
330
2
100
AcDbEntity
  8
AM_VIS
100
AcDbSpline
210
0.0
220
0.0
230
1.0
 70
     8
 71
     3
 72
    12
 73
     8
 74
     0
 42
0.0000000001
 43
0.0000000001
 40
-0.4369956089875457
 40
-0.4369956089875457
 40
-0.4369956089875457
 40
-0.4369956089875457
 40
-0.3579898768290532
 40
-0.3579898768290532
 40
-0.2590000808649359
 40
-0.2590000808649359
 40
0.0
 40
0.0
 40
0.0
 40
0.0
 10
244.1417657066404
 20
515.7697925020508
 30
0.0
 10
244.1528535389718
 20
515.7536459641358
 30
0.0
 10
244.1657312406442
 20
515.7406698975957
 30
0.0
 10
244.1947345206133
 20
515.7171110049496
 30
0.0
 10
244.212243443533
 20
515.7068423027255
 30
0.0
 10
244.2740106844594
 20
515.6774674717592
 30
0.0
 10
244.3256347401582
 20
515.6662834225946
 30
0.0
 10
244.3719669329723
 20
515.6601319276385
 30
0.0
  0
LINE
  5
64CD
330
2
100
AcDbEntity
  8
AM_VIS
100
AcDbLine
 10
244.3719669329723
 20
515.6601319276385
 30
0.0
 11
244.3719669329723
 21
515.568748115628
 31
0.0
  0
LINE
  5
64CE
330
2
100
AcDbEntity
  8
AM_VIS
100
AcDbLine
 10
243.6327255595515
 20
515.568748115628
 30
0.0
 11
243.6327255595515
 21
515.6601319276385
 31
0.0
  0
SPLINE
  5
64CF
330
2
100
AcDbEntity
  8
AM_VIS
100
AcDbSpline
210
0.0
220
0.0
230
1.0
 70
     8
 71
     3
 72
    10
 73
     6
 74
     0
 42
0.0000000001
 43
0.0000000001
 40
-0.3963858617535622
 40
-0.3963858617535622
 40
-0.3963858617535622
 40
-0.3963858617535622
 40
-0.0994926975763721
 40
-0.0994926975763721
 40
0.0
 40
0.0
 40
0.0
 40
0.0
 10
243.6327255595515
 20
515.6601319276385
 30
0.0
 10
243.6977575522808
 20
515.6694208910955
 30
0.0
 10
243.7608103878488
 20
515.6891505007454
 30
0.0
 10
243.8230331649629
 20
515.7406901465199
 30
0.0
 10
243.8387177672712
 20
515.7573415479612
 30
0.0
 10
243.8516664167143
 20
515.7789308832518
 30
0.0
  0
ARC
  5
64D0
330
2
100
AcDbEntity
  8
AM_VIS
100
AcDbCircle
 10
242.7421113924197
 20
516.1295063787872
 30
0.0
 40
1.163621729776175
100
AcDbArc
 50
342.4655245985659
 51
3.213104988223759
  0
LINE
  5
64D1
330
2
100
AcDbEntity
  8
AM_VIS
100
AcDbLine
 10
243.9039038742546
 20
516.1947272278996
 30
0.0
 11
243.9039038742546
 21
518.3925079067505
 31
0.0
  0
ARC
  5
64D2
330
2
100
AcDbEntity
  8
AM_VIS
100
AcDbCircle
 10
243.1821139441663
 20
518.453859681483
 30
0.0
 40
0.7243926721329512
100
AcDbArc
 50
355.14156618776
 51
25.62825339211245
  0
ARC
  5
64D3
330
2
100
AcDbEntity
  8
AM_VIS
100
AcDbCircle
 10
243.6139841644203
 20
518.4713247165721
 30
0.0
 40
0.369439543823987
100
AcDbArc
 50
53.20905916314394
 51
87.09217933012649
  0
LINE
  5
64D4
330
2
100
AcDbEntity
  8
AM_VIS
100
AcDbLine
 10
243.6327255595515
 20
518.8402885856019
 30
0.0
 11
243.6327255595515
 21
518.9316723976124
 31
0.0
  0
LINE
  5
64D5
330
2
100
AcDbEntity
  8
AM_VIS
100
AcDbLine
 10
244.377801879544
 20
518.9316723976124
 30
0.0
 11
244.377801879544
 21
518.8402885856019
 31
0.0
  0
SPLINE
  5
64D6
330
2
100
AcDbEntity
  8
AM_VIS
100
AcDbSpline
210
0.0
220
0.0
230
1.0
 70
     8
 71
     3
 72
    10
 73
     6
 74
     0
 42
0.0000000001
 43
0.0000000001
 40
-0.3041110503072323
 40
-0.3041110503072323
 40
-0.3041110503072323
 40
-0.3041110503072323
 40
-0.0622187259415476
 40
-0.0622187259415476
 40
0.0
 40
0.0
 40
0.0
 40
0.0
 10
244.377801879544
 20
518.8402885856019
 30
0.0
 10
244.2970707917236
 20
518.8304140133712
 30
0.0
 10
244.2236682093892
 20
518.8138559788942
 30
0.0
 10
244.165580353533
 20
518.7783974608744
 30
0.0
 10
244.1537862177954
 20
518.7693396910001
 30
0.0
 10
244.1446050235529
 20
518.7580431547924
 30
0.0
  0
ARC
  5
64D7
330
2
100
AcDbEntity
  8
AM_VIS
100
AcDbCircle
 10
244.8297849799367
 20
518.4533029277901
 30
0.0
 40
0.7498921112954854
100
AcDbArc
 50
156.0224437112245
 51
184.6501691782049
  0
LINE
  5
64D8
330
2
100
AcDbEntity
  8
AM_VIS
100
AcDbLine
 10
244.0823613089174
 20
518.3925079067505
 30
0.0
 11
244.0823613089174
 21
517.2045183506149
 31
0.0
  0
LINE
  5
64D9
330
2
100
AcDbEntity
  8
AM_VIS
100
AcDbLine
 10
244.0827046929046
 20
517.2043134237058
 30
0.0
 11
244.7387279765296
 21
518.3035731144729
 31
0.0
  0
ARC
  5
64DA
330
2
100
AcDbEntity
  8
AM_VIS
100
AcDbCircle
 10
243.8285822068874
 20
518.8633787467722
 30
0.0
 40
1.064389104634854
100
AcDbArc
 50
328.4024918350108
 51
351.8427005961108
  0
SPLINE
  5
64DB
330
2
100
AcDbEntity
  8
AM_VIS
100
AcDbSpline
210
0.0
220
0.0
230
1.0
 70
     8
 71
     3
 72
    14
 73
    10
 74
     0
 42
0.0000000001
 43
0.0000000001
 40
-0.1301473336609273
 40
-0.1301473336609273
 40
-0.1301473336609273
 40
-0.1301473336609273
 40
-0.1031024286484683
 40
-0.1031024286484683
 40
-0.0784939106506536
 40
-0.0784939106506536
 40
-0.0447190693279371
 40
-0.0447190693279371
 40
0.0
 40
0.0
 40
0.0
 40
0.0
 10
244.8822020913419
 20
518.7123512487871
 30
0.0
 10
244.8822020826235
 20
518.7213699518967
 30
0.0
 10
244.8817438782626
 20
518.7304242057764
 30
0.0
 10
244.8796386677031
 20
518.747236491961
 30
0.0
 10
244.8781144186889
 20
518.7549432666703
 30
0.0
 10
244.8730076742454
 20
518.7721458754288
 30
0.0
 10
244.8690480864859
 20
518.78063910088
 30
0.0
 10
244.857731100941
 20
518.7972456766217
 30
0.0
 10
244.8500761099683
 20
518.8037726404052
 30
0.0
 10
244.8421486154341
 20
518.8083042513983
 30
0.0
  0
ARC
  5
64DC
330
2
100
AcDbEntity
  8
AM_VIS
100
AcDbCircle
 10
244.6748155253037
 20
518.3900456060521
 30
0.0
 40
0.4504893533250945
100
AcDbArc
 50
68.19509130406737
 51
88.104986104291
  0
LINE
  5
64DD
330
2
100
AcDbEntity
  8
AM_VIS
100
AcDbLine
 10
244.6897123983153
 20
518.8402885856019
 30
0.0
 11
244.6897123983153
 21
518.9316723976124
 31
0.0
  0
LINE
  5
64DE
330
2
100
AcDbEntity
  8
AM_VIS
100
AcDbLine
 10
249.295745430079
 20
537.5093486378212
 30
0.0
 11
249.295745430079
 21
563.5093486378211
 31
0.0
  0
LINE
  5
64DF
330
2
100
AcDbEntity
  8
AM_VIS
100
AcDbLine
 10
299.295745430079
 20
537.5093486378212
 30
0.0
 11
299.295745430079
 21
563.5093486378211
 31
0.0
  0
LINE
  5
64E0
330
2
100
AcDbEntity
  8
AM_VIS
100
AcDbLine
 10
250.295745430079
 20
564.5093486378211
 30
0.0
 11
249.295745430079
 21
563.5093486378211
 31
0.0
  0
LINE
  5
64E1
330
2
100
AcDbEntity
  8
AM_VIS
100
AcDbLine
 10
298.295745430079
 20
564.5093486378211
 30
0.0
 11
299.295745430079
 21
563.5093486378211
 31
0.0
  0
LINE
  5
64E2
330
2
100
AcDbEntity
  8
AM_VIS
100
AcDbLine
 10
307.295745430079
 20
510.5093486378211
 30
0.0
 11
308.295745430079
 21
512.0093486378212
 31
0.0
  0
LINE
  5
64E3
330
2
100
AcDbEntity
  8
AM_VIS
100
AcDbLine
 10
241.295745430079
 20
510.5093486378211
 30
0.0
 11
240.295745430079
 21
512.0093486378212
 31
0.0
  0
LINE
  5
64E4
330
2
100
AcDbEntity
  8
AM_VIS
100
AcDbLine
 10
249.295745430079
 20
563.5093486378211
 30
0.0
 11
258.295745430079
 21
563.5093486378211
 31
0.0
  0
LINE
  5
64E5
330
2
100
AcDbEntity
  8
AM_VIS
100
AcDbLine
 10
290.295745430079
 20
563.5093486378211
 30
0.0
 11
299.295745430079
 21
563.5093486378211
 31
0.0
  0
LINE
  5
64E6
330
2
100
AcDbEntity
  8
AM_VIS
100
AcDbLine
 10
250.295745430079
 20
564.5093486378211
 30
0.0
 11
298.295745430079
 21
564.5093486378211
 31
0.0
  0
LINE
  5
64E7
330
2
100
AcDbEntity
  8
AM_VIS
100
AcDbLine
 10
241.295745430079
 20
510.5093486378211
 30
0.0
 11
307.295745430079
 21
510.5093486378211
 31
0.0
  0
ARC
  5
64E8
330
2
100
AcDbEntity
  8
AM_VIS
100
AcDbCircle
 10
258.295745430079
 20
534.5093486378211
 30
0.0
 40
0.9999999999999998
100
AcDbArc
 50
180.0
 51
270.0
  0
ARC
  5
64E9
330
2
100
AcDbEntity
  8
AM_VIS
100
AcDbCircle
 10
258.295745430079
 20
562.5093486378212
 30
0.0
 40
0.9999999999999998
100
AcDbArc
 50
90.0
 51
180.0
  0
ARC
  5
64EA
330
2
100
AcDbEntity
  8
AM_VIS
100
AcDbCircle
 10
290.295745430079
 20
562.5093486378212
 30
0.0
 40
0.9999999999999998
100
AcDbArc
 50
0.0
 51
90.0
  0
ARC
  5
64EB
330
2
100
AcDbEntity
  8
AM_VIS
100
AcDbCircle
 10
290.295745430079
 20
534.5093486378211
 30
0.0
 40
1.0
100
AcDbArc
 50
270.0
 51
0.0
  0
CIRCLE
  5
64EC
330
2
100
AcDbEntity
  8
AM_VIS
100
AcDbCircle
 10
274.295745430079
 20
548.5093486378211
 30
0.0
 40
10.25
  0
CIRCLE
  5
64ED
330
2
100
AcDbEntity
  8
AM_VIS
100
AcDbCircle
 10
274.295745430079
 20
548.5093486378211
 30
0.0
 40
8.71073457753819
  0
LINE
  5
64EE
330
2
100
AcDbEntity
  8
AM_VIS
100
AcDbLine
 10
308.295745430079
 20
513.5093486378211
 30
0.0
 11
282.6023692929971
 21
513.5093486378211
 31
0.0
  0
LINE
  5
64EF
330
2
100
AcDbEntity
  8
AM_VIS
100
AcDbLine
 10
308.295745430079
 20
536.5093486378212
 30
0.0
 11
291.295745430079
 21
536.5093486378212
 31
0.0
  0
LINE
  5
64F0
330
2
100
AcDbEntity
  8
AM_VIS
100
AcDbLine
 10
291.295745430079
 20
537.5093486378212
 30
0.0
 11
307.295745430079
 21
537.5093486378212
 31
0.0
  0
LINE
  5
64F1
330
2
100
AcDbEntity
  8
AM_VIS
100
AcDbLine
 10
265.989121567161
 20
513.5093486378211
 30
0.0
 11
240.295745430079
 21
513.5093486378211
 31
0.0
  0
LINE
  5
64F2
330
2
100
AcDbEntity
  8
AM_VIS
100
AcDbLine
 10
241.295745430079
 20
537.5093486378212
 30
0.0
 11
257.295745430079
 21
537.5093486378212
 31
0.0
  0
LINE
  5
64F3
330
2
100
AcDbEntity
  8
AM_VIS
100
AcDbLine
 10
257.295745430079
 20
536.5093486378212
 30
0.0
 11
240.295745430079
 21
536.5093486378212
 31
0.0
  0
LINE
  5
64F4
330
2
100
AcDbEntity
  8
AM_VIS
100
AcDbLine
 10
240.7365063607754
 20
516.4140483767243
 30
0.0
 11
240.7035585369345
 21
516.4140483767243
 31
0.0
  0
LINE
  5
64F5
330
2
100
AcDbEntity
  8
AM_VIS
100
AcDbLine
 10
240.295745430079
 20
515.568748115628
 30
0.0
 11
240.6678240069943
 21
515.568748115628
 31
0.0
  0
LINE
  5
64F6
330
2
100
AcDbEntity
  8
AM_VIS
100
AcDbLine
 10
240.2972821292099
 20
518.9316723976124
 30
0.0
 11
240.295745430079
 21
518.9316723976124
 31
0.0
  0
LINE
  5
64F7
330
2
100
AcDbEntity
  8
AM_VIS
100
AcDbLine
 10
244.7078701371213
 20
515.568748115628
 30
0.0
 11
245.595745430079
 21
515.568748115628
 31
0.0
  0
LINE
  5
64F8
330
2
100
AcDbEntity
  8
AM_VIS
100
AcDbLine
 10
243.6327255595515
 20
515.568748115628
 30
0.0
 11
244.3719669329723
 21
515.568748115628
 31
0.0
  0
LINE
  5
64F9
330
2
100
AcDbEntity
  8
AM_VIS
100
AcDbLine
 10
244.377801879544
 20
518.9316723976124
 30
0.0
 11
243.6327255595515
 21
518.9316723976124
 31
0.0
  0
LINE
  5
64FA
330
2
100
AcDbEntity
  8
AM_VIS
100
AcDbLine
 10
245.4583540639405
 20
518.9316723976124
 30
0.0
 11
244.6897123983153
 21
518.9316723976124
 31
0.0
  0
LINE
  5
64FB
330
2
100
AcDbEntity
  8
假想
100
AcDbLine
 10
176.9038891308851
 20
659.6650984379878
 30
0.0
 11
176.9427337186973
 21
660.7774618932451
 31
0.0
  0
LINE
  5
64FC
330
2
100
AcDbEntity
  8
假想
100
AcDbLine
 10
168.9815783065094
 20
659.6650984379878
 30
0.0
 11
168.9427337186973
 21
660.7774618932451
 31
0.0
  0
LINE
  5
64FD
330
2
100
AcDbEntity
  8
假想
100
AcDbLine
 10
170.9427337186973
 20
670.2774618932451
 30
0.0
 11
170.9427337186973
 21
663.5774618932453
 31
0.0
  0
LINE
  5
64FE
330
2
100
AcDbEntity
  8
假想
100
AcDbLine
 10
174.9427337186973
 20
670.2774618932451
 30
0.0
 11
174.9427337186973
 21
663.5774618932453
 31
0.0
  0
LINE
  5
64FF
330
2
100
AcDbEntity
  8
假想
100
AcDbLine
 10
175.0927337186974
 20
658.0433360386511
 30
0.0
 11
175.0833385194241
 21
658.0540979413715
 31
0.0
  0
ARC
  5
6500
330
2
100
AcDbEntity
  8
假想
100
AcDbCircle
 10
172.9427337186973
 20
664.1774618932451
 30
0.0
 40
6.486738394601746
100
AcDbArc
 50
250.7314010687937
 51
261.9764194946165
  0
LINE
  5
6501
330
2
100
AcDbEntity
  8
假想
100
AcDbLine
 10
170.8021289179708
 20
658.0540979413715
 30
0.0
 11
170.7927337186973
 21
658.0433360386507
 31
0.0
  0
LINE
  5
6502
330
2
100
AcDbEntity
  8
假想
100
AcDbLine
 10
172.5277337186951
 20
658.0540979413715
 30
0.0
 11
172.5277337186951
 21
657.7542240804275
 31
0.0
  0
LINE
  5
6503
330
2
100
AcDbEntity
  8
假想
100
AcDbLine
 10
173.3577337186952
 20
657.7542240804275
 30
0.0
 11
173.3577337186952
 21
658.0540979413711
 31
0.0
  0
ELLIPSE
  5
6504
330
2
100
AcDbEntity
  8
假想
100
AcDbEllipse
 10
172.9427337186973
 20
662.5895665107348
 30
0.0
 11
-6.034919222530363
 21
-0.0000000000000136
 31
0.0
210
0.0
220
0.0
230
1.0
 40
0.7533208489537077
 41
1.501975558902702
 42
1.639617094686416
  0
ARC
  5
6505
330
2
100
AcDbEntity
  8
假想
100
AcDbCircle
 10
172.9427337186973
 20
664.1774618932451
 30
0.0
 40
6.486738394601746
100
AcDbArc
 50
278.0235805052779
 51
289.2685989312063
  0
LINE
  5
6506
330
2
100
AcDbEntity
  8
假想
100
AcDbLine
 10
173.8481568242123
 20
657.7542240804284
 30
0.0
 11
173.3577337186978
 21
657.7542240804284
 31
0.0
  0
LINE
  5
6507
330
2
100
AcDbEntity
  8
假想
100
AcDbLine
 10
172.5277337186928
 20
657.7542240804284
 30
0.0
 11
172.0373106131803
 21
657.7542240804284
 31
0.0
  0
ARC
  5
6508
330
2
100
AcDbEntity
  8
假想
100
AcDbCircle
 10
175.6046810557602
 20
659.7104677837007
 30
0.0
 40
1.3
100
AcDbArc
 50
300.7913345539539
 51
357.9999999999964
  0
ARC
  5
6509
330
2
100
AcDbEntity
  8
假想
100
AcDbCircle
 10
170.2807863816342
 20
659.7104677837007
 30
0.0
 40
1.299999999999999
100
AcDbArc
 50
182.0000000000036
 51
239.2086654460337
  0
ARC
  5
650A
330
2
100
AcDbEntity
  8
假想
100
AcDbCircle
 10
172.9427337186973
 20
664.1774618932451
 30
0.0
 40
6.500000000000034
100
AcDbArc
 50
239.2086654460337
 51
250.6845286915579
  0
ARC
  5
650B
330
2
100
AcDbEntity
  8
假想
100
AcDbCircle
 10
172.9427337186973
 20
664.1774618932451
 30
0.0
 40
6.500000000000034
100
AcDbArc
 50
289.3154713084474
 51
300.7913345539663
  0
LINE
  5
650C
330
2
100
AcDbEntity
  8
假想
100
AcDbLine
 10
116.9038891308851
 20
659.6650984379878
 30
0.0
 11
116.9427337186971
 21
660.7774618932451
 31
0.0
  0
LINE
  5
650D
330
2
100
AcDbEntity
  8
假想
100
AcDbLine
 10
108.9815783065094
 20
659.6650984379878
 30
0.0
 11
108.9427337186973
 21
660.7774618932451
 31
0.0
  0
LINE
  5
650E
330
2
100
AcDbEntity
  8
假想
100
AcDbLine
 10
110.9427337186971
 20
670.2774618932456
 30
0.0
 11
110.9427337186973
 21
663.5774618932453
 31
0.0
  0
LINE
  5
650F
330
2
100
AcDbEntity
  8
假想
100
AcDbLine
 10
114.9427337186971
 20
670.2774618932451
 30
0.0
 11
114.9427337186973
 21
663.5774618932453
 31
0.0
  0
LINE
  5
6510
330
2
100
AcDbEntity
  8
假想
100
AcDbLine
 10
115.0927337186974
 20
658.0433360386511
 30
0.0
 11
115.0833385194241
 21
658.0540979413715
 31
0.0
  0
ARC
  5
6511
330
2
100
AcDbEntity
  8
假想
100
AcDbCircle
 10
112.9427337186973
 20
664.1774618932451
 30
0.0
 40
6.486738394601746
100
AcDbArc
 50
250.7314010687937
 51
261.9764194946165
  0
LINE
  5
6512
330
2
100
AcDbEntity
  8
假想
100
AcDbLine
 10
110.8021289179708
 20
658.0540979413711
 30
0.0
 11
110.7927337186972
 21
658.0433360386507
 31
0.0
  0
LINE
  5
6513
330
2
100
AcDbEntity
  8
假想
100
AcDbLine
 10
112.5277337186951
 20
658.0540979413715
 30
0.0
 11
112.5277337186951
 21
657.7542240804275
 31
0.0
  0
LINE
  5
6514
330
2
100
AcDbEntity
  8
假想
100
AcDbLine
 10
113.3577337186952
 20
657.7542240804275
 30
0.0
 11
113.3577337186952
 21
658.0540979413711
 31
0.0
  0
ELLIPSE
  5
6515
330
2
100
AcDbEntity
  8
假想
100
AcDbEllipse
 10
112.9427337186973
 20
662.5895665107348
 30
0.0
 11
-6.034919222530363
 21
-0.0000000000000136
 31
0.0
210
0.0
220
0.0
230
1.0
 40
0.7533208489537078
 41
1.501975558902702
 42
1.639617094686416
  0
ARC
  5
6516
330
2
100
AcDbEntity
  8
假想
100
AcDbCircle
 10
112.9427337186973
 20
664.1774618932451
 30
0.0
 40
6.486738394601746
100
AcDbArc
 50
278.0235805052779
 51
289.2685989312063
  0
LINE
  5
6517
330
2
100
AcDbEntity
  8
假想
100
AcDbLine
 10
113.8481568242123
 20
657.7542240804284
 30
0.0
 11
113.3577337186977
 21
657.7542240804284
 31
0.0
  0
LINE
  5
6518
330
2
100
AcDbEntity
  8
假想
100
AcDbLine
 10
112.5277337186928
 20
657.7542240804284
 30
0.0
 11
112.0373106131801
 21
657.7542240804284
 31
0.0
  0
ARC
  5
6519
330
2
100
AcDbEntity
  8
假想
100
AcDbCircle
 10
115.6046810557602
 20
659.7104677837007
 30
0.0
 40
1.3
100
AcDbArc
 50
300.7913345539539
 51
357.9999999999964
  0
ARC
  5
651A
330
2
100
AcDbEntity
  8
假想
100
AcDbCircle
 10
110.280786381634
 20
659.7104677837007
 30
0.0
 40
1.299999999999999
100
AcDbArc
 50
182.0000000000036
 51
239.2086654460337
  0
ARC
  5
651B
330
2
100
AcDbEntity
  8
假想
100
AcDbCircle
 10
112.9427337186973
 20
664.1774618932451
 30
0.0
 40
6.500000000000034
100
AcDbArc
 50
239.2086654460337
 51
250.6845286915579
  0
ARC
  5
651C
330
2
100
AcDbEntity
  8
假想
100
AcDbCircle
 10
112.9427337186973
 20
664.1774618932451
 30
0.0
 40
6.500000000000034
100
AcDbArc
 50
289.3154713084474
 51
300.7913345539663
  0
LINE
  5
651D
330
2
100
AcDbEntity
  8
假想
100
AcDbLine
 10
168.9427337186973
 20
661.277461893245
 30
0.0
 11
116.9427337186973
 21
661.277461893245
 31
0.0
  0
LINE
  5
651E
330
2
100
AcDbEntity
  8
假想
100
AcDbLine
 10
178.9427337186973
 20
660.7774618932451
 30
0.0
 11
178.9427337186973
 21
661.277461893245
 31
0.0
  0
LINE
  5
651F
330
2
100
AcDbEntity
  8
假想
100
AcDbLine
 10
176.9427337186973
 20
660.7774618932451
 30
0.0
 11
108.9427337186973
 21
660.7774618932451
 31
0.0
  0
LINE
  5
6520
330
2
100
AcDbEntity
  8
假想
100
AcDbLine
 10
106.9427337186973
 20
661.277461893245
 30
0.0
 11
106.9427337186973
 21
660.7774618932451
 31
0.0
  0
LINE
  5
6521
330
2
100
AcDbEntity
  8
假想
100
AcDbLine
 10
177.7427337186973
 20
661.277461893245
 30
0.0
 11
178.9427337186973
 21
661.277461893245
 31
0.0
  0
LINE
  5
6522
330
2
100
AcDbEntity
  8
假想
100
AcDbLine
 10
178.9427337186973
 20
660.7774618932451
 30
0.0
 11
176.9427337186973
 21
660.7774618932451
 31
0.0
  0
LINE
  5
6523
330
2
100
AcDbEntity
  8
假想
100
AcDbLine
 10
108.9427337186973
 20
660.7774618932451
 30
0.0
 11
106.9427337186973
 21
660.7774618932451
 31
0.0
  0
LINE
  5
6524
330
2
100
AcDbEntity
  8
假想
100
AcDbLine
 10
106.9427337186973
 20
661.277461893245
 30
0.0
 11
108.7427337186973
 21
661.277461893245
 31
0.0
  0
LINE
  5
6525
330
2
100
AcDbEntity
  8
假想
100
AcDbLine
 10
168.9427337186973
 20
661.277461893245
 30
0.0
 11
168.9427337186973
 21
663.5774618932453
 31
0.0
  0
LINE
  5
6526
330
2
100
AcDbEntity
  8
假想
100
AcDbLine
 10
177.7427337186973
 20
661.277461893245
 30
0.0
 11
168.9427337186973
 21
661.277461893245
 31
0.0
  0
LINE
  5
6527
330
2
100
AcDbEntity
  8
假想
100
AcDbLine
 10
110.7427337186973
 20
727.2774618932451
 30
0.0
 11
110.7427337186973
 21
724.9774618932454
 31
0.0
  0
LINE
  5
6528
330
2
100
AcDbEntity
  8
假想
100
AcDbLine
 10
175.7427337186973
 20
724.9774618932454
 30
0.0
 11
175.7427337186973
 21
727.2774618932451
 31
0.0
  0
LINE
  5
6529
102
{ACAD_REACTORS
330
6608
102
}
330
2
100
AcDbEntity
  8
假想
100
AcDbLine
 10
175.7427337186973
 20
727.2774618932451
 30
0.0
 11
177.7427337186973
 21
727.2774618932451
 31
0.0
  0
LINE
  5
652A
330
2
100
AcDbEntity
  8
假想
100
AcDbLine
 10
115.7427337186973
 20
727.2774618932451
 30
0.0
 11
170.7427337186973
 21
727.2774618932451
 31
0.0
  0
LINE
  5
652B
102
{ACAD_REACTORS
330
6605
102
}
330
2
100
AcDbEntity
  8
假想
100
AcDbLine
 10
180.7427337186973
 20
724.277461893245
 30
0.0
 11
180.7427337186973
 21
664.2774618932451
 31
0.0
  0
LINE
  5
652C
330
2
100
AcDbEntity
  8
假想
100
AcDbLine
 10
108.7427337186973
 20
727.2774618932451
 30
0.0
 11
110.7427337186973
 21
727.2774618932451
 31
0.0
  0
LINE
  5
652D
330
2
100
AcDbEntity
  8
假想
100
AcDbLine
 10
109.0427337186972
 20
663.5774618932453
 30
0.0
 11
116.9427337186973
 21
663.5774618932453
 31
0.0
  0
LINE
  5
652E
330
2
100
AcDbEntity
  8
假想
100
AcDbLine
 10
116.9427337186973
 20
663.5774618932453
 30
0.0
 11
116.9427337186973
 21
661.277461893245
 31
0.0
  0
LINE
  5
652F
330
2
100
AcDbEntity
  8
假想
100
AcDbLine
 10
116.9427337186973
 20
661.277461893245
 30
0.0
 11
108.7427337186973
 21
661.277461893245
 31
0.0
  0
LINE
  5
6530
102
{ACAD_REACTORS
330
6605
102
}
330
2
100
AcDbEntity
  8
假想
100
AcDbLine
 10
105.7427337186973
 20
664.2774618932451
 30
0.0
 11
105.7427337186973
 21
724.277461893245
 31
0.0
  0
LINE
  5
6531
330
2
100
AcDbEntity
  8
假想
100
AcDbLine
 10
110.7427337186973
 20
724.9774618932454
 30
0.0
 11
109.0427337186972
 21
724.9774618932454
 31
0.0
  0
LINE
  5
6532
330
2
100
AcDbEntity
  8
假想
100
AcDbLine
 10
170.7427337186973
 20
724.9774618932454
 30
0.0
 11
115.7427337186973
 21
724.9774618932454
 31
0.0
  0
LINE
  5
6533
330
2
100
AcDbEntity
  8
假想
100
AcDbLine
 10
177.4427337186973
 20
724.9774618932454
 30
0.0
 11
175.7427337186973
 21
724.9774618932454
 31
0.0
  0
LINE
  5
6534
330
2
100
AcDbEntity
  8
假想
100
AcDbLine
 10
178.4427337186973
 20
664.5774618932453
 30
0.0
 11
178.4427337186973
 21
723.9774618932454
 31
0.0
  0
LINE
  5
6535
330
2
100
AcDbEntity
  8
假想
100
AcDbLine
 10
168.9427337186973
 20
663.5774618932453
 30
0.0
 11
177.4427337186973
 21
663.5774618932453
 31
0.0
  0
LINE
  5
6536
330
2
100
AcDbEntity
  8
假想
100
AcDbLine
 10
108.0427337186972
 20
723.9774618932454
 30
0.0
 11
108.0427337186972
 21
664.5774618932453
 31
0.0
  0
LINE
  5
6537
330
2
100
AcDbEntity
  8
假想
100
AcDbLine
 10
109.0427337186972
 20
706.5774618932453
 30
0.0
 11
113.0427337186972
 21
706.5774618932453
 31
0.0
  0
LINE
  5
6538
330
2
100
AcDbEntity
  8
假想
100
AcDbLine
 10
174.0427337186972
 20
706.5774618932453
 30
0.0
 11
177.4427337186973
 21
706.5774618932453
 31
0.0
  0
LINE
  5
6539
330
2
100
AcDbEntity
  8
假想
100
AcDbLine
 10
170.7427337186973
 20
727.2774618932451
 30
0.0
 11
175.7427337186973
 21
727.2774618932451
 31
0.0
  0
LINE
  5
653A
330
2
100
AcDbEntity
  8
假想
100
AcDbLine
 10
110.7427337186973
 20
727.2774618932451
 30
0.0
 11
115.7427337186973
 21
727.2774618932451
 31
0.0
  0
ARC
  5
653B
330
2
100
AcDbEntity
  8
假想
100
AcDbCircle
 10
177.7427337186973
 20
724.277461893245
 30
0.0
 40
3.0
100
AcDbArc
 50
0.0
 51
90.0
  0
ARC
  5
653C
330
2
100
AcDbEntity
  8
假想
100
AcDbCircle
 10
177.7427337186973
 20
664.2774618932451
 30
0.0
 40
3.0
100
AcDbArc
 50
270.0
 51
0.0
  0
ARC
  5
653D
330
2
100
AcDbEntity
  8
假想
100
AcDbCircle
 10
108.7427337186973
 20
724.277461893245
 30
0.0
 40
3.0
100
AcDbArc
 50
90.0
 51
180.0
  0
ARC
  5
653E
330
2
100
AcDbEntity
  8
假想
100
AcDbCircle
 10
108.7427337186973
 20
664.2774618932451
 30
0.0
 40
3.0
100
AcDbArc
 50
180.0
 51
270.0
  0
ARC
  5
653F
330
2
100
AcDbEntity
  8
假想
100
AcDbCircle
 10
109.0427337186972
 20
664.5774618932453
 30
0.0
 40
0.9999999999999998
100
AcDbArc
 50
180.0
 51
270.0
  0
LINE
  5
6540
330
2
100
AcDbEntity
  8
假想
100
AcDbLine
 10
115.7427337186973
 20
724.9774618932454
 30
0.0
 11
110.7427337186973
 21
724.9774618932454
 31
0.0
  0
LINE
  5
6541
330
2
100
AcDbEntity
  8
假想
100
AcDbLine
 10
175.7427337186973
 20
724.9774618932454
 30
0.0
 11
170.7427337186973
 21
724.9774618932454
 31
0.0
  0
ARC
  5
6542
330
2
100
AcDbEntity
  8
假想
100
AcDbCircle
 10
109.0427337186972
 20
723.9774618932454
 30
0.0
 40
0.9999999999999998
100
AcDbArc
 50
90.0
 51
180.0
  0
ARC
  5
6543
330
2
100
AcDbEntity
  8
假想
100
AcDbCircle
 10
177.4427337186973
 20
723.9774618932454
 30
0.0
 40
0.9999999999999998
100
AcDbArc
 50
0.0
 51
90.0
  0
ARC
  5
6544
330
2
100
AcDbEntity
  8
假想
100
AcDbCircle
 10
177.4427337186973
 20
664.5774618932453
 30
0.0
 40
0.9999999999999998
100
AcDbArc
 50
270.0
 51
0.0
  0
ARC
  5
6545
330
2
100
AcDbEntity
  8
假想
100
AcDbCircle
 10
109.0427337186972
 20
707.5774618932452
 30
0.0
 40
0.9999999999999998
100
AcDbArc
 50
180.0
 51
270.0
  0
ARC
  5
6546
330
2
100
AcDbEntity
  8
假想
100
AcDbCircle
 10
113.0427337186972
 20
703.5774618932452
 30
0.0
 40
3.0
100
AcDbArc
 50
13.4933988215525
 51
90.0
  0
ARC
  5
6547
330
2
100
AcDbEntity
  8
AM_VIS
100
AcDbCircle
 10
177.7427337186973
 20
707.277461893245
 30
0.0
 40
3.0
100
AcDbArc
 50
270.0
 51
283.4933988215527
  0
ARC
  5
6548
330
2
100
AcDbEntity
  8
假想
100
AcDbCircle
 10
174.0427337186972
 20
703.5774618932452
 30
0.0
 40
3.0
100
AcDbArc
 50
90.0
 51
166.5066011784475
  0
ARC
  5
6549
330
2
100
AcDbEntity
  8
假想
100
AcDbCircle
 10
177.4427337186973
 20
707.5774618932452
 30
0.0
 40
1.0
100
AcDbArc
 50
270.0
 51
0.0
  0
LINE
  5
654A
330
2
100
AcDbEntity
  8
AM_7
100
AcDbLine
 10
167.7427337186973
 20
577.5093486378211
 30
0.0
 11
167.7427337186973
 21
577.5093486378211
 31
0.0
  0
LINE
  5
654B
330
2
100
AcDbEntity
  8
AM_7
100
AcDbLine
 10
167.7427337186973
 20
577.5093486378211
 30
0.0
 11
167.7427337186973
 21
577.5093486378211
 31
0.0
  0
LINE
  5
654C
330
2
100
AcDbEntity
  8
AM_7
100
AcDbLine
 10
161.9487337186974
 20
577.5093486378211
 30
0.0
 11
167.7427337186973
 21
577.5093486378211
 31
0.0
  0
LINE
  5
654D
330
2
100
AcDbEntity
  8
AM_7
100
AcDbLine
 10
167.7427337186973
 20
577.5093486378211
 30
0.0
 11
173.5367337186974
 21
577.5093486378211
 31
0.0
  0
LINE
  5
654E
330
2
100
AcDbEntity
  8
AM_7
100
AcDbLine
 10
157.7427337186973
 20
577.5093486378211
 30
0.0
 11
157.7427337186973
 21
577.5093486378211
 31
0.0
  0
LINE
  5
654F
330
2
100
AcDbEntity
  8
AM_7
100
AcDbLine
 10
157.7427337186973
 20
577.5093486378211
 30
0.0
 11
157.7427337186973
 21
577.5093486378211
 31
0.0
  0
LINE
  5
6550
330
2
100
AcDbEntity
  8
AM_7
100
AcDbLine
 10
151.9487337186974
 20
577.5093486378211
 30
0.0
 11
157.7427337186973
 21
577.5093486378211
 31
0.0
  0
LINE
  5
6551
330
2
100
AcDbEntity
  8
AM_7
100
AcDbLine
 10
157.7427337186973
 20
577.5093486378211
 30
0.0
 11
163.5367337186974
 21
577.5093486378211
 31
0.0
  0
LINE
  5
6552
330
2
100
AcDbEntity
  8
AM_7
100
AcDbLine
 10
162.7427337186973
 20
571.7153486378212
 30
0.0
 11
162.7427337186973
 21
577.5093486378211
 31
0.0
  0
LINE
  5
6553
330
2
100
AcDbEntity
  8
AM_7
100
AcDbLine
 10
162.7427337186973
 20
577.5093486378211
 30
0.0
 11
162.7427337186973
 21
583.303348637821
 31
0.0
  0
LINE
  5
6554
330
2
100
AcDbEntity
  8
AM_7
100
AcDbLine
 10
128.7427337186973
 20
577.5093486378211
 30
0.0
 11
128.7427337186973
 21
577.5093486378211
 31
0.0
  0
LINE
  5
6555
330
2
100
AcDbEntity
  8
AM_7
100
AcDbLine
 10
128.7427337186973
 20
577.5093486378211
 30
0.0
 11
128.7427337186973
 21
577.5093486378211
 31
0.0
  0
LINE
  5
6556
330
2
100
AcDbEntity
  8
AM_7
100
AcDbLine
 10
122.9487337186974
 20
577.5093486378211
 30
0.0
 11
128.7427337186973
 21
577.5093486378211
 31
0.0
  0
LINE
  5
6557
102
{ACAD_REACTORS
330
660B
102
}
330
2
100
AcDbEntity
  8
AM_7
100
AcDbLine
 10
128.7427337186973
 20
577.5093486378211
 30
0.0
 11
134.5367337186974
 21
577.5093486378211
 31
0.0
  0
LINE
  5
6558
330
2
100
AcDbEntity
  8
AM_7
100
AcDbLine
 10
118.7427337186973
 20
577.5093486378211
 30
0.0
 11
118.7427337186973
 21
577.5093486378211
 31
0.0
  0
LINE
  5
6559
330
2
100
AcDbEntity
  8
AM_7
100
AcDbLine
 10
118.7427337186973
 20
577.5093486378211
 30
0.0
 11
118.7427337186973
 21
577.5093486378211
 31
0.0
  0
LINE
  5
655A
102
{ACAD_REACTORS
330
660B
102
}
330
2
100
AcDbEntity
  8
AM_7
100
AcDbLine
 10
112.9487337186974
 20
577.5093486378211
 30
0.0
 11
118.7427337186973
 21
577.5093486378211
 31
0.0
  0
LINE
  5
655B
330
2
100
AcDbEntity
  8
AM_7
100
AcDbLine
 10
118.7427337186973
 20
577.5093486378211
 30
0.0
 11
124.5367337186974
 21
577.5093486378211
 31
0.0
  0
LINE
  5
655C
330
2
100
AcDbEntity
  8
AM_7
100
AcDbLine
 10
123.7427337186973
 20
571.7153486378212
 30
0.0
 11
123.7427337186973
 21
577.5093486378211
 31
0.0
  0
LINE
  5
655D
330
2
100
AcDbEntity
  8
AM_7
100
AcDbLine
 10
123.7427337186973
 20
577.5093486378211
 30
0.0
 11
123.7427337186973
 21
583.303348637821
 31
0.0
  0
LINE
  5
655E
330
2
100
AcDbEntity
  8
假想
100
AcDbLine
 10
172.9427337186973
 20
556.0943486378212
 30
0.0
 11
172.9427337186973
 21
556.5093486378211
 31
0.0
  0
LINE
  5
655F
330
2
100
AcDbEntity
  8
假想
100
AcDbLine
 10
172.9427337186973
 20
556.5093486378211
 30
0.0
 11
172.9427337186973
 21
556.9243486378211
 31
0.0
  0
LINE
  5
6560
330
2
100
AcDbEntity
  8
假想
100
AcDbLine
 10
172.9427337186973
 20
556.5093486378211
 30
0.0
 11
172.5277337186967
 21
556.0943486378203
 31
0.0
  0
LINE
  5
6561
330
2
100
AcDbEntity
  8
假想
100
AcDbLine
 10
173.3577337186968
 20
556.0943486378216
 30
0.0
 11
172.9427337186976
 21
556.5093486378211
 31
0.0
  0
LINE
  5
6562
330
2
100
AcDbEntity
  8
假想
100
AcDbLine
 10
172.5277337186953
 20
556.0943486378212
 30
0.0
 11
173.3577337186952
 21
556.0943486378212
 31
0.0
  0
LINE
  5
6563
330
2
100
AcDbEntity
  8
假想
100
AcDbLine
 10
173.3577337186952
 20
556.9243486378211
 30
0.0
 11
173.3577337186952
 21
556.0943486378212
 31
0.0
  0
LINE
  5
6564
330
2
100
AcDbEntity
  8
假想
100
AcDbLine
 10
172.5277337186953
 20
556.5093486378211
 30
0.0
 11
172.9427337186976
 21
556.5093486378211
 31
0.0
  0
LINE
  5
6565
330
2
100
AcDbEntity
  8
假想
100
AcDbLine
 10
172.5277337186969
 20
556.9243486378216
 30
0.0
 11
172.9427337186973
 21
556.5093486378211
 31
0.0
  0
LINE
  5
6566
330
2
100
AcDbEntity
  8
假想
100
AcDbLine
 10
173.3577337186952
 20
556.9243486378211
 30
0.0
 11
172.5277337186953
 21
556.9243486378211
 31
0.0
  0
LINE
  5
6567
330
2
100
AcDbEntity
  8
假想
100
AcDbLine
 10
172.9427337186976
 20
556.5093486378211
 30
0.0
 11
173.3577337186952
 21
556.5093486378211
 31
0.0
  0
LINE
  5
6568
330
2
100
AcDbEntity
  8
假想
100
AcDbLine
 10
172.9427337186976
 20
556.5093486378211
 30
0.0
 11
173.3577337186968
 21
556.9243486378202
 31
0.0
  0
LINE
  5
6569
330
2
100
AcDbEntity
  8
假想
100
AcDbLine
 10
172.5277337186953
 20
556.0943486378212
 30
0.0
 11
172.5277337186953
 21
556.9243486378211
 31
0.0
  0
LINE
  5
656A
330
2
100
AcDbEntity
  8
假想
100
AcDbLine
 10
172.0373106131708
 20
556.0943486378212
 30
0.0
 11
172.5277337186953
 21
556.0943486378212
 31
0.0
  0
LINE
  5
656B
330
2
100
AcDbEntity
  8
假想
100
AcDbLine
 10
172.5277337186953
 20
556.0943486378212
 30
0.0
 11
172.5277337186953
 21
555.6039255323137
 31
0.0
  0
LINE
  5
656C
330
2
100
AcDbEntity
  8
假想
100
AcDbLine
 10
173.3577337186952
 20
556.0943486378212
 30
0.0
 11
173.8481568242123
 21
556.0943486378212
 31
0.0
  0
LINE
  5
656D
330
2
100
AcDbEntity
  8
假想
100
AcDbLine
 10
173.3577337186952
 20
556.0943486378212
 30
0.0
 11
173.3577337186952
 21
555.6039255323114
 31
0.0
  0
LINE
  5
656E
330
2
100
AcDbEntity
  8
假想
100
AcDbLine
 10
173.3577337186952
 20
556.9243486378211
 30
0.0
 11
173.8481568242123
 21
556.9243486378211
 31
0.0
  0
LINE
  5
656F
330
2
100
AcDbEntity
  8
假想
100
AcDbLine
 10
173.3577337186952
 20
557.4147717433304
 30
0.0
 11
173.3577337186952
 21
556.9243486378211
 31
0.0
  0
LINE
  5
6570
330
2
100
AcDbEntity
  8
假想
100
AcDbLine
 10
172.037310613171
 20
556.9243486378211
 30
0.0
 11
172.5277337186953
 21
556.9243486378211
 31
0.0
  0
LINE
  5
6571
330
2
100
AcDbEntity
  8
假想
100
AcDbLine
 10
172.5277337186953
 20
557.4147717433286
 30
0.0
 11
172.5277337186953
 21
556.9243486378211
 31
0.0
  0
CIRCLE
  5
6572
330
2
100
AcDbEntity
  8
假想
100
AcDbCircle
 10
172.9427337186973
 20
556.5093486378211
 30
0.0
 40
3.999999999999971
  0
LINE
  5
6573
330
2
100
AcDbEntity
  8
假想
100
AcDbLine
 10
173.8481568242123
 20
556.0943486378212
 30
0.0
 11
175.0833385194241
 21
556.0943486378212
 31
0.0
  0
ELLIPSE
  5
6574
330
2
100
AcDbEntity
  8
假想
100
AcDbEllipse
 10
171.1238499313883
 20
556.5093486378211
 30
0.0
 11
-0.000000000000003
 21
6.034919222530423
 31
0.0
210
0.0
220
0.0
230
1.0
 40
0.657653174957492
 41
4.643568212492835
 42
4.781209748276545
  0
LINE
  5
6575
330
2
100
AcDbEntity
  8
假想
100
AcDbLine
 10
172.037310613171
 20
556.9243486378211
 30
0.0
 11
170.8021289179708
 21
556.9243486378211
 31
0.0
  0
ELLIPSE
  5
6576
330
2
100
AcDbEntity
  8
假想
100
AcDbEllipse
 10
174.7616175060063
 20
556.5093486378211
 30
0.0
 11
-0.0000000000000038
 21
6.034919222530409
 31
0.0
210
0.0
220
0.0
230
1.0
 40
0.6576531749574535
 41
1.501975558903041
 42
1.639617094686752
  0
LINE
  5
6577
330
2
100
AcDbEntity
  8
假想
100
AcDbLine
 10
172.5277337186953
 20
558.6499534385477
 30
0.0
 11
172.5277337186953
 21
557.4147717433286
 31
0.0
  0
ELLIPSE
  5
6578
330
2
100
AcDbEntity
  8
假想
100
AcDbEllipse
 10
172.9427337186973
 20
558.3282324251301
 30
0.0
 11
-6.034919222530364
 21
0.0
 31
0.0
210
0.0
220
0.0
230
1.0
 40
0.6576531749574891
 41
1.501975558902706
 42
1.63961709468642
  0
LINE
  5
6579
330
2
100
AcDbEntity
  8
假想
100
AcDbLine
 10
173.3577337186952
 20
557.4147717433304
 30
0.0
 11
173.3577337186952
 21
558.6499534385477
 31
0.0
  0
LINE
  5
657A
330
2
100
AcDbEntity
  8
假想
100
AcDbLine
 10
173.3577337186952
 20
554.3687438370941
 30
0.0
 11
173.3577337186952
 21
555.6039255323114
 31
0.0
  0
ELLIPSE
  5
657B
330
2
100
AcDbEntity
  8
假想
100
AcDbEllipse
 10
172.9427337186973
 20
554.6904648505122
 30
0.0
 11
-6.034919222530363
 21
0.0
 31
0.0
210
0.0
220
0.0
230
1.0
 40
0.6576531749574888
 41
4.643568212493169
 42
4.781209748276884
  0
LINE
  5
657C
330
2
100
AcDbEntity
  8
假想
100
AcDbLine
 10
172.5277337186953
 20
555.6039255323137
 30
0.0
 11
172.5277337186953
 21
554.3687438370946
 31
0.0
  0
LINE
  5
657D
330
2
100
AcDbEntity
  8
假想
100
AcDbLine
 10
175.0833385194241
 20
556.9243486378211
 30
0.0
 11
173.8481568242123
 21
556.9243486378211
 31
0.0
  0
LINE
  5
657E
330
2
100
AcDbEntity
  8
假想
100
AcDbLine
 10
170.8021289179708
 20
556.0943486378212
 30
0.0
 11
172.037310613171
 21
556.0943486378212
 31
0.0
  0
ARC
  5
657F
330
2
100
AcDbEntity
  8
假想
100
AcDbCircle
 10
172.9427337186973
 20
556.5093486378211
 30
0.0
 40
0.9960000000002651
100
AcDbArc
 50
204.6243183518824
 51
245.3756816475595
  0
ARC
  5
6580
330
2
100
AcDbEntity
  8
假想
100
AcDbCircle
 10
172.9427337186973
 20
556.5093486378211
 30
0.0
 40
0.9960000000002651
100
AcDbArc
 50
294.6243183521833
 51
335.3756816478455
  0
ARC
  5
6581
330
2
100
AcDbEntity
  8
假想
100
AcDbCircle
 10
172.9427337186973
 20
556.5093486378211
 30
0.0
 40
0.9960000000002651
100
AcDbArc
 50
24.62431835215451
 51
65.37568164781672
  0
ARC
  5
6582
330
2
100
AcDbEntity
  8
假想
100
AcDbCircle
 10
172.9427337186973
 20
556.5093486378211
 30
0.0
 40
0.9960000000002651
100
AcDbArc
 50
114.6243183524405
 51
155.3756816481176
  0
LINE
  5
6583
330
2
100
AcDbEntity
  8
假想
100
AcDbLine
 10
112.9427337186973
 20
556.0943486378212
 30
0.0
 11
112.9427337186973
 21
556.5093486378211
 31
0.0
  0
LINE
  5
6584
330
2
100
AcDbEntity
  8
假想
100
AcDbLine
 10
112.9427337186973
 20
556.5093486378211
 30
0.0
 11
112.9427337186973
 21
556.9243486378211
 31
0.0
  0
LINE
  5
6585
330
2
100
AcDbEntity
  8
假想
100
AcDbLine
 10
112.9427337186973
 20
556.5093486378211
 30
0.0
 11
112.5277337186967
 21
556.0943486378203
 31
0.0
  0
LINE
  5
6586
330
2
100
AcDbEntity
  8
假想
100
AcDbLine
 10
113.3577337186968
 20
556.0943486378216
 30
0.0
 11
112.9427337186976
 21
556.5093486378211
 31
0.0
  0
LINE
  5
6587
330
2
100
AcDbEntity
  8
假想
100
AcDbLine
 10
112.5277337186953
 20
556.0943486378212
 30
0.0
 11
113.3577337186952
 21
556.0943486378212
 31
0.0
  0
LINE
  5
6588
330
2
100
AcDbEntity
  8
假想
100
AcDbLine
 10
113.3577337186952
 20
556.9243486378211
 30
0.0
 11
113.3577337186952
 21
556.0943486378212
 31
0.0
  0
LINE
  5
6589
330
2
100
AcDbEntity
  8
假想
100
AcDbLine
 10
112.5277337186953
 20
556.5093486378211
 30
0.0
 11
112.9427337186973
 21
556.5093486378211
 31
0.0
  0
LINE
  5
658A
330
2
100
AcDbEntity
  8
假想
100
AcDbLine
 10
112.5277337186967
 20
556.9243486378216
 30
0.0
 11
112.9427337186973
 21
556.5093486378211
 31
0.0
  0
LINE
  5
658B
330
2
100
AcDbEntity
  8
假想
100
AcDbLine
 10
113.3577337186952
 20
556.9243486378211
 30
0.0
 11
112.5277337186953
 21
556.9243486378211
 31
0.0
  0
LINE
  5
658C
330
2
100
AcDbEntity
  8
假想
100
AcDbLine
 10
112.9427337186973
 20
556.5093486378211
 30
0.0
 11
113.3577337186952
 21
556.5093486378211
 31
0.0
  0
LINE
  5
658D
330
2
100
AcDbEntity
  8
假想
100
AcDbLine
 10
112.9427337186976
 20
556.5093486378211
 30
0.0
 11
113.3577337186968
 21
556.9243486378207
 31
0.0
  0
LINE
  5
658E
330
2
100
AcDbEntity
  8
假想
100
AcDbLine
 10
112.5277337186953
 20
556.0943486378212
 30
0.0
 11
112.5277337186953
 21
556.9243486378211
 31
0.0
  0
LINE
  5
658F
330
2
100
AcDbEntity
  8
假想
100
AcDbLine
 10
112.0373106131708
 20
556.0943486378212
 30
0.0
 11
112.5277337186953
 21
556.0943486378212
 31
0.0
  0
LINE
  5
6590
330
2
100
AcDbEntity
  8
假想
100
AcDbLine
 10
112.5277337186951
 20
556.0943486378212
 30
0.0
 11
112.5277337186951
 21
555.6039255323137
 31
0.0
  0
LINE
  5
6591
330
2
100
AcDbEntity
  8
假想
100
AcDbLine
 10
113.3577337186952
 20
556.0943486378212
 30
0.0
 11
113.8481568242123
 21
556.0943486378212
 31
0.0
  0
LINE
  5
6592
330
2
100
AcDbEntity
  8
假想
100
AcDbLine
 10
113.3577337186952
 20
556.0943486378212
 30
0.0
 11
113.3577337186952
 21
555.6039255323119
 31
0.0
  0
LINE
  5
6593
330
2
100
AcDbEntity
  8
假想
100
AcDbLine
 10
113.3577337186952
 20
556.9243486378211
 30
0.0
 11
113.8481568242123
 21
556.9243486378211
 31
0.0
  0
LINE
  5
6594
330
2
100
AcDbEntity
  8
假想
100
AcDbLine
 10
113.3577337186952
 20
557.4147717433304
 30
0.0
 11
113.3577337186952
 21
556.9243486378211
 31
0.0
  0
LINE
  5
6595
330
2
100
AcDbEntity
  8
假想
100
AcDbLine
 10
112.037310613171
 20
556.9243486378211
 30
0.0
 11
112.5277337186953
 21
556.9243486378211
 31
0.0
  0
LINE
  5
6596
330
2
100
AcDbEntity
  8
假想
100
AcDbLine
 10
112.5277337186953
 20
557.4147717433286
 30
0.0
 11
112.5277337186953
 21
556.9243486378211
 31
0.0
  0
CIRCLE
  5
6597
330
2
100
AcDbEntity
  8
假想
100
AcDbCircle
 10
112.9427337186973
 20
556.5093486378211
 30
0.0
 40
3.999999999999971
  0
LINE
  5
6598
330
2
100
AcDbEntity
  8
假想
100
AcDbLine
 10
113.8481568242123
 20
556.0943486378212
 30
0.0
 11
115.0833385194241
 21
556.0943486378212
 31
0.0
  0
ELLIPSE
  5
6599
330
2
100
AcDbEntity
  8
假想
100
AcDbEllipse
 10
111.1238499313883
 20
556.5093486378211
 30
0.0
 11
-0.0000000000000038
 21
6.034919222530423
 31
0.0
210
0.0
220
0.0
230
1.0
 40
0.657653174957492
 41
4.643568212492835
 42
4.781209748276545
  0
LINE
  5
659A
330
2
100
AcDbEntity
  8
假想
100
AcDbLine
 10
112.0373106131708
 20
556.9243486378211
 30
0.0
 11
110.8021289179708
 21
556.9243486378211
 31
0.0
  0
ELLIPSE
  5
659B
330
2
100
AcDbEntity
  8
假想
100
AcDbEllipse
 10
114.7616175060063
 20
556.5093486378211
 30
0.0
 11
-0.000000000000003
 21
6.034919222530409
 31
0.0
210
0.0
220
0.0
230
1.0
 40
0.6576531749574535
 41
1.501975558903041
 42
1.639617094686752
  0
LINE
  5
659C
330
2
100
AcDbEntity
  8
假想
100
AcDbLine
 10
112.5277337186953
 20
558.6499534385477
 30
0.0
 11
112.5277337186953
 21
557.4147717433286
 31
0.0
  0
ELLIPSE
  5
659D
330
2
100
AcDbEntity
  8
假想
100
AcDbEllipse
 10
112.9427337186973
 20
558.3282324251301
 30
0.0
 11
-6.034919222530364
 21
0.0
 31
0.0
210
0.0
220
0.0
230
1.0
 40
0.6576531749574892
 41
1.501975558902706
 42
1.63961709468642
  0
LINE
  5
659E
330
2
100
AcDbEntity
  8
假想
100
AcDbLine
 10
113.3577337186952
 20
557.4147717433304
 30
0.0
 11
113.3577337186952
 21
558.6499534385477
 31
0.0
  0
LINE
  5
659F
330
2
100
AcDbEntity
  8
假想
100
AcDbLine
 10
113.3577337186952
 20
554.3687438370941
 30
0.0
 11
113.3577337186952
 21
555.6039255323114
 31
0.0
  0
ELLIPSE
  5
65A0
330
2
100
AcDbEntity
  8
假想
100
AcDbEllipse
 10
112.9427337186973
 20
554.6904648505122
 30
0.0
 11
-6.034919222530363
 21
0.0
 31
0.0
210
0.0
220
0.0
230
1.0
 40
0.6576531749574885
 41
4.64356821249317
 42
4.781209748276884
  0
LINE
  5
65A1
330
2
100
AcDbEntity
  8
假想
100
AcDbLine
 10
112.5277337186953
 20
555.6039255323137
 30
0.0
 11
112.5277337186953
 21
554.3687438370946
 31
0.0
  0
LINE
  5
65A2
330
2
100
AcDbEntity
  8
假想
100
AcDbLine
 10
115.0833385194241
 20
556.9243486378211
 30
0.0
 11
113.8481568242123
 21
556.9243486378211
 31
0.0
  0
LINE
  5
65A3
330
2
100
AcDbEntity
  8
假想
100
AcDbLine
 10
110.8021289179708
 20
556.0943486378212
 30
0.0
 11
112.0373106131708
 21
556.0943486378212
 31
0.0
  0
ARC
  5
65A4
330
2
100
AcDbEntity
  8
假想
100
AcDbCircle
 10
112.9427337186973
 20
556.5093486378211
 30
0.0
 40
0.9960000000002651
100
AcDbArc
 50
204.6243183518824
 51
245.3756816475595
  0
ARC
  5
65A5
330
2
100
AcDbEntity
  8
假想
100
AcDbCircle
 10
112.9427337186973
 20
556.5093486378211
 30
0.0
 40
0.9960000000002651
100
AcDbArc
 50
294.6243183521833
 51
335.3756816478455
  0
ARC
  5
65A6
330
2
100
AcDbEntity
  8
假想
100
AcDbCircle
 10
112.9427337186973
 20
556.5093486378211
 30
0.0
 40
0.9960000000002651
100
AcDbArc
 50
24.62431835215451
 51
65.37568164781672
  0
ARC
  5
65A7
330
2
100
AcDbEntity
  8
假想
100
AcDbCircle
 10
112.9427337186973
 20
556.5093486378211
 30
0.0
 40
0.9960000000002651
100
AcDbArc
 50
114.6243183524405
 51
155.3756816481176
  0
LINE
  5
65A8
330
2
100
AcDbEntity
  8
假想
100
AcDbLine
 10
176.9427337186973
 20
564.5093486378211
 30
0.0
 11
108.9427337186973
 21
564.5093486378211
 31
0.0
  0
LINE
  5
65A9
330
2
100
AcDbEntity
  8
假想
100
AcDbLine
 10
178.9427337186973
 20
550.5093486378211
 30
0.0
 11
178.9427337186973
 21
562.5093486378212
 31
0.0
  0
LINE
  5
65AA
330
2
100
AcDbEntity
  8
假想
100
AcDbLine
 10
108.9427337186973
 20
548.5093486378211
 30
0.0
 11
176.9427337186973
 21
548.5093486378211
 31
0.0
  0
LINE
  5
65AB
330
2
100
AcDbEntity
  8
假想
100
AcDbLine
 10
106.9427337186973
 20
562.5093486378212
 30
0.0
 11
106.9427337186973
 21
550.5093486378211
 31
0.0
  0
ARC
  5
65AC
330
2
100
AcDbEntity
  8
假想
100
AcDbCircle
 10
176.9427337186973
 20
562.5093486378212
 30
0.0
 40
1.999999999999999
100
AcDbArc
 50
0.0
 51
90.0
  0
ARC
  5
65AD
330
2
100
AcDbEntity
  8
假想
100
AcDbCircle
 10
176.9427337186973
 20
550.5093486378211
 30
0.0
 40
1.999999999999999
100
AcDbArc
 50
270.0
 51
0.0
  0
ARC
  5
65AE
330
2
100
AcDbEntity
  8
假想
100
AcDbCircle
 10
108.9427337186973
 20
550.5093486378211
 30
0.0
 40
1.999999999999999
100
AcDbArc
 50
180.0
 51
270.0
  0
ARC
  5
65AF
330
2
100
AcDbEntity
  8
假想
100
AcDbCircle
 10
108.9427337186973
 20
562.5093486378212
 30
0.0
 40
1.999999999999999
100
AcDbArc
 50
90.0
 51
180.0
  0
LINE
  5
65B0
330
2
100
AcDbEntity
  8
假想
100
AcDbLine
 10
168.9427337186973
 20
530.5093486378211
 30
0.0
 11
168.9427337186973
 21
548.5093486378211
 31
0.0
  0
LINE
  5
65B1
330
2
100
AcDbEntity
  8
假想
100
AcDbLine
 10
168.9427337186973
 20
564.5093486378211
 30
0.0
 11
168.9427337186973
 21
566.5093486378212
 31
0.0
  0
LINE
  5
65B2
330
2
100
AcDbEntity
  8
假想
100
AcDbLine
 10
177.7427337186973
 20
566.5093486378212
 30
0.0
 11
168.9427337186973
 21
566.5093486378212
 31
0.0
  0
LINE
  5
65B3
330
2
100
AcDbEntity
  8
假想
100
AcDbLine
 10
116.9427337186973
 20
530.5093486378211
 30
0.0
 11
116.9427337186973
 21
548.5093486378211
 31
0.0
  0
LINE
  5
65B4
330
2
100
AcDbEntity
  8
假想
100
AcDbLine
 10
116.9427337186973
 20
564.5093486378211
 30
0.0
 11
116.9427337186973
 21
566.5093486378212
 31
0.0
  0
LINE
  5
65B5
330
2
100
AcDbEntity
  8
假想
100
AcDbLine
 10
116.9427337186973
 20
530.5093486378211
 30
0.0
 11
108.7427337186973
 21
530.5093486378211
 31
0.0
  0
LINE
  5
65B6
330
2
100
AcDbEntity
  8
假想
100
AcDbLine
 10
177.7427337186973
 20
530.5093486378211
 30
0.0
 11
168.9427337186973
 21
530.5093486378211
 31
0.0
  0
LINE
  5
65B7
330
2
100
AcDbEntity
  8
假想
100
AcDbLine
 10
180.7427337186973
 20
530.5093486378211
 30
0.0
 11
180.7427337186973
 21
566.5093486378212
 31
0.0
  0
LINE
  5
65B8
330
2
100
AcDbEntity
  8
假想
100
AcDbLine
 10
116.9427337186973
 20
566.5093486378212
 30
0.0
 11
108.7427337186973
 21
566.5093486378212
 31
0.0
  0
LINE
  5
65B9
330
2
100
AcDbEntity
  8
假想
100
AcDbLine
 10
105.7427337186973
 20
566.5093486378212
 30
0.0
 11
105.7427337186973
 21
530.5093486378211
 31
0.0
  0
LINE
  5
65BA
330
2
100
AcDbEntity
  8
假想
100
AcDbLine
 10
157.7427337186973
 20
580.5093486378211
 30
0.0
 11
167.7427337186973
 21
580.5093486378211
 31
0.0
  0
LINE
  5
65BB
330
2
100
AcDbEntity
  8
假想
100
AcDbLine
 10
167.7427337186973
 20
574.5093486378212
 30
0.0
 11
157.7427337186973
 21
574.5093486378212
 31
0.0
  0
LINE
  5
65BC
102
{ACAD_REACTORS
330
660E
102
}
330
2
100
AcDbEntity
  8
假想
100
AcDbLine
 10
118.7427337186973
 20
580.5093486378211
 30
0.0
 11
128.7427337186973
 21
580.5093486378211
 31
0.0
  0
LINE
  5
65BD
330
2
100
AcDbEntity
  8
假想
100
AcDbLine
 10
128.7427337186973
 20
574.5093486378212
 30
0.0
 11
118.7427337186973
 21
574.5093486378212
 31
0.0
  0
LINE
  5
65BE
330
2
100
AcDbEntity
  8
假想
100
AcDbLine
 10
110.7427337186973
 20
566.5093486378212
 30
0.0
 11
110.7427337186973
 21
580.5093486378211
 31
0.0
  0
LINE
  5
65BF
330
2
100
AcDbEntity
  8
假想
100
AcDbLine
 10
170.7427337186973
 20
585.5093486378211
 30
0.0
 11
115.7427337186973
 21
585.5093486378211
 31
0.0
  0
LINE
  5
65C0
330
2
100
AcDbEntity
  8
假想
100
AcDbLine
 10
175.7427337186973
 20
566.5093486378212
 30
0.0
 11
175.7427337186973
 21
580.5093486378211
 31
0.0
  0
LINE
  5
65C1
330
2
100
AcDbEntity
  8
假想
100
AcDbLine
 10
180.7427337186973
 20
530.5093486378211
 30
0.0
 11
177.7427337186973
 21
530.5093486378211
 31
0.0
  0
LINE
  5
65C2
330
2
100
AcDbEntity
  8
假想
100
AcDbLine
 10
177.7427337186973
 20
566.5093486378212
 30
0.0
 11
180.7427337186973
 21
566.5093486378212
 31
0.0
  0
LINE
  5
65C3
330
2
100
AcDbEntity
  8
假想
100
AcDbLine
 10
108.7427337186973
 20
530.5093486378211
 30
0.0
 11
105.7427337186973
 21
530.5093486378211
 31
0.0
  0
LINE
  5
65C4
330
2
100
AcDbEntity
  8
假想
100
AcDbLine
 10
105.7427337186973
 20
566.5093486378212
 30
0.0
 11
108.7427337186973
 21
566.5093486378212
 31
0.0
  0
ARC
  5
65C5
330
2
100
AcDbEntity
  8
假想
100
AcDbCircle
 10
167.7427337186973
 20
577.5093486378211
 30
0.0
 40
2.999999999999992
100
AcDbArc
 50
270.0
 51
90.0
  0
ARC
  5
65C6
330
2
100
AcDbEntity
  8
假想
100
AcDbCircle
 10
157.7427337186973
 20
577.5093486378211
 30
0.0
 40
3.0
100
AcDbArc
 50
90.0
 51
270.0
  0
ARC
  5
65C7
102
{ACAD_REACTORS
330
660B
102
}
330
2
100
AcDbEntity
  8
假想
100
AcDbCircle
 10
128.7427337186973
 20
577.5093486378211
 30
0.0
 40
3.0
100
AcDbArc
 50
270.0
 51
90.0
  0
ARC
  5
65C8
102
{ACAD_REACTORS
330
660B
330
660E
102
}
330
2
100
AcDbEntity
  8
假想
100
AcDbCircle
 10
118.7427337186973
 20
577.5093486378211
 30
0.0
 40
3.0
100
AcDbArc
 50
90.0
 51
270.0
  0
ARC
  5
65C9
330
2
100
AcDbEntity
  8
假想
100
AcDbCircle
 10
115.7427337186973
 20
580.5093486378211
 30
0.0
 40
5.0
100
AcDbArc
 50
90.0
 51
180.0
  0
ARC
  5
65CA
330
2
100
AcDbEntity
  8
假想
100
AcDbCircle
 10
170.7427337186973
 20
580.5093486378211
 30
0.0
 40
5.0
100
AcDbArc
 50
0.0
 51
90.0
  0
DIMENSION
  5
65CB
330
2
100
AcDbEntity
  8
AM_REFDIM
100
AcDbDimension
  2
*D27
 10
314.2957454300788
 20
615.303348637821
 30
0.0
 11
294.2957454300788
 21
619.4283486378211
 31
0.0
 70
    32
 71
     5
 42
40.0
  3
AM_ISO$0
100
AcDbAlignedDimension
 13
274.2957454300788
 23
565.303348637821
 33
0.0
 14
314.2957454300788
 24
585.5093486378211
 34
0.0
100
AcDbRotatedDimension
1001
ACAD
1000
DSTYLE
1002
{
1070
    40
1040
1.5
1002
}
  0
LINE
  5
65CC
330
2
100
AcDbEntity
  8
假想
100
AcDbLine
 10
291.2957454300788
 20
534.5093486378211
 30
0.0
 11
291.2957454300788
 21
562.5093486378212
 31
0.0
  0
LINE
  5
65CD
330
2
100
AcDbEntity
  8
假想
100
AcDbLine
 10
297.245235172862
 20
536.5093486378212
 30
0.0
 11
291.2957454300788
 21
536.5093486378212
 31
0.0
  0
LINE
  5
65CE
330
2
100
AcDbEntity
  8
假想
100
AcDbLine
 10
291.2957454300788
 20
537.5093486378212
 30
0.0
 11
297.245235172862
 21
537.5093486378212
 31
0.0
  0
LINE
  5
65CF
330
2
100
AcDbEntity
  8
假想
100
AcDbLine
 10
246.6833819748213
 20
552.5481932256332
 30
0.0
 11
247.7957454300788
 21
552.5093486378211
 31
0.0
  0
LINE
  5
65D0
330
2
100
AcDbEntity
  8
假想
100
AcDbLine
 10
246.6833819748213
 20
560.4705040500091
 30
0.0
 11
247.7957454300788
 21
560.5093486378211
 31
0.0
  0
LINE
  5
65D1
330
2
100
AcDbEntity
  8
假想
100
AcDbLine
 10
244.7725076172619
 20
556.0943486378212
 30
0.0
 11
245.0723814782052
 21
556.0943486378212
 31
0.0
  0
ELLIPSE
  5
65D2
330
2
100
AcDbEntity
  8
假想
100
AcDbEllipse
 10
249.6078500475682
 20
556.5093486378211
 30
0.0
 11
-0.0000000000000027
 21
6.034919222530423
 31
0.0
210
0.0
220
0.0
230
1.0
 40
0.7533208489537047
 41
1.50197555890304
 42
1.639617094686751
  0
LINE
  5
65D3
330
2
100
AcDbEntity
  8
假想
100
AcDbLine
 10
245.0616195754847
 20
554.3593486378211
 30
0.0
 11
245.072381478205
 21
554.3687438370941
 31
0.0
  0
ARC
  5
65D4
330
2
100
AcDbEntity
  8
假想
100
AcDbCircle
 10
251.1957454300786
 20
556.5093486378211
 30
0.0
 40
6.486738394601876
100
AcDbArc
 50
160.7314010687872
 51
171.9764194947737
  0
ARC
  5
65D5
330
2
100
AcDbEntity
  8
假想
100
AcDbCircle
 10
251.1957454300786
 20
556.5093486378211
 30
0.0
 40
6.486738394601876
100
AcDbArc
 50
188.0235805052262
 51
199.2685989312127
  0
LINE
  5
65D6
330
2
100
AcDbEntity
  8
假想
100
AcDbLine
 10
245.072381478205
 20
558.6499534385477
 30
0.0
 11
245.0616195754847
 21
558.6593486378212
 31
0.0
  0
LINE
  5
65D7
330
2
100
AcDbEntity
  8
假想
100
AcDbLine
 10
245.0723814782052
 20
556.9243486378211
 30
0.0
 11
244.7725076172619
 21
556.9243486378211
 31
0.0
  0
LINE
  5
65D8
330
2
100
AcDbEntity
  8
假想
100
AcDbLine
 10
244.7725076172619
 20
555.6039255323064
 30
0.0
 11
244.7725076172619
 21
556.0943486378212
 31
0.0
  0
LINE
  5
65D9
330
2
100
AcDbEntity
  8
假想
100
AcDbLine
 10
244.7725076172619
 20
556.9243486378211
 30
0.0
 11
244.7725076172619
 21
557.4147717433358
 31
0.0
  0
ARC
  5
65DA
330
2
100
AcDbEntity
  8
假想
100
AcDbCircle
 10
246.7287513205345
 20
553.8474013007583
 30
0.0
 40
1.3
100
AcDbArc
 50
210.7913345539557
 51
268.0000000000029
  0
ARC
  5
65DB
330
2
100
AcDbEntity
  8
假想
100
AcDbCircle
 10
246.7287513205345
 20
559.171295974884
 30
0.0
 40
1.3
100
AcDbArc
 50
91.99999999999709
 51
149.2086654460443
  0
ARC
  5
65DC
330
2
100
AcDbEntity
  8
假想
100
AcDbCircle
 10
251.1957454300786
 20
556.5093486378211
 30
0.0
 40
6.500000000000034
100
AcDbArc
 50
149.2086654460443
 51
160.6845286915582
  0
ARC
  5
65DD
330
2
100
AcDbEntity
  8
假想
100
AcDbCircle
 10
251.1957454300786
 20
556.5093486378211
 30
0.0
 40
6.500000000000034
100
AcDbArc
 50
199.3154713084417
 51
210.7913345539557
  0
LINE
  5
65DE
330
2
100
AcDbEntity
  8
假想
100
AcDbLine
 10
247.7957454300788
 20
548.5093486378211
 30
0.0
 11
248.2957454300788
 21
548.5093486378211
 31
0.0
  0
LINE
  5
65DF
330
2
100
AcDbEntity
  8
假想
100
AcDbLine
 10
248.2957454300788
 20
550.5093486378211
 30
0.0
 11
248.2957454300788
 21
562.5093486378212
 31
0.0
  0
LINE
  5
65E0
330
2
100
AcDbEntity
  8
假想
100
AcDbLine
 10
248.2957454300788
 20
564.5093486378211
 30
0.0
 11
247.7957454300788
 21
564.5093486378211
 31
0.0
  0
LINE
  5
65E1
330
2
100
AcDbEntity
  8
假想
100
AcDbLine
 10
247.7957454300788
 20
550.5093486378211
 30
0.0
 11
247.7957454300788
 21
562.5093486378212
 31
0.0
  0
LINE
  5
65E2
330
2
100
AcDbEntity
  8
假想
100
AcDbLine
 10
248.2957454300788
 20
550.5093486378211
 30
0.0
 11
248.2957454300788
 21
548.6763183598388
 31
0.0
  0
LINE
  5
65E3
330
2
100
AcDbEntity
  8
假想
100
AcDbLine
 10
248.2957454300788
 20
564.3423789158034
 30
0.0
 11
248.2957454300788
 21
562.5093486378212
 31
0.0
  0
LINE
  5
65E4
330
2
100
AcDbEntity
  8
假想
100
AcDbLine
 10
247.7957454300788
 20
562.5093486378212
 30
0.0
 11
247.7957454300788
 21
564.5093486378211
 31
0.0
  0
LINE
  5
65E5
330
2
100
AcDbEntity
  8
假想
100
AcDbLine
 10
247.7957454300788
 20
548.5093486378211
 30
0.0
 11
247.7957454300788
 21
550.5093486378211
 31
0.0
  0
LINE
  5
65E6
330
2
100
AcDbEntity
  8
假想
100
AcDbLine
 10
314.2957454300788
 20
585.5093486378211
 30
0.0
 11
311.9957454300788
 21
585.5093486378211
 31
0.0
  0
LINE
  5
65E7
330
2
100
AcDbEntity
  8
假想
100
AcDbLine
 10
314.2957454300788
 20
566.5093486378212
 30
0.0
 11
314.2957454300788
 21
580.5093486378211
 31
0.0
  0
LINE
  5
65E8
330
2
100
AcDbEntity
  8
假想
100
AcDbLine
 10
314.2957454300788
 20
530.5093486378211
 30
0.0
 11
314.2957454300788
 21
566.5093486378212
 31
0.0
  0
LINE
  5
65E9
330
2
100
AcDbEntity
  8
假想
100
AcDbLine
 10
311.2957454300788
 20
566.5093486378212
 30
0.0
 11
251.2957454300788
 21
566.5093486378212
 31
0.0
  0
LINE
  5
65EA
330
2
100
AcDbEntity
  8
假想
100
AcDbLine
 10
311.2957454300788
 20
530.5093486378211
 30
0.0
 11
248.2957454300788
 21
530.5093486378211
 31
0.0
  0
LINE
  5
65EB
330
2
100
AcDbEntity
  8
假想
100
AcDbLine
 10
294.7957454300788
 20
534.5093486378211
 30
0.0
 11
274.2957454300788
 21
534.5093486378211
 31
0.0
  0
LINE
  5
65EC
330
2
100
AcDbEntity
  8
假想
100
AcDbLine
 10
248.2957454300788
 20
566.5093486378212
 30
0.0
 11
248.2957454300788
 21
564.3423789158034
 31
0.0
  0
LINE
  5
65ED
330
2
100
AcDbEntity
  8
假想
100
AcDbLine
 10
248.2957454300788
 20
548.6763183598388
 30
0.0
 11
248.2957454300788
 21
530.5093486378211
 31
0.0
  0
LINE
  5
65EE
330
2
100
AcDbEntity
  8
假想
100
AcDbLine
 10
311.9957454300788
 20
566.5093486378212
 30
0.0
 11
311.9957454300788
 21
580.5093486378211
 31
0.0
  0
LINE
  5
65EF
330
2
100
AcDbEntity
  8
假想
100
AcDbLine
 10
274.2957454300788
 20
562.5093486378212
 30
0.0
 11
295.2957454300788
 21
562.5093486378212
 31
0.0
  0
LINE
  5
65F0
330
2
100
AcDbEntity
  8
假想
100
AcDbLine
 10
295.2957454300788
 20
558.5093486378212
 30
0.0
 11
294.2957454300788
 21
558.5093486378212
 31
0.0
  0
LINE
  5
65F1
330
2
100
AcDbEntity
  8
假想
100
AcDbLine
 10
294.7957454300788
 20
539.5093486378211
 30
0.0
 11
294.2957454300788
 21
539.5093486378211
 31
0.0
  0
LINE
  5
65F2
330
2
100
AcDbEntity
  8
假想
100
AcDbLine
 10
314.2957454300788
 20
585.5093486378211
 30
0.0
 11
314.2957454300788
 21
580.5093486378211
 31
0.0
  0
LINE
  5
65F3
330
2
100
AcDbEntity
  8
假想
100
AcDbLine
 10
311.2957454300788
 20
566.5093486378212
 30
0.0
 11
314.2957454300788
 21
566.5093486378212
 31
0.0
  0
LINE
  5
65F4
330
2
100
AcDbEntity
  8
假想
100
AcDbLine
 10
314.2957454300788
 20
530.5093486378211
 30
0.0
 11
311.2957454300788
 21
530.5093486378211
 31
0.0
  0
ARC
  5
65F5
330
2
100
AcDbEntity
  8
假想
100
AcDbCircle
 10
274.2957454300788
 20
548.5093486378211
 30
0.0
 40
14.0
100
AcDbArc
 50
90.0
 51
270.0
  0
LINE
  5
65F6
330
2
100
AcDbEntity
  8
假想
100
AcDbLine
 10
248.2957454300788
 20
566.5093486378212
 30
0.0
 11
251.2957454300788
 21
566.5093486378212
 31
0.0
  0
LINE
  5
65F7
330
2
100
AcDbEntity
  8
假想
100
AcDbLine
 10
311.9957454300788
 20
580.5093486378211
 30
0.0
 11
311.9957454300788
 21
585.5093486378211
 31
0.0
  0
ARC
  5
65F8
330
2
100
AcDbEntity
  8
假想
100
AcDbCircle
 10
295.2957454300788
 20
560.5093486378211
 30
0.0
 40
1.999999999999999
100
AcDbArc
 50
270.0
 51
90.0
  0
LINE
  5
65F9
330
2
100
AcDbEntity
  8
假想
100
AcDbLine
 10
291.2957454300788
 20
558.5093486378212
 30
0.0
 11
294.2957454300788
 21
558.5093486378212
 31
0.0
  0
LINE
  5
65FA
330
2
100
AcDbEntity
  8
假想
100
AcDbLine
 10
294.2957454300788
 20
539.5093486378211
 30
0.0
 11
291.2957454300788
 21
539.5093486378211
 31
0.0
  0
ARC
  5
65FB
330
2
100
AcDbEntity
  8
假想
100
AcDbCircle
 10
294.7957454300788
 20
537.0093486378212
 30
0.0
 40
2.5
100
AcDbArc
 50
270.0
 51
90.0
  0
DIMENSION
  5
65FC
330
2
100
AcDbEntity
  8
AM_REFDIM
100
AcDbDimension
  2
*D28
 10
326.2957454300788
 20
548.5093486378211
 30
0.0
 11
322.1707454300787
 21
567.0093486378212
 31
0.0
 70
    32
 71
     5
 42
37.0
  3
AM_ISO$0
100
AcDbAlignedDimension
 13
314.2957454300788
 23
585.5093486378211
 33
0.0
 14
283.6529566065412
 24
548.5093486378211
 34
0.0
 50
90.0
100
AcDbRotatedDimension
1001
ACAD
1000
DSTYLE
1002
{
1070
    40
1040
1.5
1002
}
  0
DIMENSION
  5
65FD
330
2
100
AcDbEntity
  8
AM_REFDIM
100
AcDbDimension
  2
*D29
 10
162.7427337186973
 20
605.303348637821
 30
0.0
 11
143.2427337186973
 21
609.428348637821
 31
0.0
 70
    32
 71
     5
 42
39.0
  3
AM_ISO$0
100
AcDbAlignedDimension
 13
123.7427337186973
 23
583.303348637821
 33
0.0
 14
162.7427337186973
 24
583.303348637821
 34
0.0
100
AcDbRotatedDimension
1001
ACAD
1000
DSTYLE
1002
{
1070
    40
1040
1.5
1002
}
  0
DIMENSION
  5
65FE
330
2
100
AcDbEntity
  8
AM_REFDIM
100
AcDbDimension
  2
*D30
 10
175.7427337186973
 20
615.303348637821
 30
0.0
 11
143.2427337186973
 21
619.4283486378211
 31
0.0
 70
    32
 71
     5
 42
65.0
  3
AM_ISO$0
100
AcDbAlignedDimension
 13
110.7427337186973
 23
580.5093486378211
 33
0.0
 14
175.7427337186973
 24
580.5093486378211
 34
0.0
100
AcDbRotatedDimension
1001
ACAD
1000
DSTYLE
1002
{
1070
    40
1040
1.5
1002
}
  0
DIMENSION
  5
65FF
330
2
100
AcDbEntity
  8
AM_REFDIM
100
AcDbDimension
  2
*D31
 10
145.8927337186969
 20
384.6978190089497
 30
0.0
 11
161.4139647788199
 21
384.6978190089497
 31
0.0
 70
   160
  1
%%c<>
 71
     5
 42
4.899999999999863
  3
AM_ISO$0
100
AcDbAlignedDimension
 13
140.9927337186971
 23
400.209348637821
 33
0.0
 14
145.8927337186969
 24
400.209348637821
 34
0.0
100
AcDbRotatedDimension
1001
ACAD
1000
DSTYLE
1002
{
1070
    40
1040
1.5
1070
   271
1070
     0
1002
}
  0
DIMENSION
  5
6600
330
2
100
AcDbEntity
  8
AM_REFDIM
100
AcDbDimension
  2
*D32
 10
196.5887897342021
 20
577.5093486378211
 30
0.0
 11
196.588789734202
 21
563.0093486378211
 31
0.0
 70
   160
 71
     5
 42
29.0
  3
AM_ISO$0
100
AcDbAlignedDimension
 13
190.7642067187155
 23
548.5093486378211
 33
0.0
 14
173.5367337186974
 24
577.5093486378211
 34
0.0
 50
90.0
100
AcDbRotatedDimension
1001
ACAD
1000
DSTYLE
1002
{
1070
    40
1040
1.5
1002
}
  0
DIMENSION
  5
6601
330
2
100
AcDbEntity
  8
AM_REFDIM
100
AcDbDimension
  2
*D33
 10
274.295745430078
 20
548.50934863782
 30
0.0
 11
210.2923982824659
 21
494.0845644067263
 31
0.0
 70
   164
  1
2-PT1/4
 71
     5
 42
10.24999999999977
  3
AM_ISO$4
100
AcDbRadialDimension
 15
267.3537859304271
 25
540.9680159767313
 35
0.0
 40
0.0
1001
ACAD
1000
DSTYLE
1002
{
1070
    40
1040
1.5
1070
   178
1070
   256
1002
}
  0
MTEXT
  5
6602
330
2
100
AcDbEntity
  8
AM_REFDIM
100
AcDbMText
 10
197.4965070694895
 20
493.0134497754691
 30
0.0
 40
5.25
 41
35.85606272283053
 71
     1
 72
     5
  1
{\L2-PT3/8\P2-PT1/2}
 73
     1
 44
1.0
1001
ACAD
1000
MTEXTBEGIN
1070
    73
1070
     1
1070
    44
1040
1.0
1070
    74
1070
     0
1000
MTEXTEND
  0
DIMENSION
  5
6603
102
{ACAD_XDICTIONARY
360
6604
102
}
102
{ACAD_REACTORS
330
6605
102
}
330
2
100
AcDbEntity
  8
AM_REFDIM
100
AcDbDimension
  2
*D39
 10
180.7427337186973
 20
748.1130225218573
 30
0.0
 11
143.2427337186973
 21
752.2380225218573
 31
0.0
 70
    32
 71
     5
 42
75.0
  3
AM_ISO$0
100
AcDbAlignedDimension
 13
105.7427337186973
 23
724.277461893245
 33
0.0
 14
180.7427337186973
 24
724.277461893245
 34
0.0
100
AcDbRotatedDimension
1001
ACAD
1000
DSTYLE
1002
{
1070
    40
1040
1.5
1002
}
  0
DIMENSION
  5
6606
102
{ACAD_XDICTIONARY
360
6607
102
}
102
{ACAD_REACTORS
330
6608
102
}
330
2
100
AcDbEntity
  8
AM_REFDIM
100
AcDbDimension
  2
*D40
 10
200.7672606785849
 20
649.277461893245
 30
0.0
 11
200.7672606785848
 21
687.4900746933556
 31
0.0
 70
   160
 71
     5
 42
78.0
  3
AM_ISO$0
100
AcDbAlignedDimension
 13
177.7427337186973
 23
727.2774618932451
 33
0.0
 14
158.4427337186973
 24
649.277461893245
 34
0.0
 50
90.0
100
AcDbRotatedDimension
1001
ACAD
1000
DSTYLE
1002
{
1070
    40
1040
1.5
1002
}
  0
DIMENSION
  5
6609
102
{ACAD_XDICTIONARY
360
660A
102
}
102
{ACAD_REACTORS
330
660B
102
}
330
2
100
AcDbEntity
  8
AM_REFDIM
100
AcDbDimension
  2
*D41
 10
131.7427337186973
 20
595.303348637821
 30
0.0
 11
123.7427337186973
 21
599.428348637821
 31
0.0
 70
    32
 71
     5
 42
16.0
  3
AM_ISO$0
100
AcDbAlignedDimension
 13
115.7427337186973
 23
577.5093486378211
 33
0.0
 14
131.7427337186973
 24
577.5093486378211
 34
0.0
100
AcDbRotatedDimension
1001
ACAD
1000
DSTYLE
1002
{
1070
    40
1040
1.5
1002
}
  0
DIMENSION
  5
660C
102
{ACAD_XDICTIONARY
360
660D
102
}
102
{ACAD_REACTORS
330
660E
102
}
330
2
100
AcDbEntity
  8
AM_REFDIM
100
AcDbDimension
  2
*D42
 10
96.87300648440736
 20
574.5093486378212
 30
0.0
 11
96.87300648440725
 21
577.5093486378211
 31
0.0
 70
   160
 71
     5
 42
6.0
  3
AM_ISO$0
100
AcDbAlignedDimension
 13
118.7427337186973
 23
580.5093486378211
 33
0.0
 14
118.7427337186973
 24
574.5093486378212
 34
0.0
 50
90.0
100
AcDbRotatedDimension
1001
ACAD
1000
DSTYLE
1002
{
1070
    40
1040
1.5
1002
}
  0
ENDSEC
  0
SECTION
  2
OBJECTS
  0
DICTIONARY
  5
1A
330
0
100
AcDbDictionary
281
     1
  3
ACAD_COLOR
350
5B6D
  3
ACAD_GROUP
350
18
  3
ACAD_LAYOUT
350
59A5
  3
ACAD_MATERIAL
350
5B6C
  3
ACAD_MLINESTYLE
350
19
  3
ACAD_PLOTSETTINGS
350
59A6
  3
ACAD_PLOTSTYLENAME
350
59A3
  3
ACAD_TABLESTYLE
350
5B6E
  3
ACDBHEADERROUNDTRIPXREC
350
68A9
  3
AcDbVariableDictionary
350
A08
  3
AcmDictionary
350
5BCB
  3
AMG
350
5B78
  3
AMGSNAPSETTINGS
350
5CB4
  0
DICTIONARY
  5
5C22
330
A
100
AcDbDictionary
280
     1
281
     1
  3
ACAD_LAYERFILTERS
360
689B
  3
ACAD_LAYERSTATES
360
5C23
  3
ACLYDICTIONARY
360
689A
  0
DICTIONARY
  5
59CA
330
2
100
AcDbDictionary
280
     1
281
     1
  3
ACAD_LAYOUTSELFREF
360
5B3F
  3
ACAD_SORTENTS
360
59CB
  0
DICTIONARY
  5
59F8
330
7
100
AcDbDictionary
280
     1
281
     1
  3
ACAD_LAYOUTSELFREF
360
5B40
  0
DICTIONARY
  5
6604
330
6603
100
AcDbDictionary
280
     1
281
     1
  3
ACAD_DIMASSOC
360
6605
  0
DICTIONARY
  5
6607
330
6606
100
AcDbDictionary
280
     1
281
     1
  3
ACAD_DIMASSOC
360
6608
  0
DICTIONARY
  5
660A
330
6609
100
AcDbDictionary
280
     1
281
     1
  3
ACAD_DIMASSOC
360
660B
  0
DICTIONARY
  5
660D
330
660C
100
AcDbDictionary
280
     1
281
     1
  3
ACAD_DIMASSOC
360
660E
  0
DICTIONARY
  5
5B6D
102
{ACAD_REACTORS
330
1A
102
}
330
1A
100
AcDbDictionary
281
     1
  0
DICTIONARY
  5
18
102
{ACAD_REACTORS
330
1A
102
}
330
1A
100
AcDbDictionary
281
     1
  0
DICTIONARY
  5
59A5
102
{ACAD_REACTORS
330
1A
102
}
330
1A
100
AcDbDictionary
281
     1
  3
Model
350
59A7
  3
配置1
350
59A8
  0
DICTIONARY
  5
5B6C
102
{ACAD_REACTORS
330
1A
102
}
330
1A
100
AcDbDictionary
281
     1
  0
DICTIONARY
  5
19
102
{ACAD_REACTORS
330
1A
102
}
330
1A
100
AcDbDictionary
281
     1
  3
STANDARD
350
1D
  0
DICTIONARY
  5
59A6
102
{ACAD_REACTORS
330
1A
102
}
330
1A
100
AcDbDictionary
281
     1
  0
ACDBDICTIONARYWDFLT
  5
59A3
102
{ACAD_REACTORS
330
1A
102
}
330
1A
100
AcDbDictionary
281
     1
  3
Normal
350
59A4
100
AcDbDictionaryWithDefault
340
59A4
1001
ACAD
1000
TREAT_AS_HARD
1070
     0
1000
TREAT_AS_HARD
1070
     0
1000
TREAT_AS_HARD
1070
     0
  0
DICTIONARY
  5
5B6E
102
{ACAD_REACTORS
330
1A
102
}
330
1A
100
AcDbDictionary
281
     1
  3
Standard
350
5B6F
  0
DICTIONARY
  5
68A9
102
{ACAD_REACTORS
330
1A
102
}
330
1A
100
AcDbDictionary
281
     1
  0
DICTIONARY
  5
A08
102
{ACAD_REACTORS
330
1A
102
}
330
1A
100
AcDbDictionary
281
     1
  3
CTABLESTYLE
350
68A5
  3
DIMASSOC
350
68A6
  3
PROJECTNAME
350
68A7
  3
SORTENTS
350
A09
  0
DICTIONARY
  5
5BCB
102
{ACAD_REACTORS
330
1A
102
}
330
1A
100
AcDbDictionary
281
     1
  3
AcmStdDictionary
350
5BD8
  3
AMDTSECTSYM_ARROWCOLOR
350
5BF8
  0
DICTIONARY
  5
5B78
102
{ACAD_REACTORS
330
1A
102
}
330
1A
100
AcDbDictionary
281
     1
  0
DICTIONARY
  5
5CB4
102
{ACAD_REACTORS
330
1A
102
}
330
1A
100
AcDbDictionary
281
     1
  0
DICTIONARY
  5
689B
102
{ACAD_REACTORS
330
5C22
102
}
330
5C22
100
AcDbDictionary
281
     1
  0
DICTIONARY
  5
5C23
102
{ACAD_REACTORS
330
5C22
102
}
330
5C22
100
AcDbDictionary
281
     1
  0
DICTIONARY
  5
689A
102
{ACAD_REACTORS
330
5C22
102
}
330
5C22
100
AcDbDictionary
281
     1
1001
ACAD
1000
<All
  0
XRECORD
  5
5B3F
102
{ACAD_REACTORS
330
59CA
102
}
330
59CA
100
AcDbXrecord
280
     1
340
2
  0
SORTENTSTABLE
  5
59CB
102
{ACAD_REACTORS
330
59CA
102
}
330
59CA
100
AcDbSortentsTable
330
2
331
2095
  5
2095
331
4482
  5
4482
331
5652
  5
5652
331
1F73
  5
1F73
331
1FBB
  5
1FBB
331
5655
  5
5655
331
5656
  5
5656
  0
XRECORD
  5
5B40
102
{ACAD_REACTORS
330
59F8
102
}
330
59F8
100
AcDbXrecord
280
     1
340
7
  0
DIMASSOC
  5
6605
102
{ACAD_REACTORS
330
6604
102
}
330
6604
100
AcDbDimAssoc
330
6603
 90
        3
 70
     0
 71
     0
  1
AcDbOsnapPointRef
 72
     1
331
6530
 73
     0
 91
        0
 40
0.0
 10
0.0
 20
0.0
 30
2.000000000000000E+50
 75
     0
  1
AcDbOsnapPointRef
 72
    13
331
652B
 73
     0
 91
        0
 40
0.0
 10
0.0
 20
0.0
 30
2.000000000000000E+50
 75
     0
  0
DIMASSOC
  5
6608
102
{ACAD_REACTORS
330
6607
102
}
330
6607
100
AcDbDimAssoc
330
6606
 90
        1
 70
     0
 71
     0
  1
AcDbOsnapPointRef
 72
     1
331
6529
 73
     0
 91
        0
 40
0.0
 10
0.0
 20
0.0
 30
2.000000000000000E+50
 75
     0
  0
DIMASSOC
  5
660B
102
{ACAD_REACTORS
330
660A
102
}
330
660A
100
AcDbDimAssoc
330
6609
 90
        3
 70
     0
 71
     0
  1
AcDbOsnapPointRef
 72
     6
331
655A
 73
     0
 91
        0
 40
0.4822229892992635
 10
0.0
 20
0.0
 30
0.0
332
65C8
 74
     0
 92
        0
 75
     0
  1
AcDbOsnapPointRef
 72
     6
331
6557
 73
     0
 91
        0
 40
0.5177770107007163
 10
0.0
 20
0.0
 30
0.0
332
65C7
 74
     0
 92
        0
 75
     0
  0
DIMASSOC
  5
660E
102
{ACAD_REACTORS
330
660D
102
}
330
660D
100
AcDbDimAssoc
330
660C
 90
        3
 70
     0
 71
     0
  1
AcDbOsnapPointRef
 72
    13
331
65BC
 73
     0
 91
        0
 40
0.0
 10
0.0
 20
0.0
 30
2.000000000000000E+50
 75
     0
  1
AcDbOsnapPointRef
 72
     1
331
65C8
 73
     0
 91
        0
 40
0.0
 10
0.0
 20
0.0
 30
2.000000000000000E+50
 75
     0
  0
LAYOUT
  5
59A7
102
{ACAD_XDICTIONARY
360
68AA
102
}
102
{ACAD_REACTORS
330
59A5
102
}
330
59A5
100
AcDbPlotSettings
  1

  2
DWF Classic.pc3
  4
ISO_expand_A3_(297.00_x_420.00_MM)
  6

 40
5.793749809265136
 41
10.79374980926513
 42
5.79376220703125
 43
10.79376220703125
 44
297.0
 45
420.0
 46
0.0
 47
49.95
 48
0.0
 49
0.0
140
0.0
141
0.0
142
1.0
143
0.8966588850094245
 70
 11956
 72
     1
 73
     0
 74
     1
  7
acad.ctb
 75
     0
147
1.115251314316134
148
18.22110011069549
149
36.29912410926642
100
AcDbLayout
  1
Model
 70
     1
 71
     0
 10
0.0
 20
0.0
 11
12.0
 21
9.0
 12
0.0
 22
0.0
 32
0.0
 14
0.0
 24
0.0
 34
0.0
 15
0.0
 25
0.0
 35
0.0
146
0.0
 13
0.0
 23
0.0
 33
0.0
 16
1.0
 26
0.0
 36
0.0
 17
0.0
 27
1.0
 37
0.0
 76
     0
330
2
  0
LAYOUT
  5
59A8
102
{ACAD_XDICTIONARY
360
68AC
102
}
102
{ACAD_REACTORS
330
59A5
102
}
330
59A5
100
AcDbPlotSettings
  1

  2
\\USER3\EPSON Stylus Photo 750 單色
  4

  6

 40
0.0
 41
0.0
 42
0.0
 43
0.0
 44
0.0
 45
0.0
 46
0.0
 47
0.0
 48
0.0
 49
0.0
140
0.0
141
0.0
142
1.0
143
1.0
 70
   688
 72
     0
 73
     0
 74
     5
  7
acad.ctb
 75
    16
147
1.0
148
0.0
149
0.0
100
AcDbLayout
  1
配置1
 70
     0
 71
     1
 10
0.0
 20
0.0
 11
12.0
 21
9.0
 12
0.0
 22
0.0
 32
0.0
 14
1.000000000000000E+20
 24
1.000000000000000E+20
 34
1.000000000000000E+20
 15
-1.000000000000000E+20
 25
-1.000000000000000E+20
 35
-1.000000000000000E+20
146
0.0
 13
0.0
 23
0.0
 33
0.0
 16
1.0
 26
0.0
 36
0.0
 17
0.0
 27
1.0
 37
0.0
 76
     0
330
7
  0
MLINESTYLE
  5
1D
102
{ACAD_REACTORS
330
19
102
}
330
19
100
AcDbMlineStyle
  2
STANDARD
 70
     0
  3

 62
   256
 51
90.0
 52
90.0
 71
     2
 49
0.5
 62
   256
  6
BYLAYER
 49
-0.5
 62
   256
  6
BYLAYER
  0
ACDBPLACEHOLDER
  5
59A4
102
{ACAD_REACTORS
330
59A3
102
}
330
59A3
  0
TABLESTYLE
  5
5B6F
102
{ACAD_REACTORS
330
5B6E
102
}
330
5B6E
100
AcDbTableStyle
  3
Standard
 70
     0
 71
     0
 40
0.06
 41
0.06
280
     0
281
     0
  7
STANDARD
140
0.18
170
     2
 62
     0
 63
     7
283
     0
274
    -2
284
     1
 64
     0
275
    -2
285
     1
 65
     0
276
    -2
286
     1
 66
     0
277
    -2
287
     1
 67
     0
278
    -2
288
     1
 68
     0
279
    -2
289
     1
 69
     0
  7
STANDARD
140
0.25
170
     5
 62
     0
 63
     7
283
     0
274
    -2
284
     1
 64
     0
275
    -2
285
     1
 65
     0
276
    -2
286
     1
 66
     0
277
    -2
287
     1
 67
     0
278
    -2
288
     1
 68
     0
279
    -2
289
     1
 69
     0
  7
STANDARD
140
0.18
170
     5
 62
     0
 63
     7
283
     0
274
    -2
284
     1
 64
     0
275
    -2
285
     1
 65
     0
276
    -2
286
     1
 66
     0
277
    -2
287
     1
 67
     0
278
    -2
288
     1
 68
     0
279
    -2
289
     1
 69
     0
  0
DICTIONARYVAR
  5
68A5
102
{ACAD_REACTORS
330
A08
102
}
330
A08
100
DictionaryVariables
280
     0
  1
STANDARD
  0
DICTIONARYVAR
  5
68A6
102
{ACAD_REACTORS
330
A08
102
}
330
A08
100
DictionaryVariables
280
     0
  1
1
  0
DICTIONARYVAR
  5
68A7
102
{ACAD_REACTORS
330
A08
102
}
330
A08
100
DictionaryVariables
280
     0
  1

  0
DICTIONARYVAR
  5
A09
102
{ACAD_REACTORS
330
A08
102
}
330
A08
100
DictionaryVariables
280
     0
  1
127
  0
DICTIONARY
  5
5BD8
102
{ACAD_REACTORS
330
5BCB
102
}
330
5BCB
100
AcDbDictionary
281
     1
  0
XRECORD
  5
5BF8
102
{ACAD_REACTORS
330
5BCB
102
}
330
5BCB
100
AcDbXrecord
280
     1
 90
-1023410169
  0
DICTIONARY
  5
68AA
330
59A7
100
AcDbDictionary
280
     1
281
     1
  3
ACAD_XREC_ROUNDTRIP
360
68AB
  0
DICTIONARY
  5
68AC
330
59A8
100
AcDbDictionary
280
     1
281
     1
  3
ACAD_XREC_ROUNDTRIP
360
68AD
  0
XRECORD
  5
68AB
102
{ACAD_REACTORS
330
68AA
102
}
330
68AA
100
AcDbXrecord
280
     1
102
SHADEPLOT
 70
     0
102
SHADEPLOTRESLEVEL
 70
     2
102
SHADEPLOTCUSTOMDPI
 70
   300
  0
XRECORD
  5
68AD
102
{ACAD_REACTORS
330
68AC
102
}
330
68AC
100
AcDbXrecord
280
     1
102
SHADEPLOT
 70
     0
102
SHADEPLOTRESLEVEL
 70
     2
102
SHADEPLOTCUSTOMDPI
 70
   300
  0
ENDSEC
  0
EOF
