  0
SECTION
  2
HEADER
  9
$ACADVER
  1
AC1009
  9
$INSBASE
 10
0.0
 20
0.0
 30
0.0
  9
$EXTMIN
 10
-241.06505386506879
 20
562.58218587342662
 30
-0.0000000000112498
  9
$EXTMAX
 10
89.376692752412737
 20
1107.370866572357
 30
0.0000000000002956
  9
$LIMMIN
 10
0.0
 20
0.0
  9
$LIMMAX
 10
420.0
 20
297.0
  9
$ORTHOMODE
 70
     1
  9
$REGENMODE
 70
     1
  9
$FILLMODE
 70
     1
  9
$QTEXTMODE
 70
     0
  9
$MIRRTEXT
 70
     1
  9
$DRAGMODE
 70
     2
  9
$LTSCALE
 40
0.5
  9
$OSMODE
 70
    39
  9
$ATTMODE
 70
     1
  9
$TEXTSIZE
 40
25.0
  9
$TRACEWID
 40
1.0
  9
$TEXTSTYLE
  7
CHINESET
  9
$CLAYER
  8
0
  9
$CELTYPE
  6
BYBLOCK
  9
$CECOLOR
 62
   256
  9
$DIMSCALE
 40
1.0
  9
$DIMASZ
 40
3.0
  9
$DIMEXO
 40
2.0
  9
$DIMDLI
 40
8.0
  9
$DIMRND
 40
0.0
  9
$DIMDLE
 40
0.0
  9
$DIMEXE
 40
2.0
  9
$DIMTP
 40
0.0
  9
$DIMTM
 40
0.0
  9
$DIMTXT
 40
3.0
  9
$DIMCEN
 40
-2.5
  9
$DIMTSZ
 40
0.0
  9
$DIMTOL
 70
     0
  9
$DIMLIM
 70
     0
  9
$DIMTIH
 70
     0
  9
$DIMTOH
 70
     0
  9
$DIMSE1
 70
     0
  9
$DIMSE2
 70
     0
  9
$DIMTAD
 70
     1
  9
$DIMZIN
 70
     8
  9
$DIMBLK
  1

  9
$DIMASO
 70
     1
  9
$DIMSHO
 70
     1
  9
$DIMPOST
  1

  9
$DIMAPOST
  1

  9
$DIMALT
 70
     0
  9
$DIMALTD
 70
     4
  9
$DIMALTF
 40
0.0394
  9
$DIMLFAC
 40
1.0
  9
$DIMTOFL
 70
     0
  9
$DIMTVP
 40
0.0
  9
$DIMTIX
 70
     0
  9
$DIMSOXD
 70
     0
  9
$DIMSAH
 70
     0
  9
$DIMBLK1
  1

  9
$DIMBLK2
  1

  9
$DIMSTYLE
  2
STANDARD
  9
$DIMCLRD
 70
   256
  9
$DIMCLRE
 70
   256
  9
$DIMCLRT
 70
   256
  9
$DIMTFAC
 40
1.0
  9
$DIMGAP
 40
1.0
  9
$LUNITS
 70
     2
  9
$LUPREC
 70
     4
  9
$SKETCHINC
 40
1.0
  9
$FILLETRAD
 40
1.0
  9
$AUNITS
 70
     0
  9
$AUPREC
 70
     0
  9
$MENU
  1
.
  9
$ELEVATION
 40
0.0
  9
$PELEVATION
 40
0.0
  9
$THICKNESS
 40
0.0
  9
$LIMCHECK
 70
     0
  9
$BLIPMODE
 70
     0
  9
$CHAMFERA
 40
0.5
  9
$CHAMFERB
 40
0.5
  9
$SKPOLY
 70
     0
  9
$TDCREATE
 40
2451564.5849386919
  9
$TDUPDATE
 40
2451949.3875901271
  9
$TDINDWG
 40
0.0059944907
  9
$TDUSRTIMER
 40
0.0059944907
  9
$USRTIMER
 70
     1
  9
$ANGBASE
 50
0.0
  9
$ANGDIR
 70
     0
  9
$PDMODE
 70
     0
  9
$PDSIZE
 40
0.0
  9
$PLINEWID
 40
0.0
  9
$COORDS
 70
     2
  9
$SPLFRAME
 70
     0
  9
$SPLINETYPE
 70
     6
  9
$SPLINESEGS
 70
     8
  9
$ATTDIA
 70
     0
  9
$ATTREQ
 70
     1
  9
$HANDLING
 70
 12289
  9
$HANDSEED
  5
18F3
  9
$SURFTAB1
 70
     6
  9
$SURFTAB2
 70
     6
  9
$SURFTYPE
 70
     6
  9
$SURFU
 70
     6
  9
$SURFV
 70
     6
  9
$UCSNAME
  2

  9
$UCSORG
 10
0.0
 20
0.0
 30
0.0
  9
$UCSXDIR
 10
1.0
 20
0.0
 30
0.0
  9
$UCSYDIR
 10
0.0
 20
1.0
 30
0.0
  9
$PUCSNAME
  2

  9
$PUCSORG
 10
0.0
 20
0.0
 30
0.0
  9
$PUCSXDIR
 10
1.0
 20
0.0
 30
0.0
  9
$PUCSYDIR
 10
0.0
 20
1.0
 30
0.0
  9
$USERI1
 70
     0
  9
$USERI2
 70
     0
  9
$USERI3
 70
     0
  9
$USERI4
 70
     0
  9
$USERI5
 70
     0
  9
$USERR1
 40
0.0
  9
$USERR2
 40
0.0
  9
$USERR3
 40
0.0
  9
$USERR4
 40
0.0
  9
$USERR5
 40
0.0
  9
$WORLDVIEW
 70
     1
  9
$SHADEDGE
 70
     3
  9
$SHADEDIF
 70
    70
  9
$TILEMODE
 70
     1
  9
$MAXACTVP
 70
    48
  9
$PLIMCHECK
 70
     0
  9
$PEXTMIN
 10
1.0000000000000000E+020
 20
1.0000000000000000E+020
 30
1.0000000000000000E+020
  9
$PEXTMAX
 10
-1.0000000000000000E+020
 20
-1.0000000000000000E+020
 30
-1.0000000000000000E+020
  9
$PLIMMIN
 10
0.0
 20
0.0
  9
$PLIMMAX
 10
420.0
 20
297.0
  9
$UNITMODE
 70
     0
  9
$VISRETAIN
 70
     1
  9
$PLINEGEN
 70
     0
  9
$PSLTSCALE
 70
     1
  0
ENDSEC
  0
SECTION
  2
TABLES
  0
TABLE
  2
VPORT
 70
     2
  0
VPORT
  2
*ACTIVE
 70
     0
 10
0.0
 20
0.0
 11
1.0
 21
1.0
 12
-75.844180556328041
 22
834.97652622289195
 13
0.0
 23
0.0
 14
10.0
 24
10.0
 15
10.0
 25
10.0
 16
0.0
 26
0.0
 36
1.0
 17
0.0
 27
0.0
 37
0.0
 40
550.79737938310973
 41
1.7274401473296499
 42
50.0
 43
0.0
 44
0.0
 50
0.0
 51
0.0
 71
     0
 72
   100
 73
     1
 74
     1
 75
     0
 76
     0
 77
     0
 78
     0
  0
ENDTAB
  0
TABLE
  2
LTYPE
 70
     6
  0
LTYPE
  2
CONTINUOUS
 70
     0
  3
Solid line
 72
    65
 73
     0
 40
0.0
  0
LTYPE
  2
CENTER
 70
     0
  3
Center ____ _ ____ _ ____ _ ____ _ ____ _ ____
 72
    65
 73
     4
 40
50.799999999999997
 49
31.75
 49
-6.3499999999999988
 49
6.3499999999999988
 49
-6.3499999999999988
  0
LTYPE
  2
HIDDEN
 70
     0
  3
_ _ _ _ _ _ _ _ _ _ _ _ _ _ _ _ _ _ _ _ _ _ _
 72
    65
 73
     2
 40
0.375
 49
0.25
 49
-0.125
  0
ENDTAB
  0
TABLE
  2
LAYER
 70
     6
  0
LAYER
  2
0
 70
     0
 62
     7
  6
CONTINUOUS
  0
LAYER
  2
DIM
 70
     0
 62
     5
  6
CONTINUOUS
  0
LAYER
  2
DEFPOINTS
 70
     0
 62
     7
  6
CONTINUOUS
  0
LAYER
  2
CENTER
 70
     0
 62
     1
  6
CENTER
  0
LAYER
  2
LOGO
 70
     0
 62
     7
  6
CONTINUOUS
  0
LAYER
  2
HIDDEN
 70
     0
 62
     6
  6
HIDDEN
  0
ENDTAB
  0
TABLE
  2
STYLE
 70
     6
  0
STYLE
  2
STANDARD
 70
     0
 40
0.0
 41
1.0
 50
0.0
 71
     0
 42
25.0
  3
txt
  4

  0
STYLE
  2
CHINESET
 70
     0
 40
0.0
 41
1.0
 50
0.0
 71
     0
 42
25.0
  3
simplex.shx
  4
chineset.shx
  0
STYLE
  2
LOGO
 70
     0
 40
0.0
 41
1.0
 50
0.0
 71
     0
 42
5.0
  3
txt
  4

  0
ENDTAB
  0
TABLE
  2
VIEW
 70
     0
  0
ENDTAB
  0
TABLE
  2
UCS
 70
     0
  0
ENDTAB
  0
TABLE
  2
APPID
 70
     1
  0
APPID
  2
ACAD
 70
     0
  0
ENDTAB
  0
TABLE
  2
DIMSTYLE
 70
     1
  0
DIMSTYLE
  2
STANDARD
 70
     0
  3

  4

  5

  6

  7

 40
1.0
 41
3.0
 42
2.0
 43
8.0
 44
2.0
 45
0.0
 46
0.0
 47
0.0
 48
0.0
140
3.0
141
-2.5
142
0.0
143
0.0394
144
1.0
145
0.0
146
1.0
147
1.0
 71
     0
 72
     0
 73
     0
 74
     0
 75
     0
 76
     0
 77
     1
 78
     8
170
     0
171
     4
172
     0
173
     0
174
     0
175
     0
176
   256
177
   256
178
   256
  0
ENDTAB
  0
ENDSEC
  0
SECTION
  2
BLOCKS
  0
BLOCK
  8
0
  2
$MODEL_SPACE
 70
     0
 10
0.0
 20
0.0
 30
0.0
  3
$MODEL_SPACE
  1

  0
ENDBLK
  5
1785
  8
0
  0
BLOCK
 67
     1
  8
0
  2
$PAPER_SPACE
 70
     0
 10
0.0
 20
0.0
 30
0.0
  3
$PAPER_SPACE
  1

  0
ENDBLK
  5
1783
 67
     1
  8
0
  0
BLOCK
  8
0
  2
*X71
 70
     1
 10
0.0
 20
0.0
 30
0.0
  3
*X71
  1

  0
LINE
  5
16D1
  8
0
  6
BYBLOCK
 62
     0
 10
-161.28120491969591
 20
933.76003370637329
 30
0.0
 11
-162.10424124911759
 21
934.583070035795
 31
0.0
  0
LINE
  5
16D2
  8
0
  6
BYBLOCK
 62
     0
 10
-161.28120491969591
 20
932.86200809426634
 30
0.0
 11
-163.00226686122451
 21
934.583070035795
 31
0.0
  0
LINE
  5
16D3
  8
0
  6
BYBLOCK
 62
     0
 10
-161.2812049196958
 20
931.96398248215939
 30
0.0
 11
-163.9002924733314
 21
934.583070035795
 31
0.0
  0
LINE
  5
16D4
  8
0
  6
BYBLOCK
 62
     0
 10
-161.2812049196958
 20
931.06595687005245
 30
0.0
 11
-164.7983180854383
 21
934.58307003579478
 31
0.0
  0
LINE
  5
16D5
  8
0
  6
BYBLOCK
 62
     0
 10
-161.2812049196958
 20
930.1679312579455
 30
0.0
 11
-165.69634369754519
 21
934.58307003579478
 31
0.0
  0
LINE
  5
16D6
  8
0
  6
BYBLOCK
 62
     0
 10
-161.59436930965219
 20
929.58307003579489
 30
0.0
 11
-166.59436930965211
 21
934.583070035795
 31
0.0
  0
LINE
  5
16D7
  8
0
  6
BYBLOCK
 62
     0
 10
-162.49239492175909
 20
929.58307003579489
 30
0.0
 11
-167.49239492175909
 21
934.58307003579478
 31
0.0
  0
LINE
  5
16D8
  8
0
  6
BYBLOCK
 62
     0
 10
-163.39042053386601
 20
929.58307003579489
 30
0.0
 11
-168.39042053386601
 21
934.583070035795
 31
0.0
  0
LINE
  5
16D9
  8
0
  6
BYBLOCK
 62
     0
 10
-164.2884461459729
 20
929.58307003579489
 30
0.0
 11
-169.2884461459729
 21
934.583070035795
 31
0.0
  0
LINE
  5
16DA
  8
0
  6
BYBLOCK
 62
     0
 10
-165.18647175807979
 20
929.58307003579489
 30
0.0
 11
-170.18647175807979
 21
934.58307003579478
 31
0.0
  0
LINE
  5
16DB
  8
0
  6
BYBLOCK
 62
     0
 10
-166.0844973701868
 20
929.58307003579489
 30
0.0
 11
-171.08449737018671
 21
934.58307003579478
 31
0.0
  0
LINE
  5
16DC
  8
0
  6
BYBLOCK
 62
     0
 10
-166.98252298229369
 20
929.58307003579489
 30
0.0
 11
-171.28120491969591
 21
933.88175197319708
 31
0.0
  0
LINE
  5
16DD
  8
0
  6
BYBLOCK
 62
     0
 10
-167.88054859440061
 20
929.58307003579489
 30
0.0
 11
-171.2812049196958
 21
932.98372636109025
 31
0.0
  0
LINE
  5
16DE
  8
0
  6
BYBLOCK
 62
     0
 10
-168.7785742065075
 20
929.58307003579489
 30
0.0
 11
-171.2812049196958
 21
932.08570074898319
 31
0.0
  0
LINE
  5
16DF
  8
0
  6
BYBLOCK
 62
     0
 10
-169.67659981861439
 20
929.58307003579489
 30
0.0
 11
-171.2812049196958
 21
931.18767513687635
 31
0.0
  0
LINE
  5
16E0
  8
0
  6
BYBLOCK
 62
     0
 10
-170.57462543072131
 20
929.58307003579489
 30
0.0
 11
-171.2812049196958
 21
930.28964952476952
 31
0.0
  0
LINE
  5
16E1
  8
0
  6
BYBLOCK
 62
     0
 10
-161.61222171867479
 20
929.58307003579489
 30
0.0
 11
-161.2812049196956
 21
929.91408683477391
 31
0.0
  0
LINE
  5
16E2
  8
0
  6
BYBLOCK
 62
     0
 10
-162.51024733078171
 20
929.58307003579489
 30
0.0
 11
-161.28120491969571
 21
930.81211244688097
 31
0.0
  0
LINE
  5
16E3
  8
0
  6
BYBLOCK
 62
     0
 10
-163.40827294288869
 20
929.58307003579489
 30
0.0
 11
-161.28120491969571
 21
931.71013805898781
 31
0.0
  0
LINE
  5
16E4
  8
0
  6
BYBLOCK
 62
     0
 10
-164.30629855499549
 20
929.58307003579489
 30
0.0
 11
-161.28120491969571
 21
932.60816367109464
 31
0.0
  0
LINE
  5
16E5
  8
0
  6
BYBLOCK
 62
     0
 10
-165.20432416710241
 20
929.58307003579489
 30
0.0
 11
-161.28120491969571
 21
933.50618928320148
 31
0.0
  0
LINE
  5
16E6
  8
0
  6
BYBLOCK
 62
     0
 10
-166.10234977920939
 20
929.58307003579489
 30
0.0
 11
-161.2812049196958
 21
934.40421489530843
 31
0.0
  0
LINE
  5
16E7
  8
0
  6
BYBLOCK
 62
     0
 10
-167.00037539131631
 20
929.58307003579489
 30
0.0
 11
-162.00037539131631
 21
934.58307003579478
 31
0.0
  0
LINE
  5
16E8
  8
0
  6
BYBLOCK
 62
     0
 10
-167.8984010034232
 20
929.58307003579489
 30
0.0
 11
-162.8984010034232
 21
934.58307003579478
 31
0.0
  0
LINE
  5
16E9
  8
0
  6
BYBLOCK
 62
     0
 10
-168.79642661553009
 20
929.58307003579489
 30
0.0
 11
-163.79642661553009
 21
934.58307003579478
 31
0.0
  0
LINE
  5
16EA
  8
0
  6
BYBLOCK
 62
     0
 10
-169.69445222763699
 20
929.58307003579489
 30
0.0
 11
-164.69445222763699
 21
934.58307003579478
 31
0.0
  0
LINE
  5
16EB
  8
0
  6
BYBLOCK
 62
     0
 10
-170.59247783974391
 20
929.58307003579489
 30
0.0
 11
-165.59247783974391
 21
934.58307003579478
 31
0.0
  0
LINE
  5
16EC
  8
0
  6
BYBLOCK
 62
     0
 10
-171.28120491969571
 20
929.79236856794989
 30
0.0
 11
-166.4905034518508
 21
934.58307003579478
 31
0.0
  0
LINE
  5
16ED
  8
0
  6
BYBLOCK
 62
     0
 10
-171.2812049196958
 20
930.69039418005696
 30
0.0
 11
-167.3885290639578
 21
934.58307003579478
 31
0.0
  0
LINE
  5
16EE
  8
0
  6
BYBLOCK
 62
     0
 10
-171.2812049196958
 20
931.58841979216379
 30
0.0
 11
-168.2865546760647
 21
934.583070035795
 31
0.0
  0
LINE
  5
16EF
  8
0
  6
BYBLOCK
 62
     0
 10
-171.28120491969571
 20
932.48644540427085
 30
0.0
 11
-169.1845802881715
 21
934.583070035795
 31
0.0
  0
LINE
  5
16F0
  8
0
  6
BYBLOCK
 62
     0
 10
-171.28120491969571
 20
933.38447101637769
 30
0.0
 11
-170.08260590027851
 21
934.58307003579478
 31
0.0
  0
LINE
  5
16F1
  8
0
  6
BYBLOCK
 62
     0
 10
-171.2812049196958
 20
934.28249662848464
 30
0.0
 11
-170.9806315123854
 21
934.58307003579478
 31
0.0
  0
ENDBLK
  5
16F3
  8
0
  0
BLOCK
  8
0
  2
*D72
 70
     1
 10
0.0
 20
0.0
 30
0.0
  3
*D72
  1

  0
LINE
  5
1897
  8
DIM
 10
-15.70536596197166
 20
940.68610155852195
 30
0.0
 11
-15.70536596197166
 21
945.05165938372261
 31
0.0
  0
LINE
  5
1898
  8
DIM
 10
34.294634038028448
 20
881.58307003579466
 30
0.0
 11
34.294634038028448
 21
945.05165938372261
 31
0.0
  0
LINE
  5
1899
  8
DIM
 10
-12.70536596197166
 20
943.05165938372249
 30
0.0
 11
31.294634038028448
 21
943.05165938372249
 31
0.0
  0
SOLID
  5
189A
  8
DIM
 10
-12.70536596197166
 20
943.55165938372261
 30
0.0
 11
-12.70536596197166
 21
942.55165938372261
 31
0.0
 12
-15.70536596197166
 22
943.05165938372249
 32
0.0
 13
-15.70536596197166
 23
943.05165938372249
 33
0.0
  0
SOLID
  5
189B
  8
DIM
 10
31.294634038028448
 20
943.55165938372261
 30
0.0
 11
31.294634038028448
 21
942.55165938372261
 31
0.0
 12
34.294634038028448
 22
943.05165938372249
 32
0.0
 13
34.294634038028448
 23
943.05165938372249
 33
0.0
  0
TEXT
  5
189C
  8
0
  6
BYBLOCK
 10
6.866062609456967
 20
944.05165938372272
 30
0.0
 40
3.0
  1
50
  7
CHINESET
  0
POINT
  5
189D
  8
DEFPOINTS
 62
     0
 10
-15.70536596197166
 20
938.68610155852184
 30
0.0
  0
POINT
  5
189E
  8
DEFPOINTS
 62
     0
 10
34.294634038028448
 20
879.58307003579478
 30
0.0
  0
POINT
  5
189F
  8
DEFPOINTS
 62
     0
 10
34.294634038028448
 20
943.05165938372249
 30
0.0
  0
ENDBLK
  5
1795
  8
0
  0
BLOCK
  8
0
  2
*D73
 70
     1
 10
0.0
 20
0.0
 30
0.0
  3
*D73
  1

  0
LINE
  5
18B5
  8
DIM
 10
-13.70536596197155
 20
936.08307003579466
 30
0.0
 11
49.997330269292902
 21
936.08307003579466
 31
0.0
  0
LINE
  5
18B6
  8
DIM
 10
39.464607329004359
 20
869.58307003579455
 30
0.0
 11
49.997330269292888
 21
869.58307003579455
 31
0.0
  0
LINE
  5
18B7
  8
DIM
 10
47.997330269292902
 20
933.08307003579478
 30
0.0
 11
47.997330269292881
 21
872.58307003579455
 31
0.0
  0
SOLID
  5
18B8
  8
DIM
 10
47.497330269292902
 20
933.08307003579478
 30
0.0
 11
48.497330269292902
 21
933.08307003579478
 31
0.0
 12
47.997330269292902
 22
936.08307003579466
 32
0.0
 13
47.997330269292902
 23
936.08307003579466
 33
0.0
  0
SOLID
  5
18B9
  8
DIM
 10
47.497330269292888
 20
872.58307003579455
 30
0.0
 11
48.497330269292888
 21
872.58307003579455
 31
0.0
 12
47.997330269292881
 22
869.58307003579455
 32
0.0
 13
47.997330269292881
 23
869.58307003579455
 33
0.0
  0
TEXT
  5
18BA
  8
0
  6
BYBLOCK
 10
46.997330269292753
 20
898.26164146436611
 30
0.0
 40
3.0
  1
66.5
 50
90.0
  7
CHINESET
  0
POINT
  5
18BB
  8
DEFPOINTS
 62
     0
 10
-15.70536596197155
 20
936.08307003579466
 30
0.0
  0
POINT
  5
18BC
  8
DEFPOINTS
 62
     0
 10
37.464607329004359
 20
869.58307003579455
 30
0.0
  0
POINT
  5
18BD
  8
DEFPOINTS
 62
     0
 10
47.997330269292881
 20
869.58307003579455
 30
0.0
  0
ENDBLK
  5
17A1
  8
0
  0
BLOCK
  8
0
  2
*D74
 70
     1
 10
0.0
 20
0.0
 30
0.0
  3
*D74
  1

  0
LINE
  5
18AC
  8
DIM
 10
6.2746947841483234
 20
818.98307003579475
 30
0.0
 11
49.997330269292881
 21
818.98307003579475
 31
0.0
  0
LINE
  5
18AD
  8
DIM
 10
39.464607329004359
 20
869.58307003579455
 30
0.0
 11
49.997330269292888
 21
869.58307003579455
 31
0.0
  0
LINE
  5
18AE
  8
DIM
 10
47.997330269292867
 20
821.98307003579475
 30
0.0
 11
47.997330269292881
 21
866.58307003579466
 31
0.0
  0
SOLID
  5
18AF
  8
DIM
 10
47.497330269292881
 20
821.98307003579475
 30
0.0
 11
48.497330269292881
 21
821.98307003579475
 31
0.0
 12
47.997330269292867
 22
818.98307003579475
 32
0.0
 13
47.997330269292867
 23
818.98307003579475
 33
0.0
  0
SOLID
  5
18B0
  8
DIM
 10
47.497330269292888
 20
866.58307003579466
 30
0.0
 11
48.497330269292888
 21
866.58307003579466
 31
0.0
 12
47.997330269292881
 22
869.58307003579455
 32
0.0
 13
47.997330269292881
 23
869.58307003579455
 33
0.0
  0
TEXT
  5
18B1
  8
0
  6
BYBLOCK
 10
46.997330269292739
 20
839.78307003579459
 30
0.0
 40
3.0
  1
50.6
 50
90.0
  7
CHINESET
  0
POINT
  5
18B2
  8
DEFPOINTS
 62
     0
 10
4.2746947841483234
 20
818.98307003579475
 30
0.0
  0
POINT
  5
18B3
  8
DEFPOINTS
 62
     0
 10
37.464607329004359
 20
869.58307003579455
 30
0.0
  0
POINT
  5
18B4
  8
DEFPOINTS
 62
     0
 10
47.997330269292881
 20
869.58307003579455
 30
0.0
  0
ENDBLK
  5
17AD
  8
0
  0
BLOCK
  8
0
  2
*D75
 70
     1
 10
0.0
 20
0.0
 30
0.0
  3
*D75
  1

  0
LINE
  5
1867
  8
DIM
 10
6.2746947841483234
 20
818.98307003579475
 30
0.0
 11
49.997330269292931
 21
818.98307003579475
 31
0.0
  0
LINE
  5
1868
  8
DIM
 10
-10.69096596197164
 20
655.58707003579468
 30
0.0
 11
49.997330269292888
 21
655.58707003579468
 31
0.0
  0
LINE
  5
1869
  8
DIM
 10
47.997330269292917
 20
815.98307003579475
 30
0.0
 11
47.997330269292888
 21
658.58707003579457
 31
0.0
  0
SOLID
  5
186A
  8
DIM
 10
47.497330269292917
 20
815.98307003579475
 30
0.0
 11
48.497330269292931
 21
815.98307003579475
 31
0.0
 12
47.997330269292931
 22
818.98307003579475
 32
0.0
 13
47.997330269292931
 23
818.98307003579475
 33
0.0
  0
SOLID
  5
186B
  8
DIM
 10
47.497330269292888
 20
658.58707003579457
 30
0.0
 11
48.497330269292888
 21
658.58707003579457
 31
0.0
 12
47.997330269292881
 22
655.58707003579468
 32
0.0
 13
47.997330269292881
 23
655.58707003579468
 33
0.0
  0
TEXT
  5
186C
  8
0
  6
BYBLOCK
 10
46.997330269292789
 20
731.49935575008033
 30
0.0
 40
3.0
  1
163.4
 50
90.0
  7
CHINESET
  0
POINT
  5
186D
  8
DEFPOINTS
 62
     0
 10
4.2746947841483234
 20
818.98307003579475
 30
0.0
  0
POINT
  5
186E
  8
DEFPOINTS
 62
     0
 10
-12.69096596197164
 20
655.58707003579468
 30
0.0
  0
POINT
  5
186F
  8
DEFPOINTS
 62
     0
 10
47.997330269292881
 20
655.58707003579468
 30
0.0
  0
ENDBLK
  5
17B9
  8
0
  0
BLOCK
  8
0
  2
*D76
 70
     1
 10
0.0
 20
0.0
 30
0.0
  3
*D76
  1

  0
LINE
  5
185E
  8
DIM
 10
-13.70536596197155
 20
936.08307003579466
 30
0.0
 11
68.392933383562493
 21
936.08307003579466
 31
0.0
  0
LINE
  5
185F
  8
DIM
 10
-10.69096596197164
 20
655.58707003579468
 30
0.0
 11
68.392933383562422
 21
655.58707003579468
 31
0.0
  0
LINE
  5
1860
  8
DIM
 10
66.392933383562493
 20
933.08307003579478
 30
0.0
 11
66.392933383562422
 21
658.58707003579457
 31
0.0
  0
SOLID
  5
1861
  8
DIM
 10
65.892933383562493
 20
933.08307003579478
 30
0.0
 11
66.892933383562493
 21
933.08307003579478
 31
0.0
 12
66.392933383562493
 22
936.08307003579466
 32
0.0
 13
66.392933383562493
 23
936.08307003579466
 33
0.0
  0
SOLID
  5
1862
  8
DIM
 10
65.892933383562422
 20
658.58707003579457
 30
0.0
 11
66.892933383562422
 21
658.58707003579457
 31
0.0
 12
66.392933383562422
 22
655.58707003579468
 32
0.0
 13
66.392933383562422
 23
655.58707003579468
 33
0.0
  0
TEXT
  5
1863
  8
0
  6
BYBLOCK
 10
65.392933383562323
 20
789.83507003579473
 30
0.0
 40
3.0
  1
280.5
 50
90.0
  7
CHINESET
  0
POINT
  5
1864
  8
DEFPOINTS
 62
     0
 10
-15.70536596197155
 20
936.08307003579466
 30
0.0
  0
POINT
  5
1865
  8
DEFPOINTS
 62
     0
 10
-12.69096596197164
 20
655.58707003579468
 30
0.0
  0
POINT
  5
1866
  8
DEFPOINTS
 62
     0
 10
66.392933383562422
 20
655.58707003579468
 30
0.0
  0
ENDBLK
  5
17C5
  8
0
  0
BLOCK
  8
0
  2
*D77
 70
     1
 10
0.0
 20
0.0
 30
0.0
  3
*D77
  1

  0
LINE
  5
1882
  8
DIM
 10
-15.70536596197166
 20
940.68610155852195
 30
0.0
 11
-15.70536596197166
 21
945.05165938372261
 31
0.0
  0
LINE
  5
1883
  8
DIM
 10
-95.705365961971424
 20
846.08307003579466
 30
0.0
 11
-95.705365961971424
 21
945.05165938372261
 31
0.0
  0
LINE
  5
1884
  8
DIM
 10
-18.705365961971658
 20
943.05165938372249
 30
0.0
 11
-92.705365961971438
 21
943.05165938372249
 31
0.0
  0
SOLID
  5
1885
  8
DIM
 10
-18.705365961971658
 20
943.55165938372261
 30
0.0
 11
-18.705365961971658
 21
942.55165938372261
 31
0.0
 12
-15.70536596197166
 22
943.05165938372249
 32
0.0
 13
-15.70536596197166
 23
943.05165938372249
 33
0.0
  0
SOLID
  5
1886
  8
DIM
 10
-92.705365961971438
 20
943.55165938372261
 30
0.0
 11
-92.705365961971438
 21
942.55165938372261
 31
0.0
 12
-95.705365961971424
 22
943.05165938372249
 32
0.0
 13
-95.705365961971424
 23
943.05165938372249
 33
0.0
  0
TEXT
  5
1887
  8
0
  6
BYBLOCK
 10
-58.133937390542982
 20
944.05165938372272
 30
0.0
 40
3.0
  1
80
  7
CHINESET
  0
POINT
  5
1888
  8
DEFPOINTS
 62
     0
 10
-15.70536596197166
 20
938.68610155852184
 30
0.0
  0
POINT
  5
1889
  8
DEFPOINTS
 62
     0
 10
-95.705365961971424
 20
844.08307003579455
 30
0.0
  0
POINT
  5
188A
  8
DEFPOINTS
 62
     0
 10
-95.705365961971424
 20
943.05165938372249
 30
0.0
  0
ENDBLK
  5
17D1
  8
0
  0
BLOCK
  8
0
  2
*D78
 70
     1
 10
0.0
 20
0.0
 30
0.0
  3
*D78
  1

  0
LINE
  5
182F
  8
DIM
 10
-170.30040491969899
 20
657.59667003579659
 30
0.0
 11
-170.30040491969899
 21
642.14097296623345
 31
0.0
  0
LINE
  5
1830
  8
DIM
 10
-162.2620049196959
 20
657.59667003579455
 30
0.0
 11
-162.2620049196959
 21
642.14097296623345
 31
0.0
  0
LINE
  5
1831
  8
DIM
 10
-167.30040491969899
 20
644.14097296623345
 30
0.0
 11
-165.2620049196959
 21
644.14097296623345
 31
0.0
  0
INSERT
  5
1832
  8
0
  6
BYBLOCK
  2
*U84
 10
0.0
 20
0.0
 30
0.0
  0
SOLID
  5
1833
  8
DIM
 10
-167.30040491969899
 20
644.64097296623345
 30
0.0
 11
-167.30040491969899
 21
643.64097296623345
 31
0.0
 12
-170.30040491969899
 22
644.14097296623345
 32
0.0
 13
-170.30040491969899
 23
644.14097296623345
 33
0.0
  0
SOLID
  5
1834
  8
DIM
 10
-165.2620049196959
 20
644.64097296623345
 30
0.0
 11
-165.2620049196959
 21
643.64097296623345
 31
0.0
 12
-162.2620049196959
 22
644.14097296623345
 32
0.0
 13
-162.2620049196959
 23
644.14097296623345
 33
0.0
  0
POINT
  5
1835
  8
DEFPOINTS
 62
     0
 10
-170.30040491969899
 20
659.59667003579659
 30
0.0
  0
POINT
  5
1836
  8
DEFPOINTS
 62
     0
 10
-162.2620049196959
 20
659.59667003579455
 30
0.0
  0
POINT
  5
1837
  8
DEFPOINTS
 62
     0
 10
-162.2620049196959
 20
644.14097296623345
 30
0.0
  0
ENDBLK
  5
1839
  8
0
  0
BLOCK
  8
0
  2
*D79
 70
     1
 10
0.0
 20
0.0
 30
0.0
  3
*D79
  1

  0
LINE
  5
183B
  8
DIM
 10
-209.28120491969591
 20
995.94966535150706
 30
0.0
 11
-209.28120491969591
 21
1092.4977819126991
 31
0.0
  0
LINE
  5
183C
  8
DIM
 10
-123.2812049196959
 20
995.94966535150706
 30
0.0
 11
-123.2812049196959
 21
1092.4977819126991
 31
0.0
  0
LINE
  5
183D
  8
DIM
 10
-206.28120491969591
 20
1090.4977819126991
 30
0.0
 11
-126.2812049196959
 21
1090.4977819126991
 31
0.0
  0
SOLID
  5
183E
  8
DIM
 10
-206.28120491969591
 20
1090.9977819126991
 30
0.0
 11
-206.28120491969591
 21
1089.9977819126991
 31
0.0
 12
-209.28120491969591
 22
1090.4977819126991
 32
0.0
 13
-209.28120491969591
 23
1090.4977819126991
 33
0.0
  0
SOLID
  5
183F
  8
DIM
 10
-126.2812049196959
 20
1090.9977819126991
 30
0.0
 11
-126.2812049196959
 21
1089.9977819126991
 31
0.0
 12
-123.2812049196959
 22
1090.4977819126991
 32
0.0
 13
-123.2812049196959
 23
1090.4977819126991
 33
0.0
  0
INSERT
  5
1840
  8
0
  6
BYBLOCK
  2
*U85
 10
0.0
 20
0.0
 30
0.0
  0
POINT
  5
1841
  8
DEFPOINTS
 62
     0
 10
-209.28120491969591
 20
993.94966535150706
 30
0.0
  0
POINT
  5
1842
  8
DEFPOINTS
 62
     0
 10
-123.2812049196959
 20
993.94966535150706
 30
0.0
  0
POINT
  5
1843
  8
DEFPOINTS
 62
     0
 10
-123.2812049196959
 20
1090.4977819126991
 30
0.0
  0
ENDBLK
  5
1845
  8
0
  0
BLOCK
  8
0
  2
*D80
 70
     1
 10
0.0
 20
0.0
 30
0.0
  3
*D80
  1

  0
LINE
  5
1847
  8
DIM
 10
-206.77979710218321
 20
1061.0872874143561
 30
0.0
 11
-206.77979710218321
 21
1082.116421229246
 31
0.0
  0
LINE
  5
1848
  8
DIM
 10
-126.7797971021832
 20
1061.0872874143561
 30
0.0
 11
-126.7797971021832
 21
1082.116421229246
 31
0.0
  0
LINE
  5
1849
  8
DIM
 10
-203.77979710218321
 20
1080.116421229246
 30
0.0
 11
-129.77979710218321
 21
1080.116421229246
 31
0.0
  0
SOLID
  5
184A
  8
DIM
 10
-203.77979710218321
 20
1080.616421229246
 30
0.0
 11
-203.77979710218321
 21
1079.616421229246
 31
0.0
 12
-206.77979710218321
 22
1080.116421229246
 32
0.0
 13
-206.77979710218321
 23
1080.116421229246
 33
0.0
  0
SOLID
  5
184B
  8
DIM
 10
-129.77979710218321
 20
1080.616421229246
 30
0.0
 11
-129.77979710218321
 21
1079.616421229246
 31
0.0
 12
-126.7797971021832
 22
1080.116421229246
 32
0.0
 13
-126.7797971021832
 23
1080.116421229246
 33
0.0
  0
TEXT
  5
184C
  8
0
  6
BYBLOCK
 10
-169.2083685307546
 20
1081.116421229246
 30
0.0
 40
3.0
  1
80
  7
CHINESET
  0
POINT
  5
184D
  8
DEFPOINTS
 62
     0
 10
-206.77979710218321
 20
1059.0872874143561
 30
0.0
  0
POINT
  5
184E
  8
DEFPOINTS
 62
     0
 10
-126.7797971021832
 20
1059.0872874143561
 30
0.0
  0
POINT
  5
184F
  8
DEFPOINTS
 62
     0
 10
-126.7797971021832
 20
1080.116421229246
 30
0.0
  0
ENDBLK
  5
1851
  8
0
  0
BLOCK
  8
0
  2
*D81
 70
     1
 10
0.0
 20
0.0
 30
0.0
  3
*D81
  1

  0
LINE
  5
1853
  8
DIM
 10
-196.77979710218321
 20
1063.9231161164239
 30
0.0
 11
-196.77979710218321
 21
1072.0930395451931
 31
0.0
  0
LINE
  5
1854
  8
DIM
 10
-136.77979710218321
 20
1063.9231161164239
 30
0.0
 11
-136.77979710218321
 21
1072.0930395451931
 31
0.0
  0
LINE
  5
1855
  8
DIM
 10
-193.77979710218321
 20
1070.0930395451931
 30
0.0
 11
-139.77979710218321
 21
1070.0930395451931
 31
0.0
  0
SOLID
  5
1856
  8
DIM
 10
-193.77979710218321
 20
1070.5930395451931
 30
0.0
 11
-193.77979710218321
 21
1069.5930395451931
 31
0.0
 12
-196.77979710218321
 22
1070.0930395451931
 32
0.0
 13
-196.77979710218321
 23
1070.0930395451931
 33
0.0
  0
SOLID
  5
1857
  8
DIM
 10
-139.77979710218321
 20
1070.5930395451931
 30
0.0
 11
-139.77979710218321
 21
1069.5930395451931
 31
0.0
 12
-136.77979710218321
 22
1070.0930395451931
 32
0.0
 13
-136.77979710218321
 23
1070.0930395451931
 33
0.0
  0
TEXT
  5
1858
  8
0
  6
BYBLOCK
 10
-169.2083685307546
 20
1071.0930395451931
 30
0.0
 40
3.0
  1
60
  7
CHINESET
  0
POINT
  5
1859
  8
DEFPOINTS
 62
     0
 10
-196.77979710218321
 20
1061.9231161164239
 30
0.0
  0
POINT
  5
185A
  8
DEFPOINTS
 62
     0
 10
-136.77979710218321
 20
1061.9231161164239
 30
0.0
  0
POINT
  5
185B
  8
DEFPOINTS
 62
     0
 10
-136.77979710218321
 20
1070.0930395451931
 30
0.0
  0
ENDBLK
  5
185D
  8
0
  0
BLOCK
  8
0
  2
*D82
 70
     1
 10
0.0
 20
0.0
 30
0.0
  3
*D82
  1

  0
LINE
  5
188C
  8
DIM
 10
-134.28120491969591
 20
881.37767348293744
 30
0.0
 11
-111.2652520024109
 21
881.37767348293744
 31
0.0
  0
LINE
  5
188D
  8
DIM
 10
-121.7812049196958
 20
851.583070035795
 30
0.0
 11
-111.2652520024109
 21
851.583070035795
 31
0.0
  0
LINE
  5
188E
  8
DIM
 10
-113.2652520024109
 20
878.37767348293733
 30
0.0
 11
-113.2652520024109
 21
854.58307003579489
 31
0.0
  0
SOLID
  5
188F
  8
DIM
 10
-113.7652520024109
 20
878.37767348293733
 30
0.0
 11
-112.7652520024109
 21
878.37767348293733
 31
0.0
 12
-113.2652520024109
 22
881.37767348293744
 32
0.0
 13
-113.2652520024109
 23
881.37767348293744
 33
0.0
  0
SOLID
  5
1890
  8
DIM
 10
-113.7652520024109
 20
854.58307003579489
 30
0.0
 11
-112.7652520024109
 21
854.58307003579489
 31
0.0
 12
-113.2652520024109
 22
851.583070035795
 32
0.0
 13
-113.2652520024109
 23
851.583070035795
 33
0.0
  0
TEXT
  5
1891
  8
0
  6
BYBLOCK
 10
-114.2652520024111
 20
860.55180033079466
 30
0.0
 40
3.0
  1
29.79
 50
90.0
  7
CHINESET
  0
POINT
  5
1892
  8
DEFPOINTS
 62
     0
 10
-136.28120491969591
 20
881.37767348293744
 30
0.0
  0
POINT
  5
1893
  8
DEFPOINTS
 62
     0
 10
-123.7812049196958
 20
851.583070035795
 30
0.0
  0
POINT
  5
1894
  8
DEFPOINTS
 62
     0
 10
-113.2652520024109
 20
851.583070035795
 30
0.0
  0
ENDBLK
  5
1896
  8
0
  0
BLOCK
  8
0
  2
*D83
 70
     1
 10
0.0
 20
0.0
 30
0.0
  3
*D83
  1

  0
LINE
  5
18A1
  8
DIM
 10
-124.7797971021832
 20
1059.0872874143561
 30
0.0
 11
-106.4678100871887
 21
1059.0872874143561
 31
0.0
  0
LINE
  5
18A2
  8
DIM
 10
-128.77979710218321
 20
1019.087287414356
 30
0.0
 11
-106.46781008718879
 21
1019.087287414356
 31
0.0
  0
LINE
  5
18A3
  8
DIM
 10
-108.4678100871887
 20
1056.0872874143561
 30
0.0
 11
-108.46781008718879
 21
1022.087287414356
 31
0.0
  0
SOLID
  5
18A4
  8
DIM
 10
-108.9678100871887
 20
1056.0872874143561
 30
0.0
 11
-107.9678100871887
 21
1056.0872874143561
 31
0.0
 12
-108.4678100871887
 22
1059.0872874143561
 32
0.0
 13
-108.4678100871887
 23
1059.0872874143561
 33
0.0
  0
SOLID
  5
18A5
  8
DIM
 10
-108.96781008718879
 20
1022.087287414356
 30
0.0
 11
-107.96781008718879
 21
1022.087287414356
 31
0.0
 12
-108.46781008718879
 22
1019.087287414356
 32
0.0
 13
-108.46781008718879
 23
1019.087287414356
 33
0.0
  0
TEXT
  5
18A6
  8
0
  6
BYBLOCK
 10
-109.46781008718889
 20
1036.658715985785
 30
0.0
 40
3.0
  1
40
 50
90.0
  7
CHINESET
  0
POINT
  5
18A7
  8
DEFPOINTS
 62
     0
 10
-126.7797971021832
 20
1059.0872874143561
 30
0.0
  0
POINT
  5
18A8
  8
DEFPOINTS
 62
     0
 10
-130.77979710218321
 20
1019.087287414356
 30
0.0
  0
POINT
  5
18A9
  8
DEFPOINTS
 62
     0
 10
-108.46781008718879
 20
1019.087287414356
 30
0.0
  0
ENDBLK
  5
18AB
  8
0
  0
BLOCK
  8
0
  2
*U84
 70
     1
 10
0.0
 20
0.0
 30
0.0
  3
*U84
  1

  0
TEXT
  5
18EA
  8
0
  6
BYBLOCK
 10
-175.13834777684031
 20
634.64097296623345
 30
0.0
 40
3.0
  1
\U+2205
  7
CHINESET
  0
TEXT
  5
18EB
  8
0
  6
BYBLOCK
 10
-172.42406206255461
 20
634.64097296623345
 30
0.0
 40
3.0
  1
6-排水口
  7
CHINESET
  0
ENDBLK
  5
18ED
  8
0
  0
BLOCK
  8
0
  2
*U85
 70
     1
 10
0.0
 20
0.0
 30
0.0
  3
*U85
  1

  0
TEXT
  5
18EF
  8
0
  6
BYBLOCK
 10
-169.9954906339816
 20
1091.4977819126991
 30
0.0
 40
3.0
  1
\U+2205
  7
CHINESET
  0
TEXT
  5
18F0
  8
0
  6
BYBLOCK
 10
-167.28120491969591
 20
1091.4977819126991
 30
0.0
 40
3.0
  1
86
  7
CHINESET
  0
ENDBLK
  5
18F2
  8
0
  0
ENDSEC
  0
SECTION
  2
ENTITIES
  0
LINE
  5
20
  8
CENTER
  6
CENTER
 10
-193.09785132806061
 20
932.083070035795
 30
0.0
 11
-140.07789648160079
 21
932.083070035795
 31
0.0
  0
DIMENSION
  5
23
  8
DIM
  2
*D78
 10
-162.2620049196959
 20
644.14097296623345
 30
0.0
 11
-166.2812049196975
 21
636.14097296623345
 31
0.0
 70
     0
  1
%%c6-排水口
 13
-170.30040491969899
 23
659.59667003579659
 33
0.0
 14
-162.2620049196959
 24
659.59667003579455
 34
0.0
1001
ACAD
1000
DSTYLE
1002
{
1070
   340
1005
24
1002
}
  0
POLYLINE
  5
33
  8
0
 62
     4
 66
     1
 10
0.0
 20
0.0
 30
0.0
 70
     1
  0
VERTEX
  5
18BF
  8
0
 62
     4
 10
89.341226535625097
 20
620.43705499628766
 30
0.0
  0
VERTEX
  5
18C0
  8
0
 62
     4
 10
-241.02701869690549
 20
620.43705499628766
 30
0.0
  0
VERTEX
  5
18C1
  8
0
 62
     4
 10
-241.02701869690549
 20
1107.366485185431
 30
0.0
  0
VERTEX
  5
18C2
  8
0
 62
     4
 10
89.341226535625097
 20
1107.366485185431
 30
0.0
  0
SEQEND
  5
18C3
  8
0
 62
     4
  0
DIMENSION
  5
34
  8
DIM
  2
*D79
 10
-123.2812049196959
 20
1090.4977819126991
 30
0.0
 11
-166.28120491969591
 21
1092.9977819126991
 31
0.0
 70
     0
  1
%%C<>
 13
-209.28120491969591
 23
993.94966535150706
 33
0.0
 14
-123.2812049196959
 24
993.94966535150706
 34
0.0
  0
CIRCLE
  5
41
  8
0
 10
-166.28120491969591
 20
993.94966535150706
 30
0.0
 40
43.0
  0
DIMENSION
  5
42
  8
DIM
  2
*D80
 10
-126.7797971021832
 20
1080.116421229246
 30
0.0
 11
-166.77979710218321
 21
1082.616421229246
 31
0.0
 70
     0
 13
-206.77979710218321
 23
1059.0872874143561
 33
0.0
 14
-126.7797971021832
 24
1059.0872874143561
 34
0.0
  0
DIMENSION
  5
4F
  8
DIM
  2
*D81
 10
-136.77979710218321
 20
1070.0930395451931
 30
0.0
 11
-166.77979710218321
 21
1072.5930395451931
 31
0.0
 70
     0
 13
-196.77979710218321
 23
1061.9231161164239
 33
0.0
 14
-136.77979710218321
 24
1061.9231161164239
 34
0.0
  0
LINE
  5
5C
  8
0
 10
-190.2812049196958
 20
991.44966535150706
 30
0.0
 11
-142.28120491969571
 21
991.44966535150718
 31
0.0
  0
LINE
  5
5D
  8
0
 10
-190.2812049196958
 20
996.44966535150695
 30
0.0
 11
-142.2812049196958
 21
996.44966535150695
 31
0.0
  0
LINE
  5
5E
  8
CENTER
  6
CENTER
 10
-213.23208119753849
 20
993.94966535150706
 30
0.0
 11
-118.57838109799209
 21
993.94966535150706
 31
0.0
  0
LINE
  5
5F
  8
0
 10
-195.2812049196958
 20
851.583070035795
 30
0.0
 11
-137.2812049196958
 21
851.583070035795
 31
0.0
  0
LINE
  5
60
  8
0
 10
-196.28120491969591
 20
881.37767348293744
 30
0.0
 11
-188.13165463243391
 21
881.37767348293744
 31
0.0
  0
LINE
  5
61
  8
0
 10
-206.77979710218321
 20
1056.0872874143561
 30
0.0
 11
-126.7797971021832
 21
1056.0872874143561
 31
0.0
  0
LINE
  5
62
  8
0
 10
-206.77979710218321
 20
1059.0872874143561
 30
0.0
 11
-126.7797971021832
 21
1059.0872874143561
 31
0.0
  0
LINE
  5
63
  8
0
 10
-176.81720491969571
 20
679.58307003579455
 30
0.0
 11
-155.74520491969579
 21
679.58307003579455
 31
0.0
  0
LINE
  5
64
  8
CENTER
  6
CENTER
 10
-175.96347241826149
 20
670.64947003579459
 30
0.0
 11
-156.60412956390701
 21
670.64947003579459
 31
0.0
  0
CIRCLE
  5
65
  8
0
 10
-166.28120491969571
 20
670.64947003579459
 30
0.0
 40
3.2153599999999738
  0
LINE
  5
66
  8
0
 10
-173.41528491969569
 20
663.6158700357945
 30
0.0
 11
-159.14712491969561
 21
663.6158700357945
 31
0.0
  0
CIRCLE
  5
67
  8
0
 10
-166.28120491969571
 20
670.64947003579459
 30
0.0
 40
5.5263999999999847
  0
LINE
  5
68
  8
0
 10
-169.2956049196959
 20
660.60147003579812
 30
0.0
 11
-163.26680491969589
 21
660.60147003579277
 31
0.0
  0
LINE
  5
69
  8
0
 10
-170.30040491969879
 20
659.59667003579659
 30
0.0
 11
-162.26200491969749
 21
659.59667003579659
 31
0.0
  0
LINE
  5
6A
  8
0
 10
-169.2956049196959
 20
657.58707003579445
 30
0.0
 11
-163.26680491969589
 21
657.58707003579445
 31
0.0
  0
CIRCLE
  5
6B
  8
0
 62
     7
 10
-166.2812049196958
 20
824.583070035795
 30
0.0
 40
5.7000000000000011
  0
CIRCLE
  5
6C
  8
0
 62
     7
 10
-166.2812049196958
 20
824.583070035795
 30
0.0
 40
6.7000000000000002
  0
LINE
  5
6D
  8
CENTER
  6
CENTER
 10
-181.52370497001939
 20
824.583070035795
 30
0.0
 11
-149.28257781393671
 21
824.583070035795
 31
0.0
  0
LINE
  5
6E
  8
0
 62
     7
 10
-209.28120757059509
 20
836.583070035795
 30
0.0
 11
-123.2812049196957
 21
836.583070035795
 31
0.0
  0
LINE
  5
6F
  8
0
 62
     7
 10
-209.7812049196956
 20
841.583070035795
 30
0.0
 11
-122.7812049196957
 21
841.583070035795
 31
0.0
  0
LINE
  5
70
  8
0
 62
     7
 10
-178.7812049196958
 20
802.58307003579478
 30
0.0
 11
-153.7812049196958
 21
802.58307003579444
 31
0.0
  0
LINE
  5
71
  8
0
 62
     7
 10
-208.7812049196958
 20
842.583070035795
 30
0.0
 11
-123.7812049196958
 21
842.583070035795
 31
0.0
  0
LINE
  5
72
  8
0
 62
     7
 10
-205.28120491969571
 20
807.58307003579512
 30
0.0
 11
-127.2812018699408
 21
807.58307003579512
 31
0.0
  0
LINE
  5
73
  8
0
 10
-161.2812049196958
 20
925.583070035795
 30
0.0
 11
-171.2812049196958
 21
925.583070035795
 31
0.0
  0
ARC
  5
74
  8
0
 10
-166.2812049196958
 20
928.99973670246175
 30
0.0
 40
9.0833333333333162
 50
56.601511532012687
 51
123.39848846798731
  0
LINE
  5
75
  8
0
 10
-161.2812049196958
 20
936.583070035795
 30
0.0
 11
-171.2812049196958
 21
936.583070035795
 31
0.0
  0
LINE
  5
76
  8
0
 10
-171.2812049196958
 20
912.58307003579489
 30
0.0
 11
-166.28120491969591
 21
912.58307003579489
 31
0.0
  0
LINE
  5
77
  8
0
 10
-161.2812049196958
 20
927.583070035795
 30
0.0
 11
-171.2812049196958
 21
927.583070035795
 31
0.0
  0
INSERT
  5
78
  8
0
  6
CONTINUOUS
  2
*X71
 10
0.0
 20
0.0
 30
0.0
1001
ACAD
1000
HATCH
1002
{
1070
    19
1000
ANSI37
1040
0.2
1040
0.0
1000
R14_HATCH_DATA
1000
78
1011
1.0
1021
0.0
1031
0.0
1021
0.0
1031
0.0
1011
0.0
1021
0.0
1031
0.0
1021
1.0
1031
0.0
1011
0.0
1021
0.0
1031
0.0
1021
0.0
1031
1.0
1040
0.0
1010
0.0
1020
0.0
1030
1.0
1000
ANSI37
1070
     0
1070
     0
1071
        1
1071
        7
1070
     0
1070
     1
1071
        4
1040
-161.2812049196958
1040
934.583070035795
1040
-171.2812049196958
1040
934.583070035795
1040
-171.2812049196958
1040
929.58307003579489
1040
-161.2812049196958
1040
929.58307003579489
1071
        0
1070
     0
1070
     1
1040
0.0
1040
0.2
1070
     0
1070
     2
1040
0.7853981633974483
1040
-339.41236671133271
1040
676.34877362615612
1040
-0.4490128060534576
1040
0.4490128060534577
1070
     0
1040
2.3561944901923439
1040
-339.41236671133271
1040
676.34877362615612
1040
-0.4490128060534577
1040
-0.4490128060534576
1070
     0
1040
0.1363548444505158
1071
        2
1040
-339.41236671133271
1040
676.34877362615612
1040
0.0
1040
-170.02832417003111
1040
931.64865701554095
1040
0.0
1002
}
  0
LINE
  5
79
  8
0
 10
-142.2812049196958
 20
934.583070035795
 30
0.0
 11
-190.2812049196958
 21
934.583070035795
 31
0.0
  0
LINE
  5
7A
  8
0
 10
-190.2812049196958
 20
929.58307003579489
 30
0.0
 11
-142.2812049196958
 21
929.58307003579489
 31
0.0
  0
LINE
  5
7B
  8
0
 10
-177.7812049196958
 20
912.58307003579489
 30
0.0
 11
-154.7812049196958
 21
912.58307003579489
 31
0.0
  0
LINE
  5
7C
  8
0
 10
-190.2812049196958
 20
855.58307003579489
 30
0.0
 11
-142.2812049196958
 21
855.58307003579489
 31
0.0
  0
LINE
  5
7D
  8
0
 10
-209.2812049196958
 20
842.583070035795
 30
0.0
 11
-123.2812049196958
 21
842.583070035795
 31
0.0
  0
LINE
  5
7E
  8
0
 10
-166.2812049196958
 20
800.34823247548547
 30
0.0
 11
-175.2812049196958
 21
797.58307003579455
 31
0.0
  0
LINE
  5
7F
  8
0
 10
-206.2812049196958
 20
802.58307003579455
 30
0.0
 11
-126.2812049196958
 21
802.58307003579455
 31
0.0
  0
LINE
  5
80
  8
0
 10
-206.2812049196958
 20
789.28349730040554
 30
0.0
 11
-126.2812049196958
 21
789.28349730040554
 31
0.0
  0
LINE
  5
81
  8
0
 10
-206.2812049196958
 20
789.28349730040554
 30
0.0
 11
-156.2812049196958
 21
789.28349730040554
 31
0.0
  0
LINE
  5
82
  8
0
 10
-175.2812049196958
 20
797.58307003579455
 30
0.0
 11
-157.2812049196958
 21
797.58307003579455
 31
0.0
  0
LINE
  5
83
  8
0
 10
-183.16314793582981
 20
680.58307003579466
 30
0.0
 11
-149.39926190356161
 21
680.58307003579466
 31
0.0
  0
CIRCLE
  5
84
  8
0
 10
-166.28120491969591
 20
993.94966535150706
 30
0.0
 40
27.5
  0
CIRCLE
  5
85
  8
0
 10
-166.28120491969591
 20
993.94966535150706
 30
0.0
 40
19.0
  0
CIRCLE
  5
86
  8
0
 10
-166.28120491969591
 20
957.94966535150695
 30
0.0
 40
2.5
  0
CIRCLE
  5
87
  8
0
 10
-166.28120491969591
 20
1029.9496653515071
 30
0.0
 40
2.5
  0
CIRCLE
  5
88
  8
CENTER
  6
CENTER
 10
-166.28120491969591
 20
993.94966535150706
 30
0.0
 40
36.0
  0
LINE
  5
9A2
  8
0
 10
-194.2812049196958
 20
772.58307003579455
 30
0.0
 11
-194.2812049196958
 21
704.58307003579455
 31
0.0
  0
LINE
  5
9A3
  8
0
 10
-180.2812049196958
 20
772.58307003579455
 30
0.0
 11
-180.2812049196958
 21
704.58307003579455
 31
0.0
  0
LINE
  5
9A4
  8
0
 10
-192.7812049196958
 20
772.58307003579455
 30
0.0
 11
-192.7812049196958
 21
704.58307003579455
 31
0.0
  0
LINE
  5
9A5
  8
0
 10
-197.2812049196958
 20
706.58307003579455
 30
0.0
 11
-198.0312049196958
 21
784.18221550657279
 31
0.0
  0
LINE
  5
9A6
  8
0
 10
-169.2956049196959
 20
663.6158700357945
 30
0.0
 11
-169.2956049196959
 21
660.60147003579914
 31
0.0
  0
LINE
  5
9A7
  8
0
 10
-169.2956049196959
 20
657.85630538434611
 30
0.0
 11
-169.2956049196959
 21
657.58707003579445
 31
0.0
  0
LINE
  5
9A8
  8
0
 10
-170.30040491969791
 20
659.59667003579455
 30
0.0
 11
-169.2956049196959
 21
657.85630538434611
 31
0.0
  0
ARC
  5
9A9
  8
0
 10
-169.2956049196959
 20
659.59667003579455
 30
0.0
 40
1.0047999999999999
 50
90.0
 51
180.0
  0
ARC
  5
9AA
  8
0
 10
-166.2812049196958
 20
706.58307003579455
 30
0.0
 40
31.0
 50
180.0
 51
237.00411452642041
  0
LINE
  5
9AB
  8
0
 10
-176.81720491969571
 20
680.58307003579466
 30
0.0
 11
-176.81720491969571
 21
679.58307003579455
 31
0.0
  0
ARC
  5
9AC
  8
0
 10
-173.41528491969569
 20
664.01779003579463
 30
0.0
 40
0.4019200000000001
 50
180.0
 51
270.0
  0
LINE
  5
9AD
  8
0
 10
-173.81720491969571
 20
679.58307003579455
 30
0.0
 11
-173.81720491969571
 21
664.01779003579463
 31
0.0
  0
ARC
  5
9AE
  8
0
 10
-187.2812049196958
 20
704.58307003579455
 30
0.0
 40
7.0
 50
180.0
 51
0.0
  0
ARC
  5
9AF
  8
0
 10
-186.06372001634841
 20
704.20037960271043
 30
0.0
 40
6.7283768766526313
 50
176.7394237284004
 51
259.57502944633751
  0
LINE
  5
9B0
  8
0
 10
-206.28120491969591
 20
871.37767348293755
 30
0.0
 11
-206.28120491969591
 21
851.37767348293744
 31
0.0
  0
LINE
  5
9B1
  8
0
 10
-186.3576177963746
 20
902.6661155156487
 30
0.0
 11
-190.2812049196958
 21
855.58307003579489
 31
0.0
  0
LINE
  5
9B2
  8
0
 62
     7
 10
-203.28120491969571
 20
836.583070035795
 30
0.0
 11
-202.26850260443501
 21
807.58307003579512
 31
0.0
  0
LINE
  5
9B3
  8
0
 62
     7
 10
-178.74750286748369
 20
835.61796953249745
 30
0.0
 11
-177.76850260443501
 21
807.58307003579512
 31
0.0
  0
ARC
  5
9B4
  8
0
 62
     7
 10
-205.28120491969571
 20
808.58307003579489
 30
0.0
 40
1.0
 50
180.0
 51
270.0
  0
LINE
  5
9B5
  8
0
 62
     7
 10
-203.68120491969569
 20
802.58307003579523
 30
0.0
 11
-201.72253656575199
 21
802.58307003579523
 31
0.0
  0
ARC
  5
9B6
  8
0
 10
-203.2812049196958
 20
790.28349730040543
 30
0.0
 40
1.0
 50
270.0
 51
0.0000000000004198
  0
LINE
  5
9B7
  8
0
 10
-205.62294798278251
 20
788.34370387691695
 30
0.0
 11
-199.3477187935224
 21
786.06180235354975
 31
0.0
  0
LINE
  5
9B8
  8
0
 10
-206.2812049196958
 20
789.28349730040554
 30
0.0
 11
-206.2812049196958
 21
802.58307003579455
 31
0.0
  0
ARC
  5
9B9
  8
0
 10
-205.2812049196958
 20
789.28349730040554
 30
0.0
 40
1.0
 50
180.0
 51
250.0168934781002
  0
ARC
  5
9BA
  8
0
 10
-187.2812049196958
 20
772.58307003579455
 30
0.0
 40
7.0
 50
0.0
 51
180.0
  0
ARC
  5
9BB
  8
0
 10
-182.68662929212911
 20
770.31233204270654
 30
0.0
 40
10.34682116081626
 50
116.3630047583348
 51
167.32254206692741
  0
LINE
  5
9BC
  8
0
 62
     7
 10
-201.72253656575199
 20
802.58307003579523
 30
0.0
 11
-197.6812049196956
 21
802.58307003579523
 31
0.0
  0
LINE
  5
9BD
  8
0
 62
     7
 10
-201.2812049196958
 20
807.58307003579512
 30
0.0
 11
-201.2812049196958
 21
802.58307003579523
 31
0.0
  0
ARC
  5
9BF
  8
0
 10
-200.0312049196958
 20
784.18221550657279
 30
0.0
 40
2.0
 50
0.0
 51
70.016893478100371
  0
ARC
  5
9C0
  8
0
 10
-187.7812049196958
 20
797.08307003579466
 30
0.0
 40
0.5
 50
359.99999999999972
 51
90.000000000000725
  0
ARC
  5
9C1
  8
0
 10
-186.2812049196958
 20
790.28349730040543
 30
0.0
 40
1.0
 50
180.0
 51
270.0
  0
LINE
  5
9C2
  8
0
 10
-187.2812049196958
 20
790.28349730040543
 30
0.0
 11
-187.2812049196958
 21
797.08307003579466
 31
0.0
  0
ARC
  5
9C3
  8
0
 10
-191.78120491969571
 20
797.08307003579455
 30
0.0
 40
0.5
 50
90.000000000000327
 51
180.0
  0
ARC
  5
9C4
  8
0
 10
-193.2812049196958
 20
790.28349730040543
 30
0.0
 40
1.0
 50
270.0
 51
0.0
  0
LINE
  5
9C5
  8
0
 10
-192.2812049196958
 20
790.28349730040543
 30
0.0
 11
-192.28120491969571
 21
797.08307003579455
 31
0.0
  0
LINE
  5
9C6
  8
0
 10
-191.78120491969571
 20
797.58307003579455
 30
0.0
 11
-187.7812049196958
 21
797.58307003579455
 31
0.0
  0
ARC
  5
9C7
  8
0
 10
-201.7812049196958
 20
797.08307003579466
 30
0.0
 40
0.5
 50
90.000000000000355
 51
180.0000000000002
  0
LINE
  5
9C8
  8
0
 10
-201.7812049196958
 20
797.58307003579455
 30
0.0
 11
-197.7812049196958
 21
797.58307003579455
 31
0.0
  0
LINE
  5
9C9
  8
0
 10
-202.2812049196958
 20
790.28349730040543
 30
0.0
 11
-202.2812049196958
 21
797.08307003579466
 31
0.0
  0
LINE
  5
9CA
  8
0
 10
-197.28120491969571
 20
790.28349730040543
 30
0.0
 11
-197.2812049196958
 21
797.08307003579466
 31
0.0
  0
ARC
  5
9CB
  8
0
 10
-197.7812049196958
 20
797.08307003579466
 30
0.0
 40
0.5
 50
0.0000000000002036
 51
90.0
  0
ARC
  5
9CC
  8
0
 10
-196.28120491969571
 20
790.28349730040543
 30
0.0
 40
1.0
 50
180.0
 51
270.0
  0
ARC
  5
9CF
  8
0
 10
-177.7812049196958
 20
797.08307003579466
 30
0.0
 40
0.5
 50
0.0000000000002036
 51
90.0
  0
ARC
  5
9D0
  8
0
 10
-176.28120491969571
 20
790.28349730040543
 30
0.0
 40
1.0
 50
180.0
 51
270.0
  0
LINE
  5
9D1
  8
0
 10
-177.28120491969571
 20
790.28349730040543
 30
0.0
 11
-177.2812049196958
 21
797.08307003579466
 31
0.0
  0
LINE
  5
9D2
  8
0
 10
-177.28120491969571
 20
790.28349730040543
 30
0.0
 11
-177.2812049196958
 21
802.58307003579455
 31
0.0
  0
ARC
  5
9D3
  8
0
 10
-181.78120491969571
 20
797.08307003579466
 30
0.0
 40
0.5
 50
90.0
 51
180.0
  0
ARC
  5
9D4
  8
0
 10
-183.2812049196958
 20
790.28349730040543
 30
0.0
 40
1.0
 50
270.0
 51
0.0
  0
LINE
  5
9D5
  8
0
 10
-182.2812049196958
 20
790.28349730040543
 30
0.0
 11
-182.2812049196956
 21
797.08307003579466
 31
0.0
  0
LINE
  5
9D6
  8
0
 10
-181.78120491969571
 20
797.58307003579455
 30
0.0
 11
-177.7812049196958
 21
797.58307003579455
 31
0.0
  0
LINE
  5
9D7
  8
0
 10
-206.28120491969591
 20
854.37767348293755
 30
0.0
 11
-191.78795061076789
 21
854.37767348293755
 31
0.0
  0
LINE
  5
9D8
  8
CENTER
  6
CENTER
 10
-189.07256757175759
 20
822.58307003579489
 30
0.0
 11
-208.85113147762519
 21
822.58307003579489
 31
0.0
  0
LINE
  5
9D9
  8
0
 10
-208.7812049196958
 20
851.583070035795
 30
0.0
 11
-195.2812049196958
 21
851.583070035795
 31
0.0
  0
LINE
  5
9DA
  8
0
 62
     7
 10
-206.2812049196958
 20
835.583070035795
 30
0.0
 11
-206.2812049196958
 21
808.583070035795
 31
0.0
  0
ARC
  5
9DD
  8
0
 62
     7
 10
-207.28120491969571
 20
835.583070035795
 30
0.0
 40
1.0
 50
0.0
 51
90.0
  0
LINE
  5
9DE
  8
0
 62
     7
 10
-209.7812049196956
 20
841.583070035795
 30
0.0
 11
-209.7812049196956
 21
837.083070035795
 31
0.0
  0
ARC
  5
9DF
  8
0
 62
     7
 10
-209.2812049196958
 20
837.083070035795
 30
0.0
 40
0.5
 50
179.99999999999969
 51
270.0
  0
LINE
  5
9E0
  8
0
 62
     7
 10
-208.7812049196958
 20
842.583070035795
 30
0.0
 11
-209.7812049196956
 21
841.583070035795
 31
0.0
  0
ARC
  5
9E1
  8
0
 10
-208.7812049196958
 20
851.08307003579489
 30
0.0
 40
0.5
 50
90.000000000000114
 51
180.0
  0
LINE
  5
9E2
  8
0
 10
-209.2812049196958
 20
851.08307003579489
 30
0.0
 11
-209.2812049196958
 21
842.583070035795
 31
0.0
  0
LINE
  5
9E3
  8
0
 10
-194.56547616715781
 20
854.37767348293755
 30
0.0
 11
-194.56547616715781
 21
852.15565303782546
 31
0.0
  0
LINE
  5
9E4
  8
0
 10
-190.2812049196958
 20
855.58307003579489
 30
0.0
 11
-195.2812049196958
 21
851.583070035795
 31
0.0
  0
ARC
  5
9E6
  8
0
 62
     7
 10
-179.7468936945028
 20
835.583070035795
 30
0.0
 40
1.0
 50
2.000000000000028
 51
89.999999999999986
  0
LINE
  5
9E7
  8
0
 10
-178.78120491969591
 20
904.58307003579489
 30
0.0
 11
-178.7812049196958
 21
911.583070035795
 31
0.0
  0
ARC
  5
9E8
  8
0
 10
-196.28120491969591
 20
871.37767348293755
 30
0.0
 40
10.0
 50
90.0
 51
180.0
  0
LINE
  5
9E9
  8
CENTER
  6
CENTER
 10
-196.28120491969591
 20
873.37767348293744
 30
0.0
 11
-196.28120491969591
 21
876.87767348293755
 31
0.0
  0
LINE
  5
9EA
  8
CENTER
  6
CENTER
 10
-196.28120491969591
 20
869.37767348293733
 30
0.0
 11
-196.28120491969591
 21
865.87767348293733
 31
0.0
  0
LINE
  5
9EB
  8
CENTER
  6
CENTER
 10
-194.28120491969591
 20
871.37767348293755
 30
0.0
 11
-190.78120491969591
 21
871.37767348293755
 31
0.0
  0
LINE
  5
9EC
  8
CENTER
  6
CENTER
 10
-198.28120491969591
 20
871.37767348293755
 30
0.0
 11
-201.78120491969591
 21
871.37767348293755
 31
0.0
  0
LINE
  5
9ED
  8
CENTER
  6
CENTER
 10
-196.28120491969591
 20
870.37767348293733
 30
0.0
 11
-196.28120491969591
 21
872.37767348293755
 31
0.0
  0
LINE
  5
9EE
  8
CENTER
  6
CENTER
 10
-197.28120491969591
 20
871.37767348293755
 30
0.0
 11
-195.28120491969591
 21
871.37767348293755
 31
0.0
  0
CIRCLE
  5
9EF
  8
0
 10
-196.28120491969591
 20
871.37767348293755
 30
0.0
 40
4.5
  0
LINE
  5
9F0
  8
0
 10
-185.36107203812981
 20
903.583070035795
 30
0.0
 11
-179.78120491969591
 21
903.583070035795
 31
0.0
  0
ARC
  5
9F1
  8
0
 10
-185.36107203812981
 20
902.583070035795
 30
0.0
 40
1.0
 50
90.0
 51
175.2363583092737
  0
ARC
  5
9F2
  8
0
 10
-179.78120491969591
 20
904.58307003579489
 30
0.0
 40
1.0
 50
270.0
 51
359.9999999999996
  0
LINE
  5
9F3
  8
0
 10
-171.2812049196958
 20
936.583070035795
 30
0.0
 11
-171.2812049196958
 21
927.583070035795
 31
0.0
  0
ARC
  5
9F4
  8
0
 10
-187.6562049196958
 20
932.083070035795
 30
0.0
 40
3.62499999999998
 50
136.397181027296
 51
223.6028189727032
  0
LINE
  5
9F5
  8
0
 10
-190.2812049196958
 20
934.583070035795
 30
0.0
 11
-190.2812049196958
 21
929.58307003579489
 31
0.0
  0
LINE
  5
9F6
  8
0
 10
-171.2812049196958
 20
929.58307003579489
 30
0.0
 11
-171.2812049196958
 21
934.583070035795
 31
0.0
  0
LINE
  5
9F7
  8
0
 10
-171.2812049196958
 20
925.583070035795
 30
0.0
 11
-171.2812049196958
 21
912.58307003579489
 31
0.0
  0
LINE
  5
9F8
  8
0
 10
-170.7812049196958
 20
927.583070035795
 30
0.0
 11
-170.78120491969591
 21
912.58307003579489
 31
0.0
  0
ARC
  5
9F9
  8
0
 10
-177.7812049196958
 20
911.583070035795
 30
0.0
 40
1.0
 50
90.0
 51
179.9999999999998
  0
LINE
  5
9FB
  8
0
 10
-206.77979710218321
 20
1059.0872874143561
 30
0.0
 11
-206.77979710218321
 21
1023.087287414356
 31
0.0
  0
CIRCLE
  5
9FC
  8
0
 10
-197.4581194559357
 20
975.94966535150695
 30
0.0
 40
2.5
  0
ARC
  5
9FD
  8
0
 10
-187.6562049196958
 20
993.94966535150706
 30
0.0
 40
3.625
 50
136.39718102729631
 51
223.60281897270349
  0
LINE
  5
9FE
  8
0
 10
-190.2812049196958
 20
996.44966535150695
 30
0.0
 11
-190.2812049196958
 21
991.44966535150706
 31
0.0
  0
LINE
  5
9FF
  8
0
 10
-202.77979710218321
 20
1019.087287414356
 30
0.0
 11
-201.78261273720861
 21
1019.087287414356
 31
0.0
  0
ARC
  5
A00
  8
0
 10
-202.77979710218321
 20
1023.087287414356
 30
0.0
 40
4.0
 50
180.0
 51
270.00000000000011
  0
CIRCLE
  5
A01
  8
0
 10
-197.4581194559357
 20
1011.949665351507
 30
0.0
 40
2.5
  0
LINE
  5
A02
  8
HIDDEN
  6
HIDDEN
 10
-201.27979710218321
 20
1059.0872874143561
 30
0.0
 11
-201.27979710218321
 21
1056.0872874143561
 31
0.0
  0
LINE
  5
A03
  8
HIDDEN
  6
HIDDEN
 10
-192.27979710218321
 20
1059.0872874143561
 30
0.0
 11
-192.27979710218321
 21
1056.0872874143561
 31
0.0
  0
LINE
  5
A04
  8
CENTER
  6
CENTER
 10
-196.77979710218321
 20
1061.9231161164239
 30
0.0
 11
-196.77979710218321
 21
1052.3693099278
 31
0.0
  0
LINE
  5
DE0
  8
CENTER
  6
CENTER
 10
-166.2812049196958
 20
1060.703673698197
 30
0.0
 11
-166.28120491969591
 21
654.37387393205597
 31
0.0
  0
DIMENSION
  5
DE1
  8
DIM
  2
*D76
 10
66.392933383562422
 20
655.58707003579468
 30
0.0
 11
63.89293338356233
 21
795.83507003579473
 31
0.0
 70
     0
 13
-15.70536596197155
 23
936.08307003579466
 33
0.0
 14
-12.69096596197164
 24
655.58707003579468
 34
0.0
 50
90.0
  0
DIMENSION
  5
DEE
  8
DIM
  2
*D75
 10
47.997330269292881
 20
655.58707003579468
 30
0.0
 11
45.497330269292789
 21
737.28507003579455
 31
0.0
 70
     0
 13
4.2746947841483234
 23
818.98307003579475
 33
0.0
 14
-12.69096596197164
 24
655.58707003579468
 34
0.0
 50
90.0
  0
DIMENSION
  5
DFB
  8
DIM
  2
*D74
 10
47.997330269292881
 20
869.58307003579455
 30
0.0
 11
45.497330269292739
 21
844.28307003579459
 31
0.0
 70
     0
 13
4.2746947841483234
 23
818.98307003579475
 33
0.0
 14
37.464607329004359
 24
869.58307003579455
 34
0.0
 50
90.0
  0
DIMENSION
  5
E08
  8
DIM
  2
*D73
 10
47.997330269292881
 20
869.58307003579455
 30
0.0
 11
45.497330269292753
 21
902.83307003579455
 31
0.0
 70
     0
 13
-15.70536596197155
 23
936.08307003579466
 33
0.0
 14
37.464607329004359
 24
869.58307003579455
 34
0.0
 50
90.0
  0
TEXT
  5
E15
  8
DIM
 10
-99.727337013285407
 20
746.57549522965223
 30
0.0
 40
3.0
  1
2-PT1/4
  7
CHINESET
  0
TEXT
  5
16F9
  8
DIM
 10
-100.15590844185679
 20
741.00406665822356
 30
0.0
 40
3.0
  1
2-PT3/8
  7
CHINESET
1001
ACAD
1000
R13OBJECT
1002
{
1005
E15
1002
}
  0
TEXT
  5
16FA
  8
DIM
 10
-99.584479870428268
 20
735.4326380867949
 30
0.0
 40
3.0
  1
2-PT1/2
  7
CHINESET
1001
ACAD
1000
R13OBJECT
1002
{
1005
E15
1002
}
  0
SOLID
  5
E16
  8
DIM
  6
CONTINUOUS
 10
26.210508088631979
 20
810.22161182158163
 30
0.0
 11
24.15017422239611
 21
812.45880299795465
 31
0.0
 12
25.373563173795532
 22
809.67432468530899
 32
0.0
 13
25.373563173795532
 23
809.67432468530899
 33
0.0
210
0.0
220
0.0
230
-1.0
  0
POLYLINE
  5
16FB
  8
DIM
 66
     1
 10
0.0
 20
0.0
 30
0.0
 70
   128
1001
ACAD
1000
R13OBJECT
1002
{
1005
E16
1002
}
  0
VERTEX
  5
18C4
  8
DIM
 10
-25.79203563121375
 20
809.9479682534452
 30
0.0
  0
VERTEX
  5
18C5
  8
DIM
 10
-76.013051298999684
 20
733.14692380108067
 30
0.0
  0
VERTEX
  5
18C6
  8
DIM
 10
-100.15590844185679
 20
733.14692380108067
 30
0.0
  0
SEQEND
  5
18C7
  8
DIM
  0
LINE
  5
E17
  8
0
 10
-46.705365961971438
 20
704.58307003579455
 30
0.0
 11
-47.455365961971431
 21
782.1822155065729
 31
0.0
  0
LINE
  5
E18
  8
0
 10
-42.205365961971438
 20
770.58307003579455
 30
0.0
 11
-42.205365961971438
 21
702.58307003579455
 31
0.0
  0
LINE
  5
E19
  8
0
 10
-29.705365961971442
 20
770.58307003579455
 30
0.0
 11
-29.705365961971442
 21
702.58307003579455
 31
0.0
  0
LINE
  5
E1A
  8
0
 10
-43.705365961971431
 20
770.58307003579455
 30
0.0
 11
-43.705365961971431
 21
702.58307003579455
 31
0.0
  0
LINE
  5
E1B
  8
0
 10
16.044634038028558
 20
782.1822155065729
 30
0.0
 11
15.29463403802856
 21
704.58307003579455
 31
0.0
  0
LINE
  5
E1C
  8
0
 10
10.79463403802856
 20
770.58307003579455
 30
0.0
 11
10.79463403802856
 21
702.58307003579455
 31
0.0
  0
LINE
  5
E1D
  8
0
 10
-1.7053659619714381
 20
770.58307003579455
 30
0.0
 11
-1.7053659619714381
 21
702.58307003579455
 31
0.0
  0
LINE
  5
E1E
  8
0
 10
12.29463403802856
 20
770.58307003579455
 30
0.0
 11
12.29463403802856
 21
702.58307003579455
 31
0.0
  0
LINE
  5
E1F
  8
CENTER
  6
CENTER
 10
-15.705365961971429
 20
800.58307003579466
 30
0.0
 11
-15.705365961971429
 21
652.37387393205609
 31
0.0
  0
LINE
  5
E20
  8
0
 10
-138.2812049196958
 20
772.58307003579455
 30
0.0
 11
-138.2812049196958
 21
704.58307003579455
 31
0.0
  0
LINE
  5
E21
  8
0
 10
-152.2812049196958
 20
772.58307003579455
 30
0.0
 11
-152.2812049196958
 21
704.58307003579455
 31
0.0
  0
LINE
  5
E22
  8
0
 10
-139.7812049196958
 20
772.58307003579455
 30
0.0
 11
-139.7812049196958
 21
704.58307003579455
 31
0.0
  0
LINE
  5
E23
  8
0
 10
-134.5312049196958
 20
784.18221550657279
 30
0.0
 11
-135.2812049196958
 21
706.58307003579455
 31
0.0
  0
LINE
  5
E24
  8
0
 10
-163.26680491969589
 20
663.6158700357945
 30
0.0
 11
-163.26680491969589
 21
660.60147003579448
 31
0.0
  0
LINE
  5
E25
  8
0
 10
-163.26680491969589
 20
657.85630538435476
 30
0.0
 11
-163.26680491969589
 21
657.58707003579445
 31
0.0
  0
LINE
  5
E26
  8
0
 10
-163.26680491969589
 20
660.75630538435473
 30
0.0
 11
-163.26680491969589
 21
660.60147003579448
 31
0.0
  0
ARC
  5
E27
  8
0
 10
-163.26680491969589
 20
659.59667003579455
 30
0.0
 40
1.0047999999999999
 50
0.0
 51
90.0
  0
LINE
  5
E28
  8
0
 10
-163.26680491969589
 20
657.85630538435476
 30
0.0
 11
-162.26200491969891
 21
659.59667003579455
 31
0.0
  0
ARC
  5
E29
  8
0
 10
-166.2812049196958
 20
706.58307003579455
 30
0.0
 40
31.0
 50
302.99588547357951
 51
0.0
  0
LINE
  5
E2A
  8
0
 10
-155.74520491969579
 20
680.58307003579466
 30
0.0
 11
-155.74520491969579
 21
679.58307003579455
 31
0.0
  0
ARC
  5
E2B
  8
0
 10
-159.14712491969561
 20
664.01779003579463
 30
0.0
 40
0.4019200000000001
 50
270.0
 51
0.0
  0
LINE
  5
E2C
  8
0
 10
-158.74520491969579
 20
679.58307003579455
 30
0.0
 11
-158.74520491969579
 21
664.01779003579463
 31
0.0
  0
ARC
  5
E2D
  8
0
 10
-145.2812049196958
 20
704.58307003579455
 30
0.0
 40
7.0
 50
180.0
 51
0.0
  0
ARC
  5
E2E
  8
0
 10
-146.1864522818648
 20
703.9550501060703
 30
0.0
 40
6.4359616843719687
 50
278.08572460240032
 51
5.5998222228616896
  0
LINE
  5
E2F
  8
0
 10
-12.69096596197164
 20
661.61587003579473
 30
0.0
 11
-12.69096596197164
 21
658.6014700357947
 31
0.0
  0
LINE
  5
E30
  8
0
 10
-18.719765961971689
 20
661.61587003579461
 30
0.0
 11
-18.719765961971689
 21
658.60147003579925
 31
0.0
  0
LINE
  5
E31
  8
0
 10
-12.69096596197164
 20
655.85630538435476
 30
0.0
 11
-11.686165961974661
 21
657.59667003579455
 31
0.0
  0
ARC
  5
E32
  8
0
 10
-12.69096596197164
 20
657.59667003579455
 30
0.0
 40
1.0047999999999999
 50
0.0
 51
90.0
  0
LINE
  5
E33
  8
0
 10
-12.69096596197164
 20
658.75630538435473
 30
0.0
 11
-12.69096596197164
 21
658.6014700357947
 31
0.0
  0
LINE
  5
E34
  8
0
 10
-12.69096596197164
 20
655.85630538435476
 30
0.0
 11
-12.69096596197164
 21
655.58707003579468
 31
0.0
  0
ARC
  5
E35
  8
0
 10
-18.719765961971689
 20
657.59667003579455
 30
0.0
 40
1.0047999999999999
 50
90.0
 51
180.0
  0
LINE
  5
E36
  8
0
 10
-19.72456596197366
 20
657.59667003579466
 30
0.0
 11
-18.719765961971689
 21
655.85630538434611
 31
0.0
  0
LINE
  5
E37
  8
0
 10
-18.719765961971689
 20
655.85630538434623
 30
0.0
 11
-18.719765961971689
 21
655.58707003579468
 31
0.0
  0
LINE
  5
E38
  8
0
 10
-18.719765961971689
 20
655.58707003579468
 30
0.0
 11
-12.69096596197164
 21
655.58707003579468
 31
0.0
  0
LINE
  5
E39
  8
0
 10
-19.724565961974569
 20
657.59667003579671
 30
0.0
 11
-11.6861659619733
 21
657.59667003579671
 31
0.0
  0
LINE
  5
E3A
  8
0
 10
-18.719765961971689
 20
658.60147003579823
 30
0.0
 11
-12.69096596197164
 21
658.60147003579266
 31
0.0
  0
LINE
  5
E3B
  8
0
 10
-32.587308978105511
 20
678.58307003579455
 30
0.0
 11
1.176577054162635
 21
678.58307003579455
 31
0.0
  0
ARC
  5
E3C
  8
0
 10
-15.705365961971429
 20
704.58307003579455
 30
0.0
 40
31.0
 50
180.0
 51
237.00411452642041
  0
ARC
  5
E3D
  8
0
 10
-35.487881058624218
 20
702.20037960271054
 30
0.0
 40
6.7283768766526313
 50
176.7394237284004
 51
259.57502944633751
  0
ARC
  5
E3E
  8
0
 10
-36.705365961971431
 20
702.58307003579455
 30
0.0
 40
7.0
 50
180.0
 51
0.0
  0
LINE
  5
E3F
  8
DIM
 10
-94.107915282828571
 20
739.83338120979556
 30
0.0
 11
-78.013051298999699
 21
739.83338120979556
 31
0.0
  0
LINE
  5
E40
  8
DIM
 10
-94.107915282828571
 20
744.71031562543214
 30
0.0
 11
-78.013051298999585
 21
744.71031562543214
 31
0.0
  0
ARC
  5
E41
  8
0
 10
4.3893866758594413
 20
701.95505010607019
 30
0.0
 40
6.4359616843719687
 50
278.08572460240032
 51
5.5998222228616896
  0
ARC
  5
E42
  8
0
 10
-15.705365961971429
 20
704.58307003579455
 30
0.0
 40
31.0
 50
302.99588547357951
 51
0.0
  0
ARC
  5
E43
  8
0
 10
5.294634038028561
 20
702.58307003579455
 30
0.0
 40
7.0
 50
180.0
 51
0.0
  0
LINE
  5
E44
  8
0
 10
-26.241365961971489
 20
677.58307003579466
 30
0.0
 11
-5.1693659619716072
 21
677.58307003579466
 31
0.0
  0
LINE
  5
E45
  8
0
 10
-22.839445961971482
 20
661.61587003579461
 30
0.0
 11
-8.5712859619713981
 21
661.61587003579461
 31
0.0
  0
LINE
  5
E46
  8
CENTER
  6
CENTER
 10
-25.387633460537241
 20
668.64947003579459
 30
0.0
 11
-6.0282906061827362
 21
668.64947003579459
 31
0.0
  0
LINE
  5
E47
  8
0
 10
-26.241365961971489
 20
678.58307003579455
 30
0.0
 11
-26.241365961971489
 21
677.58307003579455
 31
0.0
  0
ARC
  5
E48
  8
0
 10
-22.839445961971482
 20
662.01779003579463
 30
0.0
 40
0.4019200000000001
 50
180.0
 51
270.0
  0
CIRCLE
  5
E49
  8
0
 10
-15.705365961971429
 20
668.64947003579459
 30
0.0
 40
5.5263999999999847
  0
LINE
  5
E4A
  8
0
 10
-23.241365961971489
 20
677.58307003579455
 30
0.0
 11
-23.241365961971489
 21
662.01779003579463
 31
0.0
  0
CIRCLE
  5
E4B
  8
0
 10
-15.705365961971429
 20
668.64947003579459
 30
0.0
 40
3.2153599999999738
  0
LINE
  5
E4C
  8
0
 10
-5.1693659619716072
 20
678.58307003579455
 30
0.0
 11
-5.1693659619716072
 21
677.58307003579455
 31
0.0
  0
ARC
  5
E4D
  8
0
 10
-8.5712859619713981
 20
662.01779003579463
 30
0.0
 40
0.4019200000000001
 50
270.0
 51
0.0
  0
LINE
  5
E4E
  8
0
 10
-8.1693659619716072
 20
677.58307003579455
 30
0.0
 11
-8.1693659619716072
 21
662.01779003579463
 31
0.0
  0
DIMENSION
  5
E4F
  8
DIM
  2
*D77
 10
-95.705365961971424
 20
943.05165938372249
 30
0.0
 11
-55.705365961971552
 21
945.55165938372249
 31
0.0
 70
     0
 13
-15.70536596197166
 23
938.68610155852184
 33
0.0
 14
-95.705365961971424
 24
844.08307003579455
 34
0.0
  0
LINE
  5
E5C
  8
HIDDEN
  6
HIDDEN
 10
-95.705365961971424
 20
801.08307003579455
 30
0.0
 11
-89.199149289272114
 21
801.08307003579455
 31
0.0
  0
LINE
  5
E5D
  8
HIDDEN
  6
HIDDEN
 10
-95.705365961971424
 20
844.08307003579455
 30
0.0
 11
-89.199149289272114
 21
844.08307003579455
 31
0.0
  0
DIMENSION
  5
E5E
  8
DIM
  2
*D82
 10
-113.2652520024109
 20
851.583070035795
 30
0.0
 11
-115.7652520024111
 21
866.48037175936611
 31
0.0
 70
     0
 13
-136.28120491969591
 23
881.37767348293744
 33
0.0
 14
-123.7812049196958
 24
851.583070035795
 34
0.0
 50
90.0
  0
LINE
  5
E6B
  8
0
 10
-126.2812049196959
 20
871.37767348293755
 30
0.0
 11
-126.2812049196959
 21
851.583070035795
 31
0.0
  0
LINE
  5
E6C
  8
0
 10
-146.20479204301691
 20
902.6661155156487
 30
0.0
 11
-142.2812049196958
 21
855.58307003579489
 31
0.0
  0
TEXT
  5
E6D
  8
DIM
 10
-125.64740269872679
 20
769.79038332933135
 30
0.0
 40
3.0
  1
2-PT1/4
  7
CHINESET
  0
SOLID
  5
E6E
  8
DIM
  6
CONTINUOUS
 10
160.64856954695901
 20
816.53496373596295
 30
0.0
 11
161.8050175951868
 21
819.34790310817641
 31
0.0
 12
159.7987755910101
 22
817.06207874469692
 32
0.0
 13
159.7987755910101
 23
817.06207874469692
 33
0.0
210
0.0
220
0.0
230
-1.0
  0
POLYLINE
  5
1700
  8
DIM
 66
     1
 10
0.0
 20
0.0
 30
0.0
 70
   128
1001
ACAD
1000
R13OBJECT
1002
{
1005
E6E
1002
}
  0
VERTEX
  5
18C8
  8
DIM
 10
-160.2236725689846
 20
816.79852124032982
 30
0.0
  0
VERTEX
  5
18C9
  8
DIM
 10
-129.64740269872681
 20
767.50466904361724
 30
0.0
  0
VERTEX
  5
18CA
  8
DIM
 10
-105.9331169844411
 20
767.50466904361724
 30
0.0
  0
SEQEND
  5
18CB
  8
DIM
  0
LINE
  5
E6F
  8
0
 62
     7
 10
-129.2812049196958
 20
836.583070035795
 30
0.0
 11
-130.29390723495649
 21
807.58307003579512
 31
0.0
  0
LINE
  5
E70
  8
0
 62
     7
 10
-153.81490697190779
 20
835.61796953249745
 30
0.0
 11
-154.79390723495629
 21
807.58307003579512
 31
0.0
  0
ARC
  5
E71
  8
0
 62
     7
 10
-127.2812049196957
 20
808.583070035795
 30
0.0
 40
1.0
 50
270.0
 51
359.99999999999989
  0
LINE
  5
E72
  8
0
 62
     7
 10
-134.88120491969559
 20
802.58307003579523
 30
0.0
 11
-130.8398732736394
 21
802.58307003579523
 31
0.0
  0
ARC
  5
E73
  8
0
 10
-132.5312049196958
 20
784.18221550657279
 30
0.0
 40
2.0
 50
109.9831065218995
 51
180.0
  0
LINE
  5
E74
  8
0
 10
-134.78120491969571
 20
797.58307003579455
 30
0.0
 11
-130.7812049196958
 21
797.58307003579455
 31
0.0
  0
LINE
  5
E75
  8
0
 10
-139.2812049196958
 20
789.28349730040554
 30
0.0
 11
-126.2812049196958
 21
789.28349730040554
 31
0.0
  0
ARC
  5
E76
  8
0
 10
-145.2812049196958
 20
772.58307003579455
 30
0.0
 40
7.0
 50
0.0
 51
180.0
  0
ARC
  5
E77
  8
0
 10
-146.29086063829689
 20
773.12905482832218
 30
0.0
 40
6.5325123014341511
 50
355.20564847487941
 51
81.108804699858496
  0
ARC
  5
E78
  8
0
 10
-150.7812049196958
 20
797.08307003579466
 30
0.0
 40
0.5
 50
0.0000000000002036
 51
90.0
  0
ARC
  5
E7B
  8
0
 10
-154.7812049196958
 20
797.08307003579466
 30
0.0
 40
0.5
 50
89.999999999999915
 51
180.0000000000002
  0
LINE
  5
E7C
  8
0
 10
-154.7812049196958
 20
797.58307003579455
 30
0.0
 11
-150.7812049196958
 21
797.58307003579455
 31
0.0
  0
ARC
  5
E7D
  8
0
 10
-156.2812049196958
 20
790.28349730040554
 30
0.0
 40
1.0
 50
270.0
 51
0.0000000000004198
  0
LINE
  5
E7E
  8
0
 10
-155.2812049196958
 20
790.28349730040554
 30
0.0
 11
-155.2812049196958
 21
802.58307003579455
 31
0.0
  0
LINE
  5
E7F
  8
0
 10
-166.2812049196958
 20
800.34823247548547
 30
0.0
 11
-157.2812049196958
 21
797.58307003579455
 31
0.0
  0
ARC
  5
E80
  8
0
 10
-134.78120491969571
 20
797.08307003579466
 30
0.0
 40
0.5
 50
90.0
 51
180.0
  0
ARC
  5
E81
  8
0
 10
-136.2812049196958
 20
790.28349730040554
 30
0.0
 40
1.0
 50
270.0
 51
0.0
  0
LINE
  5
E82
  8
0
 10
-135.2812049196958
 20
790.28349730040554
 30
0.0
 11
-135.28120491969571
 21
797.08307003579466
 31
0.0
  0
ARC
  5
E83
  8
0
 10
-140.7812049196958
 20
797.08307003579466
 30
0.0
 40
0.5
 50
359.99999999999972
 51
90.000000000000725
  0
ARC
  5
E84
  8
0
 10
-144.78120491969571
 20
797.08307003579455
 30
0.0
 40
0.5
 50
90.000000000000327
 51
180.0
  0
LINE
  5
E85
  8
0
 10
-144.78120491969571
 20
797.58307003579455
 30
0.0
 11
-140.7812049196958
 21
797.58307003579455
 31
0.0
  0
ARC
  5
E86
  8
0
 10
-146.2812049196958
 20
790.28349730040554
 30
0.0
 40
1.0
 50
270.0
 51
0.0
  0
LINE
  5
E87
  8
0
 10
-145.2812049196958
 20
790.28349730040554
 30
0.0
 11
-145.28120491969571
 21
797.08307003579455
 31
0.0
  0
LINE
  5
E88
  8
0
 10
-140.2812049196958
 20
790.28349730040554
 30
0.0
 11
-140.2812049196958
 21
797.08307003579466
 31
0.0
  0
ARC
  5
E89
  8
0
 10
-139.2812049196958
 20
790.28349730040554
 30
0.0
 40
1.0
 50
180.0
 51
270.0
  0
ARC
  5
E8A
  8
0
 10
-149.28120491969571
 20
790.28349730040554
 30
0.0
 40
1.0
 50
180.0
 51
270.0
  0
LINE
  5
E8B
  8
0
 10
-150.28120491969571
 20
790.28349730040554
 30
0.0
 11
-150.2812049196958
 21
797.08307003579466
 31
0.0
  0
LINE
  5
E8C
  8
0
 10
-149.28120491969571
 20
789.28349730040554
 30
0.0
 11
-146.2812049196958
 21
789.28349730040554
 31
0.0
  0
LINE
  5
E8D
  8
0
 62
     7
 10
-131.28120491969571
 20
807.58307003579512
 30
0.0
 11
-131.28120491969571
 21
802.58307003579523
 31
0.0
  0
LINE
  5
E8E
  8
0
 62
     7
 10
-130.8398732736394
 20
802.58307003579523
 30
0.0
 11
-128.8812049196957
 21
802.58307003579523
 31
0.0
  0
ARC
  5
E8F
  8
0
 10
-130.7812049196958
 20
797.08307003579466
 30
0.0
 40
0.5
 50
0.0000000000002036
 51
90.0
  0
ARC
  5
E90
  8
0
 10
-129.28120491969571
 20
790.28349730040554
 30
0.0
 40
1.0
 50
180.0
 51
270.0
  0
LINE
  5
E91
  8
0
 10
-129.28120491969571
 20
789.28349730040554
 30
0.0
 11
-126.2812049196958
 21
789.28349730040554
 31
0.0
  0
LINE
  5
E92
  8
0
 10
-130.28120491969571
 20
790.28349730040554
 30
0.0
 11
-130.2812049196958
 21
797.08307003579466
 31
0.0
  0
LINE
  5
E93
  8
0
 10
-126.2812049196958
 20
789.28349730040554
 30
0.0
 11
-126.2812049196958
 21
802.58307003579455
 31
0.0
  0
LINE
  5
E94
  8
0
 10
-126.9394618566091
 20
788.34370387691695
 30
0.0
 11
-133.21469104586919
 21
786.06180235354975
 31
0.0
  0
ARC
  5
E95
  8
0
 10
-127.2812049196958
 20
789.28349730040554
 30
0.0
 40
1.0
 50
289.98310652189957
 51
0.0000000000001145
  0
LINE
  5
E96
  8
0
 10
-140.77445922862381
 20
854.37767348293755
 30
0.0
 11
-126.2812049196959
 21
854.37767348293755
 31
0.0
  0
LINE
  5
E97
  8
CENTER
  6
CENTER
 10
-143.4898422676338
 20
822.58307003579489
 30
0.0
 11
-123.7112783617662
 21
822.58307003579489
 31
0.0
  0
LINE
  5
E98
  8
0
 10
-137.28120491969571
 20
851.583070035795
 30
0.0
 11
-123.7812049196958
 21
851.583070035795
 31
0.0
  0
ARC
  5
E9B
  8
0
 62
     7
 10
-152.8155161448887
 20
835.583070035795
 30
0.0
 40
1.0
 50
90.000000000000028
 51
177.99999999999989
  0
LINE
  5
E9C
  8
0
 10
-137.99693367223401
 20
854.37767348293755
 30
0.0
 11
-137.99693367223401
 21
852.15565303782546
 31
0.0
  0
LINE
  5
E9D
  8
0
 10
-142.2812049196958
 20
855.58307003579489
 30
0.0
 11
-137.2812049196958
 21
851.583070035795
 31
0.0
  0
LINE
  5
E9E
  8
0
 62
     7
 10
-126.2812049196958
 20
835.583070035795
 30
0.0
 11
-126.2812049196958
 21
808.583070035795
 31
0.0
  0
ARC
  5
EA4
  8
0
 62
     7
 10
-125.2812049196957
 20
835.583070035795
 30
0.0
 40
1.0
 50
90.0
 51
180.0
  0
LINE
  5
EA5
  8
0
 62
     7
 10
-122.7812049196957
 20
841.583070035795
 30
0.0
 11
-122.7812049196957
 21
837.08306922755287
 31
0.0
  0
ARC
  5
EA6
  8
0
 62
     7
 10
-123.2812049196957
 20
837.083070035795
 30
0.0
 40
0.5
 50
270.0
 51
0.0
  0
LINE
  5
EA7
  8
0
 62
     7
 10
-123.7812049196958
 20
842.583070035795
 30
0.0
 11
-122.7812049196957
 21
841.583070035795
 31
0.0
  0
ARC
  5
EAD
  8
0
 10
-123.7812049196958
 20
851.08307003579489
 30
0.0
 40
0.5
 50
0.0
 51
90.0
  0
LINE
  5
EAE
  8
0
 10
-123.2812049196958
 20
851.08307003579489
 30
0.0
 11
-123.2812049196958
 21
842.583070035795
 31
0.0
  0
LINE
  5
EAF
  8
HIDDEN
  6
HIDDEN
 10
-95.705365961971424
 20
844.08307003579455
 30
0.0
 11
-95.705365961971424
 21
801.08307003579455
 31
0.0
  0
LINE
  5
EB3
  8
0
 10
-153.78120491969571
 20
904.58307003579489
 30
0.0
 11
-153.7812049196958
 21
911.583070035795
 31
0.0
  0
TEXT
  5
EB4
  8
DIM
 10
-118.8158825165185
 20
891.05262337754277
 30
0.0
 40
3.0
  1
2-
  7
CHINESET
  0
TEXT
  5
1705
  8
DIM
 10
-112.2444539450899
 20
891.05262337754277
 30
0.0
 40
3.0
  1
%%c
  7
CHINESET
1001
ACAD
1000
R13OBJECT
1002
{
1005
EB4
1002
}
  0
TEXT
  5
1706
  8
DIM
 10
-109.53016823080419
 20
891.05262337754277
 30
0.0
 40
3.0
  1
9
  7
CHINESET
1001
ACAD
1000
R13OBJECT
1002
{
1005
EB4
1002
}
  0
SOLID
  5
EB5
  8
DIM
  6
CONTINUOUS
 10
131.62120391607149
 20
877.25279243662794
 30
0.0
 11
133.80277330625839
 21
875.13365228180112
 31
0.0
 12
132.42641528467411
 22
877.84578033858986
 32
0.0
 13
132.42641528467411
 23
877.84578033858986
 33
0.0
210
0.0
220
0.0
230
-1.0
  0
POLYLINE
  5
1707
  8
DIM
 66
     1
 10
0.0
 20
0.0
 30
0.0
 70
   128
1001
ACAD
1000
R13OBJECT
1002
{
1005
EB5
1002
}
  0
VERTEX
  5
18CC
  8
DIM
 10
-132.0238096003728
 20
877.54928638760884
 30
0.0
  0
VERTEX
  5
18CD
  8
DIM
 10
-122.8158825165185
 20
890.05262337754277
 30
0.0
  0
VERTEX
  5
18CE
  8
DIM
 10
-107.6730253736613
 20
890.05262337754277
 30
0.0
  0
SEQEND
  5
18CF
  8
DIM
  0
LINE
  5
EB6
  8
CENTER
  6
CENTER
 10
-134.28120491969591
 20
871.37767348293755
 30
0.0
 11
-130.78120491969591
 21
871.37767348293755
 31
0.0
  0
CIRCLE
  5
EB7
  8
0
 10
-136.28120491969591
 20
871.37767348293755
 30
0.0
 40
4.5
  0
ARC
  5
EB8
  8
0
 10
-136.28120491969591
 20
871.37767348293755
 30
0.0
 40
10.0
 50
0.0
 51
90.0
  0
LINE
  5
EB9
  8
CENTER
  6
CENTER
 10
-136.28120491969591
 20
873.37767348293744
 30
0.0
 11
-136.28120491969591
 21
876.87767348293755
 31
0.0
  0
LINE
  5
EBA
  8
CENTER
  6
CENTER
 10
-136.28120491969591
 20
869.37767348293733
 30
0.0
 11
-136.28120491969591
 21
865.87767348293733
 31
0.0
  0
LINE
  5
EBB
  8
CENTER
  6
CENTER
 10
-138.28120491969591
 20
871.37767348293755
 30
0.0
 11
-141.78120491969591
 21
871.37767348293755
 31
0.0
  0
LINE
  5
EBC
  8
CENTER
  6
CENTER
 10
-136.28120491969591
 20
870.37767348293733
 30
0.0
 11
-136.28120491969591
 21
872.37767348293755
 31
0.0
  0
LINE
  5
EBD
  8
CENTER
  6
CENTER
 10
-137.28120491969591
 20
871.37767348293755
 30
0.0
 11
-135.28120491969591
 21
871.37767348293755
 31
0.0
  0
LINE
  5
EBE
  8
0
 10
-152.78120491969571
 20
903.583070035795
 30
0.0
 11
-147.20133780126179
 21
903.583070035795
 31
0.0
  0
ARC
  5
EBF
  8
0
 10
-152.78120491969571
 20
904.58307003579489
 30
0.0
 40
1.0
 50
180.0000000000002
 51
270.0
  0
ARC
  5
EC0
  8
0
 10
-147.20133780126179
 20
902.583070035795
 30
0.0
 40
1.0
 50
4.7636416907261268
 51
90.0
  0
LINE
  5
EC1
  8
0
 10
-161.2812049196958
 20
927.583070035795
 30
0.0
 11
-161.2812049196958
 21
936.583070035795
 31
0.0
  0
ARC
  5
EC2
  8
0
 10
-144.9062049196958
 20
932.083070035795
 30
0.0
 40
3.6250000000000191
 50
316.3971810272966
 51
43.602818972703922
  0
LINE
  5
EC3
  8
0
 10
-142.2812049196958
 20
929.58307003579489
 30
0.0
 11
-142.2812049196958
 21
934.583070035795
 31
0.0
  0
LINE
  5
EC4
  8
0
 10
-161.28120491969591
 20
929.58307003579489
 30
0.0
 11
-161.28120491969591
 21
934.583070035795
 31
0.0
  0
LINE
  5
EC5
  8
0
 10
-161.7812049196958
 20
912.58307003579489
 30
0.0
 11
-161.2812049196958
 21
912.58307003579489
 31
0.0
  0
LINE
  5
EC6
  8
0
 10
-161.7812049196958
 20
912.58307003579489
 30
0.0
 11
-161.7812049196958
 21
927.583070035795
 31
0.0
  0
LINE
  5
EC7
  8
0
 10
-161.2812049196958
 20
912.58307003579489
 30
0.0
 11
-161.2812049196958
 21
925.583070035795
 31
0.0
  0
ARC
  5
EC8
  8
0
 10
-154.7812049196958
 20
911.583070035795
 30
0.0
 40
1.0
 50
0.0000000000002036
 51
90.0
  0
LINE
  5
EC9
  8
0
 10
31.294634038028558
 20
852.58307003579478
 30
0.0
 11
31.294634038028441
 21
879.58307003579478
 31
0.0
  0
LINE
  5
ECA
  8
0
 10
34.294634038028448
 20
849.58307003579466
 30
0.0
 11
34.294634038028448
 21
879.58307003579478
 31
0.0
  0
LINE
  5
ECB
  8
0
 10
-35.781778838650318
 20
900.66611551564836
 30
0.0
 11
-39.705365961971658
 21
853.58307003579478
 31
0.0
  0
LINE
  5
ECC
  8
0
 10
4.3710469147072208
 20
900.66611551564836
 30
0.0
 11
8.2946340380283345
 21
853.58307003579478
 31
0.0
  0
LINE
  5
ECD
  8
CENTER
  6
CENTER
 10
-15.705365961971429
 20
790.02878611344238
 30
0.0
 11
-15.70536596197166
 21
938.68610155852184
 31
0.0
  0
LINE
  5
ECE
  8
CENTER
  6
CENTER
 10
-34.947157166621082
 20
818.98307003579475
 30
0.0
 11
4.2746947841483234
 21
818.98307003579475
 31
0.0
  0
LINE
  5
ECF
  8
0
 10
-39.705365961971658
 20
853.58307003579478
 30
0.0
 11
8.2946340380283345
 21
853.58307003579478
 31
0.0
  0
LINE
  5
ED0
  8
0
 10
-55.705365961971431
 20
800.58307003579466
 30
0.0
 11
24.294634038028558
 21
800.58307003579466
 31
0.0
  0
ARC
  5
ED1
  8
0
 10
-27.205365961971442
 20
795.08307003579455
 30
0.0
 40
0.5
 50
0.0000000000002036
 51
90.0
  0
ARC
  5
ED2
  8
0
 10
-25.705365961971431
 20
788.28349730040554
 30
0.0
 40
1.0
 50
180.0
 51
270.0
  0
LINE
  5
ED3
  8
0
 10
-55.705365961971431
 20
787.28349730040554
 30
0.0
 11
-5.7053659619714381
 21
787.28349730040554
 31
0.0
  0
LINE
  5
ED4
  8
0
 10
-55.705365961971431
 20
787.28349730040554
 30
0.0
 11
24.294634038028558
 21
787.28349730040554
 31
0.0
  0
LINE
  5
ED5
  8
0
 62
     7
 10
27.794634038028331
 20
839.58307003579455
 30
0.0
 11
-59.205365961971658
 21
839.58307003579455
 31
0.0
  0
LINE
  5
ED6
  8
0
 62
     7
 10
-58.205365961971658
 20
840.58307003579466
 30
0.0
 11
26.794634038028331
 21
840.58307003579466
 31
0.0
  0
LINE
  5
ED7
  8
0
 62
     7
 10
-56.205365961971658
 20
805.58307003579455
 30
0.0
 11
24.794634038028558
 21
805.58307003579455
 31
0.0
  0
ARC
  5
ED8
  8
0
 62
     7
 10
-15.705365961971481
 20
818.98307003579475
 30
0.0
 40
11.25
 50
0.0
 51
270.00000000000171
  0
ARC
  5
ED9
  8
0
 62
     7
 10
-15.705365961971429
 20
805.58307003579455
 30
0.0
 40
32.0
 50
64.992166765314934
 51
115.00783323468499
  0
LINE
  5
EDA
  8
0
 62
     7
 10
-28.205365961971658
 20
800.58307003579466
 30
0.0
 11
-3.205365961971665
 21
800.58307003579466
 31
0.0
  0
LINE
  5
EDB
  8
HIDDEN
  6
HIDDEN
 10
-88.199149289272086
 20
843.08307003579455
 30
0.0
 11
-88.199149289272086
 21
802.08307003579455
 31
0.0
  0
LINE
  5
EDC
  8
HIDDEN
  6
HIDDEN
 10
-75.688788168106839
 20
842.06458009495452
 30
0.0
 11
-75.688788168106839
 21
803.10155869340349
 31
0.0
  0
LINE
  5
EDD
  8
0
 62
     7
 10
-53.705365961971658
 20
834.58307003579466
 30
0.0
 11
-52.692663646710912
 21
805.58307003579455
 31
0.0
  0
LINE
  5
EDE
  8
0
 62
     7
 10
-31.205365961971658
 20
834.58307003579466
 30
0.0
 11
-30.192663646710798
 21
805.58307003579455
 31
0.0
  0
LINE
  5
EDF
  8
0
 62
     7
 10
-57.205365961971673
 20
833.58307310413147
 30
0.0
 11
-57.205365961971673
 21
806.58307003579455
 31
0.0
  0
LINE
  5
EE0
  8
HIDDEN
  6
HIDDEN
 10
-88.199149289272086
 20
802.1015599766348
 30
0.0
 11
-76.688788168106839
 21
802.1015599766348
 31
0.0
  0
ARC
  5
EE1
  8
0
 10
-89.199149289272114
 20
802.08307003579455
 30
0.0
 40
1.0
 50
270.0
 51
359.99999999999989
  0
ARC
  5
EE2
  8
0
 10
-76.688788168106839
 20
803.1015599766348
 30
0.0
 40
1.0
 50
270.00000000000011
 51
0.0
  0
ARC
  5
EE3
  8
0
 10
-49.455365961971431
 20
782.1822155065729
 30
0.0
 40
2.0
 50
0.0
 51
70.016893478100371
  0
ARC
  5
EE4
  8
0
 10
-36.705365961971431
 20
770.58307003579455
 30
0.0
 40
7.0
 50
0.0
 51
180.0
  0
ARC
  5
EE5
  8
0
 10
-32.110790334404783
 20
768.31233204270654
 30
0.0
 40
10.34682116081626
 50
116.3630047583348
 51
167.32254206692741
  0
ARC
  5
EE6
  8
0
 10
-47.205365961971438
 20
795.08307003579455
 30
0.0
 40
0.5
 50
0.0000000000002036
 51
90.0
  0
ARC
  5
EE7
  8
0
 10
-45.705365961971431
 20
788.28349730040554
 30
0.0
 40
1.0
 50
180.0
 51
270.0
  0
LINE
  5
EE8
  8
0
 10
-46.705365961971438
 20
788.28349730040554
 30
0.0
 11
-46.705365961971438
 21
795.08307003579455
 31
0.0
  0
ARC
  5
EE9
  8
0
 10
-51.205365961971438
 20
795.08307003579455
 30
0.0
 40
0.5
 50
90.000000000000355
 51
180.0000000000002
  0
ARC
  5
EEA
  8
0
 10
-52.705365961971431
 20
788.28349730040554
 30
0.0
 40
1.0
 50
270.0
 51
0.0000000000004198
  0
ARC
  5
EEB
  8
0
 10
-54.705365961971438
 20
787.28349730040554
 30
0.0
 40
1.0
 50
180.0
 51
250.0168934781002
  0
LINE
  5
EEC
  8
0
 10
-55.047109025058262
 20
786.34370387691706
 30
0.0
 11
-48.771879835798011
 21
784.06180235354975
 31
0.0
  0
LINE
  5
EED
  8
0
 10
-55.705365961971431
 20
787.28349730040554
 30
0.0
 11
-55.705365961971431
 21
800.58307003579466
 31
0.0
  0
LINE
  5
EEE
  8
0
 10
-51.705365961971438
 20
788.28349730040554
 30
0.0
 11
-51.705365961971438
 21
795.08307003579455
 31
0.0
  0
LINE
  5
EEF
  8
0
 10
-51.205365961971438
 20
795.58307003579455
 30
0.0
 11
-47.205365961971438
 21
795.58307003579455
 31
0.0
  0
LINE
  5
EF0
  8
0
 62
     7
 10
-53.105365961971643
 20
800.58307003579466
 30
0.0
 11
-47.105365961971529
 21
800.58307003579466
 31
0.0
  0
LINE
  5
EF1
  8
0
 62
     7
 10
-50.705365961971658
 20
805.58307003579455
 30
0.0
 11
-50.705365961971658
 21
800.58307003579466
 31
0.0
  0
ARC
  5
EF2
  8
0
 62
     7
 10
-56.205365961971658
 20
806.58307003579455
 30
0.0
 40
1.0
 50
180.0
 51
270.0
  0
ARC
  5
EF3
  8
0
 10
-31.205365961971442
 20
795.08307003579455
 30
0.0
 40
0.5
 50
90.0
 51
180.0
  0
LINE
  5
EF4
  8
0
 10
-31.205365961971442
 20
795.58307003579455
 30
0.0
 11
-27.205365961971442
 21
795.58307003579455
 31
0.0
  0
LINE
  5
EF5
  8
0
 10
-41.205365961971431
 20
795.58307003579455
 30
0.0
 11
-37.205365961971438
 21
795.58307003579455
 31
0.0
  0
ARC
  5
EF6
  8
0
 10
-37.205365961971438
 20
795.08307003579455
 30
0.0
 40
0.5
 50
359.99999999999972
 51
90.000000000000725
  0
ARC
  5
EF8
  8
0
 10
-41.205365961971431
 20
795.08307003579455
 30
0.0
 40
0.5
 50
90.000000000000327
 51
180.0
  0
ARC
  5
EF9
  8
0
 10
-32.705365961971431
 20
788.28349730040554
 30
0.0
 40
1.0
 50
270.0
 51
0.0
  0
ARC
  5
EFA
  8
0
 10
-35.705365961971431
 20
788.28349730040554
 30
0.0
 40
1.0
 50
180.0
 51
270.0
  0
ARC
  5
EFB
  8
0
 10
-42.705365961971431
 20
788.28349730040554
 30
0.0
 40
1.0
 50
270.0
 51
0.0
  0
LINE
  5
EFC
  8
0
 10
-41.705365961971438
 20
788.28349730040554
 30
0.0
 11
-41.705365961971438
 21
795.08307003579455
 31
0.0
  0
LINE
  5
EFD
  8
0
 10
-31.705365961971431
 20
788.28349730040554
 30
0.0
 11
-31.705365961971431
 21
795.08307003579455
 31
0.0
  0
LINE
  5
EFE
  8
0
 10
-36.705365961971431
 20
788.28349730040554
 30
0.0
 11
-36.705365961971431
 21
795.08307003579455
 31
0.0
  0
LINE
  5
EFF
  8
0
 10
-26.705365961971431
 20
788.28349730040554
 30
0.0
 11
-26.705365961971431
 21
800.58307003579466
 31
0.0
  0
LINE
  5
F00
  8
0
 10
-26.705365961971431
 20
788.28349730040554
 30
0.0
 11
-26.705365961971431
 21
795.08307003579455
 31
0.0
  0
LINE
  5
F06
  8
HIDDEN
  6
HIDDEN
 10
-68.336617288502111
 20
826.08367920877561
 30
0.0
 11
-56.881414326689082
 21
825.68365470666492
 31
0.0
  0
LINE
  5
F07
  8
HIDDEN
  6
HIDDEN
 10
-68.336617288502111
 20
819.08246086281372
 30
0.0
 11
-56.881414326689082
 21
819.4824853649244
 31
0.0
  0
LINE
  5
F08
  8
HIDDEN
  6
HIDDEN
 10
-68.301717791799547
 20
818.08307003579455
 30
0.0
 11
-56.846514829986518
 21
818.48309453790534
 31
0.0
  0
LINE
  5
F09
  8
HIDDEN
  6
HIDDEN
 10
-68.301717791799547
 20
827.08307003579455
 30
0.0
 11
-56.846514829986518
 21
826.68304553368398
 31
0.0
  0
LINE
  5
F0A
  8
HIDDEN
  6
HIDDEN
 10
-75.688788168106839
 20
817.08307003579455
 30
0.0
 11
-68.301717791799547
 21
828.08307003579466
 31
0.0
  0
LINE
  5
F0B
  8
HIDDEN
  6
HIDDEN
 10
-75.688788168106839
 20
828.08307003579466
 30
0.0
 11
-68.301717791799547
 21
817.08307003579455
 31
0.0
  0
LINE
  5
F0C
  8
HIDDEN
  6
HIDDEN
 10
-75.688788168106839
 20
817.08307003579455
 30
0.0
 11
-68.301717791799547
 21
817.08307003579455
 31
0.0
  0
LINE
  5
F0D
  8
HIDDEN
  6
HIDDEN
 10
-75.688788168106839
 20
828.08307003579466
 30
0.0
 11
-68.301717791799547
 21
828.08307003579466
 31
0.0
  0
LINE
  5
F0E
  8
HIDDEN
  6
HIDDEN
 10
-68.301717791799547
 20
828.08307003579466
 30
0.0
 11
-68.301717791799547
 21
817.08307003579455
 31
0.0
  0
LINE
  5
F0F
  8
HIDDEN
  6
HIDDEN
 10
-88.199149289272086
 20
843.06458009495452
 30
0.0
 11
-76.688788168106839
 21
843.06458009495452
 31
0.0
  0
ARC
  5
F10
  8
0
 10
-89.199149289272114
 20
843.08307003579455
 30
0.0
 40
1.0
 50
0.0
 51
89.999999999999758
  0
ARC
  5
F11
  8
0
 10
-76.688788168106839
 20
842.06458009495452
 30
0.0
 40
1.0
 50
0.0
 51
89.999999999999872
  0
LINE
  5
F12
  8
CENTER
  6
CENTER
 10
-58.205365961971658
 20
822.58307003579455
 30
0.0
 11
-41.966533534517573
 21
822.58307003579455
 31
0.0
  0
LINE
  5
F13
  8
0
 10
-39.705365961971658
 20
853.58307003579478
 30
0.0
 11
-44.705365961971658
 21
849.58307003579466
 31
0.0
  0
LINE
  5
F14
  8
0
 62
     7
 10
-58.705368612871098
 20
834.58307003579466
 30
0.0
 11
-29.233115220440141
 21
834.58307003579466
 31
0.0
  0
ARC
  5
F15
  8
0
 10
-58.205365961971658
 20
849.08307003579455
 30
0.0
 40
0.5
 50
90.000000000000114
 51
180.0
  0
LINE
  5
F16
  8
0
 10
-58.205365961971658
 20
849.58307003579466
 30
0.0
 11
-44.705365961971658
 21
849.58307003579466
 31
0.0
  0
LINE
  5
F17
  8
0
 10
-58.705365961971658
 20
849.08307003579455
 30
0.0
 11
-58.705365961971658
 21
840.58307003579466
 31
0.0
  0
LINE
  5
F18
  8
0
 62
     7
 10
-58.205365961971658
 20
840.58307003579466
 30
0.0
 11
-59.205365961971658
 21
839.58307003579455
 31
0.0
  0
ARC
  5
F19
  8
0
 62
     7
 10
-58.705365961971658
 20
835.08307003579466
 30
0.0
 40
0.5
 50
179.99999999999969
 51
270.0
  0
LINE
  5
F1A
  8
0
 62
     7
 10
-59.205365961971658
 20
839.58307003579455
 30
0.0
 11
-59.205365961971658
 21
835.08307003579455
 31
0.0
  0
ARC
  5
F1B
  8
0
 62
     7
 10
-58.205365961971658
 20
833.58307003579466
 30
0.0
 40
1.0
 50
0.0
 51
90.0
  0
LINE
  5
F1D
  8
0
 62
     7
 10
22.294634038028558
 20
834.58307003579466
 30
0.0
 11
21.281931722767691
 21
805.58307003579455
 31
0.0
  0
LINE
  5
F1E
  8
0
 62
     7
 10
-0.2053659619714381
 20
834.58307003579466
 30
0.0
 11
-1.218068277232305
 21
805.58307003579455
 31
0.0
  0
LINE
  5
F1F
  8
0
 62
     7
 10
25.794634038028331
 20
833.58307003579466
 30
0.0
 11
25.794634038028331
 21
806.58307003579455
 31
0.0
  0
LINE
  5
F20
  8
0
 10
5.794634038028561
 20
795.58307003579455
 30
0.0
 11
9.7946340380285601
 21
795.58307003579455
 31
0.0
  0
ARC
  5
F21
  8
0
 10
5.294634038028561
 20
770.58307003579455
 30
0.0
 40
7.0
 50
0.0
 51
180.0
  0
ARC
  5
F22
  8
0
 10
4.2849783194274087
 20
771.12905482832241
 30
0.0
 40
6.5325123014341511
 50
355.20564847487941
 51
81.108804699858496
  0
LINE
  5
F23
  8
0
 10
-15.705365961971429
 20
798.3482324754857
 30
0.0
 11
-6.7053659619714381
 21
795.58307003579455
 31
0.0
  0
LINE
  5
F24
  8
0
 10
-24.705365961971442
 20
795.58307003579455
 30
0.0
 11
-6.7053659619714381
 21
795.58307003579455
 31
0.0
  0
LINE
  5
F26
  8
0
 10
-15.705365961971429
 20
798.3482324754857
 30
0.0
 11
-24.705365961971442
 21
795.58307003579455
 31
0.0
  0
ARC
  5
F27
  8
0
 10
5.794634038028561
 20
795.08307003579455
 30
0.0
 40
0.5
 50
90.000000000000327
 51
180.0
  0
ARC
  5
F28
  8
0
 10
4.294634038028561
 20
788.28349730040554
 30
0.0
 40
1.0
 50
270.0
 51
0.0
  0
LINE
  5
F29
  8
0
 10
5.294634038028561
 20
788.28349730040554
 30
0.0
 11
5.294634038028561
 21
795.08307003579455
 31
0.0
  0
LINE
  5
F2A
  8
0
 10
-4.2053659619714381
 20
795.58307003579455
 30
0.0
 11
-0.2053659619714381
 21
795.58307003579455
 31
0.0
  0
ARC
  5
F2B
  8
0
 10
-0.2053659619714381
 20
795.08307003579455
 30
0.0
 40
0.5
 50
0.0000000000002036
 51
90.0
  0
ARC
  5
F2C
  8
0
 10
-4.2053659619714381
 20
795.08307003579455
 30
0.0
 40
0.5
 50
89.999999999999915
 51
180.0000000000002
  0
ARC
  5
F2D
  8
0
 10
1.294634038028561
 20
788.28349730040554
 30
0.0
 40
1.0
 50
180.0
 51
270.0
  0
ARC
  5
F2E
  8
0
 10
-5.7053659619714381
 20
788.28349730040554
 30
0.0
 40
1.0
 50
270.0
 51
0.0000000000004198
  0
LINE
  5
F2F
  8
0
 10
-4.7053659619714381
 20
788.28349730040554
 30
0.0
 11
-4.7053659619714381
 21
800.58307003579466
 31
0.0
  0
LINE
  5
F30
  8
0
 10
0.2946340380285619
 20
788.28349730040554
 30
0.0
 11
0.2946340380285619
 21
795.08307003579455
 31
0.0
  0
LINE
  5
F31
  8
0
 10
1.294634038028561
 20
787.28349730040554
 30
0.0
 11
4.294634038028561
 21
787.28349730040554
 31
0.0
  0
ARC
  5
F34
  8
0
 10
18.044634038028558
 20
782.1822155065729
 30
0.0
 40
2.0
 50
109.9831065218995
 51
180.0
  0
ARC
  5
F35
  8
0
 62
     7
 10
24.794634038028558
 20
806.58307003579455
 30
0.0
 40
1.0
 50
270.0
 51
0.0
  0
LINE
  5
F36
  8
0
 10
15.79463403802856
 20
795.58307003579455
 30
0.0
 11
19.794634038028558
 21
795.58307003579455
 31
0.0
  0
ARC
  5
F37
  8
0
 10
15.79463403802856
 20
795.08307003579455
 30
0.0
 40
0.5
 50
90.0
 51
180.0
  0
ARC
  5
F38
  8
0
 10
19.794634038028558
 20
795.08307003579455
 30
0.0
 40
0.5
 50
0.0000000000002036
 51
90.0
  0
ARC
  5
F39
  8
0
 10
9.7946340380285601
 20
795.08307003579455
 30
0.0
 40
0.5
 50
359.99999999999972
 51
90.000000000000725
  0
ARC
  5
F3A
  8
0
 10
23.294634038028558
 20
787.28349730040554
 30
0.0
 40
1.0
 50
289.98310652189957
 51
0.0000000000001145
  0
LINE
  5
F3B
  8
0
 10
21.294634038028558
 20
787.28349730040554
 30
0.0
 11
24.294634038028558
 21
787.28349730040554
 31
0.0
  0
ARC
  5
F3C
  8
0
 10
21.294634038028558
 20
788.28349730040554
 30
0.0
 40
1.0
 50
180.0
 51
270.0
  0
ARC
  5
F3D
  8
0
 10
14.29463403802856
 20
788.28349730040554
 30
0.0
 40
1.0
 50
270.0
 51
0.0
  0
LINE
  5
F3E
  8
0
 10
23.636377101115158
 20
786.34370387691706
 30
0.0
 11
17.361147911855142
 21
784.06180235354975
 31
0.0
  0
ARC
  5
F3F
  8
0
 10
11.29463403802856
 20
788.28349730040554
 30
0.0
 40
1.0
 50
180.0
 51
270.0
  0
LINE
  5
F40
  8
0
 10
11.29463403802856
 20
787.28349730040554
 30
0.0
 11
24.294634038028558
 21
787.28349730040554
 31
0.0
  0
LINE
  5
F41
  8
0
 10
10.29463403802856
 20
788.28349730040554
 30
0.0
 11
10.29463403802856
 21
795.08307003579455
 31
0.0
  0
LINE
  5
F42
  8
0
 10
15.29463403802856
 20
788.28349730040554
 30
0.0
 11
15.29463403802856
 21
795.08307003579455
 31
0.0
  0
LINE
  5
F43
  8
0
 10
24.294634038028558
 20
787.28349730040554
 30
0.0
 11
24.294634038028558
 21
800.58307003579466
 31
0.0
  0
LINE
  5
F44
  8
0
 10
20.294634038028558
 20
788.28349730040554
 30
0.0
 11
20.294634038028558
 21
795.08307003579455
 31
0.0
  0
LINE
  5
F45
  8
0
 62
     7
 10
15.69463403802842
 20
800.58307003579466
 30
0.0
 11
21.694634038028418
 21
800.58307003579466
 31
0.0
  0
LINE
  5
F46
  8
0
 62
     7
 10
19.294634038028331
 20
805.58307003579455
 30
0.0
 11
19.294634038028558
 21
800.58307003579466
 31
0.0
  0
LINE
  5
F47
  8
0
 62
     7
 10
-2.1776167035029621
 20
834.58307003579466
 30
0.0
 11
27.294636601721091
 21
834.58307003579466
 31
0.0
  0
CIRCLE
  5
F48
  8
0
 62
     7
 10
-15.705365961971481
 20
818.98307003579475
 30
0.0
 40
9.25
  0
LINE
  5
F4E
  8
CENTER
  6
CENTER
 10
26.794634038028331
 20
822.58307003579455
 30
0.0
 11
10.555801610574459
 21
822.58307003579455
 31
0.0
  0
LINE
  5
F4F
  8
0
 10
31.294634038028441
 20
852.58307003579478
 30
0.0
 11
9.5446340380284056
 21
852.58307003579478
 31
0.0
  0
LINE
  5
F50
  8
0
 10
34.294634038028448
 20
849.58307003579466
 30
0.0
 11
13.29463403802874
 21
849.58307003579466
 31
0.0
  0
LINE
  5
F51
  8
0
 10
13.29463403802856
 20
849.58307003579466
 30
0.0
 11
26.794634038028331
 21
849.58307003579466
 31
0.0
  0
LINE
  5
F52
  8
0
 10
8.2946340380283345
 20
853.58307003579478
 30
0.0
 11
13.29463403802867
 21
849.58307003579466
 31
0.0
  0
ARC
  5
F53
  8
0
 10
26.794634038028331
 20
849.08307003579478
 30
0.0
 40
0.5
 50
0.0
 51
90.0
  0
LINE
  5
F54
  8
0
 10
27.294634038028331
 20
849.08307003579478
 30
0.0
 11
27.294634038028331
 21
840.58307003579466
 31
0.0
  0
LINE
  5
F58
  8
0
 62
     7
 10
26.794634038028331
 20
840.58307003579466
 30
0.0
 11
27.794634038028331
 21
839.58307003579455
 31
0.0
  0
ARC
  5
F59
  8
0
 62
     7
 10
27.294634038028558
 20
835.08307003579466
 30
0.0
 40
0.5
 50
270.0
 51
0.0
  0
LINE
  5
F5A
  8
0
 62
     7
 10
27.794634038028331
 20
839.58307003579455
 30
0.0
 11
27.794634038028331
 21
835.08307003579455
 31
0.0
  0
ARC
  5
F5B
  8
0
 62
     7
 10
26.794634038028331
 20
833.58307003579466
 30
0.0
 40
1.0
 50
90.00000000000081
 51
180.0
  0
LINE
  5
F5C
  8
0
 10
-27.205365961971658
 20
910.58307003579478
 30
0.0
 11
-20.205365961971779
 21
910.58307003579455
 31
0.0
  0
LINE
  5
F5D
  8
0
 10
-28.205365961971658
 20
902.58307003579478
 30
0.0
 11
-28.205365961971658
 21
909.58307003579478
 31
0.0
  0
ARC
  5
F5E
  8
0
 10
-29.205365961971658
 20
902.58307003579478
 30
0.0
 40
1.0
 50
270.0
 51
359.9999999999996
  0
LINE
  5
F5F
  8
0
 10
-34.785233080405533
 20
901.58307003579478
 30
0.0
 11
-29.205365961971658
 21
901.58307003579478
 31
0.0
  0
ARC
  5
F60
  8
0
 10
-34.785233080405533
 20
900.58307003579466
 30
0.0
 40
1.0
 50
90.0
 51
175.2363583092737
  0
ARC
  5
F61
  8
0
 10
-27.205365961971658
 20
909.58307003579478
 30
0.0
 40
1.0
 50
90.0
 51
179.9999999999998
  0
DIMENSION
  5
F62
  8
DIM
  2
*D72
 10
34.294634038028448
 20
943.05165938372249
 30
0.0
 11
9.2946340380283932
 21
945.55165938372249
 31
0.0
 70
     0
 13
-15.70536596197166
 23
938.68610155852184
 33
0.0
 14
34.294634038028448
 24
879.58307003579478
 34
0.0
  0
LINE
  5
F6F
  8
0
 10
-3.2053659619714381
 20
902.58307003579478
 30
0.0
 11
-3.205365961971665
 21
909.58307003579478
 31
0.0
  0
ARC
  5
F70
  8
0
 10
3.3745011564624292
 20
900.58307003579466
 30
0.0
 40
1.0
 50
4.7636416907261268
 51
90.0
  0
ARC
  5
F71
  8
0
 10
-2.2053659619714381
 20
902.58307003579478
 30
0.0
 40
1.0
 50
180.0000000000002
 51
270.0
  0
LINE
  5
F72
  8
0
 10
-2.2053659619714381
 20
901.58307003579478
 30
0.0
 11
3.3745011564624292
 21
901.58307003579478
 31
0.0
  0
LINE
  5
F73
  8
HIDDEN
  6
HIDDEN
 10
31.294634038028558
 20
865.08307003579455
 30
0.0
 11
34.294634038028448
 21
865.08307003579455
 31
0.0
  0
LINE
  5
F74
  8
CENTER
  6
CENTER
 10
28.424506082976439
 20
869.58307003579455
 30
0.0
 11
37.464607329004359
 21
869.58307003579455
 31
0.0
  0
LINE
  5
F75
  8
HIDDEN
  6
HIDDEN
 10
31.294634038028558
 20
874.08307003579455
 30
0.0
 11
34.294634038028448
 21
874.08307003579455
 31
0.0
  0
LINE
  5
F76
  8
0
 10
31.294634038028441
 20
879.58307003579478
 30
0.0
 11
34.294634038028448
 21
879.58307003579478
 31
0.0
  0
CIRCLE
  5
F77
  8
0
 10
-15.70536596197166
 20
930.08307003579466
 30
0.0
 40
2.5
  0
LINE
  5
F78
  8
0
 10
-20.705365961971658
 20
934.58307003579466
 30
0.0
 11
-20.705365961971658
 21
925.58307003579466
 31
0.0
  0
LINE
  5
F79
  8
0
 10
-10.70536596197166
 20
925.58307003579466
 30
0.0
 11
-10.70536596197166
 21
934.58307003579466
 31
0.0
  0
LINE
  5
F7A
  8
0
 10
-20.705365961971658
 20
929.08307003579466
 30
0.0
 11
-20.705365961971658
 21
934.08307003579478
 31
0.0
  0
LINE
  5
F7B
  8
0
 10
-10.70536596197166
 20
927.58307003579478
 30
0.0
 11
-10.70536596197166
 21
932.58307003579466
 31
0.0
  0
LINE
  5
F7C
  8
0
 10
-15.70536596197155
 20
910.58307003579478
 30
0.0
 11
-4.2053659619716646
 21
910.58307003579478
 31
0.0
  0
LINE
  5
F7D
  8
0
 10
-10.70536596197166
 20
925.58307003579466
 30
0.0
 11
-20.705365961971658
 21
925.58307003579466
 31
0.0
  0
LINE
  5
F7E
  8
0
 10
-10.70536596197166
 20
923.58307003579466
 30
0.0
 11
-20.705365961971658
 21
923.58307003579466
 31
0.0
  0
LINE
  5
F7F
  8
0
 10
-20.705365961971658
 20
910.58307003579478
 30
0.0
 11
-10.70536596197166
 21
910.58307003579478
 31
0.0
  0
LINE
  5
F80
  8
0
 10
-11.205365961971779
 20
910.58307003579478
 30
0.0
 11
-11.20536596197166
 21
925.58307003579466
 31
0.0
  0
LINE
  5
F81
  8
0
 10
-20.705365961971658
 20
923.58307003579466
 30
0.0
 11
-20.705365961971658
 21
910.58307003579478
 31
0.0
  0
LINE
  5
F82
  8
0
 10
-20.205365961971658
 20
925.58307003579466
 30
0.0
 11
-20.205365961971779
 21
910.58307003579478
 31
0.0
  0
LINE
  5
F83
  8
0
 10
-10.705365961971779
 20
910.58307003579478
 30
0.0
 11
-10.70536596197166
 21
923.58307003579466
 31
0.0
  0
ARC
  5
F84
  8
0
 10
-4.2053659619716646
 20
909.58307003579478
 30
0.0
 40
1.0
 50
0.0000000000002036
 51
90.0
  0
LINE
  5
F85
  8
CENTER
  6
CENTER
 10
-22.802742924799301
 20
930.08307003579466
 30
0.0
 11
-8.0372393993282003
 21
930.08307003579466
 31
0.0
  0
LINE
  5
F86
  8
0
 10
-10.70536596197166
 20
934.58307003579466
 30
0.0
 11
-20.705365961971658
 21
934.58307003579466
 31
0.0
  0
ARC
  5
F87
  8
0
 10
-15.70536596197166
 20
926.99973670246129
 30
0.0
 40
9.0833333333333162
 50
56.601511532012687
 51
123.39848846798731
  0
TEXT
  5
F88
  8
0
  6
BYBLOCK
 10
-72.862536340774568
 20
1025.2361155030119
 30
0.0
 40
15.0
  1
MAFR-400
  7
CHINESET
  0
DIMENSION
  5
F89
  8
DIM
  2
*D83
 10
-108.46781008718879
 20
1019.087287414356
 30
0.0
 11
-110.96781008718889
 21
1039.0872874143561
 31
0.0
 70
     0
 13
-126.7797971021832
 23
1059.0872874143561
 33
0.0
 14
-130.77979710218321
 24
1019.087287414356
 34
0.0
 50
90.0
  0
LINE
  5
F96
  8
CENTER
  6
CENTER
 10
-136.77979710218321
 20
1061.7522412085659
 30
0.0
 11
-136.77979710218321
 21
1051.6975117543211
 31
0.0
  0
LINE
  5
F97
  8
0
 10
-126.7797971021832
 20
1059.0872874143561
 30
0.0
 11
-126.7797971021832
 21
1023.087287414356
 31
0.0
  0
CIRCLE
  5
F98
  8
0
 10
-135.10429038345609
 20
975.94966535150695
 30
0.0
 40
2.5
  0
ARC
  5
F99
  8
0
 10
-144.90620491969571
 20
993.94966535150706
 30
0.0
 40
3.624999999999917
 50
316.39718102729569
 51
43.602818972704881
  0
LINE
  5
F9A
  8
0
 10
-142.2812049196958
 20
996.44966535150695
 30
0.0
 11
-142.2812049196958
 21
991.44966535150718
 31
0.0
  0
CIRCLE
  5
F9B
  8
0
 10
-135.10429038345609
 20
1011.949665351507
 30
0.0
 40
2.5
  0
ARC
  5
F9C
  8
0
 10
-130.77979710218321
 20
1023.087287414356
 30
0.0
 40
4.0
 50
270.0
 51
0.0000000000000254
  0
LINE
  5
F9D
  8
HIDDEN
  6
HIDDEN
 10
-141.27979710218321
 20
1059.0872874143561
 30
0.0
 11
-141.27979710218321
 21
1056.0872874143561
 31
0.0
  0
LINE
  5
F9E
  8
HIDDEN
  6
HIDDEN
 10
-132.27979710218321
 20
1059.0872874143561
 30
0.0
 11
-132.27979710218321
 21
1056.0872874143561
 31
0.0
  0
LINE
  5
1616
  8
0
 10
-144.4307552069576
 20
881.37767348293744
 30
0.0
 11
-136.28120491969591
 21
881.37767348293744
 31
0.0
  0
TEXT
  5
17D6
  8
LOGO
 62
     6
 10
52.123207735337971
 20
578.01799831100675
 30
0.0
 40
7.712555760960182
  1
配管口徑
 41
0.9
  7
CHINESET
 72
     4
 11
66.078113315325311
 21
581.87427619148684
 31
0.0
  0
LINE
  5
17D7
  8
LOGO
 62
     6
 10
85.99426356407406
 20
567.41323413968655
 30
0.0
 11
46.161963066576561
 21
567.41323413968644
 31
0.0
  0
LINE
  5
17D8
  8
LOGO
 62
     6
 10
85.99426356407406
 20
588.62276248232695
 30
0.0
 11
46.161963066576561
 21
588.62276248232695
 31
0.0
  0
TEXT
  5
17D9
  8
LOGO
  6
CONTINUOUS
 62
     6
 10
52.85658915367928
 20
569.82340781498635
 30
0.0
 40
4.8203473506001142
  1
Bore size
 41
0.8
  7
CHINESET
 72
     4
 11
66.078113315325311
 21
572.2335814902865
 31
0.0
  0
TEXT
  5
17DA
  8
LOGO
  6
CONTINUOUS
 62
     7
 10
59.173539834792088
 20
601.04633950848881
 30
0.0
 40
9.6406947012002284
  1
?A
  7
CHINESET
 72
     1
 11
66.977911735763712
 21
605.86668685908876
 31
0.0
 73
     2
  0
LINE
  5
17DB
  8
LOGO
 62
     6
 10
82.137985683593925
 20
614.65263817556763
 30
0.0
 11
50.018240947056647
 21
614.65263817556763
 31
0.0
  0
LINE
  5
17DC
  8
LOGO
 62
     6
 10
82.137985683593854
 20
597.29938771340699
 30
0.0
 11
50.018240947056647
 21
597.2993877134071
 31
0.0
  0
LINE
  5
17DD
  8
LOGO
 62
     1
 10
89.341226535625097
 20
620.43705499628766
 30
0.0
 11
-241.02701869690549
 21
620.43705499628766
 31
0.0
  0
LINE
  5
17DE
  8
LOGO
 62
     1
 10
89.341226535625097
 20
562.59288678908638
 30
0.0
 11
-241.02701869690549
 21
562.59288678908638
 31
0.0
  0
LINE
  5
17DF
  8
LOGO
  6
CONTINUOUS
 62
     6
 10
-131.0453413133944
 20
605.06400130056124
 30
0.0
 11
-120.5164216815739
 21
606.45474599997056
 31
0.0
  0
LINE
  5
17E0
  8
LOGO
  6
CONTINUOUS
 62
     6
 10
-131.0453413133944
 20
601.12835358751101
 30
0.0
 11
-120.5164216815739
 21
599.73760888810182
 31
0.0
  0
LINE
  5
17E1
  8
LOGO
 62
     1
 10
-113.7698486410625
 20
608.86822135484749
 30
0.0
 11
-198.60796201162449
 21
608.86822135484749
 31
0.0
  0
LINE
  5
17E2
  8
LOGO
 62
     1
 10
-113.7698486410625
 20
597.2993877134071
 30
0.0
 11
-198.60796201162449
 21
597.2993877134071
 31
0.0
  0
TEXT
  5
17E3
  8
LOGO
 62
     6
 10
-143.65504844117859
 20
611.76042976520762
 30
0.0
 40
5.7844168207201356
  1
1 : 1
  7
CHINESET
 72
     1
 11
-133.4634568999098
 21
614.65263817556763
 31
0.0
 73
     2
  0
TEXT
  5
17E4
  8
LOGO
 62
     6
 10
-143.65504844117859
 20
588.62276248232695
 30
0.0
 40
5.7844168207201356
  1
m/m
  7
CHINESET
 72
     1
 11
-133.4634568999098
 21
591.51497089268696
 31
0.0
 73
     2
  0
LINE
  5
17E5
  8
LOGO
 62
     1
 10
-113.7698486410625
 20
585.73055407196705
 30
0.0
 11
-241.02701869690549
 21
585.73055407196705
 31
0.0
  0
TEXT
  5
17E6
  8
LOGO
  6
CONTINUOUS
 62
     5
 10
-239.13368140677599
 20
573.95628633892989
 30
0.0
 40
8.6766252310802052
  1
金器工業股份有限公司
 41
0.8
  7
LOGO
  0
TEXT
  5
17E7
  8
LOGO
  6
CONTINUOUS
 62
     5
 10
-236.6492192647311
 20
565.27796116957813
 30
0.0
 40
5.7844168207201356
  1
MINDMAN INDUSTRIAL CO.,LTD
 41
0.85
  7
CHINESET
  0
SOLID
  5
17E8
  8
LOGO
 62
     5
 10
-235.02559341257879
 20
595.34632368951475
 30
0.0
 11
-232.52456336239689
 21
595.34632368951384
 31
0.0
 12
-222.08923108405051
 22
619.06298795848238
 32
0.0
 13
-219.58820103386881
 23
619.06298795848079
 33
0.0
  0
SOLID
  5
17E9
  8
LOGO
 62
     5
 10
-231.48965437611321
 20
595.34632368951475
 30
0.0
 11
-228.98862432593151
 21
595.34632368951475
 31
0.0
 12
-219.58820103386881
 22
617.16565481696421
 32
0.0
 13
-222.08923108405051
 23
607.99521129962977
 33
0.0
  0
SOLID
  5
17EA
  8
LOGO
 62
     2
 10
-232.52456336239689
 20
595.34632368951384
 30
0.0
 11
-231.48965437611321
 21
595.34632368951475
 31
0.0
 12
-219.58820103386881
 22
619.06298795848079
 32
0.0
 13
-218.55329204758581
 23
619.06298795848079
 33
0.0
  0
SOLID
  5
17EB
  8
LOGO
 62
     5
 10
-232.45320250649701
 20
591.03420291333862
 30
0.0
 11
-231.5907783512626
 21
591.03420291333862
 31
0.0
 12
-232.45320250649701
 22
586.72208213716351
 32
0.0
 13
-231.5907783512626
 23
586.72208213716351
 33
0.0
  0
SOLID
  5
17EC
  8
LOGO
 62
     5
 10
-239.03535791071701
 20
586.72208213716351
 30
0.0
 11
-238.1729337554809
 21
586.72208213716351
 31
0.0
 12
-235.74428020860759
 22
591.03420291333862
 32
0.0
 13
-234.88185605337301
 23
591.03420291333862
 33
0.0
  0
SOLID
  5
17ED
  8
LOGO
 62
     5
 10
-235.74428020860759
 20
591.03420291333862
 30
0.0
 11
-234.88185605337301
 21
591.03420291333862
 31
0.0
 12
-235.74428020860759
 22
586.72208213716351
 32
0.0
 13
-234.88185605337301
 23
586.72208213716351
 33
0.0
  0
SOLID
  5
17EE
  8
LOGO
 62
     5
 10
-235.74428020860759
 20
586.72208213716351
 30
0.0
 11
-234.88185605337301
 21
586.72208213716351
 31
0.0
 12
-232.45320250649701
 22
591.03420291333862
 32
0.0
 13
-231.5907783512626
 23
591.03420291333862
 33
0.0
  0
LINE
  5
17EF
  8
LOGO
 62
     1
 10
-241.02701869690549
 20
562.59288678908638
 30
0.0
 11
-241.02701869690549
 21
620.43705499628766
 31
0.0
  0
TEXT
  5
17F0
  8
LOGO
 62
     6
 10
-193.83840046346819
 20
611.76327642702881
 30
0.0
 40
5.7844168207201356
  1
比例 Scale:
 41
0.9
  7
CHINESET
 72
     4
 11
-175.47029472874399
 21
614.65263817556763
 31
0.0
  0
TEXT
  5
17F1
  8
LOGO
 62
     6
 10
-191.81643690515401
 20
600.27296320749031
 30
0.0
 40
5.7844168207201356
  1
投影 View:
 41
0.9
  7
CHINESET
 72
     4
 11
-175.47029472874399
 21
603.08380453412724
 31
0.0
  0
TEXT
  5
17F2
  8
LOGO
 62
     6
 10
-191.25090686777099
 20
588.62276248232695
 30
0.0
 40
5.7844168207201356
  1
單位 Unit:
 41
0.9
  7
CHINESET
 72
     4
 11
-175.47029472874399
 21
591.51497089268696
 31
0.0
  0
POLYLINE
  5
17F3
  8
LOGO
 62
     5
 66
     1
 10
0.0
 20
0.0
 30
0.0
 70
     1
 40
0.8638062452275402
 41
0.8638062452275402
  0
VERTEX
  5
18D4
  8
LOGO
 62
     5
 10
-211.45537318785821
 20
588.8781425252505
 30
0.0
 42
1.0
  0
VERTEX
  5
18D5
  8
LOGO
 62
     5
 10
-208.0001482069481
 20
588.8781425252505
 30
0.0
 42
1.0
  0
SEQEND
  5
18D6
  8
LOGO
 62
     5
  0
LINE
  5
17F4
  8
LOGO
 62
     5
 10
-203.11589966887689
 20
586.72208213716351
 30
0.0
 11
-203.11589966887689
 21
589.30935460286821
 31
0.0
  0
SOLID
  5
17F5
  8
LOGO
 62
     5
 10
-208.434210706964
 20
591.03420291333862
 30
0.0
 11
-207.57178655172959
 21
591.03420291333862
 31
0.0
 12
-208.434210706964
 22
586.72208213716351
 32
0.0
 13
-207.57178655172959
 23
586.72208213716351
 33
0.0
  0
SOLID
  5
17F6
  8
LOGO
 62
     5
 10
-206.56559628981771
 20
586.72208213716351
 30
0.0
 11
-205.70317213458171
 21
586.72208213716351
 31
0.0
 12
-206.56559628981771
 22
591.03420291333862
 32
0.0
 13
-205.70317213458171
 23
591.03420291333862
 33
0.0
  0
SOLID
  5
17F7
  8
LOGO
 62
     5
 10
-203.97832382411119
 20
589.30935460286821
 30
0.0
 11
-203.11589966887689
 21
589.3093546028681
 31
0.0
 12
-203.97832382411119
 22
586.72208213716351
 32
0.0
 13
-203.11589966887689
 23
586.72208213716351
 33
0.0
  0
SOLID
  5
17F8
  8
LOGO
 62
     5
 10
-220.7956810936127
 20
592.32783914619165
 30
0.0
 11
-219.93325693837841
 21
592.32783914619165
 31
0.0
 12
-220.7956810936127
 22
586.72208213716351
 32
0.0
 13
-219.93325693837841
 23
586.72208213716351
 33
0.0
  0
SOLID
  5
17F9
  8
LOGO
 62
     5
 10
-218.92706667646399
 20
591.03420291333862
 30
0.0
 11
-218.0646425212295
 21
591.03420291333862
 31
0.0
 12
-218.92706667646399
 22
586.72208213716351
 32
0.0
 13
-218.0646425212295
 23
586.72208213716351
 33
0.0
  0
SOLID
  5
17FA
  8
LOGO
 62
     5
 10
-216.33979421075909
 20
589.30935460286821
 30
0.0
 11
-215.47737005552469
 21
589.30935460286821
 31
0.0
 12
-216.33979421075909
 22
586.72208213716351
 32
0.0
 13
-215.47737005552469
 23
586.72208213716351
 33
0.0
  0
SOLID
  5
17FB
  8
LOGO
 62
     5
 10
-213.7525217450542
 20
589.30935460286821
 30
0.0
 11
-212.89009758981979
 21
589.30935460286821
 31
0.0
 12
-213.7525217450542
 22
586.72208213716181
 32
0.0
 13
-212.89009758981979
 23
586.72208213716181
 33
0.0
  0
LINE
  5
17FC
  8
LOGO
 62
     1
 10
-198.60796201162449
 20
585.73055407196694
 30
0.0
 11
-198.60796201162449
 21
620.43705499628766
 31
0.0
  0
SOLID
  5
17FD
  8
LOGO
 62
     5
 10
-228.701264597407
 20
591.03420291333862
 30
0.0
 11
-227.8388404421726
 21
591.03420291333862
 31
0.0
 12
-228.701264597407
 22
586.72208213716351
 32
0.0
 13
-227.8388404421726
 23
586.72208213716351
 33
0.0
  0
SOLID
  5
17FE
  8
LOGO
 62
     5
 10
-226.11399213170239
 20
589.30935460286821
 30
0.0
 11
-225.2515679764663
 21
589.30935460286821
 31
0.0
 12
-226.11399213170239
 22
586.72208213716351
 32
0.0
 13
-225.2515679764663
 23
586.72208213716351
 33
0.0
  0
SOLID
  5
17FF
  8
LOGO
 62
     5
 10
-230.56987901455591
 20
591.03420291333862
 30
0.0
 11
-229.707454859319
 21
591.03420291333862
 31
0.0
 12
-230.56987901455591
 22
586.72208213716181
 32
0.0
 13
-229.707454859319
 23
586.72208213716351
 33
0.0
  0
POLYLINE
  5
1800
  8
LOGO
 62
     5
 66
     1
 10
0.0
 20
0.0
 30
0.0
 70
     1
 40
0.8638062452275402
 41
0.8638062452275402
  0
VERTEX
  5
18D7
  8
LOGO
 62
     5
 10
-223.81684357450609
 20
588.8781425252505
 30
0.0
 42
1.0
  0
VERTEX
  5
18D8
  8
LOGO
 62
     5
 10
-220.36161859359589
 20
588.8781425252505
 30
0.0
 42
1.0
  0
SEQEND
  5
18D9
  8
LOGO
 62
     5
  0
POLYLINE
  5
1801
  8
LOGO
 62
     5
 66
     1
 10
0.0
 20
0.0
 30
0.0
 40
0.8638062452275402
 41
0.8638062452275402
  0
VERTEX
  5
18DA
  8
LOGO
 62
     5
 10
-203.54503861150511
 20
589.30935460286821
 30
0.0
 42
1.0
  0
VERTEX
  5
18DB
  8
LOGO
 62
     5
 10
-206.1364573471877
 20
589.30935460286821
 30
0.0
 42
1.0
  0
SEQEND
  5
18DC
  8
LOGO
 62
     5
  0
SOLID
  5
1802
  8
LOGO
 62
     5
 10
-205.61692971905859
 20
595.34632368951384
 30
0.0
 11
-203.11589966887689
 21
595.34632368951384
 31
0.0
 12
-205.61692971905859
 22
619.06298795848079
 32
0.0
 13
-203.11589966887689
 23
619.06298795848238
 33
0.0
  0
SOLID
  5
1803
  8
LOGO
 62
     5
 10
-218.55329204758581
 20
619.06298795848079
 30
0.0
 11
-216.05226199740429
 21
619.06298795848238
 31
0.0
 12
-218.55329204758581
 22
597.24365683103133
 32
0.0
 13
-216.05226199740429
 23
606.41410034836576
 33
0.0
  0
SOLID
  5
1804
  8
LOGO
 62
     5
 10
-218.55329204758581
 20
597.24365683103133
 30
0.0
 11
-216.05226199740429
 21
606.41410034836576
 31
0.0
 12
-206.6518387053415
 22
619.06298795848238
 32
0.0
 13
-209.1528687555234
 23
619.06298795848238
 33
0.0
  0
SOLID
  5
1805
  8
LOGO
 62
     5
 10
-206.6518387053415
 20
617.16565481696421
 30
0.0
 11
-209.1528687555234
 21
607.99521129962977
 31
0.0
 12
-206.6518387053415
 22
595.34632368951384
 32
0.0
 13
-209.1528687555234
 23
595.34632368951384
 33
0.0
  0
SOLID
  5
1806
  8
LOGO
 62
     2
 10
-206.6518387053415
 20
619.06298795848238
 30
0.0
 11
-205.61692971905859
 21
619.06298795848079
 31
0.0
 12
-206.6518387053415
 22
595.34632368951384
 32
0.0
 13
-205.61692971905859
 23
595.34632368951384
 33
0.0
  0
SOLID
  5
1807
  8
LOGO
 62
     5
 10
-222.08923108405051
 20
595.34632368951475
 30
0.0
 11
-219.58820103386881
 21
595.34632368951475
 31
0.0
 12
-222.08923108405051
 22
607.99521129962977
 32
0.0
 13
-219.58820103386881
 23
617.16565481696421
 33
0.0
  0
SOLID
  5
1808
  8
LOGO
 62
     2
 10
-219.58820103386881
 20
619.06298795848079
 30
0.0
 11
-218.55329204758581
 21
619.06298795848079
 31
0.0
 12
-219.58820103386881
 22
595.34632368951475
 32
0.0
 13
-218.55329204758581
 23
595.34632368951475
 33
0.0
  0
SOLID
  5
1809
  8
LOGO
 62
     5
 10
-218.55329204758581
 20
595.34632368951475
 30
0.0
 11
-216.05226199740429
 21
595.34632368951475
 31
0.0
 12
-206.6518387053415
 22
617.16565481696421
 32
0.0
 13
-209.1528687555234
 23
607.99521129962977
 33
0.0
  0
SOLID
  5
180A
  8
LOGO
 62
     2
 10
-219.58820103386881
 20
595.34632368951475
 30
0.0
 11
-218.55329204758581
 21
595.34632368951475
 31
0.0
 12
-206.6518387053415
 22
619.06298795848238
 32
0.0
 13
-205.61692971905859
 23
619.06298795848079
 33
0.0
  0
POLYLINE
  5
180B
  8
LOGO
 62
     5
 66
     1
 10
0.0
 20
0.0
 30
0.0
 40
0.8638062452275402
 41
0.8638062452275402
  0
VERTEX
  5
18DD
  8
LOGO
 62
     5
 10
-215.90650899815299
 20
589.30935460286821
 30
0.0
 42
1.0
  0
VERTEX
  5
18DE
  8
LOGO
 62
     5
 10
-218.4979277338357
 20
589.30935460286821
 30
0.0
 42
1.0
  0
SEQEND
  5
18DF
  8
LOGO
 62
     5
  0
POLYLINE
  5
180C
  8
LOGO
 62
     5
 66
     1
 10
0.0
 20
0.0
 30
0.0
 40
0.8638062452275402
 41
0.8638062452275402
  0
VERTEX
  5
18E0
  8
LOGO
 62
     5
 10
-225.68070691909591
 20
589.30935460286821
 30
0.0
 42
1.0
  0
VERTEX
  5
18E1
  8
LOGO
 62
     5
 10
-228.2721256547787
 20
589.30935460286821
 30
0.0
 42
1.0
  0
SEQEND
  5
18E2
  8
LOGO
 62
     5
  0
SOLID
  5
180D
  8
LOGO
 62
     5
 10
-230.56987901455591
 20
591.63789982200296
 30
0.0
 11
-229.707454859319
 21
591.63789982200296
 31
0.0
 12
-230.56987901455591
 22
592.32783914619165
 32
0.0
 13
-229.707454859319
 23
592.32783914619165
 33
0.0
  0
POLYLINE
  5
180E
  8
LOGO
 62
     5
 66
     1
 10
0.0
 20
0.0
 30
0.0
 70
     1
  0
VERTEX
  5
18E3
  8
LOGO
 62
     5
 10
-211.02139693025561
 20
588.87814252525095
 30
0.0
 42
1.0000000573306349
  0
VERTEX
  5
18E4
  8
LOGO
 62
     5
 10
-208.4341244645496
 20
588.87814252525095
 30
0.0
 42
1.0000000573306349
  0
SEQEND
  5
18E5
  8
LOGO
 62
     5
  0
CIRCLE
  5
180F
  8
LOGO
 62
     5
 10
-209.72776069740269
 20
588.87814252525095
 30
0.0
 40
1.293636232852764
  0
POLYLINE
  5
1810
  8
LOGO
 62
     5
 66
     1
 10
0.0
 20
0.0
 30
0.0
 40
0.8638062452275402
 41
0.8638062452275402
  0
VERTEX
  5
18E6
  8
LOGO
 62
     5
 10
-213.31923653244809
 20
589.30935460286821
 30
0.0
 42
1.0
  0
VERTEX
  5
18E7
  8
LOGO
 62
     5
 10
-215.9106552681308
 20
589.30935460286821
 30
0.0
 42
1.0
  0
SEQEND
  5
18E8
  8
LOGO
 62
     5
  0
LINE
  5
1811
  8
LOGO
 62
     1
 10
-152.33262744586341
 20
585.73055407196694
 30
0.0
 11
-152.33262744586341
 21
620.43705499628766
 31
0.0
  0
CIRCLE
  5
1812
  8
LOGO
  6
CONTINUOUS
 62
     6
 10
-141.62205619888101
 20
603.09617744403613
 30
0.0
 40
3.358568555934387
  0
CIRCLE
  5
1813
  8
LOGO
  6
CONTINUOUS
 62
     6
 10
-141.62205619888101
 20
603.09617744403613
 30
0.0
 40
1.9678238565251021
  0
LINE
  5
1814
  8
LOGO
 62
     6
 10
-131.04534131339429
 20
601.12835358751101
 30
0.0
 11
-131.0453413133944
 21
605.06400130056124
 31
0.0
  0
TEXT
  5
1815
  8
LOGO
  6
CONTINUOUS
 62
     6
 10
-8.2490634459308723
 20
569.82340781498647
 30
0.0
 40
4.8203473506001142
  1
Model
  7
CHINESET
 72
     4
 11
0.9325505552122024
 21
572.23358149028661
 31
0.0
  0
TEXT
  5
1816
  8
LOGO
  6
CONTINUOUS
 62
     7
 10
-31.545112660612411
 20
601.15566559388731
 30
0.0
 40
9.6406947012002284
  1
MAFR400
  7
CHINESET
 72
     1
 11
0.3609959933597793
 21
605.97601294448737
 31
0.0
 73
     2
  0
LINE
  5
1817
  8
LOGO
 62
     6
 10
36.07286363699302
 20
614.65263817556763
 30
0.0
 11
-34.207762526568587
 21
614.65263817556763
 31
0.0
  0
LINE
  5
1818
  8
LOGO
 62
     6
 10
36.07286363699302
 20
597.2993877134071
 30
0.0
 11
-34.207762526568587
 21
597.2993877134071
 31
0.0
  0
LINE
  5
1819
  8
LOGO
 62
     6
 10
20.213939957612691
 20
588.62276248232695
 30
0.0
 11
-18.348838847188201
 21
588.62276248232695
 31
0.0
  0
LINE
  5
181A
  8
LOGO
 62
     6
 10
20.213939957612691
 20
567.41323413968655
 30
0.0
 11
-18.348838847188201
 21
567.41323413968644
 31
0.0
  0
TEXT
  5
181B
  8
LOGO
 62
     7
 10
-109.03502071968251
 20
605.95419081372881
 30
0.0
 40
11.568833641440269
  1
訂購代號:
  7
CHINESET
  0
TEXT
  5
181C
  8
LOGO
 62
     7
 10
-110.41871700343989
 20
595.09650920734362
 30
0.0
 40
7.712555760960182
  1
Order example:
 41
0.8
  7
CHINESET
  0
LINE
  5
181D
  8
LOGO
 62
     1
 10
-113.7698486410625
 20
562.59288678908638
 30
0.0
 11
-113.7698486410625
 21
620.43705499628766
 31
0.0
  0
LINE
  5
181E
  8
LOGO
 62
     6
 10
-120.5164216815739
 20
599.73760888810182
 30
0.0
 11
-120.5164216815739
 21
606.45474599997056
 31
0.0
  0
LINE
  5
181F
  8
LOGO
 62
     6
 10
-18.348838847188201
 20
588.62276248232695
 30
0.0
 11
-18.348838847188201
 21
567.41323413968644
 31
0.0
  0
LINE
  5
1820
  8
LOGO
 62
     6
 10
-34.207762526568587
 20
614.65263817556763
 30
0.0
 11
-34.207762526568587
 21
597.2993877134071
 31
0.0
  0
LINE
  5
1821
  8
LOGO
 62
     6
 10
20.213939957612691
 20
588.62276248232695
 30
0.0
 11
20.213939957612691
 21
567.41323413968655
 31
0.0
  0
TEXT
  5
1822
  8
LOGO
 62
     6
 10
-6.7800052057479832
 20
578.21536686394472
 30
0.0
 40
7.712555760960182
  1
型式
  7
CHINESET
 72
     4
 11
0.9325505552122024
 21
581.87427619148684
 31
0.0
  0
LINE
  5
1823
  8
LOGO
 62
     6
 10
0.9325505552122024
 20
597.2993877134071
 30
0.0
 11
0.9325505552122024
 21
588.62276248232695
 31
0.0
  0
LINE
  5
1824
  8
LOGO
 62
     6
 10
36.07286363699307
 20
614.65263817556763
 30
0.0
 11
36.07286363699307
 21
597.2993877134071
 31
0.0
  0
LINE
  5
1825
  8
LOGO
 62
     6
 10
46.161963066576561
 20
588.62276248232695
 30
0.0
 11
46.161963066576561
 21
567.41323413968644
 31
0.0
  0
LINE
  5
1826
  8
LOGO
  6
CONTINUOUS
 62
     7
 10
39.354702079580079
 20
605.91454498888879
 30
0.0
 11
47.017264291696669
 21
605.91454498888879
 31
0.0
  0
LINE
  5
1827
  8
LOGO
 62
     6
 10
50.018240947056768
 20
614.65263817556763
 30
0.0
 11
50.018240947056647
 21
597.2993877134071
 31
0.0
  0
LINE
  5
1828
  8
LOGO
 62
     6
 10
66.486475635646855
 20
597.2993877134071
 30
0.0
 11
66.486475635646855
 21
588.62276248232695
 31
0.0
  0
LINE
  5
1829
  8
LOGO
 62
     6
 10
85.99426356407406
 20
588.62276248232695
 30
0.0
 11
85.99426356407406
 21
567.33326015426235
 31
0.0
  0
LINE
  5
182A
  8
LOGO
 62
     6
 10
82.137985683593925
 20
614.65263817556763
 30
0.0
 11
82.137985683593854
 21
597.29938771340699
 31
0.0
  0
LINE
  5
182B
  8
LOGO
 62
     1
 10
89.341226535625097
 20
562.59288678908638
 30
0.0
 11
89.341226535625097
 21
620.43705499628766
 31
0.0
  0
ENDSEC
  0
EOF
