  0
SECTION
  2
HEADER
  9
$ACADVER
  1
AC1015
  9
$ACADMAINTVER
 70
    20
  9
$DWGCODEPAGE
  3
ANSI_950
  9
$INSBASE
 10
0.0
 20
0.0
 30
0.0
  9
$EXTMIN
 10
1.000000000000000E+20
 20
1.000000000000000E+20
 30
1.000000000000000E+20
  9
$EXTMAX
 10
0.0
 20
0.0
 30
0.0
  9
$LIMMIN
 10
0.0
 20
0.0
  9
$LIMMAX
 10
17.0
 20
11.0
  9
$ORTHOMODE
 70
     1
  9
$REGENMODE
 70
     1
  9
$FILLMODE
 70
     1
  9
$QTEXTMODE
 70
     0
  9
$MIRRTEXT
 70
     1
  9
$LTSCALE
 40
1.0
  9
$ATTMODE
 70
     1
  9
$TEXTSIZE
 40
3.0
  9
$TRACEWID
 40
0.05
  9
$TEXTSTYLE
  7
DAYUS
  9
$CLAYER
  8
0
  9
$CELTYPE
  6
BYLAYER
  9
$CECOLOR
 62
   256
  9
$CELTSCALE
 40
1.0
  9
$DISPSILH
 70
     0
  9
$DIMSCALE
 40
1.0
  9
$DIMASZ
 40
3.5
  9
$DIMEXO
 40
1.0
  9
$DIMDLI
 40
8.0
  9
$DIMRND
 40
0.0
  9
$DIMDLE
 40
0.0
  9
$DIMEXE
 40
1.0
  9
$DIMTP
 40
0.1
  9
$DIMTM
 40
0.1
  9
$DIMTXT
 40
3.5
  9
$DIMCEN
 40
0.0
  9
$DIMTSZ
 40
0.0
  9
$DIMTOL
 70
     0
  9
$DIMLIM
 70
     0
  9
$DIMTIH
 70
     0
  9
$DIMTOH
 70
     0
  9
$DIMSE1
 70
     0
  9
$DIMSE2
 70
     0
  9
$DIMTAD
 70
     1
  9
$DIMZIN
 70
     8
  9
$DIMBLK
  1

  9
$DIMASO
 70
     1
  9
$DIMSHO
 70
     1
  9
$DIMPOST
  1

  9
$DIMAPOST
  1
"
  9
$DIMALT
 70
     0
  9
$DIMALTD
 70
     2
  9
$DIMALTF
 40
0.0393701
  9
$DIMLFAC
 40
1.0
  9
$DIMTOFL
 70
     1
  9
$DIMTVP
 40
0.0
  9
$DIMTIX
 70
     0
  9
$DIMSOXD
 70
     0
  9
$DIMSAH
 70
     0
  9
$DIMBLK1
  1

  9
$DIMBLK2
  1

  9
$DIMSTYLE
  2
AM_ISO
  9
$DIMCLRD
 70
   256
  9
$DIMCLRE
 70
   256
  9
$DIMCLRT
 70
   256
  9
$DIMTFAC
 40
0.71
  9
$DIMGAP
 40
1.0
  9
$DIMJUST
 70
     0
  9
$DIMSD1
 70
     0
  9
$DIMSD2
 70
     0
  9
$DIMTOLJ
 70
     0
  9
$DIMTZIN
 70
     8
  9
$DIMALTZ
 70
     0
  9
$DIMALTTZ
 70
     0
  9
$DIMUPT
 70
     0
  9
$DIMDEC
 70
     2
  9
$DIMTDEC
 70
     2
  9
$DIMALTU
 70
     2
  9
$DIMALTTD
 70
     2
  9
$DIMTXSTY
  7
STANDARD
  9
$DIMAUNIT
 70
     0
  9
$DIMADEC
 70
     0
  9
$DIMALTRND
 40
0.0
  9
$DIMAZIN
 70
     2
  9
$DIMDSEP
 70
    46
  9
$DIMATFIT
 70
     3
  9
$DIMFRAC
 70
     0
  9
$DIMLDRBLK
  1

  9
$DIMLUNIT
 70
     2
  9
$DIMLWD
 70
    -1
  9
$DIMLWE
 70
    -1
  9
$DIMTMOVE
 70
     0
  9
$LUNITS
 70
     2
  9
$LUPREC
 70
     2
  9
$SKETCHINC
 40
0.1
  9
$FILLETRAD
 40
2.5
  9
$AUNITS
 70
     0
  9
$AUPREC
 70
     0
  9
$MENU
  1
.
  9
$ELEVATION
 40
0.0
  9
$PELEVATION
 40
0.0
  9
$THICKNESS
 40
0.0
  9
$LIMCHECK
 70
     0
  9
$CHAMFERA
 40
2.5
  9
$CHAMFERB
 40
2.5
  9
$CHAMFERC
 40
1.0
  9
$CHAMFERD
 40
0.0
  9
$SKPOLY
 70
     0
  9
$TDCREATE
 40
2452486.501936366
  9
$TDUCREATE
 40
2452486.168603033
  9
$TDUPDATE
 40
2455397.700882407
  9
$TDUUPDATE
 40
2455397.367549074
  9
$TDINDWG
 40
1.4527366435
  9
$TDUSRTIMER
 40
1.4527365278
  9
$USRTIMER
 70
     1
  9
$ANGBASE
 50
0.0
  9
$ANGDIR
 70
     0
  9
$PDMODE
 70
     0
  9
$PDSIZE
 40
0.0
  9
$PLINEWID
 40
0.0
  9
$SPLFRAME
 70
     0
  9
$SPLINETYPE
 70
     6
  9
$SPLINESEGS
 70
     8
  9
$HANDSEED
  5
FDC
  9
$SURFTAB1
 70
     6
  9
$SURFTAB2
 70
     6
  9
$SURFTYPE
 70
     6
  9
$SURFU
 70
     6
  9
$SURFV
 70
     6
  9
$UCSBASE
  2

  9
$UCSNAME
  2

  9
$UCSORG
 10
0.0
 20
0.0
 30
0.0
  9
$UCSXDIR
 10
1.0
 20
0.0
 30
0.0
  9
$UCSYDIR
 10
0.0
 20
1.0
 30
0.0
  9
$UCSORTHOREF
  2

  9
$UCSORTHOVIEW
 70
     0
  9
$UCSORGTOP
 10
0.0
 20
0.0
 30
0.0
  9
$UCSORGBOTTOM
 10
0.0
 20
0.0
 30
0.0
  9
$UCSORGLEFT
 10
0.0
 20
0.0
 30
0.0
  9
$UCSORGRIGHT
 10
0.0
 20
0.0
 30
0.0
  9
$UCSORGFRONT
 10
0.0
 20
0.0
 30
0.0
  9
$UCSORGBACK
 10
0.0
 20
0.0
 30
0.0
  9
$PUCSBASE
  2

  9
$PUCSNAME
  2

  9
$PUCSORG
 10
0.0
 20
0.0
 30
0.0
  9
$PUCSXDIR
 10
1.0
 20
0.0
 30
0.0
  9
$PUCSYDIR
 10
0.0
 20
1.0
 30
0.0
  9
$PUCSORTHOREF
  2

  9
$PUCSORTHOVIEW
 70
     0
  9
$PUCSORGTOP
 10
0.0
 20
0.0
 30
0.0
  9
$PUCSORGBOTTOM
 10
0.0
 20
0.0
 30
0.0
  9
$PUCSORGLEFT
 10
0.0
 20
0.0
 30
0.0
  9
$PUCSORGRIGHT
 10
0.0
 20
0.0
 30
0.0
  9
$PUCSORGFRONT
 10
0.0
 20
0.0
 30
0.0
  9
$PUCSORGBACK
 10
0.0
 20
0.0
 30
0.0
  9
$USERI1
 70
     0
  9
$USERI2
 70
     0
  9
$USERI3
 70
     0
  9
$USERI4
 70
     0
  9
$USERI5
 70
     0
  9
$USERR1
 40
0.0
  9
$USERR2
 40
0.0
  9
$USERR3
 40
0.0
  9
$USERR4
 40
0.0
  9
$USERR5
 40
0.0
  9
$WORLDVIEW
 70
     1
  9
$SHADEDGE
 70
     3
  9
$SHADEDIF
 70
    70
  9
$TILEMODE
 70
     0
  9
$MAXACTVP
 70
    48
  9
$PINSBASE
 10
0.0
 20
0.0
 30
0.0
  9
$PLIMCHECK
 70
     0
  9
$PEXTMIN
 10
15.83951159531318
 20
20.28499549248261
 30
-0.0059966716976874
  9
$PEXTMAX
 10
266.5701718850775
 20
384.4446697926114
 30
235.9051070892409
  9
$PLIMMIN
 10
-6.805083274841308
 20
-5.365738868713378
  9
$PLIMMAX
 10
290.1209115982056
 20
414.5809164047241
  9
$UNITMODE
 70
     0
  9
$VISRETAIN
 70
     1
  9
$PLINEGEN
 70
     0
  9
$PSLTSCALE
 70
     1
  9
$TREEDEPTH
 70
  3020
  9
$CMLSTYLE
  2
STANDARD
  9
$CMLJUST
 70
     0
  9
$CMLSCALE
 40
1.0
  9
$PROXYGRAPHICS
 70
     1
  9
$MEASUREMENT
 70
     1
  9
$CELWEIGHT
370
    -1
  9
$ENDCAPS
280
     0
  9
$JOINSTYLE
280
     0
  9
$LWDISPLAY
290
     0
  9
$INSUNITS
 70
     4
  9
$HYPERLINKBASE
  1

  9
$STYLESHEET
  1

  9
$XEDIT
290
     1
  9
$CEPSNTYPE
380
     0
  9
$PSTYLEMODE
290
     1
  9
$FINGERPRINTGUID
  2
{A138208D-140B-49AA-88AB-48087993E7EE}
  9
$VERSIONGUID
  2
{3BB1109D-4BF2-428D-A5AE-700A4421A8DD}
  9
$EXTNAMES
290
     1
  9
$PSVPSCALE
 40
0.0
  9
$OLESTARTUP
290
     0
  0
ENDSEC
  0
SECTION
  2
CLASSES
  0
CLASS
  1
ACMESTATEMGR
  2
AcMeStateMgr
  3
AcMeServices
 90
        0
280
     0
281
     0
  0
CLASS
  1
ACMESCOPE
  2
AcMeScope
  3
AcMeServices
 90
        0
280
     0
281
     0
  0
CLASS
  1
ACMECOMMANDHISTORY
  2
AcMeCommandHistory
  3
AcMeServices
 90
        0
280
     0
281
     0
  0
CLASS
  1
ACRFINSADJUSTERMGR
  2
AcRfInsAdjusterMgr
  3
AcMeServices
 90
        0
280
     0
281
     0
  0
CLASS
  1
ACMEDRAWINGMAN
  2
AcMeDrawingMan
  3
AcMeServices
 90
        0
280
     0
281
     0
  0
CLASS
  1
AMATTR
  2
AcMeAttribute
  3
AcMeServices
 90
    32768
280
     0
281
     0
  0
CLASS
  1
ACMEBOMCOLUMN
  2
AcMeBOMColumn
  3
AcMeServices
 90
    32768
280
     0
281
     0
  0
CLASS
  1
ACMEBOMCONF
  2
AcMeBOMConf
  3
AcMeServices
 90
    32768
280
     0
281
     0
  0
CLASS
  1
ACMEBOMTABLE
  2
AcMeBOMTable
  3
AcMeServices
 90
    32768
280
     0
281
     0
  0
CLASS
  1
ACMEBOMENTRY
  2
AcMeBOMEntry
  3
AcMeServices
 90
    32768
280
     0
281
     0
  0
CLASS
  1
ACMEVIEW
  2
AcMeView
  3
AcMeServices
 90
        0
280
     0
281
     0
  0
CLASS
  1
ACGREFMASTER
  2
AcGrefMaster
  3
AcAttribServices
 90
        0
280
     0
281
     0
  0
CLASS
  1
AMIMASTER
  2
AmiMaster
  3
AmiServices
 90
        0
280
     0
281
     0
  0
CLASS
  1
ACASGREFMASTER
  2
AcAsGrefMaster
  3
AutoSurfResolverServices
 90
    32768
280
     0
281
     0
  0
CLASS
  1
ADAPPL
  2
AcAdAppl
  3
DesignerServices
 90
        0
280
     0
281
     0
  0
CLASS
  1
DEPMGR
  2
AcAdDepMgr
  3
DesignerServices
 90
        0
280
     0
281
     0
  0
CLASS
  1
PARAMMGR
  2
AcAdParamMgr
  3
DesignerServices
 90
        0
280
     0
281
     0
  0
CLASS
  1
PARAMSCOPE
  2
AcAdParamScope
  3
DesignerServices
 90
        0
280
     0
281
     0
  0
CLASS
  1
ACIMSYSVARMAN
  2
AcImSysVarManager
  3
AcMeServices
 90
        0
280
     0
281
     0
  0
CLASS
  1
ACIMINTSYSVAR
  2
AcImIntSysVar
  3
AcMeServices
 90
        0
280
     0
281
     0
  0
CLASS
  1
ACIMREALSYSVAR
  2
AcImRealSysVar
  3
AcMeServices
 90
        0
280
     0
281
     0
  0
CLASS
  1
ACIMSTRSYSVAR
  2
AcImStrSysVar
  3
AcMeServices
 90
        0
280
     0
281
     0
  0
CLASS
  1
NAMEDAPPL
  2
AcAdNamedAppl
  3
DesignerServices
 90
        0
280
     0
281
     0
  0
CLASS
  1
ADHNTMPLT
  2
AdHoleNoteTemplateMgr
  3
DesignerServices
 90
    32768
280
     0
281
     0
  0
CLASS
  1
AM_HNTEMPLATE_MGR_NAME
  2
AdHoleNoteTemplateMgrName
  3
DesignerServices
 90
    32768
280
     0
281
     0
  0
CLASS
  1
ACADGREFMODULE
  2
AcAdGrefModule
  3
AdGrefServices
 90
    32768
280
     0
281
     0
  0
CLASS
  1
AM_DRAWING_MGR
  2
AcDmDwgMgr
  3
AcMechDwgViewMgmt
 90
        0
280
     0
281
     0
  0
CLASS
  1
AM_DWG_DOCUMENT
  2
AcDmDwgDocument
  3
AcMechDwgViewMgmt
 90
        0
280
     0
281
     0
  0
CLASS
  1
AM_DWG_SHEET
  2
AcDmSheet
  3
AcMechDwgViewMgmt
 90
        0
280
     0
281
     0
  0
CLASS
  1
AM_VIEWDIMPARMAP
  2
AcDmViewDimParMap
  3
AcMechDwgViewMgmt
 90
        0
280
     0
281
     0
  0
CLASS
  1
AM_DWGMGR_NAME
  2
AcDmDwgMgrName
  3
AcMechDwgViewMgmt
 90
        0
280
     0
281
     0
  0
CLASS
  1
ACAMPROJECT
  2
AcAmProject
  3
DesignerAssemblies
 90
        0
280
     0
281
     0
  0
CLASS
  1
ACAMGRCOMPSET
  2
AcAmGrCompSet
  3
DesignerAssemblies
 90
    32768
280
     1
281
     0
  0
CLASS
  1
ACAMGRCOMPDEFSET
  2
AcAmGrCompDefSet
  3
DesignerAssemblies
 90
        0
280
     0
281
     0
  0
CLASS
  1
ACAMGRCOMPDEF
  2
AcAmGrCompDef
  3
DesignerAssemblies
 90
        0
280
     0
281
     0
  0
CLASS
  1
ACCMCONTEXT
  2
AcCmContext
  3
DesignerAssemblies
 90
        0
280
     0
281
     0
  0
CLASS
  1
ACAMCOMPDEF
  2
AcAmCompDef
  3
DesignerAssemblies
 90
        0
280
     0
281
     0
  0
CLASS
  1
ACAMCOMPDEFMGR
  2
AcAmCompDefMgr
  3
DesignerAssemblies
 90
        0
280
     0
281
     0
  0
CLASS
  1
AMCONTEXTMGR
  2
AcAmContextMgr
  3
DesignerAssemblies
 90
        0
280
     0
281
     0
  0
CLASS
  1
ACAMCONTEXTMODELER
  2
AcAmContextModeler
  3
DesignerAssemblies
 90
        0
280
     0
281
     0
  0
CLASS
  1
ACDMVIEWGEOM
  2
AcDmViewGeometry
  3
AcMechDwgViewMgmt
 90
    32768
280
     0
281
     1
  0
CLASS
  1
CBROWSERAPPOBJECT
  2
CBrowserAppObject
  3
McadcomServices
 90
        0
280
     0
281
     0
  0
CLASS
  1
IM_STATIC_MAN
  2
AcImStaticVarManager
  3
AcMeServices
 90
    32768
280
     0
281
     0
  0
CLASS
  1
ASAPP
  2
AcAsAppObject
  3
AutoSurfServices
 90
    32768
280
     0
281
     0
  0
CLASS
  1
ACIMDBLSTATICVAR
  2
AcImDblStaticVar
  3
AcMeServices
 90
    32768
280
     0
281
     0
  0
CLASS
  1
ACIMSTRSTATICVAR
  2
AcImStrStaticVar
  3
AcMeServices
 90
    32768
280
     0
281
     0
  0
CLASS
  1
ACIMINTSTATICVAR
  2
AcImIntStaticVar
  3
AcMeServices
 90
    32768
280
     0
281
     0
  0
CLASS
  1
CATALOGSTATE
  2
AcAmCatalogState
  3
DesignerAssemblies
 90
        0
280
     0
281
     0
  0
CLASS
  1
DM_PLACEHOLDER
  2
AcDmSelsetPlaceholder
  3
AcMechDwgViewMgmt
 90
        0
280
     0
281
     0
  0
CLASS
  1
DICTIONARYVAR
  2
AcDbDictionaryVar
  3
ObjectDBX Classes
 90
        0
280
     0
281
     0
  0
CLASS
  1
ACMSTANDARDJIS
  2
AcmStandardJIS
  3
"Amdt_StdImp|Product Description: AutoCAD Mechanical 2004 DX|Company: Autodesk"
 90
    32768
280
     0
281
     0
  0
CLASS
  1
ACMSTANDARDANSI
  2
AcmStandardANSI
  3
"Amdt_StdImp|Product Description: AutoCAD Mechanical 2004 DX|Company: Autodesk"
 90
    32768
280
     0
281
     0
  0
CLASS
  1
ACMSTANDARDBSI
  2
AcmStandardBSI
  3
"Amdt_StdImp|Product Description: AutoCAD Mechanical 2004 DX|Company: Autodesk"
 90
    32768
280
     0
281
     0
  0
CLASS
  1
ACMSTANDARDDIN
  2
AcmStandardDIN
  3
"Amdt_StdImp|Product Description: AutoCAD Mechanical 2004 DX|Company: Autodesk"
 90
    32768
280
     0
281
     0
  0
CLASS
  1
ACMSTANDARDISO
  2
AcmStandardISO
  3
"Amdt_StdImp|Product Description: AutoCAD Mechanical 2004 DX|Company: Autodesk"
 90
        0
280
     0
281
     0
  0
CLASS
  1
LAYER_INDEX
  2
AcDbLayerIndex
  3
ObjectDBX Classes
 90
    32768
280
     0
281
     0
  0
CLASS
  1
IDBUFFER
  2
AcDbIdBuffer
  3
ObjectDBX Classes
 90
    32768
280
     0
281
     0
  0
CLASS
  1
ACDBDICTIONARYWDFLT
  2
AcDbDictionaryWithDefault
  3
ObjectDBX Classes
 90
        0
280
     0
281
     0
  0
CLASS
  1
ACDBPLACEHOLDER
  2
AcDbPlaceHolder
  3
ObjectDBX Classes
 90
        0
280
     0
281
     0
  0
CLASS
  1
LAYOUT
  2
AcDbLayout
  3
ObjectDBX Classes
 90
        0
280
     0
281
     0
  0
CLASS
  1
ACME_DOCUMENT
  2
AcMeDbDoc
  3
AcMeServices
 90
        0
280
     0
281
     0
  0
CLASS
  1
AMGSETTINGSOBJ
  2
AmgSettingsObj
  3
"AcadM|Product Description: AutoCAD Mechanical 2000|Company: Autodesk"
 90
        0
280
     0
281
     0
  0
CLASS
  1
AMGOBJPROPCFG
  2
AmgObjPropCfg
  3
"AmgLay|Product Description: AutoCAD Mechanical 2000|Company: Autodesk"
 90
        1
280
     0
281
     0
  0
CLASS
  1
ACDBENTITYCACHE
  2
AcMeEntityCache
  3
AcMeServices
 90
        0
280
     0
281
     0
  0
CLASS
  1
GSMANAGER
  2
AcMeGSManager
  3
AcMeServices
 90
        0
280
     0
281
     0
  0
CLASS
  1
AMDTINTERNALREACTOR
  2
AmdtInternalReactor
  3
AcMeServices
 90
        0
280
     0
281
     0
  0
CLASS
  1
ACME_DATABASE
  2
AcMeDbDatabase
  3
AcMeServices
 90
        0
280
     0
281
     0
  0
CLASS
  1
ACGREFACADMASTER
  2
AcGrefacadMaster
  3
AcGrefServices
 90
        0
280
     0
281
     0
  0
CLASS
  1
AMDTMENUSTATEMGR
  2
AmdtMenuStateMgr
  3
McadcomServices
 90
        0
280
     0
281
     0
  0
CLASS
  1
AMDTMCOMMENUSTATE
  2
AmdtMcomMenuState
  3
McadcomServices
 90
        0
280
     0
281
     0
  0
CLASS
  1
MAPIADMODULE
  2
MApiAdModule
  3
MApiAdServices
 90
    32768
280
     0
281
     0
  0
CLASS
  1
AMDTDMMENUSTATE
  2
AmdtDmMenuState
  3
AcMechDwgViewMgmt
 90
        0
280
     0
281
     0
  0
CLASS
  1
AMDTADMENUSTATE
  2
AmdtAdMenuState
  3
DesignerServices
 90
        0
280
     0
281
     0
  0
CLASS
  1
AMDTAMMENUSTATE
  2
AmdtAmMenuState
  3
DesignerAssemblies
 90
        0
280
     0
281
     0
  0
CLASS
  1
ACMDATADICTIONARY
  2
AcmDataDictionary
  3
"AcmSymBB|Product Description: AutoCAD Mechanical 2004 DX|Company: Autodesk"
 90
        0
280
     0
281
     0
  0
CLASS
  1
ACMDATAENTRYBLOCK
  2
AcmDataEntryBlock
  3
"AcmSymBB|Product Description: AutoCAD Mechanical 2004 DX|Company: Autodesk"
 90
        0
280
     0
281
     0
  0
CLASS
  1
AMDTBROWSERDBTAB
  2
AmdtBrowserDbTab
  3
McadcomServices
 90
        0
280
     0
281
     0
  0
CLASS
  1
ACAMGFILTERDAT
  2
AcAmgFilterDat
  3
"AcadM|Product Description: AutoCAD Mechanical 2000|Company: Autodesk"
 90
    32768
280
     0
281
     0
  0
CLASS
  1
MAPIAMMOUDLE
  2
MApiAmModule
  3
MApiAmServices
 90
        0
280
     0
281
     0
  0
CLASS
  1
AMDTMAPISURFMOUDULE
  2
AmdtMApiSurfModule
  3
MApiSurfServices
 90
    32768
280
     0
281
     0
  0
CLASS
  1
ACMSURFSTANDARDANSI
  2
AcmSurfTextStdANSI
  3
"Amdt_StdImp|Product Description: AutoCAD Mechanical 2004 DX|Company: Autodesk"
 90
    32768
280
     0
281
     0
  0
CLASS
  1
ACMFCFSTANDARDANSI
  2
AcmFCFStdANSI
  3
"Amdt_StdImp|Product Description: AutoCAD Mechanical 2004 DX|Company: Autodesk"
 90
    32768
280
     0
281
     0
  0
CLASS
  1
ACMWELDSTANDARDANSI
  2
AcmWeldingStdANSI
  3
"Amdt_StdImp|Product Description: AutoCAD Mechanical 2004 DX|Company: Autodesk"
 90
    32768
280
     0
281
     0
  0
CLASS
  1
ACMIDSTANDARDANSI
  2
AcmIdStdANSI
  3
"Amdt_StdImp|Product Description: AutoCAD Mechanical 2004 DX|Company: Autodesk"
 90
    32768
280
     0
281
     0
  0
CLASS
  1
ACMDATUMSTANDARDANSI
  2
AcmDatumStdANSI
  3
"Amdt_StdImp|Product Description: AutoCAD Mechanical 2004 DX|Company: Autodesk"
 90
    32768
280
     0
281
     0
  0
CLASS
  1
ACMBOMSTANDARDANSI
  2
AcmBOMStdANSI
  3
"Amdt_StdImp|Product Description: AutoCAD Mechanical 2004 DX|Company: Autodesk"
 90
    32768
280
     0
281
     0
  0
CLASS
  1
ACAMGLAYSTD
  2
AcAmgLayStd
  3
"AcAmgLayStd|Product Description: AutoCAD Mechanical 2000|Company: Autodesk"
 90
        0
280
     0
281
     0
  0
CLASS
  1
ACAMGDIMSTD
  2
AcAmgDimStd
  3
"AcAmgDimStd|Product Description: AutoCAD Mechanical 2000|Company: Autodesk"
 90
        0
280
     0
281
     0
  0
CLASS
  1
ACAMGTITLESTD
  2
AcAmgTitleStd
  3
"TITLEAPP"
 90
        0
280
     0
281
     0
  0
CLASS
  1
ACMDETAILSTANDARDANSI
  2
AmdtDetailSymStdANSI
  3
"Amdt_StdImp|Product Description: AutoCAD Mechanical 2004 DX|Company: Autodesk"
 90
    32768
280
     0
281
     0
  0
CLASS
  1
ACMSECTIONSTANDARDANSI
  2
AmdtSectionSymStdANSI
  3
"Amdt_StdImp|Product Description: AutoCAD Mechanical 2004 DX|Company: Autodesk"
 90
    32768
280
     0
281
     0
  0
CLASS
  1
ACMCENTERLINESTANDARDANSI
  2
AmdtCenterLineStdANSI
  3
"Amdt_StdImp|Product Description: AutoCAD Mechanical 2004 DX|Company: Autodesk"
 90
    32768
280
     0
281
     0
  0
CLASS
  1
ACMTHREADLINESTANDARDANSI
  2
AmdtThreadLineStdANSI
  3
"Amdt_StdImp|Product Description: AutoCAD Mechanical 2004 DX|Company: Autodesk"
 90
    32768
280
     0
281
     0
  0
CLASS
  1
ACMSURFSTANDARDBSI
  2
AcmSurfTextStdBSI
  3
"Amdt_StdImp|Product Description: AutoCAD Mechanical 2004 DX|Company: Autodesk"
 90
    32768
280
     0
281
     0
  0
CLASS
  1
ACMFCFSTANDARDBSI
  2
AcmFCFStdBSI
  3
"Amdt_StdImp|Product Description: AutoCAD Mechanical 2004 DX|Company: Autodesk"
 90
    32768
280
     0
281
     0
  0
CLASS
  1
ACMWELDSTANDARDBSI
  2
AcmWeldingStdBSI
  3
"Amdt_StdImp|Product Description: AutoCAD Mechanical 2004 DX|Company: Autodesk"
 90
    32768
280
     0
281
     0
  0
CLASS
  1
ACMIDSTANDARDBSI
  2
AcmIdStdBSI
  3
"Amdt_StdImp|Product Description: AutoCAD Mechanical 2004 DX|Company: Autodesk"
 90
    32768
280
     0
281
     0
  0
CLASS
  1
ACMDATUMSTANDARDBSI
  2
AcmDatumStdBSI
  3
"Amdt_StdImp|Product Description: AutoCAD Mechanical 2004 DX|Company: Autodesk"
 90
    32768
280
     0
281
     0
  0
CLASS
  1
ACMBOMSTANDARDBSI
  2
AcmBOMStdBSI
  3
"Amdt_StdImp|Product Description: AutoCAD Mechanical 2004 DX|Company: Autodesk"
 90
    32768
280
     0
281
     0
  0
CLASS
  1
ACMDETAILSTANDARDBSI
  2
AmdtDetailSymStdBSI
  3
"Amdt_StdImp|Product Description: AutoCAD Mechanical 2004 DX|Company: Autodesk"
 90
    32768
280
     0
281
     0
  0
CLASS
  1
ACMSECTIONSTANDARDBSI
  2
AmdtSectionSymStdBSI
  3
"Amdt_StdImp|Product Description: AutoCAD Mechanical 2004 DX|Company: Autodesk"
 90
    32768
280
     0
281
     0
  0
CLASS
  1
ACMCENTERLINESTANDARDBSI
  2
AmdtCenterLineStdBSI
  3
"Amdt_StdImp|Product Description: AutoCAD Mechanical 2004 DX|Company: Autodesk"
 90
    32768
280
     0
281
     0
  0
CLASS
  1
ACMTHREADLINESTANDARDBSI
  2
AmdtThreadLineStdBSI
  3
"Amdt_StdImp|Product Description: AutoCAD Mechanical 2004 DX|Company: Autodesk"
 90
    32768
280
     0
281
     0
  0
CLASS
  1
AMDTEDGESTANDARDDIN
  2
AmdtEdgeStdDIN
  3
"Amdt_StdImp|Product Description: AutoCAD Mechanical 2004 DX|Company: Autodesk"
 90
    32768
280
     0
281
     0
  0
CLASS
  1
ACMSURFSTANDARDDIN
  2
AcmSurfTextStdDIN
  3
"Amdt_StdImp|Product Description: AutoCAD Mechanical 2004 DX|Company: Autodesk"
 90
    32768
280
     0
281
     0
  0
CLASS
  1
ACMFCFSTANDARDDIN
  2
AcmFCFStdDIN
  3
"Amdt_StdImp|Product Description: AutoCAD Mechanical 2004 DX|Company: Autodesk"
 90
    32768
280
     0
281
     0
  0
CLASS
  1
ACMWELDSTANDARDDIN
  2
AcmWeldingStdDIN
  3
"Amdt_StdImp|Product Description: AutoCAD Mechanical 2004 DX|Company: Autodesk"
 90
    32768
280
     0
281
     0
  0
CLASS
  1
ACMIDSTANDARDDIN
  2
AcmIdStdDIN
  3
"Amdt_StdImp|Product Description: AutoCAD Mechanical 2004 DX|Company: Autodesk"
 90
    32768
280
     0
281
     0
  0
CLASS
  1
ACMDATUMSTANDARDDIN
  2
AcmDatumStdDIN
  3
"Amdt_StdImp|Product Description: AutoCAD Mechanical 2004 DX|Company: Autodesk"
 90
    32768
280
     0
281
     0
  0
CLASS
  1
ACMBOMSTANDARDDIN
  2
AcmBOMStdDIN
  3
"Amdt_StdImp|Product Description: AutoCAD Mechanical 2004 DX|Company: Autodesk"
 90
    32768
280
     0
281
     0
  0
CLASS
  1
ACMDETAILSTANDARDDIN
  2
AmdtDetailSymStdDIN
  3
"Amdt_StdImp|Product Description: AutoCAD Mechanical 2004 DX|Company: Autodesk"
 90
    32768
280
     0
281
     0
  0
CLASS
  1
ACMSECTIONSTANDARDDIN
  2
AmdtSectionSymStdDIN
  3
"Amdt_StdImp|Product Description: AutoCAD Mechanical 2004 DX|Company: Autodesk"
 90
    32768
280
     0
281
     0
  0
CLASS
  1
ACMCENTERLINESTANDARDDIN
  2
AmdtCenterLineStdDIN
  3
"Amdt_StdImp|Product Description: AutoCAD Mechanical 2004 DX|Company: Autodesk"
 90
    32768
280
     0
281
     0
  0
CLASS
  1
ACMTHREADLINESTANDARDDIN
  2
AmdtThreadLineStdDIN
  3
"Amdt_StdImp|Product Description: AutoCAD Mechanical 2004 DX|Company: Autodesk"
 90
    32768
280
     0
281
     0
  0
CLASS
  1
ACMSURFSTANDARDISO
  2
AcmSurfTextStdISO
  3
"Amdt_StdImp|Product Description: AutoCAD Mechanical 2004 DX|Company: Autodesk"
 90
        0
280
     0
281
     0
  0
CLASS
  1
ACMFCFSTANDARDISO
  2
AcmFCFStdISO
  3
"Amdt_StdImp|Product Description: AutoCAD Mechanical 2004 DX|Company: Autodesk"
 90
        0
280
     0
281
     0
  0
CLASS
  1
ACMWELDSTANDARDISO
  2
AcmWeldingStdISO
  3
"Amdt_StdImp|Product Description: AutoCAD Mechanical 2004 DX|Company: Autodesk"
 90
        0
280
     0
281
     0
  0
CLASS
  1
ACMIDSTANDARDISO
  2
AcmIdStdISO
  3
"Amdt_StdImp|Product Description: AutoCAD Mechanical 2004 DX|Company: Autodesk"
 90
        0
280
     0
281
     0
  0
CLASS
  1
ACMDATUMSTANDARDISO
  2
AcmDatumStdISO
  3
"Amdt_StdImp|Product Description: AutoCAD Mechanical 2004 DX|Company: Autodesk"
 90
        0
280
     0
281
     0
  0
CLASS
  1
ACMBOMSTANDARDISO
  2
AcmBOMStdISO
  3
"Amdt_StdImp|Product Description: AutoCAD Mechanical 2004 DX|Company: Autodesk"
 90
        0
280
     0
281
     0
  0
CLASS
  1
AMDTEDGESTANDARDISO
  2
AmdtEdgeStdISO
  3
"Amdt_StdImp|Product Description: AutoCAD Mechanical 2004 DX|Company: Autodesk"
 90
    32768
280
     0
281
     0
  0
CLASS
  1
ACMDETAILSTANDARDISO
  2
AmdtDetailSymStdISO
  3
"Amdt_StdImp|Product Description: AutoCAD Mechanical 2004 DX|Company: Autodesk"
 90
        0
280
     0
281
     0
  0
CLASS
  1
ACMSECTIONSTANDARDISO
  2
AmdtSectionSymStdISO
  3
"Amdt_StdImp|Product Description: AutoCAD Mechanical 2004 DX|Company: Autodesk"
 90
        0
280
     0
281
     0
  0
CLASS
  1
ACMCENTERLINESTANDARDISO
  2
AmdtCenterLineStdISO
  3
"Amdt_StdImp|Product Description: AutoCAD Mechanical 2004 DX|Company: Autodesk"
 90
        0
280
     0
281
     0
  0
CLASS
  1
ACMTHREADLINESTANDARDISO
  2
AmdtThreadLineStdISO
  3
"Amdt_StdImp|Product Description: AutoCAD Mechanical 2004 DX|Company: Autodesk"
 90
        0
280
     0
281
     0
  0
CLASS
  1
ACMSURFSTANDARDJIS
  2
AcmSurfTextStdJIS
  3
"Amdt_StdImp|Product Description: AutoCAD Mechanical 2004 DX|Company: Autodesk"
 90
    32768
280
     0
281
     0
  0
CLASS
  1
ACMFCFSTANDARDJIS
  2
AcmFCFStdJIS
  3
"Amdt_StdImp|Product Description: AutoCAD Mechanical 2004 DX|Company: Autodesk"
 90
    32768
280
     0
281
     0
  0
CLASS
  1
ACMWELDSTANDARDJIS
  2
AcmWeldingStdJIS
  3
"Amdt_StdImp|Product Description: AutoCAD Mechanical 2004 DX|Company: Autodesk"
 90
    32768
280
     0
281
     0
  0
CLASS
  1
ACMIDSTANDARDJIS
  2
AcmIdStdJIS
  3
"Amdt_StdImp|Product Description: AutoCAD Mechanical 2004 DX|Company: Autodesk"
 90
    32768
280
     0
281
     0
  0
CLASS
  1
ACMDATUMSTANDARDJIS
  2
AcmDatumStdJIS
  3
"Amdt_StdImp|Product Description: AutoCAD Mechanical 2004 DX|Company: Autodesk"
 90
    32768
280
     0
281
     0
  0
CLASS
  1
ACMBOMSTANDARDJIS
  2
AcmBOMStdJIS
  3
"Amdt_StdImp|Product Description: AutoCAD Mechanical 2004 DX|Company: Autodesk"
 90
    32768
280
     0
281
     0
  0
CLASS
  1
ACMDETAILSTANDARDJIS
  2
AmdtDetailSymStdJIS
  3
"Amdt_StdImp|Product Description: AutoCAD Mechanical 2004 DX|Company: Autodesk"
 90
    32768
280
     0
281
     0
  0
CLASS
  1
ACMSECTIONSTANDARDJIS
  2
AmdtSectionSymStdJIS
  3
"Amdt_StdImp|Product Description: AutoCAD Mechanical 2004 DX|Company: Autodesk"
 90
    32768
280
     0
281
     0
  0
CLASS
  1
ACMCENTERLINESTANDARDJIS
  2
AmdtCenterLineStdJIS
  3
"Amdt_StdImp|Product Description: AutoCAD Mechanical 2004 DX|Company: Autodesk"
 90
    32768
280
     0
281
     0
  0
CLASS
  1
ACMTHREADLINESTANDARDJIS
  2
AmdtThreadLineStdJIS
  3
"Amdt_StdImp|Product Description: AutoCAD Mechanical 2004 DX|Company: Autodesk"
 90
    32768
280
     0
281
     0
  0
CLASS
  1
ACMNOTESTANDARDANSI
  2
AmdtNoteStdANSI
  3
"Amdt_StdImp|Product Description: AutoCAD Mechanical 2004 DX|Company: Autodesk"
 90
    32768
280
     0
281
     0
  0
CLASS
  1
ACAMGHOLECHARTSTDANSI
  2
AcAmgHoleChartStdANSI
  3
ACMSYMBB_MODULE_NAME
 90
    32768
280
     0
281
     0
  0
CLASS
  1
ACAMEXTERNALCOMPDEF
  2
AcAmExternalCompDef
  3
DesignerAssemblies
 90
    32768
280
     0
281
     0
  0
CLASS
  1
ACCMBODY
  2
AcCmBody
  3
DesignerAssemblies
 90
    32768
280
     0
281
     0
  0
CLASS
  1
ACAMCOMPENT
  2
AcAmCompEnt
  3
DesignerAssemblies
 90
    32768
280
     0
281
     1
  0
CLASS
  1
ACAMCOMPFEEDBACK
  2
AcAmCompFeedback
  3
DesignerAssemblies
 90
    32768
280
     0
281
     0
  0
CLASS
  1
ACAMCOMP
  2
AcAmComp
  3
DesignerAssemblies
 90
    32768
280
     0
281
     0
  0
CLASS
  1
ACAMCOMPENTCLONE
  2
AcAmCompEntClone
  3
DesignerAssemblies
 90
    32768
280
     0
281
     1
  0
CLASS
  1
ACAMCLONEREACTOR
  2
AcAmGrCompCloneReactor
  3
DesignerAssemblies
 90
    32768
280
     0
281
     0
  0
CLASS
  1
ADPART
  2
AcAdPart
  3
DesignerServices
 90
    32768
280
     0
281
     1
  0
CLASS
  1
ADBASE
  2
AcAdBase
  3
DesignerServices
 90
    32768
280
     0
281
     0
  0
CLASS
  1
BODYID
  2
AcAdBodyId
  3
DesignerServices
 90
    32768
280
     0
281
     0
  0
CLASS
  1
WORKPLANEDISPLAYMGR
  2
AcAdDisplayMgr
  3
DesignerServices
 90
    32768
280
     0
281
     0
  0
CLASS
  1
AMDTFORMULAUPDATEDISPATCHER
  2
AmdtFormulaUpdateDispatcher
  3
AcMeServices
 90
    32768
280
     0
281
     0
  0
CLASS
  1
ADDATUMPLANEABS
  2
AcAdDatumPlaneAbs
  3
DesignerServices
 90
    32768
280
     0
281
     0
  0
CLASS
  1
ADDATUMAXISABS
  2
AcAdDatumAxisAbs
  3
DesignerServices
 90
    32768
280
     0
281
     0
  0
CLASS
  1
ADDATUMORIENTEDPLANE
  2
AcAdDatumOrientedPlane
  3
DesignerServices
 90
    32768
280
     0
281
     0
  0
CLASS
  1
ACMEPLINE
  2
AcImPlineDisplay
  3
AcMeServices
 90
    32768
280
     0
281
     1
  0
CLASS
  1
ACMELINEARARROW
  2
AcImLinearArrowDisplay
  3
AcMeServices
 90
    32768
280
     0
281
     1
  0
CLASS
  1
ACMETEXT
  2
AcImTextDisplay
  3
AcMeServices
 90
    32768
280
     0
281
     1
  0
CLASS
  1
ACAD_LINE
  2
AcAdLine
  3
DesignerServices
 90
    32768
280
     0
281
     1
  0
CLASS
  1
ACADLINEACAD
  2
AcAdVirtualBoundedLineAcad
  3
DesignerServices
 90
    32768
280
     0
281
     0
  0
CLASS
  1
ACAD_ELLIPSE
  2
AcAdEllipse
  3
DesignerServices
 90
    32768
280
     0
281
     1
  0
CLASS
  1
ACADELLIPSEACAD
  2
AcAdVirtualEllipseAcad
  3
DesignerServices
 90
    32768
280
     0
281
     0
  0
CLASS
  1
ACADREFLINEACAD
  2
AcAdVirtualReferenceLine
  3
DesignerServices
 90
    32768
280
     0
281
     0
  0
CLASS
  1
ACADCONSLINE
  2
AcAdConstrainedLine
  3
DesignerServices
 90
    32768
280
     0
281
     0
  0
CLASS
  1
ACADCONSGROUP
  2
AcAdConstraintGroup
  3
DesignerServices
 90
    32768
280
     0
281
     0
  0
CLASS
  1
ACADCONSELL
  2
AcAdConstrainedEllipse
  3
DesignerServices
 90
    32768
280
     0
281
     0
  0
CLASS
  1
ACADIMPPTACAD
  2
AcAdVirtualImplicitPoint
  3
DesignerServices
 90
    32768
280
     0
281
     0
  0
CLASS
  1
ACADCONSPOINT
  2
AcAdConstrainedPoint
  3
DesignerServices
 90
    32768
280
     0
281
     0
  0
CLASS
  1
ADPCURCNS
  2
AcAdPointCurveConstr
  3
DesignerServices
 90
    32768
280
     0
281
     0
  0
CLASS
  1
ADCTRPTCNS
  2
AcAdCenterPointConstr
  3
DesignerServices
 90
    32768
280
     0
281
     0
  0
CLASS
  1
ADVERCNS
  2
AcAdVerticalConstr
  3
DesignerServices
 90
    32768
280
     0
281
     0
  0
CLASS
  1
ADHORCNS
  2
AcAdHorizontalConstr
  3
DesignerServices
 90
    32768
280
     0
281
     0
  0
CLASS
  1
ADCLPROF2D
  2
AcAdClosedProfile2d
  3
DesignerServices
 90
    32768
280
     0
281
     0
  0
CLASS
  1
ACAD_FIXCONSTRAINT
  2
AcAdFixedConstraint
  3
DesignerServices
 90
    32768
280
     0
281
     0
  0
CLASS
  1
ADCONSDISP
  2
AcAdConstraintDisplay
  3
DesignerServices
 90
    32768
280
     0
281
     1
  0
CLASS
  1
ADCONSTDSP
  2
AcAdConstraintDisplayTag
  3
DesignerServices
 90
    32768
280
     0
281
     1
  0
CLASS
  1
AMDT_ALIGNED_DIM
  2
AmdtAlignedDimension
  3
AcMeServices
 90
    32768
280
     0
281
     1
  0
CLASS
  1
PARAM
  2
AcAdParam
  3
DesignerServices
 90
    32768
280
     0
281
     0
  0
CLASS
  1
ADELLRADCNS
  2
AcAdAcadEllipseRadiusConstr
  3
DesignerServices
 90
    32768
280
     0
281
     0
  0
CLASS
  1
ADHDISTCNS
  2
AcAdHorizontalDistanceConstr
  3
DesignerServices
 90
    32768
280
     0
281
     0
  0
CLASS
  1
ADVDISTCNS
  2
AcAdVerticalDistanceConstr
  3
DesignerServices
 90
    32768
280
     0
281
     0
  0
CLASS
  1
ACMEROTATIONARROW
  2
AcImRotationArrowDisplay
  3
AcMeServices
 90
    32768
280
     0
281
     1
  0
CLASS
  1
ACADVOLFEATWITHTRIM
  2
AcAdVolFeatWithTrim
  3
DesignerServices
 90
    32768
280
     0
281
     0
  0
CLASS
  1
DEPEDGEFEATUREORDERING
  2
AcAdDepEdgeFeatureOrdering
  3
DesignerServices
 90
    32768
280
     0
281
     0
  0
CLASS
  1
EDGEID
  2
AcAdEdgeId
  3
DesignerServices
 90
    32768
280
     0
281
     0
  0
CLASS
  1
ACADPARTELLIPSEEDGERES
  2
AcAdPartEllipseEdgeRes
  3
AdGrefServices
 90
    32768
280
     0
281
     0
  0
CLASS
  1
ACRFINSADJ
  2
AcRfInsAdjuster
  3
AcMeServices
 90
    32768
280
     0
281
     0
  0
CLASS
  1
ACMEAXIS
  2
AcImAxisDisplay
  3
AcMeServices
 90
    32768
280
     0
281
     1
  0
CLASS
  1
FACEID
  2
AcAdFaceId
  3
DesignerServices
 90
    32768
280
     0
281
     0
  0
CLASS
  1
ACADPARTSPLINEFACERES
  2
AcAdPartSplineFaceRes
  3
AdGrefServices
 90
    32768
280
     0
281
     0
  0
CLASS
  1
ACADPARTCIRCEDGRES
  2
AcAdPartCircEdgRes
  3
AdGrefServices
 90
    32768
280
     0
281
     0
  0
CLASS
  1
CIRREFID
  2
AcAdCircleRefId
  3
DesignerServices
 90
    32768
280
     0
281
     0
  0
CLASS
  1
DEPEDGESECONDARYDEPID
  2
AcAdDepEdgeSecondaryDepId
  3
DesignerServices
 90
    32768
280
     0
281
     0
  0
CLASS
  1
ACADPARTCONICALFACERES
  2
AcAdPartConicalFaceRes
  3
AdGrefServices
 90
    32768
280
     0
281
     0
  0
CLASS
  1
ACAMEXPR
  2
AcAmExpr
  3
DesignerAssemblies
 90
    32768
280
     0
281
     0
  0
CLASS
  1
ACCMDISTLNLN
  2
AcCmDistLnLn
  3
DesignerAssemblies
 90
    32768
280
     0
281
     0
  0
CLASS
  1
ACCMCONSTREACTOR
  2
AcCmConstraintReactor
  3
DesignerAssemblies
 90
    32768
280
     0
281
     0
  0
CLASS
  1
ACMEPOINT
  2
AcImPointDisplay
  3
AcMeServices
 90
    32768
280
     0
281
     1
  0
CLASS
  1
ACADPARTCYLINDERFACERES
  2
AcAdPartCylinderFaceRes
  3
AdGrefServices
 90
    32768
280
     0
281
     0
  0
CLASS
  1
ACADPARTPLANARFACERES
  2
AcAdPartPlanarFaceRes
  3
AdGrefServices
 90
    32768
280
     0
281
     0
  0
CLASS
  1
ACCMDISTPTPL
  2
AcCmDistPtPl
  3
DesignerAssemblies
 90
    32768
280
     0
281
     0
  0
CLASS
  1
ACCMINSERTPLPL
  2
AcCmInsertPlPl
  3
AcCmServices
 90
    32768
280
     0
281
     0
  0
CLASS
  1
ADPARCNS
  2
AcAdParallelConstr
  3
DesignerServices
 90
    32768
280
     0
281
     0
  0
CLASS
  1
NEWSTDPARTPARLIST
  2
AmgNewParListFiler
  3
"AmgParList|Product Description: AutoCAD Mechanical 2000|Company: Autodesk"
 90
    33791
280
     0
281
     0
  0
CLASS
  1
ACRFATTGENMGR
  2
AcRfAttGeneralMgr
  3
AcAttribServices
 90
        0
280
     0
281
     0
  0
CLASS
  1
ACRFOBJATTMGR
  2
AcRfObjAttGroupMgr
  3
AcAttribServices
 90
    32768
280
     0
281
     0
  0
CLASS
  1
ACRFMCADAPIATTHOLDER
  2
AcRfMCADAPIAttHolder
  3
AcAttribServices
 90
    32768
280
     0
281
     0
  0
CLASS
  1
AMDTSYSATTR
  2
AmdtSystemAttribute
  3
AcAttribServices
 90
    32768
280
     0
281
     0
  0
CLASS
  1
ACADPARTTORUSFACERES
  2
AcAdPartTorusFaceRes
  3
AdGrefServices
 90
    32768
280
     0
281
     0
  0
CLASS
  1
ACADPARTSPHEREFACERES
  2
AcAdPartSphereFaceRes
  3
AdGrefServices
 90
    32768
280
     0
281
     0
  0
CLASS
  1
ACCMDISTPTLN
  2
AcCmDistPtLn
  3
DesignerAssemblies
 90
    32768
280
     0
281
     0
  0
CLASS
  1
ACCMDISTPTPT
  2
AcCmDistPtPt
  3
DesignerAssemblies
 90
    32768
280
     0
281
     0
  0
CLASS
  1
ACADPARTAXISRES
  2
AcAdPartAxisRes
  3
AdGrefServices
 90
    32768
280
     0
281
     0
  0
CLASS
  1
ACADPARTSPLINEEDGERES
  2
AcAdPartSplineEdgeRes
  3
AdGrefServices
 90
    32768
280
     0
281
     0
  0
CLASS
  1
ACCMDISTPLPL
  2
AcCmDistPlPl
  3
DesignerAssemblies
 90
    32768
280
     0
281
     0
  0
CLASS
  1
DEPEDGEPATTERNINSTANCE
  2
AcAdDepEdgePatternInstance
  3
DesignerServices
 90
    32768
280
     0
281
     0
  0
CLASS
  1
ACAMVIEWREACTOR
  2
AcAmViewReactor
  3
DesignerAssemblies
 90
    32768
280
     0
281
     0
  0
CLASS
  1
AMVIEW
  2
AcAmView
  3
DesignerAssemblies
 90
    32768
280
     0
281
     0
  0
CLASS
  1
ACAMVIEWCONTEXT
  2
AcAmViewContext
  3
DesignerAssemblies
 90
    32768
280
     0
281
     0
  0
CLASS
  1
ACAMCOMPENTVIEW
  2
AcAmCompEntView
  3
DesignerAssemblies
 90
    32768
280
     0
281
     1
  0
CLASS
  1
ACAMCOMPVIEWREACTOR
  2
AcAmGrCompViewReactor
  3
DesignerAssemblies
 90
    32768
280
     0
281
     0
  0
CLASS
  1
ACAMEXPLODETWEAK
  2
AcAmExplodeTweak
  3
DesignerAssemblies
 90
    32768
280
     0
281
     0
  0
CLASS
  1
ACAMTRAIL
  2
AcAmTrail
  3
DesignerAssemblies
 90
    32768
280
     0
281
     0
  0
CLASS
  1
ACAMVECTORTWEAK
  2
AcAmVectorTweak
  3
DesignerAssemblies
 90
    32768
280
     0
281
     0
  0
CLASS
  1
ACIMLINEARTWEAKDISPLAY
  2
AcImLinearTweakDisplay
  3
DesignerAssemblies
 90
    32768
280
     0
281
     1
  0
CLASS
  1
ACAMAXISTWEAK
  2
AcAmAxisTweak
  3
DesignerAssemblies
 90
    32768
280
     0
281
     0
  0
CLASS
  1
ACIMROTATIONALTWEAKDISPLAY
  2
AcImRotationTweakDisplay
  3
DesignerAssemblies
 90
    32768
280
     0
281
     1
  0
CLASS
  1
ACADPARTLINEDGRES
  2
AcAdPartLinEdgRes
  3
AdGrefServices
 90
    32768
280
     0
281
     0
  0
CLASS
  1
STREFID
  2
AcAdStraightRefId
  3
DesignerServices
 90
    32768
280
     0
281
     0
  0
CLASS
  1
FEEDBACK
  2
AcAmFeedback
  3
DesignerAssemblies
 90
    32768
280
     0
281
     1
  0
CLASS
  1
ACAMTRIAXISSYMBOL
  2
AcAmTriAxisSymbol
  3
DesignerAssemblies
 90
    32768
280
     0
281
     0
  0
CLASS
  1
ACAMTEXTCIRCLESYMBOL
  2
AcAmTextCircleSymbol
  3
DesignerAssemblies
 90
    32768
280
     0
281
     0
  0
CLASS
  1
LAYER_FILTER
  2
AcDbLayerFilter
  3
ObjectDBX Classes
 90
    32768
280
     0
281
     0
  0
CLASS
  1
"CONSTR_DRIVER"
  2
AcCmRestructCloneDriver
  3
DesignerAssemblies
 90
    32768
280
     0
281
     1
  0
CLASS
  1
ACMNOTESTANDARDISO
  2
AmdtNoteStdISO
  3
"Amdt_StdImp|Product Description: AutoCAD Mechanical 2004 DX|Company: Autodesk"
 90
        0
280
     0
281
     0
  0
CLASS
  1
ACAMGHOLECHARTSTDISO
  2
AcAmgHoleChartStdISO
  3
ACMSYMBB_MODULE_NAME
 90
        0
280
     0
281
     0
  0
CLASS
  1
ACAMVIEWENTITYFILTER
  2
AcAmViewEntityFilter
  3
DesignerAssemblies
 90
    32768
280
     0
281
     0
  0
CLASS
  1
AM_GREF_PLANE
  2
AcDmGrefPlnDef
  3
AcMechDwgViewMgmt
 90
    32768
280
     0
281
     0
  0
CLASS
  1
AM_GREF_AXIS
  2
AcDmGrefAxisDef
  3
AcMechDwgViewMgmt
 90
    32768
280
     0
281
     0
  0
CLASS
  1
AM_BASE_VIEW_ORIENT
  2
AcDmBaseViewOr
  3
AcMechDwgViewMgmt
 90
    32768
280
     0
281
     0
  0
CLASS
  1
AM_DWG_VIEWPORT
  2
AcDmViewport
  3
AcMechDwgViewMgmt
 90
    32768
280
     0
281
     0
  0
CLASS
  1
AM_VIEW_DISPLAY
  2
AcDmDwgViewDisplay
  3
AcMechDwgViewMgmt
 90
    32768
280
     0
281
     0
  0
CLASS
  1
AM_CLDFLTS
  2
AcDmClDflts
  3
AcMechDwgViewMgmt
 90
    32768
280
     0
281
     0
  0
CLASS
  1
AM_BASE_VIEW
  2
AcDmBaseView
  3
AcMechDwgViewMgmt
 90
    32768
280
     0
281
     0
  0
CLASS
  1
ACDMPARTVIEWDATA
  2
AcDmPartViewData
  3
AcMechDwgViewMgmt
 90
    32768
280
     0
281
     0
  0
CLASS
  1
ACDMDISPLAYATTRIBS
  2
AcDmDisplayAttribs
  3
AcMechDwgViewMgmt
 90
    32768
280
     0
281
     0
  0
CLASS
  1
ACDMBODYINSTANCEDATA
  2
AcDmBodyInstanceData
  3
AcMechDwgViewMgmt
 90
    32768
280
     0
281
     0
  0
CLASS
  1
ACDMVWEDLINE
  2
AcDmViewEdgeLine
  3
AcMechDwgViewMgmt
 90
    32768
280
     0
281
     1
  0
CLASS
  1
ACDMVWEDSPLINE
  2
AcDmViewEdgeSpline
  3
AcMechDwgViewMgmt
 90
    32768
280
     0
281
     1
  0
CLASS
  1
ACDMVWEDELLIPSE
  2
AcDmViewEdgeEllipse
  3
AcMechDwgViewMgmt
 90
    32768
280
     0
281
     1
  0
CLASS
  1
ACDMVWEDARC
  2
AcDmViewEdgeArc
  3
AcMechDwgViewMgmt
 90
    32768
280
     0
281
     1
  0
CLASS
  1
ACDMVWEDCIRC
  2
AcDmViewEdgeCircle
  3
AcMechDwgViewMgmt
 90
    32768
280
     0
281
     1
  0
CLASS
  1
AM_ADLINCTRLINE
  2
AcAdLineCl
  3
DesignerServices
 90
    32768
280
     0
281
     0
  0
CLASS
  1
AM_ADCIRCTRLINE
  2
AcAdBullsEyeCl
  3
DesignerServices
 90
    32768
280
     0
281
     0
  0
CLASS
  1
AD_LINETAPH
  2
AcAdTapHoleLineDisp
  3
DesignerServices
 90
    32768
280
     0
281
     0
  0
CLASS
  1
AM_ISO_VIEW_ORIENT
  2
AcDmIsoViewOr
  3
AcMechDwgViewMgmt
 90
    32768
280
     0
281
     0
  0
CLASS
  1
AM_ISO_VIEW
  2
AcDmIsoView
  3
AcMechDwgViewMgmt
 90
    32768
280
     0
281
     0
  0
CLASS
  1
CNRREFID
  2
AcAdCornerId
  3
DesignerServices
 90
    32768
280
     0
281
     0
  0
CLASS
  1
ACADPARTPOINTRES
  2
AcAdPartPointRes
  3
AdGrefServices
 90
    32768
280
     0
281
     0
  0
CLASS
  1
ACMBOM
  2
AcmBom
  3
"AcmSymBB|Product Description: AutoCAD Mechanical 2004 DX|Company: Autodesk"
 90
    32768
280
     0
281
     0
  0
CLASS
  1
ACMBOMROW
  2
AcmBomRow
  3
"AcmSymBB|Product Description: AutoCAD Mechanical 2004 DX|Company: Autodesk"
 90
    32768
280
     0
281
     0
  0
CLASS
  1
ACMPARTLIST
  2
AcmPartList
  3
"AcmSymBB|Product Description: AutoCAD Mechanical 2004 DX|Company: Autodesk"
 90
    33791
280
     0
281
     1
  0
CLASS
  1
SILEDGEID
  2
AcAdSilhouetteEdgeId
  3
DesignerServices
 90
    32768
280
     0
281
     0
  0
CLASS
  1
ACMBALLOON
  2
AcmBalloon
  3
"AcmSymBB|Product Description: AutoCAD Mechanical 2004 DX|Company: Autodesk"
 90
    33791
280
     0
281
     1
  0
CLASS
  1
AM_VWNOTEADAPTER
  2
AcDmViewAnnotAdapter
  3
AcMechDwgViewMgmt
 90
    32768
280
     0
281
     0
  0
CLASS
  1
ACDBSOLLINEDGRES
  2
AcDbSolLinEdgRes
  3
AcGrefServices
 90
    32768
280
     0
281
     0
  0
CLASS
  1
ACDMVISEDIT
  2
AcDmViewEntityVisEdit
  3
AcMechDwgViewMgmt
 90
    32768
280
     0
281
     0
  0
CLASS
  1
AM_ABS_AXIS
  2
AcDmAbsAxisDef
  3
AcMechDwgViewMgmt
 90
    32768
280
     0
281
     0
  0
CLASS
  1
IMAGEDEF
  2
AcDbRasterImageDef
  3
ISM
 90
    32768
280
     0
281
     0
  0
CLASS
  1
TABLESTYLE
  2
AcDbTableStyle
  3
ObjectDBX Classes
 90
     2047
280
     0
281
     0
  0
CLASS
  1
VAACXREFPANELOBJECT
  2
VaAcXREFPanelObject
  3
VAAC_ADDIN
 90
    32768
280
     1
281
     0
  0
CLASS
  1
VAACIMAGEINVENTORY
  2
VaAcImageInventory
  3
VAAC_ADDIN
 90
    32768
280
     1
281
     0
  0
CLASS
  1
ACAMROTAXISSYMBOL
  2
AcAmRotAxisSymbol
  3
DesignerAssemblies
 90
    32768
280
     0
281
     0
  0
CLASS
  1
AMACTIVEPARTSELECTFILTER
  2
AcDmActivePartViewEntFilter
  3
DesignerServices
 90
    32768
280
     0
281
     0
  0
CLASS
  1
AM_ORTHO_VIEW_ORIENT
  2
AcDmOrthoViewOr
  3
AcMechDwgViewMgmt
 90
    32768
280
     0
281
     0
  0
CLASS
  1
AM_ORTHO_VIEW
  2
AcDmOrthoView
  3
AcMechDwgViewMgmt
 90
    32768
280
     0
281
     0
  0
CLASS
  1
AM_GREF_POINT
  2
AcDmGrefPntDef
  3
AcMechDwgViewMgmt
 90
    32768
280
     0
281
     0
  0
CLASS
  1
AM_FULLPOINTSECTION
  2
AcDmFullPointSection
  3
AcMechDwgViewMgmt
 90
    32768
280
     0
281
     0
  0
CLASS
  1
AMDTSECTIONSYM
  2
AmdtSectionSym
  3
"AcmSymBB|Product Description: AutoCAD Mechanical 2004 DX|Company: Autodesk"
 90
    33791
280
     0
281
     1
  0
CLASS
  1
AMDTSECTIONSYMLABEL
  2
AmdtSectionSymLabel
  3
"AcmSymBB|Product Description: AutoCAD Mechanical 2004 DX|Company: Autodesk"
 90
    33791
280
     0
281
     1
  0
CLASS
  1
SORTENTSTABLE
  2
AcDbSortentsTable
  3
ObjectDBX Classes
 90
    32768
280
     0
281
     0
  0
CLASS
  1
ACMDATAENTRY
  2
AcmDataEntry
  3
"AcmSymBB|Product Description: AutoCAD Mechanical 2004 DX|Company: Autodesk"
 90
    32768
280
     0
281
     0
  0
CLASS
  1
ACCMANGVECVEC
  2
AcCmAngVecVec
  3
DesignerAssemblies
 90
    32768
280
     0
281
     0
  0
CLASS
  1
AD_CIRCTAPH
  2
AcAdTapHoleCircDisp
  3
DesignerServices
 90
    32768
280
     0
281
     0
  0
CLASS
  1
AM_ABS_PLANE
  2
AcDmAbsPlnDef
  3
AcMechDwgViewMgmt
 90
    32768
280
     0
281
     0
  0
CLASS
  1
ACDMGREFEDIT
  2
AcDmViewEntityGeomrefEdit
  3
AcMechDwgViewMgmt
 90
    32768
280
     0
281
     0
  0
CLASS
  1
ACDMVIEWARCEDGERES
  2
AcDmViewArcEdgeRes
  3
AcMechDwgViewMgmt
 90
    32768
280
     0
281
     0
  0
CLASS
  1
ACDMVIEWLINEDGERES
  2
AcDmViewLinEdgeRes
  3
AcMechDwgViewMgmt
 90
    32768
280
     0
281
     0
  0
CLASS
  1
AM_USERDEFNNOTE
  2
AcDmUserDefnNote
  3
AcMechDwgViewMgmt
 90
    32768
280
     0
281
     0
  0
CLASS
  1
ACAMVECTORSYMBOL
  2
AcAmVectorSymbol
  3
DesignerAssemblies
 90
    32768
280
     0
281
     0
  0
CLASS
  1
AM_VIEW_SELECT_FILTER
  2
AcDmSelectViewEntFilter
  3
AcMechDwgViewMgmt
 90
    32768
280
     0
281
     0
  0
CLASS
  1
AMDTEDGESTANDARDISO13715
  2
AmdtEdgeStdISO13715
  3
"Amdt_StdImp|Product Description: AutoCAD Mechanical 2004 DX|Company: Autodesk"
 90
        0
280
     0
281
     0
  0
CLASS
  1
AMDTNOTETEMPLATEDB
  2
AmdtNoteTemplateDB
  3
AMDT_STDIMP_MODULE_NAME
 90
        0
280
     0
281
     0
  0
CLASS
  1
DIMASSOC
  2
AcDbDimAssoc
  3
"AcDbDimAssoc|Product Desc:     AcDim ARX App For Dimension|Company:          Autodesk, Inc.|WEB Address:      www.autodesk.com"
 90
        0
280
     0
281
     0
  0
ENDSEC
  0
SECTION
  2
TABLES
  0
TABLE
  2
VPORT
  5
1D
330
0
100
AcDbSymbolTable
 70
     1
  0
VPORT
  5
1E
330
1D
100
AcDbSymbolTableRecord
100
AcDbViewportTableRecord
  2
*Active
 70
     0
 10
0.0
 20
0.0
 11
1.0
 21
1.0
 12
0.0
 22
0.0
 13
0.0
 23
0.0
 14
0.125
 24
0.125
 15
1.0
 25
1.0
 16
0.0
 26
0.0
 36
1.0
 17
0.0
 27
0.0
 37
0.0
 40
2.000000000000000E+20
 41
1.0
 42
50.0
 43
0.0
 44
0.0
 50
0.0
 51
0.0
 71
     0
 72
   100
 73
     1
 74
     1
 75
     0
 76
     0
 77
     0
 78
     0
281
     0
 65
     0
110
0.0
120
0.0
130
0.0
111
1.0
121
0.0
131
0.0
112
0.0
122
1.0
132
0.0
 79
     0
146
0.0
  0
ENDTAB
  0
TABLE
  2
LTYPE
  5
18
330
0
100
AcDbSymbolTable
 70
    14
  0
LTYPE
  5
19
330
18
100
AcDbSymbolTableRecord
100
AcDbLinetypeTableRecord
  2
BYBLOCK
 70
     0
  3

 72
    65
 73
     0
 40
0.0
  0
LTYPE
  5
1A
330
18
100
AcDbSymbolTableRecord
100
AcDbLinetypeTableRecord
  2
BYLAYER
 70
     0
  3

 72
    65
 73
     0
 40
0.0
  0
LTYPE
  5
9
330
18
100
AcDbSymbolTableRecord
100
AcDbLinetypeTableRecord
  2
CONTINUOUS
 70
     0
  3
Solid line
 72
    65
 73
     0
 40
0.0
  0
LTYPE
  5
36
330
18
100
AcDbSymbolTableRecord
100
AcDbLinetypeTableRecord
  2
AM_ISO08W050
 70
     0
  3
____ . ____ . ____ . ____ . ____ . ____ . ____
 72
    65
 73
     4
 40
18.0
 49
12.0
 74
     0
 49
-1.5
 74
     0
 49
3.0
 74
     0
 49
-1.5
 74
     0
  0
LTYPE
  5
3DE
330
18
100
AcDbSymbolTableRecord
100
AcDbLinetypeTableRecord
  2
HIDDEN
 70
     0
  3
Hidden __ __ __ __ __ __ __ __ __ __ __ __ __ _
 72
    65
 73
     2
 40
9.524999999999998
 49
6.349999999999999
 74
     0
 49
-3.174999999999999
 74
     0
  0
LTYPE
  5
3DF
330
18
100
AcDbSymbolTableRecord
100
AcDbLinetypeTableRecord
  2
PHANTOM2
 70
     0
  3
Phantom (.5x) ___ _ _ ___ _ _ ___ _ _ ___ _ _
 72
    65
 73
     6
 40
31.75
 49
15.875
 74
     0
 49
-3.174999999999999
 74
     0
 49
3.174999999999999
 74
     0
 49
-3.174999999999999
 74
     0
 49
3.174999999999999
 74
     0
 49
-3.174999999999999
 74
     0
  0
LTYPE
  5
3E0
330
18
100
AcDbSymbolTableRecord
100
AcDbLinetypeTableRecord
  2
CENTER
 70
     0
  3
Center ____ _ ____ _ ____ _ ____ _ ____ _ ____
 72
    65
 73
     4
 40
50.8
 49
31.75
 74
     0
 49
-6.349999999999999
 74
     0
 49
6.349999999999999
 74
     0
 49
-6.349999999999999
 74
     0
  0
LTYPE
  5
414
330
18
100
AcDbSymbolTableRecord
100
AcDbLinetypeTableRecord
  2
AM_ISO02W050
 70
     0
  3
__ __ __ __ __ __ __ __ __ __ __ __ __ __ __
 72
    65
 73
     2
 40
7.5
 49
6.0
 74
     0
 49
-1.5
 74
     0
  0
LTYPE
  5
415
330
18
100
AcDbSymbolTableRecord
100
AcDbLinetypeTableRecord
  2
AM_ISO09W050
 70
     0
  3
_____ . . _____ . . _____ . . ____ .. ____
 72
    65
 73
     6
 40
22.5
 49
12.0
 74
     0
 49
-1.5
 74
     0
 49
3.0
 74
     0
 49
-1.5
 74
     0
 49
3.0
 74
     0
 49
-1.5
 74
     0
  0
LTYPE
  5
416
330
18
100
AcDbSymbolTableRecord
100
AcDbLinetypeTableRecord
  2
Amconstr
 70
     0
  3
_______________________
 72
    65
 73
     2
 40
9999.0
 49
9999.0
 74
     0
 49
0.0
 74
     0
  0
LTYPE
  5
417
330
18
100
AcDbSymbolTableRecord
100
AcDbLinetypeTableRecord
  2
AM_ISO08W050x2
 70
     0
  3
__ . __ . __ . __ . __ . __
 72
    65
 73
     4
 40
9.0
 49
6.0
 74
     0
 49
-0.75
 74
     0
 49
1.5
 74
     0
 49
-0.75
 74
     0
  0
LTYPE
  5
418
330
18
100
AcDbSymbolTableRecord
100
AcDbLinetypeTableRecord
  2
AM_ISO02W050x2
 70
     0
  3
 _ _ _ _ _ _ _ _ _ _ _ _
 72
    65
 73
     2
 40
3.75
 49
3.0
 74
     0
 49
-0.75
 74
     0
  0
LTYPE
  5
41B
330
18
100
AcDbSymbolTableRecord
100
AcDbLinetypeTableRecord
  2
Amzigzag
 70
     0
  3
/\/-/\/-/\/-/\/-/\/-/\/
 72
    65
 73
     2
 40
11.0001
 49
0.0001
 74
     4
 75
   135
340
41A
 46
0.04
 50
0.0
 44
0.0
 45
0.0
 49
-11.0
 74
     0
  0
LTYPE
  5
42A
330
18
100
AcDbSymbolTableRecord
100
AcDbLinetypeTableRecord
  2
ACISOWELD
 70
     0
  3
_ _ _ _ _
 72
    65
 73
     2
 40
2.0
 49
2.0
 74
     0
 49
-1.0
 74
     0
  0
LTYPE
  5
42B
330
18
100
AcDbSymbolTableRecord
100
AcDbLinetypeTableRecord
  2
ACISOTGB
 70
     0
  3
__ . . __ . .
 72
    65
 73
     6
 40
9.0
 49
4.0
 74
     0
 49
-1.0
 74
     0
 49
1.0
 74
     0
 49
-1.0
 74
     0
 49
1.0
 74
     0
 49
-1.0
 74
     0
  0
LTYPE
  5
42C
330
18
100
AcDbSymbolTableRecord
100
AcDbLinetypeTableRecord
  2
ACISOTGL
 70
     0
  3
_ _ _ _ _
 72
    65
 73
     2
 40
3.0
 49
2.0
 74
     0
 49
-1.0
 74
     0
  0
ENDTAB
  0
TABLE
  2
LAYER
  5
12
102
{ACAD_XDICTIONARY
360
13
102
}
330
0
100
AcDbSymbolTable
 70
     7
  0
LAYER
  5
5
330
12
100
AcDbSymbolTableRecord
100
AcDbLayerTableRecord
  2
0
 70
     0
 62
     7
  6
CONTINUOUS
370
    -3
390
6
  0
LAYER
  5
99
330
12
100
AcDbSymbolTableRecord
100
AcDbLayerTableRecord
  2
AM_VIS
 70
     0
 62
     7
  6
CONTINUOUS
370
    50
390
6
  0
LAYER
  5
35
330
12
100
AcDbSymbolTableRecord
100
AcDbLayerTableRecord
  2
AM_7
 70
     0
 62
     1
  6
AM_ISO08W050
370
    25
390
6
  0
LAYER
  5
96
330
12
100
AcDbSymbolTableRecord
100
AcDbLayerTableRecord
  2
AM_4
 70
     0
 62
     3
  6
CONTINUOUS
370
    25
390
6
  0
LAYER
  5
452
330
12
100
AcDbSymbolTableRecord
100
AcDbLayerTableRecord
  2
LOGO
 70
     0
 62
     7
  6
CONTINUOUS
370
    -3
390
6
  0
LAYER
  5
58F
330
12
100
AcDbSymbolTableRecord
100
AcDbLayerTableRecord
  2
AM_5
 70
     0
 62
     5
  6
CONTINUOUS
370
    50
390
6
  0
LAYER
  5
592
330
12
100
AcDbSymbolTableRecord
100
AcDbLayerTableRecord
  2
Defpoints
 70
     0
 62
     7
  6
CONTINUOUS
290
     0
370
    -3
390
6
  0
ENDTAB
  0
TABLE
  2
STYLE
  5
15
330
0
100
AcDbSymbolTable
 70
     7
  0
STYLE
  5
16
330
15
100
AcDbSymbolTableRecord
100
AcDbTextStyleTableRecord
  2
STANDARD
 70
     0
 40
0.0
 41
1.0
 50
0.0
 71
     0
 42
0.12
  3
ISOCP.SHX
  4
CHINESET.SHX
  0
STYLE
  5
29
330
15
100
AcDbSymbolTableRecord
100
AcDbTextStyleTableRecord
  2
DAYUS
 70
     0
 40
0.0
 41
1.0
 50
0.0
 71
     0
 42
3.0
  3
simplex.shx
  4
dayus.shx
  0
STYLE
  5
41A
330
15
100
AcDbSymbolTableRecord
100
AcDbTextStyleTableRecord
  2

 70
     1
 40
0.0
 41
1.0
 50
0.0
 71
     0
 42
3.0
  3
ltypeshp.shx
  4

  0
STYLE
  5
41C
330
15
100
AcDbSymbolTableRecord
100
AcDbTextStyleTableRecord
  2
ACISOTS
 70
     0
 40
1.0
 41
1.0
 50
0.0
 71
     0
 42
3.0
  3
isocp.shx
  4
chineset.shx
  0
STYLE
  5
429
330
15
100
AcDbSymbolTableRecord
100
AcDbTextStyleTableRecord
  2
ACISOGDT
 70
     0
 40
0.0
 41
1.0
 50
0.0
 71
     0
 42
3.0
  3
amgdt.shx
  4

  0
STYLE
  5
453
330
15
100
AcDbSymbolTableRecord
100
AcDbTextStyleTableRecord
  2
CHINESE
 70
     0
 40
0.0
 41
1.0
 50
0.0
 71
     0
 42
3.0
  3
simplex.shx
  4
chineset.shx
  0
STYLE
  5
454
330
15
100
AcDbSymbolTableRecord
100
AcDbTextStyleTableRecord
  2
CHINESET
 70
     0
 40
0.0
 41
1.0
 50
0.0
 71
     0
 42
4.0
  3
C:\r13\com\fonts\simplex.shx
  4
C:\r13\com\fonts\chineset.shx
  0
ENDTAB
  0
TABLE
  2
VIEW
  5
1B
330
0
100
AcDbSymbolTable
 70
     0
  0
ENDTAB
  0
TABLE
  2
UCS
  5
1C
330
0
100
AcDbSymbolTable
 70
     0
  0
ENDTAB
  0
TABLE
  2
APPID
  5
1F
330
0
100
AcDbSymbolTable
 70
    19
  0
APPID
  5
20
330
1F
100
AcDbSymbolTableRecord
100
AcDbRegAppTableRecord
  2
ACAD
 70
     0
  0
APPID
  5
11
330
1F
100
AcDbSymbolTableRecord
100
AcDbRegAppTableRecord
  2
ACAD_PSEXT
 70
     0
  0
APPID
  5
3B1
330
1F
100
AcDbSymbolTableRecord
100
AcDbRegAppTableRecord
  2
MCAD_NO_VIS
 70
     0
  0
APPID
  5
3B2
330
1F
100
AcDbSymbolTableRecord
100
AcDbRegAppTableRecord
  2
ACAD_TEMP_GRAPHIC
 70
     0
  0
APPID
  5
3E2
330
1F
100
AcDbSymbolTableRecord
100
AcDbRegAppTableRecord
  2
AD_DRAW
 70
     0
  0
APPID
  5
3E5
330
1F
100
AcDbSymbolTableRecord
100
AcDbRegAppTableRecord
  2
ACATTRIBSERVICES
 70
     0
  0
APPID
  5
403
330
1F
100
AcDbSymbolTableRecord
100
AcDbRegAppTableRecord
  2
DESIGNERASSEMBLIES
 70
     0
  0
APPID
  5
409
330
1F
100
AcDbSymbolTableRecord
100
AcDbRegAppTableRecord
  2
ACADM_DIM_EDIT
 70
     0
  0
APPID
  5
40A
330
1F
100
AcDbSymbolTableRecord
100
AcDbRegAppTableRecord
  2
AMDT_DM_ADJ
 70
     0
  0
APPID
  5
45D
330
1F
100
AcDbSymbolTableRecord
100
AcDbRegAppTableRecord
  2
GENIUS_GENOENT_13
 70
     0
  0
APPID
  5
45E
330
1F
100
AcDbSymbolTableRecord
100
AcDbRegAppTableRecord
  2
GENIUS_GENOBJ-N-CRS_13
 70
     0
  0
APPID
  5
45F
330
1F
100
AcDbSymbolTableRecord
100
AcDbRegAppTableRecord
  2
GENIUS_GENOLIS_13
 70
     0
  0
APPID
  5
460
330
1F
100
AcDbSymbolTableRecord
100
AcDbRegAppTableRecord
  2
GENIUS_GENODEF_13
 70
     0
  0
APPID
  5
461
330
1F
100
AcDbSymbolTableRecord
100
AcDbRegAppTableRecord
  2
GENIUS_GENOREF_13
 70
     0
  0
APPID
  5
462
330
1F
100
AcDbSymbolTableRecord
100
AcDbRegAppTableRecord
  2
GENIUS_GENREC_14
 70
     0
  0
APPID
  5
463
330
1F
100
AcDbSymbolTableRecord
100
AcDbRegAppTableRecord
  2
GENIUS_GENOBJ-N-REC_13
 70
     0
  0
APPID
  5
5A4
330
1F
100
AcDbSymbolTableRecord
100
AcDbRegAppTableRecord
  2
ACAD_DSTYLE_DIMTEXT_FILL
 70
     0
  0
APPID
  5
735
330
1F
100
AcDbSymbolTableRecord
100
AcDbRegAppTableRecord
  2
GENIUS_GENDTOL_13
 70
     0
  0
APPID
  5
8A0
330
1F
100
AcDbSymbolTableRecord
100
AcDbRegAppTableRecord
  2
GENIUS_GENDIMSH_14
 70
     0
  0
ENDTAB
  0
TABLE
  2
DIMSTYLE
  5
21
330
0
100
AcDbSymbolTable
 70
     9
100
AcDbDimStyleTable
 71
     2
340
27
340
22
  0
DIMSTYLE
105
27
330
21
100
AcDbSymbolTableRecord
100
AcDbDimStyleTableRecord
  2
AM_ISO
 70
     0
  4
"
 41
3.5
 42
1.0
 43
8.0
 44
1.0
 47
0.1
 48
0.1
 73
     0
 74
     0
 77
     1
 78
     8
 79
     2
140
3.5
141
0.0
143
0.0393701
146
0.71
147
1.0
172
     1
176
   256
177
   256
178
   256
271
     2
272
     2
283
     0
284
     8
340
16
371
    -1
372
    -1
  0
DIMSTYLE
105
22
330
21
100
AcDbSymbolTableRecord
100
AcDbDimStyleTableRecord
  2
AM_ISO$SH
 70
     0
  4
"
 41
2.5
 42
1.0
 43
10.0
 44
1.0
 47
0.1
 48
0.1
 73
     0
 74
     0
 75
     1
 76
     1
 77
     1
 78
     8
 79
     2
140
3.5
141
0.0
143
0.0393701
144
2.0
146
0.71
147
1.5
172
     1
173
     1
176
   256
177
   256
178
     2
271
     2
272
     3
274
     4
283
     0
284
     8
340
16
343
23
371
    -1
372
    -1
  0
DIMSTYLE
105
435
330
21
100
AcDbSymbolTableRecord
100
AcDbDimStyleTableRecord
  2
AM_ISO$3
 70
     0
  4
"
 41
3.5
 42
1.0
 43
8.0
 44
1.0
 47
0.1
 48
0.1
 73
     0
 77
     1
 78
     8
 79
     2
140
3.5
141
0.0
143
0.0393701
146
0.71
147
1.0
176
   256
177
   256
178
   256
271
     2
272
     2
283
     0
284
     8
288
     1
289
     0
340
16
371
    -1
372
    -1
  0
DIMSTYLE
105
436
102
{ACAD_REACTORS
330
F56
102
}
330
21
100
AcDbSymbolTableRecord
100
AcDbDimStyleTableRecord
  2
AM_ISO$4
 70
     0
  4
"
 41
3.5
 42
1.0
 43
8.0
 44
1.0
 47
0.1
 48
0.1
 73
     0
 77
     1
 78
     8
 79
     2
140
3.5
141
0.0
143
0.0393701
146
0.71
147
1.0
176
   256
177
   256
178
   256
271
     2
272
     2
283
     0
284
     8
288
     1
289
     0
340
16
371
    -1
372
    -1
  0
DIMSTYLE
105
437
330
21
100
AcDbSymbolTableRecord
100
AcDbDimStyleTableRecord
  2
AM_ISO$6
 70
     0
  4
"
 41
3.5
 42
1.0
 43
8.0
 44
1.0
 47
0.1
 48
0.1
 73
     0
 74
     0
 78
     8
 79
     2
140
3.5
141
0.0
143
0.0393701
146
0.71
147
1.0
172
     1
176
   256
177
   256
178
   256
271
     2
272
     2
283
     0
284
     8
340
16
371
    -1
372
    -1
  0
DIMSTYLE
105
438
330
21
100
AcDbSymbolTableRecord
100
AcDbDimStyleTableRecord
  2
AM_ISO$7
 70
     0
  4
"
 41
3.5
 42
1.0
 43
8.0
 44
1.0
 47
0.1
 48
0.1
 73
     0
 74
     0
 77
     1
 78
     8
 79
     2
140
5.0
141
0.0
143
0.0393701
146
0.71
147
1.0
172
     1
176
   256
177
   256
178
   256
271
     2
272
     2
283
     0
284
     8
340
16
371
    -1
372
    -1
  0
DIMSTYLE
105
439
330
21
100
AcDbSymbolTableRecord
100
AcDbDimStyleTableRecord
  2
AM_ISO$SF
 70
     0
  4
"
 41
2.5
 42
1.0
 43
10.0
 44
1.0
 47
0.1
 48
0.1
 73
     0
 74
     0
 75
     1
 76
     1
 77
     1
 78
     8
 79
     2
140
3.5
141
0.0
143
0.0393701
146
0.71
147
1.5
172
     1
176
   256
177
   256
178
     2
271
     2
272
     8
274
     4
283
     0
284
     8
340
16
371
    -1
372
    -1
  0
DIMSTYLE
105
457
330
21
100
AcDbSymbolTableRecord
100
AcDbDimStyleTableRecord
  2
STANDARD
 70
     0
 41
3.0
 42
2.0
 43
8.0
 44
2.0
 73
     0
 74
     0
 77
     1
 78
     8
140
3.0
141
2.0
146
0.6
147
1.0
172
     1
176
   256
177
   256
271
     2
272
     2
284
     8
340
453
371
    -1
372
    -1
  0
DIMSTYLE
105
653
102
{ACAD_REACTORS
330
F52
330
F53
330
F54
330
F55
330
F58
102
}
330
21
100
AcDbSymbolTableRecord
100
AcDbDimStyleTableRecord
  2
AM_ISO$0
 70
     0
  4
"
 41
3.5
 42
1.0
 43
8.0
 44
1.0
 47
0.1
 48
0.1
 73
     0
 74
     0
 77
     1
 78
     8
 79
     2
140
3.5
141
0.0
143
0.0393701
146
0.71
147
1.0
172
     1
176
   256
177
   256
178
   256
271
     2
272
     2
283
     0
284
     8
340
16
371
    -1
372
    -1
  0
ENDTAB
  0
TABLE
  2
BLOCK_RECORD
  5
1
330
0
100
AcDbSymbolTable
 70
    21
  0
BLOCK_RECORD
  5
2
102
{ACAD_XDICTIONARY
360
3
102
}
330
1
100
AcDbSymbolTableRecord
100
AcDbBlockTableRecord
  2
*MODEL_SPACE
340
B
  0
BLOCK_RECORD
  5
D
330
1
100
AcDbSymbolTableRecord
100
AcDbBlockTableRecord
  2
*Paper_Space
340
10
  0
BLOCK_RECORD
  5
23
330
1
100
AcDbSymbolTableRecord
100
AcDbBlockTableRecord
  2
GENAXEH
340
0
  0
BLOCK_RECORD
  5
F5B
330
1
100
AcDbSymbolTableRecord
100
AcDbBlockTableRecord
  2
*D15
340
0
  0
BLOCK_RECORD
  5
F67
330
1
100
AcDbSymbolTableRecord
100
AcDbBlockTableRecord
  2
*D16
340
0
  0
BLOCK_RECORD
  5
F73
330
1
100
AcDbSymbolTableRecord
100
AcDbBlockTableRecord
  2
*D17
340
0
  0
BLOCK_RECORD
  5
F7F
330
1
100
AcDbSymbolTableRecord
100
AcDbBlockTableRecord
  2
*D18
340
0
  0
BLOCK_RECORD
  5
F8B
330
1
100
AcDbSymbolTableRecord
100
AcDbBlockTableRecord
  2
*D19
340
0
  0
BLOCK_RECORD
  5
FBE
330
1
100
AcDbSymbolTableRecord
100
AcDbBlockTableRecord
  2
*D20
340
0
  0
ENDTAB
  0
ENDSEC
  0
SECTION
  2
BLOCKS
  0
BLOCK
  5
4
330
2
100
AcDbEntity
  8
0
100
AcDbBlockBegin
  2
*MODEL_SPACE
 70
     0
 10
0.0
 20
0.0
 30
0.0
  3
*MODEL_SPACE
  1

  0
ENDBLK
  5
A
330
2
100
AcDbEntity
  8
0
100
AcDbBlockEnd
  0
BLOCK
  5
E
330
D
100
AcDbEntity
 67
     1
  8
0
100
AcDbBlockBegin
  2
*Paper_Space
 70
     0
 10
0.0
 20
0.0
 30
0.0
  3
*Paper_Space
  1

  0
ENDBLK
  5
F
330
D
100
AcDbEntity
 67
     1
  8
0
100
AcDbBlockEnd
  0
BLOCK
  5
24
330
23
100
AcDbEntity
  8
0
100
AcDbBlockBegin
  2
GENAXEH
 70
     0
 10
0.0
 20
0.0
 30
0.0
  3
GENAXEH
  1

  0
LINE
  5
25
330
23
100
AcDbEntity
  8
0
100
AcDbLine
 10
-1.0
 20
0.0
 30
0.0
 11
1.0
 21
0.0
 31
0.0
  0
ENDBLK
  5
26
330
23
100
AcDbEntity
  8
0
100
AcDbBlockEnd
  0
BLOCK
  5
F65
330
F5B
100
AcDbEntity
  8
0
100
AcDbBlockBegin
  2
*D15
 70
     1
 10
0.0
 20
0.0
 30
0.0
  3
*D15
  1

  0
LINE
  5
F94
330
F5B
100
AcDbEntity
  8
AM_5
100
AcDbLine
 10
201.611068586101
 20
101.3021345315216
 30
0.0
 11
248.1110685861009
 21
101.3021345315216
 31
0.0
  0
LINE
  5
F95
330
F5B
100
AcDbEntity
  8
AM_5
100
AcDbLine
 10
198.9070091371857
 20
263.2021345315215
 30
0.0
 11
248.1110685861009
 21
263.2021345315215
 31
0.0
  0
LINE
  5
F96
330
F5B
100
AcDbEntity
  8
AM_5
100
AcDbLine
 10
247.1110685861009
 20
104.8021345315216
 30
0.0
 11
247.111068586101
 21
259.7021345315216
 31
0.0
  0
SOLID
  5
F97
330
F5B
100
AcDbEntity
  8
AM_5
100
AcDbTrace
 10
246.5277352527676
 20
104.8021345315216
 30
0.0
 11
247.6944019194343
 21
104.8021345315216
 31
0.0
 12
247.1110685861009
 22
101.3021345315216
 32
0.0
 13
247.1110685861009
 23
101.3021345315216
 33
0.0
  0
SOLID
  5
F98
330
F5B
100
AcDbEntity
  8
AM_5
100
AcDbTrace
 10
246.5277352527676
 20
259.7021345315216
 30
0.0
 11
247.6944019194343
 21
259.7021345315216
 31
0.0
 12
247.111068586101
 22
263.2021345315215
 32
0.0
 13
247.111068586101
 23
263.2021345315215
 33
0.0
  0
MTEXT
  5
F99
330
F5B
100
AcDbEntity
  8
AM_5
100
AcDbMText
 10
244.3607240979119
 20
182.2521345315216
 30
0.0
 40
3.5
 41
0.0
 71
     5
 72
     1
  1
162
 11
0.0000000000000001
 21
1.0
 31
0.0
 73
     1
 44
1.0
1001
ACAD
1000
MTEXTBEGIN
1070
    73
1070
     1
1070
    44
1040
1.0
1070
    74
1070
     0
1000
MTEXTEND
  0
POINT
  5
F9A
330
F5B
100
AcDbEntity
  8
Defpoints
 62
     0
100
AcDbPoint
 10
200.6110685861009
 20
101.3021345315216
 30
0.0
  0
POINT
  5
F9B
330
F5B
100
AcDbEntity
  8
Defpoints
 62
     0
100
AcDbPoint
 10
197.9070091371857
 20
263.2021345315215
 30
0.0
  0
POINT
  5
F9C
330
F5B
100
AcDbEntity
  8
Defpoints
 62
     0
100
AcDbPoint
 10
247.111068586101
 20
263.2021345315215
 30
0.0
  0
ENDBLK
  5
F66
330
F5B
100
AcDbEntity
  8
0
100
AcDbBlockEnd
  0
BLOCK
  5
F71
330
F67
100
AcDbEntity
  8
0
100
AcDbBlockBegin
  2
*D16
 70
     1
 10
0.0
 20
0.0
 30
0.0
  3
*D16
  1

  0
LINE
  5
F9D
330
F67
100
AcDbEntity
  8
AM_5
100
AcDbLine
 10
205.7110685861009
 20
216.3021345315215
 30
0.0
 11
236.1110685861009
 21
216.3021345315215
 31
0.0
  0
LINE
  5
F9E
330
F67
100
AcDbEntity
  8
AM_5
100
AcDbLine
 10
192.61106857792
 20
263.2021345315215
 30
0.0
 11
236.1110685861009
 21
263.2021345315215
 31
0.0
  0
LINE
  5
F9F
330
F67
100
AcDbEntity
  8
AM_5
100
AcDbLine
 10
235.111068586101
 20
219.8021345315215
 30
0.0
 11
235.111068586101
 21
259.7021345315216
 31
0.0
  0
SOLID
  5
FA0
330
F67
100
AcDbEntity
  8
AM_5
100
AcDbTrace
 10
234.5277352527676
 20
219.8021345315215
 30
0.0
 11
235.6944019194343
 21
219.8021345315215
 31
0.0
 12
235.111068586101
 22
216.3021345315215
 32
0.0
 13
235.111068586101
 23
216.3021345315215
 33
0.0
  0
SOLID
  5
FA1
330
F67
100
AcDbEntity
  8
AM_5
100
AcDbTrace
 10
234.5277352527676
 20
259.7021345315216
 30
0.0
 11
235.6944019194343
 21
259.7021345315216
 31
0.0
 12
235.111068586101
 22
263.2021345315215
 32
0.0
 13
235.111068586101
 23
263.2021345315215
 33
0.0
  0
MTEXT
  5
FA2
330
F67
100
AcDbEntity
  8
AM_5
100
AcDbMText
 10
232.3610685861009
 20
239.7521345315216
 30
0.0
 40
3.5
 41
0.0
 71
     5
 72
     1
  1
47
 11
0.0000000000000001
 21
1.0
 31
0.0
 73
     1
 44
1.0
1001
ACAD
1000
MTEXTBEGIN
1070
    73
1070
     1
1070
    44
1040
1.0
1070
    74
1070
     0
1000
MTEXTEND
  0
POINT
  5
FA3
330
F67
100
AcDbEntity
  8
Defpoints
 62
     0
100
AcDbPoint
 10
204.7110685861008
 20
216.3021345315215
 30
0.0
  0
POINT
  5
FA4
330
F67
100
AcDbEntity
  8
Defpoints
 62
     0
100
AcDbPoint
 10
191.61106857792
 20
263.2021345315215
 30
0.0
  0
POINT
  5
FA5
330
F67
100
AcDbEntity
  8
Defpoints
 62
     0
100
AcDbPoint
 10
235.111068586101
 20
263.2021345315215
 30
0.0
  0
ENDBLK
  5
F72
330
F67
100
AcDbEntity
  8
0
100
AcDbBlockEnd
  0
BLOCK
  5
F7D
330
F73
100
AcDbEntity
  8
0
100
AcDbBlockBegin
  2
*D17
 70
     1
 10
0.0
 20
0.0
 30
0.0
  3
*D17
  1

  0
LINE
  5
FA6
330
F73
100
AcDbEntity
  8
AM_5
100
AcDbLine
 10
62.45049882047823
 20
337.0943497821756
 30
0.0
 11
62.45049882047823
 21
360.5943507921755
 31
0.0
  0
LINE
  5
FA7
330
F73
100
AcDbEntity
  8
AM_5
100
AcDbLine
 10
115.4504988204783
 20
337.0943497821752
 30
0.0
 11
115.4504988204783
 21
360.5943507921755
 31
0.0
  0
LINE
  5
FA8
330
F73
100
AcDbEntity
  8
AM_5
100
AcDbLine
 10
65.95049882047823
 20
359.5943507921755
 30
0.0
 11
111.9504988204783
 21
359.5943507921755
 31
0.0
  0
SOLID
  5
FA9
330
F73
100
AcDbEntity
  8
AM_5
100
AcDbTrace
 10
65.95049882047823
 20
360.1776841255088
 30
0.0
 11
65.95049882047823
 21
359.0110174588422
 31
0.0
 12
62.45049882047823
 22
359.5943507921755
 32
0.0
 13
62.45049882047823
 23
359.5943507921755
 33
0.0
  0
SOLID
  5
FAA
330
F73
100
AcDbEntity
  8
AM_5
100
AcDbTrace
 10
111.9504988204783
 20
360.1776841255088
 30
0.0
 11
111.9504988204783
 21
359.0110174588422
 31
0.0
 12
115.4504988204783
 22
359.5943507921755
 32
0.0
 13
115.4504988204783
 23
359.5943507921755
 33
0.0
  0
MTEXT
  5
FAB
330
F73
100
AcDbEntity
  8
AM_5
100
AcDbMText
 10
88.95049882047826
 20
362.3443507921755
 30
0.0
 40
3.5
 41
0.0
 71
     5
 72
     1
  1
53
 73
     1
 44
1.0
1001
ACAD
1000
MTEXTBEGIN
1070
    73
1070
     1
1070
    44
1040
1.0
1070
    74
1070
     0
1000
MTEXTEND
  0
POINT
  5
FAC
330
F73
100
AcDbEntity
  8
Defpoints
 62
     0
100
AcDbPoint
 10
62.45049882047823
 20
336.0943497821756
 30
0.0
  0
POINT
  5
FAD
330
F73
100
AcDbEntity
  8
Defpoints
 62
     0
100
AcDbPoint
 10
115.4504988204783
 20
336.0943497821752
 30
0.0
  0
POINT
  5
FAE
330
F73
100
AcDbEntity
  8
Defpoints
 62
     0
100
AcDbPoint
 10
115.4504988204783
 20
359.5943507921755
 30
0.0
  0
ENDBLK
  5
F7E
330
F73
100
AcDbEntity
  8
0
100
AcDbBlockEnd
  0
BLOCK
  5
F89
330
F7F
100
AcDbEntity
  8
0
100
AcDbBlockBegin
  2
*D18
 70
     1
 10
0.0
 20
0.0
 30
0.0
  3
*D18
  1

  0
LINE
  5
FAF
330
F7F
100
AcDbEntity
  8
AM_5
100
AcDbLine
 10
100.1362732142098
 20
294.5943497821754
 30
0.0
 11
135.4988734830644
 21
294.5943497821754
 31
0.0
  0
LINE
  5
FB0
330
F7F
100
AcDbEntity
  8
AM_5
100
AcDbLine
 10
100.13627321421
 20
347.5943497821754
 30
0.0
 11
135.4988734830644
 21
347.5943497821754
 31
0.0
  0
LINE
  5
FB1
330
F7F
100
AcDbEntity
  8
AM_5
100
AcDbLine
 10
134.4988734830644
 20
298.0943497821753
 30
0.0
 11
134.4988734830644
 21
344.0943497821753
 31
0.0
  0
SOLID
  5
FB2
330
F7F
100
AcDbEntity
  8
AM_5
100
AcDbTrace
 10
133.915540149731
 20
298.0943497821753
 30
0.0
 11
135.0822068163977
 21
298.0943497821753
 31
0.0
 12
134.4988734830644
 22
294.5943497821754
 32
0.0
 13
134.4988734830644
 23
294.5943497821754
 33
0.0
  0
SOLID
  5
FB3
330
F7F
100
AcDbEntity
  8
AM_5
100
AcDbTrace
 10
133.9155401497311
 20
344.0943497821753
 30
0.0
 11
135.0822068163977
 21
344.0943497821753
 31
0.0
 12
134.4988734830644
 22
347.5943497821754
 32
0.0
 13
134.4988734830644
 23
347.5943497821754
 33
0.0
  0
MTEXT
  5
FB4
330
F7F
100
AcDbEntity
  8
AM_5
100
AcDbMText
 10
131.7488734830643
 20
321.5625663035453
 30
0.0
 40
3.5
 41
0.0
 71
     5
 72
     1
  1
53
 11
0.0000000000000001
 21
1.0
 31
0.0
 73
     1
 44
1.0
1001
ACAD
1000
MTEXTBEGIN
1070
    73
1070
     1
1070
    44
1040
1.0
1070
    74
1070
     0
1000
MTEXTEND
  0
POINT
  5
FB5
330
F7F
100
AcDbEntity
  8
Defpoints
 62
     0
100
AcDbPoint
 10
99.13627321420984
 20
294.5943497821754
 30
0.0
  0
POINT
  5
FB6
330
F7F
100
AcDbEntity
  8
Defpoints
 62
     0
100
AcDbPoint
 10
99.13627321421001
 20
347.5943497821754
 30
0.0
  0
POINT
  5
FB7
330
F7F
100
AcDbEntity
  8
Defpoints
 62
     0
100
AcDbPoint
 10
134.4988734830644
 20
347.5943497821754
 30
0.0
  0
ENDBLK
  5
F8A
330
F7F
100
AcDbEntity
  8
0
100
AcDbBlockEnd
  0
BLOCK
  5
F92
330
F8B
100
AcDbEntity
  8
0
100
AcDbBlockBegin
  2
*D19
 70
     1
 10
0.0
 20
0.0
 30
0.0
  3
*D19
  1

  0
LINE
  5
FB8
330
F8B
100
AcDbEntity
  8
AM_5
100
AcDbLine
 10
185.3711132605726
 20
208.7401990526596
 30
0.0
 11
156.2034874380365
 21
166.6475301577415
 31
0.0
  0
LINE
  5
FB9
330
F8B
100
AcDbEntity
  8
AM_5
100
AcDbLine
 10
156.2034874380365
 20
166.6475301577415
 30
0.0
 11
138.3146094852806
 21
166.6475301577415
 31
0.0
  0
SOLID
  5
FBA
330
F8B
100
AcDbEntity
  8
AM_5
100
AcDbTrace
 10
184.8916427139056
 20
209.0724425968506
 30
0.0
 11
185.8505838072396
 21
208.4079555084685
 31
0.0
 12
187.3645745257191
 22
211.6170223326615
 32
0.0
 13
187.3645745257191
 23
211.6170223326615
 33
0.0
  0
MTEXT
  5
FBB
330
F8B
100
AcDbEntity
  8
AM_5
100
AcDbMText
 10
146.7590484616586
 20
172.3148858007861
 30
0.0
 40
3.5
 41
0.0
 71
     5
 72
     1
  1
2-PT3/8\P2-PT1/4
 73
     1
 44
1.0
1001
ACAD
1000
MTEXTBEGIN
1070
    73
1070
     1
1070
    44
1040
1.0
1070
    74
1070
     0
1000
MTEXTEND
  0
POINT
  5
FBC
330
F8B
100
AcDbEntity
  8
Defpoints
 62
     0
100
AcDbPoint
 10
187.3645745257191
 20
211.6170223326615
 30
0.0
  0
POINT
  5
FBD
330
F8B
100
AcDbEntity
  8
Defpoints
 62
     0
100
AcDbPoint
 10
190.6110685861005
 20
216.3021345315216
 30
0.0
  0
ENDBLK
  5
F93
330
F8B
100
AcDbEntity
  8
0
100
AcDbBlockEnd
  0
BLOCK
  5
FC8
330
FBE
100
AcDbEntity
  8
0
100
AcDbBlockBegin
  2
*D20
 70
     1
 10
0.0
 20
0.0
 30
0.0
  3
*D20
  1

  0
LINE
  5
FBF
330
FBE
100
AcDbEntity
  8
AM_5
100
AcDbLine
 10
205.7110685861009
 20
216.3021345315215
 30
0.0
 11
236.111068586101
 21
216.3021345315215
 31
0.0
  0
LINE
  5
FC0
330
FBE
100
AcDbEntity
  8
AM_5
100
AcDbLine
 10
201.611068586101
 20
101.3021345315216
 30
0.0
 11
236.1110685861009
 21
101.3021345315216
 31
0.0
  0
LINE
  5
FC1
330
FBE
100
AcDbEntity
  8
AM_5
100
AcDbLine
 10
235.111068586101
 20
212.8021345315215
 30
0.0
 11
235.111068586101
 21
104.8021345315216
 31
0.0
  0
SOLID
  5
FC2
330
FBE
100
AcDbEntity
  8
AM_5
100
AcDbTrace
 10
234.5277352527676
 20
212.8021345315215
 30
0.0
 11
235.6944019194343
 21
212.8021345315215
 31
0.0
 12
235.111068586101
 22
216.3021345315215
 32
0.0
 13
235.111068586101
 23
216.3021345315215
 33
0.0
  0
SOLID
  5
FC3
330
FBE
100
AcDbEntity
  8
AM_5
100
AcDbTrace
 10
234.5277352527676
 20
104.8021345315216
 30
0.0
 11
235.6944019194343
 21
104.8021345315216
 31
0.0
 12
235.111068586101
 22
101.3021345315216
 32
0.0
 13
235.111068586101
 23
101.3021345315216
 33
0.0
  0
MTEXT
  5
FC4
330
FBE
100
AcDbEntity
  8
AM_5
100
AcDbMText
 10
232.3610685861009
 20
158.8021345315216
 30
0.0
 40
3.5
 41
0.0
 71
     5
 72
     1
  1
115
 11
0.0000000000000001
 21
1.0
 31
0.0
 73
     1
 44
1.0
1001
ACAD
1000
MTEXTBEGIN
1070
    73
1070
     1
1070
    44
1040
1.0
1070
    74
1070
     0
1000
MTEXTEND
  0
POINT
  5
FC5
330
FBE
100
AcDbEntity
  8
Defpoints
 62
     0
100
AcDbPoint
 10
204.7110685861008
 20
216.3021345315215
 30
0.0
  0
POINT
  5
FC6
330
FBE
100
AcDbEntity
  8
Defpoints
 62
     0
100
AcDbPoint
 10
200.6110685861009
 20
101.3021345315216
 30
0.0
  0
POINT
  5
FC7
330
FBE
100
AcDbEntity
  8
Defpoints
 62
     0
100
AcDbPoint
 10
235.111068586101
 20
101.3021345315216
 30
0.0
  0
ENDBLK
  5
FC9
330
FBE
100
AcDbEntity
  8
0
100
AcDbBlockEnd
  0
ENDSEC
  0
SECTION
  2
ENTITIES
  0
VIEWPORT
  5
3AA
102
{ACAD_XDICTIONARY
360
FDA
102
}
330
D
100
AcDbEntity
 67
     1
  8
0
100
AcDbViewport
 10
141.2048417401953
 20
202.364832642547
 30
0.0
 40
331.2936277562494
 41
367.0308412459906
 68
     1
 69
     1
 12
141.2048417401953
 22
202.364832642547
 13
0.0
 23
0.0
 14
1.0
 24
1.0
 15
0.0
 25
0.0
 16
0.0
 26
0.0
 36
1.0
 17
0.0
 27
0.0
 37
0.0
 42
50.0
 43
0.0
 44
0.0
 45
367.0308412459906
 50
0.0
 51
0.0
 72
  1000
 90
    32800
  1

281
     0
 71
     1
 74
     0
110
0.0
120
0.0
130
0.0
111
1.0
121
0.0
131
0.0
112
0.0
122
1.0
132
0.0
 79
     0
146
0.0
  0
TEXT
  5
505
330
D
100
AcDbEntity
 67
     1
  8
LOGO
 62
     7
100
AcDbText
 10
97.11412350669389
 20
40.53252060200551
 30
0.0
 40
4.799304977375565
  1
Order example:
 41
0.8
  7
CHINESET
100
AcDbText
  0
TEXT
  5
506
330
D
100
AcDbEntity
 67
     1
  8
LOGO
 62
     7
100
AcDbText
 10
97.97515850827267
 20
47.28894830137514
 30
0.0
 40
7.198957466063347
  1
訂購代號：
  7
CHINESET
100
AcDbText
  0
LINE
  5
507
330
D
100
AcDbEntity
 67
     1
  8
LOGO
 62
     4
100
AcDbLine
 10
95.02880921571749
 20
20.30643709745559
 30
0.0
 11
95.02880921571749
 21
56.30122442777255
 31
0.0
  0
TEXT
  5
508
330
D
100
AcDbEntity
 67
     1
  8
LOGO
  6
Continuous
100
AcDbText
 10
28.76976649776998
 20
27.37755874762601
 30
0.0
 40
5.399218099547511
  1
金器工業股份有限公司
  7
CHINESET
100
AcDbText
  0
TEXT
  5
509
330
D
100
AcDbEntity
 67
     1
  8
LOGO
  6
Continuous
100
AcDbText
 10
18.85247103152505
 20
21.97728282464615
 30
0.0
 40
3.599478733031673
  1
MINDMAN INDUSTRIAL CO., LTD.
 41
0.85
  7
CHINESET
100
AcDbText
  0
LINE
  5
50A
330
D
100
AcDbEntity
 67
     1
  8
LOGO
 62
     4
100
AcDbLine
 10
95.02880921571749
 20
49.10226696170918
 30
0.0
 11
42.23645446458601
 21
49.10226696170918
 31
0.0
  0
LINE
  5
50B
330
D
100
AcDbEntity
 67
     1
  8
LOGO
 62
     4
100
AcDbLine
 10
95.02880921571749
 20
41.9033094956458
 30
0.0
 11
42.23645446458601
 21
41.9033094956458
 31
0.0
  0
LINE
  5
50C
330
D
100
AcDbEntity
 67
     1
  8
LOGO
 62
     4
100
AcDbLine
 10
95.02880921571749
 20
34.70435202958285
 30
0.0
 11
15.84027708902067
 21
34.70435202958285
 31
0.0
  0
LINE
  5
50D
330
D
100
AcDbEntity
 67
     1
  8
LOGO
 62
     4
100
AcDbLine
 10
42.23645446458601
 20
34.70435202958285
 30
0.0
 11
42.23645446458601
 21
56.30122442777255
 31
0.0
  0
TEXT
  5
50E
330
D
100
AcDbEntity
 67
     1
  8
LOGO
100
AcDbText
 10
78.31753717579449
 20
36.50409139609806
 30
0.0
 40
3.599478733031673
  1
mm
  7
CHINESET
 72
     1
 11
82.77403465478608
 21
38.3038307626139
 31
0.0
100
AcDbText
 73
     2
  0
TEXT
  5
50F
330
D
100
AcDbEntity
 67
     1
  8
LOGO
100
AcDbText
 10
76.43209593468265
 20
50.90200632822481
 30
0.0
 40
3.599478733031673
  1
1 : 1
  7
CHINESET
 72
     1
 11
82.77403465478608
 21
52.70174569474065
 31
0.0
100
AcDbText
 73
     2
  0
LINE
  5
510
330
D
100
AcDbEntity
 67
     1
  8
LOGO
 62
     4
100
AcDbLine
 10
71.03228432883952
 20
34.70435202958285
 30
0.0
 11
71.03228432883952
 21
56.30122442777255
 31
0.0
  0
TEXT
  5
511
330
D
100
AcDbEntity
 67
     1
  8
LOGO
100
AcDbText
 10
45.20441750918858
 20
50.9037777252391
 30
235.9039063680897
 40
3.599478733031673
  1
比例 Scale:
 41
0.9
  7
CHINESET
 72
     4
 11
56.63436939671282
 21
52.70174569474065
 31
235.9039063680897
100
AcDbText
  0
TEXT
  5
512
330
D
100
AcDbEntity
 67
     1
  8
LOGO
100
AcDbText
 10
44.99712610000953
 20
43.75368129348648
 30
235.9039063680897
 40
3.599478733031673
  1
投影  View:
 41
0.9
  7
CHINESET
 72
     4
 11
56.63436939671282
 21
45.50278822867727
 31
235.9039063680897
100
AcDbText
  0
TEXT
  5
513
330
D
100
AcDbEntity
 67
     1
  8
LOGO
100
AcDbText
 10
45.34903942256931
 20
36.50409139609806
 30
235.9039063680897
 40
3.599478733031673
  1
單位  Unit:
 41
0.9
  7
CHINESET
 72
     4
 11
56.63436939671282
 21
38.3038307626139
 31
235.9039063680897
100
AcDbText
  0
LWPOLYLINE
  5
514
330
D
100
AcDbEntity
 67
     1
  8
LOGO
 62
     4
100
AcDbPolyline
 90
        4
 70
     1
 43
0.0
 10
15.84027708902067
 20
56.30122442777255
 10
266.5674180929635
 20
56.30122442777255
 10
266.5674180929635
 20
384.4206867153358
 10
15.84027708902067
 20
384.4206867153358
1001
GENIUS_GENREC_14
1002
{
1000
PYDIR
1011
15.84027708902067
1021
384.4206867153358
1031
0.0
1002
}
1002
{
1000
PXDIR
1011
266.5674180929635
1021
56.30122442777255
1031
0.0
1002
}
1002
{
1000
PORI
1011
15.84027708902067
1021
56.30122442777255
1031
0.0
1002
}
1002
{
1000
PINS
1011
15.84027708902067
1021
56.30122442777255
1031
0.0
1002
}
1002
{
1000
PINS2
1011
266.5674180929635
1021
384.4206867153358
1031
0.0
1002
}
1002
{
1000
C
1070
     1
1002
}
1001
GENIUS_GENODEF_13
1002
{
1000
HIER
1070
     0
1002
}
1002
{
1000
MANEDIT
1070
     0
1002
}
1002
{
1000
NOSEL
1070
     0
1002
}
1002
{
1000
BEHIND
1070
     0
1002
}
1002
{
1000
OTHER
1070
     0
1002
}
1002
{
1000
REACTOR
1002
}
1001
GENIUS_GENOBJ-N-REC_13
1002
{
1000
OWNER
1000
GEN
1002
}
  0
SOLID
  5
515
330
D
100
AcDbEntity
 67
     1
  8
LOGO
 62
     5
100
AcDbTrace
 10
19.57479404178065
 20
40.6879730777949
 30
0.0
 11
21.13111419562153
 21
40.68797307779457
 31
0.0
 12
27.62472587199204
 22
55.44618143318351
 32
0.0
 13
29.18104602583378
 23
55.44618143318266
 33
0.0
  0
SOLID
  5
516
330
D
100
AcDbEntity
 67
     1
  8
LOGO
 62
     5
100
AcDbTrace
 10
21.77510874204017
 20
40.6879730777949
 30
0.0
 11
23.33142889588106
 21
40.6879730777949
 31
0.0
 12
29.18104602583378
 22
54.2655247647518
 32
0.0
 13
27.62472587199204
 23
48.55901753400164
 33
0.0
  0
SOLID
  5
517
330
D
100
AcDbEntity
 67
     1
  8
LOGO
 62
     2
100
AcDbTrace
 10
21.13111419562153
 20
40.68797307779457
 30
0.0
 11
21.77510874204017
 21
40.6879730777949
 31
0.0
 12
29.18104602583378
 22
55.44618143318266
 32
0.0
 13
29.82504057225151
 23
55.44618143318266
 33
0.0
  0
SOLID
  5
518
330
D
100
AcDbEntity
 67
     1
  8
LOGO
 62
     5
100
AcDbTrace
 10
17.07963117872157
 20
35.32135185765409
 30
0.0
 11
17.61629330073629
 21
35.32135185765409
 31
0.0
 12
19.12757560676937
 22
38.00466246772433
 32
0.0
 13
19.66423772878238
 23
38.00466246772433
 33
0.0
  0
SOLID
  5
519
330
D
100
AcDbEntity
 67
     1
  8
LOGO
 62
     5
100
AcDbTrace
 10
19.12757560676937
 20
38.00466246772433
 30
0.0
 11
19.66423772878238
 21
38.00466246772433
 31
0.0
 12
19.12757560676937
 22
35.32135185765409
 32
0.0
 13
19.66423772878238
 23
35.32135185765409
 33
0.0
  0
SOLID
  5
51A
330
D
100
AcDbEntity
 67
     1
  8
LOGO
 62
     5
100
AcDbTrace
 10
19.12757560676937
 20
35.32135185765409
 30
0.0
 11
19.66423772878238
 21
35.32135185765409
 31
0.0
 12
21.17552003481796
 22
38.00466246772433
 32
0.0
 13
21.71218215683183
 23
38.00466246772433
 33
0.0
  0
SOLID
  5
51B
330
D
100
AcDbEntity
 67
     1
  8
LOGO
 62
     5
100
AcDbTrace
 10
21.17552003481796
 20
38.00466246772433
 30
0.0
 11
21.71218215683183
 21
38.00466246772433
 31
0.0
 12
21.17552003481796
 22
35.32135185765409
 32
0.0
 13
21.71218215683183
 23
35.32135185765409
 33
0.0
  0
POLYLINE
  5
51C
330
D
100
AcDbEntity
 67
     1
  8
LOGO
 62
     5
100
AcDb2dPolyline
 66
     1
 10
0.0
 20
0.0
 30
0.0
 40
0.5375221574660632
 41
0.5375221574660632
  0
VERTEX
  5
51D
330
51C
100
AcDbEntity
 67
     1
  8
LOGO
 62
     5
100
AcDbVertex
100
AcDb2dVertex
 10
39.16425154847502
 20
36.9313382236962
 30
0.0
 42
1.0
  0
VERTEX
  5
51E
330
51C
100
AcDbEntity
 67
     1
  8
LOGO
 62
     5
100
AcDbVertex
100
AcDb2dVertex
 10
37.55168507607641
 20
36.9313382236962
 30
0.0
 42
1.0
  0
SEQEND
  5
51F
330
51C
100
AcDbEntity
 67
     1
  8
LOGO
 62
     5
  0
POLYLINE
  5
520
330
D
100
AcDbEntity
 67
     1
  8
LOGO
 62
     5
100
AcDb2dPolyline
 66
     1
 10
0.0
 20
0.0
 30
0.0
 70
     1
  0
VERTEX
  5
521
330
520
100
AcDbEntity
 67
     1
  8
LOGO
 62
     5
100
AcDbVertex
100
AcDb2dVertex
 10
34.51192554864827
 20
36.66300716268878
 30
0.0
 42
1.000000057330635
  0
VERTEX
  5
522
330
520
100
AcDbEntity
 67
     1
  8
LOGO
 62
     5
100
AcDbVertex
100
AcDb2dVertex
 10
36.12191191469071
 20
36.66300716268878
 30
0.0
 42
1.000000057330635
  0
SEQEND
  5
523
330
520
100
AcDbEntity
 67
     1
  8
LOGO
 62
     5
  0
CIRCLE
  5
524
330
D
100
AcDbEntity
 67
     1
  8
LOGO
 62
     5
100
AcDbCircle
 10
35.31691873167074
 20
36.66300716268878
 30
0.0
 40
0.8049931830211765
  0
POLYLINE
  5
525
330
D
100
AcDbEntity
 67
     1
  8
LOGO
 62
     5
100
AcDb2dPolyline
 66
     1
 10
0.0
 20
0.0
 30
0.0
 70
     1
 40
0.5375221574660632
 41
0.5375221574660632
  0
VERTEX
  5
526
330
525
100
AcDbEntity
 67
     1
  8
LOGO
 62
     5
100
AcDbVertex
100
AcDb2dVertex
 10
34.2418744167378
 20
36.66300716268878
 30
0.0
 42
1.0
  0
VERTEX
  5
527
330
525
100
AcDbEntity
 67
     1
  8
LOGO
 62
     5
100
AcDbVertex
100
AcDb2dVertex
 10
36.39196304660198
 20
36.66300716268878
 30
0.0
 42
1.0
  0
SEQEND
  5
528
330
525
100
AcDbEntity
 67
     1
  8
LOGO
 62
     5
  0
LINE
  5
529
330
D
100
AcDbEntity
 67
     1
  8
LOGO
100
AcDbLine
 10
39.4312925563031
 20
35.32135185765409
 30
0.0
 11
39.4312925563031
 21
36.9313382236962
 31
0.0
  0
SOLID
  5
52A
330
D
100
AcDbEntity
 67
     1
  8
LOGO
 62
     5
100
AcDbTrace
 10
36.12185824848092
 20
38.00466246772433
 30
0.0
 11
36.65852037049399
 21
38.00466246772433
 31
0.0
 12
36.12185824848092
 22
35.32135185765409
 32
0.0
 13
36.65852037049399
 23
35.32135185765409
 33
0.0
  0
SOLID
  5
52B
330
D
100
AcDbEntity
 67
     1
  8
LOGO
 62
     5
100
AcDbTrace
 10
37.28464406824674
 20
35.32135185765409
 30
0.0
 11
37.82130619026145
 21
35.32135185765409
 31
0.0
 12
37.28464406824674
 22
38.00466246772433
 32
0.0
 13
37.82130619026145
 23
38.00466246772433
 33
0.0
  0
SOLID
  5
52C
330
D
100
AcDbEntity
 67
     1
  8
LOGO
 62
     5
100
AcDbTrace
 10
38.89463043429003
 20
36.9313382236962
 30
0.0
 11
39.4312925563031
 21
36.9313382236962
 31
0.0
 12
38.89463043429003
 22
35.32135185765409
 32
0.0
 13
39.4312925563031
 23
35.32135185765409
 33
0.0
  0
SOLID
  5
52D
330
D
100
AcDbEntity
 67
     1
  8
LOGO
 62
     5
100
AcDbTrace
 10
37.23097785604523
 20
54.2655247647518
 30
0.0
 11
35.67465770220514
 21
48.55901753400164
 31
0.0
 12
37.23097785604523
 22
40.68797307779457
 32
0.0
 13
35.67465770220514
 23
40.68797307779457
 33
0.0
  0
SOLID
  5
52E
330
D
100
AcDbEntity
 67
     1
  8
LOGO
 62
     5
100
AcDbTrace
 10
37.87497240246302
 20
40.68797307779457
 30
0.0
 11
39.4312925563031
 21
40.68797307779457
 31
0.0
 12
37.87497240246302
 22
55.44618143318266
 32
0.0
 13
39.4312925563031
 23
55.44618143318351
 33
0.0
  0
SOLID
  5
52F
330
D
100
AcDbEntity
 67
     1
  8
LOGO
 62
     2
100
AcDbTrace
 10
37.23097785604523
 20
55.44618143318351
 30
0.0
 11
37.87497240246302
 21
55.44618143318266
 31
0.0
 12
37.23097785604523
 22
40.68797307779457
 32
0.0
 13
37.87497240246302
 23
40.68797307779457
 33
0.0
  0
POLYLINE
  5
530
330
D
100
AcDbEntity
 67
     1
  8
LOGO
 62
     5
100
AcDb2dPolyline
 66
     1
 10
0.0
 20
0.0
 30
0.0
 40
0.5375221574660632
 41
0.5375221574660632
  0
VERTEX
  5
531
330
530
100
AcDbEntity
 67
     1
  8
LOGO
 62
     5
100
AcDbVertex
100
AcDb2dVertex
 10
31.47205868879792
 20
36.9313382236962
 30
0.0
 42
1.0
  0
VERTEX
  5
532
330
530
100
AcDbEntity
 67
     1
  8
LOGO
 62
     5
100
AcDbVertex
100
AcDb2dVertex
 10
29.85949221639947
 20
36.9313382236962
 30
0.0
 42
1.0
  0
SEQEND
  5
533
330
530
100
AcDbEntity
 67
     1
  8
LOGO
 62
     5
  0
POLYLINE
  5
534
330
D
100
AcDbEntity
 67
     1
  8
LOGO
 62
     5
100
AcDb2dPolyline
 66
     1
 10
0.0
 20
0.0
 30
0.0
 40
0.5375221574660632
 41
0.5375221574660632
  0
VERTEX
  5
535
330
534
100
AcDbEntity
 67
     1
  8
LOGO
 62
     5
100
AcDbVertex
100
AcDb2dVertex
 10
33.08204505483877
 20
36.9313382236962
 30
0.0
 42
1.0
  0
VERTEX
  5
536
330
534
100
AcDbEntity
 67
     1
  8
LOGO
 62
     5
100
AcDbVertex
100
AcDb2dVertex
 10
31.46947858244107
 20
36.9313382236962
 30
0.0
 42
1.0
  0
SEQEND
  5
537
330
534
100
AcDbEntity
 67
     1
  8
LOGO
 62
     5
  0
POLYLINE
  5
538
330
D
100
AcDbEntity
 67
     1
  8
LOGO
 62
     5
100
AcDb2dPolyline
 66
     1
 10
0.0
 20
0.0
 30
0.0
 40
0.5375221574660632
 41
0.5375221574660632
  0
VERTEX
  5
539
330
538
100
AcDbEntity
 67
     1
  8
LOGO
 62
     5
100
AcDbVertex
100
AcDb2dVertex
 10
25.38985219516178
 20
36.9313382236962
 30
0.0
 42
1.0
  0
VERTEX
  5
53A
330
538
100
AcDbEntity
 67
     1
  8
LOGO
 62
     5
100
AcDbVertex
100
AcDb2dVertex
 10
23.77728572276408
 20
36.9313382236962
 30
0.0
 42
1.0
  0
SEQEND
  5
53B
330
538
100
AcDbEntity
 67
     1
  8
LOGO
 62
     5
  0
SOLID
  5
53C
330
D
100
AcDbEntity
 67
     1
  8
LOGO
 62
     5
100
AcDbTrace
 10
23.5102447149352
 20
38.00466246772433
 30
0.0
 11
24.04690683694821
 21
38.00466246772433
 31
0.0
 12
23.5102447149352
 22
35.32135185765409
 32
0.0
 13
24.04690683694821
 23
35.32135185765409
 33
0.0
  0
SOLID
  5
53D
330
D
100
AcDbEntity
 67
     1
  8
LOGO
 62
     5
100
AcDbTrace
 10
25.12023108097765
 20
36.9313382236962
 30
0.0
 11
25.65689320299225
 21
36.9313382236962
 31
0.0
 12
25.12023108097765
 22
35.32135185765409
 32
0.0
 13
25.65689320299225
 23
35.32135185765409
 33
0.0
  0
POLYLINE
  5
53E
330
D
100
AcDbEntity
 67
     1
  8
LOGO
 62
     5
100
AcDb2dPolyline
 66
     1
 10
0.0
 20
0.0
 30
0.0
 70
     1
 40
0.5375221574660632
 41
0.5375221574660632
  0
VERTEX
  5
53F
330
53E
100
AcDbEntity
 67
     1
  8
LOGO
 62
     5
100
AcDbVertex
100
AcDb2dVertex
 10
26.54968155706001
 20
36.66300716268878
 30
0.0
 42
1.0
  0
VERTEX
  5
540
330
53E
100
AcDbEntity
 67
     1
  8
LOGO
 62
     5
100
AcDbVertex
100
AcDb2dVertex
 10
28.69977018692498
 20
36.66300716268878
 30
0.0
 42
1.0
  0
SEQEND
  5
541
330
53E
100
AcDbEntity
 67
     1
  8
LOGO
 62
     5
  0
SOLID
  5
542
330
D
100
AcDbEntity
 67
     1
  8
LOGO
 62
     5
100
AcDbTrace
 10
28.42966538880228
 20
38.80965565074598
 30
0.0
 11
28.96632751081614
 21
38.80965565074598
 31
0.0
 12
28.42966538880228
 22
35.32135185765409
 32
0.0
 13
28.96632751081614
 23
35.32135185765409
 33
0.0
  0
SOLID
  5
543
330
D
100
AcDbEntity
 67
     1
  8
LOGO
 62
     5
100
AcDbTrace
 10
29.59245120857139
 20
38.00466246772433
 30
0.0
 11
30.12911333058446
 21
38.00466246772433
 31
0.0
 12
29.59245120857139
 22
35.32135185765409
 32
0.0
 13
30.12911333058446
 23
35.32135185765409
 33
0.0
  0
SOLID
  5
544
330
D
100
AcDbEntity
 67
     1
  8
LOGO
 62
     5
100
AcDbTrace
 10
31.20243757461219
 20
36.9313382236962
 30
0.0
 11
31.73909969662691
 21
36.9313382236962
 31
0.0
 12
31.20243757461219
 22
35.32135185765409
 32
0.0
 13
31.73909969662691
 23
35.32135185765409
 33
0.0
  0
SOLID
  5
545
330
D
100
AcDbEntity
 67
     1
  8
LOGO
 62
     5
100
AcDbTrace
 10
32.81242394065464
 20
36.9313382236962
 30
0.0
 11
33.34908606266845
 21
36.9313382236962
 31
0.0
 12
32.81242394065464
 22
35.32135185765333
 32
0.0
 13
33.34908606266845
 23
35.32135185765333
 33
0.0
  0
SOLID
  5
546
330
D
100
AcDbEntity
 67
     1
  8
LOGO
 62
     5
100
AcDbTrace
 10
22.34745889516688
 20
38.38032595313439
 30
0.0
 11
22.8841210171824
 21
38.38032595313439
 31
0.0
 12
22.34745889516688
 22
38.80965565074598
 32
0.0
 13
22.8841210171824
 23
38.80965565074598
 33
0.0
  0
SOLID
  5
547
330
D
100
AcDbEntity
 67
     1
  8
LOGO
 62
     5
100
AcDbTrace
 10
22.34745889516688
 20
38.00466246772433
 30
0.0
 11
22.8841210171824
 21
38.00466246772433
 31
0.0
 12
22.34745889516688
 22
35.32135185765333
 32
0.0
 13
22.8841210171824
 23
35.32135185765409
 33
0.0
  0
SOLID
  5
548
330
D
100
AcDbEntity
 67
     1
  8
LOGO
 62
     5
100
AcDbTrace
 10
27.62472587199204
 20
40.6879730777949
 30
0.0
 11
29.18104602583378
 21
40.6879730777949
 31
0.0
 12
27.62472587199204
 22
48.55901753400164
 32
0.0
 13
29.18104602583378
 23
54.2655247647518
 33
0.0
  0
SOLID
  5
549
330
D
100
AcDbEntity
 67
     1
  8
LOGO
 62
     5
100
AcDbTrace
 10
29.82504057225151
 20
55.44618143318266
 30
0.0
 11
31.38136072609166
 21
55.44618143318351
 31
0.0
 12
29.82504057225151
 22
41.86862974622576
 32
0.0
 13
31.38136072609166
 23
47.57513697697601
 33
0.0
  0
SOLID
  5
54A
330
D
100
AcDbEntity
 67
     1
  8
LOGO
 62
     2
100
AcDbTrace
 10
29.18104602583378
 20
55.44618143318266
 30
0.0
 11
29.82504057225151
 21
55.44618143318266
 31
0.0
 12
29.18104602583378
 22
40.6879730777949
 32
0.0
 13
29.82504057225151
 23
40.6879730777949
 33
0.0
  0
SOLID
  5
54B
330
D
100
AcDbEntity
 67
     1
  8
LOGO
 62
     5
100
AcDbTrace
 10
29.82504057225151
 20
41.86862974622576
 30
0.0
 11
31.38136072609166
 21
47.57513697697601
 31
0.0
 12
37.23097785604523
 22
55.44618143318351
 32
0.0
 13
35.67465770220514
 23
55.44618143318351
 33
0.0
  0
SOLID
  5
54C
330
D
100
AcDbEntity
 67
     1
  8
LOGO
 62
     5
100
AcDbTrace
 10
29.82504057225151
 20
40.6879730777949
 30
0.0
 11
31.38136072609166
 21
40.6879730777949
 31
0.0
 12
37.23097785604523
 22
54.2655247647518
 32
0.0
 13
35.67465770220514
 23
48.55901753400164
 33
0.0
  0
SOLID
  5
54D
330
D
100
AcDbEntity
 67
     1
  8
LOGO
 62
     2
100
AcDbTrace
 10
29.18104602583378
 20
40.6879730777949
 30
0.0
 11
29.82504057225151
 21
40.6879730777949
 31
0.0
 12
37.23097785604523
 22
55.44618143318351
 32
0.0
 13
37.87497240246302
 23
55.44618143318266
 33
0.0
  0
LWPOLYLINE
  5
54E
330
D
100
AcDbEntity
 67
     1
  8
LOGO
 62
     4
100
AcDbPolyline
 90
        4
 70
     1
 43
0.0
 10
15.84027708902067
 20
56.30122442777255
 10
266.5674180929635
 20
56.30122442777255
 10
266.5674180929635
 20
20.30643709745524
 10
15.84027708902067
 20
20.30643709745524
1001
GENIUS_GENREC_14
1002
{
1000
PYDIR
1011
15.84027708902067
1021
20.30643709745524
1031
0.0
1002
}
1002
{
1000
PXDIR
1011
266.5674180929635
1021
56.30122442777255
1031
0.0
1002
}
1002
{
1000
PORI
1011
15.84027708902067
1021
56.30122442777255
1031
0.0
1002
}
1002
{
1000
PINS
1011
15.84027708902067
1021
56.30122442777255
1031
0.0
1002
}
1002
{
1000
PINS2
1011
266.5674180929635
1021
20.30643709745524
1031
0.0
1002
}
1002
{
1000
C
1070
     1
1002
}
1001
GENIUS_GENOBJ-N-REC_13
1002
{
1000
OWNER
1000
GEN
1002
}
1001
GENIUS_GENODEF_13
1002
{
1000
HIER
1070
     0
1002
}
1002
{
1000
MANEDIT
1070
     0
1002
}
1002
{
1000
NOSEL
1070
     0
1002
}
1002
{
1000
BEHIND
1070
     0
1002
}
1002
{
1000
OTHER
1070
     0
1002
}
1002
{
1000
REACTOR
1002
}
  0
LINE
  5
54F
330
D
100
AcDbEntity
 67
     1
  8
LOGO
 62
     4
100
AcDbLine
 10
178.0780298116438
 20
36.5040913960988
 30
0.0
 11
178.0780298116438
 21
23.30600270831525
 31
0.0
  0
LINE
  5
550
330
D
100
AcDbEntity
 67
     1
  8
LOGO
 62
     4
100
AcDbLine
 10
154.0815049247658
 20
36.5040913960988
 30
0.0
 11
154.0815049247658
 21
23.30600270831525
 31
0.0
  0
LINE
  5
551
330
D
100
AcDbEntity
 67
     1
  8
LOGO
 62
     4
100
AcDbLine
 10
178.0780298116438
 20
23.30600270831525
 30
0.0
 11
154.0815049247658
 21
23.30600270831525
 31
0.0
  0
LINE
  5
552
330
D
100
AcDbEntity
 67
     1
  8
LOGO
 62
     4
100
AcDbLine
 10
184.0487625605712
 20
52.70174569474065
 30
0.0
 11
144.5380416588077
 21
52.70174569474065
 31
0.0
  0
LINE
  5
553
330
D
100
AcDbEntity
 67
     1
  8
LOGO
 62
     4
100
AcDbLine
 10
184.0487625605712
 20
41.9033094956458
 30
0.0
 11
144.5380416588077
 21
41.9033094956458
 31
0.0
  0
LINE
  5
554
330
D
100
AcDbEntity
 67
     1
  8
LOGO
 62
     4
100
AcDbLine
 10
144.5380416588077
 20
52.70174569474065
 30
0.0
 11
144.5380416588077
 21
41.9033094956458
 31
0.0
  0
LINE
  5
555
330
D
100
AcDbEntity
 67
     1
  8
LOGO
 62
     4
100
AcDbLine
 10
184.0487625605712
 20
52.70174569474065
 30
0.0
 11
184.0487625605712
 21
41.9033094956458
 31
0.0
  0
LINE
  5
556
330
D
100
AcDbEntity
 67
     1
  8
LOGO
 62
     4
100
AcDbLine
 10
167.3317832490305
 20
41.9033094956458
 30
0.0
 11
167.3317832490305
 21
36.5040913960988
 31
0.0
  0
TEXT
  5
557
330
D
100
AcDbEntity
 67
     1
  8
LOGO
  6
Continuous
 62
     7
100
AcDbText
 10
146.4567546527117
 20
44.15746726489473
 30
0.0
 40
6.3
  1
MAL300
  7
CHINESET
100
AcDbText
  0
LINE
  5
558
330
D
100
AcDbEntity
 67
     1
  8
LOGO
 62
     4
100
AcDbLine
 10
178.0780298116438
 20
36.5040913960988
 30
0.0
 11
154.0815049247658
 21
36.5040913960988
 31
0.0
  0
TEXT
  5
559
330
D
100
AcDbEntity
 67
     1
  8
LOGO
  6
Continuous
100
AcDbText
 10
161.7819137891233
 20
25.16888493939865
 30
235.9039063680897
 40
2.699999999999999
  1
Model
 41
0.8
  7
CHINESET
100
AcDbText
  0
TEXT
  5
55A
330
D
100
AcDbEntity
 67
     1
  8
LOGO
100
AcDbText
 10
161.063261560725
 20
30.17410304786793
 30
235.9039063680897
 40
4.5
  1
型號
  7
CHINESET
100
AcDbText
  0
LINE
  5
55B
330
D
100
AcDbEntity
 67
     1
  8
LOGO
  6
Continuous
 62
     7
100
AcDbLine
 10
186.5401128863431
 20
47.26427782761996
 30
0.0
 11
191.3083082944341
 21
47.26427782761996
 31
0.0
  0
LINE
  5
55C
330
D
100
AcDbEntity
 67
     1
  8
LOGO
 62
     4
100
AcDbLine
 10
217.445767083675
 20
36.5040913960988
 30
0.0
 11
217.445767083675
 21
23.30600270831525
 31
0.0
  0
LINE
  5
55D
330
D
100
AcDbEntity
 67
     1
  8
LOGO
 62
     4
100
AcDbLine
 10
185.5838061452426
 20
36.5040913960988
 30
0.0
 11
185.5838061452426
 21
23.30600270831525
 31
0.0
  0
LINE
  5
55E
330
D
100
AcDbEntity
 67
     1
  8
LOGO
 62
     4
100
AcDbLine
 10
217.445767083675
 20
23.30600270831525
 30
0.0
 11
185.5838061452426
 21
23.30600270831525
 31
0.0
  0
LINE
  5
55F
330
D
100
AcDbEntity
 67
     1
  8
LOGO
 62
     4
100
AcDbLine
 10
211.264212849011
 20
52.70174569474065
 30
0.0
 11
192.8124225991072
 21
52.70174569474065
 31
0.0
  0
LINE
  5
560
330
D
100
AcDbEntity
 67
     1
  8
LOGO
 62
     4
100
AcDbLine
 10
211.264212849011
 20
41.9033094956458
 30
0.0
 11
192.8124225991072
 21
41.9033094956458
 31
0.0
  0
LINE
  5
561
330
D
100
AcDbEntity
 67
     1
  8
LOGO
 62
     4
100
AcDbLine
 10
192.8124225991072
 20
52.70174569474065
 30
0.0
 11
192.8124225991072
 21
41.9033094956458
 31
0.0
  0
LINE
  5
562
330
D
100
AcDbEntity
 67
     1
  8
LOGO
 62
     4
100
AcDbLine
 10
211.264212849011
 20
52.70174569474065
 30
0.0
 11
211.264212849011
 21
41.9033094956458
 31
0.0
  0
LINE
  5
563
330
D
100
AcDbEntity
 67
     1
  8
LOGO
 62
     4
100
AcDbLine
 10
201.1090610096829
 20
41.9033094956458
 30
0.0
 11
201.1090610096829
 21
36.5040913960988
 31
0.0
  0
TEXT
  5
564
330
D
100
AcDbEntity
 67
     1
  8
LOGO
  6
Continuous
 62
     7
100
AcDbText
 10
197.5504810507882
 20
44.15746726489473
 30
0.0
 40
6.3
  1
*A
  7
CHINESET
100
AcDbText
  0
LINE
  5
565
330
D
100
AcDbEntity
 67
     1
  8
LOGO
 62
     4
100
AcDbLine
 10
217.445767083675
 20
36.5040913960988
 30
0.0
 11
185.5838061452426
 21
36.5040913960988
 31
0.0
  0
TEXT
  5
566
330
D
100
AcDbEntity
 67
     1
  8
LOGO
  6
Continuous
100
AcDbText
 10
193.9144542426879
 20
25.16888493939865
 30
235.9039063680897
 40
2.699999999999999
  1
Bore size
 41
0.8
  7
CHINESET
100
AcDbText
  0
TEXT
  5
567
330
D
100
AcDbEntity
 67
     1
  8
LOGO
100
AcDbText
 10
187.9516027083488
 20
30.17410304786793
 30
235.9039063680897
 40
4.5
  1
配管口徑代號
  7
CHINESET
100
AcDbText
  0
TEXT
  5
568
330
D
100
AcDbEntity
 67
     1
  8
LOGO
100
AcDbText
 10
96.69657327994549
 20
22.22134557651407
 30
0.0
 40
3.599999999999999
  1
01007190
 41
0.7
  7
CHINESET
 72
     1
 11
105.4565732799454
 21
22.22134557651407
 31
0.0
100
AcDbText
  0
LINE
  5
569
330
D
100
AcDbEntity
 67
     1
  8
LOGO
 62
     4
100
AcDbLine
 10
116.6288092157159
 20
27.50539456351982
 30
0.0
 11
116.6288092157175
 21
20.30643709745601
 31
0.0
  0
LINE
  5
56A
330
D
100
AcDbEntity
 67
     1
  8
LOGO
 62
     4
100
AcDbLine
 10
116.6288092157159
 20
27.50539456351982
 30
0.0
 11
95.02880921571749
 21
27.50539456351982
 31
0.0
  0
CIRCLE
  5
56B
330
D
100
AcDbEntity
 67
     1
  8
LOGO
  6
Continuous
100
AcDbCircle
 10
77.69716941873048
 20
45.51048754002792
 30
0.0
 40
2.089942074577136
  0
CIRCLE
  5
56C
330
D
100
AcDbEntity
 67
     1
  8
LOGO
  6
Continuous
100
AcDbCircle
 10
77.69716941873048
 20
45.51048754002792
 30
0.0
 40
1.224521043598074
  0
LINE
  5
56D
330
D
100
AcDbEntity
 67
     1
  8
LOGO
100
AcDbLine
 10
90.83060792199637
 20
43.42054546545031
 30
0.0
 11
90.83060792199637
 21
47.60042961460544
 31
0.0
  0
LINE
  5
56E
330
D
100
AcDbEntity
 67
     1
  8
LOGO
100
AcDbLine
 10
84.27875948659664
 20
44.28596649643006
 30
0.0
 11
84.27875948659664
 21
46.73500858362612
 31
0.0
  0
LINE
  5
56F
330
D
100
AcDbEntity
 67
     1
  8
LOGO
  6
Continuous
100
AcDbLine
 10
84.27875948659664
 20
46.73500858362612
 30
0.0
 11
90.83060792199637
 21
47.60042961460544
 31
0.0
  0
LINE
  5
570
330
D
100
AcDbEntity
 67
     1
  8
LOGO
  6
Continuous
100
AcDbLine
 10
84.27875948659664
 20
44.28596649643006
 30
0.0
 11
90.83060792199637
 21
43.42054546545031
 31
0.0
  0
LINE
  5
571
330
D
100
AcDbEntity
 67
     1
  8
LOGO
  6
AM_ISO08W050x2
 48
0.3
100
AcDbLine
 10
74.81615297450765
 20
45.51048754002792
 30
0.0
 11
80.57818586295343
 21
45.51048754002792
 31
0.0
1001
GENIUS_GENOREF_13
1005
585
  0
LINE
  5
572
330
D
100
AcDbEntity
 67
     1
  8
LOGO
  6
AM_ISO08W050x2
 48
0.3
100
AcDbLine
 10
77.69716941873048
 20
42.62947109580503
 30
0.0
 11
77.69716941873048
 21
48.39150398425073
 31
0.0
1001
GENIUS_GENOREF_13
1005
584
  0
LINE
  5
573
330
D
100
AcDbEntity
 67
     1
  8
LOGO
  6
CENTER
 48
0.5
100
AcDbLine
 10
83.75479371953986
 20
45.51048754002792
 30
0.0
 11
91.49035785001421
 21
45.51048754002792
 31
0.0
1001
GENIUS_GENOREF_13
1005
583
  0
POINT
  5
583
330
D
100
AcDbEntity
 67
     1
  8
0
 60
     1
100
AcDbPoint
 10
-1043.38101625764
 20
-1028.036795801541
 30
0.0
1001
GENIUS_GENOBJ-N-CRS_13
1002
{
1000
OWNER
1000
GEN
1002
}
1001
GENIUS_GENOLIS_13
1002
{
1000
ENT
1005
0
1005
0
1005
0
1005
573
1002
}
1001
GENIUS_GENOENT_13
1002
{
1000
MYREF
1005
583
1002
}
1002
{
1000
GRP
1005
0
1002
}
1001
GENIUS_GENODEF_13
1002
{
1000
HIER
1070
    10
1002
}
1002
{
1000
MANEDIT
1070
     1
1002
}
1002
{
1000
NOSEL
1070
     0
1002
}
1002
{
1000
BEHIND
1070
     0
1002
}
1002
{
1000
OTHER
1070
     0
1002
}
1002
{
1000
REACTOR
1002
}
  0
POINT
  5
584
330
D
100
AcDbEntity
 67
     1
  8
0
 60
     1
100
AcDbPoint
 10
-1054.705601480495
 20
-1019.161209322905
 30
0.0
1001
GENIUS_GENOBJ-N-CRS_13
1002
{
1000
OWNER
1000
GEN
1002
}
1001
GENIUS_GENOLIS_13
1002
{
1000
ENT
1005
0
1005
0
1005
0
1005
572
1002
}
1001
GENIUS_GENOENT_13
1002
{
1000
MYREF
1005
584
1002
}
1002
{
1000
GRP
1005
0
1002
}
1001
GENIUS_GENODEF_13
1002
{
1000
HIER
1070
    10
1002
}
1002
{
1000
MANEDIT
1070
     1
1002
}
1002
{
1000
NOSEL
1070
     0
1002
}
1002
{
1000
BEHIND
1070
     0
1002
}
1002
{
1000
OTHER
1070
     0
1002
}
1002
{
1000
REACTOR
1002
}
  0
POINT
  5
585
330
D
100
AcDbEntity
 67
     1
  8
0
 60
     1
100
AcDbPoint
 10
-1048.346927782658
 20
-1028.036795801541
 30
0.0
1001
GENIUS_GENOBJ-N-CRS_13
1002
{
1000
OWNER
1000
GEN
1002
}
1001
GENIUS_GENOLIS_13
1002
{
1000
ENT
1005
0
1005
0
1005
0
1005
571
1002
}
1001
GENIUS_GENOENT_13
1002
{
1000
MYREF
1005
585
1002
}
1002
{
1000
GRP
1005
0
1002
}
1001
GENIUS_GENODEF_13
1002
{
1000
HIER
1070
    10
1002
}
1002
{
1000
MANEDIT
1070
     1
1002
}
1002
{
1000
NOSEL
1070
     0
1002
}
1002
{
1000
BEHIND
1070
     0
1002
}
1002
{
1000
OTHER
1070
     0
1002
}
1002
{
1000
REACTOR
1002
}
  0
LINE
  5
C3A
330
D
100
AcDbEntity
 67
     1
  8
AM_7
100
AcDbLine
 10
98.95049882089779
 20
260.2021345315216
 30
0.0
 11
98.95049882089779
 21
266.3021345315216
 31
0.0
  0
LINE
  5
C3B
330
D
100
AcDbEntity
 67
     1
  8
AM_7
100
AcDbLine
 10
97.95049882089779
 20
238.6021345315216
 30
0.0
 11
97.95049882089779
 21
266.3021345315216
 31
0.0
  0
LINE
  5
C3C
330
D
100
AcDbEntity
 67
     1
  8
AM_7
100
AcDbLine
 10
88.95049882047818
 20
198.8021345315215
 30
0.0
 11
88.95049882047818
 21
98.30213453152161
 31
0.0
  0
LINE
  5
C3D
330
D
100
AcDbEntity
 67
     1
  8
AM_7
100
AcDbLine
 10
88.95049882047818
 20
123.8021345315216
 30
0.0
 11
88.95049882047818
 21
123.8021345315216
 31
0.0
  0
LINE
  5
C3E
330
D
100
AcDbEntity
 67
     1
  8
AM_7
100
AcDbLine
 10
88.95049882047818
 20
123.8021345315216
 30
0.0
 11
88.95049882047818
 21
123.8021345315216
 31
0.0
  0
LINE
  5
C3F
330
D
100
AcDbEntity
 67
     1
  8
AM_7
100
AcDbLine
 10
85.95049882089767
 20
233.3021345315215
 30
0.0
 11
85.95049882089767
 21
246.3021345315215
 31
0.0
  0
LINE
  5
C40
330
D
100
AcDbEntity
 67
     1
  8
AM_7
100
AcDbLine
 10
97.95049882089779
 20
233.3021345315215
 30
0.0
 11
97.95049882089779
 21
241.3021345315215
 31
0.0
  0
LINE
  5
C41
330
D
100
AcDbEntity
 67
     1
  8
AM_7
100
AcDbLine
 10
192.61106857792
 20
260.2021345315216
 30
0.0
 11
192.61106857792
 21
266.3021345315216
 31
0.0
  0
LINE
  5
C42
330
D
100
AcDbEntity
 67
     1
  8
AM_7
100
AcDbLine
 10
191.61106857792
 20
238.6021345315215
 30
0.0
 11
191.61106857792
 21
266.2021345315216
 31
0.0
  0
LINE
  5
C43
330
D
100
AcDbEntity
 67
     1
  8
AM_7
100
AcDbLine
 10
190.6057786299365
 20
214.0583465924552
 30
0.0
 11
190.6135491876229
 21
224.5521349565073
 31
0.0
  0
LINE
  5
C44
330
D
100
AcDbEntity
 67
     1
  8
AM_7
100
AcDbLine
 10
190.6110685861009
 20
198.8021345315215
 30
0.0
 11
190.6110685861009
 21
98.30213453152161
 31
0.0
  0
LINE
  5
C45
330
D
100
AcDbEntity
 67
     1
  8
AM_7
100
AcDbLine
 10
190.6110685861009
 20
158.8021345315216
 30
0.0
 11
190.6110685861009
 21
171.8021345315215
 31
0.0
  0
LINE
  5
C46
330
D
100
AcDbEntity
 67
     1
  8
AM_7
100
AcDbLine
 10
190.6110685861009
 20
118.8021345315215
 30
0.0
 11
190.6110685861009
 21
118.8021345315215
 31
0.0
  0
LINE
  5
C47
330
D
100
AcDbEntity
 67
     1
  8
AM_7
100
AcDbLine
 10
190.6110685861009
 20
118.8021345315215
 30
0.0
 11
190.6110685861009
 21
118.8021345315215
 31
0.0
  0
LINE
  5
C48
330
D
100
AcDbEntity
 67
     1
  8
AM_7
100
AcDbLine
 10
178.6110685779201
 20
233.3021345315215
 30
0.0
 11
178.6110685779201
 21
246.3021345315215
 31
0.0
  0
LINE
  5
C49
330
D
100
AcDbEntity
 67
     1
  8
AM_7
100
AcDbLine
 10
191.61106857792
 20
233.3021345315215
 30
0.0
 11
191.61106857792
 21
241.3021345315215
 31
0.0
  0
LINE
  5
C4A
330
D
100
AcDbEntity
 67
     1
  8
AM_7
100
AcDbLine
 10
176.5110685861008
 20
216.3021345315215
 30
0.0
 11
190.6110685861008
 21
216.3021345315215
 31
0.0
  0
LINE
  5
C4B
102
{ACAD_REACTORS
330
F5A
102
}
330
D
100
AcDbEntity
 67
     1
  8
AM_7
100
AcDbLine
 10
190.6110685861008
 20
216.3021345315215
 30
0.0
 11
204.7110685861008
 21
216.3021345315215
 31
0.0
  0
LINE
  5
C4C
330
D
100
AcDbEntity
 67
     1
  8
AM_7
100
AcDbLine
 10
190.6110685861008
 20
202.2021345315216
 30
0.0
 11
190.6110685861008
 21
216.3021345315215
 31
0.0
  0
LINE
  5
C4D
330
D
100
AcDbEntity
 67
     1
  8
AM_7
100
AcDbLine
 10
190.6110685861008
 20
216.3021345315215
 30
0.0
 11
190.6110685861008
 21
230.4021345315216
 31
0.0
  0
LINE
  5
C4E
330
D
100
AcDbEntity
 67
     1
  8
AM_7
100
AcDbLine
 10
98.95049882089779
 20
323.0943497739945
 30
0.0
 11
98.95049882089779
 21
323.0943497739945
 31
0.0
  0
LINE
  5
C4F
330
D
100
AcDbEntity
 67
     1
  8
AM_7
100
AcDbLine
 10
98.95049882089779
 20
323.0943497739945
 30
0.0
 11
98.95049882089779
 21
323.0943497739945
 31
0.0
  0
LINE
  5
C50
330
D
100
AcDbEntity
 67
     1
  8
AM_7
100
AcDbLine
 10
92.95049882089779
 20
323.0943497739945
 30
0.0
 11
98.95049882089779
 21
323.0943497739945
 31
0.0
  0
LINE
  5
C51
330
D
100
AcDbEntity
 67
     1
  8
AM_7
100
AcDbLine
 10
98.95049882089779
 20
323.0943497739945
 30
0.0
 11
104.9504988208978
 21
323.0943497739945
 31
0.0
  0
LINE
  5
C52
330
D
100
AcDbEntity
 67
     1
  8
AM_7
100
AcDbLine
 10
98.95049882089779
 20
317.0943497739945
 30
0.0
 11
98.95049882089779
 21
323.0943497739945
 31
0.0
  0
LINE
  5
C53
330
D
100
AcDbEntity
 67
     1
  8
AM_7
100
AcDbLine
 10
98.95049882089779
 20
323.0943497739945
 30
0.0
 11
98.95049882089779
 21
329.0943497739945
 31
0.0
  0
LINE
  5
C54
330
D
100
AcDbEntity
 67
     1
  8
AM_7
100
AcDbLine
 10
97.95049882089779
 20
323.0943497739945
 30
0.0
 11
97.95049882089779
 21
323.0943497739945
 31
0.0
  0
LINE
  5
C55
330
D
100
AcDbEntity
 67
     1
  8
AM_7
100
AcDbLine
 10
97.95049882089779
 20
323.0943497739945
 30
0.0
 11
97.95049882089779
 21
323.0943497739945
 31
0.0
  0
LINE
  5
C56
330
D
100
AcDbEntity
 67
     1
  8
AM_7
100
AcDbLine
 10
90.9504988208978
 20
323.0943497739945
 30
0.0
 11
97.95049882089779
 21
323.0943497739945
 31
0.0
  0
LINE
  5
C57
330
D
100
AcDbEntity
 67
     1
  8
AM_7
100
AcDbLine
 10
97.95049882089779
 20
323.0943497739945
 30
0.0
 11
104.9504988208978
 21
323.0943497739945
 31
0.0
  0
LINE
  5
C58
330
D
100
AcDbEntity
 67
     1
  8
AM_7
100
AcDbLine
 10
97.95049882089779
 20
316.0943497739945
 30
0.0
 11
97.95049882089779
 21
323.0943497739945
 31
0.0
  0
LINE
  5
C59
330
D
100
AcDbEntity
 67
     1
  8
AM_7
100
AcDbLine
 10
97.95049882089779
 20
323.0943497739945
 30
0.0
 11
97.95049882089779
 21
330.0943497739945
 31
0.0
  0
LINE
  5
C5A
330
D
100
AcDbEntity
 67
     1
  8
AM_7
100
AcDbLine
 10
85.95049882089767
 20
309.0943497739946
 30
0.0
 11
85.95049882089767
 21
309.0943497739946
 31
0.0
  0
LINE
  5
C5B
330
D
100
AcDbEntity
 67
     1
  8
AM_7
100
AcDbLine
 10
85.95049882089767
 20
309.0943497739946
 30
0.0
 11
85.95049882089767
 21
309.0943497739946
 31
0.0
  0
LINE
  5
C5C
330
D
100
AcDbEntity
 67
     1
  8
AM_7
100
AcDbLine
 10
76.95049882089768
 20
309.0943497739946
 30
0.0
 11
85.95049882089767
 21
309.0943497739946
 31
0.0
  0
LINE
  5
C5D
330
D
100
AcDbEntity
 67
     1
  8
AM_7
100
AcDbLine
 10
85.95049882089767
 20
309.0943497739946
 30
0.0
 11
94.95049882089768
 21
309.0943497739946
 31
0.0
  0
LINE
  5
C5E
330
D
100
AcDbEntity
 67
     1
  8
AM_7
100
AcDbLine
 10
85.95049882089767
 20
300.0943497739946
 30
0.0
 11
85.95049882089767
 21
309.0943497739946
 31
0.0
  0
LINE
  5
C5F
330
D
100
AcDbEntity
 67
     1
  8
AM_7
100
AcDbLine
 10
85.95049882089767
 20
309.0943497739946
 30
0.0
 11
85.95049882089767
 21
318.0943497739946
 31
0.0
  0
LINE
  5
C60
330
D
100
AcDbEntity
 67
     1
  8
AM_7
100
AcDbLine
 10
97.95049882089779
 20
322.0943497739945
 30
0.0
 11
97.95049882089779
 21
322.0943497739945
 31
0.0
  0
LINE
  5
C61
330
D
100
AcDbEntity
 67
     1
  8
AM_7
100
AcDbLine
 10
97.95049882089779
 20
322.0943497739945
 30
0.0
 11
97.95049882089779
 21
322.0943497739945
 31
0.0
  0
LINE
  5
C62
330
D
100
AcDbEntity
 67
     1
  8
AM_7
100
AcDbLine
 10
83.95049882089779
 20
322.0943497739945
 30
0.0
 11
97.95049882089779
 21
322.0943497739945
 31
0.0
  0
LINE
  5
C63
330
D
100
AcDbEntity
 67
     1
  8
AM_7
100
AcDbLine
 10
97.95049882089779
 20
322.0943497739945
 30
0.0
 11
111.9504988208978
 21
322.0943497739945
 31
0.0
  0
LINE
  5
C64
330
D
100
AcDbEntity
 67
     1
  8
AM_7
100
AcDbLine
 10
97.95049882089779
 20
308.0943497739945
 30
0.0
 11
97.95049882089779
 21
322.0943497739945
 31
0.0
  0
LINE
  5
C65
330
D
100
AcDbEntity
 67
     1
  8
AM_7
100
AcDbLine
 10
97.95049882089779
 20
322.0943497739945
 30
0.0
 11
97.95049882089779
 21
336.0943497739945
 31
0.0
  0
LINE
  5
C66
330
D
100
AcDbEntity
 67
     1
  8
AM_7
100
AcDbLine
 10
60.68735909966381
 20
321.0943497739947
 30
0.0
 11
60.68735909966381
 21
321.0943497739947
 31
0.0
  0
LINE
  5
C67
330
D
100
AcDbEntity
 67
     1
  8
AM_7
100
AcDbLine
 10
60.68735909966381
 20
321.0943497739947
 30
0.0
 11
60.68735909966381
 21
321.0943497739947
 31
0.0
  0
LINE
  5
C68
330
D
100
AcDbEntity
 67
     1
  8
AM_7
100
AcDbLine
 10
52.18735909966381
 20
321.0943497739947
 30
0.0
 11
60.68735909966381
 21
321.0943497739947
 31
0.0
  0
LINE
  5
C69
330
D
100
AcDbEntity
 67
     1
  8
AM_7
100
AcDbLine
 10
60.68735909966381
 20
321.0943497739947
 30
0.0
 11
69.18735909966381
 21
321.0943497739947
 31
0.0
  0
LINE
  5
C6A
330
D
100
AcDbEntity
 67
     1
  8
AM_7
100
AcDbLine
 10
88.95049882047818
 20
321.0943497821754
 30
0.0
 11
88.95049882047818
 21
321.0943497821754
 31
0.0
  0
LINE
  5
C6B
330
D
100
AcDbEntity
 67
     1
  8
AM_7
100
AcDbLine
 10
88.95049882047818
 20
321.0943497821754
 30
0.0
 11
88.95049882047818
 21
321.0943497821754
 31
0.0
  0
LINE
  5
C6C
330
D
100
AcDbEntity
 67
     1
  8
AM_7
100
AcDbLine
 10
56.95049882047817
 20
321.0943497821754
 30
0.0
 11
88.95049882047818
 21
321.0943497821754
 31
0.0
  0
LINE
  5
C6D
330
D
100
AcDbEntity
 67
     1
  8
AM_7
100
AcDbLine
 10
88.95049882047818
 20
321.0943497821754
 30
0.0
 11
120.9504988204781
 21
321.0943497821754
 31
0.0
  0
LINE
  5
C6E
330
D
100
AcDbEntity
 67
     1
  8
AM_7
100
AcDbLine
 10
88.95049882047818
 20
289.0943497821754
 30
0.0
 11
88.95049882047818
 21
321.0943497821754
 31
0.0
  0
LINE
  5
C6F
330
D
100
AcDbEntity
 67
     1
  8
AM_7
100
AcDbLine
 10
88.95049882047818
 20
321.0943497821754
 30
0.0
 11
88.95049882047818
 21
353.0943497821754
 31
0.0
  0
LINE
  5
C70
330
D
100
AcDbEntity
 67
     1
  8
AM_7
100
AcDbLine
 10
100.9504988204783
 20
340.0943497821754
 30
0.0
 11
100.9504988204783
 21
340.0943497821754
 31
0.0
  0
LINE
  5
C71
330
D
100
AcDbEntity
 67
     1
  8
AM_7
100
AcDbLine
 10
100.9504988204783
 20
340.0943497821754
 30
0.0
 11
100.9504988204783
 21
340.0943497821754
 31
0.0
  0
LINE
  5
C72
330
D
100
AcDbEntity
 67
     1
  8
AM_7
100
AcDbLine
 10
96.23949882047828
 20
340.0943497821754
 30
0.0
 11
100.9504988204783
 21
340.0943497821754
 31
0.0
  0
LINE
  5
C73
330
D
100
AcDbEntity
 67
     1
  8
AM_7
100
AcDbLine
 10
100.9504988204783
 20
340.0943497821754
 30
0.0
 11
105.6614988204783
 21
340.0943497821754
 31
0.0
  0
LINE
  5
C74
330
D
100
AcDbEntity
 67
     1
  8
AM_7
100
AcDbLine
 10
100.9504988204783
 20
335.3833497821754
 30
0.0
 11
100.9504988204783
 21
340.0943497821754
 31
0.0
  0
LINE
  5
C75
330
D
100
AcDbEntity
 67
     1
  8
AM_7
100
AcDbLine
 10
100.9504988204783
 20
340.0943497821754
 30
0.0
 11
100.9504988204783
 21
344.8053497821754
 31
0.0
  0
LINE
  5
C76
330
D
100
AcDbEntity
 67
     1
  8
AM_7
100
AcDbLine
 10
76.95049882047811
 20
302.0943497821755
 30
0.0
 11
76.95049882047811
 21
302.0943497821755
 31
0.0
  0
LINE
  5
C77
330
D
100
AcDbEntity
 67
     1
  8
AM_7
100
AcDbLine
 10
76.95049882047811
 20
302.0943497821755
 30
0.0
 11
76.95049882047811
 21
302.0943497821755
 31
0.0
  0
LINE
  5
C78
330
D
100
AcDbEntity
 67
     1
  8
AM_7
100
AcDbLine
 10
72.2394988204781
 20
302.0943497821755
 30
0.0
 11
76.95049882047811
 21
302.0943497821755
 31
0.0
  0
LINE
  5
C79
330
D
100
AcDbEntity
 67
     1
  8
AM_7
100
AcDbLine
 10
76.95049882047811
 20
302.0943497821755
 30
0.0
 11
81.66149882047813
 21
302.0943497821755
 31
0.0
  0
LINE
  5
C7A
330
D
100
AcDbEntity
 67
     1
  8
AM_7
100
AcDbLine
 10
76.95049882047811
 20
297.3833497821755
 30
0.0
 11
76.95049882047811
 21
302.0943497821755
 31
0.0
  0
LINE
  5
C7B
330
D
100
AcDbEntity
 67
     1
  8
AM_7
100
AcDbLine
 10
76.95049882047811
 20
302.0943497821755
 30
0.0
 11
76.95049882047811
 21
306.8053497821755
 31
0.0
  0
ARC
  5
C7C
330
D
100
AcDbEntity
 67
     1
  8
AM_4
100
AcDbCircle
 10
100.9504988204781
 20
340.0943497821754
 30
0.0
 40
2.1095
100
AcDbArc
 50
259.9999999999998
 51
190.0000000000002
  0
ARC
  5
C7D
330
D
100
AcDbEntity
 67
     1
  8
AM_4
100
AcDbCircle
 10
76.95049882047817
 20
302.0943497821754
 30
0.0
 40
2.1095
100
AcDbArc
 50
259.9999999999998
 51
190.0000000000002
  0
LINE
  5
C7E
330
D
100
AcDbEntity
 67
     1
  8
AM_VIS
100
AcDbLine
 10
101.9504988208978
 20
263.2021345315215
 30
0.0
 11
101.9504988208978
 21
263.3021345315216
 31
0.0
  0
LINE
  5
C7F
330
D
100
AcDbEntity
 67
     1
  8
AM_VIS
100
AcDbLine
 10
95.9504988208978
 20
263.2021345315215
 30
0.0
 11
95.9504988208978
 21
263.3021345315216
 31
0.0
  0
LINE
  5
C80
330
D
100
AcDbEntity
 67
     1
  8
AM_VIS
100
AcDbLine
 10
93.95049882089779
 20
263.2021345315215
 30
0.0
 11
93.95049882089779
 21
263.3021345315216
 31
0.0
  0
LINE
  5
C81
330
D
100
AcDbEntity
 67
     1
  8
AM_VIS
100
AcDbLine
 10
95.9504988208978
 20
263.3021345315216
 30
0.0
 11
93.95049882089779
 21
263.3021345315216
 31
0.0
  0
LINE
  5
C82
330
D
100
AcDbEntity
 67
     1
  8
AM_VIS
100
AcDbLine
 10
90.5644406733062
 20
262.7402543161699
 30
0.0
 11
90.5644406733062
 21
259.4402543161698
 31
0.0
  0
LINE
  5
C83
330
D
100
AcDbEntity
 67
     1
  8
AM_VIS
100
AcDbLine
 10
91.35228687571601
 20
263.2021345315215
 30
0.0
 11
90.5644406733062
 21
262.7402543161699
 31
0.0
  0
LINE
  5
C84
330
D
100
AcDbEntity
 67
     1
  8
AM_VIS
100
AcDbLine
 10
92.2051654975054
 20
262.7402543161699
 30
0.0
 11
92.2051654975054
 21
259.4402543161698
 31
0.0
  0
LINE
  5
C85
330
D
100
AcDbEntity
 67
     1
  8
AM_VIS
100
AcDbLine
 10
92.81800105200057
 20
263.2021345315215
 30
0.0
 11
92.2051654975054
 21
262.7402543161699
 31
0.0
  0
LINE
  5
C86
330
D
100
AcDbEntity
 67
     1
  8
AM_VIS
100
AcDbLine
 10
91.65455826163219
 20
263.2021345315215
 30
0.0
 11
91.65455826163219
 21
259.9021345315216
 31
0.0
  0
LINE
  5
C87
330
D
100
AcDbEntity
 67
     1
  8
AM_VIS
100
AcDbLine
 10
90.90280416500343
 20
259.4402543161698
 30
0.0
 11
90.90280416500343
 21
262.7402543161699
 31
0.0
  0
LINE
  5
C88
330
D
100
AcDbEntity
 67
     1
  8
AM_VIS
100
AcDbLine
 10
90.90280416500343
 20
262.7402543161699
 30
0.0
 11
91.65455826163213
 21
263.2021345315215
 31
0.0
  0
LINE
  5
C89
330
D
100
AcDbEntity
 67
     1
  8
AM_VIS
100
AcDbLine
 10
95.38534774595518
 20
262.7402543161699
 30
0.0
 11
95.38534774595518
 21
259.4402543161698
 31
0.0
  0
LINE
  5
C8A
330
D
100
AcDbEntity
 67
     1
  8
AM_VIS
100
AcDbLine
 10
95.65896386061575
 20
263.2021345315215
 30
0.0
 11
95.38534774595524
 21
262.7402543161699
 31
0.0
  0
LINE
  5
C8B
330
D
100
AcDbEntity
 67
     1
  8
AM_VIS
100
AcDbLine
 10
93.64382183599792
 20
263.2021345315215
 30
0.0
 11
93.64382183599792
 21
259.9021345315216
 31
0.0
  0
LINE
  5
C8C
330
D
100
AcDbEntity
 67
     1
  8
AM_VIS
100
AcDbLine
 10
93.12959174824868
 20
259.4402543161698
 30
0.0
 11
93.12959174824868
 21
262.7402543161699
 31
0.0
  0
LINE
  5
C8D
330
D
100
AcDbEntity
 67
     1
  8
AM_VIS
100
AcDbLine
 10
93.12959174824868
 20
262.7402543161699
 30
0.0
 11
93.64382183599792
 21
263.2021345315215
 31
0.0
  0
LINE
  5
C8E
330
D
100
AcDbEntity
 67
     1
  8
AM_VIS
100
AcDbLine
 10
99.25286015339976
 20
262.7402543161699
 30
0.0
 11
99.25286015339976
 21
259.4402543161698
 31
0.0
  0
LINE
  5
C8F
330
D
100
AcDbEntity
 67
     1
  8
AM_VIS
100
AcDbLine
 10
99.11394161126617
 20
263.2021345315215
 30
0.0
 11
99.11394161126617
 21
259.9021345315216
 31
0.0
  0
LINE
  5
C90
330
D
100
AcDbEntity
 67
     1
  8
AM_VIS
100
AcDbLine
 10
99.11394161126617
 20
263.2021345315215
 30
0.0
 11
99.2528601533997
 21
262.7402543161699
 31
0.0
  0
LINE
  5
C91
330
D
100
AcDbEntity
 67
     1
  8
AM_VIS
100
AcDbLine
 10
96.78705603052931
 20
263.2021345315215
 30
0.0
 11
96.78705603052931
 21
259.9021345315216
 31
0.0
  0
LINE
  5
C92
330
D
100
AcDbEntity
 67
     1
  8
AM_VIS
100
AcDbLine
 10
96.64813748839572
 20
259.4402543161698
 30
0.0
 11
96.64813748839572
 21
262.7402543161699
 31
0.0
  0
LINE
  5
C93
330
D
100
AcDbEntity
 67
     1
  8
AM_VIS
100
AcDbLine
 10
96.64813748839577
 20
262.7402543161699
 30
0.0
 11
96.78705603052931
 21
263.2021345315215
 31
0.0
  0
LINE
  5
C94
330
D
100
AcDbEntity
 67
     1
  8
AM_VIS
100
AcDbLine
 10
102.7714058935468
 20
262.7402543161699
 30
0.0
 11
102.7714058935468
 21
259.4402543161698
 31
0.0
  0
LINE
  5
C95
330
D
100
AcDbEntity
 67
     1
  8
AM_VIS
100
AcDbLine
 10
102.2571758057975
 20
263.2021345315215
 30
0.0
 11
102.2571758057975
 21
259.9021345315216
 31
0.0
  0
LINE
  5
C96
330
D
100
AcDbEntity
 67
     1
  8
AM_VIS
100
AcDbLine
 10
102.2571758057975
 20
263.2021345315215
 30
0.0
 11
102.7714058935468
 21
262.7402543161699
 31
0.0
  0
LINE
  5
C97
330
D
100
AcDbEntity
 67
     1
  8
AM_VIS
100
AcDbLine
 10
100.5156498958402
 20
259.4402543161698
 30
0.0
 11
100.5156498958402
 21
262.7402543161699
 31
0.0
  0
LINE
  5
C98
330
D
100
AcDbEntity
 67
     1
  8
AM_VIS
100
AcDbLine
 10
100.5156498958402
 20
262.7402543161699
 30
0.0
 11
100.2420337811797
 21
263.2021345315215
 31
0.0
  0
LINE
  5
C99
330
D
100
AcDbEntity
 67
     1
  8
AM_VIS
100
AcDbLine
 10
104.998193476792
 20
262.7402543161699
 30
0.0
 11
104.998193476792
 21
259.4402543161698
 31
0.0
  0
LINE
  5
C9A
330
D
100
AcDbEntity
 67
     1
  8
AM_VIS
100
AcDbLine
 10
104.2464393801633
 20
263.2021345315215
 30
0.0
 11
104.2464393801633
 21
259.9021345315216
 31
0.0
  0
LINE
  5
C9B
330
D
100
AcDbEntity
 67
     1
  8
AM_VIS
100
AcDbLine
 10
104.2464393801633
 20
263.2021345315215
 30
0.0
 11
104.998193476792
 21
262.7402543161699
 31
0.0
  0
LINE
  5
C9C
330
D
100
AcDbEntity
 67
     1
  8
AM_VIS
100
AcDbLine
 10
103.6958321442901
 20
259.4402543161698
 30
0.0
 11
103.6958321442901
 21
262.7402543161699
 31
0.0
  0
LINE
  5
C9D
330
D
100
AcDbEntity
 67
     1
  8
AM_VIS
100
AcDbLine
 10
103.6958321442901
 20
262.7402543161699
 30
0.0
 11
103.0829965897949
 21
263.2021345315215
 31
0.0
  0
LINE
  5
C9E
330
D
100
AcDbEntity
 67
     1
  8
AM_VIS
100
AcDbLine
 10
105.3365569684893
 20
259.4402543161698
 30
0.0
 11
105.3365569684893
 21
262.7402543161699
 31
0.0
  0
LINE
  5
C9F
330
D
100
AcDbEntity
 67
     1
  8
AM_VIS
100
AcDbLine
 10
105.3365569684892
 20
262.7402543161699
 30
0.0
 11
104.5487107660796
 21
263.2021345315215
 31
0.0
  0
LINE
  5
CA0
330
D
100
AcDbEntity
 67
     1
  8
AM_VIS
100
AcDbLine
 10
90.90280416500343
 20
259.4402543161698
 30
0.0
 11
91.65455826163213
 21
259.9021345315216
 31
0.0
  0
LINE
  5
CA1
330
D
100
AcDbEntity
 67
     1
  8
AM_VIS
100
AcDbLine
 10
93.12959174824868
 20
259.4402543161698
 30
0.0
 11
93.64382183599792
 21
259.9021345315216
 31
0.0
  0
LINE
  5
CA2
330
D
100
AcDbEntity
 67
     1
  8
AM_VIS
100
AcDbLine
 10
96.64813748839577
 20
259.4402543161698
 30
0.0
 11
96.78705603052931
 21
259.9021345315216
 31
0.0
  0
LINE
  5
CA3
330
D
100
AcDbEntity
 67
     1
  8
AM_VIS
100
AcDbLine
 10
99.11394161126617
 20
259.9021345315216
 30
0.0
 11
99.2528601533997
 21
259.4402543161698
 31
0.0
  0
LINE
  5
CA4
330
D
100
AcDbEntity
 67
     1
  8
AM_VIS
100
AcDbLine
 10
102.2571758057975
 20
259.9021345315216
 30
0.0
 11
102.7714058935468
 21
259.4402543161698
 31
0.0
  0
LINE
  5
CA5
330
D
100
AcDbEntity
 67
     1
  8
AM_VIS
100
AcDbLine
 10
104.2464393801633
 20
259.9021345315216
 30
0.0
 11
104.998193476792
 21
259.4402543161698
 31
0.0
  0
LINE
  5
CA6
330
D
100
AcDbEntity
 67
     1
  8
AM_VIS
100
AcDbLine
 10
105.4504988208978
 20
251.9021345315215
 30
0.0
 11
105.4504988208978
 21
259.4402543161698
 31
0.0
  0
LINE
  5
CA7
330
D
100
AcDbEntity
 67
     1
  8
AM_VIS
100
AcDbLine
 10
90.45049882089779
 20
251.9021345315215
 30
0.0
 11
90.45049882089779
 21
259.4402543161698
 31
0.0
  0
LINE
  5
CA8
330
D
100
AcDbEntity
 67
     1
  8
AM_VIS
100
AcDbLine
 10
91.25049882089774
 20
263.2021345315215
 30
0.0
 11
91.25049882089774
 21
263.1424605894046
 31
0.0
  0
LINE
  5
CA9
330
D
100
AcDbEntity
 67
     1
  8
AM_VIS
100
AcDbLine
 10
104.6504988208977
 20
263.2021345315215
 30
0.0
 11
104.6504988208977
 21
263.1424605894046
 31
0.0
  0
LINE
  5
CAA
330
D
100
AcDbEntity
 67
     1
  8
AM_VIS
100
AcDbLine
 10
90.5644406733062
 20
259.5060386753299
 30
0.0
 11
90.45049882089779
 21
259.4402543161698
 31
0.0
  0
LINE
  5
CAB
330
D
100
AcDbEntity
 67
     1
  8
AM_VIS
100
AcDbLine
 10
105.3365569684893
 20
259.5060386753298
 30
0.0
 11
105.4504988208978
 21
259.4402543161698
 31
0.0
  0
LINE
  5
CAC
330
D
100
AcDbEntity
 67
     1
  8
AM_VIS
100
AcDbLine
 10
101.9504988208978
 20
263.3021345315216
 30
0.0
 11
95.9504988208978
 21
263.3021345315216
 31
0.0
  0
LINE
  5
CAD
330
D
100
AcDbEntity
 67
     1
  8
AM_VIS
100
AcDbLine
 10
105.4504988208978
 20
251.9021345315215
 30
0.0
 11
90.45049882089779
 21
251.9021345315215
 31
0.0
  0
LINE
  5
CAE
330
D
100
AcDbEntity
 67
     1
  8
AM_VIS
100
AcDbLine
 10
105.3365569684893
 20
262.7402543161699
 30
0.0
 11
104.998193476792
 21
262.7402543161699
 31
0.0
  0
LINE
  5
CAF
330
D
100
AcDbEntity
 67
     1
  8
AM_VIS
100
AcDbLine
 10
104.2464393801633
 20
263.2021345315215
 30
0.0
 11
104.5487107660796
 21
263.2021345315215
 31
0.0
  0
LINE
  5
CB0
330
D
100
AcDbEntity
 67
     1
  8
AM_VIS
100
AcDbLine
 10
103.6958321442901
 20
262.7402543161699
 30
0.0
 11
102.7714058935468
 21
262.7402543161699
 31
0.0
  0
LINE
  5
CB1
330
D
100
AcDbEntity
 67
     1
  8
AM_VIS
100
AcDbLine
 10
102.2571758057975
 20
263.2021345315215
 30
0.0
 11
103.0829965897949
 21
263.2021345315215
 31
0.0
  0
LINE
  5
CB2
330
D
100
AcDbEntity
 67
     1
  8
AM_VIS
100
AcDbLine
 10
100.5156498958402
 20
262.7402543161699
 30
0.0
 11
99.25286015339976
 21
262.7402543161699
 31
0.0
  0
LINE
  5
CB3
330
D
100
AcDbEntity
 67
     1
  8
AM_VIS
100
AcDbLine
 10
99.11394161126617
 20
263.2021345315215
 30
0.0
 11
100.2420337811797
 21
263.2021345315215
 31
0.0
  0
LINE
  5
CB4
330
D
100
AcDbEntity
 67
     1
  8
AM_VIS
100
AcDbLine
 10
96.64813748839572
 20
262.7402543161699
 30
0.0
 11
95.38534774595518
 21
262.7402543161699
 31
0.0
  0
LINE
  5
CB5
330
D
100
AcDbEntity
 67
     1
  8
AM_VIS
100
AcDbLine
 10
95.65896386061575
 20
263.2021345315215
 30
0.0
 11
96.78705603052931
 21
263.2021345315215
 31
0.0
  0
LINE
  5
CB6
330
D
100
AcDbEntity
 67
     1
  8
AM_VIS
100
AcDbLine
 10
93.12959174824868
 20
262.7402543161699
 30
0.0
 11
92.2051654975054
 21
262.7402543161699
 31
0.0
  0
LINE
  5
CB7
330
D
100
AcDbEntity
 67
     1
  8
AM_VIS
100
AcDbLine
 10
92.81800105200057
 20
263.2021345315215
 30
0.0
 11
93.64382183599792
 21
263.2021345315215
 31
0.0
  0
LINE
  5
CB8
330
D
100
AcDbEntity
 67
     1
  8
AM_VIS
100
AcDbLine
 10
90.90280416500343
 20
262.7402543161699
 30
0.0
 11
90.5644406733062
 21
262.7402543161699
 31
0.0
  0
LINE
  5
CB9
330
D
100
AcDbEntity
 67
     1
  8
AM_VIS
100
AcDbLine
 10
91.35228687571601
 20
263.2021345315215
 30
0.0
 11
91.65455826163219
 21
263.2021345315215
 31
0.0
  0
LINE
  5
CBA
330
D
100
AcDbEntity
 67
     1
  8
AM_VIS
100
AcDbLine
 10
91.25049882089774
 20
263.2021345315215
 30
0.0
 11
91.35228687571601
 21
263.2021345315215
 31
0.0
  0
LINE
  5
CBB
330
D
100
AcDbEntity
 67
     1
  8
AM_VIS
100
AcDbLine
 10
91.65455826163219
 20
263.2021345315215
 30
0.0
 11
92.81800105200057
 21
263.2021345315215
 31
0.0
  0
LINE
  5
CBC
330
D
100
AcDbEntity
 67
     1
  8
AM_VIS
100
AcDbLine
 10
93.64382183599792
 20
263.2021345315215
 30
0.0
 11
95.65896386061575
 21
263.2021345315215
 31
0.0
  0
LINE
  5
CBD
330
D
100
AcDbEntity
 67
     1
  8
AM_VIS
100
AcDbLine
 10
96.78705603052931
 20
263.2021345315215
 30
0.0
 11
99.11394161126617
 21
263.2021345315215
 31
0.0
  0
LINE
  5
CBE
330
D
100
AcDbEntity
 67
     1
  8
AM_VIS
100
AcDbLine
 10
100.2420337811797
 20
263.2021345315215
 30
0.0
 11
102.2571758057975
 21
263.2021345315215
 31
0.0
  0
LINE
  5
CBF
330
D
100
AcDbEntity
 67
     1
  8
AM_VIS
100
AcDbLine
 10
103.0829965897949
 20
263.2021345315215
 30
0.0
 11
104.2464393801633
 21
263.2021345315215
 31
0.0
  0
LINE
  5
CC0
330
D
100
AcDbEntity
 67
     1
  8
AM_VIS
100
AcDbLine
 10
104.5487107660796
 20
263.2021345315215
 30
0.0
 11
104.6504988208977
 21
263.2021345315215
 31
0.0
  0
LINE
  5
CC1
330
D
100
AcDbEntity
 67
     1
  8
AM_VIS
100
AcDbLine
 10
90.5644406733062
 20
259.4402543161698
 30
0.0
 11
90.45049882089779
 21
259.4402543161698
 31
0.0
  0
LINE
  5
CC2
330
D
100
AcDbEntity
 67
     1
  8
AM_VIS
100
AcDbLine
 10
92.2051654975054
 20
259.4402543161698
 30
0.0
 11
90.90280416500343
 21
259.4402543161698
 31
0.0
  0
LINE
  5
CC3
330
D
100
AcDbEntity
 67
     1
  8
AM_VIS
100
AcDbLine
 10
91.65455826163219
 20
259.9021345315216
 30
0.0
 11
92.2051654975054
 21
259.9021345315216
 31
0.0
  0
LINE
  5
CC4
330
D
100
AcDbEntity
 67
     1
  8
AM_VIS
100
AcDbLine
 10
95.38534774595518
 20
259.4402543161698
 30
0.0
 11
93.12959174824868
 21
259.4402543161698
 31
0.0
  0
LINE
  5
CC5
330
D
100
AcDbEntity
 67
     1
  8
AM_VIS
100
AcDbLine
 10
93.64382183599792
 20
259.9021345315216
 30
0.0
 11
95.38534774595518
 21
259.9021345315216
 31
0.0
  0
LINE
  5
CC6
330
D
100
AcDbEntity
 67
     1
  8
AM_VIS
100
AcDbLine
 10
99.25286015339976
 20
259.4402543161698
 30
0.0
 11
96.64813748839572
 21
259.4402543161698
 31
0.0
  0
LINE
  5
CC7
330
D
100
AcDbEntity
 67
     1
  8
AM_VIS
100
AcDbLine
 10
96.78705603052931
 20
259.9021345315216
 30
0.0
 11
99.11394161126617
 21
259.9021345315216
 31
0.0
  0
LINE
  5
CC8
330
D
100
AcDbEntity
 67
     1
  8
AM_VIS
100
AcDbLine
 10
102.7714058935468
 20
259.4402543161698
 30
0.0
 11
100.5156498958402
 21
259.4402543161698
 31
0.0
  0
LINE
  5
CC9
330
D
100
AcDbEntity
 67
     1
  8
AM_VIS
100
AcDbLine
 10
100.5156498958402
 20
259.9021345315216
 30
0.0
 11
102.2571758057975
 21
259.9021345315216
 31
0.0
  0
LINE
  5
CCA
330
D
100
AcDbEntity
 67
     1
  8
AM_VIS
100
AcDbLine
 10
104.998193476792
 20
259.4402543161698
 30
0.0
 11
103.6958321442901
 21
259.4402543161698
 31
0.0
  0
LINE
  5
CCB
330
D
100
AcDbEntity
 67
     1
  8
AM_VIS
100
AcDbLine
 10
103.6958321442901
 20
259.9021345315216
 30
0.0
 11
104.2464393801633
 21
259.9021345315216
 31
0.0
  0
LINE
  5
CCC
330
D
100
AcDbEntity
 67
     1
  8
AM_VIS
100
AcDbLine
 10
105.4504988208978
 20
259.4402543161698
 30
0.0
 11
105.3365569684893
 21
259.4402543161698
 31
0.0
  0
LINE
  5
CCD
330
D
100
AcDbEntity
 67
     1
  8
AM_VIS
100
AcDbLine
 10
102.8579761090095
 20
241.6021345315216
 30
0.0
 11
93.04302153278593
 21
241.6021345315216
 31
0.0
  0
LINE
  5
CCE
330
D
100
AcDbEntity
 67
     1
  8
AM_VIS
100
AcDbLine
 10
92.17699612900151
 20
241.6021345315216
 30
0.0
 11
91.95049882089767
 21
241.6021345315216
 31
0.0
  0
LINE
  5
CCF
330
D
100
AcDbEntity
 67
     1
  8
AM_VIS
100
AcDbLine
 10
92.17699612900151
 20
238.6021345315216
 30
0.0
 11
91.95049882089767
 21
238.6021345315216
 31
0.0
  0
LINE
  5
CD0
330
D
100
AcDbEntity
 67
     1
  8
AM_VIS
100
AcDbLine
 10
102.8579761090095
 20
238.6021345315216
 30
0.0
 11
93.04302153278593
 21
238.6021345315216
 31
0.0
  0
LINE
  5
CD1
330
D
100
AcDbEntity
 67
     1
  8
AM_VIS
100
AcDbLine
 10
108.6314788009058
 20
241.6021345315216
 30
0.0
 11
103.7240015127939
 21
241.6021345315216
 31
0.0
  0
LINE
  5
CD2
330
D
100
AcDbEntity
 67
     1
  8
AM_VIS
100
AcDbLine
 10
108.6314788009058
 20
238.6021345315216
 30
0.0
 11
103.7240015127939
 21
238.6021345315216
 31
0.0
  0
LINE
  5
CD3
330
D
100
AcDbEntity
 67
     1
  8
AM_VIS
100
AcDbLine
 10
105.4504988208978
 20
241.6021345315216
 30
0.0
 11
105.4504988208978
 21
251.9021345315215
 31
0.0
  0
LINE
  5
CD4
330
D
100
AcDbEntity
 67
     1
  8
AM_VIS
100
AcDbLine
 10
90.45049882089779
 20
244.3021345315215
 30
0.0
 11
90.45049882089779
 21
251.9021345315215
 31
0.0
  0
LINE
  5
CD5
330
D
100
AcDbEntity
 67
     1
  8
AM_VIS
100
AcDbLine
 10
108.7654533971214
 20
238.6021345315216
 30
0.0
 11
108.7654533971214
 21
241.6021345315216
 31
0.0
  0
LINE
  5
CD6
330
D
100
AcDbEntity
 67
     1
  8
AM_VIS
100
AcDbLine
 10
90.45049882089779
 20
251.9021345315215
 30
0.0
 11
105.4504988208978
 21
251.9021345315215
 31
0.0
  0
LINE
  5
CD7
330
D
100
AcDbEntity
 67
     1
  8
AM_VIS
100
AcDbLine
 10
92.17699612900151
 20
241.6021345315216
 30
0.0
 11
93.04302153278593
 21
241.6021345315216
 31
0.0
  0
LINE
  5
CD8
330
D
100
AcDbEntity
 67
     1
  8
AM_VIS
100
AcDbLine
 10
108.6314788009058
 20
241.6021345315216
 30
0.0
 11
108.7654533971214
 21
241.6021345315216
 31
0.0
  0
LINE
  5
CD9
330
D
100
AcDbEntity
 67
     1
  8
AM_VIS
100
AcDbLine
 10
108.7654533971214
 20
238.6021345315216
 30
0.0
 11
108.6314788009058
 21
238.6021345315216
 31
0.0
  0
LINE
  5
CDA
330
D
100
AcDbEntity
 67
     1
  8
AM_VIS
100
AcDbLine
 10
93.04302153278593
 20
238.6021345315216
 30
0.0
 11
92.17699612900146
 21
238.6021345315216
 31
0.0
  0
LINE
  5
CDB
330
D
100
AcDbEntity
 67
     1
  8
AM_VIS
100
AcDbLine
 10
103.7240015127939
 20
238.6021345315216
 30
0.0
 11
102.8579761090095
 21
238.6021345315216
 31
0.0
  0
LINE
  5
CDC
330
D
100
AcDbEntity
 67
     1
  8
AM_VIS
100
AcDbLine
 10
102.8579761090095
 20
241.6021345315216
 30
0.0
 11
103.7240015127939
 21
241.6021345315216
 31
0.0
  0
LINE
  5
CDD
330
D
100
AcDbEntity
 67
     1
  8
AM_VIS
100
AcDbLine
 10
69.60027245468921
 20
106.8672222159989
 30
0.0
 11
73.7668406333197
 21
102.7368564679673
 31
0.0
  0
ARC
  5
CDE
330
D
100
AcDbEntity
 67
     1
  8
AM_VIS
100
AcDbCircle
 10
70.65629446803427
 20
107.93250024405
 30
0.0
 40
1.499999923256554
100
AcDbArc
 50
180.4999988925244
 51
225.2500010438184
  0
ARC
  5
CDF
330
D
100
AcDbEntity
 67
     1
  8
AM_VIS
100
AcDbCircle
 10
80.67363445213322
 20
107.8695444142157
 30
0.0
 40
4.003878985516954
100
AcDbArc
 50
179.2863949080097
 51
194.4975014805192
  0
ARC
  5
CE0
330
D
100
AcDbEntity
 67
     1
  8
AM_VIS
100
AcDbCircle
 10
88.77752307365597
 20
107.8661750746041
 30
0.0
 40
6.671872385359597
100
AcDbArc
 50
179.5428276061937
 51
188.6110490360833
  0
ARC
  5
CE1
330
D
100
AcDbEntity
 67
     1
  8
AM_VIS
100
AcDbCircle
 10
89.12347456736432
 20
107.8661750745994
 30
0.0
 40
6.671872385295445
100
AcDbArc
 50
351.3889509638722
 51
0.4571723938502051
  0
ARC
  5
CE2
330
D
100
AcDbEntity
 67
     1
  8
AM_VIS
100
AcDbCircle
 10
97.22736318863542
 20
107.8695444142383
 30
0.0
 40
4.003878985704109
100
AcDbArc
 50
345.5024985198424
 51
0.713605091633613
  0
ARC
  5
CE3
330
D
100
AcDbEntity
 67
     1
  8
AM_VIS
100
AcDbCircle
 10
107.2447030381889
 20
107.9325003008942
 30
0.0
 40
1.500000058480389
100
AcDbArc
 50
314.7500010824707
 51
359.4999989811809
  0
LINE
  5
CE4
330
D
100
AcDbEntity
 67
     1
  8
AM_VIS
100
AcDbLine
 10
68.50722346111798
 20
182.3021345315216
 30
0.0
 11
69.1563516599154
 21
107.9194104704647
 31
0.0
  0
LINE
  5
CE5
330
D
100
AcDbEntity
 67
     1
  8
AM_VIS
100
AcDbLine
 10
81.99462178217595
 20
184.3021343173655
 30
0.0
 11
82.10571222918019
 21
107.9194102510736
 31
0.0
  0
LINE
  5
CE6
330
D
100
AcDbEntity
 67
     1
  8
AM_VIS
100
AcDbLine
 10
76.48620877978254
 20
182.3021339770751
 30
0.0
 11
76.66983635740916
 21
107.9194099035357
 31
0.0
  0
LINE
  5
CE7
330
D
100
AcDbEntity
 67
     1
  8
AM_VIS
100
AcDbLine
 10
81.20049882047807
 20
184.3021345315215
 30
0.0
 11
81.20049882047807
 21
183.8021345315216
 31
0.0
  0
LINE
  5
CE8
330
D
100
AcDbEntity
 67
     1
  8
AM_VIS
100
AcDbLine
 10
81.20049882047807
 20
183.8021345315216
 30
0.0
 11
79.95049882047806
 21
183.8021345315216
 31
0.0
  0
LINE
  5
CE9
330
D
100
AcDbEntity
 67
     1
  8
AM_VIS
100
AcDbLine
 10
95.79528541177882
 20
107.9194102510736
 30
0.0
 11
95.90637585877727
 21
184.3021343173655
 31
0.0
  0
LINE
  5
CEA
330
D
100
AcDbEntity
 67
     1
  8
AM_VIS
100
AcDbLine
 10
96.70049882047806
 20
183.8021345315216
 30
0.0
 11
96.70049882047806
 21
184.3021345315215
 31
0.0
  0
LINE
  5
CEB
330
D
100
AcDbEntity
 67
     1
  8
AM_VIS
100
AcDbLine
 10
101.2311612835467
 20
107.9194099035357
 30
0.0
 11
101.4147888611735
 21
182.3021339770751
 31
0.0
  0
LINE
  5
CEC
330
D
100
AcDbEntity
 67
     1
  8
AM_VIS
100
AcDbLine
 10
108.7446459810408
 20
107.9194104704647
 30
0.0
 11
109.3937741798382
 21
182.3021345315216
 31
0.0
  0
LINE
  5
CED
330
D
100
AcDbEntity
 67
     1
  8
AM_VIS
100
AcDbLine
 10
97.95049882047806
 20
183.8021345315216
 30
0.0
 11
96.70049882047806
 21
183.8021345315216
 31
0.0
  0
ARC
  5
CEE
330
D
100
AcDbEntity
 67
     1
  8
AM_VIS
100
AcDbCircle
 10
88.95049882047805
 20
158.8021345315216
 30
0.0
 40
5.0
100
AcDbArc
 50
0.0
 51
180.0
  0
LINE
  5
CEF
330
D
100
AcDbEntity
 67
     1
  8
AM_VIS
100
AcDbLine
 10
93.95049882047805
 20
158.8021345315216
 30
0.0
 11
93.95049882047805
 21
118.8021345315215
 31
0.0
  0
ARC
  5
CF0
330
D
100
AcDbEntity
 67
     1
  8
AM_VIS
100
AcDbCircle
 10
88.95049882047805
 20
118.8021345315215
 30
0.0
 40
5.000000000000014
100
AcDbArc
 50
180.0
 51
0.0
  0
LINE
  5
CF1
330
D
100
AcDbEntity
 67
     1
  8
AM_VIS
100
AcDbLine
 10
83.950498820478
 20
158.8021345315216
 30
0.0
 11
83.950498820478
 21
118.8021345315215
 31
0.0
  0
ARC
  5
CF2
330
D
100
AcDbEntity
 67
     1
  8
AM_VIS
100
AcDbCircle
 10
132.1037408874744
 20
163.5085607368688
 30
0.0
 40
22.31474947704997
100
AcDbArc
 50
166.2772974376372
 51
179.2461925380372
  0
ARC
  5
CF3
330
D
100
AcDbEntity
 67
     1
  8
AM_VIS
100
AcDbCircle
 10
45.79725675348789
 20
163.5085607368698
 30
0.0
 40
22.31474947704385
100
AcDbArc
 50
0.7538074619594763
 51
13.72270256236446
  0
LINE
  5
CF4
330
D
100
AcDbEntity
 67
     1
  8
AM_VIS
100
AcDbLine
 10
109.4317998892787
 20
123.8021342697193
 30
0.0
 11
109.7909510360618
 21
163.8021342764579
 31
0.0
  0
LINE
  5
CF5
330
D
100
AcDbEntity
 67
     1
  8
AM_VIS
100
AcDbLine
 10
68.11004660489436
 20
163.8021342764579
 30
0.0
 11
68.46919775167748
 21
123.8021342697192
 31
0.0
  0
ARC
  5
CF6
330
D
100
AcDbEntity
 67
     1
  8
AM_VIS
100
AcDbCircle
 10
131.1022152937568
 20
123.6887751529888
 30
0.0
 40
21.67074105515432
100
AcDbArc
 50
179.7002851188727
 51
193.0319791400579
  0
ARC
  5
CF7
330
D
100
AcDbEntity
 67
     1
  8
AM_VIS
100
AcDbCircle
 10
46.79878234720729
 20
123.6887751529878
 30
0.0
 40
21.67074105514648
100
AcDbArc
 50
346.9680208599387
 51
0.2997148811289425
  0
LINE
  5
CF8
330
D
100
AcDbEntity
 67
     1
  8
AM_VIS
100
AcDbLine
 10
104.1341570075185
 20
102.7368564680864
 30
0.0
 11
108.3007251821265
 21
106.8672222092822
 31
0.0
  0
LINE
  5
CF9
330
D
100
AcDbEntity
 67
     1
  8
AM_VIS
100
AcDbLine
 10
99.84879964880736
 20
102.733519227114
 30
0.0
 11
101.1140356969928
 21
106.8640724744241
 31
0.0
  0
LINE
  5
CFA
330
D
100
AcDbEntity
 67
     1
  8
AM_VIS
100
AcDbLine
 10
94.97818846091297
 20
102.7355304146498
 30
0.0
 11
95.72697696591758
 21
106.8659824891419
 31
0.0
  0
LINE
  5
CFB
330
D
100
AcDbEntity
 67
     1
  8
AM_VIS
100
AcDbLine
 10
76.78696194455335
 20
106.8640724677905
 30
0.0
 11
78.0521979922612
 21
102.7335192271443
 31
0.0
  0
LINE
  5
CFC
330
D
100
AcDbEntity
 67
     1
  8
AM_VIS
100
AcDbLine
 10
82.17402067489047
 20
106.8659824926174
 30
0.0
 11
82.9228091800037
 21
102.7355304146436
 31
0.0
  0
ARC
  5
CFD
330
D
100
AcDbEntity
 67
     1
  8
AM_VIS
100
AcDbCircle
 10
74.82286269735789
 20
103.8021344762234
 30
0.0
 40
1.499999944701827
100
AcDbArc
 50
225.2499991147291
 51
270.0000008537736
  0
ARC
  5
CFE
330
D
100
AcDbEntity
 67
     1
  8
AM_VIS
100
AcDbCircle
 10
103.0781349435983
 20
103.8021344762234
 30
0.0
 40
1.499999944701827
100
AcDbArc
 50
269.9999991462263
 51
314.750000885271
  0
SPLINE
  5
CFF
330
D
100
AcDbEntity
 67
     1
  8
AM_VIS
100
AcDbSpline
210
0.0
220
0.0
230
1.0
 70
     8
 71
     3
 72
    12
 73
     8
 74
     0
 42
0.0000000001
 43
0.0000000001
 40
-1.223984536100286
 40
-1.223984536100286
 40
-1.223984536100286
 40
-1.223984536100286
 40
-1.221752649822985
 40
-1.221752649822985
 40
-0.6063716823398733
 40
-0.6063716823398733
 40
0.0
 40
0.0
 40
0.0
 40
0.0
 10
99.4929583391338
 20
102.3021345315215
 30
0.0
 10
99.49319299771355
 20
102.3021345315215
 30
0.0
 10
99.49342764925393
 20
102.3021350311196
 30
0.0
 10
99.55835896353494
 20
102.3024115336916
 30
0.0
 10
99.62208271671892
 20
102.3406666223451
 30
0.0
 10
99.73971958881197
 20
102.4895911674556
 30
0.0
 10
99.79291640962834
 20
102.5981278342098
 30
0.0
 10
99.83790472405685
 20
102.7368564680866
 30
0.0
  0
LINE
  5
D00
330
D
100
AcDbEntity
 67
     1
  8
AM_VIS
100
AcDbLine
 10
94.76565686053334
 20
102.3021345315215
 30
0.0
 11
99.4929583391338
 21
102.3021345315215
 31
0.0
  0
SPLINE
  5
D01
330
D
100
AcDbEntity
 67
     1
  8
AM_VIS
100
AcDbSpline
210
0.0
220
0.0
230
1.0
 70
     8
 71
     3
 72
    12
 73
     8
 74
     0
 42
0.0000000001
 43
0.0000000001
 40
0.0
 40
0.0
 40
0.0
 40
0.0
 40
0.5930711260102709
 40
0.5930711260102709
 40
1.190594073880675
 40
1.190594073880675
 40
1.192755197789328
 40
1.192755197789328
 40
1.192755197789328
 40
1.192755197789328
 10
94.97087371164491
 20
102.7368564680866
 30
0.0
 10
94.94429880855689
 20
102.5989427704955
 30
0.0
 10
94.91273372971006
 20
102.4900793704909
 30
0.0
 10
94.84266627372722
 20
102.3408947067182
 30
0.0
 10
94.8047292806541
 20
102.3024124141991
 30
0.0
 10
94.76593647610002
 20
102.3021350313319
 30
0.0
 10
94.76579667074373
 20
102.3021345315215
 30
0.0
 10
94.76565686053334
 20
102.3021345315215
 30
0.0
  0
SPLINE
  5
D02
330
D
100
AcDbEntity
 67
     1
  8
AM_VIS
100
AcDbSpline
210
0.0
220
0.0
230
1.0
 70
     8
 71
     3
 72
    12
 73
     8
 74
     0
 42
0.0000000001
 43
0.0000000001
 40
-0.0022342702689408
 40
-0.0022342702689408
 40
-0.0022342702689408
 40
-0.0022342702689408
 40
0.0
 40
0.0
 40
0.6160382872962646
 40
0.6160382872962646
 40
1.223057666176767
 40
1.223057666176767
 40
1.223057666176767
 40
1.223057666176767
 10
78.40803930182244
 20
102.3021345315215
 30
0.0
 10
78.40780464324268
 20
102.3021345315215
 30
0.0
 10
78.40756999170224
 20
102.3021350311196
 30
0.0
 10
78.34263867741867
 20
102.3024115336916
 30
0.0
 10
78.2789149242368
 20
102.3406666223456
 30
0.0
 10
78.16127805214421
 20
102.4895911674556
 30
0.0
 10
78.10808123132779
 20
102.5981278342099
 30
0.0
 10
78.06309291689934
 20
102.7368564680866
 30
0.0
  0
SPLINE
  5
D03
330
D
100
AcDbEntity
 67
     1
  8
AM_VIS
100
AcDbSpline
210
0.0
220
0.0
230
1.0
 70
     8
 71
     3
 72
    12
 73
     8
 74
     0
 42
0.0000000001
 43
0.0000000001
 40
-1.191072920087239
 40
-1.191072920087239
 40
-1.191072920087239
 40
-1.191072920087239
 40
-0.5977632662149929
 40
-0.5977632662149929
 40
0.0
 40
0.0
 40
0.0021619930932112
 40
0.0021619930932112
 40
0.0021619930932112
 40
0.0021619930932112
 10
82.93012392931121
 20
102.7368564680866
 30
0.0
 10
82.95669883239929
 20
102.5989427704955
 30
0.0
 10
82.98826391124611
 20
102.4900793704909
 30
0.0
 10
83.05833136722901
 20
102.3408947067182
 30
0.0
 10
83.09626836030208
 20
102.3024124141991
 30
0.0
 10
83.1350611648561
 20
102.3021350313319
 30
0.0
 10
83.13520097021244
 20
102.3021345315215
 30
0.0
 10
83.13534078042279
 20
102.3021345315215
 30
0.0
  0
LINE
  5
D04
330
D
100
AcDbEntity
 67
     1
  8
AM_VIS
100
AcDbLine
 10
78.40803930182244
 20
102.3021345315215
 30
0.0
 11
83.13534078042284
 21
102.3021345315215
 31
0.0
  0
LINE
  5
D05
330
D
100
AcDbEntity
 67
     1
  8
AM_VIS
100
AcDbLine
 10
72.61684063343796
 20
102.7368564680866
 30
0.0
 11
68.45027245782773
 21
106.8672222102773
 31
0.0
  0
LINE
  5
D06
330
D
100
AcDbEntity
 67
     1
  8
AM_VIS
100
AcDbLine
 10
67.47503617629331
 20
168.8021345315215
 30
0.0
 11
67.35722346111811
 21
182.3021345315216
 31
0.0
  0
LINE
  5
D07
330
D
100
AcDbEntity
 67
     1
  8
AM_VIS
100
AcDbLine
 10
68.00635165991536
 20
107.9194104704647
 30
0.0
 11
67.91137956583122
 21
118.8021345315215
 31
0.0
  0
LINE
  5
D08
330
D
100
AcDbEntity
 67
     1
  8
AM_VIS
100
AcDbLine
 10
110.4259614646629
 20
168.8021345315215
 30
0.0
 11
110.5437741798382
 21
182.3021345315216
 31
0.0
  0
LINE
  5
D09
330
D
100
AcDbEntity
 67
     1
  8
AM_VIS
100
AcDbLine
 10
109.8946459810408
 20
107.9194104704647
 30
0.0
 11
109.989618075125
 21
118.8021345315215
 31
0.0
  0
LINE
  5
D0A
330
D
100
AcDbEntity
 67
     1
  8
AM_VIS
100
AcDbLine
 10
105.2841570075182
 20
102.7368564680866
 30
0.0
 11
109.4507251831286
 21
106.8672222102773
 31
0.0
  0
LINE
  5
D0B
330
D
100
AcDbEntity
 67
     1
  8
AM_VIS
100
AcDbLine
 10
78.40803930182244
 20
102.3021345315215
 30
0.0
 11
74.82286272012186
 21
102.3021345315215
 31
0.0
  0
LINE
  5
D0C
330
D
100
AcDbEntity
 67
     1
  8
AM_VIS
100
AcDbLine
 10
74.82286272012192
 20
102.3021345315215
 30
0.0
 11
73.67286272012194
 21
102.3021345315215
 31
0.0
  0
LINE
  5
D0D
330
D
100
AcDbEntity
 67
     1
  8
AM_VIS
100
AcDbLine
 10
104.2281349208343
 20
102.3021345315215
 30
0.0
 11
103.0781349208343
 21
102.3021345315215
 31
0.0
  0
LINE
  5
D0E
330
D
100
AcDbEntity
 67
     1
  8
AM_VIS
100
AcDbLine
 10
103.0781349208343
 20
102.3021345315215
 30
0.0
 11
99.49295833913375
 21
102.3021345315215
 31
0.0
  0
LINE
  5
D0F
330
D
100
AcDbEntity
 67
     1
  8
AM_VIS
100
AcDbLine
 10
94.76565686053334
 20
102.3021345315215
 30
0.0
 11
83.13534078042279
 21
102.3021345315215
 31
0.0
  0
ARC
  5
D10
330
D
100
AcDbEntity
 67
     1
  8
AM_VIS
100
AcDbCircle
 10
69.50629454451166
 20
107.9325002737122
 30
0.0
 40
1.5
100
AcDbArc
 50
180.4999999999997
 51
225.2500000000008
  0
ARC
  5
D11
330
D
100
AcDbEntity
 67
     1
  8
AM_VIS
100
AcDbCircle
 10
108.3947030964446
 20
107.9325002737122
 30
0.0
 40
1.5
100
AcDbArc
 50
314.7499999999991
 51
359.4999999999986
  0
ARC
  5
D12
330
D
100
AcDbEntity
 67
     1
  8
AM_VIS
100
AcDbCircle
 10
73.67286272012194
 20
103.8021345315216
 30
0.0
 40
1.5
100
AcDbArc
 50
225.2500000000008
 51
270.0
  0
ARC
  5
D13
330
D
100
AcDbEntity
 67
     1
  8
AM_VIS
100
AcDbCircle
 10
104.2281349208343
 20
103.8021345315216
 30
0.0
 40
1.499999999999999
100
AcDbArc
 50
270.0
 51
314.7499999999991
  0
LINE
  5
D14
330
D
100
AcDbEntity
 67
     1
  8
AM_VIS
100
AcDbLine
 10
98.95049882047807
 20
101.3021345315216
 30
0.0
 11
99.08383215381139
 21
102.3021345315215
 31
0.0
  0
LINE
  5
D15
330
D
100
AcDbEntity
 67
     1
  8
AM_VIS
100
AcDbLine
 10
78.95049882047806
 20
101.3021345315216
 30
0.0
 11
78.81716548714473
 21
102.3021345315215
 31
0.0
  0
LINE
  5
D16
330
D
100
AcDbEntity
 67
     1
  8
AM_VIS
100
AcDbLine
 10
98.95049882047812
 20
101.3021345315216
 30
0.0
 11
78.95049882047811
 21
101.3021345315216
 31
0.0
  0
LINE
  5
D17
330
D
100
AcDbEntity
 67
     1
  8
AM_VIS
100
AcDbLine
 10
79.98057419825795
 20
243.3021345315215
 30
0.0
 11
79.98057419825795
 21
242.3021345315215
 31
0.0
  0
LINE
  5
D18
330
D
100
AcDbEntity
 67
     1
  8
AM_VIS
100
AcDbLine
 10
91.9204234435374
 20
242.3021345315215
 30
0.0
 11
91.9204234435374
 21
243.3021345315215
 31
0.0
  0
LINE
  5
D19
330
D
100
AcDbEntity
 67
     1
  8
AM_VIS
100
AcDbLine
 10
90.91447249117198
 20
244.3022393691474
 30
0.0
 11
91.92050251178949
 21
243.3022140745448
 31
0.0
  0
LINE
  5
D1A
330
D
100
AcDbEntity
 67
     1
  8
AM_VIS
100
AcDbLine
 10
79.9804951300058
 20
243.3022140745448
 30
0.0
 11
80.98652515062344
 21
244.3022393691475
 31
0.0
  0
LINE
  5
D1B
330
D
100
AcDbEntity
 67
     1
  8
AM_VIS
100
AcDbLine
 10
91.95049882089767
 20
236.3021345315215
 30
0.0
 11
91.95049882089767
 21
242.3021345315215
 31
0.0
  0
LINE
  5
D1C
330
D
100
AcDbEntity
 67
     1
  8
AM_VIS
100
AcDbLine
 10
79.95049882089768
 20
236.3021345315215
 30
0.0
 11
79.95049882089768
 21
242.3021345315215
 31
0.0
  0
LINE
  5
D1D
330
D
100
AcDbEntity
 67
     1
  8
AM_VIS
100
AcDbLine
 10
91.9204234435374
 20
242.3021345315215
 30
0.0
 11
91.95049882089767
 21
242.3021345315215
 31
0.0
  0
LINE
  5
D1E
330
D
100
AcDbEntity
 67
     1
  8
AM_VIS
100
AcDbLine
 10
79.95049882089768
 20
242.3021345315215
 30
0.0
 11
79.98057419825795
 21
242.3021345315215
 31
0.0
  0
LINE
  5
D1F
330
D
100
AcDbEntity
 67
     1
  8
AM_VIS
100
AcDbLine
 10
80.98662936250134
 20
244.3021345315215
 30
0.0
 11
90.91436827929403
 21
244.3021345315215
 31
0.0
  0
LINE
  5
D20
330
D
100
AcDbEntity
 67
     1
  8
AM_VIS
100
AcDbLine
 10
91.9204234435374
 20
243.3021345315215
 30
0.0
 11
79.98057419825795
 21
243.3021345315215
 31
0.0
  0
ARC
  5
D21
330
D
100
AcDbEntity
 67
     1
  8
AM_VIS
100
AcDbCircle
 10
105.415505357521
 20
238.1236598717221
 30
0.0
 40
0.4797525847240176
100
AcDbArc
 50
21.83987726172874
 51
85.81709415277648
  0
LINE
  5
D22
330
D
100
AcDbEntity
 67
     1
  8
AM_VIS
100
AcDbLine
 10
77.20810947021272
 20
184.465211678983
 30
0.0
 11
77.45007774295283
 21
182.3020874295571
 31
0.0
  0
LINE
  5
D23
330
D
100
AcDbEntity
 67
     1
  8
AM_VIS
100
AcDbLine
 10
100.4509198980032
 20
182.3020874295571
 30
0.0
 11
100.6928881707433
 21
184.465211678983
 31
0.0
  0
LINE
  5
D24
330
D
100
AcDbEntity
 67
     1
  8
AM_VIS
100
AcDbLine
 10
115.1476595459006
 20
182.3021216308179
 30
0.0
 11
115.4505219060364
 21
182.8532832658802
 31
0.0
  0
LINE
  5
D25
330
D
100
AcDbEntity
 67
     1
  8
AM_VIS
100
AcDbLine
 10
62.45047573491991
 20
182.8532832658802
 30
0.0
 11
62.75333809505571
 21
182.3021216308178
 31
0.0
  0
LINE
  5
D26
330
D
100
AcDbEntity
 67
     1
  8
AM_VIS
100
AcDbLine
 10
79.95049882047806
 20
182.3021345315216
 30
0.0
 11
79.95049882047806
 21
184.3021345315215
 31
0.0
  0
LINE
  5
D27
330
D
100
AcDbEntity
 67
     1
  8
AM_VIS
100
AcDbLine
 10
97.95049882047806
 20
184.3021345315215
 30
0.0
 11
97.95049882047806
 21
182.3021345315216
 31
0.0
  0
LINE
  5
D28
330
D
100
AcDbEntity
 67
     1
  8
AM_VIS
100
AcDbLine
 10
62.45049882047806
 20
208.3021345315215
 30
0.0
 11
64.20049882047806
 21
208.3021345315215
 31
0.0
  0
LINE
  5
D29
330
D
100
AcDbEntity
 67
     1
  8
AM_VIS
100
AcDbLine
 10
62.45049882047806
 20
224.3021345315215
 30
0.0
 11
64.20049882047806
 21
224.3021345315215
 31
0.0
  0
LINE
  5
D2A
330
D
100
AcDbEntity
 67
     1
  8
AM_VIS
100
AcDbLine
 10
65.45049882047812
 20
206.3021345315215
 30
0.0
 11
64.20049882047812
 21
208.3021345315214
 31
0.0
  0
LINE
  5
D2B
330
D
100
AcDbEntity
 67
     1
  8
AM_VIS
100
AcDbLine
 10
64.20049882047806
 20
208.3021345315214
 30
0.0
 11
64.20049882047806
 21
224.3021345315215
 31
0.0
  0
LINE
  5
D2C
330
D
100
AcDbEntity
 67
     1
  8
AM_VIS
100
AcDbLine
 10
64.20049882047806
 20
224.3021345315215
 30
0.0
 11
65.45049882047812
 21
226.3021345315215
 31
0.0
  0
LINE
  5
D2D
330
D
100
AcDbEntity
 67
     1
  8
AM_VIS
100
AcDbLine
 10
115.450498820478
 20
224.3021345315215
 30
0.0
 11
113.700498820478
 21
224.3021345315215
 31
0.0
  0
LINE
  5
D2E
330
D
100
AcDbEntity
 67
     1
  8
AM_VIS
100
AcDbLine
 10
115.450498820478
 20
208.3021345315215
 30
0.0
 11
113.700498820478
 21
208.3021345315215
 31
0.0
  0
LINE
  5
D2F
330
D
100
AcDbEntity
 67
     1
  8
AM_VIS
100
AcDbLine
 10
113.700498820478
 20
224.3021345315215
 30
0.0
 11
113.700498820478
 21
208.3021345315215
 31
0.0
  0
LINE
  5
D30
330
D
100
AcDbEntity
 67
     1
  8
AM_VIS
100
AcDbLine
 10
113.700498820478
 20
208.3021345315215
 30
0.0
 11
112.450498820478
 21
206.3021345315216
 31
0.0
  0
LINE
  5
D31
330
D
100
AcDbEntity
 67
     1
  8
AM_VIS
100
AcDbLine
 10
112.4504988204781
 20
226.3021345315215
 30
0.0
 11
113.7004988204781
 21
224.3021345315217
 31
0.0
  0
LINE
  5
D32
330
D
100
AcDbEntity
 67
     1
  8
AM_VIS
100
AcDbLine
 10
115.450498820478
 20
208.3021345315217
 30
0.0
 11
115.4504988204781
 21
206.3021345315218
 31
0.0
  0
LINE
  5
D33
330
D
100
AcDbEntity
 67
     1
  8
AM_VIS
100
AcDbLine
 10
115.450498820478
 20
224.3021345315215
 30
0.0
 11
115.450498820478
 21
208.3021345315215
 31
0.0
  0
LINE
  5
D34
330
D
100
AcDbEntity
 67
     1
  8
AM_VIS
100
AcDbLine
 10
115.4504988204781
 20
226.3021345315213
 30
0.0
 11
115.4504988204781
 21
224.3021345315214
 31
0.0
  0
LINE
  5
D35
330
D
100
AcDbEntity
 67
     1
  8
AM_VIS
100
AcDbLine
 10
62.45049882047806
 20
224.3021345315214
 30
0.0
 11
62.45049882047812
 21
226.3021345315213
 31
0.0
  0
LINE
  5
D36
330
D
100
AcDbEntity
 67
     1
  8
AM_VIS
100
AcDbLine
 10
62.45049882047806
 20
208.3021345315215
 30
0.0
 11
62.45049882047806
 21
224.3021345315215
 31
0.0
  0
LINE
  5
D37
330
D
100
AcDbEntity
 67
     1
  8
AM_VIS
100
AcDbLine
 10
62.45049882047812
 20
206.3021345315217
 30
0.0
 11
62.45049882047812
 21
208.3021345315217
 31
0.0
  0
LINE
  5
D38
330
D
100
AcDbEntity
 67
     1
  8
AM_VIS
100
AcDbLine
 10
79.57666045004902
 20
236.7021345315215
 30
0.0
 11
79.82590174367874
 21
236.7021345315215
 31
0.0
  0
LINE
  5
D39
330
D
100
AcDbEntity
 67
     1
  8
AM_VIS
100
AcDbLine
 10
79.82590174367874
 20
236.7021345315215
 30
0.0
 11
79.95049882089768
 21
236.7021345315215
 31
0.0
  0
LINE
  5
D3A
330
D
100
AcDbEntity
 67
     1
  8
AM_VIS
100
AcDbLine
 10
77.25879786601672
 20
236.7021345315215
 30
0.0
 11
77.26010109314609
 21
236.7021345315215
 31
0.0
  0
LINE
  5
D3B
330
D
100
AcDbEntity
 67
     1
  8
AM_VIS
100
AcDbLine
 10
77.26010109314609
 20
236.3021345315215
 30
0.0
 11
77.26010109314609
 21
236.7021345315215
 31
0.0
  0
LINE
  5
D3C
330
D
100
AcDbEntity
 67
     1
  8
AM_VIS
100
AcDbLine
 10
77.26010109314609
 20
236.7021345315215
 30
0.0
 11
77.78627715747552
 21
236.7021345315215
 31
0.0
  0
LINE
  5
D3D
330
D
100
AcDbEntity
 67
     1
  8
AM_VIS
100
AcDbLine
 10
77.78627715747552
 20
236.7021345315215
 30
0.0
 11
78.81647450447838
 21
236.7021345315215
 31
0.0
  0
LINE
  5
D3E
330
D
100
AcDbEntity
 67
     1
  8
AM_VIS
100
AcDbLine
 10
78.81647450447838
 20
236.3021345315215
 30
0.0
 11
78.81647450447838
 21
236.7021345315215
 31
0.0
  0
LINE
  5
D3F
330
D
100
AcDbEntity
 67
     1
  8
AM_VIS
100
AcDbLine
 10
78.81647450447838
 20
236.7021345315215
 30
0.0
 11
79.71374316154538
 21
236.7021345315215
 31
0.0
  0
LINE
  5
D40
330
D
100
AcDbEntity
 67
     1
  8
AM_VIS
100
AcDbLine
 10
79.71374316154538
 20
236.7021345315215
 30
0.0
 11
79.95049882089773
 21
236.7021345315215
 31
0.0
  0
LINE
  5
D41
330
D
100
AcDbEntity
 67
     1
  8
AM_VIS
100
AcDbLine
 10
78.70708527005195
 20
236.7021345315215
 30
0.0
 11
79.01448286552863
 21
236.7021345315215
 31
0.0
  0
LINE
  5
D42
330
D
100
AcDbEntity
 67
     1
  8
AM_VIS
100
AcDbLine
 10
79.01448286552863
 20
236.7021345315215
 30
0.0
 11
79.31911111329828
 21
236.7021345315215
 31
0.0
  0
LINE
  5
D43
330
D
100
AcDbEntity
 67
     1
  8
AM_VIS
100
AcDbLine
 10
67.65185177431527
 20
236.3021345315215
 30
0.0
 11
62.45049882047812
 21
236.3021345315215
 31
0.0
  0
LINE
  5
D44
330
D
100
AcDbEntity
 67
     1
  8
AM_VIS
100
AcDbLine
 10
72.99919973674263
 20
236.3021345315215
 30
0.0
 11
68.97255842419856
 21
236.3021345315215
 31
0.0
  0
LINE
  5
D45
330
D
100
AcDbEntity
 67
     1
  8
AM_VIS
100
AcDbLine
 10
96.97755800491387
 20
236.3021345315215
 30
0.0
 11
80.9234396360422
 21
236.3021345315215
 31
0.0
  0
LINE
  5
D46
330
D
100
AcDbEntity
 67
     1
  8
AM_VIS
100
AcDbLine
 10
108.9284392167576
 20
236.3021345315215
 30
0.0
 11
104.9017979042135
 21
236.3021345315215
 31
0.0
  0
LINE
  5
D47
330
D
100
AcDbEntity
 67
     1
  8
AM_VIS
100
AcDbLine
 10
115.4504988204781
 20
236.3021345315215
 30
0.0
 11
110.2491458666409
 21
236.3021345315215
 31
0.0
  0
LINE
  5
D48
330
D
100
AcDbEntity
 67
     1
  8
AM_VIS
100
AcDbLine
 10
79.95049882047806
 20
184.3021345315215
 30
0.0
 11
97.95049882047806
 21
184.3021345315215
 31
0.0
  0
ELLIPSE
  5
D49
330
D
100
AcDbEntity
 67
     1
  8
AM_VIS
100
AcDbEllipse
 10
78.76472442674639
 20
171.3405960699831
 30
0.0
 11
-0.0000000000000342
 21
13.46153846153844
 31
0.0
210
0.0
220
0.0
230
1.0
 40
0.5200000000000007
 41
0.0000000000000091
 42
0.224188495278453
  0
ARC
  5
D4A
330
D
100
AcDbEntity
 67
     1
  8
AM_VIS
100
AcDbCircle
 10
75.45360265929161
 20
180.0700151256856
 30
0.0
 40
4.732639982687105
100
AcDbArc
 50
68.23435583881764
 51
89.15016952064636
  0
LINE
  5
D4B
330
D
100
AcDbEntity
 67
     1
  8
AM_VIS
100
AcDbLine
 10
99.13627321420978
 20
184.8021345315215
 30
0.0
 11
78.76472442674629
 21
184.8021345315215
 31
0.0
  0
ARC
  5
D4C
330
D
100
AcDbEntity
 67
     1
  8
AM_VIS
100
AcDbCircle
 10
102.4473949816646
 20
180.0700151256848
 30
0.0
 40
4.732639982687919
100
AcDbArc
 50
90.84983047935528
 51
111.7656441611808
  0
ELLIPSE
  5
D4D
330
D
100
AcDbEntity
 67
     1
  8
AM_VIS
100
AcDbEllipse
 10
99.13627321420984
 20
171.3405960699831
 30
0.0
 11
-0.0000000000000349
 21
13.46153846153844
 31
0.0
210
0.0
220
0.0
230
1.0
 40
0.5200000000000006
 41
6.058996811901148
 42
6.283185307179594
  0
LINE
  5
D4E
330
D
100
AcDbEntity
 67
     1
  8
AM_VIS
100
AcDbLine
 10
99.13627321420984
 20
195.8021345315215
 30
0.0
 11
78.76472442674634
 21
195.8021345315215
 31
0.0
  0
ARC
  5
D4F
330
D
100
AcDbEntity
 67
     1
  8
AM_VIS
100
AcDbCircle
 10
114.5687030981834
 20
195.4678579684875
 30
0.0
 40
0.7827040405504353
100
AcDbArc
 50
1.124568389007435
 51
54.13168360728157
  0
LINE
  5
D50
330
D
100
AcDbEntity
 67
     1
  8
AM_VIS
100
AcDbLine
 10
115.4504988204781
 20
232.9021345315215
 30
0.0
 11
115.4504988204781
 21
235.3021345315215
 31
0.0
  0
LINE
  5
D51
330
D
100
AcDbEntity
 67
     1
  8
AM_VIS
100
AcDbLine
 10
113.3504988204781
 20
232.5021345315215
 30
0.0
 11
115.4504988204781
 21
232.9021345315215
 31
0.0
  0
LINE
  5
D52
330
D
100
AcDbEntity
 67
     1
  8
AM_VIS
100
AcDbLine
 10
113.3504988204781
 20
229.1021345315216
 30
0.0
 11
113.3504988204781
 21
232.5021345315215
 31
0.0
  0
LINE
  5
D53
330
D
100
AcDbEntity
 67
     1
  8
AM_VIS
100
AcDbLine
 10
115.4504988204781
 20
228.7021345315215
 30
0.0
 11
113.3504988204781
 21
229.1021345315215
 31
0.0
  0
LINE
  5
D54
330
D
100
AcDbEntity
 67
     1
  8
AM_VIS
100
AcDbLine
 10
115.4504988204781
 20
226.3021345315215
 30
0.0
 11
115.4504988204781
 21
228.7021345315216
 31
0.0
  0
LINE
  5
D55
330
D
100
AcDbEntity
 67
     1
  8
AM_VIS
100
AcDbLine
 10
112.4504988204781
 20
226.3021345315215
 30
0.0
 11
115.4504988204781
 21
226.3021345315215
 31
0.0
  0
LINE
  5
D56
330
D
100
AcDbEntity
 67
     1
  8
AM_VIS
100
AcDbLine
 10
112.4504988204781
 20
206.3021345315215
 30
0.0
 11
112.4504988204781
 21
226.3021345315215
 31
0.0
  0
LINE
  5
D57
330
D
100
AcDbEntity
 67
     1
  8
AM_VIS
100
AcDbLine
 10
115.4504988204781
 20
206.3021345315217
 30
0.0
 11
112.4504988204781
 21
206.3021345315217
 31
0.0
  0
LINE
  5
D58
330
D
100
AcDbEntity
 67
     1
  8
AM_VIS
100
AcDbLine
 10
115.4504988204781
 20
203.9021345315215
 30
0.0
 11
115.4504988204781
 21
206.3021345315215
 31
0.0
  0
LINE
  5
D59
330
D
100
AcDbEntity
 67
     1
  8
AM_VIS
100
AcDbLine
 10
113.3504988204781
 20
203.5021345315215
 30
0.0
 11
115.4504988204781
 21
203.9021345315215
 31
0.0
  0
LINE
  5
D5A
330
D
100
AcDbEntity
 67
     1
  8
AM_VIS
100
AcDbLine
 10
113.3504988204781
 20
200.1021345315215
 30
0.0
 11
113.3504988204781
 21
203.5021345315215
 31
0.0
  0
LINE
  5
D5B
330
D
100
AcDbEntity
 67
     1
  8
AM_VIS
100
AcDbLine
 10
115.4504988204781
 20
199.7021345315215
 30
0.0
 11
113.3504988204781
 21
200.1021345315216
 31
0.0
  0
LINE
  5
D5C
330
D
100
AcDbEntity
 67
     1
  8
AM_VIS
100
AcDbLine
 10
115.3512563808209
 20
195.4832194433787
 30
0.0
 11
115.3512563808209
 21
195.8021345315215
 31
0.0
  0
LINE
  5
D5D
330
D
100
AcDbEntity
 67
     1
  8
AM_VIS
100
AcDbLine
 10
64.55049882047808
 20
200.1021345315215
 30
0.0
 11
62.45049882047812
 21
199.7021345315215
 31
0.0
  0
LINE
  5
D5E
330
D
100
AcDbEntity
 67
     1
  8
AM_VIS
100
AcDbLine
 10
64.55049882047808
 20
203.5021345315215
 30
0.0
 11
64.55049882047808
 21
200.1021345315216
 31
0.0
  0
LINE
  5
D5F
330
D
100
AcDbEntity
 67
     1
  8
AM_VIS
100
AcDbLine
 10
62.45049882047812
 20
203.9021345315215
 30
0.0
 11
64.55049882047808
 21
203.5021345315215
 31
0.0
  0
LINE
  5
D60
330
D
100
AcDbEntity
 67
     1
  8
AM_VIS
100
AcDbLine
 10
62.45049882047812
 20
203.9021345315215
 30
0.0
 11
62.45049882047812
 21
206.3021345315215
 31
0.0
  0
LINE
  5
D61
330
D
100
AcDbEntity
 67
     1
  8
AM_VIS
100
AcDbLine
 10
65.45049882047812
 20
206.3021345315215
 30
0.0
 11
62.45049882047812
 21
206.3021345315215
 31
0.0
  0
LINE
  5
D62
330
D
100
AcDbEntity
 67
     1
  8
AM_VIS
100
AcDbLine
 10
65.45049882047812
 20
226.3021345315215
 30
0.0
 11
65.45049882047812
 21
206.3021345315215
 31
0.0
  0
LINE
  5
D63
330
D
100
AcDbEntity
 67
     1
  8
AM_VIS
100
AcDbLine
 10
62.45049882047812
 20
226.3021345315214
 30
0.0
 11
65.45049882047812
 21
226.3021345315214
 31
0.0
  0
LINE
  5
D64
330
D
100
AcDbEntity
 67
     1
  8
AM_VIS
100
AcDbLine
 10
62.45049882047812
 20
226.3021345315215
 30
0.0
 11
62.45049882047812
 21
228.7021345315216
 31
0.0
  0
LINE
  5
D65
330
D
100
AcDbEntity
 67
     1
  8
AM_VIS
100
AcDbLine
 10
64.55049882047814
 20
229.1021345315216
 30
0.0
 11
62.45049882047812
 21
228.7021345315216
 31
0.0
  0
LINE
  5
D66
330
D
100
AcDbEntity
 67
     1
  8
AM_VIS
100
AcDbLine
 10
64.55049882047808
 20
232.5021345315215
 30
0.0
 11
64.55049882047808
 21
229.1021345315215
 31
0.0
  0
LINE
  5
D67
330
D
100
AcDbEntity
 67
     1
  8
AM_VIS
100
AcDbLine
 10
62.45049882047812
 20
232.9021345315215
 30
0.0
 11
64.55049882047808
 21
232.5021345315215
 31
0.0
  0
LINE
  5
D68
330
D
100
AcDbEntity
 67
     1
  8
AM_VIS
100
AcDbLine
 10
62.45049882047812
 20
232.9021345315215
 30
0.0
 11
62.45049882047812
 21
235.3021345315215
 31
0.0
  0
ARC
  5
D69
330
D
100
AcDbEntity
 67
     1
  8
AM_VIS
100
AcDbCircle
 10
63.33269082423669
 20
195.4676505497834
 30
0.0
 40
0.7831043419563554
100
AcDbArc
 50
125.8829202070726
 51
178.8608277966428
  0
LINE
  5
D6A
330
D
100
AcDbEntity
 67
     1
  8
AM_VIS
100
AcDbLine
 10
62.5497412601353
 20
195.8021345315215
 30
0.0
 11
62.5497412601353
 21
195.4832194433787
 31
0.0
  0
LINE
  5
D6B
330
D
100
AcDbEntity
 67
     1
  8
AM_VIS
100
AcDbLine
 10
115.3512563808209
 20
195.8021345315215
 30
0.0
 11
115.4504988204781
 21
195.8021345315215
 31
0.0
  0
LINE
  5
D6C
330
D
100
AcDbEntity
 67
     1
  8
AM_VIS
100
AcDbLine
 10
62.45049882047812
 20
195.8021345315215
 30
0.0
 11
62.5497412601353
 21
195.8021345315215
 31
0.0
  0
LINE
  5
D6D
330
D
100
AcDbEntity
 67
     1
  8
AM_VIS
100
AcDbLine
 10
62.45049882047812
 20
195.8021345315215
 30
0.0
 11
62.45049882047812
 21
199.7021345315215
 31
0.0
  0
LINE
  5
D6E
330
D
100
AcDbEntity
 67
     1
  8
AM_VIS
100
AcDbLine
 10
62.45049882047812
 20
184.8021345315215
 30
0.0
 11
62.45049882047812
 21
195.8021345315215
 31
0.0
  0
LINE
  5
D6F
330
D
100
AcDbEntity
 67
     1
  8
AM_VIS
100
AcDbLine
 10
62.45049882047812
 20
184.8021345315215
 30
0.0
 11
62.45049882047812
 21
182.8532959513544
 31
0.0
  0
LINE
  5
D70
330
D
100
AcDbEntity
 67
     1
  8
AM_VIS
100
AcDbLine
 10
62.45047573492013
 20
182.8532832658802
 30
0.0
 11
62.75333809505582
 21
182.3021216308178
 31
0.0
  0
LINE
  5
D71
330
D
100
AcDbEntity
 67
     1
  8
AM_VIS
100
AcDbLine
 10
77.450498820478
 20
182.3021345315216
 30
0.0
 11
79.95049882047806
 21
182.3021345315216
 31
0.0
  0
LINE
  5
D72
330
D
100
AcDbEntity
 67
     1
  8
AM_VIS
100
AcDbLine
 10
97.95049882047806
 20
182.3021345315216
 30
0.0
 11
100.4504988204782
 21
182.3021345315216
 31
0.0
  0
LINE
  5
D73
330
D
100
AcDbEntity
 67
     1
  8
AM_VIS
100
AcDbLine
 10
115.4504988204781
 20
184.8021345315215
 30
0.0
 11
115.4504988204781
 21
182.8532959513543
 31
0.0
  0
LINE
  5
D74
330
D
100
AcDbEntity
 67
     1
  8
AM_VIS
100
AcDbLine
 10
115.450498820478
 20
195.8021345315215
 30
0.0
 11
115.450498820478
 21
184.8021345315215
 31
0.0
  0
LINE
  5
D75
330
D
100
AcDbEntity
 67
     1
  8
AM_VIS
100
AcDbLine
 10
115.4504988204781
 20
195.8021345315215
 30
0.0
 11
115.4504988204781
 21
199.7021345315215
 31
0.0
  0
LINE
  5
D76
330
D
100
AcDbEntity
 67
     1
  8
AM_VIS
100
AcDbLine
 10
115.1476595459005
 20
182.3021216308179
 30
0.0
 11
115.4505219060363
 21
182.8532832658802
 31
0.0
  0
LINE
  5
D77
330
D
100
AcDbEntity
 67
     1
  8
AM_VIS
100
AcDbLine
 10
108.9504988208978
 20
236.3021345315215
 30
0.0
 11
108.9504988208978
 21
238.3021345315215
 31
0.0
  0
LINE
  5
D78
330
D
100
AcDbEntity
 67
     1
  8
AM_VIS
100
AcDbLine
 10
77.25879786601677
 20
236.3021345315215
 30
0.0
 11
77.25879786601677
 21
236.7021345315215
 31
0.0
  0
LINE
  5
D79
330
D
100
AcDbEntity
 67
     1
  8
AM_VIS
100
AcDbLine
 10
62.45049882047812
 20
184.8021345315215
 30
0.0
 11
75.523796210559
 21
184.8021345315215
 31
0.0
  0
LINE
  5
D7A
330
D
100
AcDbEntity
 67
     1
  8
AM_VIS
100
AcDbLine
 10
91.95049882089767
 20
238.3021345315215
 30
0.0
 11
108.9504988208978
 21
238.3021345315215
 31
0.0
  0
LINE
  5
D7B
330
D
100
AcDbEntity
 67
     1
  8
AM_VIS
100
AcDbLine
 10
62.45049882047812
 20
235.3021345315215
 30
0.0
 11
62.45049882047812
 21
236.3021345315215
 31
0.0
  0
LINE
  5
D7C
330
D
100
AcDbEntity
 67
     1
  8
AM_VIS
100
AcDbLine
 10
68.97255842419856
 20
236.3021345315215
 30
0.0
 11
67.65185177431527
 21
236.3021345315215
 31
0.0
  0
LINE
  5
D7D
330
D
100
AcDbEntity
 67
     1
  8
AM_VIS
100
AcDbLine
 10
72.99919973674263
 20
236.3021345315215
 30
0.0
 11
80.9234396360422
 21
236.3021345315215
 31
0.0
  0
LINE
  5
D7E
330
D
100
AcDbEntity
 67
     1
  8
AM_VIS
100
AcDbLine
 10
96.97755800491393
 20
236.3021345315215
 30
0.0
 11
104.9017979042135
 21
236.3021345315215
 31
0.0
  0
LINE
  5
D7F
330
D
100
AcDbEntity
 67
     1
  8
AM_VIS
100
AcDbLine
 10
110.2491458666409
 20
236.3021345315215
 30
0.0
 11
108.9284392167576
 21
236.3021345315215
 31
0.0
  0
LINE
  5
D80
330
D
100
AcDbEntity
 67
     1
  8
AM_VIS
100
AcDbLine
 10
115.4504988204781
 20
236.3021345315215
 30
0.0
 11
115.4504988204781
 21
235.3021345315215
 31
0.0
  0
LINE
  5
D81
330
D
100
AcDbEntity
 67
     1
  8
AM_VIS
100
AcDbLine
 10
115.450498820478
 20
184.8021345315215
 30
0.0
 11
102.3772014303971
 21
184.8021345315215
 31
0.0
  0
LINE
  5
D82
330
D
100
AcDbEntity
 67
     1
  8
AM_VIS
100
AcDbLine
 10
102.1457065578123
 20
195.8021345315215
 30
0.0
 11
114.6596411584481
 21
195.8021345315215
 31
0.0
  0
LINE
  5
D83
330
D
100
AcDbEntity
 67
     1
  8
AM_VIS
100
AcDbLine
 10
99.13627321420984
 20
195.8021345315215
 30
0.0
 11
102.1457065578123
 21
195.8021345315215
 31
0.0
  0
LINE
  5
D84
330
D
100
AcDbEntity
 67
     1
  8
AM_VIS
100
AcDbLine
 10
75.75529108314379
 20
195.8021345315215
 30
0.0
 11
78.76472442674634
 21
195.8021345315215
 31
0.0
  0
LINE
  5
D85
330
D
100
AcDbEntity
 67
     1
  8
AM_VIS
100
AcDbLine
 10
63.24135648250813
 20
195.8021345315215
 30
0.0
 11
75.75529108314379
 21
195.8021345315215
 31
0.0
  0
LINE
  5
D86
330
D
100
AcDbEntity
 67
     1
  8
AM_VIS
100
AcDbLine
 10
62.75336157229777
 20
182.3021345315216
 30
0.0
 11
77.45049882047794
 21
182.3021345315216
 31
0.0
  0
LINE
  5
D87
330
D
100
AcDbEntity
 67
     1
  8
AM_VIS
100
AcDbLine
 10
100.4504988204781
 20
182.3021345315216
 30
0.0
 11
115.1476360686584
 21
182.3021345315216
 31
0.0
  0
LINE
  5
D88
330
D
100
AcDbEntity
 67
     1
  8
AM_VIS
100
AcDbLine
 10
192.61106857792
 20
263.2021345315215
 30
0.0
 11
192.61106857792
 21
263.3021345315216
 31
0.0
  0
LINE
  5
D89
330
D
100
AcDbEntity
 67
     1
  8
AM_VIS
100
AcDbLine
 10
198.9971267255116
 20
259.4402543161698
 30
0.0
 11
198.9971267255116
 21
262.7402543161699
 31
0.0
  0
LINE
  5
D8A
330
D
100
AcDbEntity
 67
     1
  8
AM_VIS
100
AcDbLine
 10
198.9971267255116
 20
262.7402543161699
 30
0.0
 11
198.2092805231018
 21
263.2021345315215
 31
0.0
  0
LINE
  5
D8B
330
D
100
AcDbEntity
 67
     1
  8
AM_VIS
100
AcDbLine
 10
184.2250104303285
 20
262.7402543161699
 30
0.0
 11
184.2250104303285
 21
259.4402543161698
 31
0.0
  0
LINE
  5
D8C
330
D
100
AcDbEntity
 67
     1
  8
AM_VIS
100
AcDbLine
 10
185.0128566327382
 20
263.2021345315215
 30
0.0
 11
184.2250104303285
 21
262.7402543161699
 31
0.0
  0
LINE
  5
D8D
330
D
100
AcDbEntity
 67
     1
  8
AM_VIS
100
AcDbLine
 10
185.8657352545277
 20
262.7402543161699
 30
0.0
 11
185.8657352545277
 21
259.4402543161698
 31
0.0
  0
LINE
  5
D8E
330
D
100
AcDbEntity
 67
     1
  8
AM_VIS
100
AcDbLine
 10
186.4785708090229
 20
263.2021345315215
 30
0.0
 11
185.8657352545277
 21
262.7402543161699
 31
0.0
  0
LINE
  5
D8F
330
D
100
AcDbEntity
 67
     1
  8
AM_VIS
100
AcDbLine
 10
185.3151280186544
 20
263.2021345315215
 30
0.0
 11
185.3151280186544
 21
259.9021345315216
 31
0.0
  0
LINE
  5
D90
330
D
100
AcDbEntity
 67
     1
  8
AM_VIS
100
AcDbLine
 10
184.5633739220257
 20
259.4402543161698
 30
0.0
 11
184.5633739220257
 21
262.7402543161699
 31
0.0
  0
LINE
  5
D91
330
D
100
AcDbEntity
 67
     1
  8
AM_VIS
100
AcDbLine
 10
184.5633739220257
 20
262.7402543161699
 30
0.0
 11
185.3151280186544
 21
263.2021345315215
 31
0.0
  0
LINE
  5
D92
330
D
100
AcDbEntity
 67
     1
  8
AM_VIS
100
AcDbLine
 10
189.0459175029775
 20
262.7402543161699
 30
0.0
 11
189.0459175029775
 21
259.4402543161698
 31
0.0
  0
LINE
  5
D93
330
D
100
AcDbEntity
 67
     1
  8
AM_VIS
100
AcDbLine
 10
189.3195336176381
 20
263.2021345315215
 30
0.0
 11
189.0459175029775
 21
262.7402543161699
 31
0.0
  0
LINE
  5
D94
330
D
100
AcDbEntity
 67
     1
  8
AM_VIS
100
AcDbLine
 10
187.3043915930202
 20
263.2021345315215
 30
0.0
 11
187.3043915930202
 21
259.9021345315216
 31
0.0
  0
LINE
  5
D95
330
D
100
AcDbEntity
 67
     1
  8
AM_VIS
100
AcDbLine
 10
186.790161505271
 20
259.4402543161698
 30
0.0
 11
186.790161505271
 21
262.7402543161699
 31
0.0
  0
LINE
  5
D96
330
D
100
AcDbEntity
 67
     1
  8
AM_VIS
100
AcDbLine
 10
186.790161505271
 20
262.7402543161699
 30
0.0
 11
187.3043915930202
 21
263.2021345315215
 31
0.0
  0
LINE
  5
D97
330
D
100
AcDbEntity
 67
     1
  8
AM_VIS
100
AcDbLine
 10
192.913429910422
 20
262.7402543161699
 30
0.0
 11
192.913429910422
 21
259.4402543161698
 31
0.0
  0
LINE
  5
D98
330
D
100
AcDbEntity
 67
     1
  8
AM_VIS
100
AcDbLine
 10
192.7745113682884
 20
263.2021345315215
 30
0.0
 11
192.7745113682884
 21
259.9021345315216
 31
0.0
  0
LINE
  5
D99
330
D
100
AcDbEntity
 67
     1
  8
AM_VIS
100
AcDbLine
 10
192.7745113682884
 20
263.2021345315215
 30
0.0
 11
192.913429910422
 21
262.7402543161699
 31
0.0
  0
LINE
  5
D9A
330
D
100
AcDbEntity
 67
     1
  8
AM_VIS
100
AcDbLine
 10
190.4476257875516
 20
263.2021345315215
 30
0.0
 11
190.4476257875516
 21
259.9021345315216
 31
0.0
  0
LINE
  5
D9B
330
D
100
AcDbEntity
 67
     1
  8
AM_VIS
100
AcDbLine
 10
190.308707245418
 20
259.4402543161698
 30
0.0
 11
190.308707245418
 21
262.7402543161699
 31
0.0
  0
LINE
  5
D9C
330
D
100
AcDbEntity
 67
     1
  8
AM_VIS
100
AcDbLine
 10
190.308707245418
 20
262.7402543161699
 30
0.0
 11
190.4476257875516
 21
263.2021345315215
 31
0.0
  0
LINE
  5
D9D
330
D
100
AcDbEntity
 67
     1
  8
AM_VIS
100
AcDbLine
 10
196.431975650569
 20
262.7402543161699
 30
0.0
 11
196.431975650569
 21
259.4402543161698
 31
0.0
  0
LINE
  5
D9E
330
D
100
AcDbEntity
 67
     1
  8
AM_VIS
100
AcDbLine
 10
195.9177455628198
 20
263.2021345315215
 30
0.0
 11
195.9177455628198
 21
259.9021345315216
 31
0.0
  0
LINE
  5
D9F
330
D
100
AcDbEntity
 67
     1
  8
AM_VIS
100
AcDbLine
 10
195.9177455628198
 20
263.2021345315215
 30
0.0
 11
196.431975650569
 21
262.7402543161699
 31
0.0
  0
LINE
  5
DA0
330
D
100
AcDbEntity
 67
     1
  8
AM_VIS
100
AcDbLine
 10
194.1762196528625
 20
259.4402543161698
 30
0.0
 11
194.1762196528625
 21
262.7402543161699
 31
0.0
  0
LINE
  5
DA1
330
D
100
AcDbEntity
 67
     1
  8
AM_VIS
100
AcDbLine
 10
194.1762196528625
 20
262.7402543161699
 30
0.0
 11
193.902603538202
 21
263.2021345315215
 31
0.0
  0
LINE
  5
DA2
330
D
100
AcDbEntity
 67
     1
  8
AM_VIS
100
AcDbLine
 10
198.6587632338144
 20
262.7402543161699
 30
0.0
 11
198.6587632338144
 21
259.4402543161698
 31
0.0
  0
LINE
  5
DA3
330
D
100
AcDbEntity
 67
     1
  8
AM_VIS
100
AcDbLine
 10
197.9070091371857
 20
263.2021345315215
 30
0.0
 11
197.9070091371857
 21
259.9021345315216
 31
0.0
  0
LINE
  5
DA4
330
D
100
AcDbEntity
 67
     1
  8
AM_VIS
100
AcDbLine
 10
197.9070091371857
 20
263.2021345315215
 30
0.0
 11
198.6587632338144
 21
262.7402543161699
 31
0.0
  0
LINE
  5
DA5
330
D
100
AcDbEntity
 67
     1
  8
AM_VIS
100
AcDbLine
 10
197.3564019013124
 20
259.4402543161698
 30
0.0
 11
197.3564019013124
 21
262.7402543161699
 31
0.0
  0
LINE
  5
DA6
330
D
100
AcDbEntity
 67
     1
  8
AM_VIS
100
AcDbLine
 10
197.3564019013124
 20
262.7402543161699
 30
0.0
 11
196.7435663468172
 21
263.2021345315215
 31
0.0
  0
LINE
  5
DA7
330
D
100
AcDbEntity
 67
     1
  8
AM_VIS
100
AcDbLine
 10
184.5633739220257
 20
259.4402543161698
 30
0.0
 11
185.3151280186544
 21
259.9021345315216
 31
0.0
  0
LINE
  5
DA8
330
D
100
AcDbEntity
 67
     1
  8
AM_VIS
100
AcDbLine
 10
186.790161505271
 20
259.4402543161698
 30
0.0
 11
187.3043915930202
 21
259.9021345315216
 31
0.0
  0
LINE
  5
DA9
330
D
100
AcDbEntity
 67
     1
  8
AM_VIS
100
AcDbLine
 10
190.308707245418
 20
259.4402543161698
 30
0.0
 11
190.4476257875516
 21
259.9021345315216
 31
0.0
  0
LINE
  5
DAA
330
D
100
AcDbEntity
 67
     1
  8
AM_VIS
100
AcDbLine
 10
192.7745113682884
 20
259.9021345315216
 30
0.0
 11
192.913429910422
 21
259.4402543161698
 31
0.0
  0
LINE
  5
DAB
330
D
100
AcDbEntity
 67
     1
  8
AM_VIS
100
AcDbLine
 10
195.9177455628198
 20
259.9021345315216
 30
0.0
 11
196.431975650569
 21
259.4402543161698
 31
0.0
  0
LINE
  5
DAC
330
D
100
AcDbEntity
 67
     1
  8
AM_VIS
100
AcDbLine
 10
197.9070091371857
 20
259.9021345315216
 30
0.0
 11
198.6587632338144
 21
259.4402543161698
 31
0.0
  0
LINE
  5
DAD
330
D
100
AcDbEntity
 67
     1
  8
AM_VIS
100
AcDbLine
 10
196.61106857792
 20
263.2021345315215
 30
0.0
 11
196.61106857792
 21
263.3021345315216
 31
0.0
  0
LINE
  5
DAE
330
D
100
AcDbEntity
 67
     1
  8
AM_VIS
100
AcDbLine
 10
199.11106857792
 20
251.9021345315215
 30
0.0
 11
199.11106857792
 21
259.4402543161698
 31
0.0
  0
LINE
  5
DAF
330
D
100
AcDbEntity
 67
     1
  8
AM_VIS
100
AcDbLine
 10
184.11106857792
 20
251.9021345315215
 30
0.0
 11
184.11106857792
 21
259.4402543161698
 31
0.0
  0
LINE
  5
DB0
330
D
100
AcDbEntity
 67
     1
  8
AM_VIS
100
AcDbLine
 10
198.3110685779201
 20
263.2021345315215
 30
0.0
 11
198.3110685779201
 21
263.1424605894046
 31
0.0
  0
LINE
  5
DB1
330
D
100
AcDbEntity
 67
     1
  8
AM_VIS
100
AcDbLine
 10
198.9971267255116
 20
259.5060386753299
 30
0.0
 11
199.1110685779201
 21
259.4402543161698
 31
0.0
  0
LINE
  5
DB2
330
D
100
AcDbEntity
 67
     1
  8
AM_VIS
100
AcDbLine
 10
184.9110685779201
 20
263.2021345315215
 30
0.0
 11
184.9110685779201
 21
263.1424605894046
 31
0.0
  0
LINE
  5
DB3
330
D
100
AcDbEntity
 67
     1
  8
AM_VIS
100
AcDbLine
 10
184.2250104303285
 20
259.5060386753298
 30
0.0
 11
184.11106857792
 21
259.4402543161698
 31
0.0
  0
LINE
  5
DB4
330
D
100
AcDbEntity
 67
     1
  8
AM_VIS
100
AcDbLine
 10
192.61106857792
 20
263.3021345315216
 30
0.0
 11
196.61106857792
 21
263.3021345315216
 31
0.0
  0
LINE
  5
DB5
330
D
100
AcDbEntity
 67
     1
  8
AM_VIS
100
AcDbLine
 10
199.11106857792
 20
251.9021345315215
 30
0.0
 11
184.11106857792
 21
251.9021345315215
 31
0.0
  0
LINE
  5
DB6
330
D
100
AcDbEntity
 67
     1
  8
AM_VIS
100
AcDbLine
 10
198.2092805231018
 20
263.2021345315215
 30
0.0
 11
198.3110685779201
 21
263.2021345315215
 31
0.0
  0
LINE
  5
DB7
330
D
100
AcDbEntity
 67
     1
  8
AM_VIS
100
AcDbLine
 10
199.11106857792
 20
259.4402543161698
 30
0.0
 11
198.9971267255116
 21
259.4402543161698
 31
0.0
  0
LINE
  5
DB8
330
D
100
AcDbEntity
 67
     1
  8
AM_VIS
100
AcDbLine
 10
197.3564019013124
 20
262.7402543161699
 30
0.0
 11
196.431975650569
 21
262.7402543161699
 31
0.0
  0
LINE
  5
DB9
330
D
100
AcDbEntity
 67
     1
  8
AM_VIS
100
AcDbLine
 10
195.9177455628198
 20
263.2021345315215
 30
0.0
 11
196.7435663468172
 21
263.2021345315215
 31
0.0
  0
LINE
  5
DBA
330
D
100
AcDbEntity
 67
     1
  8
AM_VIS
100
AcDbLine
 10
197.9070091371857
 20
263.2021345315215
 30
0.0
 11
198.2092805231018
 21
263.2021345315215
 31
0.0
  0
LINE
  5
DBB
330
D
100
AcDbEntity
 67
     1
  8
AM_VIS
100
AcDbLine
 10
198.9971267255116
 20
262.7402543161699
 30
0.0
 11
198.6587632338144
 21
262.7402543161699
 31
0.0
  0
LINE
  5
DBC
330
D
100
AcDbEntity
 67
     1
  8
AM_VIS
100
AcDbLine
 10
194.1762196528625
 20
262.7402543161699
 30
0.0
 11
192.913429910422
 21
262.7402543161699
 31
0.0
  0
LINE
  5
DBD
330
D
100
AcDbEntity
 67
     1
  8
AM_VIS
100
AcDbLine
 10
192.7745113682884
 20
263.2021345315215
 30
0.0
 11
193.902603538202
 21
263.2021345315215
 31
0.0
  0
LINE
  5
DBE
330
D
100
AcDbEntity
 67
     1
  8
AM_VIS
100
AcDbLine
 10
190.308707245418
 20
262.7402543161699
 30
0.0
 11
189.0459175029775
 21
262.7402543161699
 31
0.0
  0
LINE
  5
DBF
330
D
100
AcDbEntity
 67
     1
  8
AM_VIS
100
AcDbLine
 10
189.3195336176381
 20
263.2021345315215
 30
0.0
 11
190.4476257875516
 21
263.2021345315215
 31
0.0
  0
LINE
  5
DC0
330
D
100
AcDbEntity
 67
     1
  8
AM_VIS
100
AcDbLine
 10
186.790161505271
 20
262.7402543161699
 30
0.0
 11
185.8657352545277
 21
262.7402543161699
 31
0.0
  0
LINE
  5
DC1
330
D
100
AcDbEntity
 67
     1
  8
AM_VIS
100
AcDbLine
 10
186.4785708090229
 20
263.2021345315215
 30
0.0
 11
187.3043915930202
 21
263.2021345315215
 31
0.0
  0
LINE
  5
DC2
330
D
100
AcDbEntity
 67
     1
  8
AM_VIS
100
AcDbLine
 10
184.5633739220257
 20
262.7402543161699
 30
0.0
 11
184.2250104303285
 21
262.7402543161699
 31
0.0
  0
LINE
  5
DC3
330
D
100
AcDbEntity
 67
     1
  8
AM_VIS
100
AcDbLine
 10
185.0128566327382
 20
263.2021345315215
 30
0.0
 11
185.3151280186544
 21
263.2021345315215
 31
0.0
  0
LINE
  5
DC4
330
D
100
AcDbEntity
 67
     1
  8
AM_VIS
100
AcDbLine
 10
184.9110685779201
 20
263.2021345315215
 30
0.0
 11
185.0128566327382
 21
263.2021345315215
 31
0.0
  0
LINE
  5
DC5
330
D
100
AcDbEntity
 67
     1
  8
AM_VIS
100
AcDbLine
 10
185.3151280186544
 20
263.2021345315215
 30
0.0
 11
186.4785708090229
 21
263.2021345315215
 31
0.0
  0
LINE
  5
DC6
330
D
100
AcDbEntity
 67
     1
  8
AM_VIS
100
AcDbLine
 10
187.3043915930202
 20
263.2021345315215
 30
0.0
 11
189.3195336176381
 21
263.2021345315215
 31
0.0
  0
LINE
  5
DC7
330
D
100
AcDbEntity
 67
     1
  8
AM_VIS
100
AcDbLine
 10
190.4476257875516
 20
263.2021345315215
 30
0.0
 11
192.7745113682884
 21
263.2021345315215
 31
0.0
  0
LINE
  5
DC8
330
D
100
AcDbEntity
 67
     1
  8
AM_VIS
100
AcDbLine
 10
193.902603538202
 20
263.2021345315215
 30
0.0
 11
195.9177455628198
 21
263.2021345315215
 31
0.0
  0
LINE
  5
DC9
330
D
100
AcDbEntity
 67
     1
  8
AM_VIS
100
AcDbLine
 10
196.7435663468172
 20
263.2021345315215
 30
0.0
 11
197.9070091371857
 21
263.2021345315215
 31
0.0
  0
LINE
  5
DCA
330
D
100
AcDbEntity
 67
     1
  8
AM_VIS
100
AcDbLine
 10
184.2250104303285
 20
259.4402543161698
 30
0.0
 11
184.11106857792
 21
259.4402543161698
 31
0.0
  0
LINE
  5
DCB
330
D
100
AcDbEntity
 67
     1
  8
AM_VIS
100
AcDbLine
 10
185.8657352545277
 20
259.4402543161698
 30
0.0
 11
184.5633739220258
 21
259.4402543161698
 31
0.0
  0
LINE
  5
DCC
330
D
100
AcDbEntity
 67
     1
  8
AM_VIS
100
AcDbLine
 10
185.3151280186544
 20
259.9021345315216
 30
0.0
 11
185.8657352545277
 21
259.9021345315216
 31
0.0
  0
LINE
  5
DCD
330
D
100
AcDbEntity
 67
     1
  8
AM_VIS
100
AcDbLine
 10
189.0459175029775
 20
259.4402543161698
 30
0.0
 11
186.790161505271
 21
259.4402543161698
 31
0.0
  0
LINE
  5
DCE
330
D
100
AcDbEntity
 67
     1
  8
AM_VIS
100
AcDbLine
 10
187.3043915930202
 20
259.9021345315216
 30
0.0
 11
189.0459175029775
 21
259.9021345315216
 31
0.0
  0
LINE
  5
DCF
330
D
100
AcDbEntity
 67
     1
  8
AM_VIS
100
AcDbLine
 10
192.913429910422
 20
259.4402543161698
 30
0.0
 11
190.308707245418
 21
259.4402543161698
 31
0.0
  0
LINE
  5
DD0
330
D
100
AcDbEntity
 67
     1
  8
AM_VIS
100
AcDbLine
 10
190.4476257875516
 20
259.9021345315216
 30
0.0
 11
192.7745113682884
 21
259.9021345315216
 31
0.0
  0
LINE
  5
DD1
330
D
100
AcDbEntity
 67
     1
  8
AM_VIS
100
AcDbLine
 10
196.431975650569
 20
259.4402543161698
 30
0.0
 11
194.1762196528625
 21
259.4402543161698
 31
0.0
  0
LINE
  5
DD2
330
D
100
AcDbEntity
 67
     1
  8
AM_VIS
100
AcDbLine
 10
194.1762196528625
 20
259.9021345315216
 30
0.0
 11
195.9177455628198
 21
259.9021345315216
 31
0.0
  0
LINE
  5
DD3
330
D
100
AcDbEntity
 67
     1
  8
AM_VIS
100
AcDbLine
 10
198.6587632338144
 20
259.4402543161698
 30
0.0
 11
197.3564019013124
 21
259.4402543161698
 31
0.0
  0
LINE
  5
DD4
330
D
100
AcDbEntity
 67
     1
  8
AM_VIS
100
AcDbLine
 10
197.3564019013124
 20
259.9021345315216
 30
0.0
 11
197.9070091371857
 21
259.9021345315216
 31
0.0
  0
LINE
  5
DD5
330
D
100
AcDbEntity
 67
     1
  8
AM_VIS
100
AcDbLine
 10
201.11106857792
 20
238.6021345315216
 30
0.0
 11
201.11106857792
 21
241.6021345315216
 31
0.0
  0
LINE
  5
DD6
330
D
100
AcDbEntity
 67
     1
  8
AM_VIS
100
AcDbLine
 10
200.6110685779201
 20
241.6021345315216
 30
0.0
 11
192.11106857792
 21
241.6021345315216
 31
0.0
  0
LINE
  5
DD7
330
D
100
AcDbEntity
 67
     1
  8
AM_VIS
100
AcDbLine
 10
200.6110685779201
 20
238.6021345315216
 30
0.0
 11
192.11106857792
 21
238.6021345315216
 31
0.0
  0
LINE
  5
DD8
330
D
100
AcDbEntity
 67
     1
  8
AM_VIS
100
AcDbLine
 10
191.11106857792
 20
241.6021345315216
 30
0.0
 11
182.61106857792
 21
241.6021345315216
 31
0.0
  0
LINE
  5
DD9
330
D
100
AcDbEntity
 67
     1
  8
AM_VIS
100
AcDbLine
 10
191.11106857792
 20
238.6021345315216
 30
0.0
 11
182.61106857792
 21
238.6021345315216
 31
0.0
  0
LINE
  5
DDA
330
D
100
AcDbEntity
 67
     1
  8
AM_VIS
100
AcDbLine
 10
182.11106857792
 20
241.6021345315216
 30
0.0
 11
182.11106857792
 21
238.6021345315216
 31
0.0
  0
LINE
  5
DDB
330
D
100
AcDbEntity
 67
     1
  8
AM_VIS
100
AcDbLine
 10
199.11106857792
 20
241.6021345315216
 30
0.0
 11
199.11106857792
 21
251.9021345315215
 31
0.0
  0
LINE
  5
DDC
330
D
100
AcDbEntity
 67
     1
  8
AM_VIS
100
AcDbLine
 10
184.11106857792
 20
241.6021345315216
 30
0.0
 11
184.11106857792
 21
251.9021345315215
 31
0.0
  0
LINE
  5
DDD
330
D
100
AcDbEntity
 67
     1
  8
AM_VIS
100
AcDbLine
 10
184.11106857792
 20
251.9021345315215
 30
0.0
 11
199.11106857792
 21
251.9021345315215
 31
0.0
  0
LINE
  5
DDE
330
D
100
AcDbEntity
 67
     1
  8
AM_VIS
100
AcDbLine
 10
200.6110685779201
 20
241.6021345315216
 30
0.0
 11
201.11106857792
 21
241.6021345315216
 31
0.0
  0
LINE
  5
DDF
330
D
100
AcDbEntity
 67
     1
  8
AM_VIS
100
AcDbLine
 10
191.11106857792
 20
241.6021345315216
 30
0.0
 11
192.11106857792
 21
241.6021345315216
 31
0.0
  0
LINE
  5
DE0
330
D
100
AcDbEntity
 67
     1
  8
AM_VIS
100
AcDbLine
 10
192.11106857792
 20
238.6021345315216
 30
0.0
 11
191.11106857792
 21
238.6021345315216
 31
0.0
  0
LINE
  5
DE1
330
D
100
AcDbEntity
 67
     1
  8
AM_VIS
100
AcDbLine
 10
201.11106857792
 20
238.6021345315216
 30
0.0
 11
200.6110685779201
 21
238.6021345315216
 31
0.0
  0
LINE
  5
DE2
330
D
100
AcDbEntity
 67
     1
  8
AM_VIS
100
AcDbLine
 10
182.61106857792
 20
238.6021345315216
 30
0.0
 11
182.11106857792
 21
238.6021345315216
 31
0.0
  0
LINE
  5
DE3
330
D
100
AcDbEntity
 67
     1
  8
AM_VIS
100
AcDbLine
 10
182.11106857792
 20
241.6021345315216
 30
0.0
 11
182.61106857792
 21
241.6021345315216
 31
0.0
  0
ARC
  5
DE4
330
D
100
AcDbEntity
 67
     1
  8
AM_VIS
100
AcDbCircle
 10
172.3168643683899
 20
107.9325003008942
 30
0.0
 40
1.500000058480389
100
AcDbArc
 50
180.5000010188191
 51
225.2499989175269
  0
ARC
  5
DE5
330
D
100
AcDbEntity
 67
     1
  8
AM_VIS
100
AcDbCircle
 10
182.3342042177532
 20
107.8695444142154
 30
0.0
 40
4.003878985514198
100
AcDbArc
 50
179.2863949080032
 51
194.4975014805243
  0
ARC
  5
DE6
330
D
100
AcDbEntity
 67
     1
  8
AM_VIS
100
AcDbCircle
 10
190.7840443329964
 20
107.8661750745989
 30
0.0
 40
6.671872385286093
100
AcDbArc
 50
351.3889509638656
 51
0.4571723938534619
  0
ARC
  5
DE7
330
D
100
AcDbEntity
 67
     1
  8
AM_VIS
100
AcDbCircle
 10
190.4380928392684
 20
107.8661750746036
 30
0.0
 40
6.671872385349199
100
AcDbArc
 50
179.5428276061888
 51
188.6110490360916
  0
ARC
  5
DE8
330
D
100
AcDbEntity
 67
     1
  8
AM_VIS
100
AcDbCircle
 10
208.9052729385447
 20
107.9325002440501
 30
0.0
 40
1.499999923256544
100
AcDbArc
 50
314.7499989561769
 51
359.5000011074723
  0
ARC
  5
DE9
330
D
100
AcDbEntity
 67
     1
  8
AM_VIS
100
AcDbCircle
 10
198.887932954259
 20
107.8695444142383
 30
0.0
 40
4.003878985703338
100
AcDbArc
 50
345.502498519839
 51
0.7136050916352412
  0
LINE
  5
DEA
330
D
100
AcDbEntity
 67
     1
  8
AM_VIS
100
AcDbLine
 10
197.4558551773987
 20
107.9194102510735
 30
0.0
 11
197.5669456244029
 21
184.3021343173655
 31
0.0
  0
LINE
  5
DEB
330
D
100
AcDbEntity
 67
     1
  8
AM_VIS
100
AcDbLine
 10
198.3610685861008
 20
183.8021345315216
 30
0.0
 11
198.3610685861008
 21
184.3021345315215
 31
0.0
  0
LINE
  5
DEC
330
D
100
AcDbEntity
 67
     1
  8
AM_VIS
100
AcDbLine
 10
202.8917310491696
 20
107.9194099035357
 30
0.0
 11
203.0753586267963
 21
182.3021339770751
 31
0.0
  0
LINE
  5
DED
330
D
100
AcDbEntity
 67
     1
  8
AM_VIS
100
AcDbLine
 10
210.4052157466635
 20
107.9194104704647
 30
0.0
 11
211.054343945461
 21
182.3021345315215
 31
0.0
  0
LINE
  5
DEE
330
D
100
AcDbEntity
 67
     1
  8
AM_VIS
100
AcDbLine
 10
170.1677932267407
 20
182.3021345315216
 30
0.0
 11
170.8169214255382
 21
107.9194104704646
 31
0.0
  0
LINE
  5
DEF
330
D
100
AcDbEntity
 67
     1
  8
AM_VIS
100
AcDbLine
 10
183.6551915477987
 20
184.3021343173655
 30
0.0
 11
183.7662819948029
 21
107.9194102510736
 31
0.0
  0
LINE
  5
DF0
330
D
100
AcDbEntity
 67
     1
  8
AM_VIS
100
AcDbLine
 10
178.1467785454053
 20
182.3021339770751
 30
0.0
 11
178.330406123032
 21
107.9194099035357
 31
0.0
  0
LINE
  5
DF1
330
D
100
AcDbEntity
 67
     1
  8
AM_VIS
100
AcDbLine
 10
182.8610685861008
 20
184.3021345315215
 30
0.0
 11
182.8610685861008
 21
183.8021345315216
 31
0.0
  0
LINE
  5
DF2
330
D
100
AcDbEntity
 67
     1
  8
AM_VIS
100
AcDbLine
 10
199.6110685861008
 20
183.8021345315216
 30
0.0
 11
198.3610685861008
 21
183.8021345315216
 31
0.0
  0
LINE
  5
DF3
330
D
100
AcDbEntity
 67
     1
  8
AM_VIS
100
AcDbLine
 10
182.8610685861008
 20
183.8021345315216
 30
0.0
 11
181.6110685861008
 21
183.8021345315216
 31
0.0
  0
ARC
  5
DF4
330
D
100
AcDbEntity
 67
     1
  8
AM_VIS
100
AcDbCircle
 10
147.457826519103
 20
163.5085607368688
 30
0.0
 40
22.31474947705162
100
AcDbArc
 50
0.753807461962733
 51
13.72270256236278
  0
LINE
  5
DF5
330
D
100
AcDbEntity
 67
     1
  8
AM_VIS
100
AcDbLine
 10
169.7706163705171
 20
163.8021342764579
 30
0.0
 11
170.1297675173002
 21
123.8021342697193
 31
0.0
  0
ARC
  5
DF6
330
D
100
AcDbEntity
 67
     1
  8
AM_VIS
100
AcDbCircle
 10
148.4593521128278
 20
123.6887751529881
 30
0.0
 40
21.67074105514878
100
AcDbArc
 50
346.9680208599387
 51
0.2997148811289425
  0
ARC
  5
DF7
330
D
100
AcDbEntity
 67
     1
  8
AM_VIS
100
AcDbCircle
 10
190.6110685861008
 20
158.8021345315216
 30
0.0
 40
5.000000000000006
100
AcDbArc
 50
0.0
 51
180.0
  0
ARC
  5
DF8
330
D
100
AcDbEntity
 67
     1
  8
AM_VIS
100
AcDbCircle
 10
232.7627850593716
 20
123.688775152988
 30
0.0
 40
21.67074105514638
100
AcDbArc
 50
179.7002851188711
 51
193.0319791400612
  0
LINE
  5
DF9
330
D
100
AcDbEntity
 67
     1
  8
AM_VIS
100
AcDbLine
 10
195.6110685861008
 20
158.8021345315216
 30
0.0
 11
195.6110685861008
 21
118.8021345315215
 31
0.0
  0
LINE
  5
DFA
330
D
100
AcDbEntity
 67
     1
  8
AM_VIS
100
AcDbLine
 10
185.6110685861008
 20
158.8021345315216
 30
0.0
 11
185.6110685861008
 21
118.8021345315215
 31
0.0
  0
ARC
  5
DFB
330
D
100
AcDbEntity
 67
     1
  8
AM_VIS
100
AcDbCircle
 10
190.6110685861008
 20
118.8021345315215
 30
0.0
 40
5.000000000000014
100
AcDbArc
 50
180.0
 51
0.0
  0
LINE
  5
DFC
330
D
100
AcDbEntity
 67
     1
  8
AM_VIS
100
AcDbLine
 10
211.0923696549015
 20
123.8021342697193
 30
0.0
 11
211.4515208016846
 21
163.8021342764579
 31
0.0
  0
ARC
  5
DFD
330
D
100
AcDbEntity
 67
     1
  8
AM_VIS
100
AcDbCircle
 10
233.7643106530966
 20
163.5085607368688
 30
0.0
 40
22.3147494770493
100
AcDbArc
 50
166.2772974376372
 51
179.2461925380372
  0
LINE
  5
DFE
330
D
100
AcDbEntity
 67
     1
  8
AM_VIS
100
AcDbLine
 10
205.7947267731413
 20
102.7368564680864
 30
0.0
 11
209.9612949477493
 21
106.8672222092822
 31
0.0
  0
LINE
  5
DFF
330
D
100
AcDbEntity
 67
     1
  8
AM_VIS
100
AcDbLine
 10
201.5093694144301
 20
102.733519227114
 30
0.0
 11
202.7746054626156
 21
106.8640724744241
 31
0.0
  0
LINE
  5
E00
330
D
100
AcDbEntity
 67
     1
  8
AM_VIS
100
AcDbLine
 10
196.6387582265358
 20
102.7355304146498
 30
0.0
 11
197.3875467315404
 21
106.8659824891419
 31
0.0
  0
LINE
  5
E01
330
D
100
AcDbEntity
 67
     1
  8
AM_VIS
100
AcDbLine
 10
183.8345904405133
 20
106.8659824926174
 30
0.0
 11
184.5833789456264
 21
102.7355304146436
 31
0.0
  0
LINE
  5
E02
330
D
100
AcDbEntity
 67
     1
  8
AM_VIS
100
AcDbLine
 10
178.4475317101761
 20
106.8640724677905
 30
0.0
 11
179.7127677578839
 21
102.7335192271443
 31
0.0
  0
LINE
  5
E03
330
D
100
AcDbEntity
 67
     1
  8
AM_VIS
100
AcDbLine
 10
171.260842220312
 20
106.867222215999
 30
0.0
 11
175.4274103989424
 21
102.7368564679673
 31
0.0
  0
LINE
  5
E04
330
D
100
AcDbEntity
 67
     1
  8
AM_VIS
100
AcDbLine
 10
196.4262266261561
 20
102.3021345315215
 30
0.0
 11
201.1535281047565
 21
102.3021345315215
 31
0.0
  0
SPLINE
  5
E05
330
D
100
AcDbEntity
 67
     1
  8
AM_VIS
100
AcDbSpline
210
0.0
220
0.0
230
1.0
 70
     8
 71
     3
 72
    12
 73
     8
 74
     0
 42
0.0000000001
 43
0.0000000001
 40
0.0
 40
0.0
 40
0.0
 40
0.0
 40
0.6063716823398666
 40
0.6063716823398666
 40
1.221752649812894
 40
1.221752649812894
 40
1.22398453609034
 40
1.22398453609034
 40
1.22398453609034
 40
1.22398453609034
 10
201.4984744896797
 20
102.7368564680866
 30
0.0
 10
201.4534861752511
 20
102.5981278342099
 30
0.0
 10
201.4002893544348
 20
102.4895911674556
 30
0.0
 10
201.2826524823426
 20
102.3406666223463
 30
0.0
 10
201.2189287291626
 20
102.3024115336916
 30
0.0
 10
201.1539974148767
 20
102.3021350311196
 30
0.0
 10
201.1537627633363
 20
102.3021345315215
 30
0.0
 10
201.1535281047565
 20
102.3021345315215
 30
0.0
  0
ARC
  5
E06
330
D
100
AcDbEntity
 67
     1
  8
AM_VIS
100
AcDbCircle
 10
204.7387047092211
 20
103.8021344762234
 30
0.0
 40
1.499999944701869
100
AcDbArc
 50
270.0
 51
314.7500017390438
  0
SPLINE
  5
E07
330
D
100
AcDbEntity
 67
     1
  8
AM_VIS
100
AcDbSpline
210
0.0
220
0.0
230
1.0
 70
     8
 71
     3
 72
    12
 73
     8
 74
     0
 42
0.0000000001
 43
0.0000000001
 40
0.0
 40
0.0
 40
0.0
 40
0.0
 40
0.5930711260102424
 40
0.5930711260102424
 40
1.190594073882472
 40
1.190594073882472
 40
1.192755197791122
 40
1.192755197791122
 40
1.192755197791122
 40
1.192755197791122
 10
196.6314434772678
 20
102.7368564680866
 30
0.0
 10
196.6048685741797
 20
102.5989427704955
 30
0.0
 10
196.5733034953327
 20
102.4900793704909
 30
0.0
 10
196.5032360393497
 20
102.340894706718
 30
0.0
 10
196.4652990462766
 20
102.3024124141991
 30
0.0
 10
196.4265062417228
 20
102.3021350313319
 30
0.0
 10
196.4263664363665
 20
102.3021345315215
 30
0.0
 10
196.4262266261561
 20
102.3021345315215
 30
0.0
  0
SPLINE
  5
E08
330
D
100
AcDbEntity
 67
     1
  8
AM_VIS
100
AcDbSpline
210
0.0
220
0.0
230
1.0
 70
     8
 71
     3
 72
    12
 73
     8
 74
     0
 42
0.0000000001
 43
0.0000000001
 40
-1.191072920065948
 40
-1.191072920065948
 40
-1.191072920065948
 40
-1.191072920065948
 40
-0.5977632662052392
 40
-0.5977632662052392
 40
0.0
 40
0.0
 40
0.0021619930931668
 40
0.0021619930931668
 40
0.0021619930931668
 40
0.0021619930931668
 10
184.5906936949339
 20
102.7368564680866
 30
0.0
 10
184.6172685980221
 20
102.5989427704955
 30
0.0
 10
184.6488336768689
 20
102.4900793704909
 30
0.0
 10
184.7189011328519
 20
102.340894706718
 30
0.0
 10
184.7568381259251
 20
102.3024124141991
 30
0.0
 10
184.7956309304789
 20
102.3021350313319
 30
0.0
 10
184.7957707358353
 20
102.3021345315215
 30
0.0
 10
184.7959105460456
 20
102.3021345315215
 30
0.0
  0
LINE
  5
E09
330
D
100
AcDbEntity
 67
     1
  8
AM_VIS
100
AcDbLine
 10
180.0686090674452
 20
102.3021345315215
 30
0.0
 11
184.7959105460456
 21
102.3021345315215
 31
0.0
  0
SPLINE
  5
E0A
330
D
100
AcDbEntity
 67
     1
  8
AM_VIS
100
AcDbSpline
210
0.0
220
0.0
230
1.0
 70
     8
 71
     3
 72
    12
 73
     8
 74
     0
 42
0.0000000001
 43
0.0000000001
 40
-0.002234270269107
 40
-0.002234270269107
 40
-0.002234270269107
 40
-0.002234270269107
 40
0.0
 40
0.0
 40
0.6160382873246525
 40
0.6160382873246525
 40
1.223057666238409
 40
1.223057666238409
 40
1.223057666238409
 40
1.223057666238409
 10
180.0686090674452
 20
102.3021345315215
 30
0.0
 10
180.0683744088654
 20
102.3021345315215
 30
0.0
 10
180.068139757325
 20
102.3021350311196
 30
0.0
 10
180.0032084430391
 20
102.3024115336916
 30
0.0
 10
179.939484689859
 20
102.3406666223463
 30
0.0
 10
179.821847817767
 20
102.4895911674556
 30
0.0
 10
179.7686509969505
 20
102.5981278342099
 30
0.0
 10
179.7236626825221
 20
102.7368564680866
 30
0.0
  0
ARC
  5
E0B
330
D
100
AcDbEntity
 67
     1
  8
AM_VIS
100
AcDbCircle
 10
176.4834324629806
 20
103.8021344762235
 30
0.0
 40
1.499999944701968
100
AcDbArc
 50
225.2499982609608
 51
270.0
  0
LINE
  5
E0C
330
D
100
AcDbEntity
 67
     1
  8
AM_VIS
100
AcDbLine
 10
212.0865312302858
 20
168.8021345315215
 30
0.0
 11
212.204343945461
 21
182.3021345315216
 31
0.0
  0
LINE
  5
E0D
330
D
100
AcDbEntity
 67
     1
  8
AM_VIS
100
AcDbLine
 10
211.5552157466636
 20
107.9194104704647
 30
0.0
 11
211.6501878407478
 21
118.8021345315215
 31
0.0
  0
LINE
  5
E0E
330
D
100
AcDbEntity
 67
     1
  8
AM_VIS
100
AcDbLine
 10
206.9447267731411
 20
102.7368564680866
 30
0.0
 11
211.1112949487514
 21
106.8672222102773
 31
0.0
  0
LINE
  5
E0F
330
D
100
AcDbEntity
 67
     1
  8
AM_VIS
100
AcDbLine
 10
169.1356059419161
 20
168.8021345315215
 30
0.0
 11
169.0177932267409
 21
182.3021345315216
 31
0.0
  0
LINE
  5
E10
330
D
100
AcDbEntity
 67
     1
  8
AM_VIS
100
AcDbLine
 10
169.6669214255382
 20
107.9194104704647
 30
0.0
 11
169.5719493314541
 21
118.8021345315215
 31
0.0
  0
LINE
  5
E11
330
D
100
AcDbEntity
 67
     1
  8
AM_VIS
100
AcDbLine
 10
174.2774103990608
 20
102.7368564680866
 30
0.0
 11
170.1108422234505
 21
106.8672222102773
 31
0.0
  0
LINE
  5
E12
330
D
100
AcDbEntity
 67
     1
  8
AM_VIS
100
AcDbLine
 10
205.8887046864571
 20
102.3021345315215
 30
0.0
 11
204.7387046864571
 21
102.3021345315215
 31
0.0
  0
LINE
  5
E13
330
D
100
AcDbEntity
 67
     1
  8
AM_VIS
100
AcDbLine
 10
204.7387046864571
 20
102.3021345315215
 30
0.0
 11
201.1535281047565
 21
102.3021345315215
 31
0.0
  0
LINE
  5
E14
330
D
100
AcDbEntity
 67
     1
  8
AM_VIS
100
AcDbLine
 10
196.4262266261561
 20
102.3021345315215
 30
0.0
 11
184.7959105460456
 21
102.3021345315215
 31
0.0
  0
LINE
  5
E15
330
D
100
AcDbEntity
 67
     1
  8
AM_VIS
100
AcDbLine
 10
180.0686090674452
 20
102.3021345315215
 30
0.0
 11
176.4834324857446
 21
102.3021345315215
 31
0.0
  0
LINE
  5
E16
330
D
100
AcDbEntity
 67
     1
  8
AM_VIS
100
AcDbLine
 10
176.4834324857447
 20
102.3021345315215
 30
0.0
 11
175.3334324857448
 21
102.3021345315215
 31
0.0
  0
ARC
  5
E17
330
D
100
AcDbEntity
 67
     1
  8
AM_VIS
100
AcDbCircle
 10
171.1668643101344
 20
107.9325002737122
 30
0.0
 40
1.5
100
AcDbArc
 50
180.4999999999997
 51
225.2500000000008
  0
ARC
  5
E18
330
D
100
AcDbEntity
 67
     1
  8
AM_VIS
100
AcDbCircle
 10
210.0552728620673
 20
107.9325002737122
 30
0.0
 40
1.5
100
AcDbArc
 50
314.7499999999991
 51
359.4999999999986
  0
ARC
  5
E19
330
D
100
AcDbEntity
 67
     1
  8
AM_VIS
100
AcDbCircle
 10
205.8887046864571
 20
103.8021345315216
 30
0.0
 40
1.5
100
AcDbArc
 50
270.0
 51
314.7499999999991
  0
ARC
  5
E1A
330
D
100
AcDbEntity
 67
     1
  8
AM_VIS
100
AcDbCircle
 10
175.3334324857447
 20
103.8021345315216
 30
0.0
 40
1.5
100
AcDbArc
 50
225.2500000000008
 51
270.0
  0
LINE
  5
E1B
330
D
100
AcDbEntity
 67
     1
  8
AM_VIS
100
AcDbLine
 10
200.6110685861009
 20
101.3021345315216
 30
0.0
 11
200.7444019194343
 21
102.3021345315215
 31
0.0
  0
LINE
  5
E1C
330
D
100
AcDbEntity
 67
     1
  8
AM_VIS
100
AcDbLine
 10
180.611068586101
 20
101.3021345315216
 30
0.0
 11
180.4777352527676
 21
102.3021345315215
 31
0.0
  0
LINE
  5
E1D
330
D
100
AcDbEntity
 67
     1
  8
AM_VIS
100
AcDbLine
 10
200.6110685861009
 20
101.3021345315216
 30
0.0
 11
180.611068586101
 21
101.3021345315216
 31
0.0
  0
LINE
  5
E1E
330
D
100
AcDbEntity
 67
     1
  8
AM_VIS
100
AcDbLine
 10
179.21106857792
 20
244.3021345315215
 30
0.0
 11
179.21106857792
 21
243.3021345315216
 31
0.0
  0
LINE
  5
E1F
330
D
100
AcDbEntity
 67
     1
  8
AM_VIS
100
AcDbLine
 10
179.21106857792
 20
243.3021345315215
 30
0.0
 11
179.21106857792
 21
242.3021345315215
 31
0.0
  0
LINE
  5
E20
330
D
100
AcDbEntity
 67
     1
  8
AM_VIS
100
AcDbLine
 10
178.0110685779201
 20
242.3021345315215
 30
0.0
 11
178.0110685779201
 21
243.3021345315215
 31
0.0
  0
LINE
  5
E21
330
D
100
AcDbEntity
 67
     1
  8
AM_VIS
100
AcDbLine
 10
178.0110685779201
 20
244.3021345315215
 30
0.0
 11
178.0110685779201
 21
243.3021345315215
 31
0.0
  0
LINE
  5
E22
330
D
100
AcDbEntity
 67
     1
  8
AM_VIS
100
AcDbLine
 10
183.6110685779201
 20
244.3021345315215
 30
0.0
 11
184.11106857792
 21
243.8021345315216
 31
0.0
  0
LINE
  5
E23
330
D
100
AcDbEntity
 67
     1
  8
AM_VIS
100
AcDbLine
 10
172.6110685779201
 20
236.3021345315215
 30
0.0
 11
172.6110685779201
 21
243.3021345315215
 31
0.0
  0
LINE
  5
E24
330
D
100
AcDbEntity
 67
     1
  8
AM_VIS
100
AcDbLine
 10
173.6110685779201
 20
244.3021345315215
 30
0.0
 11
172.6110685779201
 21
243.3021345315215
 31
0.0
  0
LINE
  5
E25
330
D
100
AcDbEntity
 67
     1
  8
AM_VIS
100
AcDbLine
 10
179.21106857792
 20
244.3021345315215
 30
0.0
 11
183.6110685779201
 21
244.3021345315215
 31
0.0
  0
LINE
  5
E26
330
D
100
AcDbEntity
 67
     1
  8
AM_VIS
100
AcDbLine
 10
178.0110685779201
 20
242.3021345315215
 30
0.0
 11
179.21106857792
 21
242.3021345315215
 31
0.0
  0
LINE
  5
E27
330
D
100
AcDbEntity
 67
     1
  8
AM_VIS
100
AcDbLine
 10
184.11106857792
 20
243.3021345315215
 30
0.0
 11
179.21106857792
 21
243.3021345315215
 31
0.0
  0
LINE
  5
E28
330
D
100
AcDbEntity
 67
     1
  8
AM_VIS
100
AcDbLine
 10
173.6110685779201
 20
244.3021345315215
 30
0.0
 11
178.0110685779201
 21
244.3021345315215
 31
0.0
  0
LINE
  5
E29
330
D
100
AcDbEntity
 67
     1
  8
AM_VIS
100
AcDbLine
 10
178.0110685779201
 20
243.3021345315215
 30
0.0
 11
172.6110685779201
 21
243.3021345315215
 31
0.0
  0
ARC
  5
E2A
330
D
100
AcDbEntity
 67
     1
  8
AM_VIS
100
AcDbCircle
 10
199.0760751145433
 20
238.1236598717219
 30
0.0
 40
0.4797525847241344
100
AcDbArc
 50
21.83987726173917
 51
85.81709415277163
  0
ARC
  5
E2B
330
D
100
AcDbEntity
 67
     1
  8
AM_VIS
100
AcDbCircle
 10
184.1460620412969
 20
238.1236598717218
 30
0.0
 40
0.4797525847242591
100
AcDbArc
 50
94.1829058472333
 51
158.1601227382871
  0
LINE
  5
E2C
330
D
100
AcDbEntity
 67
     1
  8
AM_VIS
100
AcDbLine
 10
165.6110685661009
 20
235.3021345315215
 30
0.0
 11
165.6110685661009
 21
196.1021345315215
 31
0.0
  0
LINE
  5
E2D
330
D
100
AcDbEntity
 67
     1
  8
AM_VIS
100
AcDbLine
 10
215.8110685861009
 20
182.3021345315216
 30
0.0
 11
216.9358924517156
 21
184.4652573500113
 31
0.0
  0
LINE
  5
E2E
330
D
100
AcDbEntity
 67
     1
  8
AM_VIS
100
AcDbLine
 10
217.1110685861009
 20
184.8021345315215
 30
0.0
 11
216.9358924517156
 21
184.4652573500113
 31
0.0
  0
ARC
  5
E2F
330
D
100
AcDbEntity
 67
     1
  8
AM_VIS
100
AcDbCircle
 10
216.3515691293715
 20
184.1288517493237
 30
0.0
 40
0.6742421473099994
100
AcDbArc
 50
29.92981958923583
 51
93.05684312354655
  0
LINE
  5
E30
330
D
100
AcDbEntity
 67
     1
  8
AM_VIS
100
AcDbLine
 10
164.2862447204862
 20
184.4652573500113
 30
0.0
 11
165.4110685861009
 21
182.3021345315216
 31
0.0
  0
LINE
  5
E31
330
D
100
AcDbEntity
 67
     1
  8
AM_VIS
100
AcDbLine
 10
199.6110685861008
 20
182.8532959513543
 30
0.0
 11
199.6110685861008
 21
182.3021345315216
 31
0.0
  0
LINE
  5
E32
330
D
100
AcDbEntity
 67
     1
  8
AM_VIS
100
AcDbLine
 10
175.6110685761009
 20
208.3021345315217
 30
0.0
 11
178.611068576101
 21
206.3021345315218
 31
0.0
  0
LINE
  5
E33
330
D
100
AcDbEntity
 67
     1
  8
AM_VIS
100
AcDbLine
 10
175.6110685761008
 20
224.3021345315215
 30
0.0
 11
175.6110685761008
 21
208.3021345315215
 31
0.0
  0
LINE
  5
E34
330
D
100
AcDbEntity
 67
     1
  8
AM_VIS
100
AcDbLine
 10
178.611068576101
 20
226.3021345315213
 30
0.0
 11
175.6110685761009
 21
224.3021345315214
 31
0.0
  0
LINE
  5
E35
330
D
100
AcDbEntity
 67
     1
  8
AM_VIS
100
AcDbLine
 10
205.6110685861008
 20
224.3021345315214
 30
0.0
 11
202.6110685861007
 21
226.3021345315213
 31
0.0
  0
LINE
  5
E36
330
D
100
AcDbEntity
 67
     1
  8
AM_VIS
100
AcDbLine
 10
205.6110685861008
 20
208.3021345315215
 30
0.0
 11
205.6110685861008
 21
224.3021345315215
 31
0.0
  0
LINE
  5
E37
330
D
100
AcDbEntity
 67
     1
  8
AM_VIS
100
AcDbLine
 10
202.6110685861007
 20
206.3021345315217
 30
0.0
 11
205.6110685861008
 21
208.3021345315217
 31
0.0
  0
LINE
  5
E38
330
D
100
AcDbEntity
 67
     1
  8
AM_VIS
100
AcDbLine
 10
202.6110685861008
 20
228.7021345315215
 30
0.0
 11
178.6110685761008
 21
228.7021345315215
 31
0.0
  0
LINE
  5
E39
330
D
100
AcDbEntity
 67
     1
  8
AM_VIS
100
AcDbLine
 10
178.6110685761008
 20
203.9021345315215
 30
0.0
 11
202.6110685861008
 21
203.9021345315215
 31
0.0
  0
LINE
  5
E3A
330
D
100
AcDbEntity
 67
     1
  8
AM_VIS
100
AcDbLine
 10
178.6110685761008
 20
200.1021345315215
 30
0.0
 11
202.6110685861008
 21
200.1021345315215
 31
0.0
  0
LINE
  5
E3B
330
D
100
AcDbEntity
 67
     1
  8
AM_VIS
100
AcDbLine
 10
178.6110685761008
 20
203.5021345315215
 30
0.0
 11
202.6110685861008
 21
203.5021345315215
 31
0.0
  0
LINE
  5
E3C
330
D
100
AcDbEntity
 67
     1
  8
AM_VIS
100
AcDbLine
 10
178.6110685761008
 20
232.5021345315215
 30
0.0
 11
202.6110685861008
 21
232.5021345315215
 31
0.0
  0
LINE
  5
E3D
330
D
100
AcDbEntity
 67
     1
  8
AM_VIS
100
AcDbLine
 10
178.6110685761008
 20
229.1021345315216
 30
0.0
 11
202.6110685861008
 21
229.1021345315216
 31
0.0
  0
LINE
  5
E3E
330
D
100
AcDbEntity
 67
     1
  8
AM_VIS
100
AcDbLine
 10
178.6110685761008
 20
232.9021345315215
 30
0.0
 11
202.6110685861008
 21
232.9021345315215
 31
0.0
  0
LINE
  5
E3F
330
D
100
AcDbEntity
 67
     1
  8
AM_VIS
100
AcDbLine
 10
209.877966993416
 20
236.3021345315215
 30
0.0
 11
202.3999188515483
 21
236.3021345315215
 31
0.0
  0
LINE
  5
E40
330
D
100
AcDbEntity
 67
     1
  8
AM_VIS
100
AcDbLine
 10
201.6110685861008
 20
236.3021345315215
 30
0.0
 11
179.6110685761008
 21
236.3021345315215
 31
0.0
  0
LINE
  5
E41
330
D
100
AcDbEntity
 67
     1
  8
AM_VIS
100
AcDbLine
 10
178.8222183106534
 20
236.3021345315215
 30
0.0
 11
171.3441701587857
 21
236.3021345315215
 31
0.0
  0
ARC
  5
E42
330
D
100
AcDbEntity
 67
     1
  8
AM_VIS
100
AcDbCircle
 10
164.8705680428303
 20
184.1288517493238
 30
0.0
 40
0.6742421473099119
100
AcDbArc
 50
86.94315687644852
 51
150.0701804107696
  0
LINE
  5
E43
330
D
100
AcDbEntity
 67
     1
  8
AM_VIS
100
AcDbLine
 10
164.2862447204862
 20
184.4652573500113
 30
0.0
 11
164.1110685861009
 21
184.8021345315215
 31
0.0
  0
LINE
  5
E44
330
D
100
AcDbEntity
 67
     1
  8
AM_VIS
100
AcDbLine
 10
164.1110685861009
 20
195.3021345315216
 30
0.0
 11
164.1110685861009
 21
184.8021345315215
 31
0.0
  0
ARC
  5
E45
330
D
100
AcDbEntity
 67
     1
  8
AM_VIS
100
AcDbCircle
 10
178.3110059079705
 20
196.1021971996518
 30
0.0
 40
0.3000626746744061
100
AcDbArc
 50
270.0119662313706
 51
359.9880337685611
  0
LINE
  5
E46
330
D
100
AcDbEntity
 67
     1
  8
AM_VIS
100
AcDbLine
 10
215.6110685861009
 20
196.1021345315215
 30
0.0
 11
215.6110685861009
 21
235.3021345315216
 31
0.0
  0
LINE
  5
E47
330
D
100
AcDbEntity
 67
     1
  8
AM_VIS
100
AcDbLine
 10
217.1110685861009
 20
184.8021345315215
 30
0.0
 11
217.1110685861009
 21
195.3021345315216
 31
0.0
  0
ARC
  5
E48
330
D
100
AcDbEntity
 67
     1
  8
AM_VIS
100
AcDbCircle
 10
202.9111312542311
 20
196.1021971996517
 30
0.0
 40
0.3000626746743599
100
AcDbArc
 50
180.0119662313966
 51
269.9880337686018
  0
LINE
  5
E49
330
D
100
AcDbEntity
 67
     1
  8
AM_VIS
100
AcDbLine
 10
178.6110685761008
 20
232.9021345315215
 30
0.0
 11
178.6110685761008
 21
235.3021345315215
 31
0.0
  0
LINE
  5
E4A
330
D
100
AcDbEntity
 67
     1
  8
AM_VIS
100
AcDbLine
 10
178.6110685761008
 20
232.5021345315215
 30
0.0
 11
178.6110685761008
 21
232.9021345315215
 31
0.0
  0
LINE
  5
E4B
330
D
100
AcDbEntity
 67
     1
  8
AM_VIS
100
AcDbLine
 10
178.6110685761008
 20
229.1021345315216
 30
0.0
 11
178.6110685761008
 21
232.5021345315215
 31
0.0
  0
LINE
  5
E4C
330
D
100
AcDbEntity
 67
     1
  8
AM_VIS
100
AcDbLine
 10
178.6110685761008
 20
228.7021345315215
 30
0.0
 11
178.6110685761008
 21
229.1021345315215
 31
0.0
  0
LINE
  5
E4D
330
D
100
AcDbEntity
 67
     1
  8
AM_VIS
100
AcDbLine
 10
178.6110685761008
 20
226.3021345315215
 30
0.0
 11
178.6110685761008
 21
228.7021345315216
 31
0.0
  0
LINE
  5
E4E
330
D
100
AcDbEntity
 67
     1
  8
AM_VIS
100
AcDbLine
 10
178.6110685761008
 20
203.9021345315215
 30
0.0
 11
178.6110685761008
 21
206.3021345315215
 31
0.0
  0
LINE
  5
E4F
330
D
100
AcDbEntity
 67
     1
  8
AM_VIS
100
AcDbLine
 10
178.6110685761008
 20
203.5021345315215
 30
0.0
 11
178.6110685761008
 21
203.9021345315215
 31
0.0
  0
LINE
  5
E50
330
D
100
AcDbEntity
 67
     1
  8
AM_VIS
100
AcDbLine
 10
178.6110685761008
 20
200.1021345315215
 30
0.0
 11
178.6110685761008
 21
203.5021345315215
 31
0.0
  0
LINE
  5
E51
330
D
100
AcDbEntity
 67
     1
  8
AM_VIS
100
AcDbLine
 10
178.6110685761008
 20
199.7021345315215
 30
0.0
 11
178.6110685761008
 21
200.1021345315216
 31
0.0
  0
LINE
  5
E52
330
D
100
AcDbEntity
 67
     1
  8
AM_VIS
100
AcDbLine
 10
178.6110685761008
 20
195.4832194433787
 30
0.0
 11
178.6110685761008
 21
195.8021345315215
 31
0.0
  0
LINE
  5
E53
330
D
100
AcDbEntity
 67
     1
  8
AM_VIS
100
AcDbLine
 10
202.6110685861008
 20
200.1021345315215
 30
0.0
 11
202.6110685861008
 21
199.7021345315215
 31
0.0
  0
LINE
  5
E54
330
D
100
AcDbEntity
 67
     1
  8
AM_VIS
100
AcDbLine
 10
202.6110685861008
 20
203.5021345315215
 30
0.0
 11
202.6110685861008
 21
200.1021345315216
 31
0.0
  0
LINE
  5
E55
330
D
100
AcDbEntity
 67
     1
  8
AM_VIS
100
AcDbLine
 10
202.6110685861008
 20
203.9021345315215
 30
0.0
 11
202.6110685861008
 21
203.5021345315215
 31
0.0
  0
LINE
  5
E56
330
D
100
AcDbEntity
 67
     1
  8
AM_VIS
100
AcDbLine
 10
202.6110685861008
 20
203.9021345315215
 30
0.0
 11
202.6110685861008
 21
206.3021345315215
 31
0.0
  0
LINE
  5
E57
330
D
100
AcDbEntity
 67
     1
  8
AM_VIS
100
AcDbLine
 10
202.6110685861008
 20
226.3021345315215
 30
0.0
 11
202.6110685861008
 21
228.7021345315216
 31
0.0
  0
LINE
  5
E58
330
D
100
AcDbEntity
 67
     1
  8
AM_VIS
100
AcDbLine
 10
202.6110685861008
 20
229.1021345315215
 30
0.0
 11
202.6110685861008
 21
228.7021345315215
 31
0.0
  0
LINE
  5
E59
330
D
100
AcDbEntity
 67
     1
  8
AM_VIS
100
AcDbLine
 10
202.6110685861008
 20
232.5021345315215
 30
0.0
 11
202.6110685861008
 21
229.1021345315216
 31
0.0
  0
LINE
  5
E5A
330
D
100
AcDbEntity
 67
     1
  8
AM_VIS
100
AcDbLine
 10
202.6110685861008
 20
232.9021345315215
 30
0.0
 11
202.6110685861008
 21
232.5021345315215
 31
0.0
  0
LINE
  5
E5B
330
D
100
AcDbEntity
 67
     1
  8
AM_VIS
100
AcDbLine
 10
202.6110685861008
 20
232.9021345315215
 30
0.0
 11
202.6110685861008
 21
235.3021345315215
 31
0.0
  0
LINE
  5
E5C
330
D
100
AcDbEntity
 67
     1
  8
AM_VIS
100
AcDbLine
 10
202.6110685861008
 20
195.8021345315215
 30
0.0
 11
202.6110685861008
 21
195.4832194432375
 31
0.0
  0
LINE
  5
E5D
330
D
100
AcDbEntity
 67
     1
  8
AM_VIS
100
AcDbLine
 10
199.6110685861008
 20
184.3021345315215
 30
0.0
 11
199.6110685861008
 21
182.8532959513543
 31
0.0
  0
LINE
  5
E5E
330
D
100
AcDbEntity
 67
     1
  8
AM_VIS
100
AcDbLine
 10
181.6110685861008
 20
184.3021345315215
 30
0.0
 11
199.6110685861008
 21
184.3021345315215
 31
0.0
  0
SPLINE
  5
E5F
330
D
100
AcDbEntity
 67
     1
  8
AM_VIS
100
AcDbSpline
210
-0.0000000000021813
220
-0.0000000000031086
230
-1.0
 70
    12
 71
     2
 72
     6
 73
     3
 74
     0
 42
0.0000000001
 43
0.0000000001
 40
0.0
 40
0.0
 40
0.0
 40
3.333802718682345
 40
3.333802718682345
 40
3.333802718682345
 10
178.831849596711
 20
184.8021345315215
 30
0.0
 41
1.0
 10
180.2461705971264
 20
183.6973867340955
 30
0.0
 41
1.001601757869573
 10
181.6110685861006
 20
182.8532959513543
 30
0.0000000000000284
 41
1.000819973128117
  0
LINE
  5
E60
330
D
100
AcDbEntity
 67
     1
  8
AM_VIS
100
AcDbLine
 10
178.831849596711
 20
195.8021345315215
 30
0.0
 11
178.831849596711
 21
184.8021345315215
 31
0.0
  0
LINE
  5
E61
330
D
100
AcDbEntity
 67
     1
  8
AM_VIS
100
AcDbLine
 10
178.6110685761008
 20
195.8021345315215
 30
0.0
 11
178.831849596711
 21
195.8021345315215
 31
0.0
  0
LINE
  5
E62
330
D
100
AcDbEntity
 67
     1
  8
AM_VIS
100
AcDbLine
 10
178.6110685761008
 20
195.8021345315215
 30
0.0
 11
178.6110685761008
 21
199.7021345315215
 31
0.0
  0
LINE
  5
E63
330
D
100
AcDbEntity
 67
     1
  8
AM_VIS
100
AcDbLine
 10
202.6110685861008
 20
199.7021345315215
 30
0.0
 11
178.6110685761008
 21
199.7021345315215
 31
0.0
  0
LINE
  5
E64
330
D
100
AcDbEntity
 67
     1
  8
AM_VIS
100
AcDbLine
 10
202.6110685861008
 20
195.8021345315215
 30
0.0
 11
202.6110685861008
 21
199.7021345315215
 31
0.0
  0
LINE
  5
E65
330
D
100
AcDbEntity
 67
     1
  8
AM_VIS
100
AcDbLine
 10
202.3902875754906
 20
195.8021345315215
 30
0.0
 11
202.6110685861008
 21
195.8021345315215
 31
0.0
  0
LINE
  5
E66
330
D
100
AcDbEntity
 67
     1
  8
AM_VIS
100
AcDbLine
 10
202.3902875754906
 20
184.8021345315215
 30
0.0
 11
202.3902875754906
 21
195.8021345315215
 31
0.0
  0
SPLINE
  5
E67
330
D
100
AcDbEntity
 67
     1
  8
AM_VIS
100
AcDbSpline
210
0.0
220
0.0
230
1.0
 70
    12
 71
     2
 72
     6
 73
     3
 74
     0
 42
0.0000000001
 43
0.0000000001
 40
1.146876347465884
 40
1.146876347465884
 40
1.146876347465884
 40
4.480679066148139
 40
4.480679066148139
 40
4.480679066148139
 10
199.6110685861006
 20
182.8532959513544
 30
0.0
 41
1.000819973128111
 10
200.9759665750756
 20
183.6973867340956
 30
0.0
 41
1.001601757869561
 10
202.3902875754906
 20
184.8021345315215
 30
0.0
 41
1.0
  0
LINE
  5
E68
330
D
100
AcDbEntity
 67
     1
  8
AM_VIS
100
AcDbLine
 10
181.6110685861008
 20
182.8532959513543
 30
0.0
 11
181.6110685861008
 21
184.3021345315215
 31
0.0
  0
LINE
  5
E69
330
D
100
AcDbEntity
 67
     1
  8
AM_VIS
100
AcDbLine
 10
181.6110685861008
 20
182.8532959513543
 30
0.0
 11
181.6110685861008
 21
182.3021345315216
 31
0.0
  0
LINE
  5
E6A
330
D
100
AcDbEntity
 67
     1
  8
AM_VIS
100
AcDbLine
 10
202.6110685779201
 20
236.3021345315215
 30
0.0
 11
202.6110685779201
 21
238.3021345315215
 31
0.0
  0
LINE
  5
E6B
330
D
100
AcDbEntity
 67
     1
  8
AM_VIS
100
AcDbLine
 10
180.61106857792
 20
236.3021345315215
 30
0.0
 11
180.61106857792
 21
238.3021345315215
 31
0.0
  0
LINE
  5
E6C
330
D
100
AcDbEntity
 67
     1
  8
AM_VIS
100
AcDbLine
 10
202.3902875754907
 20
184.8021345315215
 30
0.0
 11
216.3156140406463
 21
184.8021345315215
 31
0.0
  0
CIRCLE
  5
E6D
330
D
100
AcDbEntity
 67
     1
  8
AM_VIS
100
AcDbCircle
 10
190.6110685861008
 20
216.3021345315215
 30
0.0
 40
11.1
  0
CIRCLE
  5
E6E
330
D
100
AcDbEntity
 67
     1
  8
AM_VIS
100
AcDbCircle
 10
190.6110685861008
 20
216.3021345315215
 30
0.0
 40
10.90127814993152
  0
LINE
  5
E6F
330
D
100
AcDbEntity
 67
     1
  8
AM_VIS
100
AcDbLine
 10
180.61106857792
 20
238.3021345315215
 30
0.0
 11
202.6110685779201
 21
238.3021345315215
 31
0.0
  0
ARC
  5
E70
330
D
100
AcDbEntity
 67
     1
  8
AM_VIS
100
AcDbCircle
 10
214.6110685861009
 20
235.3021345315215
 30
0.0
 40
1.0
100
AcDbArc
 50
0.0
 51
90.0
  0
ARC
  5
E71
330
D
100
AcDbEntity
 67
     1
  8
AM_VIS
100
AcDbCircle
 10
201.6110685861008
 20
235.3021345315215
 30
0.0
 40
0.9999999999999998
100
AcDbArc
 50
0.0
 51
90.0
  0
LINE
  5
E72
330
D
100
AcDbEntity
 67
     1
  8
AM_VIS
100
AcDbLine
 10
209.877966993416
 20
236.3021345315215
 30
0.0
 11
214.6110685861009
 21
236.3021345315215
 31
0.0
  0
LINE
  5
E73
330
D
100
AcDbEntity
 67
     1
  8
AM_VIS
100
AcDbLine
 10
202.3999188515483
 20
236.3021345315215
 30
0.0
 11
201.6110685861008
 21
236.3021345315215
 31
0.0
  0
LINE
  5
E74
330
D
100
AcDbEntity
 67
     1
  8
AM_VIS
100
AcDbLine
 10
166.6110685661009
 20
236.3021345315215
 30
0.0
 11
171.3441701587857
 21
236.3021345315215
 31
0.0
  0
ARC
  5
E75
330
D
100
AcDbEntity
 67
     1
  8
AM_VIS
100
AcDbCircle
 10
166.6110685661009
 20
235.3021345315215
 30
0.0
 40
1.0
100
AcDbArc
 50
90.0
 51
180.0
  0
LINE
  5
E76
330
D
100
AcDbEntity
 67
     1
  8
AM_VIS
100
AcDbLine
 10
179.6110685761008
 20
236.3021345315215
 30
0.0
 11
178.8222183106534
 21
236.3021345315215
 31
0.0
  0
ARC
  5
E77
330
D
100
AcDbEntity
 67
     1
  8
AM_VIS
100
AcDbCircle
 10
179.6110685761008
 20
235.3021345315215
 30
0.0
 40
0.9999999999999998
100
AcDbArc
 50
90.0
 51
180.0
  0
ARC
  5
E78
330
D
100
AcDbEntity
 67
     1
  8
AM_VIS
100
AcDbCircle
 10
165.3110685661009
 20
196.1021345315215
 30
0.0
 40
0.2999999999999989
100
AcDbArc
 50
270.0
 51
0.0
  0
LINE
  5
E79
330
D
100
AcDbEntity
 67
     1
  8
AM_VIS
100
AcDbLine
 10
178.831849596711
 20
184.8021345315215
 30
0.0
 11
164.9065231315555
 21
184.8021345315215
 31
0.0
  0
LINE
  5
E7A
330
D
100
AcDbEntity
 67
     1
  8
AM_VIS
100
AcDbLine
 10
165.3497049497373
 20
195.8021345315215
 30
0.0
 11
178.3110685761008
 21
195.8021345315215
 31
0.0
  0
LINE
  5
E7B
330
D
100
AcDbEntity
 67
     1
  8
AM_VIS
100
AcDbLine
 10
164.6110685861009
 20
195.8021345315215
 30
0.0
 11
165.3497049497373
 21
195.8021345315215
 31
0.0
  0
ARC
  5
E7C
330
D
100
AcDbEntity
 67
     1
  8
AM_VIS
100
AcDbCircle
 10
164.6110685861009
 20
195.3021345315216
 30
0.0
 40
0.5
100
AcDbArc
 50
90.0
 51
180.0
  0
ARC
  5
E7D
330
D
100
AcDbEntity
 67
     1
  8
AM_VIS
100
AcDbCircle
 10
215.9110685861009
 20
196.1021345315215
 30
0.0
 40
0.3000000000000007
100
AcDbArc
 50
180.0
 51
270.0
  0
LINE
  5
E7E
330
D
100
AcDbEntity
 67
     1
  8
AM_VIS
100
AcDbLine
 10
202.9110685861008
 20
195.8021345315215
 30
0.0
 11
215.8724322224646
 21
195.8021345315215
 31
0.0
  0
LINE
  5
E7F
330
D
100
AcDbEntity
 67
     1
  8
AM_VIS
100
AcDbLine
 10
215.8724322224646
 20
195.8021345315215
 30
0.0
 11
216.6110685861009
 21
195.8021345315215
 31
0.0
  0
ARC
  5
E80
330
D
100
AcDbEntity
 67
     1
  8
AM_VIS
100
AcDbCircle
 10
216.6110685861009
 20
195.3021345315216
 30
0.0
 40
0.5
100
AcDbArc
 50
0.0
 51
90.0
  0
LINE
  5
E81
330
D
100
AcDbEntity
 67
     1
  8
AM_VIS
100
AcDbLine
 10
165.4110685861009
 20
182.3021345315216
 30
0.0
 11
181.6110685861008
 21
182.3021345315216
 31
0.0
  0
LINE
  5
E82
330
D
100
AcDbEntity
 67
     1
  8
AM_VIS
100
AcDbLine
 10
199.6110685861008
 20
182.3021345315216
 30
0.0
 11
215.8110685861009
 21
182.3021345315216
 31
0.0
  0
ARC
  5
E83
330
D
100
AcDbEntity
 67
     1
  8
AM_VIS
100
AcDbCircle
 10
190.6110685861008
 20
216.3021345315215
 30
0.0
 40
5.700000000000002
100
AcDbArc
 50
10.66236548009898
 51
251.4264538101165
  0
CIRCLE
  5
E84
330
D
100
AcDbEntity
 67
     1
  8
AM_VIS
100
AcDbCircle
 10
190.6110685861009
 20
216.3021345315215
 30
0.0
 40
5.35
  0
LINE
  5
E85
330
D
100
AcDbEntity
 67
     1
  8
AM_VIS
100
AcDbLine
 10
95.9504988208978
 20
323.0943497739946
 30
0.0
 11
93.95049882089779
 21
323.0943497739946
 31
0.0
  0
LINE
  5
E86
330
D
100
AcDbEntity
 67
     1
  8
AM_VIS
100
AcDbLine
 10
99.25286015339976
 20
329.4804079215861
 30
0.0
 11
99.11394161126622
 21
328.6925617191764
 31
0.0
  0
LINE
  5
E87
330
D
100
AcDbEntity
 67
     1
  8
AM_VIS
100
AcDbLine
 10
96.78705603052936
 20
328.6925617191764
 30
0.0
 11
96.64813748839584
 21
329.4804079215861
 31
0.0
  0
LINE
  5
E88
330
D
100
AcDbEntity
 67
     1
  8
AM_VIS
100
AcDbLine
 10
93.64382183599799
 20
327.2268475428917
 30
0.0
 11
93.12959174824873
 21
327.8396830973869
 31
0.0
  0
LINE
  5
E89
330
D
100
AcDbEntity
 67
     1
  8
AM_VIS
100
AcDbLine
 10
95.38534774595531
 20
329.1420444298889
 30
0.0
 11
95.65896386061581
 21
328.3902903332602
 31
0.0
  0
LINE
  5
E8A
330
D
100
AcDbEntity
 67
     1
  8
AM_VIS
100
AcDbLine
 10
91.65455826163219
 20
324.3858847342766
 30
0.0
 11
90.90280416500348
 21
324.6595008489371
 31
0.0
  0
LINE
  5
E8B
330
D
100
AcDbEntity
 67
     1
  8
AM_VIS
100
AcDbLine
 10
92.20516549750545
 20
326.9152568466436
 30
0.0
 11
92.81800105200062
 21
326.4010267588944
 31
0.0
  0
LINE
  5
E8C
330
D
100
AcDbEntity
 67
     1
  8
AM_VIS
100
AcDbLine
 10
91.35228687571601
 20
320.9309069836261
 30
0.0
 11
90.5644406733062
 21
320.7919884414926
 31
0.0
  0
LINE
  5
E8D
330
D
100
AcDbEntity
 67
     1
  8
AM_VIS
100
AcDbLine
 10
90.56444067330625
 20
323.3967111064966
 30
0.0
 11
91.35228687571601
 21
323.257792564363
 31
0.0
  0
LINE
  5
E8E
330
D
100
AcDbEntity
 67
     1
  8
AM_VIS
100
AcDbLine
 10
92.81800105200057
 20
317.7876727890947
 30
0.0
 11
92.2051654975054
 21
317.2734427013455
 31
0.0
  0
LINE
  5
E8F
330
D
100
AcDbEntity
 67
     1
  8
AM_VIS
100
AcDbLine
 10
90.90280416500343
 20
319.5291986990521
 30
0.0
 11
91.65455826163213
 21
319.8028148137126
 31
0.0
  0
LINE
  5
E90
330
D
100
AcDbEntity
 67
     1
  8
AM_VIS
100
AcDbLine
 10
95.65896386061575
 20
315.798409214729
 30
0.0
 11
95.38534774595524
 21
315.0466551181003
 31
0.0
  0
LINE
  5
E91
330
D
100
AcDbEntity
 67
     1
  8
AM_VIS
100
AcDbLine
 10
93.12959174824868
 20
316.3490164506022
 30
0.0
 11
93.64382183599792
 21
316.9618520050974
 31
0.0
  0
LINE
  5
E92
330
D
100
AcDbEntity
 67
     1
  8
AM_VIS
100
AcDbLine
 10
99.11394161126617
 20
315.4961378288127
 30
0.0
 11
99.2528601533997
 21
314.708291626403
 31
0.0
  0
LINE
  5
E93
330
D
100
AcDbEntity
 67
     1
  8
AM_VIS
100
AcDbLine
 10
96.64813748839577
 20
314.708291626403
 30
0.0
 11
96.78705603052931
 21
315.4961378288127
 31
0.0
  0
LINE
  5
E94
330
D
100
AcDbEntity
 67
     1
  8
AM_VIS
100
AcDbLine
 10
102.2571758057976
 20
316.9618520050974
 30
0.0
 11
102.7714058935468
 21
316.3490164506022
 31
0.0
  0
LINE
  5
E95
330
D
100
AcDbEntity
 67
     1
  8
AM_VIS
100
AcDbLine
 10
100.5156498958402
 20
315.0466551181002
 30
0.0
 11
100.2420337811797
 21
315.798409214729
 31
0.0
  0
LINE
  5
E96
330
D
100
AcDbEntity
 67
     1
  8
AM_VIS
100
AcDbLine
 10
104.2464393801633
 20
319.8028148137125
 30
0.0
 11
104.998193476792
 21
319.529198699052
 31
0.0
  0
LINE
  5
E97
330
D
100
AcDbEntity
 67
     1
  8
AM_VIS
100
AcDbLine
 10
103.6958321442901
 20
317.2734427013454
 30
0.0
 11
103.0829965897949
 21
317.7876727890947
 31
0.0
  0
LINE
  5
E98
330
D
100
AcDbEntity
 67
     1
  8
AM_VIS
100
AcDbLine
 10
104.5487107660796
 20
323.2577925643629
 30
0.0
 11
105.3365569684893
 21
323.3967111064965
 31
0.0
  0
LINE
  5
E99
330
D
100
AcDbEntity
 67
     1
  8
AM_VIS
100
AcDbLine
 10
105.3365569684892
 20
320.7919884414926
 30
0.0
 11
104.5487107660796
 21
320.9309069836261
 31
0.0
  0
LINE
  5
E9A
330
D
100
AcDbEntity
 67
     1
  8
AM_VIS
100
AcDbLine
 10
103.0829965897949
 20
326.4010267588943
 30
0.0
 11
103.6958321442901
 21
326.9152568466436
 31
0.0
  0
LINE
  5
E9B
330
D
100
AcDbEntity
 67
     1
  8
AM_VIS
100
AcDbLine
 10
104.9981934767921
 20
324.659500848937
 30
0.0
 11
104.2464393801634
 21
324.3858847342765
 31
0.0
  0
LINE
  5
E9C
330
D
100
AcDbEntity
 67
     1
  8
AM_VIS
100
AcDbLine
 10
100.2420337811797
 20
328.3902903332601
 30
0.0
 11
100.5156498958402
 21
329.1420444298889
 31
0.0
  0
LINE
  5
E9D
330
D
100
AcDbEntity
 67
     1
  8
AM_VIS
100
AcDbLine
 10
102.7714058935468
 20
327.8396830973869
 30
0.0
 11
102.2571758057976
 21
327.2268475428917
 31
0.0
  0
ARC
  5
E9E
330
D
100
AcDbEntity
 67
     1
  8
AM_VIS
100
AcDbCircle
 10
98.95049882089779
 20
323.0943497739945
 30
0.0
 40
3.0
100
AcDbArc
 50
0.0
 51
180.0
  0
ARC
  5
E9F
330
D
100
AcDbEntity
 67
     1
  8
AM_VIS
100
AcDbCircle
 10
97.95049882089779
 20
323.0943497739945
 30
0.0
 40
4.0
100
AcDbArc
 50
0.0
 51
180.0
  0
ARC
  5
EA0
330
D
100
AcDbEntity
 67
     1
  8
AM_VIS
100
AcDbCircle
 10
97.95049882089779
 20
322.0943497739945
 30
0.0
 40
6.699999999999999
100
AcDbArc
 50
79.9999999999998
 51
100.0000000000002
  0
ARC
  5
EA1
330
D
100
AcDbEntity
 67
     1
  8
AM_VIS
100
AcDbCircle
 10
97.95049882089779
 20
322.0943497739945
 30
0.0
 40
7.5
100
AcDbArc
 50
79.9999999999998
 51
100.0000000000002
  0
ARC
  5
EA2
330
D
100
AcDbEntity
 67
     1
  8
AM_VIS
100
AcDbCircle
 10
97.95049882089779
 20
322.0943497739945
 30
0.0
 40
7.5
100
AcDbArc
 50
39.99999999999984
 51
49.9999999999996
  0
ARC
  5
EA3
330
D
100
AcDbEntity
 67
     1
  8
AM_VIS
100
AcDbCircle
 10
97.95049882089779
 20
322.0943497739945
 30
0.0
 40
6.699999999999999
100
AcDbArc
 50
39.99999999999984
 51
49.9999999999996
  0
ARC
  5
EA4
330
D
100
AcDbEntity
 67
     1
  8
AM_VIS
100
AcDbCircle
 10
97.95049882089779
 20
322.0943497739945
 30
0.0
 40
6.699999999999999
100
AcDbArc
 50
69.99999999999992
 51
79.9999999999998
  0
ARC
  5
EA5
330
D
100
AcDbEntity
 67
     1
  8
AM_VIS
100
AcDbCircle
 10
97.95049882089779
 20
322.0943497739945
 30
0.0
 40
7.5
100
AcDbArc
 50
69.99999999999992
 51
79.9999999999998
  0
ARC
  5
EA6
330
D
100
AcDbEntity
 67
     1
  8
AM_VIS
100
AcDbCircle
 10
97.95049882089779
 20
322.0943497739945
 30
0.0
 40
7.5
100
AcDbArc
 50
10.00000000000021
 51
20.00000000000009
  0
ARC
  5
EA7
330
D
100
AcDbEntity
 67
     1
  8
AM_VIS
100
AcDbCircle
 10
97.95049882089779
 20
322.0943497739945
 30
0.0
 40
6.699999999999999
100
AcDbArc
 50
10.00000000000021
 51
20.00000000000009
  0
ARC
  5
EA8
330
D
100
AcDbEntity
 67
     1
  8
AM_VIS
100
AcDbCircle
 10
97.95049882089779
 20
322.0943497739945
 30
0.0
 40
7.5
100
AcDbArc
 50
339.9999999999999
 51
349.9999999999998
  0
ARC
  5
EA9
330
D
100
AcDbEntity
 67
     1
  8
AM_VIS
100
AcDbCircle
 10
97.95049882089779
 20
322.0943497739945
 30
0.0
 40
6.699999999999999
100
AcDbArc
 50
339.9999999999999
 51
349.9999999999998
  0
ARC
  5
EAA
330
D
100
AcDbEntity
 67
     1
  8
AM_VIS
100
AcDbCircle
 10
97.95049882089779
 20
322.0943497739945
 30
0.0
 40
7.5
100
AcDbArc
 50
310.0000000000004
 51
320.0000000000002
  0
ARC
  5
EAB
330
D
100
AcDbEntity
 67
     1
  8
AM_VIS
100
AcDbCircle
 10
97.95049882089779
 20
322.0943497739945
 30
0.0
 40
6.699999999999999
100
AcDbArc
 50
310.0000000000004
 51
320.0000000000002
  0
ARC
  5
EAC
330
D
100
AcDbEntity
 67
     1
  8
AM_VIS
100
AcDbCircle
 10
97.95049882089779
 20
322.0943497739945
 30
0.0
 40
7.5
100
AcDbArc
 50
280.0000000000002
 51
290.0000000000001
  0
ARC
  5
EAD
330
D
100
AcDbEntity
 67
     1
  8
AM_VIS
100
AcDbCircle
 10
97.95049882089779
 20
322.0943497739945
 30
0.0
 40
6.699999999999999
100
AcDbArc
 50
280.0000000000002
 51
290.0000000000001
  0
ARC
  5
EAE
330
D
100
AcDbEntity
 67
     1
  8
AM_VIS
100
AcDbCircle
 10
97.95049882089779
 20
322.0943497739945
 30
0.0
 40
7.5
100
AcDbArc
 50
249.9999999999999
 51
259.9999999999998
  0
ARC
  5
EAF
330
D
100
AcDbEntity
 67
     1
  8
AM_VIS
100
AcDbCircle
 10
97.95049882089779
 20
322.0943497739945
 30
0.0
 40
6.699999999999999
100
AcDbArc
 50
249.9999999999999
 51
259.9999999999998
  0
ARC
  5
EB0
330
D
100
AcDbEntity
 67
     1
  8
AM_VIS
100
AcDbCircle
 10
97.95049882089779
 20
322.0943497739945
 30
0.0
 40
7.5
100
AcDbArc
 50
219.9999999999998
 51
229.9999999999996
  0
ARC
  5
EB1
330
D
100
AcDbEntity
 67
     1
  8
AM_VIS
100
AcDbCircle
 10
97.95049882089779
 20
322.0943497739945
 30
0.0
 40
6.699999999999999
100
AcDbArc
 50
219.9999999999998
 51
229.9999999999996
  0
ARC
  5
EB2
330
D
100
AcDbEntity
 67
     1
  8
AM_VIS
100
AcDbCircle
 10
97.95049882089779
 20
322.0943497739945
 30
0.0
 40
7.5
100
AcDbArc
 50
190.0000000000002
 51
200.0000000000001
  0
ARC
  5
EB3
330
D
100
AcDbEntity
 67
     1
  8
AM_VIS
100
AcDbCircle
 10
97.95049882089779
 20
322.0943497739945
 30
0.0
 40
6.699999999999999
100
AcDbArc
 50
190.0000000000002
 51
200.0000000000001
  0
ARC
  5
EB4
330
D
100
AcDbEntity
 67
     1
  8
AM_VIS
100
AcDbCircle
 10
97.95049882089779
 20
322.0943497739945
 30
0.0
 40
7.5
100
AcDbArc
 50
159.9999999999999
 51
169.9999999999997
  0
ARC
  5
EB5
330
D
100
AcDbEntity
 67
     1
  8
AM_VIS
100
AcDbCircle
 10
97.95049882089779
 20
322.0943497739945
 30
0.0
 40
6.699999999999999
100
AcDbArc
 50
159.9999999999999
 51
169.9999999999997
  0
ARC
  5
EB6
330
D
100
AcDbEntity
 67
     1
  8
AM_VIS
100
AcDbCircle
 10
97.95049882089779
 20
322.0943497739945
 30
0.0
 40
7.5
100
AcDbArc
 50
130.0000000000004
 51
140.0000000000001
  0
ARC
  5
EB7
330
D
100
AcDbEntity
 67
     1
  8
AM_VIS
100
AcDbCircle
 10
97.95049882089779
 20
322.0943497739945
 30
0.0
 40
6.699999999999999
100
AcDbArc
 50
130.0000000000004
 51
140.0000000000001
  0
ARC
  5
EB8
330
D
100
AcDbEntity
 67
     1
  8
AM_VIS
100
AcDbCircle
 10
97.95049882089779
 20
322.0943497739945
 30
0.0
 40
7.5
100
AcDbArc
 50
100.0000000000002
 51
110.0000000000001
  0
ARC
  5
EB9
330
D
100
AcDbEntity
 67
     1
  8
AM_VIS
100
AcDbCircle
 10
97.95049882089779
 20
322.0943497739945
 30
0.0
 40
6.699999999999999
100
AcDbArc
 50
100.0000000000002
 51
110.0000000000001
  0
ARC
  5
EBA
330
D
100
AcDbEntity
 67
     1
  8
AM_VIS
100
AcDbCircle
 10
97.95049882089779
 20
322.0943497739945
 30
0.0
 40
6.699999999999999
100
AcDbArc
 50
110.0000000000001
 51
130.0000000000004
  0
ARC
  5
EBB
330
D
100
AcDbEntity
 67
     1
  8
AM_VIS
100
AcDbCircle
 10
97.95049882089779
 20
322.0943497739945
 30
0.0
 40
6.699999999999999
100
AcDbArc
 50
140.0000000000001
 51
159.9999999999999
  0
ARC
  5
EBC
330
D
100
AcDbEntity
 67
     1
  8
AM_VIS
100
AcDbCircle
 10
97.95049882089779
 20
322.0943497739945
 30
0.0
 40
6.699999999999999
100
AcDbArc
 50
169.9999999999997
 51
190.0000000000002
  0
ARC
  5
EBD
330
D
100
AcDbEntity
 67
     1
  8
AM_VIS
100
AcDbCircle
 10
97.95049882089779
 20
322.0943497739945
 30
0.0
 40
6.699999999999999
100
AcDbArc
 50
200.0000000000001
 51
219.9999999999998
  0
ARC
  5
EBE
330
D
100
AcDbEntity
 67
     1
  8
AM_VIS
100
AcDbCircle
 10
97.95049882089779
 20
322.0943497739945
 30
0.0
 40
6.699999999999999
100
AcDbArc
 50
229.9999999999996
 51
249.9999999999999
  0
ARC
  5
EBF
330
D
100
AcDbEntity
 67
     1
  8
AM_VIS
100
AcDbCircle
 10
97.95049882089779
 20
322.0943497739945
 30
0.0
 40
6.699999999999999
100
AcDbArc
 50
259.9999999999998
 51
280.0000000000002
  0
ARC
  5
EC0
330
D
100
AcDbEntity
 67
     1
  8
AM_VIS
100
AcDbCircle
 10
97.95049882089779
 20
322.0943497739945
 30
0.0
 40
6.699999999999999
100
AcDbArc
 50
290.0000000000001
 51
310.0000000000004
  0
ARC
  5
EC1
330
D
100
AcDbEntity
 67
     1
  8
AM_VIS
100
AcDbCircle
 10
97.95049882089779
 20
322.0943497739945
 30
0.0
 40
6.699999999999999
100
AcDbArc
 50
320.0000000000002
 51
339.9999999999999
  0
ARC
  5
EC2
330
D
100
AcDbEntity
 67
     1
  8
AM_VIS
100
AcDbCircle
 10
97.95049882089779
 20
322.0943497739945
 30
0.0
 40
6.699999999999999
100
AcDbArc
 50
349.9999999999998
 51
10.00000000000021
  0
ARC
  5
EC3
330
D
100
AcDbEntity
 67
     1
  8
AM_VIS
100
AcDbCircle
 10
97.95049882089779
 20
322.0943497739945
 30
0.0
 40
6.699999999999999
100
AcDbArc
 50
20.00000000000009
 51
39.99999999999984
  0
ARC
  5
EC4
330
D
100
AcDbEntity
 67
     1
  8
AM_VIS
100
AcDbCircle
 10
97.95049882089779
 20
322.0943497739945
 30
0.0
 40
6.699999999999999
100
AcDbArc
 50
49.9999999999996
 51
69.99999999999992
  0
ARC
  5
EC5
330
D
100
AcDbEntity
 67
     1
  8
AM_VIS
100
AcDbCircle
 10
97.95049882089779
 20
322.0943497739945
 30
0.0
 40
7.5
100
AcDbArc
 50
110.0000000000001
 51
130.0000000000004
  0
ARC
  5
EC6
330
D
100
AcDbEntity
 67
     1
  8
AM_VIS
100
AcDbCircle
 10
97.95049882089779
 20
322.0943497739945
 30
0.0
 40
7.5
100
AcDbArc
 50
140.0000000000001
 51
159.9999999999999
  0
ARC
  5
EC7
330
D
100
AcDbEntity
 67
     1
  8
AM_VIS
100
AcDbCircle
 10
97.95049882089779
 20
322.0943497739945
 30
0.0
 40
7.5
100
AcDbArc
 50
169.9999999999997
 51
190.0000000000002
  0
ARC
  5
EC8
330
D
100
AcDbEntity
 67
     1
  8
AM_VIS
100
AcDbCircle
 10
97.95049882089779
 20
322.0943497739945
 30
0.0
 40
7.5
100
AcDbArc
 50
200.0000000000001
 51
219.9999999999998
  0
ARC
  5
EC9
330
D
100
AcDbEntity
 67
     1
  8
AM_VIS
100
AcDbCircle
 10
97.95049882089779
 20
322.0943497739945
 30
0.0
 40
7.5
100
AcDbArc
 50
229.9999999999996
 51
249.9999999999999
  0
ARC
  5
ECA
330
D
100
AcDbEntity
 67
     1
  8
AM_VIS
100
AcDbCircle
 10
97.95049882089779
 20
322.0943497739945
 30
0.0
 40
7.5
100
AcDbArc
 50
259.9999999999998
 51
280.0000000000002
  0
ARC
  5
ECB
330
D
100
AcDbEntity
 67
     1
  8
AM_VIS
100
AcDbCircle
 10
97.95049882089779
 20
322.0943497739945
 30
0.0
 40
7.5
100
AcDbArc
 50
290.0000000000001
 51
310.0000000000004
  0
ARC
  5
ECC
330
D
100
AcDbEntity
 67
     1
  8
AM_VIS
100
AcDbCircle
 10
97.95049882089779
 20
322.0943497739945
 30
0.0
 40
7.5
100
AcDbArc
 50
320.0000000000002
 51
339.9999999999999
  0
ARC
  5
ECD
330
D
100
AcDbEntity
 67
     1
  8
AM_VIS
100
AcDbCircle
 10
97.95049882089779
 20
322.0943497739945
 30
0.0
 40
7.5
100
AcDbArc
 50
349.9999999999998
 51
10.00000000000021
  0
ARC
  5
ECE
330
D
100
AcDbEntity
 67
     1
  8
AM_VIS
100
AcDbCircle
 10
97.95049882089779
 20
322.0943497739945
 30
0.0
 40
7.5
100
AcDbArc
 50
20.00000000000009
 51
39.99999999999984
  0
ARC
  5
ECF
330
D
100
AcDbEntity
 67
     1
  8
AM_VIS
100
AcDbCircle
 10
97.95049882089779
 20
322.0943497739945
 30
0.0
 40
7.5
100
AcDbArc
 50
49.9999999999996
 51
69.99999999999992
  0
LINE
  5
ED0
330
D
100
AcDbEntity
 67
     1
  8
AM_VIS
100
AcDbLine
 10
102.8579761090095
 20
312.5943497739945
 30
0.0
 11
93.04302153278593
 21
312.5943497739946
 31
0.0
  0
LINE
  5
ED1
330
D
100
AcDbEntity
 67
     1
  8
AM_VIS
100
AcDbLine
 10
92.17699612900151
 20
313.0943497739945
 30
0.0
 11
87.2695188408897
 21
321.5943497739946
 31
0.0
  0
LINE
  5
ED2
330
D
100
AcDbEntity
 67
     1
  8
AM_VIS
100
AcDbLine
 10
87.2695188408897
 20
322.5943497739946
 30
0.0
 11
92.17699612900156
 21
331.0943497739946
 31
0.0
  0
LINE
  5
ED3
330
D
100
AcDbEntity
 67
     1
  8
AM_VIS
100
AcDbLine
 10
93.04302153278598
 20
331.5943497739946
 30
0.0
 11
102.8579761090096
 21
331.5943497739945
 31
0.0
  0
LINE
  5
ED4
330
D
100
AcDbEntity
 67
     1
  8
AM_VIS
100
AcDbLine
 10
103.7240015127941
 20
331.0943497739945
 30
0.0
 11
108.6314788009059
 21
322.5943497739945
 31
0.0
  0
LINE
  5
ED5
330
D
100
AcDbEntity
 67
     1
  8
AM_VIS
100
AcDbLine
 10
108.6314788009058
 20
321.5943497739945
 30
0.0
 11
103.7240015127939
 21
313.0943497739945
 31
0.0
  0
ARC
  5
ED6
330
D
100
AcDbEntity
 67
     1
  8
AM_VIS
100
AcDbCircle
 10
93.04302153278593
 20
313.5943497739946
 30
0.0
 40
1.0
100
AcDbArc
 50
210.0
 51
270.0
  0
ARC
  5
ED7
330
D
100
AcDbEntity
 67
     1
  8
AM_VIS
100
AcDbCircle
 10
88.13554424467412
 20
322.0943497739946
 30
0.0
 40
1.0
100
AcDbArc
 50
150.0
 51
210.0
  0
ARC
  5
ED8
330
D
100
AcDbEntity
 67
     1
  8
AM_VIS
100
AcDbCircle
 10
93.04302153278603
 20
330.5943497739946
 30
0.0
 40
1.0
100
AcDbArc
 50
90.0
 51
149.9999999999992
  0
ARC
  5
ED9
330
D
100
AcDbEntity
 67
     1
  8
AM_VIS
100
AcDbCircle
 10
102.8579761090096
 20
330.5943497739945
 30
0.0
 40
0.9999999999999998
100
AcDbArc
 50
29.99999999999993
 51
90.0
  0
ARC
  5
EDA
330
D
100
AcDbEntity
 67
     1
  8
AM_VIS
100
AcDbCircle
 10
107.7654533971214
 20
322.0943497739945
 30
0.0
 40
1.0
100
AcDbArc
 50
330.0000000000001
 51
29.99999999999993
  0
ARC
  5
EDB
330
D
100
AcDbEntity
 67
     1
  8
AM_VIS
100
AcDbCircle
 10
102.8579761090095
 20
313.5943497739945
 30
0.0
 40
1.0
100
AcDbArc
 50
270.0
 51
329.9999999999991
  0
LINE
  5
EDC
330
D
100
AcDbEntity
 67
     1
  8
AM_VIS
100
AcDbLine
 10
80.98662936250134
 20
309.6943497739947
 30
0.0
 11
90.91436827929403
 21
309.6943497739945
 31
0.0
  0
LINE
  5
EDD
330
D
100
AcDbEntity
 67
     1
  8
AM_VIS
100
AcDbLine
 10
79.98057419825795
 20
309.6943497739947
 30
0.0
 11
80.98662936250134
 21
309.6943497739947
 31
0.0
  0
LINE
  5
EDE
330
D
100
AcDbEntity
 67
     1
  8
AM_VIS
100
AcDbLine
 10
90.91436827929403
 20
309.6943497739945
 30
0.0
 11
91.9204234435374
 21
309.6943497739945
 31
0.0
  0
LINE
  5
EDF
330
D
100
AcDbEntity
 67
     1
  8
AM_VIS
100
AcDbLine
 10
90.91436827929403
 20
308.4943497739946
 30
0.0
 11
80.98662936250134
 21
308.4943497739946
 31
0.0
  0
LINE
  5
EE0
330
D
100
AcDbEntity
 67
     1
  8
AM_VIS
100
AcDbLine
 10
90.91436827929403
 20
308.4943497739946
 30
0.0
 11
91.9204234435374
 21
308.4943497739946
 31
0.0
  0
LINE
  5
EE1
330
D
100
AcDbEntity
 67
     1
  8
AM_VIS
100
AcDbLine
 10
79.98057419825784
 20
308.4943497739946
 30
0.0
 11
80.98662936250134
 21
308.4943497739946
 31
0.0
  0
ARC
  5
EE2
330
D
100
AcDbEntity
 67
     1
  8
AM_VIS
100
AcDbCircle
 10
85.95049882089767
 20
309.0943497739946
 30
0.0
 40
5.0
100
AcDbArc
 50
6.892102579345008
 51
173.1078974206533
  0
ARC
  5
EE3
330
D
100
AcDbEntity
 67
     1
  8
AM_VIS
100
AcDbCircle
 10
85.95049882089767
 20
309.0943497739946
 30
0.0
 40
6.0
100
AcDbArc
 50
354.2608295227335
 51
5.739170477266444
  0
ARC
  5
EE4
330
D
100
AcDbEntity
 67
     1
  8
AM_VIS
100
AcDbCircle
 10
85.95049882089767
 20
309.0943497739946
 30
0.0
 40
6.0
100
AcDbArc
 50
5.739170477266444
 51
174.2608295227318
  0
ARC
  5
EE5
330
D
100
AcDbEntity
 67
     1
  8
AM_VIS
100
AcDbCircle
 10
85.95049882089767
 20
309.0943497739946
 30
0.0
 40
6.0
100
AcDbArc
 50
174.2608295227335
 51
185.7391704772664
  0
ARC
  5
EE6
330
D
100
AcDbEntity
 67
     1
  8
AM_VIS
100
AcDbCircle
 10
85.95049882089767
 20
309.0943497739946
 30
0.0
 40
5.0
100
AcDbArc
 50
186.892102579345
 51
353.1078974206534
  0
ARC
  5
EE7
330
D
100
AcDbEntity
 67
     1
  8
AM_VIS
100
AcDbCircle
 10
85.95049882089767
 20
309.0943497739946
 30
0.0
 40
6.0
100
AcDbArc
 50
185.7391704772664
 51
354.2608295227335
  0
LINE
  5
EE8
330
D
100
AcDbEntity
 67
     1
  8
AM_VIS
100
AcDbLine
 10
62.45049882047829
 20
336.0943497821756
 30
0.0
 11
64.20049882047829
 21
336.0943497821756
 31
0.0
  0
LINE
  5
EE9
330
D
100
AcDbEntity
 67
     1
  8
AM_VIS
100
AcDbLine
 10
65.45049882047823
 20
333.0943497821755
 30
0.0
 11
64.20049882047823
 21
336.0943497821756
 31
0.0
  0
LINE
  5
EEA
330
D
100
AcDbEntity
 67
     1
  8
AM_VIS
100
AcDbLine
 10
62.45049882047812
 20
306.0943497721756
 30
0.0
 11
64.20049882047812
 21
306.0943497721756
 31
0.0
  0
LINE
  5
EEB
330
D
100
AcDbEntity
 67
     1
  8
AM_VIS
100
AcDbLine
 10
64.20049882047812
 20
306.0943497721756
 30
0.0
 11
65.45049882047817
 21
309.0943497721756
 31
0.0
  0
LINE
  5
EEC
330
D
100
AcDbEntity
 67
     1
  8
AM_VIS
100
AcDbLine
 10
115.4504988204783
 20
336.0943497821753
 30
0.0
 11
113.7004988204783
 21
336.0943497821753
 31
0.0
  0
LINE
  5
EED
330
D
100
AcDbEntity
 67
     1
  8
AM_VIS
100
AcDbLine
 10
113.7004988204783
 20
336.0943497821753
 30
0.0
 11
112.4504988204782
 21
333.0943497821753
 31
0.0
  0
LINE
  5
EEE
330
D
100
AcDbEntity
 67
     1
  8
AM_VIS
100
AcDbLine
 10
115.4504988204781
 20
306.0943497721753
 30
0.0
 11
113.7004988204781
 21
306.0943497721753
 31
0.0
  0
LINE
  5
EEF
330
D
100
AcDbEntity
 67
     1
  8
AM_VIS
100
AcDbLine
 10
112.4504988204781
 20
309.0943497721753
 30
0.0
 11
113.7004988204781
 21
306.0943497721753
 31
0.0
  0
LINE
  5
EF0
330
D
100
AcDbEntity
 67
     1
  8
AM_VIS
100
AcDbLine
 10
115.4504988204781
 20
309.0943497721755
 30
0.0
 11
115.4504988204781
 21
306.0943497721754
 31
0.0
  0
LINE
  5
EF1
330
D
100
AcDbEntity
 67
     1
  8
AM_VIS
100
AcDbLine
 10
115.4504988204783
 20
336.0943497821752
 30
0.0
 11
115.4504988204782
 21
333.0943497821752
 31
0.0
  0
LINE
  5
EF2
330
D
100
AcDbEntity
 67
     1
  8
AM_VIS
100
AcDbLine
 10
62.45049882047823
 20
333.0943497821754
 30
0.0
 11
62.45049882047823
 21
336.0943497821755
 31
0.0
  0
LINE
  5
EF3
330
D
100
AcDbEntity
 67
     1
  8
AM_VIS
100
AcDbLine
 10
62.45049882047812
 20
306.0943497721756
 30
0.0
 11
62.45049882047812
 21
309.0943497721757
 31
0.0
  0
LINE
  5
EF4
330
D
100
AcDbEntity
 67
     1
  8
AM_VIS
100
AcDbLine
 10
82.60909618921061
 20
316.74910377089
 30
0.0
 11
82.99957421589722
 21
316.1149231459877
 31
0.0
  0
LINE
  5
EF5
330
D
100
AcDbEntity
 67
     1
  8
AM_VIS
100
AcDbLine
 10
82.55093988736371
 20
316.6909474690431
 30
0.0
 11
82.60909618921061
 21
316.74910377089
 31
0.0
  0
SPLINE
  5
EF6
330
D
100
AcDbEntity
 67
     1
  8
AM_VIS
100
AcDbSpline
210
0.0
220
0.0
230
1.0
 70
     8
 71
     3
 72
     8
 73
     4
 74
     0
 42
0.0000000001
 43
0.0000000001
 40
0.0
 40
0.0
 40
0.0
 40
0.0
 40
80.0
 40
80.0
 40
80.0
 40
80.0
 10
82.62848162315959
 20
316.0429201056057
 30
0.0
 10
82.69494592587069
 20
316.2090809257687
 30
0.0
 10
82.66909873694789
 20
316.4250900469144
 30
0.0
 10
82.55093988736371
 20
316.6909474690431
 30
0.0
  0
SPLINE
  5
EF7
330
D
100
AcDbEntity
 67
     1
  8
AM_VIS
100
AcDbSpline
210
0.0
220
0.0
230
1.0
 70
     8
 71
     3
 72
     8
 73
     4
 74
     0
 42
0.0000000001
 43
0.0000000001
 40
0.0
 40
0.0
 40
0.0
 40
0.0
 40
80.0
 40
80.0
 40
80.0
 40
80.0
 10
82.20477142398909
 20
315.5084359981554
 30
0.0
 10
82.44478153042427
 20
315.7484461045905
 30
0.0
 10
82.58601826348103
 20
315.9266075019119
 30
0.0
 10
82.62848162315959
 20
316.0429201056057
 30
0.0
  0
SPLINE
  5
EF8
330
D
100
AcDbEntity
 67
     1
  8
AM_VIS
100
AcDbSpline
210
0.0
220
0.0
230
1.0
 70
     8
 71
     3
 72
     8
 73
     4
 74
     0
 42
0.0000000001
 43
0.0000000001
 40
0.0
 40
0.0
 40
0.0
 40
0.0
 40
80.0
 40
80.0
 40
80.0
 40
80.0
 10
81.94168339182443
 20
315.2896575293027
 30
0.0
 10
81.99153160829348
 20
315.3099660650683
 30
0.0
 10
82.07922763310069
 20
315.3828922072669
 30
0.0
 10
82.20477142398909
 20
315.5084359981554
 30
0.0
  0
SPLINE
  5
EF9
330
D
100
AcDbEntity
 67
     1
  8
AM_VIS
100
AcDbSpline
210
0.0
220
0.0
230
1.0
 70
     8
 71
     3
 72
     8
 73
     4
 74
     0
 42
0.0000000001
 43
0.0000000001
 40
0.0
 40
0.0
 40
0.0
 40
0.0
 40
80.0
 40
80.0
 40
80.0
 40
80.0
 10
81.76721448628359
 20
315.3644299173915
 30
0.0
 10
81.83367883125152
 20
315.2979655724236
 30
0.0
 10
81.89183513309842
 20
315.2730414430606
 30
0.0
 10
81.94168339182443
 20
315.2896575293027
 30
0.0
  0
LINE
  5
EFA
330
D
100
AcDbEntity
 67
     1
  8
AM_VIS
100
AcDbLine
 10
80.31330694011023
 20
316.818337463565
 30
0.0
 11
81.76721448628359
 21
315.3644299173915
 31
0.0
  0
SPLINE
  5
EFB
330
D
100
AcDbEntity
 67
     1
  8
AM_VIS
100
AcDbSpline
210
0.0
220
0.0
230
1.0
 70
     8
 71
     3
 72
     8
 73
     4
 74
     0
 42
0.0000000001
 43
0.0000000001
 40
0.0
 40
0.0
 40
0.0
 40
0.0
 40
80.0
 40
80.0
 40
80.0
 40
80.0
 10
80.14437672998338
 20
317.1423511452835
 30
0.0
 10
80.13329933915542
 20
317.0500395268791
 30
0.0
 10
80.18960943736898
 20
316.9420349663062
 30
0.0
 10
80.31330694011023
 20
316.818337463565
 30
0.0
  0
SPLINE
  5
EFC
330
D
100
AcDbEntity
 67
     1
  8
AM_VIS
100
AcDbSpline
210
0.0
220
0.0
230
1.0
 70
     8
 71
     3
 72
     8
 73
     4
 74
     0
 42
0.0000000001
 43
0.0000000001
 40
0.0
 40
0.0
 40
0.0
 40
0.0
 40
80.0
 40
80.0
 40
80.0
 40
80.0
 10
80.31330694011023
 20
317.3943617866203
 30
0.0
 10
80.20991793087773
 20
317.2909727773878
 30
0.0
 10
80.15360787492113
 20
317.2069692443612
 30
0.0
 10
80.14437672998338
 20
317.1423511452835
 30
0.0
  0
LINE
  5
EFD
330
D
100
AcDbEntity
 67
     1
  8
AM_VIS
100
AcDbLine
 10
80.25791998597027
 20
317.4497487407602
 30
0.0
 11
80.31330694011023
 21
317.3943617866203
 31
0.0
  0
LINE
  5
EFE
330
D
100
AcDbEntity
 67
     1
  8
AM_VIS
100
AcDbLine
 10
79.52127349590909
 20
316.713102250699
 30
0.0
 11
80.25791998597027
 21
317.4497487407602
 31
0.0
  0
LINE
  5
EFF
330
D
100
AcDbEntity
 67
     1
  8
AM_VIS
100
AcDbLine
 10
79.57666045004902
 20
316.6577152965591
 30
0.0
 11
79.52127349590909
 21
316.7131022506991
 31
0.0
  0
SPLINE
  5
F00
330
D
100
AcDbEntity
 67
     1
  8
AM_VIS
100
AcDbSpline
210
0.0
220
0.0
230
1.0
 70
     8
 71
     3
 72
     8
 73
     4
 74
     0
 42
0.0000000001
 43
0.0000000001
 40
0.0
 40
0.0
 40
0.0
 40
0.0
 40
80.0
 40
80.0
 40
80.0
 40
80.0
 10
79.82590174367874
 20
316.807260072737
 30
0.0
 10
79.76682234001509
 20
316.7998751314326
 30
0.0
 10
79.6837418665483
 20
316.7500268304498
 30
0.0
 10
79.57666045004902
 20
316.6577152965591
 30
0.0
  0
SPLINE
  5
F01
330
D
100
AcDbEntity
 67
     1
  8
AM_VIS
100
AcDbSpline
210
0.0
220
0.0
230
1.0
 70
     8
 71
     3
 72
     8
 73
     4
 74
     0
 42
0.0000000001
 43
0.0000000001
 40
0.0
 40
0.0
 40
0.0
 40
0.0
 40
80.0
 40
80.0
 40
80.0
 40
80.0
 10
80.13883803456939
 20
316.6438685580241
 30
0.0
 10
80.02067922724211
 20
316.7620273653514
 30
0.0
 10
79.91636711619293
 20
316.8164912176747
 30
0.0
 10
79.82590174367874
 20
316.807260072737
 30
0.0
  0
LINE
  5
F02
330
D
100
AcDbEntity
 67
     1
  8
AM_VIS
100
AcDbLine
 10
81.47089428163491
 20
315.3118123109586
 30
0.0
 11
80.13883803456939
 21
316.6438685580241
 31
0.0
  0
SPLINE
  5
F03
330
D
100
AcDbEntity
 67
     1
  8
AM_VIS
100
AcDbSpline
210
0.0
220
0.0
230
1.0
 70
     8
 71
     3
 72
     8
 73
     4
 74
     0
 42
0.0000000001
 43
0.0000000001
 40
0.0
 40
0.0
 40
0.0
 40
0.0
 40
80.0
 40
80.0
 40
80.0
 40
80.0
 10
81.63982449176172
 20
314.9988760200679
 30
0.0
 10
81.64167069539514
 20
315.0930338421058
 30
0.0
 10
81.58536068169542
 20
315.1973459108981
 30
0.0
 10
81.47089428163491
 20
315.3118123109586
 30
0.0
  0
SPLINE
  5
F04
330
D
100
AcDbEntity
 67
     1
  8
AM_VIS
100
AcDbSpline
210
0.0
220
0.0
230
1.0
 70
     8
 71
     3
 72
     8
 73
     4
 74
     0
 42
0.0000000001
 43
0.0000000001
 40
0.0
 40
0.0
 40
0.0
 40
0.0
 40
80.0
 40
80.0
 40
80.0
 40
80.0
 10
81.50412645411888
 20
314.7302492924893
 30
0.0
 10
81.59089929259563
 20
314.8354845053551
 30
0.0
 10
81.6361319999811
 20
314.9250267760526
 30
0.0
 10
81.63982449176172
 20
314.9988760200679
 30
0.0
  0
LINE
  5
F05
330
D
100
AcDbEntity
 67
     1
  8
AM_VIS
100
AcDbLine
 10
81.55951340825879
 20
314.6748623383493
 30
0.0
 11
81.50412645411888
 21
314.7302492924893
 31
0.0
  0
LINE
  5
F06
330
D
100
AcDbEntity
 67
     1
  8
AM_VIS
100
AcDbLine
 10
82.99957421589722
 20
316.1149231459877
 30
0.0
 11
81.55951340825879
 21
314.6748623383493
 31
0.0
  0
SPLINE
  5
F07
330
D
100
AcDbEntity
 67
     1
  8
AM_VIS
100
AcDbSpline
210
0.0
220
0.0
230
1.0
 70
     8
 71
     3
 72
     8
 73
     4
 74
     0
 42
0.0000000001
 43
0.0000000001
 40
0.0
 40
0.0
 40
0.0
 40
0.0
 40
80.0
 40
80.0
 40
80.0
 40
80.0
 10
79.32880383027281
 20
314.493470063541
 30
0.0
 10
79.00017459721374
 20
314.8220992966001
 30
0.0
 10
78.66785283011722
 20
315.0011837957381
 30
0.0
 10
78.33183865575392
 20
315.0307235186984
 30
0.0
  0
SPLINE
  5
F08
330
D
100
AcDbEntity
 67
     1
  8
AM_VIS
100
AcDbSpline
210
0.0
220
0.0
230
1.0
 70
     8
 71
     3
 72
     8
 73
     4
 74
     0
 42
0.0000000001
 43
0.0000000001
 40
0.0
 40
0.0
 40
0.0
 40
0.0
 40
80.0
 40
80.0
 40
80.0
 40
80.0
 10
79.86051859001623
 20
313.5186596706781
 30
0.0
 10
79.82913266342257
 20
313.8454426578468
 30
0.0
 10
79.65189441017469
 20
314.1703794836391
 30
0.0
 10
79.32880383027281
 20
314.493470063541
 30
0.0
  0
SPLINE
  5
F09
330
D
100
AcDbEntity
 67
     1
  8
AM_VIS
100
AcDbSpline
210
0.0
220
0.0
230
1.0
 70
     8
 71
     3
 72
     8
 73
     4
 74
     0
 42
0.0000000001
 43
0.0000000001
 40
0.0
 40
0.0
 40
0.0
 40
0.0
 40
80.0
 40
80.0
 40
80.0
 40
80.0
 10
79.63343207804246
 20
312.8374001347569
 30
0.0
 10
79.80882408539997
 20
313.0127921421143
 30
0.0
 10
79.88451957530561
 20
313.239878696345
 30
0.0
 10
79.86051859001623
 20
313.5186596706781
 30
0.0
  0
SPLINE
  5
F0A
330
D
100
AcDbEntity
 67
     1
  8
AM_VIS
100
AcDbSpline
210
0.0
220
0.0
230
1.0
 70
     8
 71
     3
 72
     8
 73
     4
 74
     0
 42
0.0000000001
 43
0.0000000001
 40
0.0
 40
0.0
 40
0.0
 40
0.0
 40
80.0
 40
80.0
 40
80.0
 40
80.0
 10
78.95771123753525
 20
312.6158523181971
 30
0.0
 10
79.23279972008771
 20
312.5881588411271
 30
0.0
 10
79.45804002842805
 20
312.6620080851425
 30
0.0
 10
79.63343207804246
 20
312.8374001347569
 30
0.0
  0
SPLINE
  5
F0B
330
D
100
AcDbEntity
 67
     1
  8
AM_VIS
100
AcDbSpline
210
0.0
220
0.0
230
1.0
 70
     8
 71
     3
 72
     8
 73
     4
 74
     0
 42
0.0000000001
 43
0.0000000001
 40
0.0
 40
0.0
 40
0.0
 40
0.0
 40
80.0
 40
80.0
 40
80.0
 40
80.0
 10
77.98290084467225
 20
313.1475670779405
 30
0.0
 10
78.3059913823173
 20
312.8244764557817
 30
0.0
 10
78.63092820810959
 20
312.6472382025339
 30
0.0
 10
78.95771123753525
 20
312.6158523181971
 30
0.0
  0
SPLINE
  5
F0C
330
D
100
AcDbEntity
 67
     1
  8
AM_VIS
100
AcDbSpline
210
0.0
220
0.0
230
1.0
 70
     8
 71
     3
 72
     8
 73
     4
 74
     0
 42
0.0000000001
 43
0.0000000001
 40
0.0
 40
0.0
 40
0.0
 40
0.0
 40
80.0
 40
80.0
 40
80.0
 40
80.0
 10
77.44564738951488
 20
314.1445322524594
 30
0.0
 10
77.47518707021822
 20
313.8085180358392
 30
0.0
 10
77.65427156935635
 20
313.4761962687427
 30
0.0
 10
77.98290084467225
 20
313.1475670779405
 30
0.0
  0
SPLINE
  5
F0D
330
D
100
AcDbEntity
 67
     1
  8
AM_VIS
100
AcDbSpline
210
0.0
220
0.0
230
1.0
 70
     8
 71
     3
 72
     8
 73
     4
 74
     0
 42
0.0000000001
 43
0.0000000001
 40
0.0
 40
0.0
 40
0.0
 40
0.0
 40
80.0
 40
80.0
 40
80.0
 40
80.0
 10
77.66442585836762
 20
314.8064063544317
 30
0.0
 10
77.4964187500575
 20
314.6383992461216
 30
0.0
 10
77.42349260785892
 20
314.4177745313785
 30
0.0
 10
77.44564738951488
 20
314.1445322524594
 30
0.0
  0
SPLINE
  5
F0E
330
D
100
AcDbEntity
 67
     1
  8
AM_VIS
100
AcDbSpline
210
0.0
220
0.0
230
1.0
 70
     8
 71
     3
 72
     8
 73
     4
 74
     0
 42
0.0000000001
 43
0.0000000001
 40
0.0
 40
0.0
 40
0.0
 40
0.0
 40
80.0
 40
80.0
 40
80.0
 40
80.0
 10
78.33183865575392
 20
315.0307235186984
 30
0.0
 10
78.05675013094447
 20
315.0510320544641
 30
0.0
 10
77.83427917031116
 20
314.9762596663752
 30
0.0
 10
77.66442585836762
 20
314.8064063544317
 30
0.0
  0
SPLINE
  5
F0F
330
D
100
AcDbEntity
 67
     1
  8
AM_VIS
100
AcDbSpline
210
0.0
220
0.0
230
1.0
 70
     8
 71
     3
 72
     8
 73
     4
 74
     0
 42
0.0000000001
 43
0.0000000001
 40
0.0
 40
0.0
 40
0.0
 40
0.0
 40
80.0
 40
80.0
 40
80.0
 40
80.0
 10
79.52542751746955
 20
314.6845550553238
 30
0.0
 10
79.84482564784781
 20
314.3651569249456
 30
0.0
 10
80.01929451113175
 20
314.0226809110946
 30
0.0
 10
80.048834234092
 20
313.6571270560279
 30
0.0
  0
SPLINE
  5
F10
330
D
100
AcDbEntity
 67
     1
  8
AM_VIS
100
AcDbSpline
210
0.0
220
0.0
230
1.0
 70
     8
 71
     3
 72
     8
 73
     4
 74
     0
 42
0.0000000001
 43
0.0000000001
 40
0.0
 40
0.0
 40
0.0
 40
0.0
 40
80.0
 40
80.0
 40
80.0
 40
80.0
 10
78.4592286502758
 20
315.2135004673602
 30
0.0
 10
78.83401369253704
 20
315.1968843388613
 30
0.0
 10
79.18941334310625
 20
315.0205692296871
 30
0.0
 10
79.52542751746955
 20
314.6845550553238
 30
0.0
  0
SPLINE
  5
F11
330
D
100
AcDbEntity
 67
     1
  8
AM_VIS
100
AcDbSpline
210
0.0
220
0.0
230
1.0
 70
     8
 71
     3
 72
     8
 73
     4
 74
     0
 42
0.0000000001
 43
0.0000000001
 40
0.0
 40
0.0
 40
0.0
 40
0.0
 40
80.0
 40
80.0
 40
80.0
 40
80.0
 10
77.59242281798572
 20
314.8784093948136
 30
0.0
 10
77.83058672078744
 20
315.1165732976153
 30
0.0
 10
78.11952198413184
 20
315.2282703077119
 30
0.0
 10
78.4592286502758
 20
315.2135004673602
 30
0.0
  0
SPLINE
  5
F12
330
D
100
AcDbEntity
 67
     1
  8
AM_VIS
100
AcDbSpline
210
0.0
220
0.0
230
1.0
 70
     8
 71
     3
 72
     8
 73
     4
 74
     0
 42
0.0000000001
 43
0.0000000001
 40
0.0
 40
0.0
 40
0.0
 40
0.0
 40
80.0
 40
80.0
 40
80.0
 40
80.0
 10
77.26010109314609
 20
314.0143729102306
 30
0.0
 10
77.24533121053752
 20
314.3540795341175
 30
0.0
 10
77.35610511881737
 20
314.6420916956452
 30
0.0
 10
77.59242281798572
 20
314.8784093948136
 30
0.0
  0
SPLINE
  5
F13
330
D
100
AcDbEntity
 67
     1
  8
AM_VIS
100
AcDbSpline
210
0.0
220
0.0
230
1.0
 70
     8
 71
     3
 72
     8
 73
     4
 74
     0
 42
0.0000000001
 43
0.0000000001
 40
0.0
 40
0.0
 40
0.0
 40
0.0
 40
80.0
 40
80.0
 40
80.0
 40
80.0
 10
77.78627715747552
 20
312.9454046953297
 30
0.0
 10
77.45210918674558
 20
313.2795725815459
 30
0.0
 10
77.27671717938807
 20
313.6358953339318
 30
0.0
 10
77.26010109314609
 20
314.0143729102306
 30
0.0
  0
SPLINE
  5
F14
330
D
100
AcDbEntity
 67
     1
  8
AM_VIS
100
AcDbSpline
210
0.0
220
0.0
230
1.0
 70
     8
 71
     3
 72
     8
 73
     4
 74
     0
 42
0.0000000001
 43
0.0000000001
 40
0.0
 40
0.0
 40
0.0
 40
0.0
 40
80.0
 40
80.0
 40
80.0
 40
80.0
 10
78.81647450447838
 20
312.4247673264143
 30
0.0
 10
78.44907436126447
 20
312.4524607612274
 30
0.0
 10
78.1056752455969
 20
312.6260065226946
 30
0.0
 10
77.78627715747552
 20
312.9454046953297
 30
0.0
  0
SPLINE
  5
F15
330
D
100
AcDbEntity
 67
     1
  8
AM_VIS
100
AcDbSpline
210
0.0
220
0.0
230
1.0
 70
     8
 71
     3
 72
     8
 73
     4
 74
     0
 42
0.0000000001
 43
0.0000000001
 40
0.0
 40
0.0
 40
0.0
 40
0.0
 40
80.0
 40
80.0
 40
80.0
 40
80.0
 10
79.71374316154538
 20
312.757089051254
 30
0.0
 10
79.46634807154907
 20
312.5096939612576
 30
0.0
 10
79.16725851919341
 20
312.3989200529777
 30
0.0
 10
78.81647450447838
 20
312.4247673264143
 30
0.0
  0
SPLINE
  5
F16
330
D
100
AcDbEntity
 67
     1
  8
AM_VIS
100
AcDbSpline
210
0.0
220
0.0
230
1.0
 70
     8
 71
     3
 72
     8
 73
     4
 74
     0
 42
0.0000000001
 43
0.0000000001
 40
0.0
 40
0.0
 40
0.0
 40
0.0
 40
80.0
 40
80.0
 40
80.0
 40
80.0
 10
80.048834234092
 20
313.6571270560279
 30
0.0
 10
80.07468146527168
 20
313.306342999056
 30
0.0
 10
79.9629844551751
 20
313.0063303448836
 30
0.0
 10
79.71374316154538
 20
312.757089051254
 30
0.0
  0
LINE
  5
F17
330
D
100
AcDbEntity
 67
     1
  8
AM_VIS
100
AcDbLine
 10
81.47920232475588
 20
314.5945512548463
 30
0.0
 11
80.6871688805548
 21
313.8025178106453
 31
0.0
  0
LINE
  5
F18
330
D
100
AcDbEntity
 67
     1
  8
AM_VIS
100
AcDbLine
 10
81.42381537061595
 20
314.6499382089863
 30
0.0
 11
81.47920232475588
 21
314.5945512548463
 31
0.0
  0
SPLINE
  5
F19
330
D
100
AcDbEntity
 67
     1
  8
AM_VIS
100
AcDbSpline
210
0.0
220
0.0
230
1.0
 70
     8
 71
     3
 72
     8
 73
     4
 74
     0
 42
0.0000000001
 43
0.0000000001
 40
0.0
 40
0.0
 40
0.0
 40
0.0
 40
80.0
 40
80.0
 40
80.0
 40
80.0
 10
81.13303386138126
 20
314.4754693034455
 30
0.0
 10
81.21057555492029
 20
314.4828542447498
 30
0.0
 10
81.30750272466519
 20
314.5410105465967
 30
0.0
 10
81.42381537061595
 20
314.6499382089863
 30
0.0
  0
SPLINE
  5
F1A
330
D
100
AcDbEntity
 67
     1
  8
AM_VIS
100
AcDbSpline
210
0.0
220
0.0
230
1.0
 70
     8
 71
     3
 72
     8
 73
     4
 74
     0
 42
0.0000000001
 43
0.0000000001
 40
0.0
 40
0.0
 40
0.0
 40
0.0
 40
80.0
 40
80.0
 40
80.0
 40
80.0
 10
80.81178952736967
 20
314.6305527750373
 30
0.0
 10
80.9281021310635
 20
314.5142401713434
 30
0.0
 10
81.03518354756284
 20
314.4625457089841
 30
0.0
 10
81.13303386138126
 20
314.4754693034455
 30
0.0
  0
LINE
  5
F1B
330
D
100
AcDbEntity
 67
     1
  8
AM_VIS
100
AcDbLine
 10
79.48250262801116
 20
315.9598396743959
 30
0.0
 11
80.81178952736967
 21
314.6305527750373
 31
0.0
  0
SPLINE
  5
F1C
330
D
100
AcDbEntity
 67
     1
  8
AM_VIS
100
AcDbSpline
210
0.0
220
0.0
230
1.0
 70
     8
 71
     3
 72
     8
 73
     4
 74
     0
 42
0.0000000001
 43
0.0000000001
 40
0.0
 40
0.0
 40
0.0
 40
0.0
 40
80.0
 40
80.0
 40
80.0
 40
80.0
 10
79.32188046100532
 20
316.2866227038215
 30
0.0
 10
79.31080307017731
 20
316.1869261863696
 30
0.0
 10
79.36434382068387
 20
316.0779984817232
 30
0.0
 10
79.48250262801116
 20
315.9598396743959
 30
0.0
  0
SPLINE
  5
F1D
330
D
100
AcDbEntity
 67
     1
  8
AM_VIS
100
AcDbSpline
210
0.0
220
0.0
230
1.0
 70
     8
 71
     3
 72
     8
 73
     4
 74
     0
 42
0.0000000001
 43
0.0000000001
 40
0.0
 40
0.0
 40
0.0
 40
0.0
 40
80.0
 40
80.0
 40
80.0
 40
80.0
 10
79.49911871425308
 20
316.5746348653492
 30
0.0
 10
79.39203725549692
 20
316.456476015765
 30
0.0
 10
79.33295785183327
 20
316.3604719478368
 30
0.0
 10
79.32188046100532
 20
316.2866227038215
 30
0.0
  0
LINE
  5
F1E
330
D
100
AcDbEntity
 67
     1
  8
AM_VIS
100
AcDbLine
 10
79.44373176011317
 20
316.6300218194891
 30
0.0
 11
79.49911871425308
 21
316.5746348653491
 31
0.0
  0
LINE
  5
F1F
330
D
100
AcDbEntity
 67
     1
  8
AM_VIS
100
AcDbLine
 10
78.65169831591209
 20
315.837988375288
 30
0.0
 11
79.44373176011317
 21
316.6300218194891
 31
0.0
  0
LINE
  5
F20
330
D
100
AcDbEntity
 67
     1
  8
AM_VIS
100
AcDbLine
 10
78.70708527005195
 20
315.782601421148
 30
0.0
 11
78.65169831591202
 21
315.837988375288
 31
0.0
  0
SPLINE
  5
F21
330
D
100
AcDbEntity
 67
     1
  8
AM_VIS
100
AcDbSpline
210
0.0
220
0.0
230
1.0
 70
     8
 71
     3
 72
     8
 73
     4
 74
     0
 42
0.0000000001
 43
0.0000000001
 40
0.0
 40
0.0
 40
0.0
 40
0.0
 40
80.0
 40
80.0
 40
80.0
 40
80.0
 10
79.01448286552863
 20
315.9626090221029
 30
0.0
 10
78.93878737562307
 20
315.957070284432
 30
0.0
 10
78.83632146820724
 20
315.8970677366948
 30
0.0
 10
78.70708527005195
 20
315.782601421148
 30
0.0
  0
SPLINE
  5
F22
330
D
100
AcDbEntity
 67
     1
  8
AM_VIS
100
AcDbSpline
210
0.0
220
0.0
230
1.0
 70
     8
 71
     3
 72
     8
 73
     4
 74
     0
 42
0.0000000001
 43
0.0000000001
 40
0.0
 40
0.0
 40
0.0
 40
0.0
 40
80.0
 40
80.0
 40
80.0
 40
80.0
 10
79.31911111329828
 20
315.7964481596831
 30
0.0
 10
79.20464475549477
 20
315.9109145174866
 30
0.0
 10
79.10310199215257
 20
315.9663014293697
 30
0.0
 10
79.01448286552863
 20
315.9626090221029
 30
0.0
  0
LINE
  5
F23
330
D
100
AcDbEntity
 67
     1
  8
AM_VIS
100
AcDbLine
 10
80.6483980126568
 20
314.4671612603245
 30
0.0
 11
79.31911111329828
 21
315.7964481596831
 31
0.0
  0
SPLINE
  5
F24
330
D
100
AcDbEntity
 67
     1
  8
AM_VIS
100
AcDbSpline
210
0.0
220
0.0
230
1.0
 70
     8
 71
     3
 72
     8
 73
     4
 74
     0
 42
0.0000000001
 43
0.0000000001
 40
0.0
 40
0.0
 40
0.0
 40
0.0
 40
80.0
 40
80.0
 40
80.0
 40
80.0
 10
80.80902017966264
 20
314.1736104033828
 30
0.0
 10
80.81271258692948
 20
314.2585370382262
 30
0.0
 10
80.75917192093669
 20
314.3563873520446
 30
0.0
 10
80.6483980126568
 20
314.4671612603245
 30
0.0
  0
SPLINE
  5
F25
330
D
100
AcDbEntity
 67
     1
  8
AM_VIS
100
AcDbSpline
210
0.0
220
0.0
230
1.0
 70
     8
 71
     3
 72
     8
 73
     4
 74
     0
 42
0.0000000001
 43
0.0000000001
 40
0.0
 40
0.0
 40
0.0
 40
0.0
 40
80.0
 40
80.0
 40
80.0
 40
80.0
 10
80.63178192641487
 20
313.8579047647852
 30
0.0
 10
80.74809448785186
 20
313.9852947170502
 30
0.0
 10
80.8071738915155
 20
314.0905299721729
 30
0.0
 10
80.80902017966264
 20
314.1736104033828
 30
0.0
  0
LINE
  5
F26
330
D
100
AcDbEntity
 67
     1
  8
AM_VIS
100
AcDbLine
 10
80.6871688805548
 20
313.8025178106453
 30
0.0
 11
80.63178192641487
 21
313.8579047647852
 31
0.0
  0
LINE
  5
F27
330
D
100
AcDbEntity
 67
     1
  8
AM_VIS
100
AcDbLine
 10
72.11872863682072
 20
340.8353480125257
 30
0.0
 11
68.09208732966112
 21
333.357299870658
 31
0.0
  0
LINE
  5
F28
330
D
100
AcDbEntity
 67
     1
  8
AM_VIS
100
AcDbLine
 10
65.99200412460823
 20
323.5735971209451
 30
0.0
 11
70.59272794433837
 21
321.273235202715
 31
0.0
  0
LINE
  5
F29
330
D
100
AcDbEntity
 67
     1
  8
AM_VIS
100
AcDbLine
 10
70.59272794381803
 20
320.9154643263151
 30
0.0
 11
65.99200412297353
 21
318.6151024242578
 31
0.0
  0
LINE
  5
F2A
330
D
100
AcDbEntity
 67
     1
  8
AM_VIS
100
AcDbLine
 10
62.45049882047812
 20
310.0943497721756
 30
0.0
 11
62.45049882047823
 21
332.0943497821756
 31
0.0
  0
LINE
  5
F2B
330
D
100
AcDbEntity
 67
     1
  8
AM_VIS
100
AcDbLine
 10
115.4504988204782
 20
332.0943497821753
 30
0.0
 11
115.4504988204781
 21
310.0943497721753
 31
0.0
  0
LINE
  5
F2C
330
D
100
AcDbEntity
 67
     1
  8
AM_VIS
100
AcDbLine
 10
80.9234396360422
 20
296.0943497621755
 30
0.0
 11
96.97755800491387
 21
296.0943497621754
 31
0.0
  0
LINE
  5
F2D
330
D
100
AcDbEntity
 67
     1
  8
AM_VIS
100
AcDbLine
 10
105.7822690041356
 20
301.3533515318252
 30
0.0
 11
109.8089103166798
 21
308.8313996836929
 31
0.0
  0
LINE
  5
F2E
330
D
100
AcDbEntity
 67
     1
  8
AM_VIS
100
AcDbLine
 10
68.09208732427634
 20
308.8313996836931
 30
0.0
 11
72.11872863682049
 21
301.3533515318254
 31
0.0
  0
LINE
  5
F2F
330
D
100
AcDbEntity
 67
     1
  8
AM_VIS
100
AcDbLine
 10
78.76472442674634
 20
294.5943497821755
 30
0.0
 11
99.13627321420984
 21
294.5943497821754
 31
0.0
  0
LINE
  5
F30
330
D
100
AcDbEntity
 67
     1
  8
AM_VIS
100
AcDbLine
 10
96.97755801491418
 20
346.0943497821754
 30
0.0
 11
80.92343963604241
 21
346.0943497821755
 31
0.0
  0
LINE
  5
F31
330
D
100
AcDbEntity
 67
     1
  8
AM_VIS
100
AcDbLine
 10
109.8089103212953
 20
333.3572998706578
 30
0.0
 11
105.7822690141358
 21
340.8353480125255
 31
0.0
  0
LINE
  5
F32
330
D
100
AcDbEntity
 67
     1
  8
AM_VIS
100
AcDbLine
 10
99.13627321420996
 20
347.5943497821754
 30
0.0
 11
78.76472442674668
 21
347.5943497821755
 31
0.0
  0
LINE
  5
F33
330
D
100
AcDbEntity
 67
     1
  8
AM_VIS
100
AcDbLine
 10
67.6518517797
 20
333.0943497821755
 30
0.0
 11
62.45049882047823
 21
333.0943497821756
 31
0.0
  0
LINE
  5
F34
330
D
100
AcDbEntity
 67
     1
  8
AM_VIS
100
AcDbLine
 10
110.2491458666409
 20
309.0943497721753
 30
0.0
 11
115.4504988204781
 21
309.0943497721753
 31
0.0
  0
LINE
  5
F35
330
D
100
AcDbEntity
 67
     1
  8
AM_VIS
100
AcDbLine
 10
62.45049882047812
 20
309.0943497721756
 30
0.0
 11
67.65185177431527
 21
309.0943497721755
 31
0.0
  0
LINE
  5
F36
330
D
100
AcDbEntity
 67
     1
  8
AM_VIS
100
AcDbLine
 10
115.4504988204782
 20
333.0943497821753
 30
0.0
 11
110.2491458712564
 21
333.0943497821754
 31
0.0
  0
CIRCLE
  5
F37
330
D
100
AcDbEntity
 67
     1
  8
AM_VIS
100
AcDbCircle
 10
97.95049882089779
 20
322.0943497739945
 30
0.0
 40
11.0
  0
LINE
  5
F38
330
D
100
AcDbEntity
 67
     1
  8
AM_VIS
100
AcDbLine
 10
62.45049882047823
 20
332.0943497821756
 30
0.0
 11
62.45049882047823
 21
333.0943497821756
 31
0.0
  0
ARC
  5
F39
330
D
100
AcDbEntity
 67
     1
  8
AM_VIS
100
AcDbCircle
 10
80.92343963604241
 20
336.0943497821755
 30
0.0
 40
10.0
100
AcDbArc
 50
90.0
 51
151.6992442339945
  0
ARC
  5
F3A
330
D
100
AcDbEntity
 67
     1
  8
AM_VIS
100
AcDbCircle
 10
67.6518517797
 20
333.5943497821755
 30
0.0
 40
0.5
100
AcDbArc
 50
270.0
 51
331.6992442339927
  0
LINE
  5
F3B
330
D
100
AcDbEntity
 67
     1
  8
AM_VIS
100
AcDbLine
 10
115.4504988204782
 20
333.0943497821753
 30
0.0
 11
115.4504988204782
 21
332.0943497821753
 31
0.0
  0
ARC
  5
F3C
330
D
100
AcDbEntity
 67
     1
  8
AM_VIS
100
AcDbCircle
 10
70.50328522497818
 20
321.0943497646451
 30
0.0
 40
0.2
100
AcDbArc
 50
296.5650510937379
 51
63.43494873958113
  0
ARC
  5
F3D
330
D
100
AcDbEntity
 67
     1
  8
AM_VIS
100
AcDbCircle
 10
65.90256140524809
 20
323.3947116828753
 30
0.0
 40
0.2
100
AcDbArc
 50
63.43494873958113
 51
203.8016887995229
  0
ARC
  5
F3E
330
D
100
AcDbEntity
 67
     1
  8
AM_VIS
100
AcDbCircle
 10
60.68735909966375
 20
321.0943497739947
 30
0.0
 40
5.5
100
AcDbArc
 50
336.1983111727208
 51
23.80168879952454
  0
ARC
  5
F3F
330
D
100
AcDbEntity
 67
     1
  8
AM_VIS
100
AcDbCircle
 10
65.90256140413373
 20
318.7939878625879
 30
0.0
 40
0.2
100
AcDbArc
 50
156.1983111727208
 51
296.5650510937379
  0
LINE
  5
F40
330
D
100
AcDbEntity
 67
     1
  8
AM_VIS
100
AcDbLine
 10
62.45049882047812
 20
309.0943497721756
 30
0.0
 11
62.45049882047812
 21
310.0943497721756
 31
0.0
  0
ARC
  5
F41
330
D
100
AcDbEntity
 67
     1
  8
AM_VIS
100
AcDbCircle
 10
80.9234396360423
 20
306.0943497621755
 30
0.0
 40
10.0
100
AcDbArc
 50
208.3007557660055
 51
270.0
  0
ARC
  5
F42
330
D
100
AcDbEntity
 67
     1
  8
AM_VIS
100
AcDbCircle
 10
96.97755800491393
 20
306.0943497621754
 30
0.0
 40
10.0
100
AcDbArc
 50
270.0
 51
331.6992442339927
  0
ARC
  5
F43
330
D
100
AcDbEntity
 67
     1
  8
AM_VIS
100
AcDbCircle
 10
110.2491458666409
 20
308.5943497721753
 30
0.0
 40
0.5
100
AcDbArc
 50
90.0
 51
151.6992442339926
  0
LINE
  5
F44
330
D
100
AcDbEntity
 67
     1
  8
AM_VIS
100
AcDbLine
 10
115.4504988204781
 20
310.0943497721753
 30
0.0
 11
115.4504988204781
 21
309.0943497721753
 31
0.0
  0
ARC
  5
F45
330
D
100
AcDbEntity
 67
     1
  8
AM_VIS
100
AcDbCircle
 10
67.65185177431527
 20
308.5943497721755
 30
0.0
 40
0.5
100
AcDbArc
 50
28.30075576600735
 51
90.0
  0
ARC
  5
F46
330
D
100
AcDbEntity
 67
     1
  8
AM_VIS
100
AcDbCircle
 10
88.95049882047818
 20
321.0943497821754
 30
0.0
 40
29.0
100
AcDbArc
 50
297.5801992035875
 51
328.8526100554055
  0
ARC
  5
F47
330
D
100
AcDbEntity
 67
     1
  8
AM_VIS
100
AcDbCircle
 10
99.13627321420984
 20
301.5943497821754
 30
0.0
 40
6.999999999999998
100
AcDbArc
 50
270.0
 51
297.5801992035875
  0
ARC
  5
F48
330
D
100
AcDbEntity
 67
     1
  8
AM_VIS
100
AcDbCircle
 10
78.76472442674639
 20
301.5943497821755
 30
0.0
 40
6.999999999999999
100
AcDbArc
 50
242.419800796411
 51
270.0
  0
ARC
  5
F49
330
D
100
AcDbEntity
 67
     1
  8
AM_VIS
100
AcDbCircle
 10
88.95049882047818
 20
321.0943497821754
 30
0.0
 40
29.0
100
AcDbArc
 50
211.1473899445933
 51
242.419800796411
  0
ARC
  5
F4A
330
D
100
AcDbEntity
 67
     1
  8
AM_VIS
100
AcDbCircle
 10
96.9775580149141
 20
336.0943497821754
 30
0.0
 40
10.0
100
AcDbArc
 50
28.30075576600553
 51
90.0
  0
ARC
  5
F4B
330
D
100
AcDbEntity
 67
     1
  8
AM_VIS
100
AcDbCircle
 10
110.2491458712564
 20
333.5943497821753
 30
0.0
 40
0.5
100
AcDbArc
 50
208.3007557660073
 51
270.0
  0
ARC
  5
F4C
330
D
100
AcDbEntity
 67
     1
  8
AM_VIS
100
AcDbCircle
 10
88.95049882047818
 20
321.0943497821754
 30
0.0
 40
29.0
100
AcDbArc
 50
31.1473899215092
 51
62.41980079641106
  0
ARC
  5
F4D
330
D
100
AcDbEntity
 67
     1
  8
AM_VIS
100
AcDbCircle
 10
88.95049882047818
 20
321.0943497821754
 30
0.0
 40
29.0
100
AcDbArc
 50
117.5801992035874
 51
148.8526100784907
  0
ARC
  5
F4E
330
D
100
AcDbEntity
 67
     1
  8
AM_VIS
100
AcDbCircle
 10
99.13627321420996
 20
340.5943497821754
 30
0.0
 40
7.0
100
AcDbArc
 50
62.41980079641251
 51
90.0
  0
ARC
  5
F4F
330
D
100
AcDbEntity
 67
     1
  8
AM_VIS
100
AcDbCircle
 10
78.76472442674662
 20
340.5943497821755
 30
0.0
 40
6.999999999999999
100
AcDbArc
 50
90.0
 51
117.5801992035874
  0
CIRCLE
  5
F50
330
D
100
AcDbEntity
 67
     1
  8
AM_VIS
100
AcDbCircle
 10
100.9504988204783
 20
340.0943497821754
 30
0.0
 40
1.711
  0
CIRCLE
  5
F51
330
D
100
AcDbEntity
 67
     1
  8
AM_VIS
100
AcDbCircle
 10
76.95049882047806
 20
302.0943497821755
 30
0.0
 40
1.711
  0
DIMENSION
  5
F52
330
D
100
AcDbEntity
 67
     1
  8
AM_5
100
AcDbDimension
  2
*D15
 10
247.111068586101
 20
263.2021345315215
 30
0.0
 11
244.3607240979119
 21
182.2521345315216
 31
0.0
 70
    32
 71
     5
 42
161.8999999999999
  3
AM_ISO$0
100
AcDbAlignedDimension
 13
200.6110685861009
 23
101.3021345315216
 33
0.0
 14
197.9070091371857
 24
263.2021345315215
 34
0.0
 50
90.0
100
AcDbRotatedDimension
1001
ACAD
1000
DSTYLE
1002
{
1070
   271
1070
     0
1002
}
  0
DIMENSION
  5
F53
330
D
100
AcDbEntity
 67
     1
  8
AM_5
100
AcDbDimension
  2
*D16
 10
235.111068586101
 20
263.2021345315215
 30
0.0
 11
232.3610685861009
 21
239.7521345315216
 31
0.0
 70
    32
 71
     5
 42
46.90000000000003
  3
AM_ISO$0
100
AcDbAlignedDimension
 13
204.7110685861008
 23
216.3021345315215
 33
0.0
 14
191.61106857792
 24
263.2021345315215
 34
0.0
 50
90.0
100
AcDbRotatedDimension
1001
ACAD
1000
DSTYLE
1002
{
1070
   271
1070
     0
1002
}
  0
DIMENSION
  5
F54
330
D
100
AcDbEntity
 67
     1
  8
AM_5
100
AcDbDimension
  2
*D17
 10
115.4504988204783
 20
359.5943507921755
 30
0.0
 11
88.95049882047826
 21
362.3443507921755
 31
0.0
 70
    32
 71
     5
 42
53.00000000000006
  3
AM_ISO$0
100
AcDbAlignedDimension
 13
62.45049882047823
 23
336.0943497821756
 33
0.0
 14
115.4504988204783
 24
336.0943497821752
 34
0.0
100
AcDbRotatedDimension
  0
DIMENSION
  5
F55
330
D
100
AcDbEntity
 67
     1
  8
AM_5
100
AcDbDimension
  2
*D18
 10
134.4988734830644
 20
347.5943497821754
 30
0.0
 11
134.4988734830643
 21
321.5625663035453
 31
0.0
 70
   160
 71
     5
 42
53.0
  3
AM_ISO$0
100
AcDbAlignedDimension
 13
99.13627321420984
 23
294.5943497821754
 33
0.0
 14
99.13627321421001
 24
347.5943497821754
 34
0.0
 50
90.0
100
AcDbRotatedDimension
  0
DIMENSION
  5
F56
330
D
100
AcDbEntity
 67
     1
  8
AM_5
100
AcDbDimension
  2
*D19
 10
190.6110685861005
 20
216.3021345315216
 30
0.0
 11
146.7590484616586
 21
166.6475301577414
 31
0.0
 70
   164
  1
2-PT3/8\P2-PT1/4
 71
     5
 42
5.700000000000045
  3
AM_ISO$4
100
AcDbRadialDimension
 15
187.3645745257191
 25
211.6170223326615
 35
0.0
 40
0.0
  0
LINE
  5
F57
330
D
100
AcDbEntity
 67
     1
  8
AM_5
100
AcDbLine
 10
134.0923899970917
 20
174.7704242592926
 30
0.0
 11
160.6257069262255
 21
174.7704242592926
 31
0.0
  0
DIMENSION
  5
F58
102
{ACAD_XDICTIONARY
360
F59
102
}
102
{ACAD_REACTORS
330
F5A
102
}
330
D
100
AcDbEntity
 67
     1
  8
AM_5
100
AcDbDimension
  2
*D20
 10
235.111068586101
 20
101.3021345315216
 30
0.0
 11
232.3610685861009
 21
158.8021345315216
 31
0.0
 70
    32
 71
     5
 42
114.9999999999999
  3
AM_ISO$0
100
AcDbAlignedDimension
 13
204.7110685861008
 23
216.3021345315215
 33
0.0
 14
200.6110685861009
 24
101.3021345315216
 34
0.0
 50
90.0
100
AcDbRotatedDimension
  0
ENDSEC
  0
SECTION
  2
OBJECTS
  0
DICTIONARY
  5
8
330
0
100
AcDbDictionary
281
     1
  3
ACAD_COLOR
350
2F
  3
ACAD_GROUP
350
2B
  3
ACAD_LAYOUT
350
C
  3
ACAD_MATERIAL
350
2E
  3
ACAD_MLINESTYLE
350
2C
  3
ACAD_PLOTSETTINGS
350
2D
  3
ACAD_PLOTSTYLENAME
350
7
  3
ACAD_TABLESTYLE
350
30
  3
ACDBHEADERROUNDTRIPXREC
350
FD5
  3
AcDbVariableDictionary
350
3A0
  3
AcmDictionary
350
404
  3
AMG
350
3AC
  3
AMGSNAPSETTINGS
350
43C
  3
DWGPROPS
350
FD4
  0
DICTIONARY
  5
13
330
12
100
AcDbDictionary
280
     1
281
     1
  3
ACAD_LAYERSTATES
360
14
  0
DICTIONARY
  5
3
330
2
100
AcDbDictionary
280
     1
281
     1
  0
DICTIONARY
  5
FDA
330
3AA
100
AcDbDictionary
280
     1
281
     1
  3
ACAD_XREC_ROUNDTRIP
360
FDB
  0
DICTIONARY
  5
F59
330
F58
100
AcDbDictionary
280
     1
281
     1
  3
ACAD_DIMASSOC
360
F5A
  0
DICTIONARY
  5
2F
102
{ACAD_REACTORS
330
8
102
}
330
8
100
AcDbDictionary
281
     1
  0
DICTIONARY
  5
2B
102
{ACAD_REACTORS
330
8
102
}
330
8
100
AcDbDictionary
281
     1
  0
DICTIONARY
  5
C
102
{ACAD_REACTORS
330
8
102
}
330
8
100
AcDbDictionary
281
     1
  3
Model
350
B
  3
配置1
350
10
  0
DICTIONARY
  5
2E
102
{ACAD_REACTORS
330
8
102
}
330
8
100
AcDbDictionary
281
     1
  0
DICTIONARY
  5
2C
102
{ACAD_REACTORS
330
8
102
}
330
8
100
AcDbDictionary
281
     1
  3
STANDARD
350
31
  0
DICTIONARY
  5
2D
102
{ACAD_REACTORS
330
8
102
}
330
8
100
AcDbDictionary
281
     1
  0
ACDBDICTIONARYWDFLT
  5
7
102
{ACAD_REACTORS
330
8
102
}
330
8
100
AcDbDictionary
281
     1
  3
Normal
350
6
100
AcDbDictionaryWithDefault
340
6
  0
DICTIONARY
  5
30
102
{ACAD_REACTORS
330
8
102
}
330
8
100
AcDbDictionary
281
     1
  3
Standard
350
32
  0
DICTIONARY
  5
FD5
102
{ACAD_REACTORS
330
8
102
}
330
8
100
AcDbDictionary
281
     1
  0
DICTIONARY
  5
3A0
102
{ACAD_REACTORS
330
8
102
}
330
8
100
AcDbDictionary
281
     1
  3
CTABLESTYLE
350
3A1
  3
DIMASSOC
350
766
  3
HIDETEXT
350
765
  3
PROJECTNAME
350
767
  0
DICTIONARY
  5
404
102
{ACAD_REACTORS
330
8
102
}
330
8
100
AcDbDictionary
281
     1
  3
AcmStdDictionary
350
411
  3
AMDTSECTSYM_ARROWCOLOR
350
42D
  0
DICTIONARY
  5
3AC
102
{ACAD_REACTORS
330
8
102
}
330
8
100
AcDbDictionary
281
     1
  0
DICTIONARY
  5
43C
102
{ACAD_REACTORS
330
8
102
}
330
8
100
AcDbDictionary
281
     1
  0
XRECORD
  5
FD4
102
{ACAD_REACTORS
330
8
102
}
330
8
100
AcDbXrecord
280
     1
  1
DWGPROPS COOKIE
  2

  3

  4

  6

  7

  8

  9

300
=
301
=
302
=
303
=
304
=
305
=
306
=
307
=
308
=
309
=
 40
1.452736284722222
 41
2452486.501936366
 42
2455397.700882407
  1

 90
        0
  0
DICTIONARY
  5
14
102
{ACAD_REACTORS
330
13
102
}
330
13
100
AcDbDictionary
281
     1
  0
XRECORD
  5
FDB
102
{ACAD_REACTORS
330
FDA
102
}
330
FDA
100
AcDbXrecord
280
     1
102
SHADEPLOT
 70
     0
  0
DIMASSOC
  5
F5A
102
{ACAD_REACTORS
330
F59
102
}
330
F59
100
AcDbDimAssoc
330
F58
 90
        1
 70
     0
 71
     0
  1
AcDbOsnapPointRef
 72
     1
331
C4B
 73
     0
 91
        0
 40
0.0
 10
0.0
 20
0.0
 30
2.000000000000000E+50
 75
     0
  0
LAYOUT
  5
B
102
{ACAD_XDICTIONARY
360
FD6
102
}
102
{ACAD_REACTORS
330
C
102
}
330
C
100
AcDbPlotSettings
  1

  2
\\NOVIBDC\HPLJ4-TPUB
  4

  6

 40
0.0
 41
0.0
 42
0.0
 43
0.0
 44
0.0
 45
0.0
 46
0.0
 47
0.0
 48
0.0
 49
0.0
140
0.0
141
0.0
142
1.0
143
1.0
 70
  1712
 72
     0
 73
     0
 74
     0
  7

 75
     0
147
1.0
148
0.0
149
0.0
100
AcDbLayout
  1
Model
 70
     1
 71
     0
 10
0.0
 20
0.0
 11
12.0
 21
9.0
 12
0.0
 22
0.0
 32
0.0
 14
0.0
 24
0.0
 34
0.0
 15
0.0
 25
0.0
 35
0.0
146
0.0
 13
0.0
 23
0.0
 33
0.0
 16
1.0
 26
0.0
 36
0.0
 17
0.0
 27
1.0
 37
0.0
 76
     0
330
2
  0
LAYOUT
  5
10
102
{ACAD_XDICTIONARY
360
FD8
102
}
102
{ACAD_REACTORS
330
C
102
}
330
C
100
AcDbPlotSettings
  1

  2
\\RDS1\iR3300影印機
  4
A3
  6

 40
6.805083274841308
 41
5.365738868713378
 42
7.228424072265625
 43
5.027069091796875
 44
296.9259948730469
 45
419.9466552734374
 46
0.0
 47
0.0
 48
0.0
 49
0.0
140
0.0
141
0.0
142
1.0
143
1.0
 70
   688
 72
     1
 73
     0
 74
     5
  7

 75
    16
147
1.0
148
0.0
149
0.0
100
AcDbLayout
  1
配置1
 70
     1
 71
     1
 10
-6.805083274841308
 20
-5.365738868713378
 11
290.1209115982056
 21
414.5809164047241
 12
0.0
 22
0.0
 32
0.0
 14
15.83951159531318
 24
20.28499549248261
 34
-0.0059966716976874
 15
266.5701718850775
 25
384.4446697926114
 35
235.9051070892409
146
0.0
 13
0.0
 23
0.0
 33
0.0
 16
1.0
 26
0.0
 36
0.0
 17
0.0
 27
1.0
 37
0.0
 76
     0
330
D
331
3AA
1001
ACAD_PSEXT
1000
\\RDS1\iR3300影印機
1000
Canon iR2200-3300 PCL5e
1000
\\RDS1
1000

1070
     0
  0
MLINESTYLE
  5
31
102
{ACAD_REACTORS
330
2C
102
}
330
2C
100
AcDbMlineStyle
  2
STANDARD
 70
     0
  3

 62
     0
 51
90.0
 52
90.0
 71
     2
 49
0.5
 62
   256
  6
BYLAYER
 49
-0.5
 62
   256
  6
BYLAYER
  0
ACDBPLACEHOLDER
  5
6
102
{ACAD_REACTORS
330
7
102
}
330
7
  0
TABLESTYLE
  5
32
102
{ACAD_REACTORS
330
30
102
}
330
30
100
AcDbTableStyle
  3
Standard
 70
     0
 71
     0
 40
1.5
 41
1.5
280
     0
281
     0
  7
STANDARD
140
4.5
170
     2
 62
     0
 63
     7
283
     0
274
    -2
284
     1
 64
     0
275
    -2
285
     1
 65
     0
276
    -2
286
     1
 66
     0
277
    -2
287
     1
 67
     0
278
    -2
288
     1
 68
     0
279
    -2
289
     1
 69
     0
  7
STANDARD
140
6.0
170
     5
 62
     0
 63
     7
283
     0
274
    -2
284
     1
 64
     0
275
    -2
285
     1
 65
     0
276
    -2
286
     1
 66
     0
277
    -2
287
     1
 67
     0
278
    -2
288
     1
 68
     0
279
    -2
289
     1
 69
     0
  7
STANDARD
140
4.5
170
     5
 62
     0
 63
     7
283
     0
274
    -2
284
     1
 64
     0
275
    -2
285
     1
 65
     0
276
    -2
286
     1
 66
     0
277
    -2
287
     1
 67
     0
278
    -2
288
     1
 68
     0
279
    -2
289
     1
 69
     0
  0
DICTIONARYVAR
  5
3A1
102
{ACAD_REACTORS
330
3A0
102
}
330
3A0
100
DictionaryVariables
280
     0
  1
STANDARD
  0
DICTIONARYVAR
  5
766
102
{ACAD_REACTORS
330
3A0
102
}
330
3A0
100
DictionaryVariables
280
     0
  1
1
  0
DICTIONARYVAR
  5
765
102
{ACAD_REACTORS
330
3A0
102
}
330
3A0
100
DictionaryVariables
280
     0
  1
1
  0
DICTIONARYVAR
  5
767
102
{ACAD_REACTORS
330
3A0
102
}
330
3A0
100
DictionaryVariables
280
     0
  1

  0
DICTIONARY
  5
411
102
{ACAD_REACTORS
330
404
102
}
330
404
100
AcDbDictionary
281
     1
  0
XRECORD
  5
42D
102
{ACAD_REACTORS
330
404
102
}
330
404
100
AcDbXrecord
280
     1
 90
-1023410169
  0
DICTIONARY
  5
FD6
330
B
100
AcDbDictionary
280
     1
281
     1
  3
ACAD_XREC_ROUNDTRIP
360
FD7
  0
DICTIONARY
  5
FD8
330
10
100
AcDbDictionary
280
     1
281
     1
  3
ACAD_XREC_ROUNDTRIP
360
FD9
  0
XRECORD
  5
FD7
102
{ACAD_REACTORS
330
FD6
102
}
330
FD6
100
AcDbXrecord
280
     1
102
SHADEPLOT
 70
     0
102
SHADEPLOTRESLEVEL
 70
     2
102
SHADEPLOTCUSTOMDPI
 70
   300
  0
XRECORD
  5
FD9
102
{ACAD_REACTORS
330
FD8
102
}
330
FD8
100
AcDbXrecord
280
     1
102
SHADEPLOT
 70
     0
102
SHADEPLOTRESLEVEL
 70
     2
102
SHADEPLOTCUSTOMDPI
 70
   300
  0
ENDSEC
  0
EOF
