  0
SECTION
  2
HEADER
  9
$ACADVER
  1
AC1015
  9
$ACADMAINTVER
 70
    20
  9
$DWGCODEPAGE
  3
ANSI_950
  9
$INSBASE
 10
0.0
 20
0.0
 30
0.0
  9
$EXTMIN
 10
1.000000000000000E+20
 20
1.000000000000000E+20
 30
1.000000000000000E+20
  9
$EXTMAX
 10
0.0
 20
0.0
 30
0.0
  9
$LIMMIN
 10
0.0
 20
0.0
  9
$LIMMAX
 10
17.0
 20
11.0
  9
$ORTHOMODE
 70
     1
  9
$REGENMODE
 70
     1
  9
$FILLMODE
 70
     1
  9
$QTEXTMODE
 70
     0
  9
$MIRRTEXT
 70
     1
  9
$LTSCALE
 40
1.0
  9
$ATTMODE
 70
     1
  9
$TEXTSIZE
 40
3.0
  9
$TRACEWID
 40
0.05
  9
$TEXTSTYLE
  7
DAYUS
  9
$CLAYER
  8
0
  9
$CELTYPE
  6
BYLAYER
  9
$CECOLOR
 62
   256
  9
$CELTSCALE
 40
1.0
  9
$DISPSILH
 70
     0
  9
$DIMSCALE
 40
1.3
  9
$DIMASZ
 40
3.5
  9
$DIMEXO
 40
1.0
  9
$DIMDLI
 40
8.0
  9
$DIMRND
 40
0.0
  9
$DIMDLE
 40
0.0
  9
$DIMEXE
 40
1.0
  9
$DIMTP
 40
0.1
  9
$DIMTM
 40
0.1
  9
$DIMTXT
 40
3.5
  9
$DIMCEN
 40
0.0
  9
$DIMTSZ
 40
0.0
  9
$DIMTOL
 70
     0
  9
$DIMLIM
 70
     0
  9
$DIMTIH
 70
     0
  9
$DIMTOH
 70
     0
  9
$DIMSE1
 70
     0
  9
$DIMSE2
 70
     0
  9
$DIMTAD
 70
     1
  9
$DIMZIN
 70
     8
  9
$DIMBLK
  1

  9
$DIMASO
 70
     1
  9
$DIMSHO
 70
     1
  9
$DIMPOST
  1

  9
$DIMAPOST
  1
"
  9
$DIMALT
 70
     0
  9
$DIMALTD
 70
     2
  9
$DIMALTF
 40
0.0393701
  9
$DIMLFAC
 40
1.0
  9
$DIMTOFL
 70
     1
  9
$DIMTVP
 40
0.0
  9
$DIMTIX
 70
     0
  9
$DIMSOXD
 70
     0
  9
$DIMSAH
 70
     0
  9
$DIMBLK1
  1

  9
$DIMBLK2
  1

  9
$DIMSTYLE
  2
AM_ISO
  9
$DIMCLRD
 70
   256
  9
$DIMCLRE
 70
   256
  9
$DIMCLRT
 70
   256
  9
$DIMTFAC
 40
0.71
  9
$DIMGAP
 40
1.0
  9
$DIMJUST
 70
     0
  9
$DIMSD1
 70
     0
  9
$DIMSD2
 70
     0
  9
$DIMTOLJ
 70
     0
  9
$DIMTZIN
 70
     8
  9
$DIMALTZ
 70
     0
  9
$DIMALTTZ
 70
     0
  9
$DIMUPT
 70
     0
  9
$DIMDEC
 70
     2
  9
$DIMTDEC
 70
     2
  9
$DIMALTU
 70
     2
  9
$DIMALTTD
 70
     2
  9
$DIMTXSTY
  7
STANDARD
  9
$DIMAUNIT
 70
     0
  9
$DIMADEC
 70
     0
  9
$DIMALTRND
 40
0.0
  9
$DIMAZIN
 70
     2
  9
$DIMDSEP
 70
    46
  9
$DIMATFIT
 70
     3
  9
$DIMFRAC
 70
     0
  9
$DIMLDRBLK
  1

  9
$DIMLUNIT
 70
     2
  9
$DIMLWD
 70
    -1
  9
$DIMLWE
 70
    -1
  9
$DIMTMOVE
 70
     0
  9
$LUNITS
 70
     2
  9
$LUPREC
 70
     2
  9
$SKETCHINC
 40
0.1
  9
$FILLETRAD
 40
2.5
  9
$AUNITS
 70
     0
  9
$AUPREC
 70
     0
  9
$MENU
  1
.
  9
$ELEVATION
 40
0.0
  9
$PELEVATION
 40
0.0
  9
$THICKNESS
 40
0.0
  9
$LIMCHECK
 70
     0
  9
$CHAMFERA
 40
2.5
  9
$CHAMFERB
 40
2.5
  9
$CHAMFERC
 40
1.0
  9
$CHAMFERD
 40
0.0
  9
$SKPOLY
 70
     0
  9
$TDCREATE
 40
2452486.501936366
  9
$TDUCREATE
 40
2452486.168603033
  9
$TDUPDATE
 40
2455397.703284491
  9
$TDUUPDATE
 40
2455397.369951158
  9
$TDINDWG
 40
1.4543679861
  9
$TDUSRTIMER
 40
1.4543678704
  9
$USRTIMER
 70
     1
  9
$ANGBASE
 50
0.0
  9
$ANGDIR
 70
     0
  9
$PDMODE
 70
     0
  9
$PDSIZE
 40
0.0
  9
$PLINEWID
 40
0.0
  9
$SPLFRAME
 70
     0
  9
$SPLINETYPE
 70
     6
  9
$SPLINESEGS
 70
     8
  9
$HANDSEED
  5
10AE
  9
$SURFTAB1
 70
     6
  9
$SURFTAB2
 70
     6
  9
$SURFTYPE
 70
     6
  9
$SURFU
 70
     6
  9
$SURFV
 70
     6
  9
$UCSBASE
  2

  9
$UCSNAME
  2

  9
$UCSORG
 10
0.0
 20
0.0
 30
0.0
  9
$UCSXDIR
 10
1.0
 20
0.0
 30
0.0
  9
$UCSYDIR
 10
0.0
 20
1.0
 30
0.0
  9
$UCSORTHOREF
  2

  9
$UCSORTHOVIEW
 70
     0
  9
$UCSORGTOP
 10
0.0
 20
0.0
 30
0.0
  9
$UCSORGBOTTOM
 10
0.0
 20
0.0
 30
0.0
  9
$UCSORGLEFT
 10
0.0
 20
0.0
 30
0.0
  9
$UCSORGRIGHT
 10
0.0
 20
0.0
 30
0.0
  9
$UCSORGFRONT
 10
0.0
 20
0.0
 30
0.0
  9
$UCSORGBACK
 10
0.0
 20
0.0
 30
0.0
  9
$PUCSBASE
  2

  9
$PUCSNAME
  2

  9
$PUCSORG
 10
0.0
 20
0.0
 30
0.0
  9
$PUCSXDIR
 10
1.0
 20
0.0
 30
0.0
  9
$PUCSYDIR
 10
0.0
 20
1.0
 30
0.0
  9
$PUCSORTHOREF
  2

  9
$PUCSORTHOVIEW
 70
     0
  9
$PUCSORGTOP
 10
0.0
 20
0.0
 30
0.0
  9
$PUCSORGBOTTOM
 10
0.0
 20
0.0
 30
0.0
  9
$PUCSORGLEFT
 10
0.0
 20
0.0
 30
0.0
  9
$PUCSORGRIGHT
 10
0.0
 20
0.0
 30
0.0
  9
$PUCSORGFRONT
 10
0.0
 20
0.0
 30
0.0
  9
$PUCSORGBACK
 10
0.0
 20
0.0
 30
0.0
  9
$USERI1
 70
     0
  9
$USERI2
 70
     0
  9
$USERI3
 70
     0
  9
$USERI4
 70
     0
  9
$USERI5
 70
     0
  9
$USERR1
 40
0.0
  9
$USERR2
 40
0.0
  9
$USERR3
 40
0.0
  9
$USERR4
 40
0.0
  9
$USERR5
 40
0.0
  9
$WORLDVIEW
 70
     1
  9
$SHADEDGE
 70
     3
  9
$SHADEDIF
 70
    70
  9
$TILEMODE
 70
     0
  9
$MAXACTVP
 70
    48
  9
$PINSBASE
 10
0.0
 20
0.0
 30
0.0
  9
$PLIMCHECK
 70
     0
  9
$PEXTMIN
 10
15.83951159531318
 20
20.28499549248261
 30
-0.0131955579722671
  9
$PEXTMAX
 10
266.5701718850775
 20
384.4446697926114
 30
235.9123070740622
  9
$PLIMMIN
 10
-6.805083274841308
 20
-5.365738868713378
  9
$PLIMMAX
 10
290.1209115982056
 20
414.5809164047241
  9
$UNITMODE
 70
     0
  9
$VISRETAIN
 70
     1
  9
$PLINEGEN
 70
     0
  9
$PSLTSCALE
 70
     1
  9
$TREEDEPTH
 70
  3020
  9
$CMLSTYLE
  2
STANDARD
  9
$CMLJUST
 70
     0
  9
$CMLSCALE
 40
1.0
  9
$PROXYGRAPHICS
 70
     1
  9
$MEASUREMENT
 70
     1
  9
$CELWEIGHT
370
    -1
  9
$ENDCAPS
280
     0
  9
$JOINSTYLE
280
     0
  9
$LWDISPLAY
290
     0
  9
$INSUNITS
 70
     4
  9
$HYPERLINKBASE
  1

  9
$STYLESHEET
  1

  9
$XEDIT
290
     1
  9
$CEPSNTYPE
380
     0
  9
$PSTYLEMODE
290
     1
  9
$FINGERPRINTGUID
  2
{A138208D-140B-49AA-88AB-48087993E7EE}
  9
$VERSIONGUID
  2
{594491F6-62EC-45B4-ADD1-7433ECE72BF1}
  9
$EXTNAMES
290
     1
  9
$PSVPSCALE
 40
0.0
  9
$OLESTARTUP
290
     0
  0
ENDSEC
  0
SECTION
  2
CLASSES
  0
CLASS
  1
ACMESTATEMGR
  2
AcMeStateMgr
  3
AcMeServices
 90
        0
280
     0
281
     0
  0
CLASS
  1
ACMESCOPE
  2
AcMeScope
  3
AcMeServices
 90
        0
280
     0
281
     0
  0
CLASS
  1
ACMECOMMANDHISTORY
  2
AcMeCommandHistory
  3
AcMeServices
 90
        0
280
     0
281
     0
  0
CLASS
  1
ACRFINSADJUSTERMGR
  2
AcRfInsAdjusterMgr
  3
AcMeServices
 90
        0
280
     0
281
     0
  0
CLASS
  1
ACMEDRAWINGMAN
  2
AcMeDrawingMan
  3
AcMeServices
 90
        0
280
     0
281
     0
  0
CLASS
  1
AMATTR
  2
AcMeAttribute
  3
AcMeServices
 90
    32768
280
     0
281
     0
  0
CLASS
  1
ACMEBOMCOLUMN
  2
AcMeBOMColumn
  3
AcMeServices
 90
    32768
280
     0
281
     0
  0
CLASS
  1
ACMEBOMCONF
  2
AcMeBOMConf
  3
AcMeServices
 90
    32768
280
     0
281
     0
  0
CLASS
  1
ACMEBOMTABLE
  2
AcMeBOMTable
  3
AcMeServices
 90
    32768
280
     0
281
     0
  0
CLASS
  1
ACMEBOMENTRY
  2
AcMeBOMEntry
  3
AcMeServices
 90
    32768
280
     0
281
     0
  0
CLASS
  1
ACMEVIEW
  2
AcMeView
  3
AcMeServices
 90
        0
280
     0
281
     0
  0
CLASS
  1
ACGREFMASTER
  2
AcGrefMaster
  3
AcAttribServices
 90
        0
280
     0
281
     0
  0
CLASS
  1
AMIMASTER
  2
AmiMaster
  3
AmiServices
 90
        0
280
     0
281
     0
  0
CLASS
  1
ACASGREFMASTER
  2
AcAsGrefMaster
  3
AutoSurfResolverServices
 90
    32768
280
     0
281
     0
  0
CLASS
  1
ADAPPL
  2
AcAdAppl
  3
DesignerServices
 90
        0
280
     0
281
     0
  0
CLASS
  1
DEPMGR
  2
AcAdDepMgr
  3
DesignerServices
 90
        0
280
     0
281
     0
  0
CLASS
  1
PARAMMGR
  2
AcAdParamMgr
  3
DesignerServices
 90
        0
280
     0
281
     0
  0
CLASS
  1
PARAMSCOPE
  2
AcAdParamScope
  3
DesignerServices
 90
        0
280
     0
281
     0
  0
CLASS
  1
ACIMSYSVARMAN
  2
AcImSysVarManager
  3
AcMeServices
 90
        0
280
     0
281
     0
  0
CLASS
  1
ACIMINTSYSVAR
  2
AcImIntSysVar
  3
AcMeServices
 90
        0
280
     0
281
     0
  0
CLASS
  1
ACIMREALSYSVAR
  2
AcImRealSysVar
  3
AcMeServices
 90
        0
280
     0
281
     0
  0
CLASS
  1
ACIMSTRSYSVAR
  2
AcImStrSysVar
  3
AcMeServices
 90
        0
280
     0
281
     0
  0
CLASS
  1
NAMEDAPPL
  2
AcAdNamedAppl
  3
DesignerServices
 90
        0
280
     0
281
     0
  0
CLASS
  1
ADHNTMPLT
  2
AdHoleNoteTemplateMgr
  3
DesignerServices
 90
    32768
280
     0
281
     0
  0
CLASS
  1
AM_HNTEMPLATE_MGR_NAME
  2
AdHoleNoteTemplateMgrName
  3
DesignerServices
 90
    32768
280
     0
281
     0
  0
CLASS
  1
ACADGREFMODULE
  2
AcAdGrefModule
  3
AdGrefServices
 90
    32768
280
     0
281
     0
  0
CLASS
  1
AM_DRAWING_MGR
  2
AcDmDwgMgr
  3
AcMechDwgViewMgmt
 90
        0
280
     0
281
     0
  0
CLASS
  1
AM_DWG_DOCUMENT
  2
AcDmDwgDocument
  3
AcMechDwgViewMgmt
 90
        0
280
     0
281
     0
  0
CLASS
  1
AM_DWG_SHEET
  2
AcDmSheet
  3
AcMechDwgViewMgmt
 90
        0
280
     0
281
     0
  0
CLASS
  1
AM_VIEWDIMPARMAP
  2
AcDmViewDimParMap
  3
AcMechDwgViewMgmt
 90
        0
280
     0
281
     0
  0
CLASS
  1
AM_DWGMGR_NAME
  2
AcDmDwgMgrName
  3
AcMechDwgViewMgmt
 90
        0
280
     0
281
     0
  0
CLASS
  1
ACAMPROJECT
  2
AcAmProject
  3
DesignerAssemblies
 90
        0
280
     0
281
     0
  0
CLASS
  1
ACAMGRCOMPSET
  2
AcAmGrCompSet
  3
DesignerAssemblies
 90
    32768
280
     1
281
     0
  0
CLASS
  1
ACAMGRCOMPDEFSET
  2
AcAmGrCompDefSet
  3
DesignerAssemblies
 90
        0
280
     0
281
     0
  0
CLASS
  1
ACAMGRCOMPDEF
  2
AcAmGrCompDef
  3
DesignerAssemblies
 90
        0
280
     0
281
     0
  0
CLASS
  1
ACCMCONTEXT
  2
AcCmContext
  3
DesignerAssemblies
 90
        0
280
     0
281
     0
  0
CLASS
  1
ACAMCOMPDEF
  2
AcAmCompDef
  3
DesignerAssemblies
 90
        0
280
     0
281
     0
  0
CLASS
  1
ACAMCOMPDEFMGR
  2
AcAmCompDefMgr
  3
DesignerAssemblies
 90
        0
280
     0
281
     0
  0
CLASS
  1
AMCONTEXTMGR
  2
AcAmContextMgr
  3
DesignerAssemblies
 90
        0
280
     0
281
     0
  0
CLASS
  1
ACAMCONTEXTMODELER
  2
AcAmContextModeler
  3
DesignerAssemblies
 90
        0
280
     0
281
     0
  0
CLASS
  1
ACDMVIEWGEOM
  2
AcDmViewGeometry
  3
AcMechDwgViewMgmt
 90
    32768
280
     0
281
     1
  0
CLASS
  1
CBROWSERAPPOBJECT
  2
CBrowserAppObject
  3
McadcomServices
 90
        0
280
     0
281
     0
  0
CLASS
  1
IM_STATIC_MAN
  2
AcImStaticVarManager
  3
AcMeServices
 90
    32768
280
     0
281
     0
  0
CLASS
  1
ASAPP
  2
AcAsAppObject
  3
AutoSurfServices
 90
    32768
280
     0
281
     0
  0
CLASS
  1
ACIMDBLSTATICVAR
  2
AcImDblStaticVar
  3
AcMeServices
 90
    32768
280
     0
281
     0
  0
CLASS
  1
ACIMSTRSTATICVAR
  2
AcImStrStaticVar
  3
AcMeServices
 90
    32768
280
     0
281
     0
  0
CLASS
  1
ACIMINTSTATICVAR
  2
AcImIntStaticVar
  3
AcMeServices
 90
    32768
280
     0
281
     0
  0
CLASS
  1
CATALOGSTATE
  2
AcAmCatalogState
  3
DesignerAssemblies
 90
        0
280
     0
281
     0
  0
CLASS
  1
DM_PLACEHOLDER
  2
AcDmSelsetPlaceholder
  3
AcMechDwgViewMgmt
 90
        0
280
     0
281
     0
  0
CLASS
  1
DICTIONARYVAR
  2
AcDbDictionaryVar
  3
ObjectDBX Classes
 90
        0
280
     0
281
     0
  0
CLASS
  1
ACMSTANDARDJIS
  2
AcmStandardJIS
  3
"Amdt_StdImp|Product Description: AutoCAD Mechanical 2004 DX|Company: Autodesk"
 90
    32768
280
     0
281
     0
  0
CLASS
  1
ACMSTANDARDANSI
  2
AcmStandardANSI
  3
"Amdt_StdImp|Product Description: AutoCAD Mechanical 2004 DX|Company: Autodesk"
 90
    32768
280
     0
281
     0
  0
CLASS
  1
ACMSTANDARDBSI
  2
AcmStandardBSI
  3
"Amdt_StdImp|Product Description: AutoCAD Mechanical 2004 DX|Company: Autodesk"
 90
    32768
280
     0
281
     0
  0
CLASS
  1
ACMSTANDARDDIN
  2
AcmStandardDIN
  3
"Amdt_StdImp|Product Description: AutoCAD Mechanical 2004 DX|Company: Autodesk"
 90
    32768
280
     0
281
     0
  0
CLASS
  1
ACMSTANDARDISO
  2
AcmStandardISO
  3
"Amdt_StdImp|Product Description: AutoCAD Mechanical 2004 DX|Company: Autodesk"
 90
        0
280
     0
281
     0
  0
CLASS
  1
LAYER_INDEX
  2
AcDbLayerIndex
  3
ObjectDBX Classes
 90
    32768
280
     0
281
     0
  0
CLASS
  1
IDBUFFER
  2
AcDbIdBuffer
  3
ObjectDBX Classes
 90
    32768
280
     0
281
     0
  0
CLASS
  1
ACDBDICTIONARYWDFLT
  2
AcDbDictionaryWithDefault
  3
ObjectDBX Classes
 90
        0
280
     0
281
     0
  0
CLASS
  1
ACDBPLACEHOLDER
  2
AcDbPlaceHolder
  3
ObjectDBX Classes
 90
        0
280
     0
281
     0
  0
CLASS
  1
LAYOUT
  2
AcDbLayout
  3
ObjectDBX Classes
 90
        0
280
     0
281
     0
  0
CLASS
  1
ACME_DOCUMENT
  2
AcMeDbDoc
  3
AcMeServices
 90
        0
280
     0
281
     0
  0
CLASS
  1
AMGSETTINGSOBJ
  2
AmgSettingsObj
  3
"AcadM|Product Description: AutoCAD Mechanical 2000|Company: Autodesk"
 90
        0
280
     0
281
     0
  0
CLASS
  1
AMGOBJPROPCFG
  2
AmgObjPropCfg
  3
"AmgLay|Product Description: AutoCAD Mechanical 2000|Company: Autodesk"
 90
        1
280
     0
281
     0
  0
CLASS
  1
ACDBENTITYCACHE
  2
AcMeEntityCache
  3
AcMeServices
 90
        0
280
     0
281
     0
  0
CLASS
  1
GSMANAGER
  2
AcMeGSManager
  3
AcMeServices
 90
        0
280
     0
281
     0
  0
CLASS
  1
AMDTINTERNALREACTOR
  2
AmdtInternalReactor
  3
AcMeServices
 90
        0
280
     0
281
     0
  0
CLASS
  1
ACME_DATABASE
  2
AcMeDbDatabase
  3
AcMeServices
 90
        0
280
     0
281
     0
  0
CLASS
  1
ACGREFACADMASTER
  2
AcGrefacadMaster
  3
AcGrefServices
 90
        0
280
     0
281
     0
  0
CLASS
  1
AMDTMENUSTATEMGR
  2
AmdtMenuStateMgr
  3
McadcomServices
 90
        0
280
     0
281
     0
  0
CLASS
  1
AMDTMCOMMENUSTATE
  2
AmdtMcomMenuState
  3
McadcomServices
 90
        0
280
     0
281
     0
  0
CLASS
  1
MAPIADMODULE
  2
MApiAdModule
  3
MApiAdServices
 90
    32768
280
     0
281
     0
  0
CLASS
  1
AMDTDMMENUSTATE
  2
AmdtDmMenuState
  3
AcMechDwgViewMgmt
 90
        0
280
     0
281
     0
  0
CLASS
  1
AMDTADMENUSTATE
  2
AmdtAdMenuState
  3
DesignerServices
 90
        0
280
     0
281
     0
  0
CLASS
  1
AMDTAMMENUSTATE
  2
AmdtAmMenuState
  3
DesignerAssemblies
 90
        0
280
     0
281
     0
  0
CLASS
  1
ACMDATADICTIONARY
  2
AcmDataDictionary
  3
"AcmSymBB|Product Description: AutoCAD Mechanical 2004 DX|Company: Autodesk"
 90
        0
280
     0
281
     0
  0
CLASS
  1
ACMDATAENTRYBLOCK
  2
AcmDataEntryBlock
  3
"AcmSymBB|Product Description: AutoCAD Mechanical 2004 DX|Company: Autodesk"
 90
        0
280
     0
281
     0
  0
CLASS
  1
AMDTBROWSERDBTAB
  2
AmdtBrowserDbTab
  3
McadcomServices
 90
        0
280
     0
281
     0
  0
CLASS
  1
ACAMGFILTERDAT
  2
AcAmgFilterDat
  3
"AcadM|Product Description: AutoCAD Mechanical 2000|Company: Autodesk"
 90
    32768
280
     0
281
     0
  0
CLASS
  1
MAPIAMMOUDLE
  2
MApiAmModule
  3
MApiAmServices
 90
        0
280
     0
281
     0
  0
CLASS
  1
AMDTMAPISURFMOUDULE
  2
AmdtMApiSurfModule
  3
MApiSurfServices
 90
    32768
280
     0
281
     0
  0
CLASS
  1
ACMSURFSTANDARDANSI
  2
AcmSurfTextStdANSI
  3
"Amdt_StdImp|Product Description: AutoCAD Mechanical 2004 DX|Company: Autodesk"
 90
    32768
280
     0
281
     0
  0
CLASS
  1
ACMFCFSTANDARDANSI
  2
AcmFCFStdANSI
  3
"Amdt_StdImp|Product Description: AutoCAD Mechanical 2004 DX|Company: Autodesk"
 90
    32768
280
     0
281
     0
  0
CLASS
  1
ACMWELDSTANDARDANSI
  2
AcmWeldingStdANSI
  3
"Amdt_StdImp|Product Description: AutoCAD Mechanical 2004 DX|Company: Autodesk"
 90
    32768
280
     0
281
     0
  0
CLASS
  1
ACMIDSTANDARDANSI
  2
AcmIdStdANSI
  3
"Amdt_StdImp|Product Description: AutoCAD Mechanical 2004 DX|Company: Autodesk"
 90
    32768
280
     0
281
     0
  0
CLASS
  1
ACMDATUMSTANDARDANSI
  2
AcmDatumStdANSI
  3
"Amdt_StdImp|Product Description: AutoCAD Mechanical 2004 DX|Company: Autodesk"
 90
    32768
280
     0
281
     0
  0
CLASS
  1
ACMBOMSTANDARDANSI
  2
AcmBOMStdANSI
  3
"Amdt_StdImp|Product Description: AutoCAD Mechanical 2004 DX|Company: Autodesk"
 90
    32768
280
     0
281
     0
  0
CLASS
  1
ACAMGLAYSTD
  2
AcAmgLayStd
  3
"AcAmgLayStd|Product Description: AutoCAD Mechanical 2000|Company: Autodesk"
 90
        0
280
     0
281
     0
  0
CLASS
  1
ACAMGDIMSTD
  2
AcAmgDimStd
  3
"AcAmgDimStd|Product Description: AutoCAD Mechanical 2000|Company: Autodesk"
 90
        0
280
     0
281
     0
  0
CLASS
  1
ACAMGTITLESTD
  2
AcAmgTitleStd
  3
"TITLEAPP"
 90
        0
280
     0
281
     0
  0
CLASS
  1
ACMDETAILSTANDARDANSI
  2
AmdtDetailSymStdANSI
  3
"Amdt_StdImp|Product Description: AutoCAD Mechanical 2004 DX|Company: Autodesk"
 90
    32768
280
     0
281
     0
  0
CLASS
  1
ACMSECTIONSTANDARDANSI
  2
AmdtSectionSymStdANSI
  3
"Amdt_StdImp|Product Description: AutoCAD Mechanical 2004 DX|Company: Autodesk"
 90
    32768
280
     0
281
     0
  0
CLASS
  1
ACMCENTERLINESTANDARDANSI
  2
AmdtCenterLineStdANSI
  3
"Amdt_StdImp|Product Description: AutoCAD Mechanical 2004 DX|Company: Autodesk"
 90
    32768
280
     0
281
     0
  0
CLASS
  1
ACMTHREADLINESTANDARDANSI
  2
AmdtThreadLineStdANSI
  3
"Amdt_StdImp|Product Description: AutoCAD Mechanical 2004 DX|Company: Autodesk"
 90
    32768
280
     0
281
     0
  0
CLASS
  1
ACMSURFSTANDARDBSI
  2
AcmSurfTextStdBSI
  3
"Amdt_StdImp|Product Description: AutoCAD Mechanical 2004 DX|Company: Autodesk"
 90
    32768
280
     0
281
     0
  0
CLASS
  1
ACMFCFSTANDARDBSI
  2
AcmFCFStdBSI
  3
"Amdt_StdImp|Product Description: AutoCAD Mechanical 2004 DX|Company: Autodesk"
 90
    32768
280
     0
281
     0
  0
CLASS
  1
ACMWELDSTANDARDBSI
  2
AcmWeldingStdBSI
  3
"Amdt_StdImp|Product Description: AutoCAD Mechanical 2004 DX|Company: Autodesk"
 90
    32768
280
     0
281
     0
  0
CLASS
  1
ACMIDSTANDARDBSI
  2
AcmIdStdBSI
  3
"Amdt_StdImp|Product Description: AutoCAD Mechanical 2004 DX|Company: Autodesk"
 90
    32768
280
     0
281
     0
  0
CLASS
  1
ACMDATUMSTANDARDBSI
  2
AcmDatumStdBSI
  3
"Amdt_StdImp|Product Description: AutoCAD Mechanical 2004 DX|Company: Autodesk"
 90
    32768
280
     0
281
     0
  0
CLASS
  1
ACMBOMSTANDARDBSI
  2
AcmBOMStdBSI
  3
"Amdt_StdImp|Product Description: AutoCAD Mechanical 2004 DX|Company: Autodesk"
 90
    32768
280
     0
281
     0
  0
CLASS
  1
ACMDETAILSTANDARDBSI
  2
AmdtDetailSymStdBSI
  3
"Amdt_StdImp|Product Description: AutoCAD Mechanical 2004 DX|Company: Autodesk"
 90
    32768
280
     0
281
     0
  0
CLASS
  1
ACMSECTIONSTANDARDBSI
  2
AmdtSectionSymStdBSI
  3
"Amdt_StdImp|Product Description: AutoCAD Mechanical 2004 DX|Company: Autodesk"
 90
    32768
280
     0
281
     0
  0
CLASS
  1
ACMCENTERLINESTANDARDBSI
  2
AmdtCenterLineStdBSI
  3
"Amdt_StdImp|Product Description: AutoCAD Mechanical 2004 DX|Company: Autodesk"
 90
    32768
280
     0
281
     0
  0
CLASS
  1
ACMTHREADLINESTANDARDBSI
  2
AmdtThreadLineStdBSI
  3
"Amdt_StdImp|Product Description: AutoCAD Mechanical 2004 DX|Company: Autodesk"
 90
    32768
280
     0
281
     0
  0
CLASS
  1
AMDTEDGESTANDARDDIN
  2
AmdtEdgeStdDIN
  3
"Amdt_StdImp|Product Description: AutoCAD Mechanical 2004 DX|Company: Autodesk"
 90
    32768
280
     0
281
     0
  0
CLASS
  1
ACMSURFSTANDARDDIN
  2
AcmSurfTextStdDIN
  3
"Amdt_StdImp|Product Description: AutoCAD Mechanical 2004 DX|Company: Autodesk"
 90
    32768
280
     0
281
     0
  0
CLASS
  1
ACMFCFSTANDARDDIN
  2
AcmFCFStdDIN
  3
"Amdt_StdImp|Product Description: AutoCAD Mechanical 2004 DX|Company: Autodesk"
 90
    32768
280
     0
281
     0
  0
CLASS
  1
ACMWELDSTANDARDDIN
  2
AcmWeldingStdDIN
  3
"Amdt_StdImp|Product Description: AutoCAD Mechanical 2004 DX|Company: Autodesk"
 90
    32768
280
     0
281
     0
  0
CLASS
  1
ACMIDSTANDARDDIN
  2
AcmIdStdDIN
  3
"Amdt_StdImp|Product Description: AutoCAD Mechanical 2004 DX|Company: Autodesk"
 90
    32768
280
     0
281
     0
  0
CLASS
  1
ACMDATUMSTANDARDDIN
  2
AcmDatumStdDIN
  3
"Amdt_StdImp|Product Description: AutoCAD Mechanical 2004 DX|Company: Autodesk"
 90
    32768
280
     0
281
     0
  0
CLASS
  1
ACMBOMSTANDARDDIN
  2
AcmBOMStdDIN
  3
"Amdt_StdImp|Product Description: AutoCAD Mechanical 2004 DX|Company: Autodesk"
 90
    32768
280
     0
281
     0
  0
CLASS
  1
ACMDETAILSTANDARDDIN
  2
AmdtDetailSymStdDIN
  3
"Amdt_StdImp|Product Description: AutoCAD Mechanical 2004 DX|Company: Autodesk"
 90
    32768
280
     0
281
     0
  0
CLASS
  1
ACMSECTIONSTANDARDDIN
  2
AmdtSectionSymStdDIN
  3
"Amdt_StdImp|Product Description: AutoCAD Mechanical 2004 DX|Company: Autodesk"
 90
    32768
280
     0
281
     0
  0
CLASS
  1
ACMCENTERLINESTANDARDDIN
  2
AmdtCenterLineStdDIN
  3
"Amdt_StdImp|Product Description: AutoCAD Mechanical 2004 DX|Company: Autodesk"
 90
    32768
280
     0
281
     0
  0
CLASS
  1
ACMTHREADLINESTANDARDDIN
  2
AmdtThreadLineStdDIN
  3
"Amdt_StdImp|Product Description: AutoCAD Mechanical 2004 DX|Company: Autodesk"
 90
    32768
280
     0
281
     0
  0
CLASS
  1
ACMSURFSTANDARDISO
  2
AcmSurfTextStdISO
  3
"Amdt_StdImp|Product Description: AutoCAD Mechanical 2004 DX|Company: Autodesk"
 90
        0
280
     0
281
     0
  0
CLASS
  1
ACMFCFSTANDARDISO
  2
AcmFCFStdISO
  3
"Amdt_StdImp|Product Description: AutoCAD Mechanical 2004 DX|Company: Autodesk"
 90
        0
280
     0
281
     0
  0
CLASS
  1
ACMWELDSTANDARDISO
  2
AcmWeldingStdISO
  3
"Amdt_StdImp|Product Description: AutoCAD Mechanical 2004 DX|Company: Autodesk"
 90
        0
280
     0
281
     0
  0
CLASS
  1
ACMIDSTANDARDISO
  2
AcmIdStdISO
  3
"Amdt_StdImp|Product Description: AutoCAD Mechanical 2004 DX|Company: Autodesk"
 90
        0
280
     0
281
     0
  0
CLASS
  1
ACMDATUMSTANDARDISO
  2
AcmDatumStdISO
  3
"Amdt_StdImp|Product Description: AutoCAD Mechanical 2004 DX|Company: Autodesk"
 90
        0
280
     0
281
     0
  0
CLASS
  1
ACMBOMSTANDARDISO
  2
AcmBOMStdISO
  3
"Amdt_StdImp|Product Description: AutoCAD Mechanical 2004 DX|Company: Autodesk"
 90
        0
280
     0
281
     0
  0
CLASS
  1
AMDTEDGESTANDARDISO
  2
AmdtEdgeStdISO
  3
"Amdt_StdImp|Product Description: AutoCAD Mechanical 2004 DX|Company: Autodesk"
 90
    32768
280
     0
281
     0
  0
CLASS
  1
ACMDETAILSTANDARDISO
  2
AmdtDetailSymStdISO
  3
"Amdt_StdImp|Product Description: AutoCAD Mechanical 2004 DX|Company: Autodesk"
 90
        0
280
     0
281
     0
  0
CLASS
  1
ACMSECTIONSTANDARDISO
  2
AmdtSectionSymStdISO
  3
"Amdt_StdImp|Product Description: AutoCAD Mechanical 2004 DX|Company: Autodesk"
 90
        0
280
     0
281
     0
  0
CLASS
  1
ACMCENTERLINESTANDARDISO
  2
AmdtCenterLineStdISO
  3
"Amdt_StdImp|Product Description: AutoCAD Mechanical 2004 DX|Company: Autodesk"
 90
        0
280
     0
281
     0
  0
CLASS
  1
ACMTHREADLINESTANDARDISO
  2
AmdtThreadLineStdISO
  3
"Amdt_StdImp|Product Description: AutoCAD Mechanical 2004 DX|Company: Autodesk"
 90
        0
280
     0
281
     0
  0
CLASS
  1
ACMSURFSTANDARDJIS
  2
AcmSurfTextStdJIS
  3
"Amdt_StdImp|Product Description: AutoCAD Mechanical 2004 DX|Company: Autodesk"
 90
    32768
280
     0
281
     0
  0
CLASS
  1
ACMFCFSTANDARDJIS
  2
AcmFCFStdJIS
  3
"Amdt_StdImp|Product Description: AutoCAD Mechanical 2004 DX|Company: Autodesk"
 90
    32768
280
     0
281
     0
  0
CLASS
  1
ACMWELDSTANDARDJIS
  2
AcmWeldingStdJIS
  3
"Amdt_StdImp|Product Description: AutoCAD Mechanical 2004 DX|Company: Autodesk"
 90
    32768
280
     0
281
     0
  0
CLASS
  1
ACMIDSTANDARDJIS
  2
AcmIdStdJIS
  3
"Amdt_StdImp|Product Description: AutoCAD Mechanical 2004 DX|Company: Autodesk"
 90
    32768
280
     0
281
     0
  0
CLASS
  1
ACMDATUMSTANDARDJIS
  2
AcmDatumStdJIS
  3
"Amdt_StdImp|Product Description: AutoCAD Mechanical 2004 DX|Company: Autodesk"
 90
    32768
280
     0
281
     0
  0
CLASS
  1
ACMBOMSTANDARDJIS
  2
AcmBOMStdJIS
  3
"Amdt_StdImp|Product Description: AutoCAD Mechanical 2004 DX|Company: Autodesk"
 90
    32768
280
     0
281
     0
  0
CLASS
  1
ACMDETAILSTANDARDJIS
  2
AmdtDetailSymStdJIS
  3
"Amdt_StdImp|Product Description: AutoCAD Mechanical 2004 DX|Company: Autodesk"
 90
    32768
280
     0
281
     0
  0
CLASS
  1
ACMSECTIONSTANDARDJIS
  2
AmdtSectionSymStdJIS
  3
"Amdt_StdImp|Product Description: AutoCAD Mechanical 2004 DX|Company: Autodesk"
 90
    32768
280
     0
281
     0
  0
CLASS
  1
ACMCENTERLINESTANDARDJIS
  2
AmdtCenterLineStdJIS
  3
"Amdt_StdImp|Product Description: AutoCAD Mechanical 2004 DX|Company: Autodesk"
 90
    32768
280
     0
281
     0
  0
CLASS
  1
ACMTHREADLINESTANDARDJIS
  2
AmdtThreadLineStdJIS
  3
"Amdt_StdImp|Product Description: AutoCAD Mechanical 2004 DX|Company: Autodesk"
 90
    32768
280
     0
281
     0
  0
CLASS
  1
ACMNOTESTANDARDANSI
  2
AmdtNoteStdANSI
  3
"Amdt_StdImp|Product Description: AutoCAD Mechanical 2004 DX|Company: Autodesk"
 90
    32768
280
     0
281
     0
  0
CLASS
  1
ACAMGHOLECHARTSTDANSI
  2
AcAmgHoleChartStdANSI
  3
ACMSYMBB_MODULE_NAME
 90
    32768
280
     0
281
     0
  0
CLASS
  1
ACAMEXTERNALCOMPDEF
  2
AcAmExternalCompDef
  3
DesignerAssemblies
 90
    32768
280
     0
281
     0
  0
CLASS
  1
ACCMBODY
  2
AcCmBody
  3
DesignerAssemblies
 90
    32768
280
     0
281
     0
  0
CLASS
  1
ACAMCOMPENT
  2
AcAmCompEnt
  3
DesignerAssemblies
 90
    32768
280
     0
281
     1
  0
CLASS
  1
ACAMCOMPFEEDBACK
  2
AcAmCompFeedback
  3
DesignerAssemblies
 90
    32768
280
     0
281
     0
  0
CLASS
  1
ACAMCOMP
  2
AcAmComp
  3
DesignerAssemblies
 90
    32768
280
     0
281
     0
  0
CLASS
  1
ACAMCOMPENTCLONE
  2
AcAmCompEntClone
  3
DesignerAssemblies
 90
    32768
280
     0
281
     1
  0
CLASS
  1
ACAMCLONEREACTOR
  2
AcAmGrCompCloneReactor
  3
DesignerAssemblies
 90
    32768
280
     0
281
     0
  0
CLASS
  1
ADPART
  2
AcAdPart
  3
DesignerServices
 90
    32768
280
     0
281
     1
  0
CLASS
  1
ADBASE
  2
AcAdBase
  3
DesignerServices
 90
    32768
280
     0
281
     0
  0
CLASS
  1
BODYID
  2
AcAdBodyId
  3
DesignerServices
 90
    32768
280
     0
281
     0
  0
CLASS
  1
WORKPLANEDISPLAYMGR
  2
AcAdDisplayMgr
  3
DesignerServices
 90
    32768
280
     0
281
     0
  0
CLASS
  1
AMDTFORMULAUPDATEDISPATCHER
  2
AmdtFormulaUpdateDispatcher
  3
AcMeServices
 90
    32768
280
     0
281
     0
  0
CLASS
  1
ADDATUMPLANEABS
  2
AcAdDatumPlaneAbs
  3
DesignerServices
 90
    32768
280
     0
281
     0
  0
CLASS
  1
ADDATUMAXISABS
  2
AcAdDatumAxisAbs
  3
DesignerServices
 90
    32768
280
     0
281
     0
  0
CLASS
  1
ADDATUMORIENTEDPLANE
  2
AcAdDatumOrientedPlane
  3
DesignerServices
 90
    32768
280
     0
281
     0
  0
CLASS
  1
ACMEPLINE
  2
AcImPlineDisplay
  3
AcMeServices
 90
    32768
280
     0
281
     1
  0
CLASS
  1
ACMELINEARARROW
  2
AcImLinearArrowDisplay
  3
AcMeServices
 90
    32768
280
     0
281
     1
  0
CLASS
  1
ACMETEXT
  2
AcImTextDisplay
  3
AcMeServices
 90
    32768
280
     0
281
     1
  0
CLASS
  1
ACAD_LINE
  2
AcAdLine
  3
DesignerServices
 90
    32768
280
     0
281
     1
  0
CLASS
  1
ACADLINEACAD
  2
AcAdVirtualBoundedLineAcad
  3
DesignerServices
 90
    32768
280
     0
281
     0
  0
CLASS
  1
ACAD_ELLIPSE
  2
AcAdEllipse
  3
DesignerServices
 90
    32768
280
     0
281
     1
  0
CLASS
  1
ACADELLIPSEACAD
  2
AcAdVirtualEllipseAcad
  3
DesignerServices
 90
    32768
280
     0
281
     0
  0
CLASS
  1
ACADREFLINEACAD
  2
AcAdVirtualReferenceLine
  3
DesignerServices
 90
    32768
280
     0
281
     0
  0
CLASS
  1
ACADCONSLINE
  2
AcAdConstrainedLine
  3
DesignerServices
 90
    32768
280
     0
281
     0
  0
CLASS
  1
ACADCONSGROUP
  2
AcAdConstraintGroup
  3
DesignerServices
 90
    32768
280
     0
281
     0
  0
CLASS
  1
ACADCONSELL
  2
AcAdConstrainedEllipse
  3
DesignerServices
 90
    32768
280
     0
281
     0
  0
CLASS
  1
ACADIMPPTACAD
  2
AcAdVirtualImplicitPoint
  3
DesignerServices
 90
    32768
280
     0
281
     0
  0
CLASS
  1
ACADCONSPOINT
  2
AcAdConstrainedPoint
  3
DesignerServices
 90
    32768
280
     0
281
     0
  0
CLASS
  1
ADPCURCNS
  2
AcAdPointCurveConstr
  3
DesignerServices
 90
    32768
280
     0
281
     0
  0
CLASS
  1
ADCTRPTCNS
  2
AcAdCenterPointConstr
  3
DesignerServices
 90
    32768
280
     0
281
     0
  0
CLASS
  1
ADVERCNS
  2
AcAdVerticalConstr
  3
DesignerServices
 90
    32768
280
     0
281
     0
  0
CLASS
  1
ADHORCNS
  2
AcAdHorizontalConstr
  3
DesignerServices
 90
    32768
280
     0
281
     0
  0
CLASS
  1
ADCLPROF2D
  2
AcAdClosedProfile2d
  3
DesignerServices
 90
    32768
280
     0
281
     0
  0
CLASS
  1
ACAD_FIXCONSTRAINT
  2
AcAdFixedConstraint
  3
DesignerServices
 90
    32768
280
     0
281
     0
  0
CLASS
  1
ADCONSDISP
  2
AcAdConstraintDisplay
  3
DesignerServices
 90
    32768
280
     0
281
     1
  0
CLASS
  1
ADCONSTDSP
  2
AcAdConstraintDisplayTag
  3
DesignerServices
 90
    32768
280
     0
281
     1
  0
CLASS
  1
AMDT_ALIGNED_DIM
  2
AmdtAlignedDimension
  3
AcMeServices
 90
    32768
280
     0
281
     1
  0
CLASS
  1
PARAM
  2
AcAdParam
  3
DesignerServices
 90
    32768
280
     0
281
     0
  0
CLASS
  1
ADELLRADCNS
  2
AcAdAcadEllipseRadiusConstr
  3
DesignerServices
 90
    32768
280
     0
281
     0
  0
CLASS
  1
ADHDISTCNS
  2
AcAdHorizontalDistanceConstr
  3
DesignerServices
 90
    32768
280
     0
281
     0
  0
CLASS
  1
ADVDISTCNS
  2
AcAdVerticalDistanceConstr
  3
DesignerServices
 90
    32768
280
     0
281
     0
  0
CLASS
  1
ACMEROTATIONARROW
  2
AcImRotationArrowDisplay
  3
AcMeServices
 90
    32768
280
     0
281
     1
  0
CLASS
  1
ACADVOLFEATWITHTRIM
  2
AcAdVolFeatWithTrim
  3
DesignerServices
 90
    32768
280
     0
281
     0
  0
CLASS
  1
DEPEDGEFEATUREORDERING
  2
AcAdDepEdgeFeatureOrdering
  3
DesignerServices
 90
    32768
280
     0
281
     0
  0
CLASS
  1
EDGEID
  2
AcAdEdgeId
  3
DesignerServices
 90
    32768
280
     0
281
     0
  0
CLASS
  1
ACADPARTELLIPSEEDGERES
  2
AcAdPartEllipseEdgeRes
  3
AdGrefServices
 90
    32768
280
     0
281
     0
  0
CLASS
  1
ACRFINSADJ
  2
AcRfInsAdjuster
  3
AcMeServices
 90
    32768
280
     0
281
     0
  0
CLASS
  1
ACMEAXIS
  2
AcImAxisDisplay
  3
AcMeServices
 90
    32768
280
     0
281
     1
  0
CLASS
  1
FACEID
  2
AcAdFaceId
  3
DesignerServices
 90
    32768
280
     0
281
     0
  0
CLASS
  1
ACADPARTSPLINEFACERES
  2
AcAdPartSplineFaceRes
  3
AdGrefServices
 90
    32768
280
     0
281
     0
  0
CLASS
  1
ACADPARTCIRCEDGRES
  2
AcAdPartCircEdgRes
  3
AdGrefServices
 90
    32768
280
     0
281
     0
  0
CLASS
  1
CIRREFID
  2
AcAdCircleRefId
  3
DesignerServices
 90
    32768
280
     0
281
     0
  0
CLASS
  1
DEPEDGESECONDARYDEPID
  2
AcAdDepEdgeSecondaryDepId
  3
DesignerServices
 90
    32768
280
     0
281
     0
  0
CLASS
  1
ACADPARTCONICALFACERES
  2
AcAdPartConicalFaceRes
  3
AdGrefServices
 90
    32768
280
     0
281
     0
  0
CLASS
  1
ACAMEXPR
  2
AcAmExpr
  3
DesignerAssemblies
 90
    32768
280
     0
281
     0
  0
CLASS
  1
ACCMDISTLNLN
  2
AcCmDistLnLn
  3
DesignerAssemblies
 90
    32768
280
     0
281
     0
  0
CLASS
  1
ACCMCONSTREACTOR
  2
AcCmConstraintReactor
  3
DesignerAssemblies
 90
    32768
280
     0
281
     0
  0
CLASS
  1
ACMEPOINT
  2
AcImPointDisplay
  3
AcMeServices
 90
    32768
280
     0
281
     1
  0
CLASS
  1
ACADPARTCYLINDERFACERES
  2
AcAdPartCylinderFaceRes
  3
AdGrefServices
 90
    32768
280
     0
281
     0
  0
CLASS
  1
ACADPARTPLANARFACERES
  2
AcAdPartPlanarFaceRes
  3
AdGrefServices
 90
    32768
280
     0
281
     0
  0
CLASS
  1
ACCMDISTPTPL
  2
AcCmDistPtPl
  3
DesignerAssemblies
 90
    32768
280
     0
281
     0
  0
CLASS
  1
ACCMINSERTPLPL
  2
AcCmInsertPlPl
  3
AcCmServices
 90
    32768
280
     0
281
     0
  0
CLASS
  1
ADPARCNS
  2
AcAdParallelConstr
  3
DesignerServices
 90
    32768
280
     0
281
     0
  0
CLASS
  1
NEWSTDPARTPARLIST
  2
AmgNewParListFiler
  3
"AmgParList|Product Description: AutoCAD Mechanical 2000|Company: Autodesk"
 90
    33791
280
     0
281
     0
  0
CLASS
  1
ACRFATTGENMGR
  2
AcRfAttGeneralMgr
  3
AcAttribServices
 90
        0
280
     0
281
     0
  0
CLASS
  1
ACRFOBJATTMGR
  2
AcRfObjAttGroupMgr
  3
AcAttribServices
 90
    32768
280
     0
281
     0
  0
CLASS
  1
ACRFMCADAPIATTHOLDER
  2
AcRfMCADAPIAttHolder
  3
AcAttribServices
 90
    32768
280
     0
281
     0
  0
CLASS
  1
AMDTSYSATTR
  2
AmdtSystemAttribute
  3
AcAttribServices
 90
    32768
280
     0
281
     0
  0
CLASS
  1
ACADPARTTORUSFACERES
  2
AcAdPartTorusFaceRes
  3
AdGrefServices
 90
    32768
280
     0
281
     0
  0
CLASS
  1
ACADPARTSPHEREFACERES
  2
AcAdPartSphereFaceRes
  3
AdGrefServices
 90
    32768
280
     0
281
     0
  0
CLASS
  1
ACCMDISTPTLN
  2
AcCmDistPtLn
  3
DesignerAssemblies
 90
    32768
280
     0
281
     0
  0
CLASS
  1
ACCMDISTPTPT
  2
AcCmDistPtPt
  3
DesignerAssemblies
 90
    32768
280
     0
281
     0
  0
CLASS
  1
ACADPARTAXISRES
  2
AcAdPartAxisRes
  3
AdGrefServices
 90
    32768
280
     0
281
     0
  0
CLASS
  1
ACADPARTSPLINEEDGERES
  2
AcAdPartSplineEdgeRes
  3
AdGrefServices
 90
    32768
280
     0
281
     0
  0
CLASS
  1
ACCMDISTPLPL
  2
AcCmDistPlPl
  3
DesignerAssemblies
 90
    32768
280
     0
281
     0
  0
CLASS
  1
DEPEDGEPATTERNINSTANCE
  2
AcAdDepEdgePatternInstance
  3
DesignerServices
 90
    32768
280
     0
281
     0
  0
CLASS
  1
ACAMVIEWREACTOR
  2
AcAmViewReactor
  3
DesignerAssemblies
 90
    32768
280
     0
281
     0
  0
CLASS
  1
AMVIEW
  2
AcAmView
  3
DesignerAssemblies
 90
    32768
280
     0
281
     0
  0
CLASS
  1
ACAMVIEWCONTEXT
  2
AcAmViewContext
  3
DesignerAssemblies
 90
    32768
280
     0
281
     0
  0
CLASS
  1
ACAMCOMPENTVIEW
  2
AcAmCompEntView
  3
DesignerAssemblies
 90
    32768
280
     0
281
     1
  0
CLASS
  1
ACAMCOMPVIEWREACTOR
  2
AcAmGrCompViewReactor
  3
DesignerAssemblies
 90
    32768
280
     0
281
     0
  0
CLASS
  1
ACAMEXPLODETWEAK
  2
AcAmExplodeTweak
  3
DesignerAssemblies
 90
    32768
280
     0
281
     0
  0
CLASS
  1
ACAMTRAIL
  2
AcAmTrail
  3
DesignerAssemblies
 90
    32768
280
     0
281
     0
  0
CLASS
  1
ACAMVECTORTWEAK
  2
AcAmVectorTweak
  3
DesignerAssemblies
 90
    32768
280
     0
281
     0
  0
CLASS
  1
ACIMLINEARTWEAKDISPLAY
  2
AcImLinearTweakDisplay
  3
DesignerAssemblies
 90
    32768
280
     0
281
     1
  0
CLASS
  1
ACAMAXISTWEAK
  2
AcAmAxisTweak
  3
DesignerAssemblies
 90
    32768
280
     0
281
     0
  0
CLASS
  1
ACIMROTATIONALTWEAKDISPLAY
  2
AcImRotationTweakDisplay
  3
DesignerAssemblies
 90
    32768
280
     0
281
     1
  0
CLASS
  1
ACADPARTLINEDGRES
  2
AcAdPartLinEdgRes
  3
AdGrefServices
 90
    32768
280
     0
281
     0
  0
CLASS
  1
STREFID
  2
AcAdStraightRefId
  3
DesignerServices
 90
    32768
280
     0
281
     0
  0
CLASS
  1
FEEDBACK
  2
AcAmFeedback
  3
DesignerAssemblies
 90
    32768
280
     0
281
     1
  0
CLASS
  1
ACAMTRIAXISSYMBOL
  2
AcAmTriAxisSymbol
  3
DesignerAssemblies
 90
    32768
280
     0
281
     0
  0
CLASS
  1
ACAMTEXTCIRCLESYMBOL
  2
AcAmTextCircleSymbol
  3
DesignerAssemblies
 90
    32768
280
     0
281
     0
  0
CLASS
  1
LAYER_FILTER
  2
AcDbLayerFilter
  3
ObjectDBX Classes
 90
    32768
280
     0
281
     0
  0
CLASS
  1
"CONSTR_DRIVER"
  2
AcCmRestructCloneDriver
  3
DesignerAssemblies
 90
    32768
280
     0
281
     1
  0
CLASS
  1
ACMNOTESTANDARDISO
  2
AmdtNoteStdISO
  3
"Amdt_StdImp|Product Description: AutoCAD Mechanical 2004 DX|Company: Autodesk"
 90
        0
280
     0
281
     0
  0
CLASS
  1
ACAMGHOLECHARTSTDISO
  2
AcAmgHoleChartStdISO
  3
ACMSYMBB_MODULE_NAME
 90
        0
280
     0
281
     0
  0
CLASS
  1
ACAMVIEWENTITYFILTER
  2
AcAmViewEntityFilter
  3
DesignerAssemblies
 90
    32768
280
     0
281
     0
  0
CLASS
  1
AM_GREF_PLANE
  2
AcDmGrefPlnDef
  3
AcMechDwgViewMgmt
 90
    32768
280
     0
281
     0
  0
CLASS
  1
AM_GREF_AXIS
  2
AcDmGrefAxisDef
  3
AcMechDwgViewMgmt
 90
    32768
280
     0
281
     0
  0
CLASS
  1
AM_BASE_VIEW_ORIENT
  2
AcDmBaseViewOr
  3
AcMechDwgViewMgmt
 90
    32768
280
     0
281
     0
  0
CLASS
  1
AM_DWG_VIEWPORT
  2
AcDmViewport
  3
AcMechDwgViewMgmt
 90
    32768
280
     0
281
     0
  0
CLASS
  1
AM_VIEW_DISPLAY
  2
AcDmDwgViewDisplay
  3
AcMechDwgViewMgmt
 90
    32768
280
     0
281
     0
  0
CLASS
  1
AM_CLDFLTS
  2
AcDmClDflts
  3
AcMechDwgViewMgmt
 90
    32768
280
     0
281
     0
  0
CLASS
  1
AM_BASE_VIEW
  2
AcDmBaseView
  3
AcMechDwgViewMgmt
 90
    32768
280
     0
281
     0
  0
CLASS
  1
ACDMPARTVIEWDATA
  2
AcDmPartViewData
  3
AcMechDwgViewMgmt
 90
    32768
280
     0
281
     0
  0
CLASS
  1
ACDMDISPLAYATTRIBS
  2
AcDmDisplayAttribs
  3
AcMechDwgViewMgmt
 90
    32768
280
     0
281
     0
  0
CLASS
  1
ACDMBODYINSTANCEDATA
  2
AcDmBodyInstanceData
  3
AcMechDwgViewMgmt
 90
    32768
280
     0
281
     0
  0
CLASS
  1
ACDMVWEDLINE
  2
AcDmViewEdgeLine
  3
AcMechDwgViewMgmt
 90
    32768
280
     0
281
     1
  0
CLASS
  1
ACDMVWEDSPLINE
  2
AcDmViewEdgeSpline
  3
AcMechDwgViewMgmt
 90
    32768
280
     0
281
     1
  0
CLASS
  1
ACDMVWEDELLIPSE
  2
AcDmViewEdgeEllipse
  3
AcMechDwgViewMgmt
 90
    32768
280
     0
281
     1
  0
CLASS
  1
ACDMVWEDARC
  2
AcDmViewEdgeArc
  3
AcMechDwgViewMgmt
 90
    32768
280
     0
281
     1
  0
CLASS
  1
ACDMVWEDCIRC
  2
AcDmViewEdgeCircle
  3
AcMechDwgViewMgmt
 90
    32768
280
     0
281
     1
  0
CLASS
  1
AM_ADLINCTRLINE
  2
AcAdLineCl
  3
DesignerServices
 90
    32768
280
     0
281
     0
  0
CLASS
  1
AM_ADCIRCTRLINE
  2
AcAdBullsEyeCl
  3
DesignerServices
 90
    32768
280
     0
281
     0
  0
CLASS
  1
AD_LINETAPH
  2
AcAdTapHoleLineDisp
  3
DesignerServices
 90
    32768
280
     0
281
     0
  0
CLASS
  1
AM_ISO_VIEW_ORIENT
  2
AcDmIsoViewOr
  3
AcMechDwgViewMgmt
 90
    32768
280
     0
281
     0
  0
CLASS
  1
AM_ISO_VIEW
  2
AcDmIsoView
  3
AcMechDwgViewMgmt
 90
    32768
280
     0
281
     0
  0
CLASS
  1
CNRREFID
  2
AcAdCornerId
  3
DesignerServices
 90
    32768
280
     0
281
     0
  0
CLASS
  1
ACADPARTPOINTRES
  2
AcAdPartPointRes
  3
AdGrefServices
 90
    32768
280
     0
281
     0
  0
CLASS
  1
ACMBOM
  2
AcmBom
  3
"AcmSymBB|Product Description: AutoCAD Mechanical 2004 DX|Company: Autodesk"
 90
    32768
280
     0
281
     0
  0
CLASS
  1
ACMBOMROW
  2
AcmBomRow
  3
"AcmSymBB|Product Description: AutoCAD Mechanical 2004 DX|Company: Autodesk"
 90
    32768
280
     0
281
     0
  0
CLASS
  1
ACMPARTLIST
  2
AcmPartList
  3
"AcmSymBB|Product Description: AutoCAD Mechanical 2004 DX|Company: Autodesk"
 90
    33791
280
     0
281
     1
  0
CLASS
  1
SILEDGEID
  2
AcAdSilhouetteEdgeId
  3
DesignerServices
 90
    32768
280
     0
281
     0
  0
CLASS
  1
ACMBALLOON
  2
AcmBalloon
  3
"AcmSymBB|Product Description: AutoCAD Mechanical 2004 DX|Company: Autodesk"
 90
    33791
280
     0
281
     1
  0
CLASS
  1
AM_VWNOTEADAPTER
  2
AcDmViewAnnotAdapter
  3
AcMechDwgViewMgmt
 90
    32768
280
     0
281
     0
  0
CLASS
  1
ACDBSOLLINEDGRES
  2
AcDbSolLinEdgRes
  3
AcGrefServices
 90
    32768
280
     0
281
     0
  0
CLASS
  1
ACDMVISEDIT
  2
AcDmViewEntityVisEdit
  3
AcMechDwgViewMgmt
 90
    32768
280
     0
281
     0
  0
CLASS
  1
AM_ABS_AXIS
  2
AcDmAbsAxisDef
  3
AcMechDwgViewMgmt
 90
    32768
280
     0
281
     0
  0
CLASS
  1
IMAGEDEF
  2
AcDbRasterImageDef
  3
ISM
 90
    32768
280
     0
281
     0
  0
CLASS
  1
TABLESTYLE
  2
AcDbTableStyle
  3
ObjectDBX Classes
 90
     2047
280
     0
281
     0
  0
CLASS
  1
VAACXREFPANELOBJECT
  2
VaAcXREFPanelObject
  3
VAAC_ADDIN
 90
    32768
280
     1
281
     0
  0
CLASS
  1
VAACIMAGEINVENTORY
  2
VaAcImageInventory
  3
VAAC_ADDIN
 90
    32768
280
     1
281
     0
  0
CLASS
  1
ACAMROTAXISSYMBOL
  2
AcAmRotAxisSymbol
  3
DesignerAssemblies
 90
    32768
280
     0
281
     0
  0
CLASS
  1
AMACTIVEPARTSELECTFILTER
  2
AcDmActivePartViewEntFilter
  3
DesignerServices
 90
    32768
280
     0
281
     0
  0
CLASS
  1
AM_ORTHO_VIEW_ORIENT
  2
AcDmOrthoViewOr
  3
AcMechDwgViewMgmt
 90
    32768
280
     0
281
     0
  0
CLASS
  1
AM_ORTHO_VIEW
  2
AcDmOrthoView
  3
AcMechDwgViewMgmt
 90
    32768
280
     0
281
     0
  0
CLASS
  1
AM_GREF_POINT
  2
AcDmGrefPntDef
  3
AcMechDwgViewMgmt
 90
    32768
280
     0
281
     0
  0
CLASS
  1
AM_FULLPOINTSECTION
  2
AcDmFullPointSection
  3
AcMechDwgViewMgmt
 90
    32768
280
     0
281
     0
  0
CLASS
  1
AMDTSECTIONSYM
  2
AmdtSectionSym
  3
"AcmSymBB|Product Description: AutoCAD Mechanical 2004 DX|Company: Autodesk"
 90
    33791
280
     0
281
     1
  0
CLASS
  1
AMDTSECTIONSYMLABEL
  2
AmdtSectionSymLabel
  3
"AcmSymBB|Product Description: AutoCAD Mechanical 2004 DX|Company: Autodesk"
 90
    33791
280
     0
281
     1
  0
CLASS
  1
SORTENTSTABLE
  2
AcDbSortentsTable
  3
ObjectDBX Classes
 90
        0
280
     0
281
     0
  0
CLASS
  1
ACMDATAENTRY
  2
AcmDataEntry
  3
"AcmSymBB|Product Description: AutoCAD Mechanical 2004 DX|Company: Autodesk"
 90
    32768
280
     0
281
     0
  0
CLASS
  1
ACCMANGVECVEC
  2
AcCmAngVecVec
  3
DesignerAssemblies
 90
    32768
280
     0
281
     0
  0
CLASS
  1
AD_CIRCTAPH
  2
AcAdTapHoleCircDisp
  3
DesignerServices
 90
    32768
280
     0
281
     0
  0
CLASS
  1
AM_ABS_PLANE
  2
AcDmAbsPlnDef
  3
AcMechDwgViewMgmt
 90
    32768
280
     0
281
     0
  0
CLASS
  1
ACDMGREFEDIT
  2
AcDmViewEntityGeomrefEdit
  3
AcMechDwgViewMgmt
 90
    32768
280
     0
281
     0
  0
CLASS
  1
ACDMVIEWARCEDGERES
  2
AcDmViewArcEdgeRes
  3
AcMechDwgViewMgmt
 90
    32768
280
     0
281
     0
  0
CLASS
  1
ACDMVIEWLINEDGERES
  2
AcDmViewLinEdgeRes
  3
AcMechDwgViewMgmt
 90
    32768
280
     0
281
     0
  0
CLASS
  1
AM_USERDEFNNOTE
  2
AcDmUserDefnNote
  3
AcMechDwgViewMgmt
 90
    32768
280
     0
281
     0
  0
CLASS
  1
ACAMVECTORSYMBOL
  2
AcAmVectorSymbol
  3
DesignerAssemblies
 90
    32768
280
     0
281
     0
  0
CLASS
  1
AM_VIEW_SELECT_FILTER
  2
AcDmSelectViewEntFilter
  3
AcMechDwgViewMgmt
 90
    32768
280
     0
281
     0
  0
CLASS
  1
AMDTEDGESTANDARDISO13715
  2
AmdtEdgeStdISO13715
  3
"Amdt_StdImp|Product Description: AutoCAD Mechanical 2004 DX|Company: Autodesk"
 90
        0
280
     0
281
     0
  0
CLASS
  1
AMDTNOTETEMPLATEDB
  2
AmdtNoteTemplateDB
  3
AMDT_STDIMP_MODULE_NAME
 90
        0
280
     0
281
     0
  0
CLASS
  1
DIMASSOC
  2
AcDbDimAssoc
  3
"AcDbDimAssoc|Product Desc:     AcDim ARX App For Dimension|Company:          Autodesk, Inc.|WEB Address:      www.autodesk.com"
 90
        0
280
     0
281
     0
  0
ENDSEC
  0
SECTION
  2
TABLES
  0
TABLE
  2
VPORT
  5
1D
330
0
100
AcDbSymbolTable
 70
     1
  0
VPORT
  5
1E
330
1D
100
AcDbSymbolTableRecord
100
AcDbViewportTableRecord
  2
*Active
 70
     0
 10
0.0
 20
0.0
 11
1.0
 21
1.0
 12
0.0
 22
0.0
 13
0.0
 23
0.0
 14
0.125
 24
0.125
 15
1.0
 25
1.0
 16
0.0
 26
0.0
 36
1.0
 17
0.0
 27
0.0
 37
0.0
 40
2.000000000000000E+20
 41
1.0
 42
50.0
 43
0.0
 44
0.0
 50
0.0
 51
0.0
 71
     0
 72
   100
 73
     1
 74
     1
 75
     0
 76
     0
 77
     0
 78
     0
281
     0
 65
     0
110
0.0
120
0.0
130
0.0
111
1.0
121
0.0
131
0.0
112
0.0
122
1.0
132
0.0
 79
     0
146
0.0
  0
ENDTAB
  0
TABLE
  2
LTYPE
  5
18
330
0
100
AcDbSymbolTable
 70
    14
  0
LTYPE
  5
19
330
18
100
AcDbSymbolTableRecord
100
AcDbLinetypeTableRecord
  2
BYBLOCK
 70
     0
  3

 72
    65
 73
     0
 40
0.0
  0
LTYPE
  5
1A
330
18
100
AcDbSymbolTableRecord
100
AcDbLinetypeTableRecord
  2
BYLAYER
 70
     0
  3

 72
    65
 73
     0
 40
0.0
  0
LTYPE
  5
9
330
18
100
AcDbSymbolTableRecord
100
AcDbLinetypeTableRecord
  2
CONTINUOUS
 70
     0
  3
Solid line
 72
    65
 73
     0
 40
0.0
  0
LTYPE
  5
36
330
18
100
AcDbSymbolTableRecord
100
AcDbLinetypeTableRecord
  2
AM_ISO08W050
 70
     0
  3
____ . ____ . ____ . ____ . ____ . ____ . ____
 72
    65
 73
     4
 40
18.0
 49
12.0
 74
     0
 49
-1.5
 74
     0
 49
3.0
 74
     0
 49
-1.5
 74
     0
  0
LTYPE
  5
3DE
330
18
100
AcDbSymbolTableRecord
100
AcDbLinetypeTableRecord
  2
HIDDEN
 70
     0
  3
Hidden __ __ __ __ __ __ __ __ __ __ __ __ __ _
 72
    65
 73
     2
 40
9.524999999999998
 49
6.349999999999999
 74
     0
 49
-3.174999999999999
 74
     0
  0
LTYPE
  5
3DF
330
18
100
AcDbSymbolTableRecord
100
AcDbLinetypeTableRecord
  2
PHANTOM2
 70
     0
  3
Phantom (.5x) ___ _ _ ___ _ _ ___ _ _ ___ _ _
 72
    65
 73
     6
 40
31.75
 49
15.875
 74
     0
 49
-3.174999999999999
 74
     0
 49
3.174999999999999
 74
     0
 49
-3.174999999999999
 74
     0
 49
3.174999999999999
 74
     0
 49
-3.174999999999999
 74
     0
  0
LTYPE
  5
3E0
330
18
100
AcDbSymbolTableRecord
100
AcDbLinetypeTableRecord
  2
CENTER
 70
     0
  3
Center ____ _ ____ _ ____ _ ____ _ ____ _ ____
 72
    65
 73
     4
 40
50.8
 49
31.75
 74
     0
 49
-6.349999999999999
 74
     0
 49
6.349999999999999
 74
     0
 49
-6.349999999999999
 74
     0
  0
LTYPE
  5
414
330
18
100
AcDbSymbolTableRecord
100
AcDbLinetypeTableRecord
  2
AM_ISO02W050
 70
     0
  3
__ __ __ __ __ __ __ __ __ __ __ __ __ __ __
 72
    65
 73
     2
 40
7.5
 49
6.0
 74
     0
 49
-1.5
 74
     0
  0
LTYPE
  5
415
330
18
100
AcDbSymbolTableRecord
100
AcDbLinetypeTableRecord
  2
AM_ISO09W050
 70
     0
  3
_____ . . _____ . . _____ . . ____ .. ____
 72
    65
 73
     6
 40
22.5
 49
12.0
 74
     0
 49
-1.5
 74
     0
 49
3.0
 74
     0
 49
-1.5
 74
     0
 49
3.0
 74
     0
 49
-1.5
 74
     0
  0
LTYPE
  5
416
330
18
100
AcDbSymbolTableRecord
100
AcDbLinetypeTableRecord
  2
Amconstr
 70
     0
  3
_______________________
 72
    65
 73
     2
 40
9999.0
 49
9999.0
 74
     0
 49
0.0
 74
     0
  0
LTYPE
  5
417
330
18
100
AcDbSymbolTableRecord
100
AcDbLinetypeTableRecord
  2
AM_ISO08W050x2
 70
     0
  3
__ . __ . __ . __ . __ . __
 72
    65
 73
     4
 40
9.0
 49
6.0
 74
     0
 49
-0.75
 74
     0
 49
1.5
 74
     0
 49
-0.75
 74
     0
  0
LTYPE
  5
418
330
18
100
AcDbSymbolTableRecord
100
AcDbLinetypeTableRecord
  2
AM_ISO02W050x2
 70
     0
  3
 _ _ _ _ _ _ _ _ _ _ _ _
 72
    65
 73
     2
 40
3.75
 49
3.0
 74
     0
 49
-0.75
 74
     0
  0
LTYPE
  5
41B
330
18
100
AcDbSymbolTableRecord
100
AcDbLinetypeTableRecord
  2
Amzigzag
 70
     0
  3
/\/-/\/-/\/-/\/-/\/-/\/
 72
    65
 73
     2
 40
11.0001
 49
0.0001
 74
     4
 75
   135
340
41A
 46
0.04
 50
0.0
 44
0.0
 45
0.0
 49
-11.0
 74
     0
  0
LTYPE
  5
42A
330
18
100
AcDbSymbolTableRecord
100
AcDbLinetypeTableRecord
  2
ACISOWELD
 70
     0
  3
_ _ _ _ _
 72
    65
 73
     2
 40
2.0
 49
2.0
 74
     0
 49
-1.0
 74
     0
  0
LTYPE
  5
42B
330
18
100
AcDbSymbolTableRecord
100
AcDbLinetypeTableRecord
  2
ACISOTGB
 70
     0
  3
__ . . __ . .
 72
    65
 73
     6
 40
9.0
 49
4.0
 74
     0
 49
-1.0
 74
     0
 49
1.0
 74
     0
 49
-1.0
 74
     0
 49
1.0
 74
     0
 49
-1.0
 74
     0
  0
LTYPE
  5
42C
330
18
100
AcDbSymbolTableRecord
100
AcDbLinetypeTableRecord
  2
ACISOTGL
 70
     0
  3
_ _ _ _ _
 72
    65
 73
     2
 40
3.0
 49
2.0
 74
     0
 49
-1.0
 74
     0
  0
ENDTAB
  0
TABLE
  2
LAYER
  5
12
102
{ACAD_XDICTIONARY
360
13
102
}
330
0
100
AcDbSymbolTable
 70
     7
  0
LAYER
  5
5
330
12
100
AcDbSymbolTableRecord
100
AcDbLayerTableRecord
  2
0
 70
     0
 62
     7
  6
CONTINUOUS
370
    -3
390
6
  0
LAYER
  5
99
330
12
100
AcDbSymbolTableRecord
100
AcDbLayerTableRecord
  2
AM_VIS
 70
     0
 62
     7
  6
CONTINUOUS
370
    50
390
6
  0
LAYER
  5
35
330
12
100
AcDbSymbolTableRecord
100
AcDbLayerTableRecord
  2
AM_7
 70
     0
 62
     1
  6
AM_ISO08W050
370
    25
390
6
  0
LAYER
  5
96
330
12
100
AcDbSymbolTableRecord
100
AcDbLayerTableRecord
  2
AM_4
 70
     0
 62
     3
  6
CONTINUOUS
370
    25
390
6
  0
LAYER
  5
452
330
12
100
AcDbSymbolTableRecord
100
AcDbLayerTableRecord
  2
LOGO
 70
     0
 62
     7
  6
CONTINUOUS
370
    -3
390
6
  0
LAYER
  5
58F
330
12
100
AcDbSymbolTableRecord
100
AcDbLayerTableRecord
  2
AM_5
 70
     0
 62
     5
  6
CONTINUOUS
370
    50
390
6
  0
LAYER
  5
592
330
12
100
AcDbSymbolTableRecord
100
AcDbLayerTableRecord
  2
Defpoints
 70
     0
 62
     7
  6
CONTINUOUS
290
     0
370
    -3
390
6
  0
ENDTAB
  0
TABLE
  2
STYLE
  5
15
330
0
100
AcDbSymbolTable
 70
     7
  0
STYLE
  5
16
330
15
100
AcDbSymbolTableRecord
100
AcDbTextStyleTableRecord
  2
STANDARD
 70
     0
 40
0.0
 41
1.0
 50
0.0
 71
     0
 42
0.12
  3
ISOCP.SHX
  4
CHINESET.SHX
  0
STYLE
  5
29
330
15
100
AcDbSymbolTableRecord
100
AcDbTextStyleTableRecord
  2
DAYUS
 70
     0
 40
0.0
 41
1.0
 50
0.0
 71
     0
 42
3.0
  3
simplex.shx
  4
dayus.shx
  0
STYLE
  5
41A
330
15
100
AcDbSymbolTableRecord
100
AcDbTextStyleTableRecord
  2

 70
     1
 40
0.0
 41
1.0
 50
0.0
 71
     0
 42
3.0
  3
ltypeshp.shx
  4

  0
STYLE
  5
41C
330
15
100
AcDbSymbolTableRecord
100
AcDbTextStyleTableRecord
  2
ACISOTS
 70
     0
 40
1.0
 41
1.0
 50
0.0
 71
     0
 42
3.0
  3
isocp.shx
  4
chineset.shx
  0
STYLE
  5
429
330
15
100
AcDbSymbolTableRecord
100
AcDbTextStyleTableRecord
  2
ACISOGDT
 70
     0
 40
0.0
 41
1.0
 50
0.0
 71
     0
 42
3.0
  3
amgdt.shx
  4

  0
STYLE
  5
453
330
15
100
AcDbSymbolTableRecord
100
AcDbTextStyleTableRecord
  2
CHINESE
 70
     0
 40
0.0
 41
1.0
 50
0.0
 71
     0
 42
3.0
  3
simplex.shx
  4
chineset.shx
  0
STYLE
  5
454
330
15
100
AcDbSymbolTableRecord
100
AcDbTextStyleTableRecord
  2
CHINESET
 70
     0
 40
0.0
 41
1.0
 50
0.0
 71
     0
 42
4.0
  3
C:\r13\com\fonts\simplex.shx
  4
C:\r13\com\fonts\chineset.shx
  0
ENDTAB
  0
TABLE
  2
VIEW
  5
1B
330
0
100
AcDbSymbolTable
 70
     0
  0
ENDTAB
  0
TABLE
  2
UCS
  5
1C
330
0
100
AcDbSymbolTable
 70
     0
  0
ENDTAB
  0
TABLE
  2
APPID
  5
1F
330
0
100
AcDbSymbolTable
 70
    18
  0
APPID
  5
20
330
1F
100
AcDbSymbolTableRecord
100
AcDbRegAppTableRecord
  2
ACAD
 70
     0
  0
APPID
  5
11
330
1F
100
AcDbSymbolTableRecord
100
AcDbRegAppTableRecord
  2
ACAD_PSEXT
 70
     0
  0
APPID
  5
3B1
330
1F
100
AcDbSymbolTableRecord
100
AcDbRegAppTableRecord
  2
MCAD_NO_VIS
 70
     0
  0
APPID
  5
3B2
330
1F
100
AcDbSymbolTableRecord
100
AcDbRegAppTableRecord
  2
ACAD_TEMP_GRAPHIC
 70
     0
  0
APPID
  5
3E2
330
1F
100
AcDbSymbolTableRecord
100
AcDbRegAppTableRecord
  2
AD_DRAW
 70
     0
  0
APPID
  5
3E5
330
1F
100
AcDbSymbolTableRecord
100
AcDbRegAppTableRecord
  2
ACATTRIBSERVICES
 70
     0
  0
APPID
  5
403
330
1F
100
AcDbSymbolTableRecord
100
AcDbRegAppTableRecord
  2
DESIGNERASSEMBLIES
 70
     0
  0
APPID
  5
409
330
1F
100
AcDbSymbolTableRecord
100
AcDbRegAppTableRecord
  2
ACADM_DIM_EDIT
 70
     0
  0
APPID
  5
40A
330
1F
100
AcDbSymbolTableRecord
100
AcDbRegAppTableRecord
  2
AMDT_DM_ADJ
 70
     0
  0
APPID
  5
45D
330
1F
100
AcDbSymbolTableRecord
100
AcDbRegAppTableRecord
  2
GENIUS_GENOENT_13
 70
     0
  0
APPID
  5
45E
330
1F
100
AcDbSymbolTableRecord
100
AcDbRegAppTableRecord
  2
GENIUS_GENOBJ-N-CRS_13
 70
     0
  0
APPID
  5
45F
330
1F
100
AcDbSymbolTableRecord
100
AcDbRegAppTableRecord
  2
GENIUS_GENOLIS_13
 70
     0
  0
APPID
  5
460
330
1F
100
AcDbSymbolTableRecord
100
AcDbRegAppTableRecord
  2
GENIUS_GENODEF_13
 70
     0
  0
APPID
  5
461
330
1F
100
AcDbSymbolTableRecord
100
AcDbRegAppTableRecord
  2
GENIUS_GENOREF_13
 70
     0
  0
APPID
  5
462
330
1F
100
AcDbSymbolTableRecord
100
AcDbRegAppTableRecord
  2
GENIUS_GENREC_14
 70
     0
  0
APPID
  5
463
330
1F
100
AcDbSymbolTableRecord
100
AcDbRegAppTableRecord
  2
GENIUS_GENOBJ-N-REC_13
 70
     0
  0
APPID
  5
5A4
330
1F
100
AcDbSymbolTableRecord
100
AcDbRegAppTableRecord
  2
ACAD_DSTYLE_DIMTEXT_FILL
 70
     0
  0
APPID
  5
735
330
1F
100
AcDbSymbolTableRecord
100
AcDbRegAppTableRecord
  2
GENIUS_GENDTOL_13
 70
     0
  0
ENDTAB
  0
TABLE
  2
DIMSTYLE
  5
21
330
0
100
AcDbSymbolTable
 70
     9
100
AcDbDimStyleTable
 71
     2
340
27
340
22
  0
DIMSTYLE
105
27
330
21
100
AcDbSymbolTableRecord
100
AcDbDimStyleTableRecord
  2
AM_ISO
 70
     0
  4
"
 40
1.3
 41
3.5
 42
1.0
 43
8.0
 44
1.0
 47
0.1
 48
0.1
 73
     0
 74
     0
 77
     1
 78
     8
 79
     2
140
3.5
141
0.0
143
0.0393701
146
0.71
147
1.0
172
     1
176
   256
177
   256
178
   256
271
     2
272
     2
283
     0
284
     8
340
16
371
    -1
372
    -1
  0
DIMSTYLE
105
22
330
21
100
AcDbSymbolTableRecord
100
AcDbDimStyleTableRecord
  2
AM_ISO$SH
 70
     0
  4
"
 41
2.5
 42
1.0
 43
10.0
 44
1.0
 47
0.1
 48
0.1
 73
     0
 74
     0
 75
     1
 76
     1
 77
     1
 78
     8
 79
     2
140
3.5
141
0.0
143
0.0393701
144
2.0
146
0.71
147
1.5
172
     1
173
     1
176
   256
177
   256
178
     2
271
     2
272
     3
274
     4
283
     0
284
     8
340
16
343
23
371
    -1
372
    -1
  0
DIMSTYLE
105
435
330
21
100
AcDbSymbolTableRecord
100
AcDbDimStyleTableRecord
  2
AM_ISO$3
 70
     0
  4
"
 40
1.3
 41
3.5
 42
1.0
 43
8.0
 44
1.0
 47
0.1
 48
0.1
 73
     0
 77
     1
 78
     8
 79
     2
140
3.5
141
0.0
143
0.0393701
146
0.71
147
1.0
176
   256
177
   256
178
   256
271
     2
272
     2
283
     0
284
     8
288
     1
289
     0
340
16
371
    -1
372
    -1
  0
DIMSTYLE
105
436
102
{ACAD_REACTORS
330
101F
102
}
330
21
100
AcDbSymbolTableRecord
100
AcDbDimStyleTableRecord
  2
AM_ISO$4
 70
     0
  4
"
 40
1.3
 41
3.5
 42
1.0
 43
8.0
 44
1.0
 47
0.1
 48
0.1
 73
     0
 77
     1
 78
     8
 79
     2
140
3.5
141
0.0
143
0.0393701
146
0.71
147
1.0
176
   256
177
   256
178
   256
271
     2
272
     2
283
     0
284
     8
288
     1
289
     0
340
16
371
    -1
372
    -1
  0
DIMSTYLE
105
437
330
21
100
AcDbSymbolTableRecord
100
AcDbDimStyleTableRecord
  2
AM_ISO$6
 70
     0
  4
"
 40
1.3
 41
3.5
 42
1.0
 43
8.0
 44
1.0
 47
0.1
 48
0.1
 73
     0
 74
     0
 78
     8
 79
     2
140
3.5
141
0.0
143
0.0393701
146
0.71
147
1.0
172
     1
176
   256
177
   256
178
   256
271
     2
272
     2
283
     0
284
     8
340
16
371
    -1
372
    -1
  0
DIMSTYLE
105
438
330
21
100
AcDbSymbolTableRecord
100
AcDbDimStyleTableRecord
  2
AM_ISO$7
 70
     0
  4
"
 40
1.3
 41
3.5
 42
1.0
 43
8.0
 44
1.0
 47
0.1
 48
0.1
 73
     0
 74
     0
 77
     1
 78
     8
 79
     2
140
5.0
141
0.0
143
0.0393701
146
0.71
147
1.0
172
     1
176
   256
177
   256
178
   256
271
     2
272
     2
283
     0
284
     8
340
16
371
    -1
372
    -1
  0
DIMSTYLE
105
439
330
21
100
AcDbSymbolTableRecord
100
AcDbDimStyleTableRecord
  2
AM_ISO$SF
 70
     0
  4
"
 41
2.5
 42
1.0
 43
10.0
 44
1.0
 47
0.1
 48
0.1
 73
     0
 74
     0
 75
     1
 76
     1
 77
     1
 78
     8
 79
     2
140
3.5
141
0.0
143
0.0393701
146
0.71
147
1.5
172
     1
176
   256
177
   256
178
     2
271
     2
272
     8
274
     4
283
     0
284
     8
340
16
371
    -1
372
    -1
  0
DIMSTYLE
105
457
330
21
100
AcDbSymbolTableRecord
100
AcDbDimStyleTableRecord
  2
STANDARD
 70
     0
 41
3.0
 42
2.0
 43
8.0
 44
2.0
 73
     0
 74
     0
 77
     1
 78
     8
140
3.0
141
2.0
146
0.6
147
1.0
172
     1
176
   256
177
   256
271
     2
272
     2
284
     8
340
453
371
    -1
372
    -1
  0
DIMSTYLE
105
653
102
{ACAD_REACTORS
330
101B
330
101C
330
101D
330
101E
330
1021
102
}
330
21
100
AcDbSymbolTableRecord
100
AcDbDimStyleTableRecord
  2
AM_ISO$0
 70
     0
  4
"
 40
1.3
 41
3.5
 42
1.0
 43
8.0
 44
1.0
 47
0.1
 48
0.1
 73
     0
 74
     0
 77
     1
 78
     8
 79
     2
140
3.5
141
0.0
143
0.0393701
146
0.71
147
1.0
172
     1
176
   256
177
   256
178
   256
271
     2
272
     2
283
     0
284
     8
340
16
371
    -1
372
    -1
  0
ENDTAB
  0
TABLE
  2
BLOCK_RECORD
  5
1
330
0
100
AcDbSymbolTable
 70
    20
  0
BLOCK_RECORD
  5
2
102
{ACAD_XDICTIONARY
360
3
102
}
330
1
100
AcDbSymbolTableRecord
100
AcDbBlockTableRecord
  2
*MODEL_SPACE
340
B
  0
BLOCK_RECORD
  5
D
102
{ACAD_XDICTIONARY
360
8C3
102
}
330
1
100
AcDbSymbolTableRecord
100
AcDbBlockTableRecord
  2
*Paper_Space
340
10
  0
BLOCK_RECORD
  5
23
330
1
100
AcDbSymbolTableRecord
100
AcDbBlockTableRecord
  2
GENAXEH
340
0
  0
BLOCK_RECORD
  5
1024
330
1
100
AcDbSymbolTableRecord
100
AcDbBlockTableRecord
  2
*D14
340
0
  0
BLOCK_RECORD
  5
1030
330
1
100
AcDbSymbolTableRecord
100
AcDbBlockTableRecord
  2
*D15
340
0
  0
BLOCK_RECORD
  5
103C
330
1
100
AcDbSymbolTableRecord
100
AcDbBlockTableRecord
  2
*D16
340
0
  0
BLOCK_RECORD
  5
1048
330
1
100
AcDbSymbolTableRecord
100
AcDbBlockTableRecord
  2
*D17
340
0
  0
BLOCK_RECORD
  5
1054
330
1
100
AcDbSymbolTableRecord
100
AcDbBlockTableRecord
  2
*D18
340
0
  0
BLOCK_RECORD
  5
1087
330
1
100
AcDbSymbolTableRecord
100
AcDbBlockTableRecord
  2
*D19
340
0
  0
ENDTAB
  0
ENDSEC
  0
SECTION
  2
BLOCKS
  0
BLOCK
  5
4
330
2
100
AcDbEntity
  8
0
100
AcDbBlockBegin
  2
*MODEL_SPACE
 70
     0
 10
0.0
 20
0.0
 30
0.0
  3
*MODEL_SPACE
  1

  0
ENDBLK
  5
A
330
2
100
AcDbEntity
  8
0
100
AcDbBlockEnd
  0
BLOCK
  5
E
330
D
100
AcDbEntity
 67
     1
  8
0
100
AcDbBlockBegin
  2
*Paper_Space
 70
     0
 10
0.0
 20
0.0
 30
0.0
  3
*Paper_Space
  1

  0
ENDBLK
  5
F
330
D
100
AcDbEntity
 67
     1
  8
0
100
AcDbBlockEnd
  0
BLOCK
  5
24
330
23
100
AcDbEntity
  8
0
100
AcDbBlockBegin
  2
GENAXEH
 70
     0
 10
0.0
 20
0.0
 30
0.0
  3
GENAXEH
  1

  0
LINE
  5
25
330
23
100
AcDbEntity
  8
0
100
AcDbLine
 10
-1.0
 20
0.0
 30
0.0
 11
1.0
 21
0.0
 31
0.0
  0
ENDBLK
  5
26
330
23
100
AcDbEntity
  8
0
100
AcDbBlockEnd
  0
BLOCK
  5
102E
330
1024
100
AcDbEntity
  8
0
100
AcDbBlockBegin
  2
*D14
 70
     1
 10
0.0
 20
0.0
 30
0.0
  3
*D14
  1

  0
LINE
  5
105D
330
1024
100
AcDbEntity
  8
AM_5
100
AcDbLine
 10
192.3748292918509
 20
84.64844310121694
 30
0.0
 11
238.8748292918509
 21
84.64844310121693
 31
0.0
  0
LINE
  5
105E
330
1024
100
AcDbEntity
  8
AM_5
100
AcDbLine
 10
189.6707698429357
 20
256.5484431012169
 30
0.0
 11
238.874829291851
 21
256.5484431012169
 31
0.0
  0
LINE
  5
105F
330
1024
100
AcDbEntity
  8
AM_5
100
AcDbLine
 10
237.5748292918509
 20
89.19844310121693
 30
0.0
 11
237.574829291851
 21
251.9984431012169
 31
0.0
  0
SOLID
  5
1060
330
1024
100
AcDbEntity
  8
AM_5
100
AcDbTrace
 10
236.8164959585176
 20
89.19844310121693
 30
0.0
 11
238.3331626251842
 21
89.19844310121693
 31
0.0
 12
237.5748292918509
 22
84.64844310121693
 32
0.0
 13
237.5748292918509
 23
84.64844310121693
 33
0.0
  0
SOLID
  5
1061
330
1024
100
AcDbEntity
  8
AM_5
100
AcDbTrace
 10
236.8164959585176
 20
251.9984431012169
 30
0.0
 11
238.3331626251843
 21
251.9984431012169
 31
0.0
 12
237.574829291851
 22
256.5484431012169
 32
0.0
 13
237.574829291851
 23
256.5484431012169
 33
0.0
  0
MTEXT
  5
1062
330
1024
100
AcDbEntity
  8
AM_5
100
AcDbMText
 10
233.9993814572052
 20
170.5984431012169
 30
0.0
 40
4.549999999999999
 41
0.0
 71
     5
 72
     1
  1
172
 11
0.0000000000000001
 21
1.0
 31
0.0
 73
     1
 44
1.0
1001
ACAD
1000
MTEXTBEGIN
1070
    73
1070
     1
1070
    44
1040
1.0
1070
    74
1070
     0
1000
MTEXTEND
  0
POINT
  5
1063
330
1024
100
AcDbEntity
  8
Defpoints
 62
     0
100
AcDbPoint
 10
191.0748292918509
 20
84.64844310121694
 30
0.0
  0
POINT
  5
1064
330
1024
100
AcDbEntity
  8
Defpoints
 62
     0
100
AcDbPoint
 10
188.3707698429357
 20
256.5484431012169
 30
0.0
  0
POINT
  5
1065
330
1024
100
AcDbEntity
  8
Defpoints
 62
     0
100
AcDbPoint
 10
237.574829291851
 20
256.5484431012169
 30
0.0
  0
ENDBLK
  5
102F
330
1024
100
AcDbEntity
  8
0
100
AcDbBlockEnd
  0
BLOCK
  5
103A
330
1030
100
AcDbEntity
  8
0
100
AcDbBlockBegin
  2
*D15
 70
     1
 10
0.0
 20
0.0
 30
0.0
  3
*D15
  1

  0
LINE
  5
1066
330
1030
100
AcDbEntity
  8
AM_5
100
AcDbLine
 10
196.4748292918509
 20
209.6484431012168
 30
0.0
 11
226.874829291851
 21
209.6484431012168
 31
0.0
  0
LINE
  5
1067
330
1030
100
AcDbEntity
  8
AM_5
100
AcDbLine
 10
183.37482928367
 20
256.5484431012169
 30
0.0
 11
226.874829291851
 21
256.5484431012169
 31
0.0
  0
LINE
  5
1068
330
1030
100
AcDbEntity
  8
AM_5
100
AcDbLine
 10
225.5748292918509
 20
214.1984431012168
 30
0.0
 11
225.5748292918509
 21
251.9984431012169
 31
0.0
  0
SOLID
  5
1069
330
1030
100
AcDbEntity
  8
AM_5
100
AcDbTrace
 10
224.8164959585176
 20
214.1984431012168
 30
0.0
 11
226.3331626251843
 21
214.1984431012168
 31
0.0
 12
225.5748292918509
 22
209.6484431012168
 32
0.0
 13
225.5748292918509
 23
209.6484431012168
 33
0.0
  0
SOLID
  5
106A
330
1030
100
AcDbEntity
  8
AM_5
100
AcDbTrace
 10
224.8164959585176
 20
251.9984431012169
 30
0.0
 11
226.3331626251843
 21
251.9984431012169
 31
0.0
 12
225.5748292918509
 22
256.5484431012169
 32
0.0
 13
225.5748292918509
 23
256.5484431012169
 33
0.0
  0
MTEXT
  5
106B
330
1030
100
AcDbEntity
  8
AM_5
100
AcDbMText
 10
221.9998292918509
 20
233.0984431012169
 30
0.0
 40
4.549999999999999
 41
0.0
 71
     5
 72
     1
  1
47
 11
0.0000000000000001
 21
1.0
 31
0.0
 73
     1
 44
1.0
1001
ACAD
1000
MTEXTBEGIN
1070
    73
1070
     1
1070
    44
1040
1.0
1070
    74
1070
     0
1000
MTEXTEND
  0
POINT
  5
106C
330
1030
100
AcDbEntity
  8
Defpoints
 62
     0
100
AcDbPoint
 10
195.1748292918509
 20
209.6484431012168
 30
0.0
  0
POINT
  5
106D
330
1030
100
AcDbEntity
  8
Defpoints
 62
     0
100
AcDbPoint
 10
182.07482928367
 20
256.5484431012169
 30
0.0
  0
POINT
  5
106E
330
1030
100
AcDbEntity
  8
Defpoints
 62
     0
100
AcDbPoint
 10
225.5748292918509
 20
256.5484431012169
 30
0.0
  0
ENDBLK
  5
103B
330
1030
100
AcDbEntity
  8
0
100
AcDbBlockEnd
  0
BLOCK
  5
1046
330
103C
100
AcDbEntity
  8
0
100
AcDbBlockBegin
  2
*D16
 70
     1
 10
0.0
 20
0.0
 30
0.0
  3
*D16
  1

  0
LINE
  5
106F
330
103C
100
AcDbEntity
  8
AM_5
100
AcDbLine
 10
52.91425952622825
 20
330.7406583518709
 30
0.0
 11
52.91425952622825
 21
354.2406593618709
 31
0.0
  0
LINE
  5
1070
330
103C
100
AcDbEntity
  8
AM_5
100
AcDbLine
 10
105.9142595262283
 20
330.7406583518706
 30
0.0
 11
105.9142595262283
 21
354.2406593618709
 31
0.0
  0
LINE
  5
1071
330
103C
100
AcDbEntity
  8
AM_5
100
AcDbLine
 10
57.46425952622825
 20
352.9406593618709
 30
0.0
 11
101.3642595262283
 21
352.9406593618709
 31
0.0
  0
SOLID
  5
1072
330
103C
100
AcDbEntity
  8
AM_5
100
AcDbTrace
 10
57.46425952622825
 20
353.6989926952042
 30
0.0
 11
57.46425952622825
 21
352.1823260285375
 31
0.0
 12
52.91425952622825
 22
352.9406593618709
 32
0.0
 13
52.91425952622825
 23
352.9406593618709
 33
0.0
  0
SOLID
  5
1073
330
103C
100
AcDbEntity
  8
AM_5
100
AcDbTrace
 10
101.3642595262283
 20
353.6989926952042
 30
0.0
 11
101.3642595262283
 21
352.1823260285375
 31
0.0
 12
105.9142595262283
 22
352.9406593618709
 32
0.0
 13
105.9142595262283
 23
352.9406593618709
 33
0.0
  0
MTEXT
  5
1074
330
103C
100
AcDbEntity
  8
AM_5
100
AcDbMText
 10
79.41425952622828
 20
356.5156593618709
 30
0.0
 40
4.549999999999999
 41
0.0
 71
     5
 72
     1
  1
53
 73
     1
 44
1.0
1001
ACAD
1000
MTEXTBEGIN
1070
    73
1070
     1
1070
    44
1040
1.0
1070
    74
1070
     0
1000
MTEXTEND
  0
POINT
  5
1075
330
103C
100
AcDbEntity
  8
Defpoints
 62
     0
100
AcDbPoint
 10
52.91425952622825
 20
329.4406583518709
 30
0.0
  0
POINT
  5
1076
330
103C
100
AcDbEntity
  8
Defpoints
 62
     0
100
AcDbPoint
 10
105.9142595262283
 20
329.4406583518706
 30
0.0
  0
POINT
  5
1077
330
103C
100
AcDbEntity
  8
Defpoints
 62
     0
100
AcDbPoint
 10
105.9142595262283
 20
352.9406593618709
 30
0.0
  0
ENDBLK
  5
1047
330
103C
100
AcDbEntity
  8
0
100
AcDbBlockEnd
  0
BLOCK
  5
1052
330
1048
100
AcDbEntity
  8
0
100
AcDbBlockBegin
  2
*D17
 70
     1
 10
0.0
 20
0.0
 30
0.0
  3
*D17
  1

  0
LINE
  5
1078
330
1048
100
AcDbEntity
  8
AM_5
100
AcDbLine
 10
90.90003391995985
 20
287.9406583518708
 30
0.0
 11
126.2626341888144
 21
287.9406583518708
 31
0.0
  0
LINE
  5
1079
330
1048
100
AcDbEntity
  8
AM_5
100
AcDbLine
 10
90.90003391996003
 20
340.9406583518708
 30
0.0
 11
126.2626341888144
 21
340.9406583518708
 31
0.0
  0
LINE
  5
107A
330
1048
100
AcDbEntity
  8
AM_5
100
AcDbLine
 10
124.9626341888144
 20
292.4906583518708
 30
0.0
 11
124.9626341888144
 21
336.3906583518708
 31
0.0
  0
SOLID
  5
107B
330
1048
100
AcDbEntity
  8
AM_5
100
AcDbTrace
 10
124.2043008554811
 20
292.4906583518708
 30
0.0
 11
125.7209675221478
 21
292.4906583518708
 31
0.0
 12
124.9626341888144
 22
287.9406583518708
 32
0.0
 13
124.9626341888144
 23
287.9406583518708
 33
0.0
  0
SOLID
  5
107C
330
1048
100
AcDbEntity
  8
AM_5
100
AcDbTrace
 10
124.2043008554811
 20
336.3906583518708
 30
0.0
 11
125.7209675221478
 21
336.3906583518708
 31
0.0
 12
124.9626341888144
 22
340.9406583518708
 32
0.0
 13
124.9626341888144
 23
340.9406583518708
 33
0.0
  0
MTEXT
  5
107D
330
1048
100
AcDbEntity
  8
AM_5
100
AcDbMText
 10
121.3876341888143
 20
314.9088748732406
 30
0.0
 40
4.549999999999999
 41
0.0
 71
     5
 72
     1
  1
53
 11
0.0000000000000001
 21
1.0
 31
0.0
 73
     1
 44
1.0
1001
ACAD
1000
MTEXTBEGIN
1070
    73
1070
     1
1070
    44
1040
1.0
1070
    74
1070
     0
1000
MTEXTEND
  0
POINT
  5
107E
330
1048
100
AcDbEntity
  8
Defpoints
 62
     0
100
AcDbPoint
 10
89.60003391995986
 20
287.9406583518708
 30
0.0
  0
POINT
  5
107F
330
1048
100
AcDbEntity
  8
Defpoints
 62
     0
100
AcDbPoint
 10
89.60003391996002
 20
340.9406583518708
 30
0.0
  0
POINT
  5
1080
330
1048
100
AcDbEntity
  8
Defpoints
 62
     0
100
AcDbPoint
 10
124.9626341888144
 20
340.9406583518708
 30
0.0
  0
ENDBLK
  5
1053
330
1048
100
AcDbEntity
  8
0
100
AcDbBlockEnd
  0
BLOCK
  5
105B
330
1054
100
AcDbEntity
  8
0
100
AcDbBlockBegin
  2
*D18
 70
     1
 10
0.0
 20
0.0
 30
0.0
  3
*D18
  1

  0
LINE
  5
1081
330
1054
100
AcDbEntity
  8
AM_5
100
AcDbLine
 10
175.5748481912029
 20
200.9990091375104
 30
0.0
 11
149.5005798367
 21
159.9938387274367
 31
0.0
  0
LINE
  5
1082
330
1054
100
AcDbEntity
  8
AM_5
100
AcDbLine
 10
149.5005798367
 20
159.9938387274367
 30
0.0
 11
126.2450384981174
 21
159.9938387274367
 31
0.0
  0
SOLID
  5
1083
330
1054
100
AcDbEntity
  8
AM_5
100
AcDbTrace
 10
174.9349307190912
 20
201.4059183083713
 30
0.0
 11
176.2147656633145
 21
200.5920999666495
 31
0.0
 12
178.0163032163684
 22
204.8385139701801
 32
0.0
 13
178.0163032163684
 23
204.8385139701801
 33
0.0
  0
MTEXT
  5
1084
330
1054
100
AcDbEntity
  8
AM_5
100
AcDbMText
 10
137.2228091674087
 20
167.3614010633948
 30
0.0
 40
4.549999999999999
 41
0.0
 71
     5
 72
     1
  1
2-PT3/8\P2-PT1/4
 73
     1
 44
1.0
1001
ACAD
1000
MTEXTBEGIN
1070
    73
1070
     1
1070
    44
1040
1.0
1070
    74
1070
     0
1000
MTEXTEND
  0
POINT
  5
1085
330
1054
100
AcDbEntity
  8
Defpoints
 62
     0
100
AcDbPoint
 10
178.0163032163684
 20
204.8385139701801
 30
0.0
  0
POINT
  5
1086
330
1054
100
AcDbEntity
  8
Defpoints
 62
     0
100
AcDbPoint
 10
181.0748292918504
 20
209.6484431012169
 30
0.0
  0
ENDBLK
  5
105C
330
1054
100
AcDbEntity
  8
0
100
AcDbBlockEnd
  0
BLOCK
  5
1091
330
1087
100
AcDbEntity
  8
0
100
AcDbBlockBegin
  2
*D19
 70
     1
 10
0.0
 20
0.0
 30
0.0
  3
*D19
  1

  0
LINE
  5
1088
330
1087
100
AcDbEntity
  8
AM_5
100
AcDbLine
 10
196.4748292918509
 20
209.6484431012168
 30
0.0
 11
226.874829291851
 21
209.6484431012168
 31
0.0
  0
LINE
  5
1089
330
1087
100
AcDbEntity
  8
AM_5
100
AcDbLine
 10
192.3748292918509
 20
84.64844310121694
 30
0.0
 11
226.8748292918509
 21
84.64844310121693
 31
0.0
  0
LINE
  5
108A
330
1087
100
AcDbEntity
  8
AM_5
100
AcDbLine
 10
225.574829291851
 20
205.0984431012168
 30
0.0
 11
225.5748292918509
 21
89.19844310121693
 31
0.0
  0
SOLID
  5
108B
330
1087
100
AcDbEntity
  8
AM_5
100
AcDbTrace
 10
224.8164959585177
 20
205.0984431012168
 30
0.0
 11
226.3331626251843
 21
205.0984431012168
 31
0.0
 12
225.574829291851
 22
209.6484431012168
 32
0.0
 13
225.574829291851
 23
209.6484431012168
 33
0.0
  0
SOLID
  5
108C
330
1087
100
AcDbEntity
  8
AM_5
100
AcDbTrace
 10
224.8164959585176
 20
89.19844310121693
 30
0.0
 11
226.3331626251843
 21
89.19844310121693
 31
0.0
 12
225.5748292918509
 22
84.64844310121693
 32
0.0
 13
225.5748292918509
 23
84.64844310121693
 33
0.0
  0
MTEXT
  5
108D
330
1087
100
AcDbEntity
  8
AM_5
100
AcDbMText
 10
221.9993814572053
 20
147.1484431012169
 30
0.0
 40
4.549999999999999
 41
0.0
 71
     5
 72
     1
  1
125
 11
0.0000000000000001
 21
1.0
 31
0.0
 73
     1
 44
1.0
1001
ACAD
1000
MTEXTBEGIN
1070
    73
1070
     1
1070
    44
1040
1.0
1070
    74
1070
     0
1000
MTEXTEND
  0
POINT
  5
108E
330
1087
100
AcDbEntity
  8
Defpoints
 62
     0
100
AcDbPoint
 10
195.1748292918509
 20
209.6484431012168
 30
0.0
  0
POINT
  5
108F
330
1087
100
AcDbEntity
  8
Defpoints
 62
     0
100
AcDbPoint
 10
191.0748292918509
 20
84.64844310121694
 30
0.0
  0
POINT
  5
1090
330
1087
100
AcDbEntity
  8
Defpoints
 62
     0
100
AcDbPoint
 10
225.5748292918509
 20
84.64844310121693
 30
0.0
  0
ENDBLK
  5
1092
330
1087
100
AcDbEntity
  8
0
100
AcDbBlockEnd
  0
ENDSEC
  0
SECTION
  2
ENTITIES
  0
VIEWPORT
  5
3AA
102
{ACAD_XDICTIONARY
360
10AC
102
}
330
D
100
AcDbEntity
 67
     1
  8
0
100
AcDbViewport
 10
141.2048417401953
 20
202.364832642547
 30
0.0
 40
331.2936277562494
 41
367.0308412459906
 68
     1
 69
     1
 12
141.2048417401953
 22
202.364832642547
 13
0.0
 23
0.0
 14
1.0
 24
1.0
 15
0.0
 25
0.0
 16
0.0
 26
0.0
 36
1.0
 17
0.0
 27
0.0
 37
0.0
 42
50.0
 43
0.0
 44
0.0
 45
367.0308412459906
 50
0.0
 51
0.0
 72
  1000
 90
    32800
  1

281
     0
 71
     1
 74
     0
110
0.0
120
0.0
130
0.0
111
1.0
121
0.0
131
0.0
112
0.0
122
1.0
132
0.0
 79
     0
146
0.0
  0
TEXT
  5
505
330
D
100
AcDbEntity
 67
     1
  8
LOGO
 62
     7
100
AcDbText
 10
97.11412350669389
 20
40.53252060200551
 30
0.0
 40
4.799304977375565
  1
Order example:
 41
0.8
  7
CHINESET
100
AcDbText
  0
TEXT
  5
506
330
D
100
AcDbEntity
 67
     1
  8
LOGO
 62
     7
100
AcDbText
 10
97.97515850827267
 20
47.28894830137514
 30
0.0
 40
7.198957466063347
  1
訂購代號：
  7
CHINESET
100
AcDbText
  0
LINE
  5
507
330
D
100
AcDbEntity
 67
     1
  8
LOGO
 62
     4
100
AcDbLine
 10
95.02880921571749
 20
20.30643709745559
 30
0.0
 11
95.02880921571749
 21
56.30122442777255
 31
0.0
  0
TEXT
  5
508
330
D
100
AcDbEntity
 67
     1
  8
LOGO
  6
Continuous
100
AcDbText
 10
28.76976649776998
 20
27.37755874762601
 30
0.0
 40
5.399218099547511
  1
金器工業股份有限公司
  7
CHINESET
100
AcDbText
  0
TEXT
  5
509
330
D
100
AcDbEntity
 67
     1
  8
LOGO
  6
Continuous
100
AcDbText
 10
18.85247103152505
 20
21.97728282464615
 30
0.0
 40
3.599478733031673
  1
MINDMAN INDUSTRIAL CO., LTD.
 41
0.85
  7
CHINESET
100
AcDbText
  0
LINE
  5
50A
330
D
100
AcDbEntity
 67
     1
  8
LOGO
 62
     4
100
AcDbLine
 10
95.02880921571749
 20
49.10226696170918
 30
0.0
 11
42.23645446458601
 21
49.10226696170918
 31
0.0
  0
LINE
  5
50B
330
D
100
AcDbEntity
 67
     1
  8
LOGO
 62
     4
100
AcDbLine
 10
95.02880921571749
 20
41.9033094956458
 30
0.0
 11
42.23645446458601
 21
41.9033094956458
 31
0.0
  0
LINE
  5
50C
330
D
100
AcDbEntity
 67
     1
  8
LOGO
 62
     4
100
AcDbLine
 10
95.02880921571749
 20
34.70435202958285
 30
0.0
 11
15.84027708902067
 21
34.70435202958285
 31
0.0
  0
LINE
  5
50D
330
D
100
AcDbEntity
 67
     1
  8
LOGO
 62
     4
100
AcDbLine
 10
42.23645446458601
 20
34.70435202958285
 30
0.0
 11
42.23645446458601
 21
56.30122442777255
 31
0.0
  0
TEXT
  5
50E
330
D
100
AcDbEntity
 67
     1
  8
LOGO
100
AcDbText
 10
78.31753717579449
 20
36.50409139609806
 30
0.0
 40
3.599478733031673
  1
mm
  7
CHINESET
 72
     1
 11
82.77403465478608
 21
38.3038307626139
 31
0.0
100
AcDbText
 73
     2
  0
TEXT
  5
50F
330
D
100
AcDbEntity
 67
     1
  8
LOGO
100
AcDbText
 10
76.43209593468265
 20
50.90200632822481
 30
0.0
 40
3.599478733031673
  1
1 : 1
  7
CHINESET
 72
     1
 11
82.77403465478608
 21
52.70174569474065
 31
0.0
100
AcDbText
 73
     2
  0
LINE
  5
510
330
D
100
AcDbEntity
 67
     1
  8
LOGO
 62
     4
100
AcDbLine
 10
71.03228432883952
 20
34.70435202958285
 30
0.0
 11
71.03228432883952
 21
56.30122442777255
 31
0.0
  0
TEXT
  5
511
330
D
100
AcDbEntity
 67
     1
  8
LOGO
100
AcDbText
 10
45.20441750918858
 20
50.9037777252391
 30
235.9039063680897
 40
3.599478733031673
  1
比例 Scale:
 41
0.9
  7
CHINESET
 72
     4
 11
56.63436939671282
 21
52.70174569474065
 31
235.9039063680897
100
AcDbText
  0
TEXT
  5
512
330
D
100
AcDbEntity
 67
     1
  8
LOGO
100
AcDbText
 10
44.99712610000953
 20
43.75368129348648
 30
235.9039063680897
 40
3.599478733031673
  1
投影  View:
 41
0.9
  7
CHINESET
 72
     4
 11
56.63436939671282
 21
45.50278822867727
 31
235.9039063680897
100
AcDbText
  0
TEXT
  5
513
330
D
100
AcDbEntity
 67
     1
  8
LOGO
100
AcDbText
 10
45.34903942256931
 20
36.50409139609806
 30
235.9039063680897
 40
3.599478733031673
  1
單位  Unit:
 41
0.9
  7
CHINESET
 72
     4
 11
56.63436939671282
 21
38.3038307626139
 31
235.9039063680897
100
AcDbText
  0
LWPOLYLINE
  5
514
330
D
100
AcDbEntity
 67
     1
  8
LOGO
 62
     4
100
AcDbPolyline
 90
        4
 70
     1
 43
0.0
 10
15.84027708902067
 20
56.30122442777255
 10
266.5674180929635
 20
56.30122442777255
 10
266.5674180929635
 20
384.4206867153358
 10
15.84027708902067
 20
384.4206867153358
1001
GENIUS_GENREC_14
1002
{
1000
PYDIR
1011
15.84027708902067
1021
384.4206867153358
1031
0.0
1002
}
1002
{
1000
PXDIR
1011
266.5674180929635
1021
56.30122442777255
1031
0.0
1002
}
1002
{
1000
PORI
1011
15.84027708902067
1021
56.30122442777255
1031
0.0
1002
}
1002
{
1000
PINS
1011
15.84027708902067
1021
56.30122442777255
1031
0.0
1002
}
1002
{
1000
PINS2
1011
266.5674180929635
1021
384.4206867153358
1031
0.0
1002
}
1002
{
1000
C
1070
     1
1002
}
1001
GENIUS_GENODEF_13
1002
{
1000
HIER
1070
     0
1002
}
1002
{
1000
MANEDIT
1070
     0
1002
}
1002
{
1000
NOSEL
1070
     0
1002
}
1002
{
1000
BEHIND
1070
     0
1002
}
1002
{
1000
OTHER
1070
     0
1002
}
1002
{
1000
REACTOR
1002
}
1001
GENIUS_GENOBJ-N-REC_13
1002
{
1000
OWNER
1000
GEN
1002
}
  0
SOLID
  5
515
330
D
100
AcDbEntity
 67
     1
  8
LOGO
 62
     5
100
AcDbTrace
 10
19.57479404178065
 20
40.6879730777949
 30
0.0
 11
21.13111419562153
 21
40.68797307779457
 31
0.0
 12
27.62472587199204
 22
55.44618143318351
 32
0.0
 13
29.18104602583378
 23
55.44618143318266
 33
0.0
  0
SOLID
  5
516
330
D
100
AcDbEntity
 67
     1
  8
LOGO
 62
     5
100
AcDbTrace
 10
21.77510874204017
 20
40.6879730777949
 30
0.0
 11
23.33142889588106
 21
40.6879730777949
 31
0.0
 12
29.18104602583378
 22
54.2655247647518
 32
0.0
 13
27.62472587199204
 23
48.55901753400164
 33
0.0
  0
SOLID
  5
517
330
D
100
AcDbEntity
 67
     1
  8
LOGO
 62
     2
100
AcDbTrace
 10
21.13111419562153
 20
40.68797307779457
 30
0.0
 11
21.77510874204017
 21
40.6879730777949
 31
0.0
 12
29.18104602583378
 22
55.44618143318266
 32
0.0
 13
29.82504057225151
 23
55.44618143318266
 33
0.0
  0
SOLID
  5
518
330
D
100
AcDbEntity
 67
     1
  8
LOGO
 62
     5
100
AcDbTrace
 10
17.07963117872157
 20
35.32135185765409
 30
0.0
 11
17.61629330073629
 21
35.32135185765409
 31
0.0
 12
19.12757560676937
 22
38.00466246772433
 32
0.0
 13
19.66423772878238
 23
38.00466246772433
 33
0.0
  0
SOLID
  5
519
330
D
100
AcDbEntity
 67
     1
  8
LOGO
 62
     5
100
AcDbTrace
 10
19.12757560676937
 20
38.00466246772433
 30
0.0
 11
19.66423772878238
 21
38.00466246772433
 31
0.0
 12
19.12757560676937
 22
35.32135185765409
 32
0.0
 13
19.66423772878238
 23
35.32135185765409
 33
0.0
  0
SOLID
  5
51A
330
D
100
AcDbEntity
 67
     1
  8
LOGO
 62
     5
100
AcDbTrace
 10
19.12757560676937
 20
35.32135185765409
 30
0.0
 11
19.66423772878238
 21
35.32135185765409
 31
0.0
 12
21.17552003481796
 22
38.00466246772433
 32
0.0
 13
21.71218215683183
 23
38.00466246772433
 33
0.0
  0
SOLID
  5
51B
330
D
100
AcDbEntity
 67
     1
  8
LOGO
 62
     5
100
AcDbTrace
 10
21.17552003481796
 20
38.00466246772433
 30
0.0
 11
21.71218215683183
 21
38.00466246772433
 31
0.0
 12
21.17552003481796
 22
35.32135185765409
 32
0.0
 13
21.71218215683183
 23
35.32135185765409
 33
0.0
  0
POLYLINE
  5
51C
330
D
100
AcDbEntity
 67
     1
  8
LOGO
 62
     5
100
AcDb2dPolyline
 66
     1
 10
0.0
 20
0.0
 30
0.0
 40
0.5375221574660632
 41
0.5375221574660632
  0
VERTEX
  5
51D
330
51C
100
AcDbEntity
 67
     1
  8
LOGO
 62
     5
100
AcDbVertex
100
AcDb2dVertex
 10
39.16425154847502
 20
36.9313382236962
 30
0.0
 42
1.0
  0
VERTEX
  5
51E
330
51C
100
AcDbEntity
 67
     1
  8
LOGO
 62
     5
100
AcDbVertex
100
AcDb2dVertex
 10
37.55168507607641
 20
36.9313382236962
 30
0.0
 42
1.0
  0
SEQEND
  5
51F
330
51C
100
AcDbEntity
 67
     1
  8
LOGO
 62
     5
  0
POLYLINE
  5
520
330
D
100
AcDbEntity
 67
     1
  8
LOGO
 62
     5
100
AcDb2dPolyline
 66
     1
 10
0.0
 20
0.0
 30
0.0
 70
     1
  0
VERTEX
  5
521
330
520
100
AcDbEntity
 67
     1
  8
LOGO
 62
     5
100
AcDbVertex
100
AcDb2dVertex
 10
34.51192554864827
 20
36.66300716268878
 30
0.0
 42
1.000000057330635
  0
VERTEX
  5
522
330
520
100
AcDbEntity
 67
     1
  8
LOGO
 62
     5
100
AcDbVertex
100
AcDb2dVertex
 10
36.12191191469071
 20
36.66300716268878
 30
0.0
 42
1.000000057330635
  0
SEQEND
  5
523
330
520
100
AcDbEntity
 67
     1
  8
LOGO
 62
     5
  0
CIRCLE
  5
524
330
D
100
AcDbEntity
 67
     1
  8
LOGO
 62
     5
100
AcDbCircle
 10
35.31691873167074
 20
36.66300716268878
 30
0.0
 40
0.8049931830211765
  0
POLYLINE
  5
525
330
D
100
AcDbEntity
 67
     1
  8
LOGO
 62
     5
100
AcDb2dPolyline
 66
     1
 10
0.0
 20
0.0
 30
0.0
 70
     1
 40
0.5375221574660632
 41
0.5375221574660632
  0
VERTEX
  5
526
330
525
100
AcDbEntity
 67
     1
  8
LOGO
 62
     5
100
AcDbVertex
100
AcDb2dVertex
 10
34.2418744167378
 20
36.66300716268878
 30
0.0
 42
1.0
  0
VERTEX
  5
527
330
525
100
AcDbEntity
 67
     1
  8
LOGO
 62
     5
100
AcDbVertex
100
AcDb2dVertex
 10
36.39196304660198
 20
36.66300716268878
 30
0.0
 42
1.0
  0
SEQEND
  5
528
330
525
100
AcDbEntity
 67
     1
  8
LOGO
 62
     5
  0
LINE
  5
529
330
D
100
AcDbEntity
 67
     1
  8
LOGO
100
AcDbLine
 10
39.4312925563031
 20
35.32135185765409
 30
0.0
 11
39.4312925563031
 21
36.9313382236962
 31
0.0
  0
SOLID
  5
52A
330
D
100
AcDbEntity
 67
     1
  8
LOGO
 62
     5
100
AcDbTrace
 10
36.12185824848092
 20
38.00466246772433
 30
0.0
 11
36.65852037049399
 21
38.00466246772433
 31
0.0
 12
36.12185824848092
 22
35.32135185765409
 32
0.0
 13
36.65852037049399
 23
35.32135185765409
 33
0.0
  0
SOLID
  5
52B
330
D
100
AcDbEntity
 67
     1
  8
LOGO
 62
     5
100
AcDbTrace
 10
37.28464406824674
 20
35.32135185765409
 30
0.0
 11
37.82130619026145
 21
35.32135185765409
 31
0.0
 12
37.28464406824674
 22
38.00466246772433
 32
0.0
 13
37.82130619026145
 23
38.00466246772433
 33
0.0
  0
SOLID
  5
52C
330
D
100
AcDbEntity
 67
     1
  8
LOGO
 62
     5
100
AcDbTrace
 10
38.89463043429003
 20
36.9313382236962
 30
0.0
 11
39.4312925563031
 21
36.9313382236962
 31
0.0
 12
38.89463043429003
 22
35.32135185765409
 32
0.0
 13
39.4312925563031
 23
35.32135185765409
 33
0.0
  0
SOLID
  5
52D
330
D
100
AcDbEntity
 67
     1
  8
LOGO
 62
     5
100
AcDbTrace
 10
37.23097785604523
 20
54.2655247647518
 30
0.0
 11
35.67465770220514
 21
48.55901753400164
 31
0.0
 12
37.23097785604523
 22
40.68797307779457
 32
0.0
 13
35.67465770220514
 23
40.68797307779457
 33
0.0
  0
SOLID
  5
52E
330
D
100
AcDbEntity
 67
     1
  8
LOGO
 62
     5
100
AcDbTrace
 10
37.87497240246302
 20
40.68797307779457
 30
0.0
 11
39.4312925563031
 21
40.68797307779457
 31
0.0
 12
37.87497240246302
 22
55.44618143318266
 32
0.0
 13
39.4312925563031
 23
55.44618143318351
 33
0.0
  0
SOLID
  5
52F
330
D
100
AcDbEntity
 67
     1
  8
LOGO
 62
     2
100
AcDbTrace
 10
37.23097785604523
 20
55.44618143318351
 30
0.0
 11
37.87497240246302
 21
55.44618143318266
 31
0.0
 12
37.23097785604523
 22
40.68797307779457
 32
0.0
 13
37.87497240246302
 23
40.68797307779457
 33
0.0
  0
POLYLINE
  5
530
330
D
100
AcDbEntity
 67
     1
  8
LOGO
 62
     5
100
AcDb2dPolyline
 66
     1
 10
0.0
 20
0.0
 30
0.0
 40
0.5375221574660632
 41
0.5375221574660632
  0
VERTEX
  5
531
330
530
100
AcDbEntity
 67
     1
  8
LOGO
 62
     5
100
AcDbVertex
100
AcDb2dVertex
 10
31.47205868879792
 20
36.9313382236962
 30
0.0
 42
1.0
  0
VERTEX
  5
532
330
530
100
AcDbEntity
 67
     1
  8
LOGO
 62
     5
100
AcDbVertex
100
AcDb2dVertex
 10
29.85949221639947
 20
36.9313382236962
 30
0.0
 42
1.0
  0
SEQEND
  5
533
330
530
100
AcDbEntity
 67
     1
  8
LOGO
 62
     5
  0
POLYLINE
  5
534
330
D
100
AcDbEntity
 67
     1
  8
LOGO
 62
     5
100
AcDb2dPolyline
 66
     1
 10
0.0
 20
0.0
 30
0.0
 40
0.5375221574660632
 41
0.5375221574660632
  0
VERTEX
  5
535
330
534
100
AcDbEntity
 67
     1
  8
LOGO
 62
     5
100
AcDbVertex
100
AcDb2dVertex
 10
33.08204505483877
 20
36.9313382236962
 30
0.0
 42
1.0
  0
VERTEX
  5
536
330
534
100
AcDbEntity
 67
     1
  8
LOGO
 62
     5
100
AcDbVertex
100
AcDb2dVertex
 10
31.46947858244107
 20
36.9313382236962
 30
0.0
 42
1.0
  0
SEQEND
  5
537
330
534
100
AcDbEntity
 67
     1
  8
LOGO
 62
     5
  0
POLYLINE
  5
538
330
D
100
AcDbEntity
 67
     1
  8
LOGO
 62
     5
100
AcDb2dPolyline
 66
     1
 10
0.0
 20
0.0
 30
0.0
 40
0.5375221574660632
 41
0.5375221574660632
  0
VERTEX
  5
539
330
538
100
AcDbEntity
 67
     1
  8
LOGO
 62
     5
100
AcDbVertex
100
AcDb2dVertex
 10
25.38985219516178
 20
36.9313382236962
 30
0.0
 42
1.0
  0
VERTEX
  5
53A
330
538
100
AcDbEntity
 67
     1
  8
LOGO
 62
     5
100
AcDbVertex
100
AcDb2dVertex
 10
23.77728572276408
 20
36.9313382236962
 30
0.0
 42
1.0
  0
SEQEND
  5
53B
330
538
100
AcDbEntity
 67
     1
  8
LOGO
 62
     5
  0
SOLID
  5
53C
330
D
100
AcDbEntity
 67
     1
  8
LOGO
 62
     5
100
AcDbTrace
 10
23.5102447149352
 20
38.00466246772433
 30
0.0
 11
24.04690683694821
 21
38.00466246772433
 31
0.0
 12
23.5102447149352
 22
35.32135185765409
 32
0.0
 13
24.04690683694821
 23
35.32135185765409
 33
0.0
  0
SOLID
  5
53D
330
D
100
AcDbEntity
 67
     1
  8
LOGO
 62
     5
100
AcDbTrace
 10
25.12023108097765
 20
36.9313382236962
 30
0.0
 11
25.65689320299225
 21
36.9313382236962
 31
0.0
 12
25.12023108097765
 22
35.32135185765409
 32
0.0
 13
25.65689320299225
 23
35.32135185765409
 33
0.0
  0
POLYLINE
  5
53E
330
D
100
AcDbEntity
 67
     1
  8
LOGO
 62
     5
100
AcDb2dPolyline
 66
     1
 10
0.0
 20
0.0
 30
0.0
 70
     1
 40
0.5375221574660632
 41
0.5375221574660632
  0
VERTEX
  5
53F
330
53E
100
AcDbEntity
 67
     1
  8
LOGO
 62
     5
100
AcDbVertex
100
AcDb2dVertex
 10
26.54968155706001
 20
36.66300716268878
 30
0.0
 42
1.0
  0
VERTEX
  5
540
330
53E
100
AcDbEntity
 67
     1
  8
LOGO
 62
     5
100
AcDbVertex
100
AcDb2dVertex
 10
28.69977018692498
 20
36.66300716268878
 30
0.0
 42
1.0
  0
SEQEND
  5
541
330
53E
100
AcDbEntity
 67
     1
  8
LOGO
 62
     5
  0
SOLID
  5
542
330
D
100
AcDbEntity
 67
     1
  8
LOGO
 62
     5
100
AcDbTrace
 10
28.42966538880228
 20
38.80965565074598
 30
0.0
 11
28.96632751081614
 21
38.80965565074598
 31
0.0
 12
28.42966538880228
 22
35.32135185765409
 32
0.0
 13
28.96632751081614
 23
35.32135185765409
 33
0.0
  0
SOLID
  5
543
330
D
100
AcDbEntity
 67
     1
  8
LOGO
 62
     5
100
AcDbTrace
 10
29.59245120857139
 20
38.00466246772433
 30
0.0
 11
30.12911333058446
 21
38.00466246772433
 31
0.0
 12
29.59245120857139
 22
35.32135185765409
 32
0.0
 13
30.12911333058446
 23
35.32135185765409
 33
0.0
  0
SOLID
  5
544
330
D
100
AcDbEntity
 67
     1
  8
LOGO
 62
     5
100
AcDbTrace
 10
31.20243757461219
 20
36.9313382236962
 30
0.0
 11
31.73909969662691
 21
36.9313382236962
 31
0.0
 12
31.20243757461219
 22
35.32135185765409
 32
0.0
 13
31.73909969662691
 23
35.32135185765409
 33
0.0
  0
SOLID
  5
545
330
D
100
AcDbEntity
 67
     1
  8
LOGO
 62
     5
100
AcDbTrace
 10
32.81242394065464
 20
36.9313382236962
 30
0.0
 11
33.34908606266845
 21
36.9313382236962
 31
0.0
 12
32.81242394065464
 22
35.32135185765333
 32
0.0
 13
33.34908606266845
 23
35.32135185765333
 33
0.0
  0
SOLID
  5
546
330
D
100
AcDbEntity
 67
     1
  8
LOGO
 62
     5
100
AcDbTrace
 10
22.34745889516688
 20
38.38032595313439
 30
0.0
 11
22.8841210171824
 21
38.38032595313439
 31
0.0
 12
22.34745889516688
 22
38.80965565074598
 32
0.0
 13
22.8841210171824
 23
38.80965565074598
 33
0.0
  0
SOLID
  5
547
330
D
100
AcDbEntity
 67
     1
  8
LOGO
 62
     5
100
AcDbTrace
 10
22.34745889516688
 20
38.00466246772433
 30
0.0
 11
22.8841210171824
 21
38.00466246772433
 31
0.0
 12
22.34745889516688
 22
35.32135185765333
 32
0.0
 13
22.8841210171824
 23
35.32135185765409
 33
0.0
  0
SOLID
  5
548
330
D
100
AcDbEntity
 67
     1
  8
LOGO
 62
     5
100
AcDbTrace
 10
27.62472587199204
 20
40.6879730777949
 30
0.0
 11
29.18104602583378
 21
40.6879730777949
 31
0.0
 12
27.62472587199204
 22
48.55901753400164
 32
0.0
 13
29.18104602583378
 23
54.2655247647518
 33
0.0
  0
SOLID
  5
549
330
D
100
AcDbEntity
 67
     1
  8
LOGO
 62
     5
100
AcDbTrace
 10
29.82504057225151
 20
55.44618143318266
 30
0.0
 11
31.38136072609166
 21
55.44618143318351
 31
0.0
 12
29.82504057225151
 22
41.86862974622576
 32
0.0
 13
31.38136072609166
 23
47.57513697697601
 33
0.0
  0
SOLID
  5
54A
330
D
100
AcDbEntity
 67
     1
  8
LOGO
 62
     2
100
AcDbTrace
 10
29.18104602583378
 20
55.44618143318266
 30
0.0
 11
29.82504057225151
 21
55.44618143318266
 31
0.0
 12
29.18104602583378
 22
40.6879730777949
 32
0.0
 13
29.82504057225151
 23
40.6879730777949
 33
0.0
  0
SOLID
  5
54B
330
D
100
AcDbEntity
 67
     1
  8
LOGO
 62
     5
100
AcDbTrace
 10
29.82504057225151
 20
41.86862974622576
 30
0.0
 11
31.38136072609166
 21
47.57513697697601
 31
0.0
 12
37.23097785604523
 22
55.44618143318351
 32
0.0
 13
35.67465770220514
 23
55.44618143318351
 33
0.0
  0
SOLID
  5
54C
330
D
100
AcDbEntity
 67
     1
  8
LOGO
 62
     5
100
AcDbTrace
 10
29.82504057225151
 20
40.6879730777949
 30
0.0
 11
31.38136072609166
 21
40.6879730777949
 31
0.0
 12
37.23097785604523
 22
54.2655247647518
 32
0.0
 13
35.67465770220514
 23
48.55901753400164
 33
0.0
  0
SOLID
  5
54D
330
D
100
AcDbEntity
 67
     1
  8
LOGO
 62
     2
100
AcDbTrace
 10
29.18104602583378
 20
40.6879730777949
 30
0.0
 11
29.82504057225151
 21
40.6879730777949
 31
0.0
 12
37.23097785604523
 22
55.44618143318351
 32
0.0
 13
37.87497240246302
 23
55.44618143318266
 33
0.0
  0
LWPOLYLINE
  5
54E
330
D
100
AcDbEntity
 67
     1
  8
LOGO
 62
     4
100
AcDbPolyline
 90
        4
 70
     1
 43
0.0
 10
15.84027708902067
 20
56.30122442777255
 10
266.5674180929635
 20
56.30122442777255
 10
266.5674180929635
 20
20.30643709745524
 10
15.84027708902067
 20
20.30643709745524
1001
GENIUS_GENREC_14
1002
{
1000
PYDIR
1011
15.84027708902067
1021
20.30643709745524
1031
0.0
1002
}
1002
{
1000
PXDIR
1011
266.5674180929635
1021
56.30122442777255
1031
0.0
1002
}
1002
{
1000
PORI
1011
15.84027708902067
1021
56.30122442777255
1031
0.0
1002
}
1002
{
1000
PINS
1011
15.84027708902067
1021
56.30122442777255
1031
0.0
1002
}
1002
{
1000
PINS2
1011
266.5674180929635
1021
20.30643709745524
1031
0.0
1002
}
1002
{
1000
C
1070
     1
1002
}
1001
GENIUS_GENOBJ-N-REC_13
1002
{
1000
OWNER
1000
GEN
1002
}
1001
GENIUS_GENODEF_13
1002
{
1000
HIER
1070
     0
1002
}
1002
{
1000
MANEDIT
1070
     0
1002
}
1002
{
1000
NOSEL
1070
     0
1002
}
1002
{
1000
BEHIND
1070
     0
1002
}
1002
{
1000
OTHER
1070
     0
1002
}
1002
{
1000
REACTOR
1002
}
  0
LINE
  5
54F
330
D
100
AcDbEntity
 67
     1
  8
LOGO
 62
     4
100
AcDbLine
 10
178.0780298116438
 20
36.5040913960988
 30
0.0
 11
178.0780298116438
 21
23.30600270831525
 31
0.0
  0
LINE
  5
550
330
D
100
AcDbEntity
 67
     1
  8
LOGO
 62
     4
100
AcDbLine
 10
154.0815049247658
 20
36.5040913960988
 30
0.0
 11
154.0815049247658
 21
23.30600270831525
 31
0.0
  0
LINE
  5
551
330
D
100
AcDbEntity
 67
     1
  8
LOGO
 62
     4
100
AcDbLine
 10
178.0780298116438
 20
23.30600270831525
 30
0.0
 11
154.0815049247658
 21
23.30600270831525
 31
0.0
  0
LINE
  5
552
330
D
100
AcDbEntity
 67
     1
  8
LOGO
 62
     4
100
AcDbLine
 10
189.3221864189249
 20
52.70174569474065
 30
0.0
 11
144.5380416588077
 21
52.70174569474065
 31
0.0
  0
LINE
  5
553
330
D
100
AcDbEntity
 67
     1
  8
LOGO
 62
     4
100
AcDbLine
 10
189.3221864189249
 20
41.9033094956458
 30
0.0
 11
144.5380416588077
 21
41.9033094956458
 31
0.0
  0
LINE
  5
554
330
D
100
AcDbEntity
 67
     1
  8
LOGO
 62
     4
100
AcDbLine
 10
144.5380416588077
 20
52.70174569474065
 30
0.0
 11
144.5380416588077
 21
41.9033094956458
 31
0.0
  0
LINE
  5
555
330
D
100
AcDbEntity
 67
     1
  8
LOGO
 62
     4
100
AcDbLine
 10
189.3221864189249
 20
52.70174569474065
 30
0.0
 11
189.3221864189249
 21
41.9033094956458
 31
0.0
  0
LINE
  5
556
330
D
100
AcDbEntity
 67
     1
  8
LOGO
 62
     4
100
AcDbLine
 10
167.3317832490305
 20
41.9033094956458
 30
0.0
 11
167.3317832490305
 21
36.5040913960988
 31
0.0
  0
TEXT
  5
557
330
D
100
AcDbEntity
 67
     1
  8
LOGO
  6
Continuous
 62
     7
100
AcDbText
 10
146.4567546527117
 20
44.15746726489473
 30
0.0
 40
6.3
  1
MAL300L
  7
CHINESET
100
AcDbText
  0
LINE
  5
558
330
D
100
AcDbEntity
 67
     1
  8
LOGO
 62
     4
100
AcDbLine
 10
178.0780298116438
 20
36.5040913960988
 30
0.0
 11
154.0815049247658
 21
36.5040913960988
 31
0.0
  0
TEXT
  5
559
330
D
100
AcDbEntity
 67
     1
  8
LOGO
  6
Continuous
100
AcDbText
 10
161.7819137891233
 20
25.16888493939865
 30
235.9039063680897
 40
2.699999999999999
  1
Model
 41
0.8
  7
CHINESET
100
AcDbText
  0
TEXT
  5
55A
330
D
100
AcDbEntity
 67
     1
  8
LOGO
100
AcDbText
 10
161.063261560725
 20
30.17410304786793
 30
235.9039063680897
 40
4.5
  1
型號
  7
CHINESET
100
AcDbText
  0
LINE
  5
55B
330
D
100
AcDbEntity
 67
     1
  8
LOGO
  6
Continuous
 62
     7
100
AcDbLine
 10
191.8135367446967
 20
47.26427782761996
 30
0.0
 11
196.5817321527877
 21
47.26427782761996
 31
0.0
  0
LINE
  5
55C
330
D
100
AcDbEntity
 67
     1
  8
LOGO
 62
     4
100
AcDbLine
 10
222.7191909420287
 20
36.5040913960988
 30
0.0
 11
222.7191909420287
 21
23.30600270831525
 31
0.0
  0
LINE
  5
55D
330
D
100
AcDbEntity
 67
     1
  8
LOGO
 62
     4
100
AcDbLine
 10
190.8572300035963
 20
36.5040913960988
 30
0.0
 11
190.8572300035963
 21
23.30600270831525
 31
0.0
  0
LINE
  5
55E
330
D
100
AcDbEntity
 67
     1
  8
LOGO
 62
     4
100
AcDbLine
 10
222.7191909420287
 20
23.30600270831525
 30
0.0
 11
190.8572300035963
 21
23.30600270831525
 31
0.0
  0
LINE
  5
55F
330
D
100
AcDbEntity
 67
     1
  8
LOGO
 62
     4
100
AcDbLine
 10
216.5376367073646
 20
52.70174569474065
 30
0.0
 11
198.0858464574609
 21
52.70174569474065
 31
0.0
  0
LINE
  5
560
330
D
100
AcDbEntity
 67
     1
  8
LOGO
 62
     4
100
AcDbLine
 10
216.5376367073646
 20
41.9033094956458
 30
0.0
 11
198.0858464574609
 21
41.9033094956458
 31
0.0
  0
LINE
  5
561
330
D
100
AcDbEntity
 67
     1
  8
LOGO
 62
     4
100
AcDbLine
 10
198.0858464574609
 20
52.70174569474065
 30
0.0
 11
198.0858464574609
 21
41.9033094956458
 31
0.0
  0
LINE
  5
562
330
D
100
AcDbEntity
 67
     1
  8
LOGO
 62
     4
100
AcDbLine
 10
216.5376367073646
 20
52.70174569474065
 30
0.0
 11
216.5376367073646
 21
41.9033094956458
 31
0.0
  0
LINE
  5
563
330
D
100
AcDbEntity
 67
     1
  8
LOGO
 62
     4
100
AcDbLine
 10
206.3824848680366
 20
41.9033094956458
 30
0.0
 11
206.3824848680366
 21
36.5040913960988
 31
0.0
  0
TEXT
  5
564
330
D
100
AcDbEntity
 67
     1
  8
LOGO
  6
Continuous
 62
     7
100
AcDbText
 10
202.8239049091419
 20
44.15746726489473
 30
0.0
 40
6.3
  1
*A
  7
CHINESET
100
AcDbText
  0
LINE
  5
565
330
D
100
AcDbEntity
 67
     1
  8
LOGO
 62
     4
100
AcDbLine
 10
222.7191909420287
 20
36.5040913960988
 30
0.0
 11
190.8572300035963
 21
36.5040913960988
 31
0.0
  0
TEXT
  5
566
330
D
100
AcDbEntity
 67
     1
  8
LOGO
  6
Continuous
100
AcDbText
 10
199.1878781010415
 20
25.16888493939865
 30
235.9039063680897
 40
2.699999999999999
  1
Bore size
 41
0.8
  7
CHINESET
100
AcDbText
  0
TEXT
  5
567
330
D
100
AcDbEntity
 67
     1
  8
LOGO
100
AcDbText
 10
193.2250265667024
 20
30.17410304786793
 30
235.9039063680897
 40
4.5
  1
配管口徑代號
  7
CHINESET
100
AcDbText
  0
TEXT
  5
568
330
D
100
AcDbEntity
 67
     1
  8
LOGO
100
AcDbText
 10
96.69657327994549
 20
22.22134557651407
 30
0.0
 40
3.599999999999999
  1
01007190
 41
0.7
  7
CHINESET
 72
     1
 11
105.4565732799454
 21
22.22134557651407
 31
0.0
100
AcDbText
  0
LINE
  5
569
330
D
100
AcDbEntity
 67
     1
  8
LOGO
 62
     4
100
AcDbLine
 10
116.6288092157159
 20
27.50539456351982
 30
0.0
 11
116.6288092157175
 21
20.30643709745601
 31
0.0
  0
LINE
  5
56A
330
D
100
AcDbEntity
 67
     1
  8
LOGO
 62
     4
100
AcDbLine
 10
116.6288092157159
 20
27.50539456351982
 30
0.0
 11
95.02880921571749
 21
27.50539456351982
 31
0.0
  0
CIRCLE
  5
56B
330
D
100
AcDbEntity
 67
     1
  8
LOGO
  6
Continuous
100
AcDbCircle
 10
77.69716941873048
 20
45.51048754002792
 30
0.0
 40
2.089942074577136
  0
CIRCLE
  5
56C
330
D
100
AcDbEntity
 67
     1
  8
LOGO
  6
Continuous
100
AcDbCircle
 10
77.69716941873048
 20
45.51048754002792
 30
0.0
 40
1.224521043598074
  0
LINE
  5
56D
330
D
100
AcDbEntity
 67
     1
  8
LOGO
100
AcDbLine
 10
90.83060792199637
 20
43.42054546545031
 30
0.0
 11
90.83060792199637
 21
47.60042961460544
 31
0.0
  0
LINE
  5
56E
330
D
100
AcDbEntity
 67
     1
  8
LOGO
100
AcDbLine
 10
84.27875948659664
 20
44.28596649643006
 30
0.0
 11
84.27875948659664
 21
46.73500858362612
 31
0.0
  0
LINE
  5
56F
330
D
100
AcDbEntity
 67
     1
  8
LOGO
  6
Continuous
100
AcDbLine
 10
84.27875948659664
 20
46.73500858362612
 30
0.0
 11
90.83060792199637
 21
47.60042961460544
 31
0.0
  0
LINE
  5
570
330
D
100
AcDbEntity
 67
     1
  8
LOGO
  6
Continuous
100
AcDbLine
 10
84.27875948659664
 20
44.28596649643006
 30
0.0
 11
90.83060792199637
 21
43.42054546545031
 31
0.0
  0
LINE
  5
571
330
D
100
AcDbEntity
 67
     1
  8
LOGO
  6
AM_ISO08W050x2
 48
0.3
100
AcDbLine
 10
74.81615297450765
 20
45.51048754002792
 30
0.0
 11
80.57818586295343
 21
45.51048754002792
 31
0.0
1001
GENIUS_GENOREF_13
1005
585
  0
LINE
  5
572
330
D
100
AcDbEntity
 67
     1
  8
LOGO
  6
AM_ISO08W050x2
 48
0.3
100
AcDbLine
 10
77.69716941873048
 20
42.62947109580503
 30
0.0
 11
77.69716941873048
 21
48.39150398425073
 31
0.0
1001
GENIUS_GENOREF_13
1005
584
  0
LINE
  5
573
330
D
100
AcDbEntity
 67
     1
  8
LOGO
  6
CENTER
 48
0.5
100
AcDbLine
 10
83.75479371953986
 20
45.51048754002792
 30
0.0
 11
91.49035785001421
 21
45.51048754002792
 31
0.0
1001
GENIUS_GENOREF_13
1005
583
  0
POINT
  5
583
330
D
100
AcDbEntity
 67
     1
  8
0
 60
     1
100
AcDbPoint
 10
-1043.38101625764
 20
-1028.036795801541
 30
0.0
1001
GENIUS_GENOBJ-N-CRS_13
1002
{
1000
OWNER
1000
GEN
1002
}
1001
GENIUS_GENOLIS_13
1002
{
1000
ENT
1005
0
1005
0
1005
0
1005
573
1002
}
1001
GENIUS_GENOENT_13
1002
{
1000
MYREF
1005
583
1002
}
1002
{
1000
GRP
1005
0
1002
}
1001
GENIUS_GENODEF_13
1002
{
1000
HIER
1070
    10
1002
}
1002
{
1000
MANEDIT
1070
     1
1002
}
1002
{
1000
NOSEL
1070
     0
1002
}
1002
{
1000
BEHIND
1070
     0
1002
}
1002
{
1000
OTHER
1070
     0
1002
}
1002
{
1000
REACTOR
1002
}
  0
POINT
  5
584
330
D
100
AcDbEntity
 67
     1
  8
0
 60
     1
100
AcDbPoint
 10
-1054.705601480495
 20
-1019.161209322905
 30
0.0
1001
GENIUS_GENOBJ-N-CRS_13
1002
{
1000
OWNER
1000
GEN
1002
}
1001
GENIUS_GENOLIS_13
1002
{
1000
ENT
1005
0
1005
0
1005
0
1005
572
1002
}
1001
GENIUS_GENOENT_13
1002
{
1000
MYREF
1005
584
1002
}
1002
{
1000
GRP
1005
0
1002
}
1001
GENIUS_GENODEF_13
1002
{
1000
HIER
1070
    10
1002
}
1002
{
1000
MANEDIT
1070
     1
1002
}
1002
{
1000
NOSEL
1070
     0
1002
}
1002
{
1000
BEHIND
1070
     0
1002
}
1002
{
1000
OTHER
1070
     0
1002
}
1002
{
1000
REACTOR
1002
}
  0
POINT
  5
585
330
D
100
AcDbEntity
 67
     1
  8
0
 60
     1
100
AcDbPoint
 10
-1048.346927782658
 20
-1028.036795801541
 30
0.0
1001
GENIUS_GENOBJ-N-CRS_13
1002
{
1000
OWNER
1000
GEN
1002
}
1001
GENIUS_GENOLIS_13
1002
{
1000
ENT
1005
0
1005
0
1005
0
1005
571
1002
}
1001
GENIUS_GENOENT_13
1002
{
1000
MYREF
1005
585
1002
}
1002
{
1000
GRP
1005
0
1002
}
1001
GENIUS_GENODEF_13
1002
{
1000
HIER
1070
    10
1002
}
1002
{
1000
MANEDIT
1070
     1
1002
}
1002
{
1000
NOSEL
1070
     0
1002
}
1002
{
1000
BEHIND
1070
     0
1002
}
1002
{
1000
OTHER
1070
     0
1002
}
1002
{
1000
REACTOR
1002
}
  0
LINE
  5
D03
330
D
100
AcDbEntity
 67
     1
  8
AM_7
100
AcDbLine
 10
89.41425952664781
 20
253.5484431012169
 30
0.0
 11
89.41425952664781
 21
259.6484431012169
 31
0.0
  0
LINE
  5
D04
330
D
100
AcDbEntity
 67
     1
  8
AM_7
100
AcDbLine
 10
88.41425952664781
 20
231.9484431012169
 30
0.0
 11
88.41425952664781
 21
259.6484431012169
 31
0.0
  0
LINE
  5
D05
330
D
100
AcDbEntity
 67
     1
  8
AM_7
100
AcDbLine
 10
79.41425952622819
 20
192.1484431012168
 30
0.0
 11
79.41425952622819
 21
81.64844310121694
 31
0.0
  0
LINE
  5
D06
330
D
100
AcDbEntity
 67
     1
  8
AM_7
100
AcDbLine
 10
79.41425952622819
 20
102.1484431012169
 30
0.0
 11
79.41425952622819
 21
102.1484431012169
 31
0.0
  0
LINE
  5
D07
330
D
100
AcDbEntity
 67
     1
  8
AM_7
100
AcDbLine
 10
79.41425952622819
 20
102.1484431012169
 30
0.0
 11
79.41425952622819
 21
102.1484431012169
 31
0.0
  0
LINE
  5
D08
330
D
100
AcDbEntity
 67
     1
  8
AM_7
100
AcDbLine
 10
76.4142595266477
 20
226.6484431012169
 30
0.0
 11
76.4142595266477
 21
239.6484431012169
 31
0.0
  0
LINE
  5
D09
330
D
100
AcDbEntity
 67
     1
  8
AM_7
100
AcDbLine
 10
88.41425952664781
 20
226.6484431012169
 30
0.0
 11
88.41425952664781
 21
234.6484431012168
 31
0.0
  0
LINE
  5
D0A
330
D
100
AcDbEntity
 67
     1
  8
AM_7
100
AcDbLine
 10
183.07482928367
 20
253.5484431012169
 30
0.0
 11
183.07482928367
 21
259.6484431012169
 31
0.0
  0
LINE
  5
D0B
330
D
100
AcDbEntity
 67
     1
  8
AM_7
100
AcDbLine
 10
182.07482928367
 20
231.9484431012169
 30
0.0
 11
182.07482928367
 21
259.5484431012169
 31
0.0
  0
LINE
  5
D0C
330
D
100
AcDbEntity
 67
     1
  8
AM_7
100
AcDbLine
 10
181.0695393356865
 20
207.4046551621506
 30
0.0
 11
181.0773098933729
 21
217.8984435262027
 31
0.0
  0
LINE
  5
D0D
330
D
100
AcDbEntity
 67
     1
  8
AM_7
100
AcDbLine
 10
181.0748292918509
 20
192.1484431012168
 30
0.0
 11
181.0748292918509
 21
81.64844310121694
 31
0.0
  0
LINE
  5
D0E
330
D
100
AcDbEntity
 67
     1
  8
AM_7
100
AcDbLine
 10
181.0748292918509
 20
157.1484431012169
 30
0.0
 11
181.0748292918509
 21
165.1484431012169
 31
0.0
  0
LINE
  5
D0F
330
D
100
AcDbEntity
 67
     1
  8
AM_7
100
AcDbLine
 10
181.0748292918509
 20
102.1484431012169
 30
0.0
 11
181.0748292918509
 21
102.1484431012169
 31
0.0
  0
LINE
  5
D10
330
D
100
AcDbEntity
 67
     1
  8
AM_7
100
AcDbLine
 10
181.0748292918509
 20
102.1484431012169
 30
0.0
 11
181.0748292918509
 21
102.1484431012169
 31
0.0
  0
LINE
  5
D11
330
D
100
AcDbEntity
 67
     1
  8
AM_7
100
AcDbLine
 10
169.0748292836701
 20
226.6484431012169
 30
0.0
 11
169.0748292836701
 21
239.6484431012169
 31
0.0
  0
LINE
  5
D12
330
D
100
AcDbEntity
 67
     1
  8
AM_7
100
AcDbLine
 10
182.07482928367
 20
226.6484431012169
 30
0.0
 11
182.07482928367
 21
234.6484431012168
 31
0.0
  0
LINE
  5
D13
330
D
100
AcDbEntity
 67
     1
  8
AM_7
100
AcDbLine
 10
166.9748292918508
 20
209.6484431012168
 30
0.0
 11
181.0748292918508
 21
209.6484431012168
 31
0.0
  0
LINE
  5
D14
102
{ACAD_REACTORS
330
1023
102
}
330
D
100
AcDbEntity
 67
     1
  8
AM_7
100
AcDbLine
 10
181.0748292918508
 20
209.6484431012168
 30
0.0
 11
195.1748292918509
 21
209.6484431012168
 31
0.0
  0
LINE
  5
D15
330
D
100
AcDbEntity
 67
     1
  8
AM_7
100
AcDbLine
 10
181.0748292918508
 20
195.5484431012169
 30
0.0
 11
181.0748292918508
 21
209.6484431012168
 31
0.0
  0
LINE
  5
D16
330
D
100
AcDbEntity
 67
     1
  8
AM_7
100
AcDbLine
 10
181.0748292918508
 20
209.6484431012168
 30
0.0
 11
181.0748292918508
 21
223.7484431012169
 31
0.0
  0
LINE
  5
D17
330
D
100
AcDbEntity
 67
     1
  8
AM_7
100
AcDbLine
 10
89.41425952664781
 20
316.4406583436898
 30
0.0
 11
89.41425952664781
 21
316.4406583436898
 31
0.0
  0
LINE
  5
D18
330
D
100
AcDbEntity
 67
     1
  8
AM_7
100
AcDbLine
 10
89.41425952664781
 20
316.4406583436898
 30
0.0
 11
89.41425952664781
 21
316.4406583436898
 31
0.0
  0
LINE
  5
D19
330
D
100
AcDbEntity
 67
     1
  8
AM_7
100
AcDbLine
 10
83.41425952664781
 20
316.4406583436898
 30
0.0
 11
89.41425952664781
 21
316.4406583436898
 31
0.0
  0
LINE
  5
D1A
330
D
100
AcDbEntity
 67
     1
  8
AM_7
100
AcDbLine
 10
89.41425952664781
 20
316.4406583436898
 30
0.0
 11
95.41425952664781
 21
316.4406583436898
 31
0.0
  0
LINE
  5
D1B
330
D
100
AcDbEntity
 67
     1
  8
AM_7
100
AcDbLine
 10
89.41425952664781
 20
310.4406583436898
 30
0.0
 11
89.41425952664781
 21
316.4406583436898
 31
0.0
  0
LINE
  5
D1C
330
D
100
AcDbEntity
 67
     1
  8
AM_7
100
AcDbLine
 10
89.41425952664781
 20
316.4406583436898
 30
0.0
 11
89.41425952664781
 21
322.4406583436898
 31
0.0
  0
LINE
  5
D1D
330
D
100
AcDbEntity
 67
     1
  8
AM_7
100
AcDbLine
 10
88.41425952664781
 20
316.4406583436898
 30
0.0
 11
88.41425952664781
 21
316.4406583436898
 31
0.0
  0
LINE
  5
D1E
330
D
100
AcDbEntity
 67
     1
  8
AM_7
100
AcDbLine
 10
88.41425952664781
 20
316.4406583436898
 30
0.0
 11
88.41425952664781
 21
316.4406583436898
 31
0.0
  0
LINE
  5
D1F
330
D
100
AcDbEntity
 67
     1
  8
AM_7
100
AcDbLine
 10
81.4142595266478
 20
316.4406583436898
 30
0.0
 11
88.41425952664781
 21
316.4406583436898
 31
0.0
  0
LINE
  5
D20
330
D
100
AcDbEntity
 67
     1
  8
AM_7
100
AcDbLine
 10
88.41425952664781
 20
316.4406583436898
 30
0.0
 11
95.41425952664781
 21
316.4406583436898
 31
0.0
  0
LINE
  5
D21
330
D
100
AcDbEntity
 67
     1
  8
AM_7
100
AcDbLine
 10
88.41425952664781
 20
309.4406583436899
 30
0.0
 11
88.41425952664781
 21
316.4406583436898
 31
0.0
  0
LINE
  5
D22
330
D
100
AcDbEntity
 67
     1
  8
AM_7
100
AcDbLine
 10
88.41425952664781
 20
316.4406583436898
 30
0.0
 11
88.41425952664781
 21
323.4406583436899
 31
0.0
  0
LINE
  5
D23
330
D
100
AcDbEntity
 67
     1
  8
AM_7
100
AcDbLine
 10
76.4142595266477
 20
302.4406583436899
 30
0.0
 11
76.4142595266477
 21
302.4406583436899
 31
0.0
  0
LINE
  5
D24
330
D
100
AcDbEntity
 67
     1
  8
AM_7
100
AcDbLine
 10
76.4142595266477
 20
302.4406583436899
 30
0.0
 11
76.4142595266477
 21
302.4406583436899
 31
0.0
  0
LINE
  5
D25
330
D
100
AcDbEntity
 67
     1
  8
AM_7
100
AcDbLine
 10
67.41425952664769
 20
302.4406583436899
 30
0.0
 11
76.4142595266477
 21
302.4406583436899
 31
0.0
  0
LINE
  5
D26
330
D
100
AcDbEntity
 67
     1
  8
AM_7
100
AcDbLine
 10
76.4142595266477
 20
302.4406583436899
 30
0.0
 11
85.4142595266477
 21
302.4406583436899
 31
0.0
  0
LINE
  5
D27
330
D
100
AcDbEntity
 67
     1
  8
AM_7
100
AcDbLine
 10
76.4142595266477
 20
293.4406583436899
 30
0.0
 11
76.4142595266477
 21
302.4406583436899
 31
0.0
  0
LINE
  5
D28
330
D
100
AcDbEntity
 67
     1
  8
AM_7
100
AcDbLine
 10
76.4142595266477
 20
302.4406583436899
 30
0.0
 11
76.4142595266477
 21
311.4406583436899
 31
0.0
  0
LINE
  5
D29
330
D
100
AcDbEntity
 67
     1
  8
AM_7
100
AcDbLine
 10
88.41425952664781
 20
315.4406583436899
 30
0.0
 11
88.41425952664781
 21
315.4406583436899
 31
0.0
  0
LINE
  5
D2A
330
D
100
AcDbEntity
 67
     1
  8
AM_7
100
AcDbLine
 10
88.41425952664781
 20
315.4406583436899
 30
0.0
 11
88.41425952664781
 21
315.4406583436899
 31
0.0
  0
LINE
  5
D2B
330
D
100
AcDbEntity
 67
     1
  8
AM_7
100
AcDbLine
 10
74.41425952664781
 20
315.4406583436899
 30
0.0
 11
88.41425952664781
 21
315.4406583436899
 31
0.0
  0
LINE
  5
D2C
330
D
100
AcDbEntity
 67
     1
  8
AM_7
100
AcDbLine
 10
88.41425952664781
 20
315.4406583436899
 30
0.0
 11
102.4142595266478
 21
315.4406583436899
 31
0.0
  0
LINE
  5
D2D
330
D
100
AcDbEntity
 67
     1
  8
AM_7
100
AcDbLine
 10
88.41425952664781
 20
301.4406583436898
 30
0.0
 11
88.41425952664781
 21
315.4406583436899
 31
0.0
  0
LINE
  5
D2E
330
D
100
AcDbEntity
 67
     1
  8
AM_7
100
AcDbLine
 10
88.41425952664781
 20
315.4406583436899
 30
0.0
 11
88.41425952664781
 21
329.4406583436899
 31
0.0
  0
LINE
  5
D2F
330
D
100
AcDbEntity
 67
     1
  8
AM_7
100
AcDbLine
 10
51.15111980541382
 20
314.4406583436901
 30
0.0
 11
51.15111980541382
 21
314.4406583436901
 31
0.0
  0
LINE
  5
D30
330
D
100
AcDbEntity
 67
     1
  8
AM_7
100
AcDbLine
 10
51.15111980541382
 20
314.4406583436901
 30
0.0
 11
51.15111980541382
 21
314.4406583436901
 31
0.0
  0
LINE
  5
D31
330
D
100
AcDbEntity
 67
     1
  8
AM_7
100
AcDbLine
 10
42.65111980541383
 20
314.4406583436901
 30
0.0
 11
51.15111980541382
 21
314.4406583436901
 31
0.0
  0
LINE
  5
D32
330
D
100
AcDbEntity
 67
     1
  8
AM_7
100
AcDbLine
 10
51.15111980541382
 20
314.4406583436901
 30
0.0
 11
59.65111980541383
 21
314.4406583436901
 31
0.0
  0
LINE
  5
D33
330
D
100
AcDbEntity
 67
     1
  8
AM_7
100
AcDbLine
 10
79.41425952622819
 20
314.4406583518708
 30
0.0
 11
79.41425952622819
 21
314.4406583518708
 31
0.0
  0
LINE
  5
D34
330
D
100
AcDbEntity
 67
     1
  8
AM_7
100
AcDbLine
 10
79.41425952622819
 20
314.4406583518708
 30
0.0
 11
79.41425952622819
 21
314.4406583518708
 31
0.0
  0
LINE
  5
D35
330
D
100
AcDbEntity
 67
     1
  8
AM_7
100
AcDbLine
 10
47.41425952622819
 20
314.4406583518708
 30
0.0
 11
79.41425952622819
 21
314.4406583518708
 31
0.0
  0
LINE
  5
D36
330
D
100
AcDbEntity
 67
     1
  8
AM_7
100
AcDbLine
 10
79.41425952622819
 20
314.4406583518708
 30
0.0
 11
111.4142595262282
 21
314.4406583518708
 31
0.0
  0
LINE
  5
D37
330
D
100
AcDbEntity
 67
     1
  8
AM_7
100
AcDbLine
 10
79.41425952622819
 20
282.4406583518708
 30
0.0
 11
79.41425952622819
 21
314.4406583518708
 31
0.0
  0
LINE
  5
D38
330
D
100
AcDbEntity
 67
     1
  8
AM_7
100
AcDbLine
 10
79.41425952622819
 20
314.4406583518708
 30
0.0
 11
79.41425952622819
 21
346.4406583518707
 31
0.0
  0
LINE
  5
D39
330
D
100
AcDbEntity
 67
     1
  8
AM_7
100
AcDbLine
 10
91.4142595262283
 20
333.4406583518708
 30
0.0
 11
91.4142595262283
 21
333.4406583518708
 31
0.0
  0
LINE
  5
D3A
330
D
100
AcDbEntity
 67
     1
  8
AM_7
100
AcDbLine
 10
91.4142595262283
 20
333.4406583518708
 30
0.0
 11
91.4142595262283
 21
333.4406583518708
 31
0.0
  0
LINE
  5
D3B
330
D
100
AcDbEntity
 67
     1
  8
AM_7
100
AcDbLine
 10
86.7032595262283
 20
333.4406583518708
 30
0.0
 11
91.4142595262283
 21
333.4406583518708
 31
0.0
  0
LINE
  5
D3C
330
D
100
AcDbEntity
 67
     1
  8
AM_7
100
AcDbLine
 10
91.4142595262283
 20
333.4406583518708
 30
0.0
 11
96.12525952622831
 21
333.4406583518708
 31
0.0
  0
LINE
  5
D3D
330
D
100
AcDbEntity
 67
     1
  8
AM_7
100
AcDbLine
 10
91.4142595262283
 20
328.7296583518708
 30
0.0
 11
91.4142595262283
 21
333.4406583518708
 31
0.0
  0
LINE
  5
D3E
330
D
100
AcDbEntity
 67
     1
  8
AM_7
100
AcDbLine
 10
91.4142595262283
 20
333.4406583518708
 30
0.0
 11
91.4142595262283
 21
338.1516583518707
 31
0.0
  0
LINE
  5
D3F
330
D
100
AcDbEntity
 67
     1
  8
AM_7
100
AcDbLine
 10
67.41425952622813
 20
295.4406583518709
 30
0.0
 11
67.41425952622813
 21
295.4406583518709
 31
0.0
  0
LINE
  5
D40
330
D
100
AcDbEntity
 67
     1
  8
AM_7
100
AcDbLine
 10
67.41425952622813
 20
295.4406583518709
 30
0.0
 11
67.41425952622813
 21
295.4406583518709
 31
0.0
  0
LINE
  5
D41
330
D
100
AcDbEntity
 67
     1
  8
AM_7
100
AcDbLine
 10
62.70325952622812
 20
295.4406583518709
 30
0.0
 11
67.41425952622813
 21
295.4406583518709
 31
0.0
  0
LINE
  5
D42
330
D
100
AcDbEntity
 67
     1
  8
AM_7
100
AcDbLine
 10
67.41425952622813
 20
295.4406583518709
 30
0.0
 11
72.12525952622815
 21
295.4406583518709
 31
0.0
  0
LINE
  5
D43
330
D
100
AcDbEntity
 67
     1
  8
AM_7
100
AcDbLine
 10
67.41425952622813
 20
290.7296583518709
 30
0.0
 11
67.41425952622813
 21
295.4406583518709
 31
0.0
  0
LINE
  5
D44
330
D
100
AcDbEntity
 67
     1
  8
AM_7
100
AcDbLine
 10
67.41425952622813
 20
295.4406583518709
 30
0.0
 11
67.41425952622813
 21
300.1516583518709
 31
0.0
  0
ARC
  5
D45
330
D
100
AcDbEntity
 67
     1
  8
AM_4
100
AcDbCircle
 10
91.41425952622819
 20
333.4406583518708
 30
0.0
 40
2.1095
100
AcDbArc
 50
259.9999999999998
 51
190.0000000000002
  0
ARC
  5
D46
330
D
100
AcDbEntity
 67
     1
  8
AM_4
100
AcDbCircle
 10
67.41425952622819
 20
295.4406583518708
 30
0.0
 40
2.1095
100
AcDbArc
 50
259.9999999999998
 51
190.0000000000002
  0
LINE
  5
D47
330
D
100
AcDbEntity
 67
     1
  8
AM_VIS
100
AcDbLine
 10
92.41425952664782
 20
256.5484431012169
 30
0.0
 11
92.41425952664782
 21
256.6484431012169
 31
0.0
  0
LINE
  5
D48
330
D
100
AcDbEntity
 67
     1
  8
AM_VIS
100
AcDbLine
 10
86.4142595266478
 20
256.5484431012169
 30
0.0
 11
86.4142595266478
 21
256.6484431012169
 31
0.0
  0
LINE
  5
D49
330
D
100
AcDbEntity
 67
     1
  8
AM_VIS
100
AcDbLine
 10
84.41425952664781
 20
256.5484431012169
 30
0.0
 11
84.41425952664781
 21
256.6484431012169
 31
0.0
  0
LINE
  5
D4A
330
D
100
AcDbEntity
 67
     1
  8
AM_VIS
100
AcDbLine
 10
86.4142595266478
 20
256.6484431012169
 30
0.0
 11
84.41425952664781
 21
256.6484431012169
 31
0.0
  0
LINE
  5
D4B
330
D
100
AcDbEntity
 67
     1
  8
AM_VIS
100
AcDbLine
 10
81.02820137905622
 20
256.0865628858652
 30
0.0
 11
81.02820137905622
 21
252.7865628858652
 31
0.0
  0
LINE
  5
D4C
330
D
100
AcDbEntity
 67
     1
  8
AM_VIS
100
AcDbLine
 10
81.81604758146603
 20
256.5484431012169
 30
0.0
 11
81.02820137905622
 21
256.0865628858652
 31
0.0
  0
LINE
  5
D4D
330
D
100
AcDbEntity
 67
     1
  8
AM_VIS
100
AcDbLine
 10
82.6689262032554
 20
256.0865628858652
 30
0.0
 11
82.6689262032554
 21
252.7865628858652
 31
0.0
  0
LINE
  5
D4E
330
D
100
AcDbEntity
 67
     1
  8
AM_VIS
100
AcDbLine
 10
83.28176175775059
 20
256.5484431012169
 30
0.0
 11
82.6689262032554
 21
256.0865628858652
 31
0.0
  0
LINE
  5
D4F
330
D
100
AcDbEntity
 67
     1
  8
AM_VIS
100
AcDbLine
 10
82.11831896738221
 20
256.5484431012169
 30
0.0
 11
82.11831896738221
 21
253.2484431012169
 31
0.0
  0
LINE
  5
D50
330
D
100
AcDbEntity
 67
     1
  8
AM_VIS
100
AcDbLine
 10
81.36656487075345
 20
252.7865628858652
 30
0.0
 11
81.36656487075345
 21
256.0865628858652
 31
0.0
  0
LINE
  5
D51
330
D
100
AcDbEntity
 67
     1
  8
AM_VIS
100
AcDbLine
 10
81.36656487075345
 20
256.0865628858652
 30
0.0
 11
82.11831896738216
 21
256.5484431012169
 31
0.0
  0
LINE
  5
D52
330
D
100
AcDbEntity
 67
     1
  8
AM_VIS
100
AcDbLine
 10
85.8491084517052
 20
256.0865628858652
 30
0.0
 11
85.8491084517052
 21
252.7865628858652
 31
0.0
  0
LINE
  5
D53
330
D
100
AcDbEntity
 67
     1
  8
AM_VIS
100
AcDbLine
 10
86.12272456636578
 20
256.5484431012169
 30
0.0
 11
85.84910845170526
 21
256.0865628858652
 31
0.0
  0
LINE
  5
D54
330
D
100
AcDbEntity
 67
     1
  8
AM_VIS
100
AcDbLine
 10
84.10758254174794
 20
256.5484431012169
 30
0.0
 11
84.10758254174794
 21
253.2484431012169
 31
0.0
  0
LINE
  5
D55
330
D
100
AcDbEntity
 67
     1
  8
AM_VIS
100
AcDbLine
 10
83.5933524539987
 20
252.7865628858652
 30
0.0
 11
83.5933524539987
 21
256.0865628858652
 31
0.0
  0
LINE
  5
D56
330
D
100
AcDbEntity
 67
     1
  8
AM_VIS
100
AcDbLine
 10
83.5933524539987
 20
256.0865628858652
 30
0.0
 11
84.10758254174794
 21
256.5484431012169
 31
0.0
  0
LINE
  5
D57
330
D
100
AcDbEntity
 67
     1
  8
AM_VIS
100
AcDbLine
 10
89.71662085914976
 20
256.0865628858652
 30
0.0
 11
89.71662085914976
 21
252.7865628858652
 31
0.0
  0
LINE
  5
D58
330
D
100
AcDbEntity
 67
     1
  8
AM_VIS
100
AcDbLine
 10
89.57770231701619
 20
256.5484431012169
 30
0.0
 11
89.57770231701619
 21
253.2484431012169
 31
0.0
  0
LINE
  5
D59
330
D
100
AcDbEntity
 67
     1
  8
AM_VIS
100
AcDbLine
 10
89.57770231701619
 20
256.5484431012169
 30
0.0
 11
89.71662085914971
 21
256.0865628858652
 31
0.0
  0
LINE
  5
D5A
330
D
100
AcDbEntity
 67
     1
  8
AM_VIS
100
AcDbLine
 10
87.25081673627931
 20
256.5484431012169
 30
0.0
 11
87.25081673627931
 21
253.2484431012169
 31
0.0
  0
LINE
  5
D5B
330
D
100
AcDbEntity
 67
     1
  8
AM_VIS
100
AcDbLine
 10
87.11189819414574
 20
252.7865628858652
 30
0.0
 11
87.11189819414574
 21
256.0865628858652
 31
0.0
  0
LINE
  5
D5C
330
D
100
AcDbEntity
 67
     1
  8
AM_VIS
100
AcDbLine
 10
87.11189819414579
 20
256.0865628858652
 30
0.0
 11
87.25081673627931
 21
256.5484431012169
 31
0.0
  0
LINE
  5
D5D
330
D
100
AcDbEntity
 67
     1
  8
AM_VIS
100
AcDbLine
 10
93.2351665992968
 20
256.0865628858652
 30
0.0
 11
93.2351665992968
 21
252.7865628858652
 31
0.0
  0
LINE
  5
D5E
330
D
100
AcDbEntity
 67
     1
  8
AM_VIS
100
AcDbLine
 10
92.72093651154756
 20
256.5484431012169
 30
0.0
 11
92.72093651154756
 21
253.2484431012169
 31
0.0
  0
LINE
  5
D5F
330
D
100
AcDbEntity
 67
     1
  8
AM_VIS
100
AcDbLine
 10
92.72093651154756
 20
256.5484431012169
 30
0.0
 11
93.2351665992968
 21
256.0865628858652
 31
0.0
  0
LINE
  5
D60
330
D
100
AcDbEntity
 67
     1
  8
AM_VIS
100
AcDbLine
 10
90.9794106015903
 20
252.7865628858652
 30
0.0
 11
90.9794106015903
 21
256.0865628858652
 31
0.0
  0
LINE
  5
D61
330
D
100
AcDbEntity
 67
     1
  8
AM_VIS
100
AcDbLine
 10
90.97941060159024
 20
256.0865628858652
 30
0.0
 11
90.70579448692972
 21
256.5484431012169
 31
0.0
  0
LINE
  5
D62
330
D
100
AcDbEntity
 67
     1
  8
AM_VIS
100
AcDbLine
 10
95.46195418254205
 20
256.0865628858652
 30
0.0
 11
95.46195418254205
 21
252.7865628858652
 31
0.0
  0
LINE
  5
D63
330
D
100
AcDbEntity
 67
     1
  8
AM_VIS
100
AcDbLine
 10
94.71020008591336
 20
256.5484431012169
 30
0.0
 11
94.71020008591336
 21
253.2484431012169
 31
0.0
  0
LINE
  5
D64
330
D
100
AcDbEntity
 67
     1
  8
AM_VIS
100
AcDbLine
 10
94.71020008591336
 20
256.5484431012169
 30
0.0
 11
95.46195418254205
 21
256.0865628858652
 31
0.0
  0
LINE
  5
D65
330
D
100
AcDbEntity
 67
     1
  8
AM_VIS
100
AcDbLine
 10
94.1595928500401
 20
252.7865628858652
 30
0.0
 11
94.1595928500401
 21
256.0865628858652
 31
0.0
  0
LINE
  5
D66
330
D
100
AcDbEntity
 67
     1
  8
AM_VIS
100
AcDbLine
 10
94.1595928500401
 20
256.0865628858652
 30
0.0
 11
93.54675729554491
 21
256.5484431012169
 31
0.0
  0
LINE
  5
D67
330
D
100
AcDbEntity
 67
     1
  8
AM_VIS
100
AcDbLine
 10
95.80031767423935
 20
252.7865628858652
 30
0.0
 11
95.80031767423935
 21
256.0865628858652
 31
0.0
  0
LINE
  5
D68
330
D
100
AcDbEntity
 67
     1
  8
AM_VIS
100
AcDbLine
 10
95.8003176742393
 20
256.0865628858652
 30
0.0
 11
95.0124714718296
 21
256.5484431012169
 31
0.0
  0
LINE
  5
D69
330
D
100
AcDbEntity
 67
     1
  8
AM_VIS
100
AcDbLine
 10
81.36656487075345
 20
252.7865628858652
 30
0.0
 11
82.11831896738216
 21
253.2484431012169
 31
0.0
  0
LINE
  5
D6A
330
D
100
AcDbEntity
 67
     1
  8
AM_VIS
100
AcDbLine
 10
83.5933524539987
 20
252.7865628858652
 30
0.0
 11
84.10758254174794
 21
253.2484431012169
 31
0.0
  0
LINE
  5
D6B
330
D
100
AcDbEntity
 67
     1
  8
AM_VIS
100
AcDbLine
 10
87.11189819414579
 20
252.7865628858652
 30
0.0
 11
87.25081673627931
 21
253.2484431012169
 31
0.0
  0
LINE
  5
D6C
330
D
100
AcDbEntity
 67
     1
  8
AM_VIS
100
AcDbLine
 10
89.57770231701619
 20
253.2484431012169
 30
0.0
 11
89.71662085914971
 21
252.7865628858652
 31
0.0
  0
LINE
  5
D6D
330
D
100
AcDbEntity
 67
     1
  8
AM_VIS
100
AcDbLine
 10
92.72093651154756
 20
253.2484431012169
 30
0.0
 11
93.2351665992968
 21
252.7865628858652
 31
0.0
  0
LINE
  5
D6E
330
D
100
AcDbEntity
 67
     1
  8
AM_VIS
100
AcDbLine
 10
94.71020008591336
 20
253.2484431012169
 30
0.0
 11
95.46195418254205
 21
252.7865628858652
 31
0.0
  0
LINE
  5
D6F
330
D
100
AcDbEntity
 67
     1
  8
AM_VIS
100
AcDbLine
 10
95.91425952664781
 20
245.2484431012169
 30
0.0
 11
95.91425952664781
 21
252.7865628858652
 31
0.0
  0
LINE
  5
D70
330
D
100
AcDbEntity
 67
     1
  8
AM_VIS
100
AcDbLine
 10
80.91425952664781
 20
245.2484431012169
 30
0.0
 11
80.91425952664781
 21
252.7865628858652
 31
0.0
  0
LINE
  5
D71
330
D
100
AcDbEntity
 67
     1
  8
AM_VIS
100
AcDbLine
 10
81.71425952664776
 20
256.5484431012169
 30
0.0
 11
81.71425952664776
 21
256.4887691591
 31
0.0
  0
LINE
  5
D72
330
D
100
AcDbEntity
 67
     1
  8
AM_VIS
100
AcDbLine
 10
95.11425952664774
 20
256.5484431012169
 30
0.0
 11
95.11425952664774
 21
256.4887691591
 31
0.0
  0
LINE
  5
D73
330
D
100
AcDbEntity
 67
     1
  8
AM_VIS
100
AcDbLine
 10
81.02820137905622
 20
252.8523472450252
 30
0.0
 11
80.91425952664781
 21
252.7865628858652
 31
0.0
  0
LINE
  5
D74
330
D
100
AcDbEntity
 67
     1
  8
AM_VIS
100
AcDbLine
 10
95.80031767423935
 20
252.8523472450252
 30
0.0
 11
95.91425952664781
 21
252.7865628858652
 31
0.0
  0
LINE
  5
D75
330
D
100
AcDbEntity
 67
     1
  8
AM_VIS
100
AcDbLine
 10
92.41425952664782
 20
256.6484431012169
 30
0.0
 11
86.4142595266478
 21
256.6484431012169
 31
0.0
  0
LINE
  5
D76
330
D
100
AcDbEntity
 67
     1
  8
AM_VIS
100
AcDbLine
 10
95.91425952664781
 20
245.2484431012169
 30
0.0
 11
80.91425952664781
 21
245.2484431012169
 31
0.0
  0
LINE
  5
D77
330
D
100
AcDbEntity
 67
     1
  8
AM_VIS
100
AcDbLine
 10
95.80031767423935
 20
256.0865628858652
 30
0.0
 11
95.46195418254205
 21
256.0865628858652
 31
0.0
  0
LINE
  5
D78
330
D
100
AcDbEntity
 67
     1
  8
AM_VIS
100
AcDbLine
 10
94.71020008591336
 20
256.5484431012169
 30
0.0
 11
95.0124714718296
 21
256.5484431012169
 31
0.0
  0
LINE
  5
D79
330
D
100
AcDbEntity
 67
     1
  8
AM_VIS
100
AcDbLine
 10
94.1595928500401
 20
256.0865628858652
 30
0.0
 11
93.2351665992968
 21
256.0865628858652
 31
0.0
  0
LINE
  5
D7A
330
D
100
AcDbEntity
 67
     1
  8
AM_VIS
100
AcDbLine
 10
92.72093651154756
 20
256.5484431012169
 30
0.0
 11
93.54675729554491
 21
256.5484431012169
 31
0.0
  0
LINE
  5
D7B
330
D
100
AcDbEntity
 67
     1
  8
AM_VIS
100
AcDbLine
 10
90.9794106015903
 20
256.0865628858652
 30
0.0
 11
89.71662085914976
 21
256.0865628858652
 31
0.0
  0
LINE
  5
D7C
330
D
100
AcDbEntity
 67
     1
  8
AM_VIS
100
AcDbLine
 10
89.57770231701619
 20
256.5484431012169
 30
0.0
 11
90.70579448692972
 21
256.5484431012169
 31
0.0
  0
LINE
  5
D7D
330
D
100
AcDbEntity
 67
     1
  8
AM_VIS
100
AcDbLine
 10
87.11189819414574
 20
256.0865628858652
 30
0.0
 11
85.8491084517052
 21
256.0865628858652
 31
0.0
  0
LINE
  5
D7E
330
D
100
AcDbEntity
 67
     1
  8
AM_VIS
100
AcDbLine
 10
86.12272456636578
 20
256.5484431012169
 30
0.0
 11
87.25081673627931
 21
256.5484431012169
 31
0.0
  0
LINE
  5
D7F
330
D
100
AcDbEntity
 67
     1
  8
AM_VIS
100
AcDbLine
 10
83.5933524539987
 20
256.0865628858652
 30
0.0
 11
82.6689262032554
 21
256.0865628858652
 31
0.0
  0
LINE
  5
D80
330
D
100
AcDbEntity
 67
     1
  8
AM_VIS
100
AcDbLine
 10
83.28176175775059
 20
256.5484431012169
 30
0.0
 11
84.10758254174794
 21
256.5484431012169
 31
0.0
  0
LINE
  5
D81
330
D
100
AcDbEntity
 67
     1
  8
AM_VIS
100
AcDbLine
 10
81.36656487075345
 20
256.0865628858652
 30
0.0
 11
81.02820137905622
 21
256.0865628858652
 31
0.0
  0
LINE
  5
D82
330
D
100
AcDbEntity
 67
     1
  8
AM_VIS
100
AcDbLine
 10
81.81604758146603
 20
256.5484431012169
 30
0.0
 11
82.11831896738221
 21
256.5484431012169
 31
0.0
  0
LINE
  5
D83
330
D
100
AcDbEntity
 67
     1
  8
AM_VIS
100
AcDbLine
 10
81.71425952664776
 20
256.5484431012169
 30
0.0
 11
81.81604758146603
 21
256.5484431012169
 31
0.0
  0
LINE
  5
D84
330
D
100
AcDbEntity
 67
     1
  8
AM_VIS
100
AcDbLine
 10
82.11831896738221
 20
256.5484431012169
 30
0.0
 11
83.28176175775059
 21
256.5484431012169
 31
0.0
  0
LINE
  5
D85
330
D
100
AcDbEntity
 67
     1
  8
AM_VIS
100
AcDbLine
 10
84.10758254174794
 20
256.5484431012169
 30
0.0
 11
86.12272456636578
 21
256.5484431012169
 31
0.0
  0
LINE
  5
D86
330
D
100
AcDbEntity
 67
     1
  8
AM_VIS
100
AcDbLine
 10
87.25081673627931
 20
256.5484431012169
 30
0.0
 11
89.57770231701619
 21
256.5484431012169
 31
0.0
  0
LINE
  5
D87
330
D
100
AcDbEntity
 67
     1
  8
AM_VIS
100
AcDbLine
 10
90.70579448692972
 20
256.5484431012169
 30
0.0
 11
92.72093651154756
 21
256.5484431012169
 31
0.0
  0
LINE
  5
D88
330
D
100
AcDbEntity
 67
     1
  8
AM_VIS
100
AcDbLine
 10
93.54675729554491
 20
256.5484431012169
 30
0.0
 11
94.71020008591336
 21
256.5484431012169
 31
0.0
  0
LINE
  5
D89
330
D
100
AcDbEntity
 67
     1
  8
AM_VIS
100
AcDbLine
 10
95.0124714718296
 20
256.5484431012169
 30
0.0
 11
95.11425952664774
 21
256.5484431012169
 31
0.0
  0
LINE
  5
D8A
330
D
100
AcDbEntity
 67
     1
  8
AM_VIS
100
AcDbLine
 10
81.02820137905622
 20
252.7865628858652
 30
0.0
 11
80.91425952664781
 21
252.7865628858652
 31
0.0
  0
LINE
  5
D8B
330
D
100
AcDbEntity
 67
     1
  8
AM_VIS
100
AcDbLine
 10
82.6689262032554
 20
252.7865628858652
 30
0.0
 11
81.36656487075345
 21
252.7865628858652
 31
0.0
  0
LINE
  5
D8C
330
D
100
AcDbEntity
 67
     1
  8
AM_VIS
100
AcDbLine
 10
82.11831896738221
 20
253.2484431012169
 30
0.0
 11
82.6689262032554
 21
253.2484431012169
 31
0.0
  0
LINE
  5
D8D
330
D
100
AcDbEntity
 67
     1
  8
AM_VIS
100
AcDbLine
 10
85.8491084517052
 20
252.7865628858652
 30
0.0
 11
83.5933524539987
 21
252.7865628858652
 31
0.0
  0
LINE
  5
D8E
330
D
100
AcDbEntity
 67
     1
  8
AM_VIS
100
AcDbLine
 10
84.10758254174794
 20
253.2484431012169
 30
0.0
 11
85.8491084517052
 21
253.2484431012169
 31
0.0
  0
LINE
  5
D8F
330
D
100
AcDbEntity
 67
     1
  8
AM_VIS
100
AcDbLine
 10
89.71662085914976
 20
252.7865628858652
 30
0.0
 11
87.11189819414574
 21
252.7865628858652
 31
0.0
  0
LINE
  5
D90
330
D
100
AcDbEntity
 67
     1
  8
AM_VIS
100
AcDbLine
 10
87.25081673627931
 20
253.2484431012169
 30
0.0
 11
89.57770231701619
 21
253.2484431012169
 31
0.0
  0
LINE
  5
D91
330
D
100
AcDbEntity
 67
     1
  8
AM_VIS
100
AcDbLine
 10
93.2351665992968
 20
252.7865628858652
 30
0.0
 11
90.9794106015903
 21
252.7865628858652
 31
0.0
  0
LINE
  5
D92
330
D
100
AcDbEntity
 67
     1
  8
AM_VIS
100
AcDbLine
 10
90.9794106015903
 20
253.2484431012169
 30
0.0
 11
92.72093651154756
 21
253.2484431012169
 31
0.0
  0
LINE
  5
D93
330
D
100
AcDbEntity
 67
     1
  8
AM_VIS
100
AcDbLine
 10
95.46195418254205
 20
252.7865628858652
 30
0.0
 11
94.1595928500401
 21
252.7865628858652
 31
0.0
  0
LINE
  5
D94
330
D
100
AcDbEntity
 67
     1
  8
AM_VIS
100
AcDbLine
 10
94.1595928500401
 20
253.2484431012169
 30
0.0
 11
94.71020008591336
 21
253.2484431012169
 31
0.0
  0
LINE
  5
D95
330
D
100
AcDbEntity
 67
     1
  8
AM_VIS
100
AcDbLine
 10
95.91425952664781
 20
252.7865628858652
 30
0.0
 11
95.80031767423935
 21
252.7865628858652
 31
0.0
  0
LINE
  5
D96
330
D
100
AcDbEntity
 67
     1
  8
AM_VIS
100
AcDbLine
 10
93.32173681475955
 20
234.9484431012169
 30
0.0
 11
83.50678223853595
 21
234.9484431012169
 31
0.0
  0
LINE
  5
D97
330
D
100
AcDbEntity
 67
     1
  8
AM_VIS
100
AcDbLine
 10
82.64075683475153
 20
234.9484431012169
 30
0.0
 11
82.41425952664769
 21
234.9484431012169
 31
0.0
  0
LINE
  5
D98
330
D
100
AcDbEntity
 67
     1
  8
AM_VIS
100
AcDbLine
 10
82.64075683475153
 20
231.9484431012169
 30
0.0
 11
82.41425952664769
 21
231.9484431012169
 31
0.0
  0
LINE
  5
D99
330
D
100
AcDbEntity
 67
     1
  8
AM_VIS
100
AcDbLine
 10
93.32173681475955
 20
231.9484431012169
 30
0.0
 11
83.50678223853595
 21
231.9484431012169
 31
0.0
  0
LINE
  5
D9A
330
D
100
AcDbEntity
 67
     1
  8
AM_VIS
100
AcDbLine
 10
99.09523950665585
 20
234.9484431012169
 30
0.0
 11
94.18776221854399
 21
234.9484431012169
 31
0.0
  0
LINE
  5
D9B
330
D
100
AcDbEntity
 67
     1
  8
AM_VIS
100
AcDbLine
 10
99.09523950665585
 20
231.9484431012169
 30
0.0
 11
94.18776221854399
 21
231.9484431012169
 31
0.0
  0
LINE
  5
D9C
330
D
100
AcDbEntity
 67
     1
  8
AM_VIS
100
AcDbLine
 10
95.91425952664781
 20
234.9484431012169
 30
0.0
 11
95.91425952664781
 21
245.2484431012169
 31
0.0
  0
LINE
  5
D9D
330
D
100
AcDbEntity
 67
     1
  8
AM_VIS
100
AcDbLine
 10
80.91425952664781
 20
237.6484431012169
 30
0.0
 11
80.91425952664781
 21
245.2484431012169
 31
0.0
  0
LINE
  5
D9E
330
D
100
AcDbEntity
 67
     1
  8
AM_VIS
100
AcDbLine
 10
99.22921410287143
 20
231.9484431012169
 30
0.0
 11
99.22921410287143
 21
234.9484431012169
 31
0.0
  0
LINE
  5
D9F
330
D
100
AcDbEntity
 67
     1
  8
AM_VIS
100
AcDbLine
 10
80.91425952664781
 20
245.2484431012169
 30
0.0
 11
95.91425952664781
 21
245.2484431012169
 31
0.0
  0
LINE
  5
DA0
330
D
100
AcDbEntity
 67
     1
  8
AM_VIS
100
AcDbLine
 10
82.64075683475153
 20
234.9484431012169
 30
0.0
 11
83.50678223853595
 21
234.9484431012169
 31
0.0
  0
LINE
  5
DA1
330
D
100
AcDbEntity
 67
     1
  8
AM_VIS
100
AcDbLine
 10
99.09523950665585
 20
234.9484431012169
 30
0.0
 11
99.22921410287143
 21
234.9484431012169
 31
0.0
  0
LINE
  5
DA2
330
D
100
AcDbEntity
 67
     1
  8
AM_VIS
100
AcDbLine
 10
99.22921410287143
 20
231.9484431012169
 30
0.0
 11
99.09523950665585
 21
231.9484431012169
 31
0.0
  0
LINE
  5
DA3
330
D
100
AcDbEntity
 67
     1
  8
AM_VIS
100
AcDbLine
 10
83.50678223853595
 20
231.9484431012169
 30
0.0
 11
82.64075683475146
 21
231.9484431012169
 31
0.0
  0
LINE
  5
DA4
330
D
100
AcDbEntity
 67
     1
  8
AM_VIS
100
AcDbLine
 10
94.18776221854399
 20
231.9484431012169
 30
0.0
 11
93.32173681475955
 21
231.9484431012169
 31
0.0
  0
LINE
  5
DA5
330
D
100
AcDbEntity
 67
     1
  8
AM_VIS
100
AcDbLine
 10
93.32173681475955
 20
234.9484431012169
 30
0.0
 11
94.18776221854399
 21
234.9484431012169
 31
0.0
  0
LINE
  5
DA6
330
D
100
AcDbEntity
 67
     1
  8
AM_VIS
100
AcDbLine
 10
60.06403316043924
 20
90.21353078569427
 30
0.0
 11
64.23060133906972
 21
86.08316503766269
 31
0.0
  0
ARC
  5
DA7
330
D
100
AcDbEntity
 67
     1
  8
AM_VIS
100
AcDbCircle
 10
61.12005517378429
 20
91.2788088137454
 30
0.0
 40
1.499999923256554
100
AcDbArc
 50
180.4999988925244
 51
225.2500010438184
  0
ARC
  5
DA8
330
D
100
AcDbEntity
 67
     1
  8
AM_VIS
100
AcDbCircle
 10
71.13739515788324
 20
91.2158529839111
 30
0.0
 40
4.003878985516954
100
AcDbArc
 50
179.2863949080097
 51
194.4975014805192
  0
ARC
  5
DA9
330
D
100
AcDbEntity
 67
     1
  8
AM_VIS
100
AcDbCircle
 10
79.24128377940599
 20
91.21248364429943
 30
0.0
 40
6.671872385359597
100
AcDbArc
 50
179.5428276061937
 51
188.6110490360833
  0
ARC
  5
DAA
330
D
100
AcDbEntity
 67
     1
  8
AM_VIS
100
AcDbCircle
 10
79.58723527311434
 20
91.21248364429476
 30
0.0
 40
6.671872385295445
100
AcDbArc
 50
351.3889509638722
 51
0.4571723938502051
  0
ARC
  5
DAB
330
D
100
AcDbEntity
 67
     1
  8
AM_VIS
100
AcDbCircle
 10
87.69112389438545
 20
91.2158529839337
 30
0.0
 40
4.003878985704109
100
AcDbArc
 50
345.5024985198424
 51
0.713605091633613
  0
ARC
  5
DAC
330
D
100
AcDbEntity
 67
     1
  8
AM_VIS
100
AcDbCircle
 10
97.70846374393897
 20
91.27880887058958
 30
0.0
 40
1.500000058480389
100
AcDbArc
 50
314.7500010824707
 51
359.4999989811809
  0
LINE
  5
DAD
330
D
100
AcDbEntity
 67
     1
  8
AM_VIS
100
AcDbLine
 10
58.97098416686799
 20
175.6484431012169
 30
0.0
 11
59.62011236566542
 21
91.26571904016003
 31
0.0
  0
LINE
  5
DAE
330
D
100
AcDbEntity
 67
     1
  8
AM_VIS
100
AcDbLine
 10
72.45838248792598
 20
177.6484428870608
 30
0.0
 11
72.56947293493022
 21
91.26571882076893
 31
0.0
  0
LINE
  5
DAF
330
D
100
AcDbEntity
 67
     1
  8
AM_VIS
100
AcDbLine
 10
66.94996948553256
 20
175.6484425467704
 30
0.0
 11
67.13359706315919
 21
91.26571847323106
 31
0.0
  0
LINE
  5
DB0
330
D
100
AcDbEntity
 67
     1
  8
AM_VIS
100
AcDbLine
 10
71.66425952622808
 20
177.6484431012169
 30
0.0
 11
71.66425952622808
 21
177.1484431012169
 31
0.0
  0
LINE
  5
DB1
330
D
100
AcDbEntity
 67
     1
  8
AM_VIS
100
AcDbLine
 10
71.66425952622808
 20
177.1484431012169
 30
0.0
 11
70.41425952622808
 21
177.1484431012169
 31
0.0
  0
LINE
  5
DB2
330
D
100
AcDbEntity
 67
     1
  8
AM_VIS
100
AcDbLine
 10
86.25904611752885
 20
91.26571882076897
 30
0.0
 11
86.37013656452728
 21
177.6484428870608
 31
0.0
  0
LINE
  5
DB3
330
D
100
AcDbEntity
 67
     1
  8
AM_VIS
100
AcDbLine
 10
87.16425952622808
 20
177.1484431012169
 30
0.0
 11
87.16425952622808
 21
177.6484431012169
 31
0.0
  0
LINE
  5
DB4
330
D
100
AcDbEntity
 67
     1
  8
AM_VIS
100
AcDbLine
 10
91.69492198929674
 20
91.265718473231
 30
0.0
 11
91.87854956692353
 21
175.6484425467705
 31
0.0
  0
LINE
  5
DB5
330
D
100
AcDbEntity
 67
     1
  8
AM_VIS
100
AcDbLine
 10
99.2084066867908
 20
91.26571904016008
 30
0.0
 11
99.85753488558827
 21
175.6484431012169
 31
0.0
  0
LINE
  5
DB6
330
D
100
AcDbEntity
 67
     1
  8
AM_VIS
100
AcDbLine
 10
88.41425952622808
 20
177.1484431012169
 30
0.0
 11
87.16425952622808
 21
177.1484431012169
 31
0.0
  0
ARC
  5
DB7
330
D
100
AcDbEntity
 67
     1
  8
AM_VIS
100
AcDbCircle
 10
79.41425952622807
 20
152.1484431012169
 30
0.0
 40
5.0
100
AcDbArc
 50
0.0
 51
180.0
  0
LINE
  5
DB8
330
D
100
AcDbEntity
 67
     1
  8
AM_VIS
100
AcDbLine
 10
84.41425952622807
 20
152.1484431012169
 30
0.0
 11
84.41425952622807
 21
102.1484431012169
 31
0.0
  0
ARC
  5
DB9
330
D
100
AcDbEntity
 67
     1
  8
AM_VIS
100
AcDbCircle
 10
79.41425952622807
 20
102.1484431012169
 30
0.0
 40
5.000000000000014
100
AcDbArc
 50
180.0
 51
0.0
  0
LINE
  5
DBA
330
D
100
AcDbEntity
 67
     1
  8
AM_VIS
100
AcDbLine
 10
74.41425952622802
 20
152.1484431012169
 30
0.0
 11
74.41425952622802
 21
102.1484431012169
 31
0.0
  0
ARC
  5
DBB
330
D
100
AcDbEntity
 67
     1
  8
AM_VIS
100
AcDbCircle
 10
122.5675015932244
 20
156.8548693065642
 30
0.0
 40
22.31474947704997
100
AcDbArc
 50
166.2772974376372
 51
179.2461925380372
  0
ARC
  5
DBC
330
D
100
AcDbEntity
 67
     1
  8
AM_VIS
100
AcDbCircle
 10
36.2610174592379
 20
156.8548693065651
 30
0.0
 40
22.31474947704385
100
AcDbArc
 50
0.7538074619594763
 51
13.72270256236446
  0
LINE
  5
DBD
330
D
100
AcDbEntity
 67
     1
  8
AM_VIS
100
AcDbLine
 10
99.89556059502877
 20
107.1484428394146
 30
0.0
 11
100.2547117418119
 21
157.1484428461532
 31
0.0
  0
LINE
  5
DBE
330
D
100
AcDbEntity
 67
     1
  8
AM_VIS
100
AcDbLine
 10
58.57380731064438
 20
157.1484428461532
 30
0.0
 11
58.9329584574275
 21
107.1484428394146
 31
0.0
  0
ARC
  5
DBF
330
D
100
AcDbEntity
 67
     1
  8
AM_VIS
100
AcDbCircle
 10
121.5659759995068
 20
107.0350837226841
 30
0.0
 40
21.67074105515432
100
AcDbArc
 50
179.7002851188727
 51
193.0319791400579
  0
ARC
  5
DC0
330
D
100
AcDbEntity
 67
     1
  8
AM_VIS
100
AcDbCircle
 10
37.26254305295731
 20
107.0350837226831
 30
0.0
 40
21.67074105514648
100
AcDbArc
 50
346.9680208599387
 51
0.2997148811289425
  0
LINE
  5
DC1
330
D
100
AcDbEntity
 67
     1
  8
AM_VIS
100
AcDbLine
 10
94.59791771326854
 20
86.08316503778175
 30
0.0
 11
98.76448588787651
 21
90.21353077897757
 31
0.0
  0
LINE
  5
DC2
330
D
100
AcDbEntity
 67
     1
  8
AM_VIS
100
AcDbLine
 10
90.31256035455738
 20
86.07982779680932
 30
0.0
 11
91.57779640274283
 21
90.21038104411951
 31
0.0
  0
LINE
  5
DC3
330
D
100
AcDbEntity
 67
     1
  8
AM_VIS
100
AcDbLine
 10
85.44194916666299
 20
86.08183898434518
 30
0.0
 11
86.19073767166758
 21
90.21229105883724
 31
0.0
  0
LINE
  5
DC4
330
D
100
AcDbEntity
 67
     1
  8
AM_VIS
100
AcDbLine
 10
67.25072265030338
 20
90.21038103748589
 30
0.0
 11
68.51595869801122
 21
86.07982779683963
 31
0.0
  0
LINE
  5
DC5
330
D
100
AcDbEntity
 67
     1
  8
AM_VIS
100
AcDbLine
 10
72.63778138064049
 20
90.21229106231277
 30
0.0
 11
73.38656988575372
 21
86.08183898433896
 31
0.0
  0
ARC
  5
DC6
330
D
100
AcDbEntity
 67
     1
  8
AM_VIS
100
AcDbCircle
 10
65.28662340310791
 20
87.14844304591872
 30
0.0
 40
1.499999944701827
100
AcDbArc
 50
225.2499991147291
 51
270.0000008537736
  0
ARC
  5
DC7
330
D
100
AcDbEntity
 67
     1
  8
AM_VIS
100
AcDbCircle
 10
93.54189564934836
 20
87.14844304591872
 30
0.0
 40
1.499999944701827
100
AcDbArc
 50
269.9999991462263
 51
314.750000885271
  0
SPLINE
  5
DC8
330
D
100
AcDbEntity
 67
     1
  8
AM_VIS
100
AcDbSpline
210
0.0
220
0.0
230
1.0
 70
     8
 71
     3
 72
    12
 73
     8
 74
     0
 42
0.0000000001
 43
0.0000000001
 40
-1.223984536100286
 40
-1.223984536100286
 40
-1.223984536100286
 40
-1.223984536100286
 40
-1.221752649822985
 40
-1.221752649822985
 40
-0.6063716823398733
 40
-0.6063716823398733
 40
0.0
 40
0.0
 40
0.0
 40
0.0
 10
89.9567190448838
 20
85.6484431012169
 30
0.0
 10
89.95695370346357
 20
85.6484431012169
 30
0.0
 10
89.95718835500396
 20
85.64844360081499
 30
0.0
 10
90.02211966928497
 20
85.64872010338701
 30
0.0
 10
90.08584342246894
 20
85.68697519204041
 30
0.0
 10
90.20348029456199
 20
85.83589973715096
 30
0.0
 10
90.25667711537835
 20
85.94443640390521
 30
0.0
 10
90.30166542980685
 20
86.08316503778198
 30
0.0
  0
LINE
  5
DC9
330
D
100
AcDbEntity
 67
     1
  8
AM_VIS
100
AcDbLine
 10
85.22941756628336
 20
85.6484431012169
 30
0.0
 11
89.9567190448838
 21
85.6484431012169
 31
0.0
  0
SPLINE
  5
DCA
330
D
100
AcDbEntity
 67
     1
  8
AM_VIS
100
AcDbSpline
210
0.0
220
0.0
230
1.0
 70
     8
 71
     3
 72
    12
 73
     8
 74
     0
 42
0.0000000001
 43
0.0000000001
 40
0.0
 40
0.0
 40
0.0
 40
0.0
 40
0.5930711260102709
 40
0.5930711260102709
 40
1.190594073880675
 40
1.190594073880675
 40
1.192755197789328
 40
1.192755197789328
 40
1.192755197789328
 40
1.192755197789328
 10
85.43463441739493
 20
86.08316503778198
 30
0.0
 10
85.40805951430689
 20
85.94525134019091
 30
0.0
 10
85.37649443546007
 20
85.83638794018629
 30
0.0
 10
85.30642697947724
 20
85.68720327641356
 30
0.0
 10
85.26848998640412
 20
85.64872098389447
 30
0.0
 10
85.22969718185004
 20
85.64844360102723
 30
0.0
 10
85.22955737649374
 20
85.6484431012169
 30
0.0
 10
85.22941756628336
 20
85.6484431012169
 30
0.0
  0
SPLINE
  5
DCB
330
D
100
AcDbEntity
 67
     1
  8
AM_VIS
100
AcDbSpline
210
0.0
220
0.0
230
1.0
 70
     8
 71
     3
 72
    12
 73
     8
 74
     0
 42
0.0000000001
 43
0.0000000001
 40
-0.0022342702689408
 40
-0.0022342702689408
 40
-0.0022342702689408
 40
-0.0022342702689408
 40
0.0
 40
0.0
 40
0.6160382872962646
 40
0.6160382872962646
 40
1.223057666176767
 40
1.223057666176767
 40
1.223057666176767
 40
1.223057666176767
 10
68.87180000757246
 20
85.6484431012169
 30
0.0
 10
68.8715653489927
 20
85.6484431012169
 30
0.0
 10
68.87133069745226
 20
85.64844360081499
 30
0.0
 10
68.80639938316869
 20
85.64872010338701
 30
0.0
 10
68.74267562998682
 20
85.68697519204096
 30
0.0
 10
68.62503875789423
 20
85.83589973715096
 30
0.0
 10
68.5718419370778
 20
85.94443640390522
 30
0.0
 10
68.52685362264935
 20
86.08316503778198
 30
0.0
  0
SPLINE
  5
DCC
330
D
100
AcDbEntity
 67
     1
  8
AM_VIS
100
AcDbSpline
210
0.0
220
0.0
230
1.0
 70
     8
 71
     3
 72
    12
 73
     8
 74
     0
 42
0.0000000001
 43
0.0000000001
 40
-1.191072920087239
 40
-1.191072920087239
 40
-1.191072920087239
 40
-1.191072920087239
 40
-0.5977632662149929
 40
-0.5977632662149929
 40
0.0
 40
0.0
 40
0.0021619930932112
 40
0.0021619930932112
 40
0.0021619930932112
 40
0.0021619930932112
 10
73.39388463506122
 20
86.08316503778198
 30
0.0
 10
73.42045953814931
 20
85.94525134019091
 30
0.0
 10
73.45202461699614
 20
85.83638794018629
 30
0.0
 10
73.52209207297903
 20
85.68720327641356
 30
0.0
 10
73.56002906605209
 20
85.64872098389447
 30
0.0
 10
73.59882187060612
 20
85.64844360102723
 30
0.0
 10
73.59896167596247
 20
85.6484431012169
 30
0.0
 10
73.5991014861728
 20
85.6484431012169
 30
0.0
  0
LINE
  5
DCD
330
D
100
AcDbEntity
 67
     1
  8
AM_VIS
100
AcDbLine
 10
68.87180000757246
 20
85.6484431012169
 30
0.0
 11
73.59910148617285
 21
85.6484431012169
 31
0.0
  0
LINE
  5
DCE
330
D
100
AcDbEntity
 67
     1
  8
AM_VIS
100
AcDbLine
 10
63.08060133918798
 20
86.08316503778198
 30
0.0
 11
58.91403316357775
 21
90.21353077997265
 31
0.0
  0
LINE
  5
DCF
330
D
100
AcDbEntity
 67
     1
  8
AM_VIS
100
AcDbLine
 10
57.93879688204333
 20
162.1484431012169
 30
0.0
 11
57.82098416686813
 21
175.6484431012169
 31
0.0
  0
LINE
  5
DD0
330
D
100
AcDbEntity
 67
     1
  8
AM_VIS
100
AcDbLine
 10
58.47011236566538
 20
91.26571904016003
 30
0.0
 11
58.37514027158125
 21
102.1484431012169
 31
0.0
  0
LINE
  5
DD1
330
D
100
AcDbEntity
 67
     1
  8
AM_VIS
100
AcDbLine
 10
100.889722170413
 20
162.1484431012169
 30
0.0
 11
101.0075348855882
 21
175.6484431012169
 31
0.0
  0
LINE
  5
DD2
330
D
100
AcDbEntity
 67
     1
  8
AM_VIS
100
AcDbLine
 10
100.3584066867909
 20
91.26571904016003
 30
0.0
 11
100.453378780875
 21
102.1484431012169
 31
0.0
  0
LINE
  5
DD3
330
D
100
AcDbEntity
 67
     1
  8
AM_VIS
100
AcDbLine
 10
95.74791771326829
 20
86.08316503778198
 30
0.0
 11
99.91448588887863
 21
90.21353077997265
 31
0.0
  0
LINE
  5
DD4
330
D
100
AcDbEntity
 67
     1
  8
AM_VIS
100
AcDbLine
 10
68.87180000757246
 20
85.6484431012169
 30
0.0
 11
65.28662342587188
 21
85.6484431012169
 31
0.0
  0
LINE
  5
DD5
330
D
100
AcDbEntity
 67
     1
  8
AM_VIS
100
AcDbLine
 10
65.28662342587193
 20
85.6484431012169
 30
0.0
 11
64.13662342587196
 21
85.6484431012169
 31
0.0
  0
LINE
  5
DD6
330
D
100
AcDbEntity
 67
     1
  8
AM_VIS
100
AcDbLine
 10
94.69189562658437
 20
85.6484431012169
 30
0.0
 11
93.54189562658438
 21
85.6484431012169
 31
0.0
  0
LINE
  5
DD7
330
D
100
AcDbEntity
 67
     1
  8
AM_VIS
100
AcDbLine
 10
93.54189562658433
 20
85.6484431012169
 30
0.0
 11
89.95671904488375
 21
85.6484431012169
 31
0.0
  0
LINE
  5
DD8
330
D
100
AcDbEntity
 67
     1
  8
AM_VIS
100
AcDbLine
 10
85.22941756628336
 20
85.6484431012169
 30
0.0
 11
73.5991014861728
 21
85.6484431012169
 31
0.0
  0
ARC
  5
DD9
330
D
100
AcDbEntity
 67
     1
  8
AM_VIS
100
AcDbCircle
 10
59.97005525026168
 20
91.27880884340759
 30
0.0
 40
1.5
100
AcDbArc
 50
180.4999999999997
 51
225.2500000000008
  0
ARC
  5
DDA
330
D
100
AcDbEntity
 67
     1
  8
AM_VIS
100
AcDbCircle
 10
98.85846380219465
 20
91.27880884340759
 30
0.0
 40
1.5
100
AcDbArc
 50
314.7499999999991
 51
359.4999999999986
  0
ARC
  5
DDB
330
D
100
AcDbEntity
 67
     1
  8
AM_VIS
100
AcDbCircle
 10
64.13662342587196
 20
87.14844310121691
 30
0.0
 40
1.5
100
AcDbArc
 50
225.2500000000008
 51
270.0
  0
ARC
  5
DDC
330
D
100
AcDbEntity
 67
     1
  8
AM_VIS
100
AcDbCircle
 10
94.69189562658437
 20
87.14844310121691
 30
0.0
 40
1.499999999999999
100
AcDbArc
 50
270.0
 51
314.7499999999991
  0
LINE
  5
DDD
330
D
100
AcDbEntity
 67
     1
  8
AM_VIS
100
AcDbLine
 10
89.41425952622807
 20
84.64844310121694
 30
0.0
 11
89.54759285956141
 21
85.6484431012169
 31
0.0
  0
LINE
  5
DDE
330
D
100
AcDbEntity
 67
     1
  8
AM_VIS
100
AcDbLine
 10
69.41425952622807
 20
84.64844310121694
 30
0.0
 11
69.28092619289476
 21
85.6484431012169
 31
0.0
  0
LINE
  5
DDF
330
D
100
AcDbEntity
 67
     1
  8
AM_VIS
100
AcDbLine
 10
89.41425952622813
 20
84.64844310121694
 30
0.0
 11
69.41425952622814
 21
84.64844310121694
 31
0.0
  0
LINE
  5
DE0
330
D
100
AcDbEntity
 67
     1
  8
AM_VIS
100
AcDbLine
 10
70.44433490400797
 20
236.6484431012168
 30
0.0
 11
70.44433490400797
 21
235.6484431012169
 31
0.0
  0
LINE
  5
DE1
330
D
100
AcDbEntity
 67
     1
  8
AM_VIS
100
AcDbLine
 10
82.38418414928743
 20
235.6484431012169
 30
0.0
 11
82.38418414928743
 21
236.6484431012168
 31
0.0
  0
LINE
  5
DE2
330
D
100
AcDbEntity
 67
     1
  8
AM_VIS
100
AcDbLine
 10
81.378233196922
 20
237.6485479388427
 30
0.0
 11
82.38426321753951
 21
236.6485226442401
 31
0.0
  0
LINE
  5
DE3
330
D
100
AcDbEntity
 67
     1
  8
AM_VIS
100
AcDbLine
 10
70.44425583575582
 20
236.6485226442402
 30
0.0
 11
71.45028585637345
 21
237.6485479388428
 31
0.0
  0
LINE
  5
DE4
330
D
100
AcDbEntity
 67
     1
  8
AM_VIS
100
AcDbLine
 10
82.41425952664769
 20
229.6484431012169
 30
0.0
 11
82.41425952664769
 21
235.6484431012169
 31
0.0
  0
LINE
  5
DE5
330
D
100
AcDbEntity
 67
     1
  8
AM_VIS
100
AcDbLine
 10
70.4142595266477
 20
229.6484431012169
 30
0.0
 11
70.4142595266477
 21
235.6484431012169
 31
0.0
  0
LINE
  5
DE6
330
D
100
AcDbEntity
 67
     1
  8
AM_VIS
100
AcDbLine
 10
82.38418414928743
 20
235.6484431012169
 30
0.0
 11
82.41425952664769
 21
235.6484431012169
 31
0.0
  0
LINE
  5
DE7
330
D
100
AcDbEntity
 67
     1
  8
AM_VIS
100
AcDbLine
 10
70.4142595266477
 20
235.6484431012169
 30
0.0
 11
70.44433490400797
 21
235.6484431012169
 31
0.0
  0
LINE
  5
DE8
330
D
100
AcDbEntity
 67
     1
  8
AM_VIS
100
AcDbLine
 10
71.45039006825135
 20
237.6484431012169
 30
0.0
 11
81.37812898504405
 21
237.6484431012169
 31
0.0
  0
LINE
  5
DE9
330
D
100
AcDbEntity
 67
     1
  8
AM_VIS
100
AcDbLine
 10
82.38418414928743
 20
236.6484431012168
 30
0.0
 11
70.44433490400797
 21
236.6484431012168
 31
0.0
  0
ARC
  5
DEA
330
D
100
AcDbEntity
 67
     1
  8
AM_VIS
100
AcDbCircle
 10
95.87926606327107
 20
231.4699684414174
 30
0.0
 40
0.4797525847240176
100
AcDbArc
 50
21.83987726172874
 51
85.81709415277648
  0
LINE
  5
DEB
330
D
100
AcDbEntity
 67
     1
  8
AM_VIS
100
AcDbLine
 10
67.67187017596274
 20
177.8115202486784
 30
0.0
 11
67.91383844870285
 21
175.6483959992524
 31
0.0
  0
LINE
  5
DEC
330
D
100
AcDbEntity
 67
     1
  8
AM_VIS
100
AcDbLine
 10
90.91468060375325
 20
175.6483959992524
 30
0.0
 11
91.15664887649336
 21
177.8115202486784
 31
0.0
  0
LINE
  5
DED
330
D
100
AcDbEntity
 67
     1
  8
AM_VIS
100
AcDbLine
 10
105.6114202516506
 20
175.6484302005132
 30
0.0
 11
105.9142826117864
 21
176.1995918355756
 31
0.0
  0
LINE
  5
DEE
330
D
100
AcDbEntity
 67
     1
  8
AM_VIS
100
AcDbLine
 10
52.91423644066992
 20
176.1995918355756
 30
0.0
 11
53.21709880080573
 21
175.6484302005132
 31
0.0
  0
LINE
  5
DEF
330
D
100
AcDbEntity
 67
     1
  8
AM_VIS
100
AcDbLine
 10
70.41425952622808
 20
175.6484431012169
 30
0.0
 11
70.41425952622808
 21
177.6484431012169
 31
0.0
  0
LINE
  5
DF0
330
D
100
AcDbEntity
 67
     1
  8
AM_VIS
100
AcDbLine
 10
88.41425952622808
 20
177.6484431012169
 30
0.0
 11
88.41425952622808
 21
175.6484431012169
 31
0.0
  0
LINE
  5
DF1
330
D
100
AcDbEntity
 67
     1
  8
AM_VIS
100
AcDbLine
 10
52.91425952622808
 20
201.6484431012169
 30
0.0
 11
54.66425952622808
 21
201.6484431012169
 31
0.0
  0
LINE
  5
DF2
330
D
100
AcDbEntity
 67
     1
  8
AM_VIS
100
AcDbLine
 10
52.91425952622808
 20
217.6484431012168
 30
0.0
 11
54.66425952622808
 21
217.6484431012168
 31
0.0
  0
LINE
  5
DF3
330
D
100
AcDbEntity
 67
     1
  8
AM_VIS
100
AcDbLine
 10
55.91425952622813
 20
199.6484431012168
 30
0.0
 11
54.66425952622813
 21
201.6484431012167
 31
0.0
  0
LINE
  5
DF4
330
D
100
AcDbEntity
 67
     1
  8
AM_VIS
100
AcDbLine
 10
54.66425952622808
 20
201.6484431012167
 30
0.0
 11
54.66425952622808
 21
217.6484431012168
 31
0.0
  0
LINE
  5
DF5
330
D
100
AcDbEntity
 67
     1
  8
AM_VIS
100
AcDbLine
 10
54.66425952622808
 20
217.6484431012168
 30
0.0
 11
55.91425952622813
 21
219.6484431012168
 31
0.0
  0
LINE
  5
DF6
330
D
100
AcDbEntity
 67
     1
  8
AM_VIS
100
AcDbLine
 10
105.9142595262281
 20
217.6484431012168
 30
0.0
 11
104.164259526228
 21
217.6484431012168
 31
0.0
  0
LINE
  5
DF7
330
D
100
AcDbEntity
 67
     1
  8
AM_VIS
100
AcDbLine
 10
105.9142595262281
 20
201.6484431012169
 30
0.0
 11
104.164259526228
 21
201.6484431012169
 31
0.0
  0
LINE
  5
DF8
330
D
100
AcDbEntity
 67
     1
  8
AM_VIS
100
AcDbLine
 10
104.164259526228
 20
217.6484431012168
 30
0.0
 11
104.164259526228
 21
201.6484431012169
 31
0.0
  0
LINE
  5
DF9
330
D
100
AcDbEntity
 67
     1
  8
AM_VIS
100
AcDbLine
 10
104.164259526228
 20
201.6484431012169
 30
0.0
 11
102.9142595262281
 21
199.6484431012169
 31
0.0
  0
LINE
  5
DFA
330
D
100
AcDbEntity
 67
     1
  8
AM_VIS
100
AcDbLine
 10
102.9142595262281
 20
219.6484431012168
 30
0.0
 11
104.1642595262281
 21
217.648443101217
 31
0.0
  0
LINE
  5
DFB
330
D
100
AcDbEntity
 67
     1
  8
AM_VIS
100
AcDbLine
 10
105.9142595262281
 20
201.648443101217
 30
0.0
 11
105.9142595262281
 21
199.6484431012171
 31
0.0
  0
LINE
  5
DFC
330
D
100
AcDbEntity
 67
     1
  8
AM_VIS
100
AcDbLine
 10
105.9142595262281
 20
217.6484431012168
 30
0.0
 11
105.9142595262281
 21
201.6484431012169
 31
0.0
  0
LINE
  5
DFD
330
D
100
AcDbEntity
 67
     1
  8
AM_VIS
100
AcDbLine
 10
105.9142595262281
 20
219.6484431012166
 30
0.0
 11
105.9142595262281
 21
217.6484431012168
 31
0.0
  0
LINE
  5
DFE
330
D
100
AcDbEntity
 67
     1
  8
AM_VIS
100
AcDbLine
 10
52.91425952622808
 20
217.6484431012168
 30
0.0
 11
52.91425952622813
 21
219.6484431012166
 31
0.0
  0
LINE
  5
DFF
330
D
100
AcDbEntity
 67
     1
  8
AM_VIS
100
AcDbLine
 10
52.91425952622808
 20
201.6484431012169
 30
0.0
 11
52.91425952622808
 21
217.6484431012168
 31
0.0
  0
LINE
  5
E00
330
D
100
AcDbEntity
 67
     1
  8
AM_VIS
100
AcDbLine
 10
52.91425952622813
 20
199.648443101217
 30
0.0
 11
52.91425952622813
 21
201.648443101217
 31
0.0
  0
LINE
  5
E01
330
D
100
AcDbEntity
 67
     1
  8
AM_VIS
100
AcDbLine
 10
70.04042115579903
 20
230.0484431012169
 30
0.0
 11
70.28966244942876
 21
230.0484431012169
 31
0.0
  0
LINE
  5
E02
330
D
100
AcDbEntity
 67
     1
  8
AM_VIS
100
AcDbLine
 10
70.28966244942876
 20
230.0484431012169
 30
0.0
 11
70.4142595266477
 21
230.0484431012169
 31
0.0
  0
LINE
  5
E03
330
D
100
AcDbEntity
 67
     1
  8
AM_VIS
100
AcDbLine
 10
67.72255857176673
 20
230.0484431012169
 30
0.0
 11
67.72386179889611
 21
230.0484431012169
 31
0.0
  0
LINE
  5
E04
330
D
100
AcDbEntity
 67
     1
  8
AM_VIS
100
AcDbLine
 10
67.72386179889611
 20
229.6484431012169
 30
0.0
 11
67.72386179889611
 21
230.0484431012169
 31
0.0
  0
LINE
  5
E05
330
D
100
AcDbEntity
 67
     1
  8
AM_VIS
100
AcDbLine
 10
67.72386179889611
 20
230.0484431012169
 30
0.0
 11
68.25003786322554
 21
230.0484431012169
 31
0.0
  0
LINE
  5
E06
330
D
100
AcDbEntity
 67
     1
  8
AM_VIS
100
AcDbLine
 10
68.25003786322554
 20
230.0484431012169
 30
0.0
 11
69.2802352102284
 21
230.0484431012169
 31
0.0
  0
LINE
  5
E07
330
D
100
AcDbEntity
 67
     1
  8
AM_VIS
100
AcDbLine
 10
69.2802352102284
 20
229.6484431012169
 30
0.0
 11
69.2802352102284
 21
230.0484431012169
 31
0.0
  0
LINE
  5
E08
330
D
100
AcDbEntity
 67
     1
  8
AM_VIS
100
AcDbLine
 10
69.2802352102284
 20
230.0484431012169
 30
0.0
 11
70.1775038672954
 21
230.0484431012169
 31
0.0
  0
LINE
  5
E09
330
D
100
AcDbEntity
 67
     1
  8
AM_VIS
100
AcDbLine
 10
70.1775038672954
 20
230.0484431012169
 30
0.0
 11
70.41425952664775
 21
230.0484431012169
 31
0.0
  0
LINE
  5
E0A
330
D
100
AcDbEntity
 67
     1
  8
AM_VIS
100
AcDbLine
 10
69.17084597580196
 20
230.0484431012169
 30
0.0
 11
69.47824357127865
 21
230.0484431012169
 31
0.0
  0
LINE
  5
E0B
330
D
100
AcDbEntity
 67
     1
  8
AM_VIS
100
AcDbLine
 10
69.47824357127865
 20
230.0484431012169
 30
0.0
 11
69.78287181904829
 21
230.0484431012169
 31
0.0
  0
LINE
  5
E0C
330
D
100
AcDbEntity
 67
     1
  8
AM_VIS
100
AcDbLine
 10
58.1156124800653
 20
229.6484431012169
 30
0.0
 11
52.91425952622813
 21
229.6484431012169
 31
0.0
  0
LINE
  5
E0D
330
D
100
AcDbEntity
 67
     1
  8
AM_VIS
100
AcDbLine
 10
63.46296044249266
 20
229.6484431012169
 30
0.0
 11
59.43631912994857
 21
229.6484431012169
 31
0.0
  0
LINE
  5
E0E
330
D
100
AcDbEntity
 67
     1
  8
AM_VIS
100
AcDbLine
 10
87.4413187106639
 20
229.6484431012169
 30
0.0
 11
71.38720034179221
 21
229.6484431012169
 31
0.0
  0
LINE
  5
E0F
330
D
100
AcDbEntity
 67
     1
  8
AM_VIS
100
AcDbLine
 10
99.39219992250764
 20
229.6484431012169
 30
0.0
 11
95.36555860996349
 21
229.6484431012169
 31
0.0
  0
LINE
  5
E10
330
D
100
AcDbEntity
 67
     1
  8
AM_VIS
100
AcDbLine
 10
105.9142595262281
 20
229.6484431012169
 30
0.0
 11
100.7129065723909
 21
229.6484431012169
 31
0.0
  0
LINE
  5
E11
330
D
100
AcDbEntity
 67
     1
  8
AM_VIS
100
AcDbLine
 10
70.41425952622808
 20
177.6484431012169
 30
0.0
 11
88.41425952622808
 21
177.6484431012169
 31
0.0
  0
ELLIPSE
  5
E12
330
D
100
AcDbEntity
 67
     1
  8
AM_VIS
100
AcDbEllipse
 10
69.22848513249642
 20
164.6869046396784
 30
0.0
 11
-0.0000000000000383
 21
13.46153846153844
 31
0.0
210
0.0
220
0.0
230
1.0
 40
0.5200000000000055
 41
0.0000000000000062
 42
0.2241884952784505
  0
ARC
  5
E13
330
D
100
AcDbEntity
 67
     1
  8
AM_VIS
100
AcDbCircle
 10
65.91736336504164
 20
173.4163236953809
 30
0.0
 40
4.732639982687105
100
AcDbArc
 50
68.23435583881764
 51
89.15016952064636
  0
LINE
  5
E14
330
D
100
AcDbEntity
 67
     1
  8
AM_VIS
100
AcDbLine
 10
89.6000339199598
 20
178.1484431012169
 30
0.0
 11
69.2284851324963
 21
178.1484431012169
 31
0.0
  0
ARC
  5
E15
330
D
100
AcDbEntity
 67
     1
  8
AM_VIS
100
AcDbCircle
 10
92.91115568741464
 20
173.4163236953801
 30
0.0
 40
4.732639982687919
100
AcDbArc
 50
90.84983047935528
 51
111.7656441611808
  0
ELLIPSE
  5
E16
330
D
100
AcDbEntity
 67
     1
  8
AM_VIS
100
AcDbEllipse
 10
89.60003391995986
 20
164.6869046396784
 30
0.0
 11
0.0000000000000011
 21
13.46153846153844
 31
0.0
210
0.0
220
0.0
230
1.0
 40
0.5199999999999995
 41
-0.2241884952784339
 42
0.0000000000000118
  0
LINE
  5
E17
330
D
100
AcDbEntity
 67
     1
  8
AM_VIS
100
AcDbLine
 10
89.60003391995986
 20
189.1484431012169
 30
0.0
 11
69.22848513249636
 21
189.1484431012169
 31
0.0
  0
ARC
  5
E18
330
D
100
AcDbEntity
 67
     1
  8
AM_VIS
100
AcDbCircle
 10
105.0324638039334
 20
188.8141665381829
 30
0.0
 40
0.7827040405504353
100
AcDbArc
 50
1.124568389007435
 51
54.13168360728157
  0
LINE
  5
E19
330
D
100
AcDbEntity
 67
     1
  8
AM_VIS
100
AcDbLine
 10
105.9142595262281
 20
226.2484431012169
 30
0.0
 11
105.9142595262281
 21
228.6484431012169
 31
0.0
  0
LINE
  5
E1A
330
D
100
AcDbEntity
 67
     1
  8
AM_VIS
100
AcDbLine
 10
103.8142595262282
 20
225.8484431012169
 30
0.0
 11
105.9142595262281
 21
226.2484431012169
 31
0.0
  0
LINE
  5
E1B
330
D
100
AcDbEntity
 67
     1
  8
AM_VIS
100
AcDbLine
 10
103.8142595262282
 20
222.4484431012169
 30
0.0
 11
103.8142595262282
 21
225.8484431012169
 31
0.0
  0
LINE
  5
E1C
330
D
100
AcDbEntity
 67
     1
  8
AM_VIS
100
AcDbLine
 10
105.9142595262281
 20
222.0484431012168
 30
0.0
 11
103.8142595262282
 21
222.4484431012168
 31
0.0
  0
LINE
  5
E1D
330
D
100
AcDbEntity
 67
     1
  8
AM_VIS
100
AcDbLine
 10
105.9142595262281
 20
219.6484431012168
 30
0.0
 11
105.9142595262281
 21
222.0484431012169
 31
0.0
  0
LINE
  5
E1E
330
D
100
AcDbEntity
 67
     1
  8
AM_VIS
100
AcDbLine
 10
102.9142595262281
 20
219.6484431012168
 30
0.0
 11
105.9142595262281
 21
219.6484431012168
 31
0.0
  0
LINE
  5
E1F
330
D
100
AcDbEntity
 67
     1
  8
AM_VIS
100
AcDbLine
 10
102.9142595262281
 20
199.6484431012168
 30
0.0
 11
102.9142595262281
 21
219.6484431012168
 31
0.0
  0
LINE
  5
E20
330
D
100
AcDbEntity
 67
     1
  8
AM_VIS
100
AcDbLine
 10
105.9142595262281
 20
199.648443101217
 30
0.0
 11
102.9142595262281
 21
199.648443101217
 31
0.0
  0
LINE
  5
E21
330
D
100
AcDbEntity
 67
     1
  8
AM_VIS
100
AcDbLine
 10
105.9142595262281
 20
197.2484431012168
 30
0.0
 11
105.9142595262281
 21
199.6484431012168
 31
0.0
  0
LINE
  5
E22
330
D
100
AcDbEntity
 67
     1
  8
AM_VIS
100
AcDbLine
 10
103.8142595262281
 20
196.8484431012169
 30
0.0
 11
105.9142595262281
 21
197.2484431012168
 31
0.0
  0
LINE
  5
E23
330
D
100
AcDbEntity
 67
     1
  8
AM_VIS
100
AcDbLine
 10
103.8142595262282
 20
193.4484431012169
 30
0.0
 11
103.8142595262282
 21
196.8484431012169
 31
0.0
  0
LINE
  5
E24
330
D
100
AcDbEntity
 67
     1
  8
AM_VIS
100
AcDbLine
 10
105.9142595262282
 20
193.0484431012169
 30
0.0
 11
103.8142595262282
 21
193.4484431012169
 31
0.0
  0
LINE
  5
E25
330
D
100
AcDbEntity
 67
     1
  8
AM_VIS
100
AcDbLine
 10
105.8150170865709
 20
188.8295280130741
 30
0.0
 11
105.8150170865709
 21
189.1484431012169
 31
0.0
  0
LINE
  5
E26
330
D
100
AcDbEntity
 67
     1
  8
AM_VIS
100
AcDbLine
 10
55.0142595262281
 20
193.4484431012169
 30
0.0
 11
52.91425952622813
 21
193.0484431012169
 31
0.0
  0
LINE
  5
E27
330
D
100
AcDbEntity
 67
     1
  8
AM_VIS
100
AcDbLine
 10
55.0142595262281
 20
196.8484431012169
 30
0.0
 11
55.0142595262281
 21
193.4484431012169
 31
0.0
  0
LINE
  5
E28
330
D
100
AcDbEntity
 67
     1
  8
AM_VIS
100
AcDbLine
 10
52.91425952622813
 20
197.2484431012168
 30
0.0
 11
55.0142595262281
 21
196.8484431012169
 31
0.0
  0
LINE
  5
E29
330
D
100
AcDbEntity
 67
     1
  8
AM_VIS
100
AcDbLine
 10
52.91425952622813
 20
197.2484431012168
 30
0.0
 11
52.91425952622813
 21
199.6484431012168
 31
0.0
  0
LINE
  5
E2A
330
D
100
AcDbEntity
 67
     1
  8
AM_VIS
100
AcDbLine
 10
55.91425952622813
 20
199.6484431012168
 30
0.0
 11
52.91425952622813
 21
199.6484431012168
 31
0.0
  0
LINE
  5
E2B
330
D
100
AcDbEntity
 67
     1
  8
AM_VIS
100
AcDbLine
 10
55.91425952622813
 20
219.6484431012168
 30
0.0
 11
55.91425952622813
 21
199.6484431012168
 31
0.0
  0
LINE
  5
E2C
330
D
100
AcDbEntity
 67
     1
  8
AM_VIS
100
AcDbLine
 10
52.91425952622813
 20
219.6484431012168
 30
0.0
 11
55.91425952622813
 21
219.6484431012168
 31
0.0
  0
LINE
  5
E2D
330
D
100
AcDbEntity
 67
     1
  8
AM_VIS
100
AcDbLine
 10
52.91425952622813
 20
219.6484431012168
 30
0.0
 11
52.91425952622813
 21
222.0484431012169
 31
0.0
  0
LINE
  5
E2E
330
D
100
AcDbEntity
 67
     1
  8
AM_VIS
100
AcDbLine
 10
55.01425952622816
 20
222.4484431012169
 30
0.0
 11
52.91425952622813
 21
222.0484431012169
 31
0.0
  0
LINE
  5
E2F
330
D
100
AcDbEntity
 67
     1
  8
AM_VIS
100
AcDbLine
 10
55.0142595262281
 20
225.8484431012169
 30
0.0
 11
55.0142595262281
 21
222.4484431012168
 31
0.0
  0
LINE
  5
E30
330
D
100
AcDbEntity
 67
     1
  8
AM_VIS
100
AcDbLine
 10
52.91425952622813
 20
226.2484431012169
 30
0.0
 11
55.0142595262281
 21
225.8484431012169
 31
0.0
  0
LINE
  5
E31
330
D
100
AcDbEntity
 67
     1
  8
AM_VIS
100
AcDbLine
 10
52.91425952622813
 20
226.2484431012169
 30
0.0
 11
52.91425952622813
 21
228.6484431012169
 31
0.0
  0
ARC
  5
E32
330
D
100
AcDbEntity
 67
     1
  8
AM_VIS
100
AcDbCircle
 10
53.79645152998671
 20
188.8139591194788
 30
0.0
 40
0.7831043419563554
100
AcDbArc
 50
125.8829202070726
 51
178.8608277966428
  0
LINE
  5
E33
330
D
100
AcDbEntity
 67
     1
  8
AM_VIS
100
AcDbLine
 10
53.01350196588533
 20
189.1484431012169
 30
0.0
 11
53.01350196588533
 21
188.8295280130741
 31
0.0
  0
LINE
  5
E34
330
D
100
AcDbEntity
 67
     1
  8
AM_VIS
100
AcDbLine
 10
105.8150170865709
 20
189.1484431012169
 30
0.0
 11
105.9142595262281
 21
189.1484431012169
 31
0.0
  0
LINE
  5
E35
330
D
100
AcDbEntity
 67
     1
  8
AM_VIS
100
AcDbLine
 10
52.91425952622813
 20
189.1484431012169
 30
0.0
 11
53.01350196588533
 21
189.1484431012169
 31
0.0
  0
LINE
  5
E36
330
D
100
AcDbEntity
 67
     1
  8
AM_VIS
100
AcDbLine
 10
52.91425952622813
 20
189.1484431012169
 30
0.0
 11
52.91425952622813
 21
193.0484431012169
 31
0.0
  0
LINE
  5
E37
330
D
100
AcDbEntity
 67
     1
  8
AM_VIS
100
AcDbLine
 10
52.91425952622813
 20
178.1484431012169
 30
0.0
 11
52.91425952622813
 21
189.1484431012169
 31
0.0
  0
LINE
  5
E38
330
D
100
AcDbEntity
 67
     1
  8
AM_VIS
100
AcDbLine
 10
52.91425952622813
 20
178.1484431012169
 30
0.0
 11
52.91425952622813
 21
176.1996045210497
 31
0.0
  0
LINE
  5
E39
330
D
100
AcDbEntity
 67
     1
  8
AM_VIS
100
AcDbLine
 10
52.91423644067015
 20
176.1995918355756
 30
0.0
 11
53.21709880080584
 21
175.6484302005132
 31
0.0
  0
LINE
  5
E3A
330
D
100
AcDbEntity
 67
     1
  8
AM_VIS
100
AcDbLine
 10
67.91425952622802
 20
175.6484431012169
 30
0.0
 11
70.41425952622808
 21
175.6484431012169
 31
0.0
  0
LINE
  5
E3B
330
D
100
AcDbEntity
 67
     1
  8
AM_VIS
100
AcDbLine
 10
88.41425952622808
 20
175.6484431012169
 30
0.0
 11
90.91425952622818
 21
175.6484431012169
 31
0.0
  0
LINE
  5
E3C
330
D
100
AcDbEntity
 67
     1
  8
AM_VIS
100
AcDbLine
 10
105.9142595262281
 20
178.1484431012169
 30
0.0
 11
105.9142595262281
 21
176.1996045210496
 31
0.0
  0
LINE
  5
E3D
330
D
100
AcDbEntity
 67
     1
  8
AM_VIS
100
AcDbLine
 10
105.9142595262281
 20
189.1484431012169
 30
0.0
 11
105.9142595262281
 21
178.1484431012169
 31
0.0
  0
LINE
  5
E3E
330
D
100
AcDbEntity
 67
     1
  8
AM_VIS
100
AcDbLine
 10
105.9142595262281
 20
189.1484431012169
 30
0.0
 11
105.9142595262281
 21
193.0484431012169
 31
0.0
  0
LINE
  5
E3F
330
D
100
AcDbEntity
 67
     1
  8
AM_VIS
100
AcDbLine
 10
105.6114202516505
 20
175.6484302005132
 30
0.0
 11
105.9142826117863
 21
176.1995918355756
 31
0.0
  0
LINE
  5
E40
330
D
100
AcDbEntity
 67
     1
  8
AM_VIS
100
AcDbLine
 10
99.41425952664781
 20
229.6484431012169
 30
0.0
 11
99.41425952664781
 21
231.6484431012169
 31
0.0
  0
LINE
  5
E41
330
D
100
AcDbEntity
 67
     1
  8
AM_VIS
100
AcDbLine
 10
67.7225585717668
 20
229.6484431012169
 30
0.0
 11
67.7225585717668
 21
230.0484431012169
 31
0.0
  0
LINE
  5
E42
330
D
100
AcDbEntity
 67
     1
  8
AM_VIS
100
AcDbLine
 10
52.91425952622813
 20
178.1484431012169
 30
0.0
 11
65.98755691630902
 21
178.1484431012169
 31
0.0
  0
LINE
  5
E43
330
D
100
AcDbEntity
 67
     1
  8
AM_VIS
100
AcDbLine
 10
82.41425952664769
 20
231.6484431012169
 30
0.0
 11
99.41425952664781
 21
231.6484431012169
 31
0.0
  0
LINE
  5
E44
330
D
100
AcDbEntity
 67
     1
  8
AM_VIS
100
AcDbLine
 10
52.91425952622813
 20
228.6484431012169
 30
0.0
 11
52.91425952622813
 21
229.6484431012169
 31
0.0
  0
LINE
  5
E45
330
D
100
AcDbEntity
 67
     1
  8
AM_VIS
100
AcDbLine
 10
59.43631912994857
 20
229.6484431012169
 30
0.0
 11
58.1156124800653
 21
229.6484431012169
 31
0.0
  0
LINE
  5
E46
330
D
100
AcDbEntity
 67
     1
  8
AM_VIS
100
AcDbLine
 10
63.46296044249266
 20
229.6484431012169
 30
0.0
 11
71.38720034179221
 21
229.6484431012169
 31
0.0
  0
LINE
  5
E47
330
D
100
AcDbEntity
 67
     1
  8
AM_VIS
100
AcDbLine
 10
87.44131871066395
 20
229.6484431012169
 30
0.0
 11
95.36555860996349
 21
229.6484431012169
 31
0.0
  0
LINE
  5
E48
330
D
100
AcDbEntity
 67
     1
  8
AM_VIS
100
AcDbLine
 10
100.7129065723909
 20
229.6484431012169
 30
0.0
 11
99.39219992250764
 21
229.6484431012169
 31
0.0
  0
LINE
  5
E49
330
D
100
AcDbEntity
 67
     1
  8
AM_VIS
100
AcDbLine
 10
105.9142595262281
 20
229.6484431012169
 30
0.0
 11
105.9142595262281
 21
228.6484431012169
 31
0.0
  0
LINE
  5
E4A
330
D
100
AcDbEntity
 67
     1
  8
AM_VIS
100
AcDbLine
 10
105.9142595262281
 20
178.1484431012169
 30
0.0
 11
92.84096213614715
 21
178.1484431012169
 31
0.0
  0
LINE
  5
E4B
330
D
100
AcDbEntity
 67
     1
  8
AM_VIS
100
AcDbLine
 10
92.60946726356236
 20
189.1484431012169
 30
0.0
 11
105.1234018641981
 21
189.1484431012169
 31
0.0
  0
LINE
  5
E4C
330
D
100
AcDbEntity
 67
     1
  8
AM_VIS
100
AcDbLine
 10
89.60003391995986
 20
189.1484431012169
 30
0.0
 11
92.60946726356236
 21
189.1484431012169
 31
0.0
  0
LINE
  5
E4D
330
D
100
AcDbEntity
 67
     1
  8
AM_VIS
100
AcDbLine
 10
66.21905178889381
 20
189.1484431012169
 30
0.0
 11
69.22848513249636
 21
189.1484431012169
 31
0.0
  0
LINE
  5
E4E
330
D
100
AcDbEntity
 67
     1
  8
AM_VIS
100
AcDbLine
 10
53.70511718825816
 20
189.1484431012169
 30
0.0
 11
66.21905178889381
 21
189.1484431012169
 31
0.0
  0
LINE
  5
E4F
330
D
100
AcDbEntity
 67
     1
  8
AM_VIS
100
AcDbLine
 10
53.21712227804778
 20
175.6484431012169
 30
0.0
 11
67.91425952622796
 21
175.6484431012169
 31
0.0
  0
LINE
  5
E50
330
D
100
AcDbEntity
 67
     1
  8
AM_VIS
100
AcDbLine
 10
90.91425952622813
 20
175.6484431012169
 30
0.0
 11
105.6113967744085
 21
175.6484431012169
 31
0.0
  0
LINE
  5
E51
330
D
100
AcDbEntity
 67
     1
  8
AM_VIS
100
AcDbLine
 10
183.07482928367
 20
256.5484431012169
 30
0.0
 11
183.07482928367
 21
256.6484431012169
 31
0.0
  0
LINE
  5
E52
330
D
100
AcDbEntity
 67
     1
  8
AM_VIS
100
AcDbLine
 10
189.4608874312616
 20
252.7865628858652
 30
0.0
 11
189.4608874312616
 21
256.0865628858652
 31
0.0
  0
LINE
  5
E53
330
D
100
AcDbEntity
 67
     1
  8
AM_VIS
100
AcDbLine
 10
189.4608874312616
 20
256.0865628858652
 30
0.0
 11
188.6730412288518
 21
256.5484431012169
 31
0.0
  0
LINE
  5
E54
330
D
100
AcDbEntity
 67
     1
  8
AM_VIS
100
AcDbLine
 10
174.6887711360785
 20
256.0865628858652
 30
0.0
 11
174.6887711360785
 21
252.7865628858652
 31
0.0
  0
LINE
  5
E55
330
D
100
AcDbEntity
 67
     1
  8
AM_VIS
100
AcDbLine
 10
175.4766173384882
 20
256.5484431012169
 30
0.0
 11
174.6887711360785
 21
256.0865628858652
 31
0.0
  0
LINE
  5
E56
330
D
100
AcDbEntity
 67
     1
  8
AM_VIS
100
AcDbLine
 10
176.3294959602778
 20
256.0865628858652
 30
0.0
 11
176.3294959602778
 21
252.7865628858652
 31
0.0
  0
LINE
  5
E57
330
D
100
AcDbEntity
 67
     1
  8
AM_VIS
100
AcDbLine
 10
176.9423315147729
 20
256.5484431012169
 30
0.0
 11
176.3294959602778
 21
256.0865628858652
 31
0.0
  0
LINE
  5
E58
330
D
100
AcDbEntity
 67
     1
  8
AM_VIS
100
AcDbLine
 10
175.7788887244045
 20
256.5484431012169
 30
0.0
 11
175.7788887244045
 21
253.2484431012169
 31
0.0
  0
LINE
  5
E59
330
D
100
AcDbEntity
 67
     1
  8
AM_VIS
100
AcDbLine
 10
175.0271346277757
 20
252.7865628858652
 30
0.0
 11
175.0271346277757
 21
256.0865628858652
 31
0.0
  0
LINE
  5
E5A
330
D
100
AcDbEntity
 67
     1
  8
AM_VIS
100
AcDbLine
 10
175.0271346277757
 20
256.0865628858652
 30
0.0
 11
175.7788887244045
 21
256.5484431012169
 31
0.0
  0
LINE
  5
E5B
330
D
100
AcDbEntity
 67
     1
  8
AM_VIS
100
AcDbLine
 10
179.5096782087275
 20
256.0865628858652
 30
0.0
 11
179.5096782087275
 21
252.7865628858652
 31
0.0
  0
LINE
  5
E5C
330
D
100
AcDbEntity
 67
     1
  8
AM_VIS
100
AcDbLine
 10
179.7832943233881
 20
256.5484431012169
 30
0.0
 11
179.5096782087275
 21
256.0865628858652
 31
0.0
  0
LINE
  5
E5D
330
D
100
AcDbEntity
 67
     1
  8
AM_VIS
100
AcDbLine
 10
177.7681522987702
 20
256.5484431012169
 30
0.0
 11
177.7681522987702
 21
253.2484431012169
 31
0.0
  0
LINE
  5
E5E
330
D
100
AcDbEntity
 67
     1
  8
AM_VIS
100
AcDbLine
 10
177.253922211021
 20
252.7865628858652
 30
0.0
 11
177.253922211021
 21
256.0865628858652
 31
0.0
  0
LINE
  5
E5F
330
D
100
AcDbEntity
 67
     1
  8
AM_VIS
100
AcDbLine
 10
177.253922211021
 20
256.0865628858652
 30
0.0
 11
177.7681522987702
 21
256.5484431012169
 31
0.0
  0
LINE
  5
E60
330
D
100
AcDbEntity
 67
     1
  8
AM_VIS
100
AcDbLine
 10
183.377190616172
 20
256.0865628858652
 30
0.0
 11
183.377190616172
 21
252.7865628858652
 31
0.0
  0
LINE
  5
E61
330
D
100
AcDbEntity
 67
     1
  8
AM_VIS
100
AcDbLine
 10
183.2382720740385
 20
256.5484431012169
 30
0.0
 11
183.2382720740385
 21
253.2484431012169
 31
0.0
  0
LINE
  5
E62
330
D
100
AcDbEntity
 67
     1
  8
AM_VIS
100
AcDbLine
 10
183.2382720740385
 20
256.5484431012169
 30
0.0
 11
183.377190616172
 21
256.0865628858652
 31
0.0
  0
LINE
  5
E63
330
D
100
AcDbEntity
 67
     1
  8
AM_VIS
100
AcDbLine
 10
180.9113864933016
 20
256.5484431012169
 30
0.0
 11
180.9113864933016
 21
253.2484431012169
 31
0.0
  0
LINE
  5
E64
330
D
100
AcDbEntity
 67
     1
  8
AM_VIS
100
AcDbLine
 10
180.7724679511681
 20
252.7865628858652
 30
0.0
 11
180.7724679511681
 21
256.0865628858652
 31
0.0
  0
LINE
  5
E65
330
D
100
AcDbEntity
 67
     1
  8
AM_VIS
100
AcDbLine
 10
180.7724679511681
 20
256.0865628858652
 30
0.0
 11
180.9113864933016
 21
256.5484431012169
 31
0.0
  0
LINE
  5
E66
330
D
100
AcDbEntity
 67
     1
  8
AM_VIS
100
AcDbLine
 10
186.895736356319
 20
256.0865628858652
 30
0.0
 11
186.895736356319
 21
252.7865628858652
 31
0.0
  0
LINE
  5
E67
330
D
100
AcDbEntity
 67
     1
  8
AM_VIS
100
AcDbLine
 10
186.3815062685698
 20
256.5484431012169
 30
0.0
 11
186.3815062685698
 21
253.2484431012169
 31
0.0
  0
LINE
  5
E68
330
D
100
AcDbEntity
 67
     1
  8
AM_VIS
100
AcDbLine
 10
186.3815062685698
 20
256.5484431012169
 30
0.0
 11
186.895736356319
 21
256.0865628858652
 31
0.0
  0
LINE
  5
E69
330
D
100
AcDbEntity
 67
     1
  8
AM_VIS
100
AcDbLine
 10
184.6399803586125
 20
252.7865628858652
 30
0.0
 11
184.6399803586125
 21
256.0865628858652
 31
0.0
  0
LINE
  5
E6A
330
D
100
AcDbEntity
 67
     1
  8
AM_VIS
100
AcDbLine
 10
184.6399803586125
 20
256.0865628858652
 30
0.0
 11
184.366364243952
 21
256.5484431012169
 31
0.0
  0
LINE
  5
E6B
330
D
100
AcDbEntity
 67
     1
  8
AM_VIS
100
AcDbLine
 10
189.1225239395644
 20
256.0865628858652
 30
0.0
 11
189.1225239395644
 21
252.7865628858652
 31
0.0
  0
LINE
  5
E6C
330
D
100
AcDbEntity
 67
     1
  8
AM_VIS
100
AcDbLine
 10
188.3707698429357
 20
256.5484431012169
 30
0.0
 11
188.3707698429357
 21
253.2484431012169
 31
0.0
  0
LINE
  5
E6D
330
D
100
AcDbEntity
 67
     1
  8
AM_VIS
100
AcDbLine
 10
188.3707698429357
 20
256.5484431012169
 30
0.0
 11
189.1225239395644
 21
256.0865628858652
 31
0.0
  0
LINE
  5
E6E
330
D
100
AcDbEntity
 67
     1
  8
AM_VIS
100
AcDbLine
 10
187.8201626070624
 20
252.7865628858652
 30
0.0
 11
187.8201626070624
 21
256.0865628858652
 31
0.0
  0
LINE
  5
E6F
330
D
100
AcDbEntity
 67
     1
  8
AM_VIS
100
AcDbLine
 10
187.8201626070624
 20
256.0865628858652
 30
0.0
 11
187.2073270525673
 21
256.5484431012169
 31
0.0
  0
LINE
  5
E70
330
D
100
AcDbEntity
 67
     1
  8
AM_VIS
100
AcDbLine
 10
175.0271346277757
 20
252.7865628858652
 30
0.0
 11
175.7788887244045
 21
253.2484431012169
 31
0.0
  0
LINE
  5
E71
330
D
100
AcDbEntity
 67
     1
  8
AM_VIS
100
AcDbLine
 10
177.253922211021
 20
252.7865628858652
 30
0.0
 11
177.7681522987702
 21
253.2484431012169
 31
0.0
  0
LINE
  5
E72
330
D
100
AcDbEntity
 67
     1
  8
AM_VIS
100
AcDbLine
 10
180.7724679511681
 20
252.7865628858652
 30
0.0
 11
180.9113864933016
 21
253.2484431012169
 31
0.0
  0
LINE
  5
E73
330
D
100
AcDbEntity
 67
     1
  8
AM_VIS
100
AcDbLine
 10
183.2382720740385
 20
253.2484431012169
 30
0.0
 11
183.377190616172
 21
252.7865628858652
 31
0.0
  0
LINE
  5
E74
330
D
100
AcDbEntity
 67
     1
  8
AM_VIS
100
AcDbLine
 10
186.3815062685698
 20
253.2484431012169
 30
0.0
 11
186.895736356319
 21
252.7865628858652
 31
0.0
  0
LINE
  5
E75
330
D
100
AcDbEntity
 67
     1
  8
AM_VIS
100
AcDbLine
 10
188.3707698429357
 20
253.2484431012169
 30
0.0
 11
189.1225239395644
 21
252.7865628858652
 31
0.0
  0
LINE
  5
E76
330
D
100
AcDbEntity
 67
     1
  8
AM_VIS
100
AcDbLine
 10
187.07482928367
 20
256.5484431012169
 30
0.0
 11
187.07482928367
 21
256.6484431012169
 31
0.0
  0
LINE
  5
E77
330
D
100
AcDbEntity
 67
     1
  8
AM_VIS
100
AcDbLine
 10
189.57482928367
 20
245.2484431012169
 30
0.0
 11
189.57482928367
 21
252.7865628858652
 31
0.0
  0
LINE
  5
E78
330
D
100
AcDbEntity
 67
     1
  8
AM_VIS
100
AcDbLine
 10
174.57482928367
 20
245.2484431012169
 30
0.0
 11
174.57482928367
 21
252.7865628858652
 31
0.0
  0
LINE
  5
E79
330
D
100
AcDbEntity
 67
     1
  8
AM_VIS
100
AcDbLine
 10
188.7748292836701
 20
256.5484431012169
 30
0.0
 11
188.7748292836701
 21
256.4887691591
 31
0.0
  0
LINE
  5
E7A
330
D
100
AcDbEntity
 67
     1
  8
AM_VIS
100
AcDbLine
 10
189.4608874312616
 20
252.8523472450252
 30
0.0
 11
189.5748292836701
 21
252.7865628858652
 31
0.0
  0
LINE
  5
E7B
330
D
100
AcDbEntity
 67
     1
  8
AM_VIS
100
AcDbLine
 10
175.3748292836701
 20
256.5484431012169
 30
0.0
 11
175.3748292836701
 21
256.4887691591
 31
0.0
  0
LINE
  5
E7C
330
D
100
AcDbEntity
 67
     1
  8
AM_VIS
100
AcDbLine
 10
174.6887711360785
 20
252.8523472450252
 30
0.0
 11
174.57482928367
 21
252.7865628858652
 31
0.0
  0
LINE
  5
E7D
330
D
100
AcDbEntity
 67
     1
  8
AM_VIS
100
AcDbLine
 10
183.07482928367
 20
256.6484431012169
 30
0.0
 11
187.07482928367
 21
256.6484431012169
 31
0.0
  0
LINE
  5
E7E
330
D
100
AcDbEntity
 67
     1
  8
AM_VIS
100
AcDbLine
 10
189.57482928367
 20
245.2484431012169
 30
0.0
 11
174.57482928367
 21
245.2484431012169
 31
0.0
  0
LINE
  5
E7F
330
D
100
AcDbEntity
 67
     1
  8
AM_VIS
100
AcDbLine
 10
188.6730412288518
 20
256.5484431012169
 30
0.0
 11
188.7748292836701
 21
256.5484431012169
 31
0.0
  0
LINE
  5
E80
330
D
100
AcDbEntity
 67
     1
  8
AM_VIS
100
AcDbLine
 10
189.57482928367
 20
252.7865628858652
 30
0.0
 11
189.4608874312616
 21
252.7865628858652
 31
0.0
  0
LINE
  5
E81
330
D
100
AcDbEntity
 67
     1
  8
AM_VIS
100
AcDbLine
 10
187.8201626070624
 20
256.0865628858652
 30
0.0
 11
186.895736356319
 21
256.0865628858652
 31
0.0
  0
LINE
  5
E82
330
D
100
AcDbEntity
 67
     1
  8
AM_VIS
100
AcDbLine
 10
186.3815062685698
 20
256.5484431012169
 30
0.0
 11
187.2073270525673
 21
256.5484431012169
 31
0.0
  0
LINE
  5
E83
330
D
100
AcDbEntity
 67
     1
  8
AM_VIS
100
AcDbLine
 10
188.3707698429357
 20
256.5484431012169
 30
0.0
 11
188.6730412288518
 21
256.5484431012169
 31
0.0
  0
LINE
  5
E84
330
D
100
AcDbEntity
 67
     1
  8
AM_VIS
100
AcDbLine
 10
189.4608874312616
 20
256.0865628858652
 30
0.0
 11
189.1225239395644
 21
256.0865628858652
 31
0.0
  0
LINE
  5
E85
330
D
100
AcDbEntity
 67
     1
  8
AM_VIS
100
AcDbLine
 10
184.6399803586125
 20
256.0865628858652
 30
0.0
 11
183.377190616172
 21
256.0865628858652
 31
0.0
  0
LINE
  5
E86
330
D
100
AcDbEntity
 67
     1
  8
AM_VIS
100
AcDbLine
 10
183.2382720740385
 20
256.5484431012169
 30
0.0
 11
184.366364243952
 21
256.5484431012169
 31
0.0
  0
LINE
  5
E87
330
D
100
AcDbEntity
 67
     1
  8
AM_VIS
100
AcDbLine
 10
180.7724679511681
 20
256.0865628858652
 30
0.0
 11
179.5096782087275
 21
256.0865628858652
 31
0.0
  0
LINE
  5
E88
330
D
100
AcDbEntity
 67
     1
  8
AM_VIS
100
AcDbLine
 10
179.7832943233881
 20
256.5484431012169
 30
0.0
 11
180.9113864933016
 21
256.5484431012169
 31
0.0
  0
LINE
  5
E89
330
D
100
AcDbEntity
 67
     1
  8
AM_VIS
100
AcDbLine
 10
177.253922211021
 20
256.0865628858652
 30
0.0
 11
176.3294959602777
 21
256.0865628858652
 31
0.0
  0
LINE
  5
E8A
330
D
100
AcDbEntity
 67
     1
  8
AM_VIS
100
AcDbLine
 10
176.9423315147729
 20
256.5484431012169
 30
0.0
 11
177.7681522987702
 21
256.5484431012169
 31
0.0
  0
LINE
  5
E8B
330
D
100
AcDbEntity
 67
     1
  8
AM_VIS
100
AcDbLine
 10
175.0271346277757
 20
256.0865628858652
 30
0.0
 11
174.6887711360785
 21
256.0865628858652
 31
0.0
  0
LINE
  5
E8C
330
D
100
AcDbEntity
 67
     1
  8
AM_VIS
100
AcDbLine
 10
175.4766173384882
 20
256.5484431012169
 30
0.0
 11
175.7788887244045
 21
256.5484431012169
 31
0.0
  0
LINE
  5
E8D
330
D
100
AcDbEntity
 67
     1
  8
AM_VIS
100
AcDbLine
 10
175.3748292836701
 20
256.5484431012169
 30
0.0
 11
175.4766173384882
 21
256.5484431012169
 31
0.0
  0
LINE
  5
E8E
330
D
100
AcDbEntity
 67
     1
  8
AM_VIS
100
AcDbLine
 10
175.7788887244045
 20
256.5484431012169
 30
0.0
 11
176.9423315147729
 21
256.5484431012169
 31
0.0
  0
LINE
  5
E8F
330
D
100
AcDbEntity
 67
     1
  8
AM_VIS
100
AcDbLine
 10
177.7681522987702
 20
256.5484431012169
 30
0.0
 11
179.7832943233881
 21
256.5484431012169
 31
0.0
  0
LINE
  5
E90
330
D
100
AcDbEntity
 67
     1
  8
AM_VIS
100
AcDbLine
 10
180.9113864933016
 20
256.5484431012169
 30
0.0
 11
183.2382720740385
 21
256.5484431012169
 31
0.0
  0
LINE
  5
E91
330
D
100
AcDbEntity
 67
     1
  8
AM_VIS
100
AcDbLine
 10
184.366364243952
 20
256.5484431012169
 30
0.0
 11
186.3815062685698
 21
256.5484431012169
 31
0.0
  0
LINE
  5
E92
330
D
100
AcDbEntity
 67
     1
  8
AM_VIS
100
AcDbLine
 10
187.2073270525673
 20
256.5484431012169
 30
0.0
 11
188.3707698429357
 21
256.5484431012169
 31
0.0
  0
LINE
  5
E93
330
D
100
AcDbEntity
 67
     1
  8
AM_VIS
100
AcDbLine
 10
174.6887711360785
 20
252.7865628858652
 30
0.0
 11
174.57482928367
 21
252.7865628858652
 31
0.0
  0
LINE
  5
E94
330
D
100
AcDbEntity
 67
     1
  8
AM_VIS
100
AcDbLine
 10
176.3294959602778
 20
252.7865628858652
 30
0.0
 11
175.0271346277758
 21
252.7865628858652
 31
0.0
  0
LINE
  5
E95
330
D
100
AcDbEntity
 67
     1
  8
AM_VIS
100
AcDbLine
 10
175.7788887244045
 20
253.2484431012169
 30
0.0
 11
176.3294959602777
 21
253.2484431012169
 31
0.0
  0
LINE
  5
E96
330
D
100
AcDbEntity
 67
     1
  8
AM_VIS
100
AcDbLine
 10
179.5096782087275
 20
252.7865628858652
 30
0.0
 11
177.2539222110211
 21
252.7865628858652
 31
0.0
  0
LINE
  5
E97
330
D
100
AcDbEntity
 67
     1
  8
AM_VIS
100
AcDbLine
 10
177.7681522987702
 20
253.2484431012169
 30
0.0
 11
179.5096782087275
 21
253.2484431012169
 31
0.0
  0
LINE
  5
E98
330
D
100
AcDbEntity
 67
     1
  8
AM_VIS
100
AcDbLine
 10
183.377190616172
 20
252.7865628858652
 30
0.0
 11
180.7724679511681
 21
252.7865628858652
 31
0.0
  0
LINE
  5
E99
330
D
100
AcDbEntity
 67
     1
  8
AM_VIS
100
AcDbLine
 10
180.9113864933016
 20
253.2484431012169
 30
0.0
 11
183.2382720740385
 21
253.2484431012169
 31
0.0
  0
LINE
  5
E9A
330
D
100
AcDbEntity
 67
     1
  8
AM_VIS
100
AcDbLine
 10
186.895736356319
 20
252.7865628858652
 30
0.0
 11
184.6399803586125
 21
252.7865628858652
 31
0.0
  0
LINE
  5
E9B
330
D
100
AcDbEntity
 67
     1
  8
AM_VIS
100
AcDbLine
 10
184.6399803586125
 20
253.2484431012169
 30
0.0
 11
186.3815062685698
 21
253.2484431012169
 31
0.0
  0
LINE
  5
E9C
330
D
100
AcDbEntity
 67
     1
  8
AM_VIS
100
AcDbLine
 10
189.1225239395644
 20
252.7865628858652
 30
0.0
 11
187.8201626070624
 21
252.7865628858652
 31
0.0
  0
LINE
  5
E9D
330
D
100
AcDbEntity
 67
     1
  8
AM_VIS
100
AcDbLine
 10
187.8201626070624
 20
253.2484431012169
 30
0.0
 11
188.3707698429357
 21
253.2484431012169
 31
0.0
  0
LINE
  5
E9E
330
D
100
AcDbEntity
 67
     1
  8
AM_VIS
100
AcDbLine
 10
191.57482928367
 20
231.9484431012169
 30
0.0
 11
191.57482928367
 21
234.9484431012169
 31
0.0
  0
LINE
  5
E9F
330
D
100
AcDbEntity
 67
     1
  8
AM_VIS
100
AcDbLine
 10
191.07482928367
 20
234.9484431012169
 30
0.0
 11
182.57482928367
 21
234.9484431012169
 31
0.0
  0
LINE
  5
EA0
330
D
100
AcDbEntity
 67
     1
  8
AM_VIS
100
AcDbLine
 10
191.07482928367
 20
231.9484431012169
 30
0.0
 11
182.57482928367
 21
231.9484431012169
 31
0.0
  0
LINE
  5
EA1
330
D
100
AcDbEntity
 67
     1
  8
AM_VIS
100
AcDbLine
 10
181.57482928367
 20
234.9484431012169
 30
0.0
 11
173.07482928367
 21
234.9484431012169
 31
0.0
  0
LINE
  5
EA2
330
D
100
AcDbEntity
 67
     1
  8
AM_VIS
100
AcDbLine
 10
181.57482928367
 20
231.9484431012169
 30
0.0
 11
173.07482928367
 21
231.9484431012169
 31
0.0
  0
LINE
  5
EA3
330
D
100
AcDbEntity
 67
     1
  8
AM_VIS
100
AcDbLine
 10
172.57482928367
 20
234.9484431012169
 30
0.0
 11
172.57482928367
 21
231.9484431012169
 31
0.0
  0
LINE
  5
EA4
330
D
100
AcDbEntity
 67
     1
  8
AM_VIS
100
AcDbLine
 10
189.57482928367
 20
234.9484431012169
 30
0.0
 11
189.57482928367
 21
245.2484431012169
 31
0.0
  0
LINE
  5
EA5
330
D
100
AcDbEntity
 67
     1
  8
AM_VIS
100
AcDbLine
 10
174.57482928367
 20
234.9484431012169
 30
0.0
 11
174.57482928367
 21
245.2484431012169
 31
0.0
  0
LINE
  5
EA6
330
D
100
AcDbEntity
 67
     1
  8
AM_VIS
100
AcDbLine
 10
174.57482928367
 20
245.2484431012169
 30
0.0
 11
189.57482928367
 21
245.2484431012169
 31
0.0
  0
LINE
  5
EA7
330
D
100
AcDbEntity
 67
     1
  8
AM_VIS
100
AcDbLine
 10
191.07482928367
 20
234.9484431012169
 30
0.0
 11
191.57482928367
 21
234.9484431012169
 31
0.0
  0
LINE
  5
EA8
330
D
100
AcDbEntity
 67
     1
  8
AM_VIS
100
AcDbLine
 10
181.57482928367
 20
234.9484431012169
 30
0.0
 11
182.57482928367
 21
234.9484431012169
 31
0.0
  0
LINE
  5
EA9
330
D
100
AcDbEntity
 67
     1
  8
AM_VIS
100
AcDbLine
 10
182.57482928367
 20
231.9484431012169
 30
0.0
 11
181.57482928367
 21
231.9484431012169
 31
0.0
  0
LINE
  5
EAA
330
D
100
AcDbEntity
 67
     1
  8
AM_VIS
100
AcDbLine
 10
191.57482928367
 20
231.9484431012169
 30
0.0
 11
191.07482928367
 21
231.9484431012169
 31
0.0
  0
LINE
  5
EAB
330
D
100
AcDbEntity
 67
     1
  8
AM_VIS
100
AcDbLine
 10
173.07482928367
 20
231.9484431012169
 30
0.0
 11
172.57482928367
 21
231.9484431012169
 31
0.0
  0
LINE
  5
EAC
330
D
100
AcDbEntity
 67
     1
  8
AM_VIS
100
AcDbLine
 10
172.57482928367
 20
234.9484431012169
 30
0.0
 11
173.07482928367
 21
234.9484431012169
 31
0.0
  0
ARC
  5
EAD
330
D
100
AcDbEntity
 67
     1
  8
AM_VIS
100
AcDbCircle
 10
162.7806250741399
 20
91.27880887058958
 30
0.0
 40
1.500000058480389
100
AcDbArc
 50
180.5000010188191
 51
225.2499989175269
  0
ARC
  5
EAE
330
D
100
AcDbEntity
 67
     1
  8
AM_VIS
100
AcDbCircle
 10
172.7979649235033
 20
91.2158529839108
 30
0.0
 40
4.003878985514198
100
AcDbArc
 50
179.2863949080032
 51
194.4975014805243
  0
ARC
  5
EAF
330
D
100
AcDbEntity
 67
     1
  8
AM_VIS
100
AcDbCircle
 10
181.2478050387465
 20
91.21248364429431
 30
0.0
 40
6.671872385286093
100
AcDbArc
 50
351.3889509638656
 51
0.4571723938534619
  0
ARC
  5
EB0
330
D
100
AcDbEntity
 67
     1
  8
AM_VIS
100
AcDbCircle
 10
180.9018535450184
 20
91.21248364429892
 30
0.0
 40
6.671872385349199
100
AcDbArc
 50
179.5428276061888
 51
188.6110490360916
  0
ARC
  5
EB1
330
D
100
AcDbEntity
 67
     1
  8
AM_VIS
100
AcDbCircle
 10
199.3690336442947
 20
91.27880881374546
 30
0.0
 40
1.499999923256544
100
AcDbArc
 50
314.7499989561769
 51
359.5000011074723
  0
ARC
  5
EB2
330
D
100
AcDbEntity
 67
     1
  8
AM_VIS
100
AcDbCircle
 10
189.351693660009
 20
91.21585298393364
 30
0.0
 40
4.003878985703338
100
AcDbArc
 50
345.502498519839
 51
0.7136050916352412
  0
LINE
  5
EB3
330
D
100
AcDbEntity
 67
     1
  8
AM_VIS
100
AcDbLine
 10
187.9196158831487
 20
91.26571882076891
 30
0.0
 11
188.0307063301529
 21
177.6484428870608
 31
0.0
  0
LINE
  5
EB4
330
D
100
AcDbEntity
 67
     1
  8
AM_VIS
100
AcDbLine
 10
188.8248292918508
 20
177.1484431012169
 30
0.0
 11
188.8248292918508
 21
177.6484431012169
 31
0.0
  0
LINE
  5
EB5
330
D
100
AcDbEntity
 67
     1
  8
AM_VIS
100
AcDbLine
 10
193.3554917549196
 20
91.26571847323106
 30
0.0
 11
193.5391193325463
 21
175.6484425467704
 31
0.0
  0
LINE
  5
EB6
330
D
100
AcDbEntity
 67
     1
  8
AM_VIS
100
AcDbLine
 10
200.8689764524135
 20
91.26571904016007
 30
0.0
 11
201.5181046512111
 21
175.6484431012168
 31
0.0
  0
LINE
  5
EB7
330
D
100
AcDbEntity
 67
     1
  8
AM_VIS
100
AcDbLine
 10
160.6315539324907
 20
175.6484431012169
 30
0.0
 11
161.2806821312882
 21
91.26571904016001
 31
0.0
  0
LINE
  5
EB8
330
D
100
AcDbEntity
 67
     1
  8
AM_VIS
100
AcDbLine
 10
174.1189522535487
 20
177.6484428870608
 30
0.0
 11
174.2300427005529
 21
91.265718820769
 31
0.0
  0
LINE
  5
EB9
330
D
100
AcDbEntity
 67
     1
  8
AM_VIS
100
AcDbLine
 10
168.6105392511554
 20
175.6484425467704
 30
0.0
 11
168.794166828782
 21
91.26571847323109
 31
0.0
  0
LINE
  5
EBA
330
D
100
AcDbEntity
 67
     1
  8
AM_VIS
100
AcDbLine
 10
173.3248292918508
 20
177.6484431012169
 30
0.0
 11
173.3248292918508
 21
177.1484431012169
 31
0.0
  0
LINE
  5
EBB
330
D
100
AcDbEntity
 67
     1
  8
AM_VIS
100
AcDbLine
 10
190.0748292918508
 20
177.1484431012169
 30
0.0
 11
188.8248292918508
 21
177.1484431012169
 31
0.0
  0
LINE
  5
EBC
330
D
100
AcDbEntity
 67
     1
  8
AM_VIS
100
AcDbLine
 10
173.3248292918508
 20
177.1484431012169
 30
0.0
 11
172.0748292918508
 21
177.1484431012169
 31
0.0
  0
ARC
  5
EBD
330
D
100
AcDbEntity
 67
     1
  8
AM_VIS
100
AcDbCircle
 10
137.921587224853
 20
156.8548693065641
 30
0.0
 40
22.31474947705162
100
AcDbArc
 50
0.753807461962733
 51
13.72270256236278
  0
LINE
  5
EBE
330
D
100
AcDbEntity
 67
     1
  8
AM_VIS
100
AcDbLine
 10
160.2343770762671
 20
157.1484428461532
 30
0.0
 11
160.5935282230502
 21
107.1484428394146
 31
0.0
  0
ARC
  5
EBF
330
D
100
AcDbEntity
 67
     1
  8
AM_VIS
100
AcDbCircle
 10
138.9231128185778
 20
107.0350837226834
 30
0.0
 40
21.67074105514878
100
AcDbArc
 50
346.9680208599387
 51
0.2997148811289425
  0
ARC
  5
EC0
330
D
100
AcDbEntity
 67
     1
  8
AM_VIS
100
AcDbCircle
 10
181.0748292918508
 20
152.1484431012169
 30
0.0
 40
5.000000000000006
100
AcDbArc
 50
0.0
 51
180.0
  0
ARC
  5
EC1
330
D
100
AcDbEntity
 67
     1
  8
AM_VIS
100
AcDbCircle
 10
223.2265457651216
 20
107.0350837226833
 30
0.0
 40
21.67074105514638
100
AcDbArc
 50
179.7002851188711
 51
193.0319791400612
  0
LINE
  5
EC2
330
D
100
AcDbEntity
 67
     1
  8
AM_VIS
100
AcDbLine
 10
186.0748292918508
 20
152.1484431012169
 30
0.0
 11
186.0748292918508
 21
102.1484431012169
 31
0.0
  0
LINE
  5
EC3
330
D
100
AcDbEntity
 67
     1
  8
AM_VIS
100
AcDbLine
 10
176.0748292918508
 20
152.1484431012169
 30
0.0
 11
176.0748292918508
 21
102.1484431012169
 31
0.0
  0
ARC
  5
EC4
330
D
100
AcDbEntity
 67
     1
  8
AM_VIS
100
AcDbCircle
 10
181.0748292918508
 20
102.1484431012169
 30
0.0
 40
5.000000000000014
100
AcDbArc
 50
180.0
 51
0.0
  0
LINE
  5
EC5
330
D
100
AcDbEntity
 67
     1
  8
AM_VIS
100
AcDbLine
 10
201.5561303606515
 20
107.1484428394146
 30
0.0
 11
201.9152815074347
 21
157.1484428461532
 31
0.0
  0
ARC
  5
EC6
330
D
100
AcDbEntity
 67
     1
  8
AM_VIS
100
AcDbCircle
 10
224.2280713588466
 20
156.8548693065642
 30
0.0
 40
22.3147494770493
100
AcDbArc
 50
166.2772974376372
 51
179.2461925380372
  0
LINE
  5
EC7
330
D
100
AcDbEntity
 67
     1
  8
AM_VIS
100
AcDbLine
 10
196.2584874788913
 20
86.08316503778178
 30
0.0
 11
200.4250556534993
 21
90.21353077897757
 31
0.0
  0
LINE
  5
EC8
330
D
100
AcDbEntity
 67
     1
  8
AM_VIS
100
AcDbLine
 10
191.9731301201801
 20
86.07982779680932
 30
0.0
 11
193.2383661683656
 21
90.21038104411951
 31
0.0
  0
LINE
  5
EC9
330
D
100
AcDbEntity
 67
     1
  8
AM_VIS
100
AcDbLine
 10
187.1025189322859
 20
86.08183898434518
 30
0.0
 11
187.8513074372904
 21
90.21229105883724
 31
0.0
  0
LINE
  5
ECA
330
D
100
AcDbEntity
 67
     1
  8
AM_VIS
100
AcDbLine
 10
174.2983511462633
 20
90.21229106231277
 30
0.0
 11
175.0471396513765
 21
86.08183898433896
 31
0.0
  0
LINE
  5
ECB
330
D
100
AcDbEntity
 67
     1
  8
AM_VIS
100
AcDbLine
 10
168.9112924159261
 20
90.21038103748589
 30
0.0
 11
170.176528463634
 21
86.07982779683963
 31
0.0
  0
LINE
  5
ECC
330
D
100
AcDbEntity
 67
     1
  8
AM_VIS
100
AcDbLine
 10
161.724602926062
 20
90.21353078569433
 30
0.0
 11
165.8911711046925
 21
86.08316503766269
 31
0.0
  0
LINE
  5
ECD
330
D
100
AcDbEntity
 67
     1
  8
AM_VIS
100
AcDbLine
 10
186.8899873319061
 20
85.6484431012169
 30
0.0
 11
191.6172888105066
 21
85.6484431012169
 31
0.0
  0
SPLINE
  5
ECE
330
D
100
AcDbEntity
 67
     1
  8
AM_VIS
100
AcDbSpline
210
0.0
220
0.0
230
1.0
 70
     8
 71
     3
 72
    12
 73
     8
 74
     0
 42
0.0000000001
 43
0.0000000001
 40
0.0
 40
0.0
 40
0.0
 40
0.0
 40
0.6063716823398666
 40
0.6063716823398666
 40
1.221752649812894
 40
1.221752649812894
 40
1.22398453609034
 40
1.22398453609034
 40
1.22398453609034
 40
1.22398453609034
 10
191.9622351954297
 20
86.08316503778198
 30
0.0
 10
191.9172468810011
 20
85.94443640390522
 30
0.0
 10
191.8640500601848
 20
85.83589973715096
 30
0.0
 10
191.7464131880926
 20
85.68697519204164
 30
0.0
 10
191.6826894349126
 20
85.64872010338701
 30
0.0
 10
191.6177581206267
 20
85.64844360081499
 30
0.0
 10
191.6175234690863
 20
85.6484431012169
 30
0.0
 10
191.6172888105066
 20
85.6484431012169
 30
0.0
  0
ARC
  5
ECF
330
D
100
AcDbEntity
 67
     1
  8
AM_VIS
100
AcDbCircle
 10
195.2024654149711
 20
87.14844304591878
 30
0.0
 40
1.499999944701869
100
AcDbArc
 50
270.0
 51
314.7500017390438
  0
SPLINE
  5
ED0
330
D
100
AcDbEntity
 67
     1
  8
AM_VIS
100
AcDbSpline
210
0.0
220
0.0
230
1.0
 70
     8
 71
     3
 72
    12
 73
     8
 74
     0
 42
0.0000000001
 43
0.0000000001
 40
0.0
 40
0.0
 40
0.0
 40
0.0
 40
0.5930711260102424
 40
0.5930711260102424
 40
1.190594073882472
 40
1.190594073882472
 40
1.192755197791122
 40
1.192755197791122
 40
1.192755197791122
 40
1.192755197791122
 10
187.0952041830178
 20
86.08316503778198
 30
0.0
 10
187.0686292799297
 20
85.94525134019091
 30
0.0
 10
187.0370642010828
 20
85.83638794018629
 30
0.0
 10
186.9669967450997
 20
85.68720327641333
 30
0.0
 10
186.9290597520267
 20
85.64872098389447
 30
0.0
 10
186.8902669474728
 20
85.64844360102723
 30
0.0
 10
186.8901271421165
 20
85.6484431012169
 30
0.0
 10
186.8899873319061
 20
85.6484431012169
 30
0.0
  0
SPLINE
  5
ED1
330
D
100
AcDbEntity
 67
     1
  8
AM_VIS
100
AcDbSpline
210
0.0
220
0.0
230
1.0
 70
     8
 71
     3
 72
    12
 73
     8
 74
     0
 42
0.0000000001
 43
0.0000000001
 40
-1.191072920065948
 40
-1.191072920065948
 40
-1.191072920065948
 40
-1.191072920065948
 40
-0.5977632662052392
 40
-0.5977632662052392
 40
0.0
 40
0.0
 40
0.0021619930931668
 40
0.0021619930931668
 40
0.0021619930931668
 40
0.0021619930931668
 10
175.054454400684
 20
86.08316503778198
 30
0.0
 10
175.0810293037721
 20
85.94525134019091
 30
0.0
 10
175.1125943826189
 20
85.83638794018629
 30
0.0
 10
175.1826618386019
 20
85.68720327641333
 30
0.0
 10
175.2205988316751
 20
85.64872098389447
 30
0.0
 10
175.2593916362289
 20
85.64844360102723
 30
0.0
 10
175.2595314415853
 20
85.6484431012169
 30
0.0
 10
175.2596712517956
 20
85.6484431012169
 30
0.0
  0
LINE
  5
ED2
330
D
100
AcDbEntity
 67
     1
  8
AM_VIS
100
AcDbLine
 10
170.5323697731952
 20
85.6484431012169
 30
0.0
 11
175.2596712517956
 21
85.6484431012169
 31
0.0
  0
SPLINE
  5
ED3
330
D
100
AcDbEntity
 67
     1
  8
AM_VIS
100
AcDbSpline
210
0.0
220
0.0
230
1.0
 70
     8
 71
     3
 72
    12
 73
     8
 74
     0
 42
0.0000000001
 43
0.0000000001
 40
-0.002234270269107
 40
-0.002234270269107
 40
-0.002234270269107
 40
-0.002234270269107
 40
0.0
 40
0.0
 40
0.6160382873246525
 40
0.6160382873246525
 40
1.223057666238409
 40
1.223057666238409
 40
1.223057666238409
 40
1.223057666238409
 10
170.5323697731952
 20
85.6484431012169
 30
0.0
 10
170.5321351146154
 20
85.6484431012169
 30
0.0
 10
170.5319004630751
 20
85.64844360081499
 30
0.0
 10
170.4669691487892
 20
85.64872010338701
 30
0.0
 10
170.403245395609
 20
85.68697519204164
 30
0.0
 10
170.285608523517
 20
85.83589973715096
 30
0.0
 10
170.2324117027005
 20
85.94443640390522
 30
0.0
 10
170.1874233882721
 20
86.08316503778198
 30
0.0
  0
ARC
  5
ED4
330
D
100
AcDbEntity
 67
     1
  8
AM_VIS
100
AcDbCircle
 10
166.9471931687307
 20
87.1484430459189
 30
0.0
 40
1.499999944701968
100
AcDbArc
 50
225.2499982609608
 51
270.0
  0
LINE
  5
ED5
330
D
100
AcDbEntity
 67
     1
  8
AM_VIS
100
AcDbLine
 10
202.5502919360358
 20
162.1484431012169
 30
0.0
 11
202.668104651211
 21
175.6484431012169
 31
0.0
  0
LINE
  5
ED6
330
D
100
AcDbEntity
 67
     1
  8
AM_VIS
100
AcDbLine
 10
202.0189764524137
 20
91.26571904016003
 30
0.0
 11
202.1139485464978
 21
102.1484431012169
 31
0.0
  0
LINE
  5
ED7
330
D
100
AcDbEntity
 67
     1
  8
AM_VIS
100
AcDbLine
 10
197.4084874788911
 20
86.08316503778198
 30
0.0
 11
201.5750556545014
 21
90.21353077997265
 31
0.0
  0
LINE
  5
ED8
330
D
100
AcDbEntity
 67
     1
  8
AM_VIS
100
AcDbLine
 10
159.5993666476661
 20
162.1484431012169
 30
0.0
 11
159.4815539324909
 21
175.6484431012169
 31
0.0
  0
LINE
  5
ED9
330
D
100
AcDbEntity
 67
     1
  8
AM_VIS
100
AcDbLine
 10
160.1306821312882
 20
91.26571904016003
 30
0.0
 11
160.0357100372041
 21
102.1484431012169
 31
0.0
  0
LINE
  5
EDA
330
D
100
AcDbEntity
 67
     1
  8
AM_VIS
100
AcDbLine
 10
164.7411711048108
 20
86.08316503778198
 30
0.0
 11
160.5746029292005
 21
90.21353077997265
 31
0.0
  0
LINE
  5
EDB
330
D
100
AcDbEntity
 67
     1
  8
AM_VIS
100
AcDbLine
 10
196.3524653922071
 20
85.6484431012169
 30
0.0
 11
195.2024653922071
 21
85.6484431012169
 31
0.0
  0
LINE
  5
EDC
330
D
100
AcDbEntity
 67
     1
  8
AM_VIS
100
AcDbLine
 10
195.2024653922071
 20
85.6484431012169
 30
0.0
 11
191.6172888105066
 21
85.6484431012169
 31
0.0
  0
LINE
  5
EDD
330
D
100
AcDbEntity
 67
     1
  8
AM_VIS
100
AcDbLine
 10
186.8899873319061
 20
85.6484431012169
 30
0.0
 11
175.2596712517956
 21
85.6484431012169
 31
0.0
  0
LINE
  5
EDE
330
D
100
AcDbEntity
 67
     1
  8
AM_VIS
100
AcDbLine
 10
170.5323697731952
 20
85.6484431012169
 30
0.0
 11
166.9471931914946
 21
85.6484431012169
 31
0.0
  0
LINE
  5
EDF
330
D
100
AcDbEntity
 67
     1
  8
AM_VIS
100
AcDbLine
 10
166.9471931914947
 20
85.6484431012169
 30
0.0
 11
165.7971931914948
 21
85.6484431012169
 31
0.0
  0
ARC
  5
EE0
330
D
100
AcDbEntity
 67
     1
  8
AM_VIS
100
AcDbCircle
 10
161.6306250158844
 20
91.27880884340759
 30
0.0
 40
1.5
100
AcDbArc
 50
180.4999999999997
 51
225.2500000000008
  0
ARC
  5
EE1
330
D
100
AcDbEntity
 67
     1
  8
AM_VIS
100
AcDbCircle
 10
200.5190335678173
 20
91.27880884340759
 30
0.0
 40
1.5
100
AcDbArc
 50
314.7499999999991
 51
359.4999999999986
  0
ARC
  5
EE2
330
D
100
AcDbEntity
 67
     1
  8
AM_VIS
100
AcDbCircle
 10
196.3524653922071
 20
87.14844310121691
 30
0.0
 40
1.5
100
AcDbArc
 50
270.0
 51
314.7499999999991
  0
ARC
  5
EE3
330
D
100
AcDbEntity
 67
     1
  8
AM_VIS
100
AcDbCircle
 10
165.7971931914947
 20
87.14844310121691
 30
0.0
 40
1.5
100
AcDbArc
 50
225.2500000000008
 51
270.0
  0
LINE
  5
EE4
330
D
100
AcDbEntity
 67
     1
  8
AM_VIS
100
AcDbLine
 10
191.0748292918509
 20
84.64844310121694
 30
0.0
 11
191.2081626251843
 21
85.6484431012169
 31
0.0
  0
LINE
  5
EE5
330
D
100
AcDbEntity
 67
     1
  8
AM_VIS
100
AcDbLine
 10
171.074829291851
 20
84.64844310121694
 30
0.0
 11
170.9414959585177
 21
85.6484431012169
 31
0.0
  0
LINE
  5
EE6
330
D
100
AcDbEntity
 67
     1
  8
AM_VIS
100
AcDbLine
 10
191.0748292918509
 20
84.64844310121694
 30
0.0
 11
171.074829291851
 21
84.64844310121694
 31
0.0
  0
LINE
  5
EE7
330
D
100
AcDbEntity
 67
     1
  8
AM_VIS
100
AcDbLine
 10
169.6748292836701
 20
237.6484431012169
 30
0.0
 11
169.6748292836701
 21
236.6484431012169
 31
0.0
  0
LINE
  5
EE8
330
D
100
AcDbEntity
 67
     1
  8
AM_VIS
100
AcDbLine
 10
169.6748292836701
 20
236.6484431012168
 30
0.0
 11
169.6748292836701
 21
235.6484431012169
 31
0.0
  0
LINE
  5
EE9
330
D
100
AcDbEntity
 67
     1
  8
AM_VIS
100
AcDbLine
 10
168.4748292836701
 20
235.6484431012169
 30
0.0
 11
168.4748292836701
 21
236.6484431012168
 31
0.0
  0
LINE
  5
EEA
330
D
100
AcDbEntity
 67
     1
  8
AM_VIS
100
AcDbLine
 10
168.4748292836701
 20
237.6484431012169
 30
0.0
 11
168.4748292836701
 21
236.6484431012168
 31
0.0
  0
LINE
  5
EEB
330
D
100
AcDbEntity
 67
     1
  8
AM_VIS
100
AcDbLine
 10
174.0748292836701
 20
237.6484431012169
 30
0.0
 11
174.57482928367
 21
237.148443101217
 31
0.0
  0
LINE
  5
EEC
330
D
100
AcDbEntity
 67
     1
  8
AM_VIS
100
AcDbLine
 10
163.0748292836701
 20
229.6484431012169
 30
0.0
 11
163.0748292836701
 21
236.6484431012168
 31
0.0
  0
LINE
  5
EED
330
D
100
AcDbEntity
 67
     1
  8
AM_VIS
100
AcDbLine
 10
164.0748292836701
 20
237.6484431012169
 30
0.0
 11
163.0748292836701
 21
236.6484431012168
 31
0.0
  0
LINE
  5
EEE
330
D
100
AcDbEntity
 67
     1
  8
AM_VIS
100
AcDbLine
 10
169.6748292836701
 20
237.6484431012169
 30
0.0
 11
174.0748292836701
 21
237.6484431012169
 31
0.0
  0
LINE
  5
EEF
330
D
100
AcDbEntity
 67
     1
  8
AM_VIS
100
AcDbLine
 10
168.4748292836701
 20
235.6484431012169
 30
0.0
 11
169.6748292836701
 21
235.6484431012169
 31
0.0
  0
LINE
  5
EF0
330
D
100
AcDbEntity
 67
     1
  8
AM_VIS
100
AcDbLine
 10
174.57482928367
 20
236.6484431012168
 30
0.0
 11
169.6748292836701
 21
236.6484431012168
 31
0.0
  0
LINE
  5
EF1
330
D
100
AcDbEntity
 67
     1
  8
AM_VIS
100
AcDbLine
 10
164.0748292836701
 20
237.6484431012169
 30
0.0
 11
168.4748292836701
 21
237.6484431012169
 31
0.0
  0
LINE
  5
EF2
330
D
100
AcDbEntity
 67
     1
  8
AM_VIS
100
AcDbLine
 10
168.4748292836701
 20
236.6484431012168
 30
0.0
 11
163.0748292836701
 21
236.6484431012168
 31
0.0
  0
ARC
  5
EF3
330
D
100
AcDbEntity
 67
     1
  8
AM_VIS
100
AcDbCircle
 10
189.5398358202933
 20
231.4699684414173
 30
0.0
 40
0.4797525847241344
100
AcDbArc
 50
21.83987726173917
 51
85.81709415277163
  0
ARC
  5
EF4
330
D
100
AcDbEntity
 67
     1
  8
AM_VIS
100
AcDbCircle
 10
174.6098227470469
 20
231.4699684414172
 30
0.0
 40
0.4797525847242591
100
AcDbArc
 50
94.1829058472333
 51
158.1601227382871
  0
LINE
  5
EF5
330
D
100
AcDbEntity
 67
     1
  8
AM_VIS
100
AcDbLine
 10
156.0748292718509
 20
228.6484431012169
 30
0.0
 11
156.0748292718509
 21
189.4484431012168
 31
0.0
  0
LINE
  5
EF6
330
D
100
AcDbEntity
 67
     1
  8
AM_VIS
100
AcDbLine
 10
206.2748292918509
 20
175.6484431012169
 30
0.0
 11
207.3996531574656
 21
177.8115659197066
 31
0.0
  0
LINE
  5
EF7
330
D
100
AcDbEntity
 67
     1
  8
AM_VIS
100
AcDbLine
 10
207.574829291851
 20
178.1484431012169
 30
0.0
 11
207.3996531574656
 21
177.8115659197066
 31
0.0
  0
ARC
  5
EF8
330
D
100
AcDbEntity
 67
     1
  8
AM_VIS
100
AcDbCircle
 10
206.8153298351215
 20
177.4751603190191
 30
0.0
 40
0.6742421473099994
100
AcDbArc
 50
29.92981958923583
 51
93.05684312354655
  0
LINE
  5
EF9
330
D
100
AcDbEntity
 67
     1
  8
AM_VIS
100
AcDbLine
 10
154.7500054262362
 20
177.8115659197066
 30
0.0
 11
155.8748292918509
 21
175.6484431012169
 31
0.0
  0
LINE
  5
EFA
330
D
100
AcDbEntity
 67
     1
  8
AM_VIS
100
AcDbLine
 10
190.0748292918508
 20
176.1996045210496
 30
0.0
 11
190.0748292918508
 21
175.6484431012169
 31
0.0
  0
LINE
  5
EFB
330
D
100
AcDbEntity
 67
     1
  8
AM_VIS
100
AcDbLine
 10
166.0748292818509
 20
201.648443101217
 30
0.0
 11
169.074829281851
 21
199.6484431012171
 31
0.0
  0
LINE
  5
EFC
330
D
100
AcDbEntity
 67
     1
  8
AM_VIS
100
AcDbLine
 10
166.0748292818508
 20
217.6484431012168
 30
0.0
 11
166.0748292818508
 21
201.6484431012169
 31
0.0
  0
LINE
  5
EFD
330
D
100
AcDbEntity
 67
     1
  8
AM_VIS
100
AcDbLine
 10
169.074829281851
 20
219.6484431012166
 30
0.0
 11
166.0748292818509
 21
217.6484431012168
 31
0.0
  0
LINE
  5
EFE
330
D
100
AcDbEntity
 67
     1
  8
AM_VIS
100
AcDbLine
 10
196.0748292918508
 20
217.6484431012168
 30
0.0
 11
193.0748292918507
 21
219.6484431012166
 31
0.0
  0
LINE
  5
EFF
330
D
100
AcDbEntity
 67
     1
  8
AM_VIS
100
AcDbLine
 10
196.0748292918508
 20
201.6484431012169
 30
0.0
 11
196.0748292918508
 21
217.6484431012168
 31
0.0
  0
LINE
  5
F00
330
D
100
AcDbEntity
 67
     1
  8
AM_VIS
100
AcDbLine
 10
193.0748292918507
 20
199.648443101217
 30
0.0
 11
196.0748292918508
 21
201.648443101217
 31
0.0
  0
LINE
  5
F01
330
D
100
AcDbEntity
 67
     1
  8
AM_VIS
100
AcDbLine
 10
193.0748292918508
 20
222.0484431012168
 30
0.0
 11
169.0748292818508
 21
222.0484431012168
 31
0.0
  0
LINE
  5
F02
330
D
100
AcDbEntity
 67
     1
  8
AM_VIS
100
AcDbLine
 10
169.0748292818508
 20
197.2484431012168
 30
0.0
 11
193.0748292918508
 21
197.2484431012168
 31
0.0
  0
LINE
  5
F03
330
D
100
AcDbEntity
 67
     1
  8
AM_VIS
100
AcDbLine
 10
169.0748292818508
 20
193.4484431012169
 30
0.0
 11
193.0748292918508
 21
193.4484431012169
 31
0.0
  0
LINE
  5
F04
330
D
100
AcDbEntity
 67
     1
  8
AM_VIS
100
AcDbLine
 10
169.0748292818508
 20
196.8484431012169
 30
0.0
 11
193.0748292918508
 21
196.8484431012169
 31
0.0
  0
LINE
  5
F05
330
D
100
AcDbEntity
 67
     1
  8
AM_VIS
100
AcDbLine
 10
169.0748292818508
 20
225.8484431012169
 30
0.0
 11
193.0748292918508
 21
225.8484431012169
 31
0.0
  0
LINE
  5
F06
330
D
100
AcDbEntity
 67
     1
  8
AM_VIS
100
AcDbLine
 10
169.0748292818508
 20
222.4484431012169
 30
0.0
 11
193.0748292918508
 21
222.4484431012169
 31
0.0
  0
LINE
  5
F07
330
D
100
AcDbEntity
 67
     1
  8
AM_VIS
100
AcDbLine
 10
169.0748292818508
 20
226.2484431012169
 30
0.0
 11
193.0748292918508
 21
226.2484431012169
 31
0.0
  0
LINE
  5
F08
330
D
100
AcDbEntity
 67
     1
  8
AM_VIS
100
AcDbLine
 10
200.3417276991661
 20
229.6484431012169
 30
0.0
 11
192.8636795572984
 21
229.6484431012169
 31
0.0
  0
LINE
  5
F09
330
D
100
AcDbEntity
 67
     1
  8
AM_VIS
100
AcDbLine
 10
192.0748292918508
 20
229.6484431012169
 30
0.0
 11
170.0748292818508
 21
229.6484431012169
 31
0.0
  0
LINE
  5
F0A
330
D
100
AcDbEntity
 67
     1
  8
AM_VIS
100
AcDbLine
 10
169.2859790164034
 20
229.6484431012169
 30
0.0
 11
161.8079308645357
 21
229.6484431012169
 31
0.0
  0
ARC
  5
F0B
330
D
100
AcDbEntity
 67
     1
  8
AM_VIS
100
AcDbCircle
 10
155.3343287485803
 20
177.4751603190192
 30
0.0
 40
0.6742421473099119
100
AcDbArc
 50
86.94315687644852
 51
150.0701804107696
  0
LINE
  5
F0C
330
D
100
AcDbEntity
 67
     1
  8
AM_VIS
100
AcDbLine
 10
154.7500054262362
 20
177.8115659197066
 30
0.0
 11
154.5748292918509
 21
178.1484431012169
 31
0.0
  0
LINE
  5
F0D
330
D
100
AcDbEntity
 67
     1
  8
AM_VIS
100
AcDbLine
 10
154.5748292918509
 20
188.6484431012169
 30
0.0
 11
154.5748292918509
 21
178.1484431012169
 31
0.0
  0
ARC
  5
F0E
330
D
100
AcDbEntity
 67
     1
  8
AM_VIS
100
AcDbCircle
 10
168.7747666137205
 20
189.4485057693471
 30
0.0
 40
0.3000626746744061
100
AcDbArc
 50
270.0119662313706
 51
359.9880337685611
  0
LINE
  5
F0F
330
D
100
AcDbEntity
 67
     1
  8
AM_VIS
100
AcDbLine
 10
206.074829291851
 20
189.4484431012168
 30
0.0
 11
206.074829291851
 21
228.6484431012169
 31
0.0
  0
LINE
  5
F10
330
D
100
AcDbEntity
 67
     1
  8
AM_VIS
100
AcDbLine
 10
207.574829291851
 20
178.1484431012169
 30
0.0
 11
207.574829291851
 21
188.6484431012169
 31
0.0
  0
ARC
  5
F11
330
D
100
AcDbEntity
 67
     1
  8
AM_VIS
100
AcDbCircle
 10
193.3748919599811
 20
189.4485057693471
 30
0.0
 40
0.3000626746743599
100
AcDbArc
 50
180.0119662313966
 51
269.9880337686018
  0
LINE
  5
F12
330
D
100
AcDbEntity
 67
     1
  8
AM_VIS
100
AcDbLine
 10
169.0748292818508
 20
226.2484431012169
 30
0.0
 11
169.0748292818508
 21
228.6484431012169
 31
0.0
  0
LINE
  5
F13
330
D
100
AcDbEntity
 67
     1
  8
AM_VIS
100
AcDbLine
 10
169.0748292818508
 20
225.8484431012169
 30
0.0
 11
169.0748292818508
 21
226.2484431012169
 31
0.0
  0
LINE
  5
F14
330
D
100
AcDbEntity
 67
     1
  8
AM_VIS
100
AcDbLine
 10
169.0748292818508
 20
222.4484431012169
 30
0.0
 11
169.0748292818508
 21
225.8484431012169
 31
0.0
  0
LINE
  5
F15
330
D
100
AcDbEntity
 67
     1
  8
AM_VIS
100
AcDbLine
 10
169.0748292818508
 20
222.0484431012168
 30
0.0
 11
169.0748292818508
 21
222.4484431012168
 31
0.0
  0
LINE
  5
F16
330
D
100
AcDbEntity
 67
     1
  8
AM_VIS
100
AcDbLine
 10
169.0748292818508
 20
219.6484431012168
 30
0.0
 11
169.0748292818508
 21
222.0484431012169
 31
0.0
  0
LINE
  5
F17
330
D
100
AcDbEntity
 67
     1
  8
AM_VIS
100
AcDbLine
 10
169.0748292818508
 20
197.2484431012168
 30
0.0
 11
169.0748292818508
 21
199.6484431012168
 31
0.0
  0
LINE
  5
F18
330
D
100
AcDbEntity
 67
     1
  8
AM_VIS
100
AcDbLine
 10
169.0748292818508
 20
196.8484431012169
 30
0.0
 11
169.0748292818508
 21
197.2484431012168
 31
0.0
  0
LINE
  5
F19
330
D
100
AcDbEntity
 67
     1
  8
AM_VIS
100
AcDbLine
 10
169.0748292818508
 20
193.4484431012169
 30
0.0
 11
169.0748292818508
 21
196.8484431012169
 31
0.0
  0
LINE
  5
F1A
330
D
100
AcDbEntity
 67
     1
  8
AM_VIS
100
AcDbLine
 10
169.0748292818508
 20
193.0484431012169
 30
0.0
 11
169.0748292818508
 21
193.4484431012169
 31
0.0
  0
LINE
  5
F1B
330
D
100
AcDbEntity
 67
     1
  8
AM_VIS
100
AcDbLine
 10
169.0748292818508
 20
188.8295280130741
 30
0.0
 11
169.0748292818508
 21
189.1484431012169
 31
0.0
  0
LINE
  5
F1C
330
D
100
AcDbEntity
 67
     1
  8
AM_VIS
100
AcDbLine
 10
193.0748292918508
 20
193.4484431012169
 30
0.0
 11
193.0748292918508
 21
193.0484431012169
 31
0.0
  0
LINE
  5
F1D
330
D
100
AcDbEntity
 67
     1
  8
AM_VIS
100
AcDbLine
 10
193.0748292918508
 20
196.8484431012169
 30
0.0
 11
193.0748292918508
 21
193.4484431012169
 31
0.0
  0
LINE
  5
F1E
330
D
100
AcDbEntity
 67
     1
  8
AM_VIS
100
AcDbLine
 10
193.0748292918508
 20
197.2484431012168
 30
0.0
 11
193.0748292918508
 21
196.8484431012169
 31
0.0
  0
LINE
  5
F1F
330
D
100
AcDbEntity
 67
     1
  8
AM_VIS
100
AcDbLine
 10
193.0748292918508
 20
197.2484431012168
 30
0.0
 11
193.0748292918508
 21
199.6484431012168
 31
0.0
  0
LINE
  5
F20
330
D
100
AcDbEntity
 67
     1
  8
AM_VIS
100
AcDbLine
 10
193.0748292918508
 20
219.6484431012168
 30
0.0
 11
193.0748292918508
 21
222.0484431012169
 31
0.0
  0
LINE
  5
F21
330
D
100
AcDbEntity
 67
     1
  8
AM_VIS
100
AcDbLine
 10
193.0748292918508
 20
222.4484431012168
 30
0.0
 11
193.0748292918508
 21
222.0484431012168
 31
0.0
  0
LINE
  5
F22
330
D
100
AcDbEntity
 67
     1
  8
AM_VIS
100
AcDbLine
 10
193.0748292918508
 20
225.8484431012169
 30
0.0
 11
193.0748292918508
 21
222.4484431012169
 31
0.0
  0
LINE
  5
F23
330
D
100
AcDbEntity
 67
     1
  8
AM_VIS
100
AcDbLine
 10
193.0748292918508
 20
226.2484431012169
 30
0.0
 11
193.0748292918508
 21
225.8484431012169
 31
0.0
  0
LINE
  5
F24
330
D
100
AcDbEntity
 67
     1
  8
AM_VIS
100
AcDbLine
 10
193.0748292918508
 20
226.2484431012169
 30
0.0
 11
193.0748292918508
 21
228.6484431012169
 31
0.0
  0
LINE
  5
F25
330
D
100
AcDbEntity
 67
     1
  8
AM_VIS
100
AcDbLine
 10
193.0748292918508
 20
189.1484431012169
 30
0.0
 11
193.0748292918508
 21
188.8295280129329
 31
0.0
  0
LINE
  5
F26
330
D
100
AcDbEntity
 67
     1
  8
AM_VIS
100
AcDbLine
 10
190.0748292918508
 20
177.6484431012169
 30
0.0
 11
190.0748292918508
 21
176.1996045210496
 31
0.0
  0
LINE
  5
F27
330
D
100
AcDbEntity
 67
     1
  8
AM_VIS
100
AcDbLine
 10
172.0748292918508
 20
177.6484431012169
 30
0.0
 11
190.0748292918508
 21
177.6484431012169
 31
0.0
  0
SPLINE
  5
F28
330
D
100
AcDbEntity
 67
     1
  8
AM_VIS
100
AcDbSpline
210
0.0000000000021813
220
0.0000000000031086
230
1.0
 70
    12
 71
     2
 72
     6
 73
     3
 74
     0
 42
0.0000000001
 43
0.0000000001
 40
0.0
 40
0.0
 40
0.0
 40
3.333802718682345
 40
3.333802718682345
 40
3.333802718682345
 10
169.295610302461
 20
178.1484431012169
 30
0.0
 41
1.0
 10
170.7099313028764
 20
177.0436953037909
 30
0.0
 41
1.001601757869573
 10
172.0748292918506
 20
176.1996045210497
 30
0.0000000000000284
 41
1.000819973128117
  0
LINE
  5
F29
330
D
100
AcDbEntity
 67
     1
  8
AM_VIS
100
AcDbLine
 10
169.295610302461
 20
189.1484431012169
 30
0.0
 11
169.295610302461
 21
178.1484431012169
 31
0.0
  0
LINE
  5
F2A
330
D
100
AcDbEntity
 67
     1
  8
AM_VIS
100
AcDbLine
 10
169.0748292818508
 20
189.1484431012169
 30
0.0
 11
169.295610302461
 21
189.1484431012169
 31
0.0
  0
LINE
  5
F2B
330
D
100
AcDbEntity
 67
     1
  8
AM_VIS
100
AcDbLine
 10
169.0748292818508
 20
189.1484431012169
 30
0.0
 11
169.0748292818508
 21
193.0484431012169
 31
0.0
  0
LINE
  5
F2C
330
D
100
AcDbEntity
 67
     1
  8
AM_VIS
100
AcDbLine
 10
193.0748292918508
 20
193.0484431012169
 30
0.0
 11
169.0748292818508
 21
193.0484431012169
 31
0.0
  0
LINE
  5
F2D
330
D
100
AcDbEntity
 67
     1
  8
AM_VIS
100
AcDbLine
 10
193.0748292918508
 20
189.1484431012169
 30
0.0
 11
193.0748292918508
 21
193.0484431012169
 31
0.0
  0
LINE
  5
F2E
330
D
100
AcDbEntity
 67
     1
  8
AM_VIS
100
AcDbLine
 10
192.8540482812405
 20
189.1484431012169
 30
0.0
 11
193.0748292918508
 21
189.1484431012169
 31
0.0
  0
LINE
  5
F2F
330
D
100
AcDbEntity
 67
     1
  8
AM_VIS
100
AcDbLine
 10
192.8540482812405
 20
178.1484431012169
 30
0.0
 11
192.8540482812405
 21
189.1484431012169
 31
0.0
  0
SPLINE
  5
F30
330
D
100
AcDbEntity
 67
     1
  8
AM_VIS
100
AcDbSpline
210
0.0
220
0.0
230
1.0
 70
    12
 71
     2
 72
     6
 73
     3
 74
     0
 42
0.0000000001
 43
0.0000000001
 40
1.146876347465884
 40
1.146876347465884
 40
1.146876347465884
 40
4.480679066148139
 40
4.480679066148139
 40
4.480679066148139
 10
190.0748292918506
 20
176.1996045210497
 30
0.0
 41
1.000819973128111
 10
191.4397272808257
 20
177.0436953037909
 30
0.0
 41
1.001601757869561
 10
192.8540482812405
 20
178.1484431012169
 30
0.0
 41
1.0
  0
LINE
  5
F31
330
D
100
AcDbEntity
 67
     1
  8
AM_VIS
100
AcDbLine
 10
172.0748292918508
 20
176.1996045210496
 30
0.0
 11
172.0748292918508
 21
177.6484431012169
 31
0.0
  0
LINE
  5
F32
330
D
100
AcDbEntity
 67
     1
  8
AM_VIS
100
AcDbLine
 10
172.0748292918508
 20
176.1996045210496
 30
0.0
 11
172.0748292918508
 21
175.6484431012169
 31
0.0
  0
LINE
  5
F33
330
D
100
AcDbEntity
 67
     1
  8
AM_VIS
100
AcDbLine
 10
193.07482928367
 20
229.6484431012169
 30
0.0
 11
193.07482928367
 21
231.6484431012169
 31
0.0
  0
LINE
  5
F34
330
D
100
AcDbEntity
 67
     1
  8
AM_VIS
100
AcDbLine
 10
171.07482928367
 20
229.6484431012169
 30
0.0
 11
171.07482928367
 21
231.6484431012169
 31
0.0
  0
LINE
  5
F35
330
D
100
AcDbEntity
 67
     1
  8
AM_VIS
100
AcDbLine
 10
192.8540482812407
 20
178.1484431012169
 30
0.0
 11
206.7793747463964
 21
178.1484431012169
 31
0.0
  0
CIRCLE
  5
F36
330
D
100
AcDbEntity
 67
     1
  8
AM_VIS
100
AcDbCircle
 10
181.0748292918508
 20
209.6484431012168
 30
0.0
 40
11.1
  0
CIRCLE
  5
F37
330
D
100
AcDbEntity
 67
     1
  8
AM_VIS
100
AcDbCircle
 10
181.0748292918508
 20
209.6484431012168
 30
0.0
 40
10.90127814993152
  0
LINE
  5
F38
330
D
100
AcDbEntity
 67
     1
  8
AM_VIS
100
AcDbLine
 10
171.07482928367
 20
231.6484431012169
 30
0.0
 11
193.07482928367
 21
231.6484431012169
 31
0.0
  0
ARC
  5
F39
330
D
100
AcDbEntity
 67
     1
  8
AM_VIS
100
AcDbCircle
 10
205.0748292918509
 20
228.6484431012169
 30
0.0
 40
1.0
100
AcDbArc
 50
0.0
 51
90.0
  0
ARC
  5
F3A
330
D
100
AcDbEntity
 67
     1
  8
AM_VIS
100
AcDbCircle
 10
192.0748292918508
 20
228.6484431012169
 30
0.0
 40
0.9999999999999998
100
AcDbArc
 50
0.0
 51
90.0
  0
LINE
  5
F3B
330
D
100
AcDbEntity
 67
     1
  8
AM_VIS
100
AcDbLine
 10
200.3417276991661
 20
229.6484431012169
 30
0.0
 11
205.0748292918509
 21
229.6484431012169
 31
0.0
  0
LINE
  5
F3C
330
D
100
AcDbEntity
 67
     1
  8
AM_VIS
100
AcDbLine
 10
192.8636795572984
 20
229.6484431012169
 30
0.0
 11
192.0748292918508
 21
229.6484431012169
 31
0.0
  0
LINE
  5
F3D
330
D
100
AcDbEntity
 67
     1
  8
AM_VIS
100
AcDbLine
 10
157.0748292718509
 20
229.6484431012169
 30
0.0
 11
161.8079308645357
 21
229.6484431012169
 31
0.0
  0
ARC
  5
F3E
330
D
100
AcDbEntity
 67
     1
  8
AM_VIS
100
AcDbCircle
 10
157.0748292718509
 20
228.6484431012169
 30
0.0
 40
1.0
100
AcDbArc
 50
90.0
 51
180.0
  0
LINE
  5
F3F
330
D
100
AcDbEntity
 67
     1
  8
AM_VIS
100
AcDbLine
 10
170.0748292818509
 20
229.6484431012169
 30
0.0
 11
169.2859790164034
 21
229.6484431012169
 31
0.0
  0
ARC
  5
F40
330
D
100
AcDbEntity
 67
     1
  8
AM_VIS
100
AcDbCircle
 10
170.0748292818508
 20
228.6484431012169
 30
0.0
 40
0.9999999999999998
100
AcDbArc
 50
90.0
 51
180.0
  0
ARC
  5
F41
330
D
100
AcDbEntity
 67
     1
  8
AM_VIS
100
AcDbCircle
 10
155.7748292718509
 20
189.4484431012168
 30
0.0
 40
0.2999999999999989
100
AcDbArc
 50
270.0
 51
0.0
  0
LINE
  5
F42
330
D
100
AcDbEntity
 67
     1
  8
AM_VIS
100
AcDbLine
 10
169.295610302461
 20
178.1484431012169
 30
0.0
 11
155.3702838373055
 21
178.1484431012169
 31
0.0
  0
LINE
  5
F43
330
D
100
AcDbEntity
 67
     1
  8
AM_VIS
100
AcDbLine
 10
155.8134656554873
 20
189.1484431012169
 30
0.0
 11
168.7748292818509
 21
189.1484431012169
 31
0.0
  0
LINE
  5
F44
330
D
100
AcDbEntity
 67
     1
  8
AM_VIS
100
AcDbLine
 10
155.0748292918509
 20
189.1484431012169
 30
0.0
 11
155.8134656554873
 21
189.1484431012169
 31
0.0
  0
ARC
  5
F45
330
D
100
AcDbEntity
 67
     1
  8
AM_VIS
100
AcDbCircle
 10
155.0748292918509
 20
188.6484431012169
 30
0.0
 40
0.5
100
AcDbArc
 50
90.0
 51
180.0
  0
ARC
  5
F46
330
D
100
AcDbEntity
 67
     1
  8
AM_VIS
100
AcDbCircle
 10
206.3748292918509
 20
189.4484431012168
 30
0.0
 40
0.3000000000000007
100
AcDbArc
 50
180.0
 51
270.0
  0
LINE
  5
F47
330
D
100
AcDbEntity
 67
     1
  8
AM_VIS
100
AcDbLine
 10
193.3748292918508
 20
189.1484431012169
 30
0.0
 11
206.3361929282146
 21
189.1484431012169
 31
0.0
  0
LINE
  5
F48
330
D
100
AcDbEntity
 67
     1
  8
AM_VIS
100
AcDbLine
 10
206.3361929282146
 20
189.1484431012169
 30
0.0
 11
207.0748292918509
 21
189.1484431012169
 31
0.0
  0
ARC
  5
F49
330
D
100
AcDbEntity
 67
     1
  8
AM_VIS
100
AcDbCircle
 10
207.0748292918509
 20
188.6484431012169
 30
0.0
 40
0.5
100
AcDbArc
 50
0.0
 51
90.0
  0
LINE
  5
F4A
330
D
100
AcDbEntity
 67
     1
  8
AM_VIS
100
AcDbLine
 10
155.8748292918509
 20
175.6484431012169
 30
0.0
 11
172.0748292918508
 21
175.6484431012169
 31
0.0
  0
LINE
  5
F4B
330
D
100
AcDbEntity
 67
     1
  8
AM_VIS
100
AcDbLine
 10
190.0748292918508
 20
175.6484431012169
 30
0.0
 11
206.2748292918509
 21
175.6484431012169
 31
0.0
  0
ARC
  5
F4C
330
D
100
AcDbEntity
 67
     1
  8
AM_VIS
100
AcDbCircle
 10
181.0748292918508
 20
209.6484431012168
 30
0.0
 40
5.700000000000002
100
AcDbArc
 50
10.66236548009898
 51
251.4264538101165
  0
CIRCLE
  5
F4D
330
D
100
AcDbEntity
 67
     1
  8
AM_VIS
100
AcDbCircle
 10
181.0748292918509
 20
209.6484431012168
 30
0.0
 40
5.35
  0
LINE
  5
F4E
330
D
100
AcDbEntity
 67
     1
  8
AM_VIS
100
AcDbLine
 10
86.4142595266478
 20
316.4406583436899
 30
0.0
 11
84.41425952664781
 21
316.4406583436899
 31
0.0
  0
LINE
  5
F4F
330
D
100
AcDbEntity
 67
     1
  8
AM_VIS
100
AcDbLine
 10
89.71662085914976
 20
322.8267164912815
 30
0.0
 11
89.57770231701625
 21
322.0388702888717
 31
0.0
  0
LINE
  5
F50
330
D
100
AcDbEntity
 67
     1
  8
AM_VIS
100
AcDbLine
 10
87.25081673627938
 20
322.0388702888717
 30
0.0
 11
87.11189819414585
 21
322.8267164912815
 31
0.0
  0
LINE
  5
F51
330
D
100
AcDbEntity
 67
     1
  8
AM_VIS
100
AcDbLine
 10
84.10758254174799
 20
320.5731561125871
 30
0.0
 11
83.59335245399876
 21
321.1859916670822
 31
0.0
  0
LINE
  5
F52
330
D
100
AcDbEntity
 67
     1
  8
AM_VIS
100
AcDbLine
 10
85.84910845170531
 20
322.4883529995842
 30
0.0
 11
86.12272456636583
 21
321.7365989029555
 31
0.0
  0
LINE
  5
F53
330
D
100
AcDbEntity
 67
     1
  8
AM_VIS
100
AcDbLine
 10
82.11831896738221
 20
317.7321933039719
 30
0.0
 11
81.36656487075351
 21
318.0058094186325
 31
0.0
  0
LINE
  5
F54
330
D
100
AcDbEntity
 67
     1
  8
AM_VIS
100
AcDbLine
 10
82.66892620325547
 20
320.2615654163389
 30
0.0
 11
83.28176175775064
 21
319.7473353285897
 31
0.0
  0
LINE
  5
F55
330
D
100
AcDbEntity
 67
     1
  8
AM_VIS
100
AcDbLine
 10
81.81604758146603
 20
314.2772155533215
 30
0.0
 11
81.02820137905622
 21
314.1382970111879
 31
0.0
  0
LINE
  5
F56
330
D
100
AcDbEntity
 67
     1
  8
AM_VIS
100
AcDbLine
 10
81.02820137905627
 20
316.7430196761919
 30
0.0
 11
81.81604758146603
 21
316.6041011340583
 31
0.0
  0
LINE
  5
F57
330
D
100
AcDbEntity
 67
     1
  8
AM_VIS
100
AcDbLine
 10
83.28176175775059
 20
311.1339813587901
 30
0.0
 11
82.6689262032554
 21
310.6197512710409
 31
0.0
  0
LINE
  5
F58
330
D
100
AcDbEntity
 67
     1
  8
AM_VIS
100
AcDbLine
 10
81.36656487075345
 20
312.8755072687474
 30
0.0
 11
82.11831896738216
 21
313.149123383408
 31
0.0
  0
LINE
  5
F59
330
D
100
AcDbEntity
 67
     1
  8
AM_VIS
100
AcDbLine
 10
86.12272456636578
 20
309.1447177844243
 30
0.0
 11
85.84910845170526
 21
308.3929636877956
 31
0.0
  0
LINE
  5
F5A
330
D
100
AcDbEntity
 67
     1
  8
AM_VIS
100
AcDbLine
 10
83.5933524539987
 20
309.6953250202976
 30
0.0
 11
84.10758254174794
 21
310.3081605747927
 31
0.0
  0
LINE
  5
F5B
330
D
100
AcDbEntity
 67
     1
  8
AM_VIS
100
AcDbLine
 10
89.57770231701619
 20
308.8424463985081
 30
0.0
 11
89.71662085914971
 21
308.0546001960983
 31
0.0
  0
LINE
  5
F5C
330
D
100
AcDbEntity
 67
     1
  8
AM_VIS
100
AcDbLine
 10
87.11189819414579
 20
308.0546001960984
 30
0.0
 11
87.25081673627931
 21
308.8424463985081
 31
0.0
  0
LINE
  5
F5D
330
D
100
AcDbEntity
 67
     1
  8
AM_VIS
100
AcDbLine
 10
92.72093651154762
 20
310.3081605747927
 30
0.0
 11
93.2351665992968
 21
309.6953250202976
 31
0.0
  0
LINE
  5
F5E
330
D
100
AcDbEntity
 67
     1
  8
AM_VIS
100
AcDbLine
 10
90.97941060159024
 20
308.3929636877956
 30
0.0
 11
90.70579448692972
 21
309.1447177844243
 31
0.0
  0
LINE
  5
F5F
330
D
100
AcDbEntity
 67
     1
  8
AM_VIS
100
AcDbLine
 10
94.71020008591336
 20
313.1491233834079
 30
0.0
 11
95.46195418254205
 21
312.8755072687474
 31
0.0
  0
LINE
  5
F60
330
D
100
AcDbEntity
 67
     1
  8
AM_VIS
100
AcDbLine
 10
94.1595928500401
 20
310.6197512710408
 30
0.0
 11
93.54675729554491
 21
311.13398135879
 31
0.0
  0
LINE
  5
F61
330
D
100
AcDbEntity
 67
     1
  8
AM_VIS
100
AcDbLine
 10
95.0124714718296
 20
316.6041011340583
 30
0.0
 11
95.80031767423935
 21
316.7430196761918
 31
0.0
  0
LINE
  5
F62
330
D
100
AcDbEntity
 67
     1
  8
AM_VIS
100
AcDbLine
 10
95.8003176742393
 20
314.1382970111879
 30
0.0
 11
95.0124714718296
 21
314.2772155533214
 31
0.0
  0
LINE
  5
F63
330
D
100
AcDbEntity
 67
     1
  8
AM_VIS
100
AcDbLine
 10
93.54675729554498
 20
319.7473353285896
 30
0.0
 11
94.15959285004015
 21
320.2615654163389
 31
0.0
  0
LINE
  5
F64
330
D
100
AcDbEntity
 67
     1
  8
AM_VIS
100
AcDbLine
 10
95.46195418254212
 20
318.0058094186323
 30
0.0
 11
94.71020008591342
 21
317.7321933039718
 31
0.0
  0
LINE
  5
F65
330
D
100
AcDbEntity
 67
     1
  8
AM_VIS
100
AcDbLine
 10
90.7057944869298
 20
321.7365989029555
 30
0.0
 11
90.9794106015903
 21
322.4883529995842
 31
0.0
  0
LINE
  5
F66
330
D
100
AcDbEntity
 67
     1
  8
AM_VIS
100
AcDbLine
 10
93.23516659929685
 20
321.1859916670822
 30
0.0
 11
92.72093651154762
 21
320.573156112587
 31
0.0
  0
ARC
  5
F67
330
D
100
AcDbEntity
 67
     1
  8
AM_VIS
100
AcDbCircle
 10
89.41425952664781
 20
316.4406583436898
 30
0.0
 40
3.0
100
AcDbArc
 50
0.0
 51
180.0
  0
ARC
  5
F68
330
D
100
AcDbEntity
 67
     1
  8
AM_VIS
100
AcDbCircle
 10
88.41425952664781
 20
316.4406583436898
 30
0.0
 40
4.0
100
AcDbArc
 50
0.0
 51
180.0
  0
ARC
  5
F69
330
D
100
AcDbEntity
 67
     1
  8
AM_VIS
100
AcDbCircle
 10
88.41425952664781
 20
315.4406583436899
 30
0.0
 40
6.699999999999999
100
AcDbArc
 50
79.9999999999998
 51
100.0000000000002
  0
ARC
  5
F6A
330
D
100
AcDbEntity
 67
     1
  8
AM_VIS
100
AcDbCircle
 10
88.41425952664781
 20
315.4406583436899
 30
0.0
 40
7.5
100
AcDbArc
 50
79.9999999999998
 51
100.0000000000002
  0
ARC
  5
F6B
330
D
100
AcDbEntity
 67
     1
  8
AM_VIS
100
AcDbCircle
 10
88.41425952664781
 20
315.4406583436899
 30
0.0
 40
7.5
100
AcDbArc
 50
39.99999999999984
 51
49.9999999999996
  0
ARC
  5
F6C
330
D
100
AcDbEntity
 67
     1
  8
AM_VIS
100
AcDbCircle
 10
88.41425952664781
 20
315.4406583436899
 30
0.0
 40
6.699999999999999
100
AcDbArc
 50
39.99999999999984
 51
49.9999999999996
  0
ARC
  5
F6D
330
D
100
AcDbEntity
 67
     1
  8
AM_VIS
100
AcDbCircle
 10
88.41425952664781
 20
315.4406583436899
 30
0.0
 40
6.699999999999999
100
AcDbArc
 50
69.99999999999992
 51
79.9999999999998
  0
ARC
  5
F6E
330
D
100
AcDbEntity
 67
     1
  8
AM_VIS
100
AcDbCircle
 10
88.41425952664781
 20
315.4406583436899
 30
0.0
 40
7.5
100
AcDbArc
 50
69.99999999999992
 51
79.9999999999998
  0
ARC
  5
F6F
330
D
100
AcDbEntity
 67
     1
  8
AM_VIS
100
AcDbCircle
 10
88.41425952664781
 20
315.4406583436899
 30
0.0
 40
7.5
100
AcDbArc
 50
10.00000000000021
 51
20.00000000000009
  0
ARC
  5
F70
330
D
100
AcDbEntity
 67
     1
  8
AM_VIS
100
AcDbCircle
 10
88.41425952664781
 20
315.4406583436899
 30
0.0
 40
6.699999999999999
100
AcDbArc
 50
10.00000000000021
 51
20.00000000000009
  0
ARC
  5
F71
330
D
100
AcDbEntity
 67
     1
  8
AM_VIS
100
AcDbCircle
 10
88.41425952664781
 20
315.4406583436899
 30
0.0
 40
7.5
100
AcDbArc
 50
339.9999999999999
 51
349.9999999999998
  0
ARC
  5
F72
330
D
100
AcDbEntity
 67
     1
  8
AM_VIS
100
AcDbCircle
 10
88.41425952664781
 20
315.4406583436899
 30
0.0
 40
6.699999999999999
100
AcDbArc
 50
339.9999999999999
 51
349.9999999999998
  0
ARC
  5
F73
330
D
100
AcDbEntity
 67
     1
  8
AM_VIS
100
AcDbCircle
 10
88.41425952664781
 20
315.4406583436899
 30
0.0
 40
7.5
100
AcDbArc
 50
310.0000000000004
 51
320.0000000000002
  0
ARC
  5
F74
330
D
100
AcDbEntity
 67
     1
  8
AM_VIS
100
AcDbCircle
 10
88.41425952664781
 20
315.4406583436899
 30
0.0
 40
6.699999999999999
100
AcDbArc
 50
310.0000000000004
 51
320.0000000000002
  0
ARC
  5
F75
330
D
100
AcDbEntity
 67
     1
  8
AM_VIS
100
AcDbCircle
 10
88.41425952664781
 20
315.4406583436899
 30
0.0
 40
7.5
100
AcDbArc
 50
280.0000000000002
 51
290.0000000000001
  0
ARC
  5
F76
330
D
100
AcDbEntity
 67
     1
  8
AM_VIS
100
AcDbCircle
 10
88.41425952664781
 20
315.4406583436899
 30
0.0
 40
6.699999999999999
100
AcDbArc
 50
280.0000000000002
 51
290.0000000000001
  0
ARC
  5
F77
330
D
100
AcDbEntity
 67
     1
  8
AM_VIS
100
AcDbCircle
 10
88.41425952664781
 20
315.4406583436899
 30
0.0
 40
7.5
100
AcDbArc
 50
249.9999999999999
 51
259.9999999999998
  0
ARC
  5
F78
330
D
100
AcDbEntity
 67
     1
  8
AM_VIS
100
AcDbCircle
 10
88.41425952664781
 20
315.4406583436899
 30
0.0
 40
6.699999999999999
100
AcDbArc
 50
249.9999999999999
 51
259.9999999999998
  0
ARC
  5
F79
330
D
100
AcDbEntity
 67
     1
  8
AM_VIS
100
AcDbCircle
 10
88.41425952664781
 20
315.4406583436899
 30
0.0
 40
7.5
100
AcDbArc
 50
219.9999999999998
 51
229.9999999999996
  0
ARC
  5
F7A
330
D
100
AcDbEntity
 67
     1
  8
AM_VIS
100
AcDbCircle
 10
88.41425952664781
 20
315.4406583436899
 30
0.0
 40
6.699999999999999
100
AcDbArc
 50
219.9999999999998
 51
229.9999999999996
  0
ARC
  5
F7B
330
D
100
AcDbEntity
 67
     1
  8
AM_VIS
100
AcDbCircle
 10
88.41425952664781
 20
315.4406583436899
 30
0.0
 40
7.5
100
AcDbArc
 50
190.0000000000002
 51
200.0000000000001
  0
ARC
  5
F7C
330
D
100
AcDbEntity
 67
     1
  8
AM_VIS
100
AcDbCircle
 10
88.41425952664781
 20
315.4406583436899
 30
0.0
 40
6.699999999999999
100
AcDbArc
 50
190.0000000000002
 51
200.0000000000001
  0
ARC
  5
F7D
330
D
100
AcDbEntity
 67
     1
  8
AM_VIS
100
AcDbCircle
 10
88.41425952664781
 20
315.4406583436899
 30
0.0
 40
7.5
100
AcDbArc
 50
159.9999999999999
 51
169.9999999999997
  0
ARC
  5
F7E
330
D
100
AcDbEntity
 67
     1
  8
AM_VIS
100
AcDbCircle
 10
88.41425952664781
 20
315.4406583436899
 30
0.0
 40
6.699999999999999
100
AcDbArc
 50
159.9999999999999
 51
169.9999999999997
  0
ARC
  5
F7F
330
D
100
AcDbEntity
 67
     1
  8
AM_VIS
100
AcDbCircle
 10
88.41425952664781
 20
315.4406583436899
 30
0.0
 40
7.5
100
AcDbArc
 50
130.0000000000004
 51
140.0000000000001
  0
ARC
  5
F80
330
D
100
AcDbEntity
 67
     1
  8
AM_VIS
100
AcDbCircle
 10
88.41425952664781
 20
315.4406583436899
 30
0.0
 40
6.699999999999999
100
AcDbArc
 50
130.0000000000004
 51
140.0000000000001
  0
ARC
  5
F81
330
D
100
AcDbEntity
 67
     1
  8
AM_VIS
100
AcDbCircle
 10
88.41425952664781
 20
315.4406583436899
 30
0.0
 40
7.5
100
AcDbArc
 50
100.0000000000002
 51
110.0000000000001
  0
ARC
  5
F82
330
D
100
AcDbEntity
 67
     1
  8
AM_VIS
100
AcDbCircle
 10
88.41425952664781
 20
315.4406583436899
 30
0.0
 40
6.699999999999999
100
AcDbArc
 50
100.0000000000002
 51
110.0000000000001
  0
ARC
  5
F83
330
D
100
AcDbEntity
 67
     1
  8
AM_VIS
100
AcDbCircle
 10
88.41425952664781
 20
315.4406583436899
 30
0.0
 40
6.699999999999999
100
AcDbArc
 50
110.0000000000001
 51
130.0000000000004
  0
ARC
  5
F84
330
D
100
AcDbEntity
 67
     1
  8
AM_VIS
100
AcDbCircle
 10
88.41425952664781
 20
315.4406583436899
 30
0.0
 40
6.699999999999999
100
AcDbArc
 50
140.0000000000001
 51
159.9999999999999
  0
ARC
  5
F85
330
D
100
AcDbEntity
 67
     1
  8
AM_VIS
100
AcDbCircle
 10
88.41425952664781
 20
315.4406583436899
 30
0.0
 40
6.699999999999999
100
AcDbArc
 50
169.9999999999997
 51
190.0000000000002
  0
ARC
  5
F86
330
D
100
AcDbEntity
 67
     1
  8
AM_VIS
100
AcDbCircle
 10
88.41425952664781
 20
315.4406583436899
 30
0.0
 40
6.699999999999999
100
AcDbArc
 50
200.0000000000001
 51
219.9999999999998
  0
ARC
  5
F87
330
D
100
AcDbEntity
 67
     1
  8
AM_VIS
100
AcDbCircle
 10
88.41425952664781
 20
315.4406583436899
 30
0.0
 40
6.699999999999999
100
AcDbArc
 50
229.9999999999996
 51
249.9999999999999
  0
ARC
  5
F88
330
D
100
AcDbEntity
 67
     1
  8
AM_VIS
100
AcDbCircle
 10
88.41425952664781
 20
315.4406583436899
 30
0.0
 40
6.699999999999999
100
AcDbArc
 50
259.9999999999998
 51
280.0000000000002
  0
ARC
  5
F89
330
D
100
AcDbEntity
 67
     1
  8
AM_VIS
100
AcDbCircle
 10
88.41425952664781
 20
315.4406583436899
 30
0.0
 40
6.699999999999999
100
AcDbArc
 50
290.0000000000001
 51
310.0000000000004
  0
ARC
  5
F8A
330
D
100
AcDbEntity
 67
     1
  8
AM_VIS
100
AcDbCircle
 10
88.41425952664781
 20
315.4406583436899
 30
0.0
 40
6.699999999999999
100
AcDbArc
 50
320.0000000000002
 51
339.9999999999999
  0
ARC
  5
F8B
330
D
100
AcDbEntity
 67
     1
  8
AM_VIS
100
AcDbCircle
 10
88.41425952664781
 20
315.4406583436899
 30
0.0
 40
6.699999999999999
100
AcDbArc
 50
349.9999999999998
 51
10.00000000000021
  0
ARC
  5
F8C
330
D
100
AcDbEntity
 67
     1
  8
AM_VIS
100
AcDbCircle
 10
88.41425952664781
 20
315.4406583436899
 30
0.0
 40
6.699999999999999
100
AcDbArc
 50
20.00000000000009
 51
39.99999999999984
  0
ARC
  5
F8D
330
D
100
AcDbEntity
 67
     1
  8
AM_VIS
100
AcDbCircle
 10
88.41425952664781
 20
315.4406583436899
 30
0.0
 40
6.699999999999999
100
AcDbArc
 50
49.9999999999996
 51
69.99999999999992
  0
ARC
  5
F8E
330
D
100
AcDbEntity
 67
     1
  8
AM_VIS
100
AcDbCircle
 10
88.41425952664781
 20
315.4406583436899
 30
0.0
 40
7.5
100
AcDbArc
 50
110.0000000000001
 51
130.0000000000004
  0
ARC
  5
F8F
330
D
100
AcDbEntity
 67
     1
  8
AM_VIS
100
AcDbCircle
 10
88.41425952664781
 20
315.4406583436899
 30
0.0
 40
7.5
100
AcDbArc
 50
140.0000000000001
 51
159.9999999999999
  0
ARC
  5
F90
330
D
100
AcDbEntity
 67
     1
  8
AM_VIS
100
AcDbCircle
 10
88.41425952664781
 20
315.4406583436899
 30
0.0
 40
7.5
100
AcDbArc
 50
169.9999999999997
 51
190.0000000000002
  0
ARC
  5
F91
330
D
100
AcDbEntity
 67
     1
  8
AM_VIS
100
AcDbCircle
 10
88.41425952664781
 20
315.4406583436899
 30
0.0
 40
7.5
100
AcDbArc
 50
200.0000000000001
 51
219.9999999999998
  0
ARC
  5
F92
330
D
100
AcDbEntity
 67
     1
  8
AM_VIS
100
AcDbCircle
 10
88.41425952664781
 20
315.4406583436899
 30
0.0
 40
7.5
100
AcDbArc
 50
229.9999999999996
 51
249.9999999999999
  0
ARC
  5
F93
330
D
100
AcDbEntity
 67
     1
  8
AM_VIS
100
AcDbCircle
 10
88.41425952664781
 20
315.4406583436899
 30
0.0
 40
7.5
100
AcDbArc
 50
259.9999999999998
 51
280.0000000000002
  0
ARC
  5
F94
330
D
100
AcDbEntity
 67
     1
  8
AM_VIS
100
AcDbCircle
 10
88.41425952664781
 20
315.4406583436899
 30
0.0
 40
7.5
100
AcDbArc
 50
290.0000000000001
 51
310.0000000000004
  0
ARC
  5
F95
330
D
100
AcDbEntity
 67
     1
  8
AM_VIS
100
AcDbCircle
 10
88.41425952664781
 20
315.4406583436899
 30
0.0
 40
7.5
100
AcDbArc
 50
320.0000000000002
 51
339.9999999999999
  0
ARC
  5
F96
330
D
100
AcDbEntity
 67
     1
  8
AM_VIS
100
AcDbCircle
 10
88.41425952664781
 20
315.4406583436899
 30
0.0
 40
7.5
100
AcDbArc
 50
349.9999999999998
 51
10.00000000000021
  0
ARC
  5
F97
330
D
100
AcDbEntity
 67
     1
  8
AM_VIS
100
AcDbCircle
 10
88.41425952664781
 20
315.4406583436899
 30
0.0
 40
7.5
100
AcDbArc
 50
20.00000000000009
 51
39.99999999999984
  0
ARC
  5
F98
330
D
100
AcDbEntity
 67
     1
  8
AM_VIS
100
AcDbCircle
 10
88.41425952664781
 20
315.4406583436899
 30
0.0
 40
7.5
100
AcDbArc
 50
49.9999999999996
 51
69.99999999999992
  0
LINE
  5
F99
330
D
100
AcDbEntity
 67
     1
  8
AM_VIS
100
AcDbLine
 10
93.32173681475955
 20
305.9406583436898
 30
0.0
 11
83.50678223853595
 21
305.9406583436899
 31
0.0
  0
LINE
  5
F9A
330
D
100
AcDbEntity
 67
     1
  8
AM_VIS
100
AcDbLine
 10
82.64075683475153
 20
306.4406583436899
 30
0.0
 11
77.73327954663972
 21
314.94065834369
 31
0.0
  0
LINE
  5
F9B
330
D
100
AcDbEntity
 67
     1
  8
AM_VIS
100
AcDbLine
 10
77.73327954663972
 20
315.94065834369
 30
0.0
 11
82.64075683475159
 21
324.4406583436899
 31
0.0
  0
LINE
  5
F9C
330
D
100
AcDbEntity
 67
     1
  8
AM_VIS
100
AcDbLine
 10
83.506782238536
 20
324.9406583436899
 30
0.0
 11
93.32173681475968
 21
324.9406583436898
 31
0.0
  0
LINE
  5
F9D
330
D
100
AcDbEntity
 67
     1
  8
AM_VIS
100
AcDbLine
 10
94.18776221854409
 20
324.4406583436898
 30
0.0
 11
99.0952395066559
 21
315.9406583436898
 31
0.0
  0
LINE
  5
F9E
330
D
100
AcDbEntity
 67
     1
  8
AM_VIS
100
AcDbLine
 10
99.09523950665585
 20
314.9406583436899
 30
0.0
 11
94.18776221854399
 21
306.4406583436899
 31
0.0
  0
ARC
  5
F9F
330
D
100
AcDbEntity
 67
     1
  8
AM_VIS
100
AcDbCircle
 10
83.50678223853595
 20
306.9406583436899
 30
0.0
 40
1.0
100
AcDbArc
 50
210.0
 51
270.0
  0
ARC
  5
FA0
330
D
100
AcDbEntity
 67
     1
  8
AM_VIS
100
AcDbCircle
 10
78.59930495042414
 20
315.4406583436899
 30
0.0
 40
1.0
100
AcDbArc
 50
150.0
 51
210.0
  0
ARC
  5
FA1
330
D
100
AcDbEntity
 67
     1
  8
AM_VIS
100
AcDbCircle
 10
83.50678223853606
 20
323.9406583436899
 30
0.0
 40
1.0
100
AcDbArc
 50
90.0
 51
149.9999999999992
  0
ARC
  5
FA2
330
D
100
AcDbEntity
 67
     1
  8
AM_VIS
100
AcDbCircle
 10
93.32173681475968
 20
323.9406583436899
 30
0.0
 40
0.9999999999999998
100
AcDbArc
 50
29.99999999999993
 51
90.0
  0
ARC
  5
FA3
330
D
100
AcDbEntity
 67
     1
  8
AM_VIS
100
AcDbCircle
 10
98.22921410287143
 20
315.4406583436899
 30
0.0
 40
1.0
100
AcDbArc
 50
330.0000000000001
 51
29.99999999999993
  0
ARC
  5
FA4
330
D
100
AcDbEntity
 67
     1
  8
AM_VIS
100
AcDbCircle
 10
93.32173681475955
 20
306.9406583436899
 30
0.0
 40
1.0
100
AcDbArc
 50
270.0
 51
329.9999999999991
  0
LINE
  5
FA5
330
D
100
AcDbEntity
 67
     1
  8
AM_VIS
100
AcDbLine
 10
71.45039006825135
 20
303.04065834369
 30
0.0
 11
81.37812898504405
 21
303.0406583436899
 31
0.0
  0
LINE
  5
FA6
330
D
100
AcDbEntity
 67
     1
  8
AM_VIS
100
AcDbLine
 10
70.44433490400797
 20
303.04065834369
 30
0.0
 11
71.45039006825135
 21
303.04065834369
 31
0.0
  0
LINE
  5
FA7
330
D
100
AcDbEntity
 67
     1
  8
AM_VIS
100
AcDbLine
 10
81.37812898504405
 20
303.0406583436899
 30
0.0
 11
82.38418414928743
 21
303.0406583436899
 31
0.0
  0
LINE
  5
FA8
330
D
100
AcDbEntity
 67
     1
  8
AM_VIS
100
AcDbLine
 10
81.37812898504405
 20
301.8406583436899
 30
0.0
 11
71.45039006825135
 21
301.8406583436899
 31
0.0
  0
LINE
  5
FA9
330
D
100
AcDbEntity
 67
     1
  8
AM_VIS
100
AcDbLine
 10
81.37812898504405
 20
301.8406583436899
 30
0.0
 11
82.38418414928743
 21
301.8406583436899
 31
0.0
  0
LINE
  5
FAA
330
D
100
AcDbEntity
 67
     1
  8
AM_VIS
100
AcDbLine
 10
70.44433490400786
 20
301.8406583436899
 30
0.0
 11
71.45039006825135
 21
301.8406583436899
 31
0.0
  0
ARC
  5
FAB
330
D
100
AcDbEntity
 67
     1
  8
AM_VIS
100
AcDbCircle
 10
76.4142595266477
 20
302.44065834369
 30
0.0
 40
5.0
100
AcDbArc
 50
6.892102579345008
 51
173.1078974206533
  0
ARC
  5
FAC
330
D
100
AcDbEntity
 67
     1
  8
AM_VIS
100
AcDbCircle
 10
76.4142595266477
 20
302.44065834369
 30
0.0
 40
6.0
100
AcDbArc
 50
354.2608295227335
 51
5.739170477266444
  0
ARC
  5
FAD
330
D
100
AcDbEntity
 67
     1
  8
AM_VIS
100
AcDbCircle
 10
76.4142595266477
 20
302.44065834369
 30
0.0
 40
6.0
100
AcDbArc
 50
5.739170477266444
 51
174.2608295227318
  0
ARC
  5
FAE
330
D
100
AcDbEntity
 67
     1
  8
AM_VIS
100
AcDbCircle
 10
76.4142595266477
 20
302.44065834369
 30
0.0
 40
6.0
100
AcDbArc
 50
174.2608295227335
 51
185.7391704772664
  0
ARC
  5
FAF
330
D
100
AcDbEntity
 67
     1
  8
AM_VIS
100
AcDbCircle
 10
76.4142595266477
 20
302.44065834369
 30
0.0
 40
5.0
100
AcDbArc
 50
186.892102579345
 51
353.1078974206534
  0
ARC
  5
FB0
330
D
100
AcDbEntity
 67
     1
  8
AM_VIS
100
AcDbCircle
 10
76.4142595266477
 20
302.44065834369
 30
0.0
 40
6.0
100
AcDbArc
 50
185.7391704772664
 51
354.2608295227335
  0
LINE
  5
FB1
330
D
100
AcDbEntity
 67
     1
  8
AM_VIS
100
AcDbLine
 10
52.9142595262283
 20
329.4406583518709
 30
0.0
 11
54.66425952622831
 21
329.4406583518709
 31
0.0
  0
LINE
  5
FB2
330
D
100
AcDbEntity
 67
     1
  8
AM_VIS
100
AcDbLine
 10
55.91425952622825
 20
326.4406583518709
 30
0.0
 11
54.66425952622825
 21
329.440658351871
 31
0.0
  0
LINE
  5
FB3
330
D
100
AcDbEntity
 67
     1
  8
AM_VIS
100
AcDbLine
 10
52.91425952622813
 20
299.4406583418709
 30
0.0
 11
54.66425952622813
 21
299.4406583418709
 31
0.0
  0
LINE
  5
FB4
330
D
100
AcDbEntity
 67
     1
  8
AM_VIS
100
AcDbLine
 10
54.66425952622813
 20
299.4406583418709
 30
0.0
 11
55.91425952622819
 21
302.440658341871
 31
0.0
  0
LINE
  5
FB5
330
D
100
AcDbEntity
 67
     1
  8
AM_VIS
100
AcDbLine
 10
105.9142595262283
 20
329.4406583518707
 30
0.0
 11
104.1642595262283
 21
329.4406583518707
 31
0.0
  0
LINE
  5
FB6
330
D
100
AcDbEntity
 67
     1
  8
AM_VIS
100
AcDbLine
 10
104.1642595262283
 20
329.4406583518707
 30
0.0
 11
102.9142595262282
 21
326.4406583518706
 31
0.0
  0
LINE
  5
FB7
330
D
100
AcDbEntity
 67
     1
  8
AM_VIS
100
AcDbLine
 10
105.9142595262281
 20
299.4406583418706
 30
0.0
 11
104.1642595262281
 21
299.4406583418706
 31
0.0
  0
LINE
  5
FB8
330
D
100
AcDbEntity
 67
     1
  8
AM_VIS
100
AcDbLine
 10
102.9142595262281
 20
302.4406583418706
 30
0.0
 11
104.1642595262281
 21
299.4406583418706
 31
0.0
  0
LINE
  5
FB9
330
D
100
AcDbEntity
 67
     1
  8
AM_VIS
100
AcDbLine
 10
105.9142595262281
 20
302.4406583418708
 30
0.0
 11
105.9142595262281
 21
299.4406583418708
 31
0.0
  0
LINE
  5
FBA
330
D
100
AcDbEntity
 67
     1
  8
AM_VIS
100
AcDbLine
 10
105.9142595262283
 20
329.4406583518706
 30
0.0
 11
105.9142595262282
 21
326.4406583518705
 31
0.0
  0
LINE
  5
FBB
330
D
100
AcDbEntity
 67
     1
  8
AM_VIS
100
AcDbLine
 10
52.91425952622825
 20
326.4406583518708
 30
0.0
 11
52.91425952622825
 21
329.4406583518708
 31
0.0
  0
LINE
  5
FBC
330
D
100
AcDbEntity
 67
     1
  8
AM_VIS
100
AcDbLine
 10
52.91425952622813
 20
299.440658341871
 30
0.0
 11
52.91425952622813
 21
302.4406583418711
 31
0.0
  0
LINE
  5
FBD
330
D
100
AcDbEntity
 67
     1
  8
AM_VIS
100
AcDbLine
 10
73.07285689496064
 20
310.0954123405853
 30
0.0
 11
73.46333492164723
 21
309.461231715683
 31
0.0
  0
LINE
  5
FBE
330
D
100
AcDbEntity
 67
     1
  8
AM_VIS
100
AcDbLine
 10
73.01470059311373
 20
310.0372560387384
 30
0.0
 11
73.07285689496064
 21
310.0954123405853
 31
0.0
  0
SPLINE
  5
FBF
330
D
100
AcDbEntity
 67
     1
  8
AM_VIS
100
AcDbSpline
210
0.0
220
0.0
230
1.0
 70
     8
 71
     3
 72
     8
 73
     4
 74
     0
 42
0.0000000001
 43
0.0000000001
 40
0.0
 40
0.0
 40
0.0
 40
0.0
 40
80.0
 40
80.0
 40
80.0
 40
80.0
 10
73.09224232890961
 20
309.3892286753011
 30
0.0
 10
73.1587066316207
 20
309.5553894954641
 30
0.0
 10
73.1328594426979
 20
309.7713986166098
 30
0.0
 10
73.01470059311373
 20
310.0372560387384
 30
0.0
  0
SPLINE
  5
FC0
330
D
100
AcDbEntity
 67
     1
  8
AM_VIS
100
AcDbSpline
210
0.0
220
0.0
230
1.0
 70
     8
 71
     3
 72
     8
 73
     4
 74
     0
 42
0.0000000001
 43
0.0000000001
 40
0.0
 40
0.0
 40
0.0
 40
0.0
 40
80.0
 40
80.0
 40
80.0
 40
80.0
 10
72.6685321297391
 20
308.8547445678508
 30
0.0
 10
72.90854223617429
 20
309.0947546742858
 30
0.0
 10
73.04977896923105
 20
309.2729160716073
 30
0.0
 10
73.09224232890961
 20
309.3892286753011
 30
0.0
  0
SPLINE
  5
FC1
330
D
100
AcDbEntity
 67
     1
  8
AM_VIS
100
AcDbSpline
210
0.0
220
0.0
230
1.0
 70
     8
 71
     3
 72
     8
 73
     4
 74
     0
 42
0.0000000001
 43
0.0000000001
 40
0.0
 40
0.0
 40
0.0
 40
0.0
 40
80.0
 40
80.0
 40
80.0
 40
80.0
 10
72.40544409757444
 20
308.635966098998
 30
0.0
 10
72.45529231404351
 20
308.6562746347636
 30
0.0
 10
72.5429883388507
 20
308.7292007769622
 30
0.0
 10
72.6685321297391
 20
308.8547445678508
 30
0.0
  0
SPLINE
  5
FC2
330
D
100
AcDbEntity
 67
     1
  8
AM_VIS
100
AcDbSpline
210
0.0
220
0.0
230
1.0
 70
     8
 71
     3
 72
     8
 73
     4
 74
     0
 42
0.0000000001
 43
0.0000000001
 40
0.0
 40
0.0
 40
0.0
 40
0.0
 40
80.0
 40
80.0
 40
80.0
 40
80.0
 10
72.23097519203361
 20
308.7107384870869
 30
0.0
 10
72.29743953700154
 20
308.644274142119
 30
0.0
 10
72.35559583884844
 20
308.6193500127559
 30
0.0
 10
72.40544409757444
 20
308.635966098998
 30
0.0
  0
LINE
  5
FC3
330
D
100
AcDbEntity
 67
     1
  8
AM_VIS
100
AcDbLine
 10
70.77706764586025
 20
310.1646460332603
 30
0.0
 11
72.23097519203361
 21
308.7107384870869
 31
0.0
  0
SPLINE
  5
FC4
330
D
100
AcDbEntity
 67
     1
  8
AM_VIS
100
AcDbSpline
210
0.0
220
0.0
230
1.0
 70
     8
 71
     3
 72
     8
 73
     4
 74
     0
 42
0.0000000001
 43
0.0000000001
 40
0.0
 40
0.0
 40
0.0
 40
0.0
 40
80.0
 40
80.0
 40
80.0
 40
80.0
 10
70.6081374357334
 20
310.4886597149789
 30
0.0
 10
70.59706004490545
 20
310.3963480965744
 30
0.0
 10
70.65337014311899
 20
310.2883435360015
 30
0.0
 10
70.77706764586025
 20
310.1646460332603
 30
0.0
  0
SPLINE
  5
FC5
330
D
100
AcDbEntity
 67
     1
  8
AM_VIS
100
AcDbSpline
210
0.0
220
0.0
230
1.0
 70
     8
 71
     3
 72
     8
 73
     4
 74
     0
 42
0.0000000001
 43
0.0000000001
 40
0.0
 40
0.0
 40
0.0
 40
0.0
 40
80.0
 40
80.0
 40
80.0
 40
80.0
 10
70.77706764586025
 20
310.7406703563156
 30
0.0
 10
70.67367863662775
 20
310.6372813470831
 30
0.0
 10
70.61736858067115
 20
310.5532778140565
 30
0.0
 10
70.6081374357334
 20
310.4886597149789
 30
0.0
  0
LINE
  5
FC6
330
D
100
AcDbEntity
 67
     1
  8
AM_VIS
100
AcDbLine
 10
70.72168069172028
 20
310.7960573104556
 30
0.0
 11
70.77706764586025
 21
310.7406703563156
 31
0.0
  0
LINE
  5
FC7
330
D
100
AcDbEntity
 67
     1
  8
AM_VIS
100
AcDbLine
 10
69.98503420165912
 20
310.0594108203944
 30
0.0
 11
70.72168069172028
 21
310.7960573104556
 31
0.0
  0
LINE
  5
FC8
330
D
100
AcDbEntity
 67
     1
  8
AM_VIS
100
AcDbLine
 10
70.04042115579903
 20
310.0040238662544
 30
0.0
 11
69.98503420165912
 21
310.0594108203944
 31
0.0
  0
SPLINE
  5
FC9
330
D
100
AcDbEntity
 67
     1
  8
AM_VIS
100
AcDbSpline
210
0.0
220
0.0
230
1.0
 70
     8
 71
     3
 72
     8
 73
     4
 74
     0
 42
0.0000000001
 43
0.0000000001
 40
0.0
 40
0.0
 40
0.0
 40
0.0
 40
80.0
 40
80.0
 40
80.0
 40
80.0
 10
70.28966244942876
 20
310.1535686424323
 30
0.0
 10
70.23058304576512
 20
310.1461837011279
 30
0.0
 10
70.14750257229832
 20
310.0963354001451
 30
0.0
 10
70.04042115579903
 20
310.0040238662544
 30
0.0
  0
SPLINE
  5
FCA
330
D
100
AcDbEntity
 67
     1
  8
AM_VIS
100
AcDbSpline
210
0.0
220
0.0
230
1.0
 70
     8
 71
     3
 72
     8
 73
     4
 74
     0
 42
0.0000000001
 43
0.0000000001
 40
0.0
 40
0.0
 40
0.0
 40
0.0
 40
80.0
 40
80.0
 40
80.0
 40
80.0
 10
70.60259874031942
 20
309.9901771277195
 30
0.0
 10
70.48443993299213
 20
310.1083359350468
 30
0.0
 10
70.38012782194295
 20
310.16279978737
 30
0.0
 10
70.28966244942876
 20
310.1535686424323
 30
0.0
  0
LINE
  5
FCB
330
D
100
AcDbEntity
 67
     1
  8
AM_VIS
100
AcDbLine
 10
71.93465498738493
 20
308.6581208806539
 30
0.0
 11
70.60259874031942
 21
309.9901771277195
 31
0.0
  0
SPLINE
  5
FCC
330
D
100
AcDbEntity
 67
     1
  8
AM_VIS
100
AcDbSpline
210
0.0
220
0.0
230
1.0
 70
     8
 71
     3
 72
     8
 73
     4
 74
     0
 42
0.0000000001
 43
0.0000000001
 40
0.0
 40
0.0
 40
0.0
 40
0.0
 40
80.0
 40
80.0
 40
80.0
 40
80.0
 10
72.10358519751173
 20
308.3451845897633
 30
0.0
 10
72.10543140114515
 20
308.4393424118011
 30
0.0
 10
72.04912138744544
 20
308.5436544805934
 30
0.0
 10
71.93465498738493
 20
308.6581208806539
 30
0.0
  0
SPLINE
  5
FCD
330
D
100
AcDbEntity
 67
     1
  8
AM_VIS
100
AcDbSpline
210
0.0
220
0.0
230
1.0
 70
     8
 71
     3
 72
     8
 73
     4
 74
     0
 42
0.0000000001
 43
0.0000000001
 40
0.0
 40
0.0
 40
0.0
 40
0.0
 40
80.0
 40
80.0
 40
80.0
 40
80.0
 10
71.96788715986889
 20
308.0765578621846
 30
0.0
 10
72.05465999834564
 20
308.1817930750505
 30
0.0
 10
72.09989270573112
 20
308.271335345748
 30
0.0
 10
72.10358519751173
 20
308.3451845897633
 30
0.0
  0
LINE
  5
FCE
330
D
100
AcDbEntity
 67
     1
  8
AM_VIS
100
AcDbLine
 10
72.02327411400881
 20
308.0211709080446
 30
0.0
 11
71.96788715986889
 21
308.0765578621846
 31
0.0
  0
LINE
  5
FCF
330
D
100
AcDbEntity
 67
     1
  8
AM_VIS
100
AcDbLine
 10
73.46333492164723
 20
309.461231715683
 30
0.0
 11
72.02327411400881
 21
308.0211709080446
 31
0.0
  0
SPLINE
  5
FD0
330
D
100
AcDbEntity
 67
     1
  8
AM_VIS
100
AcDbSpline
210
0.0
220
0.0
230
1.0
 70
     8
 71
     3
 72
     8
 73
     4
 74
     0
 42
0.0000000001
 43
0.0000000001
 40
0.0
 40
0.0
 40
0.0
 40
0.0
 40
80.0
 40
80.0
 40
80.0
 40
80.0
 10
69.79256453602284
 20
307.8397786332363
 30
0.0
 10
69.46393530296376
 20
308.1684078662954
 30
0.0
 10
69.13161353586724
 20
308.3474923654335
 30
0.0
 10
68.79559936150394
 20
308.3770320883938
 30
0.0
  0
SPLINE
  5
FD1
330
D
100
AcDbEntity
 67
     1
  8
AM_VIS
100
AcDbSpline
210
0.0
220
0.0
230
1.0
 70
     8
 71
     3
 72
     8
 73
     4
 74
     0
 42
0.0000000001
 43
0.0000000001
 40
0.0
 40
0.0
 40
0.0
 40
0.0
 40
80.0
 40
80.0
 40
80.0
 40
80.0
 10
70.32427929576624
 20
306.8649682403734
 30
0.0
 10
70.29289336917258
 20
307.1917512275422
 30
0.0
 10
70.11565511592471
 20
307.5166880533344
 30
0.0
 10
69.79256453602284
 20
307.8397786332363
 30
0.0
  0
SPLINE
  5
FD2
330
D
100
AcDbEntity
 67
     1
  8
AM_VIS
100
AcDbSpline
210
0.0
220
0.0
230
1.0
 70
     8
 71
     3
 72
     8
 73
     4
 74
     0
 42
0.0000000001
 43
0.0000000001
 40
0.0
 40
0.0
 40
0.0
 40
0.0
 40
80.0
 40
80.0
 40
80.0
 40
80.0
 10
70.09719278379248
 20
306.1837087044522
 30
0.0
 10
70.27258479114999
 20
306.3591007118097
 30
0.0
 10
70.34828028105562
 20
306.5861872660403
 30
0.0
 10
70.32427929576624
 20
306.8649682403734
 30
0.0
  0
SPLINE
  5
FD3
330
D
100
AcDbEntity
 67
     1
  8
AM_VIS
100
AcDbSpline
210
0.0
220
0.0
230
1.0
 70
     8
 71
     3
 72
     8
 73
     4
 74
     0
 42
0.0000000001
 43
0.0000000001
 40
0.0
 40
0.0
 40
0.0
 40
0.0
 40
80.0
 40
80.0
 40
80.0
 40
80.0
 10
69.42147194328526
 20
305.9621608878924
 30
0.0
 10
69.69656042583773
 20
305.9344674108225
 30
0.0
 10
69.92180073417808
 20
306.0083166548378
 30
0.0
 10
70.09719278379248
 20
306.1837087044522
 30
0.0
  0
SPLINE
  5
FD4
330
D
100
AcDbEntity
 67
     1
  8
AM_VIS
100
AcDbSpline
210
0.0
220
0.0
230
1.0
 70
     8
 71
     3
 72
     8
 73
     4
 74
     0
 42
0.0000000001
 43
0.0000000001
 40
0.0
 40
0.0
 40
0.0
 40
0.0
 40
80.0
 40
80.0
 40
80.0
 40
80.0
 10
68.44666155042228
 20
306.4938756476359
 30
0.0
 10
68.76975208806732
 20
306.170785025477
 30
0.0
 10
69.09468891385961
 20
305.9935467722292
 30
0.0
 10
69.42147194328526
 20
305.9621608878924
 30
0.0
  0
SPLINE
  5
FD5
330
D
100
AcDbEntity
 67
     1
  8
AM_VIS
100
AcDbSpline
210
0.0
220
0.0
230
1.0
 70
     8
 71
     3
 72
     8
 73
     4
 74
     0
 42
0.0000000001
 43
0.0000000001
 40
0.0
 40
0.0
 40
0.0
 40
0.0
 40
80.0
 40
80.0
 40
80.0
 40
80.0
 10
67.90940809526489
 20
307.4908408221547
 30
0.0
 10
67.93894777596825
 20
307.1548266055345
 30
0.0
 10
68.11803227510637
 20
306.822504838438
 30
0.0
 10
68.44666155042228
 20
306.4938756476359
 30
0.0
  0
SPLINE
  5
FD6
330
D
100
AcDbEntity
 67
     1
  8
AM_VIS
100
AcDbSpline
210
0.0
220
0.0
230
1.0
 70
     8
 71
     3
 72
     8
 73
     4
 74
     0
 42
0.0000000001
 43
0.0000000001
 40
0.0
 40
0.0
 40
0.0
 40
0.0
 40
80.0
 40
80.0
 40
80.0
 40
80.0
 10
68.12818656411764
 20
308.152714924127
 30
0.0
 10
67.96017945580752
 20
307.9847078158169
 30
0.0
 10
67.88725331360893
 20
307.7640831010739
 30
0.0
 10
67.90940809526489
 20
307.4908408221547
 30
0.0
  0
SPLINE
  5
FD7
330
D
100
AcDbEntity
 67
     1
  8
AM_VIS
100
AcDbSpline
210
0.0
220
0.0
230
1.0
 70
     8
 71
     3
 72
     8
 73
     4
 74
     0
 42
0.0000000001
 43
0.0000000001
 40
0.0
 40
0.0
 40
0.0
 40
0.0
 40
80.0
 40
80.0
 40
80.0
 40
80.0
 10
68.79559936150394
 20
308.3770320883938
 30
0.0
 10
68.52051083669448
 20
308.3973406241594
 30
0.0
 10
68.29803987606118
 20
308.3225682360705
 30
0.0
 10
68.12818656411764
 20
308.152714924127
 30
0.0
  0
SPLINE
  5
FD8
330
D
100
AcDbEntity
 67
     1
  8
AM_VIS
100
AcDbSpline
210
0.0
220
0.0
230
1.0
 70
     8
 71
     3
 72
     8
 73
     4
 74
     0
 42
0.0000000001
 43
0.0000000001
 40
0.0
 40
0.0
 40
0.0
 40
0.0
 40
80.0
 40
80.0
 40
80.0
 40
80.0
 10
69.98918822321957
 20
308.0308636250192
 30
0.0
 10
70.30858635359783
 20
307.7114654946409
 30
0.0
 10
70.48305521688178
 20
307.36898948079
 30
0.0
 10
70.51259493984201
 20
307.0034356257232
 30
0.0
  0
SPLINE
  5
FD9
330
D
100
AcDbEntity
 67
     1
  8
AM_VIS
100
AcDbSpline
210
0.0
220
0.0
230
1.0
 70
     8
 71
     3
 72
     8
 73
     4
 74
     0
 42
0.0000000001
 43
0.0000000001
 40
0.0
 40
0.0
 40
0.0
 40
0.0
 40
80.0
 40
80.0
 40
80.0
 40
80.0
 10
68.92298935602582
 20
308.5598090370555
 30
0.0
 10
69.29777439828706
 20
308.5431929085566
 30
0.0
 10
69.65317404885627
 20
308.3668777993825
 30
0.0
 10
69.98918822321957
 20
308.0308636250192
 30
0.0
  0
SPLINE
  5
FDA
330
D
100
AcDbEntity
 67
     1
  8
AM_VIS
100
AcDbSpline
210
0.0
220
0.0
230
1.0
 70
     8
 71
     3
 72
     8
 73
     4
 74
     0
 42
0.0000000001
 43
0.0000000001
 40
0.0
 40
0.0
 40
0.0
 40
0.0
 40
80.0
 40
80.0
 40
80.0
 40
80.0
 10
68.05618352373574
 20
308.224717964509
 30
0.0
 10
68.29434742653745
 20
308.4628818673107
 30
0.0
 10
68.58328268988185
 20
308.5745788774072
 30
0.0
 10
68.92298935602582
 20
308.5598090370555
 30
0.0
  0
SPLINE
  5
FDB
330
D
100
AcDbEntity
 67
     1
  8
AM_VIS
100
AcDbSpline
210
0.0
220
0.0
230
1.0
 70
     8
 71
     3
 72
     8
 73
     4
 74
     0
 42
0.0000000001
 43
0.0000000001
 40
0.0
 40
0.0
 40
0.0
 40
0.0
 40
80.0
 40
80.0
 40
80.0
 40
80.0
 10
67.72386179889611
 20
307.3606814799259
 30
0.0
 10
67.70909191628755
 20
307.7003881038129
 30
0.0
 10
67.81986582456738
 20
307.9884002653406
 30
0.0
 10
68.05618352373574
 20
308.224717964509
 30
0.0
  0
SPLINE
  5
FDC
330
D
100
AcDbEntity
 67
     1
  8
AM_VIS
100
AcDbSpline
210
0.0
220
0.0
230
1.0
 70
     8
 71
     3
 72
     8
 73
     4
 74
     0
 42
0.0000000001
 43
0.0000000001
 40
0.0
 40
0.0
 40
0.0
 40
0.0
 40
80.0
 40
80.0
 40
80.0
 40
80.0
 10
68.25003786322554
 20
306.2917132650251
 30
0.0
 10
67.91586989249561
 20
306.6258811512412
 30
0.0
 10
67.74047788513809
 20
306.9822039036271
 30
0.0
 10
67.72386179889611
 20
307.3606814799259
 30
0.0
  0
SPLINE
  5
FDD
330
D
100
AcDbEntity
 67
     1
  8
AM_VIS
100
AcDbSpline
210
0.0
220
0.0
230
1.0
 70
     8
 71
     3
 72
     8
 73
     4
 74
     0
 42
0.0000000001
 43
0.0000000001
 40
0.0
 40
0.0
 40
0.0
 40
0.0
 40
80.0
 40
80.0
 40
80.0
 40
80.0
 10
69.2802352102284
 20
305.7710758961097
 30
0.0
 10
68.9128350670145
 20
305.7987693309227
 30
0.0
 10
68.56943595134691
 20
305.9723150923899
 30
0.0
 10
68.25003786322554
 20
306.2917132650251
 30
0.0
  0
SPLINE
  5
FDE
330
D
100
AcDbEntity
 67
     1
  8
AM_VIS
100
AcDbSpline
210
0.0
220
0.0
230
1.0
 70
     8
 71
     3
 72
     8
 73
     4
 74
     0
 42
0.0000000001
 43
0.0000000001
 40
0.0
 40
0.0
 40
0.0
 40
0.0
 40
80.0
 40
80.0
 40
80.0
 40
80.0
 10
70.1775038672954
 20
306.1033976209493
 30
0.0
 10
69.9301087772991
 20
305.8560025309529
 30
0.0
 10
69.63101922494343
 20
305.745228622673
 30
0.0
 10
69.2802352102284
 20
305.7710758961097
 30
0.0
  0
SPLINE
  5
FDF
330
D
100
AcDbEntity
 67
     1
  8
AM_VIS
100
AcDbSpline
210
0.0
220
0.0
230
1.0
 70
     8
 71
     3
 72
     8
 73
     4
 74
     0
 42
0.0000000001
 43
0.0000000001
 40
0.0
 40
0.0
 40
0.0
 40
0.0
 40
80.0
 40
80.0
 40
80.0
 40
80.0
 10
70.51259493984201
 20
307.0034356257232
 30
0.0
 10
70.5384421710217
 20
306.6526515687514
 30
0.0
 10
70.42674516092512
 20
306.352638914579
 30
0.0
 10
70.1775038672954
 20
306.1033976209493
 30
0.0
  0
LINE
  5
FE0
330
D
100
AcDbEntity
 67
     1
  8
AM_VIS
100
AcDbLine
 10
71.94296303050589
 20
307.9408598245417
 30
0.0
 11
71.15092958630481
 21
307.1488263803406
 31
0.0
  0
LINE
  5
FE1
330
D
100
AcDbEntity
 67
     1
  8
AM_VIS
100
AcDbLine
 10
71.88757607636597
 20
307.9962467786817
 30
0.0
 11
71.94296303050589
 21
307.9408598245417
 31
0.0
  0
SPLINE
  5
FE2
330
D
100
AcDbEntity
 67
     1
  8
AM_VIS
100
AcDbSpline
210
0.0
220
0.0
230
1.0
 70
     8
 71
     3
 72
     8
 73
     4
 74
     0
 42
0.0000000001
 43
0.0000000001
 40
0.0
 40
0.0
 40
0.0
 40
0.0
 40
80.0
 40
80.0
 40
80.0
 40
80.0
 10
71.59679456713127
 20
307.8217778731408
 30
0.0
 10
71.67433626067031
 20
307.8291628144451
 30
0.0
 10
71.77126343041521
 20
307.8873191162921
 30
0.0
 10
71.88757607636597
 20
307.9962467786817
 30
0.0
  0
SPLINE
  5
FE3
330
D
100
AcDbEntity
 67
     1
  8
AM_VIS
100
AcDbSpline
210
0.0
220
0.0
230
1.0
 70
     8
 71
     3
 72
     8
 73
     4
 74
     0
 42
0.0000000001
 43
0.0000000001
 40
0.0
 40
0.0
 40
0.0
 40
0.0
 40
80.0
 40
80.0
 40
80.0
 40
80.0
 10
71.2755502331197
 20
307.9768613447327
 30
0.0
 10
71.39186283681351
 20
307.8605487410388
 30
0.0
 10
71.49894425331286
 20
307.8088542786795
 30
0.0
 10
71.59679456713127
 20
307.8217778731408
 30
0.0
  0
LINE
  5
FE4
330
D
100
AcDbEntity
 67
     1
  8
AM_VIS
100
AcDbLine
 10
69.94626333376118
 20
309.3061482440912
 30
0.0
 11
71.2755502331197
 21
307.9768613447327
 31
0.0
  0
SPLINE
  5
FE5
330
D
100
AcDbEntity
 67
     1
  8
AM_VIS
100
AcDbSpline
210
0.0
220
0.0
230
1.0
 70
     8
 71
     3
 72
     8
 73
     4
 74
     0
 42
0.0000000001
 43
0.0000000001
 40
0.0
 40
0.0
 40
0.0
 40
0.0
 40
80.0
 40
80.0
 40
80.0
 40
80.0
 10
69.78564116675534
 20
309.6329312735169
 30
0.0
 10
69.77456377592734
 20
309.533234756065
 30
0.0
 10
69.82810452643389
 20
309.4243070514185
 30
0.0
 10
69.94626333376118
 20
309.3061482440912
 30
0.0
  0
SPLINE
  5
FE6
330
D
100
AcDbEntity
 67
     1
  8
AM_VIS
100
AcDbSpline
210
0.0
220
0.0
230
1.0
 70
     8
 71
     3
 72
     8
 73
     4
 74
     0
 42
0.0000000001
 43
0.0000000001
 40
0.0
 40
0.0
 40
0.0
 40
0.0
 40
80.0
 40
80.0
 40
80.0
 40
80.0
 10
69.96287942000311
 20
309.9209434350445
 30
0.0
 10
69.85579796124693
 20
309.8027845854604
 30
0.0
 10
69.79671855758329
 20
309.7067805175321
 30
0.0
 10
69.78564116675534
 20
309.6329312735169
 30
0.0
  0
LINE
  5
FE7
330
D
100
AcDbEntity
 67
     1
  8
AM_VIS
100
AcDbLine
 10
69.90749246586318
 20
309.9763303891844
 30
0.0
 11
69.96287942000311
 21
309.9209434350445
 31
0.0
  0
LINE
  5
FE8
330
D
100
AcDbEntity
 67
     1
  8
AM_VIS
100
AcDbLine
 10
69.1154590216621
 20
309.1842969449833
 30
0.0
 11
69.90749246586318
 21
309.9763303891844
 31
0.0
  0
LINE
  5
FE9
330
D
100
AcDbEntity
 67
     1
  8
AM_VIS
100
AcDbLine
 10
69.17084597580196
 20
309.1289099908434
 30
0.0
 11
69.11545902166205
 21
309.1842969449833
 31
0.0
  0
SPLINE
  5
FEA
330
D
100
AcDbEntity
 67
     1
  8
AM_VIS
100
AcDbSpline
210
0.0
220
0.0
230
1.0
 70
     8
 71
     3
 72
     8
 73
     4
 74
     0
 42
0.0000000001
 43
0.0000000001
 40
0.0
 40
0.0
 40
0.0
 40
0.0
 40
80.0
 40
80.0
 40
80.0
 40
80.0
 10
69.47824357127865
 20
309.3089175917982
 30
0.0
 10
69.40254808137308
 20
309.3033788541273
 30
0.0
 10
69.30008217395727
 20
309.2433763063902
 30
0.0
 10
69.17084597580196
 20
309.1289099908434
 30
0.0
  0
SPLINE
  5
FEB
330
D
100
AcDbEntity
 67
     1
  8
AM_VIS
100
AcDbSpline
210
0.0
220
0.0
230
1.0
 70
     8
 71
     3
 72
     8
 73
     4
 74
     0
 42
0.0000000001
 43
0.0000000001
 40
0.0
 40
0.0
 40
0.0
 40
0.0
 40
80.0
 40
80.0
 40
80.0
 40
80.0
 10
69.78287181904829
 20
309.1427567293784
 30
0.0
 10
69.66840546124479
 20
309.2572230871819
 30
0.0
 10
69.56686269790259
 20
309.312609999065
 30
0.0
 10
69.47824357127865
 20
309.3089175917982
 30
0.0
  0
LINE
  5
FEC
330
D
100
AcDbEntity
 67
     1
  8
AM_VIS
100
AcDbLine
 10
71.11215871840681
 20
307.8134698300199
 30
0.0
 11
69.78287181904829
 21
309.1427567293784
 31
0.0
  0
SPLINE
  5
FED
330
D
100
AcDbEntity
 67
     1
  8
AM_VIS
100
AcDbSpline
210
0.0
220
0.0
230
1.0
 70
     8
 71
     3
 72
     8
 73
     4
 74
     0
 42
0.0000000001
 43
0.0000000001
 40
0.0
 40
0.0
 40
0.0
 40
0.0
 40
80.0
 40
80.0
 40
80.0
 40
80.0
 10
71.27278088541266
 20
307.5199189730782
 30
0.0
 10
71.2764732926795
 20
307.6048456079215
 30
0.0
 10
71.22293262668671
 20
307.70269592174
 30
0.0
 10
71.11215871840681
 20
307.8134698300199
 30
0.0
  0
SPLINE
  5
FEE
330
D
100
AcDbEntity
 67
     1
  8
AM_VIS
100
AcDbSpline
210
0.0
220
0.0
230
1.0
 70
     8
 71
     3
 72
     8
 73
     4
 74
     0
 42
0.0000000001
 43
0.0000000001
 40
0.0
 40
0.0
 40
0.0
 40
0.0
 40
80.0
 40
80.0
 40
80.0
 40
80.0
 10
71.09554263216489
 20
307.2042133344805
 30
0.0
 10
71.21185519360188
 20
307.3316032867455
 30
0.0
 10
71.27093459726552
 20
307.4368385418683
 30
0.0
 10
71.27278088541266
 20
307.5199189730782
 30
0.0
  0
LINE
  5
FEF
330
D
100
AcDbEntity
 67
     1
  8
AM_VIS
100
AcDbLine
 10
71.15092958630481
 20
307.1488263803406
 30
0.0
 11
71.09554263216489
 21
307.2042133344805
 31
0.0
  0
LINE
  5
FF0
330
D
100
AcDbEntity
 67
     1
  8
AM_VIS
100
AcDbLine
 10
62.58248934257074
 20
334.1816565822211
 30
0.0
 11
58.55584803541114
 21
326.7036084403534
 31
0.0
  0
LINE
  5
FF1
330
D
100
AcDbEntity
 67
     1
  8
AM_VIS
100
AcDbLine
 10
56.45576483035824
 20
316.9199056906405
 30
0.0
 11
61.0564886500884
 21
314.6195437724104
 31
0.0
  0
LINE
  5
FF2
330
D
100
AcDbEntity
 67
     1
  8
AM_VIS
100
AcDbLine
 10
61.05648864956805
 20
314.2617728960104
 30
0.0
 11
56.45576482872354
 21
311.9614109939532
 31
0.0
  0
LINE
  5
FF3
330
D
100
AcDbEntity
 67
     1
  8
AM_VIS
100
AcDbLine
 10
52.91425952622813
 20
303.4406583418709
 30
0.0
 11
52.91425952622825
 21
325.4406583518709
 31
0.0
  0
LINE
  5
FF4
330
D
100
AcDbEntity
 67
     1
  8
AM_VIS
100
AcDbLine
 10
105.9142595262282
 20
325.4406583518707
 30
0.0
 11
105.9142595262281
 21
303.4406583418706
 31
0.0
  0
LINE
  5
FF5
330
D
100
AcDbEntity
 67
     1
  8
AM_VIS
100
AcDbLine
 10
71.38720034179221
 20
289.4406583318708
 30
0.0
 11
87.4413187106639
 21
289.4406583318708
 31
0.0
  0
LINE
  5
FF6
330
D
100
AcDbEntity
 67
     1
  8
AM_VIS
100
AcDbLine
 10
96.24602970988565
 20
294.6996601015205
 30
0.0
 11
100.2726710224298
 21
302.1777082533882
 31
0.0
  0
LINE
  5
FF7
330
D
100
AcDbEntity
 67
     1
  8
AM_VIS
100
AcDbLine
 10
58.55584803002637
 20
302.1777082533884
 30
0.0
 11
62.58248934257051
 21
294.6996601015207
 31
0.0
  0
LINE
  5
FF8
330
D
100
AcDbEntity
 67
     1
  8
AM_VIS
100
AcDbLine
 10
69.22848513249636
 20
287.9406583518709
 30
0.0
 11
89.60003391995986
 21
287.9406583518708
 31
0.0
  0
LINE
  5
FF9
330
D
100
AcDbEntity
 67
     1
  8
AM_VIS
100
AcDbLine
 10
87.44131872066418
 20
339.4406583518708
 30
0.0
 11
71.38720034179243
 21
339.4406583518708
 31
0.0
  0
LINE
  5
FFA
330
D
100
AcDbEntity
 67
     1
  8
AM_VIS
100
AcDbLine
 10
100.2726710270453
 20
326.7036084403532
 30
0.0
 11
96.24602971988588
 21
334.1816565822209
 31
0.0
  0
LINE
  5
FFB
330
D
100
AcDbEntity
 67
     1
  8
AM_VIS
100
AcDbLine
 10
89.60003391995996
 20
340.9406583518708
 30
0.0
 11
69.2284851324967
 21
340.9406583518709
 31
0.0
  0
LINE
  5
FFC
330
D
100
AcDbEntity
 67
     1
  8
AM_VIS
100
AcDbLine
 10
58.11561248545001
 20
326.4406583518709
 30
0.0
 11
52.91425952622825
 21
326.4406583518709
 31
0.0
  0
LINE
  5
FFD
330
D
100
AcDbEntity
 67
     1
  8
AM_VIS
100
AcDbLine
 10
100.7129065723909
 20
302.4406583418707
 30
0.0
 11
105.9142595262281
 21
302.4406583418706
 31
0.0
  0
LINE
  5
FFE
330
D
100
AcDbEntity
 67
     1
  8
AM_VIS
100
AcDbLine
 10
52.91425952622813
 20
302.4406583418709
 30
0.0
 11
58.1156124800653
 21
302.4406583418709
 31
0.0
  0
LINE
  5
FFF
330
D
100
AcDbEntity
 67
     1
  8
AM_VIS
100
AcDbLine
 10
105.9142595262282
 20
326.4406583518706
 30
0.0
 11
100.7129065770065
 21
326.4406583518707
 31
0.0
  0
CIRCLE
  5
1000
330
D
100
AcDbEntity
 67
     1
  8
AM_VIS
100
AcDbCircle
 10
88.41425952664781
 20
315.4406583436899
 30
0.0
 40
11.0
  0
LINE
  5
1001
330
D
100
AcDbEntity
 67
     1
  8
AM_VIS
100
AcDbLine
 10
52.91425952622825
 20
325.4406583518709
 30
0.0
 11
52.91425952622825
 21
326.4406583518709
 31
0.0
  0
ARC
  5
1002
330
D
100
AcDbEntity
 67
     1
  8
AM_VIS
100
AcDbCircle
 10
71.38720034179243
 20
329.4406583518709
 30
0.0
 40
10.0
100
AcDbArc
 50
90.0
 51
151.6992442339945
  0
ARC
  5
1003
330
D
100
AcDbEntity
 67
     1
  8
AM_VIS
100
AcDbCircle
 10
58.11561248545001
 20
326.9406583518709
 30
0.0
 40
0.5
100
AcDbArc
 50
270.0
 51
331.6992442339927
  0
LINE
  5
1004
330
D
100
AcDbEntity
 67
     1
  8
AM_VIS
100
AcDbLine
 10
105.9142595262282
 20
326.4406583518706
 30
0.0
 11
105.9142595262282
 21
325.4406583518707
 31
0.0
  0
ARC
  5
1005
330
D
100
AcDbEntity
 67
     1
  8
AM_VIS
100
AcDbCircle
 10
60.9670459307282
 20
314.4406583343405
 30
0.0
 40
0.2
100
AcDbArc
 50
296.5650510937379
 51
63.43494873958113
  0
ARC
  5
1006
330
D
100
AcDbEntity
 67
     1
  8
AM_VIS
100
AcDbCircle
 10
56.36632211099811
 20
316.7410202525706
 30
0.0
 40
0.2
100
AcDbArc
 50
63.43494873958113
 51
203.8016887995229
  0
ARC
  5
1007
330
D
100
AcDbEntity
 67
     1
  8
AM_VIS
100
AcDbCircle
 10
51.15111980541377
 20
314.4406583436901
 30
0.0
 40
5.5
100
AcDbArc
 50
336.1983111727208
 51
23.80168879952454
  0
ARC
  5
1008
330
D
100
AcDbEntity
 67
     1
  8
AM_VIS
100
AcDbCircle
 10
56.36632210988375
 20
312.1402964322832
 30
0.0
 40
0.2
100
AcDbArc
 50
156.1983111727208
 51
296.5650510937379
  0
LINE
  5
1009
330
D
100
AcDbEntity
 67
     1
  8
AM_VIS
100
AcDbLine
 10
52.91425952622813
 20
302.4406583418709
 30
0.0
 11
52.91425952622813
 21
303.4406583418709
 31
0.0
  0
ARC
  5
100A
330
D
100
AcDbEntity
 67
     1
  8
AM_VIS
100
AcDbCircle
 10
71.38720034179232
 20
299.4406583318708
 30
0.0
 40
10.0
100
AcDbArc
 50
208.3007557660055
 51
270.0
  0
ARC
  5
100B
330
D
100
AcDbEntity
 67
     1
  8
AM_VIS
100
AcDbCircle
 10
87.44131871066395
 20
299.4406583318707
 30
0.0
 40
10.0
100
AcDbArc
 50
270.0
 51
331.6992442339927
  0
ARC
  5
100C
330
D
100
AcDbEntity
 67
     1
  8
AM_VIS
100
AcDbCircle
 10
100.7129065723909
 20
301.9406583418707
 30
0.0
 40
0.5
100
AcDbArc
 50
90.0
 51
151.6992442339926
  0
LINE
  5
100D
330
D
100
AcDbEntity
 67
     1
  8
AM_VIS
100
AcDbLine
 10
105.9142595262281
 20
303.4406583418706
 30
0.0
 11
105.9142595262281
 21
302.4406583418706
 31
0.0
  0
ARC
  5
100E
330
D
100
AcDbEntity
 67
     1
  8
AM_VIS
100
AcDbCircle
 10
58.1156124800653
 20
301.9406583418708
 30
0.0
 40
0.5
100
AcDbArc
 50
28.30075576600735
 51
90.0
  0
ARC
  5
100F
330
D
100
AcDbEntity
 67
     1
  8
AM_VIS
100
AcDbCircle
 10
79.41425952622819
 20
314.4406583518708
 30
0.0
 40
29.0
100
AcDbArc
 50
297.5801992035875
 51
328.8526100554055
  0
ARC
  5
1010
330
D
100
AcDbEntity
 67
     1
  8
AM_VIS
100
AcDbCircle
 10
89.60003391995986
 20
294.9406583518708
 30
0.0
 40
6.999999999999998
100
AcDbArc
 50
270.0
 51
297.5801992035875
  0
ARC
  5
1011
330
D
100
AcDbEntity
 67
     1
  8
AM_VIS
100
AcDbCircle
 10
69.22848513249642
 20
294.9406583518709
 30
0.0
 40
6.999999999999999
100
AcDbArc
 50
242.419800796411
 51
270.0
  0
ARC
  5
1012
330
D
100
AcDbEntity
 67
     1
  8
AM_VIS
100
AcDbCircle
 10
79.41425952622819
 20
314.4406583518708
 30
0.0
 40
29.0
100
AcDbArc
 50
211.1473899445933
 51
242.419800796411
  0
ARC
  5
1013
330
D
100
AcDbEntity
 67
     1
  8
AM_VIS
100
AcDbCircle
 10
87.44131872066413
 20
329.4406583518707
 30
0.0
 40
10.0
100
AcDbArc
 50
28.30075576600553
 51
90.0
  0
ARC
  5
1014
330
D
100
AcDbEntity
 67
     1
  8
AM_VIS
100
AcDbCircle
 10
100.7129065770065
 20
326.9406583518707
 30
0.0
 40
0.5
100
AcDbArc
 50
208.3007557660073
 51
270.0
  0
ARC
  5
1015
330
D
100
AcDbEntity
 67
     1
  8
AM_VIS
100
AcDbCircle
 10
79.41425952622819
 20
314.4406583518708
 30
0.0
 40
29.0
100
AcDbArc
 50
31.1473899215092
 51
62.41980079641106
  0
ARC
  5
1016
330
D
100
AcDbEntity
 67
     1
  8
AM_VIS
100
AcDbCircle
 10
79.41425952622819
 20
314.4406583518708
 30
0.0
 40
29.0
100
AcDbArc
 50
117.5801992035874
 51
148.8526100784907
  0
ARC
  5
1017
330
D
100
AcDbEntity
 67
     1
  8
AM_VIS
100
AcDbCircle
 10
89.60003391995996
 20
333.9406583518707
 30
0.0
 40
7.0
100
AcDbArc
 50
62.41980079641251
 51
90.0
  0
ARC
  5
1018
330
D
100
AcDbEntity
 67
     1
  8
AM_VIS
100
AcDbCircle
 10
69.22848513249665
 20
333.9406583518709
 30
0.0
 40
6.999999999999999
100
AcDbArc
 50
90.0
 51
117.5801992035874
  0
CIRCLE
  5
1019
330
D
100
AcDbEntity
 67
     1
  8
AM_VIS
100
AcDbCircle
 10
91.4142595262283
 20
333.4406583518708
 30
0.0
 40
1.711
  0
CIRCLE
  5
101A
330
D
100
AcDbEntity
 67
     1
  8
AM_VIS
100
AcDbCircle
 10
67.41425952622808
 20
295.4406583518709
 30
0.0
 40
1.711
  0
DIMENSION
  5
101B
330
D
100
AcDbEntity
 67
     1
  8
AM_5
100
AcDbDimension
  2
*D14
 10
237.574829291851
 20
256.5484431012169
 30
0.0
 11
233.9993814572052
 21
170.5984431012169
 31
0.0
 70
    32
 71
     5
 42
171.9
  3
AM_ISO$0
100
AcDbAlignedDimension
 13
191.0748292918509
 23
84.64844310121694
 33
0.0
 14
188.3707698429357
 24
256.5484431012169
 34
0.0
 50
90.0
100
AcDbRotatedDimension
1001
ACAD
1000
DSTYLE
1002
{
1070
   174
1070
     1
1070
   271
1070
     0
1002
}
  0
DIMENSION
  5
101C
330
D
100
AcDbEntity
 67
     1
  8
AM_5
100
AcDbDimension
  2
*D15
 10
225.5748292918509
 20
256.5484431012169
 30
0.0
 11
221.9998292918509
 21
233.0984431012169
 31
0.0
 70
    32
 71
     5
 42
46.90000000000003
  3
AM_ISO$0
100
AcDbAlignedDimension
 13
195.1748292918509
 23
209.6484431012168
 33
0.0
 14
182.07482928367
 24
256.5484431012169
 34
0.0
 50
90.0
100
AcDbRotatedDimension
1001
ACAD
1000
DSTYLE
1002
{
1070
   271
1070
     0
1002
}
  0
DIMENSION
  5
101D
330
D
100
AcDbEntity
 67
     1
  8
AM_5
100
AcDbDimension
  2
*D16
 10
105.9142595262283
 20
352.9406593618709
 30
0.0
 11
79.41425952622828
 21
356.5156593618709
 31
0.0
 70
    32
 71
     5
 42
53.00000000000006
  3
AM_ISO$0
100
AcDbAlignedDimension
 13
52.91425952622825
 23
329.4406583518709
 33
0.0
 14
105.9142595262283
 24
329.4406583518706
 34
0.0
100
AcDbRotatedDimension
  0
DIMENSION
  5
101E
330
D
100
AcDbEntity
 67
     1
  8
AM_5
100
AcDbDimension
  2
*D17
 10
124.9626341888144
 20
340.9406583518708
 30
0.0
 11
124.9626341888143
 21
314.9088748732406
 31
0.0
 70
   160
 71
     5
 42
53.0
  3
AM_ISO$0
100
AcDbAlignedDimension
 13
89.60003391995986
 23
287.9406583518708
 33
0.0
 14
89.60003391996002
 24
340.9406583518708
 34
0.0
 50
90.0
100
AcDbRotatedDimension
  0
DIMENSION
  5
101F
330
D
100
AcDbEntity
 67
     1
  8
AM_5
100
AcDbDimension
  2
*D18
 10
181.0748292918504
 20
209.6484431012169
 30
0.0
 11
137.2228091674087
 21
159.9938387274367
 31
0.0
 70
   164
  1
2-PT3/8\P2-PT1/4
 71
     5
 42
5.700000000000045
  3
AM_ISO$4
100
AcDbRadialDimension
 15
178.0163032163684
 25
204.8385139701801
 35
0.0
 40
0.0
  0
LINE
  5
1020
330
D
100
AcDbEntity
 67
     1
  8
AM_5
100
AcDbLine
 10
124.5561507028417
 20
168.116732828988
 30
0.0
 11
151.0894676319756
 21
168.116732828988
 31
0.0
  0
DIMENSION
  5
1021
102
{ACAD_XDICTIONARY
360
1022
102
}
102
{ACAD_REACTORS
330
1023
102
}
330
D
100
AcDbEntity
 67
     1
  8
AM_5
100
AcDbDimension
  2
*D19
 10
225.5748292918509
 20
84.64844310121693
 30
0.0
 11
221.9993814572053
 21
147.1484431012169
 31
0.0
 70
    32
 71
     5
 42
124.9999999999999
  3
AM_ISO$0
100
AcDbAlignedDimension
 13
195.1748292918509
 23
209.6484431012168
 33
0.0
 14
191.0748292918509
 24
84.64844310121694
 34
0.0
 50
90.0
100
AcDbRotatedDimension
  0
ENDSEC
  0
SECTION
  2
OBJECTS
  0
DICTIONARY
  5
8
330
0
100
AcDbDictionary
281
     1
  3
ACAD_COLOR
350
2F
  3
ACAD_GROUP
350
2B
  3
ACAD_LAYOUT
350
C
  3
ACAD_MATERIAL
350
2E
  3
ACAD_MLINESTYLE
350
2C
  3
ACAD_PLOTSETTINGS
350
2D
  3
ACAD_PLOTSTYLENAME
350
7
  3
ACAD_TABLESTYLE
350
30
  3
ACDBHEADERROUNDTRIPXREC
350
10A7
  3
AcDbVariableDictionary
350
3A0
  3
AcmDictionary
350
404
  3
AMG
350
3AC
  3
AMGSNAPSETTINGS
350
43C
  3
DWGPROPS
350
10A6
  0
DICTIONARY
  5
13
330
12
100
AcDbDictionary
280
     1
281
     1
  3
ACAD_LAYERSTATES
360
14
  0
DICTIONARY
  5
3
330
2
100
AcDbDictionary
280
     1
281
     1
  0
DICTIONARY
  5
8C3
330
D
100
AcDbDictionary
280
     1
281
     1
  3
ACAD_SORTENTS
360
8C4
  0
DICTIONARY
  5
10AC
330
3AA
100
AcDbDictionary
280
     1
281
     1
  3
ACAD_XREC_ROUNDTRIP
360
10AD
  0
DICTIONARY
  5
1022
330
1021
100
AcDbDictionary
280
     1
281
     1
  3
ACAD_DIMASSOC
360
1023
  0
DICTIONARY
  5
2F
102
{ACAD_REACTORS
330
8
102
}
330
8
100
AcDbDictionary
281
     1
  0
DICTIONARY
  5
2B
102
{ACAD_REACTORS
330
8
102
}
330
8
100
AcDbDictionary
281
     1
  0
DICTIONARY
  5
C
102
{ACAD_REACTORS
330
8
102
}
330
8
100
AcDbDictionary
281
     1
  3
Model
350
B
  3
配置1
350
10
  0
DICTIONARY
  5
2E
102
{ACAD_REACTORS
330
8
102
}
330
8
100
AcDbDictionary
281
     1
  0
DICTIONARY
  5
2C
102
{ACAD_REACTORS
330
8
102
}
330
8
100
AcDbDictionary
281
     1
  3
STANDARD
350
31
  0
DICTIONARY
  5
2D
102
{ACAD_REACTORS
330
8
102
}
330
8
100
AcDbDictionary
281
     1
  0
ACDBDICTIONARYWDFLT
  5
7
102
{ACAD_REACTORS
330
8
102
}
330
8
100
AcDbDictionary
281
     1
  3
Normal
350
6
100
AcDbDictionaryWithDefault
340
6
  0
DICTIONARY
  5
30
102
{ACAD_REACTORS
330
8
102
}
330
8
100
AcDbDictionary
281
     1
  3
Standard
350
32
  0
DICTIONARY
  5
10A7
102
{ACAD_REACTORS
330
8
102
}
330
8
100
AcDbDictionary
281
     1
  0
DICTIONARY
  5
3A0
102
{ACAD_REACTORS
330
8
102
}
330
8
100
AcDbDictionary
281
     1
  3
CTABLESTYLE
350
3A1
  3
DIMASSOC
350
766
  3
HIDETEXT
350
765
  3
PROJECTNAME
350
767
  0
DICTIONARY
  5
404
102
{ACAD_REACTORS
330
8
102
}
330
8
100
AcDbDictionary
281
     1
  3
AcmStdDictionary
350
411
  3
AMDTSECTSYM_ARROWCOLOR
350
42D
  0
DICTIONARY
  5
3AC
102
{ACAD_REACTORS
330
8
102
}
330
8
100
AcDbDictionary
281
     1
  0
DICTIONARY
  5
43C
102
{ACAD_REACTORS
330
8
102
}
330
8
100
AcDbDictionary
281
     1
  0
XRECORD
  5
10A6
102
{ACAD_REACTORS
330
8
102
}
330
8
100
AcDbXrecord
280
     1
  1
DWGPROPS COOKIE
  2

  3

  4

  6

  7

  8

  9

300
=
301
=
302
=
303
=
304
=
305
=
306
=
307
=
308
=
309
=
 40
1.454367442129629
 41
2452486.501936366
 42
2455397.703284491
  1

 90
        0
  0
DICTIONARY
  5
14
102
{ACAD_REACTORS
330
13
102
}
330
13
100
AcDbDictionary
281
     1
  0
SORTENTSTABLE
  5
8C4
102
{ACAD_REACTORS
330
8C3
102
}
330
8C3
100
AcDbSortentsTable
330
D
331
508
  5
508
331
3AA
  5
3AA
331
510
  5
510
331
518
  5
518
331
547
  5
547
331
54F
  5
54F
331
557
  5
557
331
520
  5
520
331
530
  5
530
331
55F
  5
55F
331
567
  5
567
331
56F
  5
56F
331
509
  5
509
331
511
  5
511
331
538
  5
538
331
519
  5
519
331
548
  5
548
331
550
  5
550
331
529
  5
529
331
558
  5
558
331
560
  5
560
331
568
  5
568
331
570
  5
570
331
50A
  5
50A
331
512
  5
512
331
51A
  5
51A
331
549
  5
549
331
551
  5
551
331
52A
  5
52A
331
559
  5
559
331
561
  5
561
331
569
  5
569
331
571
  5
571
331
50B
  5
50B
331
513
  5
513
331
542
  5
542
331
51B
  5
51B
331
54A
  5
54A
331
552
  5
552
331
52B
  5
52B
331
55A
  5
55A
331
562
  5
562
331
56A
  5
56A
331
572
  5
572
331
50C
  5
50C
331
514
  5
514
331
51C
  5
51C
331
543
  5
543
331
54B
  5
54B
331
553
  5
553
331
524
  5
524
331
52C
  5
52C
331
55B
  5
55B
331
534
  5
534
331
563
  5
563
331
56B
  5
56B
331
573
  5
573
331
505
  5
505
331
50D
  5
50D
331
515
  5
515
331
53C
  5
53C
331
544
  5
544
331
54C
  5
54C
331
554
  5
554
331
525
  5
525
331
52D
  5
52D
331
55C
  5
55C
331
564
  5
564
331
56C
  5
56C
331
506
  5
506
331
50E
  5
50E
331
53D
  5
53D
331
516
  5
516
331
545
  5
545
331
54D
  5
54D
331
555
  5
555
331
52E
  5
52E
331
55D
  5
55D
331
565
  5
565
331
56D
  5
56D
331
507
  5
507
331
50F
  5
50F
331
53E
  5
53E
331
517
  5
517
331
546
  5
546
331
54E
  5
54E
331
556
  5
556
331
52F
  5
52F
331
55E
  5
55E
331
566
  5
566
331
56E
  5
56E
  0
XRECORD
  5
10AD
102
{ACAD_REACTORS
330
10AC
102
}
330
10AC
100
AcDbXrecord
280
     1
102
SHADEPLOT
 70
     0
  0
DIMASSOC
  5
1023
102
{ACAD_REACTORS
330
1022
102
}
330
1022
100
AcDbDimAssoc
330
1021
 90
        1
 70
     0
 71
     0
  1
AcDbOsnapPointRef
 72
     1
331
D14
 73
     0
 91
        0
 40
0.0
 10
0.0
 20
0.0
 30
2.000000000000000E+50
 75
     0
  0
LAYOUT
  5
B
102
{ACAD_XDICTIONARY
360
10A8
102
}
102
{ACAD_REACTORS
330
C
102
}
330
C
100
AcDbPlotSettings
  1

  2
\\NOVIBDC\HPLJ4-TPUB
  4

  6

 40
0.0
 41
0.0
 42
0.0
 43
0.0
 44
0.0
 45
0.0
 46
0.0
 47
0.0
 48
0.0
 49
0.0
140
0.0
141
0.0
142
1.0
143
1.0
 70
  1712
 72
     0
 73
     0
 74
     0
  7

 75
     0
147
1.0
148
0.0
149
0.0
100
AcDbLayout
  1
Model
 70
     1
 71
     0
 10
0.0
 20
0.0
 11
12.0
 21
9.0
 12
0.0
 22
0.0
 32
0.0
 14
0.0
 24
0.0
 34
0.0
 15
0.0
 25
0.0
 35
0.0
146
0.0
 13
0.0
 23
0.0
 33
0.0
 16
1.0
 26
0.0
 36
0.0
 17
0.0
 27
1.0
 37
0.0
 76
     0
330
2
  0
LAYOUT
  5
10
102
{ACAD_XDICTIONARY
360
10AA
102
}
102
{ACAD_REACTORS
330
C
102
}
330
C
100
AcDbPlotSettings
  1

  2
\\RDS1\iR3300影印機
  4
A3
  6

 40
6.805083274841308
 41
5.365738868713378
 42
7.228424072265625
 43
5.027069091796875
 44
296.9259948730469
 45
419.9466552734374
 46
0.0
 47
0.0
 48
0.0
 49
0.0
140
0.0
141
0.0
142
1.0
143
1.0
 70
   688
 72
     1
 73
     0
 74
     5
  7

 75
    16
147
1.0
148
0.0
149
0.0
100
AcDbLayout
  1
配置1
 70
     1
 71
     1
 10
-6.805083274841308
 20
-5.365738868713378
 11
290.1209115982056
 21
414.5809164047241
 12
0.0
 22
0.0
 32
0.0
 14
15.83951159531318
 24
20.28499549248261
 34
-0.0131955579722671
 15
266.5701718850775
 25
384.4446697926114
 35
235.9123070740622
146
0.0
 13
0.0
 23
0.0
 33
0.0
 16
1.0
 26
0.0
 36
0.0
 17
0.0
 27
1.0
 37
0.0
 76
     0
330
D
331
3AA
1001
ACAD_PSEXT
1000
\\RDS1\iR3300影印機
1000
Canon iR2200-3300 PCL5e
1000
\\RDS1
1000

1070
     0
  0
MLINESTYLE
  5
31
102
{ACAD_REACTORS
330
2C
102
}
330
2C
100
AcDbMlineStyle
  2
STANDARD
 70
     0
  3

 62
     0
 51
90.0
 52
90.0
 71
     2
 49
0.5
 62
   256
  6
BYLAYER
 49
-0.5
 62
   256
  6
BYLAYER
  0
ACDBPLACEHOLDER
  5
6
102
{ACAD_REACTORS
330
7
102
}
330
7
  0
TABLESTYLE
  5
32
102
{ACAD_REACTORS
330
30
102
}
330
30
100
AcDbTableStyle
  3
Standard
 70
     0
 71
     0
 40
1.5
 41
1.5
280
     0
281
     0
  7
STANDARD
140
4.5
170
     2
 62
     0
 63
     7
283
     0
274
    -2
284
     1
 64
     0
275
    -2
285
     1
 65
     0
276
    -2
286
     1
 66
     0
277
    -2
287
     1
 67
     0
278
    -2
288
     1
 68
     0
279
    -2
289
     1
 69
     0
  7
STANDARD
140
6.0
170
     5
 62
     0
 63
     7
283
     0
274
    -2
284
     1
 64
     0
275
    -2
285
     1
 65
     0
276
    -2
286
     1
 66
     0
277
    -2
287
     1
 67
     0
278
    -2
288
     1
 68
     0
279
    -2
289
     1
 69
     0
  7
STANDARD
140
4.5
170
     5
 62
     0
 63
     7
283
     0
274
    -2
284
     1
 64
     0
275
    -2
285
     1
 65
     0
276
    -2
286
     1
 66
     0
277
    -2
287
     1
 67
     0
278
    -2
288
     1
 68
     0
279
    -2
289
     1
 69
     0
  0
DICTIONARYVAR
  5
3A1
102
{ACAD_REACTORS
330
3A0
102
}
330
3A0
100
DictionaryVariables
280
     0
  1
STANDARD
  0
DICTIONARYVAR
  5
766
102
{ACAD_REACTORS
330
3A0
102
}
330
3A0
100
DictionaryVariables
280
     0
  1
1
  0
DICTIONARYVAR
  5
765
102
{ACAD_REACTORS
330
3A0
102
}
330
3A0
100
DictionaryVariables
280
     0
  1
1
  0
DICTIONARYVAR
  5
767
102
{ACAD_REACTORS
330
3A0
102
}
330
3A0
100
DictionaryVariables
280
     0
  1

  0
DICTIONARY
  5
411
102
{ACAD_REACTORS
330
404
102
}
330
404
100
AcDbDictionary
281
     1
  0
XRECORD
  5
42D
102
{ACAD_REACTORS
330
404
102
}
330
404
100
AcDbXrecord
280
     1
 90
-1023410169
  0
DICTIONARY
  5
10A8
330
B
100
AcDbDictionary
280
     1
281
     1
  3
ACAD_XREC_ROUNDTRIP
360
10A9
  0
DICTIONARY
  5
10AA
330
10
100
AcDbDictionary
280
     1
281
     1
  3
ACAD_XREC_ROUNDTRIP
360
10AB
  0
XRECORD
  5
10A9
102
{ACAD_REACTORS
330
10A8
102
}
330
10A8
100
AcDbXrecord
280
     1
102
SHADEPLOT
 70
     0
102
SHADEPLOTRESLEVEL
 70
     2
102
SHADEPLOTCUSTOMDPI
 70
   300
  0
XRECORD
  5
10AB
102
{ACAD_REACTORS
330
10AA
102
}
330
10AA
100
AcDbXrecord
280
     1
102
SHADEPLOT
 70
     0
102
SHADEPLOTRESLEVEL
 70
     2
102
SHADEPLOTCUSTOMDPI
 70
   300
  0
ENDSEC
  0
EOF
