  0
SECTION
  2
HEADER
  9
$ACADVER
  1
AC1009
  9
$INSBASE
 10
0.0
 20
0.0
 30
0.0
  9
$EXTMIN
 10
413.98497647486943
 20
594.04602158910075
 30
-0.0000000000112498
  9
$EXTMAX
 10
715.14532098455902
 20
1023.808817398291
 30
0.0000000000002956
  9
$LIMMIN
 10
0.0
 20
0.0
  9
$LIMMAX
 10
420.0
 20
297.0
  9
$ORTHOMODE
 70
     1
  9
$REGENMODE
 70
     1
  9
$FILLMODE
 70
     1
  9
$QTEXTMODE
 70
     0
  9
$MIRRTEXT
 70
     1
  9
$DRAGMODE
 70
     2
  9
$LTSCALE
 40
0.5
  9
$OSMODE
 70
    39
  9
$ATTMODE
 70
     1
  9
$TEXTSIZE
 40
25.0
  9
$TRACEWID
 40
1.0
  9
$TEXTSTYLE
  7
CHINESET
  9
$CLAYER
  8
0
  9
$CELTYPE
  6
BYLAYER
  9
$CECOLOR
 62
   256
  9
$DIMSCALE
 40
1.0
  9
$DIMASZ
 40
3.0
  9
$DIMEXO
 40
2.0
  9
$DIMDLI
 40
8.0
  9
$DIMRND
 40
0.0
  9
$DIMDLE
 40
0.0
  9
$DIMEXE
 40
2.0
  9
$DIMTP
 40
0.0
  9
$DIMTM
 40
0.0
  9
$DIMTXT
 40
3.0
  9
$DIMCEN
 40
-2.5
  9
$DIMTSZ
 40
0.0
  9
$DIMTOL
 70
     0
  9
$DIMLIM
 70
     0
  9
$DIMTIH
 70
     0
  9
$DIMTOH
 70
     0
  9
$DIMSE1
 70
     0
  9
$DIMSE2
 70
     0
  9
$DIMTAD
 70
     1
  9
$DIMZIN
 70
     8
  9
$DIMBLK
  1

  9
$DIMASO
 70
     1
  9
$DIMSHO
 70
     1
  9
$DIMPOST
  1

  9
$DIMAPOST
  1

  9
$DIMALT
 70
     0
  9
$DIMALTD
 70
     4
  9
$DIMALTF
 40
0.0394
  9
$DIMLFAC
 40
1.0
  9
$DIMTOFL
 70
     0
  9
$DIMTVP
 40
0.0
  9
$DIMTIX
 70
     0
  9
$DIMSOXD
 70
     0
  9
$DIMSAH
 70
     0
  9
$DIMBLK1
  1

  9
$DIMBLK2
  1

  9
$DIMSTYLE
  2
STANDARD
  9
$DIMCLRD
 70
   256
  9
$DIMCLRE
 70
   256
  9
$DIMCLRT
 70
   256
  9
$DIMTFAC
 40
1.0
  9
$DIMGAP
 40
1.0
  9
$LUNITS
 70
     2
  9
$LUPREC
 70
     4
  9
$SKETCHINC
 40
1.0
  9
$FILLETRAD
 40
1.0
  9
$AUNITS
 70
     0
  9
$AUPREC
 70
     0
  9
$MENU
  1
.
  9
$ELEVATION
 40
0.0
  9
$PELEVATION
 40
0.0
  9
$THICKNESS
 40
0.0
  9
$LIMCHECK
 70
     0
  9
$BLIPMODE
 70
     0
  9
$CHAMFERA
 40
0.5
  9
$CHAMFERB
 40
0.5
  9
$SKPOLY
 70
     0
  9
$TDCREATE
 40
2451564.5861289469
  9
$TDUPDATE
 40
2451949.4128625812
  9
$TDINDWG
 40
0.0085290509
  9
$TDUSRTIMER
 40
0.0085290509
  9
$USRTIMER
 70
     1
  9
$ANGBASE
 50
0.0
  9
$ANGDIR
 70
     0
  9
$PDMODE
 70
     0
  9
$PDSIZE
 40
0.0
  9
$PLINEWID
 40
0.0
  9
$COORDS
 70
     2
  9
$SPLFRAME
 70
     0
  9
$SPLINETYPE
 70
     6
  9
$SPLINESEGS
 70
     8
  9
$ATTDIA
 70
     0
  9
$ATTREQ
 70
     1
  9
$HANDLING
 70
 12289
  9
$HANDSEED
  5
1885
  9
$SURFTAB1
 70
     6
  9
$SURFTAB2
 70
     6
  9
$SURFTYPE
 70
     6
  9
$SURFU
 70
     6
  9
$SURFV
 70
     6
  9
$UCSNAME
  2

  9
$UCSORG
 10
0.0
 20
0.0
 30
0.0
  9
$UCSXDIR
 10
1.0
 20
0.0
 30
0.0
  9
$UCSYDIR
 10
0.0
 20
1.0
 30
0.0
  9
$PUCSNAME
  2

  9
$PUCSORG
 10
0.0
 20
0.0
 30
0.0
  9
$PUCSXDIR
 10
1.0
 20
0.0
 30
0.0
  9
$PUCSYDIR
 10
0.0
 20
1.0
 30
0.0
  9
$USERI1
 70
     0
  9
$USERI2
 70
     0
  9
$USERI3
 70
     0
  9
$USERI4
 70
     0
  9
$USERI5
 70
     0
  9
$USERR1
 40
0.0
  9
$USERR2
 40
0.0
  9
$USERR3
 40
0.0
  9
$USERR4
 40
0.0
  9
$USERR5
 40
0.0
  9
$WORLDVIEW
 70
     1
  9
$SHADEDGE
 70
     3
  9
$SHADEDIF
 70
    70
  9
$TILEMODE
 70
     1
  9
$MAXACTVP
 70
    48
  9
$PLIMCHECK
 70
     0
  9
$PEXTMIN
 10
1.0000000000000000E+020
 20
1.0000000000000000E+020
 30
1.0000000000000000E+020
  9
$PEXTMAX
 10
-1.0000000000000000E+020
 20
-1.0000000000000000E+020
 30
-1.0000000000000000E+020
  9
$PLIMMIN
 10
0.0
 20
0.0
  9
$PLIMMAX
 10
420.0
 20
297.0
  9
$UNITMODE
 70
     0
  9
$VISRETAIN
 70
     1
  9
$PLINEGEN
 70
     0
  9
$PSLTSCALE
 70
     1
  0
ENDSEC
  0
SECTION
  2
TABLES
  0
TABLE
  2
VPORT
 70
     2
  0
VPORT
  2
*ACTIVE
 70
     0
 10
0.0
 20
0.0
 11
1.0
 21
1.0
 12
564.56514872971422
 22
808.92741949369633
 13
0.0
 23
0.0
 14
10.0
 24
10.0
 15
10.0
 25
10.0
 16
0.0
 26
0.0
 36
1.0
 17
0.0
 27
0.0
 37
0.0
 40
434.50282664532182
 41
1.7274401473296499
 42
50.0
 43
0.0
 44
0.0
 50
0.0
 51
0.0
 71
     0
 72
   100
 73
     1
 74
     1
 75
     0
 76
     0
 77
     0
 78
     0
  0
ENDTAB
  0
TABLE
  2
LTYPE
 70
     7
  0
LTYPE
  2
CONTINUOUS
 70
     0
  3
Solid line
 72
    65
 73
     0
 40
0.0
  0
LTYPE
  2
CENTER
 70
     0
  3
Center ____ _ ____ _ ____ _ ____ _ ____ _ ____
 72
    65
 73
     4
 40
50.799999999999997
 49
31.75
 49
-6.3499999999999988
 49
6.3499999999999988
 49
-6.3499999999999988
  0
LTYPE
  2
HIDDEN
 70
     0
  3
Hidden __ __ __ __ __ __ __ __ __ __ __ __ __ _
 72
    65
 73
     2
 40
0.375
 49
0.25
 49
-0.125
  0
ENDTAB
  0
TABLE
  2
LAYER
 70
     6
  0
LAYER
  2
0
 70
     0
 62
     7
  6
CONTINUOUS
  0
LAYER
  2
DIM
 70
     0
 62
     5
  6
CONTINUOUS
  0
LAYER
  2
DEFPOINTS
 70
     0
 62
     7
  6
CONTINUOUS
  0
LAYER
  2
CENTER
 70
     0
 62
     1
  6
CENTER
  0
LAYER
  2
LOGO
 70
     0
 62
     7
  6
CONTINUOUS
  0
LAYER
  2
HIDDEN
 70
     0
 62
     6
  6
HIDDEN
  0
ENDTAB
  0
TABLE
  2
STYLE
 70
     6
  0
STYLE
  2
STANDARD
 70
     0
 40
0.0
 41
1.0
 50
0.0
 71
     0
 42
25.0
  3
txt
  4

  0
STYLE
  2
ROMANS
 70
     0
 40
0.0
 41
1.0
 50
0.0
 71
     0
 42
4.0
  3
romans
  4

  0
STYLE
  2
CHINESET
 70
     0
 40
0.0
 41
1.0
 50
0.0
 71
     0
 42
25.0
  3
simplex.shx
  4
chineset.shx
  0
STYLE
  2
LOGO
 70
     0
 40
0.0
 41
1.0
 50
0.0
 71
     0
 42
5.0
  3
txt
  4

  0
ENDTAB
  0
TABLE
  2
VIEW
 70
     0
  0
ENDTAB
  0
TABLE
  2
UCS
 70
     0
  0
ENDTAB
  0
TABLE
  2
APPID
 70
     1
  0
APPID
  2
ACAD
 70
     0
  0
ENDTAB
  0
TABLE
  2
DIMSTYLE
 70
     1
  0
DIMSTYLE
  2
STANDARD
 70
     0
  3

  4

  5

  6

  7

 40
1.0
 41
3.0
 42
2.0
 43
8.0
 44
2.0
 45
0.0
 46
0.0
 47
0.0
 48
0.0
140
3.0
141
-2.5
142
0.0
143
0.0394
144
1.0
145
0.0
146
1.0
147
1.0
 71
     0
 72
     0
 73
     0
 74
     0
 75
     0
 76
     0
 77
     1
 78
     8
170
     0
171
     4
172
     0
173
     0
174
     0
175
     0
176
   256
177
   256
178
   256
  0
ENDTAB
  0
ENDSEC
  0
SECTION
  2
BLOCKS
  0
BLOCK
  8
0
  2
$MODEL_SPACE
 70
     0
 10
0.0
 20
0.0
 30
0.0
  3
$MODEL_SPACE
  1

  0
ENDBLK
  5
175B
  8
0
  0
BLOCK
 67
     1
  8
0
  2
$PAPER_SPACE
 70
     0
 10
0.0
 20
0.0
 30
0.0
  3
$PAPER_SPACE
  1

  0
ENDBLK
  5
1759
 67
     1
  8
0
  0
BLOCK
  8
0
  2
*D71
 70
     1
 10
0.0
 20
0.0
 30
0.0
  3
*D71
  1

  0
LINE
  5
183E
  8
DIM
  6
BYBLOCK
 10
507.7880162625018
 20
937.4322925953054
 30
0.0
 11
507.7880162625018
 21
1015.530010051477
 31
0.0
  0
LINE
  5
183F
  8
DIM
  6
BYBLOCK
 10
432.78801626250203
 20
937.4322925953054
 30
0.0
 11
432.78801626250203
 21
1015.530010051477
 31
0.0
  0
LINE
  5
1840
  8
DIM
  6
BYBLOCK
 10
504.7880162625018
 20
1013.530010051477
 30
0.0
 11
435.78801626250203
 21
1013.530010051477
 31
0.0
  0
SOLID
  5
1841
  8
DIM
  6
BYBLOCK
 10
504.7880162625018
 20
1014.030010051477
 30
0.0
 11
504.7880162625018
 21
1013.030010051477
 31
0.0
 12
507.7880162625018
 22
1013.530010051477
 32
0.0
 13
507.7880162625018
 23
1013.530010051477
 33
0.0
  0
SOLID
  5
1842
  8
DIM
  6
BYBLOCK
 10
435.78801626250203
 20
1014.030010051477
 30
0.0
 11
435.78801626250203
 21
1013.030010051477
 31
0.0
 12
432.78801626250203
 22
1013.530010051477
 32
0.0
 13
432.78801626250203
 23
1013.530010051477
 33
0.0
  0
TEXT
  5
1843
  8
0
 10
467.85944483393052
 20
1014.530010051477
 30
0.0
 40
3.0
  1
75
  7
CHINESET
  0
POINT
  5
1844
  8
DEFPOINTS
  6
BYBLOCK
 62
     0
 10
507.7880162625018
 20
935.4322925953054
 30
0.0
  0
POINT
  5
1845
  8
DEFPOINTS
  6
BYBLOCK
 62
     0
 10
432.78801626250203
 20
935.4322925953054
 30
0.0
  0
POINT
  5
1846
  8
DEFPOINTS
  6
BYBLOCK
 62
     0
 10
432.78801626250203
 20
1013.530010051477
 30
0.0
  0
ENDBLK
  5
17C8
  8
0
  0
BLOCK
  8
0
  2
*D72
 70
     1
 10
0.0
 20
0.0
 30
0.0
  3
*D72
  1

  0
LINE
  5
17CA
  8
DIM
  6
BYBLOCK
 10
472.28801626250203
 20
961.51288168823055
 30
0.0
 11
530.79559365307057
 21
961.51288168823055
 31
0.0
  0
LINE
  5
17CB
  8
DIM
  6
BYBLOCK
 10
472.28801626250203
 20
881.51288168823066
 30
0.0
 11
530.79559365307057
 21
881.51288168823066
 31
0.0
  0
LINE
  5
17CC
  8
DIM
  6
BYBLOCK
 10
528.79559365307045
 20
958.51288168823055
 30
0.0
 11
528.79559365307045
 21
884.51288168823055
 31
0.0
  0
SOLID
  5
17CD
  8
DIM
  6
BYBLOCK
 10
528.29559365307045
 20
958.51288168823055
 30
0.0
 11
529.29559365307045
 21
958.51288168823055
 31
0.0
 12
528.79559365307045
 22
961.51288168823055
 32
0.0
 13
528.79559365307045
 23
961.51288168823055
 33
0.0
  0
SOLID
  5
17CE
  8
DIM
  6
BYBLOCK
 10
528.29559365307045
 20
884.51288168823055
 30
0.0
 11
529.29559365307045
 21
884.51288168823055
 31
0.0
 12
528.79559365307045
 22
881.51288168823066
 32
0.0
 13
528.79559365307045
 23
881.51288168823066
 33
0.0
  0
INSERT
  5
17CF
  8
0
  2
*U81
 10
0.0
 20
0.0
 30
0.0
  0
POINT
  5
17D0
  8
DEFPOINTS
  6
BYBLOCK
 62
     0
 10
470.28801626250203
 20
961.51288168823055
 30
0.0
  0
POINT
  5
17D1
  8
DEFPOINTS
  6
BYBLOCK
 62
     0
 10
470.28801626250203
 20
881.51288168823066
 30
0.0
  0
POINT
  5
17D2
  8
DEFPOINTS
  6
BYBLOCK
 62
     0
 10
528.79559365307045
 20
881.51288168823066
 30
0.0
  0
ENDBLK
  5
17D4
  8
0
  0
BLOCK
  8
0
  2
*D73
 70
     1
 10
0.0
 20
0.0
 30
0.0
  3
*D73
  1

  0
LINE
  5
1850
  8
DIM
  6
BYBLOCK
 10
600.45256056568053
 20
847.88334332567604
 30
0.0
 11
690.74452437134005
 21
847.88334332567604
 31
0.0
  0
LINE
  5
1851
  8
DIM
  6
BYBLOCK
 10
608.04628949567348
 20
664.38334332567581
 30
0.0
 11
690.74452437133993
 21
664.38334332567581
 31
0.0
  0
LINE
  5
1852
  8
DIM
  6
BYBLOCK
 10
688.74452437134005
 20
844.88334332567581
 30
0.0
 11
688.74452437133993
 21
667.38334332567581
 31
0.0
  0
SOLID
  5
1853
  8
DIM
  6
BYBLOCK
 10
688.24452437134005
 20
844.88334332567581
 30
0.0
 11
689.24452437134005
 21
844.88334332567581
 31
0.0
 12
688.74452437134005
 22
847.88334332567604
 32
0.0
 13
688.74452437134005
 23
847.88334332567604
 33
0.0
  0
SOLID
  5
1854
  8
DIM
  6
BYBLOCK
 10
688.24452437133993
 20
667.38334332567581
 30
0.0
 11
689.24452437133993
 21
667.38334332567581
 31
0.0
 12
688.74452437133993
 22
664.38334332567581
 32
0.0
 13
688.74452437133993
 23
664.38334332567581
 33
0.0
  0
TEXT
  5
1855
  8
0
 10
687.74452437133982
 20
750.41905761139014
 30
0.0
 40
3.0
  1
183.5
 50
90.0
  7
CHINESET
  0
POINT
  5
1856
  8
DEFPOINTS
  6
BYBLOCK
 62
     0
 10
598.45256056568053
 20
847.88334332567604
 30
0.0
  0
POINT
  5
1857
  8
DEFPOINTS
  6
BYBLOCK
 62
     0
 10
606.04628949567336
 20
664.38334332567581
 30
0.0
  0
POINT
  5
1858
  8
DEFPOINTS
  6
BYBLOCK
 62
     0
 10
688.74452437133993
 20
664.38334332567581
 30
0.0
  0
ENDBLK
  5
17E0
  8
0
  0
BLOCK
  8
0
  2
*D74
 70
     1
 10
0.0
 20
0.0
 30
0.0
  3
*D74
  1

  0
LINE
  5
17E2
  8
DIM
  6
BYBLOCK
 10
646.01028949567342
 20
804.88334332567581
 30
0.0
 11
674.28073146092174
 21
804.88334332567581
 31
0.0
  0
LINE
  5
17E3
  8
DIM
  6
BYBLOCK
 10
608.04628949567348
 20
664.38334332567581
 30
0.0
 11
674.28073146092163
 21
664.38334332567581
 31
0.0
  0
LINE
  5
17E4
  8
DIM
  6
BYBLOCK
 10
672.28073146092174
 20
801.8833433256757
 30
0.0
 11
672.28073146092163
 21
667.38334332567581
 31
0.0
  0
SOLID
  5
17E5
  8
DIM
  6
BYBLOCK
 10
671.78073146092174
 20
801.8833433256757
 30
0.0
 11
672.78073146092174
 21
801.8833433256757
 31
0.0
 12
672.28073146092174
 22
804.88334332567581
 32
0.0
 13
672.28073146092174
 23
804.88334332567581
 33
0.0
  0
SOLID
  5
17E6
  8
DIM
  6
BYBLOCK
 10
671.78073146092163
 20
667.38334332567581
 30
0.0
 11
672.78073146092163
 21
667.38334332567581
 31
0.0
 12
672.28073146092163
 22
664.38334332567581
 32
0.0
 13
672.28073146092163
 23
664.38334332567581
 33
0.0
  0
TEXT
  5
17E7
  8
0
 10
671.2807314609214
 20
728.91905761139014
 30
0.0
 40
3.0
  1
140.5
 50
90.0
  7
CHINESET
  0
POINT
  5
17E8
  8
DEFPOINTS
  6
BYBLOCK
 62
     0
 10
644.01028949567342
 20
804.88334332567581
 30
0.0
  0
POINT
  5
17E9
  8
DEFPOINTS
  6
BYBLOCK
 62
     0
 10
606.04628949567336
 20
664.38334332567581
 30
0.0
  0
POINT
  5
17EA
  8
DEFPOINTS
  6
BYBLOCK
 62
     0
 10
672.28073146092163
 20
664.38334332567581
 30
0.0
  0
ENDBLK
  5
17EC
  8
0
  0
BLOCK
  8
0
  2
*D75
 70
     1
 10
0.0
 20
0.0
 30
0.0
  3
*D75
  1

  0
LINE
  5
17EE
  8
DIM
  6
BYBLOCK
 10
600.45256056568053
 20
847.88334332567604
 30
0.0
 11
674.28073146092163
 21
847.88334332567604
 31
0.0
  0
LINE
  5
17EF
  8
DIM
  6
BYBLOCK
 10
646.01028949567342
 20
804.88334332567581
 30
0.0
 11
674.28073146092163
 21
804.88334332567581
 31
0.0
  0
LINE
  5
17F0
  8
DIM
  6
BYBLOCK
 10
672.28073146092163
 20
844.88334332567581
 30
0.0
 11
672.28073146092163
 21
807.8833433256757
 31
0.0
  0
SOLID
  5
17F1
  8
DIM
  6
BYBLOCK
 10
671.78073146092163
 20
844.88334332567581
 30
0.0
 11
672.78073146092163
 21
844.88334332567581
 31
0.0
 12
672.28073146092163
 22
847.88334332567604
 32
0.0
 13
672.28073146092163
 23
847.88334332567604
 33
0.0
  0
SOLID
  5
17F2
  8
DIM
  6
BYBLOCK
 10
671.78073146092163
 20
807.8833433256757
 30
0.0
 11
672.78073146092163
 21
807.8833433256757
 31
0.0
 12
672.28073146092163
 22
804.88334332567581
 32
0.0
 13
672.28073146092163
 23
804.88334332567581
 33
0.0
  0
TEXT
  5
17F3
  8
0
 10
671.28073146092129
 20
823.95477189710437
 30
0.0
 40
3.0
  1
43
 50
90.0
  7
CHINESET
  0
POINT
  5
17F4
  8
DEFPOINTS
  6
BYBLOCK
 62
     0
 10
598.45256056568053
 20
847.88334332567604
 30
0.0
  0
POINT
  5
17F5
  8
DEFPOINTS
  6
BYBLOCK
 62
     0
 10
644.01028949567342
 20
804.88334332567581
 30
0.0
  0
POINT
  5
17F6
  8
DEFPOINTS
  6
BYBLOCK
 62
     0
 10
672.28073146092163
 20
804.88334332567581
 30
0.0
  0
ENDBLK
  5
17F8
  8
0
  0
BLOCK
  8
0
  2
*D76
 70
     1
 10
0.0
 20
0.0
 30
0.0
  3
*D76
  1

  0
LINE
  5
17FA
  8
DIM
  6
BYBLOCK
 10
651.91835197046942
 20
816.88334332567592
 30
0.0
 11
663.13754161937948
 21
816.88334332567592
 31
0.0
  0
LINE
  5
17FB
  8
DIM
  6
BYBLOCK
 10
646.01028949567342
 20
804.88334332567581
 30
0.0
 11
663.13754161937948
 21
804.88334332567581
 31
0.0
  0
LINE
  5
17FC
  8
DIM
  6
BYBLOCK
 10
661.13754161937936
 20
813.88334332567604
 30
0.0
 11
661.13754161937936
 21
807.88334332567592
 31
0.0
  0
SOLID
  5
17FD
  8
DIM
  6
BYBLOCK
 10
660.63754161937936
 20
813.88334332567604
 30
0.0
 11
661.63754161937936
 21
813.88334332567604
 31
0.0
 12
661.13754161937936
 22
816.88334332567592
 32
0.0
 13
661.13754161937936
 23
816.88334332567592
 33
0.0
  0
SOLID
  5
17FE
  8
DIM
  6
BYBLOCK
 10
660.63754161937936
 20
807.88334332567592
 30
0.0
 11
661.63754161937936
 21
807.88334332567592
 31
0.0
 12
661.13754161937936
 22
804.88334332567581
 32
0.0
 13
661.13754161937936
 23
804.88334332567581
 33
0.0
  0
TEXT
  5
17FF
  8
0
 10
660.13754161937925
 20
808.74048618281881
 30
0.0
 40
3.0
  1
12
 50
90.0
  7
CHINESET
  0
POINT
  5
1800
  8
DEFPOINTS
  6
BYBLOCK
 62
     0
 10
649.9183519704693
 20
816.88334332567592
 30
0.0
  0
POINT
  5
1801
  8
DEFPOINTS
  6
BYBLOCK
 62
     0
 10
644.01028949567342
 20
804.88334332567581
 30
0.0
  0
POINT
  5
1802
  8
DEFPOINTS
  6
BYBLOCK
 62
     0
 10
661.13754161937936
 20
804.88334332567581
 30
0.0
  0
ENDBLK
  5
1804
  8
0
  0
BLOCK
  8
0
  2
*D77
 70
     1
 10
0.0
 20
0.0
 30
0.0
  3
*D77
  1

  0
LINE
  5
1847
  8
DIM
  6
BYBLOCK
 10
649.01028949567342
 20
827.88334332567592
 30
0.0
 11
663.13754161937948
 21
827.88334332567592
 31
0.0
  0
LINE
  5
1848
  8
DIM
  6
BYBLOCK
 10
651.01028949567342
 20
816.88334332567592
 30
0.0
 11
663.13754161937948
 21
816.88334332567592
 31
0.0
  0
LINE
  5
1849
  8
DIM
  6
BYBLOCK
 10
661.13754161937936
 20
824.88334332567592
 30
0.0
 11
661.13754161937936
 21
819.88334332567581
 31
0.0
  0
SOLID
  5
184A
  8
DIM
  6
BYBLOCK
 10
660.63754161937936
 20
824.88334332567592
 30
0.0
 11
661.63754161937936
 21
824.88334332567592
 31
0.0
 12
661.13754161937936
 22
827.88334332567592
 32
0.0
 13
661.13754161937936
 23
827.88334332567592
 33
0.0
  0
SOLID
  5
184B
  8
DIM
  6
BYBLOCK
 10
660.63754161937936
 20
819.88334332567581
 30
0.0
 11
661.63754161937936
 21
819.88334332567581
 31
0.0
 12
661.13754161937936
 22
816.88334332567592
 32
0.0
 13
661.13754161937936
 23
816.88334332567592
 33
0.0
  0
TEXT
  5
184C
  8
0
 10
660.13754161937925
 20
820.88334332567604
 30
0.0
 40
3.0
  1
11
 50
90.0
  7
CHINESET
  0
POINT
  5
184D
  8
DEFPOINTS
  6
BYBLOCK
 62
     0
 10
647.01028949567342
 20
827.88334332567592
 30
0.0
  0
POINT
  5
184E
  8
DEFPOINTS
  6
BYBLOCK
 62
     0
 10
649.01028949567342
 20
816.88334332567592
 30
0.0
  0
POINT
  5
184F
  8
DEFPOINTS
  6
BYBLOCK
 62
     0
 10
661.13754161937936
 20
816.88334332567592
 30
0.0
  0
ENDBLK
  5
1810
  8
0
  0
BLOCK
  8
0
  2
*D78
 70
     1
 10
0.0
 20
0.0
 30
0.0
  3
*D78
  1

  0
LINE
  5
1812
  8
DIM
  6
BYBLOCK
 10
443.78801626250203
 20
978.19683130943258
 30
0.0
 11
443.78801626250203
 21
1007.844144009341
 31
0.0
  0
LINE
  5
1813
  8
DIM
  6
BYBLOCK
 10
496.78801626250208
 20
978.19683130943258
 30
0.0
 11
496.78801626250208
 21
1007.844144009341
 31
0.0
  0
LINE
  5
1814
  8
DIM
  6
BYBLOCK
 10
446.78801626250208
 20
1005.844144009341
 30
0.0
 11
493.78801626250203
 21
1005.844144009341
 31
0.0
  0
SOLID
  5
1815
  8
DIM
  6
BYBLOCK
 10
446.78801626250208
 20
1006.344144009341
 30
0.0
 11
446.78801626250208
 21
1005.344144009342
 31
0.0
 12
443.78801626250203
 22
1005.844144009341
 32
0.0
 13
443.78801626250203
 23
1005.844144009341
 33
0.0
  0
SOLID
  5
1816
  8
DIM
  6
BYBLOCK
 10
493.78801626250203
 20
1006.344144009341
 30
0.0
 11
493.78801626250203
 21
1005.344144009342
 31
0.0
 12
496.78801626250208
 22
1005.844144009341
 32
0.0
 13
496.78801626250208
 23
1005.844144009341
 33
0.0
  0
TEXT
  5
1817
  8
0
 10
467.85944483393058
 20
1006.844144009341
 30
0.0
 40
3.0
  1
53
  7
CHINESET
  0
POINT
  5
1818
  8
DEFPOINTS
  6
BYBLOCK
 62
     0
 10
443.78801626250203
 20
976.19683130943258
 30
0.0
  0
POINT
  5
1819
  8
DEFPOINTS
  6
BYBLOCK
 62
     0
 10
496.78801626250208
 20
976.19683130943258
 30
0.0
  0
POINT
  5
181A
  8
DEFPOINTS
  6
BYBLOCK
 62
     0
 10
496.78801626250208
 20
1005.844144009341
 30
0.0
  0
ENDBLK
  5
181C
  8
0
  0
BLOCK
  8
0
  2
*D79
 70
     1
 10
0.0
 20
0.0
 30
0.0
  3
*D79
  1

  0
LINE
  5
181E
  8
DIM
  6
BYBLOCK
 10
451.28801626250208
 20
979.37471022580633
 30
0.0
 11
451.28801626250208
 21
999.54340532010758
 31
0.0
  0
LINE
  5
181F
  8
DIM
  6
BYBLOCK
 10
489.28801626250203
 20
979.37471022580633
 30
0.0
 11
489.28801626250203
 21
999.54340532010758
 31
0.0
  0
LINE
  5
1820
  8
DIM
  6
BYBLOCK
 10
454.28801626250208
 20
997.54340532010769
 30
0.0
 11
486.28801626250203
 21
997.54340532010769
 31
0.0
  0
SOLID
  5
1821
  8
DIM
  6
BYBLOCK
 10
454.28801626250208
 20
998.04340532010781
 30
0.0
 11
454.28801626250208
 21
997.04340532010758
 31
0.0
 12
451.28801626250208
 22
997.54340532010769
 32
0.0
 13
451.28801626250208
 23
997.54340532010769
 33
0.0
  0
SOLID
  5
1822
  8
DIM
  6
BYBLOCK
 10
486.28801626250203
 20
998.04340532010781
 30
0.0
 11
486.28801626250203
 21
997.04340532010758
 31
0.0
 12
489.28801626250203
 22
997.54340532010769
 32
0.0
 13
489.28801626250203
 23
997.54340532010769
 33
0.0
  0
TEXT
  5
1823
  8
0
 10
467.85944483393058
 20
998.54340532010769
 30
0.0
 40
3.0
  1
38
  7
CHINESET
  0
POINT
  5
1824
  8
DEFPOINTS
  6
BYBLOCK
 62
     0
 10
451.28801626250208
 20
977.3747102258061
 30
0.0
  0
POINT
  5
1825
  8
DEFPOINTS
  6
BYBLOCK
 62
     0
 10
489.28801626250203
 20
977.3747102258061
 30
0.0
  0
POINT
  5
1826
  8
DEFPOINTS
  6
BYBLOCK
 62
     0
 10
489.28801626250203
 20
997.54340532010769
 30
0.0
  0
ENDBLK
  5
1828
  8
0
  0
BLOCK
  8
0
  2
*D80
 70
     1
 10
0.0
 20
0.0
 30
0.0
  3
*D80
  1

  0
LINE
  5
1835
  8
DIM
  6
BYBLOCK
 10
454.2880162625018
 20
958.01288168823055
 30
0.0
 11
454.2880162625018
 21
990.93523591353812
 31
0.0
  0
LINE
  5
1836
  8
DIM
  6
BYBLOCK
 10
486.28801626250203
 20
958.01288168823055
 30
0.0
 11
486.28801626250203
 21
990.93523591353812
 31
0.0
  0
LINE
  5
1837
  8
DIM
  6
BYBLOCK
 10
457.2880162625018
 20
988.93523591353789
 30
0.0
 11
483.28801626250208
 21
988.93523591353789
 31
0.0
  0
SOLID
  5
1838
  8
DIM
  6
BYBLOCK
 10
457.2880162625018
 20
989.43523591353801
 30
0.0
 11
457.2880162625018
 21
988.43523591353801
 31
0.0
 12
454.2880162625018
 22
988.93523591353789
 32
0.0
 13
454.2880162625018
 23
988.93523591353789
 33
0.0
  0
SOLID
  5
1839
  8
DIM
  6
BYBLOCK
 10
483.28801626250208
 20
989.43523591353801
 30
0.0
 11
483.28801626250208
 21
988.43523591353801
 31
0.0
 12
486.28801626250203
 22
988.93523591353789
 32
0.0
 13
486.28801626250203
 23
988.93523591353789
 33
0.0
  0
TEXT
  5
183A
  8
0
 10
467.85944483393052
 20
989.93523591353789
 30
0.0
 40
3.0
  1
32
  7
CHINESET
  0
POINT
  5
183B
  8
DEFPOINTS
  6
BYBLOCK
 62
     0
 10
454.2880162625018
 20
956.01288168823055
 30
0.0
  0
POINT
  5
183C
  8
DEFPOINTS
  6
BYBLOCK
 62
     0
 10
486.28801626250203
 20
956.01288168823055
 30
0.0
  0
POINT
  5
183D
  8
DEFPOINTS
  6
BYBLOCK
 62
     0
 10
486.28801626250203
 20
988.93523591353789
 30
0.0
  0
ENDBLK
  5
1834
  8
0
  0
BLOCK
  8
0
  2
*U81
 70
     1
 10
0.0
 20
0.0
 30
0.0
  3
*U81
  1

  0
TEXT
  5
1881
  8
0
 10
527.79559365307034
 20
917.72716740251633
 30
0.0
 40
3.0
  1
\U+2205
 50
90.0
  7
CHINESET
  0
TEXT
  5
1882
  8
0
 10
527.79559365307034
 20
920.44145311680211
 30
0.0
 40
3.0
  1
80
 50
90.0
  7
CHINESET
  0
ENDBLK
  5
1884
  8
0
  0
ENDSEC
  0
SECTION
  2
ENTITIES
  0
POLYLINE
  5
DDF
  8
0
  6
BYBLOCK
 62
     4
 66
     1
 10
0.0
 20
0.0
 30
0.0
 70
     1
  0
VERTEX
  5
185A
  8
0
  6
BYBLOCK
 62
     4
 10
414.02544497320861
 20
646.7887837613988
 30
0.0
  0
VERTEX
  5
185B
  8
0
  6
BYBLOCK
 62
     4
 10
715.12481273765366
 20
646.7887837613988
 30
0.0
  0
VERTEX
  5
185C
  8
0
  6
BYBLOCK
 62
     4
 10
715.12481273765366
 20
1023.768447574219
 30
0.0
  0
VERTEX
  5
185D
  8
0
  6
BYBLOCK
 62
     4
 10
414.02544497320861
 20
1023.768447574219
 30
0.0
  0
SEQEND
  5
185E
  8
0
  6
BYBLOCK
 62
     4
  0
DIMENSION
  5
F9F
  8
DIM
  6
BYBLOCK
  2
*D71
 10
432.78801626250203
 20
1013.530010051477
 30
0.0
 11
470.28801626250191
 21
1016.030010051477
 31
0.0
 70
     0
 13
507.7880162625018
 23
935.4322925953054
 33
0.0
 14
432.78801626250203
 24
935.4322925953054
 34
0.0
  0
DIMENSION
  5
FAC
  8
DIM
  6
BYBLOCK
  2
*D72
 10
528.79559365307045
 20
881.51288168823066
 30
0.0
 11
526.29559365307034
 21
921.51288168823066
 31
0.0
 70
     0
  1
%%c<>
 13
470.28801626250203
 23
961.51288168823055
 33
0.0
 14
470.28801626250203
 24
881.51288168823066
 34
0.0
 50
90.0
  0
LINE
  5
FB9
  8
0
  6
BYBLOCK
 10
443.78801626250203
 20
976.19683130943258
 30
0.0
 11
443.78801626250203
 21
947.75109721512126
 31
0.0
  0
LINE
  5
FBA
  8
0
  6
BYBLOCK
 10
496.78801626250208
 20
976.19683130943258
 30
0.0
 11
496.78801626250208
 21
947.75109721512126
 31
0.0
  0
LINE
  5
FBB
  8
CENTER
  6
CENTER
 10
470.28801626250203
 20
980.32706370386109
 30
0.0
 11
470.28801626250203
 21
880.51288168823066
 31
0.0
  0
LINE
  5
FBC
  8
CENTER
  6
CENTER
 10
486.28801626250203
 20
951.01288168823066
 30
0.0
 11
486.28801626250203
 21
956.01288168823055
 31
0.0
  0
LINE
  5
FBD
  8
CENTER
  6
CENTER
 10
454.2880162625018
 20
951.01288168823066
 30
0.0
 11
454.2880162625018
 21
956.01288168823055
 31
0.0
  0
CIRCLE
  5
FBE
  8
0
 10
486.28801626250203
 20
949.01288168823055
 30
0.0
 40
6.0
  0
CIRCLE
  5
FBF
  8
0
 10
454.2880162625018
 20
949.01288168823055
 30
0.0
 40
6.0
  0
ARC
  5
FC0
  8
0
 10
470.28801626250203
 20
921.51288168823066
 30
0.0
 40
40.0
 50
20.364134806317772
 51
159.63586519368221
  0
DIMENSION
  5
FC1
  8
DIM
  6
BYBLOCK
  2
*D73
 10
688.74452437133993
 20
664.38334332567581
 30
0.0
 11
686.24452437133982
 21
756.13334332567592
 31
0.0
 70
     0
 13
598.45256056568053
 23
847.88334332567604
 33
0.0
 14
606.04628949567336
 24
664.38334332567581
 34
0.0
 50
90.0
  0
DIMENSION
  5
FCE
  8
DIM
  6
BYBLOCK
  2
*D74
 10
672.28073146092163
 20
664.38334332567581
 30
0.0
 11
669.78073146092152
 21
734.63334332567592
 31
0.0
 70
     0
 13
644.01028949567342
 23
804.88334332567581
 33
0.0
 14
606.04628949567336
 24
664.38334332567581
 34
0.0
 50
90.0
  0
DIMENSION
  5
FDB
  8
DIM
  6
BYBLOCK
  2
*D75
 10
672.28073146092163
 20
804.88334332567581
 30
0.0
 11
669.7807314609214
 21
826.38334332567604
 31
0.0
 70
     0
 13
598.45256056568053
 23
847.88334332567604
 33
0.0
 14
644.01028949567342
 24
804.88334332567581
 34
0.0
 50
90.0
  0
TEXT
  5
FE8
  8
DIM
  6
BYBLOCK
 10
660.27271824135755
 20
796.43173878601453
 30
0.0
 40
3.0
  1
3
 50
90.0
  7
CHINESET
  0
LINE
  5
FE9
  8
DIM
  6
BYBLOCK
 10
649.01028949567342
 20
801.88334332567592
 30
0.0
 11
663.13754161937948
 21
801.88334332567592
 31
0.0
  0
LINE
  5
FEA
  8
DIM
  6
BYBLOCK
 10
646.01028949567342
 20
804.88334332567581
 30
0.0
 11
663.13754161937948
 21
804.88334332567581
 31
0.0
  0
DIMENSION
  5
FEB
  8
DIM
  6
BYBLOCK
  2
*D76
 10
661.13754161937936
 20
804.88334332567581
 30
0.0
 11
658.63754161937925
 21
810.88334332567604
 31
0.0
 70
     0
 13
649.9183519704693
 23
816.88334332567592
 33
0.0
 14
644.01028949567342
 24
804.88334332567581
 34
0.0
 50
90.0
  0
DIMENSION
  5
FF8
  8
DIM
  6
BYBLOCK
  2
*D77
 10
661.13754161937936
 20
816.88334332567592
 30
0.0
 11
658.63754161937925
 21
822.38334332567615
 31
0.0
 70
     0
 13
647.01028949567342
 23
827.88334332567592
 33
0.0
 14
649.01028949567342
 24
816.88334332567592
 34
0.0
 50
90.0
  0
LINE
  5
1005
  8
CENTER
  6
CENTER
 10
470.28801624750218
 20
855.62893365267064
 30
0.0
 11
470.28801624750218
 21
653.82763016946024
 31
0.0
  0
ARC
  5
1006
  8
0
 10
574.51028949567342
 20
757.38334332567581
 30
0.0
 40
7.0
 50
0.000000000000007
 51
180.0
  0
ARC
  5
1007
  8
0
 10
575.51994521427446
 20
757.92932811820344
 30
0.0
 40
6.5325123014341511
 50
98.89119530014149
 51
184.7943515251205
  0
ARC
  5
1008
  8
0
 10
616.51028949567342
 20
757.38334332567581
 30
0.0
 40
7.0
 50
0.000000000000007
 51
180.0
  0
ARC
  5
1009
  8
0
 10
611.91571386810654
 20
755.11260533258769
 30
0.0
 40
10.34682116081626
 50
12.67745793307256
 51
63.636995241665161
  0
LINE
  5
100A
  8
CENTER
  6
CENTER
 10
595.51028949567342
 20
855.62893365267064
 30
0.0
 11
595.51028949567342
 21
653.82763016946024
 31
0.0
  0
LINE
  5
100B
  8
0
 10
626.51028949567342
 20
691.3833433256757
 30
0.0
 11
627.24793999857673
 21
767.70474156753471
 31
0.0
  0
LINE
  5
100C
  8
0
 10
563.76672385437803
 20
768.31675448029273
 30
0.0
 11
564.51028949567342
 21
691.3833433256757
 31
0.0
  0
ARC
  5
100D
  8
0
 10
490.27836052890109
 20
757.92932811820344
 30
0.0
 40
6.5325123014341511
 50
355.20564847487941
 51
81.108804699858496
  0
ARC
  5
100E
  8
0
 10
491.28801624750218
 20
757.38334332567581
 30
0.0
 40
7.0
 50
0.0
 51
180.0
  0
ARC
  5
100F
  8
0
 10
453.88259187506878
 20
755.11260533258769
 30
0.0
 40
10.34682116081626
 50
116.3630047583348
 51
167.32254206692741
  0
ARC
  5
1010
  8
0
 10
449.28801624750218
 20
757.38334332567581
 30
0.0
 40
7.0
 50
0.0
 51
180.0
  0
LINE
  5
1011
  8
0
 10
439.28801624750218
 20
691.3833433256757
 30
0.0
 11
438.55036574459888
 21
767.70474156753471
 31
0.0
  0
LINE
  5
1012
  8
0
 10
502.03158188879758
 20
768.31675448029273
 30
0.0
 11
501.28801624750218
 21
691.3833433256757
 31
0.0
  0
ARC
  5
1013
  8
0
 10
470.28801624750218
 20
691.3833433256757
 30
0.0
 40
31.0
 50
180.0
 51
237.00411452642041
  0
ARC
  5
1014
  8
0
 10
449.28801624750218
 20
689.38334332567581
 30
0.0
 40
7.0
 50
180.0
 51
0.0
  0
LINE
  5
1015
  8
0
 10
443.78801624750218
 20
757.38334332567581
 30
0.0
 11
443.78801624750218
 21
689.38334332567581
 31
0.0
  0
LINE
  5
1016
  8
0
 10
442.28801624750218
 20
757.38334332567581
 30
0.0
 11
442.28801624750218
 21
689.38334332567581
 31
0.0
  0
ARC
  5
1017
  8
0
 10
450.50550115084951
 20
689.00065289259157
 30
0.0
 40
6.7283768766526313
 50
176.7394237284004
 51
259.57502944633751
  0
LINE
  5
1018
  8
0
 10
456.28801624750218
 20
757.38334332567581
 30
0.0
 11
456.28801624750218
 21
689.38334332567581
 31
0.0
  0
LINE
  5
1019
  8
0
 10
496.78801624750218
 20
757.38334332567581
 30
0.0
 11
496.78801624750218
 21
689.38334332567581
 31
0.0
  0
LINE
  5
101A
  8
0
 10
484.28801624750218
 20
757.38334332567581
 30
0.0
 11
484.28801624750218
 21
689.38334332567581
 31
0.0
  0
LINE
  5
101B
  8
0
 10
498.28801624750218
 20
757.38334332567581
 30
0.0
 11
498.28801624750218
 21
689.38334332567581
 31
0.0
  0
ARC
  5
101C
  8
0
 10
491.28801624750218
 20
689.38334332567581
 30
0.0
 40
7.0
 50
180.0
 51
0.0
  0
ARC
  5
101D
  8
0
 10
470.28801624750218
 20
691.3833433256757
 30
0.0
 40
31.0
 50
302.99588547357951
 51
0.0
  0
LINE
  5
101E
  8
0
 10
459.75201624750218
 20
664.38334332567592
 30
0.0
 11
480.8240162475023
 21
664.38334332567592
 31
0.0
  0
LINE
  5
101F
  8
0
 10
462.75201624750213
 20
665.38334332567581
 30
0.0
 11
477.8240162475023
 21
665.38334332567581
 31
0.0
  0
LINE
  5
1020
  8
0
 10
453.40607323136811
 20
665.38334332567581
 30
0.0
 11
487.16995926363631
 21
665.38334332567581
 31
0.0
  0
LINE
  5
1021
  8
0
 10
459.75201624750218
 20
665.38334332567581
 30
0.0
 11
459.75201624750218
 21
664.38334332567581
 31
0.0
  0
LINE
  5
1022
  8
0
 10
480.8240162475023
 20
665.38334332567581
 30
0.0
 11
480.8240162475023
 21
664.38334332567581
 31
0.0
  0
ARC
  5
1023
  8
0
 10
490.38276888533312
 20
688.75532339595145
 30
0.0
 40
6.4359616843719687
 50
278.08572460240032
 51
5.5998222228616896
  0
LINE
  5
1024
  8
0
 10
603.04628949567336
 20
665.38334332567581
 30
0.0
 11
587.97428949567325
 21
665.38334332567581
 31
0.0
  0
LINE
  5
1025
  8
0
 10
612.39223251180726
 20
665.38334332567581
 30
0.0
 11
578.62834647953912
 21
665.38334332567581
 31
0.0
  0
LINE
  5
1026
  8
0
 10
606.04628949567336
 20
664.38334332567592
 30
0.0
 11
584.97428949567325
 21
664.38334332567592
 31
0.0
  0
LINE
  5
1027
  8
0
 10
567.51028949567342
 20
757.38334332567581
 30
0.0
 11
567.51028949567342
 21
689.38334332567581
 31
0.0
  0
LINE
  5
1028
  8
0
 10
581.51028949567342
 20
757.38334332567581
 30
0.0
 11
581.51028949567342
 21
689.38334332567581
 31
0.0
  0
LINE
  5
1029
  8
0
 10
569.01028949567342
 20
757.38334332567581
 30
0.0
 11
569.01028949567342
 21
689.38334332567581
 31
0.0
  0
ARC
  5
102A
  8
0
 10
574.51028949567342
 20
689.38334332567581
 30
0.0
 40
7.0
 50
180.0
 51
0.000000000000007
  0
ARC
  5
102B
  8
0
 10
575.41553685784254
 20
688.75532339595145
 30
0.0
 40
6.4359616843719687
 50
174.40017777713831
 51
261.91427539759962
  0
ARC
  5
102C
  8
0
 10
595.51028949567342
 20
691.3833433256757
 30
0.0
 40
31.0
 50
180.0
 51
237.00411452642041
  0
LINE
  5
102D
  8
0
 10
584.97428949567325
 20
665.38334332567581
 30
0.0
 11
584.97428949567325
 21
664.38334332567581
 31
0.0
  0
LINE
  5
102E
  8
0
 10
623.51028949567331
 20
757.38334332567581
 30
0.0
 11
623.51028949567331
 21
689.38334332567581
 31
0.0
  0
LINE
  5
102F
  8
0
 10
622.01028949567342
 20
757.38334332567581
 30
0.0
 11
622.01028949567342
 21
689.38334332567581
 31
0.0
  0
LINE
  5
1030
  8
0
 10
609.51028949567342
 20
757.38334332567581
 30
0.0
 11
609.51028949567342
 21
689.38334332567581
 31
0.0
  0
ARC
  5
1031
  8
0
 10
595.51028949567342
 20
691.3833433256757
 30
0.0
 40
31.0
 50
302.99588547357951
 51
0.000000000000007
  0
ARC
  5
1032
  8
0
 10
616.51028949567342
 20
689.38334332567581
 30
0.0
 40
7.0
 50
180.0
 51
0.000000000000007
  0
ARC
  5
1033
  8
0
 10
615.29280459232609
 20
689.00065289259157
 30
0.0
 40
6.7283768766526313
 50
280.42497055366238
 51
3.2605762715995938
  0
LINE
  5
1034
  8
0
 10
606.04628949567336
 20
665.38334332567581
 30
0.0
 11
606.04628949567336
 21
664.38334332567592
 31
0.0
  0
LINE
  5
1035
  8
CENTER
  6
CENTER
 10
421.75763220535811
 20
804.88334332567581
 30
0.0
 11
518.68326198407419
 21
804.88334332567581
 31
0.0
  0
LINE
  5
1036
  8
0
 10
464.44435879827398
 20
829.88334332567581
 30
0.0
 11
444.44435879827398
 21
829.88334332567581
 31
0.0
  0
LINE
  5
1037
  8
0
 10
463.94435879827381
 20
832.38334332567581
 30
0.0
 11
444.94435879827398
 21
832.38334332567581
 31
0.0
  0
LINE
  5
1038
  8
0
 10
479.33801624750242
 20
829.88334332567581
 30
0.0
 11
443.78801624750241
 21
829.88334332567581
 31
0.0
  0
LINE
  5
1039
  8
0
  6
BYBLOCK
 10
433.78801626250208
 20
795.88334332567592
 30
0.0
 11
506.78801623250212
 21
795.88334332567604
 31
0.0
  0
LINE
  5
103A
  8
0
  6
BYBLOCK
 10
432.78801626250203
 20
789.88334332567592
 30
0.0
 11
507.78801623250217
 21
789.88334332567592
 31
0.0
  0
LINE
  5
103B
  8
0
 10
432.87759197934139
 20
774.08377059028658
 30
0.0
 11
507.68122588716238
 21
774.08377059028646
 31
0.0
  0
LINE
  5
103C
  8
0
 10
432.78801626250203
 20
787.3833433256757
 30
0.0
 11
507.78801623250217
 21
787.3833433256757
 31
0.0
  0
LINE
  5
103D
  8
0
 10
432.78801626250203
 20
787.38334332567592
 30
0.0
 11
507.78801623250217
 21
787.3833433256757
 31
0.0
  0
LINE
  5
103E
  8
0
  6
BYBLOCK
 10
443.28801624750241
 20
820.88334332567581
 30
0.0
 11
443.28801624750241
 21
796.88334332567592
 31
0.0
  0
LINE
  5
103F
  8
0
  6
BYBLOCK
 10
432.78801626250203
 20
794.88334332567592
 30
0.0
 11
432.78801626250203
 21
818.88334332567592
 31
0.0
  0
LINE
  5
1040
  8
0
 10
432.78801626250203
 20
787.38334332567592
 30
0.0
 11
432.78801626250203
 21
774.49744633846535
 31
0.0
  0
LINE
  5
1041
  8
0
 10
433.08026045695539
 20
773.79098917789929
 30
0.0
 11
438.11206950797521
 21
768.74993040314234
 31
0.0
  0
LINE
  5
1042
  8
0
 10
434.78801624750218
 20
782.38334332567581
 30
0.0
 11
438.78801624750218
 21
782.38334332567581
 31
0.0
  0
LINE
  5
1043
  8
0
 10
434.28801624750218
 20
775.08377059028646
 30
0.0
 11
434.28801624750218
 21
781.88334332567581
 31
0.0
  0
ARC
  5
1044
  8
0
 10
433.78801626250208
 20
774.49744633846535
 30
0.0
 40
1.0
 50
180.0
 51
224.9473863856833
  0
ARC
  5
1045
  8
0
 10
433.28801624750218
 20
775.08377059028646
 30
0.0
 40
1.0
 50
270.0
 51
0.0000000000004198
  0
ARC
  5
1046
  8
0
 10
434.78801624750218
 20
781.88334332567581
 30
0.0
 40
0.5
 50
90.000000000000355
 51
180.0000000000002
  0
ARC
  5
1047
  8
0
 10
437.05043579965519
 20
767.69024466229325
 30
0.0
 40
1.5
 50
0.5537496115755838
 51
44.947386385683373
  0
LINE
  5
1048
  8
0
 10
449.28801624750218
 20
775.08377059028646
 30
0.0
 11
449.28801624750218
 21
781.88334332567581
 31
0.0
  0
LINE
  5
1049
  8
0
 10
444.28801624750218
 20
775.08377059028646
 30
0.0
 11
444.28801624750218
 21
781.8833433256757
 31
0.0
  0
LINE
  5
104A
  8
0
 10
439.28801624750218
 20
775.08377059028646
 30
0.0
 11
439.28801624750218
 21
781.88334332567581
 31
0.0
  0
ARC
  5
104B
  8
0
 10
440.28801624750218
 20
775.08377059028646
 30
0.0
 40
1.0
 50
180.0
 51
270.0
  0
ARC
  5
104C
  8
0
 10
443.28801624750218
 20
775.08377059028646
 30
0.0
 40
1.0
 50
270.0
 51
0.0
  0
ARC
  5
104D
  8
0
 10
450.28801624750218
 20
775.08377059028646
 30
0.0
 40
1.0
 50
180.0
 51
270.0
  0
ARC
  5
104E
  8
0
 10
438.78801624750218
 20
781.88334332567581
 30
0.0
 40
0.5
 50
0.0000000000002036
 51
90.0
  0
LINE
  5
104F
  8
0
 10
444.78801624750218
 20
782.3833433256757
 30
0.0
 11
448.78801624750218
 21
782.38334332567581
 31
0.0
  0
ARC
  5
1050
  8
0
 10
444.78801624750218
 20
781.8833433256757
 30
0.0
 40
0.5
 50
90.000000000000327
 51
180.0
  0
ARC
  5
1051
  8
0
 10
448.78801624750218
 20
781.88334332567581
 30
0.0
 40
0.5
 50
359.99999999999972
 51
90.000000000000725
  0
ARC
  5
1052
  8
0
  6
BYBLOCK
 10
433.78801626250208
 20
794.88334332567592
 30
0.0
 40
1.0
 50
90.0
 51
180.0
  0
LINE
  5
1053
  8
0
  6
BYBLOCK
 10
432.78801626250203
 20
789.88334332567592
 30
0.0
 11
432.78801626250203
 21
794.88334332567592
 31
0.0
  0
LINE
  5
1054
  8
0
 10
435.28801626250203
 20
789.88334332567592
 30
0.0
 11
435.28801626250203
 21
787.38334332567592
 31
0.0
  0
ARC
  5
1055
  8
0
  6
BYBLOCK
 10
442.28801624750241
 20
796.88334332567592
 30
0.0
 40
1.0
 50
270.0
 51
0.0
  0
LINE
  5
1056
  8
0
  6
BYBLOCK
 10
433.78801626250208
 20
819.88334332567581
 30
0.0
 11
442.28801624750241
 21
819.88334332567581
 31
0.0
  0
ARC
  5
1057
  8
0
  6
BYBLOCK
 10
433.78801626250208
 20
818.88334332567592
 30
0.0
 40
1.0
 50
90.0
 51
180.0
  0
ARC
  5
1058
  8
0
  6
BYBLOCK
 10
442.28801624750241
 20
820.88334332567581
 30
0.0
 40
1.0
 50
270.0
 51
0.0
  0
LINE
  5
1059
  8
0
  6
BYBLOCK
 10
452.44435879827398
 20
832.38334332567581
 30
0.0
 11
452.44435879827398
 21
829.88334332567581
 31
0.0
  0
LINE
  5
105A
  8
0
  6
BYBLOCK
 10
448.44435879827398
 20
832.38334332567581
 30
0.0
 11
448.44435879827398
 21
829.88334332567581
 31
0.0
  0
LINE
  5
105B
  8
0
  6
BYBLOCK
 10
449.44435879827398
 20
832.38334332567581
 30
0.0
 11
449.44435879827398
 21
829.88334332567581
 31
0.0
  0
LINE
  5
105C
  8
0
  6
BYBLOCK
 10
450.44435879827398
 20
832.38334332567581
 30
0.0
 11
450.44435879827398
 21
829.88334332567581
 31
0.0
  0
LINE
  5
105D
  8
0
  6
BYBLOCK
 10
451.44435879827398
 20
832.38334332567581
 30
0.0
 11
451.44435879827398
 21
829.88334332567581
 31
0.0
  0
LINE
  5
105E
  8
0
  6
BYBLOCK
 10
444.44435879827398
 20
831.88334332567592
 30
0.0
 11
444.44435879827398
 21
829.88334332567581
 31
0.0
  0
LINE
  5
105F
  8
0
  6
BYBLOCK
 10
445.44435879827398
 20
832.38334332567581
 30
0.0
 11
445.44435879827398
 21
829.88334332567581
 31
0.0
  0
LINE
  5
1060
  8
0
  6
BYBLOCK
 10
446.44435879827398
 20
832.38334332567581
 30
0.0
 11
446.44435879827398
 21
829.88334332567581
 31
0.0
  0
ARC
  5
1061
  8
0
 10
443.78801624750241
 20
829.38334332567592
 30
0.0
 40
0.5
 50
90.0
 51
180.0
  0
LINE
  5
1062
  8
0
 10
444.44435879827398
 20
831.88334332567592
 30
0.0
 11
444.94435879827398
 21
832.38334332567581
 31
0.0
  0
LINE
  5
1063
  8
0
  6
BYBLOCK
 10
447.44435879827398
 20
832.38334332567581
 30
0.0
 11
447.44435879827398
 21
829.88334332567581
 31
0.0
  0
LINE
  5
1064
  8
0
 10
443.28801624750241
 20
829.38334332567592
 30
0.0
 11
443.28801624750241
 21
820.88334332567581
 31
0.0
  0
LINE
  5
1065
  8
0
  6
BYBLOCK
 10
489.28801624750201
 20
819.88334332567581
 30
0.0
 11
489.28801624750218
 21
796.88334332567592
 31
0.0
  0
LINE
  5
1066
  8
0
 10
464.4443587982737
 20
831.88334332567592
 30
0.0
 11
464.4443587982737
 21
796.88334332567592
 31
0.0
  0
LINE
  5
1067
  8
0
  6
BYBLOCK
 10
507.78801623250217
 20
794.88334332567592
 30
0.0
 11
507.78801623250217
 21
818.88334332567592
 31
0.0
  0
LINE
  5
1068
  8
0
 10
487.28801624750218
 20
774.08377059028658
 30
0.0
 11
490.28801624750218
 21
774.08377059028658
 31
0.0
  0
LINE
  5
1069
  8
0
 10
481.28801624750218
 20
775.08377059028669
 30
0.0
 11
481.28801624750218
 21
787.3833433256757
 31
0.0
  0
LINE
  5
106A
  8
0
 10
459.28801624750218
 20
775.08377059028646
 30
0.0
 11
459.28801624750218
 21
787.3833433256757
 31
0.0
  0
LINE
  5
106B
  8
0
 10
470.28801624750218
 20
785.14850576536674
 30
0.0
 11
461.28801624750218
 21
782.38334332567581
 31
0.0
  0
LINE
  5
106C
  8
0
 10
470.28801624750218
 20
785.14850576536674
 30
0.0
 11
479.28801624750218
 21
782.38334332567581
 31
0.0
  0
LINE
  5
106D
  8
0
 10
461.28801624750218
 20
782.38334332567581
 30
0.0
 11
479.28801624750218
 21
782.38334332567581
 31
0.0
  0
LINE
  5
106E
  8
0
 10
459.28801624750218
 20
775.08377059028646
 30
0.0
 11
459.28801624750218
 21
781.88334332567581
 31
0.0
  0
ARC
  5
106F
  8
0
 10
460.28801624750218
 20
775.08377059028646
 30
0.0
 40
1.0
 50
180.0
 51
270.0
  0
ARC
  5
1070
  8
0
 10
458.78801624750218
 20
781.88334332567581
 30
0.0
 40
0.5
 50
0.0000000000002036
 51
90.0
  0
LINE
  5
1071
  8
0
 10
454.28801624750218
 20
775.08377059028646
 30
0.0
 11
454.28801624750218
 21
781.88334332567581
 31
0.0
  0
ARC
  5
1072
  8
0
 10
453.28801624750218
 20
775.08377059028646
 30
0.0
 40
1.0
 50
270.0
 51
0.0
  0
ARC
  5
1073
  8
0
 10
454.78801624750218
 20
781.88334332567581
 30
0.0
 40
0.5
 50
90.0
 51
180.0
  0
LINE
  5
1074
  8
0
 10
454.78801624750218
 20
782.38334332567581
 30
0.0
 11
458.78801624750218
 21
782.38334332567581
 31
0.0
  0
LINE
  5
1075
  8
0
 10
486.28801624750218
 20
775.08377059028669
 30
0.0
 11
486.28801624750218
 21
781.88334332567581
 31
0.0
  0
ARC
  5
1076
  8
0
 10
480.28801624750218
 20
775.08377059028669
 30
0.0
 40
1.0
 50
270.0
 51
0.0000000000004198
  0
ARC
  5
1077
  8
0
 10
487.28801624750218
 20
775.08377059028669
 30
0.0
 40
1.0
 50
180.0
 51
270.0
  0
LINE
  5
1078
  8
0
 10
481.78801624750218
 20
782.38334332567581
 30
0.0
 11
485.78801624750218
 21
782.38334332567581
 31
0.0
  0
ARC
  5
1079
  8
0
 10
481.78801624750218
 20
781.88334332567581
 30
0.0
 40
0.5
 50
89.999999999999915
 51
180.0000000000002
  0
ARC
  5
107A
  8
0
 10
485.78801624750218
 20
781.88334332567581
 30
0.0
 40
0.5
 50
0.0000000000002036
 51
90.0
  0
ARC
  5
107B
  8
0
  6
BYBLOCK
 10
465.44435879827381
 20
796.88334332567592
 30
0.0
 40
1.0
 50
179.99999999999989
 51
270.00000000000011
  0
LINE
  5
107C
  8
0
 10
507.78801623250217
 20
787.3833433256757
 30
0.0
 11
507.78801623250217
 21
774.53341101642945
 31
0.0
  0
LINE
  5
107D
  8
0
 10
507.45166543764719
 20
773.78536707887588
 30
0.0
 11
502.5360380260239
 21
769.42432348138129
 31
0.0
  0
LINE
  5
107E
  8
0
 10
501.78801624750218
 20
782.38334332567581
 30
0.0
 11
505.78801624750218
 21
782.38334332567581
 31
0.0
  0
ARC
  5
107F
  8
0
 10
503.53151183374132
 20
768.30225757505127
 30
0.0
 40
1.5
 50
131.57877936227931
 51
179.4462503884244
  0
LINE
  5
1080
  8
0
 10
496.28801624750218
 20
775.08377059028669
 30
0.0
 11
496.28801624750218
 21
781.88334332567581
 31
0.0
  0
LINE
  5
1081
  8
0
 10
491.28801624750218
 20
775.08377059028669
 30
0.0
 11
491.28801624750218
 21
781.8833433256757
 31
0.0
  0
LINE
  5
1082
  8
0
 10
501.28801624750218
 20
775.08377059028669
 30
0.0
 11
501.28801624750218
 21
781.88334332567581
 31
0.0
  0
ARC
  5
1083
  8
0
 10
497.28801624750218
 20
775.08377059028669
 30
0.0
 40
1.0
 50
180.0
 51
270.0
  0
ARC
  5
1084
  8
0
 10
500.28801624750218
 20
775.08377059028669
 30
0.0
 40
1.0
 50
270.0
 51
0.0
  0
ARC
  5
1085
  8
0
 10
495.78801624750218
 20
781.88334332567581
 30
0.0
 40
0.5
 50
359.99999999999972
 51
90.000000000000725
  0
ARC
  5
1086
  8
0
 10
491.78801624750218
 20
781.8833433256757
 30
0.0
 40
0.5
 50
90.000000000000327
 51
180.0
  0
LINE
  5
1087
  8
0
 10
491.78801624750218
 20
782.3833433256757
 30
0.0
 11
495.78801624750218
 21
782.38334332567581
 31
0.0
  0
ARC
  5
1088
  8
0
 10
501.78801624750218
 20
781.88334332567581
 30
0.0
 40
0.5
 50
90.0
 51
180.0
  0
ARC
  5
1089
  8
0
 10
490.28801624750218
 20
775.08377059028669
 30
0.0
 40
1.0
 50
270.0
 51
0.0
  0
LINE
  5
108A
  8
0
 10
506.28801624750218
 20
775.08377059028669
 30
0.0
 11
506.28801624750218
 21
781.88334332567581
 31
0.0
  0
ARC
  5
108B
  8
0
 10
506.78801623250212
 20
774.53341101642945
 30
0.0
 40
1.0
 50
311.57877936227942
 51
0.0
  0
ARC
  5
108C
  8
0
 10
507.28801624750218
 20
775.08377059028669
 30
0.0
 40
1.0
 50
180.0
 51
270.0
  0
ARC
  5
108D
  8
0
 10
505.78801624750218
 20
781.88334332567581
 30
0.0
 40
0.5
 50
0.0000000000002036
 51
90.0
  0
ARC
  5
108E
  8
0
  6
BYBLOCK
 10
488.28801624750218
 20
796.88334332567592
 30
0.0
 40
1.0
 50
270.00000000000011
 51
0.0
  0
ARC
  5
108F
  8
0
  6
BYBLOCK
 10
506.78801623250212
 20
794.88334332567592
 30
0.0
 40
1.0
 50
0.0
 51
90.0
  0
LINE
  5
1090
  8
0
  6
BYBLOCK
 10
507.78801623250217
 20
789.88334332567592
 30
0.0
 11
507.78801623250217
 21
794.88334332567592
 31
0.0
  0
LINE
  5
1091
  8
0
 10
505.28801623250212
 20
789.88334332567592
 30
0.0
 11
505.28801623250212
 21
787.3833433256757
 31
0.0
  0
LINE
  5
1092
  8
0
  6
BYBLOCK
 10
479.78801624750201
 20
829.88334332567581
 30
0.0
 11
487.78801624750201
 21
829.88334332567581
 31
0.0
  0
LINE
  5
1093
  8
0
  6
BYBLOCK
 10
465.44435879827381
 20
811.58334332567586
 30
0.0
 11
488.28801624750201
 21
811.58334332567597
 31
0.0
  0
LINE
  5
1094
  8
0
  6
BYBLOCK
 10
454.44435879827398
 20
834.11076044968956
 30
0.0
 11
454.44435879827398
 21
831.61076044968968
 31
0.0
  0
LINE
  5
1095
  8
0
 10
460.7880162475019
 20
832.8833433256757
 30
0.0
 11
460.7880162475019
 21
832.38334332567581
 31
0.0
  0
LINE
  5
1096
  8
CENTER
  6
CENTER
 10
454.44435879827398
 20
836.48715839061265
 30
0.0
 11
454.44435879827398
 21
818.75079241520541
 31
0.0
  0
LINE
  5
1097
  8
0
 10
479.78801624750201
 20
832.88334332567592
 30
0.0
 11
479.78801624750201
 21
829.88334332567581
 31
0.0
  0
LINE
  5
1098
  8
0
  6
BYBLOCK
 62
     0
 10
480.33801624750242
 20
830.55000999234255
 30
0.0
 11
480.33801624750242
 21
833.2501920753848
 31
0.0
  0
LINE
  5
1099
  8
0
 10
486.23801624750217
 20
833.2501920753848
 30
0.0
 11
486.23801624750217
 21
829.88334332567581
 31
0.0
  0
LINE
  5
109A
  8
0
 10
480.33801624750242
 20
833.2501920753848
 30
0.0
 11
480.33801624750242
 21
829.88334332567581
 31
0.0
  0
LINE
  5
109B
  8
CENTER
  6
CENTER
 10
483.28801624750241
 20
844.29845844904548
 30
0.0
 11
483.28801624750241
 21
816.92035499486735
 31
0.0
  0
LINE
  5
109C
  8
0
  6
BYBLOCK
 10
477.63801624750209
 20
829.88334332567581
 30
0.0
 11
462.93801624750211
 21
829.88334332567581
 31
0.0
  0
ARC
  5
109D
  8
0
  6
BYBLOCK
 10
465.44435879827381
 20
812.58334332567586
 30
0.0
 40
1.0
 50
180.0
 51
270.0
  0
LINE
  5
109E
  8
0
  6
BYBLOCK
 10
463.44435879827398
 20
832.38334332567581
 30
0.0
 11
463.44435879827398
 21
829.88334332567581
 31
0.0
  0
LINE
  5
109F
  8
0
  6
BYBLOCK
 10
462.44435879827398
 20
832.38334332567581
 30
0.0
 11
462.44435879827398
 21
829.88334332567581
 31
0.0
  0
LINE
  5
10A0
  8
0
  6
BYBLOCK
 10
461.44435879827398
 20
832.38334332567581
 30
0.0
 11
461.44435879827398
 21
829.88334332567581
 31
0.0
  0
LINE
  5
10A1
  8
0
  6
BYBLOCK
 10
459.44435879827398
 20
832.38334332567581
 30
0.0
 11
459.44435879827398
 21
829.88334332567581
 31
0.0
  0
LINE
  5
10A2
  8
0
  6
BYBLOCK
 10
463.94435879827381
 20
832.38334332567581
 30
0.0
 11
464.4443587982737
 21
831.88334332567592
 31
0.0
  0
LINE
  5
10A3
  8
0
  6
BYBLOCK
 10
453.44435879827398
 20
832.38334332567581
 30
0.0
 11
453.44435879827398
 21
829.88334332567581
 31
0.0
  0
LINE
  5
10A4
  8
0
  6
BYBLOCK
 10
456.44435879827398
 20
832.38334332567581
 30
0.0
 11
456.44435879827398
 21
829.88334332567581
 31
0.0
  0
LINE
  5
10A5
  8
0
  6
BYBLOCK
 10
457.44435879827398
 20
832.38334332567581
 30
0.0
 11
457.44435879827398
 21
829.88334332567581
 31
0.0
  0
LINE
  5
10A6
  8
0
  6
BYBLOCK
 10
458.44435879827398
 20
832.38334332567581
 30
0.0
 11
458.44435879827398
 21
829.88334332567581
 31
0.0
  0
LINE
  5
10A7
  8
0
  6
BYBLOCK
 10
459.44435879827398
 20
832.38334332567581
 30
0.0
 11
459.44435879827398
 21
829.88334332567581
 31
0.0
  0
LINE
  5
10A8
  8
0
  6
BYBLOCK
 10
455.44435879827398
 20
832.38334332567581
 30
0.0
 11
455.44435879827398
 21
829.88334332567581
 31
0.0
  0
LINE
  5
10A9
  8
0
  6
BYBLOCK
 10
460.44435879827398
 20
832.38334332567581
 30
0.0
 11
460.44435879827398
 21
829.88334332567581
 31
0.0
  0
LINE
  5
10AA
  8
0
 10
462.93801624750211
 20
829.88334332567581
 30
0.0
 11
460.7880162475019
 21
829.88334332567581
 31
0.0
  0
ARC
  5
10AB
  8
0
  6
BYBLOCK
 10
479.33801624750242
 20
828.88334332567581
 30
0.0
 40
1.0
 50
0.0
 51
90.000000000000099
  0
LINE
  5
10AC
  8
0
  6
BYBLOCK
 10
480.33801624750242
 20
828.88334332567581
 30
0.0
 11
480.33801624750242
 21
811.58334332567597
 31
0.0
  0
LINE
  5
10AD
  8
0
  6
BYBLOCK
 62
     0
 10
486.23801624750217
 20
829.88334332567581
 30
0.0
 11
486.23801624750217
 21
831.25019207538469
 31
0.0
  0
LINE
  5
10B1
  8
0
 10
486.23801624750217
 20
829.88334332567581
 30
0.0
 11
480.33801624750242
 21
829.88334332567581
 31
0.0
  0
LINE
  5
10B2
  8
0
 10
479.78801624750201
 20
829.88334332567581
 30
0.0
 11
477.63801624750209
 21
829.88334332567581
 31
0.0
  0
LINE
  5
10B3
  8
0
 10
473.23028731750929
 20
847.88334332567604
 30
0.0
 11
467.34574517749508
 21
847.88334332567604
 31
0.0
  0
LINE
  5
10B4
  8
0
  6
BYBLOCK
 10
462.78801624750201
 20
832.8833433256757
 30
0.0
 11
477.78801624750201
 21
832.8833433256757
 31
0.0
  0
LINE
  5
10B5
  8
0
 10
462.78801624750201
 20
832.8833433256757
 30
0.0
 11
460.7880162475019
 21
832.8833433256757
 31
0.0
  0
ARC
  5
10B6
  8
0
 10
512.78801624750201
 20
832.8833433256757
 30
0.0
 40
49.999999999999993
 50
165.20750295859841
 51
179.99999999999989
  0
ARC
  5
10B7
  8
0
 10
467.34574517749508
 20
844.88334332567581
 30
0.0
 40
2.9999999999999991
 50
90.0
 51
165.20750295859861
  0
LINE
  5
10B8
  8
0
 10
486.78801624750241
 20
843.25019207538458
 30
0.0
 11
487.28801624750241
 21
842.75019207538469
 31
0.0
  0
LINE
  5
10B9
  8
0
 10
487.28801624750241
 20
842.75019207538469
 30
0.0
 11
483.88801624750238
 21
842.75019207538469
 31
0.0
  0
LINE
  5
10BA
  8
0
 10
483.88801624750238
 20
841.75019207538458
 30
0.0
 11
482.68801624750228
 21
841.75019207538458
 31
0.0
  0
LINE
  5
10BB
  8
0
 10
485.29514480316499
 20
842.75019207538469
 30
0.0
 11
485.29514480316499
 21
838.38218434065493
 31
0.0
  0
LINE
  5
10BC
  8
0
 10
484.92014480316499
 20
842.75019207538469
 30
0.0
 11
484.92014480316499
 21
839.47484279739206
 31
0.0
  0
LINE
  5
10BE
  8
0
 10
483.88801624750238
 20
843.25019207538458
 30
0.0
 11
483.88801624750238
 21
841.75019207538458
 31
0.0
  0
LINE
  5
10BF
  8
0
 10
486.78801624750241
 20
843.25019207538458
 30
0.0
 11
483.88801624750238
 21
843.25019207538458
 31
0.0
  0
LINE
  5
10C3
  8
0
 10
482.68801624750228
 20
843.25019207538458
 30
0.0
 11
479.78801624750241
 21
843.25019207538458
 31
0.0
  0
LINE
  5
10C4
  8
0
 10
482.68801624750228
 20
843.25019207538458
 30
0.0
 11
482.68801624750228
 21
841.75019207538458
 31
0.0
  0
LINE
  5
10C6
  8
0
 10
486.78801624750241
 20
833.2501920753848
 30
0.0
 11
479.78801624750241
 21
833.2501920753848
 31
0.0
  0
LINE
  5
10C7
  8
0
 10
486.04514480316499
 20
842.75019207538469
 30
0.0
 11
486.04514480316499
 21
836.66514923278089
 31
0.0
  0
LINE
  5
10C8
  8
0
 10
485.67014480316499
 20
842.75019207538469
 30
0.0
 11
485.67014480316499
 21
837.39358820393898
 31
0.0
  0
LINE
  5
10C9
  8
0
 10
486.42014480316499
 20
842.75019207538469
 30
0.0
 11
486.42014480316499
 21
836.24889858719109
 31
0.0
  0
LINE
  5
10CA
  8
0
 10
486.79514480316499
 20
842.75019207538469
 30
0.0
 11
486.79514480316499
 21
835.76844376962902
 31
0.0
  0
ARC
  5
10CB
  8
0
 10
427.78801624750201
 20
832.8833433256757
 30
0.0
 40
49.999999999999993
 50
0.0000000000000325
 51
14.79249704140153
  0
LINE
  5
10CC
  8
0
 10
479.28801624750241
 20
842.75019207538469
 30
0.0
 11
479.28801624750241
 21
833.75019207538469
 31
0.0
  0
ARC
  5
10CD
  8
0
 10
473.23028731750929
 20
844.88334332567581
 30
0.0
 40
2.9999999999999991
 50
14.79249704140161
 51
90.0
  0
LINE
  5
10CE
  8
0
 10
479.28801624750241
 20
833.75019207538469
 30
0.0
 11
479.78801624750241
 21
833.2501920753848
 31
0.0
  0
LINE
  5
10CF
  8
0
 10
479.78801624750201
 20
832.88334332567592
 30
0.0
 11
477.78801624750201
 21
832.88334332567592
 31
0.0
  0
LINE
  5
10D0
  8
0
 10
482.68801624750228
 20
842.75019207538469
 30
0.0
 11
479.28801624750241
 21
842.75019207538469
 31
0.0
  0
LINE
  5
10D1
  8
0
 10
479.78801624750241
 20
843.25019207538458
 30
0.0
 11
479.28801624750241
 21
842.75019207538469
 31
0.0
  0
LINE
  5
10D2
  8
0
 10
487.28801624750241
 20
833.75019207538469
 30
0.0
 11
486.78801624750241
 21
833.2501920753848
 31
0.0
  0
LINE
  5
10D3
  8
0
 10
487.28801624750241
 20
842.75019207538469
 30
0.0
 11
487.28801624750241
 21
833.75019207538469
 31
0.0
  0
LINE
  5
10D4
  8
0
 10
487.28801624750241
 20
833.75019207538469
 30
0.0
 11
479.28801624750241
 21
833.75019207538469
 31
0.0
  0
LINE
  5
10D5
  8
0
  6
BYBLOCK
 10
489.28801624750201
 20
819.88334332567581
 30
0.0
 11
506.78801623250212
 21
819.88334332567581
 31
0.0
  0
ARC
  5
10D6
  8
0
  6
BYBLOCK
 10
488.28801624750201
 20
812.58334332567597
 30
0.0
 40
1.0
 50
270.00000000000011
 51
0.0
  0
ARC
  5
10D7
  8
0
  6
BYBLOCK
 10
495.28801624750218
 20
822.88334332567604
 30
0.0
 40
5.0
 50
359.9999999999996
 51
90.0
  0
LINE
  5
10D8
  8
0
  6
BYBLOCK
 10
500.28801624750218
 20
822.88334332567581
 30
0.0
 11
500.28801624750218
 21
819.88334332567581
 31
0.0
  0
ARC
  5
10D9
  8
0
  6
BYBLOCK
 10
487.78801624750201
 20
828.38334332567592
 30
0.0
 40
1.5
 50
359.99999999999977
 51
90.0
  0
LINE
  5
10DA
  8
0
 10
489.28801624750201
 20
827.88334332567592
 30
0.0
 11
495.28801624750218
 21
827.88334332567592
 31
0.0
  0
LINE
  5
10DB
  8
0
 10
489.28801624750201
 20
828.38334332567592
 30
0.0
 11
489.28801624750201
 21
827.88334332567592
 31
0.0
  0
ARC
  5
10DC
  8
0
  6
BYBLOCK
 10
506.78801623250212
 20
818.88334332567592
 30
0.0
 40
1.0
 50
0.0
 51
89.999999999999915
  0
LINE
  5
10DD
  8
0
  6
BYBLOCK
 10
448.99577425221969
 20
899.51353289676194
 30
0.0
 11
460.28736397530758
 21
910.80512261984961
 31
0.0
  0
LINE
  5
10DE
  8
0
  6
BYBLOCK
 10
448.28866740348468
 20
900.22063961039999
 30
0.0
 11
459.58025726166949
 21
911.51222946858445
 31
0.0
  0
LINE
  5
10DF
  8
0
  6
BYBLOCK
 10
448.78801626250203
 20
942.75109721512115
 30
0.0
 11
491.78801626250208
 21
942.75109721512115
 31
0.0
  0
LINE
  5
10E0
  8
CENTER
  6
CENTER
 10
511.28801626250203
 20
921.51288168823066
 30
0.0
 11
429.2880162625018
 21
921.51288168823066
 31
0.0
  0
LINE
  5
10E1
  8
CENTER
  6
CENTER
 10
468.22809596683902
 20
905.51288168823066
 30
0.0
 11
442.28801626250208
 21
905.51288168823066
 31
0.0
  0
CIRCLE
  5
10E2
  8
0
 10
454.2880162625018
 20
949.01288168823055
 30
0.0
 40
2.5
  0
CIRCLE
  5
10E3
  8
0
 10
454.2880162625018
 20
949.01288168823055
 30
0.0
 40
3.0
  0
CIRCLE
  5
10E4
  8
0
 10
454.28801518383881
 20
905.51288168823066
 30
0.0
 40
8.0
  0
ARC
  5
10E5
  8
0
 10
454.2880162625018
 20
905.51288168823066
 30
0.0
 40
11.0
 50
74.508193014881385
 51
15.491806550047871
  0
LINE
  5
10E6
  8
0
 10
450.7880162625018
 20
932.51288168823078
 30
0.0
 11
470.28801626250203
 21
932.51288168823055
 31
0.0
  0
ARC
  5
10E7
  8
0
 10
470.28801626250203
 20
921.51288168823066
 30
0.0
 40
40.0
 50
200.36413480631771
 51
339.63586519368232
  0
ARC
  5
10E8
  8
0
 10
441.32653486568603
 20
904.51288168823066
 30
0.0
 40
2.0
 50
4.4117257857694741
 51
90.0
  0
LINE
  5
10E9
  8
0
 10
450.7880162625018
 20
934.51288168823055
 30
0.0
 11
450.7880162625018
 21
918.42605325837576
 31
0.0
  0
LINE
  5
10EA
  8
0
 10
432.78801626250203
 20
935.43229259530585
 30
0.0
 11
432.78801626250203
 21
907.5934707811557
 31
0.0
  0
LINE
  5
10EB
  8
0
 10
435.7880162625018
 20
920.01288168823055
 30
0.0
 11
441.7880162625018
 21
920.01288168823055
 31
0.0
  0
LINE
  5
10EC
  8
0
 10
435.7880162625018
 20
923.01288168823055
 30
0.0
 11
441.7880162625018
 21
923.01288168823055
 31
0.0
  0
LINE
  5
10ED
  8
0
 10
433.20702382702359
 20
906.51288168823066
 30
0.0
 11
441.32653486568603
 21
906.51288168823066
 31
0.0
  0
LINE
  5
10EE
  8
0
 10
435.7880162625018
 20
923.01288168823055
 30
0.0
 11
435.7880162625018
 21
920.01288168823055
 31
0.0
  0
LINE
  5
10EF
  8
0
 10
447.78801626250191
 20
921.51288168823066
 30
0.0
 11
441.7880162625018
 21
918.51288168823055
 31
0.0
  0
LINE
  5
10F0
  8
0
 10
441.7880162625018
 20
924.51288168823055
 30
0.0
 11
447.78801626250191
 21
921.51288168823066
 31
0.0
  0
LINE
  5
10F1
  8
0
 10
441.7880162625018
 20
920.01288168823055
 30
0.0
 11
441.7880162625018
 21
918.51288168823055
 31
0.0
  0
LINE
  5
10F2
  8
0
 10
441.7880162625018
 20
924.51288168823055
 30
0.0
 11
441.7880162625018
 21
923.01288168823055
 31
0.0
  0
ARC
  5
10F3
  8
0
 10
452.78801626250203
 20
918.42605325837576
 30
0.0
 40
2.0
 50
180.0
 51
276.62580956482321
  0
LINE
  5
10F4
  8
0
 10
433.20702382702359
 20
936.51288168823055
 30
0.0
 11
448.78801626250203
 21
936.51288168823055
 31
0.0
  0
ARC
  5
10F5
  8
0
  6
BYBLOCK
 10
448.78801626250203
 20
947.75109721512126
 30
0.0
 40
5.0
 50
179.99999999999989
 51
270.0
  0
LINE
  5
10F6
  8
CENTER
  6
CENTER
 10
452.28801626250203
 20
949.01288168823055
 30
0.0
 11
447.28801626250203
 21
949.01288168823055
 31
0.0
  0
ARC
  5
10F7
  8
0
 10
448.78801626250203
 20
934.51288168823055
 30
0.0
 40
2.0
 50
0.0
 51
90.0
  0
LINE
  5
10F8
  8
CENTER
  6
CENTER
 10
454.2880162625018
 20
891.17990895887885
 30
0.0
 11
454.2880162625018
 21
917.51288168823055
 31
0.0
  0
ARC
  5
10F9
  8
0
 10
470.28801626250203
 20
921.51288168823066
 30
0.0
 40
36.0
 50
256.00984254245429
 51
283.99015745754582
  0
ARC
  5
10FA
  8
0
 10
470.28801626250203
 20
921.51288168823066
 30
0.0
 40
37.0
 50
249.9999999999998
 51
290.0
  0
TEXT
  5
10FB
  8
0
 10
459.6954897498502
 20
888.37260692129917
 30
0.0
 40
3.0
  1
O
  7
ROMANS
  0
LINE
  5
10FC
  8
0
 10
461.01905542828359
 20
887.58854148553087
 30
0.0
 11
461.58482870249338
 21
886.58073995178233
 31
0.0
  0
LINE
  5
10FD
  8
0
 10
457.63327095945198
 20
886.7442547191522
 30
0.0
 11
461.01905542828359
 21
887.58854148553087
 31
0.0
  0
TEXT
  5
10FE
  8
0
 10
478.30129850623689
 20
887.88896239726046
 30
0.0
 40
3.0
  1
S
  7
ROMANS
  0
LINE
  5
10FF
  8
0
 10
479.55697709672
 20
887.58854148553087
 30
0.0
 11
478.99120382251073
 21
886.58073995178233
 31
0.0
  0
LINE
  5
1100
  8
0
 10
482.9427615655519
 20
886.7442547191522
 30
0.0
 11
479.55697709672
 21
887.58854148553087
 31
0.0
  0
LINE
  5
1101
  8
CENTER
  6
CENTER
 10
485.28801626250191
 20
934.51288168823055
 30
0.0
 11
490.2880162625018
 21
934.51288168823055
 31
0.0
  0
CIRCLE
  5
1102
  8
0
 10
486.28801626250203
 20
949.01288168823055
 30
0.0
 40
2.5
  0
CIRCLE
  5
1103
  8
0
 10
486.28801626250203
 20
949.01288168823055
 30
0.0
 40
3.0
  0
ARC
  5
1104
  8
0
 10
487.7880162625018
 20
927.89850341056922
 30
0.0
 40
2.0
 50
0.0
 51
124.22886632781309
  0
ARC
  5
1105
  8
0
 10
483.2880162625018
 20
934.51288168823055
 30
0.0
 40
6.0
 50
262.61822134794141
 51
187.38177865205861
  0
ARC
  5
1106
  8
0
 10
483.2880162625018
 20
934.51288168823055
 30
0.0
 40
7.0
 50
26.38780827595992
 51
184.0652250891913
  0
LINE
  5
1107
  8
0
 10
470.28801626250203
 20
910.51288168823055
 30
0.0
 11
489.78801626250203
 21
910.51288168823055
 31
0.0
  0
LINE
  5
1108
  8
CENTER
  6
CENTER
 10
483.2880162625018
 20
932.51288168823055
 30
0.0
 11
483.2880162625018
 21
927.51288168823055
 31
0.0
  0
ARC
  5
1109
  8
0
 10
470.28801626250203
 20
921.51288168823066
 30
0.0
 40
11.0
 50
67.063191976693744
 51
195.49180655004801
  0
CIRCLE
  5
110A
  8
0
 10
470.28801626250203
 20
921.51288168823066
 30
0.0
 40
7.5
  0
CIRCLE
  5
110B
  8
0
 10
470.28801626250203
 20
921.51288168823066
 30
0.0
 40
8.0
  0
ARC
  5
110C
  8
0
 10
470.28801626250203
 20
921.51288168823066
 30
0.0
 40
11.0
 50
254.50819388502271
 51
22.936808023306249
  0
ARC
  5
110D
  8
0
 10
466.81570883157048
 20
908.98518911916187
 30
0.0
 40
2.0
 50
74.508193449952003
 51
195.49180655004781
  0
ARC
  5
110E
  8
0
 10
457.76032369343341
 20
918.04057425729934
 30
0.0
 40
2.0
 50
254.50819344995199
 51
15.49180655004778
  0
ARC
  5
110F
  8
0
 10
482.2601743551196
 20
926.57918513407446
 30
0.0
 40
2.0
 50
82.618220070496236
 51
202.93680745378069
  0
LINE
  5
1110
  8
CENTER
  6
CENTER
 10
454.2880162625018
 20
947.01288168823055
 30
0.0
 11
454.2880162625018
 21
942.01288168823066
 31
0.0
  0
LINE
  5
1111
  8
CENTER
  6
CENTER
 10
456.28801626250203
 20
949.01288168823055
 30
0.0
 11
461.28801626250203
 21
949.01288168823055
 31
0.0
  0
LINE
  5
1112
  8
CENTER
  6
CENTER
 10
454.2880162625018
 20
948.01288168823055
 30
0.0
 11
454.2880162625018
 21
950.01288168823066
 31
0.0
  0
LINE
  5
1113
  8
CENTER
  6
CENTER
 10
453.2880162625018
 20
949.01288168823055
 30
0.0
 11
455.28801626250208
 21
949.01288168823055
 31
0.0
  0
ARC
  5
1114
  8
0
 10
483.2880162625018
 20
934.51288168823055
 30
0.0
 40
2.4189539937781879
 50
236.92908705243121
 51
33.070912947569518
  0
LINE
  5
1115
  8
0
  6
BYBLOCK
 10
480.84281280557332
 20
932.77478501248856
 30
0.0
 11
485.02611293824373
 21
936.95808514515909
 31
0.0
  0
LINE
  5
1116
  8
0
  6
BYBLOCK
 10
481.54991958675998
 20
932.06767823130224
 30
0.0
 11
485.73321971943028
 21
936.25097836397242
 31
0.0
  0
ARC
  5
1117
  8
0
 10
483.2880162625018
 20
934.51288168823055
 30
0.0
 40
2.4189539937781879
 50
56.929087052436458
 51
213.0709129475637
  0
CIRCLE
  5
1118
  8
0
 10
483.2880162625018
 20
934.51288168823055
 30
0.0
 40
3.0
  0
LINE
  5
1119
  8
CENTER
  6
CENTER
 10
483.2880162625018
 20
936.51288168823055
 30
0.0
 11
483.2880162625018
 21
941.51288168823055
 31
0.0
  0
LINE
  5
111A
  8
CENTER
  6
CENTER
 10
481.28801626250203
 20
934.51288168823055
 30
0.0
 11
476.28801626250208
 21
934.51288168823055
 31
0.0
  0
LINE
  5
111B
  8
CENTER
  6
CENTER
 10
483.2880162625018
 20
933.51288168823055
 30
0.0
 11
483.2880162625018
 21
935.51288168823055
 31
0.0
  0
LINE
  5
111C
  8
CENTER
  6
CENTER
 10
482.28801626250203
 20
934.51288168823055
 30
0.0
 11
484.2880162625018
 21
934.51288168823055
 31
0.0
  0
LINE
  5
111D
  8
CENTER
  6
CENTER
 10
486.28801626250203
 20
947.01288168823055
 30
0.0
 11
486.28801626250203
 21
942.01288168823066
 31
0.0
  0
LINE
  5
111E
  8
CENTER
  6
CENTER
 10
484.2880162625018
 20
949.01288168823055
 30
0.0
 11
479.2880162625018
 21
949.01288168823055
 31
0.0
  0
LINE
  5
111F
  8
CENTER
  6
CENTER
 10
486.28801626250203
 20
948.01288168823055
 30
0.0
 11
486.28801626250203
 21
950.01288168823066
 31
0.0
  0
LINE
  5
1120
  8
CENTER
  6
CENTER
 10
485.28801626250191
 20
949.01288168823055
 30
0.0
 11
487.28801626250208
 21
949.01288168823055
 31
0.0
  0
ARC
  5
1121
  8
0
 10
475.354319708346
 20
933.48503978084841
 30
0.0
 40
2.0
 50
247.06319254621931
 51
7.38177992950295
  0
ARC
  5
1122
  8
0
 10
474.31066033833451
 20
933.87485299701336
 30
0.0
 40
2.0
 50
251.97486635635511
 51
4.0652267554684061
  0
LINE
  5
1123
  8
0
 10
507.7880162625018
 20
935.4322925953054
 30
0.0
 11
507.7880162625018
 21
907.5934707811557
 31
0.0
  0
LINE
  5
1124
  8
0
 10
491.7880162625018
 20
906.51288168823066
 30
0.0
 11
507.36900869798029
 21
906.51288168823066
 31
0.0
  0
ARC
  5
1125
  8
0
 10
491.7880162625018
 20
908.51288168823055
 30
0.0
 40
2.0
 50
180.0
 51
270.0
  0
LINE
  5
1126
  8
0
 10
489.78801626250203
 20
927.89850341056922
 30
0.0
 11
489.78801626250203
 21
908.51288168823055
 31
0.0
  0
LINE
  5
1127
  8
0
 10
491.35027401079998
 20
936.51288168823055
 30
0.0
 11
507.36900869798029
 21
936.51288168823055
 31
0.0
  0
ARC
  5
1128
  8
0
  6
BYBLOCK
 10
491.78801626250208
 20
947.75109721512126
 30
0.0
 40
5.0
 50
270.0
 51
359.99999999999989
  0
LINE
  5
1129
  8
CENTER
  6
CENTER
 10
488.2880162625018
 20
949.01288168823055
 30
0.0
 11
493.2880162625018
 21
949.01288168823055
 31
0.0
  0
ARC
  5
112A
  8
0
 10
491.35027401079998
 20
938.51288168823066
 30
0.0
 40
2.0
 50
206.38779996124481
 51
270.0
  0
TEXT
  5
112B
  8
DIM
  6
BYBLOCK
 10
537.03381079716655
 20
871.71211860925575
 30
0.0
 40
3.0
  1
2-PT1/2
  7
CHINESET
  0
TEXT
  5
16D5
  8
DIM
  6
BYBLOCK
 10
536.462382225738
 20
866.1406900378272
 30
0.0
 40
3.0
  1
2-PT3/8
  7
CHINESET
1001
ACAD
1000
R13OBJECT
1002
{
1005
112B
1002
}
  0
TEXT
  5
16D6
  8
DIM
  6
BYBLOCK
 10
536.89095365430944
 20
860.56926146639864
 30
0.0
 40
3.0
  1
2-PT1/4
  7
CHINESET
1001
ACAD
1000
R13OBJECT
1002
{
1005
112B
1002
}
  0
SOLID
  5
112C
  8
DIM
  6
CONTINUOUS
 10
-592.89413803712262
 20
814.18973321775309
 30
0.0
 11
-594.23825690098795
 21
811.46148387434596
 31
0.0
 12
-592.08195548595643
 22
813.60632983793687
 32
0.0
 13
-592.08195548595643
 23
813.60632983793687
 33
0.0
210
0.0
220
0.0
230
-1.0
  0
POLYLINE
  5
16D7
  8
DIM
  6
BYBLOCK
 66
     1
 10
0.0
 20
0.0
 30
0.0
 70
   128
1001
ACAD
1000
R13OBJECT
1002
{
1005
112C
1002
}
  0
VERTEX
  5
185F
  8
DIM
  6
BYBLOCK
 10
592.48804676153964
 20
813.89803152784498
 30
0.0
  0
VERTEX
  5
1860
  8
DIM
  6
BYBLOCK
 10
560.60523936859511
 20
858.28354718068431
 30
0.0
  0
VERTEX
  5
1861
  8
DIM
  6
BYBLOCK
 10
536.462382225738
 20
858.28354718068431
 30
0.0
  0
SEQEND
  5
1862
  8
DIM
  6
BYBLOCK
  0
LINE
  5
112D
  8
CENTER
  6
CENTER
 10
584.29040234377578
 20
804.88334332567581
 30
0.0
 11
605.47744572804345
 21
804.88334332567581
 31
0.0
  0
LINE
  5
112E
  8
0
  6
BYBLOCK
 10
588.01028949567342
 20
832.8833433256757
 30
0.0
 11
603.01028949567331
 21
832.8833433256757
 31
0.0
  0
LINE
  5
112F
  8
0
 10
635.51028949567342
 20
787.38334332567592
 30
0.0
 11
555.51028949567342
 21
787.38334332567592
 31
0.0
  0
LINE
  5
1130
  8
0
  6
BYBLOCK
 10
602.86028949567333
 20
829.88334332567581
 30
0.0
 11
588.16028949567351
 21
829.88334332567581
 31
0.0
  0
ARC
  5
1131
  8
0
 10
592.56801842566631
 20
844.88334332567581
 30
0.0
 40
2.9999999999999991
 50
90.0
 51
165.20750295859861
  0
LINE
  5
1132
  8
0
 10
614.01028949567365
 20
829.88334332567581
 30
0.0
 11
569.01028949567365
 21
829.88334332567581
 31
0.0
  0
ARC
  5
1133
  8
0
 10
595.51028949567342
 20
789.88334332567592
 30
0.0
 40
30.0
 50
61.726286368634973
 51
118.273713631365
  0
LINE
  5
1134
  8
0
 10
635.51028949567342
 20
789.88334332567592
 30
0.0
 11
555.51028949567342
 21
789.88334332567592
 31
0.0
  0
LINE
  5
1135
  8
0
 10
633.01028948067346
 20
789.88334332567592
 30
0.0
 11
558.01028951067315
 21
789.88334332567581
 31
0.0
  0
LINE
  5
1136
  8
0
 10
635.42071377883428
 20
774.08377059028658
 30
0.0
 11
555.61707984101338
 21
774.08377059028646
 31
0.0
  0
CIRCLE
  5
1137
  8
0
 10
595.51028949567342
 20
804.88334332567581
 30
0.0
 40
5.7000000000000011
  0
ARC
  5
1138
  8
0
 10
595.51028949567342
 20
804.88334332567581
 30
0.0
 40
6.7000000000000002
 50
0.0
 51
270.0
  0
LINE
  5
1139
  8
0
 10
568.51028949567365
 20
829.38334332567592
 30
0.0
 11
568.51028949567365
 21
795.88334332567592
 31
0.0
  0
LINE
  5
113A
  8
0
 10
580.51028949567342
 20
814.98314412169805
 30
0.0
 11
580.51028949567342
 21
796.88334332567592
 31
0.0
  0
LINE
  5
113B
  8
0
 10
579.51028949567342
 20
795.88334332567592
 30
0.0
 11
556.51028949567342
 21
795.88334332567592
 31
0.0
  0
LINE
  5
113C
  8
0
 10
555.84664029052863
 20
773.78536707887588
 30
0.0
 11
563.26226771715153
 21
769.42432348138129
 31
0.0
  0
LINE
  5
113D
  8
0
  6
BYBLOCK
 10
555.51028949567342
 20
787.38334332567592
 30
0.0
 11
555.51028949567342
 21
774.53341101642945
 31
0.0
  0
ARC
  5
113E
  8
0
 10
556.51028949567342
 20
774.53341101642945
 30
0.0
 40
1.0
 50
180.0
 51
228.4212206377205
  0
LINE
  5
113F
  8
0
 10
555.51028949567342
 20
794.88334332567592
 30
0.0
 11
555.51028949567342
 21
789.88334332567592
 31
0.0
  0
ARC
  5
1140
  8
0
 10
556.51028949567342
 20
794.88334332567592
 30
0.0
 40
1.0
 50
90.0
 51
180.0
  0
LINE
  5
1141
  8
0
 10
584.51028949567342
 20
775.08377059028669
 30
0.0
 11
584.51028949567342
 21
787.3833433256757
 31
0.0
  0
LINE
  5
1142
  8
0
 10
574.01028949567331
 20
782.3833433256757
 30
0.0
 11
570.01028949567342
 21
782.38334332567581
 31
0.0
  0
ARC
  5
1143
  8
0
 10
558.51028949567342
 20
775.08377059028669
 30
0.0
 40
1.0
 50
270.0
 51
0.000000000000007
  0
LINE
  5
1144
  8
0
 10
559.51028949567342
 20
775.08377059028669
 30
0.0
 11
559.51028949567342
 21
781.88334332567581
 31
0.0
  0
ARC
  5
1145
  8
0
 10
560.01028949567342
 20
781.88334332567581
 30
0.0
 40
0.5
 50
90.0
 51
179.9999999999998
  0
LINE
  5
1146
  8
0
 10
564.01028949567342
 20
782.38334332567581
 30
0.0
 11
560.01028949567342
 21
782.38334332567581
 31
0.0
  0
LINE
  5
1147
  8
0
 10
569.51028949567331
 20
775.08377059028669
 30
0.0
 11
569.51028949567331
 21
781.88334332567581
 31
0.0
  0
LINE
  5
1148
  8
0
 10
564.51028949567342
 20
775.08377059028669
 30
0.0
 11
564.51028949567342
 21
781.88334332567581
 31
0.0
  0
ARC
  5
1149
  8
0
 10
568.51028949567342
 20
775.08377059028669
 30
0.0
 40
1.0
 50
270.0
 51
0.000000000000007
  0
ARC
  5
114A
  8
0
 10
565.51028949567331
 20
775.08377059028669
 30
0.0
 40
1.0
 50
180.0
 51
270.0
  0
ARC
  5
114B
  8
0
 10
562.26679390943434
 20
768.30225757505127
 30
0.0
 40
1.5
 50
0.5537496115756162
 51
48.421220637720658
  0
ARC
  5
114C
  8
0
 10
564.01028949567342
 20
781.88334332567581
 30
0.0
 40
0.5
 50
0.000000000000007
 51
90.0
  0
ARC
  5
114D
  8
0
 10
570.01028949567342
 20
781.88334332567581
 30
0.0
 40
0.5
 50
89.999999999999275
 51
180.0000000000002
  0
LINE
  5
114E
  8
0
 10
584.01028949567342
 20
782.38334332567581
 30
0.0
 11
580.01028949567342
 21
782.38334332567581
 31
0.0
  0
LINE
  5
114F
  8
0
 10
578.51028949567342
 20
774.08377059028658
 30
0.0
 11
575.51028949567342
 21
774.08377059028658
 31
0.0
  0
LINE
  5
1150
  8
0
 10
579.51028949567342
 20
775.08377059028669
 30
0.0
 11
579.51028949567342
 21
781.88334332567581
 31
0.0
  0
ARC
  5
1151
  8
0
 10
578.51028949567342
 20
775.08377059028669
 30
0.0
 40
1.0
 50
270.0
 51
0.000000000000007
  0
ARC
  5
1152
  8
0
 10
585.51028949567342
 20
775.08377059028669
 30
0.0
 40
1.0
 50
179.9999999999996
 51
270.0
  0
LINE
  5
1153
  8
0
 10
574.51028949567342
 20
775.08377059028669
 30
0.0
 11
574.51028949567342
 21
781.8833433256757
 31
0.0
  0
ARC
  5
1154
  8
0
 10
575.51028949567342
 20
775.08377059028669
 30
0.0
 40
1.0
 50
180.0
 51
270.0
  0
ARC
  5
1155
  8
0
 10
580.01028949567342
 20
781.88334332567581
 30
0.0
 40
0.5
 50
90.0
 51
179.9999999999998
  0
ARC
  5
1156
  8
0
 10
584.01028949567342
 20
781.88334332567581
 30
0.0
 40
0.5
 50
359.99999999999972
 51
90.000000000000057
  0
ARC
  5
1157
  8
0
 10
574.01028949567331
 20
781.8833433256757
 30
0.0
 40
0.5
 50
0.000000000000007
 51
89.999999999999673
  0
LINE
  5
1158
  8
0
  6
BYBLOCK
 10
558.01028949567342
 20
789.88334332567592
 30
0.0
 11
558.01028949567342
 21
787.38334332567592
 31
0.0
  0
ARC
  5
1159
  8
0
 10
579.51028949567342
 20
796.88334332567592
 30
0.0
 40
1.0
 50
270.0
 51
0.000000000000007
  0
LINE
  5
115A
  8
0
 10
586.01028949567331
 20
832.8833433256757
 30
0.0
 11
586.01028949567331
 21
829.88334332567581
 31
0.0
  0
LINE
  5
115B
  8
0
  6
BYBLOCK
 10
579.66663204644522
 20
834.11076044968956
 30
0.0
 11
579.66663204644522
 21
831.61076044968968
 31
0.0
  0
LINE
  5
115C
  8
CENTER
  6
CENTER
 10
579.66663204644522
 20
836.48715839061265
 30
0.0
 11
579.66663204644522
 21
818.75079241520541
 31
0.0
  0
LINE
  5
115D
  8
0
 10
589.66663204644522
 20
829.88334332567581
 30
0.0
 11
569.6666320464451
 21
829.88334332567581
 31
0.0
  0
LINE
  5
115E
  8
0
 10
586.01028949567331
 20
832.38334332567581
 30
0.0
 11
570.16663204644522
 21
832.38334332567581
 31
0.0
  0
LINE
  5
115F
  8
0
  6
BYBLOCK
 10
569.6666320464451
 20
831.88334332567592
 30
0.0
 11
569.6666320464451
 21
829.88334332567581
 31
0.0
  0
LINE
  5
1160
  8
0
  6
BYBLOCK
 10
570.66663204644522
 20
832.38334332567581
 30
0.0
 11
570.66663204644522
 21
829.88334332567581
 31
0.0
  0
LINE
  5
1161
  8
0
  6
BYBLOCK
 10
571.66663204644522
 20
832.38334332567581
 30
0.0
 11
571.66663204644522
 21
829.88334332567581
 31
0.0
  0
ARC
  5
1162
  8
0
 10
569.01028949567365
 20
829.38334332567592
 30
0.0
 40
0.5
 50
90.0
 51
180.0
  0
LINE
  5
1163
  8
0
 10
569.6666320464451
 20
831.88334332567592
 30
0.0
 11
570.16663204644522
 21
832.38334332567581
 31
0.0
  0
LINE
  5
1164
  8
0
  6
BYBLOCK
 10
572.66663204644522
 20
832.38334332567581
 30
0.0
 11
572.66663204644522
 21
829.88334332567581
 31
0.0
  0
LINE
  5
1165
  8
0
  6
BYBLOCK
 10
573.6666320464451
 20
832.38334332567581
 30
0.0
 11
573.6666320464451
 21
829.88334332567581
 31
0.0
  0
ARC
  5
1166
  8
0
  6
BYBLOCK
 10
586.36024804927513
 20
828.88334332567581
 30
0.0
 40
1.0
 50
90.0
 51
180.0
  0
LINE
  5
1167
  8
0
  6
BYBLOCK
 10
585.36024804927513
 20
828.88334332567581
 30
0.0
 11
585.36024804927513
 21
818.11411835287618
 31
0.0
  0
LINE
  5
1168
  8
0
  6
BYBLOCK
 10
581.6666320464451
 20
832.38334332567581
 30
0.0
 11
581.6666320464451
 21
829.88334332567581
 31
0.0
  0
LINE
  5
1169
  8
0
  6
BYBLOCK
 10
582.66663204644522
 20
832.38334332567581
 30
0.0
 11
582.66663204644522
 21
829.88334332567581
 31
0.0
  0
LINE
  5
116A
  8
0
  6
BYBLOCK
 10
583.66663204644522
 20
832.38334332567581
 30
0.0
 11
583.66663204644522
 21
829.88334332567581
 31
0.0
  0
LINE
  5
116B
  8
0
  6
BYBLOCK
 10
584.66663204644522
 20
832.38334332567581
 30
0.0
 11
584.66663204644522
 21
829.88334332567581
 31
0.0
  0
LINE
  5
116C
  8
0
  6
BYBLOCK
 10
577.6666320464451
 20
832.38334332567581
 30
0.0
 11
577.6666320464451
 21
829.88334332567581
 31
0.0
  0
LINE
  5
116D
  8
0
  6
BYBLOCK
 10
578.66663204644522
 20
832.38334332567581
 30
0.0
 11
578.66663204644522
 21
829.88334332567581
 31
0.0
  0
LINE
  5
116E
  8
0
  6
BYBLOCK
 10
580.66663204644522
 20
832.38334332567581
 30
0.0
 11
580.66663204644522
 21
829.88334332567581
 31
0.0
  0
LINE
  5
116F
  8
0
  6
BYBLOCK
 10
585.66663204644522
 20
832.38334332567581
 30
0.0
 11
585.66663204644522
 21
829.88334332567581
 31
0.0
  0
LINE
  5
1170
  8
0
 10
588.16028949567351
 20
829.88334332567581
 30
0.0
 11
586.01028949567331
 21
829.88334332567581
 31
0.0
  0
LINE
  5
1171
  8
0
  6
BYBLOCK
 10
574.66663204644522
 20
832.38334332567581
 30
0.0
 11
574.66663204644522
 21
829.88334332567581
 31
0.0
  0
LINE
  5
1172
  8
0
  6
BYBLOCK
 10
575.66663204644522
 20
832.38334332567581
 30
0.0
 11
575.66663204644522
 21
829.88334332567581
 31
0.0
  0
LINE
  5
1173
  8
0
  6
BYBLOCK
 10
576.66663204644522
 20
832.38334332567581
 30
0.0
 11
576.66663204644522
 21
829.88334332567581
 31
0.0
  0
ARC
  5
1174
  8
0
 10
582.01028949567331
 20
814.98314412169805
 30
0.0
 40
1.5
 50
118.273713631365
 51
180.0
  0
LINE
  5
1175
  8
0
 10
588.01028949567342
 20
832.8833433256757
 30
0.0
 11
586.01028949567331
 21
832.8833433256757
 31
0.0
  0
ARC
  5
1176
  8
0
 10
638.01028949567342
 20
832.8833433256757
 30
0.0
 40
49.999999999999993
 50
165.20750295859841
 51
179.99999999999989
  0
ARC
  5
1177
  8
0
  6
BYBLOCK
 10
623.01028949567342
 20
803.78334332567567
 30
0.0
 40
6.1000000000001391
 50
10.388857815470811
 51
169.61114218452909
  0
LINE
  5
1178
  8
0
 10
644.01028949567342
 20
827.88334332567592
 30
0.0
 11
644.01028949567342
 21
804.88334332567581
 31
0.0
  0
LINE
  5
1179
  8
0
 10
647.01028949567342
 20
827.88334332567592
 30
0.0
 11
647.01028949567342
 21
801.88334332567592
 31
0.0
  0
LINE
  5
117A
  8
CENTER
  6
CENTER
 10
623.01028949567342
 20
811.88334332567581
 30
0.0
 11
623.01028949567342
 21
792.36349074190389
 31
0.0
  0
LINE
  5
117B
  8
0
 10
614.51028949567342
 20
829.38334332567592
 30
0.0
 11
614.51028949567342
 21
799.88334332567592
 31
0.0
  0
LINE
  5
117C
  8
0
 10
610.51028949567342
 20
814.98314412169805
 30
0.0
 11
610.51028949567342
 21
796.88334332567592
 31
0.0
  0
LINE
  5
117D
  8
0
  6
BYBLOCK
 10
616.70255286897589
 20
801.8833433256757
 30
0.0
 11
647.01028949567342
 21
801.88334332567592
 31
0.0
  0
LINE
  5
117E
  8
0
  6
BYBLOCK
 10
616.70255286897589
 20
804.88334332567581
 30
0.0
 11
644.01028949567342
 21
804.88334332567581
 31
0.0
  0
LINE
  5
117F
  8
0
 10
628.01028949567331
 20
801.88334332567592
 30
0.0
 11
618.01028949567342
 21
801.88334332567592
 31
0.0
  0
LINE
  5
1180
  8
0
 10
634.51028949567342
 20
795.88334332567592
 30
0.0
 11
611.51028949567342
 21
795.88334332567592
 31
0.0
  0
ARC
  5
1181
  8
0
 10
625.51028949567342
 20
775.08377059028646
 30
0.0
 40
1.0
 50
270.0
 51
0.000000000000007
  0
LINE
  5
1182
  8
0
 10
606.51028949567342
 20
775.08377059028646
 30
0.0
 11
606.51028949567342
 21
787.3833433256757
 31
0.0
  0
LINE
  5
1183
  8
0
 10
611.01028949567331
 20
782.38334332567581
 30
0.0
 11
607.01028949567331
 21
782.38334332567581
 31
0.0
  0
LINE
  5
1184
  8
0
 10
606.51028949567342
 20
775.08377059028646
 30
0.0
 11
606.51028949567342
 21
781.88334332567581
 31
0.0
  0
ARC
  5
1185
  8
0
 10
605.51028949567342
 20
775.08377059028646
 30
0.0
 40
1.0
 50
270.0
 51
0.000000000000007
  0
ARC
  5
1186
  8
0
 10
607.01028949567331
 20
781.88334332567581
 30
0.0
 40
0.5
 50
90.0
 51
179.9999999999998
  0
LINE
  5
1187
  8
0
 10
621.01028949567342
 20
782.3833433256757
 30
0.0
 11
617.01028949567342
 21
782.38334332567581
 31
0.0
  0
ARC
  5
1188
  8
0
 10
612.51028949567342
 20
775.08377059028646
 30
0.0
 40
1.0
 50
180.0
 51
270.0
  0
LINE
  5
1189
  8
0
 10
616.51028949567342
 20
775.08377059028646
 30
0.0
 11
616.51028949567342
 21
781.88334332567581
 31
0.0
  0
ARC
  5
118A
  8
0
 10
615.51028949567331
 20
775.08377059028646
 30
0.0
 40
1.0
 50
270.0
 51
0.000000000000007
  0
LINE
  5
118B
  8
0
 10
611.51028949567342
 20
775.08377059028646
 30
0.0
 11
611.51028949567342
 21
781.88334332567581
 31
0.0
  0
LINE
  5
118C
  8
0
 10
621.51028949567342
 20
775.08377059028646
 30
0.0
 11
621.51028949567342
 21
781.8833433256757
 31
0.0
  0
ARC
  5
118D
  8
0
 10
622.51028949567342
 20
775.08377059028646
 30
0.0
 40
1.0
 50
180.0
 51
270.0
  0
ARC
  5
118E
  8
0
 10
617.01028949567342
 20
781.88334332567581
 30
0.0
 40
0.5
 50
89.999999999999275
 51
180.0000000000002
  0
ARC
  5
118F
  8
0
 10
621.01028949567342
 20
781.8833433256757
 30
0.0
 40
0.5
 50
0.000000000000007
 51
89.999999999999673
  0
ARC
  5
1190
  8
0
 10
611.01028949567331
 20
781.88334332567581
 30
0.0
 40
0.5
 50
0.000000000000007
 51
90.0
  0
LINE
  5
1191
  8
0
  6
BYBLOCK
 10
616.70255286897589
 20
804.88334332567581
 30
0.0
 11
616.70255286897589
 21
801.8833433256757
 31
0.0
  0
LINE
  5
1192
  8
0
 10
615.51028949567331
 20
798.88334332567581
 30
0.0
 11
615.51028949567331
 21
795.88334332567592
 31
0.0
  0
LINE
  5
1193
  8
0
 10
617.01028949567342
 20
800.88334332567592
 30
0.0
 11
617.01028949567342
 21
795.88334332567592
 31
0.0
  0
LINE
  5
1194
  8
0
 10
614.51028949567342
 20
799.88334332567592
 30
0.0
 11
610.51028949567342
 21
799.88334332567592
 31
0.0
  0
ARC
  5
1195
  8
0
 10
614.51028949567342
 20
798.88334332567581
 30
0.0
 40
1.0
 50
0.0000000000000579
 51
90.0
  0
ARC
  5
1196
  8
0
 10
618.01028949567342
 20
800.88334332567592
 30
0.0
 40
1.0
 50
90.0
 51
180.0
  0
ARC
  5
1197
  8
0
 10
611.51028949567342
 20
796.88334332567592
 30
0.0
 40
1.0
 50
180.0
 51
270.0
  0
LINE
  5
119A
  8
0
  6
BYBLOCK
 10
635.51028949567342
 20
787.38334332567592
 30
0.0
 11
635.51028949567342
 21
774.49744633846547
 31
0.0
  0
LINE
  5
119B
  8
0
 10
631.01028949567342
 20
782.38334332567581
 30
0.0
 11
627.01028949567342
 21
782.38334332567581
 31
0.0
  0
LINE
  5
119C
  8
0
 10
631.51028949567342
 20
775.08377059028646
 30
0.0
 11
631.51028949567342
 21
781.88334332567581
 31
0.0
  0
ARC
  5
119D
  8
0
 10
632.51028949567342
 20
775.08377059028646
 30
0.0
 40
1.0
 50
179.9999999999996
 51
270.0
  0
ARC
  5
119E
  8
0
 10
634.51028949567342
 20
774.49744633846547
 30
0.0
 40
1.0
 50
315.05261361431661
 51
0.000000000000007
  0
LINE
  5
119F
  8
0
 10
626.51028949567342
 20
775.08377059028646
 30
0.0
 11
626.51028949567342
 21
781.88334332567581
 31
0.0
  0
ARC
  5
11A0
  8
0
 10
628.74786994352041
 20
767.69024466229325
 30
0.0
 40
1.5
 50
135.05261361431661
 51
179.4462503884244
  0
LINE
  5
11A1
  8
0
 10
635.21804530121995
 20
773.79098917789929
 30
0.0
 11
627.68623623520023
 21
768.74993040314234
 31
0.0
  0
ARC
  5
11A2
  8
0
 10
631.01028949567342
 20
781.88334332567581
 30
0.0
 40
0.5
 50
359.99999999999972
 51
89.999999999999659
  0
ARC
  5
11A3
  8
0
 10
627.01028949567342
 20
781.88334332567581
 30
0.0
 40
0.5
 50
90.0
 51
179.9999999999998
  0
LINE
  5
11A4
  8
0
  6
BYBLOCK
 10
633.01028949567342
 20
789.88334332567592
 30
0.0
 11
633.01028949567342
 21
787.38334332567592
 31
0.0
  0
LINE
  5
11A5
  8
0
 10
629.01028949567365
 20
800.88334332567592
 30
0.0
 11
629.01028949567365
 21
795.88334332567592
 31
0.0
  0
ARC
  5
11A6
  8
0
 10
628.01028949567331
 20
800.88334332567592
 30
0.0
 40
1.0
 50
0.000000000000007
 51
90.0
  0
LINE
  5
11A7
  8
0
 10
635.51028949567342
 20
794.88334332567592
 30
0.0
 11
635.51028949567342
 21
789.88334332567592
 31
0.0
  0
ARC
  5
11A8
  8
0
 10
634.51028949567342
 20
794.88334332567592
 30
0.0
 40
1.0
 50
0.000000000000007
 51
90.0
  0
LINE
  5
11AB
  8
0
 10
605.01028949567342
 20
832.88334332567592
 30
0.0
 11
605.01028949567342
 21
829.88334332567581
 31
0.0
  0
LINE
  5
11AC
  8
0
  6
BYBLOCK
 62
     0
 10
605.56028949567349
 20
830.55000999234255
 30
0.0
 11
605.56028949567349
 21
833.2501920753848
 31
0.0
  0
LINE
  5
11AD
  8
0
 10
611.46028949567358
 20
833.2501920753848
 30
0.0
 11
611.46028949567358
 21
829.88334332567581
 31
0.0
  0
LINE
  5
11AE
  8
0
 10
605.56028949567349
 20
833.2501920753848
 30
0.0
 11
605.56028949567349
 21
829.88334332567581
 31
0.0
  0
LINE
  5
11AF
  8
CENTER
  6
CENTER
 10
608.51028949567365
 20
844.29845844904548
 30
0.0
 11
608.51028949567365
 21
816.92035499486735
 31
0.0
  0
LINE
  5
11B0
  8
0
 10
611.46028949567358
 20
829.88334332567581
 30
0.0
 11
605.56028949567349
 21
829.88334332567581
 31
0.0
  0
ARC
  5
11B1
  8
0
  6
BYBLOCK
 10
603.17679430648593
 20
828.93475242084276
 30
0.0
 40
1.0
 50
108.4516817731766
 51
180.0
  0
LINE
  5
11B2
  8
0
  6
BYBLOCK
 10
602.17679430648593
 20
828.93475242084276
 30
0.0
 11
602.17679430648593
 21
819.13326150688476
 31
0.0
  0
LINE
  5
11B5
  8
0
 10
605.01028949567342
 20
829.88334332567581
 30
0.0
 11
602.86028949567333
 21
829.88334332567581
 31
0.0
  0
ARC
  5
11B6
  8
0
 10
614.01028949567365
 20
829.38334332567592
 30
0.0
 40
0.5
 50
0.000000000000007
 51
90.0
  0
LINE
  5
11B7
  8
0
  6
BYBLOCK
 62
     0
 10
611.46028949567358
 20
829.88334332567581
 30
0.0
 11
611.46028949567358
 21
831.25019207538469
 31
0.0
  0
ARC
  5
11B9
  8
0
 10
609.01028949567365
 20
814.98314412169805
 30
0.0
 40
1.5
 50
0.000000000000007
 51
61.726286368634909
  0
LINE
  5
11BA
  8
0
 10
609.11028949567378
 20
841.75019207538458
 30
0.0
 11
607.91028949567351
 21
841.75019207538458
 31
0.0
  0
LINE
  5
11BB
  8
0
 10
612.51028949567365
 20
833.75019207538469
 30
0.0
 11
604.51028949567365
 21
833.75019207538469
 31
0.0
  0
LINE
  5
11BC
  8
0
 10
612.01028949567365
 20
833.2501920753848
 30
0.0
 11
605.01028949567365
 21
833.2501920753848
 31
0.0
  0
LINE
  5
11BD
  8
0
 10
598.45256056568053
 20
847.88334332567604
 30
0.0
 11
592.56801842566631
 21
847.88334332567604
 31
0.0
  0
ARC
  5
11BE
  8
0
 10
553.01028949567331
 20
832.8833433256757
 30
0.0
 40
49.999999999999993
 50
0.0000000000000325
 51
14.79249704140153
  0
ARC
  5
11BF
  8
0
 10
598.45256056568053
 20
844.88334332567581
 30
0.0
 40
2.9999999999999991
 50
14.79249704140161
 51
90.0
  0
LINE
  5
11C3
  8
0
 10
607.91028949567351
 20
842.75019207538469
 30
0.0
 11
604.51028949567365
 21
842.75019207538469
 31
0.0
  0
LINE
  5
11C4
  8
0
 10
607.91028949567351
 20
843.25019207538458
 30
0.0
 11
605.01028949567365
 21
843.25019207538458
 31
0.0
  0
LINE
  5
11C5
  8
0
 10
607.91028949567351
 20
843.25019207538458
 30
0.0
 11
607.91028949567351
 21
841.75019207538458
 31
0.0
  0
LINE
  5
11C6
  8
0
 10
605.01028949567365
 20
843.25019207538458
 30
0.0
 11
604.51028949567365
 21
842.75019207538469
 31
0.0
  0
LINE
  5
11C8
  8
0
 10
604.51028949567365
 20
833.75019207538469
 30
0.0
 11
605.01028949567365
 21
833.2501920753848
 31
0.0
  0
LINE
  5
11C9
  8
0
 10
604.51028949567365
 20
842.75019207538469
 30
0.0
 11
604.51028949567365
 21
833.75019207538469
 31
0.0
  0
LINE
  5
11CA
  8
0
 10
605.01028949567342
 20
832.88334332567592
 30
0.0
 11
603.01028949567331
 21
832.88334332567592
 31
0.0
  0
LINE
  5
11CB
  8
0
 10
612.01028949567365
 20
843.25019207538458
 30
0.0
 11
612.51028949567365
 21
842.75019207538469
 31
0.0
  0
LINE
  5
11CC
  8
0
 10
612.51028949567365
 20
842.75019207538469
 30
0.0
 11
609.11028949567378
 21
842.75019207538469
 31
0.0
  0
LINE
  5
11CD
  8
0
 10
610.51741805133622
 20
842.75019207538469
 30
0.0
 11
610.51741805133622
 21
838.38218434065493
 31
0.0
  0
LINE
  5
11CE
  8
0
 10
610.14241805133622
 20
842.75019207538469
 30
0.0
 11
610.14241805133622
 21
839.47484279739206
 31
0.0
  0
LINE
  5
11D0
  8
0
 10
609.11028949567378
 20
843.25019207538458
 30
0.0
 11
609.11028949567378
 21
841.75019207538458
 31
0.0
  0
LINE
  5
11D1
  8
0
 10
612.01028949567365
 20
843.25019207538458
 30
0.0
 11
609.11028949567378
 21
843.25019207538458
 31
0.0
  0
LINE
  5
11D2
  8
0
 10
612.51028949567365
 20
833.75019207538469
 30
0.0
 11
612.01028949567365
 21
833.2501920753848
 31
0.0
  0
LINE
  5
11D3
  8
0
 10
612.51028949567365
 20
842.75019207538469
 30
0.0
 11
612.51028949567365
 21
833.75019207538469
 31
0.0
  0
LINE
  5
11D4
  8
0
 10
611.26741805133622
 20
842.75019207538469
 30
0.0
 11
611.26741805133622
 21
836.66514923278089
 31
0.0
  0
LINE
  5
11D5
  8
0
 10
610.89241805133622
 20
842.75019207538469
 30
0.0
 11
610.89241805133622
 21
837.39358820393898
 31
0.0
  0
LINE
  5
11D6
  8
0
 10
611.64241805133622
 20
842.75019207538469
 30
0.0
 11
611.64241805133622
 21
836.24889858719109
 31
0.0
  0
LINE
  5
11D7
  8
0
 10
612.01741805133622
 20
842.75019207538469
 30
0.0
 11
612.01741805133622
 21
835.76844376962902
 31
0.0
  0
LINE
  5
11D8
  8
CENTER
  6
CENTER
 10
640.76510600908762
 20
816.88334332567592
 30
0.0
 11
649.9183519704693
 21
816.88334332567592
 31
0.0
  0
LINE
  5
11D9
  8
HIDDEN
  6
HIDDEN
 10
644.01028949567342
 20
813.38334332567592
 30
0.0
 11
647.01028949567342
 21
813.38334332567592
 31
0.0
  0
LINE
  5
11DA
  8
HIDDEN
  6
HIDDEN
 10
644.01028949567342
 20
820.38334332567592
 30
0.0
 11
647.01028949567342
 21
820.3833433256757
 31
0.0
  0
LINE
  5
11DB
  8
0
  6
BYBLOCK
 10
644.01028949567342
 20
827.88334332567592
 30
0.0
 11
647.01028949567342
 21
827.88334332567592
 31
0.0
  0
LINE
  5
11DC
  8
DIM
  6
BYBLOCK
 10
542.08343704301365
 20
864.90333238593905
 30
0.0
 11
560.41689641679829
 21
864.90333238593905
 31
0.0
  0
LINE
  5
11DD
  8
DIM
  6
BYBLOCK
 10
542.08343704301365
 20
869.97839363164314
 30
0.0
 11
560.41689641679852
 21
869.97839363164314
 31
0.0
  0
LINE
  5
11DE
  8
DIM
  6
BYBLOCK
 10
661.13754161937936
 20
807.8833433256757
 30
0.0
 11
661.13754161937936
 21
810.88334332567592
 31
0.0
  0
SOLID
  5
11E0
  8
DIM
  6
BYBLOCK
 10
660.63754161937936
 20
798.88334332567581
 30
0.0
 11
661.63754161937936
 21
798.88334332567581
 31
0.0
 12
661.13754161937936
 22
801.88334332567592
 32
0.0
 13
661.13754161937936
 23
801.88334332567592
 33
0.0
  0
SOLID
  5
11E1
  8
DIM
  6
BYBLOCK
 10
660.63754161937936
 20
807.8833433256757
 30
0.0
 11
661.63754161937936
 21
807.8833433256757
 31
0.0
 12
661.13754161937936
 22
804.88334332567581
 32
0.0
 13
661.13754161937936
 23
804.88334332567581
 33
0.0
  0
LINE
  5
11E2
  8
DIM
  6
BYBLOCK
 10
661.13754161937936
 20
804.88334332567581
 30
0.0
 11
661.13754161937936
 21
801.88334332567592
 31
0.0
  0
LINE
  5
11E3
  8
DIM
  6
BYBLOCK
 10
661.13754161937936
 20
804.88334332567581
 30
0.0
 11
661.13754161937936
 21
801.88334332567592
 31
0.0
  0
LINE
  5
11E4
  8
DIM
  6
BYBLOCK
 10
661.13754161937936
 20
798.88334332567581
 30
0.0
 11
661.13754161937936
 21
795.88334332567592
 31
0.0
  0
TEXT
  5
11E5
  8
0
  6
BYBLOCK
 10
552.51478351554204
 20
952.86770558261503
 30
0.0
 40
15.0
  1
MAL-400
  7
CHINESET
  0
TEXT
  5
11E6
  8
DIM
  6
BYBLOCK
 10
512.56128612004693
 20
996.42853610399914
 30
0.0
 40
3.0
  1
2-
  7
CHINESET
  0
TEXT
  5
16DC
  8
DIM
  6
BYBLOCK
 10
519.13271469147548
 20
996.42853610399914
 30
0.0
 40
3.0
  1
%%c
  7
CHINESET
1001
ACAD
1000
R13OBJECT
1002
{
1005
11E6
1002
}
  0
TEXT
  5
16DD
  8
DIM
  6
BYBLOCK
 10
521.84700040576115
 20
996.42853610399914
 30
0.0
 40
3.0
  1
6.5*8.5
  7
CHINESET
1001
ACAD
1000
R13OBJECT
1002
{
1005
11E6
1002
}
  0
SOLID
  5
11E7
  8
DIM
  6
CONTINUOUS
 10
-493.91892567838829
 20
978.1131239753754
 30
0.0
 11
-491.55718428305028
 21
976.19683130943258
 31
0.0
 12
-493.16976365725338
 22
978.77551077029898
 32
0.0
 13
-493.16976365725338
 23
978.77551077029898
 33
0.0
210
0.0
220
0.0
230
-1.0
  0
POLYLINE
  5
16DE
  8
DIM
  6
BYBLOCK
 66
     1
 10
0.0
 20
0.0
 30
0.0
 70
   128
1001
ACAD
1000
R13OBJECT
1002
{
1005
11E7
1002
}
  0
VERTEX
  5
1863
  8
DIM
  6
BYBLOCK
 10
493.54434466782089
 20
978.4443173728373
 30
0.0
  0
VERTEX
  5
1864
  8
DIM
  6
BYBLOCK
 10
508.56128612004687
 20
995.42853610399914
 30
0.0
  0
VERTEX
  5
1865
  8
DIM
  6
BYBLOCK
 10
537.56128612004693
 20
995.42853610399914
 30
0.0
  0
SEQEND
  5
1866
  8
DIM
  6
BYBLOCK
  0
DIMENSION
  5
11E8
  8
DIM
  6
BYBLOCK
  2
*D78
 10
496.78801626250208
 20
1005.844144009341
 30
0.0
 11
470.28801626250203
 21
1008.344144009341
 31
0.0
 70
     0
 13
443.78801626250203
 23
976.19683130943258
 33
0.0
 14
496.78801626250208
 24
976.19683130943258
 34
0.0
  0
DIMENSION
  5
11F5
  8
DIM
  6
BYBLOCK
  2
*D79
 10
489.28801626250203
 20
997.54340532010769
 30
0.0
 11
470.28801626250203
 21
1000.043405320107
 31
0.0
 70
     0
 13
451.28801626250208
 23
977.3747102258061
 33
0.0
 14
489.28801626250203
 24
977.3747102258061
 34
0.0
  0
LINE
  5
1202
  8
0
  6
BYBLOCK
 10
443.78801626250203
 20
974.19683130943247
 30
0.0
 11
496.78801626250208
 21
974.19683130943247
 31
0.0
  0
LINE
  5
1203
  8
0
  6
BYBLOCK
 10
443.78801626250203
 20
976.19683130943258
 30
0.0
 11
496.78801626250208
 21
976.19683130943258
 31
0.0
  0
LINE
  5
1204
  8
HIDDEN
  6
HIDDEN
 10
447.78801626250203
 20
976.19683130943258
 30
0.0
 11
447.78801626250203
 21
974.19683130943235
 31
0.0
  0
LINE
  5
1205
  8
CENTER
  6
CENTER
 10
451.28801626250208
 20
977.3747102258061
 30
0.0
 11
451.28801626250208
 21
973.0558237156788
 31
0.0
  0
DIMENSION
  5
1206
  8
DIM
  6
BYBLOCK
  2
*D80
 10
486.28801626250203
 20
988.93523591353789
 30
0.0
 11
470.28801626250191
 21
991.43523591353801
 31
0.0
 70
     0
 13
454.2880162625018
 23
956.01288168823055
 33
0.0
 14
486.28801626250203
 24
956.01288168823055
 34
0.0
  0
LINE
  5
1213
  8
HIDDEN
  6
HIDDEN
 10
454.78801626250208
 20
976.19683130943258
 30
0.0
 11
454.78801626250208
 21
974.19683130943235
 31
0.0
  0
LINE
  5
1214
  8
HIDDEN
  6
HIDDEN
 10
485.78801626250203
 20
976.19683130943258
 30
0.0
 11
485.78801626250203
 21
974.19683130943247
 31
0.0
  0
LINE
  5
1215
  8
HIDDEN
  6
HIDDEN
 10
492.78801626250208
 20
976.19683130943235
 30
0.0
 11
492.78801626250208
 21
974.19683130943235
 31
0.0
  0
LINE
  5
1216
  8
CENTER
  6
CENTER
 10
489.28801626250203
 20
977.3747102258061
 30
0.0
 11
489.28801626250203
 21
972.95766642683691
 31
0.0
  0
TEXT
  5
1765
  8
LOGO
 62
     6
 10
681.20411336073857
 20
608.12783092038831
 30
0.0
 40
7.029264152911006
  1
配管口徑
 41
0.9
  7
CHINESET
 72
     4
 11
693.92268818741195
 21
611.64246299684385
 31
0.0
  0
LINE
  5
1766
  8
LOGO
 62
     6
 10
712.07437296564819
 20
598.4625927101356
 30
0.0
 11
675.77100340917559
 21
598.46259271013548
 31
0.0
  0
LINE
  5
1767
  8
LOGO
 62
     6
 10
712.07437296564819
 20
617.79306913064102
 30
0.0
 11
675.77100340917559
 21
617.79306913064102
 31
0.0
  0
TEXT
  5
1768
  8
LOGO
  6
CONTINUOUS
 62
     6
 10
681.87252106813594
 20
600.65923775792021
 30
0.0
 40
4.3932900955693794
  1
Bore size
 41
0.8
  7
CHINESET
 72
     4
 11
693.92268818741195
 21
602.85588280570505
 31
0.0
  0
TEXT
  5
1769
  8
LOGO
  6
CONTINUOUS
 62
     7
 10
687.6298233625605
 20
629.11598300608705
 30
0.0
 40
8.7865801911387589
  1
?A
  7
CHINESET
 72
     1
 11
694.74276923157754
 21
633.50927310165639
 31
0.0
 73
     2
  0
LINE
  5
176A
  8
LOGO
 62
     6
 10
708.55974088919265
 20
641.51683564671555
 30
0.0
 11
679.28563548563113
 21
641.51683564671555
 31
0.0
  0
LINE
  5
176B
  8
LOGO
 62
     6
 10
708.55974088919265
 20
625.70099130266567
 30
0.0
 11
679.28563548563113
 21
625.70099130266578
 31
0.0
  0
LINE
  5
176C
  8
LOGO
 62
     1
 10
715.12481273765366
 20
646.7887837613988
 30
0.0
 11
414.02544497320861
 21
646.7887837613988
 31
0.0
  0
LINE
  5
176D
  8
LOGO
 62
     1
 10
715.12481273765366
 20
594.06930261456625
 30
0.0
 11
414.02544497320861
 21
594.06930261456625
 31
0.0
  0
LINE
  5
176E
  8
LOGO
  6
CONTINUOUS
 62
     6
 10
514.26332801351111
 20
632.77770123397818
 30
0.0
 11
523.85944110892217
 21
634.04523331600137
 31
0.0
  0
LINE
  5
176F
  8
LOGO
  6
CONTINUOUS
 62
     6
 10
514.26332801351111
 20
629.19073107191275
 30
0.0
 11
523.85944110892217
 21
627.92319898988978
 31
0.0
  0
LINE
  5
1770
  8
LOGO
 62
     1
 10
530.00830349624016
 20
636.24488753203241
 30
0.0
 11
452.68639781421922
 21
636.24488753203241
 31
0.0
  0
LINE
  5
1771
  8
LOGO
 62
     1
 10
530.00830349624016
 20
625.70099130266578
 30
0.0
 11
452.68639781421922
 21
625.70099130266578
 31
0.0
  0
TEXT
  5
1772
  8
LOGO
 62
     6
 10
502.77077417802292
 20
638.88086158937404
 30
0.0
 40
5.2719481146832541
  1
1 : 1
  7
CHINESET
 72
     1
 11
512.0594446657982
 21
641.51683564671555
 31
0.0
 73
     2
  0
TEXT
  5
1773
  8
LOGO
 62
     6
 10
502.77077417802292
 20
617.79306913064102
 30
0.0
 40
5.2719481146832541
  1
m/m
  7
CHINESET
 72
     1
 11
512.0594446657982
 21
620.42904318798264
 31
0.0
 73
     2
  0
LINE
  5
1774
  8
LOGO
 62
     1
 10
530.00830349624016
 20
615.15709507329939
 30
0.0
 11
414.02544497320849
 21
615.15709507329939
 31
0.0
  0
TEXT
  5
1775
  8
LOGO
  6
CONTINUOUS
 62
     5
 10
415.75104260327618
 20
604.42596512522755
 30
0.0
 40
7.9079221720248807
  1
金器工業股份有限公司
 41
0.8
  7
LOGO
  0
TEXT
  5
1776
  8
LOGO
  6
CONTINUOUS
 62
     5
 10
418.01539455295551
 20
596.51649362046203
 30
0.0
 40
5.2719481146832541
  1
MINDMAN INDUSTRIAL CO.,LTD
 41
0.85
  7
CHINESET
  0
SOLID
  5
1777
  8
LOGO
 62
     5
 10
419.49517575052488
 20
623.92095841123705
 30
0.0
 11
421.77462777939519
 21
623.92095841123626
 31
0.0
 12
431.28544486537288
 22
645.53645178845784
 32
0.0
 13
433.56489689424308
 23
645.53645178845636
 33
0.0
  0
SOLID
  5
1778
  8
LOGO
 62
     5
 10
422.71784930858439
 20
623.92095841123705
 30
0.0
 11
424.99730133745459
 21
623.92095841123705
 31
0.0
 12
433.56489689424308
 22
643.80721231827943
 32
0.0
 13
431.28544486537288
 23
635.44922154575374
 33
0.0
  0
SOLID
  5
1779
  8
LOGO
 62
     2
 10
421.77462777939519
 20
623.92095841123626
 30
0.0
 11
422.71784930858439
 21
623.92095841123705
 31
0.0
 12
433.56489689424308
 22
645.53645178845636
 32
0.0
 13
434.5081184234316
 23
645.53645178845636
 33
0.0
  0
SOLID
  5
177A
  8
LOGO
 62
     5
 10
421.83966644126627
 20
619.99086870628776
 30
0.0
 11
422.62568438225532
 21
619.99086870628776
 31
0.0
 12
421.83966644126627
 22
616.06077900133926
 32
0.0
 13
422.62568438225532
 23
616.06077900133926
 33
0.0
  0
SOLID
  5
177B
  8
LOGO
 62
     5
 10
415.84065515813569
 20
616.06077900133926
 30
0.0
 11
416.62667309912638
 21
616.06077900133926
 31
0.0
 12
418.84016079970053
 22
619.99086870628776
 32
0.0
 13
419.6261787406898
 23
619.99086870628776
 33
0.0
  0
SOLID
  5
177C
  8
LOGO
 62
     5
 10
418.84016079970053
 20
619.99086870628776
 30
0.0
 11
419.6261787406898
 21
619.99086870628776
 31
0.0
 12
418.84016079970053
 22
616.06077900133926
 32
0.0
 13
419.6261787406898
 23
616.06077900133926
 33
0.0
  0
SOLID
  5
177D
  8
LOGO
 62
     5
 10
418.84016079970053
 20
616.06077900133926
 30
0.0
 11
419.6261787406898
 21
616.06077900133926
 31
0.0
 12
421.83966644126627
 22
619.99086870628776
 32
0.0
 13
422.62568438225532
 23
619.99086870628776
 33
0.0
  0
LINE
  5
177E
  8
LOGO
 62
     1
 10
414.02544497320861
 20
594.06930261456625
 30
0.0
 11
414.02544497320861
 21
646.7887837613988
 31
0.0
  0
TEXT
  5
177F
  8
LOGO
 62
     6
 10
457.03340146056729
 20
638.88345605202881
 30
0.0
 40
5.2719481146832541
  1
比例 Scale:
 41
0.9
  7
CHINESET
 72
     4
 11
473.77419027295218
 21
641.51683564671555
 31
0.0
  0
TEXT
  5
1780
  8
LOGO
 62
     6
 10
458.87622975244102
 20
628.41112375089222
 30
0.0
 40
5.2719481146832541
  1
投影 View:
 41
0.9
  7
CHINESET
 72
     4
 11
473.77419027295218
 21
630.97293941734904
 31
0.0
  0
TEXT
  5
1781
  8
LOGO
 62
     6
 10
459.39165682258192
 20
617.79306913064102
 30
0.0
 40
5.2719481146832541
  1
單位 Unit:
 41
0.9
  7
CHINESET
 72
     4
 11
473.77419027295218
 21
620.42904318798264
 31
0.0
  0
POLYLINE
  5
1782
  8
LOGO
 62
     5
 66
     1
 10
0.0
 20
0.0
 30
0.0
 70
     1
 40
0.7872775851260326
 41
0.7872775851260326
  0
VERTEX
  5
186B
  8
LOGO
 62
     5
 10
440.97719925050399
 20
618.02582385381299
 30
0.0
 42
1.0
  0
VERTEX
  5
186C
  8
LOGO
 62
     5
 10
444.12630959100801
 20
618.02582385381299
 30
0.0
 42
1.0
  0
SEQEND
  5
186D
  8
LOGO
 62
     5
  0
LINE
  5
1783
  8
LOGO
 62
     5
 10
448.577839567149
 20
616.06077900133926
 30
0.0
 11
448.577839567149
 21
618.41883282430808
 31
0.0
  0
SOLID
  5
1784
  8
LOGO
 62
     5
 10
443.73070273044851
 20
619.99086870628776
 30
0.0
 11
444.51672067143761
 21
619.99086870628776
 31
0.0
 12
443.73070273044851
 22
616.06077900133926
 32
0.0
 13
444.51672067143761
 23
616.06077900133926
 33
0.0
  0
SOLID
  5
1785
  8
LOGO
 62
     5
 10
445.43376780318948
 20
616.06077900133926
 30
0.0
 11
446.21978574418011
 21
616.06077900133926
 31
0.0
 12
445.43376780318948
 22
619.99086870628776
 32
0.0
 13
446.21978574418011
 23
619.99086870628776
 33
0.0
  0
SOLID
  5
1786
  8
LOGO
 62
     5
 10
447.7918216261599
 20
618.41883282430808
 30
0.0
 11
448.577839567149
 21
618.41883282430786
 31
0.0
 12
447.7918216261599
 22
616.06077900133926
 32
0.0
 13
448.577839567149
 23
616.06077900133926
 33
0.0
  0
SOLID
  5
1787
  8
LOGO
 62
     5
 10
432.46439317506412
 20
621.16989561777291
 30
0.0
 11
433.2504111160531
 21
621.16989561777291
 31
0.0
 12
432.46439317506412
 22
616.06077900133926
 32
0.0
 13
433.2504111160531
 23
616.06077900133926
 33
0.0
  0
SOLID
  5
1788
  8
LOGO
 62
     5
 10
434.16745824780742
 20
619.99086870628776
 30
0.0
 11
434.95347618879651
 21
619.99086870628776
 31
0.0
 12
434.16745824780742
 22
616.06077900133926
 32
0.0
 13
434.95347618879651
 23
616.06077900133926
 33
0.0
  0
SOLID
  5
1789
  8
LOGO
 62
     5
 10
436.52551207077619
 20
618.41883282430808
 30
0.0
 11
437.31153001176529
 21
618.41883282430808
 31
0.0
 12
436.52551207077619
 22
616.06077900133926
 32
0.0
 13
437.31153001176529
 23
616.06077900133926
 33
0.0
  0
SOLID
  5
178A
  8
LOGO
 62
     5
 10
438.88356589374519
 20
618.41883282430808
 30
0.0
 11
439.66958383473423
 21
618.41883282430808
 31
0.0
 12
438.88356589374519
 22
616.06077900133766
 32
0.0
 13
439.66958383473423
 23
616.06077900133766
 33
0.0
  0
LINE
  5
178B
  8
LOGO
 62
     1
 10
452.68639781421922
 20
615.15709507329939
 30
0.0
 11
452.68639781421922
 21
646.7887837613988
 31
0.0
  0
SOLID
  5
178C
  8
LOGO
 62
     5
 10
425.25920251539259
 20
619.99086870628776
 30
0.0
 11
426.04522045638168
 21
619.99086870628776
 31
0.0
 12
425.25920251539259
 22
616.06077900133926
 32
0.0
 13
426.04522045638168
 23
616.06077900133926
 33
0.0
  0
SOLID
  5
178D
  8
LOGO
 62
     5
 10
427.6172563383613
 20
618.41883282430808
 30
0.0
 11
428.40327427935182
 21
618.41883282430808
 31
0.0
 12
427.6172563383613
 22
616.06077900133926
 32
0.0
 13
428.40327427935182
 23
616.06077900133926
 33
0.0
  0
SOLID
  5
178E
  8
LOGO
 62
     5
 10
423.55613744264917
 20
619.99086870628776
 30
0.0
 11
424.34215538364049
 21
619.99086870628776
 31
0.0
 12
423.55613744264917
 22
616.06077900133766
 32
0.0
 13
424.34215538364049
 23
616.06077900133926
 33
0.0
  0
POLYLINE
  5
178F
  8
LOGO
 62
     5
 66
     1
 10
0.0
 20
0.0
 30
0.0
 70
     1
 40
0.7872775851260326
 41
0.7872775851260326
  0
VERTEX
  5
186E
  8
LOGO
 62
     5
 10
429.71088969512027
 20
618.02582385381299
 30
0.0
 42
1.0
  0
VERTEX
  5
186F
  8
LOGO
 62
     5
 10
432.86000003562452
 20
618.02582385381299
 30
0.0
 42
1.0
  0
SEQEND
  5
1870
  8
LOGO
 62
     5
  0
POLYLINE
  5
1790
  8
LOGO
 62
     5
 66
     1
 10
0.0
 20
0.0
 30
0.0
 40
0.7872775851260326
 41
0.7872775851260326
  0
VERTEX
  5
1871
  8
LOGO
 62
     5
 10
448.18672006285919
 20
618.41883282430808
 30
0.0
 42
1.0
  0
VERTEX
  5
1872
  8
LOGO
 62
     5
 10
445.82488730748099
 20
618.41883282430808
 30
0.0
 42
1.0
  0
SEQEND
  5
1873
  8
LOGO
 62
     5
  0
SOLID
  5
1791
  8
LOGO
 62
     5
 10
446.29838753827869
 20
623.92095841123626
 30
0.0
 11
448.577839567149
 21
623.92095841123626
 31
0.0
 12
446.29838753827869
 22
645.53645178845636
 32
0.0
 13
448.577839567149
 23
645.53645178845784
 33
0.0
  0
SOLID
  5
1792
  8
LOGO
 62
     5
 10
434.5081184234316
 20
645.53645178845636
 30
0.0
 11
436.78757045230168
 21
645.53645178845784
 31
0.0
 12
434.5081184234316
 22
625.65019788141399
 32
0.0
 13
436.78757045230168
 23
634.00818865393967
 33
0.0
  0
SOLID
  5
1793
  8
LOGO
 62
     5
 10
434.5081184234316
 20
625.65019788141399
 30
0.0
 11
436.78757045230168
 21
634.00818865393967
 31
0.0
 12
445.35516600909023
 22
645.53645178845784
 32
0.0
 13
443.0757139802198
 23
645.53645178845784
 33
0.0
  0
SOLID
  5
1794
  8
LOGO
 62
     5
 10
445.35516600909023
 20
643.80721231827943
 30
0.0
 11
443.0757139802198
 21
635.44922154575374
 31
0.0
 12
445.35516600909023
 22
623.92095841123626
 32
0.0
 13
443.0757139802198
 23
623.92095841123626
 33
0.0
  0
SOLID
  5
1795
  8
LOGO
 62
     2
 10
445.35516600909023
 20
645.53645178845784
 30
0.0
 11
446.29838753827869
 21
645.53645178845636
 31
0.0
 12
445.35516600909023
 22
623.92095841123626
 32
0.0
 13
446.29838753827869
 23
623.92095841123626
 33
0.0
  0
SOLID
  5
1796
  8
LOGO
 62
     5
 10
431.28544486537288
 20
623.92095841123705
 30
0.0
 11
433.56489689424308
 21
623.92095841123705
 31
0.0
 12
431.28544486537288
 22
635.44922154575374
 32
0.0
 13
433.56489689424308
 23
643.80721231827943
 33
0.0
  0
SOLID
  5
1797
  8
LOGO
 62
     2
 10
433.56489689424308
 20
645.53645178845636
 30
0.0
 11
434.5081184234316
 21
645.53645178845636
 31
0.0
 12
433.56489689424308
 22
623.92095841123705
 32
0.0
 13
434.5081184234316
 23
623.92095841123705
 33
0.0
  0
SOLID
  5
1798
  8
LOGO
 62
     5
 10
434.5081184234316
 20
623.92095841123705
 30
0.0
 11
436.78757045230168
 21
623.92095841123705
 31
0.0
 12
445.35516600909023
 22
643.80721231827943
 32
0.0
 13
443.0757139802198
 23
635.44922154575374
 33
0.0
  0
SOLID
  5
1799
  8
LOGO
 62
     2
 10
433.56489689424308
 20
623.92095841123705
 30
0.0
 11
434.5081184234316
 21
623.92095841123705
 31
0.0
 12
445.35516600909023
 22
645.53645178845784
 32
0.0
 13
446.29838753827869
 23
645.53645178845636
 33
0.0
  0
POLYLINE
  5
179A
  8
LOGO
 62
     5
 66
     1
 10
0.0
 20
0.0
 30
0.0
 40
0.7872775851260326
 41
0.7872775851260326
  0
VERTEX
  5
1874
  8
LOGO
 62
     5
 10
436.92041050747548
 20
618.41883282430808
 30
0.0
 42
1.0
  0
VERTEX
  5
1875
  8
LOGO
 62
     5
 10
434.55857775209722
 20
618.41883282430808
 30
0.0
 42
1.0
  0
SEQEND
  5
1876
  8
LOGO
 62
     5
  0
POLYLINE
  5
179B
  8
LOGO
 62
     5
 66
     1
 10
0.0
 20
0.0
 30
0.0
 40
0.7872775851260326
 41
0.7872775851260326
  0
VERTEX
  5
1877
  8
LOGO
 62
     5
 10
428.01215477506071
 20
618.41883282430808
 30
0.0
 42
1.0
  0
VERTEX
  5
1878
  8
LOGO
 62
     5
 10
425.65032201968251
 20
618.41883282430808
 30
0.0
 42
1.0
  0
SEQEND
  5
1879
  8
LOGO
 62
     5
  0
SOLID
  5
179C
  8
LOGO
 62
     5
 10
423.55613744264917
 20
620.54108126498033
 30
0.0
 11
424.34215538364049
 21
620.54108126498033
 31
0.0
 12
423.55613744264917
 22
621.16989561777291
 32
0.0
 13
424.34215538364049
 23
621.16989561777291
 33
0.0
  0
POLYLINE
  5
179D
  8
LOGO
 62
     5
 66
     1
 10
0.0
 20
0.0
 30
0.0
 70
     1
  0
VERTEX
  5
187A
  8
LOGO
 62
     5
 10
441.37272750927173
 20
618.02582385381345
 30
0.0
 42
1.0000000573306349
  0
VERTEX
  5
187B
  8
LOGO
 62
     5
 10
443.73078133224152
 20
618.02582385381345
 30
0.0
 42
1.0000000573306349
  0
SEQEND
  5
187C
  8
LOGO
 62
     5
  0
CIRCLE
  5
179E
  8
LOGO
 62
     5
 10
442.55175442075648
 20
618.02582385381345
 30
0.0
 40
1.179026911484746
  0
POLYLINE
  5
179F
  8
LOGO
 62
     5
 66
     1
 10
0.0
 20
0.0
 30
0.0
 40
0.7872775851260326
 41
0.7872775851260326
  0
VERTEX
  5
187D
  8
LOGO
 62
     5
 10
439.27846433044431
 20
618.41883282430808
 30
0.0
 42
1.0
  0
VERTEX
  5
187E
  8
LOGO
 62
     5
 10
436.91663157506611
 20
618.41883282430808
 30
0.0
 42
1.0
  0
SEQEND
  5
187F
  8
LOGO
 62
     5
  0
LINE
  5
17A0
  8
LOGO
 62
     1
 10
494.8619827316852
 20
615.15709507329939
 30
0.0
 11
494.8619827316852
 21
646.7887837613988
 31
0.0
  0
CIRCLE
  5
17A1
  8
LOGO
  6
CONTINUOUS
 62
     6
 10
504.62365407086781
 20
630.98421615294558
 30
0.0
 40
3.061017163055757
  0
CIRCLE
  5
17A2
  8
LOGO
  6
CONTINUOUS
 62
     6
 10
504.62365407086781
 20
630.98421615294558
 30
0.0
 40
1.7934850810327141
  0
LINE
  5
17A3
  8
LOGO
 62
     6
 10
514.26332801351123
 20
629.19073107191275
 30
0.0
 11
514.26332801351111
 21
632.77770123397818
 31
0.0
  0
TEXT
  5
17A4
  8
LOGO
  6
CONTINUOUS
 62
     6
 10
626.18050577887482
 20
600.65923775792044
 30
0.0
 40
4.3932900955693794
  1
Model
  7
CHINESET
 72
     4
 11
634.54867738948315
 21
602.85588280570505
 31
0.0
  0
TEXT
  5
17A5
  8
LOGO
  6
CONTINUOUS
 62
     7
 10
609.55085757481595
 20
629.21562337912133
 30
0.0
 40
8.7865801911387589
  1
MAL400
  7
CHINESET
 72
     1
 11
634.02775953584535
 21
633.60891347469055
 31
0.0
 73
     2
  0
LINE
  5
17A6
  8
LOGO
 62
     6
 10
666.57574477461162
 20
641.51683564671555
 30
0.0
 11
602.52161000435478
 21
641.51683564671555
 31
0.0
  0
LINE
  5
17A7
  8
LOGO
 62
     6
 10
666.57574477461162
 20
625.70099130266578
 30
0.0
 11
602.52161000435478
 21
625.70099130266578
 31
0.0
  0
LINE
  5
17A8
  8
LOGO
 62
     6
 10
652.12183777176074
 20
617.79306913064102
 30
0.0
 11
616.97551700720578
 21
617.79306913064102
 31
0.0
  0
LINE
  5
17A9
  8
LOGO
 62
     6
 10
652.12183777176074
 20
598.4625927101356
 30
0.0
 11
616.97551700720578
 21
598.46259271013548
 31
0.0
  0
TEXT
  5
17AA
  8
LOGO
 62
     7
 10
534.32365073125527
 20
633.58902466918505
 30
0.0
 40
10.543896229366499
  1
訂購代號:
  7
CHINESET
  0
TEXT
  5
17AB
  8
LOGO
 62
     7
 10
533.06254261257345
 20
623.69327616960027
 30
0.0
 40
7.029264152911006
  1
Order example:
 41
0.8
  7
CHINESET
  0
LINE
  5
17AC
  8
LOGO
 62
     1
 10
530.00830349624016
 20
594.06930261456625
 30
0.0
 11
530.00830349624016
 21
646.7887837613988
 31
0.0
  0
LINE
  5
17AD
  8
LOGO
 62
     6
 10
523.85944110892217
 20
627.92319898988978
 30
0.0
 11
523.85944110892217
 21
634.04523331600137
 31
0.0
  0
LINE
  5
17AE
  8
LOGO
 62
     6
 10
616.97551700720578
 20
617.79306913064102
 30
0.0
 11
616.97551700720578
 21
598.46259271013548
 31
0.0
  0
LINE
  5
17AF
  8
LOGO
 62
     6
 10
602.52161000435478
 20
641.51683564671555
 30
0.0
 11
602.52161000435478
 21
625.70099130266578
 31
0.0
  0
LINE
  5
17B0
  8
LOGO
 62
     6
 10
652.12183777176074
 20
617.79306913064102
 30
0.0
 11
652.12183777176074
 21
598.4625927101356
 31
0.0
  0
TEXT
  5
17B1
  8
LOGO
 62
     6
 10
627.51941323657206
 20
608.3077136644589
 30
0.0
 40
7.029264152911006
  1
型式
  7
CHINESET
 72
     4
 11
634.54867738948315
 21
611.64246299684385
 31
0.0
  0
LINE
  5
17B2
  8
LOGO
 62
     6
 10
634.54867738948315
 20
625.70099130266578
 30
0.0
 11
634.54867738948315
 21
617.79306913064102
 31
0.0
  0
LINE
  5
17B3
  8
LOGO
 62
     6
 10
666.57574477461162
 20
641.51683564671555
 30
0.0
 11
666.57574477461162
 21
625.70099130266578
 31
0.0
  0
LINE
  5
17B4
  8
LOGO
 62
     6
 10
675.77100340917559
 20
617.79306913064102
 30
0.0
 11
675.77100340917559
 21
598.46259271013548
 31
0.0
  0
LINE
  5
17B5
  8
LOGO
  6
CONTINUOUS
 62
     7
 10
669.56682970613235
 20
633.55289125452998
 30
0.0
 11
676.5505294739479
 21
633.55289125452998
 31
0.0
  0
LINE
  5
17B6
  8
LOGO
 62
     6
 10
679.28563548563125
 20
641.51683564671555
 30
0.0
 11
679.28563548563113
 21
625.70099130266578
 31
0.0
  0
LINE
  5
17B7
  8
LOGO
 62
     6
 10
694.29487176813439
 20
625.70099130266578
 30
0.0
 11
694.29487176813439
 21
617.79306913064102
 31
0.0
  0
LINE
  5
17B8
  8
LOGO
 62
     6
 10
712.07437296564819
 20
617.79306913064102
 30
0.0
 11
712.07437296564819
 21
598.38970399641596
 31
0.0
  0
LINE
  5
17B9
  8
LOGO
 62
     6
 10
708.55974088919265
 20
641.51683564671555
 30
0.0
 11
708.55974088919265
 21
625.70099130266567
 31
0.0
  0
LINE
  5
17BA
  8
LOGO
 62
     1
 10
715.12481273765366
 20
594.06930261456625
 30
0.0
 11
715.12481273765366
 21
646.7887837613988
 31
0.0
  0
ENDSEC
  0
EOF
