  0
SECTION
  2
HEADER
  9
$ACADVER
  1
AC1015
  9
$ACADMAINTVER
 70
    20
  9
$DWGCODEPAGE
  3
ANSI_950
  9
$INSBASE
 10
0.0
 20
0.0
 30
0.0
  9
$EXTMIN
 10
257.406276577025
 20
123.9022236195997
 30
-0.0077289284921562
  9
$EXTMAX
 10
485.1064178684423
 20
409.9507208441439
 30
244.6917548369646
  9
$LIMMIN
 10
0.0
 20
0.0
  9
$LIMMAX
 10
420.0
 20
297.0
  9
$ORTHOMODE
 70
     1
  9
$REGENMODE
 70
     1
  9
$FILLMODE
 70
     1
  9
$QTEXTMODE
 70
     0
  9
$MIRRTEXT
 70
     1
  9
$LTSCALE
 40
1.0
  9
$ATTMODE
 70
     1
  9
$TEXTSIZE
 40
3.5
  9
$TRACEWID
 40
1.0
  9
$TEXTSTYLE
  7
STANDARD
  9
$CLAYER
  8
0
  9
$CELTYPE
  6
ByLayer
  9
$CECOLOR
 62
   256
  9
$CELTSCALE
 40
1.0
  9
$DISPSILH
 70
     0
  9
$DIMSCALE
 40
1.0
  9
$DIMASZ
 40
3.0
  9
$DIMEXO
 40
1.0
  9
$DIMDLI
 40
8.0
  9
$DIMRND
 40
0.0
  9
$DIMDLE
 40
0.0
  9
$DIMEXE
 40
1.5
  9
$DIMTP
 40
0.1
  9
$DIMTM
 40
0.1
  9
$DIMTXT
 40
3.5
  9
$DIMCEN
 40
3.0
  9
$DIMTSZ
 40
0.0
  9
$DIMTOL
 70
     0
  9
$DIMLIM
 70
     0
  9
$DIMTIH
 70
     0
  9
$DIMTOH
 70
     0
  9
$DIMSE1
 70
     0
  9
$DIMSE2
 70
     0
  9
$DIMTAD
 70
     1
  9
$DIMZIN
 70
     8
  9
$DIMBLK
  1

  9
$DIMASO
 70
     1
  9
$DIMSHO
 70
     1
  9
$DIMPOST
  1

  9
$DIMAPOST
  1
"
  9
$DIMALT
 70
     0
  9
$DIMALTD
 70
     2
  9
$DIMALTF
 40
0.0393701
  9
$DIMLFAC
 40
1.0
  9
$DIMTOFL
 70
     1
  9
$DIMTVP
 40
0.0
  9
$DIMTIX
 70
     0
  9
$DIMSOXD
 70
     0
  9
$DIMSAH
 70
     0
  9
$DIMBLK1
  1

  9
$DIMBLK2
  1

  9
$DIMSTYLE
  2
AM_ISO
  9
$DIMCLRD
 70
   256
  9
$DIMCLRE
 70
   256
  9
$DIMCLRT
 70
   256
  9
$DIMTFAC
 40
0.71
  9
$DIMGAP
 40
0.8
  9
$DIMJUST
 70
     0
  9
$DIMSD1
 70
     0
  9
$DIMSD2
 70
     0
  9
$DIMTOLJ
 70
     0
  9
$DIMTZIN
 70
     8
  9
$DIMALTZ
 70
     0
  9
$DIMALTTZ
 70
     0
  9
$DIMUPT
 70
     0
  9
$DIMDEC
 70
     2
  9
$DIMTDEC
 70
     8
  9
$DIMALTU
 70
     2
  9
$DIMALTTD
 70
     2
  9
$DIMTXSTY
  7
STANDARD
  9
$DIMAUNIT
 70
     0
  9
$DIMADEC
 70
     0
  9
$DIMALTRND
 40
0.0
  9
$DIMAZIN
 70
     2
  9
$DIMDSEP
 70
    46
  9
$DIMATFIT
 70
     3
  9
$DIMFRAC
 70
     0
  9
$DIMLDRBLK
  1

  9
$DIMLUNIT
 70
     2
  9
$DIMLWD
 70
    -1
  9
$DIMLWE
 70
    -1
  9
$DIMTMOVE
 70
     0
  9
$LUNITS
 70
     2
  9
$LUPREC
 70
     2
  9
$SKETCHINC
 40
1.0
  9
$FILLETRAD
 40
2.5
  9
$AUNITS
 70
     0
  9
$AUPREC
 70
     0
  9
$MENU
  1
.
  9
$ELEVATION
 40
0.0
  9
$PELEVATION
 40
0.0
  9
$THICKNESS
 40
0.0
  9
$LIMCHECK
 70
     0
  9
$CHAMFERA
 40
2.5
  9
$CHAMFERB
 40
2.5
  9
$CHAMFERC
 40
20.0
  9
$CHAMFERD
 40
0.0
  9
$SKPOLY
 70
     0
  9
$TDCREATE
 40
2453021.369367211
  9
$TDUCREATE
 40
2453021.036033877
  9
$TDUPDATE
 40
2453559.704350405
  9
$TDUUPDATE
 40
2453559.371017072
  9
$TDINDWG
 40
0.3099731134
  9
$TDUSRTIMER
 40
0.3099727662
  9
$USRTIMER
 70
     1
  9
$ANGBASE
 50
0.0
  9
$ANGDIR
 70
     0
  9
$PDMODE
 70
     0
  9
$PDSIZE
 40
0.0
  9
$PLINEWID
 40
0.0
  9
$SPLFRAME
 70
     0
  9
$SPLINETYPE
 70
     6
  9
$SPLINESEGS
 70
     8
  9
$HANDSEED
  5
2885
  9
$SURFTAB1
 70
     6
  9
$SURFTAB2
 70
     6
  9
$SURFTYPE
 70
     6
  9
$SURFU
 70
     6
  9
$SURFV
 70
     6
  9
$UCSBASE
  2

  9
$UCSNAME
  2

  9
$UCSORG
 10
0.0
 20
0.0
 30
0.0
  9
$UCSXDIR
 10
1.0
 20
0.0
 30
0.0
  9
$UCSYDIR
 10
0.0
 20
1.0
 30
0.0
  9
$UCSORTHOREF
  2

  9
$UCSORTHOVIEW
 70
     0
  9
$UCSORGTOP
 10
0.0
 20
0.0
 30
0.0
  9
$UCSORGBOTTOM
 10
0.0
 20
0.0
 30
0.0
  9
$UCSORGLEFT
 10
0.0
 20
0.0
 30
0.0
  9
$UCSORGRIGHT
 10
0.0
 20
0.0
 30
0.0
  9
$UCSORGFRONT
 10
0.0
 20
0.0
 30
0.0
  9
$UCSORGBACK
 10
0.0
 20
0.0
 30
0.0
  9
$PUCSBASE
  2

  9
$PUCSNAME
  2

  9
$PUCSORG
 10
0.0
 20
0.0
 30
0.0
  9
$PUCSXDIR
 10
1.0
 20
0.0
 30
0.0
  9
$PUCSYDIR
 10
0.0
 20
1.0
 30
0.0
  9
$PUCSORTHOREF
  2

  9
$PUCSORTHOVIEW
 70
     0
  9
$PUCSORGTOP
 10
0.0
 20
0.0
 30
0.0
  9
$PUCSORGBOTTOM
 10
0.0
 20
0.0
 30
0.0
  9
$PUCSORGLEFT
 10
0.0
 20
0.0
 30
0.0
  9
$PUCSORGRIGHT
 10
0.0
 20
0.0
 30
0.0
  9
$PUCSORGFRONT
 10
0.0
 20
0.0
 30
0.0
  9
$PUCSORGBACK
 10
0.0
 20
0.0
 30
0.0
  9
$USERI1
 70
     0
  9
$USERI2
 70
     0
  9
$USERI3
 70
     0
  9
$USERI4
 70
     0
  9
$USERI5
 70
     0
  9
$USERR1
 40
0.0
  9
$USERR2
 40
0.0
  9
$USERR3
 40
0.0
  9
$USERR4
 40
0.0
  9
$USERR5
 40
0.0
  9
$WORLDVIEW
 70
     1
  9
$SHADEDGE
 70
     3
  9
$SHADEDIF
 70
    70
  9
$TILEMODE
 70
     1
  9
$MAXACTVP
 70
    64
  9
$PINSBASE
 10
0.0
 20
0.0
 30
0.0
  9
$PLIMCHECK
 70
     0
  9
$PEXTMIN
 10
1.000000000000000E+20
 20
1.000000000000000E+20
 30
1.000000000000000E+20
  9
$PEXTMAX
 10
-1.000000000000000E+20
 20
-1.000000000000000E+20
 30
-1.000000000000000E+20
  9
$PLIMMIN
 10
0.0
 20
0.0
  9
$PLIMMAX
 10
420.0
 20
297.0
  9
$UNITMODE
 70
     0
  9
$VISRETAIN
 70
     1
  9
$PLINEGEN
 70
     0
  9
$PSLTSCALE
 70
     1
  9
$TREEDEPTH
 70
  3020
  9
$CMLSTYLE
  2
Standard
  9
$CMLJUST
 70
     0
  9
$CMLSCALE
 40
20.0
  9
$PROXYGRAPHICS
 70
     1
  9
$MEASUREMENT
 70
     1
  9
$CELWEIGHT
370
    -1
  9
$ENDCAPS
280
     0
  9
$JOINSTYLE
280
     0
  9
$LWDISPLAY
290
     0
  9
$INSUNITS
 70
     4
  9
$HYPERLINKBASE
  1

  9
$STYLESHEET
  1
彩色出圖.ctb
  9
$XEDIT
290
     1
  9
$CEPSNTYPE
380
     0
  9
$PSTYLEMODE
290
     1
  9
$FINGERPRINTGUID
  2
{6C02722A-18D3-491A-897A-B8025DE410A9}
  9
$VERSIONGUID
  2
{FFE166BF-2BD7-4700-AADF-0B4B66650027}
  9
$EXTNAMES
290
     1
  9
$PSVPSCALE
 40
0.0
  9
$OLESTARTUP
290
     0
  0
ENDSEC
  0
SECTION
  2
CLASSES
  0
CLASS
  1
ACDBDICTIONARYWDFLT
  2
AcDbDictionaryWithDefault
  3
ObjectDBX Classes
 90
        0
280
     0
281
     0
  0
CLASS
  1
ACDBPLACEHOLDER
  2
AcDbPlaceHolder
  3
ObjectDBX Classes
 90
        0
280
     0
281
     0
  0
CLASS
  1
LAYOUT
  2
AcDbLayout
  3
ObjectDBX Classes
 90
        0
280
     0
281
     0
  0
CLASS
  1
AMGSETTINGSOBJ
  2
AmgSettingsObj
  3
"AcadM|Product Description: AutoCAD Mechanical 2000|Company: Autodesk"
 90
        0
280
     0
281
     0
  0
CLASS
  1
ACME_DOCUMENT
  2
AcMeDbDoc
  3
AcMeServices
 90
        0
280
     0
281
     0
  0
CLASS
  1
ACMESCOPE
  2
AcMeScope
  3
AcMeServices
 90
        0
280
     0
281
     0
  0
CLASS
  1
ACMECOMMANDHISTORY
  2
AcMeCommandHistory
  3
AcMeServices
 90
        0
280
     0
281
     0
  0
CLASS
  1
ACIMSYSVARMAN
  2
AcImSysVarManager
  3
AcMeServices
 90
        0
280
     0
281
     0
  0
CLASS
  1
ACIMREALSYSVAR
  2
AcImRealSysVar
  3
AcMeServices
 90
        0
280
     0
281
     0
  0
CLASS
  1
ACIMINTSYSVAR
  2
AcImIntSysVar
  3
AcMeServices
 90
        0
280
     0
281
     0
  0
CLASS
  1
ACMEDRAWINGMAN
  2
AcMeDrawingMan
  3
AcMeServices
 90
        0
280
     0
281
     0
  0
CLASS
  1
ACMEVIEW
  2
AcMeView
  3
AcMeServices
 90
        0
280
     0
281
     0
  0
CLASS
  1
ACDBENTITYCACHE
  2
AcMeEntityCache
  3
AcMeServices
 90
        0
280
     0
281
     0
  0
CLASS
  1
GSMANAGER
  2
AcMeGSManager
  3
AcMeServices
 90
        0
280
     0
281
     0
  0
CLASS
  1
AMDTINTERNALREACTOR
  2
AmdtInternalReactor
  3
AcMeServices
 90
        0
280
     0
281
     0
  0
CLASS
  1
ACMESTATEMGR
  2
AcMeStateMgr
  3
AcMeServices
 90
        0
280
     0
281
     0
  0
CLASS
  1
ACGREFMASTER
  2
AcGrefMaster
  3
AcAttribServices
 90
        0
280
     0
281
     0
  0
CLASS
  1
ACME_DATABASE
  2
AcMeDbDatabase
  3
AcMeServices
 90
        0
280
     0
281
     0
  0
CLASS
  1
ACRFINSADJUSTERMGR
  2
AcRfInsAdjusterMgr
  3
AcMeServices
 90
        0
280
     0
281
     0
  0
CLASS
  1
ACGREFACADMASTER
  2
AcGrefacadMaster
  3
AcGrefServices
 90
        0
280
     0
281
     0
  0
CLASS
  1
AMIMASTER
  2
AmiMaster
  3
AmiServices
 90
        0
280
     0
281
     0
  0
CLASS
  1
ACMDATADICTIONARY
  2
AcmDataDictionary
  3
"AcmSymBB|Product Description: AutoCAD Mechanical 2004 DX|Company: Autodesk"
 90
        0
280
     0
281
     0
  0
CLASS
  1
ACMDATAENTRYBLOCK
  2
AcmDataEntryBlock
  3
"AcmSymBB|Product Description: AutoCAD Mechanical 2004 DX|Company: Autodesk"
 90
    32768
280
     0
281
     0
  0
CLASS
  1
ACIMSTRSYSVAR
  2
AcImStrSysVar
  3
AcMeServices
 90
        0
280
     0
281
     0
  0
CLASS
  1
ACMSTANDARDISO
  2
AcmStandardISO
  3
"Amdt_StdImp|Product Description: AutoCAD Mechanical 2004 DX|Company: Autodesk"
 90
        0
280
     0
281
     0
  0
CLASS
  1
AMGOBJPROPCFG
  2
AmgObjPropCfg
  3
"AmgLay|Product Description: AutoCAD Mechanical 2000|Company: Autodesk"
 90
        1
280
     0
281
     0
  0
CLASS
  1
AMDTEDGESTANDARDISO
  2
AmdtEdgeStdISO
  3
"Amdt_StdImp|Product Description: AutoCAD Mechanical 2004 DX|Company: Autodesk"
 90
    32768
280
     0
281
     0
  0
CLASS
  1
ACMSURFSTANDARDISO
  2
AcmSurfTextStdISO
  3
"Amdt_StdImp|Product Description: AutoCAD Mechanical 2004 DX|Company: Autodesk"
 90
        0
280
     0
281
     0
  0
CLASS
  1
ACMFCFSTANDARDISO
  2
AcmFCFStdISO
  3
"Amdt_StdImp|Product Description: AutoCAD Mechanical 2004 DX|Company: Autodesk"
 90
        0
280
     0
281
     0
  0
CLASS
  1
ACMWELDSTANDARDISO
  2
AcmWeldingStdISO
  3
"Amdt_StdImp|Product Description: AutoCAD Mechanical 2004 DX|Company: Autodesk"
 90
        0
280
     0
281
     0
  0
CLASS
  1
ACMIDSTANDARDISO
  2
AcmIdStdISO
  3
"Amdt_StdImp|Product Description: AutoCAD Mechanical 2004 DX|Company: Autodesk"
 90
        0
280
     0
281
     0
  0
CLASS
  1
ACMDATUMSTANDARDISO
  2
AcmDatumStdISO
  3
"Amdt_StdImp|Product Description: AutoCAD Mechanical 2004 DX|Company: Autodesk"
 90
        0
280
     0
281
     0
  0
CLASS
  1
ACMBOMSTANDARDISO
  2
AcmBOMStdISO
  3
"Amdt_StdImp|Product Description: AutoCAD Mechanical 2004 DX|Company: Autodesk"
 90
        0
280
     0
281
     0
  0
CLASS
  1
ACMDETAILSTANDARDISO
  2
AmdtDetailSymStdISO
  3
"Amdt_StdImp|Product Description: AutoCAD Mechanical 2004 DX|Company: Autodesk"
 90
        0
280
     0
281
     0
  0
CLASS
  1
ACMSECTIONSTANDARDISO
  2
AmdtSectionSymStdISO
  3
"Amdt_StdImp|Product Description: AutoCAD Mechanical 2004 DX|Company: Autodesk"
 90
        0
280
     0
281
     0
  0
CLASS
  1
ACMCENTERLINESTANDARDISO
  2
AmdtCenterLineStdISO
  3
"Amdt_StdImp|Product Description: AutoCAD Mechanical 2004 DX|Company: Autodesk"
 90
        0
280
     0
281
     0
  0
CLASS
  1
ACMNOTESTANDARDISO
  2
AmdtNoteStdISO
  3
"Amdt_StdImp|Product Description: AutoCAD Mechanical 2004 DX|Company: Autodesk"
 90
        0
280
     0
281
     0
  0
CLASS
  1
ACAMGLAYSTD
  2
AcAmgLayStd
  3
"AcAmgLayStd|Product Description: AutoCAD Mechanical 2000|Company: Autodesk"
 90
        0
280
     0
281
     0
  0
CLASS
  1
ACAMGDIMSTD
  2
AcAmgDimStd
  3
"AcAmgDimStd|Product Description: AutoCAD Mechanical 2000|Company: Autodesk"
 90
        0
280
     0
281
     0
  0
CLASS
  1
ACAMGHOLECHARTSTDISO
  2
AcAmgHoleChartStdISO
  3
ACMSYMBB_MODULE_NAME
 90
        0
280
     0
281
     0
  0
CLASS
  1
ACAMGTITLESTD
  2
AcAmgTitleStd
  3
"TITLEAPP"
 90
        0
280
     0
281
     0
  0
CLASS
  1
LAYER_INDEX
  2
AcDbLayerIndex
  3
ObjectDBX Classes
 90
    32768
280
     0
281
     0
  0
CLASS
  1
IDBUFFER
  2
AcDbIdBuffer
  3
ObjectDBX Classes
 90
    32768
280
     0
281
     0
  0
CLASS
  1
DICTIONARYVAR
  2
AcDbDictionaryVar
  3
ObjectDBX Classes
 90
        0
280
     0
281
     0
  0
CLASS
  1
ACAMGFILTERDAT
  2
AcAmgFilterDat
  3
"AcadM|Product Description: AutoCAD Mechanical 2000|Company: Autodesk"
 90
    32768
280
     0
281
     0
  0
CLASS
  1
AMDTFORMULAUPDATEDISPATCHER
  2
AmdtFormulaUpdateDispatcher
  3
AcMeServices
 90
    32768
280
     0
281
     0
  0
CLASS
  1
DIMASSOC
  2
AcDbDimAssoc
  3
"AcDbDimAssoc|Product Desc:     AcDim ARX App For Dimension|Company:          Autodesk, Inc.|WEB Address:      www.autodesk.com"
 90
        0
280
     0
281
     0
  0
CLASS
  1
AMDTNOTE
  2
AmdtNote
  3
"AcmSymBB|Product Description: AutoCAD Mechanical 2004 DX|Company: Autodesk"
 90
     1023
280
     0
281
     1
  0
CLASS
  1
TABLESTYLE
  2
AcDbTableStyle
  3
ObjectDBX Classes
 90
     2047
280
     0
281
     0
  0
CLASS
  1
AM_DRAWING_MGR
  2
AcDmDwgMgr
  3
AcMechDwgViewMgmt
 90
        0
280
     0
281
     0
  0
CLASS
  1
AM_DWG_DOCUMENT
  2
AcDmDwgDocument
  3
AcMechDwgViewMgmt
 90
        0
280
     0
281
     0
  0
CLASS
  1
AM_DWG_SHEET
  2
AcDmSheet
  3
AcMechDwgViewMgmt
 90
        0
280
     0
281
     0
  0
CLASS
  1
AM_VIEWDIMPARMAP
  2
AcDmViewDimParMap
  3
AcMechDwgViewMgmt
 90
        0
280
     0
281
     0
  0
CLASS
  1
AM_DWGMGR_NAME
  2
AcDmDwgMgrName
  3
AcMechDwgViewMgmt
 90
        0
280
     0
281
     0
  0
CLASS
  1
AMDTMENUSTATEMGR
  2
AmdtMenuStateMgr
  3
McadcomServices
 90
        0
280
     0
281
     0
  0
CLASS
  1
AMDTMCOMMENUSTATE
  2
AmdtMcomMenuState
  3
McadcomServices
 90
        0
280
     0
281
     0
  0
CLASS
  1
MAPIAMMOUDLE
  2
MApiAmModule
  3
MApiAmServices
 90
        0
280
     0
281
     0
  0
CLASS
  1
AMDTADMENUSTATE
  2
AmdtAdMenuState
  3
DesignerServices
 90
        0
280
     0
281
     0
  0
CLASS
  1
ADAPPL
  2
AcAdAppl
  3
DesignerServices
 90
        0
280
     0
281
     0
  0
CLASS
  1
DEPMGR
  2
AcAdDepMgr
  3
DesignerServices
 90
        0
280
     0
281
     0
  0
CLASS
  1
PARAMMGR
  2
AcAdParamMgr
  3
DesignerServices
 90
        0
280
     0
281
     0
  0
CLASS
  1
PARAMSCOPE
  2
AcAdParamScope
  3
DesignerServices
 90
        0
280
     0
281
     0
  0
CLASS
  1
NAMEDAPPL
  2
AcAdNamedAppl
  3
DesignerServices
 90
        0
280
     0
281
     0
  0
CLASS
  1
AMDTDMMENUSTATE
  2
AmdtDmMenuState
  3
AcMechDwgViewMgmt
 90
        0
280
     0
281
     0
  0
CLASS
  1
AMDTAMMENUSTATE
  2
AmdtAmMenuState
  3
DesignerAssemblies
 90
        0
280
     0
281
     0
  0
CLASS
  1
ACAMPROJECT
  2
AcAmProject
  3
DesignerAssemblies
 90
        0
280
     0
281
     0
  0
CLASS
  1
ACAMGRCOMPDEF
  2
AcAmGrCompDef
  3
DesignerAssemblies
 90
        0
280
     0
281
     0
  0
CLASS
  1
ACCMCONTEXT
  2
AcCmContext
  3
DesignerAssemblies
 90
        0
280
     0
281
     0
  0
CLASS
  1
ACAMCOMPDEF
  2
AcAmCompDef
  3
DesignerAssemblies
 90
        0
280
     0
281
     0
  0
CLASS
  1
ACAMCOMPDEFMGR
  2
AcAmCompDefMgr
  3
DesignerAssemblies
 90
        0
280
     0
281
     0
  0
CLASS
  1
AMCONTEXTMGR
  2
AcAmContextMgr
  3
DesignerAssemblies
 90
        0
280
     0
281
     0
  0
CLASS
  1
ACAMCONTEXTMODELER
  2
AcAmContextModeler
  3
DesignerAssemblies
 90
        0
280
     0
281
     0
  0
CLASS
  1
ACMTHREADLINESTANDARDISO
  2
AmdtThreadLineStdISO
  3
"Amdt_StdImp|Product Description: AutoCAD Mechanical 2004 DX|Company: Autodesk"
 90
        0
280
     0
281
     0
  0
CLASS
  1
CATALOGSTATE
  2
AcAmCatalogState
  3
DesignerAssemblies
 90
        0
280
     0
281
     0
  0
CLASS
  1
ACAMGRCOMPDEFSET
  2
AcAmGrCompDefSet
  3
DesignerAssemblies
 90
        0
280
     0
281
     0
  0
CLASS
  1
AMDTBROWSERDBTAB
  2
AmdtBrowserDbTab
  3
McadcomServices
 90
        0
280
     0
281
     0
  0
CLASS
  1
CBROWSERAPPOBJECT
  2
CBrowserAppObject
  3
McadcomServices
 90
        0
280
     0
281
     0
  0
CLASS
  1
DM_PLACEHOLDER
  2
AcDmSelsetPlaceholder
  3
AcMechDwgViewMgmt
 90
        0
280
     0
281
     0
  0
CLASS
  1
VAACXREFPANELOBJECT
  2
VaAcXREFPanelObject
  3
VAAC_ADDIN
 90
    32768
280
     0
281
     0
  0
CLASS
  1
VAACIMAGEINVENTORY
  2
VaAcImageInventory
  3
VAAC_ADDIN
 90
    32768
280
     0
281
     0
  0
CLASS
  1
AMDTEDGESTANDARDISO13715
  2
AmdtEdgeStdISO13715
  3
"Amdt_StdImp|Product Description: AutoCAD Mechanical 2004 DX|Company: Autodesk"
 90
        0
280
     0
281
     0
  0
CLASS
  1
AMDTNOTETEMPLATEDB
  2
AmdtNoteTemplateDB
  3
AMDT_STDIMP_MODULE_NAME
 90
        0
280
     0
281
     0
  0
CLASS
  1
ACRFATTGENMGR
  2
AcRfAttGeneralMgr
  3
AcAttribServices
 90
        0
280
     0
281
     0
  0
CLASS
  1
SORTENTSTABLE
  2
AcDbSortentsTable
  3
ObjectDBX Classes
 90
        0
280
     0
281
     0
  0
CLASS
  1
STDPART2D
  2
AmgStdPart
  3
"AmgStdPart|Product Description: AutoCAD Mechanical 2000|Company: Autodesk"
 90
    33791
280
     0
281
     1
  0
CLASS
  1
ACAMSTDPCOMPDEF
  2
AcAmStdpCompDef
  3
DesignerAssemblies
 90
    32768
280
     0
281
     0
  0
CLASS
  1
ACRFOBJATTMGR
  2
AcRfObjAttGroupMgr
  3
AcAttribServices
 90
    32768
280
     0
281
     0
  0
CLASS
  1
ACRFMCADAPIATTHOLDER
  2
AcRfMCADAPIAttHolder
  3
AcAttribServices
 90
    32768
280
     0
281
     0
  0
CLASS
  1
AMDTSYSATTR
  2
AmdtSystemAttribute
  3
AcAttribServices
 90
    32768
280
     0
281
     0
  0
CLASS
  1
ACAMCOMP
  2
AcAmComp
  3
DesignerAssemblies
 90
    32768
280
     0
281
     0
  0
CLASS
  1
AC_AM_STDP_VIEW_DEF
  2
AcAmStdpViewDef
  3
DesignerAssemblies
 90
    32768
280
     0
281
     0
  0
CLASS
  1
AC_AM_MVD_DEP_MGR
  2
AcAmMVDdepMgr
  3
DesignerAssemblies
 90
        0
280
     0
281
     0
  0
CLASS
  1
AC_AM_MASTER_VIEW_DEF
  2
AcAmMasterViewDef
  3
DesignerAssemblies
 90
        0
280
     0
281
     0
  0
CLASS
  1
AC_AM_DIRTY_NODES
  2
AcAmDirtyNodes
  3
DesignerAssemblies
 90
        0
280
     0
281
     0
  0
CLASS
  1
AC_AM_MAPPER_CACHE
  2
AcAmMapperCache
  3
DesignerAssemblies
 90
        0
280
     0
281
     0
  0
CLASS
  1
ACAMMVDBACKUPOBJECT
  2
AcAmMVDBackupObject
  3
DesignerAssemblies
 90
        0
280
     0
281
     0
  0
CLASS
  1
AC_AM_COMP_VIEW_INST
  2
AcAmCompView
  3
DesignerAssemblies
 90
    32768
280
     0
281
     0
  0
CLASS
  1
AC_AM_2D_XREF_MGR
  2
AcAmXrefMgr2d
  3
DesignerAssemblies
 90
        0
280
     0
281
     0
  0
ENDSEC
  0
SECTION
  2
TABLES
  0
TABLE
  2
VPORT
  5
8
330
0
100
AcDbSymbolTable
 70
     3
  0
VPORT
  5
287C
330
8
100
AcDbSymbolTableRecord
100
AcDbViewportTableRecord
  2
*Active
 70
     0
 10
0.0
 20
0.0
 11
1.0
 21
1.0
 12
371.2635224831351
 22
266.9230524763791
 13
0.0
 23
0.0
 14
2.5
 24
2.5
 15
10.0
 25
10.0
 16
0.0
 26
0.0
 36
1.0
 17
0.0
 27
0.0
 37
0.0
 40
289.2916552783286
 41
1.81766917293233
 42
50.0
 43
0.0
 44
0.0
 50
0.0
 51
0.0
 71
     0
 72
   100
 73
     1
 74
     3
 75
     0
 76
     0
 77
     0
 78
     0
281
     0
 65
     1
110
0.0
120
0.0
130
0.0
111
1.0
121
0.0
131
0.0
112
0.0
122
1.0
132
0.0
 79
     0
146
0.0
  0
ENDTAB
  0
TABLE
  2
LTYPE
  5
5
330
0
100
AcDbSymbolTable
 70
    14
  0
LTYPE
  5
14
330
5
100
AcDbSymbolTableRecord
100
AcDbLinetypeTableRecord
  2
ByBlock
 70
     0
  3

 72
    65
 73
     0
 40
0.0
  0
LTYPE
  5
15
330
5
100
AcDbSymbolTableRecord
100
AcDbLinetypeTableRecord
  2
ByLayer
 70
     0
  3

 72
    65
 73
     0
 40
0.0
  0
LTYPE
  5
16
330
5
100
AcDbSymbolTableRecord
100
AcDbLinetypeTableRecord
  2
Continuous
 70
     0
  3
Solid line
 72
    65
 73
     0
 40
0.0
  0
LTYPE
  5
4D
330
5
100
AcDbSymbolTableRecord
100
AcDbLinetypeTableRecord
  2
AM_ISO02W050
 70
     0
  3
__ __ __ __ __ __ __ __ __ __ __ __ __ __ __
 72
    65
 73
     2
 40
7.5
 49
6.0
 74
     0
 49
-1.5
 74
     0
  0
LTYPE
  5
4E
330
5
100
AcDbSymbolTableRecord
100
AcDbLinetypeTableRecord
  2
AM_ISO08W050
 70
     0
  3
____ . ____ . ____ . ____ . ____ . ____ . ____
 72
    65
 73
     4
 40
18.0
 49
12.0
 74
     0
 49
-1.5
 74
     0
 49
3.0
 74
     0
 49
-1.5
 74
     0
  0
LTYPE
  5
4F
330
5
100
AcDbSymbolTableRecord
100
AcDbLinetypeTableRecord
  2
AM_ISO09W050
 70
     0
  3
_____ . . _____ . . _____ . . ____ .. ____
 72
    65
 73
     6
 40
22.5
 49
12.0
 74
     0
 49
-1.5
 74
     0
 49
3.0
 74
     0
 49
-1.5
 74
     0
 49
3.0
 74
     0
 49
-1.5
 74
     0
  0
LTYPE
  5
50
330
5
100
AcDbSymbolTableRecord
100
AcDbLinetypeTableRecord
  2
Amconstr
 70
     0
  3
_______________________
 72
    65
 73
     2
 40
9999.0
 49
9999.0
 74
     0
 49
0.0
 74
     0
  0
LTYPE
  5
51
330
5
100
AcDbSymbolTableRecord
100
AcDbLinetypeTableRecord
  2
AM_ISO08W050x2
 70
     0
  3
__ . __ . __ . __ . __ . __
 72
    65
 73
     4
 40
9.0
 49
6.0
 74
     0
 49
-0.75
 74
     0
 49
1.5
 74
     0
 49
-0.75
 74
     0
  0
LTYPE
  5
52
330
5
100
AcDbSymbolTableRecord
100
AcDbLinetypeTableRecord
  2
AM_ISO02W050x2
 70
     0
  3
 _ _ _ _ _ _ _ _ _ _ _ _
 72
    65
 73
     2
 40
3.75
 49
3.0
 74
     0
 49
-0.75
 74
     0
  0
LTYPE
  5
55
330
5
100
AcDbSymbolTableRecord
100
AcDbLinetypeTableRecord
  2
Amzigzag
 70
     0
  3
/\/-/\/-/\/-/\/-/\/-/\/
 72
    65
 73
     2
 40
11.0001
 49
0.0001
 74
     4
 75
   135
340
54
 46
0.04
 50
0.0
 44
0.0
 45
0.0
 49
-11.0
 74
     0
  0
LTYPE
  5
63
330
5
100
AcDbSymbolTableRecord
100
AcDbLinetypeTableRecord
  2
ACISOWELD
 70
     0
  3
_ _ _ _ _
 72
    65
 73
     2
 40
2.0
 49
2.0
 74
     0
 49
-1.0
 74
     0
  0
LTYPE
  5
64
330
5
100
AcDbSymbolTableRecord
100
AcDbLinetypeTableRecord
  2
ACISOTGB
 70
     0
  3
__ . . __ . .
 72
    65
 73
     6
 40
9.0
 49
4.0
 74
     0
 49
-1.0
 74
     0
 49
1.0
 74
     0
 49
-1.0
 74
     0
 49
1.0
 74
     0
 49
-1.0
 74
     0
  0
LTYPE
  5
65
330
5
100
AcDbSymbolTableRecord
100
AcDbLinetypeTableRecord
  2
ACISOTGL
 70
     0
  3
_ _ _ _ _
 72
    65
 73
     2
 40
3.0
 49
2.0
 74
     0
 49
-1.0
 74
     0
  0
LTYPE
  5
68
330
5
100
AcDbSymbolTableRecord
100
AcDbLinetypeTableRecord
  2
CENTER
 70
     0
  3
__ . __
 72
    65
 73
     4
 40
7.0
 49
4.0
 74
     0
 49
-1.0
 74
     0
 49
1.0
 74
     0
 49
-1.0
 74
     0
  0
LTYPE
  5
806
330
5
100
AcDbSymbolTableRecord
100
AcDbLinetypeTableRecord
  2
HIDDEN
 70
     0
  3
Hidden __ __ __ __ __ __ __ __ __ __ __ __ __ _
 72
    65
 73
     2
 40
9.524999999999998
 49
6.349999999999999
 74
     0
 49
-3.174999999999999
 74
     0
  0
LTYPE
  5
807
330
5
100
AcDbSymbolTableRecord
100
AcDbLinetypeTableRecord
  2
PHANTOM2
 70
     0
  3
Phantom (.5x) ___ _ _ ___ _ _ ___ _ _ ___ _ _
 72
    65
 73
     6
 40
31.75
 49
15.875
 74
     0
 49
-3.174999999999999
 74
     0
 49
3.174999999999999
 74
     0
 49
-3.174999999999999
 74
     0
 49
3.174999999999999
 74
     0
 49
-3.174999999999999
 74
     0
  0
ENDTAB
  0
TABLE
  2
LAYER
  5
2
102
{ACAD_XDICTIONARY
360
AAB
102
}
330
0
100
AcDbSymbolTable
 70
     7
  0
LAYER
  5
10
330
2
100
AcDbSymbolTableRecord
100
AcDbLayerTableRecord
  2
0
 70
     0
 62
     7
  6
Continuous
370
    -3
390
F
  0
LAYER
  5
42A
330
2
100
AcDbSymbolTableRecord
100
AcDbLayerTableRecord
  2
AM_5
 70
     0
 62
     5
  6
Continuous
370
    50
390
F
  0
LAYER
  5
43E
330
2
100
AcDbSymbolTableRecord
100
AcDbLayerTableRecord
  2
Defpoints
 70
     0
 62
     7
  6
Continuous
290
     0
370
    -3
390
F
  0
LAYER
  5
CD5
330
2
100
AcDbSymbolTableRecord
100
AcDbLayerTableRecord
  2
AM_7
 70
     0
 62
     1
  6
CENTER
370
    25
390
F
  0
LAYER
  5
CD6
330
2
100
AcDbSymbolTableRecord
100
AcDbLayerTableRecord
  2
AM_VIS
 70
     0
 62
     7
  6
Continuous
370
    50
390
F
  0
LAYER
  5
CD7
330
2
100
AcDbSymbolTableRecord
100
AcDbLayerTableRecord
  2
AM_4
 70
     0
 62
     3
  6
Continuous
370
    25
390
F
  0
LAYER
  5
135E
330
2
100
AcDbSymbolTableRecord
100
AcDbLayerTableRecord
  2
LOGO
 70
     0
 62
     7
  6
Continuous
370
    -3
390
F
  0
ENDTAB
  0
TABLE
  2
STYLE
  5
3
330
0
100
AcDbSymbolTable
 70
     6
  0
STYLE
  5
11
330
3
100
AcDbSymbolTableRecord
100
AcDbTextStyleTableRecord
  2
STANDARD
 70
     0
 40
0.0
 41
1.0
 50
0.0
 71
     0
 42
3.5
  3
ISOCP.SHX
  4
CHINESET.SHX
  0
STYLE
  5
54
330
3
100
AcDbSymbolTableRecord
100
AcDbTextStyleTableRecord
  2

 70
     1
 40
0.0
 41
1.0
 50
0.0
 71
     0
 42
2.5
  3
ltypeshp.shx
  4

  0
STYLE
  5
56
330
3
100
AcDbSymbolTableRecord
100
AcDbTextStyleTableRecord
  2
ACISOTS
 70
     0
 40
1.0
 41
1.0
 50
0.0
 71
     0
 42
2.5
  3
isocp.shx
  4
chineset.shx
  0
STYLE
  5
62
330
3
100
AcDbSymbolTableRecord
100
AcDbTextStyleTableRecord
  2
ACISOGDT
 70
     0
 40
0.0
 41
1.0
 50
0.0
 71
     0
 42
3.5
  3
amgdt.shx
  4

  0
STYLE
  5
1360
330
3
100
AcDbSymbolTableRecord
100
AcDbTextStyleTableRecord
  2
CHINESET
 70
     0
 40
0.0
 41
1.0
 50
0.0
 71
     0
 42
4.0
  3
simplex.shx
  4
chineset.shx
  0
ENDTAB
  0
TABLE
  2
VIEW
  5
6
330
0
100
AcDbSymbolTable
 70
     0
  0
ENDTAB
  0
TABLE
  2
UCS
  5
7
330
0
100
AcDbSymbolTable
 70
     0
  0
ENDTAB
  0
TABLE
  2
APPID
  5
9
330
0
100
AcDbSymbolTable
 70
    27
  0
APPID
  5
12
330
9
100
AcDbSymbolTableRecord
100
AcDbRegAppTableRecord
  2
ACAD
 70
     0
  0
APPID
  5
30
330
9
100
AcDbSymbolTableRecord
100
AcDbRegAppTableRecord
  2
MCAD_NO_VIS
 70
     0
  0
APPID
  5
31
330
9
100
AcDbSymbolTableRecord
100
AcDbRegAppTableRecord
  2
ACAD_TEMP_GRAPHIC
 70
     0
  0
APPID
  5
42
330
9
100
AcDbSymbolTableRecord
100
AcDbRegAppTableRecord
  2
ACATTRIBSERVICES
 70
     0
  0
APPID
  5
20A
330
9
100
AcDbSymbolTableRecord
100
AcDbRegAppTableRecord
  2
GENIUS_GENODEF_13
 70
     0
  0
APPID
  5
20B
330
9
100
AcDbSymbolTableRecord
100
AcDbRegAppTableRecord
  2
GENIUS_GENOBJ-N-HTC_13
 70
     0
  0
APPID
  5
20C
330
9
100
AcDbSymbolTableRecord
100
AcDbRegAppTableRecord
  2
GENIUS_GENHATCH_13
 70
     0
  0
APPID
  5
809
330
9
100
AcDbSymbolTableRecord
100
AcDbRegAppTableRecord
  2
AD_DRAW
 70
     0
  0
APPID
  5
827
330
9
100
AcDbSymbolTableRecord
100
AcDbRegAppTableRecord
  2
DESIGNERASSEMBLIES
 70
     0
  0
APPID
  5
82C
330
9
100
AcDbSymbolTableRecord
100
AcDbRegAppTableRecord
  2
ACADM_DIM_EDIT
 70
     0
  0
APPID
  5
82D
330
9
100
AcDbSymbolTableRecord
100
AcDbRegAppTableRecord
  2
AMDT_DM_ADJ
 70
     0
  0
APPID
  5
FE4
330
9
100
AcDbSymbolTableRecord
100
AcDbRegAppTableRecord
  2
GENIUS_GENDTOL_13
 70
     0
  0
APPID
  5
108C
330
9
100
AcDbSymbolTableRecord
100
AcDbRegAppTableRecord
  2
ACAD_DSTYLE_DIMTEXT_FILL
 70
     0
  0
APPID
  5
1201
330
9
100
AcDbSymbolTableRecord
100
AcDbRegAppTableRecord
  2
GEVID1116400677
 70
     0
  0
APPID
  5
1202
330
9
100
AcDbSymbolTableRecord
100
AcDbRegAppTableRecord
  2
GEVDC
 70
     0
  0
APPID
  5
1203
330
9
100
AcDbSymbolTableRecord
100
AcDbRegAppTableRecord
  2
GEVRADREF
 70
     0
  0
APPID
  5
120C
330
9
100
AcDbSymbolTableRecord
100
AcDbRegAppTableRecord
  2
AMG_2DHIDE
 70
     0
  0
APPID
  5
120D
330
9
100
AcDbSymbolTableRecord
100
AcDbRegAppTableRecord
  2
AMG_2DSTRUCT_BTR
 70
     0
  0
APPID
  5
121E
330
9
100
AcDbSymbolTableRecord
100
AcDbRegAppTableRecord
  2
ACADM_2DVIEW_IGN_NOTIFY
 70
     0
  0
APPID
  5
1361
330
9
100
AcDbSymbolTableRecord
100
AcDbRegAppTableRecord
  2
GENIUS_GENREC_14
 70
     0
  0
APPID
  5
1362
330
9
100
AcDbSymbolTableRecord
100
AcDbRegAppTableRecord
  2
GENIUS_GENOBJ-N-REC_13
 70
     0
  0
APPID
  5
1D75
330
9
100
AcDbSymbolTableRecord
100
AcDbRegAppTableRecord
  2
GENIUS_GENOBJ-N-CRS_13
 70
     0
  0
APPID
  5
1D76
330
9
100
AcDbSymbolTableRecord
100
AcDbRegAppTableRecord
  2
GENIUS_GENOENT_13
 70
     0
  0
APPID
  5
1D77
330
9
100
AcDbSymbolTableRecord
100
AcDbRegAppTableRecord
  2
GENIUS_GENOLIS_13
 70
     0
  0
APPID
  5
1D78
330
9
100
AcDbSymbolTableRecord
100
AcDbRegAppTableRecord
  2
GENIUS_GENOREF_13
 70
     0
  0
APPID
  5
1D79
330
9
100
AcDbSymbolTableRecord
100
AcDbRegAppTableRecord
  2
GENIUS_GENOBJ-N-CEN_13
 70
     0
  0
APPID
  5
1D7A
330
9
100
AcDbSymbolTableRecord
100
AcDbRegAppTableRecord
  2
GENIUS_GENCEN_19
 70
     0
  0
ENDTAB
  0
TABLE
  2
DIMSTYLE
  5
A
330
0
100
AcDbSymbolTable
 70
     9
100
AcDbDimStyleTable
 71
     2
340
6B
340
75
  0
DIMSTYLE
105
6B
330
A
100
AcDbSymbolTableRecord
100
AcDbDimStyleTableRecord
  2
AM_ISO
 70
     0
  4
"
 41
3.0
 42
1.0
 43
8.0
 44
1.5
 47
0.1
 48
0.1
 73
     0
 74
     0
 77
     1
 78
     8
 79
     2
140
3.5
141
3.0
143
0.0393701
146
0.71
147
0.8
172
     1
176
   256
177
   256
178
   256
271
     2
272
     2
283
     0
284
     8
340
11
371
    -1
372
    -1
  0
DIMSTYLE
105
6C
330
A
100
AcDbSymbolTableRecord
100
AcDbDimStyleTableRecord
  2
AM_ISO$3
 70
     0
  4
"
 41
3.0
 42
1.0
 43
8.0
 44
1.5
 47
0.1
 48
0.1
 73
     0
 77
     1
 78
     8
 79
     2
140
3.5
141
3.0
143
0.0393701
146
0.71
147
0.8
176
   256
177
   256
178
   256
271
     2
272
     2
283
     0
284
     8
288
     1
289
     0
340
11
371
    -1
372
    -1
  0
DIMSTYLE
105
6D
330
A
100
AcDbSymbolTableRecord
100
AcDbDimStyleTableRecord
  2
AM_ISO$4
 70
     0
  4
"
 41
3.0
 42
1.0
 43
8.0
 44
1.5
 47
0.1
 48
0.1
 73
     0
 77
     1
 78
     8
 79
     2
140
3.5
141
3.0
143
0.0393701
146
0.71
147
0.8
176
   256
177
   256
178
   256
271
     2
272
     2
283
     0
284
     8
288
     1
289
     0
340
11
371
    -1
372
    -1
  0
DIMSTYLE
105
6E
330
A
100
AcDbSymbolTableRecord
100
AcDbDimStyleTableRecord
  2
AM_ISO$6
 70
     0
  4
"
 41
3.0
 42
1.0
 43
8.0
 44
1.5
 47
0.1
 48
0.1
 73
     0
 74
     0
 78
     8
 79
     2
140
3.5
141
3.0
143
0.0393701
146
0.71
147
0.8
172
     1
176
   256
177
   256
178
   256
271
     2
272
     2
283
     0
284
     8
340
11
371
    -1
372
    -1
  0
DIMSTYLE
105
6F
330
A
100
AcDbSymbolTableRecord
100
AcDbDimStyleTableRecord
  2
AM_ISO$7
 70
     0
  4
"
 41
3.0
 42
1.0
 43
8.0
 44
1.5
 47
0.1
 48
0.1
 73
     0
 74
     0
 77
     1
 78
     8
 79
     2
140
5.0
141
3.0
143
0.0393701
146
0.71
147
0.8
172
     1
176
   256
177
   256
178
   256
271
     2
272
     2
283
     0
284
     8
340
11
371
    -1
372
    -1
  0
DIMSTYLE
105
70
330
A
100
AcDbSymbolTableRecord
100
AcDbDimStyleTableRecord
  2
AM_ISO$SF
 70
     0
  4
"
 41
2.5
 42
1.0
 43
10.0
 44
1.0
 47
0.1
 48
0.1
 73
     0
 74
     0
 75
     1
 76
     1
 77
     1
 78
     8
 79
     2
140
3.5
141
0.0
143
0.0393701
146
0.71
147
1.5
172
     1
176
   256
177
   256
178
     2
271
     2
272
     3
274
     4
283
     0
284
     8
340
11
371
    -1
372
    -1
  0
DIMSTYLE
105
75
330
A
100
AcDbSymbolTableRecord
100
AcDbDimStyleTableRecord
  2
AM_ISO$SH
 70
     0
  4
"
 41
2.5
 42
1.0
 43
10.0
 44
1.0
 47
0.1
 48
0.1
 73
     0
 74
     0
 75
     1
 76
     1
 77
     1
 78
     8
 79
     2
140
3.5
141
0.0
143
0.0393701
144
2.0
146
0.71
147
1.5
172
     1
173
     1
176
   256
177
   256
178
     2
271
     2
272
     3
274
     4
283
     0
284
     8
340
11
343
71
371
    -1
372
    -1
  0
DIMSTYLE
105
AAA
102
{ACAD_REACTORS
330
2505
330
2508
330
250B
330
250E
330
2511
330
2514
330
2538
330
253B
330
253E
102
}
330
A
100
AcDbSymbolTableRecord
100
AcDbDimStyleTableRecord
  2
AM_ISO$0
 70
     0
  4
"
 41
3.0
 42
1.0
 43
8.0
 44
1.5
 47
0.1
 48
0.1000000001
 73
     0
 74
     0
 77
     1
 78
     8
 79
     2
140
3.0
141
0.0
143
0.0393701
146
0.71
147
1.0
172
     1
176
   256
177
   256
178
   256
271
     2
272
     2
283
     2
284
     8
340
11
371
    -1
372
    -1
  0
ENDTAB
  0
TABLE
  2
BLOCK_RECORD
  5
1
330
0
100
AcDbSymbolTable
 70
    19
  0
BLOCK_RECORD
  5
1F
102
{ACAD_XDICTIONARY
360
7D
102
}
330
1
100
AcDbSymbolTableRecord
100
AcDbBlockTableRecord
  2
*Model_Space
340
22
  0
BLOCK_RECORD
  5
1B
330
1
100
AcDbSymbolTableRecord
100
AcDbBlockTableRecord
  2
*Paper_Space
340
1E
  0
BLOCK_RECORD
  5
23
330
1
100
AcDbSymbolTableRecord
100
AcDbBlockTableRecord
  2
*Paper_Space0
340
26
  0
BLOCK_RECORD
  5
71
330
1
100
AcDbSymbolTableRecord
100
AcDbBlockTableRecord
  2
GENAXEH
340
0
  0
BLOCK_RECORD
  5
1222
330
1
100
AcDbSymbolTableRecord
100
AcDbBlockTableRecord
  2
*U4
340
0
  0
BLOCK_RECORD
  5
25F3
330
1
100
AcDbSymbolTableRecord
100
AcDbBlockTableRecord
  2
*D5
340
0
  0
BLOCK_RECORD
  5
25FF
330
1
100
AcDbSymbolTableRecord
100
AcDbBlockTableRecord
  2
*D6
340
0
  0
BLOCK_RECORD
  5
260B
330
1
100
AcDbSymbolTableRecord
100
AcDbBlockTableRecord
  2
*D7
340
0
  0
BLOCK_RECORD
  5
2617
330
1
100
AcDbSymbolTableRecord
100
AcDbBlockTableRecord
  2
*D8
340
0
  0
BLOCK_RECORD
  5
2623
330
1
100
AcDbSymbolTableRecord
100
AcDbBlockTableRecord
  2
*D9
340
0
  0
BLOCK_RECORD
  5
262F
330
1
100
AcDbSymbolTableRecord
100
AcDbBlockTableRecord
  2
*D10
340
0
  0
BLOCK_RECORD
  5
263B
330
1
100
AcDbSymbolTableRecord
100
AcDbBlockTableRecord
  2
*D11
340
0
  0
BLOCK_RECORD
  5
2647
330
1
100
AcDbSymbolTableRecord
100
AcDbBlockTableRecord
  2
*D12
340
0
  0
BLOCK_RECORD
  5
2653
330
1
100
AcDbSymbolTableRecord
100
AcDbBlockTableRecord
  2
*D13
340
0
  0
BLOCK_RECORD
  5
285B
330
1
100
AcDbSymbolTableRecord
100
AcDbBlockTableRecord
  2
*S15
340
0
  0
BLOCK_RECORD
  5
2863
330
1
100
AcDbSymbolTableRecord
100
AcDbBlockTableRecord
  2
*S16
340
0
  0
BLOCK_RECORD
  5
286B
330
1
100
AcDbSymbolTableRecord
100
AcDbBlockTableRecord
  2
*S17
340
0
  0
BLOCK_RECORD
  5
2873
330
1
100
AcDbSymbolTableRecord
100
AcDbBlockTableRecord
  2
*S18
340
0
  0
ENDTAB
  0
ENDSEC
  0
SECTION
  2
BLOCKS
  0
BLOCK
  5
20
330
1F
100
AcDbEntity
  8
0
100
AcDbBlockBegin
  2
*Model_Space
 70
     0
 10
0.0
 20
0.0
 30
0.0
  3
*Model_Space
  1

  0
ENDBLK
  5
21
330
1F
100
AcDbEntity
  8
0
100
AcDbBlockEnd
  0
BLOCK
  5
1C
330
1B
100
AcDbEntity
 67
     1
  8
0
100
AcDbBlockBegin
  2
*Paper_Space
 70
     0
 10
0.0
 20
0.0
 30
0.0
  3
*Paper_Space
  1

  0
ENDBLK
  5
1D
330
1B
100
AcDbEntity
 67
     1
  8
0
100
AcDbBlockEnd
  0
BLOCK
  5
24
330
23
100
AcDbEntity
  8
0
100
AcDbBlockBegin
  2
*Paper_Space0
 70
     0
 10
0.0
 20
0.0
 30
0.0
  3
*Paper_Space0
  1

  0
ENDBLK
  5
25
330
23
100
AcDbEntity
  8
0
100
AcDbBlockEnd
  0
BLOCK
  5
73
330
71
100
AcDbEntity
  8
0
100
AcDbBlockBegin
  2
GENAXEH
 70
     0
 10
0.0
 20
0.0
 30
0.0
  3
GENAXEH
  1

  0
LINE
  5
72
330
71
100
AcDbEntity
  8
0
100
AcDbLine
 10
-1.0
 20
0.0
 30
0.0
 11
1.0
 21
0.0
 31
0.0
  0
ENDBLK
  5
74
330
71
100
AcDbEntity
  8
0
100
AcDbBlockEnd
  0
BLOCK
  5
1223
330
1222
100
AcDbEntity
  8
0
100
AcDbBlockBegin
  2
*U4
 70
     1
 10
0.0
 20
0.0
 30
0.0
  3
*U4
  1

  0
ENDBLK
  5
1224
330
1222
100
AcDbEntity
  8
0
100
AcDbBlockEnd
  0
BLOCK
  5
25FD
330
25F3
100
AcDbEntity
  8
0
100
AcDbBlockBegin
  2
*D5
 70
     1
 10
0.0
 20
0.0
 30
0.0
  3
*D5
  1

  0
LINE
  5
277A
330
25F3
100
AcDbEntity
  8
AM_5
100
AcDbLine
 10
424.6964407059575
 20
194.5771590987559
 30
0.0
 11
449.5464407059576
 21
194.5771590987558
 31
0.0
  0
LINE
  5
277B
330
25F3
100
AcDbEntity
  8
AM_5
100
AcDbLine
 10
428.0437995067594
 20
206.8771590987559
 30
0.0
 11
449.5464407059576
 21
206.8771590987559
 31
0.0
  0
LINE
  5
277C
330
25F3
100
AcDbEntity
  8
AM_5
100
AcDbLine
 10
448.0464407059575
 20
197.5771590987558
 30
0.0
 11
448.0464407059575
 21
203.8771590987559
 31
0.0
  0
SOLID
  5
277D
330
25F3
100
AcDbEntity
  8
AM_5
100
AcDbTrace
 10
447.5464407059575
 20
197.5771590987559
 30
0.0
 11
448.5464407059575
 21
197.5771590987558
 31
0.0
 12
448.0464407059575
 22
194.5771590987558
 32
0.0
 13
448.0464407059575
 23
194.5771590987558
 33
0.0
  0
SOLID
  5
277E
330
25F3
100
AcDbEntity
  8
AM_5
100
AcDbTrace
 10
447.5464407059575
 20
203.8771590987559
 30
0.0
 11
448.5464407059575
 21
203.8771590987559
 31
0.0
 12
448.0464407059575
 22
206.8771590987559
 32
0.0
 13
448.0464407059575
 23
206.8771590987559
 33
0.0
  0
MTEXT
  5
277F
330
25F3
100
AcDbEntity
  8
AM_5
100
AcDbMText
 10
445.5461454303669
 20
200.727159098756
 30
0.0
 40
3.0
 41
0.0
 71
     5
 72
     1
  1
\A2;12.3
 11
0.0000000000000001
 21
1.0
 31
0.0
 73
     1
 44
1.0
1001
ACAD
1000
MTEXTBEGIN
1070
    73
1070
     1
1070
    44
1040
1.0
1070
    74
1070
     0
1000
MTEXTEND
  0
POINT
  5
2780
330
25F3
100
AcDbEntity
  8
Defpoints
 62
     0
100
AcDbPoint
 10
423.6964407059575
 20
194.5771590987559
 30
0.0
  0
POINT
  5
2781
330
25F3
100
AcDbEntity
  8
Defpoints
 62
     0
100
AcDbPoint
 10
427.0437995067594
 20
206.8771590987559
 30
0.0
  0
POINT
  5
2782
330
25F3
100
AcDbEntity
  8
Defpoints
 62
     0
100
AcDbPoint
 10
448.0464407059575
 20
206.8771590987559
 30
0.0
  0
ENDBLK
  5
25FE
330
25F3
100
AcDbEntity
  8
0
100
AcDbBlockEnd
  0
BLOCK
  5
2609
330
25FF
100
AcDbEntity
  8
0
100
AcDbBlockBegin
  2
*D6
 70
     1
 10
0.0
 20
0.0
 30
0.0
  3
*D6
  1

  0
LINE
  5
2783
330
25FF
100
AcDbEntity
  8
AM_5
100
AcDbLine
 10
428.0437995067594
 20
206.8771590987559
 30
0.0
 11
449.5464407059576
 21
206.8771590987559
 31
0.0
  0
LINE
  5
2784
330
25FF
100
AcDbEntity
  8
AM_5
100
AcDbLine
 10
438.4238456299861
 20
239.8771590987558
 30
0.0
 11
449.5464407059576
 21
239.8771590987557
 31
0.0
  0
LINE
  5
2785
330
25FF
100
AcDbEntity
  8
AM_5
100
AcDbLine
 10
448.0464407059575
 20
209.8771590987559
 30
0.0
 11
448.0464407059575
 21
236.8771590987558
 31
0.0
  0
SOLID
  5
2786
330
25FF
100
AcDbEntity
  8
AM_5
100
AcDbTrace
 10
447.5464407059575
 20
209.8771590987559
 30
0.0
 11
448.5464407059575
 21
209.8771590987559
 31
0.0
 12
448.0464407059575
 22
206.8771590987559
 32
0.0
 13
448.0464407059575
 23
206.8771590987559
 33
0.0
  0
SOLID
  5
2787
330
25FF
100
AcDbEntity
  8
AM_5
100
AcDbTrace
 10
447.5464407059575
 20
236.8771590987558
 30
0.0
 11
448.5464407059575
 21
236.8771590987558
 31
0.0
 12
448.0464407059575
 22
239.8771590987557
 32
0.0
 13
448.0464407059575
 23
239.8771590987557
 33
0.0
  0
MTEXT
  5
2788
330
25FF
100
AcDbEntity
  8
AM_5
100
AcDbMText
 10
445.5464407059575
 20
223.3771590987559
 30
0.0
 40
3.0
 41
0.0
 71
     5
 72
     1
  1
\A2;33
 11
0.0000000000000001
 21
1.0
 31
0.0
 73
     1
 44
1.0
1001
ACAD
1000
MTEXTBEGIN
1070
    73
1070
     1
1070
    44
1040
1.0
1070
    74
1070
     0
1000
MTEXTEND
  0
POINT
  5
2789
330
25FF
100
AcDbEntity
  8
Defpoints
 62
     0
100
AcDbPoint
 10
427.0437995067594
 20
206.8771590987559
 30
0.0
  0
POINT
  5
278A
330
25FF
100
AcDbEntity
  8
Defpoints
 62
     0
100
AcDbPoint
 10
437.4238456299861
 20
239.8771590987558
 30
0.0
  0
POINT
  5
278B
330
25FF
100
AcDbEntity
  8
Defpoints
 62
     0
100
AcDbPoint
 10
448.0464407059575
 20
239.8771590987557
 30
0.0
  0
ENDBLK
  5
260A
330
25FF
100
AcDbEntity
  8
0
100
AcDbBlockEnd
  0
BLOCK
  5
2615
330
260B
100
AcDbEntity
  8
0
100
AcDbBlockBegin
  2
*D7
 70
     1
 10
0.0
 20
0.0
 30
0.0
  3
*D7
  1

  0
LINE
  5
278C
330
260B
100
AcDbEntity
  8
AM_5
100
AcDbLine
 10
438.4238456299861
 20
239.8771590987558
 30
0.0
 11
449.5464407059576
 21
239.8771590987557
 31
0.0
  0
LINE
  5
278D
330
260B
100
AcDbEntity
  8
AM_5
100
AcDbLine
 10
419.7550920744701
 20
265.8771590987559
 30
0.0
 11
449.5464407059576
 21
265.8771590987559
 31
0.0
  0
LINE
  5
278E
330
260B
100
AcDbEntity
  8
AM_5
100
AcDbLine
 10
448.0464407059575
 20
242.8771590987558
 30
0.0
 11
448.0464407059575
 21
262.8771590987559
 31
0.0
  0
SOLID
  5
278F
330
260B
100
AcDbEntity
  8
AM_5
100
AcDbTrace
 10
447.5464407059575
 20
242.8771590987558
 30
0.0
 11
448.5464407059575
 21
242.8771590987558
 31
0.0
 12
448.0464407059575
 22
239.8771590987557
 32
0.0
 13
448.0464407059575
 23
239.8771590987557
 33
0.0
  0
SOLID
  5
2790
330
260B
100
AcDbEntity
  8
AM_5
100
AcDbTrace
 10
447.5464407059575
 20
262.8771590987559
 30
0.0
 11
448.5464407059575
 21
262.8771590987559
 31
0.0
 12
448.0464407059575
 22
265.8771590987559
 32
0.0
 13
448.0464407059575
 23
265.8771590987559
 33
0.0
  0
MTEXT
  5
2791
330
260B
100
AcDbEntity
  8
AM_5
100
AcDbMText
 10
445.3964407059575
 20
252.8771590987559
 30
0.0
 40
3.0
 41
0.0
 71
     5
 72
     1
  1
\A2;(26)
 11
0.0000000000000001
 21
1.0
 31
0.0
 73
     1
 44
1.0
1001
ACAD
1000
MTEXTBEGIN
1070
    73
1070
     1
1070
    44
1040
1.0
1070
    74
1070
     0
1000
MTEXTEND
  0
POINT
  5
2792
330
260B
100
AcDbEntity
  8
Defpoints
 62
     0
100
AcDbPoint
 10
437.4238456299861
 20
239.8771590987558
 30
0.0
  0
POINT
  5
2793
330
260B
100
AcDbEntity
  8
Defpoints
 62
     0
100
AcDbPoint
 10
418.75509207447
 20
265.8771590987559
 30
0.0
  0
POINT
  5
2794
330
260B
100
AcDbEntity
  8
Defpoints
 62
     0
100
AcDbPoint
 10
448.0464407059575
 20
265.8771590987559
 30
0.0
  0
ENDBLK
  5
2616
330
260B
100
AcDbEntity
  8
0
100
AcDbBlockEnd
  0
BLOCK
  5
2621
330
2617
100
AcDbEntity
  8
0
100
AcDbBlockBegin
  2
*D8
 70
     1
 10
0.0
 20
0.0
 30
0.0
  3
*D8
  1

  0
LINE
  5
2795
330
2617
100
AcDbEntity
  8
AM_5
100
AcDbLine
 10
424.6232174012542
 20
194.5771590987559
 30
0.0
 11
459.5464407059576
 21
194.5771590987558
 31
0.0
  0
LINE
  5
2796
330
2617
100
AcDbEntity
  8
AM_5
100
AcDbLine
 10
419.7550920744701
 20
265.8771590987559
 30
0.0
 11
459.5464407059576
 21
265.8771590987559
 31
0.0
  0
LINE
  5
2797
330
2617
100
AcDbEntity
  8
AM_5
100
AcDbLine
 10
458.0464407059576
 20
197.5771590987558
 30
0.0
 11
458.0464407059576
 21
262.8771590987559
 31
0.0
  0
SOLID
  5
2798
330
2617
100
AcDbEntity
  8
AM_5
100
AcDbTrace
 10
457.5464407059576
 20
197.5771590987558
 30
0.0
 11
458.5464407059576
 21
197.5771590987558
 31
0.0
 12
458.0464407059576
 22
194.5771590987558
 32
0.0
 13
458.0464407059576
 23
194.5771590987558
 33
0.0
  0
SOLID
  5
2799
330
2617
100
AcDbEntity
  8
AM_5
100
AcDbTrace
 10
457.5464407059576
 20
262.8771590987559
 30
0.0
 11
458.5464407059576
 21
262.8771590987559
 31
0.0
 12
458.0464407059576
 22
265.8771590987559
 32
0.0
 13
458.0464407059576
 23
265.8771590987559
 33
0.0
  0
MTEXT
  5
279A
330
2617
100
AcDbEntity
  8
AM_5
100
AcDbMText
 10
455.3964407059575
 20
230.2271590987559
 30
0.0
 40
3.0
 41
0.0
 71
     5
 72
     1
  1
\A2;(71.3)
 11
0.0000000000000001
 21
1.0
 31
0.0
 73
     1
 44
1.0
1001
ACAD
1000
MTEXTBEGIN
1070
    73
1070
     1
1070
    44
1040
1.0
1070
    74
1070
     0
1000
MTEXTEND
  0
POINT
  5
279B
330
2617
100
AcDbEntity
  8
Defpoints
 62
     0
100
AcDbPoint
 10
423.6232174012542
 20
194.5771590987559
 30
0.0
  0
POINT
  5
279C
330
2617
100
AcDbEntity
  8
Defpoints
 62
     0
100
AcDbPoint
 10
418.75509207447
 20
265.8771590987559
 30
0.0
  0
POINT
  5
279D
330
2617
100
AcDbEntity
  8
Defpoints
 62
     0
100
AcDbPoint
 10
458.0464407059576
 20
265.8771590987559
 30
0.0
  0
ENDBLK
  5
2622
330
2617
100
AcDbEntity
  8
0
100
AcDbBlockEnd
  0
BLOCK
  5
262D
330
2623
100
AcDbEntity
  8
0
100
AcDbBlockBegin
  2
*D9
 70
     1
 10
0.0
 20
0.0
 30
0.0
  3
*D9
  1

  0
LINE
  5
279E
330
2623
100
AcDbEntity
  8
AM_5
100
AcDbLine
 10
358.5464407059576
 20
227.3771590987559
 30
0.0
 11
358.5464407059576
 21
279.3771590987558
 31
0.0
  0
LINE
  5
279F
330
2623
100
AcDbEntity
  8
AM_5
100
AcDbLine
 10
406.0464407059575
 20
271.2648213150294
 30
0.0
 11
406.0464407059575
 21
279.3771590987558
 31
0.0
  0
LINE
  5
27A0
330
2623
100
AcDbEntity
  8
AM_5
100
AcDbLine
 10
361.5464407059576
 20
277.8771590987558
 30
0.0
 11
403.0464407059575
 21
277.8771590987558
 31
0.0
  0
SOLID
  5
27A1
330
2623
100
AcDbEntity
  8
AM_5
100
AcDbTrace
 10
361.5464407059576
 20
278.3771590987558
 30
0.0
 11
361.5464407059576
 21
277.3771590987558
 31
0.0
 12
358.5464407059576
 22
277.8771590987558
 32
0.0
 13
358.5464407059576
 23
277.8771590987558
 33
0.0
  0
SOLID
  5
27A2
330
2623
100
AcDbEntity
  8
AM_5
100
AcDbTrace
 10
403.0464407059575
 20
278.3771590987558
 30
0.0
 11
403.0464407059575
 21
277.3771590987558
 31
0.0
 12
406.0464407059575
 22
277.8771590987558
 32
0.0
 13
406.0464407059575
 23
277.8771590987558
 33
0.0
  0
MTEXT
  5
27A3
330
2623
100
AcDbEntity
  8
AM_5
100
AcDbMText
 10
382.2964407059576
 20
280.5271590987558
 30
0.0
 40
3.0
 41
0.0
 71
     5
 72
     1
  1
\A2;(47.5)
 73
     1
 44
1.0
1001
ACAD
1000
MTEXTBEGIN
1070
    73
1070
     1
1070
    44
1040
1.0
1070
    74
1070
     0
1000
MTEXTEND
  0
POINT
  5
27A4
330
2623
100
AcDbEntity
  8
Defpoints
 62
     0
100
AcDbPoint
 10
358.5464407059576
 20
226.3771590987559
 30
0.0
  0
POINT
  5
27A5
330
2623
100
AcDbEntity
  8
Defpoints
 62
     0
100
AcDbPoint
 10
406.0464407059575
 20
270.2648213150294
 30
0.0
  0
POINT
  5
27A6
330
2623
100
AcDbEntity
  8
Defpoints
 62
     0
100
AcDbPoint
 10
406.0464407059575
 20
277.8771590987558
 30
0.0
  0
ENDBLK
  5
262E
330
2623
100
AcDbEntity
  8
0
100
AcDbBlockEnd
  0
BLOCK
  5
2639
330
262F
100
AcDbEntity
  8
0
100
AcDbBlockBegin
  2
*D10
 70
     1
 10
0.0
 20
0.0
 30
0.0
  3
*D10
  1

  0
LINE
  5
27A7
330
262F
100
AcDbEntity
  8
AM_5
100
AcDbLine
 10
406.0464407059575
 20
271.2648213150294
 30
0.0
 11
406.0464407059575
 21
279.3771590987559
 31
0.0
  0
LINE
  5
27A8
330
262F
100
AcDbEntity
  8
AM_5
100
AcDbLine
 10
436.0464407059575
 20
247.8771590987559
 30
0.0
 11
436.0464407059575
 21
279.3771590987559
 31
0.0
  0
LINE
  5
27A9
330
262F
100
AcDbEntity
  8
AM_5
100
AcDbLine
 10
409.0464407059576
 20
277.8771590987559
 30
0.0
 11
433.0464407059576
 21
277.8771590987559
 31
0.0
  0
SOLID
  5
27AA
330
262F
100
AcDbEntity
  8
AM_5
100
AcDbTrace
 10
409.0464407059576
 20
278.3771590987559
 30
0.0
 11
409.0464407059576
 21
277.3771590987559
 31
0.0
 12
406.0464407059575
 22
277.8771590987559
 32
0.0
 13
406.0464407059575
 23
277.8771590987559
 33
0.0
  0
SOLID
  5
27AB
330
262F
100
AcDbEntity
  8
AM_5
100
AcDbTrace
 10
433.0464407059576
 20
278.3771590987559
 30
0.0
 11
433.0464407059576
 21
277.3771590987559
 31
0.0
 12
436.0464407059575
 22
277.8771590987559
 32
0.0
 13
436.0464407059575
 23
277.8771590987559
 33
0.0
  0
MTEXT
  5
27AC
330
262F
100
AcDbEntity
  8
AM_5
100
AcDbMText
 10
421.0464407059576
 20
280.3771590987559
 30
0.0
 40
3.0
 41
0.0
 71
     5
 72
     1
  1
\A2;30
 73
     1
 44
1.0
1001
ACAD
1000
MTEXTBEGIN
1070
    73
1070
     1
1070
    44
1040
1.0
1070
    74
1070
     0
1000
MTEXTEND
  0
POINT
  5
27AD
330
262F
100
AcDbEntity
  8
Defpoints
 62
     0
100
AcDbPoint
 10
406.0464407059575
 20
270.2648213150294
 30
0.0
  0
POINT
  5
27AE
330
262F
100
AcDbEntity
  8
Defpoints
 62
     0
100
AcDbPoint
 10
436.0464407059575
 20
246.8771590987559
 30
0.0
  0
POINT
  5
27AF
330
262F
100
AcDbEntity
  8
Defpoints
 62
     0
100
AcDbPoint
 10
436.0464407059575
 20
277.8771590987559
 30
0.0
  0
ENDBLK
  5
263A
330
262F
100
AcDbEntity
  8
0
100
AcDbBlockEnd
  0
BLOCK
  5
2645
330
263B
100
AcDbEntity
  8
0
100
AcDbBlockBegin
  2
*D11
 70
     1
 10
0.0
 20
0.0
 30
0.0
  3
*D11
  1

  0
LINE
  5
27B0
330
263B
100
AcDbEntity
  8
AM_5
100
AcDbLine
 10
293.1316936446265
 20
370.2414243883597
 30
0.0
 11
293.1316936446265
 21
381.7414253883598
 31
0.0
  0
LINE
  5
27B1
330
263B
100
AcDbEntity
  8
AM_5
100
AcDbLine
 10
318.1316936446265
 20
370.2414243883597
 30
0.0
 11
318.1316936446265
 21
381.7414253883598
 31
0.0
  0
LINE
  5
27B2
330
263B
100
AcDbEntity
  8
AM_5
100
AcDbLine
 10
296.1316936446264
 20
380.2414253883599
 30
0.0
 11
315.1316936446264
 21
380.2414253883599
 31
0.0
  0
SOLID
  5
27B3
330
263B
100
AcDbEntity
  8
AM_5
100
AcDbTrace
 10
296.1316936446264
 20
380.7414253883599
 30
0.0
 11
296.1316936446264
 21
379.7414253883598
 31
0.0
 12
293.1316936446265
 22
380.2414253883599
 32
0.0
 13
293.1316936446265
 23
380.2414253883599
 33
0.0
  0
SOLID
  5
27B4
330
263B
100
AcDbEntity
  8
AM_5
100
AcDbTrace
 10
315.1316936446264
 20
380.7414253883599
 30
0.0
 11
315.1316936446264
 21
379.7414253883598
 31
0.0
 12
318.1316936446265
 22
380.2414253883599
 32
0.0
 13
318.1316936446265
 23
380.2414253883599
 33
0.0
  0
MTEXT
  5
27B5
330
263B
100
AcDbEntity
  8
AM_5
100
AcDbMText
 10
305.6316936446265
 20
382.7417206639504
 30
0.0
 40
3.0
 41
0.0
 71
     5
 72
     1
  1
\A2;25
 73
     1
 44
1.0
1001
ACAD
1000
MTEXTBEGIN
1070
    73
1070
     1
1070
    44
1040
1.0
1070
    74
1070
     0
1000
MTEXTEND
  0
POINT
  5
27B6
330
263B
100
AcDbEntity
  8
Defpoints
 62
     0
100
AcDbPoint
 10
293.1316936446265
 20
369.2414243883598
 30
0.0
  0
POINT
  5
27B7
330
263B
100
AcDbEntity
  8
Defpoints
 62
     0
100
AcDbPoint
 10
318.1316936446265
 20
369.2414243883598
 30
0.0
  0
POINT
  5
27B8
330
263B
100
AcDbEntity
  8
Defpoints
 62
     0
100
AcDbPoint
 10
318.1316936446265
 20
380.2414253883599
 30
0.0
  0
ENDBLK
  5
2646
330
263B
100
AcDbEntity
  8
0
100
AcDbBlockEnd
  0
BLOCK
  5
2651
330
2647
100
AcDbEntity
  8
0
100
AcDbBlockBegin
  2
*D12
 70
     1
 10
0.0
 20
0.0
 30
0.0
  3
*D12
  1

  0
LINE
  5
27B9
330
2647
100
AcDbEntity
  8
AM_5
100
AcDbLine
 10
288.1316936446264
 20
369.2414243883598
 30
0.0
 11
288.1316936446264
 21
391.7414253883599
 31
0.0
  0
LINE
  5
27BA
330
2647
100
AcDbEntity
  8
AM_5
100
AcDbLine
 10
323.1316936446265
 20
369.2414243883598
 30
0.0
 11
323.1316936446265
 21
391.7414253883599
 31
0.0
  0
LINE
  5
27BB
330
2647
100
AcDbEntity
  8
AM_5
100
AcDbLine
 10
291.1316936446265
 20
390.2414253883599
 30
0.0
 11
320.1316936446265
 21
390.2414253883599
 31
0.0
  0
SOLID
  5
27BC
330
2647
100
AcDbEntity
  8
AM_5
100
AcDbTrace
 10
291.1316936446265
 20
390.7414253883599
 30
0.0
 11
291.1316936446265
 21
389.7414253883598
 31
0.0
 12
288.1316936446264
 22
390.2414253883599
 32
0.0
 13
288.1316936446264
 23
390.2414253883599
 33
0.0
  0
SOLID
  5
27BD
330
2647
100
AcDbEntity
  8
AM_5
100
AcDbTrace
 10
320.1316936446265
 20
390.7414253883599
 30
0.0
 11
320.1316936446265
 21
389.7414253883598
 31
0.0
 12
323.1316936446265
 22
390.2414253883599
 32
0.0
 13
323.1316936446265
 23
390.2414253883599
 33
0.0
  0
MTEXT
  5
27BE
330
2647
100
AcDbEntity
  8
AM_5
100
AcDbMText
 10
305.6316936446265
 20
392.7414253883599
 30
0.0
 40
3.0
 41
0.0
 71
     5
 72
     1
  1
\A2;35
 73
     1
 44
1.0
1001
ACAD
1000
MTEXTBEGIN
1070
    73
1070
     1
1070
    44
1040
1.0
1070
    74
1070
     0
1000
MTEXTEND
  0
POINT
  5
27BF
330
2647
100
AcDbEntity
  8
Defpoints
 62
     0
100
AcDbPoint
 10
288.1316936446264
 20
368.2414243883597
 30
0.0
  0
POINT
  5
27C0
330
2647
100
AcDbEntity
  8
Defpoints
 62
     0
100
AcDbPoint
 10
323.1316936446265
 20
368.2414243883597
 30
0.0
  0
POINT
  5
27C1
330
2647
100
AcDbEntity
  8
Defpoints
 62
     0
100
AcDbPoint
 10
323.1316936446265
 20
390.2414253883599
 30
0.0
  0
ENDBLK
  5
2652
330
2647
100
AcDbEntity
  8
0
100
AcDbBlockEnd
  0
BLOCK
  5
265D
330
2653
100
AcDbEntity
  8
0
100
AcDbBlockBegin
  2
*D13
 70
     1
 10
0.0
 20
0.0
 30
0.0
  3
*D13
  1

  0
LINE
  5
27C2
330
2653
100
AcDbEntity
  8
AM_5
100
AcDbLine
 10
318.9953868274308
 20
320.5914243883599
 30
0.0
 11
336.6316936446265
 21
320.5914243883599
 31
0.0
  0
LINE
  5
27C3
330
2653
100
AcDbEntity
  8
AM_5
100
AcDbLine
 10
324.1316936446265
 20
355.5914243883599
 30
0.0
 11
336.6316936446265
 21
355.5914243883599
 31
0.0
  0
LINE
  5
27C4
330
2653
100
AcDbEntity
  8
AM_5
100
AcDbLine
 10
335.1316936446265
 20
323.5914243883599
 30
0.0
 11
335.1316936446265
 21
352.5914243883599
 31
0.0
  0
SOLID
  5
27C5
330
2653
100
AcDbEntity
  8
AM_5
100
AcDbTrace
 10
334.6316936446265
 20
323.5914243883599
 30
0.0
 11
335.6316936446265
 21
323.5914243883599
 31
0.0
 12
335.1316936446265
 22
320.5914243883599
 32
0.0
 13
335.1316936446265
 23
320.5914243883599
 33
0.0
  0
SOLID
  5
27C6
330
2653
100
AcDbEntity
  8
AM_5
100
AcDbTrace
 10
334.6316936446265
 20
352.5914243883599
 30
0.0
 11
335.6316936446265
 21
352.5914243883599
 31
0.0
 12
335.1316936446265
 22
355.5914243883599
 32
0.0
 13
335.1316936446265
 23
355.5914243883599
 33
0.0
  0
MTEXT
  5
27C7
330
2653
100
AcDbEntity
  8
AM_5
100
AcDbMText
 10
332.6316936446264
 20
338.0914243883599
 30
0.0
 40
3.0
 41
0.0
 71
     5
 72
     1
  1
\A2;35
 11
0.0000000000000001
 21
1.0
 31
0.0
 73
     1
 44
1.0
1001
ACAD
1000
MTEXTBEGIN
1070
    73
1070
     1
1070
    44
1040
1.0
1070
    74
1070
     0
1000
MTEXTEND
  0
POINT
  5
27C8
330
2653
100
AcDbEntity
  8
Defpoints
 62
     0
100
AcDbPoint
 10
317.9953868274308
 20
320.5914243883599
 30
0.0
  0
POINT
  5
27C9
330
2653
100
AcDbEntity
  8
Defpoints
 62
     0
100
AcDbPoint
 10
323.1316936446265
 20
355.5914243883599
 30
0.0
  0
POINT
  5
27CA
330
2653
100
AcDbEntity
  8
Defpoints
 62
     0
100
AcDbPoint
 10
335.1316936446265
 20
355.5914243883599
 30
0.0
  0
ENDBLK
  5
265E
330
2653
100
AcDbEntity
  8
0
100
AcDbBlockEnd
  0
BLOCK
  5
2860
330
285B
100
AcDbEntity
  8
0
100
AcDbBlockBegin
  2
*S15
 70
     1
 10
0.0
 20
0.0
 30
0.0
  3
*S15
  1

  0
LINE
  5
285C
330
285B
100
AcDbEntity
  8
AM_5
 62
     5
100
AcDbLine
 10
448.4508468673847
 20
180.0665291849016
 30
0.0
 11
430.5651671147556
 21
180.0665291849016
 31
0.0
  0
LINE
  5
285D
330
285B
100
AcDbEntity
  8
AM_5
 62
     5
100
AcDbLine
 10
430.5651671147556
 20
180.0665291849016
 30
0.0
 11
412.4159749526539
 21
200.9118615109016
 31
0.0
  0
TRACE
  5
285E
330
285B
100
AcDbEntity
  8
AM_5
 62
     5
370
    35
100
AcDbTrace
 10
412.7634964924827
 20
201.2144345333981
 30
0.0
 11
412.0684534128251
 21
200.6092884884051
 31
0.0
 12
410.1177046623723
 22
203.5515496880939
 32
0.0
 13
410.1177046623723
 23
203.5515496880939
 33
0.0
  0
MTEXT
  5
285F
330
285B
100
AcDbEntity
  8
AM_5
 62
     2
100
AcDbMText
 10
448.4508468673847
 20
174.3593674115168
 30
0.0
 40
3.5
 41
0.0
 71
     7
 72
     5
  1

  7
ACISOTS
 73
     1
 44
1.0
1001
ACAD
1000
MTEXTBEGIN
1070
    73
1070
     1
1070
    44
1040
1.0
1070
    74
1070
     0
1000
MTEXTEND
  0
ENDBLK
  5
2861
330
285B
100
AcDbEntity
  8
0
100
AcDbBlockEnd
  0
BLOCK
  5
2868
330
2863
100
AcDbEntity
  8
0
100
AcDbBlockBegin
  2
*S16
 70
     1
 10
0.0
 20
0.0
 30
0.0
  3
*S16
  1

  0
LINE
  5
2864
330
2863
100
AcDbEntity
  8
AM_5
 62
     5
100
AcDbLine
 10
347.2591375833048
 20
180.0665291849016
 30
0.0
 11
329.9883830089224
 21
180.0665291849016
 31
0.0
  0
LINE
  5
2865
330
2863
100
AcDbEntity
  8
AM_5
 62
     5
100
AcDbLine
 10
329.9883830089224
 20
180.0665291849016
 30
0.0
 11
311.8391908468207
 21
200.9118615109016
 31
0.0
  0
TRACE
  5
2866
330
2863
100
AcDbEntity
  8
AM_5
 62
     5
370
    35
100
AcDbTrace
 10
312.1867123866495
 20
201.2144345333981
 30
0.0
 11
311.491669306992
 21
200.6092884884051
 31
0.0
 12
309.5409205565392
 22
203.5515496880939
 32
0.0
 13
309.5409205565392
 23
203.5515496880939
 33
0.0
  0
MTEXT
  5
2867
330
2863
100
AcDbEntity
  8
AM_5
 62
     2
100
AcDbMText
 10
347.2591375833048
 20
174.3593674115168
 30
0.0
 40
3.5
 41
0.0
 71
     7
 72
     5
  1

  7
ACISOTS
 73
     1
 44
1.0
1001
ACAD
1000
MTEXTBEGIN
1070
    73
1070
     1
1070
    44
1040
1.0
1070
    74
1070
     0
1000
MTEXTEND
  0
ENDBLK
  5
2869
330
2863
100
AcDbEntity
  8
0
100
AcDbBlockEnd
  0
BLOCK
  5
2870
330
286B
100
AcDbEntity
  8
0
100
AcDbBlockBegin
  2
*S17
 70
     1
 10
0.0
 20
0.0
 30
0.0
  3
*S17
  1

  0
LINE
  5
286C
330
286B
100
AcDbEntity
  8
AM_5
 62
     5
100
AcDbLine
 10
346.037353560905
 20
251.478549060186
 30
0.0
 11
329.9883830089224
 21
251.478549060186
 31
0.0
  0
LINE
  5
286D
330
286B
100
AcDbEntity
  8
AM_5
 62
     5
100
AcDbLine
 10
329.9883830089224
 20
251.478549060186
 30
0.0
 11
323.0292224350052
 21
243.8413441801914
 31
0.0
  0
TRACE
  5
286E
330
286B
100
AcDbEntity
  8
AM_5
 62
     5
370
    35
100
AcDbTrace
 10
322.6886309520044
 20
244.1516973601251
 30
0.0
 11
323.3698139180059
 21
243.5309910002578
 31
0.0
 12
320.6718559816089
 22
241.2542950108864
 32
0.0
 13
320.6718559816089
 23
241.2542950108864
 33
0.0
  0
MTEXT
  5
286F
330
286B
100
AcDbEntity
  8
AM_5
 62
     2
100
AcDbMText
 10
346.037353560905
 20
246.7472325063461
 30
0.0
 40
3.5
 41
0.0
 71
     7
 72
     5
  1

  7
ACISOTS
 73
     1
 44
1.0
1001
ACAD
1000
MTEXTBEGIN
1070
    73
1070
     1
1070
    44
1040
1.0
1070
    74
1070
     0
1000
MTEXTEND
  0
ENDBLK
  5
2871
330
286B
100
AcDbEntity
  8
0
100
AcDbBlockEnd
  0
BLOCK
  5
2878
330
2873
100
AcDbEntity
  8
0
100
AcDbBlockBegin
  2
*S18
 70
     1
 10
0.0
 20
0.0
 30
0.0
  3
*S18
  1

  0
LINE
  5
2874
330
2873
100
AcDbEntity
  8
AM_5
 62
     5
100
AcDbLine
 10
364.1453176113163
 20
242.8219607038165
 30
0.0
 11
380.1942881632989
 21
242.8219607038165
 31
0.0
  0
LINE
  5
2875
330
2873
100
AcDbEntity
  8
AM_5
 62
     5
100
AcDbLine
 10
380.1942881632989
 20
242.8219607038165
 30
0.0
 11
388.3395187622846
 21
236.1458464563755
 31
0.0
  0
TRACE
  5
2876
330
2873
100
AcDbEntity
  8
AM_5
 62
     5
370
    35
100
AcDbTrace
 10
388.0474230315916
 20
235.7894734233069
 30
0.0
 11
388.6316144929775
 21
236.5022194894442
 31
0.0
 12
391.0464407059576
 22
233.9271590987558
 32
0.0
 13
391.0464407059576
 23
233.9271590987558
 33
0.0
  0
MTEXT
  5
2877
330
2873
100
AcDbEntity
  8
AM_5
 62
     2
100
AcDbMText
 10
364.1453176113163
 20
238.0906441499767
 30
0.0
 40
3.5
 41
0.0
 71
     7
 72
     5
  1

  7
ACISOTS
210
0.0
220
0.0
230
-1.0
 11
-1.0
 21
0.0
 31
0.0
 73
     1
 44
1.0
1001
ACAD
1000
MTEXTBEGIN
1070
    73
1070
     1
1070
    44
1040
1.0
1070
    74
1070
     0
1000
MTEXTEND
  0
ENDBLK
  5
2879
330
2873
100
AcDbEntity
  8
0
100
AcDbBlockEnd
  0
ENDSEC
  0
SECTION
  2
ENTITIES
  0
TEXT
  5
13F1
330
1F
100
AcDbEntity
  8
LOGO
 62
     7
100
AcDbText
 10
341.731505184496
 20
144.9117912619376
 30
0.0
 40
4.977945773755655
  1
Order example:
 41
0.8
  7
CHINESET
100
AcDbText
  0
TEXT
  5
13F2
330
1F
100
AcDbEntity
  8
LOGO
 62
     7
100
AcDbText
 10
342.6245898222441
 20
151.9197082145615
 30
0.0
 40
7.466918660633483
  1
訂購代號:
  7
CHINESET
100
AcDbText
  0
LINE
  5
13F3
330
1F
100
AcDbEntity
  8
LOGO
 62
     1
100
AcDbLine
 10
485.09738978709
 20
161.2674412856635
 30
0.0
 11
257.432465594609
 21
161.2674412856635
 31
0.0
  0
LINE
  5
13F5
330
1F
100
AcDbEntity
  8
LOGO
 62
     1
100
AcDbLine
 10
339.5685708615776
 20
123.932847982496
 30
0.0
 11
339.5685708615776
 21
161.2674412856635
 31
0.0
  0
TEXT
  5
13F7
330
1F
100
AcDbEntity
  8
LOGO
  6
Continuous
 62
     5
100
AcDbText
 10
270.8432193313512
 20
131.2671724940893
 30
0.0
 40
5.600188995475112
  1
金器工業股份有限公司
  7
CHINESET
100
AcDbText
  0
TEXT
  5
13F8
330
1F
100
AcDbEntity
  8
LOGO
  6
Continuous
 62
     5
100
AcDbText
 10
260.556780089418
 20
125.665886300643
 30
0.0
 40
3.733459330316741
  1
MINDMAN INDUSTRIAL CO., LTD.
 41
0.85
  7
CHINESET
100
AcDbText
  0
LINE
  5
13F9
330
1F
100
AcDbEntity
  8
LOGO
 62
     1
100
AcDbLine
 10
339.5685708615776
 20
153.8005226250301
 30
0.0
 11
284.8111673502653
 21
153.8005226250301
 31
0.0
  0
LINE
  5
13FA
330
1F
100
AcDbEntity
  8
LOGO
 62
     1
100
AcDbLine
 10
339.5685708615776
 20
146.3336039643964
 30
0.0
 11
284.8111673502653
 21
146.3336039643964
 31
0.0
  0
LINE
  5
13FB
330
1F
100
AcDbEntity
  8
LOGO
 62
     1
100
AcDbLine
 10
339.5685708615776
 20
138.8666853037631
 30
0.0
 11
257.432465594609
 21
138.8666853037631
 31
0.0
  0
LINE
  5
13FC
330
1F
100
AcDbEntity
  8
LOGO
 62
     1
100
AcDbLine
 10
284.8111673502653
 20
138.8666853037631
 30
0.0
 11
284.8111673502653
 21
161.2674412856635
 31
0.0
  0
TEXT
  5
13FD
330
1F
100
AcDbEntity
  8
LOGO
 62
     6
100
AcDbText
 10
320.2796465861942
 20
140.7334149689214
 30
0.0
 40
3.733459330316741
  1
m/m
  7
CHINESET
 72
     1
 11
326.8576463586571
 21
142.6001446340798
 31
0.0
100
AcDbText
 73
     2
  0
TEXT
  5
13FE
330
1F
100
AcDbEntity
  8
LOGO
 62
     6
100
AcDbText
 10
320.2796465861942
 20
155.6672522901885
 30
0.0
 40
3.733459330316741
  1
1 : 1
  7
CHINESET
 72
     1
 11
326.8576463586571
 21
157.5339819553468
 31
0.0
100
AcDbText
 73
     2
  0
LINE
  5
13FF
330
1F
100
AcDbEntity
  8
LOGO
 62
     1
100
AcDbLine
 10
314.6788419927991
 20
138.8666853037631
 30
0.0
 11
314.6788419927991
 21
161.2674412856635
 31
0.0
  0
CIRCLE
  5
1400
330
1F
100
AcDbEntity
  8
LOGO
  6
Continuous
 62
     6
100
AcDbCircle
 10
321.591808916592
 20
150.0750491915415
 30
0.0
 40
2.167734362908618
  0
CIRCLE
  5
1401
330
1F
100
AcDbEntity
  8
LOGO
  6
Continuous
 62
     6
100
AcDbCircle
 10
321.591808916592
 20
150.0750491915415
 30
0.0
 40
1.270100437998669
  0
LINE
  5
1402
330
1F
100
AcDbEntity
  8
LOGO
 62
     6
100
AcDbLine
 10
335.2141031863687
 20
147.9073148286328
 30
0.0
 11
335.2141031863687
 21
152.2427835544503
 31
0.0
  0
LINE
  5
1403
330
1F
100
AcDbEntity
  8
LOGO
 62
     6
100
AcDbLine
 10
328.4183803925395
 20
148.8049487535429
 30
0.0
 11
328.4183803925395
 21
151.3451496295404
 31
0.0
  0
LINE
  5
1404
330
1F
100
AcDbEntity
  8
LOGO
  6
Continuous
 62
     6
100
AcDbLine
 10
328.4183803925395
 20
151.3451496295404
 30
0.0
 11
335.2141031863687
 21
152.2427835544503
 31
0.0
  0
LINE
  5
1405
330
1F
100
AcDbEntity
  8
LOGO
  6
Continuous
 62
     6
100
AcDbLine
 10
328.4183803925395
 20
148.8049487535429
 30
0.0
 11
335.2141031863687
 21
147.9073148286328
 31
0.0
  0
TEXT
  5
1432
330
1F
100
AcDbEntity
  8
LOGO
 62
     6
100
AcDbText
 10
287.8896045748614
 20
155.6690896225361
 30
244.684773994013
 40
3.733459330316741
  1
比例 Scale:
 41
0.9
  7
CHINESET
 72
     4
 11
299.7450046715323
 21
157.5339819553468
 31
244.684773994013
100
AcDbText
  0
TEXT
  5
1433
330
1F
100
AcDbEntity
  8
LOGO
 62
     6
100
AcDbText
 10
289.1946486175569
 20
148.2528507124902
 30
244.684773994013
 40
3.733459330316741
  1
投影 View:
 41
0.9
  7
CHINESET
 72
     4
 11
299.7450046715323
 21
150.0670632947131
 31
244.684773994013
100
AcDbText
  0
TEXT
  5
1434
330
1F
100
AcDbEntity
  8
LOGO
 62
     6
100
AcDbText
 10
289.559660936012
 20
140.7334149689214
 30
244.684773994013
 40
3.733459330316741
  1
單位 Unit:
 41
0.9
  7
CHINESET
 72
     4
 11
299.7450046715323
 21
142.6001446340798
 31
244.684773994013
100
AcDbText
  0
LWPOLYLINE
  5
143D
330
1F
100
AcDbEntity
  8
0
 62
     4
100
AcDbPolyline
 90
        4
 70
     1
 43
0.0
 10
257.4324655946093
 20
161.2674412856635
 10
485.0973897870901
 20
161.2674412856635
 10
485.0973897870901
 20
409.9305901667115
 10
257.4324655946093
 20
409.9305901667115
1001
GENIUS_GENREC_14
1002
{
1000
PYDIR
1011
257.4324655946093
1021
409.9305901667115
1031
0.0
1002
}
1002
{
1000
PXDIR
1011
485.0973897870901
1021
161.2674412856635
1031
0.0
1002
}
1002
{
1000
PORI
1011
257.4324655946093
1021
161.2674412856635
1031
0.0
1002
}
1002
{
1000
PINS
1011
257.4324655946093
1021
161.2674412856635
1031
0.0
1002
}
1002
{
1000
PINS2
1011
485.0973897870901
1021
409.9305901667115
1031
0.0
1002
}
1002
{
1000
C
1070
     1
1002
}
1001
GENIUS_GENODEF_13
1002
{
1000
HIER
1070
     0
1002
}
1002
{
1000
MANEDIT
1070
     0
1002
}
1002
{
1000
NOSEL
1070
     0
1002
}
1002
{
1000
BEHIND
1070
     0
1002
}
1002
{
1000
OTHER
1070
     0
1002
}
1002
{
1000
REACTOR
1002
}
1001
GENIUS_GENOBJ-N-REC_13
1002
{
1000
OWNER
1000
GEN
1002
}
  0
SOLID
  5
143E
330
1F
100
AcDbEntity
  8
LOGO
 62
     5
100
AcDbTrace
 10
261.3059895672779
 20
145.0730300243257
 30
0.0
 11
262.9202394157339
 21
145.073030024325
 31
0.0
 12
269.6555577489481
 22
160.3805716907204
 32
0.0
 13
271.269807597404
 23
160.3805716907192
 33
0.0
  0
SOLID
  5
143F
330
1F
100
AcDbEntity
  8
LOGO
 62
     5
100
AcDbTrace
 10
263.5882048702685
 20
145.0730300243257
 30
0.0
 11
265.2024547187243
 21
145.0730300243257
 31
0.0
 12
271.269807597404
 22
159.1559683574081
 32
0.0
 13
269.6555577489481
 23
153.2370522464019
 33
0.0
  0
SOLID
  5
1440
330
1F
100
AcDbEntity
  8
LOGO
 62
     2
100
AcDbTrace
 10
262.9202394157339
 20
145.073030024325
 30
0.0
 11
263.5882048702685
 21
145.0730300243257
 31
0.0
 12
271.269807597404
 22
160.3805716907192
 32
0.0
 13
271.9377730519381
 23
160.3805716907192
 33
0.0
  0
SOLID
  5
1441
330
1F
100
AcDbEntity
  8
LOGO
 62
     5
100
AcDbTrace
 10
258.7179511976495
 20
139.5066512365464
 30
0.0
 11
259.2745890764283
 21
139.5066512365464
 31
0.0
 12
260.8421246682967
 22
142.2898406304355
 32
0.0
 13
261.3987625470743
 23
142.2898406304355
 33
0.0
  0
SOLID
  5
1442
330
1F
100
AcDbEntity
  8
LOGO
 62
     5
100
AcDbTrace
 10
260.8421246682967
 20
142.2898406304355
 30
0.0
 11
261.3987625470743
 21
142.2898406304355
 31
0.0
 12
260.8421246682967
 22
139.5066512365464
 32
0.0
 13
261.3987625470743
 23
139.5066512365464
 33
0.0
  0
SOLID
  5
1443
330
1F
100
AcDbEntity
  8
LOGO
 62
     5
100
AcDbTrace
 10
260.8421246682967
 20
139.5066512365464
 30
0.0
 11
261.3987625470743
 21
139.5066512365464
 31
0.0
 12
262.9662981389446
 22
142.2898406304355
 32
0.0
 13
263.5229360177219
 23
142.2898406304355
 33
0.0
  0
SOLID
  5
1444
330
1F
100
AcDbEntity
  8
LOGO
 62
     5
100
AcDbTrace
 10
262.9662981389446
 20
142.2898406304355
 30
0.0
 11
263.5229360177219
 21
142.2898406304355
 31
0.0
 12
262.9662981389446
 22
139.5066512365464
 32
0.0
 13
263.5229360177219
 23
139.5066512365464
 33
0.0
  0
POLYLINE
  5
1445
330
1F
100
AcDbEntity
  8
LOGO
 62
     5
100
AcDb2dPolyline
 66
     1
 10
0.0
 20
0.0
 30
0.0
 40
0.5575299266606334
 41
0.5575299266606334
  0
VERTEX
  5
1446
330
1445
100
AcDbEntity
  8
LOGO
 62
     5
100
AcDbVertex
100
AcDb2dVertex
 10
281.624610214499
 20
141.1765648728796
 30
0.0
 42
1.0
  0
VERTEX
  5
1447
330
1445
100
AcDbEntity
  8
LOGO
 62
     5
100
AcDbVertex
100
AcDb2dVertex
 10
279.9520204345168
 20
141.1765648728796
 30
0.0
 42
1.0
  0
SEQEND
  5
1448
330
1445
100
AcDbEntity
  8
LOGO
 62
     5
  0
POLYLINE
  5
1449
330
1F
100
AcDbEntity
  8
LOGO
 62
     5
100
AcDb2dPolyline
 66
     1
 10
0.0
 20
0.0
 30
0.0
 70
     1
  0
VERTEX
  5
144A
330
1449
100
AcDbEntity
  8
LOGO
 62
     5
100
AcDbVertex
100
AcDb2dVertex
 10
276.7991143024568
 20
140.8982459334908
 30
0.0
 42
1.000000057330635
  0
VERTEX
  5
144B
330
1449
100
AcDbEntity
  8
LOGO
 62
     5
100
AcDbVertex
100
AcDb2dVertex
 10
278.469027938791
 20
140.8982459334908
 30
0.0
 42
1.000000057330635
  0
SEQEND
  5
144C
330
1449
100
AcDbEntity
  8
LOGO
 62
     5
  0
CIRCLE
  5
144D
330
1F
100
AcDbEntity
  8
LOGO
 62
     5
100
AcDbCircle
 10
277.6340711206243
 20
140.8982459334908
 30
0.0
 40
0.8349568181669647
  0
POLYLINE
  5
144E
330
1F
100
AcDbEntity
  8
LOGO
 62
     5
100
AcDb2dPolyline
 66
     1
 10
0.0
 20
0.0
 30
0.0
 70
     1
 40
0.5575299266606334
 41
0.5575299266606334
  0
VERTEX
  5
144F
330
144E
100
AcDbEntity
  8
LOGO
 62
     5
100
AcDbVertex
100
AcDb2dVertex
 10
276.5190112673026
 20
140.8982459334908
 30
0.0
 42
1.0
  0
VERTEX
  5
1450
330
144E
100
AcDbEntity
  8
LOGO
 62
     5
100
AcDbVertex
100
AcDb2dVertex
 10
278.7491309739453
 20
140.8982459334908
 30
0.0
 42
1.0
  0
SEQEND
  5
1451
330
144E
100
AcDbEntity
  8
LOGO
 62
     5
  0
LINE
  5
1452
330
1F
100
AcDbEntity
  8
LOGO
 62
     5
100
AcDbLine
 10
281.9015910820635
 20
139.5066512365464
 30
0.0
 11
281.9015910820635
 21
141.1765648728796
 31
0.0
  0
SOLID
  5
1453
330
1F
100
AcDbEntity
  8
LOGO
 62
     5
100
AcDbTrace
 10
278.4689722750044
 20
142.2898406304355
 30
0.0
 11
279.0256101537817
 21
142.2898406304355
 31
0.0
 12
278.4689722750044
 22
139.5066512365464
 32
0.0
 13
279.0256101537817
 23
139.5066512365464
 33
0.0
  0
SOLID
  5
1454
330
1F
100
AcDbEntity
  8
LOGO
 62
     5
100
AcDbTrace
 10
279.6750395669513
 20
139.5066512365464
 30
0.0
 11
280.2316774457299
 21
139.5066512365464
 31
0.0
 12
279.6750395669513
 22
142.2898406304355
 32
0.0
 13
280.2316774457299
 23
142.2898406304355
 33
0.0
  0
SOLID
  5
1455
330
1F
100
AcDbEntity
  8
LOGO
 62
     5
100
AcDbTrace
 10
281.3449532032859
 20
141.1765648728796
 30
0.0
 11
281.9015910820635
 21
141.1765648728796
 31
0.0
 12
281.3449532032859
 22
139.5066512365464
 32
0.0
 13
281.9015910820635
 23
139.5066512365464
 33
0.0
  0
SOLID
  5
1456
330
1F
100
AcDbEntity
  8
LOGO
 62
     5
100
AcDbTrace
 10
279.6193757790736
 20
159.1559683574081
 30
0.0
 11
278.0051259306175
 21
153.2370522464019
 31
0.0
 12
279.6193757790736
 22
145.073030024325
 32
0.0
 13
278.0051259306175
 23
145.073030024325
 33
0.0
  0
SOLID
  5
1457
330
1F
100
AcDbEntity
  8
LOGO
 62
     5
100
AcDbTrace
 10
280.2873412336075
 20
145.073030024325
 30
0.0
 11
281.9015910820635
 21
145.073030024325
 31
0.0
 12
280.2873412336075
 22
160.3805716907192
 32
0.0
 13
281.9015910820635
 23
160.3805716907204
 33
0.0
  0
SOLID
  5
1458
330
1F
100
AcDbEntity
  8
LOGO
 62
     2
100
AcDbTrace
 10
279.6193757790736
 20
160.3805716907204
 30
0.0
 11
280.2873412336075
 21
160.3805716907192
 31
0.0
 12
279.6193757790736
 22
145.073030024325
 32
0.0
 13
280.2873412336075
 23
145.073030024325
 33
0.0
  0
POLYLINE
  5
1459
330
1F
100
AcDbEntity
  8
LOGO
 62
     5
100
AcDb2dPolyline
 66
     1
 10
0.0
 20
0.0
 30
0.0
 40
0.5575299266606334
 41
0.5575299266606334
  0
VERTEX
  5
145A
330
1459
100
AcDbEntity
  8
LOGO
 62
     5
100
AcDbVertex
100
AcDb2dVertex
 10
273.6460968428225
 20
141.1765648728796
 30
0.0
 42
1.0
  0
VERTEX
  5
145B
330
1459
100
AcDbEntity
  8
LOGO
 62
     5
100
AcDbVertex
100
AcDb2dVertex
 10
271.9735070628402
 20
141.1765648728796
 30
0.0
 42
1.0
  0
SEQEND
  5
145C
330
1459
100
AcDbEntity
  8
LOGO
 62
     5
  0
POLYLINE
  5
145D
330
1F
100
AcDbEntity
  8
LOGO
 62
     5
100
AcDb2dPolyline
 66
     1
 10
0.0
 20
0.0
 30
0.0
 40
0.5575299266606334
 41
0.5575299266606334
  0
VERTEX
  5
145E
330
145D
100
AcDbEntity
  8
LOGO
 62
     5
100
AcDbVertex
100
AcDb2dVertex
 10
275.316010479156
 20
141.1765648728796
 30
0.0
 42
1.0
  0
VERTEX
  5
145F
330
145D
100
AcDbEntity
  8
LOGO
 62
     5
100
AcDbVertex
100
AcDb2dVertex
 10
273.6434206991738
 20
141.1765648728796
 30
0.0
 42
1.0
  0
SEQEND
  5
1460
330
145D
100
AcDbEntity
  8
LOGO
 62
     5
  0
POLYLINE
  5
1461
330
1F
100
AcDbEntity
  8
LOGO
 62
     5
100
AcDb2dPolyline
 66
     1
 10
0.0
 20
0.0
 30
0.0
 40
0.5575299266606334
 41
0.5575299266606334
  0
VERTEX
  5
1462
330
1461
100
AcDbEntity
  8
LOGO
 62
     5
100
AcDbVertex
100
AcDb2dVertex
 10
267.3374971074797
 20
141.1765648728796
 30
0.0
 42
1.0
  0
VERTEX
  5
1463
330
1461
100
AcDbEntity
  8
LOGO
 62
     5
100
AcDbVertex
100
AcDb2dVertex
 10
265.6649073274979
 20
141.1765648728796
 30
0.0
 42
1.0
  0
SEQEND
  5
1464
330
1461
100
AcDbEntity
  8
LOGO
 62
     5
  0
SOLID
  5
1465
330
1F
100
AcDbEntity
  8
LOGO
 62
     5
100
AcDbTrace
 10
265.3879264599334
 20
142.2898406304355
 30
0.0
 11
265.9445643387107
 21
142.2898406304355
 31
0.0
 12
265.3879264599334
 22
139.5066512365464
 32
0.0
 13
265.9445643387107
 23
139.5066512365464
 33
0.0
  0
SOLID
  5
1466
330
1F
100
AcDbEntity
  8
LOGO
 62
     5
100
AcDbTrace
 10
267.0578400962669
 20
141.1765648728796
 30
0.0
 11
267.6144779750452
 21
141.1765648728796
 31
0.0
 12
267.0578400962669
 22
139.5066512365464
 32
0.0
 13
267.6144779750452
 23
139.5066512365464
 33
0.0
  0
POLYLINE
  5
1467
330
1F
100
AcDbEntity
  8
LOGO
 62
     5
100
AcDb2dPolyline
 66
     1
 10
0.0
 20
0.0
 30
0.0
 70
     1
 40
0.5575299266606334
 41
0.5575299266606334
  0
VERTEX
  5
1468
330
1467
100
AcDbEntity
  8
LOGO
 62
     5
100
AcDbVertex
100
AcDb2dVertex
 10
268.5404978956261
 20
140.8982459334908
 30
0.0
 42
1.0
  0
VERTEX
  5
1469
330
1467
100
AcDbEntity
  8
LOGO
 62
     5
100
AcDbVertex
100
AcDb2dVertex
 10
270.7706176022686
 20
140.8982459334908
 30
0.0
 42
1.0
  0
SEQEND
  5
146A
330
1467
100
AcDbEntity
  8
LOGO
 62
     5
  0
SOLID
  5
146B
330
1F
100
AcDbEntity
  8
LOGO
 62
     5
100
AcDbTrace
 10
270.4904589033276
 20
143.124797448603
 30
0.0
 11
271.047096782105
 21
143.124797448603
 31
0.0
 12
270.4904589033276
 22
139.5066512365464
 32
0.0
 13
271.047096782105
 23
139.5066512365464
 33
0.0
  0
SOLID
  5
146C
330
1F
100
AcDbEntity
  8
LOGO
 62
     5
100
AcDbTrace
 10
271.696526195276
 20
142.2898406304355
 30
0.0
 11
272.2531640740537
 21
142.2898406304355
 31
0.0
 12
271.696526195276
 22
139.5066512365464
 32
0.0
 13
272.2531640740537
 23
139.5066512365464
 33
0.0
  0
SOLID
  5
146D
330
1F
100
AcDbEntity
  8
LOGO
 62
     5
100
AcDbTrace
 10
273.3664398316096
 20
141.1765648728796
 30
0.0
 11
273.9230777103874
 21
141.1765648728796
 31
0.0
 12
273.3664398316096
 22
139.5066512365464
 32
0.0
 13
273.9230777103874
 23
139.5066512365464
 33
0.0
  0
SOLID
  5
146E
330
1F
100
AcDbEntity
  8
LOGO
 62
     5
100
AcDbTrace
 10
275.0363534679432
 20
141.1765648728796
 30
0.0
 11
275.5929913467205
 21
141.1765648728796
 31
0.0
 12
275.0363534679432
 22
139.5066512365451
 32
0.0
 13
275.5929913467205
 23
139.5066512365451
 33
0.0
  0
SOLID
  5
146F
330
1F
100
AcDbEntity
  8
LOGO
 62
     5
100
AcDbTrace
 10
264.1818591679845
 20
142.6794871455799
 30
0.0
 11
264.7384970467637
 21
142.6794871455799
 31
0.0
 12
264.1818591679845
 22
143.124797448603
 32
0.0
 13
264.7384970467637
 23
143.124797448603
 33
0.0
  0
SOLID
  5
1470
330
1F
100
AcDbEntity
  8
LOGO
 62
     5
100
AcDbTrace
 10
264.1818591679845
 20
142.2898406304355
 30
0.0
 11
264.7384970467637
 21
142.2898406304355
 31
0.0
 12
264.1818591679845
 22
139.5066512365451
 32
0.0
 13
264.7384970467637
 23
139.5066512365464
 33
0.0
  0
SOLID
  5
1471
330
1F
100
AcDbEntity
  8
LOGO
 62
     5
100
AcDbTrace
 10
269.6555577489481
 20
145.0730300243257
 30
0.0
 11
271.269807597404
 21
145.0730300243257
 31
0.0
 12
269.6555577489481
 22
153.2370522464019
 32
0.0
 13
271.269807597404
 23
159.1559683574081
 33
0.0
  0
SOLID
  5
1472
330
1F
100
AcDbEntity
  8
LOGO
 62
     5
100
AcDbTrace
 10
271.9377730519381
 20
160.3805716907192
 30
0.0
 11
273.5520229003942
 21
160.3805716907204
 31
0.0
 12
271.9377730519381
 22
146.2976333576368
 32
0.0
 13
273.5520229003942
 23
152.2165494686429
 33
0.0
  0
SOLID
  5
1473
330
1F
100
AcDbEntity
  8
LOGO
 62
     2
100
AcDbTrace
 10
271.269807597404
 20
160.3805716907192
 30
0.0
 11
271.9377730519381
 21
160.3805716907192
 31
0.0
 12
271.269807597404
 22
145.0730300243257
 32
0.0
 13
271.9377730519381
 23
145.0730300243257
 33
0.0
  0
SOLID
  5
1474
330
1F
100
AcDbEntity
  8
LOGO
 62
     5
100
AcDbTrace
 10
271.9377730519381
 20
146.2976333576368
 30
0.0
 11
273.5520229003942
 21
152.2165494686429
 31
0.0
 12
279.6193757790736
 22
160.3805716907204
 32
0.0
 13
278.0051259306175
 23
160.3805716907204
 33
0.0
  0
SOLID
  5
1475
330
1F
100
AcDbEntity
  8
LOGO
 62
     5
100
AcDbTrace
 10
271.9377730519381
 20
145.0730300243257
 30
0.0
 11
273.5520229003942
 21
145.0730300243257
 31
0.0
 12
279.6193757790736
 22
159.1559683574081
 32
0.0
 13
278.0051259306175
 23
153.2370522464019
 33
0.0
  0
SOLID
  5
1476
330
1F
100
AcDbEntity
  8
LOGO
 62
     2
100
AcDbTrace
 10
271.269807597404
 20
145.0730300243257
 30
0.0
 11
271.9377730519381
 21
145.0730300243257
 31
0.0
 12
279.6193757790736
 22
160.3805716907204
 32
0.0
 13
280.2873412336075
 23
160.3805716907192
 33
0.0
  0
TEXT
  5
1477
330
1F
100
AcDbEntity
  8
0
100
AcDbText
 10
341.1636255623867
 20
125.9190336104966
 30
0.0
 40
3.113203829999999
  1
1050630
 41
0.8
  7
CHINESET
 72
     1
 11
348.8725112366724
 21
125.9190336104966
 31
0.0
100
AcDbText
  0
LINE
  5
1478
330
1F
100
AcDbEntity
  8
LOGO
 62
     1
100
AcDbLine
 10
358.4780299544427
 20
131.3997666431297
 30
0.0
 11
358.478029954443
 21
123.932847982496
 31
0.0
  0
LINE
  5
1479
330
1F
100
AcDbEntity
  8
LOGO
 62
     1
100
AcDbLine
 10
358.4780299544426
 20
131.3997666431297
 30
0.0
 11
339.5685708615776
 21
131.3997666431297
 31
0.0
  0
LWPOLYLINE
  5
14B8
330
1F
100
AcDbEntity
  8
0
 62
     1
100
AcDbPolyline
 90
        4
 70
     1
 43
0.0
 10
257.4324655946093
 20
161.2674412856635
 10
485.0973897870901
 20
161.2674412856635
 10
485.0973897870901
 20
123.932847982496
 10
257.4324655946093
 20
123.932847982496
1001
GENIUS_GENREC_14
1002
{
1000
PYDIR
1011
257.4324655946093
1021
123.932847982496
1031
0.0
1002
}
1002
{
1000
PXDIR
1011
485.0973897870901
1021
161.2674412856635
1031
0.0
1002
}
1002
{
1000
PORI
1011
257.4324655946093
1021
161.2674412856635
1031
0.0
1002
}
1002
{
1000
PINS
1011
257.4324655946093
1021
161.2674412856635
1031
0.0
1002
}
1002
{
1000
PINS2
1011
485.0973897870901
1021
123.932847982496
1031
0.0
1002
}
1002
{
1000
C
1070
     1
1002
}
1001
GENIUS_GENOBJ-N-REC_13
1002
{
1000
OWNER
1000
GEN
1002
}
1001
GENIUS_GENODEF_13
1002
{
1000
HIER
1070
     0
1002
}
1002
{
1000
MANEDIT
1070
     0
1002
}
1002
{
1000
NOSEL
1070
     0
1002
}
1002
{
1000
BEHIND
1070
     0
1002
}
1002
{
1000
OTHER
1070
     0
1002
}
1002
{
1000
REACTOR
1002
}
  0
TEXT
  5
1BDE
330
1F
100
AcDbEntity
  8
LOGO
 62
     6
100
AcDbText
 10
446.6689996260913
 20
133.8817311298881
 30
0.0
 40
4.979220028322794
  1
配管口徑
 41
0.9
  7
CHINESET
 72
     4
 11
455.6782758648379
 21
136.3713411440495
 31
0.0
100
AcDbText
  0
LINE
  5
1BDF
330
1F
100
AcDbEntity
  8
LOGO
 62
     6
100
AcDbLine
 10
468.5361270466243
 20
127.0353035909443
 30
0.0
 11
442.8204246830514
 21
127.0353035909442
 31
0.0
  0
LINE
  5
1BE0
330
1F
100
AcDbEntity
  8
LOGO
 62
     6
100
AcDbLine
 10
468.5361270466243
 20
140.728158668832
 30
0.0
 11
442.8204246830514
 21
140.728158668832
 31
0.0
  0
TEXT
  5
1BE1
330
1F
100
AcDbEntity
  8
LOGO
  6
Continuous
 62
     6
100
AcDbText
 10
447.1424701019988
 20
128.5913098497951
 30
0.0
 40
3.112012517701746
  1
Bore size
 41
0.8
  7
CHINESET
 72
     4
 11
455.6782758648379
 21
130.147316108646
 31
0.0
100
AcDbText
  0
TEXT
  5
1BE2
330
1F
100
AcDbEntity
  8
LOGO
  6
Continuous
 62
     7
100
AcDbText
 10
451.22068857123
 20
148.7488103787619
 30
0.0
 40
6.224025035403493
  1
?A
  7
CHINESET
 72
     1
 11
456.2591850284615
 21
151.8608228964636
 31
0.0
100
AcDbText
 73
     2
  0
LINE
  5
1BE3
330
1F
100
AcDbEntity
  8
LOGO
 62
     6
100
AcDbLine
 10
466.0465170324629
 20
157.5330262644214
 30
0.0
 11
445.3100346972128
 21
157.5330262644214
 31
0.0
  0
LINE
  5
1BE4
330
1F
100
AcDbEntity
  8
LOGO
 62
     6
100
AcDbLine
 10
466.0465170324629
 20
146.3297812006951
 30
0.0
 11
445.3100346972128
 21
146.3297812006951
 31
0.0
  0
TEXT
  5
1C32
330
1F
100
AcDbEntity
  8
LOGO
  6
Continuous
 62
     6
100
AcDbText
 10
407.6927080908345
 20
128.5913098497951
 30
0.0
 40
3.112012517701746
  1
Model
  7
CHINESET
 72
     4
 11
413.6203509816949
 21
130.147316108646
 31
0.0
100
AcDbText
  0
TEXT
  5
1C33
330
1F
100
AcDbEntity
  8
LOGO
  6
Continuous
 62
     7
100
AcDbText
 10
395.3202360541997
 20
148.8193912148565
 30
0.0
 40
6.224025035403493
  1
MAR200
  7
CHINESET
 72
     1
 11
413.2513557990526
 21
151.9314037325582
 31
0.0
100
AcDbText
 73
     2
  0
LINE
  5
1C34
330
1F
100
AcDbEntity
  8
LOGO
 62
     6
100
AcDbLine
 10
436.3069099021523
 20
157.5330262644214
 30
0.0
 11
390.9337920612374
 21
157.5330262644214
 31
0.0
  0
LINE
  5
1C35
330
1F
100
AcDbEntity
  8
LOGO
 62
     6
100
AcDbLine
 10
436.3069099021523
 20
146.3297812006951
 30
0.0
 11
390.9337920612374
 21
146.3297812006951
 31
0.0
  0
LINE
  5
1C36
330
1F
100
AcDbEntity
  8
LOGO
 62
     6
100
AcDbLine
 10
426.0684010525019
 20
140.728158668832
 30
0.0
 11
401.1723009108879
 21
140.728158668832
 31
0.0
  0
LINE
  5
1C37
330
1F
100
AcDbEntity
  8
LOGO
 62
     6
100
AcDbLine
 10
426.0684010525019
 20
127.0353035909442
 30
0.0
 11
401.1723009108879
 21
127.0353035909442
 31
0.0
  0
LINE
  5
1C3C
330
1F
100
AcDbEntity
  8
LOGO
 62
     6
100
AcDbLine
 10
401.1723009108879
 20
140.728158668832
 30
0.0
 11
401.1723009108879
 21
127.0353035909442
 31
0.0
  0
LINE
  5
1C3D
330
1F
100
AcDbEntity
  8
LOGO
 62
     6
100
AcDbLine
 10
390.9337920612374
 20
157.5330262644214
 30
0.0
 11
390.9337920612374
 21
146.3297812006951
 31
0.0
  0
LINE
  5
1C3E
330
1F
100
AcDbEntity
  8
LOGO
 62
     6
100
AcDbLine
 10
426.0684010525019
 20
140.728158668832
 30
0.0
 11
426.0684010525019
 21
127.0353035909443
 31
0.0
  0
TEXT
  5
1C3F
330
1F
100
AcDbEntity
  8
LOGO
 62
     6
100
AcDbText
 10
408.6411309533721
 20
134.0091521148649
 30
0.0
 40
4.979220028322794
  1
型式
  7
CHINESET
 72
     4
 11
413.6203509816949
 21
136.3713411440495
 31
0.0
100
AcDbText
  0
LINE
  5
1C40
330
1F
100
AcDbEntity
  8
LOGO
 62
     6
100
AcDbLine
 10
413.6203509816949
 20
146.3297812006951
 30
0.0
 11
413.6203509816949
 21
140.728158668832
 31
0.0
  0
LINE
  5
1C41
330
1F
100
AcDbEntity
  8
LOGO
 62
     6
100
AcDbLine
 10
436.3069099021523
 20
157.5330262644214
 30
0.0
 11
436.3069099021523
 21
146.3297812006951
 31
0.0
  0
LINE
  5
1C42
330
1F
100
AcDbEntity
  8
LOGO
 62
     6
100
AcDbLine
 10
442.8204246830514
 20
140.728158668832
 30
0.0
 11
442.8204246830514
 21
127.0353035909442
 31
0.0
  0
LINE
  5
1C43
330
1F
100
AcDbEntity
  8
LOGO
  6
Continuous
 62
     7
100
AcDbLine
 10
438.425662259933
 20
151.8917200680114
 30
0.0
 11
443.3726064918267
 21
151.8917200680114
 31
0.0
  0
LINE
  5
1C44
330
1F
100
AcDbEntity
  8
LOGO
 62
     6
100
AcDbLine
 10
445.3100346972129
 20
157.5330262644214
 30
0.0
 11
445.3100346972128
 21
146.3297812006951
 31
0.0
  0
LINE
  5
1C45
330
1F
100
AcDbEntity
  8
LOGO
 62
     6
100
AcDbLine
 10
455.9419142626889
 20
146.3297812006951
 30
0.0
 11
455.9419142626889
 21
140.728158668832
 31
0.0
  0
LINE
  5
1C46
330
1F
100
AcDbEntity
  8
LOGO
 62
     6
100
AcDbLine
 10
468.5361270466243
 20
140.728158668832
 30
0.0
 11
468.5361270466243
 21
126.9836724478692
 31
0.0
  0
LINE
  5
1C47
330
1F
100
AcDbEntity
  8
LOGO
 62
     6
100
AcDbLine
 10
466.0465170324629
 20
157.5330262644214
 30
0.0
 11
466.0465170324629
 21
146.3297812006951
 31
0.0
  0
LINE
  5
21BA
330
1F
100
AcDbEntity
  8
AM_VIS
100
AcDbLine
 10
421.5464407059577
 20
216.5771590987559
 30
0.0
 11
421.5464407059577
 21
196.8771590987559
 31
0.0
  0
LINE
  5
21BB
330
1F
100
AcDbEntity
  8
AM_VIS
100
AcDbLine
 10
390.5464407059576
 20
196.8771590987559
 30
0.0
 11
390.5464407059576
 21
216.5771590987559
 31
0.0
  0
LINE
  5
21BC
330
1F
100
AcDbEntity
  8
AM_VIS
100
AcDbLine
 10
421.5464407059577
 20
216.5771590987559
 30
0.0
 11
390.5464407059576
 21
216.5771590987559
 31
0.0
  0
LINE
  5
21BD
330
1F
100
AcDbEntity
  8
AM_VIS
100
AcDbLine
 10
423.5464407059577
 20
196.8771590987559
 30
0.0
 11
423.5464407059577
 21
216.5771590987559
 31
0.0
  0
LINE
  5
21BE
330
1F
100
AcDbEntity
  8
AM_VIS
100
AcDbLine
 10
388.5464407059576
 20
216.5771590987559
 30
0.0
 11
388.5464407059576
 21
196.8771590987559
 31
0.0
  0
ARC
  5
21BF
330
1F
100
AcDbEntity
  8
AM_VIS
100
AcDbCircle
 10
305.6316936446265
 20
338.2414243883598
 30
0.0
 40
8.9
100
AcDbArc
 50
143.5486364171834
 51
156.4513635828113
  0
CIRCLE
  5
21C0
330
1F
100
AcDbEntity
  8
AM_VIS
100
AcDbCircle
 10
305.6316936446265
 20
338.2414243883598
 30
0.0
 40
10.75
  0
ARC
  5
21C1
330
1F
100
AcDbEntity
  8
AM_VIS
100
AcDbCircle
 10
305.6316936446265
 20
338.2414243883598
 30
0.0
 40
13.69584916568909
100
AcDbArc
 50
80.0000000000014
 51
99.99999999999861
  0
ARC
  5
21C2
330
1F
100
AcDbEntity
  8
AM_VIS
100
AcDbCircle
 10
305.6316936446265
 20
338.2414243883598
 30
0.0
 40
13.2087275324641
100
AcDbArc
 50
55.00000000000263
 51
80.0000000000014
  0
ARC
  5
21C3
330
1F
100
AcDbEntity
  8
AM_VIS
100
AcDbCircle
 10
305.6316936446265
 20
338.2414243883598
 30
0.0
 40
13.6958491656891
100
AcDbArc
 50
47.09218551096762
 51
55.00000000000263
  0
ARC
  5
21C4
330
1F
100
AcDbEntity
  8
AM_VIS
100
AcDbCircle
 10
305.6316936446265
 20
338.2414243883598
 30
0.0
 40
13.6958491656891
100
AcDbArc
 50
34.99999999999737
 51
42.90781448903016
  0
ARC
  5
21C5
330
1F
100
AcDbEntity
  8
AM_VIS
100
AcDbCircle
 10
305.6316936446265
 20
338.2414243883598
 30
0.0
 40
13.2087275324641
100
AcDbArc
 50
10.00000000000181
 51
34.99999999999737
  0
ARC
  5
21C6
330
1F
100
AcDbEntity
  8
AM_VIS
100
AcDbCircle
 10
305.6316936446265
 20
338.2414243883598
 30
0.0
 40
13.69584916568909
100
AcDbArc
 50
349.9999999999982
 51
10.00000000000181
  0
ARC
  5
21C7
330
1F
100
AcDbEntity
  8
AM_VIS
100
AcDbCircle
 10
305.6316936446265
 20
338.2414243883598
 30
0.0
 40
13.2087275324641
100
AcDbArc
 50
325.0000000000026
 51
349.9999999999982
  0
ARC
  5
21C8
330
1F
100
AcDbEntity
  8
AM_VIS
100
AcDbCircle
 10
305.6316936446265
 20
338.2414243883598
 30
0.0
 40
13.69584916568909
100
AcDbArc
 50
317.0921855109698
 51
325.0000000000026
  0
ARC
  5
21C9
330
1F
100
AcDbEntity
  8
AM_VIS
100
AcDbCircle
 10
305.6316936446265
 20
338.2414243883598
 30
0.0
 40
13.69584916568909
100
AcDbArc
 50
304.9999999999974
 51
312.9078144890324
  0
ARC
  5
21CA
330
1F
100
AcDbEntity
  8
AM_VIS
100
AcDbCircle
 10
305.6316936446265
 20
338.2414243883598
 30
0.0
 40
13.2087275324641
100
AcDbArc
 50
279.9999999999986
 51
304.9999999999974
  0
ARC
  5
21CB
330
1F
100
AcDbEntity
  8
AM_VIS
100
AcDbCircle
 10
305.6316936446265
 20
338.2414243883598
 30
0.0
 40
13.69584916568909
100
AcDbArc
 50
260.0000000000014
 51
279.9999999999986
  0
ARC
  5
21CC
330
1F
100
AcDbEntity
  8
AM_VIS
100
AcDbCircle
 10
305.6316936446265
 20
338.2414243883598
 30
0.0
 40
13.2087275324641
100
AcDbArc
 50
235.0000000000026
 51
260.0000000000014
  0
ARC
  5
21CD
330
1F
100
AcDbEntity
  8
AM_VIS
100
AcDbCircle
 10
305.6316936446265
 20
338.2414243883598
 30
0.0
 40
13.69584916568909
100
AcDbArc
 50
227.0921855109676
 51
235.0000000000026
  0
ARC
  5
21CE
330
1F
100
AcDbEntity
  8
AM_VIS
100
AcDbCircle
 10
305.6316936446265
 20
338.2414243883598
 30
0.0
 40
13.69584916568909
100
AcDbArc
 50
214.9999999999974
 51
222.9078144890302
  0
ARC
  5
21CF
330
1F
100
AcDbEntity
  8
AM_VIS
100
AcDbCircle
 10
305.6316936446265
 20
338.2414243883598
 30
0.0
 40
13.2087275324641
100
AcDbArc
 50
190.0000000000018
 51
214.9999999999974
  0
ARC
  5
21D0
330
1F
100
AcDbEntity
  8
AM_VIS
100
AcDbCircle
 10
305.6316936446265
 20
338.2414243883598
 30
0.0
 40
13.69584916568909
100
AcDbArc
 50
169.9999999999981
 51
190.0000000000018
  0
ARC
  5
21D1
330
1F
100
AcDbEntity
  8
AM_VIS
100
AcDbCircle
 10
305.6316936446265
 20
338.2414243883598
 30
0.0
 40
13.2087275324641
100
AcDbArc
 50
145.0000000000026
 51
169.9999999999981
  0
ARC
  5
21D2
330
1F
100
AcDbEntity
  8
AM_VIS
100
AcDbCircle
 10
305.6316936446265
 20
338.2414243883598
 30
0.0
 40
13.6958491656891
100
AcDbArc
 50
137.0921855109698
 51
145.0000000000026
  0
ARC
  5
21D3
330
1F
100
AcDbEntity
  8
AM_VIS
100
AcDbCircle
 10
305.6316936446265
 20
338.2414243883598
 30
0.0
 40
13.6958491656891
100
AcDbArc
 50
124.9999999999974
 51
132.9078144890323
  0
ARC
  5
21D4
330
1F
100
AcDbEntity
  8
AM_VIS
100
AcDbCircle
 10
305.6316936446265
 20
338.2414243883598
 30
0.0
 40
13.2087275324641
100
AcDbArc
 50
99.99999999999861
 51
124.9999999999974
  0
ARC
  5
21D5
330
1F
100
AcDbEntity
  8
AM_VIS
100
AcDbCircle
 10
305.6316936446265
 20
338.2414243883598
 30
0.0
 40
14.09119630351393
100
AcDbArc
 50
47.03346146677841
 51
132.9665385332216
  0
ARC
  5
21D6
330
1F
100
AcDbEntity
  8
AM_VIS
100
AcDbCircle
 10
305.6316936446265
 20
338.2414243883598
 30
0.0
 40
14.09119630351393
100
AcDbArc
 50
317.0334614667808
 51
42.9665385332192
  0
ARC
  5
21D7
330
1F
100
AcDbEntity
  8
AM_VIS
100
AcDbCircle
 10
305.6316936446265
 20
338.2414243883598
 30
0.0
 40
14.09119630351393
100
AcDbArc
 50
137.0334614667808
 51
222.9665385332192
  0
ARC
  5
21D8
330
1F
100
AcDbEntity
  8
AM_VIS
100
AcDbCircle
 10
305.6316936446265
 20
338.2414243883598
 30
0.0
 40
14.09119630351393
100
AcDbArc
 50
227.0334614667784
 51
312.9665385332216
  0
LINE
  5
21D9
330
1F
100
AcDbEntity
  8
AM_VIS
100
AcDbLine
 10
288.6316936446265
 20
328.2414243883597
 30
0.0
 11
291.2702870282814
 21
328.2414243883597
 31
0.0
  0
LINE
  5
21DA
330
1F
100
AcDbEntity
  8
AM_VIS
100
AcDbLine
 10
315.6316936446265
 20
321.2414243883598
 30
0.0
 11
315.6316936446265
 21
323.8800177720147
 31
0.0
  0
LINE
  5
21DB
330
1F
100
AcDbEntity
  8
AM_VIS
100
AcDbLine
 10
295.6316936446265
 20
323.8800177720147
 30
0.0
 11
295.6316936446265
 21
321.2414243883598
 31
0.0
  0
LINE
  5
21DC
330
1F
100
AcDbEntity
  8
AM_VIS
100
AcDbLine
 10
319.9931002609716
 20
328.2414243883597
 30
0.0
 11
322.6316936446265
 21
328.2414243883597
 31
0.0
  0
LINE
  5
21DD
330
1F
100
AcDbEntity
  8
AM_VIS
100
AcDbLine
 10
291.6316936446265
 20
334.4665071707244
 30
0.0
 11
291.6316936446265
 21
332.8562595812253
 31
0.0
  0
LINE
  5
21DE
330
1F
100
AcDbEntity
  8
AM_VIS
100
AcDbLine
 10
291.6316936446265
 20
343.6265891954942
 30
0.0
 11
291.6316936446265
 21
342.0163416059952
 31
0.0
  0
LINE
  5
21DF
330
1F
100
AcDbEntity
  8
AM_VIS
100
AcDbLine
 10
319.6316936446265
 20
343.6265891954942
 30
0.0
 11
319.6316936446265
 21
342.0163416059952
 31
0.0
  0
LINE
  5
21E0
330
1F
100
AcDbEntity
  8
AM_VIS
100
AcDbLine
 10
319.6316936446265
 20
334.4665071707245
 30
0.0
 11
319.6316936446265
 21
332.8562595812253
 31
0.0
  0
LINE
  5
21E1
330
1F
100
AcDbEntity
  8
AM_VIS
100
AcDbLine
 10
296.1316936446264
 20
320.7414243883598
 30
0.0
 11
315.1316936446264
 21
320.7414243883598
 31
0.0
  0
LINE
  5
21E2
330
1F
100
AcDbEntity
  8
AM_VIS
100
AcDbLine
 10
315.2116252525394
 20
320.7414243883598
 30
0.0
 11
316.1316936446265
 21
320.7414243883598
 31
0.0
  0
LINE
  5
21E3
330
1F
100
AcDbEntity
  8
AM_VIS
100
AcDbLine
 10
316.1316936446265
 20
320.7414243883598
 30
0.0
 11
317.6952019715227
 21
320.7414243883598
 31
0.0
  0
LINE
  5
21E4
330
1F
100
AcDbEntity
  8
AM_VIS
100
AcDbLine
 10
288.1316936446264
 20
338.2414243883598
 30
0.0
 11
288.1316936446264
 21
328.7414243883597
 31
0.0
  0
LINE
  5
21E5
330
1F
100
AcDbEntity
  8
AM_VIS
100
AcDbLine
 10
295.1316936446265
 20
320.7414243883598
 30
0.0
 11
296.0517620367135
 21
320.7414243883598
 31
0.0
  0
LINE
  5
21E6
330
1F
100
AcDbEntity
  8
AM_VIS
100
AcDbLine
 10
293.5681853177302
 20
320.7414243883598
 30
0.0
 11
295.1316936446265
 21
320.7414243883598
 31
0.0
  0
LINE
  5
21E7
330
1F
100
AcDbEntity
  8
AM_VIS
100
AcDbLine
 10
288.1316936446264
 20
328.6614927804469
 30
0.0
 11
288.1316936446264
 21
327.7414243883598
 31
0.0
  0
LINE
  5
21E8
330
1F
100
AcDbEntity
  8
AM_VIS
100
AcDbLine
 10
288.1316936446264
 20
327.7414243883598
 30
0.0
 11
288.1316936446264
 21
326.1779160614635
 31
0.0
  0
LINE
  5
21E9
330
1F
100
AcDbEntity
  8
AM_VIS
100
AcDbLine
 10
323.1316936446265
 20
326.1779160614635
 30
0.0
 11
323.1316936446265
 21
327.7414243883598
 31
0.0
  0
LINE
  5
21EA
330
1F
100
AcDbEntity
  8
AM_VIS
100
AcDbLine
 10
323.1316936446265
 20
328.6614927804469
 30
0.0
 11
323.1316936446265
 21
327.7414243883598
 31
0.0
  0
LINE
  5
21EB
330
1F
100
AcDbEntity
  8
AM_VIS
100
AcDbLine
 10
323.1316936446265
 20
328.7414243883597
 30
0.0
 11
323.1316936446265
 21
338.2414243883598
 31
0.0
  0
LINE
  5
21EC
330
1F
100
AcDbEntity
  8
AM_VIS
100
AcDbLine
 10
291.6316936446265
 20
342.0163416059952
 30
0.0
 11
291.6316936446265
 21
339.8419909331076
 31
0.0
  0
LINE
  5
21ED
330
1F
100
AcDbEntity
  8
AM_VIS
100
AcDbLine
 10
291.6316936446265
 20
336.6408578436121
 30
0.0
 11
291.6316936446265
 21
334.4665071707244
 31
0.0
  0
LINE
  5
21EE
330
1F
100
AcDbEntity
  8
AM_VIS
100
AcDbLine
 10
319.6316936446265
 20
334.4665071707244
 30
0.0
 11
319.6316936446265
 21
336.6408578436126
 31
0.0
  0
LINE
  5
21EF
330
1F
100
AcDbEntity
  8
AM_VIS
100
AcDbLine
 10
319.6316936446265
 20
339.841990933107
 30
0.0
 11
319.6316936446265
 21
342.0163416059952
 31
0.0
  0
ARC
  5
21F0
330
1F
100
AcDbEntity
  8
AM_VIS
100
AcDbCircle
 10
315.1316936446264
 20
321.2414243883598
 30
0.0
 40
0.5000000000000002
100
AcDbArc
 50
270.0
 51
0.0
  0
ARC
  5
21F1
330
1F
100
AcDbEntity
  8
AM_VIS
100
AcDbCircle
 10
296.1316936446264
 20
321.2414243883598
 30
0.0
 40
0.4999999999999991
100
AcDbArc
 50
180.0
 51
270.0
  0
ARC
  5
21F2
330
1F
100
AcDbEntity
  8
AM_VIS
100
AcDbCircle
 10
322.6316936446265
 20
328.7414243883597
 30
0.0
 40
0.4999999999999991
100
AcDbArc
 50
270.0
 51
0.0
  0
ARC
  5
21F3
330
1F
100
AcDbEntity
  8
AM_VIS
100
AcDbCircle
 10
305.6316936446265
 20
338.2414243883598
 30
0.0
 40
15.0
100
AcDbArc
 50
201.0394697813179
 51
338.9605302186822
  0
ARC
  5
21F4
330
1F
100
AcDbEntity
  8
AM_VIS
100
AcDbCircle
 10
305.6316936446265
 20
338.2414243883598
 30
0.0
 40
15.0
100
AcDbArc
 50
21.0394697813178
 51
158.9605302186822
  0
LINE
  5
21F5
330
1F
100
AcDbEntity
  8
AM_VIS
100
AcDbLine
 10
315.1316936446264
 20
320.7414243883598
 30
0.0
 11
315.2116252525394
 21
320.7414243883598
 31
0.0
  0
ARC
  5
21F6
330
1F
100
AcDbEntity
  8
AM_VIS
100
AcDbCircle
 10
288.6316936446265
 20
328.7414243883597
 30
0.0
 40
0.4999999999999991
100
AcDbArc
 50
180.0
 51
270.0
  0
LINE
  5
21F7
330
1F
100
AcDbEntity
  8
AM_VIS
100
AcDbLine
 10
296.0517620367135
 20
320.7414243883598
 30
0.0
 11
296.1316936446264
 21
320.7414243883598
 31
0.0
  0
LINE
  5
21F8
330
1F
100
AcDbEntity
  8
AM_VIS
100
AcDbLine
 10
288.1316936446264
 20
328.7414243883597
 30
0.0
 11
288.1316936446264
 21
328.6614927804469
 31
0.0
  0
LINE
  5
21F9
330
1F
100
AcDbEntity
  8
AM_VIS
100
AcDbLine
 10
323.1316936446265
 20
328.6614927804469
 30
0.0
 11
323.1316936446265
 21
328.7414243883597
 31
0.0
  0
LINE
  5
21FA
330
1F
100
AcDbEntity
  8
AM_VIS
100
AcDbLine
 10
323.1316936446265
 20
366.6414243883598
 30
0.0
 11
323.1316936446265
 21
338.2414243883598
 31
0.0
  0
LINE
  5
21FB
330
1F
100
AcDbEntity
  8
AM_VIS
100
AcDbLine
 10
323.1316936446265
 20
366.6414243883598
 30
0.0
 11
323.1316936446265
 21
368.2414243883597
 31
0.0
  0
LINE
  5
21FC
330
1F
100
AcDbEntity
  8
AM_VIS
100
AcDbLine
 10
321.1316936446265
 20
366.6414243883598
 30
0.0
 11
290.1316936446264
 21
366.6414243883598
 31
0.0
  0
LINE
  5
21FD
330
1F
100
AcDbEntity
  8
AM_VIS
100
AcDbLine
 10
288.1316936446264
 20
368.2414243883597
 30
0.0
 11
288.1316936446264
 21
366.6414243883598
 31
0.0
  0
LINE
  5
21FE
330
1F
100
AcDbEntity
  8
AM_VIS
100
AcDbLine
 10
288.1316936446264
 20
338.2414243883598
 30
0.0
 11
288.1316936446264
 21
366.6414243883598
 31
0.0
  0
LINE
  5
21FF
330
1F
100
AcDbEntity
  8
AM_VIS
100
AcDbLine
 10
290.1316936446264
 20
368.2414243883597
 30
0.0
 11
321.1316936446265
 21
368.2414243883597
 31
0.0
  0
LINE
  5
2200
330
1F
100
AcDbEntity
  8
AM_VIS
100
AcDbLine
 10
314.6316936446265
 20
355.7414243883597
 30
0.0
 11
309.6316936446265
 21
355.7414243883597
 31
0.0
  0
LINE
  5
2201
330
1F
100
AcDbEntity
  8
AM_VIS
100
AcDbLine
 10
309.6316936446265
 20
357.7414243883597
 30
0.0
 11
314.6316936446265
 21
357.7414243883597
 31
0.0
  0
LINE
  5
2202
330
1F
100
AcDbEntity
  8
AM_VIS
100
AcDbLine
 10
301.6316936446265
 20
355.7414243883597
 30
0.0
 11
296.6316936446265
 21
355.7414243883597
 31
0.0
  0
LINE
  5
2203
330
1F
100
AcDbEntity
  8
AM_VIS
100
AcDbLine
 10
296.6316936446265
 20
357.7414243883597
 30
0.0
 11
301.6316936446265
 21
357.7414243883597
 31
0.0
  0
LINE
  5
2204
330
1F
100
AcDbEntity
  8
AM_VIS
100
AcDbLine
 10
323.1316936446265
 20
366.6414243883598
 30
0.0
 11
321.1316936446265
 21
366.6414243883598
 31
0.0
  0
LINE
  5
2205
330
1F
100
AcDbEntity
  8
AM_VIS
100
AcDbLine
 10
290.1316936446264
 20
366.6414243883598
 30
0.0
 11
288.1316936446264
 21
366.6414243883598
 31
0.0
  0
LINE
  5
2206
102
{ACAD_REACTORS
330
253D
102
}
330
1F
100
AcDbEntity
  8
AM_VIS
100
AcDbLine
 10
321.1316936446265
 20
368.2414243883597
 30
0.0
 11
323.1316936446265
 21
368.2414243883597
 31
0.0
  0
LINE
  5
2207
102
{ACAD_REACTORS
330
253D
102
}
330
1F
100
AcDbEntity
  8
AM_VIS
100
AcDbLine
 10
288.1316936446264
 20
368.2414243883597
 30
0.0
 11
290.1316936446264
 21
368.2414243883597
 31
0.0
  0
ARC
  5
2208
330
1F
100
AcDbEntity
  8
AM_VIS
100
AcDbCircle
 10
314.6316936446265
 20
356.7414243883598
 30
0.0
 40
1.0
100
AcDbArc
 50
270.0
 51
90.0
  0
ARC
  5
2209
330
1F
100
AcDbEntity
  8
AM_VIS
100
AcDbCircle
 10
309.6316936446265
 20
356.7414243883598
 30
0.0
 40
1.0
100
AcDbArc
 50
90.0
 51
270.0
  0
ARC
  5
220A
330
1F
100
AcDbEntity
  8
AM_VIS
100
AcDbCircle
 10
301.6316936446265
 20
356.7414243883598
 30
0.0
 40
1.0
100
AcDbArc
 50
270.0
 51
90.0
  0
ARC
  5
220B
330
1F
100
AcDbEntity
  8
AM_VIS
100
AcDbCircle
 10
296.6316936446265
 20
356.7414243883598
 30
0.0
 40
1.0
100
AcDbArc
 50
90.0
 51
270.0
  0
LINE
  5
220C
330
1F
100
AcDbEntity
  8
AM_VIS
  6
PHANTOM2
 62
     4
 48
0.4
100
AcDbLine
 10
311.1316936446265
 20
314.7414243883599
 30
0.0
 11
311.1316936446265
 21
320.7414243883599
 31
0.0
  0
LINE
  5
220D
330
1F
100
AcDbEntity
  8
AM_VIS
  6
PHANTOM2
 62
     4
 48
0.4
100
AcDbLine
 10
326.6316936446265
 20
292.2414243883599
 30
0.0
 11
326.6316936446265
 21
298.2414243883598
 31
0.0
  0
LINE
  5
220E
330
1F
100
AcDbEntity
  8
AM_VIS
  6
PHANTOM2
 62
     4
 48
0.4
100
AcDbLine
 10
284.6316936446265
 20
292.2414243883599
 30
0.0
 11
284.6316936446265
 21
298.2414243883598
 31
0.0
  0
LINE
  5
220F
330
1F
100
AcDbEntity
  8
AM_VIS
  6
PHANTOM2
 62
     4
 48
0.4
100
AcDbLine
 10
285.6316936446265
 20
313.7414243883599
 30
0.0
 11
285.6316936446265
 21
298.2414243883598
 31
0.0
  0
LINE
  5
2210
330
1F
100
AcDbEntity
  8
AM_VIS
  6
PHANTOM2
 62
     4
 48
0.4
100
AcDbLine
 10
325.6316936446264
 20
313.7414243883599
 30
0.0
 11
325.6316936446264
 21
298.2414243883598
 31
0.0
  0
LINE
  5
2211
330
1F
100
AcDbEntity
  8
AM_VIS
  6
PHANTOM2
 62
     4
 48
0.4
100
AcDbLine
 10
326.6316936446265
 20
298.2414243883598
 30
0.0
 11
284.6316936446265
 21
298.2414243883598
 31
0.0
  0
LINE
  5
2212
330
1F
100
AcDbEntity
  8
AM_VIS
  6
PHANTOM2
 62
     4
 48
0.4
100
AcDbLine
 10
286.6316936446265
 20
314.7414243883599
 30
0.0
 11
324.6316936446265
 21
314.7414243883599
 31
0.0
  0
LINE
  5
2213
330
1F
100
AcDbEntity
  8
AM_VIS
  6
PHANTOM2
 62
     4
 48
0.4
100
AcDbLine
 10
286.1316936446264
 20
290.7414243883599
 30
0.0
 11
325.1316936446265
 21
290.7414243883599
 31
0.0
  0
ARC
  5
2214
330
1F
100
AcDbEntity
  8
AM_VIS
  6
PHANTOM2
 62
     4
 48
0.4
100
AcDbCircle
 10
286.1316936446264
 20
292.2414243883599
 30
0.0
 40
1.5
100
AcDbArc
 50
180.0
 51
270.0
  0
ARC
  5
2215
330
1F
100
AcDbEntity
  8
AM_VIS
  6
PHANTOM2
 62
     4
 48
0.4
100
AcDbCircle
 10
325.1316936446265
 20
292.2414243883599
 30
0.0
 40
1.5
100
AcDbArc
 50
270.0
 51
0.0
  0
ARC
  5
2216
330
1F
100
AcDbEntity
  8
AM_VIS
  6
PHANTOM2
 62
     4
 48
0.4
100
AcDbCircle
 10
324.6316936446265
 20
313.7414243883599
 30
0.0
 40
1.0
100
AcDbArc
 50
0.0
 51
90.0
  0
ARC
  5
2217
330
1F
100
AcDbEntity
  8
AM_VIS
  6
PHANTOM2
 62
     4
 48
0.4
100
AcDbCircle
 10
286.6316936446265
 20
313.7414243883599
 30
0.0
 40
1.0
100
AcDbArc
 50
90.0
 51
180.0
  0
ARC
  5
2218
330
1F
100
AcDbEntity
  8
AM_VIS
100
AcDbCircle
 10
291.6316936446264
 20
352.2414243883598
 30
0.0
 40
4.000000000000028
100
AcDbArc
 50
151.0449756281393
 51
208.9550243718607
  0
LINE
  5
2219
330
1F
100
AcDbEntity
  8
AM_VIS
100
AcDbLine
 10
319.6316936446266
 20
324.7364243883597
 30
0.0
 11
319.6316936446266
 21
324.2414243883597
 31
0.0
  0
LINE
  5
221A
330
1F
100
AcDbEntity
  8
AM_VIS
100
AcDbLine
 10
319.6316936446266
 20
324.2414243883597
 30
0.0
 11
319.6316936446266
 21
323.7464243883597
 31
0.0
  0
LINE
  5
221B
330
1F
100
AcDbEntity
  8
AM_VIS
100
AcDbLine
 10
319.6316936446266
 20
324.2414243883597
 30
0.0
 11
320.1266936446272
 21
324.7364243883603
 31
0.0
  0
LINE
  5
221C
330
1F
100
AcDbEntity
  8
AM_VIS
100
AcDbLine
 10
319.1366936446272
 20
324.7364243883592
 30
0.0
 11
319.6316936446266
 21
324.2414243883597
 31
0.0
  0
LINE
  5
221D
330
1F
100
AcDbEntity
  8
AM_VIS
100
AcDbLine
 10
320.1266936446285
 20
324.7364243883597
 30
0.0
 11
319.1366936446285
 21
324.7364243883597
 31
0.0
  0
LINE
  5
221E
330
1F
100
AcDbEntity
  8
AM_VIS
100
AcDbLine
 10
319.1366936446285
 20
323.7464243883597
 30
0.0
 11
319.1366936446285
 21
324.7364243883597
 31
0.0
  0
LINE
  5
221F
330
1F
100
AcDbEntity
  8
AM_VIS
100
AcDbLine
 10
320.1266936446285
 20
324.2414243883597
 30
0.0
 11
319.6316936446266
 21
324.2414243883597
 31
0.0
  0
LINE
  5
2220
330
1F
100
AcDbEntity
  8
AM_VIS
100
AcDbLine
 10
320.1266936446272
 20
323.7464243883592
 30
0.0
 11
319.6316936446266
 21
324.2414243883597
 31
0.0
  0
LINE
  5
2221
330
1F
100
AcDbEntity
  8
AM_VIS
100
AcDbLine
 10
319.1366936446285
 20
323.7464243883597
 30
0.0
 11
320.1266936446285
 21
323.7464243883597
 31
0.0
  0
LINE
  5
2222
330
1F
100
AcDbEntity
  8
AM_VIS
100
AcDbLine
 10
319.6316936446266
 20
324.2414243883597
 30
0.0
 11
319.1366936446285
 21
324.2414243883597
 31
0.0
  0
LINE
  5
2223
330
1F
100
AcDbEntity
  8
AM_VIS
100
AcDbLine
 10
319.6316936446266
 20
324.2414243883597
 30
0.0
 11
319.1366936446272
 21
323.7464243883603
 31
0.0
  0
LINE
  5
2224
330
1F
100
AcDbEntity
  8
AM_VIS
100
AcDbLine
 10
320.1266936446285
 20
324.7364243883597
 30
0.0
 11
320.1266936446285
 21
323.7464243883597
 31
0.0
  0
LINE
  5
2225
330
1F
100
AcDbEntity
  8
AM_VIS
100
AcDbLine
 10
320.1266936446285
 20
324.7364243883597
 30
0.0
 11
320.7116561439755
 21
324.7364243883597
 31
0.0
  0
LINE
  5
2226
330
1F
100
AcDbEntity
  8
AM_VIS
100
AcDbLine
 10
320.1266936446285
 20
325.3213868877078
 30
0.0
 11
320.1266936446285
 21
324.7364243883597
 31
0.0
  0
LINE
  5
2227
330
1F
100
AcDbEntity
  8
AM_VIS
100
AcDbLine
 10
318.5517311452776
 20
324.7364243883599
 30
0.0
 11
319.1366936446285
 21
324.7364243883599
 31
0.0
  0
LINE
  5
2228
330
1F
100
AcDbEntity
  8
AM_VIS
100
AcDbLine
 10
319.1366936446285
 20
325.3213868877097
 30
0.0
 11
319.1366936446285
 21
324.7364243883597
 31
0.0
  0
LINE
  5
2229
330
1F
100
AcDbEntity
  8
AM_VIS
100
AcDbLine
 10
318.5517311452776
 20
323.7464243883599
 30
0.0
 11
319.1366936446285
 21
323.7464243883599
 31
0.0
  0
LINE
  5
222A
330
1F
100
AcDbEntity
  8
AM_VIS
100
AcDbLine
 10
319.1366936446285
 20
323.7464243883597
 30
0.0
 11
319.1366936446285
 21
323.1614618890099
 31
0.0
  0
LINE
  5
222B
330
1F
100
AcDbEntity
  8
AM_VIS
100
AcDbLine
 10
320.1266936446285
 20
323.7464243883597
 30
0.0
 11
320.7116561439755
 21
323.7464243883597
 31
0.0
  0
LINE
  5
222C
330
1F
100
AcDbEntity
  8
AM_VIS
100
AcDbLine
 10
320.1266936446285
 20
323.7464243883597
 30
0.0
 11
320.1266936446285
 21
323.1614618890118
 31
0.0
  0
ARC
  5
222D
330
1F
100
AcDbEntity
  8
AM_VIS
100
AcDbCircle
 10
319.6316936446266
 20
324.2414243883597
 30
0.0
 40
4.000000000000028
100
AcDbArc
 50
185.0294421169485
 51
84.97055788305182
  0
LINE
  5
222E
330
1F
100
AcDbEntity
  8
AM_VIS
100
AcDbLine
 10
318.5517311452776
 20
324.7364243883597
 30
0.0
 11
317.4448582564415
 21
324.7364243883597
 31
0.0
  0
ELLIPSE
  5
222F
330
1F
100
AcDbEntity
  8
AM_VIS
100
AcDbEllipse
 10
321.3886911453484
 20
324.2414243883597
 30
0.0
 11
0.0000000000000003
 21
-6.073381703024882
 31
0.0
210
0.0
220
0.0
230
1.0
 40
0.6515311722876027
 41
4.630795282261959
 42
4.793982678507419
  0
LINE
  5
2230
330
1F
100
AcDbEntity
  8
AM_VIS
100
AcDbLine
 10
320.7116561439755
 20
323.7464243883597
 30
0.0
 11
321.8185290328116
 21
323.7464243883597
 31
0.0
  0
ELLIPSE
  5
2231
330
1F
100
AcDbEntity
  8
AM_VIS
100
AcDbEllipse
 10
317.8746961439046
 20
324.2414243883597
 30
0.0
 11
0.0000000000000003
 21
6.073381703024882
 31
0.0
210
0.0
220
0.0
230
1.0
 40
0.6515311722876022
 41
4.630795282261959
 42
4.793982678507419
  0
LINE
  5
2232
330
1F
100
AcDbEntity
  8
AM_VIS
100
AcDbLine
 10
320.1266936446285
 20
322.0545890001748
 30
0.0
 11
320.1266936446285
 21
323.1614618890118
 31
0.0
  0
ELLIPSE
  5
2233
330
1F
100
AcDbEntity
  8
AM_VIS
100
AcDbEllipse
 10
319.6316936446266
 20
322.4844268876379
 30
0.0
 11
-6.07338170302488
 21
0.0000000000000012
 31
0.0
210
0.0
220
0.0
230
1.0
 40
0.6515311722876045
 41
4.63079528226163
 42
4.793982678507091
  0
LINE
  5
2234
330
1F
100
AcDbEntity
  8
AM_VIS
100
AcDbLine
 10
319.1366936446285
 20
323.1614618890099
 30
0.0
 11
319.1366936446285
 21
322.0545890001746
 31
0.0
  0
LINE
  5
2235
330
1F
100
AcDbEntity
  8
AM_VIS
100
AcDbLine
 10
319.1366936446285
 20
326.428259776545
 30
0.0
 11
319.1366936446285
 21
325.3213868877097
 31
0.0
  0
ELLIPSE
  5
2236
330
1F
100
AcDbEntity
  8
AM_VIS
100
AcDbEllipse
 10
319.6316936446266
 20
325.9984218890817
 30
0.0
 11
6.073381703024877
 21
0.0000000000000012
 31
0.0
210
0.0
220
0.0
230
1.0
 40
0.6515311722876043
 41
4.630795282262288
 42
4.793982678507748
  0
LINE
  5
2237
330
1F
100
AcDbEntity
  8
AM_VIS
100
AcDbLine
 10
320.1266936446285
 20
325.3213868877078
 30
0.0
 11
320.1266936446285
 21
326.4282597765448
 31
0.0
  0
LINE
  5
2238
330
1F
100
AcDbEntity
  8
AM_VIS
100
AcDbLine
 10
317.4448582564415
 20
323.7464243883597
 30
0.0
 11
318.5517311452776
 21
323.7464243883597
 31
0.0
  0
LINE
  5
2239
330
1F
100
AcDbEntity
  8
AM_VIS
100
AcDbLine
 10
321.8185290328116
 20
324.7364243883597
 30
0.0
 11
320.7116561439755
 21
324.7364243883597
 31
0.0
  0
ARC
  5
223A
330
1F
100
AcDbEntity
  8
AM_VIS
100
AcDbCircle
 10
319.6316936446266
 20
324.2414243883597
 30
0.0
 40
1.187999999999988
100
AcDbArc
 50
24.62431835216576
 51
65.37568164773074
  0
ARC
  5
223B
330
1F
100
AcDbEntity
  8
AM_VIS
100
AcDbCircle
 10
319.6316936446266
 20
324.2414243883597
 30
0.0
 40
1.187999999999988
100
AcDbArc
 50
114.6243183520609
 51
155.3756816478342
  0
ARC
  5
223C
330
1F
100
AcDbEntity
  8
AM_VIS
100
AcDbCircle
 10
319.6316936446266
 20
324.2414243883597
 30
0.0
 40
1.187999999999988
100
AcDbArc
 50
204.6243183521658
 51
245.3756816479391
  0
ARC
  5
223D
330
1F
100
AcDbEntity
  8
AM_VIS
100
AcDbCircle
 10
319.6316936446266
 20
324.2414243883597
 30
0.0
 40
1.187999999999988
100
AcDbArc
 50
294.6243183522692
 51
335.3756816478342
  0
ARC
  5
223E
330
1F
100
AcDbEntity
  8
AM_VIS
100
AcDbCircle
 10
319.6316936446265
 20
352.2414243883598
 30
0.0
 40
4.000000000000028
100
AcDbArc
 50
331.0449756281393
 51
28.95502437186067
  0
LINE
  5
223F
330
1F
100
AcDbEntity
  8
AM_VIS
100
AcDbLine
 10
291.6316936446265
 20
324.7364243883599
 30
0.0
 11
291.6316936446265
 21
324.2414243883597
 31
0.0
  0
LINE
  5
2240
330
1F
100
AcDbEntity
  8
AM_VIS
100
AcDbLine
 10
291.6316936446265
 20
324.2414243883597
 30
0.0
 11
291.6316936446265
 21
323.7464243883599
 31
0.0
  0
LINE
  5
2241
330
1F
100
AcDbEntity
  8
AM_VIS
100
AcDbLine
 10
291.6316936446265
 20
324.2414243883597
 30
0.0
 11
292.126693644627
 21
324.7364243883603
 31
0.0
  0
LINE
  5
2242
330
1F
100
AcDbEntity
  8
AM_VIS
100
AcDbLine
 10
291.1366936446271
 20
324.7364243883592
 30
0.0
 11
291.6316936446265
 21
324.2414243883599
 31
0.0
  0
LINE
  5
2243
330
1F
100
AcDbEntity
  8
AM_VIS
100
AcDbLine
 10
292.1266936446285
 20
324.7364243883599
 30
0.0
 11
291.1366936446285
 21
324.7364243883599
 31
0.0
  0
LINE
  5
2244
330
1F
100
AcDbEntity
  8
AM_VIS
100
AcDbLine
 10
291.1366936446285
 20
323.7464243883599
 30
0.0
 11
291.1366936446285
 21
324.7364243883599
 31
0.0
  0
LINE
  5
2245
330
1F
100
AcDbEntity
  8
AM_VIS
100
AcDbLine
 10
292.1266936446285
 20
324.2414243883597
 30
0.0
 11
291.6316936446265
 21
324.2414243883597
 31
0.0
  0
LINE
  5
2246
330
1F
100
AcDbEntity
  8
AM_VIS
100
AcDbLine
 10
292.126693644627
 20
323.7464243883592
 30
0.0
 11
291.6316936446265
 21
324.2414243883597
 31
0.0
  0
LINE
  5
2247
330
1F
100
AcDbEntity
  8
AM_VIS
100
AcDbLine
 10
291.1366936446285
 20
323.7464243883599
 30
0.0
 11
292.1266936446285
 21
323.7464243883599
 31
0.0
  0
LINE
  5
2248
330
1F
100
AcDbEntity
  8
AM_VIS
100
AcDbLine
 10
291.6316936446265
 20
324.2414243883597
 30
0.0
 11
291.1366936446285
 21
324.2414243883597
 31
0.0
  0
LINE
  5
2249
330
1F
100
AcDbEntity
  8
AM_VIS
100
AcDbLine
 10
291.6316936446265
 20
324.2414243883599
 30
0.0
 11
291.136693644627
 21
323.7464243883604
 31
0.0
  0
LINE
  5
224A
330
1F
100
AcDbEntity
  8
AM_VIS
100
AcDbLine
 10
292.1266936446285
 20
324.7364243883599
 30
0.0
 11
292.1266936446285
 21
323.7464243883599
 31
0.0
  0
LINE
  5
224B
330
1F
100
AcDbEntity
  8
AM_VIS
100
AcDbLine
 10
292.1266936446284
 20
324.7364243883599
 30
0.0
 11
292.7116561439754
 21
324.7364243883599
 31
0.0
  0
LINE
  5
224C
330
1F
100
AcDbEntity
  8
AM_VIS
100
AcDbLine
 10
292.1266936446285
 20
325.3213868877078
 30
0.0
 11
292.1266936446285
 21
324.7364243883599
 31
0.0
  0
LINE
  5
224D
330
1F
100
AcDbEntity
  8
AM_VIS
100
AcDbLine
 10
290.5517311452776
 20
324.7364243883599
 30
0.0
 11
291.1366936446285
 21
324.7364243883599
 31
0.0
  0
LINE
  5
224E
330
1F
100
AcDbEntity
  8
AM_VIS
100
AcDbLine
 10
291.1366936446285
 20
325.3213868877097
 30
0.0
 11
291.1366936446285
 21
324.7364243883599
 31
0.0
  0
LINE
  5
224F
330
1F
100
AcDbEntity
  8
AM_VIS
100
AcDbLine
 10
290.5517311452776
 20
323.7464243883599
 30
0.0
 11
291.1366936446285
 21
323.7464243883599
 31
0.0
  0
LINE
  5
2250
330
1F
100
AcDbEntity
  8
AM_VIS
100
AcDbLine
 10
291.1366936446285
 20
323.7464243883599
 30
0.0
 11
291.1366936446285
 21
323.16146188901
 31
0.0
  0
LINE
  5
2251
330
1F
100
AcDbEntity
  8
AM_VIS
100
AcDbLine
 10
292.1266936446284
 20
323.7464243883599
 30
0.0
 11
292.7116561439754
 21
323.7464243883599
 31
0.0
  0
LINE
  5
2252
330
1F
100
AcDbEntity
  8
AM_VIS
100
AcDbLine
 10
292.1266936446284
 20
323.7464243883599
 30
0.0
 11
292.1266936446284
 21
323.1614618890119
 31
0.0
  0
ARC
  5
2253
330
1F
100
AcDbEntity
  8
AM_VIS
100
AcDbCircle
 10
291.6316936446265
 20
324.2414243883597
 30
0.0
 40
4.000000000000028
100
AcDbArc
 50
95.02944211695497
 51
354.9705578830483
  0
LINE
  5
2254
330
1F
100
AcDbEntity
  8
AM_VIS
100
AcDbLine
 10
290.5517311452776
 20
324.7364243883599
 30
0.0
 11
289.4448582564414
 21
324.7364243883599
 31
0.0
  0
ELLIPSE
  5
2255
330
1F
100
AcDbEntity
  8
AM_VIS
100
AcDbEllipse
 10
293.3886911453484
 20
324.2414243883597
 30
0.0
 11
0.0000000000000003
 21
-6.073381703024882
 31
0.0
210
0.0
220
0.0
230
1.0
 40
0.6515311722876027
 41
4.630795282261959
 42
4.793982678507419
  0
LINE
  5
2256
330
1F
100
AcDbEntity
  8
AM_VIS
100
AcDbLine
 10
292.7116561439754
 20
323.7464243883599
 30
0.0
 11
293.8185290328115
 21
323.7464243883599
 31
0.0
  0
ELLIPSE
  5
2257
330
1F
100
AcDbEntity
  8
AM_VIS
100
AcDbEllipse
 10
289.8746961439045
 20
324.2414243883597
 30
0.0
 11
0.0000000000000003
 21
6.073381703024882
 31
0.0
210
0.0
220
0.0
230
1.0
 40
0.6515311722876022
 41
4.630795282261959
 42
4.793982678507419
  0
LINE
  5
2258
330
1F
100
AcDbEntity
  8
AM_VIS
100
AcDbLine
 10
292.1266936446285
 20
322.0545890001749
 30
0.0
 11
292.1266936446285
 21
323.1614618890119
 31
0.0
  0
ELLIPSE
  5
2259
330
1F
100
AcDbEntity
  8
AM_VIS
100
AcDbEllipse
 10
291.6316936446265
 20
322.4844268876379
 30
0.0
 11
-6.07338170302488
 21
0.0000000000000012
 31
0.0
210
0.0
220
0.0
230
1.0
 40
0.6515311722876045
 41
4.63079528226163
 42
4.793982678507091
  0
LINE
  5
225A
330
1F
100
AcDbEntity
  8
AM_VIS
100
AcDbLine
 10
291.1366936446285
 20
323.16146188901
 30
0.0
 11
291.1366936446285
 21
322.0545890001747
 31
0.0
  0
LINE
  5
225B
330
1F
100
AcDbEntity
  8
AM_VIS
100
AcDbLine
 10
291.1366936446285
 20
326.428259776545
 30
0.0
 11
291.1366936446285
 21
325.3213868877097
 31
0.0
  0
ELLIPSE
  5
225C
330
1F
100
AcDbEntity
  8
AM_VIS
100
AcDbEllipse
 10
291.6316936446265
 20
325.9984218890818
 30
0.0
 11
6.073381703024877
 21
0.0000000000000012
 31
0.0
210
0.0
220
0.0
230
1.0
 40
0.6515311722876043
 41
4.630795282262288
 42
4.793982678507748
  0
LINE
  5
225D
330
1F
100
AcDbEntity
  8
AM_VIS
100
AcDbLine
 10
292.1266936446285
 20
325.3213868877078
 30
0.0
 11
292.1266936446285
 21
326.4282597765448
 31
0.0
  0
LINE
  5
225E
330
1F
100
AcDbEntity
  8
AM_VIS
100
AcDbLine
 10
289.4448582564414
 20
323.7464243883599
 30
0.0
 11
290.5517311452776
 21
323.7464243883599
 31
0.0
  0
LINE
  5
225F
330
1F
100
AcDbEntity
  8
AM_VIS
100
AcDbLine
 10
293.8185290328115
 20
324.7364243883599
 30
0.0
 11
292.7116561439754
 21
324.7364243883599
 31
0.0
  0
ARC
  5
2260
330
1F
100
AcDbEntity
  8
AM_VIS
100
AcDbCircle
 10
291.6316936446265
 20
324.2414243883597
 30
0.0
 40
1.187999999999988
100
AcDbArc
 50
24.62431835216576
 51
65.37568164773074
  0
ARC
  5
2261
330
1F
100
AcDbEntity
  8
AM_VIS
100
AcDbCircle
 10
291.6316936446265
 20
324.2414243883597
 30
0.0
 40
1.187999999999988
100
AcDbArc
 50
114.6243183520609
 51
155.3756816478342
  0
ARC
  5
2262
330
1F
100
AcDbEntity
  8
AM_VIS
100
AcDbCircle
 10
291.6316936446265
 20
324.2414243883597
 30
0.0
 40
1.187999999999988
100
AcDbArc
 50
204.6243183521658
 51
245.3756816479391
  0
ARC
  5
2263
330
1F
100
AcDbEntity
  8
AM_VIS
100
AcDbCircle
 10
291.6316936446265
 20
324.2414243883597
 30
0.0
 40
1.187999999999988
100
AcDbArc
 50
294.6243183522692
 51
335.3756816478342
  0
LINE
  5
2264
330
1F
100
AcDbEntity
  8
AM_VIS
100
AcDbLine
 10
323.2816936446265
 20
350.6051175711643
 30
0.0
 11
323.2816936446265
 21
325.8777312055554
 31
0.0
  0
LINE
  5
2265
102
{ACAD_REACTORS
330
2540
102
}
330
1F
100
AcDbEntity
  8
AM_VIS
100
AcDbLine
 10
317.9953868274308
 20
320.5914243883599
 30
0.0
 11
311.1316936446266
 21
320.5914243883599
 31
0.0
  0
LINE
  5
2266
330
1F
100
AcDbEntity
  8
AM_VIS
100
AcDbLine
 10
300.1316936446266
 20
320.5914243883599
 30
0.0
 11
293.268000461822
 21
320.5914243883599
 31
0.0
  0
LINE
  5
2267
330
1F
100
AcDbEntity
  8
AM_VIS
100
AcDbLine
 10
287.9816936446265
 20
325.8777312055552
 30
0.0
 11
287.9816936446265
 21
350.6051175711642
 31
0.0
  0
LINE
  5
2268
330
1F
100
AcDbEntity
  8
AM_VIS
100
AcDbLine
 10
389.4383854314831
 20
233.4569549958691
 30
0.0
 11
389.4383854314831
 21
232.8047910061577
 31
0.0
  0
LINE
  5
2269
330
1F
100
AcDbEntity
  8
AM_VIS
100
AcDbLine
 10
388.6025305938297
 20
229.4771590987559
 30
0.0
 11
388.6025305938297
 21
232.4771590987558
 31
0.0
  0
LINE
  5
226A
330
1F
100
AcDbEntity
  8
AM_VIS
100
AcDbLine
 10
389.3946123810848
 20
232.4771590987558
 30
0.0
 11
389.3946123810848
 21
229.4771590987559
 31
0.0
  0
ARC
  5
226B
330
1F
100
AcDbEntity
  8
AM_VIS
100
AcDbCircle
 10
390.3569260700436
 20
232.5480635245949
 30
0.0
 40
0.9649223147802729
100
AcDbArc
 50
109.621369398012
 51
184.2140068725104
  0
ARC
  5
226C
330
1F
100
AcDbEntity
  8
AM_VIS
100
AcDbCircle
 10
389.612398638769
 20
232.4620779619768
 30
0.0
 40
1.009980647773141
100
AcDbArc
 50
99.92120098229367
 51
179.1444216249517
  0
LINE
  5
226D
330
1F
100
AcDbEntity
  8
AM_VIS
100
AcDbLine
 10
392.7217840816021
 20
232.4771590987558
 30
0.0
 11
392.7217840816021
 21
229.4771590987559
 31
0.0
  0
SPLINE
  5
226E
330
1F
100
AcDbEntity
  8
AM_VIS
100
AcDbSpline
210
0.0
220
0.0
230
1.0
 70
     8
 71
     3
 72
    22
 73
    18
 74
     0
 42
0.0000000001
 43
0.0000000001
 40
-1.366730172614414
 40
-1.366730172614414
 40
-1.366730172614414
 40
-1.366730172614414
 40
-1.363124419720032
 40
-1.363124419720032
 40
-1.14303343108981
 40
-1.14303343108981
 40
-0.9385155228251909
 40
-0.9385155228251909
 40
-0.7339976145605709
 40
-0.7339976145605709
 40
-0.5448701737140303
 40
-0.5448701737140303
 40
-0.3557427328674896
 40
-0.3557427328674896
 40
-0.1778713664337443
 40
-0.1778713664337443
 40
0.0
 40
0.0
 40
0.0
 40
0.0
 10
393.0653353319361
 20
233.4569549958691
 30
0.0
 10
393.0648457123606
 20
233.4567238441128
 30
0.0
 10
393.0643562194347
 20
233.4564907000652
 30
0.0
 10
393.0339973185527
 20
233.4419034157404
 30
0.0
 10
393.004677411852
 20
233.4197235118139
 30
0.0
 10
392.9545980186265
 20
233.3688906903484
 30
0.0
 10
392.9290488417373
 20
233.3364182690252
 30
0.0
 10
392.881022363517
 20
233.2584677134024
 30
0.0
 10
392.8585545497855
 20
233.2129489178293
 30
0.0
 10
392.8221206777588
 20
233.1236063797484
 30
0.0
 10
392.8045376806942
 20
233.0723083064962
 30
0.0
 10
392.7740206236941
 20
232.9609487541968
 30
0.0
 10
392.7611001850991
 20
232.9008613093064
 30
0.0
 10
392.7423083993704
 20
232.7890198820446
 30
0.0
 10
392.7344526614041
 20
232.7274016620906
 30
0.0
 10
392.7241872212054
 20
232.6011183536301
 30
0.0
 10
392.7217840816021
 20
232.5364495542337
 30
0.0
 10
392.7217840816021
 20
232.4771590987558
 30
0.0
  0
LINE
  5
226F
330
1F
100
AcDbEntity
  8
AM_VIS
100
AcDbLine
 10
391.3722943696933
 20
233.4569549958691
 30
0.0
 11
391.3722943696933
 21
229.4771590987559
 31
0.0
  0
LINE
  5
2270
330
1F
100
AcDbEntity
  8
AM_VIS
100
AcDbLine
 10
390.466125991707
 20
229.4771590987559
 30
0.0
 11
390.466125991707
 21
232.4771590987558
 31
0.0
  0
ARC
  5
2271
330
1F
100
AcDbEntity
  8
AM_VIS
100
AcDbCircle
 10
391.5043212320334
 20
232.4259146176589
 30
0.0
 40
1.039459164122916
100
AcDbArc
 50
97.29713200720173
 51
177.174219813807
  0
LINE
  5
2272
330
1F
100
AcDbEntity
  8
AM_VIS
100
AcDbLine
 10
398.0775139648646
 20
232.4771590987558
 30
0.0
 11
398.0775139648646
 21
229.4771590987559
 31
0.0
  0
LINE
  5
2273
330
1F
100
AcDbEntity
  8
AM_VIS
100
AcDbLine
 10
398.0740239266576
 20
233.4569549958691
 30
0.0
 11
398.0740239266576
 21
229.4771590987559
 31
0.0
  0
LINE
  5
2274
330
1F
100
AcDbEntity
  8
AM_VIS
100
AcDbLine
 10
398.0749113744674
 20
233.4569576358601
 30
0.0
 11
398.077826088856
 21
232.4771600272662
 31
0.0
  0
LINE
  5
2275
330
1F
100
AcDbEntity
  8
AM_VIS
100
AcDbLine
 10
395.5402090661321
 20
233.4569549958691
 30
0.0
 11
395.5402090661321
 21
229.4771590987559
 31
0.0
  0
LINE
  5
2276
330
1F
100
AcDbEntity
  8
AM_VIS
100
AcDbLine
 10
394.7016830689245
 20
229.4771590987559
 30
0.0
 11
394.7016830689245
 21
232.4771590987558
 31
0.0
  0
ARC
  5
2277
330
1F
100
AcDbEntity
  8
AM_VIS
100
AcDbCircle
 10
395.7125439813782
 20
232.4607574882732
 30
0.0
 40
1.010993964944036
100
AcDbArc
 50
99.81461633879021
 51
179.0704353163434
  0
LINE
  5
2278
330
1F
100
AcDbEntity
  8
AM_VIS
100
AcDbLine
 10
404.6464407059576
 20
232.4771590987558
 30
0.0
 11
404.6464407059576
 21
229.4771590987559
 31
0.0
  0
LINE
  5
2279
330
1F
100
AcDbEntity
  8
AM_VIS
100
AcDbLine
 10
404.2964407058893
 20
233.4569549958691
 30
0.0
 11
404.2964407058893
 21
229.4771590987559
 31
0.0
  0
SPLINE
  5
227A
330
1F
100
AcDbEntity
  8
AM_VIS
100
AcDbSpline
210
0.0
220
0.0
230
1.0
 70
     8
 71
     3
 72
    22
 73
    18
 74
     0
 42
0.0000000001
 43
0.0000000001
 40
-1.366730172614414
 40
-1.366730172614414
 40
-1.366730172614414
 40
-1.366730172614414
 40
-1.363124419720032
 40
-1.363124419720032
 40
-1.14303343108981
 40
-1.14303343108981
 40
-0.93851552282519
 40
-0.93851552282519
 40
-0.7339976145605692
 40
-0.7339976145605692
 40
-0.5448701737140294
 40
-0.5448701737140294
 40
-0.3557427328674896
 40
-0.3557427328674896
 40
-0.1778713664337452
 40
-0.1778713664337452
 40
0.0
 40
0.0
 40
0.0
 40
0.0
 10
404.2964407058893
 20
233.4569549958691
 30
0.0
 10
404.2969395160415
 20
233.4567238441128
 30
0.0
 10
404.2974381971667
 20
233.4564907000652
 30
0.0
 10
404.3283669604893
 20
233.4419034157404
 30
0.0
 10
404.3582372268246
 20
233.4197235118139
 30
0.0
 10
404.4092566529372
 20
233.3688906903484
 30
0.0
 10
404.4352854096489
 20
233.3364182690252
 30
0.0
 10
404.4842133857924
 20
233.2584677134024
 30
0.0
 10
404.5071029395343
 20
233.2129489178293
 30
0.0
 10
404.5442207063867
 20
233.1236063797484
 30
0.0
 10
404.56213375129
 20
233.0723083064962
 30
0.0
 10
404.5932236394559
 20
232.9609487541968
 30
0.0
 10
404.6063866056937
 20
232.9008613093064
 30
0.0
 10
404.6255311292545
 20
232.7890198820446
 30
0.0
 10
404.6335343261169
 20
232.7274016620906
 30
0.0
 10
404.6439924573761
 20
232.6011183536301
 30
0.0
 10
404.6464407059576
 20
232.5364495542337
 30
0.0
 10
404.6464407059576
 20
232.4771590987558
 30
0.0
  0
LINE
  5
227B
330
1F
100
AcDbEntity
  8
AM_VIS
100
AcDbLine
 10
401.3076022905073
 20
233.4569549958691
 30
0.0
 11
401.3076022905073
 21
229.4771590987559
 31
0.0
  0
LINE
  5
227C
330
1F
100
AcDbEntity
  8
AM_VIS
100
AcDbLine
 10
400.6643766558961
 20
229.4771590987559
 30
0.0
 11
400.6643766558961
 21
232.4771590987558
 31
0.0
  0
ARC
  5
227D
330
1F
100
AcDbEntity
  8
AM_VIS
100
AcDbCircle
 10
401.6270675247154
 20
232.5461960927656
 30
0.0
 40
0.9651631030297062
100
AcDbArc
 50
109.3292465589044
 51
184.1018032685835
  0
LINE
  5
227E
330
1F
100
AcDbEntity
  8
AM_VIS
100
AcDbLine
 10
411.428504756019
 20
232.4771590987558
 30
0.0
 11
411.428504756019
 21
229.4771590987559
 31
0.0
  0
LINE
  5
227F
330
1F
100
AcDbEntity
  8
AM_VIS
100
AcDbLine
 10
410.7852791213421
 20
233.4569549958691
 30
0.0
 11
410.7852791213421
 21
229.4771590987559
 31
0.0
  0
ARC
  5
2280
330
1F
100
AcDbEntity
  8
AM_VIS
100
AcDbCircle
 10
410.4658138871967
 20
232.5461960927422
 30
0.0
 40
0.965163103031047
100
AcDbArc
 50
355.8981967328139
 51
70.67075344506537
  0
LINE
  5
2281
330
1F
100
AcDbEntity
  8
AM_VIS
100
AcDbLine
 10
407.7964407059575
 20
233.4569549958691
 30
0.0
 11
407.7964407059575
 21
229.4771590987559
 31
0.0
  0
LINE
  5
2282
330
1F
100
AcDbEntity
  8
AM_VIS
100
AcDbLine
 10
407.4464407059576
 20
229.4771590987559
 30
0.0
 11
407.4464407059576
 21
232.4771590987558
 31
0.0
  0
SPLINE
  5
2283
330
1F
100
AcDbEntity
  8
AM_VIS
100
AcDbSpline
210
0.0
220
0.0
230
1.0
 70
     8
 71
     3
 72
    22
 73
    18
 74
     0
 42
0.0000000001
 43
0.0000000001
 40
0.0
 40
0.0
 40
0.0
 40
0.0
 40
0.177871366435846
 40
0.177871366435846
 40
0.355742732871692
 40
0.355742732871692
 40
0.5448701737170528
 40
0.5448701737170528
 40
0.7339976145624138
 40
0.7339976145624138
 40
0.9385155228210917
 40
0.9385155228210917
 40
1.143033431079769
 40
1.143033431079769
 40
1.363124419698849
 40
1.363124419698849
 40
1.366730172590592
 40
1.366730172590592
 40
1.366730172590592
 40
1.366730172590592
 10
407.4464407059576
 20
232.4771590987558
 30
0.0
 10
407.4464407059576
 20
232.5364495542344
 30
0.0
 10
407.4488889545385
 20
232.6011183536316
 30
0.0
 10
407.4593470857961
 20
232.7274016620937
 30
0.0
 10
407.4673502826571
 20
232.7890198820487
 30
0.0
 10
407.4864948062146
 20
232.900861309311
 30
0.0
 10
407.4996577724499
 20
232.9609487542013
 30
0.0
 10
407.5307476606104
 20
233.072308306501
 30
0.0
 10
407.5486607055105
 20
233.1236063797534
 30
0.0
 10
407.585778472356
 20
233.2129489178337
 30
0.0
 10
407.6086680260933
 20
233.2584677134063
 30
0.0
 10
407.6575960022272
 20
233.3364182690281
 30
0.0
 10
407.683624758934
 20
233.368890690351
 30
0.0
 10
407.7346441850364
 20
233.4197235118154
 30
0.0
 10
407.7645144513653
 20
233.4419034157413
 30
0.0
 10
407.795443214681
 20
233.4564907000655
 30
0.0
 10
407.7959418958058
 20
233.456723844113
 30
0.0
 10
407.7964407059575
 20
233.4569549958691
 30
0.0
  0
LINE
  5
2284
330
1F
100
AcDbEntity
  8
AM_VIS
100
AcDbLine
 10
417.3911983429905
 20
232.4771590987558
 30
0.0
 11
417.3911983429905
 21
229.4771590987559
 31
0.0
  0
LINE
  5
2285
330
1F
100
AcDbEntity
  8
AM_VIS
100
AcDbLine
 10
416.5526723457297
 20
233.4569549958691
 30
0.0
 11
416.5526723457297
 21
229.4771590987559
 31
0.0
  0
ARC
  5
2286
330
1F
100
AcDbEntity
  8
AM_VIS
100
AcDbCircle
 10
416.3802556890168
 20
232.4606875324803
 30
0.0
 40
1.011076832945618
100
AcDbArc
 50
0.933453273886951
 51
80.1814950745847
  0
LINE
  5
2287
330
1F
100
AcDbEntity
  8
AM_VIS
100
AcDbLine
 10
414.0188574851974
 20
233.4569549958691
 30
0.0
 11
414.0188574851974
 21
229.4771590987559
 31
0.0
  0
LINE
  5
2288
330
1F
100
AcDbEntity
  8
AM_VIS
100
AcDbLine
 10
414.0153674470505
 20
229.4771590987559
 30
0.0
 11
414.0153674470505
 21
232.4771590987558
 31
0.0
  0
LINE
  5
2289
330
1F
100
AcDbEntity
  8
AM_VIS
100
AcDbLine
 10
414.0150542785273
 20
232.4771599757845
 30
0.0
 11
414.0177982033405
 21
233.4569579623885
 31
0.0
  0
LINE
  5
228A
330
1F
100
AcDbEntity
  8
AM_VIS
100
AcDbLine
 10
421.6267554202081
 20
232.4771590987558
 30
0.0
 11
421.6267554202081
 21
229.4771590987559
 31
0.0
  0
LINE
  5
228B
330
1F
100
AcDbEntity
  8
AM_VIS
100
AcDbLine
 10
420.7205870421891
 20
233.4569549958691
 30
0.0
 11
420.7205870421891
 21
229.4771590987559
 31
0.0
  0
ARC
  5
228C
330
1F
100
AcDbEntity
  8
AM_VIS
100
AcDbCircle
 10
420.588560179868
 20
232.4259146176418
 30
0.0
 40
1.039459164137604
100
AcDbArc
 50
2.825780187099398
 51
82.70286799394757
  0
LINE
  5
228D
330
1F
100
AcDbEntity
  8
AM_VIS
100
AcDbLine
 10
419.371097330313
 20
229.4771590987559
 30
0.0
 11
419.371097330313
 21
232.4771590987558
 31
0.0
  0
SPLINE
  5
228E
330
1F
100
AcDbEntity
  8
AM_VIS
100
AcDbSpline
210
0.0
220
0.0
230
1.0
 70
     8
 71
     3
 72
    22
 73
    18
 74
     0
 42
0.0000000001
 43
0.0000000001
 40
0.0
 40
0.0
 40
0.0
 40
0.0
 40
0.1778713664358465
 40
0.1778713664358465
 40
0.3557427328716931
 40
0.3557427328716931
 40
0.5448701737170528
 40
0.5448701737170528
 40
0.7339976145624126
 40
0.7339976145624126
 40
0.9385155228210921
 40
0.9385155228210921
 40
1.143033431079771
 40
1.143033431079771
 40
1.36312441969885
 40
1.36312441969885
 40
1.366730172590593
 40
1.366730172590593
 40
1.366730172590593
 40
1.366730172590593
 10
419.371097330313
 20
232.4771590987558
 30
0.0
 10
419.371097330313
 20
232.5364495542344
 30
0.0
 10
419.3686941907095
 20
232.6011183536316
 30
0.0
 10
419.3584287505092
 20
232.7274016620938
 30
0.0
 10
419.3505730125417
 20
232.7890198820487
 30
0.0
 10
419.3317812268101
 20
232.900861309311
 30
0.0
 10
419.3188607882133
 20
232.9609487542013
 30
0.0
 10
419.2883437312088
 20
233.072308306501
 30
0.0
 10
419.2707607341418
 20
233.1236063797534
 30
0.0
 10
419.2343268621104
 20
233.2129489178337
 30
0.0
 10
419.211859048376
 20
233.2584677134063
 30
0.0
 10
419.1638325701495
 20
233.3364182690281
 30
0.0
 10
419.1382833932571
 20
233.368890690351
 30
0.0
 10
419.0882040000257
 20
233.4197235118154
 30
0.0
 10
419.0588840933217
 20
233.4419034157413
 30
0.0
 10
419.0285251924368
 20
233.4564907000655
 30
0.0
 10
419.0280356995112
 20
233.456723844113
 30
0.0
 10
419.027546079936
 20
233.4569549958691
 30
0.0
  0
LINE
  5
228F
330
1F
100
AcDbEntity
  8
AM_VIS
100
AcDbLine
 10
423.4903508180856
 20
232.4771590987558
 30
0.0
 11
423.4903508180856
 21
229.4771590987559
 31
0.0
  0
LINE
  5
2290
330
1F
100
AcDbEntity
  8
AM_VIS
100
AcDbLine
 10
422.6544959804249
 20
233.4569549958691
 30
0.0
 11
422.6544959804249
 21
232.8047910061789
 31
0.0
  0
ARC
  5
2291
330
1F
100
AcDbEntity
  8
AM_VIS
100
AcDbCircle
 10
422.4804827731442
 20
232.4620779619738
 30
0.0
 40
1.009980647775216
100
AcDbArc
 50
0.8555783752176811
 51
80.07879901803027
  0
LINE
  5
2292
330
1F
100
AcDbEntity
  8
AM_VIS
100
AcDbLine
 10
422.6982690308303
 20
229.4771590987559
 30
0.0
 11
422.6982690308303
 21
232.4771590987558
 31
0.0
  0
ARC
  5
2293
330
1F
100
AcDbEntity
  8
AM_VIS
100
AcDbCircle
 10
421.7359553418682
 20
232.5480635245861
 30
0.0
 40
0.9649223147830962
100
AcDbArc
 50
355.7859931280219
 51
70.37863060305925
  0
LINE
  5
2294
330
1F
100
AcDbEntity
  8
AM_VIS
100
AcDbLine
 10
390.3293512555316
 20
227.9771590987559
 30
0.0
 11
390.3293512555316
 21
227.4771590987559
 31
0.0
  0
LINE
  5
2295
330
1F
100
AcDbEntity
  8
AM_VIS
100
AcDbLine
 10
390.9914562094043
 20
227.9771590987559
 30
0.0
 11
390.9914562094043
 21
227.4771590987559
 31
0.0
  0
LINE
  5
2296
330
1F
100
AcDbEntity
  8
AM_VIS
100
AcDbLine
 10
392.0242648462112
 20
227.9771590987559
 30
0.0
 11
392.0242648462112
 21
227.4771590987559
 31
0.0
  0
LINE
  5
2297
330
1F
100
AcDbEntity
  8
AM_VIS
100
AcDbLine
 10
393.4023459896185
 20
227.9771590987559
 30
0.0
 11
393.4023459896185
 21
227.4771590987559
 31
0.0
  0
LINE
  5
2298
330
1F
100
AcDbEntity
  8
AM_VIS
100
AcDbLine
 10
395.0917667082867
 20
227.9771590987559
 30
0.0
 11
395.0917667082867
 21
227.4771590987559
 31
0.0
  0
LINE
  5
2299
330
1F
100
AcDbEntity
  8
AM_VIS
100
AcDbLine
 10
397.0509278572562
 20
227.9771590987559
 30
0.0
 11
397.0509278572562
 21
227.4771590987559
 31
0.0
  0
LINE
  5
229A
330
1F
100
AcDbEntity
  8
AM_VIS
100
AcDbLine
 10
399.2315883869561
 20
227.9771590987559
 30
0.0
 11
399.2315883869561
 21
227.4771590987559
 31
0.0
  0
LINE
  5
229B
330
1F
100
AcDbEntity
  8
AM_VIS
100
AcDbLine
 10
401.5800531979481
 20
227.9771590987559
 30
0.0
 11
401.5800531979481
 21
227.4771590987559
 31
0.0
  0
LINE
  5
229C
330
1F
100
AcDbEntity
  8
AM_VIS
100
AcDbLine
 10
404.0384952924775
 20
227.9771590987559
 30
0.0
 11
404.0384952924775
 21
227.4771590987559
 31
0.0
  0
LINE
  5
229D
330
1F
100
AcDbEntity
  8
AM_VIS
100
AcDbLine
 10
408.0543861194376
 20
227.4771590987559
 30
0.0
 11
408.0543861194376
 21
227.9771590987559
 31
0.0
  0
LINE
  5
229E
330
1F
100
AcDbEntity
  8
AM_VIS
100
AcDbLine
 10
410.512828213967
 20
227.4771590987559
 30
0.0
 11
410.512828213967
 21
227.9771590987559
 31
0.0
  0
LINE
  5
229F
330
1F
100
AcDbEntity
  8
AM_VIS
100
AcDbLine
 10
412.861293024959
 20
227.4771590987559
 30
0.0
 11
412.861293024959
 21
227.9771590987559
 31
0.0
  0
LINE
  5
22A0
330
1F
100
AcDbEntity
  8
AM_VIS
100
AcDbLine
 10
415.041953554659
 20
227.4771590987559
 30
0.0
 11
415.041953554659
 21
227.9771590987559
 31
0.0
  0
LINE
  5
22A1
330
1F
100
AcDbEntity
  8
AM_VIS
100
AcDbLine
 10
417.0011147036284
 20
227.4771590987559
 30
0.0
 11
417.0011147036284
 21
227.9771590987559
 31
0.0
  0
LINE
  5
22A2
330
1F
100
AcDbEntity
  8
AM_VIS
100
AcDbLine
 10
418.6905354222966
 20
227.4771590987559
 30
0.0
 11
418.6905354222966
 21
227.9771590987559
 31
0.0
  0
LINE
  5
22A3
330
1F
100
AcDbEntity
  8
AM_VIS
100
AcDbLine
 10
420.068616565704
 20
227.4771590987559
 30
0.0
 11
420.068616565704
 21
227.9771590987559
 31
0.0
  0
LINE
  5
22A4
330
1F
100
AcDbEntity
  8
AM_VIS
100
AcDbLine
 10
421.1014252025108
 20
227.4771590987559
 30
0.0
 11
421.1014252025108
 21
227.9771590987559
 31
0.0
  0
LINE
  5
22A5
330
1F
100
AcDbEntity
  8
AM_VIS
100
AcDbLine
 10
421.7635301563835
 20
227.4771590987559
 30
0.0
 11
421.7635301563835
 21
227.9771590987559
 31
0.0
  0
LINE
  5
22A6
330
1F
100
AcDbEntity
  8
AM_VIS
100
AcDbLine
 10
423.5464407059575
 20
227.9771590987559
 30
0.0
 11
423.5464407059575
 21
232.4771590987558
 31
0.0
  0
LINE
  5
22A7
330
1F
100
AcDbEntity
  8
AM_VIS
100
AcDbLine
 10
388.5464407059576
 20
227.9771590987559
 30
0.0
 11
388.5464407059576
 21
232.4771590987558
 31
0.0
  0
LINE
  5
22A8
330
1F
100
AcDbEntity
  8
AM_VIS
100
AcDbLine
 10
422.5464407059575
 20
227.4771590987559
 30
0.0
 11
422.5464407059575
 21
227.9771590987559
 31
0.0
  0
LINE
  5
22A9
330
1F
100
AcDbEntity
  8
AM_VIS
100
AcDbLine
 10
389.5464407059576
 20
227.4771590987559
 30
0.0
 11
389.5464407059576
 21
227.9771590987559
 31
0.0
  0
LINE
  5
22AA
330
1F
100
AcDbEntity
  8
AM_VIS
100
AcDbLine
 10
389.7434272564354
 20
227.4771590987559
 30
0.0
 11
389.7434272564354
 21
227.9771590987559
 31
0.0
  0
LINE
  5
22AB
330
1F
100
AcDbEntity
  8
AM_VIS
100
AcDbLine
 10
390.3295364452351
 20
227.4771590987559
 30
0.0
 11
390.3295364452351
 21
227.9771590987559
 31
0.0
  0
LINE
  5
22AC
330
1F
100
AcDbEntity
  8
AM_VIS
100
AcDbLine
 10
391.2903363189437
 20
227.4771590987559
 30
0.0
 11
391.2903363189437
 21
227.9771590987559
 31
0.0
  0
LINE
  5
22AD
330
1F
100
AcDbEntity
  8
AM_VIS
100
AcDbLine
 10
392.6021687959584
 20
227.4771590987559
 30
0.0
 11
392.6021687959584
 21
227.9771590987559
 31
0.0
  0
LINE
  5
22AE
330
1F
100
AcDbEntity
  8
AM_VIS
100
AcDbLine
 10
394.2327322069729
 20
227.4771590987559
 30
0.0
 11
394.2327322069729
 21
227.9771590987559
 31
0.0
  0
LINE
  5
22AF
330
1F
100
AcDbEntity
  8
AM_VIS
100
AcDbLine
 10
396.1418766692781
 20
227.4771590987559
 30
0.0
 11
396.1418766692781
 21
227.9771590987559
 31
0.0
  0
LINE
  5
22B0
330
1F
100
AcDbEntity
  8
AM_VIS
100
AcDbLine
 10
398.2825927101249
 20
227.4771590987559
 30
0.0
 11
398.2825927101249
 21
227.9771590987559
 31
0.0
  0
LINE
  5
22B1
330
1F
100
AcDbEntity
  8
AM_VIS
100
AcDbLine
 10
400.6021687959584
 20
227.4771590987559
 30
0.0
 11
400.6021687959584
 21
227.9771590987559
 31
0.0
  0
LINE
  5
22B2
330
1F
100
AcDbEntity
  8
AM_VIS
100
AcDbLine
 10
403.0434892653139
 20
227.4771590987559
 30
0.0
 11
403.0434892653139
 21
227.9771590987559
 31
0.0
  0
LINE
  5
22B3
330
1F
100
AcDbEntity
  8
AM_VIS
100
AcDbLine
 10
406.5464407059575
 20
227.4771590987559
 30
0.0
 11
406.5464407059575
 21
227.9771590987559
 31
0.0
  0
LINE
  5
22B4
330
1F
100
AcDbEntity
  8
AM_VIS
100
AcDbLine
 10
405.5464407059576
 20
227.4771590987559
 30
0.0
 11
405.5464407059576
 21
227.9771590987559
 31
0.0
  0
LINE
  5
22B5
330
1F
100
AcDbEntity
  8
AM_VIS
100
AcDbLine
 10
409.0493921466012
 20
227.4771590987559
 30
0.0
 11
409.0493921466012
 21
227.9771590987559
 31
0.0
  0
LINE
  5
22B6
330
1F
100
AcDbEntity
  8
AM_VIS
100
AcDbLine
 10
411.4907126159567
 20
227.4771590987559
 30
0.0
 11
411.4907126159567
 21
227.9771590987559
 31
0.0
  0
LINE
  5
22B7
330
1F
100
AcDbEntity
  8
AM_VIS
100
AcDbLine
 10
413.8102887017903
 20
227.4771590987559
 30
0.0
 11
413.8102887017903
 21
227.9771590987559
 31
0.0
  0
LINE
  5
22B8
330
1F
100
AcDbEntity
  8
AM_VIS
100
AcDbLine
 10
415.9510047426371
 20
227.4771590987559
 30
0.0
 11
415.9510047426371
 21
227.9771590987559
 31
0.0
  0
LINE
  5
22B9
330
1F
100
AcDbEntity
  8
AM_VIS
100
AcDbLine
 10
417.8601492049422
 20
227.4771590987559
 30
0.0
 11
417.8601492049422
 21
227.9771590987559
 31
0.0
  0
LINE
  5
22BA
330
1F
100
AcDbEntity
  8
AM_VIS
100
AcDbLine
 10
419.4907126159567
 20
227.4771590987559
 30
0.0
 11
419.4907126159567
 21
227.9771590987559
 31
0.0
  0
LINE
  5
22BB
330
1F
100
AcDbEntity
  8
AM_VIS
100
AcDbLine
 10
420.8025450929714
 20
227.4771590987559
 30
0.0
 11
420.8025450929714
 21
227.9771590987559
 31
0.0
  0
LINE
  5
22BC
330
1F
100
AcDbEntity
  8
AM_VIS
100
AcDbLine
 10
421.76334496668
 20
227.4771590987559
 30
0.0
 11
421.76334496668
 21
227.9771590987559
 31
0.0
  0
LINE
  5
22BD
330
1F
100
AcDbEntity
  8
AM_VIS
100
AcDbLine
 10
422.3494541554797
 20
227.4771590987559
 30
0.0
 11
422.3494541554797
 21
227.9771590987559
 31
0.0
  0
LINE
  5
22BE
330
1F
100
AcDbEntity
  8
AM_VIS
100
AcDbLine
 10
388.6025305938297
 20
229.4771590987559
 30
0.0
 11
389.3946123810848
 21
229.4771590987559
 31
0.0
  0
LINE
  5
22BF
330
1F
100
AcDbEntity
  8
AM_VIS
100
AcDbLine
 10
390.0329023563961
 20
233.4569549958691
 30
0.0
 11
389.4383854314831
 21
233.4569549958691
 31
0.0
  0
LINE
  5
22C0
330
1F
100
AcDbEntity
  8
AM_VIS
100
AcDbLine
 10
389.5464407059576
 20
233.4771590987558
 30
0.0
 11
422.5464407059575
 21
233.4771590987558
 31
0.0
  0
LINE
  5
22C1
330
1F
100
AcDbEntity
  8
AM_VIS
100
AcDbLine
 10
390.466125991707
 20
229.4771590987559
 30
0.0
 11
392.7217840816021
 21
229.4771590987559
 31
0.0
  0
LINE
  5
22C2
330
1F
100
AcDbEntity
  8
AM_VIS
100
AcDbLine
 10
393.0653353319361
 20
233.4569549958691
 30
0.0
 11
391.3722943696933
 21
233.4569549958691
 31
0.0
  0
LINE
  5
22C3
330
1F
100
AcDbEntity
  8
AM_VIS
100
AcDbLine
 10
394.7016830689245
 20
229.4771590987559
 30
0.0
 11
398.0775139648646
 21
229.4771590987559
 31
0.0
  0
LINE
  5
22C4
330
1F
100
AcDbEntity
  8
AM_VIS
100
AcDbLine
 10
398.0740239266576
 20
233.4569549958691
 30
0.0
 11
395.5402090661321
 21
233.4569549958691
 31
0.0
  0
LINE
  5
22C5
330
1F
100
AcDbEntity
  8
AM_VIS
100
AcDbLine
 10
400.6643766558961
 20
229.4771590987559
 30
0.0
 11
404.6464407059576
 21
229.4771590987559
 31
0.0
  0
LINE
  5
22C6
330
1F
100
AcDbEntity
  8
AM_VIS
100
AcDbLine
 10
404.2964407058893
 20
233.4569549958691
 30
0.0
 11
401.3076022905072
 21
233.4569549958691
 31
0.0
  0
LINE
  5
22C7
330
1F
100
AcDbEntity
  8
AM_VIS
100
AcDbLine
 10
407.4464407059576
 20
229.4771590987559
 30
0.0
 11
411.428504756019
 21
229.4771590987559
 31
0.0
  0
LINE
  5
22C8
330
1F
100
AcDbEntity
  8
AM_VIS
100
AcDbLine
 10
410.7852791213421
 20
233.4569549958691
 30
0.0
 11
407.7964407059575
 21
233.4569549958691
 31
0.0
  0
LINE
  5
22C9
330
1F
100
AcDbEntity
  8
AM_VIS
100
AcDbLine
 10
414.0153674470505
 20
229.4771590987559
 30
0.0
 11
417.3911983429907
 21
229.4771590987559
 31
0.0
  0
LINE
  5
22CA
330
1F
100
AcDbEntity
  8
AM_VIS
100
AcDbLine
 10
416.5526723457297
 20
233.4569549958691
 30
0.0
 11
414.0188574851974
 21
233.4569549958691
 31
0.0
  0
LINE
  5
22CB
330
1F
100
AcDbEntity
  8
AM_VIS
100
AcDbLine
 10
419.371097330313
 20
229.4771590987559
 30
0.0
 11
421.6267554202081
 21
229.4771590987559
 31
0.0
  0
LINE
  5
22CC
330
1F
100
AcDbEntity
  8
AM_VIS
100
AcDbLine
 10
420.7205870421891
 20
233.4569549958691
 30
0.0
 11
419.027546079936
 21
233.4569549958691
 31
0.0
  0
LINE
  5
22CD
330
1F
100
AcDbEntity
  8
AM_VIS
100
AcDbLine
 10
422.6982690308303
 20
229.4771590987559
 30
0.0
 11
423.4903508180856
 21
229.4771590987559
 31
0.0
  0
LINE
  5
22CE
330
1F
100
AcDbEntity
  8
AM_VIS
100
AcDbLine
 10
422.6544959804249
 20
233.4569549958691
 30
0.0
 11
422.0599790554996
 21
233.4569549958691
 31
0.0
  0
LINE
  5
22CF
330
1F
100
AcDbEntity
  8
AM_VIS
100
AcDbLine
 10
423.5464407059575
 20
227.9771590987559
 30
0.0
 11
388.5464407059576
 21
227.9771590987559
 31
0.0
  0
ARC
  5
22D0
330
1F
100
AcDbEntity
  8
AM_VIS
100
AcDbCircle
 10
422.5464407059575
 20
232.4771590987558
 30
0.0
 40
1.0
100
AcDbArc
 50
0.0
 51
90.0
  0
ARC
  5
22D1
330
1F
100
AcDbEntity
  8
AM_VIS
100
AcDbCircle
 10
389.5464407059576
 20
232.4771590987558
 30
0.0
 40
1.0
100
AcDbArc
 50
90.0
 51
180.0
  0
LINE
  5
22D2
330
1F
100
AcDbEntity
  8
AM_VIS
100
AcDbLine
 10
415.302521827482
 20
234.8771590987559
 30
0.0
 11
415.3025210224217
 21
234.8772242729952
 31
0.0
  0
LINE
  5
22D3
330
1F
100
AcDbEntity
  8
AM_VIS
100
AcDbLine
 10
396.4604833733637
 20
236.8548110144918
 30
0.0
 11
396.7220214372673
 21
237.4699797027698
 31
0.0
  0
LINE
  5
22D4
330
1F
100
AcDbEntity
  8
AM_VIS
100
AcDbLine
 10
403.6039957416845
 20
236.8548104672152
 30
0.0
 11
403.6681814567344
 21
237.4699794258121
 31
0.0
  0
LINE
  5
22D5
330
1F
100
AcDbEntity
  8
AM_VIS
100
AcDbLine
 10
416.0779667558343
 20
237.4699797027698
 30
0.0
 11
416.3395048197381
 21
236.8548110144918
 31
0.0
  0
LINE
  5
22D6
330
1F
100
AcDbEntity
  8
AM_VIS
100
AcDbLine
 10
416.33950419384
 20
236.8548107483922
 30
0.0
 11
416.35764606968
 21
235.3858853019744
 31
0.0
  0
LINE
  5
22D7
330
1F
100
AcDbEntity
  8
AM_VIS
100
AcDbLine
 10
419.8982344272559
 20
236.8548104672152
 30
0.0
 11
419.4511238835745
 21
262.864908188179
 31
0.0
  0
SPLINE
  5
22D8
330
1F
100
AcDbEntity
  8
AM_VIS
100
AcDbSpline
210
0.0
220
0.0
230
1.0
 70
     8
 71
     3
 72
    25
 73
    21
 74
     0
 42
0.0000000001
 43
0.0000000001
 40
2.954275003529809
 40
2.954275003529809
 40
2.954275003529809
 40
2.954275003529809
 40
2.962929469345842
 40
2.962929469345842
 40
2.962929469345842
 40
3.055470591738252
 40
3.055470591738252
 40
3.148011714130663
 40
3.148011714130663
 40
3.240582645396912
 40
3.240582645396912
 40
3.333153576663161
 40
3.333153576663161
 40
3.425761979201984
 40
3.425761979201984
 40
3.518370381740807
 40
3.518370381740807
 40
3.611012182903183
 40
3.611012182903183
 40
3.70365398406556
 40
3.70365398406556
 40
3.70365398406556
 40
3.70365398406556
 10
416.35764606968
 20
235.3858853019744
 30
0.0
 10
416.3576822769703
 20
235.3829536262332
 30
0.0
 10
416.3576999885765
 20
235.3800439206946
 30
0.0
 10
416.3576999885765
 20
235.3771590987559
 30
0.0
 10
416.3576999885765
 20
235.3463120579584
 30
0.0
 10
416.3555470105225
 20
235.3126233123461
 30
0.0
 10
416.3462634471562
 20
235.2466465334005
 30
0.0
 10
416.3391328926492
 20
235.214358491398
 30
0.0
 10
416.3224306914486
 20
235.1573544672119
 30
0.0
 10
416.3113190788211
 20
235.1273877875757
 30
0.0
 10
416.28487580596
 20
235.071443588809
 30
0.0
 10
416.2695442107215
 20
235.0454660082356
 30
0.0
 10
416.2386750208014
 20
235.0018272617995
 30
0.0
 10
416.2202922300648
 20
234.9801474444598
 30
0.0
 10
416.1807070875289
 20
234.9427576558367
 30
0.0
 10
416.1595047821349
 20
234.9270475862927
 30
0.0
 10
416.119162362659
 20
234.9034245198667
 30
0.0
 10
416.0963047163479
 20
234.8933370591509
 30
0.0
 10
416.0495992781013
 20
234.8802043772511
 30
0.0
 10
416.0257514942231
 20
234.8771590987559
 30
0.0
 10
416.0039156122821
 20
234.8771590987559
 30
0.0
  0
LINE
  5
22D9
330
1F
100
AcDbEntity
  8
AM_VIS
100
AcDbLine
 10
415.3708599746479
 20
237.4699797027698
 30
0.0
 11
415.6323980385515
 21
236.8548110144918
 31
0.0
  0
SPLINE
  5
22DA
330
1F
100
AcDbEntity
  8
AM_VIS
100
AcDbSpline
210
0.0
220
0.0
230
1.0
 70
     8
 71
     3
 72
    25
 73
    21
 74
     0
 42
0.0000000001
 43
0.0000000001
 40
2.954275003529809
 40
2.954275003529809
 40
2.954275003529809
 40
2.954275003529809
 40
2.962929469345842
 40
2.962929469345842
 40
2.962929469345842
 40
3.055470591738252
 40
3.055470591738252
 40
3.148011714130663
 40
3.148011714130663
 40
3.240582645396912
 40
3.240582645396912
 40
3.333153576663161
 40
3.333153576663161
 40
3.425761979201984
 40
3.425761979201984
 40
3.518370381740807
 40
3.518370381740807
 40
3.611012182903183
 40
3.611012182903183
 40
3.70365398406556
 40
3.70365398406556
 40
3.70365398406556
 40
3.70365398406556
 10
396.4423421234217
 20
235.3858853019744
 30
0.0
 10
396.4423059161313
 20
235.3829536262332
 30
0.0
 10
396.4422882045252
 20
235.3800439206946
 30
0.0
 10
396.4422882045252
 20
235.3771590987559
 30
0.0
 10
396.4422882045252
 20
235.3463120579584
 30
0.0
 10
396.4444411825792
 20
235.3126233123461
 30
0.0
 10
396.4537247459454
 20
235.2466465334005
 30
0.0
 10
396.4608553004526
 20
235.214358491398
 30
0.0
 10
396.4775575016532
 20
235.1573544672119
 30
0.0
 10
396.4886691142806
 20
235.1273877875757
 30
0.0
 10
396.5151123871417
 20
235.071443588809
 30
0.0
 10
396.5304439823802
 20
235.0454660082356
 30
0.0
 10
396.5613131723003
 20
235.0018272617995
 30
0.0
 10
396.5796959630369
 20
234.9801474444598
 30
0.0
 10
396.6192811055729
 20
234.9427576558367
 30
0.0
 10
396.6404834109668
 20
234.9270475862927
 30
0.0
 10
396.6808258304426
 20
234.9034245198667
 30
0.0
 10
396.7036834767538
 20
234.8933370591509
 30
0.0
 10
396.7503889150004
 20
234.8802043772511
 30
0.0
 10
396.7742366988785
 20
234.8771590987559
 30
0.0
 10
396.7960725808197
 20
234.8771590987559
 30
0.0
  0
SPLINE
  5
22DB
330
1F
100
AcDbEntity
  8
AM_VIS
100
AcDbSpline
210
0.0
220
0.0
230
1.0
 70
     8
 71
     3
 72
    25
 73
    21
 74
     0
 42
0.0000000001
 43
0.0000000001
 40
2.222204954626122
 40
2.222204954626122
 40
2.222204954626122
 40
2.222204954626122
 40
2.314846755788499
 40
2.314846755788499
 40
2.407488556950875
 40
2.407488556950875
 40
2.500096959489698
 40
2.500096959489698
 40
2.59270536202852
 40
2.59270536202852
 40
2.68527629329477
 40
2.68527629329477
 40
2.77784722456102
 40
2.77784722456102
 40
2.870388346953429
 40
2.870388346953429
 40
2.962929469345838
 40
2.962929469345838
 40
2.962929469345838
 40
2.971583935161616
 40
2.971583935161616
 40
2.971583935161616
 40
2.971583935161616
 10
415.2968088310955
 20
234.8771590987559
 30
0.0
 10
415.3186447130366
 20
234.8771590987559
 30
0.0
 10
415.3424924969148
 20
234.8802043772511
 30
0.0
 10
415.3891979351613
 20
234.8933370591509
 30
0.0
 10
415.4120555814726
 20
234.9034245198667
 30
0.0
 10
415.4523980009484
 20
234.9270475862927
 30
0.0
 10
415.4736003063423
 20
234.9427576558367
 30
0.0
 10
415.5131854488782
 20
234.9801474444598
 30
0.0
 10
415.5315682396149
 20
235.0018272617995
 30
0.0
 10
415.5624374295349
 20
235.0454660082356
 30
0.0
 10
415.5777690247735
 20
235.071443588809
 30
0.0
 10
415.6042122976345
 20
235.1273877875757
 30
0.0
 10
415.615323910262
 20
235.1573544672119
 30
0.0
 10
415.6320261114625
 20
235.214358491398
 30
0.0
 10
415.6391566659698
 20
235.2466465334005
 30
0.0
 10
415.6484402293359
 20
235.3126233123461
 30
0.0
 10
415.6505932073899
 20
235.3463120579584
 30
0.0
 10
415.6505932073899
 20
235.3771590987559
 30
0.0
 10
415.6505932073899
 20
235.3800439206945
 30
0.0
 10
415.6505754957839
 20
235.3829536262333
 30
0.0
 10
415.6505392884935
 20
235.3858853019744
 30
0.0
  0
LINE
  5
22DC
330
1F
100
AcDbEntity
  8
AM_VIS
100
AcDbLine
 10
396.7903603894935
 20
234.8772242729952
 30
0.0
 11
396.7903595844331
 21
234.8771590987559
 31
0.0
  0
LINE
  5
22DD
330
1F
100
AcDbEntity
  8
AM_VIS
100
AcDbLine
 10
395.7533765921771
 20
236.8548110144918
 30
0.0
 11
396.0149146560807
 21
237.4699797027698
 31
0.0
  0
LINE
  5
22DE
330
1F
100
AcDbEntity
  8
AM_VIS
100
AcDbLine
 10
395.7352353422351
 20
235.3858853019744
 30
0.0
 11
395.7533772180751
 21
236.8548107483922
 31
0.0
  0
SPLINE
  5
22DF
330
1F
100
AcDbEntity
  8
AM_VIS
100
AcDbSpline
210
0.0
220
0.0
230
1.0
 70
     8
 71
     3
 72
    25
 73
    21
 74
     0
 42
0.0000000001
 43
0.0000000001
 40
2.222204954626122
 40
2.222204954626122
 40
2.222204954626122
 40
2.222204954626122
 40
2.314846755788499
 40
2.314846755788499
 40
2.407488556950875
 40
2.407488556950875
 40
2.500096959489698
 40
2.500096959489698
 40
2.59270536202852
 40
2.59270536202852
 40
2.68527629329477
 40
2.68527629329477
 40
2.77784722456102
 40
2.77784722456102
 40
2.870388346953429
 40
2.870388346953429
 40
2.962929469345838
 40
2.962929469345838
 40
2.962929469345838
 40
2.971583935161616
 40
2.971583935161616
 40
2.971583935161616
 40
2.971583935161616
 10
396.0889657996331
 20
234.8771590987559
 30
0.0
 10
396.067129917692
 20
234.8771590987559
 30
0.0
 10
396.0432821338139
 20
234.8802043772511
 30
0.0
 10
395.9965766955672
 20
234.8933370591509
 30
0.0
 10
395.9737190492561
 20
234.9034245198667
 30
0.0
 10
395.9333766297802
 20
234.9270475862927
 30
0.0
 10
395.9121743243863
 20
234.9427576558367
 30
0.0
 10
395.8725891818503
 20
234.9801474444598
 30
0.0
 10
395.8542063911137
 20
235.0018272617995
 30
0.0
 10
395.8233372011937
 20
235.0454660082356
 30
0.0
 10
395.8080056059552
 20
235.071443588809
 30
0.0
 10
395.781562333094
 20
235.1273877875757
 30
0.0
 10
395.7704507204667
 20
235.1573544672119
 30
0.0
 10
395.753748519266
 20
235.214358491398
 30
0.0
 10
395.7466179647588
 20
235.2466465334005
 30
0.0
 10
395.7373344013927
 20
235.3126233123461
 30
0.0
 10
395.7351814233387
 20
235.3463120579584
 30
0.0
 10
395.7351814233387
 20
235.3771590987559
 30
0.0
 10
395.7351814233387
 20
235.3800439206945
 30
0.0
 10
395.7351991349448
 20
235.3829536262333
 30
0.0
 10
395.7352353422351
 20
235.3858853019744
 30
0.0
  0
LINE
  5
22E0
330
1F
100
AcDbEntity
  8
AM_VIS
100
AcDbLine
 10
392.6417575283406
 20
262.864908188179
 30
0.0
 11
392.1946469846592
 21
236.8548104672152
 31
0.0
  0
LINE
  5
22E1
330
1F
100
AcDbEntity
  8
AM_VIS
100
AcDbLine
 10
394.524674037118
 20
236.8548104672152
 30
0.0
 11
394.8274578636096
 21
237.4699794258121
 31
0.0
  0
LINE
  5
22E2
330
1F
100
AcDbEntity
  8
AM_VIS
100
AcDbLine
 10
394.524674037118
 20
236.8548104672152
 30
0.0
 11
394.8965755729858
 21
262.864908188179
 31
0.0
  0
LINE
  5
22E3
330
1F
100
AcDbEntity
  8
AM_VIS
100
AcDbLine
 10
415.6505392884935
 20
235.3858853019744
 30
0.0
 11
415.6323974126535
 21
236.8548107483922
 31
0.0
  0
LINE
  5
22E4
330
1F
100
AcDbEntity
  8
AM_VIS
100
AcDbLine
 10
396.4604839992617
 20
236.8548107483922
 30
0.0
 11
396.4423421234217
 21
235.3858853019744
 31
0.0
  0
LINE
  5
22E5
330
1F
100
AcDbEntity
  8
AM_VIS
100
AcDbLine
 10
398.2392210898291
 20
262.864908188179
 30
0.0
 11
397.9788128309427
 21
236.8548104672152
 31
0.0
  0
LINE
  5
22E6
330
1F
100
AcDbEntity
  8
AM_VIS
100
AcDbLine
 10
403.6039957416845
 20
236.8548104672152
 30
0.0
 11
403.6828333938948
 21
262.864908188179
 31
0.0
  0
LINE
  5
22E7
330
1F
100
AcDbEntity
  8
AM_VIS
100
AcDbLine
 10
408.4100480180203
 20
262.864908188179
 30
0.0
 11
408.4888856702305
 21
236.8548104672152
 31
0.0
  0
LINE
  5
22E8
330
1F
100
AcDbEntity
  8
AM_VIS
100
AcDbLine
 10
408.4246999551806
 20
237.4699794258121
 30
0.0
 11
408.4888856702305
 21
236.8548104672152
 31
0.0
  0
LINE
  5
22E9
330
1F
100
AcDbEntity
  8
AM_VIS
100
AcDbLine
 10
414.1140685809724
 20
236.8548104672152
 30
0.0
 11
413.8536603220861
 21
262.864908188179
 31
0.0
  0
LINE
  5
22EA
330
1F
100
AcDbEntity
  8
AM_VIS
100
AcDbLine
 10
417.1963058389294
 20
262.864908188179
 30
0.0
 11
417.5682073747972
 21
236.8548104672152
 31
0.0
  0
LINE
  5
22EB
330
1F
100
AcDbEntity
  8
AM_VIS
100
AcDbLine
 10
417.2654235483054
 20
237.4699794258121
 30
0.0
 11
417.5682073747972
 21
236.8548104672152
 31
0.0
  0
LINE
  5
22EC
330
1F
100
AcDbEntity
  8
AM_VIS
100
AcDbLine
 10
417.1963058389295
 20
262.864908188179
 30
0.0
 11
416.8663968666964
 21
265.3771590982635
 31
0.0
  0
LINE
  5
22ED
330
1F
100
AcDbEntity
  8
AM_VIS
100
AcDbLine
 10
419.054497987354
 20
265.3771590987559
 30
0.0
 11
419.4511238835745
 21
262.864908188179
 31
0.0
  0
LINE
  5
22EE
330
1F
100
AcDbEntity
  8
AM_VIS
100
AcDbLine
 10
408.4100480180203
 20
262.864908188179
 30
0.0
 11
408.3401121712825
 21
265.3771590982636
 31
0.0
  0
LINE
  5
22EF
330
1F
100
AcDbEntity
  8
AM_VIS
100
AcDbLine
 10
413.6226555728056
 20
265.3771590982636
 30
0.0
 11
413.8536603220861
 21
262.864908188179
 31
0.0
  0
LINE
  5
22F0
330
1F
100
AcDbEntity
  8
AM_VIS
100
AcDbLine
 10
398.2392210898291
 20
262.864908188179
 30
0.0
 11
398.4702258391096
 21
265.3771590982636
 31
0.0
  0
LINE
  5
22F1
330
1F
100
AcDbEntity
  8
AM_VIS
100
AcDbLine
 10
403.7527692406461
 20
265.3771590987559
 30
0.0
 11
403.6828333938948
 21
262.864908188179
 31
0.0
  0
LINE
  5
22F2
330
1F
100
AcDbEntity
  8
AM_VIS
100
AcDbLine
 10
392.6417575283406
 20
262.864908188179
 30
0.0
 11
393.0383834244834
 21
265.3771590982635
 31
0.0
  0
LINE
  5
22F3
330
1F
100
AcDbEntity
  8
AM_VIS
100
AcDbLine
 10
395.2264845452187
 20
265.3771590982635
 30
0.0
 11
394.8965755729858
 21
262.864908188179
 31
0.0
  0
LINE
  5
22F4
330
1F
100
AcDbEntity
  8
AM_VIS
100
AcDbLine
 10
416.8663968666964
 20
265.3771590982635
 30
0.0
 11
417.2654235483055
 21
237.4699794258121
 31
0.0
  0
LINE
  5
22F5
330
1F
100
AcDbEntity
  8
AM_VIS
100
AcDbLine
 10
416.0779661043969
 20
237.4699794258121
 30
0.0
 11
416.0173580913675
 21
242.3771590987559
 31
0.0
  0
SPLINE
  5
22F6
330
1F
100
AcDbEntity
  8
AM_VIS
100
AcDbSpline
210
0.0
220
0.0
230
1.0
 70
     8
 71
     3
 72
    16
 73
    12
 74
     0
 42
0.0000000001
 43
0.0000000001
 40
1.507536476980759
 40
1.507536476980759
 40
1.507536476980759
 40
1.507536476980759
 40
1.507857113749058
 40
1.507857113749058
 40
1.696121439472485
 40
1.696121439472485
 40
1.884385765195912
 40
1.884385765195912
 40
2.072660659556293
 40
2.072660659556293
 40
2.260935553916674
 40
2.260935553916674
 40
2.260935553916674
 40
2.260935553916674
 10
416.0173581174738
 20
242.377159099401
 30
0.0
 10
416.0173567959353
 20
242.3772659862038
 30
0.0
 10
416.0173554539746
 20
242.3773728609476
 30
0.0
 10
416.0165517207361
 20
242.4402249409772
 30
0.0
 10
416.0071722411524
 20
242.5071524915936
 30
0.0
 10
415.9707725874961
 20
242.6302667611764
 30
0.0
 10
415.9437348110467
 20
242.6864533800996
 30
0.0
 10
415.8814974159007
 20
242.7751773835865
 30
0.0
 10
415.8421443553834
 20
242.8136304844985
 30
0.0
 10
415.7556578479037
 20
242.8646213889047
 30
0.0
 10
415.7085067157124
 20
242.8771590987559
 30
0.0
 10
415.6641298975359
 20
242.8771590987559
 30
0.0
  0
SPLINE
  5
22F7
330
1F
100
AcDbEntity
  8
AM_VIS
100
AcDbSpline
210
0.0
220
0.0
230
1.0
 70
     8
 71
     3
 72
    16
 73
    12
 74
     0
 42
0.0000000001
 43
0.0000000001
 40
0.7530784401676165
 40
0.7530784401676165
 40
0.7530784401676165
 40
0.7530784401676165
 40
0.941353334527999
 40
0.941353334527999
 40
1.129628228888381
 40
1.129628228888381
 40
1.317892554611808
 40
1.317892554611808
 40
1.506156880335235
 40
1.506156880335235
 40
1.506477517103662
 40
1.506477517103662
 40
1.506477517103662
 40
1.506477517103662
 10
415.6641298975359
 20
242.8771590987559
 30
0.0
 10
415.6197530793596
 20
242.8771590987559
 30
0.0
 10
415.5722340154028
 20
242.8646213889047
 30
0.0
 10
415.4845569818011
 20
242.8136304844985
 30
0.0
 10
415.4444164045393
 20
242.7751773835865
 30
0.0
 10
415.381106931036
 20
242.6864533800996
 30
0.0
 10
415.3537189531817
 20
242.6302667611764
 30
0.0
 10
415.3179077048361
 20
242.5071524915936
 30
0.0
 10
415.3095019863206
 20
242.4402249409772
 30
0.0
 10
415.3102487212597
 20
242.3773728609476
 30
0.0
 10
415.3102500177055
 20
242.3772659862037
 30
0.0
 10
415.3102513362872
 20
242.3771590994008
 30
0.0
  0
LINE
  5
22F8
330
1F
100
AcDbEntity
  8
AM_VIS
100
AcDbLine
 10
415.310251310181
 20
242.3771590987559
 30
0.0
 11
415.3708593232104
 21
237.4699794258121
 31
0.0
  0
LINE
  5
22F9
330
1F
100
AcDbEntity
  8
AM_VIS
100
AcDbLine
 10
408.3401121712825
 20
265.3771590982636
 30
0.0
 11
408.4246999551806
 21
237.4699794258121
 31
0.0
  0
LINE
  5
22FA
330
1F
100
AcDbEntity
  8
AM_VIS
100
AcDbLine
 10
403.6681814567344
 20
237.4699794258121
 30
0.0
 11
403.7527692406339
 21
265.377159098757
 31
0.0
  0
LINE
  5
22FB
330
1F
100
AcDbEntity
  8
AM_VIS
100
AcDbLine
 10
396.7220220887048
 20
237.4699794258121
 30
0.0
 11
396.7826301017342
 21
242.3771590987559
 31
0.0
  0
SPLINE
  5
22FC
330
1F
100
AcDbEntity
  8
AM_VIS
100
AcDbSpline
210
0.0
220
0.0
230
1.0
 70
     8
 71
     3
 72
    16
 73
    12
 74
     0
 42
0.0000000001
 43
0.0000000001
 40
1.507536476980761
 40
1.507536476980761
 40
1.507536476980761
 40
1.507536476980761
 40
1.507857113749062
 40
1.507857113749062
 40
1.696121439472489
 40
1.696121439472489
 40
1.884385765195915
 40
1.884385765195915
 40
2.072660659556296
 40
2.072660659556296
 40
2.260935553916676
 40
2.260935553916676
 40
2.260935553916676
 40
2.260935553916676
 10
396.7826300756279
 20
242.377159099401
 30
0.0
 10
396.7826313942096
 20
242.3772659862038
 30
0.0
 10
396.7826326906555
 20
242.3773728609476
 30
0.0
 10
396.7833794255945
 20
242.4402249409772
 30
0.0
 10
396.7749737070791
 20
242.5071524915936
 30
0.0
 10
396.7391624587334
 20
242.6302667611764
 30
0.0
 10
396.7117744808792
 20
242.6864533800996
 30
0.0
 10
396.6484650073758
 20
242.7751773835865
 30
0.0
 10
396.6083244301141
 20
242.8136304844985
 30
0.0
 10
396.5206473965123
 20
242.8646213889047
 30
0.0
 10
396.4731283325557
 20
242.8771590987559
 30
0.0
 10
396.4287515143792
 20
242.8771590987559
 30
0.0
  0
SPLINE
  5
22FD
330
1F
100
AcDbEntity
  8
AM_VIS
100
AcDbSpline
210
0.0
220
0.0
230
1.0
 70
     8
 71
     3
 72
    16
 73
    12
 74
     0
 42
0.0000000001
 43
0.0000000001
 40
0.7530784401676158
 40
0.7530784401676158
 40
0.7530784401676158
 40
0.7530784401676158
 40
0.9413533345279974
 40
0.9413533345279974
 40
1.129628228888379
 40
1.129628228888379
 40
1.317892554611805
 40
1.317892554611805
 40
1.506156880335232
 40
1.506156880335232
 40
1.506477517103662
 40
1.506477517103662
 40
1.506477517103662
 40
1.506477517103662
 10
396.4287515143792
 20
242.8771590987559
 30
0.0
 10
396.3843746962027
 20
242.8771590987559
 30
0.0
 10
396.3372235640114
 20
242.8646213889047
 30
0.0
 10
396.2507370565317
 20
242.8136304844985
 30
0.0
 10
396.2113839960144
 20
242.7751773835865
 30
0.0
 10
396.1491466008684
 20
242.6864533800996
 30
0.0
 10
396.1221088244191
 20
242.6302667611764
 30
0.0
 10
396.0857091707627
 20
242.5071524915936
 30
0.0
 10
396.0763296911791
 20
242.4402249409772
 30
0.0
 10
396.0755259579406
 20
242.3773728609476
 30
0.0
 10
396.0755246159798
 20
242.3772659862037
 30
0.0
 10
396.0755232944414
 20
242.3771590994008
 30
0.0
  0
LINE
  5
22FE
330
1F
100
AcDbEntity
  8
AM_VIS
100
AcDbLine
 10
396.0755233205476
 20
242.3771590987559
 30
0.0
 11
396.0149153075182
 21
237.4699794258121
 31
0.0
  0
LINE
  5
22FF
330
1F
100
AcDbEntity
  8
AM_VIS
100
AcDbLine
 10
394.8274578636096
 20
237.4699794258121
 30
0.0
 11
395.2264845452187
 21
265.3771590982636
 31
0.0
  0
LINE
  5
2300
330
1F
100
AcDbEntity
  8
AM_VIS
100
AcDbLine
 10
392.2009403301954
 20
237.2209179873786
 30
0.0
 11
391.9809607389995
 21
236.8548104672152
 31
0.0
  0
LINE
  5
2301
330
1F
100
AcDbEntity
  8
AM_VIS
100
AcDbLine
 10
419.8919410817198
 20
237.2209179873786
 30
0.0
 11
420.1119206729157
 21
236.8548104672152
 31
0.0
  0
LINE
  5
2302
330
1F
100
AcDbEntity
  8
AM_VIS
100
AcDbLine
 10
420.1119206729157
 20
236.8548104672152
 30
0.0
 11
420.1375608570497
 21
235.3858853019744
 31
0.0
  0
LINE
  5
2303
330
1F
100
AcDbEntity
  8
AM_VIS
100
AcDbLine
 10
391.9809607389995
 20
236.8548104672152
 30
0.0
 11
391.9553205548655
 21
235.3858853019744
 31
0.0
  0
LINE
  5
2304
330
1F
100
AcDbEntity
  8
AM_VIS
100
AcDbLine
 10
392.8378654898669
 20
265.3858853019745
 30
0.0
 11
392.8127689251025
 21
263.9481040695575
 31
0.0
  0
LINE
  5
2305
330
1F
100
AcDbEntity
  8
AM_VIS
100
AcDbLine
 10
419.2550159220482
 20
265.3858853019746
 30
0.0
 11
419.2801124868127
 21
263.9481040695573
 31
0.0
  0
LINE
  5
2306
330
1F
100
AcDbEntity
  8
AM_VIS
100
AcDbLine
 10
416.3395043174756
 20
236.8548104672152
 30
0.0
 11
417.5682073747972
 21
236.8548104672152
 31
0.0
  0
LINE
  5
2307
330
1F
100
AcDbEntity
  8
AM_VIS
100
AcDbLine
 10
419.8982344272559
 20
236.8548104672152
 30
0.0
 11
420.1119206729157
 21
236.8548104672152
 31
0.0
  0
LINE
  5
2308
330
1F
100
AcDbEntity
  8
AM_VIS
100
AcDbLine
 10
391.9809607389995
 20
236.8548104672152
 30
0.0
 11
392.1946469846592
 21
236.8548104672152
 31
0.0
  0
LINE
  5
2309
330
1F
100
AcDbEntity
  8
AM_VIS
100
AcDbLine
 10
394.524674037118
 20
236.8548104672152
 30
0.0
 11
395.7533770944396
 21
236.8548104672152
 31
0.0
  0
LINE
  5
230A
330
1F
100
AcDbEntity
  8
AM_VIS
100
AcDbLine
 10
414.1140685809724
 20
236.8548104672152
 30
0.0
 11
415.6323975277956
 21
236.8548104672152
 31
0.0
  0
LINE
  5
230B
330
1F
100
AcDbEntity
  8
AM_VIS
100
AcDbLine
 10
396.4604838841195
 20
236.8548104672152
 30
0.0
 11
397.9788128309427
 21
236.8548104672152
 31
0.0
  0
LINE
  5
230C
330
1F
100
AcDbEntity
  8
AM_VIS
100
AcDbLine
 10
403.6039957416845
 20
236.8548104672152
 30
0.0
 11
408.4888856702305
 21
236.8548104672152
 31
0.0
  0
LINE
  5
230D
330
1F
100
AcDbEntity
  8
AM_VIS
100
AcDbLine
 10
417.1963058389295
 20
262.864908188179
 30
0.0
 11
419.4511238835745
 21
262.864908188179
 31
0.0
  0
LINE
  5
230E
330
1F
100
AcDbEntity
  8
AM_VIS
100
AcDbLine
 10
408.4100480180203
 20
262.864908188179
 30
0.0
 11
413.8536603220861
 21
262.864908188179
 31
0.0
  0
LINE
  5
230F
330
1F
100
AcDbEntity
  8
AM_VIS
100
AcDbLine
 10
398.2392210898291
 20
262.864908188179
 30
0.0
 11
403.6828333938948
 21
262.864908188179
 31
0.0
  0
LINE
  5
2310
330
1F
100
AcDbEntity
  8
AM_VIS
100
AcDbLine
 10
392.6417575283406
 20
262.864908188179
 30
0.0
 11
394.8965755729858
 21
262.864908188179
 31
0.0
  0
LINE
  5
2311
330
1F
100
AcDbEntity
  8
AM_VIS
100
AcDbLine
 10
416.8663968666318
 20
265.3771590987559
 30
0.0
 11
419.054497987354
 21
265.3771590987559
 31
0.0
  0
LINE
  5
2312
330
1F
100
AcDbEntity
  8
AM_VIS
100
AcDbLine
 10
416.0779661043969
 20
237.4699794258121
 30
0.0
 11
417.2654235483055
 21
237.4699794258121
 31
0.0
  0
LINE
  5
2313
330
1F
100
AcDbEntity
  8
AM_VIS
100
AcDbLine
 10
414.1079096238187
 20
237.4699794258121
 30
0.0
 11
415.3708593232105
 21
237.4699794258121
 31
0.0
  0
LINE
  5
2314
330
1F
100
AcDbEntity
  8
AM_VIS
100
AcDbLine
 10
408.3401121712689
 20
265.3771590987559
 30
0.0
 11
413.6226555727603
 21
265.3771590987559
 31
0.0
  0
LINE
  5
2315
330
1F
100
AcDbEntity
  8
AM_VIS
100
AcDbLine
 10
403.6681814567344
 20
237.4699794258121
 30
0.0
 11
408.4246999551806
 21
237.4699794258121
 31
0.0
  0
LINE
  5
2316
330
1F
100
AcDbEntity
  8
AM_VIS
100
AcDbLine
 10
398.4702258391548
 20
265.3771590987559
 30
0.0
 11
403.7527692406461
 21
265.3771590987559
 31
0.0
  0
LINE
  5
2317
330
1F
100
AcDbEntity
  8
AM_VIS
100
AcDbLine
 10
396.7220220887048
 20
237.4699794258121
 30
0.0
 11
397.9849717880965
 21
237.4699794258121
 31
0.0
  0
LINE
  5
2318
330
1F
100
AcDbEntity
  8
AM_VIS
100
AcDbLine
 10
394.8274578636096
 20
237.4699794258121
 30
0.0
 11
396.0149153075182
 21
237.4699794258121
 31
0.0
  0
LINE
  5
2319
330
1F
100
AcDbEntity
  8
AM_VIS
100
AcDbLine
 10
393.0383834245612
 20
265.3771590987559
 30
0.0
 11
395.2264845452834
 21
265.3771590987559
 31
0.0
  0
LINE
  5
231A
330
1F
100
AcDbEntity
  8
AM_VIS
100
AcDbLine
 10
393.3377893374451
 20
265.8771590987559
 30
0.0
 11
418.75509207447
 21
265.8771590987559
 31
0.0
  0
ARC
  5
231B
330
1F
100
AcDbEntity
  8
AM_VIS
100
AcDbCircle
 10
419.6376370094715
 20
235.3771590987559
 30
0.0
 40
0.5
100
AcDbArc
 50
270.0
 51
0.9999999999985053
  0
ARC
  5
231C
330
1F
100
AcDbEntity
  8
AM_VIS
100
AcDbCircle
 10
392.4552444024437
 20
235.3771590987559
 30
0.0
 40
0.5
100
AcDbArc
 50
178.9999999999982
 51
270.0
  0
ARC
  5
231D
330
1F
100
AcDbEntity
  8
AM_VIS
100
AcDbCircle
 10
393.3377893374451
 20
265.3771590987559
 30
0.0
 40
0.5
100
AcDbArc
 50
90.0
 51
178.9999999999982
  0
ARC
  5
231E
102
{ACAD_REACTORS
330
250D
330
2510
102
}
330
1F
100
AcDbEntity
  8
AM_VIS
100
AcDbCircle
 10
418.75509207447
 20
265.3771590987559
 30
0.0
 40
0.5
100
AcDbArc
 50
0.9999999999985053
 51
90.0
  0
LINE
  5
231F
330
1F
100
AcDbEntity
  8
AM_VIS
100
AcDbLine
 10
396.0464407059576
 20
225.3771590987558
 30
0.0
 11
396.0464407059576
 21
221.7771590987559
 31
0.0
  0
LINE
  5
2320
330
1F
100
AcDbEntity
  8
AM_VIS
100
AcDbLine
 10
391.3495022492585
 20
225.8771590987558
 30
0.0
 11
389.0464407059576
 21
225.8771590987558
 31
0.0
  0
LINE
  5
2321
330
1F
100
AcDbEntity
  8
AM_VIS
100
AcDbLine
 10
401.8931287744985
 20
225.8771590987558
 30
0.0
 11
396.5464407059576
 21
225.8771590987558
 31
0.0
  0
SPLINE
  5
2322
330
1F
100
AcDbEntity
  8
AM_VIS
100
AcDbSpline
210
0.0
220
0.0
230
1.0
 70
     8
 71
     3
 72
    18
 73
    14
 74
     0
 42
0.0000000001
 43
0.0000000001
 40
3.584005476211205
 40
3.584005476211205
 40
3.584005476211205
 40
3.584005476211205
 40
4.25488318451684
 40
4.25488318451684
 40
4.590322038669658
 40
4.590322038669658
 40
4.925760892822474
 40
4.925760892822474
 40
5.154667082175484
 40
5.154667082175484
 40
5.223087755069471
 40
5.223087755069471
 40
5.280496272612669
 40
5.280496272612669
 40
5.280496272612669
 40
5.280496272612669
 10
409.8213579235929
 20
234.8771590987559
 30
0.0
 10
410.0449838263615
 20
234.8771590987559
 30
0.0
 10
410.2901638667304
 20
234.8672002078552
 30
0.0
 10
410.6490436832435
 20
234.8193671989958
 30
0.0
 10
410.7670287027036
 20
234.7980130308298
 30
0.0
 10
410.9931904955152
 20
234.7393956639247
 30
0.0
 10
411.1015721900584
 20
234.7029259715779
 30
0.0
 10
411.2678748986101
 20
234.6150017552919
 30
0.0
 10
411.3433687380544
 20
234.563190876417
 30
0.0
 10
411.4012026472624
 20
234.4827059478589
 30
0.0
 10
411.4142917437878
 20
234.4586706049482
 30
0.0
 10
411.4276736280317
 20
234.4189195578163
 30
0.0
 10
411.431605513092
 20
234.3962952712702
 30
0.0
 10
411.431605513092
 20
234.3771590987559
 30
0.0
  0
LINE
  5
2323
330
1F
100
AcDbEntity
  8
AM_VIS
100
AcDbLine
 10
411.431605513092
 20
234.3771590987559
 30
0.0
 11
411.431605513092
 21
233.4771590987558
 31
0.0
  0
LINE
  5
2324
330
1F
100
AcDbEntity
  8
AM_VIS
100
AcDbLine
 10
400.661275898823
 20
233.4771590987558
 30
0.0
 11
400.661275898823
 21
234.3771590987559
 31
0.0
  0
SPLINE
  5
2325
330
1F
100
AcDbEntity
  8
AM_VIS
100
AcDbSpline
210
0.0
220
0.0
230
1.0
 70
     8
 71
     3
 72
    18
 73
    14
 74
     0
 42
0.0000000001
 43
0.0000000001
 40
5.280496272612668
 40
5.280496272612668
 40
5.280496272612668
 40
5.280496272612668
 40
5.337904790155866
 40
5.337904790155866
 40
5.406325463049854
 40
5.406325463049854
 40
5.635231652402863
 40
5.635231652402863
 40
5.970670506555681
 40
5.970670506555681
 40
6.306109360708497
 40
6.306109360708497
 40
6.976987069014132
 40
6.976987069014132
 40
6.976987069014132
 40
6.976987069014132
 10
400.661275898823
 20
234.3771590987559
 30
0.0
 10
400.661275898823
 20
234.3962952712702
 30
0.0
 10
400.6652077838833
 20
234.4189195578163
 30
0.0
 10
400.6785896681273
 20
234.4586706049482
 30
0.0
 10
400.6916787646527
 20
234.4827059478589
 30
0.0
 10
400.7495126738607
 20
234.563190876417
 30
0.0
 10
400.8250065133052
 20
234.6150017552919
 30
0.0
 10
400.9913092218567
 20
234.7029259715779
 30
0.0
 10
401.0996909163999
 20
234.7393956639247
 30
0.0
 10
401.3258527092115
 20
234.7980130308298
 30
0.0
 10
401.4438377286715
 20
234.8193671989958
 30
0.0
 10
401.8027175451846
 20
234.8672002078552
 30
0.0
 10
402.0478975855536
 20
234.8771590987559
 30
0.0
 10
402.2715234883222
 20
234.8771590987559
 30
0.0
  0
LINE
  5
2326
330
1F
100
AcDbEntity
  8
AM_VIS
100
AcDbLine
 10
421.5464407059576
 20
216.5771590987558
 30
0.0
 11
423.5464407059575
 21
216.5771590987558
 31
0.0
  0
LINE
  5
2327
330
1F
100
AcDbEntity
  8
AM_VIS
100
AcDbLine
 10
388.6928873153644
 20
216.5771590987558
 30
0.0
 11
390.3999940965508
 21
216.5771590987558
 31
0.0
  0
LINE
  5
2328
330
1F
100
AcDbEntity
  8
AM_VIS
100
AcDbLine
 10
395.5464407059576
 20
221.2771590987559
 30
0.0
 11
394.3788214638956
 21
221.2771590987559
 31
0.0
  0
LINE
  5
2329
330
1F
100
AcDbEntity
  8
AM_VIS
100
AcDbLine
 10
388.5464407059576
 20
225.3771590987558
 30
0.0
 11
388.5464407059576
 21
224.2699989801663
 31
0.0
  0
LINE
  5
232A
330
1F
100
AcDbEntity
  8
AM_VIS
100
AcDbLine
 10
388.5464407059576
 20
221.2771590987559
 30
0.0
 11
388.5464407059576
 21
220.7771590987559
 31
0.0
  0
LINE
  5
232B
330
1F
100
AcDbEntity
  8
AM_VIS
100
AcDbLine
 10
388.5464407059576
 20
220.7771590987559
 30
0.0
 11
388.5464407059576
 21
216.5771590987558
 31
0.0
  0
LINE
  5
232C
330
1F
100
AcDbEntity
  8
AM_VIS
100
AcDbLine
 10
423.5464407059575
 20
224.2699989801662
 30
0.0
 11
423.5464407059575
 21
225.3771590987558
 31
0.0
  0
LINE
  5
232D
330
1F
100
AcDbEntity
  8
AM_VIS
100
AcDbLine
 10
423.5464407059575
 20
216.5771590987558
 30
0.0
 11
423.5464407059575
 21
220.7771590987559
 31
0.0
  0
LINE
  5
232E
330
1F
100
AcDbEntity
  8
AM_VIS
100
AcDbLine
 10
416.0464407059576
 20
221.7771590987559
 30
0.0
 11
416.0464407059576
 21
225.3771590987558
 31
0.0
  0
LINE
  5
232F
330
1F
100
AcDbEntity
  8
AM_VIS
100
AcDbLine
 10
421.5464407059576
 20
220.7771590987559
 30
0.0
 11
421.5464407059576
 21
216.5771590987558
 31
0.0
  0
LINE
  5
2330
330
1F
100
AcDbEntity
  8
AM_VIS
100
AcDbLine
 10
390.7535474871441
 20
216.5771590987558
 30
0.0
 11
421.5464407059577
 21
216.5771590987558
 31
0.0
  0
LINE
  5
2331
330
1F
100
AcDbEntity
  8
AM_VIS
100
AcDbLine
 10
423.5464407059574
 20
221.2771590987559
 30
0.0
 11
423.5464407059574
 21
220.7771590987559
 31
0.0
  0
LINE
  5
2332
330
1F
100
AcDbEntity
  8
AM_VIS
100
AcDbLine
 10
417.7140599480195
 20
221.2771590987559
 30
0.0
 11
416.5464407059576
 21
221.2771590987559
 31
0.0
  0
ELLIPSE
  5
2333
330
1F
100
AcDbEntity
  8
AM_VIS
100
AcDbEllipse
 10
421.339333924771
 20
220.7771590987559
 30
0.0
 11
-0.0000000000000031
 21
0.5
 31
0.0
210
0.0
220
0.0
230
1.0
 40
0.414213562373101
 41
4.712388980384693
 42
6.283185307179591
  0
ARC
  5
2334
330
1F
100
AcDbEntity
  8
AM_VIS
100
AcDbCircle
 10
423.0464407059575
 20
220.7771590987559
 30
0.0
 40
0.5000000000000001
100
AcDbArc
 50
0.0
 51
90.0
  0
LINE
  5
2335
330
1F
100
AcDbEntity
  8
AM_VIS
100
AcDbLine
 10
402.2715234883222
 20
234.8771590987559
 30
0.0
 11
409.8213579235929
 21
234.8771590987559
 31
0.0
  0
LINE
  5
2336
330
1F
100
AcDbEntity
  8
AM_VIS
100
AcDbLine
 10
391.0464407059576
 20
234.3771590987559
 30
0.0
 11
391.0464407059576
 21
233.4771590987558
 31
0.0
  0
LINE
  5
2337
330
1F
100
AcDbEntity
  8
AM_VIS
100
AcDbLine
 10
421.0464407059576
 20
234.3771590987559
 30
0.0
 11
421.0464407059576
 21
233.4771590987558
 31
0.0
  0
ARC
  5
2338
330
1F
100
AcDbEntity
  8
AM_VIS
100
AcDbCircle
 10
389.0464407059576
 20
225.3771590987558
 30
0.0
 40
0.4999999999999965
100
AcDbArc
 50
90.0
 51
180.0
  0
ARC
  5
2339
330
1F
100
AcDbEntity
  8
AM_VIS
100
AcDbCircle
 10
396.5464407059576
 20
225.3771590987558
 30
0.0
 40
0.5
100
AcDbArc
 50
90.0
 51
180.0
  0
ARC
  5
233A
330
1F
100
AcDbEntity
  8
AM_VIS
100
AcDbCircle
 10
415.5464407059575
 20
225.3771590987558
 30
0.0
 40
0.5
100
AcDbArc
 50
0.0
 51
90.0
  0
ARC
  5
233B
330
1F
100
AcDbEntity
  8
AM_VIS
100
AcDbCircle
 10
423.0464407059575
 20
225.3771590987558
 30
0.0
 40
0.5
100
AcDbArc
 50
0.0
 51
90.0
  0
ARC
  5
233C
330
1F
100
AcDbEntity
  8
AM_VIS
100
AcDbCircle
 10
395.5464407059576
 20
221.7771590987559
 30
0.0
 40
0.5000000000000036
100
AcDbArc
 50
336.9360824377979
 51
0.0
  0
ARC
  5
233D
330
1F
100
AcDbEntity
  8
AM_VIS
100
AcDbCircle
 10
395.5464407059576
 20
221.7771590987559
 30
0.0
 40
0.5000000000000036
100
AcDbArc
 50
270.0
 51
336.9360824377979
  0
ARC
  5
233E
330
1F
100
AcDbEntity
  8
AM_VIS
100
AcDbCircle
 10
389.0464407059576
 20
220.7771590987559
 30
0.0
 40
0.4999999999999991
100
AcDbArc
 50
90.0
 51
180.0
  0
ARC
  5
233F
330
1F
100
AcDbEntity
  8
AM_VIS
100
AcDbCircle
 10
416.5464407059576
 20
221.7771590987559
 30
0.0
 40
0.5
100
AcDbArc
 50
180.0
 51
203.0639175622022
  0
ARC
  5
2340
330
1F
100
AcDbEntity
  8
AM_VIS
100
AcDbCircle
 10
416.5464407059576
 20
221.7771590987559
 30
0.0
 40
0.5
100
AcDbArc
 50
203.0639175622022
 51
270.0
  0
LINE
  5
2341
330
1F
100
AcDbEntity
  8
AM_VIS
100
AcDbLine
 10
391.5464407059576
 20
234.8771590987559
 30
0.0
 11
402.2715234883222
 21
234.8771590987559
 31
0.0
  0
LINE
  5
2342
330
1F
100
AcDbEntity
  8
AM_VIS
100
AcDbLine
 10
409.8213579235929
 20
234.8771590987559
 30
0.0
 11
420.5464407059576
 21
234.8771590987559
 31
0.0
  0
ARC
  5
2343
330
1F
100
AcDbEntity
  8
AM_VIS
100
AcDbCircle
 10
391.5464407059576
 20
234.3771590987559
 30
0.0
 40
0.5
100
AcDbArc
 50
90.0
 51
180.0
  0
ARC
  5
2344
330
1F
100
AcDbEntity
  8
AM_VIS
100
AcDbCircle
 10
420.5464407059576
 20
234.3771590987559
 30
0.0
 40
0.5
100
AcDbArc
 50
0.0
 51
90.0
  0
LINE
  5
2345
330
1F
100
AcDbEntity
  8
AM_VIS
100
AcDbLine
 10
435.0464407059575
 20
225.8771590987558
 30
0.0
 11
406.0464407059575
 21
225.8771590987558
 31
0.0
  0
LINE
  5
2346
330
1F
100
AcDbEntity
  8
AM_VIS
100
AcDbLine
 10
434.4464407059575
 20
227.4771590987559
 30
0.0
 11
406.0464407059575
 21
227.4771590987559
 31
0.0
  0
LINE
  5
2347
330
1F
100
AcDbEntity
  8
AM_VIS
100
AcDbLine
 10
434.4464407059575
 20
227.4771590987559
 30
0.0
 11
434.4464407059575
 21
244.8771590987559
 31
0.0
  0
LINE
  5
2348
330
1F
100
AcDbEntity
  8
AM_VIS
100
AcDbLine
 10
436.0464407059575
 20
246.8771590987559
 30
0.0
 11
434.4464407059575
 21
246.8771590987559
 31
0.0
  0
LINE
  5
2349
330
1F
100
AcDbEntity
  8
AM_VIS
100
AcDbLine
 10
436.0464407059575
 20
226.8771590987558
 30
0.0
 11
436.0464407059575
 21
244.8771590987559
 31
0.0
  0
LINE
  5
234A
330
1F
100
AcDbEntity
  8
AM_VIS
100
AcDbLine
 10
423.5464407059575
 20
225.8771590987558
 30
0.0
 11
423.5464407059575
 21
225.3771590987558
 31
0.0
  0
LINE
  5
234B
330
1F
100
AcDbEntity
  8
AM_VIS
100
AcDbLine
 10
425.5464407059576
 20
225.8771590987558
 30
0.0
 11
425.5464407059576
 21
224.3771590987559
 31
0.0
  0
LINE
  5
234C
330
1F
100
AcDbEntity
  8
AM_VIS
100
AcDbLine
 10
388.5464407059576
 20
225.8771590987558
 30
0.0
 11
388.5464407059576
 21
227.4771590987559
 31
0.0
  0
LINE
  5
234D
330
1F
100
AcDbEntity
  8
AM_VIS
100
AcDbLine
 10
401.8931287744985
 20
225.8771590987558
 30
0.0
 11
406.0464407059575
 21
225.8771590987558
 31
0.0
  0
LINE
  5
234E
330
1F
100
AcDbEntity
  8
AM_VIS
100
AcDbLine
 10
391.3495022492585
 20
225.8771590987558
 30
0.0
 11
396.5464407059576
 21
225.8771590987558
 31
0.0
  0
LINE
  5
234F
330
1F
100
AcDbEntity
  8
AM_VIS
100
AcDbLine
 10
388.5464407059576
 20
225.8771590987558
 30
0.0
 11
389.0464407059576
 21
225.8771590987558
 31
0.0
  0
LINE
  5
2350
330
1F
100
AcDbEntity
  8
AM_VIS
100
AcDbLine
 10
388.5464407059576
 20
227.4771590987559
 30
0.0
 11
406.0464407059575
 21
227.4771590987559
 31
0.0
  0
LINE
  5
2351
330
1F
100
AcDbEntity
  8
AM_VIS
100
AcDbLine
 10
434.4464407059575
 20
244.8771590987559
 30
0.0
 11
434.4464407059575
 21
246.8771590987559
 31
0.0
  0
LINE
  5
2352
102
{ACAD_REACTORS
330
2516
102
}
330
1F
100
AcDbEntity
  8
AM_VIS
100
AcDbLine
 10
436.0464407059575
 20
246.8771590987559
 30
0.0
 11
436.0464407059575
 21
244.8771590987559
 31
0.0
  0
ARC
  5
2353
330
1F
100
AcDbEntity
  8
AM_VIS
100
AcDbCircle
 10
435.0464407059575
 20
226.8771590987558
 30
0.0
 40
0.9999999999999998
100
AcDbArc
 50
270.0
 51
0.0
  0
LINE
  5
2354
330
1F
100
AcDbEntity
  8
AM_VIS
100
AcDbLine
 10
425.5464407059576
 20
224.3771590987559
 30
0.0
 11
423.5464407059575
 21
224.3771590987559
 31
0.0
  0
LINE
  5
2355
330
1F
100
AcDbEntity
  8
AM_VIS
  6
PHANTOM2
 62
     4
 48
0.4
100
AcDbLine
 10
382.5464407059576
 20
212.3771590987559
 30
0.0
 11
388.5464407059576
 21
212.3771590987559
 31
0.0
  0
LINE
  5
2356
330
1F
100
AcDbEntity
  8
AM_VIS
  6
PHANTOM2
 62
     4
 48
0.4
100
AcDbLine
 10
360.0464407059576
 20
185.8771590987559
 30
0.0
 11
366.0464407059576
 21
185.8771590987559
 31
0.0
  0
LINE
  5
2357
330
1F
100
AcDbEntity
  8
AM_VIS
  6
PHANTOM2
 62
     4
 48
0.4
100
AcDbLine
 10
360.0464407059576
 20
227.8771590987558
 30
0.0
 11
366.0464407059576
 21
227.8771590987558
 31
0.0
  0
LINE
  5
2358
330
1F
100
AcDbEntity
  8
AM_VIS
  6
PHANTOM2
 62
     4
 48
0.4
100
AcDbLine
 10
381.5464407059576
 20
226.8771590987559
 30
0.0
 11
366.0464407059576
 21
226.8771590987559
 31
0.0
  0
LINE
  5
2359
330
1F
100
AcDbEntity
  8
AM_VIS
  6
PHANTOM2
 62
     4
 48
0.4
100
AcDbLine
 10
381.5464407059576
 20
186.8771590987559
 30
0.0
 11
366.0464407059576
 21
186.8771590987559
 31
0.0
  0
LINE
  5
235A
330
1F
100
AcDbEntity
  8
AM_VIS
  6
PHANTOM2
 62
     4
 48
0.4
100
AcDbLine
 10
366.0464407059576
 20
185.8771590987559
 30
0.0
 11
366.0464407059576
 21
227.8771590987559
 31
0.0
  0
LINE
  5
235B
330
1F
100
AcDbEntity
  8
AM_VIS
  6
PHANTOM2
 62
     4
 48
0.4
100
AcDbLine
 10
382.5464407059576
 20
225.8771590987559
 30
0.0
 11
382.5464407059576
 21
187.8771590987559
 31
0.0
  0
LINE
  5
235C
330
1F
100
AcDbEntity
  8
AM_VIS
  6
PHANTOM2
 62
     4
 48
0.4
100
AcDbLine
 10
358.5464407059576
 20
226.3771590987559
 30
0.0
 11
358.5464407059576
 21
187.3771590987559
 31
0.0
  0
ARC
  5
235D
102
{ACAD_REACTORS
330
2513
102
}
330
1F
100
AcDbEntity
  8
AM_VIS
  6
PHANTOM2
 62
     4
 48
0.4
100
AcDbCircle
 10
360.0464407059576
 20
226.3771590987559
 30
0.0
 40
1.5
100
AcDbArc
 50
90.0
 51
180.0
  0
ARC
  5
235E
330
1F
100
AcDbEntity
  8
AM_VIS
  6
PHANTOM2
 62
     4
 48
0.4
100
AcDbCircle
 10
360.0464407059576
 20
187.3771590987559
 30
0.0
 40
1.5
100
AcDbArc
 50
180.0
 51
270.0
  0
ARC
  5
235F
330
1F
100
AcDbEntity
  8
AM_VIS
  6
PHANTOM2
 62
     4
 48
0.4
100
AcDbCircle
 10
381.5464407059576
 20
187.8771590987559
 30
0.0
 40
1.0
100
AcDbArc
 50
270.0
 51
0.0
  0
ARC
  5
2360
330
1F
100
AcDbEntity
  8
AM_VIS
  6
PHANTOM2
 62
     4
 48
0.4
100
AcDbCircle
 10
381.5464407059576
 20
225.8771590987559
 30
0.0
 40
1.0
100
AcDbArc
 50
0.0
 51
90.0
  0
LINE
  5
2361
330
1F
100
AcDbEntity
  8
AM_VIS
100
AcDbLine
 10
388.1390857336511
 20
223.3360966108837
 30
0.0
 11
388.0464407059575
 21
222.2771590987559
 31
0.0
  0
LINE
  5
2362
330
1F
100
AcDbEntity
  8
AM_VIS
100
AcDbLine
 10
395.9537956782641
 20
223.3360966108837
 30
0.0
 11
396.0464407059576
 21
222.2771590987559
 31
0.0
  0
LINE
  5
2363
330
1F
100
AcDbEntity
  8
AM_VIS
100
AcDbLine
 10
396.0464407059576
 20
222.2771590987559
 30
0.0
 11
388.0464407059575
 21
222.2771590987559
 31
0.0
  0
LINE
  5
2364
330
1F
100
AcDbEntity
  8
AM_VIS
100
AcDbLine
 10
391.5514407059576
 20
225.2676720672115
 30
0.0
 11
391.5514407059576
 21
224.9782021231069
 31
0.0
  0
ELLIPSE
  5
2365
330
1F
100
AcDbEntity
  8
AM_VIS
100
AcDbEllipse
 10
392.0464407059575
 20
220.3861304277809
 30
0.0
 11
6.073381703024882
 21
0.0000000000000007
 31
0.0
210
0.0
220
0.0
230
1.0
 40
0.7586218633400589
 41
1.489202628672166
 42
1.652390024917626
  0
ARC
  5
2366
330
1F
100
AcDbEntity
  8
AM_VIS
100
AcDbCircle
 10
392.0464407059575
 20
218.8771590987559
 30
0.0
 40
6.48112451662503
100
AcDbArc
 50
99.59205164223444
 51
109.7195234153028
  0
LINE
  5
2367
330
1F
100
AcDbEntity
  8
AM_VIS
100
AcDbLine
 10
394.2332760941425
 20
224.9782021231068
 30
0.0
 11
394.2464407059575
 21
224.9935305721052
 31
0.0
  0
LINE
  5
2368
330
1F
100
AcDbEntity
  8
AM_VIS
100
AcDbLine
 10
389.8464407059575
 20
224.9935305721051
 30
0.0
 11
389.8596053177726
 21
224.9782021231068
 31
0.0
  0
ARC
  5
2369
330
1F
100
AcDbEntity
  8
AM_VIS
100
AcDbCircle
 10
392.0464407059575
 20
218.8771590987559
 30
0.0
 40
6.48112451662503
100
AcDbArc
 50
70.28047658469721
 51
80.40794835776557
  0
LINE
  5
236A
330
1F
100
AcDbEntity
  8
AM_VIS
100
AcDbLine
 10
392.5414407059576
 20
224.9782021231069
 30
0.0
 11
392.5414407059576
 21
225.2676720672115
 31
0.0
  0
LINE
  5
236B
330
1F
100
AcDbEntity
  8
AM_VIS
100
AcDbLine
 10
392.5414407059576
 20
225.2676720672116
 30
0.0
 11
393.1264032053056
 21
225.2676720672116
 31
0.0
  0
LINE
  5
236C
330
1F
100
AcDbEntity
  8
AM_VIS
100
AcDbLine
 10
390.9664782066095
 20
225.2676720672116
 30
0.0
 11
391.5514407059576
 21
225.2676720672116
 31
0.0
  0
ARC
  5
236D
330
1F
100
AcDbEntity
  8
AM_VIS
100
AcDbCircle
 10
389.7329972505978
 20
223.1966474224874
 30
0.0
 40
1.6
100
AcDbArc
 50
118.1727341318651
 51
175.0000000000002
  0
ARC
  5
236E
330
1F
100
AcDbEntity
  8
AM_VIS
100
AcDbCircle
 10
394.3598841613173
 20
223.1966474224874
 30
0.0
 40
1.599999999999999
100
AcDbArc
 50
5.000000000002987
 51
61.82726586813482
  0
ARC
  5
236F
330
1F
100
AcDbEntity
  8
AM_VIS
100
AcDbCircle
 10
392.0464407059575
 20
218.8771590987559
 30
0.0
 40
6.499999999999998
100
AcDbArc
 50
109.7831703726593
 51
118.1727341318651
  0
ARC
  5
2370
330
1F
100
AcDbEntity
  8
AM_VIS
100
AcDbCircle
 10
392.0464407059575
 20
218.8771590987559
 30
0.0
 40
6.499999999999998
100
AcDbArc
 50
61.82726586813482
 51
70.21682962734067
  0
LINE
  5
2371
330
1F
100
AcDbEntity
  8
AM_VIS
100
AcDbLine
 10
416.1390857336511
 20
223.3360966108837
 30
0.0
 11
416.0464407059574
 21
222.2771590987559
 31
0.0
  0
LINE
  5
2372
330
1F
100
AcDbEntity
  8
AM_VIS
100
AcDbLine
 10
423.9537956782641
 20
223.3360966108837
 30
0.0
 11
424.0464407059574
 21
222.2771590987559
 31
0.0
  0
LINE
  5
2373
330
1F
100
AcDbEntity
  8
AM_VIS
100
AcDbLine
 10
424.0464407059574
 20
222.2771590987559
 30
0.0
 11
416.0464407059574
 21
222.2771590987559
 31
0.0
  0
LINE
  5
2374
330
1F
100
AcDbEntity
  8
AM_VIS
100
AcDbLine
 10
419.5514407059575
 20
225.2676720672115
 30
0.0
 11
419.5514407059575
 21
224.9782021231069
 31
0.0
  0
ELLIPSE
  5
2375
330
1F
100
AcDbEntity
  8
AM_VIS
100
AcDbEllipse
 10
420.0464407059574
 20
220.3861304277809
 30
0.0
 11
6.073381703024882
 21
0.0000000000000007
 31
0.0
210
0.0
220
0.0
230
1.0
 40
0.7586218633400589
 41
1.489202628672166
 42
1.652390024917626
  0
ARC
  5
2376
330
1F
100
AcDbEntity
  8
AM_VIS
100
AcDbCircle
 10
420.0464407059574
 20
218.8771590987559
 30
0.0
 40
6.48112451662503
100
AcDbArc
 50
99.59205164223444
 51
109.7195234153028
  0
LINE
  5
2377
330
1F
100
AcDbEntity
  8
AM_VIS
100
AcDbLine
 10
422.2332760941425
 20
224.9782021231068
 30
0.0
 11
422.2464407059574
 21
224.9935305721052
 31
0.0
  0
LINE
  5
2378
330
1F
100
AcDbEntity
  8
AM_VIS
100
AcDbLine
 10
417.8464407059574
 20
224.9935305721051
 30
0.0
 11
417.8596053177725
 21
224.9782021231068
 31
0.0
  0
ARC
  5
2379
330
1F
100
AcDbEntity
  8
AM_VIS
100
AcDbCircle
 10
420.0464407059574
 20
218.8771590987559
 30
0.0
 40
6.48112451662503
100
AcDbArc
 50
70.28047658469721
 51
80.40794835776557
  0
LINE
  5
237A
330
1F
100
AcDbEntity
  8
AM_VIS
100
AcDbLine
 10
420.5414407059576
 20
224.9782021231069
 30
0.0
 11
420.5414407059576
 21
225.2676720672115
 31
0.0
  0
LINE
  5
237B
330
1F
100
AcDbEntity
  8
AM_VIS
100
AcDbLine
 10
420.5414407059576
 20
225.2676720672116
 30
0.0
 11
421.1264032053056
 21
225.2676720672116
 31
0.0
  0
LINE
  5
237C
330
1F
100
AcDbEntity
  8
AM_VIS
100
AcDbLine
 10
418.9664782066095
 20
225.2676720672116
 30
0.0
 11
419.5514407059575
 21
225.2676720672116
 31
0.0
  0
ARC
  5
237D
330
1F
100
AcDbEntity
  8
AM_VIS
100
AcDbCircle
 10
417.7329972505978
 20
223.1966474224874
 30
0.0
 40
1.6
100
AcDbArc
 50
118.1727341318651
 51
174.999999999997
  0
ARC
  5
237E
330
1F
100
AcDbEntity
  8
AM_VIS
100
AcDbCircle
 10
422.3598841613173
 20
223.1966474224874
 30
0.0
 40
1.599999999999999
100
AcDbArc
 50
5.000000000002987
 51
61.82726586813482
  0
ARC
  5
237F
330
1F
100
AcDbEntity
  8
AM_VIS
100
AcDbCircle
 10
420.0464407059574
 20
218.8771590987559
 30
0.0
 40
6.5
100
AcDbArc
 50
109.7831703726593
 51
118.1727341318651
  0
ARC
  5
2380
330
1F
100
AcDbEntity
  8
AM_VIS
100
AcDbCircle
 10
420.0464407059574
 20
218.8771590987559
 30
0.0
 40
6.5
100
AcDbArc
 50
61.82726586813482
 51
70.21682962734067
  0
ELLIPSE
  5
2381
330
1F
100
AcDbEntity
  8
AM_VIS
100
AcDbEllipse
 10
420.0464407059577
 20
222.8266545826467
 30
0.0
 11
0.5622299604050239
 21
10.43845172202804
 31
0.0
210
0.0
220
0.0
230
0.9999999999999998
 40
0.360032073109717
 41
1.719296776183991
 42
1.729485019110788
  0
LINE
  5
2382
330
1F
100
AcDbEntity
  8
AM_VIS
100
AcDbLine
 10
423.8464407059576
 20
221.2771590987559
 30
0.0
 11
423.8464407059576
 21
222.2771590987558
 31
0.0
  0
LINE
  5
2383
330
1F
100
AcDbEntity
  8
AM_VIS
100
AcDbLine
 10
416.2464407059576
 20
221.4824238059776
 30
0.0
 11
416.2464407059576
 21
222.2771590987558
 31
0.0
  0
LINE
  5
2384
330
1F
100
AcDbEntity
  8
AM_VIS
100
AcDbLine
 10
423.8464407059576
 20
221.2771590987559
 30
0.0
 11
417.7140599480195
 21
221.2771590987559
 31
0.0
  0
ELLIPSE
  5
2385
330
1F
100
AcDbEntity
  8
AM_VIS
100
AcDbEllipse
 10
392.0464407059576
 20
222.8266545826467
 30
0.0
 11
0.5622299604050363
 21
10.43845172202804
 31
0.0
210
0.0
220
0.0
230
1.0
 40
0.3600320731097169
 41
1.71929677618399
 42
1.739149268436969
  0
LINE
  5
2386
330
1F
100
AcDbEntity
  8
AM_VIS
100
AcDbLine
 10
395.8464407059576
 20
221.3771590987558
 30
0.0
 11
395.8464407059576
 21
222.2771590987559
 31
0.0
  0
LINE
  5
2387
330
1F
100
AcDbEntity
  8
AM_VIS
100
AcDbLine
 10
388.2464407059575
 20
221.4824238059776
 30
0.0
 11
388.2464407059575
 21
222.2771590987559
 31
0.0
  0
LINE
  5
2388
330
1F
100
AcDbEntity
  8
AM_VIS
100
AcDbLine
 10
394.3788214638956
 20
221.2771590987559
 30
0.0
 11
388.2471895121162
 21
221.2771590987559
 31
0.0
  0
LINE
  5
2389
330
1F
100
AcDbEntity
  8
AM_VIS
100
AcDbLine
 10
388.3964407059576
 20
196.8771590987559
 30
0.0
 11
388.3964407059576
 21
194.5771590987559
 31
0.0
  0
LINE
  5
238A
330
1F
100
AcDbEntity
  8
AM_VIS
100
AcDbLine
 10
388.5428873153644
 20
194.5771590987559
 30
0.0
 11
390.249994096551
 21
194.5771590987559
 31
0.0
  0
LINE
  5
238B
330
1F
100
AcDbEntity
  8
AM_VIS
100
AcDbLine
 10
390.6035474871442
 20
194.5771590987559
 30
0.0
 11
421.4893339247711
 21
194.5771590987559
 31
0.0
  0
LINE
  5
238C
330
1F
100
AcDbEntity
  8
AM_VIS
100
AcDbLine
 10
421.8428873153643
 20
194.5771590987559
 30
0.0
 11
423.5499940965508
 21
194.5771590987559
 31
0.0
  0
LINE
  5
238D
330
1F
100
AcDbEntity
  8
AM_VIS
100
AcDbLine
 10
423.5499940965508
 20
196.8771590987559
 30
0.0
 11
421.8428873153643
 21
196.8771590987559
 31
0.0
  0
LINE
  5
238E
330
1F
100
AcDbEntity
  8
AM_VIS
100
AcDbLine
 10
421.4893339247711
 20
196.8771590987559
 30
0.0
 11
390.6035474871442
 21
196.8771590987559
 31
0.0
  0
LINE
  5
238F
330
1F
100
AcDbEntity
  8
AM_VIS
100
AcDbLine
 10
390.249994096551
 20
196.8771590987559
 30
0.0
 11
388.5428873153644
 21
196.8771590987559
 31
0.0
  0
LINE
  5
2390
330
1F
100
AcDbEntity
  8
AM_VIS
100
AcDbLine
 10
423.6964407059575
 20
194.5771590987559
 30
0.0
 11
423.6964407059575
 21
196.8771590987559
 31
0.0
  0
LINE
  5
2391
330
1F
100
AcDbEntity
  8
AM_VIS
100
AcDbLine
 10
388.5428873153644
 20
194.5771590987559
 30
0.0
 11
388.3964407059576
 21
194.5771590987559
 31
0.0
  0
LINE
  5
2392
330
1F
100
AcDbEntity
  8
AM_VIS
100
AcDbLine
 10
390.6035474871442
 20
194.5771590987559
 30
0.0
 11
390.249994096551
 21
194.5771590987559
 31
0.0
  0
LINE
  5
2393
330
1F
100
AcDbEntity
  8
AM_VIS
100
AcDbLine
 10
421.8428873153642
 20
194.5771590987559
 30
0.0
 11
421.4893339247711
 21
194.5771590987559
 31
0.0
  0
LINE
  5
2394
102
{ACAD_REACTORS
330
2507
102
}
330
1F
100
AcDbEntity
  8
AM_VIS
100
AcDbLine
 10
423.6964407059575
 20
194.5771590987559
 30
0.0
 11
423.5499940965508
 21
194.5771590987559
 31
0.0
  0
LINE
  5
2395
330
1F
100
AcDbEntity
  8
AM_VIS
100
AcDbLine
 10
423.5499940965508
 20
196.8771590987559
 30
0.0
 11
423.6964407059575
 21
196.8771590987559
 31
0.0
  0
LINE
  5
2396
330
1F
100
AcDbEntity
  8
AM_VIS
100
AcDbLine
 10
421.4893339247711
 20
196.8771590987559
 30
0.0
 11
421.8428873153642
 21
196.8771590987559
 31
0.0
  0
LINE
  5
2397
330
1F
100
AcDbEntity
  8
AM_VIS
100
AcDbLine
 10
390.249994096551
 20
196.8771590987559
 30
0.0
 11
390.6035474871442
 21
196.8771590987559
 31
0.0
  0
LINE
  5
2398
330
1F
100
AcDbEntity
  8
AM_VIS
100
AcDbLine
 10
388.3964407059576
 20
196.8771590987559
 30
0.0
 11
388.5428873153644
 21
196.8771590987559
 31
0.0
  0
LINE
  5
2399
330
1F
100
AcDbEntity
  8
AM_VIS
100
AcDbLine
 10
423.5464407059577
 20
216.5771590987559
 30
0.0
 11
421.5464407059577
 21
216.5771590987559
 31
0.0
  0
LINE
  5
239A
330
1F
100
AcDbEntity
  8
AM_VIS
100
AcDbLine
 10
390.5464407059576
 20
216.5771590987559
 30
0.0
 11
388.5464407059576
 21
216.5771590987559
 31
0.0
  0
LINE
  5
239B
330
1F
100
AcDbEntity
  8
AM_VIS
100
AcDbLine
 10
310.370532060011
 20
233.4569549958691
 30
0.0
 11
310.370532060011
 21
229.4771590987558
 31
0.0
  0
LINE
  5
239C
330
1F
100
AcDbEntity
  8
AM_VIS
100
AcDbLine
 10
307.3816936446265
 20
233.4569549958691
 30
0.0
 11
307.3816936446265
 21
229.4771590987558
 31
0.0
  0
LINE
  5
239D
330
1F
100
AcDbEntity
  8
AM_VIS
100
AcDbLine
 10
307.0316936446265
 20
229.4771590987558
 30
0.0
 11
307.0316936446265
 21
232.4771590987558
 31
0.0
  0
LINE
  5
239E
330
1F
100
AcDbEntity
  8
AM_VIS
100
AcDbLine
 10
311.0137576946879
 20
232.4771590987558
 30
0.0
 11
311.0137576946879
 21
229.4771590987558
 31
0.0
  0
ARC
  5
239F
330
1F
100
AcDbEntity
  8
AM_VIS
100
AcDbCircle
 10
310.0510668258655
 20
232.5461960927421
 30
0.0
 40
0.9651631030311275
100
AcDbArc
 50
355.8981967328206
 51
70.67075344506537
  0
SPLINE
  5
23A0
330
1F
100
AcDbEntity
  8
AM_VIS
100
AcDbSpline
210
0.0
220
0.0
230
1.0
 70
     8
 71
     3
 72
    22
 73
    18
 74
     0
 42
0.0000000001
 43
0.0000000001
 40
0.0
 40
0.0
 40
0.0
 40
0.0
 40
0.1778713664358468
 40
0.1778713664358468
 40
0.3557427328716936
 40
0.3557427328716936
 40
0.5448701737170527
 40
0.5448701737170527
 40
0.7339976145624118
 40
0.7339976145624118
 40
0.9385155228210926
 40
0.9385155228210926
 40
1.143033431079773
 40
1.143033431079773
 40
1.363124419698851
 40
1.363124419698851
 40
1.366730172590593
 40
1.366730172590593
 40
1.366730172590593
 40
1.366730172590593
 10
307.0316936446265
 20
232.4771590987558
 30
0.0
 10
307.0316936446265
 20
232.5364495542344
 30
0.0
 10
307.0341418932074
 20
232.6011183536316
 30
0.0
 10
307.044600024465
 20
232.7274016620937
 30
0.0
 10
307.052603221326
 20
232.7890198820487
 30
0.0
 10
307.0717477448835
 20
232.900861309311
 30
0.0
 10
307.084910711119
 20
232.9609487542013
 30
0.0
 10
307.1160005992792
 20
233.072308306501
 30
0.0
 10
307.1339136441794
 20
233.1236063797534
 30
0.0
 10
307.171031411025
 20
233.2129489178336
 30
0.0
 10
307.1939209647622
 20
233.2584677134061
 30
0.0
 10
307.2428489408963
 20
233.3364182690281
 30
0.0
 10
307.2688776976029
 20
233.368890690351
 30
0.0
 10
307.3198971237053
 20
233.4197235118154
 30
0.0
 10
307.3497673900342
 20
233.4419034157413
 30
0.0
 10
307.38069615335
 20
233.4564907000655
 30
0.0
 10
307.3811948344748
 20
233.456723844113
 30
0.0
 10
307.3816936446265
 20
233.4569549958691
 30
0.0
  0
LINE
  5
23A1
330
1F
100
AcDbEntity
  8
AM_VIS
100
AcDbLine
 10
316.9764512816596
 20
232.4771590987558
 30
0.0
 11
316.9764512816596
 21
229.4771590987558
 31
0.0
  0
LINE
  5
23A2
330
1F
100
AcDbEntity
  8
AM_VIS
100
AcDbLine
 10
316.1379252843986
 20
233.4569549958691
 30
0.0
 11
316.1379252843986
 21
229.4771590987558
 31
0.0
  0
ARC
  5
23A3
330
1F
100
AcDbEntity
  8
AM_VIS
100
AcDbCircle
 10
315.9655903691866
 20
232.4607574882474
 30
0.0
 40
1.010993964963601
100
AcDbArc
 50
0.9295646850995373
 51
80.18538366337134
  0
LINE
  5
23A4
330
1F
100
AcDbEntity
  8
AM_VIS
100
AcDbLine
 10
313.6041104238663
 20
233.4569549958691
 30
0.0
 11
313.6041104238663
 21
229.4771590987558
 31
0.0
  0
LINE
  5
23A5
330
1F
100
AcDbEntity
  8
AM_VIS
100
AcDbLine
 10
313.6006203857195
 20
229.4771590987558
 30
0.0
 11
313.6006203857195
 21
232.4771590987558
 31
0.0
  0
LINE
  5
23A6
330
1F
100
AcDbEntity
  8
AM_VIS
100
AcDbLine
 10
313.6003082617335
 20
232.4771600272662
 30
0.0
 11
313.6032229760716
 21
233.45695763586
 31
0.0
  0
LINE
  5
23A7
330
1F
100
AcDbEntity
  8
AM_VIS
100
AcDbLine
 10
321.212008358877
 20
232.4771590987558
 30
0.0
 11
321.212008358877
 21
229.4771590987558
 31
0.0
  0
LINE
  5
23A8
330
1F
100
AcDbEntity
  8
AM_VIS
100
AcDbLine
 10
320.3058399808579
 20
233.4569549958691
 30
0.0
 11
320.3058399808579
 21
229.4771590987558
 31
0.0
  0
ARC
  5
23A9
330
1F
100
AcDbEntity
  8
AM_VIS
100
AcDbCircle
 10
320.1738131185368
 20
232.4259146176416
 30
0.0
 40
1.039459164137604
100
AcDbArc
 50
2.825780187102651
 51
82.70286799395403
  0
LINE
  5
23AA
330
1F
100
AcDbEntity
  8
AM_VIS
100
AcDbLine
 10
318.956350268982
 20
229.4771590987558
 30
0.0
 11
318.956350268982
 21
232.4771590987558
 31
0.0
  0
SPLINE
  5
23AB
330
1F
100
AcDbEntity
  8
AM_VIS
100
AcDbSpline
210
0.0
220
0.0
230
1.0
 70
     8
 71
     3
 72
    22
 73
    18
 74
     0
 42
0.0000000001
 43
0.0000000001
 40
0.0
 40
0.0
 40
0.0
 40
0.0
 40
0.1778713664358457
 40
0.1778713664358457
 40
0.3557427328716913
 40
0.3557427328716913
 40
0.5448701737170531
 40
0.5448701737170531
 40
0.7339976145624148
 40
0.7339976145624148
 40
0.9385155228210928
 40
0.9385155228210928
 40
1.14303343107977
 40
1.14303343107977
 40
1.36312441969885
 40
1.36312441969885
 40
1.366730172590597
 40
1.366730172590597
 40
1.366730172590597
 40
1.366730172590597
 10
318.956350268982
 20
232.4771590987558
 30
0.0
 10
318.956350268982
 20
232.5364495542344
 30
0.0
 10
318.9539471293784
 20
232.6011183536316
 30
0.0
 10
318.943681689178
 20
232.7274016620937
 30
0.0
 10
318.9358259512105
 20
232.7890198820487
 30
0.0
 10
318.917034165479
 20
232.900861309311
 30
0.0
 10
318.9041137268822
 20
232.9609487542013
 30
0.0
 10
318.8735966698778
 20
233.072308306501
 30
0.0
 10
318.8560136728107
 20
233.1236063797534
 30
0.0
 10
318.8195798007793
 20
233.2129489178336
 30
0.0
 10
318.7971119870449
 20
233.2584677134061
 30
0.0
 10
318.7490855088185
 20
233.3364182690281
 30
0.0
 10
318.7235363319261
 20
233.368890690351
 30
0.0
 10
318.6734569386946
 20
233.4197235118154
 30
0.0
 10
318.6441370319906
 20
233.4419034157413
 30
0.0
 10
318.6137781311057
 20
233.4564907000655
 30
0.0
 10
318.6132886381801
 20
233.456723844113
 30
0.0
 10
318.6127990186049
 20
233.4569549958691
 30
0.0
  0
LINE
  5
23AC
330
1F
100
AcDbEntity
  8
AM_VIS
100
AcDbLine
 10
323.0756037567544
 20
232.4771590987558
 30
0.0
 11
323.0756037567544
 21
229.4771590987558
 31
0.0
  0
LINE
  5
23AD
330
1F
100
AcDbEntity
  8
AM_VIS
100
AcDbLine
 10
322.2397489190938
 20
233.4569549958691
 30
0.0
 11
322.2397489190938
 21
232.8047910061789
 31
0.0
  0
ARC
  5
23AE
330
1F
100
AcDbEntity
  8
AM_VIS
100
AcDbCircle
 10
322.0657357118131
 20
232.4620779619738
 30
0.0
 40
1.009980647775154
100
AcDbArc
 50
0.8555783752144245
 51
80.07879901803027
  0
LINE
  5
23AF
330
1F
100
AcDbEntity
  8
AM_VIS
100
AcDbLine
 10
322.2835219694993
 20
229.4771590987558
 30
0.0
 11
322.2835219694993
 21
232.4771590987558
 31
0.0
  0
ARC
  5
23B0
330
1F
100
AcDbEntity
  8
AM_VIS
100
AcDbCircle
 10
321.321208280537
 20
232.5480635245861
 30
0.0
 40
0.9649223147831108
100
AcDbArc
 50
355.7859931280187
 51
70.37863060305311
  0
LINE
  5
23B1
330
1F
100
AcDbEntity
  8
AM_VIS
100
AcDbLine
 10
288.9798653197537
 20
232.4771590987558
 30
0.0
 11
288.9798653197537
 21
229.4771590987558
 31
0.0
  0
ARC
  5
23B2
330
1F
100
AcDbEntity
  8
AM_VIS
100
AcDbCircle
 10
289.9421790087123
 20
232.5480635245948
 30
0.0
 40
0.9649223147802565
100
AcDbArc
 50
109.621369398012
 51
184.2140068725104
  0
LINE
  5
23B3
330
1F
100
AcDbEntity
  8
AM_VIS
100
AcDbLine
 10
289.023638370152
 20
233.4569549958691
 30
0.0
 11
289.023638370152
 21
232.8047910061579
 31
0.0
  0
LINE
  5
23B4
330
1F
100
AcDbEntity
  8
AM_VIS
100
AcDbLine
 10
288.1877835324985
 20
229.4771590987558
 30
0.0
 11
288.1877835324985
 21
232.4771590987558
 31
0.0
  0
ARC
  5
23B5
330
1F
100
AcDbEntity
  8
AM_VIS
100
AcDbCircle
 10
289.1976515774379
 20
232.4620779619768
 30
0.0
 40
1.009980647773156
100
AcDbArc
 50
99.92120098229367
 51
179.1444216249517
  0
LINE
  5
23B6
330
1F
100
AcDbEntity
  8
AM_VIS
100
AcDbLine
 10
292.307037020271
 20
232.4771590987558
 30
0.0
 11
292.307037020271
 21
229.4771590987558
 31
0.0
  0
SPLINE
  5
23B7
330
1F
100
AcDbEntity
  8
AM_VIS
100
AcDbSpline
210
0.0
220
0.0
230
1.0
 70
     8
 71
     3
 72
    20
 73
    16
 74
     0
 42
0.0000000001
 43
0.0000000001
 40
-1.367018727310603
 40
-1.367018727310603
 40
-1.367018727310603
 40
-1.367018727310603
 40
-1.156777069905045
 40
-1.156777069905045
 40
-0.9579844098785565
 40
-0.9579844098785565
 40
-0.7591917498520671
 40
-0.7591917498520671
 40
-0.5632658897127039
 40
-0.5632658897127039
 40
-0.3673400295733407
 40
-0.3673400295733407
 40
-0.1836700147866699
 40
-0.1836700147866699
 40
0.0
 40
0.0
 40
0.0
 40
0.0
 10
292.650588270605
 20
233.4569549958691
 30
0.0
 10
292.6220262772332
 20
233.4434707414381
 30
0.0
 10
292.5939884675864
 20
233.4228625541639
 30
0.0
 10
292.5455296326377
 20
233.3754037309267
 30
0.0
 10
292.5205218339246
 20
233.3447840965131
 30
0.0
 10
292.4733083069159
 20
233.2711843777707
 30
0.0
 10
292.4511110038289
 20
233.2281666978183
 30
0.0
 10
292.4137466566077
 20
233.1409981581762
 30
0.0
 10
292.3950858482521
 20
233.0889576694466
 30
0.0
 10
292.3626477926108
 20
232.9752968958908
 30
0.0
 10
292.348885323306
 20
232.9136472735721
 30
0.0
 10
292.3288813766813
 20
232.798641555603
 30
0.0
 10
292.3205253376031
 20
232.7352485416703
 30
0.0
 10
292.3095994993354
 20
232.6051211200412
 30
0.0
 10
292.307037020271
 20
232.5383824370181
 30
0.0
 10
292.307037020271
 20
232.4771590987558
 30
0.0
  0
LINE
  5
23B8
330
1F
100
AcDbEntity
  8
AM_VIS
100
AcDbLine
 10
290.9575473083622
 20
233.4569549958691
 30
0.0
 11
290.9575473083622
 21
229.4771590987558
 31
0.0
  0
LINE
  5
23B9
330
1F
100
AcDbEntity
  8
AM_VIS
100
AcDbLine
 10
290.0513789303759
 20
229.4771590987558
 30
0.0
 11
290.0513789303759
 21
232.4771590987558
 31
0.0
  0
ARC
  5
23BA
330
1F
100
AcDbEntity
  8
AM_VIS
100
AcDbCircle
 10
291.0896641140881
 20
232.4258314331382
 30
0.0
 40
1.039553102046246
100
AcDbArc
 50
97.30146682126868
 51
177.1698849997407
  0
LINE
  5
23BB
330
1F
100
AcDbEntity
  8
AM_VIS
100
AcDbLine
 10
297.6627669035334
 20
232.4771590987558
 30
0.0
 11
297.6627669035334
 21
229.4771590987558
 31
0.0
  0
LINE
  5
23BC
330
1F
100
AcDbEntity
  8
AM_VIS
100
AcDbLine
 10
297.6592768653264
 20
233.4569549958691
 30
0.0
 11
297.6592768653264
 21
229.4771590987558
 31
0.0
  0
LINE
  5
23BD
330
1F
100
AcDbEntity
  8
AM_VIS
100
AcDbLine
 10
297.6601643131363
 20
233.4569576358601
 30
0.0
 11
297.6630790275249
 21
232.4771600272662
 31
0.0
  0
LINE
  5
23BE
330
1F
100
AcDbEntity
  8
AM_VIS
100
AcDbLine
 10
295.125462004801
 20
233.4569549958691
 30
0.0
 11
295.125462004801
 21
229.4771590987558
 31
0.0
  0
LINE
  5
23BF
330
1F
100
AcDbEntity
  8
AM_VIS
100
AcDbLine
 10
294.2869360075933
 20
229.4771590987558
 30
0.0
 11
294.2869360075933
 21
232.4771590987558
 31
0.0
  0
ARC
  5
23C0
330
1F
100
AcDbEntity
  8
AM_VIS
100
AcDbCircle
 10
295.2977969200471
 20
232.4607574882731
 30
0.0
 40
1.010993964944107
100
AcDbArc
 50
99.81461633879021
 51
179.0704353163401
  0
LINE
  5
23C1
330
1F
100
AcDbEntity
  8
AM_VIS
100
AcDbLine
 10
304.2316936446265
 20
232.4771590987558
 30
0.0
 11
304.2316936446265
 21
229.4771590987558
 31
0.0
  0
LINE
  5
23C2
330
1F
100
AcDbEntity
  8
AM_VIS
100
AcDbLine
 10
303.8816936445583
 20
233.4569549958691
 30
0.0
 11
303.8816936445583
 21
229.4771590987558
 31
0.0
  0
SPLINE
  5
23C3
330
1F
100
AcDbEntity
  8
AM_VIS
100
AcDbSpline
210
0.0
220
0.0
230
1.0
 70
     8
 71
     3
 72
    22
 73
    18
 74
     0
 42
0.0000000001
 43
0.0000000001
 40
-1.366730172614413
 40
-1.366730172614413
 40
-1.366730172614413
 40
-1.366730172614413
 40
-1.363124419720031
 40
-1.363124419720031
 40
-1.143033431089808
 40
-1.143033431089808
 40
-0.9385155228251909
 40
-0.9385155228251909
 40
-0.7339976145605727
 40
-0.7339976145605727
 40
-0.5448701737140303
 40
-0.5448701737140303
 40
-0.3557427328674878
 40
-0.3557427328674878
 40
-0.1778713664337443
 40
-0.1778713664337443
 40
0.0
 40
0.0
 40
0.0
 40
0.0
 10
303.8816936445583
 20
233.4569549958691
 30
0.0
 10
303.8821924547104
 20
233.4567238441128
 30
0.0
 10
303.8826911358357
 20
233.4564907000652
 30
0.0
 10
303.9136198991582
 20
233.4419034157404
 30
0.0
 10
303.9434901654935
 20
233.4197235118139
 30
0.0
 10
303.9945095916062
 20
233.3688906903484
 30
0.0
 10
304.0205383483178
 20
233.3364182690251
 30
0.0
 10
304.0694663244614
 20
233.2584677134024
 30
0.0
 10
304.0923558782032
 20
233.2129489178292
 30
0.0
 10
304.1294736450557
 20
233.1236063797482
 30
0.0
 10
304.1473866899589
 20
233.0723083064962
 30
0.0
 10
304.1784765781248
 20
232.9609487541968
 30
0.0
 10
304.1916395443626
 20
232.9008613093064
 30
0.0
 10
304.2107840679234
 20
232.7890198820446
 30
0.0
 10
304.2187872647858
 20
232.7274016620906
 30
0.0
 10
304.229245396045
 20
232.6011183536301
 30
0.0
 10
304.2316936446265
 20
232.5364495542337
 30
0.0
 10
304.2316936446265
 20
232.4771590987558
 30
0.0
  0
LINE
  5
23C4
330
1F
100
AcDbEntity
  8
AM_VIS
100
AcDbLine
 10
300.8928552291763
 20
233.4569549958691
 30
0.0
 11
300.8928552291763
 21
229.4771590987558
 31
0.0
  0
LINE
  5
23C5
330
1F
100
AcDbEntity
  8
AM_VIS
100
AcDbLine
 10
300.249629594565
 20
229.4771590987558
 30
0.0
 11
300.249629594565
 21
232.4771590987558
 31
0.0
  0
ARC
  5
23C6
330
1F
100
AcDbEntity
  8
AM_VIS
100
AcDbCircle
 10
301.2123204633842
 20
232.5461960927656
 30
0.0
 40
0.9651631030296009
100
AcDbArc
 50
109.3292465588972
 51
184.1018032685867
  0
LINE
  5
23C7
330
1F
100
AcDbEntity
  8
AM_VIS
100
AcDbLine
 10
323.1316936446265
 20
227.9771590987558
 30
0.0
 11
323.1316936446265
 21
232.4771590987558
 31
0.0
  0
LINE
  5
23C8
330
1F
100
AcDbEntity
  8
AM_VIS
100
AcDbLine
 10
288.1316936446264
 20
227.9771590987558
 30
0.0
 11
288.1316936446264
 21
232.4771590987558
 31
0.0
  0
LINE
  5
23C9
330
1F
100
AcDbEntity
  8
AM_VIS
100
AcDbLine
 10
307.0316936446265
 20
229.4771590987558
 30
0.0
 11
311.0137576946879
 21
229.4771590987558
 31
0.0
  0
LINE
  5
23CA
330
1F
100
AcDbEntity
  8
AM_VIS
100
AcDbLine
 10
310.370532060011
 20
233.4569549958691
 30
0.0
 11
307.3816936446265
 21
233.4569549958691
 31
0.0
  0
LINE
  5
23CB
330
1F
100
AcDbEntity
  8
AM_VIS
100
AcDbLine
 10
289.1316936446265
 20
233.4771590987558
 30
0.0
 11
322.1316936446265
 21
233.4771590987558
 31
0.0
  0
LINE
  5
23CC
330
1F
100
AcDbEntity
  8
AM_VIS
100
AcDbLine
 10
313.6006203857195
 20
229.4771590987558
 30
0.0
 11
316.9764512816596
 21
229.4771590987558
 31
0.0
  0
LINE
  5
23CD
330
1F
100
AcDbEntity
  8
AM_VIS
100
AcDbLine
 10
316.1379252843986
 20
233.4569549958691
 30
0.0
 11
313.6041104238663
 21
233.4569549958691
 31
0.0
  0
LINE
  5
23CE
330
1F
100
AcDbEntity
  8
AM_VIS
100
AcDbLine
 10
318.956350268982
 20
229.4771590987558
 30
0.0
 11
321.212008358877
 21
229.4771590987558
 31
0.0
  0
LINE
  5
23CF
330
1F
100
AcDbEntity
  8
AM_VIS
100
AcDbLine
 10
320.3058399808579
 20
233.4569549958691
 30
0.0
 11
318.6127990186049
 21
233.4569549958691
 31
0.0
  0
LINE
  5
23D0
330
1F
100
AcDbEntity
  8
AM_VIS
100
AcDbLine
 10
322.2835219694993
 20
229.4771590987558
 30
0.0
 11
323.0756037567544
 21
229.4771590987558
 31
0.0
  0
LINE
  5
23D1
330
1F
100
AcDbEntity
  8
AM_VIS
100
AcDbLine
 10
322.2397489190938
 20
233.4569549958691
 30
0.0
 11
321.6452319941685
 21
233.4569549958691
 31
0.0
  0
LINE
  5
23D2
330
1F
100
AcDbEntity
  8
AM_VIS
100
AcDbLine
 10
288.1877835324985
 20
229.4771590987558
 30
0.0
 11
288.9798653197537
 21
229.4771590987558
 31
0.0
  0
LINE
  5
23D3
330
1F
100
AcDbEntity
  8
AM_VIS
100
AcDbLine
 10
289.618155295065
 20
233.4569549958691
 30
0.0
 11
289.023638370152
 21
233.4569549958691
 31
0.0
  0
LINE
  5
23D4
330
1F
100
AcDbEntity
  8
AM_VIS
100
AcDbLine
 10
290.0513789303759
 20
229.4771590987558
 30
0.0
 11
292.307037020271
 21
229.4771590987558
 31
0.0
  0
LINE
  5
23D5
330
1F
100
AcDbEntity
  8
AM_VIS
100
AcDbLine
 10
292.650588270605
 20
233.4569549958691
 30
0.0
 11
290.9575473083622
 21
233.4569549958691
 31
0.0
  0
LINE
  5
23D6
330
1F
100
AcDbEntity
  8
AM_VIS
100
AcDbLine
 10
294.2869360075933
 20
229.4771590987558
 30
0.0
 11
297.6627669035334
 21
229.4771590987558
 31
0.0
  0
LINE
  5
23D7
330
1F
100
AcDbEntity
  8
AM_VIS
100
AcDbLine
 10
297.6592768653264
 20
233.4569549958691
 30
0.0
 11
295.125462004801
 21
233.4569549958691
 31
0.0
  0
LINE
  5
23D8
330
1F
100
AcDbEntity
  8
AM_VIS
100
AcDbLine
 10
300.249629594565
 20
229.4771590987558
 30
0.0
 11
304.2316936446265
 21
229.4771590987558
 31
0.0
  0
LINE
  5
23D9
330
1F
100
AcDbEntity
  8
AM_VIS
100
AcDbLine
 10
303.8816936445583
 20
233.4569549958691
 30
0.0
 11
300.8928552291763
 21
233.4569549958691
 31
0.0
  0
ARC
  5
23DA
330
1F
100
AcDbEntity
  8
AM_VIS
100
AcDbCircle
 10
322.1316936446265
 20
232.4771590987558
 30
0.0
 40
1.0
100
AcDbArc
 50
0.0
 51
90.0
  0
ARC
  5
23DB
330
1F
100
AcDbEntity
  8
AM_VIS
100
AcDbCircle
 10
289.1316936446265
 20
232.4771590987558
 30
0.0
 40
1.0
100
AcDbArc
 50
90.0
 51
180.0
  0
LINE
  5
23DC
330
1F
100
AcDbEntity
  8
AM_VIS
100
AcDbLine
 10
314.887774766151
 20
234.8771590987558
 30
0.0
 11
314.8877739610905
 21
234.8772242729952
 31
0.0
  0
LINE
  5
23DD
330
1F
100
AcDbEntity
  8
AM_VIS
100
AcDbLine
 10
303.1892486803534
 20
236.8548104672152
 30
0.0
 11
303.2534343954034
 21
237.4699794258121
 31
0.0
  0
LINE
  5
23DE
330
1F
100
AcDbEntity
  8
AM_VIS
100
AcDbLine
 10
315.6632196945034
 20
237.4699797027698
 30
0.0
 11
315.924757758407
 21
236.8548110144918
 31
0.0
  0
LINE
  5
23DF
330
1F
100
AcDbEntity
  8
AM_VIS
100
AcDbLine
 10
296.0457363120326
 20
236.8548110144918
 30
0.0
 11
296.3072743759361
 21
237.4699797027698
 31
0.0
  0
LINE
  5
23E0
330
1F
100
AcDbEntity
  8
AM_VIS
100
AcDbLine
 10
294.1099269757868
 20
236.8548104672152
 30
0.0
 11
294.4127108022785
 21
237.4699794258121
 31
0.0
  0
SPLINE
  5
23E1
330
1F
100
AcDbEntity
  8
AM_VIS
100
AcDbSpline
210
0.0
220
0.0
230
1.0
 70
     8
 71
     3
 72
    25
 73
    21
 74
     0
 42
0.0000000001
 43
0.0000000001
 40
2.954275003529809
 40
2.954275003529809
 40
2.954275003529809
 40
2.954275003529809
 40
2.962929469345842
 40
2.962929469345842
 40
2.962929469345842
 40
3.055470591738252
 40
3.055470591738252
 40
3.148011714130663
 40
3.148011714130663
 40
3.240582645396912
 40
3.240582645396912
 40
3.333153576663161
 40
3.333153576663161
 40
3.425761979201984
 40
3.425761979201984
 40
3.518370381740807
 40
3.518370381740807
 40
3.611012182903183
 40
3.611012182903183
 40
3.70365398406556
 40
3.70365398406556
 40
3.70365398406556
 40
3.70365398406556
 10
315.9428990083489
 20
235.3858853019744
 30
0.0
 10
315.9429352156393
 20
235.3829536262332
 30
0.0
 10
315.9429529272453
 20
235.3800439206946
 30
0.0
 10
315.9429529272453
 20
235.3771590987558
 30
0.0
 10
315.9429529272453
 20
235.3463120579584
 30
0.0
 10
315.9407999491914
 20
235.3126233123461
 30
0.0
 10
315.9315163858252
 20
235.2466465334004
 30
0.0
 10
315.924385831318
 20
235.214358491398
 30
0.0
 10
315.9076836301174
 20
235.1573544672118
 30
0.0
 10
315.89657201749
 20
235.1273877875757
 30
0.0
 10
315.8701287446289
 20
235.071443588809
 30
0.0
 10
315.8547971493904
 20
235.0454660082356
 30
0.0
 10
315.8239279594703
 20
235.0018272617993
 30
0.0
 10
315.8055451687337
 20
234.9801474444598
 30
0.0
 10
315.7659600261977
 20
234.9427576558365
 30
0.0
 10
315.7447577208038
 20
234.9270475862927
 30
0.0
 10
315.7044153013279
 20
234.9034245198667
 30
0.0
 10
315.6815576550168
 20
234.8933370591509
 30
0.0
 10
315.6348522167701
 20
234.8802043772511
 30
0.0
 10
315.611004432892
 20
234.8771590987558
 30
0.0
 10
315.589168550951
 20
234.8771590987558
 30
0.0
  0
LINE
  5
23E2
330
1F
100
AcDbEntity
  8
AM_VIS
100
AcDbLine
 10
296.3756133281624
 20
234.8772242729952
 30
0.0
 11
296.3756125231019
 21
234.8771590987558
 31
0.0
  0
LINE
  5
23E3
330
1F
100
AcDbEntity
  8
AM_VIS
100
AcDbLine
 10
295.338629530846
 20
236.8548110144918
 30
0.0
 11
295.6001675947496
 21
237.4699797027698
 31
0.0
  0
LINE
  5
23E4
330
1F
100
AcDbEntity
  8
AM_VIS
100
AcDbLine
 10
294.1099269757868
 20
236.8548104672152
 30
0.0
 11
294.4818285116545
 21
262.864908188179
 31
0.0
  0
LINE
  5
23E5
330
1F
100
AcDbEntity
  8
AM_VIS
100
AcDbLine
 10
295.320488280904
 20
235.3858853019744
 30
0.0
 11
295.338630156744
 21
236.8548107483922
 31
0.0
  0
SPLINE
  5
23E6
330
1F
100
AcDbEntity
  8
AM_VIS
100
AcDbSpline
210
0.0
220
0.0
230
1.0
 70
     8
 71
     3
 72
    25
 73
    21
 74
     0
 42
0.0000000001
 43
0.0000000001
 40
2.222204954626123
 40
2.222204954626123
 40
2.222204954626123
 40
2.222204954626123
 40
2.3148467557885
 40
2.3148467557885
 40
2.407488556950876
 40
2.407488556950876
 40
2.500096959489699
 40
2.500096959489699
 40
2.592705362028522
 40
2.592705362028522
 40
2.685276293294771
 40
2.685276293294771
 40
2.77784722456102
 40
2.77784722456102
 40
2.870388346953431
 40
2.870388346953431
 40
2.962929469345841
 40
2.962929469345841
 40
2.962929469345841
 40
2.97158393516162
 40
2.97158393516162
 40
2.97158393516162
 40
2.97158393516162
 10
295.6742187383019
 20
234.8771590987558
 30
0.0
 10
295.6523828563609
 20
234.8771590987558
 30
0.0
 10
295.6285350724827
 20
234.8802043772511
 30
0.0
 10
295.5818296342361
 20
234.8933370591509
 30
0.0
 10
295.558971987925
 20
234.9034245198667
 30
0.0
 10
295.5186295684491
 20
234.9270475862927
 30
0.0
 10
295.4974272630551
 20
234.9427576558365
 30
0.0
 10
295.4578421205192
 20
234.9801474444598
 30
0.0
 10
295.4394593297826
 20
235.0018272617993
 30
0.0
 10
295.4085901398624
 20
235.0454660082356
 30
0.0
 10
295.393258544624
 20
235.071443588809
 30
0.0
 10
295.3668152717629
 20
235.1273877875757
 30
0.0
 10
295.3557036591354
 20
235.1573544672118
 30
0.0
 10
295.3390014579349
 20
235.214358491398
 30
0.0
 10
295.3318709034277
 20
235.2466465334004
 30
0.0
 10
295.3225873400615
 20
235.3126233123461
 30
0.0
 10
295.3204343620075
 20
235.3463120579584
 30
0.0
 10
295.3204343620075
 20
235.3771590987558
 30
0.0
 10
295.3204343620075
 20
235.3800439206945
 30
0.0
 10
295.3204520736136
 20
235.3829536262333
 30
0.0
 10
295.320488280904
 20
235.3858853019744
 30
0.0
  0
LINE
  5
23E7
330
1F
100
AcDbEntity
  8
AM_VIS
100
AcDbLine
 10
314.9561129133168
 20
237.4699797027698
 30
0.0
 11
315.2176509772204
 21
236.8548110144918
 31
0.0
  0
LINE
  5
23E8
330
1F
100
AcDbEntity
  8
AM_VIS
100
AcDbLine
 10
303.1892486803534
 20
236.8548104672152
 30
0.0
 11
303.2680863325637
 21
262.864908188179
 31
0.0
  0
LINE
  5
23E9
330
1F
100
AcDbEntity
  8
AM_VIS
100
AcDbLine
 10
315.2357922271624
 20
235.3858853019744
 30
0.0
 11
315.2176503513224
 21
236.8548107483922
 31
0.0
  0
LINE
  5
23EA
330
1F
100
AcDbEntity
  8
AM_VIS
100
AcDbLine
 10
296.0457369379305
 20
236.8548107483922
 30
0.0
 11
296.0275950620905
 21
235.3858853019744
 31
0.0
  0
LINE
  5
23EB
330
1F
100
AcDbEntity
  8
AM_VIS
100
AcDbLine
 10
297.8244740284979
 20
262.864908188179
 30
0.0
 11
297.5640657696116
 21
236.8548104672152
 31
0.0
  0
SPLINE
  5
23EC
330
1F
100
AcDbEntity
  8
AM_VIS
100
AcDbSpline
210
0.0
220
0.0
230
1.0
 70
     8
 71
     3
 72
    25
 73
    21
 74
     0
 42
0.0000000001
 43
0.0000000001
 40
2.954275003529806
 40
2.954275003529806
 40
2.954275003529806
 40
2.954275003529806
 40
2.962929469345839
 40
2.962929469345839
 40
2.962929469345839
 40
3.055470591738247
 40
3.055470591738247
 40
3.148011714130656
 40
3.148011714130656
 40
3.240582645396906
 40
3.240582645396906
 40
3.333153576663157
 40
3.333153576663157
 40
3.425761979201979
 40
3.425761979201979
 40
3.518370381740801
 40
3.518370381740801
 40
3.611012182903178
 40
3.611012182903178
 40
3.703653984065555
 40
3.703653984065555
 40
3.703653984065555
 40
3.703653984065555
 10
296.0275950620905
 20
235.3858853019744
 30
0.0
 10
296.0275588548001
 20
235.3829536262332
 30
0.0
 10
296.0275411431941
 20
235.3800439206946
 30
0.0
 10
296.0275411431941
 20
235.3771590987558
 30
0.0
 10
296.0275411431941
 20
235.3463120579584
 30
0.0
 10
296.0296941212481
 20
235.3126233123461
 30
0.0
 10
296.0389776846142
 20
235.2466465334004
 30
0.0
 10
296.0461082391214
 20
235.214358491398
 30
0.0
 10
296.0628104403221
 20
235.1573544672118
 30
0.0
 10
296.0739220529493
 20
235.1273877875757
 30
0.0
 10
296.1003653258106
 20
235.071443588809
 30
0.0
 10
296.1156969210491
 20
235.0454660082356
 30
0.0
 10
296.1465661109691
 20
235.0018272617993
 30
0.0
 10
296.1649489017058
 20
234.9801474444598
 30
0.0
 10
296.2045340442418
 20
234.9427576558365
 30
0.0
 10
296.2257363496357
 20
234.9270475862927
 30
0.0
 10
296.2660787691115
 20
234.9034245198667
 30
0.0
 10
296.2889364154226
 20
234.8933370591509
 30
0.0
 10
296.3356418536692
 20
234.8802043772511
 30
0.0
 10
296.3594896375474
 20
234.8771590987558
 30
0.0
 10
296.3813255194885
 20
234.8771590987558
 30
0.0
  0
SPLINE
  5
23ED
330
1F
100
AcDbEntity
  8
AM_VIS
100
AcDbSpline
210
0.0
220
0.0
230
1.0
 70
     8
 71
     3
 72
    25
 73
    21
 74
     0
 42
0.0000000001
 43
0.0000000001
 40
2.222204954626122
 40
2.222204954626122
 40
2.222204954626122
 40
2.222204954626122
 40
2.314846755788499
 40
2.314846755788499
 40
2.407488556950875
 40
2.407488556950875
 40
2.500096959489698
 40
2.500096959489698
 40
2.59270536202852
 40
2.59270536202852
 40
2.68527629329477
 40
2.68527629329477
 40
2.77784722456102
 40
2.77784722456102
 40
2.870388346953429
 40
2.870388346953429
 40
2.962929469345838
 40
2.962929469345838
 40
2.962929469345838
 40
2.971583935161616
 40
2.971583935161616
 40
2.971583935161616
 40
2.971583935161616
 10
314.8820617697644
 20
234.8771590987558
 30
0.0
 10
314.9038976517055
 20
234.8771590987558
 30
0.0
 10
314.9277454355837
 20
234.8802043772511
 30
0.0
 10
314.9744508738303
 20
234.8933370591509
 30
0.0
 10
314.9973085201414
 20
234.9034245198667
 30
0.0
 10
315.0376509396173
 20
234.9270475862927
 30
0.0
 10
315.0588532450111
 20
234.9427576558365
 30
0.0
 10
315.0984383875472
 20
234.9801474444598
 30
0.0
 10
315.1168211782838
 20
235.0018272617993
 30
0.0
 10
315.1476903682038
 20
235.0454660082356
 30
0.0
 10
315.1630219634423
 20
235.071443588809
 30
0.0
 10
315.1894652363035
 20
235.1273877875757
 30
0.0
 10
315.2005768489309
 20
235.1573544672118
 30
0.0
 10
315.2172790501314
 20
235.214358491398
 30
0.0
 10
315.2244096046387
 20
235.2466465334004
 30
0.0
 10
315.2336931680048
 20
235.3126233123461
 30
0.0
 10
315.2358461460589
 20
235.3463120579584
 30
0.0
 10
315.2358461460589
 20
235.3771590987558
 30
0.0
 10
315.2358461460589
 20
235.3800439206945
 30
0.0
 10
315.2358284344527
 20
235.3829536262333
 30
0.0
 10
315.2357922271624
 20
235.3858853019744
 30
0.0
  0
LINE
  5
23EE
330
1F
100
AcDbEntity
  8
AM_VIS
100
AcDbLine
 10
307.9953009566892
 20
262.864908188179
 30
0.0
 11
308.0741386088995
 21
236.8548104672152
 31
0.0
  0
LINE
  5
23EF
330
1F
100
AcDbEntity
  8
AM_VIS
100
AcDbLine
 10
308.0099528938494
 20
237.4699794258121
 30
0.0
 11
308.0741386088995
 21
236.8548104672152
 31
0.0
  0
LINE
  5
23F0
330
1F
100
AcDbEntity
  8
AM_VIS
100
AcDbLine
 10
313.6993215196413
 20
236.8548104672152
 30
0.0
 11
313.4389132607549
 21
262.864908188179
 31
0.0
  0
LINE
  5
23F1
330
1F
100
AcDbEntity
  8
AM_VIS
100
AcDbLine
 10
316.8506764869743
 20
237.4699794258121
 30
0.0
 11
317.1534603134661
 21
236.8548104672152
 31
0.0
  0
LINE
  5
23F2
330
1F
100
AcDbEntity
  8
AM_VIS
100
AcDbLine
 10
315.924757132509
 20
236.8548107483922
 30
0.0
 11
315.9428990083489
 21
235.3858853019744
 31
0.0
  0
LINE
  5
23F3
330
1F
100
AcDbEntity
  8
AM_VIS
100
AcDbLine
 10
316.7815587775983
 20
262.864908188179
 30
0.0
 11
317.1534603134661
 21
236.8548104672152
 31
0.0
  0
LINE
  5
23F4
330
1F
100
AcDbEntity
  8
AM_VIS
100
AcDbLine
 10
319.4834873659247
 20
236.8548104672152
 30
0.0
 11
319.0363768222434
 21
262.864908188179
 31
0.0
  0
LINE
  5
23F5
330
1F
100
AcDbEntity
  8
AM_VIS
100
AcDbLine
 10
292.2270104670094
 20
262.864908188179
 30
0.0
 11
291.7798999233281
 21
236.8548104672152
 31
0.0
  0
LINE
  5
23F6
330
1F
100
AcDbEntity
  8
AM_VIS
100
AcDbLine
 10
294.8117374838876
 20
265.3771590982635
 30
0.0
 11
294.4818285116545
 21
262.864908188179
 31
0.0
  0
LINE
  5
23F7
330
1F
100
AcDbEntity
  8
AM_VIS
100
AcDbLine
 10
292.2270104670094
 20
262.864908188179
 30
0.0
 11
292.6236363631523
 21
265.3771590982635
 31
0.0
  0
LINE
  5
23F8
330
1F
100
AcDbEntity
  8
AM_VIS
100
AcDbLine
 10
303.3380221793151
 20
265.3771590987558
 30
0.0
 11
303.2680863325637
 21
262.864908188179
 31
0.0
  0
LINE
  5
23F9
330
1F
100
AcDbEntity
  8
AM_VIS
100
AcDbLine
 10
297.8244740284979
 20
262.864908188179
 30
0.0
 11
298.0554787777785
 21
265.3771590982635
 31
0.0
  0
LINE
  5
23FA
330
1F
100
AcDbEntity
  8
AM_VIS
100
AcDbLine
 10
316.7815587775983
 20
262.864908188179
 30
0.0
 11
316.4516498053654
 21
265.3771590982635
 31
0.0
  0
LINE
  5
23FB
330
1F
100
AcDbEntity
  8
AM_VIS
100
AcDbLine
 10
318.6397509260229
 20
265.3771590987558
 30
0.0
 11
319.0363768222434
 21
262.864908188179
 31
0.0
  0
LINE
  5
23FC
330
1F
100
AcDbEntity
  8
AM_VIS
100
AcDbLine
 10
307.9953009566892
 20
262.864908188179
 30
0.0
 11
307.9253651099515
 21
265.3771590982635
 31
0.0
  0
LINE
  5
23FD
330
1F
100
AcDbEntity
  8
AM_VIS
100
AcDbLine
 10
313.2079085114745
 20
265.3771590982635
 30
0.0
 11
313.4389132607549
 21
262.864908188179
 31
0.0
  0
LINE
  5
23FE
330
1F
100
AcDbEntity
  8
AM_VIS
100
AcDbLine
 10
316.4516498053654
 20
265.3771590982635
 30
0.0
 11
316.8506764869743
 21
237.4699794258121
 31
0.0
  0
LINE
  5
23FF
330
1F
100
AcDbEntity
  8
AM_VIS
100
AcDbLine
 10
315.6632190430658
 20
237.4699794258121
 30
0.0
 11
315.6026110300364
 21
242.3771590987558
 31
0.0
  0
SPLINE
  5
2400
330
1F
100
AcDbEntity
  8
AM_VIS
100
AcDbSpline
210
0.0
220
0.0
230
1.0
 70
     8
 71
     3
 72
    16
 73
    12
 74
     0
 42
0.0000000001
 43
0.0000000001
 40
1.507536476980761
 40
1.507536476980761
 40
1.507536476980761
 40
1.507536476980761
 40
1.507857113749062
 40
1.507857113749062
 40
1.696121439472489
 40
1.696121439472489
 40
1.884385765195915
 40
1.884385765195915
 40
2.072660659556296
 40
2.072660659556296
 40
2.260935553916676
 40
2.260935553916676
 40
2.260935553916676
 40
2.260935553916676
 10
315.6026110561427
 20
242.377159099401
 30
0.0
 10
315.6026097346041
 20
242.3772659862038
 30
0.0
 10
315.6026083926434
 20
242.3773728609476
 30
0.0
 10
315.6018046594049
 20
242.440224940977
 30
0.0
 10
315.5924251798214
 20
242.5071524915936
 30
0.0
 10
315.5560255261649
 20
242.6302667611764
 30
0.0
 10
315.5289877497156
 20
242.6864533800996
 30
0.0
 10
315.4667503545696
 20
242.7751773835865
 30
0.0
 10
315.4273972940523
 20
242.8136304844985
 30
0.0
 10
315.3409107865725
 20
242.8646213889047
 30
0.0
 10
315.2937596543814
 20
242.8771590987558
 30
0.0
 10
315.2493828362048
 20
242.8771590987558
 30
0.0
  0
SPLINE
  5
2401
330
1F
100
AcDbEntity
  8
AM_VIS
100
AcDbSpline
210
0.0
220
0.0
230
1.0
 70
     8
 71
     3
 72
    16
 73
    12
 74
     0
 42
0.0000000001
 43
0.0000000001
 40
0.7530784401676158
 40
0.7530784401676158
 40
0.7530784401676158
 40
0.7530784401676158
 40
0.9413533345279974
 40
0.9413533345279974
 40
1.129628228888379
 40
1.129628228888379
 40
1.317892554611805
 40
1.317892554611805
 40
1.506156880335232
 40
1.506156880335232
 40
1.506477517103662
 40
1.506477517103662
 40
1.506477517103662
 40
1.506477517103662
 10
315.2493828362048
 20
242.8771590987558
 30
0.0
 10
315.2050060180284
 20
242.8771590987558
 30
0.0
 10
315.1574869540716
 20
242.8646213889047
 30
0.0
 10
315.06980992047
 20
242.8136304844985
 30
0.0
 10
315.0296693432083
 20
242.7751773835865
 30
0.0
 10
314.9663598697049
 20
242.6864533800996
 30
0.0
 10
314.9389718918507
 20
242.6302667611764
 30
0.0
 10
314.9031606435049
 20
242.5071524915936
 30
0.0
 10
314.8947549249895
 20
242.440224940977
 30
0.0
 10
314.8955016599285
 20
242.3773728609475
 30
0.0
 10
314.8955029563745
 20
242.3772659862037
 30
0.0
 10
314.8955042749561
 20
242.3771590994008
 30
0.0
  0
LINE
  5
2402
330
1F
100
AcDbEntity
  8
AM_VIS
100
AcDbLine
 10
314.8955042488499
 20
242.3771590987558
 30
0.0
 11
314.9561122618793
 21
237.4699794258121
 31
0.0
  0
LINE
  5
2403
330
1F
100
AcDbEntity
  8
AM_VIS
100
AcDbLine
 10
307.9253651099515
 20
265.3771590982635
 30
0.0
 11
308.0099528938494
 21
237.4699794258121
 31
0.0
  0
LINE
  5
2404
330
1F
100
AcDbEntity
  8
AM_VIS
100
AcDbLine
 10
303.2534343954034
 20
237.4699794258121
 30
0.0
 11
303.3380221793028
 21
265.377159098757
 31
0.0
  0
LINE
  5
2405
330
1F
100
AcDbEntity
  8
AM_VIS
100
AcDbLine
 10
296.3072750273735
 20
237.4699794258121
 30
0.0
 11
296.3678830404031
 21
242.3771590987558
 31
0.0
  0
SPLINE
  5
2406
330
1F
100
AcDbEntity
  8
AM_VIS
100
AcDbSpline
210
0.0
220
0.0
230
1.0
 70
     8
 71
     3
 72
    16
 73
    12
 74
     0
 42
0.0000000001
 43
0.0000000001
 40
1.50753647698076
 40
1.50753647698076
 40
1.50753647698076
 40
1.50753647698076
 40
1.507857113749057
 40
1.507857113749057
 40
1.696121439472484
 40
1.696121439472484
 40
1.884385765195911
 40
1.884385765195911
 40
2.072660659556292
 40
2.072660659556292
 40
2.260935553916673
 40
2.260935553916673
 40
2.260935553916673
 40
2.260935553916673
 10
296.3678830142968
 20
242.377159099401
 30
0.0
 10
296.3678843328785
 20
242.3772659862038
 30
0.0
 10
296.3678856293243
 20
242.3773728609476
 30
0.0
 10
296.3686323642633
 20
242.440224940977
 30
0.0
 10
296.3602266457479
 20
242.5071524915936
 30
0.0
 10
296.3244153974023
 20
242.6302667611764
 30
0.0
 10
296.297027419548
 20
242.6864533800996
 30
0.0
 10
296.2337179460445
 20
242.7751773835865
 30
0.0
 10
296.1935773687828
 20
242.8136304844985
 30
0.0
 10
296.1059003351812
 20
242.8646213889047
 30
0.0
 10
296.0583812712244
 20
242.8771590987558
 30
0.0
 10
296.014004453048
 20
242.8771590987558
 30
0.0
  0
SPLINE
  5
2407
330
1F
100
AcDbEntity
  8
AM_VIS
100
AcDbSpline
210
0.0
220
0.0
230
1.0
 70
     8
 71
     3
 72
    16
 73
    12
 74
     0
 42
0.0000000001
 43
0.0000000001
 40
0.7530784401676153
 40
0.7530784401676153
 40
0.7530784401676153
 40
0.7530784401676153
 40
0.941353334527999
 40
0.941353334527999
 40
1.129628228888382
 40
1.129628228888382
 40
1.317892554611809
 40
1.317892554611809
 40
1.506156880335236
 40
1.506156880335236
 40
1.506477517103663
 40
1.506477517103663
 40
1.506477517103663
 40
1.506477517103663
 10
296.014004453048
 20
242.8771590987558
 30
0.0
 10
295.9696276348716
 20
242.8771590987558
 30
0.0
 10
295.9224765026803
 20
242.8646213889047
 30
0.0
 10
295.8359899952006
 20
242.8136304844985
 30
0.0
 10
295.7966369346833
 20
242.7751773835865
 30
0.0
 10
295.7343995395372
 20
242.6864533800996
 30
0.0
 10
295.7073617630879
 20
242.6302667611764
 30
0.0
 10
295.6709621094315
 20
242.5071524915936
 30
0.0
 10
295.6615826298479
 20
242.440224940977
 30
0.0
 10
295.6607788966095
 20
242.3773728609475
 30
0.0
 10
295.6607775546487
 20
242.3772659862037
 30
0.0
 10
295.6607762331101
 20
242.3771590994007
 30
0.0
  0
LINE
  5
2408
330
1F
100
AcDbEntity
  8
AM_VIS
100
AcDbLine
 10
295.6607762592165
 20
242.3771590987558
 30
0.0
 11
295.6001682461871
 21
237.4699794258121
 31
0.0
  0
LINE
  5
2409
330
1F
100
AcDbEntity
  8
AM_VIS
100
AcDbLine
 10
294.4127108022785
 20
237.4699794258121
 30
0.0
 11
294.8117374838876
 21
265.3771590982635
 31
0.0
  0
LINE
  5
240A
330
1F
100
AcDbEntity
  8
AM_VIS
100
AcDbLine
 10
319.4771940203886
 20
237.2209179873786
 30
0.0
 11
319.6971736115846
 21
236.8548104672152
 31
0.0
  0
LINE
  5
240B
330
1F
100
AcDbEntity
  8
AM_VIS
100
AcDbLine
 10
291.7861932688643
 20
237.2209179873786
 30
0.0
 11
291.5662136776683
 21
236.8548104672152
 31
0.0
  0
LINE
  5
240C
330
1F
100
AcDbEntity
  8
AM_VIS
100
AcDbLine
 10
291.5662136776683
 20
236.8548104672152
 30
0.0
 11
291.5405734935344
 21
235.3858853019744
 31
0.0
  0
LINE
  5
240D
330
1F
100
AcDbEntity
  8
AM_VIS
100
AcDbLine
 10
319.6971736115846
 20
236.8548104672152
 30
0.0
 11
319.7228137957186
 21
235.3858853019744
 31
0.0
  0
LINE
  5
240E
330
1F
100
AcDbEntity
  8
AM_VIS
100
AcDbLine
 10
292.4231184285357
 20
265.3858853019745
 30
0.0
 11
292.3980218637714
 21
263.9481040695575
 31
0.0
  0
LINE
  5
240F
330
1F
100
AcDbEntity
  8
AM_VIS
100
AcDbLine
 10
318.8402688607171
 20
265.3858853019745
 30
0.0
 11
318.8653654254815
 21
263.9481040695575
 31
0.0
  0
LINE
  5
2410
330
1F
100
AcDbEntity
  8
AM_VIS
100
AcDbLine
 10
291.5662136776683
 20
236.8548104672152
 30
0.0
 11
291.7798999233281
 21
236.8548104672152
 31
0.0
  0
LINE
  5
2411
330
1F
100
AcDbEntity
  8
AM_VIS
100
AcDbLine
 10
294.1099269757868
 20
236.8548104672152
 30
0.0
 11
295.3386300331084
 21
236.8548104672152
 31
0.0
  0
LINE
  5
2412
330
1F
100
AcDbEntity
  8
AM_VIS
100
AcDbLine
 10
303.1892486803534
 20
236.8548104672152
 30
0.0
 11
308.0741386088995
 21
236.8548104672152
 31
0.0
  0
LINE
  5
2413
330
1F
100
AcDbEntity
  8
AM_VIS
100
AcDbLine
 10
313.6993215196413
 20
236.8548104672152
 30
0.0
 11
315.2176504664645
 21
236.8548104672152
 31
0.0
  0
LINE
  5
2414
330
1F
100
AcDbEntity
  8
AM_VIS
100
AcDbLine
 10
296.0457368227884
 20
236.8548104672152
 30
0.0
 11
297.5640657696116
 21
236.8548104672152
 31
0.0
  0
LINE
  5
2415
330
1F
100
AcDbEntity
  8
AM_VIS
100
AcDbLine
 10
315.9247572561445
 20
236.8548104672152
 30
0.0
 11
317.1534603134661
 21
236.8548104672152
 31
0.0
  0
LINE
  5
2416
330
1F
100
AcDbEntity
  8
AM_VIS
100
AcDbLine
 10
319.4834873659247
 20
236.8548104672152
 30
0.0
 11
319.6971736115846
 21
236.8548104672152
 31
0.0
  0
LINE
  5
2417
330
1F
100
AcDbEntity
  8
AM_VIS
100
AcDbLine
 10
292.2270104670094
 20
262.864908188179
 30
0.0
 11
294.4818285116545
 21
262.864908188179
 31
0.0
  0
LINE
  5
2418
330
1F
100
AcDbEntity
  8
AM_VIS
100
AcDbLine
 10
297.8244740284979
 20
262.864908188179
 30
0.0
 11
303.2680863325637
 21
262.864908188179
 31
0.0
  0
LINE
  5
2419
330
1F
100
AcDbEntity
  8
AM_VIS
100
AcDbLine
 10
316.7815587775983
 20
262.864908188179
 30
0.0
 11
319.0363768222434
 21
262.864908188179
 31
0.0
  0
LINE
  5
241A
330
1F
100
AcDbEntity
  8
AM_VIS
100
AcDbLine
 10
307.9953009566892
 20
262.864908188179
 30
0.0
 11
313.4389132607549
 21
262.864908188179
 31
0.0
  0
LINE
  5
241B
330
1F
100
AcDbEntity
  8
AM_VIS
100
AcDbLine
 10
316.4516498053007
 20
265.3771590987558
 30
0.0
 11
318.6397509260229
 21
265.3771590987558
 31
0.0
  0
LINE
  5
241C
330
1F
100
AcDbEntity
  8
AM_VIS
100
AcDbLine
 10
315.6632190430658
 20
237.4699794258121
 30
0.0
 11
316.8506764869743
 21
237.4699794258121
 31
0.0
  0
LINE
  5
241D
330
1F
100
AcDbEntity
  8
AM_VIS
100
AcDbLine
 10
313.6931625624876
 20
237.4699794258121
 30
0.0
 11
314.9561122618793
 21
237.4699794258121
 31
0.0
  0
LINE
  5
241E
330
1F
100
AcDbEntity
  8
AM_VIS
100
AcDbLine
 10
307.9253651099378
 20
265.3771590987558
 30
0.0
 11
313.2079085114291
 21
265.3771590987558
 31
0.0
  0
LINE
  5
241F
330
1F
100
AcDbEntity
  8
AM_VIS
100
AcDbLine
 10
303.2534343954034
 20
237.4699794258121
 30
0.0
 11
308.0099528938494
 21
237.4699794258121
 31
0.0
  0
LINE
  5
2420
330
1F
100
AcDbEntity
  8
AM_VIS
100
AcDbLine
 10
298.0554787778237
 20
265.3771590987558
 30
0.0
 11
303.3380221793151
 21
265.3771590987558
 31
0.0
  0
LINE
  5
2421
330
1F
100
AcDbEntity
  8
AM_VIS
100
AcDbLine
 10
296.3072750273735
 20
237.4699794258121
 30
0.0
 11
297.5702247267653
 21
237.4699794258121
 31
0.0
  0
LINE
  5
2422
330
1F
100
AcDbEntity
  8
AM_VIS
100
AcDbLine
 10
294.4127108022785
 20
237.4699794258121
 30
0.0
 11
295.6001682461871
 21
237.4699794258121
 31
0.0
  0
LINE
  5
2423
330
1F
100
AcDbEntity
  8
AM_VIS
100
AcDbLine
 10
292.6236363632299
 20
265.3771590987558
 30
0.0
 11
294.8117374839522
 21
265.3771590987558
 31
0.0
  0
LINE
  5
2424
330
1F
100
AcDbEntity
  8
AM_VIS
100
AcDbLine
 10
292.923042276114
 20
265.8771590987558
 30
0.0
 11
318.340345013139
 21
265.8771590987558
 31
0.0
  0
ARC
  5
2425
330
1F
100
AcDbEntity
  8
AM_VIS
100
AcDbCircle
 10
319.2228899481404
 20
235.3771590987558
 30
0.0
 40
0.5
100
AcDbArc
 50
270.0
 51
0.9999999999985053
  0
ARC
  5
2426
330
1F
100
AcDbEntity
  8
AM_VIS
100
AcDbCircle
 10
292.0404973411125
 20
235.3771590987558
 30
0.0
 40
0.5
100
AcDbArc
 50
178.9999999999982
 51
270.0
  0
ARC
  5
2427
330
1F
100
AcDbEntity
  8
AM_VIS
100
AcDbCircle
 10
292.923042276114
 20
265.3771590987558
 30
0.0
 40
0.5
100
AcDbArc
 50
90.0
 51
178.9999999999982
  0
ARC
  5
2428
330
1F
100
AcDbEntity
  8
AM_VIS
100
AcDbCircle
 10
318.340345013139
 20
265.3771590987558
 30
0.0
 40
0.5
100
AcDbArc
 50
0.9999999999985053
 51
90.0
  0
LINE
  5
2429
330
1F
100
AcDbEntity
  8
AM_VIS
100
AcDbLine
 10
291.6316936446265
 20
234.8771590987558
 30
0.0
 11
291.6316936446265
 21
234.3771590987558
 31
0.0
  0
LINE
  5
242A
330
1F
100
AcDbEntity
  8
AM_VIS
100
AcDbLine
 10
291.6316936446265
 20
234.3771590987558
 30
0.0
 11
291.6316936446265
 21
233.4771590987558
 31
0.0
  0
LINE
  5
242B
330
1F
100
AcDbEntity
  8
AM_VIS
100
AcDbLine
 10
319.6316936446265
 20
233.4771590987558
 30
0.0
 11
319.6316936446265
 21
234.3771590987558
 31
0.0
  0
LINE
  5
242C
330
1F
100
AcDbEntity
  8
AM_VIS
100
AcDbLine
 10
319.6316936446265
 20
234.8771590987558
 30
0.0
 11
319.6316936446265
 21
234.3771590987558
 31
0.0
  0
LINE
  5
242D
330
1F
100
AcDbEntity
  8
AM_VIS
100
AcDbLine
 10
291.6316936446265
 20
234.8771590987558
 30
0.0
 11
319.6316936446265
 21
234.8771590987558
 31
0.0
  0
LINE
  5
242E
330
1F
100
AcDbEntity
  8
AM_VIS
100
AcDbLine
 10
323.1316936446265
 20
232.4771590987558
 30
0.0
 11
323.1316936446265
 21
244.8771590987558
 31
0.0
  0
LINE
  5
242F
330
1F
100
AcDbEntity
  8
AM_VIS
100
AcDbLine
 10
321.1316936446265
 20
246.8771590987558
 30
0.0
 11
319.3112043628508
 21
246.8771590987558
 31
0.0
  0
LINE
  5
2430
330
1F
100
AcDbEntity
  8
AM_VIS
100
AcDbLine
 10
291.952182926402
 20
246.8771590987558
 30
0.0
 11
290.1316936446264
 21
246.8771590987558
 31
0.0
  0
LINE
  5
2431
330
1F
100
AcDbEntity
  8
AM_VIS
100
AcDbLine
 10
288.1316936446264
 20
232.4771590987558
 30
0.0
 11
288.1316936446264
 21
244.8771590987558
 31
0.0
  0
ARC
  5
2432
330
1F
100
AcDbEntity
  8
AM_VIS
100
AcDbCircle
 10
321.1316936446265
 20
244.8771590987558
 30
0.0
 40
1.999999999999999
100
AcDbArc
 50
0.0
 51
90.0
  0
ARC
  5
2433
330
1F
100
AcDbEntity
  8
AM_VIS
100
AcDbCircle
 10
290.1316936446264
 20
244.8771590987558
 30
0.0
 40
1.999999999999999
100
AcDbArc
 50
90.0
 51
180.0
  0
LINE
  5
2434
330
1F
100
AcDbEntity
  8
AM_VIS
100
AcDbLine
 10
310.370532060011
 20
322.2278860387983
 30
0.0
 11
311.0137576946879
 21
321.5895960634871
 31
0.0
  0
LINE
  5
2435
330
1F
100
AcDbEntity
  8
AM_VIS
100
AcDbLine
 10
307.0316936446265
 20
320.7975142762318
 30
0.0
 11
307.3816936446265
 21
321.6333691138852
 31
0.0
  0
LINE
  5
2436
330
1F
100
AcDbEntity
  8
AM_VIS
100
AcDbLine
 10
316.1379252843986
 20
325.2603190143383
 30
0.0
 11
316.9764512816596
 21
324.9167677640043
 31
0.0
  0
LINE
  5
2437
330
1F
100
AcDbEntity
  8
AM_VIS
100
AcDbLine
 10
313.6006203857195
 20
322.6611096741092
 30
0.0
 11
313.6041104238663
 21
323.5672780520956
 31
0.0
  0
LINE
  5
2438
330
1F
100
AcDbEntity
  8
AM_VIS
100
AcDbLine
 10
320.3058399808579
 20
330.2690076090598
 30
0.0
 11
321.212008358877
 21
330.2724976472668
 31
0.0
  0
LINE
  5
2439
330
1F
100
AcDbEntity
  8
AM_VIS
100
AcDbLine
 10
318.6127990186049
 20
327.7351927485343
 30
0.0
 11
318.956350268982
 21
326.8966667513268
 31
0.0
  0
LINE
  5
243A
330
1F
100
AcDbEntity
  8
AM_VIS
100
AcDbLine
 10
322.2397489190938
 20
336.4914243882915
 30
0.0
 11
323.0756037567544
 21
336.8414243883599
 31
0.0
  0
LINE
  5
243B
330
1F
100
AcDbEntity
  8
AM_VIS
100
AcDbLine
 10
321.6452319941685
 20
333.5025859729095
 30
0.0
 11
322.2835219694993
 21
332.8593603382983
 31
0.0
  0
LINE
  5
243C
330
1F
100
AcDbEntity
  8
AM_VIS
100
AcDbLine
 10
321.6452319941879
 20
342.9802628037444
 30
0.0
 11
322.2835219694993
 21
343.6234884384212
 31
0.0
  0
LINE
  5
243D
330
1F
100
AcDbEntity
  8
AM_VIS
100
AcDbLine
 10
322.239748919101
 20
339.9914243883598
 30
0.0
 11
323.0756037567544
 21
339.6414243883598
 31
0.0
  0
LINE
  5
243E
330
1F
100
AcDbEntity
  8
AM_VIS
100
AcDbLine
 10
318.6127990186479
 20
348.7476560281319
 30
0.0
 11
318.956350268982
 21
349.5861820253929
 31
0.0
  0
LINE
  5
243F
330
1F
100
AcDbEntity
  8
AM_VIS
100
AcDbLine
 10
320.3058399808907
 20
346.2138411675996
 30
0.0
 11
321.212008358877
 21
346.2103511294529
 31
0.0
  0
LINE
  5
2440
330
1F
100
AcDbEntity
  8
AM_VIS
100
AcDbLine
 10
313.6006203857195
 20
353.8217391026103
 30
0.0
 11
313.6041104239265
 21
352.9155707245913
 31
0.0
  0
LINE
  5
2441
330
1F
100
AcDbEntity
  8
AM_VIS
100
AcDbLine
 10
316.137925284452
 20
351.2225297623381
 30
0.0
 11
316.9764512816596
 21
351.5660810127152
 31
0.0
  0
LINE
  5
2442
330
1F
100
AcDbEntity
  8
AM_VIS
100
AcDbLine
 10
307.0316936446265
 20
355.6853345004878
 30
0.0
 11
307.3816936446947
 21
354.8494796628271
 31
0.0
  0
LINE
  5
2443
330
1F
100
AcDbEntity
  8
AM_VIS
100
AcDbLine
 10
310.3705320600767
 20
354.2549627379018
 30
0.0
 11
311.0137576946879
 21
354.8932527132326
 31
0.0
  0
LINE
  5
2444
330
1F
100
AcDbEntity
  8
AM_VIS
100
AcDbLine
 10
300.249629594565
 20
354.8932527132326
 30
0.0
 11
300.8928552292419
 21
354.2549627379212
 31
0.0
  0
LINE
  5
2445
330
1F
100
AcDbEntity
  8
AM_VIS
100
AcDbLine
 10
303.8816936446265
 20
354.8494796628343
 30
0.0
 11
304.2316936446265
 21
355.6853345004878
 31
0.0
  0
LINE
  5
2446
330
1F
100
AcDbEntity
  8
AM_VIS
100
AcDbLine
 10
294.2869360075933
 20
351.5660810127152
 30
0.0
 11
295.1254620048543
 21
351.2225297623813
 31
0.0
  0
LINE
  5
2447
330
1F
100
AcDbEntity
  8
AM_VIS
100
AcDbLine
 10
297.6592768653867
 20
352.915570724624
 30
0.0
 11
297.6627669035334
 21
353.8217391026103
 31
0.0
  0
LINE
  5
2448
330
1F
100
AcDbEntity
  8
AM_VIS
100
AcDbLine
 10
290.0513789303759
 20
346.2103511294529
 30
0.0
 11
290.957547308395
 21
346.2138411676599
 31
0.0
  0
LINE
  5
2449
330
1F
100
AcDbEntity
  8
AM_VIS
100
AcDbLine
 10
292.307037020271
 20
349.5861820253929
 30
0.0
 11
292.6505882706481
 21
348.7476560281852
 31
0.0
  0
LINE
  5
244A
330
1F
100
AcDbEntity
  8
AM_VIS
100
AcDbLine
 10
288.1877835324985
 20
339.6414243883598
 30
0.0
 11
289.0236383701591
 21
339.991424388428
 31
0.0
  0
LINE
  5
244B
330
1F
100
AcDbEntity
  8
AM_VIS
100
AcDbLine
 10
288.9798653197537
 20
343.6234884384212
 30
0.0
 11
289.6181552950844
 21
342.9802628038101
 31
0.0
  0
LINE
  5
244C
330
1F
100
AcDbEntity
  8
AM_VIS
100
AcDbLine
 10
288.9798653197537
 20
332.8593603382984
 30
0.0
 11
289.618155295065
 21
333.5025859729753
 31
0.0
  0
LINE
  5
244D
330
1F
100
AcDbEntity
  8
AM_VIS
100
AcDbLine
 10
288.1877835324985
 20
336.8414243883599
 30
0.0
 11
289.023638370152
 21
336.4914243883597
 31
0.0
  0
LINE
  5
244E
330
1F
100
AcDbEntity
  8
AM_VIS
100
AcDbLine
 10
292.307037020271
 20
326.8966667513268
 30
0.0
 11
292.6505882706049
 21
327.7351927485877
 31
0.0
  0
LINE
  5
244F
330
1F
100
AcDbEntity
  8
AM_VIS
100
AcDbLine
 10
290.0513789303759
 20
330.2724976472668
 30
0.0
 11
290.9575473083622
 21
330.2690076091201
 31
0.0
  0
LINE
  5
2450
330
1F
100
AcDbEntity
  8
AM_VIS
100
AcDbLine
 10
297.6592768653264
 20
323.5672780521284
 30
0.0
 11
297.6627669035334
 21
322.6611096741092
 31
0.0
  0
LINE
  5
2451
330
1F
100
AcDbEntity
  8
AM_VIS
100
AcDbLine
 10
294.2869360075933
 20
324.9167677640043
 30
0.0
 11
295.125462004801
 21
325.2603190143814
 31
0.0
  0
LINE
  5
2452
330
1F
100
AcDbEntity
  8
AM_VIS
100
AcDbLine
 10
303.8816936445583
 20
321.6333691138925
 30
0.0
 11
304.2316936446265
 21
320.7975142762318
 31
0.0
  0
LINE
  5
2453
330
1F
100
AcDbEntity
  8
AM_VIS
100
AcDbLine
 10
300.249629594565
 20
321.5895960634871
 30
0.0
 11
300.8928552291763
 21
322.2278860388178
 31
0.0
  0
ARC
  5
2454
330
1F
100
AcDbEntity
  8
AM_VIS
100
AcDbCircle
 10
305.6316936446265
 20
338.2414243883598
 30
0.0
 40
17.5
100
AcDbArc
 50
274.5885657357881
 51
287.9114342642102
  0
ARC
  5
2455
330
1F
100
AcDbEntity
  8
AM_VIS
100
AcDbCircle
 10
305.6316936446265
 20
338.2414243883598
 30
0.0
 40
17.5
100
AcDbArc
 50
242.9114342642131
 51
252.0885657357826
  0
ARC
  5
2456
330
1F
100
AcDbEntity
  8
AM_VIS
100
AcDbCircle
 10
305.6316936446265
 20
338.2414243883598
 30
0.0
 40
17.5
100
AcDbArc
 50
220.4114342642126
 51
229.5885657357828
  0
ARC
  5
2457
330
1F
100
AcDbEntity
  8
AM_VIS
100
AcDbCircle
 10
305.6316936446265
 20
338.2414243883598
 30
0.0
 40
17.5
100
AcDbArc
 50
197.9114342642133
 51
207.0885657357869
  0
ARC
  5
2458
330
1F
100
AcDbEntity
  8
AM_VIS
100
AcDbCircle
 10
305.6316936446265
 20
338.2414243883598
 30
0.0
 40
17.5
100
AcDbArc
 50
175.4114342642118
 51
184.5885657357849
  0
ARC
  5
2459
330
1F
100
AcDbEntity
  8
AM_VIS
100
AcDbCircle
 10
305.6316936446265
 20
338.2414243883598
 30
0.0
 40
17.5
100
AcDbArc
 50
152.9114342642131
 51
162.0885657357857
  0
ARC
  5
245A
330
1F
100
AcDbEntity
  8
AM_VIS
100
AcDbCircle
 10
305.6316936446265
 20
338.2414243883598
 30
0.0
 40
17.5
100
AcDbArc
 50
130.4114342642172
 51
139.5885657357873
  0
ARC
  5
245B
330
1F
100
AcDbEntity
  8
AM_VIS
100
AcDbCircle
 10
305.6316936446265
 20
338.2414243883598
 30
0.0
 40
17.5
100
AcDbArc
 50
107.9114342642102
 51
117.0885657357868
  0
ARC
  5
245C
330
1F
100
AcDbEntity
  8
AM_VIS
100
AcDbCircle
 10
305.6316936446265
 20
338.2414243883598
 30
0.0
 40
17.5
100
AcDbArc
 50
85.41143426421188
 51
94.58856573578813
  0
ARC
  5
245D
330
1F
100
AcDbEntity
  8
AM_VIS
100
AcDbCircle
 10
305.6316936446265
 20
338.2414243883598
 30
0.0
 40
17.5
100
AcDbArc
 50
62.91143426421312
 51
72.0885657357898
  0
ARC
  5
245E
330
1F
100
AcDbEntity
  8
AM_VIS
100
AcDbCircle
 10
305.6316936446265
 20
338.2414243883598
 30
0.0
 40
17.5
100
AcDbArc
 50
40.41143426421263
 51
49.58856573578279
  0
ARC
  5
245F
330
1F
100
AcDbEntity
  8
AM_VIS
100
AcDbCircle
 10
305.6316936446265
 20
338.2414243883598
 30
0.0
 40
17.5
100
AcDbArc
 50
17.91143426421431
 51
27.08856573578688
  0
ARC
  5
2460
330
1F
100
AcDbEntity
  8
AM_VIS
100
AcDbCircle
 10
305.6316936446265
 20
338.2414243883598
 30
0.0
 40
17.5
100
AcDbArc
 50
355.4114342642151
 51
4.588565735784882
  0
ARC
  5
2461
330
1F
100
AcDbEntity
  8
AM_VIS
100
AcDbCircle
 10
305.6316936446265
 20
338.2414243883598
 30
0.0
 40
17.5
100
AcDbArc
 50
332.9114342642132
 51
342.0885657357857
  0
ARC
  5
2462
330
1F
100
AcDbEntity
  8
AM_VIS
100
AcDbCircle
 10
305.6316936446265
 20
338.2414243883598
 30
0.0
 40
17.5
100
AcDbArc
 50
310.4114342642172
 51
319.5885657357873
  0
ARC
  5
2463
330
1F
100
AcDbEntity
  8
AM_VIS
100
AcDbCircle
 10
305.6316936446265
 20
338.2414243883598
 30
0.0
 40
17.5
100
AcDbArc
 50
287.9114342642102
 51
297.0885657357868
  0
ARC
  5
2464
330
1F
100
AcDbEntity
  8
AM_VIS
100
AcDbCircle
 10
305.6316936446265
 20
338.2414243883598
 30
0.0
 40
16.7
100
AcDbArc
 50
276.0150918498126
 51
286.4849081499502
  0
ARC
  5
2465
330
1F
100
AcDbEntity
  8
AM_VIS
100
AcDbCircle
 10
305.6316936446265
 20
338.2414243883598
 30
0.0
 40
17.5
100
AcDbArc
 50
265.4114342642118
 51
274.5885657357881
  0
ARC
  5
2466
330
1F
100
AcDbEntity
  8
AM_VIS
100
AcDbCircle
 10
305.6316936446265
 20
338.2414243883598
 30
0.0
 40
17.5
100
AcDbArc
 50
297.0885657357868
 51
310.4114342642172
  0
ARC
  5
2467
330
1F
100
AcDbEntity
  8
AM_VIS
100
AcDbCircle
 10
305.6316936446265
 20
338.2414243883598
 30
0.0
 40
16.7
100
AcDbArc
 50
298.515091849812
 51
308.9849081499516
  0
ARC
  5
2468
330
1F
100
AcDbEntity
  8
AM_VIS
100
AcDbCircle
 10
305.6316936446265
 20
338.2414243883598
 30
0.0
 40
17.5
100
AcDbArc
 50
319.5885657357873
 51
332.9114342642132
  0
ARC
  5
2469
330
1F
100
AcDbEntity
  8
AM_VIS
100
AcDbCircle
 10
305.6316936446265
 20
338.2414243883598
 30
0.0
 40
16.7
100
AcDbArc
 50
321.015091849817
 51
331.484908149952
  0
ARC
  5
246A
330
1F
100
AcDbEntity
  8
AM_VIS
100
AcDbCircle
 10
305.6316936446265
 20
338.2414243883598
 30
0.0
 40
17.5
100
AcDbArc
 50
342.0885657357857
 51
355.4114342642151
  0
ARC
  5
246B
330
1F
100
AcDbEntity
  8
AM_VIS
100
AcDbCircle
 10
305.6316936446265
 20
338.2414243883598
 30
0.0
 40
16.7
100
AcDbArc
 50
343.5150918498158
 51
353.9849081499514
  0
ARC
  5
246C
330
1F
100
AcDbEntity
  8
AM_VIS
100
AcDbCircle
 10
305.6316936446265
 20
338.2414243883598
 30
0.0
 40
17.5
100
AcDbArc
 50
4.588565735784882
 51
17.91143426421431
  0
ARC
  5
246D
330
1F
100
AcDbEntity
  8
AM_VIS
100
AcDbCircle
 10
305.6316936446265
 20
338.2414243883598
 30
0.0
 40
16.7
100
AcDbArc
 50
6.015091849812608
 51
16.48490814995021
  0
ARC
  5
246E
330
1F
100
AcDbEntity
  8
AM_VIS
100
AcDbCircle
 10
305.6316936446265
 20
338.2414243883598
 30
0.0
 40
17.5
100
AcDbArc
 50
27.08856573578688
 51
40.41143426421263
  0
ARC
  5
246F
330
1F
100
AcDbEntity
  8
AM_VIS
100
AcDbCircle
 10
305.6316936446265
 20
338.2414243883598
 30
0.0
 40
16.7
100
AcDbArc
 50
28.51509184981488
 51
38.98490814994705
  0
ARC
  5
2470
330
1F
100
AcDbEntity
  8
AM_VIS
100
AcDbCircle
 10
305.6316936446265
 20
338.2414243883598
 30
0.0
 40
17.5
100
AcDbArc
 50
49.58856573578279
 51
62.91143426421312
  0
ARC
  5
2471
330
1F
100
AcDbEntity
  8
AM_VIS
100
AcDbCircle
 10
305.6316936446265
 20
338.2414243883598
 30
0.0
 40
16.7
100
AcDbArc
 50
51.01509184981441
 51
61.48490814995197
  0
ARC
  5
2472
330
1F
100
AcDbEntity
  8
AM_VIS
100
AcDbCircle
 10
305.6316936446265
 20
338.2414243883598
 30
0.0
 40
17.5
100
AcDbArc
 50
72.0885657357898
 51
85.41143426421188
  0
ARC
  5
2473
330
1F
100
AcDbEntity
  8
AM_VIS
100
AcDbCircle
 10
305.6316936446265
 20
338.2414243883598
 30
0.0
 40
16.7
100
AcDbArc
 50
73.51509184981178
 51
83.98490814995147
  0
ARC
  5
2474
330
1F
100
AcDbEntity
  8
AM_VIS
100
AcDbCircle
 10
305.6316936446265
 20
338.2414243883598
 30
0.0
 40
17.5
100
AcDbArc
 50
94.58856573578813
 51
107.9114342642102
  0
ARC
  5
2475
330
1F
100
AcDbEntity
  8
AM_VIS
100
AcDbCircle
 10
305.6316936446265
 20
338.2414243883598
 30
0.0
 40
16.7
100
AcDbArc
 50
96.0150918498126
 51
106.4849081499502
  0
ARC
  5
2476
330
1F
100
AcDbEntity
  8
AM_VIS
100
AcDbCircle
 10
305.6316936446265
 20
338.2414243883598
 30
0.0
 40
17.5
100
AcDbArc
 50
117.0885657357868
 51
130.4114342642172
  0
ARC
  5
2477
330
1F
100
AcDbEntity
  8
AM_VIS
100
AcDbCircle
 10
305.6316936446265
 20
338.2414243883598
 30
0.0
 40
16.7
100
AcDbArc
 50
118.515091849812
 51
128.9849081499516
  0
ARC
  5
2478
330
1F
100
AcDbEntity
  8
AM_VIS
100
AcDbCircle
 10
305.6316936446265
 20
338.2414243883598
 30
0.0
 40
17.5
100
AcDbArc
 50
139.5885657357873
 51
152.9114342642131
  0
ARC
  5
2479
330
1F
100
AcDbEntity
  8
AM_VIS
100
AcDbCircle
 10
305.6316936446265
 20
338.2414243883598
 30
0.0
 40
16.7
100
AcDbArc
 50
141.0150918498169
 51
151.4849081499519
  0
ARC
  5
247A
330
1F
100
AcDbEntity
  8
AM_VIS
100
AcDbCircle
 10
305.6316936446265
 20
338.2414243883598
 30
0.0
 40
17.5
100
AcDbArc
 50
162.0885657357857
 51
175.4114342642151
  0
ARC
  5
247B
330
1F
100
AcDbEntity
  8
AM_VIS
100
AcDbCircle
 10
305.6316936446265
 20
338.2414243883598
 30
0.0
 40
16.7
100
AcDbArc
 50
163.5150918498158
 51
173.9849081499514
  0
ARC
  5
247C
330
1F
100
AcDbEntity
  8
AM_VIS
100
AcDbCircle
 10
305.6316936446265
 20
338.2414243883598
 30
0.0
 40
17.5
100
AcDbArc
 50
184.5885657357849
 51
197.9114342642133
  0
ARC
  5
247D
330
1F
100
AcDbEntity
  8
AM_VIS
100
AcDbCircle
 10
305.6316936446265
 20
338.2414243883598
 30
0.0
 40
16.7
100
AcDbArc
 50
186.0150918498126
 51
196.4849081499501
  0
ARC
  5
247E
330
1F
100
AcDbEntity
  8
AM_VIS
100
AcDbCircle
 10
305.6316936446265
 20
338.2414243883598
 30
0.0
 40
17.5
100
AcDbArc
 50
207.0885657357869
 51
220.4114342642126
  0
ARC
  5
247F
330
1F
100
AcDbEntity
  8
AM_VIS
100
AcDbCircle
 10
305.6316936446265
 20
338.2414243883598
 30
0.0
 40
16.7
100
AcDbArc
 50
208.5150918498149
 51
218.984908149947
  0
ARC
  5
2480
330
1F
100
AcDbEntity
  8
AM_VIS
100
AcDbCircle
 10
305.6316936446265
 20
338.2414243883598
 30
0.0
 40
17.5
100
AcDbArc
 50
229.5885657357828
 51
242.9114342642131
  0
ARC
  5
2481
330
1F
100
AcDbEntity
  8
AM_VIS
100
AcDbCircle
 10
305.6316936446265
 20
338.2414243883598
 30
0.0
 40
16.7
100
AcDbArc
 50
231.0150918498144
 51
241.484908149952
  0
ARC
  5
2482
330
1F
100
AcDbEntity
  8
AM_VIS
100
AcDbCircle
 10
305.6316936446265
 20
338.2414243883598
 30
0.0
 40
17.5
100
AcDbArc
 50
252.0885657357826
 51
265.4114342642118
  0
ARC
  5
2483
330
1F
100
AcDbEntity
  8
AM_VIS
100
AcDbCircle
 10
305.6316936446265
 20
338.2414243883598
 30
0.0
 40
16.7
100
AcDbArc
 50
253.5150918498118
 51
263.9849081499514
  0
ARC
  5
2484
330
1F
100
AcDbEntity
  8
AM_VIS
100
AcDbCircle
 10
305.6316936446265
 20
338.2414243883598
 30
0.0
 40
14.5
100
AcDbArc
 50
164.9098148205612
 51
195.0901851794388
  0
ARC
  5
2485
330
1F
100
AcDbEntity
  8
AM_VIS
100
AcDbCircle
 10
305.6316936446265
 20
338.2414243883598
 30
0.0
 40
14.5
100
AcDbArc
 50
344.9098148205612
 51
15.09018517943879
  0
LINE
  5
2486
330
1F
100
AcDbEntity
  8
AM_VIS
100
AcDbLine
 10
315.6632190430658
 20
328.9170057711069
 30
0.0
 11
315.924757132509
 21
328.6554676816641
 31
0.0
  0
LINE
  5
2487
330
1F
100
AcDbEntity
  8
AM_VIS
100
AcDbLine
 10
314.9561122618793
 20
348.2729497867993
 30
0.0
 11
315.2176503513223
 21
348.5344878762425
 31
0.0
  0
LINE
  5
2488
330
1F
100
AcDbEntity
  8
AM_VIS
100
AcDbLine
 10
295.3386301567439
 20
347.8273810950557
 30
0.0
 11
295.6001682461871
 21
347.5658430056126
 31
0.0
  0
LINE
  5
2489
330
1F
100
AcDbEntity
  8
AM_VIS
100
AcDbLine
 10
296.0457369379305
 20
327.9483609004773
 30
0.0
 11
296.3072750273735
 21
328.2098989899205
 31
0.0
  0
LINE
  5
248A
330
1F
100
AcDbEntity
  8
AM_VIS
100
AcDbLine
 10
296.0457369379304
 20
348.5344878762423
 30
0.0
 11
296.3072750273735
 21
348.2729497867993
 31
0.0
  0
LINE
  5
248B
330
1F
100
AcDbEntity
  8
AM_VIS
100
AcDbLine
 10
297.5640657696116
 20
349.7631910571995
 30
0.0
 11
297.8244740284979
 21
349.3912895213316
 31
0.0
  0
LINE
  5
248C
330
1F
100
AcDbEntity
  8
AM_VIS
100
AcDbLine
 10
296.0275950620905
 20
348.5526297520824
 30
0.0
 11
296.0457369379305
 21
348.5344878762423
 31
0.0
  0
LINE
  5
248D
330
1F
100
AcDbEntity
  8
AM_VIS
100
AcDbLine
 10
315.2176503513224
 20
348.5344878762423
 30
0.0
 11
315.2357922271624
 21
348.5526297520824
 31
0.0
  0
LINE
  5
248E
330
1F
100
AcDbEntity
  8
AM_VIS
100
AcDbLine
 10
308.0741386088995
 20
352.0932181096581
 30
0.0
 11
307.9953009566892
 21
351.6461075659768
 31
0.0
  0
LINE
  5
248F
330
1F
100
AcDbEntity
  8
AM_VIS
100
AcDbLine
 10
315.2357922642227
 20
348.5526297891427
 30
0.0
 11
315.2358461460589
 21
348.5526836709787
 31
0.0
  0
LINE
  5
2490
330
1F
100
AcDbEntity
  8
AM_VIS
100
AcDbLine
 10
296.0275411431941
 20
348.5526836709787
 30
0.0
 11
296.0275950250301
 21
348.5526297891427
 31
0.0
  0
LINE
  5
2491
330
1F
100
AcDbEntity
  8
AM_VIS
100
AcDbLine
 10
315.6632190430658
 20
347.5658430056126
 30
0.0
 11
315.924757132509
 21
347.8273810950557
 31
0.0
  0
LINE
  5
2492
330
1F
100
AcDbEntity
  8
AM_VIS
100
AcDbLine
 10
315.9428990454093
 20
328.6373257687635
 30
0.0
 11
315.9429529272454
 21
328.6372718869275
 31
0.0
  0
LINE
  5
2493
330
1F
100
AcDbEntity
  8
AM_VIS
100
AcDbLine
 10
315.9428990454093
 20
347.8455230079561
 30
0.0
 11
315.9429529272453
 21
347.8455768897922
 31
0.0
  0
LINE
  5
2494
330
1F
100
AcDbEntity
  8
AM_VIS
100
AcDbLine
 10
295.338630156744
 20
328.6554676816638
 30
0.0
 11
295.6001682461871
 21
328.9170057711069
 31
0.0
  0
LINE
  5
2495
330
1F
100
AcDbEntity
  8
AM_VIS
100
AcDbLine
 10
291.7798999233281
 20
340.6838693526328
 30
0.0
 11
292.2270104670094
 21
340.6050317004226
 31
0.0
  0
LINE
  5
2496
330
1F
100
AcDbEntity
  8
AM_VIS
100
AcDbLine
 10
294.1099269757868
 20
330.173796513345
 30
0.0
 11
294.4818285116545
 21
330.4342047722313
 31
0.0
  0
LINE
  5
2497
330
1F
100
AcDbEntity
  8
AM_VIS
100
AcDbLine
 10
295.320488280904
 20
328.6373258058238
 30
0.0
 11
295.338630156744
 21
328.6554676816638
 31
0.0
  0
LINE
  5
2498
330
1F
100
AcDbEntity
  8
AM_VIS
100
AcDbLine
 10
295.338630156744
 20
347.8273810950557
 30
0.0
 11
295.320488280904
 21
347.8455229708957
 31
0.0
  0
LINE
  5
2499
330
1F
100
AcDbEntity
  8
AM_VIS
100
AcDbLine
 10
295.3204343620075
 20
347.8455768897922
 30
0.0
 11
295.3204882438437
 21
347.8455230079561
 31
0.0
  0
LINE
  5
249A
330
1F
100
AcDbEntity
  8
AM_VIS
100
AcDbLine
 10
295.3204343620075
 20
328.6372718869275
 30
0.0
 11
295.3204882438437
 21
328.6373257687635
 31
0.0
  0
LINE
  5
249B
330
1F
100
AcDbEntity
  8
AM_VIS
100
AcDbLine
 10
314.9561122618793
 20
328.2098989899205
 30
0.0
 11
315.2176503513224
 21
327.9483609004774
 31
0.0
  0
LINE
  5
249C
330
1F
100
AcDbEntity
  8
AM_VIS
100
AcDbLine
 10
303.1892486803534
 20
324.3896306670615
 30
0.0
 11
303.2680863325637
 21
324.8367412107429
 31
0.0
  0
LINE
  5
249D
330
1F
100
AcDbEntity
  8
AM_VIS
100
AcDbLine
 10
315.2357922271624
 20
327.9302190246374
 30
0.0
 11
315.2176503513224
 21
327.9483609004774
 31
0.0
  0
LINE
  5
249E
330
1F
100
AcDbEntity
  8
AM_VIS
100
AcDbLine
 10
296.0457369379305
 20
327.9483609004774
 30
0.0
 11
296.0275950620905
 21
327.9302190246374
 31
0.0
  0
LINE
  5
249F
330
1F
100
AcDbEntity
  8
AM_VIS
100
AcDbLine
 10
297.8244740284979
 20
327.0915592553879
 30
0.0
 11
297.5640657696116
 21
326.7196577195202
 31
0.0
  0
LINE
  5
24A0
330
1F
100
AcDbEntity
  8
AM_VIS
100
AcDbLine
 10
296.0275411431941
 20
327.9301651057409
 30
0.0
 11
296.0275950250301
 21
327.9302189875771
 31
0.0
  0
LINE
  5
24A1
330
1F
100
AcDbEntity
  8
AM_VIS
100
AcDbLine
 10
315.2357922642227
 20
327.9302189875771
 30
0.0
 11
315.2358461460589
 21
327.9301651057409
 31
0.0
  0
LINE
  5
24A2
330
1F
100
AcDbEntity
  8
AM_VIS
100
AcDbLine
 10
307.9953009566892
 20
324.8367412107429
 30
0.0
 11
308.0741386088995
 21
324.3896306670615
 31
0.0
  0
LINE
  5
24A3
330
1F
100
AcDbEntity
  8
AM_VIS
100
AcDbLine
 10
313.6993215196413
 20
326.7196577195202
 30
0.0
 11
313.4389132607549
 21
327.0915592553879
 31
0.0
  0
LINE
  5
24A4
330
1F
100
AcDbEntity
  8
AM_VIS
100
AcDbLine
 10
315.9428990083489
 20
347.8455229708957
 30
0.0
 11
315.924757132509
 21
347.8273810950557
 31
0.0
  0
LINE
  5
24A5
330
1F
100
AcDbEntity
  8
AM_VIS
100
AcDbLine
 10
315.924757132509
 20
328.6554676816638
 30
0.0
 11
315.9428990083489
 21
328.6373258058238
 31
0.0
  0
LINE
  5
24A6
330
1F
100
AcDbEntity
  8
AM_VIS
100
AcDbLine
 10
316.7815587775983
 20
330.4342047722313
 30
0.0
 11
317.1534603134661
 21
330.173796513345
 31
0.0
  0
LINE
  5
24A7
330
1F
100
AcDbEntity
  8
AM_VIS
100
AcDbLine
 10
319.4834873659247
 20
335.7989794240868
 30
0.0
 11
319.0363768222434
 21
335.8778170762971
 31
0.0
  0
LINE
  5
24A8
330
1F
100
AcDbEntity
  8
AM_VIS
100
AcDbLine
 10
292.2270104670094
 20
335.8778170762971
 30
0.0
 11
291.7798999233281
 21
335.7989794240868
 31
0.0
  0
LINE
  5
24A9
330
1F
100
AcDbEntity
  8
AM_VIS
100
AcDbLine
 10
319.0363768222434
 20
340.6050317004226
 30
0.0
 11
319.4834873659247
 21
340.6838693526328
 31
0.0
  0
LINE
  5
24AA
330
1F
100
AcDbEntity
  8
AM_VIS
100
AcDbLine
 10
317.1534603134661
 20
346.3090522633747
 30
0.0
 11
316.7815587775983
 21
346.0486440044883
 31
0.0
  0
LINE
  5
24AB
330
1F
100
AcDbEntity
  8
AM_VIS
100
AcDbLine
 10
294.4818285116545
 20
346.0486440044883
 30
0.0
 11
294.1099269757868
 21
346.3090522633747
 31
0.0
  0
LINE
  5
24AC
330
1F
100
AcDbEntity
  8
AM_VIS
100
AcDbLine
 10
313.4389132607549
 20
349.3912895213316
 30
0.0
 11
313.6993215196413
 21
349.7631910571995
 31
0.0
  0
LINE
  5
24AD
330
1F
100
AcDbEntity
  8
AM_VIS
100
AcDbLine
 10
303.2680863325637
 20
351.6461075659768
 30
0.0
 11
303.1892486803534
 21
352.0932181096581
 31
0.0
  0
LINE
  5
24AE
330
1F
100
AcDbEntity
  8
AM_VIS
100
AcDbLine
 10
298.0554787777785
 20
349.0613805490986
 30
0.0
 11
297.8244740284979
 21
349.3912895213317
 31
0.0
  0
LINE
  5
24AF
330
1F
100
AcDbEntity
  8
AM_VIS
100
AcDbLine
 10
303.2680863325637
 20
351.6461075659768
 30
0.0
 11
303.3380221793013
 21
351.249481669834
 31
0.0
  0
LINE
  5
24B0
330
1F
100
AcDbEntity
  8
AM_VIS
100
AcDbLine
 10
292.6236363632299
 20
340.5350958536712
 30
0.0
 11
292.2270104670094
 21
340.6050317004226
 31
0.0
  0
LINE
  5
24B1
330
1F
100
AcDbEntity
  8
AM_VIS
100
AcDbLine
 10
294.4818285116545
 20
346.0486440044883
 30
0.0
 11
294.8117374838876
 21
345.8176392552077
 31
0.0
  0
LINE
  5
24B2
330
1F
100
AcDbEntity
  8
AM_VIS
100
AcDbLine
 10
313.4389132607549
 20
349.3912895213317
 30
0.0
 11
313.2079085114745
 21
349.0613805490986
 31
0.0
  0
LINE
  5
24B3
330
1F
100
AcDbEntity
  8
AM_VIS
100
AcDbLine
 10
307.9253651099378
 20
351.2494816697563
 30
0.0
 11
307.9953009566892
 21
351.6461075659768
 31
0.0
  0
LINE
  5
24B4
330
1F
100
AcDbEntity
  8
AM_VIS
100
AcDbLine
 10
294.8117374838876
 20
330.6652095215118
 30
0.0
 11
294.4818285116545
 21
330.4342047722313
 31
0.0
  0
LINE
  5
24B5
330
1F
100
AcDbEntity
  8
AM_VIS
100
AcDbLine
 10
292.2270104670094
 20
335.8778170762971
 30
0.0
 11
292.6236363631523
 21
335.9477529230347
 31
0.0
  0
LINE
  5
24B6
330
1F
100
AcDbEntity
  8
AM_VIS
100
AcDbLine
 10
319.0363768222434
 20
340.6050317004226
 30
0.0
 11
318.6397509261007
 21
340.5350958536849
 31
0.0
  0
LINE
  5
24B7
330
1F
100
AcDbEntity
  8
AM_VIS
100
AcDbLine
 10
316.4516498053654
 20
345.8176392552077
 30
0.0
 11
316.7815587775983
 21
346.0486440044883
 31
0.0
  0
LINE
  5
24B8
330
1F
100
AcDbEntity
  8
AM_VIS
100
AcDbLine
 10
303.3380221793151
 20
325.2333671069633
 30
0.0
 11
303.2680863325637
 21
324.8367412107429
 31
0.0
  0
LINE
  5
24B9
330
1F
100
AcDbEntity
  8
AM_VIS
100
AcDbLine
 10
297.8244740284979
 20
327.0915592553879
 30
0.0
 11
298.0554787777785
 21
327.4214682276209
 31
0.0
  0
LINE
  5
24BA
330
1F
100
AcDbEntity
  8
AM_VIS
100
AcDbLine
 10
316.7815587775983
 20
330.4342047722313
 30
0.0
 11
316.4516498053654
 21
330.6652095215118
 31
0.0
  0
LINE
  5
24BB
330
1F
100
AcDbEntity
  8
AM_VIS
100
AcDbLine
 10
318.6397509260229
 20
335.9477529230485
 30
0.0
 11
319.0363768222434
 21
335.8778170762971
 31
0.0
  0
LINE
  5
24BC
330
1F
100
AcDbEntity
  8
AM_VIS
100
AcDbLine
 10
307.9953009566892
 20
324.8367412107429
 30
0.0
 11
307.9253651099515
 21
325.2333671068857
 31
0.0
  0
LINE
  5
24BD
330
1F
100
AcDbEntity
  8
AM_VIS
100
AcDbLine
 10
313.2079085114745
 20
327.4214682276209
 30
0.0
 11
313.4389132607549
 21
327.0915592553879
 31
0.0
  0
LINE
  5
24BE
330
1F
100
AcDbEntity
  8
AM_VIS
100
AcDbLine
 10
301.801262817238
 20
345.4749202895484
 30
0.0
 11
298.7268738028429
 21
345.4749202895484
 31
0.0
  0
LINE
  5
24BF
330
1F
100
AcDbEntity
  8
AM_VIS
100
AcDbLine
 10
301.4199028812105
 20
346.1950913769383
 30
0.0
 11
301.801262817238
 21
345.4749202895484
 31
0.0
  0
LINE
  5
24C0
330
1F
100
AcDbEntity
  8
AM_VIS
100
AcDbLine
 10
309.9493210018487
 20
344.976266183396
 30
0.0
 11
310.4890244215015
 21
345.8181214077755
 31
0.0
  0
LINE
  5
24C1
330
1F
100
AcDbEntity
  8
AM_VIS
100
AcDbLine
 10
313.0237100133742
 20
344.976266183396
 30
0.0
 11
309.9493210018487
 21
344.976266183396
 31
0.0
  0
LINE
  5
24C2
330
1F
100
AcDbEntity
  8
AM_VIS
100
AcDbLine
 10
314.341512355359
 20
343.1545759254259
 30
0.0
 11
313.5620466669967
 21
342.7045512004259
 31
0.0
  0
LINE
  5
24C3
330
1F
100
AcDbEntity
  8
AM_VIS
100
AcDbLine
 10
313.462046577755
 20
342.877756229659
 30
0.0
 11
314.2415122741498
 21
343.3277809592967
 31
0.0
  0
LINE
  5
24C4
330
1F
100
AcDbEntity
  8
AM_VIS
100
AcDbLine
 10
312.7905109550153
 20
343.5292722224485
 30
0.0
 11
312.9647953459124
 21
343.6298953624487
 31
0.0
  0
LINE
  5
24C5
330
1F
100
AcDbEntity
  8
AM_VIS
100
AcDbLine
 10
312.5093531409681
 20
342.3277184174749
 30
0.0
 11
313.288830802013
 21
342.7777500549064
 31
0.0
  0
LINE
  5
24C6
330
1F
100
AcDbEntity
  8
AM_VIS
100
AcDbLine
 10
313.3888308932605
 20
342.6045450268314
 30
0.0
 11
312.6093532424824
 21
342.1545133953273
 31
0.0
  0
LINE
  5
24C7
330
1F
100
AcDbEntity
  8
AM_VIS
100
AcDbLine
 10
313.964797246385
 20
341.8978412631645
 30
0.0
 11
313.790512855488
 21
341.7972181231646
 31
0.0
  0
LINE
  5
24C8
330
1F
100
AcDbEntity
  8
AM_VIS
100
AcDbLine
 10
298.2985919433401
 20
343.629895362448
 30
0.0
 11
298.4728763342372
 21
343.5292722224481
 31
0.0
  0
LINE
  5
24C9
330
1F
100
AcDbEntity
  8
AM_VIS
100
AcDbLine
 10
297.4728744337649
 20
341.7972181231646
 30
0.0
 11
297.2985900428678
 21
341.8978412631645
 31
0.0
  0
LINE
  5
24CA
330
1F
100
AcDbEntity
  8
AM_VIS
100
AcDbLine
 10
314.9561122618793
 20
348.2729497867993
 30
0.0
 11
314.8955042488499
 21
348.2123417737698
 31
0.0
  0
LINE
  5
24CB
330
1F
100
AcDbEntity
  8
AM_VIS
100
AcDbLine
 10
314.8946552488998
 20
348.2114868634885
 30
0.0
 11
315.2494331153231
 21
347.859164209434
 31
0.0
  0
LINE
  5
24CC
330
1F
100
AcDbEntity
  8
AM_VIS
100
AcDbLine
 10
315.2494334657006
 20
347.8591638590565
 30
0.0
 11
315.601756119755
 21
347.5043859926333
 31
0.0
  0
LINE
  5
24CD
330
1F
100
AcDbEntity
  8
AM_VIS
100
AcDbLine
 10
315.6026110300364
 20
347.5052349925832
 30
0.0
 11
315.6632190430658
 21
347.5658430056126
 31
0.0
  0
LINE
  5
24CE
330
1F
100
AcDbEntity
  8
AM_VIS
100
AcDbLine
 10
315.6632190430658
 20
328.9170057711069
 30
0.0
 11
315.6026110300364
 21
328.9776137841363
 31
0.0
  0
LINE
  5
24CF
330
1F
100
AcDbEntity
  8
AM_VIS
100
AcDbLine
 10
315.2494334657006
 20
328.6236849176632
 30
0.0
 11
315.6017561197551
 21
328.9784627840863
 31
0.0
  0
LINE
  5
24D0
330
1F
100
AcDbEntity
  8
AM_VIS
100
AcDbLine
 10
314.8946552488999
 20
328.2713619132312
 30
0.0
 11
315.2494331153231
 21
328.6236845672856
 31
0.0
  0
LINE
  5
24D1
330
1F
100
AcDbEntity
  8
AM_VIS
100
AcDbLine
 10
314.8955042488499
 20
328.2705070029499
 30
0.0
 11
314.9561122618793
 21
328.2098989899205
 31
0.0
  0
LINE
  5
24D2
330
1F
100
AcDbEntity
  8
AM_VIS
100
AcDbLine
 10
296.3072750273735
 20
328.2098989899205
 30
0.0
 11
296.3678830404031
 21
328.2705070029499
 31
0.0
  0
LINE
  5
24D3
330
1F
100
AcDbEntity
  8
AM_VIS
100
AcDbLine
 10
296.0139541739297
 20
328.6236845672856
 30
0.0
 11
296.3687320403531
 21
328.2713619132312
 31
0.0
  0
LINE
  5
24D4
330
1F
100
AcDbEntity
  8
AM_VIS
100
AcDbLine
 10
295.6616311694978
 20
328.9784627840865
 30
0.0
 11
296.0139538235523
 21
328.6236849176632
 31
0.0
  0
LINE
  5
24D5
330
1F
100
AcDbEntity
  8
AM_VIS
100
AcDbLine
 10
295.6607762592165
 20
328.9776137841363
 30
0.0
 11
295.6001682461871
 21
328.9170057711069
 31
0.0
  0
LINE
  5
24D6
330
1F
100
AcDbEntity
  8
AM_VIS
100
AcDbLine
 10
295.6001682461871
 20
347.5658430056126
 30
0.0
 11
295.6607762592165
 21
347.5052349925832
 31
0.0
  0
LINE
  5
24D7
330
1F
100
AcDbEntity
  8
AM_VIS
100
AcDbLine
 10
295.6616311694978
 20
347.5043859926332
 30
0.0
 11
296.0139538235523
 21
347.8591638590565
 31
0.0
  0
LINE
  5
24D8
330
1F
100
AcDbEntity
  8
AM_VIS
100
AcDbLine
 10
296.0139541739297
 20
347.8591642094339
 30
0.0
 11
296.3687320403531
 21
348.2114868634885
 31
0.0
  0
LINE
  5
24D9
330
1F
100
AcDbEntity
  8
AM_VIS
100
AcDbLine
 10
296.3678830404031
 20
348.2123417737698
 30
0.0
 11
296.3072750273735
 21
348.2729497867993
 31
0.0
  0
CIRCLE
  5
24DA
330
1F
100
AcDbEntity
  8
AM_VIS
100
AcDbCircle
 10
305.6316936446265
 20
338.2414243883598
 30
0.0
 40
7.5
  0
ARC
  5
24DB
330
1F
100
AcDbEntity
  8
AM_VIS
100
AcDbCircle
 10
305.6316936446265
 20
338.2414243883598
 30
0.0
 40
14.06547996695816
100
AcDbArc
 50
124.9999999999974
 51
132.9628191044404
  0
ARC
  5
24DC
330
1F
100
AcDbEntity
  8
AM_VIS
100
AcDbCircle
 10
305.6316936446265
 20
338.2414243883598
 30
0.0
 40
14.06547996695816
100
AcDbArc
 50
47.03718089555956
 51
55.00000000000263
  0
ARC
  5
24DD
330
1F
100
AcDbEntity
  8
AM_VIS
100
AcDbCircle
 10
305.6316936446265
 20
338.2414243883598
 30
0.0
 40
14.06547996695816
100
AcDbArc
 50
80.0000000000014
 51
99.99999999999861
  0
ARC
  5
24DE
330
1F
100
AcDbEntity
  8
AM_VIS
100
AcDbCircle
 10
305.6316936446265
 20
338.2414243883598
 30
0.0
 40
14.06547996695816
100
AcDbArc
 50
169.9999999999981
 51
190.0000000000018
  0
ARC
  5
24DF
330
1F
100
AcDbEntity
  8
AM_VIS
100
AcDbCircle
 10
305.6316936446265
 20
338.2414243883598
 30
0.0
 40
14.06547996695816
100
AcDbArc
 50
214.9999999999974
 51
222.9628191044404
  0
ARC
  5
24E0
330
1F
100
AcDbEntity
  8
AM_VIS
100
AcDbCircle
 10
305.6316936446265
 20
338.2414243883598
 30
0.0
 40
14.06547996695816
100
AcDbArc
 50
137.0371808955596
 51
145.0000000000026
  0
ARC
  5
24E1
330
1F
100
AcDbEntity
  8
AM_VIS
100
AcDbCircle
 10
305.6316936446265
 20
338.2414243883598
 30
0.0
 40
14.06547996695816
100
AcDbArc
 50
260.0000000000014
 51
279.9999999999986
  0
ARC
  5
24E2
330
1F
100
AcDbEntity
  8
AM_VIS
100
AcDbCircle
 10
305.6316936446265
 20
338.2414243883598
 30
0.0
 40
14.06547996695816
100
AcDbArc
 50
304.9999999999974
 51
312.9628191044404
  0
ARC
  5
24E3
330
1F
100
AcDbEntity
  8
AM_VIS
100
AcDbCircle
 10
305.6316936446265
 20
338.2414243883598
 30
0.0
 40
14.06547996695816
100
AcDbArc
 50
227.0371808955596
 51
235.0000000000026
  0
ARC
  5
24E4
330
1F
100
AcDbEntity
  8
AM_VIS
100
AcDbCircle
 10
305.6316936446265
 20
338.2414243883598
 30
0.0
 40
14.06547996695816
100
AcDbArc
 50
34.99999999999737
 51
42.96281910444043
  0
ARC
  5
24E5
330
1F
100
AcDbEntity
  8
AM_VIS
100
AcDbCircle
 10
305.6316936446265
 20
338.2414243883598
 30
0.0
 40
14.06547996695816
100
AcDbArc
 50
317.0371808955596
 51
325.0000000000026
  0
ARC
  5
24E6
330
1F
100
AcDbEntity
  8
AM_VIS
100
AcDbCircle
 10
305.6316936446265
 20
338.2414243883598
 30
0.0
 40
14.06547996695816
100
AcDbArc
 50
349.9999999999982
 51
10.00000000000181
  0
ARC
  5
24E7
330
1F
100
AcDbEntity
  8
AM_VIS
100
AcDbCircle
 10
305.6316936446265
 20
338.2414243883598
 30
0.0
 40
13.61147202244945
100
AcDbArc
 50
99.99999999999861
 51
124.9999999999974
  0
ARC
  5
24E8
330
1F
100
AcDbEntity
  8
AM_VIS
100
AcDbCircle
 10
305.6316936446265
 20
338.2414243883598
 30
0.0
 40
13.61147202244945
100
AcDbArc
 50
145.0000000000026
 51
169.9999999999981
  0
ARC
  5
24E9
330
1F
100
AcDbEntity
  8
AM_VIS
100
AcDbCircle
 10
305.6316936446265
 20
338.2414243883598
 30
0.0
 40
13.61147202244945
100
AcDbArc
 50
55.00000000000263
 51
80.0000000000014
  0
ARC
  5
24EA
330
1F
100
AcDbEntity
  8
AM_VIS
100
AcDbCircle
 10
305.6316936446265
 20
338.2414243883598
 30
0.0
 40
13.61147202244945
100
AcDbArc
 50
190.0000000000018
 51
214.9999999999974
  0
ARC
  5
24EB
330
1F
100
AcDbEntity
  8
AM_VIS
100
AcDbCircle
 10
305.6316936446265
 20
338.2414243883598
 30
0.0
 40
13.61147202244945
100
AcDbArc
 50
10.00000000000181
 51
34.99999999999737
  0
ARC
  5
24EC
330
1F
100
AcDbEntity
  8
AM_VIS
100
AcDbCircle
 10
305.6316936446265
 20
338.2414243883598
 30
0.0
 40
13.61147202244945
100
AcDbArc
 50
235.0000000000026
 51
260.0000000000014
  0
ARC
  5
24ED
330
1F
100
AcDbEntity
  8
AM_VIS
100
AcDbCircle
 10
305.6316936446265
 20
338.2414243883598
 30
0.0
 40
13.61147202244945
100
AcDbArc
 50
325.0000000000026
 51
349.9999999999982
  0
ARC
  5
24EE
330
1F
100
AcDbEntity
  8
AM_VIS
100
AcDbCircle
 10
305.6316936446265
 20
338.2414243883598
 30
0.0
 40
13.61147202244945
100
AcDbArc
 50
279.9999999999986
 51
304.9999999999974
  0
ARC
  5
24EF
330
1F
100
AcDbEntity
  8
AM_VIS
100
AcDbCircle
 10
305.6316936446265
 20
338.2414243883598
 30
0.0
 40
10.0
100
AcDbArc
 50
42.33654837939062
 51
133.6682742097538
  0
ARC
  5
24F0
330
1F
100
AcDbEntity
  8
AM_VIS
100
AcDbCircle
 10
305.6316936446265
 20
338.2414243883598
 30
0.0
 40
9.0
100
AcDbArc
 50
57.33654837999791
 51
117.9030430500029
  0
ARC
  5
24F1
330
1F
100
AcDbEntity
  8
AM_VIS
100
AcDbCircle
 10
305.6316936446265
 20
338.2414243883598
 30
0.0
 40
9.099999999999997
100
AcDbArc
 50
23.69100703412934
 51
29.37039289747295
  0
ARC
  5
24F2
330
1F
100
AcDbEntity
  8
AM_VIS
100
AcDbCircle
 10
305.6316936446265
 20
338.2414243883598
 30
0.0
 40
10.0
100
AcDbArc
 50
29.42705951889799
 51
30.57299420861003
  0
ARC
  5
24F3
330
1F
100
AcDbEntity
  8
AM_VIS
100
AcDbCircle
 10
305.6316936446265
 20
338.2414243883598
 30
0.0
 40
9.099999999999997
100
AcDbArc
 50
30.62966614435885
 51
36.30899296587229
  0
ARC
  5
24F4
330
1F
100
AcDbEntity
  8
AM_VIS
100
AcDbCircle
 10
305.6316936446265
 20
338.2414243883598
 30
0.0
 40
8.9
100
AcDbArc
 50
30.64381653437715
 51
36.45136358281657
  0
ARC
  5
24F5
330
1F
100
AcDbEntity
  8
AM_VIS
100
AcDbCircle
 10
305.6316936446265
 20
338.2414243883598
 30
0.0
 40
7.999999939999999
100
AcDbArc
 50
29.28381767907401
 51
30.71624948220959
  0
ARC
  5
24F6
330
1F
100
AcDbEntity
  8
AM_VIS
100
AcDbCircle
 10
305.6316936446265
 20
338.2414243883598
 30
0.0
 40
8.9
100
AcDbArc
 50
23.54863641718864
 51
29.35624383440498
  0
ARC
  5
24F7
330
1F
100
AcDbEntity
  8
AM_VIS
100
AcDbCircle
 10
305.6316936446265
 20
338.2414243883598
 30
0.0
 40
9.099999999999997
100
AcDbArc
 50
143.6910070341277
 51
156.3089929658706
  0
LINE
  5
24F8
330
1F
100
AcDbEntity
  8
AM_7
  6
AM_ISO08W050x2
100
AcDbLine
 10
293.1316936446265
 20
239.8771590987558
 30
0.0
 11
296.7681560778104
 21
239.8771590987558
 31
0.0
1001
GENIUS_GENOREF_13
1005
25F2
  0
LINE
  5
24F9
330
1F
100
AcDbEntity
  8
AM_7
  6
AM_ISO08W050x2
100
AcDbLine
 10
293.1316936446265
 20
239.8771590987558
 30
0.0
 11
293.1316936446265
 21
243.5136215319399
 31
0.0
1001
GENIUS_GENOREF_13
1005
25F2
  0
LINE
  5
24FA
330
1F
100
AcDbEntity
  8
AM_7
  6
AM_ISO08W050x2
100
AcDbLine
 10
293.1316936446265
 20
239.8771590987558
 30
0.0
 11
289.4952312114425
 21
239.8771590987558
 31
0.0
1001
GENIUS_GENOREF_13
1005
25F2
  0
LINE
  5
24FB
330
1F
100
AcDbEntity
  8
AM_7
  6
AM_ISO08W050x2
100
AcDbLine
 10
293.1316936446265
 20
239.8771590987558
 30
0.0
 11
293.1316936446265
 21
236.2406966655718
 31
0.0
1001
GENIUS_GENOREF_13
1005
25F2
  0
LINE
  5
24FC
330
1F
100
AcDbEntity
  8
AM_7
  6
AM_ISO08W050x2
100
AcDbLine
 10
318.1316936446265
 20
239.8771590987558
 30
0.0
 11
321.7681560778104
 21
239.8771590987558
 31
0.0
1001
GENIUS_GENOREF_13
1005
25F1
  0
LINE
  5
24FD
330
1F
100
AcDbEntity
  8
AM_7
  6
AM_ISO08W050x2
100
AcDbLine
 10
318.1316936446265
 20
239.8771590987558
 30
0.0
 11
318.1316936446265
 21
243.5136215319399
 31
0.0
1001
GENIUS_GENOREF_13
1005
25F1
  0
LINE
  5
24FE
330
1F
100
AcDbEntity
  8
AM_7
  6
AM_ISO08W050x2
100
AcDbLine
 10
318.1316936446265
 20
239.8771590987558
 30
0.0
 11
314.4952312114425
 21
239.8771590987558
 31
0.0
1001
GENIUS_GENOREF_13
1005
25F1
  0
LINE
  5
24FF
330
1F
100
AcDbEntity
  8
AM_7
  6
AM_ISO08W050x2
100
AcDbLine
 10
318.1316936446265
 20
239.8771590987558
 30
0.0
 11
318.1316936446265
 21
236.2406966655718
 31
0.0
1001
GENIUS_GENOREF_13
1005
25F1
  0
LINE
  5
2500
102
{ACAD_REACTORS
330
2507
330
250A
102
}
330
1F
100
AcDbEntity
  8
AM_7
  6
AM_ISO08W050x2
100
AcDbLine
 10
406.0464407059575
 20
206.8771590987559
 30
0.0
 11
427.0437995067594
 21
206.8771590987559
 31
0.0
1001
GENIUS_GENOREF_13
1005
25F0
  0
LINE
  5
2501
102
{ACAD_REACTORS
330
2513
330
2516
102
}
330
1F
100
AcDbEntity
  8
AM_7
  6
AM_ISO08W050x2
100
AcDbLine
 10
406.0464407059575
 20
206.8771590987559
 30
0.0
 11
406.0464407059575
 21
270.2648213150294
 31
0.0
1001
GENIUS_GENOREF_13
1005
25F0
  0
LINE
  5
2502
330
1F
100
AcDbEntity
  8
AM_7
  6
AM_ISO08W050x2
100
AcDbLine
 10
406.0464407059575
 20
206.8771590987559
 30
0.0
 11
355.4737262959687
 21
206.8771590987559
 31
0.0
1001
GENIUS_GENOREF_13
1005
25F0
  0
LINE
  5
2503
330
1F
100
AcDbEntity
  8
AM_7
  6
AM_ISO08W050x2
100
AcDbLine
 10
406.0464407059575
 20
206.8771590987559
 30
0.0
 11
406.0464407059575
 21
190.919142870687
 31
0.0
1001
GENIUS_GENOREF_13
1005
25F0
  0
LINE
  5
2504
102
{ACAD_REACTORS
330
250A
330
250D
102
}
330
1F
100
AcDbEntity
  8
AM_7
  6
AM_ISO08W050x2
100
AcDbLine
 10
433.3194676251613
 20
239.8771590987558
 30
0.0
 11
437.4238456299861
 21
239.8771590987558
 31
0.0
  0
DIMENSION
  5
2505
102
{ACAD_XDICTIONARY
360
2506
102
}
102
{ACAD_REACTORS
330
2507
102
}
330
1F
100
AcDbEntity
  8
AM_5
100
AcDbDimension
  2
*D5
 10
448.0464407059575
 20
206.8771590987559
 30
0.0
 11
445.5461454303669
 21
200.727159098756
 31
0.0
 70
    32
 71
     5
 42
12.30000000000001
  3
AM_ISO$0
100
AcDbAlignedDimension
 13
423.6964407059575
 23
194.5771590987559
 33
0.0
 14
427.0437995067594
 24
206.8771590987559
 34
0.0
 50
90.0
100
AcDbRotatedDimension
1001
ACAD
1000
DSTYLE
1002
{
1070
    40
1040
1.0
1070
   144
1040
1.0
1070
   272
1070
     8
1002
}
  0
DIMENSION
  5
2508
102
{ACAD_XDICTIONARY
360
2509
102
}
102
{ACAD_REACTORS
330
250A
102
}
330
1F
100
AcDbEntity
  8
AM_5
100
AcDbDimension
  2
*D6
 10
448.0464407059575
 20
239.8771590987557
 30
0.0
 11
445.5464407059575
 21
223.3771590987559
 31
0.0
 70
    32
 71
     5
 42
32.99999999999989
  3
AM_ISO$0
100
AcDbAlignedDimension
 13
427.0437995067594
 23
206.8771590987559
 33
0.0
 14
437.4238456299861
 24
239.8771590987558
 34
0.0
 50
90.0
100
AcDbRotatedDimension
1001
ACAD
1000
DSTYLE
1002
{
1070
    40
1040
1.0
1070
   144
1040
1.0
1070
   272
1070
     8
1002
}
  0
DIMENSION
  5
250B
102
{ACAD_XDICTIONARY
360
250C
102
}
102
{ACAD_REACTORS
330
250D
102
}
330
1F
100
AcDbEntity
  8
AM_5
100
AcDbDimension
  2
*D7
 10
448.0464407059575
 20
265.8771590987559
 30
0.0
 11
445.3964407059575
 21
252.8771590987559
 31
0.0
 70
    32
  1
(<>)
 71
     5
 42
26.00000000000014
  3
AM_ISO$0
100
AcDbAlignedDimension
 13
437.4238456299861
 23
239.8771590987558
 33
0.0
 14
418.75509207447
 24
265.8771590987559
 34
0.0
 50
90.0
100
AcDbRotatedDimension
1001
ACAD
1000
DSTYLE
1002
{
1070
    40
1040
1.0
1070
   144
1040
1.0
1070
   272
1070
     8
1002
}
  0
DIMENSION
  5
250E
102
{ACAD_XDICTIONARY
360
250F
102
}
102
{ACAD_REACTORS
330
2510
102
}
330
1F
100
AcDbEntity
  8
AM_5
100
AcDbDimension
  2
*D8
 10
458.0464407059576
 20
265.8771590987559
 30
0.0
 11
455.3964407059575
 21
230.2271590987559
 31
0.0
 70
    32
  1
(<>)
 71
     5
 42
71.30000000000004
  3
AM_ISO$0
100
AcDbAlignedDimension
 13
423.6232174012542
 23
194.5771590987559
 33
0.0
 14
418.75509207447
 24
265.8771590987559
 34
0.0
 50
90.0
100
AcDbRotatedDimension
1001
ACAD
1000
DSTYLE
1002
{
1070
    40
1040
1.0
1070
   144
1040
1.0
1070
   272
1070
     8
1002
}
  0
DIMENSION
  5
2511
102
{ACAD_XDICTIONARY
360
2512
102
}
102
{ACAD_REACTORS
330
2513
102
}
330
1F
100
AcDbEntity
  8
AM_5
100
AcDbDimension
  2
*D9
 10
406.0464407059575
 20
277.8771590987558
 30
0.0
 11
382.2964407059576
 21
280.5271590987558
 31
0.0
 70
    32
  1
(<>)
 71
     5
 42
47.5
  3
AM_ISO$0
100
AcDbAlignedDimension
 13
358.5464407059576
 23
226.3771590987559
 33
0.0
 14
406.0464407059575
 24
270.2648213150294
 34
0.0
100
AcDbRotatedDimension
1001
ACAD
1000
DSTYLE
1002
{
1070
    40
1040
1.0
1070
   144
1040
1.0
1070
   272
1070
     8
1002
}
  0
DIMENSION
  5
2514
102
{ACAD_XDICTIONARY
360
2515
102
}
102
{ACAD_REACTORS
330
2516
102
}
330
1F
100
AcDbEntity
  8
AM_5
100
AcDbDimension
  2
*D10
 10
436.0464407059575
 20
277.8771590987559
 30
0.0
 11
421.0464407059576
 21
280.3771590987559
 31
0.0
 70
    32
 71
     5
 42
30.0
  3
AM_ISO$0
100
AcDbAlignedDimension
 13
406.0464407059575
 23
270.2648213150294
 33
0.0
 14
436.0464407059575
 24
246.8771590987559
 34
0.0
100
AcDbRotatedDimension
1001
ACAD
1000
DSTYLE
1002
{
1070
    40
1040
1.0
1070
   144
1040
1.0
1070
   272
1070
     8
1002
}
  0
LINE
  5
2517
102
{ACAD_REACTORS
330
2540
102
}
330
1F
100
AcDbEntity
  8
AM_VIS
  6
HIDDEN
 62
     3
 48
0.3
100
AcDbLine
 10
323.1316936446265
 20
355.5914243883599
 30
0.0
 11
288.1316936446264
 21
355.5914243883599
 31
0.0
  0
LINE
  5
2518
330
1F
100
AcDbEntity
  8
AM_VIS
  6
HIDDEN
 62
     3
 48
0.1
100
AcDbLine
 10
296.0316936446265
 20
368.2414243883597
 30
0.0
 11
296.0316936446265
 21
366.6414243883598
 31
0.0
  0
LINE
  5
2519
330
1F
100
AcDbEntity
  8
AM_VIS
  6
HIDDEN
 62
     3
 48
0.1
100
AcDbLine
 10
290.2316936446265
 20
368.2414243883597
 30
0.0
 11
290.2316936446265
 21
366.6414243883598
 31
0.0
  0
LINE
  5
251A
102
{ACAD_REACTORS
330
253A
102
}
330
1F
100
AcDbEntity
  8
AM_7
  6
AM_ISO08W050x2
100
AcDbLine
 10
293.1316936446265
 20
369.2414243883598
 30
0.0
 11
293.1316936446265
 21
365.6414243883598
 31
0.0
1001
GENIUS_GENODEF_13
1002
{
1000
HIER
1070
     0
1002
}
1002
{
1000
MANEDIT
1070
     0
1002
}
1002
{
1000
NOSEL
1070
     0
1002
}
1002
{
1000
BEHIND
1070
     0
1002
}
1002
{
1000
OTHER
1070
     0
1002
}
1002
{
1000
REACTOR
1002
}
1001
GENIUS_GENOBJ-N-CEN_13
1002
{
1000
OWNER
1000
GEN
1002
}
1001
GENIUS_GENCEN_19
1002
{
1040
3.0
1002
}
  0
LINE
  5
251B
330
1F
100
AcDbEntity
  8
AM_VIS
  6
HIDDEN
 62
     3
 48
0.1
100
AcDbLine
 10
315.2316936446265
 20
368.2414243883597
 30
0.0
 11
315.2316936446265
 21
366.6414243883598
 31
0.0
  0
LINE
  5
251C
330
1F
100
AcDbEntity
  8
AM_VIS
  6
HIDDEN
 62
     3
 48
0.1
100
AcDbLine
 10
321.0316936446265
 20
368.2414243883597
 30
0.0
 11
321.0316936446265
 21
366.6414243883598
 31
0.0
  0
LINE
  5
251D
102
{ACAD_REACTORS
330
253A
102
}
330
1F
100
AcDbEntity
  8
AM_7
  6
AM_ISO08W050x2
100
AcDbLine
 10
318.1316936446265
 20
369.2414243883598
 30
0.0
 11
318.1316936446265
 21
365.6414243883598
 31
0.0
1001
GENIUS_GENODEF_13
1002
{
1000
HIER
1070
     0
1002
}
1002
{
1000
MANEDIT
1070
     0
1002
}
1002
{
1000
NOSEL
1070
     0
1002
}
1002
{
1000
BEHIND
1070
     0
1002
}
1002
{
1000
OTHER
1070
     0
1002
}
1002
{
1000
REACTOR
1002
}
1001
GENIUS_GENOBJ-N-CEN_13
1002
{
1000
OWNER
1000
GEN
1002
}
1001
GENIUS_GENCEN_19
1002
{
1040
3.0
1002
}
  0
LINE
  5
251E
330
1F
100
AcDbEntity
  8
AM_7
100
AcDbLine
 10
305.6316936446265
 20
338.2414243883598
 30
0.0
 11
326.1316936446265
 21
338.2414243883598
 31
0.0
1001
GENIUS_GENOREF_13
1005
25EF
  0
LINE
  5
251F
330
1F
100
AcDbEntity
  8
AM_7
100
AcDbLine
 10
305.6316936446265
 20
338.2414243883598
 30
0.0
 11
305.6316936446265
 21
370.2120561029585
 31
0.0
1001
GENIUS_GENOREF_13
1005
25EF
  0
LINE
  5
2520
330
1F
100
AcDbEntity
  8
AM_7
100
AcDbLine
 10
305.6316936446265
 20
338.2414243883598
 30
0.0
 11
285.1316936446265
 21
338.2414243883598
 31
0.0
1001
GENIUS_GENOREF_13
1005
25EF
  0
LINE
  5
2521
330
1F
100
AcDbEntity
  8
AM_7
100
AcDbLine
 10
305.6316936446265
 20
338.2414243883598
 30
0.0
 11
305.6316936446265
 21
289.0100892685159
 31
0.0
1001
GENIUS_GENOREF_13
1005
25EF
  0
LINE
  5
2522
330
1F
100
AcDbEntity
  8
AM_VIS
  6
HIDDEN
 62
     3
 48
0.1
100
AcDbLine
 10
434.4464407059574
 20
242.7771590987559
 30
0.0
 11
436.0464407059575
 21
242.7771590987559
 31
0.0
  0
LINE
  5
2523
330
1F
100
AcDbEntity
  8
AM_VIS
  6
HIDDEN
 62
     3
 48
0.1
100
AcDbLine
 10
434.4464407059574
 20
236.9771590987558
 30
0.0
 11
436.0464407059575
 21
236.9771590987558
 31
0.0
  0
LINE
  5
2524
330
1F
100
AcDbEntity
  8
AM_7
100
AcDbLine
 10
305.6316936446265
 20
206.8771590987558
 30
0.0
 11
329.6316936446265
 21
206.8771590987558
 31
0.0
1001
GENIUS_GENOREF_13
1005
25EE
  0
LINE
  5
2525
330
1F
100
AcDbEntity
  8
AM_7
100
AcDbLine
 10
305.6316936446265
 20
206.8771590987558
 30
0.0
 11
305.6316936446265
 21
270.7305828410197
 31
0.0
1001
GENIUS_GENOREF_13
1005
25EE
  0
LINE
  5
2526
330
1F
100
AcDbEntity
  8
AM_7
100
AcDbLine
 10
305.6316936446265
 20
206.8771590987558
 30
0.0
 11
281.6316936446265
 21
206.8771590987558
 31
0.0
1001
GENIUS_GENOREF_13
1005
25EE
  0
LINE
  5
2527
330
1F
100
AcDbEntity
  8
AM_7
100
AcDbLine
 10
305.6316936446265
 20
206.8771590987558
 30
0.0
 11
305.6316936446265
 21
182.8771590987558
 31
0.0
1001
GENIUS_GENOREF_13
1005
25EE
  0
ARC
  5
2528
330
1F
100
AcDbEntity
  8
0
100
AcDbCircle
 10
318.1316936446265
 20
239.8771590987558
 30
0.0
 40
2.9
100
AcDbArc
 50
297.6101474970225
 51
64.35947403919813
  0
ARC
  5
2529
330
1F
100
AcDbEntity
  8
AM_VIS
  6
HIDDEN
 62
     3
 48
0.3
100
AcDbCircle
 10
318.1316936446265
 20
239.8771590987559
 30
0.0
 40
2.9
100
AcDbArc
 50
64.35947403919813
 51
297.6101474970662
  0
ARC
  5
252A
330
1F
100
AcDbEntity
  8
0
100
AcDbCircle
 10
293.1316936446263
 20
239.8771590987558
 30
0.0
 40
2.9
100
AcDbArc
 50
115.6405259608018
 51
242.3898525029775
  0
ARC
  5
252B
330
1F
100
AcDbEntity
  8
AM_VIS
  6
HIDDEN
 62
     3
 48
0.3
100
AcDbCircle
 10
293.1316936446263
 20
239.8771590987559
 30
0.0
 40
2.9
100
AcDbArc
 50
242.3898525029339
 51
115.6405259608018
  0
TEXT
  5
252C
330
1F
100
AcDbEntity
  8
AM_5
100
AcDbText
 10
431.4748233307876
 20
181.020994567486
 30
0.0
 40
3.5
  1
2-PT1/8
100
AcDbText
  0
INSERT
  5
252D
330
1F
100
AcDbEntity
  8
AM_5
100
AcDbBlockReference
  2
*S15
 10
0.0
 20
0.0
 30
0.0
  0
TEXT
  5
252E
330
1F
100
AcDbEntity
  8
AM_5
100
AcDbText
 10
431.4748233307876
 20
174.3639312940922
 30
0.0
 40
3.5
  1
2-PT1/4
100
AcDbText
  0
ARC
  5
252F
330
1F
100
AcDbEntity
  8
AM_4
100
AcDbCircle
 10
305.6316936446265
 20
206.8771590987558
 30
0.0
 40
5.25
100
AcDbArc
 50
260.0000000000014
 51
169.9999999999981
  0
LINE
  5
2530
330
1F
100
AcDbEntity
  8
AM_7
  6
AM_ISO08W050x2
100
AcDbLine
 10
305.6316936446265
 20
215.1271590987558
 30
0.0
 11
305.6316936446265
 21
198.6271590987558
 31
0.0
  0
CIRCLE
  5
2531
330
1F
100
AcDbEntity
  8
AM_VIS
100
AcDbCircle
 10
305.6316936446265
 20
206.8771590987558
 30
0.0
 40
4.283
  0
LINE
  5
2532
330
1F
100
AcDbEntity
  8
AM_7
  6
AM_ISO08W050x2
100
AcDbLine
 10
297.3816936446265
 20
206.8771590987558
 30
0.0
 11
313.8816936446265
 21
206.8771590987558
 31
0.0
  0
ARC
  5
2533
330
1F
100
AcDbEntity
  8
AM_4
100
AcDbCircle
 10
406.0464407059575
 20
206.8771590987559
 30
0.0
 40
5.25
100
AcDbArc
 50
260.0000000000014
 51
169.9999999999981
  0
CIRCLE
  5
2534
330
1F
100
AcDbEntity
  8
AM_VIS
100
AcDbCircle
 10
406.0464407059575
 20
206.8771590987559
 30
0.0
 40
4.283
  0
INSERT
  5
2535
330
1F
100
AcDbEntity
  8
AM_5
100
AcDbBlockReference
  2
*S16
 10
0.0
 20
0.0
 30
0.0
  0
TEXT
  5
2536
330
1F
100
AcDbEntity
  8
AM_5
100
AcDbText
 10
330.8980392249545
 20
252.4330144427704
 30
0.0
 40
3.5
  1
2-%%c5.8
100
AcDbText
  0
INSERT
  5
2537
330
1F
100
AcDbEntity
  8
AM_5
100
AcDbBlockReference
  2
*S17
 10
0.0
 20
0.0
 30
0.0
  0
DIMENSION
  5
2538
102
{ACAD_XDICTIONARY
360
2539
102
}
102
{ACAD_REACTORS
330
253A
102
}
330
1F
100
AcDbEntity
  8
AM_5
100
AcDbDimension
  2
*D11
 10
318.1316936446265
 20
380.2414253883599
 30
0.0
 11
305.6316936446265
 21
382.7417206639504
 31
0.0
 70
    32
 71
     5
 42
25.0
  3
AM_ISO$0
100
AcDbAlignedDimension
 13
293.1316936446265
 23
369.2414243883598
 33
0.0
 14
318.1316936446265
 24
369.2414243883598
 34
0.0
100
AcDbRotatedDimension
1001
ACAD
1000
DSTYLE
1002
{
1070
    40
1040
1.0
1070
   144
1040
1.0
1070
   272
1070
     8
1002
}
  0
DIMENSION
  5
253B
102
{ACAD_XDICTIONARY
360
253C
102
}
102
{ACAD_REACTORS
330
253D
102
}
330
1F
100
AcDbEntity
  8
AM_5
100
AcDbDimension
  2
*D12
 10
323.1316936446265
 20
390.2414253883599
 30
0.0
 11
305.6316936446265
 21
392.7414253883599
 31
0.0
 70
    32
 71
     5
 42
35.0
  3
AM_ISO$0
100
AcDbAlignedDimension
 13
288.1316936446264
 23
368.2414243883597
 33
0.0
 14
323.1316936446265
 24
368.2414243883597
 34
0.0
100
AcDbRotatedDimension
1001
ACAD
1000
DSTYLE
1002
{
1070
    40
1040
1.0
1070
   144
1040
1.0
1070
   272
1070
     8
1002
}
  0
DIMENSION
  5
253E
102
{ACAD_XDICTIONARY
360
253F
102
}
102
{ACAD_REACTORS
330
2540
102
}
330
1F
100
AcDbEntity
  8
AM_5
100
AcDbDimension
  2
*D13
 10
335.1316936446265
 20
355.5914243883599
 30
0.0
 11
332.6316936446264
 21
338.0914243883599
 31
0.0
 70
    32
 71
     5
 42
35.0
  3
AM_ISO$0
100
AcDbAlignedDimension
 13
317.9953868274308
 23
320.5914243883599
 33
0.0
 14
323.1316936446265
 24
355.5914243883599
 34
0.0
 50
90.0
100
AcDbRotatedDimension
1001
ACAD
1000
DSTYLE
1002
{
1070
    40
1040
1.0
1070
   144
1040
1.0
1070
   272
1070
     8
1002
}
  0
LINE
  5
2541
330
1F
100
AcDbEntity
  8
AM_VIS
  6
HIDDEN
 62
     3
 48
0.2
100
AcDbLine
 10
291.6316936446265
 20
225.8771590987558
 30
0.0
 11
291.6316936446265
 21
233.4771590987558
 31
0.0
  0
TEXT
  5
2542
330
1F
100
AcDbEntity
  8
AM_5
100
AcDbText
 10
364.4616142069084
 20
243.776426086401
 30
0.0
 40
3.5
  1
M30x1.0
100
AcDbText
  0
LINE
  5
2543
330
1F
100
AcDbEntity
  8
AM_VIS
  6
HIDDEN
 62
     3
 48
0.2
100
AcDbLine
 10
391.0464407059576
 20
233.4771590987558
 30
0.0
 11
391.0464407059576
 21
225.8771590987558
 31
0.0
  0
LINE
  5
2544
330
1F
100
AcDbEntity
  8
AM_VIS
  6
HIDDEN
 62
     3
 48
0.2
100
AcDbLine
 10
421.0464407059576
 20
233.4771590987558
 30
0.0
 11
421.0464407059576
 21
225.8771590987558
 31
0.0
  0
LINE
  5
2545
330
1F
100
AcDbEntity
  8
AM_VIS
  6
HIDDEN
 62
     3
 48
0.2
100
AcDbLine
 10
319.6316936446265
 20
225.8771590987558
 30
0.0
 11
319.6316936446265
 21
233.4771590987558
 31
0.0
  0
INSERT
  5
2546
330
1F
100
AcDbEntity
  8
AM_5
100
AcDbBlockReference
  2
*S18
 10
0.0
 20
0.0
 30
0.0
  0
LINE
  5
2547
330
1F
100
AcDbEntity
  8
AM_VIS
  6
PHANTOM2
 62
     4
 48
0.4
100
AcDbLine
 10
300.1316936446265
 20
314.7414243883599
 30
0.0
 11
300.1316936446265
 21
320.7414243883599
 31
0.0
  0
TEXT
  5
2548
330
1F
100
AcDbEntity
  8
AM_5
100
AcDbText
 10
330.3225751969382
 20
180.8763203595543
 30
0.0
 40
3.5
  1
2-PT1/8
100
AcDbText
  0
LINE
  5
2549
330
1F
100
AcDbEntity
  8
AM_VIS
  6
PHANTOM2
 62
     4
 48
0.4
100
AcDbLine
 10
382.5464407059576
 20
201.3771590987559
 30
0.0
 11
388.5464407059576
 21
201.3771590987559
 31
0.0
  0
CIRCLE
  5
254A
330
1F
100
AcDbEntity
  8
AM_VIS
  6
PHANTOM2
 62
     4
 48
0.4
100
AcDbCircle
 10
305.6316936446265
 20
206.8771590987558
 30
0.0
 40
18.0
  0
CIRCLE
  5
254B
330
1F
100
AcDbEntity
  8
AM_VIS
  6
PHANTOM2
 62
     4
 48
0.4
100
AcDbCircle
 10
305.6316936446265
 20
206.8771590987558
 30
0.0
 40
21.0
  0
LINE
  5
254C
330
1F
100
AcDbEntity
  8
AM_VIS
100
AcDbLine
 10
289.9146041942005
 20
227.9771590987558
 30
0.0
 11
289.9146041942005
 21
227.4771590987558
 31
0.0
  0
LINE
  5
254D
330
1F
100
AcDbEntity
  8
AM_VIS
100
AcDbLine
 10
290.5767091480732
 20
227.9771590987558
 30
0.0
 11
290.5767091480732
 21
227.4771590987558
 31
0.0
  0
LINE
  5
254E
330
1F
100
AcDbEntity
  8
AM_VIS
100
AcDbLine
 10
291.60951778488
 20
227.9771590987558
 30
0.0
 11
291.60951778488
 21
227.4771590987558
 31
0.0
  0
LINE
  5
254F
330
1F
100
AcDbEntity
  8
AM_VIS
100
AcDbLine
 10
292.9875989282874
 20
227.9771590987558
 30
0.0
 11
292.9875989282874
 21
227.4771590987558
 31
0.0
  0
LINE
  5
2550
330
1F
100
AcDbEntity
  8
AM_VIS
100
AcDbLine
 10
294.6770196469556
 20
227.9771590987558
 30
0.0
 11
294.6770196469556
 21
227.4771590987558
 31
0.0
  0
LINE
  5
2551
330
1F
100
AcDbEntity
  8
AM_VIS
100
AcDbLine
 10
296.636180795925
 20
227.9771590987558
 30
0.0
 11
296.636180795925
 21
227.4771590987558
 31
0.0
  0
LINE
  5
2552
330
1F
100
AcDbEntity
  8
AM_VIS
100
AcDbLine
 10
298.816841325625
 20
227.9771590987558
 30
0.0
 11
298.816841325625
 21
227.4771590987558
 31
0.0
  0
LINE
  5
2553
330
1F
100
AcDbEntity
  8
AM_VIS
100
AcDbLine
 10
301.165306136617
 20
227.9771590987558
 30
0.0
 11
301.165306136617
 21
227.4771590987558
 31
0.0
  0
LINE
  5
2554
330
1F
100
AcDbEntity
  8
AM_VIS
100
AcDbLine
 10
303.6237482311463
 20
227.9771590987558
 30
0.0
 11
303.6237482311463
 21
227.4771590987558
 31
0.0
  0
LINE
  5
2555
330
1F
100
AcDbEntity
  8
AM_VIS
100
AcDbLine
 10
307.6396390581066
 20
227.4771590987558
 30
0.0
 11
307.6396390581066
 21
227.9771590987558
 31
0.0
  0
LINE
  5
2556
330
1F
100
AcDbEntity
  8
AM_VIS
100
AcDbLine
 10
310.0980811526359
 20
227.4771590987558
 30
0.0
 11
310.0980811526359
 21
227.9771590987558
 31
0.0
  0
LINE
  5
2557
330
1F
100
AcDbEntity
  8
AM_VIS
100
AcDbLine
 10
312.4465459636279
 20
227.4771590987558
 30
0.0
 11
312.4465459636279
 21
227.9771590987558
 31
0.0
  0
LINE
  5
2558
330
1F
100
AcDbEntity
  8
AM_VIS
100
AcDbLine
 10
314.6272064933279
 20
227.4771590987558
 30
0.0
 11
314.6272064933279
 21
227.9771590987558
 31
0.0
  0
LINE
  5
2559
330
1F
100
AcDbEntity
  8
AM_VIS
100
AcDbLine
 10
316.5863676422973
 20
227.4771590987558
 30
0.0
 11
316.5863676422973
 21
227.9771590987558
 31
0.0
  0
LINE
  5
255A
330
1F
100
AcDbEntity
  8
AM_VIS
100
AcDbLine
 10
318.2757883609655
 20
227.4771590987558
 30
0.0
 11
318.2757883609655
 21
227.9771590987558
 31
0.0
  0
LINE
  5
255B
330
1F
100
AcDbEntity
  8
AM_VIS
100
AcDbLine
 10
319.6538695043729
 20
227.4771590987558
 30
0.0
 11
319.6538695043729
 21
227.9771590987558
 31
0.0
  0
LINE
  5
255C
330
1F
100
AcDbEntity
  8
AM_VIS
100
AcDbLine
 10
320.6866781411798
 20
227.4771590987558
 30
0.0
 11
320.6866781411798
 21
227.9771590987558
 31
0.0
  0
LINE
  5
255D
330
1F
100
AcDbEntity
  8
AM_VIS
100
AcDbLine
 10
321.3487830950525
 20
227.4771590987558
 30
0.0
 11
321.3487830950525
 21
227.9771590987558
 31
0.0
  0
LINE
  5
255E
330
1F
100
AcDbEntity
  8
AM_VIS
100
AcDbLine
 10
289.1316936446265
 20
227.4771590987558
 30
0.0
 11
289.1316936446265
 21
227.9771590987558
 31
0.0
  0
LINE
  5
255F
330
1F
100
AcDbEntity
  8
AM_VIS
100
AcDbLine
 10
289.3286801951043
 20
227.4771590987558
 30
0.0
 11
289.3286801951043
 21
227.9771590987558
 31
0.0
  0
LINE
  5
2560
330
1F
100
AcDbEntity
  8
AM_VIS
100
AcDbLine
 10
289.914789383904
 20
227.4771590987558
 30
0.0
 11
289.914789383904
 21
227.9771590987558
 31
0.0
  0
LINE
  5
2561
330
1F
100
AcDbEntity
  8
AM_VIS
100
AcDbLine
 10
290.8755892576126
 20
227.4771590987558
 30
0.0
 11
290.8755892576126
 21
227.9771590987558
 31
0.0
  0
LINE
  5
2562
330
1F
100
AcDbEntity
  8
AM_VIS
100
AcDbLine
 10
292.1874217346273
 20
227.4771590987558
 30
0.0
 11
292.1874217346273
 21
227.9771590987558
 31
0.0
  0
LINE
  5
2563
330
1F
100
AcDbEntity
  8
AM_VIS
100
AcDbLine
 10
293.8179851456417
 20
227.4771590987558
 30
0.0
 11
293.8179851456417
 21
227.9771590987558
 31
0.0
  0
LINE
  5
2564
330
1F
100
AcDbEntity
  8
AM_VIS
100
AcDbLine
 10
295.7271296079469
 20
227.4771590987558
 30
0.0
 11
295.7271296079469
 21
227.9771590987558
 31
0.0
  0
LINE
  5
2565
330
1F
100
AcDbEntity
  8
AM_VIS
100
AcDbLine
 10
297.8678456487937
 20
227.4771590987558
 30
0.0
 11
297.8678456487937
 21
227.9771590987558
 31
0.0
  0
LINE
  5
2566
330
1F
100
AcDbEntity
  8
AM_VIS
100
AcDbLine
 10
300.1874217346273
 20
227.4771590987558
 30
0.0
 11
300.1874217346273
 21
227.9771590987558
 31
0.0
  0
LINE
  5
2567
330
1F
100
AcDbEntity
  8
AM_VIS
100
AcDbLine
 10
302.6287422039828
 20
227.4771590987558
 30
0.0
 11
302.6287422039828
 21
227.9771590987558
 31
0.0
  0
LINE
  5
2568
330
1F
100
AcDbEntity
  8
AM_VIS
100
AcDbLine
 10
306.1316936446265
 20
227.4771590987558
 30
0.0
 11
306.1316936446265
 21
227.9771590987558
 31
0.0
  0
LINE
  5
2569
330
1F
100
AcDbEntity
  8
AM_VIS
100
AcDbLine
 10
305.1316936446265
 20
227.4771590987558
 30
0.0
 11
305.1316936446265
 21
227.9771590987558
 31
0.0
  0
LINE
  5
256A
330
1F
100
AcDbEntity
  8
AM_VIS
100
AcDbLine
 10
308.6346450852701
 20
227.4771590987558
 30
0.0
 11
308.6346450852701
 21
227.9771590987558
 31
0.0
  0
LINE
  5
256B
330
1F
100
AcDbEntity
  8
AM_VIS
100
AcDbLine
 10
311.0759655546257
 20
227.4771590987558
 30
0.0
 11
311.0759655546257
 21
227.9771590987558
 31
0.0
  0
LINE
  5
256C
330
1F
100
AcDbEntity
  8
AM_VIS
100
AcDbLine
 10
313.3955416404592
 20
227.4771590987558
 30
0.0
 11
313.3955416404592
 21
227.9771590987558
 31
0.0
  0
LINE
  5
256D
330
1F
100
AcDbEntity
  8
AM_VIS
100
AcDbLine
 10
315.536257681306
 20
227.4771590987558
 30
0.0
 11
315.536257681306
 21
227.9771590987558
 31
0.0
  0
LINE
  5
256E
330
1F
100
AcDbEntity
  8
AM_VIS
100
AcDbLine
 10
317.4454021436112
 20
227.4771590987558
 30
0.0
 11
317.4454021436112
 21
227.9771590987558
 31
0.0
  0
LINE
  5
256F
330
1F
100
AcDbEntity
  8
AM_VIS
100
AcDbLine
 10
319.0759655546257
 20
227.4771590987558
 30
0.0
 11
319.0759655546257
 21
227.9771590987558
 31
0.0
  0
LINE
  5
2570
330
1F
100
AcDbEntity
  8
AM_VIS
100
AcDbLine
 10
320.3877980316404
 20
227.4771590987558
 30
0.0
 11
320.3877980316404
 21
227.9771590987558
 31
0.0
  0
LINE
  5
2571
330
1F
100
AcDbEntity
  8
AM_VIS
100
AcDbLine
 10
321.3485979053489
 20
227.4771590987558
 30
0.0
 11
321.3485979053489
 21
227.9771590987558
 31
0.0
  0
LINE
  5
2572
330
1F
100
AcDbEntity
  8
AM_VIS
100
AcDbLine
 10
321.9347070941486
 20
227.4771590987558
 30
0.0
 11
321.9347070941486
 21
227.9771590987558
 31
0.0
  0
LINE
  5
2573
330
1F
100
AcDbEntity
  8
AM_VIS
100
AcDbLine
 10
322.1316936446265
 20
227.4771590987558
 30
0.0
 11
322.1316936446265
 21
227.9771590987558
 31
0.0
  0
LINE
  5
2574
330
1F
100
AcDbEntity
  8
AM_VIS
100
AcDbLine
 10
323.1316936446265
 20
227.9771590987558
 30
0.0
 11
288.1316936446264
 21
227.9771590987558
 31
0.0
  0
LINE
  5
2575
330
1F
100
AcDbEntity
  8
AM_VIS
100
AcDbLine
 10
315.6316936446265
 20
221.7771590987559
 30
0.0
 11
315.6316936446265
 21
225.3771590987558
 31
0.0
  0
LINE
  5
2576
330
1F
100
AcDbEntity
  8
AM_VIS
100
AcDbLine
 10
295.6316936446265
 20
225.3771590987558
 30
0.0
 11
295.6316936446265
 21
221.7771590987559
 31
0.0
  0
LINE
  5
2577
330
1F
100
AcDbEntity
  8
AM_VIS
100
AcDbLine
 10
315.1316936446264
 20
225.8771590987558
 30
0.0
 11
309.7850055760855
 21
225.8771590987558
 31
0.0
  0
LINE
  5
2578
330
1F
100
AcDbEntity
  8
AM_VIS
100
AcDbLine
 10
301.4783817131674
 20
225.8771590987558
 30
0.0
 11
296.1316936446264
 21
225.8771590987558
 31
0.0
  0
LINE
  5
2579
330
1F
100
AcDbEntity
  8
AM_VIS
100
AcDbLine
 10
290.9347551879274
 20
225.8771590987558
 30
0.0
 11
288.6316936446265
 21
225.8771590987558
 31
0.0
  0
LINE
  5
257A
330
1F
100
AcDbEntity
  8
AM_VIS
100
AcDbLine
 10
322.6316936446265
 20
225.8771590987558
 30
0.0
 11
320.3286321013255
 21
225.8771590987558
 31
0.0
  0
LINE
  5
257B
330
1F
100
AcDbEntity
  8
AM_VIS
100
AcDbLine
 10
321.2781402540333
 20
216.5771590987558
 30
0.0
 11
322.9852470352197
 21
216.5771590987558
 31
0.0
  0
LINE
  5
257C
330
1F
100
AcDbEntity
  8
AM_VIS
100
AcDbLine
 10
319.7071281598999
 20
221.2771590987559
 30
0.0
 11
319.4075403054155
 21
221.2771590987559
 31
0.0
  0
LINE
  5
257D
330
1F
100
AcDbEntity
  8
AM_VIS
100
AcDbLine
 10
317.2993128866883
 20
221.2771590987559
 30
0.0
 11
316.1316936446265
 21
221.2771590987559
 31
0.0
  0
LINE
  5
257E
330
1F
100
AcDbEntity
  8
AM_VIS
100
AcDbLine
 10
290.1316936446264
 20
216.5771590987558
 30
0.0
 11
320.9245868634399
 21
216.5771590987558
 31
0.0
  0
LINE
  5
257F
330
1F
100
AcDbEntity
  8
AM_VIS
100
AcDbLine
 10
288.1316936446264
 20
225.3771590987558
 30
0.0
 11
288.1316936446264
 21
224.2699989801662
 31
0.0
  0
LINE
  5
2580
330
1F
100
AcDbEntity
  8
AM_VIS
100
AcDbLine
 10
290.1316936446264
 20
216.5771590987558
 30
0.0
 11
290.1316936446264
 21
220.7771590987559
 31
0.0
  0
LINE
  5
2581
330
1F
100
AcDbEntity
  8
AM_VIS
100
AcDbLine
 10
288.1316936446264
 20
216.5771590987558
 30
0.0
 11
290.1316936446264
 21
216.5771590987558
 31
0.0
  0
LINE
  5
2582
330
1F
100
AcDbEntity
  8
AM_VIS
100
AcDbLine
 10
288.1316936446264
 20
220.7771590987559
 30
0.0
 11
288.1316936446264
 21
216.5771590987558
 31
0.0
  0
LINE
  5
2583
330
1F
100
AcDbEntity
  8
AM_VIS
100
AcDbLine
 10
295.1316936446265
 20
221.2771590987559
 30
0.0
 11
293.9640744025646
 21
221.2771590987559
 31
0.0
  0
LINE
  5
2584
330
1F
100
AcDbEntity
  8
AM_VIS
100
AcDbLine
 10
291.7071281598999
 20
221.2771590987559
 30
0.0
 11
291.4075403054155
 21
221.2771590987559
 31
0.0
  0
LINE
  5
2585
330
1F
100
AcDbEntity
  8
AM_VIS
100
AcDbLine
 10
288.1316936446264
 20
221.2771590987559
 30
0.0
 11
288.1316936446264
 21
220.7771590987559
 31
0.0
  0
ELLIPSE
  5
2586
330
1F
100
AcDbEntity
  8
AM_VIS
100
AcDbEllipse
 10
290.338800425813
 20
220.7771590987559
 30
0.0
 11
0.0
 21
0.5
 31
0.0
210
0.0
220
0.0
230
1.0
 40
0.4142135623730878
 41
0.0
 42
1.570796326794896
  0
ARC
  5
2587
330
1F
100
AcDbEntity
  8
AM_VIS
100
AcDbCircle
 10
288.6316936446265
 20
220.7771590987559
 30
0.0
 40
0.5
100
AcDbArc
 50
90.0
 51
180.0
  0
LINE
  5
2588
330
1F
100
AcDbEntity
  8
AM_VIS
100
AcDbLine
 10
323.1316936446265
 20
216.5771590987558
 30
0.0
 11
323.1316936446265
 21
220.7771590987559
 31
0.0
  0
LINE
  5
2589
330
1F
100
AcDbEntity
  8
AM_VIS
100
AcDbLine
 10
323.1316936446265
 20
221.2771590987559
 30
0.0
 11
323.1316936446265
 21
220.7771590987559
 31
0.0
  0
LINE
  5
258A
330
1F
100
AcDbEntity
  8
AM_VIS
100
AcDbLine
 10
323.1316936446265
 20
224.2699989801662
 30
0.0
 11
323.1316936446265
 21
225.3771590987558
 31
0.0
  0
ARC
  5
258B
330
1F
100
AcDbEntity
  8
AM_VIS
100
AcDbCircle
 10
296.1316936446264
 20
225.3771590987558
 30
0.0
 40
0.5
100
AcDbArc
 50
90.0
 51
180.0
  0
ARC
  5
258C
330
1F
100
AcDbEntity
  8
AM_VIS
100
AcDbCircle
 10
315.1316936446264
 20
225.3771590987558
 30
0.0
 40
0.5
100
AcDbArc
 50
0.0
 51
90.0
  0
ARC
  5
258D
330
1F
100
AcDbEntity
  8
AM_VIS
100
AcDbCircle
 10
322.6316936446265
 20
225.3771590987558
 30
0.0
 40
0.5
100
AcDbArc
 50
0.0
 51
90.0
  0
ARC
  5
258E
330
1F
100
AcDbEntity
  8
AM_VIS
100
AcDbCircle
 10
288.6316936446265
 20
225.3771590987558
 30
0.0
 40
0.5
100
AcDbArc
 50
90.0
 51
180.0
  0
ARC
  5
258F
330
1F
100
AcDbEntity
  8
AM_VIS
100
AcDbCircle
 10
316.1316936446265
 20
221.7771590987559
 30
0.0
 40
0.5
100
AcDbArc
 50
180.0
 51
203.0639175622022
  0
ARC
  5
2590
330
1F
100
AcDbEntity
  8
AM_VIS
100
AcDbCircle
 10
316.1316936446265
 20
221.7771590987559
 30
0.0
 40
0.5
100
AcDbArc
 50
203.0639175622022
 51
270.0
  0
ARC
  5
2591
330
1F
100
AcDbEntity
  8
AM_VIS
100
AcDbCircle
 10
322.6316936446265
 20
220.7771590987559
 30
0.0
 40
0.4999999999999991
100
AcDbArc
 50
0.0
 51
90.0
  0
ARC
  5
2592
330
1F
100
AcDbEntity
  8
AM_VIS
100
AcDbCircle
 10
295.1316936446265
 20
221.7771590987559
 30
0.0
 40
0.5000000000000036
100
AcDbArc
 50
336.9360824377979
 51
0.0
  0
ARC
  5
2593
330
1F
100
AcDbEntity
  8
AM_VIS
100
AcDbCircle
 10
295.1316936446265
 20
221.7771590987559
 30
0.0
 40
0.5000000000000036
100
AcDbArc
 50
270.0
 51
336.9360824377979
  0
LINE
  5
2594
330
1F
100
AcDbEntity
  8
AM_VIS
100
AcDbLine
 10
323.1316936446265
 20
225.8771590987558
 30
0.0
 11
323.1316936446265
 21
227.4771590987558
 31
0.0
  0
LINE
  5
2595
330
1F
100
AcDbEntity
  8
AM_VIS
100
AcDbLine
 10
323.1316936446265
 20
227.4771590987558
 30
0.0
 11
323.1316936446265
 21
227.9771590987558
 31
0.0
  0
LINE
  5
2596
330
1F
100
AcDbEntity
  8
AM_VIS
100
AcDbLine
 10
288.1316936446264
 20
227.4771590987558
 30
0.0
 11
288.1316936446264
 21
227.9771590987558
 31
0.0
  0
LINE
  5
2597
330
1F
100
AcDbEntity
  8
AM_VIS
100
AcDbLine
 10
288.1316936446264
 20
225.8771590987558
 30
0.0
 11
288.1316936446264
 21
227.4771590987558
 31
0.0
  0
LINE
  5
2598
330
1F
100
AcDbEntity
  8
AM_VIS
100
AcDbLine
 10
322.6316936446265
 20
225.8771590987558
 30
0.0
 11
323.1316936446265
 21
225.8771590987558
 31
0.0
  0
LINE
  5
2599
330
1F
100
AcDbEntity
  8
AM_VIS
100
AcDbLine
 10
315.1316936446264
 20
225.8771590987558
 30
0.0
 11
320.3286321013255
 21
225.8771590987558
 31
0.0
  0
LINE
  5
259A
330
1F
100
AcDbEntity
  8
AM_VIS
100
AcDbLine
 10
301.4783817131674
 20
225.8771590987558
 30
0.0
 11
309.7850055760855
 21
225.8771590987558
 31
0.0
  0
LINE
  5
259B
330
1F
100
AcDbEntity
  8
AM_VIS
100
AcDbLine
 10
290.9347551879274
 20
225.8771590987558
 30
0.0
 11
296.1316936446264
 21
225.8771590987558
 31
0.0
  0
LINE
  5
259C
330
1F
100
AcDbEntity
  8
AM_VIS
100
AcDbLine
 10
288.1316936446264
 20
225.8771590987558
 30
0.0
 11
288.6316936446265
 21
225.8771590987558
 31
0.0
  0
LINE
  5
259D
330
1F
100
AcDbEntity
  8
AM_VIS
100
AcDbLine
 10
288.1316936446264
 20
227.4771590987558
 30
0.0
 11
323.1316936446265
 21
227.4771590987558
 31
0.0
  0
LINE
  5
259E
330
1F
100
AcDbEntity
  8
AM_VIS
100
AcDbLine
 10
315.7243386723199
 20
223.3360966108837
 30
0.0
 11
315.6316936446266
 21
222.2771590987559
 31
0.0
  0
LINE
  5
259F
330
1F
100
AcDbEntity
  8
AM_VIS
100
AcDbLine
 10
323.539048616933
 20
223.3360966108837
 30
0.0
 11
323.6316936446266
 21
222.2771590987559
 31
0.0
  0
LINE
  5
25A0
330
1F
100
AcDbEntity
  8
AM_VIS
100
AcDbLine
 10
323.6316936446266
 20
222.2771590987559
 30
0.0
 11
315.6316936446265
 21
222.2771590987559
 31
0.0
  0
LINE
  5
25A1
330
1F
100
AcDbEntity
  8
AM_VIS
100
AcDbLine
 10
319.6963062216247
 20
221.3065740987559
 30
0.0
 11
319.5204778364084
 21
221.3065740987559
 31
0.0
  0
LINE
  5
25A2
330
1F
100
AcDbEntity
  8
AM_VIS
100
AcDbLine
 10
317.4316936446266
 20
224.9935305721051
 30
0.0
 11
317.4448582564414
 21
224.9782021231068
 31
0.0
  0
ARC
  5
25A3
330
1F
100
AcDbEntity
  8
AM_VIS
100
AcDbCircle
 10
319.6316936446266
 20
218.8771590987559
 30
0.0
 40
6.481124516625182
100
AcDbArc
 50
70.28047658469721
 51
80.40794835775217
  0
LINE
  5
25A4
330
1F
100
AcDbEntity
  8
AM_VIS
100
AcDbLine
 10
321.8185290328116
 20
224.9782021231068
 30
0.0
 11
321.8316936446265
 21
224.9935305721051
 31
0.0
  0
LINE
  5
25A5
330
1F
100
AcDbEntity
  8
AM_VIS
100
AcDbLine
 10
320.1266936446285
 20
224.9782021231067
 30
0.0
 11
320.1266936446285
 21
225.2676720672115
 31
0.0
  0
LINE
  5
25A6
330
1F
100
AcDbEntity
  8
AM_VIS
100
AcDbLine
 10
319.1366936446285
 20
225.2676720672115
 30
0.0
 11
319.1366936446285
 21
224.9782021231069
 31
0.0
  0
ELLIPSE
  5
25A7
330
1F
100
AcDbEntity
  8
AM_VIS
100
AcDbEllipse
 10
319.6316936446266
 20
220.386130427781
 30
0.0
 11
6.073381703024877
 21
0.0
 31
0.0
210
0.0
220
0.0
230
1.0
 40
0.7586218633400571
 41
1.489202628671837
 42
1.652390024917297
  0
ARC
  5
25A8
330
1F
100
AcDbEntity
  8
AM_VIS
100
AcDbCircle
 10
319.6316936446266
 20
218.8771590987559
 30
0.0
 40
6.481124516625182
100
AcDbArc
 50
99.59205164224783
 51
109.7195234153028
  0
LINE
  5
25A9
330
1F
100
AcDbEntity
  8
AM_VIS
100
AcDbLine
 10
318.5517311452776
 20
225.2676720672116
 30
0.0
 11
319.1366936446285
 21
225.2676720672116
 31
0.0
  0
LINE
  5
25AA
330
1F
100
AcDbEntity
  8
AM_VIS
100
AcDbLine
 10
320.1266936446285
 20
225.2676720672116
 30
0.0
 11
320.7116561439755
 21
225.2676720672116
 31
0.0
  0
ARC
  5
25AB
330
1F
100
AcDbEntity
  8
AM_VIS
100
AcDbCircle
 10
317.3182501892668
 20
223.1966474224874
 30
0.0
 40
1.6
100
AcDbArc
 50
118.1727341318651
 51
174.999999999997
  0
ARC
  5
25AC
330
1F
100
AcDbEntity
  8
AM_VIS
100
AcDbCircle
 10
321.9451370999863
 20
223.1966474224874
 30
0.0
 40
1.599999999999999
100
AcDbArc
 50
5.000000000002987
 51
61.82726586813482
  0
ARC
  5
25AD
330
1F
100
AcDbEntity
  8
AM_VIS
100
AcDbCircle
 10
319.6316936446266
 20
218.8771590987559
 30
0.0
 40
6.5
100
AcDbArc
 50
61.82726586813482
 51
70.21682962734067
  0
ARC
  5
25AE
330
1F
100
AcDbEntity
  8
AM_VIS
100
AcDbCircle
 10
319.6316936446266
 20
218.8771590987559
 30
0.0
 40
6.5
100
AcDbArc
 50
109.7831703726593
 51
118.1727341318651
  0
LINE
  5
25AF
330
1F
100
AcDbEntity
  8
AM_VIS
100
AcDbLine
 10
287.72433867232
 20
223.3360966108837
 30
0.0
 11
287.6316936446265
 21
222.2771590987559
 31
0.0
  0
LINE
  5
25B0
330
1F
100
AcDbEntity
  8
AM_VIS
100
AcDbLine
 10
295.539048616933
 20
223.3360966108837
 30
0.0
 11
295.6316936446265
 21
222.2771590987559
 31
0.0
  0
LINE
  5
25B1
330
1F
100
AcDbEntity
  8
AM_VIS
100
AcDbLine
 10
295.6316936446265
 20
222.2771590987559
 30
0.0
 11
287.6316936446265
 21
222.2771590987559
 31
0.0
  0
LINE
  5
25B2
330
1F
100
AcDbEntity
  8
AM_VIS
100
AcDbLine
 10
291.6963062216247
 20
221.3065740987559
 30
0.0
 11
291.5204778364084
 21
221.3065740987559
 31
0.0
  0
LINE
  5
25B3
330
1F
100
AcDbEntity
  8
AM_VIS
100
AcDbLine
 10
289.4316936446265
 20
224.9935305721051
 30
0.0
 11
289.4448582564414
 21
224.9782021231068
 31
0.0
  0
ARC
  5
25B4
330
1F
100
AcDbEntity
  8
AM_VIS
100
AcDbCircle
 10
291.6316936446265
 20
218.8771590987559
 30
0.0
 40
6.481124516625182
100
AcDbArc
 50
70.28047658469721
 51
80.40794835775217
  0
LINE
  5
25B5
330
1F
100
AcDbEntity
  8
AM_VIS
100
AcDbLine
 10
293.8185290328115
 20
224.9782021231068
 30
0.0
 11
293.8316936446264
 21
224.9935305721051
 31
0.0
  0
LINE
  5
25B6
330
1F
100
AcDbEntity
  8
AM_VIS
100
AcDbLine
 10
292.1266936446285
 20
224.9782021231067
 30
0.0
 11
292.1266936446285
 21
225.2676720672115
 31
0.0
  0
LINE
  5
25B7
330
1F
100
AcDbEntity
  8
AM_VIS
100
AcDbLine
 10
291.1366936446285
 20
225.2676720672115
 30
0.0
 11
291.1366936446285
 21
224.9782021231069
 31
0.0
  0
ELLIPSE
  5
25B8
330
1F
100
AcDbEntity
  8
AM_VIS
100
AcDbEllipse
 10
291.6316936446265
 20
220.386130427781
 30
0.0
 11
6.073381703024877
 21
0.0
 31
0.0
210
0.0
220
0.0
230
1.0
 40
0.7586218633400571
 41
1.489202628671837
 42
1.652390024917297
  0
ARC
  5
25B9
330
1F
100
AcDbEntity
  8
AM_VIS
100
AcDbCircle
 10
291.6316936446265
 20
218.8771590987559
 30
0.0
 40
6.481124516625182
100
AcDbArc
 50
99.59205164224783
 51
109.7195234153028
  0
LINE
  5
25BA
330
1F
100
AcDbEntity
  8
AM_VIS
100
AcDbLine
 10
290.5517311452776
 20
225.2676720672116
 30
0.0
 11
291.1366936446284
 21
225.2676720672116
 31
0.0
  0
LINE
  5
25BB
330
1F
100
AcDbEntity
  8
AM_VIS
100
AcDbLine
 10
292.1266936446285
 20
225.2676720672116
 30
0.0
 11
292.7116561439754
 21
225.2676720672116
 31
0.0
  0
ARC
  5
25BC
330
1F
100
AcDbEntity
  8
AM_VIS
100
AcDbCircle
 10
289.3182501892667
 20
223.1966474224874
 30
0.0
 40
1.6
100
AcDbArc
 50
118.1727341318651
 51
174.999999999997
  0
ARC
  5
25BD
330
1F
100
AcDbEntity
  8
AM_VIS
100
AcDbCircle
 10
293.9451370999862
 20
223.1966474224874
 30
0.0
 40
1.599999999999999
100
AcDbArc
 50
5.000000000002987
 51
61.82726586813482
  0
ARC
  5
25BE
330
1F
100
AcDbEntity
  8
AM_VIS
100
AcDbCircle
 10
291.6316936446265
 20
218.8771590987559
 30
0.0
 40
6.5
100
AcDbArc
 50
61.82726586813482
 51
70.21682962734067
  0
ARC
  5
25BF
330
1F
100
AcDbEntity
  8
AM_VIS
100
AcDbCircle
 10
291.6316936446265
 20
218.8771590987559
 30
0.0
 40
6.5
100
AcDbArc
 50
109.7831703726593
 51
118.1727341318651
  0
ELLIPSE
  5
25C0
330
1F
100
AcDbEntity
  8
AM_VIS
100
AcDbEllipse
 10
319.6316936446264
 20
221.727663614865
 30
0.0
 11
-2.036665163163057
 21
5.631695971709541
 31
0.0
210
0.0
220
0.0
230
0.9999999999999998
 40
0.0414513977468011
 41
1.458090420066077
 42
1.635877842399412
  0
LINE
  5
25C1
330
1F
100
AcDbEntity
  8
AM_VIS
100
AcDbLine
 10
319.4075403054155
 20
221.2771590987559
 30
0.0
 11
319.3054948172366
 21
221.2771590987559
 31
0.0
  0
ELLIPSE
  5
25C2
330
1F
100
AcDbEntity
  8
AM_VIS
100
AcDbEllipse
 10
319.6316936446264
 20
221.727663614865
 30
0.0
 11
-3.775281765863218
 21
10.43924131341278
 31
0.0
210
0.0
220
0.0
230
0.9999999999999998
 40
0.0414513977468011
 41
1.503150920653563
 42
1.598970292179327
  0
ELLIPSE
  5
25C3
330
1F
100
AcDbEntity
  8
AM_VIS
100
AcDbEllipse
 10
319.6316936446264
 20
222.8266545826467
 30
0.0
 11
-3.775281765863218
 21
10.43924131341278
 31
0.0
210
0.0
220
0.0
230
0.9999999999999998
 40
0.0414513977468011
 41
1.608462737176699
 42
1.704770357614979
  0
LINE
  5
25C4
330
1F
100
AcDbEntity
  8
AM_VIS
100
AcDbLine
 10
323.4316936446264
 20
221.2771590987559
 30
0.0
 11
323.4316936446264
 21
222.2771590987559
 31
0.0
  0
LINE
  5
25C5
330
1F
100
AcDbEntity
  8
AM_VIS
100
AcDbLine
 10
315.8316936446264
 20
221.3771590987559
 30
0.0
 11
315.8316936446264
 21
222.2771590987558
 31
0.0
  0
LINE
  5
25C6
330
1F
100
AcDbEntity
  8
AM_VIS
100
AcDbLine
 10
323.4316936446264
 20
221.2771590987559
 30
0.0
 11
319.7071281598999
 21
221.2771590987559
 31
0.0
  0
LINE
  5
25C7
330
1F
100
AcDbEntity
  8
AM_VIS
100
AcDbLine
 10
319.3054948172366
 20
221.2771590987559
 30
0.0
 11
317.2993128866883
 21
221.2771590987559
 31
0.0
  0
ELLIPSE
  5
25C8
330
1F
100
AcDbEntity
  8
AM_VIS
100
AcDbEllipse
 10
291.6316936446265
 20
221.727663614865
 30
0.0
 11
-2.036665163163044
 21
5.631695971709547
 31
0.0
210
0.0
220
0.0
230
1.0
 40
0.0414513977468007
 41
1.458090420066029
 42
1.635877842399364
  0
LINE
  5
25C9
330
1F
100
AcDbEntity
  8
AM_VIS
100
AcDbLine
 10
291.4075403054155
 20
221.2771590987559
 30
0.0
 11
291.3054948172365
 21
221.2771590987559
 31
0.0
  0
ELLIPSE
  5
25CA
330
1F
100
AcDbEntity
  8
AM_VIS
100
AcDbEllipse
 10
291.6316936446265
 20
221.727663614865
 30
0.0
 11
-3.775281765863195
 21
10.43924131341279
 31
0.0
210
0.0
220
0.0
230
0.9999999999999998
 40
0.0414513977468007
 41
1.503150920653571
 42
1.598970292179334
  0
ELLIPSE
  5
25CB
330
1F
100
AcDbEntity
  8
AM_VIS
100
AcDbEllipse
 10
291.6316936446265
 20
222.8266545826467
 30
0.0
 11
-3.775281765863195
 21
10.43924131341279
 31
0.0
210
0.0
220
0.0
230
0.9999999999999998
 40
0.0414513977468007
 41
1.608462737176697
 42
1.704770357614977
  0
LINE
  5
25CC
330
1F
100
AcDbEntity
  8
AM_VIS
100
AcDbLine
 10
295.4316936446265
 20
221.3771590987558
 30
0.0
 11
295.4316936446265
 21
222.2771590987559
 31
0.0
  0
LINE
  5
25CD
330
1F
100
AcDbEntity
  8
AM_VIS
100
AcDbLine
 10
287.8316936446265
 20
221.2771590987559
 30
0.0
 11
287.8316936446265
 21
222.2771590987559
 31
0.0
  0
LINE
  5
25CE
330
1F
100
AcDbEntity
  8
AM_VIS
100
AcDbLine
 10
293.9640744025646
 20
221.2771590987559
 30
0.0
 11
291.7071281598999
 21
221.2771590987559
 31
0.0
  0
LINE
  5
25CF
330
1F
100
AcDbEntity
  8
AM_VIS
100
AcDbLine
 10
291.3054948172365
 20
221.2771590987559
 30
0.0
 11
287.8316936446264
 21
221.2771590987559
 31
0.0
  0
LINE
  5
25D0
330
1F
100
AcDbEntity
  8
AM_VIS
100
AcDbLine
 10
323.2816936446265
 20
194.5771590987559
 30
0.0
 11
323.2816936446265
 21
196.8771590987559
 31
0.0
  0
LINE
  5
25D1
330
1F
100
AcDbEntity
  8
AM_VIS
100
AcDbLine
 10
288.1281402540332
 20
194.5771590987559
 30
0.0
 11
289.8352470352197
 21
194.5771590987559
 31
0.0
  0
LINE
  5
25D2
330
1F
100
AcDbEntity
  8
AM_VIS
100
AcDbLine
 10
290.1888004258129
 20
194.5771590987559
 30
0.0
 11
321.0745868634399
 21
194.5771590987559
 31
0.0
  0
LINE
  5
25D3
330
1F
100
AcDbEntity
  8
AM_VIS
100
AcDbLine
 10
321.4281402540331
 20
194.5771590987559
 30
0.0
 11
323.1352470352198
 21
194.5771590987559
 31
0.0
  0
LINE
  5
25D4
330
1F
100
AcDbEntity
  8
AM_VIS
100
AcDbLine
 10
287.9816936446265
 20
196.8771590987559
 30
0.0
 11
287.9816936446265
 21
194.5771590987559
 31
0.0
  0
LINE
  5
25D5
330
1F
100
AcDbEntity
  8
AM_VIS
100
AcDbLine
 10
323.1352470352198
 20
196.8771590987559
 30
0.0
 11
321.4281402540331
 21
196.8771590987559
 31
0.0
  0
LINE
  5
25D6
330
1F
100
AcDbEntity
  8
AM_VIS
100
AcDbLine
 10
321.0745868634399
 20
196.8771590987559
 30
0.0
 11
290.1888004258129
 21
196.8771590987559
 31
0.0
  0
LINE
  5
25D7
330
1F
100
AcDbEntity
  8
AM_VIS
100
AcDbLine
 10
289.8352470352197
 20
196.8771590987559
 30
0.0
 11
288.1281402540332
 21
196.8771590987559
 31
0.0
  0
LINE
  5
25D8
330
1F
100
AcDbEntity
  8
AM_VIS
100
AcDbLine
 10
288.1281402540332
 20
194.5771590987559
 30
0.0
 11
287.9816936446265
 21
194.5771590987559
 31
0.0
  0
LINE
  5
25D9
330
1F
100
AcDbEntity
  8
AM_VIS
100
AcDbLine
 10
290.1888004258129
 20
194.5771590987559
 30
0.0
 11
289.8352470352197
 21
194.5771590987559
 31
0.0
  0
LINE
  5
25DA
330
1F
100
AcDbEntity
  8
AM_VIS
100
AcDbLine
 10
321.4281402540331
 20
194.5771590987559
 30
0.0
 11
321.0745868634399
 21
194.5771590987559
 31
0.0
  0
LINE
  5
25DB
330
1F
100
AcDbEntity
  8
AM_VIS
100
AcDbLine
 10
323.2816936446265
 20
194.5771590987559
 30
0.0
 11
323.1352470352198
 21
194.5771590987559
 31
0.0
  0
LINE
  5
25DC
330
1F
100
AcDbEntity
  8
AM_VIS
100
AcDbLine
 10
323.1352470352198
 20
196.8771590987559
 30
0.0
 11
323.2816936446265
 21
196.8771590987559
 31
0.0
  0
LINE
  5
25DD
330
1F
100
AcDbEntity
  8
AM_VIS
100
AcDbLine
 10
321.0745868634399
 20
196.8771590987559
 30
0.0
 11
321.4281402540331
 21
196.8771590987559
 31
0.0
  0
LINE
  5
25DE
330
1F
100
AcDbEntity
  8
AM_VIS
100
AcDbLine
 10
289.8352470352197
 20
196.8771590987559
 30
0.0
 11
290.1888004258129
 21
196.8771590987559
 31
0.0
  0
LINE
  5
25DF
330
1F
100
AcDbEntity
  8
AM_VIS
100
AcDbLine
 10
287.9816936446265
 20
196.8771590987559
 30
0.0
 11
288.1281402540332
 21
196.8771590987559
 31
0.0
  0
LINE
  5
25E0
330
1F
100
AcDbEntity
  8
AM_VIS
100
AcDbLine
 10
323.1316936446265
 20
216.5771590987558
 30
0.0
 11
321.1316936446265
 21
216.5771590987558
 31
0.0
  0
LINE
  5
25E1
330
1F
100
AcDbEntity
  8
AM_VIS
100
AcDbLine
 10
290.1316936446264
 20
216.5771590987558
 30
0.0
 11
288.1316936446264
 21
216.5771590987558
 31
0.0
  0
LINE
  5
25E2
330
1F
100
AcDbEntity
  8
AM_VIS
100
AcDbLine
 10
323.1316936446265
 20
196.8771590987559
 30
0.0
 11
323.1316936446265
 21
216.5771590987559
 31
0.0
  0
LINE
  5
25E3
330
1F
100
AcDbEntity
  8
AM_VIS
100
AcDbLine
 10
288.1316936446264
 20
216.5771590987559
 30
0.0
 11
288.1316936446264
 21
196.8771590987559
 31
0.0
  0
LINE
  5
25E4
330
1F
100
AcDbEntity
  8
AM_VIS
100
AcDbLine
 10
300.6316936446264
 20
199.0771590987558
 30
0.0
 11
305.6316936446265
 21
199.0771590987558
 31
0.0
  0
LINE
  5
25E5
330
1F
100
AcDbEntity
  8
AM_VIS
100
AcDbLine
 10
300.6316936446264
 20
198.0771590987558
 30
0.0
 11
300.6316936446264
 21
199.0771590987558
 31
0.0
  0
LINE
  5
25E6
330
1F
100
AcDbEntity
  8
AM_VIS
100
AcDbLine
 10
305.6316936446265
 20
198.0771590987558
 30
0.0
 11
300.6316936446264
 21
198.0771590987558
 31
0.0
  0
LINE
  5
25E7
330
1F
100
AcDbEntity
  8
AM_VIS
100
AcDbLine
 10
305.6316936446265
 20
197.5771590987558
 30
0.0
 11
305.6316936446265
 21
198.0771590987558
 31
0.0
  0
LINE
  5
25E8
330
1F
100
AcDbEntity
  8
AM_VIS
100
AcDbLine
 10
310.6316936446265
 20
198.5771590987559
 30
0.0
 11
305.6316936446265
 21
197.5771590987559
 31
0.0
  0
LINE
  5
25E9
330
1F
100
AcDbEntity
  8
AM_VIS
100
AcDbLine
 10
305.6316936446265
 20
199.5771590987558
 30
0.0
 11
310.6316936446265
 21
198.5771590987558
 31
0.0
  0
LINE
  5
25EA
330
1F
100
AcDbEntity
  8
AM_VIS
100
AcDbLine
 10
305.6316936446265
 20
199.0771590987558
 30
0.0
 11
305.6316936446265
 21
199.5771590987558
 31
0.0
  0
LINE
  5
25EB
330
1F
100
AcDbEntity
  8
AM_VIS
100
AcDbLine
 10
321.1316936446265
 20
216.5771590987559
 30
0.0
 11
321.1316936446265
 21
196.8771590987559
 31
0.0
  0
LINE
  5
25EC
330
1F
100
AcDbEntity
  8
AM_VIS
100
AcDbLine
 10
290.1316936446264
 20
196.8771590987559
 30
0.0
 11
290.1316936446264
 21
216.5771590987559
 31
0.0
  0
LINE
  5
25ED
330
1F
100
AcDbEntity
  8
AM_VIS
100
AcDbLine
 10
321.1316936446265
 20
216.5771590987558
 30
0.0
 11
290.1316936446264
 21
216.5771590987558
 31
0.0
  0
POINT
  5
25EE
330
1F
100
AcDbEntity
  8
0
 60
     1
100
AcDbPoint
 10
-259.4189853029226
 20
537.7281009904304
 30
0.0
1001
GENIUS_GENOENT_13
1002
{
1000
MYREF
1005
25EE
1002
}
1002
{
1000
GRP
1005
0
1002
}
1001
GENIUS_GENOBJ-N-CRS_13
1002
{
1000
OWNER
1000
GEN
1002
}
1001
GENIUS_GENODEF_13
1002
{
1000
HIER
1070
    10
1002
}
1002
{
1000
MANEDIT
1070
     0
1002
}
1002
{
1000
NOSEL
1070
     0
1002
}
1002
{
1000
BEHIND
1070
     0
1002
}
1002
{
1000
OTHER
1070
     0
1002
}
1002
{
1000
REACTOR
1002
}
1001
GENIUS_GENOLIS_13
1002
{
1000
ENT
1005
2527
1005
2526
1005
2525
1005
2524
1002
}
  0
POINT
  5
25EF
330
1F
100
AcDbEntity
  8
0
 60
     1
100
AcDbPoint
 10
-259.4189853029226
 20
537.7281009904304
 30
0.0
1001
GENIUS_GENOENT_13
1002
{
1000
MYREF
1005
25EF
1002
}
1002
{
1000
GRP
1005
0
1002
}
1001
GENIUS_GENODEF_13
1002
{
1000
HIER
1070
    10
1002
}
1002
{
1000
MANEDIT
1070
     0
1002
}
1002
{
1000
NOSEL
1070
     0
1002
}
1002
{
1000
BEHIND
1070
     0
1002
}
1002
{
1000
OTHER
1070
     0
1002
}
1002
{
1000
REACTOR
1002
}
1001
GENIUS_GENOBJ-N-CRS_13
1002
{
1000
OWNER
1000
GEN
1002
}
1001
GENIUS_GENOLIS_13
1002
{
1000
ENT
1005
2521
1005
2520
1005
251F
1005
251E
1002
}
  0
POINT
  5
25F0
330
1F
100
AcDbEntity
  8
0
 60
     1
100
AcDbPoint
 10
-259.4189853029226
 20
537.7281009904304
 30
0.0
1001
GENIUS_GENOBJ-N-CRS_13
1002
{
1000
OWNER
1000
GEN
1002
}
1001
GENIUS_GENOLIS_13
1002
{
1000
ENT
1005
2503
1005
2502
1005
2501
1005
2500
1002
}
1001
GENIUS_GENOENT_13
1002
{
1000
MYREF
1005
25F0
1002
}
1002
{
1000
GRP
1005
0
1002
}
1001
GENIUS_GENODEF_13
1002
{
1000
HIER
1070
    10
1002
}
1002
{
1000
MANEDIT
1070
     0
1002
}
1002
{
1000
NOSEL
1070
     0
1002
}
1002
{
1000
BEHIND
1070
     0
1002
}
1002
{
1000
OTHER
1070
     0
1002
}
1002
{
1000
REACTOR
1002
}
  0
POINT
  5
25F1
330
1F
100
AcDbEntity
  8
0
 60
     1
100
AcDbPoint
 10
-234.4189853029226
 20
537.7281009904304
 30
0.0
1001
GENIUS_GENOBJ-N-CRS_13
1002
{
1000
OWNER
1000
GEN
1002
}
1001
GENIUS_GENODEF_13
1002
{
1000
HIER
1070
    10
1002
}
1002
{
1000
MANEDIT
1070
     0
1002
}
1002
{
1000
NOSEL
1070
     0
1002
}
1002
{
1000
BEHIND
1070
     0
1002
}
1002
{
1000
OTHER
1070
     0
1002
}
1002
{
1000
REACTOR
1002
}
1001
GENIUS_GENOLIS_13
1002
{
1000
ENT
1005
24FF
1005
24FE
1005
24FD
1005
24FC
1002
}
1001
GENIUS_GENOENT_13
1002
{
1000
MYREF
1005
25F1
1002
}
1002
{
1000
GRP
1005
0
1002
}
  0
POINT
  5
25F2
330
1F
100
AcDbEntity
  8
0
 60
     1
100
AcDbPoint
 10
-259.4189853029226
 20
537.7281009904304
 30
0.0
1001
GENIUS_GENOBJ-N-CRS_13
1002
{
1000
OWNER
1000
GEN
1002
}
1001
GENIUS_GENODEF_13
1002
{
1000
HIER
1070
    10
1002
}
1002
{
1000
MANEDIT
1070
     0
1002
}
1002
{
1000
NOSEL
1070
     0
1002
}
1002
{
1000
BEHIND
1070
     0
1002
}
1002
{
1000
OTHER
1070
     0
1002
}
1002
{
1000
REACTOR
1002
}
1001
GENIUS_GENOLIS_13
1002
{
1000
ENT
1005
24FB
1005
24FA
1005
24F9
1005
24F8
1002
}
1001
GENIUS_GENOENT_13
1002
{
1000
MYREF
1005
25F2
1002
}
1002
{
1000
GRP
1005
0
1002
}
  0
ENDSEC
  0
SECTION
  2
OBJECTS
  0
DICTIONARY
  5
C
330
0
100
AcDbDictionary
281
     1
  3
ACAD_COLOR
350
7D1
  3
ACAD_GROUP
350
D
  3
ACAD_LAYOUT
350
1A
  3
ACAD_MATERIAL
350
7D0
  3
ACAD_MLINESTYLE
350
17
  3
ACAD_PLOTSETTINGS
350
19
  3
ACAD_PLOTSTYLENAME
350
E
  3
ACAD_TABLESTYLE
350
7D2
  3
ACDBHEADERROUNDTRIPXREC
350
287E
  3
AcDbVariableDictionary
350
82
  3
AcmDictionary
350
45
  3
AMG
350
2B
  3
AMGSNAPSETTINGS
350
87
  3
DWGPROPS
350
287D
  0
DICTIONARY
  5
AAB
330
2
100
AcDbDictionary
280
     1
281
     1
  3
ACAD_LAYERSTATES
360
AAC
  3
AMLAYER_GROUPCOLORS
360
15F6
  0
DICTIONARY
  5
7D
330
1F
100
AcDbDictionary
280
     1
281
     1
  3
ACAD_SORTENTS
360
EEA
  0
DICTIONARY
  5
2506
330
2505
100
AcDbDictionary
280
     1
281
     1
  3
ACAD_DIMASSOC
360
2507
  0
DICTIONARY
  5
2509
330
2508
100
AcDbDictionary
280
     1
281
     1
  3
ACAD_DIMASSOC
360
250A
  0
DICTIONARY
  5
250C
330
250B
100
AcDbDictionary
280
     1
281
     1
  3
ACAD_DIMASSOC
360
250D
  0
DICTIONARY
  5
250F
330
250E
100
AcDbDictionary
280
     1
281
     1
  3
ACAD_DIMASSOC
360
2510
  0
DICTIONARY
  5
2512
330
2511
100
AcDbDictionary
280
     1
281
     1
  3
ACAD_DIMASSOC
360
2513
  0
DICTIONARY
  5
2515
330
2514
100
AcDbDictionary
280
     1
281
     1
  3
ACAD_DIMASSOC
360
2516
  0
DICTIONARY
  5
2539
330
2538
100
AcDbDictionary
280
     1
281
     1
  3
ACAD_DIMASSOC
360
253A
  0
DICTIONARY
  5
253C
330
253B
100
AcDbDictionary
280
     1
281
     1
  3
ACAD_DIMASSOC
360
253D
  0
DICTIONARY
  5
253F
330
253E
100
AcDbDictionary
280
     1
281
     1
  3
ACAD_DIMASSOC
360
2540
  0
DICTIONARY
  5
7D1
102
{ACAD_REACTORS
330
C
102
}
330
C
100
AcDbDictionary
281
     1
  0
DICTIONARY
  5
D
102
{ACAD_REACTORS
330
C
102
}
330
C
100
AcDbDictionary
281
     1
  0
DICTIONARY
  5
1A
102
{ACAD_REACTORS
330
C
102
}
330
C
100
AcDbDictionary
281
     1
  3
Layout1
350
1E
  3
Layout2
350
26
  3
Model
350
22
  0
DICTIONARY
  5
7D0
102
{ACAD_REACTORS
330
C
102
}
330
C
100
AcDbDictionary
281
     1
  0
DICTIONARY
  5
17
102
{ACAD_REACTORS
330
C
102
}
330
C
100
AcDbDictionary
281
     1
  3
Standard
350
18
  0
DICTIONARY
  5
19
102
{ACAD_REACTORS
330
C
102
}
330
C
100
AcDbDictionary
281
     1
  0
ACDBDICTIONARYWDFLT
  5
E
102
{ACAD_REACTORS
330
C
102
}
330
C
100
AcDbDictionary
281
     1
  3
Normal
350
F
100
AcDbDictionaryWithDefault
340
F
  0
DICTIONARY
  5
7D2
102
{ACAD_REACTORS
330
C
102
}
330
C
100
AcDbDictionary
281
     1
  3
Standard
350
7D3
  0
DICTIONARY
  5
287E
102
{ACAD_REACTORS
330
C
102
}
330
C
100
AcDbDictionary
281
     1
  0
DICTIONARY
  5
82
102
{ACAD_REACTORS
330
C
102
}
330
C
100
AcDbDictionary
281
     1
  3
CTABLESTYLE
350
847
  3
DIMASSOC
350
85
  3
HIDETEXT
350
84
  3
INDEXCTL
350
83
  3
PROJECTNAME
350
848
  0
DICTIONARY
  5
45
102
{ACAD_REACTORS
330
C
102
}
330
C
100
AcDbDictionary
281
     1
  3
AcmStdDictionary
350
4A
  3
AMDTSECTSYM_ARROWCOLOR
350
7DF
  0
DICTIONARY
  5
2B
102
{ACAD_REACTORS
330
C
102
}
330
C
100
AcDbDictionary
281
     1
  0
DICTIONARY
  5
87
102
{ACAD_REACTORS
330
C
102
}
330
C
100
AcDbDictionary
281
     1
  0
XRECORD
  5
287D
102
{ACAD_REACTORS
330
C
102
}
330
C
100
AcDbXrecord
280
     1
  1
DWGPROPS COOKIE
  2

  3

  4

  6

  7

  8

  9

300
AmdtFileType=84
301
=
302
=
303
=
304
=
305
=
306
=
307
=
308
=
309
=
 40
0.3099727546296296
 41
2453021.369367211
 42
2453559.704350405
  1

 90
        1
  0
DICTIONARY
  5
AAC
102
{ACAD_REACTORS
330
AAB
102
}
330
AAB
100
AcDbDictionary
281
     1
  0
DICTIONARY
  5
15F6
102
{ACAD_REACTORS
330
AAB
102
}
330
AAB
100
AcDbDictionary
280
     1
281
     1
  0
SORTENTSTABLE
  5
EEA
102
{ACAD_REACTORS
330
7D
102
}
330
7D
100
AcDbSortentsTable
330
1F
  0
DIMASSOC
  5
2507
102
{ACAD_REACTORS
330
2506
102
}
330
2506
100
AcDbDimAssoc
330
2505
 90
        3
 70
     0
 71
     0
  1
AcDbOsnapPointRef
 72
    13
331
2394
 73
     0
 91
        0
 40
0.0
 10
0.0
 20
0.0
 30
2.000000000000000E+50
 75
     0
  1
AcDbOsnapPointRef
 72
     1
331
2500
 73
     0
 91
        0
 40
0.0
 10
0.0
 20
0.0
 30
2.000000000000000E+50
 75
     0
  0
DIMASSOC
  5
250A
102
{ACAD_REACTORS
330
2509
102
}
330
2509
100
AcDbDimAssoc
330
2508
 90
        3
 70
     0
 71
     0
  1
AcDbOsnapPointRef
 72
     1
331
2500
 73
     0
 91
        0
 40
0.0
 10
0.0
 20
0.0
 30
2.000000000000000E+50
 75
     0
  1
AcDbOsnapPointRef
 72
     1
331
2504
 73
     0
 91
        0
 40
0.0
 10
0.0
 20
0.0
 30
2.000000000000000E+50
 75
     0
  0
DIMASSOC
  5
250D
102
{ACAD_REACTORS
330
250C
102
}
330
250C
100
AcDbDimAssoc
330
250B
 90
        3
 70
     0
 71
     0
  1
AcDbOsnapPointRef
 72
     1
331
2504
 73
     0
 91
        0
 40
0.0
 10
0.0
 20
0.0
 30
2.000000000000000E+50
 75
     0
  1
AcDbOsnapPointRef
 72
     1
331
231E
 73
     0
 91
        0
 40
0.0
 10
0.0
 20
0.0
 30
2.000000000000000E+50
 75
     0
  0
DIMASSOC
  5
2510
102
{ACAD_REACTORS
330
250F
102
}
330
250F
100
AcDbDimAssoc
330
250E
 90
        2
 70
     0
 71
     0
  1
AcDbOsnapPointRef
 72
     1
331
231E
 73
     0
 91
        0
 40
0.0
 10
0.0
 20
0.0
 30
2.000000000000000E+50
 75
     0
  0
DIMASSOC
  5
2513
102
{ACAD_REACTORS
330
2512
102
}
330
2512
100
AcDbDimAssoc
330
2511
 90
        3
 70
     0
 71
     0
  1
AcDbOsnapPointRef
 72
     1
331
235D
 73
     0
 91
        0
 40
0.0
 10
0.0
 20
0.0
 30
2.000000000000000E+50
 75
     0
  1
AcDbOsnapPointRef
 72
     1
331
2501
 73
     0
 91
        0
 40
0.0
 10
0.0
 20
0.0
 30
2.000000000000000E+50
 75
     0
  0
DIMASSOC
  5
2516
102
{ACAD_REACTORS
330
2515
102
}
330
2515
100
AcDbDimAssoc
330
2514
 90
        3
 70
     0
 71
     0
  1
AcDbOsnapPointRef
 72
     1
331
2501
 73
     0
 91
        0
 40
0.0
 10
0.0
 20
0.0
 30
2.000000000000000E+50
 75
     0
  1
AcDbOsnapPointRef
 72
    13
331
2352
 73
     0
 91
        0
 40
0.0
 10
0.0
 20
0.0
 30
2.000000000000000E+50
 75
     0
  0
DIMASSOC
  5
253A
102
{ACAD_REACTORS
330
2539
102
}
330
2539
100
AcDbDimAssoc
330
2538
 90
        3
 70
     0
 71
     0
  1
AcDbOsnapPointRef
 72
    13
331
251A
 73
     0
 91
        0
 40
0.0
 10
0.0
 20
0.0
 30
2.000000000000000E+50
 75
     0
  1
AcDbOsnapPointRef
 72
    13
331
251D
 73
     0
 91
        0
 40
0.0
 10
0.0
 20
0.0
 30
2.000000000000000E+50
 75
     0
  0
DIMASSOC
  5
253D
102
{ACAD_REACTORS
330
253C
102
}
330
253C
100
AcDbDimAssoc
330
253B
 90
        3
 70
     0
 71
     0
  1
AcDbOsnapPointRef
 72
    13
331
2207
 73
     0
 91
        0
 40
0.0
 10
0.0
 20
0.0
 30
2.000000000000000E+50
 75
     0
  1
AcDbOsnapPointRef
 72
     1
331
2206
 73
     0
 91
        0
 40
0.0
 10
0.0
 20
0.0
 30
2.000000000000000E+50
 75
     0
  0
DIMASSOC
  5
2540
102
{ACAD_REACTORS
330
253F
102
}
330
253F
100
AcDbDimAssoc
330
253E
 90
        3
 70
     0
 71
     0
  1
AcDbOsnapPointRef
 72
    13
331
2265
 73
     0
 91
        0
 40
0.0
 10
0.0
 20
0.0
 30
2.000000000000000E+50
 75
     0
  1
AcDbOsnapPointRef
 72
    13
331
2517
 73
     0
 91
        0
 40
0.0
 10
0.0
 20
0.0
 30
2.000000000000000E+50
 75
     0
  0
LAYOUT
  5
1E
102
{ACAD_XDICTIONARY
360
287F
102
}
102
{ACAD_REACTORS
330
1A
102
}
330
1A
100
AcDbPlotSettings
  1

  2
自動 RD 上的 Epson Stylus Photo 750 單色
  4

  6

 40
0.0
 41
0.0
 42
0.0
 43
0.0
 44
0.0
 45
0.0
 46
0.0
 47
0.0
 48
0.0
 49
0.0
140
0.0
141
0.0
142
1.0
143
1.0
 70
   688
 72
     0
 73
     0
 74
     5
  7
彩色出圖.ctb
 75
    16
147
1.0
148
0.0
149
0.0
100
AcDbLayout
  1
Layout1
 70
     1
 71
     1
 10
0.0
 20
0.0
 11
420.0
 21
297.0
 12
0.0
 22
0.0
 32
0.0
 14
1.000000000000000E+20
 24
1.000000000000000E+20
 34
1.000000000000000E+20
 15
-1.000000000000000E+20
 25
-1.000000000000000E+20
 35
-1.000000000000000E+20
146
0.0
 13
0.0
 23
0.0
 33
0.0
 16
1.0
 26
0.0
 36
0.0
 17
0.0
 27
1.0
 37
0.0
 76
     0
330
1B
  0
LAYOUT
  5
26
102
{ACAD_XDICTIONARY
360
2883
102
}
102
{ACAD_REACTORS
330
1A
102
}
330
1A
100
AcDbPlotSettings
  1

  2
自動 RD 上的 Epson Stylus Photo 750 單色
  4

  6

 40
0.0
 41
0.0
 42
0.0
 43
0.0
 44
0.0
 45
0.0
 46
0.0
 47
0.0
 48
0.0
 49
0.0
140
0.0
141
0.0
142
1.0
143
1.0
 70
   688
 72
     0
 73
     0
 74
     5
  7
彩色出圖.ctb
 75
    16
147
1.0
148
0.0
149
0.0
100
AcDbLayout
  1
Layout2
 70
     1
 71
     2
 10
0.0
 20
0.0
 11
12.0
 21
9.0
 12
0.0
 22
0.0
 32
0.0
 14
0.0
 24
0.0
 34
0.0
 15
0.0
 25
0.0
 35
0.0
146
0.0
 13
0.0
 23
0.0
 33
0.0
 16
1.0
 26
0.0
 36
0.0
 17
0.0
 27
1.0
 37
0.0
 76
     0
330
23
  0
LAYOUT
  5
22
102
{ACAD_XDICTIONARY
360
2881
102
}
102
{ACAD_REACTORS
330
1A
102
}
330
1A
100
AcDbPlotSettings
  1

  2
自動 RD 上的 Epson Stylus Photo 750 單色
  4
A4
  6

 40
3.757083177566528
 41
14.7637300491333
 42
3.757080078125
 43
3.757080078125
 44
209.9733276367187
 45
296.9683227539062
 46
7.54
 47
0.0
 48
0.0
 49
0.0
140
0.0
141
0.0
142
1.0
143
1.817317462545654
 70
 11956
 72
     1
 73
     0
 74
     1
  7
彩色出圖.ctb
 75
     0
147
0.5502615919395967
148
-125.5654918467224
149
222.8859553785132
100
AcDbLayout
  1
Model
 70
     1
 71
     0
 10
0.0
 20
0.0
 11
12.0
 21
9.0
 12
0.0
 22
0.0
 32
0.0
 14
0.0
 24
0.0
 34
0.0
 15
0.0
 25
0.0
 35
0.0
146
0.0
 13
0.0
 23
0.0
 33
0.0
 16
1.0
 26
0.0
 36
0.0
 17
0.0
 27
1.0
 37
0.0
 76
     0
330
1F
  0
MLINESTYLE
  5
18
102
{ACAD_REACTORS
330
17
102
}
330
17
100
AcDbMlineStyle
  2
STANDARD
 70
     0
  3

 62
   256
 51
90.0
 52
90.0
 71
     2
 49
0.5
 62
   256
  6
BYLAYER
 49
-0.5
 62
   256
  6
BYLAYER
  0
ACDBPLACEHOLDER
  5
F
102
{ACAD_REACTORS
330
E
102
}
330
E
  0
TABLESTYLE
  5
7D3
102
{ACAD_REACTORS
330
7D2
102
}
330
7D2
100
AcDbTableStyle
  3
Standard
 70
     0
 71
     0
 40
1.5
 41
1.5
280
     0
281
     0
  7
STANDARD
140
4.5
170
     2
 62
     0
 63
     7
283
     0
274
    -2
284
     1
 64
     0
275
    -2
285
     1
 65
     0
276
    -2
286
     1
 66
     0
277
    -2
287
     1
 67
     0
278
    -2
288
     1
 68
     0
279
    -2
289
     1
 69
     0
  7
STANDARD
140
6.0
170
     5
 62
     0
 63
     7
283
     0
274
    -2
284
     1
 64
     0
275
    -2
285
     1
 65
     0
276
    -2
286
     1
 66
     0
277
    -2
287
     1
 67
     0
278
    -2
288
     1
 68
     0
279
    -2
289
     1
 69
     0
  7
STANDARD
140
4.5
170
     5
 62
     0
 63
     7
283
     0
274
    -2
284
     1
 64
     0
275
    -2
285
     1
 65
     0
276
    -2
286
     1
 66
     0
277
    -2
287
     1
 67
     0
278
    -2
288
     1
 68
     0
279
    -2
289
     1
 69
     0
  0
DICTIONARYVAR
  5
847
102
{ACAD_REACTORS
330
82
102
}
330
82
100
DictionaryVariables
280
     0
  1
STANDARD
  0
DICTIONARYVAR
  5
85
102
{ACAD_REACTORS
330
82
102
}
330
82
100
DictionaryVariables
280
     0
  1
2
  0
DICTIONARYVAR
  5
84
102
{ACAD_REACTORS
330
82
102
}
330
82
100
DictionaryVariables
280
     0
  1
1
  0
DICTIONARYVAR
  5
83
102
{ACAD_REACTORS
330
82
102
}
330
82
100
DictionaryVariables
280
     0
  1
0
  0
DICTIONARYVAR
  5
848
102
{ACAD_REACTORS
330
82
102
}
330
82
100
DictionaryVariables
280
     0
  1

  0
DICTIONARY
  5
4A
102
{ACAD_REACTORS
330
45
102
}
330
45
100
AcDbDictionary
281
     1
  0
XRECORD
  5
7DF
102
{ACAD_REACTORS
330
45
102
}
330
45
100
AcDbXrecord
280
     1
 90
-1023410169
  0
DICTIONARY
  5
287F
330
1E
100
AcDbDictionary
280
     1
281
     1
  3
ACAD_XREC_ROUNDTRIP
360
2880
  0
DICTIONARY
  5
2883
330
26
100
AcDbDictionary
280
     1
281
     1
  3
ACAD_XREC_ROUNDTRIP
360
2884
  0
DICTIONARY
  5
2881
330
22
100
AcDbDictionary
280
     1
281
     1
  3
ACAD_XREC_ROUNDTRIP
360
2882
  0
XRECORD
  5
2880
102
{ACAD_REACTORS
330
287F
102
}
330
287F
100
AcDbXrecord
280
     1
102
SHADEPLOT
 70
     0
102
SHADEPLOTRESLEVEL
 70
     2
102
SHADEPLOTCUSTOMDPI
 70
   300
  0
XRECORD
  5
2884
102
{ACAD_REACTORS
330
2883
102
}
330
2883
100
AcDbXrecord
280
     1
102
SHADEPLOT
 70
     0
102
SHADEPLOTRESLEVEL
 70
     2
102
SHADEPLOTCUSTOMDPI
 70
   300
  0
XRECORD
  5
2882
102
{ACAD_REACTORS
330
2881
102
}
330
2881
100
AcDbXrecord
280
     1
102
SHADEPLOT
 70
     0
102
SHADEPLOTRESLEVEL
 70
     2
102
SHADEPLOTCUSTOMDPI
 70
   300
  0
ENDSEC
  0
EOF
