  0
SECTION
  2
HEADER
  9
$ACADVER
  1
AC1015
  9
$ACADMAINTVER
 70
    20
  9
$DWGCODEPAGE
  3
ANSI_950
  9
$INSBASE
 10
0.0
 20
0.0
 30
0.0
  9
$EXTMIN
 10
1.000000000000000E+20
 20
1.000000000000000E+20
 30
1.000000000000000E+20
  9
$EXTMAX
 10
0.0
 20
0.0
 30
0.0
  9
$LIMMIN
 10
0.0
 20
0.0
  9
$LIMMAX
 10
17.0
 20
11.0
  9
$ORTHOMODE
 70
     0
  9
$REGENMODE
 70
     1
  9
$FILLMODE
 70
     1
  9
$QTEXTMODE
 70
     0
  9
$MIRRTEXT
 70
     1
  9
$LTSCALE
 40
1.0
  9
$ATTMODE
 70
     1
  9
$TEXTSIZE
 40
3.0
  9
$TRACEWID
 40
0.05
  9
$TEXTSTYLE
  7
DAYUS
  9
$CLAYER
  8
0
  9
$CELTYPE
  6
BYLAYER
  9
$CECOLOR
 62
   256
  9
$CELTSCALE
 40
1.0
  9
$DISPSILH
 70
     0
  9
$DIMSCALE
 40
1.3
  9
$DIMASZ
 40
3.5
  9
$DIMEXO
 40
1.0
  9
$DIMDLI
 40
8.0
  9
$DIMRND
 40
0.0
  9
$DIMDLE
 40
0.0
  9
$DIMEXE
 40
1.0
  9
$DIMTP
 40
0.1
  9
$DIMTM
 40
0.1
  9
$DIMTXT
 40
3.5
  9
$DIMCEN
 40
0.0
  9
$DIMTSZ
 40
0.0
  9
$DIMTOL
 70
     0
  9
$DIMLIM
 70
     0
  9
$DIMTIH
 70
     0
  9
$DIMTOH
 70
     0
  9
$DIMSE1
 70
     0
  9
$DIMSE2
 70
     0
  9
$DIMTAD
 70
     1
  9
$DIMZIN
 70
     8
  9
$DIMBLK
  1

  9
$DIMASO
 70
     1
  9
$DIMSHO
 70
     1
  9
$DIMPOST
  1

  9
$DIMAPOST
  1
"
  9
$DIMALT
 70
     0
  9
$DIMALTD
 70
     2
  9
$DIMALTF
 40
0.0393701
  9
$DIMLFAC
 40
1.0
  9
$DIMTOFL
 70
     1
  9
$DIMTVP
 40
0.0
  9
$DIMTIX
 70
     0
  9
$DIMSOXD
 70
     0
  9
$DIMSAH
 70
     0
  9
$DIMBLK1
  1

  9
$DIMBLK2
  1

  9
$DIMSTYLE
  2
AM_ISO
  9
$DIMCLRD
 70
   256
  9
$DIMCLRE
 70
   256
  9
$DIMCLRT
 70
   256
  9
$DIMTFAC
 40
0.71
  9
$DIMGAP
 40
1.0
  9
$DIMJUST
 70
     0
  9
$DIMSD1
 70
     0
  9
$DIMSD2
 70
     0
  9
$DIMTOLJ
 70
     0
  9
$DIMTZIN
 70
     8
  9
$DIMALTZ
 70
     0
  9
$DIMALTTZ
 70
     0
  9
$DIMUPT
 70
     0
  9
$DIMDEC
 70
     2
  9
$DIMTDEC
 70
     2
  9
$DIMALTU
 70
     2
  9
$DIMALTTD
 70
     2
  9
$DIMTXSTY
  7
STANDARD
  9
$DIMAUNIT
 70
     0
  9
$DIMADEC
 70
     0
  9
$DIMALTRND
 40
0.0
  9
$DIMAZIN
 70
     2
  9
$DIMDSEP
 70
    46
  9
$DIMATFIT
 70
     3
  9
$DIMFRAC
 70
     0
  9
$DIMLDRBLK
  1

  9
$DIMLUNIT
 70
     2
  9
$DIMLWD
 70
    -1
  9
$DIMLWE
 70
    -1
  9
$DIMTMOVE
 70
     0
  9
$LUNITS
 70
     2
  9
$LUPREC
 70
     2
  9
$SKETCHINC
 40
0.1
  9
$FILLETRAD
 40
2.5
  9
$AUNITS
 70
     0
  9
$AUPREC
 70
     0
  9
$MENU
  1
.
  9
$ELEVATION
 40
0.0
  9
$PELEVATION
 40
0.0
  9
$THICKNESS
 40
0.0
  9
$LIMCHECK
 70
     0
  9
$CHAMFERA
 40
2.5
  9
$CHAMFERB
 40
2.5
  9
$CHAMFERC
 40
1.0
  9
$CHAMFERD
 40
0.0
  9
$SKPOLY
 70
     0
  9
$TDCREATE
 40
2452486.501936366
  9
$TDUCREATE
 40
2452486.168603033
  9
$TDUPDATE
 40
2455625.665876933
  9
$TDUUPDATE
 40
2455625.332543600
  9
$TDINDWG
 40
1.4555451505
  9
$TDUSRTIMER
 40
1.4555450347
  9
$USRTIMER
 70
     1
  9
$ANGBASE
 50
0.0
  9
$ANGDIR
 70
     0
  9
$PDMODE
 70
     0
  9
$PDSIZE
 40
0.0
  9
$PLINEWID
 40
0.0
  9
$SPLFRAME
 70
     0
  9
$SPLINETYPE
 70
     6
  9
$SPLINESEGS
 70
     8
  9
$HANDSEED
  5
1657
  9
$SURFTAB1
 70
     6
  9
$SURFTAB2
 70
     6
  9
$SURFTYPE
 70
     6
  9
$SURFU
 70
     6
  9
$SURFV
 70
     6
  9
$UCSBASE
  2

  9
$UCSNAME
  2

  9
$UCSORG
 10
0.0
 20
0.0
 30
0.0
  9
$UCSXDIR
 10
1.0
 20
0.0
 30
0.0
  9
$UCSYDIR
 10
0.0
 20
1.0
 30
0.0
  9
$UCSORTHOREF
  2

  9
$UCSORTHOVIEW
 70
     0
  9
$UCSORGTOP
 10
0.0
 20
0.0
 30
0.0
  9
$UCSORGBOTTOM
 10
0.0
 20
0.0
 30
0.0
  9
$UCSORGLEFT
 10
0.0
 20
0.0
 30
0.0
  9
$UCSORGRIGHT
 10
0.0
 20
0.0
 30
0.0
  9
$UCSORGFRONT
 10
0.0
 20
0.0
 30
0.0
  9
$UCSORGBACK
 10
0.0
 20
0.0
 30
0.0
  9
$PUCSBASE
  2

  9
$PUCSNAME
  2

  9
$PUCSORG
 10
0.0
 20
0.0
 30
0.0
  9
$PUCSXDIR
 10
1.0
 20
0.0
 30
0.0
  9
$PUCSYDIR
 10
0.0
 20
1.0
 30
0.0
  9
$PUCSORTHOREF
  2

  9
$PUCSORTHOVIEW
 70
     0
  9
$PUCSORGTOP
 10
0.0
 20
0.0
 30
0.0
  9
$PUCSORGBOTTOM
 10
0.0
 20
0.0
 30
0.0
  9
$PUCSORGLEFT
 10
0.0
 20
0.0
 30
0.0
  9
$PUCSORGRIGHT
 10
0.0
 20
0.0
 30
0.0
  9
$PUCSORGFRONT
 10
0.0
 20
0.0
 30
0.0
  9
$PUCSORGBACK
 10
0.0
 20
0.0
 30
0.0
  9
$USERI1
 70
     0
  9
$USERI2
 70
     0
  9
$USERI3
 70
     0
  9
$USERI4
 70
     0
  9
$USERI5
 70
     0
  9
$USERR1
 40
0.0
  9
$USERR2
 40
0.0
  9
$USERR3
 40
0.0
  9
$USERR4
 40
0.0
  9
$USERR5
 40
0.0
  9
$WORLDVIEW
 70
     1
  9
$SHADEDGE
 70
     3
  9
$SHADEDIF
 70
    70
  9
$TILEMODE
 70
     0
  9
$MAXACTVP
 70
    48
  9
$PINSBASE
 10
0.0
 20
0.0
 30
0.0
  9
$PLIMCHECK
 70
     0
  9
$PEXTMIN
 10
15.83951159531318
 20
20.28499549248261
 30
-0.0023951962154456
  9
$PEXTMAX
 10
266.5701718850775
 20
384.4446697926114
 30
235.9195074983357
  9
$PLIMMIN
 10
-6.805083274841308
 20
-5.365738868713378
  9
$PLIMMAX
 10
290.1209115982056
 20
414.5809164047241
  9
$UNITMODE
 70
     0
  9
$VISRETAIN
 70
     1
  9
$PLINEGEN
 70
     0
  9
$PSLTSCALE
 70
     1
  9
$TREEDEPTH
 70
  3020
  9
$CMLSTYLE
  2
STANDARD
  9
$CMLJUST
 70
     0
  9
$CMLSCALE
 40
1.0
  9
$PROXYGRAPHICS
 70
     1
  9
$MEASUREMENT
 70
     1
  9
$CELWEIGHT
370
    -1
  9
$ENDCAPS
280
     0
  9
$JOINSTYLE
280
     0
  9
$LWDISPLAY
290
     0
  9
$INSUNITS
 70
     4
  9
$HYPERLINKBASE
  1

  9
$STYLESHEET
  1

  9
$XEDIT
290
     1
  9
$CEPSNTYPE
380
     0
  9
$PSTYLEMODE
290
     1
  9
$FINGERPRINTGUID
  2
{A138208D-140B-49AA-88AB-48087993E7EE}
  9
$VERSIONGUID
  2
{0AE5232A-23A7-4A74-A263-E2A017435F4A}
  9
$EXTNAMES
290
     1
  9
$PSVPSCALE
 40
0.0
  9
$OLESTARTUP
290
     0
  0
ENDSEC
  0
SECTION
  2
CLASSES
  0
CLASS
  1
ACMESTATEMGR
  2
AcMeStateMgr
  3
AcMeServices
 90
        0
280
     0
281
     0
  0
CLASS
  1
ACMESCOPE
  2
AcMeScope
  3
AcMeServices
 90
        0
280
     0
281
     0
  0
CLASS
  1
ACMECOMMANDHISTORY
  2
AcMeCommandHistory
  3
AcMeServices
 90
        0
280
     0
281
     0
  0
CLASS
  1
ACRFINSADJUSTERMGR
  2
AcRfInsAdjusterMgr
  3
AcMeServices
 90
        0
280
     0
281
     0
  0
CLASS
  1
ACMEDRAWINGMAN
  2
AcMeDrawingMan
  3
AcMeServices
 90
        0
280
     0
281
     0
  0
CLASS
  1
AMATTR
  2
AcMeAttribute
  3
AcMeServices
 90
    32768
280
     0
281
     0
  0
CLASS
  1
ACMEBOMCOLUMN
  2
AcMeBOMColumn
  3
AcMeServices
 90
    32768
280
     0
281
     0
  0
CLASS
  1
ACMEBOMCONF
  2
AcMeBOMConf
  3
AcMeServices
 90
    32768
280
     0
281
     0
  0
CLASS
  1
ACMEBOMTABLE
  2
AcMeBOMTable
  3
AcMeServices
 90
    32768
280
     0
281
     0
  0
CLASS
  1
ACMEBOMENTRY
  2
AcMeBOMEntry
  3
AcMeServices
 90
    32768
280
     0
281
     0
  0
CLASS
  1
ACMEVIEW
  2
AcMeView
  3
AcMeServices
 90
        0
280
     0
281
     0
  0
CLASS
  1
ACGREFMASTER
  2
AcGrefMaster
  3
AcAttribServices
 90
        0
280
     0
281
     0
  0
CLASS
  1
AMIMASTER
  2
AmiMaster
  3
AmiServices
 90
        0
280
     0
281
     0
  0
CLASS
  1
ACASGREFMASTER
  2
AcAsGrefMaster
  3
AutoSurfResolverServices
 90
    32768
280
     0
281
     0
  0
CLASS
  1
ADAPPL
  2
AcAdAppl
  3
DesignerServices
 90
        0
280
     0
281
     0
  0
CLASS
  1
DEPMGR
  2
AcAdDepMgr
  3
DesignerServices
 90
        0
280
     0
281
     0
  0
CLASS
  1
PARAMMGR
  2
AcAdParamMgr
  3
DesignerServices
 90
        0
280
     0
281
     0
  0
CLASS
  1
PARAMSCOPE
  2
AcAdParamScope
  3
DesignerServices
 90
        0
280
     0
281
     0
  0
CLASS
  1
ACIMSYSVARMAN
  2
AcImSysVarManager
  3
AcMeServices
 90
        0
280
     0
281
     0
  0
CLASS
  1
ACIMINTSYSVAR
  2
AcImIntSysVar
  3
AcMeServices
 90
        0
280
     0
281
     0
  0
CLASS
  1
ACIMREALSYSVAR
  2
AcImRealSysVar
  3
AcMeServices
 90
        0
280
     0
281
     0
  0
CLASS
  1
ACIMSTRSYSVAR
  2
AcImStrSysVar
  3
AcMeServices
 90
        0
280
     0
281
     0
  0
CLASS
  1
NAMEDAPPL
  2
AcAdNamedAppl
  3
DesignerServices
 90
        0
280
     0
281
     0
  0
CLASS
  1
ADHNTMPLT
  2
AdHoleNoteTemplateMgr
  3
DesignerServices
 90
    32768
280
     0
281
     0
  0
CLASS
  1
AM_HNTEMPLATE_MGR_NAME
  2
AdHoleNoteTemplateMgrName
  3
DesignerServices
 90
    32768
280
     0
281
     0
  0
CLASS
  1
ACADGREFMODULE
  2
AcAdGrefModule
  3
AdGrefServices
 90
    32768
280
     0
281
     0
  0
CLASS
  1
AM_DRAWING_MGR
  2
AcDmDwgMgr
  3
AcMechDwgViewMgmt
 90
        0
280
     0
281
     0
  0
CLASS
  1
AM_DWG_DOCUMENT
  2
AcDmDwgDocument
  3
AcMechDwgViewMgmt
 90
        0
280
     0
281
     0
  0
CLASS
  1
AM_DWG_SHEET
  2
AcDmSheet
  3
AcMechDwgViewMgmt
 90
        0
280
     0
281
     0
  0
CLASS
  1
AM_VIEWDIMPARMAP
  2
AcDmViewDimParMap
  3
AcMechDwgViewMgmt
 90
        0
280
     0
281
     0
  0
CLASS
  1
AM_DWGMGR_NAME
  2
AcDmDwgMgrName
  3
AcMechDwgViewMgmt
 90
        0
280
     0
281
     0
  0
CLASS
  1
ACAMPROJECT
  2
AcAmProject
  3
DesignerAssemblies
 90
        0
280
     0
281
     0
  0
CLASS
  1
ACAMGRCOMPSET
  2
AcAmGrCompSet
  3
DesignerAssemblies
 90
    32768
280
     1
281
     0
  0
CLASS
  1
ACAMGRCOMPDEFSET
  2
AcAmGrCompDefSet
  3
DesignerAssemblies
 90
        0
280
     0
281
     0
  0
CLASS
  1
ACAMGRCOMPDEF
  2
AcAmGrCompDef
  3
DesignerAssemblies
 90
        0
280
     0
281
     0
  0
CLASS
  1
ACCMCONTEXT
  2
AcCmContext
  3
DesignerAssemblies
 90
        0
280
     0
281
     0
  0
CLASS
  1
ACAMCOMPDEF
  2
AcAmCompDef
  3
DesignerAssemblies
 90
        0
280
     0
281
     0
  0
CLASS
  1
ACAMCOMPDEFMGR
  2
AcAmCompDefMgr
  3
DesignerAssemblies
 90
        0
280
     0
281
     0
  0
CLASS
  1
AMCONTEXTMGR
  2
AcAmContextMgr
  3
DesignerAssemblies
 90
        0
280
     0
281
     0
  0
CLASS
  1
ACAMCONTEXTMODELER
  2
AcAmContextModeler
  3
DesignerAssemblies
 90
        0
280
     0
281
     0
  0
CLASS
  1
ACDMVIEWGEOM
  2
AcDmViewGeometry
  3
AcMechDwgViewMgmt
 90
    32768
280
     0
281
     1
  0
CLASS
  1
CBROWSERAPPOBJECT
  2
CBrowserAppObject
  3
McadcomServices
 90
        0
280
     0
281
     0
  0
CLASS
  1
IM_STATIC_MAN
  2
AcImStaticVarManager
  3
AcMeServices
 90
    32768
280
     0
281
     0
  0
CLASS
  1
ASAPP
  2
AcAsAppObject
  3
AutoSurfServices
 90
    32768
280
     0
281
     0
  0
CLASS
  1
ACIMDBLSTATICVAR
  2
AcImDblStaticVar
  3
AcMeServices
 90
    32768
280
     0
281
     0
  0
CLASS
  1
ACIMSTRSTATICVAR
  2
AcImStrStaticVar
  3
AcMeServices
 90
    32768
280
     0
281
     0
  0
CLASS
  1
ACIMINTSTATICVAR
  2
AcImIntStaticVar
  3
AcMeServices
 90
    32768
280
     0
281
     0
  0
CLASS
  1
CATALOGSTATE
  2
AcAmCatalogState
  3
DesignerAssemblies
 90
        0
280
     0
281
     0
  0
CLASS
  1
DM_PLACEHOLDER
  2
AcDmSelsetPlaceholder
  3
AcMechDwgViewMgmt
 90
        0
280
     0
281
     0
  0
CLASS
  1
DICTIONARYVAR
  2
AcDbDictionaryVar
  3
ObjectDBX Classes
 90
        0
280
     0
281
     0
  0
CLASS
  1
ACMSTANDARDJIS
  2
AcmStandardJIS
  3
"Amdt_StdImp|Product Description: AutoCAD Mechanical 2004 DX|Company: Autodesk"
 90
    32768
280
     0
281
     0
  0
CLASS
  1
ACMSTANDARDANSI
  2
AcmStandardANSI
  3
"Amdt_StdImp|Product Description: AutoCAD Mechanical 2004 DX|Company: Autodesk"
 90
    32768
280
     0
281
     0
  0
CLASS
  1
ACMSTANDARDBSI
  2
AcmStandardBSI
  3
"Amdt_StdImp|Product Description: AutoCAD Mechanical 2004 DX|Company: Autodesk"
 90
    32768
280
     0
281
     0
  0
CLASS
  1
ACMSTANDARDDIN
  2
AcmStandardDIN
  3
"Amdt_StdImp|Product Description: AutoCAD Mechanical 2004 DX|Company: Autodesk"
 90
    32768
280
     0
281
     0
  0
CLASS
  1
ACMSTANDARDISO
  2
AcmStandardISO
  3
"Amdt_StdImp|Product Description: AutoCAD Mechanical 2004 DX|Company: Autodesk"
 90
        0
280
     0
281
     0
  0
CLASS
  1
LAYER_INDEX
  2
AcDbLayerIndex
  3
ObjectDBX Classes
 90
    32768
280
     0
281
     0
  0
CLASS
  1
IDBUFFER
  2
AcDbIdBuffer
  3
ObjectDBX Classes
 90
    32768
280
     0
281
     0
  0
CLASS
  1
ACDBDICTIONARYWDFLT
  2
AcDbDictionaryWithDefault
  3
ObjectDBX Classes
 90
        0
280
     0
281
     0
  0
CLASS
  1
ACDBPLACEHOLDER
  2
AcDbPlaceHolder
  3
ObjectDBX Classes
 90
        0
280
     0
281
     0
  0
CLASS
  1
LAYOUT
  2
AcDbLayout
  3
ObjectDBX Classes
 90
        0
280
     0
281
     0
  0
CLASS
  1
ACME_DOCUMENT
  2
AcMeDbDoc
  3
AcMeServices
 90
        0
280
     0
281
     0
  0
CLASS
  1
AMGSETTINGSOBJ
  2
AmgSettingsObj
  3
"AcadM|Product Description: AutoCAD Mechanical 2000|Company: Autodesk"
 90
        0
280
     0
281
     0
  0
CLASS
  1
AMGOBJPROPCFG
  2
AmgObjPropCfg
  3
"AmgLay|Product Description: AutoCAD Mechanical 2000|Company: Autodesk"
 90
        1
280
     0
281
     0
  0
CLASS
  1
ACDBENTITYCACHE
  2
AcMeEntityCache
  3
AcMeServices
 90
        0
280
     0
281
     0
  0
CLASS
  1
GSMANAGER
  2
AcMeGSManager
  3
AcMeServices
 90
        0
280
     0
281
     0
  0
CLASS
  1
AMDTINTERNALREACTOR
  2
AmdtInternalReactor
  3
AcMeServices
 90
        0
280
     0
281
     0
  0
CLASS
  1
ACME_DATABASE
  2
AcMeDbDatabase
  3
AcMeServices
 90
        0
280
     0
281
     0
  0
CLASS
  1
ACGREFACADMASTER
  2
AcGrefacadMaster
  3
AcGrefServices
 90
        0
280
     0
281
     0
  0
CLASS
  1
AMDTMENUSTATEMGR
  2
AmdtMenuStateMgr
  3
McadcomServices
 90
        0
280
     0
281
     0
  0
CLASS
  1
AMDTMCOMMENUSTATE
  2
AmdtMcomMenuState
  3
McadcomServices
 90
        0
280
     0
281
     0
  0
CLASS
  1
MAPIADMODULE
  2
MApiAdModule
  3
MApiAdServices
 90
    32768
280
     0
281
     0
  0
CLASS
  1
AMDTDMMENUSTATE
  2
AmdtDmMenuState
  3
AcMechDwgViewMgmt
 90
        0
280
     0
281
     0
  0
CLASS
  1
AMDTADMENUSTATE
  2
AmdtAdMenuState
  3
DesignerServices
 90
        0
280
     0
281
     0
  0
CLASS
  1
AMDTAMMENUSTATE
  2
AmdtAmMenuState
  3
DesignerAssemblies
 90
        0
280
     0
281
     0
  0
CLASS
  1
ACMDATADICTIONARY
  2
AcmDataDictionary
  3
"AcmSymBB|Product Description: AutoCAD Mechanical 2004 DX|Company: Autodesk"
 90
        0
280
     0
281
     0
  0
CLASS
  1
ACMDATAENTRYBLOCK
  2
AcmDataEntryBlock
  3
"AcmSymBB|Product Description: AutoCAD Mechanical 2004 DX|Company: Autodesk"
 90
        0
280
     0
281
     0
  0
CLASS
  1
AMDTBROWSERDBTAB
  2
AmdtBrowserDbTab
  3
McadcomServices
 90
        0
280
     0
281
     0
  0
CLASS
  1
ACAMGFILTERDAT
  2
AcAmgFilterDat
  3
"AcadM|Product Description: AutoCAD Mechanical 2000|Company: Autodesk"
 90
    32768
280
     0
281
     0
  0
CLASS
  1
MAPIAMMOUDLE
  2
MApiAmModule
  3
MApiAmServices
 90
        0
280
     0
281
     0
  0
CLASS
  1
AMDTMAPISURFMOUDULE
  2
AmdtMApiSurfModule
  3
MApiSurfServices
 90
    32768
280
     0
281
     0
  0
CLASS
  1
ACMSURFSTANDARDANSI
  2
AcmSurfTextStdANSI
  3
"Amdt_StdImp|Product Description: AutoCAD Mechanical 2004 DX|Company: Autodesk"
 90
    32768
280
     0
281
     0
  0
CLASS
  1
ACMFCFSTANDARDANSI
  2
AcmFCFStdANSI
  3
"Amdt_StdImp|Product Description: AutoCAD Mechanical 2004 DX|Company: Autodesk"
 90
    32768
280
     0
281
     0
  0
CLASS
  1
ACMWELDSTANDARDANSI
  2
AcmWeldingStdANSI
  3
"Amdt_StdImp|Product Description: AutoCAD Mechanical 2004 DX|Company: Autodesk"
 90
    32768
280
     0
281
     0
  0
CLASS
  1
ACMIDSTANDARDANSI
  2
AcmIdStdANSI
  3
"Amdt_StdImp|Product Description: AutoCAD Mechanical 2004 DX|Company: Autodesk"
 90
    32768
280
     0
281
     0
  0
CLASS
  1
ACMDATUMSTANDARDANSI
  2
AcmDatumStdANSI
  3
"Amdt_StdImp|Product Description: AutoCAD Mechanical 2004 DX|Company: Autodesk"
 90
    32768
280
     0
281
     0
  0
CLASS
  1
ACMBOMSTANDARDANSI
  2
AcmBOMStdANSI
  3
"Amdt_StdImp|Product Description: AutoCAD Mechanical 2004 DX|Company: Autodesk"
 90
    32768
280
     0
281
     0
  0
CLASS
  1
ACAMGLAYSTD
  2
AcAmgLayStd
  3
"AcAmgLayStd|Product Description: AutoCAD Mechanical 2000|Company: Autodesk"
 90
        0
280
     0
281
     0
  0
CLASS
  1
ACAMGDIMSTD
  2
AcAmgDimStd
  3
"AcAmgDimStd|Product Description: AutoCAD Mechanical 2000|Company: Autodesk"
 90
        0
280
     0
281
     0
  0
CLASS
  1
ACAMGTITLESTD
  2
AcAmgTitleStd
  3
"TITLEAPP"
 90
        0
280
     0
281
     0
  0
CLASS
  1
ACMDETAILSTANDARDANSI
  2
AmdtDetailSymStdANSI
  3
"Amdt_StdImp|Product Description: AutoCAD Mechanical 2004 DX|Company: Autodesk"
 90
    32768
280
     0
281
     0
  0
CLASS
  1
ACMSECTIONSTANDARDANSI
  2
AmdtSectionSymStdANSI
  3
"Amdt_StdImp|Product Description: AutoCAD Mechanical 2004 DX|Company: Autodesk"
 90
    32768
280
     0
281
     0
  0
CLASS
  1
ACMCENTERLINESTANDARDANSI
  2
AmdtCenterLineStdANSI
  3
"Amdt_StdImp|Product Description: AutoCAD Mechanical 2004 DX|Company: Autodesk"
 90
    32768
280
     0
281
     0
  0
CLASS
  1
ACMTHREADLINESTANDARDANSI
  2
AmdtThreadLineStdANSI
  3
"Amdt_StdImp|Product Description: AutoCAD Mechanical 2004 DX|Company: Autodesk"
 90
    32768
280
     0
281
     0
  0
CLASS
  1
ACMSURFSTANDARDBSI
  2
AcmSurfTextStdBSI
  3
"Amdt_StdImp|Product Description: AutoCAD Mechanical 2004 DX|Company: Autodesk"
 90
    32768
280
     0
281
     0
  0
CLASS
  1
ACMFCFSTANDARDBSI
  2
AcmFCFStdBSI
  3
"Amdt_StdImp|Product Description: AutoCAD Mechanical 2004 DX|Company: Autodesk"
 90
    32768
280
     0
281
     0
  0
CLASS
  1
ACMWELDSTANDARDBSI
  2
AcmWeldingStdBSI
  3
"Amdt_StdImp|Product Description: AutoCAD Mechanical 2004 DX|Company: Autodesk"
 90
    32768
280
     0
281
     0
  0
CLASS
  1
ACMIDSTANDARDBSI
  2
AcmIdStdBSI
  3
"Amdt_StdImp|Product Description: AutoCAD Mechanical 2004 DX|Company: Autodesk"
 90
    32768
280
     0
281
     0
  0
CLASS
  1
ACMDATUMSTANDARDBSI
  2
AcmDatumStdBSI
  3
"Amdt_StdImp|Product Description: AutoCAD Mechanical 2004 DX|Company: Autodesk"
 90
    32768
280
     0
281
     0
  0
CLASS
  1
ACMBOMSTANDARDBSI
  2
AcmBOMStdBSI
  3
"Amdt_StdImp|Product Description: AutoCAD Mechanical 2004 DX|Company: Autodesk"
 90
    32768
280
     0
281
     0
  0
CLASS
  1
ACMDETAILSTANDARDBSI
  2
AmdtDetailSymStdBSI
  3
"Amdt_StdImp|Product Description: AutoCAD Mechanical 2004 DX|Company: Autodesk"
 90
    32768
280
     0
281
     0
  0
CLASS
  1
ACMSECTIONSTANDARDBSI
  2
AmdtSectionSymStdBSI
  3
"Amdt_StdImp|Product Description: AutoCAD Mechanical 2004 DX|Company: Autodesk"
 90
    32768
280
     0
281
     0
  0
CLASS
  1
ACMCENTERLINESTANDARDBSI
  2
AmdtCenterLineStdBSI
  3
"Amdt_StdImp|Product Description: AutoCAD Mechanical 2004 DX|Company: Autodesk"
 90
    32768
280
     0
281
     0
  0
CLASS
  1
ACMTHREADLINESTANDARDBSI
  2
AmdtThreadLineStdBSI
  3
"Amdt_StdImp|Product Description: AutoCAD Mechanical 2004 DX|Company: Autodesk"
 90
    32768
280
     0
281
     0
  0
CLASS
  1
AMDTEDGESTANDARDDIN
  2
AmdtEdgeStdDIN
  3
"Amdt_StdImp|Product Description: AutoCAD Mechanical 2004 DX|Company: Autodesk"
 90
    32768
280
     0
281
     0
  0
CLASS
  1
ACMSURFSTANDARDDIN
  2
AcmSurfTextStdDIN
  3
"Amdt_StdImp|Product Description: AutoCAD Mechanical 2004 DX|Company: Autodesk"
 90
    32768
280
     0
281
     0
  0
CLASS
  1
ACMFCFSTANDARDDIN
  2
AcmFCFStdDIN
  3
"Amdt_StdImp|Product Description: AutoCAD Mechanical 2004 DX|Company: Autodesk"
 90
    32768
280
     0
281
     0
  0
CLASS
  1
ACMWELDSTANDARDDIN
  2
AcmWeldingStdDIN
  3
"Amdt_StdImp|Product Description: AutoCAD Mechanical 2004 DX|Company: Autodesk"
 90
    32768
280
     0
281
     0
  0
CLASS
  1
ACMIDSTANDARDDIN
  2
AcmIdStdDIN
  3
"Amdt_StdImp|Product Description: AutoCAD Mechanical 2004 DX|Company: Autodesk"
 90
    32768
280
     0
281
     0
  0
CLASS
  1
ACMDATUMSTANDARDDIN
  2
AcmDatumStdDIN
  3
"Amdt_StdImp|Product Description: AutoCAD Mechanical 2004 DX|Company: Autodesk"
 90
    32768
280
     0
281
     0
  0
CLASS
  1
ACMBOMSTANDARDDIN
  2
AcmBOMStdDIN
  3
"Amdt_StdImp|Product Description: AutoCAD Mechanical 2004 DX|Company: Autodesk"
 90
    32768
280
     0
281
     0
  0
CLASS
  1
ACMDETAILSTANDARDDIN
  2
AmdtDetailSymStdDIN
  3
"Amdt_StdImp|Product Description: AutoCAD Mechanical 2004 DX|Company: Autodesk"
 90
    32768
280
     0
281
     0
  0
CLASS
  1
ACMSECTIONSTANDARDDIN
  2
AmdtSectionSymStdDIN
  3
"Amdt_StdImp|Product Description: AutoCAD Mechanical 2004 DX|Company: Autodesk"
 90
    32768
280
     0
281
     0
  0
CLASS
  1
ACMCENTERLINESTANDARDDIN
  2
AmdtCenterLineStdDIN
  3
"Amdt_StdImp|Product Description: AutoCAD Mechanical 2004 DX|Company: Autodesk"
 90
    32768
280
     0
281
     0
  0
CLASS
  1
ACMTHREADLINESTANDARDDIN
  2
AmdtThreadLineStdDIN
  3
"Amdt_StdImp|Product Description: AutoCAD Mechanical 2004 DX|Company: Autodesk"
 90
    32768
280
     0
281
     0
  0
CLASS
  1
ACMSURFSTANDARDISO
  2
AcmSurfTextStdISO
  3
"Amdt_StdImp|Product Description: AutoCAD Mechanical 2004 DX|Company: Autodesk"
 90
        0
280
     0
281
     0
  0
CLASS
  1
ACMFCFSTANDARDISO
  2
AcmFCFStdISO
  3
"Amdt_StdImp|Product Description: AutoCAD Mechanical 2004 DX|Company: Autodesk"
 90
        0
280
     0
281
     0
  0
CLASS
  1
ACMWELDSTANDARDISO
  2
AcmWeldingStdISO
  3
"Amdt_StdImp|Product Description: AutoCAD Mechanical 2004 DX|Company: Autodesk"
 90
        0
280
     0
281
     0
  0
CLASS
  1
ACMIDSTANDARDISO
  2
AcmIdStdISO
  3
"Amdt_StdImp|Product Description: AutoCAD Mechanical 2004 DX|Company: Autodesk"
 90
        0
280
     0
281
     0
  0
CLASS
  1
ACMDATUMSTANDARDISO
  2
AcmDatumStdISO
  3
"Amdt_StdImp|Product Description: AutoCAD Mechanical 2004 DX|Company: Autodesk"
 90
        0
280
     0
281
     0
  0
CLASS
  1
ACMBOMSTANDARDISO
  2
AcmBOMStdISO
  3
"Amdt_StdImp|Product Description: AutoCAD Mechanical 2004 DX|Company: Autodesk"
 90
        0
280
     0
281
     0
  0
CLASS
  1
AMDTEDGESTANDARDISO
  2
AmdtEdgeStdISO
  3
"Amdt_StdImp|Product Description: AutoCAD Mechanical 2004 DX|Company: Autodesk"
 90
    32768
280
     0
281
     0
  0
CLASS
  1
ACMDETAILSTANDARDISO
  2
AmdtDetailSymStdISO
  3
"Amdt_StdImp|Product Description: AutoCAD Mechanical 2004 DX|Company: Autodesk"
 90
        0
280
     0
281
     0
  0
CLASS
  1
ACMSECTIONSTANDARDISO
  2
AmdtSectionSymStdISO
  3
"Amdt_StdImp|Product Description: AutoCAD Mechanical 2004 DX|Company: Autodesk"
 90
        0
280
     0
281
     0
  0
CLASS
  1
ACMCENTERLINESTANDARDISO
  2
AmdtCenterLineStdISO
  3
"Amdt_StdImp|Product Description: AutoCAD Mechanical 2004 DX|Company: Autodesk"
 90
        0
280
     0
281
     0
  0
CLASS
  1
ACMTHREADLINESTANDARDISO
  2
AmdtThreadLineStdISO
  3
"Amdt_StdImp|Product Description: AutoCAD Mechanical 2004 DX|Company: Autodesk"
 90
        0
280
     0
281
     0
  0
CLASS
  1
ACMSURFSTANDARDJIS
  2
AcmSurfTextStdJIS
  3
"Amdt_StdImp|Product Description: AutoCAD Mechanical 2004 DX|Company: Autodesk"
 90
    32768
280
     0
281
     0
  0
CLASS
  1
ACMFCFSTANDARDJIS
  2
AcmFCFStdJIS
  3
"Amdt_StdImp|Product Description: AutoCAD Mechanical 2004 DX|Company: Autodesk"
 90
    32768
280
     0
281
     0
  0
CLASS
  1
ACMWELDSTANDARDJIS
  2
AcmWeldingStdJIS
  3
"Amdt_StdImp|Product Description: AutoCAD Mechanical 2004 DX|Company: Autodesk"
 90
    32768
280
     0
281
     0
  0
CLASS
  1
ACMIDSTANDARDJIS
  2
AcmIdStdJIS
  3
"Amdt_StdImp|Product Description: AutoCAD Mechanical 2004 DX|Company: Autodesk"
 90
    32768
280
     0
281
     0
  0
CLASS
  1
ACMDATUMSTANDARDJIS
  2
AcmDatumStdJIS
  3
"Amdt_StdImp|Product Description: AutoCAD Mechanical 2004 DX|Company: Autodesk"
 90
    32768
280
     0
281
     0
  0
CLASS
  1
ACMBOMSTANDARDJIS
  2
AcmBOMStdJIS
  3
"Amdt_StdImp|Product Description: AutoCAD Mechanical 2004 DX|Company: Autodesk"
 90
    32768
280
     0
281
     0
  0
CLASS
  1
ACMDETAILSTANDARDJIS
  2
AmdtDetailSymStdJIS
  3
"Amdt_StdImp|Product Description: AutoCAD Mechanical 2004 DX|Company: Autodesk"
 90
    32768
280
     0
281
     0
  0
CLASS
  1
ACMSECTIONSTANDARDJIS
  2
AmdtSectionSymStdJIS
  3
"Amdt_StdImp|Product Description: AutoCAD Mechanical 2004 DX|Company: Autodesk"
 90
    32768
280
     0
281
     0
  0
CLASS
  1
ACMCENTERLINESTANDARDJIS
  2
AmdtCenterLineStdJIS
  3
"Amdt_StdImp|Product Description: AutoCAD Mechanical 2004 DX|Company: Autodesk"
 90
    32768
280
     0
281
     0
  0
CLASS
  1
ACMTHREADLINESTANDARDJIS
  2
AmdtThreadLineStdJIS
  3
"Amdt_StdImp|Product Description: AutoCAD Mechanical 2004 DX|Company: Autodesk"
 90
    32768
280
     0
281
     0
  0
CLASS
  1
ACMNOTESTANDARDANSI
  2
AmdtNoteStdANSI
  3
"Amdt_StdImp|Product Description: AutoCAD Mechanical 2004 DX|Company: Autodesk"
 90
    32768
280
     0
281
     0
  0
CLASS
  1
ACAMGHOLECHARTSTDANSI
  2
AcAmgHoleChartStdANSI
  3
ACMSYMBB_MODULE_NAME
 90
    32768
280
     0
281
     0
  0
CLASS
  1
ACAMEXTERNALCOMPDEF
  2
AcAmExternalCompDef
  3
DesignerAssemblies
 90
    32768
280
     0
281
     0
  0
CLASS
  1
ACCMBODY
  2
AcCmBody
  3
DesignerAssemblies
 90
    32768
280
     0
281
     0
  0
CLASS
  1
ACAMCOMPENT
  2
AcAmCompEnt
  3
DesignerAssemblies
 90
    32768
280
     0
281
     1
  0
CLASS
  1
ACAMCOMPFEEDBACK
  2
AcAmCompFeedback
  3
DesignerAssemblies
 90
    32768
280
     0
281
     0
  0
CLASS
  1
ACAMCOMP
  2
AcAmComp
  3
DesignerAssemblies
 90
    32768
280
     0
281
     0
  0
CLASS
  1
ACAMCOMPENTCLONE
  2
AcAmCompEntClone
  3
DesignerAssemblies
 90
    32768
280
     0
281
     1
  0
CLASS
  1
ACAMCLONEREACTOR
  2
AcAmGrCompCloneReactor
  3
DesignerAssemblies
 90
    32768
280
     0
281
     0
  0
CLASS
  1
ADPART
  2
AcAdPart
  3
DesignerServices
 90
    32768
280
     0
281
     1
  0
CLASS
  1
ADBASE
  2
AcAdBase
  3
DesignerServices
 90
    32768
280
     0
281
     0
  0
CLASS
  1
BODYID
  2
AcAdBodyId
  3
DesignerServices
 90
    32768
280
     0
281
     0
  0
CLASS
  1
WORKPLANEDISPLAYMGR
  2
AcAdDisplayMgr
  3
DesignerServices
 90
    32768
280
     0
281
     0
  0
CLASS
  1
AMDTFORMULAUPDATEDISPATCHER
  2
AmdtFormulaUpdateDispatcher
  3
AcMeServices
 90
    32768
280
     0
281
     0
  0
CLASS
  1
ADDATUMPLANEABS
  2
AcAdDatumPlaneAbs
  3
DesignerServices
 90
    32768
280
     0
281
     0
  0
CLASS
  1
ADDATUMAXISABS
  2
AcAdDatumAxisAbs
  3
DesignerServices
 90
    32768
280
     0
281
     0
  0
CLASS
  1
ADDATUMORIENTEDPLANE
  2
AcAdDatumOrientedPlane
  3
DesignerServices
 90
    32768
280
     0
281
     0
  0
CLASS
  1
ACMEPLINE
  2
AcImPlineDisplay
  3
AcMeServices
 90
    32768
280
     0
281
     1
  0
CLASS
  1
ACMELINEARARROW
  2
AcImLinearArrowDisplay
  3
AcMeServices
 90
    32768
280
     0
281
     1
  0
CLASS
  1
ACMETEXT
  2
AcImTextDisplay
  3
AcMeServices
 90
    32768
280
     0
281
     1
  0
CLASS
  1
ACAD_LINE
  2
AcAdLine
  3
DesignerServices
 90
    32768
280
     0
281
     1
  0
CLASS
  1
ACADLINEACAD
  2
AcAdVirtualBoundedLineAcad
  3
DesignerServices
 90
    32768
280
     0
281
     0
  0
CLASS
  1
ACAD_ELLIPSE
  2
AcAdEllipse
  3
DesignerServices
 90
    32768
280
     0
281
     1
  0
CLASS
  1
ACADELLIPSEACAD
  2
AcAdVirtualEllipseAcad
  3
DesignerServices
 90
    32768
280
     0
281
     0
  0
CLASS
  1
ACADREFLINEACAD
  2
AcAdVirtualReferenceLine
  3
DesignerServices
 90
    32768
280
     0
281
     0
  0
CLASS
  1
ACADCONSLINE
  2
AcAdConstrainedLine
  3
DesignerServices
 90
    32768
280
     0
281
     0
  0
CLASS
  1
ACADCONSGROUP
  2
AcAdConstraintGroup
  3
DesignerServices
 90
    32768
280
     0
281
     0
  0
CLASS
  1
ACADCONSELL
  2
AcAdConstrainedEllipse
  3
DesignerServices
 90
    32768
280
     0
281
     0
  0
CLASS
  1
ACADIMPPTACAD
  2
AcAdVirtualImplicitPoint
  3
DesignerServices
 90
    32768
280
     0
281
     0
  0
CLASS
  1
ACADCONSPOINT
  2
AcAdConstrainedPoint
  3
DesignerServices
 90
    32768
280
     0
281
     0
  0
CLASS
  1
ADPCURCNS
  2
AcAdPointCurveConstr
  3
DesignerServices
 90
    32768
280
     0
281
     0
  0
CLASS
  1
ADCTRPTCNS
  2
AcAdCenterPointConstr
  3
DesignerServices
 90
    32768
280
     0
281
     0
  0
CLASS
  1
ADVERCNS
  2
AcAdVerticalConstr
  3
DesignerServices
 90
    32768
280
     0
281
     0
  0
CLASS
  1
ADHORCNS
  2
AcAdHorizontalConstr
  3
DesignerServices
 90
    32768
280
     0
281
     0
  0
CLASS
  1
ADCLPROF2D
  2
AcAdClosedProfile2d
  3
DesignerServices
 90
    32768
280
     0
281
     0
  0
CLASS
  1
ACAD_FIXCONSTRAINT
  2
AcAdFixedConstraint
  3
DesignerServices
 90
    32768
280
     0
281
     0
  0
CLASS
  1
ADCONSDISP
  2
AcAdConstraintDisplay
  3
DesignerServices
 90
    32768
280
     0
281
     1
  0
CLASS
  1
ADCONSTDSP
  2
AcAdConstraintDisplayTag
  3
DesignerServices
 90
    32768
280
     0
281
     1
  0
CLASS
  1
AMDT_ALIGNED_DIM
  2
AmdtAlignedDimension
  3
AcMeServices
 90
    32768
280
     0
281
     1
  0
CLASS
  1
PARAM
  2
AcAdParam
  3
DesignerServices
 90
    32768
280
     0
281
     0
  0
CLASS
  1
ADELLRADCNS
  2
AcAdAcadEllipseRadiusConstr
  3
DesignerServices
 90
    32768
280
     0
281
     0
  0
CLASS
  1
ADHDISTCNS
  2
AcAdHorizontalDistanceConstr
  3
DesignerServices
 90
    32768
280
     0
281
     0
  0
CLASS
  1
ADVDISTCNS
  2
AcAdVerticalDistanceConstr
  3
DesignerServices
 90
    32768
280
     0
281
     0
  0
CLASS
  1
ACMEROTATIONARROW
  2
AcImRotationArrowDisplay
  3
AcMeServices
 90
    32768
280
     0
281
     1
  0
CLASS
  1
ACADVOLFEATWITHTRIM
  2
AcAdVolFeatWithTrim
  3
DesignerServices
 90
    32768
280
     0
281
     0
  0
CLASS
  1
DEPEDGEFEATUREORDERING
  2
AcAdDepEdgeFeatureOrdering
  3
DesignerServices
 90
    32768
280
     0
281
     0
  0
CLASS
  1
EDGEID
  2
AcAdEdgeId
  3
DesignerServices
 90
    32768
280
     0
281
     0
  0
CLASS
  1
ACADPARTELLIPSEEDGERES
  2
AcAdPartEllipseEdgeRes
  3
AdGrefServices
 90
    32768
280
     0
281
     0
  0
CLASS
  1
ACRFINSADJ
  2
AcRfInsAdjuster
  3
AcMeServices
 90
    32768
280
     0
281
     0
  0
CLASS
  1
ACMEAXIS
  2
AcImAxisDisplay
  3
AcMeServices
 90
    32768
280
     0
281
     1
  0
CLASS
  1
FACEID
  2
AcAdFaceId
  3
DesignerServices
 90
    32768
280
     0
281
     0
  0
CLASS
  1
ACADPARTSPLINEFACERES
  2
AcAdPartSplineFaceRes
  3
AdGrefServices
 90
    32768
280
     0
281
     0
  0
CLASS
  1
ACADPARTCIRCEDGRES
  2
AcAdPartCircEdgRes
  3
AdGrefServices
 90
    32768
280
     0
281
     0
  0
CLASS
  1
CIRREFID
  2
AcAdCircleRefId
  3
DesignerServices
 90
    32768
280
     0
281
     0
  0
CLASS
  1
DEPEDGESECONDARYDEPID
  2
AcAdDepEdgeSecondaryDepId
  3
DesignerServices
 90
    32768
280
     0
281
     0
  0
CLASS
  1
ACADPARTCONICALFACERES
  2
AcAdPartConicalFaceRes
  3
AdGrefServices
 90
    32768
280
     0
281
     0
  0
CLASS
  1
ACAMEXPR
  2
AcAmExpr
  3
DesignerAssemblies
 90
    32768
280
     0
281
     0
  0
CLASS
  1
ACCMDISTLNLN
  2
AcCmDistLnLn
  3
DesignerAssemblies
 90
    32768
280
     0
281
     0
  0
CLASS
  1
ACCMCONSTREACTOR
  2
AcCmConstraintReactor
  3
DesignerAssemblies
 90
    32768
280
     0
281
     0
  0
CLASS
  1
ACMEPOINT
  2
AcImPointDisplay
  3
AcMeServices
 90
    32768
280
     0
281
     1
  0
CLASS
  1
ACADPARTCYLINDERFACERES
  2
AcAdPartCylinderFaceRes
  3
AdGrefServices
 90
    32768
280
     0
281
     0
  0
CLASS
  1
ACADPARTPLANARFACERES
  2
AcAdPartPlanarFaceRes
  3
AdGrefServices
 90
    32768
280
     0
281
     0
  0
CLASS
  1
ACCMDISTPTPL
  2
AcCmDistPtPl
  3
DesignerAssemblies
 90
    32768
280
     0
281
     0
  0
CLASS
  1
ACCMINSERTPLPL
  2
AcCmInsertPlPl
  3
AcCmServices
 90
    32768
280
     0
281
     0
  0
CLASS
  1
ADPARCNS
  2
AcAdParallelConstr
  3
DesignerServices
 90
    32768
280
     0
281
     0
  0
CLASS
  1
NEWSTDPARTPARLIST
  2
AmgNewParListFiler
  3
"AmgParList|Product Description: AutoCAD Mechanical 2000|Company: Autodesk"
 90
    33791
280
     0
281
     0
  0
CLASS
  1
ACRFATTGENMGR
  2
AcRfAttGeneralMgr
  3
AcAttribServices
 90
        0
280
     0
281
     0
  0
CLASS
  1
ACRFOBJATTMGR
  2
AcRfObjAttGroupMgr
  3
AcAttribServices
 90
    32768
280
     0
281
     0
  0
CLASS
  1
ACRFMCADAPIATTHOLDER
  2
AcRfMCADAPIAttHolder
  3
AcAttribServices
 90
    32768
280
     0
281
     0
  0
CLASS
  1
AMDTSYSATTR
  2
AmdtSystemAttribute
  3
AcAttribServices
 90
    32768
280
     0
281
     0
  0
CLASS
  1
ACADPARTTORUSFACERES
  2
AcAdPartTorusFaceRes
  3
AdGrefServices
 90
    32768
280
     0
281
     0
  0
CLASS
  1
ACADPARTSPHEREFACERES
  2
AcAdPartSphereFaceRes
  3
AdGrefServices
 90
    32768
280
     0
281
     0
  0
CLASS
  1
ACCMDISTPTLN
  2
AcCmDistPtLn
  3
DesignerAssemblies
 90
    32768
280
     0
281
     0
  0
CLASS
  1
ACCMDISTPTPT
  2
AcCmDistPtPt
  3
DesignerAssemblies
 90
    32768
280
     0
281
     0
  0
CLASS
  1
ACADPARTAXISRES
  2
AcAdPartAxisRes
  3
AdGrefServices
 90
    32768
280
     0
281
     0
  0
CLASS
  1
ACADPARTSPLINEEDGERES
  2
AcAdPartSplineEdgeRes
  3
AdGrefServices
 90
    32768
280
     0
281
     0
  0
CLASS
  1
ACCMDISTPLPL
  2
AcCmDistPlPl
  3
DesignerAssemblies
 90
    32768
280
     0
281
     0
  0
CLASS
  1
DEPEDGEPATTERNINSTANCE
  2
AcAdDepEdgePatternInstance
  3
DesignerServices
 90
    32768
280
     0
281
     0
  0
CLASS
  1
ACAMVIEWREACTOR
  2
AcAmViewReactor
  3
DesignerAssemblies
 90
    32768
280
     0
281
     0
  0
CLASS
  1
AMVIEW
  2
AcAmView
  3
DesignerAssemblies
 90
    32768
280
     0
281
     0
  0
CLASS
  1
ACAMVIEWCONTEXT
  2
AcAmViewContext
  3
DesignerAssemblies
 90
    32768
280
     0
281
     0
  0
CLASS
  1
ACAMCOMPENTVIEW
  2
AcAmCompEntView
  3
DesignerAssemblies
 90
    32768
280
     0
281
     1
  0
CLASS
  1
ACAMCOMPVIEWREACTOR
  2
AcAmGrCompViewReactor
  3
DesignerAssemblies
 90
    32768
280
     0
281
     0
  0
CLASS
  1
ACAMEXPLODETWEAK
  2
AcAmExplodeTweak
  3
DesignerAssemblies
 90
    32768
280
     0
281
     0
  0
CLASS
  1
ACAMTRAIL
  2
AcAmTrail
  3
DesignerAssemblies
 90
    32768
280
     0
281
     0
  0
CLASS
  1
ACAMVECTORTWEAK
  2
AcAmVectorTweak
  3
DesignerAssemblies
 90
    32768
280
     0
281
     0
  0
CLASS
  1
ACIMLINEARTWEAKDISPLAY
  2
AcImLinearTweakDisplay
  3
DesignerAssemblies
 90
    32768
280
     0
281
     1
  0
CLASS
  1
ACAMAXISTWEAK
  2
AcAmAxisTweak
  3
DesignerAssemblies
 90
    32768
280
     0
281
     0
  0
CLASS
  1
ACIMROTATIONALTWEAKDISPLAY
  2
AcImRotationTweakDisplay
  3
DesignerAssemblies
 90
    32768
280
     0
281
     1
  0
CLASS
  1
ACADPARTLINEDGRES
  2
AcAdPartLinEdgRes
  3
AdGrefServices
 90
    32768
280
     0
281
     0
  0
CLASS
  1
STREFID
  2
AcAdStraightRefId
  3
DesignerServices
 90
    32768
280
     0
281
     0
  0
CLASS
  1
FEEDBACK
  2
AcAmFeedback
  3
DesignerAssemblies
 90
    32768
280
     0
281
     1
  0
CLASS
  1
ACAMTRIAXISSYMBOL
  2
AcAmTriAxisSymbol
  3
DesignerAssemblies
 90
    32768
280
     0
281
     0
  0
CLASS
  1
ACAMTEXTCIRCLESYMBOL
  2
AcAmTextCircleSymbol
  3
DesignerAssemblies
 90
    32768
280
     0
281
     0
  0
CLASS
  1
LAYER_FILTER
  2
AcDbLayerFilter
  3
ObjectDBX Classes
 90
    32768
280
     0
281
     0
  0
CLASS
  1
"CONSTR_DRIVER"
  2
AcCmRestructCloneDriver
  3
DesignerAssemblies
 90
    32768
280
     0
281
     1
  0
CLASS
  1
ACMNOTESTANDARDISO
  2
AmdtNoteStdISO
  3
"Amdt_StdImp|Product Description: AutoCAD Mechanical 2004 DX|Company: Autodesk"
 90
        0
280
     0
281
     0
  0
CLASS
  1
ACAMGHOLECHARTSTDISO
  2
AcAmgHoleChartStdISO
  3
ACMSYMBB_MODULE_NAME
 90
        0
280
     0
281
     0
  0
CLASS
  1
ACAMVIEWENTITYFILTER
  2
AcAmViewEntityFilter
  3
DesignerAssemblies
 90
    32768
280
     0
281
     0
  0
CLASS
  1
AM_GREF_PLANE
  2
AcDmGrefPlnDef
  3
AcMechDwgViewMgmt
 90
    32768
280
     0
281
     0
  0
CLASS
  1
AM_GREF_AXIS
  2
AcDmGrefAxisDef
  3
AcMechDwgViewMgmt
 90
    32768
280
     0
281
     0
  0
CLASS
  1
AM_BASE_VIEW_ORIENT
  2
AcDmBaseViewOr
  3
AcMechDwgViewMgmt
 90
    32768
280
     0
281
     0
  0
CLASS
  1
AM_DWG_VIEWPORT
  2
AcDmViewport
  3
AcMechDwgViewMgmt
 90
    32768
280
     0
281
     0
  0
CLASS
  1
AM_VIEW_DISPLAY
  2
AcDmDwgViewDisplay
  3
AcMechDwgViewMgmt
 90
    32768
280
     0
281
     0
  0
CLASS
  1
AM_CLDFLTS
  2
AcDmClDflts
  3
AcMechDwgViewMgmt
 90
    32768
280
     0
281
     0
  0
CLASS
  1
AM_BASE_VIEW
  2
AcDmBaseView
  3
AcMechDwgViewMgmt
 90
    32768
280
     0
281
     0
  0
CLASS
  1
ACDMPARTVIEWDATA
  2
AcDmPartViewData
  3
AcMechDwgViewMgmt
 90
    32768
280
     0
281
     0
  0
CLASS
  1
ACDMDISPLAYATTRIBS
  2
AcDmDisplayAttribs
  3
AcMechDwgViewMgmt
 90
    32768
280
     0
281
     0
  0
CLASS
  1
ACDMBODYINSTANCEDATA
  2
AcDmBodyInstanceData
  3
AcMechDwgViewMgmt
 90
    32768
280
     0
281
     0
  0
CLASS
  1
ACDMVWEDLINE
  2
AcDmViewEdgeLine
  3
AcMechDwgViewMgmt
 90
    32768
280
     0
281
     1
  0
CLASS
  1
ACDMVWEDSPLINE
  2
AcDmViewEdgeSpline
  3
AcMechDwgViewMgmt
 90
    32768
280
     0
281
     1
  0
CLASS
  1
ACDMVWEDELLIPSE
  2
AcDmViewEdgeEllipse
  3
AcMechDwgViewMgmt
 90
    32768
280
     0
281
     1
  0
CLASS
  1
ACDMVWEDARC
  2
AcDmViewEdgeArc
  3
AcMechDwgViewMgmt
 90
    32768
280
     0
281
     1
  0
CLASS
  1
ACDMVWEDCIRC
  2
AcDmViewEdgeCircle
  3
AcMechDwgViewMgmt
 90
    32768
280
     0
281
     1
  0
CLASS
  1
AM_ADLINCTRLINE
  2
AcAdLineCl
  3
DesignerServices
 90
    32768
280
     0
281
     0
  0
CLASS
  1
AM_ADCIRCTRLINE
  2
AcAdBullsEyeCl
  3
DesignerServices
 90
    32768
280
     0
281
     0
  0
CLASS
  1
AD_LINETAPH
  2
AcAdTapHoleLineDisp
  3
DesignerServices
 90
    32768
280
     0
281
     0
  0
CLASS
  1
AM_ISO_VIEW_ORIENT
  2
AcDmIsoViewOr
  3
AcMechDwgViewMgmt
 90
    32768
280
     0
281
     0
  0
CLASS
  1
AM_ISO_VIEW
  2
AcDmIsoView
  3
AcMechDwgViewMgmt
 90
    32768
280
     0
281
     0
  0
CLASS
  1
CNRREFID
  2
AcAdCornerId
  3
DesignerServices
 90
    32768
280
     0
281
     0
  0
CLASS
  1
ACADPARTPOINTRES
  2
AcAdPartPointRes
  3
AdGrefServices
 90
    32768
280
     0
281
     0
  0
CLASS
  1
ACMBOM
  2
AcmBom
  3
"AcmSymBB|Product Description: AutoCAD Mechanical 2004 DX|Company: Autodesk"
 90
    32768
280
     0
281
     0
  0
CLASS
  1
ACMBOMROW
  2
AcmBomRow
  3
"AcmSymBB|Product Description: AutoCAD Mechanical 2004 DX|Company: Autodesk"
 90
    32768
280
     0
281
     0
  0
CLASS
  1
ACMPARTLIST
  2
AcmPartList
  3
"AcmSymBB|Product Description: AutoCAD Mechanical 2004 DX|Company: Autodesk"
 90
    33791
280
     0
281
     1
  0
CLASS
  1
SILEDGEID
  2
AcAdSilhouetteEdgeId
  3
DesignerServices
 90
    32768
280
     0
281
     0
  0
CLASS
  1
ACMBALLOON
  2
AcmBalloon
  3
"AcmSymBB|Product Description: AutoCAD Mechanical 2004 DX|Company: Autodesk"
 90
    33791
280
     0
281
     1
  0
CLASS
  1
AM_VWNOTEADAPTER
  2
AcDmViewAnnotAdapter
  3
AcMechDwgViewMgmt
 90
    32768
280
     0
281
     0
  0
CLASS
  1
ACDBSOLLINEDGRES
  2
AcDbSolLinEdgRes
  3
AcGrefServices
 90
    32768
280
     0
281
     0
  0
CLASS
  1
ACDMVISEDIT
  2
AcDmViewEntityVisEdit
  3
AcMechDwgViewMgmt
 90
    32768
280
     0
281
     0
  0
CLASS
  1
AM_ABS_AXIS
  2
AcDmAbsAxisDef
  3
AcMechDwgViewMgmt
 90
    32768
280
     0
281
     0
  0
CLASS
  1
IMAGEDEF
  2
AcDbRasterImageDef
  3
ISM
 90
    32768
280
     0
281
     0
  0
CLASS
  1
TABLESTYLE
  2
AcDbTableStyle
  3
ObjectDBX Classes
 90
     2047
280
     0
281
     0
  0
CLASS
  1
VAACXREFPANELOBJECT
  2
VaAcXREFPanelObject
  3
VAAC_ADDIN
 90
    32768
280
     1
281
     0
  0
CLASS
  1
VAACIMAGEINVENTORY
  2
VaAcImageInventory
  3
VAAC_ADDIN
 90
    32768
280
     1
281
     0
  0
CLASS
  1
ACAMROTAXISSYMBOL
  2
AcAmRotAxisSymbol
  3
DesignerAssemblies
 90
    32768
280
     0
281
     0
  0
CLASS
  1
AMACTIVEPARTSELECTFILTER
  2
AcDmActivePartViewEntFilter
  3
DesignerServices
 90
    32768
280
     0
281
     0
  0
CLASS
  1
AM_ORTHO_VIEW_ORIENT
  2
AcDmOrthoViewOr
  3
AcMechDwgViewMgmt
 90
    32768
280
     0
281
     0
  0
CLASS
  1
AM_ORTHO_VIEW
  2
AcDmOrthoView
  3
AcMechDwgViewMgmt
 90
    32768
280
     0
281
     0
  0
CLASS
  1
AM_GREF_POINT
  2
AcDmGrefPntDef
  3
AcMechDwgViewMgmt
 90
    32768
280
     0
281
     0
  0
CLASS
  1
AM_FULLPOINTSECTION
  2
AcDmFullPointSection
  3
AcMechDwgViewMgmt
 90
    32768
280
     0
281
     0
  0
CLASS
  1
AMDTSECTIONSYM
  2
AmdtSectionSym
  3
"AcmSymBB|Product Description: AutoCAD Mechanical 2004 DX|Company: Autodesk"
 90
    33791
280
     0
281
     1
  0
CLASS
  1
AMDTSECTIONSYMLABEL
  2
AmdtSectionSymLabel
  3
"AcmSymBB|Product Description: AutoCAD Mechanical 2004 DX|Company: Autodesk"
 90
    33791
280
     0
281
     1
  0
CLASS
  1
SORTENTSTABLE
  2
AcDbSortentsTable
  3
ObjectDBX Classes
 90
        0
280
     0
281
     0
  0
CLASS
  1
ACMDATAENTRY
  2
AcmDataEntry
  3
"AcmSymBB|Product Description: AutoCAD Mechanical 2004 DX|Company: Autodesk"
 90
    32768
280
     0
281
     0
  0
CLASS
  1
ACCMANGVECVEC
  2
AcCmAngVecVec
  3
DesignerAssemblies
 90
    32768
280
     0
281
     0
  0
CLASS
  1
AD_CIRCTAPH
  2
AcAdTapHoleCircDisp
  3
DesignerServices
 90
    32768
280
     0
281
     0
  0
CLASS
  1
AM_ABS_PLANE
  2
AcDmAbsPlnDef
  3
AcMechDwgViewMgmt
 90
    32768
280
     0
281
     0
  0
CLASS
  1
ACDMGREFEDIT
  2
AcDmViewEntityGeomrefEdit
  3
AcMechDwgViewMgmt
 90
    32768
280
     0
281
     0
  0
CLASS
  1
ACDMVIEWARCEDGERES
  2
AcDmViewArcEdgeRes
  3
AcMechDwgViewMgmt
 90
    32768
280
     0
281
     0
  0
CLASS
  1
ACDMVIEWLINEDGERES
  2
AcDmViewLinEdgeRes
  3
AcMechDwgViewMgmt
 90
    32768
280
     0
281
     0
  0
CLASS
  1
AM_USERDEFNNOTE
  2
AcDmUserDefnNote
  3
AcMechDwgViewMgmt
 90
    32768
280
     0
281
     0
  0
CLASS
  1
ACAMVECTORSYMBOL
  2
AcAmVectorSymbol
  3
DesignerAssemblies
 90
    32768
280
     0
281
     0
  0
CLASS
  1
AM_VIEW_SELECT_FILTER
  2
AcDmSelectViewEntFilter
  3
AcMechDwgViewMgmt
 90
    32768
280
     0
281
     0
  0
CLASS
  1
AMDTEDGESTANDARDISO13715
  2
AmdtEdgeStdISO13715
  3
"Amdt_StdImp|Product Description: AutoCAD Mechanical 2004 DX|Company: Autodesk"
 90
        0
280
     0
281
     0
  0
CLASS
  1
AMDTNOTETEMPLATEDB
  2
AmdtNoteTemplateDB
  3
AMDT_STDIMP_MODULE_NAME
 90
        0
280
     0
281
     0
  0
CLASS
  1
DIMASSOC
  2
AcDbDimAssoc
  3
"AcDbDimAssoc|Product Desc:     AcDim ARX App For Dimension|Company:          Autodesk, Inc.|WEB Address:      www.autodesk.com"
 90
        0
280
     0
281
     0
  0
ENDSEC
  0
SECTION
  2
TABLES
  0
TABLE
  2
VPORT
  5
1D
330
0
100
AcDbSymbolTable
 70
     1
  0
VPORT
  5
1E
330
1D
100
AcDbSymbolTableRecord
100
AcDbViewportTableRecord
  2
*Active
 70
     0
 10
0.0
 20
0.0
 11
1.0
 21
1.0
 12
0.0
 22
0.0
 13
0.0
 23
0.0
 14
0.125
 24
0.125
 15
1.0
 25
1.0
 16
0.0
 26
0.0
 36
1.0
 17
0.0
 27
0.0
 37
0.0
 40
2.000000000000000E+20
 41
1.0
 42
50.0
 43
0.0
 44
0.0
 50
0.0
 51
0.0
 71
     0
 72
   100
 73
     1
 74
     1
 75
     0
 76
     0
 77
     0
 78
     0
281
     0
 65
     0
110
0.0
120
0.0
130
0.0
111
1.0
121
0.0
131
0.0
112
0.0
122
1.0
132
0.0
 79
     0
146
0.0
  0
ENDTAB
  0
TABLE
  2
LTYPE
  5
18
330
0
100
AcDbSymbolTable
 70
    14
  0
LTYPE
  5
19
330
18
100
AcDbSymbolTableRecord
100
AcDbLinetypeTableRecord
  2
BYBLOCK
 70
     0
  3

 72
    65
 73
     0
 40
0.0
  0
LTYPE
  5
1A
330
18
100
AcDbSymbolTableRecord
100
AcDbLinetypeTableRecord
  2
BYLAYER
 70
     0
  3

 72
    65
 73
     0
 40
0.0
  0
LTYPE
  5
9
330
18
100
AcDbSymbolTableRecord
100
AcDbLinetypeTableRecord
  2
CONTINUOUS
 70
     0
  3
Solid line
 72
    65
 73
     0
 40
0.0
  0
LTYPE
  5
36
330
18
100
AcDbSymbolTableRecord
100
AcDbLinetypeTableRecord
  2
AM_ISO08W050
 70
     0
  3
____ . ____ . ____ . ____ . ____ . ____ . ____
 72
    65
 73
     4
 40
18.0
 49
12.0
 74
     0
 49
-1.5
 74
     0
 49
3.0
 74
     0
 49
-1.5
 74
     0
  0
LTYPE
  5
3DE
330
18
100
AcDbSymbolTableRecord
100
AcDbLinetypeTableRecord
  2
HIDDEN
 70
     0
  3
Hidden __ __ __ __ __ __ __ __ __ __ __ __ __ _
 72
    65
 73
     2
 40
9.524999999999998
 49
6.349999999999999
 74
     0
 49
-3.174999999999999
 74
     0
  0
LTYPE
  5
3DF
330
18
100
AcDbSymbolTableRecord
100
AcDbLinetypeTableRecord
  2
PHANTOM2
 70
     0
  3
Phantom (.5x) ___ _ _ ___ _ _ ___ _ _ ___ _ _
 72
    65
 73
     6
 40
31.75
 49
15.875
 74
     0
 49
-3.174999999999999
 74
     0
 49
3.174999999999999
 74
     0
 49
-3.174999999999999
 74
     0
 49
3.174999999999999
 74
     0
 49
-3.174999999999999
 74
     0
  0
LTYPE
  5
3E0
330
18
100
AcDbSymbolTableRecord
100
AcDbLinetypeTableRecord
  2
CENTER
 70
     0
  3
Center ____ _ ____ _ ____ _ ____ _ ____ _ ____
 72
    65
 73
     4
 40
50.8
 49
31.75
 74
     0
 49
-6.349999999999999
 74
     0
 49
6.349999999999999
 74
     0
 49
-6.349999999999999
 74
     0
  0
LTYPE
  5
414
330
18
100
AcDbSymbolTableRecord
100
AcDbLinetypeTableRecord
  2
AM_ISO02W050
 70
     0
  3
__ __ __ __ __ __ __ __ __ __ __ __ __ __ __
 72
    65
 73
     2
 40
7.5
 49
6.0
 74
     0
 49
-1.5
 74
     0
  0
LTYPE
  5
415
330
18
100
AcDbSymbolTableRecord
100
AcDbLinetypeTableRecord
  2
AM_ISO09W050
 70
     0
  3
_____ . . _____ . . _____ . . ____ .. ____
 72
    65
 73
     6
 40
22.5
 49
12.0
 74
     0
 49
-1.5
 74
     0
 49
3.0
 74
     0
 49
-1.5
 74
     0
 49
3.0
 74
     0
 49
-1.5
 74
     0
  0
LTYPE
  5
416
330
18
100
AcDbSymbolTableRecord
100
AcDbLinetypeTableRecord
  2
Amconstr
 70
     0
  3
_______________________
 72
    65
 73
     2
 40
9999.0
 49
9999.0
 74
     0
 49
0.0
 74
     0
  0
LTYPE
  5
417
330
18
100
AcDbSymbolTableRecord
100
AcDbLinetypeTableRecord
  2
AM_ISO08W050x2
 70
     0
  3
__ . __ . __ . __ . __ . __
 72
    65
 73
     4
 40
9.0
 49
6.0
 74
     0
 49
-0.75
 74
     0
 49
1.5
 74
     0
 49
-0.75
 74
     0
  0
LTYPE
  5
418
330
18
100
AcDbSymbolTableRecord
100
AcDbLinetypeTableRecord
  2
AM_ISO02W050x2
 70
     0
  3
 _ _ _ _ _ _ _ _ _ _ _ _
 72
    65
 73
     2
 40
3.75
 49
3.0
 74
     0
 49
-0.75
 74
     0
  0
LTYPE
  5
41B
330
18
100
AcDbSymbolTableRecord
100
AcDbLinetypeTableRecord
  2
Amzigzag
 70
     0
  3
/\/-/\/-/\/-/\/-/\/-/\/
 72
    65
 73
     2
 40
11.0001
 49
0.0001
 74
     4
 75
   135
340
41A
 46
0.04
 50
0.0
 44
0.0
 45
0.0
 49
-11.0
 74
     0
  0
LTYPE
  5
42A
330
18
100
AcDbSymbolTableRecord
100
AcDbLinetypeTableRecord
  2
ACISOWELD
 70
     0
  3
_ _ _ _ _
 72
    65
 73
     2
 40
2.0
 49
2.0
 74
     0
 49
-1.0
 74
     0
  0
LTYPE
  5
42B
330
18
100
AcDbSymbolTableRecord
100
AcDbLinetypeTableRecord
  2
ACISOTGB
 70
     0
  3
__ . . __ . .
 72
    65
 73
     6
 40
9.0
 49
4.0
 74
     0
 49
-1.0
 74
     0
 49
1.0
 74
     0
 49
-1.0
 74
     0
 49
1.0
 74
     0
 49
-1.0
 74
     0
  0
LTYPE
  5
42C
330
18
100
AcDbSymbolTableRecord
100
AcDbLinetypeTableRecord
  2
ACISOTGL
 70
     0
  3
_ _ _ _ _
 72
    65
 73
     2
 40
3.0
 49
2.0
 74
     0
 49
-1.0
 74
     0
  0
ENDTAB
  0
TABLE
  2
LAYER
  5
12
102
{ACAD_XDICTIONARY
360
13
102
}
330
0
100
AcDbSymbolTable
 70
     8
  0
LAYER
  5
5
330
12
100
AcDbSymbolTableRecord
100
AcDbLayerTableRecord
  2
0
 70
     0
 62
     7
  6
CONTINUOUS
370
    -3
390
6
  0
LAYER
  5
99
330
12
100
AcDbSymbolTableRecord
100
AcDbLayerTableRecord
  2
AM_VIS
 70
     0
 62
     7
  6
CONTINUOUS
370
    50
390
6
  0
LAYER
  5
35
330
12
100
AcDbSymbolTableRecord
100
AcDbLayerTableRecord
  2
AM_7
 70
     0
 62
     1
  6
AM_ISO08W050
370
    25
390
6
  0
LAYER
  5
96
330
12
100
AcDbSymbolTableRecord
100
AcDbLayerTableRecord
  2
AM_4
 70
     0
 62
     3
  6
CONTINUOUS
370
    25
390
6
  0
LAYER
  5
452
330
12
100
AcDbSymbolTableRecord
100
AcDbLayerTableRecord
  2
LOGO
 70
     0
 62
     7
  6
CONTINUOUS
370
    -3
390
6
  0
LAYER
  5
58F
330
12
100
AcDbSymbolTableRecord
100
AcDbLayerTableRecord
  2
AM_5
 70
     0
 62
     5
  6
CONTINUOUS
370
    50
390
6
  0
LAYER
  5
592
330
12
100
AcDbSymbolTableRecord
100
AcDbLayerTableRecord
  2
Defpoints
 70
     0
 62
     7
  6
CONTINUOUS
290
     0
370
    -3
390
6
  0
LAYER
  5
1138
330
12
100
AcDbSymbolTableRecord
100
AcDbLayerTableRecord
  2
AM_REFDIM
 70
     0
 62
     4
  6
CONTINUOUS
370
    25
390
6
  0
ENDTAB
  0
TABLE
  2
STYLE
  5
15
330
0
100
AcDbSymbolTable
 70
     7
  0
STYLE
  5
16
330
15
100
AcDbSymbolTableRecord
100
AcDbTextStyleTableRecord
  2
STANDARD
 70
     0
 40
0.0
 41
1.0
 50
0.0
 71
     0
 42
0.12
  3
ISOCP.SHX
  4
CHINESET.SHX
  0
STYLE
  5
29
330
15
100
AcDbSymbolTableRecord
100
AcDbTextStyleTableRecord
  2
DAYUS
 70
     0
 40
0.0
 41
1.0
 50
0.0
 71
     0
 42
3.0
  3
simplex.shx
  4
dayus.shx
  0
STYLE
  5
41A
330
15
100
AcDbSymbolTableRecord
100
AcDbTextStyleTableRecord
  2

 70
     1
 40
0.0
 41
1.0
 50
0.0
 71
     0
 42
3.0
  3
ltypeshp.shx
  4

  0
STYLE
  5
41C
330
15
100
AcDbSymbolTableRecord
100
AcDbTextStyleTableRecord
  2
ACISOTS
 70
     0
 40
1.0
 41
1.0
 50
0.0
 71
     0
 42
3.0
  3
isocp.shx
  4
chineset.shx
  0
STYLE
  5
429
330
15
100
AcDbSymbolTableRecord
100
AcDbTextStyleTableRecord
  2
ACISOGDT
 70
     0
 40
0.0
 41
1.0
 50
0.0
 71
     0
 42
3.0
  3
amgdt.shx
  4

  0
STYLE
  5
453
330
15
100
AcDbSymbolTableRecord
100
AcDbTextStyleTableRecord
  2
CHINESE
 70
     0
 40
0.0
 41
1.0
 50
0.0
 71
     0
 42
3.0
  3
simplex.shx
  4
chineset.shx
  0
STYLE
  5
454
330
15
100
AcDbSymbolTableRecord
100
AcDbTextStyleTableRecord
  2
CHINESET
 70
     0
 40
0.0
 41
1.0
 50
0.0
 71
     0
 42
4.0
  3
C:\r13\com\fonts\simplex.shx
  4
C:\r13\com\fonts\chineset.shx
  0
ENDTAB
  0
TABLE
  2
VIEW
  5
1B
330
0
100
AcDbSymbolTable
 70
     0
  0
ENDTAB
  0
TABLE
  2
UCS
  5
1C
330
0
100
AcDbSymbolTable
 70
     0
  0
ENDTAB
  0
TABLE
  2
APPID
  5
1F
330
0
100
AcDbSymbolTable
 70
    18
  0
APPID
  5
20
330
1F
100
AcDbSymbolTableRecord
100
AcDbRegAppTableRecord
  2
ACAD
 70
     0
  0
APPID
  5
11
330
1F
100
AcDbSymbolTableRecord
100
AcDbRegAppTableRecord
  2
ACAD_PSEXT
 70
     0
  0
APPID
  5
3B1
330
1F
100
AcDbSymbolTableRecord
100
AcDbRegAppTableRecord
  2
MCAD_NO_VIS
 70
     0
  0
APPID
  5
3B2
330
1F
100
AcDbSymbolTableRecord
100
AcDbRegAppTableRecord
  2
ACAD_TEMP_GRAPHIC
 70
     0
  0
APPID
  5
3E2
330
1F
100
AcDbSymbolTableRecord
100
AcDbRegAppTableRecord
  2
AD_DRAW
 70
     0
  0
APPID
  5
3E5
330
1F
100
AcDbSymbolTableRecord
100
AcDbRegAppTableRecord
  2
ACATTRIBSERVICES
 70
     0
  0
APPID
  5
403
330
1F
100
AcDbSymbolTableRecord
100
AcDbRegAppTableRecord
  2
DESIGNERASSEMBLIES
 70
     0
  0
APPID
  5
409
330
1F
100
AcDbSymbolTableRecord
100
AcDbRegAppTableRecord
  2
ACADM_DIM_EDIT
 70
     0
  0
APPID
  5
40A
330
1F
100
AcDbSymbolTableRecord
100
AcDbRegAppTableRecord
  2
AMDT_DM_ADJ
 70
     0
  0
APPID
  5
45D
330
1F
100
AcDbSymbolTableRecord
100
AcDbRegAppTableRecord
  2
GENIUS_GENOENT_13
 70
     0
  0
APPID
  5
45E
330
1F
100
AcDbSymbolTableRecord
100
AcDbRegAppTableRecord
  2
GENIUS_GENOBJ-N-CRS_13
 70
     0
  0
APPID
  5
45F
330
1F
100
AcDbSymbolTableRecord
100
AcDbRegAppTableRecord
  2
GENIUS_GENOLIS_13
 70
     0
  0
APPID
  5
460
330
1F
100
AcDbSymbolTableRecord
100
AcDbRegAppTableRecord
  2
GENIUS_GENODEF_13
 70
     0
  0
APPID
  5
461
330
1F
100
AcDbSymbolTableRecord
100
AcDbRegAppTableRecord
  2
GENIUS_GENOREF_13
 70
     0
  0
APPID
  5
462
330
1F
100
AcDbSymbolTableRecord
100
AcDbRegAppTableRecord
  2
GENIUS_GENREC_14
 70
     0
  0
APPID
  5
463
330
1F
100
AcDbSymbolTableRecord
100
AcDbRegAppTableRecord
  2
GENIUS_GENOBJ-N-REC_13
 70
     0
  0
APPID
  5
5A4
330
1F
100
AcDbSymbolTableRecord
100
AcDbRegAppTableRecord
  2
ACAD_DSTYLE_DIMTEXT_FILL
 70
     0
  0
APPID
  5
735
330
1F
100
AcDbSymbolTableRecord
100
AcDbRegAppTableRecord
  2
GENIUS_GENDTOL_13
 70
     0
  0
ENDTAB
  0
TABLE
  2
DIMSTYLE
  5
21
330
0
100
AcDbSymbolTable
 70
     9
100
AcDbDimStyleTable
 71
     2
340
27
340
22
  0
DIMSTYLE
105
27
102
{ACAD_REACTORS
330
13BC
330
13BD
102
}
330
21
100
AcDbSymbolTableRecord
100
AcDbDimStyleTableRecord
  2
AM_ISO
 70
     0
  4
"
 40
1.3
 41
3.5
 42
1.0
 43
8.0
 44
1.0
 47
0.1
 48
0.1
 73
     0
 74
     0
 77
     1
 78
     8
 79
     2
140
3.5
141
0.0
143
0.0393701
146
0.71
147
1.0
172
     1
176
   256
177
   256
178
   256
271
     2
272
     2
283
     0
284
     8
340
16
371
    -1
372
    -1
  0
DIMSTYLE
105
22
330
21
100
AcDbSymbolTableRecord
100
AcDbDimStyleTableRecord
  2
AM_ISO$SH
 70
     0
  4
"
 41
2.5
 42
1.0
 43
10.0
 44
1.0
 47
0.1
 48
0.1
 73
     0
 74
     0
 75
     1
 76
     1
 77
     1
 78
     8
 79
     2
140
3.5
141
0.0
143
0.0393701
144
2.0
146
0.71
147
1.5
172
     1
173
     1
176
   256
177
   256
178
     2
271
     2
272
     3
274
     4
283
     0
284
     8
340
16
343
23
371
    -1
372
    -1
  0
DIMSTYLE
105
435
330
21
100
AcDbSymbolTableRecord
100
AcDbDimStyleTableRecord
  2
AM_ISO$3
 70
     0
  4
"
 40
1.3
 41
3.5
 42
1.0
 43
8.0
 44
1.0
 47
0.1
 48
0.1
 73
     0
 77
     1
 78
     8
 79
     2
140
3.5
141
0.0
143
0.0393701
146
0.71
147
1.0
176
   256
177
   256
178
   256
271
     2
272
     2
283
     0
284
     8
288
     1
289
     0
340
16
371
    -1
372
    -1
  0
DIMSTYLE
105
436
330
21
100
AcDbSymbolTableRecord
100
AcDbDimStyleTableRecord
  2
AM_ISO$4
 70
     0
  4
"
 40
1.3
 41
3.5
 42
1.0
 43
8.0
 44
1.0
 47
0.1
 48
0.1
 73
     0
 77
     1
 78
     8
 79
     2
140
3.5
141
0.0
143
0.0393701
146
0.71
147
1.0
176
   256
177
   256
178
   256
271
     2
272
     2
283
     0
284
     8
288
     1
289
     0
340
16
371
    -1
372
    -1
  0
DIMSTYLE
105
437
330
21
100
AcDbSymbolTableRecord
100
AcDbDimStyleTableRecord
  2
AM_ISO$6
 70
     0
  4
"
 40
1.3
 41
3.5
 42
1.0
 43
8.0
 44
1.0
 47
0.1
 48
0.1
 73
     0
 74
     0
 78
     8
 79
     2
140
3.5
141
0.0
143
0.0393701
146
0.71
147
1.0
172
     1
176
   256
177
   256
178
   256
271
     2
272
     2
283
     0
284
     8
340
16
371
    -1
372
    -1
  0
DIMSTYLE
105
438
330
21
100
AcDbSymbolTableRecord
100
AcDbDimStyleTableRecord
  2
AM_ISO$7
 70
     0
  4
"
 40
1.3
 41
3.5
 42
1.0
 43
8.0
 44
1.0
 47
0.1
 48
0.1
 73
     0
 74
     0
 77
     1
 78
     8
 79
     2
140
5.0
141
0.0
143
0.0393701
146
0.71
147
1.0
172
     1
176
   256
177
   256
178
   256
271
     2
272
     2
283
     0
284
     8
340
16
371
    -1
372
    -1
  0
DIMSTYLE
105
439
330
21
100
AcDbSymbolTableRecord
100
AcDbDimStyleTableRecord
  2
AM_ISO$SF
 70
     0
  4
"
 41
2.5
 42
1.0
 43
10.0
 44
1.0
 47
0.1
 48
0.1
 73
     0
 74
     0
 75
     1
 76
     1
 77
     1
 78
     8
 79
     2
140
3.5
141
0.0
143
0.0393701
146
0.71
147
1.5
172
     1
176
   256
177
   256
178
     2
271
     2
272
     8
274
     4
283
     0
284
     8
340
16
371
    -1
372
    -1
  0
DIMSTYLE
105
457
330
21
100
AcDbSymbolTableRecord
100
AcDbDimStyleTableRecord
  2
STANDARD
 70
     0
 41
3.0
 42
2.0
 43
8.0
 44
2.0
 73
     0
 74
     0
 77
     1
 78
     8
140
3.0
141
2.0
146
0.6
147
1.0
172
     1
176
   256
177
   256
271
     2
272
     2
284
     8
340
453
371
    -1
372
    -1
  0
DIMSTYLE
105
653
330
21
100
AcDbSymbolTableRecord
100
AcDbDimStyleTableRecord
  2
AM_ISO$0
 70
     0
  4
"
 40
1.3
 41
3.5
 42
1.0
 43
8.0
 44
1.0
 47
0.1
 48
0.1
 73
     0
 74
     0
 77
     1
 78
     8
 79
     2
140
3.5
141
0.0
143
0.0393701
146
0.71
147
1.0
172
     1
176
   256
177
   256
178
   256
271
     2
272
     2
283
     0
284
     8
340
16
371
    -1
372
    -1
  0
ENDTAB
  0
TABLE
  2
BLOCK_RECORD
  5
1
330
0
100
AcDbSymbolTable
 70
    13
  0
BLOCK_RECORD
  5
2
102
{ACAD_XDICTIONARY
360
3
102
}
330
1
100
AcDbSymbolTableRecord
100
AcDbBlockTableRecord
  2
*MODEL_SPACE
340
B
  0
BLOCK_RECORD
  5
D
102
{ACAD_XDICTIONARY
360
8C3
102
}
330
1
100
AcDbSymbolTableRecord
100
AcDbBlockTableRecord
  2
*Paper_Space
340
10
  0
BLOCK_RECORD
  5
23
330
1
100
AcDbSymbolTableRecord
100
AcDbBlockTableRecord
  2
GENAXEH
340
0
  0
BLOCK_RECORD
  5
161B
330
1
100
AcDbSymbolTableRecord
100
AcDbBlockTableRecord
  2
*D11
340
0
  0
BLOCK_RECORD
  5
1627
330
1
100
AcDbSymbolTableRecord
100
AcDbBlockTableRecord
  2
*D12
340
0
  0
ENDTAB
  0
ENDSEC
  0
SECTION
  2
BLOCKS
  0
BLOCK
  5
4
330
2
100
AcDbEntity
  8
0
100
AcDbBlockBegin
  2
*MODEL_SPACE
 70
     0
 10
0.0
 20
0.0
 30
0.0
  3
*MODEL_SPACE
  1

  0
ENDBLK
  5
A
330
2
100
AcDbEntity
  8
0
100
AcDbBlockEnd
  0
BLOCK
  5
E
330
D
100
AcDbEntity
 67
     1
  8
0
100
AcDbBlockBegin
  2
*Paper_Space
 70
     0
 10
0.0
 20
0.0
 30
0.0
  3
*Paper_Space
  1

  0
ENDBLK
  5
F
330
D
100
AcDbEntity
 67
     1
  8
0
100
AcDbBlockEnd
  0
BLOCK
  5
24
330
23
100
AcDbEntity
  8
0
100
AcDbBlockBegin
  2
GENAXEH
 70
     0
 10
0.0
 20
0.0
 30
0.0
  3
GENAXEH
  1

  0
LINE
  5
25
330
23
100
AcDbEntity
  8
0
100
AcDbLine
 10
-1.0
 20
0.0
 30
0.0
 11
1.0
 21
0.0
 31
0.0
  0
ENDBLK
  5
26
330
23
100
AcDbEntity
  8
0
100
AcDbBlockEnd
  0
BLOCK
  5
1625
330
161B
100
AcDbEntity
  8
0
100
AcDbBlockBegin
  2
*D11
 70
     1
 10
0.0
 20
0.0
 30
0.0
  3
*D11
  1

  0
LINE
  5
1633
330
161B
100
AcDbEntity
  8
AM_REFDIM
100
AcDbLine
 10
134.3068077880245
 20
186.9655507904812
 30
0.0
 11
153.7710213503975
 21
186.9655507904812
 31
0.0
  0
LINE
  5
1634
330
161B
100
AcDbEntity
  8
AM_REFDIM
100
AcDbLine
 10
134.3068077880245
 20
218.9655507904812
 30
0.0
 11
153.7710213503975
 21
218.9655507904812
 31
0.0
  0
LINE
  5
1635
330
161B
100
AcDbEntity
  8
AM_REFDIM
100
AcDbLine
 10
152.9710213503975
 20
189.7655507904812
 30
0.0
 11
152.9710213503975
 21
216.1655507904812
 31
0.0
  0
SOLID
  5
1636
330
161B
100
AcDbEntity
  8
AM_REFDIM
100
AcDbTrace
 10
152.5043546837308
 20
189.7655507904812
 30
0.0
 11
153.4376880170642
 21
189.7655507904812
 31
0.0
 12
152.9710213503975
 22
186.9655507904812
 32
0.0
 13
152.9710213503975
 23
186.9655507904812
 33
0.0
  0
SOLID
  5
1637
330
161B
100
AcDbEntity
  8
AM_REFDIM
100
AcDbTrace
 10
152.5043546837309
 20
216.1655507904812
 30
0.0
 11
153.4376880170642
 21
216.1655507904812
 31
0.0
 12
152.9710213503975
 22
218.9655507904812
 32
0.0
 13
152.9710213503975
 23
218.9655507904812
 33
0.0
  0
MTEXT
  5
1638
330
161B
100
AcDbEntity
  8
AM_REFDIM
100
AcDbMText
 10
150.7707457598463
 20
202.9655507904812
 30
0.0
 40
2.8
 41
0.0
 71
     5
 72
     1
  1
%%c32
 11
0.0000000000000001
 21
1.0
 31
0.0
 73
     1
 44
1.0
1001
ACAD
1000
MTEXTBEGIN
1070
    73
1070
     1
1070
    44
1040
1.0
1070
    74
1070
     0
1000
MTEXTEND
  0
POINT
  5
1639
330
161B
100
AcDbEntity
  8
Defpoints
 62
     0
100
AcDbPoint
 10
133.5068077880245
 20
186.9655507904812
 30
0.0
  0
POINT
  5
163A
330
161B
100
AcDbEntity
  8
Defpoints
 62
     0
100
AcDbPoint
 10
133.5068077880245
 20
218.9655507904812
 30
0.0
  0
POINT
  5
163B
330
161B
100
AcDbEntity
  8
Defpoints
 62
     0
100
AcDbPoint
 10
152.9710213503975
 20
218.9655507904812
 30
0.0
  0
ENDBLK
  5
1626
330
161B
100
AcDbEntity
  8
0
100
AcDbBlockEnd
  0
BLOCK
  5
1631
330
1627
100
AcDbEntity
  8
0
100
AcDbBlockBegin
  2
*D12
 70
     1
 10
0.0
 20
0.0
 30
0.0
  3
*D12
  1

  0
LINE
  5
163C
330
1627
100
AcDbEntity
  8
AM_REFDIM
100
AcDbLine
 10
144.7210213503975
 20
193.4155507904809
 30
0.0
 11
144.7210213503975
 21
177.6308701764749
 31
0.0
  0
LINE
  5
163D
330
1627
100
AcDbEntity
  8
AM_REFDIM
100
AcDbLine
 10
80.72102135039756
 20
190.6655507904809
 30
0.0
 11
80.72102135039756
 21
177.6308701764749
 31
0.0
  0
LINE
  5
163E
330
1627
100
AcDbEntity
  8
AM_REFDIM
100
AcDbLine
 10
141.9210213503975
 20
178.4308701764749
 30
0.0
 11
83.52102135039755
 21
178.4308701764749
 31
0.0
  0
SOLID
  5
163F
330
1627
100
AcDbEntity
  8
AM_REFDIM
100
AcDbTrace
 10
141.9210213503975
 20
178.8975368431416
 30
0.0
 11
141.9210213503975
 21
177.9642035098083
 31
0.0
 12
144.7210213503975
 22
178.4308701764749
 32
0.0
 13
144.7210213503975
 23
178.4308701764749
 33
0.0
  0
SOLID
  5
1640
330
1627
100
AcDbEntity
  8
AM_REFDIM
100
AcDbTrace
 10
83.52102135039755
 20
178.8975368431416
 30
0.0
 11
83.52102135039755
 21
177.9642035098083
 31
0.0
 12
80.72102135039756
 22
178.4308701764749
 32
0.0
 13
80.72102135039756
 23
178.4308701764749
 33
0.0
  0
MTEXT
  5
1641
330
1627
100
AcDbEntity
  8
AM_REFDIM
100
AcDbMText
 10
112.7210213503975
 20
180.6308701764749
 30
0.0
 40
2.8
 41
0.0
 71
     5
 72
     1
  1
64
 73
     1
 44
1.0
1001
ACAD
1000
MTEXTBEGIN
1070
    73
1070
     1
1070
    44
1040
1.0
1070
    74
1070
     0
1000
MTEXTEND
  0
POINT
  5
1642
330
1627
100
AcDbEntity
  8
Defpoints
 62
     0
100
AcDbPoint
 10
144.7210213503975
 20
194.2155507904809
 30
0.0
  0
POINT
  5
1643
330
1627
100
AcDbEntity
  8
Defpoints
 62
     0
100
AcDbPoint
 10
80.72102135039756
 20
191.4655507904809
 30
0.0
  0
POINT
  5
1644
330
1627
100
AcDbEntity
  8
Defpoints
 62
     0
100
AcDbPoint
 10
80.72102135039756
 20
178.4308701764749
 30
0.0
  0
ENDBLK
  5
1632
330
1627
100
AcDbEntity
  8
0
100
AcDbBlockEnd
  0
ENDSEC
  0
SECTION
  2
ENTITIES
  0
VIEWPORT
  5
3AA
102
{ACAD_XDICTIONARY
360
1655
102
}
330
D
100
AcDbEntity
 67
     1
  8
0
100
AcDbViewport
 10
141.2048417401953
 20
202.364832642547
 30
0.0
 40
453.9591983831988
 41
367.0308412459906
 68
     1
 69
     1
 12
141.2048417401953
 22
202.364832642547
 13
0.0
 23
0.0
 14
1.0
 24
1.0
 15
0.0
 25
0.0
 16
0.0
 26
0.0
 36
1.0
 17
0.0
 27
0.0
 37
0.0
 42
50.0
 43
0.0
 44
0.0
 45
367.0308412459906
 50
0.0
 51
0.0
 72
  1000
 90
    32800
  1

281
     0
 71
     1
 74
     0
110
0.0
120
0.0
130
0.0
111
1.0
121
0.0
131
0.0
112
0.0
122
1.0
132
0.0
 79
     0
146
0.0
  0
TEXT
  5
505
330
D
100
AcDbEntity
 67
     1
  8
LOGO
 62
     7
100
AcDbText
 10
97.11412350669389
 20
40.53252060200551
 30
0.0
 40
4.799304977375565
  1
Order example:
 41
0.8
  7
CHINESET
100
AcDbText
  0
TEXT
  5
506
330
D
100
AcDbEntity
 67
     1
  8
LOGO
 62
     7
100
AcDbText
 10
97.97515850827267
 20
47.28894830137514
 30
0.0
 40
7.198957466063347
  1
訂購代號：
  7
CHINESET
100
AcDbText
  0
LINE
  5
507
330
D
100
AcDbEntity
 67
     1
  8
LOGO
 62
     4
100
AcDbLine
 10
95.02880921571749
 20
20.30643709745559
 30
0.0
 11
95.02880921571749
 21
56.30122442777255
 31
0.0
  0
TEXT
  5
508
330
D
100
AcDbEntity
 67
     1
  8
LOGO
  6
Continuous
100
AcDbText
 10
28.76976649776998
 20
27.37755874762601
 30
0.0
 40
5.399218099547511
  1
金器工業股份有限公司
  7
CHINESET
100
AcDbText
  0
TEXT
  5
509
330
D
100
AcDbEntity
 67
     1
  8
LOGO
  6
Continuous
100
AcDbText
 10
18.85247103152505
 20
21.97728282464615
 30
0.0
 40
3.599478733031673
  1
MINDMAN INDUSTRIAL CO., LTD.
 41
0.85
  7
CHINESET
100
AcDbText
  0
LINE
  5
50A
330
D
100
AcDbEntity
 67
     1
  8
LOGO
 62
     4
100
AcDbLine
 10
95.02880921571749
 20
49.10226696170918
 30
0.0
 11
42.23645446458601
 21
49.10226696170918
 31
0.0
  0
LINE
  5
50B
330
D
100
AcDbEntity
 67
     1
  8
LOGO
 62
     4
100
AcDbLine
 10
95.02880921571749
 20
41.9033094956458
 30
0.0
 11
42.23645446458601
 21
41.9033094956458
 31
0.0
  0
LINE
  5
50C
330
D
100
AcDbEntity
 67
     1
  8
LOGO
 62
     4
100
AcDbLine
 10
95.02880921571749
 20
34.70435202958285
 30
0.0
 11
15.84027708902067
 21
34.70435202958285
 31
0.0
  0
LINE
  5
50D
330
D
100
AcDbEntity
 67
     1
  8
LOGO
 62
     4
100
AcDbLine
 10
42.23645446458601
 20
34.70435202958285
 30
0.0
 11
42.23645446458601
 21
56.30122442777255
 31
0.0
  0
TEXT
  5
50E
330
D
100
AcDbEntity
 67
     1
  8
LOGO
100
AcDbText
 10
78.31753717579449
 20
36.50409139609806
 30
0.0
 40
3.599478733031673
  1
mm
  7
CHINESET
 72
     1
 11
82.77403465478608
 21
38.3038307626139
 31
0.0
100
AcDbText
 73
     2
  0
TEXT
  5
50F
330
D
100
AcDbEntity
 67
     1
  8
LOGO
100
AcDbText
 10
76.43209593468265
 20
50.90200632822481
 30
0.0
 40
3.599478733031673
  1
1 : 1
  7
CHINESET
 72
     1
 11
82.77403465478608
 21
52.70174569474065
 31
0.0
100
AcDbText
 73
     2
  0
LINE
  5
510
330
D
100
AcDbEntity
 67
     1
  8
LOGO
 62
     4
100
AcDbLine
 10
71.03228432883952
 20
34.70435202958285
 30
0.0
 11
71.03228432883952
 21
56.30122442777255
 31
0.0
  0
TEXT
  5
511
330
D
100
AcDbEntity
 67
     1
  8
LOGO
100
AcDbText
 10
45.20441750918858
 20
50.9037777252391
 30
235.9039063680897
 40
3.599478733031673
  1
比例 Scale:
 41
0.9
  7
CHINESET
 72
     4
 11
56.63436939671282
 21
52.70174569474065
 31
235.9039063680897
100
AcDbText
  0
TEXT
  5
512
330
D
100
AcDbEntity
 67
     1
  8
LOGO
100
AcDbText
 10
44.99712610000953
 20
43.75368129348648
 30
235.9039063680897
 40
3.599478733031673
  1
投影  View:
 41
0.9
  7
CHINESET
 72
     4
 11
56.63436939671282
 21
45.50278822867727
 31
235.9039063680897
100
AcDbText
  0
TEXT
  5
513
330
D
100
AcDbEntity
 67
     1
  8
LOGO
100
AcDbText
 10
45.34903942256931
 20
36.50409139609806
 30
235.9039063680897
 40
3.599478733031673
  1
單位  Unit:
 41
0.9
  7
CHINESET
 72
     4
 11
56.63436939671282
 21
38.3038307626139
 31
235.9039063680897
100
AcDbText
  0
LWPOLYLINE
  5
514
330
D
100
AcDbEntity
 67
     1
  8
LOGO
 62
     4
100
AcDbPolyline
 90
        4
 70
     1
 43
0.0
 10
15.84027708902067
 20
56.30122442777255
 10
266.5674180929635
 20
56.30122442777255
 10
266.5674180929635
 20
384.4206867153358
 10
15.84027708902067
 20
384.4206867153358
1001
GENIUS_GENREC_14
1002
{
1000
PYDIR
1011
15.84027708902067
1021
384.4206867153358
1031
0.0
1002
}
1002
{
1000
PXDIR
1011
266.5674180929635
1021
56.30122442777255
1031
0.0
1002
}
1002
{
1000
PORI
1011
15.84027708902067
1021
56.30122442777255
1031
0.0
1002
}
1002
{
1000
PINS
1011
15.84027708902067
1021
56.30122442777255
1031
0.0
1002
}
1002
{
1000
PINS2
1011
266.5674180929635
1021
384.4206867153358
1031
0.0
1002
}
1002
{
1000
C
1070
     1
1002
}
1001
GENIUS_GENODEF_13
1002
{
1000
HIER
1070
     0
1002
}
1002
{
1000
MANEDIT
1070
     0
1002
}
1002
{
1000
NOSEL
1070
     0
1002
}
1002
{
1000
BEHIND
1070
     0
1002
}
1002
{
1000
OTHER
1070
     0
1002
}
1002
{
1000
REACTOR
1002
}
1001
GENIUS_GENOBJ-N-REC_13
1002
{
1000
OWNER
1000
GEN
1002
}
  0
SOLID
  5
515
330
D
100
AcDbEntity
 67
     1
  8
LOGO
 62
     5
100
AcDbTrace
 10
19.57479404178065
 20
40.6879730777949
 30
0.0
 11
21.13111419562153
 21
40.68797307779457
 31
0.0
 12
27.62472587199204
 22
55.44618143318351
 32
0.0
 13
29.18104602583378
 23
55.44618143318266
 33
0.0
  0
SOLID
  5
516
330
D
100
AcDbEntity
 67
     1
  8
LOGO
 62
     5
100
AcDbTrace
 10
21.77510874204017
 20
40.6879730777949
 30
0.0
 11
23.33142889588106
 21
40.6879730777949
 31
0.0
 12
29.18104602583378
 22
54.2655247647518
 32
0.0
 13
27.62472587199204
 23
48.55901753400164
 33
0.0
  0
SOLID
  5
517
330
D
100
AcDbEntity
 67
     1
  8
LOGO
 62
     2
100
AcDbTrace
 10
21.13111419562153
 20
40.68797307779457
 30
0.0
 11
21.77510874204017
 21
40.6879730777949
 31
0.0
 12
29.18104602583378
 22
55.44618143318266
 32
0.0
 13
29.82504057225151
 23
55.44618143318266
 33
0.0
  0
SOLID
  5
518
330
D
100
AcDbEntity
 67
     1
  8
LOGO
 62
     5
100
AcDbTrace
 10
17.07963117872157
 20
35.32135185765409
 30
0.0
 11
17.61629330073629
 21
35.32135185765409
 31
0.0
 12
19.12757560676937
 22
38.00466246772433
 32
0.0
 13
19.66423772878238
 23
38.00466246772433
 33
0.0
  0
SOLID
  5
519
330
D
100
AcDbEntity
 67
     1
  8
LOGO
 62
     5
100
AcDbTrace
 10
19.12757560676937
 20
38.00466246772433
 30
0.0
 11
19.66423772878238
 21
38.00466246772433
 31
0.0
 12
19.12757560676937
 22
35.32135185765409
 32
0.0
 13
19.66423772878238
 23
35.32135185765409
 33
0.0
  0
SOLID
  5
51A
330
D
100
AcDbEntity
 67
     1
  8
LOGO
 62
     5
100
AcDbTrace
 10
19.12757560676937
 20
35.32135185765409
 30
0.0
 11
19.66423772878238
 21
35.32135185765409
 31
0.0
 12
21.17552003481796
 22
38.00466246772433
 32
0.0
 13
21.71218215683183
 23
38.00466246772433
 33
0.0
  0
SOLID
  5
51B
330
D
100
AcDbEntity
 67
     1
  8
LOGO
 62
     5
100
AcDbTrace
 10
21.17552003481796
 20
38.00466246772433
 30
0.0
 11
21.71218215683183
 21
38.00466246772433
 31
0.0
 12
21.17552003481796
 22
35.32135185765409
 32
0.0
 13
21.71218215683183
 23
35.32135185765409
 33
0.0
  0
POLYLINE
  5
51C
330
D
100
AcDbEntity
 67
     1
  8
LOGO
 62
     5
100
AcDb2dPolyline
 66
     1
 10
0.0
 20
0.0
 30
0.0
 40
0.5375221574660632
 41
0.5375221574660632
  0
VERTEX
  5
51D
330
51C
100
AcDbEntity
 67
     1
  8
LOGO
 62
     5
100
AcDbVertex
100
AcDb2dVertex
 10
39.16425154847502
 20
36.9313382236962
 30
0.0
 42
1.0
  0
VERTEX
  5
51E
330
51C
100
AcDbEntity
 67
     1
  8
LOGO
 62
     5
100
AcDbVertex
100
AcDb2dVertex
 10
37.55168507607641
 20
36.9313382236962
 30
0.0
 42
1.0
  0
SEQEND
  5
51F
330
51C
100
AcDbEntity
 67
     1
  8
LOGO
 62
     5
  0
POLYLINE
  5
520
330
D
100
AcDbEntity
 67
     1
  8
LOGO
 62
     5
100
AcDb2dPolyline
 66
     1
 10
0.0
 20
0.0
 30
0.0
 70
     1
  0
VERTEX
  5
521
330
520
100
AcDbEntity
 67
     1
  8
LOGO
 62
     5
100
AcDbVertex
100
AcDb2dVertex
 10
34.51192554864827
 20
36.66300716268878
 30
0.0
 42
1.000000057330635
  0
VERTEX
  5
522
330
520
100
AcDbEntity
 67
     1
  8
LOGO
 62
     5
100
AcDbVertex
100
AcDb2dVertex
 10
36.12191191469071
 20
36.66300716268878
 30
0.0
 42
1.000000057330635
  0
SEQEND
  5
523
330
520
100
AcDbEntity
 67
     1
  8
LOGO
 62
     5
  0
CIRCLE
  5
524
330
D
100
AcDbEntity
 67
     1
  8
LOGO
 62
     5
100
AcDbCircle
 10
35.31691873167074
 20
36.66300716268878
 30
0.0
 40
0.8049931830211765
  0
POLYLINE
  5
525
330
D
100
AcDbEntity
 67
     1
  8
LOGO
 62
     5
100
AcDb2dPolyline
 66
     1
 10
0.0
 20
0.0
 30
0.0
 70
     1
 40
0.5375221574660632
 41
0.5375221574660632
  0
VERTEX
  5
526
330
525
100
AcDbEntity
 67
     1
  8
LOGO
 62
     5
100
AcDbVertex
100
AcDb2dVertex
 10
34.2418744167378
 20
36.66300716268878
 30
0.0
 42
1.0
  0
VERTEX
  5
527
330
525
100
AcDbEntity
 67
     1
  8
LOGO
 62
     5
100
AcDbVertex
100
AcDb2dVertex
 10
36.39196304660198
 20
36.66300716268878
 30
0.0
 42
1.0
  0
SEQEND
  5
528
330
525
100
AcDbEntity
 67
     1
  8
LOGO
 62
     5
  0
LINE
  5
529
330
D
100
AcDbEntity
 67
     1
  8
LOGO
100
AcDbLine
 10
39.4312925563031
 20
35.32135185765409
 30
0.0
 11
39.4312925563031
 21
36.9313382236962
 31
0.0
  0
SOLID
  5
52A
330
D
100
AcDbEntity
 67
     1
  8
LOGO
 62
     5
100
AcDbTrace
 10
36.12185824848092
 20
38.00466246772433
 30
0.0
 11
36.65852037049399
 21
38.00466246772433
 31
0.0
 12
36.12185824848092
 22
35.32135185765409
 32
0.0
 13
36.65852037049399
 23
35.32135185765409
 33
0.0
  0
SOLID
  5
52B
330
D
100
AcDbEntity
 67
     1
  8
LOGO
 62
     5
100
AcDbTrace
 10
37.28464406824674
 20
35.32135185765409
 30
0.0
 11
37.82130619026145
 21
35.32135185765409
 31
0.0
 12
37.28464406824674
 22
38.00466246772433
 32
0.0
 13
37.82130619026145
 23
38.00466246772433
 33
0.0
  0
SOLID
  5
52C
330
D
100
AcDbEntity
 67
     1
  8
LOGO
 62
     5
100
AcDbTrace
 10
38.89463043429003
 20
36.9313382236962
 30
0.0
 11
39.4312925563031
 21
36.9313382236962
 31
0.0
 12
38.89463043429003
 22
35.32135185765409
 32
0.0
 13
39.4312925563031
 23
35.32135185765409
 33
0.0
  0
SOLID
  5
52D
330
D
100
AcDbEntity
 67
     1
  8
LOGO
 62
     5
100
AcDbTrace
 10
37.23097785604523
 20
54.2655247647518
 30
0.0
 11
35.67465770220514
 21
48.55901753400164
 31
0.0
 12
37.23097785604523
 22
40.68797307779457
 32
0.0
 13
35.67465770220514
 23
40.68797307779457
 33
0.0
  0
SOLID
  5
52E
330
D
100
AcDbEntity
 67
     1
  8
LOGO
 62
     5
100
AcDbTrace
 10
37.87497240246302
 20
40.68797307779457
 30
0.0
 11
39.4312925563031
 21
40.68797307779457
 31
0.0
 12
37.87497240246302
 22
55.44618143318266
 32
0.0
 13
39.4312925563031
 23
55.44618143318351
 33
0.0
  0
SOLID
  5
52F
330
D
100
AcDbEntity
 67
     1
  8
LOGO
 62
     2
100
AcDbTrace
 10
37.23097785604523
 20
55.44618143318351
 30
0.0
 11
37.87497240246302
 21
55.44618143318266
 31
0.0
 12
37.23097785604523
 22
40.68797307779457
 32
0.0
 13
37.87497240246302
 23
40.68797307779457
 33
0.0
  0
POLYLINE
  5
530
330
D
100
AcDbEntity
 67
     1
  8
LOGO
 62
     5
100
AcDb2dPolyline
 66
     1
 10
0.0
 20
0.0
 30
0.0
 40
0.5375221574660632
 41
0.5375221574660632
  0
VERTEX
  5
531
330
530
100
AcDbEntity
 67
     1
  8
LOGO
 62
     5
100
AcDbVertex
100
AcDb2dVertex
 10
31.47205868879792
 20
36.9313382236962
 30
0.0
 42
1.0
  0
VERTEX
  5
532
330
530
100
AcDbEntity
 67
     1
  8
LOGO
 62
     5
100
AcDbVertex
100
AcDb2dVertex
 10
29.85949221639947
 20
36.9313382236962
 30
0.0
 42
1.0
  0
SEQEND
  5
533
330
530
100
AcDbEntity
 67
     1
  8
LOGO
 62
     5
  0
POLYLINE
  5
534
330
D
100
AcDbEntity
 67
     1
  8
LOGO
 62
     5
100
AcDb2dPolyline
 66
     1
 10
0.0
 20
0.0
 30
0.0
 40
0.5375221574660632
 41
0.5375221574660632
  0
VERTEX
  5
535
330
534
100
AcDbEntity
 67
     1
  8
LOGO
 62
     5
100
AcDbVertex
100
AcDb2dVertex
 10
33.08204505483877
 20
36.9313382236962
 30
0.0
 42
1.0
  0
VERTEX
  5
536
330
534
100
AcDbEntity
 67
     1
  8
LOGO
 62
     5
100
AcDbVertex
100
AcDb2dVertex
 10
31.46947858244107
 20
36.9313382236962
 30
0.0
 42
1.0
  0
SEQEND
  5
537
330
534
100
AcDbEntity
 67
     1
  8
LOGO
 62
     5
  0
POLYLINE
  5
538
330
D
100
AcDbEntity
 67
     1
  8
LOGO
 62
     5
100
AcDb2dPolyline
 66
     1
 10
0.0
 20
0.0
 30
0.0
 40
0.5375221574660632
 41
0.5375221574660632
  0
VERTEX
  5
539
330
538
100
AcDbEntity
 67
     1
  8
LOGO
 62
     5
100
AcDbVertex
100
AcDb2dVertex
 10
25.38985219516178
 20
36.9313382236962
 30
0.0
 42
1.0
  0
VERTEX
  5
53A
330
538
100
AcDbEntity
 67
     1
  8
LOGO
 62
     5
100
AcDbVertex
100
AcDb2dVertex
 10
23.77728572276408
 20
36.9313382236962
 30
0.0
 42
1.0
  0
SEQEND
  5
53B
330
538
100
AcDbEntity
 67
     1
  8
LOGO
 62
     5
  0
SOLID
  5
53C
330
D
100
AcDbEntity
 67
     1
  8
LOGO
 62
     5
100
AcDbTrace
 10
23.5102447149352
 20
38.00466246772433
 30
0.0
 11
24.04690683694821
 21
38.00466246772433
 31
0.0
 12
23.5102447149352
 22
35.32135185765409
 32
0.0
 13
24.04690683694821
 23
35.32135185765409
 33
0.0
  0
SOLID
  5
53D
330
D
100
AcDbEntity
 67
     1
  8
LOGO
 62
     5
100
AcDbTrace
 10
25.12023108097765
 20
36.9313382236962
 30
0.0
 11
25.65689320299225
 21
36.9313382236962
 31
0.0
 12
25.12023108097765
 22
35.32135185765409
 32
0.0
 13
25.65689320299225
 23
35.32135185765409
 33
0.0
  0
POLYLINE
  5
53E
330
D
100
AcDbEntity
 67
     1
  8
LOGO
 62
     5
100
AcDb2dPolyline
 66
     1
 10
0.0
 20
0.0
 30
0.0
 70
     1
 40
0.5375221574660632
 41
0.5375221574660632
  0
VERTEX
  5
53F
330
53E
100
AcDbEntity
 67
     1
  8
LOGO
 62
     5
100
AcDbVertex
100
AcDb2dVertex
 10
26.54968155706001
 20
36.66300716268878
 30
0.0
 42
1.0
  0
VERTEX
  5
540
330
53E
100
AcDbEntity
 67
     1
  8
LOGO
 62
     5
100
AcDbVertex
100
AcDb2dVertex
 10
28.69977018692498
 20
36.66300716268878
 30
0.0
 42
1.0
  0
SEQEND
  5
541
330
53E
100
AcDbEntity
 67
     1
  8
LOGO
 62
     5
  0
SOLID
  5
542
330
D
100
AcDbEntity
 67
     1
  8
LOGO
 62
     5
100
AcDbTrace
 10
28.42966538880228
 20
38.80965565074598
 30
0.0
 11
28.96632751081614
 21
38.80965565074598
 31
0.0
 12
28.42966538880228
 22
35.32135185765409
 32
0.0
 13
28.96632751081614
 23
35.32135185765409
 33
0.0
  0
SOLID
  5
543
330
D
100
AcDbEntity
 67
     1
  8
LOGO
 62
     5
100
AcDbTrace
 10
29.59245120857139
 20
38.00466246772433
 30
0.0
 11
30.12911333058446
 21
38.00466246772433
 31
0.0
 12
29.59245120857139
 22
35.32135185765409
 32
0.0
 13
30.12911333058446
 23
35.32135185765409
 33
0.0
  0
SOLID
  5
544
330
D
100
AcDbEntity
 67
     1
  8
LOGO
 62
     5
100
AcDbTrace
 10
31.20243757461219
 20
36.9313382236962
 30
0.0
 11
31.73909969662691
 21
36.9313382236962
 31
0.0
 12
31.20243757461219
 22
35.32135185765409
 32
0.0
 13
31.73909969662691
 23
35.32135185765409
 33
0.0
  0
SOLID
  5
545
330
D
100
AcDbEntity
 67
     1
  8
LOGO
 62
     5
100
AcDbTrace
 10
32.81242394065464
 20
36.9313382236962
 30
0.0
 11
33.34908606266845
 21
36.9313382236962
 31
0.0
 12
32.81242394065464
 22
35.32135185765333
 32
0.0
 13
33.34908606266845
 23
35.32135185765333
 33
0.0
  0
SOLID
  5
546
330
D
100
AcDbEntity
 67
     1
  8
LOGO
 62
     5
100
AcDbTrace
 10
22.34745889516688
 20
38.38032595313439
 30
0.0
 11
22.8841210171824
 21
38.38032595313439
 31
0.0
 12
22.34745889516688
 22
38.80965565074598
 32
0.0
 13
22.8841210171824
 23
38.80965565074598
 33
0.0
  0
SOLID
  5
547
330
D
100
AcDbEntity
 67
     1
  8
LOGO
 62
     5
100
AcDbTrace
 10
22.34745889516688
 20
38.00466246772433
 30
0.0
 11
22.8841210171824
 21
38.00466246772433
 31
0.0
 12
22.34745889516688
 22
35.32135185765333
 32
0.0
 13
22.8841210171824
 23
35.32135185765409
 33
0.0
  0
SOLID
  5
548
330
D
100
AcDbEntity
 67
     1
  8
LOGO
 62
     5
100
AcDbTrace
 10
27.62472587199204
 20
40.6879730777949
 30
0.0
 11
29.18104602583378
 21
40.6879730777949
 31
0.0
 12
27.62472587199204
 22
48.55901753400164
 32
0.0
 13
29.18104602583378
 23
54.2655247647518
 33
0.0
  0
SOLID
  5
549
330
D
100
AcDbEntity
 67
     1
  8
LOGO
 62
     5
100
AcDbTrace
 10
29.82504057225151
 20
55.44618143318266
 30
0.0
 11
31.38136072609166
 21
55.44618143318351
 31
0.0
 12
29.82504057225151
 22
41.86862974622576
 32
0.0
 13
31.38136072609166
 23
47.57513697697601
 33
0.0
  0
SOLID
  5
54A
330
D
100
AcDbEntity
 67
     1
  8
LOGO
 62
     2
100
AcDbTrace
 10
29.18104602583378
 20
55.44618143318266
 30
0.0
 11
29.82504057225151
 21
55.44618143318266
 31
0.0
 12
29.18104602583378
 22
40.6879730777949
 32
0.0
 13
29.82504057225151
 23
40.6879730777949
 33
0.0
  0
SOLID
  5
54B
330
D
100
AcDbEntity
 67
     1
  8
LOGO
 62
     5
100
AcDbTrace
 10
29.82504057225151
 20
41.86862974622576
 30
0.0
 11
31.38136072609166
 21
47.57513697697601
 31
0.0
 12
37.23097785604523
 22
55.44618143318351
 32
0.0
 13
35.67465770220514
 23
55.44618143318351
 33
0.0
  0
SOLID
  5
54C
330
D
100
AcDbEntity
 67
     1
  8
LOGO
 62
     5
100
AcDbTrace
 10
29.82504057225151
 20
40.6879730777949
 30
0.0
 11
31.38136072609166
 21
40.6879730777949
 31
0.0
 12
37.23097785604523
 22
54.2655247647518
 32
0.0
 13
35.67465770220514
 23
48.55901753400164
 33
0.0
  0
SOLID
  5
54D
330
D
100
AcDbEntity
 67
     1
  8
LOGO
 62
     2
100
AcDbTrace
 10
29.18104602583378
 20
40.6879730777949
 30
0.0
 11
29.82504057225151
 21
40.6879730777949
 31
0.0
 12
37.23097785604523
 22
55.44618143318351
 32
0.0
 13
37.87497240246302
 23
55.44618143318266
 33
0.0
  0
LWPOLYLINE
  5
54E
330
D
100
AcDbEntity
 67
     1
  8
LOGO
 62
     4
100
AcDbPolyline
 90
        4
 70
     1
 43
0.0
 10
15.84027708902067
 20
56.30122442777255
 10
266.5674180929635
 20
56.30122442777255
 10
266.5674180929635
 20
20.30643709745524
 10
15.84027708902067
 20
20.30643709745524
1001
GENIUS_GENREC_14
1002
{
1000
PYDIR
1011
15.84027708902067
1021
20.30643709745524
1031
0.0
1002
}
1002
{
1000
PXDIR
1011
266.5674180929635
1021
56.30122442777255
1031
0.0
1002
}
1002
{
1000
PORI
1011
15.84027708902067
1021
56.30122442777255
1031
0.0
1002
}
1002
{
1000
PINS
1011
15.84027708902067
1021
56.30122442777255
1031
0.0
1002
}
1002
{
1000
PINS2
1011
266.5674180929635
1021
20.30643709745524
1031
0.0
1002
}
1002
{
1000
C
1070
     1
1002
}
1001
GENIUS_GENOBJ-N-REC_13
1002
{
1000
OWNER
1000
GEN
1002
}
1001
GENIUS_GENODEF_13
1002
{
1000
HIER
1070
     0
1002
}
1002
{
1000
MANEDIT
1070
     0
1002
}
1002
{
1000
NOSEL
1070
     0
1002
}
1002
{
1000
BEHIND
1070
     0
1002
}
1002
{
1000
OTHER
1070
     0
1002
}
1002
{
1000
REACTOR
1002
}
  0
LINE
  5
54F
330
D
100
AcDbEntity
 67
     1
  8
LOGO
 62
     4
100
AcDbLine
 10
178.0780298116438
 20
36.5040913960988
 30
0.0
 11
178.0780298116438
 21
23.30600270831525
 31
0.0
  0
LINE
  5
550
330
D
100
AcDbEntity
 67
     1
  8
LOGO
 62
     4
100
AcDbLine
 10
154.0815049247658
 20
36.5040913960988
 30
0.0
 11
154.0815049247658
 21
23.30600270831525
 31
0.0
  0
LINE
  5
551
330
D
100
AcDbEntity
 67
     1
  8
LOGO
 62
     4
100
AcDbLine
 10
178.0780298116438
 20
23.30600270831525
 30
0.0
 11
154.0815049247658
 21
23.30600270831525
 31
0.0
  0
LINE
  5
552
330
D
100
AcDbEntity
 67
     1
  8
LOGO
 62
     4
100
AcDbLine
 10
189.3221864189249
 20
52.70174569474065
 30
0.0
 11
144.5380416588077
 21
52.70174569474065
 31
0.0
  0
LINE
  5
553
330
D
100
AcDbEntity
 67
     1
  8
LOGO
 62
     4
100
AcDbLine
 10
189.3221864189249
 20
41.9033094956458
 30
0.0
 11
144.5380416588077
 21
41.9033094956458
 31
0.0
  0
LINE
  5
554
330
D
100
AcDbEntity
 67
     1
  8
LOGO
 62
     4
100
AcDbLine
 10
144.5380416588077
 20
52.70174569474065
 30
0.0
 11
144.5380416588077
 21
41.9033094956458
 31
0.0
  0
LINE
  5
555
330
D
100
AcDbEntity
 67
     1
  8
LOGO
 62
     4
100
AcDbLine
 10
189.3221864189249
 20
52.70174569474065
 30
0.0
 11
189.3221864189249
 21
41.9033094956458
 31
0.0
  0
LINE
  5
556
330
D
100
AcDbEntity
 67
     1
  8
LOGO
 62
     4
100
AcDbLine
 10
167.3317832490305
 20
41.9033094956458
 30
0.0
 11
167.3317832490305
 21
36.5040913960988
 31
0.0
  0
TEXT
  5
557
330
D
100
AcDbEntity
 67
     1
  8
LOGO
  6
Continuous
 62
     7
100
AcDbText
 10
147.9399547583279
 20
45.26958772861289
 30
0.0
 40
5.0
  1
MAR300LK
  7
CHINESET
100
AcDbText
  0
LINE
  5
558
330
D
100
AcDbEntity
 67
     1
  8
LOGO
 62
     4
100
AcDbLine
 10
178.0780298116438
 20
36.5040913960988
 30
0.0
 11
154.0815049247658
 21
36.5040913960988
 31
0.0
  0
TEXT
  5
559
330
D
100
AcDbEntity
 67
     1
  8
LOGO
  6
Continuous
100
AcDbText
 10
161.7819137891233
 20
25.16888493939865
 30
235.9039063680897
 40
2.699999999999999
  1
Model
 41
0.8
  7
CHINESET
100
AcDbText
  0
TEXT
  5
55A
330
D
100
AcDbEntity
 67
     1
  8
LOGO
100
AcDbText
 10
161.063261560725
 20
30.17410304786793
 30
235.9039063680897
 40
4.5
  1
型號
  7
CHINESET
100
AcDbText
  0
LINE
  5
55B
330
D
100
AcDbEntity
 67
     1
  8
LOGO
  6
Continuous
 62
     7
100
AcDbLine
 10
191.8135367446967
 20
47.26427782761996
 30
0.0
 11
196.5817321527877
 21
47.26427782761996
 31
0.0
  0
LINE
  5
55C
330
D
100
AcDbEntity
 67
     1
  8
LOGO
 62
     4
100
AcDbLine
 10
222.7191909420287
 20
36.5040913960988
 30
0.0
 11
222.7191909420287
 21
23.30600270831525
 31
0.0
  0
LINE
  5
55D
330
D
100
AcDbEntity
 67
     1
  8
LOGO
 62
     4
100
AcDbLine
 10
190.8572300035963
 20
36.5040913960988
 30
0.0
 11
190.8572300035963
 21
23.30600270831525
 31
0.0
  0
LINE
  5
55E
330
D
100
AcDbEntity
 67
     1
  8
LOGO
 62
     4
100
AcDbLine
 10
222.7191909420287
 20
23.30600270831525
 30
0.0
 11
190.8572300035963
 21
23.30600270831525
 31
0.0
  0
LINE
  5
55F
330
D
100
AcDbEntity
 67
     1
  8
LOGO
 62
     4
100
AcDbLine
 10
216.5376367073646
 20
52.70174569474065
 30
0.0
 11
198.0858464574609
 21
52.70174569474065
 31
0.0
  0
LINE
  5
560
330
D
100
AcDbEntity
 67
     1
  8
LOGO
 62
     4
100
AcDbLine
 10
216.5376367073646
 20
41.9033094956458
 30
0.0
 11
198.0858464574609
 21
41.9033094956458
 31
0.0
  0
LINE
  5
561
330
D
100
AcDbEntity
 67
     1
  8
LOGO
 62
     4
100
AcDbLine
 10
198.0858464574609
 20
52.70174569474065
 30
0.0
 11
198.0858464574609
 21
41.9033094956458
 31
0.0
  0
LINE
  5
562
330
D
100
AcDbEntity
 67
     1
  8
LOGO
 62
     4
100
AcDbLine
 10
216.5376367073646
 20
52.70174569474065
 30
0.0
 11
216.5376367073646
 21
41.9033094956458
 31
0.0
  0
LINE
  5
563
330
D
100
AcDbEntity
 67
     1
  8
LOGO
 62
     4
100
AcDbLine
 10
206.3824848680366
 20
41.9033094956458
 30
0.0
 11
206.3824848680366
 21
36.5040913960988
 31
0.0
  0
TEXT
  5
564
330
D
100
AcDbEntity
 67
     1
  8
LOGO
  6
Continuous
 62
     7
100
AcDbText
 10
202.8239049091419
 20
44.15746726489473
 30
0.0
 40
6.3
  1
*A
  7
CHINESET
100
AcDbText
  0
LINE
  5
565
330
D
100
AcDbEntity
 67
     1
  8
LOGO
 62
     4
100
AcDbLine
 10
222.7191909420287
 20
36.5040913960988
 30
0.0
 11
190.8572300035963
 21
36.5040913960988
 31
0.0
  0
TEXT
  5
566
330
D
100
AcDbEntity
 67
     1
  8
LOGO
  6
Continuous
100
AcDbText
 10
199.1878781010415
 20
25.16888493939865
 30
235.9039063680897
 40
2.699999999999999
  1
Bore size
 41
0.8
  7
CHINESET
100
AcDbText
  0
TEXT
  5
567
330
D
100
AcDbEntity
 67
     1
  8
LOGO
100
AcDbText
 10
193.2250265667024
 20
30.17410304786793
 30
235.9039063680897
 40
4.5
  1
配管口徑代號
  7
CHINESET
100
AcDbText
  0
TEXT
  5
568
330
D
100
AcDbEntity
 67
     1
  8
LOGO
100
AcDbText
 10
96.69657327994549
 20
22.22134557651407
 30
0.0
 40
3.599999999999999
  1
01103040
 41
0.7
  7
CHINESET
 72
     1
 11
105.4565732799454
 21
22.22134557651407
 31
0.0
100
AcDbText
  0
LINE
  5
569
330
D
100
AcDbEntity
 67
     1
  8
LOGO
 62
     4
100
AcDbLine
 10
116.6288092157159
 20
27.50539456351982
 30
0.0
 11
116.6288092157175
 21
20.30643709745601
 31
0.0
  0
LINE
  5
56A
330
D
100
AcDbEntity
 67
     1
  8
LOGO
 62
     4
100
AcDbLine
 10
116.6288092157159
 20
27.50539456351982
 30
0.0
 11
95.02880921571749
 21
27.50539456351982
 31
0.0
  0
CIRCLE
  5
56B
330
D
100
AcDbEntity
 67
     1
  8
LOGO
  6
Continuous
100
AcDbCircle
 10
77.69716941873048
 20
45.51048754002792
 30
0.0
 40
2.089942074577136
  0
CIRCLE
  5
56C
330
D
100
AcDbEntity
 67
     1
  8
LOGO
  6
Continuous
100
AcDbCircle
 10
77.69716941873048
 20
45.51048754002792
 30
0.0
 40
1.224521043598074
  0
LINE
  5
56D
330
D
100
AcDbEntity
 67
     1
  8
LOGO
100
AcDbLine
 10
90.83060792199637
 20
43.42054546545031
 30
0.0
 11
90.83060792199637
 21
47.60042961460544
 31
0.0
  0
LINE
  5
56E
330
D
100
AcDbEntity
 67
     1
  8
LOGO
100
AcDbLine
 10
84.27875948659664
 20
44.28596649643006
 30
0.0
 11
84.27875948659664
 21
46.73500858362612
 31
0.0
  0
LINE
  5
56F
330
D
100
AcDbEntity
 67
     1
  8
LOGO
  6
Continuous
100
AcDbLine
 10
84.27875948659664
 20
46.73500858362612
 30
0.0
 11
90.83060792199637
 21
47.60042961460544
 31
0.0
  0
LINE
  5
570
330
D
100
AcDbEntity
 67
     1
  8
LOGO
  6
Continuous
100
AcDbLine
 10
84.27875948659664
 20
44.28596649643006
 30
0.0
 11
90.83060792199637
 21
43.42054546545031
 31
0.0
  0
LINE
  5
571
330
D
100
AcDbEntity
 67
     1
  8
LOGO
  6
AM_ISO08W050x2
 48
0.3
100
AcDbLine
 10
74.81615297450765
 20
45.51048754002792
 30
0.0
 11
80.57818586295343
 21
45.51048754002792
 31
0.0
1001
GENIUS_GENOREF_13
1005
585
  0
LINE
  5
572
330
D
100
AcDbEntity
 67
     1
  8
LOGO
  6
AM_ISO08W050x2
 48
0.3
100
AcDbLine
 10
77.69716941873048
 20
42.62947109580503
 30
0.0
 11
77.69716941873048
 21
48.39150398425073
 31
0.0
1001
GENIUS_GENOREF_13
1005
584
  0
LINE
  5
573
330
D
100
AcDbEntity
 67
     1
  8
LOGO
  6
CENTER
 48
0.5
100
AcDbLine
 10
83.75479371953986
 20
45.51048754002792
 30
0.0
 11
91.49035785001421
 21
45.51048754002792
 31
0.0
1001
GENIUS_GENOREF_13
1005
583
  0
POINT
  5
583
330
D
100
AcDbEntity
 67
     1
  8
0
 60
     1
100
AcDbPoint
 10
-1043.38101625764
 20
-1028.036795801541
 30
0.0
1001
GENIUS_GENOBJ-N-CRS_13
1002
{
1000
OWNER
1000
GEN
1002
}
1001
GENIUS_GENOLIS_13
1002
{
1000
ENT
1005
0
1005
0
1005
0
1005
573
1002
}
1001
GENIUS_GENOENT_13
1002
{
1000
MYREF
1005
583
1002
}
1002
{
1000
GRP
1005
0
1002
}
1001
GENIUS_GENODEF_13
1002
{
1000
HIER
1070
    10
1002
}
1002
{
1000
MANEDIT
1070
     1
1002
}
1002
{
1000
NOSEL
1070
     0
1002
}
1002
{
1000
BEHIND
1070
     0
1002
}
1002
{
1000
OTHER
1070
     0
1002
}
1002
{
1000
REACTOR
1002
}
  0
POINT
  5
584
330
D
100
AcDbEntity
 67
     1
  8
0
 60
     1
100
AcDbPoint
 10
-1054.705601480495
 20
-1019.161209322905
 30
0.0
1001
GENIUS_GENOBJ-N-CRS_13
1002
{
1000
OWNER
1000
GEN
1002
}
1001
GENIUS_GENOLIS_13
1002
{
1000
ENT
1005
0
1005
0
1005
0
1005
572
1002
}
1001
GENIUS_GENOENT_13
1002
{
1000
MYREF
1005
584
1002
}
1002
{
1000
GRP
1005
0
1002
}
1001
GENIUS_GENODEF_13
1002
{
1000
HIER
1070
    10
1002
}
1002
{
1000
MANEDIT
1070
     1
1002
}
1002
{
1000
NOSEL
1070
     0
1002
}
1002
{
1000
BEHIND
1070
     0
1002
}
1002
{
1000
OTHER
1070
     0
1002
}
1002
{
1000
REACTOR
1002
}
  0
POINT
  5
585
330
D
100
AcDbEntity
 67
     1
  8
0
 60
     1
100
AcDbPoint
 10
-1048.346927782658
 20
-1028.036795801541
 30
0.0
1001
GENIUS_GENOBJ-N-CRS_13
1002
{
1000
OWNER
1000
GEN
1002
}
1001
GENIUS_GENOLIS_13
1002
{
1000
ENT
1005
0
1005
0
1005
0
1005
571
1002
}
1001
GENIUS_GENOENT_13
1002
{
1000
MYREF
1005
585
1002
}
1002
{
1000
GRP
1005
0
1002
}
1001
GENIUS_GENODEF_13
1002
{
1000
HIER
1070
    10
1002
}
1002
{
1000
MANEDIT
1070
     1
1002
}
1002
{
1000
NOSEL
1070
     0
1002
}
1002
{
1000
BEHIND
1070
     0
1002
}
1002
{
1000
OTHER
1070
     0
1002
}
1002
{
1000
REACTOR
1002
}
  0
LINE
  5
13AD
330
D
100
AcDbEntity
 67
     1
  8
AM_7
100
AcDbLine
 10
101.1845320940842
 20
258.380870176475
 30
0.0
 11
145.7210213503975
 21
258.380870176475
 31
0.0
  0
LINE
  5
13AE
330
D
100
AcDbEntity
 67
     1
  8
AM_7
100
AcDbLine
 10
89.97102135039757
 20
258.380870176475
 30
0.0
 11
91.47102135039757
 21
258.380870176475
 31
0.0
  0
LINE
  5
13AF
330
D
100
AcDbEntity
 67
     1
  8
AM_7
100
AcDbLine
 10
90.72102135039756
 20
257.630870176475
 30
0.0
 11
90.72102135039756
 21
259.130870176475
 31
0.0
  0
LINE
  5
13B0
330
D
100
AcDbEntity
 67
     1
  8
AM_7
100
AcDbLine
 10
87.84602135039756
 20
258.380870176475
 30
0.0
 11
89.1710213503976
 21
258.380870176475
 31
0.0
  0
LINE
  5
13B1
330
D
100
AcDbEntity
 67
     1
  8
AM_7
100
AcDbLine
 10
92.27102135039752
 20
258.380870176475
 30
0.0
 11
93.59602135039756
 21
258.380870176475
 31
0.0
  0
LINE
  5
13B2
330
D
100
AcDbEntity
 67
     1
  8
AM_7
100
AcDbLine
 10
90.72102135039756
 20
255.505870176475
 30
0.0
 11
90.72102135039756
 21
256.8308701764751
 31
0.0
  0
LINE
  5
13B3
330
D
100
AcDbEntity
 67
     1
  8
AM_7
100
AcDbLine
 10
90.72102135039756
 20
259.930870176475
 30
0.0
 11
90.72102135039756
 21
261.255870176475
 31
0.0
  0
LINE
  5
13B4
330
D
100
AcDbEntity
 67
     1
  8
AM_7
100
AcDbLine
 10
78.56170645094369
 20
202.965550790481
 30
0.0
 11
145.7210213503975
 21
202.965550790481
 31
0.0
  0
LINE
  5
13B5
330
D
100
AcDbEntity
 67
     1
  8
AM_7
100
AcDbLine
 10
199.3606496609962
 20
202.965550790481
 30
0.0
 11
200.8606496609963
 21
202.965550790481
 31
0.0
  0
LINE
  5
13B6
330
D
100
AcDbEntity
 67
     1
  8
AM_7
100
AcDbLine
 10
200.1106496609963
 20
202.2155507904809
 30
0.0
 11
200.1106496609963
 21
203.715550790481
 31
0.0
  0
LINE
  5
13B7
330
D
100
AcDbEntity
 67
     1
  8
AM_7
100
AcDbLine
 10
181.5656608217662
 20
202.965550790481
 30
0.0
 11
198.5606496609963
 21
202.965550790481
 31
0.0
  0
LINE
  5
13B8
330
D
100
AcDbEntity
 67
     1
  8
AM_7
100
AcDbLine
 10
201.6606496609962
 20
202.965550790481
 30
0.0
 11
218.6556385002264
 21
202.965550790481
 31
0.0
  0
LINE
  5
13B9
330
D
100
AcDbEntity
 67
     1
  8
AM_7
100
AcDbLine
 10
200.1106496609963
 20
184.420561951251
 30
0.0
 11
200.1106496609963
 21
201.415550790481
 31
0.0
  0
LINE
  5
13BA
330
D
100
AcDbEntity
 67
     1
  8
AM_7
100
AcDbLine
 10
200.1106496609963
 20
204.5155507904809
 30
0.0
 11
200.1106496609963
 21
221.5105396297111
 31
0.0
  0
CIRCLE
  5
13BB
330
D
100
AcDbEntity
 67
     1
  8
AM_4
  6
AM_ISO02W050x2
100
AcDbCircle
 10
200.1106496609963
 20
202.965550790481
 30
0.0
 40
6.599999999999999
  0
DIMENSION
  5
13BC
330
D
100
AcDbEntity
 67
     1
  8
AM_REFDIM
100
AcDbDimension
  2
*D11
 10
152.9710213503975
 20
218.9655507904812
 30
0.0
 11
150.7707457598463
 21
202.9655507904812
 31
0.0
 70
    32
  1
%%c<>
 71
     5
 42
32.0
  3
AM_ISO
100
AcDbAlignedDimension
 13
133.5068077880245
 23
186.9655507904812
 33
0.0
 14
133.5068077880245
 24
218.9655507904812
 34
0.0
 50
90.0
100
AcDbRotatedDimension
1001
ACAD
1000
DSTYLE
1002
{
1070
    40
1040
0.8
1002
}
  0
DIMENSION
  5
13BD
330
D
100
AcDbEntity
 67
     1
  8
AM_REFDIM
100
AcDbDimension
  2
*D12
 10
80.72102135039756
 20
178.4308701764749
 30
0.0
 11
112.7210213503975
 21
180.6308701764749
 31
0.0
 70
    32
 71
     5
 42
64.0
  3
AM_ISO
100
AcDbAlignedDimension
 13
144.7210213503975
 23
194.2155507904809
 33
0.0
 14
80.72102135039756
 24
191.4655507904809
 34
0.0
100
AcDbRotatedDimension
1001
ACAD
1000
DSTYLE
1002
{
1070
    40
1040
0.8
1002
}
  0
LINE
  5
13BE
330
D
100
AcDbEntity
 67
     1
  8
AM_VIS
100
AcDbLine
 10
81.72102135039756
 20
244.880870176475
 30
0.0
 11
82.52102135039752
 21
244.880870176475
 31
0.0
  0
LINE
  5
13BF
330
D
100
AcDbEntity
 67
     1
  8
AM_VIS
100
AcDbLine
 10
81.72102135039756
 20
271.880870176475
 30
0.0
 11
82.52102135039752
 21
271.880870176475
 31
0.0
  0
SPLINE
  5
13C0
330
D
100
AcDbEntity
 67
     1
  8
AM_VIS
100
AcDbSpline
210
0.0
220
0.0
230
1.0
 70
    12
 71
     2
 72
     6
 73
     3
 74
     0
 42
0.0000000001
 43
0.0000000001
 40
0.0
 40
0.0
 40
0.0
 40
4.798850830100722
 40
4.798850830100722
 40
4.798850830100722
 10
82.52102135039752
 20
247.5467546051426
 30
0.0
 41
1.0
 10
81.72102135039756
 20
249.6475766436335
 30
0.0
 41
1.014706671718231
 10
81.72102135039756
 20
251.630870176475
 30
0.0
 41
1.0
  0
SPLINE
  5
13C1
330
D
100
AcDbEntity
 67
     1
  8
AM_VIS
100
AcDbSpline
210
0.0
220
0.0
230
1.0
 70
    12
 71
     2
 72
     6
 73
     3
 74
     0
 42
0.0000000001
 43
0.0000000001
 40
4.798850830100722
 40
4.798850830100722
 40
4.798850830100722
 40
9.597701660201442
 40
9.597701660201442
 40
9.597701660201442
 10
81.72102135039756
 20
251.630870176475
 30
0.0
 41
1.0
 10
81.72102135039768
 20
253.6141637093175
 30
0.0
 41
1.014706671718232
 10
82.52102135039752
 20
255.7149857478074
 30
0.0
 41
1.0
  0
LINE
  5
13C2
330
D
100
AcDbEntity
 67
     1
  8
AM_VIS
100
AcDbLine
 10
87.72074368056735
 20
258.5541072936848
 30
0.0
 11
85.72096584109557
 21
259.7078252779955
 31
0.0
  0
ARC
  5
13C3
330
D
100
AcDbEntity
 67
     1
  8
AM_VIS
100
AcDbCircle
 10
87.62079918986945
 20
258.380870176475
 30
0.0
 40
0.2000000000000307
100
AcDbArc
 50
299.9816393688568
 51
60.01836063114318
  0
LINE
  5
13C4
330
D
100
AcDbEntity
 67
     1
  8
AM_VIS
100
AcDbLine
 10
85.72096584109557
 20
257.0539150749545
 30
0.0
 11
87.72074368056735
 21
258.2076330592653
 31
0.0
  0
ARC
  5
13C5
330
D
100
AcDbEntity
 67
     1
  8
AM_VIS
100
AcDbCircle
 10
85.62106457776508
 20
257.2272270364641
 30
0.0
 40
0.2000432413686809
100
AcDbArc
 50
180.0214366782872
 51
299.9602026905964
  0
ARC
  5
13C6
330
D
100
AcDbEntity
 67
     1
  8
AM_VIS
100
AcDbCircle
 10
85.62106457776531
 20
259.5345133164859
 30
0.0
 40
0.2000432413688826
100
AcDbArc
 50
60.03979730950327
 51
179.9785633217388
  0
SPLINE
  5
13C7
330
D
100
AcDbEntity
 67
     1
  8
AM_VIS
100
AcDbSpline
210
0.0
220
0.0
230
1.0
 70
    12
 71
     2
 72
     6
 73
     3
 74
     0
 42
0.0000000001
 43
0.0000000001
 40
0.0
 40
0.0
 40
0.0
 40
4.798850830100736
 40
4.798850830100736
 40
4.798850830100736
 10
82.52102135039752
 20
261.0467546051426
 30
0.0
 41
1.0
 10
81.72102135039745
 20
263.1475766436341
 30
0.0
 41
1.014706671718231
 10
81.72102135039756
 20
265.130870176475
 30
0.0
 41
1.0
  0
SPLINE
  5
13C8
330
D
100
AcDbEntity
 67
     1
  8
AM_VIS
100
AcDbSpline
210
0.0
220
0.0
230
1.0
 70
    12
 71
     2
 72
     6
 73
     3
 74
     0
 42
0.0000000001
 43
0.0000000001
 40
4.798850830100736
 40
4.798850830100736
 40
4.798850830100736
 40
9.597701660201467
 40
9.597701660201467
 40
9.597701660201467
 10
81.72102135039756
 20
265.130870176475
 30
0.0
 41
1.0
 10
81.72102135039756
 20
267.1141637093163
 30
0.0
 41
1.014706671718232
 10
82.52102135039752
 20
269.2149857478074
 30
0.0
 41
1.0
  0
ARC
  5
13C9
330
D
100
AcDbEntity
 67
     1
  8
AM_VIS
100
AcDbCircle
 10
90.72102135039756
 20
258.4796338301941
 30
0.0
 40
1.752784715615678
100
AcDbArc
 50
183.2301395229114
 51
356.7698604770886
  0
ARC
  5
13CA
330
D
100
AcDbEntity
 67
     1
  8
AM_VIS
100
AcDbCircle
 10
90.72102135039756
 20
258.2821065227559
 30
0.0
 40
1.752784715615682
100
AcDbArc
 50
3.230139522911381
 51
176.7698604770886
  0
ARC
  5
13CB
330
D
100
AcDbEntity
 67
     1
  8
AM_VIS
100
AcDbCircle
 10
83.72102162936016
 20
259.8808698975123
 30
0.0
 40
0.5000002789627018
100
AcDbArc
 50
90.00003196809483
 51
179.9999680346344
  0
ARC
  5
13CC
330
D
100
AcDbEntity
 67
     1
  8
AM_VIS
100
AcDbCircle
 10
83.72102162936096
 20
256.8808704554382
 30
0.0
 40
0.5000002789634831
100
AcDbArc
 50
180.0000319668116
 51
269.9999680331623
  0
LINE
  5
13CD
330
D
100
AcDbEntity
 67
     1
  8
AM_VIS
100
AcDbLine
 10
87.72102135039757
 20
256.380870176475
 30
0.0
 11
83.72102135039757
 21
256.380870176475
 31
0.0
  0
ARC
  5
13CE
330
D
100
AcDbEntity
 67
     1
  8
AM_VIS
100
AcDbCircle
 10
87.72102107143462
 20
256.8808704554379
 30
0.0
 40
0.5000002789630892
100
AcDbArc
 50
270.0000319680949
 51
359.9999680345172
  0
ARC
  5
13CF
330
D
100
AcDbEntity
 67
     1
  8
AM_VIS
100
AcDbCircle
 10
87.72102107143416
 20
259.8808698975119
 30
0.0
 40
0.5000002789634831
100
AcDbArc
 50
0.0000319668116237
 51
89.99996803316232
  0
LINE
  5
13D0
330
D
100
AcDbEntity
 67
     1
  8
AM_VIS
100
AcDbLine
 10
83.72102135039757
 20
260.380870176475
 30
0.0
 11
87.72102135039757
 21
260.380870176475
 31
0.0
  0
LINE
  5
13D1
330
D
100
AcDbEntity
 67
     1
  8
AM_VIS
100
AcDbLine
 10
82.52102135039752
 20
255.7149857478074
 30
0.0
 11
105.0229451390443
 21
255.7149857478074
 31
0.0
  0
LINE
  5
13D2
330
D
100
AcDbEntity
 67
     1
  8
AM_VIS
100
AcDbLine
 10
105.0229451390443
 20
261.0467546051426
 30
0.0
 11
82.52102135039752
 21
261.0467546051426
 31
0.0
  0
LINE
  5
13D3
330
D
100
AcDbEntity
 67
     1
  8
AM_VIS
100
AcDbLine
 10
82.52102135039752
 20
269.2149857478074
 30
0.0
 11
112.4210213503976
 21
269.2149857478074
 31
0.0
  0
LINE
  5
13D4
330
D
100
AcDbEntity
 67
     1
  8
AM_VIS
100
AcDbLine
 10
114.4210213503976
 20
271.880870176475
 30
0.0
 11
82.52102135039752
 21
271.880870176475
 31
0.0
  0
LINE
  5
13D5
330
D
100
AcDbEntity
 67
     1
  8
AM_VIS
100
AcDbLine
 10
82.52102135039752
 20
244.880870176475
 30
0.0
 11
114.4210213503976
 21
244.880870176475
 31
0.0
  0
LINE
  5
13D6
330
D
100
AcDbEntity
 67
     1
  8
AM_VIS
100
AcDbLine
 10
114.4210213503976
 20
247.5467546051426
 30
0.0
 11
82.52102135039752
 21
247.5467546051426
 31
0.0
  0
LINE
  5
13D7
330
D
100
AcDbEntity
 67
     1
  8
AM_VIS
100
AcDbLine
 10
113.6210213503976
 20
244.880870176475
 30
0.0
 11
114.4210213503976
 21
244.0808701764751
 31
0.0
  0
LINE
  5
13D8
330
D
100
AcDbEntity
 67
     1
  8
AM_VIS
100
AcDbLine
 10
113.6210213503976
 20
271.880870176475
 30
0.0
 11
114.4210213503976
 21
272.6808701764749
 31
0.0
  0
LINE
  5
13D9
330
D
100
AcDbEntity
 67
     1
  8
AM_VIS
100
AcDbLine
 10
85.4210213503976
 20
259.5345881607858
 30
0.0
 11
85.4210213503976
 21
257.2271521921642
 31
0.0
  0
LINE
  5
13DA
330
D
100
AcDbEntity
 67
     1
  8
AM_VIS
100
AcDbLine
 10
83.22102135039756
 20
259.880870176475
 30
0.0
 11
83.22102135039756
 21
256.880870176475
 31
0.0
  0
LINE
  5
13DB
330
D
100
AcDbEntity
 67
     1
  8
AM_VIS
100
AcDbLine
 10
88.22102135039756
 20
256.880870176475
 30
0.0
 11
88.22102135039756
 21
259.880870176475
 31
0.0
  0
LINE
  5
13DC
330
D
100
AcDbEntity
 67
     1
  8
AM_VIS
100
AcDbLine
 10
82.52102135039752
 20
261.0467546051426
 30
0.0
 11
82.52102135039752
 21
255.7149857478074
 31
0.0
  0
LINE
  5
13DD
330
D
100
AcDbEntity
 67
     1
  8
AM_VIS
100
AcDbLine
 10
82.52102135039752
 20
271.880870176475
 30
0.0
 11
82.52102135039752
 21
269.2149857478074
 31
0.0
  0
LINE
  5
13DE
330
D
100
AcDbEntity
 67
     1
  8
AM_VIS
100
AcDbLine
 10
82.52102135039752
 20
247.5467546051426
 30
0.0
 11
82.52102135039752
 21
244.880870176475
 31
0.0
  0
LINE
  5
13DF
330
D
100
AcDbEntity
 67
     1
  8
AM_VIS
100
AcDbLine
 10
81.72102135039756
 20
251.630870176475
 30
0.0
 11
81.72102135039756
 21
265.130870176475
 31
0.0
  0
LINE
  5
13E0
330
D
100
AcDbEntity
 67
     1
  8
AM_VIS
100
AcDbLine
 10
81.72102135039756
 20
244.880870176475
 30
0.0
 11
81.72102135039756
 21
251.630870176475
 31
0.0
  0
LINE
  5
13E1
330
D
100
AcDbEntity
 67
     1
  8
AM_VIS
100
AcDbLine
 10
81.72102135039756
 20
265.130870176475
 30
0.0
 11
81.72102135039756
 21
271.880870176475
 31
0.0
  0
LINE
  5
13E2
330
D
100
AcDbEntity
 67
     1
  8
AM_VIS
100
AcDbLine
 10
112.4210213503976
 20
271.7252771760949
 30
0.0
 11
115.1210213503975
 21
271.7252771760949
 31
0.0
  0
LINE
  5
13E3
330
D
100
AcDbEntity
 67
     1
  8
AM_VIS
100
AcDbLine
 10
112.4210213503976
 20
268.1076688410191
 30
0.0
 11
114.4210213503976
 21
268.1076688410191
 31
0.0
  0
LINE
  5
13E4
330
D
100
AcDbEntity
 67
     1
  8
AM_VIS
100
AcDbLine
 10
115.1210213503975
 20
268.8239586149428
 30
0.0
 11
112.9210213503976
 21
268.8239586149428
 31
0.0
  0
LINE
  5
13E5
330
D
100
AcDbEntity
 67
     1
  8
AM_VIS
100
AcDbLine
 10
121.3210213503976
 20
242.3808701764752
 30
0.0
 11
124.4210213503976
 21
242.3808701764752
 31
0.0
  0
LINE
  5
13E6
330
D
100
AcDbEntity
 67
     1
  8
AM_VIS
100
AcDbLine
 10
121.3210213503976
 20
274.380870176475
 30
0.0
 11
124.4210213503976
 21
274.380870176475
 31
0.0
  0
LINE
  5
13E7
330
D
100
AcDbEntity
 67
     1
  8
AM_VIS
100
AcDbLine
 10
121.1210213503975
 20
242.5808701764751
 30
0.0
 11
121.3210213503975
 21
242.380870176475
 31
0.0
  0
LINE
  5
13E8
330
D
100
AcDbEntity
 67
     1
  8
AM_VIS
100
AcDbLine
 10
121.1210213503975
 20
274.1808701764752
 30
0.0
 11
121.3210213503975
 21
274.3808701764752
 31
0.0
  0
LINE
  5
13E9
330
D
100
AcDbEntity
 67
     1
  8
AM_VIS
100
AcDbLine
 10
121.1210213503975
 20
274.1808701764752
 30
0.0
 11
115.1210213503975
 21
274.1808701764752
 31
0.0
  0
LINE
  5
13EA
330
D
100
AcDbEntity
 67
     1
  8
AM_VIS
100
AcDbLine
 10
121.1210213503975
 20
242.5808701764751
 30
0.0
 11
115.1210213503975
 21
242.5808701764751
 31
0.0
  0
LINE
  5
13EB
330
D
100
AcDbEntity
 67
     1
  8
AM_VIS
100
AcDbLine
 10
121.1210213503975
 20
274.180870176475
 30
0.0
 11
121.1210213503975
 21
274.1712452433768
 31
0.0
  0
LINE
  5
13EC
330
D
100
AcDbEntity
 67
     1
  8
AM_VIS
100
AcDbLine
 10
121.1210213503975
 20
274.1712452433768
 30
0.0
 11
121.1210213503975
 21
242.5808701764751
 31
0.0
  0
LINE
  5
13ED
330
D
100
AcDbEntity
 67
     1
  8
AM_VIS
100
AcDbLine
 10
114.4210213503976
 20
265.380870176475
 30
0.0
 11
114.4210213503976
 21
268.1076688410191
 31
0.0
  0
LINE
  5
13EE
330
D
100
AcDbEntity
 67
     1
  8
AM_VIS
100
AcDbLine
 10
114.4210213503976
 20
243.2808701764751
 30
0.0
 11
114.4210213503976
 21
251.380870176475
 31
0.0
  0
LINE
  5
13EF
330
D
100
AcDbEntity
 67
     1
  8
AM_VIS
100
AcDbLine
 10
114.4210213503976
 20
271.880870176475
 30
0.0
 11
114.4210213503976
 21
273.4808701764749
 31
0.0
  0
LINE
  5
13F0
330
D
100
AcDbEntity
 67
     1
  8
AM_VIS
100
AcDbLine
 10
115.1210213503975
 20
274.180870176475
 30
0.0
 11
115.1210213503975
 21
271.7252771760949
 31
0.0
  0
LINE
  5
13F1
330
D
100
AcDbEntity
 67
     1
  8
AM_VIS
100
AcDbLine
 10
115.1210213503975
 20
268.8239586149428
 30
0.0
 11
115.1210213503975
 21
242.5808701764751
 31
0.0
  0
LINE
  5
13F2
330
D
100
AcDbEntity
 67
     1
  8
AM_VIS
100
AcDbLine
 10
112.4210213503976
 20
268.1129184818611
 30
0.0
 11
112.4210213503976
 21
271.7252771760949
 31
0.0
  0
LINE
  5
13F3
330
D
100
AcDbEntity
 67
     1
  8
AM_VIS
100
AcDbLine
 10
112.9210213503976
 20
271.7252771760949
 30
0.0
 11
112.9210213503976
 21
268.8239586149428
 31
0.0
  0
LINE
  5
13F4
330
D
100
AcDbEntity
 67
     1
  8
AM_VIS
100
AcDbLine
 10
112.4210213503976
 20
268.1076688410188
 30
0.0
 11
112.4210213503976
 21
268.1129184818609
 31
0.0
  0
ARC
  5
13F5
330
D
100
AcDbEntity
 67
     1
  8
AM_VIS
100
AcDbCircle
 10
115.1210213503975
 20
243.2808701764751
 30
0.0
 40
0.7
100
AcDbArc
 50
180.0
 51
270.0
  0
ARC
  5
13F6
330
D
100
AcDbEntity
 67
     1
  8
AM_VIS
100
AcDbCircle
 10
115.1210213503975
 20
273.4808701764749
 30
0.0
 40
0.7
100
AcDbArc
 50
90.0
 51
180.0
  0
LINE
  5
13F7
330
D
100
AcDbEntity
 67
     1
  8
AM_VIS
100
AcDbLine
 10
81.22102135039757
 20
246.380870176475
 30
0.0
 11
81.72102135039756
 21
246.380870176475
 31
0.0
  0
LINE
  5
13F8
330
D
100
AcDbEntity
 67
     1
  8
AM_VIS
100
AcDbLine
 10
81.22102135039757
 20
270.380870176475
 30
0.0
 11
81.72102135039756
 21
270.380870176475
 31
0.0
  0
LINE
  5
13F9
330
D
100
AcDbEntity
 67
     1
  8
AM_VIS
100
AcDbLine
 10
80.72102135039756
 20
246.880870176475
 30
0.0
 11
81.22102135039757
 21
246.380870176475
 31
0.0
  0
LINE
  5
13FA
330
D
100
AcDbEntity
 67
     1
  8
AM_VIS
100
AcDbLine
 10
80.72102135039756
 20
269.880870176475
 30
0.0
 11
81.22102135039757
 21
270.380870176475
 31
0.0
  0
LINE
  5
13FB
330
D
100
AcDbEntity
 67
     1
  8
AM_VIS
100
AcDbLine
 10
81.22102135039757
 20
270.380870176475
 30
0.0
 11
81.22102135039757
 21
246.380870176475
 31
0.0
  0
LINE
  5
13FC
330
D
100
AcDbEntity
 67
     1
  8
AM_VIS
100
AcDbLine
 10
80.72102135039756
 20
246.880870176475
 30
0.0
 11
80.72102135039756
 21
269.880870176475
 31
0.0
  0
LINE
  5
13FD
330
D
100
AcDbEntity
 67
     1
  8
AM_VIS
100
AcDbLine
 10
90.28789635039755
 20
259.1310646825033
 30
0.0
 11
89.85477135039753
 21
258.380870176475
 31
0.0
  0
LINE
  5
13FE
330
D
100
AcDbEntity
 67
     1
  8
AM_VIS
100
AcDbLine
 10
89.85477135039753
 20
258.380870176475
 30
0.0
 11
90.28789635039755
 21
257.6306756704468
 31
0.0
  0
LINE
  5
13FF
330
D
100
AcDbEntity
 67
     1
  8
AM_VIS
100
AcDbLine
 10
90.28789635039755
 20
257.6306756704468
 30
0.0
 11
91.15414635039758
 21
257.6306756704468
 31
0.0
  0
LINE
  5
1400
330
D
100
AcDbEntity
 67
     1
  8
AM_VIS
100
AcDbLine
 10
91.15414635039758
 20
257.6306756704468
 30
0.0
 11
91.58727135039759
 21
258.380870176475
 31
0.0
  0
LINE
  5
1401
330
D
100
AcDbEntity
 67
     1
  8
AM_VIS
100
AcDbLine
 10
91.58727135039759
 20
258.380870176475
 30
0.0
 11
91.15414635039758
 21
259.1310646825033
 31
0.0
  0
LINE
  5
1402
330
D
100
AcDbEntity
 67
     1
  8
AM_VIS
100
AcDbLine
 10
91.15414635039758
 20
259.1310646825033
 30
0.0
 11
90.28789635039755
 21
259.1310646825033
 31
0.0
  0
CIRCLE
  5
1403
330
D
100
AcDbEntity
 67
     1
  8
AM_VIS
100
AcDbCircle
 10
90.72102135039756
 20
258.380870176475
 30
0.0
 40
1.193274999999999
  0
SPLINE
  5
1404
330
D
100
AcDbEntity
 67
     1
  8
AM_VIS
100
AcDbSpline
210
0.0
220
0.0
230
1.0
 70
    12
 71
     2
 72
     6
 73
     3
 74
     0
 42
0.0000000001
 43
0.0000000001
 40
0.0
 40
0.0
 40
0.0
 40
4.79885083010072
 40
4.79885083010072
 40
4.79885083010072
 10
82.52102135039752
 20
188.9162426148808
 30
0.0
 41
1.0
 10
81.72102135039768
 20
190.1291527843233
 30
0.0
 41
1.014706671718301
 10
81.72102135039756
 20
191.2742078393911
 30
0.0
 41
1.0
  0
SPLINE
  5
1405
330
D
100
AcDbEntity
 67
     1
  8
AM_VIS
100
AcDbSpline
210
0.0
220
0.0
230
1.0
 70
    12
 71
     2
 72
     6
 73
     3
 74
     0
 42
0.0000000001
 43
0.0000000001
 40
4.79885083010072
 40
4.79885083010072
 40
4.79885083010072
 40
9.597701660201442
 40
9.597701660201442
 40
9.597701660201442
 10
81.72102135039756
 20
191.2742078393911
 30
0.0
 41
1.0
 10
81.72102135039768
 20
192.4192628944598
 30
0.0
 41
1.014706671718232
 10
82.52102135039752
 20
193.6321730639014
 30
0.0
 41
1.0
  0
SPLINE
  5
1406
330
D
100
AcDbEntity
 67
     1
  8
AM_VIS
100
AcDbSpline
210
0.0
220
0.0
230
1.0
 70
    12
 71
     2
 72
     6
 73
     3
 74
     0
 42
0.0000000001
 43
0.0000000001
 40
0.0
 40
0.0
 40
0.0
 40
4.798850830100732
 40
4.798850830100732
 40
4.798850830100732
 10
82.52102135039752
 20
198.2496203414604
 30
0.0
 41
1.0
 10
81.72102135039745
 20
200.6754406803456
 30
0.0
 41
1.014706671718231
 10
81.72102135039756
 20
202.965550790481
 30
0.0
 41
1.0
  0
SPLINE
  5
1407
330
D
100
AcDbEntity
 67
     1
  8
AM_VIS
100
AcDbSpline
210
0.0
220
0.0
230
1.0
 70
    12
 71
     2
 72
     6
 73
     3
 74
     0
 42
0.0000000001
 43
0.0000000001
 40
4.798850830100732
 40
4.798850830100732
 40
4.798850830100732
 40
9.597701660201465
 40
9.597701660201465
 40
9.597701660201465
 10
81.72102135039756
 20
202.965550790481
 30
0.0
 41
1.0
 10
81.72102135039745
 20
205.2556609006171
 30
0.0
 41
1.014706671718231
 10
82.52102135039752
 20
207.6814812395018
 30
0.0
 41
1.0
  0
SPLINE
  5
1408
330
D
100
AcDbEntity
 67
     1
  8
AM_VIS
100
AcDbSpline
210
0.0
220
0.0
230
1.0
 70
    12
 71
     2
 72
     6
 73
     3
 74
     0
 42
0.0000000001
 43
0.0000000001
 40
0.0
 40
0.0
 40
0.0
 40
9.566608594481087
 40
9.566608594481087
 40
9.566608594481087
 10
114.4210213503976
 20
198.2496203414604
 30
0.0
 41
1.0
 10
112.8657765951528
 20
202.9655507904795
 30
0.0
 41
1.059259259259258
 10
114.4210213503976
 20
207.6814812395018
 30
0.0
 41
1.0
  0
SPLINE
  5
1409
330
D
100
AcDbEntity
 67
     1
  8
AM_VIS
100
AcDbSpline
210
0.0
220
0.0
230
1.0
 70
    12
 71
     2
 72
     6
 73
     3
 74
     0
 42
0.0000000001
 43
0.0000000001
 40
0.0
 40
0.0
 40
0.0
 40
9.566608594481063
 40
9.566608594481063
 40
9.566608594481063
 10
114.4210213503976
 20
188.9162426148808
 30
0.0
 41
1.0
 10
112.8657765951527
 20
191.2742078393902
 30
0.0
 41
1.059259259259263
 10
114.4210213503976
 20
193.6321730639014
 30
0.0
 41
1.0
  0
SPLINE
  5
140A
330
D
100
AcDbEntity
 67
     1
  8
AM_VIS
100
AcDbSpline
210
0.0000000000000175
220
0.0000000000000078
230
-1.0
 70
    12
 71
     2
 72
     6
 73
     3
 74
     0
 42
0.0000000001
 43
0.0000000001
 40
0.0
 40
0.0
 40
0.0
 40
4.798850830100722
 40
4.798850830100722
 40
4.798850830100722
 10
82.52102135039752
 20
212.2989285170608
 30
0.0
 41
1.0
 10
81.72102135039756
 20
213.5118386865025
 30
0.0000000000002274
 41
1.014706671718231
 10
81.72102135039756
 20
214.656893741571
 30
0.0
 41
1.0
  0
SPLINE
  5
140B
330
D
100
AcDbEntity
 67
     1
  8
AM_VIS
100
AcDbSpline
210
0.0
220
0.0
230
1.0
 70
    12
 71
     2
 72
     6
 73
     3
 74
     0
 42
0.0000000001
 43
0.0000000001
 40
4.798850830100722
 40
4.798850830100722
 40
4.798850830100722
 40
9.597701660201442
 40
9.597701660201442
 40
9.597701660201442
 10
81.72102135039756
 20
214.656893741571
 30
0.0
 41
1.0
 10
81.72102135039768
 20
215.8019487966388
 30
0.0
 41
1.014706671718232
 10
82.52102135039752
 20
217.0148589660813
 30
0.0
 41
1.0
  0
SPLINE
  5
140C
330
D
100
AcDbEntity
 67
     1
  8
AM_VIS
100
AcDbSpline
210
0.0
220
0.0
230
1.0
 70
    12
 71
     2
 72
     6
 73
     3
 74
     0
 42
0.0000000001
 43
0.0000000001
 40
0.0
 40
0.0
 40
0.0
 40
3.879808441187145
 40
3.879808441187145
 40
3.879808441187145
 10
114.4210213503976
 20
212.2989285170608
 30
0.0
 41
1.0
 10
113.7685832297277
 20
213.2881145564262
 30
0.0
 41
1.024033028217044
 10
113.6487706088662
 20
214.223881039679
 30
0.0
 41
1.028572513905848
  0
LINE
  5
140D
330
D
100
AcDbEntity
 67
     1
  8
AM_VIS
100
AcDbLine
 10
108.1210213503975
 20
217.8047765593079
 30
0.0
 11
108.1210213503975
 21
217.5245575245768
 31
0.0
  0
LINE
  5
140E
330
D
100
AcDbEntity
 67
     1
  8
AM_VIS
100
AcDbLine
 10
108.4224253757103
 20
217.4566732701354
 30
0.0
 11
108.4224253757103
 21
217.7370062500598
 31
0.0
  0
LINE
  5
140F
330
D
100
AcDbEntity
 67
     1
  8
AM_VIS
100
AcDbLine
 10
109.5279637172439
 20
217.9836436971556
 30
0.0
 11
109.5279637172439
 21
217.7035688976608
 31
0.0
  0
SPLINE
  5
1410
330
D
100
AcDbEntity
 67
     1
  8
AM_VIS
100
AcDbSpline
210
0.0
220
0.0
230
1.0
 70
     8
 71
     3
 72
    18
 73
    14
 74
     0
 42
0.0000000001
 43
0.0000000001
 40
0.3014941936885275
 40
0.3014941936885275
 40
0.3014941936885275
 40
0.3014941936885275
 40
0.3769156569559402
 40
0.3769156569559402
 40
0.452337120223353
 40
0.452337120223353
 40
0.5277020064309963
 40
0.5277020064309963
 40
0.6030668926386396
 40
0.6030668926386396
 40
0.6784021180042256
 40
0.6784021180042256
 40
0.704656378739479
 40
0.704656378739479
 40
0.704656378739479
 40
0.704656378739479
 10
108.1210213503975
 20
218.2605059068627
 30
0.0
 10
108.1210213503975
 20
218.2683562348795
 30
0.0
 10
108.1260388421551
 20
218.276668821661
 30
0.0
 10
108.1464470519651
 20
218.291854060761
 30
0.0
 10
108.1618378191467
 20
218.2987298988954
 30
0.0
 10
108.1973488449608
 20
218.3095393544412
 30
0.0
 10
108.2198324893591
 20
218.3141957163317
 30
0.0
 10
108.2691078237671
 20
218.3203584124986
 30
0.0
 10
108.2958997216617
 20
218.3218678181869
 30
0.0
 10
108.346133092186
 20
218.3218678181869
 30
0.0
 10
108.3729151247638
 20
218.3203595892411
 30
0.0
 10
108.4061288431278
 20
218.3162074074702
 30
0.0
 10
108.4144665425621
 20
218.3149511540233
 30
0.0
 10
108.4224253757103
 20
218.3135345178925
 30
0.0
  0
ELLIPSE
  5
1411
330
D
100
AcDbEntity
 67
     1
  8
AM_VIS
100
AcDbEllipse
 10
110.0547036785199
 20
202.965550790481
 30
0.0
 11
-27.05827838800275
 21
7.966042714848459
 31
0.0
210
0.0
220
0.0
230
1.0
 40
0.5170745046943589
 41
4.88270389220009
 42
4.923130451984171
  0
SPLINE
  5
1412
330
D
100
AcDbEntity
 67
     1
  8
AM_VIS
100
AcDbSpline
210
0.0
220
0.0
230
1.0
 70
     8
 71
     3
 72
    18
 73
    14
 74
     0
 42
0.0000000001
 43
0.0000000001
 40
0.7042869931122829
 40
0.7042869931122829
 40
0.7042869931122829
 40
0.7042869931122829
 40
0.7533930193070489
 40
0.7533930193070489
 40
0.8287371826044408
 40
0.8287371826044408
 40
0.9040813459018329
 40
0.9040813459018329
 40
0.9794193041002953
 40
0.9794193041002953
 40
1.054757262298757
 40
1.054757262298757
 40
1.103864332571749
 40
1.103864332571749
 40
1.103864332571749
 40
1.103864332571749
 10
109.5279637172439
 20
218.104451150561
 30
0.0
 10
109.5428563037236
 20
218.1014691491094
 30
0.0
 10
109.556404826847
 20
218.0978439294924
 30
0.0
 10
109.5857363324893
 20
218.0878072154341
 30
0.0
 10
109.6011287788217
 20
218.0800820815392
 30
0.0
 10
109.6215404727064
 20
218.063034519923
 30
0.0
 10
109.6265596919312
 20
218.0537089378514
 30
0.0
 10
109.6265596919312
 20
218.0361100661295
 30
0.0
 10
109.6215412118317
 20
218.0266638170439
 30
0.0
 10
109.6011307598786
 20
218.0091789979148
 30
0.0
 10
109.5857387775925
 20
218.0011435691266
 30
0.0
 10
109.5564068990362
 20
217.9906251588988
 30
0.0
 10
109.5428573268283
 20
217.9868010830206
 30
0.0
 10
109.5279637172439
 20
217.9836436971556
 30
0.0
  0
ELLIPSE
  5
1413
330
D
100
AcDbEntity
 67
     1
  8
AM_VIS
100
AcDbEllipse
 10
109.5873390222752
 20
202.965550790481
 30
0.0
 11
27.05827838800275
 21
7.966042714848459
 31
0.0
210
0.0
220
0.0
230
1.0
 40
0.5170745046943593
 41
1.421897119532411
 42
1.4623023182332
  0
SPLINE
  5
1414
330
D
100
AcDbEntity
 67
     1
  8
AM_VIS
100
AcDbSpline
210
0.0
220
0.0
230
1.0
 70
     8
 71
     3
 72
    19
 73
    15
 74
     0
 42
0.0000000001
 43
0.0000000001
 40
-0.1015792014959406
 40
-0.1015792014959406
 40
-0.1015792014959406
 40
-0.1015792014959406
 40
-0.075337322237423
 40
-0.075337322237423
 40
0.0
 40
0.0
 40
0.0
 40
0.0753373222374231
 40
0.0753373222374231
 40
0.1506746444748462
 40
0.1506746444748462
 40
0.2260646719496171
 40
0.2260646719496171
 40
0.301454699424388
 40
0.301454699424388
 40
0.301454699424388
 40
0.301454699424388
 10
108.4224253757103
 20
217.7370062500598
 30
0.0
 10
108.4144684252406
 20
217.7351427380848
 30
0.0
 10
108.406133166046
 20
217.7334858222631
 30
0.0
 10
108.3729182249458
 20
217.7279987542284
 30
0.0
 10
108.3461337911434
 20
217.7259902133588
 30
0.0
 10
108.3210213503976
 20
217.7259902133588
 30
0.0
 10
108.2959089096517
 20
217.7259902133588
 30
0.0
 10
108.2691244758492
 20
217.7279987542284
 30
0.0
 10
108.2198560294761
 20
217.7361378418879
 30
0.0
 10
108.1973718912578
 20
217.7422651798646
 30
0.0
 10
108.1618548735913
 20
217.7563380814287
 30
0.0
 10
108.1464585237381
 20
217.765223181255
 30
0.0
 10
108.1260417559463
 20
217.7845696872367
 30
0.0
 10
108.1210213503975
 20
217.79502800639
 30
0.0
 10
108.1210213503975
 20
217.8047765593079
 30
0.0
  0
LINE
  5
1415
330
D
100
AcDbEntity
 67
     1
  8
AM_VIS
100
AcDbLine
 10
85.12102135039754
 20
217.2449176754204
 30
0.0
 11
85.12102135039754
 21
217.1249999323087
 31
0.0
  0
LINE
  5
1416
330
D
100
AcDbEntity
 67
     1
  8
AM_VIS
100
AcDbLine
 10
83.62102135039753
 20
217.2449176754204
 30
0.0
 11
83.62102135039753
 21
217.1249999323087
 31
0.0
  0
LINE
  5
1417
330
D
100
AcDbEntity
 67
     1
  8
AM_VIS
100
AcDbLine
 10
85.4210213503976
 20
217.2189340664853
 30
0.0
 11
85.4210213503976
 21
217.1249999323087
 31
0.0
  0
LINE
  5
1418
330
D
100
AcDbEntity
 67
     1
  8
AM_VIS
100
AcDbLine
 10
85.12102135039766
 20
217.2449176754204
 30
0.0
 11
83.62102135039753
 21
217.2449176754204
 31
0.0
  0
LINE
  5
1419
330
D
100
AcDbEntity
 67
     1
  8
AM_VIS
100
AcDbLine
 10
103.1806341050184
 20
215.0164218773911
 30
0.0
 11
106.6870874759373
 21
217.2893492905631
 31
0.0
  0
LINE
  5
141A
330
D
100
AcDbEntity
 67
     1
  8
AM_VIS
100
AcDbLine
 10
87.8207991898696
 20
217.1249999323089
 30
0.0
 11
83.62102135039766
 21
217.1249999323087
 31
0.0
  0
LINE
  5
141B
330
D
100
AcDbEntity
 67
     1
  8
AM_VIS
100
AcDbLine
 10
82.52102135039752
 20
217.0148589660813
 30
0.0
 11
103.9642759152069
 21
217.0148589660813
 31
0.0
  0
LINE
  5
141C
330
D
100
AcDbEntity
 67
     1
  8
AM_VIS
100
AcDbLine
 10
104.9853676146475
 20
214.2238810396788
 30
0.0
 11
113.6487706088662
 21
214.2238810396788
 31
0.0
  0
ARC
  5
141D
330
D
100
AcDbEntity
 67
     1
  8
AM_VIS
100
AcDbCircle
 10
115.2081481455227
 20
213.9353135040352
 30
0.0
 40
1.585852932795587
100
AcDbArc
 50
133.2761632356828
 51
169.5158441226507
  0
SPLINE
  5
141E
330
D
100
AcDbEntity
 67
     1
  8
AM_VIS
100
AcDbSpline
210
0.0
220
0.0
230
1.0
 70
     8
 71
     3
 72
    18
 73
    14
 74
     0
 42
0.0000000001
 43
0.0000000001
 40
-2.985078027119411
 40
-2.985078027119411
 40
-2.985078027119411
 40
-2.985078027119411
 40
-2.825368346367453
 40
-2.825368346367453
 40
-2.569832857164319
 40
-2.569832857164319
 40
-2.160976074439306
 40
-2.160976074439306
 40
-1.506805222079286
 40
-1.506805222079286
 40
-0.460131858303253
 40
-0.460131858303253
 40
0.0
 40
0.0
 40
0.0
 40
0.0
 10
102.6845320940842
 20
214.9089771738712
 30
0.0
 10
102.6813337193133
 20
214.882406975593
 30
0.0
 10
102.6819391462092
 20
214.855475073581
 30
0.0
 10
102.6948019518106
 20
214.7858742907104
 30
0.0
 10
102.7139351984374
 20
214.7436654697759
 30
0.0
 10
102.7918349678411
 20
214.6398211252348
 30
0.0
 10
102.868878977105
 20
214.5809745807102
 30
0.0
 10
103.1126578887203
 20
214.4519026468767
 30
0.0
 10
103.3042020860971
 20
214.3936892959715
 30
0.0
 10
103.8274870850863
 20
214.2815998773088
 30
0.0
 10
104.1758885348373
 20
214.2486926616156
 30
0.0
 10
104.6779435184706
 20
214.2268531942831
 30
0.0
 10
104.8319903285463
 20
214.2238810397292
 30
0.0
 10
104.9853676146475
 20
214.2238810396788
 30
0.0
  0
SPLINE
  5
141F
330
D
100
AcDbEntity
 67
     1
  8
AM_VIS
100
AcDbSpline
210
0.0
220
0.0
230
1.0
 70
     8
 71
     3
 72
    18
 73
    14
 74
     0
 42
0.0000000001
 43
0.0000000001
 40
-2.985078027119411
 40
-2.985078027119411
 40
-2.985078027119411
 40
-2.985078027119411
 40
-2.825368346367453
 40
-2.825368346367453
 40
-2.569832857164319
 40
-2.569832857164319
 40
-2.160976074439306
 40
-2.160976074439306
 40
-1.506805222079286
 40
-1.506805222079286
 40
-0.460131858303253
 40
-0.460131858303253
 40
0.0
 40
0.0
 40
0.0
 40
0.0
 10
103.1845320940842
 20
215.0104087131259
 30
0.0
 10
103.1757913519876
 20
214.9924534517987
 30
0.0
 10
103.1701893604355
 20
214.9751249013517
 30
0.0
 10
103.1652793399486
 20
214.9329045662224
 30
0.0
 10
103.1718979301523
 20
214.9098706375222
 30
0.0
 10
103.2143021649095
 20
214.8602089186194
 30
0.0
 10
103.2662102075841
 20
214.8395469592109
 30
0.0
 10
103.4435660511539
 20
214.811272757339
 30
0.0
 10
103.5928545998745
 20
214.8171189209194
 30
0.0
 10
104.0119024819407
 20
214.8636009276912
 30
0.0
 10
104.3008666566596
 20
214.9216552164597
 30
0.0
 10
104.7237806127162
 20
215.0218419517502
 30
0.0
 10
104.8544807484846
 20
215.0549931102124
 30
0.0
 10
104.9853676152166
 20
215.0899064425795
 30
0.0
  0
LINE
  5
1420
330
D
100
AcDbEntity
 67
     1
  8
AM_VIS
100
AcDbLine
 10
103.9642808907264
 20
217.0150869428022
 30
0.0
 11
104.0550022923565
 21
217.0131070365247
 31
0.0
  0
ARC
  5
1421
330
D
100
AcDbEntity
 67
     1
  8
AM_VIS
100
AcDbCircle
 10
106.7578162509768
 20
214.1827885495517
 30
0.0
 40
3.667876061299518
100
AcDbArc
 50
126.9116834621597
 51
166.9594749245578
  0
ARC
  5
1422
330
D
100
AcDbEntity
 67
     1
  8
AM_VIS
100
AcDbCircle
 10
106.2612892631197
 20
214.1775273900481
 30
0.0
 40
3.650782194612636
100
AcDbArc
 50
128.9903230481116
 51
168.4423237468903
  0
ARC
  5
1423
330
D
100
AcDbEntity
 67
     1
  8
AM_VIS
100
AcDbCircle
 10
104.1078962380375
 20
218.0260237666024
 30
0.0
 40
1.014587540027697
100
AcDbArc
 50
267.0112599453011
 51
296.1467267480939
  0
LINE
  5
1424
330
D
100
AcDbEntity
 67
     1
  8
AM_VIS
100
AcDbLine
 10
114.1210213503975
 20
215.0899064434633
 30
0.0
 11
104.9853676152169
 21
215.0899064434633
 31
0.0
  0
LINE
  5
1425
330
D
100
AcDbEntity
 67
     1
  8
AM_VIS
100
AcDbLine
 10
104.9843539777381
 20
215.0914969873085
 30
0.0
 11
107.1882011581564
 21
216.4959856872389
 31
0.0
  0
LINE
  5
1426
330
D
100
AcDbEntity
 67
     1
  8
AM_VIS
100
AcDbLine
 10
107.1889705428287
 20
216.4947784107113
 30
0.0
 11
114.1210213503975
 21
216.4947784107113
 31
0.0
  0
LINE
  5
1427
330
D
100
AcDbEntity
 67
     1
  8
AM_VIS
100
AcDbLine
 10
114.1210213503975
 20
216.4947784107113
 30
0.0
 11
114.1210213503975
 21
215.0899064434633
 31
0.0
  0
ARC
  5
1428
330
D
100
AcDbEntity
 67
     1
  8
AM_VIS
100
AcDbCircle
 10
113.185418962385
 20
215.9843008803272
 30
0.0
 40
1.294331192990302
100
AcDbArc
 50
316.2899709482327
 51
342.6740733394709
  0
SPLINE
  5
1429
330
D
100
AcDbEntity
 67
     1
  8
AM_VIS
100
AcDbSpline
210
0.0
220
0.0
230
1.0
 70
     8
 71
     3
 72
    19
 73
    15
 74
     0
 42
0.0000000001
 43
0.0000000001
 40
-0.1015796214391193
 40
-0.1015796214391193
 40
-0.1015796214391193
 40
-0.1015796214391193
 40
-0.0753373218509483
 40
-0.0753373218509483
 40
0.0
 40
0.0
 40
0.0
 40
0.0753373218509483
 40
0.0753373218509483
 40
0.1506746437018966
 40
0.1506746437018966
 40
0.2260666932430861
 40
0.2260666932430861
 40
0.3014587427842757
 40
0.3014587427842757
 40
0.3014587427842757
 40
0.3014587427842757
 10
108.4224253757103
 20
217.4566732701354
 30
0.0
 10
108.4144529584962
 20
217.4548165037899
 30
0.0
 10
108.4061330395881
 20
217.4531460944483
 30
0.0
 10
108.372918152911
 20
217.4476484563046
 30
0.0
 10
108.3461337910145
 20
217.4456359193074
 30
0.0
 10
108.3210213503976
 20
217.4456359193074
 30
0.0
 10
108.2959089097805
 20
217.4456359193074
 30
0.0
 10
108.2691245478842
 20
217.4476484563046
 30
0.0
 10
108.2198563861724
 20
217.4558031890823
 30
0.0
 10
108.1973724558728
 20
217.4619421133506
 30
0.0
 10
108.1618553363826
 20
217.4760405506027
 30
0.0
 10
108.1464588198009
 20
217.4849413731798
 30
0.0
 10
108.1260418203668
 20
217.5043200177905
 30
0.0
 10
108.1210213503975
 20
217.5147946951883
 30
0.0
 10
108.1210213503975
 20
217.5245575245768
 30
0.0
  0
ELLIPSE
  5
142A
330
D
100
AcDbEntity
 67
     1
  8
AM_VIS
100
AcDbEllipse
 10
109.5873390222752
 20
202.965550790481
 30
0.0
 11
-26.55408686524493
 21
-7.81760713631091
 31
0.0
210
0.0
220
0.0
230
1.0
 40
0.5170745046943589
 41
4.563530963546497
 42
4.604703852296829
  0
SPLINE
  5
142B
330
D
100
AcDbEntity
 67
     1
  8
AM_VIS
100
AcDbSpline
210
0.0
220
0.0
230
1.0
 70
     8
 71
     3
 72
    12
 73
     8
 74
     0
 42
0.0000000001
 43
0.0000000001
 40
0.9040826216618176
 40
0.9040826216618176
 40
0.9040826216618176
 40
0.9040826216618176
 40
0.9794206035790388
 40
0.9794206035790388
 40
1.05475858549626
 40
1.05475858549626
 40
1.103865681027976
 40
1.103865681027976
 40
1.103865681027976
 40
1.103865681027976
 10
109.6265596919312
 20
217.76482460917
 30
0.0
 10
109.6265596919312
 20
217.7560293461412
 30
0.0
 10
109.6215412213298
 20
217.746586005895
 30
0.0
 10
109.6011307800847
 20
217.7291044918585
 30
0.0
 10
109.5857387986086
 20
217.7210695190851
 30
0.0
 10
109.5564069121866
 20
217.7105509755312
 30
0.0
 10
109.5428216123287
 20
217.7067481505052
 30
0.0
 10
109.527963717244
 20
217.703568897661
 30
0.0
  0
LINE
  5
142C
330
D
100
AcDbEntity
 67
     1
  8
AM_VIS
100
AcDbLine
 10
114.1210213503975
 20
217.4089154120783
 30
0.0
 11
107.1889705428286
 21
217.4089154120783
 31
0.0
  0
ARC
  5
142D
330
D
100
AcDbEntity
 67
     1
  8
AM_VIS
100
AcDbCircle
 10
90.72102135039756
 20
172.7595191976326
 30
0.0
 40
16.00201053095183
100
AcDbArc
 50
83.72150379558027
 51
96.27849620441972
  0
LINE
  5
142E
330
D
100
AcDbEntity
 67
     1
  8
AM_VIS
100
AcDbLine
 10
114.4210213503976
 20
188.9162426148808
 30
0.0
 11
82.52102135039752
 21
188.9162426148808
 31
0.0
  0
LINE
  5
142F
330
D
100
AcDbEntity
 67
     1
  8
AM_VIS
100
AcDbLine
 10
82.52102135039752
 20
193.6321730639014
 30
0.0
 11
114.4210213503976
 21
193.6321730639014
 31
0.0
  0
LINE
  5
1430
330
D
100
AcDbEntity
 67
     1
  8
AM_VIS
100
AcDbLine
 10
114.4210213503976
 20
198.2496203414604
 30
0.0
 11
82.52102135039752
 21
198.2496203414604
 31
0.0
  0
LINE
  5
1431
330
D
100
AcDbEntity
 67
     1
  8
AM_VIS
100
AcDbLine
 10
82.52102135039752
 20
207.6814812395018
 30
0.0
 11
114.4210213503976
 21
207.6814812395018
 31
0.0
  0
LINE
  5
1432
330
D
100
AcDbEntity
 67
     1
  8
AM_VIS
100
AcDbLine
 10
114.4210213503976
 20
212.2989285170608
 30
0.0
 11
82.52102135039752
 21
212.2989285170608
 31
0.0
  0
LINE
  5
1433
330
D
100
AcDbEntity
 67
     1
  8
AM_VIS
100
AcDbLine
 10
113.9210213503976
 20
217.7374057962742
 30
0.0
 11
114.1210213503975
 21
217.7374057962742
 31
0.0
  0
SPLINE
  5
1434
330
D
100
AcDbEntity
 67
     1
  8
AM_VIS
100
AcDbSpline
210
0.0
220
0.0
230
1.0
 70
     8
 71
     3
 72
    14
 73
    10
 74
     0
 42
0.0000000001
 43
0.0000000001
 40
0.0000000000000003
 40
0.0000000000000003
 40
0.0000000000000003
 40
0.0000000000000003
 40
0.0212133138063478
 40
0.0212133138063478
 40
0.0551546158965038
 40
0.0551546158965038
 40
0.1094606992407534
 40
0.1094606992407534
 40
0.1905405238540278
 40
0.1905405238540278
 40
0.1905405238540278
 40
0.1905405238540278
 10
114.4210213503976
 20
217.4921096334919
 30
0.0
 10
114.4210213503976
 20
217.5119826353006
 30
0.0
 10
114.4187028929881
 20
217.5318281598098
 30
0.0
 10
114.4072791339905
 20
217.5802312962379
 30
0.0
 10
114.3950160778473
 20
217.6070055726287
 30
0.0
 10
114.354995115343
 20
217.6660433186258
 30
0.0
 10
114.3226435667197
 20
217.6922676448504
 30
0.0
 10
114.2360853902428
 20
217.7362327975708
 30
0.0
 10
114.1782611962007
 20
217.7442849835153
 30
0.0
 10
114.1210213503975
 20
217.7374057962742
 30
0.0
  0
LINE
  5
1435
330
D
100
AcDbEntity
 67
     1
  8
AM_VIS
100
AcDbLine
 10
81.72102135039756
 20
216.4655507904809
 30
0.0
 11
82.52102135039752
 21
217.2655507904811
 31
0.0
  0
LINE
  5
1436
330
D
100
AcDbEntity
 67
     1
  8
AM_VIS
100
AcDbLine
 10
81.72102135039756
 20
189.4655507904809
 30
0.0
 11
82.52102135039752
 21
188.665550790481
 31
0.0
  0
LINE
  5
1437
330
D
100
AcDbEntity
 67
     1
  8
AM_VIS
100
AcDbLine
 10
109.6265596919312
 20
218.0449091396291
 30
0.0
 11
109.6265596919312
 21
217.7648246091702
 31
0.0
  0
LINE
  5
1438
330
D
100
AcDbEntity
 67
     1
  8
AM_VIS
100
AcDbLine
 10
87.8207991898695
 20
217.2655507904811
 30
0.0
 11
87.8207991898696
 21
217.1249999323089
 31
0.0
  0
LINE
  5
1439
330
D
100
AcDbEntity
 67
     1
  8
AM_VIS
100
AcDbLine
 10
85.4210213503976
 20
217.2655507904811
 30
0.0
 11
87.8207991898695
 21
217.2655507904811
 31
0.0
  0
LINE
  5
143A
330
D
100
AcDbEntity
 67
     1
  8
AM_VIS
100
AcDbLine
 10
104.5549959466131
 20
217.3995253866966
 30
0.0
 11
106.6889705428286
 21
218.6315761942655
 31
0.0
  0
LINE
  5
143B
330
D
100
AcDbEntity
 67
     1
  8
AM_VIS
100
AcDbLine
 10
83.22102135039756
 20
217.2655507904811
 30
0.0
 11
82.52102135039752
 21
217.2655507904811
 31
0.0
  0
LINE
  5
143C
330
D
100
AcDbEntity
 67
     1
  8
AM_VIS
100
AcDbLine
 10
104.054995946613
 20
217.2655507904811
 30
0.0
 11
88.22102135039756
 21
217.2655507904811
 31
0.0
  0
LINE
  5
143D
330
D
100
AcDbEntity
 67
     1
  8
AM_VIS
100
AcDbLine
 10
113.9210213503976
 20
218.0979477646725
 30
0.0
 11
109.5549935244224
 21
218.0979477646725
 31
0.0
  0
LINE
  5
143E
330
D
100
AcDbEntity
 67
     1
  8
AM_VIS
100
AcDbLine
 10
108.1210213503975
 20
218.0979477646725
 30
0.0
 11
107.8210213503976
 21
218.0979477646725
 31
0.0
  0
LINE
  5
143F
330
D
100
AcDbEntity
 67
     1
  8
AM_VIS
100
AcDbLine
 10
107.8210213503976
 20
218.7655507904811
 30
0.0
 11
107.1889705428286
 21
218.7655507904811
 31
0.0
  0
LINE
  5
1440
330
D
100
AcDbEntity
 67
     1
  8
AM_VIS
100
AcDbLine
 10
88.97102135039757
 20
188.665550790481
 30
0.0
 11
82.52102135039752
 21
188.665550790481
 31
0.0
  0
LINE
  5
1441
330
D
100
AcDbEntity
 67
     1
  8
AM_VIS
100
AcDbLine
 10
114.4210213503976
 20
188.665550790481
 30
0.0
 11
92.47102135039757
 21
188.665550790481
 31
0.0
  0
LINE
  5
1442
330
D
100
AcDbEntity
 67
     1
  8
AM_VIS
100
AcDbLine
 10
108.1210213503975
 20
218.2605059068627
 30
0.0
 11
108.1210213503975
 21
217.8047765593079
 31
0.0
  0
LINE
  5
1443
330
D
100
AcDbEntity
 67
     1
  8
AM_VIS
100
AcDbLine
 10
85.4210213503976
 20
217.2655507904811
 30
0.0
 11
85.4210213503976
 21
217.2189340664853
 31
0.0
  0
LINE
  5
1444
330
D
100
AcDbEntity
 67
     1
  8
AM_VIS
100
AcDbLine
 10
106.6889705428286
 20
217.2864442764345
 30
0.0
 11
106.6889705428286
 21
218.6315761942655
 31
0.0
  0
ELLIPSE
  5
1445
330
D
100
AcDbEntity
 67
     1
  8
AM_VIS
100
AcDbEllipse
 10
107.1889705428287
 20
216.4947784107113
 30
0.0
 11
1.0
 21
0.0
 31
0.0
210
0.0
220
0.0
230
1.0
 40
0.9141370013669064
 41
1.570796326794926
 42
2.094395102393216
  0
LINE
  5
1446
330
D
100
AcDbEntity
 67
     1
  8
AM_VIS
100
AcDbLine
 10
106.6889705428286
 20
217.2864442764343
 30
0.0
 11
107.1889705428287
 21
216.4947784107113
 31
0.0
  0
LINE
  5
1447
330
D
100
AcDbEntity
 67
     1
  8
AM_VIS
100
AcDbLine
 10
83.22102135039756
 20
217.2655507904811
 30
0.0
 11
83.22102135039756
 21
217.1866618581861
 31
0.0
  0
LINE
  5
1448
330
D
100
AcDbEntity
 67
     1
  8
AM_VIS
100
AcDbLine
 10
88.22102135039756
 20
217.1866618581861
 30
0.0
 11
88.22102135039756
 21
217.2655507904811
 31
0.0
  0
LINE
  5
1449
330
D
100
AcDbEntity
 67
     1
  8
AM_VIS
100
AcDbLine
 10
82.52102135039752
 20
217.2655507904811
 30
0.0
 11
82.52102135039752
 21
217.0148589660813
 31
0.0
  0
LINE
  5
144A
330
D
100
AcDbEntity
 67
     1
  8
AM_VIS
100
AcDbLine
 10
104.9853676146475
 20
214.2238810396788
 30
0.0
 11
104.9853676152169
 21
215.0899064425788
 31
0.0
  0
ELLIPSE
  5
144B
330
D
100
AcDbEntity
 67
     1
  8
AM_VIS
100
AcDbEllipse
 10
102.6845320940842
 20
215.7750025776555
 30
0.0
 11
0.9928327843582406
 21
-0.1195117663808219
 31
0.0
210
0.0
220
0.0
230
1.0
 40
0.8644610614985644
 41
4.816074890139296
 42
5.340718763323248
  0
LINE
  5
144C
330
D
100
AcDbEntity
 67
     1
  8
AM_VIS
100
AcDbLine
 10
104.5549959466131
 20
217.3995253866966
 30
0.0
 11
104.5549959466131
 21
217.1152605004508
 31
0.0
  0
LINE
  5
144D
330
D
100
AcDbEntity
 67
     1
  8
AM_VIS
100
AcDbLine
 10
104.054995946613
 20
217.2655507904811
 30
0.0
 11
104.054995946613
 21
217.0128162678408
 31
0.0
  0
LINE
  5
144E
330
D
100
AcDbEntity
 67
     1
  8
AM_VIS
100
AcDbLine
 10
107.1889705428286
 20
216.4947784107113
 30
0.0
 11
107.1889705428286
 21
217.4089154120783
 31
0.0
  0
LINE
  5
144F
330
D
100
AcDbEntity
 67
     1
  8
AM_VIS
100
AcDbLine
 10
114.2210213503975
 20
217.7334243293118
 30
0.0
 11
114.2210213503975
 21
217.7979477646724
 31
0.0
  0
LINE
  5
1450
330
D
100
AcDbEntity
 67
     1
  8
AM_VIS
100
AcDbLine
 10
114.1210213503975
 20
216.4947784107113
 30
0.0
 11
114.1210213503975
 21
217.4089154120783
 31
0.0
  0
LINE
  5
1451
330
D
100
AcDbEntity
 67
     1
  8
AM_VIS
100
AcDbLine
 10
114.4210213503976
 20
217.1346743116682
 30
0.0
 11
114.4210213503976
 21
216.4977377469103
 31
0.0
  0
LINE
  5
1452
330
D
100
AcDbEntity
 67
     1
  8
AM_VIS
100
AcDbLine
 10
114.4210213503976
 20
216.4947784107113
 30
0.0
 11
114.1210213503975
 21
216.4947784107113
 31
0.0
  0
LINE
  5
1453
330
D
100
AcDbEntity
 67
     1
  8
AM_VIS
100
AcDbLine
 10
114.4210213503976
 20
217.4921096334919
 30
0.0
 11
114.4210213503976
 21
217.1346743116682
 31
0.0
  0
ELLIPSE
  5
1454
330
D
100
AcDbEntity
 67
     1
  8
AM_VIS
100
AcDbEllipse
 10
114.1210213503975
 20
217.1346743116682
 30
0.0
 11
0.2999999999999993
 21
0.0
 31
0.0
210
0.0
220
0.0
230
1.0
 40
0.9141370013669064
 41
0.0
 42
1.570796326794896
  0
LINE
  5
1455
330
D
100
AcDbEntity
 67
     1
  8
AM_VIS
100
AcDbLine
 10
107.8210213503975
 20
218.0979477646723
 30
0.0
 11
107.8210213503976
 21
218.7655507904811
 31
0.0
  0
LINE
  5
1456
330
D
100
AcDbEntity
 67
     1
  8
AM_VIS
100
AcDbLine
 10
113.9210213503976
 20
217.7374057962742
 30
0.0
 11
113.9210213503976
 21
218.0979477646723
 31
0.0
  0
LINE
  5
1457
330
D
100
AcDbEntity
 67
     1
  8
AM_VIS
100
AcDbLine
 10
114.1210213503975
 20
217.4089154120783
 30
0.0
 11
114.1210213503975
 21
217.7374057962742
 31
0.0
  0
LINE
  5
1458
330
D
100
AcDbEntity
 67
     1
  8
AM_VIS
100
AcDbLine
 10
107.1889705428286
 20
218.7655507904811
 30
0.0
 11
107.1889705428286
 21
217.4089154120783
 31
0.0
  0
LINE
  5
1459
330
D
100
AcDbEntity
 67
     1
  8
AM_VIS
100
AcDbLine
 10
82.52102135039752
 20
188.9162426148808
 30
0.0
 11
82.52102135039752
 21
188.665550790481
 31
0.0
  0
LINE
  5
145A
330
D
100
AcDbEntity
 67
     1
  8
AM_VIS
100
AcDbLine
 10
82.52102135039752
 20
198.2496203414604
 30
0.0
 11
82.52102135039752
 21
193.6321730639014
 31
0.0
  0
LINE
  5
145B
330
D
100
AcDbEntity
 67
     1
  8
AM_VIS
100
AcDbLine
 10
82.52102135039752
 20
212.2989285170608
 30
0.0
 11
82.52102135039752
 21
207.6814812395018
 31
0.0
  0
LINE
  5
145C
330
D
100
AcDbEntity
 67
     1
  8
AM_VIS
100
AcDbLine
 10
81.72102135039756
 20
214.656893741571
 30
0.0
 11
81.72102135039756
 21
216.4655507904809
 31
0.0
  0
LINE
  5
145D
330
D
100
AcDbEntity
 67
     1
  8
AM_VIS
100
AcDbLine
 10
81.72102135039756
 20
202.965550790481
 30
0.0
 11
81.72102135039756
 21
214.656893741571
 31
0.0
  0
LINE
  5
145E
330
D
100
AcDbEntity
 67
     1
  8
AM_VIS
100
AcDbLine
 10
81.72102135039756
 20
191.2742078393911
 30
0.0
 11
81.72102135039756
 21
202.965550790481
 31
0.0
  0
LINE
  5
145F
330
D
100
AcDbEntity
 67
     1
  8
AM_VIS
100
AcDbLine
 10
81.72102135039756
 20
189.4655507904809
 30
0.0
 11
81.72102135039756
 21
191.2742078393911
 31
0.0
  0
ARC
  5
1460
330
D
100
AcDbEntity
 67
     1
  8
AM_VIS
100
AcDbCircle
 10
107.1889705428286
 20
217.7655507904812
 30
0.0
 40
1.0
100
AcDbArc
 50
90.0
 51
119.9999999999976
  0
ARC
  5
1461
330
D
100
AcDbEntity
 67
     1
  8
AM_VIS
100
AcDbCircle
 10
104.054995946613
 20
218.2655507904811
 30
0.0
 40
1.0
100
AcDbArc
 50
270.0
 51
299.9999999999968
  0
ARC
  5
1462
330
D
100
AcDbEntity
 67
     1
  8
AM_VIS
100
AcDbCircle
 10
107.8210213503976
 20
218.465550790481
 30
0.0
 40
0.3
100
AcDbArc
 50
48.18968510422529
 51
90.0
  0
ARC
  5
1463
330
D
100
AcDbEntity
 67
     1
  8
AM_VIS
100
AcDbCircle
 10
113.9210213503976
 20
217.7979477646724
 30
0.0
 40
0.3
100
AcDbArc
 50
0.0
 51
90.0
  0
LINE
  5
1464
330
D
100
AcDbEntity
 67
     1
  8
AM_VIS
100
AcDbLine
 10
121.3210213503976
 20
186.9655507904809
 30
0.0
 11
133.5068077880245
 21
186.9655507904809
 31
0.0
  0
LINE
  5
1465
330
D
100
AcDbEntity
 67
     1
  8
AM_VIS
100
AcDbLine
 10
121.3210213503976
 20
218.9655507904809
 30
0.0
 11
133.9210213503977
 21
218.9655507904809
 31
0.0
  0
LINE
  5
1466
330
D
100
AcDbEntity
 67
     1
  8
AM_VIS
100
AcDbLine
 10
121.1210213503975
 20
187.165550790481
 30
0.0
 11
121.3210213503976
 21
186.9655507904809
 31
0.0
  0
LINE
  5
1467
330
D
100
AcDbEntity
 67
     1
  8
AM_VIS
100
AcDbLine
 10
121.1210213503975
 20
218.7655507904809
 30
0.0
 11
121.3210213503976
 21
218.9655507904809
 31
0.0
  0
LINE
  5
1468
330
D
100
AcDbEntity
 67
     1
  8
AM_VIS
100
AcDbLine
 10
121.1210213503975
 20
218.7655507904809
 30
0.0
 11
115.1210213503975
 21
218.7655507904809
 31
0.0
  0
LINE
  5
1469
330
D
100
AcDbEntity
 67
     1
  8
AM_VIS
100
AcDbLine
 10
121.1210213503975
 20
187.165550790481
 30
0.0
 11
115.1210213503975
 21
187.165550790481
 31
0.0
  0
LINE
  5
146A
330
D
100
AcDbEntity
 67
     1
  8
AM_VIS
100
AcDbLine
 10
121.1210213503975
 20
218.7655507904809
 30
0.0
 11
121.1210213503975
 21
187.165550790481
 31
0.0
  0
LINE
  5
146B
330
D
100
AcDbEntity
 67
     1
  8
AM_VIS
100
AcDbLine
 10
114.4210213503976
 20
217.4921096334919
 30
0.0
 11
114.4210213503976
 21
218.0655507904809
 31
0.0
  0
LINE
  5
146C
330
D
100
AcDbEntity
 67
     1
  8
AM_VIS
100
AcDbLine
 10
114.4210213503976
 20
187.865550790481
 30
0.0
 11
114.4210213503976
 21
216.4977377469103
 31
0.0
  0
ARC
  5
146D
330
D
100
AcDbEntity
 67
     1
  8
AM_VIS
100
AcDbCircle
 10
115.1210213503975
 20
187.865550790481
 30
0.0
 40
0.7
100
AcDbArc
 50
180.0
 51
270.0
  0
ARC
  5
146E
330
D
100
AcDbEntity
 67
     1
  8
AM_VIS
100
AcDbCircle
 10
115.1210213503975
 20
218.0655507904809
 30
0.0
 40
0.7
100
AcDbArc
 50
90.0
 51
180.0
  0
LINE
  5
146F
330
D
100
AcDbEntity
 67
     1
  8
AM_VIS
100
AcDbLine
 10
81.22102135039757
 20
190.9655507904809
 30
0.0
 11
81.72102135039756
 21
190.9655507904809
 31
0.0
  0
LINE
  5
1470
330
D
100
AcDbEntity
 67
     1
  8
AM_VIS
100
AcDbLine
 10
81.22102135039757
 20
214.965550790481
 30
0.0
 11
81.72102135039756
 21
214.965550790481
 31
0.0
  0
LINE
  5
1471
330
D
100
AcDbEntity
 67
     1
  8
AM_VIS
100
AcDbLine
 10
80.72102135039756
 20
191.4655507904809
 30
0.0
 11
81.22102135039757
 21
190.9655507904809
 31
0.0
  0
LINE
  5
1472
330
D
100
AcDbEntity
 67
     1
  8
AM_VIS
100
AcDbLine
 10
80.72102135039756
 20
214.4655507904809
 30
0.0
 11
81.22102135039757
 21
214.965550790481
 31
0.0
  0
LINE
  5
1473
330
D
100
AcDbEntity
 67
     1
  8
AM_VIS
100
AcDbLine
 10
81.22102135039757
 20
214.965550790481
 30
0.0
 11
81.22102135039757
 21
190.9655507904809
 31
0.0
  0
LINE
  5
1474
330
D
100
AcDbEntity
 67
     1
  8
AM_VIS
100
AcDbLine
 10
80.72102135039756
 20
191.4655507904809
 30
0.0
 11
80.72102135039756
 21
214.4655507904809
 31
0.0
  0
LINE
  5
1475
330
D
100
AcDbEntity
 67
     1
  8
AM_VIS
100
AcDbLine
 10
111.1043064108367
 20
218.7852593527936
 30
0.0
 11
111.3771825851868
 21
219.0047393172009
 31
0.0
  0
ARC
  5
1476
330
D
100
AcDbEntity
 67
     1
  8
AM_VIS
100
AcDbCircle
 10
110.010500956834
 20
215.0947801127023
 30
0.0
 40
4.141830102464343
100
AcDbArc
 50
60.96011386596752
 51
70.7312490575387
  0
LINE
  5
1477
330
D
100
AcDbEntity
 67
     1
  8
AM_VIS
100
AcDbLine
 10
110.090550786778
 20
218.9421827059956
 30
0.0
 11
110.3108642089072
 21
219.2248332358168
 31
0.0
  0
LINE
  5
1478
330
D
100
AcDbEntity
 67
     1
  8
AM_VIS
100
AcDbLine
 10
108.928854504992
 20
218.7825027629032
 30
0.0
 11
109.0116274151806
 21
218.7332046837424
 31
0.0
  0
LINE
  5
1479
330
D
100
AcDbEntity
 67
     1
  8
AM_VIS
100
AcDbLine
 10
109.9513653437801
 20
218.9420842017088
 30
0.0
 11
110.0210221512246
 21
218.8702678488838
 31
0.0
  0
LINE
  5
147A
330
D
100
AcDbEntity
 67
     1
  8
AM_VIS
100
AcDbLine
 10
110.0210205495704
 20
218.8702678488838
 30
0.0
 11
110.0906773570149
 21
218.942084201709
 31
0.0
  0
ARC
  5
147B
330
D
100
AcDbEntity
 67
     1
  8
AM_VIS
100
AcDbCircle
 10
110.0207213992308
 20
215.1386960889535
 30
0.0
 40
3.804030653615234
100
AcDbArc
 50
75.49688980580864
 51
88.94626172979355
  0
LINE
  5
147C
330
D
100
AcDbEntity
 67
     1
  8
AM_VIS
100
AcDbLine
 10
111.0214133083144
 20
218.7356812665527
 30
0.0
 11
111.1044200958026
 21
218.7851181585068
 31
0.0
  0
ARC
  5
147D
330
D
100
AcDbEntity
 67
     1
  8
AM_VIS
100
AcDbCircle
 10
110.0105341451548
 20
215.1052175729755
 30
0.0
 40
3.839043022149489
100
AcDbArc
 50
58.41957476395192
 51
73.44490333250918
  0
ARC
  5
147E
330
D
100
AcDbEntity
 67
     1
  8
AM_VIS
100
AcDbCircle
 10
110.0213291978948
 20
215.1386128407308
 30
0.0
 40
3.804114032979748
100
AcDbArc
 50
91.05383412249002
 51
104.6416074274167
  0
LINE
  5
147F
330
D
100
AcDbEntity
 67
     1
  8
AM_VIS
100
AcDbLine
 10
109.7311761060458
 20
219.2248313798615
 30
0.0
 11
109.9514944388104
 21
218.9421846775866
 31
0.0
  0
ARC
  5
1480
330
D
100
AcDbEntity
 67
     1
  8
AM_VIS
100
AcDbCircle
 10
110.0316028421164
 20
215.1050287308095
 30
0.0
 40
3.839253275295325
100
AcDbArc
 50
106.6921919658009
 51
121.580148066469
  0
LINE
  5
1481
330
D
100
AcDbEntity
 67
     1
  8
AM_VIS
100
AcDbLine
 10
108.6565983123561
 20
219.0018415116391
 30
0.0
 11
108.9289705964669
 21
218.7826468707127
 31
0.0
  0
ARC
  5
1482
330
D
100
AcDbEntity
 67
     1
  8
AM_VIS
100
AcDbCircle
 10
110.0215035384138
 20
215.4487610993964
 30
0.0
 40
4.197222245357911
100
AcDbArc
 50
108.9789693791201
 51
118.4649134708483
  0
LINE
  5
1483
330
D
100
AcDbEntity
 67
     1
  8
AM_VIS
100
AcDbLine
 10
108.6565599130208
 20
219.4179646696586
 30
0.0
 11
108.9005723569388
 21
219.2859508243565
 31
0.0
  0
LINE
  5
1484
330
D
100
AcDbEntity
 67
     1
  8
AM_VIS
100
AcDbLine
 10
109.0756574955454
 20
219.3327599024605
 30
0.0
 11
109.2165888092503
 21
219.5681342804231
 31
0.0
  0
LINE
  5
1485
330
D
100
AcDbEntity
 67
     1
  8
AM_VIS
100
AcDbLine
 10
109.2161784291676
 20
219.5718302014394
 30
0.0
 11
109.7305475041411
 21
219.6396405788561
 31
0.0
  0
LINE
  5
1486
330
D
100
AcDbEntity
 67
     1
  8
AM_VIS
100
AcDbLine
 10
109.7311378551313
 20
219.6359754408876
 30
0.0
 11
109.9306269559818
 21
219.4452192863336
 31
0.0
  0
LINE
  5
1487
330
D
100
AcDbEntity
 67
     1
  8
AM_VIS
100
AcDbLine
 10
110.1114174369356
 20
219.4452175133582
 30
0.0
 11
110.3109032097336
 21
219.6359771482156
 31
0.0
  0
LINE
  5
1488
330
D
100
AcDbEntity
 67
     1
  8
AM_VIS
100
AcDbLine
 10
110.3115697150859
 20
219.6402394228158
 30
0.0
 11
110.817359084223
 21
219.5740735651792
 31
0.0
  0
LINE
  5
1489
330
D
100
AcDbEntity
 67
     1
  8
AM_VIS
100
AcDbLine
 10
110.8168755081814
 20
219.5697995237809
 30
0.0
 11
110.9575328449185
 21
219.3349059074872
 31
0.0
  0
LINE
  5
148A
330
D
100
AcDbEntity
 67
     1
  8
AM_VIS
100
AcDbLine
 10
109.0116270374136
 20
219.221592496708
 30
0.0
 11
109.0757382832741
 21
219.332711529696
 31
0.0
  0
LINE
  5
148B
330
D
100
AcDbEntity
 67
     1
  8
AM_VIS
100
AcDbLine
 10
109.9305325944738
 20
219.4451206036098
 30
0.0
 11
110.021021378183
 21
219.3545715333486
 31
0.0
  0
LINE
  5
148C
330
D
100
AcDbEntity
 67
     1
  8
AM_VIS
100
AcDbLine
 10
110.0210213226121
 20
219.3545715333486
 30
0.0
 11
110.1115101063213
 21
219.4451206036098
 31
0.0
  0
LINE
  5
148D
330
D
100
AcDbEntity
 67
     1
  8
AM_VIS
100
AcDbLine
 10
110.9574507055505
 20
219.3348567205713
 30
0.0
 11
111.0214136876569
 21
219.2239946824856
 31
0.0
  0
LINE
  5
148E
330
D
100
AcDbEntity
 67
     1
  8
AM_VIS
100
AcDbLine
 10
111.1327190346711
 20
219.288495057095
 30
0.0
 11
111.3772204505292
 21
219.4207984395417
 31
0.0
  0
ARC
  5
148F
330
D
100
AcDbEntity
 67
     1
  8
AM_VIS
100
AcDbCircle
 10
110.0205428357653
 20
215.4487688766425
 30
0.0
 40
4.19721365747173
100
AcDbArc
 50
61.53508000987478
 51
71.14025491032982
  0
LINE
  5
1490
330
D
100
AcDbEntity
 67
     1
  8
AM_VIS
100
AcDbLine
 10
108.0210213503975
 20
218.7159076090416
 30
0.0
 11
108.0210213503975
 21
218.3757209781821
 31
0.0
  0
LINE
  5
1491
330
D
100
AcDbEntity
 67
     1
  8
AM_VIS
100
AcDbLine
 10
108.0210213503975
 20
218.0979477646725
 30
0.0
 11
108.0210213503975
 21
218.3757209781821
 31
0.0
  0
ARC
  5
1492
330
D
100
AcDbEntity
 67
     1
  8
AM_VIS
100
AcDbCircle
 10
110.0316228577995
 20
215.0946121559544
 30
0.0
 40
4.14201631818589
100
AcDbArc
 50
109.3901395926874
 51
119.0397393273692
  0
LINE
  5
1493
330
D
100
AcDbEntity
 67
     1
  8
AM_VIS
100
AcDbLine
 10
108.656561080728
 20
219.417966821463
 30
0.0
 11
108.900571149859
 21
219.2859485868406
 31
0.0
  0
ARC
  5
1494
330
D
100
AcDbEntity
 67
     1
  8
AM_VIS
100
AcDbCircle
 10
110.0215035384184
 20
215.4487610993859
 30
0.0
 40
4.197222245369377
100
AcDbArc
 50
108.9789693791325
 51
118.4649134708304
  0
LINE
  5
1495
330
D
100
AcDbEntity
 67
     1
  8
AM_VIS
100
AcDbLine
 10
109.0596437145585
 20
218.819243769288
 30
0.0
 11
109.2165534646146
 21
219.1554579595148
 31
0.0
  0
LINE
  5
1496
330
D
100
AcDbEntity
 67
     1
  8
AM_VIS
100
AcDbLine
 10
109.0116260714681
 20
218.7332046731373
 30
0.0
 11
109.0597545794032
 21
218.8191921217129
 31
0.0
  0
LINE
  5
1497
330
D
100
AcDbEntity
 67
     1
  8
AM_VIS
100
AcDbLine
 10
109.2160560836228
 20
219.1599892741653
 30
0.0
 11
109.730457352722
 21
219.2290926722411
 31
0.0
  0
LINE
  5
1498
330
D
100
AcDbEntity
 67
     1
  8
AM_VIS
100
AcDbLine
 10
109.7311394770644
 20
219.6359771336077
 30
0.0
 11
109.9306252807257
 21
219.4452175310274
 31
0.0
  0
LINE
  5
1499
330
D
100
AcDbEntity
 67
     1
  8
AM_VIS
100
AcDbLine
 10
109.2161784291653
 20
219.5718302014578
 30
0.0
 11
109.7305475041411
 21
219.639640578857
 31
0.0
  0
LINE
  5
149A
330
D
100
AcDbEntity
 67
     1
  8
AM_VIS
100
AcDbLine
 10
109.0756560705225
 20
219.3327607570294
 30
0.0
 11
109.2165901874726
 21
219.568133456535
 31
0.0
  0
LINE
  5
149B
330
D
100
AcDbEntity
 67
     1
  8
AM_VIS
100
AcDbLine
 10
110.3115607893597
 20
219.2289428345838
 30
0.0
 11
110.8173823005873
 21
219.1615236702961
 31
0.0
  0
LINE
  5
149C
330
D
100
AcDbEntity
 67
     1
  8
AM_VIS
100
AcDbLine
 10
110.9733755167675
 20
218.8215082373614
 30
0.0
 11
111.0214146496107
 21
218.7356812506479
 31
0.0
  0
LINE
  5
149D
330
D
100
AcDbEntity
 67
     1
  8
AM_VIS
100
AcDbLine
 10
110.8169102498269
 20
219.1571609127401
 30
0.0
 11
110.9734895576869
 21
218.8215613526369
 31
0.0
  0
LINE
  5
149E
330
D
100
AcDbEntity
 67
     1
  8
AM_VIS
100
AcDbLine
 10
110.816876902126
 20
219.5698003571266
 30
0.0
 11
110.9575314045813
 21
219.334905043671
 31
0.0
  0
LINE
  5
149F
330
D
100
AcDbEntity
 67
     1
  8
AM_VIS
100
AcDbLine
 10
110.3115697150855
 20
219.6402394228126
 30
0.0
 11
110.8173590842233
 21
219.574073565182
 31
0.0
  0
LINE
  5
14A0
330
D
100
AcDbEntity
 67
     1
  8
AM_VIS
100
AcDbLine
 10
110.1114157273749
 20
219.4452193046087
 30
0.0
 11
110.3109048653446
 21
219.6359754203442
 31
0.0
  0
LINE
  5
14A1
330
D
100
AcDbEntity
 67
     1
  8
AM_VIS
100
AcDbLine
 10
112.0210213503975
 20
218.3757209781821
 30
0.0
 11
112.0210213503975
 21
218.1209900227935
 31
0.0
  0
LINE
  5
14A2
330
D
100
AcDbEntity
 67
     1
  8
AM_VIS
100
AcDbLine
 10
112.0210213503975
 20
218.7159076090416
 30
0.0
 11
112.0210213503975
 21
218.3757209781821
 31
0.0
  0
LINE
  5
14A3
330
D
100
AcDbEntity
 67
     1
  8
AM_VIS
100
AcDbLine
 10
111.1327995217236
 20
219.2883465532842
 30
0.0
 11
111.0214136507601
 21
219.2239946611975
 31
0.0
  0
LINE
  5
14A4
330
D
100
AcDbEntity
 67
     1
  8
AM_VIS
100
AcDbLine
 10
110.9574507055505
 20
219.3348567205713
 30
0.0
 11
111.0214136876569
 21
219.2239946824856
 31
0.0
  0
LINE
  5
14A5
330
D
100
AcDbEntity
 67
     1
  8
AM_VIS
100
AcDbLine
 10
110.0210213226121
 20
219.3545715333486
 30
0.0
 11
110.1115101063213
 21
219.4451206036098
 31
0.0
  0
LINE
  5
14A6
330
D
100
AcDbEntity
 67
     1
  8
AM_VIS
100
AcDbLine
 10
109.9305325944738
 20
219.4451206036098
 30
0.0
 11
110.021021378183
 21
219.3545715333486
 31
0.0
  0
LINE
  5
14A7
330
D
100
AcDbEntity
 67
     1
  8
AM_VIS
100
AcDbLine
 10
109.0116270374136
 20
219.221592496708
 30
0.0
 11
109.0757382832741
 21
219.332711529696
 31
0.0
  0
LINE
  5
14A8
330
D
100
AcDbEntity
 67
     1
  8
AM_VIS
100
AcDbLine
 10
109.0116270744977
 20
219.2215924753122
 30
0.0
 11
108.9004907447957
 21
219.2858002116219
 31
0.0
  0
ARC
  5
14A9
330
D
100
AcDbEntity
 67
     1
  8
AM_VIS
100
AcDbCircle
 10
110.0205428357534
 20
215.4487688766154
 30
0.0
 40
4.197213657501287
100
AcDbArc
 50
61.53508000991052
 51
71.14025491029494
  0
LINE
  5
14AA
330
D
100
AcDbEntity
 67
     1
  8
AM_VIS
100
AcDbLine
 10
111.1327178381168
 20
219.2884972747657
 30
0.0
 11
111.3772216073429
 21
219.4207963081181
 31
0.0
  0
LINE
  5
14AB
330
D
100
AcDbEntity
 67
     1
  8
AM_VIS
100
AcDbLine
 10
110.0210213503975
 20
219.3545715055817
 30
0.0
 11
110.0210213503975
 21
218.8702670721379
 31
0.0
  0
LINE
  5
14AC
330
D
100
AcDbEntity
 67
     1
  8
AM_VIS
100
AcDbLine
 10
111.3773032198844
 20
219.0045893357302
 30
0.0
 11
111.3773032198844
 21
219.4206454787944
 31
0.0
  0
LINE
  5
14AD
330
D
100
AcDbEntity
 67
     1
  8
AM_VIS
100
AcDbLine
 10
108.6564783999855
 20
219.4178140021687
 30
0.0
 11
108.6564783999855
 21
219.0016925096474
 31
0.0
  0
LINE
  5
14AE
330
D
100
AcDbEntity
 67
     1
  8
AM_VIS
100
AcDbLine
 10
108.0210213503975
 20
219.1385775693049
 30
0.0
 11
108.0210213503975
 21
218.7159076090416
 31
0.0
  0
LINE
  5
14AF
330
D
100
AcDbEntity
 67
     1
  8
AM_VIS
100
AcDbLine
 10
109.0116270744977
 20
219.2215924753122
 30
0.0
 11
109.0116270744977
 21
218.733204111726
 31
0.0
  0
LINE
  5
14B0
330
D
100
AcDbEntity
 67
     1
  8
AM_VIS
100
AcDbLine
 10
109.7310436719373
 20
219.6358769459231
 30
0.0
 11
109.7310436719373
 21
219.2247281497097
 31
0.0
  0
LINE
  5
14B1
330
D
100
AcDbEntity
 67
     1
  8
AM_VIS
100
AcDbLine
 10
109.2166722573297
 20
219.1554025194465
 30
0.0
 11
109.2166722573297
 21
219.5680843155648
 31
0.0
  0
LINE
  5
14B2
330
D
100
AcDbEntity
 67
     1
  8
AM_VIS
100
AcDbLine
 10
110.3109990288577
 20
219.2247281497097
 30
0.0
 11
110.3109990288577
 21
219.6358769459231
 31
0.0
  0
LINE
  5
14B3
330
D
100
AcDbEntity
 67
     1
  8
AM_VIS
100
AcDbLine
 10
111.0214136507601
 20
219.2239946611975
 30
0.0
 11
111.0214136507601
 21
218.7356806915706
 31
0.0
  0
LINE
  5
14B4
330
D
100
AcDbEntity
 67
     1
  8
AM_VIS
100
AcDbLine
 10
110.8167935462228
 20
219.5697504438996
 30
0.0
 11
110.8167935462228
 21
219.1571064628123
 31
0.0
  0
LINE
  5
14B5
330
D
100
AcDbEntity
 67
     1
  8
AM_VIS
100
AcDbLine
 10
112.0210213503975
 20
219.1385775693046
 30
0.0
 11
112.0210213503975
 21
218.7159076090416
 31
0.0
  0
LINE
  5
14B6
330
D
100
AcDbEntity
 67
     1
  8
AM_VIS
100
AcDbLine
 10
197.4606496609962
 20
198.1676381147225
 30
0.0
 11
197.4606496609962
 21
199.4773564151632
 31
0.0
  0
LINE
  5
14B7
330
D
100
AcDbEntity
 67
     1
  8
AM_VIS
100
AcDbLine
 10
197.4606496609962
 20
206.453745165799
 30
0.0
 11
197.4606496609962
 21
207.7634634662394
 31
0.0
  0
LINE
  5
14B8
330
D
100
AcDbEntity
 67
     1
  8
AM_VIS
100
AcDbLine
 10
202.7606496609964
 20
207.6885385424956
 30
0.0
 11
202.7606496609964
 21
206.453745165799
 31
0.0
  0
LINE
  5
14B9
330
D
100
AcDbEntity
 67
     1
  8
AM_VIS
100
AcDbLine
 10
202.7606496609964
 20
199.4773564151632
 30
0.0
 11
202.7606496609965
 21
198.1676381147225
 31
0.0
  0
LINE
  5
14BA
330
D
100
AcDbEntity
 67
     1
  8
AM_VIS
100
AcDbLine
 10
202.7606496609959
 20
207.7634634662396
 30
0.0
 11
202.7606496609959
 21
206.7554854305375
 31
0.0
  0
LINE
  5
14BB
330
D
100
AcDbEntity
 67
     1
  8
AM_VIS
100
AcDbLine
 10
197.4606496609966
 20
207.7185420430879
 30
0.0
 11
197.4606496609966
 21
207.6885385424956
 31
0.0
  0
LINE
  5
14BC
330
D
100
AcDbEntity
 67
     1
  8
AM_VIS
100
AcDbLine
 10
197.4606496609962
 20
198.2425630384665
 30
0.0
 11
197.4606496609962
 21
198.2125595378742
 31
0.0
  0
LINE
  5
14BD
330
D
100
AcDbEntity
 67
     1
  8
AM_VIS
100
AcDbLine
 10
202.7606496609964
 20
198.2425630384665
 30
0.0
 11
202.7606496609964
 21
198.2125595378742
 31
0.0
  0
ARC
  5
14BE
330
D
100
AcDbEntity
 67
     1
  8
AM_VIS
100
AcDbCircle
 10
200.1106496609963
 20
202.965550790481
 30
0.0
 40
16.1
100
AcDbArc
 50
107.4825458845944
 51
113.537703393052
  0
LINE
  5
14BF
330
D
100
AcDbEntity
 67
     1
  8
AM_VIS
100
AcDbLine
 10
195.2739640867013
 20
218.3218678181869
 30
0.0
 11
195.3098689439986
 21
218.2283324670726
 31
0.0
  0
LINE
  5
14C0
330
D
100
AcDbEntity
 67
     1
  8
AM_VIS
100
AcDbLine
 10
193.6810751771321
 20
217.7259902133588
 30
0.0
 11
193.7169473718732
 21
217.6325399511119
 31
0.0
  0
ARC
  5
14C1
330
D
100
AcDbEntity
 67
     1
  8
AM_VIS
100
AcDbCircle
 10
196.9606496609961
 20
199.4773564151632
 30
0.0
 40
0.5
100
AcDbArc
 50
0.0
 51
47.91651169597562
  0
ARC
  5
14C2
330
D
100
AcDbEntity
 67
     1
  8
AM_VIS
100
AcDbCircle
 10
200.1106496609963
 20
202.965550790481
 30
0.0
 40
4.2
100
AcDbArc
 50
132.0834883040244
 51
227.9165116959756
  0
ARC
  5
14C3
330
D
100
AcDbEntity
 67
     1
  8
AM_VIS
100
AcDbCircle
 10
196.9606496609961
 20
206.453745165799
 30
0.0
 40
0.5
100
AcDbArc
 50
312.0834883040243
 51
0.0
  0
ARC
  5
14C4
330
D
100
AcDbEntity
 67
     1
  8
AM_VIS
100
AcDbCircle
 10
203.2606496609964
 20
206.453745165799
 30
0.0
 40
0.5
100
AcDbArc
 50
180.0
 51
227.9165116959756
  0
ARC
  5
14C5
330
D
100
AcDbEntity
 67
     1
  8
AM_VIS
100
AcDbCircle
 10
200.1106496609963
 20
202.965550790481
 30
0.0
 40
4.2
100
AcDbArc
 50
312.0834883040243
 51
47.91651169597562
  0
ARC
  5
14C6
330
D
100
AcDbEntity
 67
     1
  8
AM_VIS
100
AcDbCircle
 10
203.2606496609964
 20
199.4773564151632
 30
0.0
 40
0.5
100
AcDbArc
 50
132.0834883040244
 51
180.0
  0
CIRCLE
  5
14C7
330
D
100
AcDbEntity
 67
     1
  8
AM_VIS
100
AcDbCircle
 10
200.1106496609963
 20
202.965550790481
 30
0.0
 40
9.75
  0
CIRCLE
  5
14C8
330
D
100
AcDbEntity
 67
     1
  8
AM_VIS
100
AcDbCircle
 10
200.1106496609963
 20
202.965550790481
 30
0.0
 40
5.481100805878745
  0
CIRCLE
  5
14C9
330
D
100
AcDbEntity
 67
     1
  8
AM_VIS
100
AcDbCircle
 10
200.1106496609963
 20
202.965550790481
 30
0.0
 40
5.724999999999999
  0
LINE
  5
14CA
330
D
100
AcDbEntity
 67
     1
  8
AM_VIS
100
AcDbLine
 10
211.1030921912521
 20
193.5095359877943
 30
0.0
 11
213.161408950088
 21
194.138826573131
 31
0.0
  0
LINE
  5
14CB
330
D
100
AcDbEntity
 67
     1
  8
AM_VIS
100
AcDbLine
 10
213.161408950088
 20
194.138826573131
 30
0.0
 11
213.2468681002887
 21
194.1649540573588
 31
0.0
  0
LINE
  5
14CC
330
D
100
AcDbEntity
 67
     1
  8
AM_VIS
100
AcDbLine
 10
214.7262276591261
 20
197.0818225326865
 30
0.0
 11
214.7523551433535
 21
196.9963633824869
 31
0.0
  0
LINE
  5
14CD
330
D
100
AcDbEntity
 67
     1
  8
AM_VIS
100
AcDbLine
 10
214.0969369210099
 20
199.1401397912422
 30
0.0
 11
214.7262276591263
 21
197.081822532686
 31
0.0
  0
LINE
  5
14CE
330
D
100
AcDbEntity
 67
     1
  8
AM_VIS
100
AcDbLine
 10
202.2620344669018
 20
187.3008681840325
 30
0.0
 11
202.322980519847
 21
187.3662248242104
 31
0.0
  0
LINE
  5
14CF
330
D
100
AcDbEntity
 67
     1
  8
AM_VIS
100
AcDbLine
 10
202.3229805198465
 20
187.36622482421
 30
0.0
 11
203.7908901334621
 21
188.9403651629958
 31
0.0
  0
LINE
  5
14D0
330
D
100
AcDbEntity
 67
     1
  8
AM_VIS
100
AcDbLine
 10
198.9918619011185
 20
187.2498995987761
 30
0.0
 11
199.0572185412963
 21
187.1889535458312
 31
0.0
  0
LINE
  5
14D1
330
D
100
AcDbEntity
 67
     1
  8
AM_VIS
100
AcDbLine
 10
197.4177214764046
 20
188.7178092925209
 30
0.0
 11
198.991861901119
 21
187.2498995987756
 31
0.0
  0
LINE
  5
14D2
330
D
100
AcDbEntity
 67
     1
  8
AM_VIS
100
AcDbLine
 10
187.6203289845447
 20
193.2700555920268
 30
0.0
 11
187.707402521717
 21
193.2499530820049
 31
0.0
  0
LINE
  5
14D3
330
D
100
AcDbEntity
 67
     1
  8
AM_VIS
100
AcDbLine
 10
187.7074025217163
 20
193.2499530820049
 30
0.0
 11
189.8046027560091
 21
192.7657762574857
 31
0.0
  0
LINE
  5
14D4
330
D
100
AcDbEntity
 67
     1
  8
AM_VIS
100
AcDbLine
 10
185.9210001020038
 20
195.9895502789533
 30
0.0
 11
185.9411026120257
 21
196.0766238161258
 31
0.0
  0
LINE
  5
14D5
330
D
100
AcDbEntity
 67
     1
  8
AM_VIS
100
AcDbLine
 10
185.9411026120257
 20
196.0766238161251
 30
0.0
 11
186.4252794829767
 21
198.1738242515358
 31
0.0
  0
LINE
  5
14D6
330
D
100
AcDbEntity
 67
     1
  8
AM_VIS
100
AcDbLine
 10
185.4950716628667
 20
208.8492790482743
 30
0.0
 11
186.1243623765549
 21
206.7909618696195
 31
0.0
  0
LINE
  5
14D7
330
D
100
AcDbEntity
 67
     1
  8
AM_VIS
100
AcDbLine
 10
185.4689441786389
 20
208.934738198475
 30
0.0
 11
185.4950716628667
 21
208.8492790482743
 31
0.0
  0
LINE
  5
14D8
330
D
100
AcDbEntity
 67
     1
  8
AM_VIS
100
AcDbLine
 10
186.9744312217038
 20
211.7661475236033
 30
0.0
 11
187.0598903719036
 21
211.7922750078307
 31
0.0
  0
LINE
  5
14D9
330
D
100
AcDbEntity
 67
     1
  8
AM_VIS
100
AcDbLine
 10
187.0598903719029
 20
211.7922750078304
 30
0.0
 11
189.1182075919117
 21
212.4215657341618
 31
0.0
  0
LINE
  5
14DA
330
D
100
AcDbEntity
 67
     1
  8
AM_VIS
100
AcDbLine
 10
197.8983188021456
 20
218.5648767567514
 30
0.0
 11
197.9592648550907
 21
218.6302333969294
 31
0.0
  0
LINE
  5
14DB
330
D
100
AcDbEntity
 67
     1
  8
AM_VIS
100
AcDbLine
 10
196.4304091885304
 20
216.9907364179661
 30
0.0
 11
197.8983188021461
 21
218.5648767567519
 31
0.0
  0
LINE
  5
14DC
330
D
100
AcDbEntity
 67
     1
  8
AM_VIS
100
AcDbLine
 10
201.1640807806963
 20
218.7421480351308
 30
0.0
 11
201.229437420874
 21
218.6812019821858
 31
0.0
  0
LINE
  5
14DD
330
D
100
AcDbEntity
 67
     1
  8
AM_VIS
100
AcDbLine
 10
201.2294374208735
 20
218.6812019821863
 30
0.0
 11
202.8035778455879
 21
217.2132922884411
 31
0.0
  0
LINE
  5
14DE
330
D
100
AcDbEntity
 67
     1
  8
AM_VIS
100
AcDbLine
 10
212.5138968002756
 20
212.6811484989572
 30
0.0
 11
212.6009703374478
 21
212.6610459889351
 31
0.0
  0
LINE
  5
14DF
330
D
100
AcDbEntity
 67
     1
  8
AM_VIS
100
AcDbLine
 10
210.4166965659834
 20
213.1653253234762
 30
0.0
 11
212.5138968002763
 21
212.681148498957
 31
0.0
  0
LINE
  5
14E0
330
D
100
AcDbEntity
 67
     1
  8
AM_VIS
100
AcDbLine
 10
214.2801967099668
 20
209.8544777648361
 30
0.0
 11
214.3002992199887
 21
209.9415513020086
 31
0.0
  0
LINE
  5
14E1
330
D
100
AcDbEntity
 67
     1
  8
AM_VIS
100
AcDbLine
 10
213.7960198390159
 20
207.7572773294261
 30
0.0
 11
214.280196709967
 21
209.8544777648368
 31
0.0
  0
ARC
  5
14E2
330
D
100
AcDbEntity
 67
     1
  8
AM_VIS
100
AcDbCircle
 10
200.1106496609963
 20
202.965550790481
 30
0.0
 40
14.5
100
AcDbArc
 50
342.3050375410211
 51
21.694962458983
  0
ARC
  5
14E3
330
D
100
AcDbEntity
 67
     1
  8
AM_VIS
100
AcDbCircle
 10
200.1106496609963
 20
202.965550790481
 30
0.0
 40
14.5
100
AcDbArc
 50
282.3050375410159
 51
321.6949624589746
  0
ARC
  5
14E4
330
D
100
AcDbEntity
 67
     1
  8
AM_VIS
100
AcDbCircle
 10
200.1106496609963
 20
202.965550790481
 30
0.0
 40
14.5
100
AcDbArc
 50
222.3050375410191
 51
261.6949624589806
  0
ARC
  5
14E5
330
D
100
AcDbEntity
 67
     1
  8
AM_VIS
100
AcDbCircle
 10
200.1106496609963
 20
202.965550790481
 30
0.0
 40
14.5
100
AcDbArc
 50
162.3050375410211
 51
201.694962458983
  0
ARC
  5
14E6
330
D
100
AcDbEntity
 67
     1
  8
AM_VIS
100
AcDbCircle
 10
200.1106496609963
 20
202.965550790481
 30
0.0
 40
14.5
100
AcDbArc
 50
102.3050375410158
 51
141.6949624686029
  0
ARC
  5
14E7
330
D
100
AcDbEntity
 67
     1
  8
AM_VIS
100
AcDbCircle
 10
200.1106496609963
 20
202.965550790481
 30
0.0
 40
14.5
100
AcDbArc
 50
42.30503754101905
 51
81.69496245898066
  0
CIRCLE
  5
14E8
330
D
100
AcDbEntity
 67
     1
  8
AM_VIS
100
AcDbCircle
 10
200.1106496609963
 20
202.965550790481
 30
0.0
 40
13.65
  0
ARC
  5
14E9
330
D
100
AcDbEntity
 67
     1
  8
AM_VIS
100
AcDbCircle
 10
213.0129707365105
 20
194.9299978621292
 30
0.0
 40
0.8000000000000024
100
AcDbArc
 50
286.999999999997
 51
328.0853900758289
  0
ARC
  5
14EA
330
D
100
AcDbEntity
 67
     1
  8
AM_VIS
100
AcDbCircle
 10
200.1106496609963
 20
202.965550790481
 30
0.0
 40
14.5
100
AcDbArc
 50
321.6949624589746
 51
342.3050375410211
  0
ARC
  5
14EB
330
D
100
AcDbEntity
 67
     1
  8
AM_VIS
100
AcDbCircle
 10
213.987311338583
 20
196.7624660187088
 30
0.0
 40
0.7999999999999977
100
AcDbArc
 50
335.9146099241751
 51
16.99999999999508
  0
ARC
  5
14EC
330
D
100
AcDbEntity
 67
     1
  8
AM_VIS
100
AcDbCircle
 10
200.1106496609963
 20
202.965550790481
 30
0.0
 40
14.5
100
AcDbArc
 50
261.6949624589806
 51
282.3050375410159
  0
ARC
  5
14ED
330
D
100
AcDbEntity
 67
     1
  8
AM_VIS
100
AcDbCircle
 10
201.6769515056065
 20
187.8464668720827
 30
0.0
 40
0.7999999999999982
100
AcDbArc
 50
275.9146099241741
 51
317.0000000000073
  0
ARC
  5
14EE
330
D
100
AcDbEntity
 67
     1
  8
AM_VIS
100
AcDbCircle
 10
199.6028172293462
 20
187.7740365071264
 30
0.0
 40
0.7999999999999999
100
AcDbArc
 50
226.9999999999987
 51
268.0853900758182
  0
ARC
  5
14EF
330
D
100
AcDbEntity
 67
     1
  8
AM_VIS
100
AcDbCircle
 10
200.1106496609963
 20
202.965550790481
 30
0.0
 40
14.5
100
AcDbArc
 50
201.694962458983
 51
222.3050375410191
  0
ARC
  5
14F0
330
D
100
AcDbEntity
 67
     1
  8
AM_VIS
100
AcDbCircle
 10
187.8002898280198
 20
194.0495516438549
 30
0.0
 40
0.8000000000000003
100
AcDbArc
 50
215.9146099241707
 51
257.0000000000026
  0
ARC
  5
14F1
330
D
100
AcDbEntity
 67
     1
  8
AM_VIS
100
AcDbCircle
 10
186.7004961538319
 20
195.8095894354782
 30
0.0
 40
0.8000000000000003
100
AcDbArc
 50
167.0000000000027
 51
208.0853900758237
  0
ARC
  5
14F2
330
D
100
AcDbEntity
 67
     1
  8
AM_VIS
100
AcDbCircle
 10
200.1106496609963
 20
202.965550790481
 30
0.0
 40
14.5
100
AcDbArc
 50
141.6949624686029
 51
162.3050375410211
  0
ARC
  5
14F3
330
D
100
AcDbEntity
 67
     1
  8
AM_VIS
100
AcDbCircle
 10
186.2339879834095
 20
209.1686355622532
 30
0.0
 40
0.8000000000000005
100
AcDbArc
 50
155.914609924175
 51
196.9999999999951
  0
ARC
  5
14F4
330
D
100
AcDbEntity
 67
     1
  8
AM_VIS
100
AcDbCircle
 10
187.208328585482
 20
211.0011037188327
 30
0.0
 40
0.7999999999999993
100
AcDbArc
 50
106.9999999999966
 51
148.0853900758289
  0
ARC
  5
14F5
330
D
100
AcDbEntity
 67
     1
  8
AM_VIS
100
AcDbCircle
 10
200.1106496609963
 20
202.965550790481
 30
0.0
 40
14.5
100
AcDbArc
 50
81.69496245898066
 51
102.3050375410158
  0
ARC
  5
14F6
330
D
100
AcDbEntity
 67
     1
  8
AM_VIS
100
AcDbCircle
 10
198.544347816386
 20
218.0846347088792
 30
0.0
 40
0.7999999999999998
100
AcDbArc
 50
95.9146099241741
 51
137.0000000000074
  0
ARC
  5
14F7
330
D
100
AcDbEntity
 67
     1
  8
AM_VIS
100
AcDbCircle
 10
200.6184820926463
 20
218.1570650738355
 30
0.0
 40
0.7999999999999992
100
AcDbArc
 50
46.99999999999874
 51
88.08539007581817
  0
ARC
  5
14F8
330
D
100
AcDbEntity
 67
     1
  8
AM_VIS
100
AcDbCircle
 10
200.1106496609963
 20
202.965550790481
 30
0.0
 40
14.5
100
AcDbArc
 50
21.694962458983
 51
42.30503754101905
  0
ARC
  5
14F9
330
D
100
AcDbEntity
 67
     1
  8
AM_VIS
100
AcDbCircle
 10
212.4210094939727
 20
211.881549937107
 30
0.0
 40
0.8000000000000003
100
AcDbArc
 50
35.91460992417067
 51
77.00000000000255
  0
ARC
  5
14FA
330
D
100
AcDbEntity
 67
     1
  8
AM_VIS
100
AcDbCircle
 10
213.5208031681604
 20
210.1215121454838
 30
0.0
 40
0.8000000000000003
100
AcDbArc
 50
347.0000000000027
 51
28.08539007582366
  0
ARC
  5
14FB
330
D
100
AcDbEntity
 67
     1
  8
AM_VIS
100
AcDbCircle
 10
200.1106496609963
 20
202.965550790481
 30
0.0
 40
16.0
100
AcDbArc
 50
28.08539007582366
 51
35.91460992417067
  0
ARC
  5
14FC
330
D
100
AcDbEntity
 67
     1
  8
AM_VIS
100
AcDbCircle
 10
200.1106496609963
 20
202.965550790481
 30
0.0
 40
16.0
100
AcDbArc
 50
35.91460992417067
 51
88.08539007582467
  0
ARC
  5
14FD
330
D
100
AcDbEntity
 67
     1
  8
AM_VIS
100
AcDbCircle
 10
200.1106496609963
 20
202.965550790481
 30
0.0
 40
16.0
100
AcDbArc
 50
88.08539007582467
 51
95.9146099241741
  0
ARC
  5
14FE
330
D
100
AcDbEntity
 67
     1
  8
AM_VIS
100
AcDbCircle
 10
200.1106496609963
 20
202.965550790481
 30
0.0
 40
16.0
100
AcDbArc
 50
95.9146099241741
 51
148.0853900758289
  0
ARC
  5
14FF
330
D
100
AcDbEntity
 67
     1
  8
AM_VIS
100
AcDbCircle
 10
200.1106496609963
 20
202.965550790481
 30
0.0
 40
16.0
100
AcDbArc
 50
148.0853900758289
 51
155.914609924175
  0
ARC
  5
1500
330
D
100
AcDbEntity
 67
     1
  8
AM_VIS
100
AcDbCircle
 10
200.1106496609963
 20
202.965550790481
 30
0.0
 40
16.0
100
AcDbArc
 50
155.914609924175
 51
208.0853900758237
  0
ARC
  5
1501
330
D
100
AcDbEntity
 67
     1
  8
AM_VIS
100
AcDbCircle
 10
200.1106496609963
 20
202.965550790481
 30
0.0
 40
16.0
100
AcDbArc
 50
208.0853900758237
 51
215.9146099241707
  0
ARC
  5
1502
330
D
100
AcDbEntity
 67
     1
  8
AM_VIS
100
AcDbCircle
 10
200.1106496609963
 20
202.965550790481
 30
0.0
 40
16.0
100
AcDbArc
 50
215.9146099241707
 51
268.0853900758247
  0
ARC
  5
1503
330
D
100
AcDbEntity
 67
     1
  8
AM_VIS
100
AcDbCircle
 10
200.1106496609963
 20
202.965550790481
 30
0.0
 40
16.0
100
AcDbArc
 50
268.0853900758247
 51
275.9146099241741
  0
ARC
  5
1504
330
D
100
AcDbEntity
 67
     1
  8
AM_VIS
100
AcDbCircle
 10
200.1106496609963
 20
202.965550790481
 30
0.0
 40
16.0
100
AcDbArc
 50
275.9146099241741
 51
328.0853900758289
  0
ARC
  5
1505
330
D
100
AcDbEntity
 67
     1
  8
AM_VIS
100
AcDbCircle
 10
200.1106496609963
 20
202.965550790481
 30
0.0
 40
16.0
100
AcDbArc
 50
328.0853900758289
 51
335.9146099241751
  0
ARC
  5
1506
330
D
100
AcDbEntity
 67
     1
  8
AM_VIS
100
AcDbCircle
 10
200.1106496609963
 20
202.965550790481
 30
0.0
 40
16.0
100
AcDbArc
 50
335.9146099241751
 51
28.08539007582366
  0
LINE
  5
1507
330
D
100
AcDbEntity
 67
     1
  8
AM_VIS
100
AcDbLine
 10
205.5640073233921
 20
202.5655507904811
 30
0.0
 11
204.2915586530697
 21
202.5655507904811
 31
0.0
  0
LINE
  5
1508
330
D
100
AcDbEntity
 67
     1
  8
AM_VIS
100
AcDbLine
 10
204.2915586530697
 20
203.3655507904811
 30
0.0
 11
205.5640073233921
 21
203.3655507904811
 31
0.0
  0
LINE
  5
1509
330
D
100
AcDbEntity
 67
     1
  8
AM_VIS
100
AcDbLine
 10
203.1903026787252
 20
207.4996662868703
 30
0.0
 11
202.7606496609964
 21
206.7554854305387
 31
0.0
  0
LINE
  5
150A
330
D
100
AcDbEntity
 67
     1
  8
AM_VIS
100
AcDbLine
 10
197.4606496609962
 20
206.7554854305387
 30
0.0
 11
197.0309966432676
 21
207.4996662868703
 31
0.0
  0
LINE
  5
150B
330
D
100
AcDbEntity
 67
     1
  8
AM_VIS
100
AcDbLine
 10
195.9297406689228
 20
202.5655507904811
 30
0.0
 11
194.6572919986005
 21
202.5655507904811
 31
0.0
  0
LINE
  5
150C
330
D
100
AcDbEntity
 67
     1
  8
AM_VIS
100
AcDbLine
 10
194.6572919986005
 20
203.3655507904811
 30
0.0
 11
195.9297406689228
 21
203.3655507904811
 31
0.0
  0
LINE
  5
150D
330
D
100
AcDbEntity
 67
     1
  8
AM_VIS
100
AcDbLine
 10
197.0309966432674
 20
198.4314352940915
 30
0.0
 11
197.4606496609962
 21
199.1756161504232
 31
0.0
  0
LINE
  5
150E
330
D
100
AcDbEntity
 67
     1
  8
AM_VIS
100
AcDbLine
 10
202.7606496609964
 20
199.1756161504232
 30
0.0
 11
203.1903026787252
 21
198.4314352940915
 31
0.0
  0
LINE
  5
150F
330
D
100
AcDbEntity
 67
     1
  8
AM_VIS
100
AcDbLine
 10
196.1102725912413
 20
218.9423935400833
 30
0.0
 11
196.3427204003857
 21
219.2250320387226
 31
0.0
  0
LINE
  5
1510
330
D
100
AcDbEntity
 67
     1
  8
AM_VIS
100
AcDbLine
 10
196.1106496609962
 20
218.9420834300353
 30
0.0
 11
196.1106496609962
 21
218.8215076826105
 31
0.0
  0
LINE
  5
1511
330
D
100
AcDbEntity
 67
     1
  8
AM_VIS
100
AcDbLine
 10
196.1106496609962
 20
218.7851175861755
 30
0.0
 11
196.1106496609962
 21
218.4574841753107
 31
0.0
  0
LINE
  5
1512
330
D
100
AcDbEntity
 67
     1
  8
AM_VIS
100
AcDbLine
 10
203.8785716845826
 20
219.2250261171731
 30
0.0
 11
204.1110336082305
 21
218.9423992284118
 31
0.0
  0
LINE
  5
1513
330
D
100
AcDbEntity
 67
     1
  8
AM_VIS
100
AcDbLine
 10
204.1106496609963
 20
218.9420834300353
 30
0.0
 11
204.1106496609963
 21
218.4574841753107
 31
0.0
  0
LINE
  5
1514
330
D
100
AcDbEntity
 67
     1
  8
AM_VIS
100
AcDbLine
 10
200.7103512506568
 20
219.445448608693
 30
0.0
 11
200.920036450046
 21
219.6361986359851
 31
0.0
  0
LINE
  5
1515
330
D
100
AcDbEntity
 67
     1
  8
AM_VIS
100
AcDbLine
 10
200.7106496609962
 20
219.4451205760712
 30
0.0
 11
200.7106496609962
 21
218.9542968326194
 31
0.0
  0
LINE
  5
1516
330
D
100
AcDbEntity
 67
     1
  8
AM_VIS
100
AcDbLine
 10
196.110649660996
 20
218.8215076826105
 30
0.0
 11
196.110649660996
 21
218.7851175861755
 31
0.0
  0
LINE
  5
1517
330
D
100
AcDbEntity
 67
     1
  8
AM_VIS
100
AcDbLine
 10
199.3012574821263
 20
219.6361927461886
 30
0.0
 11
199.5109532206195
 21
219.4454543061753
 31
0.0
  0
LINE
  5
1518
330
D
100
AcDbEntity
 67
     1
  8
AM_VIS
100
AcDbLine
 10
199.5106496609963
 20
219.3348566994988
 30
0.0
 11
199.5106496609963
 21
219.2883465532842
 31
0.0
  0
LINE
  5
1519
330
D
100
AcDbEntity
 67
     1
  8
AM_VIS
100
AcDbLine
 10
199.5106496609963
 20
219.4451205760712
 30
0.0
 11
199.5106496609963
 21
219.3348566994988
 31
0.0
  0
LINE
  5
151A
330
D
100
AcDbEntity
 67
     1
  8
AM_VIS
100
AcDbLine
 10
199.5106496609963
 20
219.2883465532842
 30
0.0
 11
199.5106496609963
 21
218.9542968326194
 31
0.0
  0
ARC
  5
151B
330
D
100
AcDbEntity
 67
     1
  8
AM_VIS
100
AcDbCircle
 10
200.1106496609963
 20
202.965550790481
 30
0.0
 40
16.68997767846021
100
AcDbArc
 50
76.95372954716427
 51
87.21932340227228
  0
ARC
  5
151C
330
D
100
AcDbEntity
 67
     1
  8
AM_VIS
100
AcDbCircle
 10
200.1106496609963
 20
202.965550790481
 30
0.0
 40
16.68997767846021
100
AcDbArc
 50
92.78067659772771
 51
103.0462704528357
  0
LINE
  5
151D
330
D
100
AcDbEntity
 67
     1
  8
AM_VIS
100
AcDbLine
 10
209.8478207080715
 20
202.4655507904812
 30
0.0
 11
213.7514890779822
 21
202.4655507904812
 31
0.0
  0
LINE
  5
151E
330
D
100
AcDbEntity
 67
     1
  8
AM_VIS
100
AcDbLine
 10
213.7514890779822
 20
203.465550790481
 30
0.0
 11
209.8478207080715
 21
203.4655507904812
 31
0.0
  0
CIRCLE
  5
151F
330
D
100
AcDbEntity
 67
     1
  8
AM_VIS
100
AcDbCircle
 10
212.0814390087409
 20
204.9655507904796
 30
0.0
 40
1.0
  0
CIRCLE
  5
1520
330
D
100
AcDbEntity
 67
     1
  8
AM_VIS
100
AcDbCircle
 10
212.0814390087409
 20
200.9655507904816
 30
0.0
 40
1.0
  0
ARC
  5
1521
330
D
100
AcDbEntity
 67
     1
  8
AM_VIS
100
AcDbCircle
 10
200.1106496609963
 20
202.965550790481
 30
0.0
 40
11.44999999999982
100
AcDbArc
 50
26.49084990690319
 51
333.5091500930968
  0
ARC
  5
1522
330
D
100
AcDbEntity
 67
     1
  8
AM_VIS
100
AcDbCircle
 10
212.1484750838391
 20
196.9661125593501
 30
0.0
 40
2.0
100
AcDbArc
 50
90.96026599894594
 51
153.5091500930968
  0
ARC
  5
1523
330
D
100
AcDbEntity
 67
     1
  8
AM_VIS
100
AcDbCircle
 10
212.0814390087409
 20
200.9655507904816
 30
0.0
 40
2.0
100
AcDbArc
 50
270.9602659989459
 51
306.6869065326289
  0
ARC
  5
1524
330
D
100
AcDbEntity
 67
     1
  8
AM_VIS
100
AcDbCircle
 10
212.0814390087409
 20
204.9655507904796
 30
0.0
 40
2.0
100
AcDbArc
 50
53.31309346737111
 51
89.03973400104755
  0
ARC
  5
1525
330
D
100
AcDbEntity
 67
     1
  8
AM_VIS
100
AcDbCircle
 10
212.1484750838396
 20
208.9649890216111
 30
0.0
 40
2.0
100
AcDbArc
 50
206.4908499069032
 51
269.0397340010475
  0
ARC
  5
1526
330
D
100
AcDbEntity
 67
     1
  8
AM_VIS
100
AcDbCircle
 10
200.1106496609963
 20
202.9655507904812
 30
0.0
 40
12.5
100
AcDbArc
 50
5.150022235815186
 51
13.81996327028965
  0
ARC
  5
1527
330
D
100
AcDbEntity
 67
     1
  8
AM_VIS
100
AcDbCircle
 10
200.1106496609963
 20
202.9655507904812
 30
0.0
 40
12.5
100
AcDbArc
 50
357.7075572240462
 51
2.292442775953797
  0
ARC
  5
1528
330
D
100
AcDbEntity
 67
     1
  8
AM_VIS
100
AcDbCircle
 10
200.1106496609963
 20
202.9655507904812
 30
0.0
 40
12.5
100
AcDbArc
 50
346.1800367297104
 51
354.8499777641848
  0
LWPOLYLINE
  5
1529
330
D
100
AcDbEntity
 67
     1
  8
0
100
AcDbPolyline
 90
        5
 70
     1
 43
0.0
 10
65.92052103060644
 20
206.0480627289145
 10
65.92052103060644
 20
203.9037145807121
 10
60.1567926226711
 20
203.9037145807121
 10
61.61057729149376
 20
202.6228422131247
 10
70.83798563655193
 20
202.6228422131247
  0
MTEXT
  5
152A
330
D
100
AcDbEntity
 67
     1
  8
0
100
AcDbMText
 10
61.16801047468459
 20
208.7877756569489
 30
0.0
 40
3.0
 41
10.66874880964337
 71
     1
 72
     5
  1
IN
 73
     1
 44
1.0
1001
ACAD
1000
MTEXTBEGIN
1070
    73
1070
     1
1070
    44
1040
1.0
1070
    74
1070
     0
1000
MTEXTEND
  0
LINE
  5
152B
102
{ACAD_REACTORS
330
1535
102
}
330
D
100
AcDbEntity
 67
     1
  8
AM_4
  6
AM_ISO02W050x2
100
AcDbLine
 10
80.84602135039757
 20
196.365550790481
 30
0.0
 11
88.72102135039757
 21
196.365550790481
 31
0.0
  0
LINE
  5
152C
330
D
100
AcDbEntity
 67
     1
  8
AM_4
  6
AM_ISO02W050x2
100
AcDbLine
 10
80.84602135039757
 20
209.5655507904811
 30
0.0
 11
88.72102135039757
 21
209.5655507904811
 31
0.0
  0
LINE
  5
152D
330
D
100
AcDbEntity
 67
     1
  8
AM_4
  6
AM_ISO02W050x2
100
AcDbLine
 10
88.72102135039757
 20
196.365550790481
 30
0.0
 11
88.72102135039757
 21
209.5655507904811
 31
0.0
  0
LINE
  5
152E
330
D
100
AcDbEntity
 67
     1
  8
AM_4
  6
AM_ISO02W050x2
100
AcDbLine
 10
90.72102135039756
 20
208.6905507904811
 30
0.0
 11
81.72102135039756
 21
208.6905507904811
 31
0.0
  0
LINE
  5
152F
330
D
100
AcDbEntity
 67
     1
  8
AM_4
  6
AM_ISO02W050x2
100
AcDbLine
 10
81.72102135039756
 20
208.6905507904811
 30
0.0
 11
80.72102135039756
 21
209.6905507904811
 31
0.0
  0
LINE
  5
1530
330
D
100
AcDbEntity
 67
     1
  8
AM_4
  6
AM_ISO02W050x2
100
AcDbLine
 10
80.72102135039756
 20
196.240550790481
 30
0.0
 11
81.72102135039756
 21
197.240550790481
 31
0.0
  0
LINE
  5
1531
330
D
100
AcDbEntity
 67
     1
  8
AM_4
  6
AM_ISO02W050x2
100
AcDbLine
 10
81.72102135039756
 20
197.240550790481
 30
0.0
 11
90.72102135039756
 21
197.240550790481
 31
0.0
  0
LINE
  5
1532
330
D
100
AcDbEntity
 67
     1
  8
AM_VIS
100
AcDbLine
 10
81.72102135039756
 20
197.240550790481
 30
0.0
 11
81.72102135039756
 21
208.6905507904811
 31
0.0
  0
LEADER
  5
1533
102
{ACAD_XDICTIONARY
360
1534
102
}
102
{ACAD_REACTORS
330
1535
102
}
330
D
100
AcDbEntity
 67
     1
  8
AM_REFDIM
100
AcDbLeader
  3
AM_ISO$7
 73
     0
 75
     1
 40
3.5
 41
11.55
 76
     3
 10
85.12442961349028
 20
196.365550790481
 30
0.0
 10
71.79110103511122
 20
181.5717052901667
 30
0.0
 10
68.99110103511123
 20
181.5717052901667
 30
0.0
213
-2.388966454270757
223
0.6534725265744328
233
0.0
1001
ACAD
1000
DSTYLE
1002
{
1070
    40
1040
0.8
1002
}
  0
MTEXT
  5
1536
102
{ACAD_REACTORS
330
1533
102
}
330
D
100
AcDbEntity
 67
     1
  8
AM_REFDIM
100
AcDbMText
 10
69.88006748938198
 20
182.4182327635923
 30
0.0
 40
3.0
 41
0.0
 71
     9
 72
     1
  1
PT1/4
 73
     1
 44
1.0
1001
ACAD
1000
MTEXTBEGIN
1070
    73
1070
     1
1070
    44
1040
1.0
1070
    74
1070
     0
1000
MTEXTEND
  0
LEADER
  5
1537
330
D
100
AcDbEntity
 67
     1
  8
AM_REFDIM
100
AcDbLeader
  3
AM_ISO$7
 73
     0
 74
     0
 75
     1
 40
3.5
 41
11.55
 76
     3
 10
140.2879732680443
 20
196.365550790481
 30
0.0
 10
151.1428010042967
 20
180.2746043167107
 30
0.0
 10
153.9428010042967
 20
180.2746043167107
 30
0.0
213
3.0694370706683
223
0.5423955179328459
233
0.0
1001
ACAD
1000
DSTYLE
1002
{
1070
    40
1040
0.8
1002
}
  0
MTEXT
  5
1538
102
{ACAD_REACTORS
330
1537
102
}
330
D
100
AcDbEntity
 67
     1
  8
AM_REFDIM
100
AcDbMText
 10
152.3733639336284
 20
181.2322087987778
 30
0.0
 40
3.0
 41
0.0
 71
     7
 72
     1
  1
PT1/4
 73
     1
 44
1.0
1001
ACAD
1000
MTEXTBEGIN
1070
    73
1070
     1
1070
    44
1040
1.0
1070
    74
1070
     0
1000
MTEXTEND
  0
LWPOLYLINE
  5
1539
330
D
100
AcDbEntity
 67
     1
  8
0
100
AcDbPolyline
 90
        5
 70
     1
 43
0.0
 10
163.9137197113272
 20
206.0480627289145
 10
163.9137197113272
 20
203.9037145807121
 10
158.1499913033918
 20
203.9037145807121
 10
159.6037759722145
 20
202.6228422131247
 10
168.8311843172727
 20
202.6228422131247
  0
MTEXT
  5
153A
330
D
100
AcDbEntity
 67
     1
  8
0
100
AcDbMText
 10
157.3001758861409
 20
208.7877756569489
 30
0.0
 40
3.0
 41
10.66874880964337
 71
     1
 72
     5
  1
OUT
 73
     1
 44
1.0
1001
ACAD
1000
MTEXTBEGIN
1070
    73
1070
     1
1070
    44
1040
1.0
1070
    74
1070
     0
1000
MTEXTEND
  0
SPLINE
  5
153B
330
D
100
AcDbEntity
 67
     1
  8
AM_VIS
100
AcDbSpline
210
0.0
220
0.0
230
1.0
 70
    12
 71
     2
 72
     6
 73
     3
 74
     0
 42
0.0000000001
 43
0.0000000001
 40
0.0
 40
0.0
 40
0.0
 40
2.947987480591018
 40
2.947987480591018
 40
2.947987480591018
 10
124.4210213503976
 20
186.987478234408
 30
0.0
 41
1.0
 10
125.2765479418506
 20
187.8951928878461
 30
0.0
 41
1.003477948659522
 10
125.9210213503976
 20
188.7178092925238
 30
0.0
 41
1.0
  0
LINE
  5
153C
330
D
100
AcDbEntity
 67
     1
  8
AM_VIS
100
AcDbLine
 10
125.9210213503976
 20
188.7178092925238
 30
0.0
 11
135.4210213503976
 21
188.7178092925238
 31
0.0
  0
LINE
  5
153D
330
D
100
AcDbEntity
 67
     1
  8
AM_VIS
100
AcDbLine
 10
135.4210213503976
 20
216.990736332035
 30
0.0
 11
125.9210213503976
 21
216.990736332035
 31
0.0
  0
SPLINE
  5
153E
330
D
100
AcDbEntity
 67
     1
  8
AM_VIS
100
AcDbSpline
210
-0.0000000000017841
220
-0.0000000000014484
230
-1.0
 70
    12
 71
     2
 72
     6
 73
     3
 74
     0
 42
0.0000000001
 43
0.0000000001
 40
0.0
 40
0.0
 40
0.0
 40
2.947987480591022
 40
2.947987480591022
 40
2.947987480591022
 10
125.9210213503976
 20
216.990736332035
 30
0.0
 41
1.0
 10
125.2765479418505
 20
217.8728844247647
 30
0.0000000000002274
 41
1.003477948659664
 10
124.4210213503976
 20
218.8462892167423
 30
0.0
 41
1.0
  0
LINE
  5
153F
330
D
100
AcDbEntity
 67
     1
  8
AM_VIS
100
AcDbLine
 10
135.4210213503976
 20
206.7909617506706
 30
0.0
 11
125.9210213503976
 21
206.7909617506706
 31
0.0
  0
SPLINE
  5
1540
330
D
100
AcDbEntity
 67
     1
  8
AM_VIS
100
AcDbSpline
210
0.0
220
0.0
230
1.0
 70
    12
 71
     2
 72
     6
 73
     3
 74
     0
 42
0.0000000001
 43
0.0000000001
 40
0.0
 40
0.0
 40
0.0
 40
2.947987480591012
 40
2.947987480591012
 40
2.947987480591012
 10
125.9210213503976
 20
206.7909617506706
 30
0.0
 41
1.0
 10
125.2765479418505
 20
207.9444425010557
 30
0.0
 41
1.003477948659471
 10
124.4210213503976
 20
209.2172488463096
 30
0.0
 41
1.0
  0
LINE
  5
1541
330
D
100
AcDbEntity
 67
     1
  8
AM_VIS
100
AcDbLine
 10
135.4210213503976
 20
192.7657762091165
 30
0.0
 11
125.9210213503976
 21
192.7657762091165
 31
0.0
  0
SPLINE
  5
1542
330
D
100
AcDbEntity
 67
     1
  8
AM_VIS
100
AcDbSpline
210
0.0
220
0.0
230
1.0
 70
    12
 71
     2
 72
     6
 73
     3
 74
     0
 42
0.0000000001
 43
0.0000000001
 40
0.0
 40
0.0
 40
0.0
 40
2.947987480591015
 40
2.947987480591015
 40
2.947987480591015
 10
125.9210213503976
 20
192.7657762091165
 30
0.0
 41
1.0
 10
125.2765479418503
 20
193.0371088667733
 30
0.0
 41
1.003477948659413
 10
124.4210213503976
 20
193.3365104200485
 30
0.0
 41
1.0
  0
SPLINE
  5
1543
330
D
100
AcDbEntity
 67
     1
  8
AM_VIS
100
AcDbSpline
210
0.0
220
0.0
230
1.0
 70
    12
 71
     2
 72
     6
 73
     3
 74
     0
 42
0.0000000001
 43
0.0000000001
 40
0.0
 40
0.0
 40
0.0
 40
2.947987480591025
 40
2.947987480591025
 40
2.947987480591025
 10
124.4210213503976
 20
195.7017027946484
 30
0.0
 41
1.0
 10
125.2765479418509
 20
196.9985533993859
 30
0.0
 41
1.003477948659475
 10
125.9210213503976
 20
198.1738242599284
 30
0.0
 41
1.0
  0
LINE
  5
1544
330
D
100
AcDbEntity
 67
     1
  8
AM_VIS
100
AcDbLine
 10
125.9210213503976
 20
198.1738242599284
 30
0.0
 11
135.4210213503976
 21
198.1738242599284
 31
0.0
  0
SPLINE
  5
1545
330
D
100
AcDbEntity
 67
     1
  8
AM_VIS
100
AcDbSpline
210
-0.0000000000017841
220
0.0000000000036232
230
-1.0
 70
    12
 71
     2
 72
     6
 73
     3
 74
     0
 42
0.0000000001
 43
0.0000000001
 40
0.0
 40
0.0
 40
0.0
 40
2.947987480591014
 40
2.947987480591014
 40
2.947987480591014
 10
124.4210213503976
 20
211.6797753507218
 30
0.0
 41
1.0
 10
125.27654794185
 20
212.0689113020199
 30
0.0000000000002274
 41
1.003477948659406
 10
125.9210213503976
 20
212.4215657578858
 30
0.0
 41
1.0
  0
LINE
  5
1546
330
D
100
AcDbEntity
 67
     1
  8
AM_VIS
100
AcDbLine
 10
125.9210213503976
 20
212.4215657578858
 30
0.0
 11
135.4210213503976
 21
212.4215657578858
 31
0.0
  0
SPLINE
  5
1547
330
D
100
AcDbEntity
 67
     1
  8
AM_VIS
100
AcDbSpline
210
0.0
220
0.0
230
1.0
 70
    12
 71
     2
 72
     6
 73
     3
 74
     0
 42
0.0000000001
 43
0.0000000001
 40
0.0
 40
0.0
 40
0.0
 40
3.135865750670185
 40
3.135865750670185
 40
3.135865750670185
 10
135.4210213503976
 20
206.7909617506706
 30
0.0
 41
1.0
 10
134.77654794185
 20
207.9444425010569
 30
0.0
 41
1.006238327749201
 10
133.9210213503974
 20
209.2172488463096
 30
0.0
 41
1.00550919078032
  0
SPLINE
  5
1548
330
D
100
AcDbEntity
 67
     1
  8
AM_VIS
100
AcDbSpline
210
0.0
220
0.0
230
1.0
 70
    12
 71
     2
 72
     6
 73
     3
 74
     0
 42
0.0000000001
 43
0.0000000001
 40
2.479536442728854
 40
2.479536442728854
 40
2.479536442728854
 40
5.615402193399027
 40
5.615402193399027
 40
5.615402193399027
 10
133.9210213503976
 20
211.679775350722
 30
0.0
 41
1.005509190780307
 10
134.7765479418506
 20
212.0689113020209
 30
0.0
 41
1.006238327749186
 10
135.4210213503976
 20
212.4215657578858
 30
0.0
 41
1.0
  0
SPLINE
  5
1549
330
D
100
AcDbEntity
 67
     1
  8
AM_VIS
100
AcDbSpline
210
-0.0000000000017841
220
-0.0000000000047091
230
1.0
 70
    12
 71
     2
 72
     6
 73
     3
 74
     0
 42
0.0000000001
 43
0.0000000001
 40
0.0
 40
0.0
 40
0.0
 40
3.135865750670191
 40
3.135865750670191
 40
3.135865750670191
 10
135.4210213503976
 20
192.7657762091165
 30
0.0
 41
1.0
 10
134.7765479418503
 20
193.0371088667747
 30
-0.0000000000002274
 41
1.006238327749221
 10
133.9210213503976
 20
193.3365104200485
 30
0.0
 41
1.005509190780337
  0
SPLINE
  5
154A
330
D
100
AcDbEntity
 67
     1
  8
AM_VIS
100
AcDbSpline
210
0.0000000000553074
220
-0.0000000000337024
230
1.0
 70
    12
 71
     2
 72
     6
 73
     3
 74
     0
 42
0.0000000001
 43
0.0000000001
 40
2.479536442728823
 40
2.479536442728823
 40
2.479536442728823
 40
5.615402193399026
 40
5.615402193399026
 40
5.615402193399026
 10
133.9210213503976
 20
195.7017027946486
 30
-0.0000000000002274
 41
1.005509190780324
 10
134.77654794185
 20
196.9985533993846
 30
0.0
 41
1.006238327749206
 10
135.4210213503976
 20
198.1738242599284
 30
0.0
 41
1.0
  0
SPLINE
  5
154B
330
D
100
AcDbEntity
 67
     1
  8
AM_VIS
100
AcDbSpline
210
0.0
220
0.0
230
1.0
 70
    12
 71
     2
 72
     6
 73
     3
 74
     0
 42
0.0000000001
 43
0.0000000001
 40
2.479536442728843
 40
2.479536442728843
 40
2.479536442728843
 40
5.615402193399027
 40
5.615402193399027
 40
5.615402193399027
 10
133.9210213503976
 20
186.9874782344083
 30
0.0
 41
1.005509190780295
 10
134.7765479418498
 20
187.8951928878449
 30
0.0
 41
1.006238327749173
 10
135.4210213503976
 20
188.7178092925238
 30
0.0
 41
1.0
  0
LINE
  5
154C
330
D
100
AcDbEntity
 67
     1
  8
AM_VIS
100
AcDbLine
 10
133.9210213503976
 20
211.6797753507218
 30
0.0
 11
124.4210213503976
 21
211.6797753507218
 31
0.0
  0
LINE
  5
154D
330
D
100
AcDbEntity
 67
     1
  8
AM_VIS
100
AcDbLine
 10
133.9210213503976
 20
209.2172488463096
 30
0.0
 11
124.4210213503976
 21
209.2172488463096
 31
0.0
  0
LINE
  5
154E
330
D
100
AcDbEntity
 67
     1
  8
AM_VIS
100
AcDbLine
 10
133.9210213503976
 20
195.7017027946484
 30
0.0
 11
124.4210213503976
 21
195.7017027946484
 31
0.0
  0
LINE
  5
154F
330
D
100
AcDbEntity
 67
     1
  8
AM_VIS
100
AcDbLine
 10
133.9210213503976
 20
193.3365104200485
 30
0.0
 11
124.4210213503976
 21
193.3365104200485
 31
0.0
  0
LINE
  5
1550
330
D
100
AcDbEntity
 67
     1
  8
AM_VIS
100
AcDbLine
 10
133.9210213503976
 20
186.987478234408
 30
0.0
 11
124.4210213503976
 21
186.987478234408
 31
0.0
  0
LINE
  5
1551
330
D
100
AcDbEntity
 67
     1
  8
AM_VIS
100
AcDbLine
 10
135.4210213503976
 20
217.4655507904812
 30
0.0
 11
133.9210213503976
 21
218.9655507904812
 31
0.0
  0
LINE
  5
1552
330
D
100
AcDbEntity
 67
     1
  8
AM_VIS
100
AcDbLine
 10
135.4210213503976
 20
188.4655507904812
 30
0.0
 11
133.9210213503976
 21
186.9655507904812
 31
0.0
  0
LINE
  5
1553
330
D
100
AcDbEntity
 67
     1
  8
AM_VIS
100
AcDbLine
 10
125.9210213503976
 20
198.1738242599284
 30
0.0
 11
125.9210213503976
 21
206.7909617506706
 31
0.0
  0
LINE
  5
1554
330
D
100
AcDbEntity
 67
     1
  8
AM_VIS
100
AcDbLine
 10
125.9210213503976
 20
212.4215657578858
 30
0.0
 11
125.9210213503976
 21
216.990736332035
 31
0.0
  0
LINE
  5
1555
330
D
100
AcDbEntity
 67
     1
  8
AM_VIS
100
AcDbLine
 10
125.9210213503976
 20
188.7178092925238
 30
0.0
 11
125.9210213503976
 21
192.7657762091165
 31
0.0
  0
LINE
  5
1556
330
D
100
AcDbEntity
 67
     1
  8
AM_VIS
100
AcDbLine
 10
135.4210213503976
 20
192.7657762091165
 30
0.0
 11
135.4210213503976
 21
188.7178092925238
 31
0.0
  0
LINE
  5
1557
330
D
100
AcDbEntity
 67
     1
  8
AM_VIS
100
AcDbLine
 10
135.4210213503976
 20
206.7909617506706
 30
0.0
 11
135.4210213503976
 21
198.1738242599284
 31
0.0
  0
LINE
  5
1558
330
D
100
AcDbEntity
 67
     1
  8
AM_VIS
100
AcDbLine
 10
135.4210213503976
 20
216.990736332035
 30
0.0
 11
135.4210213503976
 21
212.4215657578858
 31
0.0
  0
LINE
  5
1559
330
D
100
AcDbEntity
 67
     1
  8
AM_VIS
100
AcDbLine
 10
135.4210213503976
 20
216.990736332035
 30
0.0
 11
135.4210213503976
 21
217.4655507904812
 31
0.0
  0
LINE
  5
155A
330
D
100
AcDbEntity
 67
     1
  8
AM_VIS
100
AcDbLine
 10
135.4210213503976
 20
206.7909617506706
 30
0.0
 11
135.4210213503976
 21
212.4215657578858
 31
0.0
  0
LINE
  5
155B
330
D
100
AcDbEntity
 67
     1
  8
AM_VIS
100
AcDbLine
 10
135.4210213503976
 20
192.7657762091165
 30
0.0
 11
135.4210213503976
 21
198.1738242599284
 31
0.0
  0
LINE
  5
155C
330
D
100
AcDbEntity
 67
     1
  8
AM_VIS
100
AcDbLine
 10
135.4210213503976
 20
188.4655507904812
 30
0.0
 11
135.4210213503976
 21
188.7178092925238
 31
0.0
  0
LINE
  5
155D
330
D
100
AcDbEntity
 67
     1
  8
AM_VIS
100
AcDbLine
 10
124.4210213503976
 20
211.6797753507216
 30
0.0
 11
124.4210213503977
 21
218.9655507904812
 31
0.0
  0
LINE
  5
155E
330
D
100
AcDbEntity
 67
     1
  8
AM_VIS
100
AcDbLine
 10
133.9210213503976
 20
211.6797753507216
 30
0.0
 11
133.9210213503976
 21
209.2172488463096
 31
0.0
  0
LINE
  5
155F
330
D
100
AcDbEntity
 67
     1
  8
AM_VIS
100
AcDbLine
 10
124.4210213503976
 20
195.7017027946484
 30
0.0
 11
124.4210213503976
 21
209.2172488463096
 31
0.0
  0
LINE
  5
1560
330
D
100
AcDbEntity
 67
     1
  8
AM_VIS
100
AcDbLine
 10
133.9210213503976
 20
195.7017027946484
 30
0.0
 11
133.9210213503976
 21
193.3365104200485
 31
0.0
  0
LINE
  5
1561
330
D
100
AcDbEntity
 67
     1
  8
AM_VIS
100
AcDbLine
 10
124.4210213503976
 20
186.987478234408
 30
0.0
 11
124.4210213503976
 21
193.3365104200485
 31
0.0
  0
LINE
  5
1562
330
D
100
AcDbEntity
 67
     1
  8
AM_VIS
100
AcDbLine
 10
133.9210213503976
 20
186.987478234408
 30
0.0
 11
133.9210213503976
 21
186.9655507904812
 31
0.0
  0
LINE
  5
1563
330
D
100
AcDbEntity
 67
     1
  8
AM_VIS
100
AcDbLine
 10
135.4210213503976
 20
192.9655507904809
 30
0.0
 11
136.9710213503975
 21
192.9655507904809
 31
0.0
  0
LINE
  5
1564
330
D
100
AcDbEntity
 67
     1
  8
AM_VIS
100
AcDbLine
 10
135.4210213503976
 20
212.965550790481
 30
0.0
 11
136.9710213503975
 21
212.965550790481
 31
0.0
  0
LINE
  5
1565
330
D
100
AcDbEntity
 67
     1
  8
AM_VIS
100
AcDbLine
 10
137.2210213503975
 20
212.7155507904809
 30
0.0
 11
136.9710213503975
 21
212.965550790481
 31
0.0
  0
LINE
  5
1566
330
D
100
AcDbEntity
 67
     1
  8
AM_VIS
100
AcDbLine
 10
137.2210213503975
 20
193.2155507904809
 30
0.0
 11
136.9710213503975
 21
192.9655507904809
 31
0.0
  0
LINE
  5
1567
330
D
100
AcDbEntity
 67
     1
  8
AM_VIS
100
AcDbLine
 10
137.2210213503975
 20
193.2155507904809
 30
0.0
 11
143.7210213503975
 21
193.2155507904809
 31
0.0
  0
LINE
  5
1568
330
D
100
AcDbEntity
 67
     1
  8
AM_VIS
100
AcDbLine
 10
137.2210213503975
 20
212.7155507904809
 30
0.0
 11
143.7210213503975
 21
212.7155507904809
 31
0.0
  0
LINE
  5
1569
330
D
100
AcDbEntity
 67
     1
  8
AM_VIS
100
AcDbLine
 10
144.7210213503975
 20
211.715550790481
 30
0.0
 11
143.7210213503975
 21
212.7155507904809
 31
0.0
  0
LINE
  5
156A
330
D
100
AcDbEntity
 67
     1
  8
AM_VIS
100
AcDbLine
 10
144.7210213503975
 20
194.2155507904809
 30
0.0
 11
143.7210213503975
 21
193.2155507904809
 31
0.0
  0
LINE
  5
156B
330
D
100
AcDbEntity
 67
     1
  8
AM_VIS
100
AcDbLine
 10
137.2210213503975
 20
193.2155507904809
 30
0.0
 11
137.2210213503975
 21
212.7155507904809
 31
0.0
  0
LINE
  5
156C
330
D
100
AcDbEntity
 67
     1
  8
AM_VIS
100
AcDbLine
 10
144.7210213503975
 20
211.715550790481
 30
0.0
 11
144.7210213503975
 21
194.2155507904809
 31
0.0
  0
LINE
  5
156D
330
D
100
AcDbEntity
 67
     1
  8
AM_VIS
100
AcDbLine
 10
143.7210213503975
 20
193.2155507904809
 30
0.0
 11
143.7210213503975
 21
212.7155507904809
 31
0.0
  0
LINE
  5
156E
330
D
100
AcDbEntity
 67
     1
  8
AM_VIS
100
AcDbLine
 10
135.4210213503976
 20
254.700629623877
 30
0.0
 11
125.9210213503976
 21
254.700629623877
 31
0.0
  0
SPLINE
  5
156F
330
D
100
AcDbEntity
 67
     1
  8
AM_VIS
100
AcDbSpline
210
0.0
220
0.0
230
1.0
 70
    12
 71
     2
 72
     6
 73
     3
 74
     0
 42
0.0000000001
 43
0.0000000001
 40
0.0
 40
0.0
 40
0.0
 40
2.947987480591022
 40
2.947987480591022
 40
2.947987480591022
 10
125.9210213503976
 20
254.700629623877
 30
0.0
 41
1.0
 10
125.2765479418505
 20
255.5232460285527
 30
0.0
 41
1.003477948659664
 10
124.4210213503976
 20
256.4309606819928
 30
0.0
 41
1.0
  0
SPLINE
  5
1570
330
D
100
AcDbEntity
 67
     1
  8
AM_VIS
100
AcDbSpline
210
0.0
220
0.0
230
1.0
 70
    12
 71
     2
 72
     6
 73
     3
 74
     0
 42
0.0000000001
 43
0.0000000001
 40
0.0
 40
0.0
 40
0.0
 40
2.947987480591014
 40
2.947987480591014
 40
2.947987480591014
 10
124.4210213503976
 20
244.9621410893481
 30
0.0
 41
1.0
 10
125.27654794185
 20
246.2349474346016
 30
0.0
 41
1.003477948659406
 10
125.9210213503976
 20
247.3884281849874
 30
0.0
 41
1.0
  0
LINE
  5
1571
330
D
100
AcDbEntity
 67
     1
  8
AM_VIS
100
AcDbLine
 10
125.9210213503976
 20
247.3884281849874
 30
0.0
 11
135.4210213503976
 21
247.3884281849874
 31
0.0
  0
LINE
  5
1572
330
D
100
AcDbEntity
 67
     1
  8
AM_VIS
100
AcDbLine
 10
135.4210213503976
 20
268.6869168719519
 30
0.0
 11
125.9210213503976
 21
268.6869168719519
 31
0.0
  0
SPLINE
  5
1573
330
D
100
AcDbEntity
 67
     1
  8
AM_VIS
100
AcDbSpline
210
0.0
220
0.0
230
1.0
 70
    12
 71
     2
 72
     6
 73
     3
 74
     0
 42
0.0000000001
 43
0.0000000001
 40
0.0
 40
0.0
 40
0.0
 40
2.947987480591025
 40
2.947987480591025
 40
2.947987480591025
 10
125.9210213503976
 20
268.6869168719519
 30
0.0
 41
1.0
 10
125.2765479418505
 20
269.8621877324948
 30
0.0
 41
1.00347794865943
 10
124.4210213503976
 20
271.1590383372317
 30
0.0
 41
1.0
  0
SPLINE
  5
1574
330
D
100
AcDbEntity
 67
     1
  8
AM_VIS
100
AcDbSpline
210
0.0
220
0.0
230
1.0
 70
    12
 71
     2
 72
     6
 73
     3
 74
     0
 42
0.0000000001
 43
0.0000000001
 40
0.0
 40
0.0
 40
0.0
 40
2.947987480591021
 40
2.947987480591021
 40
2.947987480591021
 10
124.4210213503976
 20
259.2182454763621
 30
0.0
 41
1.0
 10
125.2765479418505
 20
260.1916502683397
 30
0.0
 41
1.003477948659514
 10
125.9210213503976
 20
261.0737983610694
 30
0.0
 41
1.0
  0
LINE
  5
1575
330
D
100
AcDbEntity
 67
     1
  8
AM_VIS
100
AcDbLine
 10
125.9210213503976
 20
261.0737983610694
 30
0.0
 11
135.4210213503976
 21
261.0737983610694
 31
0.0
  0
SPLINE
  5
1576
330
D
100
AcDbEntity
 67
     1
  8
AM_VIS
100
AcDbSpline
210
0.0
220
0.0
230
1.0
 70
    12
 71
     2
 72
     6
 73
     3
 74
     0
 42
0.0000000001
 43
0.0000000001
 40
0.0
 40
0.0
 40
0.0
 40
3.135865750670209
 40
3.135865750670209
 40
3.135865750670209
 10
135.4210213503976
 20
254.700629623877
 30
0.0
 41
1.0
 10
134.7765479418501
 20
255.5232460285576
 30
0.0
 41
1.006238327749231
 10
133.9210213503976
 20
256.4309606819933
 30
0.0
 41
1.005509190780346
  0
SPLINE
  5
1577
330
D
100
AcDbEntity
 67
     1
  8
AM_VIS
100
AcDbSpline
210
0.0
220
0.0
230
1.0
 70
    12
 71
     2
 72
     6
 73
     3
 74
     0
 42
0.0000000001
 43
0.0000000001
 40
2.479536442728824
 40
2.479536442728824
 40
2.479536442728824
 40
5.615402193399021
 40
5.615402193399021
 40
5.615402193399021
 10
133.9210213503975
 20
259.218245476362
 30
0.0
 41
1.005509190780343
 10
134.7765479418499
 20
260.1916502683383
 30
0.0
 41
1.006238327749227
 10
135.4210213503976
 20
261.0737983610694
 30
0.0
 41
1.0
  0
SPLINE
  5
1578
330
D
100
AcDbEntity
 67
     1
  8
AM_VIS
100
AcDbSpline
210
0.0
220
0.0
230
1.0
 70
    12
 71
     2
 72
     6
 73
     3
 74
     0
 42
0.0000000001
 43
0.0000000001
 40
0.0
 40
0.0
 40
0.0
 40
3.135865750670185
 40
3.135865750670185
 40
3.135865750670185
 10
135.4210213503976
 20
244.3945829284002
 30
0.0
 41
1.0
 10
134.77654794185
 20
244.0419284725348
 30
0.0
 41
1.006238327749201
 10
133.9210213503974
 20
243.6527925212348
 30
0.0
 41
1.00550919078032
  0
SPLINE
  5
1579
330
D
100
AcDbEntity
 67
     1
  8
AM_VIS
100
AcDbSpline
210
-0.000000000000223
220
0.0000000000001385
230
1.0
 70
    12
 71
     2
 72
     6
 73
     3
 74
     0
 42
0.0000000001
 43
0.0000000001
 40
2.479536442728854
 40
2.479536442728854
 40
2.479536442728854
 40
5.615402193399027
 40
5.615402193399027
 40
5.615402193399027
 10
133.9210213503976
 20
244.9621410893484
 30
0.0
 41
1.005509190780307
 10
134.7765479418506
 20
246.2349474346009
 30
-0.0000000000000284
 41
1.006238327749186
 10
135.4210213503976
 20
247.3884281849874
 30
0.0
 41
1.0
  0
SPLINE
  5
157A
330
D
100
AcDbEntity
 67
     1
  8
AM_VIS
100
AcDbSpline
210
0.0
220
0.0
230
1.0
 70
    12
 71
     2
 72
     6
 73
     3
 74
     0
 42
0.0000000001
 43
0.0000000001
 40
2.479536442728827
 40
2.479536442728827
 40
2.479536442728827
 40
5.615402193399024
 40
5.615402193399024
 40
5.615402193399024
 10
133.9210213503976
 20
272.6369745634889
 30
0.0
 41
1.005509190780321
 10
134.7765479418499
 20
272.3375730102112
 30
0.0
 41
1.006238327749203
 10
135.4210213503976
 20
272.066240352557
 30
0.0
 41
1.0
  0
SPLINE
  5
157B
330
D
100
AcDbEntity
 67
     1
  8
AM_VIS
100
AcDbSpline
210
0.0000000000069134
220
0.0000000000042128
230
1.0
 70
    12
 71
     2
 72
     6
 73
     3
 74
     0
 42
0.0000000001
 43
0.0000000001
 40
0.0
 40
0.0
 40
0.0
 40
3.13586575067021
 40
3.13586575067021
 40
3.13586575067021
 10
135.4210213503976
 20
268.6869168719519
 30
0.0
 41
1.0
 10
134.77654794185
 20
269.8621877324955
 30
0.0
 41
1.006238327749217
 10
133.9210213503986
 20
271.1590383372317
 30
-0.0000000000000284
 41
1.005509190780334
  0
LINE
  5
157C
330
D
100
AcDbEntity
 67
     1
  8
AM_VIS
100
AcDbLine
 10
133.9210213503976
 20
256.4309606819928
 30
0.0
 11
124.4210213503976
 21
256.4309606819928
 31
0.0
  0
LINE
  5
157D
330
D
100
AcDbEntity
 67
     1
  8
AM_VIS
100
AcDbLine
 10
133.9210213503976
 20
244.9621410893481
 30
0.0
 11
124.4210213503976
 21
244.9621410893481
 31
0.0
  0
LINE
  5
157E
330
D
100
AcDbEntity
 67
     1
  8
AM_VIS
100
AcDbLine
 10
133.9210213503976
 20
243.6527925212359
 30
0.0
 11
124.4210213503976
 21
243.6527925212359
 31
0.0
  0
LINE
  5
157F
330
D
100
AcDbEntity
 67
     1
  8
AM_VIS
100
AcDbLine
 10
133.9210213503976
 20
272.6369745634889
 30
0.0
 11
124.4210213503976
 21
272.6369745634889
 31
0.0
  0
LINE
  5
1580
330
D
100
AcDbEntity
 67
     1
  8
AM_VIS
100
AcDbLine
 10
133.9210213503976
 20
271.1590383372317
 30
0.0
 11
124.4210213503976
 21
271.1590383372317
 31
0.0
  0
LINE
  5
1581
330
D
100
AcDbEntity
 67
     1
  8
AM_VIS
100
AcDbLine
 10
133.9210213503976
 20
259.2182454763621
 30
0.0
 11
124.4210213503976
 21
259.2182454763621
 31
0.0
  0
LINE
  5
1582
330
D
100
AcDbEntity
 67
     1
  8
AM_VIS
100
AcDbLine
 10
134.4109401568023
 20
243.8808701764752
 30
0.0
 11
135.4210213503976
 21
243.8808701764752
 31
0.0
  0
LINE
  5
1583
330
D
100
AcDbEntity
 67
     1
  8
AM_VIS
100
AcDbLine
 10
125.6929436951585
 20
243.6527925212362
 30
0.0
 11
124.4210213503976
 21
242.3808701764752
 31
0.0
  0
LINE
  5
1584
330
D
100
AcDbEntity
 67
     1
  8
AM_VIS
100
AcDbLine
 10
125.9210213503976
 20
272.880870176475
 30
0.0
 11
124.4210213503976
 21
274.380870176475
 31
0.0
  0
LINE
  5
1585
330
D
100
AcDbEntity
 67
     1
  8
AM_VIS
100
AcDbLine
 10
125.9210213503976
 20
272.880870176475
 30
0.0
 11
135.4210213503976
 21
272.880870176475
 31
0.0
  0
LINE
  5
1586
330
D
100
AcDbEntity
 67
     1
  8
AM_VIS
100
AcDbLine
 10
125.9210213503976
 20
247.3884281849874
 30
0.0
 11
125.9210213503976
 21
254.700629623877
 31
0.0
  0
LINE
  5
1587
330
D
100
AcDbEntity
 67
     1
  8
AM_VIS
100
AcDbLine
 10
125.9210213503976
 20
261.0737983610694
 30
0.0
 11
125.9210213503976
 21
268.6869168719519
 31
0.0
  0
LINE
  5
1588
330
D
100
AcDbEntity
 67
     1
  8
AM_VIS
100
AcDbLine
 10
135.4210213503976
 20
268.6869168719519
 30
0.0
 11
135.4210213503976
 21
261.0737983610694
 31
0.0
  0
LINE
  5
1589
330
D
100
AcDbEntity
 67
     1
  8
AM_VIS
100
AcDbLine
 10
135.4210213503976
 20
272.880870176475
 30
0.0
 11
135.4210213503976
 21
272.066240352557
 31
0.0
  0
LINE
  5
158A
330
D
100
AcDbEntity
 67
     1
  8
AM_VIS
100
AcDbLine
 10
135.4210213503976
 20
244.3945829284002
 30
0.0
 11
135.4210213503976
 21
243.880870176475
 31
0.0
  0
LINE
  5
158B
330
D
100
AcDbEntity
 67
     1
  8
AM_VIS
100
AcDbLine
 10
135.4210213503976
 20
254.700629623877
 30
0.0
 11
135.4210213503976
 21
247.3884281849874
 31
0.0
  0
LINE
  5
158C
330
D
100
AcDbEntity
 67
     1
  8
AM_VIS
100
AcDbLine
 10
135.4210213503976
 20
254.700629623877
 30
0.0
 11
135.4210213503976
 21
261.0737983610694
 31
0.0
  0
LINE
  5
158D
330
D
100
AcDbEntity
 67
     1
  8
AM_VIS
100
AcDbLine
 10
135.4210213503976
 20
244.3945829284002
 30
0.0
 11
135.4210213503976
 21
247.3884281849874
 31
0.0
  0
LINE
  5
158E
330
D
100
AcDbEntity
 67
     1
  8
AM_VIS
100
AcDbLine
 10
135.4210213503976
 20
268.6869168719519
 30
0.0
 11
135.4210213503976
 21
272.066240352557
 31
0.0
  0
LINE
  5
158F
330
D
100
AcDbEntity
 67
     1
  8
AM_VIS
100
AcDbLine
 10
124.4210213503976
 20
244.9621410893481
 30
0.0
 11
124.4210213503976
 21
256.4309606819928
 31
0.0
  0
LINE
  5
1590
330
D
100
AcDbEntity
 67
     1
  8
AM_VIS
100
AcDbLine
 10
133.9210213503976
 20
244.9621410893481
 30
0.0
 11
133.9210213503976
 21
243.6527925212359
 31
0.0
  0
LINE
  5
1591
330
D
100
AcDbEntity
 67
     1
  8
AM_VIS
100
AcDbLine
 10
124.4210213503976
 20
242.380870176475
 30
0.0
 11
124.4210213503976
 21
243.6527925212359
 31
0.0
  0
LINE
  5
1592
330
D
100
AcDbEntity
 67
     1
  8
AM_VIS
100
AcDbLine
 10
124.4210213503976
 20
272.6369745634889
 30
0.0
 11
124.4210213503976
 21
274.380870176475
 31
0.0
  0
LINE
  5
1593
330
D
100
AcDbEntity
 67
     1
  8
AM_VIS
100
AcDbLine
 10
133.9210213503976
 20
272.6369745634889
 30
0.0
 11
133.9210213503976
 21
271.1590383372317
 31
0.0
  0
LINE
  5
1594
330
D
100
AcDbEntity
 67
     1
  8
AM_VIS
100
AcDbLine
 10
124.4210213503976
 20
259.2182454763623
 30
0.0
 11
124.4210213503976
 21
271.1590383372317
 31
0.0
  0
LINE
  5
1595
330
D
100
AcDbEntity
 67
     1
  8
AM_VIS
100
AcDbLine
 10
133.9210213503976
 20
259.2182454763623
 30
0.0
 11
133.9210213503976
 21
256.4309606819928
 31
0.0
  0
LINE
  5
1596
330
D
100
AcDbEntity
 67
     1
  8
AM_VIS
100
AcDbLine
 10
135.4210213503976
 20
248.380870176475
 30
0.0
 11
136.9710213503975
 21
248.380870176475
 31
0.0
  0
LINE
  5
1597
330
D
100
AcDbEntity
 67
     1
  8
AM_VIS
100
AcDbLine
 10
135.4210213503976
 20
268.380870176475
 30
0.0
 11
136.9710213503975
 21
268.380870176475
 31
0.0
  0
LINE
  5
1598
330
D
100
AcDbEntity
 67
     1
  8
AM_VIS
100
AcDbLine
 10
137.2210213503975
 20
268.130870176475
 30
0.0
 11
136.9710213503975
 21
268.380870176475
 31
0.0
  0
LINE
  5
1599
330
D
100
AcDbEntity
 67
     1
  8
AM_VIS
100
AcDbLine
 10
137.2210213503975
 20
248.630870176475
 30
0.0
 11
136.9710213503975
 21
248.380870176475
 31
0.0
  0
LINE
  5
159A
330
D
100
AcDbEntity
 67
     1
  8
AM_VIS
100
AcDbLine
 10
137.2210213503975
 20
248.630870176475
 30
0.0
 11
143.7210213503975
 21
248.630870176475
 31
0.0
  0
LINE
  5
159B
330
D
100
AcDbEntity
 67
     1
  8
AM_VIS
100
AcDbLine
 10
137.2210213503975
 20
268.130870176475
 30
0.0
 11
143.7210213503975
 21
268.130870176475
 31
0.0
  0
LINE
  5
159C
330
D
100
AcDbEntity
 67
     1
  8
AM_VIS
100
AcDbLine
 10
144.7210213503975
 20
267.130870176475
 30
0.0
 11
143.7210213503975
 21
268.130870176475
 31
0.0
  0
LINE
  5
159D
330
D
100
AcDbEntity
 67
     1
  8
AM_VIS
100
AcDbLine
 10
144.7210213503975
 20
249.630870176475
 30
0.0
 11
143.7210213503975
 21
248.630870176475
 31
0.0
  0
LINE
  5
159E
330
D
100
AcDbEntity
 67
     1
  8
AM_VIS
100
AcDbLine
 10
137.2210213503975
 20
248.630870176475
 30
0.0
 11
137.2210213503975
 21
268.130870176475
 31
0.0
  0
LINE
  5
159F
330
D
100
AcDbEntity
 67
     1
  8
AM_VIS
100
AcDbLine
 10
144.7210213503975
 20
267.130870176475
 30
0.0
 11
144.7210213503975
 21
249.630870176475
 31
0.0
  0
LINE
  5
15A0
330
D
100
AcDbEntity
 67
     1
  8
AM_VIS
100
AcDbLine
 10
143.7210213503975
 20
248.630870176475
 30
0.0
 11
143.7210213503975
 21
268.130870176475
 31
0.0
  0
LINE
  5
15A1
330
D
100
AcDbEntity
 67
     1
  8
AM_VIS
100
AcDbLine
 10
114.7210213503975
 20
262.380870176475
 30
0.0
 11
112.7210213503975
 21
262.380870176475
 31
0.0
  0
LINE
  5
15A2
330
D
100
AcDbEntity
 67
     1
  8
AM_VIS
100
AcDbLine
 10
109.9166722573296
 20
262.380870176475
 30
0.0
 11
110.4310436719373
 21
262.380870176475
 31
0.0
  0
LINE
  5
15A3
330
D
100
AcDbEntity
 67
     1
  8
AM_VIS
100
AcDbLine
 10
109.7116270744977
 20
262.380870176475
 30
0.0
 11
109.9166722573296
 21
262.380870176475
 31
0.0
  0
LINE
  5
15A4
330
D
100
AcDbEntity
 67
     1
  8
AM_VIS
100
AcDbLine
 10
109.3564783999855
 20
262.380870176475
 30
0.0
 11
109.7116270744977
 21
262.380870176475
 31
0.0
  0
LINE
  5
15A5
330
D
100
AcDbEntity
 67
     1
  8
AM_VIS
100
AcDbLine
 10
108.7210213503975
 20
262.380870176475
 30
0.0
 11
109.3564783999855
 21
262.380870176475
 31
0.0
  0
LINE
  5
15A6
330
D
100
AcDbEntity
 67
     1
  8
AM_VIS
100
AcDbLine
 10
111.0109990288578
 20
262.380870176475
 30
0.0
 11
111.5167935462228
 21
262.380870176475
 31
0.0
  0
LINE
  5
15A7
330
D
100
AcDbEntity
 67
     1
  8
AM_VIS
100
AcDbLine
 10
111.5167935462228
 20
262.380870176475
 30
0.0
 11
111.7214136507601
 21
262.380870176475
 31
0.0
  0
LINE
  5
15A8
330
D
100
AcDbEntity
 67
     1
  8
AM_VIS
100
AcDbLine
 10
110.7210213503975
 20
262.380870176475
 30
0.0
 11
111.0109990288578
 21
262.380870176475
 31
0.0
  0
LINE
  5
15A9
330
D
100
AcDbEntity
 67
     1
  8
AM_VIS
100
AcDbLine
 10
111.7214136507601
 20
262.380870176475
 30
0.0
 11
112.0773032198844
 21
262.380870176475
 31
0.0
  0
LINE
  5
15AA
330
D
100
AcDbEntity
 67
     1
  8
AM_VIS
100
AcDbLine
 10
110.4310436719373
 20
262.380870176475
 30
0.0
 11
110.7210213503975
 21
262.380870176475
 31
0.0
  0
LINE
  5
15AB
330
D
100
AcDbEntity
 67
     1
  8
AM_VIS
100
AcDbLine
 10
112.0773032198844
 20
262.380870176475
 30
0.0
 11
112.7210213503975
 21
262.380870176475
 31
0.0
  0
LINE
  5
15AC
330
D
100
AcDbEntity
 67
     1
  8
AM_VIS
100
AcDbLine
 10
112.0773032198844
 20
257.7808701764751
 30
0.0
 11
112.7210213503975
 21
257.7808701764751
 31
0.0
  0
LINE
  5
15AD
330
D
100
AcDbEntity
 67
     1
  8
AM_VIS
100
AcDbLine
 10
112.0773032198844
 20
257.7808701764751
 30
0.0
 11
111.7214136507601
 21
257.7808701764751
 31
0.0
  0
LINE
  5
15AE
330
D
100
AcDbEntity
 67
     1
  8
AM_VIS
100
AcDbLine
 10
111.5167935462228
 20
257.7808701764751
 30
0.0
 11
111.7214136507601
 21
257.7808701764751
 31
0.0
  0
LINE
  5
15AF
330
D
100
AcDbEntity
 67
     1
  8
AM_VIS
100
AcDbLine
 10
111.0109990288578
 20
257.7808701764751
 30
0.0
 11
111.5167935462228
 21
257.7808701764751
 31
0.0
  0
LINE
  5
15B0
330
D
100
AcDbEntity
 67
     1
  8
AM_VIS
100
AcDbLine
 10
110.7210213503975
 20
257.7808701764751
 30
0.0
 11
111.0109990288578
 21
257.7808701764751
 31
0.0
  0
LINE
  5
15B1
330
D
100
AcDbEntity
 67
     1
  8
AM_VIS
100
AcDbLine
 10
110.4310436719373
 20
257.7808701764749
 30
0.0
 11
110.7210213503975
 21
257.7808701764749
 31
0.0
  0
LINE
  5
15B2
330
D
100
AcDbEntity
 67
     1
  8
AM_VIS
100
AcDbLine
 10
109.9166722573296
 20
257.7808701764751
 30
0.0
 11
110.4310436719373
 21
257.7808701764751
 31
0.0
  0
LINE
  5
15B3
330
D
100
AcDbEntity
 67
     1
  8
AM_VIS
100
AcDbLine
 10
109.7116270744977
 20
257.7808701764751
 30
0.0
 11
109.9166722573296
 21
257.7808701764751
 31
0.0
  0
LINE
  5
15B4
330
D
100
AcDbEntity
 67
     1
  8
AM_VIS
100
AcDbLine
 10
109.7116270744977
 20
257.7808701764751
 30
0.0
 11
109.3564783999855
 21
257.7808701764751
 31
0.0
  0
LINE
  5
15B5
330
D
100
AcDbEntity
 67
     1
  8
AM_VIS
100
AcDbLine
 10
108.7210213503975
 20
257.7808701764751
 30
0.0
 11
109.3564783999855
 21
257.7808701764751
 31
0.0
  0
LINE
  5
15B6
330
D
100
AcDbEntity
 67
     1
  8
AM_VIS
100
AcDbLine
 10
109.3564783999855
 20
258.9808701764749
 30
0.0
 11
109.7116270744977
 21
258.9808701764749
 31
0.0
  0
LINE
  5
15B7
330
D
100
AcDbEntity
 67
     1
  8
AM_VIS
100
AcDbLine
 10
109.7116270744977
 20
258.9808701764749
 30
0.0
 11
109.9166722573296
 21
258.9808701764749
 31
0.0
  0
LINE
  5
15B8
330
D
100
AcDbEntity
 67
     1
  8
AM_VIS
100
AcDbLine
 10
109.9166722573296
 20
258.9808701764749
 30
0.0
 11
110.4310436719373
 21
258.9808701764749
 31
0.0
  0
LINE
  5
15B9
330
D
100
AcDbEntity
 67
     1
  8
AM_VIS
100
AcDbLine
 10
110.4310436719373
 20
258.9808701764749
 30
0.0
 11
110.7210213503975
 21
258.9808701764749
 31
0.0
  0
LINE
  5
15BA
330
D
100
AcDbEntity
 67
     1
  8
AM_VIS
100
AcDbLine
 10
110.7210213503975
 20
258.9808701764749
 30
0.0
 11
111.0109990288578
 21
258.9808701764749
 31
0.0
  0
LINE
  5
15BB
330
D
100
AcDbEntity
 67
     1
  8
AM_VIS
100
AcDbLine
 10
111.0109990288578
 20
258.9808701764749
 30
0.0
 11
111.5167935462228
 21
258.9808701764749
 31
0.0
  0
LINE
  5
15BC
330
D
100
AcDbEntity
 67
     1
  8
AM_VIS
100
AcDbLine
 10
111.5167935462228
 20
258.9808701764749
 30
0.0
 11
111.7214136507601
 21
258.9808701764749
 31
0.0
  0
LINE
  5
15BD
330
D
100
AcDbEntity
 67
     1
  8
AM_VIS
100
AcDbLine
 10
111.7214136507601
 20
258.9808701764749
 30
0.0
 11
112.0773032198844
 21
258.9808701764749
 31
0.0
  0
LINE
  5
15BE
330
D
100
AcDbEntity
 67
     1
  8
AM_VIS
100
AcDbLine
 10
112.0773032198844
 20
258.9808701764749
 30
0.0
 11
112.7210213503975
 21
258.9808701764749
 31
0.0
  0
LINE
  5
15BF
330
D
100
AcDbEntity
 67
     1
  8
AM_VIS
100
AcDbLine
 10
108.7210213503975
 20
258.9808701764749
 30
0.0
 11
109.3564783999855
 21
258.9808701764749
 31
0.0
  0
LINE
  5
15C0
330
D
100
AcDbEntity
 67
     1
  8
AM_VIS
100
AcDbLine
 10
108.7210213503975
 20
254.380870176475
 30
0.0
 11
109.3564783999855
 21
254.380870176475
 31
0.0
  0
LINE
  5
15C1
330
D
100
AcDbEntity
 67
     1
  8
AM_VIS
100
AcDbLine
 10
109.3564783999855
 20
254.3808701764748
 30
0.0
 11
109.7116270744977
 21
254.3808701764748
 31
0.0
  0
LINE
  5
15C2
330
D
100
AcDbEntity
 67
     1
  8
AM_VIS
100
AcDbLine
 10
109.7116270744977
 20
254.380870176475
 30
0.0
 11
109.9166722573296
 21
254.380870176475
 31
0.0
  0
LINE
  5
15C3
330
D
100
AcDbEntity
 67
     1
  8
AM_VIS
100
AcDbLine
 10
109.9166722573296
 20
254.380870176475
 30
0.0
 11
110.4310436719373
 21
254.380870176475
 31
0.0
  0
LINE
  5
15C4
330
D
100
AcDbEntity
 67
     1
  8
AM_VIS
100
AcDbLine
 10
110.4310436719373
 20
254.380870176475
 30
0.0
 11
110.7210213503975
 21
254.380870176475
 31
0.0
  0
LINE
  5
15C5
330
D
100
AcDbEntity
 67
     1
  8
AM_VIS
100
AcDbLine
 10
110.7210213503975
 20
254.3808701764752
 30
0.0
 11
111.0109990288578
 21
254.3808701764752
 31
0.0
  0
LINE
  5
15C6
330
D
100
AcDbEntity
 67
     1
  8
AM_VIS
100
AcDbLine
 10
111.0109990288578
 20
254.380870176475
 30
0.0
 11
111.5167935462228
 21
254.380870176475
 31
0.0
  0
LINE
  5
15C7
330
D
100
AcDbEntity
 67
     1
  8
AM_VIS
100
AcDbLine
 10
111.5167935462228
 20
254.380870176475
 30
0.0
 11
111.7214136507601
 21
254.380870176475
 31
0.0
  0
LINE
  5
15C8
330
D
100
AcDbEntity
 67
     1
  8
AM_VIS
100
AcDbLine
 10
111.7214136507601
 20
254.380870176475
 30
0.0
 11
112.0773032198844
 21
254.380870176475
 31
0.0
  0
LINE
  5
15C9
330
D
100
AcDbEntity
 67
     1
  8
AM_VIS
100
AcDbLine
 10
112.0773032198844
 20
254.380870176475
 30
0.0
 11
112.7210213503975
 21
254.380870176475
 31
0.0
  0
LINE
  5
15CA
330
D
100
AcDbEntity
 67
     1
  8
AM_VIS
100
AcDbLine
 10
112.7210213503975
 20
254.380870176475
 30
0.0
 11
114.7210213503975
 21
254.380870176475
 31
0.0
  0
LINE
  5
15CB
330
D
100
AcDbEntity
 67
     1
  8
AM_VIS
100
AcDbLine
 10
115.1210213503975
 20
258.9808701764749
 30
0.0
 11
112.7210213503975
 21
258.9808701764749
 31
0.0
  0
LINE
  5
15CC
330
D
100
AcDbEntity
 67
     1
  8
AM_VIS
100
AcDbLine
 10
115.1210213503975
 20
257.7808701764751
 30
0.0
 11
112.7210213503975
 21
257.7808701764751
 31
0.0
  0
LINE
  5
15CD
330
D
100
AcDbEntity
 67
     1
  8
AM_VIS
100
AcDbLine
 10
108.7210213503975
 20
262.380870176475
 30
0.0
 11
108.7210213503975
 21
258.9808701764749
 31
0.0
  0
LINE
  5
15CE
330
D
100
AcDbEntity
 67
     1
  8
AM_VIS
100
AcDbLine
 10
109.3564783999855
 20
262.380870176475
 30
0.0
 11
109.3564783999855
 21
258.9808701764749
 31
0.0
  0
LINE
  5
15CF
330
D
100
AcDbEntity
 67
     1
  8
AM_VIS
100
AcDbLine
 10
109.9166722573296
 20
258.9808701764749
 30
0.0
 11
109.9166722573296
 21
262.380870176475
 31
0.0
  0
LINE
  5
15D0
330
D
100
AcDbEntity
 67
     1
  8
AM_VIS
100
AcDbLine
 10
114.7210213503975
 20
262.380870176475
 30
0.0
 11
114.7210213503975
 21
262.580870176475
 31
0.0
  0
LINE
  5
15D1
330
D
100
AcDbEntity
 67
     1
  8
AM_VIS
100
AcDbLine
 10
111.5167935462228
 20
262.380870176475
 30
0.0
 11
111.5167935462228
 21
258.9808701764749
 31
0.0
  0
LINE
  5
15D2
330
D
100
AcDbEntity
 67
     1
  8
AM_VIS
100
AcDbLine
 10
111.5167935462228
 20
257.7808701764751
 30
0.0
 11
111.5167935462228
 21
254.380870176475
 31
0.0
  0
LINE
  5
15D3
330
D
100
AcDbEntity
 67
     1
  8
AM_VIS
100
AcDbLine
 10
111.0109990288578
 20
258.9808701764749
 30
0.0
 11
111.0109990288578
 21
262.380870176475
 31
0.0
  0
LINE
  5
15D4
330
D
100
AcDbEntity
 67
     1
  8
AM_VIS
100
AcDbLine
 10
111.0109990288578
 20
254.380870176475
 30
0.0
 11
111.0109990288578
 21
257.7808701764751
 31
0.0
  0
LINE
  5
15D5
330
D
100
AcDbEntity
 67
     1
  8
AM_VIS
100
AcDbLine
 10
110.4310436719373
 20
262.380870176475
 30
0.0
 11
110.4310436719373
 21
258.9808701764749
 31
0.0
  0
LINE
  5
15D6
330
D
100
AcDbEntity
 67
     1
  8
AM_VIS
100
AcDbLine
 10
112.0773032198844
 20
258.9808701764749
 30
0.0
 11
112.0773032198844
 21
262.380870176475
 31
0.0
  0
LINE
  5
15D7
330
D
100
AcDbEntity
 67
     1
  8
AM_VIS
100
AcDbLine
 10
112.0773032198844
 20
254.380870176475
 30
0.0
 11
112.0773032198844
 21
257.7808701764751
 31
0.0
  0
LINE
  5
15D8
330
D
100
AcDbEntity
 67
     1
  8
AM_VIS
100
AcDbLine
 10
110.4310436719373
 20
257.7808701764751
 30
0.0
 11
110.4310436719373
 21
254.380870176475
 31
0.0
  0
LINE
  5
15D9
330
D
100
AcDbEntity
 67
     1
  8
AM_VIS
100
AcDbLine
 10
109.9166722573296
 20
254.380870176475
 30
0.0
 11
109.9166722573296
 21
257.7808701764751
 31
0.0
  0
LINE
  5
15DA
330
D
100
AcDbEntity
 67
     1
  8
AM_VIS
100
AcDbLine
 10
112.7210213503975
 20
257.7808701764751
 30
0.0
 11
112.7210213503975
 21
254.380870176475
 31
0.0
  0
LINE
  5
15DB
330
D
100
AcDbEntity
 67
     1
  8
AM_VIS
100
AcDbLine
 10
112.7210213503975
 20
262.380870176475
 30
0.0
 11
112.7210213503975
 21
258.9808701764749
 31
0.0
  0
LINE
  5
15DC
330
D
100
AcDbEntity
 67
     1
  8
AM_VIS
100
AcDbLine
 10
109.3564783999855
 20
257.7808701764751
 30
0.0
 11
109.3564783999855
 21
254.380870176475
 31
0.0
  0
LINE
  5
15DD
330
D
100
AcDbEntity
 67
     1
  8
AM_VIS
100
AcDbLine
 10
108.7210213503975
 20
257.7808701764751
 30
0.0
 11
108.7210213503975
 21
254.380870176475
 31
0.0
  0
LINE
  5
15DE
330
D
100
AcDbEntity
 67
     1
  8
AM_VIS
100
AcDbLine
 10
108.7210213503975
 20
257.7808701764751
 30
0.0
 11
108.7210213503975
 21
257.7912282480694
 31
0.0
  0
LINE
  5
15DF
330
D
100
AcDbEntity
 67
     1
  8
AM_VIS
100
AcDbLine
 10
108.7210213503975
 20
258.9705121048806
 30
0.0
 11
108.7210213503975
 21
258.9808701764749
 31
0.0
  0
LINE
  5
15E0
330
D
100
AcDbEntity
 67
     1
  8
AM_VIS
100
AcDbLine
 10
112.7210213503975
 20
258.9808701764749
 30
0.0
 11
112.7210213503975
 21
257.7808701764751
 31
0.0
  0
LINE
  5
15E1
330
D
100
AcDbEntity
 67
     1
  8
AM_VIS
100
AcDbLine
 10
114.7210213503975
 20
254.180870176475
 30
0.0
 11
114.7210213503975
 21
254.380870176475
 31
0.0
  0
LINE
  5
15E2
330
D
100
AcDbEntity
 67
     1
  8
AM_VIS
100
AcDbLine
 10
115.1210213503975
 20
251.380870176475
 30
0.0
 11
107.6210213503975
 21
251.380870176475
 31
0.0
  0
LINE
  5
15E3
330
D
100
AcDbEntity
 67
     1
  8
AM_VIS
100
AcDbLine
 10
115.1210213503975
 20
265.380870176475
 30
0.0
 11
107.6210213503975
 21
265.380870176475
 31
0.0
  0
LINE
  5
15E4
330
D
100
AcDbEntity
 67
     1
  8
AM_VIS
100
AcDbLine
 10
103.6426497178623
 20
265.380870176475
 30
0.0
 11
107.6210213503975
 21
265.380870176475
 31
0.0
  0
LINE
  5
15E5
330
D
100
AcDbEntity
 67
     1
  8
AM_VIS
100
AcDbLine
 10
103.6426497178623
 20
251.380870176475
 30
0.0
 11
107.6210213503975
 21
251.380870176475
 31
0.0
  0
LINE
  5
15E6
330
D
100
AcDbEntity
 67
     1
  8
AM_VIS
100
AcDbLine
 10
103.6364133682822
 20
251.6308511179853
 30
0.0
 11
103.6417601191407
 21
251.3808511506214
 31
0.0
  0
SPLINE
  5
15E7
330
D
100
AcDbEntity
 67
     1
  8
AM_VIS
100
AcDbSpline
210
0.0
220
0.0
230
1.0
 70
    12
 71
     2
 72
     6
 73
     3
 74
     0
 42
0.0000000001
 43
0.0000000001
 40
3.752840667768414
 40
3.752840667768414
 40
3.752840667768414
 40
9.281507709284547
 40
9.281507709284547
 40
9.281507709284547
 10
105.0229451390439
 20
255.7149857478058
 30
0.0
 41
1.020097448046716
 10
103.637304492989
 20
253.6141637093066
 30
0.0
 41
1.024852456511758
 10
103.637304492989
 20
251.630870176475
 30
0.0
 41
1.0
  0
SPLINE
  5
15E8
330
D
100
AcDbEntity
 67
     1
  8
AM_VIS
100
AcDbSpline
210
0.0
220
0.0
230
1.0
 70
    12
 71
     2
 72
     6
 73
     3
 74
     0
 42
0.0000000001
 43
0.0000000001
 40
9.281507709284554
 40
9.281507709284554
 40
9.281507709284554
 40
14.8101747508007
 40
14.8101747508007
 40
14.8101747508007
 10
103.637304492989
 20
265.130870176475
 30
0.0
 41
1.0
 10
103.6373044929886
 20
263.1475766436423
 30
0.0
 41
1.024852456511767
 10
105.0229451390443
 20
261.0467546051426
 30
0.0
 41
1.020097448046723
  0
LINE
  5
15E9
330
D
100
AcDbEntity
 67
     1
  8
AM_VIS
100
AcDbLine
 10
103.6364133682822
 20
265.1308892349647
 30
0.0
 11
103.6417601191407
 21
265.3808892023284
 31
0.0
  0
LINE
  5
15EA
330
D
100
AcDbEntity
 67
     1
  8
AM_VIS
100
AcDbLine
 10
108.8210213503976
 20
262.580870176475
 30
0.0
 11
114.9210213503976
 21
262.580870176475
 31
0.0
  0
LINE
  5
15EB
330
D
100
AcDbEntity
 67
     1
  8
AM_VIS
100
AcDbLine
 10
114.9210213503976
 20
254.180870176475
 30
0.0
 11
108.8210213503976
 21
254.180870176475
 31
0.0
  0
LINE
  5
15EC
330
D
100
AcDbEntity
 67
     1
  8
AM_VIS
100
AcDbLine
 10
114.9210213503976
 20
263.5808701764751
 30
0.0
 11
115.1210213503975
 21
263.5808701764751
 31
0.0
  0
LINE
  5
15ED
330
D
100
AcDbEntity
 67
     1
  8
AM_VIS
100
AcDbLine
 10
108.8210213503976
 20
253.4611520023005
 30
0.0
 11
108.8210213503976
 21
253.3535102343311
 31
0.0
  0
ARC
  5
15EE
330
D
100
AcDbEntity
 67
     1
  8
AM_VIS
100
AcDbCircle
 10
109.0210924663525
 20
253.452798210369
 30
0.0
 40
0.2002454425926864
100
AcDbArc
 50
59.59935168597209
 51
177.6090543802372
  0
ARC
  5
15EF
330
D
100
AcDbEntity
 67
     1
  8
AM_VIS
100
AcDbCircle
 10
110.1402163745709
 20
252.844601528834
 30
0.0
 40
0.1863614478085841
100
AcDbArc
 50
0.7992219157639975
 51
61.91084330522873
  0
ELLIPSE
  5
15F0
330
D
100
AcDbEntity
 67
     1
  8
AM_VIS
100
AcDbEllipse
 10
110.7547036785199
 20
258.380870176475
 30
0.0
 11
26.74870060641454
 21
-15.20437437026968
 31
-0.0000000000000003
210
0.0
220
0.0
230
1.0
 40
0.1606554581260671
 41
4.742648123160494
 42
4.783843614885133
  0
ARC
  5
15F1
330
D
100
AcDbEntity
 67
     1
  8
AM_VIS
100
AcDbCircle
 10
110.1450520768294
 20
252.7400174140893
 30
0.0
 40
0.1815079068038994
100
AcDbArc
 50
297.1803936543818
 51
0.1027211020333187
  0
ELLIPSE
  5
15F2
330
D
100
AcDbEntity
 67
     1
  8
AM_VIS
100
AcDbEllipse
 10
110.2873390222752
 20
258.380870176475
 30
0.0
 11
27.25658732678947
 21
15.49306502286976
 31
-0.0000000000000002
210
0.0
220
0.0
230
1.0
 40
0.1606554581260671
 41
4.578747959264348
 42
4.619153157965138
  0
SPLINE
  5
15F3
330
D
100
AcDbEntity
 67
     1
  8
AM_VIS
100
AcDbSpline
210
0.0
220
0.0
230
1.0
 70
     8
 71
     3
 72
    19
 73
    15
 74
     0
 42
0.0000000001
 43
0.0000000001
 40
-0.1015792014959406
 40
-0.1015792014959406
 40
-0.1015792014959406
 40
-0.1015792014959406
 40
-0.075337322237423
 40
-0.075337322237423
 40
0.0
 40
0.0
 40
0.0
 40
0.0753373222374231
 40
0.0753373222374231
 40
0.1506746444748462
 40
0.1506746444748462
 40
0.2260646719496171
 40
0.2260646719496171
 40
0.301454699424388
 40
0.301454699424388
 40
0.301454699424388
 40
0.301454699424388
 10
109.1224253757102
 20
251.9766447271578
 30
0.0
 10
109.1144684252407
 20
251.9723465049368
 30
0.0
 10
109.1061331660461
 20
251.9685299210497
 30
0.0
 10
109.0729182249458
 20
251.9559005723594
 30
0.0
 10
109.0461337911433
 20
251.9512956926106
 30
0.0
 10
109.0210213503975
 20
251.9512956926106
 30
0.0
 10
108.9959089096518
 20
251.9512956926106
 30
0.0
 10
108.9691244758493
 20
251.9559005723594
 30
0.0
 10
108.9198560294761
 20
251.9746339606498
 30
0.0
 10
108.8973718912577
 20
251.9887635327199
 30
0.0
 10
108.8618548735912
 20
252.0213947856841
 30
0.0
 10
108.8464585237382
 20
252.0420765123248
 30
0.0
 10
108.8260417559462
 20
252.0874381296106
 30
0.0
 10
108.8210213503976
 20
252.1121193423613
 30
0.0
 10
108.8210213503976
 20
252.1352814466764
 30
0.0
  0
LINE
  5
15F4
330
D
100
AcDbEntity
 67
     1
  8
AM_VIS
100
AcDbLine
 10
115.1210213503975
 20
253.180870176475
 30
0.0
 11
114.9210213503976
 21
253.180870176475
 31
0.0
  0
LINE
  5
15F5
330
D
100
AcDbEntity
 67
     1
  8
AM_VIS
100
AcDbLine
 10
110.3265596919312
 20
252.7396866323964
 30
0.0
 11
110.3265596919312
 21
252.8472010104096
 31
0.0
  0
LINE
  5
15F6
330
D
100
AcDbEntity
 67
     1
  8
AM_VIS
100
AcDbLine
 10
115.1210213503975
 20
263.5808701764751
 30
0.0
 11
115.1210213503975
 21
265.380870176475
 31
0.0
  0
LINE
  5
15F7
330
D
100
AcDbEntity
 67
     1
  8
AM_VIS
100
AcDbLine
 10
107.6210213503975
 20
251.380870176475
 30
0.0
 11
107.6210213503975
 21
265.380870176475
 31
0.0
  0
LINE
  5
15F8
330
D
100
AcDbEntity
 67
     1
  8
AM_VIS
100
AcDbLine
 10
108.8210213503976
 20
254.380870176475
 30
0.0
 11
108.8210213503976
 21
254.180870176475
 31
0.0
  0
LINE
  5
15F9
330
D
100
AcDbEntity
 67
     1
  8
AM_VIS
100
AcDbLine
 10
108.8210213503976
 20
258.9705121048806
 30
0.0
 11
108.8210213503976
 21
257.7912282480694
 31
0.0
  0
LINE
  5
15FA
330
D
100
AcDbEntity
 67
     1
  8
AM_VIS
100
AcDbLine
 10
108.8210213503976
 20
262.580870176475
 30
0.0
 11
108.8210213503976
 21
262.380870176475
 31
0.0
  0
LINE
  5
15FB
330
D
100
AcDbEntity
 67
     1
  8
AM_VIS
100
AcDbLine
 10
115.1210213503975
 20
251.380870176475
 30
0.0
 11
115.1210213503975
 21
253.180870176475
 31
0.0
  0
LINE
  5
15FC
330
D
100
AcDbEntity
 67
     1
  8
AM_VIS
100
AcDbLine
 10
114.9210213503976
 20
263.5808701764751
 30
0.0
 11
114.9210213503976
 21
262.580870176475
 31
0.0
  0
LINE
  5
15FD
330
D
100
AcDbEntity
 67
     1
  8
AM_VIS
100
AcDbLine
 10
114.9210213503976
 20
254.180870176475
 30
0.0
 11
114.9210213503976
 21
253.180870176475
 31
0.0
  0
LINE
  5
15FE
330
D
100
AcDbEntity
 67
     1
  8
AM_VIS
100
AcDbLine
 10
108.8210213503976
 20
253.3535102343313
 30
0.0
 11
108.8210213503976
 21
252.1352814466764
 31
0.0
  0
LINE
  5
15FF
330
D
100
AcDbEntity
 67
     1
  8
AM_VIS
100
AcDbLine
 10
105.0229451390443
 20
255.7149857478074
 30
0.0
 11
105.0229451390443
 21
261.0467546051426
 31
0.0
  0
MTEXT
  5
1600
330
D
100
AcDbEntity
 67
     1
  8
0
100
AcDbMText
 10
85.15273408901668
 20
259.0051177410961
 30
0.0
 40
1.7
 41
6.53820097285893
 71
     1
 72
     5
  1
IN
 11
-0.0000000000000002
 21
-1.0
 31
0.0
 73
     1
 44
1.0
1001
ACAD
1000
MTEXTBEGIN
1070
    73
1070
     1
1070
    44
1040
1.0
1070
    74
1070
     0
1000
MTEXTEND
  0
MTEXT
  5
1601
330
D
100
AcDbEntity
 67
     1
  8
0
100
AcDbMText
 10
110.8847520679338
 20
253.3487199012571
 30
0.0
 40
1.199999999999999
 41
6.53820097285893
 71
     1
 72
     5
  1
LOCK
 73
     1
 44
1.0
1001
ACAD
1000
MTEXTBEGIN
1070
    73
1070
     1
1070
    44
1040
1.0
1070
    74
1070
     0
1000
MTEXTEND
  0
LINE
  5
1602
330
D
100
AcDbEntity
 67
     1
  8
AM_VIS
100
AcDbLine
 10
112.9210213503976
 20
268.8239586149428
 30
0.0
 11
112.4210213503976
 21
268.1076688410191
 31
0.0
  0
LINE
  5
1603
330
D
100
AcDbEntity
 67
     1
  8
AM_VIS
100
AcDbLine
 10
114.4210213503976
 20
268.1076688410191
 30
0.0
 11
115.1210213503975
 21
268.8239586149428
 31
0.0
  0
LINE
  5
1604
330
D
100
AcDbEntity
 67
     1
  8
AM_VIS
100
AcDbLine
 10
114.4210213503976
 20
271.880870176475
 30
0.0
 11
115.1210213503975
 21
271.7252771760949
 31
0.0
  0
LINE
  5
1605
330
D
100
AcDbEntity
 67
     1
  8
AM_4
  6
AM_ISO02W050x2
100
AcDbLine
 10
144.5960213503975
 20
196.365550790481
 30
0.0
 11
136.7210213503975
 21
196.365550790481
 31
0.0
  0
LINE
  5
1606
330
D
100
AcDbEntity
 67
     1
  8
AM_4
  6
AM_ISO02W050x2
100
AcDbLine
 10
144.5960213503975
 20
209.5655507904811
 30
0.0
 11
136.7210213503975
 21
209.5655507904811
 31
0.0
  0
LINE
  5
1607
330
D
100
AcDbEntity
 67
     1
  8
AM_4
  6
AM_ISO02W050x2
100
AcDbLine
 10
136.7210213503975
 20
196.365550790481
 30
0.0
 11
136.7210213503975
 21
209.5655507904811
 31
0.0
  0
LINE
  5
1608
330
D
100
AcDbEntity
 67
     1
  8
AM_4
  6
AM_ISO02W050x2
100
AcDbLine
 10
134.7210213503975
 20
208.6905507904811
 30
0.0
 11
143.7210213503975
 21
208.6905507904811
 31
0.0
  0
LINE
  5
1609
330
D
100
AcDbEntity
 67
     1
  8
AM_4
  6
AM_ISO02W050x2
100
AcDbLine
 10
143.7210213503975
 20
208.6905507904811
 30
0.0
 11
144.7210213503975
 21
209.6905507904811
 31
0.0
  0
LINE
  5
160A
330
D
100
AcDbEntity
 67
     1
  8
AM_4
  6
AM_ISO02W050x2
100
AcDbLine
 10
144.7210213503975
 20
196.240550790481
 30
0.0
 11
143.7210213503975
 21
197.240550790481
 31
0.0
  0
LINE
  5
160B
330
D
100
AcDbEntity
 67
     1
  8
AM_4
  6
AM_ISO02W050x2
100
AcDbLine
 10
143.7210213503975
 20
197.240550790481
 30
0.0
 11
134.7210213503975
 21
197.240550790481
 31
0.0
  0
LINE
  5
160C
330
D
100
AcDbEntity
 67
     1
  8
AM_4
  6
AM_ISO02W050x2
100
AcDbLine
 10
143.7210213503975
 20
197.240550790481
 30
0.0
 11
143.7210213503975
 21
208.6905507904811
 31
0.0
  0
LINE
  5
160D
330
D
100
AcDbEntity
 67
     1
  8
AM_VIS
100
AcDbLine
 10
83.22102135039756
 20
217.1866618581861
 30
0.0
 11
83.62102135039766
 21
217.1249999323087
 31
0.0
  0
LINE
  5
160E
330
D
100
AcDbEntity
 67
     1
  8
AM_VIS
100
AcDbLine
 10
87.8207991898696
 20
217.1249999323089
 30
0.0
 11
88.22102135039756
 21
217.1866618581861
 31
0.0
  0
LWPOLYLINE
  5
160F
330
D
100
AcDbEntity
 67
     1
  8
AM_5
100
AcDbPolyline
 90
        5
 70
     0
 43
0.0
 10
178.7995738081232
 20
257.1118264353769
 10
178.7995738081232
 20
242.866826435377
 10
191.2245738081233
 20
242.866826435377
 10
191.2245738081233
 20
257.1118264353769
 10
178.7995738081232
 20
257.1118264353769
  0
LINE
  5
1610
330
D
100
AcDbEntity
 67
     1
  8
AM_5
100
AcDbLine
 10
176.1745738081232
 20
245.211826435377
 30
0.0
 11
193.7795738081232
 21
245.211826435377
 31
0.0
  0
LINE
  5
1611
330
D
100
AcDbEntity
 67
     1
  8
AM_5
100
AcDbLine
 10
178.7995738081232
 20
245.211826435377
 30
0.0
 11
181.0045738081232
 21
246.366826435377
 31
0.0
  0
LINE
  5
1612
330
D
100
AcDbEntity
 67
     1
  8
AM_5
100
AcDbLine
 10
178.7995738081232
 20
245.211826435377
 30
0.0
 11
181.0045738081232
 21
244.0568264353768
 31
0.0
  0
LINE
  5
1613
330
D
100
AcDbEntity
 67
     1
  8
AM_5
100
AcDbLine
 10
191.2245738081233
 20
245.211826435377
 30
0.0
 11
189.0195738081232
 21
246.366826435377
 31
0.0
  0
LINE
  5
1614
330
D
100
AcDbEntity
 67
     1
  8
AM_5
100
AcDbLine
 10
191.2245738081233
 20
245.211826435377
 30
0.0
 11
189.0195738081232
 21
244.0568264353768
 31
0.0
  0
LINE
  5
1615
330
D
100
AcDbEntity
 67
     1
  8
AM_5
100
AcDbLine
 10
176.5945738081233
 20
255.1868264353769
 30
0.0
 11
178.7995738081232
 21
256.3418264353769
 31
0.0
  0
LINE
  5
1616
330
D
100
AcDbEntity
 67
     1
  8
AM_5
100
AcDbLine
 10
176.5945738081233
 20
255.1868264353769
 30
0.0
 11
178.7995738081232
 21
254.031826435377
 31
0.0
  0
LWPOLYLINE
  5
1617
330
D
100
AcDbEntity
 67
     1
  8
AM_5
  6
HIDDEN
100
AcDbPolyline
 90
        5
 70
     0
 43
0.0
 10
185.0120738081233
 20
242.866826435377
 10
185.0120738081233
 20
237.4418264353768
 10
196.1595738081232
 20
237.4418264353768
 10
196.1595738081232
 20
242.2368264353769
 10
191.2245738081233
 20
245.211826435377
  0
LWPOLYLINE
  5
1618
330
D
100
AcDbEntity
 67
     1
  8
AM_5
100
AcDbPolyline
 90
        3
 70
     0
 43
0.0
 10
185.0120738081233
 20
257.1118264353769
 10
188.2495738081233
 20
259.106826435377
 10
183.1745738081232
 20
260.7168264353769
  0
LWPOLYLINE
  5
1619
330
D
100
AcDbEntity
 67
     1
  8
AM_5
100
AcDbPolyline
 90
        3
 70
     0
 43
0.0
 10
185.0120738081233
 20
264.3218264353769
 10
188.2495738081233
 20
262.326826435377
 10
183.1745738081232
 20
260.7168264353769
  0
TEXT
  5
161A
330
D
100
AcDbEntity
 67
     1
  8
0
100
AcDbText
 10
178.0745738081233
 20
268.461826435377
 30
0.0
 40
2.399999999999999
  1
%%UJIS 記號
  7
DAYUS
100
AcDbText
  0
ENDSEC
  0
SECTION
  2
OBJECTS
  0
DICTIONARY
  5
8
330
0
100
AcDbDictionary
281
     1
  3
ACAD_COLOR
350
2F
  3
ACAD_GROUP
350
2B
  3
ACAD_LAYOUT
350
C
  3
ACAD_MATERIAL
350
2E
  3
ACAD_MLINESTYLE
350
2C
  3
ACAD_PLOTSETTINGS
350
2D
  3
ACAD_PLOTSTYLENAME
350
7
  3
ACAD_TABLESTYLE
350
30
  3
ACDBHEADERROUNDTRIPXREC
350
1650
  3
AcDbVariableDictionary
350
3A0
  3
AcmDictionary
350
404
  3
AMG
350
3AC
  3
AMGSNAPSETTINGS
350
43C
  3
DWGPROPS
350
164F
  0
DICTIONARY
  5
13
330
12
100
AcDbDictionary
280
     1
281
     1
  3
ACAD_LAYERSTATES
360
14
  0
DICTIONARY
  5
3
330
2
100
AcDbDictionary
280
     1
281
     1
  0
DICTIONARY
  5
8C3
330
D
100
AcDbDictionary
280
     1
281
     1
  3
ACAD_SORTENTS
360
8C4
  0
DICTIONARY
  5
1655
330
3AA
100
AcDbDictionary
280
     1
281
     1
  3
ACAD_XREC_ROUNDTRIP
360
1656
  0
DICTIONARY
  5
1534
330
1533
100
AcDbDictionary
280
     1
281
     1
  3
ACAD_DIMASSOC
360
1535
  0
DICTIONARY
  5
2F
102
{ACAD_REACTORS
330
8
102
}
330
8
100
AcDbDictionary
281
     1
  0
DICTIONARY
  5
2B
102
{ACAD_REACTORS
330
8
102
}
330
8
100
AcDbDictionary
281
     1
  0
DICTIONARY
  5
C
102
{ACAD_REACTORS
330
8
102
}
330
8
100
AcDbDictionary
281
     1
  3
Model
350
B
  3
配置1
350
10
  0
DICTIONARY
  5
2E
102
{ACAD_REACTORS
330
8
102
}
330
8
100
AcDbDictionary
281
     1
  0
DICTIONARY
  5
2C
102
{ACAD_REACTORS
330
8
102
}
330
8
100
AcDbDictionary
281
     1
  3
STANDARD
350
31
  0
DICTIONARY
  5
2D
102
{ACAD_REACTORS
330
8
102
}
330
8
100
AcDbDictionary
281
     1
  0
ACDBDICTIONARYWDFLT
  5
7
102
{ACAD_REACTORS
330
8
102
}
330
8
100
AcDbDictionary
281
     1
  3
Normal
350
6
100
AcDbDictionaryWithDefault
340
6
  0
DICTIONARY
  5
30
102
{ACAD_REACTORS
330
8
102
}
330
8
100
AcDbDictionary
281
     1
  3
Standard
350
32
  0
DICTIONARY
  5
1650
102
{ACAD_REACTORS
330
8
102
}
330
8
100
AcDbDictionary
281
     1
  0
DICTIONARY
  5
3A0
102
{ACAD_REACTORS
330
8
102
}
330
8
100
AcDbDictionary
281
     1
  3
CTABLESTYLE
350
3A1
  3
DIMASSOC
350
766
  3
HIDETEXT
350
765
  3
PROJECTNAME
350
767
  0
DICTIONARY
  5
404
102
{ACAD_REACTORS
330
8
102
}
330
8
100
AcDbDictionary
281
     1
  3
AcmStdDictionary
350
411
  3
AMDTSECTSYM_ARROWCOLOR
350
42D
  0
DICTIONARY
  5
3AC
102
{ACAD_REACTORS
330
8
102
}
330
8
100
AcDbDictionary
281
     1
  0
DICTIONARY
  5
43C
102
{ACAD_REACTORS
330
8
102
}
330
8
100
AcDbDictionary
281
     1
  0
XRECORD
  5
164F
102
{ACAD_REACTORS
330
8
102
}
330
8
100
AcDbXrecord
280
     1
  1
DWGPROPS COOKIE
  2

  3

  4

  6

  7

  8

  9

300
=
301
=
302
=
303
=
304
=
305
=
306
=
307
=
308
=
309
=
 40
1.455544791666666
 41
2452486.501936366
 42
2455625.665876933
  1

 90
        0
  0
DICTIONARY
  5
14
102
{ACAD_REACTORS
330
13
102
}
330
13
100
AcDbDictionary
281
     1
  0
SORTENTSTABLE
  5
8C4
102
{ACAD_REACTORS
330
8C3
102
}
330
8C3
100
AcDbSortentsTable
330
D
331
572
  5
572
331
543
  5
543
331
50C
  5
50C
331
54B
  5
54B
331
514
  5
514
331
553
  5
553
331
51C
  5
51C
331
55B
  5
55B
331
524
  5
524
331
563
  5
563
331
52C
  5
52C
331
56B
  5
56B
331
573
  5
573
331
534
  5
534
331
53C
  5
53C
331
505
  5
505
331
544
  5
544
331
50D
  5
50D
331
54C
  5
54C
331
515
  5
515
331
554
  5
554
331
55C
  5
55C
331
525
  5
525
331
564
  5
564
331
52D
  5
52D
331
56C
  5
56C
331
53D
  5
53D
331
506
  5
506
331
545
  5
545
331
50E
  5
50E
331
54D
  5
54D
331
516
  5
516
331
555
  5
555
331
55D
  5
55D
331
565
  5
565
331
52E
  5
52E
331
56D
  5
56D
331
53E
  5
53E
331
507
  5
507
331
546
  5
546
331
50F
  5
50F
331
54E
  5
54E
331
517
  5
517
331
556
  5
556
331
55E
  5
55E
331
566
  5
566
331
52F
  5
52F
331
56E
  5
56E
331
508
  5
508
331
547
  5
547
331
510
  5
510
331
54F
  5
54F
331
3AA
  5
3AA
331
518
  5
518
331
520
  5
520
331
557
  5
557
331
55F
  5
55F
331
567
  5
567
331
56F
  5
56F
331
530
  5
530
331
538
  5
538
331
509
  5
509
331
548
  5
548
331
511
  5
511
331
550
  5
550
331
519
  5
519
331
558
  5
558
331
560
  5
560
331
529
  5
529
331
568
  5
568
331
570
  5
570
331
50A
  5
50A
331
549
  5
549
331
512
  5
512
331
551
  5
551
331
51A
  5
51A
331
559
  5
559
331
561
  5
561
331
52A
  5
52A
331
569
  5
569
331
571
  5
571
331
542
  5
542
331
50B
  5
50B
331
54A
  5
54A
331
513
  5
513
331
552
  5
552
331
51B
  5
51B
331
55A
  5
55A
331
562
  5
562
331
52B
  5
52B
331
56A
  5
56A
  0
XRECORD
  5
1656
102
{ACAD_REACTORS
330
1655
102
}
330
1655
100
AcDbXrecord
280
     1
102
SHADEPLOT
 70
     0
  0
DIMASSOC
  5
1535
102
{ACAD_REACTORS
330
1534
102
}
330
1534
100
AcDbDimAssoc
330
1533
 90
        1
 70
     0
 71
     0
  1
AcDbOsnapPointRef
 72
    10
331
152B
 73
     2
 91
        0
 40
0.5432899381705089
 10
0.0
 20
0.0
 30
0.0
 75
     0
  0
LAYOUT
  5
B
102
{ACAD_XDICTIONARY
360
1651
102
}
102
{ACAD_REACTORS
330
C
102
}
330
C
100
AcDbPlotSettings
  1

  2
\\NOVIBDC\HPLJ4-TPUB
  4

  6

 40
0.0
 41
0.0
 42
0.0
 43
0.0
 44
0.0
 45
0.0
 46
0.0
 47
0.0
 48
0.0
 49
0.0
140
0.0
141
0.0
142
1.0
143
1.0
 70
  1712
 72
     0
 73
     0
 74
     0
  7

 75
     0
147
1.0
148
0.0
149
0.0
100
AcDbLayout
  1
Model
 70
     1
 71
     0
 10
0.0
 20
0.0
 11
12.0
 21
9.0
 12
0.0
 22
0.0
 32
0.0
 14
0.0
 24
0.0
 34
0.0
 15
0.0
 25
0.0
 35
0.0
146
0.0
 13
0.0
 23
0.0
 33
0.0
 16
1.0
 26
0.0
 36
0.0
 17
0.0
 27
1.0
 37
0.0
 76
     0
330
2
  0
LAYOUT
  5
10
102
{ACAD_XDICTIONARY
360
1653
102
}
102
{ACAD_REACTORS
330
C
102
}
330
C
100
AcDbPlotSettings
  1

  2
\\RDS1\iR3300影印機
  4
A3
  6

 40
6.805083274841308
 41
5.365738868713378
 42
7.228424072265625
 43
5.027069091796875
 44
296.9259948730469
 45
419.9466552734374
 46
0.0
 47
0.0
 48
0.0
 49
0.0
140
0.0
141
0.0
142
1.0
143
1.0
 70
   688
 72
     1
 73
     0
 74
     5
  7

 75
    16
147
1.0
148
0.0
149
0.0
100
AcDbLayout
  1
配置1
 70
     1
 71
     1
 10
-6.805083274841308
 20
-5.365738868713378
 11
290.1209115982056
 21
414.5809164047241
 12
0.0
 22
0.0
 32
0.0
 14
15.83951159531318
 24
20.28499549248261
 34
-0.0023951962154456
 15
266.5701718850775
 25
384.4446697926114
 35
235.9195074983357
146
0.0
 13
0.0
 23
0.0
 33
0.0
 16
1.0
 26
0.0
 36
0.0
 17
0.0
 27
1.0
 37
0.0
 76
     0
330
D
331
3AA
1001
ACAD_PSEXT
1000
\\RDS1\iR3300影印機
1000
Canon iR2200-3300 PCL5e
1000
\\RDS1
1000

1070
     0
  0
MLINESTYLE
  5
31
102
{ACAD_REACTORS
330
2C
102
}
330
2C
100
AcDbMlineStyle
  2
STANDARD
 70
     0
  3

 62
     0
 51
90.0
 52
90.0
 71
     2
 49
0.5
 62
   256
  6
BYLAYER
 49
-0.5
 62
   256
  6
BYLAYER
  0
ACDBPLACEHOLDER
  5
6
102
{ACAD_REACTORS
330
7
102
}
330
7
  0
TABLESTYLE
  5
32
102
{ACAD_REACTORS
330
30
102
}
330
30
100
AcDbTableStyle
  3
Standard
 70
     0
 71
     0
 40
1.5
 41
1.5
280
     0
281
     0
  7
STANDARD
140
4.5
170
     2
 62
     0
 63
     7
283
     0
274
    -2
284
     1
 64
     0
275
    -2
285
     1
 65
     0
276
    -2
286
     1
 66
     0
277
    -2
287
     1
 67
     0
278
    -2
288
     1
 68
     0
279
    -2
289
     1
 69
     0
  7
STANDARD
140
6.0
170
     5
 62
     0
 63
     7
283
     0
274
    -2
284
     1
 64
     0
275
    -2
285
     1
 65
     0
276
    -2
286
     1
 66
     0
277
    -2
287
     1
 67
     0
278
    -2
288
     1
 68
     0
279
    -2
289
     1
 69
     0
  7
STANDARD
140
4.5
170
     5
 62
     0
 63
     7
283
     0
274
    -2
284
     1
 64
     0
275
    -2
285
     1
 65
     0
276
    -2
286
     1
 66
     0
277
    -2
287
     1
 67
     0
278
    -2
288
     1
 68
     0
279
    -2
289
     1
 69
     0
  0
DICTIONARYVAR
  5
3A1
102
{ACAD_REACTORS
330
3A0
102
}
330
3A0
100
DictionaryVariables
280
     0
  1
STANDARD
  0
DICTIONARYVAR
  5
766
102
{ACAD_REACTORS
330
3A0
102
}
330
3A0
100
DictionaryVariables
280
     0
  1
1
  0
DICTIONARYVAR
  5
765
102
{ACAD_REACTORS
330
3A0
102
}
330
3A0
100
DictionaryVariables
280
     0
  1
1
  0
DICTIONARYVAR
  5
767
102
{ACAD_REACTORS
330
3A0
102
}
330
3A0
100
DictionaryVariables
280
     0
  1

  0
DICTIONARY
  5
411
102
{ACAD_REACTORS
330
404
102
}
330
404
100
AcDbDictionary
281
     1
  0
XRECORD
  5
42D
102
{ACAD_REACTORS
330
404
102
}
330
404
100
AcDbXrecord
280
     1
 90
-1023410169
  0
DICTIONARY
  5
1651
330
B
100
AcDbDictionary
280
     1
281
     1
  3
ACAD_XREC_ROUNDTRIP
360
1652
  0
DICTIONARY
  5
1653
330
10
100
AcDbDictionary
280
     1
281
     1
  3
ACAD_XREC_ROUNDTRIP
360
1654
  0
XRECORD
  5
1652
102
{ACAD_REACTORS
330
1651
102
}
330
1651
100
AcDbXrecord
280
     1
102
SHADEPLOT
 70
     0
102
SHADEPLOTRESLEVEL
 70
     2
102
SHADEPLOTCUSTOMDPI
 70
   300
  0
XRECORD
  5
1654
102
{ACAD_REACTORS
330
1653
102
}
330
1653
100
AcDbXrecord
280
     1
102
SHADEPLOT
 70
     0
102
SHADEPLOTRESLEVEL
 70
     2
102
SHADEPLOTCUSTOMDPI
 70
   300
  0
ENDSEC
  0
EOF
