  0
SECTION
  2
HEADER
  9
$ACADVER
  1
AC1015
  9
$ACADMAINTVER
 70
    20
  9
$DWGCODEPAGE
  3
ANSI_950
  9
$INSBASE
 10
0.0
 20
0.0
 30
0.0
  9
$EXTMIN
 10
-53.90778182129031
 20
-632.7898648319607
 30
-0.0000000000000001
  9
$EXTMAX
 10
517.500732109289
 20
-202.9007657669973
 30
245.9789690358935
  9
$LIMMIN
 10
0.0
 20
0.0
  9
$LIMMAX
 10
420.0
 20
297.0
  9
$ORTHOMODE
 70
     0
  9
$REGENMODE
 70
     1
  9
$FILLMODE
 70
     1
  9
$QTEXTMODE
 70
     0
  9
$MIRRTEXT
 70
     1
  9
$LTSCALE
 40
1.0
  9
$ATTMODE
 70
     1
  9
$TEXTSIZE
 40
4.0
  9
$TRACEWID
 40
1.0
  9
$TEXTSTYLE
  7
CHINESET
  9
$CLAYER
  8
0
  9
$CELTYPE
  6
ByLayer
  9
$CECOLOR
 62
   256
  9
$CELTSCALE
 40
1.0
  9
$DISPSILH
 70
     0
  9
$DIMSCALE
 40
1.5
  9
$DIMASZ
 40
3.0
  9
$DIMEXO
 40
1.0
  9
$DIMDLI
 40
8.0
  9
$DIMRND
 40
0.0
  9
$DIMDLE
 40
0.0
  9
$DIMEXE
 40
1.0
  9
$DIMTP
 40
0.1
  9
$DIMTM
 40
0.1
  9
$DIMTXT
 40
3.5
  9
$DIMCEN
 40
0.0
  9
$DIMTSZ
 40
0.0
  9
$DIMTOL
 70
     0
  9
$DIMLIM
 70
     0
  9
$DIMTIH
 70
     0
  9
$DIMTOH
 70
     0
  9
$DIMSE1
 70
     0
  9
$DIMSE2
 70
     0
  9
$DIMTAD
 70
     1
  9
$DIMZIN
 70
     8
  9
$DIMBLK
  1

  9
$DIMASO
 70
     1
  9
$DIMSHO
 70
     1
  9
$DIMPOST
  1

  9
$DIMAPOST
  1
"
  9
$DIMALT
 70
     0
  9
$DIMALTD
 70
     2
  9
$DIMALTF
 40
0.0393701
  9
$DIMLFAC
 40
1.0
  9
$DIMTOFL
 70
     1
  9
$DIMTVP
 40
0.0
  9
$DIMTIX
 70
     0
  9
$DIMSOXD
 70
     0
  9
$DIMSAH
 70
     0
  9
$DIMBLK1
  1

  9
$DIMBLK2
  1

  9
$DIMSTYLE
  2
AM_ISO
  9
$DIMCLRD
 70
   256
  9
$DIMCLRE
 70
   256
  9
$DIMCLRT
 70
   256
  9
$DIMTFAC
 40
0.71
  9
$DIMGAP
 40
1.0
  9
$DIMJUST
 70
     0
  9
$DIMSD1
 70
     0
  9
$DIMSD2
 70
     0
  9
$DIMTOLJ
 70
     0
  9
$DIMTZIN
 70
     8
  9
$DIMALTZ
 70
     0
  9
$DIMALTTZ
 70
     0
  9
$DIMUPT
 70
     0
  9
$DIMDEC
 70
     2
  9
$DIMTDEC
 70
     2
  9
$DIMALTU
 70
     2
  9
$DIMALTTD
 70
     2
  9
$DIMTXSTY
  7
STANDARD
  9
$DIMAUNIT
 70
     0
  9
$DIMADEC
 70
     0
  9
$DIMALTRND
 40
0.0
  9
$DIMAZIN
 70
     2
  9
$DIMDSEP
 70
    46
  9
$DIMATFIT
 70
     3
  9
$DIMFRAC
 70
     0
  9
$DIMLDRBLK
  1

  9
$DIMLUNIT
 70
     2
  9
$DIMLWD
 70
    -1
  9
$DIMLWE
 70
    -1
  9
$DIMTMOVE
 70
     0
  9
$LUNITS
 70
     2
  9
$LUPREC
 70
     2
  9
$SKETCHINC
 40
1.0
  9
$FILLETRAD
 40
2.5
  9
$AUNITS
 70
     0
  9
$AUPREC
 70
     4
  9
$MENU
  1
.
  9
$ELEVATION
 40
0.0
  9
$PELEVATION
 40
0.0
  9
$THICKNESS
 40
0.0
  9
$LIMCHECK
 70
     0
  9
$CHAMFERA
 40
2.5
  9
$CHAMFERB
 40
2.5
  9
$CHAMFERC
 40
0.0
  9
$CHAMFERD
 40
0.0
  9
$SKPOLY
 70
     0
  9
$TDCREATE
 40
2451564.495570949
  9
$TDUCREATE
 40
2451564.162237616
  9
$TDUPDATE
 40
2455625.480845880
  9
$TDUUPDATE
 40
2455625.147512547
  9
$TDINDWG
 40
0.6957584606
  9
$TDUSRTIMER
 40
0.6957584606
  9
$USRTIMER
 70
     1
  9
$ANGBASE
 50
0.0
  9
$ANGDIR
 70
     0
  9
$PDMODE
 70
     0
  9
$PDSIZE
 40
0.0
  9
$PLINEWID
 40
0.0
  9
$SPLFRAME
 70
     0
  9
$SPLINETYPE
 70
     6
  9
$SPLINESEGS
 70
     8
  9
$HANDSEED
  5
BCC4
  9
$SURFTAB1
 70
     6
  9
$SURFTAB2
 70
     6
  9
$SURFTYPE
 70
     6
  9
$SURFU
 70
     6
  9
$SURFV
 70
     6
  9
$UCSBASE
  2

  9
$UCSNAME
  2

  9
$UCSORG
 10
0.0
 20
0.0
 30
0.0
  9
$UCSXDIR
 10
1.0
 20
0.0
 30
0.0
  9
$UCSYDIR
 10
0.0
 20
1.0
 30
0.0
  9
$UCSORTHOREF
  2

  9
$UCSORTHOVIEW
 70
     0
  9
$UCSORGTOP
 10
0.0
 20
0.0
 30
0.0
  9
$UCSORGBOTTOM
 10
0.0
 20
0.0
 30
0.0
  9
$UCSORGLEFT
 10
0.0
 20
0.0
 30
0.0
  9
$UCSORGRIGHT
 10
0.0
 20
0.0
 30
0.0
  9
$UCSORGFRONT
 10
0.0
 20
0.0
 30
0.0
  9
$UCSORGBACK
 10
0.0
 20
0.0
 30
0.0
  9
$PUCSBASE
  2

  9
$PUCSNAME
  2

  9
$PUCSORG
 10
0.0
 20
0.0
 30
0.0
  9
$PUCSXDIR
 10
1.0
 20
0.0
 30
0.0
  9
$PUCSYDIR
 10
0.0
 20
1.0
 30
0.0
  9
$PUCSORTHOREF
  2

  9
$PUCSORTHOVIEW
 70
     0
  9
$PUCSORGTOP
 10
0.0
 20
0.0
 30
0.0
  9
$PUCSORGBOTTOM
 10
0.0
 20
0.0
 30
0.0
  9
$PUCSORGLEFT
 10
0.0
 20
0.0
 30
0.0
  9
$PUCSORGRIGHT
 10
0.0
 20
0.0
 30
0.0
  9
$PUCSORGFRONT
 10
0.0
 20
0.0
 30
0.0
  9
$PUCSORGBACK
 10
0.0
 20
0.0
 30
0.0
  9
$USERI1
 70
     0
  9
$USERI2
 70
     0
  9
$USERI3
 70
     0
  9
$USERI4
 70
     0
  9
$USERI5
 70
     0
  9
$USERR1
 40
0.0
  9
$USERR2
 40
0.0
  9
$USERR3
 40
0.0
  9
$USERR4
 40
0.0
  9
$USERR5
 40
0.0
  9
$WORLDVIEW
 70
     1
  9
$SHADEDGE
 70
     3
  9
$SHADEDIF
 70
    70
  9
$TILEMODE
 70
     1
  9
$MAXACTVP
 70
    48
  9
$PINSBASE
 10
0.0
 20
0.0
 30
0.0
  9
$PLIMCHECK
 70
     0
  9
$PEXTMIN
 10
1.000000000000000E+20
 20
1.000000000000000E+20
 30
1.000000000000000E+20
  9
$PEXTMAX
 10
-1.000000000000000E+20
 20
-1.000000000000000E+20
 30
-1.000000000000000E+20
  9
$PLIMMIN
 10
0.0
 20
0.0
  9
$PLIMMAX
 10
420.0
 20
297.0
  9
$UNITMODE
 70
     0
  9
$VISRETAIN
 70
     1
  9
$PLINEGEN
 70
     0
  9
$PSLTSCALE
 70
     1
  9
$TREEDEPTH
 70
  3020
  9
$CMLSTYLE
  2
Standard
  9
$CMLJUST
 70
     0
  9
$CMLSCALE
 40
1.0
  9
$PROXYGRAPHICS
 70
     1
  9
$MEASUREMENT
 70
     1
  9
$CELWEIGHT
370
    -1
  9
$ENDCAPS
280
     0
  9
$JOINSTYLE
280
     0
  9
$LWDISPLAY
290
     0
  9
$INSUNITS
 70
     4
  9
$HYPERLINKBASE
  1

  9
$STYLESHEET
  1
彩色出圖.ctb
  9
$XEDIT
290
     1
  9
$CEPSNTYPE
380
     0
  9
$PSTYLEMODE
290
     1
  9
$FINGERPRINTGUID
  2
{C1BC4B04-FC92-11D4-9D7A-0050BAE3FAE1}
  9
$VERSIONGUID
  2
{280D5EFD-632B-4873-A9C1-BD6C6F12DDCD}
  9
$EXTNAMES
290
     1
  9
$PSVPSCALE
 40
0.0
  9
$OLESTARTUP
290
     0
  0
ENDSEC
  0
SECTION
  2
CLASSES
  0
CLASS
  1
ACDBDICTIONARYWDFLT
  2
AcDbDictionaryWithDefault
  3
ObjectDBX Classes
 90
        0
280
     0
281
     0
  0
CLASS
  1
ACDBPLACEHOLDER
  2
AcDbPlaceHolder
  3
ObjectDBX Classes
 90
        0
280
     0
281
     0
  0
CLASS
  1
LAYOUT
  2
AcDbLayout
  3
ObjectDBX Classes
 90
        0
280
     0
281
     0
  0
CLASS
  1
DICTIONARYVAR
  2
AcDbDictionaryVar
  3
ObjectDBX Classes
 90
        0
280
     0
281
     0
  0
CLASS
  1
ACME_DOCUMENT
  2
AcMeDbDoc
  3
AcMeServices
 90
        0
280
     0
281
     0
  0
CLASS
  1
AMGSETTINGSOBJ
  2
AmgSettingsObj
  3
"AcadM|Product Description: AutoCAD Mechanical 2000|Company: Autodesk"
 90
        0
280
     0
281
     0
  0
CLASS
  1
ACMESCOPE
  2
AcMeScope
  3
AcMeServices
 90
        0
280
     0
281
     0
  0
CLASS
  1
ACMECOMMANDHISTORY
  2
AcMeCommandHistory
  3
AcMeServices
 90
        0
280
     0
281
     0
  0
CLASS
  1
ACIMSYSVARMAN
  2
AcImSysVarManager
  3
AcMeServices
 90
        0
280
     0
281
     0
  0
CLASS
  1
ACIMREALSYSVAR
  2
AcImRealSysVar
  3
AcMeServices
 90
        0
280
     0
281
     0
  0
CLASS
  1
ACIMINTSYSVAR
  2
AcImIntSysVar
  3
AcMeServices
 90
        0
280
     0
281
     0
  0
CLASS
  1
ACMEDRAWINGMAN
  2
AcMeDrawingMan
  3
AcMeServices
 90
        0
280
     0
281
     0
  0
CLASS
  1
ACMEVIEW
  2
AcMeView
  3
AcMeServices
 90
        0
280
     0
281
     0
  0
CLASS
  1
ACDBENTITYCACHE
  2
AcMeEntityCache
  3
AcMeServices
 90
        0
280
     0
281
     0
  0
CLASS
  1
GSMANAGER
  2
AcMeGSManager
  3
AcMeServices
 90
        0
280
     0
281
     0
  0
CLASS
  1
AMDTINTERNALREACTOR
  2
AmdtInternalReactor
  3
AcMeServices
 90
        0
280
     0
281
     0
  0
CLASS
  1
ACMESTATEMGR
  2
AcMeStateMgr
  3
AcMeServices
 90
        0
280
     0
281
     0
  0
CLASS
  1
ACGREFMASTER
  2
AcGrefMaster
  3
AcAttribServices
 90
        0
280
     0
281
     0
  0
CLASS
  1
ACME_DATABASE
  2
AcMeDbDatabase
  3
AcMeServices
 90
        0
280
     0
281
     0
  0
CLASS
  1
ACRFINSADJUSTERMGR
  2
AcRfInsAdjusterMgr
  3
AcMeServices
 90
        0
280
     0
281
     0
  0
CLASS
  1
ACGREFACADMASTER
  2
AcGrefacadMaster
  3
AcGrefServices
 90
        0
280
     0
281
     0
  0
CLASS
  1
AMIMASTER
  2
AmiMaster
  3
AmiServices
 90
        0
280
     0
281
     0
  0
CLASS
  1
ACMDATADICTIONARY
  2
AcmDataDictionary
  3
"AcmSymBB|Product Description: AutoCAD Mechanical 2004 DX|Company: Autodesk"
 90
        0
280
     0
281
     0
  0
CLASS
  1
ACMDATAENTRYBLOCK
  2
AcmDataEntryBlock
  3
"AcmSymBB|Product Description: AutoCAD Mechanical 2004 DX|Company: Autodesk"
 90
        0
280
     0
281
     0
  0
CLASS
  1
ACIMSTRSYSVAR
  2
AcImStrSysVar
  3
AcMeServices
 90
        0
280
     0
281
     0
  0
CLASS
  1
ACMSTANDARDANSI
  2
AcmStandardANSI
  3
"Amdt_StdImp|Product Description: AutoCAD Mechanical 2004 DX|Company: Autodesk"
 90
    32768
280
     0
281
     0
  0
CLASS
  1
AMGOBJPROPCFG
  2
AmgObjPropCfg
  3
"AmgLay|Product Description: AutoCAD Mechanical 2000|Company: Autodesk"
 90
        1
280
     0
281
     0
  0
CLASS
  1
ACMSURFSTANDARDANSI
  2
AcmSurfTextStdANSI
  3
"Amdt_StdImp|Product Description: AutoCAD Mechanical 2004 DX|Company: Autodesk"
 90
    32768
280
     0
281
     0
  0
CLASS
  1
ACMFCFSTANDARDANSI
  2
AcmFCFStdANSI
  3
"Amdt_StdImp|Product Description: AutoCAD Mechanical 2004 DX|Company: Autodesk"
 90
    32768
280
     0
281
     0
  0
CLASS
  1
ACMWELDSTANDARDANSI
  2
AcmWeldingStdANSI
  3
"Amdt_StdImp|Product Description: AutoCAD Mechanical 2004 DX|Company: Autodesk"
 90
    32768
280
     0
281
     0
  0
CLASS
  1
ACMIDSTANDARDANSI
  2
AcmIdStdANSI
  3
"Amdt_StdImp|Product Description: AutoCAD Mechanical 2004 DX|Company: Autodesk"
 90
    32768
280
     0
281
     0
  0
CLASS
  1
ACMDATUMSTANDARDANSI
  2
AcmDatumStdANSI
  3
"Amdt_StdImp|Product Description: AutoCAD Mechanical 2004 DX|Company: Autodesk"
 90
    32768
280
     0
281
     0
  0
CLASS
  1
ACMBOMSTANDARDANSI
  2
AcmBOMStdANSI
  3
"Amdt_StdImp|Product Description: AutoCAD Mechanical 2004 DX|Company: Autodesk"
 90
    32768
280
     0
281
     0
  0
CLASS
  1
ACMDETAILSTANDARDANSI
  2
AmdtDetailSymStdANSI
  3
"Amdt_StdImp|Product Description: AutoCAD Mechanical 2004 DX|Company: Autodesk"
 90
    32768
280
     0
281
     0
  0
CLASS
  1
ACMSECTIONSTANDARDANSI
  2
AmdtSectionSymStdANSI
  3
"Amdt_StdImp|Product Description: AutoCAD Mechanical 2004 DX|Company: Autodesk"
 90
    32768
280
     0
281
     0
  0
CLASS
  1
ACMCENTERLINESTANDARDANSI
  2
AmdtCenterLineStdANSI
  3
"Amdt_StdImp|Product Description: AutoCAD Mechanical 2004 DX|Company: Autodesk"
 90
    32768
280
     0
281
     0
  0
CLASS
  1
ACMNOTESTANDARDANSI
  2
AmdtNoteStdANSI
  3
"Amdt_StdImp|Product Description: AutoCAD Mechanical 2004 DX|Company: Autodesk"
 90
    32768
280
     0
281
     0
  0
CLASS
  1
ACAMGLAYSTD
  2
AcAmgLayStd
  3
"AcAmgLayStd|Product Description: AutoCAD Mechanical 2000|Company: Autodesk"
 90
        0
280
     0
281
     0
  0
CLASS
  1
ACAMGDIMSTD
  2
AcAmgDimStd
  3
"AcAmgDimStd|Product Description: AutoCAD Mechanical 2000|Company: Autodesk"
 90
        0
280
     0
281
     0
  0
CLASS
  1
ACAMGHOLECHARTSTDANSI
  2
AcAmgHoleChartStdANSI
  3
ACMSYMBB_MODULE_NAME
 90
    32768
280
     0
281
     0
  0
CLASS
  1
ACAMGTITLESTD
  2
AcAmgTitleStd
  3
"TITLEAPP"
 90
        0
280
     0
281
     0
  0
CLASS
  1
ACAMGFILTERDAT
  2
AcAmgFilterDat
  3
"AcadM|Product Description: AutoCAD Mechanical 2000|Company: Autodesk"
 90
    32768
280
     0
281
     0
  0
CLASS
  1
LAYER_INDEX
  2
AcDbLayerIndex
  3
ObjectDBX Classes
 90
        0
280
     0
281
     0
  0
CLASS
  1
IDBUFFER
  2
AcDbIdBuffer
  3
ObjectDBX Classes
 90
        0
280
     0
281
     0
  0
CLASS
  1
AMDTFORMULAUPDATEDISPATCHER
  2
AmdtFormulaUpdateDispatcher
  3
AcMeServices
 90
    32768
280
     0
281
     0
  0
CLASS
  1
ACMSTANDARDISO
  2
AcmStandardISO
  3
"Amdt_StdImp|Product Description: AutoCAD Mechanical 2004 DX|Company: Autodesk"
 90
        0
280
     0
281
     0
  0
CLASS
  1
AMDTEDGESTANDARDISO
  2
AmdtEdgeStdISO
  3
"Amdt_StdImp|Product Description: AutoCAD Mechanical 2004 DX|Company: Autodesk"
 90
    32768
280
     0
281
     0
  0
CLASS
  1
ACMSURFSTANDARDISO
  2
AcmSurfTextStdISO
  3
"Amdt_StdImp|Product Description: AutoCAD Mechanical 2004 DX|Company: Autodesk"
 90
        0
280
     0
281
     0
  0
CLASS
  1
ACMFCFSTANDARDISO
  2
AcmFCFStdISO
  3
"Amdt_StdImp|Product Description: AutoCAD Mechanical 2004 DX|Company: Autodesk"
 90
        0
280
     0
281
     0
  0
CLASS
  1
ACMWELDSTANDARDISO
  2
AcmWeldingStdISO
  3
"Amdt_StdImp|Product Description: AutoCAD Mechanical 2004 DX|Company: Autodesk"
 90
        0
280
     0
281
     0
  0
CLASS
  1
ACMIDSTANDARDISO
  2
AcmIdStdISO
  3
"Amdt_StdImp|Product Description: AutoCAD Mechanical 2004 DX|Company: Autodesk"
 90
        0
280
     0
281
     0
  0
CLASS
  1
ACMDATUMSTANDARDISO
  2
AcmDatumStdISO
  3
"Amdt_StdImp|Product Description: AutoCAD Mechanical 2004 DX|Company: Autodesk"
 90
        0
280
     0
281
     0
  0
CLASS
  1
ACMBOMSTANDARDISO
  2
AcmBOMStdISO
  3
"Amdt_StdImp|Product Description: AutoCAD Mechanical 2004 DX|Company: Autodesk"
 90
        0
280
     0
281
     0
  0
CLASS
  1
ACMDETAILSTANDARDISO
  2
AmdtDetailSymStdISO
  3
"Amdt_StdImp|Product Description: AutoCAD Mechanical 2004 DX|Company: Autodesk"
 90
        0
280
     0
281
     0
  0
CLASS
  1
ACMSECTIONSTANDARDISO
  2
AmdtSectionSymStdISO
  3
"Amdt_StdImp|Product Description: AutoCAD Mechanical 2004 DX|Company: Autodesk"
 90
        0
280
     0
281
     0
  0
CLASS
  1
ACMCENTERLINESTANDARDISO
  2
AmdtCenterLineStdISO
  3
"Amdt_StdImp|Product Description: AutoCAD Mechanical 2004 DX|Company: Autodesk"
 90
        0
280
     0
281
     0
  0
CLASS
  1
ACMNOTESTANDARDISO
  2
AmdtNoteStdISO
  3
"Amdt_StdImp|Product Description: AutoCAD Mechanical 2004 DX|Company: Autodesk"
 90
        0
280
     0
281
     0
  0
CLASS
  1
ACAMGHOLECHARTSTDISO
  2
AcAmgHoleChartStdISO
  3
ACMSYMBB_MODULE_NAME
 90
        0
280
     0
281
     0
  0
CLASS
  1
TABLESTYLE
  2
AcDbTableStyle
  3
ObjectDBX Classes
 90
     2047
280
     0
281
     0
  0
CLASS
  1
AM_DRAWING_MGR
  2
AcDmDwgMgr
  3
AcMechDwgViewMgmt
 90
        0
280
     0
281
     0
  0
CLASS
  1
AM_DWG_DOCUMENT
  2
AcDmDwgDocument
  3
AcMechDwgViewMgmt
 90
        0
280
     0
281
     0
  0
CLASS
  1
AM_DWG_SHEET
  2
AcDmSheet
  3
AcMechDwgViewMgmt
 90
        0
280
     0
281
     0
  0
CLASS
  1
AM_VIEWDIMPARMAP
  2
AcDmViewDimParMap
  3
AcMechDwgViewMgmt
 90
        0
280
     0
281
     0
  0
CLASS
  1
AM_DWGMGR_NAME
  2
AcDmDwgMgrName
  3
AcMechDwgViewMgmt
 90
        0
280
     0
281
     0
  0
CLASS
  1
AMDTMENUSTATEMGR
  2
AmdtMenuStateMgr
  3
McadcomServices
 90
        0
280
     0
281
     0
  0
CLASS
  1
AMDTMCOMMENUSTATE
  2
AmdtMcomMenuState
  3
McadcomServices
 90
        0
280
     0
281
     0
  0
CLASS
  1
MAPIAMMOUDLE
  2
MApiAmModule
  3
MApiAmServices
 90
        0
280
     0
281
     0
  0
CLASS
  1
AMDTADMENUSTATE
  2
AmdtAdMenuState
  3
DesignerServices
 90
        0
280
     0
281
     0
  0
CLASS
  1
ADAPPL
  2
AcAdAppl
  3
DesignerServices
 90
        0
280
     0
281
     0
  0
CLASS
  1
DEPMGR
  2
AcAdDepMgr
  3
DesignerServices
 90
        0
280
     0
281
     0
  0
CLASS
  1
PARAMMGR
  2
AcAdParamMgr
  3
DesignerServices
 90
        0
280
     0
281
     0
  0
CLASS
  1
PARAMSCOPE
  2
AcAdParamScope
  3
DesignerServices
 90
        0
280
     0
281
     0
  0
CLASS
  1
NAMEDAPPL
  2
AcAdNamedAppl
  3
DesignerServices
 90
        0
280
     0
281
     0
  0
CLASS
  1
AMDTDMMENUSTATE
  2
AmdtDmMenuState
  3
AcMechDwgViewMgmt
 90
        0
280
     0
281
     0
  0
CLASS
  1
AMDTAMMENUSTATE
  2
AmdtAmMenuState
  3
DesignerAssemblies
 90
        0
280
     0
281
     0
  0
CLASS
  1
ACAMPROJECT
  2
AcAmProject
  3
DesignerAssemblies
 90
        0
280
     0
281
     0
  0
CLASS
  1
ACAMGRCOMPDEF
  2
AcAmGrCompDef
  3
DesignerAssemblies
 90
        0
280
     0
281
     0
  0
CLASS
  1
ACCMCONTEXT
  2
AcCmContext
  3
DesignerAssemblies
 90
        0
280
     0
281
     0
  0
CLASS
  1
ACAMCOMPDEF
  2
AcAmCompDef
  3
DesignerAssemblies
 90
        0
280
     0
281
     0
  0
CLASS
  1
ACAMCOMPDEFMGR
  2
AcAmCompDefMgr
  3
DesignerAssemblies
 90
        0
280
     0
281
     0
  0
CLASS
  1
AMCONTEXTMGR
  2
AcAmContextMgr
  3
DesignerAssemblies
 90
        0
280
     0
281
     0
  0
CLASS
  1
ACAMCONTEXTMODELER
  2
AcAmContextModeler
  3
DesignerAssemblies
 90
        0
280
     0
281
     0
  0
CLASS
  1
CATALOGSTATE
  2
AcAmCatalogState
  3
DesignerAssemblies
 90
        0
280
     0
281
     0
  0
CLASS
  1
ACAMGRCOMPDEFSET
  2
AcAmGrCompDefSet
  3
DesignerAssemblies
 90
        0
280
     0
281
     0
  0
CLASS
  1
AMDTBROWSERDBTAB
  2
AmdtBrowserDbTab
  3
McadcomServices
 90
        0
280
     0
281
     0
  0
CLASS
  1
CBROWSERAPPOBJECT
  2
CBrowserAppObject
  3
McadcomServices
 90
        0
280
     0
281
     0
  0
CLASS
  1
DM_PLACEHOLDER
  2
AcDmSelsetPlaceholder
  3
AcMechDwgViewMgmt
 90
        0
280
     0
281
     0
  0
CLASS
  1
ACMTHREADLINESTANDARDANSI
  2
AmdtThreadLineStdANSI
  3
"Amdt_StdImp|Product Description: AutoCAD Mechanical 2004 DX|Company: Autodesk"
 90
    32768
280
     0
281
     0
  0
CLASS
  1
AMDTNOTETEMPLATEDB
  2
AmdtNoteTemplateDB
  3
AMDT_STDIMP_MODULE_NAME
 90
        0
280
     0
281
     0
  0
CLASS
  1
SORTENTSTABLE
  2
AcDbSortentsTable
  3
ObjectDBX Classes
 90
        0
280
     0
281
     0
  0
CLASS
  1
AMDTEDGESTANDARDISO13715
  2
AmdtEdgeStdISO13715
  3
"Amdt_StdImp|Product Description: AutoCAD Mechanical 2004 DX|Company: Autodesk"
 90
        0
280
     0
281
     0
  0
CLASS
  1
ACMTHREADLINESTANDARDISO
  2
AmdtThreadLineStdISO
  3
"Amdt_StdImp|Product Description: AutoCAD Mechanical 2004 DX|Company: Autodesk"
 90
        0
280
     0
281
     0
  0
CLASS
  1
ACRFATTGENMGR
  2
AcRfAttGeneralMgr
  3
AcAttribServices
 90
        0
280
     0
281
     0
  0
CLASS
  1
ACMDIMBREAKPERSREACTOR
  2
AcmDimBreakPersReactor
  3
amgDimApp().moduleName()
 90
    33791
280
     0
281
     0
  0
CLASS
  1
DIMASSOC
  2
AcDbDimAssoc
  3
"AcDbDimAssoc|Product Desc:     AcDim ARX App For Dimension|Company:          Autodesk, Inc.|WEB Address:      www.autodesk.com"
 90
        0
280
     0
281
     0
  0
ENDSEC
  0
SECTION
  2
TABLES
  0
TABLE
  2
VPORT
  5
2109
330
0
100
AcDbSymbolTable
 70
     3
  0
VPORT
  5
BCBD
330
2109
100
AcDbSymbolTableRecord
100
AcDbViewportTableRecord
  2
*Active
 70
     0
 10
0.0
 20
0.0
 11
1.0
 21
1.0
 12
284.8592825482656
 22
-450.8786602489456
 13
0.0
 23
0.0
 14
2.5
 24
2.5
 15
10.0
 25
10.0
 16
0.0
 26
0.0
 36
1.0
 17
0.0
 27
0.0
 37
0.0
 40
816.1472235112169
 41
0.8921052631578948
 42
50.0
 43
0.0
 44
0.0
 50
0.0
 51
0.0
 71
     0
 72
   100
 73
     1
 74
     1
 75
     0
 76
     0
 77
     0
 78
     0
281
     0
 65
     1
110
0.0
120
0.0
130
0.0
111
1.0
121
0.0
131
0.0
112
0.0
122
1.0
132
0.0
 79
     0
146
0.0
  0
ENDTAB
  0
TABLE
  2
LTYPE
  5
2106
330
0
100
AcDbSymbolTable
 70
    14
  0
LTYPE
  5
2114
330
2106
100
AcDbSymbolTableRecord
100
AcDbLinetypeTableRecord
  2
ByBlock
 70
     0
  3

 72
    65
 73
     0
 40
0.0
  0
LTYPE
  5
2115
330
2106
100
AcDbSymbolTableRecord
100
AcDbLinetypeTableRecord
  2
ByLayer
 70
     0
  3

 72
    65
 73
     0
 40
0.0
  0
LTYPE
  5
2116
330
2106
100
AcDbSymbolTableRecord
100
AcDbLinetypeTableRecord
  2
CONTINUOUS
 70
     0
  3
Solid line
 72
    65
 73
     0
 40
0.0
  0
LTYPE
  5
214C
330
2106
100
AcDbSymbolTableRecord
100
AcDbLinetypeTableRecord
  2
CENTER
 70
     0
  3
---- - ---- - ---- 3,-.3,.3,-.3
 72
    65
 73
     4
 40
3.9
 49
3.0
 74
     0
 49
-0.3
 74
     0
 49
0.3
 74
     0
 49
-0.3
 74
     0
  0
LTYPE
  5
214D
330
2106
100
AcDbSymbolTableRecord
100
AcDbLinetypeTableRecord
  2
HIDDEN
 70
     0
  3
_ _ _ _ _ _ _ _ _ _ _ _ _ _ _ _ _ _ _ _ _ _ _
 72
    65
 73
     2
 40
0.375
 49
0.25
 74
     0
 49
-0.125
 74
     0
  0
LTYPE
  5
23AE
330
2106
100
AcDbSymbolTableRecord
100
AcDbLinetypeTableRecord
  2
Amconstr
 70
     0
  3
_______________________
 72
    65
 73
     2
 40
9999.0
 49
9999.0
 74
     0
 49
0.0
 74
     0
  0
LTYPE
  5
23B4
330
2106
100
AcDbSymbolTableRecord
100
AcDbLinetypeTableRecord
  2
PHANTOM2
 70
     0
  3
Phantom (.5x) ___ _ _ ___ _ _ ___ _ _ ___ _ _
 72
    65
 73
     6
 40
1.25
 49
0.625
 74
     0
 49
-0.125
 74
     0
 49
0.125
 74
     0
 49
-0.125
 74
     0
 49
0.125
 74
     0
 49
-0.125
 74
     0
  0
LTYPE
  5
2B01
330
2106
100
AcDbSymbolTableRecord
100
AcDbLinetypeTableRecord
  2
AM_ISO02W050
 70
     0
  3
__ __ __ __ __ __ __ __ __ __ __ __ __ __ __
 72
    65
 73
     2
 40
7.5
 49
6.0
 74
     0
 49
-1.5
 74
     0
  0
LTYPE
  5
2B02
330
2106
100
AcDbSymbolTableRecord
100
AcDbLinetypeTableRecord
  2
AM_ISO08W050
 70
     0
  3
____ . ____ . ____ . ____ . ____ . ____ . ____
 72
    65
 73
     4
 40
18.0
 49
12.0
 74
     0
 49
-1.5
 74
     0
 49
3.0
 74
     0
 49
-1.5
 74
     0
  0
LTYPE
  5
2B03
330
2106
100
AcDbSymbolTableRecord
100
AcDbLinetypeTableRecord
  2
AM_ISO09W050
 70
     0
  3
_____ . . _____ . . _____ . . ____ .. ____
 72
    65
 73
     6
 40
22.5
 49
12.0
 74
     0
 49
-1.5
 74
     0
 49
3.0
 74
     0
 49
-1.5
 74
     0
 49
3.0
 74
     0
 49
-1.5
 74
     0
  0
LTYPE
  5
2B04
330
2106
100
AcDbSymbolTableRecord
100
AcDbLinetypeTableRecord
  2
AM_ISO08W050x2
 70
     0
  3
__ . __ . __ . __ . __ . __
 72
    65
 73
     4
 40
9.0
 49
6.0
 74
     0
 49
-0.75
 74
     0
 49
1.5
 74
     0
 49
-0.75
 74
     0
  0
LTYPE
  5
2B05
330
2106
100
AcDbSymbolTableRecord
100
AcDbLinetypeTableRecord
  2
AM_ISO02W050x2
 70
     0
  3
 _ _ _ _ _ _ _ _ _ _ _ _
 72
    65
 73
     2
 40
3.75
 49
3.0
 74
     0
 49
-0.75
 74
     0
  0
LTYPE
  5
2B06
330
2106
100
AcDbSymbolTableRecord
100
AcDbLinetypeTableRecord
  2
Amzigzag
 70
     0
  3
/\/-/\/-/\/-/\/-/\/-/\/
 72
    65
 73
     2
 40
11.0001
 49
0.0001
 74
     4
 75
   135
340
23B2
 46
0.04
 50
0.0
 44
0.0
 45
0.0
 49
-11.0
 74
     0
  0
LTYPE
  5
2B1E
330
2106
100
AcDbSymbolTableRecord
100
AcDbLinetypeTableRecord
  2
ACISOWELD
 70
     0
  3
_ _ _ _ _
 72
    65
 73
     2
 40
2.0
 49
2.0
 74
     0
 49
-1.0
 74
     0
  0
LTYPE
  5
2B1F
330
2106
100
AcDbSymbolTableRecord
100
AcDbLinetypeTableRecord
  2
ACISOTGB
 70
     0
  3
__ . . __ . .
 72
    65
 73
     6
 40
9.0
 49
4.0
 74
     0
 49
-1.0
 74
     0
 49
1.0
 74
     0
 49
-1.0
 74
     0
 49
1.0
 74
     0
 49
-1.0
 74
     0
  0
LTYPE
  5
2B20
330
2106
100
AcDbSymbolTableRecord
100
AcDbLinetypeTableRecord
  2
ACISOTGL
 70
     0
  3
_ _ _ _ _
 72
    65
 73
     2
 40
3.0
 49
2.0
 74
     0
 49
-1.0
 74
     0
  0
ENDTAB
  0
TABLE
  2
LAYER
  5
2103
102
{ACAD_XDICTIONARY
360
2B2B
102
}
330
0
100
AcDbSymbolTable
 70
    10
  0
LAYER
  5
2111
330
2103
100
AcDbSymbolTableRecord
100
AcDbLayerTableRecord
  2
0
 70
     0
 62
     7
  6
CONTINUOUS
370
    -3
390
2110
  0
LAYER
  5
2155
330
2103
100
AcDbSymbolTableRecord
100
AcDbLayerTableRecord
  2
DEFPOINTS
 70
     0
 62
     7
  6
CONTINUOUS
290
     0
370
    -3
390
2110
  0
LAYER
  5
215F
330
2103
100
AcDbSymbolTableRecord
100
AcDbLayerTableRecord
  2
LOGO
 70
     0
 62
     7
  6
CONTINUOUS
370
    -3
390
2110
  0
LAYER
  5
27B2
330
2103
100
AcDbSymbolTableRecord
100
AcDbLayerTableRecord
  2
AM_VIS
 70
     0
 62
     7
  6
CONTINUOUS
370
    50
390
2110
  0
LAYER
  5
27B3
330
2103
100
AcDbSymbolTableRecord
100
AcDbLayerTableRecord
  2
AM_7
 70
     0
 62
     1
  6
AM_ISO08W050x2
370
    25
390
2110
  0
LAYER
  5
2CA3
330
2103
100
AcDbSymbolTableRecord
100
AcDbLayerTableRecord
  2
AM_5
 70
     0
 62
     5
  6
CONTINUOUS
370
    50
390
2110
  0
LAYER
  5
2EB9
330
2103
100
AcDbSymbolTableRecord
100
AcDbLayerTableRecord
  2
AM_4
 70
     0
 62
     3
  6
CONTINUOUS
370
    25
390
2110
  0
LAYER
  5
5821
330
2103
100
AcDbSymbolTableRecord
100
AcDbLayerTableRecord
  2
ASHADE
 70
     4
 62
     7
  6
CONTINUOUS
370
    -3
390
2110
  0
LAYER
  5
8AC7
330
2103
100
AcDbSymbolTableRecord
100
AcDbLayerTableRecord
  2
HIDDEN
 70
     0
 62
     4
  6
AM_ISO02W050x2
370
    -3
390
2110
1001
AcAecLayerStandard
1000

1000

  0
ENDTAB
  0
TABLE
  2
STYLE
  5
2104
330
0
100
AcDbSymbolTable
 70
     6
  0
STYLE
  5
2112
330
2104
100
AcDbSymbolTableRecord
100
AcDbTextStyleTableRecord
  2
STANDARD
 70
     0
 40
0.0
 41
1.0
 50
0.0
 71
     0
 42
25.0
  3
ISOCP.SHX
  4
chineset.shx
  0
STYLE
  5
214B
330
2104
100
AcDbSymbolTableRecord
100
AcDbTextStyleTableRecord
  2
CHINESET
 70
     0
 40
0.0
 41
1.0
 50
0.0
 71
     0
 42
4.0
  3
simplex.shx
  4
chineset.shx
  0
STYLE
  5
23B2
330
2104
100
AcDbSymbolTableRecord
100
AcDbTextStyleTableRecord
  2

 70
     1
 40
0.0
 41
1.0
 50
0.0
 71
     0
 42
25.0
  3
ltypeshp.shx
  4

  0
STYLE
  5
2B21
330
2104
100
AcDbSymbolTableRecord
100
AcDbTextStyleTableRecord
  2
ACISOTS
 70
     0
 40
1.0
 41
1.0
 50
0.0
 71
     0
 42
2.5
  3
isocp.shx
  4
chineset.shx
  0
STYLE
  5
2B22
330
2104
100
AcDbSymbolTableRecord
100
AcDbTextStyleTableRecord
  2
ACISOGDT
 70
     0
 40
0.0
 41
1.0
 50
0.0
 71
     0
 42
2.5
  3
amgdt.shx
  4

  0
STYLE
  5
2EBA
330
2104
100
AcDbSymbolTableRecord
100
AcDbTextStyleTableRecord
  2
DAYUS
 70
     0
 40
0.0
 41
1.0
 50
0.0
 71
     0
 42
2.5
  3
simplex.shx
  4
dayus.shx
  0
ENDTAB
  0
TABLE
  2
VIEW
  5
2107
330
0
100
AcDbSymbolTable
 70
     0
  0
ENDTAB
  0
TABLE
  2
UCS
  5
2108
330
0
100
AcDbSymbolTable
 70
     0
  0
ENDTAB
  0
TABLE
  2
APPID
  5
210A
330
0
100
AcDbSymbolTable
 70
    25
  0
APPID
  5
2113
330
210A
100
AcDbSymbolTableRecord
100
AcDbRegAppTableRecord
  2
ACAD
 70
     0
  0
APPID
  5
238D
330
210A
100
AcDbSymbolTableRecord
100
AcDbRegAppTableRecord
  2
MCAD_NO_VIS
 70
     0
  0
APPID
  5
238E
330
210A
100
AcDbSymbolTableRecord
100
AcDbRegAppTableRecord
  2
ACAD_TEMP_GRAPHIC
 70
     0
  0
APPID
  5
239F
330
210A
100
AcDbSymbolTableRecord
100
AcDbRegAppTableRecord
  2
ACATTRIBSERVICES
 70
     0
  0
APPID
  5
2AD4
330
210A
100
AcDbSymbolTableRecord
100
AcDbRegAppTableRecord
  2
AD_DRAW
 70
     0
  0
APPID
  5
2AF2
330
210A
100
AcDbSymbolTableRecord
100
AcDbRegAppTableRecord
  2
DESIGNERASSEMBLIES
 70
     0
  0
APPID
  5
2AF7
330
210A
100
AcDbSymbolTableRecord
100
AcDbRegAppTableRecord
  2
ACADM_DIM_EDIT
 70
     0
  0
APPID
  5
2AF8
330
210A
100
AcDbSymbolTableRecord
100
AcDbRegAppTableRecord
  2
AMDT_DM_ADJ
 70
     0
  0
APPID
  5
2CC0
330
210A
100
AcDbSymbolTableRecord
100
AcDbRegAppTableRecord
  2
GENIUS_GENDTOL_13
 70
     0
  0
APPID
  5
2CEA
330
210A
100
AcDbSymbolTableRecord
100
AcDbRegAppTableRecord
  2
ACAD_DSTYLE_DIMTEXT_FILL
 70
     0
  0
APPID
  5
2EBB
330
210A
100
AcDbSymbolTableRecord
100
AcDbRegAppTableRecord
  2
ACAD_PSEXT
 70
     0
  0
APPID
  5
4EC0
330
210A
100
AcDbSymbolTableRecord
100
AcDbRegAppTableRecord
  2
GENIUS_GENDIMSH_14
 70
     0
  0
APPID
  5
581F
330
210A
100
AcDbSymbolTableRecord
100
AcDbRegAppTableRecord
  2
AVE_RENDER
 70
     0
  0
APPID
  5
5820
330
210A
100
AcDbSymbolTableRecord
100
AcDbRegAppTableRecord
  2
AVE_ENTITY_MATERIAL
 70
     0
  0
APPID
  5
582D
330
210A
100
AcDbSymbolTableRecord
100
AcDbRegAppTableRecord
  2
AVE_FINISH
 70
     0
  0
APPID
  5
582E
330
210A
100
AcDbSymbolTableRecord
100
AcDbRegAppTableRecord
  2
AVE_MATERIAL
 70
     0
  0
APPID
  5
582F
330
210A
100
AcDbSymbolTableRecord
100
AcDbRegAppTableRecord
  2
AVE_GLOBAL
 70
     0
  0
APPID
  5
5E1E
330
210A
100
AcDbSymbolTableRecord
100
AcDbRegAppTableRecord
  2
GENIUS_GENOENT_13
 70
     0
  0
APPID
  5
5E1F
330
210A
100
AcDbSymbolTableRecord
100
AcDbRegAppTableRecord
  2
GENIUS_GENOBJ-N-CRS_13
 70
     0
  0
APPID
  5
5E20
330
210A
100
AcDbSymbolTableRecord
100
AcDbRegAppTableRecord
  2
GENIUS_GENOLIS_13
 70
     0
  0
APPID
  5
5E21
330
210A
100
AcDbSymbolTableRecord
100
AcDbRegAppTableRecord
  2
GENIUS_GENODEF_13
 70
     0
  0
APPID
  5
5E22
330
210A
100
AcDbSymbolTableRecord
100
AcDbRegAppTableRecord
  2
GENIUS_GENOREF_13
 70
     0
  0
APPID
  5
5E23
330
210A
100
AcDbSymbolTableRecord
100
AcDbRegAppTableRecord
  2
GENIUS_GENREC_14
 70
     0
  0
APPID
  5
5E24
330
210A
100
AcDbSymbolTableRecord
100
AcDbRegAppTableRecord
  2
GENIUS_GENOBJ-N-REC_13
 70
     0
  0
APPID
  5
71B8
330
210A
100
AcDbSymbolTableRecord
100
AcDbRegAppTableRecord
  2
AcAecLayerStandard
 70
     0
  0
ENDTAB
  0
TABLE
  2
DIMSTYLE
  5
210B
330
0
100
AcDbSymbolTable
 70
     9
100
AcDbDimStyleTable
 71
     2
340
2B23
340
2154
  0
DIMSTYLE
105
2154
330
210B
100
AcDbSymbolTableRecord
100
AcDbDimStyleTableRecord
  2
STANDARD
 70
     0
 41
3.0
 42
2.0
 43
8.0
 44
2.0
 73
     0
 74
     0
 77
     1
 78
     8
140
3.0
141
2.5
143
0.0394
147
1.0
171
     4
176
   256
177
   256
178
   256
271
     2
272
     2
274
     4
279
     2
284
     8
285
     8
286
     8
340
2112
  0
DIMSTYLE
105
2B23
102
{ACAD_REACTORS
330
BBBB
102
}
330
210B
100
AcDbSymbolTableRecord
100
AcDbDimStyleTableRecord
  2
AM_ISO
 70
     0
  4
"
 40
1.5
 41
3.0
 42
1.0
 43
8.0
 44
1.0
 47
0.1
 48
0.1
 73
     0
 74
     0
 77
     1
 78
     8
 79
     2
140
3.5
141
0.0
143
0.0393701
146
0.71
147
1.0
172
     1
176
   256
177
   256
178
   256
271
     2
272
     2
283
     0
284
     8
340
2112
371
    -1
372
    -1
  0
DIMSTYLE
105
2B24
102
{ACAD_REACTORS
330
BBD5
102
}
330
210B
100
AcDbSymbolTableRecord
100
AcDbDimStyleTableRecord
  2
AM_ISO$3
 70
     0
  4
"
 40
1.5
 41
3.0
 42
1.0
 43
8.0
 44
1.0
 47
0.1
 48
0.1
 73
     0
 77
     1
 78
     8
 79
     2
140
3.5
141
0.0
143
0.0393701
146
0.71
147
1.0
176
   256
177
   256
178
   256
271
     2
272
     2
283
     0
284
     8
288
     1
289
     0
340
2112
371
    -1
372
    -1
  0
DIMSTYLE
105
2B25
330
210B
100
AcDbSymbolTableRecord
100
AcDbDimStyleTableRecord
  2
AM_ISO$4
 70
     0
  4
"
 40
1.5
 41
3.0
 42
1.0
 43
8.0
 44
1.0
 47
0.1
 48
0.1
 73
     0
 77
     1
 78
     8
 79
     2
140
3.5
141
0.0
143
0.0393701
146
0.71
147
1.0
176
   256
177
   256
178
   256
271
     2
272
     2
283
     0
284
     8
288
     1
289
     0
340
2112
371
    -1
372
    -1
  0
DIMSTYLE
105
2B26
330
210B
100
AcDbSymbolTableRecord
100
AcDbDimStyleTableRecord
  2
AM_ISO$6
 70
     0
  4
"
 40
1.5
 41
3.0
 42
1.0
 43
8.0
 44
1.0
 47
0.1
 48
0.1
 73
     0
 74
     0
 78
     8
 79
     2
140
3.5
141
0.0
143
0.0393701
146
0.71
147
1.0
172
     1
176
   256
177
   256
178
   256
271
     2
272
     2
283
     0
284
     8
340
2112
371
    -1
372
    -1
  0
DIMSTYLE
105
2B27
330
210B
100
AcDbSymbolTableRecord
100
AcDbDimStyleTableRecord
  2
AM_ISO$7
 70
     0
  4
"
 40
1.5
 41
3.0
 42
1.0
 43
8.0
 44
1.0
 47
0.1
 48
0.1
 73
     0
 74
     0
 77
     1
 78
     8
 79
     2
140
3.5
141
0.0
143
0.0393701
146
0.71
147
1.0
172
     1
176
   256
177
   256
178
   256
271
     2
272
     2
283
     0
284
     8
340
2112
371
    -1
372
    -1
  0
DIMSTYLE
105
2B28
330
210B
100
AcDbSymbolTableRecord
100
AcDbDimStyleTableRecord
  2
AM_ISO$SF
 70
     0
  4
"
 40
1.5
 41
2.5
 42
1.0
 43
10.0
 44
1.0
 47
0.1
 48
0.1
 73
     0
 74
     0
 75
     1
 76
     1
 77
     1
 78
     8
 79
     2
140
3.5
141
0.0
143
0.0393701
146
0.71
147
1.5
172
     1
176
   256
177
   256
178
     2
271
     2
272
     3
274
     4
283
     0
284
     8
340
2112
371
    -1
372
    -1
  0
DIMSTYLE
105
2B29
330
210B
100
AcDbSymbolTableRecord
100
AcDbDimStyleTableRecord
  2
AM_ISO$SH
 70
     0
  4
"
 40
1.5
 41
2.5
 42
1.0
 43
10.0
 44
1.0
 47
0.1
 48
0.1
 73
     0
 74
     0
 75
     1
 76
     1
 77
     1
 78
     8
 79
     2
140
3.5
141
0.0
143
0.0393701
144
2.0
146
0.71
147
1.5
172
     1
173
     1
176
   256
177
   256
178
     2
271
     2
272
     3
274
     4
283
     0
284
     8
340
2112
343
23CE
371
    -1
372
    -1
  0
DIMSTYLE
105
2B2A
102
{ACAD_REACTORS
330
BBA2
330
BBA5
330
BBA9
330
BBAC
330
BBAF
330
BBB2
330
BBB5
330
BBB8
330
BBC7
330
BBCA
330
BBCD
330
BBD0
330
BBDF
330
BBE2
102
}
330
210B
100
AcDbSymbolTableRecord
100
AcDbDimStyleTableRecord
  2
AM_ISO$0
 70
     0
  4
"
 40
1.5
 41
3.0
 42
1.0
 43
8.0
 44
1.0
 47
0.1
 48
0.1
 73
     0
 74
     0
 77
     1
 78
     8
 79
     2
140
3.5
141
0.0
143
0.0393701
146
0.71
147
1.0
172
     1
176
   256
177
   256
178
   256
271
     2
272
     2
283
     0
284
     8
340
2112
371
    -1
372
    -1
  0
ENDTAB
  0
TABLE
  2
BLOCK_RECORD
  5
2102
330
0
100
AcDbSymbolTable
 70
    49
  0
BLOCK_RECORD
  5
211F
102
{ACAD_XDICTIONARY
360
220B
102
}
330
2102
100
AcDbSymbolTableRecord
100
AcDbBlockTableRecord
  2
*Model_Space
340
2122
  0
BLOCK_RECORD
  5
211B
102
{ACAD_XDICTIONARY
360
220D
102
}
330
2102
100
AcDbSymbolTableRecord
100
AcDbBlockTableRecord
  2
*Paper_Space
340
211E
  0
BLOCK_RECORD
  5
23CE
330
2102
100
AcDbSymbolTableRecord
100
AcDbBlockTableRecord
  2
GENAXEH
340
0
  0
BLOCK_RECORD
  5
5822
330
2102
100
AcDbSymbolTableRecord
100
AcDbBlockTableRecord
  2
AVE_RENDER
340
0
102
{BLKREFS
331
5825
331
5826
331
5827
331
5828
331
5829
331
582A
331
582B
331
582C
102
}
  0
BLOCK_RECORD
  5
5830
330
2102
100
AcDbSymbolTableRecord
100
AcDbBlockTableRecord
  2
AVE_GLOBAL
340
0
102
{BLKREFS
331
5833
102
}
  0
BLOCK_RECORD
  5
BBE5
330
2102
100
AcDbSymbolTableRecord
100
AcDbBlockTableRecord
  2
*D33
340
0
  0
BLOCK_RECORD
  5
BBF1
330
2102
100
AcDbSymbolTableRecord
100
AcDbBlockTableRecord
  2
*D34
340
0
  0
BLOCK_RECORD
  5
BBFD
330
2102
100
AcDbSymbolTableRecord
100
AcDbBlockTableRecord
  2
*D35
340
0
  0
BLOCK_RECORD
  5
BC09
330
2102
100
AcDbSymbolTableRecord
100
AcDbBlockTableRecord
  2
*D36
340
0
  0
BLOCK_RECORD
  5
BC15
330
2102
100
AcDbSymbolTableRecord
100
AcDbBlockTableRecord
  2
*D37
340
0
  0
BLOCK_RECORD
  5
BC21
330
2102
100
AcDbSymbolTableRecord
100
AcDbBlockTableRecord
  2
*D38
340
0
  0
BLOCK_RECORD
  5
BC2D
330
2102
100
AcDbSymbolTableRecord
100
AcDbBlockTableRecord
  2
*D39
340
0
  0
BLOCK_RECORD
  5
BC39
330
2102
100
AcDbSymbolTableRecord
100
AcDbBlockTableRecord
  2
*D40
340
0
  0
BLOCK_RECORD
  5
BC45
330
2102
100
AcDbSymbolTableRecord
100
AcDbBlockTableRecord
  2
*D41
340
0
  0
BLOCK_RECORD
  5
BC51
330
2102
100
AcDbSymbolTableRecord
100
AcDbBlockTableRecord
  2
*D42
340
0
  0
BLOCK_RECORD
  5
BC5F
330
2102
100
AcDbSymbolTableRecord
100
AcDbBlockTableRecord
  2
*D43
340
0
  0
BLOCK_RECORD
  5
BC6B
330
2102
100
AcDbSymbolTableRecord
100
AcDbBlockTableRecord
  2
*D44
340
0
  0
BLOCK_RECORD
  5
BC77
330
2102
100
AcDbSymbolTableRecord
100
AcDbBlockTableRecord
  2
*D45
340
0
  0
BLOCK_RECORD
  5
BC83
330
2102
100
AcDbSymbolTableRecord
100
AcDbBlockTableRecord
  2
*D46
340
0
  0
BLOCK_RECORD
  5
BC8C
330
2102
100
AcDbSymbolTableRecord
100
AcDbBlockTableRecord
  2
*D47
340
0
  0
BLOCK_RECORD
  5
BC98
330
2102
100
AcDbSymbolTableRecord
100
AcDbBlockTableRecord
  2
*D48
340
0
  0
ENDTAB
  0
ENDSEC
  0
SECTION
  2
BLOCKS
  0
BLOCK
  5
215A
330
211F
100
AcDbEntity
  8
0
100
AcDbBlockBegin
  2
*Model_Space
 70
     0
 10
0.0
 20
0.0
 30
0.0
  3
*Model_Space
  1

  0
ENDBLK
  5
215B
330
211F
100
AcDbEntity
  8
0
100
AcDbBlockEnd
  0
BLOCK
  5
2158
330
211B
100
AcDbEntity
 67
     1
  8
0
100
AcDbBlockBegin
  2
*Paper_Space
 70
     0
 10
0.0
 20
0.0
 30
0.0
  3
*Paper_Space
  1

  0
ENDBLK
  5
2159
330
211B
100
AcDbEntity
 67
     1
  8
0
100
AcDbBlockEnd
  0
BLOCK
  5
23D0
330
23CE
100
AcDbEntity
  8
0
100
AcDbBlockBegin
  2
GENAXEH
 70
     0
 10
0.0
 20
0.0
 30
0.0
  3
GENAXEH
  1

  0
LINE
  5
23CF
330
23CE
100
AcDbEntity
  8
0
100
AcDbLine
 10
-1.0
 20
0.0
 30
0.0
 11
1.0
 21
0.0
 31
0.0
  0
ENDBLK
  5
23D1
330
23CE
100
AcDbEntity
  8
0
100
AcDbBlockEnd
  0
BLOCK
  5
5823
330
5822
100
AcDbEntity
  8
ASHADE
100
AcDbBlockBegin
  2
AVE_RENDER
 70
     0
 10
0.0
 20
0.0
 30
0.0
  3
AVE_RENDER
  1
AVE_RENDER
  0
ENDBLK
  5
5824
330
5822
100
AcDbEntity
  8
0
100
AcDbBlockEnd
  0
BLOCK
  5
5831
330
5830
100
AcDbEntity
  8
ASHADE
100
AcDbBlockBegin
  2
AVE_GLOBAL
 70
     0
 10
0.0
 20
0.0
 30
0.0
  3
AVE_GLOBAL
  1
AVE_GLOBAL
  0
ENDBLK
  5
5832
330
5830
100
AcDbEntity
  8
0
100
AcDbBlockEnd
  0
BLOCK
  5
BBEF
330
BBE5
100
AcDbEntity
  8
0
100
AcDbBlockBegin
  2
*D33
 70
     1
 10
0.0
 20
0.0
 30
0.0
  3
*D33
  1

  0
LINE
  5
BBE6
330
BBE5
100
AcDbEntity
  8
AM_5
100
AcDbLine
 10
145.3921487319921
 20
-513.384600017806
 30
0.0
 11
145.3921487319921
 21
-538.9846000178059
 31
0.0
  0
LINE
  5
BBE7
330
BBE5
100
AcDbEntity
  8
AM_5
100
AcDbLine
 10
176.4921487319921
 20
-527.984600017806
 30
0.0
 11
176.4921487319921
 21
-538.9846000178059
 31
0.0
  0
LINE
  5
BBE8
330
BBE5
100
AcDbEntity
  8
AM_5
100
AcDbLine
 10
149.2921487319921
 20
-537.684600017806
 30
0.0
 11
172.592148731992
 21
-537.684600017806
 31
0.0
  0
SOLID
  5
BBE9
330
BBE5
100
AcDbEntity
  8
AM_5
100
AcDbTrace
 10
149.2921487319921
 20
-537.034600017806
 30
0.0
 11
149.2921487319921
 21
-538.3346000178059
 31
0.0
 12
145.3921487319921
 22
-537.684600017806
 32
0.0
 13
145.3921487319921
 23
-537.684600017806
 33
0.0
  0
SOLID
  5
BBEA
330
BBE5
100
AcDbEntity
  8
AM_5
100
AcDbTrace
 10
172.592148731992
 20
-537.034600017806
 30
0.0
 11
172.592148731992
 21
-538.3346000178059
 31
0.0
 12
176.4921487319921
 22
-537.684600017806
 32
0.0
 13
176.4921487319921
 23
-537.684600017806
 33
0.0
  0
MTEXT
  5
BBEB
330
BBE5
100
AcDbEntity
  8
AM_5
100
AcDbMText
 10
160.9421487319921
 20
-534.1096000178059
 30
0.0
 40
4.549999999999999
 41
0.0
 71
     5
 72
     1
  1
31.1
 73
     1
 44
1.0
1001
ACAD
1000
MTEXTBEGIN
1070
    73
1070
     1
1070
    44
1040
1.0
1070
    74
1070
     0
1000
MTEXTEND
  0
POINT
  5
BBEC
330
BBE5
100
AcDbEntity
  8
DEFPOINTS
 62
     0
100
AcDbPoint
 10
145.3921487319921
 20
-512.0846000178061
 30
0.0
  0
POINT
  5
BBED
330
BBE5
100
AcDbEntity
  8
DEFPOINTS
 62
     0
100
AcDbPoint
 10
176.4921487319921
 20
-526.684600017806
 30
0.0
  0
POINT
  5
BBEE
330
BBE5
100
AcDbEntity
  8
DEFPOINTS
 62
     0
100
AcDbPoint
 10
176.4921487319921
 20
-537.684600017806
 30
0.0
  0
ENDBLK
  5
BBF0
330
BBE5
100
AcDbEntity
  8
0
100
AcDbBlockEnd
  0
BLOCK
  5
BBFB
330
BBF1
100
AcDbEntity
  8
0
100
AcDbBlockBegin
  2
*D34
 70
     1
 10
0.0
 20
0.0
 30
0.0
  3
*D34
  1

  0
LINE
  5
BBF2
330
BBF1
100
AcDbEntity
  8
AM_5
100
AcDbLine
 10
176.4921487319921
 20
-527.984600017806
 30
0.0
 11
176.4921487319921
 21
-538.9846000178059
 31
0.0
  0
LINE
  5
BBF3
330
BBF1
100
AcDbEntity
  8
AM_5
100
AcDbLine
 10
207.592148731992
 20
-513.384600017806
 30
0.0
 11
207.592148731992
 21
-538.9846000178059
 31
0.0
  0
LINE
  5
BBF4
330
BBF1
100
AcDbEntity
  8
AM_5
100
AcDbLine
 10
180.3921487319921
 20
-537.684600017806
 30
0.0
 11
203.692148731992
 21
-537.684600017806
 31
0.0
  0
SOLID
  5
BBF5
330
BBF1
100
AcDbEntity
  8
AM_5
100
AcDbTrace
 10
180.3921487319921
 20
-537.034600017806
 30
0.0
 11
180.3921487319921
 21
-538.3346000178059
 31
0.0
 12
176.4921487319921
 22
-537.684600017806
 32
0.0
 13
176.4921487319921
 23
-537.684600017806
 33
0.0
  0
SOLID
  5
BBF6
330
BBF1
100
AcDbEntity
  8
AM_5
100
AcDbTrace
 10
203.692148731992
 20
-537.034600017806
 30
0.0
 11
203.692148731992
 21
-538.3346000178059
 31
0.0
 12
207.592148731992
 22
-537.684600017806
 32
0.0
 13
207.592148731992
 23
-537.684600017806
 33
0.0
  0
MTEXT
  5
BBF7
330
BBF1
100
AcDbEntity
  8
AM_5
100
AcDbMText
 10
192.042148731992
 20
-534.1096000178059
 30
0.0
 40
4.549999999999999
 41
0.0
 71
     5
 72
     1
  1
31.1
 73
     1
 44
1.0
1001
ACAD
1000
MTEXTBEGIN
1070
    73
1070
     1
1070
    44
1040
1.0
1070
    74
1070
     0
1000
MTEXTEND
  0
POINT
  5
BBF8
330
BBF1
100
AcDbEntity
  8
DEFPOINTS
 62
     0
100
AcDbPoint
 10
176.4921487319921
 20
-526.684600017806
 30
0.0
  0
POINT
  5
BBF9
330
BBF1
100
AcDbEntity
  8
DEFPOINTS
 62
     0
100
AcDbPoint
 10
207.592148731992
 20
-512.0846000178061
 30
0.0
  0
POINT
  5
BBFA
330
BBF1
100
AcDbEntity
  8
DEFPOINTS
 62
     0
100
AcDbPoint
 10
207.592148731992
 20
-537.684600017806
 30
0.0
  0
ENDBLK
  5
BBFC
330
BBF1
100
AcDbEntity
  8
0
100
AcDbBlockEnd
  0
BLOCK
  5
BC07
330
BBFD
100
AcDbEntity
  8
0
100
AcDbBlockBegin
  2
*D35
 70
     1
 10
0.0
 20
0.0
 30
0.0
  3
*D35
  1

  0
LINE
  5
BBFE
330
BBFD
100
AcDbEntity
  8
AM_5
100
AcDbLine
 10
316.4968157423228
 20
-423.184600017806
 30
0.0
 11
351.7779273002798
 21
-423.184600017806
 31
0.0
  0
LINE
  5
BBFF
330
BBFD
100
AcDbEntity
  8
AM_5
100
AcDbLine
 10
339.7779273002798
 20
-461.184600017806
 30
0.0
 11
351.7779273002798
 21
-461.184600017806
 31
0.0
  0
LINE
  5
BC00
330
BBFD
100
AcDbEntity
  8
AM_5
100
AcDbLine
 10
350.4779273002798
 20
-427.0846000178059
 30
0.0
 11
350.4779273002798
 21
-457.284600017806
 31
0.0
  0
SOLID
  5
BC01
330
BBFD
100
AcDbEntity
  8
AM_5
100
AcDbTrace
 10
349.8279273002798
 20
-427.0846000178059
 30
0.0
 11
351.1279273002798
 21
-427.0846000178059
 31
0.0
 12
350.4779273002798
 22
-423.184600017806
 32
0.0
 13
350.4779273002798
 23
-423.184600017806
 33
0.0
  0
SOLID
  5
BC02
330
BBFD
100
AcDbEntity
  8
AM_5
100
AcDbTrace
 10
349.8279273002798
 20
-457.284600017806
 30
0.0
 11
351.1279273002798
 21
-457.284600017806
 31
0.0
 12
350.4779273002798
 22
-461.184600017806
 32
0.0
 13
350.4779273002798
 23
-461.184600017806
 33
0.0
  0
MTEXT
  5
BC03
330
BBFD
100
AcDbEntity
  8
AM_5
100
AcDbMText
 10
346.9029273002799
 20
-442.1846000178059
 30
0.0
 40
4.549999999999999
 41
0.0
 71
     5
 72
     1
  1
38
 11
0.0000000000000001
 21
1.0
 31
0.0
 73
     1
 44
1.0
1001
ACAD
1000
MTEXTBEGIN
1070
    73
1070
     1
1070
    44
1040
1.0
1070
    74
1070
     0
1000
MTEXTEND
  0
POINT
  5
BC04
330
BBFD
100
AcDbEntity
  8
DEFPOINTS
 62
     0
100
AcDbPoint
 10
315.1968157423228
 20
-423.184600017806
 30
0.0
  0
POINT
  5
BC05
330
BBFD
100
AcDbEntity
  8
DEFPOINTS
 62
     0
100
AcDbPoint
 10
338.4779273002798
 20
-461.184600017806
 30
0.0
  0
POINT
  5
BC06
330
BBFD
100
AcDbEntity
  8
DEFPOINTS
 62
     0
100
AcDbPoint
 10
350.4779273002798
 20
-461.184600017806
 30
0.0
  0
ENDBLK
  5
BC08
330
BBFD
100
AcDbEntity
  8
0
100
AcDbBlockEnd
  0
BLOCK
  5
BC13
330
BC09
100
AcDbEntity
  8
0
100
AcDbBlockBegin
  2
*D36
 70
     1
 10
0.0
 20
0.0
 30
0.0
  3
*D36
  1

  0
LINE
  5
BC0A
330
BC09
100
AcDbEntity
  8
AM_5
100
AcDbLine
 10
313.007550319861
 20
-497.584600017806
 30
0.0
 11
351.7779273002798
 21
-497.584600017806
 31
0.0
  0
LINE
  5
BC0B
330
BC09
100
AcDbEntity
  8
AM_5
100
AcDbLine
 10
339.7779273002798
 20
-461.184600017806
 30
0.0
 11
351.7779273002798
 21
-461.184600017806
 31
0.0
  0
LINE
  5
BC0C
330
BC09
100
AcDbEntity
  8
AM_5
100
AcDbLine
 10
350.4779273002798
 20
-493.6846000178061
 30
0.0
 11
350.4779273002798
 21
-465.0846000178059
 31
0.0
  0
SOLID
  5
BC0D
330
BC09
100
AcDbEntity
  8
AM_5
100
AcDbTrace
 10
349.8279273002798
 20
-493.6846000178061
 30
0.0
 11
351.1279273002798
 21
-493.6846000178061
 31
0.0
 12
350.4779273002798
 22
-497.584600017806
 32
0.0
 13
350.4779273002798
 23
-497.584600017806
 33
0.0
  0
SOLID
  5
BC0E
330
BC09
100
AcDbEntity
  8
AM_5
100
AcDbTrace
 10
349.8279273002798
 20
-465.0846000178059
 30
0.0
 11
351.1279273002798
 21
-465.0846000178059
 31
0.0
 12
350.4779273002798
 22
-461.184600017806
 32
0.0
 13
350.4779273002798
 23
-461.184600017806
 33
0.0
  0
MTEXT
  5
BC0F
330
BC09
100
AcDbEntity
  8
AM_5
100
AcDbMText
 10
346.9029273002799
 20
-479.384600017806
 30
0.0
 40
4.549999999999999
 41
0.0
 71
     5
 72
     1
  1
36.4
 11
0.0000000000000001
 21
1.0
 31
0.0
 73
     1
 44
1.0
1001
ACAD
1000
MTEXTBEGIN
1070
    73
1070
     1
1070
    44
1040
1.0
1070
    74
1070
     0
1000
MTEXTEND
  0
POINT
  5
BC10
330
BC09
100
AcDbEntity
  8
DEFPOINTS
 62
     0
100
AcDbPoint
 10
311.707550319861
 20
-497.584600017806
 30
0.0
  0
POINT
  5
BC11
330
BC09
100
AcDbEntity
  8
DEFPOINTS
 62
     0
100
AcDbPoint
 10
338.4779273002798
 20
-461.184600017806
 30
0.0
  0
POINT
  5
BC12
330
BC09
100
AcDbEntity
  8
DEFPOINTS
 62
     0
100
AcDbPoint
 10
350.4779273002798
 20
-461.184600017806
 30
0.0
  0
ENDBLK
  5
BC14
330
BC09
100
AcDbEntity
  8
0
100
AcDbBlockEnd
  0
BLOCK
  5
BC1F
330
BC15
100
AcDbEntity
  8
0
100
AcDbBlockBegin
  2
*D37
 70
     1
 10
0.0
 20
0.0
 30
0.0
  3
*D37
  1

  0
LINE
  5
BC16
330
BC15
100
AcDbEntity
  8
AM_5
100
AcDbLine
 10
316.0431848534245
 20
-525.684600017806
 30
0.0
 11
351.7779273002798
 21
-525.684600017806
 31
0.0
  0
LINE
  5
BC17
330
BC15
100
AcDbEntity
  8
AM_5
100
AcDbLine
 10
313.007550319861
 20
-497.584600017806
 30
0.0
 11
351.7779273002798
 21
-497.584600017806
 31
0.0
  0
LINE
  5
BC18
330
BC15
100
AcDbEntity
  8
AM_5
100
AcDbLine
 10
350.4779273002798
 20
-521.784600017806
 30
0.0
 11
350.4779273002798
 21
-501.484600017806
 31
0.0
  0
SOLID
  5
BC19
330
BC15
100
AcDbEntity
  8
AM_5
100
AcDbTrace
 10
349.8279273002798
 20
-521.784600017806
 30
0.0
 11
351.1279273002798
 21
-521.784600017806
 31
0.0
 12
350.4779273002798
 22
-525.684600017806
 32
0.0
 13
350.4779273002798
 23
-525.684600017806
 33
0.0
  0
SOLID
  5
BC1A
330
BC15
100
AcDbEntity
  8
AM_5
100
AcDbTrace
 10
349.8279273002798
 20
-501.484600017806
 30
0.0
 11
351.1279273002798
 21
-501.484600017806
 31
0.0
 12
350.4779273002798
 22
-497.584600017806
 32
0.0
 13
350.4779273002798
 23
-497.584600017806
 33
0.0
  0
MTEXT
  5
BC1B
330
BC15
100
AcDbEntity
  8
AM_5
100
AcDbMText
 10
346.9024794656342
 20
-511.6346000178059
 30
0.0
 40
4.549999999999999
 41
0.0
 71
     5
 72
     1
  1
28.1
 11
0.0000000000000001
 21
1.0
 31
0.0
 73
     1
 44
1.0
1001
ACAD
1000
MTEXTBEGIN
1070
    73
1070
     1
1070
    44
1040
1.0
1070
    74
1070
     0
1000
MTEXTEND
  0
POINT
  5
BC1C
330
BC15
100
AcDbEntity
  8
DEFPOINTS
 62
     0
100
AcDbPoint
 10
314.7431848534245
 20
-525.684600017806
 30
0.0
  0
POINT
  5
BC1D
330
BC15
100
AcDbEntity
  8
DEFPOINTS
 62
     0
100
AcDbPoint
 10
311.707550319861
 20
-497.584600017806
 30
0.0
  0
POINT
  5
BC1E
330
BC15
100
AcDbEntity
  8
DEFPOINTS
 62
     0
100
AcDbPoint
 10
350.4779273002798
 20
-497.584600017806
 30
0.0
  0
ENDBLK
  5
BC20
330
BC15
100
AcDbEntity
  8
0
100
AcDbBlockEnd
  0
BLOCK
  5
BC2B
330
BC21
100
AcDbEntity
  8
0
100
AcDbBlockBegin
  2
*D38
 70
     1
 10
0.0
 20
0.0
 30
0.0
  3
*D38
  1

  0
LINE
  5
BC22
330
BC21
100
AcDbEntity
  8
AM_5
100
AcDbLine
 10
335.9968157423227
 20
-451.884600017806
 30
0.0
 11
335.9968157423227
 21
-406.8846000178059
 31
0.0
  0
LINE
  5
BC23
330
BC21
100
AcDbEntity
  8
AM_5
100
AcDbLine
 10
299.4968157423227
 20
-418.884600017806
 30
0.0
 11
299.4968157423227
 21
-406.8846000178059
 31
0.0
  0
LINE
  5
BC24
330
BC21
100
AcDbEntity
  8
AM_5
100
AcDbLine
 10
332.0968157423227
 20
-408.1846000178059
 30
0.0
 11
303.3968157423227
 21
-408.1846000178059
 31
0.0
  0
SOLID
  5
BC25
330
BC21
100
AcDbEntity
  8
AM_5
100
AcDbTrace
 10
332.0968157423227
 20
-407.534600017806
 30
0.0
 11
332.0968157423227
 21
-408.8346000178059
 31
0.0
 12
335.9968157423227
 22
-408.1846000178059
 32
0.0
 13
335.9968157423227
 23
-408.1846000178059
 33
0.0
  0
SOLID
  5
BC26
330
BC21
100
AcDbEntity
  8
AM_5
100
AcDbTrace
 10
303.3968157423227
 20
-407.534600017806
 30
0.0
 11
303.3968157423227
 21
-408.8346000178059
 31
0.0
 12
299.4968157423227
 22
-408.1846000178059
 32
0.0
 13
299.4968157423227
 23
-408.1846000178059
 33
0.0
  0
MTEXT
  5
BC27
330
BC21
100
AcDbEntity
  8
AM_5
100
AcDbMText
 10
317.7468157423227
 20
-404.609600017806
 30
0.0
 40
4.549999999999999
 41
0.0
 71
     5
 72
     1
  1
36.5
 73
     1
 44
1.0
1001
ACAD
1000
MTEXTBEGIN
1070
    73
1070
     1
1070
    44
1040
1.0
1070
    74
1070
     0
1000
MTEXTEND
  0
POINT
  5
BC28
330
BC21
100
AcDbEntity
  8
DEFPOINTS
 62
     0
100
AcDbPoint
 10
335.9968157423227
 20
-453.184600017806
 30
0.0
  0
POINT
  5
BC29
330
BC21
100
AcDbEntity
  8
DEFPOINTS
 62
     0
100
AcDbPoint
 10
299.4968157423227
 20
-420.1846000178059
 30
0.0
  0
POINT
  5
BC2A
330
BC21
100
AcDbEntity
  8
DEFPOINTS
 62
     0
100
AcDbPoint
 10
299.4968157423227
 20
-408.1846000178059
 30
0.0
  0
ENDBLK
  5
BC2C
330
BC21
100
AcDbEntity
  8
0
100
AcDbBlockEnd
  0
BLOCK
  5
BC37
330
BC2D
100
AcDbEntity
  8
0
100
AcDbBlockBegin
  2
*D39
 70
     1
 10
0.0
 20
0.0
 30
0.0
  3
*D39
  1

  0
LINE
  5
BC2E
330
BC2D
100
AcDbEntity
  8
AM_5
100
AcDbLine
 10
299.4968157423227
 20
-418.884600017806
 30
0.0
 11
299.4968157423227
 21
-406.8846000178059
 31
0.0
  0
LINE
  5
BC2F
330
BC2D
100
AcDbEntity
  8
AM_5
100
AcDbLine
 10
264.3968157423228
 20
-481.0846000178058
 30
0.0
 11
264.3968157423228
 21
-406.8846000178059
 31
0.0
  0
LINE
  5
BC30
330
BC2D
100
AcDbEntity
  8
AM_5
100
AcDbLine
 10
295.5968157423228
 20
-408.1846000178059
 30
0.0
 11
268.2968157423228
 21
-408.1846000178059
 31
0.0
  0
SOLID
  5
BC31
330
BC2D
100
AcDbEntity
  8
AM_5
100
AcDbTrace
 10
295.5968157423228
 20
-407.534600017806
 30
0.0
 11
295.5968157423228
 21
-408.8346000178059
 31
0.0
 12
299.4968157423227
 22
-408.1846000178059
 32
0.0
 13
299.4968157423227
 23
-408.1846000178059
 33
0.0
  0
SOLID
  5
BC32
330
BC2D
100
AcDbEntity
  8
AM_5
100
AcDbTrace
 10
268.2968157423228
 20
-407.534600017806
 30
0.0
 11
268.2968157423228
 21
-408.8346000178059
 31
0.0
 12
264.3968157423228
 22
-408.1846000178059
 32
0.0
 13
264.3968157423228
 23
-408.1846000178059
 33
0.0
  0
MTEXT
  5
BC33
330
BC2D
100
AcDbEntity
  8
AM_5
100
AcDbMText
 10
281.9468157423228
 20
-404.609600017806
 30
0.0
 40
4.549999999999999
 41
0.0
 71
     5
 72
     1
  1
35.1
 73
     1
 44
1.0
1001
ACAD
1000
MTEXTBEGIN
1070
    73
1070
     1
1070
    44
1040
1.0
1070
    74
1070
     0
1000
MTEXTEND
  0
POINT
  5
BC34
330
BC2D
100
AcDbEntity
  8
DEFPOINTS
 62
     0
100
AcDbPoint
 10
299.4968157423227
 20
-420.1846000178059
 30
0.0
  0
POINT
  5
BC35
330
BC2D
100
AcDbEntity
  8
DEFPOINTS
 62
     0
100
AcDbPoint
 10
264.3968157423228
 20
-482.3846000178058
 30
0.0
  0
POINT
  5
BC36
330
BC2D
100
AcDbEntity
  8
DEFPOINTS
 62
     0
100
AcDbPoint
 10
264.3968157423228
 20
-408.1846000178059
 30
0.0
  0
ENDBLK
  5
BC38
330
BC2D
100
AcDbEntity
  8
0
100
AcDbBlockEnd
  0
BLOCK
  5
BC43
330
BC39
100
AcDbEntity
  8
0
100
AcDbBlockBegin
  2
*D40
 70
     1
 10
0.0
 20
0.0
 30
0.0
  3
*D40
  1

  0
LINE
  5
BC3A
330
BC39
100
AcDbEntity
  8
AM_5
100
AcDbLine
 10
204.2921487319921
 20
-299.7594273313849
 30
0.0
 11
229.7329028728778
 21
-299.7594273313849
 31
0.0
  0
LINE
  5
BC3B
330
BC39
100
AcDbEntity
  8
AM_5
100
AcDbLine
 10
188.2921487319921
 20
-371.3594273313851
 30
0.0
 11
229.7329028728777
 21
-371.3594273313851
 31
0.0
  0
LINE
  5
BC3C
330
BC39
100
AcDbEntity
  8
AM_5
100
AcDbLine
 10
228.4329028728778
 20
-303.6594273313849
 30
0.0
 11
228.4329028728778
 21
-367.4594273313851
 31
0.0
  0
SOLID
  5
BC3D
330
BC39
100
AcDbEntity
  8
AM_5
100
AcDbTrace
 10
227.7829028728778
 20
-303.6594273313849
 30
0.0
 11
229.0829028728778
 21
-303.6594273313849
 31
0.0
 12
228.4329028728778
 22
-299.7594273313849
 32
0.0
 13
228.4329028728778
 23
-299.7594273313849
 33
0.0
  0
SOLID
  5
BC3E
330
BC39
100
AcDbEntity
  8
AM_5
100
AcDbTrace
 10
227.7829028728778
 20
-367.4594273313851
 30
0.0
 11
229.0829028728778
 21
-367.4594273313851
 31
0.0
 12
228.4329028728778
 22
-371.3594273313851
 32
0.0
 13
228.4329028728778
 23
-371.3594273313851
 33
0.0
  0
MTEXT
  5
BC3F
330
BC39
100
AcDbEntity
  8
AM_5
100
AcDbMText
 10
224.8579028728778
 20
-335.5594273313849
 30
0.0
 40
4.549999999999999
 41
0.0
 71
     5
 72
     1
  1
71.6
 11
0.0000000000000001
 21
1.0
 31
0.0
 73
     1
 44
1.0
1001
ACAD
1000
MTEXTBEGIN
1070
    73
1070
     1
1070
    44
1040
1.0
1070
    74
1070
     0
1000
MTEXTEND
  0
POINT
  5
BC40
330
BC39
100
AcDbEntity
  8
DEFPOINTS
 62
     0
100
AcDbPoint
 10
202.9921487319921
 20
-299.7594273313849
 30
0.0
  0
POINT
  5
BC41
330
BC39
100
AcDbEntity
  8
DEFPOINTS
 62
     0
100
AcDbPoint
 10
186.9921487319921
 20
-371.3594273313851
 30
0.0
  0
POINT
  5
BC42
330
BC39
100
AcDbEntity
  8
DEFPOINTS
 62
     0
100
AcDbPoint
 10
228.4329028728778
 20
-371.3594273313851
 30
0.0
  0
ENDBLK
  5
BC44
330
BC39
100
AcDbEntity
  8
0
100
AcDbBlockEnd
  0
BLOCK
  5
BC4F
330
BC45
100
AcDbEntity
  8
0
100
AcDbBlockBegin
  2
*D41
 70
     1
 10
0.0
 20
0.0
 30
0.0
  3
*D41
  1

  0
LINE
  5
BC46
330
BC45
100
AcDbEntity
  8
AM_5
100
AcDbLine
 10
207.592148731992
 20
-320.4594273313849
 30
0.0
 11
207.592148731992
 21
-266.4594273313849
 31
0.0
  0
LINE
  5
BC47
330
BC45
100
AcDbEntity
  8
AM_5
100
AcDbLine
 10
145.3921487319921
 20
-320.4594273313849
 30
0.0
 11
145.3921487319921
 21
-266.4594273313849
 31
0.0
  0
LINE
  5
BC48
330
BC45
100
AcDbEntity
  8
AM_5
100
AcDbLine
 10
203.692148731992
 20
-267.7594273313849
 30
0.0
 11
149.2921487319921
 21
-267.7594273313849
 31
0.0
  0
SOLID
  5
BC49
330
BC45
100
AcDbEntity
  8
AM_5
100
AcDbTrace
 10
203.692148731992
 20
-267.1094273313849
 30
0.0
 11
203.692148731992
 21
-268.4094273313849
 31
0.0
 12
207.592148731992
 22
-267.7594273313849
 32
0.0
 13
207.592148731992
 23
-267.7594273313849
 33
0.0
  0
SOLID
  5
BC4A
330
BC45
100
AcDbEntity
  8
AM_5
100
AcDbTrace
 10
149.2921487319921
 20
-267.1094273313849
 30
0.0
 11
149.2921487319921
 21
-268.4094273313849
 31
0.0
 12
145.3921487319921
 22
-267.7594273313849
 32
0.0
 13
145.3921487319921
 23
-267.7594273313849
 33
0.0
  0
MTEXT
  5
BC4B
330
BC45
100
AcDbEntity
  8
AM_5
100
AcDbMText
 10
176.4921487319921
 20
-264.1839794967392
 30
0.0
 40
4.549999999999999
 41
0.0
 71
     5
 72
     1
  1
62.2
 73
     1
 44
1.0
1001
ACAD
1000
MTEXTBEGIN
1070
    73
1070
     1
1070
    44
1040
1.0
1070
    74
1070
     0
1000
MTEXTEND
  0
POINT
  5
BC4C
330
BC45
100
AcDbEntity
  8
DEFPOINTS
 62
     0
100
AcDbPoint
 10
207.592148731992
 20
-321.7594273313849
 30
0.0
  0
POINT
  5
BC4D
330
BC45
100
AcDbEntity
  8
DEFPOINTS
 62
     0
100
AcDbPoint
 10
145.3921487319921
 20
-321.7594273313849
 30
0.0
  0
POINT
  5
BC4E
330
BC45
100
AcDbEntity
  8
DEFPOINTS
 62
     0
100
AcDbPoint
 10
145.3921487319921
 20
-267.7594273313849
 30
0.0
  0
ENDBLK
  5
BC50
330
BC45
100
AcDbEntity
  8
0
100
AcDbBlockEnd
  0
BLOCK
  5
BC5D
330
BC51
100
AcDbEntity
  8
0
100
AcDbBlockBegin
  2
*D42
 70
     1
 10
0.0
 20
0.0
 30
0.0
  3
*D42
  1

  0
LINE
  5
BC52
330
BC51
100
AcDbEntity
  8
AM_5
100
AcDbLine
 10
197.7921487319921
 20
-464.4346000178059
 30
0.0
 11
216.0421487319921
 21
-464.4346000178059
 31
0.0
  0
LINE
  5
BC53
330
BC51
100
AcDbEntity
  8
AM_5
100
AcDbLine
 10
197.7921487319921
 20
-457.934600017806
 30
0.0
 11
216.0421487319921
 21
-457.934600017806
 31
0.0
  0
LINE
  5
BC54
330
BC51
100
AcDbEntity
  8
AM_5
100
AcDbLine
 10
214.7421487319921
 20
-468.334600017806
 30
0.0
 11
214.7421487319921
 21
-472.234600017806
 31
0.0
  0
LINE
  5
BC55
330
BC51
100
AcDbEntity
  8
AM_5
100
AcDbLine
 10
214.7421487319921
 20
-454.034600017806
 30
0.0
 11
214.7421487319921
 21
-440.7038493823592
 31
0.0
  0
LINE
  5
BC56
330
BC51
100
AcDbEntity
  8
AM_5
100
AcDbLine
 10
214.7421487319921
 20
-464.4346000178059
 30
0.0
 11
214.7421487319921
 21
-457.934600017806
 31
0.0
  0
SOLID
  5
BC57
330
BC51
100
AcDbEntity
  8
AM_5
100
AcDbTrace
 10
214.0921487319921
 20
-468.334600017806
 30
0.0
 11
215.3921487319921
 21
-468.334600017806
 31
0.0
 12
214.7421487319921
 22
-464.4346000178059
 32
0.0
 13
214.7421487319921
 23
-464.4346000178059
 33
0.0
  0
SOLID
  5
BC58
330
BC51
100
AcDbEntity
  8
AM_5
100
AcDbTrace
 10
214.0921487319921
 20
-454.034600017806
 30
0.0
 11
215.3921487319921
 21
-454.034600017806
 31
0.0
 12
214.7421487319921
 22
-457.934600017806
 32
0.0
 13
214.7421487319921
 23
-457.934600017806
 33
0.0
  0
MTEXT
  5
BC59
330
BC51
100
AcDbEntity
  8
AM_5
100
AcDbMText
 10
211.1671487319922
 20
-445.4192247000825
 30
0.0
 40
4.549999999999999
 41
0.0
 71
     5
 72
     1
  1
6.5
 11
0.0000000000000001
 21
1.0
 31
0.0
 73
     1
 44
1.0
1001
ACAD
1000
MTEXTBEGIN
1070
    73
1070
     1
1070
    44
1040
1.0
1070
    74
1070
     0
1000
MTEXTEND
  0
POINT
  5
BC5A
330
BC51
100
AcDbEntity
  8
DEFPOINTS
 62
     0
100
AcDbPoint
 10
196.492148731992
 20
-464.4346000178059
 30
0.0
  0
POINT
  5
BC5B
330
BC51
100
AcDbEntity
  8
DEFPOINTS
 62
     0
100
AcDbPoint
 10
196.492148731992
 20
-457.934600017806
 30
0.0
  0
POINT
  5
BC5C
330
BC51
100
AcDbEntity
  8
DEFPOINTS
 62
     0
100
AcDbPoint
 10
214.7421487319921
 20
-457.934600017806
 30
0.0
  0
ENDBLK
  5
BC5E
330
BC51
100
AcDbEntity
  8
0
100
AcDbBlockEnd
  0
BLOCK
  5
BC69
330
BC5F
100
AcDbEntity
  8
0
100
AcDbBlockBegin
  2
*D43
 70
     1
 10
0.0
 20
0.0
 30
0.0
  3
*D43
  1

  0
LINE
  5
BC60
330
BC5F
100
AcDbEntity
  8
AM_5
100
AcDbLine
 10
159.492148731992
 20
-423.184600017806
 30
0.0
 11
132.0921487319921
 21
-423.184600017806
 31
0.0
  0
LINE
  5
BC61
330
BC5F
100
AcDbEntity
  8
AM_5
100
AcDbLine
 10
161.692148731992
 20
-492.8846000178058
 30
0.0
 11
132.0921487319921
 21
-492.8846000178058
 31
0.0
  0
LINE
  5
BC62
330
BC5F
100
AcDbEntity
  8
AM_5
100
AcDbLine
 10
133.3921487319922
 20
-427.0846000178059
 30
0.0
 11
133.3921487319921
 21
-488.9846000178058
 31
0.0
  0
SOLID
  5
BC63
330
BC5F
100
AcDbEntity
  8
AM_5
100
AcDbTrace
 10
132.7421487319922
 20
-427.0846000178059
 30
0.0
 11
134.0421487319922
 21
-427.0846000178059
 31
0.0
 12
133.3921487319922
 22
-423.184600017806
 32
0.0
 13
133.3921487319922
 23
-423.184600017806
 33
0.0
  0
SOLID
  5
BC64
330
BC5F
100
AcDbEntity
  8
AM_5
100
AcDbTrace
 10
132.7421487319921
 20
-488.9846000178058
 30
0.0
 11
134.0421487319922
 21
-488.9846000178058
 31
0.0
 12
133.3921487319921
 22
-492.8846000178058
 32
0.0
 13
133.3921487319921
 23
-492.8846000178058
 33
0.0
  0
MTEXT
  5
BC65
330
BC5F
100
AcDbEntity
  8
AM_5
100
AcDbMText
 10
129.8171487319922
 20
-458.0346000178058
 30
0.0
 40
4.549999999999999
 41
0.0
 71
     5
 72
     1
  1
69.7
 11
0.0000000000000001
 21
1.0
 31
0.0
 73
     1
 44
1.0
1001
ACAD
1000
MTEXTBEGIN
1070
    73
1070
     1
1070
    44
1040
1.0
1070
    74
1070
     0
1000
MTEXTEND
  0
POINT
  5
BC66
330
BC5F
100
AcDbEntity
  8
DEFPOINTS
 62
     0
100
AcDbPoint
 10
160.792148731992
 20
-423.184600017806
 30
0.0
  0
POINT
  5
BC67
330
BC5F
100
AcDbEntity
  8
DEFPOINTS
 62
     0
100
AcDbPoint
 10
162.992148731992
 20
-492.8846000178058
 30
0.0
  0
POINT
  5
BC68
330
BC5F
100
AcDbEntity
  8
DEFPOINTS
 62
     0
100
AcDbPoint
 10
133.3921487319921
 20
-492.8846000178058
 30
0.0
  0
ENDBLK
  5
BC6A
330
BC5F
100
AcDbEntity
  8
0
100
AcDbBlockEnd
  0
BLOCK
  5
BC75
330
BC6B
100
AcDbEntity
  8
0
100
AcDbBlockBegin
  2
*D44
 70
     1
 10
0.0
 20
0.0
 30
0.0
  3
*D44
  1

  0
LINE
  5
BC6C
330
BC6B
100
AcDbEntity
  8
AM_5
100
AcDbLine
 10
161.692148731992
 20
-492.8846000178058
 30
0.0
 11
132.0921487319921
 21
-492.8846000178058
 31
0.0
  0
LINE
  5
BC6D
330
BC6B
100
AcDbEntity
  8
AM_5
100
AcDbLine
 10
159.9457796208905
 20
-525.684600017806
 30
0.0
 11
132.0921487319921
 21
-525.684600017806
 31
0.0
  0
LINE
  5
BC6E
330
BC6B
100
AcDbEntity
  8
AM_5
100
AcDbLine
 10
133.3921487319921
 20
-496.7846000178058
 30
0.0
 11
133.3921487319921
 21
-521.784600017806
 31
0.0
  0
SOLID
  5
BC6F
330
BC6B
100
AcDbEntity
  8
AM_5
100
AcDbTrace
 10
132.7421487319921
 20
-496.7846000178058
 30
0.0
 11
134.0421487319922
 21
-496.7846000178058
 31
0.0
 12
133.3921487319921
 22
-492.8846000178058
 32
0.0
 13
133.3921487319921
 23
-492.8846000178058
 33
0.0
  0
SOLID
  5
BC70
330
BC6B
100
AcDbEntity
  8
AM_5
100
AcDbTrace
 10
132.7421487319921
 20
-521.784600017806
 30
0.0
 11
134.0421487319922
 21
-521.784600017806
 31
0.0
 12
133.3921487319921
 22
-525.684600017806
 32
0.0
 13
133.3921487319921
 23
-525.684600017806
 33
0.0
  0
MTEXT
  5
BC71
330
BC6B
100
AcDbEntity
  8
AM_5
100
AcDbMText
 10
129.8167008973466
 20
-509.2846000178059
 30
0.0
 40
4.549999999999999
 41
0.0
 71
     5
 72
     1
  1
32.8
 11
0.0000000000000001
 21
1.0
 31
0.0
 73
     1
 44
1.0
1001
ACAD
1000
MTEXTBEGIN
1070
    73
1070
     1
1070
    44
1040
1.0
1070
    74
1070
     0
1000
MTEXTEND
  0
POINT
  5
BC72
330
BC6B
100
AcDbEntity
  8
DEFPOINTS
 62
     0
100
AcDbPoint
 10
162.992148731992
 20
-492.8846000178058
 30
0.0
  0
POINT
  5
BC73
330
BC6B
100
AcDbEntity
  8
DEFPOINTS
 62
     0
100
AcDbPoint
 10
161.2457796208905
 20
-525.684600017806
 30
0.0
  0
POINT
  5
BC74
330
BC6B
100
AcDbEntity
  8
DEFPOINTS
 62
     0
100
AcDbPoint
 10
133.3921487319921
 20
-525.684600017806
 30
0.0
  0
ENDBLK
  5
BC76
330
BC6B
100
AcDbEntity
  8
0
100
AcDbBlockEnd
  0
BLOCK
  5
BC81
330
BC77
100
AcDbEntity
  8
0
100
AcDbBlockBegin
  2
*D45
 70
     1
 10
0.0
 20
0.0
 30
0.0
  3
*D45
  1

  0
LINE
  5
BC78
330
BC77
100
AcDbEntity
  8
AM_5
100
AcDbLine
 10
149.992148731992
 20
-456.8846000178059
 30
0.0
 11
149.992148731992
 21
-406.8846000178062
 31
0.0
  0
LINE
  5
BC79
330
BC77
100
AcDbEntity
  8
AM_5
100
AcDbLine
 10
202.9921487319921
 20
-456.8846000178059
 30
0.0
 11
202.9921487319921
 21
-406.8846000178062
 31
0.0
  0
LINE
  5
BC7A
330
BC77
100
AcDbEntity
  8
AM_5
100
AcDbLine
 10
153.8921487319921
 20
-408.1846000178062
 30
0.0
 11
199.0921487319921
 21
-408.1846000178062
 31
0.0
  0
SOLID
  5
BC7B
330
BC77
100
AcDbEntity
  8
AM_5
100
AcDbTrace
 10
153.8921487319921
 20
-407.5346000178062
 30
0.0
 11
153.8921487319921
 21
-408.8346000178062
 31
0.0
 12
149.992148731992
 22
-408.1846000178062
 32
0.0
 13
149.992148731992
 23
-408.1846000178062
 33
0.0
  0
SOLID
  5
BC7C
330
BC77
100
AcDbEntity
  8
AM_5
100
AcDbTrace
 10
199.0921487319921
 20
-407.5346000178062
 30
0.0
 11
199.0921487319921
 21
-408.8346000178062
 31
0.0
 12
202.9921487319921
 22
-408.1846000178062
 32
0.0
 13
202.9921487319921
 23
-408.1846000178062
 33
0.0
  0
MTEXT
  5
BC7D
330
BC77
100
AcDbEntity
  8
AM_5
100
AcDbMText
 10
176.4921487319921
 20
-404.6096000178062
 30
0.0
 40
4.549999999999999
 41
0.0
 71
     5
 72
     1
  1
53
 73
     1
 44
1.0
1001
ACAD
1000
MTEXTBEGIN
1070
    73
1070
     1
1070
    44
1040
1.0
1070
    74
1070
     0
1000
MTEXTEND
  0
POINT
  5
BC7E
330
BC77
100
AcDbEntity
  8
DEFPOINTS
 62
     0
100
AcDbPoint
 10
149.992148731992
 20
-458.1846000178059
 30
0.0
  0
POINT
  5
BC7F
330
BC77
100
AcDbEntity
  8
DEFPOINTS
 62
     0
100
AcDbPoint
 10
202.9921487319921
 20
-458.1846000178059
 30
0.0
  0
POINT
  5
BC80
330
BC77
100
AcDbEntity
  8
DEFPOINTS
 62
     0
100
AcDbPoint
 10
202.9921487319921
 20
-408.1846000178062
 30
0.0
  0
ENDBLK
  5
BC82
330
BC77
100
AcDbEntity
  8
0
100
AcDbBlockEnd
  0
BLOCK
  5
BC8A
330
BC83
100
AcDbEntity
  8
0
100
AcDbBlockBegin
  2
*D46
 70
     1
 10
0.0
 20
0.0
 30
0.0
  3
*D46
  1

  0
LINE
  5
BCA5
330
BC83
100
AcDbEntity
  8
AM_5
100
AcDbLine
 10
289.5343528550263
 20
-507.2778622766764
 30
0.0
 11
266.6079103890459
 21
-529.5847980213531
 31
0.0
  0
LINE
  5
BCA6
330
BC83
100
AcDbEntity
  8
AM_5
100
AcDbLine
 10
266.6079103890459
 20
-529.5847980213531
 30
0.0
 11
243.8073690504632
 21
-529.5847980213531
 31
0.0
  0
SOLID
  5
BCA7
330
BC83
100
AcDbEntity
  8
AM_5
100
AcDbTrace
 10
289.0810708069496
 20
-506.8119917100043
 30
0.0
 11
289.9876349031029
 21
-507.7437328433486
 31
0.0
 12
292.3295762550591
 22
-504.5581699882164
 32
0.0
 13
292.3295762550591
 23
-504.5581699882164
 33
0.0
  0
MTEXT
  5
BCA8
330
BC83
100
AcDbEntity
  8
AM_5
100
AcDbMText
 10
254.5576397197547
 20
-526.0093501867077
 30
0.0
 40
4.549999999999999
 41
0.0
 71
     5
 72
     1
  1
2-PT1/4
 73
     1
 44
1.0
1001
ACAD
1000
MTEXTBEGIN
1070
    73
1070
     1
1070
    44
1040
1.0
1070
    74
1070
     0
1000
MTEXTEND
  0
POINT
  5
BCA9
330
BC83
100
AcDbEntity
  8
DEFPOINTS
 62
     0
100
AcDbPoint
 10
292.3295762550591
 20
-504.5581699882164
 30
0.0
  0
POINT
  5
BCAA
330
BC83
100
AcDbEntity
  8
DEFPOINTS
 62
     0
100
AcDbPoint
 10
306.6640552295853
 20
-490.6110300473968
 30
0.0
  0
ENDBLK
  5
BC8B
330
BC83
100
AcDbEntity
  8
0
100
AcDbBlockEnd
  0
BLOCK
  5
BC96
330
BC8C
100
AcDbEntity
  8
0
100
AcDbBlockBegin
  2
*D47
 70
     1
 10
0.0
 20
0.0
 30
0.0
  3
*D47
  1

  0
LINE
  5
BC8D
330
BC8C
100
AcDbEntity
  8
AM_5
100
AcDbLine
 10
158.6421487319921
 20
-295.8730625107049
 30
0.0
 11
158.6421487319921
 21
-276.4594273313849
 31
0.0
  0
LINE
  5
BC8E
330
BC8C
100
AcDbEntity
  8
AM_5
100
AcDbLine
 10
194.342148731992
 20
-295.8730625107049
 30
0.0
 11
194.342148731992
 21
-276.4594273313849
 31
0.0
  0
LINE
  5
BC8F
330
BC8C
100
AcDbEntity
  8
AM_5
100
AcDbLine
 10
162.5421487319921
 20
-277.7594273313849
 30
0.0
 11
190.442148731992
 21
-277.7594273313849
 31
0.0
  0
SOLID
  5
BC90
330
BC8C
100
AcDbEntity
  8
AM_5
100
AcDbTrace
 10
162.5421487319921
 20
-277.1094273313849
 30
0.0
 11
162.5421487319921
 21
-278.4094273313849
 31
0.0
 12
158.6421487319921
 22
-277.7594273313849
 32
0.0
 13
158.6421487319921
 23
-277.7594273313849
 33
0.0
  0
SOLID
  5
BC91
330
BC8C
100
AcDbEntity
  8
AM_5
100
AcDbTrace
 10
190.442148731992
 20
-277.1094273313849
 30
0.0
 11
190.442148731992
 21
-278.4094273313849
 31
0.0
 12
194.342148731992
 22
-277.7594273313849
 32
0.0
 13
194.342148731992
 23
-277.7594273313849
 33
0.0
  0
MTEXT
  5
BC92
330
BC8C
100
AcDbEntity
  8
AM_5
100
AcDbMText
 10
176.4921487319921
 20
-274.1844273313849
 30
0.0
 40
4.549999999999999
 41
0.0
 71
     5
 72
     1
  1
35.7
 73
     1
 44
1.0
1001
ACAD
1000
MTEXTBEGIN
1070
    73
1070
     1
1070
    44
1040
1.0
1070
    74
1070
     0
1000
MTEXTEND
  0
POINT
  5
BC93
330
BC8C
100
AcDbEntity
  8
DEFPOINTS
 62
     0
100
AcDbPoint
 10
158.6421487319921
 20
-297.1730625107049
 30
0.0
  0
POINT
  5
BC94
330
BC8C
100
AcDbEntity
  8
DEFPOINTS
 62
     0
100
AcDbPoint
 10
194.342148731992
 20
-297.1730625107049
 30
0.0
  0
POINT
  5
BC95
330
BC8C
100
AcDbEntity
  8
DEFPOINTS
 62
     0
100
AcDbPoint
 10
194.342148731992
 20
-277.7594273313849
 30
0.0
  0
ENDBLK
  5
BC97
330
BC8C
100
AcDbEntity
  8
0
100
AcDbBlockEnd
  0
BLOCK
  5
BCA3
330
BC98
100
AcDbEntity
  8
0
100
AcDbBlockBegin
  2
*D48
 70
     1
 10
0.0
 20
0.0
 30
0.0
  3
*D48
  1

  0
LINE
  5
BC99
330
BC98
100
AcDbEntity
  8
AM_5
100
AcDbLine
 10
153.242148731992
 20
-298.4594273313849
 30
0.0
 11
153.242148731992
 21
-286.4594273313849
 31
0.0
  0
LINE
  5
BC9A
330
BC98
100
AcDbEntity
  8
AM_5
100
AcDbLine
 10
164.042148731992
 20
-298.4594273313849
 30
0.0
 11
164.042148731992
 21
-286.4594273313849
 31
0.0
  0
LINE
  5
BC9B
330
BC98
100
AcDbEntity
  8
AM_5
100
AcDbLine
 10
157.1421487319921
 20
-287.7594273313849
 30
0.0
 11
160.142148731992
 21
-287.7594273313849
 31
0.0
  0
LINE
  5
BC9C
330
BC98
100
AcDbEntity
  8
AM_5
100
AcDbLine
 10
164.042148731992
 20
-287.7594273313849
 30
0.0
 11
179.187148731992
 21
-287.7594273313849
 31
0.0
  0
SOLID
  5
BC9D
330
BC98
100
AcDbEntity
  8
AM_5
100
AcDbTrace
 10
157.1421487319921
 20
-287.109427331385
 30
0.0
 11
157.1421487319921
 21
-288.4094273313849
 31
0.0
 12
153.242148731992
 22
-287.7594273313849
 32
0.0
 13
153.242148731992
 23
-287.7594273313849
 33
0.0
  0
SOLID
  5
BC9E
330
BC98
100
AcDbEntity
  8
AM_5
100
AcDbTrace
 10
160.142148731992
 20
-287.109427331385
 30
0.0
 11
160.142148731992
 21
-288.4094273313849
 31
0.0
 12
164.042148731992
 22
-287.7594273313849
 32
0.0
 13
164.042148731992
 23
-287.7594273313849
 33
0.0
  0
MTEXT
  5
BC9F
330
BC98
100
AcDbEntity
  8
AM_5
100
AcDbMText
 10
173.564648731992
 20
-284.1844273313849
 30
0.0
 40
4.549999999999999
 41
0.0
 71
     5
 72
     1
  1
10.8
 73
     1
 44
1.0
1001
ACAD
1000
MTEXTBEGIN
1070
    73
1070
     1
1070
    44
1040
1.0
1070
    74
1070
     0
1000
MTEXTEND
  0
POINT
  5
BCA0
330
BC98
100
AcDbEntity
  8
DEFPOINTS
 62
     0
100
AcDbPoint
 10
153.242148731992
 20
-299.7594273313849
 30
0.0
  0
POINT
  5
BCA1
330
BC98
100
AcDbEntity
  8
DEFPOINTS
 62
     0
100
AcDbPoint
 10
164.042148731992
 20
-299.7594273313849
 30
0.0
  0
POINT
  5
BCA2
330
BC98
100
AcDbEntity
  8
DEFPOINTS
 62
     0
100
AcDbPoint
 10
164.042148731992
 20
-287.7594273313849
 30
0.0
  0
ENDBLK
  5
BCA4
330
BC98
100
AcDbEntity
  8
0
100
AcDbBlockEnd
  0
ENDSEC
  0
SECTION
  2
ENTITIES
  0
INSERT
  5
5825
330
211F
100
AcDbEntity
  8
ASHADE
 62
     1
100
AcDbBlockReference
  2
AVE_RENDER
 10
0.0
 20
0.0
 30
0.0
1001
AVE_RENDER
1002
{
1070
     7
1000
Pref
1070
    50
1070
    20
1070
     1
1070
     0
1000

1070
    10
1070
     1
1070
    10
1040
1.0
1070
     1
1040
0.7
1040
1.0
1040
0.0
1040
10.0
1010
-1.0
1020
-1.0
1030
-1.0
1040
0.3
1070
    49
1070
     0
1070
     0
1010
1.0
1020
1.0
1030
1.0
1040
45.0
1070
     1
1070
     0
1000
WCS
1040
0.0
1070
     0
1040
10.0
1002
}
  0
INSERT
  5
5826
330
211F
100
AcDbEntity
  8
ASHADE
 62
     3
100
AcDbBlockReference
  2
AVE_RENDER
 10
0.0
 20
0.0
 30
0.0
1001
AVE_RENDER
1002
{
1070
     0
1000
Full Opt
1070
     0
1070
     1
1070
     1
1070
     1
1070
     0
1070
     0
1070
     0
1070
     1
1070
     1
1040
0.0001
1040
0.0001
1002
}
  0
INSERT
  5
5827
330
211F
100
AcDbEntity
  8
ASHADE
 62
     4
100
AcDbBlockReference
  2
AVE_RENDER
 10
0.0
 20
0.0
 30
0.0
1001
AVE_RENDER
1002
{
1070
     0
1000
Quick Opt
1070
     0
1070
     1
1070
     1
1070
     1
1070
     0
1070
     0
1070
     1
1002
}
  0
INSERT
  5
5828
330
211F
100
AcDbEntity
  8
ASHADE
 62
     5
100
AcDbBlockReference
  2
AVE_RENDER
 10
0.0
 20
0.0
 30
0.0
1001
AVE_RENDER
1002
{
1070
     1
1000
Scanl Opt
1070
     2
1070
     0
1070
     2
1040
2.0
1040
4.0
1070
     0
1070
     1
1070
     0
1040
0.03
1002
}
  0
INSERT
  5
5829
330
211F
100
AcDbEntity
  8
ASHADE
 62
     6
100
AcDbBlockReference
  2
AVE_RENDER
 10
0.0
 20
0.0
 30
0.0
1001
AVE_RENDER
1002
{
1070
     2
1000
Raytr Opt
1070
     2
1070
     0
1070
     2
1040
2.0
1040
4.0
1070
     0
1070
     1
1070
     1
1040
0.03
1070
     3
1040
0.03
1002
}
  0
INSERT
  5
582A
330
211F
100
AcDbEntity
  8
ASHADE
 62
     7
100
AcDbBlockReference
  2
AVE_RENDER
 10
0.0
 20
0.0
 30
0.0
1001
AVE_RENDER
1002
{
1070
     0
1000
RFile Opt
1070
     1
1070
   640
1070
   480
1070
 10000
1070
     1
1070
     8
1070
     8
1070
     0
1070
     0
1070
     0
1070
     0
1070
     0
1070
     0
1070
     0
1002
}
  0
INSERT
  5
582B
330
211F
100
AcDbEntity
  8
ASHADE
 62
     8
100
AcDbBlockReference
  2
AVE_RENDER
 10
0.0
 20
0.0
 30
0.0
1001
AVE_RENDER
1002
{
1070
     0
1000
Fog Opt
1070
     0
1070
     0
1040
0.0
1040
1.0
1040
0.0
1040
1.0
1010
0.5
1020
0.5
1030
0.5
1002
}
  0
INSERT
  5
582C
330
211F
100
AcDbEntity
  8
ASHADE
 62
     9
100
AcDbBlockReference
  2
AVE_RENDER
 10
0.0
 20
0.0
 30
0.0
1001
AVE_RENDER
1002
{
1070
     0
1000
BG Opt
1070
     0
1070
     1
1010
0.0
1020
0.0
1030
0.0
1010
1.0
1020
0.0
1030
0.0
1010
0.0
1020
1.0
1030
0.0
1010
0.0
1020
0.0
1030
1.0
1040
0.5
1040
0.33
1040
0.0
1000

1070
     1
1000

1070
     1
1070
     1
1040
1.0
1040
1.0
1040
0.0
1040
0.0
1070
     0
1002
}
  0
INSERT
  5
5833
330
211F
100
AcDbEntity
  8
ASHADE
 62
     1
100
AcDbBlockReference
  2
AVE_GLOBAL
 10
0.0
 20
0.0
 30
0.0
1001
AVE_MATERIAL
1002
{
1000
*整體*
1000
2
1000
整體修飾。
1002
{
1002
}
1002
{
1070
    63
1002
{
1002
{
1010
-1.0
1020
-1.0
1030
-1.0
1002
}
1040
0.6999999880790711
1000

1040
0.0
1002
{
1002
}
1040
0.0
1002
{
1002
}
1040
0.0
1002
}
1002
{
1002
{
1010
-1.0
1020
-1.0
1030
-1.0
1002
}
1040
1.0
1000

1040
0.0
1002
{
1002
}
1040
0.0
1002
{
1002
}
1040
0.0
1002
}
1002
{
1002
{
1010
-1.0
1020
-1.0
1030
-1.0
1002
}
1040
0.2000000029802322
1000

1040
0.0
1002
{
1002
}
1040
0.0
1002
{
1002
}
1040
0.0
1002
}
1002
{
1070
     0
1002
{
1070
     1
1002
{
1040
1.0
1040
1.0
1000

1040
0.0
1002
{
1002
}
1040
0.0
1002
{
1002
}
1040
0.0
1002
}
1002
}
1040
1.0
1040
0.0
1040
0.0
1002
}
1002
{
1040
1.0
1040
1.0
1000

1040
0.0
1002
{
1002
}
1040
0.0
1002
{
1002
}
1040
0.0
1002
}
1002
{
1040
0.5
1040
1.0
1000

1040
0.0
1002
{
1002
}
1040
0.0
1002
{
1002
}
1040
0.0
1002
}
1002
{
1070
     0
1040
0.0
1002
{
1002
}
1040
1.0
1002
{
1002
}
1040
0.0
1002
}
1002
{
1040
0.0
1002
{
1002
{
1010
0.0
1020
0.0
1030
0.0
1002
}
1040
1.0
1000

1040
0.0
1002
{
1002
}
1040
0.0
1002
{
1002
}
1040
0.0
1002
}
1002
}
1002
{
1002
{
1070
     1
1002
{
1040
0.0
1040
1.0
1000

1040
0.0
1002
{
1002
}
1040
0.0
1002
{
1002
}
1040
0.0
1002
}
1002
}
1040
0.0
1002
{
1002
}
1010
1.0
1020
0.0
1030
0.0
1010
0.0
1020
1.0
1030
0.0
1010
0.0
1020
0.0
1030
1.0
1070
     0
1002
}
1002
{
1002
{
1040
1.0
1040
1.0
1002
{
1070
     1
1002
{
1040
1.0
1040
1.0
1000

1040
0.0
1002
{
1002
}
1040
0.0
1002
{
1002
}
1040
0.0
1002
}
1002
}
1002
}
1070
     0
1040
0.0
1002
{
1002
}
1002
}
1002
{
1002
}
1002
}
1002
{
1071
        3
1070
     3
1070
     0
1002
{
1070
     2
1070
     0
1070
     0
1040
0.0
1002
}
1070
     0
1070
     2
1002
{
1002
}
1002
}
1002
{
1040
8030.0
1040
190.3000030517578
1040
0.3050000071525574
1040
228.0
1040
545.0
1040
14.0
1040
17.39999961853027
1040
0.4560000002384186
1002
}
1000

1002
}
  0
LWPOLYLINE
  5
5EAA
330
211F
100
AcDbEntity
  8
LOGO
 62
     4
100
AcDbPolyline
 90
        4
 70
     1
 43
0.0
 10
-53.90778182129029
 20
-595.2578001260776
 10
517.500732109289
 20
-595.2578001260776
 10
517.500732109289
 20
-202.9007657669973
 10
-53.90778182129029
 20
-202.9007657669973
1001
GENIUS_GENREC_14
1002
{
1000
PYDIR
1011
-53.90778182129029
1021
-202.9007657669973
1031
0.0
1002
}
1002
{
1000
PXDIR
1011
517.500732109289
1021
-595.2578001260776
1031
0.0
1002
}
1002
{
1000
PORI
1011
-53.90778182129029
1021
-595.2578001260776
1031
0.0
1002
}
1002
{
1000
PINS
1011
-53.90778182129029
1021
-595.2578001260776
1031
0.0
1002
}
1002
{
1000
PINS2
1011
517.500732109289
1021
-202.9007657669973
1031
0.0
1002
}
1002
{
1000
C
1070
     1
1002
}
1001
GENIUS_GENODEF_13
1002
{
1000
HIER
1070
     0
1002
}
1002
{
1000
MANEDIT
1070
     0
1002
}
1002
{
1000
NOSEL
1070
     0
1002
}
1002
{
1000
BEHIND
1070
     0
1002
}
1002
{
1000
OTHER
1070
     0
1002
}
1002
{
1000
REACTOR
1002
}
1001
GENIUS_GENOBJ-N-REC_13
1002
{
1000
OWNER
1000
GEN
1002
}
  0
LWPOLYLINE
  5
5EAB
330
211F
100
AcDbEntity
  8
LOGO
 62
     4
100
AcDbPolyline
 90
        4
 70
     1
 43
0.0
 10
-53.90778182129029
 20
-595.2578001260776
 10
517.500732109289
 20
-595.2578001260776
 10
517.500732109289
 20
-632.7898648319607
 10
-53.90778182129029
 20
-632.7898648319607
1001
GENIUS_GENREC_14
1002
{
1000
PYDIR
1011
-53.90778182129029
1021
-632.7898648319607
1031
0.0
1002
}
1002
{
1000
PXDIR
1011
517.500732109289
1021
-595.2578001260776
1031
0.0
1002
}
1002
{
1000
PORI
1011
-53.90778182129029
1021
-595.2578001260776
1031
0.0
1002
}
1002
{
1000
PINS
1011
-53.90778182129029
1021
-595.2578001260776
1031
0.0
1002
}
1002
{
1000
PINS2
1011
517.500732109289
1021
-632.7898648319607
1031
0.0
1002
}
1002
{
1000
C
1070
     1
1002
}
1001
GENIUS_GENOBJ-N-REC_13
1002
{
1000
OWNER
1000
GEN
1002
}
1001
GENIUS_GENODEF_13
1002
{
1000
HIER
1070
     0
1002
}
1002
{
1000
MANEDIT
1070
     0
1002
}
1002
{
1000
NOSEL
1070
     0
1002
}
1002
{
1000
BEHIND
1070
     0
1002
}
1002
{
1000
OTHER
1070
     0
1002
}
1002
{
1000
REACTOR
1002
}
  0
TEXT
  5
5EAC
330
211F
100
AcDbEntity
  8
LOGO
 62
     7
100
AcDbText
 10
30.83713512047109
 20
-611.6999590110703
 30
0.0
 40
5.004275294117647
  1
Order example:
 41
0.8
  7
CHINESET
100
AcDbText
  0
TEXT
  5
5EAD
330
211F
100
AcDbEntity
  8
LOGO
 62
     7
100
AcDbText
 10
31.73494349190901
 20
-604.6549755453733
 30
0.0
 40
7.506412941176469
  1
訂購代號：
  7
CHINESET
100
AcDbText
  0
LINE
  5
5EAE
330
211F
100
AcDbEntity
  8
LOGO
 62
     4
100
AcDbLine
 10
28.66276053165086
 20
-632.7898648319603
 30
0.0
 11
28.66276053165086
 21
-595.2578001260776
 31
0.0
  0
TEXT
  5
5EAF
330
211F
100
AcDbEntity
  8
LOGO
  6
Continuous
100
AcDbText
 10
-40.42609546904237
 20
-625.4167473613139
 30
0.0
 40
5.629809705882354
  1
金器工業股份有限公司
  7
CHINESET
100
AcDbText
  0
TEXT
  5
5EB0
330
211F
100
AcDbEntity
  8
LOGO
  6
Continuous
100
AcDbText
 10
-50.76694209582479
 20
-631.0476600685044
 30
0.0
 40
3.753206470588234
  1
MINDMAN INDUSTRIAL CO., LTD.
 41
0.85
  7
CHINESET
100
AcDbText
  0
LINE
  5
5EB1
330
211F
100
AcDbEntity
  8
LOGO
 62
     4
100
AcDbLine
 10
28.66276053165086
 20
-602.7642130672542
 30
0.0
 11
-26.38426770364339
 21
-602.7642130672542
 31
0.0
  0
LINE
  5
5EB2
330
211F
100
AcDbEntity
  8
LOGO
 62
     4
100
AcDbLine
 10
28.66276053165086
 20
-610.2706260084308
 30
0.0
 11
-26.38426770364339
 21
-610.2706260084308
 31
0.0
  0
LINE
  5
5EB3
330
211F
100
AcDbEntity
  8
LOGO
 62
     4
100
AcDbLine
 10
28.66276053165086
 20
-617.7770389496068
 30
0.0
 11
-53.90778182129031
 21
-617.7770389496068
 31
0.0
  0
LINE
  5
5EB4
330
211F
100
AcDbEntity
  8
LOGO
 62
     4
100
AcDbLine
 10
-26.38426770364339
 20
-617.7770389496068
 30
0.0
 11
-26.38426770364339
 21
-595.2578001260776
 31
0.0
  0
TEXT
  5
5EB5
330
211F
100
AcDbEntity
  8
LOGO
100
AcDbText
 10
11.23777791502272
 20
-615.9004357143134
 30
0.0
 40
3.753206470588234
  1
mm
  7
CHINESET
 72
     1
 11
15.88460497384625
 21
-614.0238324790192
 31
0.0
100
AcDbText
 73
     2
  0
TEXT
  5
5EB6
330
211F
100
AcDbEntity
  8
LOGO
100
AcDbText
 10
9.271812620905077
 20
-600.8876098319603
 30
0.0
 40
3.753206470588234
  1
1 : 1
  7
CHINESET
 72
     1
 11
15.88460497384625
 21
-599.0110065966661
 31
0.0
100
AcDbText
 73
     2
  0
LINE
  5
5EB7
330
211F
100
AcDbEntity
  8
LOGO
 62
     4
100
AcDbLine
 10
3.641384061062467
 20
-617.7770389496068
 30
0.0
 11
3.641384061062467
 21
-595.2578001260776
 31
0.0
  0
CIRCLE
  5
5EB8
330
211F
100
AcDbEntity
  8
LOGO
  6
Continuous
100
AcDbCircle
 10
10.5909152850009
 20
-606.5093914017365
 30
0.0
 40
2.179200017345535
  0
CIRCLE
  5
5EB9
330
211F
100
AcDbEntity
  8
LOGO
  6
Continuous
100
AcDbCircle
 10
10.5909152850009
 20
-606.5093914017365
 30
0.0
 40
1.276818296501742
  0
LINE
  5
5EBA
330
211F
100
AcDbEntity
  8
LOGO
100
AcDbLine
 10
24.28526105767702
 20
-608.6885914190824
 30
0.0
 11
24.28526105767702
 21
-604.3301913843906
 31
0.0
  0
LINE
  5
5EBB
330
211F
100
AcDbEntity
  8
LOGO
100
AcDbLine
 10
17.45359409534887
 20
-607.786209698238
 30
0.0
 11
17.45359409534887
 21
-605.2325731052345
 31
0.0
  0
LINE
  5
5EBC
330
211F
100
AcDbEntity
  8
LOGO
  6
Continuous
100
AcDbLine
 10
17.45359409534887
 20
-605.2325731052345
 30
0.0
 11
24.28526105767702
 21
-604.3301913843906
 31
0.0
  0
LINE
  5
5EBD
330
211F
100
AcDbEntity
  8
LOGO
  6
Continuous
100
AcDbLine
 10
17.45359409534887
 20
-607.786209698238
 30
0.0
 11
24.28526105767702
 21
-608.6885914190824
 31
0.0
  0
TEXT
  5
5EBE
330
211F
100
AcDbEntity
  8
LOGO
100
AcDbText
 10
-23.28954790401102
 20
-600.8857627815318
 30
245.9789690358935
 40
3.753206470588234
  1
比例 Scale:
 41
0.9
  7
CHINESET
 72
     4
 11
-11.37144182129043
 21
-599.0110065966661
 31
245.9789690358935
100
AcDbText
  0
TEXT
  5
5EBF
330
211F
100
AcDbEntity
  8
LOGO
100
AcDbText
 10
-23.50569238379042
 20
-608.3412279150572
 30
245.9789690358935
 40
3.753206470588234
  1
投影  View:
 41
0.9
  7
CHINESET
 72
     4
 11
-11.37144182129043
 21
-606.5174195378427
 31
245.9789690358935
100
AcDbText
  0
TEXT
  5
5EC0
330
211F
100
AcDbEntity
  8
LOGO
100
AcDbText
 10
-23.13874942974631
 20
-615.9004357143134
 30
245.9789690358935
 40
3.753206470588234
  1
單位  Unit:
 41
0.9
  7
CHINESET
 72
     4
 11
-11.37144182129043
 21
-614.0238324790192
 31
245.9789690358935
100
AcDbText
  0
SOLID
  5
5EC1
330
211F
100
AcDbEntity
  8
LOGO
 62
     5
100
AcDbTrace
 10
-50.01376987367279
 20
-611.5378674191273
 30
0.0
 11
-48.39098187992829
 21
-611.5378674191279
 31
0.0
 12
-41.62003887154617
 22
-596.1493605818941
 32
0.0
 13
-39.99725087780075
 23
-596.1493605818948
 33
0.0
  0
SOLID
  5
5EC2
330
211F
100
AcDbEntity
  8
LOGO
 62
     5
100
AcDbTrace
 10
-47.71948339975643
 20
-611.5378674191273
 30
0.0
 11
-46.09669540601191
 21
-611.5378674191273
 31
0.0
 12
-39.99725087780075
 22
-597.3804411288734
 32
0.0
 13
-41.62003887154617
 23
-603.3306637726036
 33
0.0
  0
SOLID
  5
5EC3
330
211F
100
AcDbEntity
  8
LOGO
 62
     2
100
AcDbTrace
 10
-48.39098187992829
 20
-611.5378674191279
 30
0.0
 11
-47.71948339975643
 21
-611.5378674191273
 31
0.0
 12
-39.99725087780075
 22
-596.1493605818948
 32
0.0
 13
-39.32575239762974
 23
-596.1493605818948
 33
0.0
  0
SOLID
  5
5EC4
330
211F
100
AcDbEntity
  8
LOGO
 62
     5
100
AcDbTrace
 10
-52.61549698400841
 20
-617.1336880872116
 30
0.0
 11
-52.05591491719928
 21
-617.1336880872116
 31
0.0
 12
-50.48008826267937
 22
-614.3357777531697
 32
0.0
 13
-49.92050619587207
 23
-614.3357777531697
 33
0.0
  0
SOLID
  5
5EC5
330
211F
100
AcDbEntity
  8
LOGO
 62
     5
100
AcDbTrace
 10
-50.48008826267937
 20
-614.3357777531697
 30
0.0
 11
-49.92050619587207
 21
-614.3357777531697
 31
0.0
 12
-50.48008826267937
 22
-617.1336880872116
 32
0.0
 13
-49.92050619587207
 23
-617.1336880872116
 33
0.0
  0
SOLID
  5
5EC6
330
211F
100
AcDbEntity
  8
LOGO
 62
     5
100
AcDbTrace
 10
-50.48008826267937
 20
-617.1336880872116
 30
0.0
 11
-49.92050619587207
 21
-617.1336880872116
 31
0.0
 12
-48.34467954134959
 22
-614.3357777531697
 32
0.0
 13
-47.78509747454132
 23
-614.3357777531697
 33
0.0
  0
SOLID
  5
5EC7
330
211F
100
AcDbEntity
  8
LOGO
 62
     5
100
AcDbTrace
 10
-48.34467954134959
 20
-614.3357777531697
 30
0.0
 11
-47.78509747454132
 21
-614.3357777531697
 31
0.0
 12
-48.34467954134959
 22
-617.1336880872116
 32
0.0
 13
-47.78509747454132
 23
-617.1336880872116
 33
0.0
  0
POLYLINE
  5
5EC8
330
211F
100
AcDbEntity
  8
LOGO
 62
     5
100
AcDb2dPolyline
 66
     1
 10
0.0
 20
0.0
 30
0.0
 40
0.5604788329411763
 41
0.5604788329411763
  0
VERTEX
  5
5EC9
330
5EC8
100
AcDbEntity
  8
LOGO
 62
     5
100
AcDbVertex
100
AcDb2dVertex
 10
-29.58767928596336
 20
-615.4549418867865
 30
0.0
 42
1.0
  0
VERTEX
  5
5ECA
330
5EC8
100
AcDbEntity
  8
LOGO
 62
     5
100
AcDbVertex
100
AcDb2dVertex
 10
-31.26911578478746
 20
-615.4549418867865
 30
0.0
 42
1.0
  0
SEQEND
  5
5ECB
330
5EC8
100
AcDbEntity
  8
LOGO
 62
     5
  0
POLYLINE
  5
5ECC
330
211F
100
AcDbEntity
  8
LOGO
 62
     5
100
AcDb2dPolyline
 66
     1
 10
0.0
 20
0.0
 30
0.0
 70
     1
  0
VERTEX
  5
5ECD
330
5ECC
100
AcDbEntity
  8
LOGO
 62
     5
100
AcDbVertex
100
AcDb2dVertex
 10
-34.43869837536602
 20
-615.7347329201911
 30
0.0
 42
1.000000057330635
  0
VERTEX
  5
5ECE
330
5ECC
100
AcDbEntity
  8
LOGO
 62
     5
100
AcDbVertex
100
AcDb2dVertex
 10
-32.75995217494051
 20
-615.7347329201911
 30
0.0
 42
1.000000057330635
  0
SEQEND
  5
5ECF
330
5ECC
100
AcDbEntity
  8
LOGO
 62
     5
  0
CIRCLE
  5
5ED0
330
211F
100
AcDbEntity
  8
LOGO
 62
     5
100
AcDbCircle
 10
-33.59932527515207
 20
-615.7347329201911
 30
0.0
 40
0.839373100212706
  0
POLYLINE
  5
5ED1
330
211F
100
AcDbEntity
  8
LOGO
 62
     5
100
AcDb2dPolyline
 66
     1
 10
0.0
 20
0.0
 30
0.0
 70
     1
 40
0.5604788329411763
 41
0.5604788329411763
  0
VERTEX
  5
5ED2
330
5ED1
100
AcDbEntity
  8
LOGO
 62
     5
100
AcDbVertex
100
AcDb2dVertex
 10
-34.72028294103529
 20
-615.7347329201911
 30
0.0
 42
1.0
  0
VERTEX
  5
5ED3
330
5ED1
100
AcDbEntity
  8
LOGO
 62
     5
100
AcDbVertex
100
AcDb2dVertex
 10
-32.47836760927055
 20
-615.7347329201911
 30
0.0
 42
1.0
  0
SEQEND
  5
5ED4
330
5ED1
100
AcDbEntity
  8
LOGO
 62
     5
  0
LINE
  5
5ED5
330
211F
100
AcDbEntity
  8
LOGO
100
AcDbLine
 10
-29.30923340175929
 20
-617.1336880872116
 30
0.0
 11
-29.30923340175929
 21
-615.4549418867865
 31
0.0
  0
SOLID
  5
5ED6
330
211F
100
AcDbEntity
  8
LOGO
 62
     5
100
AcDbTrace
 10
-32.76000813314477
 20
-614.3357777531697
 30
0.0
 11
-32.2004260663374
 21
-614.3357777531697
 31
0.0
 12
-32.76000813314477
 22
-617.1336880872116
 32
0.0
 13
-32.2004260663374
 23
-617.1336880872116
 33
0.0
  0
SOLID
  5
5ED7
330
211F
100
AcDbEntity
  8
LOGO
 62
     5
100
AcDbTrace
 10
-31.54756166899307
 20
-617.1336880872116
 30
0.0
 11
-30.98797960218389
 21
-617.1336880872116
 31
0.0
 12
-31.54756166899307
 22
-614.3357777531697
 32
0.0
 13
-30.98797960218389
 23
-614.3357777531697
 33
0.0
  0
SOLID
  5
5ED8
330
211F
100
AcDbEntity
  8
LOGO
 62
     5
100
AcDbTrace
 10
-29.86881546856671
 20
-615.4549418867865
 30
0.0
 11
-29.30923340175929
 21
-615.4549418867865
 31
0.0
 12
-29.86881546856671
 22
-617.1336880872116
 32
0.0
 13
-29.30923340175929
 23
-617.1336880872116
 33
0.0
  0
SOLID
  5
5ED9
330
211F
100
AcDbEntity
  8
LOGO
 62
     5
100
AcDbTrace
 10
-31.60351987567401
 20
-597.3804411288734
 30
0.0
 11
-33.22630786941772
 21
-603.3306637726036
 31
0.0
 12
-31.60351987567401
 22
-611.5378674191279
 32
0.0
 13
-33.22630786941772
 23
-611.5378674191279
 33
0.0
  0
SOLID
  5
5EDA
330
211F
100
AcDbEntity
  8
LOGO
 62
     5
100
AcDbTrace
 10
-30.93202139550295
 20
-611.5378674191279
 30
0.0
 11
-29.30923340175929
 21
-611.5378674191279
 31
0.0
 12
-30.93202139550295
 22
-596.1493605818948
 32
0.0
 13
-29.30923340175929
 23
-596.1493605818941
 33
0.0
  0
SOLID
  5
5EDB
330
211F
100
AcDbEntity
  8
LOGO
 62
     2
100
AcDbTrace
 10
-31.60351987567401
 20
-596.1493605818941
 30
0.0
 11
-30.93202139550295
 21
-596.1493605818948
 31
0.0
 12
-31.60351987567401
 22
-611.5378674191279
 32
0.0
 13
-30.93202139550295
 23
-611.5378674191279
 33
0.0
  0
POLYLINE
  5
5EDC
330
211F
100
AcDbEntity
  8
LOGO
 62
     5
100
AcDb2dPolyline
 66
     1
 10
0.0
 20
0.0
 30
0.0
 40
0.5604788329411763
 41
0.5604788329411763
  0
VERTEX
  5
5EDD
330
5EDC
100
AcDbEntity
  8
LOGO
 62
     5
100
AcDbVertex
100
AcDb2dVertex
 10
-37.60839288235587
 20
-615.4549418867865
 30
0.0
 42
1.0
  0
VERTEX
  5
5EDE
330
5EDC
100
AcDbEntity
  8
LOGO
 62
     5
100
AcDbVertex
100
AcDb2dVertex
 10
-39.28982938117963
 20
-615.4549418867865
 30
0.0
 42
1.0
  0
SEQEND
  5
5EDF
330
5EDC
100
AcDbEntity
  8
LOGO
 62
     5
  0
POLYLINE
  5
5EE0
330
211F
100
AcDbEntity
  8
LOGO
 62
     5
100
AcDb2dPolyline
 66
     1
 10
0.0
 20
0.0
 30
0.0
 40
0.5604788329411763
 41
0.5604788329411763
  0
VERTEX
  5
5EE1
330
5EE0
100
AcDbEntity
  8
LOGO
 62
     5
100
AcDbVertex
100
AcDb2dVertex
 10
-35.9296466819319
 20
-615.4549418867865
 30
0.0
 42
1.0
  0
VERTEX
  5
5EE2
330
5EE0
100
AcDbEntity
  8
LOGO
 62
     5
100
AcDbVertex
100
AcDb2dVertex
 10
-37.61108318075503
 20
-615.4549418867865
 30
0.0
 42
1.0
  0
SEQEND
  5
5EE3
330
5EE0
100
AcDbEntity
  8
LOGO
 62
     5
  0
POLYLINE
  5
5EE4
330
211F
100
AcDbEntity
  8
LOGO
 62
     5
100
AcDb2dPolyline
 66
     1
 10
0.0
 20
0.0
 30
0.0
 40
0.5604788329411763
 41
0.5604788329411763
  0
VERTEX
  5
5EE5
330
5EE4
100
AcDbEntity
  8
LOGO
 62
     5
100
AcDbVertex
100
AcDb2dVertex
 10
-43.95036027832424
 20
-615.4549418867865
 30
0.0
 42
1.0
  0
VERTEX
  5
5EE6
330
5EE4
100
AcDbEntity
  8
LOGO
 62
     5
100
AcDbVertex
100
AcDb2dVertex
 10
-45.63179677714737
 20
-615.4549418867865
 30
0.0
 42
1.0
  0
SEQEND
  5
5EE7
330
5EE4
100
AcDbEntity
  8
LOGO
 62
     5
  0
SOLID
  5
5EE8
330
211F
100
AcDbEntity
  8
LOGO
 62
     5
100
AcDbTrace
 10
-45.91024266135241
 20
-614.3357777531697
 30
0.0
 11
-45.35066059454499
 21
-614.3357777531697
 31
0.0
 12
-45.91024266135241
 22
-617.1336880872116
 32
0.0
 13
-45.35066059454499
 23
-617.1336880872116
 33
0.0
  0
SOLID
  5
5EE9
330
211F
100
AcDbEntity
  8
LOGO
 62
     5
100
AcDbTrace
 10
-44.23149646092667
 20
-615.4549418867865
 30
0.0
 11
-43.67191439411783
 21
-615.4549418867865
 31
0.0
 12
-44.23149646092667
 22
-617.1336880872116
 32
0.0
 13
-43.67191439411783
 23
-617.1336880872116
 33
0.0
  0
POLYLINE
  5
5EEA
330
211F
100
AcDbEntity
  8
LOGO
 62
     5
100
AcDb2dPolyline
 66
     1
 10
0.0
 20
0.0
 30
0.0
 70
     1
 40
0.5604788329411763
 41
0.5604788329411763
  0
VERTEX
  5
5EEB
330
5EEA
100
AcDbEntity
  8
LOGO
 62
     5
100
AcDbVertex
100
AcDb2dVertex
 10
-42.74099653742837
 20
-615.7347329201911
 30
0.0
 42
1.0
  0
VERTEX
  5
5EEC
330
5EEA
100
AcDbEntity
  8
LOGO
 62
     5
100
AcDbVertex
100
AcDb2dVertex
 10
-40.49908120566295
 20
-615.7347329201911
 30
0.0
 42
1.0
  0
SEQEND
  5
5EED
330
5EEA
100
AcDbEntity
  8
LOGO
 62
     5
  0
SOLID
  5
5EEE
330
211F
100
AcDbEntity
  8
LOGO
 62
     5
100
AcDbTrace
 10
-40.78072172953898
 20
-613.4964046529566
 30
0.0
 11
-40.22113966273059
 21
-613.4964046529566
 31
0.0
 12
-40.78072172953898
 22
-617.1336880872116
 32
0.0
 13
-40.22113966273059
 23
-617.1336880872116
 33
0.0
  0
SOLID
  5
5EEF
330
211F
100
AcDbEntity
  8
LOGO
 62
     5
100
AcDbTrace
 10
-39.56827526538371
 20
-614.3357777531697
 30
0.0
 11
-39.00869319857634
 21
-614.3357777531697
 31
0.0
 12
-39.56827526538371
 22
-617.1336880872116
 32
0.0
 13
-39.00869319857634
 23
-617.1336880872116
 33
0.0
  0
SOLID
  5
5EF0
330
211F
100
AcDbEntity
  8
LOGO
 62
     5
100
AcDbTrace
 10
-37.88952906495996
 20
-615.4549418867865
 30
0.0
 11
-37.32994699815083
 21
-615.4549418867865
 31
0.0
 12
-37.88952906495996
 22
-617.1336880872116
 32
0.0
 13
-37.32994699815083
 23
-617.1336880872116
 33
0.0
  0
SOLID
  5
5EF1
330
211F
100
AcDbEntity
  8
LOGO
 62
     5
100
AcDbTrace
 10
-36.21078286453428
 20
-615.4549418867865
 30
0.0
 11
-35.65120079772623
 21
-615.4549418867865
 31
0.0
 12
-36.21078286453428
 22
-617.1336880872124
 32
0.0
 13
-35.65120079772623
 23
-617.1336880872124
 33
0.0
  0
SOLID
  5
5EF2
330
211F
100
AcDbEntity
  8
LOGO
 62
     5
100
AcDbTrace
 10
-47.12268912550655
 20
-613.9440703064036
 30
0.0
 11
-46.56310705869652
 21
-613.9440703064036
 31
0.0
 12
-47.12268912550655
 22
-613.4964046529566
 32
0.0
 13
-46.56310705869652
 23
-613.4964046529566
 33
0.0
  0
SOLID
  5
5EF3
330
211F
100
AcDbEntity
  8
LOGO
 62
     5
100
AcDbTrace
 10
-47.12268912550655
 20
-614.3357777531697
 30
0.0
 11
-46.56310705869652
 21
-614.3357777531697
 31
0.0
 12
-47.12268912550655
 22
-617.1336880872124
 32
0.0
 13
-46.56310705869652
 23
-617.1336880872116
 33
0.0
  0
SOLID
  5
5EF4
330
211F
100
AcDbEntity
  8
LOGO
 62
     5
100
AcDbTrace
 10
-41.62003887154617
 20
-611.5378674191273
 30
0.0
 11
-39.99725087780075
 21
-611.5378674191273
 31
0.0
 12
-41.62003887154617
 22
-603.3306637726036
 32
0.0
 13
-39.99725087780075
 23
-597.3804411288734
 33
0.0
  0
SOLID
  5
5EF5
330
211F
100
AcDbEntity
  8
LOGO
 62
     5
100
AcDbTrace
 10
-39.32575239762974
 20
-596.1493605818948
 30
0.0
 11
-37.70296440388609
 21
-596.1493605818941
 31
0.0
 12
-39.32575239762974
 22
-610.3067868721488
 32
0.0
 13
-37.70296440388609
 23
-604.3565642284187
 33
0.0
  0
SOLID
  5
5EF6
330
211F
100
AcDbEntity
  8
LOGO
 62
     2
100
AcDbTrace
 10
-39.99725087780075
 20
-596.1493605818948
 30
0.0
 11
-39.32575239762974
 21
-596.1493605818948
 31
0.0
 12
-39.99725087780075
 22
-611.5378674191273
 32
0.0
 13
-39.32575239762974
 23
-611.5378674191273
 33
0.0
  0
SOLID
  5
5EF7
330
211F
100
AcDbEntity
  8
LOGO
 62
     5
100
AcDbTrace
 10
-39.32575239762974
 20
-610.3067868721488
 30
0.0
 11
-37.70296440388609
 21
-604.3565642284187
 31
0.0
 12
-31.60351987567401
 22
-596.1493605818941
 32
0.0
 13
-33.22630786941772
 23
-596.1493605818941
 33
0.0
  0
SOLID
  5
5EF8
330
211F
100
AcDbEntity
  8
LOGO
 62
     5
100
AcDbTrace
 10
-39.32575239762974
 20
-611.5378674191273
 30
0.0
 11
-37.70296440388609
 21
-611.5378674191273
 31
0.0
 12
-31.60351987567401
 22
-597.3804411288734
 32
0.0
 13
-33.22630786941772
 23
-603.3306637726036
 33
0.0
  0
SOLID
  5
5EF9
330
211F
100
AcDbEntity
  8
LOGO
 62
     2
100
AcDbTrace
 10
-39.99725087780075
 20
-611.5378674191273
 30
0.0
 11
-39.32575239762974
 21
-611.5378674191273
 31
0.0
 12
-31.60351987567401
 22
-596.1493605818941
 32
0.0
 13
-30.93202139550295
 23
-596.1493605818948
 33
0.0
  0
LINE
  5
5EFA
330
211F
100
AcDbEntity
  8
LOGO
 62
     4
100
AcDbLine
 10
117.5414261328629
 20
-615.9004357143128
 30
0.0
 11
117.5414261328629
 21
-629.6621927731369
 31
0.0
  0
LINE
  5
5EFB
330
211F
100
AcDbEntity
  8
LOGO
 62
     4
100
AcDbLine
 10
92.52004966227469
 20
-615.9004357143128
 30
0.0
 11
92.52004966227469
 21
-629.6621927731369
 31
0.0
  0
LINE
  5
5EFC
330
211F
100
AcDbEntity
  8
LOGO
 62
     4
100
AcDbLine
 10
117.5414261328629
 20
-629.6621927731369
 30
0.0
 11
92.52004966227469
 21
-629.6621927731369
 31
0.0
  0
LINE
  5
5EFD
330
211F
100
AcDbEntity
  8
LOGO
 62
     4
100
AcDbLine
 10
122.4517310060582
 20
-599.0110065966661
 30
0.0
 11
80.28644977699803
 21
-599.0110065966661
 31
0.0
  0
LINE
  5
5EFE
330
211F
100
AcDbEntity
  8
LOGO
 62
     4
100
AcDbLine
 10
122.4517310060582
 20
-610.2706260084308
 30
0.0
 11
80.28644977699803
 21
-610.2706260084308
 31
0.0
  0
LINE
  5
5EFF
330
211F
100
AcDbEntity
  8
LOGO
 62
     4
100
AcDbLine
 10
80.28644977699803
 20
-599.0110065966661
 30
0.0
 11
80.28644977699803
 21
-610.2706260084308
 31
0.0
  0
LINE
  5
5F00
330
211F
100
AcDbEntity
  8
LOGO
 62
     4
100
AcDbLine
 10
122.4517310060582
 20
-599.0110065966661
 30
0.0
 11
122.4517310060582
 21
-610.2706260084308
 31
0.0
  0
LINE
  5
5F01
330
211F
100
AcDbEntity
  8
LOGO
 62
     4
100
AcDbLine
 10
104.4854248650881
 20
-610.2706260084308
 30
0.0
 11
104.4854248650881
 21
-615.9004357143128
 31
0.0
  0
TEXT
  5
5F02
330
211F
100
AcDbEntity
  8
LOGO
  6
Continuous
 62
     7
100
AcDbText
 10
85.73333925242343
 20
-607.9201969177868
 30
0.0
 40
6.1875
  1
MAF302
100
AcDbText
  0
LINE
  5
5F03
330
211F
100
AcDbEntity
  8
LOGO
 62
     4
100
AcDbLine
 10
117.5414261328629
 20
-615.9004357143128
 30
0.0
 11
92.52004966227469
 21
-615.9004357143128
 31
0.0
  0
TEXT
  5
5F04
330
211F
100
AcDbEntity
  8
LOGO
  6
Continuous
100
AcDbText
 10
100.5493301552143
 20
-627.7197499467677
 30
245.9789690358935
 40
2.8875
  1
Model
100
AcDbText
  0
TEXT
  5
5F05
330
211F
100
AcDbEntity
  8
LOGO
100
AcDbText
 10
99.79998548789456
 20
-622.5007673149159
 30
245.9789690358935
 40
4.6921875
  1
型號
100
AcDbText
  0
LINE
  5
5F06
330
211F
100
AcDbEntity
  8
LOGO
  6
Continuous
 62
     7
100
AcDbLine
 10
124.9162789023139
 20
-604.6806996539451
 30
0.0
 11
129.8881159892921
 21
-604.6806996539451
 31
0.0
  0
LINE
  5
5F07
330
211F
100
AcDbEntity
  8
LOGO
 62
     4
100
AcDbLine
 10
162.2840417990776
 20
-615.9004357143128
 30
0.0
 11
162.2840417990776
 21
-629.6621927731369
 31
0.0
  0
LINE
  5
5F08
330
211F
100
AcDbEntity
  8
LOGO
 62
     4
100
AcDbLine
 10
125.6114127895981
 20
-615.9004357143128
 30
0.0
 11
125.6114127895981
 21
-629.6621927731369
 31
0.0
  0
LINE
  5
5F09
330
211F
100
AcDbEntity
  8
LOGO
 62
     4
100
AcDbLine
 10
162.2840417990776
 20
-629.6621927731369
 30
0.0
 11
125.6114127895981
 21
-629.6621927731369
 31
0.0
  0
LINE
  5
5F0A
330
211F
100
AcDbEntity
  8
LOGO
 62
     4
100
AcDbLine
 10
162.2925741490525
 20
-599.0110065966661
 30
0.0
 11
132.5381332754464
 21
-599.0110065966661
 31
0.0
  0
LINE
  5
5F0B
330
211F
100
AcDbEntity
  8
LOGO
 62
     4
100
AcDbLine
 10
162.2925741490525
 20
-610.2706260084308
 30
0.0
 11
132.5381332754464
 21
-610.2706260084308
 31
0.0
  0
LINE
  5
5F0C
330
211F
100
AcDbEntity
  8
LOGO
 62
     4
100
AcDbLine
 10
132.5381332754464
 20
-599.0110065966661
 30
0.0
 11
132.5381332754464
 21
-610.2706260084308
 31
0.0
  0
LINE
  5
5F0D
330
211F
100
AcDbEntity
  8
LOGO
 62
     4
100
AcDbLine
 10
162.2925741490525
 20
-599.0110065966661
 30
0.0
 11
162.2925741490525
 21
-610.2706260084308
 31
0.0
  0
LINE
  5
5F0E
330
211F
100
AcDbEntity
  8
LOGO
 62
     4
100
AcDbLine
 10
147.4153537122499
 20
-610.2706260084308
 30
0.0
 11
147.4153537122499
 21
-615.9004357143128
 31
0.0
  0
TEXT
  5
5F0F
330
211F
100
AcDbEntity
  8
LOGO
  6
Continuous
 62
     7
100
AcDbText
 10
142.322106635234
 20
-607.9201969177868
 30
0.0
 40
6.1875
  1
*A
  7
DAYUS
100
AcDbText
  0
LINE
  5
5F10
330
211F
100
AcDbEntity
  8
LOGO
 62
     4
100
AcDbLine
 10
162.2840417990776
 20
-615.9004357143128
 30
0.0
 11
125.6114127895981
 21
-615.9004357143128
 31
0.0
  0
TEXT
  5
5F11
330
211F
100
AcDbEntity
  8
LOGO
  6
Continuous
100
AcDbText
 10
133.861000169029
 20
-627.7197499467677
 30
245.9789690358935
 40
2.8875
  1
Bore size
100
AcDbText
  0
TEXT
  5
5F12
330
211F
100
AcDbEntity
  8
LOGO
100
AcDbText
 10
129.1799256165697
 20
-622.5007673149159
 30
245.9789690358935
 40
4.6921875
  1
配管口徑代號
100
AcDbText
  0
TEXT
  5
5F13
330
211F
100
AcDbEntity
  8
LOGO
100
AcDbText
 10
29.49837701945514
 20
-630.7931738032755
 30
0.0
 40
2.8875
  1
01103040
  7
DAYUS
 72
     1
 11
39.53587701945514
 21
-630.7931738032755
 31
0.0
100
AcDbText
  0
LINE
  5
5F14
330
211F
100
AcDbEntity
  8
LOGO
 62
     4
100
AcDbLine
 10
51.18526053164931
 20
-625.2834518907828
 30
0.0
 11
51.18526053165101
 21
-632.7898648319599
 31
0.0
  0
LINE
  5
5F15
330
211F
100
AcDbEntity
  8
LOGO
 62
     4
100
AcDbLine
 10
51.18526053164931
 20
-625.2834518907828
 30
0.0
 11
28.66276053165086
 21
-625.2834518907828
 31
0.0
  0
LINE
  5
5F16
330
211F
100
AcDbEntity
  8
LOGO
  6
AM_ISO08W050x2
 48
0.3
100
AcDbLine
 10
7.586855430139394
 20
-606.5093914017365
 30
0.0
 11
13.59497513986253
 21
-606.5093914017365
 31
0.0
1001
GENIUS_GENOREF_13
1005
5F28
  0
LINE
  5
5F17
330
211F
100
AcDbEntity
  8
LOGO
  6
AM_ISO08W050x2
 48
0.3
100
AcDbLine
 10
10.5909152850009
 20
-609.513451256598
 30
0.0
 11
10.5909152850009
 21
-603.505331546875
 31
0.0
1001
GENIUS_GENOREF_13
1005
5F27
  0
LINE
  5
5F18
330
211F
100
AcDbEntity
  8
LOGO
  6
CENTER
 48
0.5
100
AcDbLine
 10
16.90725062365749
 20
-606.5093914017365
 30
0.0
 11
24.9731878055373
 21
-606.5093914017365
 31
0.0
1001
GENIUS_GENOREF_13
1005
5F26
  0
POINT
  5
5F26
330
211F
100
AcDbEntity
  8
0
 60
     1
100
AcDbPoint
 10
-1362.862349568051
 20
-1617.499815137046
 30
0.0
1001
GENIUS_GENOBJ-N-CRS_13
1002
{
1000
OWNER
1000
GEN
1002
}
1001
GENIUS_GENOLIS_13
1002
{
1000
ENT
1005
0
1005
0
1005
0
1005
5F18
1002
}
1001
GENIUS_GENOENT_13
1002
{
1000
MYREF
1005
5F26
1002
}
1002
{
1000
GRP
1005
0
1002
}
1001
GENIUS_GENODEF_13
1002
{
1000
HIER
1070
    10
1002
}
1002
{
1000
MANEDIT
1070
     1
1002
}
1002
{
1000
NOSEL
1070
     0
1002
}
1002
{
1000
BEHIND
1070
     0
1002
}
1002
{
1000
OTHER
1070
     0
1002
}
1002
{
1000
REACTOR
1002
}
  0
POINT
  5
5F27
330
211F
100
AcDbEntity
  8
0
 60
     1
100
AcDbPoint
 10
-1374.186934790906
 20
-1608.62422865841
 30
0.0
1001
GENIUS_GENOBJ-N-CRS_13
1002
{
1000
OWNER
1000
GEN
1002
}
1001
GENIUS_GENOLIS_13
1002
{
1000
ENT
1005
0
1005
0
1005
0
1005
5F17
1002
}
1001
GENIUS_GENOENT_13
1002
{
1000
MYREF
1005
5F27
1002
}
1002
{
1000
GRP
1005
0
1002
}
1001
GENIUS_GENODEF_13
1002
{
1000
HIER
1070
    10
1002
}
1002
{
1000
MANEDIT
1070
     1
1002
}
1002
{
1000
NOSEL
1070
     0
1002
}
1002
{
1000
BEHIND
1070
     0
1002
}
1002
{
1000
OTHER
1070
     0
1002
}
1002
{
1000
REACTOR
1002
}
  0
POINT
  5
5F28
330
211F
100
AcDbEntity
  8
0
 60
     1
100
AcDbPoint
 10
-1367.828261093069
 20
-1617.499815137046
 30
0.0
1001
GENIUS_GENOBJ-N-CRS_13
1002
{
1000
OWNER
1000
GEN
1002
}
1001
GENIUS_GENOLIS_13
1002
{
1000
ENT
1005
0
1005
0
1005
0
1005
5F16
1002
}
1001
GENIUS_GENOENT_13
1002
{
1000
MYREF
1005
5F28
1002
}
1002
{
1000
GRP
1005
0
1002
}
1001
GENIUS_GENODEF_13
1002
{
1000
HIER
1070
    10
1002
}
1002
{
1000
MANEDIT
1070
     1
1002
}
1002
{
1000
NOSEL
1070
     0
1002
}
1002
{
1000
BEHIND
1070
     0
1002
}
1002
{
1000
OTHER
1070
     0
1002
}
1002
{
1000
REACTOR
1002
}
  0
LINE
  5
B8BE
102
{ACAD_REACTORS
330
BBA4
330
BBA7
102
}
330
211F
100
AcDbEntity
  8
AM_7
100
AcDbLine
 10
176.4921487319921
 20
-526.684600017806
 30
0.0
 11
176.4921487319921
 21
-420.1846000178059
 31
0.0
  0
LINE
  5
B8BF
330
211F
100
AcDbEntity
  8
AM_7
100
AcDbLine
 10
176.4921487319921
 20
-492.8846000178058
 30
0.0
 11
176.4921487319921
 21
-492.8846000178058
 31
0.0
  0
LINE
  5
B8C0
330
211F
100
AcDbEntity
  8
AM_7
100
AcDbLine
 10
176.4921487319921
 20
-492.8846000178058
 30
0.0
 11
176.4921487319921
 21
-492.8846000178058
 31
0.0
  0
LINE
  5
B8C1
102
{ACAD_REACTORS
330
BBCC
330
BBCF
102
}
330
211F
100
AcDbEntity
  8
AM_7
100
AcDbLine
 10
162.992148731992
 20
-492.8846000178058
 30
0.0
 11
176.4921487319921
 21
-492.8846000178058
 31
0.0
  0
LINE
  5
B8C2
330
211F
100
AcDbEntity
  8
AM_7
100
AcDbLine
 10
176.4921487319921
 20
-492.8846000178058
 30
0.0
 11
189.9921487319921
 21
-492.8846000178058
 31
0.0
  0
LINE
  5
B8C3
330
211F
100
AcDbEntity
  8
AM_7
100
AcDbLine
 10
156.4921487319921
 20
-461.184600017806
 30
0.0
 11
156.4921487319921
 21
-461.184600017806
 31
0.0
  0
LINE
  5
B8C4
330
211F
100
AcDbEntity
  8
AM_7
100
AcDbLine
 10
156.4921487319921
 20
-461.184600017806
 30
0.0
 11
156.4921487319921
 21
-461.184600017806
 31
0.0
  0
LINE
  5
B8C5
330
211F
100
AcDbEntity
  8
AM_7
100
AcDbLine
 10
150.2421487319921
 20
-461.184600017806
 30
0.0
 11
165.2439751266038
 21
-461.184600017806
 31
0.0
  0
LINE
  5
B8C6
330
211F
100
AcDbEntity
  8
AM_7
100
AcDbLine
 10
158.6421487319921
 20
-467.333330654112
 30
0.0
 11
158.6421487319921
 21
-454.934600017806
 31
0.0
  0
LINE
  5
B8C7
330
211F
100
AcDbEntity
  8
AM_7
100
AcDbLine
 10
176.4921487319921
 20
-336.2594273313849
 30
0.0
 11
176.4921487319921
 21
-336.2594273313849
 31
0.0
  0
LINE
  5
B8C8
330
211F
100
AcDbEntity
  8
AM_7
100
AcDbLine
 10
176.4921487319921
 20
-336.2594273313849
 30
0.0
 11
176.4921487319921
 21
-336.2594273313849
 31
0.0
  0
LINE
  5
B8C9
330
211F
100
AcDbEntity
  8
AM_7
100
AcDbLine
 10
140.9921487319921
 20
-336.2594273313849
 30
0.0
 11
176.4921487319921
 21
-336.2594273313849
 31
0.0
  0
LINE
  5
B8CA
330
211F
100
AcDbEntity
  8
AM_7
100
AcDbLine
 10
176.4921487319921
 20
-336.2594273313849
 30
0.0
 11
211.9921487319921
 21
-336.2594273313849
 31
0.0
  0
LINE
  5
B8CB
330
211F
100
AcDbEntity
  8
AM_7
100
AcDbLine
 10
176.4921487319921
 20
-371.7594273313849
 30
0.0
 11
176.4921487319921
 21
-336.2594273313849
 31
0.0
  0
LINE
  5
B8CC
330
211F
100
AcDbEntity
  8
AM_7
100
AcDbLine
 10
176.4921487319921
 20
-336.2594273313849
 30
0.0
 11
176.4921487319921
 21
-300.7594273313849
 31
0.0
  0
LINE
  5
B8CD
330
211F
100
AcDbEntity
  8
AM_7
100
AcDbLine
 10
176.4921487319921
 20
-367.7594273313849
 30
0.0
 11
176.4921487319921
 21
-374.359427331385
 31
0.0
  0
LINE
  5
B8CE
330
211F
100
AcDbEntity
  8
AM_7
100
AcDbLine
 10
170.492148731992
 20
-307.7594273313849
 30
0.0
 11
170.492148731992
 21
-307.7594273313849
 31
0.0
  0
LINE
  5
B8CF
330
211F
100
AcDbEntity
  8
AM_7
100
AcDbLine
 10
170.492148731992
 20
-307.7594273313849
 30
0.0
 11
170.492148731992
 21
-307.7594273313849
 31
0.0
  0
LINE
  5
B8D0
330
211F
100
AcDbEntity
  8
AM_7
100
AcDbLine
 10
165.9921487319921
 20
-307.7594273313849
 30
0.0
 11
170.492148731992
 21
-307.7594273313849
 31
0.0
  0
LINE
  5
B8D1
330
211F
100
AcDbEntity
  8
AM_7
100
AcDbLine
 10
170.492148731992
 20
-307.7594273313849
 30
0.0
 11
174.992148731992
 21
-307.7594273313849
 31
0.0
  0
LINE
  5
B8D2
330
211F
100
AcDbEntity
  8
AM_7
100
AcDbLine
 10
170.492148731992
 20
-312.2594273313849
 30
0.0
 11
170.492148731992
 21
-307.7594273313849
 31
0.0
  0
LINE
  5
B8D3
330
211F
100
AcDbEntity
  8
AM_7
100
AcDbLine
 10
170.492148731992
 20
-307.7594273313849
 30
0.0
 11
170.492148731992
 21
-303.2594273313849
 31
0.0
  0
LINE
  5
B8D4
330
211F
100
AcDbEntity
  8
AM_7
100
AcDbLine
 10
182.4921487319921
 20
-307.7594273313849
 30
0.0
 11
182.4921487319921
 21
-307.7594273313849
 31
0.0
  0
LINE
  5
B8D5
330
211F
100
AcDbEntity
  8
AM_7
100
AcDbLine
 10
182.4921487319921
 20
-307.7594273313849
 30
0.0
 11
182.4921487319921
 21
-307.7594273313849
 31
0.0
  0
LINE
  5
B8D6
330
211F
100
AcDbEntity
  8
AM_7
100
AcDbLine
 10
177.992148731992
 20
-307.7594273313849
 30
0.0
 11
182.4921487319921
 21
-307.7594273313849
 31
0.0
  0
LINE
  5
B8D7
330
211F
100
AcDbEntity
  8
AM_7
100
AcDbLine
 10
182.4921487319921
 20
-307.7594273313849
 30
0.0
 11
186.9921487319921
 21
-307.7594273313849
 31
0.0
  0
LINE
  5
B8D8
330
211F
100
AcDbEntity
  8
AM_7
100
AcDbLine
 10
182.4921487319921
 20
-312.2594273313849
 30
0.0
 11
182.4921487319921
 21
-307.7594273313849
 31
0.0
  0
LINE
  5
B8D9
330
211F
100
AcDbEntity
  8
AM_7
100
AcDbLine
 10
182.4921487319921
 20
-307.7594273313849
 30
0.0
 11
182.4921487319921
 21
-303.2594273313849
 31
0.0
  0
ARC
  5
B8DA
330
211F
100
AcDbEntity
  8
AM_4
100
AcDbCircle
 10
176.4921487319921
 20
-336.2594273313849
 30
0.0
 40
21.0
100
AcDbArc
 50
259.9999999999955
 51
190.0000000000051
  0
LINE
  5
B8DB
102
{ACAD_REACTORS
330
BBB4
330
BBB7
102
}
330
211F
100
AcDbEntity
  8
AM_7
100
AcDbLine
 10
299.4968157423227
 20
-526.684600017806
 30
0.0
 11
299.4968157423227
 21
-420.1846000178059
 31
0.0
  0
LINE
  5
B8DC
102
{ACAD_REACTORS
330
BBAE
330
BBB1
102
}
330
211F
100
AcDbEntity
  8
AM_7
100
AcDbLine
 10
287.1623339716725
 20
-497.584600017806
 30
0.0
 11
311.707550319861
 21
-497.584600017806
 31
0.0
  0
LINE
  5
B8DD
330
211F
100
AcDbEntity
  8
AM_7
100
AcDbLine
 10
267.9968157423227
 20
-492.8846000178058
 30
0.0
 11
261.3968157423228
 21
-492.8846000178058
 31
0.0
  0
LINE
  5
B8DE
330
211F
100
AcDbEntity
  8
AM_VIS
100
AcDbLine
 10
147.792148731992
 20
-486.9846000178061
 30
0.0
 11
147.792148731992
 21
-508.1846000178059
 31
0.0
  0
LINE
  5
B8DF
330
211F
100
AcDbEntity
  8
AM_VIS
100
AcDbLine
 10
147.2294554278867
 20
-506.084600017806
 30
0.0
 11
147.2294554278867
 21
-489.084600017806
 31
0.0
  0
LINE
  5
B8E0
330
211F
100
AcDbEntity
  8
AM_VIS
100
AcDbLine
 10
147.792148731992
 20
-486.9846000178061
 30
0.0
 11
147.2294554278867
 21
-489.084600017806
 31
0.0
  0
LINE
  5
B8E1
330
211F
100
AcDbEntity
  8
AM_VIS
100
AcDbLine
 10
147.2294554278867
 20
-489.084600017806
 30
0.0
 11
145.3921487319921
 21
-489.084600017806
 31
0.0
  0
LINE
  5
B8E2
330
211F
100
AcDbEntity
  8
AM_VIS
100
AcDbLine
 10
145.3921487319921
 20
-483.0846000178061
 30
0.0
 11
147.2294554278867
 21
-483.0846000178061
 31
0.0
  0
LINE
  5
B8E3
330
211F
100
AcDbEntity
  8
AM_VIS
100
AcDbLine
 10
147.2294554278867
 20
-483.0846000178061
 30
0.0
 11
147.792148731992
 21
-485.184600017806
 31
0.0
  0
LINE
  5
B8E4
330
211F
100
AcDbEntity
  8
AM_VIS
100
AcDbLine
 10
147.792148731992
 20
-485.184600017806
 30
0.0
 11
149.992148731992
 21
-485.184600017806
 31
0.0
  0
LINE
  5
B8E5
330
211F
100
AcDbEntity
  8
AM_VIS
100
AcDbLine
 10
149.992148731992
 20
-486.9846000178061
 30
0.0
 11
147.792148731992
 21
-486.9846000178061
 31
0.0
  0
LINE
  5
B8E6
330
211F
100
AcDbEntity
  8
AM_VIS
100
AcDbLine
 10
147.792148731992
 20
-509.9846000178062
 30
0.0
 11
147.2294554278867
 21
-512.0846000178061
 31
0.0
  0
LINE
  5
B8E7
330
211F
100
AcDbEntity
  8
AM_VIS
100
AcDbLine
 10
147.2294554278867
 20
-512.0846000178061
 30
0.0
 11
145.3921487319921
 21
-512.0846000178061
 31
0.0
  0
LINE
  5
B8E8
330
211F
100
AcDbEntity
  8
AM_VIS
100
AcDbLine
 10
145.3921487319921
 20
-506.084600017806
 30
0.0
 11
147.2294554278867
 21
-506.084600017806
 31
0.0
  0
LINE
  5
B8E9
330
211F
100
AcDbEntity
  8
AM_VIS
100
AcDbLine
 10
147.2294554278867
 20
-506.084600017806
 30
0.0
 11
147.792148731992
 21
-508.1846000178059
 31
0.0
  0
LINE
  5
B8EA
330
211F
100
AcDbEntity
  8
AM_VIS
100
AcDbLine
 10
147.792148731992
 20
-508.1846000178059
 30
0.0
 11
149.992148731992
 21
-508.1846000178059
 31
0.0
  0
LINE
  5
B8EB
330
211F
100
AcDbEntity
  8
AM_VIS
100
AcDbLine
 10
149.992148731992
 20
-509.9846000178062
 30
0.0
 11
147.792148731992
 21
-509.9846000178062
 31
0.0
  0
LINE
  5
B8EC
330
211F
100
AcDbEntity
  8
AM_VIS
100
AcDbLine
 10
205.1921487319921
 20
-508.1846000178059
 30
0.0
 11
205.1921487319921
 21
-486.9846000178061
 31
0.0
  0
LINE
  5
B8ED
330
211F
100
AcDbEntity
  8
AM_VIS
100
AcDbLine
 10
205.7548420360975
 20
-489.084600017806
 30
0.0
 11
205.7548420360975
 21
-506.084600017806
 31
0.0
  0
LINE
  5
B8EE
330
211F
100
AcDbEntity
  8
AM_VIS
100
AcDbLine
 10
205.7548420360975
 20
-483.0846000178061
 30
0.0
 11
205.1921487319921
 21
-485.184600017806
 31
0.0
  0
LINE
  5
B8EF
330
211F
100
AcDbEntity
  8
AM_VIS
100
AcDbLine
 10
205.7548420360975
 20
-483.0846000178061
 30
0.0
 11
207.592148731992
 21
-483.0846000178061
 31
0.0
  0
LINE
  5
B8F0
330
211F
100
AcDbEntity
  8
AM_VIS
100
AcDbLine
 10
207.592148731992
 20
-489.084600017806
 30
0.0
 11
205.7548420360975
 21
-489.084600017806
 31
0.0
  0
LINE
  5
B8F1
330
211F
100
AcDbEntity
  8
AM_VIS
100
AcDbLine
 10
205.1921487319921
 20
-486.9846000178061
 30
0.0
 11
205.7548420360975
 21
-489.084600017806
 31
0.0
  0
LINE
  5
B8F2
330
211F
100
AcDbEntity
  8
AM_VIS
100
AcDbLine
 10
205.1921487319921
 20
-486.9846000178061
 30
0.0
 11
202.9921487319921
 21
-486.9846000178061
 31
0.0
  0
LINE
  5
B8F3
330
211F
100
AcDbEntity
  8
AM_VIS
100
AcDbLine
 10
202.9921487319921
 20
-485.184600017806
 30
0.0
 11
205.1921487319921
 21
-485.184600017806
 31
0.0
  0
LINE
  5
B8F4
330
211F
100
AcDbEntity
  8
AM_VIS
100
AcDbLine
 10
202.9921487319921
 20
-508.1846000178059
 30
0.0
 11
205.1921487319921
 21
-508.1846000178059
 31
0.0
  0
LINE
  5
B8F5
330
211F
100
AcDbEntity
  8
AM_VIS
100
AcDbLine
 10
205.7548420360975
 20
-506.084600017806
 30
0.0
 11
205.1921487319921
 21
-508.1846000178059
 31
0.0
  0
LINE
  5
B8F6
330
211F
100
AcDbEntity
  8
AM_VIS
100
AcDbLine
 10
205.7548420360975
 20
-506.084600017806
 30
0.0
 11
207.592148731992
 21
-506.084600017806
 31
0.0
  0
LINE
  5
B8F7
330
211F
100
AcDbEntity
  8
AM_VIS
100
AcDbLine
 10
207.592148731992
 20
-512.0846000178061
 30
0.0
 11
205.7548420360975
 21
-512.0846000178061
 31
0.0
  0
LINE
  5
B8F8
330
211F
100
AcDbEntity
  8
AM_VIS
100
AcDbLine
 10
205.1921487319921
 20
-509.9846000178062
 30
0.0
 11
205.7548420360975
 21
-512.0846000178061
 31
0.0
  0
LINE
  5
B8F9
330
211F
100
AcDbEntity
  8
AM_VIS
100
AcDbLine
 10
205.1921487319921
 20
-509.9846000178062
 30
0.0
 11
202.9921487319921
 21
-509.9846000178062
 31
0.0
  0
LINE
  5
B8FA
102
{ACAD_REACTORS
330
BBA7
102
}
330
211F
100
AcDbEntity
  8
AM_VIS
100
AcDbLine
 10
207.592148731992
 20
-506.084600017806
 30
0.0
 11
207.592148731992
 21
-512.0846000178061
 31
0.0
  0
LINE
  5
B8FB
330
211F
100
AcDbEntity
  8
AM_VIS
100
AcDbLine
 10
207.592148731992
 20
-506.084600017806
 30
0.0
 11
207.592148731992
 21
-489.084600017806
 31
0.0
  0
LINE
  5
B8FC
330
211F
100
AcDbEntity
  8
AM_VIS
100
AcDbLine
 10
207.592148731992
 20
-483.0846000178061
 30
0.0
 11
207.592148731992
 21
-489.084600017806
 31
0.0
  0
LINE
  5
B8FD
330
211F
100
AcDbEntity
  8
AM_VIS
100
AcDbLine
 10
145.3921487319921
 20
-489.084600017806
 30
0.0
 11
145.3921487319921
 21
-483.0846000178061
 31
0.0
  0
LINE
  5
B8FE
330
211F
100
AcDbEntity
  8
AM_VIS
100
AcDbLine
 10
145.3921487319921
 20
-489.084600017806
 30
0.0
 11
145.3921487319921
 21
-506.084600017806
 31
0.0
  0
LINE
  5
B8FF
102
{ACAD_REACTORS
330
BBA4
102
}
330
211F
100
AcDbEntity
  8
AM_VIS
100
AcDbLine
 10
145.3921487319921
 20
-512.0846000178061
 30
0.0
 11
145.3921487319921
 21
-506.084600017806
 31
0.0
  0
LINE
  5
B900
330
211F
100
AcDbEntity
  8
AM_VIS
100
AcDbLine
 10
190.242148731992
 20
-506.134600017806
 30
0.0
 11
190.242148731992
 21
-479.634600017806
 31
0.0
  0
LINE
  5
B901
330
211F
100
AcDbEntity
  8
AM_VIS
100
AcDbLine
 10
189.7421487319921
 20
-479.1346000178061
 30
0.0
 11
163.2421487319921
 21
-479.1346000178061
 31
0.0
  0
LINE
  5
B902
330
211F
100
AcDbEntity
  8
AM_VIS
100
AcDbLine
 10
176.4921487319921
 20
-507.184600017806
 30
0.0
 11
180.4921487319921
 21
-508.684600017806
 31
0.0
  0
LINE
  5
B903
330
211F
100
AcDbEntity
  8
AM_VIS
100
AcDbLine
 10
176.4921487319921
 20
-507.934600017806
 30
0.0
 11
176.4921487319921
 21
-507.184600017806
 31
0.0
  0
LINE
  5
B904
330
211F
100
AcDbEntity
  8
AM_VIS
100
AcDbLine
 10
172.4921487319921
 20
-507.934600017806
 30
0.0
 11
176.4921487319921
 21
-507.934600017806
 31
0.0
  0
LINE
  5
B905
330
211F
100
AcDbEntity
  8
AM_VIS
100
AcDbLine
 10
172.4921487319921
 20
-509.434600017806
 30
0.0
 11
172.4921487319921
 21
-507.934600017806
 31
0.0
  0
LINE
  5
B906
330
211F
100
AcDbEntity
  8
AM_VIS
100
AcDbLine
 10
176.4921487319921
 20
-509.434600017806
 30
0.0
 11
172.4921487319921
 21
-509.434600017806
 31
0.0
  0
LINE
  5
B907
330
211F
100
AcDbEntity
  8
AM_VIS
100
AcDbLine
 10
176.4921487319921
 20
-510.184600017806
 30
0.0
 11
176.4921487319921
 21
-509.434600017806
 31
0.0
  0
LINE
  5
B908
330
211F
100
AcDbEntity
  8
AM_VIS
100
AcDbLine
 10
180.4921487319921
 20
-508.684600017806
 30
0.0
 11
176.4921487319921
 21
-510.184600017806
 31
0.0
  0
LINE
  5
B909
330
211F
100
AcDbEntity
  8
AM_VIS
100
AcDbLine
 10
202.9921487319921
 20
-520.2846000178059
 30
0.0
 11
202.9921487319921
 21
-476.8846000178061
 31
0.0
  0
ARC
  5
B90A
330
211F
100
AcDbEntity
  8
AM_VIS
100
AcDbCircle
 10
150.9921471939567
 20
-476.8845993897224
 30
0.0
 40
0.9999984619648564
100
AcDbArc
 50
135.5729600126067
 51
180.00003598658
  0
LINE
  5
B90B
330
211F
100
AcDbEntity
  8
AM_VIS
100
AcDbLine
 10
149.992148731992
 20
-520.2846000178059
 30
0.0
 11
149.992148731992
 21
-476.8846000178061
 31
0.0
  0
ARC
  5
B90C
330
211F
100
AcDbEntity
  8
AM_VIS
100
AcDbCircle
 10
193.4183103800656
 20
-520.2973663096282
 30
0.0
 40
1.88876921866948
100
AcDbArc
 50
348.1693846245135
 51
0.3872681764032906
  0
ARC
  5
B90D
330
211F
100
AcDbEntity
  8
AM_VIS
100
AcDbCircle
 10
202.2921483866408
 20
-520.2845999094146
 30
0.0
 40
0.7000003453512362
100
AcDbArc
 50
325.1501043334136
 51
359.9999911684922
  0
LINE
  5
B90E
330
211F
100
AcDbEntity
  8
AM_VIS
100
AcDbLine
 10
157.6772610097653
 20
-520.2846000178059
 30
0.0
 11
157.6772610097653
 21
-476.8846000178061
 31
0.0
  0
LINE
  5
B90F
330
211F
100
AcDbEntity
  8
AM_VIS
100
AcDbLine
 10
195.3070364542188
 20
-520.2846000178059
 30
0.0
 11
195.3070364542188
 21
-476.8846000178061
 31
0.0
  0
LINE
  5
B910
330
211F
100
AcDbEntity
  8
AM_VIS
100
AcDbLine
 10
163.2421487319921
 20
-506.634600017806
 30
0.0
 11
189.7421487319921
 21
-506.634600017806
 31
0.0
  0
LINE
  5
B911
330
211F
100
AcDbEntity
  8
AM_VIS
100
AcDbLine
 10
162.7421487319921
 20
-479.634600017806
 30
0.0
 11
162.7421487319921
 21
-506.134600017806
 31
0.0
  0
ARC
  5
B912
330
211F
100
AcDbEntity
  8
AM_VIS
100
AcDbCircle
 10
159.5659870839183
 20
-520.297366309628
 30
0.0
 40
1.88876921866933
100
AcDbArc
 50
179.6127318235967
 51
191.8306153754997
  0
ARC
  5
B913
330
211F
100
AcDbEntity
  8
AM_VIS
100
AcDbCircle
 10
150.6921490773434
 20
-520.2845999094144
 30
0.0
 40
0.7000003453513179
100
AcDbArc
 50
180.0000088719713
 51
214.8498957070535
  0
LINE
  5
B914
330
211F
100
AcDbEntity
  8
AM_VIS
100
AcDbLine
 10
157.7173391410574
 20
-520.6846000178059
 30
0.0
 11
195.2669583229267
 21
-520.6846000178059
 31
0.0
  0
ARC
  5
B915
330
211F
100
AcDbEntity
  8
AM_VIS
100
AcDbCircle
 10
160.1226887928369
 20
-476.8478710969765
 30
0.0
 40
2.445703591166268
100
AcDbArc
 50
164.2644045822371
 51
180.860485002104
  0
ARC
  5
B916
330
211F
100
AcDbEntity
  8
AM_VIS
100
AcDbCircle
 10
192.8616086711481
 20
-476.8478710969763
 30
0.0
 40
2.44570359116529
100
AcDbArc
 50
359.139514997896
 51
15.73559541776285
  0
ARC
  5
B917
330
211F
100
AcDbEntity
  8
AM_VIS
100
AcDbCircle
 10
201.9921502700274
 20
-476.8845993897224
 30
0.0
 40
0.9999984619648408
100
AcDbArc
 50
359.999964013407
 51
44.42703998739322
  0
LINE
  5
B918
330
211F
100
AcDbEntity
  8
AM_VIS
100
AcDbLine
 10
195.2156557249209
 20
-476.184600017806
 30
0.0
 11
157.7686417390632
 21
-476.184600017806
 31
0.0
  0
ARC
  5
B919
330
211F
100
AcDbEntity
  8
AM_VIS
100
AcDbCircle
 10
189.7421487319921
 20
-506.134600017806
 30
0.0
 40
0.5
100
AcDbArc
 50
270.0
 51
0.0
  0
ARC
  5
B91A
330
211F
100
AcDbEntity
  8
AM_VIS
100
AcDbCircle
 10
189.7421487319921
 20
-479.634600017806
 30
0.0
 40
0.5
100
AcDbArc
 50
0.0
 51
90.0
  0
ARC
  5
B91B
330
211F
100
AcDbEntity
  8
AM_VIS
100
AcDbCircle
 10
163.2421487319921
 20
-506.134600017806
 30
0.0
 40
0.5
100
AcDbArc
 50
180.0
 51
270.0
  0
ARC
  5
B91C
330
211F
100
AcDbEntity
  8
AM_VIS
100
AcDbCircle
 10
163.2421487319921
 20
-479.634600017806
 30
0.0
 40
0.5
100
AcDbArc
 50
90.0
 51
180.0
  0
LINE
  5
B91D
330
211F
100
AcDbEntity
  8
AM_VIS
100
AcDbLine
 10
202.866604996646
 20
-520.6846000178059
 30
0.0
 11
195.2669583229265
 21
-520.6846000178059
 31
0.0
  0
LINE
  5
B91E
330
211F
100
AcDbEntity
  8
AM_VIS
100
AcDbLine
 10
157.7173391410576
 20
-520.6846000178059
 30
0.0
 11
150.1176924673382
 21
-520.6846000178059
 31
0.0
  0
LINE
  5
B91F
330
211F
100
AcDbEntity
  8
AM_VIS
100
AcDbLine
 10
195.2156557249209
 20
-476.184600017806
 30
0.0
 11
202.7062915748463
 21
-476.184600017806
 31
0.0
  0
LINE
  5
B920
330
211F
100
AcDbEntity
  8
AM_VIS
100
AcDbLine
 10
150.2780058891378
 20
-476.184600017806
 30
0.0
 11
157.7686417390632
 21
-476.184600017806
 31
0.0
  0
LINE
  5
B921
330
211F
100
AcDbEntity
  8
AM_VIS
100
AcDbLine
 10
192.1921487319921
 20
-464.6492171105582
 30
0.0
 11
192.1921487319921
 21
-467.8846000178061
 31
0.0
  0
LINE
  5
B922
330
211F
100
AcDbEntity
  8
AM_VIS
100
AcDbLine
 10
191.7212244395038
 20
-467.8846000178061
 30
0.0
 11
191.7212244395038
 21
-464.6492171105582
 31
0.0
  0
LINE
  5
B923
330
211F
100
AcDbEntity
  8
AM_VIS
100
AcDbLine
 10
183.4662259537378
 20
-464.6492171105582
 30
0.0
 11
183.4662259537378
 21
-467.8846000178061
 31
0.0
  0
LINE
  5
B924
330
211F
100
AcDbEntity
  8
AM_VIS
100
AcDbLine
 10
182.3293141399617
 20
-467.8846000178061
 30
0.0
 11
182.3293141399617
 21
-464.6492171105582
 31
0.0
  0
SPLINE
  5
B925
330
211F
100
AcDbEntity
  8
AM_VIS
100
AcDbSpline
210
0.0
220
0.0
230
1.0
 70
    12
 71
     2
 72
     6
 73
     3
 74
     0
 42
0.0000000001
 43
0.0000000001
 40
3.902363482349973
 40
3.902363482349973
 40
3.902363482349973
 40
7.33814440811904
 40
7.33814440811904
 40
7.33814440811904
 10
173.1759341624063
 20
-467.8846000178062
 30
0.0
 41
1.012529721408304
 10
174.8521343657185
 20
-467.684600017806
 30
0.0
 41
1.011780669010395
 10
176.4921487319921
 20
-467.684600017806
 30
0.0
 41
1.0
  0
SPLINE
  5
B926
330
211F
100
AcDbEntity
  8
AM_VIS
100
AcDbSpline
210
-0.0000000000000001
220
-0.0000000000000023
230
1.0
 70
    12
 71
     2
 72
     6
 73
     3
 74
     0
 42
0.0000000001
 43
0.0000000001
 40
7.33814440811904
 40
7.33814440811904
 40
7.33814440811904
 40
10.77392533388808
 40
10.77392533388808
 40
10.77392533388808
 10
176.4921487319921
 20
-467.684600017806
 30
0.0
 41
1.0
 10
178.1321630982656
 20
-467.684600017806
 30
0.0
 41
1.011780669010395
 10
179.8083633015781
 20
-467.8846000178062
 30
-0.0000000000000001
 41
1.012529721408304
  0
SPLINE
  5
B927
330
211F
100
AcDbEntity
  8
AM_VIS
100
AcDbSpline
210
0.0000000000000002
220
-0.0000000000000023
230
1.0
 70
    12
 71
     2
 72
     6
 73
     3
 74
     0
 42
0.0000000001
 43
0.0000000001
 40
3.902363482350112
 40
3.902363482350112
 40
3.902363482350112
 40
7.338144408119045
 40
7.338144408119045
 40
7.338144408119045
 10
185.2488073865973
 20
-467.8846000178058
 30
-0.0000000000000001
 41
1.012529721408307
 10
186.434059916986
 20
-467.6846000178056
 30
0.0
 41
1.011780669010398
 10
187.5937251966209
 20
-467.684600017806
 30
0.0
 41
1.0
  0
SPLINE
  5
B928
330
211F
100
AcDbEntity
  8
AM_VIS
100
AcDbSpline
210
0.0
220
0.0
230
1.0
 70
    12
 71
     2
 72
     6
 73
     3
 74
     0
 42
0.0000000001
 43
0.0000000001
 40
7.338144408119045
 40
7.338144408119045
 40
7.338144408119045
 40
10.77392533388789
 40
10.77392533388789
 40
10.77392533388789
 10
187.5937251966209
 20
-467.684600017806
 30
0.0
 41
1.0
 10
188.7533904762551
 20
-467.684600017806
 30
0.0
 41
1.011780669010406
 10
189.9386430066453
 20
-467.8846000178054
 30
0.0
 41
1.012529721408316
  0
LINE
  5
B929
330
211F
100
AcDbEntity
  8
AM_VIS
100
AcDbLine
 10
160.792148731992
 20
-467.8846000178061
 30
0.0
 11
160.792148731992
 21
-464.6492171105582
 31
0.0
  0
SPLINE
  5
B92A
330
211F
100
AcDbEntity
  8
AM_VIS
100
AcDbSpline
210
0.0
220
0.0
230
1.0
 70
    12
 71
     2
 72
     6
 73
     3
 74
     0
 42
0.0000000001
 43
0.0000000001
 40
7.338144408119051
 40
7.338144408119051
 40
7.338144408119051
 40
10.77392533388798
 40
10.77392533388798
 40
10.77392533388798
 10
165.3905722673632
 20
-467.684600017806
 30
0.0
 41
1.0
 10
166.5502375469987
 20
-467.6846000178064
 30
0.0
 41
1.011780669010391
 10
167.7354900773871
 20
-467.8846000178062
 30
0.0
 41
1.012529721408301
  0
SPLINE
  5
B92B
330
211F
100
AcDbEntity
  8
AM_VIS
100
AcDbSpline
210
0.0000000000000003
220
-0.0000000000000034
230
1.0
 70
    12
 71
     2
 72
     6
 73
     3
 74
     0
 42
0.0000000001
 43
0.0000000001
 40
3.902363482350204
 40
3.902363482350204
 40
3.902363482350204
 40
7.338144408119051
 40
7.338144408119051
 40
7.338144408119051
 10
163.0456544573398
 20
-467.8846000178058
 30
-0.0000000000000001
 41
1.012529721408307
 10
164.2309069877277
 20
-467.6846000178063
 30
0.0000000000000001
 41
1.011780669010398
 10
165.3905722673632
 20
-467.684600017806
 30
0.0
 41
1.0
  0
LINE
  5
B92C
330
211F
100
AcDbEntity
  8
AM_VIS
100
AcDbLine
 10
161.2630730244802
 20
-464.6492171105582
 30
0.0
 11
161.2630730244802
 21
-467.8846000178061
 31
0.0
  0
LINE
  5
B92D
330
211F
100
AcDbEntity
  8
AM_VIS
100
AcDbLine
 10
170.6549833240224
 20
-464.6492171105582
 30
0.0
 11
170.6549833240224
 21
-467.8846000178061
 31
0.0
  0
LINE
  5
B92E
330
211F
100
AcDbEntity
  8
AM_VIS
100
AcDbLine
 10
169.5180715102462
 20
-467.8846000178061
 30
0.0
 11
169.5180715102462
 21
-464.6492171105582
 31
0.0
  0
LINE
  5
B92F
330
211F
100
AcDbEntity
  8
AM_VIS
100
AcDbLine
 10
192.1921487319921
 20
-464.3678704585062
 30
0.0
 11
192.1921487319921
 21
-464.6492171105582
 31
0.0
  0
SPLINE
  5
B930
330
211F
100
AcDbEntity
  8
AM_VIS
100
AcDbSpline
210
0.0
220
0.0000000000000001
230
1.0
 70
    12
 71
     2
 72
     6
 73
     3
 74
     0
 42
0.0000000001
 43
0.0000000001
 40
3.025558988543669
 40
3.025558988543669
 40
3.025558988543669
 40
15.23515951974274
 40
15.23515951974274
 40
15.23515951974274
 10
191.7212244395043
 20
-464.6492171105577
 30
0.0
 41
1.043143297380426
 10
187.5937251966382
 20
-464.1041604622546
 30
0.0
 41
1.112907658033238
 10
183.4662259537369
 20
-464.6492171105583
 30
0.0000000000000001
 41
1.043143297381117
  0
SPLINE
  5
B931
330
211F
100
AcDbEntity
  8
AM_VIS
100
AcDbSpline
210
0.0
220
0.0
230
1.0
 70
    12
 71
     2
 72
     6
 73
     3
 74
     0
 42
0.0000000001
 43
0.0000000001
 40
3.025558988543667
 40
3.025558988543667
 40
3.025558988543667
 40
15.23515951974274
 40
15.23515951974274
 40
15.23515951974274
 10
182.329314139963
 20
-464.6492171105577
 30
0.0
 41
1.043143297380426
 10
176.4921487320164
 20
-464.1041604622546
 30
0.0
 41
1.112907658033238
 10
170.6549833240224
 20
-464.6492171105582
 30
0.0
 41
1.043143297381117
  0
SPLINE
  5
B932
330
211F
100
AcDbEntity
  8
AM_VIS
100
AcDbSpline
210
0.0
220
-0.0000000000000001
230
1.0
 70
    12
 71
     2
 72
     6
 73
     3
 74
     0
 42
0.0000000001
 43
0.0000000001
 40
3.02555898854367
 40
3.02555898854367
 40
3.02555898854367
 40
15.23515951974274
 40
15.23515951974274
 40
15.23515951974274
 10
169.5180715102458
 20
-464.6492171105586
 30
0.0
 41
1.043143297380425
 10
165.3905722673811
 20
-464.104160462254
 30
0.0
 41
1.112907658033235
 10
161.2630730244807
 20
-464.6492171105575
 30
-0.0000000000000001
 41
1.043143297381116
  0
LINE
  5
B933
330
211F
100
AcDbEntity
  8
AM_VIS
100
AcDbLine
 10
160.792148731992
 20
-464.3678704585052
 30
0.0
 11
160.792148731992
 21
-464.6492171105582
 31
0.0
  0
LINE
  5
B934
330
211F
100
AcDbEntity
  8
AM_VIS
100
AcDbLine
 10
160.792148731992
 20
-467.684600017806
 30
0.0
 11
160.4457385704781
 21
-467.8846000178061
 31
0.0
  0
LINE
  5
B935
330
211F
100
AcDbEntity
  8
AM_VIS
100
AcDbLine
 10
192.1921487319921
 20
-467.684600017806
 30
0.0
 11
192.5385588935059
 21
-467.8846000178061
 31
0.0
  0
LINE
  5
B936
330
211F
100
AcDbEntity
  8
AM_VIS
100
AcDbLine
 10
163.3421487319919
 20
-463.684600017806
 30
0.0
 11
160.7921487319918
 21
-464.3678704585052
 31
0.0
  0
LINE
  5
B937
330
211F
100
AcDbEntity
  8
AM_VIS
100
AcDbLine
 10
189.6421487319921
 20
-463.684600017806
 30
0.0
 11
192.1921487319923
 21
-464.3678704585052
 31
0.0
  0
LINE
  5
B938
330
211F
100
AcDbEntity
  8
AM_VIS
100
AcDbLine
 10
189.4921487319921
 20
-463.684600017806
 30
0.0
 11
189.4921487319921
 21
-462.684600017806
 31
0.0
  0
LINE
  5
B939
330
211F
100
AcDbEntity
  8
AM_VIS
100
AcDbLine
 10
163.492148731992
 20
-463.684600017806
 30
0.0
 11
163.492148731992
 21
-462.684600017806
 31
0.0
  0
LINE
  5
B93A
330
211F
100
AcDbEntity
  8
AM_VIS
100
AcDbLine
 10
189.242148731992
 20
-460.6938522889948
 30
0.0
 11
189.242148731992
 21
-460.684600017806
 31
0.0
  0
LINE
  5
B93B
330
211F
100
AcDbEntity
  8
AM_VIS
100
AcDbLine
 10
163.7421487319921
 20
-460.6938522889948
 30
0.0
 11
163.7421487319921
 21
-460.684600017806
 31
0.0
  0
LINE
  5
B93C
330
211F
100
AcDbEntity
  8
AM_VIS
100
AcDbLine
 10
188.3921487319921
 20
-461.2846000178059
 30
0.0
 11
188.3921487319921
 21
-461.184600017806
 31
0.0
  0
LINE
  5
B93D
330
211F
100
AcDbEntity
  8
AM_VIS
100
AcDbLine
 10
164.592148731992
 20
-461.2846000178059
 30
0.0
 11
164.592148731992
 21
-461.184600017806
 31
0.0
  0
LINE
  5
B93E
330
211F
100
AcDbEntity
  8
AM_VIS
100
AcDbLine
 10
188.3921487319921
 20
-461.184600017806
 30
0.0
 11
189.242148731992
 21
-460.6938522889948
 31
0.0
  0
LINE
  5
B93F
330
211F
100
AcDbEntity
  8
AM_VIS
100
AcDbLine
 10
164.592148731992
 20
-461.184600017806
 30
0.0
 11
163.7421487319921
 21
-460.6938522889948
 31
0.0
  0
LINE
  5
B940
330
211F
100
AcDbEntity
  8
AM_VIS
100
AcDbLine
 10
189.6421487319921
 20
-463.684600017806
 30
0.0
 11
163.3421487319919
 21
-463.684600017806
 31
0.0
  0
LINE
  5
B941
330
211F
100
AcDbEntity
  8
AM_VIS
100
AcDbLine
 10
191.7212244395038
 20
-464.6492171105582
 30
0.0
 11
192.1921487319921
 21
-464.6492171105582
 31
0.0
  0
LINE
  5
B942
330
211F
100
AcDbEntity
  8
AM_VIS
100
AcDbLine
 10
182.3293141399617
 20
-464.6492171105582
 30
0.0
 11
183.4662259537378
 21
-464.6492171105582
 31
0.0
  0
LINE
  5
B943
330
211F
100
AcDbEntity
  8
AM_VIS
100
AcDbLine
 10
169.5180715102462
 20
-464.6492171105582
 30
0.0
 11
170.6549833240224
 21
-464.6492171105582
 31
0.0
  0
LINE
  5
B944
330
211F
100
AcDbEntity
  8
AM_VIS
100
AcDbLine
 10
160.792148731992
 20
-464.6492171105582
 30
0.0
 11
161.2630730244802
 21
-464.6492171105582
 31
0.0
  0
LINE
  5
B945
330
211F
100
AcDbEntity
  8
AM_VIS
100
AcDbLine
 10
189.4921487319921
 20
-462.684600017806
 30
0.0
 11
163.492148731992
 21
-462.684600017806
 31
0.0
  0
LINE
  5
B946
330
211F
100
AcDbEntity
  8
AM_VIS
100
AcDbLine
 10
188.3921487319921
 20
-461.184600017806
 30
0.0
 11
164.592148731992
 21
-461.184600017806
 31
0.0
  0
LINE
  5
B947
330
211F
100
AcDbEntity
  8
AM_VIS
100
AcDbLine
 10
163.7421487319921
 20
-460.6938522889948
 30
0.0
 11
189.242148731992
 21
-460.6938522889948
 31
0.0
  0
LINE
  5
B948
330
211F
100
AcDbEntity
  8
AM_VIS
100
AcDbLine
 10
159.4806013361385
 20
-522.184600017806
 30
0.0
 11
159.4806013361385
 21
-523.684600017806
 31
0.0
  0
ARC
  5
B949
102
{ACAD_REACTORS
330
BBCF
102
}
330
211F
100
AcDbEntity
  8
AM_VIS
100
AcDbCircle
 10
161.3861378067411
 20
-523.7817578126908
 30
0.0
 40
1.908011760420656
100
AcDbArc
 50
177.0811814555691
 51
265.7813664272046
  0
ARC
  5
B94A
330
211F
100
AcDbEntity
  8
AM_VIS
100
AcDbCircle
 10
173.3377141918331
 20
-523.7559809633579
 30
0.0
 40
5.971762729549348
100
AcDbArc
 50
179.3151227704447
 51
198.8418106063156
  0
LINE
  5
B94B
330
211F
100
AcDbEntity
  8
AM_VIS
100
AcDbLine
 10
167.6859552938567
 20
-525.684600017806
 30
0.0
 11
163.7367201962611
 21
-525.684600017806
 31
0.0
  0
ARC
  5
B94C
330
211F
100
AcDbEntity
  8
AM_VIS
100
AcDbCircle
 10
163.5873428881568
 20
-523.662606377493
 30
0.0
 40
2.027503849969948
100
AcDbArc
 50
180.6215364183779
 51
274.2251220151941
  0
LINE
  5
B94D
330
211F
100
AcDbEntity
  8
AM_VIS
100
AcDbLine
 10
161.5599583312882
 20
-523.684600017806
 30
0.0
 11
161.5599583312882
 21
-522.184600017806
 31
0.0
  0
LINE
  5
B94E
330
211F
100
AcDbEntity
  8
AM_VIS
100
AcDbLine
 10
162.3786582569432
 20
-523.684600017806
 30
0.0
 11
162.3786582569432
 21
-522.184600017806
 31
0.0
  0
ARC
  5
B94F
330
211F
100
AcDbEntity
  8
AM_VIS
100
AcDbCircle
 10
163.6355112497028
 20
-523.6306682700786
 30
0.0
 40
1.258009570242717
100
AcDbArc
 50
182.4570630614493
 51
274.6145270974571
  0
LINE
  5
B950
330
211F
100
AcDbEntity
  8
AM_VIS
100
AcDbLine
 10
167.3663780885269
 20
-522.184600017806
 30
0.0
 11
167.3663780885269
 21
-523.684600017806
 31
0.0
  0
SPLINE
  5
B951
330
211F
100
AcDbEntity
  8
AM_VIS
100
AcDbSpline
210
0.0
220
0.0
230
1.0
 70
     8
 71
     3
 72
    20
 73
    16
 74
     0
 42
0.0000000001
 43
0.0000000001
 40
0.000266985706846
 40
0.000266985706846
 40
0.000266985706846
 40
0.000266985706846
 40
0.7750259254237256
 40
0.7750259254237256
 40
1.536568364492698
 40
1.536568364492698
 40
2.267322955288643
 40
2.267322955288643
 40
2.851718203648275
 40
2.851718203648275
 40
3.107750342531688
 40
3.107750342531688
 40
3.291455659403295
 40
3.291455659403295
 40
3.332730813504765
 40
3.332730813504765
 40
3.332730813504765
 40
3.332730813504765
 10
180.5979075167511
 20
-523.684600017806
 30
0.0
 10
180.5979075167511
 20
-523.9428511281438
 30
0.0
 10
180.5735069496948
 20
-524.1983906252645
 30
0.0
 10
180.4752536594426
 20
-524.6701974217709
 30
0.0
 10
180.4032678788376
 20
-524.8816737769597
 30
0.0
 10
180.2141165176767
 20
-525.2327271225177
 30
0.0
 10
180.101309719432
 20
-525.3702638948819
 30
0.0
 10
179.8615940986501
 20
-525.5528604006643
 30
0.0
 10
179.7442586520965
 20
-525.6092654267157
 30
0.0
 10
179.5607545145985
 20
-525.6585282521804
 30
0.0
 10
179.5031783299032
 20
-525.6692040955516
 30
0.0
 10
179.4015479020229
 20
-525.6807127080077
 30
0.0
 10
179.3583359517576
 20
-525.6834664149072
 30
0.0
 10
179.304525818171
 20
-525.6845056027803
 30
0.0
 10
179.2946196467965
 20
-525.684600017806
 30
0.0
 10
179.2846796500021
 20
-525.684600017806
 30
0.0
  0
LINE
  5
B952
330
211F
100
AcDbEntity
  8
AM_VIS
100
AcDbLine
 10
179.2846796500021
 20
-525.684600017806
 30
0.0
 11
173.699617813982
 21
-525.684600017806
 31
0.0
  0
SPLINE
  5
B953
330
211F
100
AcDbEntity
  8
AM_VIS
100
AcDbSpline
210
0.0
220
0.0
230
1.0
 70
     8
 71
     3
 72
    22
 73
    18
 74
     0
 42
0.0000000001
 43
0.0000000001
 40
10.16556216376966
 40
10.16556216376966
 40
10.16556216376966
 40
10.16556216376966
 40
10.179271901701
 40
10.179271901701
 40
10.36207091045679
 40
10.36207091045679
 40
10.60136825463933
 40
10.60136825463933
 40
11.05389362813648
 40
11.05389362813648
 40
11.65725240248803
 40
11.65725240248803
 40
12.32058685921601
 40
12.32058685921601
 40
12.95698601736946
 40
12.95698601736946
 40
13.53448069591623
 40
13.53448069591623
 40
13.53448069591623
 40
13.53448069591623
 10
173.699617813982
 20
-525.684600017806
 30
0.0
 10
173.6963568620956
 20
-525.684600017806
 30
0.0
 10
173.6930995052739
 20
-525.6845898562063
 30
0.0
 10
173.6464617970059
 20
-525.6842976219797
 30
0.0
 10
173.603767012195
 20
-525.6822081796948
 30
0.0
 10
173.5068351102741
 20
-525.6728560959626
 30
0.0
 10
173.4532125298578
 20
-525.6642041848025
 30
0.0
 10
173.3022077033777
 20
-525.6286723105598
 30
0.0
 10
173.2091155855505
 20
-525.5925866386172
 30
0.0
 10
173.0058829995469
 20
-525.4751417821743
 30
0.0
 10
172.902343701684
 20
-525.3838012400246
 30
0.0
 10
172.7118172767104
 20
-525.1399612452522
 30
0.0
 10
172.6296447852642
 20
-524.9850385738754
 30
0.0
 10
172.5020079644625
 20
-524.6360092914414
 30
0.0
 10
172.4562901559841
 20
-524.4468563616682
 30
0.0
 10
172.3997280942383
 20
-524.0641214760968
 30
0.0
 10
172.386389947233
 20
-523.8748938952125
 30
0.0
 10
172.386389947233
 20
-523.684600017806
 30
0.0
  0
LINE
  5
B954
330
211F
100
AcDbEntity
  8
AM_VIS
100
AcDbLine
 10
172.386389947233
 20
-523.684600017806
 30
0.0
 11
172.386389947233
 21
-522.184600017806
 31
0.0
  0
LINE
  5
B955
330
211F
100
AcDbEntity
  8
AM_VIS
100
AcDbLine
 10
172.8250652597301
 20
-523.684600017806
 30
0.0
 11
172.8250652597301
 21
-522.184600017806
 31
0.0
  0
SPLINE
  5
B956
330
211F
100
AcDbEntity
  8
AM_VIS
100
AcDbSpline
210
0.0
220
0.0
230
1.0
 70
     8
 71
     3
 72
    20
 73
    16
 74
     0
 42
0.0000000001
 43
0.0000000001
 40
-9.151995977348091
 40
-9.151995977348091
 40
-9.151995977348091
 40
-9.151995977348091
 40
-9.086877944338803
 40
-9.086877944338803
 40
-8.956311669601952
 40
-8.956311669601952
 40
-8.740484238973612
 40
-8.740484238973612
 40
-8.208262657149735
 40
-8.208262657149735
 40
-7.7410083393602
 40
-7.7410083393602
 40
-7.291341258061353
 40
-7.291341258061353
 40
-7.118618716149591
 40
-7.118618716149591
 40
-7.118618716149591
 40
-7.118618716149591
 10
173.699617813982
 20
-524.884600017806
 30
0.0
 10
173.6839936766462
 20
-524.884600017806
 30
0.0
 10
173.668455609041
 20
-524.8842112414366
 30
0.0
 10
173.622045467134
 20
-524.881840244591
 30
0.0
 10
173.5914533277719
 20
-524.878649192732
 30
0.0
 10
173.5114598932161
 20
-524.8656607409023
 30
0.0
 10
173.4629372502816
 20
-524.8529292483521
 30
0.0
 10
173.3003462075451
 20
-524.7914151371182
 30
0.0
 10
173.196646050756
 20
-524.717954489051
 30
0.0
 10
173.0312107530187
 20
-524.5204265485398
 30
0.0
 10
172.9680282770666
 20
-524.4061097580801
 30
0.0
 10
172.875198737895
 20
-524.1455966597889
 30
0.0
 10
172.8455708987235
 20
-524.0041681519536
 30
0.0
 10
172.8275515103464
 20
-523.7992059273732
 30
0.0
 10
172.8250490955233
 20
-523.7418853920484
 30
0.0
 10
172.8250652597301
 20
-523.6846000178078
 30
0.0
  0
SPLINE
  5
B957
330
211F
100
AcDbEntity
  8
AM_VIS
100
AcDbSpline
210
0.0
220
0.0
230
1.0
 70
     8
 71
     3
 72
    20
 73
    16
 74
     0
 42
0.0000000001
 43
0.0000000001
 40
-2.044576514724221
 40
-2.044576514724221
 40
-2.044576514724221
 40
-2.044576514724221
 40
-1.773187946007912
 40
-1.773187946007912
 40
-1.354885690123109
 40
-1.354885690123109
 40
-0.9407867602030753
 40
-0.9407867602030753
 40
-0.562515061368605
 40
-0.562515061368605
 40
-0.2713567920847736
 40
-0.2713567920847736
 40
-0.1174853597292146
 40
-0.1174853597292146
 40
0.0
 40
0.0
 40
0.0
 40
0.0
 10
180.1592322042541
 20
-523.684600017806
 30
0.0
 10
180.1592603308258
 20
-523.7736311439779
 30
0.0
 10
180.1532369390681
 20
-523.8625408412957
 30
0.0
 10
180.1226174280359
 20
-524.0836527143263
 30
0.0
 10
180.0901193294348
 20
-524.2102881965283
 30
0.0
 10
179.9989016238023
 20
-524.4371428979528
 30
0.0
 10
179.9414246591107
 20
-524.5351382545039
 30
0.0
 10
179.8105335130558
 20
-524.6898835951482
 30
0.0
 10
179.7400242339449
 20
-524.7481800963458
 30
0.0
 10
179.6032921294097
 20
-524.8244299966763
 30
0.0
 10
179.5403486976624
 20
-524.8482959335514
 30
0.0
 10
179.4398506110835
 20
-524.8716717707369
 30
0.0
 10
179.4043858902369
 20
-524.8773442939335
 30
0.0
 10
179.3407596736683
 20
-524.8833345745573
 30
0.0
 10
179.3128685757194
 20
-524.884600017806
 30
0.0
 10
179.2846796500021
 20
-524.884600017806
 30
0.0
  0
LINE
  5
B958
330
211F
100
AcDbEntity
  8
AM_VIS
100
AcDbLine
 10
180.1592322042543
 20
-523.684600017806
 30
0.0
 11
180.1592322042543
 21
-522.184600017806
 31
0.0
  0
LINE
  5
B959
330
211F
100
AcDbEntity
  8
AM_VIS
100
AcDbLine
 10
180.5979075167511
 20
-522.184600017806
 30
0.0
 11
180.5979075167511
 21
-523.684600017806
 31
0.0
  0
ARC
  5
B95A
330
211F
100
AcDbEntity
  8
AM_VIS
100
AcDbCircle
 10
189.3969692004693
 20
-523.6626222946746
 30
0.0
 40
2.027489053585714
100
AcDbArc
 50
265.7744326832133
 51
359.3789088831988
  0
LINE
  5
B95B
330
211F
100
AcDbEntity
  8
AM_VIS
100
AcDbLine
 10
189.2475772677233
 20
-525.684600017806
 30
0.0
 11
185.2983421701274
 21
-525.684600017806
 31
0.0
  0
ARC
  5
B95C
330
211F
100
AcDbEntity
  8
AM_VIS
100
AcDbCircle
 10
179.6469672284897
 20
-523.7560423152047
 30
0.0
 40
5.971379534348248
100
AcDbArc
 50
341.157556724561
 51
0.6855098986727933
  0
LINE
  5
B95D
330
211F
100
AcDbEntity
  8
AM_VIS
100
AcDbLine
 10
185.6179193754572
 20
-523.684600017806
 30
0.0
 11
185.6179193754572
 21
-522.184600017806
 31
0.0
  0
ARC
  5
B95E
330
211F
100
AcDbEntity
  8
AM_VIS
100
AcDbCircle
 10
189.3489695388607
 20
-523.6308757418568
 30
0.0
 40
1.257817535555356
100
AcDbArc
 50
265.3763888929885
 51
357.5520209481898
  0
LINE
  5
B95F
330
211F
100
AcDbEntity
  8
AM_VIS
100
AcDbLine
 10
190.6056392070411
 20
-523.684600017806
 30
0.0
 11
190.6056392070411
 21
-522.184600017806
 31
0.0
  0
LINE
  5
B960
330
211F
100
AcDbEntity
  8
AM_VIS
100
AcDbLine
 10
191.4243391326959
 20
-522.184600017806
 30
0.0
 11
191.4243391326959
 21
-523.684600017806
 31
0.0
  0
ARC
  5
B961
330
211F
100
AcDbEntity
  8
AM_VIS
100
AcDbCircle
 10
191.5981841521486
 20
-523.7817794316282
 30
0.0
 40
1.907988398286489
100
AcDbArc
 50
274.2179477551023
 51
2.919504362126607
  0
LINE
  5
B962
330
211F
100
AcDbEntity
  8
AM_VIS
100
AcDbLine
 10
193.5036961278456
 20
-523.684600017806
 30
0.0
 11
193.5036961278456
 21
-522.184600017806
 31
0.0
  0
LINE
  5
B963
330
211F
100
AcDbEntity
  8
AM_VIS
100
AcDbLine
 10
193.9921487319921
 20
-522.184600017806
 30
0.0
 11
193.9921487319921
 21
-520.6846000178059
 31
0.0
  0
LINE
  5
B964
330
211F
100
AcDbEntity
  8
AM_VIS
100
AcDbLine
 10
158.992148731992
 20
-522.184600017806
 30
0.0
 11
158.992148731992
 21
-520.6846000178059
 31
0.0
  0
LINE
  5
B965
330
211F
100
AcDbEntity
  8
AM_VIS
100
AcDbLine
 10
159.4806013361385
 20
-522.184600017806
 30
0.0
 11
158.992148731992
 21
-522.184600017806
 31
0.0
  0
LINE
  5
B966
102
{ACAD_REACTORS
330
BBCF
102
}
330
211F
100
AcDbEntity
  8
AM_VIS
100
AcDbLine
 10
163.7367201962609
 20
-525.684600017806
 30
0.0
 11
161.2457796208903
 21
-525.684600017806
 31
0.0
  0
LINE
  5
B967
330
211F
100
AcDbEntity
  8
AM_VIS
100
AcDbLine
 10
173.699617813982
 20
-525.684600017806
 30
0.0
 11
167.6859552938567
 21
-525.684600017806
 31
0.0
  0
LINE
  5
B968
330
211F
100
AcDbEntity
  8
AM_VIS
100
AcDbLine
 10
185.2983421701274
 20
-525.684600017806
 30
0.0
 11
179.2846796500021
 21
-525.684600017806
 31
0.0
  0
LINE
  5
B969
330
211F
100
AcDbEntity
  8
AM_VIS
100
AcDbLine
 10
191.7385178430938
 20
-525.684600017806
 30
0.0
 11
189.2475772677233
 21
-525.684600017806
 31
0.0
  0
LINE
  5
B96A
330
211F
100
AcDbEntity
  8
AM_VIS
100
AcDbLine
 10
167.3663780885269
 20
-522.184600017806
 30
0.0
 11
161.5599583312882
 21
-522.184600017806
 31
0.0
  0
LINE
  5
B96B
330
211F
100
AcDbEntity
  8
AM_VIS
100
AcDbLine
 10
163.7367201962609
 20
-524.884600017806
 30
0.0
 11
167.4748680440248
 21
-524.884600017806
 31
0.0
  0
LINE
  5
B96C
330
211F
100
AcDbEntity
  8
AM_VIS
100
AcDbLine
 10
180.5979075167511
 20
-522.184600017806
 30
0.0
 11
172.386389947233
 21
-522.184600017806
 31
0.0
  0
LINE
  5
B96D
330
211F
100
AcDbEntity
  8
AM_VIS
100
AcDbLine
 10
173.699617813982
 20
-524.884600017806
 30
0.0
 11
179.2846796500021
 21
-524.884600017806
 31
0.0
  0
LINE
  5
B96E
330
211F
100
AcDbEntity
  8
AM_VIS
100
AcDbLine
 10
191.4243391326959
 20
-522.184600017806
 30
0.0
 11
185.6179193754572
 21
-522.184600017806
 31
0.0
  0
LINE
  5
B96F
330
211F
100
AcDbEntity
  8
AM_VIS
100
AcDbLine
 10
185.5094294199593
 20
-524.884600017806
 30
0.0
 11
189.2475772677233
 21
-524.884600017806
 31
0.0
  0
LINE
  5
B970
330
211F
100
AcDbEntity
  8
AM_VIS
100
AcDbLine
 10
193.9921487319921
 20
-522.184600017806
 30
0.0
 11
193.5036961278456
 21
-522.184600017806
 31
0.0
  0
SPLINE
  5
B971
330
211F
100
AcDbEntity
  8
AM_VIS
100
AcDbSpline
210
0.0
220
0.0000000000000002
230
1.0
 70
    12
 71
     2
 72
     6
 73
     3
 74
     0
 42
0.0000000001
 43
0.0000000001
 40
6.908533529340524
 40
6.908533529340524
 40
6.908533529340524
 40
22.03328707889128
 40
22.03328707889128
 40
22.03328707889128
 10
201.7134980408742
 20
-468.9563967875306
 30
0.0000000000000001
 41
1.056225754107474
 10
198.1427838266028
 20
-468.4308041408396
 30
0.0
 41
1.098474784271773
 10
194.5720696123297
 20
-468.9563967875306
 30
0.0000000000000001
 41
1.056225754107474
  0
SPLINE
  5
B972
330
211F
100
AcDbEntity
  8
AM_VIS
100
AcDbSpline
210
0.0
220
0.0000000000000001
230
1.0
 70
    12
 71
     2
 72
     6
 73
     3
 74
     0
 42
0.0000000001
 43
0.0000000001
 40
6.908533529340578
 40
6.908533529340578
 40
6.908533529340578
 40
22.03328707889106
 40
22.03328707889106
 40
22.03328707889106
 10
183.6335771605345
 20
-468.9563967875305
 30
0.0000000000000001
 41
1.056225754107475
 10
176.4921487319914
 20
-468.4308041408391
 30
0.0
 41
1.098474784271774
 10
169.3507203034497
 20
-468.95639678753
 30
0.0
 41
1.056225754107475
  0
SPLINE
  5
B973
330
211F
100
AcDbEntity
  8
AM_VIS
100
AcDbSpline
210
0.0
220
0.0
230
1.0
 70
    12
 71
     2
 72
     6
 73
     3
 74
     0
 42
0.0000000001
 43
0.0000000001
 40
6.908533529340628
 40
6.908533529340628
 40
6.908533529340628
 40
22.03328707889094
 40
22.03328707889094
 40
22.03328707889094
 10
158.4122278516534
 20
-468.95639678753
 30
0.0
 41
1.056225754107475
 10
154.8415136373808
 20
-468.4308041408396
 30
0.0
 41
1.098474784271773
 10
151.2707994231099
 20
-468.95639678753
 30
0.0
 41
1.056225754107475
  0
LINE
  5
B974
330
211F
100
AcDbEntity
  8
AM_VIS
100
AcDbLine
 10
151.2707994231095
 20
-468.9563967875304
 30
0.0
 11
151.2707994231095
 21
-473.884600017806
 31
0.0
  0
LINE
  5
B975
330
211F
100
AcDbEntity
  8
AM_VIS
100
AcDbLine
 10
158.4122278516524
 20
-473.884600017806
 30
0.0
 11
158.4122278516524
 21
-468.9563967875304
 31
0.0
  0
LINE
  5
B976
330
211F
100
AcDbEntity
  8
AM_VIS
100
AcDbLine
 10
169.3507203034491
 20
-468.9563967875304
 30
0.0
 11
169.3507203034491
 21
-473.884600017806
 31
0.0
  0
LINE
  5
B977
330
211F
100
AcDbEntity
  8
AM_VIS
100
AcDbLine
 10
183.6335771605349
 20
-473.884600017806
 30
0.0
 11
183.6335771605349
 21
-468.9563967875304
 31
0.0
  0
LINE
  5
B978
330
211F
100
AcDbEntity
  8
AM_VIS
100
AcDbLine
 10
194.5720696123317
 20
-468.9563967875304
 30
0.0
 11
194.5720696123317
 21
-473.884600017806
 31
0.0
  0
LINE
  5
B979
330
211F
100
AcDbEntity
  8
AM_VIS
100
AcDbLine
 10
201.7134980408746
 20
-473.884600017806
 30
0.0
 11
201.7134980408746
 21
-468.9563967875304
 31
0.0
  0
LINE
  5
B97A
330
211F
100
AcDbEntity
  8
AM_VIS
100
AcDbLine
 10
158.4122278516524
 20
-473.884600017806
 30
0.0
 11
151.2707994231095
 21
-473.884600017806
 31
0.0
  0
LINE
  5
B97B
330
211F
100
AcDbEntity
  8
AM_VIS
100
AcDbLine
 10
183.6335771605349
 20
-473.884600017806
 30
0.0
 11
169.3507203034491
 21
-473.884600017806
 31
0.0
  0
LINE
  5
B97C
330
211F
100
AcDbEntity
  8
AM_VIS
100
AcDbLine
 10
201.7134980408746
 20
-473.884600017806
 30
0.0
 11
194.5720696123317
 21
-473.884600017806
 31
0.0
  0
LINE
  5
B97D
330
211F
100
AcDbEntity
  8
AM_VIS
100
AcDbLine
 10
154.4921487319921
 20
-467.8846000178061
 30
0.0
 11
150.492148731992
 21
-468.9563967875304
 31
0.0
  0
LINE
  5
B97E
330
211F
100
AcDbEntity
  8
AM_VIS
100
AcDbLine
 10
198.4921487319921
 20
-467.8846000178061
 30
0.0
 11
202.4921487319921
 21
-468.9563967875304
 31
0.0
  0
LINE
  5
B97F
330
211F
100
AcDbEntity
  8
AM_VIS
100
AcDbLine
 10
150.492148731992
 20
-473.884600017806
 30
0.0
 11
150.492148731992
 21
-468.9563967875304
 31
0.0
  0
LINE
  5
B980
330
211F
100
AcDbEntity
  8
AM_VIS
100
AcDbLine
 10
202.4921487319921
 20
-473.884600017806
 30
0.0
 11
202.4921487319921
 21
-468.9563967875304
 31
0.0
  0
LINE
  5
B981
330
211F
100
AcDbEntity
  8
AM_VIS
100
AcDbLine
 10
198.4921487319921
 20
-467.8846000178061
 30
0.0
 11
154.4921487319921
 21
-467.8846000178061
 31
0.0
  0
LINE
  5
B982
330
211F
100
AcDbEntity
  8
AM_VIS
100
AcDbLine
 10
151.2707994231095
 20
-468.9563967875304
 30
0.0
 11
150.492148731992
 21
-468.9563967875304
 31
0.0
  0
LINE
  5
B983
330
211F
100
AcDbEntity
  8
AM_VIS
100
AcDbLine
 10
169.3507203034491
 20
-468.9563967875304
 30
0.0
 11
158.4122278516524
 21
-468.9563967875304
 31
0.0
  0
LINE
  5
B984
330
211F
100
AcDbEntity
  8
AM_VIS
100
AcDbLine
 10
194.5720696123314
 20
-468.9563967875304
 30
0.0
 11
183.6335771605349
 21
-468.9563967875304
 31
0.0
  0
LINE
  5
B985
330
211F
100
AcDbEntity
  8
AM_VIS
100
AcDbLine
 10
202.4921487319921
 20
-468.9563967875304
 30
0.0
 11
201.7134980408746
 21
-468.9563967875304
 31
0.0
  0
LINE
  5
B986
330
211F
100
AcDbEntity
  8
AM_VIS
100
AcDbLine
 10
150.492148731992
 20
-473.884600017806
 30
0.0
 11
151.2707994231095
 21
-473.884600017806
 31
0.0
  0
LINE
  5
B987
330
211F
100
AcDbEntity
  8
AM_VIS
100
AcDbLine
 10
158.4122278516524
 20
-473.884600017806
 30
0.0
 11
159.9783427481523
 21
-473.884600017806
 31
0.0
  0
LINE
  5
B988
330
211F
100
AcDbEntity
  8
AM_VIS
100
AcDbLine
 10
193.0059547158318
 20
-473.884600017806
 30
0.0
 11
194.5720696123317
 21
-473.884600017806
 31
0.0
  0
LINE
  5
B989
330
211F
100
AcDbEntity
  8
AM_VIS
100
AcDbLine
 10
201.7134980408746
 20
-473.884600017806
 30
0.0
 11
202.4921487319921
 21
-473.884600017806
 31
0.0
  0
LINE
  5
B98A
330
211F
100
AcDbEntity
  8
AM_VIS
100
AcDbLine
 10
191.5412476328418
 20
-454.384600017806
 30
0.0
 11
192.1295693462468
 21
-454.684600017806
 31
0.0
  0
LINE
  5
B98B
330
211F
100
AcDbEntity
  8
AM_VIS
100
AcDbLine
 10
190.5868155686667
 20
-424.015215658405
 30
0.0
 11
191.5412476328418
 21
-454.384600017806
 31
0.0
  0
LINE
  5
B98C
330
211F
100
AcDbEntity
  8
AM_VIS
100
AcDbLine
 10
180.6124594040489
 20
-454.384600017806
 30
0.0
 11
180.7735367051095
 21
-454.684600017806
 31
0.0
  0
LINE
  5
B98D
330
211F
100
AcDbEntity
  8
AM_VIS
100
AcDbLine
 10
160.8547281177373
 20
-454.684600017806
 30
0.0
 11
161.4430498311424
 21
-454.384600017806
 31
0.0
  0
LINE
  5
B98E
330
211F
100
AcDbEntity
  8
AM_VIS
100
AcDbLine
 10
161.4430498311424
 20
-454.384600017806
 30
0.0
 11
162.3974818953174
 21
-424.015215658405
 31
0.0
  0
LINE
  5
B98F
330
211F
100
AcDbEntity
  8
AM_VIS
100
AcDbLine
 10
172.2107607588745
 20
-454.684600017806
 30
0.0
 11
172.3718380599352
 21
-454.384600017806
 31
0.0
  0
LINE
  5
B990
330
211F
100
AcDbEntity
  8
AM_VIS
100
AcDbLine
 10
180.3511443149736
 20
-424.015215658405
 30
0.0
 11
180.6124594040489
 21
-454.384600017806
 31
0.0
  0
LINE
  5
B991
330
211F
100
AcDbEntity
  8
AM_VIS
100
AcDbLine
 10
172.3718380599352
 20
-454.384600017806
 30
0.0
 11
172.6331531490104
 21
-424.015215658405
 31
0.0
  0
LINE
  5
B992
330
211F
100
AcDbEntity
  8
AM_VIS
100
AcDbLine
 10
192.5660221465659
 20
-424.015215658405
 30
0.0
 11
193.5565748281765
 21
-425.033915086299
 31
0.0
  0
LINE
  5
B993
330
211F
100
AcDbEntity
  8
AM_VIS
100
AcDbLine
 10
191.4553996162938
 20
-425.033915086299
 30
0.0
 11
190.5868155686667
 21
-424.015215658405
 31
0.0
  0
LINE
  5
B994
330
211F
100
AcDbEntity
  8
AM_VIS
100
AcDbLine
 10
185.129371678076
 20
-424.015215658405
 30
0.0
 11
185.6616406670277
 21
-425.033915086299
 31
0.0
  0
LINE
  5
B995
330
211F
100
AcDbEntity
  8
AM_VIS
100
AcDbLine
 10
180.5889549735784
 20
-425.033915086299
 30
0.0
 11
180.3511443149736
 21
-424.015215658405
 31
0.0
  0
LINE
  5
B996
330
211F
100
AcDbEntity
  8
AM_VIS
100
AcDbLine
 10
172.6331531490104
 20
-424.015215658405
 30
0.0
 11
172.3953424904057
 21
-425.033915086299
 31
0.0
  0
LINE
  5
B997
330
211F
100
AcDbEntity
  8
AM_VIS
100
AcDbLine
 10
167.3226567969564
 20
-425.033915086299
 30
0.0
 11
167.8549257859081
 21
-424.015215658405
 31
0.0
  0
LINE
  5
B998
330
211F
100
AcDbEntity
  8
AM_VIS
100
AcDbLine
 10
162.3974818953174
 20
-424.015215658405
 30
0.0
 11
161.5288978476903
 21
-425.033915086299
 31
0.0
  0
LINE
  5
B999
330
211F
100
AcDbEntity
  8
AM_VIS
100
AcDbLine
 10
159.4277226358076
 20
-425.033915086299
 30
0.0
 11
160.4182753174182
 21
-424.015215658405
 31
0.0
  0
LINE
  5
B99A
330
211F
100
AcDbEntity
  8
AM_VIS
100
AcDbLine
 10
186.0747724088826
 20
-454.684600017806
 30
0.0
 11
185.6616406670277
 21
-425.033915086299
 31
0.0
  0
LINE
  5
B99B
330
211F
100
AcDbEntity
  8
AM_VIS
100
AcDbLine
 10
191.4553996162938
 20
-425.033915086299
 30
0.0
 11
192.1295693462461
 21
-454.684600017806
 31
0.0
  0
LINE
  5
B99C
330
211F
100
AcDbEntity
  8
AM_VIS
100
AcDbLine
 10
194.3254130720854
 20
-454.684600017806
 30
0.0
 11
193.5565748281765
 21
-425.033915086299
 31
0.0
  0
LINE
  5
B99D
330
211F
100
AcDbEntity
  8
AM_VIS
100
AcDbLine
 10
159.4277226358076
 20
-425.033915086299
 30
0.0
 11
158.6588843918987
 21
-454.684600017806
 31
0.0
  0
LINE
  5
B99E
330
211F
100
AcDbEntity
  8
AM_VIS
100
AcDbLine
 10
160.8547281177379
 20
-454.684600017806
 30
0.0
 11
161.5288978476903
 21
-425.033915086299
 31
0.0
  0
LINE
  5
B99F
330
211F
100
AcDbEntity
  8
AM_VIS
100
AcDbLine
 10
167.3226567969564
 20
-425.033915086299
 30
0.0
 11
166.9095250551015
 21
-454.684600017806
 31
0.0
  0
LINE
  5
B9A0
330
211F
100
AcDbEntity
  8
AM_VIS
100
AcDbLine
 10
172.2107607588748
 20
-454.684600017806
 30
0.0
 11
172.3953424904057
 21
-425.033915086299
 31
0.0
  0
LINE
  5
B9A1
330
211F
100
AcDbEntity
  8
AM_VIS
100
AcDbLine
 10
180.5889549735784
 20
-425.033915086299
 30
0.0
 11
180.7735367051093
 21
-454.684600017806
 31
0.0
  0
LINE
  5
B9A2
330
211F
100
AcDbEntity
  8
AM_VIS
100
AcDbLine
 10
194.3196350677865
 20
-454.4617679898904
 30
0.0
 11
194.832148731992
 21
-454.6846000178056
 31
0.0
  0
LINE
  5
B9A3
330
211F
100
AcDbEntity
  8
AM_VIS
100
AcDbLine
 10
193.0227643725911
 20
-424.015215658405
 30
0.0
 11
193.0407599396863
 21
-424.5034432178571
 31
0.0
  0
LINE
  5
B9A4
330
211F
100
AcDbEntity
  8
AM_VIS
100
AcDbLine
 10
158.6646623961976
 20
-454.4617679898904
 30
0.0
 11
158.1521487319919
 21
-454.6846000178056
 31
0.0
  0
LINE
  5
B9A5
330
211F
100
AcDbEntity
  8
AM_VIS
100
AcDbLine
 10
159.961533091393
 20
-424.015215658405
 30
0.0
 11
159.9435375242979
 21
-424.5034432178571
 31
0.0
  0
LINE
  5
B9A6
330
211F
100
AcDbEntity
  8
AM_VIS
100
AcDbLine
 10
160.792148731992
 20
-423.184600017806
 30
0.0
 11
159.961533091393
 21
-424.015215658405
 31
0.0
  0
LINE
  5
B9A7
330
211F
100
AcDbEntity
  8
AM_VIS
100
AcDbLine
 10
192.1921487319921
 20
-423.184600017806
 30
0.0
 11
193.0227643725911
 21
-424.015215658405
 31
0.0
  0
LINE
  5
B9A8
330
211F
100
AcDbEntity
  8
AM_VIS
100
AcDbLine
 10
158.1521487319919
 20
-454.6846000178056
 30
0.0
 11
158.0058374945286
 21
-460.1712714226866
 31
0.0
  0
LINE
  5
B9A9
330
211F
100
AcDbEntity
  8
AM_VIS
100
AcDbLine
 10
194.832148731992
 20
-454.6846000178056
 30
0.0
 11
194.9784599694556
 21
-460.1712714226866
 31
0.0
  0
LINE
  5
B9AA
330
211F
100
AcDbEntity
  8
AM_VIS
100
AcDbLine
 10
191.5412476328418
 20
-454.384600017806
 30
0.0
 11
186.0705924203648
 21
-454.384600017806
 31
0.0
  0
LINE
  5
B9AB
330
211F
100
AcDbEntity
  8
AM_VIS
100
AcDbLine
 10
166.9137050436193
 20
-454.384600017806
 30
0.0
 11
161.4430498311424
 21
-454.384600017806
 31
0.0
  0
LINE
  5
B9AC
330
211F
100
AcDbEntity
  8
AM_VIS
100
AcDbLine
 10
180.6124594040489
 20
-454.384600017806
 30
0.0
 11
172.3718380599352
 21
-454.384600017806
 31
0.0
  0
LINE
  5
B9AD
102
{ACAD_REACTORS
330
BBCC
102
}
330
211F
100
AcDbEntity
  8
AM_VIS
100
AcDbLine
 10
192.1921487319921
 20
-423.184600017806
 30
0.0
 11
160.792148731992
 21
-423.184600017806
 31
0.0
  0
LINE
  5
B9AE
330
211F
100
AcDbEntity
  8
AM_VIS
100
AcDbLine
 10
192.5660221465659
 20
-424.015215658405
 30
0.0
 11
193.0227643725911
 21
-424.015215658405
 31
0.0
  0
LINE
  5
B9AF
330
211F
100
AcDbEntity
  8
AM_VIS
100
AcDbLine
 10
185.129371678076
 20
-424.0152156584052
 30
0.0
 11
190.5868155686667
 21
-424.0152156584052
 31
0.0
  0
LINE
  5
B9B0
330
211F
100
AcDbEntity
  8
AM_VIS
100
AcDbLine
 10
172.6331531490104
 20
-424.015215658405
 30
0.0
 11
180.3511443149736
 21
-424.015215658405
 31
0.0
  0
LINE
  5
B9B1
330
211F
100
AcDbEntity
  8
AM_VIS
100
AcDbLine
 10
162.3974818953174
 20
-424.015215658405
 30
0.0
 11
167.8549257859081
 21
-424.015215658405
 31
0.0
  0
LINE
  5
B9B2
330
211F
100
AcDbEntity
  8
AM_VIS
100
AcDbLine
 10
159.961533091393
 20
-424.015215658405
 30
0.0
 11
160.4182753174182
 21
-424.015215658405
 31
0.0
  0
LINE
  5
B9B3
330
211F
100
AcDbEntity
  8
AM_VIS
100
AcDbLine
 10
186.0747724088826
 20
-454.6846000178056
 30
0.0
 11
192.1295693462461
 21
-454.6846000178056
 31
0.0
  0
LINE
  5
B9B4
330
211F
100
AcDbEntity
  8
AM_VIS
100
AcDbLine
 10
191.4553996162938
 20
-425.033915086299
 30
0.0
 11
193.5565748281765
 21
-425.033915086299
 31
0.0
  0
LINE
  5
B9B5
330
211F
100
AcDbEntity
  8
AM_VIS
100
AcDbLine
 10
194.3254130720854
 20
-454.6846000178056
 30
0.0
 11
194.8321487319922
 21
-454.6846000178056
 31
0.0
  0
LINE
  5
B9B6
330
211F
100
AcDbEntity
  8
AM_VIS
100
AcDbLine
 10
158.1521487319919
 20
-454.6846000178056
 30
0.0
 11
158.6588843918987
 21
-454.6846000178056
 31
0.0
  0
LINE
  5
B9B7
330
211F
100
AcDbEntity
  8
AM_VIS
100
AcDbLine
 10
159.4277226358076
 20
-425.033915086299
 30
0.0
 11
161.5288978476903
 21
-425.033915086299
 31
0.0
  0
LINE
  5
B9B8
330
211F
100
AcDbEntity
  8
AM_VIS
100
AcDbLine
 10
160.8547281177379
 20
-454.6846000178056
 30
0.0
 11
166.9095250551015
 21
-454.6846000178056
 31
0.0
  0
LINE
  5
B9B9
330
211F
100
AcDbEntity
  8
AM_VIS
100
AcDbLine
 10
167.3226567969564
 20
-425.033915086299
 30
0.0
 11
172.3953424904057
 21
-425.033915086299
 31
0.0
  0
LINE
  5
B9BA
330
211F
100
AcDbEntity
  8
AM_VIS
100
AcDbLine
 10
172.2107607588748
 20
-454.6846000178056
 30
0.0
 11
180.7735367051093
 21
-454.6846000178056
 31
0.0
  0
LINE
  5
B9BB
330
211F
100
AcDbEntity
  8
AM_VIS
100
AcDbLine
 10
180.5889549735784
 20
-425.033915086299
 30
0.0
 11
185.6616406670277
 21
-425.033915086299
 31
0.0
  0
LINE
  5
B9BC
330
211F
100
AcDbEntity
  8
AM_VIS
100
AcDbLine
 10
194.4786376524746
 20
-460.684600017806
 30
0.0
 11
158.5056598115095
 21
-460.684600017806
 31
0.0
  0
ARC
  5
B9BD
330
211F
100
AcDbEntity
  8
AM_VIS
100
AcDbCircle
 10
194.4786376524746
 20
-460.184600017806
 30
0.0
 40
0.5
100
AcDbArc
 50
270.0
 51
1.527525442207913
  0
ARC
  5
B9BE
330
211F
100
AcDbEntity
  8
AM_VIS
100
AcDbCircle
 10
158.5056598115095
 20
-460.184600017806
 30
0.0
 40
0.5
100
AcDbArc
 50
178.4724745577921
 51
270.0
  0
LINE
  5
B9BF
330
211F
100
AcDbEntity
  8
AM_VIS
100
AcDbLine
 10
163.9921487319921
 20
-479.3846000178058
 30
0.0
 11
188.992148731992
 21
-479.3846000178058
 31
0.0
  0
LINE
  5
B9C0
330
211F
100
AcDbEntity
  8
AM_VIS
100
AcDbLine
 10
189.9921487319921
 20
-480.3846000178058
 30
0.0
 11
189.9921487319921
 21
-505.3846000178058
 31
0.0
  0
LINE
  5
B9C1
330
211F
100
AcDbEntity
  8
AM_VIS
100
AcDbLine
 10
188.992148731992
 20
-506.3846000178058
 30
0.0
 11
163.9921487319921
 21
-506.3846000178058
 31
0.0
  0
LINE
  5
B9C2
330
211F
100
AcDbEntity
  8
AM_VIS
100
AcDbLine
 10
162.992148731992
 20
-505.3846000178058
 30
0.0
 11
162.992148731992
 21
-480.3846000178058
 31
0.0
  0
ARC
  5
B9C3
330
211F
100
AcDbEntity
  8
AM_VIS
100
AcDbCircle
 10
163.9921487319921
 20
-480.3846000178058
 30
0.0
 40
0.9999999999999998
100
AcDbArc
 50
90.0
 51
180.0
  0
ARC
  5
B9C4
330
211F
100
AcDbEntity
  8
AM_VIS
100
AcDbCircle
 10
188.992148731992
 20
-480.3846000178058
 30
0.0
 40
0.9999999999999998
100
AcDbArc
 50
0.0
 51
90.0
  0
ARC
  5
B9C5
330
211F
100
AcDbEntity
  8
AM_VIS
100
AcDbCircle
 10
188.992148731992
 20
-505.3846000178058
 30
0.0
 40
0.9999999999999998
100
AcDbArc
 50
270.0
 51
0.0
  0
ARC
  5
B9C6
330
211F
100
AcDbEntity
  8
AM_VIS
100
AcDbCircle
 10
163.9921487319921
 20
-505.3846000178058
 30
0.0
 40
0.9999999999999998
100
AcDbArc
 50
180.0
 51
270.0
  0
CIRCLE
  5
B9C7
330
211F
100
AcDbEntity
  8
AM_VIS
100
AcDbCircle
 10
176.4921487319921
 20
-492.8846000178058
 30
0.0
 40
10.5
  0
CIRCLE
  5
B9C8
330
211F
100
AcDbEntity
  8
AM_VIS
100
AcDbCircle
 10
186.492148731992
 20
-482.8846000178058
 30
0.0
 40
2.75
  0
CIRCLE
  5
B9C9
330
211F
100
AcDbEntity
  8
AM_VIS
100
AcDbCircle
 10
166.492148731992
 20
-502.8846000178058
 30
0.0
 40
2.75
  0
LINE
  5
B9CA
330
211F
100
AcDbEntity
  8
AM_VIS
100
AcDbLine
 10
202.9921487319921
 20
-475.6911732799409
 30
0.0
 11
202.9921487319921
 21
-471.884600017806
 31
0.0
  0
LINE
  5
B9CB
330
211F
100
AcDbEntity
  8
AM_VIS
100
AcDbLine
 10
149.992148731992
 20
-475.6911732799409
 30
0.0
 11
149.992148731992
 21
-471.884600017806
 31
0.0
  0
LINE
  5
B9CC
330
211F
100
AcDbEntity
  8
AM_VIS
100
AcDbLine
 10
156.4921487319921
 20
-457.934600017806
 30
0.0
 11
158.0654820653253
 21
-457.934600017806
 31
0.0
  0
LINE
  5
B9CD
330
211F
100
AcDbEntity
  8
AM_VIS
100
AcDbLine
 10
160.792148731992
 20
-464.4346000178059
 30
0.0
 11
156.4921487319921
 21
-464.4346000178059
 31
0.0
  0
LINE
  5
B9CE
330
211F
100
AcDbEntity
  8
AM_VIS
100
AcDbLine
 10
149.992148731992
 20
-471.884600017806
 30
0.0
 11
149.992148731992
 21
-458.1846000178059
 31
0.0
  0
LINE
  5
B9CF
330
211F
100
AcDbEntity
  8
AM_VIS
100
AcDbLine
 10
197.992148731992
 20
-453.184600017806
 30
0.0
 11
194.2865182752703
 21
-453.184600017806
 31
0.0
  0
LINE
  5
B9D0
330
211F
100
AcDbEntity
  8
AM_VIS
100
AcDbLine
 10
158.6977791887138
 20
-453.184600017806
 30
0.0
 11
154.992148731992
 21
-453.184600017806
 31
0.0
  0
LINE
  5
B9D1
102
{ACAD_REACTORS
330
BBD2
102
}
330
211F
100
AcDbEntity
  8
AM_VIS
100
AcDbLine
 10
202.9921487319921
 20
-471.884600017806
 30
0.0
 11
202.9921487319921
 21
-458.1846000178059
 31
0.0
  0
ELLIPSE
  5
B9D2
330
211F
100
AcDbEntity
  8
AM_VIS
100
AcDbEllipse
 10
202.9156181197472
 20
-471.884600017806
 30
0.0
 11
0.0
 21
1.999999999999999
 31
0.0
210
0.0
220
0.0
230
1.0
 40
0.0382653061224497
 41
3.14159265358979
 42
4.712388980384689
  0
ELLIPSE
  5
B9D3
330
211F
100
AcDbEntity
  8
AM_VIS
100
AcDbEllipse
 10
202.9156181197472
 20
-471.884600017806
 30
0.0
 11
0.0000000000000001
 21
-4.299999999999999
 31
0.0
210
0.0
220
0.0
230
1.0
 40
0.0382653061224497
 41
0.0000000000000009
 42
0.4837659584207426
  0
LINE
  5
B9D4
330
211F
100
AcDbEntity
  8
AM_VIS
100
AcDbLine
 10
150.0686793442369
 20
-476.184600017806
 30
0.0
 11
150.2780058891376
 21
-476.184600017806
 31
0.0
  0
LINE
  5
B9D5
330
211F
100
AcDbEntity
  8
AM_VIS
100
AcDbLine
 10
202.7062915748465
 20
-476.184600017806
 30
0.0
 11
202.9156181197472
 21
-476.184600017806
 31
0.0
  0
ELLIPSE
  5
B9D6
330
211F
100
AcDbEntity
  8
AM_VIS
100
AcDbEllipse
 10
150.0686793442369
 20
-471.884600017806
 30
0.0
 11
0.0
 21
-1.999999999999999
 31
0.0
210
0.0
220
0.0
230
1.0
 40
0.038265306122449
 41
4.712388980384689
 42
6.283185307179586
  0
LINE
  5
B9D7
330
211F
100
AcDbEntity
  8
AM_VIS
100
AcDbLine
 10
202.9156181197472
 20
-473.884600017806
 30
0.0
 11
202.4921487319921
 21
-473.884600017806
 31
0.0
  0
LINE
  5
B9D8
330
211F
100
AcDbEntity
  8
AM_VIS
100
AcDbLine
 10
184.3936738878133
 20
-473.884600017806
 30
0.0
 11
168.5906235761708
 21
-473.884600017806
 31
0.0
  0
LINE
  5
B9D9
330
211F
100
AcDbEntity
  8
AM_VIS
100
AcDbLine
 10
150.492148731992
 20
-473.884600017806
 30
0.0
 11
150.0686793442369
 21
-473.884600017806
 31
0.0
  0
ELLIPSE
  5
B9DA
330
211F
100
AcDbEntity
  8
AM_VIS
100
AcDbEllipse
 10
150.0686793442369
 20
-471.884600017806
 30
0.0
 11
0.0000000000000001
 21
4.299999999999999
 31
0.0
210
0.0
220
0.0
230
1.0
 40
0.038265306122449
 41
2.657826695169064
 42
3.14159265358979
  0
ARC
  5
B9DB
330
211F
100
AcDbEntity
  8
AM_VIS
100
AcDbCircle
 10
156.4921487319921
 20
-461.184600017806
 30
0.0
 40
3.25
100
AcDbArc
 50
90.0
 51
270.0
  0
ARC
  5
B9DC
102
{ACAD_REACTORS
330
BBD2
102
}
330
211F
100
AcDbEntity
  8
AM_VIS
100
AcDbCircle
 10
154.992148731992
 20
-458.1846000178059
 30
0.0
 40
5.0
100
AcDbArc
 50
90.0
 51
180.0
  0
ARC
  5
B9DD
330
211F
100
AcDbEntity
  8
AM_VIS
100
AcDbCircle
 10
197.992148731992
 20
-458.1846000178059
 30
0.0
 40
5.0
100
AcDbArc
 50
0.0
 51
90.0
  0
LINE
  5
B9DE
330
211F
100
AcDbEntity
  8
AM_VIS
100
AcDbLine
 10
184.3936738878133
 20
-473.884600017806
 30
0.0
 11
193.0059547158318
 21
-473.884600017806
 31
0.0
  0
LINE
  5
B9DF
330
211F
100
AcDbEntity
  8
AM_VIS
100
AcDbLine
 10
159.9783427481523
 20
-473.884600017806
 30
0.0
 11
168.5906235761708
 21
-473.884600017806
 31
0.0
  0
LINE
  5
B9E0
330
211F
100
AcDbEntity
  8
AM_VIS
100
AcDbLine
 10
188.8921487319921
 20
-462.684600017806
 30
0.0
 11
188.8921487319921
 21
-461.2846000178059
 31
0.0
  0
LINE
  5
B9E1
330
211F
100
AcDbEntity
  8
AM_VIS
100
AcDbLine
 10
164.092148731992
 20
-462.684600017806
 30
0.0
 11
164.092148731992
 21
-461.2846000178059
 31
0.0
  0
LINE
  5
B9E2
330
211F
100
AcDbEntity
  8
AM_VIS
100
AcDbLine
 10
164.092148731992
 20
-461.2846000178059
 30
0.0
 11
188.8921487319921
 21
-461.2846000178059
 31
0.0
  0
LINE
  5
B9E3
330
211F
100
AcDbEntity
  8
AM_VIS
100
AcDbLine
 10
186.8921487319921
 20
-484.684600017806
 30
0.0
 11
186.0921487319919
 21
-484.684600017806
 31
0.0
  0
LINE
  5
B9E4
330
211F
100
AcDbEntity
  8
AM_VIS
100
AcDbLine
 10
186.8921487319921
 20
-483.5846000178061
 30
0.0
 11
186.8921487319921
 21
-484.684600017806
 31
0.0
  0
LINE
  5
B9E5
330
211F
100
AcDbEntity
  8
AM_VIS
100
AcDbLine
 10
188.292148731992
 20
-483.2846000178059
 30
0.0
 11
187.1921487319921
 21
-483.2846000178059
 31
0.0
  0
LINE
  5
B9E6
330
211F
100
AcDbEntity
  8
AM_VIS
100
AcDbLine
 10
188.292148731992
 20
-482.4846000178061
 30
0.0
 11
188.292148731992
 21
-483.2846000178059
 31
0.0
  0
LINE
  5
B9E7
330
211F
100
AcDbEntity
  8
AM_VIS
100
AcDbLine
 10
187.1921487319921
 20
-482.4846000178061
 30
0.0
 11
188.292148731992
 21
-482.4846000178061
 31
0.0
  0
LINE
  5
B9E8
330
211F
100
AcDbEntity
  8
AM_VIS
100
AcDbLine
 10
186.8921487319921
 20
-481.084600017806
 30
0.0
 11
186.8921487319921
 21
-482.184600017806
 31
0.0
  0
LINE
  5
B9E9
330
211F
100
AcDbEntity
  8
AM_VIS
100
AcDbLine
 10
186.0921487319919
 20
-481.084600017806
 30
0.0
 11
186.8921487319921
 21
-481.084600017806
 31
0.0
  0
LINE
  5
B9EA
330
211F
100
AcDbEntity
  8
AM_VIS
100
AcDbLine
 10
186.0921487319919
 20
-482.184600017806
 30
0.0
 11
186.0921487319919
 21
-481.084600017806
 31
0.0
  0
LINE
  5
B9EB
330
211F
100
AcDbEntity
  8
AM_VIS
100
AcDbLine
 10
184.6921487319921
 20
-482.4846000178061
 30
0.0
 11
185.792148731992
 21
-482.4846000178061
 31
0.0
  0
LINE
  5
B9EC
330
211F
100
AcDbEntity
  8
AM_VIS
100
AcDbLine
 10
184.6921487319921
 20
-483.2846000178059
 30
0.0
 11
184.6921487319921
 21
-482.4846000178061
 31
0.0
  0
LINE
  5
B9ED
330
211F
100
AcDbEntity
  8
AM_VIS
100
AcDbLine
 10
185.792148731992
 20
-483.2846000178059
 30
0.0
 11
184.6921487319921
 21
-483.2846000178059
 31
0.0
  0
LINE
  5
B9EE
330
211F
100
AcDbEntity
  8
AM_VIS
100
AcDbLine
 10
186.0921487319919
 20
-484.684600017806
 30
0.0
 11
186.0921487319919
 21
-483.5846000178061
 31
0.0
  0
ARC
  5
B9EF
330
211F
100
AcDbEntity
  8
AM_VIS
100
AcDbCircle
 10
187.1921487319921
 20
-483.5846000178061
 30
0.0
 40
0.3
100
AcDbArc
 50
90.0
 51
180.0
  0
ARC
  5
B9F0
330
211F
100
AcDbEntity
  8
AM_VIS
100
AcDbCircle
 10
187.1921487319921
 20
-482.184600017806
 30
0.0
 40
0.3
100
AcDbArc
 50
180.0
 51
270.0
  0
ARC
  5
B9F1
330
211F
100
AcDbEntity
  8
AM_VIS
100
AcDbCircle
 10
185.792148731992
 20
-482.184600017806
 30
0.0
 40
0.3
100
AcDbArc
 50
270.0
 51
0.0
  0
ARC
  5
B9F2
330
211F
100
AcDbEntity
  8
AM_VIS
100
AcDbCircle
 10
185.792148731992
 20
-483.5846000178061
 30
0.0
 40
0.3
100
AcDbArc
 50
0.0
 51
90.0
  0
LINE
  5
B9F3
330
211F
100
AcDbEntity
  8
AM_VIS
100
AcDbLine
 10
166.8921487319921
 20
-504.684600017806
 30
0.0
 11
166.092148731992
 21
-504.684600017806
 31
0.0
  0
LINE
  5
B9F4
330
211F
100
AcDbEntity
  8
AM_VIS
100
AcDbLine
 10
166.8921487319921
 20
-503.5846000178061
 30
0.0
 11
166.8921487319921
 21
-504.684600017806
 31
0.0
  0
LINE
  5
B9F5
330
211F
100
AcDbEntity
  8
AM_VIS
100
AcDbLine
 10
168.292148731992
 20
-503.2846000178059
 30
0.0
 11
167.1921487319919
 21
-503.2846000178059
 31
0.0
  0
LINE
  5
B9F6
330
211F
100
AcDbEntity
  8
AM_VIS
100
AcDbLine
 10
168.292148731992
 20
-502.4846000178062
 30
0.0
 11
168.292148731992
 21
-503.2846000178059
 31
0.0
  0
LINE
  5
B9F7
330
211F
100
AcDbEntity
  8
AM_VIS
100
AcDbLine
 10
167.1921487319919
 20
-502.4846000178062
 30
0.0
 11
168.292148731992
 21
-502.4846000178062
 31
0.0
  0
LINE
  5
B9F8
330
211F
100
AcDbEntity
  8
AM_VIS
100
AcDbLine
 10
166.8921487319921
 20
-501.0846000178061
 30
0.0
 11
166.8921487319921
 21
-502.184600017806
 31
0.0
  0
LINE
  5
B9F9
330
211F
100
AcDbEntity
  8
AM_VIS
100
AcDbLine
 10
166.092148731992
 20
-501.0846000178061
 30
0.0
 11
166.8921487319921
 21
-501.0846000178061
 31
0.0
  0
LINE
  5
B9FA
330
211F
100
AcDbEntity
  8
AM_VIS
100
AcDbLine
 10
166.092148731992
 20
-502.184600017806
 30
0.0
 11
166.092148731992
 21
-501.0846000178061
 31
0.0
  0
LINE
  5
B9FB
330
211F
100
AcDbEntity
  8
AM_VIS
100
AcDbLine
 10
164.6921487319919
 20
-502.4846000178062
 30
0.0
 11
165.792148731992
 21
-502.4846000178062
 31
0.0
  0
LINE
  5
B9FC
330
211F
100
AcDbEntity
  8
AM_VIS
100
AcDbLine
 10
164.6921487319919
 20
-503.2846000178059
 30
0.0
 11
164.6921487319919
 21
-502.4846000178062
 31
0.0
  0
LINE
  5
B9FD
330
211F
100
AcDbEntity
  8
AM_VIS
100
AcDbLine
 10
165.792148731992
 20
-503.2846000178059
 30
0.0
 11
164.6921487319919
 21
-503.2846000178059
 31
0.0
  0
LINE
  5
B9FE
330
211F
100
AcDbEntity
  8
AM_VIS
100
AcDbLine
 10
166.092148731992
 20
-504.684600017806
 30
0.0
 11
166.092148731992
 21
-503.5846000178061
 31
0.0
  0
ARC
  5
B9FF
330
211F
100
AcDbEntity
  8
AM_VIS
100
AcDbCircle
 10
167.1921487319921
 20
-503.5846000178061
 30
0.0
 40
0.3
100
AcDbArc
 50
90.0
 51
180.0
  0
ARC
  5
BA00
330
211F
100
AcDbEntity
  8
AM_VIS
100
AcDbCircle
 10
167.1921487319919
 20
-502.184600017806
 30
0.0
 40
0.3
100
AcDbArc
 50
180.0
 51
270.0
  0
ARC
  5
BA01
330
211F
100
AcDbEntity
  8
AM_VIS
100
AcDbCircle
 10
165.792148731992
 20
-502.184600017806
 30
0.0
 40
0.3
100
AcDbArc
 50
270.0
 51
0.0
  0
ARC
  5
BA02
330
211F
100
AcDbEntity
  8
AM_VIS
100
AcDbCircle
 10
165.792148731992
 20
-503.5846000178061
 30
0.0
 40
0.3
100
AcDbArc
 50
0.0
 51
90.0
  0
LINE
  5
BA03
330
211F
100
AcDbEntity
  8
AM_VIS
100
AcDbLine
 10
147.792148731992
 20
-325.6594273313848
 30
0.0
 11
147.792148731992
 21
-346.8594273313851
 31
0.0
  0
LINE
  5
BA04
330
211F
100
AcDbEntity
  8
AM_VIS
100
AcDbLine
 10
147.2294554278867
 20
-344.7594273313849
 30
0.0
 11
147.2294554278867
 21
-327.7594273313849
 31
0.0
  0
LINE
  5
BA05
330
211F
100
AcDbEntity
  8
AM_VIS
100
AcDbLine
 10
147.792148731992
 20
-325.6594273313848
 30
0.0
 11
147.2294554278867
 21
-327.7594273313849
 31
0.0
  0
LINE
  5
BA06
330
211F
100
AcDbEntity
  8
AM_VIS
100
AcDbLine
 10
147.2294554278867
 20
-327.7594273313849
 30
0.0
 11
145.3921487319921
 21
-327.7594273313849
 31
0.0
  0
LINE
  5
BA07
330
211F
100
AcDbEntity
  8
AM_VIS
100
AcDbLine
 10
145.3921487319921
 20
-321.7594273313849
 30
0.0
 11
147.2294554278867
 21
-321.7594273313849
 31
0.0
  0
LINE
  5
BA08
330
211F
100
AcDbEntity
  8
AM_VIS
100
AcDbLine
 10
147.2294554278867
 20
-321.7594273313849
 30
0.0
 11
147.792148731992
 21
-323.8594273313851
 31
0.0
  0
LINE
  5
BA09
330
211F
100
AcDbEntity
  8
AM_VIS
100
AcDbLine
 10
147.792148731992
 20
-323.8594273313851
 30
0.0
 11
149.992148731992
 21
-323.8594273313851
 31
0.0
  0
LINE
  5
BA0A
330
211F
100
AcDbEntity
  8
AM_VIS
100
AcDbLine
 10
149.992148731992
 20
-325.6594273313848
 30
0.0
 11
147.792148731992
 21
-325.6594273313848
 31
0.0
  0
LINE
  5
BA0B
330
211F
100
AcDbEntity
  8
AM_VIS
100
AcDbLine
 10
147.792148731992
 20
-348.6594273313848
 30
0.0
 11
147.2294554278867
 21
-350.7594273313849
 31
0.0
  0
LINE
  5
BA0C
330
211F
100
AcDbEntity
  8
AM_VIS
100
AcDbLine
 10
147.2294554278867
 20
-350.7594273313849
 30
0.0
 11
145.3921487319921
 21
-350.7594273313849
 31
0.0
  0
LINE
  5
BA0D
330
211F
100
AcDbEntity
  8
AM_VIS
100
AcDbLine
 10
145.3921487319921
 20
-344.7594273313849
 30
0.0
 11
147.2294554278867
 21
-344.7594273313849
 31
0.0
  0
LINE
  5
BA0E
330
211F
100
AcDbEntity
  8
AM_VIS
100
AcDbLine
 10
147.2294554278867
 20
-344.7594273313849
 30
0.0
 11
147.792148731992
 21
-346.8594273313851
 31
0.0
  0
LINE
  5
BA0F
330
211F
100
AcDbEntity
  8
AM_VIS
100
AcDbLine
 10
147.792148731992
 20
-346.8594273313851
 30
0.0
 11
149.992148731992
 21
-346.8594273313851
 31
0.0
  0
LINE
  5
BA10
330
211F
100
AcDbEntity
  8
AM_VIS
100
AcDbLine
 10
149.992148731992
 20
-348.6594273313848
 30
0.0
 11
147.792148731992
 21
-348.6594273313848
 31
0.0
  0
LINE
  5
BA11
330
211F
100
AcDbEntity
  8
AM_VIS
100
AcDbLine
 10
205.7548420360975
 20
-327.7594273313849
 30
0.0
 11
205.7548420360975
 21
-344.7594273313849
 31
0.0
  0
LINE
  5
BA12
330
211F
100
AcDbEntity
  8
AM_VIS
100
AcDbLine
 10
205.1921487319921
 20
-346.8594273313851
 30
0.0
 11
205.1921487319921
 21
-325.6594273313848
 31
0.0
  0
LINE
  5
BA13
330
211F
100
AcDbEntity
  8
AM_VIS
100
AcDbLine
 10
205.7548420360975
 20
-344.7594273313849
 30
0.0
 11
205.1921487319921
 21
-346.8594273313851
 31
0.0
  0
LINE
  5
BA14
330
211F
100
AcDbEntity
  8
AM_VIS
100
AcDbLine
 10
205.7548420360975
 20
-344.7594273313849
 30
0.0
 11
207.592148731992
 21
-344.7594273313849
 31
0.0
  0
LINE
  5
BA15
330
211F
100
AcDbEntity
  8
AM_VIS
100
AcDbLine
 10
207.592148731992
 20
-350.7594273313849
 30
0.0
 11
205.7548420360975
 21
-350.7594273313849
 31
0.0
  0
LINE
  5
BA16
330
211F
100
AcDbEntity
  8
AM_VIS
100
AcDbLine
 10
205.1921487319921
 20
-348.6594273313848
 30
0.0
 11
205.7548420360975
 21
-350.7594273313849
 31
0.0
  0
LINE
  5
BA17
330
211F
100
AcDbEntity
  8
AM_VIS
100
AcDbLine
 10
205.1921487319921
 20
-348.6594273313848
 30
0.0
 11
202.9921487319921
 21
-348.6594273313848
 31
0.0
  0
LINE
  5
BA18
330
211F
100
AcDbEntity
  8
AM_VIS
100
AcDbLine
 10
202.9921487319921
 20
-346.8594273313851
 30
0.0
 11
205.1921487319921
 21
-346.8594273313851
 31
0.0
  0
LINE
  5
BA19
330
211F
100
AcDbEntity
  8
AM_VIS
100
AcDbLine
 10
205.7548420360975
 20
-321.7594273313849
 30
0.0
 11
205.1921487319921
 21
-323.8594273313851
 31
0.0
  0
LINE
  5
BA1A
330
211F
100
AcDbEntity
  8
AM_VIS
100
AcDbLine
 10
205.7548420360975
 20
-321.7594273313849
 30
0.0
 11
207.592148731992
 21
-321.7594273313849
 31
0.0
  0
LINE
  5
BA1B
330
211F
100
AcDbEntity
  8
AM_VIS
100
AcDbLine
 10
207.592148731992
 20
-327.7594273313849
 30
0.0
 11
205.7548420360975
 21
-327.7594273313849
 31
0.0
  0
LINE
  5
BA1C
330
211F
100
AcDbEntity
  8
AM_VIS
100
AcDbLine
 10
205.1921487319921
 20
-325.6594273313848
 30
0.0
 11
205.7548420360975
 21
-327.7594273313849
 31
0.0
  0
LINE
  5
BA1D
330
211F
100
AcDbEntity
  8
AM_VIS
100
AcDbLine
 10
205.1921487319921
 20
-325.6594273313848
 30
0.0
 11
202.9921487319921
 21
-325.6594273313848
 31
0.0
  0
LINE
  5
BA1E
330
211F
100
AcDbEntity
  8
AM_VIS
100
AcDbLine
 10
202.9921487319921
 20
-323.8594273313851
 30
0.0
 11
205.1921487319921
 21
-323.8594273313851
 31
0.0
  0
LINE
  5
BA1F
330
211F
100
AcDbEntity
  8
AM_VIS
100
AcDbLine
 10
207.592148731992
 20
-344.7594273313849
 30
0.0
 11
207.592148731992
 21
-350.7594273313849
 31
0.0
  0
LINE
  5
BA20
330
211F
100
AcDbEntity
  8
AM_VIS
100
AcDbLine
 10
207.592148731992
 20
-344.7594273313849
 30
0.0
 11
207.592148731992
 21
-327.7594273313849
 31
0.0
  0
LINE
  5
BA21
102
{ACAD_REACTORS
330
BBBD
102
}
330
211F
100
AcDbEntity
  8
AM_VIS
100
AcDbLine
 10
207.592148731992
 20
-321.7594273313849
 30
0.0
 11
207.592148731992
 21
-327.7594273313849
 31
0.0
  0
LINE
  5
BA22
102
{ACAD_REACTORS
330
BBBD
102
}
330
211F
100
AcDbEntity
  8
AM_VIS
100
AcDbLine
 10
145.3921487319921
 20
-327.7594273313849
 30
0.0
 11
145.3921487319921
 21
-321.7594273313849
 31
0.0
  0
LINE
  5
BA23
330
211F
100
AcDbEntity
  8
AM_VIS
100
AcDbLine
 10
145.3921487319921
 20
-327.7594273313849
 30
0.0
 11
145.3921487319921
 21
-344.7594273313849
 31
0.0
  0
LINE
  5
BA24
330
211F
100
AcDbEntity
  8
AM_VIS
100
AcDbLine
 10
145.3921487319921
 20
-350.7594273313849
 30
0.0
 11
145.3921487319921
 21
-344.7594273313849
 31
0.0
  0
LINE
  5
BA25
330
211F
100
AcDbEntity
  8
AM_VIS
100
AcDbLine
 10
149.9921546541034
 20
-317.4445210834104
 30
0.0
 11
150.2780121000369
 21
-317.5359009093126
 31
0.0
  0
LINE
  5
BA26
330
211F
100
AcDbEntity
  8
AM_VIS
100
AcDbLine
 10
149.9921546541031
 20
-355.0743335793594
 30
0.0
 11
150.2780121000369
 21
-354.9829537534573
 31
0.0
  0
LINE
  5
BA27
330
211F
100
AcDbEntity
  8
AM_VIS
100
AcDbLine
 10
149.992148731992
 20
-317.4445396091581
 30
0.0
 11
149.992148731992
 21
-355.0743150536117
 31
0.0
  0
LINE
  5
BA28
330
211F
100
AcDbEntity
  8
AM_VIS
100
AcDbLine
 10
156.4921487319921
 20
-332.2394770829366
 30
0.0
 11
156.4921487319921
 21
-333.4239379556333
 31
0.0
  0
LINE
  5
BA29
330
211F
100
AcDbEntity
  8
AM_VIS
100
AcDbLine
 10
156.4921487319921
 20
-339.0949167071366
 30
0.0
 11
156.4921487319921
 21
-340.2793775798333
 31
0.0
  0
LINE
  5
BA2A
330
211F
100
AcDbEntity
  8
AM_VIS
100
AcDbLine
 10
196.492148731992
 20
-332.2394770829366
 30
0.0
 11
196.492148731992
 21
-333.4239379556333
 31
0.0
  0
LINE
  5
BA2B
330
211F
100
AcDbEntity
  8
AM_VIS
100
AcDbLine
 10
196.492148731992
 20
-339.0949167071366
 30
0.0
 11
196.492148731992
 21
-340.2793775798333
 31
0.0
  0
LINE
  5
BA2C
330
211F
100
AcDbEntity
  8
AM_VIS
100
AcDbLine
 10
157.6772610097653
 20
-362.7594273313849
 30
0.0
 11
195.3070364542188
 21
-362.7594273313849
 31
0.0
  0
LINE
  5
BA2D
330
211F
100
AcDbEntity
  8
AM_VIS
100
AcDbLine
 10
157.6772424840176
 20
-362.7594214092736
 30
0.0
 11
157.7686223099194
 21
-362.4735639633401
 31
0.0
  0
LINE
  5
BA2E
330
211F
100
AcDbEntity
  8
AM_VIS
100
AcDbLine
 10
195.2156751540647
 20
-362.4735639633401
 30
0.0
 11
195.3070549799665
 21
-362.7594214092736
 31
0.0
  0
LINE
  5
BA2F
330
211F
100
AcDbEntity
  8
AM_VIS
100
AcDbLine
 10
202.9921487319921
 20
-355.0743150536117
 30
0.0
 11
202.9921487319921
 21
-317.4445396091581
 31
0.0
  0
LINE
  5
BA30
330
211F
100
AcDbEntity
  8
AM_VIS
100
AcDbLine
 10
202.7062853639472
 20
-354.9829537534573
 30
0.0
 11
202.9921428098808
 21
-355.0743335793594
 31
0.0
  0
LINE
  5
BA31
330
211F
100
AcDbEntity
  8
AM_VIS
100
AcDbLine
 10
202.7062853639472
 20
-317.5359009093126
 30
0.0
 11
202.9921428098808
 21
-317.4445210834104
 31
0.0
  0
LINE
  5
BA32
330
211F
100
AcDbEntity
  8
AM_VIS
100
AcDbLine
 10
150.2780058891378
 20
-354.9829343243136
 30
0.0
 11
150.2780058891378
 21
-317.5359203384563
 31
0.0
  0
LINE
  5
BA33
330
211F
100
AcDbEntity
  8
AM_VIS
100
AcDbLine
 10
202.7062915748463
 20
-317.5359203384563
 30
0.0
 11
202.7062915748463
 21
-354.9829343243136
 31
0.0
  0
LINE
  5
BA34
330
211F
100
AcDbEntity
  8
AM_VIS
100
AcDbLine
 10
195.2156557249209
 20
-362.4735701742392
 30
0.0
 11
157.7686417390632
 21
-362.4735701742392
 31
0.0
  0
LINE
  5
BA35
330
211F
100
AcDbEntity
  8
AM_VIS
100
AcDbLine
 10
156.4921487319921
 20
-339.0949167071366
 30
0.0
 11
156.4921487319921
 21
-333.4239379556333
 31
0.0
  0
LINE
  5
BA36
330
211F
100
AcDbEntity
  8
AM_VIS
100
AcDbLine
 10
196.492148731992
 20
-333.4239379556333
 30
0.0
 11
196.492148731992
 21
-339.0949167071366
 31
0.0
  0
ARC
  5
BA37
330
211F
100
AcDbEntity
  8
AM_VIS
100
AcDbCircle
 10
176.4921487319921
 20
-336.2594273313849
 30
0.0
 40
32.5
100
AcDbArc
 50
215.3745904471598
 51
234.6254095528557
  0
ARC
  5
BA38
330
211F
100
AcDbEntity
  8
AM_VIS
100
AcDbCircle
 10
176.4921487319921
 20
-336.2594273313849
 30
0.0
 40
32.5
100
AcDbArc
 50
142.9557033960631
 51
144.6254095528402
  0
ARC
  5
BA39
330
211F
100
AcDbEntity
  8
AM_VIS
100
AcDbCircle
 10
176.4921487319921
 20
-336.2594273313849
 30
0.0
 40
32.5
100
AcDbArc
 50
305.3745904471443
 51
324.6254095528402
  0
ARC
  5
BA3A
330
211F
100
AcDbEntity
  8
AM_VIS
100
AcDbCircle
 10
176.4921487319921
 20
-336.2594273313849
 30
0.0
 40
32.5
100
AcDbArc
 50
35.3745904471598
 51
37.0442966039369
  0
ARC
  5
BA3B
330
211F
100
AcDbEntity
  8
AM_VIS
100
AcDbCircle
 10
176.4921487319921
 20
-336.2594273313849
 30
0.0
 40
32.21414284285429
100
AcDbArc
 50
143.5825107500872
 51
144.4635969193873
  0
ARC
  5
BA3C
330
211F
100
AcDbEntity
  8
AM_VIS
100
AcDbCircle
 10
176.4921487319921
 20
-336.2594273313849
 30
0.0
 40
32.21414284285429
100
AcDbArc
 50
35.53640308061266
 51
36.41748924991276
  0
ARC
  5
BA3D
330
211F
100
AcDbEntity
  8
AM_VIS
100
AcDbCircle
 10
176.4921487319921
 20
-336.2594273313849
 30
0.0
 40
32.21414284285429
100
AcDbArc
 50
305.536403080616
 51
324.4635969193874
  0
ARC
  5
BA3E
330
211F
100
AcDbEntity
  8
AM_VIS
100
AcDbCircle
 10
176.4921487319921
 20
-336.2594273313849
 30
0.0
 40
32.21414284285429
100
AcDbArc
 50
215.5364030806127
 51
234.4635969193839
  0
ARC
  5
BA3F
330
211F
100
AcDbEntity
  8
AM_VIS
100
AcDbCircle
 10
176.4921487319921
 20
-336.2594273313849
 30
0.0
 40
20.2
100
AcDbArc
 50
8.069301159402582
 51
171.9306988405974
  0
ARC
  5
BA40
330
211F
100
AcDbEntity
  8
AM_VIS
100
AcDbCircle
 10
176.4921487319921
 20
-336.2594273313849
 30
0.0
 40
20.2
100
AcDbArc
 50
188.0693011594026
 51
351.9306988405974
  0
LINE
  5
BA41
330
211F
100
AcDbEntity
  8
AM_VIS
100
AcDbLine
 10
194.5720696123317
 20
-317.5747688929586
 30
0.0
 11
201.7134980408746
 21
-329.9440857698113
 31
0.0
  0
LINE
  5
BA42
330
211F
100
AcDbEntity
  8
AM_VIS
100
AcDbLine
 10
194.5720696123314
 20
-354.9440857698115
 30
0.0
 11
201.7134980408746
 21
-342.5747688929581
 31
0.0
  0
LINE
  5
BA43
330
211F
100
AcDbEntity
  8
AM_VIS
100
AcDbLine
 10
169.3507203034491
 20
-361.2594273313849
 30
0.0
 11
183.6335771605349
 21
-361.2594273313849
 31
0.0
  0
LINE
  5
BA44
330
211F
100
AcDbEntity
  8
AM_VIS
100
AcDbLine
 10
151.2707994231095
 20
-342.5747688929586
 30
0.0
 11
158.4122278516524
 21
-354.9440857698113
 31
0.0
  0
LINE
  5
BA45
330
211F
100
AcDbEntity
  8
AM_VIS
100
AcDbLine
 10
151.2707994231095
 20
-329.9440857698113
 30
0.0
 11
158.4122278516524
 21
-317.5747688929586
 31
0.0
  0
LINE
  5
BA46
330
211F
100
AcDbEntity
  8
AM_VIS
100
AcDbLine
 10
169.3507203034491
 20
-311.2594273313849
 30
0.0
 11
183.6335771605347
 21
-311.2594273313849
 31
0.0
  0
CIRCLE
  5
BA47
330
211F
100
AcDbEntity
  8
AM_VIS
100
AcDbCircle
 10
176.4921487319921
 20
-336.2594273313849
 30
0.0
 40
22.00000000000001
  0
CIRCLE
  5
BA48
330
211F
100
AcDbEntity
  8
AM_VIS
100
AcDbCircle
 10
176.4921487319921
 20
-336.2594273313849
 30
0.0
 40
20.4
  0
ARC
  5
BA49
330
211F
100
AcDbEntity
  8
AM_VIS
100
AcDbCircle
 10
176.4921487319921
 20
-336.2594273313849
 30
0.0
 40
26.0
100
AcDbArc
 50
105.9423686056358
 51
134.0576313943762
  0
ARC
  5
BA4A
330
211F
100
AcDbEntity
  8
AM_VIS
100
AcDbCircle
 10
176.4921487319921
 20
-336.2594273313849
 30
0.0
 40
26.0
100
AcDbArc
 50
165.9423686056288
 51
194.0576313943711
  0
ARC
  5
BA4B
330
211F
100
AcDbEntity
  8
AM_VIS
100
AcDbCircle
 10
176.4921487319921
 20
-336.2594273313849
 30
0.0
 40
26.0
100
AcDbArc
 50
225.9423686056238
 51
254.0576313943641
  0
ARC
  5
BA4C
330
211F
100
AcDbEntity
  8
AM_VIS
100
AcDbCircle
 10
176.4921487319921
 20
-336.2594273313849
 30
0.0
 40
26.0
100
AcDbArc
 50
285.9423686056359
 51
314.0576313943762
  0
ARC
  5
BA4D
330
211F
100
AcDbEntity
  8
AM_VIS
100
AcDbCircle
 10
176.4921487319921
 20
-336.2594273313849
 30
0.0
 40
26.0
100
AcDbArc
 50
345.9423686056289
 51
14.05763139437113
  0
ARC
  5
BA4E
330
211F
100
AcDbEntity
  8
AM_VIS
100
AcDbCircle
 10
176.4921487319921
 20
-336.2594273313849
 30
0.0
 40
26.0
100
AcDbArc
 50
45.94236860562377
 51
74.05763139436416
  0
LINE
  5
BA4F
330
211F
100
AcDbEntity
  8
AM_VIS
100
AcDbLine
 10
180.3511443149736
 20
-320.1855539168113
 30
0.0
 11
180.5889549735784
 21
-319.1950012352005
 31
0.0
  0
LINE
  5
BA50
330
211F
100
AcDbEntity
  8
AM_VIS
100
AcDbLine
 10
185.6616406670277
 20
-321.2961764470832
 30
0.0
 11
185.129371678076
 21
-322.1647604947103
 31
0.0
  0
LINE
  5
BA51
330
211F
100
AcDbEntity
  8
AM_VIS
100
AcDbLine
 10
190.5868155686667
 20
-327.622204385301
 30
0.0
 11
191.4553996162938
 21
-327.0899353963492
 31
0.0
  0
LINE
  5
BA52
330
211F
100
AcDbEntity
  8
AM_VIS
100
AcDbLine
 10
193.5565748281765
 20
-332.1626210897988
 30
0.0
 11
192.5660221465659
 21
-332.4004317484031
 31
0.0
  0
LINE
  5
BA53
330
211F
100
AcDbEntity
  8
AM_VIS
100
AcDbLine
 10
192.5660221465659
 20
-340.1184229143668
 30
0.0
 11
193.5565748281765
 21
-340.3562335729711
 31
0.0
  0
LINE
  5
BA54
330
211F
100
AcDbEntity
  8
AM_VIS
100
AcDbLine
 10
191.4553996162938
 20
-345.4289192664204
 30
0.0
 11
190.5868155686667
 21
-344.8966502774689
 31
0.0
  0
LINE
  5
BA55
330
211F
100
AcDbEntity
  8
AM_VIS
100
AcDbLine
 10
185.129371678076
 20
-350.3540941680595
 30
0.0
 11
185.6616406670277
 21
-351.2226782156866
 31
0.0
  0
LINE
  5
BA56
330
211F
100
AcDbEntity
  8
AM_VIS
100
AcDbLine
 10
180.5889549735784
 20
-353.3238534275694
 30
0.0
 11
180.3511443149736
 21
-352.3333007459586
 31
0.0
  0
LINE
  5
BA57
330
211F
100
AcDbEntity
  8
AM_VIS
100
AcDbLine
 10
172.6331531490104
 20
-352.3333007459586
 30
0.0
 11
172.3953424904057
 21
-353.3238534275694
 31
0.0
  0
LINE
  5
BA58
330
211F
100
AcDbEntity
  8
AM_VIS
100
AcDbLine
 10
167.3226567969564
 20
-351.2226782156866
 30
0.0
 11
167.8549257859081
 21
-350.3540941680595
 31
0.0
  0
LINE
  5
BA59
330
211F
100
AcDbEntity
  8
AM_VIS
100
AcDbLine
 10
162.3974818953174
 20
-344.8966502774689
 30
0.0
 11
161.5288978476903
 21
-345.4289192664204
 31
0.0
  0
LINE
  5
BA5A
330
211F
100
AcDbEntity
  8
AM_VIS
100
AcDbLine
 10
159.4277226358076
 20
-340.3562335729711
 30
0.0
 11
160.4182753174182
 21
-340.1184229143668
 31
0.0
  0
LINE
  5
BA5B
330
211F
100
AcDbEntity
  8
AM_VIS
100
AcDbLine
 10
160.4182753174182
 20
-332.4004317484031
 30
0.0
 11
159.4277226358076
 21
-332.1626210897988
 31
0.0
  0
LINE
  5
BA5C
330
211F
100
AcDbEntity
  8
AM_VIS
100
AcDbLine
 10
161.5288978476903
 20
-327.0899353963494
 30
0.0
 11
162.3974818953174
 21
-327.622204385301
 31
0.0
  0
LINE
  5
BA5D
330
211F
100
AcDbEntity
  8
AM_VIS
100
AcDbLine
 10
167.8549257859081
 20
-322.1647604947103
 30
0.0
 11
167.3226567969564
 21
-321.2961764470832
 31
0.0
  0
LINE
  5
BA5E
330
211F
100
AcDbEntity
  8
AM_VIS
100
AcDbLine
 10
172.3953424904057
 20
-319.1950012352005
 30
0.0
 11
172.6331531490104
 21
-320.1855539168113
 31
0.0
  0
LINE
  5
BA5F
330
211F
100
AcDbEntity
  8
AM_VIS
100
AcDbLine
 10
183.0453650919921
 20
-331.6708158489718
 30
0.0
 11
183.563216541992
 21
-329.188359517654
 31
0.0
  0
LINE
  5
BA60
330
211F
100
AcDbEntity
  8
AM_VIS
100
AcDbLine
 10
183.8645171356061
 20
-331.097239411385
 30
0.0
 11
183.0453650919921
 21
-331.6708158489718
 31
0.0
  0
LINE
  5
BA61
330
211F
100
AcDbEntity
  8
AM_VIS
100
AcDbLine
 10
183.045365081992
 20
-340.8480388251159
 30
0.0
 11
183.8645171286039
 21
-341.4216152613848
 31
0.0
  0
LINE
  5
BA62
330
211F
100
AcDbEntity
  8
AM_VIS
100
AcDbLine
 10
183.563216541992
 20
-343.3304951451158
 30
0.0
 11
183.045365081992
 21
-340.8480388251159
 31
0.0
  0
LINE
  5
BA63
330
211F
100
AcDbEntity
  8
AM_VIS
100
AcDbLine
 10
186.0747724088826
 20
-351.8968479456388
 30
0.0
 11
185.6616406670277
 21
-351.2226782156866
 31
0.0
  0
LINE
  5
BA64
330
211F
100
AcDbEntity
  8
AM_VIS
100
AcDbLine
 10
191.4553996162938
 20
-345.4289192664204
 30
0.0
 11
192.1295693462461
 21
-345.8420510082754
 31
0.0
  0
LINE
  5
BA65
330
211F
100
AcDbEntity
  8
AM_VIS
100
AcDbLine
 10
194.3254130720854
 20
-340.5408153045022
 30
0.0
 11
193.5565748281765
 21
-340.3562335729711
 31
0.0
  0
LINE
  5
BA66
330
211F
100
AcDbEntity
  8
AM_VIS
100
AcDbLine
 10
193.5565748281765
 20
-332.1626210897988
 30
0.0
 11
194.3254130720854
 21
-331.9780393582677
 31
0.0
  0
LINE
  5
BA67
330
211F
100
AcDbEntity
  8
AM_VIS
100
AcDbLine
 10
192.1295693462461
 20
-326.6768036544944
 30
0.0
 11
191.4553996162938
 21
-327.0899353963492
 31
0.0
  0
LINE
  5
BA68
330
211F
100
AcDbEntity
  8
AM_VIS
100
AcDbLine
 10
185.6616406670277
 20
-321.2961764470832
 30
0.0
 11
186.0747724088826
 21
-320.6220067171311
 31
0.0
  0
LINE
  5
BA69
330
211F
100
AcDbEntity
  8
AM_VIS
100
AcDbLine
 10
180.7735367051093
 20
-318.4261629912916
 30
0.0
 11
180.5889549735784
 21
-319.1950012352005
 31
0.0
  0
LINE
  5
BA6A
330
211F
100
AcDbEntity
  8
AM_VIS
100
AcDbLine
 10
172.3953424904057
 20
-319.1950012352005
 30
0.0
 11
172.2107607588748
 21
-318.4261629912916
 31
0.0
  0
LINE
  5
BA6B
330
211F
100
AcDbEntity
  8
AM_VIS
100
AcDbLine
 10
166.9095250551015
 20
-320.6220067171311
 30
0.0
 11
167.3226567969564
 21
-321.2961764470832
 31
0.0
  0
LINE
  5
BA6C
330
211F
100
AcDbEntity
  8
AM_VIS
100
AcDbLine
 10
161.5288978476903
 20
-327.0899353963494
 30
0.0
 11
160.8547281177379
 21
-326.6768036544944
 31
0.0
  0
LINE
  5
BA6D
330
211F
100
AcDbEntity
  8
AM_VIS
100
AcDbLine
 10
158.6588843918987
 20
-331.9780393582677
 30
0.0
 11
159.4277226358076
 21
-332.1626210897988
 31
0.0
  0
LINE
  5
BA6E
330
211F
100
AcDbEntity
  8
AM_VIS
100
AcDbLine
 10
159.4277226358076
 20
-340.3562335729711
 30
0.0
 11
158.6588843918987
 21
-340.5408153045022
 31
0.0
  0
LINE
  5
BA6F
330
211F
100
AcDbEntity
  8
AM_VIS
100
AcDbLine
 10
160.8547281177379
 20
-345.8420510082754
 30
0.0
 11
161.5288978476903
 21
-345.4289192664204
 31
0.0
  0
LINE
  5
BA70
330
211F
100
AcDbEntity
  8
AM_VIS
100
AcDbLine
 10
167.3226567969564
 20
-351.2226782156866
 30
0.0
 11
166.9095250551015
 21
-351.8968479456388
 31
0.0
  0
LINE
  5
BA71
330
211F
100
AcDbEntity
  8
AM_VIS
100
AcDbLine
 10
172.2107607588748
 20
-354.0926916714783
 30
0.0
 11
172.3953424904057
 21
-353.3238534275694
 31
0.0
  0
LINE
  5
BA72
330
211F
100
AcDbEntity
  8
AM_VIS
100
AcDbLine
 10
180.5889549735784
 20
-353.3238534275694
 30
0.0
 11
180.7735367051093
 21
-354.0926916714783
 31
0.0
  0
ARC
  5
BA73
330
211F
100
AcDbEntity
  8
AM_VIS
100
AcDbCircle
 10
176.4921487319921
 20
-336.2594273313849
 30
0.0
 40
17.65
100
AcDbArc
 50
76.49999999999531
 51
103.5000000000047
  0
ARC
  5
BA74
330
211F
100
AcDbEntity
  8
AM_VIS
100
AcDbCircle
 10
176.4921487319921
 20
-336.2594273313849
 30
0.0
 40
17.65000000000001
100
AcDbArc
 50
31.50000000000214
 51
58.50000000000111
  0
ARC
  5
BA75
330
211F
100
AcDbEntity
  8
AM_VIS
100
AcDbCircle
 10
176.4921487319921
 20
-336.2594273313849
 30
0.0
 40
17.65
100
AcDbArc
 50
346.4999999999982
 51
13.50000000000178
  0
ARC
  5
BA76
330
211F
100
AcDbEntity
  8
AM_VIS
100
AcDbCircle
 10
176.4921487319921
 20
-336.2594273313849
 30
0.0
 40
17.65000000000001
100
AcDbArc
 50
301.4999999999989
 51
328.4999999999978
  0
ARC
  5
BA77
330
211F
100
AcDbEntity
  8
AM_VIS
100
AcDbCircle
 10
176.4921487319921
 20
-336.2594273313849
 30
0.0
 40
17.65
100
AcDbArc
 50
121.4999999999989
 51
148.4999999999979
  0
ARC
  5
BA78
330
211F
100
AcDbEntity
  8
AM_VIS
100
AcDbCircle
 10
176.4921487319921
 20
-336.2594273313849
 30
0.0
 40
17.65
100
AcDbArc
 50
166.4999999999982
 51
193.5000000000018
  0
ARC
  5
BA79
330
211F
100
AcDbEntity
  8
AM_VIS
100
AcDbCircle
 10
176.4921487319921
 20
-336.2594273313849
 30
0.0
 40
17.65000000000001
100
AcDbArc
 50
211.5000000000021
 51
238.5000000000011
  0
ARC
  5
BA7A
330
211F
100
AcDbEntity
  8
AM_VIS
100
AcDbCircle
 10
176.4921487319921
 20
-336.2594273313849
 30
0.0
 40
17.65
100
AcDbArc
 50
256.4999999999953
 51
283.5000000000047
  0
CIRCLE
  5
BA7B
330
211F
100
AcDbEntity
  8
AM_VIS
100
AcDbCircle
 10
176.4921487319921
 20
-336.2594273313849
 30
0.0
 40
15.69999999999998
  0
ARC
  5
BA7C
330
211F
100
AcDbEntity
  8
AM_VIS
100
AcDbCircle
 10
176.4921487319921
 20
-336.2594273313849
 30
0.0
 40
16.530615640599
100
AcDbArc
 50
31.50000000000214
 51
58.50000000000111
  0
ARC
  5
BA7D
330
211F
100
AcDbEntity
  8
AM_VIS
100
AcDbCircle
 10
176.4921487319921
 20
-336.2594273313849
 30
0.0
 40
16.530615640599
100
AcDbArc
 50
346.4999999999982
 51
13.50000000000178
  0
ARC
  5
BA7E
330
211F
100
AcDbEntity
  8
AM_VIS
100
AcDbCircle
 10
176.4921487319921
 20
-336.2594273313849
 30
0.0
 40
16.530615640599
100
AcDbArc
 50
301.4999999999989
 51
328.4999999999978
  0
ARC
  5
BA7F
330
211F
100
AcDbEntity
  8
AM_VIS
100
AcDbCircle
 10
176.4921487319921
 20
-336.2594273313849
 30
0.0
 40
16.530615640599
100
AcDbArc
 50
256.4999999999953
 51
283.5000000000047
  0
ARC
  5
BA80
330
211F
100
AcDbEntity
  8
AM_VIS
100
AcDbCircle
 10
176.4921487319921
 20
-336.2594273313849
 30
0.0
 40
16.530615640599
100
AcDbArc
 50
211.5000000000021
 51
238.5000000000011
  0
ARC
  5
BA81
330
211F
100
AcDbEntity
  8
AM_VIS
100
AcDbCircle
 10
176.4921487319921
 20
-336.2594273313849
 30
0.0
 40
16.530615640599
100
AcDbArc
 50
166.4999999999982
 51
193.5000000000018
  0
ARC
  5
BA82
330
211F
100
AcDbEntity
  8
AM_VIS
100
AcDbCircle
 10
176.4921487319921
 20
-336.2594273313849
 30
0.0
 40
16.530615640599
100
AcDbArc
 50
121.4999999999989
 51
148.4999999999979
  0
ARC
  5
BA83
330
211F
100
AcDbEntity
  8
AM_VIS
100
AcDbCircle
 10
176.4921487319921
 20
-336.2594273313849
 30
0.0
 40
16.530615640599
100
AcDbArc
 50
76.49999999999531
 51
103.5000000000047
  0
CIRCLE
  5
BA84
330
211F
100
AcDbEntity
  8
AM_VIS
100
AcDbCircle
 10
176.4921487319921
 20
-336.2594273313849
 30
0.0
 40
7.5
  0
CIRCLE
  5
BA85
330
211F
100
AcDbEntity
  8
AM_VIS
100
AcDbCircle
 10
176.4921487319921
 20
-336.2594273313849
 30
0.0
 40
10.5
  0
ARC
  5
BA86
330
211F
100
AcDbEntity
  8
AM_VIS
100
AcDbCircle
 10
176.4921487319921
 20
-336.2594273313849
 30
0.0
 40
9.0
100
AcDbArc
 50
324.9999999779284
 51
34.99999994436397
  0
ARC
  5
BA87
330
211F
100
AcDbEntity
  8
AM_VIS
100
AcDbCircle
 10
176.4921487319921
 20
-336.2594273313849
 30
0.0
 40
10.0
100
AcDbArc
 50
314.9999999848827
 51
45.00000001511725
  0
ARC
  5
BA88
330
211F
100
AcDbEntity
  8
AM_VIS
100
AcDbCircle
 10
176.4921487319921
 20
-336.2594273313849
 30
0.0
 40
18.33999999999999
100
AcDbArc
 50
301.4999999999989
 51
328.4999999999978
  0
ARC
  5
BA89
330
211F
100
AcDbEntity
  8
AM_VIS
100
AcDbCircle
 10
176.4921487319921
 20
-336.2594273313849
 30
0.0
 40
17.54931506849315
100
AcDbArc
 50
328.4999999999978
 51
346.4999999999982
  0
ARC
  5
BA8A
330
211F
100
AcDbEntity
  8
AM_VIS
100
AcDbCircle
 10
176.4921487319921
 20
-336.2594273313849
 30
0.0
 40
18.33999999999999
100
AcDbArc
 50
346.4999999999982
 51
13.50000000000178
  0
ARC
  5
BA8B
330
211F
100
AcDbEntity
  8
AM_VIS
100
AcDbCircle
 10
176.4921487319921
 20
-336.2594273313849
 30
0.0
 40
17.54931506849315
100
AcDbArc
 50
13.50000000000178
 51
31.50000000000214
  0
ARC
  5
BA8C
330
211F
100
AcDbEntity
  8
AM_VIS
100
AcDbCircle
 10
176.4921487319921
 20
-336.2594273313849
 30
0.0
 40
18.33999999999999
100
AcDbArc
 50
31.50000000000214
 51
58.50000000000111
  0
ARC
  5
BA8D
330
211F
100
AcDbEntity
  8
AM_VIS
100
AcDbCircle
 10
176.4921487319921
 20
-336.2594273313849
 30
0.0
 40
17.54931506849315
100
AcDbArc
 50
58.50000000000111
 51
76.49999999999531
  0
ARC
  5
BA8E
330
211F
100
AcDbEntity
  8
AM_VIS
100
AcDbCircle
 10
176.4921487319921
 20
-336.2594273313849
 30
0.0
 40
18.33999999999999
100
AcDbArc
 50
76.49999999999531
 51
103.5000000000047
  0
ARC
  5
BA8F
330
211F
100
AcDbEntity
  8
AM_VIS
100
AcDbCircle
 10
176.4921487319921
 20
-336.2594273313849
 30
0.0
 40
17.54931506849315
100
AcDbArc
 50
103.5000000000047
 51
121.4999999999989
  0
ARC
  5
BA90
330
211F
100
AcDbEntity
  8
AM_VIS
100
AcDbCircle
 10
176.4921487319921
 20
-336.2594273313849
 30
0.0
 40
18.33999999999999
100
AcDbArc
 50
121.4999999999989
 51
148.4999999999979
  0
ARC
  5
BA91
330
211F
100
AcDbEntity
  8
AM_VIS
100
AcDbCircle
 10
176.4921487319921
 20
-336.2594273313849
 30
0.0
 40
17.54931506849315
100
AcDbArc
 50
148.4999999999979
 51
166.4999999999982
  0
ARC
  5
BA92
330
211F
100
AcDbEntity
  8
AM_VIS
100
AcDbCircle
 10
176.4921487319921
 20
-336.2594273313849
 30
0.0
 40
18.33999999999999
100
AcDbArc
 50
166.4999999999982
 51
193.5000000000018
  0
ARC
  5
BA93
330
211F
100
AcDbEntity
  8
AM_VIS
100
AcDbCircle
 10
176.4921487319921
 20
-336.2594273313849
 30
0.0
 40
17.54931506849315
100
AcDbArc
 50
193.5000000000018
 51
211.5000000000021
  0
ARC
  5
BA94
330
211F
100
AcDbEntity
  8
AM_VIS
100
AcDbCircle
 10
176.4921487319921
 20
-336.2594273313849
 30
0.0
 40
18.33999999999999
100
AcDbArc
 50
211.5000000000021
 51
238.5000000000011
  0
ARC
  5
BA95
330
211F
100
AcDbEntity
  8
AM_VIS
100
AcDbCircle
 10
176.4921487319921
 20
-336.2594273313849
 30
0.0
 40
17.54931506849315
100
AcDbArc
 50
238.5000000000011
 51
256.4999999999953
  0
ARC
  5
BA96
330
211F
100
AcDbEntity
  8
AM_VIS
100
AcDbCircle
 10
176.4921487319921
 20
-336.2594273313849
 30
0.0
 40
18.33999999999999
100
AcDbArc
 50
256.4999999999953
 51
283.5000000000047
  0
ARC
  5
BA97
330
211F
100
AcDbEntity
  8
AM_VIS
100
AcDbCircle
 10
176.4921487319921
 20
-336.2594273313849
 30
0.0
 40
17.54931506849315
100
AcDbArc
 50
283.5000000000047
 51
301.4999999999989
  0
CIRCLE
  5
BA98
330
211F
100
AcDbEntity
  8
AM_VIS
100
AcDbCircle
 10
176.4921487319921
 20
-336.2594273313849
 30
0.0
 40
18.48648892048259
  0
LINE
  5
BA99
330
211F
100
AcDbEntity
  8
AM_VIS
100
AcDbLine
 10
189.9921487319921
 20
-370.7594273313849
 30
0.0
 11
189.9921487319921
 21
-362.7594273313849
 31
0.0
  0
LINE
  5
BA9A
330
211F
100
AcDbEntity
  8
AM_VIS
100
AcDbLine
 10
163.9921487319921
 20
-370.7594273313849
 30
0.0
 11
188.992148731992
 21
-370.7594273313849
 31
0.0
  0
LINE
  5
BA9B
330
211F
100
AcDbEntity
  8
AM_VIS
100
AcDbLine
 10
162.992148731992
 20
-362.7594273313849
 30
0.0
 11
162.992148731992
 21
-370.7594273313849
 31
0.0
  0
LINE
  5
BA9C
330
211F
100
AcDbEntity
  8
AM_VIS
100
AcDbLine
 10
165.9921487319921
 20
-370.7594273313849
 30
0.0
 11
165.9921487319921
 21
-371.3594273313851
 31
0.0
  0
LINE
  5
BA9D
330
211F
100
AcDbEntity
  8
AM_VIS
100
AcDbLine
 10
186.9921487319921
 20
-371.2594273313849
 30
0.0
 11
186.9921487319921
 21
-371.3594273313851
 31
0.0
  0
LINE
  5
BA9E
330
211F
100
AcDbEntity
  8
AM_VIS
100
AcDbLine
 10
163.9921487319921
 20
-370.7594273313849
 30
0.0
 11
162.992148731992
 21
-370.7594273313849
 31
0.0
  0
LINE
  5
BA9F
330
211F
100
AcDbEntity
  8
AM_VIS
100
AcDbLine
 10
189.9921487319921
 20
-370.7594273313849
 30
0.0
 11
188.992148731992
 21
-370.7594273313849
 31
0.0
  0
LINE
  5
BAA0
330
211F
100
AcDbEntity
  8
AM_VIS
100
AcDbLine
 10
186.9921487319921
 20
-371.3594273313851
 30
0.0
 11
165.9921487319921
 21
-371.3594273313851
 31
0.0
  0
LINE
  5
BAA1
330
211F
100
AcDbEntity
  8
AM_VIS
100
AcDbLine
 10
149.992148731992
 20
-299.7594273313849
 30
0.0
 11
149.992148731992
 21
-302.0594273313849
 31
0.0
  0
LINE
  5
BAA2
330
211F
100
AcDbEntity
  8
AM_VIS
100
AcDbLine
 10
202.9921487319921
 20
-302.0594273313849
 30
0.0
 11
202.9921487319921
 21
-299.7594273313849
 31
0.0
  0
LINE
  5
BAA3
330
211F
100
AcDbEntity
  8
AM_VIS
100
AcDbLine
 10
197.992148731992
 20
-302.0594273313849
 30
0.0
 11
154.992148731992
 21
-302.0594273313849
 31
0.0
  0
LINE
  5
BAA4
330
211F
100
AcDbEntity
  8
AM_VIS
100
AcDbLine
 10
202.9156181197472
 20
-304.0594273313849
 30
0.0
 11
202.9921487319921
 21
-302.0594273313849
 31
0.0
  0
ELLIPSE
  5
BAA5
330
211F
100
AcDbEntity
  8
AM_VIS
100
AcDbEllipse
 10
199.7921484673365
 20
-304.0594273313849
 30
0.0
 11
-1.847758737079029
 21
-1.847759121288723
 31
0.0
210
0.0
220
0.0
230
1.0
 40
0.4142135623730887
 41
1.963495334978757
 42
3.534291661773654
  0
ELLIPSE
  5
BAA6
330
211F
100
AcDbEntity
  8
AM_VIS
100
AcDbEllipse
 10
196.1921484673366
 20
-304.0594273313849
 30
0.0
 11
-1.847759392966226
 21
1.847759008756336
 31
0.0
210
0.0
220
0.0
230
1.0
 40
0.4142135623730888
 41
5.89048615196549
 42
7.461282478760386
  0
LINE
  5
BAA7
330
211F
100
AcDbEntity
  8
AM_VIS
100
AcDbLine
 10
149.992148731992
 20
-302.0594273313849
 30
0.0
 11
150.0686793442369
 21
-304.0594273313849
 31
0.0
  0
LINE
  5
BAA8
330
211F
100
AcDbEntity
  8
AM_VIS
100
AcDbLine
 10
196.0122495991168
 20
-305.8050119494995
 30
0.0
 11
194.7779346970308
 21
-304.0594273313849
 31
0.0
  0
ELLIPSE
  5
BAA9
330
211F
100
AcDbEntity
  8
AM_VIS
100
AcDbEllipse
 10
197.992148440886
 20
-303.0050117436566
 30
0.0
 11
0.0000002058430554
 21
-3.959797974644655
 31
0.0
210
0.0
220
0.0
230
1.0
 40
0.7071067811865504
 41
5.497787162160979
 42
7.068583488955879
  0
LINE
  5
BAAA
330
211F
100
AcDbEntity
  8
AM_VIS
100
AcDbLine
 10
201.2063618217769
 20
-304.0594273313849
 30
0.0
 11
199.9720475737613
 21
-305.8050115378133
 31
0.0
  0
LINE
  5
BAAB
330
211F
100
AcDbEntity
  8
AM_VIS
100
AcDbLine
 10
202.9156181197472
 20
-304.0594273313849
 30
0.0
 11
201.895406054724
 21
-330.7209692973227
 31
0.0
  0
LINE
  5
BAAC
330
211F
100
AcDbEntity
  8
AM_VIS
100
AcDbLine
 10
184.3936738878133
 20
-361.2594273313849
 30
0.0
 11
183.6335771605349
 21
-361.2594273313849
 31
0.0
  0
LINE
  5
BAAD
330
211F
100
AcDbEntity
  8
AM_VIS
100
AcDbLine
 10
169.3507203034491
 20
-361.2594273313849
 30
0.0
 11
168.5906235761708
 21
-361.2594273313849
 31
0.0
  0
LINE
  5
BAAE
330
211F
100
AcDbEntity
  8
AM_VIS
100
AcDbLine
 10
151.0888914092602
 20
-330.7209692973227
 30
0.0
 11
150.0686793442369
 21
-304.0594273313849
 31
0.0
  0
LINE
  5
BAAF
330
211F
100
AcDbEntity
  8
AM_VIS
100
AcDbLine
 10
153.0122495991168
 20
-305.8050119494995
 30
0.0
 11
151.7779346970308
 21
-304.0594273313849
 31
0.0
  0
ELLIPSE
  5
BAB0
330
211F
100
AcDbEntity
  8
AM_VIS
100
AcDbEllipse
 10
153.1921484673366
 20
-304.0594273313849
 30
0.0
 11
-1.847759392966226
 21
1.847759008756336
 31
0.0
210
0.0
220
0.0
230
1.0
 40
0.4142135623730888
 41
5.890486151965489
 42
7.461282478760387
  0
LINE
  5
BAB1
330
211F
100
AcDbEntity
  8
AM_VIS
100
AcDbLine
 10
154.992148731992
 20
-299.7594273313849
 30
0.0
 11
197.992148731992
 21
-299.7594273313849
 31
0.0
  0
ELLIPSE
  5
BAB2
330
211F
100
AcDbEntity
  8
AM_VIS
100
AcDbEllipse
 10
156.7921484673366
 20
-304.0594273313849
 30
0.0
 11
-1.847758737079029
 21
-1.847759121288723
 31
0.0
210
0.0
220
0.0
230
1.0
 40
0.4142135623730887
 41
1.963495334978757
 42
3.534291661773654
  0
LINE
  5
BAB3
330
211F
100
AcDbEntity
  8
AM_VIS
100
AcDbLine
 10
158.2063618217769
 20
-304.0594273313849
 30
0.0
 11
156.9720475737613
 21
-305.8050115378133
 31
0.0
  0
ELLIPSE
  5
BAB4
330
211F
100
AcDbEntity
  8
AM_VIS
100
AcDbEllipse
 10
154.992148440886
 20
-303.0050117436566
 30
0.0
 11
0.0000002058430554
 21
-3.959797974644655
 31
0.0
210
0.0
220
0.0
230
1.0
 40
0.7071067811865504
 41
5.497787162160978
 42
7.06858348895588
  0
LINE
  5
BAB5
330
211F
100
AcDbEntity
  8
AM_VIS
100
AcDbLine
 10
154.992148731992
 20
-302.0594273313849
 30
0.0
 11
149.992148731992
 21
-302.0594273313849
 31
0.0
  0
LINE
  5
BAB6
330
211F
100
AcDbEntity
  8
AM_VIS
100
AcDbLine
 10
202.9921487319921
 20
-302.0594273313849
 30
0.0
 11
197.992148731992
 21
-302.0594273313849
 31
0.0
  0
ARC
  5
BAB7
330
211F
100
AcDbEntity
  8
AM_VIS
100
AcDbCircle
 10
184.3936738878133
 20
-351.2594273313849
 30
0.0
 40
10.0
100
AcDbArc
 50
270.0
 51
329.4547528499964
  0
ARC
  5
BAB8
330
211F
100
AcDbEntity
  8
AM_VIS
100
AcDbCircle
 10
168.5906235761708
 20
-351.2594273313849
 30
0.0
 40
10.0
100
AcDbArc
 50
210.5452471500036
 51
270.0
  0
CIRCLE
  5
BAB9
330
211F
100
AcDbEntity
  8
AM_VIS
100
AcDbCircle
 10
170.492148731992
 20
-307.7594273313849
 30
0.0
 40
1.5
  0
CIRCLE
  5
BABA
330
211F
100
AcDbEntity
  8
AM_VIS
100
AcDbCircle
 10
182.4921487319921
 20
-307.7594273313849
 30
0.0
 40
1.5
  0
LINE
  5
BABB
102
{ACAD_REACTORS
330
BBBA
102
}
330
211F
100
AcDbEntity
  8
AM_VIS
100
AcDbLine
 10
197.992148731992
 20
-299.7594273313849
 30
0.0
 11
202.9921487319921
 21
-299.7594273313849
 31
0.0
  0
LINE
  5
BABC
330
211F
100
AcDbEntity
  8
AM_VIS
100
AcDbLine
 10
149.992148731992
 20
-299.7594273313849
 30
0.0
 11
154.992148731992
 21
-299.7594273313849
 31
0.0
  0
LINE
  5
BABD
330
211F
100
AcDbEntity
  8
AM_VIS
100
AcDbLine
 10
188.3921487319921
 20
-371.2594273313849
 30
0.0
 11
184.592148731992
 21
-371.2594273313849
 31
0.0
  0
ARC
  5
BABE
330
211F
100
AcDbEntity
  8
AM_VIS
100
AcDbCircle
 10
184.592148731992
 20
-370.459427331385
 30
0.0
 40
0.8
100
AcDbArc
 50
202.0243128370421
 51
270.0
  0
ARC
  5
BABF
330
211F
100
AcDbEntity
  8
AM_VIS
100
AcDbCircle
 10
188.3921487319921
 20
-370.459427331385
 30
0.0
 40
0.8
100
AcDbArc
 50
270.0
 51
337.975687162958
  0
LINE
  5
BAC0
330
211F
100
AcDbEntity
  8
AM_VIS
100
AcDbLine
 10
165.9921487319921
 20
-371.2594273313849
 30
0.0
 11
164.592148731992
 21
-371.2594273313849
 31
0.0
  0
ARC
  5
BAC1
330
211F
100
AcDbEntity
  8
AM_VIS
100
AcDbCircle
 10
164.592148731992
 20
-370.459427331385
 30
0.0
 40
0.8
100
AcDbArc
 50
202.0243128370421
 51
270.0
  0
LINE
  5
BAC2
330
211F
100
AcDbEntity
  8
AM_VIS
100
AcDbLine
 10
307.9968157423227
 20
-512.0846000178061
 30
0.0
 11
290.9968157423227
 21
-512.0846000178061
 31
0.0
  0
LINE
  5
BAC3
330
211F
100
AcDbEntity
  8
AM_VIS
100
AcDbLine
 10
284.9968157423227
 20
-506.084600017806
 30
0.0
 11
290.9968157423227
 21
-512.0846000178061
 31
0.0
  0
LINE
  5
BAC4
330
211F
100
AcDbEntity
  8
AM_VIS
100
AcDbLine
 10
284.9968157423227
 20
-506.084600017806
 30
0.0
 11
284.9968157423227
 21
-489.084600017806
 31
0.0
  0
LINE
  5
BAC5
330
211F
100
AcDbEntity
  8
AM_VIS
100
AcDbLine
 10
290.9968157423227
 20
-483.0846000178061
 30
0.0
 11
284.9968157423227
 21
-489.084600017806
 31
0.0
  0
LINE
  5
BAC6
330
211F
100
AcDbEntity
  8
AM_VIS
100
AcDbLine
 10
290.9968157423227
 20
-483.0846000178061
 30
0.0
 11
307.9968157423227
 21
-483.0846000178061
 31
0.0
  0
LINE
  5
BAC7
330
211F
100
AcDbEntity
  8
AM_VIS
100
AcDbLine
 10
313.9968157423227
 20
-489.084600017806
 30
0.0
 11
307.9968157423227
 21
-483.0846000178061
 31
0.0
  0
LINE
  5
BAC8
330
211F
100
AcDbEntity
  8
AM_VIS
100
AcDbLine
 10
313.9968157423227
 20
-489.084600017806
 30
0.0
 11
313.9968157423227
 21
-506.084600017806
 31
0.0
  0
LINE
  5
BAC9
330
211F
100
AcDbEntity
  8
AM_VIS
100
AcDbLine
 10
307.9968157423227
 20
-512.0846000178061
 30
0.0
 11
313.9968157423227
 21
-506.084600017806
 31
0.0
  0
LINE
  5
BACA
330
211F
100
AcDbEntity
  8
AM_VIS
100
AcDbLine
 10
272.6968157423228
 20
-507.184600017806
 30
0.0
 11
272.6968157423228
 21
-508.684600017806
 31
0.0
  0
LINE
  5
BACB
330
211F
100
AcDbEntity
  8
AM_VIS
100
AcDbLine
 10
272.9968157423227
 20
-507.184600017806
 30
0.0
 11
272.6968157423228
 21
-507.184600017806
 31
0.0
  0
LINE
  5
BACC
330
211F
100
AcDbEntity
  8
AM_VIS
100
AcDbLine
 10
272.9968157423227
 20
-508.684600017806
 30
0.0
 11
272.6968157423228
 21
-508.684600017806
 31
0.0
  0
LINE
  5
BACD
330
211F
100
AcDbEntity
  8
AM_VIS
100
AcDbLine
 10
272.9968157423227
 20
-510.184600017806
 30
0.0
 11
272.6968157423228
 21
-510.184600017806
 31
0.0
  0
LINE
  5
BACE
330
211F
100
AcDbEntity
  8
AM_VIS
100
AcDbLine
 10
272.6968157423228
 20
-508.684600017806
 30
0.0
 11
272.6968157423228
 21
-510.184600017806
 31
0.0
  0
LINE
  5
BACF
330
211F
100
AcDbEntity
  8
AM_VIS
100
AcDbLine
 10
326.2968157423227
 20
-510.184600017806
 30
0.0
 11
326.2968157423227
 21
-508.684600017806
 31
0.0
  0
LINE
  5
BAD0
330
211F
100
AcDbEntity
  8
AM_VIS
100
AcDbLine
 10
325.9968157423227
 20
-510.184600017806
 30
0.0
 11
326.2968157423227
 21
-510.184600017806
 31
0.0
  0
LINE
  5
BAD1
330
211F
100
AcDbEntity
  8
AM_VIS
100
AcDbLine
 10
325.9968157423227
 20
-508.684600017806
 30
0.0
 11
326.2968157423227
 21
-508.684600017806
 31
0.0
  0
LINE
  5
BAD2
330
211F
100
AcDbEntity
  8
AM_VIS
100
AcDbLine
 10
325.9968157423227
 20
-507.184600017806
 30
0.0
 11
326.2968157423227
 21
-507.184600017806
 31
0.0
  0
LINE
  5
BAD3
330
211F
100
AcDbEntity
  8
AM_VIS
100
AcDbLine
 10
326.2968157423227
 20
-508.684600017806
 30
0.0
 11
326.2968157423227
 21
-507.184600017806
 31
0.0
  0
LINE
  5
BAD4
330
211F
100
AcDbEntity
  8
AM_VIS
100
AcDbLine
 10
280.6819280200959
 20
-520.2846000178059
 30
0.0
 11
280.6819280200959
 21
-476.8846000178061
 31
0.0
  0
LINE
  5
BAD5
330
211F
100
AcDbEntity
  8
AM_VIS
100
AcDbLine
 10
318.3117034645495
 20
-520.2846000178059
 30
0.0
 11
318.3117034645495
 21
-476.8846000178061
 31
0.0
  0
ARC
  5
BAD6
330
211F
100
AcDbEntity
  8
AM_VIS
100
AcDbCircle
 10
273.696816087674
 20
-520.2845999094144
 30
0.0
 40
0.7000003453512575
100
AcDbArc
 50
180.0000088719713
 51
214.8498957070535
  0
ARC
  5
BAD7
330
211F
100
AcDbEntity
  8
AM_VIS
100
AcDbCircle
 10
282.5706540942492
 20
-520.297366309628
 30
0.0
 40
1.888769218669295
100
AcDbArc
 50
179.6127318235967
 51
191.8306153754997
  0
ARC
  5
BAD8
330
211F
100
AcDbEntity
  8
AM_VIS
100
AcDbCircle
 10
316.4229773903949
 20
-520.297366309628
 30
0.0
 40
1.888769218670956
100
AcDbArc
 50
348.1693846245135
 51
0.3872681764032906
  0
LINE
  5
BAD9
330
211F
100
AcDbEntity
  8
AM_VIS
100
AcDbLine
 10
272.9968157423227
 20
-520.2846000178059
 30
0.0
 11
272.9968157423227
 21
-476.8846000178061
 31
0.0
  0
LINE
  5
BADA
330
211F
100
AcDbEntity
  8
AM_VIS
100
AcDbLine
 10
325.9968157423227
 20
-520.2846000178059
 30
0.0
 11
325.9968157423227
 21
-476.8846000178061
 31
0.0
  0
ARC
  5
BADB
330
211F
100
AcDbEntity
  8
AM_VIS
100
AcDbCircle
 10
325.2968153969712
 20
-520.2845999094141
 30
0.0
 40
0.7000003453514743
100
AcDbArc
 50
325.1501042929498
 51
359.9999911280156
  0
LINE
  5
BADC
330
211F
100
AcDbEntity
  8
AM_VIS
100
AcDbLine
 10
280.7220061513883
 20
-520.6846000178059
 30
0.0
 11
318.2716253332574
 21
-520.6846000178059
 31
0.0
  0
ARC
  5
BADD
330
211F
100
AcDbEntity
  8
AM_VIS
100
AcDbCircle
 10
273.9968142042876
 20
-476.8845993897226
 30
0.0
 40
0.9999984619650044
100
AcDbArc
 50
135.5729600126067
 51
180.00003598658
  0
ARC
  5
BADE
330
211F
100
AcDbEntity
  8
AM_VIS
100
AcDbCircle
 10
283.1273558031674
 20
-476.8478710969765
 30
0.0
 40
2.445703591166013
100
AcDbArc
 50
164.2644045822371
 51
180.860485002104
  0
ARC
  5
BADF
330
211F
100
AcDbEntity
  8
AM_VIS
100
AcDbCircle
 10
324.9968172803581
 20
-476.8845993897224
 30
0.0
 40
0.9999984619648625
100
AcDbArc
 50
359.999964013407
 51
44.42703998739322
  0
ARC
  5
BAE0
330
211F
100
AcDbEntity
  8
AM_VIS
100
AcDbCircle
 10
315.8662756814786
 20
-476.8478710969765
 30
0.0
 40
2.445703591165638
100
AcDbArc
 50
359.139514997896
 51
15.73559541776285
  0
LINE
  5
BAE1
330
211F
100
AcDbEntity
  8
AM_VIS
100
AcDbLine
 10
318.2203227352516
 20
-476.184600017806
 30
0.0
 11
280.7733087493939
 21
-476.184600017806
 31
0.0
  0
LINE
  5
BAE2
330
211F
100
AcDbEntity
  8
AM_VIS
100
AcDbLine
 10
280.7220061513883
 20
-520.6846000178059
 30
0.0
 11
273.1223594776689
 21
-520.6846000178059
 31
0.0
  0
LINE
  5
BAE3
330
211F
100
AcDbEntity
  8
AM_VIS
100
AcDbLine
 10
325.8712720069766
 20
-520.6846000178059
 30
0.0
 11
318.2716253332574
 21
-520.6846000178059
 31
0.0
  0
LINE
  5
BAE4
330
211F
100
AcDbEntity
  8
AM_VIS
100
AcDbLine
 10
318.2203227352516
 20
-476.184600017806
 30
0.0
 11
318.6212103167209
 21
-476.184600017806
 31
0.0
  0
LINE
  5
BAE5
330
211F
100
AcDbEntity
  8
AM_VIS
100
AcDbLine
 10
273.2826728994685
 20
-476.184600017806
 30
0.0
 11
280.7733087493941
 21
-476.184600017806
 31
0.0
  0
LINE
  5
BAE6
330
211F
100
AcDbEntity
  8
AM_VIS
100
AcDbLine
 10
306.4708929640685
 20
-464.6492171105582
 30
0.0
 11
306.4708929640685
 21
-467.8846000178061
 31
0.0
  0
LINE
  5
BAE7
330
211F
100
AcDbEntity
  8
AM_VIS
100
AcDbLine
 10
314.7258914498345
 20
-467.8846000178061
 30
0.0
 11
314.7258914498345
 21
-464.6492171105582
 31
0.0
  0
LINE
  5
BAE8
330
211F
100
AcDbEntity
  8
AM_VIS
100
AcDbLine
 10
305.3339811502926
 20
-467.8846000178061
 30
0.0
 11
305.3339811502926
 21
-464.6492171105582
 31
0.0
  0
LINE
  5
BAE9
330
211F
100
AcDbEntity
  8
AM_VIS
100
AcDbLine
 10
293.6596503343531
 20
-464.6492171105582
 30
0.0
 11
293.6596503343531
 21
-467.8846000178061
 31
0.0
  0
LINE
  5
BAEA
330
211F
100
AcDbEntity
  8
AM_VIS
100
AcDbLine
 10
292.5227385205769
 20
-467.8846000178061
 30
0.0
 11
292.5227385205769
 21
-464.6492171105582
 31
0.0
  0
LINE
  5
BAEB
330
211F
100
AcDbEntity
  8
AM_VIS
100
AcDbLine
 10
284.2677400348109
 20
-464.6492171105582
 30
0.0
 11
284.2677400348109
 21
-467.8846000178061
 31
0.0
  0
LINE
  5
BAEC
330
211F
100
AcDbEntity
  8
AM_VIS
100
AcDbLine
 10
283.7968157423229
 20
-467.8846000178061
 30
0.0
 11
283.7968157423229
 21
-464.6492171105582
 31
0.0
  0
SPLINE
  5
BAED
330
211F
100
AcDbEntity
  8
AM_VIS
100
AcDbSpline
210
0.0
220
0.0
230
1.0
 70
    12
 71
     2
 72
     6
 73
     3
 74
     0
 42
0.0000000001
 43
0.0000000001
 40
7.33814440811904
 40
7.33814440811904
 40
7.33814440811904
 40
10.77392533388808
 40
10.77392533388808
 40
10.77392533388808
 10
299.4968157423227
 20
-467.684600017806
 30
0.0
 41
1.0
 10
301.1368301085971
 20
-467.684600017806
 30
0.0
 41
1.011780669010395
 10
302.8130303119088
 20
-467.8846000178059
 30
0.0
 41
1.012529721408304
  0
SPLINE
  5
BAEE
330
211F
100
AcDbEntity
  8
AM_VIS
100
AcDbSpline
210
0.0
220
0.0
230
1.0
 70
    12
 71
     2
 72
     6
 73
     3
 74
     0
 42
0.0000000001
 43
0.0000000001
 40
3.90236348235007
 40
3.90236348235007
 40
3.90236348235007
 40
7.338144408119084
 40
7.338144408119084
 40
7.338144408119084
 10
308.253474396929
 20
-467.884600017806
 30
0.0
 41
1.012529721408334
 10
309.4387269273166
 20
-467.6846000178057
 30
0.0
 41
1.011780669010423
 10
310.5983922069516
 20
-467.684600017806
 30
0.0
 41
1.0
  0
SPLINE
  5
BAEF
330
211F
100
AcDbEntity
  8
AM_VIS
100
AcDbSpline
210
0.0
220
0.0
230
1.0
 70
    12
 71
     2
 72
     6
 73
     3
 74
     0
 42
0.0000000001
 43
0.0000000001
 40
7.338144408119084
 40
7.338144408119084
 40
7.338144408119084
 40
10.77392533388802
 40
10.77392533388802
 40
10.77392533388802
 10
310.5983922069516
 20
-467.684600017806
 30
0.0
 41
1.0
 10
311.7580574865853
 20
-467.6846000178058
 30
0.0
 41
1.011780669010431
 10
312.9433100169736
 20
-467.8846000178068
 30
0.0
 41
1.012529721408343
  0
SPLINE
  5
BAF0
330
211F
100
AcDbEntity
  8
AM_VIS
100
AcDbSpline
210
0.0
220
0.0
230
1.0
 70
    12
 71
     2
 72
     6
 73
     3
 74
     0
 42
0.0000000001
 43
0.0000000001
 40
3.902363482350202
 40
3.902363482350202
 40
3.902363482350202
 40
7.338144408119045
 40
7.338144408119045
 40
7.338144408119045
 10
286.050321467671
 20
-467.8846000178058
 30
0.0
 41
1.012529721408307
 10
287.2355739980573
 20
-467.6846000178063
 30
0.0
 41
1.011780669010398
 10
288.3952392776939
 20
-467.684600017806
 30
0.0
 41
1.0
  0
SPLINE
  5
BAF1
330
211F
100
AcDbEntity
  8
AM_VIS
100
AcDbSpline
210
0.0
220
0.0
230
1.0
 70
    12
 71
     2
 72
     6
 73
     3
 74
     0
 42
0.0000000001
 43
0.0000000001
 40
7.338144408119045
 40
7.338144408119045
 40
7.338144408119045
 40
10.77392533388801
 40
10.77392533388801
 40
10.77392533388801
 10
288.3952392776939
 20
-467.684600017806
 30
0.0
 41
1.0
 10
289.5549045573291
 20
-467.6846000178064
 30
0.0
 41
1.011780669010406
 10
290.7401570877187
 20
-467.8846000178055
 30
0.0
 41
1.012529721408316
  0
SPLINE
  5
BAF2
330
211F
100
AcDbEntity
  8
AM_VIS
100
AcDbSpline
210
0.0
220
0.0
230
1.0
 70
    12
 71
     2
 72
     6
 73
     3
 74
     0
 42
0.0000000001
 43
0.0000000001
 40
3.902363482350003
 40
3.902363482350003
 40
3.902363482350003
 40
7.33814440811904
 40
7.33814440811904
 40
7.33814440811904
 10
296.1806011727369
 20
-467.8846000178061
 30
0.0
 41
1.012529721408304
 10
297.8568013760492
 20
-467.6846000178058
 30
0.0
 41
1.011780669010395
 10
299.4968157423227
 20
-467.684600017806
 30
0.0
 41
1.0
  0
LINE
  5
BAF3
330
211F
100
AcDbEntity
  8
AM_VIS
100
AcDbLine
 10
315.1968157423228
 20
-464.6492171105582
 30
0.0
 11
315.1968157423228
 21
-467.8846000178061
 31
0.0
  0
SPLINE
  5
BAF4
330
211F
100
AcDbEntity
  8
AM_VIS
100
AcDbSpline
210
0.0
220
0.0
230
1.0
 70
    12
 71
     2
 72
     6
 73
     3
 74
     0
 42
0.0000000001
 43
0.0000000001
 40
3.025558988543641
 40
3.025558988543641
 40
3.025558988543641
 40
15.23515951974282
 40
15.23515951974282
 40
15.23515951974282
 10
314.7258914498343
 20
-464.6492171105586
 30
0.0
 41
1.043143297380425
 10
310.5983922069688
 20
-464.104160462254
 30
0.0
 41
1.112907658033237
 10
306.4708929640687
 20
-464.6492171105582
 30
0.0
 41
1.043143297381117
  0
SPLINE
  5
BAF5
330
211F
100
AcDbEntity
  8
AM_VIS
100
AcDbSpline
210
0.0
220
0.0
230
1.0
 70
    12
 71
     2
 72
     6
 73
     3
 74
     0
 42
0.0000000001
 43
0.0000000001
 40
3.025558988543667
 40
3.025558988543667
 40
3.025558988543667
 40
15.23515951974274
 40
15.23515951974274
 40
15.23515951974274
 10
305.3339811502939
 20
-464.6492171105577
 30
0.0
 41
1.043143297380426
 10
299.4968157423471
 20
-464.1041604622546
 30
0.0
 41
1.112907658033238
 10
293.6596503343531
 20
-464.6492171105582
 30
0.0
 41
1.043143297381117
  0
SPLINE
  5
BAF6
330
211F
100
AcDbEntity
  8
AM_VIS
100
AcDbSpline
210
0.0
220
0.0
230
1.0
 70
    12
 71
     2
 72
     6
 73
     3
 74
     0
 42
0.0000000001
 43
0.0000000001
 40
3.025558988543669
 40
3.025558988543669
 40
3.025558988543669
 40
15.23515951974274
 40
15.23515951974274
 40
15.23515951974274
 10
292.5227385205774
 20
-464.6492171105577
 30
0.0
 41
1.043143297380426
 10
288.3952392777112
 20
-464.1041604622546
 30
0.0
 41
1.112907658033238
 10
284.2677400348108
 20
-464.6492171105583
 30
0.0
 41
1.043143297381117
  0
LINE
  5
BAF7
330
211F
100
AcDbEntity
  8
AM_VIS
100
AcDbLine
 10
283.7968157423229
 20
-464.3678704585052
 30
0.0
 11
283.7968157423229
 21
-464.6492171105582
 31
0.0
  0
LINE
  5
BAF8
330
211F
100
AcDbEntity
  8
AM_VIS
100
AcDbLine
 10
315.1968157423228
 20
-464.3678704585062
 30
0.0
 11
315.1968157423228
 21
-464.6492171105582
 31
0.0
  0
LINE
  5
BAF9
330
211F
100
AcDbEntity
  8
AM_VIS
100
AcDbLine
 10
283.7968157423229
 20
-467.684600017806
 30
0.0
 11
283.4504055808091
 21
-467.8846000178061
 31
0.0
  0
LINE
  5
BAFA
330
211F
100
AcDbEntity
  8
AM_VIS
100
AcDbLine
 10
315.1968157423228
 20
-467.684600017806
 30
0.0
 11
315.5432259038366
 21
-467.8846000178061
 31
0.0
  0
LINE
  5
BAFB
330
211F
100
AcDbEntity
  8
AM_VIS
100
AcDbLine
 10
286.3468157423227
 20
-463.684600017806
 30
0.0
 11
283.7968157423225
 21
-464.3678704585052
 31
0.0
  0
LINE
  5
BAFC
330
211F
100
AcDbEntity
  8
AM_VIS
100
AcDbLine
 10
312.6468157423228
 20
-463.684600017806
 30
0.0
 11
315.196815742323
 21
-464.3678704585052
 31
0.0
  0
LINE
  5
BAFD
330
211F
100
AcDbEntity
  8
AM_VIS
100
AcDbLine
 10
312.4968157423227
 20
-463.684600017806
 30
0.0
 11
312.4968157423227
 21
-462.684600017806
 31
0.0
  0
LINE
  5
BAFE
330
211F
100
AcDbEntity
  8
AM_VIS
100
AcDbLine
 10
286.4968157423227
 20
-463.684600017806
 30
0.0
 11
286.4968157423227
 21
-462.684600017806
 31
0.0
  0
LINE
  5
BAFF
330
211F
100
AcDbEntity
  8
AM_VIS
100
AcDbLine
 10
312.2468157423227
 20
-460.6938522889948
 30
0.0
 11
312.2468157423227
 21
-460.684600017806
 31
0.0
  0
LINE
  5
BB00
330
211F
100
AcDbEntity
  8
AM_VIS
100
AcDbLine
 10
286.7468157423227
 20
-460.6938522889948
 30
0.0
 11
286.7468157423227
 21
-460.684600017806
 31
0.0
  0
LINE
  5
BB01
330
211F
100
AcDbEntity
  8
AM_VIS
100
AcDbLine
 10
311.3968157423228
 20
-461.2846000178059
 30
0.0
 11
311.3968157423228
 21
-461.184600017806
 31
0.0
  0
LINE
  5
BB02
330
211F
100
AcDbEntity
  8
AM_VIS
100
AcDbLine
 10
287.5968157423226
 20
-461.2846000178059
 30
0.0
 11
287.5968157423226
 21
-461.184600017806
 31
0.0
  0
LINE
  5
BB03
330
211F
100
AcDbEntity
  8
AM_VIS
100
AcDbLine
 10
311.3968157423228
 20
-461.184600017806
 30
0.0
 11
312.2468157423227
 21
-460.6938522889948
 31
0.0
  0
LINE
  5
BB04
330
211F
100
AcDbEntity
  8
AM_VIS
100
AcDbLine
 10
287.5968157423226
 20
-461.184600017806
 30
0.0
 11
286.7468157423227
 21
-460.6938522889948
 31
0.0
  0
LINE
  5
BB05
330
211F
100
AcDbEntity
  8
AM_VIS
100
AcDbLine
 10
312.6468157423228
 20
-463.684600017806
 30
0.0
 11
286.3468157423227
 21
-463.684600017806
 31
0.0
  0
LINE
  5
BB06
330
211F
100
AcDbEntity
  8
AM_VIS
100
AcDbLine
 10
305.3339811502926
 20
-464.6492171105582
 30
0.0
 11
306.4708929640685
 21
-464.6492171105582
 31
0.0
  0
LINE
  5
BB07
330
211F
100
AcDbEntity
  8
AM_VIS
100
AcDbLine
 10
292.5227385205769
 20
-464.6492171105582
 30
0.0
 11
293.6596503343531
 21
-464.6492171105582
 31
0.0
  0
LINE
  5
BB08
330
211F
100
AcDbEntity
  8
AM_VIS
100
AcDbLine
 10
283.7968157423229
 20
-464.6492171105582
 30
0.0
 11
284.2677400348109
 21
-464.6492171105582
 31
0.0
  0
LINE
  5
BB09
330
211F
100
AcDbEntity
  8
AM_VIS
100
AcDbLine
 10
314.7258914498345
 20
-464.6492171105582
 30
0.0
 11
315.1968157423228
 21
-464.6492171105582
 31
0.0
  0
LINE
  5
BB0A
330
211F
100
AcDbEntity
  8
AM_VIS
100
AcDbLine
 10
312.4968157423227
 20
-462.684600017806
 30
0.0
 11
286.4968157423227
 21
-462.684600017806
 31
0.0
  0
LINE
  5
BB0B
330
211F
100
AcDbEntity
  8
AM_VIS
100
AcDbLine
 10
311.3968157423228
 20
-461.184600017806
 30
0.0
 11
287.5968157423226
 21
-461.184600017806
 31
0.0
  0
LINE
  5
BB0C
330
211F
100
AcDbEntity
  8
AM_VIS
100
AcDbLine
 10
286.7468157423227
 20
-460.6938522889948
 30
0.0
 11
312.2468157423227
 21
-460.6938522889948
 31
0.0
  0
ARC
  5
BB0D
330
211F
100
AcDbEntity
  8
AM_VIS
100
AcDbCircle
 10
284.3907962915541
 20
-523.78176533722
 30
0.0
 40
1.908003629136189
100
AcDbArc
 50
177.0809427567743
 51
265.7816051259897
  0
LINE
  5
BB0E
330
211F
100
AcDbEntity
  8
AM_VIS
100
AcDbLine
 10
282.4852683464692
 20
-522.184600017806
 30
0.0
 11
282.4852683464692
 21
-523.684600017806
 31
0.0
  0
ARC
  5
BB0F
330
211F
100
AcDbEntity
  8
AM_VIS
100
AcDbCircle
 10
296.3423812021633
 20
-523.7559809633579
 30
0.0
 40
5.971762729548768
100
AcDbArc
 50
179.3151227704447
 51
198.8418106063156
  0
LINE
  5
BB10
330
211F
100
AcDbEntity
  8
AM_VIS
100
AcDbLine
 10
290.6906223041876
 20
-525.684600017806
 30
0.0
 11
286.7413872065918
 21
-525.684600017806
 31
0.0
  0
ARC
  5
BB11
330
211F
100
AcDbEntity
  8
AM_VIS
100
AcDbCircle
 10
286.5920098984875
 20
-523.662606377493
 30
0.0
 40
2.027503849969948
100
AcDbArc
 50
180.6215364183779
 51
274.2251220151941
  0
LINE
  5
BB12
330
211F
100
AcDbEntity
  8
AM_VIS
100
AcDbLine
 10
284.5646253416189
 20
-523.684600017806
 30
0.0
 11
284.5646253416189
 21
-522.184600017806
 31
0.0
  0
LINE
  5
BB13
330
211F
100
AcDbEntity
  8
AM_VIS
100
AcDbLine
 10
285.3833252672739
 20
-523.684600017806
 30
0.0
 11
285.3833252672739
 21
-522.184600017806
 31
0.0
  0
ARC
  5
BB14
330
211F
100
AcDbEntity
  8
AM_VIS
100
AcDbCircle
 10
286.6401782600338
 20
-523.6306682700786
 30
0.0
 40
1.25800957024271
100
AcDbArc
 50
182.4570630614493
 51
274.6145270974571
  0
LINE
  5
BB15
330
211F
100
AcDbEntity
  8
AM_VIS
100
AcDbLine
 10
290.3710450988579
 20
-522.184600017806
 30
0.0
 11
290.3710450988579
 21
-523.684600017806
 31
0.0
  0
SPLINE
  5
BB16
330
211F
100
AcDbEntity
  8
AM_VIS
100
AcDbSpline
210
0.0
220
0.0
230
1.0
 70
     8
 71
     3
 72
    20
 73
    16
 74
     0
 42
0.0000000001
 43
0.0000000001
 40
0.000266985706846
 40
0.000266985706846
 40
0.000266985706846
 40
0.000266985706846
 40
0.7750259254237385
 40
0.7750259254237385
 40
1.536568364492768
 40
1.536568364492768
 40
2.267322955288782
 40
2.267322955288782
 40
2.851718203648456
 40
2.851718203648456
 40
3.107750342531915
 40
3.107750342531915
 40
3.291455659403573
 40
3.291455659403573
 40
3.332730813505045
 40
3.332730813505045
 40
3.332730813505045
 40
3.332730813505045
 10
303.6025745270817
 20
-523.684600017806
 30
0.0
 10
303.6025745270817
 20
-523.9428511281438
 30
0.0
 10
303.5781739600254
 20
-524.1983906252645
 30
0.0
 10
303.4799206697733
 20
-524.6701974217709
 30
0.0
 10
303.4079348891682
 20
-524.8816737769597
 30
0.0
 10
303.2187835280074
 20
-525.2327271225177
 30
0.0
 10
303.1059767297627
 20
-525.3702638948819
 30
0.0
 10
302.8662611089808
 20
-525.5528604006643
 30
0.0
 10
302.7489256624272
 20
-525.6092654267157
 30
0.0
 10
302.5654215249292
 20
-525.6585282521804
 30
0.0
 10
302.5078453402339
 20
-525.6692040955516
 30
0.0
 10
302.4062149123538
 20
-525.6807127080077
 30
0.0
 10
302.3630029620883
 20
-525.6834664149072
 30
0.0
 10
302.3091928285016
 20
-525.6845056027803
 30
0.0
 10
302.2992866571271
 20
-525.684600017806
 30
0.0
 10
302.2893466603327
 20
-525.684600017806
 30
0.0
  0
LINE
  5
BB17
330
211F
100
AcDbEntity
  8
AM_VIS
100
AcDbLine
 10
302.2893466603327
 20
-525.684600017806
 30
0.0
 11
296.7042848243127
 21
-525.684600017806
 31
0.0
  0
SPLINE
  5
BB18
330
211F
100
AcDbEntity
  8
AM_VIS
100
AcDbSpline
210
0.0
220
0.0
230
1.0
 70
     8
 71
     3
 72
    22
 73
    18
 74
     0
 42
0.0000000001
 43
0.0000000001
 40
10.16556216377339
 40
10.16556216377339
 40
10.16556216377339
 40
10.16556216377339
 40
10.17927190170474
 40
10.17927190170474
 40
10.36207091046059
 40
10.36207091046059
 40
10.60136825464327
 40
10.60136825464327
 40
11.05389362814068
 40
11.05389362814068
 40
11.6572524024926
 40
11.6572524024926
 40
12.32058685922099
 40
12.32058685922099
 40
12.95698601737485
 40
12.95698601737485
 40
13.53448069592212
 40
13.53448069592212
 40
13.53448069592212
 40
13.53448069592212
 10
296.7042848243127
 20
-525.684600017806
 30
0.0
 10
296.7010238724263
 20
-525.684600017806
 30
0.0
 10
296.6977665156046
 20
-525.6845898562063
 30
0.0
 10
296.6511288073366
 20
-525.6842976219797
 30
0.0
 10
296.6084340225257
 20
-525.6822081796948
 30
0.0
 10
296.5115021206047
 20
-525.6728560959626
 30
0.0
 10
296.4578795401885
 20
-525.6642041848025
 30
0.0
 10
296.3068747137086
 20
-525.6286723105598
 30
0.0
 10
296.2137825958812
 20
-525.5925866386172
 30
0.0
 10
296.0105500098775
 20
-525.4751417821743
 30
0.0
 10
295.9070107120147
 20
-525.3838012400246
 30
0.0
 10
295.7164842870411
 20
-525.1399612452522
 30
0.0
 10
295.6343117955949
 20
-524.9850385738754
 30
0.0
 10
295.5066749747932
 20
-524.6360092914414
 30
0.0
 10
295.4609571663148
 20
-524.4468563616682
 30
0.0
 10
295.404395104569
 20
-524.0641214760968
 30
0.0
 10
295.3910569575637
 20
-523.8748938952125
 30
0.0
 10
295.3910569575637
 20
-523.684600017806
 30
0.0
  0
LINE
  5
BB19
330
211F
100
AcDbEntity
  8
AM_VIS
100
AcDbLine
 10
295.3910569575637
 20
-523.684600017806
 30
0.0
 11
295.3910569575637
 21
-522.184600017806
 31
0.0
  0
LINE
  5
BB1A
330
211F
100
AcDbEntity
  8
AM_VIS
100
AcDbLine
 10
295.829732270061
 20
-523.684600017806
 30
0.0
 11
295.829732270061
 21
-522.184600017806
 31
0.0
  0
SPLINE
  5
BB1B
330
211F
100
AcDbEntity
  8
AM_VIS
100
AcDbSpline
210
0.0
220
0.0
230
1.0
 70
     8
 71
     3
 72
    20
 73
    16
 74
     0
 42
0.0000000001
 43
0.0000000001
 40
-9.151995977348091
 40
-9.151995977348091
 40
-9.151995977348091
 40
-9.151995977348091
 40
-9.086877944338803
 40
-9.086877944338803
 40
-8.956311669601952
 40
-8.956311669601952
 40
-8.740484238973612
 40
-8.740484238973612
 40
-8.208262657149735
 40
-8.208262657149735
 40
-7.7410083393602
 40
-7.7410083393602
 40
-7.291341258061353
 40
-7.291341258061353
 40
-7.118618716149591
 40
-7.118618716149591
 40
-7.118618716149591
 40
-7.118618716149591
 10
296.7042848243127
 20
-524.884600017806
 30
0.0
 10
296.6886606869768
 20
-524.884600017806
 30
0.0
 10
296.6731226193717
 20
-524.8842112414366
 30
0.0
 10
296.6267124774647
 20
-524.881840244591
 30
0.0
 10
296.5961203381025
 20
-524.878649192732
 30
0.0
 10
296.5161269035468
 20
-524.8656607409023
 30
0.0
 10
296.4676042606122
 20
-524.8529292483521
 30
0.0
 10
296.3050132178757
 20
-524.7914151371182
 30
0.0
 10
296.2013130610867
 20
-524.717954489051
 30
0.0
 10
296.0358777633494
 20
-524.5204265485398
 30
0.0
 10
295.9726952873973
 20
-524.4061097580801
 30
0.0
 10
295.8798657482257
 20
-524.1455966597889
 30
0.0
 10
295.8502379090542
 20
-524.0041681519536
 30
0.0
 10
295.8322185206771
 20
-523.7992059273732
 30
0.0
 10
295.8297161058542
 20
-523.7418853920484
 30
0.0
 10
295.829732270061
 20
-523.6846000178078
 30
0.0
  0
SPLINE
  5
BB1C
330
211F
100
AcDbEntity
  8
AM_VIS
100
AcDbSpline
210
0.0
220
0.0
230
1.0
 70
     8
 71
     3
 72
    20
 73
    16
 74
     0
 42
0.0000000001
 43
0.0000000001
 40
-2.044576514724221
 40
-2.044576514724221
 40
-2.044576514724221
 40
-2.044576514724221
 40
-1.773187946007912
 40
-1.773187946007912
 40
-1.354885690123109
 40
-1.354885690123109
 40
-0.9407867602030753
 40
-0.9407867602030753
 40
-0.562515061368605
 40
-0.562515061368605
 40
-0.2713567920847736
 40
-0.2713567920847736
 40
-0.1174853597292146
 40
-0.1174853597292146
 40
0.0
 40
0.0
 40
0.0
 40
0.0
 10
303.1638992145847
 20
-523.684600017806
 30
0.0
 10
303.1639273411565
 20
-523.7736311439779
 30
0.0
 10
303.157903949399
 20
-523.8625408412957
 30
0.0
 10
303.1272844383666
 20
-524.0836527143263
 30
0.0
 10
303.0947863397657
 20
-524.2102881965283
 30
0.0
 10
303.003568634133
 20
-524.4371428979528
 30
0.0
 10
302.9460916694413
 20
-524.5351382545039
 30
0.0
 10
302.8152005233865
 20
-524.6898835951482
 30
0.0
 10
302.7446912442756
 20
-524.7481800963458
 30
0.0
 10
302.6079591397406
 20
-524.8244299966763
 30
0.0
 10
302.5450157079934
 20
-524.8482959335514
 30
0.0
 10
302.4445176214142
 20
-524.8716717707369
 30
0.0
 10
302.4090529005675
 20
-524.8773442939335
 30
0.0
 10
302.345426683999
 20
-524.8833345745573
 30
0.0
 10
302.3175355860503
 20
-524.884600017806
 30
0.0
 10
302.2893466603327
 20
-524.884600017806
 30
0.0
  0
LINE
  5
BB1D
330
211F
100
AcDbEntity
  8
AM_VIS
100
AcDbLine
 10
303.1638992145849
 20
-523.684600017806
 30
0.0
 11
303.1638992145849
 21
-522.184600017806
 31
0.0
  0
LINE
  5
BB1E
330
211F
100
AcDbEntity
  8
AM_VIS
100
AcDbLine
 10
303.6025745270817
 20
-522.184600017806
 30
0.0
 11
303.6025745270817
 21
-523.684600017806
 31
0.0
  0
ARC
  5
BB1F
330
211F
100
AcDbEntity
  8
AM_VIS
100
AcDbCircle
 10
312.4016362108
 20
-523.6626222946746
 30
0.0
 40
2.027489053585733
100
AcDbArc
 50
265.7744326832133
 51
359.3789088831988
  0
LINE
  5
BB20
330
211F
100
AcDbEntity
  8
AM_VIS
100
AcDbLine
 10
312.2522442780539
 20
-525.684600017806
 30
0.0
 11
308.3030091804581
 21
-525.684600017806
 31
0.0
  0
ARC
  5
BB21
330
211F
100
AcDbEntity
  8
AM_VIS
100
AcDbCircle
 10
302.6516342388199
 20
-523.7560423152047
 30
0.0
 40
5.971379534348515
100
AcDbArc
 50
341.157556724561
 51
0.6855098986727933
  0
LINE
  5
BB22
330
211F
100
AcDbEntity
  8
AM_VIS
100
AcDbLine
 10
308.6225863857878
 20
-523.684600017806
 30
0.0
 11
308.6225863857878
 21
-522.184600017806
 31
0.0
  0
ARC
  5
BB23
330
211F
100
AcDbEntity
  8
AM_VIS
100
AcDbCircle
 10
312.3536365491914
 20
-523.6308757418568
 30
0.0
 40
1.257817535555357
100
AcDbArc
 50
265.3763888929885
 51
357.5520209481898
  0
LINE
  5
BB24
330
211F
100
AcDbEntity
  8
AM_VIS
100
AcDbLine
 10
313.6103062173718
 20
-523.684600017806
 30
0.0
 11
313.6103062173718
 21
-522.184600017806
 31
0.0
  0
LINE
  5
BB25
330
211F
100
AcDbEntity
  8
AM_VIS
100
AcDbLine
 10
314.4290061430265
 20
-522.184600017806
 30
0.0
 11
314.4290061430265
 21
-523.684600017806
 31
0.0
  0
ARC
  5
BB26
330
211F
100
AcDbEntity
  8
AM_VIS
100
AcDbCircle
 10
314.6028511624793
 20
-523.7817794316282
 30
0.0
 40
1.907988398286481
100
AcDbArc
 50
274.2179477551023
 51
2.919504362126607
  0
LINE
  5
BB27
330
211F
100
AcDbEntity
  8
AM_VIS
100
AcDbLine
 10
316.5083631381762
 20
-523.684600017806
 30
0.0
 11
316.5083631381762
 21
-522.184600017806
 31
0.0
  0
LINE
  5
BB28
330
211F
100
AcDbEntity
  8
AM_VIS
100
AcDbLine
 10
316.9968157423227
 20
-522.184600017806
 30
0.0
 11
316.9968157423227
 21
-520.6846000178059
 31
0.0
  0
LINE
  5
BB29
330
211F
100
AcDbEntity
  8
AM_VIS
100
AcDbLine
 10
281.9968157423227
 20
-522.184600017806
 30
0.0
 11
281.9968157423227
 21
-520.6846000178059
 31
0.0
  0
LINE
  5
BB2A
330
211F
100
AcDbEntity
  8
AM_VIS
100
AcDbLine
 10
286.7413872065918
 20
-525.684600017806
 30
0.0
 11
284.250446631221
 21
-525.684600017806
 31
0.0
  0
LINE
  5
BB2B
330
211F
100
AcDbEntity
  8
AM_VIS
100
AcDbLine
 10
296.7042848243127
 20
-525.684600017806
 30
0.0
 11
290.6906223041874
 21
-525.684600017806
 31
0.0
  0
LINE
  5
BB2C
330
211F
100
AcDbEntity
  8
AM_VIS
100
AcDbLine
 10
308.3030091804581
 20
-525.684600017806
 30
0.0
 11
302.2893466603327
 21
-525.684600017806
 31
0.0
  0
LINE
  5
BB2D
102
{ACAD_REACTORS
330
BBB1
102
}
330
211F
100
AcDbEntity
  8
AM_VIS
100
AcDbLine
 10
314.7431848534245
 20
-525.684600017806
 30
0.0
 11
312.2522442780539
 21
-525.684600017806
 31
0.0
  0
LINE
  5
BB2E
330
211F
100
AcDbEntity
  8
AM_VIS
100
AcDbLine
 10
282.4852683464692
 20
-522.184600017806
 30
0.0
 11
281.9968157423227
 21
-522.184600017806
 31
0.0
  0
LINE
  5
BB2F
330
211F
100
AcDbEntity
  8
AM_VIS
100
AcDbLine
 10
290.3710450988579
 20
-522.184600017806
 30
0.0
 11
284.5646253416189
 21
-522.184600017806
 31
0.0
  0
LINE
  5
BB30
330
211F
100
AcDbEntity
  8
AM_VIS
100
AcDbLine
 10
286.7413872065918
 20
-524.884600017806
 30
0.0
 11
290.4795350543557
 21
-524.884600017806
 31
0.0
  0
LINE
  5
BB31
330
211F
100
AcDbEntity
  8
AM_VIS
100
AcDbLine
 10
303.6025745270817
 20
-522.184600017806
 30
0.0
 11
295.3910569575637
 21
-522.184600017806
 31
0.0
  0
LINE
  5
BB32
330
211F
100
AcDbEntity
  8
AM_VIS
100
AcDbLine
 10
296.7042848243127
 20
-524.884600017806
 30
0.0
 11
302.2893466603327
 21
-524.884600017806
 31
0.0
  0
LINE
  5
BB33
330
211F
100
AcDbEntity
  8
AM_VIS
100
AcDbLine
 10
314.4290061430265
 20
-522.184600017806
 30
0.0
 11
308.6225863857878
 21
-522.184600017806
 31
0.0
  0
LINE
  5
BB34
330
211F
100
AcDbEntity
  8
AM_VIS
100
AcDbLine
 10
308.51409643029
 20
-524.884600017806
 30
0.0
 11
312.2522442780539
 21
-524.884600017806
 31
0.0
  0
LINE
  5
BB35
330
211F
100
AcDbEntity
  8
AM_VIS
100
AcDbLine
 10
316.9968157423227
 20
-522.184600017806
 30
0.0
 11
316.5083631381762
 21
-522.184600017806
 31
0.0
  0
SPLINE
  5
BB36
330
211F
100
AcDbEntity
  8
AM_VIS
100
AcDbSpline
210
0.0
220
0.0
230
1.0
 70
    12
 71
     2
 72
     6
 73
     3
 74
     0
 42
0.0000000001
 43
0.0000000001
 40
6.908533529340567
 40
6.908533529340567
 40
6.908533529340567
 40
22.03328707889115
 40
22.03328707889115
 40
22.03328707889115
 10
318.18147418075
 20
-468.9563967875304
 30
0.0
 41
1.056225754107475
 10
311.9968157423234
 20
-468.430804140838
 30
0.0
 41
1.098474784271773
 10
305.8121573038967
 20
-468.9563967875304
 30
0.0
 41
1.056225754107475
  0
SPLINE
  5
BB37
330
211F
100
AcDbEntity
  8
AM_VIS
100
AcDbSpline
210
0.0
220
0.0
230
1.0
 70
    12
 71
     2
 72
     6
 73
     3
 74
     0
 42
0.0000000001
 43
0.0000000001
 40
6.908533529340524
 40
6.908533529340524
 40
6.908533529340524
 40
22.03328707889128
 40
22.03328707889128
 40
22.03328707889128
 10
293.1814741807476
 20
-468.9563967875306
 30
0.0
 41
1.056225754107474
 10
286.9968157423222
 20
-468.4308041408396
 30
0.0
 41
1.098474784271773
 10
280.812157303896
 20
-468.9563967875306
 30
0.0
 41
1.056225754107474
  0
LINE
  5
BB38
330
211F
100
AcDbEntity
  8
AM_VIS
100
AcDbLine
 10
274.4968157423227
 20
-468.6884475950995
 30
0.0
 11
274.4968157423227
 21
-468.9563967875304
 31
0.0
  0
LINE
  5
BB39
330
211F
100
AcDbEntity
  8
AM_VIS
100
AcDbLine
 10
324.496815742323
 20
-468.6884475950995
 30
0.0
 11
324.496815742323
 21
-468.9563967875304
 31
0.0
  0
LINE
  5
BB3A
330
211F
100
AcDbEntity
  8
AM_VIS
100
AcDbLine
 10
274.4968157423227
 20
-473.884600017806
 30
0.0
 11
274.4968157423227
 21
-468.9563967875304
 31
0.0
  0
LINE
  5
BB3B
330
211F
100
AcDbEntity
  8
AM_VIS
100
AcDbLine
 10
280.8121573038961
 20
-468.9563967875304
 30
0.0
 11
280.8121573038961
 21
-473.884600017806
 31
0.0
  0
LINE
  5
BB3C
330
211F
100
AcDbEntity
  8
AM_VIS
100
AcDbLine
 10
293.1814741807493
 20
-473.884600017806
 30
0.0
 11
293.1814741807493
 21
-468.9563967875304
 31
0.0
  0
LINE
  5
BB3D
330
211F
100
AcDbEntity
  8
AM_VIS
100
AcDbLine
 10
305.8121573038961
 20
-468.9563967875304
 30
0.0
 11
305.8121573038961
 21
-473.884600017806
 31
0.0
  0
LINE
  5
BB3E
330
211F
100
AcDbEntity
  8
AM_VIS
100
AcDbLine
 10
318.1814741807493
 20
-473.884600017806
 30
0.0
 11
318.1814741807493
 21
-468.9563967875304
 31
0.0
  0
LINE
  5
BB3F
330
211F
100
AcDbEntity
  8
AM_VIS
100
AcDbLine
 10
324.496815742323
 20
-468.9563967875304
 30
0.0
 11
324.496815742323
 21
-473.884600017806
 31
0.0
  0
LINE
  5
BB40
330
211F
100
AcDbEntity
  8
AM_VIS
100
AcDbLine
 10
293.1814741807493
 20
-473.884600017806
 30
0.0
 11
280.8121573038961
 21
-473.884600017806
 31
0.0
  0
LINE
  5
BB41
330
211F
100
AcDbEntity
  8
AM_VIS
100
AcDbLine
 10
277.4968157423227
 20
-467.8846000178061
 30
0.0
 11
274.4968157423227
 21
-468.6884475950995
 31
0.0
  0
LINE
  5
BB42
330
211F
100
AcDbEntity
  8
AM_VIS
100
AcDbLine
 10
321.4968157423227
 20
-467.8846000178061
 30
0.0
 11
324.496815742323
 21
-468.6884475950995
 31
0.0
  0
LINE
  5
BB43
330
211F
100
AcDbEntity
  8
AM_VIS
100
AcDbLine
 10
321.4968157423227
 20
-467.8846000178061
 30
0.0
 11
277.4968157423227
 21
-467.8846000178061
 31
0.0
  0
LINE
  5
BB44
330
211F
100
AcDbEntity
  8
AM_VIS
100
AcDbLine
 10
280.8121573038961
 20
-468.9563967875304
 30
0.0
 11
274.4968157423227
 21
-468.9563967875304
 31
0.0
  0
LINE
  5
BB45
330
211F
100
AcDbEntity
  8
AM_VIS
100
AcDbLine
 10
305.8121573038961
 20
-468.9563967875304
 30
0.0
 11
293.1814741807493
 21
-468.9563967875304
 31
0.0
  0
LINE
  5
BB46
330
211F
100
AcDbEntity
  8
AM_VIS
100
AcDbLine
 10
324.496815742323
 20
-468.9563967875304
 30
0.0
 11
318.1814741807493
 21
-468.9563967875304
 31
0.0
  0
LINE
  5
BB47
330
211F
100
AcDbEntity
  8
AM_VIS
100
AcDbLine
 10
279.4146293093645
 20
-473.884600017806
 30
0.0
 11
280.8121573038961
 21
-473.884600017806
 31
0.0
  0
LINE
  5
BB48
330
211F
100
AcDbEntity
  8
AM_VIS
100
AcDbLine
 10
293.1814741807493
 20
-473.884600017806
 30
0.0
 11
305.0352737763847
 21
-473.884600017806
 31
0.0
  0
LINE
  5
BB49
330
211F
100
AcDbEntity
  8
AM_VIS
100
AcDbLine
 10
314.5459146431726
 20
-454.384600017806
 30
0.0
 11
315.1342363565778
 21
-454.684600017806
 31
0.0
  0
LINE
  5
BB4A
330
211F
100
AcDbEntity
  8
AM_VIS
100
AcDbLine
 10
313.5914825789973
 20
-424.015215658405
 30
0.0
 11
314.5459146431726
 21
-454.384600017806
 31
0.0
  0
LINE
  5
BB4B
330
211F
100
AcDbEntity
  8
AM_VIS
100
AcDbLine
 10
295.2154277692052
 20
-454.684600017806
 30
0.0
 11
295.3765050702659
 21
-454.384600017806
 31
0.0
  0
LINE
  5
BB4C
330
211F
100
AcDbEntity
  8
AM_VIS
100
AcDbLine
 10
303.6171264143795
 20
-454.384600017806
 30
0.0
 11
303.7782037154402
 21
-454.684600017806
 31
0.0
  0
LINE
  5
BB4D
330
211F
100
AcDbEntity
  8
AM_VIS
100
AcDbLine
 10
303.3558113253046
 20
-424.015215658405
 30
0.0
 11
303.6171264143795
 21
-454.384600017806
 31
0.0
  0
LINE
  5
BB4E
330
211F
100
AcDbEntity
  8
AM_VIS
100
AcDbLine
 10
295.3765050702659
 20
-454.384600017806
 30
0.0
 11
295.6378201593411
 21
-424.015215658405
 31
0.0
  0
LINE
  5
BB4F
330
211F
100
AcDbEntity
  8
AM_VIS
100
AcDbLine
 10
283.859395128068
 20
-454.684600017806
 30
0.0
 11
284.447716841473
 21
-454.384600017806
 31
0.0
  0
LINE
  5
BB50
330
211F
100
AcDbEntity
  8
AM_VIS
100
AcDbLine
 10
284.447716841473
 20
-454.384600017806
 30
0.0
 11
285.4021489056481
 21
-424.015215658405
 31
0.0
  0
LINE
  5
BB51
330
211F
100
AcDbEntity
  8
AM_VIS
100
AcDbLine
 10
315.5706891568966
 20
-424.015215658405
 30
0.0
 11
316.5612418385072
 21
-425.033915086299
 31
0.0
  0
LINE
  5
BB52
330
211F
100
AcDbEntity
  8
AM_VIS
100
AcDbLine
 10
314.4600666266247
 20
-425.033915086299
 30
0.0
 11
313.5914825789973
 21
-424.015215658405
 31
0.0
  0
LINE
  5
BB53
330
211F
100
AcDbEntity
  8
AM_VIS
100
AcDbLine
 10
308.1340386884067
 20
-424.015215658405
 30
0.0
 11
308.6663076773584
 21
-425.033915086299
 31
0.0
  0
LINE
  5
BB54
330
211F
100
AcDbEntity
  8
AM_VIS
100
AcDbLine
 10
303.5936219839091
 20
-425.033915086299
 30
0.0
 11
303.3558113253046
 21
-424.015215658405
 31
0.0
  0
LINE
  5
BB55
330
211F
100
AcDbEntity
  8
AM_VIS
100
AcDbLine
 10
295.6378201593411
 20
-424.015215658405
 30
0.0
 11
295.4000095007366
 21
-425.033915086299
 31
0.0
  0
LINE
  5
BB56
330
211F
100
AcDbEntity
  8
AM_VIS
100
AcDbLine
 10
290.327323807287
 20
-425.033915086299
 30
0.0
 11
290.8595927962387
 21
-424.015215658405
 31
0.0
  0
LINE
  5
BB57
330
211F
100
AcDbEntity
  8
AM_VIS
100
AcDbLine
 10
285.4021489056481
 20
-424.015215658405
 30
0.0
 11
284.533564858021
 21
-425.033915086299
 31
0.0
  0
LINE
  5
BB58
330
211F
100
AcDbEntity
  8
AM_VIS
100
AcDbLine
 10
282.4323896461383
 20
-425.033915086299
 30
0.0
 11
283.4229423277488
 21
-424.015215658405
 31
0.0
  0
LINE
  5
BB59
330
211F
100
AcDbEntity
  8
AM_VIS
100
AcDbLine
 10
283.8593951280686
 20
-454.684600017806
 30
0.0
 11
284.533564858021
 21
-425.033915086299
 31
0.0
  0
LINE
  5
BB5A
330
211F
100
AcDbEntity
  8
AM_VIS
100
AcDbLine
 10
290.327323807287
 20
-425.033915086299
 30
0.0
 11
289.9141920654324
 21
-454.684600017806
 31
0.0
  0
LINE
  5
BB5B
330
211F
100
AcDbEntity
  8
AM_VIS
100
AcDbLine
 10
295.2154277692055
 20
-454.684600017806
 30
0.0
 11
295.4000095007364
 21
-425.033915086299
 31
0.0
  0
LINE
  5
BB5C
330
211F
100
AcDbEntity
  8
AM_VIS
100
AcDbLine
 10
303.5936219839091
 20
-425.033915086299
 30
0.0
 11
303.7782037154402
 21
-454.684600017806
 31
0.0
  0
LINE
  5
BB5D
330
211F
100
AcDbEntity
  8
AM_VIS
100
AcDbLine
 10
309.0794394192132
 20
-454.684600017806
 30
0.0
 11
308.6663076773584
 21
-425.033915086299
 31
0.0
  0
LINE
  5
BB5E
330
211F
100
AcDbEntity
  8
AM_VIS
100
AcDbLine
 10
314.4600666266247
 20
-425.033915086299
 30
0.0
 11
315.1342363565768
 21
-454.684600017806
 31
0.0
  0
LINE
  5
BB5F
330
211F
100
AcDbEntity
  8
AM_VIS
100
AcDbLine
 10
317.3300800824161
 20
-454.684600017806
 30
0.0
 11
316.5612418385072
 21
-425.033915086299
 31
0.0
  0
LINE
  5
BB60
330
211F
100
AcDbEntity
  8
AM_VIS
100
AcDbLine
 10
282.4323896461383
 20
-425.033915086299
 30
0.0
 11
281.6635514022294
 21
-454.684600017806
 31
0.0
  0
LINE
  5
BB61
330
211F
100
AcDbEntity
  8
AM_VIS
100
AcDbLine
 10
317.3243020781172
 20
-454.4617679898904
 30
0.0
 11
317.8368157423229
 21
-454.6846000178056
 31
0.0
  0
LINE
  5
BB62
330
211F
100
AcDbEntity
  8
AM_VIS
100
AcDbLine
 10
316.0274313829218
 20
-424.015215658405
 30
0.0
 11
316.0454269500169
 21
-424.5034432178571
 31
0.0
  0
LINE
  5
BB63
330
211F
100
AcDbEntity
  8
AM_VIS
100
AcDbLine
 10
281.6693294065285
 20
-454.4617679898904
 30
0.0
 11
281.1568157423228
 21
-454.6846000178056
 31
0.0
  0
LINE
  5
BB64
330
211F
100
AcDbEntity
  8
AM_VIS
100
AcDbLine
 10
282.9662001017236
 20
-424.015215658405
 30
0.0
 11
282.9482045346285
 21
-424.5034432178571
 31
0.0
  0
LINE
  5
BB65
330
211F
100
AcDbEntity
  8
AM_VIS
100
AcDbLine
 10
283.7968157423229
 20
-423.184600017806
 30
0.0
 11
282.9662001017236
 21
-424.015215658405
 31
0.0
  0
LINE
  5
BB66
330
211F
100
AcDbEntity
  8
AM_VIS
100
AcDbLine
 10
315.1968157423228
 20
-423.184600017806
 30
0.0
 11
316.0274313829218
 21
-424.015215658405
 31
0.0
  0
LINE
  5
BB67
330
211F
100
AcDbEntity
  8
AM_VIS
100
AcDbLine
 10
281.1568157423228
 20
-454.6846000178056
 30
0.0
 11
281.0105045048592
 21
-460.1712714226866
 31
0.0
  0
LINE
  5
BB68
330
211F
100
AcDbEntity
  8
AM_VIS
100
AcDbLine
 10
317.8368157423229
 20
-454.6846000178056
 30
0.0
 11
317.9831269797862
 21
-460.1712714226866
 31
0.0
  0
LINE
  5
BB69
330
211F
100
AcDbEntity
  8
AM_VIS
100
AcDbLine
 10
314.5459146431726
 20
-454.384600017806
 30
0.0
 11
309.0752594306955
 21
-454.384600017806
 31
0.0
  0
LINE
  5
BB6A
330
211F
100
AcDbEntity
  8
AM_VIS
100
AcDbLine
 10
303.6171264143795
 20
-454.384600017806
 30
0.0
 11
295.3765050702659
 21
-454.384600017806
 31
0.0
  0
LINE
  5
BB6B
330
211F
100
AcDbEntity
  8
AM_VIS
100
AcDbLine
 10
289.9183720539499
 20
-454.384600017806
 30
0.0
 11
284.447716841473
 21
-454.384600017806
 31
0.0
  0
LINE
  5
BB6C
102
{ACAD_REACTORS
330
BBAB
102
}
330
211F
100
AcDbEntity
  8
AM_VIS
100
AcDbLine
 10
315.1968157423228
 20
-423.184600017806
 30
0.0
 11
283.7968157423229
 21
-423.184600017806
 31
0.0
  0
LINE
  5
BB6D
330
211F
100
AcDbEntity
  8
AM_VIS
100
AcDbLine
 10
308.1340386884067
 20
-424.015215658405
 30
0.0
 11
313.5914825789973
 21
-424.015215658405
 31
0.0
  0
LINE
  5
BB6E
330
211F
100
AcDbEntity
  8
AM_VIS
100
AcDbLine
 10
295.6378201593411
 20
-424.015215658405
 30
0.0
 11
303.3558113253046
 21
-424.015215658405
 31
0.0
  0
LINE
  5
BB6F
330
211F
100
AcDbEntity
  8
AM_VIS
100
AcDbLine
 10
285.4021489056481
 20
-424.0152156584052
 30
0.0
 11
290.8595927962387
 21
-424.0152156584052
 31
0.0
  0
LINE
  5
BB70
330
211F
100
AcDbEntity
  8
AM_VIS
100
AcDbLine
 10
282.9662001017236
 20
-424.015215658405
 30
0.0
 11
283.4229423277488
 21
-424.015215658405
 31
0.0
  0
LINE
  5
BB71
330
211F
100
AcDbEntity
  8
AM_VIS
100
AcDbLine
 10
315.5706891568966
 20
-424.015215658405
 30
0.0
 11
316.0274313829218
 21
-424.015215658405
 31
0.0
  0
LINE
  5
BB72
330
211F
100
AcDbEntity
  8
AM_VIS
100
AcDbLine
 10
283.8593951280686
 20
-454.6846000178056
 30
0.0
 11
289.9141920654324
 21
-454.6846000178056
 31
0.0
  0
LINE
  5
BB73
330
211F
100
AcDbEntity
  8
AM_VIS
100
AcDbLine
 10
290.327323807287
 20
-425.033915086299
 30
0.0
 11
295.4000095007364
 21
-425.033915086299
 31
0.0
  0
LINE
  5
BB74
330
211F
100
AcDbEntity
  8
AM_VIS
100
AcDbLine
 10
295.2154277692055
 20
-454.6846000178056
 30
0.0
 11
303.77820371544
 21
-454.6846000178056
 31
0.0
  0
LINE
  5
BB75
330
211F
100
AcDbEntity
  8
AM_VIS
100
AcDbLine
 10
303.5936219839091
 20
-425.033915086299
 30
0.0
 11
308.6663076773584
 21
-425.033915086299
 31
0.0
  0
LINE
  5
BB76
330
211F
100
AcDbEntity
  8
AM_VIS
100
AcDbLine
 10
309.0794394192132
 20
-454.6846000178056
 30
0.0
 11
315.1342363565768
 21
-454.6846000178056
 31
0.0
  0
LINE
  5
BB77
330
211F
100
AcDbEntity
  8
AM_VIS
100
AcDbLine
 10
314.4600666266247
 20
-425.033915086299
 30
0.0
 11
316.5612418385072
 21
-425.033915086299
 31
0.0
  0
LINE
  5
BB78
330
211F
100
AcDbEntity
  8
AM_VIS
100
AcDbLine
 10
317.3300800824161
 20
-454.6846000178056
 30
0.0
 11
317.8368157423229
 21
-454.6846000178056
 31
0.0
  0
LINE
  5
BB79
330
211F
100
AcDbEntity
  8
AM_VIS
100
AcDbLine
 10
281.1568157423228
 20
-454.6846000178056
 30
0.0
 11
281.6635514022294
 21
-454.6846000178056
 31
0.0
  0
LINE
  5
BB7A
330
211F
100
AcDbEntity
  8
AM_VIS
100
AcDbLine
 10
282.4323896461383
 20
-425.033915086299
 30
0.0
 11
284.533564858021
 21
-425.033915086299
 31
0.0
  0
LINE
  5
BB7B
330
211F
100
AcDbEntity
  8
AM_VIS
100
AcDbLine
 10
317.4833046628055
 20
-460.684600017806
 30
0.0
 11
281.5103268218402
 21
-460.684600017806
 31
0.0
  0
ARC
  5
BB7C
330
211F
100
AcDbEntity
  8
AM_VIS
100
AcDbCircle
 10
317.4833046628055
 20
-460.184600017806
 30
0.0
 40
0.5
100
AcDbArc
 50
270.0
 51
1.527525442207913
  0
ARC
  5
BB7D
330
211F
100
AcDbEntity
  8
AM_VIS
100
AcDbCircle
 10
281.5103268218402
 20
-460.184600017806
 30
0.0
 40
0.5
100
AcDbArc
 50
178.4724745577921
 51
270.0
  0
LINE
  5
BB7E
330
211F
100
AcDbEntity
  8
AM_VIS
100
AcDbLine
 10
272.9968157423227
 20
-479.3846000178058
 30
0.0
 11
264.9968157423227
 21
-479.3846000178058
 31
0.0
  0
LINE
  5
BB7F
330
211F
100
AcDbEntity
  8
AM_VIS
100
AcDbLine
 10
264.9968157423227
 20
-506.3846000178058
 30
0.0
 11
272.9968157423227
 21
-506.3846000178058
 31
0.0
  0
LINE
  5
BB80
330
211F
100
AcDbEntity
  8
AM_VIS
100
AcDbLine
 10
264.9968157423227
 20
-480.3846000178058
 30
0.0
 11
264.9968157423227
 21
-505.3846000178058
 31
0.0
  0
LINE
  5
BB81
330
211F
100
AcDbEntity
  8
AM_VIS
100
AcDbLine
 10
264.4968157423227
 20
-482.3846000178058
 30
0.0
 11
264.3968157423228
 21
-482.3846000178058
 31
0.0
  0
LINE
  5
BB82
330
211F
100
AcDbEntity
  8
AM_VIS
100
AcDbLine
 10
264.9968157423227
 20
-503.3846000178058
 30
0.0
 11
264.3968157423228
 21
-503.3846000178058
 31
0.0
  0
LINE
  5
BB83
330
211F
100
AcDbEntity
  8
AM_VIS
100
AcDbLine
 10
264.9968157423227
 20
-480.3846000178058
 30
0.0
 11
264.9968157423227
 21
-479.3846000178058
 31
0.0
  0
LINE
  5
BB84
330
211F
100
AcDbEntity
  8
AM_VIS
100
AcDbLine
 10
264.9968157423227
 20
-506.3846000178058
 30
0.0
 11
264.9968157423227
 21
-505.3846000178058
 31
0.0
  0
LINE
  5
BB85
330
211F
100
AcDbEntity
  8
AM_VIS
100
AcDbLine
 10
264.3968157423228
 20
-503.3846000178058
 30
0.0
 11
264.3968157423228
 21
-482.3846000178058
 31
0.0
  0
LINE
  5
BB86
330
211F
100
AcDbEntity
  8
AM_VIS
100
AcDbLine
 10
333.6968157423228
 20
-475.6911732799409
 30
0.0
 11
333.6968157423228
 21
-471.884600017806
 31
0.0
  0
LINE
  5
BB87
330
211F
100
AcDbEntity
  8
AM_VIS
100
AcDbLine
 10
335.9968157423227
 20
-453.184600017806
 30
0.0
 11
333.6968157423228
 21
-453.184600017806
 31
0.0
  0
LINE
  5
BB88
330
211F
100
AcDbEntity
  8
AM_VIS
100
AcDbLine
 10
274.4968157423227
 20
-473.884600017806
 30
0.0
 11
274.4968157423227
 21
-476.184600017806
 31
0.0
  0
LINE
  5
BB89
330
211F
100
AcDbEntity
  8
AM_VIS
100
AcDbLine
 10
333.6968157423228
 20
-471.884600017806
 30
0.0
 11
333.6968157423228
 21
-458.1846000178059
 31
0.0
  0
ARC
  5
BB8A
330
211F
100
AcDbEntity
  8
AM_VIS
100
AcDbCircle
 10
331.6968157423228
 20
-471.884600017806
 30
0.0
 40
1.999999999999999
100
AcDbArc
 50
270.0
 51
0.0
  0
ARC
  5
BB8B
330
211F
100
AcDbEntity
  8
AM_VIS
100
AcDbCircle
 10
331.6968157423228
 20
-471.884600017806
 30
0.0
 40
4.299999999999999
100
AcDbArc
 50
270.0
 51
297.7177476896118
  0
LINE
  5
BB8C
330
211F
100
AcDbEntity
  8
AM_VIS
100
AcDbLine
 10
318.6212103167209
 20
-476.184600017806
 30
0.0
 11
331.6968157423228
 21
-476.184600017806
 31
0.0
  0
LINE
  5
BB8D
330
211F
100
AcDbEntity
  8
AM_VIS
100
AcDbLine
 10
331.6968157423228
 20
-473.884600017806
 30
0.0
 11
305.0352737763847
 21
-473.884600017806
 31
0.0
  0
LINE
  5
BB8E
330
211F
100
AcDbEntity
  8
AM_VIS
100
AcDbLine
 10
335.9968157423227
 20
-471.884600017806
 30
0.0
 11
335.9968157423227
 21
-458.1846000178059
 31
0.0
  0
LINE
  5
BB8F
330
211F
100
AcDbEntity
  8
AM_VIS
100
AcDbLine
 10
328.7914333554065
 20
-473.884600017806
 30
0.0
 11
333.6968157423228
 21
-468.97921763089
 31
0.0
  0
LINE
  5
BB90
330
211F
100
AcDbEntity
  8
AM_VIS
100
AcDbLine
 10
333.6968157423228
 20
-458.1846000178059
 30
0.0
 11
333.6968157423228
 21
-453.184600017806
 31
0.0
  0
ARC
  5
BB91
330
211F
100
AcDbEntity
  8
AM_VIS
100
AcDbCircle
 10
331.6968157423228
 20
-471.884600017806
 30
0.0
 40
4.299999999999999
100
AcDbArc
 50
297.7177476896118
 51
0.0
  0
LINE
  5
BB92
330
211F
100
AcDbEntity
  8
AM_VIS
100
AcDbLine
 10
274.4968157423227
 20
-473.884600017806
 30
0.0
 11
279.4146293093645
 21
-473.884600017806
 31
0.0
  0
LINE
  5
BB93
102
{ACAD_REACTORS
330
BBB4
102
}
330
211F
100
AcDbEntity
  8
AM_VIS
100
AcDbLine
 10
335.9968157423227
 20
-453.184600017806
 30
0.0
 11
335.9968157423227
 21
-458.1846000178059
 31
0.0
  0
ARC
  5
BB94
330
211F
100
AcDbEntity
  8
AM_VIS
100
AcDbCircle
 10
327.9968157423227
 20
-475.384600017806
 30
0.0
 40
2.299999999999999
100
AcDbArc
 50
200.3544063982361
 51
339.6455936017638
  0
LINE
  5
BB95
330
211F
100
AcDbEntity
  8
AM_VIS
100
AcDbLine
 10
326.4968157423227
 20
-505.3846000178061
 30
0.0
 11
326.4968157423227
 21
-480.3846000178061
 31
0.0
  0
LINE
  5
BB96
330
211F
100
AcDbEntity
  8
AM_VIS
100
AcDbLine
 10
326.4968157423227
 20
-505.3846000178061
 30
0.0
 11
326.4968157423227
 21
-505.8846000178061
 31
0.0
  0
LINE
  5
BB97
330
211F
100
AcDbEntity
  8
AM_VIS
100
AcDbLine
 10
326.4968157423227
 20
-479.884600017806
 30
0.0
 11
326.4968157423227
 21
-480.3846000178061
 31
0.0
  0
ARC
  5
BB98
330
211F
100
AcDbEntity
  8
AM_VIS
100
AcDbCircle
 10
325.9968157423227
 20
-505.8846000178061
 30
0.0
 40
0.5
100
AcDbArc
 50
270.0
 51
0.0
  0
ARC
  5
BB99
330
211F
100
AcDbEntity
  8
AM_VIS
100
AcDbCircle
 10
325.9968157423227
 20
-479.884600017806
 30
0.0
 40
0.5
100
AcDbArc
 50
0.0
 51
90.0
  0
LINE
  5
BB9A
330
211F
100
AcDbEntity
  8
AM_VIS
100
AcDbLine
 10
311.8968157423228
 20
-462.684600017806
 30
0.0
 11
311.8968157423228
 21
-461.2846000178059
 31
0.0
  0
LINE
  5
BB9B
330
211F
100
AcDbEntity
  8
AM_VIS
100
AcDbLine
 10
287.0968157423226
 20
-462.684600017806
 30
0.0
 11
287.0968157423226
 21
-461.2846000178059
 31
0.0
  0
LINE
  5
BB9C
330
211F
100
AcDbEntity
  8
AM_VIS
100
AcDbLine
 10
287.0968157423226
 20
-461.2846000178059
 30
0.0
 11
311.8968157423228
 21
-461.2846000178059
 31
0.0
  0
LINE
  5
BB9D
330
211F
100
AcDbEntity
  8
AM_VIS
100
AcDbLine
 10
264.4968157423227
 20
-484.7846000178059
 30
0.0
 11
264.4968157423227
 21
-480.9846000178062
 31
0.0
  0
ARC
  5
BB9E
330
211F
100
AcDbEntity
  8
AM_VIS
100
AcDbCircle
 10
265.2968157423229
 20
-480.9846000178062
 30
0.0
 40
0.8
100
AcDbArc
 50
112.0243128370455
 51
180.0
  0
ARC
  5
BB9F
330
211F
100
AcDbEntity
  8
AM_VIS
100
AcDbCircle
 10
265.2968157423229
 20
-484.7846000178059
 30
0.0
 40
0.8
100
AcDbArc
 50
180.0
 51
247.9756871629545
  0
LINE
  5
BBA0
330
211F
100
AcDbEntity
  8
AM_VIS
100
AcDbLine
 10
264.4968157423227
 20
-504.7846000178059
 30
0.0
 11
264.4968157423227
 21
-503.3846000178058
 31
0.0
  0
ARC
  5
BBA1
330
211F
100
AcDbEntity
  8
AM_VIS
100
AcDbCircle
 10
265.2968157423229
 20
-504.7846000178059
 30
0.0
 40
0.8
100
AcDbArc
 50
180.0
 51
247.9756871629545
  0
DIMENSION
  5
BBA2
102
{ACAD_XDICTIONARY
360
BBA3
102
}
102
{ACAD_REACTORS
330
BBA4
102
}
330
211F
100
AcDbEntity
  8
AM_5
100
AcDbDimension
  2
*D33
 10
176.4921487319921
 20
-537.684600017806
 30
0.0
 11
160.9421487319921
 21
-534.1096000178059
 31
0.0
 70
    32
 71
     5
 42
31.09999999999991
  3
AM_ISO$0
100
AcDbAlignedDimension
 13
145.3921487319921
 23
-512.0846000178061
 33
0.0
 14
176.4921487319921
 24
-526.684600017806
 34
0.0
100
AcDbRotatedDimension
1001
ACAD
1000
DSTYLE
1002
{
1070
    40
1040
1.3
1002
}
  0
DIMENSION
  5
BBA5
102
{ACAD_XDICTIONARY
360
BBA6
102
}
102
{ACAD_REACTORS
330
BBA7
102
}
330
211F
100
AcDbEntity
  8
AM_5
100
AcDbDimension
  2
*D34
 10
207.592148731992
 20
-537.684600017806
 30
0.0
 11
192.042148731992
 21
-534.1096000178059
 31
0.0
 70
    32
 71
     5
 42
31.09999999999991
  3
AM_ISO$0
100
AcDbAlignedDimension
 13
176.4921487319921
 23
-526.684600017806
 33
0.0
 14
207.592148731992
 24
-512.0846000178061
 34
0.0
100
AcDbRotatedDimension
1001
ACAD
1000
DSTYLE
1002
{
1070
    40
1040
1.3
1002
}
  0
LINE
  5
BBA8
102
{ACAD_REACTORS
330
BBAB
330
BBAE
102
}
330
211F
100
AcDbEntity
  8
AM_7
100
AcDbLine
 10
332.2279273002798
 20
-461.184600017806
 30
0.0
 11
338.4779273002798
 21
-461.184600017806
 31
0.0
  0
DIMENSION
  5
BBA9
102
{ACAD_XDICTIONARY
360
BBAA
102
}
102
{ACAD_REACTORS
330
BBAB
102
}
330
211F
100
AcDbEntity
  8
AM_5
100
AcDbDimension
  2
*D35
 10
350.4779273002798
 20
-461.184600017806
 30
0.0
 11
346.9029273002799
 21
-442.1846000178059
 31
0.0
 70
    32
 71
     5
 42
38.0
  3
AM_ISO$0
100
AcDbAlignedDimension
 13
315.1968157423228
 23
-423.184600017806
 33
0.0
 14
338.4779273002798
 24
-461.184600017806
 34
0.0
 50
90.0
100
AcDbRotatedDimension
1001
ACAD
1000
DSTYLE
1002
{
1070
    40
1040
1.3
1002
}
  0
DIMENSION
  5
BBAC
102
{ACAD_XDICTIONARY
360
BBAD
102
}
102
{ACAD_REACTORS
330
BBAE
102
}
330
211F
100
AcDbEntity
  8
AM_5
100
AcDbDimension
  2
*D36
 10
350.4779273002798
 20
-461.184600017806
 30
0.0
 11
346.9029273002799
 21
-479.384600017806
 31
0.0
 70
    32
 71
     5
 42
36.40000000000009
  3
AM_ISO$0
100
AcDbAlignedDimension
 13
311.707550319861
 23
-497.584600017806
 33
0.0
 14
338.4779273002798
 24
-461.184600017806
 34
0.0
 50
90.0
100
AcDbRotatedDimension
1001
ACAD
1000
DSTYLE
1002
{
1070
    40
1040
1.3
1002
}
  0
DIMENSION
  5
BBAF
102
{ACAD_XDICTIONARY
360
BBB0
102
}
102
{ACAD_REACTORS
330
BBB1
102
}
330
211F
100
AcDbEntity
  8
AM_5
100
AcDbDimension
  2
*D37
 10
350.4779273002798
 20
-497.584600017806
 30
0.0
 11
346.9024794656342
 21
-511.6346000178059
 31
0.0
 70
    32
 71
     5
 42
28.09999999999985
  3
AM_ISO$0
100
AcDbAlignedDimension
 13
314.7431848534245
 23
-525.684600017806
 33
0.0
 14
311.707550319861
 24
-497.584600017806
 34
0.0
 50
90.0
100
AcDbRotatedDimension
1001
ACAD
1000
DSTYLE
1002
{
1070
    40
1040
1.3
1002
}
  0
DIMENSION
  5
BBB2
102
{ACAD_XDICTIONARY
360
BBB3
102
}
102
{ACAD_REACTORS
330
BBB4
102
}
330
211F
100
AcDbEntity
  8
AM_5
100
AcDbDimension
  2
*D38
 10
299.4968157423227
 20
-408.1846000178059
 30
0.0
 11
317.7468157423227
 21
-404.609600017806
 31
0.0
 70
    32
 71
     5
 42
36.5
  3
AM_ISO$0
100
AcDbAlignedDimension
 13
335.9968157423227
 23
-453.184600017806
 33
0.0
 14
299.4968157423227
 24
-420.1846000178059
 34
0.0
100
AcDbRotatedDimension
1001
ACAD
1000
DSTYLE
1002
{
1070
    40
1040
1.3
1002
}
  0
DIMENSION
  5
BBB5
102
{ACAD_XDICTIONARY
360
BBB6
102
}
102
{ACAD_REACTORS
330
BBB7
102
}
330
211F
100
AcDbEntity
  8
AM_5
100
AcDbDimension
  2
*D39
 10
264.3968157423228
 20
-408.1846000178059
 30
0.0
 11
281.9468157423228
 21
-404.609600017806
 31
0.0
 70
    32
 71
     5
 42
35.09999999999991
  3
AM_ISO$0
100
AcDbAlignedDimension
 13
299.4968157423227
 23
-420.1846000178059
 33
0.0
 14
264.3968157423228
 24
-482.3846000178058
 34
0.0
100
AcDbRotatedDimension
1001
ACAD
1000
DSTYLE
1002
{
1070
    40
1040
1.3
1002
}
  0
DIMENSION
  5
BBB8
102
{ACAD_XDICTIONARY
360
BBB9
102
}
102
{ACAD_REACTORS
330
BBBA
102
}
330
211F
100
AcDbEntity
  8
AM_5
100
AcDbDimension
  2
*D40
 10
228.4329028728778
 20
-371.3594273313851
 30
0.0
 11
224.8579028728778
 21
-335.5594273313849
 31
0.0
 70
    32
 71
     5
 42
71.60000000000014
  3
AM_ISO$0
100
AcDbAlignedDimension
 13
202.9921487319921
 23
-299.7594273313849
 33
0.0
 14
186.9921487319921
 24
-371.3594273313851
 34
0.0
 50
90.0
100
AcDbRotatedDimension
1001
ACAD
1000
DSTYLE
1002
{
1070
    40
1040
1.3
1002
}
  0
DIMENSION
  5
BBBB
102
{ACAD_XDICTIONARY
360
BBBC
102
}
102
{ACAD_REACTORS
330
BBBD
102
}
330
211F
100
AcDbEntity
  8
AM_5
100
AcDbDimension
  2
*D41
 10
145.3921487319921
 20
-267.7594273313849
 30
0.0
 11
176.4921487319921
 21
-264.1839794967392
 31
0.0
 70
    32
 71
     5
 42
62.19999999999981
  3
AM_ISO
100
AcDbAlignedDimension
 13
207.592148731992
 23
-321.7594273313849
 33
0.0
 14
145.3921487319921
 24
-321.7594273313849
 34
0.0
100
AcDbRotatedDimension
1001
ACAD
1000
DSTYLE
1002
{
1070
   178
1070
   256
1070
    40
1040
1.3
1002
}
  0
ARC
  5
BBBE
330
211F
100
AcDbEntity
  8
HIDDEN
100
AcDbCircle
 10
160.792148731992
 20
-461.184600017806
 30
0.0
 40
3.25
100
AcDbArc
 50
270.0
 51
90.0
  0
LINE
  5
BBBF
330
211F
100
AcDbEntity
  8
HIDDEN
100
AcDbLine
 10
158.0654820653253
 20
-457.934600017806
 30
0.0
 11
160.792148731992
 21
-457.934600017806
 31
0.0
  0
LINE
  5
BBC0
330
211F
100
AcDbEntity
  8
AM_7
100
AcDbLine
 10
202.7421487319921
 20
-461.184600017806
 30
0.0
 11
187.7403223373803
 21
-461.184600017806
 31
0.0
  0
LINE
  5
BBC1
330
211F
100
AcDbEntity
  8
AM_7
100
AcDbLine
 10
194.3421487319922
 20
-467.333330654112
 30
0.0
 11
194.3421487319922
 21
-454.934600017806
 31
0.0
  0
LINE
  5
BBC2
330
211F
100
AcDbEntity
  8
AM_VIS
100
AcDbLine
 10
192.1921487319923
 20
-464.4346000178059
 30
0.0
 11
196.492148731992
 21
-464.4346000178059
 31
0.0
  0
ARC
  5
BBC3
102
{ACAD_REACTORS
330
BBC9
102
}
330
211F
100
AcDbEntity
  8
AM_VIS
100
AcDbCircle
 10
196.492148731992
 20
-461.184600017806
 30
0.0
 40
3.25
100
AcDbArc
 50
270.0
 51
90.0
  0
ARC
  5
BBC4
330
211F
100
AcDbEntity
  8
HIDDEN
100
AcDbCircle
 10
192.1921487319923
 20
-461.184600017806
 30
0.0
 40
3.25
100
AcDbArc
 50
90.0
 51
270.0
  0
LINE
  5
BBC5
330
211F
100
AcDbEntity
  8
HIDDEN
100
AcDbLine
 10
194.9188153986588
 20
-457.934600017806
 30
0.0
 11
192.1921487319923
 21
-457.934600017806
 31
0.0
  0
LINE
  5
BBC6
330
211F
100
AcDbEntity
  8
AM_VIS
100
AcDbLine
 10
196.492148731992
 20
-457.934600017806
 30
0.0
 11
194.9188153986588
 21
-457.934600017806
 31
0.0
  0
DIMENSION
  5
BBC7
102
{ACAD_XDICTIONARY
360
BBC8
102
}
102
{ACAD_REACTORS
330
BBC9
102
}
330
211F
100
AcDbEntity
  8
AM_5
100
AcDbDimension
  2
*D42
 10
214.7421487319921
 20
-457.934600017806
 30
0.0
 11
211.1671487319922
 21
-445.4192247000825
 31
0.0
 70
    32
 71
     5
 42
6.5
  3
AM_ISO$0
100
AcDbAlignedDimension
 13
196.492148731992
 23
-464.4346000178059
 33
0.0
 14
196.492148731992
 24
-457.934600017806
 34
0.0
 50
90.0
100
AcDbRotatedDimension
1001
ACAD
1000
DSTYLE
1002
{
1070
    40
1040
1.3
1002
}
  0
DIMENSION
  5
BBCA
102
{ACAD_XDICTIONARY
360
BBCB
102
}
102
{ACAD_REACTORS
330
BBCC
102
}
330
211F
100
AcDbEntity
  8
AM_5
100
AcDbDimension
  2
*D43
 10
133.3921487319921
 20
-492.8846000178058
 30
0.0
 11
129.8171487319922
 21
-458.0346000178058
 31
0.0
 70
    32
 71
     5
 42
69.69999999999981
  3
AM_ISO$0
100
AcDbAlignedDimension
 13
160.792148731992
 23
-423.184600017806
 33
0.0
 14
162.992148731992
 24
-492.8846000178058
 34
0.0
 50
90.0
100
AcDbRotatedDimension
1001
ACAD
1000
DSTYLE
1002
{
1070
    40
1040
1.3
1002
}
  0
DIMENSION
  5
BBCD
102
{ACAD_XDICTIONARY
360
BBCE
102
}
102
{ACAD_REACTORS
330
BBCF
102
}
330
211F
100
AcDbEntity
  8
AM_5
100
AcDbDimension
  2
*D44
 10
133.3921487319921
 20
-525.684600017806
 30
0.0
 11
129.8167008973466
 21
-509.2846000178059
 31
0.0
 70
    32
 71
     5
 42
32.80000000000024
  3
AM_ISO$0
100
AcDbAlignedDimension
 13
162.992148731992
 23
-492.8846000178058
 33
0.0
 14
161.2457796208905
 24
-525.684600017806
 34
0.0
 50
90.0
100
AcDbRotatedDimension
1001
ACAD
1000
DSTYLE
1002
{
1070
    40
1040
1.3
1002
}
  0
DIMENSION
  5
BBD0
102
{ACAD_XDICTIONARY
360
BBD1
102
}
102
{ACAD_REACTORS
330
BBD2
102
}
330
211F
100
AcDbEntity
  8
AM_5
100
AcDbDimension
  2
*D45
 10
202.9921487319921
 20
-408.1846000178062
 30
0.0
 11
176.4921487319921
 21
-404.6096000178062
 31
0.0
 70
    32
 71
     5
 42
53.0
  3
AM_ISO$0
100
AcDbAlignedDimension
 13
149.992148731992
 23
-458.1846000178059
 33
0.0
 14
202.9921487319921
 24
-458.1846000178059
 34
0.0
100
AcDbRotatedDimension
1001
ACAD
1000
DSTYLE
1002
{
1070
    40
1040
1.3
1002
}
  0
MTEXT
  5
BBD3
330
211F
100
AcDbEntity
  8
AM_5
100
AcDbMText
 10
243.6435015775319
 20
-530.898592626817
 30
0.0
 40
4.5
 41
20.45237131339241
 71
     1
 72
     5
  1
{\L2-PT3/8\P2-PT1/2}
 73
     1
 44
1.0
1001
ACAD
1000
MTEXTBEGIN
1070
    73
1070
     1
1070
    44
1040
1.0
1070
    74
1070
     0
1000
MTEXTEND
  0
ARC
  5
BBD4
102
{ACAD_REACTORS
330
BBD7
102
}
330
211F
100
AcDbEntity
  8
HIDDEN
100
AcDbCircle
 10
299.4968157423227
 20
-497.584600017806
 30
0.0
 40
10.0
100
AcDbArc
 50
346.831625312315
 51
287.0872076437453
  0
DIMENSION
  5
BBD5
102
{ACAD_XDICTIONARY
360
BBD6
102
}
102
{ACAD_REACTORS
330
BBD7
102
}
330
211F
100
AcDbEntity
  8
AM_5
100
AcDbDimension
  2
*D46
 10
306.6640552295853
 20
-490.6110300473968
 30
0.0
 11
254.5576397197547
 21
-529.5847980213533
 31
0.0
 70
   163
  1
2-PT1/4
 71
     5
 42
19.99999999999852
  3
AM_ISO$3
100
AcDbDiametricDimension
 15
292.3295762550591
 25
-504.5581699882164
 35
0.0
 40
0.0
1001
ACAD
1000
DSTYLE
1002
{
1070
   178
1070
   256
1070
    40
1040
1.3
1002
}
  0
CIRCLE
  5
BBD8
330
211F
100
AcDbEntity
  8
AM_VIS
100
AcDbCircle
 10
299.4968157423227
 20
-497.584600017806
 30
0.0
 40
9.210734577538175
  0
LINE
  5
BBD9
102
{ACAD_REACTORS
330
BBE4
102
}
330
211F
100
AcDbEntity
  8
HIDDEN
 48
0.5
100
AcDbLine
 10
153.242148731992
 20
-299.7594273313849
 30
0.0
 11
153.242148731992
 21
-302.0594273313849
 31
0.0
  0
LINE
  5
BBDA
102
{ACAD_REACTORS
330
BBE4
102
}
330
211F
100
AcDbEntity
  8
HIDDEN
 48
0.5
100
AcDbLine
 10
164.042148731992
 20
-299.7594273313849
 30
0.0
 11
164.042148731992
 21
-302.0594273313849
 31
0.0
  0
LINE
  5
BBDB
102
{ACAD_REACTORS
330
BBE1
102
}
330
211F
100
AcDbEntity
  8
AM_7
 48
0.6
100
AcDbLine
 10
158.6421487319921
 20
-305.7670509589838
 30
0.0
 11
158.6421487319921
 21
-297.1730625107049
 31
0.0
  0
LINE
  5
BBDC
330
211F
100
AcDbEntity
  8
HIDDEN
 48
0.5
100
AcDbLine
 10
199.742148731992
 20
-299.7594273313849
 30
0.0
 11
199.742148731992
 21
-302.0594273313849
 31
0.0
  0
LINE
  5
BBDD
330
211F
100
AcDbEntity
  8
HIDDEN
 48
0.5
100
AcDbLine
 10
188.9421487319921
 20
-299.7594273313849
 30
0.0
 11
188.9421487319921
 21
-302.0594273313849
 31
0.0
  0
LINE
  5
BBDE
102
{ACAD_REACTORS
330
BBE1
102
}
330
211F
100
AcDbEntity
  8
AM_7
 48
0.6
100
AcDbLine
 10
194.342148731992
 20
-305.7670509589838
 30
0.0
 11
194.342148731992
 21
-297.1730625107049
 31
0.0
  0
DIMENSION
  5
BBDF
102
{ACAD_XDICTIONARY
360
BBE0
102
}
102
{ACAD_REACTORS
330
BBE1
102
}
330
211F
100
AcDbEntity
  8
AM_5
100
AcDbDimension
  2
*D47
 10
194.342148731992
 20
-277.7594273313849
 30
0.0
 11
176.4921487319921
 21
-274.1844273313849
 31
0.0
 70
    32
 71
     5
 42
35.69999999999982
  3
AM_ISO$0
100
AcDbAlignedDimension
 13
158.6421487319921
 23
-297.1730625107049
 33
0.0
 14
194.342148731992
 24
-297.1730625107049
 34
0.0
100
AcDbRotatedDimension
1001
ACAD
1000
DSTYLE
1002
{
1070
    40
1040
1.3
1002
}
  0
DIMENSION
  5
BBE2
102
{ACAD_XDICTIONARY
360
BBE3
102
}
102
{ACAD_REACTORS
330
BBE4
102
}
330
211F
100
AcDbEntity
  8
AM_5
100
AcDbDimension
  2
*D48
 10
164.042148731992
 20
-287.7594273313849
 30
0.0
 11
173.564648731992
 21
-284.1844273313849
 31
0.0
 70
    32
 71
     5
 42
10.79999999999995
  3
AM_ISO$0
100
AcDbAlignedDimension
 13
153.242148731992
 23
-299.7594273313849
 33
0.0
 14
164.042148731992
 24
-299.7594273313849
 34
0.0
100
AcDbRotatedDimension
1001
ACAD
1000
DSTYLE
1002
{
1070
    40
1040
1.3
1002
}
  0
ENDSEC
  0
SECTION
  2
OBJECTS
  0
DICTIONARY
  5
210D
330
0
100
AcDbDictionary
281
     1
  3
ACAD_COLOR
350
2A9B
  3
ACAD_GROUP
350
210E
  3
ACAD_LAYOUT
350
211A
  3
ACAD_MATERIAL
350
2A9A
  3
ACAD_MLINESTYLE
350
2117
  3
ACAD_PLOTSETTINGS
350
2119
  3
ACAD_PLOTSTYLENAME
350
210F
  3
ACAD_TABLESTYLE
350
2A9C
  3
ACDBHEADERROUNDTRIPXREC
350
BCBF
  3
AcDbVariableDictionary
350
2380
  3
AcmDictionary
350
23A2
  3
AMG
350
2388
  3
AMGSNAPSETTINGS
350
23D6
  3
DWGPROPS
350
BCBE
  0
DICTIONARY
  5
2B2B
330
2103
100
AcDbDictionary
280
     1
281
     1
  3
ACAD_LAYERFILTERS
360
B44C
  3
ACAD_LAYERSTATES
360
2B2C
  3
ACLYDICTIONARY
360
B44B
  0
DICTIONARY
  5
220B
330
211F
100
AcDbDictionary
280
     1
281
     1
  3
ACAD_INDEX
360
6FEF
  3
ACAD_LAYOUTSELFREF
360
2A7E
  3
ACAD_SORTENTS
360
4F6C
  0
DICTIONARY
  5
220D
330
211B
100
AcDbDictionary
280
     1
281
     1
  3
ACAD_LAYOUTSELFREF
360
2A7D
  0
DICTIONARY
  5
BBA3
330
BBA2
100
AcDbDictionary
280
     1
281
     1
  3
ACAD_DIMASSOC
360
BBA4
  0
DICTIONARY
  5
BBA6
330
BBA5
100
AcDbDictionary
280
     1
281
     1
  3
ACAD_DIMASSOC
360
BBA7
  0
DICTIONARY
  5
BBAA
330
BBA9
100
AcDbDictionary
280
     1
281
     1
  3
ACAD_DIMASSOC
360
BBAB
  0
DICTIONARY
  5
BBAD
330
BBAC
100
AcDbDictionary
280
     1
281
     1
  3
ACAD_DIMASSOC
360
BBAE
  0
DICTIONARY
  5
BBB0
330
BBAF
100
AcDbDictionary
280
     1
281
     1
  3
ACAD_DIMASSOC
360
BBB1
  0
DICTIONARY
  5
BBB3
330
BBB2
100
AcDbDictionary
280
     1
281
     1
  3
ACAD_DIMASSOC
360
BBB4
  0
DICTIONARY
  5
BBB6
330
BBB5
100
AcDbDictionary
280
     1
281
     1
  3
ACAD_DIMASSOC
360
BBB7
  0
DICTIONARY
  5
BBB9
330
BBB8
100
AcDbDictionary
280
     1
281
     1
  3
ACAD_DIMASSOC
360
BBBA
  0
DICTIONARY
  5
BBBC
330
BBBB
100
AcDbDictionary
280
     1
281
     1
  3
ACAD_DIMASSOC
360
BBBD
  0
DICTIONARY
  5
BBC8
330
BBC7
100
AcDbDictionary
280
     1
281
     1
  3
ACAD_DIMASSOC
360
BBC9
  0
DICTIONARY
  5
BBCB
330
BBCA
100
AcDbDictionary
280
     1
281
     1
  3
ACAD_DIMASSOC
360
BBCC
  0
DICTIONARY
  5
BBCE
330
BBCD
100
AcDbDictionary
280
     1
281
     1
  3
ACAD_DIMASSOC
360
BBCF
  0
DICTIONARY
  5
BBD1
330
BBD0
100
AcDbDictionary
280
     1
281
     1
  3
ACAD_DIMASSOC
360
BBD2
  0
DICTIONARY
  5
BBD6
330
BBD5
100
AcDbDictionary
280
     1
281
     1
  3
ACAD_DIMASSOC
360
BBD7
  0
DICTIONARY
  5
BBE0
330
BBDF
100
AcDbDictionary
280
     1
281
     1
  3
ACAD_DIMASSOC
360
BBE1
  0
DICTIONARY
  5
BBE3
330
BBE2
100
AcDbDictionary
280
     1
281
     1
  3
ACAD_DIMASSOC
360
BBE4
  0
DICTIONARY
  5
2A9B
102
{ACAD_REACTORS
330
210D
102
}
330
210D
100
AcDbDictionary
281
     1
  0
DICTIONARY
  5
210E
102
{ACAD_REACTORS
330
210D
102
}
330
210D
100
AcDbDictionary
281
     1
  0
DICTIONARY
  5
211A
102
{ACAD_REACTORS
330
210D
102
}
330
210D
100
AcDbDictionary
281
     1
  3
Model
350
2122
  3
配置1
350
211E
  0
DICTIONARY
  5
2A9A
102
{ACAD_REACTORS
330
210D
102
}
330
210D
100
AcDbDictionary
281
     1
  0
DICTIONARY
  5
2117
102
{ACAD_REACTORS
330
210D
102
}
330
210D
100
AcDbDictionary
281
     1
  3
Standard
350
2118
  0
DICTIONARY
  5
2119
102
{ACAD_REACTORS
330
210D
102
}
330
210D
100
AcDbDictionary
281
     1
  0
ACDBDICTIONARYWDFLT
  5
210F
102
{ACAD_REACTORS
330
210D
102
}
330
210D
100
AcDbDictionary
281
     1
  3
Normal
350
2110
100
AcDbDictionaryWithDefault
340
2110
1001
ACAD
1000
TREAT_AS_HARD
1070
     0
  0
DICTIONARY
  5
2A9C
102
{ACAD_REACTORS
330
210D
102
}
330
210D
100
AcDbDictionary
281
     1
  3
Standard
350
2A9D
  0
DICTIONARY
  5
BCBF
102
{ACAD_REACTORS
330
210D
102
}
330
210D
100
AcDbDictionary
281
     1
  0
DICTIONARY
  5
2380
102
{ACAD_REACTORS
330
210D
102
}
330
210D
100
AcDbDictionary
281
     1
  3
CTABLESTYLE
350
2D26
  3
DIMASSOC
350
2381
  3
INDEXCTL
350
23E6
  3
PROJECTNAME
350
2D5C
  0
DICTIONARY
  5
23A2
102
{ACAD_REACTORS
330
210D
102
}
330
210D
100
AcDbDictionary
281
     1
  3
AcmStdDictionary
350
23A8
  3
AMDTSECTSYM_ARROWCOLOR
350
2B12
  0
DICTIONARY
  5
2388
102
{ACAD_REACTORS
330
210D
102
}
330
210D
100
AcDbDictionary
281
     1
  0
DICTIONARY
  5
23D6
102
{ACAD_REACTORS
330
210D
102
}
330
210D
100
AcDbDictionary
281
     1
  0
XRECORD
  5
BCBE
102
{ACAD_REACTORS
330
210D
102
}
330
210D
100
AcDbXrecord
280
     1
  1
DWGPROPS COOKIE
  2

  3

  4

  6

  7

  8

  9

300
AmdtFileType=84
301
=
302
=
303
=
304
=
305
=
306
=
307
=
308
=
309
=
 40
0.6957579282407408
 41
2451564.495570949
 42
2455625.48084588
  1

 90
        1
  0
DICTIONARY
  5
B44C
102
{ACAD_REACTORS
330
2B2B
102
}
330
2B2B
100
AcDbDictionary
281
     1
  0
DICTIONARY
  5
2B2C
102
{ACAD_REACTORS
330
2B2B
102
}
330
2B2B
100
AcDbDictionary
281
     1
  0
DICTIONARY
  5
B44B
102
{ACAD_REACTORS
330
2B2B
102
}
330
2B2B
100
AcDbDictionary
281
     1
1001
ACAD
1000
<All
  0
DICTIONARY
  5
6FEF
102
{ACAD_REACTORS
330
220B
102
}
330
220B
100
AcDbDictionary
281
     1
  3
*A1
350
6FF0
  0
XRECORD
  5
2A7E
102
{ACAD_REACTORS
330
220B
102
}
330
220B
100
AcDbXrecord
280
     1
340
211F
  0
SORTENTSTABLE
  5
4F6C
102
{ACAD_REACTORS
330
220B
102
}
330
220B
100
AcDbSortentsTable
330
211F
331
5EF9
  5
5EF9
331
5F01
  5
5F01
331
5ED9
  5
5ED9
331
5F09
  5
5F09
331
5F11
  5
5F11
331
5EB9
  5
5EB9
331
5EE9
  5
5EE9
331
5EC1
  5
5EC1
331
5EF1
  5
5EF1
331
5ED1
  5
5ED1
331
5EB1
  5
5EB1
331
5829
  5
5829
331
5EFE
  5
5EFE
331
5F06
  5
5F06
331
5F0E
  5
5F0E
331
5F16
  5
5F16
331
5EBE
  5
5EBE
331
5EEE
  5
5EEE
331
5EC6
  5
5EC6
331
5EF6
  5
5EF6
331
5EAE
  5
5EAE
331
5ED6
  5
5ED6
331
5826
  5
5826
331
5EB6
  5
5EB6
331
5EFB
  5
5EFB
331
5F03
  5
5F03
331
5EDB
  5
5EDB
331
5F0B
  5
5F0B
331
5F13
  5
5F13
331
5EBB
  5
5EBB
331
5EC3
  5
5EC3
331
5EF3
  5
5EF3
331
5EAB
  5
5EAB
331
5EB3
  5
5EB3
331
582B
  5
582B
331
5F18
  5
5F18
331
5833
  5
5833
331
5EF8
  5
5EF8
331
5F00
  5
5F00
331
5ED8
  5
5ED8
331
5F08
  5
5F08
331
5EE0
  5
5EE0
331
5F10
  5
5F10
331
5EB8
  5
5EB8
331
5EE8
  5
5EE8
331
5EC0
  5
5EC0
331
5EF0
  5
5EF0
331
5EC8
  5
5EC8
331
5ED0
  5
5ED0
331
5EB0
  5
5EB0
331
5828
  5
5828
331
5EFD
  5
5EFD
331
5F05
  5
5F05
331
5F0D
  5
5F0D
331
5F15
  5
5F15
331
5EBD
  5
5EBD
331
5EC5
  5
5EC5
331
5EF5
  5
5EF5
331
5EAD
  5
5EAD
331
5ED5
  5
5ED5
331
5825
  5
5825
331
5EB5
  5
5EB5
331
5EFA
  5
5EFA
331
5F02
  5
5F02
331
5EDA
  5
5EDA
331
5F0A
  5
5F0A
331
5F12
  5
5F12
331
5EBA
  5
5EBA
331
5EEA
  5
5EEA
331
5EC2
  5
5EC2
331
5EF2
  5
5EF2
331
5EAA
  5
5EAA
331
5EB2
  5
5EB2
331
582A
  5
582A
331
5EFF
  5
5EFF
331
5F07
  5
5F07
331
5F0F
  5
5F0F
331
5F17
  5
5F17
331
5EBF
  5
5EBF
331
5EEF
  5
5EEF
331
5EC7
  5
5EC7
331
5EF7
  5
5EF7
331
5EAF
  5
5EAF
331
5ED7
  5
5ED7
331
5827
  5
5827
331
5EB7
  5
5EB7
331
5EFC
  5
5EFC
331
5F04
  5
5F04
331
5EDC
  5
5EDC
331
5F0C
  5
5F0C
331
5EE4
  5
5EE4
331
5F14
  5
5F14
331
5EBC
  5
5EBC
331
5EC4
  5
5EC4
331
5EF4
  5
5EF4
331
5ECC
  5
5ECC
331
5EAC
  5
5EAC
331
5EB4
  5
5EB4
331
582C
  5
582C
  0
XRECORD
  5
2A7D
102
{ACAD_REACTORS
330
220D
102
}
330
220D
100
AcDbXrecord
280
     1
340
211B
  0
DIMASSOC
  5
BBA4
102
{ACAD_REACTORS
330
BBA3
102
}
330
BBA3
100
AcDbDimAssoc
330
BBA2
 90
        3
 70
     0
 71
     0
  1
AcDbOsnapPointRef
 72
    13
331
B8FF
 73
     0
 91
        0
 40
0.0
 10
0.0
 20
0.0
 30
2.000000000000000E+50
 75
     0
  1
AcDbOsnapPointRef
 72
    13
331
B8BE
 73
     0
 91
        0
 40
0.0
 10
0.0
 20
0.0
 30
2.000000000000000E+50
 75
     0
  0
DIMASSOC
  5
BBA7
102
{ACAD_REACTORS
330
BBA6
102
}
330
BBA6
100
AcDbDimAssoc
330
BBA5
 90
        3
 70
     0
 71
     0
  1
AcDbOsnapPointRef
 72
    13
331
B8BE
 73
     0
 91
        0
 40
0.0
 10
0.0
 20
0.0
 30
2.000000000000000E+50
 75
     0
  1
AcDbOsnapPointRef
 72
     1
331
B8FA
 73
     0
 91
        0
 40
0.0
 10
0.0
 20
0.0
 30
2.000000000000000E+50
 75
     0
  0
DIMASSOC
  5
BBAB
102
{ACAD_REACTORS
330
BBAA
102
}
330
BBAA
100
AcDbDimAssoc
330
BBA9
 90
        3
 70
     0
 71
     0
  1
AcDbOsnapPointRef
 72
    13
331
BB6C
 73
     0
 91
        0
 40
0.0
 10
0.0
 20
0.0
 30
2.000000000000000E+50
 75
     0
  1
AcDbOsnapPointRef
 72
     1
331
BBA8
 73
     0
 91
        0
 40
0.0
 10
0.0
 20
0.0
 30
2.000000000000000E+50
 75
     0
  0
DIMASSOC
  5
BBAE
102
{ACAD_REACTORS
330
BBAD
102
}
330
BBAD
100
AcDbDimAssoc
330
BBAC
 90
        3
 70
     0
 71
     0
  1
AcDbOsnapPointRef
 72
     1
331
B8DC
 73
     0
 91
        0
 40
0.0
 10
0.0
 20
0.0
 30
2.000000000000000E+50
 75
     0
  1
AcDbOsnapPointRef
 72
     1
331
BBA8
 73
     0
 91
        0
 40
0.0
 10
0.0
 20
0.0
 30
2.000000000000000E+50
 75
     0
  0
DIMASSOC
  5
BBB1
102
{ACAD_REACTORS
330
BBB0
102
}
330
BBB0
100
AcDbDimAssoc
330
BBAF
 90
        3
 70
     0
 71
     0
  1
AcDbOsnapPointRef
 72
    13
331
BB2D
 73
     0
 91
        0
 40
0.0
 10
0.0
 20
0.0
 30
2.000000000000000E+50
 75
     0
  1
AcDbOsnapPointRef
 72
     1
331
B8DC
 73
     0
 91
        0
 40
0.0
 10
0.0
 20
0.0
 30
2.000000000000000E+50
 75
     0
  0
DIMASSOC
  5
BBB4
102
{ACAD_REACTORS
330
BBB3
102
}
330
BBB3
100
AcDbDimAssoc
330
BBB2
 90
        3
 70
     0
 71
     0
  1
AcDbOsnapPointRef
 72
    13
331
BB93
 73
     0
 91
        0
 40
0.0
 10
0.0
 20
0.0
 30
2.000000000000000E+50
 75
     0
  1
AcDbOsnapPointRef
 72
     1
331
B8DB
 73
     0
 91
        0
 40
0.0
 10
0.0
 20
0.0
 30
2.000000000000000E+50
 75
     0
  0
DIMASSOC
  5
BBB7
102
{ACAD_REACTORS
330
BBB6
102
}
330
BBB6
100
AcDbDimAssoc
330
BBB5
 90
        1
 70
     0
 71
     0
  1
AcDbOsnapPointRef
 72
     1
331
B8DB
 73
     0
 91
        0
 40
0.0
 10
0.0
 20
0.0
 30
2.000000000000000E+50
 75
     0
  0
DIMASSOC
  5
BBBA
102
{ACAD_REACTORS
330
BBB9
102
}
330
BBB9
100
AcDbDimAssoc
330
BBB8
 90
        1
 70
     0
 71
     0
  1
AcDbOsnapPointRef
 72
     1
331
BABB
 73
     0
 91
        0
 40
0.0
 10
0.0
 20
0.0
 30
2.000000000000000E+50
 75
     0
  0
DIMASSOC
  5
BBBD
102
{ACAD_REACTORS
330
BBBC
102
}
330
BBBC
100
AcDbDimAssoc
330
BBBB
 90
        3
 70
     0
 71
     0
  1
AcDbOsnapPointRef
 72
    13
331
BA21
 73
     0
 91
        0
 40
0.0
 10
0.0
 20
0.0
 30
2.000000000000000E+50
 75
     0
  1
AcDbOsnapPointRef
 72
     1
331
BA22
 73
     0
 91
        0
 40
0.0
 10
0.0
 20
0.0
 30
2.000000000000000E+50
 75
     0
  0
DIMASSOC
  5
BBC9
102
{ACAD_REACTORS
330
BBC8
102
}
330
BBC8
100
AcDbDimAssoc
330
BBC7
 90
        3
 70
     0
 71
     0
  1
AcDbOsnapPointRef
 72
    13
331
BBC3
 73
     0
 91
        0
 40
0.0
 10
0.0
 20
0.0
 30
2.000000000000000E+50
 75
     0
  1
AcDbOsnapPointRef
 72
     1
331
BBC3
 73
     0
 91
        0
 40
0.0
 10
0.0
 20
0.0
 30
2.000000000000000E+50
 75
     0
  0
DIMASSOC
  5
BBCC
102
{ACAD_REACTORS
330
BBCB
102
}
330
BBCB
100
AcDbDimAssoc
330
BBCA
 90
        3
 70
     0
 71
     0
  1
AcDbOsnapPointRef
 72
     1
331
B9AD
 73
     0
 91
        0
 40
0.0
 10
0.0
 20
0.0
 30
2.000000000000000E+50
 75
     0
  1
AcDbOsnapPointRef
 72
    13
331
B8C1
 73
     0
 91
        0
 40
0.0
 10
0.0
 20
0.0
 30
2.000000000000000E+50
 75
     0
  0
DIMASSOC
  5
BBCF
102
{ACAD_REACTORS
330
BBCE
102
}
330
BBCE
100
AcDbDimAssoc
330
BBCD
 90
        3
 70
     0
 71
     0
  1
AcDbOsnapPointRef
 72
    13
331
B8C1
 73
     0
 91
        0
 40
0.0
 10
0.0
 20
0.0
 30
2.000000000000000E+50
 75
     0
  1
AcDbOsnapPointRef
 72
     6
331
B966
 73
     0
 91
        0
 40
0.9999999999999543
 10
0.0
 20
0.0
 30
0.0
332
B949
 74
     0
 92
        0
 75
     0
  0
DIMASSOC
  5
BBD2
102
{ACAD_REACTORS
330
BBD1
102
}
330
BBD1
100
AcDbDimAssoc
330
BBD0
 90
        3
 70
     0
 71
     0
  1
AcDbOsnapPointRef
 72
     1
331
B9DC
 73
     0
 91
        0
 40
0.0
 10
0.0
 20
0.0
 30
2.000000000000000E+50
 75
     0
  1
AcDbOsnapPointRef
 72
     1
331
B9D1
 73
     0
 91
        0
 40
0.0
 10
0.0
 20
0.0
 30
2.000000000000000E+50
 75
     0
  0
DIMASSOC
  5
BBD7
102
{ACAD_REACTORS
330
BBD6
102
}
330
BBD6
100
AcDbDimAssoc
330
BBD5
 90
        2
 70
     0
 71
     0
  1
AcDbOsnapPointRef
 72
     3
331
BBD4
 73
     2
 91
        0
 40
0.0
 10
0.0
 20
0.0
 30
0.0
 75
     0
  0
DIMASSOC
  5
BBE1
102
{ACAD_REACTORS
330
BBE0
102
}
330
BBE0
100
AcDbDimAssoc
330
BBDF
 90
        3
 70
     0
 71
     0
  1
AcDbOsnapPointRef
 72
     1
331
BBDB
 73
     0
 91
        0
 40
0.0
 10
0.0
 20
0.0
 30
2.000000000000000E+50
 75
     0
  1
AcDbOsnapPointRef
 72
     1
331
BBDE
 73
     0
 91
        0
 40
0.0
 10
0.0
 20
0.0
 30
2.000000000000000E+50
 75
     0
  0
DIMASSOC
  5
BBE4
102
{ACAD_REACTORS
330
BBE3
102
}
330
BBE3
100
AcDbDimAssoc
330
BBE2
 90
        3
 70
     0
 71
     0
  1
AcDbOsnapPointRef
 72
    13
331
BBD9
 73
     0
 91
        0
 40
0.0
 10
0.0
 20
0.0
 30
2.000000000000000E+50
 75
     0
  1
AcDbOsnapPointRef
 72
    13
331
BBDA
 73
     0
 91
        0
 40
0.0
 10
0.0
 20
0.0
 30
2.000000000000000E+50
 75
     0
  0
LAYOUT
  5
2122
102
{ACAD_XDICTIONARY
360
BCC2
102
}
102
{ACAD_REACTORS
330
211A
102
}
330
211A
100
AcDbPlotSettings
  1

  2
DWF eView (optimized for viewing).pc3
  4
ISO_A2_(594.00_x_420.00_MM)
  6

 40
5.793749809265136
 41
17.79375076293945
 42
5.79376220703125
 43
17.79376220703125
 44
594.0
 45
420.0
 46
65.68999999999999
 47
0.0
 48
0.0
 49
0.0
140
0.0
141
0.0
142
1.0
143
0.9882747864176625
 70
 11956
 72
     1
 73
     1
 74
     1
  7
單色出圖.ctb
 75
     0
147
1.011864325330851
148
1118.351866827777
149
740.3867359420291
100
AcDbLayout
  1
Model
 70
     1
 71
     0
 10
0.0
 20
0.0
 11
12.0
 21
9.0
 12
0.0
 22
0.0
 32
0.0
 14
0.0
 24
0.0
 34
0.0
 15
0.0
 25
0.0
 35
0.0
146
0.0
 13
0.0
 23
0.0
 33
0.0
 16
1.0
 26
0.0
 36
0.0
 17
0.0
 27
1.0
 37
0.0
 76
     0
330
211F
  0
LAYOUT
  5
211E
102
{ACAD_XDICTIONARY
360
BCC0
102
}
102
{ACAD_REACTORS
330
211A
102
}
330
211A
100
AcDbPlotSettings
  1

  2
\\WINNT\EPSON Stylus Photo 750 單色
  4

  6

 40
0.0
 41
0.0
 42
0.0
 43
0.0
 44
0.0
 45
0.0
 46
0.0
 47
0.0
 48
0.0
 49
0.0
140
0.0
141
0.0
142
1.0
143
1.0
 70
   688
 72
     0
 73
     0
 74
     5
  7
單色出圖.ctb
 75
    16
147
1.0
148
0.0
149
0.0
100
AcDbLayout
  1
配置1
 70
     1
 71
     1
 10
0.0
 20
0.0
 11
420.0
 21
297.0
 12
0.0
 22
0.0
 32
0.0
 14
1.000000000000000E+20
 24
1.000000000000000E+20
 34
1.000000000000000E+20
 15
-1.000000000000000E+20
 25
-1.000000000000000E+20
 35
-1.000000000000000E+20
146
0.0
 13
0.0
 23
0.0
 33
0.0
 16
1.0
 26
0.0
 36
0.0
 17
0.0
 27
1.0
 37
0.0
 76
     0
330
211B
  0
MLINESTYLE
  5
2118
102
{ACAD_REACTORS
330
2117
102
}
330
2117
100
AcDbMlineStyle
  2
STANDARD
 70
     0
  3

 62
   256
 51
90.0
 52
90.0
 71
     2
 49
0.5
 62
   256
  6
BYLAYER
 49
-0.5
 62
   256
  6
BYLAYER
  0
ACDBPLACEHOLDER
  5
2110
102
{ACAD_REACTORS
330
210F
102
}
330
210F
  0
TABLESTYLE
  5
2A9D
102
{ACAD_REACTORS
330
2A9C
102
}
330
2A9C
100
AcDbTableStyle
  3
Standard
 70
     0
 71
     0
 40
0.06
 41
0.06
280
     0
281
     0
  7
STANDARD
140
0.18
170
     2
 62
     0
 63
     7
283
     0
274
    -2
284
     1
 64
     0
275
    -2
285
     1
 65
     0
276
    -2
286
     1
 66
     0
277
    -2
287
     1
 67
     0
278
    -2
288
     1
 68
     0
279
    -2
289
     1
 69
     0
  7
STANDARD
140
0.25
170
     5
 62
     0
 63
     7
283
     0
274
    -2
284
     1
 64
     0
275
    -2
285
     1
 65
     0
276
    -2
286
     1
 66
     0
277
    -2
287
     1
 67
     0
278
    -2
288
     1
 68
     0
279
    -2
289
     1
 69
     0
  7
STANDARD
140
0.18
170
     5
 62
     0
 63
     7
283
     0
274
    -2
284
     1
 64
     0
275
    -2
285
     1
 65
     0
276
    -2
286
     1
 66
     0
277
    -2
287
     1
 67
     0
278
    -2
288
     1
 68
     0
279
    -2
289
     1
 69
     0
  0
DICTIONARYVAR
  5
2D26
102
{ACAD_REACTORS
330
2380
102
}
330
2380
100
DictionaryVariables
280
     0
  1
STANDARD
  0
DICTIONARYVAR
  5
2381
102
{ACAD_REACTORS
330
2380
102
}
330
2380
100
DictionaryVariables
280
     0
  1
1
  0
DICTIONARYVAR
  5
23E6
102
{ACAD_REACTORS
330
2380
102
}
330
2380
100
DictionaryVariables
280
     0
  1
1
  0
DICTIONARYVAR
  5
2D5C
102
{ACAD_REACTORS
330
2380
102
}
330
2380
100
DictionaryVariables
280
     0
  1

  0
DICTIONARY
  5
23A8
102
{ACAD_REACTORS
330
23A2
102
}
330
23A2
100
AcDbDictionary
281
     1
  0
XRECORD
  5
2B12
102
{ACAD_REACTORS
330
23A2
102
}
330
23A2
100
AcDbXrecord
280
     1
 90
-1023410169
  0
LAYER_INDEX
  5
6FF0
102
{ACAD_REACTORS
330
6FEF
102
}
330
6FEF
100
AcDbIndex
 40
2455625.48084588
100
AcDbLayerIndex
  8
0
360
BCB4
 90
        3
  8
DEFPOINTS
360
BCB5
 90
        0
  8
LOGO
360
BCB6
 90
       90
  8
AM_VIS
360
BCB7
 90
      712
  8
AM_7
360
BCB8
 90
       36
  8
AM_5
360
BCB9
 90
       17
  8
AM_4
360
BCBA
 90
        1
  8
ASHADE
360
BCBB
 90
        9
  8
HIDDEN
360
BCBC
 90
        9
  0
DICTIONARY
  5
BCC2
330
2122
100
AcDbDictionary
280
     1
281
     1
  3
ACAD_XREC_ROUNDTRIP
360
BCC3
  0
DICTIONARY
  5
BCC0
330
211E
100
AcDbDictionary
280
     1
281
     1
  3
ACAD_XREC_ROUNDTRIP
360
BCC1
  0
IDBUFFER
  5
BCB4
330
0
100
AcDbIdBuffer
330
5F26
330
5F27
330
5F28
  0
IDBUFFER
  5
BCB5
330
0
100
AcDbIdBuffer
  0
IDBUFFER
  5
BCB6
330
0
100
AcDbIdBuffer
330
5EEF
330
5EF0
330
5EF1
330
5EF2
330
5EF3
330
5EF4
330
5EF5
330
5EF6
330
5EF7
330
5EF8
330
5EF9
330
5EFA
330
5EFB
330
5EFC
330
5EFD
330
5EFE
330
5EFF
330
5F00
330
5F01
330
5F02
330
5F03
330
5F04
330
5F05
330
5F06
330
5F07
330
5F08
330
5F09
330
5F0A
330
5F0B
330
5F0C
330
5F0D
330
5F0E
330
5F0F
330
5F10
330
5F11
330
5F12
330
5F13
330
5F14
330
5F15
330
5F16
330
5F17
330
5F18
330
5EAA
330
5EAB
330
5EAC
330
5EAD
330
5EAE
330
5EAF
330
5EB0
330
5EB1
330
5EB2
330
5EB3
330
5EB4
330
5EB5
330
5EB6
330
5EB7
330
5EB8
330
5EB9
330
5EBA
330
5EBB
330
5EBC
330
5EBD
330
5EBE
330
5EBF
330
5EC0
330
5EC1
330
5EC2
330
5EC3
330
5EC4
330
5EC5
330
5EC6
330
5EC7
330
5EC8
330
5ECC
330
5ED0
330
5ED1
330
5ED5
330
5ED6
330
5ED7
330
5ED8
330
5ED9
330
5EDA
330
5EDB
330
5EDC
330
5EE0
330
5EE4
330
5EE8
330
5EE9
330
5EEA
330
5EEE
  0
IDBUFFER
  5
BCB7
330
0
100
AcDbIdBuffer
330
BACE
330
BACF
330
BAD0
330
BAD1
330
BAD2
330
BAD3
330
BAD4
330
BAD5
330
BAD6
330
BAD7
330
BAD8
330
BAD9
330
BADA
330
BADB
330
BADC
330
BADD
330
BADE
330
BADF
330
BAE0
330
BAE1
330
BAE2
330
BAE3
330
BAE4
330
BAE5
330
BAE6
330
BAE7
330
BAE8
330
BAE9
330
BAEA
330
BAEB
330
BAEC
330
BAED
330
BAEE
330
BAEF
330
BAF0
330
BAF1
330
BAF2
330
BAF3
330
BAF4
330
BAF5
330
BAF6
330
BAF7
330
BAF8
330
BAF9
330
BAFA
330
BAFB
330
BAFC
330
BAFD
330
BAFE
330
BAFF
330
BB00
330
BB01
330
BB02
330
BB03
330
BB04
330
BB05
330
BB06
330
BB07
330
BB08
330
BB09
330
BB0A
330
BB0B
330
BB0C
330
BB0D
330
BB0E
330
BB0F
330
BB10
330
BB11
330
BB12
330
BB13
330
BB14
330
BB15
330
BB16
330
BB17
330
BB18
330
BB19
330
BB1A
330
BB1B
330
BB1C
330
BB1D
330
BB1E
330
BB1F
330
BB20
330
BB21
330
BB22
330
BB23
330
BB24
330
BB25
330
BB26
330
BB27
330
BB28
330
BB29
330
BB2A
330
BB2B
330
BB2C
330
BB2D
330
BB2E
330
BB2F
330
BB30
330
BB31
330
BB32
330
BB33
330
BB34
330
BB35
330
BB36
330
BB37
330
BB38
330
BB39
330
BB3A
330
BB3B
330
BB3C
330
BB3D
330
BB3E
330
BB3F
330
BB40
330
BB41
330
BB42
330
BB43
330
BB44
330
BB45
330
BB46
330
BB47
330
BB48
330
BB49
330
BB4A
330
BB4B
330
BB4C
330
BB4D
330
BB4E
330
BB4F
330
BB50
330
BB51
330
BB52
330
BB53
330
BB54
330
BB55
330
BB56
330
BB57
330
BB58
330
BB59
330
BB5A
330
BB5B
330
BB5C
330
BB5D
330
BB5E
330
BB5F
330
BB60
330
BB61
330
BB62
330
BB63
330
BB64
330
BB65
330
BB66
330
BB67
330
BB68
330
BB69
330
BB6A
330
BB6B
330
BB6C
330
BB6D
330
BB6E
330
BB6F
330
BB70
330
BB71
330
BB72
330
BB73
330
BB74
330
BB75
330
BB76
330
BB77
330
BB78
330
BB79
330
BB7A
330
BB7B
330
BB7C
330
BB7D
330
BB7E
330
BB7F
330
BB80
330
BB81
330
BB82
330
BB83
330
BB84
330
BB85
330
BB86
330
BB87
330
BB88
330
BB89
330
BB8A
330
BB8B
330
BB8C
330
BB8D
330
BB8E
330
BB8F
330
BB90
330
BB91
330
BB92
330
BB93
330
BB94
330
BB95
330
BB96
330
BB97
330
BB98
330
BB99
330
BB9A
330
BB9B
330
BB9C
330
BB9D
330
BB9E
330
BB9F
330
BBA0
330
BBA1
330
BBC2
330
BBC3
330
BBC6
330
BBD8
330
B8DE
330
B8DF
330
B8E0
330
B8E1
330
B8E2
330
B8E3
330
B8E4
330
B8E5
330
B8E6
330
B8E7
330
B8E8
330
B8E9
330
B8EA
330
B8EB
330
B8EC
330
B8ED
330
B8EE
330
B8EF
330
B8F0
330
B8F1
330
B8F2
330
B8F3
330
B8F4
330
B8F5
330
B8F6
330
B8F7
330
B8F8
330
B8F9
330
B8FA
330
B8FB
330
B8FC
330
B8FD
330
B8FE
330
B8FF
330
B900
330
B901
330
B902
330
B903
330
B904
330
B905
330
B906
330
B907
330
B908
330
B909
330
B90A
330
B90B
330
B90C
330
B90D
330
B90E
330
B90F
330
B910
330
B911
330
B912
330
B913
330
B914
330
B915
330
B916
330
B917
330
B918
330
B919
330
B91A
330
B91B
330
B91C
330
B91D
330
B91E
330
B91F
330
B920
330
B921
330
B922
330
B923
330
B924
330
B925
330
B926
330
B927
330
B928
330
B929
330
B92A
330
B92B
330
B92C
330
B92D
330
B92E
330
B92F
330
B930
330
B931
330
B932
330
B933
330
B934
330
B935
330
B936
330
B937
330
B938
330
B939
330
B93A
330
B93B
330
B93C
330
B93D
330
B93E
330
B93F
330
B940
330
B941
330
B942
330
B943
330
B944
330
B945
330
B946
330
B947
330
B948
330
B949
330
B94A
330
B94B
330
B94C
330
B94D
330
B94E
330
B94F
330
B950
330
B951
330
B952
330
B953
330
B954
330
B955
330
B956
330
B957
330
B958
330
B959
330
B95A
330
B95B
330
B95C
330
B95D
330
B95E
330
B95F
330
B960
330
B961
330
B962
330
B963
330
B964
330
B965
330
B966
330
B967
330
B968
330
B969
330
B96A
330
B96B
330
B96C
330
B96D
330
B96E
330
B96F
330
B970
330
B971
330
B972
330
B973
330
B974
330
B975
330
B976
330
B977
330
B978
330
B979
330
B97A
330
B97B
330
B97C
330
B97D
330
B97E
330
B97F
330
B980
330
B981
330
B982
330
B983
330
B984
330
B985
330
B986
330
B987
330
B988
330
B989
330
B98A
330
B98B
330
B98C
330
B98D
330
B98E
330
B98F
330
B990
330
B991
330
B992
330
B993
330
B994
330
B995
330
B996
330
B997
330
B998
330
B999
330
B99A
330
B99B
330
B99C
330
B99D
330
B99E
330
B99F
330
B9A0
330
B9A1
330
B9A2
330
B9A3
330
B9A4
330
B9A5
330
B9A6
330
B9A7
330
B9A8
330
B9A9
330
B9AA
330
B9AB
330
B9AC
330
B9AD
330
B9AE
330
B9AF
330
B9B0
330
B9B1
330
B9B2
330
B9B3
330
B9B4
330
B9B5
330
B9B6
330
B9B7
330
B9B8
330
B9B9
330
B9BA
330
B9BB
330
B9BC
330
B9BD
330
B9BE
330
B9BF
330
B9C0
330
B9C1
330
B9C2
330
B9C3
330
B9C4
330
B9C5
330
B9C6
330
B9C7
330
B9C8
330
B9C9
330
B9CA
330
B9CB
330
B9CC
330
B9CD
330
B9CE
330
B9CF
330
B9D0
330
B9D1
330
B9D2
330
B9D3
330
B9D4
330
B9D5
330
B9D6
330
B9D7
330
B9D8
330
B9D9
330
B9DA
330
B9DB
330
B9DC
330
B9DD
330
B9DE
330
B9DF
330
B9E0
330
B9E1
330
B9E2
330
B9E3
330
B9E4
330
B9E5
330
B9E6
330
B9E7
330
B9E8
330
B9E9
330
B9EA
330
B9EB
330
B9EC
330
B9ED
330
B9EE
330
B9EF
330
B9F0
330
B9F1
330
B9F2
330
B9F3
330
B9F4
330
B9F5
330
B9F6
330
B9F7
330
B9F8
330
B9F9
330
B9FA
330
B9FB
330
B9FC
330
B9FD
330
B9FE
330
B9FF
330
BA00
330
BA01
330
BA02
330
BA03
330
BA04
330
BA05
330
BA06
330
BA07
330
BA08
330
BA09
330
BA0A
330
BA0B
330
BA0C
330
BA0D
330
BA0E
330
BA0F
330
BA10
330
BA11
330
BA12
330
BA13
330
BA14
330
BA15
330
BA16
330
BA17
330
BA18
330
BA19
330
BA1A
330
BA1B
330
BA1C
330
BA1D
330
BA1E
330
BA1F
330
BA20
330
BA21
330
BA22
330
BA23
330
BA24
330
BA25
330
BA26
330
BA27
330
BA28
330
BA29
330
BA2A
330
BA2B
330
BA2C
330
BA2D
330
BA2E
330
BA2F
330
BA30
330
BA31
330
BA32
330
BA33
330
BA34
330
BA35
330
BA36
330
BA37
330
BA38
330
BA39
330
BA3A
330
BA3B
330
BA3C
330
BA3D
330
BA3E
330
BA3F
330
BA40
330
BA41
330
BA42
330
BA43
330
BA44
330
BA45
330
BA46
330
BA47
330
BA48
330
BA49
330
BA4A
330
BA4B
330
BA4C
330
BA4D
330
BA4E
330
BA4F
330
BA50
330
BA51
330
BA52
330
BA53
330
BA54
330
BA55
330
BA56
330
BA57
330
BA58
330
BA59
330
BA5A
330
BA5B
330
BA5C
330
BA5D
330
BA5E
330
BA5F
330
BA60
330
BA61
330
BA62
330
BA63
330
BA64
330
BA65
330
BA66
330
BA67
330
BA68
330
BA69
330
BA6A
330
BA6B
330
BA6C
330
BA6D
330
BA6E
330
BA6F
330
BA70
330
BA71
330
BA72
330
BA73
330
BA74
330
BA75
330
BA76
330
BA77
330
BA78
330
BA79
330
BA7A
330
BA7B
330
BA7C
330
BA7D
330
BA7E
330
BA7F
330
BA80
330
BA81
330
BA82
330
BA83
330
BA84
330
BA85
330
BA86
330
BA87
330
BA88
330
BA89
330
BA8A
330
BA8B
330
BA8C
330
BA8D
330
BA8E
330
BA8F
330
BA90
330
BA91
330
BA92
330
BA93
330
BA94
330
BA95
330
BA96
330
BA97
330
BA98
330
BA99
330
BA9A
330
BA9B
330
BA9C
330
BA9D
330
BA9E
330
BA9F
330
BAA0
330
BAA1
330
BAA2
330
BAA3
330
BAA4
330
BAA5
330
BAA6
330
BAA7
330
BAA8
330
BAA9
330
BAAA
330
BAAB
330
BAAC
330
BAAD
330
BAAE
330
BAAF
330
BAB0
330
BAB1
330
BAB2
330
BAB3
330
BAB4
330
BAB5
330
BAB6
330
BAB7
330
BAB8
330
BAB9
330
BABA
330
BABB
330
BABC
330
BABD
330
BABE
330
BABF
330
BAC0
330
BAC1
330
BAC2
330
BAC3
330
BAC4
330
BAC5
330
BAC6
330
BAC7
330
BAC8
330
BAC9
330
BACA
330
BACB
330
BACC
330
BACD
  0
IDBUFFER
  5
BCB8
330
0
100
AcDbIdBuffer
330
B8CE
330
B8CF
330
B8D0
330
B8D1
330
B8D2
330
B8D3
330
B8D4
330
B8D5
330
B8D6
330
B8D7
330
B8D8
330
B8D9
330
B8DB
330
B8DC
330
B8DD
330
BBA8
330
BBC0
330
BBC1
330
BBDB
330
BBDE
330
B8BE
330
B8BF
330
B8C0
330
B8C1
330
B8C2
330
B8C3
330
B8C4
330
B8C5
330
B8C6
330
B8C7
330
B8C8
330
B8C9
330
B8CA
330
B8CB
330
B8CC
330
B8CD
  0
IDBUFFER
  5
BCB9
330
0
100
AcDbIdBuffer
330
BBE2
330
BBA2
330
BBA5
330
BBA9
330
BBAC
330
BBAF
330
BBB2
330
BBB5
330
BBB8
330
BBBB
330
BBC7
330
BBCA
330
BBCD
330
BBD0
330
BBD3
330
BBD5
330
BBDF
  0
IDBUFFER
  5
BCBA
330
0
100
AcDbIdBuffer
330
B8DA
  0
IDBUFFER
  5
BCBB
330
0
100
AcDbIdBuffer
330
5825
330
5826
330
5827
330
5828
330
5829
330
582A
330
582B
330
582C
330
5833
  0
IDBUFFER
  5
BCBC
330
0
100
AcDbIdBuffer
330
BBBE
330
BBBF
330
BBC4
330
BBC5
330
BBD4
330
BBD9
330
BBDA
330
BBDC
330
BBDD
  0
XRECORD
  5
BCC3
102
{ACAD_REACTORS
330
BCC2
102
}
330
BCC2
100
AcDbXrecord
280
     1
102
SHADEPLOT
 70
     0
102
SHADEPLOTRESLEVEL
 70
     2
102
SHADEPLOTCUSTOMDPI
 70
   300
  0
XRECORD
  5
BCC1
102
{ACAD_REACTORS
330
BCC0
102
}
330
BCC0
100
AcDbXrecord
280
     1
102
SHADEPLOT
 70
     0
102
SHADEPLOTRESLEVEL
 70
     2
102
SHADEPLOTCUSTOMDPI
 70
   300
  0
ENDSEC
  0
EOF
