  0
SECTION
  2
HEADER
  9
$ACADVER
  1
AC1015
  9
$ACADMAINTVER
 70
    20
  9
$DWGCODEPAGE
  3
ANSI_950
  9
$INSBASE
 10
196.8846923010438
 20
-148.80236534061
 30
0.0
  9
$EXTMIN
 10
51.51825455482605
 20
324.103766447615
 30
-0.0054931124185487
  9
$EXTMAX
 10
321.9055807163483
 20
733.134730897852
 30
268.9490045535745
  9
$LIMMIN
 10
0.0
 20
0.0
  9
$LIMMAX
 10
12.0
 20
9.0
  9
$ORTHOMODE
 70
     1
  9
$REGENMODE
 70
     0
  9
$FILLMODE
 70
     1
  9
$QTEXTMODE
 70
     0
  9
$MIRRTEXT
 70
     1
  9
$LTSCALE
 40
6.0
  9
$ATTMODE
 70
     1
  9
$TEXTSIZE
 40
4.0
  9
$TRACEWID
 40
0.05
  9
$TEXTSTYLE
  7
DAYUS
  9
$CLAYER
  8
0
  9
$CELTYPE
  6
BYLAYER
  9
$CECOLOR
 62
   256
  9
$CELTSCALE
 40
1.0
  9
$DISPSILH
 70
     0
  9
$DIMSCALE
 40
1.0
  9
$DIMASZ
 40
3.0
  9
$DIMEXO
 40
1.0
  9
$DIMDLI
 40
8.0
  9
$DIMRND
 40
0.0
  9
$DIMDLE
 40
0.0
  9
$DIMEXE
 40
1.0
  9
$DIMTP
 40
0.1
  9
$DIMTM
 40
0.1
  9
$DIMTXT
 40
3.5
  9
$DIMCEN
 40
0.0
  9
$DIMTSZ
 40
0.0
  9
$DIMTOL
 70
     0
  9
$DIMLIM
 70
     0
  9
$DIMTIH
 70
     0
  9
$DIMTOH
 70
     0
  9
$DIMSE1
 70
     0
  9
$DIMSE2
 70
     0
  9
$DIMTAD
 70
     1
  9
$DIMZIN
 70
     8
  9
$DIMBLK
  1

  9
$DIMASO
 70
     1
  9
$DIMSHO
 70
     0
  9
$DIMPOST
  1

  9
$DIMAPOST
  1
"
  9
$DIMALT
 70
     0
  9
$DIMALTD
 70
     2
  9
$DIMALTF
 40
0.0393701
  9
$DIMLFAC
 40
1.0
  9
$DIMTOFL
 70
     1
  9
$DIMTVP
 40
0.0
  9
$DIMTIX
 70
     0
  9
$DIMSOXD
 70
     0
  9
$DIMSAH
 70
     0
  9
$DIMBLK1
  1

  9
$DIMBLK2
  1

  9
$DIMSTYLE
  2
AM_ISO
  9
$DIMCLRD
 70
   256
  9
$DIMCLRE
 70
   256
  9
$DIMCLRT
 70
   256
  9
$DIMTFAC
 40
0.71
  9
$DIMGAP
 40
1.0
  9
$DIMJUST
 70
     0
  9
$DIMSD1
 70
     0
  9
$DIMSD2
 70
     0
  9
$DIMTOLJ
 70
     0
  9
$DIMTZIN
 70
     8
  9
$DIMALTZ
 70
     8
  9
$DIMALTTZ
 70
     0
  9
$DIMUPT
 70
     0
  9
$DIMDEC
 70
     2
  9
$DIMTDEC
 70
     2
  9
$DIMALTU
 70
     2
  9
$DIMALTTD
 70
     2
  9
$DIMTXSTY
  7
STANDARD
  9
$DIMAUNIT
 70
     0
  9
$DIMADEC
 70
     0
  9
$DIMALTRND
 40
0.0
  9
$DIMAZIN
 70
     2
  9
$DIMDSEP
 70
    46
  9
$DIMATFIT
 70
     3
  9
$DIMFRAC
 70
     0
  9
$DIMLDRBLK
  1

  9
$DIMLUNIT
 70
     2
  9
$DIMLWD
 70
    -1
  9
$DIMLWE
 70
    -1
  9
$DIMTMOVE
 70
     0
  9
$LUNITS
 70
     2
  9
$LUPREC
 70
     2
  9
$SKETCHINC
 40
0.1
  9
$FILLETRAD
 40
2.5
  9
$AUNITS
 70
     0
  9
$AUPREC
 70
     0
  9
$MENU
  1
ACAD
  9
$ELEVATION
 40
0.0
  9
$PELEVATION
 40
0.0
  9
$THICKNESS
 40
0.0
  9
$LIMCHECK
 70
     0
  9
$CHAMFERA
 40
2.5
  9
$CHAMFERB
 40
2.5
  9
$CHAMFERC
 40
0.0
  9
$CHAMFERD
 40
0.0
  9
$SKPOLY
 70
     0
  9
$TDCREATE
 40
2450294.561725000
  9
$TDUCREATE
 40
2450294.228391667
  9
$TDUPDATE
 40
2454736.361269352
  9
$TDUUPDATE
 40
2454736.027936018
  9
$TDINDWG
 40
0.8950738657
  9
$TDUSRTIMER
 40
0.8950738657
  9
$USRTIMER
 70
     1
  9
$ANGBASE
 50
0.0
  9
$ANGDIR
 70
     0
  9
$PDMODE
 70
    65
  9
$PDSIZE
 40
6.299999999999999
  9
$PLINEWID
 40
0.0
  9
$SPLFRAME
 70
     0
  9
$SPLINETYPE
 70
     6
  9
$SPLINESEGS
 70
     8
  9
$HANDSEED
  5
7317
  9
$SURFTAB1
 70
     6
  9
$SURFTAB2
 70
     6
  9
$SURFTYPE
 70
     6
  9
$SURFU
 70
     6
  9
$SURFV
 70
     6
  9
$UCSBASE
  2

  9
$UCSNAME
  2

  9
$UCSORG
 10
0.0
 20
0.0
 30
0.0
  9
$UCSXDIR
 10
1.0
 20
0.0
 30
0.0
  9
$UCSYDIR
 10
0.0
 20
1.0
 30
0.0
  9
$UCSORTHOREF
  2

  9
$UCSORTHOVIEW
 70
     0
  9
$UCSORGTOP
 10
0.0
 20
0.0
 30
0.0
  9
$UCSORGBOTTOM
 10
0.0
 20
0.0
 30
0.0
  9
$UCSORGLEFT
 10
0.0
 20
0.0
 30
0.0
  9
$UCSORGRIGHT
 10
0.0
 20
0.0
 30
0.0
  9
$UCSORGFRONT
 10
0.0
 20
0.0
 30
0.0
  9
$UCSORGBACK
 10
0.0
 20
0.0
 30
0.0
  9
$PUCSBASE
  2

  9
$PUCSNAME
  2

  9
$PUCSORG
 10
0.0
 20
0.0
 30
0.0
  9
$PUCSXDIR
 10
1.0
 20
0.0
 30
0.0
  9
$PUCSYDIR
 10
0.0
 20
1.0
 30
0.0
  9
$PUCSORTHOREF
  2

  9
$PUCSORTHOVIEW
 70
     0
  9
$PUCSORGTOP
 10
0.0
 20
0.0
 30
0.0
  9
$PUCSORGBOTTOM
 10
0.0
 20
0.0
 30
0.0
  9
$PUCSORGLEFT
 10
0.0
 20
0.0
 30
0.0
  9
$PUCSORGRIGHT
 10
0.0
 20
0.0
 30
0.0
  9
$PUCSORGFRONT
 10
0.0
 20
0.0
 30
0.0
  9
$PUCSORGBACK
 10
0.0
 20
0.0
 30
0.0
  9
$USERI1
 70
     0
  9
$USERI2
 70
     0
  9
$USERI3
 70
     0
  9
$USERI4
 70
     0
  9
$USERI5
 70
     0
  9
$USERR1
 40
0.0
  9
$USERR2
 40
0.0
  9
$USERR3
 40
0.0
  9
$USERR4
 40
0.0
  9
$USERR5
 40
0.0
  9
$WORLDVIEW
 70
     1
  9
$SHADEDGE
 70
     3
  9
$SHADEDIF
 70
    70
  9
$TILEMODE
 70
     1
  9
$MAXACTVP
 70
    16
  9
$PINSBASE
 10
0.0
 20
0.0
 30
0.0
  9
$PLIMCHECK
 70
     0
  9
$PEXTMIN
 10
1.000000000000000E+20
 20
1.000000000000000E+20
 30
1.000000000000000E+20
  9
$PEXTMAX
 10
-1.000000000000000E+20
 20
-1.000000000000000E+20
 30
-1.000000000000000E+20
  9
$PLIMMIN
 10
0.0
 20
0.0
  9
$PLIMMAX
 10
12.0
 20
9.0
  9
$UNITMODE
 70
     0
  9
$VISRETAIN
 70
     0
  9
$PLINEGEN
 70
     0
  9
$PSLTSCALE
 70
     0
  9
$TREEDEPTH
 70
  3020
  9
$CMLSTYLE
  2
STANDARD
  9
$CMLJUST
 70
     0
  9
$CMLSCALE
 40
1.0
  9
$PROXYGRAPHICS
 70
     1
  9
$MEASUREMENT
 70
     1
  9
$CELWEIGHT
370
    -1
  9
$ENDCAPS
280
     0
  9
$JOINSTYLE
280
     0
  9
$LWDISPLAY
290
     0
  9
$INSUNITS
 70
     4
  9
$HYPERLINKBASE
  1

  9
$STYLESHEET
  1
acad.ctb
  9
$XEDIT
290
     1
  9
$CEPSNTYPE
380
     0
  9
$PSTYLEMODE
290
     1
  9
$FINGERPRINTGUID
  2
{45CED059-6816-11D4-9CDD-0050BAE3FAE1}
  9
$VERSIONGUID
  2
{5C87AE53-FD22-4532-B5B0-C64C4C8E34FD}
  9
$EXTNAMES
290
     1
  9
$PSVPSCALE
 40
0.0
  9
$OLESTARTUP
290
     0
  0
ENDSEC
  0
SECTION
  2
CLASSES
  0
CLASS
  1
DICTIONARYVAR
  2
AcDbDictionaryVar
  3
ObjectDBX Classes
 90
        0
280
     0
281
     0
  0
CLASS
  1
ACDBDICTIONARYWDFLT
  2
AcDbDictionaryWithDefault
  3
ObjectDBX Classes
 90
        0
280
     0
281
     0
  0
CLASS
  1
ACDBPLACEHOLDER
  2
AcDbPlaceHolder
  3
ObjectDBX Classes
 90
        0
280
     0
281
     0
  0
CLASS
  1
LAYOUT
  2
AcDbLayout
  3
ObjectDBX Classes
 90
        0
280
     0
281
     0
  0
CLASS
  1
SORTENTSTABLE
  2
AcDbSortentsTable
  3
ObjectDBX Classes
 90
        0
280
     0
281
     0
  0
CLASS
  1
TABLESTYLE
  2
AcDbTableStyle
  3
ObjectDBX Classes
 90
     2047
280
     0
281
     0
  0
CLASS
  1
ACME_DOCUMENT
  2
AcMeDbDoc
  3
AcMeServices
 90
        0
280
     0
281
     0
  0
CLASS
  1
AMGSETTINGSOBJ
  2
AmgSettingsObj
  3
"AcadM|Product Description: AutoCAD Mechanical 2000|Company: Autodesk"
 90
        0
280
     0
281
     0
  0
CLASS
  1
ACMESCOPE
  2
AcMeScope
  3
AcMeServices
 90
        0
280
     0
281
     0
  0
CLASS
  1
ACMECOMMANDHISTORY
  2
AcMeCommandHistory
  3
AcMeServices
 90
        0
280
     0
281
     0
  0
CLASS
  1
ACIMSYSVARMAN
  2
AcImSysVarManager
  3
AcMeServices
 90
        0
280
     0
281
     0
  0
CLASS
  1
ACIMINTSYSVAR
  2
AcImIntSysVar
  3
AcMeServices
 90
        0
280
     0
281
     0
  0
CLASS
  1
ACMEDRAWINGMAN
  2
AcMeDrawingMan
  3
AcMeServices
 90
        0
280
     0
281
     0
  0
CLASS
  1
ACMEVIEW
  2
AcMeView
  3
AcMeServices
 90
        0
280
     0
281
     0
  0
CLASS
  1
ACDBENTITYCACHE
  2
AcMeEntityCache
  3
AcMeServices
 90
        0
280
     0
281
     0
  0
CLASS
  1
GSMANAGER
  2
AcMeGSManager
  3
AcMeServices
 90
        0
280
     0
281
     0
  0
CLASS
  1
AMDTINTERNALREACTOR
  2
AmdtInternalReactor
  3
AcMeServices
 90
        0
280
     0
281
     0
  0
CLASS
  1
ACMESTATEMGR
  2
AcMeStateMgr
  3
AcMeServices
 90
        0
280
     0
281
     0
  0
CLASS
  1
ACGREFMASTER
  2
AcGrefMaster
  3
AcAttribServices
 90
        0
280
     0
281
     0
  0
CLASS
  1
AM_DRAWING_MGR
  2
AcDmDwgMgr
  3
AcMechDwgViewMgmt
 90
        0
280
     0
281
     0
  0
CLASS
  1
AM_DWG_DOCUMENT
  2
AcDmDwgDocument
  3
AcMechDwgViewMgmt
 90
        0
280
     0
281
     0
  0
CLASS
  1
AM_DWG_SHEET
  2
AcDmSheet
  3
AcMechDwgViewMgmt
 90
        0
280
     0
281
     0
  0
CLASS
  1
AM_VIEWDIMPARMAP
  2
AcDmViewDimParMap
  3
AcMechDwgViewMgmt
 90
        0
280
     0
281
     0
  0
CLASS
  1
ACIMREALSYSVAR
  2
AcImRealSysVar
  3
AcMeServices
 90
        0
280
     0
281
     0
  0
CLASS
  1
AM_DWGMGR_NAME
  2
AcDmDwgMgrName
  3
AcMechDwgViewMgmt
 90
        0
280
     0
281
     0
  0
CLASS
  1
ACME_DATABASE
  2
AcMeDbDatabase
  3
AcMeServices
 90
        0
280
     0
281
     0
  0
CLASS
  1
ACRFINSADJUSTERMGR
  2
AcRfInsAdjusterMgr
  3
AcMeServices
 90
        0
280
     0
281
     0
  0
CLASS
  1
ACGREFACADMASTER
  2
AcGrefacadMaster
  3
AcGrefServices
 90
        0
280
     0
281
     0
  0
CLASS
  1
AMDTMENUSTATEMGR
  2
AmdtMenuStateMgr
  3
McadcomServices
 90
        0
280
     0
281
     0
  0
CLASS
  1
AMDTMCOMMENUSTATE
  2
AmdtMcomMenuState
  3
McadcomServices
 90
        0
280
     0
281
     0
  0
CLASS
  1
AMIMASTER
  2
AmiMaster
  3
AmiServices
 90
        0
280
     0
281
     0
  0
CLASS
  1
MAPIAMMOUDLE
  2
MApiAmModule
  3
MApiAmServices
 90
        0
280
     0
281
     0
  0
CLASS
  1
AMDTADMENUSTATE
  2
AmdtAdMenuState
  3
DesignerServices
 90
        0
280
     0
281
     0
  0
CLASS
  1
ADAPPL
  2
AcAdAppl
  3
DesignerServices
 90
        0
280
     0
281
     0
  0
CLASS
  1
DEPMGR
  2
AcAdDepMgr
  3
DesignerServices
 90
        0
280
     0
281
     0
  0
CLASS
  1
PARAMMGR
  2
AcAdParamMgr
  3
DesignerServices
 90
        0
280
     0
281
     0
  0
CLASS
  1
PARAMSCOPE
  2
AcAdParamScope
  3
DesignerServices
 90
        0
280
     0
281
     0
  0
CLASS
  1
NAMEDAPPL
  2
AcAdNamedAppl
  3
DesignerServices
 90
        0
280
     0
281
     0
  0
CLASS
  1
AMDTDMMENUSTATE
  2
AmdtDmMenuState
  3
AcMechDwgViewMgmt
 90
        0
280
     0
281
     0
  0
CLASS
  1
AMDTAMMENUSTATE
  2
AmdtAmMenuState
  3
DesignerAssemblies
 90
        0
280
     0
281
     0
  0
CLASS
  1
ACIMSTRSYSVAR
  2
AcImStrSysVar
  3
AcMeServices
 90
        0
280
     0
281
     0
  0
CLASS
  1
ACAMPROJECT
  2
AcAmProject
  3
DesignerAssemblies
 90
        0
280
     0
281
     0
  0
CLASS
  1
ACAMGRCOMPDEF
  2
AcAmGrCompDef
  3
DesignerAssemblies
 90
        0
280
     0
281
     0
  0
CLASS
  1
ACCMCONTEXT
  2
AcCmContext
  3
DesignerAssemblies
 90
        0
280
     0
281
     0
  0
CLASS
  1
ACAMCOMPDEF
  2
AcAmCompDef
  3
DesignerAssemblies
 90
        0
280
     0
281
     0
  0
CLASS
  1
ACAMCOMPDEFMGR
  2
AcAmCompDefMgr
  3
DesignerAssemblies
 90
        0
280
     0
281
     0
  0
CLASS
  1
AMCONTEXTMGR
  2
AcAmContextMgr
  3
DesignerAssemblies
 90
        0
280
     0
281
     0
  0
CLASS
  1
ACAMCONTEXTMODELER
  2
AcAmContextModeler
  3
DesignerAssemblies
 90
        0
280
     0
281
     0
  0
CLASS
  1
ACMDATADICTIONARY
  2
AcmDataDictionary
  3
"AcmSymBB|Product Description: AutoCAD Mechanical 2004 DX|Company: Autodesk"
 90
        0
280
     0
281
     0
  0
CLASS
  1
CATALOGSTATE
  2
AcAmCatalogState
  3
DesignerAssemblies
 90
        0
280
     0
281
     0
  0
CLASS
  1
ACAMGRCOMPDEFSET
  2
AcAmGrCompDefSet
  3
DesignerAssemblies
 90
        0
280
     0
281
     0
  0
CLASS
  1
AMDTBROWSERDBTAB
  2
AmdtBrowserDbTab
  3
McadcomServices
 90
        0
280
     0
281
     0
  0
CLASS
  1
CBROWSERAPPOBJECT
  2
CBrowserAppObject
  3
McadcomServices
 90
        0
280
     0
281
     0
  0
CLASS
  1
DM_PLACEHOLDER
  2
AcDmSelsetPlaceholder
  3
AcMechDwgViewMgmt
 90
        0
280
     0
281
     0
  0
CLASS
  1
ACMSTANDARDANSI
  2
AcmStandardANSI
  3
"Amdt_StdImp|Product Description: AutoCAD Mechanical 2004 DX|Company: Autodesk"
 90
    32768
280
     0
281
     0
  0
CLASS
  1
AMGOBJPROPCFG
  2
AmgObjPropCfg
  3
"AmgLay|Product Description: AutoCAD Mechanical 2000|Company: Autodesk"
 90
        1
280
     0
281
     0
  0
CLASS
  1
ACMSURFSTANDARDANSI
  2
AcmSurfTextStdANSI
  3
"Amdt_StdImp|Product Description: AutoCAD Mechanical 2004 DX|Company: Autodesk"
 90
    32768
280
     0
281
     0
  0
CLASS
  1
ACMFCFSTANDARDANSI
  2
AcmFCFStdANSI
  3
"Amdt_StdImp|Product Description: AutoCAD Mechanical 2004 DX|Company: Autodesk"
 90
    32768
280
     0
281
     0
  0
CLASS
  1
ACMWELDSTANDARDANSI
  2
AcmWeldingStdANSI
  3
"Amdt_StdImp|Product Description: AutoCAD Mechanical 2004 DX|Company: Autodesk"
 90
    32768
280
     0
281
     0
  0
CLASS
  1
ACMIDSTANDARDANSI
  2
AcmIdStdANSI
  3
"Amdt_StdImp|Product Description: AutoCAD Mechanical 2004 DX|Company: Autodesk"
 90
    32768
280
     0
281
     0
  0
CLASS
  1
ACMDATUMSTANDARDANSI
  2
AcmDatumStdANSI
  3
"Amdt_StdImp|Product Description: AutoCAD Mechanical 2004 DX|Company: Autodesk"
 90
    32768
280
     0
281
     0
  0
CLASS
  1
ACMBOMSTANDARDANSI
  2
AcmBOMStdANSI
  3
"Amdt_StdImp|Product Description: AutoCAD Mechanical 2004 DX|Company: Autodesk"
 90
    32768
280
     0
281
     0
  0
CLASS
  1
ACMDETAILSTANDARDANSI
  2
AmdtDetailSymStdANSI
  3
"Amdt_StdImp|Product Description: AutoCAD Mechanical 2004 DX|Company: Autodesk"
 90
    32768
280
     0
281
     0
  0
CLASS
  1
ACMSECTIONSTANDARDANSI
  2
AmdtSectionSymStdANSI
  3
"Amdt_StdImp|Product Description: AutoCAD Mechanical 2004 DX|Company: Autodesk"
 90
    32768
280
     0
281
     0
  0
CLASS
  1
ACMCENTERLINESTANDARDANSI
  2
AmdtCenterLineStdANSI
  3
"Amdt_StdImp|Product Description: AutoCAD Mechanical 2004 DX|Company: Autodesk"
 90
    32768
280
     0
281
     0
  0
CLASS
  1
ACMTHREADLINESTANDARDANSI
  2
AmdtThreadLineStdANSI
  3
"Amdt_StdImp|Product Description: AutoCAD Mechanical 2004 DX|Company: Autodesk"
 90
    32768
280
     0
281
     0
  0
CLASS
  1
ACMNOTESTANDARDANSI
  2
AmdtNoteStdANSI
  3
"Amdt_StdImp|Product Description: AutoCAD Mechanical 2004 DX|Company: Autodesk"
 90
    32768
280
     0
281
     0
  0
CLASS
  1
AMDTNOTETEMPLATEDB
  2
AmdtNoteTemplateDB
  3
AMDT_STDIMP_MODULE_NAME
 90
        0
280
     0
281
     0
  0
CLASS
  1
ACAMGLAYSTD
  2
AcAmgLayStd
  3
"AcAmgLayStd|Product Description: AutoCAD Mechanical 2000|Company: Autodesk"
 90
        0
280
     0
281
     0
  0
CLASS
  1
ACAMGDIMSTD
  2
AcAmgDimStd
  3
"AcAmgDimStd|Product Description: AutoCAD Mechanical 2000|Company: Autodesk"
 90
        0
280
     0
281
     0
  0
CLASS
  1
ACAMGHOLECHARTSTDANSI
  2
AcAmgHoleChartStdANSI
  3
ACMSYMBB_MODULE_NAME
 90
    32768
280
     0
281
     0
  0
CLASS
  1
ACAMGTITLESTD
  2
AcAmgTitleStd
  3
"TITLEAPP"
 90
        0
280
     0
281
     0
  0
CLASS
  1
ACMSTANDARDISO
  2
AcmStandardISO
  3
"Amdt_StdImp|Product Description: AutoCAD Mechanical 2004 DX|Company: Autodesk"
 90
        0
280
     0
281
     0
  0
CLASS
  1
AMDTEDGESTANDARDISO13715
  2
AmdtEdgeStdISO13715
  3
"Amdt_StdImp|Product Description: AutoCAD Mechanical 2004 DX|Company: Autodesk"
 90
        0
280
     0
281
     0
  0
CLASS
  1
ACMSURFSTANDARDISO
  2
AcmSurfTextStdISO
  3
"Amdt_StdImp|Product Description: AutoCAD Mechanical 2004 DX|Company: Autodesk"
 90
        0
280
     0
281
     0
  0
CLASS
  1
ACMFCFSTANDARDISO
  2
AcmFCFStdISO
  3
"Amdt_StdImp|Product Description: AutoCAD Mechanical 2004 DX|Company: Autodesk"
 90
        0
280
     0
281
     0
  0
CLASS
  1
ACMWELDSTANDARDISO
  2
AcmWeldingStdISO
  3
"Amdt_StdImp|Product Description: AutoCAD Mechanical 2004 DX|Company: Autodesk"
 90
        0
280
     0
281
     0
  0
CLASS
  1
ACMIDSTANDARDISO
  2
AcmIdStdISO
  3
"Amdt_StdImp|Product Description: AutoCAD Mechanical 2004 DX|Company: Autodesk"
 90
        0
280
     0
281
     0
  0
CLASS
  1
ACMDATUMSTANDARDISO
  2
AcmDatumStdISO
  3
"Amdt_StdImp|Product Description: AutoCAD Mechanical 2004 DX|Company: Autodesk"
 90
        0
280
     0
281
     0
  0
CLASS
  1
ACMBOMSTANDARDISO
  2
AcmBOMStdISO
  3
"Amdt_StdImp|Product Description: AutoCAD Mechanical 2004 DX|Company: Autodesk"
 90
        0
280
     0
281
     0
  0
CLASS
  1
ACMDETAILSTANDARDISO
  2
AmdtDetailSymStdISO
  3
"Amdt_StdImp|Product Description: AutoCAD Mechanical 2004 DX|Company: Autodesk"
 90
        0
280
     0
281
     0
  0
CLASS
  1
ACMSECTIONSTANDARDISO
  2
AmdtSectionSymStdISO
  3
"Amdt_StdImp|Product Description: AutoCAD Mechanical 2004 DX|Company: Autodesk"
 90
        0
280
     0
281
     0
  0
CLASS
  1
ACMCENTERLINESTANDARDISO
  2
AmdtCenterLineStdISO
  3
"Amdt_StdImp|Product Description: AutoCAD Mechanical 2004 DX|Company: Autodesk"
 90
        0
280
     0
281
     0
  0
CLASS
  1
ACMTHREADLINESTANDARDISO
  2
AmdtThreadLineStdISO
  3
"Amdt_StdImp|Product Description: AutoCAD Mechanical 2004 DX|Company: Autodesk"
 90
        0
280
     0
281
     0
  0
CLASS
  1
ACMNOTESTANDARDISO
  2
AmdtNoteStdISO
  3
"Amdt_StdImp|Product Description: AutoCAD Mechanical 2004 DX|Company: Autodesk"
 90
        0
280
     0
281
     0
  0
CLASS
  1
ACAMGHOLECHARTSTDISO
  2
AcAmgHoleChartStdISO
  3
ACMSYMBB_MODULE_NAME
 90
        0
280
     0
281
     0
  0
CLASS
  1
ACAMGFILTERDAT
  2
AcAmgFilterDat
  3
"AcadM|Product Description: AutoCAD Mechanical 2000|Company: Autodesk"
 90
    32768
280
     0
281
     0
  0
CLASS
  1
DIMASSOC
  2
AcDbDimAssoc
  3
"AcDbDimAssoc|Product Desc:     AcDim ARX App For Dimension|Company:          Autodesk, Inc.|WEB Address:      www.autodesk.com"
 90
        0
280
     0
281
     0
  0
CLASS
  1
ACRFATTGENMGR
  2
AcRfAttGeneralMgr
  3
AcAttribServices
 90
    32768
280
     0
281
     0
  0
ENDSEC
  0
SECTION
  2
TABLES
  0
TABLE
  2
VPORT
  5
12
330
0
100
AcDbSymbolTable
 70
     3
  0
VPORT
  5
7311
330
12
100
AcDbSymbolTableRecord
100
AcDbViewportTableRecord
  2
*Active
 70
     0
 10
0.0
 20
0.0
 11
1.0
 21
1.0
 12
186.7119176355871
 22
528.6192486727335
 13
0.0
 23
0.0
 14
2.5
 24
2.5
 15
10.0
 25
10.0
 16
0.0
 26
0.0
 36
1.0
 17
0.0
 27
0.0
 37
0.0
 40
412.1653013425759
 41
0.9411764705882353
 42
50.0
 43
0.0
 44
0.0
 50
0.0
 51
0.0
 71
     0
 72
   100
 73
     1
 74
     1
 75
     0
 76
     0
 77
     0
 78
     0
281
     0
 65
     1
110
0.0
120
0.0
130
0.0
111
1.0
121
0.0
131
0.0
112
0.0
122
1.0
132
0.0
 79
     0
146
0.0
  0
ENDTAB
  0
TABLE
  2
LTYPE
  5
D
330
0
100
AcDbSymbolTable
 70
    19
  0
LTYPE
  5
E
330
D
100
AcDbSymbolTableRecord
100
AcDbLinetypeTableRecord
  2
BYBLOCK
 70
     0
  3

 72
    65
 73
     0
 40
0.0
  0
LTYPE
  5
F
330
D
100
AcDbSymbolTableRecord
100
AcDbLinetypeTableRecord
  2
BYLAYER
 70
     0
  3

 72
    65
 73
     0
 40
0.0
  0
LTYPE
  5
5
330
D
100
AcDbSymbolTableRecord
100
AcDbLinetypeTableRecord
  2
CONTINUOUS
 70
     0
  3
Solid line
 72
    65
 73
     0
 40
0.0
  0
LTYPE
  5
4E
330
D
100
AcDbSymbolTableRecord
100
AcDbLinetypeTableRecord
  2
CENTER
 70
     0
  3
____ _ ____ _ ____ _ ____ _ ____ _ ____ _ ____
 72
    65
 73
     4
 40
2.0
 49
1.25
 74
     0
 49
-0.25
 74
     0
 49
0.25
 74
     0
 49
-0.25
 74
     0
  0
LTYPE
  5
5A86
330
D
100
AcDbSymbolTableRecord
100
AcDbLinetypeTableRecord
  2
HIDDEN
 70
     0
  3
Hidden __ __ __ __ __ __ __ __ __ __ __ __ __ _
 72
    65
 73
     2
 40
0.375
 49
0.25
 74
     0
 49
-0.125
 74
     0
  0
LTYPE
  5
5BA9
330
D
100
AcDbSymbolTableRecord
100
AcDbLinetypeTableRecord
  2
PHANTOM2
 70
     0
  3
Phantom (.5x) ___ _ _ ___ _ _ ___ _ _ ___ _ _
 72
    65
 73
     6
 40
1.25
 49
0.625
 74
     0
 49
-0.125
 74
     0
 49
0.125
 74
     0
 49
-0.125
 74
     0
 49
0.125
 74
     0
 49
-0.125
 74
     0
  0
LTYPE
  5
5BDB
330
D
100
AcDbSymbolTableRecord
100
AcDbLinetypeTableRecord
  2
AM_ISO02W050
 70
     0
  3
__ __ __ __ __ __ __ __ __ __ __ __ __ __ __
 72
    65
 73
     2
 40
7.5
 49
6.0
 74
     0
 49
-1.5
 74
     0
  0
LTYPE
  5
5BDC
330
D
100
AcDbSymbolTableRecord
100
AcDbLinetypeTableRecord
  2
AM_ISO08W050
 70
     0
  3
____ . ____ . ____ . ____ . ____ . ____ . ____
 72
    65
 73
     4
 40
18.0
 49
12.0
 74
     0
 49
-1.5
 74
     0
 49
3.0
 74
     0
 49
-1.5
 74
     0
  0
LTYPE
  5
5BDD
330
D
100
AcDbSymbolTableRecord
100
AcDbLinetypeTableRecord
  2
AM_ISO09W050
 70
     0
  3
_____ . . _____ . . _____ . . ____ .. ____
 72
    65
 73
     6
 40
22.5
 49
12.0
 74
     0
 49
-1.5
 74
     0
 49
3.0
 74
     0
 49
-1.5
 74
     0
 49
3.0
 74
     0
 49
-1.5
 74
     0
  0
LTYPE
  5
5BDE
330
D
100
AcDbSymbolTableRecord
100
AcDbLinetypeTableRecord
  2
Amconstr
 70
     0
  3
_______________________
 72
    65
 73
     2
 40
9999.0
 49
9999.0
 74
     0
 49
0.0
 74
     0
  0
LTYPE
  5
5BDF
330
D
100
AcDbSymbolTableRecord
100
AcDbLinetypeTableRecord
  2
AM_ISO08W050x2
 70
     0
  3
__ . __ . __ . __ . __ . __
 72
    65
 73
     4
 40
9.0
 49
6.0
 74
     0
 49
-0.75
 74
     0
 49
1.5
 74
     0
 49
-0.75
 74
     0
  0
LTYPE
  5
5BE0
330
D
100
AcDbSymbolTableRecord
100
AcDbLinetypeTableRecord
  2
AM_ISO02W050x2
 70
     0
  3
 _ _ _ _ _ _ _ _ _ _ _ _
 72
    65
 73
     2
 40
3.75
 49
3.0
 74
     0
 49
-0.75
 74
     0
  0
LTYPE
  5
5BE3
330
D
100
AcDbSymbolTableRecord
100
AcDbLinetypeTableRecord
  2
Amzigzag
 70
     0
  3
/\/-/\/-/\/-/\/-/\/-/\/
 72
    65
 73
     2
 40
11.0001
 49
0.0001
 74
     4
 75
   135
340
5BE2
 46
0.04
 50
0.0
 44
0.0
 45
0.0
 49
-11.0
 74
     0
  0
LTYPE
  5
5C0E
330
D
100
AcDbSymbolTableRecord
100
AcDbLinetypeTableRecord
  2
ACISOWELD
 70
     0
  3
_ _ _ _ _
 72
    65
 73
     2
 40
2.0
 49
2.0
 74
     0
 49
-1.0
 74
     0
  0
LTYPE
  5
5C0F
330
D
100
AcDbSymbolTableRecord
100
AcDbLinetypeTableRecord
  2
ACISOTGB
 70
     0
  3
__ . . __ . .
 72
    65
 73
     6
 40
9.0
 49
4.0
 74
     0
 49
-1.0
 74
     0
 49
1.0
 74
     0
 49
-1.0
 74
     0
 49
1.0
 74
     0
 49
-1.0
 74
     0
  0
LTYPE
  5
5C10
330
D
100
AcDbSymbolTableRecord
100
AcDbLinetypeTableRecord
  2
ACISOTGL
 70
     0
  3
_ _ _ _ _
 72
    65
 73
     2
 40
3.0
 49
2.0
 74
     0
 49
-1.0
 74
     0
  0
ENDTAB
  0
TABLE
  2
LAYER
  5
A
102
{ACAD_XDICTIONARY
360
5C22
102
}
330
0
100
AcDbSymbolTable
 70
     7
  0
LAYER
  5
4
330
A
100
AcDbSymbolTableRecord
100
AcDbLayerTableRecord
  2
0
 70
     0
 62
     7
  6
CONTINUOUS
370
    -3
390
59A4
  0
LAYER
  5
31E
330
A
100
AcDbSymbolTableRecord
100
AcDbLayerTableRecord
  2
DEFPOINTS
 70
     0
 62
     7
  6
CONTINUOUS
290
     0
370
    -3
390
59A4
  0
LAYER
  5
5A87
330
A
100
AcDbSymbolTableRecord
100
AcDbLayerTableRecord
  2
LOGO
 70
     0
 62
     7
  6
CONTINUOUS
370
    -3
390
59A4
  0
LAYER
  5
5DF2
330
A
100
AcDbSymbolTableRecord
100
AcDbLayerTableRecord
  2
AM_VIS
 70
     0
 62
     7
  6
CONTINUOUS
370
    50
390
59A4
  0
LAYER
  5
5DF3
330
A
100
AcDbSymbolTableRecord
100
AcDbLayerTableRecord
  2
AM_7
 70
     0
 62
     1
  6
AM_ISO08W050
370
    25
390
59A4
  0
LAYER
  5
5DF5
330
A
100
AcDbSymbolTableRecord
100
AcDbLayerTableRecord
  2
AM_REFDIM
 70
     0
 62
     5
  6
CONTINUOUS
370
    25
390
59A4
  0
ENDTAB
  0
TABLE
  2
STYLE
  5
B
330
0
100
AcDbSymbolTable
 70
     9
  0
STYLE
  5
C
330
B
100
AcDbSymbolTableRecord
100
AcDbTextStyleTableRecord
  2
STANDARD
 70
     0
 40
0.0
 41
1.0
 50
0.0
 71
     0
 42
5.0
  3
ISOCP.SHX
  4

  0
STYLE
  5
1C
330
B
100
AcDbSymbolTableRecord
100
AcDbTextStyleTableRecord
  2
DAYUS
 70
     0
 40
0.0
 41
1.0
 50
0.0
 71
     0
 42
4.0
  3
simplex
  4
dayus
  0
STYLE
  5
5A89
330
B
100
AcDbSymbolTableRecord
100
AcDbTextStyleTableRecord
  2
CHINESET
 70
     0
 40
0.0
 41
1.0
 50
0.0
 71
     0
 42
4.0
  3
C:\r13\com\fonts\simplex.shx
  4
C:\r13\com\fonts\chineset.shx
  0
STYLE
  5
5BE2
330
B
100
AcDbSymbolTableRecord
100
AcDbTextStyleTableRecord
  2

 70
     1
 40
0.0
 41
1.0
 50
0.0
 71
     0
 42
4.0
  3
ltypeshp.shx
  4

  0
STYLE
  5
5C11
330
B
100
AcDbSymbolTableRecord
100
AcDbTextStyleTableRecord
  2
ACISOTS
 70
     0
 40
1.0
 41
1.0
 50
0.0
 71
     0
 42
6.0
  3
isocp.shx
  4
chineset.shx
  0
STYLE
  5
5C12
330
B
100
AcDbSymbolTableRecord
100
AcDbTextStyleTableRecord
  2
ACISOGDT
 70
     0
 40
0.0
 41
1.0
 50
0.0
 71
     0
 42
6.0
  3
amgdt.shx
  4

  0
ENDTAB
  0
TABLE
  2
VIEW
  5
10
330
0
100
AcDbSymbolTable
 70
     0
  0
ENDTAB
  0
TABLE
  2
UCS
  5
11
330
0
100
AcDbSymbolTable
 70
     0
  0
ENDTAB
  0
TABLE
  2
APPID
  5
14
330
0
100
AcDbSymbolTable
 70
    19
  0
APPID
  5
15
330
14
100
AcDbSymbolTableRecord
100
AcDbRegAppTableRecord
  2
ACAD
 70
     0
  0
APPID
  5
1C15
330
14
100
AcDbSymbolTableRecord
100
AcDbRegAppTableRecord
  2
MCAD_NO_VIS
 70
     0
  0
APPID
  5
1C16
330
14
100
AcDbSymbolTableRecord
100
AcDbRegAppTableRecord
  2
AD_DRAW
 70
     0
  0
APPID
  5
1C17
330
14
100
AcDbSymbolTableRecord
100
AcDbRegAppTableRecord
  2
DESIGNERASSEMBLIES
 70
     0
  0
APPID
  5
1C18
330
14
100
AcDbSymbolTableRecord
100
AcDbRegAppTableRecord
  2
ASURF_PCURVE_APPNAME
 70
     0
  0
APPID
  5
2639
330
14
100
AcDbSymbolTableRecord
100
AcDbRegAppTableRecord
  2
BLKBOM
 70
     0
  0
APPID
  5
5B7D
330
14
100
AcDbSymbolTableRecord
100
AcDbRegAppTableRecord
  2
ACAD_TEMP_GRAPHIC
 70
     0
  0
APPID
  5
5BAD
330
14
100
AcDbSymbolTableRecord
100
AcDbRegAppTableRecord
  2
ACATTRIBSERVICES
 70
     0
  0
APPID
  5
5BD0
330
14
100
AcDbSymbolTableRecord
100
AcDbRegAppTableRecord
  2
ACADM_DIM_EDIT
 70
     0
  0
APPID
  5
5BD1
330
14
100
AcDbSymbolTableRecord
100
AcDbRegAppTableRecord
  2
AMDT_DM_ADJ
 70
     0
  0
APPID
  5
5C1B
330
14
100
AcDbSymbolTableRecord
100
AcDbRegAppTableRecord
  2
GENIUS_GENOENT_13
 70
     0
  0
APPID
  5
5C1C
330
14
100
AcDbSymbolTableRecord
100
AcDbRegAppTableRecord
  2
GENIUS_GENOBJ-N-CRS_13
 70
     0
  0
APPID
  5
5C1D
330
14
100
AcDbSymbolTableRecord
100
AcDbRegAppTableRecord
  2
GENIUS_GENOLIS_13
 70
     0
  0
APPID
  5
5C1E
330
14
100
AcDbSymbolTableRecord
100
AcDbRegAppTableRecord
  2
GENIUS_GENODEF_13
 70
     0
  0
APPID
  5
5C1F
330
14
100
AcDbSymbolTableRecord
100
AcDbRegAppTableRecord
  2
GENIUS_GENOREF_13
 70
     0
  0
APPID
  5
5C20
330
14
100
AcDbSymbolTableRecord
100
AcDbRegAppTableRecord
  2
GENIUS_GENREC_14
 70
     0
  0
APPID
  5
5C21
330
14
100
AcDbSymbolTableRecord
100
AcDbRegAppTableRecord
  2
GENIUS_GENOBJ-N-REC_13
 70
     0
  0
APPID
  5
5DF6
330
14
100
AcDbSymbolTableRecord
100
AcDbRegAppTableRecord
  2
ACAD_PSEXT
 70
     0
  0
APPID
  5
5DF7
330
14
100
AcDbSymbolTableRecord
100
AcDbRegAppTableRecord
  2
AcAecLayerStandard
 70
     0
  0
ENDTAB
  0
TABLE
  2
DIMSTYLE
  5
16
330
0
100
AcDbSymbolTable
 70
    16
100
AcDbDimStyleTable
 71
     1
340
5C13
  0
DIMSTYLE
105
1E
330
16
100
AcDbSymbolTableRecord
100
AcDbDimStyleTableRecord
  2
STANDARD
 70
     0
 41
3.0
 42
2.0
 43
8.0
 44
2.0
 73
     0
 74
     0
 77
     1
 78
     8
 79
     2
140
3.0
141
0.0
146
0.6
147
1.0
176
   256
177
   256
178
   256
271
     2
272
     2
279
     2
284
     8
340
1C
371
    -1
372
    -1
  0
DIMSTYLE
105
5C13
330
16
100
AcDbSymbolTableRecord
100
AcDbDimStyleTableRecord
  2
AM_ISO
 70
     0
  4
"
 40
2.0
 41
3.0
 42
1.0
 43
8.0
 44
1.0
 47
0.1
 48
0.1
 73
     0
 74
     0
 77
     1
 78
     8
 79
     2
140
3.5
141
0.0
143
0.0393701
146
0.71
147
1.0
172
     1
176
   256
177
   256
178
   256
271
     2
272
     2
283
     0
284
     8
285
     8
340
C
371
    -1
372
    -1
  0
DIMSTYLE
105
5C14
102
{ACAD_REACTORS
330
7004
102
}
330
16
100
AcDbSymbolTableRecord
100
AcDbDimStyleTableRecord
  2
AM_ISO$3
 70
     0
  4
"
 40
2.0
 41
3.0
 42
1.0
 43
8.0
 44
1.0
 47
0.1
 48
0.1
 73
     0
 77
     1
 78
     8
 79
     2
140
3.5
141
0.0
143
0.0393701
146
0.71
147
1.0
176
   256
177
   256
178
   256
271
     2
272
     2
283
     0
284
     8
285
     8
288
     1
289
     0
340
C
371
    -1
372
    -1
  0
DIMSTYLE
105
5C15
330
16
100
AcDbSymbolTableRecord
100
AcDbDimStyleTableRecord
  2
AM_ISO$4
 70
     0
  4
"
 40
2.0
 41
3.0
 42
1.0
 43
8.0
 44
1.0
 47
0.1
 48
0.1
 73
     0
 77
     1
 78
     8
 79
     2
140
3.5
141
0.0
143
0.0393701
146
0.71
147
1.0
176
   256
177
   256
178
   256
271
     2
272
     2
283
     0
284
     8
285
     8
288
     1
289
     0
340
C
371
    -1
372
    -1
  0
DIMSTYLE
105
5C16
330
16
100
AcDbSymbolTableRecord
100
AcDbDimStyleTableRecord
  2
AM_ISO$6
 70
     0
  4
"
 40
2.0
 41
3.0
 42
1.0
 43
8.0
 44
1.0
 47
0.1
 48
0.1
 73
     0
 74
     0
 78
     8
 79
     2
140
3.5
141
0.0
143
0.0393701
146
0.71
147
1.0
172
     1
176
   256
177
   256
178
   256
271
     2
272
     2
283
     0
284
     8
285
     8
340
C
371
    -1
372
    -1
  0
DIMSTYLE
105
5C17
330
16
100
AcDbSymbolTableRecord
100
AcDbDimStyleTableRecord
  2
AM_ISO$7
 70
     0
  4
"
 40
2.0
 41
3.0
 42
1.0
 43
8.0
 44
1.0
 47
0.1
 48
0.1
 73
     0
 74
     0
 77
     1
 78
     8
 79
     2
140
3.5
141
0.0
143
0.0393701
146
0.71
147
1.0
172
     1
176
   256
177
   256
178
   256
271
     2
272
     2
283
     0
284
     8
285
     8
340
C
371
    -1
372
    -1
  0
DIMSTYLE
105
5C18
330
16
100
AcDbSymbolTableRecord
100
AcDbDimStyleTableRecord
  2
AM_ISO$SF
 70
     0
  4
"
 40
2.0
 41
2.5
 42
1.0
 43
10.0
 44
1.0
 47
0.1
 48
0.1
 73
     0
 74
     0
 75
     1
 76
     1
 77
     1
 78
     8
 79
     2
140
3.5
141
0.0
143
0.0393701
146
0.71
147
1.5
172
     1
176
   256
177
   256
178
   256
271
     2
272
     3
274
     4
283
     0
284
     8
340
C
371
    -1
372
    -1
  0
DIMSTYLE
105
5C19
330
16
100
AcDbSymbolTableRecord
100
AcDbDimStyleTableRecord
  2
AM_ISO$SH
 70
     0
  4
"
 40
2.0
 41
2.5
 42
1.0
 43
10.0
 44
1.0
 47
0.1
 48
0.1
 73
     0
 74
     0
 75
     1
 76
     1
 77
     1
 78
     8
 79
     2
140
3.5
141
0.0
143
0.0393701
144
2.0
146
0.71
147
1.5
172
     1
173
     1
176
   256
177
   256
178
   256
271
     2
272
     3
274
     4
283
     0
284
     8
340
C
343
5C05
371
    -1
372
    -1
  0
DIMSTYLE
105
5C1A
102
{ACAD_REACTORS
330
6D41
330
6D46
330
6D47
330
6D48
330
6D4C
330
6D4D
330
6D4E
330
6D4F
330
6D50
330
6D51
330
6D52
330
6D53
330
7002
330
7003
102
}
330
16
100
AcDbSymbolTableRecord
100
AcDbDimStyleTableRecord
  2
AM_ISO$0
 70
     0
  4
"
 40
2.0
 41
3.0
 42
1.0
 43
8.0
 44
1.0
 47
0.1
 48
0.1
 73
     0
 74
     0
 77
     1
 78
     8
 79
     2
140
3.5
141
0.0
143
0.0393701
146
0.71
147
1.0
172
     1
176
   256
177
   256
178
   256
271
     2
272
     2
283
     0
284
     8
285
     8
340
C
371
    -1
372
    -1
  0
ENDTAB
  0
TABLE
  2
BLOCK_RECORD
  5
1
330
0
100
AcDbSymbolTable
 70
    49
  0
BLOCK_RECORD
  5
2
102
{ACAD_XDICTIONARY
360
59CA
102
}
330
1
100
AcDbSymbolTableRecord
100
AcDbBlockTableRecord
  2
*MODEL_SPACE
340
59A7
  0
BLOCK_RECORD
  5
7
102
{ACAD_XDICTIONARY
360
59F8
102
}
330
1
100
AcDbSymbolTableRecord
100
AcDbBlockTableRecord
  2
*PAPER_SPACE
340
59A8
  0
BLOCK_RECORD
  5
5C05
330
1
100
AcDbSymbolTableRecord
100
AcDbBlockTableRecord
  2
GENAXEH
340
0
  0
BLOCK_RECORD
  5
7008
330
1
100
AcDbSymbolTableRecord
100
AcDbBlockTableRecord
  2
*D32
340
0
  0
BLOCK_RECORD
  5
7014
330
1
100
AcDbSymbolTableRecord
100
AcDbBlockTableRecord
  2
*D33
340
0
  0
BLOCK_RECORD
  5
7020
330
1
100
AcDbSymbolTableRecord
100
AcDbBlockTableRecord
  2
*D34
340
0
  0
BLOCK_RECORD
  5
702C
330
1
100
AcDbSymbolTableRecord
100
AcDbBlockTableRecord
  2
*D35
340
0
  0
BLOCK_RECORD
  5
7038
330
1
100
AcDbSymbolTableRecord
100
AcDbBlockTableRecord
  2
*D36
340
0
  0
BLOCK_RECORD
  5
7044
330
1
100
AcDbSymbolTableRecord
100
AcDbBlockTableRecord
  2
*D37
340
0
  0
BLOCK_RECORD
  5
7050
330
1
100
AcDbSymbolTableRecord
100
AcDbBlockTableRecord
  2
*D38
340
0
  0
BLOCK_RECORD
  5
705C
330
1
100
AcDbSymbolTableRecord
100
AcDbBlockTableRecord
  2
*D39
340
0
  0
BLOCK_RECORD
  5
7068
330
1
100
AcDbSymbolTableRecord
100
AcDbBlockTableRecord
  2
*D40
340
0
  0
BLOCK_RECORD
  5
7074
330
1
100
AcDbSymbolTableRecord
100
AcDbBlockTableRecord
  2
*D41
340
0
  0
BLOCK_RECORD
  5
7080
330
1
100
AcDbSymbolTableRecord
100
AcDbBlockTableRecord
  2
*D42
340
0
  0
BLOCK_RECORD
  5
708C
330
1
100
AcDbSymbolTableRecord
100
AcDbBlockTableRecord
  2
*D43
340
0
  0
BLOCK_RECORD
  5
7098
330
1
100
AcDbSymbolTableRecord
100
AcDbBlockTableRecord
  2
*D44
340
0
  0
BLOCK_RECORD
  5
70A6
330
1
100
AcDbSymbolTableRecord
100
AcDbBlockTableRecord
  2
*D45
340
0
  0
BLOCK_RECORD
  5
7136
330
1
100
AcDbSymbolTableRecord
100
AcDbBlockTableRecord
  2
*D46
340
0
  0
ENDTAB
  0
ENDSEC
  0
SECTION
  2
BLOCKS
  0
BLOCK
  5
3
330
2
100
AcDbEntity
  8
0
100
AcDbBlockBegin
  2
*MODEL_SPACE
 70
     0
 10
0.0
 20
0.0
 30
0.0
  3
*MODEL_SPACE
  1

  0
ENDBLK
  5
6
330
2
100
AcDbEntity
  8
0
100
AcDbBlockEnd
  0
BLOCK
  5
8
330
7
100
AcDbEntity
 67
     1
  8
0
100
AcDbBlockBegin
  2
*PAPER_SPACE
 70
     0
 10
0.0
 20
0.0
 30
0.0
  3
*PAPER_SPACE
  1

  0
ENDBLK
  5
9
330
7
100
AcDbEntity
 67
     1
  8
0
100
AcDbBlockEnd
  0
BLOCK
  5
5C07
330
5C05
100
AcDbEntity
  8
0
100
AcDbBlockBegin
  2
GENAXEH
 70
     0
 10
0.0
 20
0.0
 30
0.0
  3
GENAXEH
  1

  0
LINE
  5
5C06
330
5C05
100
AcDbEntity
  8
0
100
AcDbLine
 10
-1.0
 20
0.0
 30
0.0
 11
1.0
 21
0.0
 31
0.0
  0
ENDBLK
  5
5C08
330
5C05
100
AcDbEntity
  8
0
100
AcDbBlockEnd
  0
BLOCK
  5
7012
330
7008
100
AcDbEntity
  8
0
100
AcDbBlockBegin
  2
*D32
 70
     1
 10
0.0
 20
0.0
 30
0.0
  3
*D32
  1

  0
LINE
  5
71DD
330
7008
100
AcDbEntity
  8
AM_REFDIM
100
AcDbLine
 10
95.03308331348524
 20
494.2486919897415
 30
0.0
 11
95.03308331348524
 21
578.2486919897415
 31
0.0
  0
LINE
  5
71DE
330
7008
100
AcDbEntity
  8
AM_REFDIM
100
AcDbLine
 10
161.0330833134852
 20
494.2486919897415
 30
0.0
 11
161.0330833134852
 21
578.2486919897415
 31
0.0
  0
LINE
  5
71DF
330
7008
100
AcDbEntity
  8
AM_REFDIM
100
AcDbLine
 10
101.0330833134852
 20
576.2486919897416
 30
0.0
 11
155.0330833134852
 21
576.2486919897416
 31
0.0
  0
SOLID
  5
71E0
330
7008
100
AcDbEntity
  8
AM_REFDIM
100
AcDbTrace
 10
101.0330833134852
 20
577.2486919897415
 30
0.0
 11
101.0330833134852
 21
575.2486919897416
 31
0.0
 12
95.03308331348524
 22
576.2486919897416
 32
0.0
 13
95.03308331348524
 23
576.2486919897416
 33
0.0
  0
SOLID
  5
71E1
330
7008
100
AcDbEntity
  8
AM_REFDIM
100
AcDbTrace
 10
155.0330833134852
 20
577.2486919897415
 30
0.0
 11
155.0330833134852
 21
575.2486919897416
 31
0.0
 12
161.0330833134852
 22
576.2486919897416
 32
0.0
 13
161.0330833134852
 23
576.2486919897416
 33
0.0
  0
MTEXT
  5
71E2
330
7008
100
AcDbEntity
  8
AM_REFDIM
100
AcDbMText
 10
128.0330833134852
 20
581.7486919897415
 30
0.0
 40
7.0
 41
0.0
 71
     5
 72
     1
  1
66
 73
     1
 44
1.0
1001
ACAD
1000
MTEXTBEGIN
1070
    73
1070
     1
1070
    44
1040
1.0
1070
    74
1070
     0
1000
MTEXTEND
  0
POINT
  5
71E3
330
7008
100
AcDbEntity
  8
DEFPOINTS
 62
     0
100
AcDbPoint
 10
95.03308331348524
 20
492.2486919897416
 30
0.0
  0
POINT
  5
71E4
330
7008
100
AcDbEntity
  8
DEFPOINTS
 62
     0
100
AcDbPoint
 10
161.0330833134852
 20
492.2486919897416
 30
0.0
  0
POINT
  5
71E5
330
7008
100
AcDbEntity
  8
DEFPOINTS
 62
     0
100
AcDbPoint
 10
161.0330833134852
 20
576.2486919897416
 30
0.0
  0
ENDBLK
  5
7013
330
7008
100
AcDbEntity
  8
0
100
AcDbBlockEnd
  0
BLOCK
  5
701E
330
7014
100
AcDbEntity
  8
0
100
AcDbBlockBegin
  2
*D33
 70
     1
 10
0.0
 20
0.0
 30
0.0
  3
*D33
  1

  0
LINE
  5
71E6
330
7014
100
AcDbEntity
  8
AM_REFDIM
100
AcDbLine
 10
106.0330833134852
 20
498.5047329597408
 30
0.0
 11
106.0330833134852
 21
566.2486919897416
 31
0.0
  0
LINE
  5
71E7
330
7014
100
AcDbEntity
  8
AM_REFDIM
100
AcDbLine
 10
150.0330833134855
 20
498.5047329597411
 30
0.0
 11
150.0330833134855
 21
566.2486919897416
 31
0.0
  0
LINE
  5
71E8
330
7014
100
AcDbEntity
  8
AM_REFDIM
100
AcDbLine
 10
112.0330833134852
 20
564.2486919897415
 30
0.0
 11
144.0330833134856
 21
564.2486919897415
 31
0.0
  0
SOLID
  5
71E9
330
7014
100
AcDbEntity
  8
AM_REFDIM
100
AcDbTrace
 10
112.0330833134852
 20
565.2486919897415
 30
0.0
 11
112.0330833134852
 21
563.2486919897416
 31
0.0
 12
106.0330833134852
 22
564.2486919897415
 32
0.0
 13
106.0330833134852
 23
564.2486919897415
 33
0.0
  0
SOLID
  5
71EA
330
7014
100
AcDbEntity
  8
AM_REFDIM
100
AcDbTrace
 10
144.0330833134856
 20
565.2486919897415
 30
0.0
 11
144.0330833134856
 21
563.2486919897416
 31
0.0
 12
150.0330833134855
 22
564.2486919897415
 32
0.0
 13
150.0330833134855
 23
564.2486919897415
 33
0.0
  0
MTEXT
  5
71EB
330
7014
100
AcDbEntity
  8
AM_REFDIM
100
AcDbMText
 10
128.0330833134854
 20
569.7486919897415
 30
0.0
 40
7.0
 41
0.0
 71
     5
 72
     1
  1
44
 73
     1
 44
1.0
1001
ACAD
1000
MTEXTBEGIN
1070
    73
1070
     1
1070
    44
1040
1.0
1070
    74
1070
     0
1000
MTEXTEND
  0
POINT
  5
71EC
330
7014
100
AcDbEntity
  8
DEFPOINTS
 62
     0
100
AcDbPoint
 10
106.0330833134852
 20
496.5047329597409
 30
0.0
  0
POINT
  5
71ED
330
7014
100
AcDbEntity
  8
DEFPOINTS
 62
     0
100
AcDbPoint
 10
150.0330833134855
 20
496.504732959741
 30
0.0
  0
POINT
  5
71EE
330
7014
100
AcDbEntity
  8
DEFPOINTS
 62
     0
100
AcDbPoint
 10
150.0330833134855
 20
564.2486919897415
 30
0.0
  0
ENDBLK
  5
701F
330
7014
100
AcDbEntity
  8
0
100
AcDbBlockEnd
  0
BLOCK
  5
702A
330
7020
100
AcDbEntity
  8
0
100
AcDbBlockBegin
  2
*D34
 70
     1
 10
0.0
 20
0.0
 30
0.0
  3
*D34
  1

  0
LINE
  5
72FF
330
7020
100
AcDbEntity
  8
AM_REFDIM
100
AcDbLine
 10
163.0330833134852
 20
683.0836037474715
 30
0.0
 11
187.0330833134852
 21
683.0836037474715
 31
0.0
  0
LINE
  5
7300
330
7020
100
AcDbEntity
  8
AM_REFDIM
100
AcDbLine
 10
143.5330833134852
 20
607.0836037474715
 30
0.0
 11
187.0330833134852
 21
607.0836037474715
 31
0.0
  0
LINE
  5
7301
330
7020
100
AcDbEntity
  8
AM_REFDIM
100
AcDbLine
 10
185.0330833134852
 20
677.0836037474715
 30
0.0
 11
185.0330833134852
 21
613.0836037474715
 31
0.0
  0
SOLID
  5
7302
330
7020
100
AcDbEntity
  8
AM_REFDIM
100
AcDbTrace
 10
184.0330833134852
 20
677.0836037474715
 30
0.0
 11
186.0330833134852
 21
677.0836037474715
 31
0.0
 12
185.0330833134852
 22
683.0836037474715
 32
0.0
 13
185.0330833134852
 23
683.0836037474715
 33
0.0
  0
SOLID
  5
7303
330
7020
100
AcDbEntity
  8
AM_REFDIM
100
AcDbTrace
 10
184.0330833134852
 20
613.0836037474715
 30
0.0
 11
186.0330833134852
 21
613.0836037474715
 31
0.0
 12
185.0330833134852
 22
607.0836037474715
 32
0.0
 13
185.0330833134852
 23
607.0836037474715
 33
0.0
  0
MTEXT
  5
7304
330
7020
100
AcDbEntity
  8
AM_REFDIM
100
AcDbMText
 10
179.5330833134851
 20
645.0836037474715
 30
0.0
 40
7.0
 41
0.0
 71
     5
 72
     1
  1
76
 11
0.0000000000000001
 21
1.0
 31
0.0
 73
     1
 44
1.0
1001
ACAD
1000
MTEXTBEGIN
1070
    73
1070
     1
1070
    44
1040
1.0
1070
    74
1070
     0
1000
MTEXTEND
  0
POINT
  5
7305
330
7020
100
AcDbEntity
  8
DEFPOINTS
 62
     0
100
AcDbPoint
 10
161.0330833134852
 20
683.0836037474715
 30
0.0
  0
POINT
  5
7306
330
7020
100
AcDbEntity
  8
DEFPOINTS
 62
     0
100
AcDbPoint
 10
141.5330833134852
 20
607.0836037474715
 30
0.0
  0
POINT
  5
7307
330
7020
100
AcDbEntity
  8
DEFPOINTS
 62
     0
100
AcDbPoint
 10
185.0330833134852
 20
607.0836037474715
 30
0.0
  0
ENDBLK
  5
702B
330
7020
100
AcDbEntity
  8
0
100
AcDbBlockEnd
  0
BLOCK
  5
7036
330
702C
100
AcDbEntity
  8
0
100
AcDbBlockBegin
  2
*D35
 70
     1
 10
0.0
 20
0.0
 30
0.0
  3
*D35
  1

  0
LINE
  5
71F8
330
702C
100
AcDbEntity
  8
AM_REFDIM
100
AcDbLine
 10
241.366600880908
 20
493.2486919897415
 30
0.0
 11
241.366600880908
 21
566.2486919897416
 31
0.0
  0
LINE
  5
71F9
330
702C
100
AcDbEntity
  8
AM_REFDIM
100
AcDbLine
 10
281.3666008809081
 20
502.2486919897415
 30
0.0
 11
281.3666008809081
 21
566.2486919897416
 31
0.0
  0
LINE
  5
71FA
330
702C
100
AcDbEntity
  8
AM_REFDIM
100
AcDbLine
 10
247.366600880908
 20
564.2486919897415
 30
0.0
 11
275.3666008809081
 21
564.2486919897415
 31
0.0
  0
SOLID
  5
71FB
330
702C
100
AcDbEntity
  8
AM_REFDIM
100
AcDbTrace
 10
247.366600880908
 20
565.2486919897415
 30
0.0
 11
247.366600880908
 21
563.2486919897416
 31
0.0
 12
241.366600880908
 22
564.2486919897415
 32
0.0
 13
241.366600880908
 23
564.2486919897415
 33
0.0
  0
SOLID
  5
71FC
330
702C
100
AcDbEntity
  8
AM_REFDIM
100
AcDbTrace
 10
275.3666008809081
 20
565.2486919897415
 30
0.0
 11
275.3666008809081
 21
563.2486919897416
 31
0.0
 12
281.3666008809081
 22
564.2486919897415
 32
0.0
 13
281.3666008809081
 23
564.2486919897415
 33
0.0
  0
MTEXT
  5
71FD
330
702C
100
AcDbEntity
  8
AM_REFDIM
100
AcDbMText
 10
261.3666008809081
 20
569.7486919897415
 30
0.0
 40
7.0
 41
0.0
 71
     5
 72
     1
  1
40
 73
     1
 44
1.0
1001
ACAD
1000
MTEXTBEGIN
1070
    73
1070
     1
1070
    44
1040
1.0
1070
    74
1070
     0
1000
MTEXTEND
  0
POINT
  5
71FE
330
702C
100
AcDbEntity
  8
DEFPOINTS
 62
     0
100
AcDbPoint
 10
241.366600880908
 20
491.2486919897416
 30
0.0
  0
POINT
  5
71FF
330
702C
100
AcDbEntity
  8
DEFPOINTS
 62
     0
100
AcDbPoint
 10
281.3666008809081
 20
500.2486919897416
 30
0.0
  0
POINT
  5
7200
330
702C
100
AcDbEntity
  8
DEFPOINTS
 62
     0
100
AcDbPoint
 10
281.3666008809081
 20
564.2486919897415
 30
0.0
  0
ENDBLK
  5
7037
330
702C
100
AcDbEntity
  8
0
100
AcDbBlockEnd
  0
BLOCK
  5
7042
330
7038
100
AcDbEntity
  8
0
100
AcDbBlockBegin
  2
*D36
 70
     1
 10
0.0
 20
0.0
 30
0.0
  3
*D36
  1

  0
LINE
  5
7201
330
7038
100
AcDbEntity
  8
AM_REFDIM
100
AcDbLine
 10
241.366600880908
 20
543.2486919897415
 30
0.0
 11
241.366600880908
 21
566.2486919897416
 31
0.0
  0
LINE
  5
7202
330
7038
100
AcDbEntity
  8
AM_REFDIM
100
AcDbLine
 10
205.3666008809081
 20
465.7486919897415
 30
0.0
 11
205.3666008809081
 21
566.2486919897416
 31
0.0
  0
LINE
  5
7203
330
7038
100
AcDbEntity
  8
AM_REFDIM
100
AcDbLine
 10
235.366600880908
 20
564.2486919897415
 30
0.0
 11
211.3666008809081
 21
564.2486919897415
 31
0.0
  0
SOLID
  5
7204
330
7038
100
AcDbEntity
  8
AM_REFDIM
100
AcDbTrace
 10
235.366600880908
 20
565.2486919897415
 30
0.0
 11
235.366600880908
 21
563.2486919897416
 31
0.0
 12
241.366600880908
 22
564.2486919897415
 32
0.0
 13
241.366600880908
 23
564.2486919897415
 33
0.0
  0
SOLID
  5
7205
330
7038
100
AcDbEntity
  8
AM_REFDIM
100
AcDbTrace
 10
211.3666008809081
 20
565.2486919897415
 30
0.0
 11
211.3666008809081
 21
563.2486919897416
 31
0.0
 12
205.3666008809081
 22
564.2486919897415
 32
0.0
 13
205.3666008809081
 23
564.2486919897415
 33
0.0
  0
MTEXT
  5
7206
330
7038
100
AcDbEntity
  8
AM_REFDIM
100
AcDbMText
 10
223.366600880908
 20
569.7486919897415
 30
0.0
 40
7.0
 41
0.0
 71
     5
 72
     1
  1
36
 73
     1
 44
1.0
1001
ACAD
1000
MTEXTBEGIN
1070
    73
1070
     1
1070
    44
1040
1.0
1070
    74
1070
     0
1000
MTEXTEND
  0
POINT
  5
7207
330
7038
100
AcDbEntity
  8
DEFPOINTS
 62
     0
100
AcDbPoint
 10
241.366600880908
 20
541.2486919897416
 30
0.0
  0
POINT
  5
7208
330
7038
100
AcDbEntity
  8
DEFPOINTS
 62
     0
100
AcDbPoint
 10
205.3666008809081
 20
463.7486919897416
 30
0.0
  0
POINT
  5
7209
330
7038
100
AcDbEntity
  8
DEFPOINTS
 62
     0
100
AcDbPoint
 10
205.3666008809081
 20
564.2486919897415
 30
0.0
  0
ENDBLK
  5
7043
330
7038
100
AcDbEntity
  8
0
100
AcDbBlockEnd
  0
BLOCK
  5
704E
330
7044
100
AcDbEntity
  8
0
100
AcDbBlockBegin
  2
*D37
 70
     1
 10
0.0
 20
0.0
 30
0.0
  3
*D37
  1

  0
LINE
  5
720A
330
7044
100
AcDbEntity
  8
AM_REFDIM
100
AcDbLine
 10
253.3273354584463
 20
450.2486919897416
 30
0.0
 11
299.3985293935009
 21
450.2486919897416
 31
0.0
  0
LINE
  5
720B
330
7044
100
AcDbEntity
  8
AM_REFDIM
100
AcDbLine
 10
284.3666008809081
 20
492.2486919897416
 30
0.0
 11
299.3985293935009
 21
492.2486919897416
 31
0.0
  0
LINE
  5
720C
330
7044
100
AcDbEntity
  8
AM_REFDIM
100
AcDbLine
 10
297.3985293935009
 20
456.2486919897415
 30
0.0
 11
297.3985293935009
 21
486.2486919897415
 31
0.0
  0
SOLID
  5
720D
330
7044
100
AcDbEntity
  8
AM_REFDIM
100
AcDbTrace
 10
296.3985293935009
 20
456.2486919897415
 30
0.0
 11
298.3985293935009
 21
456.2486919897415
 31
0.0
 12
297.3985293935009
 22
450.2486919897416
 32
0.0
 13
297.3985293935009
 23
450.2486919897416
 33
0.0
  0
SOLID
  5
720E
330
7044
100
AcDbEntity
  8
AM_REFDIM
100
AcDbTrace
 10
296.3985293935009
 20
486.2486919897415
 30
0.0
 11
298.3985293935009
 21
486.2486919897415
 31
0.0
 12
297.3985293935009
 22
492.2486919897416
 32
0.0
 13
297.3985293935009
 23
492.2486919897416
 33
0.0
  0
MTEXT
  5
720F
330
7044
100
AcDbEntity
  8
AM_REFDIM
100
AcDbMText
 10
291.8978404171229
 20
471.2486919897416
 30
0.0
 40
7.0
 41
0.0
 71
     5
 72
     1
  1
42
 11
0.0000000000000001
 21
1.0
 31
0.0
 73
     1
 44
1.0
1001
ACAD
1000
MTEXTBEGIN
1070
    73
1070
     1
1070
    44
1040
1.0
1070
    74
1070
     0
1000
MTEXTEND
  0
POINT
  5
7210
330
7044
100
AcDbEntity
  8
DEFPOINTS
 62
     0
100
AcDbPoint
 10
251.3273354584463
 20
450.2486919897416
 30
0.0
  0
POINT
  5
7211
330
7044
100
AcDbEntity
  8
DEFPOINTS
 62
     0
100
AcDbPoint
 10
282.3666008809081
 20
492.2486919897416
 30
0.0
  0
POINT
  5
7212
330
7044
100
AcDbEntity
  8
DEFPOINTS
 62
     0
100
AcDbPoint
 10
297.3985293935009
 20
492.2486919897416
 30
0.0
  0
ENDBLK
  5
704F
330
7044
100
AcDbEntity
  8
0
100
AcDbBlockEnd
  0
BLOCK
  5
705A
330
7050
100
AcDbEntity
  8
0
100
AcDbBlockBegin
  2
*D38
 70
     1
 10
0.0
 20
0.0
 30
0.0
  3
*D38
  1

  0
LINE
  5
7213
330
7050
100
AcDbEntity
  8
AM_REFDIM
100
AcDbLine
 10
261.4417455755382
 20
411.2486919897415
 30
0.0
 11
299.398529393501
 21
411.2486919897415
 31
0.0
  0
LINE
  5
7214
330
7050
100
AcDbEntity
  8
AM_REFDIM
100
AcDbLine
 10
253.3273354584463
 20
450.2486919897416
 30
0.0
 11
299.398529393501
 21
450.2486919897416
 31
0.0
  0
LINE
  5
7215
330
7050
100
AcDbEntity
  8
AM_REFDIM
100
AcDbLine
 10
297.398529393501
 20
417.2486919897416
 30
0.0
 11
297.398529393501
 21
444.2486919897415
 31
0.0
  0
SOLID
  5
7216
330
7050
100
AcDbEntity
  8
AM_REFDIM
100
AcDbTrace
 10
296.398529393501
 20
417.2486919897416
 30
0.0
 11
298.398529393501
 21
417.2486919897416
 31
0.0
 12
297.398529393501
 22
411.2486919897415
 32
0.0
 13
297.398529393501
 23
411.2486919897415
 33
0.0
  0
SOLID
  5
7217
330
7050
100
AcDbEntity
  8
AM_REFDIM
100
AcDbTrace
 10
296.398529393501
 20
444.2486919897415
 30
0.0
 11
298.398529393501
 21
444.2486919897415
 31
0.0
 12
297.398529393501
 22
450.2486919897416
 32
0.0
 13
297.398529393501
 23
450.2486919897416
 33
0.0
  0
MTEXT
  5
7218
330
7050
100
AcDbEntity
  8
AM_REFDIM
100
AcDbMText
 10
291.8985293935009
 20
430.7486919897415
 30
0.0
 40
7.0
 41
0.0
 71
     5
 72
     1
  1
39
 11
0.0000000000000001
 21
1.0
 31
0.0
 73
     1
 44
1.0
1001
ACAD
1000
MTEXTBEGIN
1070
    73
1070
     1
1070
    44
1040
1.0
1070
    74
1070
     0
1000
MTEXTEND
  0
POINT
  5
7219
330
7050
100
AcDbEntity
  8
DEFPOINTS
 62
     0
100
AcDbPoint
 10
259.4417455755382
 20
411.2486919897415
 30
0.0
  0
POINT
  5
721A
330
7050
100
AcDbEntity
  8
DEFPOINTS
 62
     0
100
AcDbPoint
 10
251.3273354584463
 20
450.2486919897416
 30
0.0
  0
POINT
  5
721B
330
7050
100
AcDbEntity
  8
DEFPOINTS
 62
     0
100
AcDbPoint
 10
297.398529393501
 20
450.2486919897416
 30
0.0
  0
ENDBLK
  5
705B
330
7050
100
AcDbEntity
  8
0
100
AcDbBlockEnd
  0
BLOCK
  5
7066
330
705C
100
AcDbEntity
  8
0
100
AcDbBlockBegin
  2
*D39
 70
     1
 10
0.0
 20
0.0
 30
0.0
  3
*D39
  1

  0
LINE
  5
721C
330
705C
100
AcDbEntity
  8
AM_REFDIM
100
AcDbLine
 10
107.0330833134852
 20
540.2486919897415
 30
0.0
 11
74.84100389272795
 21
540.2486919897415
 31
0.0
  0
LINE
  5
721D
330
705C
100
AcDbEntity
  8
AM_REFDIM
100
AcDbLine
 10
114.5330833134852
 20
450.2486919897416
 30
0.0
 11
74.84100389272794
 21
450.2486919897416
 31
0.0
  0
LINE
  5
721E
330
705C
100
AcDbEntity
  8
AM_REFDIM
100
AcDbLine
 10
76.84100389272796
 20
534.2486919897416
 30
0.0
 11
76.84100389272794
 21
456.2486919897415
 31
0.0
  0
SOLID
  5
721F
330
705C
100
AcDbEntity
  8
AM_REFDIM
100
AcDbTrace
 10
75.84100389272795
 20
534.2486919897416
 30
0.0
 11
77.84100389272795
 21
534.2486919897416
 31
0.0
 12
76.84100389272796
 22
540.2486919897415
 32
0.0
 13
76.84100389272796
 23
540.2486919897415
 33
0.0
  0
SOLID
  5
7220
330
705C
100
AcDbEntity
  8
AM_REFDIM
100
AcDbTrace
 10
75.84100389272794
 20
456.2486919897415
 30
0.0
 11
77.84100389272794
 21
456.2486919897415
 31
0.0
 12
76.84100389272794
 22
450.2486919897416
 32
0.0
 13
76.84100389272794
 23
450.2486919897416
 33
0.0
  0
MTEXT
  5
7221
330
705C
100
AcDbEntity
  8
AM_REFDIM
100
AcDbMText
 10
71.34100389272787
 20
495.2486919897416
 30
0.0
 40
7.0
 41
0.0
 71
     5
 72
     1
  1
90
 11
0.0000000000000001
 21
1.0
 31
0.0
 73
     1
 44
1.0
1001
ACAD
1000
MTEXTBEGIN
1070
    73
1070
     1
1070
    44
1040
1.0
1070
    74
1070
     0
1000
MTEXTEND
  0
POINT
  5
7222
330
705C
100
AcDbEntity
  8
DEFPOINTS
 62
     0
100
AcDbPoint
 10
109.0330833134852
 20
540.2486919897415
 30
0.0
  0
POINT
  5
7223
330
705C
100
AcDbEntity
  8
DEFPOINTS
 62
     0
100
AcDbPoint
 10
116.5330833134852
 20
450.2486919897416
 30
0.0
  0
POINT
  5
7224
330
705C
100
AcDbEntity
  8
DEFPOINTS
 62
     0
100
AcDbPoint
 10
76.84100389272794
 20
450.2486919897416
 30
0.0
  0
ENDBLK
  5
7067
330
705C
100
AcDbEntity
  8
0
100
AcDbBlockEnd
  0
BLOCK
  5
7072
330
7068
100
AcDbEntity
  8
0
100
AcDbBlockBegin
  2
*D40
 70
     1
 10
0.0
 20
0.0
 30
0.0
  3
*D40
  1

  0
LINE
  5
7225
330
7068
100
AcDbEntity
  8
AM_REFDIM
100
AcDbLine
 10
114.5330833134852
 20
450.2486919897416
 30
0.0
 11
74.84100389272801
 21
450.2486919897416
 31
0.0
  0
LINE
  5
7226
330
7068
100
AcDbEntity
  8
AM_REFDIM
100
AcDbLine
 10
107.9579386188551
 20
411.2486919897415
 30
0.0
 11
74.841003892728
 21
411.2486919897415
 31
0.0
  0
LINE
  5
7227
330
7068
100
AcDbEntity
  8
AM_REFDIM
100
AcDbLine
 10
76.84100389272801
 20
444.2486919897415
 30
0.0
 11
76.84100389272801
 21
417.2486919897416
 31
0.0
  0
SOLID
  5
7228
330
7068
100
AcDbEntity
  8
AM_REFDIM
100
AcDbTrace
 10
75.84100389272801
 20
444.2486919897415
 30
0.0
 11
77.84100389272801
 21
444.2486919897415
 31
0.0
 12
76.84100389272801
 22
450.2486919897416
 32
0.0
 13
76.84100389272801
 23
450.2486919897416
 33
0.0
  0
SOLID
  5
7229
330
7068
100
AcDbEntity
  8
AM_REFDIM
100
AcDbTrace
 10
75.84100389272801
 20
417.2486919897416
 30
0.0
 11
77.84100389272801
 21
417.2486919897416
 31
0.0
 12
76.84100389272799
 22
411.2486919897415
 32
0.0
 13
76.84100389272799
 23
411.2486919897415
 33
0.0
  0
MTEXT
  5
722A
330
7068
100
AcDbEntity
  8
AM_REFDIM
100
AcDbMText
 10
71.34100389272794
 20
430.7486919897415
 30
0.0
 40
7.0
 41
0.0
 71
     5
 72
     1
  1
39
 11
0.0000000000000001
 21
1.0
 31
0.0
 73
     1
 44
1.0
1001
ACAD
1000
MTEXTBEGIN
1070
    73
1070
     1
1070
    44
1040
1.0
1070
    74
1070
     0
1000
MTEXTEND
  0
POINT
  5
722B
330
7068
100
AcDbEntity
  8
DEFPOINTS
 62
     0
100
AcDbPoint
 10
116.5330833134852
 20
450.2486919897416
 30
0.0
  0
POINT
  5
722C
330
7068
100
AcDbEntity
  8
DEFPOINTS
 62
     0
100
AcDbPoint
 10
109.9579386188551
 20
411.2486919897415
 30
0.0
  0
POINT
  5
722D
330
7068
100
AcDbEntity
  8
DEFPOINTS
 62
     0
100
AcDbPoint
 10
76.84100389272799
 20
411.2486919897415
 30
0.0
  0
ENDBLK
  5
7073
330
7068
100
AcDbEntity
  8
0
100
AcDbBlockEnd
  0
BLOCK
  5
707E
330
7074
100
AcDbEntity
  8
0
100
AcDbBlockBegin
  2
*D41
 70
     1
 10
0.0
 20
0.0
 30
0.0
  3
*D41
  1

  0
LINE
  5
722E
330
7074
100
AcDbEntity
  8
AM_REFDIM
100
AcDbLine
 10
93.03308331348523
 20
662.0836037474715
 30
0.0
 11
93.03308331348523
 21
706.0591009605395
 31
0.0
  0
LINE
  5
722F
330
7074
100
AcDbEntity
  8
AM_REFDIM
100
AcDbLine
 10
163.0330833134852
 20
662.0836037474715
 30
0.0
 11
163.0330833134852
 21
706.0591009605395
 31
0.0
  0
LINE
  5
7230
330
7074
100
AcDbEntity
  8
AM_REFDIM
100
AcDbLine
 10
99.03308331348524
 20
704.0591009605394
 30
0.0
 11
157.0330833134852
 21
704.0591009605394
 31
0.0
  0
SOLID
  5
7231
330
7074
100
AcDbEntity
  8
AM_REFDIM
100
AcDbTrace
 10
99.03308331348524
 20
705.0591009605394
 30
0.0
 11
99.03308331348524
 21
703.0591009605394
 31
0.0
 12
93.03308331348523
 22
704.0591009605394
 32
0.0
 13
93.03308331348523
 23
704.0591009605394
 33
0.0
  0
SOLID
  5
7232
330
7074
100
AcDbEntity
  8
AM_REFDIM
100
AcDbTrace
 10
157.0330833134852
 20
705.0591009605394
 30
0.0
 11
157.0330833134852
 21
703.0591009605394
 31
0.0
 12
163.0330833134852
 22
704.0591009605394
 32
0.0
 13
163.0330833134852
 23
704.0591009605394
 33
0.0
  0
MTEXT
  5
7233
330
7074
100
AcDbEntity
  8
AM_REFDIM
100
AcDbMText
 10
128.0330833134852
 20
709.5591009605394
 30
0.0
 40
7.0
 41
0.0
 71
     5
 72
     1
  1
70
 73
     1
 44
1.0
1001
ACAD
1000
MTEXTBEGIN
1070
    73
1070
     1
1070
    44
1040
1.0
1070
    74
1070
     0
1000
MTEXTEND
  0
POINT
  5
7234
330
7074
100
AcDbEntity
  8
DEFPOINTS
 62
     0
100
AcDbPoint
 10
93.03308331348523
 20
660.0836037474715
 30
0.0
  0
POINT
  5
7235
330
7074
100
AcDbEntity
  8
DEFPOINTS
 62
     0
100
AcDbPoint
 10
163.0330833134852
 20
660.0836037474715
 30
0.0
  0
POINT
  5
7236
330
7074
100
AcDbEntity
  8
DEFPOINTS
 62
     0
100
AcDbPoint
 10
163.0330833134852
 20
704.0591009605394
 30
0.0
  0
ENDBLK
  5
707F
330
7074
100
AcDbEntity
  8
0
100
AcDbBlockEnd
  0
BLOCK
  5
708A
330
7080
100
AcDbEntity
  8
0
100
AcDbBlockBegin
  2
*D42
 70
     1
 10
0.0
 20
0.0
 30
0.0
  3
*D42
  1

  0
LINE
  5
7237
330
7080
100
AcDbEntity
  8
AM_REFDIM
100
AcDbLine
 10
93.03308331348523
 20
433.2486919897416
 30
0.0
 11
93.03308331348523
 21
391.8074997636726
 31
0.0
  0
LINE
  5
7238
330
7080
100
AcDbEntity
  8
AM_REFDIM
100
AcDbLine
 10
128.0330833134852
 20
408.6301386197707
 30
0.0
 11
128.0330833134852
 21
391.8074997636726
 31
0.0
  0
LINE
  5
7239
330
7080
100
AcDbEntity
  8
AM_REFDIM
100
AcDbLine
 10
99.03308331348524
 20
393.8074997636726
 30
0.0
 11
122.0330833134852
 21
393.8074997636726
 31
0.0
  0
SOLID
  5
723A
330
7080
100
AcDbEntity
  8
AM_REFDIM
100
AcDbTrace
 10
99.03308331348524
 20
394.8074997636726
 30
0.0
 11
99.03308331348524
 21
392.8074997636726
 31
0.0
 12
93.03308331348523
 22
393.8074997636726
 32
0.0
 13
93.03308331348523
 23
393.8074997636726
 33
0.0
  0
SOLID
  5
723B
330
7080
100
AcDbEntity
  8
AM_REFDIM
100
AcDbTrace
 10
122.0330833134852
 20
394.8074997636726
 30
0.0
 11
122.0330833134852
 21
392.8074997636726
 31
0.0
 12
128.0330833134852
 22
393.8074997636726
 32
0.0
 13
128.0330833134852
 23
393.8074997636726
 33
0.0
  0
MTEXT
  5
723C
330
7080
100
AcDbEntity
  8
AM_REFDIM
100
AcDbMText
 10
110.5330833134852
 20
399.3074997636726
 30
0.0
 40
7.0
 41
0.0
 71
     5
 72
     1
  1
35
 73
     1
 44
1.0
1001
ACAD
1000
MTEXTBEGIN
1070
    73
1070
     1
1070
    44
1040
1.0
1070
    74
1070
     0
1000
MTEXTEND
  0
POINT
  5
723D
330
7080
100
AcDbEntity
  8
DEFPOINTS
 62
     0
100
AcDbPoint
 10
93.03308331348523
 20
435.2486919897415
 30
0.0
  0
POINT
  5
723E
330
7080
100
AcDbEntity
  8
DEFPOINTS
 62
     0
100
AcDbPoint
 10
128.0330833134852
 20
410.6301386197706
 30
0.0
  0
POINT
  5
723F
330
7080
100
AcDbEntity
  8
DEFPOINTS
 62
     0
100
AcDbPoint
 10
128.0330833134852
 20
393.8074997636726
 30
0.0
  0
ENDBLK
  5
708B
330
7080
100
AcDbEntity
  8
0
100
AcDbBlockEnd
  0
BLOCK
  5
7096
330
708C
100
AcDbEntity
  8
0
100
AcDbBlockBegin
  2
*D43
 70
     1
 10
0.0
 20
0.0
 30
0.0
  3
*D43
  1

  0
LINE
  5
7240
330
708C
100
AcDbEntity
  8
AM_REFDIM
100
AcDbLine
 10
128.0330833134852
 20
408.6301386197707
 30
0.0
 11
128.0330833134852
 21
391.8074997636726
 31
0.0
  0
LINE
  5
7241
330
708C
100
AcDbEntity
  8
AM_REFDIM
100
AcDbLine
 10
163.0330833134852
 20
433.2486919897416
 30
0.0
 11
163.0330833134852
 21
391.8074997636726
 31
0.0
  0
LINE
  5
7242
330
708C
100
AcDbEntity
  8
AM_REFDIM
100
AcDbLine
 10
134.0330833134852
 20
393.8074997636726
 30
0.0
 11
157.0330833134852
 21
393.8074997636726
 31
0.0
  0
SOLID
  5
7243
330
708C
100
AcDbEntity
  8
AM_REFDIM
100
AcDbTrace
 10
134.0330833134852
 20
394.8074997636726
 30
0.0
 11
134.0330833134852
 21
392.8074997636726
 31
0.0
 12
128.0330833134852
 22
393.8074997636726
 32
0.0
 13
128.0330833134852
 23
393.8074997636726
 33
0.0
  0
SOLID
  5
7244
330
708C
100
AcDbEntity
  8
AM_REFDIM
100
AcDbTrace
 10
157.0330833134852
 20
394.8074997636726
 30
0.0
 11
157.0330833134852
 21
392.8074997636726
 31
0.0
 12
163.0330833134852
 22
393.8074997636726
 32
0.0
 13
163.0330833134852
 23
393.8074997636726
 33
0.0
  0
MTEXT
  5
7245
330
708C
100
AcDbEntity
  8
AM_REFDIM
100
AcDbMText
 10
145.5330833134852
 20
399.3074997636726
 30
0.0
 40
7.0
 41
0.0
 71
     5
 72
     1
  1
35
 73
     1
 44
1.0
1001
ACAD
1000
MTEXTBEGIN
1070
    73
1070
     1
1070
    44
1040
1.0
1070
    74
1070
     0
1000
MTEXTEND
  0
POINT
  5
7246
330
708C
100
AcDbEntity
  8
DEFPOINTS
 62
     0
100
AcDbPoint
 10
128.0330833134852
 20
410.6301386197706
 30
0.0
  0
POINT
  5
7247
330
708C
100
AcDbEntity
  8
DEFPOINTS
 62
     0
100
AcDbPoint
 10
163.0330833134852
 20
435.2486919897415
 30
0.0
  0
POINT
  5
7248
330
708C
100
AcDbEntity
  8
DEFPOINTS
 62
     0
100
AcDbPoint
 10
163.0330833134852
 20
393.8074997636726
 30
0.0
  0
ENDBLK
  5
7097
330
708C
100
AcDbEntity
  8
0
100
AcDbBlockEnd
  0
BLOCK
  5
70A4
330
7098
100
AcDbEntity
  8
0
100
AcDbBlockBegin
  2
*D44
 70
     1
 10
0.0
 20
0.0
 30
0.0
  3
*D44
  1

  0
LINE
  5
7249
330
7098
100
AcDbEntity
  8
AM_REFDIM
100
AcDbLine
 10
100.0330833134852
 20
494.2486919897415
 30
0.0
 11
100.0330833134852
 21
554.2486919897416
 31
0.0
  0
LINE
  5
724A
330
7098
100
AcDbEntity
  8
AM_REFDIM
100
AcDbLine
 10
112.0330833134852
 20
494.2486919897415
 30
0.0
 11
112.0330833134852
 21
554.2486919897416
 31
0.0
  0
LINE
  5
724B
330
7098
100
AcDbEntity
  8
AM_REFDIM
100
AcDbLine
 10
94.03308331348524
 20
552.2486919897415
 30
0.0
 11
88.03308331348523
 21
552.2486919897415
 31
0.0
  0
LINE
  5
724C
330
7098
100
AcDbEntity
  8
AM_REFDIM
100
AcDbLine
 10
118.0330833134852
 20
552.2486919897415
 30
0.0
 11
124.0330833134852
 21
552.2486919897415
 31
0.0
  0
LINE
  5
724D
330
7098
100
AcDbEntity
  8
AM_REFDIM
100
AcDbLine
 10
100.0330833134852
 20
552.2486919897415
 30
0.0
 11
112.0330833134852
 21
552.2486919897415
 31
0.0
  0
SOLID
  5
724E
330
7098
100
AcDbEntity
  8
AM_REFDIM
100
AcDbTrace
 10
94.03308331348524
 20
553.2486919897415
 30
0.0
 11
94.03308331348524
 21
551.2486919897416
 31
0.0
 12
100.0330833134852
 22
552.2486919897415
 32
0.0
 13
100.0330833134852
 23
552.2486919897415
 33
0.0
  0
SOLID
  5
724F
330
7098
100
AcDbEntity
  8
AM_REFDIM
100
AcDbTrace
 10
118.0330833134852
 20
553.2486919897415
 30
0.0
 11
118.0330833134852
 21
551.2486919897416
 31
0.0
 12
112.0330833134852
 22
552.2486919897415
 32
0.0
 13
112.0330833134852
 23
552.2486919897415
 33
0.0
  0
MTEXT
  5
7250
330
7098
100
AcDbEntity
  8
AM_REFDIM
100
AcDbMText
 10
106.0330833134852
 20
557.7493809661196
 30
0.0
 40
7.0
 41
0.0
 71
     5
 72
     1
  1
12
 73
     1
 44
1.0
1001
ACAD
1000
MTEXTBEGIN
1070
    73
1070
     1
1070
    44
1040
1.0
1070
    74
1070
     0
1000
MTEXTEND
  0
POINT
  5
7251
330
7098
100
AcDbEntity
  8
DEFPOINTS
 62
     0
100
AcDbPoint
 10
100.0330833134852
 20
492.2486919897416
 30
0.0
  0
POINT
  5
7252
330
7098
100
AcDbEntity
  8
DEFPOINTS
 62
     0
100
AcDbPoint
 10
112.0330833134852
 20
492.2486919897416
 30
0.0
  0
POINT
  5
7253
330
7098
100
AcDbEntity
  8
DEFPOINTS
 62
     0
100
AcDbPoint
 10
112.0330833134852
 20
552.2486919897415
 30
0.0
  0
ENDBLK
  5
70A5
330
7098
100
AcDbEntity
  8
0
100
AcDbBlockEnd
  0
BLOCK
  5
70B2
330
70A6
100
AcDbEntity
  8
0
100
AcDbBlockBegin
  2
*D45
 70
     1
 10
0.0
 20
0.0
 30
0.0
  3
*D45
  1

  0
LINE
  5
7254
330
70A6
100
AcDbEntity
  8
AM_REFDIM
100
AcDbLine
 10
155.0330833134852
 20
489.2486919897415
 30
0.0
 11
179.0713214971787
 21
489.2486919897415
 31
0.0
  0
LINE
  5
7255
330
70A6
100
AcDbEntity
  8
AM_REFDIM
100
AcDbLine
 10
155.0330833134852
 20
495.2486919897416
 30
0.0
 11
179.0713214971787
 21
495.2486919897416
 31
0.0
  0
LINE
  5
7256
330
70A6
100
AcDbEntity
  8
AM_REFDIM
100
AcDbLine
 10
177.0713214971786
 20
483.2486919897416
 30
0.0
 11
177.0713214971786
 21
477.2486919897415
 31
0.0
  0
LINE
  5
7257
330
70A6
100
AcDbEntity
  8
AM_REFDIM
100
AcDbLine
 10
177.0713214971786
 20
501.2486919897416
 30
0.0
 11
177.0713214971786
 21
507.2486919897415
 31
0.0
  0
LINE
  5
7258
330
70A6
100
AcDbEntity
  8
AM_REFDIM
100
AcDbLine
 10
177.0713214971786
 20
489.2486919897415
 30
0.0
 11
177.0713214971786
 21
495.2486919897416
 31
0.0
  0
SOLID
  5
7259
330
70A6
100
AcDbEntity
  8
AM_REFDIM
100
AcDbTrace
 10
176.0713214971787
 20
483.2486919897416
 30
0.0
 11
178.0713214971787
 21
483.2486919897416
 31
0.0
 12
177.0713214971786
 22
489.2486919897415
 32
0.0
 13
177.0713214971786
 23
489.2486919897415
 33
0.0
  0
SOLID
  5
725A
330
70A6
100
AcDbEntity
  8
AM_REFDIM
100
AcDbTrace
 10
176.0713214971787
 20
501.2486919897416
 30
0.0
 11
178.0713214971787
 21
501.2486919897416
 31
0.0
 12
177.0713214971786
 22
495.2486919897416
 32
0.0
 13
177.0713214971786
 23
495.2486919897416
 33
0.0
  0
MTEXT
  5
725B
330
70A6
100
AcDbEntity
  8
AM_REFDIM
100
AcDbMText
 10
171.5713214971786
 20
492.2486919897416
 30
0.0
 40
7.0
 41
0.0
 71
     5
 72
     1
  1
6
 11
0.0000000000000001
 21
1.0
 31
0.0
 73
     1
 44
1.0
1001
ACAD
1000
MTEXTBEGIN
1070
    73
1070
     1
1070
    44
1040
1.0
1070
    74
1070
     0
1000
MTEXTEND
  0
POINT
  5
725C
330
70A6
100
AcDbEntity
  8
DEFPOINTS
 62
     0
100
AcDbPoint
 10
153.0330833134852
 20
489.2486919897415
 30
0.0
  0
POINT
  5
725D
330
70A6
100
AcDbEntity
  8
DEFPOINTS
 62
     0
100
AcDbPoint
 10
153.0330833134852
 20
495.2486919897416
 30
0.0
  0
POINT
  5
725E
330
70A6
100
AcDbEntity
  8
DEFPOINTS
 62
     0
100
AcDbPoint
 10
177.0713214971786
 20
495.2486919897416
 30
0.0
  0
ENDBLK
  5
70B3
330
70A6
100
AcDbEntity
  8
0
100
AcDbBlockEnd
  0
BLOCK
  5
713D
330
7136
100
AcDbEntity
  8
0
100
AcDbBlockBegin
  2
*D46
 70
     1
 10
0.0
 20
0.0
 30
0.0
  3
*D46
  1

  0
LINE
  5
7265
330
7136
100
AcDbEntity
  8
AM_REFDIM
100
AcDbLine
 10
231.2445504346302
 20
437.2181856771303
 30
0.0
 11
216.5034410316484
 21
418.2413864455994
 31
0.0
  0
LINE
  5
7266
330
7136
100
AcDbEntity
  8
AM_REFDIM
100
AcDbLine
 10
216.5034410316484
 20
418.2413864455994
 30
0.0
 11
181.4256851261366
 21
418.2413864455994
 31
0.0
  0
SOLID
  5
7267
330
7136
100
AcDbEntity
  8
AM_REFDIM
100
AcDbTrace
 10
230.4548227793203
 20
437.831643279935
 30
0.0
 11
232.0342780899399
 21
436.6047280743256
 31
0.0
 12
234.9252960514585
 22
441.956551608989
 32
0.0
 13
234.9252960514585
 23
441.956551608989
 33
0.0
  0
MTEXT
  5
7268
330
7136
100
AcDbEntity
  8
AM_REFDIM
100
AcDbMText
 10
197.9645630788924
 20
423.7420754219774
 30
0.0
 40
7.0
 41
0.0
 71
     5
 72
     1
  1
2-PT1/4
 73
     1
 44
1.0
1001
ACAD
1000
MTEXTBEGIN
1070
    73
1070
     1
1070
    44
1040
1.0
1070
    74
1070
     0
1000
MTEXTEND
  0
POINT
  5
7269
330
7136
100
AcDbEntity
  8
DEFPOINTS
 62
     0
100
AcDbPoint
 10
234.9252960514585
 20
441.956551608989
 30
0.0
  0
POINT
  5
726A
330
7136
100
AcDbEntity
  8
DEFPOINTS
 62
     0
100
AcDbPoint
 10
247.8079057103593
 20
458.5408323704959
 30
0.0
  0
ENDBLK
  5
713E
330
7136
100
AcDbEntity
  8
0
100
AcDbBlockEnd
  0
ENDSEC
  0
SECTION
  2
ENTITIES
  0
MTEXT
  5
1F73
330
2
100
AcDbEntity
  8
0
100
AcDbMText
 10
1390.456900191412
 20
-138.5007534971338
 30
0.0
 40
3.0
 41
0.0
 71
     4
 72
     5
  1
\A1; 
  7
DAYUS
 73
     1
 44
1.0
1001
ACAD
1000
MTEXTBEGIN
1070
    73
1070
     1
1070
    44
1040
1.0
1070
    74
1070
     0
1000
MTEXTEND
  0
MTEXT
  5
1FBB
330
2
100
AcDbEntity
  8
0
100
AcDbMText
 10
1342.728821614999
 20
-142.218465522253
 30
0.0
 40
3.0
 41
0.0
 71
     4
 72
     5
  1
\A1; 
  7
DAYUS
 73
     1
 44
1.0
1001
ACAD
1000
MTEXTBEGIN
1070
    73
1070
     1
1070
    44
1040
1.0
1070
    74
1070
     0
1000
MTEXTEND
  0
MTEXT
  5
2095
330
2
100
AcDbEntity
  8
0
100
AcDbMText
 10
1790.901573512263
 20
-309.0767481339192
 30
0.0
 40
3.0
 41
0.0
 71
     4
 72
     5
  1
\A1; 
  7
DAYUS
 73
     1
 44
1.0
1001
ACAD
1000
MTEXTBEGIN
1070
    73
1070
     1
1070
    44
1040
1.0
1070
    74
1070
     0
1000
MTEXTEND
  0
MTEXT
  5
4482
330
2
100
AcDbEntity
  8
0
100
AcDbMText
 10
1320.557617281614
 20
257.7973527445213
 30
0.0
 40
3.0
 41
0.0
 71
     4
 72
     5
  1
\A1; 
  7
DAYUS
 73
     1
 44
1.0
1001
ACAD
1000
MTEXTBEGIN
1070
    73
1070
     1
1070
    44
1040
1.0
1070
    74
1070
     0
1000
MTEXTEND
  0
TEXT
  5
5652
330
2
100
AcDbEntity
  8
0
100
AcDbText
 10
549.210501383538
 20
90.98652696147508
 30
0.0
 40
3.6
  1
 
  7
DAYUS
100
AcDbText
  0
TEXT
  5
5655
330
2
100
AcDbEntity
  8
0
100
AcDbText
 10
664.2001390109811
 20
90.98652696147508
 30
0.0
 40
3.6
  1
 
  7
DAYUS
100
AcDbText
  0
TEXT
  5
5656
330
2
100
AcDbEntity
  8
0
100
AcDbText
 10
695.157424693998
 20
90.51232720048508
 30
0.0
 40
3.6
  1
 
  7
DAYUS
100
AcDbText
  0
TEXT
  5
5CBC
330
2
100
AcDbEntity
  8
LOGO
 62
     7
100
AcDbText
 10
144.1793519104209
 20
347.1849546628932
 30
0.0
 40
5.471207674208144
  1
Order example:
 41
0.8
  7
CHINESET
100
AcDbText
  0
TEXT
  5
5CBD
330
2
100
AcDbEntity
  8
LOGO
 62
     7
100
AcDbText
 10
145.1609318122207
 20
354.8872822401746
 30
0.0
 40
8.206811511312215
  1
訂購代號：
  7
CHINESET
100
AcDbText
  0
LINE
  5
5CBE
330
2
100
AcDbEntity
  8
LOGO
 62
     4
100
AcDbLine
 10
141.8020936187081
 20
324.1272194677063
 30
0.0
 11
141.8020936187081
 21
365.1612770242676
 31
0.0
  0
TEXT
  5
5CBF
330
2
100
AcDbEntity
  8
LOGO
  6
Continuous
100
AcDbText
 10
66.26678492024794
 20
332.1882981489006
 30
0.0
 40
6.155108633484163
  1
金器工業股份有限公司
  7
CHINESET
100
AcDbText
  0
TEXT
  5
5CC0
330
2
100
AcDbEntity
  8
LOGO
  6
Continuous
100
AcDbText
 10
54.96106808872872
 20
326.0319835967035
 30
0.0
 40
4.103405755656107
  1
MINDMAN INDUSTRIAL CO., LTD.
 41
0.85
  7
CHINESET
100
AcDbText
  0
LINE
  5
5CC1
330
2
100
AcDbEntity
  8
LOGO
 62
     4
100
AcDbLine
 10
141.8020936187081
 20
356.9544655129554
 30
0.0
 11
81.61880920241783
 21
356.9544655129554
 31
0.0
  0
LINE
  5
5CC2
330
2
100
AcDbEntity
  8
LOGO
 62
     4
100
AcDbLine
 10
141.8020936187081
 20
348.7476540016431
 30
0.0
 11
81.61880920241783
 21
348.7476540016431
 31
0.0
  0
LINE
  5
5CC3
330
2
100
AcDbEntity
  8
LOGO
 62
     4
100
AcDbLine
 10
141.8020936187081
 20
340.5408424903314
 30
0.0
 11
51.52716699427347
 21
340.5408424903314
 31
0.0
  0
LINE
  5
5CC4
330
2
100
AcDbEntity
  8
LOGO
 62
     4
100
AcDbLine
 10
81.61880920241783
 20
340.5408424903314
 30
0.0
 11
81.61880920241783
 21
365.1612770242676
 31
0.0
  0
TEXT
  5
5CC5
330
2
100
AcDbEntity
  8
LOGO
100
AcDbText
 10
122.7512434931956
 20
342.5925453681587
 30
0.0
 40
4.103405755656107
  1
mm
  7
CHINESET
 72
     1
 11
127.831650619246
 21
344.6442482459868
 31
0.0
100
AcDbText
 73
     2
  0
TEXT
  5
5CC6
330
2
100
AcDbEntity
  8
LOGO
100
AcDbText
 10
120.6018404783281
 20
359.0061683907832
 30
0.0
 40
4.103405755656107
  1
1 : 1
  7
CHINESET
 72
     1
 11
127.831650619246
 21
361.0578712686113
 31
0.0
100
AcDbText
 73
     2
  0
LINE
  5
5CC7
330
2
100
AcDbEntity
  8
LOGO
 62
     4
100
AcDbLine
 10
114.4460552476672
 20
340.5408424903314
 30
0.0
 11
114.4460552476672
 21
365.1612770242676
 31
0.0
  0
TEXT
  5
5CC8
330
2
100
AcDbEntity
  8
LOGO
100
AcDbText
 10
85.00228707326488
 20
359.0081877833795
 30
268.9304532596222
 40
4.103405755656107
  1
比例 Scale:
 41
0.9
  7
CHINESET
 72
     4
 11
98.03243222504251
 21
361.0578712686113
 31
268.9304532596222
100
AcDbText
  0
TEXT
  5
5CC9
330
2
100
AcDbEntity
  8
LOGO
100
AcDbText
 10
84.76597486680075
 20
350.8570778511816
 30
268.9304532596222
 40
4.103405755656107
  1
投影  View:
 41
0.9
  7
CHINESET
 72
     4
 11
98.03243222504251
 21
352.851059757299
 31
268.9304532596222
100
AcDbText
  0
TEXT
  5
5CCA
330
2
100
AcDbEntity
  8
LOGO
100
AcDbText
 10
85.16715605451892
 20
342.5925453681587
 30
268.9304532596222
 40
4.103405755656107
  1
單位  Unit:
 41
0.9
  7
CHINESET
 72
     4
 11
98.03243222504251
 21
344.6442482459868
 31
268.9304532596222
100
AcDbText
  0
LWPOLYLINE
  5
5CCB
330
2
100
AcDbEntity
  8
LOGO
 62
     4
100
AcDbPolyline
 90
        4
 70
     1
 43
0.0
 10
51.52716699427346
 20
365.1612770242676
 10
321.903994262362
 20
365.1612770242676
 10
321.903994262362
 20
733.0806463083142
 10
51.52716699427346
 20
733.0806463083142
1001
GENIUS_GENREC_14
1002
{
1000
PYDIR
1011
51.52716699427346
1021
733.0806463083142
1031
0.0
1002
}
1002
{
1000
PXDIR
1011
321.903994262362
1021
365.1612770242676
1031
0.0
1002
}
1002
{
1000
PORI
1011
51.52716699427346
1021
365.1612770242676
1031
0.0
1002
}
1002
{
1000
PINS
1011
51.52716699427346
1021
365.1612770242676
1031
0.0
1002
}
1002
{
1000
PINS2
1011
321.903994262362
1021
733.0806463083142
1031
0.0
1002
}
1002
{
1000
C
1070
     1
1002
}
1001
GENIUS_GENODEF_13
1002
{
1000
HIER
1070
     0
1002
}
1002
{
1000
MANEDIT
1070
     0
1002
}
1002
{
1000
NOSEL
1070
     0
1002
}
1002
{
1000
BEHIND
1070
     0
1002
}
1002
{
1000
OTHER
1070
     0
1002
}
1002
{
1000
REACTOR
1002
}
1001
GENIUS_GENOBJ-N-REC_13
1002
{
1000
OWNER
1000
GEN
1002
}
  0
SOLID
  5
5CCC
330
2
100
AcDbEntity
  8
LOGO
 62
     5
100
AcDbTrace
 10
55.78451632041979
 20
347.3621704852932
 30
0.0
 11
57.55872129579834
 21
347.3621704852927
 31
0.0
 12
64.96143860686095
 22
364.1865280104361
 32
0.0
 13
66.73564358224027
 23
364.1865280104351
 33
0.0
  0
SOLID
  5
5CCD
330
2
100
AcDbEntity
  8
LOGO
 62
     5
100
AcDbTrace
 10
58.29287507871569
 20
347.3621704852932
 30
0.0
 11
60.06708005409425
 21
347.3621704852932
 31
0.0
 12
66.73564358224027
 22
362.840579408424
 32
0.0
 13
64.96143860686095
 23
356.3351611653688
 33
0.0
  0
SOLID
  5
5CCE
330
2
100
AcDbEntity
  8
LOGO
 62
     2
100
AcDbTrace
 10
57.55872129579834
 20
347.3621704852927
 30
0.0
 11
58.29287507871569
 21
347.3621704852932
 31
0.0
 12
66.73564358224027
 22
364.1865280104351
 32
0.0
 13
67.46979736515687
 23
364.1865280104351
 33
0.0
  0
SOLID
  5
5CCF
330
2
100
AcDbEntity
  8
LOGO
 62
     5
100
AcDbTrace
 10
52.94003065653234
 20
341.2442222943326
 30
0.0
 11
53.55182547562927
 21
341.2442222943326
 31
0.0
 12
55.27468730450698
 22
344.3031963898127
 32
0.0
 13
55.88648212360192
 23
344.3031963898127
 33
0.0
  0
SOLID
  5
5CD0
330
2
100
AcDbEntity
  8
LOGO
 62
     5
100
AcDbTrace
 10
55.27468730450698
 20
344.3031963898127
 30
0.0
 11
55.88648212360192
 21
344.3031963898127
 31
0.0
 12
55.27468730450698
 22
341.2442222943326
 32
0.0
 13
55.88648212360192
 23
341.2442222943326
 33
0.0
  0
SOLID
  5
5CD1
330
2
100
AcDbEntity
  8
LOGO
 62
     5
100
AcDbTrace
 10
55.27468730450698
 20
341.2442222943326
 30
0.0
 11
55.88648212360192
 21
341.2442222943326
 31
0.0
 12
57.60934395248236
 22
344.3031963898127
 32
0.0
 13
58.2211387715781
 23
344.3031963898127
 33
0.0
  0
SOLID
  5
5CD2
330
2
100
AcDbEntity
  8
LOGO
 62
     5
100
AcDbTrace
 10
57.60934395248236
 20
344.3031963898127
 30
0.0
 11
58.2211387715781
 21
344.3031963898127
 31
0.0
 12
57.60934395248236
 22
341.2442222943326
 32
0.0
 13
58.2211387715781
 23
341.2442222943326
 33
0.0
  0
POLYLINE
  5
5CD3
330
2
100
AcDbEntity
  8
LOGO
 62
     5
100
AcDb2dPolyline
 66
     1
 10
0.0
 20
0.0
 30
0.0
 40
0.6127752595113121
 41
0.6127752595113121
  0
VERTEX
  5
5CD4
330
5CD3
100
AcDbEntity
  8
LOGO
 62
     5
100
AcDbVertex
100
AcDb2dVertex
 10
78.11649787805143
 20
343.0796067516206
 30
0.0
 42
1.0
  0
VERTEX
  5
5CD5
330
5CD3
100
AcDbEntity
  8
LOGO
 62
     5
100
AcDbVertex
100
AcDb2dVertex
 10
76.27817209951726
 20
343.0796067516206
 30
0.0
 42
1.0
  0
SEQEND
  5
5CD6
330
5CD3
100
AcDbEntity
  8
LOGO
 62
     5
  0
POLYLINE
  5
5CD7
330
2
100
AcDbEntity
  8
LOGO
 62
     5
100
AcDb2dPolyline
 66
     1
 10
0.0
 20
0.0
 30
0.0
 70
     1
  0
VERTEX
  5
5CD8
330
5CD7
100
AcDbEntity
  8
LOGO
 62
     5
100
AcDbVertex
100
AcDb2dVertex
 10
72.8128462382488
 20
342.7737093420721
 30
0.0
 42
1.000000057330635
  0
VERTEX
  5
5CD9
330
5CD7
100
AcDbEntity
  8
LOGO
 62
     5
100
AcDbVertex
100
AcDb2dVertex
 10
74.64823069553716
 20
342.7737093420721
 30
0.0
 42
1.000000057330635
  0
SEQEND
  5
5CDA
330
5CD7
100
AcDbEntity
  8
LOGO
 62
     5
  0
CIRCLE
  5
5CDB
330
2
100
AcDbEntity
  8
LOGO
 62
     5
100
AcDbCircle
 10
73.73053846689455
 20
342.7737093420721
 30
0.0
 40
0.917692228644141
  0
POLYLINE
  5
5CDC
330
2
100
AcDbEntity
  8
LOGO
 62
     5
100
AcDb2dPolyline
 66
     1
 10
0.0
 20
0.0
 30
0.0
 70
     1
 40
0.6127752595113121
 41
0.6127752595113121
  0
VERTEX
  5
5CDD
330
5CDC
100
AcDbEntity
  8
LOGO
 62
     5
100
AcDbVertex
100
AcDb2dVertex
 10
72.50498794787112
 20
342.7737093420721
 30
0.0
 42
1.0
  0
VERTEX
  5
5CDE
330
5CDC
100
AcDbEntity
  8
LOGO
 62
     5
100
AcDbVertex
100
AcDb2dVertex
 10
74.95608898591601
 20
342.7737093420721
 30
0.0
 42
1.0
  0
SEQEND
  5
5CDF
330
5CDC
100
AcDbEntity
  8
LOGO
 62
     5
  0
LINE
  5
5CE0
330
2
100
AcDbEntity
  8
LOGO
100
AcDbLine
 10
78.42092462697545
 20
341.2442222943326
 30
0.0
 11
78.42092462697545
 21
343.0796067516206
 31
0.0
  0
SOLID
  5
5CE1
330
2
100
AcDbEntity
  8
LOGO
 62
     5
100
AcDbTrace
 10
74.64816951605809
 20
344.3031963898127
 30
0.0
 11
75.25996433515302
 21
344.3031963898127
 31
0.0
 12
74.64816951605809
 22
341.2442222943326
 32
0.0
 13
75.25996433515302
 23
341.2442222943326
 33
0.0
  0
SOLID
  5
5CE2
330
2
100
AcDbEntity
  8
LOGO
 62
     5
100
AcDbTrace
 10
75.97374535059131
 20
341.2442222943326
 30
0.0
 11
76.58554016968782
 21
341.2442222943326
 31
0.0
 12
75.97374535059131
 22
344.3031963898127
 32
0.0
 13
76.58554016968782
 23
344.3031963898127
 33
0.0
  0
SOLID
  5
5CE3
330
2
100
AcDbEntity
  8
LOGO
 62
     5
100
AcDbTrace
 10
77.80912980788045
 20
343.0796067516206
 30
0.0
 11
78.42092462697545
 21
343.0796067516206
 31
0.0
 12
77.80912980788045
 22
341.2442222943326
 32
0.0
 13
78.42092462697545
 23
341.2442222943326
 33
0.0
  0
SOLID
  5
5CE4
330
2
100
AcDbEntity
  8
LOGO
 62
     5
100
AcDbTrace
 10
75.91256586868147
 20
362.840579408424
 30
0.0
 11
74.13836089330368
 21
356.3351611653688
 31
0.0
 12
75.91256586868147
 22
347.3621704852927
 32
0.0
 13
74.13836089330368
 23
347.3621704852927
 33
0.0
  0
SOLID
  5
5CE5
330
2
100
AcDbEntity
  8
LOGO
 62
     5
100
AcDbTrace
 10
76.64671965159766
 20
347.3621704852927
 30
0.0
 11
78.42092462697545
 21
347.3621704852927
 31
0.0
 12
76.64671965159766
 22
364.1865280104351
 32
0.0
 13
78.42092462697545
 23
364.1865280104361
 33
0.0
  0
SOLID
  5
5CE6
330
2
100
AcDbEntity
  8
LOGO
 62
     2
100
AcDbTrace
 10
75.91256586868147
 20
364.1865280104361
 30
0.0
 11
76.64671965159766
 21
364.1865280104351
 31
0.0
 12
75.91256586868147
 22
347.3621704852927
 32
0.0
 13
76.64671965159766
 23
347.3621704852927
 33
0.0
  0
POLYLINE
  5
5CE7
330
2
100
AcDbEntity
  8
LOGO
 62
     5
100
AcDb2dPolyline
 66
     1
 10
0.0
 20
0.0
 30
0.0
 40
0.6127752595113121
 41
0.6127752595113121
  0
VERTEX
  5
5CE8
330
5CE7
100
AcDbEntity
  8
LOGO
 62
     5
100
AcDbVertex
100
AcDb2dVertex
 10
69.34739801801976
 20
343.0796067516206
 30
0.0
 42
1.0
  0
VERTEX
  5
5CE9
330
5CE7
100
AcDbEntity
  8
LOGO
 62
     5
100
AcDbVertex
100
AcDb2dVertex
 10
67.50907223948525
 20
343.0796067516206
 30
0.0
 42
1.0
  0
SEQEND
  5
5CEA
330
5CE7
100
AcDbEntity
  8
LOGO
 62
     5
  0
POLYLINE
  5
5CEB
330
2
100
AcDbEntity
  8
LOGO
 62
     5
100
AcDb2dPolyline
 66
     1
 10
0.0
 20
0.0
 30
0.0
 40
0.6127752595113121
 41
0.6127752595113121
  0
VERTEX
  5
5CEC
330
5CEB
100
AcDbEntity
  8
LOGO
 62
     5
100
AcDbVertex
100
AcDb2dVertex
 10
71.18278247530622
 20
343.0796067516206
 30
0.0
 42
1.0
  0
VERTEX
  5
5CED
330
5CEB
100
AcDbEntity
  8
LOGO
 62
     5
100
AcDbVertex
100
AcDb2dVertex
 10
69.34445669677285
 20
343.0796067516206
 30
0.0
 42
1.0
  0
SEQEND
  5
5CEE
330
5CEB
100
AcDbEntity
  8
LOGO
 62
     5
  0
POLYLINE
  5
5CEF
330
2
100
AcDbEntity
  8
LOGO
 62
     5
100
AcDb2dPolyline
 66
     1
 10
0.0
 20
0.0
 30
0.0
 40
0.6127752595113121
 41
0.6127752595113121
  0
VERTEX
  5
5CF0
330
5CEF
100
AcDbEntity
  8
LOGO
 62
     5
100
AcDbVertex
100
AcDb2dVertex
 10
62.41368261527418
 20
343.0796067516206
 30
0.0
 42
1.0
  0
VERTEX
  5
5CF1
330
5CEF
100
AcDbEntity
  8
LOGO
 62
     5
100
AcDbVertex
100
AcDb2dVertex
 10
60.57535683674081
 20
343.0796067516206
 30
0.0
 42
1.0
  0
SEQEND
  5
5CF2
330
5CEF
100
AcDbEntity
  8
LOGO
 62
     5
  0
SOLID
  5
5CF3
330
2
100
AcDbEntity
  8
LOGO
 62
     5
100
AcDbTrace
 10
60.27093008781602
 20
344.3031963898127
 30
0.0
 11
60.88272490691096
 21
344.3031963898127
 31
0.0
 12
60.27093008781602
 22
341.2442222943326
 32
0.0
 13
60.88272490691096
 23
341.2442222943326
 33
0.0
  0
SOLID
  5
5CF4
330
2
100
AcDbEntity
  8
LOGO
 62
     5
100
AcDbTrace
 10
62.10631454510442
 20
343.0796067516206
 30
0.0
 11
62.71810936420132
 21
343.0796067516206
 31
0.0
 12
62.10631454510442
 22
341.2442222943326
 32
0.0
 13
62.71810936420132
 23
341.2442222943326
 33
0.0
  0
POLYLINE
  5
5CF5
330
2
100
AcDbEntity
  8
LOGO
 62
     5
100
AcDb2dPolyline
 66
     1
 10
0.0
 20
0.0
 30
0.0
 70
     1
 40
0.6127752595113121
 41
0.6127752595113121
  0
VERTEX
  5
5CF6
330
5CF5
100
AcDbEntity
  8
LOGO
 62
     5
100
AcDbVertex
100
AcDb2dVertex
 10
63.7358880878383
 20
342.7737093420721
 30
0.0
 42
1.0
  0
VERTEX
  5
5CF7
330
5CF5
100
AcDbEntity
  8
LOGO
 62
     5
100
AcDbVertex
100
AcDb2dVertex
 10
66.18698912588437
 20
342.7737093420721
 30
0.0
 42
1.0
  0
SEQEND
  5
5CF8
330
5CF5
100
AcDbEntity
  8
LOGO
 62
     5
  0
SOLID
  5
5CF9
330
2
100
AcDbEntity
  8
LOGO
 62
     5
100
AcDbTrace
 10
65.87906965602448
 20
345.2208886184574
 30
0.0
 11
66.49086447512025
 21
345.2208886184574
 31
0.0
 12
65.87906965602448
 22
341.2442222943326
 32
0.0
 13
66.49086447512025
 23
341.2442222943326
 33
0.0
  0
SOLID
  5
5CFA
330
2
100
AcDbEntity
  8
LOGO
 62
     5
100
AcDbTrace
 10
67.20464549056123
 20
344.3031963898127
 30
0.0
 11
67.81644030965617
 21
344.3031963898127
 31
0.0
 12
67.20464549056123
 22
341.2442222943326
 32
0.0
 13
67.81644030965617
 23
341.2442222943326
 33
0.0
  0
SOLID
  5
5CFB
330
2
100
AcDbEntity
  8
LOGO
 62
     5
100
AcDbTrace
 10
69.04002994784767
 20
343.0796067516206
 30
0.0
 11
69.65182476694457
 21
343.0796067516206
 31
0.0
 12
69.04002994784767
 22
341.2442222943326
 32
0.0
 13
69.65182476694457
 23
341.2442222943326
 33
0.0
  0
SOLID
  5
5CFC
330
2
100
AcDbEntity
  8
LOGO
 62
     5
100
AcDbTrace
 10
70.87541440513604
 20
343.0796067516206
 30
0.0
 11
71.48720922423217
 21
343.0796067516206
 31
0.0
 12
70.87541440513604
 22
341.2442222943318
 32
0.0
 13
71.48720922423217
 23
341.2442222943318
 33
0.0
  0
SOLID
  5
5CFD
330
2
100
AcDbEntity
  8
LOGO
 62
     5
100
AcDbTrace
 10
58.94535425328007
 20
344.7314527631802
 30
0.0
 11
59.55714907237776
 21
344.7314527631802
 31
0.0
 12
58.94535425328007
 22
345.2208886184574
 32
0.0
 13
59.55714907237776
 23
345.2208886184574
 33
0.0
  0
SOLID
  5
5CFE
330
2
100
AcDbEntity
  8
LOGO
 62
     5
100
AcDbTrace
 10
58.94535425328007
 20
344.3031963898127
 30
0.0
 11
59.55714907237776
 21
344.3031963898127
 31
0.0
 12
58.94535425328007
 22
341.2442222943318
 32
0.0
 13
59.55714907237776
 23
341.2442222943326
 33
0.0
  0
SOLID
  5
5CFF
330
2
100
AcDbEntity
  8
LOGO
 62
     5
100
AcDbTrace
 10
64.96143860686095
 20
347.3621704852932
 30
0.0
 11
66.73564358224027
 21
347.3621704852932
 31
0.0
 12
64.96143860686095
 22
356.3351611653688
 32
0.0
 13
66.73564358224027
 23
362.840579408424
 33
0.0
  0
SOLID
  5
5D00
330
2
100
AcDbEntity
  8
LOGO
 62
     5
100
AcDbTrace
 10
67.46979736515687
 20
364.1865280104351
 30
0.0
 11
69.24400234053425
 21
364.1865280104361
 31
0.0
 12
67.46979736515687
 22
348.7081190873043
 32
0.0
 13
69.24400234053425
 23
355.2135373303595
 33
0.0
  0
SOLID
  5
5D01
330
2
100
AcDbEntity
  8
LOGO
 62
     2
100
AcDbTrace
 10
66.73564358224027
 20
364.1865280104351
 30
0.0
 11
67.46979736515687
 21
364.1865280104351
 31
0.0
 12
66.73564358224027
 22
347.3621704852932
 32
0.0
 13
67.46979736515687
 23
347.3621704852932
 33
0.0
  0
SOLID
  5
5D02
330
2
100
AcDbEntity
  8
LOGO
 62
     5
100
AcDbTrace
 10
67.46979736515687
 20
348.7081190873043
 30
0.0
 11
69.24400234053425
 21
355.2135373303595
 31
0.0
 12
75.91256586868147
 22
364.1865280104361
 32
0.0
 13
74.13836089330368
 23
364.1865280104361
 33
0.0
  0
SOLID
  5
5D03
330
2
100
AcDbEntity
  8
LOGO
 62
     5
100
AcDbTrace
 10
67.46979736515687
 20
347.3621704852932
 30
0.0
 11
69.24400234053425
 21
347.3621704852932
 31
0.0
 12
75.91256586868147
 22
362.840579408424
 32
0.0
 13
74.13836089330368
 23
356.3351611653688
 33
0.0
  0
SOLID
  5
5D04
330
2
100
AcDbEntity
  8
LOGO
 62
     2
100
AcDbTrace
 10
66.73564358224027
 20
347.3621704852932
 30
0.0
 11
67.46979736515687
 21
347.3621704852932
 31
0.0
 12
75.91256586868147
 22
364.1865280104361
 32
0.0
 13
76.64671965159766
 23
364.1865280104351
 33
0.0
  0
LWPOLYLINE
  5
5D05
330
2
100
AcDbEntity
  8
LOGO
 62
     4
100
AcDbPolyline
 90
        4
 70
     1
 43
0.0
 10
51.52716699427346
 20
365.1612770242676
 10
321.903994262362
 20
365.1612770242676
 10
321.903994262362
 20
324.1272194677059
 10
51.52716699427346
 20
324.1272194677059
1001
GENIUS_GENREC_14
1002
{
1000
PYDIR
1011
51.52716699427346
1021
324.1272194677059
1031
0.0
1002
}
1002
{
1000
PXDIR
1011
321.903994262362
1021
365.1612770242676
1031
0.0
1002
}
1002
{
1000
PORI
1011
51.52716699427346
1021
365.1612770242676
1031
0.0
1002
}
1002
{
1000
PINS
1011
51.52716699427346
1021
365.1612770242676
1031
0.0
1002
}
1002
{
1000
PINS2
1011
321.903994262362
1021
324.1272194677059
1031
0.0
1002
}
1002
{
1000
C
1070
     1
1002
}
1001
GENIUS_GENOBJ-N-REC_13
1002
{
1000
OWNER
1000
GEN
1002
}
1001
GENIUS_GENODEF_13
1002
{
1000
HIER
1070
     0
1002
}
1002
{
1000
MANEDIT
1070
     0
1002
}
1002
{
1000
NOSEL
1070
     0
1002
}
1002
{
1000
BEHIND
1070
     0
1002
}
1002
{
1000
OTHER
1070
     0
1002
}
1002
{
1000
REACTOR
1002
}
  0
LINE
  5
5D06
330
2
100
AcDbEntity
  8
LOGO
 62
     4
100
AcDbLine
 10
236.478205098064
 20
342.5925453681596
 30
0.0
 11
236.478205098064
 21
327.5467242640863
 31
0.0
  0
LINE
  5
5D07
330
2
100
AcDbEntity
  8
LOGO
 62
     4
100
AcDbLine
 10
209.1221667270232
 20
342.5925453681596
 30
0.0
 11
209.1221667270232
 21
327.5467242640863
 31
0.0
  0
LINE
  5
5D08
330
2
100
AcDbEntity
  8
LOGO
 62
     4
100
AcDbLine
 10
236.478205098064
 20
327.5467242640863
 30
0.0
 11
209.1221667270232
 21
327.5467242640863
 31
0.0
  0
LINE
  5
5D09
330
2
100
AcDbEntity
  8
LOGO
 62
     4
100
AcDbLine
 10
242.02066034134
 20
361.0578712686113
 30
0.0
 11
198.2426186038307
 21
361.0578712686113
 31
0.0
  0
LINE
  5
5D0A
330
2
100
AcDbEntity
  8
LOGO
 62
     4
100
AcDbLine
 10
242.02066034134
 20
348.7476540016431
 30
0.0
 11
198.2426186038307
 21
348.7476540016431
 31
0.0
  0
LINE
  5
5D0B
330
2
100
AcDbEntity
  8
LOGO
 62
     4
100
AcDbLine
 10
198.2426186038307
 20
361.0578712686113
 30
0.0
 11
198.2426186038307
 21
348.7476540016431
 31
0.0
  0
LINE
  5
5D0C
330
2
100
AcDbEntity
  8
LOGO
 62
     4
100
AcDbLine
 10
242.02066034134
 20
361.0578712686113
 30
0.0
 11
242.02066034134
 21
348.7476540016431
 31
0.0
  0
LINE
  5
5D0D
330
2
100
AcDbEntity
  8
LOGO
 62
     4
100
AcDbLine
 10
224.2274840166847
 20
348.7476540016431
 30
0.0
 11
224.2274840166847
 21
342.5925453681596
 31
0.0
  0
TEXT
  5
5D0E
330
2
100
AcDbEntity
  8
LOGO
  6
Continuous
 62
     7
100
AcDbText
 10
200.4299514168813
 20
351.317393858587
 30
0.0
 40
7.182
  1
MAR401
  7
CHINESET
100
AcDbText
  0
LINE
  5
5D0F
330
2
100
AcDbEntity
  8
LOGO
 62
     4
100
AcDbLine
 10
236.478205098064
 20
342.5925453681596
 30
0.0
 11
209.1221667270232
 21
342.5925453681596
 31
0.0
  0
TEXT
  5
5D10
330
2
100
AcDbEntity
  8
LOGO
  6
Continuous
100
AcDbText
 10
217.9006328323905
 20
329.6704100075215
 30
268.9304532596222
 40
3.077999999999999
  1
Model
 41
0.8
  7
CHINESET
100
AcDbText
  0
TEXT
  5
5D11
330
2
100
AcDbEntity
  8
LOGO
100
AcDbText
 10
217.0813692920164
 20
335.3763586511764
 30
268.9304532596222
 40
5.129999999999999
  1
型號
  7
CHINESET
100
AcDbText
  0
LINE
  5
5D12
330
2
100
AcDbEntity
  8
LOGO
  6
Continuous
 62
     7
100
AcDbLine
 10
244.8607997127196
 20
354.8591579000937
 30
0.0
 11
250.2965424779434
 21
354.8591579000937
 31
0.0
  0
LINE
  5
5D13
330
2
100
AcDbEntity
  8
LOGO
 62
     4
100
AcDbLine
 10
280.0932454976782
 20
342.5925453681596
 30
0.0
 11
280.0932454976782
 21
327.5467242640863
 31
0.0
  0
LINE
  5
5D14
330
2
100
AcDbEntity
  8
LOGO
 62
     4
100
AcDbLine
 10
243.770610027865
 20
342.5925453681596
 30
0.0
 11
243.770610027865
 21
327.5467242640863
 31
0.0
  0
LINE
  5
5D15
330
2
100
AcDbEntity
  8
LOGO
 62
     4
100
AcDbLine
 10
280.0932454976782
 20
327.5467242640863
 30
0.0
 11
243.770610027865
 21
327.5467242640863
 31
0.0
  0
LINE
  5
5D16
330
2
100
AcDbEntity
  8
LOGO
 62
     4
100
AcDbLine
 10
273.0462736701609
 20
361.0578712686113
 30
0.0
 11
252.0112327852705
 21
361.0578712686113
 31
0.0
  0
LINE
  5
5D17
330
2
100
AcDbEntity
  8
LOGO
 62
     4
100
AcDbLine
 10
273.0462736701609
 20
348.7476540016431
 30
0.0
 11
252.0112327852705
 21
348.7476540016431
 31
0.0
  0
LINE
  5
5D18
330
2
100
AcDbEntity
  8
LOGO
 62
     4
100
AcDbLine
 10
252.0112327852705
 20
361.0578712686113
 30
0.0
 11
252.0112327852705
 21
348.7476540016431
 31
0.0
  0
LINE
  5
5D19
330
2
100
AcDbEntity
  8
LOGO
 62
     4
100
AcDbLine
 10
273.0462736701609
 20
361.0578712686113
 30
0.0
 11
273.0462736701609
 21
348.7476540016431
 31
0.0
  0
LINE
  5
5D1A
330
2
100
AcDbEntity
  8
LOGO
 62
     4
100
AcDbLine
 10
261.4694005733269
 20
348.7476540016431
 30
0.0
 11
261.4694005733269
 21
342.5925453681596
 31
0.0
  0
TEXT
  5
5D1B
330
2
100
AcDbEntity
  8
LOGO
  6
Continuous
 62
     7
100
AcDbText
 10
257.4126194201873
 20
351.317393858587
 30
0.0
 40
7.182
  1
*A
  7
CHINESET
100
AcDbText
  0
LINE
  5
5D1C
330
2
100
AcDbEntity
  8
LOGO
 62
     4
100
AcDbLine
 10
280.0932454976782
 20
342.5925453681596
 30
0.0
 11
243.770610027865
 21
342.5925453681596
 31
0.0
  0
TEXT
  5
5D1D
330
2
100
AcDbEntity
  8
LOGO
  6
Continuous
100
AcDbText
 10
253.2675488589528
 20
329.6704100075215
 30
268.9304532596222
 40
3.077999999999999
  1
Bore size
 41
0.8
  7
CHINESET
100
AcDbText
  0
TEXT
  5
5D1E
330
2
100
AcDbEntity
  8
LOGO
100
AcDbText
 10
246.4698981098061
 20
335.3763586511764
 30
268.9304532596222
 40
5.129999999999999
  1
配管口徑代號
  7
CHINESET
100
AcDbText
  0
TEXT
  5
5D1F
330
2
100
AcDbEntity
  8
LOGO
100
AcDbText
 10
143.1561446519277
 20
326.310215133833
 30
0.0
 40
4.104
  1
20809252
 41
0.7
  7
CHINESET
 72
     1
 11
153.6897446519277
 21
326.310215133833
 31
0.0
100
AcDbText
  0
LINE
  5
5D20
330
2
100
AcDbEntity
  8
LOGO
 62
     4
100
AcDbLine
 10
166.4260936187059
 20
332.3340309790195
 30
0.0
 11
166.4260936187079
 21
324.1272194677068
 31
0.0
  0
LINE
  5
5D21
330
2
100
AcDbEntity
  8
LOGO
 62
     4
100
AcDbLine
 10
166.4260936187059
 20
332.3340309790195
 30
0.0
 11
141.8020936187081
 21
332.3340309790195
 31
0.0
  0
CIRCLE
  5
5D22
330
2
100
AcDbEntity
  8
LOGO
  6
Continuous
100
AcDbCircle
 10
122.0440242501429
 20
352.8598369722388
 30
0.0
 40
2.382533965017935
  0
CIRCLE
  5
5D23
330
2
100
AcDbEntity
  8
LOGO
  6
Continuous
100
AcDbCircle
 10
122.0440242501429
 20
352.8598369722388
 30
0.0
 40
1.395953989701805
  0
LINE
  5
5D24
330
2
100
AcDbEntity
  8
LOGO
100
AcDbLine
 10
137.0161441438657
 20
350.4773030072203
 30
0.0
 11
137.0161441438657
 21
355.2423709372572
 31
0.0
  0
LINE
  5
5D25
330
2
100
AcDbEntity
  8
LOGO
100
AcDbLine
 10
129.5470369275099
 20
351.4638829825372
 30
0.0
 11
129.5470369275099
 21
354.2557909619408
 31
0.0
  0
LINE
  5
5D26
330
2
100
AcDbEntity
  8
LOGO
  6
Continuous
100
AcDbLine
 10
129.5470369275099
 20
354.2557909619408
 30
0.0
 11
137.0161441438657
 21
355.2423709372572
 31
0.0
  0
LINE
  5
5D27
330
2
100
AcDbEntity
  8
LOGO
  6
Continuous
100
AcDbLine
 10
129.5470369275099
 20
351.4638829825372
 30
0.0
 11
137.0161441438657
 21
350.4773030072203
 31
0.0
  0
LINE
  5
5D28
330
2
100
AcDbEntity
  8
LOGO
  6
AM_ISO08W050x2
 48
0.3
100
AcDbLine
 10
118.7596655037286
 20
352.8598369722388
 30
0.0
 11
125.3283829965568
 21
352.8598369722388
 31
0.0
1001
GENIUS_GENOREF_13
1005
5D2D
  0
LINE
  5
5D29
330
2
100
AcDbEntity
  8
LOGO
  6
AM_ISO08W050x2
 48
0.3
100
AcDbLine
 10
122.0440242501429
 20
349.5754782258247
 30
0.0
 11
122.0440242501429
 21
356.1441957186527
 31
0.0
1001
GENIUS_GENOREF_13
1005
5D2C
  0
LINE
  5
5D2A
330
2
100
AcDbEntity
  8
LOGO
  6
CENTER
 48
0.5
100
AcDbLine
 10
128.9497159530652
 20
352.8598369722388
 30
0.0
 11
137.768259061806
 21
352.8598369722388
 31
0.0
1001
GENIUS_GENOREF_13
1005
5D2B
  0
POINT
  5
5D2B
330
2
100
AcDbEntity
  8
0
 60
     1
100
AcDbPoint
 10
340.5549399683128
 20
627.8899463475538
 30
0.0
1001
GENIUS_GENOBJ-N-CRS_13
1002
{
1000
OWNER
1000
GEN
1002
}
1001
GENIUS_GENOLIS_13
1002
{
1000
ENT
1005
0
1005
0
1005
0
1005
5D2A
1002
}
1001
GENIUS_GENOENT_13
1002
{
1000
MYREF
1005
5D2B
1002
}
1002
{
1000
GRP
1005
0
1002
}
1001
GENIUS_GENODEF_13
1002
{
1000
HIER
1070
    10
1002
}
1002
{
1000
MANEDIT
1070
     1
1002
}
1002
{
1000
NOSEL
1070
     0
1002
}
1002
{
1000
BEHIND
1070
     0
1002
}
1002
{
1000
OTHER
1070
     0
1002
}
1002
{
1000
REACTOR
1002
}
  0
POINT
  5
5D2C
330
2
100
AcDbEntity
  8
0
 60
     1
100
AcDbPoint
 10
329.230354745458
 20
636.7655328261901
 30
0.0
1001
GENIUS_GENOBJ-N-CRS_13
1002
{
1000
OWNER
1000
GEN
1002
}
1001
GENIUS_GENOLIS_13
1002
{
1000
ENT
1005
0
1005
0
1005
0
1005
5D29
1002
}
1001
GENIUS_GENOENT_13
1002
{
1000
MYREF
1005
5D2C
1002
}
1002
{
1000
GRP
1005
0
1002
}
1001
GENIUS_GENODEF_13
1002
{
1000
HIER
1070
    10
1002
}
1002
{
1000
MANEDIT
1070
     1
1002
}
1002
{
1000
NOSEL
1070
     0
1002
}
1002
{
1000
BEHIND
1070
     0
1002
}
1002
{
1000
OTHER
1070
     0
1002
}
1002
{
1000
REACTOR
1002
}
  0
POINT
  5
5D2D
330
2
100
AcDbEntity
  8
0
 60
     1
100
AcDbPoint
 10
335.5890284432949
 20
627.8899463475538
 30
0.0
1001
GENIUS_GENOBJ-N-CRS_13
1002
{
1000
OWNER
1000
GEN
1002
}
1001
GENIUS_GENOLIS_13
1002
{
1000
ENT
1005
0
1005
0
1005
0
1005
5D28
1002
}
1001
GENIUS_GENOENT_13
1002
{
1000
MYREF
1005
5D2D
1002
}
1002
{
1000
GRP
1005
0
1002
}
1001
GENIUS_GENODEF_13
1002
{
1000
HIER
1070
    10
1002
}
1002
{
1000
MANEDIT
1070
     1
1002
}
1002
{
1000
NOSEL
1070
     0
1002
}
1002
{
1000
BEHIND
1070
     0
1002
}
1002
{
1000
OTHER
1070
     0
1002
}
1002
{
1000
REACTOR
1002
}
  0
LINE
  5
6CFC
330
2
100
AcDbEntity
  8
AM_7
100
AcDbLine
 10
109.0330833134852
 20
482.2486919897415
 30
0.0
 11
109.0330833134852
 21
479.2486919897416
 31
0.0
  0
LINE
  5
6CFD
330
2
100
AcDbEntity
  8
AM_7
100
AcDbLine
 10
109.0330833134852
 20
479.2486919897416
 30
0.0
 11
109.0330833134852
 21
476.2486919897416
 31
0.0
  0
LINE
  5
6CFE
330
2
100
AcDbEntity
  8
AM_7
100
AcDbLine
 10
147.0330833134852
 20
479.2486919897416
 30
0.0
 11
147.0330833134852
 21
476.2486919897416
 31
0.0
  0
LINE
  5
6CFF
330
2
100
AcDbEntity
  8
AM_7
100
AcDbLine
 10
147.0330833134852
 20
482.2486919897415
 30
0.0
 11
147.0330833134852
 21
479.2486919897416
 31
0.0
  0
LINE
  5
6D00
330
2
100
AcDbEntity
  8
AM_7
100
AcDbLine
 10
127.5330833134852
 20
450.2486919897416
 30
0.0
 11
128.5330833134852
 21
450.2486919897416
 31
0.0
  0
LINE
  5
6D01
330
2
100
AcDbEntity
  8
AM_7
100
AcDbLine
 10
128.0330833134852
 20
449.7486919897416
 30
0.0
 11
128.0330833134852
 21
450.7486919897416
 31
0.0
  0
LINE
  5
6D02
330
2
100
AcDbEntity
  8
AM_7
100
AcDbLine
 10
116.5330833134852
 20
450.2486919897416
 30
0.0
 11
125.5330833134852
 21
450.2486919897416
 31
0.0
  0
LINE
  5
6D03
330
2
100
AcDbEntity
  8
AM_7
100
AcDbLine
 10
130.5330833134852
 20
450.2486919897416
 30
0.0
 11
139.5330833134852
 21
450.2486919897416
 31
0.0
  0
LINE
  5
6D04
330
2
100
AcDbEntity
  8
AM_7
100
AcDbLine
 10
128.0330833134852
 20
438.7486919897416
 30
0.0
 11
128.0330833134852
 21
447.7486919897415
 31
0.0
  0
LINE
  5
6D05
330
2
100
AcDbEntity
  8
AM_7
100
AcDbLine
 10
128.0330833134852
 20
452.7486919897415
 30
0.0
 11
128.0330833134852
 21
461.7486919897415
 31
0.0
  0
LINE
  5
6D06
330
2
100
AcDbEntity
  8
AM_7
100
AcDbLine
 10
137.5330833134852
 20
460.2486919897415
 30
0.0
 11
138.5330833134852
 21
460.2486919897415
 31
0.0
  0
LINE
  5
6D07
330
2
100
AcDbEntity
  8
AM_7
100
AcDbLine
 10
138.0330833134852
 20
459.7486919897415
 30
0.0
 11
138.0330833134852
 21
460.7486919897415
 31
0.0
  0
LINE
  5
6D08
330
2
100
AcDbEntity
  8
AM_7
100
AcDbLine
 10
134.2830833134852
 20
460.2486919897415
 30
0.0
 11
135.5330833134852
 21
460.2486919897415
 31
0.0
  0
LINE
  5
6D09
330
2
100
AcDbEntity
  8
AM_7
100
AcDbLine
 10
140.5330833134852
 20
460.2486919897415
 30
0.0
 11
141.7830833134852
 21
460.2486919897415
 31
0.0
  0
LINE
  5
6D0A
330
2
100
AcDbEntity
  8
AM_7
100
AcDbLine
 10
138.0330833134852
 20
456.4986919897416
 30
0.0
 11
138.0330833134852
 21
457.7486919897416
 31
0.0
  0
LINE
  5
6D0B
330
2
100
AcDbEntity
  8
AM_7
100
AcDbLine
 10
138.0330833134852
 20
462.7486919897416
 30
0.0
 11
138.0330833134852
 21
463.9986919897416
 31
0.0
  0
LINE
  5
6D0C
330
2
100
AcDbEntity
  8
AM_7
100
AcDbLine
 10
117.5330833134852
 20
440.2486919897415
 30
0.0
 11
118.5330833134852
 21
440.2486919897415
 31
0.0
  0
LINE
  5
6D0D
330
2
100
AcDbEntity
  8
AM_7
100
AcDbLine
 10
118.0330833134852
 20
439.7486919897415
 30
0.0
 11
118.0330833134852
 21
440.7486919897415
 31
0.0
  0
LINE
  5
6D0E
330
2
100
AcDbEntity
  8
AM_7
100
AcDbLine
 10
114.2830833134852
 20
440.2486919897415
 30
0.0
 11
115.5330833134852
 21
440.2486919897415
 31
0.0
  0
LINE
  5
6D0F
330
2
100
AcDbEntity
  8
AM_7
100
AcDbLine
 10
120.5330833134852
 20
440.2486919897415
 30
0.0
 11
121.7830833134852
 21
440.2486919897415
 31
0.0
  0
LINE
  5
6D10
330
2
100
AcDbEntity
  8
AM_7
100
AcDbLine
 10
118.0330833134852
 20
436.4986919897416
 30
0.0
 11
118.0330833134852
 21
437.7486919897416
 31
0.0
  0
LINE
  5
6D11
330
2
100
AcDbEntity
  8
AM_7
100
AcDbLine
 10
118.0330833134852
 20
442.7486919897416
 30
0.0
 11
118.0330833134852
 21
443.9986919897416
 31
0.0
  0
LINE
  5
6D12
330
2
100
AcDbEntity
  8
AM_7
100
AcDbLine
 10
128.0330833134852
 20
435.7617804638954
 30
0.0
 11
128.0330833134852
 21
410.6301386197706
 31
0.0
  0
LINE
  5
6D13
330
2
100
AcDbEntity
  8
AM_7
100
AcDbLine
 10
128.0330833134851
 20
476.7486919897415
 30
0.0
 11
128.0330833134851
 21
541.2486919897416
 31
0.0
  0
LINE
  5
6D14
330
2
100
AcDbEntity
  8
AM_7
100
AcDbLine
 10
222.3666008809082
 20
479.2486919897416
 30
0.0
 11
222.3666008809082
 21
476.2486919897416
 31
0.0
  0
LINE
  5
6D15
330
2
100
AcDbEntity
  8
AM_7
100
AcDbLine
 10
260.3666008809081
 20
482.2486919897415
 30
0.0
 11
260.3666008809081
 21
479.2486919897416
 31
0.0
  0
LINE
  5
6D16
330
2
100
AcDbEntity
  8
AM_7
100
AcDbLine
 10
281.0737076620947
 20
482.0268530132165
 30
0.0
 11
276.5884398574333
 21
477.5415852085551
 31
0.0
  0
LINE
  5
6D17
330
2
100
AcDbEntity
  8
AM_7
100
AcDbLine
 10
206.3666008809081
 20
450.2486919897416
 30
0.0
 11
203.7666008809082
 21
450.2486919897416
 31
0.0
  0
LINE
  5
6D18
330
2
100
AcDbEntity
  8
AM_7
100
AcDbLine
 10
241.3666008809081
 20
460.2486919897415
 30
0.0
 11
241.3666008809081
 21
439.2486919897415
 31
0.0
  0
LINE
  5
6D19
330
2
100
AcDbEntity
  8
AM_7
100
AcDbLine
 10
241.3666008809082
 20
455.7486919897415
 30
0.0
 11
241.3666008809082
 21
456.7486919897415
 31
0.0
  0
LINE
  5
6D1A
330
2
100
AcDbEntity
  8
AM_7
100
AcDbLine
 10
241.3666008809082
 20
452.2486919897415
 30
0.0
 11
241.3666008809082
 21
453.7486919897416
 31
0.0
  0
LINE
  5
6D1B
330
2
100
AcDbEntity
  8
AM_7
100
AcDbLine
 10
241.3666008809082
 20
458.7486919897416
 30
0.0
 11
241.3666008809082
 21
460.2486919897415
 31
0.0
  0
LINE
  5
6D1C
330
2
100
AcDbEntity
  8
AM_7
100
AcDbLine
 10
240.8666008809082
 20
450.2486919897416
 30
0.0
 11
241.8666008809082
 21
450.2486919897416
 31
0.0
  0
LINE
  5
6D1D
330
2
100
AcDbEntity
  8
AM_7
100
AcDbLine
 10
241.3666008809082
 20
449.7486919897416
 30
0.0
 11
241.3666008809082
 21
450.7486919897416
 31
0.0
  0
LINE
  5
6D1E
330
2
100
AcDbEntity
  8
AM_7
100
AcDbLine
 10
231.4058663033701
 20
450.2486919897416
 30
0.0
 11
238.8666008809082
 21
450.2486919897416
 31
0.0
  0
LINE
  5
6D1F
330
2
100
AcDbEntity
  8
AM_7
100
AcDbLine
 10
243.8666008809082
 20
450.2486919897416
 30
0.0
 11
251.3273354584463
 21
450.2486919897416
 31
0.0
  0
LINE
  5
6D20
330
2
100
AcDbEntity
  8
AM_7
100
AcDbLine
 10
241.3666008809082
 20
440.2879574122033
 30
0.0
 11
241.3666008809082
 21
447.7486919897415
 31
0.0
  0
LINE
  5
6D21
330
2
100
AcDbEntity
  8
AM_7
100
AcDbLine
 10
241.3666008809082
 20
452.7486919897415
 30
0.0
 11
241.3666008809082
 21
460.2094265672798
 31
0.0
  0
LINE
  5
6D22
330
2
100
AcDbEntity
  8
AM_7
100
AcDbLine
 10
108.5330833134852
 20
662.0836037474715
 30
0.0
 11
109.5330833134852
 21
662.0836037474715
 31
0.0
  0
LINE
  5
6D23
330
2
100
AcDbEntity
  8
AM_7
100
AcDbLine
 10
109.0330833134852
 20
661.5836037474715
 30
0.0
 11
109.0330833134852
 21
662.5836037474715
 31
0.0
  0
LINE
  5
6D24
330
2
100
AcDbEntity
  8
AM_7
100
AcDbLine
 10
103.0330833134852
 20
662.0836037474715
 30
0.0
 11
106.5330833134852
 21
662.0836037474715
 31
0.0
  0
LINE
  5
6D25
330
2
100
AcDbEntity
  8
AM_7
100
AcDbLine
 10
111.5330833134852
 20
662.0836037474715
 30
0.0
 11
115.0330833134852
 21
662.0836037474715
 31
0.0
  0
LINE
  5
6D26
330
2
100
AcDbEntity
  8
AM_7
100
AcDbLine
 10
109.0330833134852
 20
656.0836037474715
 30
0.0
 11
109.0330833134852
 21
659.5836037474716
 31
0.0
  0
LINE
  5
6D27
330
2
100
AcDbEntity
  8
AM_7
100
AcDbLine
 10
109.0330833134852
 20
664.5836037474715
 30
0.0
 11
109.0330833134852
 21
668.0836037474715
 31
0.0
  0
LINE
  5
6D28
330
2
100
AcDbEntity
  8
AM_7
100
AcDbLine
 10
108.5330833134852
 20
624.0836037474715
 30
0.0
 11
109.5330833134852
 21
624.0836037474715
 31
0.0
  0
LINE
  5
6D29
330
2
100
AcDbEntity
  8
AM_7
100
AcDbLine
 10
109.0330833134852
 20
623.5836037474715
 30
0.0
 11
109.0330833134852
 21
624.5836037474715
 31
0.0
  0
LINE
  5
6D2A
330
2
100
AcDbEntity
  8
AM_7
100
AcDbLine
 10
103.0330833134852
 20
624.0836037474715
 30
0.0
 11
106.5330833134852
 21
624.0836037474715
 31
0.0
  0
LINE
  5
6D2B
330
2
100
AcDbEntity
  8
AM_7
100
AcDbLine
 10
111.5330833134852
 20
624.0836037474715
 30
0.0
 11
115.0330833134852
 21
624.0836037474715
 31
0.0
  0
LINE
  5
6D2C
330
2
100
AcDbEntity
  8
AM_7
100
AcDbLine
 10
109.0330833134852
 20
618.0836037474715
 30
0.0
 11
109.0330833134852
 21
621.5836037474716
 31
0.0
  0
LINE
  5
6D2D
330
2
100
AcDbEntity
  8
AM_7
100
AcDbLine
 10
109.0330833134852
 20
626.5836037474715
 30
0.0
 11
109.0330833134852
 21
630.0836037474716
 31
0.0
  0
LINE
  5
6D2E
330
2
100
AcDbEntity
  8
AM_7
100
AcDbLine
 10
146.5330833134852
 20
624.0836037474715
 30
0.0
 11
147.5330833134852
 21
624.0836037474715
 31
0.0
  0
LINE
  5
6D2F
330
2
100
AcDbEntity
  8
AM_7
100
AcDbLine
 10
147.0330833134852
 20
623.5836037474715
 30
0.0
 11
147.0330833134852
 21
624.5836037474715
 31
0.0
  0
LINE
  5
6D30
330
2
100
AcDbEntity
  8
AM_7
100
AcDbLine
 10
141.0330833134852
 20
624.0836037474715
 30
0.0
 11
144.5330833134852
 21
624.0836037474715
 31
0.0
  0
LINE
  5
6D31
330
2
100
AcDbEntity
  8
AM_7
100
AcDbLine
 10
149.5330833134852
 20
624.0836037474715
 30
0.0
 11
153.0330833134852
 21
624.0836037474715
 31
0.0
  0
LINE
  5
6D32
330
2
100
AcDbEntity
  8
AM_7
100
AcDbLine
 10
147.0330833134852
 20
618.0836037474715
 30
0.0
 11
147.0330833134852
 21
621.5836037474716
 31
0.0
  0
LINE
  5
6D33
330
2
100
AcDbEntity
  8
AM_7
100
AcDbLine
 10
147.0330833134852
 20
626.5836037474715
 30
0.0
 11
147.0330833134852
 21
630.0836037474716
 31
0.0
  0
LINE
  5
6D34
330
2
100
AcDbEntity
  8
AM_7
100
AcDbLine
 10
146.5330833134852
 20
662.0836037474715
 30
0.0
 11
147.5330833134852
 21
662.0836037474715
 31
0.0
  0
LINE
  5
6D35
330
2
100
AcDbEntity
  8
AM_7
100
AcDbLine
 10
147.0330833134852
 20
661.5836037474715
 30
0.0
 11
147.0330833134852
 21
662.5836037474715
 31
0.0
  0
LINE
  5
6D36
330
2
100
AcDbEntity
  8
AM_7
100
AcDbLine
 10
141.0330833134852
 20
662.0836037474715
 30
0.0
 11
144.5330833134852
 21
662.0836037474715
 31
0.0
  0
LINE
  5
6D37
330
2
100
AcDbEntity
  8
AM_7
100
AcDbLine
 10
149.5330833134852
 20
662.0836037474715
 30
0.0
 11
153.0330833134852
 21
662.0836037474715
 31
0.0
  0
LINE
  5
6D38
330
2
100
AcDbEntity
  8
AM_7
100
AcDbLine
 10
147.0330833134852
 20
656.0836037474715
 30
0.0
 11
147.0330833134852
 21
659.5836037474716
 31
0.0
  0
LINE
  5
6D39
330
2
100
AcDbEntity
  8
AM_7
100
AcDbLine
 10
147.0330833134852
 20
664.5836037474715
 30
0.0
 11
147.0330833134852
 21
668.0836037474715
 31
0.0
  0
LINE
  5
6D3A
330
2
100
AcDbEntity
  8
AM_7
100
AcDbLine
 10
128.0330833134852
 20
608.0836037474715
 30
0.0
 11
128.0330833134852
 21
605.4836037474716
 31
0.0
  0
LINE
  5
6D3B
330
2
100
AcDbEntity
  8
AM_7
100
AcDbLine
 10
127.5330833134852
 20
643.0836037474717
 30
0.0
 11
128.5330833134852
 21
643.0836037474717
 31
0.0
  0
LINE
  5
6D3C
330
2
100
AcDbEntity
  8
AM_7
100
AcDbLine
 10
128.0330833134852
 20
642.5836037474717
 30
0.0
 11
128.0330833134852
 21
643.5836037474717
 31
0.0
  0
LINE
  5
6D3D
330
2
100
AcDbEntity
  8
AM_7
100
AcDbLine
 10
103.0330833134851
 20
643.0836037474717
 30
0.0
 11
125.5330833134852
 21
643.0836037474717
 31
0.0
  0
LINE
  5
6D3E
330
2
100
AcDbEntity
  8
AM_7
100
AcDbLine
 10
130.5330833134852
 20
643.0836037474717
 30
0.0
 11
153.0330833134852
 21
643.0836037474717
 31
0.0
  0
LINE
  5
6D3F
330
2
100
AcDbEntity
  8
AM_7
100
AcDbLine
 10
128.0330833134852
 20
618.0836037474715
 30
0.0
 11
128.0330833134852
 21
640.5836037474718
 31
0.0
  0
LINE
  5
6D40
330
2
100
AcDbEntity
  8
AM_7
100
AcDbLine
 10
128.0330833134852
 20
645.5836037474718
 30
0.0
 11
128.0330833134852
 21
668.0836037474717
 31
0.0
  0
DIMENSION
  5
6D41
330
2
100
AcDbEntity
  8
AM_REFDIM
100
AcDbDimension
  2
*D32
 10
161.0330833134852
 20
576.2486919897416
 30
0.0
 11
128.0330833134852
 21
576.2486919897416
 31
0.0
 70
   160
 71
     5
 42
66.0
  3
AM_ISO$0
100
AcDbAlignedDimension
 13
95.03308331348524
 23
492.2486919897416
 33
0.0
 14
161.0330833134852
 24
492.2486919897416
 34
0.0
100
AcDbRotatedDimension
  0
LINE
  5
6D42
330
2
100
AcDbEntity
  8
AM_7
100
AcDbLine
 10
106.0330833134852
 20
496.5047329597409
 30
0.0
 11
106.0330833134852
 21
488.3927921767116
 31
0.0
  0
LINE
  5
6D43
330
2
100
AcDbEntity
  8
AM_7
100
AcDbLine
 10
98.99499251339477
 20
492.2486919897416
 30
0.0
 11
111.1880319297651
 21
492.2486919897416
 31
0.0
  0
LINE
  5
6D44
330
2
100
AcDbEntity
  8
AM_7
100
AcDbLine
 10
150.0330833134855
 20
496.504732959741
 30
0.0
 11
150.0330833134855
 21
488.3927921767116
 31
0.0
  0
LINE
  5
6D45
330
2
100
AcDbEntity
  8
AM_7
100
AcDbLine
 10
157.071174113576
 20
492.2486919897416
 30
0.0
 11
144.8781346972057
 21
492.2486919897416
 31
0.0
  0
DIMENSION
  5
6D46
330
2
100
AcDbEntity
  8
AM_REFDIM
100
AcDbDimension
  2
*D33
 10
150.0330833134855
 20
564.2486919897415
 30
0.0
 11
128.0330833134854
 21
564.2486919897415
 31
0.0
 70
   160
 71
     5
 42
44.00000000000034
  3
AM_ISO$0
100
AcDbAlignedDimension
 13
106.0330833134852
 23
496.5047329597409
 33
0.0
 14
150.0330833134855
 24
496.504732959741
 34
0.0
100
AcDbRotatedDimension
  0
DIMENSION
  5
6D47
330
2
100
AcDbEntity
  8
AM_REFDIM
100
AcDbDimension
  2
*D34
 10
185.0330833134852
 20
607.0836037474715
 30
0.0
 11
179.5330833134851
 21
645.0836037474715
 31
0.0
 70
    32
 71
     5
 42
76.0
  3
AM_ISO$0
100
AcDbAlignedDimension
 13
161.0330833134852
 23
683.0836037474715
 33
0.0
 14
141.5330833134852
 24
607.0836037474715
 34
0.0
 50
90.0
100
AcDbRotatedDimension
  0
DIMENSION
  5
6D48
330
2
100
AcDbEntity
  8
AM_REFDIM
100
AcDbDimension
  2
*D35
 10
281.3666008809081
 20
564.2486919897415
 30
0.0
 11
261.3666008809081
 21
564.2486919897415
 31
0.0
 70
   160
 71
     5
 42
40.00000000000011
  3
AM_ISO$0
100
AcDbAlignedDimension
 13
241.366600880908
 23
491.2486919897416
 33
0.0
 14
281.3666008809081
 24
500.2486919897416
 34
0.0
100
AcDbRotatedDimension
  0
LINE
  5
6D49
330
2
100
AcDbEntity
  8
AM_7
100
AcDbLine
 10
277.3666008809081
 20
492.2486919897416
 30
0.0
 11
282.3666008809081
 21
492.2486919897416
 31
0.0
  0
LINE
  5
6D4A
330
2
100
AcDbEntity
  8
AM_7
100
AcDbLine
 10
241.3666008809081
 20
410.6301386197706
 30
0.0
 11
241.3666008809081
 21
435.7617804638954
 31
0.0
  0
LINE
  5
6D4B
330
2
100
AcDbEntity
  8
AM_7
100
AcDbLine
 10
241.366600880908
 20
476.7486919897415
 30
0.0
 11
241.366600880908
 21
541.2486919897416
 31
0.0
  0
DIMENSION
  5
6D4C
330
2
100
AcDbEntity
  8
AM_REFDIM
100
AcDbDimension
  2
*D36
 10
205.3666008809081
 20
564.2486919897415
 30
0.0
 11
223.366600880908
 21
569.7486919897415
 31
0.0
 70
    32
 71
     5
 42
35.99999999999989
  3
AM_ISO$0
100
AcDbAlignedDimension
 13
241.366600880908
 23
541.2486919897416
 33
0.0
 14
205.3666008809081
 24
463.7486919897416
 34
0.0
100
AcDbRotatedDimension
  0
DIMENSION
  5
6D4D
330
2
100
AcDbEntity
  8
AM_REFDIM
100
AcDbDimension
  2
*D37
 10
297.3985293935009
 20
492.2486919897416
 30
0.0
 11
291.8978404171229
 21
471.2486919897416
 31
0.0
 70
    32
 71
     5
 42
42.0
  3
AM_ISO$0
100
AcDbAlignedDimension
 13
251.3273354584463
 23
450.2486919897416
 33
0.0
 14
282.3666008809081
 24
492.2486919897416
 34
0.0
 50
90.0
100
AcDbRotatedDimension
1001
ACAD
1000
DSTYLE
1002
{
1070
   174
1070
     1
1002
}
  0
DIMENSION
  5
6D4E
330
2
100
AcDbEntity
  8
AM_REFDIM
100
AcDbDimension
  2
*D38
 10
297.398529393501
 20
450.2486919897416
 30
0.0
 11
297.3985293935009
 21
430.7486919897415
 31
0.0
 70
   160
 71
     5
 42
39.0
  3
AM_ISO$0
100
AcDbAlignedDimension
 13
259.4417455755382
 23
411.2486919897415
 33
0.0
 14
251.3273354584463
 24
450.2486919897416
 34
0.0
 50
90.0
100
AcDbRotatedDimension
1001
ACAD
1000
DSTYLE
1002
{
1070
   174
1070
     1
1002
}
  0
DIMENSION
  5
6D4F
330
2
100
AcDbEntity
  8
AM_REFDIM
100
AcDbDimension
  2
*D39
 10
76.84100389272794
 20
450.2486919897416
 30
0.0
 11
71.34100389272787
 21
495.2486919897416
 31
0.0
 70
    32
 71
     5
 42
90.0
  3
AM_ISO$0
100
AcDbAlignedDimension
 13
109.0330833134852
 23
540.2486919897415
 33
0.0
 14
116.5330833134852
 24
450.2486919897416
 34
0.0
 50
90.0
100
AcDbRotatedDimension
1001
ACAD
1000
DSTYLE
1002
{
1070
   174
1070
     1
1002
}
  0
DIMENSION
  5
6D50
330
2
100
AcDbEntity
  8
AM_REFDIM
100
AcDbDimension
  2
*D40
 10
76.84100389272799
 20
411.2486919897415
 30
0.0
 11
76.84100389272794
 21
430.7486919897415
 31
0.0
 70
   160
 71
     5
 42
39.0
  3
AM_ISO$0
100
AcDbAlignedDimension
 13
116.5330833134852
 23
450.2486919897416
 33
0.0
 14
109.9579386188551
 24
411.2486919897415
 34
0.0
 50
90.0
100
AcDbRotatedDimension
1001
ACAD
1000
DSTYLE
1002
{
1070
   174
1070
     1
1002
}
  0
DIMENSION
  5
6D51
330
2
100
AcDbEntity
  8
AM_REFDIM
100
AcDbDimension
  2
*D41
 10
163.0330833134852
 20
704.0591009605394
 30
0.0
 11
128.0330833134852
 21
709.5591009605394
 31
0.0
 70
    32
 71
     5
 42
70.0
  3
AM_ISO$0
100
AcDbAlignedDimension
 13
93.03308331348523
 23
660.0836037474715
 33
0.0
 14
163.0330833134852
 24
660.0836037474715
 34
0.0
100
AcDbRotatedDimension
  0
DIMENSION
  5
6D52
330
2
100
AcDbEntity
  8
AM_REFDIM
100
AcDbDimension
  2
*D42
 10
128.0330833134852
 20
393.8074997636726
 30
0.0
 11
110.5330833134852
 21
393.8074997636726
 31
0.0
 70
   160
 71
     5
 42
35.0
  3
AM_ISO$0
100
AcDbAlignedDimension
 13
93.03308331348523
 23
435.2486919897415
 33
0.0
 14
128.0330833134852
 24
410.6301386197706
 34
0.0
100
AcDbRotatedDimension
1001
ACAD
1000
DSTYLE
1002
{
1070
   174
1070
     1
1002
}
  0
DIMENSION
  5
6D53
330
2
100
AcDbEntity
  8
AM_REFDIM
100
AcDbDimension
  2
*D43
 10
163.0330833134852
 20
393.8074997636726
 30
0.0
 11
145.5330833134852
 21
399.3074997636726
 31
0.0
 70
    32
 71
     5
 42
35.0
  3
AM_ISO$0
100
AcDbAlignedDimension
 13
128.0330833134852
 23
410.6301386197706
 33
0.0
 14
163.0330833134852
 24
435.2486919897415
 34
0.0
100
AcDbRotatedDimension
1001
ACAD
1000
DSTYLE
1002
{
1070
   174
1070
     1
1002
}
  0
LINE
  5
6D54
330
2
100
AcDbEntity
  8
AM_VIS
100
AcDbLine
 10
104.0330833134852
 20
481.2486919897415
 30
0.0
 11
104.0330833134852
 21
480.2486919897416
 31
0.0
  0
LINE
  5
6D55
330
2
100
AcDbEntity
  8
AM_VIS
100
AcDbLine
 10
104.0330833134852
 20
481.2486919897415
 30
0.0
 11
104.6847083492063
 21
481.2486919897415
 31
0.0
  0
LINE
  5
6D56
330
2
100
AcDbEntity
  8
AM_VIS
100
AcDbLine
 10
104.0330833134852
 20
478.2486919897415
 30
0.0
 11
104.0330833134852
 21
477.2486919897415
 31
0.0
  0
LINE
  5
6D57
330
2
100
AcDbEntity
  8
AM_VIS
100
AcDbLine
 10
114.0330833134852
 20
478.2486919897415
 30
0.0
 11
114.0330833134852
 21
477.2486919897415
 31
0.0
  0
LINE
  5
6D58
330
2
100
AcDbEntity
  8
AM_VIS
100
AcDbLine
 10
104.0330833134852
 20
478.2486919897415
 30
0.0
 11
114.0330833134852
 21
478.2486919897415
 31
0.0
  0
LINE
  5
6D59
330
2
100
AcDbEntity
  8
AM_VIS
100
AcDbLine
 10
142.0330833134852
 20
478.2486919897415
 30
0.0
 11
142.0330833134852
 21
477.2486919897415
 31
0.0
  0
LINE
  5
6D5A
330
2
100
AcDbEntity
  8
AM_VIS
100
AcDbLine
 10
152.0330833134852
 20
478.2486919897415
 30
0.0
 11
152.0330833134852
 21
477.2486919897415
 31
0.0
  0
LINE
  5
6D5B
330
2
100
AcDbEntity
  8
AM_VIS
100
AcDbLine
 10
142.0330833134852
 20
478.2486919897415
 30
0.0
 11
152.0330833134852
 21
478.2486919897415
 31
0.0
  0
LINE
  5
6D5C
330
2
100
AcDbEntity
  8
AM_VIS
100
AcDbLine
 10
152.0330833134852
 20
481.2486919897415
 30
0.0
 11
152.0330833134852
 21
480.2486919897416
 31
0.0
  0
LINE
  5
6D5D
330
2
100
AcDbEntity
  8
AM_VIS
100
AcDbLine
 10
151.3814582777642
 20
481.2486919897415
 30
0.0
 11
152.0330833134852
 21
481.2486919897415
 31
0.0
  0
LINE
  5
6D5E
330
2
100
AcDbEntity
  8
AM_VIS
100
AcDbLine
 10
95.03308331348524
 20
477.2486919897415
 30
0.0
 11
95.03308331348524
 21
481.2486919897415
 31
0.0
  0
LINE
  5
6D5F
330
2
100
AcDbEntity
  8
AM_VIS
100
AcDbLine
 10
103.0330833134852
 20
480.2486919897416
 30
0.0
 11
103.0330833134852
 21
477.2486919897415
 31
0.0
  0
LINE
  5
6D60
330
2
100
AcDbEntity
  8
AM_VIS
100
AcDbLine
 10
153.0330833134852
 20
477.2486919897415
 30
0.0
 11
153.0330833134852
 21
480.2486919897416
 31
0.0
  0
LINE
  5
6D61
330
2
100
AcDbEntity
  8
AM_VIS
100
AcDbLine
 10
161.0330833134852
 20
477.2486919897415
 30
0.0
 11
161.0330833134852
 21
481.2486919897415
 31
0.0
  0
LINE
  5
6D62
330
2
100
AcDbEntity
  8
AM_VIS
100
AcDbLine
 10
153.0330833134852
 20
480.2486919897416
 30
0.0
 11
160.7367870171889
 21
480.2486919897416
 31
0.0
  0
LINE
  5
6D63
330
2
100
AcDbEntity
  8
AM_VIS
100
AcDbLine
 10
151.761380568945
 20
480.2486919897416
 30
0.0
 11
153.0330833134852
 21
480.2486919897416
 31
0.0
  0
LINE
  5
6D64
330
2
100
AcDbEntity
  8
AM_VIS
100
AcDbLine
 10
103.0330833134852
 20
480.2486919897416
 30
0.0
 11
104.3047860580254
 21
480.2486919897416
 31
0.0
  0
LINE
  5
6D65
330
2
100
AcDbEntity
  8
AM_VIS
100
AcDbLine
 10
95.32937960978154
 20
480.2486919897416
 30
0.0
 11
103.0330833134852
 21
480.2486919897416
 31
0.0
  0
ELLIPSE
  5
6D66
330
2
100
AcDbEntity
  8
AM_VIS
100
AcDbEllipse
 10
95.32937960978154
 20
481.2486919897415
 30
0.0
 11
-0.0000000000000003
 21
-1.0
 31
0.0
210
0.0
220
0.0
230
1.0
 40
0.2962962962962959
 41
4.712388980384691
 42
6.283185307179588
  0
LINE
  5
6D67
330
2
100
AcDbEntity
  8
AM_VIS
100
AcDbLine
 10
103.0330833134852
 20
495.2486919897416
 30
0.0
 11
106.0330833134852
 21
495.2486919897416
 31
0.0
  0
LINE
  5
6D68
330
2
100
AcDbEntity
  8
AM_VIS
100
AcDbLine
 10
108.0330833134851
 20
489.2486919897415
 30
0.0
 11
103.0330833134852
 21
489.2486919897415
 31
0.0
  0
LINE
  5
6D69
330
2
100
AcDbEntity
  8
AM_VIS
100
AcDbLine
 10
150.0330833134852
 20
495.2486919897416
 30
0.0
 11
153.0330833134852
 21
495.2486919897416
 31
0.0
  0
LINE
  5
6D6A
330
2
100
AcDbEntity
  8
AM_VIS
100
AcDbLine
 10
153.0330833134852
 20
489.2486919897415
 30
0.0
 11
148.0330833134851
 21
489.2486919897415
 31
0.0
  0
LINE
  5
6D6B
330
2
100
AcDbEntity
  8
AM_VIS
100
AcDbLine
 10
95.03308331348524
 20
481.2486919897415
 30
0.0
 11
95.03308331348524
 21
492.2486919897416
 31
0.0
  0
LINE
  5
6D6C
330
2
100
AcDbEntity
  8
AM_VIS
100
AcDbLine
 10
103.0330833134852
 20
500.2486919897416
 30
0.0
 11
104.0330833134851
 21
500.2486919897416
 31
0.0
  0
LINE
  5
6D6D
330
2
100
AcDbEntity
  8
AM_VIS
100
AcDbLine
 10
152.0330833134852
 20
500.2486919897416
 30
0.0
 11
153.0330833134852
 21
500.2486919897416
 31
0.0
  0
LINE
  5
6D6E
330
2
100
AcDbEntity
  8
AM_VIS
100
AcDbLine
 10
161.0330833134852
 20
481.2486919897415
 30
0.0
 11
161.0330833134852
 21
492.2486919897416
 31
0.0
  0
ELLIPSE
  5
6D6F
330
2
100
AcDbEntity
  8
AM_VIS
100
AcDbEllipse
 10
160.7367870171889
 20
481.2486919897415
 30
0.0
 11
0.0000000000000001
 21
0.9999999999999998
 31
0.0
210
0.0
220
0.0
230
1.0
 40
0.2962962962962967
 41
3.141592653589791
 42
4.712388980384689
  0
LINE
  5
6D70
330
2
100
AcDbEntity
  8
AM_VIS
100
AcDbLine
 10
103.0330833134852
 20
477.2486919897415
 30
0.0
 11
95.03308331348524
 21
477.2486919897415
 31
0.0
  0
LINE
  5
6D71
330
2
100
AcDbEntity
  8
AM_VIS
100
AcDbLine
 10
103.0330833134852
 20
477.2486919897415
 30
0.0
 11
103.5330833134851
 21
477.2486919897415
 31
0.0
  0
LINE
  5
6D72
330
2
100
AcDbEntity
  8
AM_VIS
100
AcDbLine
 10
152.5330833134851
 20
477.2486919897415
 30
0.0
 11
153.0330833134852
 21
477.2486919897415
 31
0.0
  0
LINE
  5
6D73
330
2
100
AcDbEntity
  8
AM_VIS
100
AcDbLine
 10
161.0330833134852
 20
477.2486919897415
 30
0.0
 11
153.0330833134852
 21
477.2486919897415
 31
0.0
  0
ARC
  5
6D74
330
2
100
AcDbEntity
  8
AM_VIS
100
AcDbCircle
 10
109.0330833134852
 20
492.2486919897416
 30
0.0
 40
3.0
100
AcDbArc
 50
70.52877936551012
 51
90.0
  0
ARC
  5
6D75
330
2
100
AcDbEntity
  8
AM_VIS
100
AcDbCircle
 10
103.0330833134852
 20
492.2486919897416
 30
0.0
 40
3.0
100
AcDbArc
 50
90.0
 51
270.0
  0
ARC
  5
6D76
330
2
100
AcDbEntity
  8
AM_VIS
100
AcDbCircle
 10
153.0330833134852
 20
492.2486919897416
 30
0.0
 40
3.0
100
AcDbArc
 50
270.0
 51
90.0
  0
ARC
  5
6D77
330
2
100
AcDbEntity
  8
AM_VIS
100
AcDbCircle
 10
147.0330833134852
 20
492.2486919897416
 30
0.0
 40
3.0
100
AcDbArc
 50
90.0
 51
109.4712206344929
  0
ARC
  5
6D78
330
2
100
AcDbEntity
  8
AM_VIS
100
AcDbCircle
 10
103.0330833134852
 20
492.2486919897416
 30
0.0
 40
8.0
100
AcDbArc
 50
90.0
 51
180.0
  0
ARC
  5
6D79
330
2
100
AcDbEntity
  8
AM_VIS
100
AcDbCircle
 10
153.0330833134852
 20
492.2486919897416
 30
0.0
 40
7.999999999999999
100
AcDbArc
 50
0.0
 51
90.0
  0
LINE
  5
6D7A
330
2
100
AcDbEntity
  8
AM_VIS
100
AcDbLine
 10
139.5330833134852
 20
459.9961919897415
 30
0.0
 11
138.2855833134853
 21
459.9961919897415
 31
0.0
  0
LINE
  5
6D7B
330
2
100
AcDbEntity
  8
AM_VIS
100
AcDbLine
 10
137.7805833134852
 20
459.9961919897415
 30
0.0
 11
136.5330833134852
 21
459.9961919897415
 31
0.0
  0
LINE
  5
6D7C
330
2
100
AcDbEntity
  8
AM_VIS
100
AcDbLine
 10
136.5330833134852
 20
459.9961919897415
 30
0.0
 11
136.5330833134852
 21
460.5011919897416
 31
0.0
  0
LINE
  5
6D7D
330
2
100
AcDbEntity
  8
AM_VIS
100
AcDbLine
 10
138.0330833134852
 20
460.2486919897415
 30
0.0
 11
138.0330833134852
 21
459.9961919897415
 31
0.0
  0
LINE
  5
6D7E
330
2
100
AcDbEntity
  8
AM_VIS
100
AcDbLine
 10
139.5330833134852
 20
460.5011919897416
 30
0.0
 11
139.5330833134852
 21
459.9961919897415
 31
0.0
  0
LINE
  5
6D7F
330
2
100
AcDbEntity
  8
AM_VIS
100
AcDbLine
 10
138.0330833134852
 20
460.5011919897416
 30
0.0
 11
138.0330833134852
 21
460.2486919897415
 31
0.0
  0
LINE
  5
6D80
330
2
100
AcDbEntity
  8
AM_VIS
100
AcDbLine
 10
138.2855833134853
 20
460.5011919897416
 30
0.0
 11
139.5330833134852
 21
460.5011919897416
 31
0.0
  0
LINE
  5
6D81
330
2
100
AcDbEntity
  8
AM_VIS
100
AcDbLine
 10
136.5330833134852
 20
460.5011919897416
 30
0.0
 11
137.7805833134852
 21
460.5011919897416
 31
0.0
  0
LINE
  5
6D82
330
2
100
AcDbEntity
  8
AM_VIS
100
AcDbLine
 10
137.7805833134852
 20
460.5011919897416
 30
0.0
 11
137.7805833134852
 21
461.7486919897415
 31
0.0
  0
LINE
  5
6D83
330
2
100
AcDbEntity
  8
AM_VIS
100
AcDbLine
 10
137.7805833134853
 20
459.9961919897415
 30
0.0
 11
137.7805833134853
 21
460.5011919897416
 31
0.0
  0
LINE
  5
6D84
330
2
100
AcDbEntity
  8
AM_VIS
100
AcDbLine
 10
137.7805833134852
 20
458.7486919897416
 30
0.0
 11
137.7805833134852
 21
459.9961919897415
 31
0.0
  0
LINE
  5
6D85
330
2
100
AcDbEntity
  8
AM_VIS
100
AcDbLine
 10
138.0330833134852
 20
460.2486919897415
 30
0.0
 11
137.7805833134852
 21
459.9961919897415
 31
0.0
  0
LINE
  5
6D86
330
2
100
AcDbEntity
  8
AM_VIS
100
AcDbLine
 10
138.2855833134853
 20
459.9961919897415
 30
0.0
 11
138.0330833134852
 21
460.2486919897415
 31
0.0
  0
LINE
  5
6D87
330
2
100
AcDbEntity
  8
AM_VIS
100
AcDbLine
 10
138.2855833134853
 20
458.7486919897416
 30
0.0
 11
137.7805833134852
 21
458.7486919897416
 31
0.0
  0
LINE
  5
6D88
330
2
100
AcDbEntity
  8
AM_VIS
100
AcDbLine
 10
137.7805833134852
 20
459.9961919897415
 30
0.0
 11
138.2855833134853
 21
459.9961919897415
 31
0.0
  0
LINE
  5
6D89
330
2
100
AcDbEntity
  8
AM_VIS
100
AcDbLine
 10
138.0330833134852
 20
460.2486919897415
 30
0.0
 11
137.7805833134852
 21
460.2486919897415
 31
0.0
  0
LINE
  5
6D8A
330
2
100
AcDbEntity
  8
AM_VIS
100
AcDbLine
 10
137.7805833134852
 20
460.5011919897416
 30
0.0
 11
138.0330833134852
 21
460.2486919897415
 31
0.0
  0
LINE
  5
6D8B
330
2
100
AcDbEntity
  8
AM_VIS
100
AcDbLine
 10
137.7805833134852
 20
461.7486919897415
 30
0.0
 11
138.2855833134853
 21
461.7486919897415
 31
0.0
  0
LINE
  5
6D8C
330
2
100
AcDbEntity
  8
AM_VIS
100
AcDbLine
 10
138.2855833134853
 20
460.5011919897416
 30
0.0
 11
137.7805833134852
 21
460.5011919897416
 31
0.0
  0
LINE
  5
6D8D
330
2
100
AcDbEntity
  8
AM_VIS
100
AcDbLine
 10
138.2855833134853
 20
460.2486919897415
 30
0.0
 11
138.0330833134852
 21
460.2486919897415
 31
0.0
  0
LINE
  5
6D8E
330
2
100
AcDbEntity
  8
AM_VIS
100
AcDbLine
 10
138.0330833134852
 20
460.2486919897415
 30
0.0
 11
138.2855833134853
 21
460.5011919897416
 31
0.0
  0
LINE
  5
6D8F
330
2
100
AcDbEntity
  8
AM_VIS
100
AcDbLine
 10
138.2855833134853
 20
461.7486919897415
 30
0.0
 11
138.2855833134853
 21
460.5011919897416
 31
0.0
  0
LINE
  5
6D90
330
2
100
AcDbEntity
  8
AM_VIS
100
AcDbLine
 10
138.2855833134853
 20
459.9961919897415
 30
0.0
 11
138.2855833134853
 21
458.7486919897416
 31
0.0
  0
LINE
  5
6D91
330
2
100
AcDbEntity
  8
AM_VIS
100
AcDbLine
 10
138.2855833134853
 20
460.5011919897416
 30
0.0
 11
138.2855833134853
 21
459.9961919897415
 31
0.0
  0
CIRCLE
  5
6D92
330
2
100
AcDbEntity
  8
AM_VIS
100
AcDbCircle
 10
138.0330833134852
 20
460.2486919897415
 30
0.0
 40
2.349999999999966
  0
LINE
  5
6D93
330
2
100
AcDbEntity
  8
AM_VIS
100
AcDbLine
 10
119.5330833134852
 20
439.9961919897415
 30
0.0
 11
118.2855833134853
 21
439.9961919897415
 31
0.0
  0
LINE
  5
6D94
330
2
100
AcDbEntity
  8
AM_VIS
100
AcDbLine
 10
117.7805833134851
 20
439.9961919897415
 30
0.0
 11
116.5330833134852
 21
439.9961919897415
 31
0.0
  0
LINE
  5
6D95
330
2
100
AcDbEntity
  8
AM_VIS
100
AcDbLine
 10
116.5330833134852
 20
439.9961919897415
 30
0.0
 11
116.5330833134852
 21
440.5011919897416
 31
0.0
  0
LINE
  5
6D96
330
2
100
AcDbEntity
  8
AM_VIS
100
AcDbLine
 10
118.0330833134852
 20
440.2486919897415
 30
0.0
 11
118.0330833134852
 21
439.9961919897415
 31
0.0
  0
LINE
  5
6D97
330
2
100
AcDbEntity
  8
AM_VIS
100
AcDbLine
 10
119.5330833134852
 20
440.5011919897416
 30
0.0
 11
119.5330833134852
 21
439.9961919897415
 31
0.0
  0
LINE
  5
6D98
330
2
100
AcDbEntity
  8
AM_VIS
100
AcDbLine
 10
118.0330833134852
 20
440.5011919897416
 30
0.0
 11
118.0330833134852
 21
440.2486919897415
 31
0.0
  0
LINE
  5
6D99
330
2
100
AcDbEntity
  8
AM_VIS
100
AcDbLine
 10
118.2855833134853
 20
440.5011919897416
 30
0.0
 11
119.5330833134852
 21
440.5011919897416
 31
0.0
  0
LINE
  5
6D9A
330
2
100
AcDbEntity
  8
AM_VIS
100
AcDbLine
 10
116.5330833134852
 20
440.5011919897416
 30
0.0
 11
117.7805833134851
 21
440.5011919897416
 31
0.0
  0
LINE
  5
6D9B
330
2
100
AcDbEntity
  8
AM_VIS
100
AcDbLine
 10
117.7805833134851
 20
440.5011919897416
 30
0.0
 11
117.7805833134851
 21
441.7486919897416
 31
0.0
  0
LINE
  5
6D9C
330
2
100
AcDbEntity
  8
AM_VIS
100
AcDbLine
 10
117.7805833134853
 20
439.9961919897415
 30
0.0
 11
117.7805833134853
 21
440.5011919897416
 31
0.0
  0
LINE
  5
6D9D
330
2
100
AcDbEntity
  8
AM_VIS
100
AcDbLine
 10
117.7805833134851
 20
438.7486919897416
 30
0.0
 11
117.7805833134851
 21
439.9961919897415
 31
0.0
  0
LINE
  5
6D9E
330
2
100
AcDbEntity
  8
AM_VIS
100
AcDbLine
 10
118.0330833134852
 20
440.2486919897415
 30
0.0
 11
117.7805833134851
 21
439.9961919897415
 31
0.0
  0
LINE
  5
6D9F
330
2
100
AcDbEntity
  8
AM_VIS
100
AcDbLine
 10
118.2855833134853
 20
439.9961919897415
 30
0.0
 11
118.0330833134852
 21
440.2486919897415
 31
0.0
  0
LINE
  5
6DA0
330
2
100
AcDbEntity
  8
AM_VIS
100
AcDbLine
 10
118.2855833134853
 20
438.7486919897416
 30
0.0
 11
117.7805833134851
 21
438.7486919897416
 31
0.0
  0
LINE
  5
6DA1
330
2
100
AcDbEntity
  8
AM_VIS
100
AcDbLine
 10
117.7805833134851
 20
439.9961919897415
 30
0.0
 11
118.2855833134853
 21
439.9961919897415
 31
0.0
  0
LINE
  5
6DA2
330
2
100
AcDbEntity
  8
AM_VIS
100
AcDbLine
 10
118.0330833134852
 20
440.2486919897415
 30
0.0
 11
117.7805833134851
 21
440.2486919897415
 31
0.0
  0
LINE
  5
6DA3
330
2
100
AcDbEntity
  8
AM_VIS
100
AcDbLine
 10
117.7805833134851
 20
440.5011919897416
 30
0.0
 11
118.0330833134852
 21
440.2486919897415
 31
0.0
  0
LINE
  5
6DA4
330
2
100
AcDbEntity
  8
AM_VIS
100
AcDbLine
 10
117.7805833134851
 20
441.7486919897416
 30
0.0
 11
118.2855833134853
 21
441.7486919897416
 31
0.0
  0
LINE
  5
6DA5
330
2
100
AcDbEntity
  8
AM_VIS
100
AcDbLine
 10
118.2855833134853
 20
440.5011919897416
 30
0.0
 11
117.7805833134851
 21
440.5011919897416
 31
0.0
  0
LINE
  5
6DA6
330
2
100
AcDbEntity
  8
AM_VIS
100
AcDbLine
 10
118.2855833134853
 20
440.2486919897415
 30
0.0
 11
118.0330833134852
 21
440.2486919897415
 31
0.0
  0
LINE
  5
6DA7
330
2
100
AcDbEntity
  8
AM_VIS
100
AcDbLine
 10
118.0330833134852
 20
440.2486919897415
 30
0.0
 11
118.2855833134853
 21
440.5011919897416
 31
0.0
  0
LINE
  5
6DA8
330
2
100
AcDbEntity
  8
AM_VIS
100
AcDbLine
 10
118.2855833134853
 20
441.7486919897416
 30
0.0
 11
118.2855833134853
 21
440.5011919897416
 31
0.0
  0
LINE
  5
6DA9
330
2
100
AcDbEntity
  8
AM_VIS
100
AcDbLine
 10
118.2855833134853
 20
439.9961919897415
 30
0.0
 11
118.2855833134853
 21
438.7486919897416
 31
0.0
  0
LINE
  5
6DAA
330
2
100
AcDbEntity
  8
AM_VIS
100
AcDbLine
 10
118.2855833134853
 20
440.5011919897416
 30
0.0
 11
118.2855833134853
 21
439.9961919897415
 31
0.0
  0
CIRCLE
  5
6DAB
330
2
100
AcDbEntity
  8
AM_VIS
100
AcDbCircle
 10
118.0330833134852
 20
440.2486919897415
 30
0.0
 40
2.349999999999966
  0
LINE
  5
6DAC
330
2
100
AcDbEntity
  8
AM_VIS
100
AcDbLine
 10
115.5330833134852
 20
463.7486919897416
 30
0.0
 11
140.5330833134852
 21
463.7486919897416
 31
0.0
  0
LINE
  5
6DAD
330
2
100
AcDbEntity
  8
AM_VIS
100
AcDbLine
 10
141.5330833134852
 20
462.7486919897416
 30
0.0
 11
141.5330833134852
 21
437.7486919897416
 31
0.0
  0
LINE
  5
6DAE
330
2
100
AcDbEntity
  8
AM_VIS
100
AcDbLine
 10
140.5330833134852
 20
436.7486919897415
 30
0.0
 11
115.5330833134852
 21
436.7486919897415
 31
0.0
  0
LINE
  5
6DAF
330
2
100
AcDbEntity
  8
AM_VIS
100
AcDbLine
 10
114.5330833134852
 20
437.7486919897416
 30
0.0
 11
114.5330833134852
 21
462.7486919897416
 31
0.0
  0
ARC
  5
6DB0
330
2
100
AcDbEntity
  8
AM_VIS
100
AcDbCircle
 10
115.5330833134852
 20
462.7486919897416
 30
0.0
 40
0.9999999999999998
100
AcDbArc
 50
90.0
 51
180.0
  0
ARC
  5
6DB1
330
2
100
AcDbEntity
  8
AM_VIS
100
AcDbCircle
 10
140.5330833134852
 20
462.7486919897416
 30
0.0
 40
0.9999999999999998
100
AcDbArc
 50
0.0
 51
90.0
  0
ARC
  5
6DB2
330
2
100
AcDbEntity
  8
AM_VIS
100
AcDbCircle
 10
140.5330833134852
 20
437.7486919897416
 30
0.0
 40
0.9999999999999998
100
AcDbArc
 50
270.0
 51
0.0
  0
ARC
  5
6DB3
330
2
100
AcDbEntity
  8
AM_VIS
100
AcDbCircle
 10
115.5330833134852
 20
437.7486919897416
 30
0.0
 40
0.9999999999999998
100
AcDbArc
 50
180.0
 51
270.0
  0
CIRCLE
  5
6DB4
330
2
100
AcDbEntity
  8
AM_VIS
100
AcDbCircle
 10
128.0330833134852
 20
450.2486919897416
 30
0.0
 40
10.5
  0
CIRCLE
  5
6DB5
330
2
100
AcDbEntity
  8
AM_VIS
100
AcDbCircle
 10
138.0330833134852
 20
460.2486919897415
 30
0.0
 40
2.75
  0
CIRCLE
  5
6DB6
330
2
100
AcDbEntity
  8
AM_VIS
100
AcDbCircle
 10
118.0330833134852
 20
440.2486919897415
 30
0.0
 40
2.75
  0
LINE
  5
6DB7
330
2
100
AcDbEntity
  8
AM_VIS
100
AcDbLine
 10
147.2930833134852
 20
478.2486919897415
 30
0.0
 11
146.8199220089392
 21
479.5486919897415
 31
0.0
  0
LINE
  5
6DB8
330
2
100
AcDbEntity
  8
AM_VIS
100
AcDbLine
 10
146.2999220089392
 20
479.5486919897415
 30
0.0
 11
146.7730833134852
 21
478.2486919897415
 31
0.0
  0
LINE
  5
6DB9
330
2
100
AcDbEntity
  8
AM_VIS
100
AcDbLine
 10
142.4330833134853
 20
479.5486919897415
 30
0.0
 11
142.4330833134853
 21
478.2486919897415
 31
0.0
  0
LINE
  5
6DBA
330
2
100
AcDbEntity
  8
AM_VIS
100
AcDbLine
 10
151.6330833134851
 20
479.5486919897415
 30
0.0
 11
151.6330833134851
 21
478.2486919897415
 31
0.0
  0
LINE
  5
6DBB
330
2
100
AcDbEntity
  8
AM_VIS
100
AcDbLine
 10
109.2930833134852
 20
478.2486919897415
 30
0.0
 11
108.8199220089392
 21
479.5486919897415
 31
0.0
  0
LINE
  5
6DBC
330
2
100
AcDbEntity
  8
AM_VIS
100
AcDbLine
 10
108.2999220089392
 20
479.5486919897415
 30
0.0
 11
108.7730833134852
 21
478.2486919897415
 31
0.0
  0
LINE
  5
6DBD
330
2
100
AcDbEntity
  8
AM_VIS
100
AcDbLine
 10
104.4330833134853
 20
479.5486919897415
 30
0.0
 11
104.4330833134853
 21
478.2486919897415
 31
0.0
  0
LINE
  5
6DBE
330
2
100
AcDbEntity
  8
AM_VIS
100
AcDbLine
 10
113.6330833134851
 20
479.5486919897415
 30
0.0
 11
113.6330833134851
 21
478.2486919897415
 31
0.0
  0
LINE
  5
6DBF
330
2
100
AcDbEntity
  8
AM_VIS
100
AcDbLine
 10
104.4330833134853
 20
482.5486919897415
 30
0.0
 11
104.4330833134853
 21
481.2486919897415
 31
0.0
  0
LINE
  5
6DC0
330
2
100
AcDbEntity
  8
AM_VIS
100
AcDbLine
 10
151.7830833134852
 20
479.5486919897415
 30
0.0
 11
151.7830833134852
 21
479.9286919897416
 31
0.0
  0
LINE
  5
6DC1
330
2
100
AcDbEntity
  8
AM_VIS
100
AcDbLine
 10
142.2830833134852
 20
479.5486919897415
 30
0.0
 11
142.2830833134852
 21
479.9286919897416
 31
0.0
  0
LINE
  5
6DC2
330
2
100
AcDbEntity
  8
AM_VIS
100
AcDbLine
 10
151.7830833134852
 20
479.5486919897415
 30
0.0
 11
142.2830833134852
 21
479.5486919897415
 31
0.0
  0
LINE
  5
6DC3
330
2
100
AcDbEntity
  8
AM_VIS
100
AcDbLine
 10
149.4130833134852
 20
482.2986919897415
 30
0.0
 11
144.6530833134852
 21
482.2986919897415
 31
0.0
  0
ARC
  5
6DC4
330
2
100
AcDbEntity
  8
AM_VIS
100
AcDbCircle
 10
144.6530833134852
 20
479.9286919897416
 30
0.0
 40
2.369999999999999
100
AcDbArc
 50
90.0
 51
180.0
  0
ARC
  5
6DC5
330
2
100
AcDbEntity
  8
AM_VIS
100
AcDbCircle
 10
149.4130833134852
 20
479.9286919897416
 30
0.0
 40
2.369999999999999
100
AcDbArc
 50
0.0
 51
90.0
  0
LINE
  5
6DC6
330
2
100
AcDbEntity
  8
AM_VIS
100
AcDbLine
 10
113.7830833134852
 20
479.5486919897415
 30
0.0
 11
113.7830833134852
 21
479.9286919897416
 31
0.0
  0
LINE
  5
6DC7
330
2
100
AcDbEntity
  8
AM_VIS
100
AcDbLine
 10
104.2830833134852
 20
479.5486919897415
 30
0.0
 11
104.2830833134852
 21
479.9286919897416
 31
0.0
  0
LINE
  5
6DC8
330
2
100
AcDbEntity
  8
AM_VIS
100
AcDbLine
 10
113.7830833134852
 20
479.5486919897415
 30
0.0
 11
104.2830833134852
 21
479.5486919897415
 31
0.0
  0
LINE
  5
6DC9
330
2
100
AcDbEntity
  8
AM_VIS
100
AcDbLine
 10
111.4130833134852
 20
482.2986919897415
 30
0.0
 11
106.6530833134852
 21
482.2986919897415
 31
0.0
  0
ARC
  5
6DCA
330
2
100
AcDbEntity
  8
AM_VIS
100
AcDbCircle
 10
106.6530833134852
 20
479.9286919897416
 30
0.0
 40
2.369999999999999
100
AcDbArc
 50
90.0
 51
180.0
  0
ARC
  5
6DCB
330
2
100
AcDbEntity
  8
AM_VIS
100
AcDbCircle
 10
111.4130833134852
 20
479.9286919897416
 30
0.0
 40
2.369999999999999
100
AcDbArc
 50
0.0
 51
90.0
  0
LINE
  5
6DCC
330
2
100
AcDbEntity
  8
AM_VIS
100
AcDbLine
 10
104.2830833134852
 20
482.5486919897415
 30
0.0
 11
104.2830833134852
 21
482.9286919897416
 31
0.0
  0
LINE
  5
6DCD
330
2
100
AcDbEntity
  8
AM_VIS
100
AcDbLine
 10
107.3330833134852
 20
482.5486919897415
 30
0.0
 11
104.2830833134852
 21
482.5486919897415
 31
0.0
  0
LINE
  5
6DCE
330
2
100
AcDbEntity
  8
AM_VIS
100
AcDbLine
 10
108.0330833134851
 20
485.2986919897415
 30
0.0
 11
106.6530833134852
 21
485.2986919897415
 31
0.0
  0
ARC
  5
6DCF
330
2
100
AcDbEntity
  8
AM_VIS
100
AcDbCircle
 10
106.6530833134852
 20
482.9286919897416
 30
0.0
 40
2.369999999999999
100
AcDbArc
 50
90.0
 51
180.0
  0
LINE
  5
6DD0
330
2
100
AcDbEntity
  8
AM_VIS
100
AcDbLine
 10
151.6330833134851
 20
482.5486919897415
 30
0.0
 11
151.6330833134851
 21
481.2486919897415
 31
0.0
  0
LINE
  5
6DD1
330
2
100
AcDbEntity
  8
AM_VIS
100
AcDbLine
 10
151.7830833134852
 20
482.5486919897415
 30
0.0
 11
151.7830833134852
 21
482.9286919897416
 31
0.0
  0
LINE
  5
6DD2
330
2
100
AcDbEntity
  8
AM_VIS
100
AcDbLine
 10
151.7830833134852
 20
482.5486919897415
 30
0.0
 11
148.733083313485
 21
482.5486919897415
 31
0.0
  0
LINE
  5
6DD3
330
2
100
AcDbEntity
  8
AM_VIS
100
AcDbLine
 10
149.4130833134852
 20
485.2986919897415
 30
0.0
 11
148.0330833134851
 21
485.2986919897415
 31
0.0
  0
ARC
  5
6DD4
330
2
100
AcDbEntity
  8
AM_VIS
100
AcDbCircle
 10
149.4130833134852
 20
482.9286919897416
 30
0.0
 40
2.369999999999999
100
AcDbArc
 50
0.0
 51
90.0
  0
LINE
  5
6DD5
330
2
100
AcDbEntity
  8
AM_VIS
100
AcDbLine
 10
123.5846464542654
 20
420.2486158340414
 30
0.0
 11
123.5932467909719
 21
419.7486919864596
 31
0.0
  0
LINE
  5
6DD6
330
2
100
AcDbEntity
  8
AM_VIS
100
AcDbLine
 10
123.5932141444115
 20
419.7486914237657
 30
0.0
 11
123.7058480853437
 21
413.2137866030363
 31
0.0
  0
LINE
  5
6DD7
330
2
100
AcDbEntity
  8
AM_VIS
100
AcDbLine
 10
124.5330833134852
 20
411.6301386197707
 30
0.0
 11
124.5330833134852
 21
419.7486919897415
 31
0.0
  0
LINE
  5
6DD8
330
2
100
AcDbEntity
  8
AM_VIS
100
AcDbLine
 10
131.5330833134852
 20
411.6301386197707
 30
0.0
 11
131.5330833134852
 21
419.7486919897415
 31
0.0
  0
LINE
  5
6DD9
330
2
100
AcDbEntity
  8
AM_VIS
100
AcDbLine
 10
132.4729198359985
 20
419.7486919864596
 30
0.0
 11
132.481520172705
 21
420.2486158340414
 31
0.0
  0
LINE
  5
6DDA
330
2
100
AcDbEntity
  8
AM_VIS
100
AcDbLine
 10
132.3603185416266
 20
413.2137866030363
 30
0.0
 11
132.4729524825588
 21
419.7486914237657
 31
0.0
  0
LINE
  5
6DDB
330
2
100
AcDbEntity
  8
AM_VIS
100
AcDbLine
 10
131.674582005931
 20
419.7478529625008
 30
0.0
 11
132.4820032015814
 21
420.2478354868059
 31
0.0
  0
LINE
  5
6DDC
330
2
100
AcDbEntity
  8
AM_VIS
100
AcDbLine
 10
123.5841634253889
 20
420.2478354868059
 30
0.0
 11
124.3915846210393
 21
419.7478529625008
 31
0.0
  0
ARC
  5
6DDD
330
2
100
AcDbEntity
  8
AM_VIS
100
AcDbCircle
 10
125.6868637442932
 20
413.2406678565006
 30
0.0
 40
1.981164734411866
100
AcDbArc
 50
180.7774198308481
 51
234.3822521176837
  0
ARC
  5
6DDE
330
2
100
AcDbEntity
  8
AM_VIS
100
AcDbCircle
 10
130.379302882677
 20
413.2406678565006
 30
0.0
 40
1.981164734411911
100
AcDbArc
 50
305.6177478823163
 51
359.2225801691518
  0
ARC
  5
6DDF
330
2
100
AcDbEntity
  8
AM_VIS
100
AcDbCircle
 10
113.0146297259357
 20
413.341484908634
 30
0.0
 40
1.90697924329446
100
AcDbArc
 50
183.8395909020649
 51
243.8199600182461
  0
LINE
  5
6DE0
330
2
100
AcDbEntity
  8
AM_VIS
100
AcDbLine
 10
110.9673716234282
 20
419.7486910581814
 30
0.0
 11
111.111888111889
 21
413.213786232379
 31
0.0
  0
LINE
  5
6DE1
330
2
100
AcDbEntity
  8
AM_VIS
100
AcDbLine
 10
112.1732833561512
 20
411.6301386197707
 30
0.0
 11
112.1732833561512
 21
419.7486919897415
 31
0.0
  0
ARC
  5
6DE2
330
2
100
AcDbEntity
  8
AM_VIS
100
AcDbCircle
 10
107.4643101822552
 20
413.0873483987276
 30
0.0
 40
9.768026657620344
100
AcDbArc
 50
351.4204983248894
 51
0.7416657350128856
  0
LINE
  5
6DE3
330
2
100
AcDbEntity
  8
AM_VIS
100
AcDbLine
 10
117.123030824457
 20
411.6301386197707
 30
0.0
 11
117.123030824457
 21
419.7486919897415
 31
0.0
  0
LINE
  5
6DE4
330
2
100
AcDbEntity
  8
AM_VIS
100
AcDbLine
 10
117.2315228521653
 20
413.2137871669939
 30
0.0
 11
117.2462948106852
 21
419.7486919800038
 31
0.0
  0
ARC
  5
6DE5
330
2
100
AcDbEntity
  8
AM_VIS
100
AcDbCircle
 10
110.5679359359959
 20
413.1881654508614
 30
0.0
 40
2.137927569295293
100
AcDbArc
 50
179.3133294466883
 51
226.7821783907896
  0
LINE
  5
6DE6
330
2
100
AcDbEntity
  8
AM_VIS
100
AcDbLine
 10
108.3383915448632
 20
419.7486916142064
 30
0.0
 11
108.4301347816251
 21
413.2137867961197
 31
0.0
  0
ARC
  5
6DE7
330
2
100
AcDbEntity
  8
AM_VIS
100
AcDbCircle
 10
145.4982306909747
 20
413.1881654508612
 30
0.0
 40
2.137927569294829
100
AcDbArc
 50
313.2178216092105
 51
0.6866705533116475
  0
LINE
  5
6DE8
330
2
100
AcDbEntity
  8
AM_VIS
100
AcDbLine
 10
147.6360318453438
 20
413.2137867961197
 30
0.0
 11
147.7277750821085
 21
419.7486916142064
 31
0.0
  0
ARC
  5
6DE9
330
2
100
AcDbEntity
  8
AM_VIS
100
AcDbCircle
 10
148.6018564447009
 20
413.087348398726
 30
0.0
 40
9.768026657606213
100
AcDbArc
 50
179.2583342649741
 51
188.5795016751106
  0
LINE
  5
6DEA
330
2
100
AcDbEntity
  8
AM_VIS
100
AcDbLine
 10
138.8198718162849
 20
419.7486919800038
 30
0.0
 11
138.8346437748053
 21
413.2137871669939
 31
0.0
  0
LINE
  5
6DEB
330
2
100
AcDbEntity
  8
AM_VIS
100
AcDbLine
 10
138.9431358025133
 20
411.6301386197707
 30
0.0
 11
138.9431358025133
 21
419.7486919897415
 31
0.0
  0
ARC
  5
6DEC
330
2
100
AcDbEntity
  8
AM_VIS
100
AcDbCircle
 10
143.0515369010342
 20
413.3414849086344
 30
0.0
 40
1.906979243294987
100
AcDbArc
 50
296.1800399817684
 51
356.1604090979352
  0
LINE
  5
6DED
330
2
100
AcDbEntity
  8
AM_VIS
100
AcDbLine
 10
143.8928832708192
 20
411.6301386197707
 30
0.0
 11
143.8928832708192
 21
419.7486919897415
 31
0.0
  0
LINE
  5
6DEE
330
2
100
AcDbEntity
  8
AM_VIS
100
AcDbLine
 10
144.9542785150812
 20
413.213786232379
 30
0.0
 11
145.0987950035421
 21
419.7486910581814
 31
0.0
  0
LINE
  5
6DEF
330
2
100
AcDbEntity
  8
AM_VIS
100
AcDbLine
 10
148.2219905862364
 20
419.7486919897415
 30
0.0
 11
148.2830833134852
 21
423.2486919897415
 31
0.0
  0
LINE
  5
6DF0
330
2
100
AcDbEntity
  8
AM_VIS
100
AcDbLine
 10
107.8441760407339
 20
419.7486919897415
 30
0.0
 11
107.7830833134852
 21
423.2486919897415
 31
0.0
  0
LINE
  5
6DF1
330
2
100
AcDbEntity
  8
AM_VIS
100
AcDbLine
 10
108.7830833134852
 20
411.6301386197707
 30
0.0
 11
108.7830833134852
 21
412.0030648334985
 31
0.0
  0
LINE
  5
6DF2
330
2
100
AcDbEntity
  8
AM_VIS
100
AcDbLine
 10
147.2830833134852
 20
411.6301386197707
 30
0.0
 11
147.2830833134852
 21
412.0030648334985
 31
0.0
  0
LINE
  5
6DF3
330
2
100
AcDbEntity
  8
AM_VIS
100
AcDbLine
 10
123.5846466448311
 20
420.2486158373197
 30
0.0
 11
132.4815199821393
 21
420.2486158373197
 31
0.0
  0
LINE
  5
6DF4
330
2
100
AcDbEntity
  8
AM_VIS
100
AcDbLine
 10
131.6740624518742
 20
419.7486919897415
 30
0.0
 11
124.3921041750961
 21
419.7486919897415
 31
0.0
  0
LINE
  5
6DF5
330
2
100
AcDbEntity
  8
AM_VIS
100
AcDbLine
 10
124.5330833134852
 20
411.6301386197707
 30
0.0
 11
131.5330833134852
 21
411.6301386197707
 31
0.0
  0
LINE
  5
6DF6
330
2
100
AcDbEntity
  8
AM_VIS
100
AcDbLine
 10
146.1082280081151
 20
411.2486919897415
 30
0.0
 11
109.9579386188551
 21
411.2486919897415
 31
0.0
  0
LINE
  5
6DF7
330
2
100
AcDbEntity
  8
AM_VIS
100
AcDbLine
 10
117.246290502811
 20
419.7486919897415
 30
0.0
 11
110.967413747736
 21
419.7486919897415
 31
0.0
  0
LINE
  5
6DF8
330
2
100
AcDbEntity
  8
AM_VIS
100
AcDbLine
 10
112.1732833561512
 20
411.6301386197707
 30
0.0
 11
117.123030824457
 21
411.6301386197707
 31
0.0
  0
LINE
  5
6DF9
330
2
100
AcDbEntity
  8
AM_VIS
100
AcDbLine
 10
108.3384182943731
 20
419.7486919897415
 30
0.0
 11
107.8441760407339
 21
419.7486919897415
 31
0.0
  0
LINE
  5
6DFA
330
2
100
AcDbEntity
  8
AM_VIS
100
AcDbLine
 10
108.7830833134852
 20
411.6301386197707
 30
0.0
 11
109.1039391172993
 21
411.6301386197707
 31
0.0
  0
LINE
  5
6DFB
330
2
100
AcDbEntity
  8
AM_VIS
100
AcDbLine
 10
148.2219905862364
 20
419.7486919897415
 30
0.0
 11
147.7277483325973
 21
419.7486919897415
 31
0.0
  0
LINE
  5
6DFC
330
2
100
AcDbEntity
  8
AM_VIS
100
AcDbLine
 10
146.9622275096711
 20
411.6301386197707
 30
0.0
 11
147.2830833134852
 21
411.6301386197707
 31
0.0
  0
LINE
  5
6DFD
330
2
100
AcDbEntity
  8
AM_VIS
100
AcDbLine
 10
145.0987528792343
 20
419.7486919897415
 30
0.0
 11
138.8198761241593
 21
419.7486919897415
 31
0.0
  0
LINE
  5
6DFE
330
2
100
AcDbEntity
  8
AM_VIS
100
AcDbLine
 10
138.9431358025133
 20
411.6301386197707
 30
0.0
 11
143.8928832708192
 21
411.6301386197707
 31
0.0
  0
ARC
  5
6DFF
330
2
100
AcDbEntity
  8
AM_VIS
100
AcDbCircle
 10
109.9579386188551
 20
413.2486919897416
 30
0.0
 40
2.0
100
AcDbArc
 50
234.0253216683651
 51
270.0
  0
ARC
  5
6E00
330
2
100
AcDbEntity
  8
AM_VIS
100
AcDbCircle
 10
146.1082280081151
 20
413.2486919897416
 30
0.0
 40
2.0
100
AcDbArc
 50
270.0
 51
305.974678331635
  0
LINE
  5
6E01
330
2
100
AcDbEntity
  8
AM_VIS
100
AcDbLine
 10
153.0330833134851
 20
467.2486919897416
 30
0.0
 11
153.0330833134851
 21
476.7486919897415
 31
0.0
  0
LINE
  5
6E02
330
2
100
AcDbEntity
  8
AM_VIS
100
AcDbLine
 10
109.0330833134851
 20
467.2486919897416
 30
0.0
 11
147.0330833134851
 21
467.2486919897416
 31
0.0
  0
LINE
  5
6E03
330
2
100
AcDbEntity
  8
AM_VIS
100
AcDbLine
 10
103.0330833134851
 20
476.7486919897415
 30
0.0
 11
103.0330833134851
 21
467.2486919897416
 31
0.0
  0
LINE
  5
6E04
330
2
100
AcDbEntity
  8
AM_VIS
100
AcDbLine
 10
147.0330833134851
 20
477.2486919897415
 30
0.0
 11
109.0330833134851
 21
477.2486919897415
 31
0.0
  0
LINE
  5
6E05
330
2
100
AcDbEntity
  8
AM_VIS
100
AcDbLine
 10
148.0330833134851
 20
483.2486919897416
 30
0.0
 11
148.0330833134851
 21
490.2486919897415
 31
0.0
  0
LINE
  5
6E06
330
2
100
AcDbEntity
  8
AM_VIS
100
AcDbLine
 10
108.0330833134851
 20
483.2486919897416
 30
0.0
 11
108.0330833134851
 21
490.2486919897415
 31
0.0
  0
LINE
  5
6E07
330
2
100
AcDbEntity
  8
AM_VIS
100
AcDbLine
 10
146.0330833134851
 20
492.2486919897416
 30
0.0
 11
146.0330833134851
 21
495.2486919897416
 31
0.0
  0
LINE
  5
6E08
330
2
100
AcDbEntity
  8
AM_VIS
100
AcDbLine
 10
110.0330833134851
 20
492.2486919897416
 30
0.0
 11
110.0330833134851
 21
495.2486919897416
 31
0.0
  0
LINE
  5
6E09
330
2
100
AcDbEntity
  8
AM_VIS
100
AcDbLine
 10
110.0330833134851
 20
492.2486919897416
 30
0.0
 11
108.0330833134851
 21
490.2486919897415
 31
0.0
  0
LINE
  5
6E0A
330
2
100
AcDbEntity
  8
AM_VIS
100
AcDbLine
 10
146.0330833134851
 20
492.2486919897416
 30
0.0
 11
148.0330833134851
 21
490.2486919897415
 31
0.0
  0
LINE
  5
6E0B
330
2
100
AcDbEntity
  8
AM_VIS
100
AcDbLine
 10
108.0330833134851
 20
483.2486919897416
 30
0.0
 11
107.0830833134852
 21
482.2986919897418
 31
0.0
  0
LINE
  5
6E0C
330
2
100
AcDbEntity
  8
AM_VIS
100
AcDbLine
 10
148.0330833134851
 20
483.2486919897416
 30
0.0
 11
148.983083313485
 21
482.2986919897418
 31
0.0
  0
LINE
  5
6E0D
330
2
100
AcDbEntity
  8
AM_VIS
100
AcDbLine
 10
148.0330833134851
 20
490.2486919897415
 30
0.0
 11
108.0330833134851
 21
490.2486919897415
 31
0.0
  0
LINE
  5
6E0E
330
2
100
AcDbEntity
  8
AM_VIS
100
AcDbLine
 10
146.0330833134851
 20
492.2486919897416
 30
0.0
 11
110.0330833134851
 21
492.2486919897416
 31
0.0
  0
LINE
  5
6E0F
330
2
100
AcDbEntity
  8
AM_VIS
100
AcDbLine
 10
148.0330833134851
 20
483.2486919897416
 30
0.0
 11
108.0330833134851
 21
483.2486919897416
 31
0.0
  0
ARC
  5
6E10
330
2
100
AcDbEntity
  8
AM_VIS
100
AcDbCircle
 10
103.5330833134851
 20
476.7486919897415
 30
0.0
 40
0.5
100
AcDbArc
 50
90.0
 51
180.0
  0
ARC
  5
6E11
330
2
100
AcDbEntity
  8
AM_VIS
100
AcDbCircle
 10
152.5330833134851
 20
476.7486919897415
 30
0.0
 40
0.5
100
AcDbArc
 50
0.0
 51
90.0
  0
LINE
  5
6E12
330
2
100
AcDbEntity
  8
AM_VIS
100
AcDbLine
 10
144.1688313129731
 20
482.2486919897415
 30
0.0
 11
111.8973353139973
 21
482.2486919897415
 31
0.0
  0
LINE
  5
6E13
330
2
100
AcDbEntity
  8
AM_VIS
100
AcDbLine
 10
147.0330833134851
 20
477.2486919897415
 30
0.0
 11
152.5330833134851
 21
477.2486919897415
 31
0.0
  0
LINE
  5
6E14
330
2
100
AcDbEntity
  8
AM_VIS
100
AcDbLine
 10
103.5330833134851
 20
477.2486919897415
 30
0.0
 11
109.0330833134851
 21
477.2486919897415
 31
0.0
  0
LINE
  5
6E15
330
2
100
AcDbEntity
  8
AM_VIS
100
AcDbLine
 10
151.0069794628582
 20
537.2486931954064
 30
0.0
 11
152.0108022955859
 21
502.2486931200025
 31
0.0
  0
LINE
  5
6E16
330
2
100
AcDbEntity
  8
AM_VIS
100
AcDbLine
 10
143.5028322194374
 20
537.2486926689918
 30
0.0
 11
144.2561542902842
 21
502.2486926265104
 31
0.0
  0
LINE
  5
6E17
330
2
100
AcDbEntity
  8
AM_VIS
100
AcDbLine
 10
126.936715859499
 20
537.2486919942758
 30
0.0
 11
126.9982513170788
 21
502.2486919939923
 31
0.0
  0
LINE
  5
6E18
330
2
100
AcDbEntity
  8
AM_VIS
100
AcDbLine
 10
110.346538888381
 20
502.2486924879384
 30
0.0
 11
111.0128366802688
 21
537.2486925211752
 31
0.0
  0
LINE
  5
6E19
330
2
100
AcDbEntity
  8
AM_VIS
100
AcDbLine
 10
149.5072949981662
 20
537.9952157972712
 30
0.0
 11
151.006957643924
 21
537.2487326083729
 31
0.0
  0
LINE
  5
6E1A
330
2
100
AcDbEntity
  8
AM_VIS
100
AcDbLine
 10
142.3773982239694
 20
537.9952098027396
 30
0.0
 11
143.5028240053212
 21
537.248727184719
 31
0.0
  0
LINE
  5
6E1B
330
2
100
AcDbEntity
  8
AM_VIS
100
AcDbLine
 10
126.844788963176
 20
537.995171701025
 30
0.0
 11
126.9367194255684
 21
537.2486927465275
 31
0.0
  0
LINE
  5
6E1C
330
2
100
AcDbEntity
  8
AM_VIS
100
AcDbLine
 10
111.0128402716437
 20
537.2487244256298
 30
0.0
 11
112.0082557070125
 21
537.9952067526017
 31
0.0
  0
LINE
  5
6E1D
330
2
100
AcDbEntity
  8
AM_VIS
100
AcDbLine
 10
149.5073193566878
 20
537.9951721669352
 30
0.0
 11
150.4641321458078
 21
503.709136121273
 31
0.0
  0
LINE
  5
6E1E
330
2
100
AcDbEntity
  8
AM_VIS
100
AcDbLine
 10
146.8154157381458
 20
537.2486926689918
 30
0.0
 11
147.5687378089927
 21
502.2486926265104
 31
0.0
  0
LINE
  5
6E1F
330
2
100
AcDbEntity
  8
AM_VIS
100
AcDbLine
 10
145.689981742678
 20
537.9952098027398
 30
0.0
 11
146.8154075240296
 21
537.248727184719
 31
0.0
  0
LINE
  5
6E20
330
2
100
AcDbEntity
  8
AM_VIS
100
AcDbLine
 10
150.4639662784496
 20
503.7091295824751
 30
0.0
 11
150.4660089366567
 21
503.6622224985909
 31
0.0
  0
SPLINE
  5
6E21
330
2
100
AcDbEntity
  8
AM_VIS
100
AcDbSpline
210
0.0
220
0.0
230
1.0
 70
     8
 71
     3
 72
    20
 73
    16
 74
     0
 42
0.0000000001
 43
0.0000000001
 40
0.0
 40
0.0
 40
0.0
 40
0.0
 40
1.663185064268577
 40
1.663185064268577
 40
3.216484134028697
 40
3.216484134028697
 40
4.921607516029493
 40
4.921607516029493
 40
6.405916512166603
 40
6.405916512166603
 40
7.673160321420281
 40
7.673160321420281
 40
8.509907606254152
 40
8.509907606254152
 40
9.190504834782133
 40
9.190504834782133
 40
9.190504834782133
 40
9.190504834782133
 10
147.7201542359887
 20
502.2486919897415
 30
0.0
 10
148.0372355884758
 20
502.2486919897415
 30
0.0
 10
148.3844857328048
 20
502.3039570722211
 30
0.0
 10
149.0974253848986
 20
502.468443353309
 30
0.0
 10
149.4181792712473
 20
502.5624707135499
 30
0.0
 10
150.0472638567576
 20
502.7271807459714
 30
0.0
 10
150.3423563180255
 20
502.7924411112263
 30
0.0
 10
150.8351750279283
 20
502.8219934533923
 30
0.0
 10
151.0590659969076
 20
502.7968005346178
 30
0.0
 10
151.4561618018155
 20
502.6537851938506
 30
0.0
 10
151.6053260534955
 20
502.5593711744553
 30
0.0
 10
151.7975580270086
 20
502.4095487261291
 30
0.0
 10
151.8597147622859
 20
502.3515365365271
 30
0.0
 10
151.9466457486534
 20
502.2744599811822
 30
0.0
 10
151.9774526968841
 20
502.2486919897415
 30
0.0
 10
151.9979976779302
 20
502.2486919897415
 30
0.0
  0
LINE
  5
6E22
330
2
100
AcDbEntity
  8
AM_VIS
100
AcDbLine
 10
142.377407472807
 20
537.995171597592
 30
0.0
 11
143.0954507051828
 21
503.7091355882174
 31
0.0
  0
LINE
  5
6E23
330
2
100
AcDbEntity
  8
AM_VIS
100
AcDbLine
 10
131.9273476878342
 20
537.2486919942758
 30
0.0
 11
131.9888831454141
 21
502.2486919939923
 31
0.0
  0
LINE
  5
6E24
330
2
100
AcDbEntity
  8
AM_VIS
100
AcDbLine
 10
131.8354207915112
 20
537.995171701025
 30
0.0
 11
131.9273512539037
 21
537.2486927465275
 31
0.0
  0
SPLINE
  5
6E25
330
2
100
AcDbEntity
  8
AM_VIS
100
AcDbSpline
210
0.0
220
0.0
230
1.0
 70
     8
 71
     3
 72
    14
 73
    10
 74
     0
 42
0.0000000001
 43
0.0000000001
 40
0.0
 40
0.0
 40
0.0
 40
0.0
 40
0.6055408160244572
 40
0.6055408160244572
 40
1.217375489854284
 40
1.217375489854284
 40
1.781805823365111
 40
1.781805823365111
 40
2.271351589224922
 40
2.271351589224922
 40
2.271351589224922
 40
2.271351589224922
 10
143.0954178638373
 20
503.7091349004298
 30
0.0
 10
143.0996422786728
 20
503.5073667656059
 30
0.0
 10
143.1343841671573
 20
503.3080544890212
 30
0.0
 10
143.2593148222403
 20
502.9379043852592
 30
0.0
 10
143.3493227518449
 20
502.7696162139323
 30
0.0
 10
143.5646905840853
 20
502.5030090366389
 30
0.0
 10
143.6853061982468
 20
502.4021199099832
 30
0.0
 10
143.931473156283
 20
502.278770425123
 30
0.0
 10
144.0522983537143
 20
502.2486919897415
 30
0.0
 10
144.1743477361232
 20
502.2486919897415
 30
0.0
  0
ARC
  5
6E26
330
2
100
AcDbEntity
  8
AM_VIS
100
AcDbCircle
 10
138.154658600772
 20
470.6245642693803
 30
0.0
 40
32.17105315055206
100
AcDbArc
 50
79.41998589697736
 51
100.5800141030226
  0
LINE
  5
6E27
330
2
100
AcDbEntity
  8
AM_VIS
100
AcDbLine
 10
126.8447850247681
 20
537.9951708678851
 30
0.0
 11
126.903438714304
 21
503.7091349050209
 31
0.0
  0
LINE
  5
6E28
330
2
100
AcDbEntity
  8
AM_VIS
100
AcDbLine
 10
114.0917745861148
 20
502.2486924879384
 30
0.0
 11
114.7580723780028
 21
537.2486925211752
 31
0.0
  0
LINE
  5
6E29
330
2
100
AcDbEntity
  8
AM_VIS
100
AcDbLine
 10
114.7580759693777
 20
537.2487244256298
 30
0.0
 11
115.7534914047463
 21
537.9952067526017
 31
0.0
  0
LINE
  5
6E2A
330
2
100
AcDbEntity
  8
AM_VIS
100
AcDbLine
 10
115.1183929022696
 20
503.7091354385398
 30
0.0
 11
115.753487291125
 21
537.9951714377247
 31
0.0
  0
SPLINE
  5
6E2B
330
2
100
AcDbEntity
  8
AM_VIS
100
AcDbSpline
210
0.0
220
0.0
230
1.0
 70
     8
 71
     3
 72
    14
 73
    10
 74
     0
 42
0.0000000001
 43
0.0000000001
 40
0.0
 40
0.0
 40
0.0
 40
0.0
 40
0.540243545385104
 40
0.540243545385104
 40
1.114447522162294
 40
1.114447522162294
 40
1.699413537159285
 40
1.699413537159285
 40
2.2678151611634
 40
2.2678151611634
 40
2.2678151611634
 40
2.2678151611634
 10
114.1641307940503
 20
502.2486919897415
 30
0.0
 10
114.283437585019
 20
502.2486919897415
 30
0.0
 10
114.4012911145413
 20
502.2854216676479
 30
0.0
 10
114.6286078667984
 20
502.4286377480538
 30
0.0
 10
114.7346592730902
 20
502.537790560994
 30
0.0
 10
114.9153690740781
 20
502.8124310918973
 30
0.0
 10
114.9881278609645
 20
502.9769776902354
 30
0.0
 10
115.0875309595281
 20
503.331823161706
 30
0.0
 10
115.1149088702027
 20
503.519426454991
 30
0.0
 10
115.1184219525317
 20
503.7091349004298
 30
0.0
  0
ARC
  5
6E2C
330
2
100
AcDbEntity
  8
AM_VIS
100
AcDbCircle
 10
133.3255698724153
 20
503.3638086321144
 30
0.0
 40
6.431411455926655
100
AcDbArc
 50
176.9220975347129
 51
189.9847463686282
  0
ARC
  5
6E2D
330
2
100
AcDbEntity
  8
AM_VIS
100
AcDbCircle
 10
120.5211597138722
 20
468.129510156304
 30
0.0
 40
34.68055120402955
100
AcDbArc
 50
79.67698497503556
 51
100.3230150249644
  0
LINE
  5
6E2E
330
2
100
AcDbEntity
  8
AM_VIS
100
AcDbLine
 10
104.3612956210685
 20
502.2486931200025
 30
0.0
 11
105.3651184537962
 21
537.2486931954064
 31
0.0
  0
LINE
  5
6E2F
330
2
100
AcDbEntity
  8
AM_VIS
100
AcDbLine
 10
105.3651402727304
 20
537.2487326083729
 30
0.0
 11
106.864802918488
 21
537.9952157972712
 31
0.0
  0
LINE
  5
6E30
330
2
100
AcDbEntity
  8
AM_VIS
100
AcDbLine
 10
105.9079657708465
 20
503.709136121273
 30
0.0
 11
106.8647785599665
 21
537.9951721669352
 31
0.0
  0
ARC
  5
6E31
330
2
100
AcDbEntity
  8
AM_VIS
100
AcDbCircle
 10
104.3732434669244
 20
503.754260487102
 30
0.0
 40
1.535429304869286
100
AcDbArc
 50
332.8957484875104
 51
358.3158599329247
  0
SPLINE
  5
6E32
330
2
100
AcDbEntity
  8
AM_VIS
100
AcDbSpline
210
0.0
220
0.0
230
1.0
 70
     8
 71
     3
 72
    20
 73
    16
 74
     0
 42
0.0000000001
 43
0.0000000001
 40
0.0
 40
0.0
 40
0.0
 40
0.0
 40
1.663185064269457
 40
1.663185064269457
 40
3.216484134031983
 40
3.216484134031983
 40
4.921607516037483
 40
4.921607516037483
 40
6.405916512170289
 40
6.405916512170289
 40
7.673160321420109
 40
7.673160321420109
 40
8.509907606253287
 40
8.509907606253287
 40
9.190504834780982
 40
9.190504834780982
 40
9.190504834780982
 40
9.190504834780982
 10
104.4060579804471
 20
502.2486919897415
 30
0.0
 10
104.5034166153706
 20
502.2486919897415
 30
0.0
 10
104.6326380633903
 20
502.3039570722208
 30
0.0
 10
104.9909833221683
 20
502.468443353309
 30
0.0
 10
105.1924871681623
 20
502.5624707135494
 30
0.0
 10
105.6856278075373
 20
502.7271807459714
 30
0.0
 10
105.9772069952672
 20
502.7924411112263
 30
0.0
 10
106.5935361510631
 20
502.8219934533921
 30
0.0
 10
106.9273309140293
 20
502.7968005346178
 30
0.0
 10
107.7357546354723
 20
502.6537851938509
 30
0.0
 10
108.1347906401535
 20
502.5593711744555
 30
0.0
 10
108.833647599561
 20
502.4095487261294
 30
0.0
 10
109.122094485009
 20
502.3515365365272
 30
0.0
 10
109.6595079852571
 20
502.2744599811822
 30
0.0
 10
109.9161832977705
 20
502.2486919897415
 30
0.0
 10
110.170029603783
 20
502.2486919897415
 30
0.0
  0
LINE
  5
6E33
330
2
100
AcDbEntity
  8
AM_VIS
100
AcDbLine
 10
150.0330833134852
 20
495.2486919897416
 30
0.0
 11
152.0330833134852
 21
498.2486919897415
 31
0.0
  0
LINE
  5
6E34
330
2
100
AcDbEntity
  8
AM_VIS
100
AcDbLine
 10
106.0330833134852
 20
495.2486919897416
 30
0.0
 11
104.0330833134852
 21
498.2486919897415
 31
0.0
  0
LINE
  5
6E35
330
2
100
AcDbEntity
  8
AM_VIS
100
AcDbLine
 10
104.0330833134852
 20
502.2486919897415
 30
0.0
 11
104.0330833134852
 21
498.2486919897415
 31
0.0
  0
LINE
  5
6E36
330
2
100
AcDbEntity
  8
AM_VIS
100
AcDbLine
 10
152.0330833134852
 20
502.2486919897415
 30
0.0
 11
152.0330833134852
 21
498.2486919897415
 31
0.0
  0
LINE
  5
6E37
330
2
100
AcDbEntity
  8
AM_VIS
100
AcDbLine
 10
109.0330833134852
 20
540.2486919897415
 30
0.0
 11
109.0330833134852
 21
539.2486919897415
 31
0.0
  0
LINE
  5
6E38
330
2
100
AcDbEntity
  8
AM_VIS
100
AcDbLine
 10
147.0330833134852
 20
540.2486919897415
 30
0.0
 11
147.0330833134852
 21
539.2486919897415
 31
0.0
  0
LINE
  5
6E39
330
2
100
AcDbEntity
  8
AM_VIS
100
AcDbLine
 10
151.0330833134852
 20
537.2486919897416
 30
0.0
 11
152.0330833134852
 21
502.2486919897415
 31
0.0
  0
LINE
  5
6E3A
330
2
100
AcDbEntity
  8
AM_VIS
100
AcDbLine
 10
105.0330833134852
 20
537.2486919897416
 30
0.0
 11
104.0330833134852
 21
502.2486919897415
 31
0.0
  0
LINE
  5
6E3B
330
2
100
AcDbEntity
  8
AM_VIS
100
AcDbLine
 10
109.0330833134852
 20
539.2486919897415
 30
0.0
 11
105.0330833134852
 21
537.2486919897416
 31
0.0
  0
LINE
  5
6E3C
330
2
100
AcDbEntity
  8
AM_VIS
100
AcDbLine
 10
147.0330833134852
 20
539.2486919897415
 30
0.0
 11
151.0330833134852
 21
537.2486919897416
 31
0.0
  0
ARC
  5
6E3D
330
2
100
AcDbEntity
  8
AM_VIS
100
AcDbCircle
 10
152.6889813184684
 20
504.8127640806734
 30
0.0
 40
2.497541808389986
100
AcDbArc
 50
205.8555048067466
 51
241.5585284012024
  0
SPLINE
  5
6E3E
330
2
100
AcDbEntity
  8
AM_VIS
100
AcDbSpline
210
0.0
220
0.0
230
1.0
 70
     8
 71
     1
 72
     6
 73
     4
 74
     0
 42
0.0000000001
 43
0.0000000001
 40
0.0
 40
0.0
 40
1.253150002211392
 40
2.285557459551395
 40
2.700525682489391
 40
2.700525682489391
 10
104.9779631823223
 20
502.4621443959808
 30
0.0
 10
105.5585951595946
 20
502.8444745662287
 30
0.0
 10
105.7307507070528
 20
503.0404662733046
 30
0.0
 10
105.7417775921928
 20
503.057560006751
 30
0.0
  0
LINE
  5
6E3F
330
2
100
AcDbEntity
  8
AM_VIS
100
AcDbLine
 10
106.0330833134852
 20
495.2486919897416
 30
0.0
 11
150.0330833134852
 21
495.2486919897416
 31
0.0
  0
LINE
  5
6E40
330
2
100
AcDbEntity
  8
AM_VIS
100
AcDbLine
 10
104.0330833134852
 20
498.2486919897415
 30
0.0
 11
152.0330833134852
 21
498.2486919897415
 31
0.0
  0
LINE
  5
6E41
330
2
100
AcDbEntity
  8
AM_VIS
100
AcDbLine
 10
109.0330833134852
 20
540.2486919897415
 30
0.0
 11
147.0330833134852
 21
540.2486919897415
 31
0.0
  0
LINE
  5
6E42
330
2
100
AcDbEntity
  8
AM_VIS
100
AcDbLine
 10
152.0107628871063
 20
502.2486919897415
 30
0.0
 11
152.0330833134852
 21
502.2486919897415
 31
0.0
  0
LINE
  5
6E43
330
2
100
AcDbEntity
  8
AM_VIS
100
AcDbLine
 10
144.2561247054465
 20
502.2486919897415
 30
0.0
 11
147.568708224155
 21
502.2486919897415
 31
0.0
  0
LINE
  5
6E44
330
2
100
AcDbEntity
  8
AM_VIS
100
AcDbLine
 10
104.0330833134852
 20
502.2486919897415
 30
0.0
 11
104.361335029548
 21
502.2486919897415
 31
0.0
  0
LINE
  5
6E45
330
2
100
AcDbEntity
  8
AM_VIS
100
AcDbLine
 10
126.9982488993157
 20
502.2486919897415
 30
0.0
 11
131.988880727651
 21
502.2486919897415
 31
0.0
  0
LINE
  5
6E46
330
2
100
AcDbEntity
  8
AM_VIS
100
AcDbLine
 10
110.3465650581951
 20
502.2486919897415
 30
0.0
 11
114.091800755929
 21
502.2486919897415
 31
0.0
  0
LINE
  5
6E47
330
2
100
AcDbEntity
  8
AM_VIS
100
AcDbLine
 10
151.0330833134852
 20
537.2486919897416
 30
0.0
 11
151.0069374252931
 21
537.2486919897416
 31
0.0
  0
LINE
  5
6E48
330
2
100
AcDbEntity
  8
AM_VIS
100
AcDbLine
 10
146.8153841795857
 20
537.2486919897416
 30
0.0
 11
143.5028006608773
 21
537.2486919897416
 31
0.0
  0
LINE
  5
6E49
330
2
100
AcDbEntity
  8
AM_VIS
100
AcDbLine
 10
131.9273451087726
 20
537.2486919897416
 30
0.0
 11
126.9367132804374
 21
537.2486919897416
 31
0.0
  0
LINE
  5
6E4A
330
2
100
AcDbEntity
  8
AM_VIS
100
AcDbLine
 10
114.7581002937116
 20
537.2486919897416
 30
0.0
 11
111.0128645959776
 21
537.2486919897416
 31
0.0
  0
LINE
  5
6E4B
330
2
100
AcDbEntity
  8
AM_VIS
100
AcDbLine
 10
105.3651604913613
 20
537.2486919897416
 30
0.0
 11
105.0330833134852
 21
537.2486919897416
 31
0.0
  0
LINE
  5
6E4C
330
2
100
AcDbEntity
  8
AM_VIS
100
AcDbLine
 10
109.0330833134852
 20
539.2486919897415
 30
0.0
 11
147.0330833134852
 21
539.2486919897415
 31
0.0
  0
LINE
  5
6E4D
330
2
100
AcDbEntity
  8
AM_VIS
100
AcDbLine
 10
145.6899559143606
 20
537.995170862981
 30
0.0
 11
149.507272631342
 21
537.995170862981
 31
0.0
  0
LINE
  5
6E4E
330
2
100
AcDbEntity
  8
AM_VIS
100
AcDbLine
 10
147.568708224155
 20
502.2486919897415
 30
0.0
 11
147.7201542359781
 21
502.2486919897415
 31
0.0
  0
LINE
  5
6E4F
330
2
100
AcDbEntity
  8
AM_VIS
100
AcDbLine
 10
151.9979976779312
 20
502.2486919897415
 30
0.0
 11
152.0107628871063
 21
502.2486919897415
 31
0.0
  0
LINE
  5
6E50
330
2
100
AcDbEntity
  8
AM_VIS
100
AcDbLine
 10
131.8354139865645
 20
537.995170862981
 30
0.0
 11
142.3773723956523
 21
537.995170862981
 31
0.0
  0
LINE
  5
6E51
330
2
100
AcDbEntity
  8
AM_VIS
100
AcDbLine
 10
131.988880727651
 20
502.2486919897415
 30
0.0
 11
132.2477806824346
 21
502.2486919897415
 31
0.0
  0
LINE
  5
6E52
330
2
100
AcDbEntity
  8
AM_VIS
100
AcDbLine
 10
144.0615365191048
 20
502.2486919897415
 30
0.0
 11
144.2561247054465
 21
502.2486919897415
 31
0.0
  0
LINE
  5
6E53
330
2
100
AcDbEntity
  8
AM_VIS
100
AcDbLine
 10
115.7535183191054
 20
537.995170862981
 30
0.0
 11
126.8447821582291
 21
537.995170862981
 31
0.0
  0
LINE
  5
6E54
330
2
100
AcDbEntity
  8
AM_VIS
100
AcDbLine
 10
114.091800755929
 20
502.2486919897415
 30
0.0
 11
114.3064945714586
 21
502.2486919897415
 31
0.0
  0
LINE
  5
6E55
330
2
100
AcDbEntity
  8
AM_VIS
100
AcDbLine
 10
126.7358248562889
 20
502.2486919897415
 30
0.0
 11
126.9982488993157
 21
502.2486919897415
 31
0.0
  0
LINE
  5
6E56
330
2
100
AcDbEntity
  8
AM_VIS
100
AcDbLine
 10
106.8648252853123
 20
537.995170862981
 30
0.0
 11
112.0082826213715
 21
537.995170862981
 31
0.0
  0
LINE
  5
6E57
330
2
100
AcDbEntity
  8
AM_VIS
100
AcDbLine
 10
104.361335029548
 20
502.2486919897415
 30
0.0
 11
104.4060579804439
 21
502.2486919897415
 31
0.0
  0
LINE
  5
6E58
330
2
100
AcDbEntity
  8
AM_VIS
100
AcDbLine
 10
110.1700296037953
 20
502.2486919897415
 30
0.0
 11
110.3465650581951
 21
502.2486919897415
 31
0.0
  0
LINE
  5
6E59
330
2
100
AcDbEntity
  8
AM_VIS
100
AcDbLine
 10
103.0330833134852
 20
465.2486919897415
 30
0.0
 11
93.03308331348523
 21
465.2486919897415
 31
0.0
  0
LINE
  5
6E5A
330
2
100
AcDbEntity
  8
AM_VIS
100
AcDbLine
 10
163.0330833134852
 20
465.2486919897415
 30
0.0
 11
153.0330833134852
 21
465.2486919897415
 31
0.0
  0
LINE
  5
6E5B
330
2
100
AcDbEntity
  8
AM_VIS
100
AcDbLine
 10
101.0330833134852
 20
440.2486919897415
 30
0.0
 11
95.03308331348524
 21
440.2486919897415
 31
0.0
  0
LINE
  5
6E5C
330
2
100
AcDbEntity
  8
AM_VIS
100
AcDbLine
 10
95.03308331348524
 20
460.2486919897415
 30
0.0
 11
101.0330833134852
 21
460.2486919897415
 31
0.0
  0
LINE
  5
6E5D
330
2
100
AcDbEntity
  8
AM_VIS
100
AcDbLine
 10
95.03308331348524
 20
440.2486919897415
 30
0.0
 11
95.03308331348524
 21
460.2486919897415
 31
0.0
  0
LINE
  5
6E5E
330
2
100
AcDbEntity
  8
AM_VIS
100
AcDbLine
 10
101.0330833134852
 20
460.2486919897415
 30
0.0
 11
101.0330833134852
 21
440.2486919897415
 31
0.0
  0
LINE
  5
6E5F
330
2
100
AcDbEntity
  8
AM_VIS
100
AcDbLine
 10
100.0330833134852
 20
440.2486919897415
 30
0.0
 11
100.0330833134852
 21
460.2486919897415
 31
0.0
  0
LINE
  5
6E60
330
2
100
AcDbEntity
  8
AM_VIS
100
AcDbLine
 10
96.03308331348523
 20
440.2486919897415
 30
0.0
 11
96.03308331348523
 21
460.2486919897415
 31
0.0
  0
LINE
  5
6E61
330
2
100
AcDbEntity
  8
AM_VIS
100
AcDbLine
 10
161.0330833134852
 20
440.2486919897415
 30
0.0
 11
155.0330833134852
 21
440.2486919897415
 31
0.0
  0
LINE
  5
6E62
330
2
100
AcDbEntity
  8
AM_VIS
100
AcDbLine
 10
155.0330833134852
 20
460.2486919897415
 30
0.0
 11
161.0330833134852
 21
460.2486919897415
 31
0.0
  0
LINE
  5
6E63
330
2
100
AcDbEntity
  8
AM_VIS
100
AcDbLine
 10
161.0330833134852
 20
460.2486919897415
 30
0.0
 11
161.0330833134852
 21
440.2486919897415
 31
0.0
  0
LINE
  5
6E64
330
2
100
AcDbEntity
  8
AM_VIS
100
AcDbLine
 10
160.0330833134852
 20
440.2486919897415
 30
0.0
 11
160.0330833134852
 21
460.2486919897415
 31
0.0
  0
LINE
  5
6E65
330
2
100
AcDbEntity
  8
AM_VIS
100
AcDbLine
 10
156.0330833134852
 20
440.2486919897415
 30
0.0
 11
156.0330833134852
 21
460.2486919897415
 31
0.0
  0
LINE
  5
6E66
330
2
100
AcDbEntity
  8
AM_VIS
100
AcDbLine
 10
155.0330833134852
 20
440.2486919897415
 30
0.0
 11
155.0330833134852
 21
460.2486919897415
 31
0.0
  0
LINE
  5
6E67
330
2
100
AcDbEntity
  8
AM_VIS
100
AcDbLine
 10
103.0330833134852
 20
467.2486919897416
 30
0.0
 11
103.0330833134852
 21
435.2486919897415
 31
0.0
  0
LINE
  5
6E68
330
2
100
AcDbEntity
  8
AM_VIS
100
AcDbLine
 10
153.0330833134852
 20
435.2486919897415
 30
0.0
 11
153.0330833134852
 21
467.2486919897416
 31
0.0
  0
LINE
  5
6E69
330
2
100
AcDbEntity
  8
AM_VIS
100
AcDbLine
 10
114.2830833134852
 20
437.9986919897415
 30
0.0
 11
114.2830833134852
 21
462.4986919897415
 31
0.0
  0
LINE
  5
6E6A
330
2
100
AcDbEntity
  8
AM_VIS
100
AcDbLine
 10
115.7830833134852
 20
463.9986919897416
 30
0.0
 11
140.2830833134852
 21
463.9986919897416
 31
0.0
  0
LINE
  5
6E6B
330
2
100
AcDbEntity
  8
AM_VIS
100
AcDbLine
 10
141.7830833134852
 20
462.4986919897415
 30
0.0
 11
141.7830833134852
 21
437.9986919897415
 31
0.0
  0
LINE
  5
6E6C
330
2
100
AcDbEntity
  8
AM_VIS
100
AcDbLine
 10
140.2830833134852
 20
436.4986919897416
 30
0.0
 11
115.7830833134852
 21
436.4986919897416
 31
0.0
  0
LINE
  5
6E6D
330
2
100
AcDbEntity
  8
AM_VIS
100
AcDbLine
 10
93.03308331348523
 20
435.2486919897415
 30
0.0
 11
93.03308331348523
 21
465.2486919897415
 31
0.0
  0
LINE
  5
6E6E
330
2
100
AcDbEntity
  8
AM_VIS
100
AcDbLine
 10
163.0330833134852
 20
435.2486919897415
 30
0.0
 11
163.0330833134852
 21
465.2486919897415
 31
0.0
  0
LINE
  5
6E6F
330
2
100
AcDbEntity
  8
AM_VIS
100
AcDbLine
 10
132.0330833134852
 20
466.0486919897415
 30
0.0
 11
132.0330833134852
 21
467.0486919897415
 31
0.0
  0
LINE
  5
6E70
330
2
100
AcDbEntity
  8
AM_VIS
100
AcDbLine
 10
122.0330833134852
 20
466.0486919897415
 30
0.0
 11
132.0330833134852
 21
466.0486919897415
 31
0.0
  0
LINE
  5
6E71
330
2
100
AcDbEntity
  8
AM_VIS
100
AcDbLine
 10
122.0330833134852
 20
465.0486919897415
 30
0.0
 11
122.0330833134852
 21
466.0486919897415
 31
0.0
  0
LINE
  5
6E72
330
2
100
AcDbEntity
  8
AM_VIS
100
AcDbLine
 10
132.0330833134852
 20
465.0486919897415
 30
0.0
 11
122.0330833134852
 21
465.0486919897415
 31
0.0
  0
LINE
  5
6E73
330
2
100
AcDbEntity
  8
AM_VIS
100
AcDbLine
 10
132.0330833134852
 20
464.0486919897415
 30
0.0
 11
132.0330833134852
 21
465.0486919897415
 31
0.0
  0
LINE
  5
6E74
330
2
100
AcDbEntity
  8
AM_VIS
100
AcDbLine
 10
136.0330833134852
 20
465.5486919897415
 30
0.0
 11
132.0330833134852
 21
464.0486919897415
 31
0.0
  0
LINE
  5
6E75
330
2
100
AcDbEntity
  8
AM_VIS
100
AcDbLine
 10
132.0330833134852
 20
467.0486919897415
 30
0.0
 11
136.0330833134852
 21
465.5486919897415
 31
0.0
  0
LINE
  5
6E76
330
2
100
AcDbEntity
  8
AM_VIS
100
AcDbLine
 10
163.0330833134852
 20
435.2486919897415
 30
0.0
 11
153.0330833134852
 21
435.2486919897415
 31
0.0
  0
LINE
  5
6E77
330
2
100
AcDbEntity
  8
AM_VIS
100
AcDbLine
 10
103.0330833134852
 20
435.2486919897415
 30
0.0
 11
93.03308331348523
 21
435.2486919897415
 31
0.0
  0
LINE
  5
6E78
330
2
100
AcDbEntity
  8
AM_VIS
100
AcDbLine
 10
108.0330833134852
 20
435.2486919897415
 30
0.0
 11
148.0330833134852
 21
435.2486919897415
 31
0.0
  0
LINE
  5
6E79
330
2
100
AcDbEntity
  8
AM_VIS
100
AcDbLine
 10
148.0330833134852
 20
467.2486919897416
 30
0.0
 11
108.0330833134852
 21
467.2486919897416
 31
0.0
  0
LINE
  5
6E7A
330
2
100
AcDbEntity
  8
AM_VIS
100
AcDbLine
 10
150.0330833134852
 20
423.2486919897415
 30
0.0
 11
150.3345641452885
 21
434.7617804638954
 31
0.0
  0
LINE
  5
6E7B
330
2
100
AcDbEntity
  8
AM_VIS
100
AcDbLine
 10
106.0330833134852
 20
423.2486919897415
 30
0.0
 11
105.731602481682
 21
434.7617804638954
 31
0.0
  0
ARC
  5
6E7C
330
2
100
AcDbEntity
  8
AM_VIS
100
AcDbCircle
 10
115.7830833134852
 20
462.4986919897415
 30
0.0
 40
1.5
100
AcDbArc
 50
90.0
 51
180.0
  0
ARC
  5
6E7D
330
2
100
AcDbEntity
  8
AM_VIS
100
AcDbCircle
 10
140.2830833134852
 20
462.4986919897415
 30
0.0
 40
1.5
100
AcDbArc
 50
0.0
 51
90.0
  0
ARC
  5
6E7E
330
2
100
AcDbEntity
  8
AM_VIS
100
AcDbCircle
 10
140.2830833134852
 20
437.9986919897415
 30
0.0
 40
1.5
100
AcDbArc
 50
270.0
 51
0.0
  0
ARC
  5
6E7F
330
2
100
AcDbEntity
  8
AM_VIS
100
AcDbCircle
 10
115.7830833134852
 20
437.9986919897415
 30
0.0
 40
1.5
100
AcDbArc
 50
180.0
 51
270.0
  0
LINE
  5
6E80
330
2
100
AcDbEntity
  8
AM_VIS
100
AcDbLine
 10
150.0330833134852
 20
423.2486919897415
 30
0.0
 11
106.0330833134852
 21
423.2486919897415
 31
0.0
  0
LINE
  5
6E81
330
2
100
AcDbEntity
  8
AM_VIS
100
AcDbLine
 10
108.0330833134852
 20
435.2486919897415
 30
0.0
 11
103.0330833134852
 21
435.2486919897415
 31
0.0
  0
LINE
  5
6E82
330
2
100
AcDbEntity
  8
AM_VIS
100
AcDbLine
 10
153.0330833134852
 20
435.2486919897415
 30
0.0
 11
148.0330833134852
 21
435.2486919897415
 31
0.0
  0
LINE
  5
6E83
330
2
100
AcDbEntity
  8
AM_VIS
100
AcDbLine
 10
103.0330833134852
 20
467.2486919897416
 30
0.0
 11
108.0330833134852
 21
467.2486919897416
 31
0.0
  0
LINE
  5
6E84
330
2
100
AcDbEntity
  8
AM_VIS
100
AcDbLine
 10
148.0330833134852
 20
467.2486919897416
 30
0.0
 11
153.0330833134852
 21
467.2486919897416
 31
0.0
  0
ARC
  5
6E85
330
2
100
AcDbEntity
  8
AM_VIS
100
AcDbCircle
 10
150.8343928077763
 20
434.7486919897415
 30
0.0
 40
0.5
100
AcDbArc
 50
90.0
 51
178.4999999999973
  0
ARC
  5
6E86
330
2
100
AcDbEntity
  8
AM_VIS
100
AcDbCircle
 10
105.2317738191941
 20
434.7486919897415
 30
0.0
 40
0.5
100
AcDbArc
 50
1.500000000002737
 51
90.0
  0
LINE
  5
6E87
330
2
100
AcDbEntity
  8
AM_VIS
100
AcDbLine
 10
217.3666008809082
 20
478.2486919897415
 30
0.0
 11
227.3666008809082
 21
478.2486919897415
 31
0.0
  0
LINE
  5
6E88
330
2
100
AcDbEntity
  8
AM_VIS
100
AcDbLine
 10
227.3666008809082
 20
478.2486919897415
 30
0.0
 11
227.3666008809082
 21
477.2486919897415
 31
0.0
  0
LINE
  5
6E89
330
2
100
AcDbEntity
  8
AM_VIS
100
AcDbLine
 10
217.3666008809082
 20
478.2486919897415
 30
0.0
 11
217.3666008809082
 21
477.2486919897415
 31
0.0
  0
LINE
  5
6E8A
330
2
100
AcDbEntity
  8
AM_VIS
100
AcDbLine
 10
255.3666008809081
 20
481.2486919897415
 30
0.0
 11
265.3666008809081
 21
481.2486919897415
 31
0.0
  0
LINE
  5
6E8B
330
2
100
AcDbEntity
  8
AM_VIS
100
AcDbLine
 10
265.3666008809081
 20
481.2486919897415
 30
0.0
 11
265.3666008809081
 21
480.2486919897416
 31
0.0
  0
LINE
  5
6E8C
330
2
100
AcDbEntity
  8
AM_VIS
100
AcDbLine
 10
255.3666008809081
 20
481.2486919897415
 30
0.0
 11
255.3666008809081
 21
480.2486919897416
 31
0.0
  0
ARC
  5
6E8D
330
2
100
AcDbEntity
  8
AM_VIS
100
AcDbCircle
 10
278.3666008809081
 20
480.2486919897416
 30
0.0
 40
3.0
100
AcDbArc
 50
270.0
 51
0.0
  0
LINE
  5
6E8E
330
2
100
AcDbEntity
  8
AM_VIS
100
AcDbLine
 10
278.3666008809081
 20
492.2486919897416
 30
0.0
 11
278.3666008809081
 21
500.2486919897416
 31
0.0
  0
LINE
  5
6E8F
330
2
100
AcDbEntity
  8
AM_VIS
100
AcDbLine
 10
281.3666008809081
 20
500.2486919897416
 30
0.0
 11
281.3666008809081
 21
492.2486919897416
 31
0.0
  0
LINE
  5
6E90
330
2
100
AcDbEntity
  8
AM_VIS
100
AcDbLine
 10
278.3666008809081
 20
484.9766004815222
 30
0.0
 11
273.6386923891274
 21
480.2486919897416
 31
0.0
  0
LINE
  5
6E91
330
2
100
AcDbEntity
  8
AM_VIS
100
AcDbLine
 10
278.3666008809081
 20
477.2486919897415
 30
0.0
 11
251.3666008809081
 21
477.2486919897415
 31
0.0
  0
ARC
  5
6E92
330
2
100
AcDbEntity
  8
AM_VIS
100
AcDbCircle
 10
277.3666008809081
 20
481.2486919897415
 30
0.0
 40
0.9999999999999998
100
AcDbArc
 50
270.0
 51
0.0
  0
LINE
  5
6E93
330
2
100
AcDbEntity
  8
AM_VIS
100
AcDbLine
 10
278.3666008809081
 20
481.2486919897415
 30
0.0
 11
278.3666008809081
 21
492.2486919897416
 31
0.0
  0
LINE
  5
6E94
330
2
100
AcDbEntity
  8
AM_VIS
100
AcDbLine
 10
251.3666008809081
 20
480.2486919897416
 30
0.0
 11
277.3666008809081
 21
480.2486919897416
 31
0.0
  0
LINE
  5
6E95
330
2
100
AcDbEntity
  8
AM_VIS
100
AcDbLine
 10
281.3666008809081
 20
500.2486919897416
 30
0.0
 11
278.3666008809081
 21
500.2486919897416
 31
0.0
  0
LINE
  5
6E96
330
2
100
AcDbEntity
  8
AM_VIS
100
AcDbLine
 10
278.3666008809081
 20
477.2486919897415
 30
0.0
 11
278.3666008809081
 21
481.2486919897415
 31
0.0
  0
LINE
  5
6E97
330
2
100
AcDbEntity
  8
AM_VIS
100
AcDbLine
 10
251.3666008809081
 20
477.2486919897415
 30
0.0
 11
251.3666008809081
 21
480.2486919897416
 31
0.0
  0
LINE
  5
6E98
330
2
100
AcDbEntity
  8
AM_VIS
100
AcDbLine
 10
281.3666008809081
 20
492.2486919897416
 30
0.0
 11
281.3666008809081
 21
480.2486919897416
 31
0.0
  0
LINE
  5
6E99
330
2
100
AcDbEntity
  8
AM_VIS
100
AcDbLine
 10
266.8666008809081
 20
437.7486919897416
 30
0.0
 11
266.8666008809081
 21
436.7486919897415
 31
0.0
  0
LINE
  5
6E9A
330
2
100
AcDbEntity
  8
AM_VIS
100
AcDbLine
 10
266.8666008809081
 20
463.7486919897416
 30
0.0
 11
266.8666008809081
 21
462.7486919897416
 31
0.0
  0
LINE
  5
6E9B
330
2
100
AcDbEntity
  8
AM_VIS
100
AcDbLine
 10
266.3666008809081
 20
436.7486919897415
 30
0.0
 11
266.8666008809081
 21
436.7486919897415
 31
0.0
  0
LINE
  5
6E9C
330
2
100
AcDbEntity
  8
AM_VIS
100
AcDbLine
 10
266.8666008809081
 20
437.7486919897416
 30
0.0
 11
266.8666008809081
 21
462.7486919897416
 31
0.0
  0
LINE
  5
6E9D
330
2
100
AcDbEntity
  8
AM_VIS
100
AcDbLine
 10
266.8666008809081
 20
463.7486919897416
 30
0.0
 11
266.3666008809081
 21
463.7486919897416
 31
0.0
  0
LINE
  5
6E9E
330
2
100
AcDbEntity
  8
AM_VIS
100
AcDbLine
 10
204.7666008809082
 20
439.7486919897415
 30
0.0
 11
204.7666008809082
 21
460.7486919897415
 31
0.0
  0
LINE
  5
6E9F
330
2
100
AcDbEntity
  8
AM_VIS
100
AcDbLine
 10
205.3666008809081
 20
436.7486919897415
 30
0.0
 11
205.3666008809081
 21
437.7486919897416
 31
0.0
  0
LINE
  5
6EA0
330
2
100
AcDbEntity
  8
AM_VIS
100
AcDbLine
 10
205.3666008809081
 20
462.7486919897416
 30
0.0
 11
205.3666008809081
 21
463.7486919897416
 31
0.0
  0
LINE
  5
6EA1
330
2
100
AcDbEntity
  8
AM_VIS
100
AcDbLine
 10
205.3666008809081
 20
439.7486919897415
 30
0.0
 11
204.7666008809082
 21
439.7486919897415
 31
0.0
  0
LINE
  5
6EA2
330
2
100
AcDbEntity
  8
AM_VIS
100
AcDbLine
 10
205.3666008809081
 20
460.7486919897415
 30
0.0
 11
204.7666008809082
 21
460.7486919897415
 31
0.0
  0
LINE
  5
6EA3
330
2
100
AcDbEntity
  8
AM_VIS
100
AcDbLine
 10
205.3666008809081
 20
462.7486919897416
 30
0.0
 11
205.3666008809081
 21
437.7486919897416
 31
0.0
  0
LINE
  5
6EA4
330
2
100
AcDbEntity
  8
AM_VIS
100
AcDbLine
 10
205.3666008809081
 20
436.7486919897415
 30
0.0
 11
216.3666008809081
 21
436.7486919897415
 31
0.0
  0
LINE
  5
6EA5
330
2
100
AcDbEntity
  8
AM_VIS
100
AcDbLine
 10
216.3666008809081
 20
463.7486919897416
 30
0.0
 11
205.3666008809081
 21
463.7486919897416
 31
0.0
  0
LINE
  5
6EA6
330
2
100
AcDbEntity
  8
AM_VIS
100
AcDbLine
 10
226.9666008809082
 20
479.5486919897415
 30
0.0
 11
226.9666008809082
 21
478.2486919897415
 31
0.0
  0
LINE
  5
6EA7
330
2
100
AcDbEntity
  8
AM_VIS
100
AcDbLine
 10
217.7666008809082
 20
479.5486919897415
 30
0.0
 11
217.7666008809082
 21
478.9630361187997
 31
0.0
  0
ELLIPSE
  5
6EA8
330
2
100
AcDbEntity
  8
AM_VIS
100
AcDbEllipse
 10
222.3666008809082
 20
478.9630361187997
 30
0.0
 11
0.0000000000000085
 21
-12.63839612949096
 31
0.0
210
0.0
220
0.0
230
1.0
 40
0.3639702342662106
 41
4.712388980384688
 42
4.768940857928679
  0
ARC
  5
6EA9
330
2
100
AcDbEntity
  8
AM_VIS
100
AcDbCircle
 10
224.7466008809082
 20
479.9286919897416
 30
0.0
 40
2.369999999999999
100
AcDbArc
 50
0.0
 51
90.0
  0
ARC
  5
6EAA
330
2
100
AcDbEntity
  8
AM_VIS
100
AcDbCircle
 10
219.9866008809082
 20
479.9286919897416
 30
0.0
 40
2.369999999999999
100
AcDbArc
 50
90.0
 51
180.0
  0
LINE
  5
6EAB
330
2
100
AcDbEntity
  8
AM_VIS
100
AcDbLine
 10
224.7466008809082
 20
482.2986919897415
 30
0.0
 11
219.9866008809082
 21
482.2986919897415
 31
0.0
  0
LINE
  5
6EAC
330
2
100
AcDbEntity
  8
AM_VIS
100
AcDbLine
 10
227.1166008809082
 20
479.5486919897415
 30
0.0
 11
217.6166008809082
 21
479.5486919897415
 31
0.0
  0
LINE
  5
6EAD
330
2
100
AcDbEntity
  8
AM_VIS
100
AcDbLine
 10
217.6166008809082
 20
479.5486919897415
 30
0.0
 11
217.6166008809082
 21
479.9286919897416
 31
0.0
  0
LINE
  5
6EAE
330
2
100
AcDbEntity
  8
AM_VIS
100
AcDbLine
 10
227.1166008809082
 20
479.5486919897415
 30
0.0
 11
227.1166008809082
 21
479.9286919897416
 31
0.0
  0
LINE
  5
6EAF
330
2
100
AcDbEntity
  8
AM_VIS
100
AcDbLine
 10
264.9666008809081
 20
482.5486919897415
 30
0.0
 11
264.9666008809081
 21
481.2486919897415
 31
0.0
  0
LINE
  5
6EB0
330
2
100
AcDbEntity
  8
AM_VIS
100
AcDbLine
 10
255.7666008809082
 20
482.5486919897415
 30
0.0
 11
255.7666008809082
 21
481.9630361187997
 31
0.0
  0
ELLIPSE
  5
6EB1
330
2
100
AcDbEntity
  8
AM_VIS
100
AcDbEllipse
 10
260.3666008809081
 20
481.9630361187997
 30
0.0
 11
0.0000000000000085
 21
-12.63839612949096
 31
0.0
210
0.0
220
0.0
230
1.0
 40
0.3639702342662106
 41
4.712388980384689
 42
4.76894085792868
  0
ARC
  5
6EB2
330
2
100
AcDbEntity
  8
AM_VIS
100
AcDbCircle
 10
262.7466008809081
 20
482.9286919897416
 30
0.0
 40
2.369999999999999
100
AcDbArc
 50
0.0
 51
90.0
  0
ARC
  5
6EB3
330
2
100
AcDbEntity
  8
AM_VIS
100
AcDbCircle
 10
257.9866008809081
 20
482.9286919897416
 30
0.0
 40
2.369999999999999
100
AcDbArc
 50
90.0
 51
180.0
  0
LINE
  5
6EB4
330
2
100
AcDbEntity
  8
AM_VIS
100
AcDbLine
 10
262.7466008809081
 20
485.2986919897415
 30
0.0
 11
257.9866008809081
 21
485.2986919897415
 31
0.0
  0
LINE
  5
6EB5
330
2
100
AcDbEntity
  8
AM_VIS
100
AcDbLine
 10
265.1166008809081
 20
482.5486919897415
 30
0.0
 11
255.6166008809081
 21
482.5486919897415
 31
0.0
  0
LINE
  5
6EB6
330
2
100
AcDbEntity
  8
AM_VIS
100
AcDbLine
 10
255.6166008809081
 20
482.5486919897415
 30
0.0
 11
255.6166008809081
 21
482.9286919897416
 31
0.0
  0
LINE
  5
6EB7
330
2
100
AcDbEntity
  8
AM_VIS
100
AcDbLine
 10
265.1166008809081
 20
482.5486919897415
 30
0.0
 11
265.1166008809081
 21
482.9286919897416
 31
0.0
  0
ARC
  5
6EB8
330
2
100
AcDbEntity
  8
AM_VIS
100
AcDbCircle
 10
259.4417455755382
 20
413.2486919897416
 30
0.0
 40
2.0
100
AcDbArc
 50
270.0
 51
305.9746783316422
  0
ARC
  5
6EB9
330
2
100
AcDbEntity
  8
AM_VIS
100
AcDbCircle
 10
223.2914561862782
 20
413.2486919897416
 30
0.0
 40
2.0
100
AcDbArc
 50
234.0253216683578
 51
270.0
  0
LINE
  5
6EBA
330
2
100
AcDbEntity
  8
AM_VIS
100
AcDbLine
 10
225.5068009235742
 20
411.6301386197707
 30
0.0
 11
230.45654839188
 21
411.6301386197707
 31
0.0
  0
LINE
  5
6EBB
330
2
100
AcDbEntity
  8
AM_VIS
100
AcDbLine
 10
230.579808070234
 20
419.7486919897415
 30
0.0
 11
224.300931315159
 21
419.7486919897415
 31
0.0
  0
LINE
  5
6EBC
330
2
100
AcDbEntity
  8
AM_VIS
100
AcDbLine
 10
237.8666008809081
 20
411.6301386197707
 30
0.0
 11
244.8666008809081
 21
411.6301386197707
 31
0.0
  0
LINE
  5
6EBD
330
2
100
AcDbEntity
  8
AM_VIS
100
AcDbLine
 10
245.8064372126563
 20
419.7486919897415
 30
0.0
 11
236.92676454916
 21
419.7486919897415
 31
0.0
  0
LINE
  5
6EBE
330
2
100
AcDbEntity
  8
AM_VIS
100
AcDbLine
 10
252.2766533699363
 20
411.6301386197707
 30
0.0
 11
257.2264008382421
 21
411.6301386197707
 31
0.0
  0
LINE
  5
6EBF
330
2
100
AcDbEntity
  8
AM_VIS
100
AcDbLine
 10
258.4322704466573
 20
419.7486919897415
 30
0.0
 11
252.1533936915822
 21
419.7486919897415
 31
0.0
  0
LINE
  5
6EC0
330
2
100
AcDbEntity
  8
AM_VIS
100
AcDbLine
 10
260.2957450770941
 20
411.6301386197707
 30
0.0
 11
260.6166008809081
 21
411.6301386197707
 31
0.0
  0
LINE
  5
6EC1
330
2
100
AcDbEntity
  8
AM_VIS
100
AcDbLine
 10
261.5555081536594
 20
419.7486919897415
 30
0.0
 11
261.0612659000202
 21
419.7486919897415
 31
0.0
  0
LINE
  5
6EC2
330
2
100
AcDbEntity
  8
AM_VIS
100
AcDbLine
 10
259.4417455755382
 20
411.2486919897415
 30
0.0
 11
223.2914561862782
 21
411.2486919897415
 31
0.0
  0
LINE
  5
6EC3
330
2
100
AcDbEntity
  8
AM_VIS
100
AcDbLine
 10
222.1166008809081
 20
411.6301386197707
 30
0.0
 11
222.4374566847222
 21
411.6301386197707
 31
0.0
  0
LINE
  5
6EC4
330
2
100
AcDbEntity
  8
AM_VIS
100
AcDbLine
 10
221.1689674049383
 20
420.2486158373197
 30
0.0
 11
221.6649306665687
 21
420.2486158373197
 31
0.0
  0
LINE
  5
6EC5
330
2
100
AcDbEntity
  8
AM_VIS
100
AcDbLine
 10
260.6166008809081
 20
411.6301386197707
 30
0.0
 11
260.6166008809081
 21
412.0030648334985
 31
0.0
  0
LINE
  5
6EC6
330
2
100
AcDbEntity
  8
AM_VIS
100
AcDbLine
 10
221.6692640214144
 20
419.9393514553279
 30
0.0
 11
221.1689674049383
 21
420.2486158373197
 31
0.0
  0
LINE
  5
6EC7
330
2
100
AcDbEntity
  8
AM_VIS
100
AcDbLine
 10
222.1166008809081
 20
411.6301386197707
 30
0.0
 11
222.1166008809081
 21
412.0030648334985
 31
0.0
  0
LINE
  5
6EC8
330
2
100
AcDbEntity
  8
AM_VIS
100
AcDbLine
 10
221.1689674049383
 20
420.2486158373197
 30
0.0
 11
221.1166008809081
 21
423.2486919897415
 31
0.0
  0
LINE
  5
6EC9
330
2
100
AcDbEntity
  8
AM_VIS
100
AcDbLine
 10
261.5555081536594
 20
419.7486919897415
 30
0.0
 11
261.6166008809081
 21
423.2486919897415
 31
0.0
  0
LINE
  5
6ECA
330
2
100
AcDbEntity
  8
AM_VIS
100
AcDbLine
 10
230.5650404195881
 20
413.2137871669939
 30
0.0
 11
230.5798123781084
 21
419.7486919800038
 31
0.0
  0
LINE
  5
6ECB
330
2
100
AcDbEntity
  8
AM_VIS
100
AcDbLine
 10
230.45654839188
 20
411.6301386197707
 30
0.0
 11
230.45654839188
 21
419.7486919897415
 31
0.0
  0
ARC
  5
6ECC
330
2
100
AcDbEntity
  8
AM_VIS
100
AcDbCircle
 10
220.7978277496737
 20
413.0873483987278
 30
0.0
 40
9.768026657624833
100
AcDbArc
 50
351.4204983248894
 51
0.7416657350128856
  0
LINE
  5
6ECD
330
2
100
AcDbEntity
  8
AM_VIS
100
AcDbLine
 10
225.5068009235742
 20
411.6301386197707
 30
0.0
 11
225.5068009235742
 21
419.7486919897415
 31
0.0
  0
LINE
  5
6ECE
330
2
100
AcDbEntity
  8
AM_VIS
100
AcDbLine
 10
224.3008891908512
 20
419.7486910581814
 30
0.0
 11
224.4454056793121
 21
413.213786232379
 31
0.0
  0
ARC
  5
6ECF
330
2
100
AcDbEntity
  8
AM_VIS
100
AcDbCircle
 10
226.3481472933591
 20
413.3414849086342
 30
0.0
 40
1.906979243294815
100
AcDbArc
 50
183.8395909020649
 51
243.8199600182316
  0
LINE
  5
6ED0
330
2
100
AcDbEntity
  8
AM_VIS
100
AcDbLine
 10
245.6938361090514
 20
413.2137866030363
 30
0.0
 11
245.80647004998
 21
419.748691423766
 31
0.0
  0
LINE
  5
6ED1
330
2
100
AcDbEntity
  8
AM_VIS
100
AcDbLine
 10
244.8666008809081
 20
411.6301386197707
 30
0.0
 11
244.8666008809081
 21
419.7486919897415
 31
0.0
  0
ARC
  5
6ED2
330
2
100
AcDbEntity
  8
AM_VIS
100
AcDbCircle
 10
243.7128204500999
 20
413.2406678565006
 30
0.0
 40
1.981164734412003
100
AcDbArc
 50
305.6177478823209
 51
359.2225801691518
  0
LINE
  5
6ED3
330
2
100
AcDbEntity
  8
AM_VIS
100
AcDbLine
 10
237.8666008809081
 20
411.6301386197707
 30
0.0
 11
237.8666008809081
 21
419.7486919897415
 31
0.0
  0
LINE
  5
6ED4
330
2
100
AcDbEntity
  8
AM_VIS
100
AcDbLine
 10
236.9267317118343
 20
419.7486914237657
 30
0.0
 11
237.0393656527667
 21
413.2137866030363
 31
0.0
  0
ARC
  5
6ED5
330
2
100
AcDbEntity
  8
AM_VIS
100
AcDbCircle
 10
239.0203813117165
 20
413.2406678565006
 30
0.0
 40
1.981164734412038
100
AcDbArc
 50
180.7774198308481
 51
234.3822521176792
  0
LINE
  5
6ED6
330
2
100
AcDbEntity
  8
AM_VIS
100
AcDbLine
 10
258.2877960825042
 20
413.213786232379
 30
0.0
 11
258.4323125709651
 21
419.7486910581814
 31
0.0
  0
LINE
  5
6ED7
330
2
100
AcDbEntity
  8
AM_VIS
100
AcDbLine
 10
257.2264008382421
 20
411.6301386197707
 30
0.0
 11
257.2264008382421
 21
419.7486919897415
 31
0.0
  0
ARC
  5
6ED8
330
2
100
AcDbEntity
  8
AM_VIS
100
AcDbCircle
 10
256.3850544684572
 20
413.3414849086342
 30
0.0
 40
1.90697924329485
100
AcDbArc
 50
296.1800399817684
 51
356.1604090979352
  0
LINE
  5
6ED9
330
2
100
AcDbEntity
  8
AM_VIS
100
AcDbLine
 10
252.2766533699363
 20
411.6301386197707
 30
0.0
 11
252.2766533699363
 21
419.7486919897415
 31
0.0
  0
LINE
  5
6EDA
330
2
100
AcDbEntity
  8
AM_VIS
100
AcDbLine
 10
252.153389383708
 20
419.7486919800038
 30
0.0
 11
252.1681613422282
 21
413.2137871669939
 31
0.0
  0
ARC
  5
6EDB
330
2
100
AcDbEntity
  8
AM_VIS
100
AcDbCircle
 10
261.9353740121472
 20
413.087348398728
 30
0.0
 40
9.768026657629496
100
AcDbArc
 50
179.2583342649871
 51
188.5795016751106
  0
LINE
  5
6EDC
330
2
100
AcDbEntity
  8
AM_VIS
100
AcDbLine
 10
260.9695494127683
 20
413.2137867961197
 30
0.0
 11
261.0612926495301
 21
419.7486916142064
 31
0.0
  0
ARC
  5
6EDD
330
2
100
AcDbEntity
  8
AM_VIS
100
AcDbCircle
 10
258.8317482583973
 20
413.1881654508614
 30
0.0
 40
2.137927569295338
100
AcDbArc
 50
313.2178216092105
 51
0.6866705533116475
  0
ARC
  5
6EDE
330
2
100
AcDbEntity
  8
AM_VIS
100
AcDbCircle
 10
223.9014535034189
 20
413.1881654508614
 30
0.0
 40
2.137927569295275
100
AcDbArc
 50
179.3133294466883
 51
226.7821783907896
  0
LINE
  5
6EDF
330
2
100
AcDbEntity
  8
AM_VIS
100
AcDbLine
 10
221.6719091122848
 20
419.7486916142064
 30
0.0
 11
221.7636523490495
 21
413.2137867961197
 31
0.0
  0
LINE
  5
6EE0
330
2
100
AcDbEntity
  8
AM_VIS
100
AcDbLine
 10
221.6649305113327
 20
420.2486158351445
 30
0.0
 11
221.6719357063975
 21
419.748691987564
 31
0.0
  0
LINE
  5
6EE1
330
2
100
AcDbEntity
  8
AM_VIS
100
AcDbLine
 10
216.866600880908
 20
477.2486919897415
 30
0.0
 11
222.366600880908
 21
477.2486919897415
 31
0.0
  0
LINE
  5
6EE2
330
2
100
AcDbEntity
  8
AM_VIS
100
AcDbLine
 10
255.7666008809082
 20
482.2486919897415
 30
0.0
 11
225.2308528814205
 21
482.2486919897415
 31
0.0
  0
ARC
  5
6EE3
330
2
100
AcDbEntity
  8
AM_VIS
100
AcDbCircle
 10
265.866600880908
 20
476.7486919897415
 30
0.0
 40
0.5
100
AcDbArc
 50
0.0
 51
90.0
  0
ARC
  5
6EE4
330
2
100
AcDbEntity
  8
AM_VIS
100
AcDbCircle
 10
216.866600880908
 20
476.7486919897415
 30
0.0
 40
0.5
100
AcDbArc
 50
90.0
 51
180.0
  0
LINE
  5
6EE5
330
2
100
AcDbEntity
  8
AM_VIS
100
AcDbLine
 10
255.6383036254483
 20
483.2486919897416
 30
0.0
 11
221.366600880908
 21
483.2486919897416
 31
0.0
  0
LINE
  5
6EE6
330
2
100
AcDbEntity
  8
AM_VIS
100
AcDbLine
 10
259.366600880908
 20
492.2486919897416
 30
0.0
 11
223.366600880908
 21
492.2486919897416
 31
0.0
  0
LINE
  5
6EE7
330
2
100
AcDbEntity
  8
AM_VIS
100
AcDbLine
 10
261.366600880908
 20
490.2486919897415
 30
0.0
 11
221.366600880908
 21
490.2486919897415
 31
0.0
  0
LINE
  5
6EE8
330
2
100
AcDbEntity
  8
AM_VIS
100
AcDbLine
 10
221.366600880908
 20
483.2486919897416
 30
0.0
 11
220.416600880908
 21
482.2986919897415
 31
0.0
  0
LINE
  5
6EE9
330
2
100
AcDbEntity
  8
AM_VIS
100
AcDbLine
 10
259.366600880908
 20
492.2486919897416
 30
0.0
 11
261.366600880908
 21
490.2486919897415
 31
0.0
  0
LINE
  5
6EEA
330
2
100
AcDbEntity
  8
AM_VIS
100
AcDbLine
 10
223.366600880908
 20
492.2486919897416
 30
0.0
 11
221.366600880908
 21
490.2486919897415
 31
0.0
  0
LINE
  5
6EEB
330
2
100
AcDbEntity
  8
AM_VIS
100
AcDbLine
 10
223.366600880908
 20
492.2486919897416
 30
0.0
 11
223.366600880908
 21
495.2486919897416
 31
0.0
  0
LINE
  5
6EEC
330
2
100
AcDbEntity
  8
AM_VIS
100
AcDbLine
 10
259.366600880908
 20
492.2486919897416
 30
0.0
 11
259.366600880908
 21
495.2486919897416
 31
0.0
  0
LINE
  5
6EED
330
2
100
AcDbEntity
  8
AM_VIS
100
AcDbLine
 10
221.366600880908
 20
483.2486919897416
 30
0.0
 11
221.366600880908
 21
490.2486919897415
 31
0.0
  0
LINE
  5
6EEE
330
2
100
AcDbEntity
  8
AM_VIS
100
AcDbLine
 10
261.366600880908
 20
485.2986919897415
 30
0.0
 11
261.366600880908
 21
490.2486919897415
 31
0.0
  0
LINE
  5
6EEF
330
2
100
AcDbEntity
  8
AM_VIS
100
AcDbLine
 10
251.3666008809081
 20
477.2486919897415
 30
0.0
 11
222.366600880908
 21
477.2486919897415
 31
0.0
  0
LINE
  5
6EF0
330
2
100
AcDbEntity
  8
AM_VIS
100
AcDbLine
 10
266.366600880908
 20
467.2486919897416
 30
0.0
 11
266.366600880908
 21
476.7486919897415
 31
0.0
  0
LINE
  5
6EF1
330
2
100
AcDbEntity
  8
AM_VIS
100
AcDbLine
 10
222.366600880908
 20
467.2486919897416
 30
0.0
 11
260.366600880908
 21
467.2486919897416
 31
0.0
  0
LINE
  5
6EF2
330
2
100
AcDbEntity
  8
AM_VIS
100
AcDbLine
 10
216.366600880908
 20
476.7486919897415
 30
0.0
 11
216.366600880908
 21
467.2486919897416
 31
0.0
  0
LINE
  5
6EF3
330
2
100
AcDbEntity
  8
AM_VIS
100
AcDbLine
 10
257.3950540865279
 20
502.2486919897415
 30
0.0
 11
257.5896422728696
 21
502.2486919897415
 31
0.0
  0
LINE
  5
6EF4
330
2
100
AcDbEntity
  8
AM_VIS
100
AcDbLine
 10
245.3223982950741
 20
502.2486919897415
 30
0.0
 11
245.5812982498577
 21
502.2486919897415
 31
0.0
  0
LINE
  5
6EF5
330
2
100
AcDbEntity
  8
AM_VIS
100
AcDbLine
 10
245.1689315539876
 20
537.995170862981
 30
0.0
 11
255.7108899630754
 21
537.995170862981
 31
0.0
  0
LINE
  5
6EF6
330
2
100
AcDbEntity
  8
AM_VIS
100
AcDbLine
 10
260.9022257915781
 20
502.2486919897415
 30
0.0
 11
261.0536718034014
 21
502.2486919897415
 31
0.0
  0
LINE
  5
6EF7
330
2
100
AcDbEntity
  8
AM_VIS
100
AcDbLine
 10
265.3315152453544
 20
502.2486919897415
 30
0.0
 11
265.3442804545294
 21
502.2486919897415
 31
0.0
  0
LINE
  5
6EF8
330
2
100
AcDbEntity
  8
AM_VIS
100
AcDbLine
 10
223.5035471712184
 20
502.2486919897415
 30
0.0
 11
223.6800826256182
 21
502.2486919897415
 31
0.0
  0
LINE
  5
6EF9
330
2
100
AcDbEntity
  8
AM_VIS
100
AcDbLine
 10
217.6948525969712
 20
502.2486919897415
 30
0.0
 11
217.739575547867
 21
502.2486919897415
 31
0.0
  0
LINE
  5
6EFA
330
2
100
AcDbEntity
  8
AM_VIS
100
AcDbLine
 10
220.1983428527354
 20
537.995170862981
 30
0.0
 11
225.3418001887947
 21
537.995170862981
 31
0.0
  0
LINE
  5
6EFB
330
2
100
AcDbEntity
  8
AM_VIS
100
AcDbLine
 10
240.0693424237118
 20
502.2486919897415
 30
0.0
 11
240.3317664667388
 21
502.2486919897415
 31
0.0
  0
LINE
  5
6EFC
330
2
100
AcDbEntity
  8
AM_VIS
100
AcDbLine
 10
227.4253183233521
 20
502.2486919897415
 30
0.0
 11
227.6400121388816
 21
502.2486919897415
 31
0.0
  0
LINE
  5
6EFD
330
2
100
AcDbEntity
  8
AM_VIS
100
AcDbLine
 10
229.0870358865285
 20
537.995170862981
 30
0.0
 11
240.1782997256522
 21
537.995170862981
 31
0.0
  0
LINE
  5
6EFE
330
2
100
AcDbEntity
  8
AM_VIS
100
AcDbLine
 10
222.3666008809083
 20
539.2486919897415
 30
0.0
 11
260.3666008809083
 21
539.2486919897415
 31
0.0
  0
LINE
  5
6EFF
330
2
100
AcDbEntity
  8
AM_VIS
100
AcDbLine
 10
260.1489017470088
 20
537.2486919897416
 30
0.0
 11
256.8363182283004
 21
537.2486919897416
 31
0.0
  0
LINE
  5
6F00
330
2
100
AcDbEntity
  8
AM_VIS
100
AcDbLine
 10
259.0234734817837
 20
537.995170862981
 30
0.0
 11
262.8407901987651
 21
537.995170862981
 31
0.0
  0
LINE
  5
6F01
330
2
100
AcDbEntity
  8
AM_VIS
100
AcDbLine
 10
264.3666008809083
 20
537.2486919897416
 30
0.0
 11
264.3404549927162
 21
537.2486919897416
 31
0.0
  0
LINE
  5
6F02
330
2
100
AcDbEntity
  8
AM_VIS
100
AcDbLine
 10
218.6986780587844
 20
537.2486919897416
 30
0.0
 11
218.3666008809083
 21
537.2486919897416
 31
0.0
  0
LINE
  5
6F03
330
2
100
AcDbEntity
  8
AM_VIS
100
AcDbLine
 10
228.0916178611346
 20
537.2486919897416
 30
0.0
 11
224.3463821634007
 21
537.2486919897416
 31
0.0
  0
LINE
  5
6F04
330
2
100
AcDbEntity
  8
AM_VIS
100
AcDbLine
 10
245.2608626761958
 20
537.2486919897416
 30
0.0
 11
240.2702308478606
 21
537.2486919897416
 31
0.0
  0
LINE
  5
6F05
330
2
100
AcDbEntity
  8
AM_VIS
100
AcDbLine
 10
217.3666008809082
 20
502.2486919897415
 30
0.0
 11
217.6948525969712
 21
502.2486919897415
 31
0.0
  0
LINE
  5
6F06
330
2
100
AcDbEntity
  8
AM_VIS
100
AcDbLine
 10
223.6800826256182
 20
502.2486919897415
 30
0.0
 11
227.4253183233521
 21
502.2486919897415
 31
0.0
  0
LINE
  5
6F07
330
2
100
AcDbEntity
  8
AM_VIS
100
AcDbLine
 10
240.3317664667388
 20
502.2486919897415
 30
0.0
 11
245.3223982950741
 21
502.2486919897415
 31
0.0
  0
LINE
  5
6F08
330
2
100
AcDbEntity
  8
AM_VIS
100
AcDbLine
 10
265.3442804545294
 20
502.2486919897415
 30
0.0
 11
265.3666008809083
 21
502.2486919897415
 31
0.0
  0
LINE
  5
6F09
330
2
100
AcDbEntity
  8
AM_VIS
100
AcDbLine
 10
257.5896422728696
 20
502.2486919897415
 30
0.0
 11
260.9022257915781
 21
502.2486919897415
 31
0.0
  0
LINE
  5
6F0A
330
2
100
AcDbEntity
  8
AM_VIS
100
AcDbLine
 10
222.3666008809083
 20
540.2486919897415
 30
0.0
 11
260.3666008809083
 21
540.2486919897415
 31
0.0
  0
LINE
  5
6F0B
330
2
100
AcDbEntity
  8
AM_VIS
100
AcDbLine
 10
217.3666008809082
 20
498.2486919897415
 30
0.0
 11
265.3666008809083
 21
498.2486919897415
 31
0.0
  0
LINE
  5
6F0C
330
2
100
AcDbEntity
  8
AM_VIS
100
AcDbLine
 10
219.3666008809083
 20
495.2486919897416
 30
0.0
 11
263.3666008809083
 21
495.2486919897416
 31
0.0
  0
ARC
  5
6F0D
330
2
100
AcDbEntity
  8
AM_VIS
100
AcDbCircle
 10
266.0224988858908
 20
504.8127640806732
 30
0.0
 40
2.497541808388449
100
AcDbArc
 50
205.8555048066883
 51
241.5585284012068
  0
SPLINE
  5
6F0E
330
2
100
AcDbEntity
  8
AM_VIS
100
AcDbSpline
210
0.0
220
0.0
230
1.0
 70
     8
 71
     1
 72
     6
 73
     4
 74
     0
 42
0.0000000001
 43
0.0000000001
 40
0.0
 40
0.0
 40
1.253150002215201
 40
2.285557459554452
 40
2.700525682489358
 40
2.700525682489358
 10
218.3114807497454
 20
502.4621443959808
 30
0.0
 10
218.8921127270189
 20
502.8444745662299
 30
0.0
 10
219.0642682744762
 20
503.040466273305
 30
0.0
 10
219.0752951596159
 20
503.057560006751
 30
0.0
  0
LINE
  5
6F0F
330
2
100
AcDbEntity
  8
AM_VIS
100
AcDbLine
 10
260.3666008809083
 20
539.2486919897415
 30
0.0
 11
264.3666008809083
 21
537.2486919897416
 31
0.0
  0
LINE
  5
6F10
330
2
100
AcDbEntity
  8
AM_VIS
100
AcDbLine
 10
222.3666008809083
 20
539.2486919897415
 30
0.0
 11
218.3666008809083
 21
537.2486919897416
 31
0.0
  0
LINE
  5
6F11
330
2
100
AcDbEntity
  8
AM_VIS
100
AcDbLine
 10
218.3666008809083
 20
537.2486919897416
 30
0.0
 11
217.3666008809083
 21
502.2486919897415
 31
0.0
  0
LINE
  5
6F12
330
2
100
AcDbEntity
  8
AM_VIS
100
AcDbLine
 10
264.3666008809083
 20
537.2486919897416
 30
0.0
 11
265.3666008809083
 21
502.2486919897415
 31
0.0
  0
LINE
  5
6F13
330
2
100
AcDbEntity
  8
AM_VIS
100
AcDbLine
 10
260.3666008809083
 20
540.2486919897415
 30
0.0
 11
260.3666008809083
 21
539.2486919897415
 31
0.0
  0
LINE
  5
6F14
330
2
100
AcDbEntity
  8
AM_VIS
100
AcDbLine
 10
222.3666008809083
 20
540.2486919897415
 30
0.0
 11
222.3666008809083
 21
539.2486919897415
 31
0.0
  0
LINE
  5
6F15
330
2
100
AcDbEntity
  8
AM_VIS
100
AcDbLine
 10
265.3666008809083
 20
502.2486919897415
 30
0.0
 11
265.3666008809083
 21
498.2486919897415
 31
0.0
  0
LINE
  5
6F16
330
2
100
AcDbEntity
  8
AM_VIS
100
AcDbLine
 10
217.3666008809082
 20
502.2486919897415
 30
0.0
 11
217.3666008809082
 21
498.2486919897415
 31
0.0
  0
LINE
  5
6F17
330
2
100
AcDbEntity
  8
AM_VIS
100
AcDbLine
 10
219.3666008809083
 20
495.2486919897416
 30
0.0
 11
217.3666008809082
 21
498.2486919897415
 31
0.0
  0
LINE
  5
6F18
330
2
100
AcDbEntity
  8
AM_VIS
100
AcDbLine
 10
263.3666008809083
 20
495.2486919897416
 30
0.0
 11
265.3666008809083
 21
498.2486919897415
 31
0.0
  0
ARC
  5
6F19
330
2
100
AcDbEntity
  8
AM_VIS
100
AcDbCircle
 10
251.4881761681951
 20
470.6245642693821
 30
0.0
 40
32.17105315055035
100
AcDbArc
 50
79.41998589697736
 51
100.5800141030226
  0
SPLINE
  5
6F1A
330
2
100
AcDbEntity
  8
AM_VIS
100
AcDbSpline
210
0.0
220
0.0
230
1.0
 70
     8
 71
     3
 72
    14
 73
    10
 74
     0
 42
0.0000000001
 43
0.0000000001
 40
0.0
 40
0.0
 40
0.0
 40
0.0
 40
0.6055408160244284
 40
0.6055408160244284
 40
1.217375489854177
 40
1.217375489854177
 40
1.781805823365012
 40
1.781805823365012
 40
2.271351589224787
 40
2.271351589224787
 40
2.271351589224787
 40
2.271351589224787
 10
256.4289354312604
 20
503.7091349004298
 30
0.0
 10
256.4331598460959
 20
503.5073667656059
 30
0.0
 10
256.4679017345804
 20
503.3080544890212
 30
0.0
 10
256.5928323896634
 20
502.9379043852592
 30
0.0
 10
256.6828403192681
 20
502.7696162139323
 30
0.0
 10
256.8982081515082
 20
502.5030090366389
 30
0.0
 10
257.01882376567
 20
502.4021199099832
 30
0.0
 10
257.2649907237061
 20
502.278770425123
 30
0.0
 10
257.3858159211375
 20
502.2486919897415
 30
0.0
 10
257.5078653035463
 20
502.2486919897415
 30
0.0
  0
LINE
  5
6F1B
330
2
100
AcDbEntity
  8
AM_VIS
100
AcDbLine
 10
245.1689383589343
 20
537.995171701025
 30
0.0
 11
245.2608688213268
 21
537.2486927465275
 31
0.0
  0
LINE
  5
6F1C
330
2
100
AcDbEntity
  8
AM_VIS
100
AcDbLine
 10
245.2608652552573
 20
537.2486919942758
 30
0.0
 11
245.3224007128372
 21
502.2486919939923
 31
0.0
  0
LINE
  5
6F1D
330
2
100
AcDbEntity
  8
AM_VIS
100
AcDbLine
 10
255.71092504023
 20
537.995171597592
 30
0.0
 11
256.4289682726061
 21
503.7091355882174
 31
0.0
  0
SPLINE
  5
6F1E
330
2
100
AcDbEntity
  8
AM_VIS
100
AcDbSpline
210
0.0
220
0.0
230
1.0
 70
     8
 71
     3
 72
    20
 73
    16
 74
     0
 42
0.0000000001
 43
0.0000000001
 40
0.0
 40
0.0
 40
0.0
 40
0.0
 40
1.663185064270037
 40
1.663185064270037
 40
3.216484134033723
 40
3.216484134033723
 40
4.921607516041229
 40
4.921607516041229
 40
6.405916512175805
 40
6.405916512175805
 40
7.673160321426882
 40
7.673160321426882
 40
8.509907606260382
 40
8.509907606260382
 40
9.190504834788432
 40
9.190504834788432
 40
9.190504834788432
 40
9.190504834788432
 10
261.0536718034119
 20
502.2486919897415
 30
0.0
 10
261.3707531558993
 20
502.2486919897415
 30
0.0
 10
261.7180033002286
 20
502.3039570722208
 30
0.0
 10
262.4309429523238
 20
502.468443353309
 30
0.0
 10
262.7516968386731
 20
502.5624707135497
 30
0.0
 10
263.3807814241848
 20
502.7271807459714
 30
0.0
 10
263.6758738854534
 20
502.7924411112263
 30
0.0
 10
264.168692595356
 20
502.8219934533921
 30
0.0
 10
264.3925835643341
 20
502.7968005346178
 30
0.0
 10
264.7896793692402
 20
502.6537851938509
 30
0.0
 10
264.9388436209195
 20
502.5593711744555
 30
0.0
 10
265.1310755944321
 20
502.4095487261294
 30
0.0
 10
265.1932323297092
 20
502.3515365365272
 30
0.0
 10
265.2801633160766
 20
502.2744599811822
 30
0.0
 10
265.3109702643072
 20
502.2486919897415
 30
0.0
 10
265.3315152453533
 20
502.2486919897415
 30
0.0
  0
LINE
  5
6F1F
330
2
100
AcDbEntity
  8
AM_VIS
100
AcDbLine
 10
263.7974838458728
 20
503.7091295824751
 30
0.0
 11
263.7995265040798
 21
503.6622224985923
 31
0.0
  0
SPLINE
  5
6F20
330
2
100
AcDbEntity
  8
AM_VIS
100
AcDbSpline
210
0.0
220
0.0
230
1.0
 70
     8
 71
     3
 72
    20
 73
    16
 74
     0
 42
0.0000000001
 43
0.0000000001
 40
0.0
 40
0.0
 40
0.0
 40
0.0
 40
1.66318506426932
 40
1.66318506426932
 40
3.216484134031636
 40
3.216484134031636
 40
4.921607516037237
 40
4.921607516037237
 40
6.405916512170115
 40
6.405916512170115
 40
7.67316032141999
 40
7.67316032141999
 40
8.509907606253282
 40
8.509907606253282
 40
9.190504834780853
 40
9.190504834780853
 40
9.190504834780853
 40
9.190504834780853
 10
217.7395755478702
 20
502.2486919897415
 30
0.0
 10
217.8369341827937
 20
502.2486919897415
 30
0.0
 10
217.9661556308134
 20
502.3039570722208
 30
0.0
 10
218.3245008895914
 20
502.468443353309
 30
0.0
 10
218.5260047355854
 20
502.5624707135497
 30
0.0
 10
219.0191453749604
 20
502.7271807459714
 30
0.0
 10
219.3107245626903
 20
502.7924411112263
 30
0.0
 10
219.9270537184863
 20
502.8219934533921
 30
0.0
 10
220.2608484814525
 20
502.7968005346178
 30
0.0
 10
221.0692722028955
 20
502.6537851938509
 30
0.0
 10
221.4683082075766
 20
502.5593711744555
 30
0.0
 10
222.1671651669841
 20
502.4095487261294
 30
0.0
 10
222.4556120524321
 20
502.3515365365272
 30
0.0
 10
222.9930255526801
 20
502.2744599811822
 30
0.0
 10
223.2497008651936
 20
502.2486919897415
 30
0.0
 10
223.5035471712062
 20
502.2486919897415
 30
0.0
  0
ARC
  5
6F21
330
2
100
AcDbEntity
  8
AM_VIS
100
AcDbCircle
 10
217.7067610343462
 20
503.7542604871021
 30
0.0
 40
1.535429304870606
100
AcDbArc
 50
332.8957484875396
 51
358.3158599329117
  0
LINE
  5
6F22
330
2
100
AcDbEntity
  8
AM_VIS
100
AcDbLine
 10
219.2414833382696
 20
503.709136121273
 30
0.0
 11
220.1982961273897
 21
537.9951721669352
 31
0.0
  0
LINE
  5
6F23
330
2
100
AcDbEntity
  8
AM_VIS
100
AcDbLine
 10
218.6986578401535
 20
537.2487326083729
 30
0.0
 11
220.1983204859113
 21
537.9952157972712
 31
0.0
  0
LINE
  5
6F24
330
2
100
AcDbEntity
  8
AM_VIS
100
AcDbLine
 10
217.6948131884916
 20
502.2486931200025
 30
0.0
 11
218.6986360212193
 21
537.2486931954064
 31
0.0
  0
ARC
  5
6F25
330
2
100
AcDbEntity
  8
AM_VIS
100
AcDbCircle
 10
233.854677281295
 20
468.1295101563331
 30
0.0
 40
34.68055120400092
100
AcDbArc
 50
79.67698497502856
 51
100.3230150249714
  0
ARC
  5
6F26
330
2
100
AcDbEntity
  8
AM_VIS
100
AcDbCircle
 10
246.6590874398325
 20
503.3638086321142
 30
0.0
 40
6.43141145592077
100
AcDbArc
 50
176.9220975346999
 51
189.9847463686282
  0
SPLINE
  5
6F27
330
2
100
AcDbEntity
  8
AM_VIS
100
AcDbSpline
210
0.0
220
0.0
230
1.0
 70
     8
 71
     3
 72
    14
 73
    10
 74
     0
 42
0.0000000001
 43
0.0000000001
 40
0.0
 40
0.0
 40
0.0
 40
0.0
 40
0.5402435453849862
 40
0.5402435453849862
 40
1.114447522162155
 40
1.114447522162155
 40
1.699413537159188
 40
1.699413537159188
 40
2.26781516116335
 40
2.26781516116335
 40
2.26781516116335
 40
2.26781516116335
 10
227.4976483614735
 20
502.2486919897415
 30
0.0
 10
227.6169551524422
 20
502.2486919897415
 30
0.0
 10
227.7348086819644
 20
502.2854216676479
 30
0.0
 10
227.9621254342215
 20
502.4286377480538
 30
0.0
 10
228.0681768405131
 20
502.537790560994
 30
0.0
 10
228.2488866415012
 20
502.8124310918973
 30
0.0
 10
228.3216454283874
 20
502.9769776902354
 30
0.0
 10
228.4210485269513
 20
503.331823161706
 30
0.0
 10
228.4484264376258
 20
503.519426454991
 30
0.0
 10
228.4519395199549
 20
503.7091349004298
 30
0.0
  0
LINE
  5
6F28
330
2
100
AcDbEntity
  8
AM_VIS
100
AcDbLine
 10
228.4519104696926
 20
503.7091354385398
 30
0.0
 11
229.0870048585481
 21
537.9951714377247
 31
0.0
  0
LINE
  5
6F29
330
2
100
AcDbEntity
  8
AM_VIS
100
AcDbLine
 10
228.0915935368009
 20
537.2487244256298
 30
0.0
 11
229.0870089721694
 21
537.9952067526017
 31
0.0
  0
LINE
  5
6F2A
330
2
100
AcDbEntity
  8
AM_VIS
100
AcDbLine
 10
227.425292153538
 20
502.2486924879384
 30
0.0
 11
228.0915899454259
 21
537.2486925211752
 31
0.0
  0
LINE
  5
6F2B
330
2
100
AcDbEntity
  8
AM_VIS
100
AcDbLine
 10
240.1783025921913
 20
537.9951708678853
 30
0.0
 11
240.236956281727
 21
503.7091349050209
 31
0.0
  0
LINE
  5
6F2C
330
2
100
AcDbEntity
  8
AM_VIS
100
AcDbLine
 10
255.7109157913925
 20
537.9952098027396
 30
0.0
 11
256.8363415727442
 21
537.248727184719
 31
0.0
  0
LINE
  5
6F2D
330
2
100
AcDbEntity
  8
AM_VIS
100
AcDbLine
 10
259.0234993101011
 20
537.9952098027396
 30
0.0
 11
260.1489250914527
 21
537.248727184719
 31
0.0
  0
LINE
  5
6F2E
330
2
100
AcDbEntity
  8
AM_VIS
100
AcDbLine
 10
262.8408125655894
 20
537.9952157972712
 30
0.0
 11
264.3404752113471
 21
537.2487326083729
 31
0.0
  0
LINE
  5
6F2F
330
2
100
AcDbEntity
  8
AM_VIS
100
AcDbLine
 10
224.3463578390668
 20
537.2487244256298
 30
0.0
 11
225.3417732744355
 21
537.9952067526017
 31
0.0
  0
LINE
  5
6F30
330
2
100
AcDbEntity
  8
AM_VIS
100
AcDbLine
 10
240.1783065305991
 20
537.995171701025
 30
0.0
 11
240.2702369929916
 21
537.2486927465275
 31
0.0
  0
LINE
  5
6F31
330
2
100
AcDbEntity
  8
AM_VIS
100
AcDbLine
 10
223.680056455804
 20
502.2486924879384
 30
0.0
 11
224.3463542476919
 21
537.2486925211752
 31
0.0
  0
LINE
  5
6F32
330
2
100
AcDbEntity
  8
AM_VIS
100
AcDbLine
 10
240.2702334269221
 20
537.2486919942758
 30
0.0
 11
240.331768884502
 21
502.2486919939923
 31
0.0
  0
LINE
  5
6F33
330
2
100
AcDbEntity
  8
AM_VIS
100
AcDbLine
 10
264.3404970302813
 20
537.2486931954064
 30
0.0
 11
265.344319863009
 21
502.2486931200025
 31
0.0
  0
LINE
  5
6F34
330
2
100
AcDbEntity
  8
AM_VIS
100
AcDbLine
 10
256.8363497868605
 20
537.2486926689918
 30
0.0
 11
257.5896718577074
 21
502.2486926265104
 31
0.0
  0
LINE
  5
6F35
330
2
100
AcDbEntity
  8
AM_VIS
100
AcDbLine
 10
260.1489333055689
 20
537.2486926689918
 30
0.0
 11
260.9022553764158
 21
502.2486926265104
 31
0.0
  0
LINE
  5
6F36
330
2
100
AcDbEntity
  8
AM_VIS
100
AcDbLine
 10
262.8408369241112
 20
537.9951721669352
 30
0.0
 11
263.7976497132307
 21
503.709136121273
 31
0.0
  0
ARC
  5
6F37
330
2
100
AcDbEntity
  8
AM_VIS
100
AcDbCircle
 10
218.5652913866171
 20
434.7486919897415
 30
0.0
 40
0.5
100
AcDbArc
 50
1.500000000002737
 51
90.0
  0
ARC
  5
6F38
330
2
100
AcDbEntity
  8
AM_VIS
100
AcDbCircle
 10
264.1679103751992
 20
434.7486919897415
 30
0.0
 40
0.5
100
AcDbArc
 50
90.0
 51
178.4999999999973
  0
LINE
  5
6F39
330
2
100
AcDbEntity
  8
AM_VIS
100
AcDbLine
 10
216.3666008809081
 20
467.2486919897416
 30
0.0
 11
221.3666008809081
 21
467.2486919897416
 31
0.0
  0
LINE
  5
6F3A
330
2
100
AcDbEntity
  8
AM_VIS
100
AcDbLine
 10
261.3666008809081
 20
467.2486919897416
 30
0.0
 11
266.3666008809081
 21
467.2486919897416
 31
0.0
  0
LINE
  5
6F3B
330
2
100
AcDbEntity
  8
AM_VIS
100
AcDbLine
 10
221.3666008809081
 20
435.2486919897415
 30
0.0
 11
216.3666008809081
 21
435.2486919897415
 31
0.0
  0
LINE
  5
6F3C
330
2
100
AcDbEntity
  8
AM_VIS
100
AcDbLine
 10
266.3666008809081
 20
435.2486919897415
 30
0.0
 11
261.3666008809081
 21
435.2486919897415
 31
0.0
  0
LINE
  5
6F3D
330
2
100
AcDbEntity
  8
AM_VIS
100
AcDbLine
 10
263.3666008809081
 20
423.2486919897415
 30
0.0
 11
219.3666008809081
 21
423.2486919897415
 31
0.0
  0
CIRCLE
  5
6F3E
330
2
100
AcDbEntity
  8
AM_VIS
100
AcDbCircle
 10
241.3666008809082
 20
450.2486919897416
 30
0.0
 40
8.96073457753819
  0
CIRCLE
  5
6F3F
102
{ACAD_REACTORS
330
7006
102
}
330
2
100
AcDbEntity
  8
AM_VIS
100
AcDbCircle
 10
241.3666008809082
 20
450.2486919897416
 30
0.0
 40
10.5
  0
LINE
  5
6F40
330
2
100
AcDbEntity
  8
AM_VIS
100
AcDbLine
 10
219.3666008809081
 20
423.2486919897415
 30
0.0
 11
219.0651200491048
 21
434.7617804638954
 31
0.0
  0
LINE
  5
6F41
330
2
100
AcDbEntity
  8
AM_VIS
100
AcDbLine
 10
263.3666008809081
 20
423.2486919897415
 30
0.0
 11
263.6680817127114
 21
434.7617804638954
 31
0.0
  0
LINE
  5
6F42
330
2
100
AcDbEntity
  8
AM_VIS
100
AcDbLine
 10
261.3666008809081
 20
467.2486919897416
 30
0.0
 11
221.3666008809081
 21
467.2486919897416
 31
0.0
  0
LINE
  5
6F43
330
2
100
AcDbEntity
  8
AM_VIS
100
AcDbLine
 10
258.3666008809081
 20
435.2486919897415
 30
0.0
 11
261.3666008809081
 21
435.2486919897415
 31
0.0
  0
LINE
  5
6F44
330
2
100
AcDbEntity
  8
AM_VIS
100
AcDbLine
 10
258.3666008809081
 20
435.2486919897415
 30
0.0
 11
224.3666008809081
 21
435.2486919897415
 31
0.0
  0
LINE
  5
6F45
330
2
100
AcDbEntity
  8
AM_VIS
100
AcDbLine
 10
221.3666008809081
 20
435.2486919897415
 30
0.0
 11
224.3666008809081
 21
435.2486919897415
 31
0.0
  0
LINE
  5
6F46
330
2
100
AcDbEntity
  8
AM_VIS
100
AcDbLine
 10
215.8666008809081
 20
467.0486919897415
 30
0.0
 11
215.8666008809081
 21
465.5486919897415
 31
0.0
  0
LINE
  5
6F47
330
2
100
AcDbEntity
  8
AM_VIS
100
AcDbLine
 10
216.3666008809081
 20
465.5486919897415
 30
0.0
 11
215.8666008809081
 21
465.5486919897415
 31
0.0
  0
LINE
  5
6F48
330
2
100
AcDbEntity
  8
AM_VIS
100
AcDbLine
 10
216.3666008809081
 20
467.0486919897415
 30
0.0
 11
215.8666008809081
 21
467.0486919897415
 31
0.0
  0
LINE
  5
6F49
330
2
100
AcDbEntity
  8
AM_VIS
100
AcDbLine
 10
215.8666008809081
 20
465.5486919897415
 30
0.0
 11
215.8666008809081
 21
464.0486919897415
 31
0.0
  0
LINE
  5
6F4A
330
2
100
AcDbEntity
  8
AM_VIS
100
AcDbLine
 10
216.3666008809081
 20
464.0486919897415
 30
0.0
 11
215.8666008809081
 21
464.0486919897415
 31
0.0
  0
LINE
  5
6F4B
330
2
100
AcDbEntity
  8
AM_VIS
100
AcDbLine
 10
266.3666008809081
 20
464.0486919897415
 30
0.0
 11
266.8666008809081
 21
464.0486919897415
 31
0.0
  0
LINE
  5
6F4C
330
2
100
AcDbEntity
  8
AM_VIS
100
AcDbLine
 10
266.8666008809081
 20
464.0486919897415
 30
0.0
 11
266.8666008809081
 21
465.5486919897415
 31
0.0
  0
LINE
  5
6F4D
330
2
100
AcDbEntity
  8
AM_VIS
100
AcDbLine
 10
266.3666008809081
 20
465.5486919897415
 30
0.0
 11
266.8666008809081
 21
465.5486919897415
 31
0.0
  0
LINE
  5
6F4E
330
2
100
AcDbEntity
  8
AM_VIS
100
AcDbLine
 10
266.8666008809081
 20
465.5486919897415
 30
0.0
 11
266.8666008809081
 21
467.0486919897415
 31
0.0
  0
LINE
  5
6F4F
330
2
100
AcDbEntity
  8
AM_VIS
100
AcDbLine
 10
266.3666008809081
 20
467.0486919897415
 30
0.0
 11
266.8666008809081
 21
467.0486919897415
 31
0.0
  0
LINE
  5
6F50
330
2
100
AcDbEntity
  8
AM_VIS
100
AcDbLine
 10
258.3666008809081
 20
465.2486919897415
 30
0.0
 11
224.3666008809081
 21
465.2486919897415
 31
0.0
  0
LINE
  5
6F51
330
2
100
AcDbEntity
  8
AM_VIS
100
AcDbLine
 10
224.3666008809081
 20
435.2486919897415
 30
0.0
 11
224.3666008809081
 21
465.2486919897415
 31
0.0
  0
LINE
  5
6F52
330
2
100
AcDbEntity
  8
AM_VIS
100
AcDbLine
 10
258.3666008809081
 20
435.2486919897415
 30
0.0
 11
258.3666008809081
 21
465.2486919897415
 31
0.0
  0
LINE
  5
6F53
330
2
100
AcDbEntity
  8
AM_VIS
100
AcDbLine
 10
216.3666008809081
 20
467.2486919897416
 30
0.0
 11
216.3666008809081
 21
435.2486919897415
 31
0.0
  0
LINE
  5
6F54
330
2
100
AcDbEntity
  8
AM_VIS
100
AcDbLine
 10
266.3666008809081
 20
435.2486919897415
 30
0.0
 11
266.3666008809081
 21
467.2486919897416
 31
0.0
  0
ARC
  5
6F55
330
2
100
AcDbEntity
  8
AM_VIS
100
AcDbCircle
 10
109.0330833134852
 20
662.0836037474715
 30
0.0
 40
5.0
100
AcDbArc
 50
5.476392099500794
 51
264.5236079005514
  0
ARC
  5
6F56
330
2
100
AcDbEntity
  8
AM_VIS
100
AcDbCircle
 10
109.0330833134852
 20
624.0836037474715
 30
0.0
 40
5.0
100
AcDbArc
 50
95.4763920994943
 51
354.5236079005514
  0
ARC
  5
6F57
330
2
100
AcDbEntity
  8
AM_VIS
100
AcDbCircle
 10
147.0330833134852
 20
624.0836037474715
 30
0.0
 40
5.0
100
AcDbArc
 50
185.4763920995008
 51
84.52360790055818
  0
ARC
  5
6F58
330
2
100
AcDbEntity
  8
AM_VIS
100
AcDbCircle
 10
147.0330833134852
 20
662.0836037474715
 30
0.0
 40
5.0
100
AcDbArc
 50
275.4763920994943
 51
174.5236079005514
  0
LINE
  5
6F59
330
2
100
AcDbEntity
  8
AM_VIS
100
AcDbLine
 10
95.03308331348524
 20
683.0836037474715
 30
0.0
 11
95.03308331348524
 21
680.0836037474716
 31
0.0
  0
LINE
  5
6F5A
330
2
100
AcDbEntity
  8
AM_VIS
100
AcDbLine
 10
103.0330833134852
 20
683.0836037474715
 30
0.0
 11
153.0330833134852
 21
683.0836037474715
 31
0.0
  0
LINE
  5
6F5B
330
2
100
AcDbEntity
  8
AM_VIS
100
AcDbLine
 10
161.0330833134852
 20
680.0836037474716
 30
0.0
 11
161.0330833134852
 21
683.0836037474715
 31
0.0
  0
LINE
  5
6F5C
330
2
100
AcDbEntity
  8
AM_VIS
100
AcDbLine
 10
153.0330833134852
 20
653.0836037474715
 30
0.0
 11
160.7367870171889
 21
679.0836037474715
 31
0.0
  0
LINE
  5
6F5D
330
2
100
AcDbEntity
  8
AM_VIS
100
AcDbLine
 10
149.8505075427584
 20
653.0836037474715
 30
0.0
 11
153.0330833134852
 21
653.0836037474715
 31
0.0
  0
LINE
  5
6F5E
330
2
100
AcDbEntity
  8
AM_VIS
100
AcDbLine
 10
103.0330833134852
 20
653.0836037474715
 30
0.0
 11
106.2156590842136
 21
653.0836037474715
 31
0.0
  0
LINE
  5
6F5F
330
2
100
AcDbEntity
  8
AM_VIS
100
AcDbLine
 10
95.32937960978154
 20
679.0836037474715
 30
0.0
 11
103.0330833134852
 21
653.0836037474715
 31
0.0
  0
ELLIPSE
  5
6F60
330
2
100
AcDbEntity
  8
AM_VIS
100
AcDbEllipse
 10
128.0330833134852
 20
681.0125495051833
 30
0.0
 11
0.000000000000002
 21
5.656854249492381
 31
0.0
210
0.0
220
0.0
230
1.0
 40
0.7071067811865474
 41
2.356194490192347
 42
3.926990816987242
  0
LINE
  5
6F61
330
2
100
AcDbEntity
  8
AM_VIS
100
AcDbLine
 10
125.204656188739
 20
677.0125495051833
 30
0.0
 11
123.7401996898119
 21
679.0836037474715
 31
0.0
  0
ELLIPSE
  5
6F62
330
2
100
AcDbEntity
  8
AM_VIS
100
AcDbEllipse
 10
124.4473064709983
 20
679.0836037474715
 30
0.0
 11
0.9238795325113249
 21
-0.9238795325112475
 31
0.0
210
0.0
220
0.0
230
0.9999999999999998
 40
0.4142135623730951
 41
2.748893571890546
 42
4.319689898685442
  0
LINE
  5
6F63
330
2
100
AcDbEntity
  8
AM_VIS
100
AcDbLine
 10
95.03308331348524
 20
680.0836037474716
 30
0.0
 11
95.32937960978154
 21
679.0836037474715
 31
0.0
  0
LINE
  5
6F64
330
2
100
AcDbEntity
  8
AM_VIS
100
AcDbLine
 10
103.0330833134852
 20
680.0836037474716
 30
0.0
 11
153.0330833134852
 21
680.0836037474716
 31
0.0
  0
LINE
  5
6F65
330
2
100
AcDbEntity
  8
AM_VIS
100
AcDbLine
 10
132.3259669371585
 20
679.0836037474715
 30
0.0
 11
130.8615104382314
 21
677.0125495051833
 31
0.0
  0
ELLIPSE
  5
6F66
330
2
100
AcDbEntity
  8
AM_VIS
100
AcDbEllipse
 10
131.6188601559721
 20
679.0836037474715
 30
0.0
 11
0.9238795325112874
 21
0.9238795325112864
 31
0.0
210
0.0
220
0.0
230
1.0
 40
0.4142135623730951
 41
5.10508806208342
 42
6.675884388878319
  0
LINE
  5
6F67
330
2
100
AcDbEntity
  8
AM_VIS
100
AcDbLine
 10
160.7367870171889
 20
679.0836037474715
 30
0.0
 11
161.0330833134852
 21
680.0836037474716
 31
0.0
  0
LINE
  5
6F68
330
2
100
AcDbEntity
  8
AM_VIS
100
AcDbLine
 10
95.03308331348524
 20
683.0836037474715
 30
0.0
 11
103.0330833134852
 21
683.0836037474715
 31
0.0
  0
LINE
  5
6F69
330
2
100
AcDbEntity
  8
AM_VIS
100
AcDbLine
 10
153.0330833134852
 20
683.0836037474715
 30
0.0
 11
161.0330833134852
 21
683.0836037474715
 31
0.0
  0
LINE
  5
6F6A
330
2
100
AcDbEntity
  8
AM_VIS
100
AcDbLine
 10
103.0330833134852
 20
680.0836037474716
 30
0.0
 11
95.03308331348524
 21
680.0836037474716
 31
0.0
  0
LINE
  5
6F6B
330
2
100
AcDbEntity
  8
AM_VIS
100
AcDbLine
 10
161.0330833134852
 20
680.0836037474716
 30
0.0
 11
153.0330833134852
 21
680.0836037474716
 31
0.0
  0
LINE
  5
6F6C
330
2
100
AcDbEntity
  8
AM_VIS
100
AcDbLine
 10
141.5330833134852
 20
607.0836037474715
 30
0.0
 11
141.5330833134852
 21
618.0836037474715
 31
0.0
  0
LINE
  5
6F6D
330
2
100
AcDbEntity
  8
AM_VIS
100
AcDbLine
 10
115.5330833134852
 20
607.0836037474715
 30
0.0
 11
140.5330833134852
 21
607.0836037474715
 31
0.0
  0
LINE
  5
6F6E
330
2
100
AcDbEntity
  8
AM_VIS
100
AcDbLine
 10
114.5330833134852
 20
618.0836037474715
 30
0.0
 11
114.5330833134852
 21
607.0836037474715
 31
0.0
  0
LINE
  5
6F6F
330
2
100
AcDbEntity
  8
AM_VIS
100
AcDbLine
 10
117.5330833134852
 20
607.0836037474715
 30
0.0
 11
117.5330833134852
 21
606.4836037474716
 31
0.0
  0
LINE
  5
6F70
330
2
100
AcDbEntity
  8
AM_VIS
100
AcDbLine
 10
138.5330833134852
 20
607.0836037474715
 30
0.0
 11
138.5330833134852
 21
606.4836037474716
 31
0.0
  0
LINE
  5
6F71
330
2
100
AcDbEntity
  8
AM_VIS
100
AcDbLine
 10
115.5330833134852
 20
607.0836037474715
 30
0.0
 11
114.5330833134852
 21
607.0836037474715
 31
0.0
  0
LINE
  5
6F72
330
2
100
AcDbEntity
  8
AM_VIS
100
AcDbLine
 10
141.5330833134852
 20
607.0836037474715
 30
0.0
 11
140.5330833134852
 21
607.0836037474715
 31
0.0
  0
LINE
  5
6F73
330
2
100
AcDbEntity
  8
AM_VIS
100
AcDbLine
 10
138.5330833134852
 20
606.4836037474716
 30
0.0
 11
117.5330833134852
 21
606.4836037474716
 31
0.0
  0
LINE
  5
6F74
330
2
100
AcDbEntity
  8
AM_VIS
100
AcDbLine
 10
145.5330833134852
 20
624.9505271869979
 30
0.0
 11
147.0330833134852
 21
625.8161037474716
 31
0.0
  0
LINE
  5
6F75
330
2
100
AcDbEntity
  8
AM_VIS
100
AcDbLine
 10
148.5330833134852
 20
624.9505271869979
 30
0.0
 11
148.5330833134852
 21
623.2166803079454
 31
0.0
  0
LINE
  5
6F76
330
2
100
AcDbEntity
  8
AM_VIS
100
AcDbLine
 10
147.0330833134852
 20
625.8161037474716
 30
0.0
 11
148.5330833134852
 21
624.9505271869979
 31
0.0
  0
LINE
  5
6F77
330
2
100
AcDbEntity
  8
AM_VIS
100
AcDbLine
 10
145.5330833134852
 20
623.2166803079454
 30
0.0
 11
145.5330833134852
 21
624.9505271869979
 31
0.0
  0
LINE
  5
6F78
330
2
100
AcDbEntity
  8
AM_VIS
100
AcDbLine
 10
147.0330833134852
 20
622.3511037474716
 30
0.0
 11
145.5330833134852
 21
623.2166803079454
 31
0.0
  0
LINE
  5
6F79
330
2
100
AcDbEntity
  8
AM_VIS
100
AcDbLine
 10
148.5330833134852
 20
623.2166803079454
 30
0.0
 11
147.0330833134852
 21
622.3511037474716
 31
0.0
  0
ARC
  5
6F7A
330
2
100
AcDbEntity
  8
AM_VIS
100
AcDbCircle
 10
147.0330833134852
 20
624.0836037474715
 30
0.0
 40
4.75
100
AcDbArc
 50
183.6740578095847
 51
86.32594219041521
  0
LINE
  5
6F7B
330
2
100
AcDbEntity
  8
AM_VIS
100
AcDbLine
 10
107.5330833134852
 20
624.9505271869979
 30
0.0
 11
109.0330833134852
 21
625.8161037474716
 31
0.0
  0
LINE
  5
6F7C
330
2
100
AcDbEntity
  8
AM_VIS
100
AcDbLine
 10
110.5330833134852
 20
624.9505271869979
 30
0.0
 11
110.5330833134852
 21
623.2166803079454
 31
0.0
  0
LINE
  5
6F7D
330
2
100
AcDbEntity
  8
AM_VIS
100
AcDbLine
 10
109.0330833134852
 20
625.8161037474716
 30
0.0
 11
110.5330833134852
 21
624.9505271869979
 31
0.0
  0
LINE
  5
6F7E
330
2
100
AcDbEntity
  8
AM_VIS
100
AcDbLine
 10
107.5330833134852
 20
623.2166803079454
 30
0.0
 11
107.5330833134852
 21
624.9505271869979
 31
0.0
  0
LINE
  5
6F7F
330
2
100
AcDbEntity
  8
AM_VIS
100
AcDbLine
 10
109.0330833134852
 20
622.3511037474716
 30
0.0
 11
107.5330833134852
 21
623.2166803079454
 31
0.0
  0
LINE
  5
6F80
330
2
100
AcDbEntity
  8
AM_VIS
100
AcDbLine
 10
110.5330833134852
 20
623.2166803079454
 30
0.0
 11
109.0330833134852
 21
622.3511037474716
 31
0.0
  0
ARC
  5
6F81
330
2
100
AcDbEntity
  8
AM_VIS
100
AcDbCircle
 10
109.0330833134852
 20
624.0836037474715
 30
0.0
 40
4.75
100
AcDbArc
 50
93.67405780958476
 51
356.3259421904152
  0
LINE
  5
6F82
330
2
100
AcDbEntity
  8
AM_VIS
100
AcDbLine
 10
107.5330833134852
 20
662.9505271869978
 30
0.0
 11
109.0330833134852
 21
663.8161037474716
 31
0.0
  0
LINE
  5
6F83
330
2
100
AcDbEntity
  8
AM_VIS
100
AcDbLine
 10
110.5330833134852
 20
662.9505271869978
 30
0.0
 11
110.5330833134852
 21
661.2166803079454
 31
0.0
  0
LINE
  5
6F84
330
2
100
AcDbEntity
  8
AM_VIS
100
AcDbLine
 10
109.0330833134852
 20
663.8161037474716
 30
0.0
 11
110.5330833134852
 21
662.9505271869978
 31
0.0
  0
LINE
  5
6F85
330
2
100
AcDbEntity
  8
AM_VIS
100
AcDbLine
 10
107.5330833134852
 20
661.2166803079454
 30
0.0
 11
107.5330833134852
 21
662.9505271869978
 31
0.0
  0
LINE
  5
6F86
330
2
100
AcDbEntity
  8
AM_VIS
100
AcDbLine
 10
109.0330833134852
 20
660.3511037474715
 30
0.0
 11
107.5330833134852
 21
661.2166803079454
 31
0.0
  0
LINE
  5
6F87
330
2
100
AcDbEntity
  8
AM_VIS
100
AcDbLine
 10
110.5330833134852
 20
661.2166803079454
 30
0.0
 11
109.0330833134852
 21
660.3511037474717
 31
0.0
  0
ARC
  5
6F88
330
2
100
AcDbEntity
  8
AM_VIS
100
AcDbCircle
 10
109.0330833134852
 20
662.0836037474715
 30
0.0
 40
4.75
100
AcDbArc
 50
3.674057809584777
 51
266.3259421904087
  0
LINE
  5
6F89
330
2
100
AcDbEntity
  8
AM_VIS
100
AcDbLine
 10
145.5330833134852
 20
662.9505271869978
 30
0.0
 11
147.0330833134852
 21
663.8161037474716
 31
0.0
  0
LINE
  5
6F8A
330
2
100
AcDbEntity
  8
AM_VIS
100
AcDbLine
 10
148.5330833134852
 20
662.9505271869978
 30
0.0
 11
148.5330833134852
 21
661.2166803079454
 31
0.0
  0
LINE
  5
6F8B
330
2
100
AcDbEntity
  8
AM_VIS
100
AcDbLine
 10
147.0330833134852
 20
663.8161037474716
 30
0.0
 11
148.5330833134852
 21
662.9505271869978
 31
0.0
  0
LINE
  5
6F8C
330
2
100
AcDbEntity
  8
AM_VIS
100
AcDbLine
 10
145.5330833134852
 20
661.2166803079454
 30
0.0
 11
145.5330833134852
 21
662.9505271869978
 31
0.0
  0
LINE
  5
6F8D
330
2
100
AcDbEntity
  8
AM_VIS
100
AcDbLine
 10
147.0330833134852
 20
660.3511037474715
 30
0.0
 11
145.5330833134852
 21
661.2166803079454
 31
0.0
  0
LINE
  5
6F8E
330
2
100
AcDbEntity
  8
AM_VIS
100
AcDbLine
 10
148.5330833134852
 20
661.2166803079454
 30
0.0
 11
147.0330833134852
 21
660.3511037474715
 31
0.0
  0
ARC
  5
6F8F
330
2
100
AcDbEntity
  8
AM_VIS
100
AcDbCircle
 10
147.0330833134852
 20
662.0836037474715
 30
0.0
 40
4.75
100
AcDbArc
 50
273.6740578095913
 51
176.3259421904152
  0
LINE
  5
6F90
330
2
100
AcDbEntity
  8
AM_VIS
100
AcDbLine
 10
109.0330833134851
 20
618.0836037474715
 30
0.0
 11
147.0330833134851
 21
618.0836037474715
 31
0.0
  0
LINE
  5
6F91
330
2
100
AcDbEntity
  8
AM_VIS
100
AcDbLine
 10
103.0330833134851
 20
653.0836037474715
 30
0.0
 11
103.0330833134851
 21
624.0836037474715
 31
0.0
  0
LINE
  5
6F92
330
2
100
AcDbEntity
  8
AM_VIS
100
AcDbLine
 10
153.0330833134851
 20
624.0836037474715
 30
0.0
 11
153.0330833134851
 21
653.0836037474715
 31
0.0
  0
ARC
  5
6F93
330
2
100
AcDbEntity
  8
AM_VIS
100
AcDbCircle
 10
109.0330833134851
 20
624.0836037474715
 30
0.0
 40
6.0
100
AcDbArc
 50
180.0
 51
270.0
  0
ARC
  5
6F94
330
2
100
AcDbEntity
  8
AM_VIS
100
AcDbCircle
 10
147.0330833134851
 20
624.0836037474715
 30
0.0
 40
6.0
100
AcDbArc
 50
270.0
 51
0.0
  0
LINE
  5
6F95
330
2
100
AcDbEntity
  8
AM_VIS
100
AcDbLine
 10
141.3080663332588
 20
661.8659046135722
 30
0.0
 11
141.9743658710413
 21
662.6192286581414
 31
0.0
  0
LINE
  5
6F96
330
2
100
AcDbEntity
  8
AM_VIS
100
AcDbLine
 10
145.0533020309928
 20
658.5533210948639
 30
0.0
 11
145.7196015687752
 21
659.306645139433
 31
0.0
  0
LINE
  5
6F97
330
2
100
AcDbEntity
  8
AM_VIS
100
AcDbLine
 10
129.0679177276546
 20
667.0612833210928
 30
0.0
 11
129.1294533465328
 21
666.0574578592797
 31
0.0
  0
LINE
  5
6F98
330
2
100
AcDbEntity
  8
AM_VIS
100
AcDbLine
 10
151.0069374252931
 20
641.9872337144239
 30
0.0
 11
152.0107628871063
 21
642.0487693333024
 31
0.0
  0
LINE
  5
6F99
330
2
100
AcDbEntity
  8
AM_VIS
100
AcDbLine
 10
111.8100419215238
 20
660.7701220027619
 30
0.0
 11
112.5633659660931
 21
660.1038224649792
 31
0.0
  0
LINE
  5
6F9A
330
2
100
AcDbEntity
  8
AM_VIS
100
AcDbLine
 10
143.5028006608773
 20
626.0633850299642
 30
0.0
 11
144.2561247054465
 21
625.3970854921816
 31
0.0
  0
LINE
  5
6F9B
330
2
100
AcDbEntity
  8
AM_VIS
100
AcDbLine
 10
104.055403739864
 20
644.1184381616412
 30
0.0
 11
105.0592292016772
 21
644.1799737805194
 31
0.0
  0
LINE
  5
6F9C
330
2
100
AcDbEntity
  8
AM_VIS
100
AcDbLine
 10
126.9367132804374
 20
620.1097496356639
 30
0.0
 11
126.9982488993157
 21
619.1059241738506
 31
0.0
  0
LINE
  5
6F9D
330
2
100
AcDbEntity
  8
AM_VIS
100
AcDbLine
 10
110.3465650581951
 20
626.8605623555105
 30
0.0
 11
111.0128645959776
 21
627.6138864000796
 31
0.0
  0
LINE
  5
6F9E
330
2
100
AcDbEntity
  8
AM_VIS
100
AcDbLine
 10
149.5072726313414
 20
641.8953025922156
 30
0.0
 11
151.0069374252931
 21
641.9872337144239
 31
0.0
  0
LINE
  5
6F9F
330
2
100
AcDbEntity
  8
AM_VIS
100
AcDbLine
 10
142.377372395653
 20
627.0588030553575
 30
0.0
 11
143.5028006608773
 21
626.0633850299642
 31
0.0
  0
LINE
  5
6FA0
330
2
100
AcDbEntity
  8
AM_VIS
100
AcDbLine
 10
126.8447821582291
 20
621.6094144296156
 30
0.0
 11
126.9367132804374
 21
620.1097496356639
 31
0.0
  0
LINE
  5
6FA1
330
2
100
AcDbEntity
  8
AM_VIS
100
AcDbLine
 10
111.0128645959776
 20
627.6138864000796
 30
0.0
 11
112.008282621371
 21
628.739314665304
 31
0.0
  0
LINE
  5
6FA2
330
2
100
AcDbEntity
  8
AM_VIS
100
AcDbLine
 10
105.0592292016772
 20
644.1799737805194
 30
0.0
 11
106.558893995629
 21
644.2719049027279
 31
0.0
  0
LINE
  5
6FA3
330
2
100
AcDbEntity
  8
AM_VIS
100
AcDbLine
 10
112.5633659660931
 20
660.1038224649792
 30
0.0
 11
113.6887942313176
 21
659.108404439586
 31
0.0
  0
LINE
  5
6FA4
330
2
100
AcDbEntity
  8
AM_VIS
100
AcDbLine
 10
129.1294533465328
 20
666.0574578592797
 30
0.0
 11
129.2213844687411
 21
664.5577930653279
 31
0.0
  0
LINE
  5
6FA5
330
2
100
AcDbEntity
  8
AM_VIS
100
AcDbLine
 10
140.3126483078655
 20
660.7404763483478
 30
0.0
 11
141.3080663332588
 21
661.8659046135722
 31
0.0
  0
LINE
  5
6FA6
330
2
100
AcDbEntity
  8
AM_VIS
100
AcDbLine
 10
144.0578840055992
 20
657.4278928296394
 30
0.0
 11
145.0533020309928
 21
658.5533210948639
 31
0.0
  0
LINE
  5
6FA7
330
2
100
AcDbEntity
  8
AM_VIS
100
AcDbLine
 10
132.8565623099627
 20
633.1975504211672
 30
0.0
 11
132.7362352236181
 21
636.6120998951811
 31
0.0
  0
LINE
  5
6FA8
330
2
100
AcDbEntity
  8
AM_VIS
100
AcDbLine
 10
135.7232746564792
 20
645.2883615818244
 30
0.0
 11
137.9191681508489
 21
647.9070181593221
 31
0.0
  0
LINE
  5
6FA9
330
2
100
AcDbEntity
  8
AM_VIS
100
AcDbLine
 10
137.6456225486726
 20
645.8402483477026
 30
0.0
 11
135.7232746564792
 21
645.2883615818244
 31
0.0
  0
LINE
  5
6FAA
330
2
100
AcDbEntity
  8
AM_VIS
100
AcDbLine
 10
132.736235223618
 20
636.6120998951811
 30
0.0
 11
133.9123208006634
 21
634.994440220298
 31
0.0
  0
LINE
  5
6FAB
330
2
100
AcDbEntity
  8
AM_VIS
100
AcDbLine
 10
146.8153841795857
 20
629.8086207276981
 30
0.0
 11
147.5687082241549
 21
629.1423211899155
 31
0.0
  0
LINE
  5
6FAC
330
2
100
AcDbEntity
  8
AM_VIS
100
AcDbLine
 10
145.6899559143613
 20
630.8040387530915
 30
0.0
 11
146.8153841795857
 21
629.8086207276981
 31
0.0
  0
ARC
  5
6FAD
330
2
100
AcDbEntity
  8
AM_VIS
100
AcDbCircle
 10
128.0337620364425
 20
643.0833701491616
 30
0.0
 40
23.99930964351618
100
AcDbArc
 50
325.1138281135345
 51
356.9019828100415
  0
LINE
  5
6FAE
330
2
100
AcDbEntity
  8
AM_VIS
100
AcDbLine
 10
131.9273451087726
 20
620.4156809253478
 30
0.0
 11
131.988880727651
 21
619.4118554635346
 31
0.0
  0
LINE
  5
6FAF
330
2
100
AcDbEntity
  8
AM_VIS
100
AcDbLine
 10
131.8354139865643
 20
621.9153457192995
 30
0.0
 11
131.9273451087726
 21
620.4156809253478
 31
0.0
  0
ARC
  5
6FB0
330
2
100
AcDbEntity
  8
AM_VIS
100
AcDbCircle
 10
128.0333980641418
 20
643.0829586389162
 30
0.0
 40
23.99930964351559
100
AcDbArc
 50
280.1138281135385
 51
311.9019828100495
  0
LINE
  5
6FB1
330
2
100
AcDbEntity
  8
AM_VIS
100
AcDbLine
 10
114.091800755929
 20
623.5479788368019
 30
0.0
 11
114.7581002937115
 21
624.3013028813712
 31
0.0
  0
LINE
  5
6FB2
330
2
100
AcDbEntity
  8
AM_VIS
100
AcDbLine
 10
114.7581002937115
 20
624.3013028813712
 30
0.0
 11
115.7535183191049
 21
625.4267311465954
 31
0.0
  0
ARC
  5
6FB3
330
2
100
AcDbEntity
  8
AM_VIS
100
AcDbCircle
 10
128.0328497151749
 20
643.0829250245145
 30
0.0
 40
23.9993096435163
100
AcDbArc
 50
235.1138281135436
 51
266.901982810048
  0
LINE
  5
6FB4
330
2
100
AcDbEntity
  8
AM_VIS
100
AcDbLine
 10
104.361335029548
 20
639.127806333306
 30
0.0
 11
105.3651604913613
 21
639.1893419521842
 31
0.0
  0
LINE
  5
6FB5
330
2
100
AcDbEntity
  8
AM_VIS
100
AcDbLine
 10
105.3651604913613
 20
639.1893419521842
 30
0.0
 11
106.864825285313
 21
639.2812730743925
 31
0.0
  0
ARC
  5
6FB6
330
2
100
AcDbEntity
  8
AM_VIS
100
AcDbCircle
 10
128.0324382049303
 20
643.0832889968152
 30
0.0
 40
23.99930964351629
100
AcDbArc
 50
190.1138281135384
 51
221.9019828100449
  0
LINE
  5
6FB7
330
2
100
AcDbEntity
  8
AM_VIS
100
AcDbLine
 10
108.4974584028153
 20
657.0248863050279
 30
0.0
 11
109.2507824473846
 21
656.3585867672453
 31
0.0
  0
LINE
  5
6FB8
330
2
100
AcDbEntity
  8
AM_VIS
100
AcDbLine
 10
109.2507824473846
 20
656.3585867672453
 30
0.0
 11
110.3762107126089
 21
655.363168741852
 31
0.0
  0
ARC
  5
6FB9
330
2
100
AcDbEntity
  8
AM_VIS
100
AcDbCircle
 10
128.0324045905279
 20
643.0838373457817
 30
0.0
 40
23.99930964351634
100
AcDbArc
 50
145.1138281135345
 51
176.9019828100415
  0
LINE
  5
6FBA
330
2
100
AcDbEntity
  8
AM_VIS
100
AcDbLine
 10
124.0772858993194
 20
666.7553520314087
 30
0.0
 11
124.1388215181977
 21
665.7515265695957
 31
0.0
  0
LINE
  5
6FBB
330
2
100
AcDbEntity
  8
AM_VIS
100
AcDbLine
 10
124.1388215181977
 20
665.7515265695957
 30
0.0
 11
124.2307526404059
 21
664.2518617756437
 31
0.0
  0
ARC
  5
6FBC
330
2
100
AcDbEntity
  8
AM_VIS
100
AcDbCircle
 10
128.0327685628284
 20
643.0842488560275
 30
0.0
 40
23.99930964351529
100
AcDbArc
 50
100.1138281135384
 51
131.9019828100494
  0
ARC
  5
6FBD
330
2
100
AcDbEntity
  8
AM_VIS
100
AcDbCircle
 10
128.0333169117954
 20
643.0842824704289
 30
0.0
 40
23.99930964351632
100
AcDbArc
 50
55.11382811354358
 51
86.90198281004148
  0
LINE
  5
6FBE
330
2
100
AcDbEntity
  8
AM_VIS
100
AcDbLine
 10
150.7010061356091
 20
646.9778655427593
 30
0.0
 11
151.7048315974223
 21
647.0394011616376
 31
0.0
  0
LINE
  5
6FBF
330
2
100
AcDbEntity
  8
AM_VIS
100
AcDbLine
 10
149.2013413416574
 20
646.8859344205508
 30
0.0
 11
150.7010061356091
 21
646.9778655427593
 31
0.0
  0
ARC
  5
6FC0
330
2
100
AcDbEntity
  8
AM_VIS
100
AcDbCircle
 10
128.0337284220396
 20
643.0839184981278
 30
0.0
 40
23.99930964351672
100
AcDbArc
 50
10.11382811353846
 51
41.90198281004486
  0
CIRCLE
  5
6FC1
330
2
100
AcDbEntity
  8
AM_VIS
100
AcDbCircle
 10
128.0330833134852
 20
643.0836037474717
 30
0.0
 40
19.0
  0
CIRCLE
  5
6FC2
330
2
100
AcDbEntity
  8
AM_VIS
100
AcDbCircle
 10
128.0330833134852
 20
643.0836037474717
 30
0.0
 40
15.0
  0
ARC
  5
6FC3
330
2
100
AcDbEntity
  8
AM_VIS
100
AcDbCircle
 10
128.0330833134852
 20
643.0836037474717
 30
0.0
 40
24.00000000000003
100
AcDbArc
 50
42.5287486654876
 51
54.48706225809234
  0
ARC
  5
6FC4
330
2
100
AcDbEntity
  8
AM_VIS
100
AcDbCircle
 10
128.0330833134852
 20
643.0836037474717
 30
0.0
 40
24.00000000000003
100
AcDbArc
 50
87.52874866549204
 51
99.48706225809326
  0
ARC
  5
6FC5
330
2
100
AcDbEntity
  8
AM_VIS
100
AcDbCircle
 10
128.0330833134852
 20
643.0836037474717
 30
0.0
 40
24.00000000000003
100
AcDbArc
 50
357.528748665492
 51
9.487062258100223
  0
ARC
  5
6FC6
330
2
100
AcDbEntity
  8
AM_VIS
100
AcDbCircle
 10
128.0330833134852
 20
643.0836037474717
 30
0.0
 40
24.00000000000003
100
AcDbArc
 50
132.5287486654922
 51
144.4870622580976
  0
ARC
  5
6FC7
330
2
100
AcDbEntity
  8
AM_VIS
100
AcDbCircle
 10
128.0330833134852
 20
643.0836037474717
 30
0.0
 40
24.00000000000003
100
AcDbArc
 50
312.5287486654922
 51
324.4870622580976
  0
ARC
  5
6FC8
330
2
100
AcDbEntity
  8
AM_VIS
100
AcDbCircle
 10
128.0330833134852
 20
643.0836037474717
 30
0.0
 40
24.00000000000003
100
AcDbArc
 50
177.528748665492
 51
189.4870622581002
  0
ARC
  5
6FC9
330
2
100
AcDbEntity
  8
AM_VIS
100
AcDbCircle
 10
128.0330833134852
 20
643.0836037474717
 30
0.0
 40
24.00000000000003
100
AcDbArc
 50
267.5287486654921
 51
279.4870622580932
  0
ARC
  5
6FCA
330
2
100
AcDbEntity
  8
AM_VIS
100
AcDbCircle
 10
128.0330833134852
 20
643.0836037474717
 30
0.0
 40
24.00000000000003
100
AcDbArc
 50
222.5287486654876
 51
234.4870622580923
  0
ARC
  5
6FCB
330
2
100
AcDbEntity
  8
AM_VIS
100
AcDbCircle
 10
128.0330833134852
 20
643.0836037474717
 30
0.0
 40
23.0
100
AcDbArc
 50
357.2677743635373
 51
9.748036560056299
  0
ARC
  5
6FCC
330
2
100
AcDbEntity
  8
AM_VIS
100
AcDbCircle
 10
128.0330833134852
 20
643.0836037474717
 30
0.0
 40
23.0
100
AcDbArc
 50
312.2677743635415
 51
324.7480365600527
  0
ARC
  5
6FCD
330
2
100
AcDbEntity
  8
AM_VIS
100
AcDbCircle
 10
128.0330833134852
 20
643.0836037474717
 30
0.0
 40
23.0
100
AcDbArc
 50
267.2677743635373
 51
279.7480365600499
  0
ARC
  5
6FCE
330
2
100
AcDbEntity
  8
AM_VIS
100
AcDbCircle
 10
128.0330833134852
 20
643.0836037474717
 30
0.0
 40
23.0
100
AcDbArc
 50
222.2677743635323
 51
234.7480365600572
  0
ARC
  5
6FCF
330
2
100
AcDbEntity
  8
AM_VIS
100
AcDbCircle
 10
128.0330833134852
 20
643.0836037474717
 30
0.0
 40
23.0
100
AcDbArc
 50
177.2677743635374
 51
189.7480365600562
  0
ARC
  5
6FD0
330
2
100
AcDbEntity
  8
AM_VIS
100
AcDbCircle
 10
128.0330833134852
 20
643.0836037474717
 30
0.0
 40
23.0
100
AcDbArc
 50
132.2677743635415
 51
144.7480365600526
  0
ARC
  5
6FD1
330
2
100
AcDbEntity
  8
AM_VIS
100
AcDbCircle
 10
128.0330833134852
 20
643.0836037474717
 30
0.0
 40
23.0
100
AcDbArc
 50
87.26777436353737
 51
99.74803656004988
  0
ARC
  5
6FD2
330
2
100
AcDbEntity
  8
AM_VIS
100
AcDbCircle
 10
128.0330833134852
 20
643.0836037474717
 30
0.0
 40
21.50704225352113
100
AcDbArc
 50
55.18311439514775
 51
86.83269652844119
  0
ARC
  5
6FD3
330
2
100
AcDbEntity
  8
AM_VIS
100
AcDbCircle
 10
128.0330833134852
 20
643.0836037474717
 30
0.0
 40
23.0
100
AcDbArc
 50
42.2677743635323
 51
54.74803656005718
  0
ARC
  5
6FD4
330
2
100
AcDbEntity
  8
AM_VIS
100
AcDbCircle
 10
128.0330833134852
 20
643.0836037474717
 30
0.0
 40
11.0
100
AcDbArc
 50
296.0080926153768
 51
26.0077183082089
  0
ARC
  5
6FD5
330
2
100
AcDbEntity
  8
AM_VIS
100
AcDbCircle
 10
128.0330833134852
 20
643.0836037474717
 30
0.0
 40
10.0
100
AcDbArc
 50
306.0098091316818
 51
16.00161554642438
  0
ARC
  5
6FD6
330
2
100
AcDbEntity
  8
AM_VIS
100
AcDbCircle
 10
128.0330833134852
 20
643.0836037474717
 30
0.0
 40
21.50704225352113
100
AcDbArc
 50
325.1831143951432
 51
356.8326965284412
  0
ARC
  5
6FD7
330
2
100
AcDbEntity
  8
AM_VIS
100
AcDbCircle
 10
128.0330833134852
 20
643.0836037474717
 30
0.0
 40
24.00000000000003
100
AcDbArc
 50
324.4870622580976
 51
325.1142974037431
  0
ARC
  5
6FD8
330
2
100
AcDbEntity
  8
AM_VIS
100
AcDbCircle
 10
128.0330833134852
 20
643.0836037474717
 30
0.0
 40
24.00000000000003
100
AcDbArc
 50
356.9015135198399
 51
357.528748665492
  0
ARC
  5
6FD9
330
2
100
AcDbEntity
  8
AM_VIS
100
AcDbCircle
 10
128.0330833134852
 20
643.0836037474717
 30
0.0
 40
21.50704225352113
100
AcDbArc
 50
280.1831143951471
 51
311.8326965284324
  0
ARC
  5
6FDA
330
2
100
AcDbEntity
  8
AM_VIS
100
AcDbCircle
 10
128.0330833134852
 20
643.0836037474717
 30
0.0
 40
24.00000000000003
100
AcDbArc
 50
279.4870622580932
 51
280.1142974037405
  0
ARC
  5
6FDB
330
2
100
AcDbEntity
  8
AM_VIS
100
AcDbCircle
 10
128.0330833134852
 20
643.0836037474717
 30
0.0
 40
24.00000000000003
100
AcDbArc
 50
311.9015135198409
 51
312.5287486654922
  0
ARC
  5
6FDC
330
2
100
AcDbEntity
  8
AM_VIS
100
AcDbCircle
 10
128.0330833134852
 20
643.0836037474717
 30
0.0
 40
21.50704225352113
100
AcDbArc
 50
235.1831143951478
 51
266.8326965284412
  0
ARC
  5
6FDD
330
2
100
AcDbEntity
  8
AM_VIS
100
AcDbCircle
 10
128.0330833134852
 20
643.0836037474717
 30
0.0
 40
24.00000000000003
100
AcDbArc
 50
234.4870622580923
 51
235.1142974037405
  0
ARC
  5
6FDE
330
2
100
AcDbEntity
  8
AM_VIS
100
AcDbCircle
 10
128.0330833134852
 20
643.0836037474717
 30
0.0
 40
24.00000000000003
100
AcDbArc
 50
266.9015135198464
 51
267.5287486654921
  0
ARC
  5
6FDF
330
2
100
AcDbEntity
  8
AM_VIS
100
AcDbCircle
 10
128.0330833134852
 20
643.0836037474717
 30
0.0
 40
21.50704225352113
100
AcDbArc
 50
190.1831143951401
 51
221.832696528437
  0
ARC
  5
6FE0
330
2
100
AcDbEntity
  8
AM_VIS
100
AcDbCircle
 10
128.0330833134852
 20
643.0836037474717
 30
0.0
 40
24.00000000000003
100
AcDbArc
 50
189.4870622581002
 51
190.1142974037405
  0
ARC
  5
6FE1
330
2
100
AcDbEntity
  8
AM_VIS
100
AcDbCircle
 10
128.0330833134852
 20
643.0836037474717
 30
0.0
 40
24.00000000000003
100
AcDbArc
 50
221.9015135198455
 51
222.5287486654876
  0
ARC
  5
6FE2
330
2
100
AcDbEntity
  8
AM_VIS
100
AcDbCircle
 10
128.0330833134852
 20
643.0836037474717
 30
0.0
 40
21.50704225352113
100
AcDbArc
 50
145.1831143951432
 51
176.8326965284412
  0
ARC
  5
6FE3
330
2
100
AcDbEntity
  8
AM_VIS
100
AcDbCircle
 10
128.0330833134852
 20
643.0836037474717
 30
0.0
 40
24.00000000000003
100
AcDbArc
 50
144.4870622580976
 51
145.1142974037431
  0
ARC
  5
6FE4
330
2
100
AcDbEntity
  8
AM_VIS
100
AcDbCircle
 10
128.0330833134852
 20
643.0836037474717
 30
0.0
 40
24.00000000000003
100
AcDbArc
 50
176.9015135198399
 51
177.528748665492
  0
ARC
  5
6FE5
330
2
100
AcDbEntity
  8
AM_VIS
100
AcDbCircle
 10
128.0330833134852
 20
643.0836037474717
 30
0.0
 40
21.50704225352113
100
AcDbArc
 50
100.1831143951471
 51
131.8326965284324
  0
ARC
  5
6FE6
330
2
100
AcDbEntity
  8
AM_VIS
100
AcDbCircle
 10
128.0330833134852
 20
643.0836037474717
 30
0.0
 40
24.00000000000003
100
AcDbArc
 50
99.48706225809326
 51
100.1142974037405
  0
ARC
  5
6FE7
330
2
100
AcDbEntity
  8
AM_VIS
100
AcDbCircle
 10
128.0330833134852
 20
643.0836037474717
 30
0.0
 40
24.00000000000003
100
AcDbArc
 50
131.9015135198409
 51
132.5287486654922
  0
ARC
  5
6FE8
330
2
100
AcDbEntity
  8
AM_VIS
100
AcDbCircle
 10
128.0330833134852
 20
643.0836037474717
 30
0.0
 40
24.00000000000003
100
AcDbArc
 50
86.90151351984644
 51
87.52874866549204
  0
ARC
  5
6FE9
330
2
100
AcDbEntity
  8
AM_VIS
100
AcDbCircle
 10
128.0330833134852
 20
643.0836037474717
 30
0.0
 40
24.00000000000003
100
AcDbArc
 50
54.48706225809234
 51
55.11429740374044
  0
ARC
  5
6FEA
330
2
100
AcDbEntity
  8
AM_VIS
100
AcDbCircle
 10
128.0330833134852
 20
643.0836037474717
 30
0.0
 40
21.50704225352113
100
AcDbArc
 50
10.18311439514014
 51
41.83269652843701
  0
ARC
  5
6FEB
330
2
100
AcDbEntity
  8
AM_VIS
100
AcDbCircle
 10
128.0330833134852
 20
643.0836037474717
 30
0.0
 40
24.00000000000003
100
AcDbArc
 50
9.487062258100223
 51
10.11429740374053
  0
ARC
  5
6FEC
330
2
100
AcDbEntity
  8
AM_VIS
100
AcDbCircle
 10
128.0330833134852
 20
643.0836037474717
 30
0.0
 40
24.00000000000003
100
AcDbArc
 50
41.9015135198455
 51
42.5287486654876
  0
LINE
  5
6FED
330
2
100
AcDbEntity
  8
AM_VIS
100
AcDbLine
 10
103.0330833134852
 20
626.0836037474716
 30
0.0
 11
93.03308331348523
 21
626.0836037474716
 31
0.0
  0
LINE
  5
6FEE
330
2
100
AcDbEntity
  8
AM_VIS
100
AcDbLine
 10
93.03308331348523
 20
660.0836037474715
 30
0.0
 11
100.9590092394111
 21
660.0836037474715
 31
0.0
  0
LINE
  5
6FEF
330
2
100
AcDbEntity
  8
AM_VIS
100
AcDbLine
 10
155.1071573875594
 20
660.0836037474717
 30
0.0
 11
163.0330833134852
 21
660.0836037474717
 31
0.0
  0
LINE
  5
6FF0
330
2
100
AcDbEntity
  8
AM_VIS
100
AcDbLine
 10
163.0330833134852
 20
626.0836037474716
 30
0.0
 11
153.0330833134852
 21
626.0836037474716
 31
0.0
  0
LINE
  5
6FF1
330
2
100
AcDbEntity
  8
AM_VIS
100
AcDbLine
 10
93.03308331348523
 20
626.0836037474716
 30
0.0
 11
93.03308331348523
 21
660.0836037474715
 31
0.0
  0
LINE
  5
6FF2
330
2
100
AcDbEntity
  8
AM_VIS
100
AcDbLine
 10
163.0330833134852
 20
660.0836037474715
 30
0.0
 11
163.0330833134852
 21
626.0836037474716
 31
0.0
  0
LINE
  5
6FF3
330
2
100
AcDbEntity
  8
AM_VIS
100
AcDbLine
 10
122.0330833134852
 20
617.5836037474716
 30
0.0
 11
132.0330833134852
 21
617.5836037474716
 31
0.0
  0
LINE
  5
6FF4
330
2
100
AcDbEntity
  8
AM_VIS
100
AcDbLine
 10
122.0330833134852
 20
618.0836037474715
 30
0.0
 11
122.0330833134852
 21
617.5836037474716
 31
0.0
  0
LINE
  5
6FF5
330
2
100
AcDbEntity
  8
AM_VIS
100
AcDbLine
 10
132.0330833134852
 20
618.0836037474715
 30
0.0
 11
132.0330833134852
 21
617.5836037474716
 31
0.0
  0
LINE
  5
6FF6
330
2
100
AcDbEntity
  8
AM_VIS
100
AcDbLine
 10
136.0330833134852
 20
618.0836037474715
 30
0.0
 11
136.0330833134852
 21
617.5836037474716
 31
0.0
  0
LINE
  5
6FF7
330
2
100
AcDbEntity
  8
AM_VIS
100
AcDbLine
 10
132.0330833134852
 20
617.5836037474716
 30
0.0
 11
136.0330833134852
 21
617.5836037474716
 31
0.0
  0
LINE
  5
6FF8
330
2
100
AcDbEntity
  8
AM_VIS
100
AcDbLine
 10
148.0330833134852
 20
618.0836037474715
 30
0.0
 11
147.0330833134851
 21
618.0836037474715
 31
0.0
  0
LINE
  5
6FF9
330
2
100
AcDbEntity
  8
AM_VIS
100
AcDbLine
 10
109.0330833134851
 20
618.0836037474715
 30
0.0
 11
108.0330833134852
 21
618.0836037474715
 31
0.0
  0
LINE
  5
6FFA
330
2
100
AcDbEntity
  8
AM_VIS
100
AcDbLine
 10
103.0330833134852
 20
623.0836037474715
 30
0.0
 11
103.0330833134852
 21
624.0836037474715
 31
0.0
  0
LINE
  5
6FFB
330
2
100
AcDbEntity
  8
AM_VIS
100
AcDbLine
 10
153.0330833134852
 20
624.0836037474715
 30
0.0
 11
153.0330833134852
 21
623.0836037474715
 31
0.0
  0
ARC
  5
6FFC
330
2
100
AcDbEntity
  8
AM_VIS
100
AcDbCircle
 10
108.0330833134852
 20
623.0836037474715
 30
0.0
 40
5.0
100
AcDbArc
 50
180.0
 51
270.0
  0
ARC
  5
6FFD
330
2
100
AcDbEntity
  8
AM_VIS
100
AcDbCircle
 10
148.0330833134852
 20
623.0836037474715
 30
0.0
 40
5.0
100
AcDbArc
 50
270.0
 51
0.0
  0
ARC
  5
6FFE
330
2
100
AcDbEntity
  8
AM_7
  6
AM_ISO08W050x2
 48
0.5
100
AcDbCircle
 10
109.0330833134852
 20
492.2486919897416
 30
0.0
 40
3.0
100
AcDbArc
 50
270.0
 51
90.0
  0
LINE
  5
6FFF
330
2
100
AcDbEntity
  8
AM_7
  6
AM_ISO08W050x2
 48
0.5
100
AcDbLine
 10
109.0330833134852
 20
489.2486919897415
 30
0.0
 11
108.0330833134851
 21
489.2486919897415
 31
0.0
  0
ARC
  5
7000
330
2
100
AcDbEntity
  8
AM_7
  6
AM_ISO08W050x2
 48
0.5
100
AcDbCircle
 10
147.033083313485
 20
492.2486919897416
 30
0.0
 40
3.0
100
AcDbArc
 50
90.0
 51
270.0
  0
LINE
  5
7001
330
2
100
AcDbEntity
  8
AM_7
  6
AM_ISO08W050x2
 48
0.5
100
AcDbLine
 10
147.033083313485
 20
489.2486919897415
 30
0.0
 11
148.0330833134851
 21
489.2486919897415
 31
0.0
  0
DIMENSION
  5
7002
330
2
100
AcDbEntity
  8
AM_REFDIM
100
AcDbDimension
  2
*D44
 10
112.0330833134852
 20
552.2486919897415
 30
0.0
 11
106.0330833134852
 21
557.7493809661196
 31
0.0
 70
    32
 71
     5
 42
12.0
  3
AM_ISO$0
100
AcDbAlignedDimension
 13
100.0330833134852
 23
492.2486919897416
 33
0.0
 14
112.0330833134852
 24
492.2486919897416
 34
0.0
100
AcDbRotatedDimension
  0
DIMENSION
  5
7003
330
2
100
AcDbEntity
  8
AM_REFDIM
100
AcDbDimension
  2
*D45
 10
177.0713214971786
 20
495.2486919897416
 30
0.0
 11
177.0713214971786
 21
492.2486919897416
 31
0.0
 70
   160
 71
     5
 42
6.0
  3
AM_ISO$0
100
AcDbAlignedDimension
 13
153.0330833134852
 23
489.2486919897415
 33
0.0
 14
153.0330833134852
 24
495.2486919897416
 34
0.0
 50
90.0
100
AcDbRotatedDimension
1001
ACAD
1000
DSTYLE
1002
{
1070
   174
1070
     1
1002
}
  0
DIMENSION
  5
7004
102
{ACAD_XDICTIONARY
360
7005
102
}
102
{ACAD_REACTORS
330
7006
102
}
330
2
100
AcDbEntity
  8
AM_REFDIM
100
AcDbDimension
  2
*D46
 10
247.8079057103593
 20
458.5408323704959
 30
0.0
 11
197.9645630788924
 21
418.2413864455995
 31
0.0
 70
   163
  1
2-PT1/4
 71
     5
 42
21.00000000000227
  3
AM_ISO$3
100
AcDbDiametricDimension
 15
234.9252960514585
 25
441.956551608989
 35
0.0
 40
0.0
1001
ACAD
1000
DSTYLE
1002
{
1070
   178
1070
   256
1070
    40
1040
2.0
1070
   144
1040
1.0
1002
}
  0
MTEXT
  5
7007
330
2
100
AcDbEntity
  8
AM_REFDIM
100
AcDbMText
 10
181.3678148077237
 20
416.1320489363107
 30
0.0
 40
7.0
 41
35.93284728583126
 71
     1
 72
     5
  1
{\L2-PT3/8\P2-PT1/2}
 73
     1
 44
1.0
1001
ACAD
1000
MTEXTBEGIN
1070
    73
1070
     1
1070
    44
1040
1.0
1070
    74
1070
     0
1000
MTEXTEND
  0
ENDSEC
  0
SECTION
  2
OBJECTS
  0
DICTIONARY
  5
1A
330
0
100
AcDbDictionary
281
     1
  3
ACAD_COLOR
350
5B6D
  3
ACAD_GROUP
350
18
  3
ACAD_LAYOUT
350
59A5
  3
ACAD_MATERIAL
350
5B6C
  3
ACAD_MLINESTYLE
350
19
  3
ACAD_PLOTSETTINGS
350
59A6
  3
ACAD_PLOTSTYLENAME
350
59A3
  3
ACAD_TABLESTYLE
350
5B6E
  3
ACDBHEADERROUNDTRIPXREC
350
7312
  3
AcDbVariableDictionary
350
A08
  3
AcmDictionary
350
5BCB
  3
AMG
350
5B78
  3
AMGSNAPSETTINGS
350
5CB4
  0
DICTIONARY
  5
5C22
330
A
100
AcDbDictionary
280
     1
281
     1
  3
ACAD_LAYERFILTERS
360
689B
  3
ACAD_LAYERSTATES
360
5C23
  3
ACLYDICTIONARY
360
689A
  0
DICTIONARY
  5
59CA
330
2
100
AcDbDictionary
280
     1
281
     1
  3
ACAD_LAYOUTSELFREF
360
5B3F
  3
ACAD_SORTENTS
360
59CB
  0
DICTIONARY
  5
59F8
330
7
100
AcDbDictionary
280
     1
281
     1
  3
ACAD_LAYOUTSELFREF
360
5B40
  0
DICTIONARY
  5
7005
330
7004
100
AcDbDictionary
280
     1
281
     1
  3
ACAD_DIMASSOC
360
7006
  0
DICTIONARY
  5
5B6D
102
{ACAD_REACTORS
330
1A
102
}
330
1A
100
AcDbDictionary
281
     1
  0
DICTIONARY
  5
18
102
{ACAD_REACTORS
330
1A
102
}
330
1A
100
AcDbDictionary
281
     1
  0
DICTIONARY
  5
59A5
102
{ACAD_REACTORS
330
1A
102
}
330
1A
100
AcDbDictionary
281
     1
  3
Model
350
59A7
  3
配置1
350
59A8
  0
DICTIONARY
  5
5B6C
102
{ACAD_REACTORS
330
1A
102
}
330
1A
100
AcDbDictionary
281
     1
  0
DICTIONARY
  5
19
102
{ACAD_REACTORS
330
1A
102
}
330
1A
100
AcDbDictionary
281
     1
  3
STANDARD
350
1D
  0
DICTIONARY
  5
59A6
102
{ACAD_REACTORS
330
1A
102
}
330
1A
100
AcDbDictionary
281
     1
  0
ACDBDICTIONARYWDFLT
  5
59A3
102
{ACAD_REACTORS
330
1A
102
}
330
1A
100
AcDbDictionary
281
     1
  3
Normal
350
59A4
100
AcDbDictionaryWithDefault
340
59A4
1001
ACAD
1000
TREAT_AS_HARD
1070
     0
1000
TREAT_AS_HARD
1070
     0
1000
TREAT_AS_HARD
1070
     0
  0
DICTIONARY
  5
5B6E
102
{ACAD_REACTORS
330
1A
102
}
330
1A
100
AcDbDictionary
281
     1
  3
Standard
350
5B6F
  0
DICTIONARY
  5
7312
102
{ACAD_REACTORS
330
1A
102
}
330
1A
100
AcDbDictionary
281
     1
  0
DICTIONARY
  5
A08
102
{ACAD_REACTORS
330
1A
102
}
330
1A
100
AcDbDictionary
281
     1
  3
CTABLESTYLE
350
68B5
  3
DIMASSOC
350
68B6
  3
PROJECTNAME
350
68B7
  3
SORTENTS
350
A09
  0
DICTIONARY
  5
5BCB
102
{ACAD_REACTORS
330
1A
102
}
330
1A
100
AcDbDictionary
281
     1
  3
AcmStdDictionary
350
5BD8
  3
AMDTSECTSYM_ARROWCOLOR
350
5BF8
  0
DICTIONARY
  5
5B78
102
{ACAD_REACTORS
330
1A
102
}
330
1A
100
AcDbDictionary
281
     1
  0
DICTIONARY
  5
5CB4
102
{ACAD_REACTORS
330
1A
102
}
330
1A
100
AcDbDictionary
281
     1
  0
DICTIONARY
  5
689B
102
{ACAD_REACTORS
330
5C22
102
}
330
5C22
100
AcDbDictionary
281
     1
  0
DICTIONARY
  5
5C23
102
{ACAD_REACTORS
330
5C22
102
}
330
5C22
100
AcDbDictionary
281
     1
  0
DICTIONARY
  5
689A
102
{ACAD_REACTORS
330
5C22
102
}
330
5C22
100
AcDbDictionary
281
     1
1001
ACAD
1000
<All
  0
XRECORD
  5
5B3F
102
{ACAD_REACTORS
330
59CA
102
}
330
59CA
100
AcDbXrecord
280
     1
340
2
  0
SORTENTSTABLE
  5
59CB
102
{ACAD_REACTORS
330
59CA
102
}
330
59CA
100
AcDbSortentsTable
330
2
331
1F73
  5
1F73
331
5656
  5
5656
331
5652
  5
5652
331
2095
  5
2095
331
4482
  5
4482
331
5655
  5
5655
331
1FBB
  5
1FBB
  0
XRECORD
  5
5B40
102
{ACAD_REACTORS
330
59F8
102
}
330
59F8
100
AcDbXrecord
280
     1
340
7
  0
DIMASSOC
  5
7006
102
{ACAD_REACTORS
330
7005
102
}
330
7005
100
AcDbDimAssoc
330
7004
 90
        2
 70
     0
 71
     0
  1
AcDbOsnapPointRef
 72
     3
331
6F3F
 73
     2
 91
        0
 40
0.0
 10
0.0
 20
0.0
 30
0.0
 75
     0
  0
LAYOUT
  5
59A7
102
{ACAD_XDICTIONARY
360
7313
102
}
102
{ACAD_REACTORS
330
59A5
102
}
330
59A5
100
AcDbPlotSettings
  1

  2
DWF Classic.pc3
  4
ISO_expand_A3_(297.00_x_420.00_MM)
  6

 40
5.793749809265136
 41
10.79374980926513
 42
5.79376220703125
 43
10.79376220703125
 44
297.0
 45
420.0
 46
0.0
 47
49.95
 48
0.0
 49
0.0
140
0.0
141
0.0
142
1.0
143
0.8966588850094245
 70
 11956
 72
     1
 73
     0
 74
     1
  7
acad.ctb
 75
     0
147
1.115251314316134
148
18.22110011069549
149
36.29912410926642
100
AcDbLayout
  1
Model
 70
     1
 71
     0
 10
0.0
 20
0.0
 11
12.0
 21
9.0
 12
0.0
 22
0.0
 32
0.0
 14
0.0
 24
0.0
 34
0.0
 15
0.0
 25
0.0
 35
0.0
146
0.0
 13
0.0
 23
0.0
 33
0.0
 16
1.0
 26
0.0
 36
0.0
 17
0.0
 27
1.0
 37
0.0
 76
     0
330
2
  0
LAYOUT
  5
59A8
102
{ACAD_XDICTIONARY
360
7315
102
}
102
{ACAD_REACTORS
330
59A5
102
}
330
59A5
100
AcDbPlotSettings
  1

  2
\\USER3\EPSON Stylus Photo 750 單色
  4

  6

 40
0.0
 41
0.0
 42
0.0
 43
0.0
 44
0.0
 45
0.0
 46
0.0
 47
0.0
 48
0.0
 49
0.0
140
0.0
141
0.0
142
1.0
143
1.0
 70
   688
 72
     0
 73
     0
 74
     5
  7
acad.ctb
 75
    16
147
1.0
148
0.0
149
0.0
100
AcDbLayout
  1
配置1
 70
     0
 71
     1
 10
0.0
 20
0.0
 11
12.0
 21
9.0
 12
0.0
 22
0.0
 32
0.0
 14
1.000000000000000E+20
 24
1.000000000000000E+20
 34
1.000000000000000E+20
 15
-1.000000000000000E+20
 25
-1.000000000000000E+20
 35
-1.000000000000000E+20
146
0.0
 13
0.0
 23
0.0
 33
0.0
 16
1.0
 26
0.0
 36
0.0
 17
0.0
 27
1.0
 37
0.0
 76
     0
330
7
  0
MLINESTYLE
  5
1D
102
{ACAD_REACTORS
330
19
102
}
330
19
100
AcDbMlineStyle
  2
STANDARD
 70
     0
  3

 62
   256
 51
90.0
 52
90.0
 71
     2
 49
0.5
 62
   256
  6
BYLAYER
 49
-0.5
 62
   256
  6
BYLAYER
  0
ACDBPLACEHOLDER
  5
59A4
102
{ACAD_REACTORS
330
59A3
102
}
330
59A3
  0
TABLESTYLE
  5
5B6F
102
{ACAD_REACTORS
330
5B6E
102
}
330
5B6E
100
AcDbTableStyle
  3
Standard
 70
     0
 71
     0
 40
0.06
 41
0.06
280
     0
281
     0
  7
STANDARD
140
0.18
170
     2
 62
     0
 63
     7
283
     0
274
    -2
284
     1
 64
     0
275
    -2
285
     1
 65
     0
276
    -2
286
     1
 66
     0
277
    -2
287
     1
 67
     0
278
    -2
288
     1
 68
     0
279
    -2
289
     1
 69
     0
  7
STANDARD
140
0.25
170
     5
 62
     0
 63
     7
283
     0
274
    -2
284
     1
 64
     0
275
    -2
285
     1
 65
     0
276
    -2
286
     1
 66
     0
277
    -2
287
     1
 67
     0
278
    -2
288
     1
 68
     0
279
    -2
289
     1
 69
     0
  7
STANDARD
140
0.18
170
     5
 62
     0
 63
     7
283
     0
274
    -2
284
     1
 64
     0
275
    -2
285
     1
 65
     0
276
    -2
286
     1
 66
     0
277
    -2
287
     1
 67
     0
278
    -2
288
     1
 68
     0
279
    -2
289
     1
 69
     0
  0
DICTIONARYVAR
  5
68B5
102
{ACAD_REACTORS
330
A08
102
}
330
A08
100
DictionaryVariables
280
     0
  1
STANDARD
  0
DICTIONARYVAR
  5
68B6
102
{ACAD_REACTORS
330
A08
102
}
330
A08
100
DictionaryVariables
280
     0
  1
1
  0
DICTIONARYVAR
  5
68B7
102
{ACAD_REACTORS
330
A08
102
}
330
A08
100
DictionaryVariables
280
     0
  1

  0
DICTIONARYVAR
  5
A09
102
{ACAD_REACTORS
330
A08
102
}
330
A08
100
DictionaryVariables
280
     0
  1
127
  0
DICTIONARY
  5
5BD8
102
{ACAD_REACTORS
330
5BCB
102
}
330
5BCB
100
AcDbDictionary
281
     1
  0
XRECORD
  5
5BF8
102
{ACAD_REACTORS
330
5BCB
102
}
330
5BCB
100
AcDbXrecord
280
     1
 90
-1023410169
  0
DICTIONARY
  5
7313
330
59A7
100
AcDbDictionary
280
     1
281
     1
  3
ACAD_XREC_ROUNDTRIP
360
7314
  0
DICTIONARY
  5
7315
330
59A8
100
AcDbDictionary
280
     1
281
     1
  3
ACAD_XREC_ROUNDTRIP
360
7316
  0
XRECORD
  5
7314
102
{ACAD_REACTORS
330
7313
102
}
330
7313
100
AcDbXrecord
280
     1
102
SHADEPLOT
 70
     0
102
SHADEPLOTRESLEVEL
 70
     2
102
SHADEPLOTCUSTOMDPI
 70
   300
  0
XRECORD
  5
7316
102
{ACAD_REACTORS
330
7315
102
}
330
7315
100
AcDbXrecord
280
     1
102
SHADEPLOT
 70
     0
102
SHADEPLOTRESLEVEL
 70
     2
102
SHADEPLOTCUSTOMDPI
 70
   300
  0
ENDSEC
  0
EOF
