  0
SECTION
  2
HEADER
  9
$ACADVER
  1
AC1015
  9
$ACADMAINTVER
 70
    20
  9
$DWGCODEPAGE
  3
ANSI_950
  9
$INSBASE
 10
0.0
 20
0.0
 30
0.0
  9
$EXTMIN
 10
137.0818860109763
 20
115.3041042487862
 30
0.0
  9
$EXTMAX
 10
487.0818860109762
 20
604.4329749279438
 30
264.6167454508374
  9
$LIMMIN
 10
0.0
 20
0.0
  9
$LIMMAX
 10
420.0
 20
297.0
  9
$ORTHOMODE
 70
     1
  9
$REGENMODE
 70
     1
  9
$FILLMODE
 70
     1
  9
$QTEXTMODE
 70
     0
  9
$MIRRTEXT
 70
     1
  9
$LTSCALE
 40
1.0
  9
$ATTMODE
 70
     1
  9
$TEXTSIZE
 40
3.0
  9
$TRACEWID
 40
1.0
  9
$TEXTSTYLE
  7
STANDARD
  9
$CLAYER
  8
0
  9
$CELTYPE
  6
ByLayer
  9
$CECOLOR
 62
   256
  9
$CELTSCALE
 40
1.0
  9
$DISPSILH
 70
     0
  9
$DIMSCALE
 40
2.0
  9
$DIMASZ
 40
3.0
  9
$DIMEXO
 40
1.5
  9
$DIMDLI
 40
15.0
  9
$DIMRND
 40
0.0
  9
$DIMDLE
 40
0.0
  9
$DIMEXE
 40
1.5
  9
$DIMTP
 40
0.1
  9
$DIMTM
 40
0.1
  9
$DIMTXT
 40
3.5
  9
$DIMCEN
 40
0.0
  9
$DIMTSZ
 40
0.0
  9
$DIMTOL
 70
     0
  9
$DIMLIM
 70
     0
  9
$DIMTIH
 70
     0
  9
$DIMTOH
 70
     0
  9
$DIMSE1
 70
     0
  9
$DIMSE2
 70
     0
  9
$DIMTAD
 70
     1
  9
$DIMZIN
 70
     8
  9
$DIMBLK
  1

  9
$DIMASO
 70
     1
  9
$DIMSHO
 70
     1
  9
$DIMPOST
  1

  9
$DIMAPOST
  1
"
  9
$DIMALT
 70
     0
  9
$DIMALTD
 70
     2
  9
$DIMALTF
 40
0.0393701
  9
$DIMLFAC
 40
1.0
  9
$DIMTOFL
 70
     1
  9
$DIMTVP
 40
0.0
  9
$DIMTIX
 70
     0
  9
$DIMSOXD
 70
     0
  9
$DIMSAH
 70
     0
  9
$DIMBLK1
  1

  9
$DIMBLK2
  1

  9
$DIMSTYLE
  2
AM_ISO
  9
$DIMCLRD
 70
   256
  9
$DIMCLRE
 70
   256
  9
$DIMCLRT
 70
   256
  9
$DIMTFAC
 40
0.6
  9
$DIMGAP
 40
1.0
  9
$DIMJUST
 70
     0
  9
$DIMSD1
 70
     0
  9
$DIMSD2
 70
     0
  9
$DIMTOLJ
 70
     0
  9
$DIMTZIN
 70
     8
  9
$DIMALTZ
 70
     0
  9
$DIMALTTZ
 70
     0
  9
$DIMUPT
 70
     0
  9
$DIMDEC
 70
     2
  9
$DIMTDEC
 70
     8
  9
$DIMALTU
 70
     2
  9
$DIMALTTD
 70
     2
  9
$DIMTXSTY
  7
STANDARD
  9
$DIMAUNIT
 70
     0
  9
$DIMADEC
 70
     0
  9
$DIMALTRND
 40
0.0
  9
$DIMAZIN
 70
     2
  9
$DIMDSEP
 70
    46
  9
$DIMATFIT
 70
     3
  9
$DIMFRAC
 70
     0
  9
$DIMLDRBLK
  1

  9
$DIMLUNIT
 70
     2
  9
$DIMLWD
 70
    -1
  9
$DIMLWE
 70
    -1
  9
$DIMTMOVE
 70
     0
  9
$LUNITS
 70
     2
  9
$LUPREC
 70
     2
  9
$SKETCHINC
 40
1.0
  9
$FILLETRAD
 40
2.5
  9
$AUNITS
 70
     0
  9
$AUPREC
 70
     0
  9
$MENU
  1
.
  9
$ELEVATION
 40
0.0
  9
$PELEVATION
 40
0.0
  9
$THICKNESS
 40
0.0
  9
$LIMCHECK
 70
     0
  9
$CHAMFERA
 40
2.5
  9
$CHAMFERB
 40
2.5
  9
$CHAMFERC
 40
20.0
  9
$CHAMFERD
 40
0.0
  9
$SKPOLY
 70
     0
  9
$TDCREATE
 40
2454515.453502778
  9
$TDUCREATE
 40
2454515.120169445
  9
$TDUPDATE
 40
2454608.362152384
  9
$TDUUPDATE
 40
2454608.028819051
  9
$TDINDWG
 40
0.0842731366
  9
$TDUSRTIMER
 40
0.0842731366
  9
$USRTIMER
 70
     1
  9
$ANGBASE
 50
0.0
  9
$ANGDIR
 70
     0
  9
$PDMODE
 70
     0
  9
$PDSIZE
 40
0.0
  9
$PLINEWID
 40
0.0
  9
$SPLFRAME
 70
     0
  9
$SPLINETYPE
 70
     6
  9
$SPLINESEGS
 70
     8
  9
$HANDSEED
  5
29EE
  9
$SURFTAB1
 70
     6
  9
$SURFTAB2
 70
     6
  9
$SURFTYPE
 70
     6
  9
$SURFU
 70
     6
  9
$SURFV
 70
     6
  9
$UCSBASE
  2

  9
$UCSNAME
  2

  9
$UCSORG
 10
0.0
 20
0.0
 30
0.0
  9
$UCSXDIR
 10
1.0
 20
0.0
 30
0.0
  9
$UCSYDIR
 10
0.0
 20
1.0
 30
0.0
  9
$UCSORTHOREF
  2

  9
$UCSORTHOVIEW
 70
     0
  9
$UCSORGTOP
 10
0.0
 20
0.0
 30
0.0
  9
$UCSORGBOTTOM
 10
0.0
 20
0.0
 30
0.0
  9
$UCSORGLEFT
 10
0.0
 20
0.0
 30
0.0
  9
$UCSORGRIGHT
 10
0.0
 20
0.0
 30
0.0
  9
$UCSORGFRONT
 10
0.0
 20
0.0
 30
0.0
  9
$UCSORGBACK
 10
0.0
 20
0.0
 30
0.0
  9
$PUCSBASE
  2

  9
$PUCSNAME
  2

  9
$PUCSORG
 10
0.0
 20
0.0
 30
0.0
  9
$PUCSXDIR
 10
1.0
 20
0.0
 30
0.0
  9
$PUCSYDIR
 10
0.0
 20
1.0
 30
0.0
  9
$PUCSORTHOREF
  2

  9
$PUCSORTHOVIEW
 70
     0
  9
$PUCSORGTOP
 10
0.0
 20
0.0
 30
0.0
  9
$PUCSORGBOTTOM
 10
0.0
 20
0.0
 30
0.0
  9
$PUCSORGLEFT
 10
0.0
 20
0.0
 30
0.0
  9
$PUCSORGRIGHT
 10
0.0
 20
0.0
 30
0.0
  9
$PUCSORGFRONT
 10
0.0
 20
0.0
 30
0.0
  9
$PUCSORGBACK
 10
0.0
 20
0.0
 30
0.0
  9
$USERI1
 70
     0
  9
$USERI2
 70
     0
  9
$USERI3
 70
     0
  9
$USERI4
 70
     0
  9
$USERI5
 70
     0
  9
$USERR1
 40
0.0
  9
$USERR2
 40
0.0
  9
$USERR3
 40
0.0
  9
$USERR4
 40
0.0
  9
$USERR5
 40
0.0
  9
$WORLDVIEW
 70
     1
  9
$SHADEDGE
 70
     3
  9
$SHADEDIF
 70
    70
  9
$TILEMODE
 70
     1
  9
$MAXACTVP
 70
    64
  9
$PINSBASE
 10
0.0
 20
0.0
 30
0.0
  9
$PLIMCHECK
 70
     0
  9
$PEXTMIN
 10
1.000000000000000E+20
 20
1.000000000000000E+20
 30
1.000000000000000E+20
  9
$PEXTMAX
 10
-1.000000000000000E+20
 20
-1.000000000000000E+20
 30
-1.000000000000000E+20
  9
$PLIMMIN
 10
0.0
 20
0.0
  9
$PLIMMAX
 10
420.0
 20
297.0
  9
$UNITMODE
 70
     0
  9
$VISRETAIN
 70
     1
  9
$PLINEGEN
 70
     0
  9
$PSLTSCALE
 70
     1
  9
$TREEDEPTH
 70
  3020
  9
$CMLSTYLE
  2
Standard
  9
$CMLJUST
 70
     0
  9
$CMLSCALE
 40
20.0
  9
$PROXYGRAPHICS
 70
     1
  9
$MEASUREMENT
 70
     1
  9
$CELWEIGHT
370
    -1
  9
$ENDCAPS
280
     0
  9
$JOINSTYLE
280
     0
  9
$LWDISPLAY
290
     0
  9
$INSUNITS
 70
     4
  9
$HYPERLINKBASE
  1

  9
$STYLESHEET
  1
彩色出圖.ctb
  9
$XEDIT
290
     1
  9
$CEPSNTYPE
380
     0
  9
$PSTYLEMODE
290
     1
  9
$FINGERPRINTGUID
  2
{F1DF99D9-ABC2-411F-A2F5-BE733C51C81C}
  9
$VERSIONGUID
  2
{27046FE3-E16A-4C77-A85E-0D2E90FC0B6D}
  9
$EXTNAMES
290
     1
  9
$PSVPSCALE
 40
0.0
  9
$OLESTARTUP
290
     0
  0
ENDSEC
  0
SECTION
  2
CLASSES
  0
CLASS
  1
ACDBDICTIONARYWDFLT
  2
AcDbDictionaryWithDefault
  3
ObjectDBX Classes
 90
        0
280
     0
281
     0
  0
CLASS
  1
ACDBPLACEHOLDER
  2
AcDbPlaceHolder
  3
ObjectDBX Classes
 90
        0
280
     0
281
     0
  0
CLASS
  1
LAYOUT
  2
AcDbLayout
  3
ObjectDBX Classes
 90
        0
280
     0
281
     0
  0
CLASS
  1
ACME_DOCUMENT
  2
AcMeDbDoc
  3
AcMeServices
 90
        0
280
     0
281
     0
  0
CLASS
  1
AMGSETTINGSOBJ
  2
AmgSettingsObj
  3
"AcadM|Product Description: AutoCAD Mechanical 2000|Company: Autodesk"
 90
        0
280
     0
281
     0
  0
CLASS
  1
ACMESCOPE
  2
AcMeScope
  3
AcMeServices
 90
        0
280
     0
281
     0
  0
CLASS
  1
ACMECOMMANDHISTORY
  2
AcMeCommandHistory
  3
AcMeServices
 90
        0
280
     0
281
     0
  0
CLASS
  1
ACIMSYSVARMAN
  2
AcImSysVarManager
  3
AcMeServices
 90
        0
280
     0
281
     0
  0
CLASS
  1
ACIMREALSYSVAR
  2
AcImRealSysVar
  3
AcMeServices
 90
        0
280
     0
281
     0
  0
CLASS
  1
ACIMINTSYSVAR
  2
AcImIntSysVar
  3
AcMeServices
 90
        0
280
     0
281
     0
  0
CLASS
  1
ACMEDRAWINGMAN
  2
AcMeDrawingMan
  3
AcMeServices
 90
        0
280
     0
281
     0
  0
CLASS
  1
ACMEVIEW
  2
AcMeView
  3
AcMeServices
 90
        0
280
     0
281
     0
  0
CLASS
  1
ACDBENTITYCACHE
  2
AcMeEntityCache
  3
AcMeServices
 90
        0
280
     0
281
     0
  0
CLASS
  1
GSMANAGER
  2
AcMeGSManager
  3
AcMeServices
 90
        0
280
     0
281
     0
  0
CLASS
  1
AMDTINTERNALREACTOR
  2
AmdtInternalReactor
  3
AcMeServices
 90
        0
280
     0
281
     0
  0
CLASS
  1
ACMESTATEMGR
  2
AcMeStateMgr
  3
AcMeServices
 90
        0
280
     0
281
     0
  0
CLASS
  1
ACGREFMASTER
  2
AcGrefMaster
  3
AcAttribServices
 90
        0
280
     0
281
     0
  0
CLASS
  1
ACME_DATABASE
  2
AcMeDbDatabase
  3
AcMeServices
 90
        0
280
     0
281
     0
  0
CLASS
  1
ACRFINSADJUSTERMGR
  2
AcRfInsAdjusterMgr
  3
AcMeServices
 90
        0
280
     0
281
     0
  0
CLASS
  1
ACGREFACADMASTER
  2
AcGrefacadMaster
  3
AcGrefServices
 90
        0
280
     0
281
     0
  0
CLASS
  1
AMIMASTER
  2
AmiMaster
  3
AmiServices
 90
        0
280
     0
281
     0
  0
CLASS
  1
ACMDATADICTIONARY
  2
AcmDataDictionary
  3
"AcmSymBB|Product Description: AutoCAD Mechanical 2004 DX|Company: Autodesk"
 90
        0
280
     0
281
     0
  0
CLASS
  1
ACMDATAENTRYBLOCK
  2
AcmDataEntryBlock
  3
"AcmSymBB|Product Description: AutoCAD Mechanical 2004 DX|Company: Autodesk"
 90
    32768
280
     0
281
     0
  0
CLASS
  1
ACIMSTRSYSVAR
  2
AcImStrSysVar
  3
AcMeServices
 90
        0
280
     0
281
     0
  0
CLASS
  1
ACMSTANDARDISO
  2
AcmStandardISO
  3
"Amdt_StdImp|Product Description: AutoCAD Mechanical 2004 DX|Company: Autodesk"
 90
        0
280
     0
281
     0
  0
CLASS
  1
AMGOBJPROPCFG
  2
AmgObjPropCfg
  3
"AmgLay|Product Description: AutoCAD Mechanical 2000|Company: Autodesk"
 90
        1
280
     0
281
     0
  0
CLASS
  1
AMDTEDGESTANDARDISO
  2
AmdtEdgeStdISO
  3
"Amdt_StdImp|Product Description: AutoCAD Mechanical 2004 DX|Company: Autodesk"
 90
    32768
280
     0
281
     0
  0
CLASS
  1
ACMSURFSTANDARDISO
  2
AcmSurfTextStdISO
  3
"Amdt_StdImp|Product Description: AutoCAD Mechanical 2004 DX|Company: Autodesk"
 90
        0
280
     0
281
     0
  0
CLASS
  1
ACMFCFSTANDARDISO
  2
AcmFCFStdISO
  3
"Amdt_StdImp|Product Description: AutoCAD Mechanical 2004 DX|Company: Autodesk"
 90
        0
280
     0
281
     0
  0
CLASS
  1
ACMWELDSTANDARDISO
  2
AcmWeldingStdISO
  3
"Amdt_StdImp|Product Description: AutoCAD Mechanical 2004 DX|Company: Autodesk"
 90
        0
280
     0
281
     0
  0
CLASS
  1
ACMIDSTANDARDISO
  2
AcmIdStdISO
  3
"Amdt_StdImp|Product Description: AutoCAD Mechanical 2004 DX|Company: Autodesk"
 90
        0
280
     0
281
     0
  0
CLASS
  1
ACMDATUMSTANDARDISO
  2
AcmDatumStdISO
  3
"Amdt_StdImp|Product Description: AutoCAD Mechanical 2004 DX|Company: Autodesk"
 90
        0
280
     0
281
     0
  0
CLASS
  1
ACMBOMSTANDARDISO
  2
AcmBOMStdISO
  3
"Amdt_StdImp|Product Description: AutoCAD Mechanical 2004 DX|Company: Autodesk"
 90
        0
280
     0
281
     0
  0
CLASS
  1
ACMDETAILSTANDARDISO
  2
AmdtDetailSymStdISO
  3
"Amdt_StdImp|Product Description: AutoCAD Mechanical 2004 DX|Company: Autodesk"
 90
        0
280
     0
281
     0
  0
CLASS
  1
ACMSECTIONSTANDARDISO
  2
AmdtSectionSymStdISO
  3
"Amdt_StdImp|Product Description: AutoCAD Mechanical 2004 DX|Company: Autodesk"
 90
        0
280
     0
281
     0
  0
CLASS
  1
ACMCENTERLINESTANDARDISO
  2
AmdtCenterLineStdISO
  3
"Amdt_StdImp|Product Description: AutoCAD Mechanical 2004 DX|Company: Autodesk"
 90
        0
280
     0
281
     0
  0
CLASS
  1
ACMNOTESTANDARDISO
  2
AmdtNoteStdISO
  3
"Amdt_StdImp|Product Description: AutoCAD Mechanical 2004 DX|Company: Autodesk"
 90
        0
280
     0
281
     0
  0
CLASS
  1
ACAMGLAYSTD
  2
AcAmgLayStd
  3
"AcAmgLayStd|Product Description: AutoCAD Mechanical 2000|Company: Autodesk"
 90
        0
280
     0
281
     0
  0
CLASS
  1
ACAMGDIMSTD
  2
AcAmgDimStd
  3
"AcAmgDimStd|Product Description: AutoCAD Mechanical 2000|Company: Autodesk"
 90
        0
280
     0
281
     0
  0
CLASS
  1
ACAMGHOLECHARTSTDISO
  2
AcAmgHoleChartStdISO
  3
ACMSYMBB_MODULE_NAME
 90
        0
280
     0
281
     0
  0
CLASS
  1
ACAMGTITLESTD
  2
AcAmgTitleStd
  3
"TITLEAPP"
 90
        0
280
     0
281
     0
  0
CLASS
  1
LAYER_INDEX
  2
AcDbLayerIndex
  3
ObjectDBX Classes
 90
        0
280
     0
281
     0
  0
CLASS
  1
IDBUFFER
  2
AcDbIdBuffer
  3
ObjectDBX Classes
 90
        0
280
     0
281
     0
  0
CLASS
  1
DICTIONARYVAR
  2
AcDbDictionaryVar
  3
ObjectDBX Classes
 90
        0
280
     0
281
     0
  0
CLASS
  1
AM_DRAWING_MGR
  2
AcDmDwgMgr
  3
AcMechDwgViewMgmt
 90
        0
280
     0
281
     0
  0
CLASS
  1
AM_DWG_DOCUMENT
  2
AcDmDwgDocument
  3
AcMechDwgViewMgmt
 90
        0
280
     0
281
     0
  0
CLASS
  1
AM_DWG_SHEET
  2
AcDmSheet
  3
AcMechDwgViewMgmt
 90
        0
280
     0
281
     0
  0
CLASS
  1
AM_VIEWDIMPARMAP
  2
AcDmViewDimParMap
  3
AcMechDwgViewMgmt
 90
        0
280
     0
281
     0
  0
CLASS
  1
AM_DWGMGR_NAME
  2
AcDmDwgMgrName
  3
AcMechDwgViewMgmt
 90
        0
280
     0
281
     0
  0
CLASS
  1
AMDTMENUSTATEMGR
  2
AmdtMenuStateMgr
  3
McadcomServices
 90
        0
280
     0
281
     0
  0
CLASS
  1
AMDTMCOMMENUSTATE
  2
AmdtMcomMenuState
  3
McadcomServices
 90
        0
280
     0
281
     0
  0
CLASS
  1
MAPIAMMOUDLE
  2
MApiAmModule
  3
MApiAmServices
 90
        0
280
     0
281
     0
  0
CLASS
  1
AMDTADMENUSTATE
  2
AmdtAdMenuState
  3
DesignerServices
 90
        0
280
     0
281
     0
  0
CLASS
  1
ADAPPL
  2
AcAdAppl
  3
DesignerServices
 90
        0
280
     0
281
     0
  0
CLASS
  1
DEPMGR
  2
AcAdDepMgr
  3
DesignerServices
 90
        0
280
     0
281
     0
  0
CLASS
  1
PARAMMGR
  2
AcAdParamMgr
  3
DesignerServices
 90
        0
280
     0
281
     0
  0
CLASS
  1
PARAMSCOPE
  2
AcAdParamScope
  3
DesignerServices
 90
        0
280
     0
281
     0
  0
CLASS
  1
NAMEDAPPL
  2
AcAdNamedAppl
  3
DesignerServices
 90
        0
280
     0
281
     0
  0
CLASS
  1
AMDTDMMENUSTATE
  2
AmdtDmMenuState
  3
AcMechDwgViewMgmt
 90
        0
280
     0
281
     0
  0
CLASS
  1
AMDTAMMENUSTATE
  2
AmdtAmMenuState
  3
DesignerAssemblies
 90
        0
280
     0
281
     0
  0
CLASS
  1
ACAMPROJECT
  2
AcAmProject
  3
DesignerAssemblies
 90
        0
280
     0
281
     0
  0
CLASS
  1
ACAMGRCOMPDEF
  2
AcAmGrCompDef
  3
DesignerAssemblies
 90
        0
280
     0
281
     0
  0
CLASS
  1
ACCMCONTEXT
  2
AcCmContext
  3
DesignerAssemblies
 90
        0
280
     0
281
     0
  0
CLASS
  1
ACAMCOMPDEF
  2
AcAmCompDef
  3
DesignerAssemblies
 90
        0
280
     0
281
     0
  0
CLASS
  1
ACAMCOMPDEFMGR
  2
AcAmCompDefMgr
  3
DesignerAssemblies
 90
        0
280
     0
281
     0
  0
CLASS
  1
AMCONTEXTMGR
  2
AcAmContextMgr
  3
DesignerAssemblies
 90
        0
280
     0
281
     0
  0
CLASS
  1
ACAMCONTEXTMODELER
  2
AcAmContextModeler
  3
DesignerAssemblies
 90
        0
280
     0
281
     0
  0
CLASS
  1
ACMTHREADLINESTANDARDISO
  2
AmdtThreadLineStdISO
  3
"Amdt_StdImp|Product Description: AutoCAD Mechanical 2004 DX|Company: Autodesk"
 90
        0
280
     0
281
     0
  0
CLASS
  1
CATALOGSTATE
  2
AcAmCatalogState
  3
DesignerAssemblies
 90
        0
280
     0
281
     0
  0
CLASS
  1
ACAMGRCOMPDEFSET
  2
AcAmGrCompDefSet
  3
DesignerAssemblies
 90
        0
280
     0
281
     0
  0
CLASS
  1
AMDTBROWSERDBTAB
  2
AmdtBrowserDbTab
  3
McadcomServices
 90
        0
280
     0
281
     0
  0
CLASS
  1
CBROWSERAPPOBJECT
  2
CBrowserAppObject
  3
McadcomServices
 90
        0
280
     0
281
     0
  0
CLASS
  1
DM_PLACEHOLDER
  2
AcDmSelsetPlaceholder
  3
AcMechDwgViewMgmt
 90
        0
280
     0
281
     0
  0
CLASS
  1
TABLESTYLE
  2
AcDbTableStyle
  3
ObjectDBX Classes
 90
     2047
280
     0
281
     0
  0
CLASS
  1
VAACXREFPANELOBJECT
  2
VaAcXREFPanelObject
  3
VAAC_ADDIN
 90
    32768
280
     0
281
     0
  0
CLASS
  1
VAACIMAGEINVENTORY
  2
VaAcImageInventory
  3
VAAC_ADDIN
 90
    32768
280
     0
281
     0
  0
CLASS
  1
AMDTNOTETEMPLATEDB
  2
AmdtNoteTemplateDB
  3
AMDT_STDIMP_MODULE_NAME
 90
        0
280
     0
281
     0
  0
CLASS
  1
ACMBOM
  2
AcmBom
  3
"AcmSymBB|Product Description: AutoCAD Mechanical 2004 DX|Company: Autodesk"
 90
    32768
280
     0
281
     0
  0
CLASS
  1
AMDTFORMULAUPDATEDISPATCHER
  2
AmdtFormulaUpdateDispatcher
  3
AcMeServices
 90
    32768
280
     0
281
     0
  0
CLASS
  1
ACMPARTLIST
  2
AcmPartList
  3
"AcmSymBB|Product Description: AutoCAD Mechanical 2004 DX|Company: Autodesk"
 90
    33791
280
     0
281
     1
  0
CLASS
  1
ACAMGFILTERDAT
  2
AcAmgFilterDat
  3
"AcadM|Product Description: AutoCAD Mechanical 2000|Company: Autodesk"
 90
    32768
280
     0
281
     0
  0
CLASS
  1
DIMASSOC
  2
AcDbDimAssoc
  3
"AcDbDimAssoc|Product Desc:     AcDim ARX App For Dimension|Company:          Autodesk, Inc.|WEB Address:      www.autodesk.com"
 90
        0
280
     0
281
     0
  0
CLASS
  1
SORTENTSTABLE
  2
AcDbSortentsTable
  3
ObjectDBX Classes
 90
        0
280
     0
281
     0
  0
CLASS
  1
STDPART2D
  2
AmgStdPart
  3
"AmgStdPart|Product Description: AutoCAD Mechanical 2000|Company: Autodesk"
 90
    33791
280
     0
281
     1
  0
CLASS
  1
ACAMSTDPCOMPDEF
  2
AcAmStdpCompDef
  3
DesignerAssemblies
 90
    32768
280
     0
281
     0
  0
CLASS
  1
ACRFATTGENMGR
  2
AcRfAttGeneralMgr
  3
AcAttribServices
 90
        0
280
     0
281
     0
  0
CLASS
  1
ACRFOBJATTMGR
  2
AcRfObjAttGroupMgr
  3
AcAttribServices
 90
    32768
280
     0
281
     0
  0
CLASS
  1
ACRFMCADAPIATTHOLDER
  2
AcRfMCADAPIAttHolder
  3
AcAttribServices
 90
    32768
280
     0
281
     0
  0
CLASS
  1
AMDTSYSATTR
  2
AmdtSystemAttribute
  3
AcAttribServices
 90
    32768
280
     0
281
     0
  0
CLASS
  1
ACAMCOMP
  2
AcAmComp
  3
DesignerAssemblies
 90
    32768
280
     0
281
     0
  0
CLASS
  1
AC_AM_STDP_VIEW_DEF
  2
AcAmStdpViewDef
  3
DesignerAssemblies
 90
    32768
280
     0
281
     0
  0
CLASS
  1
AC_AM_MVD_DEP_MGR
  2
AcAmMVDdepMgr
  3
DesignerAssemblies
 90
    32768
280
     0
281
     0
  0
CLASS
  1
AC_AM_MASTER_VIEW_DEF
  2
AcAmMasterViewDef
  3
DesignerAssemblies
 90
    32768
280
     0
281
     0
  0
CLASS
  1
AC_AM_DIRTY_NODES
  2
AcAmDirtyNodes
  3
DesignerAssemblies
 90
    32768
280
     0
281
     0
  0
CLASS
  1
AC_AM_MAPPER_CACHE
  2
AcAmMapperCache
  3
DesignerAssemblies
 90
    32768
280
     0
281
     0
  0
CLASS
  1
ACAMMVDBACKUPOBJECT
  2
AcAmMVDBackupObject
  3
DesignerAssemblies
 90
    32768
280
     0
281
     0
  0
CLASS
  1
AC_AM_COMP_VIEW_INST
  2
AcAmCompView
  3
DesignerAssemblies
 90
    32768
280
     0
281
     0
  0
CLASS
  1
AC_AM_2D_XREF_MGR
  2
AcAmXrefMgr2d
  3
DesignerAssemblies
 90
    32768
280
     0
281
     0
  0
CLASS
  1
AMDTNOTE
  2
AmdtNote
  3
"AcmSymBB|Product Description: AutoCAD Mechanical 2004 DX|Company: Autodesk"
 90
    33791
280
     0
281
     1
  0
CLASS
  1
ASAPP
  2
AcAsAppObject
  3
AutoSurfServices
 90
        0
280
     0
281
     0
  0
CLASS
  1
IM_STATIC_MAN
  2
AcImStaticVarManager
  3
AcMeServices
 90
    32768
280
     0
281
     0
  0
CLASS
  1
ACIMDBLSTATICVAR
  2
AcImDblStaticVar
  3
AcMeServices
 90
    32768
280
     0
281
     0
  0
CLASS
  1
ACIMSTRSTATICVAR
  2
AcImStrStaticVar
  3
AcMeServices
 90
    32768
280
     0
281
     0
  0
CLASS
  1
ACIMINTSTATICVAR
  2
AcImIntStaticVar
  3
AcMeServices
 90
    32768
280
     0
281
     0
  0
CLASS
  1
ACASGREFMASTER
  2
AcAsGrefMaster
  3
AutoSurfResolverServices
 90
        0
280
     0
281
     0
  0
CLASS
  1
ACADGREFMODULE
  2
AcAdGrefModule
  3
AdGrefServices
 90
        0
280
     0
281
     0
  0
CLASS
  1
AMDTMAPISURFMOUDULE
  2
AmdtMApiSurfModule
  3
MApiSurfServices
 90
        0
280
     0
281
     0
  0
CLASS
  1
MAPIADMODULE
  2
MApiAdModule
  3
MApiAdServices
 90
        0
280
     0
281
     0
  0
CLASS
  1
AMDTEDGESTANDARDISO13715
  2
AmdtEdgeStdISO13715
  3
"Amdt_StdImp|Product Description: AutoCAD Mechanical 2004 DX|Company: Autodesk"
 90
        0
280
     0
281
     0
  0
ENDSEC
  0
SECTION
  2
TABLES
  0
TABLE
  2
VPORT
  5
8
330
0
100
AcDbSymbolTable
 70
     4
  0
VPORT
  5
29E5
330
8
100
AcDbSymbolTableRecord
100
AcDbViewportTableRecord
  2
*Active
 70
     0
 10
0.0
 20
0.0
 11
1.0
 21
1.0
 12
312.0961348172429
 22
359.8688994133161
 13
0.0
 23
0.0
 14
2.5
 24
2.5
 15
10.0
 25
10.0
 16
0.0
 26
0.0
 36
1.0
 17
0.0
 27
0.0
 37
0.0
 40
493.1841399765166
 41
1.276881720430107
 42
50.0
 43
0.0
 44
0.0
 50
0.0
 51
0.0
 71
     0
 72
   100
 73
     1
 74
     3
 75
     0
 76
     0
 77
     0
 78
     0
281
     0
 65
     1
110
0.0
120
0.0
130
0.0
111
1.0
121
0.0
131
0.0
112
0.0
122
1.0
132
0.0
 79
     0
146
0.0
  0
ENDTAB
  0
TABLE
  2
LTYPE
  5
5
330
0
100
AcDbSymbolTable
 70
    16
  0
LTYPE
  5
14
330
5
100
AcDbSymbolTableRecord
100
AcDbLinetypeTableRecord
  2
ByBlock
 70
     0
  3

 72
    65
 73
     0
 40
0.0
  0
LTYPE
  5
15
330
5
100
AcDbSymbolTableRecord
100
AcDbLinetypeTableRecord
  2
ByLayer
 70
     0
  3

 72
    65
 73
     0
 40
0.0
  0
LTYPE
  5
16
330
5
100
AcDbSymbolTableRecord
100
AcDbLinetypeTableRecord
  2
Continuous
 70
     0
  3
Solid line
 72
    65
 73
     0
 40
0.0
  0
LTYPE
  5
64
330
5
100
AcDbSymbolTableRecord
100
AcDbLinetypeTableRecord
  2
AM_ISO02W050
 70
     0
  3
__ __ __ __ __ __ __ __ __ __ __ __ __ __ __
 72
    65
 73
     2
 40
7.5
 49
6.0
 74
     0
 49
-1.5
 74
     0
  0
LTYPE
  5
65
330
5
100
AcDbSymbolTableRecord
100
AcDbLinetypeTableRecord
  2
AM_ISO08W050
 70
     0
  3
____ . ____ . ____ . ____ . ____ . ____ . ____
 72
    65
 73
     4
 40
18.0
 49
12.0
 74
     0
 49
-1.5
 74
     0
 49
3.0
 74
     0
 49
-1.5
 74
     0
  0
LTYPE
  5
66
330
5
100
AcDbSymbolTableRecord
100
AcDbLinetypeTableRecord
  2
AM_ISO09W050
 70
     0
  3
_____ . . _____ . . _____ . . ____ .. ____
 72
    65
 73
     6
 40
22.5
 49
12.0
 74
     0
 49
-1.5
 74
     0
 49
3.0
 74
     0
 49
-1.5
 74
     0
 49
3.0
 74
     0
 49
-1.5
 74
     0
  0
LTYPE
  5
67
330
5
100
AcDbSymbolTableRecord
100
AcDbLinetypeTableRecord
  2
Amconstr
 70
     0
  3
_______________________
 72
    65
 73
     2
 40
9999.0
 49
9999.0
 74
     0
 49
0.0
 74
     0
  0
LTYPE
  5
68
330
5
100
AcDbSymbolTableRecord
100
AcDbLinetypeTableRecord
  2
AM_ISO08W050x2
 70
     0
  3
__ . __ . __ . __ . __ . __
 72
    65
 73
     4
 40
9.0
 49
6.0
 74
     0
 49
-0.75
 74
     0
 49
1.5
 74
     0
 49
-0.75
 74
     0
  0
LTYPE
  5
69
330
5
100
AcDbSymbolTableRecord
100
AcDbLinetypeTableRecord
  2
AM_ISO02W050x2
 70
     0
  3
 _ _ _ _ _ _ _ _ _ _ _ _
 72
    65
 73
     2
 40
3.75
 49
3.0
 74
     0
 49
-0.75
 74
     0
  0
LTYPE
  5
6C
330
5
100
AcDbSymbolTableRecord
100
AcDbLinetypeTableRecord
  2
Amzigzag
 70
     0
  3
/\/-/\/-/\/-/\/-/\/-/\/
 72
    65
 73
     2
 40
11.0001
 49
0.0001
 74
     4
 75
   135
340
6B
 46
0.04
 50
0.0
 44
0.0
 45
0.0
 49
-11.0
 74
     0
  0
LTYPE
  5
7A
330
5
100
AcDbSymbolTableRecord
100
AcDbLinetypeTableRecord
  2
ACISOWELD
 70
     0
  3
_ _ _ _ _
 72
    65
 73
     2
 40
2.0
 49
2.0
 74
     0
 49
-1.0
 74
     0
  0
LTYPE
  5
7B
330
5
100
AcDbSymbolTableRecord
100
AcDbLinetypeTableRecord
  2
ACISOTGB
 70
     0
  3
__ . . __ . .
 72
    65
 73
     6
 40
9.0
 49
4.0
 74
     0
 49
-1.0
 74
     0
 49
1.0
 74
     0
 49
-1.0
 74
     0
 49
1.0
 74
     0
 49
-1.0
 74
     0
  0
LTYPE
  5
7C
330
5
100
AcDbSymbolTableRecord
100
AcDbLinetypeTableRecord
  2
ACISOTGL
 70
     0
  3
_ _ _ _ _
 72
    65
 73
     2
 40
3.0
 49
2.0
 74
     0
 49
-1.0
 74
     0
  0
LTYPE
  5
7E
330
5
100
AcDbSymbolTableRecord
100
AcDbLinetypeTableRecord
  2
CENTER
 70
     0
  3
__ . __
 72
    65
 73
     4
 40
7.0
 49
4.0
 74
     0
 49
-1.0
 74
     0
 49
1.0
 74
     0
 49
-1.0
 74
     0
  0
LTYPE
  5
D8
330
5
100
AcDbSymbolTableRecord
100
AcDbLinetypeTableRecord
  2
HIDDEN
 70
     0
  3
Hidden __ __ __ __ __ __ __ __ __ __ __ __ __ _
 72
    65
 73
     2
 40
9.524999999999998
 49
6.349999999999999
 74
     0
 49
-3.174999999999999
 74
     0
  0
LTYPE
  5
D9
330
5
100
AcDbSymbolTableRecord
100
AcDbLinetypeTableRecord
  2
PHANTOM2
 70
     0
  3
Phantom (.5x) ___ _ _ ___ _ _ ___ _ _ ___ _ _
 72
    65
 73
     6
 40
31.75
 49
15.875
 74
     0
 49
-3.174999999999999
 74
     0
 49
3.174999999999999
 74
     0
 49
-3.174999999999999
 74
     0
 49
3.174999999999999
 74
     0
 49
-3.174999999999999
 74
     0
  0
LTYPE
  5
1CDA
330
5
100
AcDbSymbolTableRecord
100
AcDbLinetypeTableRecord
  2
ASULTYPE
 70
     0
  3
實線
 72
    65
 73
     2
 40
3.0
 49
2.5
 74
     0
 49
0.5
 74
     0
  0
LTYPE
  5
1CDB
330
5
100
AcDbSymbolTableRecord
100
AcDbLinetypeTableRecord
  2
ASVLTYPE
 70
     0
  3
__ __ __ __ __ __ __ __ __ __ __ __ __ __ __ __ __ __ __ __ __
 72
    65
 73
     2
 40
0.75
 49
0.5
 74
     0
 49
-0.25
 74
     0
  0
ENDTAB
  0
TABLE
  2
LAYER
  5
2
102
{ACAD_XDICTIONARY
360
3F9
102
}
330
0
100
AcDbSymbolTable
 70
    12
  0
LAYER
  5
10
330
2
100
AcDbSymbolTableRecord
100
AcDbLayerTableRecord
  2
0
 70
     0
 62
     7
  6
Continuous
370
    -3
390
F
  0
LAYER
  5
BCC
330
2
100
AcDbSymbolTableRecord
100
AcDbLayerTableRecord
  2
M_0
 70
     0
 62
     7
  6
Continuous
370
    -3
390
F
  0
LAYER
  5
BCD
330
2
100
AcDbSymbolTableRecord
100
AcDbLayerTableRecord
  2
AM_8
 70
     0
 62
     1
  6
Continuous
370
    25
390
F
  0
LAYER
  5
C06
330
2
100
AcDbSymbolTableRecord
100
AcDbLayerTableRecord
  2
AM_VIS
 70
     0
 62
     7
  6
Continuous
370
    50
390
F
  0
LAYER
  5
C07
330
2
100
AcDbSymbolTableRecord
100
AcDbLayerTableRecord
  2
AM_7
 70
     0
 62
     1
  6
CENTER
370
    25
390
F
  0
LAYER
  5
E37
330
2
100
AcDbSymbolTableRecord
100
AcDbLayerTableRecord
  2
AM_5
 70
     0
 62
     5
  6
Continuous
370
    50
390
F
  0
LAYER
  5
E41
330
2
100
AcDbSymbolTableRecord
100
AcDbLayerTableRecord
  2
AM_0
 70
     0
 62
     7
  6
Continuous
370
    50
390
F
  0
LAYER
  5
E66
330
2
100
AcDbSymbolTableRecord
100
AcDbLayerTableRecord
  2
AM_4
 70
     0
 62
   150
  6
Continuous
370
    25
390
F
  0
LAYER
  5
E9D
330
2
100
AcDbSymbolTableRecord
100
AcDbLayerTableRecord
  2
Defpoints
 70
     0
 62
     7
  6
Continuous
290
     0
370
    -3
390
F
  0
LAYER
  5
1DBB
330
2
100
AcDbSymbolTableRecord
100
AcDbLayerTableRecord
  2
底
 70
     0
 62
     6
  6
Continuous
370
    -3
390
F
1001
AcAecLayerStandard
1000

1000

  0
LAYER
  5
1F7E
330
2
100
AcDbSymbolTableRecord
100
AcDbLayerTableRecord
  2
LOGO
 70
     0
 62
     7
  6
Continuous
370
    -3
390
F
  0
LAYER
  5
229B
330
2
100
AcDbSymbolTableRecord
100
AcDbLayerTableRecord
  2
AM_HID
 70
     0
 62
     7
  6
AM_ISO02W050
370
    25
390
F
  0
ENDTAB
  0
TABLE
  2
STYLE
  5
3
330
0
100
AcDbSymbolTable
 70
     8
  0
STYLE
  5
11
330
3
100
AcDbSymbolTableRecord
100
AcDbTextStyleTableRecord
  2
STANDARD
 70
     0
 40
0.0
 41
1.0
 50
0.0
 71
     0
 42
3.0
  3
ISOCP.SHX
  4
CHINESET.SHX
  0
STYLE
  5
6B
330
3
100
AcDbSymbolTableRecord
100
AcDbTextStyleTableRecord
  2

 70
     1
 40
0.0
 41
1.0
 50
0.0
 71
     0
 42
2.5
  3
ltypeshp.shx
  4

  0
STYLE
  5
6D
330
3
100
AcDbSymbolTableRecord
100
AcDbTextStyleTableRecord
  2
ACISOTS
 70
     0
 40
1.0
 41
1.0
 50
0.0
 71
     0
 42
1.0
  3
isocp.shx
  4
chineset.shx
  0
STYLE
  5
79
330
3
100
AcDbSymbolTableRecord
100
AcDbTextStyleTableRecord
  2
ACISOGDT
 70
     0
 40
0.0
 41
1.0
 50
0.0
 71
     0
 42
2.5
  3
amgdt.shx
  4
chineset.shx
  0
STYLE
  5
BCE
330
3
100
AcDbSymbolTableRecord
100
AcDbTextStyleTableRecord
  2
ROMAND
 70
     0
 40
0.0
 41
1.0
 50
0.0
 71
     0
 42
6.0
  3
romand.shx
  4
chineset.shx
  0
STYLE
  5
BCF
330
3
100
AcDbSymbolTableRecord
100
AcDbTextStyleTableRecord
  2
DAYUS
 70
     0
 40
0.0
 41
1.0
 50
0.0
 71
     0
 42
2.5
  3
simplex
  4
dayus
  0
STYLE
  5
BD0
330
3
100
AcDbSymbolTableRecord
100
AcDbTextStyleTableRecord
  2
新細明體
 70
     0
 40
0.0
 41
1.0
 50
0.0
 71
     0
 42
2.5
  3
PMingLiU.ttf
  4

1001
ACAD
1000
PMingLiU
1071
    34834
  0
STYLE
  5
1F7F
330
3
100
AcDbSymbolTableRecord
100
AcDbTextStyleTableRecord
  2
CHINESET
 70
     0
 40
0.0
 41
0.75
 50
0.0
 71
     0
 42
3.0
  3
simplex.shx
  4
CHINESET.SHX
  0
ENDTAB
  0
TABLE
  2
VIEW
  5
6
330
0
100
AcDbSymbolTable
 70
     0
  0
ENDTAB
  0
TABLE
  2
UCS
  5
7
330
0
100
AcDbSymbolTable
 70
     0
  0
ENDTAB
  0
TABLE
  2
APPID
  5
9
330
0
100
AcDbSymbolTable
 70
    33
  0
APPID
  5
12
330
9
100
AcDbSymbolTableRecord
100
AcDbRegAppTableRecord
  2
ACAD
 70
     0
  0
APPID
  5
46
330
9
100
AcDbSymbolTableRecord
100
AcDbRegAppTableRecord
  2
MCAD_NO_VIS
 70
     0
  0
APPID
  5
47
330
9
100
AcDbSymbolTableRecord
100
AcDbRegAppTableRecord
  2
ACAD_TEMP_GRAPHIC
 70
     0
  0
APPID
  5
58
330
9
100
AcDbSymbolTableRecord
100
AcDbRegAppTableRecord
  2
ACATTRIBSERVICES
 70
     0
  0
APPID
  5
EE
330
9
100
AcDbSymbolTableRecord
100
AcDbRegAppTableRecord
  2
AD_DRAW
 70
     0
  0
APPID
  5
10C
330
9
100
AcDbSymbolTableRecord
100
AcDbRegAppTableRecord
  2
DESIGNERASSEMBLIES
 70
     0
  0
APPID
  5
111
330
9
100
AcDbSymbolTableRecord
100
AcDbRegAppTableRecord
  2
ACADM_DIM_EDIT
 70
     0
  0
APPID
  5
112
330
9
100
AcDbSymbolTableRecord
100
AcDbRegAppTableRecord
  2
AMDT_DM_ADJ
 70
     0
  0
APPID
  5
22C
330
9
100
AcDbSymbolTableRecord
100
AcDbRegAppTableRecord
  2
ACAD_DSTYLE_DIMTEXT_FILL
 70
     0
  0
APPID
  5
452
330
9
100
AcDbSymbolTableRecord
100
AcDbRegAppTableRecord
  2
GENIUS_GENOENT_13
 70
     0
  0
APPID
  5
453
330
9
100
AcDbSymbolTableRecord
100
AcDbRegAppTableRecord
  2
GENIUS_GENOBJ-N-CRS_13
 70
     0
  0
APPID
  5
454
330
9
100
AcDbSymbolTableRecord
100
AcDbRegAppTableRecord
  2
GENIUS_GENOLIS_13
 70
     0
  0
APPID
  5
455
330
9
100
AcDbSymbolTableRecord
100
AcDbRegAppTableRecord
  2
GENIUS_GENODEF_13
 70
     0
  0
APPID
  5
456
330
9
100
AcDbSymbolTableRecord
100
AcDbRegAppTableRecord
  2
GENIUS_GENOREF_13
 70
     0
  0
APPID
  5
6F3
330
9
100
AcDbSymbolTableRecord
100
AcDbRegAppTableRecord
  2
ACAD_PSEXT
 70
     0
  0
APPID
  5
808
330
9
100
AcDbSymbolTableRecord
100
AcDbRegAppTableRecord
  2
GENIUS_GENDTOL_13
 70
     0
  0
APPID
  5
BD1
330
9
100
AcDbSymbolTableRecord
100
AcDbRegAppTableRecord
  2
GENIUS_GENOBJ-N-HTC_13
 70
     0
  0
APPID
  5
BD2
330
9
100
AcDbSymbolTableRecord
100
AcDbRegAppTableRecord
  2
GENIUS_GENHATCH_13
 70
     0
  0
APPID
  5
E48
330
9
100
AcDbSymbolTableRecord
100
AcDbRegAppTableRecord
  2
GEVID1203295366
 70
     0
  0
APPID
  5
E49
330
9
100
AcDbSymbolTableRecord
100
AcDbRegAppTableRecord
  2
GEVDC
 70
     0
  0
APPID
  5
E52
330
9
100
AcDbSymbolTableRecord
100
AcDbRegAppTableRecord
  2
AMG_2DHIDE
 70
     0
  0
APPID
  5
E53
330
9
100
AcDbSymbolTableRecord
100
AcDbRegAppTableRecord
  2
AMG_2DSTRUCT_BTR
 70
     0
  0
APPID
  5
E64
330
9
100
AcDbSymbolTableRecord
100
AcDbRegAppTableRecord
  2
ACADM_2DVIEW_IGN_NOTIFY
 70
     0
  0
APPID
  5
E89
330
9
100
AcDbSymbolTableRecord
100
AcDbRegAppTableRecord
  2
GENIUS_GENOBJ-N-CEN_13
 70
     0
  0
APPID
  5
E8A
330
9
100
AcDbSymbolTableRecord
100
AcDbRegAppTableRecord
  2
GENIUS_GENCEN_19
 70
     0
  0
APPID
  5
1978
330
9
100
AcDbSymbolTableRecord
100
AcDbRegAppTableRecord
  2
GEVID1203295367
 70
     0
  0
APPID
  5
1C89
330
9
100
AcDbSymbolTableRecord
100
AcDbRegAppTableRecord
  2
GENIUS_GENDIM_13
 70
     0
  0
APPID
  5
1C8A
330
9
100
AcDbSymbolTableRecord
100
AcDbRegAppTableRecord
  2
GENIUS_GE3DTOL_13
 70
     0
  0
APPID
  5
1CDC
330
9
100
AcDbSymbolTableRecord
100
AcDbRegAppTableRecord
  2
ASURF_PCURVE_APPNAME
 70
     0
  0
APPID
  5
1CE0
330
9
100
AcDbSymbolTableRecord
100
AcDbRegAppTableRecord
  2
AMG_3D2D_5.0
 70
     0
  0
APPID
  5
1DBC
330
9
100
AcDbSymbolTableRecord
100
AcDbRegAppTableRecord
  2
AcAecLayerStandard
 70
     0
  0
APPID
  5
1F80
330
9
100
AcDbSymbolTableRecord
100
AcDbRegAppTableRecord
  2
GENIUS_GENREC_14
 70
     0
  0
APPID
  5
1F81
330
9
100
AcDbSymbolTableRecord
100
AcDbRegAppTableRecord
  2
GENIUS_GENOBJ-N-REC_13
 70
     0
  0
ENDTAB
  0
TABLE
  2
DIMSTYLE
  5
A
330
0
100
AcDbSymbolTable
 70
     8
100
AcDbDimStyleTable
 71
     3
340
81
340
8B
340
86
  0
DIMSTYLE
105
81
330
A
100
AcDbSymbolTableRecord
100
AcDbDimStyleTableRecord
  2
AM_ISO
 70
     0
  4
"
 40
2.0
 41
3.0
 42
1.5
 43
15.0
 44
1.5
 47
0.1
 48
0.1
 73
     0
 74
     0
 77
     1
 78
     8
 79
     2
140
3.5
141
0.0
143
0.0393701
146
0.6
147
1.0
172
     1
176
   256
177
   256
178
   256
271
     2
272
     2
283
     0
284
     8
340
11
371
    -1
372
    -1
  0
DIMSTYLE
105
82
102
{ACAD_REACTORS
330
27D6
102
}
330
A
100
AcDbSymbolTableRecord
100
AcDbDimStyleTableRecord
  2
AM_ISO$3
 70
     0
  4
"
 40
2.0
 41
3.0
 42
1.5
 43
15.0
 44
1.5
 47
0.1
 48
0.1
 73
     0
 77
     1
 78
     8
 79
     2
140
3.5
141
0.0
143
0.0393701
146
0.6
147
1.0
176
   256
177
   256
178
   256
271
     2
272
     2
283
     0
284
     8
288
     1
289
     0
340
11
371
    -1
372
    -1
  0
DIMSTYLE
105
83
102
{ACAD_REACTORS
330
2809
102
}
330
A
100
AcDbSymbolTableRecord
100
AcDbDimStyleTableRecord
  2
AM_ISO$4
 70
     0
  4
"
 40
2.0
 41
3.0
 42
1.5
 43
15.0
 44
1.5
 47
0.1
 48
0.1
 73
     0
 77
     1
 78
     8
 79
     2
140
3.5
141
0.0
143
0.0393701
146
0.6
147
1.0
176
   256
177
   256
178
   256
271
     2
272
     2
283
     0
284
     8
288
     1
289
     0
340
11
371
    -1
372
    -1
  0
DIMSTYLE
105
84
330
A
100
AcDbSymbolTableRecord
100
AcDbDimStyleTableRecord
  2
AM_ISO$6
 70
     0
  4
"
 40
2.0
 41
3.0
 42
1.5
 43
15.0
 44
1.5
 47
0.1
 48
0.1
 73
     0
 74
     0
 78
     8
 79
     2
140
3.5
141
0.0
143
0.0393701
146
0.6
147
1.0
172
     1
176
   256
177
   256
178
   256
271
     2
272
     2
283
     0
284
     8
340
11
371
    -1
372
    -1
  0
DIMSTYLE
105
85
330
A
100
AcDbSymbolTableRecord
100
AcDbDimStyleTableRecord
  2
AM_ISO$7
 70
     0
  4
"
 40
2.0
 41
3.0
 42
1.5
 43
15.0
 44
1.5
 47
0.1
 48
0.1
 73
     0
 74
     0
 77
     1
 78
     8
 79
     2
140
5.0
141
0.0
143
0.0393701
146
0.6
147
1.0
172
     1
176
   256
177
   256
178
   256
271
     2
272
     2
283
     0
284
     8
340
11
371
    -1
372
    -1
  0
DIMSTYLE
105
86
330
A
100
AcDbSymbolTableRecord
100
AcDbDimStyleTableRecord
  2
AM_ISO$SF
 70
     0
  4
"
 41
2.5
 42
1.0
 43
10.0
 44
1.0
 47
0.1
 48
0.1
 73
     0
 74
     0
 75
     1
 76
     1
 77
     1
 78
     8
 79
     2
140
3.5
141
0.0
143
0.0393701
146
0.71
147
1.5
172
     1
176
   256
177
   256
178
     2
271
     2
272
     3
274
     4
283
     0
284
     8
340
11
371
    -1
372
    -1
  0
DIMSTYLE
105
8B
330
A
100
AcDbSymbolTableRecord
100
AcDbDimStyleTableRecord
  2
AM_ISO$SH
 70
     0
  4
"
 41
2.5
 42
1.0
 43
10.0
 44
1.0
 47
0.1
 48
0.1
 73
     0
 74
     0
 75
     1
 76
     1
 77
     1
 78
     8
 79
     2
140
3.5
141
0.0
143
0.0393701
144
2.0
146
0.71
147
1.5
172
     1
173
     1
176
   256
177
   256
178
     2
271
     2
272
     3
274
     4
283
     0
284
     8
340
11
343
87
371
    -1
372
    -1
  0
DIMSTYLE
105
40B
102
{ACAD_REACTORS
330
278D
330
2798
330
279B
330
27CA
330
27CD
330
27D0
330
27D3
330
27DD
330
27E0
330
27E3
330
27E6
102
}
330
A
100
AcDbSymbolTableRecord
100
AcDbDimStyleTableRecord
  2
AM_ISO$0
 70
     0
  4
"
 40
2.0
 41
3.0
 42
1.5
 43
15.0
 44
1.5
 47
0.1
 48
0.1
 73
     0
 74
     0
 77
     1
 78
     8
 79
     2
140
3.5
141
0.0
143
0.0393701
146
0.6
147
1.0
172
     1
176
   256
177
   256
178
   256
271
     2
272
     2
283
     0
284
     8
340
11
371
    -1
372
    -1
  0
ENDTAB
  0
TABLE
  2
BLOCK_RECORD
  5
1
330
0
100
AcDbSymbolTable
 70
    44
  0
BLOCK_RECORD
  5
1F
102
{ACAD_XDICTIONARY
360
8F
102
}
330
1
100
AcDbSymbolTableRecord
100
AcDbBlockTableRecord
  2
*Model_Space
340
22
  0
BLOCK_RECORD
  5
1B
330
1
100
AcDbSymbolTableRecord
100
AcDbBlockTableRecord
  2
*Paper_Space
340
1E
  0
BLOCK_RECORD
  5
23
330
1
100
AcDbSymbolTableRecord
100
AcDbBlockTableRecord
  2
*Paper_Space0
340
26
  0
BLOCK_RECORD
  5
87
330
1
100
AcDbSymbolTableRecord
100
AcDbBlockTableRecord
  2
GENAXEH
340
0
  0
BLOCK_RECORD
  5
ACA
330
1
100
AcDbSymbolTableRecord
100
AcDbBlockTableRecord
  2
A$C09F21E84
340
0
  0
BLOCK_RECORD
  5
B2D
330
1
100
AcDbSymbolTableRecord
100
AcDbBlockTableRecord
  2
A$C0AED3F82
340
0
  0
BLOCK_RECORD
  5
B52
330
1
100
AcDbSymbolTableRecord
100
AcDbBlockTableRecord
  2
A$C3F2B26CD
340
0
102
{BLKREFS
331
BCA
102
}
  0
BLOCK_RECORD
  5
BC8
330
1
100
AcDbSymbolTableRecord
100
AcDbBlockTableRecord
  2
A$C1730210C
340
0
  0
BLOCK_RECORD
  5
19A2
102
{ACAD_XDICTIONARY
360
19A3
102
}
330
1
100
AcDbSymbolTableRecord
100
AcDbBlockTableRecord
  2
A$C3A5C6B80
340
0
  0
BLOCK_RECORD
  5
19B7
102
{ACAD_XDICTIONARY
360
19B8
102
}
330
1
100
AcDbSymbolTableRecord
100
AcDbBlockTableRecord
  2
A$C150766D3
340
0
  0
BLOCK_RECORD
  5
280A
330
1
100
AcDbSymbolTableRecord
100
AcDbBlockTableRecord
  2
*D29
340
0
  0
BLOCK_RECORD
  5
2813
330
1
100
AcDbSymbolTableRecord
100
AcDbBlockTableRecord
  2
*D30
340
0
  0
BLOCK_RECORD
  5
281F
330
1
100
AcDbSymbolTableRecord
100
AcDbBlockTableRecord
  2
*D31
340
0
  0
BLOCK_RECORD
  5
282B
330
1
100
AcDbSymbolTableRecord
100
AcDbBlockTableRecord
  2
*D32
340
0
  0
BLOCK_RECORD
  5
2837
330
1
100
AcDbSymbolTableRecord
100
AcDbBlockTableRecord
  2
*D33
340
0
  0
BLOCK_RECORD
  5
2843
330
1
100
AcDbSymbolTableRecord
100
AcDbBlockTableRecord
  2
*D34
340
0
  0
BLOCK_RECORD
  5
284F
330
1
100
AcDbSymbolTableRecord
100
AcDbBlockTableRecord
  2
*D35
340
0
  0
BLOCK_RECORD
  5
285B
330
1
100
AcDbSymbolTableRecord
100
AcDbBlockTableRecord
  2
*D36
340
0
  0
BLOCK_RECORD
  5
2867
330
1
100
AcDbSymbolTableRecord
100
AcDbBlockTableRecord
  2
*D37
340
0
  0
BLOCK_RECORD
  5
2870
330
1
100
AcDbSymbolTableRecord
100
AcDbBlockTableRecord
  2
*D38
340
0
  0
BLOCK_RECORD
  5
287C
330
1
100
AcDbSymbolTableRecord
100
AcDbBlockTableRecord
  2
*D39
340
0
  0
BLOCK_RECORD
  5
2888
330
1
100
AcDbSymbolTableRecord
100
AcDbBlockTableRecord
  2
*D40
340
0
  0
BLOCK_RECORD
  5
2894
330
1
100
AcDbSymbolTableRecord
100
AcDbBlockTableRecord
  2
*D41
340
0
  0
ENDTAB
  0
ENDSEC
  0
SECTION
  2
BLOCKS
  0
BLOCK
  5
20
330
1F
100
AcDbEntity
  8
0
100
AcDbBlockBegin
  2
*Model_Space
 70
     0
 10
0.0
 20
0.0
 30
0.0
  3
*Model_Space
  1

  0
ENDBLK
  5
21
330
1F
100
AcDbEntity
  8
0
100
AcDbBlockEnd
  0
BLOCK
  5
1C
330
1B
100
AcDbEntity
 67
     1
  8
0
100
AcDbBlockBegin
  2
*Paper_Space
 70
     0
 10
0.0
 20
0.0
 30
0.0
  3
*Paper_Space
  1

  0
ENDBLK
  5
1D
330
1B
100
AcDbEntity
 67
     1
  8
0
100
AcDbBlockEnd
  0
BLOCK
  5
24
330
23
100
AcDbEntity
  8
0
100
AcDbBlockBegin
  2
*Paper_Space0
 70
     0
 10
0.0
 20
0.0
 30
0.0
  3
*Paper_Space0
  1

  0
ENDBLK
  5
25
330
23
100
AcDbEntity
  8
0
100
AcDbBlockEnd
  0
BLOCK
  5
89
330
87
100
AcDbEntity
  8
0
100
AcDbBlockBegin
  2
GENAXEH
 70
     0
 10
0.0
 20
0.0
 30
0.0
  3
GENAXEH
  1

  0
LINE
  5
88
330
87
100
AcDbEntity
  8
0
100
AcDbLine
 10
-1.0
 20
0.0
 30
0.0
 11
1.0
 21
0.0
 31
0.0
  0
ENDBLK
  5
8A
330
87
100
AcDbEntity
  8
0
100
AcDbBlockEnd
  0
BLOCK
  5
ACB
330
ACA
100
AcDbEntity
  8
0
100
AcDbBlockBegin
  2
A$C09F21E84
 70
     0
 10
0.0
 20
0.0
 30
0.0
  3
A$C09F21E84
  1

  0
LWPOLYLINE
  5
ACC
330
ACA
100
AcDbEntity
  8
M_0
 62
     5
100
AcDbPolyline
 90
        2
 70
     0
 43
0.999999
 10
12.48259795562535
 20
2.999997438803148
 42
-1.0
 10
15.48259495562524
 20
2.999997438803148
 42
-0.0000000000000001
  0
ARC
  5
ACD
330
ACA
100
AcDbEntity
  8
M_0
 62
     5
100
AcDbCircle
 10
13.9825964556253
 20
2.999997438803177
 30
0.0
 40
1.999997999999999
100
AcDbArc
 50
0.0
 51
120.0000000000009
  0
ARC
  5
ACE
330
ACA
100
AcDbEntity
  8
M_0
 62
     5
100
AcDbCircle
 10
13.9825964556253
 20
2.999997438803177
 30
0.0
 40
0.999999
100
AcDbArc
 50
0.0
 51
180.0
  0
LINE
  5
ACF
330
ACA
100
AcDbEntity
  8
M_0
 62
     5
100
AcDbLine
 10
9.815900622325216
 20
5.69999473880307
 30
0.0
 11
9.815900622325216
 21
6.499993938803157
 31
0.0
  0
LINE
  5
AD0
330
ACA
100
AcDbEntity
  8
M_0
 62
     5
100
AcDbLine
 10
10.8158996223251
 20
5.69999473880307
 30
0.0
 11
10.8158996223251
 21
6.499993938803157
 31
0.0
  0
SOLID
  5
AD1
330
ACA
100
AcDbEntity
  8
M_0
 62
     5
100
AcDbTrace
 10
10.8158996223251
 20
6.499993938803157
 30
0.0
 11
10.8158996223251
 21
5.69999473880307
 31
0.0
 12
9.815900622325216
 22
6.499993938803157
 32
0.0
 13
9.815900622325216
 23
5.69999473880307
 33
0.0
  0
SOLID
  5
AD2
330
ACA
100
AcDbEntity
  8
M_0
 62
     5
100
AcDbTrace
 10
7.632147306527485
 20
4.999995438803154
 30
0.0
 11
7.632147306527485
 21
3.689750937042731
 31
0.0
 12
3.816073288825236
 22
0.0000004388031698
 32
0.0
 13
4.816072288825125
 23
0.0000004388031698
 33
0.0
  0
LINE
  5
AD3
330
ACA
100
AcDbEntity
  8
M_0
 62
     5
100
AcDbLine
 10
4.816072288825125
 20
0.0000004388031698
 30
0.0
 11
7.632147306527485
 21
3.689750937042731
 31
0.0
  0
LINE
  5
AD4
330
ACA
100
AcDbEntity
  8
M_0
 62
     5
100
AcDbLine
 10
4.816072288825125
 20
1.310244940563507
 30
0.0
 11
7.632147306527485
 21
4.999995438803154
 31
0.0
  0
SOLID
  5
AD5
330
ACA
100
AcDbEntity
  8
M_0
 62
     5
100
AcDbTrace
 10
4.816072288825125
 20
4.999995438803239
 30
0.0
 11
4.816072288825125
 21
1.310244940563507
 31
0.0
 12
3.816073288825236
 22
4.999995438803239
 32
0.0
 13
3.816073288825236
 23
0.0000004388031698
 33
0.0
  0
LINE
  5
AD6
330
ACA
100
AcDbEntity
  8
M_0
 62
     5
100
AcDbLine
 10
3.816073288825236
 20
0.0000004388031698
 30
0.0
 11
3.816073288825236
 21
3.689750937042731
 31
0.0
  0
LINE
  5
AD7
330
ACA
100
AcDbEntity
  8
M_0
 62
     5
100
AcDbLine
 10
4.816072288825125
 20
4.999995438803239
 30
0.0
 11
4.816072288825125
 21
1.310244940563507
 31
0.0
  0
LINE
  5
AD8
330
ACA
100
AcDbEntity
  8
M_0
 62
     5
100
AcDbLine
 10
3.816073288825236
 20
0.0000004388031698
 30
0.0
 11
4.816072288825125
 21
0.0000004388031698
 31
0.0
  0
LINE
  5
AD9
330
ACA
100
AcDbEntity
  8
M_0
 62
     5
100
AcDbLine
 10
3.816073288825236
 20
4.999995438803239
 30
0.0
 11
4.816072288825125
 21
4.999995438803239
 31
0.0
  0
LINE
  5
ADA
330
ACA
100
AcDbEntity
  8
M_0
 62
     5
100
AcDbLine
 10
-0.0000007288765573
 20
0.0000004388031698
 30
0.0
 11
0.9999982711233315
 21
0.0000004388031698
 31
0.0
  0
LINE
  5
ADB
330
ACA
100
AcDbEntity
  8
M_0
 62
     5
100
AcDbLine
 10
0.9999982711233315
 20
0.0000004388031698
 30
0.0
 11
3.816073288825236
 21
3.689750937042731
 31
0.0
  0
LINE
  5
ADC
330
ACA
100
AcDbEntity
  8
M_0
 62
     5
100
AcDbLine
 10
-0.0000007288765573
 20
0.0000004388031698
 30
0.0
 11
3.816073288825236
 21
4.999995438803154
 31
0.0
  0
SOLID
  5
ADD
330
ACA
100
AcDbEntity
  8
M_0
 62
     5
100
AcDbTrace
 10
3.816073288825236
 20
4.999995438803239
 30
0.0
 11
3.816073288825236
 21
3.689750937042731
 31
0.0
 12
-0.0000007288765573
 22
0.0000004388031698
 32
0.0
 13
0.9999982711233315
 23
0.0000004388031698
 33
0.0
  0
LWPOLYLINE
  5
ADE
330
ACA
100
AcDbEntity
  8
M_0
 62
     5
100
AcDbPolyline
 90
        2
 70
     0
 43
0.999999
 10
12.48259795562535
 20
0.0000004388032835
 10
12.48259795562535
 20
4.999995438803267
  0
LINE
  5
ADF
330
ACA
100
AcDbEntity
  8
M_0
 62
     5
100
AcDbLine
 10
9.815900622325216
 20
0.0000004388030277
 30
0.0
 11
9.815900622325216
 21
4.999995438803154
 31
0.0
  0
LINE
  5
AE0
330
ACA
100
AcDbEntity
  8
M_0
 62
     5
100
AcDbLine
 10
10.8158996223251
 20
0.0000004388030277
 30
0.0
 11
10.8158996223251
 21
4.999995438803154
 31
0.0
  0
LINE
  5
AE1
330
ACA
100
AcDbEntity
  8
M_0
 62
     5
100
AcDbLine
 10
11.98259845562529
 20
0.0000004388031698
 30
0.0
 11
11.98259845562529
 21
4.999995438803239
 31
0.0
  0
SOLID
  5
AE2
330
ACA
100
AcDbEntity
  8
M_0
 62
     5
100
AcDbTrace
 10
10.8158996223251
 20
4.999995438803154
 30
0.0
 11
10.8158996223251
 21
0.0000004388031698
 31
0.0
 12
9.815900622325216
 22
4.999995438803154
 32
0.0
 13
9.815900622325216
 23
0.0000004388031698
 33
0.0
  0
LINE
  5
AE3
330
ACA
100
AcDbEntity
  8
M_0
 62
     5
100
AcDbLine
 10
12.98259745562541
 20
0.0000004388031698
 30
0.0
 11
12.98259745562541
 21
2.999997438803177
 31
0.0
  0
LINE
  5
AE4
330
ACA
100
AcDbEntity
  8
M_0
 62
     5
100
AcDbLine
 10
11.98259845562529
 20
0.0000004388032551
 30
0.0
 11
12.98259745562541
 21
0.0000004388032551
 31
0.0
  0
LINE
  5
AE5
330
ACA
100
AcDbEntity
  8
M_0
 62
     5
100
AcDbLine
 10
9.815900622325216
 20
0.0000004388031698
 30
0.0
 11
10.8158996223251
 21
0.0000004388031698
 31
0.0
  0
LINE
  5
AE6
330
ACA
100
AcDbEntity
  8
M_0
 62
     5
100
AcDbLine
 10
11.98259845562529
 20
4.999995438803239
 30
0.0
 11
12.98259745562541
 21
4.999995438803239
 31
0.0
  0
LINE
  5
AE7
330
ACA
100
AcDbEntity
  8
M_0
 62
     5
100
AcDbLine
 10
12.98259745562541
 20
2.999997438803177
 30
0.0
 11
11.98259845562529
 21
2.999997438803177
 31
0.0
  0
LINE
  5
AE8
330
ACA
100
AcDbEntity
  8
M_0
 62
     5
100
AcDbLine
 10
9.815900622325216
 20
4.999995438803154
 30
0.0
 11
10.8158996223251
 21
4.999995438803154
 31
0.0
  0
LINE
  5
AE9
330
ACA
100
AcDbEntity
  8
M_0
 62
     5
100
AcDbLine
 10
9.815900622325216
 20
5.69999473880307
 30
0.0
 11
10.8158996223251
 21
5.69999473880307
 31
0.0
  0
LINE
  5
AEA
330
ACA
100
AcDbEntity
  8
M_0
 62
     5
100
AcDbLine
 10
12.98259745562541
 20
4.732046514320984
 30
0.0
 11
12.98259745562541
 21
4.999995438803239
 31
0.0
  0
LINE
  5
AEB
330
ACA
100
AcDbEntity
  8
M_0
 62
     5
100
AcDbLine
 10
7.632147306527485
 20
0.0000004388031698
 30
0.0
 11
7.632147306527485
 21
3.689750937042731
 31
0.0
  0
LINE
  5
AEC
330
ACA
100
AcDbEntity
  8
M_0
 62
     5
100
AcDbLine
 10
8.632146306527602
 20
0.0000004388031698
 30
0.0
 11
8.632146306527602
 21
4.999995438803154
 31
0.0
  0
SOLID
  5
AED
330
ACA
100
AcDbEntity
  8
M_0
 62
     5
100
AcDbTrace
 10
8.632146306527602
 20
4.999995438803154
 30
0.0
 11
8.632146306527602
 21
0.0000004388031698
 31
0.0
 12
7.632147306527485
 22
4.999995438803154
 32
0.0
 13
7.632147306527485
 23
0.0000004388031698
 33
0.0
  0
LINE
  5
AEE
330
ACA
100
AcDbEntity
  8
M_0
 62
     5
100
AcDbLine
 10
7.632147306527485
 20
0.0000004388031698
 30
0.0
 11
8.632146306527602
 21
0.0000004388031698
 31
0.0
  0
LINE
  5
AEF
330
ACA
100
AcDbEntity
  8
M_0
 62
     5
100
AcDbLine
 10
7.632147306527485
 20
4.999995438803154
 30
0.0
 11
8.632146306527602
 21
4.999995438803154
 31
0.0
  0
LINE
  5
AF0
330
ACA
100
AcDbEntity
  8
M_0
 62
     5
100
AcDbLine
 10
9.815900622325216
 20
6.499993938803157
 30
0.0
 11
10.8158996223251
 21
6.499993938803157
 31
0.0
  0
ARC
  5
AF1
330
ACA
100
AcDbEntity
  8
M_0
 62
     5
100
AcDbCircle
 10
33.98277645542544
 20
2.499997938803176
 30
0.0
 40
2.4999975
100
AcDbArc
 50
53.13296708943612
 51
306.8670329105639
  0
LWPOLYLINE
  5
AF2
330
ACA
100
AcDbEntity
  8
M_0
 62
     5
100
AcDbPolyline
 90
        2
 70
     1
 43
0.999999
 10
31.98277845542566
 20
2.499997938803147
 42
1.0
 10
35.98277445542567
 20
2.499997938803147
 42
1.0
  0
CIRCLE
  5
AF3
330
ACA
100
AcDbEntity
  8
M_0
 62
     5
100
AcDbCircle
 10
33.98277645542544
 20
2.499997938803176
 30
0.0
 40
1.4999985
  0
LINE
  5
AF4
330
ACA
100
AcDbEntity
  8
M_0
 62
     5
100
AcDbLine
 10
22.14928828892562
 20
0.0000004388031698
 30
0.0
 11
22.14928828892562
 21
6.499993938803157
 31
0.0
  0
LWPOLYLINE
  5
AF5
330
ACA
100
AcDbEntity
  8
M_0
 62
     5
100
AcDbPolyline
 90
        2
 70
     0
 43
0.999999
 10
21.64928878892533
 20
0.0000004388031698
 10
21.64928878892533
 20
6.499993938803157
  0
LINE
  5
AF6
330
ACA
100
AcDbEntity
  8
M_0
 62
     5
100
AcDbLine
 10
21.14928928892573
 20
4.500070934823241
 30
0.0
 11
21.14928928892573
 21
6.499993938803157
 31
0.0
  0
LWPOLYLINE
  5
AF7
330
ACA
100
AcDbEntity
  8
M_0
 62
     5
100
AcDbPolyline
 90
        2
 70
     0
 43
0.999999
 10
23.81598662222541
 20
0.0000004388031698
 10
23.81598662222541
 20
4.999995438803154
  0
LINE
  5
AF8
330
ACA
100
AcDbEntity
  8
M_0
 62
     5
100
AcDbLine
 10
23.31598712222558
 20
0.0000004388031698
 30
0.0
 11
24.31598612222547
 21
0.0000004388031698
 31
0.0
  0
LINE
  5
AF9
330
ACA
100
AcDbEntity
  8
M_0
 62
     5
100
AcDbLine
 10
23.31598712222558
 20
4.999995438803154
 30
0.0
 11
24.31598612222547
 21
4.999995438803154
 31
0.0
  0
LINE
  5
AFA
330
ACA
100
AcDbEntity
  8
M_0
 62
     5
100
AcDbLine
 10
23.31598712222558
 20
2.999997438803006
 30
0.0
 11
24.31598612222547
 21
2.999997438803006
 31
0.0
  0
LWPOLYLINE
  5
AFB
330
ACA
100
AcDbEntity
  8
M_0
 62
     5
100
AcDbPolyline
 90
        2
 70
     0
 43
0.999999
 10
26.8159836222253
 20
2.999997438803035
 42
1.0
 10
23.81598662222541
 20
2.999997438803035
 42
1.0
  0
LINE
  5
AFC
330
ACA
100
AcDbEntity
  8
M_0
 62
     5
100
AcDbLine
 10
23.31598712222558
 20
0.0000004388031698
 30
0.0
 11
23.31598712222558
 21
4.999995438803154
 31
0.0
  0
ARC
  5
AFD
330
ACA
100
AcDbEntity
  8
M_0
 62
     5
100
AcDbCircle
 10
19.64939078882526
 20
2.499997938803176
 30
0.0
 40
2.4999975
100
AcDbArc
 50
53.13296708943612
 51
306.8670329105639
  0
LWPOLYLINE
  5
AFE
330
ACA
100
AcDbEntity
  8
M_0
 62
     5
100
AcDbPolyline
 90
        2
 70
     1
 43
0.999999
 10
17.64939278882548
 20
2.499997938803147
 42
1.0
 10
21.64938878882549
 20
2.499997938803147
 42
1.0
  0
CIRCLE
  5
AFF
330
ACA
100
AcDbEntity
  8
M_0
 62
     5
100
AcDbCircle
 10
19.64939078882526
 20
2.499997938803176
 30
0.0
 40
1.4999985
  0
LINE
  5
B00
330
ACA
100
AcDbEntity
  8
M_0
 62
     5
100
AcDbLine
 10
21.14928928892573
 20
0.0000004388031698
 30
0.0
 11
21.14928928892573
 21
0.4999249427829966
 31
0.0
  0
LINE
  5
B01
330
ACA
100
AcDbEntity
  8
M_0
 62
     5
100
AcDbLine
 10
21.14928928892573
 20
0.0000004388031698
 30
0.0
 11
22.14928828892562
 21
0.0000004388031698
 31
0.0
  0
LINE
  5
B02
330
ACA
100
AcDbEntity
  8
M_0
 62
     5
100
AcDbLine
 10
14.98259545562541
 20
0.0000004388031698
 30
0.0
 11
14.98259545562541
 21
2.999997438803177
 31
0.0
  0
LINE
  5
B03
330
ACA
100
AcDbEntity
  8
M_0
 62
     5
100
AcDbLine
 10
15.9825944556253
 20
0.0000004388031698
 30
0.0
 11
15.9825944556253
 21
2.999997438803177
 31
0.0
  0
LWPOLYLINE
  5
B04
330
ACA
100
AcDbEntity
  8
M_0
 62
     5
100
AcDbPolyline
 90
        2
 70
     0
 43
0.999999
 10
15.48259495562524
 20
2.999997438803148
 10
15.48259495562524
 20
0.0000004388031698
  0
LINE
  5
B05
330
ACA
100
AcDbEntity
  8
M_0
 62
     5
100
AcDbLine
 10
14.98259545562541
 20
0.0000004388031698
 30
0.0
 11
15.9825944556253
 21
0.0000004388031698
 31
0.0
  0
LINE
  5
B06
330
ACA
100
AcDbEntity
  8
M_0
 62
     5
100
AcDbLine
 10
15.9825944556253
 20
2.999997438803177
 30
0.0
 11
14.98259545562541
 21
2.999997438803177
 31
0.0
  0
LINE
  5
B07
330
ACA
100
AcDbEntity
  8
M_0
 62
     5
100
AcDbLine
 10
30.31598012222548
 20
0.0000004388030277
 30
0.0
 11
30.31598012222548
 21
2.999997438803006
 31
0.0
  0
LINE
  5
B08
330
ACA
100
AcDbEntity
  8
M_0
 62
     5
100
AcDbLine
 10
29.31598112222537
 20
0.0000004388030277
 30
0.0
 11
29.31598112222537
 21
2.999997438803006
 31
0.0
  0
LWPOLYLINE
  5
B09
330
ACA
100
AcDbEntity
  8
M_0
 62
     5
100
AcDbPolyline
 90
        2
 70
     0
 43
0.999999
 10
29.81598062222543
 20
0.0000004388030561
 10
29.81598062222543
 20
2.999997438803035
  0
LWPOLYLINE
  5
B0A
330
ACA
100
AcDbEntity
  8
M_0
 62
     5
100
AcDbPolyline
 90
        2
 70
     0
 43
0.999999
 10
26.8159836222253
 20
0.0000004388031698
 10
26.8159836222253
 20
2.999997438803035
  0
LINE
  5
B0B
330
ACA
100
AcDbEntity
  8
M_0
 62
     5
100
AcDbLine
 10
26.31598412222547
 20
0.0000004388031698
 30
0.0
 11
26.31598412222547
 21
2.999997438803006
 31
0.0
  0
LINE
  5
B0C
330
ACA
100
AcDbEntity
  8
M_0
 62
     5
100
AcDbLine
 10
27.31598312222536
 20
0.0000004388031698
 30
0.0
 11
27.31598312222536
 21
2.999997438803006
 31
0.0
  0
LINE
  5
B0D
330
ACA
100
AcDbEntity
  8
M_0
 62
     5
100
AcDbLine
 10
24.31598612222547
 20
0.0000004388031698
 30
0.0
 11
24.31598612222547
 21
2.999997438803006
 31
0.0
  0
LINE
  5
B0E
330
ACA
100
AcDbEntity
  8
M_0
 62
     5
100
AcDbLine
 10
29.31598112222537
 20
0.0000004388030277
 30
0.0
 11
30.31598012222548
 21
0.0000004388030277
 31
0.0
  0
LINE
  5
B0F
330
ACA
100
AcDbEntity
  8
M_0
 62
     5
100
AcDbLine
 10
26.31598412222547
 20
0.0000004388031698
 30
0.0
 11
27.31598312222536
 21
0.0000004388031698
 31
0.0
  0
LINE
  5
B10
330
ACA
100
AcDbEntity
  8
M_0
 62
     5
100
AcDbLine
 10
29.31598112222537
 20
2.999997438803006
 30
0.0
 11
30.31598012222548
 21
2.999997438803006
 31
0.0
  0
LINE
  5
B11
330
ACA
100
AcDbEntity
  8
M_0
 62
     5
100
AcDbLine
 10
26.31598412222547
 20
2.999997438803006
 30
0.0
 11
27.31598312222536
 21
2.999997438803006
 31
0.0
  0
LINE
  5
B12
330
ACA
100
AcDbEntity
  8
M_0
 62
     5
100
AcDbLine
 10
24.31598612222547
 20
4.732046514320813
 30
0.0
 11
24.31598612222547
 21
4.999995438803154
 31
0.0
  0
ARC
  5
B13
330
ACA
100
AcDbEntity
  8
M_0
 62
     5
100
AcDbCircle
 10
25.31598512222536
 20
2.999997438803006
 30
0.0
 40
1.999997999999999
100
AcDbArc
 50
41.40962210927096
 51
120.0000000000009
  0
ARC
  5
B14
330
ACA
100
AcDbEntity
  8
M_0
 62
     5
100
AcDbCircle
 10
25.31598512222536
 20
2.999997438803006
 30
0.0
 40
0.999999
100
AcDbArc
 50
0.0
 51
180.0
  0
ARC
  5
B15
330
ACA
100
AcDbEntity
  8
M_0
 62
     5
100
AcDbCircle
 10
28.31598212222548
 20
2.999997438803006
 30
0.0
 40
1.999997999999999
100
AcDbArc
 50
0.0
 51
138.590377890729
  0
ARC
  5
B16
330
ACA
100
AcDbEntity
  8
M_0
 62
     5
100
AcDbCircle
 10
28.31598212222548
 20
2.999997438803006
 30
0.0
 40
0.999999
100
AcDbArc
 50
0.0
 51
180.0
  0
LWPOLYLINE
  5
B17
330
ACA
100
AcDbEntity
  8
M_0
 62
     5
100
AcDbPolyline
 90
        2
 70
     0
 43
0.999999
 10
29.81598062222543
 20
2.999997438803035
 42
1.0
 10
26.8159836222253
 20
2.999997438803035
 42
1.0
  0
LINE
  5
B18
330
ACA
100
AcDbEntity
  8
M_0
 62
     5
100
AcDbLine
 10
21.14928928892573
 20
6.499993938803157
 30
0.0
 11
22.14928828892562
 21
6.499993938803157
 31
0.0
  0
ARC
  5
B19
330
ACA
100
AcDbEntity
  8
M_0
 62
     5
100
AcDbCircle
 10
39.64937078882531
 20
2.999997438803177
 30
0.0
 40
1.999997999999999
100
AcDbArc
 50
0.0
 51
120.0000000000009
  0
LINE
  5
B1A
330
ACA
100
AcDbEntity
  8
M_0
 62
     5
100
AcDbLine
 10
41.64936878882531
 20
0.0000004388031698
 30
0.0
 11
41.64936878882531
 21
2.999997438803177
 31
0.0
  0
LINE
  5
B1B
330
ACA
100
AcDbEntity
  8
M_0
 62
     5
100
AcDbLine
 10
40.6493697888252
 20
0.0000004388031698
 30
0.0
 11
40.6493697888252
 21
2.999997438803177
 31
0.0
  0
LWPOLYLINE
  5
B1C
330
ACA
100
AcDbEntity
  8
M_0
 62
     5
100
AcDbPolyline
 90
        2
 70
     0
 43
0.999999
 10
41.14936928882571
 20
2.999997438803148
 10
41.14936928882571
 20
0.0000004388031698
  0
LINE
  5
B1D
330
ACA
100
AcDbEntity
  8
M_0
 62
     5
100
AcDbLine
 10
38.64937178882519
 20
0.0000004388031698
 30
0.0
 11
38.64937178882519
 21
2.999997438803177
 31
0.0
  0
LINE
  5
B1E
330
ACA
100
AcDbEntity
  8
M_0
 62
     5
100
AcDbLine
 10
40.6493697888252
 20
0.0000004388031698
 30
0.0
 11
41.64936878882531
 21
0.0000004388031698
 31
0.0
  0
LINE
  5
B1F
330
ACA
100
AcDbEntity
  8
M_0
 62
     5
100
AcDbLine
 10
38.64937178882519
 20
4.732046514320984
 30
0.0
 11
38.64937178882519
 21
4.999995438803239
 31
0.0
  0
ARC
  5
B20
330
ACA
100
AcDbEntity
  8
M_0
 62
     5
100
AcDbCircle
 10
39.64937078882531
 20
2.999997438803177
 30
0.0
 40
0.999999
100
AcDbArc
 50
0.0
 51
180.0
  0
LWPOLYLINE
  5
B21
330
ACA
100
AcDbEntity
  8
M_0
 62
     5
100
AcDbPolyline
 90
        2
 70
     0
 43
0.999999
 10
35.98267445552483
 20
0.0000004388031698
 10
35.98267445552483
 20
4.999995438803267
  0
LINE
  5
B22
330
ACA
100
AcDbEntity
  8
M_0
 62
     5
100
AcDbLine
 10
37.64937278882531
 20
0.0000004388031698
 30
0.0
 11
37.64937278882531
 21
4.999995438803239
 31
0.0
  0
LINE
  5
B23
330
ACA
100
AcDbEntity
  8
M_0
 62
     5
100
AcDbLine
 10
36.48267395552512
 20
0.0000004388031698
 30
0.0
 11
36.48267395552512
 21
4.999995438803239
 31
0.0
  0
LINE
  5
B24
330
ACA
100
AcDbEntity
  8
M_0
 62
     5
100
AcDbLine
 10
35.48267495552523
 20
0.0000004388031698
 30
0.0
 11
36.48267395552512
 21
0.0000004388031698
 31
0.0
  0
LINE
  5
B25
330
ACA
100
AcDbEntity
  8
M_0
 62
     5
100
AcDbLine
 10
35.48267495552523
 20
0.0000004388031698
 30
0.0
 11
35.48267495552523
 21
0.4999249427829966
 31
0.0
  0
LINE
  5
B26
330
ACA
100
AcDbEntity
  8
M_0
 62
     5
100
AcDbLine
 10
35.48267495552523
 20
4.999995438803239
 30
0.0
 11
36.48267395552512
 21
4.999995438803239
 31
0.0
  0
LINE
  5
B27
330
ACA
100
AcDbEntity
  8
M_0
 62
     5
100
AcDbLine
 10
35.48267495552523
 20
4.500070934823241
 30
0.0
 11
35.48267495552523
 21
4.999995438803239
 31
0.0
  0
LWPOLYLINE
  5
B28
330
ACA
100
AcDbEntity
  8
M_0
 62
     5
100
AcDbPolyline
 90
        2
 70
     0
 43
0.999999
 10
38.14937228882559
 20
0.0000004388032835
 10
38.14937228882559
 20
4.999995438803267
  0
LINE
  5
B29
330
ACA
100
AcDbEntity
  8
M_0
 62
     5
100
AcDbLine
 10
37.64937278882531
 20
0.0000004388032551
 30
0.0
 11
38.64937178882519
 21
0.0000004388032551
 31
0.0
  0
LINE
  5
B2A
330
ACA
100
AcDbEntity
  8
M_0
 62
     5
100
AcDbLine
 10
37.64937278882531
 20
4.999995438803239
 30
0.0
 11
38.64937178882519
 21
4.999995438803239
 31
0.0
  0
LWPOLYLINE
  5
B2B
330
ACA
100
AcDbEntity
  8
M_0
 62
     5
100
AcDbPolyline
 90
        2
 70
     0
 43
0.999999
 10
38.14937228882559
 20
2.999997438803148
 42
-1.0
 10
41.14936928882571
 20
2.999997438803148
 42
-0.0000000000000001
  0
ENDBLK
  5
B2C
330
ACA
100
AcDbEntity
  8
0
100
AcDbBlockEnd
  0
BLOCK
  5
B2E
330
B2D
100
AcDbEntity
  8
0
100
AcDbBlockBegin
  2
A$C0AED3F82
 70
     0
 10
0.0
 20
0.0
 30
0.0
  3
A$C0AED3F82
  1

  0
LINE
  5
B2F
330
B2D
100
AcDbEntity
  8
M_0
 62
     5
100
AcDbLine
 10
11.09998897711853
 20
8.249992188803162
 30
0.0
 11
11.09998897711853
 21
0.0000004388031698
 31
0.0
  0
LINE
  5
B30
330
B2D
100
AcDbEntity
  8
M_0
 62
     5
100
AcDbLine
 10
9.869990207118689
 20
7.589992848803149
 30
0.0
 11
9.869990207118689
 21
0.0000004388031698
 31
0.0
  0
LINE
  5
B31
330
B2D
100
AcDbEntity
  8
M_0
 62
     5
100
AcDbLine
 10
10.22998984711853
 20
8.249992188803162
 30
0.0
 11
10.22998984711853
 21
0.0000004388031698
 31
0.0
  0
SOLID
  5
B32
330
B2D
100
AcDbEntity
  8
M_0
 62
     5
100
AcDbTrace
 10
5.369994707118848
 20
7.589992848803149
 30
0.0
 11
4.499995577118625
 21
4.399996038803095
 31
0.0
 12
5.369994707118848
 22
0.0000004388031698
 32
0.0
 13
4.499995577118625
 23
0.0000004388031698
 33
0.0
  0
LINE
  5
B33
330
B2D
100
AcDbEntity
  8
M_0
 62
     5
100
AcDbLine
 10
5.369994707118848
 20
7.589992848803149
 30
0.0
 11
5.369994707118848
 21
0.0000004388031698
 31
0.0
  0
LINE
  5
B34
330
B2D
100
AcDbEntity
  8
M_0
 62
     5
100
AcDbLine
 10
5.729994347118463
 20
8.249992188803162
 30
0.0
 11
5.729994347118463
 21
0.6599997788030976
 31
0.0
  0
SOLID
  5
B35
330
B2D
100
AcDbEntity
  8
M_0
 62
     5
100
AcDbTrace
 10
6.599993477118459
 20
8.249992188803162
 30
0.0
 11
6.599993477118459
 21
3.849996588803151
 31
0.0
 12
5.729994347118463
 22
8.249992188803162
 32
0.0
 13
5.729994347118463
 23
0.6599997788030976
 33
0.0
  0
LINE
  5
B36
330
B2D
100
AcDbEntity
  8
M_0
 62
     5
100
AcDbLine
 10
1.229998847118395
 20
0.0000004388031698
 30
0.0
 11
5.369994707118848
 21
7.589992848803149
 31
0.0
  0
SOLID
  5
B37
330
B2D
100
AcDbEntity
  8
M_0
 62
     5
100
AcDbTrace
 10
5.369994707118848
 20
7.589992848803149
 30
0.0
 11
4.499995577118625
 21
4.399996038803095
 31
0.0
 12
1.229998847118395
 22
0.0000004388031698
 32
0.0
 13
2.099997977118619
 23
0.0000004388031698
 33
0.0
  0
SOLID
  5
B38
330
B2D
100
AcDbEntity
  8
M_0
 62
     5
100
AcDbTrace
 10
9.869990207118689
 20
7.589992848803149
 30
0.0
 11
8.999991077118693
 21
4.399996038803095
 31
0.0
 12
9.869990207118689
 22
0.0000004388031698
 32
0.0
 13
8.999991077118693
 23
0.0000004388031698
 33
0.0
  0
LINE
  5
B39
330
B2D
100
AcDbEntity
  8
M_0
 62
     5
100
AcDbLine
 10
5.729994347118463
 20
0.0000004388031698
 30
0.0
 11
9.869990207118689
 21
7.589992848803149
 31
0.0
  0
LINE
  5
B3A
330
B2D
100
AcDbEntity
  8
M_0
 62
     5
100
AcDbLine
 10
5.729994347118463
 20
0.6599997788030976
 30
0.0
 11
9.869990207118689
 21
8.249992188803162
 31
0.0
  0
SOLID
  5
B3B
330
B2D
100
AcDbEntity
  8
M_0
 62
     5
100
AcDbTrace
 10
8.999991077118693
 20
8.249992188803162
 30
0.0
 11
6.599993477118459
 21
3.849996588803151
 31
0.0
 12
9.869990207118689
 22
8.249992188803162
 32
0.0
 13
5.729994347118463
 23
0.6599997788030976
 33
0.0
  0
SOLID
  5
B3C
330
B2D
100
AcDbEntity
  8
M_0
 62
     5
100
AcDbTrace
 10
9.869990207118689
 20
7.589992848803149
 30
0.0
 11
8.999991077118693
 21
4.399996038803095
 31
0.0
 12
5.729994347118463
 22
0.0000004388031698
 32
0.0
 13
6.599993477118459
 23
0.0000004388031698
 33
0.0
  0
LINE
  5
B3D
330
B2D
100
AcDbEntity
  8
M_0
 62
     5
100
AcDbLine
 10
0.8699992071187807
 20
0.0000004388031698
 30
0.0
 11
5.369994707118848
 21
8.249992188803162
 31
0.0
  0
SOLID
  5
B3E
330
B2D
100
AcDbEntity
  8
M_0
 62
     5
100
AcDbTrace
 10
5.369994707118848
 20
8.249992188803162
 30
0.0
 11
4.499995577118625
 21
8.249992188803162
 31
0.0
 12
0.8699992071187807
 22
0.0000004388031698
 32
0.0
 13
0.0000000771185569
 23
0.0000004388031698
 33
0.0
  0
LINE
  5
B3F
330
B2D
100
AcDbEntity
  8
M_0
 62
     5
100
AcDbLine
 10
0.0000000771185569
 20
0.0000004388031698
 30
0.0
 11
4.499995577118625
 21
8.249992188803162
 31
0.0
  0
SOLID
  5
B40
330
B2D
100
AcDbEntity
  8
M_0
 62
     5
100
AcDbTrace
 10
11.09998897711853
 20
8.249992188803162
 30
0.0
 11
11.09998897711853
 21
0.0000004388031698
 31
0.0
 12
10.22998984711853
 22
8.249992188803162
 32
0.0
 13
10.22998984711853
 23
0.0000004388031698
 33
0.0
  0
LINE
  5
B41
330
B2D
100
AcDbEntity
  8
M_0
 62
     5
100
AcDbLine
 10
6.599993477118459
 20
8.249992188803162
 30
0.0
 11
6.599993477118459
 21
3.849996588803151
 31
0.0
  0
LINE
  5
B42
330
B2D
100
AcDbEntity
  8
M_0
 62
     5
100
AcDbLine
 10
6.599993477118459
 20
3.849996588803151
 30
0.0
 11
8.999991077118693
 21
8.249992188803162
 31
0.0
  0
LINE
  5
B43
330
B2D
100
AcDbEntity
  8
M_0
 62
     5
100
AcDbLine
 10
6.599993477118459
 20
0.0000004388031698
 30
0.0
 11
8.999991077118693
 21
4.399996038803095
 31
0.0
  0
LINE
  5
B44
330
B2D
100
AcDbEntity
  8
M_0
 62
     5
100
AcDbLine
 10
5.729994347118463
 20
0.0000004388031698
 30
0.0
 11
6.599993477118459
 21
0.0000004388031698
 31
0.0
  0
LINE
  5
B45
330
B2D
100
AcDbEntity
  8
M_0
 62
     5
100
AcDbLine
 10
2.099997977118619
 20
0.0000004388031698
 30
0.0
 11
4.499995577118625
 21
4.399996038803095
 31
0.0
  0
LINE
  5
B46
330
B2D
100
AcDbEntity
  8
M_0
 62
     5
100
AcDbLine
 10
4.499995577118625
 20
4.399996038803095
 30
0.0
 11
4.499995577118625
 21
0.0000004388031698
 31
0.0
  0
LINE
  5
B47
330
B2D
100
AcDbEntity
  8
M_0
 62
     5
100
AcDbLine
 10
1.229998847118395
 20
0.0000004388031698
 30
0.0
 11
2.099997977118619
 21
0.0000004388031698
 31
0.0
  0
LINE
  5
B48
330
B2D
100
AcDbEntity
  8
M_0
 62
     5
100
AcDbLine
 10
0.0000000771185569
 20
0.0000004388031698
 30
0.0
 11
0.8699992071187807
 21
0.0000004388031698
 31
0.0
  0
LINE
  5
B49
330
B2D
100
AcDbEntity
  8
M_0
 62
     5
100
AcDbLine
 10
4.499995577118625
 20
0.0000004388031698
 30
0.0
 11
5.369994707118848
 21
0.0000004388031698
 31
0.0
  0
LINE
  5
B4A
330
B2D
100
AcDbEntity
  8
M_0
 62
     5
100
AcDbLine
 10
8.999991077118693
 20
4.399996038803095
 30
0.0
 11
8.999991077118693
 21
0.0000004388031698
 31
0.0
  0
LINE
  5
B4B
330
B2D
100
AcDbEntity
  8
M_0
 62
     5
100
AcDbLine
 10
8.999991077118693
 20
0.0000004388031698
 30
0.0
 11
9.869990207118689
 21
0.0000004388031698
 31
0.0
  0
LINE
  5
B4C
330
B2D
100
AcDbEntity
  8
M_0
 62
     5
100
AcDbLine
 10
10.22998984711853
 20
0.0000004388031698
 30
0.0
 11
11.09998897711853
 21
0.0000004388031698
 31
0.0
  0
LINE
  5
B4D
330
B2D
100
AcDbEntity
  8
M_0
 62
     5
100
AcDbLine
 10
5.729994347118463
 20
8.249992188803162
 30
0.0
 11
6.599993477118459
 21
8.249992188803162
 31
0.0
  0
LINE
  5
B4E
330
B2D
100
AcDbEntity
  8
M_0
 62
     5
100
AcDbLine
 10
4.499995577118625
 20
8.249992188803162
 30
0.0
 11
5.369994707118848
 21
8.249992188803162
 31
0.0
  0
LINE
  5
B4F
330
B2D
100
AcDbEntity
  8
M_0
 62
     5
100
AcDbLine
 10
8.999991077118693
 20
8.249992188803162
 30
0.0
 11
9.869990207118689
 21
8.249992188803162
 31
0.0
  0
LINE
  5
B50
330
B2D
100
AcDbEntity
  8
M_0
 62
     5
100
AcDbLine
 10
10.22998984711853
 20
8.249992188803162
 30
0.0
 11
11.09998897711853
 21
8.249992188803162
 31
0.0
  0
ENDBLK
  5
B51
330
B2D
100
AcDbEntity
  8
0
100
AcDbBlockEnd
  0
BLOCK
  5
B53
330
B52
100
AcDbEntity
  8
0
100
AcDbBlockBegin
  2
A$C3F2B26CD
 70
     0
 10
0.0
 20
0.0
 30
0.0
  3
A$C3F2B26CD
  1

  0
LINE
  5
B54
330
B52
100
AcDbEntity
  8
M_0
 62
     5
100
AcDbLine
 10
-8.950000000000045
 20
13.75
 30
0.0
 11
-7.5
 21
13.75000000000005
 31
0.0
  0
LWPOLYLINE
  5
B55
330
B52
100
AcDbEntity
  8
M_0
 62
     5
100
AcDbPolyline
 90
        2
 70
     0
 43
0.5
 10
-7.416699999999991
 20
-2.74191022050968
 42
1.0
 10
-8.916699999999991
 20
-2.74191022050968
 42
1.0
  0
LINE
  5
B56
330
B52
100
AcDbEntity
  8
M_0
 62
     5
100
AcDbLine
 10
-9.166699999999991
 20
-1.741910220509623
 30
0.0
 11
-8.666699999999991
 21
-1.741910220509623
 31
0.0
  0
LINE
  5
B57
330
B52
100
AcDbEntity
  8
M_0
 62
     5
100
AcDbLine
 10
-9.166699999999991
 20
-2.74191022050968
 30
0.0
 11
-8.666699999999991
 21
-2.74191022050968
 31
0.0
  0
LINE
  5
B58
330
B52
100
AcDbEntity
  8
M_0
 62
     5
100
AcDbLine
 10
-8.950000000000045
 20
0.0000000000000568
 30
0.0
 11
-7.5
 21
0.0000000000000568
 31
0.0
  0
LINE
  5
B59
330
B52
100
AcDbEntity
  8
M_0
 62
     5
100
AcDbLine
 10
-9.166699999999991
 20
-4.241910220509623
 30
0.0
 11
-8.666699999999991
 21
-4.241910220509623
 31
0.0
  0
LWPOLYLINE
  5
B5A
330
B52
100
AcDbEntity
  8
M_0
 62
     5
100
AcDbPolyline
 90
        2
 70
     0
 43
0.5
 10
-8.916699999999991
 20
-4.241910220509623
 10
-8.916699999999991
 20
-1.741910220509623
  0
SOLID
  5
B5B
330
B52
100
AcDbEntity
  8
M_0
 62
     5
100
AcDbTrace
 10
-2.049999999999954
 20
12.65000000000009
 30
0.0
 11
-3.5
 21
7.333333333333371
 31
0.0
 12
-8.950000000000045
 22
0.0
 32
0.0
 13
-7.5
 23
0.0000000000000568
 33
0.0
  0
SOLID
  5
B5C
330
B52
100
AcDbEntity
  8
M_0
 62
     5
100
AcDbTrace
 10
-3.5
 20
13.75000000000005
 30
0.0
 11
-7.5
 21
6.416666666666742
 31
0.0
 12
-2.049999999999954
 22
13.75000000000005
 32
0.0
 13
-8.950000000000045
 23
1.100000000000022
 33
0.0
  0
SOLID
  5
B5D
330
B52
100
AcDbEntity
  8
M_0
 62
     5
100
AcDbTrace
 10
-7.5
 20
13.75000000000005
 30
0.0
 11
-7.5
 21
6.416666666666742
 31
0.0
 12
-8.950000000000045
 22
13.75
 32
0.0
 13
-8.950000000000045
 23
1.100000000000022
 33
0.0
  0
LINE
  5
B5E
330
B52
100
AcDbEntity
  8
M_0
 62
     5
100
AcDbLine
 10
-8.950000000000045
 20
1.100000000000022
 30
0.0
 11
-2.049999999999954
 21
13.75000000000005
 31
0.0
  0
LINE
  5
B5F
330
B52
100
AcDbEntity
  8
M_0
 62
     5
100
AcDbLine
 10
-8.950000000000045
 20
0.0000000000000568
 30
0.0
 11
-2.049999999999954
 21
12.65000000000009
 31
0.0
  0
SOLID
  5
B60
330
B52
100
AcDbEntity
  8
M_0
 62
     5
100
AcDbTrace
 10
-9.549999999999954
 20
12.65000000000003
 30
0.0
 11
-11.0
 21
7.333333333333371
 31
0.0
 12
-9.549999999999954
 22
0.0
 32
0.0
 13
-11.0
 23
0.0000000000000568
 33
0.0
  0
SOLID
  5
B61
330
B52
100
AcDbEntity
  8
M_0
 62
     5
100
AcDbTrace
 10
-9.549999999999954
 20
12.65000000000009
 30
0.0
 11
-11.0
 21
7.333333333333371
 31
0.0
 12
-16.45000000000004
 22
0.0000000000000568
 32
0.0
 13
-15.0
 23
0.0000000000000568
 33
0.0
  0
SOLID
  5
B62
330
B52
100
AcDbEntity
  8
M_0
 62
     5
100
AcDbTrace
 10
-9.549999999999954
 20
13.75
 30
0.0
 11
-11.0
 21
13.75
 31
0.0
 12
-17.04999999999995
 22
0.0
 32
0.0
 13
-18.5
 23
0.0000000000000568
 33
0.0
  0
LINE
  5
B63
330
B52
100
AcDbEntity
  8
M_0
 62
     5
100
AcDbLine
 10
-16.45000000000004
 20
0.0000000000000568
 30
0.0
 11
-9.549999999999954
 21
12.65000000000003
 31
0.0
  0
LINE
  5
B64
330
B52
100
AcDbEntity
  8
M_0
 62
     5
100
AcDbLine
 10
-17.04999999999995
 20
0.0
 30
0.0
 11
-9.549999999999954
 21
13.75
 31
0.0
  0
LINE
  5
B65
330
B52
100
AcDbEntity
  8
M_0
 62
     5
100
AcDbLine
 10
-18.5
 20
0.0000000000000568
 30
0.0
 11
-11.0
 21
13.75000000000005
 31
0.0
  0
LINE
  5
B66
330
B52
100
AcDbEntity
  8
M_0
 62
     5
100
AcDbLine
 10
-8.950000000000045
 20
13.75
 30
0.0
 11
-8.950000000000045
 21
1.100000000000022
 31
0.0
  0
LINE
  5
B67
330
B52
100
AcDbEntity
  8
M_0
 62
     5
100
AcDbLine
 10
-9.549999999999954
 20
12.65000000000003
 30
0.0
 11
-9.549999999999954
 21
0.0000000000000568
 31
0.0
  0
LINE
  5
B68
330
B52
100
AcDbEntity
  8
M_0
 62
     5
100
AcDbLine
 10
-17.00862774977668
 20
-1.741910220509623
 30
0.0
 11
-16.50862774977668
 21
-1.741910220509623
 31
0.0
  0
SOLID
  5
B69
330
B52
100
AcDbEntity
  8
M_0
 62
     5
100
AcDbTrace
 10
-16.50862774977668
 20
-1.741910220509623
 30
0.0
 11
-16.50862774977668
 21
-4.241910220509623
 31
0.0
 12
-17.00862774977668
 22
-1.741910220509623
 32
0.0
 13
-17.00862774977668
 23
-4.241910220509623
 33
0.0
  0
LINE
  5
B6A
330
B52
100
AcDbEntity
  8
M_0
 62
     5
100
AcDbLine
 10
-18.91666666666674
 20
-1.741910220509566
 30
0.0
 11
-18.41666666666674
 21
-1.741910220509566
 31
0.0
  0
LINE
  5
B6B
330
B52
100
AcDbEntity
  8
M_0
 62
     5
100
AcDbLine
 10
-18.5
 20
0.0000000000000568
 30
0.0
 11
-17.04999999999995
 21
0.0
 31
0.0
  0
SOLID
  5
B6C
330
B52
100
AcDbEntity
  8
M_0
 62
     5
100
AcDbTrace
 10
-17.00862774977668
 20
-1.741910220509623
 30
0.0
 11
-17.00862774977668
 21
-2.397033126512724
 31
0.0
 12
-18.91666666666674
 22
-4.241910220509623
 32
0.0
 13
-18.41666666666674
 23
-4.241910220509623
 33
0.0
  0
SOLID
  5
B6D
330
B52
100
AcDbEntity
  8
M_0
 62
     5
100
AcDbTrace
 10
-18.41666666666674
 20
-1.741910220509566
 30
0.0
 11
-18.41666666666674
 21
-3.586787314506523
 31
0.0
 12
-18.91666666666674
 22
-1.741910220509566
 32
0.0
 13
-18.91666666666674
 23
-4.241910220509623
 33
0.0
  0
SOLID
  5
B6E
330
B52
100
AcDbEntity
  8
M_0
 62
     5
100
AcDbTrace
 10
-18.91666666666674
 20
-1.741910220509566
 30
0.0
 11
-18.91666666666674
 21
-2.397033126512724
 31
0.0
 12
-20.82470558355658
 22
-4.241910220509623
 32
0.0
 13
-20.32470558355658
 23
-4.241910220509623
 33
0.0
  0
LINE
  5
B6F
330
B52
100
AcDbEntity
  8
M_0
 62
     5
100
AcDbLine
 10
-20.82470558355658
 20
-4.241910220509623
 30
0.0
 11
-18.91666666666674
 21
-1.741910220509623
 31
0.0
  0
LINE
  5
B70
330
B52
100
AcDbEntity
  8
M_0
 62
     5
100
AcDbLine
 10
-18.41666666666674
 20
-3.586787314506523
 30
0.0
 11
-17.00862774977668
 21
-1.741910220509623
 31
0.0
  0
LINE
  5
B71
330
B52
100
AcDbEntity
  8
M_0
 62
     5
100
AcDbLine
 10
-18.41666666666674
 20
-1.741910220509566
 30
0.0
 11
-18.41666666666674
 21
-3.586787314506523
 31
0.0
  0
LINE
  5
B72
330
B52
100
AcDbEntity
  8
M_0
 62
     5
100
AcDbLine
 10
-11.0
 20
7.333333333333371
 30
0.0
 11
-11.0
 21
0.0
 31
0.0
  0
LINE
  5
B73
330
B52
100
AcDbEntity
  8
M_0
 62
     5
100
AcDbLine
 10
-15.0
 20
0.0000000000000568
 30
0.0
 11
-11.0
 21
7.333333333333371
 31
0.0
  0
LWPOLYLINE
  5
B74
330
B52
100
AcDbEntity
  8
M_0
 62
     5
100
AcDbPolyline
 90
        2
 70
     0
 43
0.5
 10
-13.08339999999998
 20
-4.241910220509566
 10
-13.08339999999998
 20
-2.741910220509623
  0
LINE
  5
B75
330
B52
100
AcDbEntity
  8
M_0
 62
     5
100
AcDbLine
 10
-13.33339999999998
 20
-2.741910220509623
 30
0.0
 11
-12.83339999999998
 21
-2.741910220509623
 31
0.0
  0
ARC
  5
B76
330
B52
100
AcDbEntity
  8
M_0
 62
     5
100
AcDbCircle
 10
-13.83339999999998
 20
-2.741910220509623
 30
0.0
 40
1.0
100
AcDbArc
 50
0.0
 51
120.0000000000033
  0
LWPOLYLINE
  5
B77
330
B52
100
AcDbEntity
  8
M_0
 62
     5
100
AcDbPolyline
 90
        2
 70
     0
 43
0.5
 10
-14.58339999999998
 20
-2.741910220509623
 42
-1.0
 10
-13.08339999999998
 20
-2.741910220509623
 42
-0.0000000000000001
  0
LINE
  5
B78
330
B52
100
AcDbEntity
  8
M_0
 62
     5
100
AcDbLine
 10
-14.33339999999998
 20
-1.875884816725317
 30
0.0
 11
-14.33339999999998
 21
-1.741910220509566
 31
0.0
  0
SOLID
  5
B79
330
B52
100
AcDbEntity
  8
M_0
 62
     5
100
AcDbTrace
 10
-15.41675000000009
 20
-0.9919102205096237
 30
0.0
 11
-15.41675000000009
 21
-1.391910220509657
 31
0.0
 12
-15.91675000000009
 22
-0.9919102205096237
 32
0.0
 13
-15.91675000000009
 23
-1.391910220509657
 33
0.0
  0
LINE
  5
B7A
330
B52
100
AcDbEntity
  8
M_0
 62
     5
100
AcDbLine
 10
-15.91675000000009
 20
-1.391910220509657
 30
0.0
 11
-15.41675000000009
 21
-1.391910220509657
 31
0.0
  0
LINE
  5
B7B
330
B52
100
AcDbEntity
  8
M_0
 62
     5
100
AcDbLine
 10
-15.41675000000009
 20
-1.391910220509657
 30
0.0
 11
-15.41675000000009
 21
-0.9919102205096237
 31
0.0
  0
LINE
  5
B7C
330
B52
100
AcDbEntity
  8
M_0
 62
     5
100
AcDbLine
 10
-15.91675000000009
 20
-1.391910220509657
 30
0.0
 11
-15.91675000000009
 21
-0.9919102205096237
 31
0.0
  0
LINE
  5
B7D
330
B52
100
AcDbEntity
  8
M_0
 62
     5
100
AcDbLine
 10
-15.91675000000009
 20
-0.9919102205096237
 30
0.0
 11
-15.41675000000009
 21
-0.9919102205096237
 31
0.0
  0
LINE
  5
B7E
330
B52
100
AcDbEntity
  8
M_0
 62
     5
100
AcDbLine
 10
-15.91675000000009
 20
-1.741910220509623
 30
0.0
 11
-15.41675000000009
 21
-1.741910220509623
 31
0.0
  0
LINE
  5
B7F
330
B52
100
AcDbEntity
  8
M_0
 62
     5
100
AcDbLine
 10
-16.45000000000004
 20
0.0000000000000568
 30
0.0
 11
-15.0
 21
0.0000000000000568
 31
0.0
  0
SOLID
  5
B80
330
B52
100
AcDbEntity
  8
M_0
 62
     5
100
AcDbTrace
 10
-15.41675000000009
 20
-1.741910220509623
 30
0.0
 11
-15.41675000000009
 21
-4.241910220509623
 31
0.0
 12
-15.91675000000009
 22
-1.741910220509623
 32
0.0
 13
-15.91675000000009
 23
-4.241910220509623
 33
0.0
  0
LINE
  5
B81
330
B52
100
AcDbEntity
  8
M_0
 62
     5
100
AcDbLine
 10
-14.83339999999998
 20
-4.241910220509623
 30
0.0
 11
-14.83339999999998
 21
-1.741910220509566
 31
0.0
  0
LINE
  5
B82
330
B52
100
AcDbEntity
  8
M_0
 62
     5
100
AcDbLine
 10
-15.41675000000009
 20
-4.24191022050968
 30
0.0
 11
-15.41675000000009
 21
-1.741910220509623
 31
0.0
  0
LINE
  5
B83
330
B52
100
AcDbEntity
  8
M_0
 62
     5
100
AcDbLine
 10
-15.91675000000009
 20
-4.24191022050968
 30
0.0
 11
-15.91675000000009
 21
-1.741910220509623
 31
0.0
  0
LINE
  5
B84
330
B52
100
AcDbEntity
  8
M_0
 62
     5
100
AcDbLine
 10
-16.50862774977668
 20
-4.241910220509623
 30
0.0
 11
-16.50862774977668
 21
-1.741910220509623
 31
0.0
  0
LINE
  5
B85
330
B52
100
AcDbEntity
  8
M_0
 62
     5
100
AcDbLine
 10
-14.83339999999998
 20
-1.741910220509566
 30
0.0
 11
-14.33339999999998
 21
-1.741910220509566
 31
0.0
  0
LWPOLYLINE
  5
B86
330
B52
100
AcDbEntity
  8
M_0
 62
     5
100
AcDbPolyline
 90
        2
 70
     0
 43
0.5
 10
-14.58339999999998
 20
-4.241910220509566
 10
-14.58339999999998
 20
-1.741910220509566
  0
LINE
  5
B87
330
B52
100
AcDbEntity
  8
M_0
 62
     5
100
AcDbLine
 10
-10.25004999999987
 20
-0.9919102205096237
 30
0.0
 11
-9.750049999999873
 21
-0.9919102205096237
 31
0.0
  0
LINE
  5
B88
330
B52
100
AcDbEntity
  8
M_0
 62
     5
100
AcDbLine
 10
-10.25004999999987
 20
-1.991872722462062
 30
0.0
 11
-10.25004999999987
 21
-0.9919102205096237
 31
0.0
  0
LINE
  5
B89
330
B52
100
AcDbEntity
  8
M_0
 62
     5
100
AcDbLine
 10
-11.0
 20
0.0000000000000568
 30
0.0
 11
-9.549999999999954
 21
0.0000000000000568
 31
0.0
  0
LINE
  5
B8A
330
B52
100
AcDbEntity
  8
M_0
 62
     5
100
AcDbLine
 10
-10.25004999999987
 20
-4.241910220509623
 30
0.0
 11
-9.750049999999873
 21
-4.241910220509623
 31
0.0
  0
LINE
  5
B8B
330
B52
100
AcDbEntity
  8
M_0
 62
     5
100
AcDbLine
 10
-10.25004999999987
 20
-4.241910220509623
 30
0.0
 11
-10.25004999999987
 21
-3.991947718557184
 31
0.0
  0
CIRCLE
  5
B8C
330
B52
100
AcDbEntity
  8
M_0
 62
     5
100
AcDbCircle
 10
-11.0
 20
-2.991910220509623
 30
0.0
 40
0.75
  0
LWPOLYLINE
  5
B8D
330
B52
100
AcDbEntity
  8
M_0
 62
     5
100
AcDbPolyline
 90
        2
 70
     0
 43
0.5
 10
-10.00004999999987
 20
-4.241910220509623
 10
-10.00004999999987
 20
-0.9919102205096237
  0
LWPOLYLINE
  5
B8E
330
B52
100
AcDbEntity
  8
M_0
 62
     5
100
AcDbPolyline
 90
        2
 70
     1
 43
0.5
 10
-12.0
 20
-2.991910220509623
 42
1.0
 10
-10.0
 20
-2.991910220509623
 42
1.0
  0
ARC
  5
B8F
330
B52
100
AcDbEntity
  8
M_0
 62
     5
100
AcDbCircle
 10
-11.0
 20
-2.991910220509623
 30
0.0
 40
1.25
100
AcDbArc
 50
53.1329670894371
 51
306.8670329105629
  0
LINE
  5
B90
330
B52
100
AcDbEntity
  8
M_0
 62
     5
100
AcDbLine
 10
-9.750049999999873
 20
-4.241910220509623
 30
0.0
 11
-9.750049999999873
 21
-0.9919102205096237
 31
0.0
  0
LINE
  5
B91
330
B52
100
AcDbEntity
  8
M_0
 62
     5
100
AcDbLine
 10
-9.166699999999991
 20
-4.241910220509623
 30
0.0
 11
-9.166699999999991
 21
-1.741910220509623
 31
0.0
  0
LINE
  5
B92
330
B52
100
AcDbEntity
  8
M_0
 62
     5
100
AcDbLine
 10
-11.0
 20
13.75000000000005
 30
0.0
 11
-9.549999999999954
 21
13.75
 31
0.0
  0
SOLID
  5
B93
330
B52
100
AcDbEntity
  8
M_0
 62
     5
100
AcDbTrace
 10
0.0
 20
13.75
 30
0.0
 11
0.0
 21
0.0
 31
0.0
 12
-1.450000000000045
 22
13.75
 32
0.0
 13
-1.450000000000045
 23
0.0000000000000568
 33
0.0
  0
SOLID
  5
B94
330
B52
100
AcDbEntity
  8
M_0
 62
     5
100
AcDbTrace
 10
-2.049999999999954
 20
12.65000000000009
 30
0.0
 11
-3.5
 21
7.333333333333371
 31
0.0
 12
-2.049999999999954
 22
0.0
 32
0.0
 13
-3.5
 23
0.0000000000000568
 33
0.0
  0
LINE
  5
B95
330
B52
100
AcDbEntity
  8
M_0
 62
     5
100
AcDbLine
 10
0.0
 20
13.75000000000005
 30
0.0
 11
0.0
 21
0.0
 31
0.0
  0
LINE
  5
B96
330
B52
100
AcDbEntity
  8
M_0
 62
     5
100
AcDbLine
 10
-1.450000000000045
 20
13.75
 30
0.0
 11
-1.450000000000045
 21
0.0
 31
0.0
  0
LINE
  5
B97
330
B52
100
AcDbEntity
  8
M_0
 62
     5
100
AcDbLine
 10
-7.5
 20
6.416666666666742
 30
0.0
 11
-3.5
 21
13.75000000000005
 31
0.0
  0
LINE
  5
B98
330
B52
100
AcDbEntity
  8
M_0
 62
     5
100
AcDbLine
 10
-2.049999999999954
 20
12.65000000000009
 30
0.0
 11
-2.049999999999954
 21
0.0
 31
0.0
  0
LINE
  5
B99
330
B52
100
AcDbEntity
  8
M_0
 62
     5
100
AcDbLine
 10
-7.5
 20
13.75000000000005
 30
0.0
 11
-7.5
 21
6.416666666666742
 31
0.0
  0
ARC
  5
B9A
330
B52
100
AcDbEntity
  8
M_0
 62
     5
100
AcDbCircle
 10
-1.0
 20
-2.741910220509623
 30
0.0
 40
0.5
100
AcDbArc
 50
0.0
 51
180.0
  0
LWPOLYLINE
  5
B9B
330
B52
100
AcDbEntity
  8
M_0
 62
     5
100
AcDbPolyline
 90
        2
 70
     0
 43
0.5
 10
-1.75
 20
-2.741910220509623
 42
-1.0
 10
-0.25
 20
-2.741910220509623
 42
-0.0000000000000001
  0
ARC
  5
B9C
330
B52
100
AcDbEntity
  8
M_0
 62
     5
100
AcDbCircle
 10
-1.0
 20
-2.741910220509623
 30
0.0
 40
1.0
100
AcDbArc
 50
0.0
 51
120.0000000000033
  0
LINE
  5
B9D
330
B52
100
AcDbEntity
  8
M_0
 62
     5
100
AcDbLine
 10
-1.450000000000045
 20
0.0
 30
0.0
 11
0.0
 21
0.0
 31
0.0
  0
LINE
  5
B9E
330
B52
100
AcDbEntity
  8
M_0
 62
     5
100
AcDbLine
 10
-3.5
 20
7.333333333333371
 30
0.0
 11
-3.5
 21
0.0
 31
0.0
  0
LINE
  5
B9F
330
B52
100
AcDbEntity
  8
M_0
 62
     5
100
AcDbLine
 10
-7.5
 20
0.0000000000000568
 30
0.0
 11
-3.5
 21
7.333333333333371
 31
0.0
  0
LWPOLYLINE
  5
BA0
330
B52
100
AcDbEntity
  8
M_0
 62
     5
100
AcDbPolyline
 90
        2
 70
     1
 43
0.5
 10
-4.833300000000008
 20
-2.991910220509623
 42
1.0
 10
-2.833300000000008
 20
-2.991910220509623
 42
1.0
  0
ARC
  5
BA1
330
B52
100
AcDbEntity
  8
M_0
 62
     5
100
AcDbCircle
 10
-3.833300000000008
 20
-2.991910220509623
 30
0.0
 40
1.25
100
AcDbArc
 50
53.1329670894371
 51
306.8670329105629
  0
LINE
  5
BA2
330
B52
100
AcDbEntity
  8
M_0
 62
     5
100
AcDbLine
 10
-6.166699999999991
 20
-2.74191022050968
 30
0.0
 11
-5.666699999999991
 21
-2.74191022050968
 31
0.0
  0
LINE
  5
BA3
330
B52
100
AcDbEntity
  8
M_0
 62
     5
100
AcDbLine
 10
-6.166699999999991
 20
-4.24191022050968
 30
0.0
 11
-5.666699999999991
 21
-4.24191022050968
 31
0.0
  0
LWPOLYLINE
  5
BA4
330
B52
100
AcDbEntity
  8
M_0
 62
     5
100
AcDbPolyline
 90
        2
 70
     0
 43
0.5
 10
-5.916699999999991
 20
-4.24191022050968
 10
-5.916699999999991
 20
-2.74191022050968
  0
LINE
  5
BA5
330
B52
100
AcDbEntity
  8
M_0
 62
     5
100
AcDbLine
 10
-6.166699999999991
 20
-4.24191022050968
 30
0.0
 11
-6.166699999999991
 21
-2.74191022050968
 31
0.0
  0
LINE
  5
BA6
330
B52
100
AcDbEntity
  8
M_0
 62
     5
100
AcDbLine
 10
-5.666699999999991
 20
-4.24191022050968
 30
0.0
 11
-5.666699999999991
 21
-2.74191022050968
 31
0.0
  0
ARC
  5
BA7
330
B52
100
AcDbEntity
  8
M_0
 62
     5
100
AcDbCircle
 10
-8.166699999999991
 20
-2.74191022050968
 30
0.0
 40
1.0
100
AcDbArc
 50
41.40962210926974
 51
120.0000000000033
  0
LINE
  5
BA8
330
B52
100
AcDbEntity
  8
M_0
 62
     5
100
AcDbLine
 10
-7.666699999999991
 20
-2.74191022050968
 30
0.0
 11
-7.166699999999991
 21
-2.74191022050968
 31
0.0
  0
LINE
  5
BA9
330
B52
100
AcDbEntity
  8
M_0
 62
     5
100
AcDbLine
 10
-8.666699999999991
 20
-1.875884816725374
 30
0.0
 11
-8.666699999999991
 21
-1.741910220509623
 31
0.0
  0
ARC
  5
BAA
330
B52
100
AcDbEntity
  8
M_0
 62
     5
100
AcDbCircle
 10
-8.166699999999991
 20
-2.74191022050968
 30
0.0
 40
0.5
100
AcDbArc
 50
0.0
 51
180.0
  0
LINE
  5
BAB
330
B52
100
AcDbEntity
  8
M_0
 62
     5
100
AcDbLine
 10
-7.666699999999991
 20
-4.241910220509623
 30
0.0
 11
-7.166699999999991
 21
-4.241910220509623
 31
0.0
  0
LWPOLYLINE
  5
BAC
330
B52
100
AcDbEntity
  8
M_0
 62
     5
100
AcDbPolyline
 90
        2
 70
     0
 43
0.5
 10
-7.416699999999991
 20
-4.241910220509623
 10
-7.416699999999991
 20
-2.74191022050968
  0
LINE
  5
BAD
330
B52
100
AcDbEntity
  8
M_0
 62
     5
100
AcDbLine
 10
-7.666699999999991
 20
-4.241910220509623
 30
0.0
 11
-7.666699999999991
 21
-2.74191022050968
 31
0.0
  0
LINE
  5
BAE
330
B52
100
AcDbEntity
  8
M_0
 62
     5
100
AcDbLine
 10
-8.666699999999991
 20
-4.241910220509623
 30
0.0
 11
-8.666699999999991
 21
-2.74191022050968
 31
0.0
  0
LINE
  5
BAF
330
B52
100
AcDbEntity
  8
M_0
 62
     5
100
AcDbLine
 10
-7.166699999999991
 20
-4.241910220509623
 30
0.0
 11
-7.166699999999991
 21
-2.74191022050968
 31
0.0
  0
LWPOLYLINE
  5
BB0
330
B52
100
AcDbEntity
  8
M_0
 62
     5
100
AcDbPolyline
 90
        2
 70
     0
 43
0.5
 10
-5.916699999999991
 20
-2.74191022050968
 42
1.0
 10
-7.416699999999991
 20
-2.74191022050968
 42
1.0
  0
ARC
  5
BB1
330
B52
100
AcDbEntity
  8
M_0
 62
     5
100
AcDbCircle
 10
-6.666699999999991
 20
-2.74191022050968
 30
0.0
 40
0.5
100
AcDbArc
 50
0.0
 51
180.0
  0
ARC
  5
BB2
330
B52
100
AcDbEntity
  8
M_0
 62
     5
100
AcDbCircle
 10
-6.666699999999991
 20
-2.74191022050968
 30
0.0
 40
1.0
100
AcDbArc
 50
0.0
 51
138.5903778907278
  0
LINE
  5
BB3
330
B52
100
AcDbEntity
  8
M_0
 62
     5
100
AcDbLine
 10
-2.0
 20
-1.741910220509566
 30
0.0
 11
-1.5
 21
-1.741910220509566
 31
0.0
  0
LINE
  5
BB4
330
B52
100
AcDbEntity
  8
M_0
 62
     5
100
AcDbLine
 10
-1.5
 20
-1.875884816725317
 30
0.0
 11
-1.5
 21
-1.741910220509566
 31
0.0
  0
LINE
  5
BB5
330
B52
100
AcDbEntity
  8
M_0
 62
     5
100
AcDbLine
 10
-3.083350000000109
 20
-1.991872722462062
 30
0.0
 11
-3.083350000000109
 21
-1.741910220509566
 31
0.0
  0
LINE
  5
BB6
330
B52
100
AcDbEntity
  8
M_0
 62
     5
100
AcDbLine
 10
-3.083350000000109
 20
-1.741910220509566
 30
0.0
 11
-2.583350000000109
 21
-1.741910220509566
 31
0.0
  0
LINE
  5
BB7
330
B52
100
AcDbEntity
  8
M_0
 62
     5
100
AcDbLine
 10
-3.5
 20
0.0000000000000568
 30
0.0
 11
-2.049999999999954
 21
0.0
 31
0.0
  0
LINE
  5
BB8
330
B52
100
AcDbEntity
  8
M_0
 62
     5
100
AcDbLine
 10
-2.0
 20
-4.241910220509566
 30
0.0
 11
-1.5
 21
-4.241910220509566
 31
0.0
  0
LINE
  5
BB9
330
B52
100
AcDbEntity
  8
M_0
 62
     5
100
AcDbLine
 10
-3.083350000000109
 20
-4.241910220509623
 30
0.0
 11
-3.083350000000109
 21
-3.991947718557184
 31
0.0
  0
LINE
  5
BBA
330
B52
100
AcDbEntity
  8
M_0
 62
     5
100
AcDbLine
 10
-3.083350000000109
 20
-4.241910220509623
 30
0.0
 11
-2.583350000000109
 21
-4.241910220509623
 31
0.0
  0
CIRCLE
  5
BBB
330
B52
100
AcDbEntity
  8
M_0
 62
     5
100
AcDbCircle
 10
-3.833300000000008
 20
-2.991910220509623
 30
0.0
 40
0.75
  0
LINE
  5
BBC
330
B52
100
AcDbEntity
  8
M_0
 62
     5
100
AcDbLine
 10
-1.5
 20
-4.241910220509623
 30
0.0
 11
-1.5
 21
-2.741910220509623
 31
0.0
  0
LWPOLYLINE
  5
BBD
330
B52
100
AcDbEntity
  8
M_0
 62
     5
100
AcDbPolyline
 90
        2
 70
     0
 43
0.5
 10
-1.75
 20
-4.241910220509566
 10
-1.75
 20
-1.741910220509566
  0
LINE
  5
BBE
330
B52
100
AcDbEntity
  8
M_0
 62
     5
100
AcDbLine
 10
-2.583350000000109
 20
-4.241910220509623
 30
0.0
 11
-2.583350000000109
 21
-1.741910220509566
 31
0.0
  0
LINE
  5
BBF
330
B52
100
AcDbEntity
  8
M_0
 62
     5
100
AcDbLine
 10
-2.0
 20
-4.241910220509623
 30
0.0
 11
-2.0
 21
-1.741910220509566
 31
0.0
  0
LWPOLYLINE
  5
BC0
330
B52
100
AcDbEntity
  8
M_0
 62
     5
100
AcDbPolyline
 90
        2
 70
     0
 43
0.5
 10
-2.833350000000109
 20
-4.241910220509623
 10
-2.833350000000109
 20
-1.741910220509566
  0
LINE
  5
BC1
330
B52
100
AcDbEntity
  8
M_0
 62
     5
100
AcDbLine
 10
-0.5
 20
-4.241910220509623
 30
0.0
 11
0.0
 21
-4.241910220509623
 31
0.0
  0
LWPOLYLINE
  5
BC2
330
B52
100
AcDbEntity
  8
M_0
 62
     5
100
AcDbPolyline
 90
        2
 70
     0
 43
0.5
 10
-0.25
 20
-2.741910220509623
 10
-0.25
 20
-4.241910220509623
  0
LINE
  5
BC3
330
B52
100
AcDbEntity
  8
M_0
 62
     5
100
AcDbLine
 10
-0.5
 20
-4.241910220509623
 30
0.0
 11
-0.5
 21
-2.741910220509623
 31
0.0
  0
LINE
  5
BC4
330
B52
100
AcDbEntity
  8
M_0
 62
     5
100
AcDbLine
 10
0.0
 20
-4.241910220509623
 30
0.0
 11
0.0
 21
-2.741910220509623
 31
0.0
  0
LINE
  5
BC5
330
B52
100
AcDbEntity
  8
M_0
 62
     5
100
AcDbLine
 10
-1.450000000000045
 20
13.75
 30
0.0
 11
0.0
 21
13.75000000000005
 31
0.0
  0
LINE
  5
BC6
330
B52
100
AcDbEntity
  8
M_0
 62
     5
100
AcDbLine
 10
-3.5
 20
13.75000000000005
 30
0.0
 11
-2.049999999999954
 21
13.75000000000005
 31
0.0
  0
ENDBLK
  5
BC7
330
B52
100
AcDbEntity
  8
0
100
AcDbBlockEnd
  0
BLOCK
  5
BC9
330
BC8
100
AcDbEntity
  8
0
100
AcDbBlockBegin
  2
A$C1730210C
 70
     0
 10
0.0
 20
0.0
 30
0.0
  3
A$C1730210C
  1

  0
INSERT
  5
BCA
330
BC8
100
AcDbEntity
  8
M_0
100
AcDbBlockReference
  2
A$C3F2B26CD
 10
41.64936870834731
 20
8.483811380151109
 30
0.0
 41
1.999998000000005
 42
1.999998000000005
 43
1.999997999999999
  0
ENDBLK
  5
BCB
330
BC8
100
AcDbEntity
  8
0
100
AcDbBlockEnd
  0
BLOCK
  5
19A4
330
19A2
100
AcDbEntity
  8
0
100
AcDbBlockBegin
  2
A$C3A5C6B80
 70
     0
 10
0.0
 20
0.0
 30
0.0
  3
A$C3A5C6B80
  1

  0
CIRCLE
  5
19A5
330
19A2
100
AcDbEntity
  8
AM_VIS
  6
ACISOTGB
 62
     2
100
AcDbCircle
 10
0.0
 20
0.0
 30
0.0
 40
26.5
  0
CIRCLE
  5
19A6
330
19A2
100
AcDbEntity
  8
AM_VIS
  6
ACISOTGB
 62
     2
100
AcDbCircle
 10
0.0
 20
0.0
 30
0.0
 40
23.0
  0
LINE
  5
19A7
330
19A2
100
AcDbEntity
  8
AM_7
100
AcDbLine
 10
0.0
 20
0.0
 30
0.0
 11
28.5
 21
0.0
 31
0.0
1001
GENIUS_GENOREF_13
1005
19AB
  0
LINE
  5
19A8
330
19A2
100
AcDbEntity
  8
AM_7
100
AcDbLine
 10
0.0
 20
0.0
 30
0.0
 11
0.0
 21
28.5
 31
0.0
1001
GENIUS_GENOREF_13
1005
19AB
  0
LINE
  5
19A9
330
19A2
100
AcDbEntity
  8
AM_7
100
AcDbLine
 10
0.0
 20
0.0
 30
0.0
 11
-28.5
 21
0.0
 31
0.0
1001
GENIUS_GENOREF_13
1005
19AB
  0
LINE
  5
19AA
330
19A2
100
AcDbEntity
  8
AM_7
100
AcDbLine
 10
0.0
 20
0.0
 30
0.0
 11
0.0
 21
-28.5
 31
0.0
1001
GENIUS_GENOREF_13
1005
19AB
  0
POINT
  5
19AB
330
19A2
100
AcDbEntity
  8
0
 60
     1
100
AcDbPoint
 10
-1073.184522833908
 20
-535.9520998473597
 30
0.0
1001
GENIUS_GENOLIS_13
1002
{
1000
ENT
1005
19AA
1005
19A9
1005
19A8
1005
19A7
1002
}
1001
GENIUS_GENOENT_13
1002
{
1000
MYREF
1005
19AB
1002
}
1002
{
1000
GRP
1005
0
1002
}
1001
GENIUS_GENOBJ-N-CRS_13
1002
{
1000
OWNER
1000
GEN
1002
}
1001
GENIUS_GENODEF_13
1002
{
1000
HIER
1070
    10
1002
}
1002
{
1000
MANEDIT
1070
     0
1002
}
1002
{
1000
NOSEL
1070
     0
1002
}
1002
{
1000
BEHIND
1070
     0
1002
}
1002
{
1000
OTHER
1070
     0
1002
}
1002
{
1000
REACTOR
1002
}
  0
ENDBLK
  5
19AC
330
19A2
100
AcDbEntity
  8
0
100
AcDbBlockEnd
  0
BLOCK
  5
19B9
330
19B7
100
AcDbEntity
  8
0
100
AcDbBlockBegin
  2
A$C150766D3
 70
     0
 10
0.0
 20
0.0
 30
0.0
  3
A$C150766D3
  1

  0
LINE
  5
19BA
330
19B7
100
AcDbEntity
  8
AM_VIS
  6
ACISOTGB
 62
     2
100
AcDbLine
 10
-16.49999999999977
 20
7.0
 30
0.0
 11
-10.0
 21
7.0
 31
0.0
  0
LINE
  5
19BB
330
19B7
100
AcDbEntity
  8
AM_VIS
  6
ACISOTGB
 62
     2
100
AcDbLine
 10
-10.0
 20
0.000000001164949
 30
0.0
 11
-10.0
 21
7.0
 31
0.0
  0
LINE
  5
19BC
330
19B7
100
AcDbEntity
  8
AM_VIS
  6
ACISOTGB
 62
     2
100
AcDbLine
 10
-10.0
 20
-7.0
 30
0.0
 11
-10.0
 21
0.000000001164949
 31
0.0
  0
LINE
  5
19BD
330
19B7
100
AcDbEntity
  8
AM_VIS
  6
ACISOTGB
 62
     2
100
AcDbLine
 10
-16.49999999999977
 20
-7.0
 30
0.0
 11
-10.0
 21
-7.0
 31
0.0
  0
LINE
  5
19BE
330
19B7
100
AcDbEntity
  8
AM_VIS
  6
ACISOTGB
 62
     2
100
AcDbLine
 10
-10.0
 20
-6.5
 30
0.0
 11
0.0
 21
-6.5
 31
0.0
  0
LINE
  5
19BF
330
19B7
100
AcDbEntity
  8
AM_VIS
  6
ACISOTGB
 62
     2
100
AcDbLine
 10
-10.0
 20
6.5
 30
0.0
 11
0.0
 21
6.5
 31
0.0
  0
LINE
  5
19C0
330
19B7
100
AcDbEntity
  8
AM_VIS
  6
ACISOTGB
 62
     2
100
AcDbLine
 10
-35.5
 20
-26.0
 30
0.0
 11
-18.0
 21
-26.0
 31
0.0
  0
LINE
  5
19C1
330
19B7
100
AcDbEntity
  8
AM_VIS
  6
ACISOTGB
 62
     2
100
AcDbLine
 10
-35.5
 20
26.0
 30
0.0
 11
-18.0
 21
26.0
 31
0.0
  0
LINE
  5
19C2
330
19B7
100
AcDbEntity
  8
AM_VIS
  6
ACISOTGB
 62
     2
100
AcDbLine
 10
-43.0
 20
-26.5
 30
0.0
 11
-36.0
 21
-26.5
 31
0.0
  0
LINE
  5
19C3
330
19B7
100
AcDbEntity
  8
AM_VIS
  6
ACISOTGB
 62
     2
100
AcDbLine
 10
-43.0
 20
26.5
 30
0.0
 11
-36.0
 21
26.5
 31
0.0
  0
LINE
  5
19C4
330
19B7
100
AcDbEntity
  8
AM_VIS
  6
ACISOTGB
 62
     2
100
AcDbLine
 10
0.0
 20
6.5
 30
0.0
 11
0.0
 21
-6.5
 31
0.0
  0
LINE
  5
19C5
330
19B7
100
AcDbEntity
  8
AM_VIS
  6
ACISOTGB
 62
     2
100
AcDbLine
 10
-16.5
 20
24.5
 30
0.0
 11
-16.5
 21
-24.5
 31
0.0
  0
LINE
  5
19C6
330
19B7
100
AcDbEntity
  8
AM_VIS
  6
ACISOTGB
 62
     2
100
AcDbLine
 10
-35.5
 20
26.0
 30
0.0
 11
-35.5
 21
-26.0
 31
0.0
  0
LINE
  5
19C7
330
19B7
100
AcDbEntity
  8
AM_VIS
  6
ACISOTGB
 62
     2
100
AcDbLine
 10
-43.5
 20
-26.0
 30
0.0
 11
-43.5
 21
26.0
 31
0.0
  0
ARC
  5
19C8
330
19B7
100
AcDbEntity
  8
AM_VIS
  6
ACISOTGB
 62
     2
100
AcDbCircle
 10
-18.0
 20
-24.5
 30
0.0
 40
1.5
100
AcDbArc
 50
270.0
 51
0.0
  0
ARC
  5
19C9
330
19B7
100
AcDbEntity
  8
AM_VIS
  6
ACISOTGB
 62
     2
100
AcDbCircle
 10
-18.0
 20
24.5
 30
0.0
 40
1.5
100
AcDbArc
 50
0.0
 51
90.0
  0
ARC
  5
19CA
330
19B7
100
AcDbEntity
  8
AM_VIS
  6
ACISOTGB
 62
     2
100
AcDbCircle
 10
-36.0
 20
-26.0
 30
0.0
 40
0.5
100
AcDbArc
 50
270.0
 51
0.0
  0
ARC
  5
19CB
330
19B7
100
AcDbEntity
  8
AM_VIS
  6
ACISOTGB
 62
     2
100
AcDbCircle
 10
-36.0
 20
26.0
 30
0.0
 40
0.5
100
AcDbArc
 50
0.0
 51
90.0
  0
ARC
  5
19CC
330
19B7
100
AcDbEntity
  8
AM_VIS
  6
ACISOTGB
 62
     2
100
AcDbCircle
 10
-43.0
 20
-26.0
 30
0.0
 40
0.5
100
AcDbArc
 50
180.0
 51
270.0
  0
ARC
  5
19CD
330
19B7
100
AcDbEntity
  8
AM_VIS
  6
ACISOTGB
 62
     2
100
AcDbCircle
 10
-43.0
 20
26.0
 30
0.0
 40
0.5
100
AcDbArc
 50
90.0
 51
180.0
  0
LINE
  5
19CE
330
19B7
100
AcDbEntity
  8
AM_7
100
AcDbLine
 10
-45.49999999999999
 20
0.0
 30
0.0
 11
2.0
 21
0.0
 31
0.0
1001
GENIUS_GENODEF_13
1002
{
1000
HIER
1070
     0
1002
}
1002
{
1000
MANEDIT
1070
     0
1002
}
1002
{
1000
NOSEL
1070
     0
1002
}
1002
{
1000
BEHIND
1070
     0
1002
}
1002
{
1000
OTHER
1070
     0
1002
}
1002
{
1000
REACTOR
1002
}
1001
GENIUS_GENOBJ-N-CEN_13
1002
{
1000
OWNER
1000
GEN
1002
}
1001
GENIUS_GENCEN_19
1002
{
1040
2.0
1002
}
  0
ENDBLK
  5
19CF
330
19B7
100
AcDbEntity
  8
0
100
AcDbBlockEnd
  0
BLOCK
  5
2811
330
280A
100
AcDbEntity
  8
0
100
AcDbBlockBegin
  2
*D29
 70
     1
 10
0.0
 20
0.0
 30
0.0
  3
*D29
  1

  0
LINE
  5
291E
330
280A
100
AcDbEntity
  8
AM_5
100
AcDbLine
 10
257.051931655132
 20
301.1666992310739
 30
0.0
 11
259.6991833658878
 21
310.7782079731745
 31
0.0
  0
LINE
  5
291F
330
280A
100
AcDbEntity
  8
AM_5
100
AcDbLine
 10
259.6991833658878
 20
310.7782079731745
 30
0.0
 11
312.9769392713997
 21
310.7782079731745
 31
0.0
  0
SOLID
  5
2920
330
280A
100
AcDbEntity
  8
AM_5
100
AcDbTrace
 10
256.087831143769
 20
301.4322368065501
 30
0.0
 11
258.0160321664949
 21
300.9011616555977
 31
0.0
 12
255.4587062022746
 22
295.3820961628965
 32
0.0
 13
255.4587062022746
 23
295.3820961628965
 33
0.0
  0
MTEXT
  5
2921
330
280A
100
AcDbEntity
  8
AM_5
100
AcDbMText
 10
287.3380613186439
 20
316.2788969495523
 30
0.0
 40
7.0
 41
0.0
 71
     5
 72
     1
  1
2-%%C6.5*15.5L
 73
     1
 44
1.0
1001
ACAD
1000
MTEXTBEGIN
1070
    73
1070
     1
1070
    44
1040
1.0
1070
    74
1070
     0
1000
MTEXTEND
  0
POINT
  5
2922
330
280A
100
AcDbEntity
  8
Defpoints
 62
     0
100
AcDbPoint
 10
255.4587062022746
 20
295.3820961628965
 30
0.0
  0
POINT
  5
2923
330
280A
100
AcDbEntity
  8
Defpoints
 62
     0
100
AcDbPoint
 10
254.5957090819769
 20
292.2487695009672
 30
0.0
  0
ENDBLK
  5
2812
330
280A
100
AcDbEntity
  8
0
100
AcDbBlockEnd
  0
BLOCK
  5
281D
330
2813
100
AcDbEntity
  8
0
100
AcDbBlockBegin
  2
*D30
 70
     1
 10
0.0
 20
0.0
 30
0.0
  3
*D30
  1

  0
LINE
  5
2980
330
2813
100
AcDbEntity
  8
AM_5
100
AcDbLine
 10
194.0957090819759
 20
523.257245582468
 30
0.0
 11
194.0957090819759
 21
557.8485446171812
 31
0.0
  0
LINE
  5
2981
330
2813
100
AcDbEntity
  8
AM_5
100
AcDbLine
 10
261.0957090819759
 20
523.257245582468
 30
0.0
 11
261.0957090819759
 21
557.8485446171812
 31
0.0
  0
LINE
  5
2982
330
2813
100
AcDbEntity
  8
AM_5
100
AcDbLine
 10
200.0957090819759
 20
554.8485446171812
 30
0.0
 11
255.0957090819759
 21
554.8485446171812
 31
0.0
  0
SOLID
  5
2983
330
2813
100
AcDbEntity
  8
AM_5
100
AcDbTrace
 10
200.0957090819759
 20
555.8485446171812
 30
0.0
 11
200.0957090819759
 21
553.8485446171812
 31
0.0
 12
194.0957090819759
 22
554.8485446171812
 32
0.0
 13
194.0957090819759
 23
554.8485446171812
 33
0.0
  0
SOLID
  5
2984
330
2813
100
AcDbEntity
  8
AM_5
100
AcDbTrace
 10
255.0957090819759
 20
555.8485446171812
 30
0.0
 11
255.0957090819759
 21
553.8485446171812
 31
0.0
 12
261.0957090819759
 22
554.8485446171812
 32
0.0
 13
261.0957090819759
 23
554.8485446171812
 33
0.0
  0
MTEXT
  5
2985
330
2813
100
AcDbEntity
  8
AM_5
100
AcDbMText
 10
227.5957090819759
 20
560.3485446171812
 30
0.0
 40
7.0
 41
0.0
 71
     5
 72
     1
  1
67
 73
     1
 44
1.0
1001
ACAD
1000
MTEXTBEGIN
1070
    73
1070
     1
1070
    44
1040
1.0
1070
    74
1070
     0
1000
MTEXTEND
  0
POINT
  5
2986
330
2813
100
AcDbEntity
  8
Defpoints
 62
     0
100
AcDbPoint
 10
194.0957090819759
 20
520.257245582468
 30
0.0
  0
POINT
  5
2987
330
2813
100
AcDbEntity
  8
Defpoints
 62
     0
100
AcDbPoint
 10
261.0957090819759
 20
520.257245582468
 30
0.0
  0
POINT
  5
2988
330
2813
100
AcDbEntity
  8
Defpoints
 62
     0
100
AcDbPoint
 10
261.0957090819759
 20
554.8485446171812
 30
0.0
  0
ENDBLK
  5
281E
330
2813
100
AcDbEntity
  8
0
100
AcDbBlockEnd
  0
BLOCK
  5
2829
330
281F
100
AcDbEntity
  8
0
100
AcDbBlockBegin
  2
*D31
 70
     1
 10
0.0
 20
0.0
 30
0.0
  3
*D31
  1

  0
LINE
  5
2989
330
281F
100
AcDbEntity
  8
AM_5
100
AcDbLine
 10
209.5957090819759
 20
526.2572455824678
 30
0.0
 11
209.5957090819759
 21
542.8485446171812
 31
0.0
  0
LINE
  5
298A
330
281F
100
AcDbEntity
  8
AM_5
100
AcDbLine
 10
245.5957090819759
 20
526.2572455824678
 30
0.0
 11
245.5957090819759
 21
542.8485446171812
 31
0.0
  0
LINE
  5
298B
330
281F
100
AcDbEntity
  8
AM_5
100
AcDbLine
 10
215.5957090819759
 20
539.8485446171812
 30
0.0
 11
239.5957090819759
 21
539.8485446171812
 31
0.0
  0
SOLID
  5
298C
330
281F
100
AcDbEntity
  8
AM_5
100
AcDbTrace
 10
215.5957090819759
 20
540.8485446171812
 30
0.0
 11
215.5957090819759
 21
538.8485446171812
 31
0.0
 12
209.5957090819759
 22
539.8485446171812
 32
0.0
 13
209.5957090819759
 23
539.8485446171812
 33
0.0
  0
SOLID
  5
298D
330
281F
100
AcDbEntity
  8
AM_5
100
AcDbTrace
 10
239.5957090819759
 20
540.8485446171812
 30
0.0
 11
239.5957090819759
 21
538.8485446171812
 31
0.0
 12
245.5957090819759
 22
539.8485446171812
 32
0.0
 13
245.5957090819759
 23
539.8485446171812
 33
0.0
  0
MTEXT
  5
298E
330
281F
100
AcDbEntity
  8
AM_5
100
AcDbMText
 10
227.5957090819759
 20
545.3485446171812
 30
0.0
 40
7.0
 41
0.0
 71
     5
 72
     1
  1
36
 73
     1
 44
1.0
1001
ACAD
1000
MTEXTBEGIN
1070
    73
1070
     1
1070
    44
1040
1.0
1070
    74
1070
     0
1000
MTEXTEND
  0
POINT
  5
298F
330
281F
100
AcDbEntity
  8
Defpoints
 62
     0
100
AcDbPoint
 10
209.5957090819759
 20
523.2572455824678
 30
0.0
  0
POINT
  5
2990
330
281F
100
AcDbEntity
  8
Defpoints
 62
     0
100
AcDbPoint
 10
245.5957090819759
 20
523.2572455824678
 30
0.0
  0
POINT
  5
2991
330
281F
100
AcDbEntity
  8
Defpoints
 62
     0
100
AcDbPoint
 10
245.5957090819759
 20
539.8485446171812
 30
0.0
  0
ENDBLK
  5
282A
330
281F
100
AcDbEntity
  8
0
100
AcDbBlockEnd
  0
BLOCK
  5
2835
330
282B
100
AcDbEntity
  8
0
100
AcDbBlockBegin
  2
*D32
 70
     1
 10
0.0
 20
0.0
 30
0.0
  3
*D32
  1

  0
LINE
  5
2992
330
282B
100
AcDbEntity
  8
AM_5
100
AcDbLine
 10
264.0957090819759
 20
520.257245582468
 30
0.0
 11
298.0250192266246
 21
520.257245582468
 31
0.0
  0
LINE
  5
2993
330
282B
100
AcDbEntity
  8
AM_5
100
AcDbLine
 10
255.5059188346887
 20
434.257245582468
 30
0.0
 11
298.0250192266246
 21
434.257245582468
 31
0.0
  0
LINE
  5
2994
330
282B
100
AcDbEntity
  8
AM_5
100
AcDbLine
 10
295.0250192266246
 20
514.257245582468
 30
0.0
 11
295.0250192266246
 21
440.257245582468
 31
0.0
  0
SOLID
  5
2995
330
282B
100
AcDbEntity
  8
AM_5
100
AcDbTrace
 10
294.0250192266246
 20
514.257245582468
 30
0.0
 11
296.0250192266246
 21
514.257245582468
 31
0.0
 12
295.0250192266246
 22
520.257245582468
 32
0.0
 13
295.0250192266246
 23
520.257245582468
 33
0.0
  0
SOLID
  5
2996
330
282B
100
AcDbEntity
  8
AM_5
100
AcDbTrace
 10
294.0250192266246
 20
440.257245582468
 30
0.0
 11
296.0250192266246
 21
440.257245582468
 31
0.0
 12
295.0250192266246
 22
434.257245582468
 32
0.0
 13
295.0250192266246
 23
434.257245582468
 33
0.0
  0
MTEXT
  5
2997
330
282B
100
AcDbEntity
  8
AM_5
100
AcDbMText
 10
289.1750192266245
 20
477.2572455824681
 30
0.0
 40
7.0
 41
0.0
 71
     5
 72
     1
  1
(86)
 11
0.0000000000000001
 21
1.0
 31
0.0
 73
     1
 44
1.0
1001
ACAD
1000
MTEXTBEGIN
1070
    73
1070
     1
1070
    44
1040
1.0
1070
    74
1070
     0
1000
MTEXTEND
  0
POINT
  5
2998
330
282B
100
AcDbEntity
  8
Defpoints
 62
     0
100
AcDbPoint
 10
261.0957090819759
 20
520.257245582468
 30
0.0
  0
POINT
  5
2999
330
282B
100
AcDbEntity
  8
Defpoints
 62
     0
100
AcDbPoint
 10
252.5059188346887
 20
434.257245582468
 30
0.0
  0
POINT
  5
299A
330
282B
100
AcDbEntity
  8
Defpoints
 62
     0
100
AcDbPoint
 10
295.0250192266246
 20
434.257245582468
 30
0.0
  0
ENDBLK
  5
2836
330
282B
100
AcDbEntity
  8
0
100
AcDbBlockEnd
  0
BLOCK
  5
2841
330
2837
100
AcDbEntity
  8
0
100
AcDbBlockBegin
  2
*D33
 70
     1
 10
0.0
 20
0.0
 30
0.0
  3
*D33
  1

  0
LINE
  5
299B
330
2837
100
AcDbEntity
  8
AM_5
100
AcDbLine
 10
255.5059188346887
 20
504.257245582468
 30
0.0
 11
283.0250192266246
 21
504.257245582468
 31
0.0
  0
LINE
  5
299C
330
2837
100
AcDbEntity
  8
AM_5
100
AcDbLine
 10
255.5059188346887
 20
434.257245582468
 30
0.0
 11
283.0250192266246
 21
434.257245582468
 31
0.0
  0
LINE
  5
299D
330
2837
100
AcDbEntity
  8
AM_5
100
AcDbLine
 10
280.0250192266247
 20
498.257245582468
 30
0.0
 11
280.0250192266247
 21
440.257245582468
 31
0.0
  0
SOLID
  5
299E
330
2837
100
AcDbEntity
  8
AM_5
100
AcDbTrace
 10
279.0250192266246
 20
498.257245582468
 30
0.0
 11
281.0250192266246
 21
498.257245582468
 31
0.0
 12
280.0250192266247
 22
504.257245582468
 32
0.0
 13
280.0250192266247
 23
504.257245582468
 33
0.0
  0
SOLID
  5
299F
330
2837
100
AcDbEntity
  8
AM_5
100
AcDbTrace
 10
279.0250192266246
 20
440.257245582468
 30
0.0
 11
281.0250192266246
 21
440.257245582468
 31
0.0
 12
280.0250192266247
 22
434.257245582468
 32
0.0
 13
280.0250192266247
 23
434.257245582468
 33
0.0
  0
MTEXT
  5
29A0
330
2837
100
AcDbEntity
  8
AM_5
100
AcDbMText
 10
274.5250192266246
 20
469.2572455824681
 30
0.0
 40
7.0
 41
0.0
 71
     5
 72
     1
  1
70
 11
0.0000000000000001
 21
1.0
 31
0.0
 73
     1
 44
1.0
1001
ACAD
1000
MTEXTBEGIN
1070
    73
1070
     1
1070
    44
1040
1.0
1070
    74
1070
     0
1000
MTEXTEND
  0
POINT
  5
29A1
330
2837
100
AcDbEntity
  8
Defpoints
 62
     0
100
AcDbPoint
 10
252.5059188346887
 20
504.257245582468
 30
0.0
  0
POINT
  5
29A2
330
2837
100
AcDbEntity
  8
Defpoints
 62
     0
100
AcDbPoint
 10
252.5059188346887
 20
434.257245582468
 30
0.0
  0
POINT
  5
29A3
330
2837
100
AcDbEntity
  8
Defpoints
 62
     0
100
AcDbPoint
 10
280.0250192266247
 20
434.257245582468
 30
0.0
  0
ENDBLK
  5
2842
330
2837
100
AcDbEntity
  8
0
100
AcDbBlockEnd
  0
BLOCK
  5
284D
330
2843
100
AcDbEntity
  8
0
100
AcDbBlockBegin
  2
*D34
 70
     1
 10
0.0
 20
0.0
 30
0.0
  3
*D34
  1

  0
LINE
  5
29A4
330
2843
100
AcDbEntity
  8
AM_5
100
AcDbLine
 10
192.5957090819759
 20
490.257245582468
 30
0.0
 11
192.5957090819759
 21
572.8485446171812
 31
0.0
  0
LINE
  5
29A5
330
2843
100
AcDbEntity
  8
AM_5
100
AcDbLine
 10
262.5957090819759
 20
490.257245582468
 30
0.0
 11
262.5957090819759
 21
572.8485446171812
 31
0.0
  0
LINE
  5
29A6
330
2843
100
AcDbEntity
  8
AM_5
100
AcDbLine
 10
198.5957090819758
 20
569.8485446171812
 30
0.0
 11
256.5957090819759
 21
569.8485446171812
 31
0.0
  0
SOLID
  5
29A7
330
2843
100
AcDbEntity
  8
AM_5
100
AcDbTrace
 10
198.5957090819758
 20
570.8485446171812
 30
0.0
 11
198.5957090819758
 21
568.8485446171812
 31
0.0
 12
192.5957090819759
 22
569.8485446171812
 32
0.0
 13
192.5957090819759
 23
569.8485446171812
 33
0.0
  0
SOLID
  5
29A8
330
2843
100
AcDbEntity
  8
AM_5
100
AcDbTrace
 10
256.5957090819759
 20
570.8485446171812
 30
0.0
 11
256.5957090819759
 21
568.8485446171812
 31
0.0
 12
262.5957090819759
 22
569.8485446171812
 32
0.0
 13
262.5957090819759
 23
569.8485446171812
 33
0.0
  0
MTEXT
  5
29A9
330
2843
100
AcDbEntity
  8
AM_5
100
AcDbMText
 10
227.5957090819759
 20
575.3485446171812
 30
0.0
 40
7.0
 41
0.0
 71
     5
 72
     1
  1
70
 73
     1
 44
1.0
1001
ACAD
1000
MTEXTBEGIN
1070
    73
1070
     1
1070
    44
1040
1.0
1070
    74
1070
     0
1000
MTEXTEND
  0
POINT
  5
29AA
330
2843
100
AcDbEntity
  8
Defpoints
 62
     0
100
AcDbPoint
 10
192.5957090819759
 20
487.257245582468
 30
0.0
  0
POINT
  5
29AB
330
2843
100
AcDbEntity
  8
Defpoints
 62
     0
100
AcDbPoint
 10
262.5957090819759
 20
487.257245582468
 30
0.0
  0
POINT
  5
29AC
330
2843
100
AcDbEntity
  8
Defpoints
 62
     0
100
AcDbPoint
 10
262.5957090819759
 20
569.8485446171812
 30
0.0
  0
ENDBLK
  5
284E
330
2843
100
AcDbEntity
  8
0
100
AcDbBlockEnd
  0
BLOCK
  5
2859
330
284F
100
AcDbEntity
  8
0
100
AcDbBlockBegin
  2
*D35
 70
     1
 10
0.0
 20
0.0
 30
0.0
  3
*D35
  1

  0
LINE
  5
28E2
330
284F
100
AcDbEntity
  8
AM_5
100
AcDbLine
 10
327.0379855426124
 20
268.3487695009667
 30
0.0
 11
327.0379855426124
 21
371.4206395414664
 31
0.0
  0
LINE
  5
28E3
330
284F
100
AcDbEntity
  8
AM_5
100
AcDbLine
 10
396.0379855426124
 20
351.3487695009667
 30
0.0
 11
396.0379855426124
 21
371.4206395414664
 31
0.0
  0
LINE
  5
28E4
330
284F
100
AcDbEntity
  8
AM_5
100
AcDbLine
 10
333.0379855426124
 20
368.4206395414664
 30
0.0
 11
390.0379855426124
 21
368.4206395414664
 31
0.0
  0
SOLID
  5
28E5
330
284F
100
AcDbEntity
  8
AM_5
100
AcDbTrace
 10
333.0379855426124
 20
369.4206395414664
 30
0.0
 11
333.0379855426124
 21
367.4206395414663
 31
0.0
 12
327.0379855426124
 22
368.4206395414664
 32
0.0
 13
327.0379855426124
 23
368.4206395414664
 33
0.0
  0
SOLID
  5
28E6
330
284F
100
AcDbEntity
  8
AM_5
100
AcDbTrace
 10
390.0379855426124
 20
369.4206395414664
 30
0.0
 11
390.0379855426124
 21
367.4206395414663
 31
0.0
 12
396.0379855426124
 22
368.4206395414664
 32
0.0
 13
396.0379855426124
 23
368.4206395414664
 33
0.0
  0
MTEXT
  5
28E7
330
284F
100
AcDbEntity
  8
AM_5
100
AcDbMText
 10
361.5379855426124
 20
374.2723312980353
 30
0.0
 40
7.0
 41
0.0
 71
     5
 72
     1
  1
(69)
 73
     1
 44
1.0
1001
ACAD
1000
MTEXTBEGIN
1070
    73
1070
     1
1070
    44
1040
1.0
1070
    74
1070
     0
1000
MTEXTEND
  0
POINT
  5
28E8
330
284F
100
AcDbEntity
  8
Defpoints
 62
     0
100
AcDbPoint
 10
327.0379855426124
 20
265.3487695009667
 30
0.0
  0
POINT
  5
28E9
330
284F
100
AcDbEntity
  8
Defpoints
 62
     0
100
AcDbPoint
 10
396.0379855426124
 20
348.3487695009667
 30
0.0
  0
POINT
  5
28EA
330
284F
100
AcDbEntity
  8
Defpoints
 62
     0
100
AcDbPoint
 10
396.0379855426124
 20
368.4206395414664
 30
0.0
  0
ENDBLK
  5
285A
330
284F
100
AcDbEntity
  8
0
100
AcDbBlockEnd
  0
BLOCK
  5
2865
330
285B
100
AcDbEntity
  8
0
100
AcDbBlockBegin
  2
*D36
 70
     1
 10
0.0
 20
0.0
 30
0.0
  3
*D36
  1

  0
LINE
  5
28EB
330
285B
100
AcDbEntity
  8
AM_5
100
AcDbLine
 10
396.0379855426124
 20
351.3487695009667
 30
0.0
 11
396.0379855426124
 21
371.4206395414664
 31
0.0
  0
LINE
  5
28EC
330
285B
100
AcDbEntity
  8
AM_5
100
AcDbLine
 10
447.0379855426124
 20
302.9987695009666
 30
0.0
 11
447.0379855426124
 21
371.4206395414664
 31
0.0
  0
LINE
  5
28ED
330
285B
100
AcDbEntity
  8
AM_5
100
AcDbLine
 10
402.0379855426124
 20
368.4206395414664
 30
0.0
 11
441.0379855426124
 21
368.4206395414664
 31
0.0
  0
SOLID
  5
28EE
330
285B
100
AcDbEntity
  8
AM_5
100
AcDbTrace
 10
402.0379855426124
 20
369.4206395414664
 30
0.0
 11
402.0379855426124
 21
367.4206395414663
 31
0.0
 12
396.0379855426124
 22
368.4206395414664
 32
0.0
 13
396.0379855426124
 23
368.4206395414664
 33
0.0
  0
SOLID
  5
28EF
330
285B
100
AcDbEntity
  8
AM_5
100
AcDbTrace
 10
441.0379855426124
 20
369.4206395414664
 30
0.0
 11
441.0379855426124
 21
367.4206395414663
 31
0.0
 12
447.0379855426124
 22
368.4206395414664
 32
0.0
 13
447.0379855426124
 23
368.4206395414664
 33
0.0
  0
MTEXT
  5
28F0
330
285B
100
AcDbEntity
  8
AM_5
100
AcDbMText
 10
421.5379855426124
 20
373.9206395414663
 30
0.0
 40
7.0
 41
0.0
 71
     5
 72
     1
  1
51
 73
     1
 44
1.0
1001
ACAD
1000
MTEXTBEGIN
1070
    73
1070
     1
1070
    44
1040
1.0
1070
    74
1070
     0
1000
MTEXTEND
  0
POINT
  5
28F1
330
285B
100
AcDbEntity
  8
Defpoints
 62
     0
100
AcDbPoint
 10
396.0379855426124
 20
348.3487695009667
 30
0.0
  0
POINT
  5
28F2
330
285B
100
AcDbEntity
  8
Defpoints
 62
     0
100
AcDbPoint
 10
447.0379855426124
 20
299.9987695009667
 30
0.0
  0
POINT
  5
28F3
330
285B
100
AcDbEntity
  8
Defpoints
 62
     0
100
AcDbPoint
 10
447.0379855426124
 20
368.4206395414664
 30
0.0
  0
ENDBLK
  5
2866
330
285B
100
AcDbEntity
  8
0
100
AcDbBlockEnd
  0
BLOCK
  5
286E
330
2867
100
AcDbEntity
  8
0
100
AcDbBlockBegin
  2
*D37
 70
     1
 10
0.0
 20
0.0
 30
0.0
  3
*D37
  1

  0
LINE
  5
2924
330
2867
100
AcDbEntity
  8
AM_5
100
AcDbLine
 10
387.7726905712498
 20
255.8997482948739
 30
0.0
 11
367.6773950220646
 21
296.1399105206908
 31
0.0
  0
LINE
  5
2925
330
2867
100
AcDbEntity
  8
AM_5
100
AcDbLine
 10
367.6773950220646
 20
296.1399105206908
 30
0.0
 11
331.1996391165528
 21
296.1399105206908
 31
0.0
  0
SOLID
  5
2926
330
2867
100
AcDbEntity
  8
AM_5
100
AcDbTrace
 10
388.6673380736231
 20
256.3465209960286
 30
0.0
 11
386.8780430688764
 21
255.4529755937192
 31
0.0
 12
390.4533267781782
 22
250.5318632806337
 32
0.0
 13
390.4533267781782
 23
250.5318632806337
 33
0.0
  0
MTEXT
  5
2927
330
2867
100
AcDbEntity
  8
AM_5
100
AcDbMText
 10
348.4385170693085
 20
301.6405994970688
 30
0.0
 40
7.0
 41
0.0
 71
     5
 72
     1
  1
2-PT3/4
 73
     1
 44
1.0
1001
ACAD
1000
MTEXTBEGIN
1070
    73
1070
     1
1070
    44
1040
1.0
1070
    74
1070
     0
1000
MTEXTEND
  0
POINT
  5
2928
330
2867
100
AcDbEntity
  8
Defpoints
 62
     0
100
AcDbPoint
 10
390.4533267781782
 20
250.5318632806337
 30
0.0
  0
POINT
  5
2929
330
2867
100
AcDbEntity
  8
Defpoints
 62
     0
100
AcDbPoint
 10
401.6226443070467
 20
228.1656757212993
 30
0.0
  0
ENDBLK
  5
286F
330
2867
100
AcDbEntity
  8
0
100
AcDbBlockEnd
  0
BLOCK
  5
287A
330
2870
100
AcDbEntity
  8
0
100
AcDbBlockBegin
  2
*D38
 70
     1
 10
0.0
 20
0.0
 30
0.0
  3
*D38
  1

  0
LINE
  5
28FA
330
2870
100
AcDbEntity
  8
AM_5
100
AcDbLine
 10
422.0379855426124
 20
346.8487695009667
 30
0.0
 11
478.6775915744276
 21
346.8487695009667
 31
0.0
  0
LINE
  5
28FB
330
2870
100
AcDbEntity
  8
AM_5
100
AcDbLine
 10
453.0379855426124
 20
292.2487695009668
 30
0.0
 11
478.6775915744276
 21
292.2487695009668
 31
0.0
  0
LINE
  5
28FC
330
2870
100
AcDbEntity
  8
AM_5
100
AcDbLine
 10
475.6775915744277
 20
340.8487695009667
 30
0.0
 11
475.6775915744277
 21
298.2487695009668
 31
0.0
  0
SOLID
  5
28FD
330
2870
100
AcDbEntity
  8
AM_5
100
AcDbTrace
 10
474.6775915744276
 20
340.8487695009667
 30
0.0
 11
476.6775915744276
 21
340.8487695009667
 31
0.0
 12
475.6775915744277
 22
346.8487695009667
 32
0.0
 13
475.6775915744277
 23
346.8487695009667
 33
0.0
  0
SOLID
  5
28FE
330
2870
100
AcDbEntity
  8
AM_5
100
AcDbTrace
 10
474.6775915744276
 20
298.2487695009668
 30
0.0
 11
476.6775915744276
 21
298.2487695009668
 31
0.0
 12
475.6775915744277
 22
292.2487695009668
 32
0.0
 13
475.6775915744277
 23
292.2487695009668
 33
0.0
  0
MTEXT
  5
28FF
330
2870
100
AcDbEntity
  8
AM_5
100
AcDbMText
 10
469.8275915744275
 20
319.5487695009668
 30
0.0
 40
7.0
 41
0.0
 71
     5
 72
     1
  1
(54.6)
 11
0.0000000000000001
 21
1.0
 31
0.0
 73
     1
 44
1.0
1001
ACAD
1000
MTEXTBEGIN
1070
    73
1070
     1
1070
    44
1040
1.0
1070
    74
1070
     0
1000
MTEXTEND
  0
POINT
  5
2900
330
2870
100
AcDbEntity
  8
Defpoints
 62
     0
100
AcDbPoint
 10
419.0379855426124
 20
346.8487695009667
 30
0.0
  0
POINT
  5
2901
330
2870
100
AcDbEntity
  8
Defpoints
 62
     0
100
AcDbPoint
 10
450.0379855426124
 20
292.2487695009668
 30
0.0
  0
POINT
  5
2902
330
2870
100
AcDbEntity
  8
Defpoints
 62
     0
100
AcDbPoint
 10
475.6775915744277
 20
292.2487695009668
 30
0.0
  0
ENDBLK
  5
287B
330
2870
100
AcDbEntity
  8
0
100
AcDbBlockEnd
  0
BLOCK
  5
2886
330
287C
100
AcDbEntity
  8
0
100
AcDbBlockBegin
  2
*D39
 70
     1
 10
0.0
 20
0.0
 30
0.0
  3
*D39
  1

  0
LINE
  5
2903
330
287C
100
AcDbEntity
  8
AM_5
100
AcDbLine
 10
212.4713534289938
 20
202.3487695009667
 30
0.0
 11
146.3990271483667
 21
202.3487695009667
 31
0.0
  0
LINE
  5
2904
330
287C
100
AcDbEntity
  8
AM_5
100
AcDbLine
 10
201.5957090819759
 20
346.8487695009667
 30
0.0
 11
146.3990271483667
 21
346.8487695009667
 31
0.0
  0
LINE
  5
2905
330
287C
100
AcDbEntity
  8
AM_5
100
AcDbLine
 10
149.3990271483667
 20
208.3487695009667
 30
0.0
 11
149.3990271483667
 21
340.8487695009667
 31
0.0
  0
SOLID
  5
2906
330
287C
100
AcDbEntity
  8
AM_5
100
AcDbTrace
 10
148.3990271483667
 20
208.3487695009667
 30
0.0
 11
150.3990271483667
 21
208.3487695009667
 31
0.0
 12
149.3990271483667
 22
202.3487695009667
 32
0.0
 13
149.3990271483667
 23
202.3487695009667
 33
0.0
  0
SOLID
  5
2907
330
287C
100
AcDbEntity
  8
AM_5
100
AcDbTrace
 10
148.3990271483667
 20
340.8487695009667
 30
0.0
 11
150.3990271483667
 21
340.8487695009667
 31
0.0
 12
149.3990271483667
 22
346.8487695009667
 32
0.0
 13
149.3990271483667
 23
346.8487695009667
 33
0.0
  0
MTEXT
  5
2908
330
287C
100
AcDbEntity
  8
AM_5
100
AcDbMText
 10
143.8990271483667
 20
275.4835185271353
 30
0.0
 40
7.0
 41
0.0
 71
     5
 72
     1
  1
144.5
 11
0.0000000000000001
 21
1.0
 31
0.0
 73
     1
 44
1.0
1001
ACAD
1000
MTEXTBEGIN
1070
    73
1070
     1
1070
    44
1040
1.0
1070
    74
1070
     0
1000
MTEXTEND
  0
POINT
  5
2909
330
287C
100
AcDbEntity
  8
Defpoints
 62
     0
100
AcDbPoint
 10
215.4713534289938
 20
202.3487695009667
 30
0.0
  0
POINT
  5
290A
330
287C
100
AcDbEntity
  8
Defpoints
 62
     0
100
AcDbPoint
 10
204.5957090819759
 20
346.8487695009667
 30
0.0
  0
POINT
  5
290B
330
287C
100
AcDbEntity
  8
Defpoints
 62
     0
100
AcDbPoint
 10
149.3990271483667
 20
346.8487695009667
 30
0.0
  0
ENDBLK
  5
2887
330
287C
100
AcDbEntity
  8
0
100
AcDbBlockEnd
  0
BLOCK
  5
2892
330
2888
100
AcDbEntity
  8
0
100
AcDbBlockBegin
  2
*D40
 70
     1
 10
0.0
 20
0.0
 30
0.0
  3
*D40
  1

  0
LINE
  5
290C
330
2888
100
AcDbEntity
  8
AM_5
100
AcDbLine
 10
453.0379855426124
 20
292.2487695009668
 30
0.0
 11
478.6775915744276
 21
292.2487695009668
 31
0.0
  0
LINE
  5
290D
330
2888
100
AcDbEntity
  8
AM_5
100
AcDbLine
 10
414.5379855426124
 20
239.3487695009667
 30
0.0
 11
478.6775915744276
 21
239.3487695009666
 31
0.0
  0
LINE
  5
290E
330
2888
100
AcDbEntity
  8
AM_5
100
AcDbLine
 10
475.6775915744277
 20
286.2487695009668
 30
0.0
 11
475.6775915744277
 21
245.3487695009666
 31
0.0
  0
SOLID
  5
290F
330
2888
100
AcDbEntity
  8
AM_5
100
AcDbTrace
 10
474.6775915744276
 20
286.2487695009668
 30
0.0
 11
476.6775915744276
 21
286.2487695009668
 31
0.0
 12
475.6775915744277
 22
292.2487695009668
 32
0.0
 13
475.6775915744277
 23
292.2487695009668
 33
0.0
  0
SOLID
  5
2910
330
2888
100
AcDbEntity
  8
AM_5
100
AcDbTrace
 10
474.6775915744276
 20
245.3487695009666
 30
0.0
 11
476.6775915744276
 21
245.3487695009666
 31
0.0
 12
475.6775915744277
 22
239.3487695009666
 32
0.0
 13
475.6775915744277
 23
239.3487695009666
 33
0.0
  0
MTEXT
  5
2911
330
2888
100
AcDbEntity
  8
AM_5
100
AcDbMText
 10
470.1769025980496
 20
265.7987695009668
 30
0.0
 40
7.0
 41
0.0
 71
     5
 72
     1
  1
52.9
 11
0.0000000000000001
 21
1.0
 31
0.0
 73
     1
 44
1.0
1001
ACAD
1000
MTEXTBEGIN
1070
    73
1070
     1
1070
    44
1040
1.0
1070
    74
1070
     0
1000
MTEXTEND
  0
POINT
  5
2912
330
2888
100
AcDbEntity
  8
Defpoints
 62
     0
100
AcDbPoint
 10
450.0379855426124
 20
292.2487695009668
 30
0.0
  0
POINT
  5
2913
330
2888
100
AcDbEntity
  8
Defpoints
 62
     0
100
AcDbPoint
 10
411.5379855426124
 20
239.3487695009667
 30
0.0
  0
POINT
  5
2914
330
2888
100
AcDbEntity
  8
Defpoints
 62
     0
100
AcDbPoint
 10
475.6775915744277
 20
239.3487695009666
 30
0.0
  0
ENDBLK
  5
2893
330
2888
100
AcDbEntity
  8
0
100
AcDbBlockEnd
  0
BLOCK
  5
289E
330
2894
100
AcDbEntity
  8
0
100
AcDbBlockBegin
  2
*D41
 70
     1
 10
0.0
 20
0.0
 30
0.0
  3
*D41
  1

  0
LINE
  5
2915
330
2894
100
AcDbEntity
  8
AM_5
100
AcDbLine
 10
409.5379855426124
 20
202.3487695009667
 30
0.0
 11
478.6775915744279
 21
202.3487695009666
 31
0.0
  0
LINE
  5
2916
330
2894
100
AcDbEntity
  8
AM_5
100
AcDbLine
 10
414.5379855426124
 20
239.3487695009667
 30
0.0
 11
478.6775915744279
 21
239.3487695009667
 31
0.0
  0
LINE
  5
2917
330
2894
100
AcDbEntity
  8
AM_5
100
AcDbLine
 10
475.6775915744278
 20
208.3487695009667
 30
0.0
 11
475.6775915744278
 21
233.3487695009667
 31
0.0
  0
SOLID
  5
2918
330
2894
100
AcDbEntity
  8
AM_5
100
AcDbTrace
 10
474.6775915744279
 20
208.3487695009667
 30
0.0
 11
476.6775915744278
 21
208.3487695009667
 31
0.0
 12
475.6775915744278
 22
202.3487695009666
 32
0.0
 13
475.6775915744278
 23
202.3487695009666
 33
0.0
  0
SOLID
  5
2919
330
2894
100
AcDbEntity
  8
AM_5
100
AcDbTrace
 10
474.6775915744279
 20
233.3487695009667
 30
0.0
 11
476.6775915744278
 21
233.3487695009667
 31
0.0
 12
475.6775915744278
 22
239.3487695009667
 32
0.0
 13
475.6775915744278
 23
239.3487695009667
 33
0.0
  0
MTEXT
  5
291A
330
2894
100
AcDbEntity
  8
AM_5
100
AcDbMText
 10
470.1775915744278
 20
220.8487695009667
 30
0.0
 40
7.0
 41
0.0
 71
     5
 72
     1
  1
37
 11
0.0000000000000001
 21
1.0
 31
0.0
 73
     1
 44
1.0
1001
ACAD
1000
MTEXTBEGIN
1070
    73
1070
     1
1070
    44
1040
1.0
1070
    74
1070
     0
1000
MTEXTEND
  0
POINT
  5
291B
330
2894
100
AcDbEntity
  8
Defpoints
 62
     0
100
AcDbPoint
 10
406.5379855426124
 20
202.3487695009667
 30
0.0
  0
POINT
  5
291C
330
2894
100
AcDbEntity
  8
Defpoints
 62
     0
100
AcDbPoint
 10
411.5379855426124
 20
239.3487695009667
 30
0.0
  0
POINT
  5
291D
330
2894
100
AcDbEntity
  8
Defpoints
 62
     0
100
AcDbPoint
 10
475.6775915744278
 20
239.3487695009667
 30
0.0
  0
ENDBLK
  5
289F
330
2894
100
AcDbEntity
  8
0
100
AcDbBlockEnd
  0
ENDSEC
  0
SECTION
  2
ENTITIES
  0
LWPOLYLINE
  5
1FFC
330
1F
100
AcDbEntity
  8
LOGO
 62
     4
100
AcDbPolyline
 90
        4
 70
     1
 43
0.0
 10
137.0818860109763
 20
155.6799658577995
 10
487.0818860109762
 20
155.6799658577995
 10
487.0818860109762
 20
604.4329749279438
 10
137.0818860109763
 20
604.4329749279438
1001
GENIUS_GENREC_14
1002
{
1000
PYDIR
1011
137.0818860109763
1021
604.4329749279438
1031
0.0
1002
}
1002
{
1000
PXDIR
1011
487.0818860109762
1021
155.6799658577995
1031
0.0
1002
}
1002
{
1000
PORI
1011
137.0818860109763
1021
155.6799658577995
1031
0.0
1002
}
1002
{
1000
PINS
1011
137.0818860109763
1021
155.6799658577995
1031
0.0
1002
}
1002
{
1000
PINS2
1011
487.0818860109762
1021
604.4329749279438
1031
0.0
1002
}
1002
{
1000
C
1070
     1
1002
}
1001
GENIUS_GENODEF_13
1002
{
1000
HIER
1070
     0
1002
}
1002
{
1000
MANEDIT
1070
     0
1002
}
1002
{
1000
NOSEL
1070
     0
1002
}
1002
{
1000
BEHIND
1070
     0
1002
}
1002
{
1000
OTHER
1070
     0
1002
}
1002
{
1000
REACTOR
1002
}
1001
GENIUS_GENOBJ-N-REC_13
1002
{
1000
OWNER
1000
GEN
1002
}
  0
LWPOLYLINE
  5
1FFD
330
1F
100
AcDbEntity
  8
LOGO
 62
     4
100
AcDbPolyline
 90
        4
 70
     1
 43
0.0
 10
137.0818860109763
 20
155.6799658577995
 10
487.0818860109762
 20
155.6799658577995
 10
487.0818860109762
 20
115.3041042487862
 10
137.0818860109763
 20
115.3041042487862
1001
GENIUS_GENREC_14
1002
{
1000
PYDIR
1011
137.0818860109763
1021
115.3041042487862
1031
0.0
1002
}
1002
{
1000
PXDIR
1011
487.0818860109762
1021
155.6799658577995
1031
0.0
1002
}
1002
{
1000
PORI
1011
137.0818860109763
1021
155.6799658577995
1031
0.0
1002
}
1002
{
1000
PINS
1011
137.0818860109763
1021
155.6799658577995
1031
0.0
1002
}
1002
{
1000
PINS2
1011
487.0818860109762
1021
115.3041042487862
1031
0.0
1002
}
1002
{
1000
C
1070
     1
1002
}
1001
GENIUS_GENOBJ-N-REC_13
1002
{
1000
OWNER
1000
GEN
1002
}
1001
GENIUS_GENODEF_13
1002
{
1000
HIER
1070
     0
1002
}
1002
{
1000
MANEDIT
1070
     0
1002
}
1002
{
1000
NOSEL
1070
     0
1002
}
1002
{
1000
BEHIND
1070
     0
1002
}
1002
{
1000
OTHER
1070
     0
1002
}
1002
{
1000
REACTOR
1002
}
  0
TEXT
  5
1FFE
330
1F
100
AcDbEntity
  8
LOGO
 62
     7
100
AcDbText
 10
228.2479080596264
 20
137.991987940885
 30
0.0
 40
5.383448214535012
  1
Order example:
 41
0.8
  7
CHINESET
100
AcDbText
  0
TEXT
  5
1FFF
330
1F
100
AcDbEntity
  8
LOGO
 62
     7
100
AcDbText
 10
229.2137431886196
 20
145.5707683697746
 30
0.0
 40
8.075172321802517
  1
訂購代號：
  7
CHINESET
100
AcDbText
  0
LINE
  5
2000
330
1F
100
AcDbEntity
  8
LOGO
 62
     4
100
AcDbLine
 10
225.9087815508042
 20
115.3041042487867
 30
0.0
 11
225.9087815508042
 21
155.6799658577996
 31
0.0
  0
TEXT
  5
2001
330
1F
100
AcDbEntity
  8
LOGO
  6
Continuous
100
AcDbText
 10
151.5850769939433
 20
123.2358813293894
 30
0.0
 40
6.056379241351891
  1
金器工業股份有限公司
  7
CHINESET
100
AcDbText
  0
TEXT
  5
2002
330
1F
100
AcDbEntity
  8
LOGO
  6
Continuous
100
AcDbText
 10
140.4607065231237
 20
117.1783155125446
 30
0.0
 40
4.037586160901258
  1
MINDMAN INDUSTRIAL CO., LTD.
 41
0.85
  7
CHINESET
100
AcDbText
  0
LINE
  5
2003
330
1F
100
AcDbEntity
  8
LOGO
 62
     4
100
AcDbLine
 10
225.9087815508042
 20
147.6047935359968
 30
0.0
 11
166.6908511909186
 21
147.6047935359968
 31
0.0
  0
LINE
  5
2004
330
1F
100
AcDbEntity
  8
LOGO
 62
     4
100
AcDbLine
 10
225.9087815508042
 20
139.5296212141943
 30
0.0
 11
166.6908511909186
 21
139.5296212141943
 31
0.0
  0
LINE
  5
2005
330
1F
100
AcDbEntity
  8
LOGO
 62
     4
100
AcDbLine
 10
225.9087815508042
 20
131.4544488923923
 30
0.0
 11
137.0818860109764
 21
131.4544488923923
 31
0.0
  0
LINE
  5
2006
330
1F
100
AcDbEntity
  8
LOGO
 62
     4
100
AcDbLine
 10
166.6908511909186
 20
131.4544488923923
 30
0.0
 11
166.6908511909186
 21
155.6799658577996
 31
0.0
  0
TEXT
  5
2007
330
1F
100
AcDbEntity
  8
LOGO
100
AcDbText
 10
207.1635115481616
 20
133.4732419728422
 30
0.0
 40
4.037586160901258
  1
mm
  7
CHINESET
 72
     1
 11
212.1624277473727
 21
135.4920350532929
 31
0.0
100
AcDbText
 73
     2
  0
TEXT
  5
2008
330
1F
100
AcDbEntity
  8
LOGO
100
AcDbText
 10
205.04858546388
 20
149.6235866164475
 30
0.0
 40
4.037586160901258
  1
1 : 1
  7
CHINESET
 72
     1
 11
212.1624277473727
 21
151.6423796968981
 31
0.0
100
AcDbText
 73
     2
  0
LINE
  5
2009
330
1F
100
AcDbEntity
  8
LOGO
 62
     4
100
AcDbLine
 10
198.9915404781288
 20
131.4544488923923
 30
0.0
 11
198.9915404781288
 21
155.6799658577996
 31
0.0
  0
CIRCLE
  5
200A
330
1F
100
AcDbEntity
  8
LOGO
  6
Continuous
100
AcDbCircle
 10
206.4676362683314
 20
143.5758438014404
 30
0.0
 40
2.344317559084647
  0
CIRCLE
  5
200B
330
1F
100
AcDbEntity
  8
LOGO
  6
Continuous
100
AcDbCircle
 10
206.4676362683314
 20
143.5758438014404
 30
0.0
 40
1.373562558931904
  0
LINE
  5
200C
330
1F
100
AcDbEntity
  8
LOGO
100
AcDbLine
 10
221.1995998327254
 20
141.2315262423551
 30
0.0
 11
221.1995998327254
 21
145.9201613605255
 31
0.0
  0
LINE
  5
200D
330
1F
100
AcDbEntity
  8
LOGO
100
AcDbLine
 10
213.8502988552441
 20
142.2022812425086
 30
0.0
 11
213.8502988552441
 21
144.9494063603723
 31
0.0
  0
LINE
  5
200E
330
1F
100
AcDbEntity
  8
LOGO
  6
Continuous
100
AcDbLine
 10
213.8502988552441
 20
144.9494063603723
 30
0.0
 11
221.1995998327254
 21
145.9201613605255
 31
0.0
  0
LINE
  5
200F
330
1F
100
AcDbEntity
  8
LOGO
  6
Continuous
100
AcDbLine
 10
213.8502988552441
 20
142.2022812425086
 30
0.0
 11
221.1995998327254
 21
141.2315262423551
 31
0.0
  0
TEXT
  5
2010
330
1F
100
AcDbEntity
  8
LOGO
100
AcDbText
 10
170.0200572798405
 20
149.6255736175109
 30
264.6167454508374
 40
4.037586160901258
  1
比例 Scale:
 41
0.9
  7
CHINESET
 72
     4
 11
182.8411958345238
 21
151.6423796968981
 31
264.6167454508374
100
AcDbText
  0
TEXT
  5
2011
330
1F
100
AcDbEntity
  8
LOGO
100
AcDbText
 10
169.7875355768243
 20
141.6052094083747
 30
264.6167454508374
 40
4.037586160901258
  1
投影  View:
 41
0.9
  7
CHINESET
 72
     4
 11
182.8411958345238
 21
143.5672073750954
 31
264.6167454508374
100
AcDbText
  0
TEXT
  5
2012
330
1F
100
AcDbEntity
  8
LOGO
100
AcDbText
 10
170.1822817238053
 20
133.4732419728422
 30
264.6167454508374
 40
4.037586160901258
  1
單位  Unit:
 41
0.9
  7
CHINESET
 72
     4
 11
182.8411958345238
 21
135.4920350532929
 31
264.6167454508374
100
AcDbText
  0
SOLID
  5
2013
330
1F
100
AcDbEntity
  8
LOGO
 62
     5
100
AcDbTrace
 10
141.2709464512405
 20
138.1663611797558
 30
0.0
 11
143.0166927609535
 21
138.1663611797553
 31
0.0
 12
150.3006687428583
 22
154.7208520477226
 32
0.0
 13
152.0464150525721
 23
154.7208520477219
 33
0.0
  0
SOLID
  5
2014
330
1F
100
AcDbEntity
  8
LOGO
 62
     5
100
AcDbTrace
 10
143.7390705442846
 20
138.1663611797558
 30
0.0
 11
145.4848168539971
 21
138.1663611797558
 31
0.0
 12
152.0464150525721
 22
153.3964927782847
 32
0.0
 13
150.3006687428583
 23
146.9954229760043
 33
0.0
  0
SOLID
  5
2015
330
1F
100
AcDbEntity
  8
LOGO
 62
     2
100
AcDbTrace
 10
143.0166927609535
 20
138.1663611797553
 30
0.0
 11
143.7390705442846
 21
138.1663611797558
 31
0.0
 12
152.0464150525721
 22
154.7208520477219
 32
0.0
 13
152.7687928359027
 23
154.7208520477219
 33
0.0
  0
SOLID
  5
2016
330
1F
100
AcDbEntity
  8
LOGO
 62
     5
100
AcDbTrace
 10
138.4720870073355
 20
132.1465463186773
 30
0.0
 11
139.0740684934435
 21
132.1465463186773
 31
0.0
 12
140.7692952128177
 22
135.1564537492165
 32
0.0
 13
141.3712766989245
 23
135.1564537492165
 33
0.0
  0
SOLID
  5
2017
330
1F
100
AcDbEntity
  8
LOGO
 62
     5
100
AcDbTrace
 10
140.7692952128177
 20
135.1564537492165
 30
0.0
 11
141.3712766989245
 21
135.1564537492165
 31
0.0
 12
140.7692952128177
 22
132.1465463186773
 32
0.0
 13
141.3712766989245
 23
132.1465463186773
 33
0.0
  0
SOLID
  5
2018
330
1F
100
AcDbEntity
  8
LOGO
 62
     5
100
AcDbTrace
 10
140.7692952128177
 20
132.1465463186773
 30
0.0
 11
141.3712766989245
 21
132.1465463186773
 31
0.0
 12
143.0665034183012
 22
135.1564537492165
 32
0.0
 13
143.668484904409
 23
135.1564537492165
 33
0.0
  0
SOLID
  5
2019
330
1F
100
AcDbEntity
  8
LOGO
 62
     5
100
AcDbTrace
 10
143.0665034183012
 20
135.1564537492165
 30
0.0
 11
143.668484904409
 21
135.1564537492165
 31
0.0
 12
143.0665034183012
 22
132.1465463186773
 32
0.0
 13
143.668484904409
 23
132.1465463186773
 33
0.0
  0
POLYLINE
  5
201A
330
1F
100
AcDbEntity
  8
LOGO
 62
     5
100
AcDb2dPolyline
 66
     1
 10
0.0
 20
0.0
 30
0.0
 40
0.6029462000279215
 41
0.6029462000279215
  0
VERTEX
  5
201B
330
201A
100
AcDbEntity
  8
LOGO
 62
     5
100
AcDbVertex
100
AcDb2dVertex
 10
163.2447177650595
 20
133.9524907770007
 30
0.0
 42
1.0
  0
VERTEX
  5
201C
330
201A
100
AcDbEntity
  8
LOGO
 62
     5
100
AcDbVertex
100
AcDb2dVertex
 10
161.4358791649751
 20
133.9524907770007
 30
0.0
 42
1.0
  0
SEQEND
  5
201D
330
201A
100
AcDbEntity
  8
LOGO
 62
     5
  0
POLYLINE
  5
201E
330
1F
100
AcDbEntity
  8
LOGO
 62
     5
100
AcDb2dPolyline
 66
     1
 10
0.0
 20
0.0
 30
0.0
 70
     1
  0
VERTEX
  5
201F
330
201E
100
AcDbEntity
  8
LOGO
 62
     5
100
AcDbVertex
100
AcDb2dVertex
 10
158.0261379466755
 20
133.6515000339463
 30
0.0
 42
1.000000057330635
  0
VERTEX
  5
2020
330
201E
100
AcDbEntity
  8
LOGO
 62
     5
100
AcDbVertex
100
AcDb2dVertex
 10
159.8320824049993
 20
133.6515000339463
 30
0.0
 42
1.000000057330635
  0
SEQEND
  5
2021
330
201E
100
AcDbEntity
  8
LOGO
 62
     5
  0
CIRCLE
  5
2022
330
1F
100
AcDbEntity
  8
LOGO
 62
     5
100
AcDbCircle
 10
158.9291101758385
 20
133.6515000339463
 30
0.0
 40
0.9029722291618151
  0
POLYLINE
  5
2023
330
1F
100
AcDbEntity
  8
LOGO
 62
     5
100
AcDb2dPolyline
 66
     1
 10
0.0
 20
0.0
 30
0.0
 70
     1
 40
0.6029462000279215
 41
0.6029462000279215
  0
VERTEX
  5
2024
330
2023
100
AcDbEntity
  8
LOGO
 62
     5
100
AcDbVertex
100
AcDb2dVertex
 10
157.7232177757822
 20
133.6515000339463
 30
0.0
 42
1.0
  0
VERTEX
  5
2025
330
2023
100
AcDbEntity
  8
LOGO
 62
     5
100
AcDbVertex
100
AcDb2dVertex
 10
160.1350025758937
 20
133.6515000339463
 30
0.0
 42
1.0
  0
SEQEND
  5
2026
330
2023
100
AcDbEntity
  8
LOGO
 62
     5
  0
LINE
  5
2027
330
1F
100
AcDbEntity
  8
LOGO
100
AcDbLine
 10
163.5442614372319
 20
132.1465463186773
 30
0.0
 11
163.5442614372319
 21
133.9524907770007
 31
0.0
  0
SOLID
  5
2028
330
1F
100
AcDbEntity
  8
LOGO
 62
     5
100
AcDbTrace
 10
159.8320222068533
 20
135.1564537492165
 30
0.0
 11
160.4340036929601
 21
135.1564537492165
 31
0.0
 12
159.8320222068533
 22
132.1465463186773
 32
0.0
 13
160.4340036929601
 23
132.1465463186773
 33
0.0
  0
SOLID
  5
2029
330
1F
100
AcDbEntity
  8
LOGO
 62
     5
100
AcDbTrace
 10
161.1363354928004
 20
132.1465463186773
 30
0.0
 11
161.738316978909
 21
132.1465463186773
 31
0.0
 12
161.1363354928004
 22
135.1564537492165
 32
0.0
 13
161.738316978909
 23
135.1564537492165
 33
0.0
  0
SOLID
  5
202A
330
1F
100
AcDbEntity
  8
LOGO
 62
     5
100
AcDbTrace
 10
162.942279951125
 20
133.9524907770007
 30
0.0
 11
163.5442614372319
 21
133.9524907770007
 31
0.0
 12
162.942279951125
 22
132.1465463186773
 32
0.0
 13
163.5442614372319
 23
132.1465463186773
 33
0.0
  0
SOLID
  5
202B
330
1F
100
AcDbEntity
  8
LOGO
 62
     5
100
AcDbTrace
 10
161.07613734419
 20
153.3964927782847
 30
0.0
 11
159.3303910344781
 21
146.9954229760043
 31
0.0
 12
161.07613734419
 22
138.1663611797553
 32
0.0
 13
159.3303910344781
 23
138.1663611797553
 33
0.0
  0
SOLID
  5
202C
330
1F
100
AcDbEntity
  8
LOGO
 62
     5
100
AcDbTrace
 10
161.79851512752
 20
138.1663611797553
 30
0.0
 11
163.5442614372319
 21
138.1663611797553
 31
0.0
 12
161.79851512752
 22
154.7208520477219
 32
0.0
 13
163.5442614372319
 23
154.7208520477226
 33
0.0
  0
SOLID
  5
202D
330
1F
100
AcDbEntity
  8
LOGO
 62
     2
100
AcDbTrace
 10
161.07613734419
 20
154.7208520477226
 30
0.0
 11
161.79851512752
 21
154.7208520477219
 31
0.0
 12
161.07613734419
 22
138.1663611797553
 32
0.0
 13
161.79851512752
 23
138.1663611797553
 33
0.0
  0
POLYLINE
  5
202E
330
1F
100
AcDbEntity
  8
LOGO
 62
     5
100
AcDb2dPolyline
 66
     1
 10
0.0
 20
0.0
 30
0.0
 40
0.6029462000279215
 41
0.6029462000279215
  0
VERTEX
  5
202F
330
202E
100
AcDbEntity
  8
LOGO
 62
     5
100
AcDbVertex
100
AcDb2dVertex
 10
154.6162763320806
 20
133.9524907770007
 30
0.0
 42
1.0
  0
VERTEX
  5
2030
330
202E
100
AcDbEntity
  8
LOGO
 62
     5
100
AcDbVertex
100
AcDb2dVertex
 10
152.8074377319967
 20
133.9524907770007
 30
0.0
 42
1.0
  0
SEQEND
  5
2031
330
202E
100
AcDbEntity
  8
LOGO
 62
     5
  0
POLYLINE
  5
2032
330
1F
100
AcDbEntity
  8
LOGO
 62
     5
100
AcDb2dPolyline
 66
     1
 10
0.0
 20
0.0
 30
0.0
 40
0.6029462000279215
 41
0.6029462000279215
  0
VERTEX
  5
2033
330
2032
100
AcDbEntity
  8
LOGO
 62
     5
100
AcDbVertex
100
AcDb2dVertex
 10
156.4222207904025
 20
133.9524907770007
 30
0.0
 42
1.0
  0
VERTEX
  5
2034
330
2032
100
AcDbEntity
  8
LOGO
 62
     5
100
AcDbVertex
100
AcDb2dVertex
 10
154.6133821903191
 20
133.9524907770007
 30
0.0
 42
1.0
  0
SEQEND
  5
2035
330
2032
100
AcDbEntity
  8
LOGO
 62
     5
  0
POLYLINE
  5
2036
330
1F
100
AcDbEntity
  8
LOGO
 62
     5
100
AcDb2dPolyline
 66
     1
 10
0.0
 20
0.0
 30
0.0
 40
0.6029462000279215
 41
0.6029462000279215
  0
VERTEX
  5
2037
330
2036
100
AcDbEntity
  8
LOGO
 62
     5
100
AcDbVertex
100
AcDb2dVertex
 10
147.7937793574243
 20
133.9524907770007
 30
0.0
 42
1.0
  0
VERTEX
  5
2038
330
2036
100
AcDbEntity
  8
LOGO
 62
     5
100
AcDbVertex
100
AcDb2dVertex
 10
145.9849407573411
 20
133.9524907770007
 30
0.0
 42
1.0
  0
SEQEND
  5
2039
330
2036
100
AcDbEntity
  8
LOGO
 62
     5
  0
SOLID
  5
203A
330
1F
100
AcDbEntity
  8
LOGO
 62
     5
100
AcDbTrace
 10
145.6853970851674
 20
135.1564537492165
 30
0.0
 11
146.2873785712742
 21
135.1564537492165
 31
0.0
 12
145.6853970851674
 22
132.1465463186773
 32
0.0
 13
146.2873785712742
 23
132.1465463186773
 33
0.0
  0
SOLID
  5
203B
330
1F
100
AcDbEntity
  8
LOGO
 62
     5
100
AcDbTrace
 10
147.4913415434909
 20
133.9524907770007
 30
0.0
 11
148.0933230295996
 21
133.9524907770007
 31
0.0
 12
147.4913415434909
 22
132.1465463186773
 32
0.0
 13
148.0933230295996
 23
132.1465463186773
 33
0.0
  0
POLYLINE
  5
203C
330
1F
100
AcDbEntity
  8
LOGO
 62
     5
100
AcDb2dPolyline
 66
     1
 10
0.0
 20
0.0
 30
0.0
 70
     1
 40
0.6029462000279215
 41
0.6029462000279215
  0
VERTEX
  5
203D
330
203C
100
AcDbEntity
  8
LOGO
 62
     5
100
AcDbVertex
100
AcDb2dVertex
 10
149.0947763428026
 20
133.6515000339463
 30
0.0
 42
1.0
  0
VERTEX
  5
203E
330
203C
100
AcDbEntity
  8
LOGO
 62
     5
100
AcDbVertex
100
AcDb2dVertex
 10
151.506561142915
 20
133.6515000339463
 30
0.0
 42
1.0
  0
SEQEND
  5
203F
330
203C
100
AcDbEntity
  8
LOGO
 62
     5
  0
SOLID
  5
2040
330
1F
100
AcDbEntity
  8
LOGO
 62
     5
100
AcDbTrace
 10
151.203580773873
 20
136.0594259783785
 30
0.0
 11
151.8055622599806
 21
136.0594259783785
 31
0.0
 12
151.203580773873
 22
132.1465463186773
 32
0.0
 13
151.8055622599806
 23
132.1465463186773
 33
0.0
  0
SOLID
  5
2041
330
1F
100
AcDbEntity
  8
LOGO
 62
     5
100
AcDbTrace
 10
152.5078940598241
 20
135.1564537492165
 30
0.0
 11
153.1098755459307
 21
135.1564537492165
 31
0.0
 12
152.5078940598241
 22
132.1465463186773
 32
0.0
 13
153.1098755459307
 23
132.1465463186773
 33
0.0
  0
SOLID
  5
2042
330
1F
100
AcDbEntity
  8
LOGO
 62
     5
100
AcDbTrace
 10
154.313838518146
 20
133.9524907770007
 30
0.0
 11
154.9158200042545
 21
133.9524907770007
 31
0.0
 12
154.313838518146
 22
132.1465463186773
 32
0.0
 13
154.9158200042545
 23
132.1465463186773
 33
0.0
  0
SOLID
  5
2043
330
1F
100
AcDbEntity
  8
LOGO
 62
     5
100
AcDbTrace
 10
156.1197829764701
 20
133.9524907770007
 30
0.0
 11
156.7217644625771
 21
133.9524907770007
 31
0.0
 12
156.1197829764701
 22
132.1465463186765
 32
0.0
 13
156.7217644625771
 23
132.1465463186765
 33
0.0
  0
SOLID
  5
2044
330
1F
100
AcDbEntity
  8
LOGO
 62
     5
100
AcDbTrace
 10
144.3810837992172
 20
135.577840789492
 30
0.0
 11
144.9830652853264
 21
135.577840789492
 31
0.0
 12
144.3810837992172
 22
136.0594259783785
 32
0.0
 13
144.9830652853264
 23
136.0594259783785
 33
0.0
  0
SOLID
  5
2045
330
1F
100
AcDbEntity
  8
LOGO
 62
     5
100
AcDbTrace
 10
144.3810837992172
 20
135.1564537492165
 30
0.0
 11
144.9830652853264
 21
135.1564537492165
 31
0.0
 12
144.3810837992172
 22
132.1465463186765
 32
0.0
 13
144.9830652853264
 23
132.1465463186773
 33
0.0
  0
SOLID
  5
2046
330
1F
100
AcDbEntity
  8
LOGO
 62
     5
100
AcDbTrace
 10
150.3006687428583
 20
138.1663611797558
 30
0.0
 11
152.0464150525721
 21
138.1663611797558
 31
0.0
 12
150.3006687428583
 22
146.9954229760043
 32
0.0
 13
152.0464150525721
 23
153.3964927782847
 33
0.0
  0
SOLID
  5
2047
330
1F
100
AcDbEntity
  8
LOGO
 62
     5
100
AcDbTrace
 10
152.7687928359027
 20
154.7208520477219
 30
0.0
 11
154.5145391456145
 21
154.7208520477226
 31
0.0
 12
152.7687928359027
 22
139.4907204491929
 32
0.0
 13
154.5145391456145
 23
145.8917902514735
 33
0.0
  0
SOLID
  5
2048
330
1F
100
AcDbEntity
  8
LOGO
 62
     2
100
AcDbTrace
 10
152.0464150525721
 20
154.7208520477219
 30
0.0
 11
152.7687928359027
 21
154.7208520477219
 31
0.0
 12
152.0464150525721
 22
138.1663611797558
 32
0.0
 13
152.7687928359027
 23
138.1663611797558
 33
0.0
  0
SOLID
  5
2049
330
1F
100
AcDbEntity
  8
LOGO
 62
     5
100
AcDbTrace
 10
152.7687928359027
 20
139.4907204491929
 30
0.0
 11
154.5145391456145
 21
145.8917902514735
 31
0.0
 12
161.07613734419
 22
154.7208520477226
 32
0.0
 13
159.3303910344781
 23
154.7208520477226
 33
0.0
  0
SOLID
  5
204A
330
1F
100
AcDbEntity
  8
LOGO
 62
     5
100
AcDbTrace
 10
152.7687928359027
 20
138.1663611797558
 30
0.0
 11
154.5145391456145
 21
138.1663611797558
 31
0.0
 12
161.07613734419
 22
153.3964927782847
 32
0.0
 13
159.3303910344781
 23
146.9954229760043
 33
0.0
  0
SOLID
  5
204B
330
1F
100
AcDbEntity
  8
LOGO
 62
     2
100
AcDbTrace
 10
152.0464150525721
 20
138.1663611797558
 30
0.0
 11
152.7687928359027
 21
138.1663611797558
 31
0.0
 12
161.07613734419
 22
154.7208520477226
 32
0.0
 13
161.79851512752
 23
154.7208520477219
 33
0.0
  0
LINE
  5
204C
330
1F
100
AcDbEntity
  8
LOGO
 62
     4
100
AcDbLine
 10
308.3612282949685
 20
133.473241972843
 30
0.0
 11
308.3612282949685
 21
118.668759382871
 31
0.0
  0
LINE
  5
204D
330
1F
100
AcDbEntity
  8
LOGO
 62
     4
100
AcDbLine
 10
281.443987222293
 20
133.473241972843
 30
0.0
 11
281.443987222293
 21
118.668759382871
 31
0.0
  0
LINE
  5
204E
330
1F
100
AcDbEntity
  8
LOGO
 62
     4
100
AcDbLine
 10
308.3612282949685
 20
118.668759382871
 30
0.0
 11
281.443987222293
 21
118.668759382871
 31
0.0
  0
LINE
  5
204F
330
1F
100
AcDbEntity
  8
LOGO
 62
     4
100
AcDbLine
 10
334.5878398723113
 20
151.6423796968981
 30
0.0
 11
281.443987222293
 21
151.6423796968981
 31
0.0
  0
LINE
  5
2050
330
1F
100
AcDbEntity
  8
LOGO
 62
     4
100
AcDbLine
 10
334.5878398723113
 20
139.5296212141943
 30
0.0
 11
281.443987222293
 21
139.5296212141943
 31
0.0
  0
LINE
  5
2051
330
1F
100
AcDbEntity
  8
LOGO
 62
     4
100
AcDbLine
 10
281.443987222293
 20
151.6423796968981
 30
0.0
 11
281.443987222293
 21
139.5296212141943
 31
0.0
  0
LINE
  5
2052
330
1F
100
AcDbEntity
  8
LOGO
 62
     4
100
AcDbLine
 10
334.5878398723113
 20
151.6423796968981
 30
0.0
 11
334.5878398723113
 21
139.5296212141943
 31
0.0
  0
LINE
  5
2053
330
1F
100
AcDbEntity
  8
LOGO
 62
     4
100
AcDbLine
 10
296.3070116650242
 20
139.5296212141943
 30
0.0
 11
296.3070116650242
 21
133.473241972843
 31
0.0
  0
TEXT
  5
2054
330
1F
100
AcDbEntity
  8
LOGO
  6
Continuous
 62
     7
100
AcDbText
 10
284.222835581827
 20
142.0581418386078
 30
0.0
 40
7.066799028495359
  1
MAR402
  7
CHINESET
100
AcDbText
  0
LINE
  5
2055
330
1F
100
AcDbEntity
  8
LOGO
 62
     4
100
AcDbLine
 10
308.3612282949685
 20
133.473241972843
 30
0.0
 11
281.443987222293
 21
133.473241972843
 31
0.0
  0
TEXT
  5
2056
330
1F
100
AcDbEntity
  8
LOGO
  6
Continuous
100
AcDbText
 10
290.0816446638262
 20
120.7583807068109
 30
264.6167454508374
 40
3.028628155069439
  1
Model
 41
0.8
  7
CHINESET
100
AcDbText
  0
TEXT
  5
2057
330
1F
100
AcDbEntity
  8
LOGO
100
AcDbText
 10
289.2755223035924
 20
126.3728045903565
 30
264.6167454508374
 40
5.047713591782398
  1
型號
  7
CHINESET
100
AcDbText
  0
LINE
  5
2058
330
1F
100
AcDbEntity
  8
LOGO
  6
Continuous
 62
     7
100
AcDbLine
 10
337.2391260610091
 20
145.5430951507323
 30
0.0
 11
342.5876782320525
 21
145.5430951507323
 31
0.0
  0
LINE
  5
2059
330
1F
100
AcDbEntity
  8
LOGO
 62
     4
100
AcDbLine
 10
353.550262609762
 20
133.473241972843
 30
0.0
 11
353.550262609762
 21
118.668759382871
 31
0.0
  0
LINE
  5
205A
330
1F
100
AcDbEntity
  8
LOGO
 62
     4
100
AcDbLine
 10
314.0989559649312
 20
133.473241972843
 30
0.0
 11
314.0989559649312
 21
118.668759382871
 31
0.0
  0
LINE
  5
205B
330
1F
100
AcDbEntity
  8
LOGO
 62
     4
100
AcDbLine
 10
353.550262609762
 20
118.668759382871
 30
0.0
 11
314.0989559649312
 21
118.668759382871
 31
0.0
  0
LINE
  5
205C
330
1F
100
AcDbEntity
  8
LOGO
 62
     4
100
AcDbLine
 10
370.9098666339231
 20
151.6423796968981
 30
0.0
 11
345.4384867885687
 21
151.6423796968981
 31
0.0
  0
LINE
  5
205D
330
1F
100
AcDbEntity
  8
LOGO
 62
     4
100
AcDbLine
 10
370.9098666339231
 20
139.5296212141943
 30
0.0
 11
345.4384867885687
 21
139.5296212141943
 31
0.0
  0
LINE
  5
205E
330
1F
100
AcDbEntity
  8
LOGO
 62
     4
100
AcDbLine
 10
345.4384867885687
 20
151.6423796968981
 30
0.0
 11
345.4384867885687
 21
139.5296212141943
 31
0.0
  0
LINE
  5
205F
330
1F
100
AcDbEntity
  8
LOGO
 62
     4
100
AcDbLine
 10
370.9098666339231
 20
151.6423796968981
 30
0.0
 11
370.9098666339231
 21
139.5296212141943
 31
0.0
  0
LINE
  5
2060
330
1F
100
AcDbEntity
  8
LOGO
 62
     4
100
AcDbLine
 10
353.7356502341538
 20
139.5296212141943
 30
0.0
 11
353.7356502341538
 21
136.5014315935189
 31
0.0
  0
TEXT
  5
2061
330
1F
100
AcDbEntity
  8
LOGO
  6
Continuous
 62
     7
100
AcDbText
 10
352.2616270293337
 20
142.0581418386078
 30
0.0
 40
7.066799028495359
  1
*A
  7
CHINESET
100
AcDbText
  0
LINE
  5
2062
330
1F
100
AcDbEntity
  8
LOGO
 62
     4
100
AcDbLine
 10
353.550262609762
 20
133.473241972843
 30
0.0
 11
314.0989559649312
 21
133.473241972843
 31
0.0
  0
TEXT
  5
2063
330
1F
100
AcDbEntity
  8
LOGO
  6
Continuous
100
AcDbText
 10
322.973612900902
 20
120.7583807068109
 30
264.6167454508374
 40
3.028628155069439
  1
Bore size
 41
0.8
  7
CHINESET
100
AcDbText
  0
TEXT
  5
2064
330
1F
100
AcDbEntity
  8
LOGO
100
AcDbText
 10
317.937854282433
 20
126.3728045903565
 30
264.6167454508374
 40
5.047713591782398
  1
配管口徑代號
  7
CHINESET
100
AcDbText
  0
TEXT
  5
2065
330
1F
100
AcDbEntity
  8
LOGO
100
AcDbText
 10
227.5103246781067
 20
117.4520841502895
 30
0.0
 40
4.038170873425918
  1
20805210
 41
0.7
  7
CHINESET
 72
     1
 11
237.6057518616715
 21
117.4520841502895
 31
0.0
100
AcDbText
  0
LINE
  5
2066
330
1F
100
AcDbEntity
  8
LOGO
 62
     4
100
AcDbLine
 10
250.1378067913576
 20
123.3792765705901
 30
0.0
 11
250.1378067913596
 21
115.304104248787
 31
0.0
  0
LINE
  5
2067
330
1F
100
AcDbEntity
  8
LOGO
 62
     4
100
AcDbLine
 10
250.1378067913576
 20
123.3792765705901
 30
0.0
 11
225.9087815508042
 21
123.3792765705901
 31
0.0
  0
LINE
  5
2068
330
1F
100
AcDbEntity
  8
LOGO
  6
AM_ISO08W050x2
 48
0.3
100
AcDbLine
 10
203.2359594097418
 20
143.5758438014404
 30
0.0
 11
209.6993131269209
 21
143.5758438014404
 31
0.0
1001
GENIUS_GENOREF_13
1005
206F
  0
LINE
  5
2069
330
1F
100
AcDbEntity
  8
LOGO
  6
AM_ISO08W050x2
 48
0.3
100
AcDbLine
 10
206.4676362683314
 20
140.3441669428508
 30
0.0
 11
206.4676362683314
 21
146.8075206600297
 31
0.0
1001
GENIUS_GENOREF_13
1005
206E
  0
LINE
  5
206A
330
1F
100
AcDbEntity
  8
LOGO
  6
CENTER
 48
0.5
100
AcDbLine
 10
213.2625590499104
 20
143.5758438014404
 30
0.0
 11
221.9396506502438
 21
143.5758438014404
 31
0.0
1001
GENIUS_GENOREF_13
1005
206D
  0
LINE
  5
206B
330
1F
100
AcDbEntity
  8
LOGO
 62
     4
100
AcDbLine
 10
333.8246092873466
 20
136.5014315935189
 30
0.0
 11
333.8246092873466
 21
133.473241972843
 31
0.0
  0
LINE
  5
206C
330
1F
100
AcDbEntity
  8
LOGO
 62
     4
100
AcDbLine
 10
353.7356502341538
 20
136.5014315935189
 30
0.0
 11
333.8246092873466
 21
136.5014315935189
 31
0.0
  0
POINT
  5
206D
330
1F
100
AcDbEntity
  8
0
 60
     1
100
AcDbPoint
 10
29.8935407739607
 20
-468.0122292400889
 30
0.0
1001
GENIUS_GENOBJ-N-CRS_13
1002
{
1000
OWNER
1000
GEN
1002
}
1001
GENIUS_GENOLIS_13
1002
{
1000
ENT
1005
0
1005
0
1005
0
1005
206A
1002
}
1001
GENIUS_GENOENT_13
1002
{
1000
MYREF
1005
206D
1002
}
1002
{
1000
GRP
1005
0
1002
}
1001
GENIUS_GENODEF_13
1002
{
1000
HIER
1070
    10
1002
}
1002
{
1000
MANEDIT
1070
     1
1002
}
1002
{
1000
NOSEL
1070
     0
1002
}
1002
{
1000
BEHIND
1070
     0
1002
}
1002
{
1000
OTHER
1070
     0
1002
}
1002
{
1000
REACTOR
1002
}
  0
POINT
  5
206E
330
1F
100
AcDbEntity
  8
0
 60
     1
100
AcDbPoint
 10
18.568955551106
 20
-459.1366427614526
 30
0.0
1001
GENIUS_GENOBJ-N-CRS_13
1002
{
1000
OWNER
1000
GEN
1002
}
1001
GENIUS_GENOLIS_13
1002
{
1000
ENT
1005
0
1005
0
1005
0
1005
2069
1002
}
1001
GENIUS_GENOENT_13
1002
{
1000
MYREF
1005
206E
1002
}
1002
{
1000
GRP
1005
0
1002
}
1001
GENIUS_GENODEF_13
1002
{
1000
HIER
1070
    10
1002
}
1002
{
1000
MANEDIT
1070
     1
1002
}
1002
{
1000
NOSEL
1070
     0
1002
}
1002
{
1000
BEHIND
1070
     0
1002
}
1002
{
1000
OTHER
1070
     0
1002
}
1002
{
1000
REACTOR
1002
}
  0
POINT
  5
206F
330
1F
100
AcDbEntity
  8
0
 60
     1
100
AcDbPoint
 10
24.92762924894282
 20
-468.0122292400889
 30
0.0
1001
GENIUS_GENOBJ-N-CRS_13
1002
{
1000
OWNER
1000
GEN
1002
}
1001
GENIUS_GENOLIS_13
1002
{
1000
ENT
1005
0
1005
0
1005
0
1005
2068
1002
}
1001
GENIUS_GENOENT_13
1002
{
1000
MYREF
1005
206F
1002
}
1002
{
1000
GRP
1005
0
1002
}
1001
GENIUS_GENODEF_13
1002
{
1000
HIER
1070
    10
1002
}
1002
{
1000
MANEDIT
1070
     1
1002
}
1002
{
1000
NOSEL
1070
     0
1002
}
1002
{
1000
BEHIND
1070
     0
1002
}
1002
{
1000
OTHER
1070
     0
1002
}
1002
{
1000
REACTOR
1002
}
  0
LINE
  5
2556
330
1F
100
AcDbEntity
  8
AM_7
100
AcDbLine
 10
227.5957090819759
 20
445.2572455824679
 30
0.0
 11
227.5957090819759
 21
429.2572455824679
 31
0.0
  0
LINE
  5
2557
330
1F
100
AcDbEntity
  8
AM_VIS
  6
ACISOTGB
 62
     2
100
AcDbLine
 10
227.5957090819759
 20
428.7572455824679
 30
0.0
 11
227.5957090819759
 21
397.7572455824679
 31
0.0
  0
LINE
  5
2558
330
1F
100
AcDbEntity
  8
AM_7
100
AcDbLine
 10
204.0957090819759
 20
439.2572455824679
 30
0.0
 11
204.0957090819759
 21
439.2572455824679
 31
0.0
  0
LINE
  5
2559
330
1F
100
AcDbEntity
  8
AM_7
100
AcDbLine
 10
204.0957090819759
 20
439.2572455824679
 30
0.0
 11
204.0957090819759
 21
439.2572455824679
 31
0.0
  0
LINE
  5
255A
330
1F
100
AcDbEntity
  8
AM_7
100
AcDbLine
 10
196.8457090819759
 20
439.2572455824679
 30
0.0
 11
204.0957090819759
 21
439.2572455824679
 31
0.0
  0
LINE
  5
255B
330
1F
100
AcDbEntity
  8
AM_7
100
AcDbLine
 10
204.0957090819759
 20
439.2572455824679
 30
0.0
 11
211.3457090819759
 21
439.2572455824679
 31
0.0
  0
LINE
  5
255C
330
1F
100
AcDbEntity
  8
AM_7
100
AcDbLine
 10
204.0957090819759
 20
432.0072455824679
 30
0.0
 11
204.0957090819759
 21
439.2572455824679
 31
0.0
  0
LINE
  5
255D
330
1F
100
AcDbEntity
  8
AM_7
100
AcDbLine
 10
204.0957090819759
 20
439.2572455824679
 30
0.0
 11
204.0957090819759
 21
446.5072455824679
 31
0.0
  0
LINE
  5
255E
330
1F
100
AcDbEntity
  8
AM_7
100
AcDbLine
 10
251.0957090819759
 20
439.2572455824679
 30
0.0
 11
251.0957090819759
 21
439.2572455824679
 31
0.0
  0
LINE
  5
255F
330
1F
100
AcDbEntity
  8
AM_7
100
AcDbLine
 10
251.0957090819759
 20
439.2572455824679
 30
0.0
 11
251.0957090819759
 21
439.2572455824679
 31
0.0
  0
LINE
  5
2560
330
1F
100
AcDbEntity
  8
AM_7
100
AcDbLine
 10
243.8457090819759
 20
439.2572455824679
 30
0.0
 11
251.0957090819759
 21
439.2572455824679
 31
0.0
  0
LINE
  5
2561
330
1F
100
AcDbEntity
  8
AM_7
100
AcDbLine
 10
251.0957090819759
 20
439.2572455824679
 30
0.0
 11
258.3457090819759
 21
439.2572455824679
 31
0.0
  0
LINE
  5
2562
330
1F
100
AcDbEntity
  8
AM_7
100
AcDbLine
 10
251.0957090819759
 20
432.0072455824679
 30
0.0
 11
251.0957090819759
 21
439.2572455824679
 31
0.0
  0
LINE
  5
2563
330
1F
100
AcDbEntity
  8
AM_7
100
AcDbLine
 10
251.0957090819759
 20
439.2572455824679
 30
0.0
 11
251.0957090819759
 21
446.5072455824679
 31
0.0
  0
LINE
  5
2564
330
1F
100
AcDbEntity
  8
AM_7
100
AcDbLine
 10
227.5957090819759
 20
469.2572455824679
 30
0.0
 11
227.5957090819759
 21
469.2572455824679
 31
0.0
  0
LINE
  5
2565
330
1F
100
AcDbEntity
  8
AM_7
100
AcDbLine
 10
227.5957090819759
 20
469.2572455824679
 30
0.0
 11
227.5957090819759
 21
469.2572455824679
 31
0.0
  0
LINE
  5
2566
330
1F
100
AcDbEntity
  8
AM_7
100
AcDbLine
 10
191.0957090819758
 20
469.2572455824679
 30
0.0
 11
227.5957090819759
 21
469.2572455824679
 31
0.0
  0
LINE
  5
2567
330
1F
100
AcDbEntity
  8
AM_7
100
AcDbLine
 10
227.5957090819759
 20
469.2572455824679
 30
0.0
 11
264.0957090819759
 21
469.2572455824679
 31
0.0
  0
LINE
  5
2568
330
1F
100
AcDbEntity
  8
AM_7
100
AcDbLine
 10
227.5957090819759
 20
432.7572455824679
 30
0.0
 11
227.5957090819759
 21
469.2572455824679
 31
0.0
  0
LINE
  5
2569
330
1F
100
AcDbEntity
  8
AM_7
100
AcDbLine
 10
227.5957090819759
 20
469.2572455824679
 30
0.0
 11
227.5957090819759
 21
505.7572455824679
 31
0.0
  0
LINE
  5
256A
330
1F
100
AcDbEntity
  8
AM_7
100
AcDbLine
 10
227.5957090819759
 20
230.3487695009667
 30
0.0
 11
227.5957090819759
 21
200.2942893585033
 31
0.0
  0
LINE
  5
256B
330
1F
100
AcDbEntity
  8
AM_7
100
AcDbLine
 10
227.5957090819759
 20
271.8487695009667
 30
0.0
 11
227.5957090819759
 21
348.3487695009667
 31
0.0
  0
LINE
  5
256C
330
1F
100
AcDbEntity
  8
AM_7
100
AcDbLine
 10
204.0957090819759
 20
264.8487695009667
 30
0.0
 11
204.0957090819759
 21
276.3487695009667
 31
0.0
  0
LINE
  5
256D
330
1F
100
AcDbEntity
  8
AM_7
100
AcDbLine
 10
251.0957090819759
 20
264.8487695009667
 30
0.0
 11
251.0957090819759
 21
276.3487695009667
 31
0.0
  0
LINE
  5
256E
330
1F
100
AcDbEntity
  8
AM_7
100
AcDbLine
 10
227.5957090819759
 20
239.3487695009667
 30
0.0
 11
227.5957090819759
 21
239.3487695009667
 31
0.0
  0
LINE
  5
256F
330
1F
100
AcDbEntity
  8
AM_7
100
AcDbLine
 10
227.5957090819759
 20
239.3487695009667
 30
0.0
 11
227.5957090819759
 21
239.3487695009667
 31
0.0
  0
LINE
  5
2570
330
1F
100
AcDbEntity
  8
AM_7
100
AcDbLine
 10
198.0957090819759
 20
239.3487695009667
 30
0.0
 11
227.5957090819759
 21
239.3487695009667
 31
0.0
  0
LINE
  5
2571
330
1F
100
AcDbEntity
  8
AM_7
100
AcDbLine
 10
227.5957090819759
 20
239.3487695009667
 30
0.0
 11
257.0957090819759
 21
239.3487695009667
 31
0.0
  0
LINE
  5
2572
330
1F
100
AcDbEntity
  8
AM_7
100
AcDbLine
 10
227.5957090819759
 20
209.8487695009667
 30
0.0
 11
227.5957090819759
 21
239.3487695009667
 31
0.0
  0
LINE
  5
2573
330
1F
100
AcDbEntity
  8
AM_7
100
AcDbLine
 10
227.5957090819759
 20
239.3487695009667
 30
0.0
 11
227.5957090819759
 21
268.8487695009668
 31
0.0
  0
LINE
  5
2574
330
1F
100
AcDbEntity
  8
AM_7
100
AcDbLine
 10
254.5957090819759
 20
292.2487695009668
 30
0.0
 11
254.5957090819759
 21
292.2487695009668
 31
0.0
  0
LINE
  5
2575
330
1F
100
AcDbEntity
  8
AM_7
100
AcDbLine
 10
254.5957090819759
 20
292.2487695009668
 30
0.0
 11
254.5957090819759
 21
292.2487695009668
 31
0.0
  0
LINE
  5
2576
330
1F
100
AcDbEntity
  8
AM_7
100
AcDbLine
 10
248.3457090819759
 20
292.2487695009668
 30
0.0
 11
254.5957090819759
 21
292.2487695009668
 31
0.0
  0
LINE
  5
2577
330
1F
100
AcDbEntity
  8
AM_7
100
AcDbLine
 10
254.5957090819759
 20
292.2487695009668
 30
0.0
 11
260.8457090819759
 21
292.2487695009668
 31
0.0
  0
LINE
  5
2578
330
1F
100
AcDbEntity
  8
AM_7
100
AcDbLine
 10
254.5957090819759
 20
285.9987695009668
 30
0.0
 11
254.5957090819759
 21
292.2487695009668
 31
0.0
  0
LINE
  5
2579
330
1F
100
AcDbEntity
  8
AM_7
100
AcDbLine
 10
254.5957090819759
 20
292.2487695009668
 30
0.0
 11
254.5957090819759
 21
298.4987695009668
 31
0.0
  0
LINE
  5
257A
330
1F
100
AcDbEntity
  8
AM_7
100
AcDbLine
 10
200.5957090819759
 20
292.2487695009668
 30
0.0
 11
200.5957090819759
 21
292.2487695009668
 31
0.0
  0
LINE
  5
257B
330
1F
100
AcDbEntity
  8
AM_7
100
AcDbLine
 10
200.5957090819759
 20
292.2487695009668
 30
0.0
 11
200.5957090819759
 21
292.2487695009668
 31
0.0
  0
LINE
  5
257C
330
1F
100
AcDbEntity
  8
AM_7
100
AcDbLine
 10
194.3457090819759
 20
292.2487695009668
 30
0.0
 11
200.5957090819759
 21
292.2487695009668
 31
0.0
  0
LINE
  5
257D
330
1F
100
AcDbEntity
  8
AM_7
100
AcDbLine
 10
200.5957090819759
 20
292.2487695009668
 30
0.0
 11
206.8457090819759
 21
292.2487695009668
 31
0.0
  0
LINE
  5
257E
330
1F
100
AcDbEntity
  8
AM_7
100
AcDbLine
 10
200.5957090819759
 20
285.9987695009668
 30
0.0
 11
200.5957090819759
 21
292.2487695009668
 31
0.0
  0
LINE
  5
257F
330
1F
100
AcDbEntity
  8
AM_7
100
AcDbLine
 10
200.5957090819759
 20
292.2487695009668
 30
0.0
 11
200.5957090819759
 21
298.4987695009668
 31
0.0
  0
LINE
  5
2580
102
{ACAD_REACTORS
330
27D5
102
}
330
1F
100
AcDbEntity
  8
AM_7
100
AcDbLine
 10
396.0379855426124
 20
271.8487695009667
 30
0.0
 11
396.0379855426124
 21
348.3487695009667
 31
0.0
  0
LINE
  5
2581
330
1F
100
AcDbEntity
  8
AM_7
100
AcDbLine
 10
372.0379855426124
 20
239.3487695009667
 30
0.0
 11
356.0379855426124
 21
239.3487695009667
 31
0.0
  0
LINE
  5
2582
330
1F
100
AcDbEntity
  8
AM_VIS
  6
ACISOTGB
 62
     2
100
AcDbLine
 10
355.5379855426124
 20
239.3487695009667
 30
0.0
 11
324.5379855426124
 21
239.3487695009667
 31
0.0
  0
LINE
  5
2583
330
1F
100
AcDbEntity
  8
AM_7
100
AcDbLine
 10
396.0379855426124
 20
230.3487695009667
 30
0.0
 11
396.0379855426124
 21
198.7509474005024
 31
0.0
  0
LINE
  5
2584
330
1F
100
AcDbEntity
  8
AM_7
100
AcDbLine
 10
366.0379855426124
 20
264.8487695009667
 30
0.0
 11
366.0379855426124
 21
276.3487695009667
 31
0.0
  0
LINE
  5
2585
330
1F
100
AcDbEntity
  8
AM_7
100
AcDbLine
 10
426.0379855426124
 20
264.8487695009667
 30
0.0
 11
426.0379855426124
 21
276.3487695009667
 31
0.0
  0
LINE
  5
2586
330
1F
100
AcDbEntity
  8
AM_7
100
AcDbLine
 10
396.0379855426124
 20
239.3487695009667
 30
0.0
 11
396.0379855426124
 21
239.3487695009667
 31
0.0
  0
LINE
  5
2587
330
1F
100
AcDbEntity
  8
AM_7
100
AcDbLine
 10
396.0379855426124
 20
239.3487695009667
 30
0.0
 11
396.0379855426124
 21
239.3487695009667
 31
0.0
  0
LINE
  5
2588
330
1F
100
AcDbEntity
  8
AM_7
100
AcDbLine
 10
380.5379855426124
 20
239.3487695009667
 30
0.0
 11
396.0379855426124
 21
239.3487695009667
 31
0.0
  0
LINE
  5
2589
102
{ACAD_REACTORS
330
27E5
330
27E8
102
}
330
1F
100
AcDbEntity
  8
AM_7
100
AcDbLine
 10
396.0379855426124
 20
239.3487695009667
 30
0.0
 11
411.5379855426124
 21
239.3487695009667
 31
0.0
  0
LINE
  5
258A
330
1F
100
AcDbEntity
  8
AM_7
100
AcDbLine
 10
396.0379855426124
 20
223.8487695009667
 30
0.0
 11
396.0379855426124
 21
239.3487695009667
 31
0.0
  0
LINE
  5
258B
330
1F
100
AcDbEntity
  8
AM_7
100
AcDbLine
 10
396.0379855426124
 20
239.3487695009667
 30
0.0
 11
396.0379855426124
 21
254.8487695009667
 31
0.0
  0
ARC
  5
258C
330
1F
100
AcDbEntity
  8
AM_VIS
  6
ACISOTGB
 62
     2
100
AcDbCircle
 10
253.5957090819759
 20
400.757245582468
 30
0.0
 40
0.5
100
AcDbArc
 50
270.0
 51
0.0
  0
ARC
  5
258D
330
1F
100
AcDbEntity
  8
AM_VIS
  6
ACISOTGB
 62
     2
100
AcDbCircle
 10
201.5957090819759
 20
400.757245582468
 30
0.0
 40
0.5
100
AcDbArc
 50
180.0
 51
270.0
  0
ARC
  5
258E
330
1F
100
AcDbEntity
  8
AM_VIS
  6
ACISOTGB
 62
     2
100
AcDbCircle
 10
201.5957090819759
 20
407.757245582468
 30
0.0
 40
0.5
100
AcDbArc
 50
90.0
 51
180.0
  0
ARC
  5
258F
330
1F
100
AcDbEntity
  8
AM_VIS
  6
ACISOTGB
 62
     2
100
AcDbCircle
 10
253.5957090819759
 20
407.757245582468
 30
0.0
 40
0.5
100
AcDbArc
 50
0.0
 51
90.0
  0
ARC
  5
2590
330
1F
100
AcDbEntity
  8
AM_VIS
  6
ACISOTGB
 62
     2
100
AcDbCircle
 10
203.0957090819759
 20
425.757245582468
 30
0.0
 40
1.5
100
AcDbArc
 50
90.0
 51
180.0
  0
ARC
  5
2591
330
1F
100
AcDbEntity
  8
AM_VIS
  6
ACISOTGB
 62
     2
100
AcDbCircle
 10
252.0957090819759
 20
425.757245582468
 30
0.0
 40
1.5
100
AcDbArc
 50
0.0
 51
90.0
  0
CIRCLE
  5
2592
330
1F
100
AcDbEntity
  8
AM_VIS
100
AcDbCircle
 10
251.0957090819759
 20
439.257245582468
 30
0.0
 40
4.25
  0
CIRCLE
  5
2593
330
1F
100
AcDbEntity
  8
AM_VIS
100
AcDbCircle
 10
204.0957090819759
 20
439.257245582468
 30
0.0
 40
4.25
  0
ARC
  5
2594
330
1F
100
AcDbEntity
  8
AM_VIS
100
AcDbCircle
 10
252.5059188346887
 20
436.257245582468
 30
0.0
 40
2.0
100
AcDbArc
 50
270.0
 51
345.0000000000056
  0
ARC
  5
2595
330
1F
100
AcDbEntity
  8
AM_VIS
100
AcDbCircle
 10
202.685499329263
 20
436.257245582468
 30
0.0
 40
2.0
100
AcDbArc
 50
194.9999999999944
 51
270.0
  0
ARC
  5
2596
330
1F
100
AcDbEntity
  8
AM_VIS
100
AcDbCircle
 10
227.5957090819759
 20
469.257245582468
 30
0.0
 40
24.5
100
AcDbArc
 50
123.4729865729906
 51
147.0246998514444
  0
ARC
  5
2597
330
1F
100
AcDbEntity
  8
AM_VIS
100
AcDbCircle
 10
227.5957090819759
 20
469.257245582468
 30
0.0
 40
25.0
100
AcDbArc
 50
123.7065919448281
 51
146.7807215209582
  0
ARC
  5
2598
330
1F
100
AcDbEntity
  8
AM_VIS
100
AcDbCircle
 10
227.5957090819759
 20
469.257245582468
 30
0.0
 40
24.5
100
AcDbArc
 50
168.472986572987
 51
192.0246998514467
  0
ARC
  5
2599
330
1F
100
AcDbEntity
  8
AM_VIS
100
AcDbCircle
 10
227.5957090819759
 20
469.257245582468
 30
0.0
 40
25.0
100
AcDbArc
 50
168.7065919448297
 51
191.7807215209604
  0
ARC
  5
259A
330
1F
100
AcDbEntity
  8
AM_VIS
100
AcDbCircle
 10
227.5957090819759
 20
469.257245582468
 30
0.0
 40
24.50000000000001
100
AcDbArc
 50
213.4729865729861
 51
237.0246998514476
  0
ARC
  5
259B
330
1F
100
AcDbEntity
  8
AM_VIS
100
AcDbCircle
 10
227.5957090819759
 20
469.257245582468
 30
0.0
 40
25.0
100
AcDbArc
 50
213.7065919448304
 51
236.7807215209591
  0
ARC
  5
259C
330
1F
100
AcDbEntity
  8
AM_VIS
100
AcDbCircle
 10
227.5957090819759
 20
469.257245582468
 30
0.0
 40
24.5
100
AcDbArc
 50
258.4729865729861
 51
282.0246998514474
  0
ARC
  5
259D
330
1F
100
AcDbEntity
  8
AM_VIS
100
AcDbCircle
 10
227.5957090819759
 20
469.257245582468
 30
0.0
 40
25.0
100
AcDbArc
 50
258.7065919448316
 51
281.7807215209623
  0
ARC
  5
259E
330
1F
100
AcDbEntity
  8
AM_VIS
100
AcDbCircle
 10
227.5957090819759
 20
469.257245582468
 30
0.0
 40
24.50000000000001
100
AcDbArc
 50
303.4729865729906
 51
327.0246998514445
  0
ARC
  5
259F
330
1F
100
AcDbEntity
  8
AM_VIS
100
AcDbCircle
 10
227.5957090819759
 20
469.257245582468
 30
0.0
 40
25.0
100
AcDbArc
 50
303.7065919448282
 51
326.7807215209582
  0
ARC
  5
25A0
330
1F
100
AcDbEntity
  8
AM_VIS
100
AcDbCircle
 10
227.5957090819759
 20
469.257245582468
 30
0.0
 40
24.5
100
AcDbArc
 50
348.472986572987
 51
12.02469985144674
  0
ARC
  5
25A1
330
1F
100
AcDbEntity
  8
AM_VIS
100
AcDbCircle
 10
227.5957090819759
 20
469.257245582468
 30
0.0
 40
25.0
100
AcDbArc
 50
348.7065919448298
 51
11.78072152096036
  0
ARC
  5
25A2
330
1F
100
AcDbEntity
  8
AM_VIS
100
AcDbCircle
 10
227.5957090819759
 20
469.257245582468
 30
0.0
 40
24.5
100
AcDbArc
 50
33.47298657298608
 51
57.0246998514476
  0
ARC
  5
25A3
330
1F
100
AcDbEntity
  8
AM_VIS
100
AcDbCircle
 10
227.5957090819759
 20
469.257245582468
 30
0.0
 40
25.0
100
AcDbArc
 50
33.70659194483042
 51
56.78072152095913
  0
CIRCLE
  5
25A4
330
1F
100
AcDbEntity
  8
AM_VIS
100
AcDbCircle
 10
227.5957090819759
 20
469.257245582468
 30
0.0
 40
23.0
  0
ARC
  5
25A5
330
1F
100
AcDbEntity
  8
AM_VIS
100
AcDbCircle
 10
227.5957090819759
 20
469.257245582468
 30
0.0
 40
25.0
100
AcDbArc
 50
146.7807215209582
 51
168.7065919448297
  0
ARC
  5
25A6
330
1F
100
AcDbEntity
  8
AM_VIS
100
AcDbCircle
 10
227.5957090819759
 20
469.257245582468
 30
0.0
 40
25.0
100
AcDbArc
 50
191.7807215209604
 51
213.7065919448304
  0
ARC
  5
25A7
330
1F
100
AcDbEntity
  8
AM_VIS
100
AcDbCircle
 10
227.5957090819759
 20
469.257245582468
 30
0.0
 40
25.0
100
AcDbArc
 50
236.7807215209591
 51
258.7065919448316
  0
ARC
  5
25A8
330
1F
100
AcDbEntity
  8
AM_VIS
100
AcDbCircle
 10
227.5957090819759
 20
469.257245582468
 30
0.0
 40
25.0
100
AcDbArc
 50
281.7807215209623
 51
303.7065919448282
  0
ARC
  5
25A9
330
1F
100
AcDbEntity
  8
AM_VIS
100
AcDbCircle
 10
227.5957090819759
 20
469.257245582468
 30
0.0
 40
25.0
100
AcDbArc
 50
326.7807215209582
 51
348.7065919448298
  0
ARC
  5
25AA
330
1F
100
AcDbEntity
  8
AM_VIS
100
AcDbCircle
 10
227.5957090819759
 20
469.257245582468
 30
0.0
 40
25.0
100
AcDbArc
 50
11.78072152096036
 51
33.70659194483042
  0
ARC
  5
25AB
330
1F
100
AcDbEntity
  8
AM_VIS
100
AcDbCircle
 10
227.5957090819759
 20
469.257245582468
 30
0.0
 40
25.0
100
AcDbArc
 50
56.78072152095913
 51
78.70659194483164
  0
ARC
  5
25AC
330
1F
100
AcDbEntity
  8
AM_VIS
100
AcDbCircle
 10
227.5957090819759
 20
469.257245582468
 30
0.0
 40
24.5
100
AcDbArc
 50
78.47298657298608
 51
102.0246998514474
  0
ARC
  5
25AD
330
1F
100
AcDbEntity
  8
AM_VIS
100
AcDbCircle
 10
227.5957090819759
 20
469.257245582468
 30
0.0
 40
25.0
100
AcDbArc
 50
101.7807215209622
 51
123.7065919448281
  0
ARC
  5
25AE
330
1F
100
AcDbEntity
  8
AM_VIS
100
AcDbCircle
 10
227.5957090819759
 20
469.257245582468
 30
0.0
 40
25.0
100
AcDbArc
 50
78.70659194483164
 51
101.7807215209622
  0
CIRCLE
  5
25AF
330
1F
100
AcDbEntity
  8
AM_VIS
100
AcDbCircle
 10
227.5957090819759
 20
469.257245582468
 30
0.0
 40
15.0
  0
ARC
  5
25B0
330
1F
100
AcDbEntity
  8
AM_VIS
100
AcDbCircle
 10
227.5957090819759
 20
469.257245582468
 30
0.0
 40
26.0
100
AcDbArc
 50
292.6198649480388
 51
67.3801350519612
  0
ARC
  5
25B1
330
1F
100
AcDbEntity
  8
AM_VIS
100
AcDbCircle
 10
227.5957090819759
 20
469.257245582468
 30
0.0
 40
26.0
100
AcDbArc
 50
112.6198649480388
 51
247.3801350519612
  0
ARC
  5
25B2
330
1F
100
AcDbEntity
  8
AM_VIS
100
AcDbCircle
 10
205.0957090819759
 20
440.257245582468
 30
0.0
 40
5.0
100
AcDbArc
 50
0.0
 51
5.123748471531272
  0
ARC
  5
25B3
330
1F
100
AcDbEntity
  8
AM_VIS
100
AcDbCircle
 10
250.0957090819759
 20
440.257245582468
 30
0.0
 40
5.0
100
AcDbArc
 50
174.8762515284687
 51
180.0
  0
LINE
  5
25B4
330
1F
100
AcDbEntity
  8
AM_VIS
  6
ACISOTGB
 62
     2
100
AcDbLine
 10
253.5957090819759
 20
400.257245582468
 30
0.0
 11
201.5957090819759
 21
400.257245582468
 31
0.0
  0
LINE
  5
25B5
330
1F
100
AcDbEntity
  8
AM_VIS
  6
ACISOTGB
 62
     2
100
AcDbLine
 10
253.5957090819759
 20
408.257245582468
 30
0.0
 11
201.5957090819759
 21
408.257245582468
 31
0.0
  0
LINE
  5
25B6
330
1F
100
AcDbEntity
  8
AM_VIS
  6
ACISOTGB
 62
     2
100
AcDbLine
 10
203.0957090819759
 20
427.257245582468
 30
0.0
 11
252.0957090819759
 21
427.257245582468
 31
0.0
  0
LINE
  5
25B7
330
1F
100
AcDbEntity
  8
AM_VIS
  6
ACISOTGB
 62
     2
100
AcDbLine
 10
254.0957090819759
 20
407.757245582468
 30
0.0
 11
254.0957090819759
 21
400.757245582468
 31
0.0
  0
LINE
  5
25B8
330
1F
100
AcDbEntity
  8
AM_VIS
  6
ACISOTGB
 62
     2
100
AcDbLine
 10
201.0957090819759
 20
407.757245582468
 30
0.0
 11
201.0957090819759
 21
400.757245582468
 31
0.0
  0
LINE
  5
25B9
330
1F
100
AcDbEntity
  8
AM_VIS
  6
ACISOTGB
 62
     2
100
AcDbLine
 10
253.5957090819759
 20
425.757245582468
 30
0.0
 11
253.5957090819759
 21
408.257245582468
 31
0.0
  0
LINE
  5
25BA
330
1F
100
AcDbEntity
  8
AM_VIS
  6
ACISOTGB
 62
     2
100
AcDbLine
 10
201.5957090819759
 20
425.757245582468
 30
0.0
 11
201.5957090819759
 21
408.257245582468
 31
0.0
  0
LINE
  5
25BB
330
1F
100
AcDbEntity
  8
AM_VIS
  6
ACISOTGB
 62
     2
100
AcDbLine
 10
234.0957090819759
 20
434.2572455824678
 30
0.0
 11
234.0957090819759
 21
432.257245582468
 31
0.0
  0
LINE
  5
25BC
330
1F
100
AcDbEntity
  8
AM_VIS
  6
ACISOTGB
 62
     2
100
AcDbLine
 10
221.0957090819759
 20
434.257245582468
 30
0.0
 11
221.0957090819759
 21
432.257245582468
 31
0.0
  0
LINE
  5
25BD
330
1F
100
AcDbEntity
  8
AM_VIS
100
AcDbLine
 10
256.9880139273891
 20
445.257245582468
 30
0.0
 11
255.3434853994099
 21
439.1197815615531
 31
0.0
  0
LINE
  5
25BE
102
{ACAD_REACTORS
330
279D
330
27CC
102
}
330
1F
100
AcDbEntity
  8
AM_VIS
100
AcDbLine
 10
252.5059188346887
 20
434.257245582468
 30
0.0
 11
245.0957090819759
 21
434.257245582468
 31
0.0
  0
LINE
  5
25BF
330
1F
100
AcDbEntity
  8
AM_VIS
100
AcDbLine
 10
254.8431232929252
 20
437.2524047579694
 30
0.0
 11
254.437770487267
 21
435.7396074922629
 31
0.0
  0
LINE
  5
25C0
330
1F
100
AcDbEntity
  8
AM_VIS
100
AcDbLine
 10
200.7536476766847
 20
435.7396074922629
 30
0.0
 11
200.3482948710266
 21
437.2524047579694
 31
0.0
  0
LINE
  5
25C1
330
1F
100
AcDbEntity
  8
AM_VIS
100
AcDbLine
 10
210.0957090819759
 20
434.257245582468
 30
0.0
 11
202.685499329263
 21
434.257245582468
 31
0.0
  0
LINE
  5
25C2
330
1F
100
AcDbEntity
  8
AM_VIS
100
AcDbLine
 10
199.8479327645418
 20
439.1197815615531
 30
0.0
 11
198.2034042365626
 21
445.257245582468
 31
0.0
  0
LINE
  5
25C3
330
1F
100
AcDbEntity
  8
AM_VIS
100
AcDbLine
 10
213.7222055558025
 20
490.0545026109624
 30
0.0
 11
214.0828867383136
 21
489.6938214284513
 31
0.0
  0
LINE
  5
25C4
330
1F
100
AcDbEntity
  8
AM_VIS
100
AcDbLine
 10
206.6812084346923
 20
482.9533641083413
 30
0.0
 11
207.0425297101522
 21
482.5920428328815
 31
0.0
  0
LINE
  5
25C5
330
1F
100
AcDbEntity
  8
AM_VIS
100
AcDbLine
 10
203.0797791848752
 20
474.1530786352231
 30
0.0
 11
203.5898594048751
 21
474.1530786352231
 31
0.0
  0
LINE
  5
25C6
330
1F
100
AcDbEntity
  8
AM_VIS
100
AcDbLine
 10
203.1223055635714
 20
464.153078635223
 30
0.0
 11
203.6332910117017
 21
464.153078635223
 31
0.0
  0
LINE
  5
25C7
330
1F
100
AcDbEntity
  8
AM_VIS
100
AcDbLine
 10
206.7984520534817
 20
455.3837420562944
 30
0.0
 11
207.1591332359929
 21
455.7444232388055
 31
0.0
  0
LINE
  5
25C8
330
1F
100
AcDbEntity
  8
AM_VIS
100
AcDbLine
 10
213.8995905561026
 20
448.3427449351844
 30
0.0
 11
214.2609118315625
 21
448.7040662106443
 31
0.0
  0
LINE
  5
25C9
330
1F
100
AcDbEntity
  8
AM_VIS
100
AcDbLine
 10
222.6998760292208
 20
445.2513959053673
 30
0.0
 11
222.6998760292208
 21
444.7413156853673
 31
0.0
  0
LINE
  5
25CA
330
1F
100
AcDbEntity
  8
AM_VIS
100
AcDbLine
 10
232.6998760292208
 20
445.2948275121928
 30
0.0
 11
232.6998760292208
 21
444.7838420640636
 31
0.0
  0
LINE
  5
25CB
330
1F
100
AcDbEntity
  8
AM_VIS
100
AcDbLine
 10
241.1085314256384
 20
448.820669736485
 30
0.0
 11
241.4692126081495
 21
448.4599885539738
 31
0.0
  0
LINE
  5
25CC
330
1F
100
AcDbEntity
  8
AM_VIS
100
AcDbLine
 10
248.1488884538001
 20
455.9224483320548
 30
0.0
 11
248.5102097292597
 21
455.5611270565949
 31
0.0
  0
LINE
  5
25CD
330
1F
100
AcDbEntity
  8
AM_VIS
100
AcDbLine
 10
251.6015587590765
 20
464.361412529713
 30
0.0
 11
252.1116389790766
 21
464.361412529713
 31
0.0
  0
LINE
  5
25CE
330
1F
100
AcDbEntity
  8
AM_VIS
100
AcDbLine
 10
251.5581271522519
 20
474.361412529713
 30
0.0
 11
252.0691126003803
 21
474.361412529713
 31
0.0
  0
LINE
  5
25CF
330
1F
100
AcDbEntity
  8
AM_VIS
100
AcDbLine
 10
248.0322849279589
 20
482.7700679261296
 30
0.0
 11
248.3929661104701
 21
483.1307491086416
 31
0.0
  0
LINE
  5
25D0
330
1F
100
AcDbEntity
  8
AM_VIS
100
AcDbLine
 10
240.9305063323893
 20
489.8104249542919
 30
0.0
 11
241.2918276078492
 21
490.1717462297516
 31
0.0
  0
LINE
  5
25D1
330
1F
100
AcDbEntity
  8
AM_VIS
100
AcDbLine
 10
232.4915421347309
 20
493.7731754795687
 30
0.0
 11
232.4915421347309
 21
493.2630952595688
 31
0.0
  0
LINE
  5
25D2
330
1F
100
AcDbEntity
  8
AM_VIS
100
AcDbLine
 10
222.4915421347307
 20
493.7306491008724
 30
0.0
 11
222.4915421347307
 21
493.219663652744
 31
0.0
  0
LINE
  5
25D3
330
1F
100
AcDbEntity
  8
AM_VIS
100
AcDbLine
 10
234.5957090819759
 20
493.257245582468
 30
0.0
 11
237.5957090819759
 21
493.257245582468
 31
0.0
  0
LINE
  5
25D4
330
1F
100
AcDbEntity
  8
AM_VIS
100
AcDbLine
 10
217.5957090819759
 20
493.257245582468
 30
0.0
 11
220.5957090819759
 21
493.257245582468
 31
0.0
  0
LINE
  5
25D5
330
1F
100
AcDbEntity
  8
AM_VIS
100
AcDbLine
 10
220.5957090819759
 20
445.257245582468
 30
0.0
 11
217.5957090819759
 21
445.257245582468
 31
0.0
  0
LINE
  5
25D6
330
1F
100
AcDbEntity
  8
AM_VIS
100
AcDbLine
 10
237.5957090819759
 20
445.257245582468
 30
0.0
 11
234.5957090819759
 21
445.257245582468
 31
0.0
  0
LINE
  5
25D7
330
1F
100
AcDbEntity
  8
AM_VIS
100
AcDbLine
 10
258.5957090819759
 20
451.257245582468
 30
0.0
 11
256.9880139273891
 21
445.257245582468
 31
0.0
  0
LINE
  5
25D8
330
1F
100
AcDbEntity
  8
AM_VIS
100
AcDbLine
 10
245.0957090819759
 20
434.257245582468
 30
0.0
 11
210.0957090819759
 21
434.257245582468
 31
0.0
  0
LINE
  5
25D9
330
1F
100
AcDbEntity
  8
AM_VIS
100
AcDbLine
 10
192.5957090819759
 20
487.257245582468
 30
0.0
 11
194.0957090819759
 21
487.257245582468
 31
0.0
  0
LINE
  5
25DA
330
1F
100
AcDbEntity
  8
AM_VIS
100
AcDbLine
 10
192.5957090819759
 20
451.257245582468
 30
0.0
 11
192.5957090819759
 21
487.257245582468
 31
0.0
  0
LINE
  5
25DB
330
1F
100
AcDbEntity
  8
AM_VIS
100
AcDbLine
 10
196.5957090819759
 20
451.257245582468
 30
0.0
 11
192.5957090819759
 21
451.257245582468
 31
0.0
  0
LINE
  5
25DC
330
1F
100
AcDbEntity
  8
AM_VIS
100
AcDbLine
 10
198.2034042365626
 20
445.257245582468
 30
0.0
 11
196.5957090819759
 21
451.257245582468
 31
0.0
  0
LINE
  5
25DD
330
1F
100
AcDbEntity
  8
AM_VIS
100
AcDbLine
 10
198.2034042365626
 20
445.257245582468
 30
0.0
 11
204.2237172969353
 21
445.257245582468
 31
0.0
  0
LINE
  5
25DE
330
1F
100
AcDbEntity
  8
AM_VIS
100
AcDbLine
 10
210.0957090819759
 20
440.257245582468
 30
0.0
 11
210.0957090819759
 21
434.257245582468
 31
0.0
  0
LINE
  5
25DF
330
1F
100
AcDbEntity
  8
AM_VIS
100
AcDbLine
 10
245.0957090819759
 20
434.257245582468
 30
0.0
 11
245.0957090819759
 21
440.257245582468
 31
0.0
  0
LINE
  5
25E0
330
1F
100
AcDbEntity
  8
AM_VIS
100
AcDbLine
 10
250.9677008670164
 20
445.257245582468
 30
0.0
 11
256.9880139273891
 21
445.257245582468
 31
0.0
  0
LINE
  5
25E1
330
1F
100
AcDbEntity
  8
AM_VIS
100
AcDbLine
 10
262.5957090819759
 20
451.257245582468
 30
0.0
 11
258.5957090819759
 21
451.257245582468
 31
0.0
  0
LINE
  5
25E2
330
1F
100
AcDbEntity
  8
AM_VIS
100
AcDbLine
 10
262.5957090819759
 20
487.257245582468
 30
0.0
 11
262.5957090819759
 21
451.257245582468
 31
0.0
  0
LINE
  5
25E3
330
1F
100
AcDbEntity
  8
AM_VIS
100
AcDbLine
 10
261.0957090819759
 20
487.257245582468
 30
0.0
 11
262.5957090819759
 21
487.257245582468
 31
0.0
  0
LINE
  5
25E4
330
1F
100
AcDbEntity
  8
AM_VIS
  6
ACISOTGB
 62
     2
100
AcDbLine
 10
223.5542571976484
 20
432.257245582468
 30
0.0
 11
231.6371609663033
 21
432.257245582468
 31
0.0
  0
LINE
  5
25E5
330
1F
100
AcDbEntity
  8
AM_VIS
  6
ACISOTGB
 62
     2
100
AcDbLine
 10
231.6371609663033
 20
432.257245582468
 30
0.0
 11
235.6786128506306
 21
432.257245582468
 31
0.0
  0
LINE
  5
25E6
330
1F
100
AcDbEntity
  8
AM_VIS
  6
ACISOTGB
 62
     2
100
AcDbLine
 10
219.5128053133212
 20
432.257245582468
 30
0.0
 11
223.5542571976484
 21
432.257245582468
 31
0.0
  0
LINE
  5
25E7
330
1F
100
AcDbEntity
  8
AM_VIS
  6
ACISOTGB
 62
     2
100
AcDbLine
 10
235.6786128506306
 20
432.257245582468
 30
0.0
 11
235.6786128506306
 21
427.257245582468
 31
0.0
  0
LINE
  5
25E8
330
1F
100
AcDbEntity
  8
AM_VIS
  6
ACISOTGB
 62
     2
100
AcDbLine
 10
231.6371609663033
 20
432.257245582468
 30
0.0
 11
231.6371609663033
 21
427.257245582468
 31
0.0
  0
LINE
  5
25E9
330
1F
100
AcDbEntity
  8
AM_VIS
  6
ACISOTGB
 62
     2
100
AcDbLine
 10
219.5128053133212
 20
432.257245582468
 30
0.0
 11
219.5128053133212
 21
427.257245582468
 31
0.0
  0
LINE
  5
25EA
330
1F
100
AcDbEntity
  8
AM_VIS
  6
ACISOTGB
 62
     2
100
AcDbLine
 10
223.5542571976484
 20
432.257245582468
 30
0.0
 11
223.5542571976484
 21
427.257245582468
 31
0.0
  0
LINE
  5
25EB
102
{ACAD_REACTORS
330
278F
102
}
330
1F
100
AcDbEntity
  8
AM_VIS
100
AcDbLine
 10
194.0957090819759
 20
520.257245582468
 30
0.0
 11
196.5957090819759
 21
520.257245582468
 31
0.0
  0
LINE
  5
25EC
330
1F
100
AcDbEntity
  8
AM_VIS
100
AcDbLine
 10
258.5957090819759
 20
520.257245582468
 30
0.0
 11
261.0957090819759
 21
520.257245582468
 31
0.0
  0
LINE
  5
25ED
330
1F
100
AcDbEntity
  8
AM_VIS
100
AcDbLine
 10
261.0957090819759
 20
517.9572455824681
 30
0.0
 11
258.5957090819759
 21
517.9572455824681
 31
0.0
  0
LINE
  5
25EE
330
1F
100
AcDbEntity
  8
AM_VIS
100
AcDbLine
 10
196.5957090819759
 20
517.9572455824681
 30
0.0
 11
194.0957090819759
 21
517.9572455824681
 31
0.0
  0
LINE
  5
25EF
330
1F
100
AcDbEntity
  8
AM_VIS
100
AcDbLine
 10
194.0957090819759
 20
517.9572455824681
 30
0.0
 11
194.0957090819759
 21
517.457245582468
 31
0.0
  0
ARC
  5
25F0
330
1F
100
AcDbEntity
  8
AM_VIS
100
AcDbCircle
 10
227.5957090819759
 20
469.257245582468
 30
0.0
 40
33.5
100
AcDbArc
 50
180.0
 51
0.0
  0
LINE
  5
25F1
330
1F
100
AcDbEntity
  8
AM_VIS
100
AcDbLine
 10
261.0957090819759
 20
517.457245582468
 30
0.0
 11
261.0957090819759
 21
517.9572455824681
 31
0.0
  0
ELLIPSE
  5
25F2
330
1F
100
AcDbEntity
  8
AM_VIS
100
AcDbEllipse
 10
207.5957088280688
 20
517.8903408266368
 30
0.0
 11
0.0000001795393341
 21
-3.959797974644658
 31
0.0
210
0.0
220
0.0
230
1.0
 40
0.7071067811865498
 41
5.497787159812408
 42
7.068583486607304
  0
LINE
  5
25F3
330
1F
100
AcDbEntity
  8
AM_VIS
100
AcDbLine
 10
211.2492620040289
 20
517.457245582468
 30
0.0
 11
209.5756079423447
 21
515.0903410061761
 31
0.0
  0
ELLIPSE
  5
25F4
330
1F
100
AcDbEntity
  8
AM_VIS
100
AcDbEllipse
 10
210.8957086587759
 20
517.457245582468
 30
0.0
 11
-0.4619396947463525
 21
-0.4619397785246815
 31
0.0
210
0.0
220
0.0
230
1.0
 40
0.4142135623730902
 41
1.963495344373134
 42
3.534291671168028
  0
LINE
  5
25F5
330
1F
100
AcDbEntity
  8
AM_VIS
100
AcDbLine
 10
196.5957090819759
 20
520.257245582468
 30
0.0
 11
258.5957090819759
 21
520.257245582468
 31
0.0
  0
ELLIPSE
  5
25F6
330
1F
100
AcDbEntity
  8
AM_VIS
100
AcDbEllipse
 10
204.295708658776
 20
517.457245582468
 30
0.0
 11
-0.461939837764961
 21
0.4619397539865837
 31
0.0
210
0.0
220
0.0
230
0.9999999999999998
 40
0.4142135623730903
 41
5.890486161359508
 42
7.461282488154401
  0
LINE
  5
25F7
330
1F
100
AcDbEntity
  8
AM_VIS
100
AcDbLine
 10
205.6158099677
 20
515.0903406470973
 30
0.0
 11
203.9421552228423
 21
517.4572455824678
 31
0.0
  0
LINE
  5
25F8
330
1F
100
AcDbEntity
  8
AM_VIS
100
AcDbLine
 10
258.5957090819759
 20
517.9572455824681
 30
0.0
 11
196.5957090819759
 21
517.9572455824681
 31
0.0
  0
ELLIPSE
  5
25F9
330
1F
100
AcDbEntity
  8
AM_VIS
100
AcDbEllipse
 10
244.295708658776
 20
517.457245582468
 30
0.0
 11
-0.4619398377649613
 21
0.4619397539865837
 31
0.0
210
0.0
220
0.0
230
1.0
 40
0.4142135623730904
 41
5.890486161359508
 42
7.461282488154401
  0
ELLIPSE
  5
25FA
330
1F
100
AcDbEntity
  8
AM_VIS
100
AcDbEllipse
 10
247.5957088280687
 20
517.8903408266368
 30
0.0
 11
0.0000001795393316
 21
-3.959797974644657
 31
0.0
210
0.0
220
0.0
230
1.0
 40
0.7071067811865502
 41
5.497787159812408
 42
7.068583486607307
  0
LINE
  5
25FB
330
1F
100
AcDbEntity
  8
AM_VIS
100
AcDbLine
 10
251.2492620040287
 20
517.4572455824678
 30
0.0
 11
249.5756079423446
 21
515.0903410061761
 31
0.0
  0
ELLIPSE
  5
25FC
330
1F
100
AcDbEntity
  8
AM_VIS
100
AcDbEllipse
 10
250.8957086587759
 20
517.457245582468
 30
0.0
 11
-0.4619396947463523
 21
-0.4619397785246812
 31
0.0
210
0.0
220
0.0
230
1.0
 40
0.4142135623730903
 41
1.963495344373134
 42
3.534291671168028
  0
LINE
  5
25FD
330
1F
100
AcDbEntity
  8
AM_VIS
100
AcDbLine
 10
245.6158099677
 20
515.0903406470973
 30
0.0
 11
243.9421552228423
 21
517.457245582468
 31
0.0
  0
LINE
  5
25FE
330
1F
100
AcDbEntity
  8
AM_VIS
100
AcDbLine
 10
194.0957090819759
 20
469.257245582468
 30
0.0
 11
194.0957090819759
 21
517.457245582468
 31
0.0
  0
LINE
  5
25FF
330
1F
100
AcDbEntity
  8
AM_VIS
100
AcDbLine
 10
261.0957090819759
 20
517.457245582468
 30
0.0
 11
261.0957090819759
 21
469.257245582468
 31
0.0
  0
LINE
  5
2600
102
{ACAD_REACTORS
330
278F
330
279D
102
}
330
1F
100
AcDbEntity
  8
AM_VIS
100
AcDbLine
 10
261.0957090819759
 20
517.9572455824681
 30
0.0
 11
261.0957090819759
 21
520.257245582468
 31
0.0
  0
LINE
  5
2601
330
1F
100
AcDbEntity
  8
AM_VIS
100
AcDbLine
 10
194.0957090819759
 20
520.257245582468
 30
0.0
 11
194.0957090819759
 21
517.9572455824681
 31
0.0
  0
ARC
  5
2602
330
1F
100
AcDbEntity
  8
AM_VIS
100
AcDbCircle
 10
227.5957090819759
 20
469.257245582468
 30
0.0
 40
31.75
100
AcDbArc
 50
24.55499039178897
 51
65.44500960820887
  0
ARC
  5
2603
330
1F
100
AcDbEntity
  8
AM_VIS
100
AcDbCircle
 10
227.5957090819759
 20
469.257245582468
 30
0.0
 40
31.75
100
AcDbArc
 50
339.5549903917905
 51
20.44500960820948
  0
ARC
  5
2604
330
1F
100
AcDbEntity
  8
AM_VIS
100
AcDbCircle
 10
227.5957090819759
 20
469.257245582468
 30
0.0
 40
31.75
100
AcDbArc
 50
294.5549903917911
 51
335.445009608211
  0
ARC
  5
2605
330
1F
100
AcDbEntity
  8
AM_VIS
100
AcDbCircle
 10
227.5957090819759
 20
469.257245582468
 30
0.0
 40
31.75
100
AcDbArc
 50
249.554990391792
 51
290.4450096082079
  0
ARC
  5
2606
330
1F
100
AcDbEntity
  8
AM_VIS
100
AcDbCircle
 10
227.5957090819759
 20
469.257245582468
 30
0.0
 40
31.75
100
AcDbArc
 50
204.554990391789
 51
245.4450096082088
  0
ARC
  5
2607
330
1F
100
AcDbEntity
  8
AM_VIS
100
AcDbCircle
 10
227.5957090819759
 20
469.257245582468
 30
0.0
 40
31.75
100
AcDbArc
 50
159.5549903917905
 51
200.4450096082095
  0
ARC
  5
2608
330
1F
100
AcDbEntity
  8
AM_VIS
100
AcDbCircle
 10
227.5957090819759
 20
469.257245582468
 30
0.0
 40
31.75
100
AcDbArc
 50
114.5549903917911
 51
155.445009608211
  0
ARC
  5
2609
330
1F
100
AcDbEntity
  8
AM_VIS
100
AcDbCircle
 10
227.5957090819759
 20
469.257245582468
 30
0.0
 40
31.75
100
AcDbArc
 50
69.55499039179205
 51
110.4450096082079
  0
ARC
  5
260A
330
1F
100
AcDbEntity
  8
AM_VIS
100
AcDbCircle
 10
227.5957090819759
 20
469.257245582468
 30
0.0
 40
31.75
100
AcDbArc
 50
65.44500960820887
 51
69.55499039179205
  0
ARC
  5
260B
330
1F
100
AcDbEntity
  8
AM_VIS
100
AcDbCircle
 10
227.5957090819759
 20
469.257245582468
 30
0.0
 40
31.75
100
AcDbArc
 50
20.44500960820948
 51
24.55499039178897
  0
ARC
  5
260C
330
1F
100
AcDbEntity
  8
AM_VIS
100
AcDbCircle
 10
227.5957090819759
 20
469.257245582468
 30
0.0
 40
31.75
100
AcDbArc
 50
335.445009608211
 51
339.5549903917905
  0
ARC
  5
260D
330
1F
100
AcDbEntity
  8
AM_VIS
100
AcDbCircle
 10
227.5957090819759
 20
469.257245582468
 30
0.0
 40
31.75
100
AcDbArc
 50
290.4450096082079
 51
294.5549903917911
  0
ARC
  5
260E
330
1F
100
AcDbEntity
  8
AM_VIS
100
AcDbCircle
 10
227.5957090819759
 20
469.257245582468
 30
0.0
 40
31.75
100
AcDbArc
 50
245.4450096082088
 51
249.554990391792
  0
ARC
  5
260F
330
1F
100
AcDbEntity
  8
AM_VIS
100
AcDbCircle
 10
227.5957090819759
 20
469.257245582468
 30
0.0
 40
31.75
100
AcDbArc
 50
200.4450096082095
 51
204.554990391789
  0
ARC
  5
2610
330
1F
100
AcDbEntity
  8
AM_VIS
100
AcDbCircle
 10
227.5957090819759
 20
469.257245582468
 30
0.0
 40
31.75
100
AcDbArc
 50
155.445009608211
 51
159.5549903917905
  0
ARC
  5
2611
330
1F
100
AcDbEntity
  8
AM_VIS
100
AcDbCircle
 10
227.5957090819759
 20
469.257245582468
 30
0.0
 40
31.75
100
AcDbArc
 50
110.4450096082079
 51
114.5549903917911
  0
ARC
  5
2612
330
1F
100
AcDbEntity
  8
AM_VIS
100
AcDbCircle
 10
227.5957090819759
 20
469.257245582468
 30
0.0
 40
29.75
100
AcDbArc
 50
135.0
 51
180.0
  0
ARC
  5
2613
330
1F
100
AcDbEntity
  8
AM_VIS
100
AcDbCircle
 10
227.5957090819759
 20
469.257245582468
 30
0.0
 40
29.75
100
AcDbArc
 50
180.0
 51
225.0
  0
ARC
  5
2614
330
1F
100
AcDbEntity
  8
AM_VIS
100
AcDbCircle
 10
227.5957090819759
 20
469.257245582468
 30
0.0
 40
29.75
100
AcDbArc
 50
225.0
 51
270.0
  0
ARC
  5
2615
330
1F
100
AcDbEntity
  8
AM_VIS
100
AcDbCircle
 10
227.5957090819759
 20
469.257245582468
 30
0.0
 40
29.75
100
AcDbArc
 50
270.0
 51
315.0
  0
ARC
  5
2616
330
1F
100
AcDbEntity
  8
AM_VIS
100
AcDbCircle
 10
227.5957090819759
 20
469.257245582468
 30
0.0
 40
29.75
100
AcDbArc
 50
315.0
 51
0.0
  0
ARC
  5
2617
330
1F
100
AcDbEntity
  8
AM_VIS
100
AcDbCircle
 10
227.5957090819759
 20
469.257245582468
 30
0.0
 40
29.75
100
AcDbArc
 50
0.0
 51
45.0
  0
ARC
  5
2618
330
1F
100
AcDbEntity
  8
AM_VIS
100
AcDbCircle
 10
227.5957090819759
 20
469.257245582468
 30
0.0
 40
29.75
100
AcDbArc
 50
45.0
 51
90.0
  0
ARC
  5
2619
330
1F
100
AcDbEntity
  8
AM_VIS
100
AcDbCircle
 10
227.5957090819759
 20
469.257245582468
 30
0.0
 40
25.2
100
AcDbArc
 50
72.24720983805321
 51
107.7527901619468
  0
ARC
  5
261A
330
1F
100
AcDbEntity
  8
AM_VIS
100
AcDbCircle
 10
227.5957090819759
 20
469.257245582468
 30
0.0
 40
25.2
100
AcDbArc
 50
252.2472098380532
 51
287.7527901619468
  0
ARC
  5
261B
330
1F
100
AcDbEntity
  8
AM_VIS
100
AcDbCircle
 10
227.5957090819759
 20
469.257245582468
 30
0.0
 40
29.75
100
AcDbArc
 50
90.0
 51
135.0
  0
LINE
  5
261C
330
1F
100
AcDbEntity
  8
AM_VIS
100
AcDbLine
 10
216.5051725755666
 20
499.007245582468
 30
0.0
 11
227.5957090819759
 21
499.007245582468
 31
0.0
  0
LINE
  5
261D
330
1F
100
AcDbEntity
  8
AM_VIS
100
AcDbLine
 10
227.5957090819759
 20
499.007245582468
 30
0.0
 11
238.6862455883852
 21
499.007245582468
 31
0.0
  0
LINE
  5
261E
330
1F
100
AcDbEntity
  8
AM_VIS
100
AcDbLine
 10
240.7899422515968
 20
498.1358658934467
 30
0.0
 11
248.6321358222756
 21
490.2936723227677
 31
0.0
  0
LINE
  5
261F
330
1F
100
AcDbEntity
  8
AM_VIS
100
AcDbLine
 10
248.6321358222756
 20
490.2936723227677
 30
0.0
 11
256.4743293929546
 21
482.451478752089
 31
0.0
  0
LINE
  5
2620
330
1F
100
AcDbEntity
  8
AM_VIS
100
AcDbLine
 10
257.3457090819759
 20
480.3477820888773
 30
0.0
 11
257.3457090819759
 21
469.257245582468
 31
0.0
  0
LINE
  5
2621
330
1F
100
AcDbEntity
  8
AM_VIS
100
AcDbLine
 10
257.3457090819759
 20
469.257245582468
 30
0.0
 11
257.3457090819759
 21
458.1667090760587
 31
0.0
  0
LINE
  5
2622
330
1F
100
AcDbEntity
  8
AM_VIS
100
AcDbLine
 10
248.6321358222756
 20
448.2208188421683
 30
0.0
 11
256.4743293929546
 21
456.0630124128471
 31
0.0
  0
LINE
  5
2623
330
1F
100
AcDbEntity
  8
AM_VIS
100
AcDbLine
 10
240.7899422515968
 20
440.3786252714893
 30
0.0
 11
248.6321358222756
 21
448.2208188421683
 31
0.0
  0
LINE
  5
2624
330
1F
100
AcDbEntity
  8
AM_VIS
100
AcDbLine
 10
227.5957090819759
 20
439.5072455824678
 30
0.0
 11
238.6862455883852
 21
439.5072455824678
 31
0.0
  0
LINE
  5
2625
330
1F
100
AcDbEntity
  8
AM_VIS
100
AcDbLine
 10
216.5051725755666
 20
439.5072455824678
 30
0.0
 11
227.5957090819759
 21
439.5072455824678
 31
0.0
  0
LINE
  5
2626
330
1F
100
AcDbEntity
  8
AM_VIS
100
AcDbLine
 10
206.5592823416762
 20
448.2208188421683
 30
0.0
 11
214.401475912355
 21
440.3786252714893
 31
0.0
  0
LINE
  5
2627
330
1F
100
AcDbEntity
  8
AM_VIS
100
AcDbLine
 10
198.7170887709972
 20
456.0630124128471
 30
0.0
 11
206.5592823416762
 21
448.2208188421683
 31
0.0
  0
LINE
  5
2628
330
1F
100
AcDbEntity
  8
AM_VIS
100
AcDbLine
 10
197.8457090819759
 20
469.257245582468
 30
0.0
 11
197.8457090819759
 21
458.1667090760587
 31
0.0
  0
LINE
  5
2629
330
1F
100
AcDbEntity
  8
AM_VIS
100
AcDbLine
 10
197.8457090819759
 20
480.3477820888773
 30
0.0
 11
197.8457090819759
 21
469.257245582468
 31
0.0
  0
LINE
  5
262A
330
1F
100
AcDbEntity
  8
AM_VIS
100
AcDbLine
 10
198.7170887709972
 20
482.451478752089
 30
0.0
 11
206.5592823416762
 21
490.2936723227677
 31
0.0
  0
LINE
  5
262B
330
1F
100
AcDbEntity
  8
AM_VIS
100
AcDbLine
 10
206.5592823416762
 20
490.2936723227677
 30
0.0
 11
214.401475912355
 21
498.1358658934467
 31
0.0
  0
LINE
  5
262C
102
{ACAD_REACTORS
330
27E2
102
}
330
1F
100
AcDbEntity
  8
AM_VIS
100
AcDbLine
 10
215.4713534289938
 20
202.3487695009667
 30
0.0
 11
221.5335312557602
 21
202.3487695009667
 31
0.0
  0
LINE
  5
262D
330
1F
100
AcDbEntity
  8
AM_VIS
100
AcDbLine
 10
221.5335312557604
 20
202.3487695009667
 30
0.0
 11
233.6578869081916
 21
202.3487695009667
 31
0.0
  0
LINE
  5
262E
330
1F
100
AcDbEntity
  8
AM_VIS
100
AcDbLine
 10
233.6578869081916
 20
202.3487695009667
 30
0.0
 11
239.720064734958
 21
202.3487695009667
 31
0.0
  0
LINE
  5
262F
330
1F
100
AcDbEntity
  8
AM_VIS
100
AcDbLine
 10
192.5957090819759
 20
211.8487695009668
 30
0.0
 11
206.2415525779134
 21
211.8487695009668
 31
0.0
  0
ARC
  5
2630
330
1F
100
AcDbEntity
  8
AM_VIS
100
AcDbCircle
 10
227.5957090819759
 20
198.8487695009667
 30
0.0
 40
25.00000000000001
100
AcDbArc
 50
143.1301023541533
 51
148.6677485024055
  0
LINE
  5
2631
330
1F
100
AcDbEntity
  8
AM_VIS
100
AcDbLine
 10
207.5957090819759
 20
213.8487695009667
 30
0.0
 11
197.5957090819759
 21
213.8487695009667
 31
0.0
  0
LINE
  5
2632
330
1F
100
AcDbEntity
  8
AM_VIS
100
AcDbLine
 10
207.5957090819759
 20
213.8487695009667
 30
0.0
 11
207.5957090819759
 21
227.3487695009668
 31
0.0
  0
LINE
  5
2633
330
1F
100
AcDbEntity
  8
AM_VIS
100
AcDbLine
 10
197.5957090819759
 20
251.3487695009667
 30
0.0
 11
197.5957090819759
 21
213.8487695009667
 31
0.0
  0
LINE
  5
2634
330
1F
100
AcDbEntity
  8
AM_VIS
100
AcDbLine
 10
196.7918615046824
 20
216.8487695009668
 30
0.0
 11
197.5957090819759
 21
213.8487695009667
 31
0.0
  0
ARC
  5
2635
330
1F
100
AcDbEntity
  8
AM_VIS
100
AcDbCircle
 10
227.5957090819759
 20
198.8487695009667
 30
0.0
 40
25.00000000000001
100
AcDbArc
 50
31.33225149759447
 51
36.86989764584663
  0
LINE
  5
2636
330
1F
100
AcDbEntity
  8
AM_VIS
100
AcDbLine
 10
257.5957090819761
 20
213.8487695009667
 30
0.0
 11
258.3995566592694
 21
216.8487695009668
 31
0.0
  0
LINE
  5
2637
330
1F
100
AcDbEntity
  8
AM_VIS
100
AcDbLine
 10
262.5957090819759
 20
216.8487695009668
 30
0.0
 11
258.399556659269
 21
216.8487695009668
 31
0.0
  0
LINE
  5
2638
330
1F
100
AcDbEntity
  8
AM_VIS
100
AcDbLine
 10
258.3995566592694
 20
216.8487695009668
 30
0.0
 11
258.3995566592694
 21
251.3487695009667
 31
0.0
  0
LINE
  5
2639
330
1F
100
AcDbEntity
  8
AM_VIS
100
AcDbLine
 10
192.5957090819759
 20
216.8487695009668
 30
0.0
 11
192.5957090819759
 21
211.8487695009668
 31
0.0
  0
LINE
  5
263A
330
1F
100
AcDbEntity
  8
AM_VIS
100
AcDbLine
 10
196.7918615046826
 20
216.8487695009668
 30
0.0
 11
192.5957090819759
 21
216.8487695009668
 31
0.0
  0
LINE
  5
263B
330
1F
100
AcDbEntity
  8
AM_VIS
100
AcDbLine
 10
192.5957090819759
 20
257.3487695009668
 30
0.0
 11
192.5957090819759
 21
216.8487695009668
 31
0.0
  0
LINE
  5
263C
330
1F
100
AcDbEntity
  8
AM_VIS
100
AcDbLine
 10
196.7918615046826
 20
251.3487695009667
 30
0.0
 11
196.7918615046826
 21
216.8487695009668
 31
0.0
  0
LINE
  5
263D
330
1F
100
AcDbEntity
  8
AM_VIS
100
AcDbLine
 10
257.5957090819759
 20
251.3487695009667
 30
0.0
 11
257.5957090819759
 21
213.8487695009667
 31
0.0
  0
LINE
  5
263E
330
1F
100
AcDbEntity
  8
AM_VIS
100
AcDbLine
 10
257.5957090819759
 20
213.8487695009667
 30
0.0
 11
247.5957090819759
 21
213.8487695009667
 31
0.0
  0
LINE
  5
263F
330
1F
100
AcDbEntity
  8
AM_VIS
100
AcDbLine
 10
247.5957090819759
 20
227.3487695009668
 30
0.0
 11
247.5957090819759
 21
213.8487695009667
 31
0.0
  0
LINE
  5
2640
330
1F
100
AcDbEntity
  8
AM_VIS
100
AcDbLine
 10
262.5957090819759
 20
257.3487695009668
 30
0.0
 11
262.5957090819759
 21
216.8487695009668
 31
0.0
  0
LINE
  5
2641
330
1F
100
AcDbEntity
  8
AM_VIS
100
AcDbLine
 10
262.5957090819759
 20
211.8487695009668
 30
0.0
 11
262.5957090819759
 21
216.8487695009668
 31
0.0
  0
LINE
  5
2642
330
1F
100
AcDbEntity
  8
AM_VIS
100
AcDbLine
 10
260.2957090819759
 20
260.8487695009667
 30
0.0
 11
262.5957090819759
 21
260.8487695009667
 31
0.0
  0
LINE
  5
2643
330
1F
100
AcDbEntity
  8
AM_VIS
100
AcDbLine
 10
262.5957090819759
 20
257.3487695009668
 30
0.0
 11
260.2957090819757
 21
257.3487695009668
 31
0.0
  0
LINE
  5
2644
330
1F
100
AcDbEntity
  8
AM_VIS
100
AcDbLine
 10
260.2957090819759
 20
257.3487695009668
 30
0.0
 11
260.2957090819759
 21
260.8487695009667
 31
0.0
  0
LINE
  5
2645
330
1F
100
AcDbEntity
  8
AM_VIS
100
AcDbLine
 10
192.5957090819759
 20
260.8487695009667
 30
0.0
 11
194.895709081976
 21
260.8487695009667
 31
0.0
  0
LINE
  5
2646
330
1F
100
AcDbEntity
  8
AM_VIS
100
AcDbLine
 10
194.8957090819758
 20
257.3487695009668
 30
0.0
 11
192.5957090819759
 21
257.3487695009668
 31
0.0
  0
LINE
  5
2647
330
1F
100
AcDbEntity
  8
AM_VIS
100
AcDbLine
 10
194.8957090819758
 20
260.8487695009667
 30
0.0
 11
194.8957090819758
 21
257.3487695009668
 31
0.0
  0
LINE
  5
2648
330
1F
100
AcDbEntity
  8
AM_VIS
100
AcDbLine
 10
192.5957090819759
 20
260.8487695009667
 30
0.0
 11
192.5957090819759
 21
274.8487695009667
 31
0.0
  0
LINE
  5
2649
330
1F
100
AcDbEntity
  8
AM_VIS
100
AcDbLine
 10
248.9498655860385
 20
211.8487695009668
 30
0.0
 11
262.5957090819759
 21
211.8487695009668
 31
0.0
  0
LINE
  5
264A
330
1F
100
AcDbEntity
  8
AM_VIS
100
AcDbLine
 10
262.5957090819759
 20
274.8487695009667
 30
0.0
 11
262.5957090819759
 21
260.8487695009667
 31
0.0
  0
LINE
  5
264B
330
1F
100
AcDbEntity
  8
AM_VIS
100
AcDbLine
 10
196.5957090819759
 20
251.3487695009667
 30
0.0
 11
200.7536476766847
 21
251.3487695009667
 31
0.0
  0
LINE
  5
264C
330
1F
100
AcDbEntity
  8
AM_VIS
100
AcDbLine
 10
196.5957090819759
 20
274.8487695009667
 30
0.0
 11
196.5957090819759
 21
251.3487695009667
 31
0.0
  0
LINE
  5
264D
330
1F
100
AcDbEntity
  8
AM_VIS
100
AcDbLine
 10
198.2034042365626
 20
267.8487695009668
 30
0.0
 11
198.2034042365626
 21
274.8487695009667
 31
0.0
  0
LINE
  5
264E
330
1F
100
AcDbEntity
  8
AM_VIS
100
AcDbLine
 10
262.5957090819759
 20
274.8487695009667
 30
0.0
 11
258.5957090819759
 21
274.8487695009667
 31
0.0
  0
LINE
  5
264F
330
1F
100
AcDbEntity
  8
AM_VIS
100
AcDbLine
 10
250.9677008670164
 20
274.8487695009667
 30
0.0
 11
256.9880139273891
 21
274.8487695009667
 31
0.0
  0
LINE
  5
2650
330
1F
100
AcDbEntity
  8
AM_VIS
100
AcDbLine
 10
198.2034042365626
 20
274.8487695009667
 30
0.0
 11
204.2237172969353
 21
274.8487695009667
 31
0.0
  0
LINE
  5
2651
330
1F
100
AcDbEntity
  8
AM_VIS
100
AcDbLine
 10
198.2034042365626
 20
274.8487695009667
 30
0.0
 11
196.5957090819759
 21
274.8487695009667
 31
0.0
  0
LINE
  5
2652
330
1F
100
AcDbEntity
  8
AM_VIS
100
AcDbLine
 10
196.5957090819759
 20
274.8487695009667
 30
0.0
 11
192.5957090819759
 21
274.8487695009667
 31
0.0
  0
LINE
  5
2653
330
1F
100
AcDbEntity
  8
AM_VIS
100
AcDbLine
 10
202.685499329263
 20
251.3487695009667
 30
0.0
 11
203.9683943805546
 21
251.3487695009667
 31
0.0
  0
LINE
  5
2654
330
1F
100
AcDbEntity
  8
AM_VIS
100
AcDbLine
 10
251.2230237833971
 20
251.3487695009667
 30
0.0
 11
252.5059188346887
 21
251.3487695009667
 31
0.0
  0
LINE
  5
2655
330
1F
100
AcDbEntity
  8
AM_VIS
100
AcDbLine
 10
210.0957090819759
 20
274.8487695009667
 30
0.0
 11
210.0957090819759
 21
267.8487695009668
 31
0.0
  0
LINE
  5
2656
330
1F
100
AcDbEntity
  8
AM_VIS
100
AcDbLine
 10
245.0957090819759
 20
274.8487695009667
 30
0.0
 11
210.0957090819759
 21
274.8487695009667
 31
0.0
  0
LINE
  5
2657
330
1F
100
AcDbEntity
  8
AM_VIS
100
AcDbLine
 10
245.0957090819759
 20
267.8487695009668
 30
0.0
 11
245.0957090819759
 21
274.8487695009667
 31
0.0
  0
LINE
  5
2658
330
1F
100
AcDbEntity
  8
AM_VIS
100
AcDbLine
 10
256.9880139273891
 20
274.8487695009667
 30
0.0
 11
256.9880139273891
 21
267.8487695009668
 31
0.0
  0
LINE
  5
2659
330
1F
100
AcDbEntity
  8
AM_VIS
100
AcDbLine
 10
258.5957090819759
 20
274.8487695009667
 30
0.0
 11
256.9880139273891
 21
274.8487695009667
 31
0.0
  0
LINE
  5
265A
330
1F
100
AcDbEntity
  8
AM_VIS
100
AcDbLine
 10
258.5957090819759
 20
251.3487695009667
 30
0.0
 11
258.5957090819759
 21
274.8487695009667
 31
0.0
  0
LINE
  5
265B
330
1F
100
AcDbEntity
  8
AM_VIS
100
AcDbLine
 10
254.437770487267
 20
251.3487695009667
 30
0.0
 11
258.5957090819759
 21
251.3487695009667
 31
0.0
  0
LINE
  5
265C
330
1F
100
AcDbEntity
  8
AM_VIS
100
AcDbLine
 10
217.5957090819759
 20
285.6487695009666
 30
0.0
 11
217.5957090819759
 21
287.8487695009667
 31
0.0
  0
LINE
  5
265D
330
1F
100
AcDbEntity
  8
AM_VIS
100
AcDbLine
 10
237.5957090819759
 20
287.8487695009667
 30
0.0
 11
217.5957090819759
 21
287.8487695009667
 31
0.0
  0
LINE
  5
265E
330
1F
100
AcDbEntity
  8
AM_VIS
100
AcDbLine
 10
237.5957090819759
 20
285.6487695009666
 30
0.0
 11
237.5957090819759
 21
287.8487695009667
 31
0.0
  0
LINE
  5
265F
330
1F
100
AcDbEntity
  8
AM_VIS
100
AcDbLine
 10
252.1116389790766
 20
306.8487695009667
 30
0.0
 11
252.1116389790766
 21
344.8487695009666
 31
0.0
  0
LINE
  5
2660
330
1F
100
AcDbEntity
  8
AM_VIS
100
AcDbLine
 10
251.6015761607317
 20
345.3487872534092
 30
0.0
 11
252.1116558510703
 21
344.8487867130708
 31
0.0
  0
LINE
  5
2661
330
1F
100
AcDbEntity
  8
AM_VIS
100
AcDbLine
 10
248.5102097292595
 20
344.8487695009667
 30
0.0
 11
248.5102097292595
 21
306.8487695009667
 31
0.0
  0
LINE
  5
2662
330
1F
100
AcDbEntity
  8
AM_VIS
100
AcDbLine
 10
248.1489064819609
 20
345.3487825288525
 30
0.0
 11
248.510227203802
 21
344.8487821287852
 31
0.0
  0
LINE
  5
2663
330
1F
100
AcDbEntity
  8
AM_VIS
100
AcDbLine
 10
248.1488884537997
 20
345.3487695009667
 30
0.0
 11
248.1488884537997
 21
306.8487695009667
 31
0.0
  0
LINE
  5
2664
330
1F
100
AcDbEntity
  8
AM_VIS
100
AcDbLine
 10
241.4692126081495
 20
306.8487695009667
 30
0.0
 11
241.4692126081495
 21
344.8487695009666
 31
0.0
  0
LINE
  5
2665
330
1F
100
AcDbEntity
  8
AM_VIS
100
AcDbLine
 10
241.1085479436153
 20
345.3487814163882
 30
0.0
 11
241.4692286200465
 21
344.848781051322
 31
0.0
  0
LINE
  5
2666
330
1F
100
AcDbEntity
  8
AM_VIS
100
AcDbLine
 10
232.6998760292208
 20
344.8487695009667
 30
0.0
 11
232.6998760292208
 21
306.8487695009667
 31
0.0
  0
LINE
  5
2667
330
1F
100
AcDbEntity
  8
AM_VIS
100
AcDbLine
 10
232.6998760292208
 20
345.3487695009667
 30
0.0
 11
232.6998760292208
 21
344.8487695009667
 31
0.0
  0
LINE
  5
2668
330
1F
100
AcDbEntity
  8
AM_VIS
100
AcDbLine
 10
222.6998760292208
 20
306.8487695009667
 30
0.0
 11
222.6998760292208
 21
344.8487695009666
 31
0.0
  0
LINE
  5
2669
330
1F
100
AcDbEntity
  8
AM_VIS
100
AcDbLine
 10
222.6998760292208
 20
345.3487695009666
 30
0.0
 11
222.6998760292208
 21
344.8487695009667
 31
0.0
  0
LINE
  5
266A
330
1F
100
AcDbEntity
  8
AM_VIS
100
AcDbLine
 10
213.8995905561026
 20
344.8487695009667
 30
0.0
 11
213.8995905561026
 21
306.8487695009667
 31
0.0
  0
LINE
  5
266B
330
1F
100
AcDbEntity
  8
AM_VIS
100
AcDbLine
 10
213.89957308156
 20
344.8487821287852
 30
0.0
 11
214.2608938034014
 21
345.3487825288525
 31
0.0
  0
LINE
  5
266C
330
1F
100
AcDbEntity
  8
AM_VIS
100
AcDbLine
 10
207.1591332359929
 20
345.3487695009666
 30
0.0
 11
207.1591332359929
 21
306.8487695009667
 31
0.0
  0
LINE
  5
266D
330
1F
100
AcDbEntity
  8
AM_VIS
100
AcDbLine
 10
206.7984520534817
 20
306.8487695009667
 30
0.0
 11
206.7984520534817
 21
344.8487695009666
 31
0.0
  0
LINE
  5
266E
330
1F
100
AcDbEntity
  8
AM_VIS
100
AcDbLine
 10
206.7984360415846
 20
344.848781051322
 30
0.0
 11
207.1591167180157
 21
345.3487814163882
 31
0.0
  0
LINE
  5
266F
330
1F
100
AcDbEntity
  8
AM_VIS
100
AcDbLine
 10
203.1223055635714
 20
344.8487695009667
 30
0.0
 11
203.1223055635714
 21
306.8487695009667
 31
0.0
  0
LINE
  5
2670
330
1F
100
AcDbEntity
  8
AM_VIS
100
AcDbLine
 10
203.1222871611369
 20
344.8487883076756
 30
0.0
 11
203.633272030541
 21
345.3487888991156
 31
0.0
  0
LINE
  5
2671
330
1F
100
AcDbEntity
  8
AM_VIS
100
AcDbLine
 10
203.0797791848752
 20
306.8487695009667
 30
0.0
 11
203.0797791848752
 21
344.8487695009666
 31
0.0
  0
LINE
  5
2672
330
1F
100
AcDbEntity
  8
AM_VIS
100
AcDbLine
 10
203.0797791686509
 20
344.8487695175115
 30
0.0
 11
203.0957090657364
 21
344.8643907723905
 31
0.0
  0
LINE
  5
2673
330
1F
100
AcDbEntity
  8
AM_VIS
100
AcDbLine
 10
199.8479327645418
 20
267.8487695009668
 30
0.0
 11
198.2034042365626
 21
267.8487695009668
 31
0.0
  0
LINE
  5
2674
330
1F
100
AcDbEntity
  8
AM_VIS
100
AcDbLine
 10
210.0957090819759
 20
267.8487695009668
 30
0.0
 11
202.685499329263
 21
267.8487695009668
 31
0.0
  0
LINE
  5
2675
330
1F
100
AcDbEntity
  8
AM_VIS
100
AcDbLine
 10
200.7536476766847
 20
267.8487695009668
 30
0.0
 11
200.3482948710266
 21
267.8487695009668
 31
0.0
  0
LINE
  5
2676
330
1F
100
AcDbEntity
  8
AM_VIS
100
AcDbLine
 10
254.8431232929252
 20
267.8487695009668
 30
0.0
 11
254.437770487267
 21
267.8487695009668
 31
0.0
  0
LINE
  5
2677
330
1F
100
AcDbEntity
  8
AM_VIS
100
AcDbLine
 10
252.5059188346887
 20
267.8487695009668
 30
0.0
 11
245.0957090819759
 21
267.8487695009668
 31
0.0
  0
LINE
  5
2678
330
1F
100
AcDbEntity
  8
AM_VIS
100
AcDbLine
 10
256.9880139273891
 20
267.8487695009668
 30
0.0
 11
255.3434853994099
 21
267.8487695009668
 31
0.0
  0
LINE
  5
2679
330
1F
100
AcDbEntity
  8
AM_VIS
100
AcDbLine
 10
241.220064734958
 20
208.3487695009667
 30
0.0
 11
241.220064734958
 21
203.8487695009667
 31
0.0
  0
LINE
  5
267A
330
1F
100
AcDbEntity
  8
AM_VIS
100
AcDbLine
 10
213.9713534289938
 20
208.3487695009667
 30
0.0
 11
213.9713534289938
 21
203.8487695009667
 31
0.0
  0
LINE
  5
267B
330
1F
100
AcDbEntity
  8
AM_VIS
100
AcDbLine
 10
202.5957090819759
 20
211.8487695009668
 30
0.0
 11
202.5957090819759
 21
208.3487695009667
 31
0.0
  0
LINE
  5
267C
330
1F
100
AcDbEntity
  8
AM_VIS
100
AcDbLine
 10
252.5957090819759
 20
211.8487695009668
 30
0.0
 11
252.5957090819759
 21
208.3487695009667
 31
0.0
  0
LINE
  5
267D
330
1F
100
AcDbEntity
  8
AM_VIS
100
AcDbLine
 10
201.5957090819759
 20
285.6487695009666
 30
0.0
 11
201.5957090819759
 21
287.8487695009667
 31
0.0
  0
LINE
  5
267E
330
1F
100
AcDbEntity
  8
AM_VIS
100
AcDbLine
 10
253.5957090819759
 20
285.6487695009666
 30
0.0
 11
253.5957090819759
 21
287.8487695009667
 31
0.0
  0
LINE
  5
267F
330
1F
100
AcDbEntity
  8
AM_VIS
100
AcDbLine
 10
249.5957090819759
 20
287.8487695009667
 30
0.0
 11
249.5957090819759
 21
296.8487695009667
 31
0.0
  0
LINE
  5
2680
330
1F
100
AcDbEntity
  8
AM_VIS
100
AcDbLine
 10
205.5957090819759
 20
287.8487695009667
 30
0.0
 11
205.5957090819759
 21
296.8487695009667
 31
0.0
  0
LINE
  5
2681
330
1F
100
AcDbEntity
  8
AM_VIS
100
AcDbLine
 10
252.5957090819759
 20
296.8487695009667
 30
0.0
 11
252.5957090819759
 21
306.8487695009667
 31
0.0
  0
LINE
  5
2682
330
1F
100
AcDbEntity
  8
AM_VIS
100
AcDbLine
 10
202.5957090819759
 20
296.8487695009667
 30
0.0
 11
202.5957090819759
 21
306.8487695009667
 31
0.0
  0
LINE
  5
2683
330
1F
100
AcDbEntity
  8
AM_VIS
100
AcDbLine
 10
204.5957090819759
 20
346.8487695009667
 30
0.0
 11
203.0957090819759
 21
345.3487695009667
 31
0.0
  0
LINE
  5
2684
330
1F
100
AcDbEntity
  8
AM_VIS
100
AcDbLine
 10
250.5957090819759
 20
346.8487695009667
 30
0.0
 11
252.0957090819759
 21
345.3487695009667
 31
0.0
  0
LINE
  5
2685
330
1F
100
AcDbEntity
  8
AM_VIS
100
AcDbLine
 10
252.0957090819759
 20
345.3487695009667
 30
0.0
 11
252.0957090819759
 21
344.8643907558298
 31
0.0
  0
LINE
  5
2686
330
1F
100
AcDbEntity
  8
AM_VIS
100
AcDbLine
 10
203.0957090819759
 20
345.3487695009667
 30
0.0
 11
203.0957090819759
 21
306.8487695009667
 31
0.0
  0
LINE
  5
2687
330
1F
100
AcDbEntity
  8
AM_VIS
100
AcDbLine
 10
208.3457090819759
 20
267.8487695009668
 30
0.0
 11
208.3457090819759
 21
273.3487695009667
 31
0.0
  0
LINE
  5
2688
330
1F
100
AcDbEntity
  8
AM_VIS
100
AcDbLine
 10
199.8457090819759
 20
267.8487695009668
 30
0.0
 11
199.8457090819759
 21
273.3487695009667
 31
0.0
  0
LINE
  5
2689
330
1F
100
AcDbEntity
  8
AM_VIS
100
AcDbLine
 10
255.3457090819759
 20
267.8487695009668
 30
0.0
 11
255.3457090819759
 21
273.3487695009667
 31
0.0
  0
LINE
  5
268A
330
1F
100
AcDbEntity
  8
AM_VIS
100
AcDbLine
 10
246.8457090819759
 20
267.8487695009668
 30
0.0
 11
246.8457090819759
 21
273.3487695009667
 31
0.0
  0
CIRCLE
  5
268B
330
1F
100
AcDbEntity
  8
AM_VIS
  6
ACISOTGB
 62
     2
100
AcDbCircle
 10
227.5957090819759
 20
239.3487695009668
 30
0.0
 40
26.5
  0
CIRCLE
  5
268C
330
1F
100
AcDbEntity
  8
AM_VIS
  6
ACISOTGB
 62
     2
100
AcDbCircle
 10
227.5957090819759
 20
239.3487695009668
 30
0.0
 40
23.0
  0
LINE
  5
268D
330
1F
100
AcDbEntity
  8
AM_VIS
100
AcDbLine
 10
252.5957090819759
 20
208.3487695009667
 30
0.0
 11
202.5957090819759
 21
208.3487695009667
 31
0.0
  0
LINE
  5
268E
330
1F
100
AcDbEntity
  8
AM_VIS
100
AcDbLine
 10
245.1156884112695
 20
274.8487695009667
 30
0.0
 11
245.0957090819759
 21
274.8487695009667
 31
0.0
  0
LINE
  5
268F
330
1F
100
AcDbEntity
  8
AM_VIS
100
AcDbLine
 10
210.0957090819759
 20
274.8487695009667
 30
0.0
 11
210.0757297526822
 21
274.8487695009667
 31
0.0
  0
LINE
  5
2690
330
1F
100
AcDbEntity
  8
AM_VIS
100
AcDbLine
 10
202.685499329263
 20
251.3487695009667
 30
0.0
 11
200.7536476766847
 21
251.3487695009667
 31
0.0
  0
LINE
  5
2691
330
1F
100
AcDbEntity
  8
AM_VIS
100
AcDbLine
 10
254.437770487267
 20
251.3487695009667
 30
0.0
 11
252.5059188346887
 21
251.3487695009667
 31
0.0
  0
LINE
  5
2692
330
1F
100
AcDbEntity
  8
AM_VIS
100
AcDbLine
 10
201.5957090819759
 20
287.8487695009667
 30
0.0
 11
217.5957090819759
 21
287.8487695009667
 31
0.0
  0
LINE
  5
2693
330
1F
100
AcDbEntity
  8
AM_VIS
100
AcDbLine
 10
237.5957090819759
 20
287.8487695009667
 30
0.0
 11
253.5957090819759
 21
287.8487695009667
 31
0.0
  0
LINE
  5
2694
330
1F
100
AcDbEntity
  8
AM_VIS
100
AcDbLine
 10
252.5957090819759
 20
296.8487695009667
 30
0.0
 11
202.5957090819759
 21
296.8487695009667
 31
0.0
  0
LINE
  5
2695
330
1F
100
AcDbEntity
  8
AM_VIS
100
AcDbLine
 10
252.1116389790766
 20
344.8487695009667
 30
0.0
 11
248.5102097292595
 21
344.8487695009667
 31
0.0
  0
LINE
  5
2696
330
1F
100
AcDbEntity
  8
AM_VIS
100
AcDbLine
 10
241.4692126081495
 20
344.8487695009667
 30
0.0
 11
232.6998760292208
 21
344.8487695009667
 31
0.0
  0
LINE
  5
2697
330
1F
100
AcDbEntity
  8
AM_VIS
100
AcDbLine
 10
222.6998760292208
 20
344.8487695009667
 30
0.0
 11
213.8995905561026
 21
344.8487695009667
 31
0.0
  0
LINE
  5
2698
330
1F
100
AcDbEntity
  8
AM_VIS
100
AcDbLine
 10
206.7984520534817
 20
344.8487695009667
 30
0.0
 11
203.1223055635714
 21
344.8487695009667
 31
0.0
  0
LINE
  5
2699
102
{ACAD_REACTORS
330
27E2
102
}
330
1F
100
AcDbEntity
  8
AM_VIS
100
AcDbLine
 10
204.5957090819759
 20
346.8487695009667
 30
0.0
 11
250.5957090819759
 21
346.8487695009667
 31
0.0
  0
LINE
  5
269A
330
1F
100
AcDbEntity
  8
AM_VIS
100
AcDbLine
 10
252.1116389790766
 20
306.8487695009667
 30
0.0
 11
252.5957090819759
 21
306.8487695009667
 31
0.0
  0
LINE
  5
269B
330
1F
100
AcDbEntity
  8
AM_VIS
100
AcDbLine
 10
252.0957090819759
 20
345.3487695009667
 30
0.0
 11
251.6015587590764
 21
345.3487695009667
 31
0.0
  0
LINE
  5
269C
330
1F
100
AcDbEntity
  8
AM_VIS
100
AcDbLine
 10
241.4692126081495
 20
306.8487695009667
 30
0.0
 11
248.5102097292595
 21
306.8487695009667
 31
0.0
  0
LINE
  5
269D
330
1F
100
AcDbEntity
  8
AM_VIS
100
AcDbLine
 10
248.1488884537996
 20
345.3487695009667
 30
0.0
 11
241.1085314256382
 21
345.3487695009667
 31
0.0
  0
LINE
  5
269E
330
1F
100
AcDbEntity
  8
AM_VIS
100
AcDbLine
 10
222.6998760292208
 20
306.8487695009667
 30
0.0
 11
232.6998760292208
 21
306.8487695009667
 31
0.0
  0
LINE
  5
269F
330
1F
100
AcDbEntity
  8
AM_VIS
100
AcDbLine
 10
232.6998760292208
 20
345.3487695009667
 30
0.0
 11
222.6998760292208
 21
345.3487695009667
 31
0.0
  0
LINE
  5
26A0
330
1F
100
AcDbEntity
  8
AM_VIS
100
AcDbLine
 10
206.7984520534817
 20
306.8487695009667
 30
0.0
 11
213.8995905561026
 21
306.8487695009667
 31
0.0
  0
LINE
  5
26A1
330
1F
100
AcDbEntity
  8
AM_VIS
100
AcDbLine
 10
214.2609118315625
 20
345.3487695009667
 30
0.0
 11
207.1591332359929
 21
345.3487695009667
 31
0.0
  0
LINE
  5
26A2
330
1F
100
AcDbEntity
  8
AM_VIS
100
AcDbLine
 10
202.5957090819759
 20
306.8487695009667
 30
0.0
 11
203.1223055635714
 21
306.8487695009667
 31
0.0
  0
LINE
  5
26A3
330
1F
100
AcDbEntity
  8
AM_VIS
100
AcDbLine
 10
203.6332910117007
 20
345.3487695009667
 30
0.0
 11
203.0957090819759
 21
345.3487695009667
 31
0.0
  0
LINE
  5
26A4
330
1F
100
AcDbEntity
  8
AM_VIS
100
AcDbLine
 10
200.7536476766847
 20
267.8487695009668
 30
0.0
 11
202.685499329263
 21
267.8487695009668
 31
0.0
  0
LINE
  5
26A5
330
1F
100
AcDbEntity
  8
AM_VIS
100
AcDbLine
 10
252.5059188346887
 20
267.8487695009668
 30
0.0
 11
254.437770487267
 21
267.8487695009668
 31
0.0
  0
LINE
  5
26A6
330
1F
100
AcDbEntity
  8
AM_VIS
100
AcDbLine
 10
200.3482948710266
 20
267.8487695009668
 30
0.0
 11
199.8479327645418
 21
267.8487695009668
 31
0.0
  0
LINE
  5
26A7
330
1F
100
AcDbEntity
  8
AM_VIS
100
AcDbLine
 10
200.3457090819759
 20
273.8487695009667
 30
0.0
 11
207.8457090819759
 21
273.8487695009667
 31
0.0
  0
LINE
  5
26A8
330
1F
100
AcDbEntity
  8
AM_VIS
100
AcDbLine
 10
255.3434853994099
 20
267.8487695009668
 30
0.0
 11
254.8431232929252
 21
267.8487695009668
 31
0.0
  0
LINE
  5
26A9
330
1F
100
AcDbEntity
  8
AM_VIS
100
AcDbLine
 10
247.3457090819759
 20
273.8487695009667
 30
0.0
 11
254.8457090819759
 21
273.8487695009667
 31
0.0
  0
ARC
  5
26AA
330
1F
100
AcDbEntity
  8
AM_VIS
100
AcDbCircle
 10
215.4713534289938
 20
203.8487695009667
 30
0.0
 40
1.5
100
AcDbArc
 50
180.0
 51
270.0
  0
ARC
  5
26AB
330
1F
100
AcDbEntity
  8
AM_VIS
100
AcDbCircle
 10
239.720064734958
 20
203.8487695009667
 30
0.0
 40
1.5
100
AcDbArc
 50
270.0
 51
0.0
  0
ARC
  5
26AC
330
1F
100
AcDbEntity
  8
AM_VIS
100
AcDbCircle
 10
207.8457090819759
 20
273.3487695009667
 30
0.0
 40
0.5
100
AcDbArc
 50
0.0
 51
90.0
  0
ARC
  5
26AD
330
1F
100
AcDbEntity
  8
AM_VIS
100
AcDbCircle
 10
200.3457090819759
 20
273.3487695009667
 30
0.0
 40
0.5
100
AcDbArc
 50
90.0
 51
180.0
  0
ARC
  5
26AE
330
1F
100
AcDbEntity
  8
AM_VIS
100
AcDbCircle
 10
254.8457090819759
 20
273.3487695009667
 30
0.0
 40
0.5
100
AcDbArc
 50
0.0
 51
90.0
  0
ARC
  5
26AF
330
1F
100
AcDbEntity
  8
AM_VIS
100
AcDbCircle
 10
247.3457090819759
 20
273.3487695009667
 30
0.0
 40
0.5
100
AcDbArc
 50
90.0
 51
180.0
  0
LINE
  5
26B0
330
1F
100
AcDbEntity
  8
AM_VIS
100
AcDbLine
 10
194.0957090819759
 20
274.8487695009667
 30
0.0
 11
194.0957090819759
 21
277.1487695009666
 31
0.0
  0
LINE
  5
26B1
330
1F
100
AcDbEntity
  8
AM_VIS
100
AcDbLine
 10
261.0957090819759
 20
274.8487695009667
 30
0.0
 11
261.0957090819759
 21
277.1487695009666
 31
0.0
  0
LINE
  5
26B2
330
1F
100
AcDbEntity
  8
AM_VIS
100
AcDbLine
 10
194.0957090819759
 20
277.6487695009667
 30
0.0
 11
194.0957090819759
 21
297.4987695009668
 31
0.0
  0
LINE
  5
26B3
330
1F
100
AcDbEntity
  8
AM_VIS
100
AcDbLine
 10
258.5957090819759
 20
299.9987695009667
 30
0.0
 11
252.5957090819759
 21
299.9987695009667
 31
0.0
  0
LINE
  5
26B4
330
1F
100
AcDbEntity
  8
AM_VIS
100
AcDbLine
 10
202.5957090819759
 20
299.9987695009667
 30
0.0
 11
196.5957090819759
 21
299.9987695009667
 31
0.0
  0
LINE
  5
26B5
330
1F
100
AcDbEntity
  8
AM_VIS
100
AcDbLine
 10
261.0957090819759
 20
277.6487695009667
 30
0.0
 11
261.0957090819759
 21
297.4987695009668
 31
0.0
  0
LINE
  5
26B6
330
1F
100
AcDbEntity
  8
AM_VIS
100
AcDbLine
 10
249.5957090819759
 20
295.4987695009667
 30
0.0
 11
254.5957090819759
 21
295.4987695009667
 31
0.0
  0
LINE
  5
26B7
330
1F
100
AcDbEntity
  8
AM_VIS
100
AcDbLine
 10
254.5957090819759
 20
288.9987695009668
 30
0.0
 11
249.5957090819759
 21
288.9987695009668
 31
0.0
  0
LINE
  5
26B8
330
1F
100
AcDbEntity
  8
AM_VIS
100
AcDbLine
 10
200.5957090819759
 20
295.4987695009667
 30
0.0
 11
205.5957090819759
 21
295.4987695009667
 31
0.0
  0
LINE
  5
26B9
330
1F
100
AcDbEntity
  8
AM_VIS
100
AcDbLine
 10
205.5957090819759
 20
288.9987695009668
 30
0.0
 11
200.5957090819759
 21
288.9987695009668
 31
0.0
  0
LINE
  5
26BA
330
1F
100
AcDbEntity
  8
AM_VIS
100
AcDbLine
 10
261.0957090819759
 20
277.1487695009666
 30
0.0
 11
261.0957090819759
 21
277.6487695009667
 31
0.0
  0
LINE
  5
26BB
330
1F
100
AcDbEntity
  8
AM_VIS
100
AcDbLine
 10
194.0957090819759
 20
277.1487695009666
 30
0.0
 11
261.0957090819759
 21
277.1487695009666
 31
0.0
  0
LINE
  5
26BC
330
1F
100
AcDbEntity
  8
AM_VIS
100
AcDbLine
 10
210.0757297526822
 20
274.8487695009667
 30
0.0
 11
204.2237172969353
 21
274.8487695009667
 31
0.0
  0
LINE
  5
26BD
330
1F
100
AcDbEntity
  8
AM_VIS
100
AcDbLine
 10
250.9677008670164
 20
274.8487695009667
 30
0.0
 11
245.1156884112695
 21
274.8487695009667
 31
0.0
  0
LINE
  5
26BE
330
1F
100
AcDbEntity
  8
AM_VIS
100
AcDbLine
 10
194.0957090819759
 20
277.6487695009667
 30
0.0
 11
194.0957090819759
 21
277.1487695009666
 31
0.0
  0
ARC
  5
26BF
330
1F
100
AcDbEntity
  8
AM_VIS
100
AcDbCircle
 10
196.5957090819759
 20
297.4987695009668
 30
0.0
 40
2.5
100
AcDbArc
 50
90.0
 51
180.0
  0
ARC
  5
26C0
330
1F
100
AcDbEntity
  8
AM_VIS
100
AcDbCircle
 10
258.5957090819759
 20
297.4987695009668
 30
0.0
 40
2.5
100
AcDbArc
 50
0.0
 51
90.0
  0
ARC
  5
26C1
330
1F
100
AcDbEntity
  8
AM_VIS
100
AcDbCircle
 10
254.5957090819759
 20
292.2487695009668
 30
0.0
 40
3.25
100
AcDbArc
 50
270.0
 51
90.0
  0
ARC
  5
26C2
330
1F
100
AcDbEntity
  8
AM_VIS
100
AcDbCircle
 10
200.5957090819759
 20
292.2487695009668
 30
0.0
 40
3.25
100
AcDbArc
 50
90.0
 51
270.0
  0
LINE
  5
26C3
330
1F
100
AcDbEntity
  8
AM_VIS
100
AcDbLine
 10
197.8457090819759
 20
285.6487695009666
 30
0.0
 11
197.8457090819759
 21
284.6487695009667
 31
0.0
  0
LINE
  5
26C4
330
1F
100
AcDbEntity
  8
AM_VIS
100
AcDbLine
 10
197.8457090819759
 20
284.6487695009667
 30
0.0
 11
197.8457090819759
 21
278.5487695009667
 31
0.0
  0
LINE
  5
26C5
330
1F
100
AcDbEntity
  8
AM_VIS
100
AcDbLine
 10
198.7170887709972
 20
278.5487695009667
 30
0.0
 11
198.7170887709972
 21
284.6487695009667
 31
0.0
  0
SPLINE
  5
26C6
330
1F
100
AcDbEntity
  8
AM_VIS
100
AcDbSpline
210
0.0
220
0.0
230
1.0
 70
    12
 71
     2
 72
     6
 73
     3
 74
     0
 42
0.0000000001
 43
0.0000000001
 40
0.0
 40
0.0
 40
0.0
 40
11.14612341701043
 40
11.14612341701043
 40
11.14612341701043
 10
198.7170887709972
 20
284.6487695009667
 30
0.0
 41
1.0
 10
202.7657008989494
 20
285.6487695009666
 30
0.0
 41
1.016667814666111
 10
206.5592823416762
 20
285.6487695009666
 30
0.0
 41
1.0
  0
SPLINE
  5
26C7
330
1F
100
AcDbEntity
  8
AM_VIS
100
AcDbSpline
210
0.0
220
0.0
230
1.0
 70
    12
 71
     2
 72
     6
 73
     3
 74
     0
 42
0.0000000001
 43
0.0000000001
 40
11.14612341701043
 40
11.14612341701043
 40
11.14612341701043
 40
22.29224683402087
 40
22.29224683402087
 40
22.29224683402087
 10
206.5592823416762
 20
285.6487695009666
 30
0.0
 41
1.0
 10
210.3528637844028
 20
285.6487695009666
 30
0.0
 41
1.016667814666111
 10
214.401475912355
 20
284.6487695009667
 30
0.0
 41
1.0
  0
LINE
  5
26C8
330
1F
100
AcDbEntity
  8
AM_VIS
100
AcDbLine
 10
214.401475912355
 20
284.6487695009667
 30
0.0
 11
214.401475912355
 21
278.5487695009667
 31
0.0
  0
LINE
  5
26C9
330
1F
100
AcDbEntity
  8
AM_VIS
100
AcDbLine
 10
216.5051725755666
 20
278.5487695009667
 30
0.0
 11
216.5051725755666
 21
284.6487695009667
 31
0.0
  0
SPLINE
  5
26CA
330
1F
100
AcDbEntity
  8
AM_VIS
100
AcDbSpline
210
0.0
220
0.0
230
1.0
 70
    12
 71
     2
 72
     6
 73
     3
 74
     0
 42
0.0000000001
 43
0.0000000001
 40
0.0
 40
0.0
 40
0.0
 40
11.14612341701054
 40
11.14612341701054
 40
11.14612341701054
 10
216.5051725755666
 20
284.6487695009667
 30
0.0
 41
1.0
 10
222.2307747557047
 20
285.6487695009666
 30
0.0
 41
1.016667814666208
 10
227.5957090819759
 20
285.6487695009666
 30
0.0
 41
1.0
  0
SPLINE
  5
26CB
330
1F
100
AcDbEntity
  8
AM_VIS
100
AcDbSpline
210
0.0
220
0.0
230
1.0
 70
    12
 71
     2
 72
     6
 73
     3
 74
     0
 42
0.0000000001
 43
0.0000000001
 40
11.14612341701054
 40
11.14612341701054
 40
11.14612341701054
 40
22.29224683402108
 40
22.29224683402108
 40
22.29224683402108
 10
227.5957090819759
 20
285.6487695009666
 30
0.0
 41
1.0
 10
232.960643408247
 20
285.6487695009666
 30
0.0
 41
1.016667814666208
 10
238.6862455883852
 20
284.6487695009667
 30
0.0
 41
1.0
  0
LINE
  5
26CC
330
1F
100
AcDbEntity
  8
AM_VIS
100
AcDbLine
 10
238.6862455883852
 20
284.6487695009667
 30
0.0
 11
238.6862455883852
 21
278.5487695009667
 31
0.0
  0
LINE
  5
26CD
330
1F
100
AcDbEntity
  8
AM_VIS
100
AcDbLine
 10
240.7899422515968
 20
278.5487695009667
 30
0.0
 11
240.7899422515968
 21
284.6487695009667
 31
0.0
  0
SPLINE
  5
26CE
330
1F
100
AcDbEntity
  8
AM_VIS
100
AcDbSpline
210
0.0
220
0.0
230
1.0
 70
    12
 71
     2
 72
     6
 73
     3
 74
     0
 42
0.0000000001
 43
0.0000000001
 40
0.0
 40
0.0
 40
0.0
 40
11.14612341701043
 40
11.14612341701043
 40
11.14612341701043
 10
240.7899422515968
 20
284.6487695009667
 30
0.0
 41
1.0
 10
244.838554379549
 20
285.6487695009666
 30
0.0
 41
1.016667814666111
 10
248.6321358222756
 20
285.6487695009666
 30
0.0
 41
1.0
  0
SPLINE
  5
26CF
330
1F
100
AcDbEntity
  8
AM_VIS
100
AcDbSpline
210
0.0
220
0.0
230
1.0
 70
    12
 71
     2
 72
     6
 73
     3
 74
     0
 42
0.0000000001
 43
0.0000000001
 40
11.14612341701043
 40
11.14612341701043
 40
11.14612341701043
 40
22.29224683402087
 40
22.29224683402087
 40
22.29224683402087
 10
248.6321358222756
 20
285.6487695009666
 30
0.0
 41
1.0
 10
252.4257172650025
 20
285.6487695009666
 30
0.0
 41
1.016667814666111
 10
256.4743293929546
 20
284.6487695009667
 30
0.0
 41
1.0
  0
LINE
  5
26D0
330
1F
100
AcDbEntity
  8
AM_VIS
100
AcDbLine
 10
256.4743293929546
 20
284.6487695009667
 30
0.0
 11
256.4743293929546
 21
278.5487695009667
 31
0.0
  0
LINE
  5
26D1
330
1F
100
AcDbEntity
  8
AM_VIS
100
AcDbLine
 10
257.3457090819759
 20
278.5487695009667
 30
0.0
 11
257.3457090819759
 21
284.6487695009667
 31
0.0
  0
LINE
  5
26D2
330
1F
100
AcDbEntity
  8
AM_VIS
100
AcDbLine
 10
257.3457090819759
 20
285.6487695009666
 30
0.0
 11
257.3457090819759
 21
284.6487695009667
 31
0.0
  0
LINE
  5
26D3
330
1F
100
AcDbEntity
  8
AM_VIS
100
AcDbLine
 10
259.3457090819759
 20
277.1487695009666
 30
0.0
 11
259.3457090819759
 21
278.5487695009667
 31
0.0
  0
LINE
  5
26D4
330
1F
100
AcDbEntity
  8
AM_VIS
100
AcDbLine
 10
195.8457090819759
 20
277.1487695009666
 30
0.0
 11
195.8457090819759
 21
278.5487695009667
 31
0.0
  0
LINE
  5
26D5
330
1F
100
AcDbEntity
  8
AM_VIS
100
AcDbLine
 10
257.3457090819759
 20
285.6487695009666
 30
0.0
 11
248.6321358222756
 21
285.6487695009666
 31
0.0
  0
LINE
  5
26D6
330
1F
100
AcDbEntity
  8
AM_VIS
100
AcDbLine
 10
248.6321358222756
 20
285.6487695009666
 30
0.0
 11
227.5957090819759
 21
285.6487695009666
 31
0.0
  0
LINE
  5
26D7
330
1F
100
AcDbEntity
  8
AM_VIS
100
AcDbLine
 10
227.5957090819759
 20
285.6487695009666
 30
0.0
 11
206.5592823416762
 21
285.6487695009666
 31
0.0
  0
LINE
  5
26D8
330
1F
100
AcDbEntity
  8
AM_VIS
100
AcDbLine
 10
206.5592823416762
 20
285.6487695009666
 30
0.0
 11
197.8457090819759
 21
285.6487695009666
 31
0.0
  0
LINE
  5
26D9
330
1F
100
AcDbEntity
  8
AM_VIS
100
AcDbLine
 10
197.8457090819759
 20
284.6487695009667
 30
0.0
 11
198.7170887709972
 21
284.6487695009667
 31
0.0
  0
LINE
  5
26DA
330
1F
100
AcDbEntity
  8
AM_VIS
100
AcDbLine
 10
214.401475912355
 20
284.6487695009667
 30
0.0
 11
216.5051725755666
 21
284.6487695009667
 31
0.0
  0
LINE
  5
26DB
330
1F
100
AcDbEntity
  8
AM_VIS
100
AcDbLine
 10
238.6862455883854
 20
284.6487695009667
 30
0.0
 11
240.7899422515968
 21
284.6487695009667
 31
0.0
  0
LINE
  5
26DC
330
1F
100
AcDbEntity
  8
AM_VIS
100
AcDbLine
 10
256.4743293929546
 20
284.6487695009667
 30
0.0
 11
257.3457090819759
 21
284.6487695009667
 31
0.0
  0
LINE
  5
26DD
330
1F
100
AcDbEntity
  8
AM_VIS
100
AcDbLine
 10
195.8457090819759
 20
278.5487695009667
 30
0.0
 11
197.8457090819759
 21
278.5487695009667
 31
0.0
  0
LINE
  5
26DE
330
1F
100
AcDbEntity
  8
AM_VIS
100
AcDbLine
 10
198.7170887709972
 20
278.5487695009667
 30
0.0
 11
214.401475912355
 21
278.5487695009667
 31
0.0
  0
LINE
  5
26DF
330
1F
100
AcDbEntity
  8
AM_VIS
100
AcDbLine
 10
216.5051725755666
 20
278.5487695009667
 30
0.0
 11
238.6862455883854
 21
278.5487695009667
 31
0.0
  0
LINE
  5
26E0
330
1F
100
AcDbEntity
  8
AM_VIS
100
AcDbLine
 10
240.7899422515968
 20
278.5487695009667
 30
0.0
 11
256.4743293929546
 21
278.5487695009667
 31
0.0
  0
LINE
  5
26E1
330
1F
100
AcDbEntity
  8
AM_VIS
100
AcDbLine
 10
257.3457090819759
 20
278.5487695009667
 30
0.0
 11
259.3457090819759
 21
278.5487695009667
 31
0.0
  0
LINE
  5
26E2
330
1F
100
AcDbEntity
  8
AM_VIS
  6
ACISOTGB
 62
     2
100
AcDbLine
 10
359.0379855426125
 20
232.3487695009668
 30
0.0
 11
354.0379855426124
 21
232.3487695009668
 31
0.0
  0
LINE
  5
26E3
330
1F
100
AcDbEntity
  8
AM_VIS
  6
ACISOTGB
 62
     2
100
AcDbLine
 10
359.0379855426125
 20
246.3487695009668
 30
0.0
 11
354.0379855426124
 21
246.3487695009668
 31
0.0
  0
LINE
  5
26E4
330
1F
100
AcDbEntity
  8
AM_VIS
  6
ACISOTGB
 62
     2
100
AcDbLine
 10
359.0379855426125
 20
239.3487695009668
 30
0.0
 11
354.0379855426124
 21
239.3487695009668
 31
0.0
  0
LINE
  5
26E5
330
1F
100
AcDbEntity
  8
AM_VIS
  6
ACISOTGB
 62
     2
100
AcDbLine
 10
359.0379855426125
 20
239.3487695009668
 30
0.0
 11
359.0379855426125
 21
232.3487695009668
 31
0.0
  0
LINE
  5
26E6
330
1F
100
AcDbEntity
  8
AM_VIS
  6
ACISOTGB
 62
     2
100
AcDbLine
 10
359.0379855426125
 20
246.3487695009668
 30
0.0
 11
359.0379855426125
 21
239.3487695009668
 31
0.0
  0
LINE
  5
26E7
330
1F
100
AcDbEntity
  8
AM_VIS
100
AcDbLine
 10
384.0379855426125
 20
208.3487695009667
 30
0.0
 11
384.0379855426125
 21
203.8487695009667
 31
0.0
  0
LINE
  5
26E8
330
1F
100
AcDbEntity
  8
AM_VIS
100
AcDbLine
 10
396.0379855430897
 20
202.3487695009667
 30
0.0
 11
406.5379855426124
 21
202.3487695009667
 31
0.0
  0
LINE
  5
26E9
330
1F
100
AcDbEntity
  8
AM_VIS
100
AcDbLine
 10
385.5379855426124
 20
202.3487695009667
 30
0.0
 11
396.0379855430897
 21
202.3487695009667
 31
0.0
  0
LINE
  5
26EA
330
1F
100
AcDbEntity
  8
AM_VIS
100
AcDbLine
 10
408.0379855426124
 20
203.8487695009667
 30
0.0
 11
408.0379855426124
 21
208.3487695009667
 31
0.0
  0
LINE
  5
26EB
330
1F
100
AcDbEntity
  8
AM_VIS
100
AcDbLine
 10
369.0379855426124
 20
251.3487695009667
 30
0.0
 11
369.0379855426124
 21
227.3487695009667
 31
0.0
  0
LINE
  5
26EC
330
1F
100
AcDbEntity
  8
AM_VIS
100
AcDbLine
 10
423.0379855426124
 20
227.3487695009667
 30
0.0
 11
423.0379855426124
 21
251.3487695009667
 31
0.0
  0
LINE
  5
26ED
330
1F
100
AcDbEntity
  8
AM_VIS
100
AcDbLine
 10
414.0379855426123
 20
227.3487695009667
 30
0.0
 11
421.5556236328175
 21
227.3487695009667
 31
0.0
  0
LINE
  5
26EE
330
1F
100
AcDbEntity
  8
AM_VIS
100
AcDbLine
 10
370.5203474524073
 20
227.3487695009667
 30
0.0
 11
378.0379855426124
 21
227.3487695009667
 31
0.0
  0
LINE
  5
26EF
330
1F
100
AcDbEntity
  8
AM_VIS
100
AcDbLine
 10
378.0379855426124
 20
257.3487695009668
 30
0.0
 11
378.0379855426124
 21
216.8487695009668
 31
0.0
  0
LINE
  5
26F0
330
1F
100
AcDbEntity
  8
AM_VIS
100
AcDbLine
 10
414.0379855426123
 20
216.8487695009668
 30
0.0
 11
409.0379855426124
 21
211.8487695009668
 31
0.0
  0
LINE
  5
26F1
330
1F
100
AcDbEntity
  8
AM_VIS
100
AcDbLine
 10
383.0379855426124
 20
211.8487695009668
 30
0.0
 11
378.0379855426124
 21
216.8487695009668
 31
0.0
  0
LINE
  5
26F2
330
1F
100
AcDbEntity
  8
AM_VIS
100
AcDbLine
 10
414.0379855426123
 20
257.3487695009668
 30
0.0
 11
414.0379855426123
 21
216.8487695009668
 31
0.0
  0
LINE
  5
26F3
330
1F
100
AcDbEntity
  8
AM_VIS
100
AcDbLine
 10
414.0379855426123
 20
257.3487695009668
 30
0.0
 11
378.0379855426124
 21
257.3487695009668
 31
0.0
  0
LINE
  5
26F4
330
1F
100
AcDbEntity
  8
AM_VIS
100
AcDbLine
 10
414.0379855426123
 20
260.8487695009667
 30
0.0
 11
414.0379855426123
 21
257.3487695009668
 31
0.0
  0
LINE
  5
26F5
330
1F
100
AcDbEntity
  8
AM_VIS
100
AcDbLine
 10
378.0379855426124
 20
257.3487695009668
 30
0.0
 11
378.0379855426124
 21
260.8487695009667
 31
0.0
  0
LINE
  5
26F6
330
1F
100
AcDbEntity
  8
AM_VIS
100
AcDbLine
 10
383.0379855426124
 20
211.8487695009668
 30
0.0
 11
409.0379855426124
 21
211.8487695009668
 31
0.0
  0
LINE
  5
26F7
330
1F
100
AcDbEntity
  8
AM_VIS
100
AcDbLine
 10
378.0379855426124
 20
274.8487695009667
 30
0.0
 11
378.0379855426124
 21
260.8487695009667
 31
0.0
  0
LINE
  5
26F8
330
1F
100
AcDbEntity
  8
AM_VIS
100
AcDbLine
 10
414.0379855426123
 20
274.8487695009667
 30
0.0
 11
414.0379855426123
 21
260.8487695009667
 31
0.0
  0
LINE
  5
26F9
330
1F
100
AcDbEntity
  8
AM_VIS
100
AcDbLine
 10
378.0379855426124
 20
260.8487695009667
 30
0.0
 11
414.0379855426123
 21
260.8487695009667
 31
0.0
  0
LINE
  5
26FA
330
1F
100
AcDbEntity
  8
AM_VIS
100
AcDbLine
 10
431.0379855426124
 20
274.8487695009667
 30
0.0
 11
431.0379855426124
 21
267.8487695009668
 31
0.0
  0
LINE
  5
26FB
330
1F
100
AcDbEntity
  8
AM_VIS
100
AcDbLine
 10
414.0379855426123
 20
274.8487695009667
 30
0.0
 11
378.0379855426124
 21
274.8487695009667
 31
0.0
  0
LINE
  5
26FC
330
1F
100
AcDbEntity
  8
AM_VIS
100
AcDbLine
 10
361.0379855426125
 20
274.8487695009667
 30
0.0
 11
367.0379855426124
 21
274.8487695009667
 31
0.0
  0
LINE
  5
26FD
330
1F
100
AcDbEntity
  8
AM_VIS
100
AcDbLine
 10
361.0379855426125
 20
267.8487695009668
 30
0.0
 11
361.0379855426125
 21
274.8487695009667
 31
0.0
  0
LINE
  5
26FE
330
1F
100
AcDbEntity
  8
AM_VIS
100
AcDbLine
 10
372.0379855426124
 20
274.8487695009667
 30
0.0
 11
372.0379855426124
 21
267.8487695009668
 31
0.0
  0
LINE
  5
26FF
330
1F
100
AcDbEntity
  8
AM_VIS
100
AcDbLine
 10
378.0379855426124
 20
274.8487695009667
 30
0.0
 11
372.0379855426124
 21
274.8487695009667
 31
0.0
  0
LINE
  5
2700
330
1F
100
AcDbEntity
  8
AM_VIS
100
AcDbLine
 10
362.5203474524074
 20
251.3487695009667
 30
0.0
 11
378.0379855426124
 21
251.3487695009667
 31
0.0
  0
LINE
  5
2701
330
1F
100
AcDbEntity
  8
AM_VIS
100
AcDbLine
 10
361.0379855426125
 20
267.8487695009668
 30
0.0
 11
361.0379855426125
 21
251.3487695009667
 31
0.0
  0
LINE
  5
2702
330
1F
100
AcDbEntity
  8
AM_VIS
100
AcDbLine
 10
420.0379855426124
 20
267.8487695009668
 30
0.0
 11
420.0379855426124
 21
274.8487695009667
 31
0.0
  0
LINE
  5
2703
330
1F
100
AcDbEntity
  8
AM_VIS
100
AcDbLine
 10
426.1754495635273
 20
267.8487695009668
 30
0.0
 11
420.0379855426124
 21
267.8487695009668
 31
0.0
  0
LINE
  5
2704
330
1F
100
AcDbEntity
  8
AM_VIS
100
AcDbLine
 10
429.5556236328175
 20
267.8487695009668
 30
0.0
 11
428.042826367111
 21
267.8487695009668
 31
0.0
  0
LINE
  5
2705
330
1F
100
AcDbEntity
  8
AM_VIS
100
AcDbLine
 10
431.0379855426124
 20
251.3487695009667
 30
0.0
 11
431.0379855426124
 21
267.8487695009668
 31
0.0
  0
LINE
  5
2706
330
1F
100
AcDbEntity
  8
AM_VIS
100
AcDbLine
 10
414.0379855426123
 20
251.3487695009667
 30
0.0
 11
429.5556236328175
 21
251.3487695009667
 31
0.0
  0
LINE
  5
2707
330
1F
100
AcDbEntity
  8
AM_VIS
100
AcDbLine
 10
372.0379855426124
 20
285.6487695009666
 30
0.0
 11
372.0379855426124
 21
287.8487695009667
 31
0.0
  0
LINE
  5
2708
330
1F
100
AcDbEntity
  8
AM_VIS
100
AcDbLine
 10
420.0379855426124
 20
285.6487695009666
 30
0.0
 11
420.0379855426124
 21
287.8487695009667
 31
0.0
  0
LINE
  5
2709
330
1F
100
AcDbEntity
  8
AM_VIS
100
AcDbLine
 10
420.5539154397131
 20
306.8487695009667
 30
0.0
 11
420.5539154397131
 21
344.8487695009666
 31
0.0
  0
LINE
  5
270A
330
1F
100
AcDbEntity
  8
AM_VIS
100
AcDbLine
 10
420.0438526213684
 20
345.3487872534092
 30
0.0
 11
420.5539323117068
 21
344.8487867130708
 31
0.0
  0
LINE
  5
270B
330
1F
100
AcDbEntity
  8
AM_VIS
100
AcDbLine
 10
416.952486189896
 20
344.8487695009667
 30
0.0
 11
416.952486189896
 21
306.8487695009667
 31
0.0
  0
LINE
  5
270C
330
1F
100
AcDbEntity
  8
AM_VIS
100
AcDbLine
 10
416.5911829425972
 20
345.3487825288525
 30
0.0
 11
416.9525036644383
 21
344.8487821287852
 31
0.0
  0
LINE
  5
270D
330
1F
100
AcDbEntity
  8
AM_VIS
100
AcDbLine
 10
416.5911649144363
 20
345.3487695009667
 30
0.0
 11
416.5911649144363
 21
306.8487695009667
 31
0.0
  0
LINE
  5
270E
330
1F
100
AcDbEntity
  8
AM_VIS
100
AcDbLine
 10
409.911489068786
 20
306.8487695009667
 30
0.0
 11
409.911489068786
 21
344.8487695009666
 31
0.0
  0
LINE
  5
270F
330
1F
100
AcDbEntity
  8
AM_VIS
100
AcDbLine
 10
409.5508244042512
 20
345.3487814163882
 30
0.0
 11
409.9115050806832
 21
344.848781051322
 31
0.0
  0
LINE
  5
2710
330
1F
100
AcDbEntity
  8
AM_VIS
100
AcDbLine
 10
401.1421524898573
 20
344.8487695009667
 30
0.0
 11
401.1421524898573
 21
306.8487695009667
 31
0.0
  0
LINE
  5
2711
330
1F
100
AcDbEntity
  8
AM_VIS
100
AcDbLine
 10
401.1421524898573
 20
345.3487695009668
 30
0.0
 11
401.1421524898573
 21
344.8487695009667
 31
0.0
  0
LINE
  5
2712
330
1F
100
AcDbEntity
  8
AM_VIS
100
AcDbLine
 10
391.1421524898574
 20
306.8487695009667
 30
0.0
 11
391.1421524898574
 21
344.8487695009666
 31
0.0
  0
LINE
  5
2713
330
1F
100
AcDbEntity
  8
AM_VIS
100
AcDbLine
 10
391.1421524898574
 20
345.3487695009666
 30
0.0
 11
391.1421524898574
 21
344.8487695009667
 31
0.0
  0
LINE
  5
2714
330
1F
100
AcDbEntity
  8
AM_VIS
100
AcDbLine
 10
382.3418670167391
 20
344.8487695009667
 30
0.0
 11
382.3418670167391
 21
306.8487695009667
 31
0.0
  0
LINE
  5
2715
330
1F
100
AcDbEntity
  8
AM_VIS
100
AcDbLine
 10
382.3418495421968
 20
344.8487821287851
 30
0.0
 11
382.7031702640381
 21
345.3487825288525
 31
0.0
  0
LINE
  5
2716
330
1F
100
AcDbEntity
  8
AM_VIS
100
AcDbLine
 10
375.6014096966294
 20
345.3487695009666
 30
0.0
 11
375.6014096966294
 21
306.8487695009667
 31
0.0
  0
LINE
  5
2717
330
1F
100
AcDbEntity
  8
AM_VIS
100
AcDbLine
 10
375.2407285141182
 20
306.8487695009667
 30
0.0
 11
375.2407285141182
 21
344.8487695009666
 31
0.0
  0
LINE
  5
2718
330
1F
100
AcDbEntity
  8
AM_VIS
100
AcDbLine
 10
375.2407125022212
 20
344.848781051322
 30
0.0
 11
375.6013931786523
 21
345.3487814163882
 31
0.0
  0
LINE
  5
2719
330
1F
100
AcDbEntity
  8
AM_VIS
100
AcDbLine
 10
371.564582024208
 20
344.8487695009667
 30
0.0
 11
371.564582024208
 21
306.8487695009667
 31
0.0
  0
LINE
  5
271A
330
1F
100
AcDbEntity
  8
AM_VIS
100
AcDbLine
 10
371.5645636217737
 20
344.8487883076754
 30
0.0
 11
372.0755484911768
 21
345.3487888991153
 31
0.0
  0
LINE
  5
271B
330
1F
100
AcDbEntity
  8
AM_VIS
100
AcDbLine
 10
371.5220556455117
 20
306.8487695009667
 30
0.0
 11
371.5220556455117
 21
344.8487695009666
 31
0.0
  0
LINE
  5
271C
330
1F
100
AcDbEntity
  8
AM_VIS
100
AcDbLine
 10
371.5220556292877
 20
344.8487695175113
 30
0.0
 11
371.5379855263727
 21
344.8643907723902
 31
0.0
  0
LINE
  5
271D
330
1F
100
AcDbEntity
  8
AM_VIS
100
AcDbLine
 10
364.0331447181138
 20
267.8487695009668
 30
0.0
 11
362.5203474524074
 21
267.8487695009668
 31
0.0
  0
LINE
  5
271E
330
1F
100
AcDbEntity
  8
AM_VIS
100
AcDbLine
 10
372.0379855426124
 20
267.8487695009668
 30
0.0
 11
365.9005215216975
 21
267.8487695009668
 31
0.0
  0
LINE
  5
271F
330
1F
100
AcDbEntity
  8
AM_VIS
  6
ACISOTGB
 62
     2
100
AcDbLine
 10
369.0379855426124
 20
245.8487695009667
 30
0.0
 11
359.0379855426125
 21
245.8487695009667
 31
0.0
  0
LINE
  5
2720
330
1F
100
AcDbEntity
  8
AM_VIS
  6
ACISOTGB
 62
     2
100
AcDbLine
 10
369.0379855426124
 20
232.8487695009667
 30
0.0
 11
359.0379855426125
 21
232.8487695009667
 31
0.0
  0
LINE
  5
2721
330
1F
100
AcDbEntity
  8
AM_VIS
  6
ACISOTGB
 62
     2
100
AcDbLine
 10
352.5379855426124
 20
265.3487695009667
 30
0.0
 11
335.0379855426124
 21
265.3487695009667
 31
0.0
  0
LINE
  5
2722
330
1F
100
AcDbEntity
  8
AM_VIS
  6
ACISOTGB
 62
     2
100
AcDbLine
 10
352.5379855426124
 20
213.3487695009668
 30
0.0
 11
335.0379855426124
 21
213.3487695009668
 31
0.0
  0
LINE
  5
2723
330
1F
100
AcDbEntity
  8
AM_VIS
  6
ACISOTGB
 62
     2
100
AcDbLine
 10
334.5379855426124
 20
265.8487695009667
 30
0.0
 11
327.5379855426124
 21
265.8487695009667
 31
0.0
  0
LINE
  5
2724
330
1F
100
AcDbEntity
  8
AM_VIS
  6
ACISOTGB
 62
     2
100
AcDbLine
 10
334.5379855426124
 20
212.8487695009667
 30
0.0
 11
327.5379855426124
 21
212.8487695009667
 31
0.0
  0
LINE
  5
2725
330
1F
100
AcDbEntity
  8
AM_VIS
100
AcDbLine
 10
371.0379855426124
 20
227.3487695009667
 30
0.0
 11
371.0379855426124
 21
208.3487695009667
 31
0.0
  0
LINE
  5
2726
330
1F
100
AcDbEntity
  8
AM_VIS
100
AcDbLine
 10
421.0379855426124
 20
227.3487695009667
 30
0.0
 11
421.0379855426124
 21
208.3487695009667
 31
0.0
  0
LINE
  5
2727
330
1F
100
AcDbEntity
  8
AM_VIS
100
AcDbLine
 10
418.0379855426124
 20
287.8487695009667
 30
0.0
 11
418.0379855426124
 21
296.8487695009667
 31
0.0
  0
LINE
  5
2728
330
1F
100
AcDbEntity
  8
AM_VIS
100
AcDbLine
 10
374.0379855426124
 20
287.8487695009667
 30
0.0
 11
374.0379855426124
 21
296.8487695009667
 31
0.0
  0
LINE
  5
2729
330
1F
100
AcDbEntity
  8
AM_VIS
100
AcDbLine
 10
421.0379855426124
 20
296.8487695009667
 30
0.0
 11
421.0379855426124
 21
306.8487695009667
 31
0.0
  0
LINE
  5
272A
330
1F
100
AcDbEntity
  8
AM_VIS
100
AcDbLine
 10
371.0379855426124
 20
296.8487695009667
 30
0.0
 11
371.0379855426124
 21
306.8487695009667
 31
0.0
  0
LINE
  5
272B
330
1F
100
AcDbEntity
  8
AM_VIS
100
AcDbLine
 10
420.5379855426124
 20
345.3487695009667
 30
0.0
 11
420.5379855426124
 21
344.8643907558298
 31
0.0
  0
LINE
  5
272C
330
1F
100
AcDbEntity
  8
AM_VIS
100
AcDbLine
 10
373.0379855426124
 20
346.8487695009667
 30
0.0
 11
371.5379855426125
 21
345.3487695009667
 31
0.0
  0
LINE
  5
272D
330
1F
100
AcDbEntity
  8
AM_VIS
100
AcDbLine
 10
419.0379855426124
 20
346.8487695009667
 30
0.0
 11
420.5379855426124
 21
345.3487695009667
 31
0.0
  0
LINE
  5
272E
330
1F
100
AcDbEntity
  8
AM_VIS
100
AcDbLine
 10
371.5379855426125
 20
345.3487695009667
 30
0.0
 11
371.5379855426125
 21
306.8487695009667
 31
0.0
  0
LINE
  5
272F
330
1F
100
AcDbEntity
  8
AM_VIS
100
AcDbLine
 10
370.2879855426124
 20
267.8487695009668
 30
0.0
 11
370.2879855426124
 21
273.3487695009667
 31
0.0
  0
LINE
  5
2730
330
1F
100
AcDbEntity
  8
AM_VIS
100
AcDbLine
 10
361.7879855426124
 20
267.8487695009668
 30
0.0
 11
361.7879855426124
 21
273.3487695009667
 31
0.0
  0
LINE
  5
2731
330
1F
100
AcDbEntity
  8
AM_VIS
100
AcDbLine
 10
430.2879855426124
 20
267.8487695009668
 30
0.0
 11
430.2879855426124
 21
273.3487695009667
 31
0.0
  0
LINE
  5
2732
330
1F
100
AcDbEntity
  8
AM_VIS
100
AcDbLine
 10
421.7879855426124
 20
267.8487695009668
 30
0.0
 11
421.7879855426124
 21
273.3487695009667
 31
0.0
  0
LINE
  5
2733
330
1F
100
AcDbEntity
  8
AM_VIS
  6
ACISOTGB
 62
     2
100
AcDbLine
 10
354.0379855426124
 20
263.8487695009667
 30
0.0
 11
354.0379855426124
 21
214.8487695009667
 31
0.0
  0
LINE
  5
2734
330
1F
100
AcDbEntity
  8
AM_VIS
  6
ACISOTGB
 62
     2
100
AcDbLine
 10
335.0379855426124
 20
213.3487695009667
 30
0.0
 11
335.0379855426124
 21
265.3487695009667
 31
0.0
  0
LINE
  5
2735
102
{ACAD_REACTORS
330
27D2
102
}
330
1F
100
AcDbEntity
  8
AM_VIS
  6
ACISOTGB
 62
     2
100
AcDbLine
 10
327.0379855426124
 20
213.3487695009667
 30
0.0
 11
327.0379855426124
 21
265.3487695009667
 31
0.0
  0
ARC
  5
2736
330
1F
100
AcDbEntity
  8
AM_VIS
100
AcDbCircle
 10
385.5379855426124
 20
203.8487695009667
 30
0.0
 40
1.5
100
AcDbArc
 50
180.0
 51
270.0
  0
ARC
  5
2737
102
{ACAD_REACTORS
330
27E8
102
}
330
1F
100
AcDbEntity
  8
AM_VIS
100
AcDbCircle
 10
406.5379855426124
 20
203.8487695009667
 30
0.0
 40
1.5
100
AcDbArc
 50
270.0
 51
0.0
  0
LINE
  5
2738
330
1F
100
AcDbEntity
  8
AM_VIS
100
AcDbLine
 10
421.0379855426124
 20
208.3487695009667
 30
0.0
 11
371.0379855426124
 21
208.3487695009667
 31
0.0
  0
LINE
  5
2739
330
1F
100
AcDbEntity
  8
AM_VIS
100
AcDbLine
 10
423.0379855426124
 20
227.3487695009667
 30
0.0
 11
421.5556236328173
 21
227.3487695009667
 31
0.0
  0
LINE
  5
273A
330
1F
100
AcDbEntity
  8
AM_VIS
100
AcDbLine
 10
370.5203474524076
 20
227.3487695009667
 30
0.0
 11
369.0379855426124
 21
227.3487695009667
 31
0.0
  0
LINE
  5
273B
330
1F
100
AcDbEntity
  8
AM_VIS
100
AcDbLine
 10
392.5379855426124
 20
251.3487695009667
 30
0.0
 11
399.5379855426124
 21
251.3487695009667
 31
0.0
  0
CIRCLE
  5
273C
102
{ACAD_REACTORS
330
27D8
102
}
330
1F
100
AcDbEntity
  8
AM_VIS
100
AcDbCircle
 10
396.0379855426124
 20
239.3487695009667
 30
0.0
 40
12.5
  0
LINE
  5
273D
330
1F
100
AcDbEntity
  8
AM_VIS
100
AcDbLine
 10
367.4845212291334
 20
274.8487695009667
 30
0.0
 11
367.0379855426124
 21
274.8487695009667
 31
0.0
  0
LINE
  5
273E
330
1F
100
AcDbEntity
  8
AM_VIS
100
AcDbLine
 10
362.5203474524076
 20
251.3487695009667
 30
0.0
 11
361.0379855426125
 21
251.3487695009667
 31
0.0
  0
LINE
  5
273F
330
1F
100
AcDbEntity
  8
AM_VIS
100
AcDbLine
 10
429.5556236328173
 20
267.8487695009668
 30
0.0
 11
431.0379855426124
 21
267.8487695009668
 31
0.0
  0
LINE
  5
2740
330
1F
100
AcDbEntity
  8
AM_VIS
100
AcDbLine
 10
431.0379855426124
 20
251.3487695009667
 30
0.0
 11
429.5556236328173
 21
251.3487695009667
 31
0.0
  0
LINE
  5
2741
330
1F
100
AcDbEntity
  8
AM_VIS
100
AcDbLine
 10
372.0379855426124
 20
287.8487695009667
 30
0.0
 11
420.0379855426124
 21
287.8487695009667
 31
0.0
  0
LINE
  5
2742
330
1F
100
AcDbEntity
  8
AM_VIS
100
AcDbLine
 10
421.0379855426124
 20
296.8487695009667
 30
0.0
 11
371.0379855426124
 21
296.8487695009667
 31
0.0
  0
LINE
  5
2743
330
1F
100
AcDbEntity
  8
AM_VIS
100
AcDbLine
 10
420.5539154397131
 20
306.8487695009667
 30
0.0
 11
421.0379855426124
 21
306.8487695009667
 31
0.0
  0
LINE
  5
2744
330
1F
100
AcDbEntity
  8
AM_VIS
100
AcDbLine
 10
420.5379855426124
 20
345.3487695009667
 30
0.0
 11
420.0438352197129
 21
345.3487695009667
 31
0.0
  0
LINE
  5
2745
330
1F
100
AcDbEntity
  8
AM_VIS
100
AcDbLine
 10
420.5539154397131
 20
344.8487695009667
 30
0.0
 11
416.952486189896
 21
344.8487695009667
 31
0.0
  0
LINE
  5
2746
330
1F
100
AcDbEntity
  8
AM_VIS
100
AcDbLine
 10
409.911489068786
 20
344.8487695009667
 30
0.0
 11
401.1421524898573
 21
344.8487695009667
 31
0.0
  0
LINE
  5
2747
330
1F
100
AcDbEntity
  8
AM_VIS
100
AcDbLine
 10
391.1421524898574
 20
344.8487695009667
 30
0.0
 11
382.3418670167391
 21
344.8487695009667
 31
0.0
  0
LINE
  5
2748
330
1F
100
AcDbEntity
  8
AM_VIS
100
AcDbLine
 10
375.2407285141182
 20
344.8487695009667
 30
0.0
 11
371.564582024208
 21
344.8487695009667
 31
0.0
  0
LINE
  5
2749
102
{ACAD_REACTORS
330
27DF
102
}
330
1F
100
AcDbEntity
  8
AM_VIS
100
AcDbLine
 10
373.0379855426124
 20
346.8487695009667
 30
0.0
 11
419.0379855426124
 21
346.8487695009667
 31
0.0
  0
LINE
  5
274A
330
1F
100
AcDbEntity
  8
AM_VIS
100
AcDbLine
 10
409.911489068786
 20
306.8487695009667
 30
0.0
 11
416.952486189896
 21
306.8487695009667
 31
0.0
  0
LINE
  5
274B
330
1F
100
AcDbEntity
  8
AM_VIS
100
AcDbLine
 10
416.5911649144361
 20
345.3487695009667
 30
0.0
 11
409.5508078862747
 21
345.3487695009667
 31
0.0
  0
LINE
  5
274C
330
1F
100
AcDbEntity
  8
AM_VIS
100
AcDbLine
 10
391.1421524898574
 20
306.8487695009667
 30
0.0
 11
401.1421524898573
 21
306.8487695009667
 31
0.0
  0
LINE
  5
274D
330
1F
100
AcDbEntity
  8
AM_VIS
100
AcDbLine
 10
401.1421524898573
 20
345.3487695009667
 30
0.0
 11
391.1421524898574
 21
345.3487695009667
 31
0.0
  0
LINE
  5
274E
330
1F
100
AcDbEntity
  8
AM_VIS
100
AcDbLine
 10
375.2407285141182
 20
306.8487695009667
 30
0.0
 11
382.3418670167391
 21
306.8487695009667
 31
0.0
  0
LINE
  5
274F
330
1F
100
AcDbEntity
  8
AM_VIS
100
AcDbLine
 10
382.703188292199
 20
345.3487695009667
 30
0.0
 11
375.6014096966294
 21
345.3487695009667
 31
0.0
  0
LINE
  5
2750
330
1F
100
AcDbEntity
  8
AM_VIS
100
AcDbLine
 10
371.0379855426124
 20
306.8487695009667
 30
0.0
 11
371.564582024208
 21
306.8487695009667
 31
0.0
  0
LINE
  5
2751
330
1F
100
AcDbEntity
  8
AM_VIS
100
AcDbLine
 10
372.0755674723373
 20
345.3487695009667
 30
0.0
 11
371.5379855426125
 21
345.3487695009667
 31
0.0
  0
LINE
  5
2752
330
1F
100
AcDbEntity
  8
AM_VIS
100
AcDbLine
 10
361.0379855426125
 20
267.8487695009668
 30
0.0
 11
362.5203474524076
 21
267.8487695009668
 31
0.0
  0
LINE
  5
2753
330
1F
100
AcDbEntity
  8
AM_VIS
100
AcDbLine
 10
365.9005215216978
 20
267.8487695009668
 30
0.0
 11
364.0331447181138
 21
267.8487695009668
 31
0.0
  0
LINE
  5
2754
330
1F
100
AcDbEntity
  8
AM_VIS
100
AcDbLine
 10
362.2879855426124
 20
273.8487695009667
 30
0.0
 11
369.7879855426124
 21
273.8487695009667
 31
0.0
  0
LINE
  5
2755
330
1F
100
AcDbEntity
  8
AM_VIS
100
AcDbLine
 10
428.042826367111
 20
267.8487695009668
 30
0.0
 11
426.1754495635271
 21
267.8487695009668
 31
0.0
  0
LINE
  5
2756
330
1F
100
AcDbEntity
  8
AM_VIS
100
AcDbLine
 10
422.2879855426124
 20
273.8487695009667
 30
0.0
 11
429.7879855426124
 21
273.8487695009667
 31
0.0
  0
ARC
  5
2757
330
1F
100
AcDbEntity
  8
AM_VIS
  6
ACISOTGB
 62
     2
100
AcDbCircle
 10
352.5379855426124
 20
214.8487695009667
 30
0.0
 40
1.5
100
AcDbArc
 50
270.0
 51
0.0
  0
ARC
  5
2758
330
1F
100
AcDbEntity
  8
AM_VIS
  6
ACISOTGB
 62
     2
100
AcDbCircle
 10
352.5379855426124
 20
263.8487695009667
 30
0.0
 40
1.5
100
AcDbArc
 50
0.0
 51
90.0
  0
ARC
  5
2759
330
1F
100
AcDbEntity
  8
AM_VIS
  6
ACISOTGB
 62
     2
100
AcDbCircle
 10
334.5379855426124
 20
213.3487695009667
 30
0.0
 40
0.5
100
AcDbArc
 50
270.0
 51
0.0
  0
ARC
  5
275A
330
1F
100
AcDbEntity
  8
AM_VIS
  6
ACISOTGB
 62
     2
100
AcDbCircle
 10
334.5379855426124
 20
265.3487695009667
 30
0.0
 40
0.5
100
AcDbArc
 50
0.0
 51
90.0
  0
ARC
  5
275B
330
1F
100
AcDbEntity
  8
AM_VIS
  6
ACISOTGB
 62
     2
100
AcDbCircle
 10
327.5379855426124
 20
265.3487695009667
 30
0.0
 40
0.5
100
AcDbArc
 50
90.0
 51
180.0
  0
ARC
  5
275C
330
1F
100
AcDbEntity
  8
AM_VIS
  6
ACISOTGB
 62
     2
100
AcDbCircle
 10
327.5379855426124
 20
213.3487695009667
 30
0.0
 40
0.5
100
AcDbArc
 50
180.0
 51
270.0
  0
ARC
  5
275D
330
1F
100
AcDbEntity
  8
AM_VIS
100
AcDbCircle
 10
369.7879855426124
 20
273.3487695009667
 30
0.0
 40
0.5
100
AcDbArc
 50
0.0
 51
90.0
  0
ARC
  5
275E
330
1F
100
AcDbEntity
  8
AM_VIS
100
AcDbCircle
 10
362.2879855426124
 20
273.3487695009667
 30
0.0
 40
0.5
100
AcDbArc
 50
90.0
 51
180.0
  0
ARC
  5
275F
330
1F
100
AcDbEntity
  8
AM_VIS
100
AcDbCircle
 10
429.7879855426124
 20
273.3487695009667
 30
0.0
 40
0.5
100
AcDbArc
 50
0.0
 51
90.0
  0
ARC
  5
2760
330
1F
100
AcDbEntity
  8
AM_VIS
100
AcDbCircle
 10
422.2879855426124
 20
273.3487695009667
 30
0.0
 40
0.5
100
AcDbArc
 50
90.0
 51
180.0
  0
LINE
  5
2761
330
1F
100
AcDbEntity
  8
AM_VIS
100
AcDbLine
 10
447.0379855426124
 20
299.9987695009667
 30
0.0
 11
444.7379855426125
 21
299.9987695009667
 31
0.0
  0
LINE
  5
2762
330
1F
100
AcDbEntity
  8
AM_VIS
100
AcDbLine
 10
444.2379855426124
 20
277.1487695009666
 30
0.0
 11
396.0379855426124
 21
277.1487695009666
 31
0.0
  0
LINE
  5
2763
330
1F
100
AcDbEntity
  8
AM_VIS
100
AcDbLine
 10
414.0379855426123
 20
274.8487695009667
 30
0.0
 11
443.5379855426124
 21
274.8487695009667
 31
0.0
  0
LINE
  5
2764
330
1F
100
AcDbEntity
  8
AM_VIS
100
AcDbLine
 10
444.7379855426125
 20
277.6487695009667
 30
0.0
 11
444.7379855426125
 21
297.4987695009668
 31
0.0
  0
LINE
  5
2765
330
1F
100
AcDbEntity
  8
AM_VIS
100
AcDbLine
 10
447.0379855426124
 20
278.3487695009667
 30
0.0
 11
447.0379855426124
 21
297.4987695009668
 31
0.0
  0
LINE
  5
2766
330
1F
100
AcDbEntity
  8
AM_VIS
100
AcDbLine
 10
362.5379855426124
 20
274.8487695009667
 30
0.0
 11
362.5379855426124
 21
277.1487695009666
 31
0.0
  0
LINE
  5
2767
330
1F
100
AcDbEntity
  8
AM_VIS
100
AcDbLine
 10
440.7112828121364
 20
277.1487695009666
 30
0.0
 11
444.7379855426125
 21
281.1754722314425
 31
0.0
  0
ARC
  5
2768
330
1F
100
AcDbEntity
  8
AM_VIS
100
AcDbCircle
 10
444.2379855426124
 20
277.6487695009667
 30
0.0
 40
0.5
100
AcDbArc
 50
270.0
 51
0.0
  0
LINE
  5
2769
330
1F
100
AcDbEntity
  8
AM_VIS
100
AcDbLine
 10
362.5379855426124
 20
277.1487695009666
 30
0.0
 11
396.0379855426124
 21
277.1487695009666
 31
0.0
  0
ARC
  5
276A
330
1F
100
AcDbEntity
  8
AM_VIS
100
AcDbCircle
 10
443.5379855426124
 20
278.3487695009667
 30
0.0
 40
3.5
100
AcDbArc
 50
270.0
 51
0.0
  0
LINE
  5
276B
330
1F
100
AcDbEntity
  8
AM_VIS
100
AcDbLine
 10
372.0379855426124
 20
274.8487695009667
 30
0.0
 11
367.4845212291334
 21
274.8487695009667
 31
0.0
  0
LINE
  5
276C
330
1F
100
AcDbEntity
  8
AM_VIS
100
AcDbLine
 10
444.7379855426125
 20
297.4987695009668
 30
0.0
 11
444.7379855426125
 21
299.9987695009667
 31
0.0
  0
LINE
  5
276D
102
{ACAD_REACTORS
330
27D5
102
}
330
1F
100
AcDbEntity
  8
AM_VIS
100
AcDbLine
 10
447.0379855426124
 20
299.9987695009667
 30
0.0
 11
447.0379855426124
 21
297.4987695009668
 31
0.0
  0
LINE
  5
276E
330
1F
100
AcDbEntity
  8
AM_VIS
100
AcDbLine
 10
366.287985542612
 20
285.6487695009666
 30
0.0
 11
366.287985542612
 21
284.6487695009667
 31
0.0
  0
LINE
  5
276F
330
1F
100
AcDbEntity
  8
AM_VIS
100
AcDbLine
 10
366.2879855426124
 20
284.6487695009667
 30
0.0
 11
366.2879855426124
 21
278.5487695009667
 31
0.0
  0
LINE
  5
2770
330
1F
100
AcDbEntity
  8
AM_VIS
100
AcDbLine
 10
367.1593652316337
 20
278.5487695009667
 30
0.0
 11
367.1593652316337
 21
284.6487695009667
 31
0.0
  0
SPLINE
  5
2771
330
1F
100
AcDbEntity
  8
AM_VIS
100
AcDbSpline
210
0.0
220
0.0
230
1.0
 70
    12
 71
     2
 72
     6
 73
     3
 74
     0
 42
0.0000000001
 43
0.0000000001
 40
0.0
 40
0.0
 40
0.0
 40
11.14612341701043
 40
11.14612341701043
 40
11.14612341701043
 10
367.1593652316337
 20
284.6487695009667
 30
0.0
 41
1.0
 10
371.2079773595858
 20
285.6487695009666
 30
0.0
 41
1.016667814666111
 10
375.0015588023127
 20
285.6487695009666
 30
0.0
 41
1.0
  0
SPLINE
  5
2772
330
1F
100
AcDbEntity
  8
AM_VIS
100
AcDbSpline
210
0.0
220
0.0
230
1.0
 70
    12
 71
     2
 72
     6
 73
     3
 74
     0
 42
0.0000000001
 43
0.0000000001
 40
11.14612341701043
 40
11.14612341701043
 40
11.14612341701043
 40
22.29224683402087
 40
22.29224683402087
 40
22.29224683402087
 10
375.0015588023127
 20
285.6487695009666
 30
0.0
 41
1.0
 10
378.7951402450395
 20
285.6487695009666
 30
0.0
 41
1.016667814666111
 10
382.8437523729915
 20
284.6487695009667
 30
0.0
 41
1.0
  0
LINE
  5
2773
330
1F
100
AcDbEntity
  8
AM_VIS
100
AcDbLine
 10
382.8437523729915
 20
284.6487695009667
 30
0.0
 11
382.8437523729915
 21
278.5487695009667
 31
0.0
  0
LINE
  5
2774
330
1F
100
AcDbEntity
  8
AM_VIS
100
AcDbLine
 10
384.9474490362031
 20
278.5487695009667
 30
0.0
 11
384.9474490362031
 21
284.6487695009667
 31
0.0
  0
SPLINE
  5
2775
330
1F
100
AcDbEntity
  8
AM_VIS
100
AcDbSpline
210
0.0
220
0.0
230
1.0
 70
    12
 71
     2
 72
     6
 73
     3
 74
     0
 42
0.0000000001
 43
0.0000000001
 40
0.0
 40
0.0
 40
0.0
 40
11.14612341701054
 40
11.14612341701054
 40
11.14612341701054
 10
384.9474490362031
 20
284.6487695009667
 30
0.0
 41
1.0
 10
390.6730512163408
 20
285.6487695009666
 30
0.0
 41
1.016667814666208
 10
396.0379855426124
 20
285.6487695009666
 30
0.0
 41
1.0
  0
SPLINE
  5
2776
330
1F
100
AcDbEntity
  8
AM_VIS
100
AcDbSpline
210
0.0
220
0.0
230
1.0
 70
    12
 71
     2
 72
     6
 73
     3
 74
     0
 42
0.0000000001
 43
0.0000000001
 40
11.14612341701054
 40
11.14612341701054
 40
11.14612341701054
 40
22.29224683402108
 40
22.29224683402108
 40
22.29224683402108
 10
396.0379855426124
 20
285.6487695009666
 30
0.0
 41
1.0
 10
401.4029198688834
 20
285.6487695009666
 30
0.0
 41
1.016667814666208
 10
407.1285220490217
 20
284.6487695009667
 30
0.0
 41
1.0
  0
LINE
  5
2777
330
1F
100
AcDbEntity
  8
AM_VIS
100
AcDbLine
 10
407.1285220490217
 20
284.6487695009667
 30
0.0
 11
407.1285220490217
 21
278.5487695009667
 31
0.0
  0
LINE
  5
2778
330
1F
100
AcDbEntity
  8
AM_VIS
100
AcDbLine
 10
409.2322187122333
 20
278.5487695009667
 30
0.0
 11
409.2322187122333
 21
284.6487695009667
 31
0.0
  0
SPLINE
  5
2779
330
1F
100
AcDbEntity
  8
AM_VIS
100
AcDbSpline
210
0.0
220
0.0
230
1.0
 70
    12
 71
     2
 72
     6
 73
     3
 74
     0
 42
0.0000000001
 43
0.0000000001
 40
0.0
 40
0.0
 40
0.0
 40
11.14612341701043
 40
11.14612341701043
 40
11.14612341701043
 10
409.2322187122333
 20
284.6487695009667
 30
0.0
 41
1.0
 10
413.2808308401856
 20
285.6487695009666
 30
0.0
 41
1.016667814666111
 10
417.0744122829121
 20
285.6487695009666
 30
0.0
 41
1.0
  0
SPLINE
  5
277A
330
1F
100
AcDbEntity
  8
AM_VIS
100
AcDbSpline
210
0.0
220
0.0
230
1.0
 70
    12
 71
     2
 72
     6
 73
     3
 74
     0
 42
0.0000000001
 43
0.0000000001
 40
11.14612341701043
 40
11.14612341701043
 40
11.14612341701043
 40
22.29224683402087
 40
22.29224683402087
 40
22.29224683402087
 10
417.0744122829121
 20
285.6487695009666
 30
0.0
 41
1.0
 10
420.8679937256391
 20
285.6487695009666
 30
0.0
 41
1.016667814666111
 10
424.9166058535911
 20
284.6487695009667
 30
0.0
 41
1.0
  0
LINE
  5
277B
330
1F
100
AcDbEntity
  8
AM_VIS
100
AcDbLine
 10
424.9166058535911
 20
284.6487695009667
 30
0.0
 11
424.9166058535911
 21
278.5487695009667
 31
0.0
  0
LINE
  5
277C
330
1F
100
AcDbEntity
  8
AM_VIS
100
AcDbLine
 10
425.7879855426124
 20
278.5487695009667
 30
0.0
 11
425.7879855426124
 21
284.6487695009667
 31
0.0
  0
LINE
  5
277D
330
1F
100
AcDbEntity
  8
AM_VIS
100
AcDbLine
 10
425.7879855426124
 20
285.6487695009666
 30
0.0
 11
425.7879855426124
 21
284.6487695009667
 31
0.0
  0
LINE
  5
277E
330
1F
100
AcDbEntity
  8
AM_VIS
100
AcDbLine
 10
427.7879855426124
 20
277.1487695009666
 30
0.0
 11
427.7879855426124
 21
278.5487695009667
 31
0.0
  0
LINE
  5
277F
330
1F
100
AcDbEntity
  8
AM_VIS
100
AcDbLine
 10
364.2879855426124
 20
277.1487695009666
 30
0.0
 11
364.2879855426124
 21
278.5487695009667
 31
0.0
  0
LINE
  5
2780
330
1F
100
AcDbEntity
  8
AM_VIS
100
AcDbLine
 10
425.7879855426124
 20
285.6487695009666
 30
0.0
 11
417.0744122829121
 21
285.6487695009666
 31
0.0
  0
LINE
  5
2781
330
1F
100
AcDbEntity
  8
AM_VIS
100
AcDbLine
 10
417.0744122829121
 20
285.6487695009666
 30
0.0
 11
396.0379855426124
 21
285.6487695009666
 31
0.0
  0
LINE
  5
2782
330
1F
100
AcDbEntity
  8
AM_VIS
100
AcDbLine
 10
396.0379855426124
 20
285.6487695009666
 30
0.0
 11
375.0015588023127
 21
285.6487695009666
 31
0.0
  0
LINE
  5
2783
330
1F
100
AcDbEntity
  8
AM_VIS
100
AcDbLine
 10
375.0015588023127
 20
285.6487695009666
 30
0.0
 11
366.2879855426124
 21
285.6487695009666
 31
0.0
  0
LINE
  5
2784
330
1F
100
AcDbEntity
  8
AM_VIS
100
AcDbLine
 10
366.2879855426124
 20
284.6487695009667
 30
0.0
 11
367.1593652316337
 21
284.6487695009667
 31
0.0
  0
LINE
  5
2785
330
1F
100
AcDbEntity
  8
AM_VIS
100
AcDbLine
 10
382.8437523729915
 20
284.6487695009667
 30
0.0
 11
384.9474490362031
 21
284.6487695009667
 31
0.0
  0
LINE
  5
2786
330
1F
100
AcDbEntity
  8
AM_VIS
100
AcDbLine
 10
407.1285220490217
 20
284.6487695009667
 30
0.0
 11
409.2322187122333
 21
284.6487695009667
 31
0.0
  0
LINE
  5
2787
330
1F
100
AcDbEntity
  8
AM_VIS
100
AcDbLine
 10
424.9166058535911
 20
284.6487695009667
 30
0.0
 11
425.7879855426124
 21
284.6487695009667
 31
0.0
  0
LINE
  5
2788
330
1F
100
AcDbEntity
  8
AM_VIS
100
AcDbLine
 10
425.7879855426124
 20
278.5487695009667
 30
0.0
 11
427.7879855426124
 21
278.5487695009667
 31
0.0
  0
LINE
  5
2789
330
1F
100
AcDbEntity
  8
AM_VIS
100
AcDbLine
 10
364.2879855426124
 20
278.5487695009667
 30
0.0
 11
366.2879855426124
 21
278.5487695009667
 31
0.0
  0
LINE
  5
278A
330
1F
100
AcDbEntity
  8
AM_VIS
100
AcDbLine
 10
367.1593652316337
 20
278.5487695009667
 30
0.0
 11
382.8437523729915
 21
278.5487695009667
 31
0.0
  0
LINE
  5
278B
330
1F
100
AcDbEntity
  8
AM_VIS
100
AcDbLine
 10
384.9474490362031
 20
278.5487695009667
 30
0.0
 11
407.1285220490217
 21
278.5487695009667
 31
0.0
  0
LINE
  5
278C
330
1F
100
AcDbEntity
  8
AM_VIS
100
AcDbLine
 10
409.2322187122333
 20
278.5487695009667
 30
0.0
 11
424.9166058535911
 21
278.5487695009667
 31
0.0
  0
DIMENSION
  5
278D
102
{ACAD_XDICTIONARY
360
278E
102
}
102
{ACAD_REACTORS
330
278F
102
}
330
1F
100
AcDbEntity
  8
AM_5
100
AcDbDimension
  2
*D30
 10
261.0957090819759
 20
554.8485446171812
 30
0.0
 11
227.5957090819759
 21
554.8485446171812
 31
0.0
 70
   160
 71
     5
 42
67.0
  3
AM_ISO$0
100
AcDbAlignedDimension
 13
194.0957090819759
 23
520.257245582468
 33
0.0
 14
261.0957090819759
 24
520.257245582468
 34
0.0
100
AcDbRotatedDimension
  0
LINE
  5
2790
102
{ACAD_REACTORS
330
279A
102
}
330
1F
100
AcDbEntity
  8
AM_7
100
AcDbLine
 10
209.5957090819759
 20
514.9572455824678
 30
0.0
 11
209.5957090819759
 21
523.2572455824678
 31
0.0
  0
LINE
  5
2791
330
1F
100
AcDbEntity
  8
AM_7
100
AcDbLine
 10
200.5957090819759
 20
514.9572455824678
 30
0.0
 11
200.5957090819759
 21
523.2572455824678
 31
0.0
  0
LINE
  5
2792
330
1F
100
AcDbEntity
  8
AM_7
100
AcDbLine
 10
254.5957090819759
 20
514.9572455824678
 30
0.0
 11
254.5957090819759
 21
523.2572455824678
 31
0.0
  0
LINE
  5
2793
102
{ACAD_REACTORS
330
279A
102
}
330
1F
100
AcDbEntity
  8
AM_7
100
AcDbLine
 10
245.5957090819759
 20
514.9572455824678
 30
0.0
 11
245.5957090819759
 21
523.2572455824678
 31
0.0
  0
LINE
  5
2794
330
1F
100
AcDbEntity
  8
AM_HID
100
AcDbLine
 10
212.8457090819759
 20
517.9572455824681
 30
0.0
 11
212.8457090819759
 21
520.257245582468
 31
0.0
  0
LINE
  5
2795
330
1F
100
AcDbEntity
  8
AM_HID
100
AcDbLine
 10
197.3457090819758
 20
517.9572455824681
 30
0.0
 11
197.3457090819758
 21
520.257245582468
 31
0.0
  0
LINE
  5
2796
330
1F
100
AcDbEntity
  8
AM_HID
100
AcDbLine
 10
257.8457090819759
 20
517.9572455824681
 30
0.0
 11
257.8457090819759
 21
520.257245582468
 31
0.0
  0
LINE
  5
2797
330
1F
100
AcDbEntity
  8
AM_HID
100
AcDbLine
 10
242.3457090819759
 20
517.9572455824681
 30
0.0
 11
242.3457090819759
 21
520.257245582468
 31
0.0
  0
DIMENSION
  5
2798
102
{ACAD_XDICTIONARY
360
2799
102
}
102
{ACAD_REACTORS
330
279A
102
}
330
1F
100
AcDbEntity
  8
AM_5
100
AcDbDimension
  2
*D31
 10
245.5957090819759
 20
539.8485446171812
 30
0.0
 11
227.5957090819759
 21
545.3485446171812
 31
0.0
 70
    32
 71
     5
 42
36.0
  3
AM_ISO$0
100
AcDbAlignedDimension
 13
209.5957090819759
 23
523.2572455824678
 33
0.0
 14
245.5957090819759
 24
523.2572455824678
 34
0.0
100
AcDbRotatedDimension
  0
DIMENSION
  5
279B
102
{ACAD_XDICTIONARY
360
279C
102
}
102
{ACAD_REACTORS
330
279D
102
}
330
1F
100
AcDbEntity
  8
AM_5
100
AcDbDimension
  2
*D32
 10
295.0250192266246
 20
434.257245582468
 30
0.0
 11
289.1750192266245
 21
477.2572455824681
 31
0.0
 70
    32
  1
(<>)
 71
     5
 42
86.00000000000006
  3
AM_ISO$0
100
AcDbAlignedDimension
 13
261.0957090819759
 23
520.257245582468
 33
0.0
 14
252.5059188346887
 24
434.257245582468
 34
0.0
 50
90.0
100
AcDbRotatedDimension
  0
LINE
  5
279E
330
1F
100
AcDbEntity
  8
AM_7
100
AcDbLine
 10
251.0957090819759
 20
499.2572455824679
 30
0.0
 11
251.0957090819759
 21
499.2572455824679
 31
0.0
  0
LINE
  5
279F
330
1F
100
AcDbEntity
  8
AM_7
100
AcDbLine
 10
251.0957090819759
 20
499.2572455824679
 30
0.0
 11
251.0957090819759
 21
499.2572455824679
 31
0.0
  0
LINE
  5
27A0
330
1F
100
AcDbEntity
  8
AM_7
100
AcDbLine
 10
243.8457090819759
 20
499.2572455824679
 30
0.0
 11
251.0957090819759
 21
499.2572455824679
 31
0.0
  0
LINE
  5
27A1
330
1F
100
AcDbEntity
  8
AM_7
100
AcDbLine
 10
251.0957090819759
 20
499.2572455824679
 30
0.0
 11
258.3457090819759
 21
499.2572455824679
 31
0.0
  0
LINE
  5
27A2
330
1F
100
AcDbEntity
  8
AM_7
100
AcDbLine
 10
251.0957090819759
 20
492.0072455824679
 30
0.0
 11
251.0957090819759
 21
499.2572455824679
 31
0.0
  0
LINE
  5
27A3
330
1F
100
AcDbEntity
  8
AM_7
100
AcDbLine
 10
251.0957090819759
 20
499.2572455824679
 30
0.0
 11
251.0957090819759
 21
506.5072455824679
 31
0.0
  0
LINE
  5
27A4
330
1F
100
AcDbEntity
  8
AM_7
100
AcDbLine
 10
204.0957090819759
 20
499.2572455824679
 30
0.0
 11
204.0957090819759
 21
499.2572455824679
 31
0.0
  0
LINE
  5
27A5
330
1F
100
AcDbEntity
  8
AM_7
100
AcDbLine
 10
204.0957090819759
 20
499.2572455824679
 30
0.0
 11
204.0957090819759
 21
499.2572455824679
 31
0.0
  0
LINE
  5
27A6
330
1F
100
AcDbEntity
  8
AM_7
100
AcDbLine
 10
196.8457090819759
 20
499.2572455824679
 30
0.0
 11
204.0957090819759
 21
499.2572455824679
 31
0.0
  0
LINE
  5
27A7
330
1F
100
AcDbEntity
  8
AM_7
100
AcDbLine
 10
204.0957090819759
 20
499.2572455824679
 30
0.0
 11
211.3457090819759
 21
499.2572455824679
 31
0.0
  0
LINE
  5
27A8
330
1F
100
AcDbEntity
  8
AM_7
100
AcDbLine
 10
204.0957090819759
 20
492.0072455824679
 30
0.0
 11
204.0957090819759
 21
499.2572455824679
 31
0.0
  0
LINE
  5
27A9
330
1F
100
AcDbEntity
  8
AM_7
100
AcDbLine
 10
204.0957090819759
 20
499.2572455824679
 30
0.0
 11
204.0957090819759
 21
506.5072455824679
 31
0.0
  0
LINE
  5
27AA
330
1F
100
AcDbEntity
  8
AM_HID
100
AcDbLine
 10
245.0957090819759
 20
504.257245582468
 30
0.0
 11
252.5059188346887
 21
504.257245582468
 31
0.0
  0
LINE
  5
27AB
330
1F
100
AcDbEntity
  8
AM_HID
100
AcDbLine
 10
210.0957090819759
 20
504.257245582468
 30
0.0
 11
210.0957090819759
 21
498.257245582468
 31
0.0
  0
LINE
  5
27AC
330
1F
100
AcDbEntity
  8
AM_HID
100
AcDbLine
 10
210.0957090819759
 20
504.257245582468
 30
0.0
 11
245.0957090819759
 21
504.257245582468
 31
0.0
  0
LINE
  5
27AD
330
1F
100
AcDbEntity
  8
AM_HID
100
AcDbLine
 10
245.0957090819759
 20
498.257245582468
 30
0.0
 11
245.0957090819759
 21
504.257245582468
 31
0.0
  0
LINE
  5
27AE
330
1F
100
AcDbEntity
  8
AM_HID
100
AcDbLine
 10
256.9880139273891
 20
493.257245582468
 30
0.0
 11
250.0957090819759
 21
493.257245582468
 31
0.0
  0
LINE
  5
27AF
330
1F
100
AcDbEntity
  8
AM_HID
100
AcDbLine
 10
258.5957090819759
 20
487.257245582468
 30
0.0
 11
261.0957090819759
 21
487.257245582468
 31
0.0
  0
LINE
  5
27B0
102
{ACAD_REACTORS
330
27CF
102
}
330
1F
100
AcDbEntity
  8
AM_VIS
100
AcDbLine
 10
261.0957090819759
 20
487.257245582468
 30
0.0
 11
262.5957090819759
 21
487.257245582468
 31
0.0
  0
LINE
  5
27B1
102
{ACAD_REACTORS
330
27CF
102
}
330
1F
100
AcDbEntity
  8
AM_VIS
100
AcDbLine
 10
192.5957090819759
 20
487.257245582468
 30
0.0
 11
194.0957090819759
 21
487.257245582468
 31
0.0
  0
LINE
  5
27B2
330
1F
100
AcDbEntity
  8
AM_HID
100
AcDbLine
 10
194.0957090819759
 20
487.257245582468
 30
0.0
 11
196.5957090819759
 21
487.257245582468
 31
0.0
  0
LINE
  5
27B3
330
1F
100
AcDbEntity
  8
AM_HID
100
AcDbLine
 10
205.0957090819759
 20
493.257245582468
 30
0.0
 11
198.2034042365626
 21
493.257245582468
 31
0.0
  0
LINE
  5
27B4
330
1F
100
AcDbEntity
  8
AM_HID
100
AcDbLine
 10
202.685499329263
 20
504.257245582468
 30
0.0
 11
210.0957090819759
 21
504.257245582468
 31
0.0
  0
LINE
  5
27B5
330
1F
100
AcDbEntity
  8
AM_HID
100
AcDbLine
 10
256.9880139273891
 20
493.257245582468
 30
0.0
 11
258.5957090819759
 21
487.257245582468
 31
0.0
  0
LINE
  5
27B6
330
1F
100
AcDbEntity
  8
AM_HID
100
AcDbLine
 10
255.3434853994099
 20
499.3947096033829
 30
0.0
 11
256.9880139273891
 21
493.257245582468
 31
0.0
  0
LINE
  5
27B7
330
1F
100
AcDbEntity
  8
AM_HID
100
AcDbLine
 10
254.437770487267
 20
502.7748836726731
 30
0.0
 11
254.8431232929252
 21
501.2620864069666
 31
0.0
  0
LINE
  5
27B8
330
1F
100
AcDbEntity
  8
AM_HID
100
AcDbLine
 10
197.5957090819759
 20
484.257245582468
 30
0.0
 11
196.7918615046824
 21
487.257245582468
 31
0.0
  0
LINE
  5
27B9
330
1F
100
AcDbEntity
  8
AM_HID
100
AcDbLine
 10
206.5957090819759
 20
484.257245582468
 30
0.0
 11
197.5957090819759
 21
484.257245582468
 31
0.0
  0
LINE
  5
27BA
330
1F
100
AcDbEntity
  8
AM_HID
100
AcDbLine
 10
257.5957090819759
 20
484.257245582468
 30
0.0
 11
248.5957090819759
 21
484.257245582468
 31
0.0
  0
LINE
  5
27BB
330
1F
100
AcDbEntity
  8
AM_HID
100
AcDbLine
 10
258.3995566592694
 20
487.257245582468
 30
0.0
 11
257.5957090819761
 21
484.257245582468
 31
0.0
  0
LINE
  5
27BC
330
1F
100
AcDbEntity
  8
AM_HID
100
AcDbLine
 10
258.5957090819759
 20
487.257245582468
 30
0.0
 11
258.399556659269
 21
487.257245582468
 31
0.0
  0
LINE
  5
27BD
330
1F
100
AcDbEntity
  8
AM_HID
100
AcDbLine
 10
200.3482948710266
 20
501.2620864069666
 30
0.0
 11
200.7536476766847
 21
502.7748836726731
 31
0.0
  0
LINE
  5
27BE
330
1F
100
AcDbEntity
  8
AM_HID
100
AcDbLine
 10
198.2034042365626
 20
493.257245582468
 30
0.0
 11
199.8479327645418
 21
499.3947096033829
 31
0.0
  0
LINE
  5
27BF
330
1F
100
AcDbEntity
  8
AM_HID
100
AcDbLine
 10
196.5957090819759
 20
487.257245582468
 30
0.0
 11
198.2034042365626
 21
493.257245582468
 31
0.0
  0
LINE
  5
27C0
330
1F
100
AcDbEntity
  8
AM_HID
100
AcDbLine
 10
254.8431232929252
 20
501.2620864069666
 30
0.0
 11
255.3434853994099
 21
499.3947096033829
 31
0.0
  0
LINE
  5
27C1
330
1F
100
AcDbEntity
  8
AM_HID
100
AcDbLine
 10
199.8479327645418
 20
499.3947096033829
 30
0.0
 11
200.3482948710266
 21
501.2620864069666
 31
0.0
  0
ARC
  5
27C2
330
1F
100
AcDbEntity
  8
AM_HID
100
AcDbCircle
 10
205.0957090819759
 20
498.257245582468
 30
0.0
 40
5.0
100
AcDbArc
 50
270.0
 51
0.0
  0
ARC
  5
27C3
330
1F
100
AcDbEntity
  8
AM_HID
100
AcDbCircle
 10
250.0957090819759
 20
498.257245582468
 30
0.0
 40
5.0
100
AcDbArc
 50
180.0
 51
270.0
  0
ARC
  5
27C4
102
{ACAD_REACTORS
330
27CC
102
}
330
1F
100
AcDbEntity
  8
AM_HID
100
AcDbCircle
 10
252.5059188346887
 20
502.257245582468
 30
0.0
 40
2.0
100
AcDbArc
 50
14.99999999999445
 51
90.0
  0
ARC
  5
27C5
330
1F
100
AcDbEntity
  8
AM_HID
100
AcDbCircle
 10
202.685499329263
 20
502.257245582468
 30
0.0
 40
2.0
100
AcDbArc
 50
90.0
 51
165.0000000000055
  0
CIRCLE
  5
27C6
330
1F
100
AcDbEntity
  8
AM_HID
100
AcDbCircle
 10
251.0957090819759
 20
499.257245582468
 30
0.0
 40
2.75
  0
CIRCLE
  5
27C7
330
1F
100
AcDbEntity
  8
AM_HID
100
AcDbCircle
 10
204.0957090819759
 20
499.257245582468
 30
0.0
 40
2.75
  0
CIRCLE
  5
27C8
330
1F
100
AcDbEntity
  8
AM_HID
100
AcDbCircle
 10
251.0957090819759
 20
499.257245582468
 30
0.0
 40
4.25
  0
CIRCLE
  5
27C9
330
1F
100
AcDbEntity
  8
AM_HID
100
AcDbCircle
 10
204.0957090819759
 20
499.257245582468
 30
0.0
 40
4.25
  0
DIMENSION
  5
27CA
102
{ACAD_XDICTIONARY
360
27CB
102
}
102
{ACAD_REACTORS
330
27CC
102
}
330
1F
100
AcDbEntity
  8
AM_5
100
AcDbDimension
  2
*D33
 10
280.0250192266247
 20
434.257245582468
 30
0.0
 11
274.5250192266246
 21
469.2572455824681
 31
0.0
 70
    32
 71
     5
 42
70.0
  3
AM_ISO$0
100
AcDbAlignedDimension
 13
252.5059188346887
 23
504.257245582468
 33
0.0
 14
252.5059188346887
 24
434.257245582468
 34
0.0
 50
90.0
100
AcDbRotatedDimension
  0
DIMENSION
  5
27CD
102
{ACAD_XDICTIONARY
360
27CE
102
}
102
{ACAD_REACTORS
330
27CF
102
}
330
1F
100
AcDbEntity
  8
AM_5
100
AcDbDimension
  2
*D34
 10
262.5957090819759
 20
569.8485446171812
 30
0.0
 11
227.5957090819759
 21
575.3485446171812
 31
0.0
 70
    32
 71
     5
 42
70.0
  3
AM_ISO$0
100
AcDbAlignedDimension
 13
192.5957090819759
 23
487.257245582468
 33
0.0
 14
262.5957090819759
 24
487.257245582468
 34
0.0
100
AcDbRotatedDimension
  0
DIMENSION
  5
27D0
102
{ACAD_XDICTIONARY
360
27D1
102
}
102
{ACAD_REACTORS
330
27D2
102
}
330
1F
100
AcDbEntity
  8
AM_5
100
AcDbDimension
  2
*D35
 10
396.0379855426124
 20
368.4206395414664
 30
0.0
 11
361.5379855426124
 21
374.2723312980353
 31
0.0
 70
    32
  1
(<>)
 71
     5
 42
69.0
  3
AM_ISO$0
100
AcDbAlignedDimension
 13
327.0379855426124
 23
265.3487695009667
 33
0.0
 14
396.0379855426124
 24
348.3487695009667
 34
0.0
100
AcDbRotatedDimension
  0
DIMENSION
  5
27D3
102
{ACAD_XDICTIONARY
360
27D4
102
}
102
{ACAD_REACTORS
330
27D5
102
}
330
1F
100
AcDbEntity
  8
AM_5
100
AcDbDimension
  2
*D36
 10
447.0379855426124
 20
368.4206395414664
 30
0.0
 11
421.5379855426124
 21
373.9206395414663
 31
0.0
 70
    32
 71
     5
 42
51.0
  3
AM_ISO$0
100
AcDbAlignedDimension
 13
396.0379855426124
 23
348.3487695009667
 33
0.0
 14
447.0379855426124
 24
299.9987695009667
 34
0.0
100
AcDbRotatedDimension
  0
DIMENSION
  5
27D6
102
{ACAD_XDICTIONARY
360
27D7
102
}
102
{ACAD_REACTORS
330
27D8
102
}
330
1F
100
AcDbEntity
  8
AM_5
100
AcDbDimension
  2
*D37
 10
401.6226443070467
 20
228.1656757212993
 30
0.0
 11
348.4385170693085
 21
296.1399105206908
 31
0.0
 70
   163
  1
2-PT3/4
 71
     5
 42
25.00000000000043
  3
AM_ISO$3
100
AcDbDiametricDimension
 15
390.4533267781782
 25
250.5318632806337
 35
0.0
 40
0.0
1001
ACAD
1000
DSTYLE
1002
{
1070
   144
1040
1.0
1070
    40
1040
2.0
1002
}
  0
ARC
  5
27D9
330
1F
100
AcDbEntity
  8
AM_4
100
AcDbCircle
 10
396.0379855426124
 20
239.3487695009667
 30
0.0
 40
13.22049999999999
100
AcDbArc
 50
260.0000000000014
 51
169.9999999999997
  0
LINE
  5
27DA
102
{ACAD_REACTORS
330
27E5
102
}
330
1F
100
AcDbEntity
  8
AM_7
100
AcDbLine
 10
441.7379855426122
 20
292.2487695009668
 30
0.0
 11
450.0379855426124
 21
292.2487695009668
 31
0.0
  0
LINE
  5
27DB
330
1F
100
AcDbEntity
  8
AM_HID
100
AcDbLine
 10
444.7379855426125
 20
295.4987695009667
 30
0.0
 11
447.0379855426124
 21
295.4987695009667
 31
0.0
  0
LINE
  5
27DC
330
1F
100
AcDbEntity
  8
AM_HID
100
AcDbLine
 10
444.7379855426125
 20
288.9987695009668
 30
0.0
 11
447.0379855426124
 21
288.9987695009668
 31
0.0
  0
DIMENSION
  5
27DD
102
{ACAD_XDICTIONARY
360
27DE
102
}
102
{ACAD_REACTORS
330
27DF
102
}
330
1F
100
AcDbEntity
  8
AM_5
100
AcDbDimension
  2
*D38
 10
475.6775915744277
 20
292.2487695009668
 30
0.0
 11
469.8275915744275
 21
319.5487695009668
 31
0.0
 70
    32
  1
(<>)
 71
     5
 42
54.59999999999991
  3
AM_ISO$0
100
AcDbAlignedDimension
 13
419.0379855426124
 23
346.8487695009667
 33
0.0
 14
450.0379855426124
 24
292.2487695009668
 34
0.0
 50
90.0
100
AcDbRotatedDimension
  0
DIMENSION
  5
27E0
102
{ACAD_XDICTIONARY
360
27E1
102
}
102
{ACAD_REACTORS
330
27E2
102
}
330
1F
100
AcDbEntity
  8
AM_5
100
AcDbDimension
  2
*D39
 10
149.3990271483667
 20
346.8487695009667
 30
0.0
 11
149.3990271483667
 21
275.4835185271353
 31
0.0
 70
   160
 71
     5
 42
144.5
  3
AM_ISO$0
100
AcDbAlignedDimension
 13
215.4713534289938
 23
202.3487695009667
 33
0.0
 14
204.5957090819759
 24
346.8487695009667
 34
0.0
 50
90.0
100
AcDbRotatedDimension
1001
ACAD
1000
DSTYLE
1002
{
1070
   174
1070
     1
1002
}
  0
DIMENSION
  5
27E3
102
{ACAD_XDICTIONARY
360
27E4
102
}
102
{ACAD_REACTORS
330
27E5
102
}
330
1F
100
AcDbEntity
  8
AM_5
100
AcDbDimension
  2
*D40
 10
475.6775915744277
 20
239.3487695009666
 30
0.0
 11
470.1769025980496
 21
265.7987695009668
 31
0.0
 70
    32
 71
     5
 42
52.90000000000015
  3
AM_ISO$0
100
AcDbAlignedDimension
 13
450.0379855426124
 23
292.2487695009668
 33
0.0
 14
411.5379855426124
 24
239.3487695009667
 34
0.0
 50
90.0
100
AcDbRotatedDimension
1001
ACAD
1000
DSTYLE
1002
{
1070
   174
1070
     1
1002
}
  0
DIMENSION
  5
27E6
102
{ACAD_XDICTIONARY
360
27E7
102
}
102
{ACAD_REACTORS
330
27E8
102
}
330
1F
100
AcDbEntity
  8
AM_5
100
AcDbDimension
  2
*D41
 10
475.6775915744278
 20
239.3487695009667
 30
0.0
 11
470.1775915744278
 21
220.8487695009667
 31
0.0
 70
    32
 71
     5
 42
37.0
  3
AM_ISO$0
100
AcDbAlignedDimension
 13
406.5379855426124
 23
202.3487695009667
 33
0.0
 14
411.5379855426124
 24
239.3487695009667
 34
0.0
 50
90.0
100
AcDbRotatedDimension
1001
ACAD
1000
DSTYLE
1002
{
1070
   174
1070
     1
1002
}
  0
LINE
  5
27E9
330
1F
100
AcDbEntity
  8
AM_VIS
100
AcDbLine
 10
234.9569250144193
 20
203.8487695009667
 30
0.0
 11
234.9569250144193
 21
208.3487695009667
 31
0.0
  0
LINE
  5
27EA
330
1F
100
AcDbEntity
  8
AM_VIS
100
AcDbLine
 10
233.6578869087425
 20
208.3487695009667
 30
0.0
 11
233.6578869087425
 21
203.8487695009667
 31
0.0
  0
LINE
  5
27EB
330
1F
100
AcDbEntity
  8
AM_VIS
100
AcDbLine
 10
221.5335312552095
 20
203.8487695009667
 30
0.0
 11
221.5335312552095
 21
208.3487695009667
 31
0.0
  0
LINE
  5
27EC
330
1F
100
AcDbEntity
  8
AM_VIS
100
AcDbLine
 10
220.2344931495327
 20
208.3487695009667
 30
0.0
 11
220.2344931495327
 21
203.8487695009667
 31
0.0
  0
LINE
  5
27ED
330
1F
100
AcDbEntity
  8
AM_VIS
100
AcDbLine
 10
221.5335312552095
 20
203.8487695009667
 30
0.0
 11
221.5335312552095
 21
202.3487695009667
 31
0.0
  0
ELLIPSE
  5
27EE
330
1F
100
AcDbEntity
  8
AM_VIS
100
AcDbEllipse
 10
221.5335312552095
 20
203.8487695009667
 30
0.0
 11
0.0
 21
-1.5
 31
0.0
210
0.0
220
0.0
230
1.0
 40
0.866025403784439
 41
4.712388980384689
 42
6.283185307179586
  0
ELLIPSE
  5
27EF
330
1F
100
AcDbEntity
  8
AM_VIS
100
AcDbEllipse
 10
233.6578869087425
 20
203.8487695009667
 30
0.0
 11
0.000000000000001
 21
-1.5
 31
0.0
210
0.0
220
0.0
230
1.0
 40
0.8660254037844389
 41
-0.0000000000000009
 42
1.570796326794895
  0
LINE
  5
27F0
330
1F
100
AcDbEntity
  8
AM_VIS
100
AcDbLine
 10
233.6578869087425
 20
202.3487695009667
 30
0.0
 11
233.6578869087425
 21
203.8487695009667
 31
0.0
  0
LINE
  5
27F1
330
1F
100
AcDbEntity
  8
AM_VIS
100
AcDbLine
 10
384.7879855430895
 20
203.8487695009667
 30
0.0
 11
384.7879855430895
 21
208.3487695009667
 31
0.0
  0
LINE
  5
27F2
330
1F
100
AcDbEntity
  8
AM_VIS
100
AcDbLine
 10
396.7879855426124
 20
203.8487695009667
 30
0.0
 11
396.7879855426124
 21
208.3487695009667
 31
0.0
  0
LINE
  5
27F3
330
1F
100
AcDbEntity
  8
AM_VIS
100
AcDbLine
 10
395.2879855426124
 20
208.3487695009667
 30
0.0
 11
395.2879855426124
 21
203.8487695009667
 31
0.0
  0
LINE
  5
27F4
330
1F
100
AcDbEntity
  8
AM_VIS
100
AcDbLine
 10
407.2879855430894
 20
208.3487695009667
 30
0.0
 11
407.2879855430894
 21
203.8487695009667
 31
0.0
  0
ELLIPSE
  5
27F5
330
1F
100
AcDbEntity
  8
AM_VIS
100
AcDbEllipse
 10
406.5379855430895
 20
203.8487695009667
 30
0.0
 11
-0.0000000000000034
 21
-1.5
 31
0.0
210
0.0
220
0.0
230
1.0
 40
0.4999999999999999
 41
0.0000000000000009
 42
1.570796326794897
  0
ELLIPSE
  5
27F6
330
1F
100
AcDbEntity
  8
AM_VIS
100
AcDbEllipse
 10
396.0379855426124
 20
203.8487695009667
 30
0.0
 11
-0.0000000000000028
 21
-1.499999999999999
 31
0.0
210
0.0
220
0.0
230
1.0
 40
0.4999999999999994
 41
0.0000000000000009
 42
1.570796326794897
  0
ELLIPSE
  5
27F7
330
1F
100
AcDbEntity
  8
AM_VIS
100
AcDbEllipse
 10
396.0379855426124
 20
203.8487695009667
 30
0.0
 11
-0.0000000000000034
 21
-1.5
 31
0.0
210
0.0
220
0.0
230
1.0
 40
0.4999999999999997
 41
4.71238898038469
 42
6.283185307179603
  0
ELLIPSE
  5
27F8
330
1F
100
AcDbEntity
  8
AM_VIS
100
AcDbEllipse
 10
385.5379855430895
 20
203.8487695009667
 30
0.0
 11
0.0000000000000017
 21
-1.5
 31
0.0
210
0.0
220
0.0
230
1.0
 40
0.4999999999999993
 41
4.712388980384689
 42
6.283185307179586
  0
LINE
  5
27F9
330
1F
100
AcDbEntity
  8
AM_VIS
100
AcDbLine
 10
243.8456647968446
 20
251.3487695009668
 30
0.0
 11
243.8456647968446
 21
227.3487695009668
 31
0.0
  0
LINE
  5
27FA
330
1F
100
AcDbEntity
  8
AM_VIS
100
AcDbLine
 10
245.7775164494226
 20
227.3487695009668
 30
0.0
 11
245.7775164494226
 21
251.3487695009668
 31
0.0
  0
LINE
  5
27FB
330
1F
100
AcDbEntity
  8
AM_VIS
100
AcDbLine
 10
206.5957090819759
 20
227.3487695009668
 30
0.0
 11
206.5957090819759
 21
251.3487695009668
 31
0.0
  0
LINE
  5
27FC
330
1F
100
AcDbEntity
  8
AM_VIS
100
AcDbLine
 10
209.4139017145292
 20
251.3487695009668
 30
0.0
 11
209.4139017145292
 21
227.3487695009668
 31
0.0
  0
LINE
  5
27FD
330
1F
100
AcDbEntity
  8
AM_VIS
100
AcDbLine
 10
211.3457533671073
 20
227.3487695009668
 30
0.0
 11
211.3457533671073
 21
251.3487695009668
 31
0.0
  0
LINE
  5
27FE
330
1F
100
AcDbEntity
  8
AM_VIS
100
AcDbLine
 10
203.4528263172419
 20
251.3487695009668
 30
0.0
 11
251.7385918467101
 21
251.3487695009668
 31
0.0
  0
LINE
  5
27FF
330
1F
100
AcDbEntity
  8
AM_VIS
100
AcDbLine
 10
248.5957090819759
 20
251.3487695009668
 30
0.0
 11
248.5957090819759
 21
227.3487695009668
 31
0.0
  0
LINE
  5
2800
330
1F
100
AcDbEntity
  8
AM_VIS
100
AcDbLine
 10
206.5957090819759
 20
227.3487695009668
 30
0.0
 11
209.4139017145292
 21
227.3487695009668
 31
0.0
  0
LINE
  5
2801
330
1F
100
AcDbEntity
  8
AM_VIS
100
AcDbLine
 10
211.3457533671073
 20
227.3487695009668
 30
0.0
 11
243.8456647968446
 21
227.3487695009668
 31
0.0
  0
LINE
  5
2802
330
1F
100
AcDbEntity
  8
AM_VIS
100
AcDbLine
 10
245.7775164494226
 20
227.3487695009668
 30
0.0
 11
248.5957090819759
 21
227.3487695009668
 31
0.0
  0
LINE
  5
2803
330
1F
100
AcDbEntity
  8
AM_VIS
100
AcDbLine
 10
211.3457533671073
 20
227.3487695009668
 30
0.0
 11
209.4139017145292
 21
227.3487695009668
 31
0.0
  0
LINE
  5
2804
330
1F
100
AcDbEntity
  8
AM_VIS
100
AcDbLine
 10
245.7775164494226
 20
227.3487695009668
 30
0.0
 11
243.8456647968446
 21
227.3487695009668
 31
0.0
  0
ARC
  5
2805
330
1F
100
AcDbEntity
  8
AM_4
100
AcDbCircle
 10
227.5957090819759
 20
239.3487695009668
 30
0.0
 40
6.5785
100
AcDbArc
 50
260.0000000000014
 51
169.9999999999997
  0
CIRCLE
  5
2806
330
1F
100
AcDbEntity
  8
AM_0
100
AcDbCircle
 10
227.5957090819759
 20
239.3487695009668
 30
0.0
 40
5.7225
  0
LEADER
  5
2807
330
1F
100
AcDbEntity
  8
AM_5
100
AcDbLeader
  3
AM_ISO$7
 73
     0
 75
     1
 40
7.0
 41
28.28994949366117
 76
     3
 10
208.5655103517338
 20
279.1449103992523
 30
0.0
 10
190.1278270464777
 20
300.2402195308533
 30
0.0
 10
183.1278270464777
 20
300.2402195308533
 30
0.0
340
2808
213
0.0
223
0.5275396565259598
233
0.0
1001
ACAD
1000
DSTYLE
1002
{
1070
    41
1040
7.0
1070
   147
1040
1.0
1070
    77
1070
     1
1070
    40
1040
1.0
1002
}
  0
MTEXT
  5
2808
102
{ACAD_REACTORS
330
2807
102
}
330
1F
100
AcDbEntity
  8
AM_5
100
AcDbMText
 10
182.1278270464777
 20
300.7126798743274
 30
0.0
 40
7.0
 41
0.0
 71
     9
 72
     1
  1
M51*1.5
 73
     1
 44
1.0
1001
ACAD
1000
MTEXTBEGIN
1070
    73
1070
     1
1070
    44
1040
1.0
1070
    74
1070
     0
1000
MTEXTEND
  0
DIMENSION
  5
2809
330
1F
100
AcDbEntity
  8
AM_5
100
AcDbDimension
  2
*D29
 10
254.5957090819769
 20
292.2487695009672
 30
0.0
 11
287.3380613186439
 21
310.7782079731744
 31
0.0
 70
   164
  1
2-%%C6.5*15.5L
 71
     5
 42
3.249999999999829
  3
AM_ISO$4
100
AcDbRadialDimension
 15
255.4587062022746
 25
295.3820961628965
 35
0.0
 40
0.0
  0
ENDSEC
  0
SECTION
  2
OBJECTS
  0
DICTIONARY
  5
C
330
0
100
AcDbDictionary
281
     1
  3
ACAD_COLOR
350
BE
  3
ACAD_GROUP
350
D
  3
ACAD_LAYOUT
350
1A
  3
ACAD_MATERIAL
350
BD
  3
ACAD_MLINESTYLE
350
17
  3
ACAD_PLOTSETTINGS
350
19
  3
ACAD_PLOTSTYLENAME
350
E
  3
ACAD_TABLESTYLE
350
11A
  3
AcAsAppObject
350
1C95
  3
ACASGREF_MASTER
350
1CDD
  3
ACDBHEADERROUNDTRIPXREC
350
29E7
  3
AcDbVariableDictionary
350
94
  3
AcmDictionary
350
5B
  3
AD_GREF_MODULE
350
1CDE
  3
AD_MAPI_MODULE
350
1CF0
  3
AMG
350
41
  3
AMGSNAPSETTINGS
350
1B8
  3
DWGPROPS
350
29E6
  3
MAPISURF_MODULE
350
1CDF
  0
DICTIONARY
  5
3F9
330
2
100
AcDbDictionary
280
     1
281
     1
  3
ACAD_LAYERFILTERS
360
20C6
  3
ACAD_LAYERSTATES
360
C0A
  3
ACLYDICTIONARY
360
20C5
  3
AMLAYER_GROUPCOLORS
360
E42
  0
DICTIONARY
  5
8F
330
1F
100
AcDbDictionary
280
     1
281
     1
  3
ACAD_INDEX
360
1E8A
  3
ACAD_SORTENTS
360
E74
  0
DICTIONARY
  5
19A3
330
19A2
100
AcDbDictionary
280
     1
281
     1
  0
DICTIONARY
  5
19B8
330
19B7
100
AcDbDictionary
280
     1
281
     1
  0
DICTIONARY
  5
278E
330
278D
100
AcDbDictionary
280
     1
281
     1
  3
ACAD_DIMASSOC
360
278F
  0
DICTIONARY
  5
2799
330
2798
100
AcDbDictionary
280
     1
281
     1
  3
ACAD_DIMASSOC
360
279A
  0
DICTIONARY
  5
279C
330
279B
100
AcDbDictionary
280
     1
281
     1
  3
ACAD_DIMASSOC
360
279D
  0
DICTIONARY
  5
27CB
330
27CA
100
AcDbDictionary
280
     1
281
     1
  3
ACAD_DIMASSOC
360
27CC
  0
DICTIONARY
  5
27CE
330
27CD
100
AcDbDictionary
280
     1
281
     1
  3
ACAD_DIMASSOC
360
27CF
  0
DICTIONARY
  5
27D1
330
27D0
100
AcDbDictionary
280
     1
281
     1
  3
ACAD_DIMASSOC
360
27D2
  0
DICTIONARY
  5
27D4
330
27D3
100
AcDbDictionary
280
     1
281
     1
  3
ACAD_DIMASSOC
360
27D5
  0
DICTIONARY
  5
27D7
330
27D6
100
AcDbDictionary
280
     1
281
     1
  3
ACAD_DIMASSOC
360
27D8
  0
DICTIONARY
  5
27DE
330
27DD
100
AcDbDictionary
280
     1
281
     1
  3
ACAD_DIMASSOC
360
27DF
  0
DICTIONARY
  5
27E1
330
27E0
100
AcDbDictionary
280
     1
281
     1
  3
ACAD_DIMASSOC
360
27E2
  0
DICTIONARY
  5
27E4
330
27E3
100
AcDbDictionary
280
     1
281
     1
  3
ACAD_DIMASSOC
360
27E5
  0
DICTIONARY
  5
27E7
330
27E6
100
AcDbDictionary
280
     1
281
     1
  3
ACAD_DIMASSOC
360
27E8
  0
DICTIONARY
  5
BE
102
{ACAD_REACTORS
330
C
102
}
330
C
100
AcDbDictionary
281
     1
  0
DICTIONARY
  5
D
102
{ACAD_REACTORS
330
C
102
}
330
C
100
AcDbDictionary
281
     1
  0
DICTIONARY
  5
1A
102
{ACAD_REACTORS
330
C
102
}
330
C
100
AcDbDictionary
281
     1
  3
Model
350
22
  3
配置1
350
1E
  3
配置2
350
26
  0
DICTIONARY
  5
BD
102
{ACAD_REACTORS
330
C
102
}
330
C
100
AcDbDictionary
281
     1
  0
DICTIONARY
  5
17
102
{ACAD_REACTORS
330
C
102
}
330
C
100
AcDbDictionary
281
     1
  3
Standard
350
18
  0
DICTIONARY
  5
19
102
{ACAD_REACTORS
330
C
102
}
330
C
100
AcDbDictionary
281
     1
  0
ACDBDICTIONARYWDFLT
  5
E
102
{ACAD_REACTORS
330
C
102
}
330
C
100
AcDbDictionary
281
     1
  3
Normal
350
F
100
AcDbDictionaryWithDefault
340
F
  0
DICTIONARY
  5
11A
102
{ACAD_REACTORS
330
C
102
}
330
C
100
AcDbDictionary
281
     1
  3
Standard
350
11B
  0
ACAD_PROXY_OBJECT
  5
1C95
102
{ACAD_REACTORS
330
C
102
}
330
C
100
AcDbProxyObject
 90
      499
 91
      599
 95
  2555929
 70
     0
 93
       10
310
4040
 94
        0
1001
ACAD
1000
AcRTDxfName
1000
ASAPP
1000
AcRTDxfName
1000
ASAPP
  0
ACAD_PROXY_OBJECT
  5
1CDD
102
{ACAD_REACTORS
330
C
102
}
330
C
100
AcDbProxyObject
 90
      499
 91
      604
 95
  2555929
 70
     0
 93
       34
310
0100004067
 94
        0
1001
ACAD
1000
AcRTDxfName
1000
ACASGREFMASTER
1000
AcRTDxfName
1000
ACASGREFMASTER
  0
DICTIONARY
  5
29E7
102
{ACAD_REACTORS
330
C
102
}
330
C
100
AcDbDictionary
281
     1
  0
DICTIONARY
  5
94
102
{ACAD_REACTORS
330
C
102
}
330
C
100
AcDbDictionary
281
     1
  3
CTABLESTYLE
350
138
  3
DIMASSOC
350
96
  3
INDEXCTL
350
95
  3
PROJECTNAME
350
2187
  0
DICTIONARY
  5
5B
102
{ACAD_REACTORS
330
C
102
}
330
C
100
AcDbDictionary
281
     1
  3
AcmBOM
350
1B5
  3
AcmStdDictionary
350
61
  3
AMDTSECTSYM_ARROWCOLOR
350
123
  0
ACAD_PROXY_OBJECT
  5
1CDE
102
{ACAD_REACTORS
330
C
102
}
330
C
100
AcDbProxyObject
 90
      499
 91
      605
 95
  2555929
 70
     0
 93
      114
310
000000438080000000000000000000
 94
        0
1001
ACAD
1000
AcRTDxfName
1000
ACADGREFMODULE
1000
AcRTDxfName
1000
ACADGREFMODULE
  0
ACAD_PROXY_OBJECT
  5
1CF0
102
{ACAD_REACTORS
330
C
102
}
330
C
100
AcDbProxyObject
 90
      499
 91
      607
 95
  2555929
 70
     0
 93
       34
310
05000044C0
 94
        0
1001
ACAD
1000
AcRTDxfName
1000
MAPIADMODULE
1000
AcRTDxfName
1000
MAPIADMODULE
  0
DICTIONARY
  5
41
102
{ACAD_REACTORS
330
C
102
}
330
C
100
AcDbDictionary
281
     1
  0
DICTIONARY
  5
1B8
102
{ACAD_REACTORS
330
C
102
}
330
C
100
AcDbDictionary
281
     1
  0
XRECORD
  5
29E6
102
{ACAD_REACTORS
330
C
102
}
330
C
100
AcDbXrecord
280
     1
  1
DWGPROPS COOKIE
  2

  3

  4

  6

  7

  8

  9

300
AmdtFileType=84
301
=
302
=
303
=
304
=
305
=
306
=
307
=
308
=
309
=
 40
0.0842725925925926
 41
2454515.453502778
 42
2454608.362152384
  1

 90
        1
  0
ACAD_PROXY_OBJECT
  5
1CDF
102
{ACAD_REACTORS
330
C
102
}
330
C
100
AcDbProxyObject
 90
      499
 91
      606
 95
  2555929
 70
     0
 93
        8
310
047E
 94
        0
1001
ACAD
1000
AcRTDxfName
1000
AMDTMAPISURFMOUDULE
1000
AcRTDxfName
1000
AMDTMAPISURFMOUDULE
  0
DICTIONARY
  5
20C6
102
{ACAD_REACTORS
330
3F9
102
}
330
3F9
100
AcDbDictionary
281
     1
  0
DICTIONARY
  5
C0A
102
{ACAD_REACTORS
330
3F9
102
}
330
3F9
100
AcDbDictionary
281
     1
  0
DICTIONARY
  5
20C5
102
{ACAD_REACTORS
330
3F9
102
}
330
3F9
100
AcDbDictionary
281
     1
1001
ACAD
1000
<All
  0
DICTIONARY
  5
E42
102
{ACAD_REACTORS
330
3F9
102
}
330
3F9
100
AcDbDictionary
280
     1
281
     1
  0
DICTIONARY
  5
1E8A
102
{ACAD_REACTORS
330
8F
102
}
330
8F
100
AcDbDictionary
281
     1
  3
*A1
350
1E8B
  0
SORTENTSTABLE
  5
E74
102
{ACAD_REACTORS
330
8F
102
}
330
8F
100
AcDbSortentsTable
330
1F
331
204C
  5
2068
331
2054
  5
20AA
331
2015
  5
2046
331
205C
  5
20B2
331
2064
  5
20BA
331
206C
  5
20C2
331
202D
  5
2055
331
1FFE
  5
201A
331
2006
  5
202B
331
2045
  5
2061
331
200E
  5
203C
331
204D
  5
2069
331
2055
  5
20AB
331
2016
  5
2047
331
205D
  5
20B3
331
201E
  5
204C
331
2065
  5
20BB
331
202E
  5
2056
331
2036
  5
2058
331
1FFF
  5
201E
331
2007
  5
202C
331
2046
  5
2062
331
200F
  5
2040
331
204E
  5
206A
331
2056
  5
20AC
331
2017
  5
2048
331
205E
  5
20B4
331
2066
  5
20BC
331
2027
  5
204F
331
2000
  5
2022
331
2008
  5
202D
331
2047
  5
2063
331
204F
  5
206B
331
2010
  5
2041
331
2057
  5
20AD
331
2018
  5
2049
331
205F
  5
20B5
331
2067
  5
20BD
331
2028
  5
2050
331
2001
  5
2023
331
2040
  5
205C
331
2009
  5
202E
331
2048
  5
2064
331
2050
  5
206C
331
2011
  5
2042
331
2058
  5
20AE
331
2019
  5
204A
331
2060
  5
20B6
331
2068
  5
20BE
331
2029
  5
2051
331
2002
  5
2027
331
2041
  5
205D
331
200A
  5
2032
331
2049
  5
2065
331
2051
  5
20A7
331
2012
  5
2043
331
2059
  5
20AF
331
201A
  5
204B
331
2061
  5
20B7
331
2022
  5
204D
331
2069
  5
20BF
331
202A
  5
2052
331
2032
  5
2057
331
203A
  5
2059
331
2003
  5
2028
331
2042
  5
205E
331
200B
  5
2036
331
204A
  5
2066
331
2052
  5
20A8
331
2013
  5
2044
331
205A
  5
20B0
331
2062
  5
20B8
331
2023
  5
204E
331
206A
  5
20C0
331
202B
  5
2053
331
1FFC
  5
2018
331
2004
  5
2029
331
203B
  5
205A
331
2043
  5
205F
331
200C
  5
203A
331
204B
  5
2067
331
2053
  5
20A9
331
2014
  5
2045
331
205B
  5
20B1
331
2063
  5
20B9
331
206B
  5
20C1
331
202C
  5
2054
331
1FFD
  5
2019
331
203C
  5
205B
331
2005
  5
202A
331
2044
  5
2060
331
200D
  5
203B
  0
DIMASSOC
  5
278F
102
{ACAD_REACTORS
330
278E
102
}
330
278E
100
AcDbDimAssoc
330
278D
 90
        3
 70
     0
 71
     0
  1
AcDbOsnapPointRef
 72
    13
331
25EB
 73
     0
 91
        0
 40
0.0
 10
0.0
 20
0.0
 30
2.000000000000000E+50
 75
     0
  1
AcDbOsnapPointRef
 72
     1
331
2600
 73
     0
 91
        0
 40
0.0
 10
0.0
 20
0.0
 30
2.000000000000000E+50
 75
     0
  0
DIMASSOC
  5
279A
102
{ACAD_REACTORS
330
2799
102
}
330
2799
100
AcDbDimAssoc
330
2798
 90
        3
 70
     0
 71
     0
  1
AcDbOsnapPointRef
 72
     1
331
2790
 73
     0
 91
        0
 40
0.0
 10
0.0
 20
0.0
 30
2.000000000000000E+50
 75
     0
  1
AcDbOsnapPointRef
 72
     1
331
2793
 73
     0
 91
        0
 40
0.0
 10
0.0
 20
0.0
 30
2.000000000000000E+50
 75
     0
  0
DIMASSOC
  5
279D
102
{ACAD_REACTORS
330
279C
102
}
330
279C
100
AcDbDimAssoc
330
279B
 90
        3
 70
     0
 71
     0
  1
AcDbOsnapPointRef
 72
     1
331
2600
 73
     0
 91
        0
 40
0.0
 10
0.0
 20
0.0
 30
2.000000000000000E+50
 75
     0
  1
AcDbOsnapPointRef
 72
    13
331
25BE
 73
     0
 91
        0
 40
0.0
 10
0.0
 20
0.0
 30
2.000000000000000E+50
 75
     0
  0
DIMASSOC
  5
27CC
102
{ACAD_REACTORS
330
27CB
102
}
330
27CB
100
AcDbDimAssoc
330
27CA
 90
        3
 70
     0
 71
     0
  1
AcDbOsnapPointRef
 72
     1
331
27C4
 73
     0
 91
        0
 40
0.0
 10
0.0
 20
0.0
 30
2.000000000000000E+50
 75
     0
  1
AcDbOsnapPointRef
 72
    13
331
25BE
 73
     0
 91
        0
 40
0.0
 10
0.0
 20
0.0
 30
2.000000000000000E+50
 75
     0
  0
DIMASSOC
  5
27CF
102
{ACAD_REACTORS
330
27CE
102
}
330
27CE
100
AcDbDimAssoc
330
27CD
 90
        3
 70
     0
 71
     0
  1
AcDbOsnapPointRef
 72
    13
331
27B1
 73
     0
 91
        0
 40
0.0
 10
0.0
 20
0.0
 30
2.000000000000000E+50
 75
     0
  1
AcDbOsnapPointRef
 72
     1
331
27B0
 73
     0
 91
        0
 40
0.0
 10
0.0
 20
0.0
 30
2.000000000000000E+50
 75
     0
  0
DIMASSOC
  5
27D2
102
{ACAD_REACTORS
330
27D1
102
}
330
27D1
100
AcDbDimAssoc
330
27D0
 90
        1
 70
     0
 71
     0
  1
AcDbOsnapPointRef
 72
     1
331
2735
 73
     0
 91
        0
 40
0.0
 10
0.0
 20
0.0
 30
2.000000000000000E+50
 75
     0
  0
DIMASSOC
  5
27D5
102
{ACAD_REACTORS
330
27D4
102
}
330
27D4
100
AcDbDimAssoc
330
27D3
 90
        3
 70
     0
 71
     0
  1
AcDbOsnapPointRef
 72
     1
331
2580
 73
     0
 91
        0
 40
0.0
 10
0.0
 20
0.0
 30
2.000000000000000E+50
 75
     0
  1
AcDbOsnapPointRef
 72
    13
331
276D
 73
     0
 91
        0
 40
0.0
 10
0.0
 20
0.0
 30
2.000000000000000E+50
 75
     0
  0
DIMASSOC
  5
27D8
102
{ACAD_REACTORS
330
27D7
102
}
330
27D7
100
AcDbDimAssoc
330
27D6
 90
        2
 70
     0
 71
     0
  1
AcDbOsnapPointRef
 72
     3
331
273C
 73
     2
 91
        0
 40
0.0
 10
0.0
 20
0.0
 30
0.0
 75
     0
  0
DIMASSOC
  5
27DF
102
{ACAD_REACTORS
330
27DE
102
}
330
27DE
100
AcDbDimAssoc
330
27DD
 90
        1
 70
     0
 71
     0
  1
AcDbOsnapPointRef
 72
     1
331
2749
 73
     0
 91
        0
 40
0.0
 10
0.0
 20
0.0
 30
2.000000000000000E+50
 75
     0
  0
DIMASSOC
  5
27E2
102
{ACAD_REACTORS
330
27E1
102
}
330
27E1
100
AcDbDimAssoc
330
27E0
 90
        3
 70
     0
 71
     0
  1
AcDbOsnapPointRef
 72
    13
331
262C
 73
     0
 91
        0
 40
0.0
 10
0.0
 20
0.0
 30
2.000000000000000E+50
 75
     0
  1
AcDbOsnapPointRef
 72
    13
331
2699
 73
     0
 91
        0
 40
0.0
 10
0.0
 20
0.0
 30
2.000000000000000E+50
 75
     0
  0
DIMASSOC
  5
27E5
102
{ACAD_REACTORS
330
27E4
102
}
330
27E4
100
AcDbDimAssoc
330
27E3
 90
        3
 70
     0
 71
     0
  1
AcDbOsnapPointRef
 72
     1
331
27DA
 73
     0
 91
        0
 40
0.0
 10
0.0
 20
0.0
 30
2.000000000000000E+50
 75
     0
  1
AcDbOsnapPointRef
 72
     1
331
2589
 73
     0
 91
        0
 40
0.0
 10
0.0
 20
0.0
 30
2.000000000000000E+50
 75
     0
  0
DIMASSOC
  5
27E8
102
{ACAD_REACTORS
330
27E7
102
}
330
27E7
100
AcDbDimAssoc
330
27E6
 90
        3
 70
     0
 71
     0
  1
AcDbOsnapPointRef
 72
    13
331
2737
 73
     0
 91
        0
 40
0.0
 10
0.0
 20
0.0
 30
2.000000000000000E+50
 75
     0
  1
AcDbOsnapPointRef
 72
     1
331
2589
 73
     0
 91
        0
 40
0.0
 10
0.0
 20
0.0
 30
2.000000000000000E+50
 75
     0
  0
LAYOUT
  5
22
102
{ACAD_XDICTIONARY
360
29EA
102
}
102
{ACAD_REACTORS
330
1A
102
}
330
1A
100
AcDbPlotSettings
  1

  2
\\RD\EPSON Stylus C63 Series單色
  4
A4
  6

 40
3.757083177566528
 41
3.757076978683471
 42
3.757080078125
 43
3.757080078125
 44
209.9733276367187
 45
296.9683227539062
 46
0.0
 47
0.0
 48
0.0
 49
0.0
140
0.0
141
0.0
142
1.0
143
0.3405120737814363
 70
 11952
 72
     1
 73
     0
 74
     0
  7
單色出圖.ctb
 75
     0
147
2.936753428137963
148
-2047.07469463503
149
-1261.649717473083
100
AcDbLayout
  1
Model
 70
     1
 71
     0
 10
0.0
 20
0.0
 11
12.0
 21
9.0
 12
0.0
 22
0.0
 32
0.0
 14
0.0
 24
0.0
 34
0.0
 15
0.0
 25
0.0
 35
0.0
146
0.0
 13
0.0
 23
0.0
 33
0.0
 16
1.0
 26
0.0
 36
0.0
 17
0.0
 27
1.0
 37
0.0
 76
     0
330
1F
1001
ACAD_PSEXT
1000
\\RD\EPSON Stylus C63 Series單色
1000
EPSON Stylus C63 Series
1000
\\RD
1000

1070
     0
  0
LAYOUT
  5
1E
102
{ACAD_XDICTIONARY
360
29E8
102
}
102
{ACAD_REACTORS
330
1A
102
}
330
1A
100
AcDbPlotSettings
  1

  2

  4

  6

 40
0.0
 41
0.0
 42
0.0
 43
0.0
 44
0.0
 45
0.0
 46
0.0
 47
0.0
 48
0.0
 49
0.0
140
0.0
141
0.0
142
1.0
143
1.0
 70
   688
 72
     0
 73
     0
 74
     5
  7
單色出圖.ctb
 75
    16
147
1.0
148
0.0
149
0.0
100
AcDbLayout
  1
配置1
 70
     1
 71
     1
 10
0.0
 20
0.0
 11
420.0
 21
297.0
 12
0.0
 22
0.0
 32
0.0
 14
1.000000000000000E+20
 24
1.000000000000000E+20
 34
1.000000000000000E+20
 15
-1.000000000000000E+20
 25
-1.000000000000000E+20
 35
-1.000000000000000E+20
146
0.0
 13
0.0
 23
0.0
 33
0.0
 16
1.0
 26
0.0
 36
0.0
 17
0.0
 27
1.0
 37
0.0
 76
     0
330
1B
  0
LAYOUT
  5
26
102
{ACAD_XDICTIONARY
360
29EC
102
}
102
{ACAD_REACTORS
330
1A
102
}
330
1A
100
AcDbPlotSettings
  1

  2

  4

  6

 40
0.0
 41
0.0
 42
0.0
 43
0.0
 44
0.0
 45
0.0
 46
0.0
 47
0.0
 48
0.0
 49
0.0
140
0.0
141
0.0
142
1.0
143
1.0
 70
   688
 72
     0
 73
     0
 74
     5
  7
單色出圖.ctb
 75
    16
147
1.0
148
0.0
149
0.0
100
AcDbLayout
  1
配置2
 70
     1
 71
     2
 10
0.0
 20
0.0
 11
12.0
 21
9.0
 12
0.0
 22
0.0
 32
0.0
 14
0.0
 24
0.0
 34
0.0
 15
0.0
 25
0.0
 35
0.0
146
0.0
 13
0.0
 23
0.0
 33
0.0
 16
1.0
 26
0.0
 36
0.0
 17
0.0
 27
1.0
 37
0.0
 76
     0
330
23
  0
MLINESTYLE
  5
18
102
{ACAD_REACTORS
330
17
102
}
330
17
100
AcDbMlineStyle
  2
STANDARD
 70
     0
  3

 62
   256
 51
90.0
 52
90.0
 71
     2
 49
0.5
 62
   256
  6
BYLAYER
 49
-0.5
 62
   256
  6
BYLAYER
  0
ACDBPLACEHOLDER
  5
F
102
{ACAD_REACTORS
330
E
102
}
330
E
  0
TABLESTYLE
  5
11B
102
{ACAD_REACTORS
330
11A
102
}
330
11A
100
AcDbTableStyle
  3
Standard
 70
     0
 71
     0
 40
1.5
 41
1.5
280
     0
281
     0
  7
STANDARD
140
4.5
170
     2
 62
     0
 63
     7
283
     0
274
    -2
284
     1
 64
     0
275
    -2
285
     1
 65
     0
276
    -2
286
     1
 66
     0
277
    -2
287
     1
 67
     0
278
    -2
288
     1
 68
     0
279
    -2
289
     1
 69
     0
  7
STANDARD
140
6.0
170
     5
 62
     0
 63
     7
283
     0
274
    -2
284
     1
 64
     0
275
    -2
285
     1
 65
     0
276
    -2
286
     1
 66
     0
277
    -2
287
     1
 67
     0
278
    -2
288
     1
 68
     0
279
    -2
289
     1
 69
     0
  7
STANDARD
140
4.5
170
     5
 62
     0
 63
     7
283
     0
274
    -2
284
     1
 64
     0
275
    -2
285
     1
 65
     0
276
    -2
286
     1
 66
     0
277
    -2
287
     1
 67
     0
278
    -2
288
     1
 68
     0
279
    -2
289
     1
 69
     0
  0
DICTIONARYVAR
  5
138
102
{ACAD_REACTORS
330
94
102
}
330
94
100
DictionaryVariables
280
     0
  1
STANDARD
  0
DICTIONARYVAR
  5
96
102
{ACAD_REACTORS
330
94
102
}
330
94
100
DictionaryVariables
280
     0
  1
2
  0
DICTIONARYVAR
  5
95
102
{ACAD_REACTORS
330
94
102
}
330
94
100
DictionaryVariables
280
     0
  1
1
  0
DICTIONARYVAR
  5
2187
102
{ACAD_REACTORS
330
94
102
}
330
94
100
DictionaryVariables
280
     0
  1

  0
DICTIONARY
  5
1B5
102
{ACAD_REACTORS
330
5B
102
}
330
5B
100
AcDbDictionary
281
     1
  0
DICTIONARY
  5
61
102
{ACAD_REACTORS
330
5B
102
}
330
5B
100
AcDbDictionary
281
     1
  0
XRECORD
  5
123
102
{ACAD_REACTORS
330
5B
102
}
330
5B
100
AcDbXrecord
280
     1
 90
-1023410169
  0
LAYER_INDEX
  5
1E8B
102
{ACAD_REACTORS
330
1E8A
102
}
330
1E8A
100
AcDbIndex
 40
2454608.362152384
100
AcDbLayerIndex
  8
0
360
29D9
 90
        3
  8
M_0
360
29DA
 90
        0
  8
AM_8
360
29DB
 90
        0
  8
AM_VIS
360
29DC
 90
      545
  8
AM_7
360
29DD
 90
       69
  8
AM_5
360
29DE
 90
       15
  8
AM_0
360
29DF
 90
        1
  8
AM_4
360
29E0
 90
        2
  8
Defpoints
360
29E1
 90
        0
  8
底
360
29E2
 90
        0
  8
LOGO
360
29E3
 90
       92
  8
AM_HID
360
29E4
 90
       36
  0
DICTIONARY
  5
29EA
330
22
100
AcDbDictionary
280
     1
281
     1
  3
ACAD_XREC_ROUNDTRIP
360
29EB
  0
DICTIONARY
  5
29E8
330
1E
100
AcDbDictionary
280
     1
281
     1
  3
ACAD_XREC_ROUNDTRIP
360
29E9
  0
DICTIONARY
  5
29EC
330
26
100
AcDbDictionary
280
     1
281
     1
  3
ACAD_XREC_ROUNDTRIP
360
29ED
  0
IDBUFFER
  5
29D9
330
0
100
AcDbIdBuffer
330
206D
330
206E
330
206F
  0
IDBUFFER
  5
29DA
330
0
100
AcDbIdBuffer
  0
IDBUFFER
  5
29DB
330
0
100
AcDbIdBuffer
  0
IDBUFFER
  5
29DC
330
0
100
AcDbIdBuffer
330
277A
330
277B
330
277C
330
277D
330
277E
330
277F
330
2780
330
2781
330
2782
330
2783
330
2784
330
2785
330
2786
330
2787
330
2788
330
2789
330
278A
330
278B
330
278C
330
27B0
330
27B1
330
27E9
330
27EA
330
27EB
330
27EC
330
27ED
330
27EE
330
27EF
330
27F0
330
27F1
330
27F2
330
27F3
330
27F4
330
27F5
330
27F6
330
27F7
330
27F8
330
27F9
330
27FA
330
27FB
330
27FC
330
27FD
330
27FE
330
27FF
330
2800
330
2801
330
2802
330
2803
330
2804
330
2557
330
2582
330
258C
330
258D
330
258E
330
258F
330
2590
330
2591
330
2592
330
2593
330
2594
330
2595
330
2596
330
2597
330
2598
330
2599
330
259A
330
259B
330
259C
330
259D
330
259E
330
259F
330
25A0
330
25A1
330
25A2
330
25A3
330
25A4
330
25A5
330
25A6
330
25A7
330
25A8
330
25A9
330
25AA
330
25AB
330
25AC
330
25AD
330
25AE
330
25AF
330
25B0
330
25B1
330
25B2
330
25B3
330
25B4
330
25B5
330
25B6
330
25B7
330
25B8
330
25B9
330
25BA
330
25BB
330
25BC
330
25BD
330
25BE
330
25BF
330
25C0
330
25C1
330
25C2
330
25C3
330
25C4
330
25C5
330
25C6
330
25C7
330
25C8
330
25C9
330
25CA
330
25CB
330
25CC
330
25CD
330
25CE
330
25CF
330
25D0
330
25D1
330
25D2
330
25D3
330
25D4
330
25D5
330
25D6
330
25D7
330
25D8
330
25D9
330
25DA
330
25DB
330
25DC
330
25DD
330
25DE
330
25DF
330
25E0
330
25E1
330
25E2
330
25E3
330
25E4
330
25E5
330
25E6
330
25E7
330
25E8
330
25E9
330
25EA
330
25EB
330
25EC
330
25ED
330
25EE
330
25EF
330
25F0
330
25F1
330
25F2
330
25F3
330
25F4
330
25F5
330
25F6
330
25F7
330
25F8
330
25F9
330
25FA
330
25FB
330
25FC
330
25FD
330
25FE
330
25FF
330
2600
330
2601
330
2602
330
2603
330
2604
330
2605
330
2606
330
2607
330
2608
330
2609
330
260A
330
260B
330
260C
330
260D
330
260E
330
260F
330
2610
330
2611
330
2612
330
2613
330
2614
330
2615
330
2616
330
2617
330
2618
330
2619
330
261A
330
261B
330
261C
330
261D
330
261E
330
261F
330
2620
330
2621
330
2622
330
2623
330
2624
330
2625
330
2626
330
2627
330
2628
330
2629
330
262A
330
262B
330
262C
330
262D
330
262E
330
262F
330
2630
330
2631
330
2632
330
2633
330
2634
330
2635
330
2636
330
2637
330
2638
330
2639
330
263A
330
263B
330
263C
330
263D
330
263E
330
263F
330
2640
330
2641
330
2642
330
2643
330
2644
330
2645
330
2646
330
2647
330
2648
330
2649
330
264A
330
264B
330
264C
330
264D
330
264E
330
264F
330
2650
330
2651
330
2652
330
2653
330
2654
330
2655
330
2656
330
2657
330
2658
330
2659
330
265A
330
265B
330
265C
330
265D
330
265E
330
265F
330
2660
330
2661
330
2662
330
2663
330
2664
330
2665
330
2666
330
2667
330
2668
330
2669
330
266A
330
266B
330
266C
330
266D
330
266E
330
266F
330
2670
330
2671
330
2672
330
2673
330
2674
330
2675
330
2676
330
2677
330
2678
330
2679
330
267A
330
267B
330
267C
330
267D
330
267E
330
267F
330
2680
330
2681
330
2682
330
2683
330
2684
330
2685
330
2686
330
2687
330
2688
330
2689
330
268A
330
268B
330
268C
330
268D
330
268E
330
268F
330
2690
330
2691
330
2692
330
2693
330
2694
330
2695
330
2696
330
2697
330
2698
330
2699
330
269A
330
269B
330
269C
330
269D
330
269E
330
269F
330
26A0
330
26A1
330
26A2
330
26A3
330
26A4
330
26A5
330
26A6
330
26A7
330
26A8
330
26A9
330
26AA
330
26AB
330
26AC
330
26AD
330
26AE
330
26AF
330
26B0
330
26B1
330
26B2
330
26B3
330
26B4
330
26B5
330
26B6
330
26B7
330
26B8
330
26B9
330
26BA
330
26BB
330
26BC
330
26BD
330
26BE
330
26BF
330
26C0
330
26C1
330
26C2
330
26C3
330
26C4
330
26C5
330
26C6
330
26C7
330
26C8
330
26C9
330
26CA
330
26CB
330
26CC
330
26CD
330
26CE
330
26CF
330
26D0
330
26D1
330
26D2
330
26D3
330
26D4
330
26D5
330
26D6
330
26D7
330
26D8
330
26D9
330
26DA
330
26DB
330
26DC
330
26DD
330
26DE
330
26DF
330
26E0
330
26E1
330
26E2
330
26E3
330
26E4
330
26E5
330
26E6
330
26E7
330
26E8
330
26E9
330
26EA
330
26EB
330
26EC
330
26ED
330
26EE
330
26EF
330
26F0
330
26F1
330
26F2
330
26F3
330
26F4
330
26F5
330
26F6
330
26F7
330
26F8
330
26F9
330
26FA
330
26FB
330
26FC
330
26FD
330
26FE
330
26FF
330
2700
330
2701
330
2702
330
2703
330
2704
330
2705
330
2706
330
2707
330
2708
330
2709
330
270A
330
270B
330
270C
330
270D
330
270E
330
270F
330
2710
330
2711
330
2712
330
2713
330
2714
330
2715
330
2716
330
2717
330
2718
330
2719
330
271A
330
271B
330
271C
330
271D
330
271E
330
271F
330
2720
330
2721
330
2722
330
2723
330
2724
330
2725
330
2726
330
2727
330
2728
330
2729
330
272A
330
272B
330
272C
330
272D
330
272E
330
272F
330
2730
330
2731
330
2732
330
2733
330
2734
330
2735
330
2736
330
2737
330
2738
330
2739
330
273A
330
273B
330
273C
330
273D
330
273E
330
273F
330
2740
330
2741
330
2742
330
2743
330
2744
330
2745
330
2746
330
2747
330
2748
330
2749
330
274A
330
274B
330
274C
330
274D
330
274E
330
274F
330
2750
330
2751
330
2752
330
2753
330
2754
330
2755
330
2756
330
2757
330
2758
330
2759
330
275A
330
275B
330
275C
330
275D
330
275E
330
275F
330
2760
330
2761
330
2762
330
2763
330
2764
330
2765
330
2766
330
2767
330
2768
330
2769
330
276A
330
276B
330
276C
330
276D
330
276E
330
276F
330
2770
330
2771
330
2772
330
2773
330
2774
330
2775
330
2776
330
2777
330
2778
330
2779
  0
IDBUFFER
  5
29DD
330
0
100
AcDbIdBuffer
330
2588
330
2589
330
258A
330
258B
330
2790
330
2791
330
2792
330
2793
330
279E
330
279F
330
27A0
330
27A1
330
27A2
330
27A3
330
27A4
330
27A5
330
27A6
330
27A7
330
27A8
330
27A9
330
27DA
330
2556
330
2558
330
2559
330
255A
330
255B
330
255C
330
255D
330
255E
330
255F
330
2560
330
2561
330
2562
330
2563
330
2564
330
2565
330
2566
330
2567
330
2568
330
2569
330
256A
330
256B
330
256C
330
256D
330
256E
330
256F
330
2570
330
2571
330
2572
330
2573
330
2574
330
2575
330
2576
330
2577
330
2578
330
2579
330
257A
330
257B
330
257C
330
257D
330
257E
330
257F
330
2580
330
2581
330
2583
330
2584
330
2585
330
2586
330
2587
  0
IDBUFFER
  5
29DE
330
0
100
AcDbIdBuffer
330
278D
330
2798
330
279B
330
27CA
330
27CD
330
27D0
330
27D3
330
27D6
330
27DD
330
27E0
330
27E3
330
27E6
330
2807
330
2808
330
2809
  0
IDBUFFER
  5
29DF
330
0
100
AcDbIdBuffer
330
2806
  0
IDBUFFER
  5
29E0
330
0
100
AcDbIdBuffer
330
27D9
330
2805
  0
IDBUFFER
  5
29E1
330
0
100
AcDbIdBuffer
  0
IDBUFFER
  5
29E2
330
0
100
AcDbIdBuffer
  0
IDBUFFER
  5
29E3
330
0
100
AcDbIdBuffer
330
2041
330
2042
330
2043
330
2044
330
2045
330
2046
330
2047
330
2048
330
2049
330
204A
330
204B
330
204C
330
204D
330
204E
330
204F
330
2050
330
2051
330
2052
330
2053
330
2054
330
2055
330
2056
330
2057
330
2058
330
2059
330
205A
330
205B
330
205C
330
205D
330
205E
330
205F
330
2060
330
2061
330
2062
330
2063
330
2064
330
2065
330
2066
330
2067
330
2068
330
2069
330
206A
330
206B
330
206C
330
1FFC
330
1FFD
330
1FFE
330
1FFF
330
2000
330
2001
330
2002
330
2003
330
2004
330
2005
330
2006
330
2007
330
2008
330
2009
330
200A
330
200B
330
200C
330
200D
330
200E
330
200F
330
2010
330
2011
330
2012
330
2013
330
2014
330
2015
330
2016
330
2017
330
2018
330
2019
330
201A
330
201E
330
2022
330
2023
330
2027
330
2028
330
2029
330
202A
330
202B
330
202C
330
202D
330
202E
330
2032
330
2036
330
203A
330
203B
330
203C
330
2040
  0
IDBUFFER
  5
29E4
330
0
100
AcDbIdBuffer
330
27B8
330
27B9
330
27BA
330
27BB
330
27BC
330
27BD
330
27BE
330
27BF
330
27C0
330
27C1
330
27C2
330
27C3
330
27C4
330
27C5
330
27C6
330
27C7
330
27C8
330
27C9
330
27DB
330
27DC
330
2794
330
2795
330
2796
330
2797
330
27AA
330
27AB
330
27AC
330
27AD
330
27AE
330
27AF
330
27B2
330
27B3
330
27B4
330
27B5
330
27B6
330
27B7
  0
XRECORD
  5
29EB
102
{ACAD_REACTORS
330
29EA
102
}
330
29EA
100
AcDbXrecord
280
     1
102
SHADEPLOT
 70
     0
102
SHADEPLOTRESLEVEL
 70
     2
102
SHADEPLOTCUSTOMDPI
 70
   300
  0
XRECORD
  5
29E9
102
{ACAD_REACTORS
330
29E8
102
}
330
29E8
100
AcDbXrecord
280
     1
102
SHADEPLOT
 70
     0
102
SHADEPLOTRESLEVEL
 70
     2
102
SHADEPLOTCUSTOMDPI
 70
   300
  0
XRECORD
  5
29ED
102
{ACAD_REACTORS
330
29EC
102
}
330
29EC
100
AcDbXrecord
280
     1
102
SHADEPLOT
 70
     0
102
SHADEPLOTRESLEVEL
 70
     2
102
SHADEPLOTCUSTOMDPI
 70
   300
  0
ENDSEC
  0
EOF
