  0
SECTION
  2
HEADER
  9
$ACADVER
  1
AC1012
  9
$DWGCODEPAGE
  3
big5
  9
$INSBASE
 10
0.0
 20
0.0
 30
0.0
  9
$EXTMIN
 10
402.6344165250752
 20
-346.2903137519968
 30
-0.0000000000000081
  9
$EXTMAX
 10
962.3546977172896
 20
237.6356658274405
 30
0.0000000000000072
  9
$LIMMIN
 10
0.0
 20
0.0
  9
$LIMMAX
 10
420.0
 20
297.0
  9
$ORTHOMODE
 70
     1
  9
$REGENMODE
 70
     1
  9
$FILLMODE
 70
     1
  9
$QTEXTMODE
 70
     0
  9
$MIRRTEXT
 70
     1
  9
$DRAGMODE
 70
     2
  9
$LTSCALE
 40
10.0
  9
$OSMODE
 70
    55
  9
$ATTMODE
 70
     1
  9
$TEXTSIZE
 40
5.25
  9
$TRACEWID
 40
1.0
  9
$TEXTSTYLE
  7
DAYUS
  9
$CLAYER
  8
0
  9
$CELTYPE
  6
BYLAYER
  9
$CECOLOR
 62
   256
  9
$CELTSCALE
 40
1.0
  9
$DELOBJ
 70
     1
  9
$DISPSILH
 70
     0
  9
$DIMSCALE
 40
1.0
  9
$DIMASZ
 40
3.0
  9
$DIMEXO
 40
2.0
  9
$DIMDLI
 40
10.5
  9
$DIMRND
 40
0.0
  9
$DIMDLE
 40
0.0
  9
$DIMEXE
 40
1.0
  9
$DIMTP
 40
0.01
  9
$DIMTM
 40
0.01
  9
$DIMTXT
 40
3.5
  9
$DIMCEN
 40
3.0
  9
$DIMTSZ
 40
0.0
  9
$DIMTOL
 70
     0
  9
$DIMLIM
 70
     0
  9
$DIMTIH
 70
     0
  9
$DIMTOH
 70
     0
  9
$DIMSE1
 70
     0
  9
$DIMSE2
 70
     0
  9
$DIMTAD
 70
     1
  9
$DIMZIN
 70
     8
  9
$DIMBLK
  1

  9
$DIMASO
 70
     1
  9
$DIMSHO
 70
     1
  9
$DIMPOST
  1

  9
$DIMAPOST
  1

  9
$DIMALT
 70
     0
  9
$DIMALTD
 70
     2
  9
$DIMALTF
 40
25.4
  9
$DIMLFAC
 40
1.0
  9
$DIMTOFL
 70
     1
  9
$DIMTVP
 40
0.0
  9
$DIMTIX
 70
     0
  9
$DIMSOXD
 70
     0
  9
$DIMSAH
 70
     0
  9
$DIMBLK1
  1

  9
$DIMBLK2
  1

  9
$DIMSTYLE
  2
STANDARD
  9
$DIMCLRD
 70
   256
  9
$DIMCLRE
 70
   256
  9
$DIMCLRT
 70
   256
  9
$DIMTFAC
 40
0.6
  9
$DIMGAP
 40
0.8
  9
$DIMJUST
 70
     0
  9
$DIMSD1
 70
     0
  9
$DIMSD2
 70
     0
  9
$DIMTOLJ
 70
     0
  9
$DIMTZIN
 70
     8
  9
$DIMALTZ
 70
     0
  9
$DIMALTTZ
 70
     0
  9
$DIMFIT
 70
     3
  9
$DIMUPT
 70
     0
  9
$DIMUNIT
 70
     2
  9
$DIMDEC
 70
     2
  9
$DIMTDEC
 70
     8
  9
$DIMALTU
 70
     2
  9
$DIMALTTD
 70
     2
  9
$DIMTXSTY
  7
STANDARD
  9
$DIMAUNIT
 70
     0
  9
$LUNITS
 70
     2
  9
$LUPREC
 70
     2
  9
$SKETCHINC
 40
1.0
  9
$FILLETRAD
 40
1.0
  9
$AUNITS
 70
     0
  9
$AUPREC
 70
     0
  9
$MENU
  1
.
  9
$ELEVATION
 40
0.0
  9
$PELEVATION
 40
0.0
  9
$THICKNESS
 40
0.0
  9
$LIMCHECK
 70
     0
  9
$BLIPMODE
 70
     0
  9
$CHAMFERA
 40
2.5
  9
$CHAMFERB
 40
2.5
  9
$CHAMFERC
 40
20.0
  9
$CHAMFERD
 40
0.0
  9
$SKPOLY
 70
     0
  9
$TDCREATE
 40
2452292.457678333
  9
$TDUPDATE
 40
2453346.616789965
  9
$TDINDWG
 40
3.7007995139
  9
$TDUSRTIMER
 40
3.7007993981
  9
$USRTIMER
 70
     1
  9
$ANGBASE
 50
0.0
  9
$ANGDIR
 70
     0
  9
$PDMODE
 70
     0
  9
$PDSIZE
 40
0.0
  9
$PLINEWID
 40
0.0
  9
$COORDS
 70
     1
  9
$SPLFRAME
 70
     0
  9
$SPLINETYPE
 70
     6
  9
$SPLINESEGS
 70
     8
  9
$ATTDIA
 70
     1
  9
$ATTREQ
 70
     1
  9
$HANDLING
 70
 22529
  9
$HANDSEED
  5
1331D
  9
$SURFTAB1
 70
     6
  9
$SURFTAB2
 70
     6
  9
$SURFTYPE
 70
     6
  9
$SURFU
 70
     6
  9
$SURFV
 70
     6
  9
$UCSNAME
  2

  9
$UCSORG
 10
0.0
 20
0.0
 30
0.0
  9
$UCSXDIR
 10
1.0
 20
0.0
 30
0.0
  9
$UCSYDIR
 10
0.0
 20
1.0
 30
0.0
  9
$PUCSNAME
  2

  9
$PUCSORG
 10
0.0
 20
0.0
 30
0.0
  9
$PUCSXDIR
 10
1.0
 20
0.0
 30
0.0
  9
$PUCSYDIR
 10
0.0
 20
1.0
 30
0.0
  9
$USERI1
 70
     0
  9
$USERI2
 70
     0
  9
$USERI3
 70
     0
  9
$USERI4
 70
     0
  9
$USERI5
 70
     0
  9
$USERR1
 40
0.0
  9
$USERR2
 40
0.0
  9
$USERR3
 40
0.0
  9
$USERR4
 40
0.0
  9
$USERR5
 40
0.0
  9
$WORLDVIEW
 70
     1
  9
$SHADEDGE
 70
     3
  9
$SHADEDIF
 70
    70
  9
$TILEMODE
 70
     1
  9
$MAXACTVP
 70
    64
  9
$PINSBASE
 10
0.0
 20
0.0
 30
0.0
  9
$PLIMCHECK
 70
     0
  9
$PEXTMIN
 10
1.000000000000000E+20
 20
1.000000000000000E+20
 30
1.000000000000000E+20
  9
$PEXTMAX
 10
-1.000000000000000E+20
 20
-1.000000000000000E+20
 30
-1.000000000000000E+20
  9
$PLIMMIN
 10
0.0
 20
0.0
  9
$PLIMMAX
 10
420.0
 20
297.0
  9
$UNITMODE
 70
     0
  9
$VISRETAIN
 70
     1
  9
$PLINEGEN
 70
     0
  9
$PSLTSCALE
 70
     1
  9
$TREEDEPTH
 70
  3020
  9
$PICKSTYLE
 70
     1
  9
$CMLSTYLE
  2
STANDARD
  9
$CMLJUST
 70
     0
  9
$CMLSCALE
 40
20.0
  9
$SAVEIMAGES
 70
     1
  0
ENDSEC
  0
SECTION
  2
CLASSES
  0
CLASS
  1
ACDBDICTIONARYWDFLT
  2
AcDbDictionaryWithDefault
  3
AutoCAD 2000
 90
    32768
280
     0
281
     0
  0
CLASS
  1
ACDBPLACEHOLDER
  2
AcDbPlaceHolder
  3
AutoCAD 2000
 90
    32768
280
     0
281
     0
  0
CLASS
  1
LAYOUT
  2
AcDbLayout
  3
AutoCAD 2000
 90
    32768
280
     0
281
     0
  0
CLASS
  1
AMGSETTINGSOBJ
  2
AmgSettingsObj
  3
"AcadM|Product Description: AutoCAD Mechanical 2000|Company: Autodesk"
 90
    32768
280
     0
281
     0
  0
CLASS
  1
ACME_DOCUMENT
  2
AcMeDbDoc
  3
AcMeServices
 90
    32768
280
     0
281
     0
  0
CLASS
  1
ACMESCOPE
  2
AcMeScope
  3
AcMeServices
 90
    32768
280
     0
281
     0
  0
CLASS
  1
ACMECOMMANDHISTORY
  2
AcMeCommandHistory
  3
AcMeServices
 90
    32768
280
     0
281
     0
  0
CLASS
  1
DICTIONARYVAR
  2
AcDbDictionaryVar
  3
AutoCAD 2000
 90
    32768
280
     0
281
     0
  0
CLASS
  1
ACIMSYSVARMAN
  2
AcImSysVarManager
  3
AcMeServices
 90
    32768
280
     0
281
     0
  0
CLASS
  1
ACIMREALSYSVAR
  2
AcImRealSysVar
  3
AcMeServices
 90
    32768
280
     0
281
     0
  0
CLASS
  1
ACIMINTSYSVAR
  2
AcImIntSysVar
  3
AcMeServices
 90
    32768
280
     0
281
     0
  0
CLASS
  1
ACMEDRAWINGMAN
  2
AcMeDrawingMan
  3
AcMeServices
 90
    32768
280
     0
281
     0
  0
CLASS
  1
ACMEVIEW
  2
AcMeView
  3
AcMeServices
 90
    32768
280
     0
281
     0
  0
CLASS
  1
ACDBENTITYCACHE
  2
AcMeEntityCache
  3
AcMeServices
 90
    32768
280
     0
281
     0
  0
CLASS
  1
GSMANAGER
  2
AcMeGSManager
  3
AcMeServices
 90
    32768
280
     0
281
     0
  0
CLASS
  1
AMDTINTERNALREACTOR
  2
AmdtInternalReactor
  3
AcMeServices
 90
    32768
280
     0
281
     0
  0
CLASS
  1
ACMESTATEMGR
  2
AcMeStateMgr
  3
AcMeServices
 90
    32768
280
     0
281
     0
  0
CLASS
  1
ACME_DATABASE
  2
AcMeDbDatabase
  3
AcMeServices
 90
    32768
280
     0
281
     0
  0
CLASS
  1
ACRFINSADJUSTERMGR
  2
AcRfInsAdjusterMgr
  3
AcMeServices
 90
    32768
280
     0
281
     0
  0
CLASS
  1
ACMDATADICTIONARY
  2
AcmDataDictionary
  3
"AcmSymBB|Product Description: AutoCAD Mechanical 2000|Company: Autodesk"
 90
    32768
280
     0
281
     0
  0
CLASS
  1
ACMDATAENTRYBLOCK
  2
AcmDataEntryBlock
  3
"AcmSymBB|Product Description: AutoCAD Mechanical 2000|Company: Autodesk"
 90
    32768
280
     0
281
     0
  0
CLASS
  1
AMGOBJPROPCFG
  2
AmgObjPropCfg
  3
"AmgLay|Product Description: AutoCAD Mechanical 2000|Company: Autodesk"
 90
    32769
280
     0
281
     0
  0
CLASS
  1
ACAMGFILTERDAT
  2
AcAmgFilterDat
  3
"AcadM|Product Description: AutoCAD Mechanical 2000|Company: Autodesk"
 90
    32768
280
     0
281
     0
  0
CLASS
  1
LAYER_INDEX
  2
AcDbLayerIndex
  3
AutoCAD 2000
 90
    32768
280
     0
281
     0
  0
CLASS
  1
IDBUFFER
  2
AcDbIdBuffer
  3
AutoCAD 2000
 90
    32768
280
     0
281
     0
  0
CLASS
  1
ACIMSTRSYSVAR
  2
AcImStrSysVar
  3
AcMeServices
 90
    32768
280
     0
281
     0
  0
CLASS
  1
ACMSTANDARDISO
  2
AcmStandardISO
  3
"Amdt_StdImp|Product Description: AutoCAD Mechanical 2000|Company: Autodesk"
 90
    32768
280
     0
281
     0
  0
CLASS
  1
AMDTEDGESTANDARDISO
  2
AmdtEdgeStdISO
  3
"Amdt_StdImp|Product Description: AutoCAD Mechanical 2000|Company: Autodesk"
 90
    32768
280
     0
281
     0
  0
CLASS
  1
ACMSURFSTANDARDISO
  2
AcmSurfTextStdISO
  3
"Amdt_StdImp|Product Description: AutoCAD Mechanical 2000|Company: Autodesk"
 90
    32768
280
     0
281
     0
  0
CLASS
  1
ACMFCFSTANDARDISO
  2
AcmFCFStdISO
  3
"Amdt_StdImp|Product Description: AutoCAD Mechanical 2000|Company: Autodesk"
 90
    32768
280
     0
281
     0
  0
CLASS
  1
ACMWELDSTANDARDISO
  2
AcmWeldingStdISO
  3
"Amdt_StdImp|Product Description: AutoCAD Mechanical 2000|Company: Autodesk"
 90
    32768
280
     0
281
     0
  0
CLASS
  1
ACMIDSTANDARDISO
  2
AcmIdStdISO
  3
"Amdt_StdImp|Product Description: AutoCAD Mechanical 2000|Company: Autodesk"
 90
    32768
280
     0
281
     0
  0
CLASS
  1
ACMDATUMSTANDARDISO
  2
AcmDatumStdISO
  3
"Amdt_StdImp|Product Description: AutoCAD Mechanical 2000|Company: Autodesk"
 90
    32768
280
     0
281
     0
  0
CLASS
  1
ACMBOMSTANDARDISO
  2
AcmBOMStdISO
  3
"Amdt_StdImp|Product Description: AutoCAD Mechanical 2000|Company: Autodesk"
 90
    32768
280
     0
281
     0
  0
CLASS
  1
AMDTNOTE
  2
AmdtNote
  3
"AcmSymBB|Product Description: AutoCAD Mechanical 2000|Company: Autodesk"
 90
    33791
280
     0
281
     1
  0
CLASS
  1
ACGREFMASTER
  2
AcGrefMaster
  3
AcAttribServices
 90
    32768
280
     0
281
     0
  0
CLASS
  1
ACGREFACADMASTER
  2
AcGrefacadMaster
  3
AcGrefServices
 90
    32768
280
     0
281
     0
  0
CLASS
  1
AMIMASTER
  2
AmiMaster
  3
AmiServices
 90
    32768
280
     0
281
     0
  0
CLASS
  1
ACAMGTITLESTD
  2
AcAmgTitleStd
  3
"TITLEAPP"
 90
    32768
280
     0
281
     0
  0
CLASS
  1
ACMDETAILSTANDARDISO
  2
AmdtDetailSymStdISO
  3
"Amdt_StdImp|Product Description: AutoCAD Mechanical 2000|Company: Autodesk"
 90
    32768
280
     0
281
     0
  0
CLASS
  1
ACMSECTIONSTANDARDISO
  2
AmdtSectionSymStdISO
  3
"Amdt_StdImp|Product Description: AutoCAD Mechanical 2000|Company: Autodesk"
 90
    32768
280
     0
281
     0
  0
CLASS
  1
ACMCENTERLINESTANDARDISO
  2
AmdtCenterLineStdISO
  3
"Amdt_StdImp|Product Description: AutoCAD Mechanical 2000|Company: Autodesk"
 90
    32768
280
     0
281
     0
  0
CLASS
  1
ACMNOTESTANDARDISO
  2
AmdtNoteStdISO
  3
"Amdt_StdImp|Product Description: AutoCAD Mechanical 2000|Company: Autodesk"
 90
    32768
280
     0
281
     0
  0
CLASS
  1
ACAMGLAYSTD
  2
AcAmgLayStd
  3
"AcAmgLayStd|Product Description: AutoCAD Mechanical 2000|Company: Autodesk"
 90
    32768
280
     0
281
     0
  0
CLASS
  1
ACAMGDIMSTD
  2
AcAmgDimStd
  3
"AcAmgDimStd|Product Description: AutoCAD Mechanical 2000|Company: Autodesk"
 90
    32768
280
     0
281
     0
  0
CLASS
  1
ACAMGHOLECHARTSTDISO
  2
AcAmgHoleChartStdISO
  3
ACMSYMBB_MODULE_NAME
 90
    32768
280
     0
281
     0
  0
CLASS
  1
AMDTFORMULAUPDATEDISPATCHER
  2
AmdtFormulaUpdateDispatcher
  3
AcMeServices
 90
    32768
280
     0
281
     0
  0
CLASS
  1
ACMSTANDARDANSI
  2
AcmStandardANSI
  3
"Amdt_StdImp|Product Description: AutoCAD Mechanical 2000|Company: Autodesk"
 90
    32768
280
     0
281
     0
  0
CLASS
  1
ACMSURFSTANDARDANSI
  2
AcmSurfTextStdANSI
  3
"Amdt_StdImp|Product Description: AutoCAD Mechanical 2000|Company: Autodesk"
 90
    32768
280
     0
281
     0
  0
CLASS
  1
ACMFCFSTANDARDANSI
  2
AcmFCFStdANSI
  3
"Amdt_StdImp|Product Description: AutoCAD Mechanical 2000|Company: Autodesk"
 90
    32768
280
     0
281
     0
  0
CLASS
  1
ACMWELDSTANDARDANSI
  2
AcmWeldingStdANSI
  3
"Amdt_StdImp|Product Description: AutoCAD Mechanical 2000|Company: Autodesk"
 90
    32768
280
     0
281
     0
  0
CLASS
  1
ACMIDSTANDARDANSI
  2
AcmIdStdANSI
  3
"Amdt_StdImp|Product Description: AutoCAD Mechanical 2000|Company: Autodesk"
 90
    32768
280
     0
281
     0
  0
CLASS
  1
ACMDATUMSTANDARDANSI
  2
AcmDatumStdANSI
  3
"Amdt_StdImp|Product Description: AutoCAD Mechanical 2000|Company: Autodesk"
 90
    32768
280
     0
281
     0
  0
CLASS
  1
ACMBOMSTANDARDANSI
  2
AcmBOMStdANSI
  3
"Amdt_StdImp|Product Description: AutoCAD Mechanical 2000|Company: Autodesk"
 90
    32768
280
     0
281
     0
  0
CLASS
  1
ACMDETAILSTANDARDANSI
  2
AmdtDetailSymStdANSI
  3
"Amdt_StdImp|Product Description: AutoCAD Mechanical 2000|Company: Autodesk"
 90
    32768
280
     0
281
     0
  0
CLASS
  1
ACMSECTIONSTANDARDANSI
  2
AmdtSectionSymStdANSI
  3
"Amdt_StdImp|Product Description: AutoCAD Mechanical 2000|Company: Autodesk"
 90
    32768
280
     0
281
     0
  0
CLASS
  1
ACMCENTERLINESTANDARDANSI
  2
AmdtCenterLineStdANSI
  3
"Amdt_StdImp|Product Description: AutoCAD Mechanical 2000|Company: Autodesk"
 90
    32768
280
     0
281
     0
  0
CLASS
  1
ACMNOTESTANDARDANSI
  2
AmdtNoteStdANSI
  3
"Amdt_StdImp|Product Description: AutoCAD Mechanical 2000|Company: Autodesk"
 90
    32768
280
     0
281
     0
  0
CLASS
  1
ACAMGHOLECHARTSTDANSI
  2
AcAmgHoleChartStdANSI
  3
ACMSYMBB_MODULE_NAME
 90
    32768
280
     0
281
     0
  0
CLASS
  1
STDPART2D
  2
AmgStdPart
  3
"AmgStdPart|Product Description: AutoCAD Mechanical 2000|Company: Autodesk"
 90
    33791
280
     0
281
     1
  0
CLASS
  1
ACMDATAENTRYPART
  2
AcmDataEntryPart
  3
"AcmSymBB|Product Description: AutoCAD Mechanical 2000|Company: Autodesk"
 90
    32768
280
     0
281
     0
  0
CLASS
  1
ACMPARTREF
  2
AcmPartRef
  3
"AcmSymBB|Product Description: AutoCAD Mechanical 2000|Company: Autodesk"
 90
    33791
280
     0
281
     1
  0
CLASS
  1
ACDBSTDPARTRES_LINE
  2
AcDbStdPartRes_Line
  3
"AcDbStdPartRes_Line|Product Description: AutoCAD Mechanical 2000|Company: Autodesk"
 90
    32768
280
     0
281
     0
  0
CLASS
  1
RASTERVARIABLES
  2
AcDbRasterVariables
  3
ISM
 90
    32768
280
     0
281
     0
  0
CLASS
  1
IMAGEDEF
  2
AcDbRasterImageDef
  3
ISM
 90
    32768
280
     0
281
     0
  0
CLASS
  1
IMAGEDEF_REACTOR
  2
AcDbRasterImageDefReactor
  3
ISM
 90
    32769
280
     0
281
     0
  0
CLASS
  1
IMAGE
  2
AcDbRasterImage
  3
ISM
 90
    32895
280
     0
281
     1
  0
CLASS
  1
DIMASSOC
  2
AcDbDimAssoc
  3
"AcDbDimAssoc|Product Desc:     AcDim ARX App For Dimension|Company:          Autodesk, Inc.|WEB Address:      www.autodesk.com"
 90
    32768
280
     0
281
     0
  0
CLASS
  1
LONG_TRANSACTION
  2
AcDbLongTransaction
  3
AutoCAD 2000
 90
    32768
280
     0
281
     0
  0
CLASS
  1
LWPOLYLINE
  2
AcDbPolyline
  3
AutoCAD 2000
 90
    32768
280
     0
281
     1
  0
CLASS
  1
HATCH
  2
AcDbHatch
  3
AutoCAD 2000
 90
    32768
280
     0
281
     1
  0
CLASS
  1
XRECORD
  2
AcDbXrecord
  3
AutoCAD 2000
 90
    32768
280
     0
281
     0
  0
ENDSEC
  0
SECTION
  2
TABLES
  0
TABLE
  2
VPORT
  5
8
330
0
100
AcDbSymbolTable
 70
     5
  0
VPORT
  5
1324B
330
8
100
AcDbSymbolTableRecord
100
AcDbViewportTableRecord
  2
*ACTIVE
 70
     0
 10
0.0
 20
0.0
 11
1.0
 21
1.0
 12
682.4939181417753
 22
-54.28752912338189
 13
0.0
 23
0.0
 14
2.5
 24
2.5
 15
10.0
 25
10.0
 16
0.0
 26
0.0
 36
1.0
 17
0.0
 27
0.0
 37
0.0
 40
590.5987742314464
 41
1.756554307116104
 42
50.0
 43
0.0
 44
0.0
 50
0.0
 51
0.0
 71
     0
 72
   100
 73
     1
 74
     3
 75
     0
 76
     0
 77
     0
 78
     0
  0
ENDTAB
  0
TABLE
  2
LTYPE
  5
5
330
0
100
AcDbSymbolTable
 70
    16
  0
LTYPE
  5
14
330
5
100
AcDbSymbolTableRecord
100
AcDbLinetypeTableRecord
  2
BYBLOCK
 70
     0
  3

 72
    65
 73
     0
 40
0.0
  0
LTYPE
  5
15
330
5
100
AcDbSymbolTableRecord
100
AcDbLinetypeTableRecord
  2
BYLAYER
 70
     0
  3

 72
    65
 73
     0
 40
0.0
  0
LTYPE
  5
16
330
5
100
AcDbSymbolTableRecord
100
AcDbLinetypeTableRecord
  2
CONTINUOUS
 70
     0
  3
Solid line
 72
    65
 73
     0
 40
0.0
  0
LTYPE
  5
4B
330
5
100
AcDbSymbolTableRecord
100
AcDbLinetypeTableRecord
  2
AM_ISO02W050
 70
     0
  3
__ __ __ __ __ __ __ __ __ __ __ __ __ __ __
 72
    65
 73
     2
 40
7.5
 49
6.0
 74
     0
 49
-1.5
 74
     0
  0
LTYPE
  5
4C
330
5
100
AcDbSymbolTableRecord
100
AcDbLinetypeTableRecord
  2
AM_ISO08W050
 70
     0
  3
____ . ____ . ____ . ____ . ____ . ____ . ____
 72
    65
 73
     4
 40
18.0
 49
12.0
 74
     0
 49
-1.5
 74
     0
 49
3.0
 74
     0
 49
-1.5
 74
     0
  0
LTYPE
  5
4D
330
5
100
AcDbSymbolTableRecord
100
AcDbLinetypeTableRecord
  2
AM_ISO09W050
 70
     0
  3
_____ . . _____ . . _____ . . ____ .. ____
 72
    65
 73
     6
 40
22.5
 49
12.0
 74
     0
 49
-1.5
 74
     0
 49
3.0
 74
     0
 49
-1.5
 74
     0
 49
3.0
 74
     0
 49
-1.5
 74
     0
  0
LTYPE
  5
4E
330
5
100
AcDbSymbolTableRecord
100
AcDbLinetypeTableRecord
  2
AMCONSTR
 70
     0
  3
_______________________
 72
    65
 73
     2
 40
9999.0
 49
9999.0
 74
     0
 49
0.0
 74
     0
  0
LTYPE
  5
4F
330
5
100
AcDbSymbolTableRecord
100
AcDbLinetypeTableRecord
  2
AM_ISO02W050X2
 70
     0
  3
 _ _ _ _ _ _ _ _ _ _ _ _
 72
    65
 73
     2
 40
3.75
 49
3.0
 74
     0
 49
-0.75
 74
     0
  0
LTYPE
  5
50
330
5
100
AcDbSymbolTableRecord
100
AcDbLinetypeTableRecord
  2
AM_ISO08W050X2
 70
     0
  3
__ . __ . __ . __ . __ . __
 72
    65
 73
     4
 40
9.0
 49
6.0
 74
     0
 49
-0.75
 74
     0
 49
1.5
 74
     0
 49
-0.75
 74
     0
  0
LTYPE
  5
53
330
5
100
AcDbSymbolTableRecord
100
AcDbLinetypeTableRecord
  2
AMZIGZAG
 70
     0
  3
/\/-/\/-/\/-/\/-/\/-/\/
 72
    65
 73
     2
 40
11.00009999999999
 49
0.0001
 74
     4
 75
   135
340
52
 46
0.04
 50
0.0
 44
0.0
 45
0.0
 49
-11.0
 74
     0
  0
LTYPE
  5
144B
330
5
100
AcDbSymbolTableRecord
100
AcDbLinetypeTableRecord
  2
ACISOWELD
 70
     0
  3
_ _ _ _ _
 72
    65
 73
     2
 40
2.0
 49
2.0
 74
     0
 49
-1.0
 74
     0
  0
LTYPE
  5
144C
330
5
100
AcDbSymbolTableRecord
100
AcDbLinetypeTableRecord
  2
ACISOTGB
 70
     0
  3
__ . . __ . .
 72
    65
 73
     6
 40
9.0
 49
4.0
 74
     0
 49
-1.0
 74
     0
 49
1.0
 74
     0
 49
-1.0
 74
     0
 49
1.0
 74
     0
 49
-1.0
 74
     0
  0
LTYPE
  5
144D
330
5
100
AcDbSymbolTableRecord
100
AcDbLinetypeTableRecord
  2
ACISOTGL
 70
     0
  3
_ _ _ _ _
 72
    65
 73
     2
 40
3.0
 49
2.0
 74
     0
 49
-1.0
 74
     0
  0
LTYPE
  5
1C35
330
5
100
AcDbSymbolTableRecord
100
AcDbLinetypeTableRecord
  2
CENTER
 70
     0
  3
Center ____ _ ____ _ ____ _ ____ _ ____ _ ____
 72
    65
 73
     4
 40
2.0
 49
1.25
 74
     0
 49
-0.25
 74
     0
 49
0.25
 74
     0
 49
-0.25
 74
     0
  0
LTYPE
  5
B899
330
5
100
AcDbSymbolTableRecord
100
AcDbLinetypeTableRecord
  2
PHANTOM2
 70
     0
  3
Phantom (.5x) ___ _ _ ___ _ _ ___ _ _ ___ _ _
 72
    65
 73
     6
 40
31.75
 49
15.875
 74
     0
 49
-3.174999999999999
 74
     0
 49
3.174999999999999
 74
     0
 49
-3.174999999999999
 74
     0
 49
3.174999999999999
 74
     0
 49
-3.174999999999999
 74
     0
  0
LTYPE
  5
BE5A
330
5
100
AcDbSymbolTableRecord
100
AcDbLinetypeTableRecord
  2
ACANSTGB
 70
     0
  3
__ . . __ . .
 72
    65
 73
     6
 40
0.35433070866
 49
0.15748031496
 74
     0
 49
-0.03937007874
 74
     0
 49
0.03937007874
 74
     0
 49
-0.03937007874
 74
     0
 49
0.03937007874
 74
     0
 49
-0.03937007874
 74
     0
  0
LTYPE
  5
BE5B
330
5
100
AcDbSymbolTableRecord
100
AcDbLinetypeTableRecord
  2
ACANSTGL
 70
     0
  3
_ _ _ _ _
 72
    65
 73
     2
 40
0.11811023622
 49
0.07874015748
 74
     0
 49
-0.03937007874
 74
     0
  0
LTYPE
  5
E4EC
330
5
100
AcDbSymbolTableRecord
100
AcDbLinetypeTableRecord
  2
PHANTOM
 70
     0
  3
______  __  __  ______  __  __  ______  __  __ 
 72
    65
 73
     6
 40
2.5
 49
1.25
 74
     0
 49
-0.25
 74
     0
 49
0.25
 74
     0
 49
-0.25
 74
     0
 49
0.25
 74
     0
 49
-0.25
 74
     0
  0
ENDTAB
  0
TABLE
  2
LAYER
  5
2
330
0
100
AcDbSymbolTable
 70
    13
  0
LAYER
  5
10
330
2
100
AcDbSymbolTableRecord
100
AcDbLayerTableRecord
  2
0
 70
     0
 62
     7
  6
CONTINUOUS
  0
LAYER
  5
CF
330
2
100
AcDbSymbolTableRecord
100
AcDbLayerTableRecord
  2
圖層1
 70
     0
 62
     7
  6
CONTINUOUS
  0
LAYER
  5
D0
330
2
100
AcDbSymbolTableRecord
100
AcDbLayerTableRecord
  2
圖層2
 70
     0
 62
     3
  6
CONTINUOUS
  0
LAYER
  5
450
330
2
100
AcDbSymbolTableRecord
100
AcDbLayerTableRecord
  2
DEFPOINTS
 70
     0
 62
    -7
  6
CONTINUOUS
  0
LAYER
  5
989
330
2
100
AcDbSymbolTableRecord
100
AcDbLayerTableRecord
  2
AM_5
 70
     0
 62
     5
  6
CONTINUOUS
  0
LAYER
  5
1C3A
330
2
100
AcDbSymbolTableRecord
100
AcDbLayerTableRecord
  2
AM_REFDIM
 70
     0
 62
     5
  6
CONTINUOUS
  0
LAYER
  5
DF31
330
2
100
AcDbSymbolTableRecord
100
AcDbLayerTableRecord
  2
AM_7
 70
     0
 62
     1
  6
AM_ISO08W050
  0
LAYER
  5
109BB
330
2
100
AcDbSymbolTableRecord
100
AcDbLayerTableRecord
  2
CEN
 70
     0
 62
     1
  6
CENTER
  0
LAYER
  5
109BC
330
2
100
AcDbSymbolTableRecord
100
AcDbLayerTableRecord
  2
DRG
 70
     0
 62
     7
  6
CONTINUOUS
  0
LAYER
  5
109BD
330
2
100
AcDbSymbolTableRecord
100
AcDbLayerTableRecord
  2
HATCH
 70
     0
 62
     4
  6
CONTINUOUS
  0
LAYER
  5
11694
330
2
100
AcDbSymbolTableRecord
100
AcDbLayerTableRecord
  2
圖層5
 70
     0
 62
     7
  6
CONTINUOUS
  0
LAYER
  5
1193A
330
2
100
AcDbSymbolTableRecord
100
AcDbLayerTableRecord
  2
AM_8
 70
     0
 62
     1
  6
CONTINUOUS
  0
LAYER
  5
12F7E
330
2
100
AcDbSymbolTableRecord
100
AcDbLayerTableRecord
  2
LOGO
 70
     0
 62
     7
  6
CONTINUOUS
  0
ENDTAB
  0
TABLE
  2
STYLE
  5
3
330
0
100
AcDbSymbolTable
 70
    11
  0
STYLE
  5
11
330
3
100
AcDbSymbolTableRecord
100
AcDbTextStyleTableRecord
  2
STANDARD
 70
     0
 40
0.0
 41
1.0
 50
0.0
 71
     0
 42
3.0
  3
ISOCP.SHX
  4
CHINESET.SHX
  0
STYLE
  5
52
330
3
100
AcDbSymbolTableRecord
100
AcDbTextStyleTableRecord
  2

 70
     1
 40
0.0
 41
1.0
 50
0.0
 71
     0
 42
2.5
  3
ltypeshp.shx
  4

  0
STYLE
  5
D3
330
3
100
AcDbSymbolTableRecord
100
AcDbTextStyleTableRecord
  2
ROMAND
 70
     0
 40
0.0
 41
1.0
 50
0.0
 71
     0
 42
6.0
  3
romand.shx
  4
chineset.shx
  0
STYLE
  5
1442
330
3
100
AcDbSymbolTableRecord
100
AcDbTextStyleTableRecord
  2
ACISOTS
 70
     0
 40
1.0
 41
1.0
 50
0.0
 71
     0
 42
1.0
  3
isocp.shx
  4
chineset.shx
  0
STYLE
  5
144A
330
3
100
AcDbSymbolTableRecord
100
AcDbTextStyleTableRecord
  2
ACISOGDT
 70
     0
 40
0.0
 41
1.0
 50
0.0
 71
     0
 42
2.5
  3
amgdt.shx
  4

  0
STYLE
  5
167B
330
3
100
AcDbSymbolTableRecord
100
AcDbTextStyleTableRecord
  2
DAYUS
 70
     0
 40
0.0
 41
1.0
 50
0.0
 71
     0
 42
5.25
  3
simplex
  4
dayus
  0
STYLE
  5
BE5E
330
3
100
AcDbSymbolTableRecord
100
AcDbTextStyleTableRecord
  2
ACANSTS
 70
     0
 40
1.0
 41
1.0
 50
0.0
 71
     0
 42
1.5
  3
romans.shx
  4
chineset.shx
  0
STYLE
  5
BE5F
330
3
100
AcDbSymbolTableRecord
100
AcDbTextStyleTableRecord
  2
ACANSGDT
 70
     0
 40
0.0
 41
1.0
 50
0.0
 71
     0
 42
1.5
  3
amgdtans.shx
  4

  0
STYLE
  5
109BF
330
3
100
AcDbSymbolTableRecord
100
AcDbTextStyleTableRecord
  2
ROMAN
 70
     0
 40
0.0
 41
1.0
 50
0.0
 71
     0
 42
4.0
  3
romans.shx
  4

  0
STYLE
  5
12F7F
330
3
100
AcDbSymbolTableRecord
100
AcDbTextStyleTableRecord
  2
CHINESET
 70
     0
 40
0.0
 41
1.0
 50
0.0
 71
     0
 42
25.0
  3
simplex.shx
  4
chineset.shx
  0
STYLE
  5
12F80
330
3
100
AcDbSymbolTableRecord
100
AcDbTextStyleTableRecord
  2
LOGO
 70
     0
 40
0.0
 41
1.0
 50
0.0
 71
     0
 42
5.0
  3
LEI00DP.TTF
  4

1001
ACAD
1000
文鼎中粗隸
1071
    34865
  0
ENDTAB
  0
TABLE
  2
VIEW
  5
6
330
0
100
AcDbSymbolTable
 70
     0
  0
ENDTAB
  0
TABLE
  2
UCS
  5
7
330
0
100
AcDbSymbolTable
 70
     0
  0
ENDTAB
  0
TABLE
  2
APPID
  5
9
330
0
100
AcDbSymbolTable
 70
    21
  0
APPID
  5
12
330
9
100
AcDbSymbolTableRecord
100
AcDbRegAppTableRecord
  2
ACAD
 70
     0
  0
APPID
  5
30
330
9
100
AcDbSymbolTableRecord
100
AcDbRegAppTableRecord
  2
MCAD_NO_VIS
 70
     0
  0
APPID
  5
31
330
9
100
AcDbSymbolTableRecord
100
AcDbRegAppTableRecord
  2
ACAD_TEMP_GRAPHIC
 70
     0
  0
APPID
  5
455
330
9
100
AcDbSymbolTableRecord
100
AcDbRegAppTableRecord
  2
GENIUS_GENDTOL_13
 70
     0
  0
APPID
  5
6B34
330
9
100
AcDbSymbolTableRecord
100
AcDbRegAppTableRecord
  2
ACATTRIBSERVICES
 70
     0
  0
APPID
  5
DF34
330
9
100
AcDbSymbolTableRecord
100
AcDbRegAppTableRecord
  2
GENIUS_GENOREF_13
 70
     0
  0
APPID
  5
E304
330
9
100
AcDbSymbolTableRecord
100
AcDbRegAppTableRecord
  2
GENIUS_GENREC_14
 70
     0
  0
APPID
  5
E305
330
9
100
AcDbSymbolTableRecord
100
AcDbRegAppTableRecord
  2
GENIUS_GENODEF_13
 70
     0
  0
APPID
  5
E306
330
9
100
AcDbSymbolTableRecord
100
AcDbRegAppTableRecord
  2
GENIUS_GENOBJ-N-REC_13
 70
     0
  0
APPID
  5
E7E4
330
9
100
AcDbSymbolTableRecord
100
AcDbRegAppTableRecord
  2
GEVID1067829771
 70
     0
  0
APPID
  5
E7E5
330
9
100
AcDbSymbolTableRecord
100
AcDbRegAppTableRecord
  2
GEVDC
 70
     0
  0
APPID
  5
E7E6
330
9
100
AcDbSymbolTableRecord
100
AcDbRegAppTableRecord
  2
GEVRADREF
 70
     0
  0
APPID
  5
E7E9
330
9
100
AcDbSymbolTableRecord
100
AcDbRegAppTableRecord
  2
GENIUS_GENBH_13
 70
     0
  0
APPID
  5
E7EC
330
9
100
AcDbSymbolTableRecord
100
AcDbRegAppTableRecord
  2
GENIUS_GENOBJ-NBEHI-BHF_13
 70
     0
  0
APPID
  5
E7ED
330
9
100
AcDbSymbolTableRecord
100
AcDbRegAppTableRecord
  2
GENIUS_GENOENT_13
 70
     0
  0
APPID
  5
E7EE
330
9
100
AcDbSymbolTableRecord
100
AcDbRegAppTableRecord
  2
GENIUS_GENOLIS_13
 70
     0
  0
APPID
  5
E7F0
330
9
100
AcDbSymbolTableRecord
100
AcDbRegAppTableRecord
  2
GENIUS_GENOBJ-NBEHI-BHB_13
 70
     0
  0
APPID
  5
E805
330
9
100
AcDbSymbolTableRecord
100
AcDbRegAppTableRecord
  2
GEVID1067829772
 70
     0
  0
APPID
  5
111FE
330
9
100
AcDbSymbolTableRecord
100
AcDbRegAppTableRecord
  2
GENIUS_GENOBJ-N-CRS_13
 70
     0
  0
APPID
  5
1193B
330
9
100
AcDbSymbolTableRecord
100
AcDbRegAppTableRecord
  2
GENIUS_GENOBJ-N-HTC_13
 70
     0
  0
APPID
  5
1193C
330
9
100
AcDbSymbolTableRecord
100
AcDbRegAppTableRecord
  2
GENIUS_GENHATCH_13
 70
     0
  0
ENDTAB
  0
TABLE
  2
DIMSTYLE
  5
A
330
0
100
AcDbSymbolTable
 70
    14
  0
DIMSTYLE
105
98A
330
A
100
AcDbSymbolTableRecord
100
AcDbDimStyleTableRecord
  2
AM_ISO
 70
     0
  3

  4
"
  5

  6

  7

 40
0.6
 41
3.0
 42
2.0
 43
10.0
 44
1.5
 45
0.0
 46
0.0
 47
0.1
 48
0.1
140
3.0
141
0.0
142
0.0
143
0.0393701
144
1.0
145
0.0
146
0.71
147
0.8
 71
     0
 72
     0
 73
     0
 74
     0
 75
     0
 76
     0
 77
     1
 78
     8
170
     0
171
     2
172
     1
173
     0
174
     0
175
     0
176
     5
177
   256
178
     5
270
     2
271
     2
272
     2
273
     2
274
     2
340
11
275
     0
280
     0
281
     0
282
     0
283
     0
284
     0
285
     0
286
     0
287
     3
288
     0
  0
DIMSTYLE
105
98B
330
A
100
AcDbSymbolTableRecord
100
AcDbDimStyleTableRecord
  2
AM_ISO$3
 70
     0
  3

  4
"
  5

  6

  7

 40
0.6
 41
3.0
 42
2.0
 43
10.0
 44
1.5
 45
0.0
 46
0.0
 47
0.1
 48
0.1
140
3.0
141
0.0
142
0.0
143
0.0393701
144
1.0
145
0.0
146
0.71
147
0.8
 71
     0
 72
     0
 73
     0
 74
     1
 75
     0
 76
     0
 77
     1
 78
     8
170
     0
171
     2
172
     0
173
     0
174
     0
175
     0
176
     5
177
   256
178
     5
270
     2
271
     2
272
     2
273
     2
274
     2
340
11
275
     0
280
     0
281
     0
282
     0
283
     0
284
     0
285
     0
286
     0
287
     0
288
     1
  0
DIMSTYLE
105
98C
330
A
100
AcDbSymbolTableRecord
100
AcDbDimStyleTableRecord
  2
AM_ISO$4
 70
     0
  3

  4
"
  5

  6

  7

 40
0.6
 41
3.0
 42
2.0
 43
10.0
 44
1.5
 45
0.0
 46
0.0
 47
0.1
 48
0.1
140
3.0
141
0.0
142
0.0
143
0.0393701
144
1.0
145
0.0
146
0.71
147
0.8
 71
     0
 72
     0
 73
     0
 74
     1
 75
     0
 76
     0
 77
     1
 78
     8
170
     0
171
     2
172
     0
173
     0
174
     0
175
     0
176
     5
177
   256
178
     5
270
     2
271
     2
272
     2
273
     2
274
     2
340
11
275
     0
280
     0
281
     0
282
     0
283
     0
284
     0
285
     0
286
     0
287
     0
288
     1
  0
DIMSTYLE
105
98D
330
A
100
AcDbSymbolTableRecord
100
AcDbDimStyleTableRecord
  2
AM_ISO$6
 70
     0
  3

  4
"
  5

  6

  7

 40
0.6
 41
3.0
 42
2.0
 43
10.0
 44
1.5
 45
0.0
 46
0.0
 47
0.1
 48
0.1
140
3.0
141
0.0
142
0.0
143
0.0393701
144
1.0
145
0.0
146
0.71
147
0.8
 71
     0
 72
     0
 73
     0
 74
     0
 75
     0
 76
     0
 77
     0
 78
     8
170
     0
171
     2
172
     1
173
     0
174
     0
175
     0
176
     5
177
   256
178
     5
270
     2
271
     2
272
     2
273
     2
274
     2
340
11
275
     0
280
     0
281
     0
282
     0
283
     0
284
     0
285
     0
286
     0
287
     3
288
     0
  0
DIMSTYLE
105
98E
330
A
100
AcDbSymbolTableRecord
100
AcDbDimStyleTableRecord
  2
AM_ISO$7
 70
     0
  3

  4
"
  5

  6

  7

 40
0.6
 41
3.0
 42
2.0
 43
10.0
 44
1.5
 45
0.0
 46
0.0
 47
0.1
 48
0.1
140
5.0
141
0.0
142
0.0
143
0.0393701
144
1.0
145
0.0
146
0.71
147
0.8
 71
     0
 72
     0
 73
     0
 74
     0
 75
     0
 76
     0
 77
     1
 78
     8
170
     0
171
     2
172
     1
173
     0
174
     0
175
     0
176
     5
177
   256
178
     5
270
     2
271
     2
272
     2
273
     2
274
     2
340
11
275
     0
280
     0
281
     0
282
     0
283
     0
284
     0
285
     0
286
     0
287
     3
288
     0
  0
DIMSTYLE
105
98F
330
A
100
AcDbSymbolTableRecord
100
AcDbDimStyleTableRecord
  2
AM_ISO$SF
 70
     0
  3

  4
"
  5

  6

  7

 40
0.5
 41
2.5
 42
1.0
 43
10.0
 44
1.0
 45
0.0
 46
0.0
 47
0.1
 48
0.1
140
3.5
141
0.0
142
0.0
143
0.0393701
144
1.0
145
0.0
146
0.71
147
1.5
 71
     0
 72
     0
 73
     0
 74
     0
 75
     1
 76
     1
 77
     1
 78
     8
170
     0
171
     2
172
     1
173
     0
174
     0
175
     0
176
   256
177
   256
178
     2
270
     2
271
     2
272
     2
273
     2
274
     2
340
11
275
     0
280
     0
281
     0
282
     0
283
     0
284
     0
285
     0
286
     0
287
     3
288
     0
  0
DIMSTYLE
105
994
330
A
100
AcDbSymbolTableRecord
100
AcDbDimStyleTableRecord
  2
AM_ISO$SH
 70
     0
  3

  4
"
  5

  6
GENAXEH
  7

 40
0.5
 41
2.5
 42
1.0
 43
10.0
 44
1.0
 45
0.0
 46
0.0
 47
0.1
 48
0.1
140
3.5
141
0.0
142
0.0
143
0.0393701
144
2.0
145
0.0
146
0.71
147
1.5
 71
     0
 72
     0
 73
     0
 74
     0
 75
     1
 76
     1
 77
     1
 78
     8
170
     0
171
     2
172
     1
173
     1
174
     0
175
     0
176
   256
177
   256
178
     2
270
     2
271
     2
272
     2
273
     2
274
     2
340
11
275
     0
280
     0
281
     0
282
     0
283
     0
284
     0
285
     0
286
     0
287
     3
288
     0
  0
DIMSTYLE
105
6E5D
330
A
100
AcDbSymbolTableRecord
100
AcDbDimStyleTableRecord
  2
AM_ANSI
 70
     0
  3

  4
"
  5

  6

  7

 40
0.8
 41
3.0
 42
1.5
 43
5.0
 44
2.0
 45
0.0
 46
0.0
 47
0.1
 48
0.1
140
3.0
141
-1.5
142
0.0
143
0.0393701
144
0.833333333
145
0.0
146
0.6
147
0.8
 71
     0
 72
     0
 73
     0
 74
     0
 75
     0
 76
     0
 77
     1
 78
     8
170
     0
171
     2
172
     1
173
     0
174
     0
175
     0
176
   256
177
   256
178
   256
270
     2
271
     2
272
     2
273
     2
274
     2
340
167B
275
     0
280
     0
281
     0
282
     0
283
     1
284
     8
285
     0
286
     0
287
     3
288
     0
  0
DIMSTYLE
105
6E5E
330
A
100
AcDbSymbolTableRecord
100
AcDbDimStyleTableRecord
  2
AM_ANSI$3
 70
     0
  3

  4
"
  5

  6

  7

 40
0.8
 41
3.0
 42
1.5
 43
5.0
 44
2.0
 45
0.0
 46
0.0
 47
0.1
 48
0.1
140
3.0
141
-1.5
142
0.0
143
0.0393701
144
0.833333333
145
0.0
146
0.6
147
0.8
 71
     0
 72
     0
 73
     0
 74
     0
 75
     0
 76
     0
 77
     1
 78
     8
170
     0
171
     2
172
     1
173
     0
174
     0
175
     0
176
   256
177
   256
178
   256
270
     2
271
     2
272
     2
273
     2
274
     2
340
167B
275
     0
280
     0
281
     0
282
     0
283
     1
284
     8
285
     0
286
     0
287
     0
288
     1
  0
DIMSTYLE
105
6E5F
330
A
100
AcDbSymbolTableRecord
100
AcDbDimStyleTableRecord
  2
AM_ANSI$7
 70
     0
  3

  4
"
  5

  6

  7

 40
0.8
 41
3.0
 42
1.5
 43
5.0
 44
2.0
 45
0.0
 46
0.0
 47
0.1
 48
0.1
140
5.0
141
-1.5
142
0.0
143
0.0393701
144
0.833333333
145
0.0
146
0.6
147
0.8
 71
     0
 72
     0
 73
     0
 74
     0
 75
     0
 76
     0
 77
     1
 78
     8
170
     0
171
     2
172
     1
173
     0
174
     0
175
     0
176
   256
177
   256
178
   256
270
     2
271
     2
272
     2
273
     2
274
     2
340
167B
275
     0
280
     0
281
     0
282
     0
283
     1
284
     8
285
     0
286
     0
287
     3
288
     0
  0
DIMSTYLE
105
B991
102
{ACAD_REACTORS
330
12875
330
12877
330
128E9
330
128F6
330
129E0
330
129F9
330
129FC
102
}
330
A
100
AcDbSymbolTableRecord
100
AcDbDimStyleTableRecord
  2
STANDARD
 70
     0
  3

  4

  5

  6

  7

 40
1.0
 41
3.0
 42
2.0
 43
10.5
 44
1.0
 45
0.0
 46
0.0
 47
0.01
 48
0.01
140
3.5
141
3.0
142
0.0
143
25.4
144
1.0
145
0.0
146
0.6
147
0.8
 71
     0
 72
     0
 73
     0
 74
     0
 75
     0
 76
     0
 77
     1
 78
     8
170
     0
171
     2
172
     1
173
     0
174
     0
175
     0
176
   256
177
   256
178
   256
270
     2
271
     2
272
     2
273
     2
274
     2
340
11
275
     0
280
     0
281
     0
282
     0
283
     0
284
     8
285
     0
286
     0
287
     3
288
     0
  0
DIMSTYLE
105
BE61
330
A
100
AcDbSymbolTableRecord
100
AcDbDimStyleTableRecord
  2
AM_ANSI$4
 70
     0
  3

  4
mm
  5

  6

  7

 40
1.0
 41
0.1
 42
0.05
 43
0.5
 44
0.1
 45
0.0
 46
0.0
 47
0.1
 48
0.1
140
0.12
141
0.0
142
0.0
143
25.4
144
1.0
145
0.0
146
0.71
147
0.06
 71
     0
 72
     0
 73
     1
 74
     1
 75
     0
 76
     0
 77
     0
 78
     7
170
     0
171
     2
172
     0
173
     0
174
     0
175
     0
176
   256
177
   256
178
     2
270
     2
271
     4
272
     4
273
     2
274
     4
340
11
275
     0
280
     0
281
     0
282
     0
283
     1
284
     7
285
     0
286
     0
287
     0
288
     1
  0
DIMSTYLE
105
BE62
330
A
100
AcDbSymbolTableRecord
100
AcDbDimStyleTableRecord
  2
AM_ANSI$SF
 70
     0
  3

  4
mm
  5

  6

  7

 40
1.0
 41
0.1
 42
0.05
 43
0.5
 44
0.1
 45
0.0
 46
0.0
 47
0.1
 48
0.1
140
0.12
141
0.0
142
0.0
143
25.4
144
1.0
145
0.0
146
0.71
147
0.06
 71
     0
 72
     0
 73
     1
 74
     1
 75
     1
 76
     1
 77
     0
 78
     7
170
     0
171
     2
172
     0
173
     0
174
     0
175
     0
176
   256
177
   256
178
     2
270
     2
271
     4
272
     4
273
     2
274
     4
340
11
275
     0
280
     0
281
     0
282
     0
283
     1
284
     7
285
     0
286
     0
287
     3
288
     0
  0
DIMSTYLE
105
BE63
330
A
100
AcDbSymbolTableRecord
100
AcDbDimStyleTableRecord
  2
AM_ANSI$SH
 70
     0
  3

  4
mm
  5

  6
GENAXEH
  7

 40
1.0
 41
0.1
 42
0.05
 43
0.5
 44
0.1
 45
0.0
 46
0.0
 47
0.1
 48
0.1
140
0.12
141
0.0
142
0.0
143
25.4
144
1.0
145
0.0
146
0.71
147
0.06
 71
     0
 72
     0
 73
     1
 74
     1
 75
     1
 76
     1
 77
     0
 78
     7
170
     0
171
     2
172
     0
173
     1
174
     0
175
     0
176
   256
177
   256
178
     2
270
     2
271
     4
272
     4
273
     2
274
     4
340
11
275
     0
280
     0
281
     0
282
     0
283
     1
284
     7
285
     0
286
     0
287
     3
288
     0
  0
ENDTAB
  0
TABLE
  2
BLOCK_RECORD
  5
1
330
0
100
AcDbSymbolTable
 70
    18
  0
BLOCK_RECORD
  5
1F
102
{ACAD_XDICTIONARY
360
3A4
102
}
330
1
100
AcDbSymbolTableRecord
100
AcDbBlockTableRecord
  2
*MODEL_SPACE
  0
BLOCK_RECORD
  5
1B
102
{ACAD_XDICTIONARY
360
1324C
102
}
330
1
100
AcDbSymbolTableRecord
100
AcDbBlockTableRecord
  2
*PAPER_SPACE
  0
BLOCK_RECORD
  5
990
330
1
100
AcDbSymbolTableRecord
100
AcDbBlockTableRecord
  2
GENAXEH
  0
BLOCK_RECORD
  5
11683
330
1
100
AcDbSymbolTableRecord
100
AcDbBlockTableRecord
  2
A$C6E5F38A8
  0
BLOCK_RECORD
  5
116B4
330
1
100
AcDbSymbolTableRecord
100
AcDbBlockTableRecord
  2
A$C453F5956
  0
BLOCK_RECORD
  5
12A47
330
1
100
AcDbSymbolTableRecord
100
AcDbBlockTableRecord
  2
*D4
  0
BLOCK_RECORD
  5
12A53
330
1
100
AcDbSymbolTableRecord
100
AcDbBlockTableRecord
  2
*D5
  0
BLOCK_RECORD
  5
12A5F
330
1
100
AcDbSymbolTableRecord
100
AcDbBlockTableRecord
  2
*D6
  0
BLOCK_RECORD
  5
12A6B
330
1
100
AcDbSymbolTableRecord
100
AcDbBlockTableRecord
  2
*D7
  0
BLOCK_RECORD
  5
12A89
330
1
100
AcDbSymbolTableRecord
100
AcDbBlockTableRecord
  2
*D8
  0
BLOCK_RECORD
  5
12AA7
330
1
100
AcDbSymbolTableRecord
100
AcDbBlockTableRecord
  2
*D9
  0
BLOCK_RECORD
  5
12AB3
330
1
100
AcDbSymbolTableRecord
100
AcDbBlockTableRecord
  2
*D10
  0
BLOCK_RECORD
  5
13251
330
1
100
AcDbSymbolTableRecord
100
AcDbBlockTableRecord
  2
*S11
  0
BLOCK_RECORD
  5
13259
330
1
100
AcDbSymbolTableRecord
100
AcDbBlockTableRecord
  2
*X12
  0
BLOCK_RECORD
  5
13284
330
1
100
AcDbSymbolTableRecord
100
AcDbBlockTableRecord
  2
*U13
  0
BLOCK_RECORD
  5
13293
330
1
100
AcDbSymbolTableRecord
100
AcDbBlockTableRecord
  2
*X14
  0
BLOCK_RECORD
  5
132C0
330
1
100
AcDbSymbolTableRecord
100
AcDbBlockTableRecord
  2
*U15
  0
BLOCK_RECORD
  5
132CE
330
1
100
AcDbSymbolTableRecord
100
AcDbBlockTableRecord
  2
*S16
  0
BLOCK_RECORD
  5
13315
330
1
100
AcDbSymbolTableRecord
100
AcDbBlockTableRecord
  2
*S17
  0
ENDTAB
  0
ENDSEC
  0
SECTION
  2
BLOCKS
  0
BLOCK
  5
20
330
1F
100
AcDbEntity
  8
0
100
AcDbBlockBegin
  2
*MODEL_SPACE
 70
     0
 10
0.0
 20
0.0
 30
0.0
  3
*MODEL_SPACE
  1

  0
ENDBLK
  5
21
330
1F
100
AcDbEntity
  8
0
100
AcDbBlockEnd
  0
BLOCK
  5
1C
330
1B
100
AcDbEntity
 67
     1
  8
0
100
AcDbBlockBegin
  2
*PAPER_SPACE
 70
     0
 10
0.0
 20
0.0
 30
0.0
  3
*PAPER_SPACE
  1

  0
ENDBLK
  5
1D
330
1B
100
AcDbEntity
 67
     1
  8
0
100
AcDbBlockEnd
  0
BLOCK
  5
992
330
990
100
AcDbEntity
  8
0
100
AcDbBlockBegin
  2
GENAXEH
 70
     0
 10
0.0
 20
0.0
 30
0.0
  3
GENAXEH
  1

  0
LINE
  5
991
330
990
100
AcDbEntity
  8
0
100
AcDbLine
 10
-1.0
 20
0.0
 30
0.0
 11
1.0
 21
0.0
 31
0.0
  0
ENDBLK
  5
993
330
990
100
AcDbEntity
  8
0
100
AcDbBlockEnd
  0
BLOCK
  5
11692
330
11683
100
AcDbEntity
  8
0
100
AcDbBlockBegin
  2
A$C6E5F38A8
 70
     0
 10
0.0
 20
0.0
 30
0.0
  3
A$C6E5F38A8
  1

  0
CIRCLE
  5
11684
330
11683
100
AcDbEntity
  8
圖層1
  6
PHANTOM
 62
     2
 48
0.5
100
AcDbCircle
 10
-0.0027688737727658
 20
0.0000000000000284
 30
0.0
 40
23.0
  0
CIRCLE
  5
11685
330
11683
100
AcDbEntity
  8
圖層1
  6
PHANTOM
 62
     2
 48
0.5
100
AcDbCircle
 10
-0.0027688737727658
 20
0.0000000000000284
 30
0.0
 40
26.5
  0
ARC
  5
11686
330
11683
100
AcDbEntity
  8
圖層1
  6
PHANTOM
 62
     2
 48
0.5
100
AcDbCircle
 10
-0.0027688737727658
 20
0.0000000000000284
 30
0.0
 40
17.52365489726105
100
AcDbArc
 50
324.2347735551979
 51
215.765226444802
  0
LINE
  5
11687
330
11683
100
AcDbEntity
  8
圖層1
  6
PHANTOM
 62
     2
 48
0.5
100
AcDbLine
 10
7.997231126227234
 20
6.000000000000028
 30
0.0
 11
7.138923384838108
 21
6.293769193957956
 31
0.0
  0
LINE
  5
11688
330
11683
100
AcDbEntity
  8
圖層1
  6
PHANTOM
 62
     2
 48
0.5
100
AcDbLine
 10
7.997231126227234
 20
6.000000000000028
 30
0.0
 11
8.038923384838199
 21
5.093769193957911
 31
0.0
  0
LINE
  5
11689
330
11683
100
AcDbEntity
  8
圖層1
  6
PHANTOM
 62
     2
 48
0.5
100
AcDbLine
 10
2.73017164400835
 20
1.237350446022702
 30
0.0
 11
8.038923384838199
 21
5.093769193957911
 31
0.0
  0
LINE
  5
1168A
330
11683
100
AcDbEntity
  8
圖層1
  6
PHANTOM
 62
     2
 48
0.5
100
AcDbLine
 10
1.950310899387659
 20
2.277164772183169
 30
0.0
 11
7.138923384838108
 21
6.293769193957956
 31
0.0
  0
CIRCLE
  5
1168B
330
11683
100
AcDbEntity
  8
圖層1
  6
PHANTOM
 62
     2
 48
0.5
100
AcDbCircle
 10
-0.0027688737727658
 20
0.0000000000000284
 30
0.0
 40
3.0
  0
CIRCLE
  5
1168C
330
11683
100
AcDbEntity
  8
圖層1
  6
PHANTOM
 62
     2
 48
0.5
100
AcDbCircle
 10
-0.0027688737727658
 20
0.0000000000000284
 30
0.0
 40
2.0
  0
ARC
  5
1168D
330
11683
100
AcDbEntity
  8
圖層5
  6
CONTINUOUS
 62
     3
100
AcDbCircle
 10
-0.0000000000001137
 20
-0.0000000000000426
 30
0.0
 40
6.5785
100
AcDbArc
 50
279.9758843526894
 51
190.0000000000002
  0
CIRCLE
  5
1168E
330
11683
100
AcDbEntity
  8
圖層5
  6
CONTINUOUS
100
AcDbCircle
 10
0.0
 20
0.0
 30
0.0
 40
5.7225
  0
LINE
  5
1168F
330
11683
100
AcDbEntity
  8
圖層1
  6
PHANTOM
 62
     2
 48
0.5
100
AcDbLine
 10
-15.8246206604731
 20
-12.24134518721101
 30
0.0
 11
-2.024420396422101
 21
-2.216511926647257
 31
0.0
  0
LINE
  5
11690
330
11683
100
AcDbEntity
  8
圖層1
  6
PHANTOM
 62
     2
 48
0.5
100
AcDbLine
 10
-16.18457875377134
 20
-11.76140106281317
 30
0.0
 11
-2.69668274969581
 21
-1.320162122282084
 31
0.0
  0
ARC
  5
11691
330
11683
100
AcDbEntity
  8
圖層1
  6
PHANTOM
 62
     2
 48
0.5
100
AcDbCircle
 10
-16.00093782727708
 20
-11.99862671512832
 30
0.0
 40
0.3
100
AcDbArc
 50
127.7441409864535
 51
305.9956543052364
  0
ENDBLK
  5
11693
330
11683
100
AcDbEntity
  8
0
100
AcDbBlockEnd
  0
BLOCK
  5
116C5
330
116B4
100
AcDbEntity
  8
0
100
AcDbBlockBegin
  2
A$C453F5956
 70
     0
 10
0.0
 20
0.0
 30
0.0
  3
A$C453F5956
  1

  0
LINE
  5
116B5
330
116B4
100
AcDbEntity
  8
圖層1
  6
PHANTOM
 62
     2
 48
0.5
100
AcDbLine
 10
7.371834609193228
 20
51.99999995046352
 30
0.0
 11
7.371834609193228
 21
-0.0000000495364816
 31
0.0
  0
LINE
  5
116B6
330
116B4
100
AcDbEntity
  8
圖層1
  6
PHANTOM
 62
     2
 48
0.5
100
AcDbLine
 10
0.0000012872083062
 20
50.99999995046355
 30
0.0
 11
0.0000012872083062
 21
0.9999999504635184
 31
0.0
  0
LINE
  5
116B7
330
116B4
100
AcDbEntity
  8
圖層1
  6
PHANTOM
 62
     2
 48
0.5
100
AcDbLine
 10
26.0000012872083
 20
50.99999995046355
 30
0.0
 11
26.0000012872083
 21
0.9999999504635184
 31
0.0
  0
LINE
  5
116B8
330
116B4
100
AcDbEntity
  8
圖層1
  6
PHANTOM
 62
     2
 48
0.5
100
AcDbLine
 10
1.000001287208306
 20
-0.0000000495364816
 30
0.0
 11
25.0000012872083
 21
-0.0000000495364816
 31
0.0
  0
ARC
  5
116B9
330
116B4
100
AcDbEntity
  8
圖層1
  6
PHANTOM
 62
     2
 48
0.5
100
AcDbCircle
 10
1.000001287208306
 20
0.9999999504635184
 30
0.0
 40
1.0
100
AcDbArc
 50
180.0
 51
270.0
  0
ARC
  5
116BA
330
116B4
100
AcDbEntity
  8
圖層1
  6
PHANTOM
 62
     2
 48
0.5
100
AcDbCircle
 10
25.0000012872083
 20
0.9999999504635184
 30
0.0
 40
1.0
100
AcDbArc
 50
270.0
 51
0.0
  0
LINE
  5
116BB
330
116B4
100
AcDbEntity
  8
圖層1
  6
PHANTOM
 62
     2
 48
0.5
100
AcDbLine
 10
1.000001287208306
 20
51.99999995046354
 30
0.0
 11
25.0000012872083
 21
51.99999995046354
 31
0.0
  0
ARC
  5
116BC
330
116B4
100
AcDbEntity
  8
圖層1
  6
PHANTOM
 62
     2
 48
0.5
100
AcDbCircle
 10
1.000001287208306
 20
50.99999995046355
 30
0.0
 40
1.0
100
AcDbArc
 50
90.0
 51
180.0
  0
ARC
  5
116BD
330
116B4
100
AcDbEntity
  8
圖層1
  6
PHANTOM
 62
     2
 48
0.5
100
AcDbCircle
 10
25.0000012872083
 20
50.99999995046355
 30
0.0
 40
1.0
100
AcDbArc
 50
0.0
 51
90.0
  0
LINE
  5
116BE
330
116B4
100
AcDbEntity
  8
圖層1
  6
PHANTOM
 62
     2
 48
0.5
100
AcDbLine
 10
26.0000012872083
 20
16.99999995046349
 30
0.0
 11
33.09267009418681
 21
34.99999995046351
 31
0.0
  0
LINE
  5
116BF
330
116B4
100
AcDbEntity
  8
圖層1
  6
PHANTOM
 62
     2
 48
0.5
100
AcDbLine
 10
26.0000012872083
 20
34.99999995046349
 30
0.0
 11
33.09267009418681
 21
16.99999995046352
 31
0.0
  0
LINE
  5
116C0
330
116B4
100
AcDbEntity
  8
圖層1
  6
PHANTOM
 62
     2
 48
0.5
100
AcDbLine
 10
33.09267009418681
 20
34.99999995046351
 30
0.0
 11
33.09267009418681
 21
16.99999995046349
 31
0.0
  0
LINE
  5
116C1
330
116B4
100
AcDbEntity
  8
圖層1
  6
PHANTOM
 62
     2
 48
0.5
100
AcDbLine
 10
33.09267009418681
 20
19.59999995046348
 30
0.0
 11
38.50000128720819
 21
19.5999999504635
 31
0.0
  0
LINE
  5
116C2
330
116B4
100
AcDbEntity
  8
圖層1
  6
PHANTOM
 62
     2
 48
0.5
100
AcDbLine
 10
26.0000012872083
 20
16.99999995046349
 30
0.0
 11
33.09267009418681
 21
16.99999995046352
 31
0.0
  0
LINE
  5
116C3
330
116B4
100
AcDbEntity
  8
圖層1
  6
PHANTOM
 62
     2
 48
0.5
100
AcDbLine
 10
33.09267009418681
 20
32.39999995046352
 30
0.0
 11
38.50000128720819
 21
32.39999995046352
 31
0.0
  0
LINE
  5
116C4
330
116B4
100
AcDbEntity
  8
圖層1
  6
PHANTOM
 62
     2
 48
0.5
100
AcDbLine
 10
26.0000012872083
 20
34.99999995046349
 30
0.0
 11
33.09267009418681
 21
34.99999995046351
 31
0.0
  0
ENDBLK
  5
116C6
330
116B4
100
AcDbEntity
  8
0
100
AcDbBlockEnd
  0
BLOCK
  5
12A51
330
12A47
100
AcDbEntity
  8
0
100
AcDbBlockBegin
  2
*D4
 70
     1
 10
0.0
 20
0.0
 30
0.0
  3
*D4
  1

  0
LINE
  5
130A9
330
12A47
100
AcDbEntity
  8
AM_5
100
AcDbLine
 10
710.1549713795515
 20
-76.90118209635293
 30
0.0
 11
710.1549713795515
 21
30.25945113079433
 31
0.0
  0
LINE
  5
130AA
330
12A47
100
AcDbEntity
  8
AM_5
100
AcDbLine
 10
860.0534992682478
 20
-38.05065639699671
 30
0.0
 11
860.0534992682478
 21
30.25945113079433
 31
0.0
  0
LINE
  5
130AB
330
12A47
100
AcDbEntity
  8
AM_5
100
AcDbLine
 10
716.1549713795515
 20
26.25945113079433
 30
0.0
 11
854.0534992682477
 21
26.25945113079433
 31
0.0
  0
SOLID
  5
130AC
330
12A47
100
AcDbEntity
  8
AM_5
100
AcDbTrace
 10
716.1549713795515
 20
27.25945113079433
 30
0.0
 11
716.1549713795515
 21
25.25945113079433
 31
0.0
 12
710.1549713795515
 22
26.25945113079433
 32
0.0
 13
710.1549713795515
 23
26.25945113079433
 33
0.0
  0
SOLID
  5
130AD
330
12A47
100
AcDbEntity
  8
AM_5
100
AcDbTrace
 10
854.0534992682477
 20
27.25945113079433
 30
0.0
 11
854.0534992682477
 21
25.25945113079433
 31
0.0
 12
860.0534992682478
 22
26.25945113079433
 32
0.0
 13
860.0534992682478
 23
26.25945113079433
 33
0.0
  0
MTEXT
  5
130AE
330
12A47
100
AcDbEntity
  8
AM_5
100
AcDbMText
 10
785.1042353238995
 20
31.35945113079433
 30
0.0
 40
7.0
 41
0.0
 71
     5
 72
     1
  1
150
1001
ACAD
1000
MTEXTBEGIN
1070
    73
1070
     1
1070
    44
1040
1.0
1070
    74
1070
     0
1000
MTEXTEND
  0
POINT
  5
130AF
330
12A47
100
AcDbEntity
  8
DEFPOINTS
 62
     0
100
AcDbPoint
 10
710.1549713795515
 20
-80.90118209635292
 30
0.0
  0
POINT
  5
130B0
330
12A47
100
AcDbEntity
  8
DEFPOINTS
 62
     0
100
AcDbPoint
 10
860.0534992682478
 20
-42.05065639699671
 30
0.0
  0
POINT
  5
130B1
330
12A47
100
AcDbEntity
  8
DEFPOINTS
 62
     0
100
AcDbPoint
 10
860.0534992682478
 20
26.25945113079433
 30
0.0
  0
ENDBLK
  5
12A52
330
12A47
100
AcDbEntity
  8
0
100
AcDbBlockEnd
  0
BLOCK
  5
12A5D
330
12A53
100
AcDbEntity
  8
0
100
AcDbBlockBegin
  2
*D5
 70
     1
 10
0.0
 20
0.0
 30
0.0
  3
*D5
  1

  0
LINE
  5
130B2
330
12A53
100
AcDbEntity
  8
AM_5
100
AcDbLine
 10
710.1549713795516
 20
-76.90118209635293
 30
0.0
 11
710.1549713795516
 21
13.75165810561372
 31
0.0
  0
LINE
  5
130B3
330
12A53
100
AcDbEntity
  8
AM_5
100
AcDbLine
 10
791.0534992682474
 20
-2.598000073517482
 30
0.0
 11
791.0534992682474
 21
13.75165810561372
 31
0.0
  0
LINE
  5
130B4
330
12A53
100
AcDbEntity
  8
AM_5
100
AcDbLine
 10
716.1549713795515
 20
9.751658105613728
 30
0.0
 11
785.0534992682473
 21
9.751658105613728
 31
0.0
  0
SOLID
  5
130B5
330
12A53
100
AcDbEntity
  8
AM_5
100
AcDbTrace
 10
716.1549713795515
 20
10.75165810561372
 30
0.0
 11
716.1549713795515
 21
8.751658105613728
 31
0.0
 12
710.1549713795516
 22
9.751658105613728
 32
0.0
 13
710.1549713795516
 23
9.751658105613728
 33
0.0
  0
SOLID
  5
130B6
330
12A53
100
AcDbEntity
  8
AM_5
100
AcDbTrace
 10
785.0534992682473
 20
10.75165810561372
 30
0.0
 11
785.0534992682473
 21
8.751658105613728
 31
0.0
 12
791.0534992682474
 22
9.751658105613728
 32
0.0
 13
791.0534992682474
 23
9.751658105613728
 33
0.0
  0
MTEXT
  5
130B7
330
12A53
100
AcDbEntity
  8
AM_5
100
AcDbMText
 10
750.6042353238995
 20
14.85165810561372
 30
0.0
 40
7.0
 41
0.0
 71
     5
 72
     1
  1
81
1001
ACAD
1000
MTEXTBEGIN
1070
    73
1070
     1
1070
    44
1040
1.0
1070
    74
1070
     0
1000
MTEXTEND
  0
POINT
  5
130B8
330
12A53
100
AcDbEntity
  8
DEFPOINTS
 62
     0
100
AcDbPoint
 10
710.1549713795516
 20
-80.90118209635292
 30
0.0
  0
POINT
  5
130B9
330
12A53
100
AcDbEntity
  8
DEFPOINTS
 62
     0
100
AcDbPoint
 10
791.0534992682474
 20
-6.598000073517482
 30
0.0
  0
POINT
  5
130BA
330
12A53
100
AcDbEntity
  8
DEFPOINTS
 62
     0
100
AcDbPoint
 10
791.0534992682474
 20
9.751658105613728
 30
0.0
  0
ENDBLK
  5
12A5E
330
12A53
100
AcDbEntity
  8
0
100
AcDbBlockEnd
  0
BLOCK
  5
12A69
330
12A5F
100
AcDbEntity
  8
0
100
AcDbBlockBegin
  2
*D6
 70
     1
 10
0.0
 20
0.0
 30
0.0
  3
*D6
  1

  0
LINE
  5
13069
330
12A5F
100
AcDbEntity
  8
AM_5
100
AcDbLine
 10
575.0665819413284
 20
194.3934868408871
 30
0.0
 11
464.5702661641267
 21
194.3934868408871
 31
0.0
  0
LINE
  5
1306A
330
12A5F
100
AcDbEntity
  8
AM_5
100
AcDbLine
 10
575.0665819413284
 20
54.08988684088718
 30
0.0
 11
464.5702661641267
 21
54.0898868408872
 31
0.0
  0
LINE
  5
1306B
330
12A5F
100
AcDbEntity
  8
AM_5
100
AcDbLine
 10
468.5702661641267
 20
188.3934868408871
 30
0.0
 11
468.5702661641267
 21
60.0898868408872
 31
0.0
  0
SOLID
  5
1306C
330
12A5F
100
AcDbEntity
  8
AM_5
100
AcDbTrace
 10
467.5702661641267
 20
188.3934868408871
 30
0.0
 11
469.5702661641267
 21
188.3934868408871
 31
0.0
 12
468.5702661641267
 22
194.3934868408871
 32
0.0
 13
468.5702661641267
 23
194.3934868408871
 33
0.0
  0
SOLID
  5
1306D
330
12A5F
100
AcDbEntity
  8
AM_5
100
AcDbTrace
 10
467.5702661641266
 20
60.0898868408872
 30
0.0
 11
469.5702661641266
 21
60.0898868408872
 31
0.0
 12
468.5702661641267
 22
54.0898868408872
 32
0.0
 13
468.5702661641267
 23
54.0898868408872
 33
0.0
  0
MTEXT
  5
1306E
330
12A5F
100
AcDbEntity
  8
AM_5
100
AcDbMText
 10
463.4702661641266
 20
120.099323661994
 30
0.0
 40
7.0
 41
0.0
 71
     5
 72
     1
  1
%%c140
 11
0.0000000000000001
 21
1.0
 31
0.0
1001
ACAD
1000
MTEXTBEGIN
1070
    73
1070
     1
1070
    44
1040
1.0
1070
    74
1070
     0
1000
MTEXTEND
  0
POINT
  5
1306F
330
12A5F
100
AcDbEntity
  8
DEFPOINTS
 62
     0
100
AcDbPoint
 10
579.0665819413284
 20
194.3934868408871
 30
0.0
  0
POINT
  5
13070
330
12A5F
100
AcDbEntity
  8
DEFPOINTS
 62
     0
100
AcDbPoint
 10
579.0665819413284
 20
54.08988684088718
 30
0.0
  0
POINT
  5
13071
330
12A5F
100
AcDbEntity
  8
DEFPOINTS
 62
     0
100
AcDbPoint
 10
468.5702661641267
 20
54.0898868408872
 30
0.0
  0
ENDBLK
  5
12A6A
330
12A5F
100
AcDbEntity
  8
0
100
AcDbBlockEnd
  0
BLOCK
  5
12A75
330
12A6B
100
AcDbEntity
  8
0
100
AcDbBlockBegin
  2
*D7
 70
     1
 10
0.0
 20
0.0
 30
0.0
  3
*D7
  1

  0
LINE
  5
1309F
330
12A6B
100
AcDbEntity
  8
AM_5
100
AcDbLine
 10
657.2361061972262
 20
166.6402147295829
 30
0.0
 11
690.521891325596
 21
166.6402147295829
 31
0.0
  0
LINE
  5
130A0
330
12A6B
100
AcDbEntity
  8
AM_5
100
AcDbLine
 10
657.2361061972467
 20
81.84315895219118
 30
0.0
 11
690.521891325596
 21
81.84315895219116
 31
0.0
  0
LINE
  5
130A1
330
12A6B
100
AcDbEntity
  8
AM_5
100
AcDbLine
 10
686.521891325596
 20
160.6402147295829
 30
0.0
 11
686.521891325596
 21
87.84315895219116
 31
0.0
  0
SOLID
  5
130A2
330
12A6B
100
AcDbEntity
  8
AM_5
100
AcDbTrace
 10
685.521891325596
 20
160.6402147295829
 30
0.0
 11
687.521891325596
 21
160.6402147295829
 31
0.0
 12
686.521891325596
 22
166.6402147295829
 32
0.0
 13
686.521891325596
 23
166.6402147295829
 33
0.0
  0
SOLID
  5
130A3
330
12A6B
100
AcDbEntity
  8
AM_5
100
AcDbTrace
 10
685.521891325596
 20
87.84315895219116
 30
0.0
 11
687.521891325596
 21
87.84315895219116
 31
0.0
 12
686.521891325596
 22
81.84315895219116
 32
0.0
 13
686.521891325596
 23
81.84315895219116
 33
0.0
  0
MTEXT
  5
130A4
330
12A6B
100
AcDbEntity
  8
AM_5
100
AcDbMText
 10
681.421891325596
 20
124.2416868408871
 30
0.0
 40
7.0
 41
0.0
 71
     5
 72
     1
  1
85
 11
0.0000000000000001
 21
1.0
 31
0.0
1001
ACAD
1000
MTEXTBEGIN
1070
    73
1070
     1
1070
    44
1040
1.0
1070
    74
1070
     0
1000
MTEXTEND
  0
POINT
  5
130A5
330
12A6B
100
AcDbEntity
  8
DEFPOINTS
 62
     0
100
AcDbPoint
 10
653.2361061972262
 20
166.6402147295829
 30
0.0
  0
POINT
  5
130A6
330
12A6B
100
AcDbEntity
  8
DEFPOINTS
 62
     0
100
AcDbPoint
 10
653.2361061972467
 20
81.84315895219118
 30
0.0
  0
POINT
  5
130A7
330
12A6B
100
AcDbEntity
  8
DEFPOINTS
 62
     0
100
AcDbPoint
 10
686.521891325596
 20
81.84315895219116
 30
0.0
  0
ENDBLK
  5
12A76
330
12A6B
100
AcDbEntity
  8
0
100
AcDbBlockEnd
  0
BLOCK
  5
12A93
330
12A89
100
AcDbEntity
  8
0
100
AcDbBlockBegin
  2
*D8
 70
     1
 10
0.0
 20
0.0
 30
0.0
  3
*D8
  1

  0
LINE
  5
13072
330
12A89
100
AcDbEntity
  8
AM_5
100
AcDbLine
 10
502.9569950767128
 20
80.28322156088677
 30
0.0
 11
502.9569950767128
 21
22.75336600307525
 31
0.0
  0
LINE
  5
13073
330
12A89
100
AcDbEntity
  8
AM_5
100
AcDbLine
 10
655.176168805942
 20
80.28322156088677
 30
0.0
 11
655.176168805942
 21
22.75336600307525
 31
0.0
  0
LINE
  5
13074
330
12A89
100
AcDbEntity
  8
AM_5
100
AcDbLine
 10
508.9569950767129
 20
26.75336600307526
 30
0.0
 11
649.1761688059421
 21
26.75336600307526
 31
0.0
  0
SOLID
  5
13075
330
12A89
100
AcDbEntity
  8
AM_5
100
AcDbTrace
 10
508.9569950767129
 20
27.75336600307525
 30
0.0
 11
508.9569950767129
 21
25.75336600307525
 31
0.0
 12
502.9569950767128
 22
26.75336600307526
 32
0.0
 13
502.9569950767128
 23
26.75336600307526
 33
0.0
  0
SOLID
  5
13076
330
12A89
100
AcDbEntity
  8
AM_5
100
AcDbTrace
 10
649.1761688059421
 20
27.75336600307525
 30
0.0
 11
649.1761688059421
 21
25.75336600307525
 31
0.0
 12
655.176168805942
 22
26.75336600307526
 32
0.0
 13
655.176168805942
 23
26.75336600307526
 33
0.0
  0
MTEXT
  5
13077
330
12A89
100
AcDbEntity
  8
AM_5
100
AcDbMText
 10
579.0665819413275
 20
31.85405497945321
 30
0.0
 40
7.0
 41
0.0
 71
     5
 72
     1
  1
152
1001
ACAD
1000
MTEXTBEGIN
1070
    73
1070
     1
1070
    44
1040
1.0
1070
    74
1070
     0
1000
MTEXTEND
  0
POINT
  5
13078
330
12A89
100
AcDbEntity
  8
DEFPOINTS
 62
     0
100
AcDbPoint
 10
502.9569950767128
 20
84.28322156088677
 30
0.0
  0
POINT
  5
13079
330
12A89
100
AcDbEntity
  8
DEFPOINTS
 62
     0
100
AcDbPoint
 10
655.176168805942
 20
84.28322156088677
 30
0.0
  0
POINT
  5
1307A
330
12A89
100
AcDbEntity
  8
DEFPOINTS
 62
     0
100
AcDbPoint
 10
655.176168805942
 20
26.75336600307526
 30
0.0
  0
ENDBLK
  5
12A94
330
12A89
100
AcDbEntity
  8
0
100
AcDbBlockEnd
  0
BLOCK
  5
12AB1
330
12AA7
100
AcDbEntity
  8
0
100
AcDbBlockBegin
  2
*D9
 70
     1
 10
0.0
 20
0.0
 30
0.0
  3
*D9
  1

  0
LINE
  5
130BB
330
12AA7
100
AcDbEntity
  8
AM_5
100
AcDbLine
 10
819.1534992682477
 20
-12.65118209635295
 30
0.0
 11
894.9238847081115
 21
-12.65118209635297
 31
0.0
  0
LINE
  5
130BC
330
12AA7
100
AcDbEntity
  8
AM_5
100
AcDbLine
 10
823.4933332376799
 20
-196.4093560378639
 30
0.0
 11
894.9238847081115
 21
-196.4093560378639
 31
0.0
  0
LINE
  5
130BD
330
12AA7
100
AcDbEntity
  8
AM_5
100
AcDbLine
 10
890.9238847081114
 20
-18.65118209635297
 30
0.0
 11
890.9238847081114
 21
-190.4093560378639
 31
0.0
  0
SOLID
  5
130BE
330
12AA7
100
AcDbEntity
  8
AM_5
100
AcDbTrace
 10
889.9238847081115
 20
-18.65118209635297
 30
0.0
 11
891.9238847081114
 21
-18.65118209635297
 31
0.0
 12
890.9238847081114
 22
-12.65118209635297
 32
0.0
 13
890.9238847081114
 23
-12.65118209635297
 33
0.0
  0
SOLID
  5
130BF
330
12AA7
100
AcDbEntity
  8
AM_5
100
AcDbTrace
 10
889.9238847081115
 20
-190.4093560378639
 30
0.0
 11
891.9238847081114
 21
-190.4093560378639
 31
0.0
 12
890.9238847081114
 22
-196.4093560378639
 32
0.0
 13
890.9238847081114
 23
-196.4093560378639
 33
0.0
  0
MTEXT
  5
130C0
330
12AA7
100
AcDbEntity
  8
AM_5
100
AcDbMText
 10
885.8238847081114
 20
-104.5302690671081
 30
0.0
 40
7.0
 41
0.0
 71
     5
 72
     1
  1
184
 11
0.0000000000000001
 21
1.0
 31
0.0
1001
ACAD
1000
MTEXTBEGIN
1070
    73
1070
     1
1070
    44
1040
1.0
1070
    74
1070
     0
1000
MTEXTEND
  0
POINT
  5
130C1
330
12AA7
100
AcDbEntity
  8
DEFPOINTS
 62
     0
100
AcDbPoint
 10
815.1534992682478
 20
-12.65118209635295
 30
0.0
  0
POINT
  5
130C2
330
12AA7
100
AcDbEntity
  8
DEFPOINTS
 62
     0
100
AcDbPoint
 10
819.49333323768
 20
-196.4093560378639
 30
0.0
  0
POINT
  5
130C3
330
12AA7
100
AcDbEntity
  8
DEFPOINTS
 62
     0
100
AcDbPoint
 10
890.9238847081114
 20
-196.4093560378639
 30
0.0
  0
ENDBLK
  5
12AB2
330
12AA7
100
AcDbEntity
  8
0
100
AcDbBlockEnd
  0
BLOCK
  5
12ABD
330
12AB3
100
AcDbEntity
  8
0
100
AcDbBlockBegin
  2
*D10
 70
     1
 10
0.0
 20
0.0
 30
0.0
  3
*D10
  1

  0
LINE
  5
130C4
330
12AB3
100
AcDbEntity
  8
AM_5
100
AcDbLine
 10
854.1572669960673
 20
-105.9011820963529
 30
0.0
 11
876.4053636176482
 21
-105.9011820963529
 31
0.0
  0
LINE
  5
130C5
330
12AB3
100
AcDbEntity
  8
AM_5
100
AcDbLine
 10
823.4933332376799
 20
-196.4093560378642
 30
0.0
 11
876.4053636176482
 21
-196.4093560378642
 31
0.0
  0
LINE
  5
130C6
330
12AB3
100
AcDbEntity
  8
AM_5
100
AcDbLine
 10
872.4053636176481
 20
-111.9011820963529
 30
0.0
 11
872.4053636176481
 21
-190.4093560378642
 31
0.0
  0
SOLID
  5
130C7
330
12AB3
100
AcDbEntity
  8
AM_5
100
AcDbTrace
 10
871.4053636176481
 20
-111.9011820963529
 30
0.0
 11
873.4053636176481
 21
-111.9011820963529
 31
0.0
 12
872.4053636176481
 22
-105.9011820963529
 32
0.0
 13
872.4053636176481
 23
-105.9011820963529
 33
0.0
  0
SOLID
  5
130C8
330
12AB3
100
AcDbEntity
  8
AM_5
100
AcDbTrace
 10
871.4053636176481
 20
-190.4093560378642
 30
0.0
 11
873.4053636176481
 21
-190.4093560378642
 31
0.0
 12
872.4053636176481
 22
-196.4093560378642
 32
0.0
 13
872.4053636176481
 23
-196.4093560378642
 33
0.0
  0
MTEXT
  5
130C9
330
12AB3
100
AcDbEntity
  8
AM_5
100
AcDbMText
 10
867.3053636176481
 20
-151.1552690671084
 30
0.0
 40
7.0
 41
0.0
 71
     5
 72
     1
  1
91
 11
0.0000000000000001
 21
1.0
 31
0.0
1001
ACAD
1000
MTEXTBEGIN
1070
    73
1070
     1
1070
    44
1040
1.0
1070
    74
1070
     0
1000
MTEXTEND
  0
POINT
  5
130CA
330
12AB3
100
AcDbEntity
  8
DEFPOINTS
 62
     0
100
AcDbPoint
 10
850.1572669960674
 20
-105.9011820963529
 30
0.0
  0
POINT
  5
130CB
330
12AB3
100
AcDbEntity
  8
DEFPOINTS
 62
     0
100
AcDbPoint
 10
819.49333323768
 20
-196.4093560378642
 30
0.0
  0
POINT
  5
130CC
330
12AB3
100
AcDbEntity
  8
DEFPOINTS
 62
     0
100
AcDbPoint
 10
872.4053636176481
 20
-196.4093560378642
 30
0.0
  0
ENDBLK
  5
12ABE
330
12AB3
100
AcDbEntity
  8
0
100
AcDbBlockEnd
  0
BLOCK
  5
13256
330
13251
100
AcDbEntity
  8
0
100
AcDbBlockBegin
  2
*S11
 70
     1
 10
0.0
 20
0.0
 30
0.0
  3
*S11
  1

  0
LINE
  5
13252
330
13251
100
AcDbEntity
  8
AM_5
100
AcDbLine
 10
449.140993537685
 20
-136.4275566461457
 30
0.0
 11
482.125492834009
 21
-136.4275566461457
 31
0.0
  0
LINE
  5
13253
330
13251
100
AcDbEntity
  8
AM_5
100
AcDbLine
 10
482.125492834009
 20
-136.4275566461457
 30
0.0
 11
497.7175849493455
 21
-110.2433395134244
 31
0.0
  0
TRACE
  5
13254
330
13251
100
AcDbEntity
  8
AM_5
100
AcDbTrace
 10
498.5320215021601
 20
-110.7283175324049
 30
0.0
 11
496.9031483965308
 21
-109.7583614944439
 31
0.0
 12
501.4013587480339
 22
-104.0570796902278
 32
0.0
 13
501.4013587480339
 23
-104.0570796902278
 33
0.0
  0
MTEXT
  5
13255
330
13251
100
AcDbEntity
  8
AM_5
 62
     2
100
AcDbMText
 10
449.140993537685
 20
-141.5067807872857
 30
0.0
 40
14.0
 41
0.0
 71
     7
 72
     1
  1

  7
ACISOTS
210
0.0
220
0.0
230
-1.0
 11
-1.0
 21
0.0
 31
0.0
  0
ENDBLK
  5
13257
330
13251
100
AcDbEntity
  8
0
100
AcDbBlockEnd
  0
BLOCK
  5
13282
330
13259
100
AcDbEntity
  8
0
100
AcDbBlockBegin
  2
*X12
 70
     1
 10
0.0
 20
0.0
 30
0.0
  3
*X12
  1

  0
LINE
  5
1325A
330
13259
100
AcDbEntity
  8
0
 62
     0
100
AcDbLine
 10
828.9584992682479
 20
-175.124477359161
 30
0.0
 11
825.9954155154028
 21
-172.1613936063158
 31
0.0
  0
LINE
  5
1325B
330
13259
100
AcDbEntity
  8
0
 62
     0
100
AcDbLine
 10
828.9584992682479
 20
-179.3671180462803
 30
0.0
 11
821.7527748282837
 21
-172.1613936063158
 31
0.0
  0
LINE
  5
1325C
330
13259
100
AcDbEntity
  8
0
 62
     0
100
AcDbLine
 10
828.9584992682479
 20
-183.6097587333996
 30
0.0
 11
817.5101341411643
 21
-172.1613936063158
 31
0.0
  0
LINE
  5
1325D
330
13259
100
AcDbEntity
  8
0
 62
     0
100
AcDbLine
 10
825.2674934540451
 20
-184.1613936063159
 30
0.0
 11
813.267493454045
 21
-172.1613936063158
 31
0.0
  0
LINE
  5
1325E
330
13259
100
AcDbEntity
  8
0
 62
     0
100
AcDbLine
 10
821.0248527669257
 20
-184.1613936063158
 30
0.0
 11
809.0248527669256
 21
-172.1613936063159
 31
0.0
  0
LINE
  5
1325F
330
13259
100
AcDbEntity
  8
0
 62
     0
100
AcDbLine
 10
816.7822120798065
 20
-184.1613936063159
 30
0.0
 11
804.7822120798064
 21
-172.1613936063159
 31
0.0
  0
LINE
  5
13260
330
13259
100
AcDbEntity
  8
0
 62
     0
100
AcDbLine
 10
812.5395713926874
 20
-184.1613936063159
 30
0.0
 11
800.5395713926871
 21
-172.1613936063158
 31
0.0
  0
LINE
  5
13261
330
13259
100
AcDbEntity
  8
0
 62
     0
100
AcDbLine
 10
808.296930705568
 20
-184.1613936063159
 30
0.0
 11
796.2969307055677
 21
-172.1613936063158
 31
0.0
  0
LINE
  5
13262
330
13259
100
AcDbEntity
  8
0
 62
     0
100
AcDbLine
 10
804.0542900184485
 20
-184.1613936063158
 30
0.0
 11
792.0542900184487
 21
-172.1613936063159
 31
0.0
  0
LINE
  5
13263
330
13259
100
AcDbEntity
  8
0
 62
     0
100
AcDbLine
 10
799.8116493313293
 20
-184.1613936063159
 30
0.0
 11
787.8116493313293
 21
-172.1613936063158
 31
0.0
  0
LINE
  5
13264
330
13259
100
AcDbEntity
  8
0
 62
     0
100
AcDbLine
 10
795.56900864421
 20
-184.1613936063159
 30
0.0
 11
783.56900864421
 21
-172.1613936063158
 31
0.0
  0
LINE
  5
13265
330
13259
100
AcDbEntity
  8
0
 62
     0
100
AcDbLine
 10
791.3263679570907
 20
-184.1613936063158
 30
0.0
 11
779.3263679570907
 21
-172.1613936063159
 31
0.0
  0
LINE
  5
13266
330
13259
100
AcDbEntity
  8
0
 62
     0
100
AcDbLine
 10
787.0837272699715
 20
-184.1613936063159
 30
0.0
 11
775.0837272699714
 21
-172.1613936063158
 31
0.0
  0
LINE
  5
13267
330
13259
100
AcDbEntity
  8
0
 62
     0
100
AcDbLine
 10
782.8410865828522
 20
-184.1613936063159
 30
0.0
 11
770.841086582852
 21
-172.1613936063158
 31
0.0
  0
LINE
  5
13268
330
13259
100
AcDbEntity
  8
0
 62
     0
100
AcDbLine
 10
778.5984458957328
 20
-184.1613936063158
 30
0.0
 11
766.5984458957328
 21
-172.1613936063158
 31
0.0
  0
LINE
  5
13269
330
13259
100
AcDbEntity
  8
0
 62
     0
100
AcDbLine
 10
774.3558052086137
 20
-184.1613936063158
 30
0.0
 11
762.3558052086137
 21
-172.1613936063159
 31
0.0
  0
LINE
  5
1326A
330
13259
100
AcDbEntity
  8
0
 62
     0
100
AcDbLine
 10
770.1131645214943
 20
-184.1613936063159
 30
0.0
 11
758.1131645214943
 21
-172.1613936063158
 31
0.0
  0
LINE
  5
1326B
330
13259
100
AcDbEntity
  8
0
 62
     0
100
AcDbLine
 10
765.870523834375
 20
-184.1613936063159
 30
0.0
 11
753.870523834375
 21
-172.1613936063158
 31
0.0
  0
LINE
  5
1326C
330
13259
100
AcDbEntity
  8
0
 62
     0
100
AcDbLine
 10
761.6278831472556
 20
-184.1613936063158
 30
0.0
 11
753.1484992682468
 21
-175.6820097273069
 31
0.0
  0
LINE
  5
1326D
330
13259
100
AcDbEntity
  8
0
 62
     0
100
AcDbLine
 10
757.3852424601365
 20
-184.1613936063159
 30
0.0
 11
753.1484992682467
 21
-179.9246504144262
 31
0.0
  0
LINE
  5
1326E
330
13259
100
AcDbEntity
  8
0
 62
     0
100
AcDbLine
 10
825.0849750919913
 20
-184.161393606316
 30
0.0
 11
828.9584992682479
 21
-180.2878694300594
 31
0.0
  0
LINE
  5
1326F
330
13259
100
AcDbEntity
  8
0
 62
     0
100
AcDbLine
 10
820.8423344048721
 20
-184.161393606316
 30
0.0
 11
828.9584992682479
 21
-176.0452287429401
 31
0.0
  0
LINE
  5
13270
330
13259
100
AcDbEntity
  8
0
 62
     0
100
AcDbLine
 10
816.5996937177528
 20
-184.161393606316
 30
0.0
 11
828.5290964930004
 21
-172.2319908310683
 31
0.0
  0
LINE
  5
13271
330
13259
100
AcDbEntity
  8
0
 62
     0
100
AcDbLine
 10
812.3570530306336
 20
-184.1613936063159
 30
0.0
 11
824.3570530306337
 21
-172.1613936063159
 31
0.0
  0
LINE
  5
13272
330
13259
100
AcDbEntity
  8
0
 62
     0
100
AcDbLine
 10
808.1144123435143
 20
-184.161393606316
 30
0.0
 11
820.1144123435144
 21
-172.1613936063159
 31
0.0
  0
LINE
  5
13273
330
13259
100
AcDbEntity
  8
0
 62
     0
100
AcDbLine
 10
803.8717716563949
 20
-184.161393606316
 30
0.0
 11
815.871771656395
 21
-172.161393606316
 31
0.0
  0
LINE
  5
13274
330
13259
100
AcDbEntity
  8
0
 62
     0
100
AcDbLine
 10
799.6291309692758
 20
-184.1613936063159
 30
0.0
 11
811.6291309692757
 21
-172.161393606316
 31
0.0
  0
LINE
  5
13275
330
13259
100
AcDbEntity
  8
0
 62
     0
100
AcDbLine
 10
795.3864902821564
 20
-184.161393606316
 30
0.0
 11
807.3864902821565
 21
-172.1613936063159
 31
0.0
  0
LINE
  5
13276
330
13259
100
AcDbEntity
  8
0
 62
     0
100
AcDbLine
 10
791.1438495950371
 20
-184.161393606316
 30
0.0
 11
803.1438495950371
 21
-172.1613936063159
 31
0.0
  0
LINE
  5
13277
330
13259
100
AcDbEntity
  8
0
 62
     0
100
AcDbLine
 10
786.9012089079178
 20
-184.161393606316
 30
0.0
 11
798.9012089079178
 21
-172.161393606316
 31
0.0
  0
LINE
  5
13278
330
13259
100
AcDbEntity
  8
0
 62
     0
100
AcDbLine
 10
782.6585682207985
 20
-184.1613936063159
 30
0.0
 11
794.6585682207985
 21
-172.1613936063159
 31
0.0
  0
LINE
  5
13279
330
13259
100
AcDbEntity
  8
0
 62
     0
100
AcDbLine
 10
778.4159275336792
 20
-184.161393606316
 30
0.0
 11
790.4159275336793
 21
-172.1613936063159
 31
0.0
  0
LINE
  5
1327A
330
13259
100
AcDbEntity
  8
0
 62
     0
100
AcDbLine
 10
774.17328684656
 20
-184.161393606316
 30
0.0
 11
786.17328684656
 21
-172.161393606316
 31
0.0
  0
LINE
  5
1327B
330
13259
100
AcDbEntity
  8
0
 62
     0
100
AcDbLine
 10
769.9306461594407
 20
-184.161393606316
 30
0.0
 11
781.9306461594407
 21
-172.161393606316
 31
0.0
  0
LINE
  5
1327C
330
13259
100
AcDbEntity
  8
0
 62
     0
100
AcDbLine
 10
765.6880054723215
 20
-184.1613936063159
 30
0.0
 11
777.6880054723215
 21
-172.1613936063159
 31
0.0
  0
LINE
  5
1327D
330
13259
100
AcDbEntity
  8
0
 62
     0
100
AcDbLine
 10
761.4453647852021
 20
-184.1613936063159
 30
0.0
 11
773.4453647852022
 21
-172.1613936063159
 31
0.0
  0
LINE
  5
1327E
330
13259
100
AcDbEntity
  8
0
 62
     0
100
AcDbLine
 10
757.2027240980828
 20
-184.161393606316
 30
0.0
 11
769.2027240980828
 21
-172.161393606316
 31
0.0
  0
LINE
  5
1327F
330
13259
100
AcDbEntity
  8
0
 62
     0
100
AcDbLine
 10
753.304291339605
 20
-183.8171856776744
 30
0.0
 11
764.9600834109636
 21
-172.1613936063158
 31
0.0
  0
LINE
  5
13280
330
13259
100
AcDbEntity
  8
0
 62
     0
100
AcDbLine
 10
753.1484992682467
 20
-179.7303370619135
 30
0.0
 11
760.7174427238444
 21
-172.1613936063159
 31
0.0
  0
LINE
  5
13281
330
13259
100
AcDbEntity
  8
0
 62
     0
100
AcDbLine
 10
753.1484992682467
 20
-175.4876963747943
 30
0.0
 11
756.4748020367249
 21
-172.161393606316
 31
0.0
  0
ENDBLK
  5
13283
330
13259
100
AcDbEntity
  8
0
100
AcDbBlockEnd
  0
BLOCK
  5
1328A
330
13284
100
AcDbEntity
  8
0
100
AcDbBlockBegin
  2
*U13
 70
     1
 10
0.0
 20
0.0
 30
0.0
  3
*U13
  1

  0
SOLID
  5
13285
330
13284
100
AcDbEntity
  8
HATCH
  6
CONTINUOUS
100
AcDbTrace
 10
791.0534992682474
 20
-53.15118209635295
 30
0.0
 11
725.0534992682474
 21
-53.15118209635295
 31
0.0
 12
791.0534992682474
 22
-53.95118209635268
 32
0.0
 13
791.0534992682474
 23
-53.95118209635268
 33
0.0
210
0.0
220
0.0
230
1.0
  0
SOLID
  5
13286
330
13284
100
AcDbEntity
  8
HATCH
  6
CONTINUOUS
100
AcDbTrace
 10
722.0534992682473
 20
-53.15118209635295
 30
0.0
 11
791.0534992682474
 21
-53.95118209635268
 31
0.0
 12
725.0534992682474
 22
-53.15118209635295
 32
0.0
 13
725.0534992682474
 23
-53.15118209635295
 33
0.0
210
0.0
220
0.0
230
1.0
  0
SOLID
  5
13287
330
13284
100
AcDbEntity
  8
HATCH
  6
CONTINUOUS
100
AcDbTrace
 10
791.0534992682474
 20
-53.95118209635268
 30
0.0
 11
722.0534992682473
 21
-53.15118209635295
 31
0.0
 12
722.0534992682473
 22
-53.95118209635268
 32
0.0
 13
722.0534992682473
 23
-53.95118209635268
 33
0.0
210
0.0
220
0.0
230
1.0
  0
SOLID
  5
13288
330
13284
100
AcDbEntity
  8
HATCH
  6
CONTINUOUS
100
AcDbTrace
 10
860.0534992682474
 20
-53.15118209635295
 30
0.0
 11
791.0534992682474
 21
-53.15118209635295
 31
0.0
 12
860.0534992682474
 22
-53.95118209635268
 32
0.0
 13
860.0534992682474
 23
-53.95118209635268
 33
0.0
210
0.0
220
0.0
230
1.0
  0
SOLID
  5
13289
330
13284
100
AcDbEntity
  8
HATCH
  6
CONTINUOUS
100
AcDbTrace
 10
791.0534992682474
 20
-53.95118209635268
 30
0.0
 11
860.0534992682474
 21
-53.95118209635268
 31
0.0
 12
791.0534992682474
 22
-53.15118209635295
 32
0.0
 13
791.0534992682474
 23
-53.15118209635295
 33
0.0
210
0.0
220
0.0
230
1.0
  0
ENDBLK
  5
1328B
330
13284
100
AcDbEntity
  8
0
100
AcDbBlockEnd
  0
BLOCK
  5
132BE
330
13293
100
AcDbEntity
  8
0
100
AcDbBlockBegin
  2
*X14
 70
     1
 10
0.0
 20
0.0
 30
0.0
  3
*X14
  1

  0
LINE
  5
13294
330
13293
100
AcDbEntity
  8
0
 62
     0
100
AcDbLine
 10
617.6043485505253
 20
-173.8143557125793
 30
0.0
 11
615.6520117110598
 21
-171.8620188731138
 31
0.0
  0
LINE
  5
13295
330
13293
100
AcDbEntity
  8
0
 62
     0
100
AcDbLine
 10
617.6043485505247
 20
-178.0569963996979
 30
0.0
 11
611.4093710239407
 21
-171.8620188731139
 31
0.0
  0
LINE
  5
13296
330
13293
100
AcDbEntity
  8
0
 62
     0
100
AcDbLine
 10
617.604348550524
 20
-182.2996370868165
 30
0.0
 11
607.1667303368213
 21
-171.8620188731139
 31
0.0
  0
LINE
  5
13297
330
13293
100
AcDbEntity
  8
0
 62
     0
100
AcDbLine
 10
615.1244114887821
 20
-184.0623407121938
 30
0.0
 11
602.9240896497022
 21
-171.8620188731138
 31
0.0
  0
LINE
  5
13298
330
13293
100
AcDbEntity
  8
0
 62
     0
100
AcDbLine
 10
610.8817708016626
 20
-184.0623407121938
 30
0.0
 11
598.6814489625828
 21
-171.8620188731139
 31
0.0
  0
LINE
  5
13299
330
13293
100
AcDbEntity
  8
0
 62
     0
100
AcDbLine
 10
606.6391301145434
 20
-184.0623407121938
 30
0.0
 11
594.4388082754635
 21
-171.8620188731138
 31
0.0
  0
LINE
  5
1329A
330
13293
100
AcDbEntity
  8
0
 62
     0
100
AcDbLine
 10
602.396489427424
 20
-184.0623407121936
 30
0.0
 11
590.1961675883442
 21
-171.8620188731138
 31
0.0
  0
LINE
  5
1329B
330
13293
100
AcDbEntity
  8
0
 62
     0
100
AcDbLine
 10
598.1538487403049
 20
-184.0623407121937
 30
0.0
 11
585.9535269012249
 21
-171.8620188731139
 31
0.0
  0
LINE
  5
1329C
330
13293
100
AcDbEntity
  8
0
 62
     0
100
AcDbLine
 10
593.9112080531854
 20
-184.0623407121936
 30
0.0
 11
581.7108862141058
 21
-171.8620188731139
 31
0.0
  0
LINE
  5
1329D
330
13293
100
AcDbEntity
  8
0
 62
     0
100
AcDbLine
 10
589.6685673660661
 20
-184.0623407121935
 30
0.0
 11
577.4682455269864
 21
-171.8620188731138
 31
0.0
  0
LINE
  5
1329E
330
13293
100
AcDbEntity
  8
0
 62
     0
100
AcDbLine
 10
585.4259266789467
 20
-184.0623407121935
 30
0.0
 11
573.2256048398672
 21
-171.8620188731139
 31
0.0
  0
LINE
  5
1329F
330
13293
100
AcDbEntity
  8
0
 62
     0
100
AcDbLine
 10
581.1832859918275
 20
-184.0623407121935
 30
0.0
 11
568.9829641527478
 21
-171.8620188731139
 31
0.0
  0
LINE
  5
132A0
330
13293
100
AcDbEntity
  8
0
 62
     0
100
AcDbLine
 10
576.9406453047081
 20
-184.0623407121934
 30
0.0
 11
564.7403234656285
 21
-171.8620188731138
 31
0.0
  0
LINE
  5
132A1
330
13293
100
AcDbEntity
  8
0
 62
     0
100
AcDbLine
 10
572.698004617589
 20
-184.0623407121935
 30
0.0
 11
560.4976827785092
 21
-171.8620188731138
 31
0.0
  0
LINE
  5
132A2
330
13293
100
AcDbEntity
  8
0
 62
     0
100
AcDbLine
 10
568.4553639304697
 20
-184.0623407121936
 30
0.0
 11
556.25504209139
 21
-171.8620188731139
 31
0.0
  0
LINE
  5
132A3
330
13293
100
AcDbEntity
  8
0
 62
     0
100
AcDbLine
 10
564.2127232433505
 20
-184.0623407121936
 30
0.0
 11
552.0124014042706
 21
-171.8620188731138
 31
0.0
  0
LINE
  5
132A4
330
13293
100
AcDbEntity
  8
0
 62
     0
100
AcDbLine
 10
559.9700825562312
 20
-184.0623407121937
 30
0.0
 11
547.7697607171514
 21
-171.8620188731139
 31
0.0
  0
LINE
  5
132A5
330
13293
100
AcDbEntity
  8
0
 62
     0
100
AcDbLine
 10
555.727441869112
 20
-184.0623407121938
 30
0.0
 11
543.5271200300321
 21
-171.8620188731139
 31
0.0
  0
LINE
  5
132A6
330
13293
100
AcDbEntity
  8
0
 62
     0
100
AcDbLine
 10
551.4848011819927
 20
-184.0623407121937
 30
0.0
 11
540.528815332133
 21
-173.106354862334
 31
0.0
  0
LINE
  5
132A7
330
13293
100
AcDbEntity
  8
0
 62
     0
100
AcDbLine
 10
547.2421604948734
 20
-184.0623407121938
 30
0.0
 11
540.528815332133
 21
-177.3489955494533
 31
0.0
  0
LINE
  5
132A8
330
13293
100
AcDbEntity
  8
0
 62
     0
100
AcDbLine
 10
542.9995198077542
 20
-184.0623407121938
 30
0.0
 11
540.528815332133
 21
-181.5916362365727
 31
0.0
  0
LINE
  5
132A9
330
13293
100
AcDbEntity
  8
0
 62
     0
100
AcDbLine
 10
615.1399989149724
 20
-184.0623407121939
 30
0.0
 11
617.604348550524
 21
-181.5979910766424
 31
0.0
  0
LINE
  5
132AA
330
13293
100
AcDbEntity
  8
0
 62
     0
100
AcDbLine
 10
610.8973582278533
 20
-184.0623407121939
 30
0.0
 11
617.6043485505248
 21
-177.3553503895224
 31
0.0
  0
LINE
  5
132AB
330
13293
100
AcDbEntity
  8
0
 62
     0
100
AcDbLine
 10
606.6547175407341
 20
-184.0623407121939
 30
0.0
 11
617.6043485505255
 21
-173.1127097024024
 31
0.0
  0
LINE
  5
132AC
330
13293
100
AcDbEntity
  8
0
 62
     0
100
AcDbLine
 10
602.4120768536147
 20
-184.0623407121938
 30
0.0
 11
614.6123986926946
 21
-171.8620188731139
 31
0.0
  0
LINE
  5
132AD
330
13293
100
AcDbEntity
  8
0
 62
     0
100
AcDbLine
 10
598.1694361664956
 20
-184.0623407121937
 30
0.0
 11
610.3697580055754
 21
-171.8620188731139
 31
0.0
  0
LINE
  5
132AE
330
13293
100
AcDbEntity
  8
0
 62
     0
100
AcDbLine
 10
593.9267954793763
 20
-184.0623407121936
 30
0.0
 11
606.1271173184561
 21
-171.8620188731139
 31
0.0
  0
LINE
  5
132AF
330
13293
100
AcDbEntity
  8
0
 62
     0
100
AcDbLine
 10
589.6841547922571
 20
-184.0623407121936
 30
0.0
 11
601.8844766313368
 21
-171.8620188731139
 31
0.0
  0
LINE
  5
132B0
330
13293
100
AcDbEntity
  8
0
 62
     0
100
AcDbLine
 10
585.4415141051378
 20
-184.0623407121936
 30
0.0
 11
597.6418359442176
 21
-171.8620188731139
 31
0.0
  0
LINE
  5
132B1
330
13293
100
AcDbEntity
  8
0
 62
     0
100
AcDbLine
 10
581.1988734180186
 20
-184.0623407121935
 30
0.0
 11
593.3991952570983
 21
-171.8620188731139
 31
0.0
  0
LINE
  5
132B2
330
13293
100
AcDbEntity
  8
0
 62
     0
100
AcDbLine
 10
576.9562327308993
 20
-184.0623407121935
 30
0.0
 11
589.156554569979
 21
-171.8620188731139
 31
0.0
  0
LINE
  5
132B3
330
13293
100
AcDbEntity
  8
0
 62
     0
100
AcDbLine
 10
572.7135920437799
 20
-184.0623407121935
 30
0.0
 11
584.9139138828597
 21
-171.8620188731138
 31
0.0
  0
LINE
  5
132B4
330
13293
100
AcDbEntity
  8
0
 62
     0
100
AcDbLine
 10
568.4709513566607
 20
-184.0623407121936
 30
0.0
 11
580.6712731957405
 21
-171.8620188731139
 31
0.0
  0
LINE
  5
132B5
330
13293
100
AcDbEntity
  8
0
 62
     0
100
AcDbLine
 10
564.2283106695414
 20
-184.0623407121936
 30
0.0
 11
576.4286325086211
 21
-171.8620188731139
 31
0.0
  0
LINE
  5
132B6
330
13293
100
AcDbEntity
  8
0
 62
     0
100
AcDbLine
 10
559.9856699824219
 20
-184.0623407121937
 30
0.0
 11
572.1859918215018
 21
-171.8620188731139
 31
0.0
  0
LINE
  5
132B7
330
13293
100
AcDbEntity
  8
0
 62
     0
100
AcDbLine
 10
555.7430292953027
 20
-184.0623407121938
 30
0.0
 11
567.9433511343826
 21
-171.8620188731139
 31
0.0
  0
LINE
  5
132B8
330
13293
100
AcDbEntity
  8
0
 62
     0
100
AcDbLine
 10
551.5003886081833
 20
-184.0623407121938
 30
0.0
 11
563.7007104472632
 21
-171.8620188731139
 31
0.0
  0
LINE
  5
132B9
330
13293
100
AcDbEntity
  8
0
 62
     0
100
AcDbLine
 10
547.257747921064
 20
-184.0623407121939
 30
0.0
 11
559.4580697601441
 21
-171.8620188731139
 31
0.0
  0
LINE
  5
132BA
330
13293
100
AcDbEntity
  8
0
 62
     0
100
AcDbLine
 10
543.0151072339447
 20
-184.0623407121939
 30
0.0
 11
555.2154290730247
 21
-171.8620188731139
 31
0.0
  0
LINE
  5
132BB
330
13293
100
AcDbEntity
  8
0
 62
     0
100
AcDbLine
 10
540.528815332133
 20
-182.3059919268863
 30
0.0
 11
550.9727883859055
 21
-171.8620188731139
 31
0.0
  0
LINE
  5
132BC
330
13293
100
AcDbEntity
  8
0
 62
     0
100
AcDbLine
 10
540.528815332133
 20
-178.063351239767
 30
0.0
 11
546.7301476987861
 21
-171.8620188731139
 31
0.0
  0
LINE
  5
132BD
330
13293
100
AcDbEntity
  8
0
 62
     0
100
AcDbLine
 10
540.528815332133
 20
-173.8207105526477
 30
0.0
 11
542.4875070116668
 21
-171.8620188731138
 31
0.0
  0
ENDBLK
  5
132BF
330
13293
100
AcDbEntity
  8
0
100
AcDbBlockEnd
  0
BLOCK
  5
132C5
330
132C0
100
AcDbEntity
  8
0
100
AcDbBlockBegin
  2
*U15
 70
     1
 10
0.0
 20
0.0
 30
0.0
  3
*U15
  1

  0
SOLID
  5
132C1
330
132C0
100
AcDbEntity
  8
HATCH
  6
CONTINUOUS
100
AcDbTrace
 10
579.0665819413284
 20
-50.16380852828581
 30
0.0
 11
508.9147313666148
 21
-50.16380852828581
 31
0.0
 12
579.0665819413284
 22
-51.68884875817105
 32
0.0
 13
579.0665819413284
 23
-51.68884875817105
 33
0.0
210
0.0
220
0.0
230
1.0
  0
SOLID
  5
132C2
330
132C0
100
AcDbEntity
  8
HATCH
  6
CONTINUOUS
100
AcDbTrace
 10
508.9147313666148
 20
-51.68884875817105
 30
0.0
 11
579.0665819413284
 21
-51.68884875817105
 31
0.0
 12
508.9147313666148
 22
-50.16380852828581
 32
0.0
 13
508.9147313666148
 23
-50.16380852828581
 33
0.0
210
0.0
220
0.0
230
1.0
  0
SOLID
  5
132C3
330
132C0
100
AcDbEntity
  8
HATCH
  6
CONTINUOUS
100
AcDbTrace
 10
649.2184325160401
 20
-50.16380852828581
 30
0.0
 11
579.0665819413284
 21
-50.16380852828604
 31
0.0
 12
649.2184325160401
 22
-51.68884875817082
 32
0.0
 13
649.2184325160401
 23
-51.68884875817082
 33
0.0
210
0.0
220
0.0
230
1.0
  0
SOLID
  5
132C4
330
132C0
100
AcDbEntity
  8
HATCH
  6
CONTINUOUS
100
AcDbTrace
 10
579.0665819413284
 20
-51.68884875817105
 30
0.0
 11
649.2184325160401
 21
-51.68884875817082
 31
0.0
 12
579.0665819413284
 22
-50.16380852828604
 32
0.0
 13
579.0665819413284
 23
-50.16380852828604
 33
0.0
210
0.0
220
0.0
230
1.0
  0
ENDBLK
  5
132C6
330
132C0
100
AcDbEntity
  8
0
100
AcDbBlockEnd
  0
BLOCK
  5
132D3
330
132CE
100
AcDbEntity
  8
0
100
AcDbBlockBegin
  2
*S16
 70
     1
 10
0.0
 20
0.0
 30
0.0
  3
*S16
  1

  0
LINE
  5
132CF
330
132CE
100
AcDbEntity
  8
AM_5
100
AcDbLine
 10
484.465971158248
 20
180.497684548862
 30
0.0
 11
515.3118056669687
 21
180.497684548862
 31
0.0
  0
LINE
  5
132D0
330
132CE
100
AcDbEntity
  8
AM_5
100
AcDbLine
 10
515.3118056669687
 20
180.497684548862
 30
0.0
 11
547.2639598461253
 21
136.5207444727929
 31
0.0
  0
TRACE
  5
132D1
330
132CE
100
AcDbEntity
  8
AM_5
100
AcDbTrace
 10
546.4971028713758
 20
135.9635721854948
 30
0.0
 11
548.0308168208747
 21
137.077916760091
 31
0.0
 12
551.4961035577489
 22
130.6958874269793
 32
0.0
 13
551.4961035577489
 23
130.6958874269793
 33
0.0
  0
MTEXT
  5
132D2
330
132CE
100
AcDbEntity
  8
AM_5
 62
     2
100
AcDbMText
 10
484.465971158248
 20
175.418460407722
 30
0.0
 40
14.0
 41
0.0
 71
     7
 72
     1
  1

  7
ACISOTS
210
0.0
220
0.0
230
-1.0
 11
-1.0
 21
0.0
 31
0.0
  0
ENDBLK
  5
132D4
330
132CE
100
AcDbEntity
  8
0
100
AcDbBlockEnd
  0
BLOCK
  5
1331A
330
13315
100
AcDbEntity
  8
0
100
AcDbBlockBegin
  2
*S17
 70
     1
 10
0.0
 20
0.0
 30
0.0
  3
*S17
  1

  0
LINE
  5
13316
330
13315
100
AcDbEntity
  8
AM_5
100
AcDbLine
 10
521.4625259370492
 20
-218.6803723931013
 30
0.0
 11
559.7907160273035
 21
-218.6803723931013
 31
0.0
  0
LINE
  5
13317
330
13315
100
AcDbEntity
  8
AM_5
100
AcDbLine
 10
559.7907160273035
 20
-218.6803723931013
 30
0.0
 11
574.354668109392
 21
-201.8534232711379
 31
0.0
  0
TRACE
  5
13318
330
13315
100
AcDbEntity
  8
AM_5
100
AcDbTrace
 10
575.0713931544884
 20
-202.4737584927612
 30
0.0
 11
573.6379430642956
 21
-201.2330880495147
 31
0.0
 12
579.0665819413284
 22
-196.4093560378641
 32
0.0
 13
579.0665819413284
 23
-196.4093560378641
 33
0.0
  0
MTEXT
  5
13319
330
13315
100
AcDbEntity
  8
AM_5
 62
     2
100
AcDbMText
 10
521.4625259370492
 20
-223.7595965342412
 30
0.0
 40
14.0
 41
0.0
 71
     7
 72
     1
  1

  7
ACISOTS
210
0.0
220
0.0
230
-1.0
 11
-1.0
 21
0.0
 31
0.0
  0
ENDBLK
  5
1331B
330
13315
100
AcDbEntity
  8
0
100
AcDbBlockEnd
  0
ENDSEC
  0
SECTION
  2
ENTITIES
  0
MTEXT
  5
20A1
330
1F
100
AcDbEntity
  8
AM_REFDIM
100
AcDbMText
 10
561.1885018225272
 20
211.9777653808241
 30
0.0
 40
5.0
 41
0.0
 71
     9
 72
     1
  1

  7
DAYUS
1001
ACAD
1000
MTEXTBEGIN
1070
    73
1070
     1
1070
    44
1040
1.0
1070
    74
1070
     0
1000
MTEXTEND
  0
MTEXT
  5
21E1
330
1F
100
AcDbEntity
  8
AM_REFDIM
100
AcDbMText
 10
755.6608394056113
 20
277.1617022919267
 30
0.0
 40
5.0
 41
0.0
 71
     9
 72
     1
  1

  7
DAYUS
1001
ACAD
1000
MTEXTBEGIN
1070
    73
1070
     1
1070
    44
1040
1.0
1070
    74
1070
     0
1000
MTEXTEND
  0
MTEXT
  5
21E8
330
1F
100
AcDbEntity
  8
AM_REFDIM
100
AcDbMText
 10
749.57448324194
 20
209.4269307825009
 30
0.0
 40
5.0
 41
0.0
 71
     9
 72
     1
  1

  7
DAYUS
1001
ACAD
1000
MTEXTBEGIN
1070
    73
1070
     1
1070
    44
1040
1.0
1070
    74
1070
     0
1000
MTEXTEND
  0
MTEXT
  5
950E
330
1F
100
AcDbEntity
  8
AM_REFDIM
100
AcDbMText
 10
883.1481342807478
 20
-16.56429920726827
 30
0.0
 40
5.0
 41
0.0
 71
     9
 72
     1
  1

  7
DAYUS
1001
ACAD
1000
MTEXTBEGIN
1070
    73
1070
     1
1070
    44
1040
1.0
1070
    74
1070
     0
1000
MTEXTEND
  0
MTEXT
  5
9515
330
1F
100
AcDbEntity
  8
AM_REFDIM
100
AcDbMText
 10
877.0617781170765
 20
-84.29907071669413
 30
0.0
 40
5.0
 41
0.0
 71
     9
 72
     1
  1

  7
DAYUS
1001
ACAD
1000
MTEXTBEGIN
1070
    73
1070
     1
1070
    44
1040
1.0
1070
    74
1070
     0
1000
MTEXTEND
  0
MTEXT
  5
9538
330
1F
100
AcDbEntity
  8
AM_REFDIM
100
AcDbMText
 10
688.6757966976639
 20
-81.74823611837087
 30
0.0
 40
5.0
 41
0.0
 71
     9
 72
     1
  1

  7
DAYUS
1001
ACAD
1000
MTEXTBEGIN
1070
    73
1070
     1
1070
    44
1040
1.0
1070
    74
1070
     0
1000
MTEXTEND
  0
MTEXT
  5
D169
330
1F
100
AcDbEntity
  8
圖層2
100
AcDbMText
 10
715.61673495723
 20
206.7204113137814
 30
0.0
 40
2.4
 41
0.0
 71
     1
 72
     1
  1

  7
DAYUS
1001
ACAD
1000
MTEXTBEGIN
1070
    73
1070
     1
1070
    44
1040
1.0
1070
    74
1070
     0
1000
MTEXTEND
  0
MTEXT
  5
D16D
330
1F
100
AcDbEntity
  8
圖層2
100
AcDbMText
 10
487.3356342227076
 20
201.008806919202
 30
0.0
 40
2.4
 41
0.0
 71
     9
 72
     1
  1

  7
DAYUS
1001
ACAD
1000
MTEXTBEGIN
1070
    73
1070
     1
1070
    44
1040
1.0
1070
    74
1070
     0
1000
MTEXTEND
  0
MTEXT
  5
D622
330
1F
100
AcDbEntity
  8
AM_5
 62
     2
100
AcDbMText
 10
364.1980009625231
 20
217.5933376591914
 30
0.0
 40
3.5
 41
0.0
 71
     7
 72
     1
  1

  7
ACISOTS
1001
ACAD
1000
MTEXTBEGIN
1070
    73
1070
     1
1070
    44
1040
1.0
1070
    74
1070
     0
1000
MTEXTEND
  0
MTEXT
  5
D62D
330
1F
100
AcDbEntity
  8
AM_5
 62
     2
100
AcDbMText
 10
375.2854589832454
 20
224.3263974052412
 30
0.0
 40
3.5
 41
0.0
 71
     9
 72
     1
  1

  7
ACISOTS
1001
ACAD
1000
MTEXTBEGIN
1070
    73
1070
     1
1070
    44
1040
1.0
1070
    74
1070
     0
1000
MTEXTEND
  0
MTEXT
  5
DBAB
330
1F
100
AcDbEntity
  8
圖層2
100
AcDbMText
 10
403.5453401996071
 20
241.6457643110565
 30
0.0
 40
6.0
 41
29.7
 71
     1
 72
     1
  1

  7
ROMAND
1001
ACAD
1000
MTEXTBEGIN
1070
    73
1070
     1
1070
    44
1040
1.0
1070
    74
1070
     0
1000
MTEXTEND
  0
MTEXT
  5
DBAC
330
1F
100
AcDbEntity
  8
圖層2
100
AcDbMText
 10
405.9710179574619
 20
231.7492930806483
 30
0.0
 40
4.3125
 41
25.28999999999999
 71
     1
 72
     1
  1
{\FARIAL.TTF;}
  7
ROMAND
1001
ACAD
1000
MTEXTBEGIN
1070
    73
1070
     1
1070
    44
1040
1.0
1070
    74
1070
     0
1000
MTEXTEND
  0
INSERT
  5
12873
330
1F
100
AcDbEntity
  8
AM_5
100
AcDbBlockReference
  2
*S11
 10
0.0
 20
0.0
 30
0.0
  0
DIMENSION
  5
12875
330
1F
100
AcDbEntity
  8
AM_5
100
AcDbDimension
  2
*D4
 10
860.0534992682478
 20
26.25945113079433
 30
0.0
 11
785.1042353238995
 21
26.25945113079433
 31
0.0
 70
   160
  3
STANDARD
100
AcDbAlignedDimension
 13
710.1549713795515
 23
-80.90118209635292
 33
0.0
 14
860.0534992682478
 24
-42.05065639699671
 34
0.0
100
AcDbRotatedDimension
1001
ACAD
1000
DSTYLE
1002
{
1070
    40
1040
2.0
1070
    44
1040
2.0
1070
   271
1070
     0
1002
}
  0
INSERT
  5
12876
330
1F
100
AcDbEntity
  8
AM_8
  6
CONTINUOUS
100
AcDbBlockReference
  2
*X12
 10
0.0
 20
0.0
 30
0.0
1001
GENIUS_GENODEF_13
1002
{
1000
HIER
1070
     0
1002
}
1002
{
1000
MANEDIT
1070
     0
1002
}
1002
{
1000
NOSEL
1070
     0
1002
}
1002
{
1000
BEHIND
1070
     0
1002
}
1002
{
1000
OTHER
1070
     0
1002
}
1002
{
1000
REACTOR
1002
}
1001
GENIUS_GENOBJ-N-HTC_13
1002
{
1000
OWNER
1000
GEN
1002
}
1001
GENIUS_GENHATCH_13
1002
{
1000
DATA
1040
45.0
1042
2.5
1000
_U
1070
     0
1011
770.9344785855719
1021
-180.0754460017611
1031
0.0
1002
}
1002
{
1000
UCS
1010
0.0
1020
0.0
1030
0.0
1010
1.0
1020
0.0
1030
0.0
1010
0.0
1020
1.0
1030
0.0
1002
}
1001
ACAD
1000
HATCH
1002
{
1070
    19
1000
_U
1040
3.0
1040
0.7853981633974483
1070
     1
1000
R14_HATCH_DATA
1000
12876
1011
1.0
1021
0.0
1031
0.0
1011
0.0
1021
1.0
1031
0.0
1011
0.0
1021
0.0
1031
1.0
1040
0.0
1010
0.0
1020
0.0
1030
1.0
1000
_U
1070
     0
1070
     0
1071
        1
1071
        1
1071
        8
1070
     1
1040
828.9584992682479
1040
-183.6613936063159
1040
828.9584992682479
1040
-172.6613936063159
1070
     1
1040
828.9584992682479
1040
-172.6613936063159
1040
828.458499268248
1040
-172.1613936063159
1070
     1
1040
828.458499268248
1040
-172.1613936063159
1040
753.6484992682467
1040
-172.1613936063159
1070
     1
1040
753.6484992682467
1040
-172.1613936063159
1040
753.1484992682467
1040
-172.6613936063159
1070
     1
1040
753.1484992682467
1040
-172.6613936063159
1040
753.1484992682467
1040
-183.6613936063159
1070
     1
1040
753.1484992682467
1040
-183.6613936063159
1040
753.6484992682467
1040
-184.1613936063159
1070
     1
1040
753.6484992682467
1040
-184.1613936063159
1040
828.458499268248
1040
-184.1613936063159
1070
     1
1040
828.458499268248
1040
-184.1613936063159
1040
828.9584992682479
1040
-183.6613936063159
1071
        0
1070
     0
1070
     0
1040
0.7853981633974483
1040
3.0
1070
     1
1070
     2
1040
0.7853981633974483
1040
-89.11283380118765
1040
-41.94167140679303
1040
-2.121320343559642
1040
2.121320343559642
1070
     0
1040
2.356194490192344
1040
-89.11283380118765
1040
-41.94167140679303
1040
-2.121320343559642
1040
-2.121320343559642
1070
     0
1071
        1
1040
-89.11283380118765
1040
-41.94167140679303
1040
0.0
1002
}
  0
DIMENSION
  5
12877
330
1F
100
AcDbEntity
  8
AM_5
100
AcDbDimension
  2
*D5
 10
791.0534992682474
 20
9.751658105613728
 30
0.0
 11
750.6042353238995
 21
14.85165810561372
 31
0.0
 70
    32
  3
STANDARD
100
AcDbAlignedDimension
 13
710.1549713795516
 23
-80.90118209635292
 33
0.0
 14
791.0534992682474
 24
-6.598000073517482
 34
0.0
100
AcDbRotatedDimension
1001
ACAD
1000
DSTYLE
1002
{
1070
    40
1040
2.0
1070
    44
1040
2.0
1070
   271
1070
     0
1002
}
  0
LINE
  5
12878
102
{ACAD_REACTORS
330
129FB
102
}
330
1F
100
AcDbEntity
  8
DRG
 48
15.0
100
AcDbLine
 10
766.953499268247
 20
-12.65118209635295
 30
0.0
 11
815.1534992682478
 21
-12.65118209635295
 31
0.0
  0
LINE
  5
12879
330
1F
100
AcDbEntity
  8
DRG
 48
15.0
100
AcDbLine
 10
765.1516696362346
 20
-24.19049981881869
 30
0.0
 11
817.1110283533785
 21
-24.19049981881846
 31
0.0
  0
LINE
  5
1287A
330
1F
100
AcDbEntity
  8
DRG
 48
15.0
100
AcDbLine
 10
722.0534992682473
 20
-53.15118209635295
 30
0.0
 11
860.0534992682474
 21
-53.15118209635295
 31
0.0
  0
LINE
  5
1287B
330
1F
100
AcDbEntity
  8
DRG
 48
15.0
100
AcDbLine
 10
722.0534992682473
 20
-51.65118209635295
 30
0.0
 11
860.0534992682474
 21
-51.65118209635295
 31
0.0
  0
LINE
  5
1287C
330
1F
100
AcDbEntity
  8
DRG
 48
15.0
100
AcDbLine
 10
722.0534992682473
 20
-53.15118209635295
 30
0.0
 11
860.0534992682474
 21
-53.15118209635295
 31
0.0
  0
LINE
  5
1287D
330
1F
100
AcDbEntity
  8
DRG
 48
15.0
100
AcDbLine
 10
725.0534992682474
 20
-53.15118209635295
 30
0.0
 11
857.0534992682473
 21
-53.15118209635295
 31
0.0
  0
LINE
  5
1287E
330
1F
100
AcDbEntity
  8
DRG
 48
15.0
100
AcDbLine
 10
861.0534992682474
 20
-57.15118209635296
 30
0.0
 11
721.0534992682473
 21
-57.15118209635296
 31
0.0
  0
LINE
  5
1287F
330
1F
100
AcDbEntity
  8
DRG
 48
15.0
100
AcDbLine
 10
860.0534992682474
 20
-53.95118209635268
 30
0.0
 11
722.0534992682473
 21
-53.95118209635268
 31
0.0
  0
INSERT
  5
12880
330
1F
100
AcDbEntity
  8
HATCH
  6
CONTINUOUS
100
AcDbBlockReference
  2
*U13
 10
0.0
 20
0.0
 30
0.0
1001
ACAD
1002
{
1000
R14_HATCH_DATA
1000
12880
1011
1.0
1021
0.0
1031
0.0
1011
0.0
1021
1.0
1031
0.0
1011
0.0
1021
0.0
1031
1.0
1040
0.0
1010
0.0
1020
0.0
1030
1.0
1000
SOLID
1070
     1
1070
     0
1071
        2
1071
        7
1070
     0
1070
     1
1071
        5
1040
791.0534992682474
1040
-53.15118209635295
1040
725.0534992682474
1040
-53.15118209635295
1040
722.0534992682473
1040
-53.15118209635295
1040
722.0534992682473
1040
-53.95118209635268
1040
791.0534992682474
1040
-53.95118209635268
1071
        0
1071
        7
1070
     0
1070
     1
1071
        4
1040
860.0534992682474
1040
-53.15118209635295
1040
791.0534992682474
1040
-53.15118209635295
1040
791.0534992682474
1040
-53.95118209635268
1040
860.0534992682474
1040
-53.95118209635268
1071
        0
1070
     0
1070
     1
1040
0.193116858943107
1071
        2
1040
739.1851310693014
1040
-53.32007994585922
1040
0.0
1040
813.4527048575396
1040
-53.5158858948181
1040
0.0
1002
}
  0
LINE
  5
12881
330
1F
100
AcDbEntity
  8
DRG
 48
15.0
100
AcDbLine
 10
722.7101592177946
 20
-40.40118209635295
 30
0.0
 11
859.3968393187001
 21
-40.40118209635295
 31
0.0
  0
LINE
  5
12882
330
1F
100
AcDbEntity
  8
DRG
 48
15.0
100
AcDbLine
 10
753.6484992682467
 20
-172.1613936063159
 30
0.0
 11
791.0534992682474
 21
-172.1613936063159
 31
0.0
  0
CIRCLE
  5
12883
330
1F
100
AcDbEntity
  8
DRG
 48
15.0
100
AcDbCircle
 10
791.0534992682474
 20
-105.9011820963529
 30
0.0
 40
34.60000000000003
  0
CIRCLE
  5
12884
330
1F
100
AcDbEntity
  8
DRG
 48
15.0
100
AcDbCircle
 10
791.0534992682474
 20
-105.9011820963529
 30
0.0
 40
30.99999999999987
  0
CIRCLE
  5
12885
330
1F
100
AcDbEntity
  8
DRG
 48
15.0
100
AcDbCircle
 10
791.0534992682474
 20
-105.9011820963529
 30
0.0
 40
28.19999999999991
  0
LINE
  5
12886
330
1F
100
AcDbEntity
  8
DRG
 48
15.0
100
AcDbLine
 10
753.0534992682474
 20
-172.1511820963529
 30
0.0
 11
829.0534992682474
 21
-172.1511820963529
 31
0.0
  0
ARC
  5
12887
330
1F
100
AcDbEntity
  8
DRG
 48
15.0
100
AcDbCircle
 10
791.0534992682474
 20
-45.90118209635295
 30
0.0
 40
100.0
100
AcDbArc
 50
252.4801529694683
 51
287.5198470305316
  0
LINE
  5
12888
330
1F
100
AcDbEntity
  8
DRG
 48
15.0
100
AcDbLine
 10
753.0534992682474
 20
-172.1613936063159
 30
0.0
 11
829.0534992682474
 21
-172.1613936063159
 31
0.0
  0
LINE
  5
12889
102
{ACAD_REACTORS
330
129FE
102
}
330
1F
100
AcDbEntity
  8
AM_7
  6
CENTER
100
AcDbLine
 10
708.1589972850215
 20
-105.9011820963529
 30
0.0
 11
850.1572669960674
 21
-105.9011820963529
 31
0.0
  0
LINE
  5
1288A
330
1F
100
AcDbEntity
  8
DRG
 48
15.0
100
AcDbLine
 10
753.6484992682467
 20
-184.1613936063159
 30
0.0
 11
791.0534992682474
 21
-184.1613936063159
 31
0.0
  0
LINE
  5
1288B
330
1F
100
AcDbEntity
  8
DRG
 48
15.0
100
AcDbLine
 10
762.2619112021871
 20
-196.4093560378642
 30
0.0
 11
791.0534992682474
 21
-196.4093560378642
 31
0.0
  0
INSERT
  5
1288C
330
1F
100
AcDbEntity
  8
0
100
AcDbBlockReference
  2
A$C6E5F38A8
 10
621.7704772518823
 20
-104.5060753865238
 30
0.0
  0
LINE
  5
1288D
330
1F
100
AcDbEntity
  8
DRG
 48
15.0
100
AcDbLine
 10
740.6798196084269
 20
-138.1547766354288
 30
0.0
 11
738.5518691264747
 21
-77.21824766075418
 31
0.0
  0
LINE
  5
1288E
330
1F
100
AcDbEntity
  8
0
  6
CENTER
 62
     1
100
AcDbLine
 10
621.7677083781095
 20
-134.0185180354598
 30
0.0
 11
621.7677083781095
 21
-74.72920788660633
 31
0.0
  0
LINE
  5
1288F
330
1F
100
AcDbEntity
  8
DRG
 48
15.0
100
AcDbLine
 10
612.0464951562085
 20
-77.10618592292224
 30
0.0
 11
612.0464951562085
 21
-135.0068799842248
 31
0.0
  0
LINE
  5
12890
330
1F
100
AcDbEntity
  8
DRG
 48
15.0
100
AcDbLine
 10
546.0866687264465
 20
-77.10618592292224
 30
0.0
 11
546.0866687264465
 21
-135.0068799842248
 31
0.0
  0
LINE
  5
12891
330
1F
100
AcDbEntity
  8
DRG
 48
15.0
100
AcDbLine
 10
657.1762251176828
 20
-61.61964875228125
 30
0.0
 11
656.3352869221712
 21
-141.920395693037
 31
0.0
  0
LINE
  5
12892
330
1F
100
AcDbEntity
  8
DRG
 48
15.0
100
AcDbLine
 10
500.9569387649739
 20
-61.61964875228125
 30
0.0
 11
501.7978769604856
 21
-141.920395693037
 31
0.0
  0
LINE
  5
12893
330
1F
100
AcDbEntity
  8
AM_7
  6
CENTER
100
AcDbLine
 10
579.0665819413284
 20
-201.4193124510073
 30
0.0
 11
579.0665819413284
 21
-0.4961490547685799
 31
0.0
  0
LINE
  5
12894
330
1F
100
AcDbEntity
  8
DRG
 48
15.0
100
AcDbLine
 10
751.8712738826975
 20
-129.3191830840997
 30
0.0
 11
749.351111755524
 21
-57.15118209635296
 31
0.0
  0
POLYLINE
  5
12895
330
1F
100
AcDbEntity
  8
DRG
 48
15.0
100
AcDb2dPolyline
 66
     1
 10
0.0
 20
0.0
 30
0.0
 70
     1
  0
VERTEX
  5
1328C
330
12895
100
AcDbEntity
  8
DRG
 48
15.0
100
AcDbVertex
100
AcDb2dVertex
 10
618.5752956252968
 20
-106.3492157487245
 30
0.0
  0
VERTEX
  5
1328D
330
12895
100
AcDbEntity
  8
DRG
 48
15.0
100
AcDbVertex
100
AcDb2dVertex
 10
621.7677083781095
 20
-108.1923561109252
 30
0.0
  0
VERTEX
  5
1328E
330
12895
100
AcDbEntity
  8
DRG
 48
15.0
100
AcDbVertex
100
AcDb2dVertex
 10
624.9601211309222
 20
-106.3492157487245
 30
0.0
  0
VERTEX
  5
1328F
330
12895
100
AcDbEntity
  8
DRG
 48
15.0
100
AcDbVertex
100
AcDb2dVertex
 10
624.9601211309222
 20
-102.6629350243221
 30
0.0
  0
VERTEX
  5
13290
330
12895
100
AcDbEntity
  8
DRG
 48
15.0
100
AcDbVertex
100
AcDb2dVertex
 10
621.7677083781095
 20
-100.8197946621213
 30
0.0
  0
VERTEX
  5
13291
330
12895
100
AcDbEntity
  8
DRG
 48
15.0
100
AcDbVertex
100
AcDb2dVertex
 10
618.5752956252968
 20
-102.6629350243221
 30
0.0
  0
SEQEND
  5
13292
330
12895
100
AcDbEntity
  8
DRG
 48
15.0
  0
CIRCLE
  5
12896
330
1F
100
AcDbEntity
  8
DRG
 48
15.0
100
AcDbCircle
 10
621.7677083781095
 20
-104.5060753865237
 30
0.0
 40
9.658588122605369
  0
ARC
  5
12897
330
1F
100
AcDbEntity
  8
DRG
 48
15.0
100
AcDbCircle
 10
622.21343002211
 20
-135.0068799842248
 30
0.0
 40
10.16693486590038
100
AcDbArc
 50
180.0
 51
270.0
  0
LINE
  5
12898
330
1F
100
AcDbEntity
  8
DRG
 48
15.0
100
AcDbLine
 10
617.7009344317489
 20
-171.8620188731139
 30
0.0
 11
624.2493682954614
 21
-153.8703446997716
 31
0.0
  0
LINE
  5
12899
330
1F
100
AcDbEntity
  8
AM_7
  6
CENTER
100
AcDbLine
 10
496.9603235239665
 20
-104.5060753865237
 30
0.0
 11
667.6397914666199
 21
-104.5060753865237
 31
0.0
  0
ARC
  5
1289A
330
1F
100
AcDbEntity
  8
DRG
 48
15.0
100
AcDbCircle
 10
535.9197338605468
 20
-135.0068799842248
 30
0.0
 40
10.16693486590038
100
AcDbArc
 50
270.0
 51
0.0
  0
LINE
  5
1289B
330
1F
100
AcDbEntity
  8
DRG
 48
15.0
100
AcDbLine
 10
540.4322294509061
 20
-171.8620188731139
 30
0.0
 11
533.8837955871954
 21
-153.870344699772
 31
0.0
  0
ARC
  5
1289C
330
1F
100
AcDbEntity
  8
DRG
 48
15.0
100
AcDbCircle
 10
521.4638638168476
 20
-158.3908301757957
 30
0.0
 40
13.2170153256705
100
AcDbArc
 50
20.00000000000218
 51
90.0
  0
LINE
  5
1289D
330
1F
100
AcDbEntity
  8
DRG
 48
15.0
100
AcDbLine
 10
505.0512961175741
 20
-145.173814850125
 30
0.0
 11
535.9197338605468
 21
-145.1738148501252
 31
0.0
  0
ARC
  5
1289E
330
1F
100
AcDbEntity
  8
DRG
 48
15.0
100
AcDbCircle
 10
505.0512961175741
 20
-141.920395693037
 30
0.0
 40
3.253419157088124
100
AcDbArc
 50
180.0
 51
270.0
  0
LINE
  5
1289F
330
1F
100
AcDbEntity
  8
DRG
 48
15.0
100
AcDbLine
 10
579.0665819413284
 20
-149.8610744495814
 30
0.0
 11
577.0331949681481
 21
-146.9570968968993
 31
0.0
  0
LINE
  5
128A0
330
1F
100
AcDbEntity
  8
DRG
 48
15.0
100
AcDbLine
 10
577.0331949681481
 20
-146.9570968968993
 30
0.0
 11
577.0331949681481
 21
-149.4947621681327
 31
0.0
  0
LINE
  5
128A1
330
1F
100
AcDbEntity
  8
DRG
 48
15.0
100
AcDbLine
 10
595.1787425866464
 20
-153.5615361144929
 30
0.0
 11
577.0331949681481
 21
-146.9570968968993
 31
0.0
  0
INSERT
  5
128A2
330
1F
100
AcDbEntity
  8
AM_8
  6
CONTINUOUS
100
AcDbBlockReference
  2
*X14
 10
0.0
 20
0.0
 30
0.0
1001
GENIUS_GENOBJ-N-HTC_13
1002
{
1000
OWNER
1000
GEN
1002
}
1001
GENIUS_GENODEF_13
1002
{
1000
HIER
1070
     0
1002
}
1002
{
1000
MANEDIT
1070
     0
1002
}
1002
{
1000
NOSEL
1070
     0
1002
}
1002
{
1000
BEHIND
1070
     0
1002
}
1002
{
1000
OTHER
1070
     0
1002
}
1002
{
1000
REACTOR
1002
}
1001
GENIUS_GENHATCH_13
1002
{
1000
DATA
1040
45.0
1042
5.0
1000
_U
1070
     1
1011
567.6045837692226
1021
-178.9662940273452
1031
0.0
1002
}
1002
{
1000
UCS
1010
0.0
1020
0.0
1030
0.0
1010
1.0
1020
0.0
1030
0.0
1010
0.0
1020
1.0
1030
0.0
1002
}
1001
ACAD
1000
HATCH
1002
{
1070
    19
1000
_U
1040
3.0
1040
0.7853981633974483
1070
     1
1000
R14_HATCH_DATA
1000
128A2
1011
1.0
1021
0.0
1031
0.0
1011
0.0
1021
1.0
1031
0.0
1011
0.0
1021
0.0
1031
1.0
1040
0.0
1010
0.0
1020
0.0
1030
1.0
1000
_U
1070
     0
1070
     0
1071
        1
1071
        1
1071
        9
1070
     1
1040
617.0960018072296
1040
-184.0623407121939
1040
617.6043485505238
1040
-183.5539939688989
1070
     1
1040
617.6043485505238
1040
-183.5539939688989
1040
617.6043485505256
1040
-172.370365616409
1070
     1
1040
617.6043485505256
1040
-172.370365616409
1040
617.0960018072296
1040
-171.8620188731139
1070
     1
1040
617.0960018072296
1040
-171.8620188731139
1040
541.0371620754272
1040
-171.8620188731139
1070
     1
1040
541.0371620754272
1040
-171.8620188731139
1040
540.528815332133
1040
-172.370365616409
1070
     1
1040
540.528815332133
1040
-172.370365616409
1040
540.528815332133
1040
-183.5539939688989
1070
     1
1040
540.528815332133
1040
-183.5539939688989
1040
541.0371620754272
1040
-184.0623407121939
1070
     1
1040
541.0371620754272
1040
-184.0623407121939
1040
579.0665819413284
1040
-184.0623407121935
1070
     1
1040
579.0665819413284
1040
-184.0623407121935
1040
617.0960018072296
1040
-184.0623407121939
1071
        0
1070
     0
1070
     0
1040
0.7853981633974483
1040
3.0
1070
     1
1070
     2
1040
0.7853981633974483
1040
-87.02482851636432
1040
-41.94167140679303
1040
-2.121320343559642
1040
2.121320343559642
1070
     0
1040
2.356194490192344
1040
-87.02482851636432
1040
-41.94167140679303
1040
-2.121320343559642
1040
-2.121320343559642
1070
     0
1071
        1
1040
-87.02482851636432
1040
-41.94167140679303
1040
0.0
1002
}
  0
LINE
  5
128A3
330
1F
100
AcDbEntity
  8
DRG
 48
15.0
100
AcDbLine
 10
579.0665819413284
 20
-155.5949230876732
 30
0.0
 11
568.8996470754268
 21
-155.5949230876732
 31
0.0
  0
LINE
  5
128A4
330
1F
100
AcDbEntity
  8
DRG
 48
15.0
100
AcDbLine
 10
579.0665819413284
 20
-155.5949230876732
 30
0.0
 11
577.0331949681481
 21
-157.628310060853
 31
0.0
  0
LINE
  5
128A5
330
1F
100
AcDbEntity
  8
DRG
 48
15.0
100
AcDbLine
 10
579.0665819413284
 20
-157.2619977794034
 30
0.0
 11
577.0331949681481
 21
-160.1659753320865
 31
0.0
  0
LINE
  5
128A6
330
1F
100
AcDbEntity
  8
DRG
 48
15.0
100
AcDbLine
 10
579.0665819413284
 20
-151.5281491413126
 30
0.0
 11
568.8996470754268
 21
-151.5281491413126
 31
0.0
  0
LINE
  5
128A7
330
1F
100
AcDbEntity
  8
DRG
 48
15.0
100
AcDbLine
 10
595.1787425866464
 20
-153.5615361144929
 30
0.0
 11
577.0331949681481
 21
-160.1659753320865
 31
0.0
  0
LINE
  5
128A8
330
1F
100
AcDbEntity
  8
DRG
 48
15.0
100
AcDbLine
 10
579.0665819413284
 20
-151.5281491413126
 30
0.0
 11
577.0331949681481
 21
-149.4947621681327
 31
0.0
  0
LINE
  5
128A9
330
1F
100
AcDbEntity
  8
0
  6
CENTER
 62
     1
100
AcDbLine
 10
596.4767652090836
 20
-153.5615361144929
 30
0.0
 11
563.3379843921233
 21
-153.5615361144929
 31
0.0
  0
LINE
  5
128AA
330
1F
100
AcDbEntity
  8
DRG
 48
15.0
100
AcDbLine
 10
540.4322294509061
 20
-171.8620188731139
 30
0.0
 11
617.7009344317489
 21
-171.8620188731139
 31
0.0
  0
LINE
  5
128AB
330
1F
100
AcDbEntity
  8
DRG
 48
15.0
100
AcDbLine
 10
553.6492447765781
 20
-196.4093560378645
 30
0.0
 11
579.0665819413284
 21
-196.4093560378641
 31
0.0
  0
LINE
  5
128AC
330
1F
100
AcDbEntity
  8
DRG
 48
15.0
100
AcDbLine
 10
541.0371620754272
 20
-184.0623407121939
 30
0.0
 11
579.0665819413284
 21
-184.0623407121935
 31
0.0
  0
LINE
  5
128AD
330
1F
100
AcDbEntity
  8
DRG
 48
15.0
100
AcDbLine
 10
541.0371620754272
 20
-171.8620188731139
 30
0.0
 11
579.0665819413284
 21
-171.8620188731139
 31
0.0
  0
LINE
  5
128AE
330
1F
100
AcDbEntity
  8
DRG
 48
15.0
100
AcDbLine
 10
540.528815332133
 20
-172.370365616409
 30
0.0
 11
540.528815332133
 21
-183.5539939688989
 31
0.0
  0
LINE
  5
128AF
330
1F
100
AcDbEntity
  8
DRG
 48
15.0
100
AcDbLine
 10
540.528815332133
 20
-183.5539939688989
 30
0.0
 11
541.0371620754272
 21
-184.0623407121939
 31
0.0
  0
LINE
  5
128B0
330
1F
100
AcDbEntity
  8
DRG
 48
15.0
100
AcDbLine
 10
553.6492447765781
 20
-184.0623407121935
 30
0.0
 11
553.6492447765781
 21
-196.4093560378641
 31
0.0
  0
LINE
  5
128B1
330
1F
100
AcDbEntity
  8
DRG
 48
15.0
100
AcDbLine
 10
540.528815332133
 20
-172.370365616409
 30
0.0
 11
541.0371620754272
 21
-171.8620188731139
 31
0.0
  0
LINE
  5
128B2
330
1F
100
AcDbEntity
  8
DRG
 48
15.0
100
AcDbLine
 10
577.0331949681481
 20
-149.4947621681327
 30
0.0
 11
566.8821459379747
 21
-149.4947621681327
 31
0.0
  0
LINE
  5
128B3
330
1F
100
AcDbEntity
  8
DRG
 48
15.0
100
AcDbLine
 10
577.0331949681481
 20
-157.628310060853
 30
0.0
 11
566.8821459379747
 21
-157.628310060853
 31
0.0
  0
LINE
  5
128B4
330
1F
100
AcDbEntity
  8
DRG
 48
15.0
100
AcDbLine
 10
568.8996470754268
 20
-155.5949230876732
 30
0.0
 11
566.8821459379747
 21
-157.628310060853
 31
0.0
  0
LINE
  5
128B5
330
1F
100
AcDbEntity
  8
DRG
 48
15.0
100
AcDbLine
 10
568.8996470754268
 20
-151.5281491413126
 30
0.0
 11
566.8821459379747
 21
-149.4947621681327
 31
0.0
  0
LINE
  5
128B6
330
1F
100
AcDbEntity
  8
DRG
 48
15.0
100
AcDbLine
 10
566.8821459379747
 20
-149.4947621681327
 30
0.0
 11
566.8662601022465
 21
-149.5106480038608
 31
0.0
  0
LINE
  5
128B7
330
1F
100
AcDbEntity
  8
DRG
 48
15.0
100
AcDbLine
 10
566.8662601022465
 20
-157.6124242251254
 30
0.0
 11
566.8821459379747
 21
-157.628310060853
 31
0.0
  0
LINE
  5
128B8
330
1F
100
AcDbEntity
  8
DRG
 48
15.0
100
AcDbLine
 10
566.8662601022465
 20
-149.5106480038608
 30
0.0
 11
566.8662601022465
 21
-157.6124242251254
 31
0.0
  0
LINE
  5
128B9
330
1F
100
AcDbEntity
  8
DRG
 48
15.0
100
AcDbLine
 10
568.8996470754268
 20
-151.5281491413126
 30
0.0
 11
568.8996470754268
 21
-155.5949230876732
 31
0.0
  0
LINE
  5
128BA
330
1F
100
AcDbEntity
  8
DRG
 48
15.0
100
AcDbLine
 10
577.0331949681481
 20
-157.628310060853
 30
0.0
 11
577.0331949681481
 21
-160.1659753320865
 31
0.0
  0
LINE
  5
128BB
330
1F
100
AcDbEntity
  8
DRG
 48
15.0
100
AcDbLine
 10
617.6043485505256
 20
-172.370365616409
 30
0.0
 11
617.6043485505238
 21
-183.5539939688989
 31
0.0
  0
LINE
  5
128BC
330
1F
100
AcDbEntity
  8
DRG
 48
15.0
100
AcDbLine
 10
604.4839191060805
 20
-196.4093560378641
 30
0.0
 11
579.0665819413284
 21
-196.4093560378641
 31
0.0
  0
LINE
  5
128BD
330
1F
100
AcDbEntity
  8
DRG
 48
15.0
100
AcDbLine
 10
617.0960018072296
 20
-184.0623407121939
 30
0.0
 11
579.0665819413284
 21
-184.062340712193
 31
0.0
  0
LINE
  5
128BE
330
1F
100
AcDbEntity
  8
DRG
 48
15.0
100
AcDbLine
 10
604.4839191060805
 20
-184.062340712193
 30
0.0
 11
604.4839191060805
 21
-196.4093560378641
 31
0.0
  0
LINE
  5
128BF
330
1F
100
AcDbEntity
  8
DRG
 48
15.0
100
AcDbLine
 10
617.0960018072296
 20
-184.0623407121939
 30
0.0
 11
617.6043485505238
 21
-183.5539939688989
 31
0.0
  0
LINE
  5
128C0
330
1F
100
AcDbEntity
  8
DRG
 48
15.0
100
AcDbLine
 10
617.0960018072296
 20
-171.8620188731139
 30
0.0
 11
579.0665819413284
 21
-171.8620188731139
 31
0.0
  0
LINE
  5
128C1
330
1F
100
AcDbEntity
  8
DRG
 48
15.0
100
AcDbLine
 10
589.2335168072281
 20
-153.5615361144929
 30
0.0
 11
579.0665819413284
 21
-157.2619977794034
 31
0.0
  0
LINE
  5
128C2
330
1F
100
AcDbEntity
  8
DRG
 48
15.0
100
AcDbLine
 10
589.2335168072281
 20
-153.5615361144929
 30
0.0
 11
579.0665819413284
 21
-149.8610744495814
 31
0.0
  0
LINE
  5
128C3
330
1F
100
AcDbEntity
  8
DRG
 48
15.0
100
AcDbLine
 10
579.0665819413284
 20
-149.8610744495814
 30
0.0
 11
579.0665819413284
 21
-157.2619977794034
 31
0.0
  0
LINE
  5
128C4
330
1F
100
AcDbEntity
  8
DRG
 48
15.0
100
AcDbLine
 10
617.0960018072296
 20
-171.8620188731139
 30
0.0
 11
617.6043485505256
 21
-172.370365616409
 31
0.0
  0
LINE
  5
128C5
330
1F
100
AcDbEntity
  8
DRG
 48
15.0
100
AcDbLine
 10
579.0665819413284
 20
-137.2980948735186
 30
0.0
 11
545.8251313234727
 21
-137.2980948735186
 31
0.0
  0
LINE
  5
128C6
330
1F
100
AcDbEntity
  8
DRG
 48
15.0
100
AcDbLine
 10
579.0665819413284
 20
-137.2980948735186
 30
0.0
 11
612.3080325591841
 21
-137.2980948735186
 31
0.0
  0
ARC
  5
128C7
330
1F
100
AcDbEntity
  8
DRG
 48
15.0
100
AcDbCircle
 10
636.6693000658074
 20
-158.3908301757957
 30
0.0
 40
13.2170153256705
100
AcDbArc
 50
90.0
 51
159.9999999999978
  0
LINE
  5
128C8
330
1F
100
AcDbEntity
  8
DRG
 48
15.0
100
AcDbLine
 10
622.21343002211
 20
-145.1738148501252
 30
0.0
 11
653.0818677650827
 21
-145.173814850125
 31
0.0
  0
ARC
  5
128C9
330
1F
100
AcDbEntity
  8
DRG
 48
15.0
100
AcDbCircle
 10
653.0818677650827
 20
-141.920395693037
 30
0.0
 40
3.253419157088124
100
AcDbArc
 50
270.0
 51
0.0
  0
LINE
  5
128CA
330
1F
100
AcDbEntity
  8
DRG
 48
15.0
100
AcDbLine
 10
742.7319404683799
 20
-143.7929323601448
 30
0.0
 11
743.1677191821195
 21
-148.7739058506036
 31
0.0
  0
LINE
  5
128CB
330
1F
100
AcDbEntity
  8
DRG
 48
15.0
100
AcDbLine
 10
742.7319404683799
 20
-143.7929323601448
 30
0.0
 11
748.6833678540911
 21
-154.1011069697539
 31
0.0
  0
LINE
  5
128CC
330
1F
100
AcDbEntity
  8
DRG
 48
15.0
100
AcDbLine
 10
743.1677191821195
 20
-148.7739058506036
 30
0.0
 11
746.2815574622031
 21
-158.9588119425535
 31
0.0
  0
LINE
  5
128CD
330
1F
100
AcDbEntity
  8
DRG
 48
15.0
100
AcDbLine
 10
743.1677191821195
 20
-148.7739058506036
 30
0.0
 11
746.1491887967144
 21
-153.9379627043055
 31
0.0
  0
LINE
  5
128CE
330
1F
100
AcDbEntity
  8
DRG
 48
15.0
100
AcDbLine
 10
753.1484992682467
 20
-172.6613936063159
 30
0.0
 11
753.1484992682467
 21
-183.6613936063159
 31
0.0
  0
LINE
  5
128CF
330
1F
100
AcDbEntity
  8
DRG
 48
15.0
100
AcDbLine
 10
753.1484992682467
 20
-183.6613936063159
 30
0.0
 11
753.6484992682467
 21
-184.1613936063159
 31
0.0
  0
LINE
  5
128D0
330
1F
100
AcDbEntity
  8
DRG
 48
15.0
100
AcDbLine
 10
761.8619112021875
 20
-184.2793560378641
 30
0.0
 11
761.8619112021875
 21
-196.0093560378641
 31
0.0
  0
ARC
  5
128D1
330
1F
100
AcDbEntity
  8
DRG
 48
15.0
100
AcDbCircle
 10
762.2619112021871
 20
-196.0093560378641
 30
0.0
 40
0.4
100
AcDbArc
 50
180.0
 51
270.0
  0
LINE
  5
128D2
330
1F
100
AcDbEntity
  8
DRG
 48
15.0
100
AcDbLine
 10
776.3565608115491
 20
-196.2913936063159
 30
0.0
 11
776.3565608115491
 21
-184.1613936063159
 31
0.0
  0
LINE
  5
128D3
330
1F
100
AcDbEntity
  8
DRG
 48
15.0
100
AcDbLine
 10
753.0534992682474
 20
-172.1511820963529
 30
0.0
 11
749.3793869299274
 21
-162.0566414102778
 31
0.0
  0
LINE
  5
128D4
330
1F
100
AcDbEntity
  8
DRG
 48
15.0
100
AcDbLine
 10
753.1484992682467
 20
-172.6613936063159
 30
0.0
 11
753.6484992682467
 21
-172.1613936063159
 31
0.0
  0
LINE
  5
128D5
330
1F
100
AcDbEntity
  8
DRG
 48
15.0
100
AcDbLine
 10
749.3793869299274
 20
-162.0566414102778
 30
0.0
 11
748.6833678540911
 21
-154.1011069697534
 31
0.0
  0
LINE
  5
128D6
330
1F
100
AcDbEntity
  8
DRG
 48
15.0
100
AcDbLine
 10
746.2815574622031
 20
-158.9588119425526
 30
0.0
 11
746.1491887967144
 21
-153.9379627043055
 31
0.0
  0
LINE
  5
128D7
330
1F
100
AcDbEntity
  8
DRG
 48
15.0
100
AcDbLine
 10
746.2815574622013
 20
-158.958811942553
 30
0.0
 11
749.3793869299274
 21
-162.0566414102778
 31
0.0
  0
LINE
  5
128D8
330
1F
100
AcDbEntity
  8
DRG
 48
15.0
100
AcDbLine
 10
746.1491887967144
 20
-153.9379627043055
 30
0.0
 11
748.6833678540911
 21
-154.1011069697539
 31
0.0
  0
INSERT
  5
128D9
330
1F
100
AcDbEntity
  8
0
100
AcDbBlockReference
  2
A$C453F5956
 10
710.1549700923433
 20
-131.9011820468164
 30
0.0
  0
LINE
  5
128DA
330
1F
100
AcDbEntity
  8
DRG
 48
15.0
100
AcDbLine
 10
740.6798196084269
 20
-138.1547766354288
 30
0.0
 11
755.768897702692
 21
-138.1547766354288
 31
0.0
  0
LINE
  5
128DB
330
1F
100
AcDbEntity
  8
DRG
 48
15.0
100
AcDbLine
 10
742.7319404683799
 20
-143.7929323601457
 30
0.0
 11
740.6798196084269
 21
-138.1547766354288
 31
0.0
  0
ARC
  5
128DC
330
1F
100
AcDbEntity
  8
DRG
 48
15.0
100
AcDbCircle
 10
764.8633546339456
 20
-128.8654896269673
 30
0.0
 40
13.0
100
AcDbArc
 50
182.0000000000037
 51
252.4801529694683
  0
LINE
  5
128DD
330
1F
100
AcDbEntity
  8
圖層1
  6
PHANTOM
 62
     2
 48
0.5
100
AcDbLine
 10
596.7677083781062
 20
43.34315895219134
 30
0.0
 11
646.7677083781063
 21
43.34315895219134
 31
0.0
  0
LINE
  5
128DE
330
1F
100
AcDbEntity
  8
圖層1
  6
PHANTOM
 62
     2
 48
0.5
100
AcDbLine
 10
595.7677083781063
 20
50.71499227417627
 30
0.0
 11
647.7677083781063
 21
50.71499227417627
 31
0.0
  0
LINE
  5
128DF
330
1F
100
AcDbEntity
  8
AM_7
100
AcDbLine
 10
614.3248090698311
 20
172.7704653568292
 30
0.0
 11
623.4500047220051
 21
172.7704653568292
 31
0.0
1001
GENIUS_GENOREF_13
1005
12A42
  0
LINE
  5
128E0
330
1F
100
AcDbEntity
  8
AM_7
100
AcDbLine
 10
614.3248090698311
 20
75.71290832494503
 30
0.0
 11
623.4500047220051
 21
75.71290832494503
 31
0.0
1001
GENIUS_GENOREF_13
1005
12A45
  0
CIRCLE
  5
128E1
330
1F
100
AcDbEntity
  8
DRG
100
AcDbCircle
 10
614.3248090698311
 20
172.7704653568292
 30
0.0
 40
5.919014148428894
  0
CIRCLE
  5
128E2
330
1F
100
AcDbEntity
  8
DRG
 48
15.0
100
AcDbCircle
 10
614.3248090698311
 20
172.7704653568292
 30
0.0
 40
7.625195652173913
  0
LINE
  5
128E3
330
1F
100
AcDbEntity
  8
DRG
 48
15.0
100
AcDbLine
 10
609.3660244421794
 20
-32.51985401673676
 30
0.0
 11
620.5496527946693
 21
-32.51985401673676
 31
0.0
  0
LINE
  5
128E4
330
1F
100
AcDbEntity
  8
DRG
 48
15.0
100
AcDbLine
 10
608.3493309555892
 20
-33.53654750332691
 30
0.0
 11
621.5663462812594
 21
-33.53654750332691
 31
0.0
  0
ELLIPSE
  5
128E5
330
1F
100
AcDbEntity
  8
DRG
 48
15.0
100
AcDbEllipse
 10
614.3248344886329
 20
-33.33859158940652
 30
0.0
 11
7.509357210231628
 21
-1.324102283941486
 31
0.0
210
0.0
220
0.0
230
-1.0
 40
0.3676138507056104
 41
5.90064886068586
 42
11.84842360944676
  0
LINE
  5
128E6
330
1F
100
AcDbEntity
  8
DRG
 48
15.0
100
AcDbLine
 10
633.0508517557377
 20
-32.51985401673676
 30
0.0
 11
598.9330526136641
 21
-19.42325797153273
 31
0.0
  0
CIRCLE
  5
128E7
330
1F
100
AcDbEntity
  8
DRG
 48
15.0
100
AcDbCircle
 10
614.3248090698311
 20
75.71290832494503
 30
0.0
 40
7.625195652173913
  0
CIRCLE
  5
128E8
330
1F
100
AcDbEntity
  8
DRG
100
AcDbCircle
 10
614.3248090698311
 20
75.71290832494503
 30
0.0
 40
5.919014148428894
  0
DIMENSION
  5
128E9
102
{ACAD_XDICTIONARY
360
128EA
102
}
102
{ACAD_REACTORS
330
128EB
102
}
330
1F
100
AcDbEntity
  8
AM_5
100
AcDbDimension
  2
*D8
 10
655.176168805942
 20
26.75336600307526
 30
0.0
 11
579.0665819413275
 21
31.85405497945321
 31
0.0
 70
    32
  3
STANDARD
100
AcDbAlignedDimension
 13
502.9569950767128
 23
84.28322156088677
 33
0.0
 14
655.176168805942
 24
84.28322156088677
 34
0.0
100
AcDbRotatedDimension
1001
ACAD
1000
DSTYLE
1002
{
1070
    40
1040
2.0
1070
    44
1040
2.0
1070
   271
1070
     0
1002
}
  0
CIRCLE
  5
128EC
330
1F
100
AcDbEntity
  8
DRG
 48
15.0
100
AcDbCircle
 10
579.0665819413284
 20
124.2416868408871
 30
0.0
 40
70.1518
  0
LINE
  5
128ED
330
1F
100
AcDbEntity
  8
DRG
 48
15.0
100
AcDbLine
 10
520.6619876808913
 20
-55.95896140184925
 30
0.0
 11
637.4711762017637
 21
-55.95896140184925
 31
0.0
  0
LINE
  5
128EE
330
1F
100
AcDbEntity
  8
DRG
 48
15.0
100
AcDbLine
 10
508.9147313666148
 20
-51.68884875817105
 30
0.0
 11
649.2184325160401
 21
-51.68884875817105
 31
0.0
  0
LINE
  5
128EF
330
1F
100
AcDbEntity
  8
DRG
 48
15.0
100
AcDbLine
 10
508.9147313666148
 20
-54.94226791525955
 30
0.0
 11
649.2184325160401
 21
-54.94226791525955
 31
0.0
  0
INSERT
  5
128F0
330
1F
100
AcDbEntity
  8
HATCH
  6
CONTINUOUS
100
AcDbBlockReference
  2
*U15
 10
0.0
 20
0.0
 30
0.0
1001
ACAD
1002
{
1000
R14_HATCH_DATA
1000
128F0
1011
1.0
1021
0.0
1031
0.0
1011
0.0
1021
1.0
1031
0.0
1011
0.0
1021
0.0
1031
1.0
1040
0.0
1010
0.0
1020
0.0
1030
1.0
1000
SOLID
1070
     1
1070
     0
1071
        2
1071
        7
1070
     0
1070
     1
1071
        4
1040
579.0665819413284
1040
-50.16380852828581
1040
508.9147313666148
1040
-50.16380852828581
1040
508.9147313666148
1040
-51.68884875817105
1040
579.0665819413284
1040
-51.68884875817105
1071
        0
1071
        7
1070
     0
1070
     1
1071
        4
1040
649.2184325160401
1040
-50.16380852828581
1040
579.0665819413284
1040
-50.16380852828604
1040
579.0665819413284
1040
-51.68884875817105
1040
649.2184325160401
1040
-51.68884875817082
1071
        0
1070
     0
1070
     1
1040
0.1226353806406091
1071
        3
1040
537.2775106251465
1040
-52.02798552162255
1040
0.0
1040
541.054431688241
1040
-50.72135737322276
1040
0.0
1040
586.7026130794447
1040
-51.21189935079645
1040
0.0
1002
}
  0
LINE
  5
128F1
330
1F
100
AcDbEntity
  8
DRG
 48
15.0
100
AcDbLine
 10
509.582353260223
 20
-38.72600680414791
 30
0.0
 11
648.550810622432
 21
-38.72600680414746
 31
0.0
  0
LINE
  5
128F2
330
1F
100
AcDbEntity
  8
DRG
 48
15.0
100
AcDbLine
 10
508.9147313666148
 20
-50.16380852828581
 30
0.0
 11
649.2184325160401
 21
-50.16380852828581
 31
0.0
  0
LINE
  5
128F3
330
1F
100
AcDbEntity
  8
AM_7
  6
CENTER
100
AcDbLine
 10
663.8152872939822
 20
124.2416868408871
 30
0.0
 11
494.5838774472967
 21
124.2416868408871
 31
0.0
  0
ARC
  5
128F4
330
1F
100
AcDbEntity
  8
DRG
 48
15.0
100
AcDbCircle
 10
622.21343002211
 20
-77.10618592292224
 30
0.0
 40
10.16693486590038
100
AcDbArc
 50
90.0
 51
180.0
  0
LINE
  5
128F5
330
1F
100
AcDbEntity
  8
DRG
 48
15.0
100
AcDbLine
 10
627.3042413358639
 20
-66.93925105702158
 30
0.0
 11
579.0665819413284
 21
-66.93925105702158
 31
0.0
  0
DIMENSION
  5
128F6
330
1F
100
AcDbEntity
  8
AM_5
100
AcDbDimension
  2
*D6
 10
468.5702661641267
 20
54.0898868408872
 30
0.0
 11
468.5702661641267
 21
120.099323661994
 31
0.0
 70
   160
  1
%%c<>
  3
STANDARD
100
AcDbAlignedDimension
 13
579.0665819413284
 23
194.3934868408871
 33
0.0
 14
579.0665819413284
 24
54.08988684088718
 34
0.0
 50
90.0
100
AcDbRotatedDimension
1001
ACAD
1000
DSTYLE
1002
{
1070
    40
1040
2.0
1070
    44
1040
2.0
1070
   271
1070
     0
1002
}
  0
LINE
  5
128F7
330
1F
100
AcDbEntity
  8
AM_7
100
AcDbLine
 10
579.0665819413284
 20
64.25681437711898
 30
0.0
 11
579.0665819413284
 21
73.38201002929293
 31
0.0
1001
GENIUS_GENOREF_13
1005
12A3C
  0
LINE
  5
128F8
330
1F
100
AcDbEntity
  8
AM_7
100
AcDbLine
 10
543.8083548128238
 20
75.71290832494503
 30
0.0
 11
543.8083548128238
 21
66.58771267277109
 31
0.0
1001
GENIUS_GENOREF_13
1005
12A3D
  0
LINE
  5
128F9
330
1F
100
AcDbEntity
  8
AM_7
100
AcDbLine
 10
614.3248090698311
 20
75.71290832494503
 30
0.0
 11
614.3248090698311
 21
66.58771267277109
 31
0.0
1001
GENIUS_GENOREF_13
1005
12A45
  0
CIRCLE
  5
128FA
330
1F
100
AcDbEntity
  8
DRG
 48
15.0
100
AcDbCircle
 10
579.0665819413284
 20
64.25681437711898
 30
0.0
 40
7.625195652173913
  0
CIRCLE
  5
128FB
330
1F
100
AcDbEntity
  8
DRG
100
AcDbCircle
 10
543.8083548128238
 20
75.71290832494503
 30
0.0
 40
5.919014148428894
  0
CIRCLE
  5
128FC
330
1F
100
AcDbEntity
  8
DRG
 48
15.0
100
AcDbCircle
 10
543.8083548128238
 20
75.71290832494503
 30
0.0
 40
7.625195652173913
  0
LINE
  5
128FD
330
1F
100
AcDbEntity
  8
AM_7
  6
CENTER
100
AcDbLine
 10
579.0665819413284
 20
200.9780585333777
 30
0.0
 11
579.0665819413284
 21
49.74272658628376
 31
0.0
  0
LINE
  5
128FE
330
1F
100
AcDbEntity
  8
DRG
 48
15.0
100
AcDbLine
 10
525.082312126919
 20
-32.51985401673676
 30
0.0
 11
550.558581043128
 21
-22.74043063291276
 31
0.0
  0
LINE
  5
128FF
330
1F
100
AcDbEntity
  8
DRG
 48
15.0
100
AcDbLine
 10
529.6552784930522
 20
-10.5294560378644
 30
0.0
 11
594.9273647422837
 21
-10.5294560378644
 31
0.0
  0
ARC
  5
12900
330
1F
100
AcDbEntity
  8
DRG
 48
15.0
100
AcDbCircle
 10
535.9197338605468
 20
-77.10618592292224
 30
0.0
 40
10.16693486590038
100
AcDbArc
 50
0.0
 51
90.0
  0
LINE
  5
12901
330
1F
100
AcDbEntity
  8
DRG
 48
15.0
100
AcDbLine
 10
530.8289225467911
 20
-66.93925105702158
 30
0.0
 11
579.0665819413284
 21
-66.93925105702158
 31
0.0
  0
LINE
  5
12902
330
1F
100
AcDbEntity
  8
DRG
 48
15.0
100
AcDbLine
 10
508.9147313666148
 20
-18.79881446698311
 30
0.0
 11
508.9147313666148
 21
-54.94226791525955
 31
0.0
  0
LINE
  5
12903
330
1F
100
AcDbEntity
  8
DRG
 48
15.0
100
AcDbLine
 10
520.6619876808913
 20
-55.95896140184925
 30
0.0
 11
501.0164393045129
 21
-67.30132404532844
 31
0.0
  0
LINE
  5
12904
330
1F
100
AcDbEntity
  8
DRG
 48
15.0
100
AcDbLine
 10
508.9147313666148
 20
-54.94226791525955
 30
0.0
 11
500.9569387649739
 21
-61.61964875228125
 31
0.0
  0
ARC
  5
12905
330
1F
100
AcDbEntity
  8
DRG
 48
15.0
100
AcDbCircle
 10
530.8289225467911
 20
-56.77231619112092
 30
0.0
 40
10.16693486590038
100
AcDbArc
 50
180.0
 51
270.0
  0
LINE
  5
12906
330
1F
100
AcDbEntity
  8
DRG
 48
15.0
100
AcDbLine
 10
520.6619876808913
 20
-55.95896140184925
 30
0.0
 11
520.6619876808913
 21
-56.77231619112138
 31
0.0
  0
LINE
  5
12907
330
1F
100
AcDbEntity
  8
DRG
 48
15.0
100
AcDbLine
 10
511.3547957344312
 20
-16.35875009916719
 30
0.0
 11
517.6214961220271
 21
-16.35875009916719
 31
0.0
  0
LINE
  5
12908
330
1F
100
AcDbEntity
  8
DRG
 48
15.0
100
AcDbLine
 10
510.4803548701788
 20
-38.12502024872367
 30
0.0
 11
516.3409201666677
 21
-35.87536000642524
 31
0.0
  0
ARC
  5
12909
330
1F
100
AcDbEntity
  8
DRG
 48
15.0
100
AcDbCircle
 10
511.3547957344312
 20
-40.40301658191004
 30
0.0
 40
2.440064367816093
100
AcDbArc
 50
110.9999999999969
 51
180.0
  0
ARC
  5
1290A
330
1F
100
AcDbEntity
  8
DRG
 48
15.0
100
AcDbCircle
 10
511.3547957344312
 20
-18.79881446698311
 30
0.0
 40
2.440064367816093
100
AcDbArc
 50
90.0
 51
180.0
  0
LINE
  5
1290B
330
1F
100
AcDbEntity
  8
DRG
 48
15.0
100
AcDbLine
 10
527.2152141252377
 20
-12.96952040568078
 30
0.0
 11
527.2152141252359
 21
-31.70110964932803
 31
0.0
  0
LINE
  5
1290C
330
1F
100
AcDbEntity
  8
DRG
 48
15.0
100
AcDbLine
 10
518.1298428653213
 20
-16.86709684246227
 30
0.0
 11
518.1298428653213
 21
-32.51985401673676
 31
0.0
  0
ELLIPSE
  5
1290D
330
1F
100
AcDbEntity
  8
DRG
 48
15.0
100
AcDbEllipse
 10
522.9494278295028
 20
-33.33859158940652
 30
0.0
 11
-7.365378720878979
 21
-1.973547280208898
 31
0.0
210
0.0
220
0.0
230
1.0
 40
0.3321856030101498
 41
0.3064358819197681
 42
3.448028535509575
  0
LINE
  5
1290E
330
1F
100
AcDbEntity
  8
DRG
 48
15.0
100
AcDbLine
 10
528.8225756540582
 20
-33.53654750332691
 30
0.0
 11
516.3409201666677
 21
-33.53654750332691
 31
0.0
  0
LINE
  5
1290F
330
1F
100
AcDbEntity
  8
DRG
 48
15.0
100
AcDbLine
 10
528.5412420057477
 20
-32.51985401673676
 30
0.0
 11
517.357613653256
 21
-32.51985401673676
 31
0.0
  0
LINE
  5
12910
330
1F
100
AcDbEntity
  8
DRG
 48
15.0
100
AcDbLine
 10
516.3409201666677
 20
-36.07344186655939
 30
0.0
 11
516.3409201666677
 21
-33.53654750332691
 31
0.0
  0
LINE
  5
12911
330
1F
100
AcDbEntity
  8
DRG
 48
15.0
100
AcDbLine
 10
517.357613653256
 20
-32.51985401673676
 30
0.0
 11
516.3409201666677
 21
-33.53654750332691
 31
0.0
  0
LINE
  5
12912
330
1F
100
AcDbEntity
  8
DRG
 48
15.0
100
AcDbLine
 10
529.2428606686558
 20
-33.2214726796443
 30
0.0
 11
528.5412420057477
 21
-32.51985401673676
 31
0.0
  0
LINE
  5
12913
330
1F
100
AcDbEntity
  8
DRG
 48
15.0
100
AcDbLine
 10
518.6381896086173
 20
-17.37544358575735
 30
0.0
 11
526.7068673819417
 21
-17.37544358575735
 31
0.0
  0
ARC
  5
12914
330
1F
100
AcDbEntity
  8
DRG
 48
15.0
100
AcDbCircle
 10
518.6381896086173
 20
-16.86709684246227
 30
0.0
 40
0.5083467432950196
100
AcDbArc
 50
180.0
 51
270.0
  0
ARC
  5
12915
330
1F
100
AcDbEntity
  8
DRG
 48
15.0
100
AcDbCircle
 10
517.6214961220271
 20
-16.86709684246227
 30
0.0
 40
0.5083467432950196
100
AcDbArc
 50
0.0
 51
90.0
  0
LINE
  5
12916
330
1F
100
AcDbEntity
  8
DRG
 48
15.0
100
AcDbLine
 10
518.1298428653213
 20
-16.86709684246227
 30
0.0
 11
518.1298428653213
 21
-16.86709684246227
 31
0.0
  0
ARC
  5
12917
330
1F
100
AcDbEntity
  8
DRG
 48
15.0
100
AcDbCircle
 10
526.7068673819417
 20
-16.86709684246227
 30
0.0
 40
0.5083467432950196
100
AcDbArc
 50
270.0
 51
0.0
  0
ARC
  5
12918
330
1F
100
AcDbEntity
  8
DRG
 48
15.0
100
AcDbCircle
 10
529.6552784930522
 20
-12.96952040568078
 30
0.0
 40
2.440064367816093
100
AcDbArc
 50
90.0
 51
180.0
  0
LINE
  5
12919
330
1F
100
AcDbEntity
  8
0
  6
CENTER
 62
     1
 48
5.0
100
AcDbLine
 10
560.2577524394114
 20
-3.409061693125408
 30
0.0
 11
560.2577524394114
 21
-12.85060034114042
 31
0.0
  0
LINE
  5
1291A
330
1F
100
AcDbEntity
  8
DRG
 48
15.0
100
AcDbLine
 10
562.6723994700628
 20
-5.711357683228129
 30
0.0
 11
562.6723994700628
 21
-10.5294560378644
 31
0.0
  0
LINE
  5
1291B
330
1F
100
AcDbEntity
  8
DRG
 48
15.0
100
AcDbLine
 10
557.84310540876
 20
-5.711357683228129
 30
0.0
 11
557.84310540876
 21
-10.5294560378644
 31
0.0
  0
LINE
  5
1291C
330
1F
100
AcDbEntity
  8
DRG
 48
15.0
100
AcDbLine
 10
573.4747677650816
 20
-32.51985401673767
 30
0.0
 11
584.6583961175733
 21
-32.51985401673767
 31
0.0
  0
LINE
  5
1291D
330
1F
100
AcDbEntity
  8
DRG
 48
15.0
100
AcDbLine
 10
572.4580742784914
 20
-33.53654750332782
 30
0.0
 11
585.6750896041635
 21
-33.53654750332782
 31
0.0
  0
ELLIPSE
  5
1291E
330
1F
100
AcDbEntity
  8
DRG
 48
15.0
100
AcDbEllipse
 10
579.0665819413284
 20
-33.33859158940652
 30
0.0
 11
-7.625201149425291
 21
-0.0000000000000867
 31
0.0
210
0.0
220
0.0
230
1.0
 40
0.3676138507056104
 41
0.0
 42
6.283185307179586
  0
ELLIPSE
  5
1291F
330
1F
100
AcDbEntity
  8
DRG
 48
15.0
100
AcDbEllipse
 10
579.0665819413284
 20
-33.33859158940652
 30
0.0
 11
7.625201149425291
 21
-0.0000000000000867
 31
0.0
210
0.0
220
0.0
230
-1.0
 40
0.3676138507056104
 41
0.0
 42
6.283185307179586
  0
LINE
  5
12920
330
1F
100
AcDbEntity
  8
DRG
 48
15.0
100
AcDbLine
 10
548.7671394404774
 20
-32.51985401673676
 30
0.0
 11
537.5835110879875
 21
-32.51985401673676
 31
0.0
  0
LINE
  5
12921
330
1F
100
AcDbEntity
  8
DRG
 48
15.0
100
AcDbLine
 10
549.7838329270676
 20
-33.53654750332691
 30
0.0
 11
536.5668176013973
 21
-33.53654750332691
 31
0.0
  0
ELLIPSE
  5
12922
330
1F
100
AcDbEntity
  8
DRG
 48
15.0
100
AcDbEllipse
 10
543.8083293940222
 20
-33.33859158940652
 30
0.0
 11
-7.509357210231626
 21
-1.324102283941485
 31
0.0
210
0.0
220
0.0
230
1.0
 40
0.3676138507056105
 41
0.0
 42
6.283185307179586
  0
LINE
  5
12923
330
1F
100
AcDbEntity
  8
DRG
 48
15.0
100
AcDbLine
 10
536.5668176013973
 20
-35.21072952154838
 30
0.0
 11
536.5668176013973
 21
-33.53654750332691
 31
0.0
  0
LINE
  5
12924
330
1F
100
AcDbEntity
  8
DRG
 48
15.0
100
AcDbLine
 10
537.5835110879875
 20
-32.51985401673676
 30
0.0
 11
536.5668176013973
 21
-33.53654750332691
 31
0.0
  0
LINE
  5
12925
330
1F
100
AcDbEntity
  8
DRG
 48
15.0
100
AcDbLine
 10
549.7838329270676
 20
-34.15761096077506
 30
0.0
 11
549.7838329270676
 21
-33.53654750332691
 31
0.0
  0
LINE
  5
12926
330
1F
100
AcDbEntity
  8
DRG
 48
15.0
100
AcDbLine
 10
549.7838329270676
 20
-33.53654750332691
 30
0.0
 11
548.7671394404774
 21
-32.51985401673676
 31
0.0
  0
LINE
  5
12927
330
1F
100
AcDbEntity
  8
DRG
 48
15.0
100
AcDbLine
 10
552.1242045466919
 20
-12.96952040568078
 30
0.0
 11
552.1242045466919
 21
-20.46243429972685
 31
0.0
  0
ARC
  5
12928
330
1F
100
AcDbEntity
  8
DRG
 48
15.0
100
AcDbCircle
 10
549.6841401788755
 20
-20.46243429972685
 30
0.0
 40
2.440064367816093
100
AcDbArc
 50
290.9999999999969
 51
0.0
  0
ARC
  5
12929
330
1F
100
AcDbEntity
  8
DRG
 48
15.0
100
AcDbCircle
 10
554.5642689145084
 20
-12.96952040568078
 30
0.0
 40
2.440064367816093
100
AcDbArc
 50
90.0
 51
180.0
  0
LINE
  5
1292A
330
1F
100
AcDbEntity
  8
DRG
 48
15.0
100
AcDbLine
 10
572.4580742784914
 20
-34.73703831111754
 30
0.0
 11
572.4580742784914
 21
-33.53654750332782
 31
0.0
  0
LINE
  5
1292B
330
1F
100
AcDbEntity
  8
DRG
 48
15.0
100
AcDbLine
 10
572.4580742784914
 20
-33.53654750332782
 30
0.0
 11
573.4747677650816
 21
-32.51985401673767
 31
0.0
  0
LINE
  5
1292C
330
1F
100
AcDbEntity
  8
DRG
 48
15.0
100
AcDbLine
 10
585.6750896041635
 20
-34.73703831111754
 30
0.0
 11
585.6750896041635
 21
-33.53654750332782
 31
0.0
  0
LINE
  5
1292D
330
1F
100
AcDbEntity
  8
DRG
 48
15.0
100
AcDbLine
 10
584.6583961175733
 20
-32.51985401673767
 30
0.0
 11
585.6750896041635
 21
-33.53654750332782
 31
0.0
  0
ARC
  5
1292E
330
1F
100
AcDbEntity
  8
DRG
 48
15.0
100
AcDbCircle
 10
594.9273647422837
 20
-12.96952040568078
 30
0.0
 40
2.440064367816093
100
AcDbArc
 50
0.0
 51
90.0
  0
LINE
  5
1292F
330
1F
100
AcDbEntity
  8
DRG
 48
15.0
100
AcDbLine
 10
597.3674291101001
 20
-12.96952040568078
 30
0.0
 11
597.3674291101001
 21
-17.14526163834591
 31
0.0
  0
ARC
  5
12930
330
1F
100
AcDbEntity
  8
DRG
 48
15.0
100
AcDbCircle
 10
599.8074934779165
 20
-17.14526163834591
 30
0.0
 40
2.440064367816093
100
AcDbArc
 50
180.0
 51
249.000000000003
  0
LINE
  5
12931
330
1F
100
AcDbEntity
  8
DRG
 48
15.0
100
AcDbLine
 10
608.3493309555892
 20
-34.15761096077506
 30
0.0
 11
608.3493309555892
 21
-33.53654750332691
 31
0.0
  0
LINE
  5
12932
330
1F
100
AcDbEntity
  8
DRG
 48
15.0
100
AcDbLine
 10
608.3493309555892
 20
-33.53654750332691
 30
0.0
 11
609.3660244421794
 21
-32.51985401673676
 31
0.0
  0
LINE
  5
12933
330
1F
100
AcDbEntity
  8
AM_7
100
AcDbLine
 10
579.0665819413284
 20
64.25681437711898
 30
0.0
 11
569.9413862891544
 21
64.25681437711898
 31
0.0
1001
GENIUS_GENOREF_13
1005
12A3C
  0
CIRCLE
  5
12934
330
1F
100
AcDbEntity
  8
DRG
100
AcDbCircle
 10
579.0665819413284
 20
64.25681437711898
 30
0.0
 40
5.919014148428894
  0
POLYLINE
  5
12935
330
1F
100
AcDbEntity
  8
DRG
100
AcDb2dPolyline
 66
     1
 10
0.0
 20
0.0
 30
0.0
 70
     1
  0
VERTEX
  5
132C7
330
12935
100
AcDbEntity
  8
DRG
100
AcDbVertex
100
AcDb2dVertex
 10
581.4578484381605
 20
60.11501931016699
 30
0.0
  0
VERTEX
  5
132C8
330
12935
100
AcDbEntity
  8
DRG
100
AcDbVertex
100
AcDb2dVertex
 10
583.8491149349943
 20
64.25681437711898
 30
0.0
  0
VERTEX
  5
132C9
330
12935
100
AcDbEntity
  8
DRG
100
AcDbVertex
100
AcDb2dVertex
 10
581.4578484381605
 20
68.39860944407144
 30
0.0
  0
VERTEX
  5
132CA
330
12935
100
AcDbEntity
  8
DRG
100
AcDbVertex
100
AcDb2dVertex
 10
576.6753154444946
 20
68.39860944407144
 30
0.0
  0
VERTEX
  5
132CB
330
12935
100
AcDbEntity
  8
DRG
100
AcDbVertex
100
AcDb2dVertex
 10
574.2840489476606
 20
64.25681437711898
 30
0.0
  0
VERTEX
  5
132CC
330
12935
100
AcDbEntity
  8
DRG
100
AcDbVertex
100
AcDb2dVertex
 10
576.6753154444946
 20
60.11501931016699
 30
0.0
  0
SEQEND
  5
132CD
330
12935
100
AcDbEntity
  8
DRG
  0
LINE
  5
12936
330
1F
100
AcDbEntity
  8
DRG
 48
15.0
100
AcDbLine
 10
557.84310540876
 20
-5.711357683228129
 30
0.0
 11
562.6723994700628
 21
-5.711357683228129
 31
0.0
  0
LINE
  5
12937
330
1F
100
AcDbEntity
  8
圖層1
  6
PHANTOM
 62
     2
 48
0.5
100
AcDbLine
 10
595.7677083781062
 20
44.34315895219135
 30
0.0
 11
595.7677083781062
 21
56.10691290728727
 31
0.0
  0
ARC
  5
12938
330
1F
100
AcDbEntity
  8
圖層1
  6
PHANTOM
 62
     2
 48
0.5
100
AcDbCircle
 10
596.7677083781062
 20
44.34315895219135
 30
0.0
 40
1.0
100
AcDbArc
 50
180.0
 51
270.0
  0
LINE
  5
12939
330
1F
100
AcDbEntity
  8
AM_7
100
AcDbLine
 10
579.0665819413284
 20
64.25681437711898
 30
0.0
 11
579.0665819413284
 21
55.13161872494504
 31
0.0
1001
GENIUS_GENOREF_13
1005
12A3C
  0
LINE
  5
1293A
330
1F
100
AcDbEntity
  8
AM_7
100
AcDbLine
 10
579.0665819413284
 20
64.25681437711898
 30
0.0
 11
588.1917775935023
 21
64.25681437711898
 31
0.0
1001
GENIUS_GENOREF_13
1005
12A3C
  0
INSERT
  5
1293B
330
1F
100
AcDbEntity
  8
AM_5
100
AcDbBlockReference
  2
*S16
 10
0.0
 20
0.0
 30
0.0
  0
LINE
  5
1293C
330
1F
100
AcDbEntity
  8
AM_7
100
AcDbLine
 10
537.8905254195892
 20
124.2416868408871
 30
0.0
 11
529.934526434082
 21
124.2416868408871
 31
0.0
1001
GENIUS_GENOREF_13
1005
12A36
  0
LINE
  5
1293D
330
1F
100
AcDbEntity
  8
AM_7
100
AcDbLine
 10
543.8083548128238
 20
75.71290832494503
 30
0.0
 11
534.6831591606498
 21
75.71290832494503
 31
0.0
1001
GENIUS_GENOREF_13
1005
12A3D
  0
LINE
  5
1293E
330
1F
100
AcDbEntity
  8
AM_7
100
AcDbLine
 10
543.8083548128238
 20
172.7704653568292
 30
0.0
 11
534.6831591606498
 21
172.7704653568292
 31
0.0
1001
GENIUS_GENOREF_13
1005
12A40
  0
LINE
  5
1293F
330
1F
100
AcDbEntity
  8
AM_7
  6
AM_ISO08W050X2
100
AcDbLine
 10
537.8905254195892
 20
124.2416868408871
 30
0.0
 11
528.434526434082
 21
124.2416868408871
 31
0.0
1001
GENIUS_GENOREF_13
1005
12A46
  0
CIRCLE
  5
12940
330
1F
100
AcDbEntity
  8
DRG
 48
15.0
100
AcDbCircle
 10
537.8905254195892
 20
124.2416868408871
 30
0.0
 40
3.268667202898551
  0
CIRCLE
  5
12941
330
1F
100
AcDbEntity
  8
DRG
 48
15.0
100
AcDbCircle
 10
537.8905254195892
 20
124.2416868408871
 30
0.0
 40
4.219274927536232
  0
CIRCLE
  5
12942
330
1F
100
AcDbEntity
  8
DRG
 48
15.0
100
AcDbCircle
 10
537.8905254195892
 20
124.2416868408871
 30
0.0
 40
6.455998985507245
  0
LINE
  5
12943
330
1F
100
AcDbEntity
  8
DRG
 48
15.0
100
AcDbLine
 10
547.1157986979746
 20
99.3897356340857
 30
0.0
 11
529.8952932249199
 21
117.7714937766571
 31
0.0
  0
LINE
  5
12944
330
1F
100
AcDbEntity
  8
DRG
 48
15.0
100
AcDbLine
 10
547.1157986979746
 20
149.0936380476881
 30
0.0
 11
529.8952932249235
 21
130.7118799051189
 31
0.0
  0
LINE
  5
12945
330
1F
100
AcDbEntity
  8
AM_7
100
AcDbLine
 10
523.0100120139727
 20
145.5922346669743
 30
0.0
 11
523.0100120139727
 21
136.4670390148004
 31
0.0
1001
GENIUS_GENOREF_13
1005
12A3F
  0
CIRCLE
  5
12946
330
1F
100
AcDbEntity
  8
DRG
100
AcDbCircle
 10
523.0100120139727
 20
145.5922346669743
 30
0.0
 40
5.919014148428894
  0
CIRCLE
  5
12947
330
1F
100
AcDbEntity
  8
DRG
 48
15.0
100
AcDbCircle
 10
523.0100120139727
 20
145.5922346669743
 30
0.0
 40
7.625195652173913
  0
LINE
  5
12948
330
1F
100
AcDbEntity
  8
DRG
 48
15.0
100
AcDbLine
 10
502.9569950767132
 20
84.28322156088677
 30
0.0
 11
502.9569950767132
 21
164.2001521208866
 31
0.0
  0
LINE
  5
12949
330
1F
100
AcDbEntity
  8
AM_7
100
AcDbLine
 10
523.0100120139727
 20
102.8911390147999
 30
0.0
 11
523.0100120139727
 21
112.0163346669738
 31
0.0
1001
GENIUS_GENOREF_13
1005
12A3E
  0
CIRCLE
  5
1294A
330
1F
100
AcDbEntity
  8
DRG
 48
15.0
100
AcDbCircle
 10
523.0100120139727
 20
102.8911390147999
 30
0.0
 40
7.625195652173913
  0
CIRCLE
  5
1294B
330
1F
100
AcDbEntity
  8
DRG
100
AcDbCircle
 10
523.0100120139727
 20
102.8911390147999
 30
0.0
 40
5.919014148428894
  0
POLYLINE
  5
1294C
330
1F
100
AcDbEntity
  8
DRG
100
AcDb2dPolyline
 66
     1
 10
0.0
 20
0.0
 30
0.0
 70
     1
  0
VERTEX
  5
132D6
330
1294C
100
AcDbEntity
  8
DRG
100
AcDbVertex
100
AcDb2dVertex
 10
525.4012785108066
 20
98.74934394784748
 30
0.0
  0
VERTEX
  5
132D7
330
1294C
100
AcDbEntity
  8
DRG
100
AcDbVertex
100
AcDb2dVertex
 10
527.7925450076386
 20
102.8911390147999
 30
0.0
  0
VERTEX
  5
132D8
330
1294C
100
AcDbEntity
  8
DRG
100
AcDbVertex
100
AcDb2dVertex
 10
525.4012785108066
 20
107.0329340817519
 30
0.0
  0
VERTEX
  5
132D9
330
1294C
100
AcDbEntity
  8
DRG
100
AcDbVertex
100
AcDb2dVertex
 10
520.6187455171389
 20
107.0329340817519
 30
0.0
  0
VERTEX
  5
132DA
330
1294C
100
AcDbEntity
  8
DRG
100
AcDbVertex
100
AcDb2dVertex
 10
518.2274790203051
 20
102.8911390147999
 30
0.0
  0
VERTEX
  5
132DB
330
1294C
100
AcDbEntity
  8
DRG
100
AcDbVertex
100
AcDb2dVertex
 10
520.6187455171389
 20
98.74934394784748
 30
0.0
  0
SEQEND
  5
132DC
330
1294C
100
AcDbEntity
  8
DRG
  0
LINE
  5
1294D
330
1F
100
AcDbEntity
  8
AM_7
100
AcDbLine
 10
523.0100120139727
 20
102.8911390147999
 30
0.0
 11
513.8848163617987
 21
102.8911390147999
 31
0.0
1001
GENIUS_GENOREF_13
1005
12A3E
  0
LINE
  5
1294E
330
1F
100
AcDbEntity
  8
DRG
 48
15.0
100
AcDbLine
 10
523.1770491457195
 20
81.84315895219141
 30
0.0
 11
505.3970576854085
 21
81.84315895219141
 31
0.0
  0
ARC
  5
1294F
102
{ACAD_REACTORS
330
128EB
102
}
330
1F
100
AcDbEntity
  8
DRG
 48
15.0
100
AcDbCircle
 10
505.3970576854085
 20
84.28322156088677
 30
0.0
 40
2.440062608695652
100
AcDbArc
 50
180.0
 51
270.0
  0
LINE
  5
12950
330
1F
100
AcDbEntity
  8
AM_7
100
AcDbLine
 10
523.0100120139727
 20
102.8911390147999
 30
0.0
 11
532.1352076661467
 21
102.8911390147999
 31
0.0
1001
GENIUS_GENOREF_13
1005
12A3E
  0
LINE
  5
12951
330
1F
100
AcDbEntity
  8
AM_7
100
AcDbLine
 10
523.0100120139727
 20
102.8911390147999
 30
0.0
 11
523.0100120139727
 21
93.76594336262598
 31
0.0
1001
GENIUS_GENOREF_13
1005
12A3E
  0
MTEXT
  5
12952
330
1F
100
AcDbEntity
  8
DRG
 48
15.0
100
AcDbMText
 10
516.4193054905195
 20
128.1729972048991
 30
0.0
 40
4.880125217391304
 41
18.00288359623188
 71
     1
 72
     1
  1
PR
  7
ROMAN
 11
-0.0000000000000002
 21
-1.0
 31
0.0
1001
ACAD
1000
MTEXTBEGIN
1070
    73
1070
     1
1070
    44
1040
1.0
1070
    74
1070
     0
1000
MTEXTEND
  0
LINE
  5
12953
330
1F
100
AcDbEntity
  8
DRG
 48
15.0
100
AcDbLine
 10
518.1298867965656
 20
112.0413737974089
 30
0.0
 11
512.0619784278428
 21
112.0413737974089
 31
0.0
  0
LINE
  5
12954
330
1F
100
AcDbEntity
  8
DRG
 48
15.0
100
AcDbLine
 10
518.1298867965802
 20
136.4419998843653
 30
0.0
 11
512.0619784278428
 21
136.4419998843653
 31
0.0
  0
ARC
  5
12955
330
1F
100
AcDbEntity
  8
DRG
 48
15.0
100
AcDbCircle
 10
512.0619784278447
 20
114.4814364061043
 30
0.0
 40
2.440062608695652
100
AcDbArc
 50
188.2877216205725
 51
270.0
  0
ARC
  5
12956
330
1F
100
AcDbEntity
  8
DRG
 48
15.0
100
AcDbCircle
 10
512.0619784278447
 20
134.00193727567
 30
0.0
 40
2.440062608695652
100
AcDbArc
 50
90.0
 51
171.7122783794274
  0
ARC
  5
12957
330
1F
100
AcDbEntity
  8
DRG
 48
15.0
100
AcDbCircle
 10
536.3654862891531
 20
124.2416868408871
 30
0.0
 40
9.150234782608697
100
AcDbArc
 50
134.9999999999907
 51
224.9999999999908
  0
LINE
  5
12958
330
1F
100
AcDbEntity
  8
DRG
 48
15.0
100
AcDbLine
 10
518.1298867965802
 20
136.4419998843653
 30
0.0
 11
518.1298867965765
 21
112.0413737974143
 31
0.0
  0
LINE
  5
12959
330
1F
100
AcDbEntity
  8
DRG
 48
15.0
100
AcDbLine
 10
533.2533201194569
 20
113.0580665510323
 30
0.0
 11
520.9664848701854
 21
113.0580665510323
 31
0.0
  0
ARC
  5
1295A
330
1F
100
AcDbEntity
  8
DRG
 48
15.0
100
AcDbCircle
 10
523.0100120139637
 20
102.8911390148035
 30
0.0
 40
10.37026608695652
100
AcDbArc
 50
101.364876967138
 51
118.0724869358399
  0
ARC
  5
1295B
330
1F
100
AcDbEntity
  8
DRG
 48
15.0
100
AcDbCircle
 10
533.2533201194569
 20
110.6180039423364
 30
0.0
 40
2.440062608695652
100
AcDbArc
 50
43.13182393863336
 51
90.0
  0
LINE
  5
1295C
330
1F
100
AcDbEntity
  8
DRG
 48
15.0
100
AcDbLine
 10
533.2533201194569
 20
135.4253071307424
 30
0.0
 11
523.4215673912753
 21
135.2301383112311
 31
0.0
  0
ARC
  5
1295D
330
1F
100
AcDbEntity
  8
DRG
 48
15.0
100
AcDbCircle
 10
523.0100120139727
 20
145.5922346669743
 30
0.0
 40
10.37026608695652
100
AcDbArc
 50
241.9275130641455
 51
272.2744431190113
  0
ARC
  5
1295E
330
1F
100
AcDbEntity
  8
DRG
 48
15.0
100
AcDbCircle
 10
533.2533201194587
 20
137.8653697394373
 30
0.0
 40
2.440062608695652
100
AcDbArc
 50
270.0
 51
316.8681760613734
  0
TEXT
  5
1295F
330
1F
100
AcDbEntity
  8
AM_5
100
AcDbText
 10
485.8288854987007
 20
183.3164097928677
 30
0.0
 40
6.3
  1
PT 1/4
 41
0.75
  7
DAYUS
 11
485.8288854987007
 21
183.3164097928677
 31
0.0
100
AcDbText
 73
     1
  0
LINE
  5
12960
330
1F
100
AcDbEntity
  8
AM_7
100
AcDbLine
 10
523.0100120139727
 20
145.5922346669743
 30
0.0
 11
513.8848163617987
 21
145.5922346669743
 31
0.0
1001
GENIUS_GENOREF_13
1005
12A3F
  0
LINE
  5
12961
330
1F
100
AcDbEntity
  8
DRG
 48
15.0
100
AcDbLine
 10
523.1770491457195
 20
166.6402147295829
 30
0.0
 11
505.3970576854085
 21
166.6402147295829
 31
0.0
  0
ARC
  5
12962
330
1F
100
AcDbEntity
  8
DRG
 48
15.0
100
AcDbCircle
 10
505.3970576854085
 20
164.2001521208866
 30
0.0
 40
2.440062608695652
100
AcDbArc
 50
90.0
 51
180.0
  0
LINE
  5
12963
330
1F
100
AcDbEntity
  8
AM_7
100
AcDbLine
 10
523.0100120139727
 20
145.5922346669743
 30
0.0
 11
532.1352076661467
 21
145.5922346669743
 31
0.0
1001
GENIUS_GENOREF_13
1005
12A3F
  0
POLYLINE
  5
12964
330
1F
100
AcDbEntity
  8
DRG
100
AcDb2dPolyline
 66
     1
 10
0.0
 20
0.0
 30
0.0
 70
     1
  0
VERTEX
  5
132DD
330
12964
100
AcDbEntity
  8
DRG
100
AcDbVertex
100
AcDb2dVertex
 10
525.4012785108066
 20
141.4504396000219
 30
0.0
  0
VERTEX
  5
132DE
330
12964
100
AcDbEntity
  8
DRG
100
AcDbVertex
100
AcDb2dVertex
 10
527.7925450076386
 20
145.5922346669739
 30
0.0
  0
VERTEX
  5
132DF
330
12964
100
AcDbEntity
  8
DRG
100
AcDbVertex
100
AcDb2dVertex
 10
525.4012785108066
 20
149.7340297339263
 30
0.0
  0
VERTEX
  5
132E0
330
12964
100
AcDbEntity
  8
DRG
100
AcDbVertex
100
AcDb2dVertex
 10
520.6187455171389
 20
149.7340297339263
 30
0.0
  0
VERTEX
  5
132E1
330
12964
100
AcDbEntity
  8
DRG
100
AcDbVertex
100
AcDb2dVertex
 10
518.2274790203051
 20
145.5922346669739
 30
0.0
  0
VERTEX
  5
132E2
330
12964
100
AcDbEntity
  8
DRG
100
AcDbVertex
100
AcDb2dVertex
 10
520.6187455171389
 20
141.4504396000219
 30
0.0
  0
SEQEND
  5
132E3
330
12964
100
AcDbEntity
  8
DRG
  0
LINE
  5
12965
330
1F
100
AcDbEntity
  8
AM_7
100
AcDbLine
 10
523.0100120139727
 20
145.5922346669743
 30
0.0
 11
523.0100120139727
 21
154.7174303191483
 31
0.0
1001
GENIUS_GENOREF_13
1005
12A3F
  0
LINE
  5
12966
330
1F
100
AcDbEntity
  8
AM_7
  6
AM_ISO08W050X2
100
AcDbLine
 10
549.0741457094432
 20
144.575541913351
 30
0.0
 11
549.0741457094432
 21
139.5171172756698
 31
0.0
1001
GENIUS_GENOREF_13
1005
12A38
  0
LINE
  5
12967
330
1F
100
AcDbEntity
  8
AM_7
  6
AM_ISO08W050X2
100
AcDbLine
 10
560.2577659992989
 20
142.5421564061046
 30
0.0
 11
560.2577659992989
 21
138.6275111162496
 31
0.0
1001
GENIUS_GENOREF_13
1005
12A39
  0
LINE
  5
12968
330
1F
100
AcDbEntity
  8
DRG
 48
15.0
100
AcDbLine
 10
591.6937965950205
 20
146.2859483231108
 30
0.0
 11
597.1422366406991
 21
125.9520932506469
 31
0.0
  0
MTEXT
  5
12969
330
1F
100
AcDbEntity
  8
DRG
 48
15.0
100
AcDbMText
 10
579.6785356131318
 20
133.1392057064216
 30
0.0
 40
4.880125217391304
 41
18.00288359623188
 71
     1
 72
     1
  1
PILOT
  7
ROMAN
 11
-0.0000000000000002
 21
-1.0
 31
0.0
1001
ACAD
1000
MTEXTBEGIN
1070
    73
1070
     1
1070
    44
1040
1.0
1070
    74
1070
     0
1000
MTEXTEND
  0
ARC
  5
1296A
330
1F
100
AcDbEntity
  8
DRG
 48
15.0
100
AcDbCircle
 10
577.0331964340807
 20
116.1081448119015
 30
0.0
 40
4.575117391304348
100
AcDbArc
 50
180.0
 51
0.0
  0
ARC
  5
1296B
330
1F
100
AcDbEntity
  8
DRG
 48
15.0
100
AcDbCircle
 10
577.0331964340807
 20
132.3752288698723
 30
0.0
 40
4.5751173913044
100
AcDbArc
 50
0.0
 51
180.0
  0
LINE
  5
1296C
330
1F
100
AcDbEntity
  8
DRG
 48
15.0
100
AcDbLine
 10
585.3104729722058
 20
97.29932886987251
 30
0.0
 11
551.9385694660127
 21
97.29932886987251
 31
0.0
  0
LINE
  5
1296D
330
1F
100
AcDbEntity
  8
AM_7
  6
AM_ISO08W050X2
100
AcDbLine
 10
549.0741457094432
 20
103.9078317684233
 30
0.0
 11
549.0741457094432
 21
108.9662564061044
 31
0.0
1001
GENIUS_GENOREF_13
1005
12A37
  0
LINE
  5
1296E
330
1F
100
AcDbEntity
  8
AM_7
  6
AM_ISO08W050X2
100
AcDbLine
 10
560.2577659992989
 20
105.9412172756696
 30
0.0
 11
560.2577659992989
 21
102.0265719858144
 31
0.0
1001
GENIUS_GENOREF_13
1005
12A3B
  0
CIRCLE
  5
1296F
330
1F
100
AcDbEntity
  8
DRG
 48
15.0
100
AcDbCircle
 10
549.0741457094432
 20
103.9078317684233
 30
0.0
 40
2.559524007246376
  0
CIRCLE
  5
12970
330
1F
100
AcDbEntity
  8
DRG
 48
15.0
100
AcDbCircle
 10
549.0741457094432
 20
103.9078317684233
 30
0.0
 40
3.558424637681159
  0
CIRCLE
  5
12971
330
1F
100
AcDbEntity
  8
DRG
 48
15.0
100
AcDbCircle
 10
560.2577659992989
 20
105.9412172756696
 30
0.0
 40
2.414645289855072
  0
LINE
  5
12972
330
1F
100
AcDbEntity
  8
AM_7
100
AcDbLine
 10
543.8083548128238
 20
75.71290832494503
 30
0.0
 11
552.9335504649977
 21
75.71290832494503
 31
0.0
1001
GENIUS_GENOREF_13
1005
12A3D
  0
POLYLINE
  5
12973
330
1F
100
AcDbEntity
  8
DRG
100
AcDb2dPolyline
 66
     1
 10
0.0
 20
0.0
 30
0.0
 70
     1
  0
VERTEX
  5
132E4
330
12973
100
AcDbEntity
  8
DRG
100
AcDbVertex
100
AcDb2dVertex
 10
546.1996213096576
 20
71.57111325799212
 30
0.0
  0
VERTEX
  5
132E5
330
12973
100
AcDbEntity
  8
DRG
100
AcDbVertex
100
AcDb2dVertex
 10
548.5908878064897
 20
75.71290832494503
 30
0.0
  0
VERTEX
  5
132E6
330
12973
100
AcDbEntity
  8
DRG
100
AcDbVertex
100
AcDb2dVertex
 10
546.1996213096576
 20
79.85470339189703
 30
0.0
  0
VERTEX
  5
132E7
330
12973
100
AcDbEntity
  8
DRG
100
AcDbVertex
100
AcDb2dVertex
 10
541.41708831599
 20
79.85470339189703
 30
0.0
  0
VERTEX
  5
132E8
330
12973
100
AcDbEntity
  8
DRG
100
AcDbVertex
100
AcDb2dVertex
 10
539.0258218191579
 20
75.71290832494503
 30
0.0
  0
VERTEX
  5
132E9
330
12973
100
AcDbEntity
  8
DRG
100
AcDbVertex
100
AcDb2dVertex
 10
541.41708831599
 20
71.57111325799212
 30
0.0
  0
SEQEND
  5
132EA
330
12973
100
AcDbEntity
  8
DRG
  0
LINE
  5
12974
330
1F
100
AcDbEntity
  8
AM_7
100
AcDbLine
 10
543.8083548128238
 20
75.71290832494503
 30
0.0
 11
543.8083548128238
 21
84.83810397711897
 31
0.0
1001
GENIUS_GENOREF_13
1005
12A3D
  0
LINE
  5
12975
330
1F
100
AcDbEntity
  8
AM_7
  6
AM_ISO08W050X2
100
AcDbLine
 10
549.0741457094432
 20
103.9078317684233
 30
0.0
 11
544.0157210717621
 21
103.9078317684233
 31
0.0
1001
GENIUS_GENOREF_13
1005
12A37
  0
LINE
  5
12976
330
1F
100
AcDbEntity
  8
AM_7
  6
AM_ISO08W050X2
100
AcDbLine
 10
549.0741457094432
 20
103.9078317684233
 30
0.0
 11
549.0741457094432
 21
98.84940713074218
 31
0.0
1001
GENIUS_GENOREF_13
1005
12A37
  0
LINE
  5
12977
330
1F
100
AcDbEntity
  8
AM_7
  6
AM_ISO08W050X2
100
AcDbLine
 10
549.0741457094432
 20
103.9078317684233
 30
0.0
 11
554.1325703471243
 21
103.9078317684233
 31
0.0
1001
GENIUS_GENOREF_13
1005
12A37
  0
ARC
  5
12978
330
1F
100
AcDbEntity
  8
DRG
 48
15.0
100
AcDbCircle
 10
551.9385694660127
 20
103.9078317684233
 30
0.0
 40
6.608502898550725
100
AcDbArc
 50
223.1318239386265
 51
270.0
  0
LINE
  5
12979
330
1F
100
AcDbEntity
  8
AM_7
100
AcDbLine
 10
558.7327268688645
 20
124.2416868408871
 30
0.0
 11
547.5233110717631
 21
124.2416868408871
 31
0.0
1001
GENIUS_GENOREF_13
1005
12A3A
  0
LINE
  5
1297A
330
1F
100
AcDbEntity
  8
AM_7
  6
AM_ISO08W050X2
100
AcDbLine
 10
560.2577659992989
 20
105.9412172756696
 30
0.0
 11
556.3431207094438
 21
105.9412172756696
 31
0.0
1001
GENIUS_GENOREF_13
1005
12A3B
  0
CIRCLE
  5
1297B
330
1F
100
AcDbEntity
  8
DRG
 48
15.0
100
AcDbCircle
 10
558.7327268688645
 20
124.2416868408871
 30
0.0
 40
5.803790584057971
  0
CIRCLE
  5
1297C
330
1F
100
AcDbEntity
  8
DRG
 48
15.0
100
AcDbCircle
 10
558.7327268688645
 20
124.2416868408871
 30
0.0
 40
7.294770507246377
  0
CIRCLE
  5
1297D
330
1F
100
AcDbEntity
  8
DRG
 48
15.0
100
AcDbCircle
 10
558.7327268688645
 20
124.2416868408871
 30
0.0
 40
9.709415797101451
  0
LINE
  5
1297E
330
1F
100
AcDbEntity
  8
AM_7
100
AcDbLine
 10
537.8905254195892
 20
124.2416868408871
 30
0.0
 11
537.8905254195892
 21
116.2856878553799
 31
0.0
1001
GENIUS_GENOREF_13
1005
12A36
  0
LINE
  5
1297F
330
1F
100
AcDbEntity
  8
AM_7
100
AcDbLine
 10
537.8905254195892
 20
124.2416868408871
 30
0.0
 11
537.8905254195892
 21
132.1976858263943
 31
0.0
1001
GENIUS_GENOREF_13
1005
12A36
  0
LINE
  5
12980
330
1F
100
AcDbEntity
  8
AM_7
100
AcDbLine
 10
537.8905254195892
 20
124.2416868408871
 30
0.0
 11
545.8465244050964
 21
124.2416868408871
 31
0.0
1001
GENIUS_GENOREF_13
1005
12A36
  0
LINE
  5
12981
330
1F
100
AcDbEntity
  8
AM_7
100
AcDbLine
 10
558.7327268688645
 20
124.2416868408871
 30
0.0
 11
558.7327268688645
 21
113.0322710437857
 31
0.0
1001
GENIUS_GENOREF_13
1005
12A3A
  0
LINE
  5
12982
330
1F
100
AcDbEntity
  8
DRG
 48
15.0
100
AcDbLine
 10
572.4580790427776
 20
132.3752288698723
 30
0.0
 11
572.4580790427776
 21
116.1081448119015
 31
0.0
  0
LINE
  5
12983
330
1F
100
AcDbEntity
  8
AM_7
  6
AM_ISO08W050X2
100
AcDbLine
 10
560.2577659992989
 20
105.9412172756696
 30
0.0
 11
560.2577659992989
 21
109.8558625655247
 31
0.0
1001
GENIUS_GENOREF_13
1005
12A3B
  0
LINE
  5
12984
330
1F
100
AcDbEntity
  8
AM_7
  6
AM_ISO08W050X2
100
AcDbLine
 10
560.2577659992989
 20
105.9412172756696
 30
0.0
 11
564.172411289154
 21
105.9412172756696
 31
0.0
1001
GENIUS_GENOREF_13
1005
12A3B
  0
LINE
  5
12985
330
1F
100
AcDbEntity
  8
AM_7
100
AcDbLine
 10
558.7327268688645
 20
124.2416868408871
 30
0.0
 11
569.942142665966
 21
124.2416868408871
 31
0.0
1001
GENIUS_GENOREF_13
1005
12A3A
  0
LINE
  5
12986
330
1F
100
AcDbEntity
  8
AM_7
100
AcDbLine
 10
558.7327268688645
 20
124.2416868408871
 30
0.0
 11
558.7327268688645
 21
135.4511026379885
 31
0.0
1001
GENIUS_GENOREF_13
1005
12A3A
  0
LINE
  5
12987
330
1F
100
AcDbEntity
  8
DRG
 48
15.0
100
AcDbLine
 10
597.1422366406991
 20
122.5312804311269
 30
0.0
 11
591.6937965950205
 21
102.197425358663
 31
0.0
  0
ARC
  5
12988
330
1F
100
AcDbEntity
  8
DRG
 48
15.0
100
AcDbCircle
 10
585.3104729722058
 20
103.9078317684233
 30
0.0
 40
6.608502898550725
100
AcDbArc
 50
270.0
 51
345.0000000000055
  0
LINE
  5
12989
330
1F
100
AcDbEntity
  8
AM_7
100
AcDbLine
 10
614.3248090698311
 20
75.71290832494503
 30
0.0
 11
605.1996134176572
 21
75.71290832494503
 31
0.0
1001
GENIUS_GENOREF_13
1005
12A45
  0
POLYLINE
  5
1298A
330
1F
100
AcDbEntity
  8
DRG
100
AcDb2dPolyline
 66
     1
 10
0.0
 20
0.0
 30
0.0
 70
     1
  0
VERTEX
  5
132EB
330
1298A
100
AcDbEntity
  8
DRG
100
AcDbVertex
100
AcDb2dVertex
 10
616.716075566665
 20
71.57111325799212
 30
0.0
  0
VERTEX
  5
132EC
330
1298A
100
AcDbEntity
  8
DRG
100
AcDbVertex
100
AcDb2dVertex
 10
619.1073420634989
 20
75.71290832494503
 30
0.0
  0
VERTEX
  5
132ED
330
1298A
100
AcDbEntity
  8
DRG
100
AcDbVertex
100
AcDb2dVertex
 10
616.716075566665
 20
79.85470339189703
 30
0.0
  0
VERTEX
  5
132EE
330
1298A
100
AcDbEntity
  8
DRG
100
AcDbVertex
100
AcDb2dVertex
 10
611.9335425729992
 20
79.85470339189703
 30
0.0
  0
VERTEX
  5
132EF
330
1298A
100
AcDbEntity
  8
DRG
100
AcDbVertex
100
AcDb2dVertex
 10
609.5422760761652
 20
75.71290832494503
 30
0.0
  0
VERTEX
  5
132F0
330
1298A
100
AcDbEntity
  8
DRG
100
AcDbVertex
100
AcDb2dVertex
 10
611.9335425729992
 20
71.57111325799212
 30
0.0
  0
SEQEND
  5
132F1
330
1298A
100
AcDbEntity
  8
DRG
  0
LINE
  5
1298B
330
1F
100
AcDbEntity
  8
AM_7
100
AcDbLine
 10
614.3248090698311
 20
75.71290832494503
 30
0.0
 11
614.3248090698311
 21
84.83810397711897
 31
0.0
1001
GENIUS_GENOREF_13
1005
12A45
  0
ARC
  5
1298C
330
1F
100
AcDbEntity
  8
DRG
 48
15.0
100
AcDbCircle
 10
590.7589130178844
 20
124.2416868408871
 30
0.0
 40
6.608502898550725
100
AcDbArc
 50
345.0000000000055
 51
14.99999999999445
  0
LINE
  5
1298D
330
1F
100
AcDbEntity
  8
DRG
 48
15.0
100
AcDbLine
 10
581.6083138253857
 20
132.3752288698723
 30
0.0
 11
581.6083138253857
 21
116.1081448119015
 31
0.0
  0
LINE
  5
1298E
330
1F
100
AcDbEntity
  8
AM_7
100
AcDbLine
 10
579.0665819413284
 20
184.2265593046553
 30
0.0
 11
569.9413862891544
 21
184.2265593046553
 31
0.0
1001
GENIUS_GENOREF_13
1005
12A41
  0
CIRCLE
  5
1298F
330
1F
100
AcDbEntity
  8
DRG
100
AcDbCircle
 10
579.0665819413284
 20
184.2265593046553
 30
0.0
 40
5.919014148428894
  0
POLYLINE
  5
12990
330
1F
100
AcDbEntity
  8
DRG
100
AcDb2dPolyline
 66
     1
 10
0.0
 20
0.0
 30
0.0
 70
     1
  0
VERTEX
  5
132F2
330
12990
100
AcDbEntity
  8
DRG
100
AcDbVertex
100
AcDb2dVertex
 10
581.4578484381605
 20
180.0847642377028
 30
0.0
  0
VERTEX
  5
132F3
330
12990
100
AcDbEntity
  8
DRG
100
AcDbVertex
100
AcDb2dVertex
 10
583.8491149349943
 20
184.2265593046548
 30
0.0
  0
VERTEX
  5
132F4
330
12990
100
AcDbEntity
  8
DRG
100
AcDbVertex
100
AcDb2dVertex
 10
581.4578484381605
 20
188.3683543716077
 30
0.0
  0
VERTEX
  5
132F5
330
12990
100
AcDbEntity
  8
DRG
100
AcDbVertex
100
AcDb2dVertex
 10
576.6753154444946
 20
188.3683543716077
 30
0.0
  0
VERTEX
  5
132F6
330
12990
100
AcDbEntity
  8
DRG
100
AcDbVertex
100
AcDb2dVertex
 10
574.2840489476606
 20
184.2265593046548
 30
0.0
  0
VERTEX
  5
132F7
330
12990
100
AcDbEntity
  8
DRG
100
AcDbVertex
100
AcDb2dVertex
 10
576.6753154444946
 20
180.0847642377028
 30
0.0
  0
SEQEND
  5
132F8
330
12990
100
AcDbEntity
  8
DRG
  0
CIRCLE
  5
12991
330
1F
100
AcDbEntity
  8
DRG
 48
15.0
100
AcDbCircle
 10
579.0665819413284
 20
184.2265593046553
 30
0.0
 40
7.625195652173913
  0
LINE
  5
12992
330
1F
100
AcDbEntity
  8
DRG
 48
15.0
100
AcDbLine
 10
585.3104729722058
 20
151.1840448119017
 30
0.0
 11
551.9385694660127
 21
151.1840448119013
 31
0.0
  0
LINE
  5
12993
330
1F
100
AcDbEntity
  8
AM_7
100
AcDbLine
 10
543.8083548128238
 20
172.7704653568292
 30
0.0
 11
543.8083548128238
 21
181.8956610090032
 31
0.0
1001
GENIUS_GENOREF_13
1005
12A40
  0
CIRCLE
  5
12994
330
1F
100
AcDbEntity
  8
DRG
100
AcDbCircle
 10
543.8083548128238
 20
172.7704653568292
 30
0.0
 40
5.919014148428894
  0
POLYLINE
  5
12995
330
1F
100
AcDbEntity
  8
DRG
100
AcDb2dPolyline
 66
     1
 10
0.0
 20
0.0
 30
0.0
 70
     1
  0
VERTEX
  5
132F9
330
12995
100
AcDbEntity
  8
DRG
100
AcDbVertex
100
AcDb2dVertex
 10
546.1996213096576
 20
168.6286702898768
 30
0.0
  0
VERTEX
  5
132FA
330
12995
100
AcDbEntity
  8
DRG
100
AcDbVertex
100
AcDb2dVertex
 10
548.5908878064897
 20
172.7704653568288
 30
0.0
  0
VERTEX
  5
132FB
330
12995
100
AcDbEntity
  8
DRG
100
AcDbVertex
100
AcDb2dVertex
 10
546.1996213096576
 20
176.9122604237817
 30
0.0
  0
VERTEX
  5
132FC
330
12995
100
AcDbEntity
  8
DRG
100
AcDbVertex
100
AcDb2dVertex
 10
541.41708831599
 20
176.9122604237817
 30
0.0
  0
VERTEX
  5
132FD
330
12995
100
AcDbEntity
  8
DRG
100
AcDbVertex
100
AcDb2dVertex
 10
539.0258218191579
 20
172.7704653568288
 30
0.0
  0
VERTEX
  5
132FE
330
12995
100
AcDbEntity
  8
DRG
100
AcDbVertex
100
AcDb2dVertex
 10
541.41708831599
 20
168.6286702898768
 30
0.0
  0
SEQEND
  5
132FF
330
12995
100
AcDbEntity
  8
DRG
  0
CIRCLE
  5
12996
330
1F
100
AcDbEntity
  8
DRG
 48
15.0
100
AcDbCircle
 10
543.8083548128238
 20
172.7704653568292
 30
0.0
 40
7.625195652173913
  0
LINE
  5
12997
330
1F
100
AcDbEntity
  8
AM_7
  6
AM_ISO08W050X2
100
AcDbLine
 10
560.2577659992989
 20
142.5421564061046
 30
0.0
 11
556.3431207094438
 21
142.5421564061046
 31
0.0
1001
GENIUS_GENOREF_13
1005
12A39
  0
LINE
  5
12998
330
1F
100
AcDbEntity
  8
AM_7
  6
AM_ISO08W050X2
100
AcDbLine
 10
549.0741457094432
 20
144.575541913351
 30
0.0
 11
544.0157210717621
 21
144.575541913351
 31
0.0
1001
GENIUS_GENOREF_13
1005
12A38
  0
CIRCLE
  5
12999
330
1F
100
AcDbEntity
  8
DRG
 48
15.0
100
AcDbCircle
 10
549.0741457094432
 20
144.575541913351
 30
0.0
 40
2.559524007246376
  0
CIRCLE
  5
1299A
330
1F
100
AcDbEntity
  8
DRG
 48
15.0
100
AcDbCircle
 10
549.0741457094432
 20
144.575541913351
 30
0.0
 40
3.558424637681159
  0
LINE
  5
1299B
330
1F
100
AcDbEntity
  8
AM_7
  6
AM_ISO08W050X2
100
AcDbLine
 10
549.0741457094432
 20
144.575541913351
 30
0.0
 11
549.0741457094432
 21
149.6339665510321
 31
0.0
1001
GENIUS_GENOREF_13
1005
12A38
  0
LINE
  5
1299C
330
1F
100
AcDbEntity
  8
AM_7
  6
AM_ISO08W050X2
100
AcDbLine
 10
549.0741457094432
 20
144.575541913351
 30
0.0
 11
554.1325703471243
 21
144.575541913351
 31
0.0
1001
GENIUS_GENOREF_13
1005
12A38
  0
ARC
  5
1299D
330
1F
100
AcDbEntity
  8
DRG
 48
15.0
100
AcDbCircle
 10
551.9385694660127
 20
144.5755419133505
 30
0.0
 40
6.608502898550725
100
AcDbArc
 50
90.0
 51
136.8681760613666
  0
LINE
  5
1299E
330
1F
100
AcDbEntity
  8
AM_7
100
AcDbLine
 10
543.8083548128238
 20
172.7704653568292
 30
0.0
 11
552.9335504649977
 21
172.7704653568292
 31
0.0
1001
GENIUS_GENOREF_13
1005
12A40
  0
LINE
  5
1299F
330
1F
100
AcDbEntity
  8
AM_7
100
AcDbLine
 10
543.8083548128238
 20
172.7704653568292
 30
0.0
 11
543.8083548128238
 21
163.6452697046553
 31
0.0
1001
GENIUS_GENOREF_13
1005
12A40
  0
LINE
  5
129A0
330
1F
100
AcDbEntity
  8
AM_7
  6
AM_ISO08W050X2
100
AcDbLine
 10
560.2577659992989
 20
142.5421564061046
 30
0.0
 11
560.2577659992989
 21
146.4568016959598
 31
0.0
1001
GENIUS_GENOREF_13
1005
12A39
  0
LINE
  5
129A1
330
1F
100
AcDbEntity
  8
AM_7
  6
AM_ISO08W050X2
100
AcDbLine
 10
560.2577659992989
 20
142.5421564061046
 30
0.0
 11
564.172411289154
 21
142.5421564061046
 31
0.0
1001
GENIUS_GENOREF_13
1005
12A39
  0
CIRCLE
  5
129A2
330
1F
100
AcDbEntity
  8
DRG
 48
15.0
100
AcDbCircle
 10
560.2577659992989
 20
142.5421564061046
 30
0.0
 40
2.414645289855072
  0
LINE
  5
129A3
330
1F
100
AcDbEntity
  8
AM_7
100
AcDbLine
 10
614.3248090698311
 20
172.7704653568292
 30
0.0
 11
614.3248090698311
 21
181.8956610090032
 31
0.0
1001
GENIUS_GENOREF_13
1005
12A42
  0
POLYLINE
  5
129A4
330
1F
100
AcDbEntity
  8
DRG
100
AcDb2dPolyline
 66
     1
 10
0.0
 20
0.0
 30
0.0
 70
     1
  0
VERTEX
  5
13300
330
129A4
100
AcDbEntity
  8
DRG
100
AcDbVertex
100
AcDb2dVertex
 10
616.716075566665
 20
168.6286702898768
 30
0.0
  0
VERTEX
  5
13301
330
129A4
100
AcDbEntity
  8
DRG
100
AcDbVertex
100
AcDb2dVertex
 10
619.1073420634989
 20
172.7704653568288
 30
0.0
  0
VERTEX
  5
13302
330
129A4
100
AcDbEntity
  8
DRG
100
AcDbVertex
100
AcDb2dVertex
 10
616.716075566665
 20
176.9122604237817
 30
0.0
  0
VERTEX
  5
13303
330
129A4
100
AcDbEntity
  8
DRG
100
AcDbVertex
100
AcDb2dVertex
 10
611.9335425729992
 20
176.9122604237817
 30
0.0
  0
VERTEX
  5
13304
330
129A4
100
AcDbEntity
  8
DRG
100
AcDbVertex
100
AcDb2dVertex
 10
609.5422760761652
 20
172.7704653568288
 30
0.0
  0
VERTEX
  5
13305
330
129A4
100
AcDbEntity
  8
DRG
100
AcDbVertex
100
AcDb2dVertex
 10
611.9335425729992
 20
168.6286702898768
 30
0.0
  0
SEQEND
  5
13306
330
129A4
100
AcDbEntity
  8
DRG
  0
ARC
  5
129A5
330
1F
100
AcDbEntity
  8
DRG
 48
15.0
100
AcDbCircle
 10
585.3104729722058
 20
144.575541913351
 30
0.0
 40
6.608502898550725
100
AcDbArc
 50
14.99999999999445
 51
90.0
  0
LINE
  5
129A6
330
1F
100
AcDbEntity
  8
AM_7
100
AcDbLine
 10
614.3248090698311
 20
172.7704653568292
 30
0.0
 11
605.1996134176572
 21
172.7704653568292
 31
0.0
1001
GENIUS_GENOREF_13
1005
12A42
  0
LINE
  5
129A7
330
1F
100
AcDbEntity
  8
AM_7
100
AcDbLine
 10
614.3248090698311
 20
172.7704653568292
 30
0.0
 11
614.3248090698311
 21
163.6452697046553
 31
0.0
1001
GENIUS_GENOREF_13
1005
12A42
  0
LINE
  5
129A8
330
1F
100
AcDbEntity
  8
AM_7
100
AcDbLine
 10
579.0665819413284
 20
184.2265593046553
 30
0.0
 11
579.0665819413284
 21
193.3517549568292
 31
0.0
1001
GENIUS_GENOREF_13
1005
12A41
  0
LINE
  5
129A9
330
1F
100
AcDbEntity
  8
AM_7
100
AcDbLine
 10
579.0665819413284
 20
184.2265593046553
 30
0.0
 11
579.0665819413284
 21
175.1013636524813
 31
0.0
1001
GENIUS_GENOREF_13
1005
12A41
  0
LINE
  5
129AA
330
1F
100
AcDbEntity
  8
AM_7
100
AcDbLine
 10
579.0665819413284
 20
184.2265593046553
 30
0.0
 11
588.1917775935023
 21
184.2265593046553
 31
0.0
1001
GENIUS_GENOREF_13
1005
12A41
  0
LINE
  5
129AB
330
1F
100
AcDbEntity
  8
AM_7
  6
CENTER
100
AcDbLine
 10
621.7677083781063
 20
41.13661588351249
 30
0.0
 11
621.7677083781063
 21
78.23710515976597
 31
0.0
  0
LINE
  5
129AC
330
1F
100
AcDbEntity
  8
圖層1
  6
PHANTOM
 62
     2
 48
0.5
100
AcDbLine
 10
630.7677083781063
 20
69.34315895219135
 30
0.0
 11
630.7677083781063
 21
76.43582775916986
 31
0.0
  0
LINE
  5
129AD
330
1F
100
AcDbEntity
  8
圖層1
  6
PHANTOM
 62
     2
 48
0.5
100
AcDbLine
 10
630.7677083781063
 20
69.34315895219135
 30
0.0
 11
625.3135140271855
 21
71.49231418218988
 31
0.0
  0
LINE
  5
129AE
330
1F
100
AcDbEntity
  8
DRG
 48
15.0
100
AcDbLine
 10
649.2184325160401
 20
-40.40301658191004
 30
0.0
 11
649.2184325160401
 21
-54.94226791525955
 31
0.0
  0
LINE
  5
129AF
330
1F
100
AcDbEntity
  8
DRG
 48
15.0
100
AcDbLine
 10
637.4711762017637
 20
-55.95896140184925
 30
0.0
 11
657.116724578142
 21
-67.30132404532844
 31
0.0
  0
ARC
  5
129B0
330
1F
100
AcDbEntity
  8
DRG
 48
15.0
100
AcDbCircle
 10
627.3042413358639
 20
-56.77231619112092
 30
0.0
 40
10.16693486590038
100
AcDbArc
 50
270.0
 51
0.0
  0
LINE
  5
129B1
330
1F
100
AcDbEntity
  8
DRG
 48
15.0
100
AcDbLine
 10
637.4711762017637
 20
-55.95896140184925
 30
0.0
 11
637.4711762017637
 21
-56.77231619112092
 31
0.0
  0
LINE
  5
129B2
330
1F
100
AcDbEntity
  8
DRG
 48
15.0
100
AcDbLine
 10
649.2184325160401
 20
-54.94226791525955
 30
0.0
 11
657.1762251176828
 21
-61.61964875228125
 31
0.0
  0
LINE
  5
129B3
330
1F
100
AcDbEntity
  8
DRG
 48
15.0
100
AcDbLine
 10
629.3105882285986
 20
-33.53654750332691
 30
0.0
 11
641.7922437159891
 21
-33.53654750332691
 31
0.0
  0
ELLIPSE
  5
129B4
330
1F
100
AcDbEntity
  8
DRG
 48
15.0
100
AcDbEllipse
 10
635.183736053154
 20
-33.33859158940652
 30
0.0
 11
7.365378720878977
 21
-1.973547280208897
 31
0.0
210
0.0
220
0.0
230
-1.0
 40
0.3321856030101499
 41
0.3064358819197681
 42
3.448028535509575
  0
LINE
  5
129B5
330
1F
100
AcDbEntity
  8
DRG
 48
15.0
100
AcDbLine
 10
640.7755502293989
 20
-32.51985401673676
 30
0.0
 11
641.7922437159891
 21
-33.53654750332691
 31
0.0
  0
LINE
  5
129B6
330
1F
100
AcDbEntity
  8
DRG
 48
15.0
100
AcDbLine
 10
629.591921876909
 20
-32.51985401673676
 30
0.0
 11
640.7755502293989
 21
-32.51985401673676
 31
0.0
  0
LINE
  5
129B7
330
1F
100
AcDbEntity
  8
DRG
 48
15.0
100
AcDbLine
 10
621.5663462812594
 20
-35.21072952154838
 30
0.0
 11
621.5663462812594
 21
-33.53654750332691
 31
0.0
  0
LINE
  5
129B8
330
1F
100
AcDbEntity
  8
DRG
 48
15.0
100
AcDbLine
 10
628.8903032140011
 20
-33.2214726796443
 30
0.0
 11
629.591921876909
 21
-32.51985401673676
 31
0.0
  0
LINE
  5
129B9
330
1F
100
AcDbEntity
  8
DRG
 48
15.0
100
AcDbLine
 10
620.5496527946693
 20
-32.51985401673676
 30
0.0
 11
621.5663462812594
 21
-33.53654750332691
 31
0.0
  0
LINE
  5
129BA
330
1F
100
AcDbEntity
  8
DRG
 48
15.0
100
AcDbLine
 10
647.6528090124779
 20
-38.12502024872367
 30
0.0
 11
641.7922437159891
 21
-35.87536000642524
 31
0.0
  0
LINE
  5
129BB
330
1F
100
AcDbEntity
  8
DRG
 48
15.0
100
AcDbLine
 10
641.7922437159891
 20
-36.07344186655939
 30
0.0
 11
641.7922437159891
 21
-33.53654750332691
 31
0.0
  0
ARC
  5
129BC
330
1F
100
AcDbEntity
  8
DRG
 48
15.0
100
AcDbCircle
 10
646.7783681482237
 20
-40.40301658191004
 30
0.0
 40
2.440064367816093
100
AcDbArc
 50
0.0
 51
69.00000000000304
  0
LINE
  5
129BD
330
1F
100
AcDbEntity
  8
圖層1
  6
PHANTOM
 62
     2
 48
0.5
100
AcDbLine
 10
622.7406781414113
 20
69.34315895219135
 30
0.0
 11
646.7677083781063
 21
69.34315895219135
 31
0.0
  0
LINE
  5
129BE
330
1F
100
AcDbEntity
  8
圖層1
  6
PHANTOM
 62
     2
 48
0.5
100
AcDbLine
 10
647.7677083781063
 20
44.34315895219135
 30
0.0
 11
647.7677083781063
 21
68.34315895219134
 31
0.0
  0
ARC
  5
129BF
330
1F
100
AcDbEntity
  8
圖層1
  6
PHANTOM
 62
     2
 48
0.5
100
AcDbCircle
 10
646.7677083781063
 20
44.34315895219135
 30
0.0
 40
1.0
100
AcDbArc
 50
270.0
 51
0.0
  0
ARC
  5
129C0
330
1F
100
AcDbEntity
  8
圖層1
  6
PHANTOM
 62
     2
 48
0.5
100
AcDbCircle
 10
646.7677083781063
 20
68.34315895219134
 30
0.0
 40
1.0
100
AcDbArc
 50
0.0
 51
90.0
  0
LINE
  5
129C1
330
1F
100
AcDbEntity
  8
CEN
100
AcDbLine
 10
773.0534992682473
 20
-5.647700281375932
 30
0.0
 11
773.0534992682473
 21
-14.93421462669914
 31
0.0
  0
LINE
  5
129C2
330
1F
100
AcDbEntity
  8
DRG
 48
15.0
100
AcDbLine
 10
775.4284992682474
 20
-7.912193976348703
 30
0.0
 11
775.4284992682474
 21
-12.65118209635295
 31
0.0
  0
LINE
  5
129C3
330
1F
100
AcDbEntity
  8
DRG
 48
15.0
100
AcDbLine
 10
770.6784992682473
 20
-7.912193976348703
 30
0.0
 11
770.6784992682473
 21
-12.65118209635295
 31
0.0
  0
LINE
  5
129C4
330
1F
100
AcDbEntity
  8
DRG
 48
15.0
100
AcDbLine
 10
748.8087537075298
 20
-34.28348737897852
 30
0.0
 11
737.7296850920006
 21
-34.28348737897852
 31
0.0
  0
LINE
  5
129C5
330
1F
100
AcDbEntity
  8
DRG
 48
15.0
100
AcDbLine
 10
746.9439555313665
 20
-35.30018086556867
 30
0.0
 11
736.7129916054123
 21
-35.30018086556867
 31
0.0
  0
LINE
  5
129C6
330
1F
100
AcDbEntity
  8
DRG
 48
15.0
100
AcDbLine
 10
737.9906388776139
 20
-34.28348737897874
 30
0.0
 11
763.0135823471569
 21
-24.67807933029701
 31
0.0
  0
ELLIPSE
  5
129C7
330
1F
100
AcDbEntity
  8
DRG
 48
15.0
100
AcDbEllipse
 10
743.3214992682474
 20
-35.10222495164828
 30
0.0
 11
-7.5
 21
-2.878980262765594
 31
0.0
210
0.0
220
0.0
230
1.0
 40
0.2026042743944043
 41
5.70744749122878
 42
11.22698276580881
  0
ARC
  5
129C8
330
1F
100
AcDbEntity
  8
DRG
 48
15.0
100
AcDbCircle
 10
742.070783424289
 20
-77.89952280304999
 30
0.0
 40
8.0
100
AcDbArc
 50
1.999999999997216
 51
87.99999999999633
  0
LINE
  5
129C9
330
1F
100
AcDbEntity
  8
DRG
 48
15.0
100
AcDbLine
 10
722.0534992682473
 20
-42.05065639699671
 30
0.0
 11
722.0534992682473
 21
-53.95118209635268
 31
0.0
  0
ARC
  5
129CA
330
1F
100
AcDbEntity
  8
DRG
 48
15.0
100
AcDbCircle
 10
731.0534992682473
 20
-59.29429434828228
 30
0.0
 40
10.0
100
AcDbArc
 50
180.0
 51
267.9999999999963
  0
LINE
  5
129CB
330
1F
100
AcDbEntity
  8
DRG
 48
15.0
100
AcDbLine
 10
721.0534992682473
 20
-57.15118209635296
 30
0.0
 11
721.0534992682473
 21
-59.29429434828228
 31
0.0
  0
LINE
  5
129CC
330
1F
100
AcDbEntity
  8
DRG
 48
15.0
100
AcDbLine
 10
722.0534992682473
 20
-57.15118209635296
 30
0.0
 11
722.0534992682473
 21
-53.95118209635268
 31
0.0
  0
LINE
  5
129CD
330
1F
100
AcDbEntity
  8
DRG
 48
15.0
100
AcDbLine
 10
730.8359384839418
 20
-69.50231701822179
 30
0.0
 11
742.3499793979094
 21
-69.90439618689709
 31
0.0
  0
ARC
  5
129CE
330
1F
100
AcDbEntity
  8
DRG
 48
15.0
100
AcDbCircle
 10
730.5567425103212
 20
-77.49744363437469
 30
0.0
 40
8.0
100
AcDbArc
 50
1.999999999997216
 51
87.99999999999633
  0
ARC
  5
129CF
330
1F
100
AcDbEntity
  8
DRG
 48
15.0
100
AcDbCircle
 10
724.453499268247
 20
-42.05065639699671
 30
0.0
 40
2.399999999999999
100
AcDbArc
 50
110.9999999999969
 51
180.0
  0
LINE
  5
129D0
330
1F
100
AcDbEntity
  8
DRG
 48
15.0
100
AcDbLine
 10
723.5934161893379
 20
-39.81006337340352
 30
0.0
 11
737.5671060854187
 21
-34.44606638556035
 31
0.0
  0
LINE
  5
129D1
330
1F
100
AcDbEntity
  8
DRG
 48
15.0
100
AcDbLine
 10
736.7129916054123
 20
-38.35070255359062
 30
0.0
 11
736.7129916054123
 21
-35.30018086556867
 31
0.0
  0
LINE
  5
129D2
330
1F
100
AcDbEntity
  8
DRG
 48
15.0
100
AcDbLine
 10
737.7296850920006
 20
-34.28348737897852
 30
0.0
 11
736.7129916054123
 21
-35.30018086556867
 31
0.0
  0
ARC
  5
129D3
330
1F
100
AcDbEntity
  8
DRG
 48
15.0
100
AcDbCircle
 10
766.953499268247
 20
-15.05118209635304
 30
0.0
 40
2.399999999999999
100
AcDbArc
 50
90.0
 51
180.0
  0
LINE
  5
129D4
330
1F
100
AcDbEntity
  8
DRG
 48
15.0
100
AcDbLine
 10
775.6453134444923
 20
-34.08553146505812
 30
0.0
 11
764.4616850920024
 21
-34.08553146505812
 31
0.0
  0
ELLIPSE
  5
129D5
330
1F
100
AcDbEntity
  8
DRG
 48
15.0
100
AcDbEllipse
 10
770.0534992682474
 20
-35.10222495164828
 30
0.0
 11
-7.5
 21
0.0
 31
0.0
210
0.0
220
0.0
230
1.0
 40
0.3676138507056104
 41
0.0
 42
6.283185307179586
  0
LINE
  5
129D6
330
1F
100
AcDbEntity
  8
DRG
 48
15.0
100
AcDbLine
 10
776.6620069310825
 20
-35.10222495164828
 30
0.0
 11
763.4449916054123
 21
-35.10222495164828
 31
0.0
  0
LINE
  5
129D7
330
1F
100
AcDbEntity
  8
DRG
 48
15.0
100
AcDbLine
 10
763.4449916054123
 20
-36.40596561879226
 30
0.0
 11
763.4449916054123
 21
-35.10222495164828
 31
0.0
  0
LINE
  5
129D8
330
1F
100
AcDbEntity
  8
DRG
 48
15.0
100
AcDbLine
 10
764.4616850920024
 20
-34.08553146505812
 30
0.0
 11
763.4449916054123
 21
-35.10222495164828
 31
0.0
  0
LINE
  5
129D9
330
1F
100
AcDbEntity
  8
DRG
 48
15.0
100
AcDbLine
 10
764.5534992682473
 20
-15.05118209635304
 30
0.0
 11
764.5534992682473
 21
-22.43748630670381
 31
0.0
  0
LINE
  5
129DA
330
1F
100
AcDbEntity
  8
DRG
 48
15.0
100
AcDbLine
 10
764.5534992682473
 20
-22.43748630670381
 30
0.0
 11
764.5534992682473
 21
-23.19937254722629
 31
0.0
  0
ARC
  5
129DB
330
1F
100
AcDbEntity
  8
DRG
 48
15.0
100
AcDbCircle
 10
762.1534992682477
 20
-22.43748630670381
 30
0.0
 40
2.399999999999999
100
AcDbArc
 50
290.9999999999969
 51
0.0
  0
ARC
  5
129DC
330
1F
100
AcDbEntity
  8
DRG
 48
15.0
100
AcDbCircle
 10
762.2481057800937
 20
-23.38137903554172
 30
0.0
 40
2.312566863251242
100
AcDbArc
 50
307.3280832139367
 51
4.514031415717068
  0
LINE
  5
129DD
330
1F
100
AcDbEntity
  8
DRG
 48
15.0
100
AcDbLine
 10
776.6620069310825
 20
-35.10222495164828
 30
0.0
 11
775.6453134444923
 21
-34.08553146505812
 31
0.0
  0
LINE
  5
129DE
330
1F
100
AcDbEntity
  8
DRG
 48
15.0
100
AcDbLine
 10
776.6620069310825
 20
-36.40596561879226
 30
0.0
 11
776.6620069310825
 21
-35.10222495164828
 31
0.0
  0
LINE
  5
129DF
330
1F
100
AcDbEntity
  8
DRG
 48
15.0
100
AcDbLine
 10
770.6784992682473
 20
-7.912193976348703
 30
0.0
 11
775.4284992682474
 21
-7.912193976348703
 31
0.0
  0
DIMENSION
  5
129E0
330
1F
100
AcDbEntity
  8
AM_5
100
AcDbDimension
  2
*D7
 10
686.521891325596
 20
81.84315895219116
 30
0.0
 11
681.421891325596
 21
124.2416868408871
 31
0.0
 70
    32
  3
STANDARD
100
AcDbAlignedDimension
 13
653.2361061972262
 23
166.6402147295829
 33
0.0
 14
653.2361061972467
 24
81.84315895219118
 34
0.0
 50
90.0
100
AcDbRotatedDimension
1001
ACAD
1000
DSTYLE
1002
{
1070
    40
1040
2.0
1070
    44
1040
2.0
1070
   271
1070
     0
1002
}
  0
LINE
  5
129E1
330
1F
100
AcDbEntity
  8
AM_7
100
AcDbLine
 10
636.1155866585254
 20
142.7780291249449
 30
0.0
 11
636.1155866585254
 21
133.652833472771
 31
0.0
1001
GENIUS_GENOREF_13
1005
12A43
  0
LINE
  5
129E2
330
1F
100
AcDbEntity
  8
DRG
 48
15.0
100
AcDbLine
 10
655.1761688059419
 20
84.28322156088677
 30
0.0
 11
655.1761688059419
 21
164.2001521208866
 31
0.0
  0
POLYLINE
  5
129E3
330
1F
100
AcDbEntity
  8
DRG
100
AcDb2dPolyline
 66
     1
 10
0.0
 20
0.0
 30
0.0
 70
     1
  0
VERTEX
  5
13307
330
129E3
100
AcDbEntity
  8
DRG
100
AcDbVertex
100
AcDb2dVertex
 10
638.5068531553574
 20
138.6362340579929
 30
0.0
  0
VERTEX
  5
13308
330
129E3
100
AcDbEntity
  8
DRG
100
AcDbVertex
100
AcDb2dVertex
 10
640.8981196521913
 20
142.7780291249449
 30
0.0
  0
VERTEX
  5
13309
330
129E3
100
AcDbEntity
  8
DRG
100
AcDbVertex
100
AcDb2dVertex
 10
638.5068531553574
 20
146.9198241918974
 30
0.0
  0
VERTEX
  5
1330A
330
129E3
100
AcDbEntity
  8
DRG
100
AcDbVertex
100
AcDb2dVertex
 10
633.7243201616916
 20
146.9198241918974
 30
0.0
  0
VERTEX
  5
1330B
330
129E3
100
AcDbEntity
  8
DRG
100
AcDbVertex
100
AcDb2dVertex
 10
631.3330536648577
 20
142.7780291249449
 30
0.0
  0
VERTEX
  5
1330C
330
129E3
100
AcDbEntity
  8
DRG
100
AcDbVertex
100
AcDb2dVertex
 10
633.7243201616916
 20
138.6362340579929
 30
0.0
  0
SEQEND
  5
1330D
330
129E3
100
AcDbEntity
  8
DRG
  0
CIRCLE
  5
129E4
330
1F
100
AcDbEntity
  8
DRG
 48
15.0
100
AcDbCircle
 10
636.1155866585254
 20
142.7780291249449
 30
0.0
 40
7.625195652173913
  0
CIRCLE
  5
129E5
330
1F
100
AcDbEntity
  8
DRG
100
AcDbCircle
 10
636.1155866585254
 20
142.7780291249449
 30
0.0
 40
5.919014148428894
  0
LINE
  5
129E6
330
1F
100
AcDbEntity
  8
AM_7
100
AcDbLine
 10
636.1155866585254
 20
105.7053445568288
 30
0.0
 11
636.1155866585254
 21
96.58014890465494
 31
0.0
1001
GENIUS_GENOREF_13
1005
12A44
  0
CIRCLE
  5
129E7
330
1F
100
AcDbEntity
  8
DRG
 48
15.0
100
AcDbCircle
 10
636.1155866585254
 20
105.7053445568288
 30
0.0
 40
7.625195652173913
  0
CIRCLE
  5
129E8
330
1F
100
AcDbEntity
  8
DRG
100
AcDbCircle
 10
636.1155866585254
 20
105.7053445568288
 30
0.0
 40
5.919014148428894
  0
POLYLINE
  5
129E9
330
1F
100
AcDbEntity
  8
DRG
100
AcDb2dPolyline
 66
     1
 10
0.0
 20
0.0
 30
0.0
 70
     1
  0
VERTEX
  5
1330E
330
129E9
100
AcDbEntity
  8
DRG
100
AcDbVertex
100
AcDb2dVertex
 10
638.5068531553574
 20
101.5635494898764
 30
0.0
  0
VERTEX
  5
1330F
330
129E9
100
AcDbEntity
  8
DRG
100
AcDbVertex
100
AcDb2dVertex
 10
640.8981196521913
 20
105.7053445568288
 30
0.0
  0
VERTEX
  5
13310
330
129E9
100
AcDbEntity
  8
DRG
100
AcDbVertex
100
AcDb2dVertex
 10
638.5068531553574
 20
109.8471396237808
 30
0.0
  0
VERTEX
  5
13311
330
129E9
100
AcDbEntity
  8
DRG
100
AcDbVertex
100
AcDb2dVertex
 10
633.7243201616916
 20
109.8471396237808
 30
0.0
  0
VERTEX
  5
13312
330
129E9
100
AcDbEntity
  8
DRG
100
AcDbVertex
100
AcDb2dVertex
 10
631.3330536648577
 20
105.7053445568288
 30
0.0
  0
VERTEX
  5
13313
330
129E9
100
AcDbEntity
  8
DRG
100
AcDbVertex
100
AcDb2dVertex
 10
633.7243201616916
 20
101.5635494898764
 30
0.0
  0
SEQEND
  5
13314
330
129E9
100
AcDbEntity
  8
DRG
  0
LINE
  5
129EA
330
1F
100
AcDbEntity
  8
DRG
 48
15.0
100
AcDbLine
 10
653.2361061972465
 20
81.84315895219141
 30
0.0
 11
634.9561147369372
 21
81.84315895219141
 31
0.0
  0
LINE
  5
129EB
330
1F
100
AcDbEntity
  8
圖層1
  6
PHANTOM
 62
     2
 48
0.5
100
AcDbLine
 10
630.4073540498484
 20
76.43582775916986
 30
0.0
 11
630.7677083781063
 21
76.43582775916986
 31
0.0
  0
LINE
  5
129EC
330
1F
100
AcDbEntity
  8
圖層1
  6
PHANTOM
 62
     2
 48
0.5
100
AcDbLine
 10
630.1970538159488
 20
76.2109686584713
 30
0.0
 11
630.7677083781063
 21
76.43582775916986
 31
0.0
  0
ARC
  5
129ED
102
{ACAD_REACTORS
330
128EB
102
}
330
1F
100
AcDbEntity
  8
DRG
 48
15.0
100
AcDbCircle
 10
653.15543740372
 20
83.89858848180381
 30
0.0
 40
2.057011911840249
100
AcDbArc
 50
272.24751588364
 51
10.77696102406628
  0
LINE
  5
129EE
330
1F
100
AcDbEntity
  8
AM_7
100
AcDbLine
 10
636.1155866585254
 20
105.7053445568288
 30
0.0
 11
645.2407823106994
 21
105.7053445568288
 31
0.0
1001
GENIUS_GENOREF_13
1005
12A44
  0
LINE
  5
129EF
330
1F
100
AcDbEntity
  8
AM_7
100
AcDbLine
 10
636.1155866585254
 20
105.7053445568288
 30
0.0
 11
626.9903910063515
 21
105.7053445568288
 31
0.0
1001
GENIUS_GENOREF_13
1005
12A44
  0
LINE
  5
129F0
330
1F
100
AcDbEntity
  8
AM_7
100
AcDbLine
 10
636.1155866585254
 20
105.7053445568288
 30
0.0
 11
636.1155866585254
 21
114.8305402090028
 31
0.0
1001
GENIUS_GENOREF_13
1005
12A44
  0
LINE
  5
129F1
330
1F
100
AcDbEntity
  8
AM_7
100
AcDbLine
 10
636.1155866585254
 20
142.7780291249449
 30
0.0
 11
645.2407823106994
 21
142.7780291249449
 31
0.0
1001
GENIUS_GENOREF_13
1005
12A43
  0
LINE
  5
129F2
330
1F
100
AcDbEntity
  8
DRG
 48
15.0
100
AcDbLine
 10
653.2361061972465
 20
166.6402147295829
 30
0.0
 11
634.9561147369372
 21
166.6402147295829
 31
0.0
  0
LINE
  5
129F3
330
1F
100
AcDbEntity
  8
AM_7
100
AcDbLine
 10
636.1155866585254
 20
142.7780291249449
 30
0.0
 11
626.9903910063515
 21
142.7780291249449
 31
0.0
1001
GENIUS_GENOREF_13
1005
12A43
  0
LINE
  5
129F4
330
1F
100
AcDbEntity
  8
AM_7
100
AcDbLine
 10
636.1155866585254
 20
142.7780291249449
 30
0.0
 11
636.1155866585254
 21
151.9032247771189
 31
0.0
1001
GENIUS_GENOREF_13
1005
12A43
  0
ARC
  5
129F5
330
1F
100
AcDbEntity
  8
DRG
 48
15.0
100
AcDbCircle
 10
653.15543740372
 20
164.5847851999695
 30
0.0
 40
2.057011911840128
100
AcDbArc
 50
349.223038975932
 51
87.75248411635999
  0
LINE
  5
129F6
330
1F
100
AcDbEntity
  8
DRG
 48
15.0
100
AcDbLine
 10
841.4713992260908
 20
-136.8884729810089
 30
0.0
 11
843.55512941002
 21
-77.21824766075463
 31
0.0
  0
LINE
  5
129F7
330
1F
100
AcDbEntity
  8
AM_7
  6
CENTER
100
AcDbLine
 10
791.0534992682474
 20
-201.1712872707549
 30
0.0
 11
791.0534992682474
 21
-6.598000073517482
 31
0.0
  0
LINE
  5
129F8
330
1F
100
AcDbEntity
  8
DRG
 48
15.0
100
AcDbLine
 10
830.2357246537972
 20
-129.3191830840997
 30
0.0
 11
832.7558867809708
 21
-57.15118209635341
 31
0.0
  0
DIMENSION
  5
129F9
102
{ACAD_XDICTIONARY
360
129FA
102
}
102
{ACAD_REACTORS
330
129FB
102
}
330
1F
100
AcDbEntity
  8
AM_5
100
AcDbDimension
  2
*D9
 10
890.9238847081114
 20
-196.4093560378639
 30
0.0
 11
890.9238847081114
 21
-104.5302690671081
 31
0.0
 70
   160
  3
STANDARD
100
AcDbAlignedDimension
 13
815.1534992682478
 23
-12.65118209635295
 33
0.0
 14
819.49333323768
 24
-196.4093560378639
 34
0.0
 50
90.0
100
AcDbRotatedDimension
1001
ACAD
1000
DSTYLE
1002
{
1070
    40
1040
2.0
1070
    44
1040
2.0
1070
   271
1070
     0
1002
}
  0
DIMENSION
  5
129FC
102
{ACAD_XDICTIONARY
360
129FD
102
}
102
{ACAD_REACTORS
330
129FE
102
}
330
1F
100
AcDbEntity
  8
AM_5
100
AcDbDimension
  2
*D10
 10
872.4053636176481
 20
-196.4093560378642
 30
0.0
 11
867.3053636176481
 21
-151.1552690671084
 31
0.0
 70
    32
  3
STANDARD
100
AcDbAlignedDimension
 13
850.1572669960674
 23
-105.9011820963529
 33
0.0
 14
819.49333323768
 24
-196.4093560378642
 34
0.0
 50
90.0
100
AcDbRotatedDimension
1001
ACAD
1000
DSTYLE
1002
{
1070
    40
1040
2.0
1070
    44
1040
2.0
1070
   271
1070
     0
1002
}
  0
LINE
  5
129FF
330
1F
100
AcDbEntity
  8
DRG
 48
15.0
100
AcDbLine
 10
839.3750580681148
 20
-143.7929323601448
 30
0.0
 11
838.9392793543752
 21
-148.7739058506036
 31
0.0
  0
LINE
  5
12A00
330
1F
100
AcDbEntity
  8
DRG
 48
15.0
100
AcDbLine
 10
839.3750580681148
 20
-143.7929323601448
 30
0.0
 11
833.4236306824037
 21
-154.1011069697539
 31
0.0
  0
LINE
  5
12A01
330
1F
100
AcDbEntity
  8
DRG
 48
15.0
100
AcDbLine
 10
828.458499268248
 20
-172.1613936063159
 30
0.0
 11
828.9584992682479
 21
-172.6613936063159
 31
0.0
  0
LINE
  5
12A02
330
1F
100
AcDbEntity
  8
DRG
 48
15.0
100
AcDbLine
 10
828.458499268248
 20
-184.1613936063159
 30
0.0
 11
828.9584992682479
 21
-183.6613936063159
 31
0.0
  0
LINE
  5
12A03
102
{ACAD_REACTORS
330
129FE
102
}
330
1F
100
AcDbEntity
  8
DRG
 48
15.0
100
AcDbLine
 10
819.49333323768
 20
-196.4093560378642
 30
0.0
 11
791.0534992682474
 21
-196.4093560378642
 31
0.0
  0
LINE
  5
12A04
330
1F
100
AcDbEntity
  8
DRG
 48
15.0
100
AcDbLine
 10
828.458499268248
 20
-184.1613936063159
 30
0.0
 11
791.0534992682474
 21
-184.1613936063159
 31
0.0
  0
LINE
  5
12A05
330
1F
100
AcDbEntity
  8
DRG
 48
15.0
100
AcDbLine
 10
805.7504377249456
 20
-196.2913936063159
 30
0.0
 11
805.7504377249456
 21
-184.1613936063159
 31
0.0
  0
LINE
  5
12A06
330
1F
100
AcDbEntity
  8
DRG
 48
15.0
100
AcDbLine
 10
820.245087334309
 20
-184.2793560378641
 30
0.0
 11
820.245087334309
 21
-195.8829721525244
 31
0.0
  0
ARC
  5
12A07
102
{ACAD_REACTORS
330
129FB
102
}
330
1F
100
AcDbEntity
  8
DRG
 48
15.0
100
AcDbCircle
 10
819.49333323768
 20
-195.609356037864
 30
0.0
 40
0.8
100
AcDbArc
 50
270.0
 51
340.0000000000077
  0
LINE
  5
12A08
330
1F
100
AcDbEntity
  8
DRG
 48
15.0
100
AcDbLine
 10
828.458499268248
 20
-172.1613936063159
 30
0.0
 11
791.0534992682474
 21
-172.1613936063159
 31
0.0
  0
LINE
  5
12A09
330
1F
100
AcDbEntity
  8
DRG
 48
15.0
100
AcDbLine
 10
828.9584992682479
 20
-172.6613936063159
 30
0.0
 11
828.9584992682479
 21
-183.6613936063159
 31
0.0
  0
LINE
  5
12A0A
330
1F
100
AcDbEntity
  8
DRG
 48
15.0
100
AcDbLine
 10
829.0534992682474
 20
-172.1511820963529
 30
0.0
 11
832.7276116065691
 21
-162.056641410276
 31
0.0
  0
LINE
  5
12A0B
330
1F
100
AcDbEntity
  8
DRG
 48
15.0
100
AcDbLine
 10
835.8254410742915
 20
-158.9588119425526
 30
0.0
 11
835.9578097397802
 21
-153.9379627043055
 31
0.0
  0
LINE
  5
12A0C
330
1F
100
AcDbEntity
  8
DRG
 48
15.0
100
AcDbLine
 10
832.7276116065672
 20
-162.0566414102778
 30
0.0
 11
833.4236306824037
 21
-154.1011069697534
 31
0.0
  0
LINE
  5
12A0D
330
1F
100
AcDbEntity
  8
DRG
 48
15.0
100
AcDbLine
 10
835.8254410742915
 20
-158.958811942553
 30
0.0
 11
832.7276116065672
 21
-162.0566414102778
 31
0.0
  0
LINE
  5
12A0E
330
1F
100
AcDbEntity
  8
DRG
 48
15.0
100
AcDbLine
 10
835.9578097397802
 20
-153.9379627043055
 30
0.0
 11
833.4236306824037
 21
-154.1011069697539
 31
0.0
  0
LINE
  5
12A0F
330
1F
100
AcDbEntity
  8
DRG
 48
15.0
100
AcDbLine
 10
838.9392793543752
 20
-148.7739058506036
 30
0.0
 11
835.8254410742915
 21
-158.9588119425535
 31
0.0
  0
LINE
  5
12A10
330
1F
100
AcDbEntity
  8
DRG
 48
15.0
100
AcDbLine
 10
838.9392793543752
 20
-148.7739058506036
 30
0.0
 11
835.9578097397802
 21
-153.9379627043055
 31
0.0
  0
ARC
  5
12A11
330
1F
100
AcDbEntity
  8
DRG
 48
15.0
100
AcDbCircle
 10
817.243643902549
 20
-128.8654896269673
 30
0.0
 40
13.0
100
AcDbArc
 50
287.5198470305316
 51
358.0000000000028
  0
LINE
  5
12A12
330
1F
100
AcDbEntity
  8
DRG
 48
15.0
100
AcDbLine
 10
841.3255675400391
 20
-138.1547766354288
 30
0.0
 11
826.3381008338027
 21
-138.1547766354288
 31
0.0
  0
LINE
  5
12A13
330
1F
100
AcDbEntity
  8
DRG
 48
15.0
100
AcDbLine
 10
839.3750580681148
 20
-143.7929323601421
 30
0.0
 11
840.9938135762255
 21
-139.3454381539946
 31
0.0
  0
ARC
  5
12A14
330
1F
100
AcDbEntity
  8
DRG
 48
15.0
100
AcDbCircle
 10
833.4762726099375
 20
-136.6092770073888
 30
0.0
 40
8.0
100
AcDbArc
 50
339.9999999999978
 51
358.0000000000028
  0
LINE
  5
12A15
330
1F
100
AcDbEntity
  8
DRG
 48
15.0
100
AcDbLine
 10
806.6784992682473
 20
-7.912193976348703
 30
0.0
 11
806.6784992682473
 21
-12.65118209635295
 31
0.0
  0
LINE
  5
12A16
330
1F
100
AcDbEntity
  8
DRG
 48
15.0
100
AcDbLine
 10
811.4284992682474
 20
-7.912193976348703
 30
0.0
 11
811.4284992682474
 21
-12.65118209635295
 31
0.0
  0
LINE
  5
12A17
330
1F
100
AcDbEntity
  8
CEN
100
AcDbLine
 10
809.0534992682474
 20
-6.65826228073422
 30
0.0
 11
809.0534992682474
 21
-14.68342815040625
 31
0.0
  0
LINE
  5
12A18
330
1F
100
AcDbEntity
  8
DRG
 48
15.0
100
AcDbLine
 10
844.1163596588808
 20
-34.28348737897852
 30
0.0
 11
819.0934161893379
 21
-24.67807933029701
 31
0.0
  0
ELLIPSE
  5
12A19
330
1F
100
AcDbEntity
  8
DRG
 48
15.0
100
AcDbEllipse
 10
812.0534992682474
 20
-35.10222495164828
 30
0.0
 11
7.5
 21
-0.0000000000000853
 31
0.0
210
0.0
220
0.0
230
-1.0
 40
0.3676138507056104
 41
0.0
 42
6.283185307179586
  0
LINE
  5
12A1A
330
1F
100
AcDbEntity
  8
DRG
 48
15.0
100
AcDbLine
 10
805.4449916054123
 20
-35.10222495164828
 30
0.0
 11
818.6620069310825
 21
-35.10222495164828
 31
0.0
  0
LINE
  5
12A1B
330
1F
100
AcDbEntity
  8
DRG
 48
15.0
100
AcDbLine
 10
806.4616850920025
 20
-34.08553146505812
 30
0.0
 11
817.6453134444923
 21
-34.08553146505812
 31
0.0
  0
LINE
  5
12A1C
330
1F
100
AcDbEntity
  8
DRG
 48
15.0
100
AcDbLine
 10
805.4449916054123
 20
-36.40596561879226
 30
0.0
 11
805.4449916054123
 21
-35.10222495164828
 31
0.0
  0
LINE
  5
12A1D
330
1F
100
AcDbEntity
  8
DRG
 48
15.0
100
AcDbLine
 10
805.4449916054123
 20
-35.10222495164828
 30
0.0
 11
806.4616850920025
 21
-34.08553146505812
 31
0.0
  0
LINE
  5
12A1E
330
1F
100
AcDbEntity
  8
DRG
 48
15.0
100
AcDbLine
 10
817.6453134444923
 20
-34.08553146505812
 30
0.0
 11
818.6620069310825
 21
-35.10222495164828
 31
0.0
  0
LINE
  5
12A1F
330
1F
100
AcDbEntity
  8
DRG
 48
15.0
100
AcDbLine
 10
818.6620069310825
 20
-36.40596561879226
 30
0.0
 11
818.6620069310825
 21
-35.10222495164828
 31
0.0
  0
ARC
  5
12A20
330
1F
100
AcDbEntity
  8
DRG
 48
15.0
100
AcDbCircle
 10
819.858892756401
 20
-23.38137903554172
 30
0.0
 40
2.312566863251242
100
AcDbArc
 50
175.4859685842829
 51
232.6719167860632
  0
ARC
  5
12A21
330
1F
100
AcDbEntity
  8
DRG
 48
15.0
100
AcDbCircle
 10
819.9534992682469
 20
-22.43748630670381
 30
0.0
 40
2.399999999999999
100
AcDbArc
 50
180.0
 51
249.000000000003
  0
LINE
  5
12A22
330
1F
100
AcDbEntity
  8
DRG
 48
15.0
100
AcDbLine
 10
817.5534992682473
 20
-15.05118209635304
 30
0.0
 11
817.5534992682473
 21
-22.43748630670381
 31
0.0
  0
LINE
  5
12A23
330
1F
100
AcDbEntity
  8
DRG
 48
15.0
100
AcDbLine
 10
817.5534992682473
 20
-22.43748630670427
 30
0.0
 11
817.5534992682473
 21
-23.19937254722674
 31
0.0
  0
ARC
  5
12A24
330
1F
100
AcDbEntity
  8
DRG
 48
15.0
100
AcDbCircle
 10
815.1534992682478
 20
-15.05118209635304
 30
0.0
 40
2.399999999999999
100
AcDbArc
 50
0.0
 51
90.0
  0
LINE
  5
12A25
330
1F
100
AcDbEntity
  8
DRG
 48
15.0
100
AcDbLine
 10
860.0534992682474
 20
-42.05065639699671
 30
0.0
 11
860.0534992682474
 21
-53.95118209635268
 31
0.0
  0
LINE
  5
12A26
330
1F
100
AcDbEntity
  8
DRG
 48
15.0
100
AcDbLine
 10
851.402494235273
 20
-69.28820261847352
 30
0.0
 11
839.7570191385852
 21
-69.90439618689709
 31
0.0
  0
ARC
  5
12A27
330
1F
100
AcDbEntity
  8
DRG
 48
15.0
100
AcDbCircle
 10
851.5502560261715
 20
-77.49744363437469
 30
0.0
 40
8.0
100
AcDbArc
 50
92.00000000000366
 51
178.0000000000027
  0
ARC
  5
12A28
330
1F
100
AcDbEntity
  8
DRG
 48
15.0
100
AcDbCircle
 10
840.0362151122058
 20
-77.89952280304999
 30
0.0
 40
8.0
100
AcDbArc
 50
92.00000000000366
 51
178.0000000000027
  0
ARC
  5
12A29
330
1F
100
AcDbEntity
  8
DRG
 48
15.0
100
AcDbCircle
 10
851.0534992682474
 20
-59.29429434828228
 30
0.0
 40
10.0
100
AcDbArc
 50
272.0000000000036
 51
0.0
  0
LINE
  5
12A2A
330
1F
100
AcDbEntity
  8
DRG
 48
15.0
100
AcDbLine
 10
860.0534992682474
 20
-57.15118209635296
 30
0.0
 11
860.0534992682474
 21
-53.95118209635268
 31
0.0
  0
LINE
  5
12A2B
330
1F
100
AcDbEntity
  8
DRG
 48
15.0
100
AcDbLine
 10
861.0534992682474
 20
-57.15118209635296
 30
0.0
 11
861.0534992682474
 21
-59.29429434828228
 31
0.0
  0
LINE
  5
12A2C
330
1F
100
AcDbEntity
  8
DRG
 48
15.0
100
AcDbLine
 10
858.5135823471569
 20
-39.81006337340352
 30
0.0
 11
844.539892451076
 21
-34.44606638556035
 31
0.0
  0
LINE
  5
12A2D
330
1F
100
AcDbEntity
  8
DRG
 48
15.0
100
AcDbLine
 10
835.1630430051281
 20
-35.30018086556867
 30
0.0
 11
845.3940069310824
 21
-35.30018086556867
 31
0.0
  0
LINE
  5
12A2E
330
1F
100
AcDbEntity
  8
DRG
 48
15.0
100
AcDbLine
 10
833.298244828965
 20
-34.28348737897852
 30
0.0
 11
844.377313444494
 21
-34.28348737897852
 31
0.0
  0
ELLIPSE
  5
12A2F
330
1F
100
AcDbEntity
  8
DRG
 48
15.0
100
AcDbEllipse
 10
838.7854992682473
 20
-35.10222495164828
 30
0.0
 11
7.5
 21
-2.878980262765594
 31
0.0
210
0.0
220
0.0
230
-1.0
 40
0.2026042743944043
 41
5.70744749122878
 42
11.22698276580881
  0
LINE
  5
12A30
330
1F
100
AcDbEntity
  8
DRG
 48
15.0
100
AcDbLine
 10
844.377313444494
 20
-34.28348737897852
 30
0.0
 11
845.3940069310824
 21
-35.30018086556867
 31
0.0
  0
LINE
  5
12A31
330
1F
100
AcDbEntity
  8
DRG
 48
15.0
100
AcDbLine
 10
845.3940069310824
 20
-38.35070255359062
 30
0.0
 11
845.3940069310824
 21
-35.30018086556867
 31
0.0
  0
ARC
  5
12A32
330
1F
100
AcDbEntity
  8
DRG
 48
15.0
100
AcDbCircle
 10
857.6534992682477
 20
-42.05065639699671
 30
0.0
 40
2.399999999999999
100
AcDbArc
 50
0.0
 51
69.00000000000304
  0
LINE
  5
12A33
330
1F
100
AcDbEntity
  8
DRG
 48
15.0
100
AcDbLine
 10
806.6784992682473
 20
-7.912193976348703
 30
0.0
 11
811.4284992682474
 21
-7.912193976348703
 31
0.0
  0
INSERT
  5
12A34
330
1F
100
AcDbEntity
  8
AM_5
100
AcDbBlockReference
  2
*S17
 10
0.0
 20
0.0
 30
0.0
  0
TEXT
  5
12A35
330
1F
100
AcDbEntity
  8
AM_5
100
AcDbText
 10
527.679224451955
 20
-215.8616471490956
 30
0.0
 40
6.3
  1
PT 3/4
 41
0.75
  7
DAYUS
 11
527.679224451955
 21
-215.8616471490956
 31
0.0
100
AcDbText
 73
     1
  0
POINT
  5
12A36
330
1F
100
AcDbEntity
  8
0
 60
     1
100
AcDbPoint
 10
2.272797138765781
 20
-51.20484234327898
 30
0.0
1001
GENIUS_GENOLIS_13
1002
{
1000
ENT
1005
1297E
1005
1293C
1005
1297F
1005
12980
1002
}
1001
GENIUS_GENOENT_13
1002
{
1000
MYREF
1005
12A36
1002
}
1002
{
1000
GRP
1005
0
1002
}
1001
GENIUS_GENOBJ-N-CRS_13
1002
{
1000
OWNER
1000
GEN
1002
}
1001
GENIUS_GENODEF_13
1002
{
1000
HIER
1070
    10
1002
}
1002
{
1000
MANEDIT
1070
     0
1002
}
1002
{
1000
NOSEL
1070
     0
1002
}
1002
{
1000
BEHIND
1070
     0
1002
}
1002
{
1000
OTHER
1070
     0
1002
}
1002
{
1000
REACTOR
1002
}
  0
POINT
  5
12A37
330
1F
100
AcDbEntity
  8
0
 60
     1
100
AcDbPoint
 10
2.272797138765781
 20
-51.20484234327898
 30
0.0
1001
GENIUS_GENOENT_13
1002
{
1000
MYREF
1005
12A37
1002
}
1002
{
1000
GRP
1005
0
1002
}
1001
GENIUS_GENOBJ-N-CRS_13
1002
{
1000
OWNER
1000
GEN
1002
}
1001
GENIUS_GENODEF_13
1002
{
1000
HIER
1070
    10
1002
}
1002
{
1000
MANEDIT
1070
     0
1002
}
1002
{
1000
NOSEL
1070
     0
1002
}
1002
{
1000
BEHIND
1070
     0
1002
}
1002
{
1000
OTHER
1070
     0
1002
}
1002
{
1000
REACTOR
1002
}
1001
GENIUS_GENOLIS_13
1002
{
1000
ENT
1005
12976
1005
12975
1005
1296D
1005
12977
1002
}
  0
POINT
  5
12A38
330
1F
100
AcDbEntity
  8
0
 60
     1
100
AcDbPoint
 10
2.272797138765781
 20
-51.20484234327898
 30
0.0
1001
GENIUS_GENOENT_13
1002
{
1000
MYREF
1005
12A38
1002
}
1002
{
1000
GRP
1005
0
1002
}
1001
GENIUS_GENODEF_13
1002
{
1000
HIER
1070
    10
1002
}
1002
{
1000
MANEDIT
1070
     0
1002
}
1002
{
1000
NOSEL
1070
     0
1002
}
1002
{
1000
BEHIND
1070
     0
1002
}
1002
{
1000
OTHER
1070
     0
1002
}
1002
{
1000
REACTOR
1002
}
1001
GENIUS_GENOBJ-N-CRS_13
1002
{
1000
OWNER
1000
GEN
1002
}
1001
GENIUS_GENOLIS_13
1002
{
1000
ENT
1005
12966
1005
12998
1005
1299B
1005
1299C
1002
}
  0
POINT
  5
12A39
330
1F
100
AcDbEntity
  8
0
 60
     1
100
AcDbPoint
 10
2.272797138765781
 20
-51.20484234327898
 30
0.0
1001
GENIUS_GENOLIS_13
1002
{
1000
ENT
1005
12967
1005
12997
1005
129A0
1005
129A1
1002
}
1001
GENIUS_GENOENT_13
1002
{
1000
MYREF
1005
12A39
1002
}
1002
{
1000
GRP
1005
0
1002
}
1001
GENIUS_GENOBJ-N-CRS_13
1002
{
1000
OWNER
1000
GEN
1002
}
1001
GENIUS_GENODEF_13
1002
{
1000
HIER
1070
    10
1002
}
1002
{
1000
MANEDIT
1070
     0
1002
}
1002
{
1000
NOSEL
1070
     0
1002
}
1002
{
1000
BEHIND
1070
     0
1002
}
1002
{
1000
OTHER
1070
     0
1002
}
1002
{
1000
REACTOR
1002
}
  0
POINT
  5
12A3A
330
1F
100
AcDbEntity
  8
0
 60
     1
100
AcDbPoint
 10
2.272797138765781
 20
-51.20484234327898
 30
0.0
1001
GENIUS_GENOENT_13
1002
{
1000
MYREF
1005
12A3A
1002
}
1002
{
1000
GRP
1005
0
1002
}
1001
GENIUS_GENOLIS_13
1002
{
1000
ENT
1005
12981
1005
12979
1005
12986
1005
12985
1002
}
1001
GENIUS_GENODEF_13
1002
{
1000
HIER
1070
    10
1002
}
1002
{
1000
MANEDIT
1070
     0
1002
}
1002
{
1000
NOSEL
1070
     0
1002
}
1002
{
1000
BEHIND
1070
     0
1002
}
1002
{
1000
OTHER
1070
     0
1002
}
1002
{
1000
REACTOR
1002
}
1001
GENIUS_GENOBJ-N-CRS_13
1002
{
1000
OWNER
1000
GEN
1002
}
  0
POINT
  5
12A3B
330
1F
100
AcDbEntity
  8
0
 60
     1
100
AcDbPoint
 10
2.272797138765781
 20
-51.20484234327898
 30
0.0
1001
GENIUS_GENODEF_13
1002
{
1000
HIER
1070
    10
1002
}
1002
{
1000
MANEDIT
1070
     0
1002
}
1002
{
1000
NOSEL
1070
     0
1002
}
1002
{
1000
BEHIND
1070
     0
1002
}
1002
{
1000
OTHER
1070
     0
1002
}
1002
{
1000
REACTOR
1002
}
1001
GENIUS_GENOLIS_13
1002
{
1000
ENT
1005
1296E
1005
1297A
1005
12983
1005
12984
1002
}
1001
GENIUS_GENOENT_13
1002
{
1000
MYREF
1005
12A3B
1002
}
1002
{
1000
GRP
1005
0
1002
}
1001
GENIUS_GENOBJ-N-CRS_13
1002
{
1000
OWNER
1000
GEN
1002
}
  0
POINT
  5
12A3C
330
1F
100
AcDbEntity
  8
0
 60
     1
100
AcDbPoint
 10
2.272797138765781
 20
-51.20484234327898
 30
0.0
1001
GENIUS_GENODEF_13
1002
{
1000
HIER
1070
    10
1002
}
1002
{
1000
MANEDIT
1070
     0
1002
}
1002
{
1000
NOSEL
1070
     0
1002
}
1002
{
1000
BEHIND
1070
     0
1002
}
1002
{
1000
OTHER
1070
     0
1002
}
1002
{
1000
REACTOR
1002
}
1001
GENIUS_GENOLIS_13
1002
{
1000
ENT
1005
12939
1005
12933
1005
128F7
1005
1293A
1002
}
1001
GENIUS_GENOENT_13
1002
{
1000
MYREF
1005
12A3C
1002
}
1002
{
1000
GRP
1005
0
1002
}
1001
GENIUS_GENOBJ-N-CRS_13
1002
{
1000
OWNER
1000
GEN
1002
}
  0
POINT
  5
12A3D
330
1F
100
AcDbEntity
  8
0
 60
     1
100
AcDbPoint
 10
2.272797138765781
 20
-51.20484234327898
 30
0.0
1001
GENIUS_GENODEF_13
1002
{
1000
HIER
1070
    10
1002
}
1002
{
1000
MANEDIT
1070
     0
1002
}
1002
{
1000
NOSEL
1070
     0
1002
}
1002
{
1000
BEHIND
1070
     0
1002
}
1002
{
1000
OTHER
1070
     0
1002
}
1002
{
1000
REACTOR
1002
}
1001
GENIUS_GENOLIS_13
1002
{
1000
ENT
1005
128F8
1005
1293D
1005
12974
1005
12972
1002
}
1001
GENIUS_GENOENT_13
1002
{
1000
MYREF
1005
12A3D
1002
}
1002
{
1000
GRP
1005
0
1002
}
1001
GENIUS_GENOBJ-N-CRS_13
1002
{
1000
OWNER
1000
GEN
1002
}
  0
POINT
  5
12A3E
330
1F
100
AcDbEntity
  8
0
 60
     1
100
AcDbPoint
 10
2.272797138765781
 20
-51.20484234327898
 30
0.0
1001
GENIUS_GENODEF_13
1002
{
1000
HIER
1070
    10
1002
}
1002
{
1000
MANEDIT
1070
     0
1002
}
1002
{
1000
NOSEL
1070
     0
1002
}
1002
{
1000
BEHIND
1070
     0
1002
}
1002
{
1000
OTHER
1070
     0
1002
}
1002
{
1000
REACTOR
1002
}
1001
GENIUS_GENOLIS_13
1002
{
1000
ENT
1005
12951
1005
1294D
1005
12949
1005
12950
1002
}
1001
GENIUS_GENOENT_13
1002
{
1000
MYREF
1005
12A3E
1002
}
1002
{
1000
GRP
1005
0
1002
}
1001
GENIUS_GENOBJ-N-CRS_13
1002
{
1000
OWNER
1000
GEN
1002
}
  0
POINT
  5
12A3F
330
1F
100
AcDbEntity
  8
0
 60
     1
100
AcDbPoint
 10
2.272797138765781
 20
-51.20484234327898
 30
0.0
1001
GENIUS_GENOENT_13
1002
{
1000
MYREF
1005
12A3F
1002
}
1002
{
1000
GRP
1005
0
1002
}
1001
GENIUS_GENOBJ-N-CRS_13
1002
{
1000
OWNER
1000
GEN
1002
}
1001
GENIUS_GENODEF_13
1002
{
1000
HIER
1070
    10
1002
}
1002
{
1000
MANEDIT
1070
     0
1002
}
1002
{
1000
NOSEL
1070
     0
1002
}
1002
{
1000
BEHIND
1070
     0
1002
}
1002
{
1000
OTHER
1070
     0
1002
}
1002
{
1000
REACTOR
1002
}
1001
GENIUS_GENOLIS_13
1002
{
1000
ENT
1005
12945
1005
12960
1005
12965
1005
12963
1002
}
  0
POINT
  5
12A40
330
1F
100
AcDbEntity
  8
0
 60
     1
100
AcDbPoint
 10
2.272797138765781
 20
-51.20484234327898
 30
0.0
1001
GENIUS_GENOENT_13
1002
{
1000
MYREF
1005
12A40
1002
}
1002
{
1000
GRP
1005
0
1002
}
1001
GENIUS_GENOBJ-N-CRS_13
1002
{
1000
OWNER
1000
GEN
1002
}
1001
GENIUS_GENOLIS_13
1002
{
1000
ENT
1005
1299F
1005
1293E
1005
12993
1005
1299E
1002
}
1001
GENIUS_GENODEF_13
1002
{
1000
HIER
1070
    10
1002
}
1002
{
1000
MANEDIT
1070
     0
1002
}
1002
{
1000
NOSEL
1070
     0
1002
}
1002
{
1000
BEHIND
1070
     0
1002
}
1002
{
1000
OTHER
1070
     0
1002
}
1002
{
1000
REACTOR
1002
}
  0
POINT
  5
12A41
330
1F
100
AcDbEntity
  8
0
 60
     1
100
AcDbPoint
 10
2.272797138765781
 20
-51.20484234327898
 30
0.0
1001
GENIUS_GENOBJ-N-CRS_13
1002
{
1000
OWNER
1000
GEN
1002
}
1001
GENIUS_GENODEF_13
1002
{
1000
HIER
1070
    10
1002
}
1002
{
1000
MANEDIT
1070
     0
1002
}
1002
{
1000
NOSEL
1070
     0
1002
}
1002
{
1000
BEHIND
1070
     0
1002
}
1002
{
1000
OTHER
1070
     0
1002
}
1002
{
1000
REACTOR
1002
}
1001
GENIUS_GENOLIS_13
1002
{
1000
ENT
1005
129A9
1005
1298E
1005
129A8
1005
129AA
1002
}
1001
GENIUS_GENOENT_13
1002
{
1000
MYREF
1005
12A41
1002
}
1002
{
1000
GRP
1005
0
1002
}
  0
POINT
  5
12A42
330
1F
100
AcDbEntity
  8
0
 60
     1
100
AcDbPoint
 10
2.272797138765781
 20
-51.20484234327898
 30
0.0
1001
GENIUS_GENODEF_13
1002
{
1000
HIER
1070
    10
1002
}
1002
{
1000
MANEDIT
1070
     0
1002
}
1002
{
1000
NOSEL
1070
     0
1002
}
1002
{
1000
BEHIND
1070
     0
1002
}
1002
{
1000
OTHER
1070
     0
1002
}
1002
{
1000
REACTOR
1002
}
1001
GENIUS_GENOLIS_13
1002
{
1000
ENT
1005
129A7
1005
129A6
1005
129A3
1005
128DF
1002
}
1001
GENIUS_GENOENT_13
1002
{
1000
MYREF
1005
12A42
1002
}
1002
{
1000
GRP
1005
0
1002
}
1001
GENIUS_GENOBJ-N-CRS_13
1002
{
1000
OWNER
1000
GEN
1002
}
  0
POINT
  5
12A43
330
1F
100
AcDbEntity
  8
0
 60
     1
100
AcDbPoint
 10
2.272797138765781
 20
-51.20484234327898
 30
0.0
1001
GENIUS_GENODEF_13
1002
{
1000
HIER
1070
    10
1002
}
1002
{
1000
MANEDIT
1070
     0
1002
}
1002
{
1000
NOSEL
1070
     0
1002
}
1002
{
1000
BEHIND
1070
     0
1002
}
1002
{
1000
OTHER
1070
     0
1002
}
1002
{
1000
REACTOR
1002
}
1001
GENIUS_GENOENT_13
1002
{
1000
MYREF
1005
12A43
1002
}
1002
{
1000
GRP
1005
0
1002
}
1001
GENIUS_GENOBJ-N-CRS_13
1002
{
1000
OWNER
1000
GEN
1002
}
1001
GENIUS_GENOLIS_13
1002
{
1000
ENT
1005
129E1
1005
129F3
1005
129F4
1005
129F1
1002
}
  0
POINT
  5
12A44
330
1F
100
AcDbEntity
  8
0
 60
     1
100
AcDbPoint
 10
2.272797138765781
 20
-51.20484234327898
 30
0.0
1001
GENIUS_GENODEF_13
1002
{
1000
HIER
1070
    10
1002
}
1002
{
1000
MANEDIT
1070
     0
1002
}
1002
{
1000
NOSEL
1070
     0
1002
}
1002
{
1000
BEHIND
1070
     0
1002
}
1002
{
1000
OTHER
1070
     0
1002
}
1002
{
1000
REACTOR
1002
}
1001
GENIUS_GENOENT_13
1002
{
1000
MYREF
1005
12A44
1002
}
1002
{
1000
GRP
1005
0
1002
}
1001
GENIUS_GENOBJ-N-CRS_13
1002
{
1000
OWNER
1000
GEN
1002
}
1001
GENIUS_GENOLIS_13
1002
{
1000
ENT
1005
129E6
1005
129EF
1005
129F0
1005
129EE
1002
}
  0
POINT
  5
12A45
330
1F
100
AcDbEntity
  8
0
 60
     1
100
AcDbPoint
 10
2.272797138765781
 20
-51.20484234327898
 30
0.0
1001
GENIUS_GENODEF_13
1002
{
1000
HIER
1070
    10
1002
}
1002
{
1000
MANEDIT
1070
     0
1002
}
1002
{
1000
NOSEL
1070
     0
1002
}
1002
{
1000
BEHIND
1070
     0
1002
}
1002
{
1000
OTHER
1070
     0
1002
}
1002
{
1000
REACTOR
1002
}
1001
GENIUS_GENOLIS_13
1002
{
1000
ENT
1005
128F9
1005
12989
1005
1298B
1005
128E0
1002
}
1001
GENIUS_GENOENT_13
1002
{
1000
MYREF
1005
12A45
1002
}
1002
{
1000
GRP
1005
0
1002
}
1001
GENIUS_GENOBJ-N-CRS_13
1002
{
1000
OWNER
1000
GEN
1002
}
  0
POINT
  5
12A46
330
1F
100
AcDbEntity
  8
0
 60
     1
100
AcDbPoint
 10
2.272797138765781
 20
-51.20484234327898
 30
0.0
1001
GENIUS_GENOENT_13
1002
{
1000
MYREF
1005
12A46
1002
}
1002
{
1000
GRP
1005
0
1002
}
1001
GENIUS_GENOBJ-N-CRS_13
1002
{
1000
OWNER
1000
GEN
1002
}
1001
GENIUS_GENOLIS_13
1002
{
1000
ENT
1005
0
1005
1293F
1005
0
1005
0
1002
}
1001
GENIUS_GENODEF_13
1002
{
1000
HIER
1070
    10
1002
}
1002
{
1000
MANEDIT
1070
     1
1002
}
1002
{
1000
NOSEL
1070
     0
1002
}
1002
{
1000
BEHIND
1070
     0
1002
}
1002
{
1000
OTHER
1070
     0
1002
}
1002
{
1000
REACTOR
1002
}
  0
TEXT
  5
12C1C
330
1F
100
AcDbEntity
  8
AM_5
100
AcDbText
 10
451.7475311679415
 20
-133.3879564279666
 30
0.0
 40
6.3
  1
2-PT 2
 41
0.75
  7
DAYUS
 11
451.7475311679415
 21
-133.3879564279666
 31
0.0
100
AcDbText
 73
     1
  0
POLYLINE
  5
12FF8
330
1F
100
AcDbEntity
  8
0
 62
     4
100
AcDb2dPolyline
 66
     1
 10
0.0
 20
0.0
 30
0.0
 70
     1
  0
VERTEX
  5
12FF9
330
12FF8
100
AcDbEntity
  8
0
 62
     4
100
AcDbVertex
100
AcDb2dVertex
 10
962.3364515577261
 20
-248.2712438265293
 30
0.0
  0
VERTEX
  5
12FFA
330
12FF8
100
AcDbEntity
  8
0
 62
     4
100
AcDbVertex
100
AcDb2dVertex
 10
402.6407660137543
 20
-248.2712438265293
 30
0.0
  0
VERTEX
  5
12FFB
330
12FF8
100
AcDbEntity
  8
0
 62
     4
100
AcDbVertex
100
AcDb2dVertex
 10
402.6407660137543
 20
237.6206400262473
 30
0.0
  0
VERTEX
  5
12FFC
330
12FF8
100
AcDbEntity
  8
0
 62
     4
100
AcDbVertex
100
AcDb2dVertex
 10
962.3364515577261
 20
237.6206400262473
 30
0.0
  0
SEQEND
  5
12FFD
330
12FF8
100
AcDbEntity
  8
0
 62
     4
  0
TEXT
  5
12FFE
330
1F
100
AcDbEntity
  8
LOGO
 62
     6
100
AcDbText
 10
486.96931585459
 20
-302.169651181524
 30
0.0
 40
9.799710428180855
  1
單位 Unit:
 41
0.9
  7
CHINESET
 72
     4
 11
513.7041508664709
 21
-297.2697959674336
 31
0.0
100
AcDbText
  0
TEXT
  5
12FFF
330
1F
100
AcDbEntity
  8
LOGO
 62
     6
100
AcDbText
 10
486.0112191654063
 20
-282.4323817081648
 30
0.0
 40
9.799710428180855
  1
投影 View:
 41
0.9
  7
CHINESET
 72
     4
 11
513.7041508664709
 21
-277.6703751110719
 31
0.0
100
AcDbText
  0
TEXT
  5
13000
330
1F
100
AcDbEntity
  8
LOGO
 62
     6
100
AcDbText
 10
482.5856953862698
 20
-262.9659867766607
 30
0.0
 40
9.799710428180855
  1
比例 Scale:
 41
0.9
  7
CHINESET
 72
     4
 11
513.7041508664709
 21
-258.0709542547101
 31
0.0
100
AcDbText
  0
TEXT
  5
13001
330
1F
100
AcDbEntity
  8
LOGO
  6
CONTINUOUS
 62
     5
100
AcDbText
 10
410.0574457029305
 20
-341.7194104673484
 30
0.0
 40
9.799710428180855
  1
MINDMAN INDUSTRIAL CO.,LTD
 41
0.85
  7
CHINESET
100
AcDbText
  0
TEXT
  5
13002
330
1F
100
AcDbEntity
  8
LOGO
  6
CONTINUOUS
 62
     5
100
AcDbText
 10
405.848376696249
 20
-327.0169648627017
 30
0.0
 40
14.69956564227128
  1
金器工業股份有限公司
 41
0.8
  7
LOGO
100
AcDbText
  0
LINE
  5
13003
330
1F
100
AcDbEntity
  8
LOGO
 62
     1
100
AcDbLine
 10
618.2343954337332
 20
-307.0695063956143
 30
0.0
 11
402.6407660137543
 21
-307.0695063956143
 31
0.0
  0
LINE
  5
13004
330
1F
100
AcDbEntity
  8
LOGO
 62
     1
100
AcDbLine
 10
618.2343954337332
 20
-287.4700855392527
 30
0.0
 11
474.5053091537471
 21
-287.4700855392527
 31
0.0
  0
LINE
  5
13005
330
1F
100
AcDbEntity
  8
LOGO
 62
     1
100
AcDbLine
 10
618.2343954337332
 20
-267.8706646828909
 30
0.0
 11
474.5053091537471
 21
-267.8706646828909
 31
0.0
  0
LINE
  5
13006
330
1F
100
AcDbEntity
  8
LOGO
 62
     1
100
AcDbLine
 10
962.3364515577261
 20
-346.2683481083378
 30
0.0
 11
402.6407660137543
 21
-346.2683481083378
 31
0.0
  0
LINE
  5
13007
330
1F
100
AcDbEntity
  8
LOGO
 62
     1
100
AcDbLine
 10
962.3364515577261
 20
-248.2712438265293
 30
0.0
 11
402.6407660137543
 21
-248.2712438265293
 31
0.0
  0
LINE
  5
13008
330
1F
100
AcDbEntity
  8
LOGO
 62
     1
100
AcDbLine
 10
402.6407660137543
 20
-346.2683481083378
 30
0.0
 11
402.6407660137543
 21
-248.2712438265293
 31
0.0
  0
SOLID
  5
13009
330
1F
100
AcDbEntity
  8
LOGO
 62
     2
100
AcDbTrace
 10
417.0452605011264
 20
-290.7788826877041
 30
0.0
 11
418.798558836885
 21
-290.7788826877025
 31
0.0
 12
438.9614896980778
 22
-250.599129159962
 32
0.0
 13
440.7147880338349
 23
-250.599129159962
 33
0.0
  0
SOLID
  5
1300A
330
1F
100
AcDbEntity
  8
LOGO
 62
     5
100
AcDbTrace
 10
418.798558836885
 20
-290.7788826877025
 30
0.0
 11
423.0356964816283
 21
-290.7788826877025
 31
0.0
 12
438.9614896980778
 22
-253.8135094421801
 32
0.0
 13
434.7243520533345
 23
-269.3496808062413
 33
0.0
  0
SOLID
  5
1300B
330
1F
100
AcDbEntity
  8
LOGO
 62
     5
100
AcDbTrace
 10
412.8081228563828
 20
-290.7788826877025
 30
0.0
 11
417.0452605011264
 21
-290.7788826877041
 31
0.0
 12
434.7243520533345
 22
-250.5991291599591
 32
0.0
 13
438.9614896980778
 23
-250.599129159962
 33
0.0
  0
SOLID
  5
1300C
330
1F
100
AcDbEntity
  8
LOGO
 62
     5
100
AcDbTrace
 10
420.3568027327866
 20
-298.0842924200197
 30
0.0
 11
421.817884679253
 21
-298.0842924200197
 31
0.0
 12
420.3568027327866
 22
-305.3897021523382
 32
0.0
 13
421.817884679253
 23
-305.3897021523354
 33
0.0
  0
SOLID
  5
1300D
330
1F
100
AcDbEntity
  8
LOGO
 62
     5
100
AcDbTrace
 10
411.5905545676644
 20
-305.3897021523354
 30
0.0
 11
413.0516365141268
 21
-305.3897021523354
 31
0.0
 12
417.166156996901
 22
-298.0842924200197
 32
0.0
 13
418.627238943363
 23
-298.0842924200197
 33
0.0
  0
SOLID
  5
1300E
330
1F
100
AcDbEntity
  8
LOGO
 62
     5
100
AcDbTrace
 10
411.5905545676644
 20
-298.0842924200197
 30
0.0
 11
413.0516365141268
 21
-298.0842924200197
 31
0.0
 12
411.5905545676644
 22
-305.3897021523354
 32
0.0
 13
413.0516365141268
 23
-305.3897021523354
 33
0.0
  0
SOLID
  5
1300F
330
1F
100
AcDbEntity
  8
LOGO
 62
     5
100
AcDbTrace
 10
406.0149521384289
 20
-305.3897021523354
 30
0.0
 11
407.4760340848938
 21
-305.3897021523354
 31
0.0
 12
411.5905545676644
 22
-298.0842924200197
 32
0.0
 13
413.0516365141268
 23
-298.0842924200197
 33
0.0
  0
SOLID
  5
13010
330
1F
100
AcDbEntity
  8
LOGO
 62
     5
100
AcDbTrace
 10
417.166156996901
 20
-298.0842924200197
 30
0.0
 11
418.627238943363
 21
-298.0842924200197
 31
0.0
 12
417.166156996901
 22
-305.3897021523354
 32
0.0
 13
418.627238943363
 23
-305.3897021523354
 33
0.0
  0
SOLID
  5
13011
330
1F
100
AcDbEntity
  8
LOGO
 62
     5
100
AcDbTrace
 10
420.3568027327866
 20
-297.061535057496
 30
0.0
 11
421.817884679253
 21
-297.061535057496
 31
0.0
 12
420.3568027327866
 22
-295.8926695003238
 32
0.0
 13
421.817884679253
 23
-295.8926695003238
 33
0.0
  0
SOLID
  5
13012
330
1F
100
AcDbEntity
  8
LOGO
 62
     2
100
AcDbTrace
 10
438.9614896980778
 20
-290.7788826877025
 30
0.0
 11
440.7147880338349
 21
-290.7788826877025
 31
0.0
 12
460.8777188950275
 22
-250.5991291599591
 32
0.0
 13
462.6310172307851
 23
-250.599129159962
 33
0.0
  0
SOLID
  5
13013
330
1F
100
AcDbEntity
  8
LOGO
 62
     5
100
AcDbTrace
 10
440.7147880338349
 20
-290.7788826877025
 30
0.0
 11
444.9519256785777
 21
-290.7788826877025
 31
0.0
 12
460.8777188950275
 22
-253.8135094421801
 32
0.0
 13
456.6405812502838
 23
-269.3496808062413
 33
0.0
  0
SOLID
  5
13014
330
1F
100
AcDbEntity
  8
LOGO
 62
     5
100
AcDbTrace
 10
460.8777188950275
 20
-253.8135094421801
 30
0.0
 11
456.6405812502838
 21
-269.3496808062413
 31
0.0
 12
460.8777188950275
 22
-290.7788826877041
 32
0.0
 13
456.6405812502838
 23
-290.7788826877041
 33
0.0
  0
SOLID
  5
13015
330
1F
100
AcDbEntity
  8
LOGO
 62
     5
100
AcDbTrace
 10
440.7147880338349
 20
-287.5645024054843
 30
0.0
 11
444.9519256785777
 21
-272.0283310414232
 31
0.0
 12
460.8777188950275
 22
-250.5991291599591
 32
0.0
 13
456.6405812502838
 23
-250.5991291599591
 33
0.0
  0
SOLID
  5
13016
330
1F
100
AcDbEntity
  8
LOGO
 62
     2
100
AcDbTrace
 10
438.9614896980778
 20
-250.599129159962
 30
0.0
 11
440.7147880338349
 21
-250.599129159962
 31
0.0
 12
438.9614896980778
 22
-290.7788826877025
 32
0.0
 13
440.7147880338349
 23
-290.7788826877025
 33
0.0
  0
SOLID
  5
13017
330
1F
100
AcDbEntity
  8
LOGO
 62
     5
100
AcDbTrace
 10
440.7147880338349
 20
-250.599129159962
 30
0.0
 11
444.9519256785777
 21
-250.5991291599591
 31
0.0
 12
440.7147880338349
 22
-287.5645024054843
 32
0.0
 13
444.9519256785777
 23
-272.0283310414232
 33
0.0
  0
SOLID
  5
13018
330
1F
100
AcDbEntity
  8
LOGO
 62
     2
100
AcDbTrace
 10
460.8777188950275
 20
-250.5991291599591
 30
0.0
 11
462.6310172307851
 21
-250.599129159962
 31
0.0
 12
460.8777188950275
 22
-290.7788826877041
 32
0.0
 13
462.6310172307851
 23
-290.7788826877041
 33
0.0
  0
SOLID
  5
13019
330
1F
100
AcDbEntity
  8
LOGO
 62
     5
100
AcDbTrace
 10
462.6310172307851
 20
-290.7788826877041
 30
0.0
 11
466.8681548755284
 21
-290.7788826877041
 31
0.0
 12
462.6310172307851
 22
-250.599129159962
 32
0.0
 13
466.8681548755284
 23
-250.5991291599591
 33
0.0
  0
SOLID
  5
1301A
330
1F
100
AcDbEntity
  8
LOGO
 62
     5
100
AcDbTrace
 10
434.7243520533345
 20
-290.7788826877025
 30
0.0
 11
438.9614896980778
 21
-290.7788826877025
 31
0.0
 12
434.7243520533345
 22
-269.3496808062413
 32
0.0
 13
438.9614896980778
 23
-253.8135094421801
 33
0.0
  0
LINE
  5
1301B
330
1F
100
AcDbEntity
  8
LOGO
 62
     1
100
AcDbLine
 10
474.5053091537471
 20
-307.0695063956144
 30
0.0
 11
474.5053091537471
 21
-248.2712438265293
 31
0.0
  0
SOLID
  5
1301C
330
1F
100
AcDbEntity
  8
LOGO
 62
     5
100
AcDbTrace
 10
448.8480467970173
 20
-301.0064563129465
 30
0.0
 11
450.309128743479
 21
-301.0064563129465
 31
0.0
 12
448.8480467970173
 22
-305.3897021523382
 32
0.0
 13
450.309128743479
 23
-305.3897021523382
 33
0.0
  0
SOLID
  5
1301D
330
1F
100
AcDbEntity
  8
LOGO
 62
     5
100
AcDbTrace
 10
444.4648009576282
 20
-301.0064563129465
 30
0.0
 11
445.9258829040903
 21
-301.0064563129465
 31
0.0
 12
444.4648009576282
 22
-305.3897021523354
 32
0.0
 13
445.9258829040903
 23
-305.3897021523354
 33
0.0
  0
SOLID
  5
1301E
330
1F
100
AcDbEntity
  8
LOGO
 62
     5
100
AcDbTrace
 10
427.9057748255788
 20
-301.0064563129465
 30
0.0
 11
429.3668567720431
 21
-301.0064563129465
 31
0.0
 12
427.9057748255788
 22
-305.3897021523354
 32
0.0
 13
429.3668567720431
 23
-305.3897021523354
 33
0.0
  0
SOLID
  5
1301F
330
1F
100
AcDbEntity
  8
LOGO
 62
     5
100
AcDbTrace
 10
423.5225289861899
 20
-298.0842924200197
 30
0.0
 11
424.983610932652
 21
-298.0842924200197
 31
0.0
 12
423.5225289861899
 22
-305.3897021523354
 32
0.0
 13
424.983610932652
 23
-305.3897021523354
 33
0.0
  0
POLYLINE
  5
13020
330
1F
100
AcDbEntity
  8
LOGO
 62
     5
100
AcDb2dPolyline
 66
     1
 10
0.0
 20
0.0
 30
0.0
 70
     1
 40
1.463423423941674
 41
1.463423423941674
  0
VERTEX
  5
13021
330
13020
100
AcDbEntity
  8
LOGO
 62
     5
100
AcDbVertex
100
AcDb2dVertex
 10
431.7975052054501
 20
-301.7369972861782
 30
0.0
 42
1.0
  0
VERTEX
  5
13022
330
13020
100
AcDbEntity
  8
LOGO
 62
     5
100
AcDbVertex
100
AcDb2dVertex
 10
437.651198901217
 20
-301.7369972861782
 30
0.0
 42
1.0
  0
SEQEND
  5
13023
330
13020
100
AcDbEntity
  8
LOGO
 62
     5
  0
SOLID
  5
13024
330
1F
100
AcDbEntity
  8
LOGO
 62
     5
100
AcDbTrace
 10
440.081555118239
 20
-298.0842924200197
 30
0.0
 11
441.5426370647014
 21
-298.0842924200197
 31
0.0
 12
440.081555118239
 22
-305.3897021523354
 32
0.0
 13
441.5426370647014
 23
-305.3897021523354
 33
0.0
  0
SOLID
  5
13025
330
1F
100
AcDbEntity
  8
LOGO
 62
     5
100
AcDbTrace
 10
436.9158288648361
 20
-295.8926695003238
 30
0.0
 11
438.3769108112978
 21
-295.8926695003238
 31
0.0
 12
436.9158288648361
 22
-305.3897021523354
 32
0.0
 13
438.3769108112978
 23
-305.3897021523354
 33
0.0
  0
CIRCLE
  5
13026
330
1F
100
AcDbEntity
  8
LOGO
 62
     5
100
AcDbCircle
 10
455.6666240247726
 20
-301.7369972861775
 30
0.0
 40
2.191622919695052
  0
POLYLINE
  5
13027
330
1F
100
AcDbEntity
  8
LOGO
 62
     5
100
AcDb2dPolyline
 66
     1
 10
0.0
 20
0.0
 30
0.0
 70
     1
  0
VERTEX
  5
13028
330
13027
100
AcDbEntity
  8
LOGO
 62
     5
100
AcDbVertex
100
AcDb2dVertex
 10
453.4750011050771
 20
-301.7369972861775
 30
0.0
 42
1.000000057330635
  0
VERTEX
  5
13029
330
13027
100
AcDbEntity
  8
LOGO
 62
     5
100
AcDbVertex
100
AcDb2dVertex
 10
457.8582469444677
 20
-301.7369972861775
 30
0.0
 42
1.000000057330635
  0
SEQEND
  5
1302A
330
13027
100
AcDbEntity
  8
LOGO
 62
     5
  0
SOLID
  5
1302B
330
1F
100
AcDbEntity
  8
LOGO
 62
     5
100
AcDbTrace
 10
457.8581008362752
 20
-298.0842924200197
 30
0.0
 11
459.3191827827372
 21
-298.0842924200197
 31
0.0
 12
457.8581008362752
 22
-305.3897021523354
 32
0.0
 13
459.3191827827372
 23
-305.3897021523354
 33
0.0
  0
POLYLINE
  5
1302C
330
1F
100
AcDbEntity
  8
LOGO
 62
     5
100
AcDb2dPolyline
 66
     1
 10
0.0
 20
0.0
 30
0.0
 70
     1
 40
1.463423423941674
 41
1.463423423941674
  0
VERTEX
  5
1302D
330
1302C
100
AcDbEntity
  8
LOGO
 62
     5
100
AcDbVertex
100
AcDb2dVertex
 10
452.7397771768883
 20
-301.7369972861782
 30
0.0
 42
1.0
  0
VERTEX
  5
1302E
330
1302C
100
AcDbEntity
  8
LOGO
 62
     5
100
AcDbVertex
100
AcDb2dVertex
 10
458.5934708726547
 20
-301.7369972861782
 30
0.0
 42
1.0
  0
SEQEND
  5
1302F
330
1302C
100
AcDbEntity
  8
LOGO
 62
     5
  0
POLYLINE
  5
13030
330
1F
100
AcDbEntity
  8
LOGO
 62
     5
100
AcDb2dPolyline
 66
     1
 10
0.0
 20
0.0
 30
0.0
 40
1.463423423941674
 41
1.463423423941674
  0
VERTEX
  5
13031
330
13030
100
AcDbEntity
  8
LOGO
 62
     5
100
AcDbVertex
100
AcDb2dVertex
 10
445.1988541470774
 20
-301.0064563129465
 30
0.0
 42
1.0
  0
VERTEX
  5
13032
330
13030
100
AcDbEntity
  8
LOGO
 62
     5
100
AcDbVertex
100
AcDb2dVertex
 10
440.8085838752523
 20
-301.0064563129465
 30
0.0
 42
1.0
  0
SEQEND
  5
13033
330
13030
100
AcDbEntity
  8
LOGO
 62
     5
  0
POLYLINE
  5
13034
330
1F
100
AcDbEntity
  8
LOGO
 62
     5
100
AcDb2dPolyline
 66
     1
 10
0.0
 20
0.0
 30
0.0
 40
1.463423423941674
 41
1.463423423941674
  0
VERTEX
  5
13035
330
13034
100
AcDbEntity
  8
LOGO
 62
     5
100
AcDbVertex
100
AcDb2dVertex
 10
428.6398280150279
 20
-301.0064563129465
 30
0.0
 42
1.0
  0
VERTEX
  5
13036
330
13034
100
AcDbEntity
  8
LOGO
 62
     5
100
AcDbVertex
100
AcDb2dVertex
 10
424.2495577432029
 20
-301.0064563129465
 30
0.0
 42
1.0
  0
SEQEND
  5
13037
330
13034
100
AcDbEntity
  8
LOGO
 62
     5
  0
POLYLINE
  5
13038
330
1F
100
AcDbEntity
  8
LOGO
 62
     5
100
AcDb2dPolyline
 66
     1
 10
0.0
 20
0.0
 30
0.0
 40
1.463423423941674
 41
1.463423423941674
  0
VERTEX
  5
13039
330
13038
100
AcDbEntity
  8
LOGO
 62
     5
100
AcDbVertex
100
AcDb2dVertex
 10
449.5820999864662
 20
-301.0064563129465
 30
0.0
 42
1.0
  0
VERTEX
  5
1303A
330
13038
100
AcDbEntity
  8
LOGO
 62
     5
100
AcDbVertex
100
AcDb2dVertex
 10
445.191829714641
 20
-301.0064563129465
 30
0.0
 42
1.0
  0
SEQEND
  5
1303B
330
13038
100
AcDbEntity
  8
LOGO
 62
     5
  0
SOLID
  5
1303C
330
1F
100
AcDbEntity
  8
LOGO
 62
     5
100
AcDbTrace
 10
465.407072929066
 20
-301.0064563129465
 30
0.0
 11
466.8681548755284
 21
-301.0064563129468
 31
0.0
 12
465.407072929066
 22
-305.3897021523354
 32
0.0
 13
466.8681548755284
 23
-305.3897021523354
 33
0.0
  0
LINE
  5
1303D
330
1F
100
AcDbEntity
  8
LOGO
 62
     5
100
AcDbLine
 10
466.8681548755284
 20
-305.3897021523354
 30
0.0
 11
466.8681548755284
 21
-301.0064563129465
 31
0.0
  0
SOLID
  5
1303E
330
1F
100
AcDbEntity
  8
LOGO
 62
     5
100
AcDbTrace
 10
461.0238270896744
 20
-305.3897021523354
 30
0.0
 11
462.4849090361391
 21
-305.3897021523354
 31
0.0
 12
461.0238270896744
 22
-298.0842924200197
 32
0.0
 13
462.4849090361391
 23
-298.0842924200197
 33
0.0
  0
POLYLINE
  5
1303F
330
1F
100
AcDbEntity
  8
LOGO
 62
     5
100
AcDb2dPolyline
 66
     1
 10
0.0
 20
0.0
 30
0.0
 40
1.463423423941674
 41
1.463423423941674
  0
VERTEX
  5
13040
330
1303F
100
AcDbEntity
  8
LOGO
 62
     5
100
AcDbVertex
100
AcDb2dVertex
 10
466.1411261185151
 20
-301.0064563129465
 30
0.0
 42
1.0
  0
VERTEX
  5
13041
330
1303F
100
AcDbEntity
  8
LOGO
 62
     5
100
AcDbVertex
100
AcDb2dVertex
 10
461.7508558466901
 20
-301.0064563129465
 30
0.0
 42
1.0
  0
SEQEND
  5
13042
330
1303F
100
AcDbEntity
  8
LOGO
 62
     5
  0
LINE
  5
13043
330
1F
100
AcDbEntity
  8
LOGO
 62
     6
100
AcDbLine
 10
845.2239729542123
 20
-338.1019227515205
 30
0.0
 11
779.8925700996731
 21
-338.1019227515206
 31
0.0
  0
LINE
  5
13044
330
1F
100
AcDbEntity
  8
LOGO
 62
     6
100
AcDbLine
 10
845.2239729542123
 20
-302.169651181524
 30
0.0
 11
779.8925700996731
 21
-302.169651181524
 31
0.0
  0
LINE
  5
13045
330
1F
100
AcDbEntity
  8
LOGO
 62
     6
100
AcDbLine
 10
872.091480012806
 20
-287.4700855392527
 30
0.0
 11
753.0250630410789
 21
-287.4700855392527
 31
0.0
  0
LINE
  5
13046
330
1F
100
AcDbEntity
  8
LOGO
 62
     6
100
AcDbLine
 10
872.091480012806
 20
-258.0709542547101
 30
0.0
 11
753.0250630410789
 21
-258.0709542547101
 31
0.0
  0
TEXT
  5
13047
330
1F
100
AcDbEntity
  8
LOGO
  6
CONTINUOUS
 62
     7
100
AcDbText
 10
768.0356997775764
 20
-280.9369452537988
 30
0.0
 40
16.33285071363476
  1
MAR901
  7
CHINESET
 72
     1
 11
811.5899683472692
 21
-272.7705198969814
 31
0.0
100
AcDbText
 73
     2
  0
TEXT
  5
13048
330
1F
100
AcDbEntity
  8
LOGO
 62
     7
100
AcDbText
 10
623.9117386600688
 20
-291.2021076491669
 30
0.0
 40
13.0662805709078
  1
Order example:
 41
0.8
  7
CHINESET
100
AcDbText
  0
TEXT
  5
13049
330
1F
100
AcDbEntity
  8
LOGO
 62
     7
100
AcDbText
 10
626.2559374482338
 20
-272.8074900132418
 30
0.0
 40
19.59942085636171
  1
訂購代號:
  7
CHINESET
100
AcDbText
  0
LINE
  5
1304A
330
1F
100
AcDbEntity
  8
LOGO
 62
     1
100
AcDbLine
 10
618.2343954337332
 20
-346.2683481083378
 30
0.0
 11
618.2343954337332
 21
-248.2712438265293
 31
0.0
  0
CIRCLE
  5
1304B
330
1F
100
AcDbEntity
  8
LOGO
  6
CONTINUOUS
 62
     6
100
AcDbCircle
 10
571.0483821653751
 20
-277.6494134587535
 30
0.0
 40
3.333802622683634
  0
CIRCLE
  5
1304C
330
1F
100
AcDbEntity
  8
LOGO
  6
CONTINUOUS
 62
     6
100
AcDbCircle
 10
571.0483821653751
 20
-277.6494134587535
 30
0.0
 40
5.689942533783899
  0
TEXT
  5
1304D
330
1F
100
AcDbEntity
  8
LOGO
 62
     6
100
AcDbText
 10
567.6041740637235
 20
-262.9708094688006
 30
0.0
 40
9.799710428180855
  1
1 : 1
  7
CHINESET
 72
     1
 11
584.8703305324232
 21
-258.0709542547101
 31
0.0
100
AcDbText
 73
     2
  0
TEXT
  5
1304E
330
1F
100
AcDbEntity
  8
LOGO
 62
     6
100
AcDbText
 10
567.6041740637235
 20
-302.169651181524
 30
0.0
 40
9.799710428180855
  1
m/m
  7
CHINESET
 72
     1
 11
584.8703305324232
 21
-297.2697959674336
 31
0.0
100
AcDbText
 73
     2
  0
LINE
  5
1304F
330
1F
100
AcDbEntity
  8
LOGO
 62
     1
100
AcDbLine
 10
552.9029925791937
 20
-307.0695063956144
 30
0.0
 11
552.9029925791937
 21
-248.2712438265293
 31
0.0
  0
LINE
  5
13050
330
1F
100
AcDbEntity
  8
LOGO
 62
     6
100
AcDbLine
 10
606.8046412806856
 20
-283.3393559925374
 30
0.0
 11
606.8046412806856
 21
-271.9594709249696
 31
0.0
  0
LINE
  5
13051
330
1F
100
AcDbEntity
  8
LOGO
 62
     6
100
AcDbLine
 10
588.9669980555585
 20
-280.9832160814371
 30
0.0
 11
588.9669980555585
 21
-274.3156108360699
 31
0.0
  0
LINE
  5
13052
330
1F
100
AcDbEntity
  8
LOGO
  6
CONTINUOUS
 62
     6
100
AcDbLine
 10
588.9669980555585
 20
-280.9832160814371
 30
0.0
 11
606.8046412806856
 21
-283.3393559925374
 31
0.0
  0
LINE
  5
13053
330
1F
100
AcDbEntity
  8
LOGO
  6
CONTINUOUS
 62
     6
100
AcDbLine
 10
588.9669980555585
 20
-274.3156108360699
 30
0.0
 11
606.8046412806856
 21
-271.9594709249696
 31
0.0
  0
LINE
  5
13054
330
1F
100
AcDbEntity
  8
LOGO
 62
     6
100
AcDbLine
 10
779.8925700996731
 20
-302.169651181524
 30
0.0
 11
779.8925700996731
 21
-338.1019227515206
 31
0.0
  0
LINE
  5
13055
330
1F
100
AcDbEntity
  8
LOGO
 62
     6
100
AcDbLine
 10
753.0250630410789
 20
-258.0709542547101
 30
0.0
 11
753.0250630410789
 21
-287.4700855392527
 31
0.0
  0
TEXT
  5
13056
330
1F
100
AcDbEntity
  8
LOGO
  6
CONTINUOUS
 62
     7
100
AcDbText
 10
911.2276530186475
 20
-281.1221608100698
 30
0.0
 40
16.33285071363476
  1
?A
  7
CHINESET
 72
     1
 11
924.4494845487329
 21
-272.9557354532523
 31
0.0
100
AcDbText
 73
     2
  0
LINE
  5
13057
330
1F
100
AcDbEntity
  8
LOGO
 62
     6
100
AcDbLine
 10
950.1330304208723
 20
-287.4700855392527
 30
0.0
 11
895.7171390353062
 21
-287.4700855392527
 31
0.0
  0
LINE
  5
13058
330
1F
100
AcDbEntity
  8
LOGO
 62
     6
100
AcDbLine
 10
950.1330304208735
 20
-258.0709542547101
 30
0.0
 11
895.7171390353062
 21
-258.0709542547101
 31
0.0
  0
TEXT
  5
13059
330
1F
100
AcDbEntity
  8
LOGO
  6
CONTINUOUS
 62
     6
100
AcDbText
 10
900.5257466065332
 20
-334.0187100731118
 30
0.0
 40
8.166425356817381
  1
Bore size
 41
0.8
  7
CHINESET
 72
     4
 11
922.9250847280894
 21
-329.9354973947032
 31
0.0
100
AcDbText
  0
LINE
  5
1305A
330
1F
100
AcDbEntity
  8
LOGO
 62
     6
100
AcDbLine
 10
956.6661707063271
 20
-302.169651181524
 30
0.0
 11
889.1839987498523
 21
-302.169651181524
 31
0.0
  0
LINE
  5
1305B
330
1F
100
AcDbEntity
  8
LOGO
 62
     6
100
AcDbLine
 10
956.6661707063271
 20
-338.1019227515204
 30
0.0
 11
889.1839987498523
 21
-338.1019227515206
 31
0.0
  0
TEXT
  5
1305C
330
1F
100
AcDbEntity
  8
LOGO
 62
     6
100
AcDbText
 10
899.2832833201031
 20
-320.1357869665223
 30
0.0
 40
13.0662805709078
  1
配管口徑
 41
0.9
  7
CHINESET
 72
     4
 11
922.9250847280894
 21
-313.6026466810684
 31
0.0
100
AcDbText
  0
LINE
  5
1305D
330
1F
100
AcDbEntity
  8
LOGO
 62
     6
100
AcDbLine
 10
889.1839987498523
 20
-302.169651181524
 30
0.0
 11
889.1839987498523
 21
-338.1019227515206
 31
0.0
  0
LINE
  5
1305E
330
1F
100
AcDbEntity
  8
LOGO
 62
     6
100
AcDbLine
 10
845.2239729542123
 20
-302.169651181524
 30
0.0
 11
845.2239729542123
 21
-338.1019227515204
 31
0.0
  0
TEXT
  5
1305F
330
1F
100
AcDbEntity
  8
LOGO
  6
CONTINUOUS
 62
     6
100
AcDbText
 10
797.0031756091955
 20
-334.0187100731118
 30
0.0
 40
8.166425356817381
  1
Model
  7
CHINESET
 72
     4
 11
812.5582715269429
 21
-329.9354973947032
 31
0.0
100
AcDbText
  0
TEXT
  5
13060
330
1F
100
AcDbEntity
  8
LOGO
 62
     6
100
AcDbText
 10
799.4919909560351
 20
-319.8014136448258
 30
0.0
 40
13.0662805709078
  1
型式
  7
CHINESET
 72
     4
 11
812.5582715269429
 21
-313.6026466810683
 31
0.0
100
AcDbText
  0
LINE
  5
13061
330
1F
100
AcDbEntity
  8
LOGO
 62
     6
100
AcDbLine
 10
812.5582715269429
 20
-287.4700855392527
 30
0.0
 11
812.5582715269429
 21
-302.169651181524
 31
0.0
  0
LINE
  5
13062
330
1F
100
AcDbEntity
  8
LOGO
 62
     6
100
AcDbLine
 10
895.7171390353062
 20
-258.0709542547101
 30
0.0
 11
895.7171390353062
 21
-287.4700855392527
 31
0.0
  0
LINE
  5
13063
330
1F
100
AcDbEntity
  8
LOGO
 62
     6
100
AcDbLine
 10
872.0914800128063
 20
-258.0709542547101
 30
0.0
 11
872.0914800128063
 21
-287.4700855392527
 31
0.0
  0
LINE
  5
13064
330
1F
100
AcDbEntity
  8
LOGO
 62
     6
100
AcDbLine
 10
923.6169146243367
 20
-287.4700855392527
 30
0.0
 11
923.6169146243367
 21
-302.169651181524
 31
0.0
  0
LINE
  5
13065
330
1F
100
AcDbEntity
  8
LOGO
  6
CONTINUOUS
 62
     7
100
AcDbLine
 10
877.651429685558
 20
-272.8746562661519
 30
0.0
 11
890.6330133341787
 21
-272.8746562661519
 31
0.0
  0
LINE
  5
13066
330
1F
100
AcDbEntity
  8
LOGO
 62
     6
100
AcDbLine
 10
956.6661707063271
 20
-302.169651181524
 30
0.0
 11
956.6661707063271
 21
-338.2374112412394
 31
0.0
  0
LINE
  5
13067
330
1F
100
AcDbEntity
  8
LOGO
 62
     1
100
AcDbLine
 10
962.3364515577261
 20
-346.2683481083378
 30
0.0
 11
962.3364515577261
 21
-248.2712438265293
 31
0.0
  0
LINE
  5
13068
330
1F
100
AcDbEntity
  8
LOGO
 62
     6
100
AcDbLine
 10
950.1330304208735
 20
-258.0709542547101
 30
0.0
 11
950.1330304208723
 21
-287.4700855392527
 31
0.0
  0
ENDSEC
  0
SECTION
  2
OBJECTS
  0
DICTIONARY
  5
C
330
0
100
AcDbDictionary
  3
ACAD_GROUP
350
D
  3
ACAD_IMAGE_DICT
350
F32A
  3
ACAD_IMAGE_VARS
350
F32B
  3
ACAD_LAYOUT
350
1A
  3
ACAD_MLINESTYLE
350
17
  3
ACAD_PLOTSETTINGS
350
19
  3
ACMDICTIONARY
350
43
  3
AMG
350
2B
  3
AMGSNAPSETTINGS
350
240
  3
DWGPROPS
350
130EB
1001
ACAD
1000
TREAT_AS_HARD
1070
     0
  0
DICTIONARY
  5
3A4
330
1F
100
AcDbDictionary
  3
ACAD_INDEX
350
12EB8
  3
ACAD_LAYOUTSELFREF
350
1324E
1001
ACAD
1000
TREAT_AS_HARD
1070
     1
  0
DICTIONARY
  5
1324C
330
1B
100
AcDbDictionary
  3
ACAD_LAYOUTSELFREF
350
1324D
  0
DICTIONARY
  5
128EA
330
128E9
100
AcDbDictionary
  3
ACAD_DIMASSOC
350
128EB
1001
ACAD
1000
TREAT_AS_HARD
1070
     1
  0
DICTIONARY
  5
129FA
330
129F9
100
AcDbDictionary
  3
ACAD_DIMASSOC
350
129FB
1001
ACAD
1000
TREAT_AS_HARD
1070
     1
  0
DICTIONARY
  5
129FD
330
129FC
100
AcDbDictionary
  3
ACAD_DIMASSOC
350
129FE
1001
ACAD
1000
TREAT_AS_HARD
1070
     1
  0
DICTIONARY
  5
D
102
{ACAD_REACTORS
330
C
102
}
330
C
100
AcDbDictionary
1001
ACAD
1000
TREAT_AS_HARD
1070
     0
  0
DICTIONARY
  5
F32A
102
{ACAD_REACTORS
330
C
102
}
330
C
100
AcDbDictionary
1001
ACAD
1000
TREAT_AS_HARD
1070
     0
  0
RASTERVARIABLES
  5
F32B
102
{ACAD_REACTORS
330
C
102
}
330
C
100
AcDbRasterVariables
 90
        0
 70
     0
 71
     1
 72
     1
  0
DICTIONARY
  5
1A
102
{ACAD_REACTORS
330
C
102
}
330
C
100
AcDbDictionary
1001
ACAD
1000
TREAT_AS_HARD
1070
     0
  0
DICTIONARY
  5
17
102
{ACAD_REACTORS
330
C
102
}
330
C
100
AcDbDictionary
  3
STANDARD
350
18
1001
ACAD
1000
TREAT_AS_HARD
1070
     0
  0
DICTIONARY
  5
19
102
{ACAD_REACTORS
330
C
102
}
330
C
100
AcDbDictionary
1001
ACAD
1000
TREAT_AS_HARD
1070
     0
  0
DICTIONARY
  5
43
102
{ACAD_REACTORS
330
C
102
}
330
C
100
AcDbDictionary
  3
ACMSTDDICTIONARY
350
1440
1001
ACAD
1000
TREAT_AS_HARD
1070
     0
  0
DICTIONARY
  5
2B
102
{ACAD_REACTORS
330
C
102
}
330
C
100
AcDbDictionary
  3
ACMGSETTINGS
350
2C
1001
ACAD
1000
TREAT_AS_HARD
1070
     0
  0
DICTIONARY
  5
240
102
{ACAD_REACTORS
330
C
102
}
330
C
100
AcDbDictionary
1001
ACAD
1000
TREAT_AS_HARD
1070
     0
  0
XRECORD
  5
130EB
102
{ACAD_REACTORS
330
C
102
}
330
C
100
AcDbXrecord
  1
DWGPROPS COOKIE
  2

  3

  4

  6

  7

  8

  9

300
AmdtFileType=84
301
=
302
=
303
=
304
=
305
=
306
=
307
=
308
=
309
=
 40
3.691014166666666
 41
2452292.457678333
 42
2453343.336049363
  1

 90
        1
  0
DICTIONARY
  5
12EB8
102
{ACAD_REACTORS
330
3A4
102
}
330
3A4
100
AcDbDictionary
  3
*A1
350
12EB9
1001
ACAD
1000
TREAT_AS_HARD
1070
     0
  0
XRECORD
  5
1324E
102
{ACAD_REACTORS
330
3A4
102
}
330
3A4
100
AcDbXrecord
340
1F
  0
XRECORD
  5
1324D
102
{ACAD_REACTORS
330
1324C
102
}
330
1324C
100
AcDbXrecord
340
1B
  0
DIMASSOC
  5
128EB
102
{ACAD_REACTORS
330
128EA
102
}
330
128EA
100
AcDbDimAssoc
330
128E9
 90
        3
 70
     0
 71
     0
  1
AcDbOsnapPointRef
 72
    13
331
1294F
 73
     2
 91
        0
 40
3.141592653589793
 10
502.9569950767128
 20
84.28322156088677
 30
0.0
 75
     0
  1
AcDbOsnapPointRef
 72
     1
331
129ED
 73
     2
 91
        0
 40
6.283185307179586
 10
655.1761688059424
 20
84.28322156088674
 30
0.0
 75
     0
  0
DIMASSOC
  5
129FB
102
{ACAD_REACTORS
330
129FA
102
}
330
129FA
100
AcDbDimAssoc
330
129F9
 90
        3
 70
     0
 71
     0
  1
AcDbOsnapPointRef
 72
     1
331
12878
 73
     2
 91
        0
 40
1.0
 10
815.1534992682478
 20
-12.65118209635295
 30
0.0
 75
     0
  1
AcDbOsnapPointRef
 72
    13
331
12A07
 73
     2
 91
        0
 40
4.712388980384689
 10
819.49333323768
 20
-196.409356037864
 30
0.0
 75
     0
  0
DIMASSOC
  5
129FE
102
{ACAD_REACTORS
330
129FD
102
}
330
129FD
100
AcDbDimAssoc
330
129FC
 90
        3
 70
     0
 71
     0
  1
AcDbOsnapPointRef
 72
     1
331
12889
 73
     2
 91
        0
 40
1.0
 10
850.1572669960674
 20
-105.9011820963529
 30
0.0
 75
     0
  1
AcDbOsnapPointRef
 72
    13
331
12A03
 73
     2
 91
        0
 40
0.0
 10
819.49333323768
 20
-196.4093560378642
 30
0.0
 75
     0
  0
MLINESTYLE
  5
18
102
{ACAD_REACTORS
330
17
102
}
330
17
100
AcDbMlineStyle
  2
STANDARD
 70
     0
  3

 62
   256
 51
90.0
 52
90.0
 71
     2
 49
0.5
 62
   256
  6
BYLAYER
 49
-0.5
 62
   256
  6
BYLAYER
  0
DICTIONARY
  5
1440
102
{ACAD_REACTORS
330
43
102
}
330
43
100
AcDbDictionary
1001
ACAD
1000
TREAT_AS_HARD
1070
     0
  0
DICTIONARY
  5
2C
102
{ACAD_REACTORS
330
2B
102
}
330
2B
100
AcDbDictionary
  3
DWGSETTINGS
350
2D
1001
ACAD
1000
TREAT_AS_HARD
1070
     0
  0
LAYER_INDEX
  5
12EB9
102
{ACAD_REACTORS
330
12EB8
102
}
330
12EB8
100
AcDbIndex
 40
2453346.616789965
100
AcDbLayerIndex
  8
0
360
12EBA
 90
       23
  8
圖層1
360
12EBB
 90
       12
  8
圖層2
360
12EBC
 90
        4
  8
Defpoints
360
12EBD
 90
        0
  8
AM_5
360
12EBE
 90
       15
  8
AM_REFDIM
360
12EBF
 90
        6
  8
AM_7
360
12EC0
 90
       72
  8
cen
360
12EC1
 90
        2
  8
drg
360
12EC2
 90
      337
  8
hatch
360
12EC3
 90
        2
  8
圖層5
360
12EC4
 90
        0
  8
AM_8
360
12EC5
 90
        2
  8
LOGO
360
12EC6
 90
       86
  0
XRECORD
  5
2D
102
{ACAD_REACTORS
330
2C
102
}
330
2C
100
AcDbXrecord
  1
VERSION
140
15.0
  1
PRODUCT
  2
AutoCAD Mechanical 2000
  0
IDBUFFER
  5
12EBA
330
0
100
AcDbIdBuffer
330
1288C
330
1288E
330
128A9
330
128D9
330
12919
330
12A36
330
12A37
330
12A38
330
12A39
330
12A3A
330
12A3B
330
12A3C
330
12A3D
330
12A3E
330
12A3F
330
12A40
330
12A41
330
12A42
330
12A43
330
12A44
330
12A45
330
12A46
330
12FF8
  0
IDBUFFER
  5
12EBB
330
0
100
AcDbIdBuffer
330
128DD
330
128DE
330
12937
330
12938
330
129AC
330
129AD
330
129BD
330
129BE
330
129BF
330
129C0
330
129EB
330
129EC
  0
IDBUFFER
  5
12EBC
330
0
100
AcDbIdBuffer
330
D169
330
D16D
330
DBAB
330
DBAC
  0
IDBUFFER
  5
12EBD
330
0
100
AcDbIdBuffer
  0
IDBUFFER
  5
12EBE
330
0
100
AcDbIdBuffer
330
D622
330
D62D
330
12873
330
12875
330
12877
330
128E9
330
128F6
330
1293B
330
1295F
330
129E0
330
129F9
330
129FC
330
12A34
330
12A35
330
12C1C
  0
IDBUFFER
  5
12EBF
330
0
100
AcDbIdBuffer
330
20A1
330
21E1
330
21E8
330
950E
330
9515
330
9538
  0
IDBUFFER
  5
12EC0
330
0
100
AcDbIdBuffer
330
12889
330
12893
330
12899
330
128DF
330
128E0
330
128F3
330
128F7
330
128F8
330
128F9
330
128FD
330
12933
330
12939
330
1293A
330
1293C
330
1293D
330
1293E
330
1293F
330
12945
330
12949
330
1294D
330
12950
330
12951
330
12960
330
12963
330
12965
330
12966
330
12967
330
1296D
330
1296E
330
12972
330
12974
330
12975
330
12976
330
12977
330
12979
330
1297A
330
1297E
330
1297F
330
12980
330
12981
330
12983
330
12984
330
12985
330
12986
330
12989
330
1298B
330
1298E
330
12993
330
12997
330
12998
330
1299B
330
1299C
330
1299E
330
1299F
330
129A0
330
129A1
330
129A3
330
129A6
330
129A7
330
129A8
330
129A9
330
129AA
330
129AB
330
129E1
330
129E6
330
129EE
330
129EF
330
129F0
330
129F1
330
129F3
330
129F4
330
129F7
  0
IDBUFFER
  5
12EC1
330
0
100
AcDbIdBuffer
330
129C1
330
12A17
  0
IDBUFFER
  5
12EC2
330
0
100
AcDbIdBuffer
330
12878
330
12879
330
1287A
330
1287B
330
1287C
330
1287D
330
1287E
330
1287F
330
12881
330
12882
330
12883
330
12884
330
12885
330
12886
330
12887
330
12888
330
1288A
330
1288B
330
1288D
330
1288F
330
12890
330
12891
330
12892
330
12894
330
12895
330
12896
330
12897
330
12898
330
1289A
330
1289B
330
1289C
330
1289D
330
1289E
330
1289F
330
128A0
330
128A1
330
128A3
330
128A4
330
128A5
330
128A6
330
128A7
330
128A8
330
128AA
330
128AB
330
128AC
330
128AD
330
128AE
330
128AF
330
128B0
330
128B1
330
128B2
330
128B3
330
128B4
330
128B5
330
128B6
330
128B7
330
128B8
330
128B9
330
128BA
330
128BB
330
128BC
330
128BD
330
128BE
330
128BF
330
128C0
330
128C1
330
128C2
330
128C3
330
128C4
330
128C5
330
128C6
330
128C7
330
128C8
330
128C9
330
128CA
330
128CB
330
128CC
330
128CD
330
128CE
330
128CF
330
128D0
330
128D1
330
128D2
330
128D3
330
128D4
330
128D5
330
128D6
330
128D7
330
128D8
330
128DA
330
128DB
330
128DC
330
128E1
330
128E2
330
128E3
330
128E4
330
128E5
330
128E6
330
128E7
330
128E8
330
128EC
330
128ED
330
128EE
330
128EF
330
128F1
330
128F2
330
128F4
330
128F5
330
128FA
330
128FB
330
128FC
330
128FE
330
128FF
330
12900
330
12901
330
12902
330
12903
330
12904
330
12905
330
12906
330
12907
330
12908
330
12909
330
1290A
330
1290B
330
1290C
330
1290D
330
1290E
330
1290F
330
12910
330
12911
330
12912
330
12913
330
12914
330
12915
330
12916
330
12917
330
12918
330
1291A
330
1291B
330
1291C
330
1291D
330
1291E
330
1291F
330
12920
330
12921
330
12922
330
12923
330
12924
330
12925
330
12926
330
12927
330
12928
330
12929
330
1292A
330
1292B
330
1292C
330
1292D
330
1292E
330
1292F
330
12930
330
12931
330
12932
330
12934
330
12935
330
12936
330
12940
330
12941
330
12942
330
12943
330
12944
330
12946
330
12947
330
12948
330
1294A
330
1294B
330
1294C
330
1294E
330
1294F
330
12952
330
12953
330
12954
330
12955
330
12956
330
12957
330
12958
330
12959
330
1295A
330
1295B
330
1295C
330
1295D
330
1295E
330
12961
330
12962
330
12964
330
12968
330
12969
330
1296A
330
1296B
330
1296C
330
1296F
330
12970
330
12971
330
12973
330
12978
330
1297B
330
1297C
330
1297D
330
12982
330
12987
330
12988
330
1298A
330
1298C
330
1298D
330
1298F
330
12990
330
12991
330
12992
330
12994
330
12995
330
12996
330
12999
330
1299A
330
1299D
330
129A2
330
129A4
330
129A5
330
129AE
330
129AF
330
129B0
330
129B1
330
129B2
330
129B3
330
129B4
330
129B5
330
129B6
330
129B7
330
129B8
330
129B9
330
129BA
330
129BB
330
129BC
330
129C2
330
129C3
330
129C4
330
129C5
330
129C6
330
129C7
330
129C8
330
129C9
330
129CA
330
129CB
330
129CC
330
129CD
330
129CE
330
129CF
330
129D0
330
129D1
330
129D2
330
129D3
330
129D4
330
129D5
330
129D6
330
129D7
330
129D8
330
129D9
330
129DA
330
129DB
330
129DC
330
129DD
330
129DE
330
129DF
330
129E2
330
129E3
330
129E4
330
129E5
330
129E7
330
129E8
330
129E9
330
129EA
330
129ED
330
129F2
330
129F5
330
129F6
330
129F8
330
129FF
330
12A00
330
12A01
330
12A02
330
12A03
330
12A04
330
12A05
330
12A06
330
12A07
330
12A08
330
12A09
330
12A0A
330
12A0B
330
12A0C
330
12A0D
330
12A0E
330
12A0F
330
12A10
330
12A11
330
12A12
330
12A13
330
12A14
330
12A15
330
12A16
330
12A18
330
12A19
330
12A1A
330
12A1B
330
12A1C
330
12A1D
330
12A1E
330
12A1F
330
12A20
330
12A21
330
12A22
330
12A23
330
12A24
330
12A25
330
12A26
330
12A27
330
12A28
330
12A29
330
12A2A
330
12A2B
330
12A2C
330
12A2D
330
12A2E
330
12A2F
330
12A30
330
12A31
330
12A32
330
12A33
  0
IDBUFFER
  5
12EC3
330
0
100
AcDbIdBuffer
330
12880
330
128F0
  0
IDBUFFER
  5
12EC4
330
0
100
AcDbIdBuffer
  0
IDBUFFER
  5
12EC5
330
0
100
AcDbIdBuffer
330
12876
330
128A2
  0
IDBUFFER
  5
12EC6
330
0
100
AcDbIdBuffer
330
12FFE
330
12FFF
330
13000
330
13001
330
13002
330
13003
330
13004
330
13005
330
13006
330
13007
330
13008
330
13009
330
1300A
330
1300B
330
1300C
330
1300D
330
1300E
330
1300F
330
13010
330
13011
330
13012
330
13013
330
13014
330
13015
330
13016
330
13017
330
13018
330
13019
330
1301A
330
1301B
330
1301C
330
1301D
330
1301E
330
1301F
330
13020
330
13024
330
13025
330
13026
330
13027
330
1302B
330
1302C
330
13030
330
13034
330
13038
330
1303C
330
1303D
330
1303E
330
1303F
330
13043
330
13044
330
13045
330
13046
330
13047
330
13048
330
13049
330
1304A
330
1304B
330
1304C
330
1304D
330
1304E
330
1304F
330
13050
330
13051
330
13052
330
13053
330
13054
330
13055
330
13056
330
13057
330
13058
330
13059
330
1305A
330
1305B
330
1305C
330
1305D
330
1305E
330
1305F
330
13060
330
13061
330
13062
330
13063
330
13064
330
13065
330
13066
330
13067
330
13068
  0
ENDSEC
  0
EOF
