  0
SECTION
  2
HEADER
  9
$ACADVER
  1
AC1012
  9
$DWGCODEPAGE
  3
big5
  9
$INSBASE
 10
0.0
 20
0.0
 30
0.0
  9
$EXTMIN
 10
234.3162883739344
 20
120.6493872997379
 30
-0.0000000000000053
  9
$EXTMAX
 10
513.2903552044233
 20
389.3598332993619
 30
0.0000000000000099
  9
$LIMMIN
 10
0.0
 20
0.0
  9
$LIMMAX
 10
420.0
 20
297.0
  9
$ORTHOMODE
 70
     0
  9
$REGENMODE
 70
     1
  9
$FILLMODE
 70
     1
  9
$QTEXTMODE
 70
     0
  9
$MIRRTEXT
 70
     1
  9
$DRAGMODE
 70
     2
  9
$LTSCALE
 40
0.8
  9
$OSMODE
 70
    55
  9
$ATTMODE
 70
     1
  9
$TEXTSIZE
 40
3.0
  9
$TRACEWID
 40
1.0
  9
$TEXTSTYLE
  7
CHINA
  9
$CLAYER
  8
0
  9
$CELTYPE
  6
BYLAYER
  9
$CECOLOR
 62
   256
  9
$CELTSCALE
 40
1.0
  9
$DELOBJ
 70
     1
  9
$DISPSILH
 70
     0
  9
$DIMSCALE
 40
1.0
  9
$DIMASZ
 40
3.0
  9
$DIMEXO
 40
2.0
  9
$DIMDLI
 40
8.0
  9
$DIMRND
 40
0.0
  9
$DIMDLE
 40
0.0
  9
$DIMEXE
 40
1.5
  9
$DIMTP
 40
0.1
  9
$DIMTM
 40
0.1
  9
$DIMTXT
 40
3.0
  9
$DIMCEN
 40
0.0
  9
$DIMTSZ
 40
0.0
  9
$DIMTOL
 70
     0
  9
$DIMLIM
 70
     0
  9
$DIMTIH
 70
     0
  9
$DIMTOH
 70
     0
  9
$DIMSE1
 70
     0
  9
$DIMSE2
 70
     0
  9
$DIMTAD
 70
     1
  9
$DIMZIN
 70
     8
  9
$DIMBLK
  1

  9
$DIMASO
 70
     1
  9
$DIMSHO
 70
     1
  9
$DIMPOST
  1

  9
$DIMAPOST
  1
"
  9
$DIMALT
 70
     0
  9
$DIMALTD
 70
     2
  9
$DIMALTF
 40
0.0393701
  9
$DIMLFAC
 40
1.0
  9
$DIMTOFL
 70
     1
  9
$DIMTVP
 40
0.0
  9
$DIMTIX
 70
     0
  9
$DIMSOXD
 70
     0
  9
$DIMSAH
 70
     0
  9
$DIMBLK1
  1

  9
$DIMBLK2
  1

  9
$DIMSTYLE
  2
AM_ISO
  9
$DIMCLRD
 70
   256
  9
$DIMCLRE
 70
   256
  9
$DIMCLRT
 70
   256
  9
$DIMTFAC
 40
0.71
  9
$DIMGAP
 40
1.0
  9
$DIMJUST
 70
     0
  9
$DIMSD1
 70
     0
  9
$DIMSD2
 70
     0
  9
$DIMTOLJ
 70
     0
  9
$DIMTZIN
 70
     8
  9
$DIMALTZ
 70
     0
  9
$DIMALTTZ
 70
     0
  9
$DIMFIT
 70
     3
  9
$DIMUPT
 70
     0
  9
$DIMUNIT
 70
     2
  9
$DIMDEC
 70
     2
  9
$DIMTDEC
 70
     2
  9
$DIMALTU
 70
     2
  9
$DIMALTTD
 70
     2
  9
$DIMTXSTY
  7
CHINA
  9
$DIMAUNIT
 70
     0
  9
$LUNITS
 70
     2
  9
$LUPREC
 70
     2
  9
$SKETCHINC
 40
1.0
  9
$FILLETRAD
 40
2.5
  9
$AUNITS
 70
     0
  9
$AUPREC
 70
     0
  9
$MENU
  1
.
  9
$ELEVATION
 40
0.0
  9
$PELEVATION
 40
0.0
  9
$THICKNESS
 40
0.0
  9
$LIMCHECK
 70
     0
  9
$BLIPMODE
 70
     0
  9
$CHAMFERA
 40
1.5
  9
$CHAMFERB
 40
1.5
  9
$CHAMFERC
 40
20.0
  9
$CHAMFERD
 40
0.0
  9
$SKPOLY
 70
     0
  9
$TDCREATE
 40
2452794.706235081
  9
$TDUPDATE
 40
2452796.636505822
  9
$TDINDWG
 40
0.0660994444
  9
$TDUSRTIMER
 40
0.0660992130
  9
$USRTIMER
 70
     1
  9
$ANGBASE
 50
0.0
  9
$ANGDIR
 70
     0
  9
$PDMODE
 70
     0
  9
$PDSIZE
 40
0.0
  9
$PLINEWID
 40
0.0
  9
$COORDS
 70
     0
  9
$SPLFRAME
 70
     0
  9
$SPLINETYPE
 70
     6
  9
$SPLINESEGS
 70
     8
  9
$ATTDIA
 70
     1
  9
$ATTREQ
 70
     1
  9
$HANDLING
 70
 22529
  9
$HANDSEED
  5
2000
  9
$SURFTAB1
 70
     6
  9
$SURFTAB2
 70
     6
  9
$SURFTYPE
 70
     6
  9
$SURFU
 70
     6
  9
$SURFV
 70
     6
  9
$UCSNAME
  2

  9
$UCSORG
 10
0.0
 20
0.0
 30
0.0
  9
$UCSXDIR
 10
1.0
 20
0.0
 30
0.0
  9
$UCSYDIR
 10
0.0
 20
1.0
 30
0.0
  9
$PUCSNAME
  2

  9
$PUCSORG
 10
0.0
 20
0.0
 30
0.0
  9
$PUCSXDIR
 10
1.0
 20
0.0
 30
0.0
  9
$PUCSYDIR
 10
0.0
 20
1.0
 30
0.0
  9
$USERI1
 70
     0
  9
$USERI2
 70
     0
  9
$USERI3
 70
     0
  9
$USERI4
 70
     0
  9
$USERI5
 70
     0
  9
$USERR1
 40
0.0
  9
$USERR2
 40
0.0
  9
$USERR3
 40
0.0
  9
$USERR4
 40
0.0
  9
$USERR5
 40
0.0
  9
$WORLDVIEW
 70
     1
  9
$SHADEDGE
 70
     3
  9
$SHADEDIF
 70
    70
  9
$TILEMODE
 70
     1
  9
$MAXACTVP
 70
    64
  9
$PINSBASE
 10
0.0
 20
0.0
 30
0.0
  9
$PLIMCHECK
 70
     0
  9
$PEXTMIN
 10
26.80208481208632
 20
60.62932117531272
 30
-0.0000000000000153
  9
$PEXTMAX
 10
155.7606180029583
 20
204.4099130529699
 30
0.0
  9
$PLIMMIN
 10
-3.757083177566528
 20
-14.7637300491333
  9
$PLIMMAX
 10
206.2162444591522
 20
282.2045927047729
  9
$UNITMODE
 70
     0
  9
$VISRETAIN
 70
     1
  9
$PLINEGEN
 70
     0
  9
$PSLTSCALE
 70
     1
  9
$TREEDEPTH
 70
  3020
  9
$PICKSTYLE
 70
     0
  9
$CMLSTYLE
  2
STANDARD
  9
$CMLJUST
 70
     0
  9
$CMLSCALE
 40
20.0
  9
$SAVEIMAGES
 70
     1
  0
ENDSEC
  0
SECTION
  2
CLASSES
  0
CLASS
  1
ACDBDICTIONARYWDFLT
  2
AcDbDictionaryWithDefault
  3
AutoCAD 2000
 90
    32768
280
     0
281
     0
  0
CLASS
  1
ACDBPLACEHOLDER
  2
AcDbPlaceHolder
  3
AutoCAD 2000
 90
    32768
280
     0
281
     0
  0
CLASS
  1
LAYOUT
  2
AcDbLayout
  3
AutoCAD 2000
 90
    32768
280
     0
281
     0
  0
CLASS
  1
AMGSETTINGSOBJ
  2
AmgSettingsObj
  3
"AcadM|Product Description: AutoCAD Mechanical 2000|Company: Autodesk"
 90
    32768
280
     0
281
     0
  0
CLASS
  1
ACME_DOCUMENT
  2
AcMeDbDoc
  3
AcMeServices
 90
    32768
280
     0
281
     0
  0
CLASS
  1
ACMESCOPE
  2
AcMeScope
  3
AcMeServices
 90
    32768
280
     0
281
     0
  0
CLASS
  1
ACMECOMMANDHISTORY
  2
AcMeCommandHistory
  3
AcMeServices
 90
    32768
280
     0
281
     0
  0
CLASS
  1
ACIMSYSVARMAN
  2
AcImSysVarManager
  3
AcMeServices
 90
    32768
280
     0
281
     0
  0
CLASS
  1
ACIMREALSYSVAR
  2
AcImRealSysVar
  3
AcMeServices
 90
    32768
280
     0
281
     0
  0
CLASS
  1
ACIMINTSYSVAR
  2
AcImIntSysVar
  3
AcMeServices
 90
    32768
280
     0
281
     0
  0
CLASS
  1
ACMEDRAWINGMAN
  2
AcMeDrawingMan
  3
AcMeServices
 90
    32768
280
     0
281
     0
  0
CLASS
  1
ACMEVIEW
  2
AcMeView
  3
AcMeServices
 90
    32768
280
     0
281
     0
  0
CLASS
  1
ACDBENTITYCACHE
  2
AcMeEntityCache
  3
AcMeServices
 90
    32768
280
     0
281
     0
  0
CLASS
  1
GSMANAGER
  2
AcMeGSManager
  3
AcMeServices
 90
    32768
280
     0
281
     0
  0
CLASS
  1
AMDTINTERNALREACTOR
  2
AmdtInternalReactor
  3
AcMeServices
 90
    32768
280
     0
281
     0
  0
CLASS
  1
ACMESTATEMGR
  2
AcMeStateMgr
  3
AcMeServices
 90
    32768
280
     0
281
     0
  0
CLASS
  1
ACGREFMASTER
  2
AcGrefMaster
  3
AcAttribServices
 90
    32768
280
     0
281
     0
  0
CLASS
  1
AM_DRAWING_MGR
  2
AcDmDwgMgr
  3
AcMechDwgViewMgmt
 90
    32768
280
     0
281
     0
  0
CLASS
  1
AM_DWG_DOCUMENT
  2
AcDmDwgDocument
  3
AcMechDwgViewMgmt
 90
    32768
280
     0
281
     0
  0
CLASS
  1
AM_DWG_SHEET
  2
AcDmSheet
  3
AcMechDwgViewMgmt
 90
    32768
280
     0
281
     0
  0
CLASS
  1
AM_VIEWDIMPARMAP
  2
AcDmViewDimParMap
  3
AcMechDwgViewMgmt
 90
    32768
280
     0
281
     0
  0
CLASS
  1
AM_DWGMGR_NAME
  2
AcDmDwgMgrName
  3
AcMechDwgViewMgmt
 90
    32768
280
     0
281
     0
  0
CLASS
  1
ACME_DATABASE
  2
AcMeDbDatabase
  3
AcMeServices
 90
    32768
280
     0
281
     0
  0
CLASS
  1
ACRFINSADJUSTERMGR
  2
AcRfInsAdjusterMgr
  3
AcMeServices
 90
    32768
280
     0
281
     0
  0
CLASS
  1
ACGREFACADMASTER
  2
AcGrefacadMaster
  3
AcGrefServices
 90
    32768
280
     0
281
     0
  0
CLASS
  1
AMDTMENUSTATEMGR
  2
AmdtMenuStateMgr
  3
McadcomServices
 90
    32768
280
     0
281
     0
  0
CLASS
  1
AMDTMCOMMENUSTATE
  2
AmdtMcomMenuState
  3
McadcomServices
 90
    32768
280
     0
281
     0
  0
CLASS
  1
AMIMASTER
  2
AmiMaster
  3
AmiServices
 90
    32768
280
     0
281
     0
  0
CLASS
  1
ASAPP
  2
AcAsAppObject
  3
AutoSurfServices
 90
    32768
280
     0
281
     0
  0
CLASS
  1
IM_STATIC_MAN
  2
AcImStaticVarManager
  3
AcMeServices
 90
    32768
280
     0
281
     0
  0
CLASS
  1
ACIMSTRSYSVAR
  2
AcImStrSysVar
  3
AcMeServices
 90
    32768
280
     0
281
     0
  0
CLASS
  1
ACIMDBLSTATICVAR
  2
AcImDblStaticVar
  3
AcMeServices
 90
    32768
280
     0
281
     0
  0
CLASS
  1
ACIMSTRSTATICVAR
  2
AcImStrStaticVar
  3
AcMeServices
 90
    32768
280
     0
281
     0
  0
CLASS
  1
ACIMINTSTATICVAR
  2
AcImIntStaticVar
  3
AcMeServices
 90
    32768
280
     0
281
     0
  0
CLASS
  1
ACASGREFMASTER
  2
AcAsGrefMaster
  3
AutoSurfResolverServices
 90
    32768
280
     0
281
     0
  0
CLASS
  1
ACADGREFMODULE
  2
AcAdGrefModule
  3
AdGrefServices
 90
    32768
280
     0
281
     0
  0
CLASS
  1
AMDTMAPISURFMOUDULE
  2
AmdtMApiSurfModule
  3
MApiSurfServices
 90
    32768
280
     0
281
     0
  0
CLASS
  1
MAPIAMMOUDLE
  2
MApiAmModule
  3
MApiAmServices
 90
    32768
280
     0
281
     0
  0
CLASS
  1
AMDTADMENUSTATE
  2
AmdtAdMenuState
  3
DesignerServices
 90
    32768
280
     0
281
     0
  0
CLASS
  1
ADAPPL
  2
AcAdAppl
  3
DesignerServices
 90
    32768
280
     0
281
     0
  0
CLASS
  1
DEPMGR
  2
AcAdDepMgr
  3
DesignerServices
 90
    32768
280
     0
281
     0
  0
CLASS
  1
PARAMMGR
  2
AcAdParamMgr
  3
DesignerServices
 90
    32768
280
     0
281
     0
  0
CLASS
  1
PARAMSCOPE
  2
AcAdParamScope
  3
DesignerServices
 90
    32768
280
     0
281
     0
  0
CLASS
  1
NAMEDAPPL
  2
AcAdNamedAppl
  3
DesignerServices
 90
    32768
280
     0
281
     0
  0
CLASS
  1
AMDTDMMENUSTATE
  2
AmdtDmMenuState
  3
AcMechDwgViewMgmt
 90
    32768
280
     0
281
     0
  0
CLASS
  1
MAPIADMODULE
  2
MApiAdModule
  3
MApiAdServices
 90
    32768
280
     0
281
     0
  0
CLASS
  1
AMDTAMMENUSTATE
  2
AmdtAmMenuState
  3
DesignerAssemblies
 90
    32768
280
     0
281
     0
  0
CLASS
  1
ACAMPROJECT
  2
AcAmProject
  3
DesignerAssemblies
 90
    32768
280
     0
281
     0
  0
CLASS
  1
ACAMCOMPDEFMGR
  2
AcAmCompDefMgr
  3
DesignerAssemblies
 90
    32768
280
     0
281
     0
  0
CLASS
  1
AMCONTEXTMGR
  2
AcAmContextMgr
  3
DesignerAssemblies
 90
    32768
280
     0
281
     0
  0
CLASS
  1
ACAMCONTEXTPARTMODELER
  2
AcAmContextPartModeler
  3
DesignerAssemblies
 90
    32768
280
     0
281
     0
  0
CLASS
  1
ACMDATADICTIONARY
  2
AcmDataDictionary
  3
"AcmSymBB|Product Description: AutoCAD Mechanical 2000|Company: Autodesk"
 90
    32768
280
     0
281
     0
  0
CLASS
  1
ACMDATAENTRYBLOCK
  2
AcmDataEntryBlock
  3
"AcmSymBB|Product Description: AutoCAD Mechanical 2000|Company: Autodesk"
 90
    32768
280
     0
281
     0
  0
CLASS
  1
ACMSTANDARDISO
  2
AcmStandardISO
  3
"Amdt_StdImp|Product Description: AutoCAD Mechanical 2000|Company: Autodesk"
 90
    32768
280
     0
281
     0
  0
CLASS
  1
AMGOBJPROPCFG
  2
AmgObjPropCfg
  3
"AmgLay|Product Description: AutoCAD Mechanical 2000|Company: Autodesk"
 90
    32769
280
     0
281
     0
  0
CLASS
  1
AMDTEDGESTANDARDISO
  2
AmdtEdgeStdISO
  3
"Amdt_StdImp|Product Description: AutoCAD Mechanical 2000|Company: Autodesk"
 90
    32768
280
     0
281
     0
  0
CLASS
  1
ACMSURFSTANDARDISO
  2
AcmSurfTextStdISO
  3
"Amdt_StdImp|Product Description: AutoCAD Mechanical 2000|Company: Autodesk"
 90
    32768
280
     0
281
     0
  0
CLASS
  1
ACMFCFSTANDARDISO
  2
AcmFCFStdISO
  3
"Amdt_StdImp|Product Description: AutoCAD Mechanical 2000|Company: Autodesk"
 90
    32768
280
     0
281
     0
  0
CLASS
  1
ACMWELDSTANDARDISO
  2
AcmWeldingStdISO
  3
"Amdt_StdImp|Product Description: AutoCAD Mechanical 2000|Company: Autodesk"
 90
    32768
280
     0
281
     0
  0
CLASS
  1
ACMIDSTANDARDISO
  2
AcmIdStdISO
  3
"Amdt_StdImp|Product Description: AutoCAD Mechanical 2000|Company: Autodesk"
 90
    32768
280
     0
281
     0
  0
CLASS
  1
ACMDATUMSTANDARDISO
  2
AcmDatumStdISO
  3
"Amdt_StdImp|Product Description: AutoCAD Mechanical 2000|Company: Autodesk"
 90
    32768
280
     0
281
     0
  0
CLASS
  1
ACMBOMSTANDARDISO
  2
AcmBOMStdISO
  3
"Amdt_StdImp|Product Description: AutoCAD Mechanical 2000|Company: Autodesk"
 90
    32768
280
     0
281
     0
  0
CLASS
  1
ACMDETAILSTANDARDISO
  2
AmdtDetailSymStdISO
  3
"Amdt_StdImp|Product Description: AutoCAD Mechanical 2000|Company: Autodesk"
 90
    32768
280
     0
281
     0
  0
CLASS
  1
ACMSECTIONSTANDARDISO
  2
AmdtSectionSymStdISO
  3
"Amdt_StdImp|Product Description: AutoCAD Mechanical 2000|Company: Autodesk"
 90
    32768
280
     0
281
     0
  0
CLASS
  1
ACMCENTERLINESTANDARDISO
  2
AmdtCenterLineStdISO
  3
"Amdt_StdImp|Product Description: AutoCAD Mechanical 2000|Company: Autodesk"
 90
    32768
280
     0
281
     0
  0
CLASS
  1
ACMTHREADLINESTANDARDISO
  2
AmdtThreadLineStdISO
  3
"Amdt_StdImp|Product Description: AutoCAD Mechanical 2000|Company: Autodesk"
 90
    32768
280
     0
281
     0
  0
CLASS
  1
ACMNOTESTANDARDISO
  2
AmdtNoteStdISO
  3
"Amdt_StdImp|Product Description: AutoCAD Mechanical 2000|Company: Autodesk"
 90
    32768
280
     0
281
     0
  0
CLASS
  1
ACAMGLAYSTD
  2
AcAmgLayStd
  3
"AcAmgLayStd|Product Description: AutoCAD Mechanical 2000|Company: Autodesk"
 90
    32768
280
     0
281
     0
  0
CLASS
  1
ACAMGDIMSTD
  2
AcAmgDimStd
  3
"AcAmgDimStd|Product Description: AutoCAD Mechanical 2000|Company: Autodesk"
 90
    32768
280
     0
281
     0
  0
CLASS
  1
ACAMGHOLECHARTSTDISO
  2
AcAmgHoleChartStdISO
  3
ACMSYMBB_MODULE_NAME
 90
    32768
280
     0
281
     0
  0
CLASS
  1
ACAMGTITLESTD
  2
AcAmgTitleStd
  3
"TITLEAPP"
 90
    32768
280
     0
281
     0
  0
CLASS
  1
CATALOGSTATE
  2
AcAmCatalogState
  3
DesignerAssemblies
 90
    32768
280
     0
281
     0
  0
CLASS
  1
ACAMGRCOMPDEFSET
  2
AcAmGrCompDefSet
  3
DesignerAssemblies
 90
    32768
280
     0
281
     0
  0
CLASS
  1
AMDTBROWSERDBTAB
  2
AmdtBrowserDbTab
  3
McadcomServices
 90
    32768
280
     0
281
     0
  0
CLASS
  1
CBROWSERAPPOBJECT
  2
CBrowserAppObject
  3
McadcomServices
 90
    32768
280
     0
281
     0
  0
CLASS
  1
DM_PLACEHOLDER
  2
AcDmSelsetPlaceholder
  3
AcMechDwgViewMgmt
 90
    32768
280
     0
281
     0
  0
CLASS
  1
ACAMGFILTERDAT
  2
AcAmgFilterDat
  3
"AcadM|Product Description: AutoCAD Mechanical 2000|Company: Autodesk"
 90
    32768
280
     0
281
     0
  0
CLASS
  1
LAYER_INDEX
  2
AcDbLayerIndex
  3
AutoCAD 2000
 90
    32768
280
     0
281
     0
  0
CLASS
  1
IDBUFFER
  2
AcDbIdBuffer
  3
AutoCAD 2000
 90
    32768
280
     0
281
     0
  0
CLASS
  1
DICTIONARYVAR
  2
AcDbDictionaryVar
  3
AutoCAD 2000
 90
    32768
280
     0
281
     0
  0
CLASS
  1
ACAMGRCOMPDEF
  2
AcAmGrCompDef
  3
DesignerAssemblies
 90
    32768
280
     0
281
     0
  0
CLASS
  1
ACCMCONTEXT
  2
AcCmContext
  3
DesignerAssemblies
 90
    32768
280
     0
281
     0
  0
CLASS
  1
ACAMCOMPDEF
  2
AcAmCompDef
  3
DesignerAssemblies
 90
    32768
280
     0
281
     0
  0
CLASS
  1
ADPART
  2
AcAdPart
  3
DesignerServices
 90
    32768
280
     0
281
     1
  0
CLASS
  1
ADBASE
  2
AcAdBase
  3
DesignerServices
 90
    32768
280
     0
281
     0
  0
CLASS
  1
BODYID
  2
AcAdBodyId
  3
DesignerServices
 90
    32768
280
     0
281
     0
  0
CLASS
  1
WORKPLANEDISPLAYMGR
  2
AcAdDisplayMgr
  3
DesignerServices
 90
    32768
280
     0
281
     0
  0
CLASS
  1
ACCMBODY
  2
AcCmBody
  3
DesignerAssemblies
 90
    32768
280
     0
281
     0
  0
CLASS
  1
ACAMCOMPENT
  2
AcAmCompEnt
  3
DesignerAssemblies
 90
    32768
280
     0
281
     1
  0
CLASS
  1
ACAMCOMPFEEDBACK
  2
AcAmCompFeedback
  3
DesignerAssemblies
 90
    32768
280
     0
281
     0
  0
CLASS
  1
ACAMGROUNDEDBASECOMP
  2
AcAmGroundedBaseComp
  3
DesignerAssemblies
 90
    32768
280
     0
281
     0
  0
CLASS
  1
ACAMCOMPENTCLONE
  2
AcAmCompEntClone
  3
DesignerAssemblies
 90
    32768
280
     0
281
     1
  0
CLASS
  1
ACAMCLONEREACTOR
  2
AcAmGrCompCloneReactor
  3
DesignerAssemblies
 90
    32768
280
     0
281
     0
  0
CLASS
  1
ADDATUMPLANEABS
  2
AcAdDatumPlaneAbs
  3
DesignerServices
 90
    32768
280
     0
281
     0
  0
CLASS
  1
ADDATUMAXISABS
  2
AcAdDatumAxisAbs
  3
DesignerServices
 90
    32768
280
     0
281
     0
  0
CLASS
  1
ADDATUMORIENTEDPLANE
  2
AcAdDatumOrientedPlane
  3
DesignerServices
 90
    32768
280
     0
281
     0
  0
CLASS
  1
ACAD_LINE
  2
AcAdLine
  3
DesignerServices
 90
    32768
280
     0
281
     1
  0
CLASS
  1
ACADLINEACAD
  2
AcAdVirtualBoundedLineAcad
  3
DesignerServices
 90
    32768
280
     0
281
     0
  0
CLASS
  1
ACADREFLINEACAD
  2
AcAdVirtualReferenceLine
  3
DesignerServices
 90
    32768
280
     0
281
     0
  0
CLASS
  1
ACADCONSLINE
  2
AcAdConstrainedLine
  3
DesignerServices
 90
    32768
280
     0
281
     0
  0
CLASS
  1
ACADCONSGROUP
  2
AcAdConstraintGroup
  3
DesignerServices
 90
    32768
280
     0
281
     0
  0
CLASS
  1
ACADIMPPTACAD
  2
AcAdVirtualImplicitPoint
  3
DesignerServices
 90
    32768
280
     0
281
     0
  0
CLASS
  1
ACADCONSPOINT
  2
AcAdConstrainedPoint
  3
DesignerServices
 90
    32768
280
     0
281
     0
  0
CLASS
  1
ADPCURCNS
  2
AcAdPointCurveConstr
  3
DesignerServices
 90
    32768
280
     0
281
     0
  0
CLASS
  1
ADVERCNS
  2
AcAdVerticalConstr
  3
DesignerServices
 90
    32768
280
     0
281
     0
  0
CLASS
  1
ADHORCNS
  2
AcAdHorizontalConstr
  3
DesignerServices
 90
    32768
280
     0
281
     0
  0
CLASS
  1
ADCLPROF2D
  2
AcAdClosedProfile2d
  3
DesignerServices
 90
    32768
280
     0
281
     0
  0
CLASS
  1
ACAD_FIXCONSTRAINT
  2
AcAdFixedConstraint
  3
DesignerServices
 90
    32768
280
     0
281
     0
  0
CLASS
  1
AMDTFORMULAUPDATEDISPATCHER
  2
AmdtFormulaUpdateDispatcher
  3
AcMeServices
 90
    32768
280
     0
281
     0
  0
CLASS
  1
ADCONSDISP
  2
AcAdConstraintDisplay
  3
DesignerServices
 90
    32768
280
     0
281
     1
  0
CLASS
  1
ADCONSTDSP
  2
AcAdConstraintDisplayTag
  3
DesignerServices
 90
    32768
280
     0
281
     1
  0
CLASS
  1
PARAM
  2
AcAdParam
  3
DesignerServices
 90
    32768
280
     0
281
     0
  0
CLASS
  1
ADVDISTCNS
  2
AcAdVerticalDistanceConstr
  3
DesignerServices
 90
    32768
280
     0
281
     0
  0
CLASS
  1
ADHDISTCNS
  2
AcAdHorizontalDistanceConstr
  3
DesignerServices
 90
    32768
280
     0
281
     0
  0
CLASS
  1
ACMEROTATIONARROW
  2
AcImRotationArrowDisplay
  3
AcMeServices
 90
    32768
280
     0
281
     1
  0
CLASS
  1
ACADVOLFEATWITHTRIM
  2
AcAdVolFeatWithTrim
  3
DesignerServices
 90
    32768
280
     0
281
     0
  0
CLASS
  1
DEPEDGEFEATUREORDERING
  2
AcAdDepEdgeFeatureOrdering
  3
DesignerServices
 90
    32768
280
     0
281
     0
  0
CLASS
  1
DATUMAXISDISPLAY
  2
AcAdDatumAxisDisplay
  3
DesignerServices
 90
    32768
280
     0
281
     1
  0
CLASS
  1
ADDATUMAXISCENTER
  2
AcAdDatumAxisCenter
  3
DesignerServices
 90
    32768
280
     0
281
     0
  0
CLASS
  1
ADPLANEID
  2
AcAdSurfGeomId
  3
DesignerServices
 90
    32768
280
     0
281
     0
  0
CLASS
  1
ACMEPOINT
  2
AcImPointDisplay
  3
AcMeServices
 90
    32768
280
     0
281
     1
  0
CLASS
  1
ADPLANEID
  2
AcAdPlaneId
  3
DesignerServices
 90
    32768
280
     0
281
     0
  0
CLASS
  1
ADDATUMPLANEFACE
  2
AcAdDatumPlaneFace
  3
DesignerServices
 90
    32768
280
     0
281
     0
  0
CLASS
  1
ADDATUMPOINTAXISPLANE
  2
AcAdDatumPointAxisPlane
  3
DesignerServices
 90
    32768
280
     0
281
     0
  0
CLASS
  1
ADHOLEFEAT
  2
AcAdHoleFeat
  3
DesignerServices
 90
    32768
280
     0
281
     0
  0
CLASS
  1
CIRREFID
  2
AcAdCircleRefId
  3
DesignerServices
 90
    32768
280
     0
281
     0
  0
CLASS
  1
ACADCIRCDEPID
  2
AcAdVirtualCircleDepId
  3
DesignerServices
 90
    32768
280
     0
281
     0
  0
CLASS
  1
ACADCONSCIRCLE
  2
AcAdConstrainedCircle
  3
DesignerServices
 90
    32768
280
     0
281
     0
  0
CLASS
  1
ADCTRPTCNS
  2
AcAdCenterPointConstr
  3
DesignerServices
 90
    32768
280
     0
281
     0
  0
CLASS
  1
AMDT_ALIGNED_DIM
  2
AmdtAlignedDimension
  3
AcMeServices
 90
    32768
280
     0
281
     1
  0
CLASS
  1
ACADBOUNDEDLINEDATUMID
  2
AcAdVirtualBoundedLineDatumId
  3
DesignerServices
 90
    32768
280
     0
281
     0
  0
CLASS
  1
AMDT_ORDINATE_DIM
  2
AmdtOrdinateDimension
  3
AcMeServices
 90
    32768
280
     0
281
     1
  0
CLASS
  1
EDGEID
  2
AcAdEdgeId
  3
DesignerServices
 90
    32768
280
     0
281
     0
  0
CLASS
  1
ADFILLET
  2
AcAdFillet
  3
DesignerServices
 90
    32768
280
     0
281
     0
  0
CLASS
  1
DATUMPLANEDISPLAY
  2
AcAdDatumPlaneDisplay
  3
DesignerServices
 90
    32768
280
     0
281
     1
  0
CLASS
  1
ADDATUMPLANEAXISPLANE
  2
AcAdDatumPlaneAxisPlane
  3
DesignerServices
 90
    32768
280
     0
281
     0
  0
CLASS
  1
ACMEPLINE
  2
AcImPlineDisplay
  3
AcMeServices
 90
    32768
280
     0
281
     1
  0
CLASS
  1
ACMELINEARARROW
  2
AcImLinearArrowDisplay
  3
AcMeServices
 90
    32768
280
     0
281
     1
  0
CLASS
  1
ACMETEXT
  2
AcImTextDisplay
  3
AcMeServices
 90
    32768
280
     0
281
     1
  0
CLASS
  1
ADDATUMPLANEOFFSET
  2
AcAdDatumPlaneOffset
  3
DesignerServices
 90
    32768
280
     0
281
     0
  0
CLASS
  1
ADCOLNCNS
  2
AcAdColinearConstr
  3
DesignerServices
 90
    32768
280
     0
281
     0
  0
CLASS
  1
STREFID
  2
AcAdStraightRefId
  3
DesignerServices
 90
    32768
280
     0
281
     0
  0
CLASS
  1
ACADLINEDEPID
  2
AcAdVirtualLineDepId
  3
DesignerServices
 90
    32768
280
     0
281
     0
  0
CLASS
  1
ADFEATUREDISPLAY
  2
AcImFeatureDisplay
  3
ACME_MODULE_NAME
 90
    32768
280
     0
281
     1
  0
CLASS
  1
ACMEAXIS
  2
AcImAxisDisplay
  3
AcMeServices
 90
    32768
280
     0
281
     1
  0
CLASS
  1
DEPEDGEPATTERNFEATURE
  2
AcAdDepEdgePatternFeature
  3
DesignerServices
 90
    32768
280
     0
281
     0
  0
CLASS
  1
ACADPATTNFEAT
  2
AcAdPatternFeat
  3
DesignerServices
 90
    32768
280
     0
281
     0
  0
CLASS
  1
ACADORDORIGPT
  2
AcAdOrdinateOriginPoint
  3
DesignerServices
 90
    32768
280
     0
281
     0
  0
CLASS
  1
ADORDBASECNS
  2
AcAdOrdinateBaseConstr
  3
DesignerServices
 90
    32768
280
     0
281
     0
  0
CLASS
  1
DEPEDGESECONDARYDEPID
  2
AcAdDepEdgeSecondaryDepId
  3
DesignerServices
 90
    32768
280
     0
281
     0
  0
CLASS
  1
DEPEDGEPATTERNINSTANCE
  2
AcAdDepEdgePatternInstance
  3
DesignerServices
 90
    32768
280
     0
281
     0
  0
CLASS
  1
AM_VIEW_SELECT_FILTER
  2
AcDmActivePartViewEntFilter
  3
DesignerServices
 90
    32768
280
     0
281
     0
  0
CLASS
  1
AM_ABS_PLANE
  2
AcDmAbsPlnDef
  3
AcMechDwgViewMgmt
 90
    32768
280
     0
281
     0
  0
CLASS
  1
AM_ABS_AXIS
  2
AcDmAbsAxisDef
  3
AcMechDwgViewMgmt
 90
    32768
280
     0
281
     0
  0
CLASS
  1
AM_BASE_VIEW_ORIENT
  2
AcDmBaseViewOr
  3
AcMechDwgViewMgmt
 90
    32768
280
     0
281
     0
  0
CLASS
  1
AM_DWG_VIEWPORT
  2
AcDmViewport
  3
AcMechDwgViewMgmt
 90
    32768
280
     0
281
     0
  0
CLASS
  1
AM_VIEW_DISPLAY
  2
AcDmDwgViewDisplay
  3
AcMechDwgViewMgmt
 90
    32768
280
     0
281
     0
  0
CLASS
  1
AM_CLDFLTS
  2
AcDmClDflts
  3
AcMechDwgViewMgmt
 90
    32768
280
     0
281
     0
  0
CLASS
  1
AM_BASE_VIEW
  2
AcDmBaseView
  3
AcMechDwgViewMgmt
 90
    32768
280
     0
281
     0
  0
CLASS
  1
AM_ISO_VIEW_ORIENT
  2
AcDmIsoViewOr
  3
AcMechDwgViewMgmt
 90
    32768
280
     0
281
     0
  0
CLASS
  1
AM_ISO_VIEW
  2
AcDmIsoView
  3
AcMechDwgViewMgmt
 90
    32768
280
     0
281
     0
  0
CLASS
  1
AM_ORTHO_VIEW_ORIENT
  2
AcDmOrthoViewOr
  3
AcMechDwgViewMgmt
 90
    32768
280
     0
281
     0
  0
CLASS
  1
AM_ORTHO_VIEW
  2
AcDmOrthoView
  3
AcMechDwgViewMgmt
 90
    32768
280
     0
281
     0
  0
CLASS
  1
ACDMPARTVIEWDATA
  2
AcDmPartViewData
  3
AcMechDwgViewMgmt
 90
    32768
280
     0
281
     0
  0
CLASS
  1
ACDMDISPLAYATTRIBS
  2
AcDmDisplayAttribs
  3
AcMechDwgViewMgmt
 90
    32768
280
     0
281
     0
  0
CLASS
  1
ACDMBODYINSTANCEDATA
  2
AcDmBodyInstanceData
  3
AcMechDwgViewMgmt
 90
    32768
280
     0
281
     0
  0
CLASS
  1
ACDMVWEDLINE
  2
AcDmViewEdgeLine
  3
AcMechDwgViewMgmt
 90
    32768
280
     0
281
     1
  0
CLASS
  1
ACDMVWEDARC
  2
AcDmViewEdgeArc
  3
AcMechDwgViewMgmt
 90
    32768
280
     0
281
     1
  0
CLASS
  1
ACADSKETCHPOINTRES
  2
AcAdSketchPointRes
  3
DesignerServices
 90
    32768
280
     0
281
     0
  0
CLASS
  1
AM_VIEWDIMLINEAR
  2
AcDmViewDimLinear
  3
AcMechDwgViewMgmt
 90
    32768
280
     0
281
     0
  0
CLASS
  1
AMDTDMPARMAPDATA
  2
AmdtDmDimParMapData
  3
AcMechDwgViewMgmt
 90
    32768
280
     0
281
     0
  0
CLASS
  1
AM_ADLINCTRLINE
  2
AcAdLineCl
  3
DesignerServices
 90
    32768
280
     0
281
     0
  0
CLASS
  1
ACDMVWEDCIRC
  2
AcDmViewEdgeCircle
  3
AcMechDwgViewMgmt
 90
    32768
280
     0
281
     1
  0
CLASS
  1
AM_ADCIRCTRLINE
  2
AcAdBullsEyeCl
  3
DesignerServices
 90
    32768
280
     0
281
     0
  0
CLASS
  1
AD_CIRCTAPH
  2
AcAdTapHoleCircDisp
  3
DesignerServices
 90
    32768
280
     0
281
     0
  0
CLASS
  1
ACDMVIEWGEOM
  2
AcDmViewGeometry
  3
AcMechDwgViewMgmt
 90
    32768
280
     0
281
     1
  0
CLASS
  1
FACEID
  2
AcAdFaceId
  3
DesignerServices
 90
    32768
280
     0
281
     0
  0
CLASS
  1
ACADPARTPLANARFACERES
  2
AcAdPartPlanarFaceRes
  3
AdGrefServices
 90
    32768
280
     0
281
     0
  0
CLASS
  1
AM_GREF_PLANE
  2
AcDmGrefPlnDef
  3
AcMechDwgViewMgmt
 90
    32768
280
     0
281
     0
  0
CLASS
  1
ACADPARTLINEDGRES
  2
AcAdPartLinEdgRes
  3
AdGrefServices
 90
    32768
280
     0
281
     0
  0
CLASS
  1
AM_GREF_AXIS
  2
AcDmGrefAxisDef
  3
AcMechDwgViewMgmt
 90
    32768
280
     0
281
     0
  0
CLASS
  1
AMDTEXTERNALTHREAD
  2
AmdtExternalThreadFeat
  3
DesignerServices
 90
    32768
280
     0
281
     0
  0
CLASS
  1
THREADDISPLAY
  2
AcAdThreadDisplay
  3
DesignerServices
 90
    32768
280
     0
281
     1
  0
CLASS
  1
AD_LINETAPH
  2
AcAdTapHoleLineDisp
  3
DesignerServices
 90
    32768
280
     0
281
     0
  0
CLASS
  1
ADRADDISP
  2
AcAdRadiusDisplay
  3
DesignerServices
 90
    32768
280
     0
281
     1
  0
CLASS
  1
ACDBLINERES
  2
AcDbLineRes
  3
AcGrefServices
 90
    32768
280
     0
281
     0
  0
CLASS
  1
ACADPARTCONICALFACERES
  2
AcAdPartConicalFaceRes
  3
AdGrefServices
 90
    32768
280
     0
281
     0
  0
CLASS
  1
ACDMGREFEDIT
  2
AcDmViewEntityGeomrefEdit
  3
AcMechDwgViewMgmt
 90
    32768
280
     0
281
     0
  0
CLASS
  1
ACDMVIEWLINEDGERES
  2
AcDmViewLinEdgeRes
  3
AcMechDwgViewMgmt
 90
    32768
280
     0
281
     0
  0
CLASS
  1
SILEDGEID
  2
AcAdSilhouetteEdgeId
  3
DesignerServices
 90
    32768
280
     0
281
     0
  0
CLASS
  1
ACADPARTCYLINDERFACERES
  2
AcAdPartCylinderFaceRes
  3
AdGrefServices
 90
    32768
280
     0
281
     0
  0
CLASS
  1
CNRREFID
  2
AcAdCornerId
  3
DesignerServices
 90
    32768
280
     0
281
     0
  0
CLASS
  1
ACADPARTPOINTRES
  2
AcAdPartPointRes
  3
AdGrefServices
 90
    32768
280
     0
281
     0
  0
CLASS
  1
ACADPARTCIRCEDGRES
  2
AcAdPartCircEdgRes
  3
AdGrefServices
 90
    32768
280
     0
281
     0
  0
CLASS
  1
ACRFDMINSADJ
  2
AcRfDMInsAdjuster
  3
AcMechDwgViewMgmt
 90
    32768
280
     0
281
     0
  0
CLASS
  1
AM_VIEWDIMRADIUS
  2
AcDmViewDimRadius
  3
AcMechDwgViewMgmt
 90
    32768
280
     0
281
     0
  0
CLASS
  1
ACADPARTDATUMPLANERES
  2
AcAdPartDatumPlaneRes
  3
AdGrefServices
 90
    32768
280
     0
281
     0
  0
CLASS
  1
AM_FULLPLANESECTION
  2
AcDmFullPlaneSection
  3
AcMechDwgViewMgmt
 90
    32768
280
     0
281
     0
  0
CLASS
  1
AMDTSECTIONSYM
  2
AmdtSectionSym
  3
"AcmSymBB|Product Description: AutoCAD Mechanical 2000|Company: Autodesk"
 90
    33791
280
     0
281
     1
  0
CLASS
  1
AM_VWNOTEADAPTER
  2
AcDmViewAnnotAdapter
  3
AcMechDwgViewMgmt
 90
    32768
280
     0
281
     0
  0
CLASS
  1
AMDTSECTIONSYMLABEL
  2
AmdtSectionSymLabel
  3
"AcmSymBB|Product Description: AutoCAD Mechanical 2000|Company: Autodesk"
 90
    33791
280
     0
281
     1
  0
CLASS
  1
AMDTNOTE
  2
AmdtNote
  3
"AcmSymBB|Product Description: AutoCAD Mechanical 2000|Company: Autodesk"
 90
    33791
280
     0
281
     1
  0
CLASS
  1
DIMASSOC
  2
AcDbDimAssoc
  3
"AcDbDimAssoc|Product Desc:     AcDim ARX App For Dimension|Company:          Autodesk, Inc.|WEB Address:      www.autodesk.com"
 90
    32768
280
     0
281
     0
  0
CLASS
  1
ACMSTANDARDANSI
  2
AcmStandardANSI
  3
"Amdt_StdImp|Product Description: AutoCAD Mechanical 2000|Company: Autodesk"
 90
    32768
280
     0
281
     0
  0
CLASS
  1
ACMSURFSTANDARDANSI
  2
AcmSurfTextStdANSI
  3
"Amdt_StdImp|Product Description: AutoCAD Mechanical 2000|Company: Autodesk"
 90
    32768
280
     0
281
     0
  0
CLASS
  1
ACMFCFSTANDARDANSI
  2
AcmFCFStdANSI
  3
"Amdt_StdImp|Product Description: AutoCAD Mechanical 2000|Company: Autodesk"
 90
    32768
280
     0
281
     0
  0
CLASS
  1
ACMWELDSTANDARDANSI
  2
AcmWeldingStdANSI
  3
"Amdt_StdImp|Product Description: AutoCAD Mechanical 2000|Company: Autodesk"
 90
    32768
280
     0
281
     0
  0
CLASS
  1
ACMIDSTANDARDANSI
  2
AcmIdStdANSI
  3
"Amdt_StdImp|Product Description: AutoCAD Mechanical 2000|Company: Autodesk"
 90
    32768
280
     0
281
     0
  0
CLASS
  1
ACMDATUMSTANDARDANSI
  2
AcmDatumStdANSI
  3
"Amdt_StdImp|Product Description: AutoCAD Mechanical 2000|Company: Autodesk"
 90
    32768
280
     0
281
     0
  0
CLASS
  1
ACMBOMSTANDARDANSI
  2
AcmBOMStdANSI
  3
"Amdt_StdImp|Product Description: AutoCAD Mechanical 2000|Company: Autodesk"
 90
    32768
280
     0
281
     0
  0
CLASS
  1
ACMDETAILSTANDARDANSI
  2
AmdtDetailSymStdANSI
  3
"Amdt_StdImp|Product Description: AutoCAD Mechanical 2000|Company: Autodesk"
 90
    32768
280
     0
281
     0
  0
CLASS
  1
ACMSECTIONSTANDARDANSI
  2
AmdtSectionSymStdANSI
  3
"Amdt_StdImp|Product Description: AutoCAD Mechanical 2000|Company: Autodesk"
 90
    32768
280
     0
281
     0
  0
CLASS
  1
ACMCENTERLINESTANDARDANSI
  2
AmdtCenterLineStdANSI
  3
"Amdt_StdImp|Product Description: AutoCAD Mechanical 2000|Company: Autodesk"
 90
    32768
280
     0
281
     0
  0
CLASS
  1
ACMNOTESTANDARDANSI
  2
AmdtNoteStdANSI
  3
"Amdt_StdImp|Product Description: AutoCAD Mechanical 2000|Company: Autodesk"
 90
    32768
280
     0
281
     0
  0
CLASS
  1
ACAMGHOLECHARTSTDANSI
  2
AcAmgHoleChartStdANSI
  3
ACMSYMBB_MODULE_NAME
 90
    32768
280
     0
281
     0
  0
CLASS
  1
ACDBCIRCARCRES
  2
AcDbCircArcRes
  3
AcGrefServices
 90
    32768
280
     0
281
     0
  0
CLASS
  1
STDPART2D
  2
AmgStdPart
  3
"AmgStdPart|Product Description: AutoCAD Mechanical 2000|Company: Autodesk"
 90
    33791
280
     0
281
     1
  0
CLASS
  1
LONG_TRANSACTION
  2
AcDbLongTransaction
  3
AutoCAD 2000
 90
    32768
280
     0
281
     0
  0
CLASS
  1
LWPOLYLINE
  2
AcDbPolyline
  3
AutoCAD 2000
 90
    32768
280
     0
281
     1
  0
CLASS
  1
HATCH
  2
AcDbHatch
  3
AutoCAD 2000
 90
    32768
280
     0
281
     1
  0
CLASS
  1
XRECORD
  2
AcDbXrecord
  3
AutoCAD 2000
 90
    32768
280
     0
281
     0
  0
ENDSEC
  0
SECTION
  2
TABLES
  0
TABLE
  2
VPORT
  5
1A
330
0
100
AcDbSymbolTable
 70
     8
  0
VPORT
  5
1FC1
330
1A
100
AcDbSymbolTableRecord
100
AcDbViewportTableRecord
  2
*ACTIVE
 70
     0
 10
0.0
 20
0.0
 11
1.0
 21
1.0
 12
373.8033217891788
 22
255.0046102995499
 13
0.0
 23
0.0
 14
2.5
 24
2.5
 15
10.0
 25
10.0
 16
0.0
 26
0.0
 36
1.0
 17
0.0
 27
0.0
 37
0.0
 40
271.5741452465117
 41
1.765124555160142
 42
50.0
 43
0.0
 44
0.0
 50
0.0
 51
0.0
 71
     0
 72
   100
 73
     1
 74
     3
 75
     0
 76
     0
 77
     0
 78
     0
  0
ENDTAB
  0
TABLE
  2
LTYPE
  5
15
330
0
100
AcDbSymbolTable
 70
    17
  0
LTYPE
  5
16
330
15
100
AcDbSymbolTableRecord
100
AcDbLinetypeTableRecord
  2
BYBLOCK
 70
     0
  3

 72
    65
 73
     0
 40
0.0
  0
LTYPE
  5
17
330
15
100
AcDbSymbolTableRecord
100
AcDbLinetypeTableRecord
  2
BYLAYER
 70
     0
  3

 72
    65
 73
     0
 40
0.0
  0
LTYPE
  5
9
330
15
100
AcDbSymbolTableRecord
100
AcDbLinetypeTableRecord
  2
CONTINUOUS
 70
     0
  3
Solid line
 72
    65
 73
     0
 40
0.0
  0
LTYPE
  5
161
330
15
100
AcDbSymbolTableRecord
100
AcDbLinetypeTableRecord
  2
HIDDEN
 70
     0
  3
Hidden __ __ __ __ __ __ __ __ __ __ __ __ __ _
 72
    65
 73
     2
 40
9.524999999999998
 49
6.349999999999999
 74
     0
 49
-3.174999999999999
 74
     0
  0
LTYPE
  5
BF
330
15
100
AcDbSymbolTableRecord
100
AcDbLinetypeTableRecord
  2
AM_ISO08W050
 70
     0
  3
____ . ____ . ____ . ____ . ____ . ____ . ____
 72
    65
 73
     4
 40
18.0
 49
12.0
 74
     0
 49
-1.5
 74
     0
 49
3.0
 74
     0
 49
-1.5
 74
     0
  0
LTYPE
  5
1FD
330
15
100
AcDbSymbolTableRecord
100
AcDbLinetypeTableRecord
  2
AM_ISO02W050
 70
     0
  3
__ __ __ __ __ __ __ __ __ __ __ __ __ __ __
 72
    65
 73
     2
 40
7.5
 49
6.0
 74
     0
 49
-1.5
 74
     0
  0
LTYPE
  5
1FE
330
15
100
AcDbSymbolTableRecord
100
AcDbLinetypeTableRecord
  2
AM_ISO09W050
 70
     0
  3
_____ . . _____ . . _____ . . ____ .. ____
 72
    65
 73
     6
 40
22.5
 49
12.0
 74
     0
 49
-1.5
 74
     0
 49
3.0
 74
     0
 49
-1.5
 74
     0
 49
3.0
 74
     0
 49
-1.5
 74
     0
  0
LTYPE
  5
1FF
330
15
100
AcDbSymbolTableRecord
100
AcDbLinetypeTableRecord
  2
AMCONSTR
 70
     0
  3
_______________________
 72
    65
 73
     2
 40
9999.0
 49
9999.0
 74
     0
 49
0.0
 74
     0
  0
LTYPE
  5
200
330
15
100
AcDbSymbolTableRecord
100
AcDbLinetypeTableRecord
  2
AM_ISO08W050X2
 70
     0
  3
__ . __ . __ . __ . __ . __
 72
    65
 73
     4
 40
9.0
 49
6.0
 74
     0
 49
-0.75
 74
     0
 49
1.5
 74
     0
 49
-0.75
 74
     0
  0
LTYPE
  5
201
330
15
100
AcDbSymbolTableRecord
100
AcDbLinetypeTableRecord
  2
AM_ISO02W050X2
 70
     0
  3
 _ _ _ _ _ _ _ _ _ _ _ _
 72
    65
 73
     2
 40
3.75
 49
3.0
 74
     0
 49
-0.75
 74
     0
  0
LTYPE
  5
204
330
15
100
AcDbSymbolTableRecord
100
AcDbLinetypeTableRecord
  2
AMZIGZAG
 70
     0
  3
/\/-/\/-/\/-/\/-/\/-/\/
 72
    65
 73
     2
 40
11.00009999999999
 49
0.0001
 74
     4
 75
   135
340
203
 46
0.04
 50
0.0
 44
0.0
 45
0.0
 49
-11.0
 74
     0
  0
LTYPE
  5
211
330
15
100
AcDbSymbolTableRecord
100
AcDbLinetypeTableRecord
  2
ACISOWELD
 70
     0
  3
_ _ _ _ _
 72
    65
 73
     2
 40
2.0
 49
2.0
 74
     0
 49
-1.0
 74
     0
  0
LTYPE
  5
212
330
15
100
AcDbSymbolTableRecord
100
AcDbLinetypeTableRecord
  2
ACISOTGB
 70
     0
  3
__ . . __ . .
 72
    65
 73
     6
 40
9.0
 49
4.0
 74
     0
 49
-1.0
 74
     0
 49
1.0
 74
     0
 49
-1.0
 74
     0
 49
1.0
 74
     0
 49
-1.0
 74
     0
  0
LTYPE
  5
213
330
15
100
AcDbSymbolTableRecord
100
AcDbLinetypeTableRecord
  2
ACISOTGL
 70
     0
  3
_ _ _ _ _
 72
    65
 73
     2
 40
3.0
 49
2.0
 74
     0
 49
-1.0
 74
     0
  0
LTYPE
  5
214
330
15
100
AcDbSymbolTableRecord
100
AcDbLinetypeTableRecord
  2
CENTER
 70
     0
  3
__ . __
 72
    65
 73
     4
 40
7.0
 49
4.0
 74
     0
 49
-1.0
 74
     0
 49
1.0
 74
     0
 49
-1.0
 74
     0
  0
LTYPE
  5
350
330
15
100
AcDbSymbolTableRecord
100
AcDbLinetypeTableRecord
  2
CENTER2
 70
     0
  3
___ _ ___ _ ___ _ ___ _ ___ _ ___ _ ___ _ ___ _
 72
    65
 73
     4
 40
1.125
 49
0.75
 74
     0
 49
-0.125
 74
     0
 49
0.125
 74
     0
 49
-0.125
 74
     0
  0
LTYPE
  5
1112
330
15
100
AcDbSymbolTableRecord
100
AcDbLinetypeTableRecord
  2
PHANTOM2
 70
     0
  3
Phantom (.5x) ___ _ _ ___ _ _ ___ _ _ ___ _ _
 72
    65
 73
     6
 40
1.25
 49
0.625
 74
     0
 49
-0.125
 74
     0
 49
0.125
 74
     0
 49
-0.125
 74
     0
 49
0.125
 74
     0
 49
-0.125
 74
     0
  0
LTYPE
  5
1115
330
15
100
AcDbSymbolTableRecord
100
AcDbLinetypeTableRecord
  2
ACANSTGB
 70
     0
  3
__ . . __ . .
 72
    65
 73
     6
 40
0.35433070866
 49
0.15748031496
 74
     0
 49
-0.03937007874
 74
     0
 49
0.03937007874
 74
     0
 49
-0.03937007874
 74
     0
 49
0.03937007874
 74
     0
 49
-0.03937007874
 74
     0
  0
LTYPE
  5
1116
330
15
100
AcDbSymbolTableRecord
100
AcDbLinetypeTableRecord
  2
ACANSTGL
 70
     0
  3
_ _ _ _ _
 72
    65
 73
     2
 40
0.11811023622
 49
0.07874015748
 74
     0
 49
-0.03937007874
 74
     0
  0
ENDTAB
  0
TABLE
  2
LAYER
  5
11
330
0
100
AcDbSymbolTable
 70
    13
  0
LAYER
  5
5
330
11
100
AcDbSymbolTableRecord
100
AcDbLayerTableRecord
  2
0
 70
     0
 62
     7
  6
CONTINUOUS
  0
LAYER
  5
3B
330
11
100
AcDbSymbolTableRecord
100
AcDbLayerTableRecord
  2
DEFPOINTS
 70
     0
 62
     7
  6
CONTINUOUS
  0
LAYER
  5
14E
330
11
100
AcDbSymbolTableRecord
100
AcDbLayerTableRecord
  2
AM_5
 70
     0
 62
     5
  6
CONTINUOUS
  0
LAYER
  5
32
330
11
100
AcDbSymbolTableRecord
100
AcDbLayerTableRecord
  2
AM_PARDIM
 70
     0
 62
     5
  6
CONTINUOUS
  0
LAYER
  5
BE
330
11
100
AcDbSymbolTableRecord
100
AcDbLayerTableRecord
  2
AM_7
 70
     0
 62
     1
  6
AM_ISO08W050
  0
LAYER
  5
1117
330
11
100
AcDbSymbolTableRecord
100
AcDbLayerTableRecord
  2
HIDDEN
 70
     0
 62
     6
  6
HIDDEN
  0
LAYER
  5
1118
330
11
100
AcDbSymbolTableRecord
100
AcDbLayerTableRecord
  2
DIM
 70
     0
 62
     5
  6
CONTINUOUS
  0
LAYER
  5
1119
330
11
100
AcDbSymbolTableRecord
100
AcDbLayerTableRecord
  2
CENTER
 70
     0
 62
     1
  6
CENTER
  0
LAYER
  5
111A
330
11
100
AcDbSymbolTableRecord
100
AcDbLayerTableRecord
  2
LOGO
 70
     0
 62
     7
  6
CONTINUOUS
  0
LAYER
  5
1E93
330
11
100
AcDbSymbolTableRecord
100
AcDbLayerTableRecord
  2
AM_0
 70
     0
 62
     7
  6
CONTINUOUS
  0
LAYER
  5
1EA3
330
11
100
AcDbSymbolTableRecord
100
AcDbLayerTableRecord
  2
AM_4
 70
     0
 62
     3
  6
CONTINUOUS
  0
ENDTAB
  0
TABLE
  2
STYLE
  5
12
330
0
100
AcDbSymbolTable
 70
    11
  0
STYLE
  5
13
330
12
100
AcDbSymbolTableRecord
100
AcDbTextStyleTableRecord
  2
STANDARD
 70
     0
 40
0.0
 41
1.0
 50
0.0
 71
     0
 42
2.5
  3
ISOCP.SHX
  4
CHINESET.SHX
  0
STYLE
  5
152
330
12
100
AcDbSymbolTableRecord
100
AcDbTextStyleTableRecord
  2
ACISOTS
 70
     0
 40
1.0
 41
1.0
 50
0.0
 71
     0
 42
2.5
  3
isocp.shx
  4
chineset.shx
  0
STYLE
  5
203
330
12
100
AcDbSymbolTableRecord
100
AcDbTextStyleTableRecord
  2

 70
     1
 40
0.0
 41
1.0
 50
0.0
 71
     0
 42
2.5
  3
ltypeshp.shx
  4

  0
STYLE
  5
210
330
12
100
AcDbSymbolTableRecord
100
AcDbTextStyleTableRecord
  2
ACISOGDT
 70
     0
 40
0.0
 41
1.0
 50
0.0
 71
     0
 42
2.5
  3
amgdt.shx
  4

  0
STYLE
  5
356
330
12
100
AcDbSymbolTableRecord
100
AcDbTextStyleTableRecord
  2
CHINESET
 70
     0
 40
0.0
 41
1.0
 50
0.0
 71
     0
 42
2.5
  3
simplex.shx
  4
CHINESET.shx
  0
STYLE
  5
357
330
12
100
AcDbSymbolTableRecord
100
AcDbTextStyleTableRecord
  2
CHINA
 70
     0
 40
0.0
 41
1.0
 50
0.0
 71
     0
 42
3.0
  3
/rubon/c2
  4
/rubon/china
  0
STYLE
  5
111C
330
12
100
AcDbSymbolTableRecord
100
AcDbTextStyleTableRecord
  2
ROMANS
 70
     0
 40
0.0
 41
1.0
 50
0.0
 71
     0
 42
3.0
  3
ROMANS.SHX
  4
LMP
  0
STYLE
  5
111D
330
12
100
AcDbSymbolTableRecord
100
AcDbTextStyleTableRecord
  2
ROMANS1
 70
     0
 40
0.0
 41
1.0
 50
0.0
 71
     0
 42
3.0
  3
ROMANS.SHX
  4

  0
STYLE
  5
111E
330
12
100
AcDbSymbolTableRecord
100
AcDbTextStyleTableRecord
  2
LOGO
 70
     0
 40
0.0
 41
1.0
 50
0.0
 71
     0
 42
5.0
  3
LEI00DP.TTF
  4

1001
ACAD
1000
文鼎中粗隸
1071
    34865
  0
STYLE
  5
111F
330
12
100
AcDbSymbolTableRecord
100
AcDbTextStyleTableRecord
  2
ACANSTS
 70
     0
 40
1.0
 41
1.0
 50
0.0
 71
     0
 42
2.5
  3
romans.shx
  4
chineset.shx
  0
STYLE
  5
1120
330
12
100
AcDbSymbolTableRecord
100
AcDbTextStyleTableRecord
  2
ACANSGDT
 70
     0
 40
0.0
 41
1.0
 50
0.0
 71
     0
 42
2.5
  3
amgdtans.shx
  4

  0
ENDTAB
  0
TABLE
  2
VIEW
  5
18
330
0
100
AcDbSymbolTable
 70
     0
  0
ENDTAB
  0
TABLE
  2
UCS
  5
19
330
0
100
AcDbSymbolTable
 70
     0
  0
ENDTAB
  0
TABLE
  2
APPID
  5
1C
330
0
100
AcDbSymbolTable
 70
    24
  0
APPID
  5
1D
330
1C
100
AcDbSymbolTableRecord
100
AcDbRegAppTableRecord
  2
ACAD
 70
     0
  0
APPID
  5
41
330
1C
100
AcDbSymbolTableRecord
100
AcDbRegAppTableRecord
  2
AD_SKETCHDIM
 70
     0
  0
APPID
  5
42
330
1C
100
AcDbSymbolTableRecord
100
AcDbRegAppTableRecord
  2
ACAD_DIMASSOC_DIMLFAC
 70
     0
  0
APPID
  5
40
330
1C
100
AcDbSymbolTableRecord
100
AcDbRegAppTableRecord
  2
ACAD_DIMASSOC_CALC_DIMLFAC
 70
     0
  0
APPID
  5
1DF
330
1C
100
AcDbSymbolTableRecord
100
AcDbRegAppTableRecord
  2
MCAD_NO_VIS
 70
     0
  0
APPID
  5
1E0
330
1C
100
AcDbSymbolTableRecord
100
AcDbRegAppTableRecord
  2
ACAD_TEMP_GRAPHIC
 70
     0
  0
APPID
  5
1F1
330
1C
100
AcDbSymbolTableRecord
100
AcDbRegAppTableRecord
  2
ACATTRIBSERVICES
 70
     0
  0
APPID
  5
CAF
330
1C
100
AcDbSymbolTableRecord
100
AcDbRegAppTableRecord
  2
GENIUS_GENODEF_13
 70
     0
  0
APPID
  5
CB0
330
1C
100
AcDbSymbolTableRecord
100
AcDbRegAppTableRecord
  2
GENIUS_GENOBJ-N-DIM_13
 70
     0
  0
APPID
  5
CBC
330
1C
100
AcDbSymbolTableRecord
100
AcDbRegAppTableRecord
  2
GENIUS_GENDIM_13
 70
     0
  0
APPID
  5
CDC
330
1C
100
AcDbSymbolTableRecord
100
AcDbRegAppTableRecord
  2
GENIUS_GENDIMSH_14
 70
     0
  0
APPID
  5
E3C
330
1C
100
AcDbSymbolTableRecord
100
AcDbRegAppTableRecord
  2
GENIUS_GENOBJ-N-HTC_13
 70
     0
  0
APPID
  5
E3D
330
1C
100
AcDbSymbolTableRecord
100
AcDbRegAppTableRecord
  2
GENIUS_GENHATCH_13
 70
     0
  0
APPID
  5
E59
330
1C
100
AcDbSymbolTableRecord
100
AcDbRegAppTableRecord
  2
DCO15
 70
     0
  0
APPID
  5
1128
330
1C
100
AcDbSymbolTableRecord
100
AcDbRegAppTableRecord
  2
GENIUS_GENOENT_13
 70
     0
  0
APPID
  5
1129
330
1C
100
AcDbSymbolTableRecord
100
AcDbRegAppTableRecord
  2
GENIUS_GENOLIS_13
 70
     0
  0
APPID
  5
112A
330
1C
100
AcDbSymbolTableRecord
100
AcDbRegAppTableRecord
  2
GENIUS_GENOBJ-N-CRS_13
 70
     0
  0
APPID
  5
112B
330
1C
100
AcDbSymbolTableRecord
100
AcDbRegAppTableRecord
  2
GENIUS_GENOREF_13
 70
     0
  0
APPID
  5
1E97
330
1C
100
AcDbSymbolTableRecord
100
AcDbRegAppTableRecord
  2
GEVID1054773671
 70
     0
  0
APPID
  5
1E98
330
1C
100
AcDbSymbolTableRecord
100
AcDbRegAppTableRecord
  2
GEVDC
 70
     0
  0
APPID
  5
1E99
330
1C
100
AcDbSymbolTableRecord
100
AcDbRegAppTableRecord
  2
GEVRADREF
 70
     0
  0
APPID
  5
1E9D
330
1C
100
AcDbSymbolTableRecord
100
AcDbRegAppTableRecord
  2
GENIUS_GENBH_13
 70
     0
  0
APPID
  5
1EA0
330
1C
100
AcDbSymbolTableRecord
100
AcDbRegAppTableRecord
  2
GENIUS_GENOBJ-NBEHI-BHF_13
 70
     0
  0
APPID
  5
1EA2
330
1C
100
AcDbSymbolTableRecord
100
AcDbRegAppTableRecord
  2
GENIUS_GENOBJ-NBEHI-BHB_13
 70
     0
  0
ENDTAB
  0
TABLE
  2
DIMSTYLE
  5
1E
330
0
100
AcDbSymbolTable
 70
    14
  0
DIMSTYLE
105
1F
102
{ACAD_REACTORS
330
31
330
43
330
52
330
5F
330
6C
330
79
330
86
330
95
330
A3
330
B0
330
18BA
330
1931
330
130D
330
132E
330
196B
330
1324
330
1247
330
12F3
330
12B9
330
12FF
330
1BFE
330
1E0B
102
}
330
1E
100
AcDbSymbolTableRecord
100
AcDbDimStyleTableRecord
  2
AM_ISO
 70
     0
  3

  4
"
  5

  6

  7

 40
1.0
 41
3.0
 42
2.0
 43
8.0
 44
1.5
 45
0.0
 46
0.0
 47
0.1
 48
0.1
140
3.0
141
0.0
142
0.0
143
0.0393701
144
1.0
145
0.0
146
0.71
147
1.0
 71
     0
 72
     0
 73
     0
 74
     0
 75
     0
 76
     0
 77
     1
 78
     8
170
     0
171
     2
172
     1
173
     0
174
     0
175
     0
176
   256
177
   256
178
   256
270
     2
271
     2
272
     2
273
     2
274
     2
340
357
275
     0
280
     0
281
     0
282
     0
283
     0
284
     8
285
     0
286
     0
287
     3
288
     0
  0
DIMSTYLE
105
217
330
1E
100
AcDbSymbolTableRecord
100
AcDbDimStyleTableRecord
  2
AM_ISO$3
 70
     0
  3

  4
"
  5

  6

  7

 40
1.0
 41
3.0
 42
2.0
 43
8.0
 44
1.5
 45
0.0
 46
0.0
 47
0.1
 48
0.1
140
3.0
141
0.0
142
0.0
143
0.0393701
144
1.0
145
0.0
146
0.71
147
1.0
 71
     0
 72
     0
 73
     0
 74
     1
 75
     0
 76
     0
 77
     1
 78
     8
170
     0
171
     2
172
     0
173
     0
174
     0
175
     0
176
   256
177
   256
178
   256
270
     2
271
     2
272
     2
273
     2
274
     2
340
357
275
     0
280
     0
281
     0
282
     0
283
     0
284
     8
285
     0
286
     0
287
     0
288
     1
  0
DIMSTYLE
105
218
330
1E
100
AcDbSymbolTableRecord
100
AcDbDimStyleTableRecord
  2
AM_ISO$4
 70
     0
  3

  4
"
  5

  6

  7

 40
1.0
 41
3.0
 42
2.0
 43
8.0
 44
1.5
 45
0.0
 46
0.0
 47
0.1
 48
0.1
140
3.0
141
0.0
142
0.0
143
0.0393701
144
1.0
145
0.0
146
0.71
147
1.0
 71
     0
 72
     0
 73
     0
 74
     1
 75
     0
 76
     0
 77
     1
 78
     8
170
     0
171
     2
172
     0
173
     0
174
     0
175
     0
176
   256
177
   256
178
   256
270
     2
271
     2
272
     2
273
     2
274
     2
340
357
275
     0
280
     0
281
     0
282
     0
283
     0
284
     8
285
     0
286
     0
287
     0
288
     1
  0
DIMSTYLE
105
219
330
1E
100
AcDbSymbolTableRecord
100
AcDbDimStyleTableRecord
  2
AM_ISO$6
 70
     0
  3

  4
"
  5

  6

  7

 40
1.0
 41
3.0
 42
2.0
 43
8.0
 44
1.5
 45
0.0
 46
0.0
 47
0.1
 48
0.1
140
3.0
141
0.0
142
0.0
143
0.0393701
144
1.0
145
0.0
146
0.71
147
1.0
 71
     0
 72
     0
 73
     0
 74
     0
 75
     0
 76
     0
 77
     0
 78
     8
170
     0
171
     2
172
     1
173
     0
174
     0
175
     0
176
   256
177
   256
178
   256
270
     2
271
     2
272
     2
273
     2
274
     2
340
357
275
     0
280
     0
281
     0
282
     0
283
     0
284
     8
285
     0
286
     0
287
     3
288
     0
  0
DIMSTYLE
105
21A
330
1E
100
AcDbSymbolTableRecord
100
AcDbDimStyleTableRecord
  2
AM_ISO$7
 70
     0
  3

  4
"
  5

  6

  7

 40
1.0
 41
2.5
 42
2.0
 43
8.0
 44
1.5
 45
0.0
 46
0.0
 47
0.1
 48
0.1
140
5.0
141
0.0
142
0.0
143
0.0393701
144
1.0
145
0.0
146
0.71
147
1.5
 71
     0
 72
     0
 73
     0
 74
     0
 75
     0
 76
     0
 77
     1
 78
     8
170
     0
171
     2
172
     1
173
     0
174
     0
175
     0
176
   256
177
   256
178
   256
270
     2
271
     2
272
     2
273
     2
274
     2
340
357
275
     0
280
     0
281
     0
282
     0
283
     0
284
     8
285
     0
286
     0
287
     3
288
     0
  0
DIMSTYLE
105
21B
330
1E
100
AcDbSymbolTableRecord
100
AcDbDimStyleTableRecord
  2
AM_ISO$SF
 70
     0
  3

  4
"
  5

  6

  7

 40
1.0
 41
3.0
 42
2.0
 43
5.0
 44
1.5
 45
0.0
 46
0.0
 47
0.1
 48
0.1
140
3.0
141
0.0
142
0.0
143
0.0393701
144
1.0
145
0.0
146
0.71
147
1.0
 71
     0
 72
     0
 73
     0
 74
     0
 75
     1
 76
     1
 77
     1
 78
     8
170
     0
171
     2
172
     1
173
     0
174
     0
175
     0
176
   256
177
   256
178
     5
270
     2
271
     2
272
     2
273
     2
274
     2
340
13
275
     0
280
     0
281
     0
282
     0
283
     0
284
     8
285
     0
286
     0
287
     3
288
     0
  0
DIMSTYLE
105
220
330
1E
100
AcDbSymbolTableRecord
100
AcDbDimStyleTableRecord
  2
AM_ISO$SH
 70
     0
  3

  4
"
  5

  6
GENAXEH
  7

 40
1.0
 41
3.0
 42
2.0
 43
5.0
 44
1.5
 45
0.0
 46
0.0
 47
0.1
 48
0.1
140
3.0
141
0.0
142
0.0
143
0.0393701
144
2.0
145
0.0
146
0.71
147
1.0
 71
     0
 72
     0
 73
     0
 74
     0
 75
     1
 76
     1
 77
     1
 78
     8
170
     0
171
     2
172
     1
173
     1
174
     0
175
     0
176
   256
177
   256
178
     5
270
     2
271
     2
272
     2
273
     2
274
     2
340
13
275
     0
280
     0
281
     0
282
     0
283
     0
284
     8
285
     0
286
     0
287
     3
288
     0
  0
DIMSTYLE
105
1121
102
{ACAD_REACTORS
330
131C
102
}
330
1E
100
AcDbSymbolTableRecord
100
AcDbDimStyleTableRecord
  2
STANDARD
 70
     0
  3

  4

  5

  6

  7

 40
1.0
 41
0.18
 42
0.0625
 43
0.38
 44
0.18
 45
0.0
 46
0.0
 47
0.0
 48
0.0
140
0.18
141
0.09
142
0.0
143
25.4
144
1.0
145
0.0
146
1.0
147
0.09
 71
     0
 72
     0
 73
     1
 74
     1
 75
     0
 76
     0
 77
     0
 78
     0
170
     0
171
     2
172
     0
173
     0
174
     0
175
     0
176
     0
177
     0
178
     0
270
     2
271
     4
272
     4
273
     2
274
     2
340
13
275
     0
280
     0
281
     0
282
     0
283
     1
284
     0
285
     0
286
     0
287
     3
288
     0
  0
DIMSTYLE
105
1122
330
1E
100
AcDbSymbolTableRecord
100
AcDbDimStyleTableRecord
  2
AM_ANSI
 70
     0
  3

  4
mm
  5

  6

  7

 40
1.0
 41
0.1
 42
0.05
 43
0.5
 44
0.1
 45
0.0
 46
0.0
 47
0.1
 48
0.1
140
0.12
141
0.0
142
0.0
143
25.4
144
1.0
145
0.0
146
0.71
147
0.06
 71
     0
 72
     0
 73
     1
 74
     1
 75
     0
 76
     0
 77
     0
 78
     7
170
     0
171
     2
172
     0
173
     0
174
     0
175
     0
176
   256
177
   256
178
     2
270
     2
271
     4
272
     4
273
     2
274
     4
340
13
275
     0
280
     0
281
     0
282
     0
283
     1
284
     7
285
     0
286
     0
287
     3
288
     0
  0
DIMSTYLE
105
1123
330
1E
100
AcDbSymbolTableRecord
100
AcDbDimStyleTableRecord
  2
AM_ANSI$3
 70
     0
  3

  4
mm
  5

  6

  7

 40
1.0
 41
0.1
 42
0.05
 43
0.5
 44
0.1
 45
0.0
 46
0.0
 47
0.1
 48
0.1
140
0.12
141
0.0
142
0.0
143
25.4
144
1.0
145
0.0
146
0.71
147
0.06
 71
     0
 72
     0
 73
     1
 74
     1
 75
     0
 76
     0
 77
     0
 78
     7
170
     0
171
     2
172
     0
173
     0
174
     0
175
     0
176
   256
177
   256
178
     2
270
     2
271
     4
272
     4
273
     2
274
     4
340
13
275
     0
280
     0
281
     0
282
     0
283
     1
284
     7
285
     0
286
     0
287
     0
288
     1
  0
DIMSTYLE
105
1124
330
1E
100
AcDbSymbolTableRecord
100
AcDbDimStyleTableRecord
  2
AM_ANSI$4
 70
     0
  3

  4
mm
  5

  6

  7

 40
1.0
 41
0.1
 42
0.05
 43
0.5
 44
0.1
 45
0.0
 46
0.0
 47
0.1
 48
0.1
140
0.12
141
0.0
142
0.0
143
25.4
144
1.0
145
0.0
146
0.71
147
0.06
 71
     0
 72
     0
 73
     1
 74
     1
 75
     0
 76
     0
 77
     0
 78
     7
170
     0
171
     2
172
     0
173
     0
174
     0
175
     0
176
   256
177
   256
178
     2
270
     2
271
     4
272
     4
273
     2
274
     4
340
13
275
     0
280
     0
281
     0
282
     0
283
     1
284
     7
285
     0
286
     0
287
     0
288
     1
  0
DIMSTYLE
105
1125
330
1E
100
AcDbSymbolTableRecord
100
AcDbDimStyleTableRecord
  2
AM_ANSI$7
 70
     0
  3

  4
mm
  5

  6

  7

 40
1.0
 41
0.1
 42
0.05
 43
0.5
 44
0.1
 45
0.0
 46
0.0
 47
0.1
 48
0.1
140
0.24
141
0.0
142
0.0
143
25.4
144
1.0
145
0.0
146
0.71
147
0.06
 71
     0
 72
     0
 73
     1
 74
     1
 75
     0
 76
     0
 77
     0
 78
     7
170
     0
171
     2
172
     0
173
     0
174
     0
175
     0
176
   256
177
   256
178
     2
270
     2
271
     4
272
     4
273
     2
274
     4
340
13
275
     0
280
     0
281
     0
282
     0
283
     1
284
     7
285
     0
286
     0
287
     3
288
     0
  0
DIMSTYLE
105
1126
330
1E
100
AcDbSymbolTableRecord
100
AcDbDimStyleTableRecord
  2
AM_ANSI$SF
 70
     0
  3

  4
mm
  5

  6

  7

 40
1.0
 41
0.1
 42
0.05
 43
0.5
 44
0.1
 45
0.0
 46
0.0
 47
0.1
 48
0.1
140
0.12
141
0.0
142
0.0
143
25.4
144
1.0
145
0.0
146
0.71
147
0.06
 71
     0
 72
     0
 73
     1
 74
     1
 75
     1
 76
     1
 77
     0
 78
     7
170
     0
171
     2
172
     0
173
     0
174
     0
175
     0
176
   256
177
   256
178
     2
270
     2
271
     4
272
     4
273
     2
274
     4
340
13
275
     0
280
     0
281
     0
282
     0
283
     1
284
     7
285
     0
286
     0
287
     3
288
     0
  0
DIMSTYLE
105
1127
330
1E
100
AcDbSymbolTableRecord
100
AcDbDimStyleTableRecord
  2
AM_ANSI$SH
 70
     0
  3

  4
mm
  5

  6
GENAXEH
  7

 40
1.0
 41
0.1
 42
0.05
 43
0.5
 44
0.1
 45
0.0
 46
0.0
 47
0.1
 48
0.1
140
0.12
141
0.0
142
0.0
143
25.4
144
1.0
145
0.0
146
0.71
147
0.06
 71
     0
 72
     0
 73
     1
 74
     1
 75
     1
 76
     1
 77
     0
 78
     7
170
     0
171
     2
172
     0
173
     1
174
     0
175
     0
176
   256
177
   256
178
     2
270
     2
271
     4
272
     4
273
     2
274
     4
340
13
275
     0
280
     0
281
     0
282
     0
283
     1
284
     7
285
     0
286
     0
287
     3
288
     0
  0
ENDTAB
  0
TABLE
  2
BLOCK_RECORD
  5
1
330
0
100
AcDbSymbolTable
 70
    28
  0
BLOCK_RECORD
  5
2
102
{ACAD_XDICTIONARY
360
3
102
}
330
1
100
AcDbSymbolTableRecord
100
AcDbBlockTableRecord
  2
*MODEL_SPACE
  0
BLOCK_RECORD
  5
D
102
{ACAD_XDICTIONARY
360
1FC3
102
}
330
1
100
AcDbSymbolTableRecord
100
AcDbBlockTableRecord
  2
*PAPER_SPACE
  0
BLOCK_RECORD
  5
21C
330
1
100
AcDbSymbolTableRecord
100
AcDbBlockTableRecord
  2
GENAXEH
  0
BLOCK_RECORD
  5
F83
330
1
100
AcDbSymbolTableRecord
100
AcDbBlockTableRecord
  2
*D1
  0
BLOCK_RECORD
  5
F8F
330
1
100
AcDbSymbolTableRecord
100
AcDbBlockTableRecord
  2
*D2
  0
BLOCK_RECORD
  5
F9D
330
1
100
AcDbSymbolTableRecord
100
AcDbBlockTableRecord
  2
*D3
  0
BLOCK_RECORD
  5
FA9
330
1
100
AcDbSymbolTableRecord
100
AcDbBlockTableRecord
  2
*D4
  0
BLOCK_RECORD
  5
FB5
330
1
100
AcDbSymbolTableRecord
100
AcDbBlockTableRecord
  2
*D5
  0
BLOCK_RECORD
  5
FC1
330
1
100
AcDbSymbolTableRecord
100
AcDbBlockTableRecord
  2
*D6
  0
BLOCK_RECORD
  5
FCD
330
1
100
AcDbSymbolTableRecord
100
AcDbBlockTableRecord
  2
*D7
  0
BLOCK_RECORD
  5
FDB
330
1
100
AcDbSymbolTableRecord
100
AcDbBlockTableRecord
  2
*D8
  0
BLOCK_RECORD
  5
FE8
330
1
100
AcDbSymbolTableRecord
100
AcDbBlockTableRecord
  2
*D9
  0
BLOCK_RECORD
  5
FF4
330
1
100
AcDbSymbolTableRecord
100
AcDbBlockTableRecord
  2
*D10
  0
BLOCK_RECORD
  5
1349
330
1
100
AcDbSymbolTableRecord
100
AcDbBlockTableRecord
  2
*D11
  0
BLOCK_RECORD
  5
1357
330
1
100
AcDbSymbolTableRecord
100
AcDbBlockTableRecord
  2
*D12
  0
BLOCK_RECORD
  5
1363
330
1
100
AcDbSymbolTableRecord
100
AcDbBlockTableRecord
  2
*D13
  0
BLOCK_RECORD
  5
136F
330
1
100
AcDbSymbolTableRecord
100
AcDbBlockTableRecord
  2
*D14
  0
BLOCK_RECORD
  5
1387
330
1
100
AcDbSymbolTableRecord
100
AcDbBlockTableRecord
  2
*D15
  0
BLOCK_RECORD
  5
1393
330
1
100
AcDbSymbolTableRecord
100
AcDbBlockTableRecord
  2
*D16
  0
BLOCK_RECORD
  5
139F
330
1
100
AcDbSymbolTableRecord
100
AcDbBlockTableRecord
  2
*D17
  0
BLOCK_RECORD
  5
13B7
330
1
100
AcDbSymbolTableRecord
100
AcDbBlockTableRecord
  2
*D18
  0
BLOCK_RECORD
  5
18BB
330
1
100
AcDbSymbolTableRecord
100
AcDbBlockTableRecord
  2
*D19
  0
BLOCK_RECORD
  5
1932
330
1
100
AcDbSymbolTableRecord
100
AcDbBlockTableRecord
  2
*D20
  0
BLOCK_RECORD
  5
196C
330
1
100
AcDbSymbolTableRecord
100
AcDbBlockTableRecord
  2
*D21
  0
BLOCK_RECORD
  5
1BFF
330
1
100
AcDbSymbolTableRecord
100
AcDbBlockTableRecord
  2
*D22
  0
BLOCK_RECORD
  5
1D96
330
1
100
AcDbSymbolTableRecord
100
AcDbBlockTableRecord
  2
GENDOT
  0
BLOCK_RECORD
  5
1E0C
330
1
100
AcDbSymbolTableRecord
100
AcDbBlockTableRecord
  2
*D24
  0
BLOCK_RECORD
  5
1FE2
330
1
100
AcDbSymbolTableRecord
100
AcDbBlockTableRecord
  2
*S25
  0
BLOCK_RECORD
  5
1FEB
330
1
100
AcDbSymbolTableRecord
100
AcDbBlockTableRecord
  2
*S26
  0
BLOCK_RECORD
  5
1FF5
330
1
100
AcDbSymbolTableRecord
100
AcDbBlockTableRecord
  2
*S27
  0
ENDTAB
  0
ENDSEC
  0
SECTION
  2
BLOCKS
  0
BLOCK
  5
4
330
2
100
AcDbEntity
  8
0
100
AcDbBlockBegin
  2
*MODEL_SPACE
 70
     0
 10
0.0
 20
0.0
 30
0.0
  3
*MODEL_SPACE
  1

  0
ENDBLK
  5
A
330
2
100
AcDbEntity
  8
0
100
AcDbBlockEnd
  0
BLOCK
  5
E
330
D
100
AcDbEntity
 67
     1
  8
0
100
AcDbBlockBegin
  2
*PAPER_SPACE
 70
     0
 10
0.0
 20
0.0
 30
0.0
  3
*PAPER_SPACE
  1

  0
ENDBLK
  5
F
330
D
100
AcDbEntity
 67
     1
  8
0
100
AcDbBlockEnd
  0
BLOCK
  5
21E
330
21C
100
AcDbEntity
  8
0
100
AcDbBlockBegin
  2
GENAXEH
 70
     0
 10
0.0
 20
0.0
 30
0.0
  3
GENAXEH
  1

  0
LINE
  5
21D
330
21C
100
AcDbEntity
  8
0
100
AcDbLine
 10
-1.0
 20
0.0
 30
0.0
 11
1.0
 21
0.0
 31
0.0
  0
ENDBLK
  5
21F
330
21C
100
AcDbEntity
  8
0
100
AcDbBlockEnd
  0
BLOCK
  5
F8D
330
F83
100
AcDbEntity
  8
0
100
AcDbBlockBegin
  2
*D1
 70
     1
 10
0.0
 20
0.0
 30
0.0
  3
*D1
  1

  0
LINE
  5
1C57
330
F83
100
AcDbEntity
  8
AM_PARDIM
100
AcDbLine
 10
77.37464887656421
 20
116.1938113892625
 30
0.0
 11
116.0325708695175
 21
116.1938113892624
 31
0.0
  0
LINE
  5
1C58
330
F83
100
AcDbEntity
  8
AM_PARDIM
100
AcDbLine
 10
77.37464887656421
 20
128.6938113892625
 30
0.0
 11
116.0325708695175
 21
128.6938113892625
 31
0.0
  0
LINE
  5
1C59
330
F83
100
AcDbEntity
  8
AM_PARDIM
100
AcDbLine
 10
114.5325708695175
 20
119.1938113892624
 30
0.0
 11
114.5325708695175
 21
125.6938113892624
 31
0.0
  0
SOLID
  5
1C5A
330
F83
100
AcDbEntity
  8
AM_PARDIM
100
AcDbTrace
 10
114.0325708695175
 20
119.1938113892624
 30
0.0
 11
115.0325708695175
 21
119.1938113892624
 31
0.0
 12
114.5325708695175
 22
116.1938113892624
 32
0.0
 13
114.5325708695175
 23
116.1938113892624
 33
0.0
  0
SOLID
  5
1C5B
330
F83
100
AcDbEntity
  8
AM_PARDIM
100
AcDbTrace
 10
114.0325708695175
 20
125.6938113892624
 30
0.0
 11
115.0325708695175
 21
125.6938113892624
 31
0.0
 12
114.5325708695175
 22
128.6938113892625
 32
0.0
 13
114.5325708695175
 23
128.6938113892625
 33
0.0
  0
MTEXT
  5
1C5C
330
F83
100
AcDbEntity
  8
AM_PARDIM
100
AcDbMText
 10
112.0244343865778
 20
122.4438113892625
 30
0.0
 40
3.0
 41
0.0
 71
     5
 72
     1
  1
12.5
  7
CHINA
 11
0.0000000000000001
 21
1.0
 31
0.0
1001
ACAD
1000
MTEXTBEGIN
1070
    73
1070
     1
1070
    44
1040
1.0
1070
    74
1070
     0
1000
MTEXTEND
  0
POINT
  5
1C5D
330
F83
100
AcDbEntity
  8
DEFPOINTS
 62
     0
100
AcDbPoint
 10
75.37464887656421
 20
116.1938113892625
 30
0.0
  0
POINT
  5
1C5E
330
F83
100
AcDbEntity
  8
DEFPOINTS
 62
     0
100
AcDbPoint
 10
75.37464887656421
 20
128.6938113892625
 30
0.0
  0
POINT
  5
1C5F
330
F83
100
AcDbEntity
  8
DEFPOINTS
 62
     0
100
AcDbPoint
 10
114.5325708695175
 20
128.6938113892625
 30
0.0
  0
ENDBLK
  5
F8E
330
F83
100
AcDbEntity
  8
0
100
AcDbBlockEnd
  0
BLOCK
  5
F9B
330
F8F
100
AcDbEntity
  8
0
100
AcDbBlockBegin
  2
*D2
 70
     1
 10
0.0
 20
0.0
 30
0.0
  3
*D2
  1

  0
LINE
  5
1C60
330
F8F
100
AcDbEntity
  8
AM_PARDIM
100
AcDbLine
 10
36.87464887656421
 20
116.1938113892625
 30
0.0
 11
25.3746488765642
 21
116.1938113892625
 31
0.0
  0
LINE
  5
1C61
330
F8F
100
AcDbEntity
  8
AM_PARDIM
100
AcDbLine
 10
36.87464887656421
 20
122.1938113892624
 30
0.0
 11
25.37464887656421
 21
122.1938113892625
 31
0.0
  0
LINE
  5
1C62
330
F8F
100
AcDbEntity
  8
AM_PARDIM
100
AcDbLine
 10
26.8746488765642
 20
113.1938113892624
 30
0.0
 11
26.8746488765642
 21
110.1938113892625
 31
0.0
  0
LINE
  5
1C63
330
F8F
100
AcDbEntity
  8
AM_PARDIM
100
AcDbLine
 10
26.87464887656421
 20
125.1938113892625
 30
0.0
 11
26.87464887656421
 21
128.1938113892625
 31
0.0
  0
LINE
  5
1C64
330
F8F
100
AcDbEntity
  8
AM_PARDIM
100
AcDbLine
 10
26.8746488765642
 20
116.1938113892625
 30
0.0
 11
26.87464887656421
 21
122.1938113892625
 31
0.0
  0
SOLID
  5
1C65
330
F8F
100
AcDbEntity
  8
AM_PARDIM
100
AcDbTrace
 10
26.3746488765642
 20
113.1938113892624
 30
0.0
 11
27.3746488765642
 21
113.1938113892624
 31
0.0
 12
26.8746488765642
 22
116.1938113892625
 32
0.0
 13
26.8746488765642
 23
116.1938113892625
 33
0.0
  0
SOLID
  5
1C66
330
F8F
100
AcDbEntity
  8
AM_PARDIM
100
AcDbTrace
 10
26.3746488765642
 20
125.1938113892625
 30
0.0
 11
27.3746488765642
 21
125.1938113892625
 31
0.0
 12
26.87464887656421
 22
122.1938113892625
 32
0.0
 13
26.87464887656421
 23
122.1938113892625
 33
0.0
  0
MTEXT
  5
1C67
330
F8F
100
AcDbEntity
  8
AM_PARDIM
100
AcDbMText
 10
24.37464887656418
 20
119.1938113892625
 30
0.0
 40
3.0
 41
0.0
 71
     5
 72
     1
  1
6
  7
CHINA
 11
0.0000000000000001
 21
1.0
 31
0.0
1001
ACAD
1000
MTEXTBEGIN
1070
    73
1070
     1
1070
    44
1040
1.0
1070
    74
1070
     0
1000
MTEXTEND
  0
POINT
  5
1C68
330
F8F
100
AcDbEntity
  8
DEFPOINTS
 62
     0
100
AcDbPoint
 10
38.8746488765642
 20
116.1938113892625
 30
0.0
  0
POINT
  5
1C69
330
F8F
100
AcDbEntity
  8
DEFPOINTS
 62
     0
100
AcDbPoint
 10
38.8746488765642
 20
122.1938113892624
 30
0.0
  0
POINT
  5
1C6A
330
F8F
100
AcDbEntity
  8
DEFPOINTS
 62
     0
100
AcDbPoint
 10
26.87464887656421
 20
122.1938113892625
 30
0.0
  0
ENDBLK
  5
F9C
330
F8F
100
AcDbEntity
  8
0
100
AcDbBlockEnd
  0
BLOCK
  5
FA7
330
F9D
100
AcDbEntity
  8
0
100
AcDbBlockBegin
  2
*D3
 70
     1
 10
0.0
 20
0.0
 30
0.0
  3
*D3
  1

  0
LINE
  5
1C6B
330
F9D
100
AcDbEntity
  8
AM_PARDIM
100
AcDbLine
 10
38.8746488765642
 20
124.1938113892624
 30
0.0
 11
38.8746488765642
 21
142.1938113892625
 31
0.0
  0
LINE
  5
1C6C
330
F9D
100
AcDbEntity
  8
AM_PARDIM
100
AcDbLine
 10
50.87464887656421
 20
124.1938113892624
 30
0.0
 11
50.87464887656421
 21
142.1938113892625
 31
0.0
  0
LINE
  5
1C6D
330
F9D
100
AcDbEntity
  8
AM_PARDIM
100
AcDbLine
 10
41.8746488765642
 20
140.6938113892624
 30
0.0
 11
47.87464887656421
 21
140.6938113892624
 31
0.0
  0
SOLID
  5
1C6E
330
F9D
100
AcDbEntity
  8
AM_PARDIM
100
AcDbTrace
 10
41.8746488765642
 20
141.1938113892625
 30
0.0
 11
41.8746488765642
 21
140.1938113892625
 31
0.0
 12
38.8746488765642
 22
140.6938113892624
 32
0.0
 13
38.8746488765642
 23
140.6938113892624
 33
0.0
  0
SOLID
  5
1C6F
330
F9D
100
AcDbEntity
  8
AM_PARDIM
100
AcDbTrace
 10
47.87464887656421
 20
141.1938113892625
 30
0.0
 11
47.87464887656421
 21
140.1938113892625
 31
0.0
 12
50.87464887656421
 22
140.6938113892624
 32
0.0
 13
50.87464887656421
 23
140.6938113892624
 33
0.0
  0
MTEXT
  5
1C70
330
F9D
100
AcDbEntity
  8
AM_PARDIM
100
AcDbMText
 10
44.87464887656421
 20
143.194073856454
 30
0.0
 40
3.0
 41
0.0
 71
     5
 72
     1
  1
12
  7
CHINA
1001
ACAD
1000
MTEXTBEGIN
1070
    73
1070
     1
1070
    44
1040
1.0
1070
    74
1070
     0
1000
MTEXTEND
  0
POINT
  5
1C71
330
F9D
100
AcDbEntity
  8
DEFPOINTS
 62
     0
100
AcDbPoint
 10
38.8746488765642
 20
122.1938113892624
 30
0.0
  0
POINT
  5
1C72
330
F9D
100
AcDbEntity
  8
DEFPOINTS
 62
     0
100
AcDbPoint
 10
50.87464887656421
 20
122.1938113892624
 30
0.0
  0
POINT
  5
1C73
330
F9D
100
AcDbEntity
  8
DEFPOINTS
 62
     0
100
AcDbPoint
 10
50.87464887656421
 20
140.6938113892624
 30
0.0
  0
ENDBLK
  5
FA8
330
F9D
100
AcDbEntity
  8
0
100
AcDbBlockEnd
  0
BLOCK
  5
FB3
330
FA9
100
AcDbEntity
  8
0
100
AcDbBlockBegin
  2
*D4
 70
     1
 10
0.0
 20
0.0
 30
0.0
  3
*D4
  1

  0
LINE
  5
1C74
330
FA9
100
AcDbEntity
  8
AM_PARDIM
100
AcDbLine
 10
38.8746488765642
 20
118.1938113892625
 30
0.0
 11
38.8746488765642
 21
162.1938113892625
 31
0.0
  0
LINE
  5
1C75
330
FA9
100
AcDbEntity
  8
AM_PARDIM
100
AcDbLine
 10
75.37464887656421
 20
118.1938113892625
 30
0.0
 11
75.37464887656421
 21
162.1938113892625
 31
0.0
  0
LINE
  5
1C76
330
FA9
100
AcDbEntity
  8
AM_PARDIM
100
AcDbLine
 10
41.8746488765642
 20
160.6938113892624
 30
0.0
 11
72.37464887656421
 21
160.6938113892624
 31
0.0
  0
SOLID
  5
1C77
330
FA9
100
AcDbEntity
  8
AM_PARDIM
100
AcDbTrace
 10
41.8746488765642
 20
161.1938113892624
 30
0.0
 11
41.8746488765642
 21
160.1938113892624
 31
0.0
 12
38.8746488765642
 22
160.6938113892624
 32
0.0
 13
38.8746488765642
 23
160.6938113892624
 33
0.0
  0
SOLID
  5
1C78
330
FA9
100
AcDbEntity
  8
AM_PARDIM
100
AcDbTrace
 10
72.37464887656421
 20
161.1938113892624
 30
0.0
 11
72.37464887656421
 21
160.1938113892624
 31
0.0
 12
75.37464887656421
 22
160.6938113892624
 32
0.0
 13
75.37464887656421
 23
160.6938113892624
 33
0.0
  0
MTEXT
  5
1C79
330
FA9
100
AcDbEntity
  8
AM_PARDIM
100
AcDbMText
 10
57.12464887656421
 20
163.2016854050105
 30
0.0
 40
3.0
 41
0.0
 71
     5
 72
     1
  1
36.5
  7
CHINA
1001
ACAD
1000
MTEXTBEGIN
1070
    73
1070
     1
1070
    44
1040
1.0
1070
    74
1070
     0
1000
MTEXTEND
  0
POINT
  5
1C7A
330
FA9
100
AcDbEntity
  8
DEFPOINTS
 62
     0
100
AcDbPoint
 10
38.8746488765642
 20
116.1938113892625
 30
0.0
  0
POINT
  5
1C7B
330
FA9
100
AcDbEntity
  8
DEFPOINTS
 62
     0
100
AcDbPoint
 10
75.37464887656421
 20
116.1938113892625
 30
0.0
  0
POINT
  5
1C7C
330
FA9
100
AcDbEntity
  8
DEFPOINTS
 62
     0
100
AcDbPoint
 10
75.37464887656421
 20
160.6938113892624
 30
0.0
  0
ENDBLK
  5
FB4
330
FA9
100
AcDbEntity
  8
0
100
AcDbBlockEnd
  0
BLOCK
  5
FBF
330
FB5
100
AcDbEntity
  8
0
100
AcDbBlockBegin
  2
*D5
 70
     1
 10
0.0
 20
0.0
 30
0.0
  3
*D5
  1

  0
LINE
  5
1C7D
330
FB5
100
AcDbEntity
  8
AM_PARDIM
100
AcDbLine
 10
52.87464887656421
 20
127.1938113892624
 30
0.0
 11
106.0325708695175
 21
127.1938113892624
 31
0.0
  0
LINE
  5
1C7E
330
FB5
100
AcDbEntity
  8
AM_PARDIM
100
AcDbLine
 10
77.37464887656421
 20
116.1938113892625
 30
0.0
 11
106.0325708695175
 21
116.1938113892624
 31
0.0
  0
LINE
  5
1C7F
330
FB5
100
AcDbEntity
  8
AM_PARDIM
100
AcDbLine
 10
104.5325708695175
 20
124.1938113892624
 30
0.0
 11
104.5325708695175
 21
119.1938113892624
 31
0.0
  0
SOLID
  5
1C80
330
FB5
100
AcDbEntity
  8
AM_PARDIM
100
AcDbTrace
 10
104.0325708695175
 20
124.1938113892624
 30
0.0
 11
105.0325708695175
 21
124.1938113892624
 31
0.0
 12
104.5325708695175
 22
127.1938113892624
 32
0.0
 13
104.5325708695175
 23
127.1938113892624
 33
0.0
  0
SOLID
  5
1C81
330
FB5
100
AcDbEntity
  8
AM_PARDIM
100
AcDbTrace
 10
104.0325708695175
 20
119.1938113892624
 30
0.0
 11
105.0325708695175
 21
119.1938113892624
 31
0.0
 12
104.5325708695175
 22
116.1938113892624
 32
0.0
 13
104.5325708695175
 23
116.1938113892624
 33
0.0
  0
MTEXT
  5
1C82
330
FB5
100
AcDbEntity
  8
AM_PARDIM
100
AcDbMText
 10
102.0325708695175
 20
121.6938113892625
 30
0.0
 40
3.0
 41
0.0
 71
     5
 72
     1
  1
11
  7
CHINA
 11
0.0000000000000001
 21
1.0
 31
0.0
1001
ACAD
1000
MTEXTBEGIN
1070
    73
1070
     1
1070
    44
1040
1.0
1070
    74
1070
     0
1000
MTEXTEND
  0
POINT
  5
1C83
330
FB5
100
AcDbEntity
  8
DEFPOINTS
 62
     0
100
AcDbPoint
 10
50.87464887656421
 20
127.1938113892624
 30
0.0
  0
POINT
  5
1C84
330
FB5
100
AcDbEntity
  8
DEFPOINTS
 62
     0
100
AcDbPoint
 10
75.37464887656421
 20
116.1938113892625
 30
0.0
  0
POINT
  5
1C85
330
FB5
100
AcDbEntity
  8
DEFPOINTS
 62
     0
100
AcDbPoint
 10
104.5325708695175
 20
116.1938113892624
 30
0.0
  0
ENDBLK
  5
FC0
330
FB5
100
AcDbEntity
  8
0
100
AcDbBlockEnd
  0
BLOCK
  5
FCB
330
FC1
100
AcDbEntity
  8
0
100
AcDbBlockBegin
  2
*D6
 70
     1
 10
0.0
 20
0.0
 30
0.0
  3
*D6
  1

  0
LINE
  5
1C86
330
FC1
100
AcDbEntity
  8
AM_PARDIM
100
AcDbLine
 10
66.3746488765642
 20
130.6938113892625
 30
0.0
 11
66.3746488765642
 21
152.1938113892624
 31
0.0
  0
LINE
  5
1C87
330
FC1
100
AcDbEntity
  8
AM_PARDIM
100
AcDbLine
 10
75.37464887656421
 20
130.6938113892625
 30
0.0
 11
75.37464887656421
 21
152.1938113892624
 31
0.0
  0
LINE
  5
1C88
330
FC1
100
AcDbEntity
  8
AM_PARDIM
100
AcDbLine
 10
69.37464887656421
 20
150.6938113892624
 30
0.0
 11
72.37464887656421
 21
150.6938113892624
 31
0.0
  0
SOLID
  5
1C89
330
FC1
100
AcDbEntity
  8
AM_PARDIM
100
AcDbTrace
 10
69.37464887656421
 20
151.1938113892624
 30
0.0
 11
69.37464887656421
 21
150.1938113892624
 31
0.0
 12
66.3746488765642
 22
150.6938113892624
 32
0.0
 13
66.3746488765642
 23
150.6938113892624
 33
0.0
  0
SOLID
  5
1C8A
330
FC1
100
AcDbEntity
  8
AM_PARDIM
100
AcDbTrace
 10
72.37464887656421
 20
151.1938113892624
 30
0.0
 11
72.37464887656421
 21
150.1938113892624
 31
0.0
 12
75.37464887656421
 22
150.6938113892624
 32
0.0
 13
75.37464887656421
 23
150.6938113892624
 33
0.0
  0
MTEXT
  5
1C8B
330
FC1
100
AcDbEntity
  8
AM_PARDIM
100
AcDbMText
 10
70.87464887656421
 20
153.1938113892624
 30
0.0
 40
3.0
 41
0.0
 71
     5
 72
     1
  1
9
  7
CHINA
1001
ACAD
1000
MTEXTBEGIN
1070
    73
1070
     1
1070
    44
1040
1.0
1070
    74
1070
     0
1000
MTEXTEND
  0
POINT
  5
1C8C
330
FC1
100
AcDbEntity
  8
DEFPOINTS
 62
     0
100
AcDbPoint
 10
66.3746488765642
 20
128.6938113892625
 30
0.0
  0
POINT
  5
1C8D
330
FC1
100
AcDbEntity
  8
DEFPOINTS
 62
     0
100
AcDbPoint
 10
75.37464887656421
 20
128.6938113892625
 30
0.0
  0
POINT
  5
1C8E
330
FC1
100
AcDbEntity
  8
DEFPOINTS
 62
     0
100
AcDbPoint
 10
75.37464887656421
 20
150.6938113892624
 30
0.0
  0
ENDBLK
  5
FCC
330
FC1
100
AcDbEntity
  8
0
100
AcDbBlockEnd
  0
BLOCK
  5
FD9
330
FCD
100
AcDbEntity
  8
0
100
AcDbBlockBegin
  2
*D7
 70
     1
 10
0.0
 20
0.0
 30
0.0
  3
*D7
  1

  0
LINE
  5
1C8F
330
FCD
100
AcDbEntity
  8
AM_PARDIM
100
AcDbLine
 10
63.87464887656418
 20
130.6938113892624
 30
0.0
 11
63.87464887656418
 21
142.1938113892625
 31
0.0
  0
LINE
  5
1C90
330
FCD
100
AcDbEntity
  8
AM_PARDIM
100
AcDbLine
 10
66.37464887656418
 20
130.6938113892624
 30
0.0
 11
66.37464887656418
 21
142.1938113892625
 31
0.0
  0
LINE
  5
1C91
330
FCD
100
AcDbEntity
  8
AM_PARDIM
100
AcDbLine
 10
60.87464887656418
 20
140.6938113892624
 30
0.0
 11
57.87464887656418
 21
140.6938113892624
 31
0.0
  0
LINE
  5
1C92
330
FCD
100
AcDbEntity
  8
AM_PARDIM
100
AcDbLine
 10
69.37464887656418
 20
140.6938113892624
 30
0.0
 11
79.48383522827022
 21
140.6938113892624
 31
0.0
  0
LINE
  5
1C93
330
FCD
100
AcDbEntity
  8
AM_PARDIM
100
AcDbLine
 10
63.87464887656418
 20
140.6938113892624
 30
0.0
 11
66.37464887656418
 21
140.6938113892624
 31
0.0
  0
SOLID
  5
1C94
330
FCD
100
AcDbEntity
  8
AM_PARDIM
100
AcDbTrace
 10
60.87464887656418
 20
141.1938113892625
 30
0.0
 11
60.87464887656418
 21
140.1938113892625
 31
0.0
 12
63.87464887656418
 22
140.6938113892624
 32
0.0
 13
63.87464887656418
 23
140.6938113892624
 33
0.0
  0
SOLID
  5
1C95
330
FCD
100
AcDbEntity
  8
AM_PARDIM
100
AcDbTrace
 10
69.37464887656418
 20
141.1938113892625
 30
0.0
 11
69.37464887656418
 21
140.1938113892625
 31
0.0
 12
66.37464887656418
 22
140.6938113892624
 32
0.0
 13
66.37464887656418
 23
140.6938113892624
 33
0.0
  0
MTEXT
  5
1C96
330
FCD
100
AcDbEntity
  8
AM_PARDIM
100
AcDbMText
 10
75.92924205241719
 20
143.2019478722021
 30
0.0
 40
3.0
 41
0.0
 71
     5
 72
     1
  1
2.5
  7
CHINA
1001
ACAD
1000
MTEXTBEGIN
1070
    73
1070
     1
1070
    44
1040
1.0
1070
    74
1070
     0
1000
MTEXTEND
  0
POINT
  5
1C97
330
FCD
100
AcDbEntity
  8
DEFPOINTS
 62
     0
100
AcDbPoint
 10
63.87464887656418
 20
128.6938113892624
 30
0.0
  0
POINT
  5
1C98
330
FCD
100
AcDbEntity
  8
DEFPOINTS
 62
     0
100
AcDbPoint
 10
66.37464887656418
 20
128.6938113892624
 30
0.0
  0
POINT
  5
1C99
330
FCD
100
AcDbEntity
  8
DEFPOINTS
 62
     0
100
AcDbPoint
 10
66.37464887656418
 20
140.6938113892624
 30
0.0
  0
ENDBLK
  5
FDA
330
FCD
100
AcDbEntity
  8
0
100
AcDbBlockEnd
  0
BLOCK
  5
FE6
330
FDB
100
AcDbEntity
  8
0
100
AcDbBlockBegin
  2
*D8
 70
     1
 10
0.0
 20
0.0
 30
0.0
  3
*D8
  1

  0
LINE
  5
1C9A
330
FDB
100
AcDbEntity
  8
AM_PARDIM
100
AcDbLine
 10
66.37464887656418
 20
130.6938113892624
 30
0.0
 11
66.37464887656418
 21
137.530378563861
 31
0.0
  0
LINE
  5
1C9B
330
FDB
100
AcDbEntity
  8
AM_PARDIM
100
AcDbLine
 10
66.37464887656418
 20
118.1938113892624
 30
0.0
 11
66.37464887656418
 21
137.530378563861
 31
0.0
  0
LINE
  5
1C9C
330
FDB
100
AcDbEntity
  8
AM_PARDIM
100
AcDbLine
 10
63.37464887656418
 20
136.030378563861
 30
0.0
 11
60.37464887656418
 21
136.030378563861
 31
0.0
  0
LINE
  5
1C9D
330
FDB
100
AcDbEntity
  8
AM_PARDIM
100
AcDbLine
 10
69.37464887656418
 20
136.030378563861
 30
0.0
 11
75.97464887656418
 21
136.030378563861
 31
0.0
  0
SOLID
  5
1C9E
330
FDB
100
AcDbEntity
  8
AM_PARDIM
100
AcDbTrace
 10
63.37464887656418
 20
136.530378563861
 30
0.0
 11
63.37464887656418
 21
135.530378563861
 31
0.0
 12
66.37464887656418
 22
136.030378563861
 32
0.0
 13
66.37464887656418
 23
136.030378563861
 33
0.0
  0
SOLID
  5
1C9F
330
FDB
100
AcDbEntity
  8
AM_PARDIM
100
AcDbTrace
 10
69.37464887656418
 20
136.530378563861
 30
0.0
 11
69.37464887656418
 21
135.530378563861
 31
0.0
 12
66.37464887656418
 22
136.030378563861
 32
0.0
 13
66.37464887656418
 23
136.030378563861
 33
0.0
  0
MTEXT
  5
1CA0
330
FDB
100
AcDbEntity
  8
AM_PARDIM
100
AcDbMText
 10
74.17464887656418
 20
138.530378563861
 30
0.0
 40
3.0
 41
0.0
 71
     5
 72
     1
  1
0
  7
CHINA
1001
ACAD
1000
MTEXTBEGIN
1070
    73
1070
     1
1070
    44
1040
1.0
1070
    74
1070
     0
1000
MTEXTEND
  0
POINT
  5
1CA1
330
FDB
100
AcDbEntity
  8
DEFPOINTS
 62
     0
100
AcDbPoint
 10
66.37464887656418
 20
128.6938113892624
 30
0.0
  0
POINT
  5
1CA2
330
FDB
100
AcDbEntity
  8
DEFPOINTS
 62
     0
100
AcDbPoint
 10
66.37464887656418
 20
116.1938113892624
 30
0.0
  0
POINT
  5
1CA3
330
FDB
100
AcDbEntity
  8
DEFPOINTS
 62
     0
100
AcDbPoint
 10
66.37464887656418
 20
136.030378563861
 30
0.0
  0
ENDBLK
  5
FE7
330
FDB
100
AcDbEntity
  8
0
100
AcDbBlockEnd
  0
BLOCK
  5
FF2
330
FE8
100
AcDbEntity
  8
0
100
AcDbBlockBegin
  2
*D9
 70
     1
 10
0.0
 20
0.0
 30
0.0
  3
*D9
  1

  0
LINE
  5
1CA4
330
FE8
100
AcDbEntity
  8
AM_PARDIM
100
AcDbLine
 10
65.87464887656418
 20
125.6938113892624
 30
0.0
 11
96.03257086951755
 21
125.6938113892624
 31
0.0
  0
LINE
  5
1CA5
330
FE8
100
AcDbEntity
  8
AM_PARDIM
100
AcDbLine
 10
84.53257086951754
 20
116.1938113892624
 30
0.0
 11
96.03257086951755
 21
116.1938113892624
 31
0.0
  0
LINE
  5
1CA6
330
FE8
100
AcDbEntity
  8
AM_PARDIM
100
AcDbLine
 10
94.53257086951754
 20
122.6938113892624
 30
0.0
 11
94.53257086951754
 21
119.1938113892624
 31
0.0
  0
SOLID
  5
1CA7
330
FE8
100
AcDbEntity
  8
AM_PARDIM
100
AcDbTrace
 10
94.03257086951754
 20
122.6938113892624
 30
0.0
 11
95.03257086951753
 21
122.6938113892624
 31
0.0
 12
94.53257086951754
 22
125.6938113892624
 32
0.0
 13
94.53257086951754
 23
125.6938113892624
 33
0.0
  0
SOLID
  5
1CA8
330
FE8
100
AcDbEntity
  8
AM_PARDIM
100
AcDbTrace
 10
94.03257086951754
 20
119.1938113892624
 30
0.0
 11
95.03257086951753
 21
119.1938113892624
 31
0.0
 12
94.53257086951754
 22
116.1938113892624
 32
0.0
 13
94.53257086951754
 23
116.1938113892624
 33
0.0
  0
MTEXT
  5
1CA9
330
FE8
100
AcDbEntity
  8
AM_PARDIM
100
AcDbMText
 10
92.0246968537695
 20
120.9438113892624
 30
0.0
 40
3.0
 41
0.0
 71
     5
 72
     1
  1
9.5
  7
CHINA
 11
0.0000000000000001
 21
1.0
 31
0.0
1001
ACAD
1000
MTEXTBEGIN
1070
    73
1070
     1
1070
    44
1040
1.0
1070
    74
1070
     0
1000
MTEXTEND
  0
POINT
  5
1CAA
330
FE8
100
AcDbEntity
  8
DEFPOINTS
 62
     0
100
AcDbPoint
 10
63.87464887656418
 20
125.6938113892624
 30
0.0
  0
POINT
  5
1CAB
330
FE8
100
AcDbEntity
  8
DEFPOINTS
 62
     0
100
AcDbPoint
 10
82.53257086951753
 20
116.1938113892624
 30
0.0
  0
POINT
  5
1CAC
330
FE8
100
AcDbEntity
  8
DEFPOINTS
 62
     0
100
AcDbPoint
 10
94.53257086951754
 20
116.1938113892624
 30
0.0
  0
ENDBLK
  5
FF3
330
FE8
100
AcDbEntity
  8
0
100
AcDbBlockEnd
  0
BLOCK
  5
FFE
330
FF4
100
AcDbEntity
  8
0
100
AcDbBlockBegin
  2
*D10
 70
     1
 10
0.0
 20
0.0
 30
0.0
  3
*D10
  1

  0
LINE
  5
1CAD
330
FF4
100
AcDbEntity
  8
AM_PARDIM
100
AcDbLine
 10
68.37464887656418
 20
128.6938113892624
 30
0.0
 11
126.0325708695175
 21
128.6938113892624
 31
0.0
  0
LINE
  5
1CAE
330
FF4
100
AcDbEntity
  8
AM_PARDIM
100
AcDbLine
 10
84.53257086951754
 20
116.1938113892624
 30
0.0
 11
126.0325708695175
 21
116.1938113892624
 31
0.0
  0
LINE
  5
1CAF
330
FF4
100
AcDbEntity
  8
AM_PARDIM
100
AcDbLine
 10
124.5325708695175
 20
125.6938113892624
 30
0.0
 11
124.5325708695175
 21
119.1938113892624
 31
0.0
  0
SOLID
  5
1CB0
330
FF4
100
AcDbEntity
  8
AM_PARDIM
100
AcDbTrace
 10
124.0325708695175
 20
125.6938113892624
 30
0.0
 11
125.0325708695175
 21
125.6938113892624
 31
0.0
 12
124.5325708695175
 22
128.6938113892624
 32
0.0
 13
124.5325708695175
 23
128.6938113892624
 33
0.0
  0
SOLID
  5
1CB1
330
FF4
100
AcDbEntity
  8
AM_PARDIM
100
AcDbTrace
 10
124.0325708695175
 20
119.1938113892624
 30
0.0
 11
125.0325708695175
 21
119.1938113892624
 31
0.0
 12
124.5325708695175
 22
116.1938113892624
 32
0.0
 13
124.5325708695175
 23
116.1938113892624
 33
0.0
  0
MTEXT
  5
1CB2
330
FF4
100
AcDbEntity
  8
AM_PARDIM
100
AcDbMText
 10
122.0244343865779
 20
122.4438113892624
 30
0.0
 40
3.0
 41
0.0
 71
     5
 72
     1
  1
12.5
  7
CHINA
 11
0.0000000000000001
 21
1.0
 31
0.0
1001
ACAD
1000
MTEXTBEGIN
1070
    73
1070
     1
1070
    44
1040
1.0
1070
    74
1070
     0
1000
MTEXTEND
  0
POINT
  5
1CB3
330
FF4
100
AcDbEntity
  8
DEFPOINTS
 62
     0
100
AcDbPoint
 10
66.37464887656418
 20
128.6938113892624
 30
0.0
  0
POINT
  5
1CB4
330
FF4
100
AcDbEntity
  8
DEFPOINTS
 62
     0
100
AcDbPoint
 10
82.53257086951753
 20
116.1938113892624
 30
0.0
  0
POINT
  5
1CB5
330
FF4
100
AcDbEntity
  8
DEFPOINTS
 62
     0
100
AcDbPoint
 10
124.5325708695175
 20
116.1938113892624
 30
0.0
  0
ENDBLK
  5
FFF
330
FF4
100
AcDbEntity
  8
0
100
AcDbBlockEnd
  0
BLOCK
  5
1355
330
1349
100
AcDbEntity
  8
0
100
AcDbBlockBegin
  2
*D11
 70
     1
 10
0.0
 20
0.0
 30
0.0
  3
*D11
  1

  0
LINE
  5
1FC5
330
1349
100
AcDbEntity
  8
AM_5
100
AcDbLine
 10
289.9555630018136
 20
283.1105518825871
 30
0.0
 11
289.9555630018136
 21
293.251093462233
 31
0.0
  0
LINE
  5
1FC6
330
1349
100
AcDbEntity
  8
AM_5
100
AcDbLine
 10
297.9555630018136
 20
284.6105518825871
 30
0.0
 11
297.9555630018136
 21
293.251093462233
 31
0.0
  0
LINE
  5
1FC7
330
1349
100
AcDbEntity
  8
AM_5
100
AcDbLine
 10
286.9555630018136
 20
291.751093462233
 30
0.0
 11
283.9555630018136
 21
291.751093462233
 31
0.0
  0
LINE
  5
1FC8
330
1349
100
AcDbEntity
  8
AM_5
100
AcDbLine
 10
300.9555630018136
 20
291.751093462233
 30
0.0
 11
303.9555630018136
 21
291.751093462233
 31
0.0
  0
LINE
  5
1FC9
330
1349
100
AcDbEntity
  8
AM_5
100
AcDbLine
 10
289.9555630018136
 20
291.751093462233
 30
0.0
 11
297.9555630018136
 21
291.751093462233
 31
0.0
  0
SOLID
  5
1FCA
330
1349
100
AcDbEntity
  8
AM_5
100
AcDbTrace
 10
286.9555630018136
 20
292.251093462233
 30
0.0
 11
286.9555630018136
 21
291.251093462233
 31
0.0
 12
289.9555630018136
 22
291.751093462233
 32
0.0
 13
289.9555630018136
 23
291.751093462233
 33
0.0
  0
INSERT
  5
1FCB
330
1349
100
AcDbEntity
  8
AM_5
100
AcDbBlockReference
  2
GENDOT
 10
297.9555630018136
 20
291.751093462233
 30
0.0
 41
3.0
 42
3.0
 43
3.0
 50
180.0
  0
MTEXT
  5
1FCC
330
1349
100
AcDbEntity
  8
AM_5
100
AcDbMText
 10
293.9555630018136
 20
294.251093462233
 30
0.0
 40
3.0
 41
0.0
 71
     5
 72
     1
  1
8
  7
CHINA
  0
POINT
  5
1FCD
330
1349
100
AcDbEntity
  8
DEFPOINTS
 62
     0
100
AcDbPoint
 10
289.9555630018136
 20
281.1105518825872
 30
0.0
  0
POINT
  5
1FCE
330
1349
100
AcDbEntity
  8
DEFPOINTS
 62
     0
100
AcDbPoint
 10
297.9555630018136
 20
282.6105518825871
 30
0.0
  0
POINT
  5
1FCF
330
1349
100
AcDbEntity
  8
DEFPOINTS
 62
     0
100
AcDbPoint
 10
297.9555630018136
 20
291.751093462233
 30
0.0
  0
ENDBLK
  5
1356
330
1349
100
AcDbEntity
  8
0
100
AcDbBlockEnd
  0
BLOCK
  5
1361
330
1357
100
AcDbEntity
  8
0
100
AcDbBlockBegin
  2
*D12
 70
     1
 10
0.0
 20
0.0
 30
0.0
  3
*D12
  1

  0
LINE
  5
1D45
330
1357
100
AcDbEntity
  8
AM_5
100
AcDbLine
 10
341.4555630018136
 20
265.6105518825871
 30
0.0
 11
377.4555630018136
 21
265.6105518825871
 31
0.0
  0
LINE
  5
1D46
330
1357
100
AcDbEntity
  8
AM_5
100
AcDbLine
 10
349.4555630018136
 20
170.1105518825871
 30
0.0
 11
377.4555630018136
 21
170.1105518825871
 31
0.0
  0
LINE
  5
1D47
330
1357
100
AcDbEntity
  8
AM_5
100
AcDbLine
 10
375.9555630018136
 20
262.6105518825871
 30
0.0
 11
375.9555630018136
 21
173.1105518825871
 31
0.0
  0
SOLID
  5
1D48
330
1357
100
AcDbEntity
  8
AM_5
100
AcDbTrace
 10
375.4555630018136
 20
262.6105518825871
 30
0.0
 11
376.4555630018136
 21
262.6105518825871
 31
0.0
 12
375.9555630018136
 22
265.6105518825871
 32
0.0
 13
375.9555630018136
 23
265.6105518825871
 33
0.0
  0
SOLID
  5
1D49
330
1357
100
AcDbEntity
  8
AM_5
100
AcDbTrace
 10
375.4555630018136
 20
173.1105518825871
 30
0.0
 11
376.4555630018136
 21
173.1105518825871
 31
0.0
 12
375.9555630018136
 22
170.1105518825871
 32
0.0
 13
375.9555630018136
 23
170.1105518825871
 33
0.0
  0
MTEXT
  5
1D4A
330
1357
100
AcDbEntity
  8
AM_5
100
AcDbMText
 10
373.4476889860655
 20
217.8605518825872
 30
0.0
 40
3.0
 41
0.0
 71
     5
 72
     1
  1
95.5
  7
CHINA
 11
0.0000000000000001
 21
1.0
 31
0.0
1001
ACAD
1000
MTEXTBEGIN
1070
    73
1070
     1
1070
    44
1040
1.0
1070
    74
1070
     0
1000
MTEXTEND
  0
POINT
  5
1D4B
330
1357
100
AcDbEntity
  8
DEFPOINTS
 62
     0
100
AcDbPoint
 10
339.4555630018136
 20
265.6105518825871
 30
0.0
  0
POINT
  5
1D4C
330
1357
100
AcDbEntity
  8
DEFPOINTS
 62
     0
100
AcDbPoint
 10
347.4555630018136
 20
170.1105518825871
 30
0.0
  0
POINT
  5
1D4D
330
1357
100
AcDbEntity
  8
DEFPOINTS
 62
     0
100
AcDbPoint
 10
375.9555630018136
 20
170.1105518825871
 30
0.0
  0
ENDBLK
  5
1362
330
1357
100
AcDbEntity
  8
0
100
AcDbBlockEnd
  0
BLOCK
  5
136D
330
1363
100
AcDbEntity
  8
0
100
AcDbBlockBegin
  2
*D13
 70
     1
 10
0.0
 20
0.0
 30
0.0
  3
*D13
  1

  0
LINE
  5
1D3C
330
1363
100
AcDbEntity
  8
AM_5
100
AcDbLine
 10
346.4555630018136
 20
236.6105518825871
 30
0.0
 11
369.4555630018136
 21
236.6105518825871
 31
0.0
  0
LINE
  5
1D3D
330
1363
100
AcDbEntity
  8
AM_5
100
AcDbLine
 10
349.4555630018136
 20
170.1105518825871
 30
0.0
 11
369.4555630018136
 21
170.1105518825871
 31
0.0
  0
LINE
  5
1D3E
330
1363
100
AcDbEntity
  8
AM_5
100
AcDbLine
 10
367.9555630018136
 20
233.6105518825871
 30
0.0
 11
367.9555630018136
 21
173.1105518825871
 31
0.0
  0
SOLID
  5
1D3F
330
1363
100
AcDbEntity
  8
AM_5
100
AcDbTrace
 10
367.4555630018136
 20
233.6105518825871
 30
0.0
 11
368.4555630018136
 21
233.6105518825871
 31
0.0
 12
367.9555630018136
 22
236.6105518825871
 32
0.0
 13
367.9555630018136
 23
236.6105518825871
 33
0.0
  0
SOLID
  5
1D40
330
1363
100
AcDbEntity
  8
AM_5
100
AcDbTrace
 10
367.4555630018136
 20
173.1105518825871
 30
0.0
 11
368.4555630018136
 21
173.1105518825871
 31
0.0
 12
367.9555630018136
 22
170.1105518825871
 32
0.0
 13
367.9555630018136
 23
170.1105518825871
 33
0.0
  0
MTEXT
  5
1D41
330
1363
100
AcDbEntity
  8
AM_5
100
AcDbMText
 10
365.4476889860655
 20
203.3605518825872
 30
0.0
 40
3.0
 41
0.0
 71
     5
 72
     1
  1
66.5
  7
CHINA
 11
0.0000000000000001
 21
1.0
 31
0.0
1001
ACAD
1000
MTEXTBEGIN
1070
    73
1070
     1
1070
    44
1040
1.0
1070
    74
1070
     0
1000
MTEXTEND
  0
POINT
  5
1D42
330
1363
100
AcDbEntity
  8
DEFPOINTS
 62
     0
100
AcDbPoint
 10
344.4555630018136
 20
236.6105518825871
 30
0.0
  0
POINT
  5
1D43
330
1363
100
AcDbEntity
  8
DEFPOINTS
 62
     0
100
AcDbPoint
 10
347.4555630018136
 20
170.1105518825871
 30
0.0
  0
POINT
  5
1D44
330
1363
100
AcDbEntity
  8
DEFPOINTS
 62
     0
100
AcDbPoint
 10
367.9555630018136
 20
170.1105518825871
 30
0.0
  0
ENDBLK
  5
136E
330
1363
100
AcDbEntity
  8
0
100
AcDbBlockEnd
  0
BLOCK
  5
1379
330
136F
100
AcDbEntity
  8
0
100
AcDbBlockBegin
  2
*D14
 70
     1
 10
0.0
 20
0.0
 30
0.0
  3
*D14
  1

  0
LINE
  5
1D1B
330
136F
100
AcDbEntity
  8
AM_5
100
AcDbLine
 10
349.4555630018136
 20
193.1105518825871
 30
0.0
 11
361.4555630018136
 21
193.1105518825871
 31
0.0
  0
LINE
  5
1D1C
330
136F
100
AcDbEntity
  8
AM_5
100
AcDbLine
 10
349.4555630018136
 20
170.1105518825871
 30
0.0
 11
361.4555630018136
 21
170.1105518825871
 31
0.0
  0
LINE
  5
1D1D
330
136F
100
AcDbEntity
  8
AM_5
100
AcDbLine
 10
359.9555630018136
 20
190.1105518825871
 30
0.0
 11
359.9555630018136
 21
173.1105518825871
 31
0.0
  0
SOLID
  5
1D1E
330
136F
100
AcDbEntity
  8
AM_5
100
AcDbTrace
 10
359.4555630018136
 20
190.1105518825871
 30
0.0
 11
360.4555630018136
 21
190.1105518825871
 31
0.0
 12
359.9555630018136
 22
193.1105518825871
 32
0.0
 13
359.9555630018136
 23
193.1105518825871
 33
0.0
  0
SOLID
  5
1D1F
330
136F
100
AcDbEntity
  8
AM_5
100
AcDbTrace
 10
359.4555630018136
 20
173.1105518825871
 30
0.0
 11
360.4555630018136
 21
173.1105518825871
 31
0.0
 12
359.9555630018136
 22
170.1105518825871
 32
0.0
 13
359.9555630018136
 23
170.1105518825871
 33
0.0
  0
MTEXT
  5
1D20
330
136F
100
AcDbEntity
  8
AM_5
100
AcDbMText
 10
357.4553005346219
 20
181.6105518825872
 30
0.0
 40
3.0
 41
0.0
 71
     5
 72
     1
  1
23
  7
CHINA
 11
0.0000000000000001
 21
1.0
 31
0.0
1001
ACAD
1000
MTEXTBEGIN
1070
    73
1070
     1
1070
    44
1040
1.0
1070
    74
1070
     0
1000
MTEXTEND
  0
POINT
  5
1D21
330
136F
100
AcDbEntity
  8
DEFPOINTS
 62
     0
100
AcDbPoint
 10
347.4555630018136
 20
193.1105518825871
 30
0.0
  0
POINT
  5
1D22
330
136F
100
AcDbEntity
  8
DEFPOINTS
 62
     0
100
AcDbPoint
 10
347.4555630018136
 20
170.1105518825871
 30
0.0
  0
POINT
  5
1D23
330
136F
100
AcDbEntity
  8
DEFPOINTS
 62
     0
100
AcDbPoint
 10
359.9555630018136
 20
170.1105518825871
 30
0.0
  0
ENDBLK
  5
137A
330
136F
100
AcDbEntity
  8
0
100
AcDbBlockEnd
  0
BLOCK
  5
1391
330
1387
100
AcDbEntity
  8
0
100
AcDbBlockBegin
  2
*D15
 70
     1
 10
0.0
 20
0.0
 30
0.0
  3
*D15
  1

  0
LINE
  5
1D75
330
1387
100
AcDbEntity
  8
AM_5
100
AcDbLine
 10
348.7055630018136
 20
369.8175655867383
 30
0.0
 11
369.4555630018136
 21
369.8175655867383
 31
0.0
  0
LINE
  5
1D76
330
1387
100
AcDbEntity
  8
AM_5
100
AcDbLine
 10
348.7055630018136
 20
338.8175655867383
 30
0.0
 11
369.4555630018136
 21
338.8175655867383
 31
0.0
  0
LINE
  5
1D77
330
1387
100
AcDbEntity
  8
AM_5
100
AcDbLine
 10
367.9555630018136
 20
366.8175655867382
 30
0.0
 11
367.9555630018136
 21
341.8175655867382
 31
0.0
  0
SOLID
  5
1D78
330
1387
100
AcDbEntity
  8
AM_5
100
AcDbTrace
 10
367.4555630018136
 20
366.8175655867382
 30
0.0
 11
368.4555630018136
 21
366.8175655867382
 31
0.0
 12
367.9555630018136
 22
369.8175655867383
 32
0.0
 13
367.9555630018136
 23
369.8175655867383
 33
0.0
  0
SOLID
  5
1D79
330
1387
100
AcDbEntity
  8
AM_5
100
AcDbTrace
 10
367.4555630018136
 20
341.8175655867382
 30
0.0
 11
368.4555630018136
 21
341.8175655867382
 31
0.0
 12
367.9555630018136
 22
338.8175655867383
 32
0.0
 13
367.9555630018136
 23
338.8175655867383
 33
0.0
  0
MTEXT
  5
1D7A
330
1387
100
AcDbEntity
  8
AM_5
100
AcDbMText
 10
365.4555630018135
 20
354.3175655867383
 30
0.0
 40
3.0
 41
0.0
 71
     5
 72
     1
  1
31
  7
CHINA
 11
0.0000000000000001
 21
1.0
 31
0.0
1001
ACAD
1000
MTEXTBEGIN
1070
    73
1070
     1
1070
    44
1040
1.0
1070
    74
1070
     0
1000
MTEXTEND
  0
POINT
  5
1D7B
330
1387
100
AcDbEntity
  8
DEFPOINTS
 62
     0
100
AcDbPoint
 10
346.7055630018136
 20
369.8175655867383
 30
0.0
  0
POINT
  5
1D7C
330
1387
100
AcDbEntity
  8
DEFPOINTS
 62
     0
100
AcDbPoint
 10
346.7055630018136
 20
338.8175655867383
 30
0.0
  0
POINT
  5
1D7D
330
1387
100
AcDbEntity
  8
DEFPOINTS
 62
     0
100
AcDbPoint
 10
367.9555630018136
 20
338.8175655867383
 30
0.0
  0
ENDBLK
  5
1392
330
1387
100
AcDbEntity
  8
0
100
AcDbBlockEnd
  0
BLOCK
  5
139D
330
1393
100
AcDbEntity
  8
0
100
AcDbBlockBegin
  2
*D16
 70
     1
 10
0.0
 20
0.0
 30
0.0
  3
*D16
  1

  0
LINE
  5
1FD0
330
1393
100
AcDbEntity
  8
AM_5
 62
     0
100
AcDbLine
 10
340.4555630018136
 20
281.6105518825871
 30
0.0
 11
376.9555630018136
 21
281.6105518825871
 31
0.0
  0
LINE
  5
1FD1
330
1393
100
AcDbEntity
  8
AM_5
 62
     0
100
AcDbLine
 10
340.4555630018136
 20
265.6105518825871
 30
0.0
 11
376.9555630018136
 21
265.6105518825871
 31
0.0
  0
LINE
  5
1FD2
330
1393
100
AcDbEntity
  8
AM_5
 62
     0
100
AcDbLine
 10
375.9555630018136
 20
278.6105518825871
 30
0.0
 11
375.9555630018136
 21
268.6105518825872
 31
0.0
  0
SOLID
  5
1FD3
330
1393
100
AcDbEntity
  8
AM_5
 62
     0
100
AcDbTrace
 10
375.4555630018136
 20
278.6105518825871
 30
0.0
 11
376.4555630018136
 21
278.6105518825871
 31
0.0
 12
375.9555630018136
 22
281.6105518825871
 32
0.0
 13
375.9555630018136
 23
281.6105518825871
 33
0.0
  0
SOLID
  5
1FD4
330
1393
100
AcDbEntity
  8
AM_5
 62
     0
100
AcDbTrace
 10
375.4555630018136
 20
268.6105518825872
 30
0.0
 11
376.4555630018136
 21
268.6105518825872
 31
0.0
 12
375.9555630018136
 22
265.6105518825871
 32
0.0
 13
375.9555630018136
 23
265.6105518825871
 33
0.0
  0
MTEXT
  5
1FD5
330
1393
100
AcDbEntity
  8
AM_5
 62
     0
100
AcDbMText
 10
373.4555630018135
 20
273.6105518825872
 30
0.0
 40
3.0
 41
0.0
 71
     5
 72
     1
  1
\A1;16
 11
0.0000000000000001
 21
1.0
 31
0.0
  0
POINT
  5
1FD6
330
1393
100
AcDbEntity
  8
DEFPOINTS
 62
     0
100
AcDbPoint
 10
339.4555630018136
 20
281.6105518825871
 30
0.0
  0
POINT
  5
1FD7
330
1393
100
AcDbEntity
  8
DEFPOINTS
 62
     0
100
AcDbPoint
 10
339.4555630018136
 20
265.6105518825871
 30
0.0
  0
POINT
  5
1FD8
330
1393
100
AcDbEntity
  8
DEFPOINTS
 62
     0
100
AcDbPoint
 10
375.9555630018136
 20
265.6105518825871
 30
0.0
  0
ENDBLK
  5
139E
330
1393
100
AcDbEntity
  8
0
100
AcDbBlockEnd
  0
BLOCK
  5
13A9
330
139F
100
AcDbEntity
  8
0
100
AcDbBlockBegin
  2
*D17
 70
     1
 10
0.0
 20
0.0
 30
0.0
  3
*D17
  1

  0
LINE
  5
1FD9
330
139F
100
AcDbEntity
  8
AM_5
100
AcDbLine
 10
297.9555630018136
 20
284.6105518825871
 30
0.0
 11
297.9555630018136
 21
293.251093462233
 31
0.0
  0
LINE
  5
1FDA
330
139F
100
AcDbEntity
  8
AM_5
100
AcDbLine
 10
327.9555630018136
 20
285.7885762121021
 30
0.0
 11
327.9555630018136
 21
293.251093462233
 31
0.0
  0
LINE
  5
1FDB
330
139F
100
AcDbEntity
  8
AM_5
100
AcDbLine
 10
300.9555630018136
 20
291.751093462233
 30
0.0
 11
324.9555630018136
 21
291.751093462233
 31
0.0
  0
INSERT
  5
1FDC
330
139F
100
AcDbEntity
  8
AM_5
100
AcDbBlockReference
  2
GENDOT
 10
297.9555630018136
 20
291.751093462233
 30
0.0
 41
3.0
 42
3.0
 43
3.0
 50
180.0
  0
SOLID
  5
1FDD
330
139F
100
AcDbEntity
  8
AM_5
100
AcDbTrace
 10
324.9555630018136
 20
292.251093462233
 30
0.0
 11
324.9555630018136
 21
291.251093462233
 31
0.0
 12
327.9555630018136
 22
291.751093462233
 32
0.0
 13
327.9555630018136
 23
291.751093462233
 33
0.0
  0
MTEXT
  5
1FDE
330
139F
100
AcDbEntity
  8
AM_5
100
AcDbMText
 10
312.9555630018136
 20
294.251093462233
 30
0.0
 40
3.0
 41
0.0
 71
     5
 72
     1
  1
30
  7
CHINA
  0
POINT
  5
1FDF
330
139F
100
AcDbEntity
  8
DEFPOINTS
 62
     0
100
AcDbPoint
 10
297.9555630018136
 20
282.6105518825871
 30
0.0
  0
POINT
  5
1FE0
330
139F
100
AcDbEntity
  8
DEFPOINTS
 62
     0
100
AcDbPoint
 10
327.9555630018136
 20
283.7885762121021
 30
0.0
  0
POINT
  5
1FE1
330
139F
100
AcDbEntity
  8
DEFPOINTS
 62
     0
100
AcDbPoint
 10
327.9555630018136
 20
291.751093462233
 30
0.0
  0
ENDBLK
  5
13AA
330
139F
100
AcDbEntity
  8
0
100
AcDbBlockEnd
  0
BLOCK
  5
13C1
330
13B7
100
AcDbEntity
  8
0
100
AcDbBlockBegin
  2
*D18
 70
     1
 10
0.0
 20
0.0
 30
0.0
  3
*D18
  1

  0
LINE
  5
1CDA
330
13B7
100
AcDbEntity
  8
AM_5
100
AcDbLine
 10
312.4555630018136
 20
333.5675655867382
 30
0.0
 11
312.4555630018136
 21
320.8175655867382
 31
0.0
  0
LINE
  5
1CDB
330
13B7
100
AcDbEntity
  8
AM_5
100
AcDbLine
 10
343.4555630018136
 20
333.5675655867382
 30
0.0
 11
343.4555630018136
 21
320.8175655867382
 31
0.0
  0
LINE
  5
1CDC
330
13B7
100
AcDbEntity
  8
AM_5
100
AcDbLine
 10
315.4555630018136
 20
322.3175655867382
 30
0.0
 11
340.4555630018136
 21
322.3175655867382
 31
0.0
  0
SOLID
  5
1CDD
330
13B7
100
AcDbEntity
  8
AM_5
100
AcDbTrace
 10
315.4555630018136
 20
322.8175655867382
 30
0.0
 11
315.4555630018136
 21
321.8175655867383
 31
0.0
 12
312.4555630018136
 22
322.3175655867382
 32
0.0
 13
312.4555630018136
 23
322.3175655867382
 33
0.0
  0
SOLID
  5
1CDE
330
13B7
100
AcDbEntity
  8
AM_5
100
AcDbTrace
 10
340.4555630018136
 20
322.8175655867382
 30
0.0
 11
340.4555630018136
 21
321.8175655867383
 31
0.0
 12
343.4555630018136
 22
322.3175655867382
 32
0.0
 13
343.4555630018136
 23
322.3175655867382
 33
0.0
  0
MTEXT
  5
1CDF
330
13B7
100
AcDbEntity
  8
AM_5
100
AcDbMText
 10
327.9555630018136
 20
324.8175655867382
 30
0.0
 40
3.0
 41
0.0
 71
     5
 72
     1
  1
31
  7
CHINA
1001
ACAD
1000
MTEXTBEGIN
1070
    73
1070
     1
1070
    44
1040
1.0
1070
    74
1070
     0
1000
MTEXTEND
  0
POINT
  5
1CE0
330
13B7
100
AcDbEntity
  8
DEFPOINTS
 62
     0
100
AcDbPoint
 10
312.4555630018136
 20
335.5675655867382
 30
0.0
  0
POINT
  5
1CE1
330
13B7
100
AcDbEntity
  8
DEFPOINTS
 62
     0
100
AcDbPoint
 10
343.4555630018136
 20
335.5675655867382
 30
0.0
  0
POINT
  5
1CE2
330
13B7
100
AcDbEntity
  8
DEFPOINTS
 62
     0
100
AcDbPoint
 10
343.4555630018136
 20
322.3175655867382
 30
0.0
  0
ENDBLK
  5
13C2
330
13B7
100
AcDbEntity
  8
0
100
AcDbBlockEnd
  0
BLOCK
  5
18C5
330
18BB
100
AcDbEntity
  8
0
100
AcDbBlockBegin
  2
*D19
 70
     1
 10
0.0
 20
0.0
 30
0.0
  3
*D19
  1

  0
LINE
  5
1CB6
330
18BB
100
AcDbEntity
  8
AM_5
100
AcDbLine
 10
340.9555630018136
 20
362.3175655867382
 30
0.0
 11
361.4555630018136
 21
362.3175655867382
 31
0.0
  0
LINE
  5
1CB7
330
18BB
100
AcDbEntity
  8
AM_5
100
AcDbLine
 10
340.9555630018136
 20
346.3175655867382
 30
0.0
 11
361.4555630018136
 21
346.3175655867382
 31
0.0
  0
LINE
  5
1CB8
330
18BB
100
AcDbEntity
  8
AM_5
100
AcDbLine
 10
359.9555630018136
 20
359.3175655867383
 30
0.0
 11
359.9555630018136
 21
349.3175655867382
 31
0.0
  0
SOLID
  5
1CB9
330
18BB
100
AcDbEntity
  8
AM_5
100
AcDbTrace
 10
359.4555630018136
 20
359.3175655867383
 30
0.0
 11
360.4555630018136
 21
359.3175655867383
 31
0.0
 12
359.9555630018136
 22
362.3175655867382
 32
0.0
 13
359.9555630018136
 23
362.3175655867382
 33
0.0
  0
SOLID
  5
1CBA
330
18BB
100
AcDbEntity
  8
AM_5
100
AcDbTrace
 10
359.4555630018136
 20
349.3175655867382
 30
0.0
 11
360.4555630018136
 21
349.3175655867382
 31
0.0
 12
359.9555630018136
 22
346.3175655867382
 32
0.0
 13
359.9555630018136
 23
346.3175655867382
 33
0.0
  0
MTEXT
  5
1CBB
330
18BB
100
AcDbEntity
  8
AM_5
100
AcDbMText
 10
357.4555630018135
 20
354.3175655867383
 30
0.0
 40
3.0
 41
0.0
 71
     5
 72
     1
  1
16
  7
CHINA
 11
0.0000000000000001
 21
1.0
 31
0.0
1001
ACAD
1000
MTEXTBEGIN
1070
    73
1070
     1
1070
    44
1040
1.0
1070
    74
1070
     0
1000
MTEXTEND
  0
POINT
  5
1CBC
330
18BB
100
AcDbEntity
  8
DEFPOINTS
 62
     0
100
AcDbPoint
 10
338.9555630018136
 20
362.3175655867382
 30
0.0
  0
POINT
  5
1CBD
330
18BB
100
AcDbEntity
  8
DEFPOINTS
 62
     0
100
AcDbPoint
 10
338.9555630018136
 20
346.3175655867382
 30
0.0
  0
POINT
  5
1CBE
330
18BB
100
AcDbEntity
  8
DEFPOINTS
 62
     0
100
AcDbPoint
 10
359.9555630018136
 20
346.3175655867382
 30
0.0
  0
ENDBLK
  5
18C6
330
18BB
100
AcDbEntity
  8
0
100
AcDbBlockEnd
  0
BLOCK
  5
193C
330
1932
100
AcDbEntity
  8
0
100
AcDbBlockBegin
  2
*D20
 70
     1
 10
0.0
 20
0.0
 30
0.0
  3
*D20
  1

  0
LINE
  5
1CBF
330
1932
100
AcDbEntity
  8
AM_5
100
AcDbLine
 10
310.4555630018136
 20
212.3605518825871
 30
0.0
 11
310.4555630018136
 21
206.3402788205095
 31
0.0
  0
LINE
  5
1CC0
330
1932
100
AcDbEntity
  8
AM_5
100
AcDbLine
 10
345.4555630018136
 20
212.3605518825871
 30
0.0
 11
345.4555630018136
 21
206.3402788205095
 31
0.0
  0
LINE
  5
1CC1
330
1932
100
AcDbEntity
  8
AM_5
100
AcDbLine
 10
313.4555630018136
 20
207.8402788205095
 30
0.0
 11
342.4555630018136
 21
207.8402788205095
 31
0.0
  0
SOLID
  5
1CC2
330
1932
100
AcDbEntity
  8
AM_5
100
AcDbTrace
 10
313.4555630018136
 20
208.3402788205095
 30
0.0
 11
313.4555630018136
 21
207.3402788205095
 31
0.0
 12
310.4555630018136
 22
207.8402788205095
 32
0.0
 13
310.4555630018136
 23
207.8402788205095
 33
0.0
  0
SOLID
  5
1CC3
330
1932
100
AcDbEntity
  8
AM_5
100
AcDbTrace
 10
342.4555630018136
 20
208.3402788205095
 30
0.0
 11
342.4555630018136
 21
207.3402788205095
 31
0.0
 12
345.4555630018136
 22
207.8402788205095
 32
0.0
 13
345.4555630018136
 23
207.8402788205095
 33
0.0
  0
MTEXT
  5
1CC4
330
1932
100
AcDbEntity
  8
AM_5
100
AcDbMText
 10
333.9218939302237
 20
210.3481528362575
 30
0.0
 40
3.0
 41
0.0
 71
     5
 72
     1
  1
%%c35
  7
CHINA
1001
ACAD
1000
MTEXTBEGIN
1070
    73
1070
     1
1070
    44
1040
1.0
1070
    74
1070
     0
1000
MTEXTEND
  0
POINT
  5
1CC5
330
1932
100
AcDbEntity
  8
DEFPOINTS
 62
     0
100
AcDbPoint
 10
310.4555630018136
 20
214.3605518825871
 30
0.0
  0
POINT
  5
1CC6
330
1932
100
AcDbEntity
  8
DEFPOINTS
 62
     0
100
AcDbPoint
 10
345.4555630018136
 20
214.3605518825871
 30
0.0
  0
POINT
  5
1CC7
330
1932
100
AcDbEntity
  8
DEFPOINTS
 62
     0
100
AcDbPoint
 10
345.4555630018136
 20
207.8402788205095
 30
0.0
  0
ENDBLK
  5
193D
330
1932
100
AcDbEntity
  8
0
100
AcDbBlockEnd
  0
BLOCK
  5
1976
330
196C
100
AcDbEntity
  8
0
100
AcDbBlockBegin
  2
*D21
 70
     1
 10
0.0
 20
0.0
 30
0.0
  3
*D21
  1

  0
LINE
  5
1DAF
330
196C
100
AcDbEntity
  8
AM_5
100
AcDbLine
 10
289.9555630018136
 20
283.1105518825871
 30
0.0
 11
289.9555630018136
 21
301.251093462233
 31
0.0
  0
LINE
  5
1DB0
330
196C
100
AcDbEntity
  8
AM_5
100
AcDbLine
 10
339.9555630018136
 20
283.1105518825871
 30
0.0
 11
339.9555630018136
 21
301.251093462233
 31
0.0
  0
LINE
  5
1DB1
330
196C
100
AcDbEntity
  8
AM_5
100
AcDbLine
 10
292.9555630018136
 20
299.751093462233
 30
0.0
 11
336.9555630018136
 21
299.751093462233
 31
0.0
  0
SOLID
  5
1DB2
330
196C
100
AcDbEntity
  8
AM_5
100
AcDbTrace
 10
292.9555630018136
 20
300.251093462233
 30
0.0
 11
292.9555630018136
 21
299.251093462233
 31
0.0
 12
289.9555630018136
 22
299.751093462233
 32
0.0
 13
289.9555630018136
 23
299.751093462233
 33
0.0
  0
SOLID
  5
1DB3
330
196C
100
AcDbEntity
  8
AM_5
100
AcDbTrace
 10
336.9555630018136
 20
300.251093462233
 30
0.0
 11
336.9555630018136
 21
299.251093462233
 31
0.0
 12
339.9555630018136
 22
299.751093462233
 32
0.0
 13
339.9555630018136
 23
299.751093462233
 33
0.0
  0
MTEXT
  5
1DB4
330
196C
100
AcDbEntity
  8
AM_5
100
AcDbMText
 10
314.9555630018136
 20
302.258967477981
 30
0.0
 40
3.0
 41
0.0
 71
     5
 72
     1
  1
50
  7
CHINA
1001
ACAD
1000
MTEXTBEGIN
1070
    73
1070
     1
1070
    44
1040
1.0
1070
    74
1070
     0
1000
MTEXTEND
  0
POINT
  5
1DB5
330
196C
100
AcDbEntity
  8
DEFPOINTS
 62
     0
100
AcDbPoint
 10
289.9555630018136
 20
281.1105518825872
 30
0.0
  0
POINT
  5
1DB6
330
196C
100
AcDbEntity
  8
DEFPOINTS
 62
     0
100
AcDbPoint
 10
339.9555630018136
 20
281.1105518825872
 30
0.0
  0
POINT
  5
1DB7
330
196C
100
AcDbEntity
  8
DEFPOINTS
 62
     0
100
AcDbPoint
 10
339.9555630018136
 20
299.751093462233
 30
0.0
  0
ENDBLK
  5
1977
330
196C
100
AcDbEntity
  8
0
100
AcDbBlockEnd
  0
BLOCK
  5
1C09
330
1BFF
100
AcDbEntity
  8
0
100
AcDbBlockBegin
  2
*D22
 70
     1
 10
0.0
 20
0.0
 30
0.0
  3
*D22
  1

  0
LINE
  5
1D33
330
1BFF
100
AcDbEntity
  8
AM_5
100
AcDbLine
 10
341.4555630018136
 20
281.6105518825871
 30
0.0
 11
385.4555630018136
 21
281.6105518825871
 31
0.0
  0
LINE
  5
1D34
330
1BFF
100
AcDbEntity
  8
AM_5
100
AcDbLine
 10
349.4555630018136
 20
170.1105518825871
 30
0.0
 11
385.4555630018136
 21
170.1105518825871
 31
0.0
  0
LINE
  5
1D35
330
1BFF
100
AcDbEntity
  8
AM_5
100
AcDbLine
 10
383.9555630018136
 20
278.6105518825871
 30
0.0
 11
383.9555630018136
 21
173.1105518825871
 31
0.0
  0
SOLID
  5
1D36
330
1BFF
100
AcDbEntity
  8
AM_5
100
AcDbTrace
 10
383.4555630018136
 20
278.6105518825871
 30
0.0
 11
384.4555630018136
 21
278.6105518825871
 31
0.0
 12
383.9555630018136
 22
281.6105518825871
 32
0.0
 13
383.9555630018136
 23
281.6105518825871
 33
0.0
  0
SOLID
  5
1D37
330
1BFF
100
AcDbEntity
  8
AM_5
100
AcDbTrace
 10
383.4555630018136
 20
173.1105518825871
 30
0.0
 11
384.4555630018136
 21
173.1105518825871
 31
0.0
 12
383.9555630018136
 22
170.1105518825871
 32
0.0
 13
383.9555630018136
 23
170.1105518825871
 33
0.0
  0
MTEXT
  5
1D38
330
1BFF
100
AcDbEntity
  8
AM_5
100
AcDbMText
 10
381.4476889860655
 20
225.8605518825872
 30
0.0
 40
3.0
 41
0.0
 71
     5
 72
     1
  1
111.5
  7
CHINA
 11
0.0000000000000001
 21
1.0
 31
0.0
1001
ACAD
1000
MTEXTBEGIN
1070
    73
1070
     1
1070
    44
1040
1.0
1070
    74
1070
     0
1000
MTEXTEND
  0
POINT
  5
1D39
330
1BFF
100
AcDbEntity
  8
DEFPOINTS
 62
     0
100
AcDbPoint
 10
339.4555630018136
 20
281.6105518825871
 30
0.0
  0
POINT
  5
1D3A
330
1BFF
100
AcDbEntity
  8
DEFPOINTS
 62
     0
100
AcDbPoint
 10
347.4555630018136
 20
170.1105518825871
 30
0.0
  0
POINT
  5
1D3B
330
1BFF
100
AcDbEntity
  8
DEFPOINTS
 62
     0
100
AcDbPoint
 10
383.9555630018136
 20
170.1105518825871
 30
0.0
  0
ENDBLK
  5
1C0A
330
1BFF
100
AcDbEntity
  8
0
100
AcDbBlockEnd
  0
BLOCK
  5
1D99
330
1D96
100
AcDbEntity
  8
0
100
AcDbBlockBegin
  2
GENDOT
 70
     0
 10
0.0
 20
0.0
 30
0.0
  3
GENDOT
  1

  0
LINE
  5
1D97
330
1D96
100
AcDbEntity
  8
0
100
AcDbLine
 10
0.0
 20
0.0
 30
0.0
 11
-1.0
 21
0.0
 31
0.0
  0
POLYLINE
  5
1D98
330
1D96
100
AcDbEntity
  8
0
100
AcDb2dPolyline
 66
     1
 10
0.0
 20
0.0
 30
0.0
 70
     1
 40
0.25
 41
0.25
  0
VERTEX
  5
1FFD
330
1D98
100
AcDbEntity
  8
0
100
AcDbVertex
100
AcDb2dVertex
 10
-0.125
 20
0.0
 30
0.0
 42
1.0
  0
VERTEX
  5
1FFE
330
1D98
100
AcDbEntity
  8
0
100
AcDbVertex
100
AcDb2dVertex
 10
0.125
 20
0.0
 30
0.0
 42
1.0
  0
SEQEND
  5
1FFF
330
1D98
100
AcDbEntity
  8
0
  0
ENDBLK
  5
1D9A
330
1D96
100
AcDbEntity
  8
0
100
AcDbBlockEnd
  0
BLOCK
  5
1E16
330
1E0C
100
AcDbEntity
  8
0
100
AcDbBlockBegin
  2
*D24
 70
     1
 10
0.0
 20
0.0
 30
0.0
  3
*D24
  1

  0
LINE
  5
1E39
330
1E0C
100
AcDbEntity
  8
AM_5
100
AcDbLine
 10
307.9555630018136
 20
335.3175655867382
 30
0.0
 11
307.9555630018136
 21
312.8175655867386
 31
0.0
  0
LINE
  5
1E3A
330
1E0C
100
AcDbEntity
  8
AM_5
100
AcDbLine
 10
347.9555630018136
 20
334.9033520243382
 30
0.0
 11
347.9555630018136
 21
312.8175655867386
 31
0.0
  0
LINE
  5
1E3B
330
1E0C
100
AcDbEntity
  8
AM_5
100
AcDbLine
 10
310.9555630018136
 20
314.3175655867386
 30
0.0
 11
344.9555630018136
 21
314.3175655867386
 31
0.0
  0
SOLID
  5
1E3C
330
1E0C
100
AcDbEntity
  8
AM_5
100
AcDbTrace
 10
310.9555630018136
 20
314.8175655867386
 30
0.0
 11
310.9555630018136
 21
313.8175655867387
 31
0.0
 12
307.9555630018136
 22
314.3175655867386
 32
0.0
 13
307.9555630018136
 23
314.3175655867386
 33
0.0
  0
SOLID
  5
1E3D
330
1E0C
100
AcDbEntity
  8
AM_5
100
AcDbTrace
 10
344.9555630018136
 20
314.8175655867386
 30
0.0
 11
344.9555630018136
 21
313.8175655867387
 31
0.0
 12
347.9555630018136
 22
314.3175655867386
 32
0.0
 13
347.9555630018136
 23
314.3175655867386
 33
0.0
  0
MTEXT
  5
1E3E
330
1E0C
100
AcDbEntity
  8
AM_5
100
AcDbMText
 10
327.9555630018136
 20
316.8175655867386
 30
0.0
 40
3.0
 41
0.0
 71
     5
 72
     1
  1
{\Famgdt;o}40
  7
CHINA
1001
ACAD
1000
MTEXTBEGIN
1070
    73
1070
     1
1070
    44
1040
1.0
1070
    74
1070
     0
1000
MTEXTEND
  0
POINT
  5
1E3F
330
1E0C
100
AcDbEntity
  8
DEFPOINTS
 62
     0
100
AcDbPoint
 10
307.9555630018136
 20
337.3175655867382
 30
0.0
  0
POINT
  5
1E40
330
1E0C
100
AcDbEntity
  8
DEFPOINTS
 62
     0
100
AcDbPoint
 10
347.9555630018136
 20
336.9033520243382
 30
0.0
  0
POINT
  5
1E41
330
1E0C
100
AcDbEntity
  8
DEFPOINTS
 62
     0
100
AcDbPoint
 10
347.9555630018136
 20
314.3175655867386
 30
0.0
  0
ENDBLK
  5
1E17
330
1E0C
100
AcDbEntity
  8
0
100
AcDbBlockEnd
  0
BLOCK
  5
1FE7
330
1FE2
100
AcDbEntity
  8
0
100
AcDbBlockBegin
  2
*S25
 70
     1
 10
0.0
 20
0.0
 30
0.0
  3
*S25
  1

  0
LINE
  5
1FE3
330
1FE2
100
AcDbEntity
  8
AM_5
100
AcDbLine
 10
273.1218968710933
 20
253.1530746211314
 30
0.0
 11
287.3928801423673
 21
253.1530746211314
 31
0.0
  0
LINE
  5
1FE4
330
1FE2
100
AcDbEntity
  8
AM_5
100
AcDbLine
 10
287.3928801423673
 20
253.1530746211314
 30
0.0
 11
296.0154101450733
 21
263.3223633211957
 31
0.0
  0
TRACE
  5
1FE5
330
1FE2
100
AcDbEntity
  8
AM_5
100
AcDbTrace
 10
296.3166558827873
 20
263.0669373530441
 30
0.0
 11
295.7141644073593
 21
263.5777892893472
 31
0.0
 12
297.9555630018136
 22
265.6105518825871
 32
0.0
 13
297.9555630018136
 23
265.6105518825871
 33
0.0
  0
MTEXT
  5
1FE6
330
1FE2
100
AcDbEntity
  8
AM_5
 62
     2
100
AcDbMText
 10
273.1218968710933
 20
251.5099155019214
 30
0.0
 40
3.5
 41
0.0
 71
     9
 72
     1
  1

  7
ACISOTS
  0
ENDBLK
  5
1FE8
330
1FE2
100
AcDbEntity
  8
0
100
AcDbBlockEnd
  0
BLOCK
  5
1FF2
330
1FEB
100
AcDbEntity
  8
0
100
AcDbBlockBegin
  2
*S26
 70
     1
 10
0.0
 20
0.0
 30
0.0
  3
*S26
  1

  0
LINE
  5
1FEC
330
1FEB
100
AcDbEntity
  8
AM_5
100
AcDbLine
 10
279.7344123455092
 20
211.0803058816999
 30
0.0
 11
293.5444703008842
 21
211.0803058816999
 31
0.0
  0
LINE
  5
1FED
330
1FEB
100
AcDbEntity
  8
AM_5
100
AcDbLine
 10
293.5444703008842
 20
211.0803058816999
 30
0.0
 11
323.4298805186995
 21
226.5640525043498
 31
0.0
  0
TRACE
  5
1FEE
330
1FEB
100
AcDbEntity
  8
AM_5
100
AcDbTrace
 10
323.6115716211951
 20
226.213367798423
 30
0.0
 11
323.2481894162039
 21
226.9147372102766
 31
0.0
 12
326.0935953278973
 22
227.9441334495339
 32
0.0
 13
326.0935953278973
 23
227.9441334495339
 33
0.0
  0
LINE
  5
1FEF
330
1FEB
100
AcDbEntity
  8
AM_5
100
AcDbLine
 10
293.5444703008842
 20
211.0803058816999
 30
0.0
 11
316.0356871746798
 21
192.9277479214276
 31
0.0
  0
TRACE
  5
1FF0
330
1FEB
100
AcDbEntity
  8
AM_5
100
AcDbTrace
 10
315.7876317671948
 20
192.6204045718747
 30
0.0
 11
316.2837425821649
 21
193.2350912709806
 31
0.0
 12
318.3701916964813
 22
191.0435800314326
 32
0.0
 13
318.3701916964813
 23
191.0435800314326
 33
0.0
  0
MTEXT
  5
1FF1
330
1FEB
100
AcDbEntity
  8
AM_5
 62
     2
100
AcDbMText
 10
279.7344123455092
 20
211.2308995381852
 30
0.0
 40
3.5
 41
0.0
 71
     9
 72
     1
  1

  7
ACISOTS
  0
ENDBLK
  5
1FF3
330
1FEB
100
AcDbEntity
  8
0
100
AcDbBlockEnd
  0
BLOCK
  5
1FFA
330
1FF5
100
AcDbEntity
  8
0
100
AcDbBlockBegin
  2
*S27
 70
     1
 10
0.0
 20
0.0
 30
0.0
  3
*S27
  1

  0
LINE
  5
1FF6
330
1FF5
100
AcDbEntity
  8
AM_5
100
AcDbLine
 10
374.4605637344108
 20
321.0827890685483
 30
0.0
 11
360.8527558777602
 21
321.0827890685483
 31
0.0
  0
LINE
  5
1FF7
330
1FF5
100
AcDbEntity
  8
AM_5
100
AcDbLine
 10
360.8527558777602
 20
321.0827890685483
 30
0.0
 11
347.1320322264032
 21
335.0697563545807
 31
0.0
  0
TRACE
  5
1FF8
330
1FF5
100
AcDbEntity
  8
AM_5
100
AcDbTrace
 10
347.4139799085136
 20
335.346337128044
 30
0.0
 11
346.8500845442928
 21
334.7931755811173
 31
0.0
 12
345.0311926694948
 22
337.2113616300993
 32
0.0
 13
345.0311926694948
 23
337.2113616300993
 33
0.0
  0
MTEXT
  5
1FF9
330
1FF5
100
AcDbEntity
  8
AM_5
 62
     2
100
AcDbMText
 10
374.4605637344108
 20
321.7095592462379
 30
0.0
 40
3.5
 41
0.0
 71
     7
 72
     1
  1

  7
ACISOTS
  0
ENDBLK
  5
1FFB
330
1FF5
100
AcDbEntity
  8
0
100
AcDbBlockEnd
  0
ENDSEC
  0
SECTION
  2
ENTITIES
  0
POINT
  5
25
330
2
100
AcDbEntity
  8
0
 60
     1
100
AcDbPoint
 10
0.0
 20
0.0
 30
0.0
  0
POINT
  5
26
330
2
100
AcDbEntity
  8
0
 60
     1
100
AcDbPoint
 10
0.0
 20
0.0
 30
0.0
  0
POINT
  5
27
330
2
100
AcDbEntity
  8
0
 60
     1
100
AcDbPoint
 10
0.0
 20
0.0
 30
0.0
  0
POINT
  5
28
330
2
100
AcDbEntity
  8
0
 60
     1
100
AcDbPoint
 10
0.0
 20
0.0
 30
0.0
  0
POINT
  5
29
330
2
100
AcDbEntity
  8
0
 60
     1
100
AcDbPoint
 10
0.0
 20
0.0
 30
0.0
  0
POINT
  5
2A
330
2
100
AcDbEntity
  8
0
 60
     1
100
AcDbPoint
 10
0.0
 20
0.0
 30
0.0
  0
POINT
  5
2B
330
2
100
AcDbEntity
  8
0
 60
     1
100
AcDbPoint
 10
0.0
 20
0.0
 30
0.0
  0
POINT
  5
2C
330
2
100
AcDbEntity
  8
0
 60
     1
100
AcDbPoint
 10
0.0
 20
0.0
 30
0.0
  0
POINT
  5
2D
330
2
100
AcDbEntity
  8
0
 60
     1
100
AcDbPoint
 10
0.0
 20
0.0
 30
0.0
  0
POINT
  5
2E
330
2
100
AcDbEntity
  8
0
 60
     1
100
AcDbPoint
 10
0.0
 20
0.0
 30
0.0
  0
POINT
  5
2F
330
2
100
AcDbEntity
  8
0
 60
     1
100
AcDbPoint
 10
0.0
 20
0.0
 30
0.0
  0
POINT
  5
30
330
2
100
AcDbEntity
  8
0
 60
     1
100
AcDbPoint
 10
0.0
 20
0.0
 30
0.0
  0
DIMENSION
  5
31
330
2
100
AcDbEntity
  8
AM_PARDIM
 60
     1
100
AcDbDimension
  2
*D1
 10
114.5325708695175
 20
128.6938113892625
 30
0.0
 11
112.0244343865778
 21
122.4438113892625
 31
0.0
 70
    32
  1
<>
  3
AM_ISO
100
AcDbAlignedDimension
 13
75.37464887656421
 23
116.1938113892625
 33
0.0
 14
75.37464887656421
 24
128.6938113892625
 34
0.0
 50
90.0
100
AcDbRotatedDimension
1001
ACAD_DIMASSOC_CALC_DIMLFAC
1040
-1.0
1001
ACAD
1000
DSTYLE
1002
{
1070
   144
1040
-1.0
1002
}
1001
AD_SKETCHDIM
1005
0
1000
d0
1001
ACAD_DIMASSOC_DIMLFAC
1040
-1.0
  0
DIMENSION
  5
43
330
2
100
AcDbEntity
  8
AM_PARDIM
 60
     1
100
AcDbDimension
  2
*D2
 10
26.87464887656421
 20
122.1938113892625
 30
0.0
 11
24.37464887656418
 21
119.1938113892625
 31
0.0
 70
    32
  1
<>
  3
AM_ISO
100
AcDbAlignedDimension
 13
38.8746488765642
 23
116.1938113892625
 33
0.0
 14
38.8746488765642
 24
122.1938113892624
 34
0.0
 50
90.0
100
AcDbRotatedDimension
1001
ACAD_DIMASSOC_CALC_DIMLFAC
1040
-1.0
1001
ACAD
1000
DSTYLE
1002
{
1070
   144
1040
-1.0
1002
}
1001
AD_SKETCHDIM
1005
0
1000
d1
1001
ACAD_DIMASSOC_DIMLFAC
1040
-1.0
  0
DIMENSION
  5
52
330
2
100
AcDbEntity
  8
AM_PARDIM
 60
     1
100
AcDbDimension
  2
*D3
 10
50.87464887656421
 20
140.6938113892624
 30
0.0
 11
44.87464887656421
 21
143.194073856454
 31
0.0
 70
    32
  1
<>
  3
AM_ISO
100
AcDbAlignedDimension
 13
38.8746488765642
 23
122.1938113892624
 33
0.0
 14
50.87464887656421
 24
122.1938113892624
 34
0.0
100
AcDbRotatedDimension
1001
ACAD_DIMASSOC_CALC_DIMLFAC
1040
-1.0
1001
ACAD
1000
DSTYLE
1002
{
1070
   144
1040
-1.0
1002
}
1001
AD_SKETCHDIM
1005
0
1000
d2
1001
ACAD_DIMASSOC_DIMLFAC
1040
-1.0
  0
DIMENSION
  5
5F
330
2
100
AcDbEntity
  8
AM_PARDIM
 60
     1
100
AcDbDimension
  2
*D4
 10
75.37464887656421
 20
160.6938113892624
 30
0.0
 11
57.12464887656421
 21
163.2016854050105
 31
0.0
 70
    32
  1
<>
  3
AM_ISO
100
AcDbAlignedDimension
 13
38.8746488765642
 23
116.1938113892625
 33
0.0
 14
75.37464887656421
 24
116.1938113892625
 34
0.0
100
AcDbRotatedDimension
1001
ACAD_DIMASSOC_CALC_DIMLFAC
1040
-1.0
1001
ACAD
1000
DSTYLE
1002
{
1070
   144
1040
-1.0
1002
}
1001
AD_SKETCHDIM
1005
0
1000
d3
1001
ACAD_DIMASSOC_DIMLFAC
1040
-1.0
  0
DIMENSION
  5
6C
330
2
100
AcDbEntity
  8
AM_PARDIM
 60
     1
100
AcDbDimension
  2
*D5
 10
104.5325708695175
 20
116.1938113892624
 30
0.0
 11
102.0325708695175
 21
121.6938113892625
 31
0.0
 70
    32
  1
<>
  3
AM_ISO
100
AcDbAlignedDimension
 13
50.87464887656421
 23
127.1938113892624
 33
0.0
 14
75.37464887656421
 24
116.1938113892625
 34
0.0
 50
90.0
100
AcDbRotatedDimension
1001
ACAD_DIMASSOC_CALC_DIMLFAC
1040
-1.0
1001
ACAD
1000
DSTYLE
1002
{
1070
   144
1040
-1.0
1002
}
1001
AD_SKETCHDIM
1005
0
1000
d4
1001
ACAD_DIMASSOC_DIMLFAC
1040
-1.0
  0
DIMENSION
  5
79
330
2
100
AcDbEntity
  8
AM_PARDIM
 60
     1
100
AcDbDimension
  2
*D6
 10
75.37464887656421
 20
150.6938113892624
 30
0.0
 11
70.87464887656421
 21
153.1938113892624
 31
0.0
 70
    32
  1
<>
  3
AM_ISO
100
AcDbAlignedDimension
 13
66.3746488765642
 23
128.6938113892625
 33
0.0
 14
75.37464887656421
 24
128.6938113892625
 34
0.0
100
AcDbRotatedDimension
1001
ACAD_DIMASSOC_CALC_DIMLFAC
1040
-1.0
1001
ACAD
1000
DSTYLE
1002
{
1070
   144
1040
-1.0
1002
}
1001
AD_SKETCHDIM
1005
0
1000
d5
1001
ACAD_DIMASSOC_DIMLFAC
1040
-1.0
  0
DIMENSION
  5
86
330
2
100
AcDbEntity
  8
AM_PARDIM
 60
     1
100
AcDbDimension
  2
*D7
 10
66.37464887656418
 20
140.6938113892624
 30
0.0
 11
75.92924205241719
 21
143.2019478722021
 31
0.0
 70
    32
  1
<>
  3
AM_ISO
100
AcDbAlignedDimension
 13
63.87464887656418
 23
128.6938113892624
 33
0.0
 14
66.37464887656418
 24
128.6938113892624
 34
0.0
100
AcDbRotatedDimension
1001
ACAD_DIMASSOC_CALC_DIMLFAC
1040
-1.0
1001
ACAD
1000
DSTYLE
1002
{
1070
   144
1040
-1.0
1002
}
1001
AD_SKETCHDIM
1005
0
1000
d25
1001
ACAD_DIMASSOC_DIMLFAC
1040
-1.0
  0
DIMENSION
  5
95
330
2
100
AcDbEntity
  8
AM_PARDIM
 60
     1
100
AcDbDimension
  2
*D8
 10
66.37464887656418
 20
136.030378563861
 30
0.0
 11
74.17464887656418
 21
138.530378563861
 31
0.0
 70
    32
  1
<>
  3
AM_ISO
100
AcDbAlignedDimension
 13
66.37464887656418
 23
128.6938113892624
 33
0.0
 14
66.37464887656418
 24
116.1938113892624
 34
0.0
100
AcDbRotatedDimension
1001
ACAD_DIMASSOC_CALC_DIMLFAC
1040
-1.0
1001
ACAD
1000
DSTYLE
1002
{
1070
   144
1040
-1.0
1002
}
1001
AD_SKETCHDIM
1005
0
1000
d26
1001
ACAD_DIMASSOC_DIMLFAC
1040
-1.0
  0
DIMENSION
  5
A3
330
2
100
AcDbEntity
  8
AM_PARDIM
 60
     1
100
AcDbDimension
  2
*D9
 10
94.53257086951754
 20
116.1938113892624
 30
0.0
 11
92.0246968537695
 21
120.9438113892624
 31
0.0
 70
    32
  1
<>
  3
AM_ISO
100
AcDbAlignedDimension
 13
63.87464887656418
 23
125.6938113892624
 33
0.0
 14
82.53257086951753
 24
116.1938113892624
 34
0.0
 50
90.0
100
AcDbRotatedDimension
1001
ACAD_DIMASSOC_CALC_DIMLFAC
1040
-1.0
1001
ACAD
1000
DSTYLE
1002
{
1070
   144
1040
-1.0
1002
}
1001
AD_SKETCHDIM
1005
0
1000
d27
1001
ACAD_DIMASSOC_DIMLFAC
1040
-1.0
  0
DIMENSION
  5
B0
330
2
100
AcDbEntity
  8
AM_PARDIM
 60
     1
100
AcDbDimension
  2
*D10
 10
124.5325708695175
 20
116.1938113892624
 30
0.0
 11
122.0244343865779
 21
122.4438113892624
 31
0.0
 70
    32
  1
<>
  3
AM_ISO
100
AcDbAlignedDimension
 13
66.37464887656418
 23
128.6938113892624
 33
0.0
 14
82.53257086951753
 24
116.1938113892624
 34
0.0
 50
90.0
100
AcDbRotatedDimension
1001
ACAD_DIMASSOC_CALC_DIMLFAC
1040
-1.0
1001
ACAD
1000
DSTYLE
1002
{
1070
   144
1040
-1.0
1002
}
1001
AD_SKETCHDIM
1005
0
1000
d28
1001
ACAD_DIMASSOC_DIMLFAC
1040
-1.0
  0
LINE
  5
C8
330
2
100
AcDbEntity
  8
AM_7
 60
     1
100
AcDbLine
 10
36.3746488765642
 20
116.1938113892624
 30
0.0
 11
51.3746488765642
 21
116.1938113892624
 31
0.0
  0
MTEXT
  5
151
330
2
100
AcDbEntity
  8
AM_5
 62
     5
100
AcDbMText
 10
33.56078100938998
 20
98.94002315335121
 30
0.0
 40
3.5
 41
0.0
 71
     9
 72
     1
  1

  7
ACISOTS
1001
ACAD
1000
MTEXTBEGIN
1070
    73
1070
     1
1070
    44
1040
1.0
1070
    74
1070
     0
1000
MTEXTEND
  0
MTEXT
  5
156
330
2
100
AcDbEntity
  8
AM_5
 62
     5
100
AcDbMText
 10
67.11527269722637
 20
92.4148402526181
 30
0.0
 40
3.5
 41
0.0
 71
     9
 72
     1
  1

  7
ACISOTS
1001
ACAD
1000
MTEXTBEGIN
1070
    73
1070
     1
1070
    44
1040
1.0
1070
    74
1070
     0
1000
MTEXTEND
  0
DIMENSION
  5
1247
330
2
100
AcDbEntity
  8
AM_5
100
AcDbDimension
  2
*D11
 10
297.9555630018136
 20
291.751093462233
 30
0.0
 11
293.9555630018136
 21
294.251093462233
 31
0.0
 70
    32
  3
AM_ISO
100
AcDbAlignedDimension
 13
289.9555630018136
 23
281.1105518825872
 33
0.0
 14
297.9555630018136
 24
282.6105518825871
 34
0.0
100
AcDbRotatedDimension
1001
ACAD
1000
DSTYLE
1002
{
1070
   173
1070
     1
1070
     7
1000
GENDOT
1002
}
  0
LINE
  5
1248
330
2
100
AcDbEntity
  8
0
100
AcDbLine
 10
290.4555630018136
 20
281.6105518825871
 30
0.0
 11
339.4555630018136
 21
281.6105518825871
 31
0.0
  0
LINE
  5
1249
330
2
100
AcDbEntity
  8
0
100
AcDbLine
 10
290.4555630018136
 20
265.6105518825871
 30
0.0
 11
339.4555630018136
 21
265.6105518825871
 31
0.0
  0
CIRCLE
  5
124B
330
2
100
AcDbEntity
  8
LOGO
  6
CONTINUOUS
 62
     6
100
AcDbCircle
 10
299.120785292756
 20
147.047140022664
 30
0.0
 40
2.188732129700563
  0
TEXT
  5
124C
330
2
100
AcDbEntity
  8
LOGO
 62
     6
100
AcDbText
 10
297.7959126971716
 20
152.6935120169688
 30
0.0
 40
3.769623497701167
  1
1 : 1
  7
CHINESET
 72
     1
 11
304.4376302883594
 21
154.5783237658194
 31
0.0
100
AcDbText
 73
     2
  0
TEXT
  5
124D
330
2
100
AcDbEntity
  8
LOGO
 62
     6
100
AcDbText
 10
297.7959126971716
 20
137.6150180261642
 30
0.0
 40
3.769623497701167
  1
m/m
  7
CHINESET
 72
     1
 11
304.4376302883594
 21
139.4998297750147
 31
0.0
100
AcDbText
 73
     2
  0
LINE
  5
124E
330
2
100
AcDbEntity
  8
LOGO
 62
     1
100
AcDbLine
 10
317.2716792077161
 20
143.2694532727159
 30
0.0
 11
261.9838679080991
 21
143.2694532727159
 31
0.0
  0
LINE
  5
124F
330
2
100
AcDbEntity
  8
LOGO
 62
     1
100
AcDbLine
 10
317.2716792077161
 20
150.8087002681183
 30
0.0
 11
261.9838679080991
 21
150.8087002681183
 31
0.0
  0
TEXT
  5
1250
330
2
100
AcDbEntity
  8
LOGO
  6
CONTINUOUS
 62
     5
100
AcDbText
 10
237.1929128874073
 20
122.4015376866288
 30
0.0
 40
3.769623497701167
  1
MINDMAN INDUSTRIAL CO.,LTD
 41
0.85
  7
CHINESET
100
AcDbText
  0
TEXT
  5
1251
330
2
100
AcDbEntity
  8
LOGO
  6
CONTINUOUS
 62
     5
100
AcDbText
 10
235.5738236758115
 20
128.057080759164
 30
0.0
 40
5.65443524655175
  1
金器工業股份有限公司
 41
0.8
  7
LOGO
100
AcDbText
  0
LINE
  5
1252
330
2
100
AcDbEntity
  8
LOGO
 62
     1
100
AcDbLine
 10
317.2716792077161
 20
135.7302062773136
 30
0.0
 11
234.3399622582905
 21
135.7302062773136
 31
0.0
  0
LINE
  5
1253
330
2
100
AcDbEntity
  8
CENTER
100
AcDbLine
 10
287.9373856498672
 20
354.3175655867382
 30
0.0
 11
348.8139867717136
 21
354.3175655867382
 31
0.0
  0
LINE
  5
1254
102
{ACAD_REACTORS
330
18D1
102
}
330
2
100
AcDbEntity
  8
0
100
AcDbLine
 10
290.9555630018136
 20
346.3175655867382
 30
0.0
 11
338.9555630018136
 21
346.3175655867382
 31
0.0
  0
LINE
  5
1255
102
{ACAD_REACTORS
330
18D1
102
}
330
2
100
AcDbEntity
  8
0
100
AcDbLine
 10
290.9555630018136
 20
362.3175655867382
 30
0.0
 11
338.9555630018136
 21
362.3175655867382
 31
0.0
  0
LINE
  5
1256
330
2
100
AcDbEntity
  8
LOGO
 62
     1
100
AcDbLine
 10
513.2513657317579
 20
120.6517122865089
 30
0.0
 11
234.3399622582905
 21
120.6517122865089
 31
0.0
  0
LINE
  5
1257
330
2
100
AcDbEntity
  8
LOGO
 62
     1
100
AcDbLine
 10
513.2513657317579
 20
158.3479472635206
 30
0.0
 11
234.3399622582905
 21
158.3479472635206
 31
0.0
  0
LINE
  5
1258
330
2
100
AcDbEntity
  8
0
 62
     4
100
AcDbLine
 10
234.3399622582905
 20
389.3479472635206
 30
0.0
 11
513.2513657317579
 21
389.3479472635206
 31
0.0
  0
LINE
  5
1259
330
2
100
AcDbEntity
  8
0
 62
     4
100
AcDbLine
 10
513.2513657317579
 20
158.3479472635206
 30
0.0
 11
234.3399622582905
 21
158.3479472635206
 31
0.0
  0
LINE
  5
125A
330
2
100
AcDbEntity
  8
0
 62
     4
100
AcDbLine
 10
234.3399622582905
 20
158.3479472635206
 30
0.0
 11
234.3399622582905
 21
389.3479472635206
 31
0.0
  0
SOLID
  5
125B
330
2
100
AcDbEntity
  8
LOGO
 62
     5
100
AcDbTrace
 10
248.9857754290712
 20
143.2331342365428
 30
0.0
 11
250.6156617145563
 21
149.2093839499897
 31
0.0
 12
256.7417860289666
 22
157.4524870030198
 32
0.0
 13
255.1118997434812
 23
157.4524870030198
 33
0.0
  0
SOLID
  5
125C
330
2
100
AcDbEntity
  8
LOGO
 62
     5
100
AcDbTrace
 10
248.9857754290712
 20
157.4524870030187
 30
0.0
 11
250.6156617145563
 21
157.4524870030198
 31
0.0
 12
248.9857754290712
 22
143.2331342365428
 32
0.0
 13
250.6156617145563
 23
149.2093839499897
 33
0.0
  0
POLYLINE
  5
125D
330
2
100
AcDbEntity
  8
LOGO
 62
     5
100
AcDb2dPolyline
 66
     1
 10
0.0
 20
0.0
 30
0.0
 40
0.5629304423233743
 41
0.5629304423233743
  0
VERTEX
  5
125E
330
125D
100
AcDbEntity
  8
LOGO
 62
     5
100
AcDbVertex
100
AcDb2dVertex
 10
250.7106469045706
 20
138.0624605032791
 30
0.0
 42
1.0
  0
VERTEX
  5
125F
330
125D
100
AcDbEntity
  8
LOGO
 62
     5
100
AcDbVertex
100
AcDb2dVertex
 10
249.0218555776004
 20
138.0624605032791
 30
0.0
 42
1.0
  0
SEQEND
  5
1260
330
125D
100
AcDbEntity
  8
LOGO
 62
     5
  0
SOLID
  5
1261
330
2
100
AcDbEntity
  8
LOGO
 62
     5
100
AcDbTrace
 10
248.7421917338547
 20
139.1865200105105
 30
0.0
 11
249.3042214874698
 21
139.1865200105105
 31
0.0
 12
248.7421917338547
 22
136.3763712424326
 32
0.0
 13
249.3042214874698
 23
136.3763712424326
 33
0.0
  0
SOLID
  5
1262
330
2
100
AcDbEntity
  8
LOGO
 62
     2
100
AcDbTrace
 10
248.3113397247319
 20
141.9966687785889
 30
0.0
 11
248.9857754290712
 21
141.9966687785889
 31
0.0
 12
256.7417860289666
 22
157.4524870030198
 32
0.0
 13
257.4162217333058
 23
157.4524870030187
 33
0.0
  0
SOLID
  5
1263
330
2
100
AcDbEntity
  8
LOGO
 62
     5
100
AcDbTrace
 10
248.9857754290712
 20
141.9966687785889
 30
0.0
 11
250.6156617145563
 21
141.9966687785889
 31
0.0
 12
256.7417860289666
 22
156.2160215450647
 32
0.0
 13
255.1118997434812
 23
150.2397718316179
 33
0.0
  0
SOLID
  5
1264
330
2
100
AcDbEntity
  8
LOGO
 62
     2
100
AcDbTrace
 10
248.3113397247319
 20
157.4524870030187
 30
0.0
 11
248.9857754290712
 21
157.4524870030187
 31
0.0
 12
248.3113397247319
 22
141.9966687785889
 32
0.0
 13
248.9857754290712
 23
141.9966687785889
 33
0.0
  0
SOLID
  5
1265
330
2
100
AcDbEntity
  8
LOGO
 62
     5
100
AcDbTrace
 10
246.6814534392467
 20
141.9966687785889
 30
0.0
 11
248.3113397247319
 21
141.9966687785889
 31
0.0
 12
246.6814534392467
 22
150.2397718316179
 32
0.0
 13
248.3113397247319
 23
156.2160215450647
 33
0.0
  0
LINE
  5
1266
330
2
100
AcDbEntity
  8
LOGO
 62
     1
100
AcDbLine
 10
234.3399622582905
 20
120.6517122865089
 30
0.0
 11
234.3399622582905
 21
158.3479472635206
 31
0.0
  0
SOLID
  5
1267
330
2
100
AcDbEntity
  8
LOGO
 62
     2
100
AcDbTrace
 10
239.8808934204968
 20
141.9966687785884
 30
0.0
 11
240.5553291248366
 21
141.9966687785889
 31
0.0
 12
248.3113397247319
 22
157.4524870030187
 32
0.0
 13
248.9857754290712
 23
157.4524870030187
 33
0.0
  0
SOLID
  5
1268
330
2
100
AcDbEntity
  8
LOGO
 62
     5
100
AcDbTrace
 10
240.5553291248366
 20
141.9966687785889
 30
0.0
 11
242.1852154103217
 21
141.9966687785889
 31
0.0
 12
248.3113397247319
 22
156.2160215450647
 32
0.0
 13
246.6814534392467
 23
150.2397718316179
 33
0.0
  0
SOLID
  5
1269
330
2
100
AcDbEntity
  8
LOGO
 62
     5
100
AcDbTrace
 10
238.2510071350115
 20
141.9966687785889
 30
0.0
 11
239.8808934204968
 21
141.9966687785884
 31
0.0
 12
246.6814534392467
 22
157.4524870030198
 32
0.0
 13
248.3113397247319
 23
157.4524870030187
 33
0.0
  0
SOLID
  5
126A
330
2
100
AcDbEntity
  8
LOGO
 62
     5
100
AcDbTrace
 10
235.6378997223012
 20
136.3763712424326
 30
0.0
 11
236.1999294759174
 21
136.3763712424326
 31
0.0
 12
237.7826490069988
 22
139.1865200105105
 32
0.0
 13
238.344678760614
 23
139.1865200105105
 33
0.0
  0
POLYLINE
  5
126B
330
2
100
AcDbEntity
  8
LOGO
 62
     5
100
AcDb2dPolyline
 66
     1
 10
0.0
 20
0.0
 30
0.0
 70
     1
 40
0.5629304423233743
 41
0.5629304423233743
  0
VERTEX
  5
126C
330
126B
100
AcDbEntity
  8
LOGO
 62
     5
100
AcDbVertex
100
AcDb2dVertex
 10
245.5555925545996
 20
137.7814456264713
 30
0.0
 42
1.0
  0
VERTEX
  5
126D
330
126B
100
AcDbEntity
  8
LOGO
 62
     5
100
AcDbVertex
100
AcDb2dVertex
 10
247.8073143238931
 20
137.7814456264713
 30
0.0
 42
1.0
  0
SEQEND
  5
126E
330
126B
100
AcDbEntity
  8
LOGO
 62
     5
  0
SOLID
  5
126F
330
2
100
AcDbEntity
  8
LOGO
 62
     5
100
AcDbTrace
 10
247.5244418666952
 20
140.0295646409343
 30
0.0
 11
248.0864716203103
 21
140.0295646409343
 31
0.0
 12
247.5244418666952
 22
136.3763712424326
 32
0.0
 13
248.0864716203103
 23
136.3763712424326
 33
0.0
  0
SOLID
  5
1270
330
2
100
AcDbEntity
  8
LOGO
 62
     5
100
AcDbTrace
 10
241.154733857067
 20
139.1865200105105
 30
0.0
 11
241.7167636106837
 21
139.1865200105105
 31
0.0
 12
241.154733857067
 22
136.3763712424316
 32
0.0
 13
241.7167636106837
 23
136.3763712424326
 33
0.0
  0
SOLID
  5
1271
330
2
100
AcDbEntity
  8
LOGO
 62
     5
100
AcDbTrace
 10
242.3724837242266
 20
139.1865200105105
 30
0.0
 11
242.9345134778417
 21
139.1865200105105
 31
0.0
 12
242.3724837242266
 22
136.3763712424326
 32
0.0
 13
242.9345134778417
 23
136.3763712424326
 33
0.0
  0
SOLID
  5
1272
330
2
100
AcDbEntity
  8
LOGO
 62
     5
100
AcDbTrace
 10
237.7826490069988
 20
136.3763712424326
 30
0.0
 11
238.344678760614
 21
136.3763712424326
 31
0.0
 12
239.9273982916971
 22
139.1865200105105
 32
0.0
 13
240.4894280453122
 23
139.1865200105105
 33
0.0
  0
SOLID
  5
1273
330
2
100
AcDbEntity
  8
LOGO
 62
     5
100
AcDbTrace
 10
237.7826490069988
 20
139.1865200105105
 30
0.0
 11
238.344678760614
 21
139.1865200105105
 31
0.0
 12
237.7826490069988
 22
136.3763712424326
 32
0.0
 13
238.344678760614
 23
136.3763712424326
 33
0.0
  0
SOLID
  5
1274
330
2
100
AcDbEntity
  8
LOGO
 62
     5
100
AcDbTrace
 10
239.9273982916971
 20
139.1865200105105
 30
0.0
 11
240.4894280453122
 21
139.1865200105105
 31
0.0
 12
239.9273982916971
 22
136.3763712424326
 32
0.0
 13
240.4894280453122
 23
136.3763712424326
 33
0.0
  0
SOLID
  5
1275
330
2
100
AcDbEntity
  8
LOGO
 62
     5
100
AcDbTrace
 10
244.058572985073
 20
138.0624605032791
 30
0.0
 11
244.6206027386891
 21
138.0624605032791
 31
0.0
 12
244.058572985073
 22
136.3763712424326
 32
0.0
 13
244.6206027386891
 23
136.3763712424326
 33
0.0
  0
POLYLINE
  5
1276
330
2
100
AcDbEntity
  8
LOGO
 62
     5
100
AcDb2dPolyline
 66
     1
 10
0.0
 20
0.0
 30
0.0
 40
0.5629304423233743
 41
0.5629304423233743
  0
VERTEX
  5
1277
330
1276
100
AcDbEntity
  8
LOGO
 62
     5
100
AcDbVertex
100
AcDb2dVertex
 10
244.3409388949425
 20
138.0624605032791
 30
0.0
 42
1.0
  0
VERTEX
  5
1278
330
1276
100
AcDbEntity
  8
LOGO
 62
     5
100
AcDbVertex
100
AcDb2dVertex
 10
242.6521475679724
 20
138.0624605032791
 30
0.0
 42
1.0
  0
SEQEND
  5
1279
330
1276
100
AcDbEntity
  8
LOGO
 62
     5
  0
SOLID
  5
127A
330
2
100
AcDbEntity
  8
LOGO
 62
     5
100
AcDbTrace
 10
241.154733857067
 20
139.5799408380412
 30
0.0
 11
241.7167636106837
 21
139.5799408380412
 31
0.0
 12
241.154733857067
 22
140.0295646409343
 32
0.0
 13
241.7167636106837
 23
140.0295646409343
 33
0.0
  0
LINE
  5
127B
330
2
100
AcDbEntity
  8
LOGO
 62
     1
100
AcDbLine
 10
292.1408558897084
 20
135.7302062773136
 30
0.0
 11
292.1408558897084
 21
158.3479472635206
 31
0.0
  0
LINE
  5
127C
330
2
100
AcDbEntity
  8
LOGO
 62
     1
100
AcDbLine
 10
261.9838679080991
 20
135.7302062773136
 30
0.0
 11
261.9838679080991
 21
158.3479472635206
 31
0.0
  0
SOLID
  5
127D
330
2
100
AcDbEntity
  8
LOGO
 62
     2
100
AcDbTrace
 10
256.7417860289666
 20
157.4524870030198
 30
0.0
 11
257.4162217333058
 21
157.4524870030187
 31
0.0
 12
256.7417860289666
 22
141.9966687785884
 32
0.0
 13
257.4162217333058
 23
141.9966687785884
 33
0.0
  0
SOLID
  5
127E
330
2
100
AcDbEntity
  8
LOGO
 62
     5
100
AcDbTrace
 10
256.7417860289666
 20
156.2160215450647
 30
0.0
 11
255.1118997434812
 21
150.2397718316179
 31
0.0
 12
256.7417860289666
 22
141.9966687785884
 32
0.0
 13
255.1118997434812
 23
141.9966687785884
 33
0.0
  0
SOLID
  5
127F
330
2
100
AcDbEntity
  8
LOGO
 62
     5
100
AcDbTrace
 10
257.4162217333058
 20
141.9966687785884
 30
0.0
 11
259.046108018791
 21
141.9966687785884
 31
0.0
 12
257.4162217333058
 22
157.4524870030187
 32
0.0
 13
259.046108018791
 23
157.4524870030198
 33
0.0
  0
TEXT
  5
1280
330
2
100
AcDbEntity
  8
LOGO
 62
     6
100
AcDbText
 10
266.7783577942377
 20
137.6150180261642
 30
0.0
 40
3.769623497701167
  1
單位 Unit:
 41
0.9
  7
CHINESET
 72
     4
 11
277.0623618989037
 21
139.4998297750147
 31
0.0
100
AcDbText
  0
CIRCLE
  5
1281
330
2
100
AcDbEntity
  8
LOGO
 62
     5
100
AcDbCircle
 10
254.7372507097213
 20
137.7814456264716
 30
0.0
 40
0.8430446304234855
  0
POLYLINE
  5
1282
330
2
100
AcDbEntity
  8
LOGO
 62
     5
100
AcDb2dPolyline
 66
     1
 10
0.0
 20
0.0
 30
0.0
 70
     1
  0
VERTEX
  5
1283
330
1282
100
AcDbEntity
  8
LOGO
 62
     5
100
AcDbVertex
100
AcDb2dVertex
 10
253.8942060792977
 20
137.7814456264716
 30
0.0
 42
1.000000057330635
  0
VERTEX
  5
1284
330
1282
100
AcDbEntity
  8
LOGO
 62
     5
100
AcDbVertex
100
AcDb2dVertex
 10
255.580295340145
 20
137.7814456264716
 30
0.0
 42
1.000000057330635
  0
SEQEND
  5
1285
330
1282
100
AcDbEntity
  8
LOGO
 62
     5
  0
SOLID
  5
1286
330
2
100
AcDbEntity
  8
LOGO
 62
     5
100
AcDbTrace
 10
258.4840782651759
 20
138.0624605032791
 30
0.0
 11
259.046108018791
 21
138.0624605032791
 31
0.0
 12
258.4840782651759
 22
136.3763712424326
 32
0.0
 13
259.046108018791
 23
136.3763712424326
 33
0.0
  0
SOLID
  5
1287
330
2
100
AcDbEntity
  8
LOGO
 62
     5
100
AcDbTrace
 10
256.7979890043283
 20
136.3763712424326
 30
0.0
 11
257.3600187579445
 21
136.3763712424326
 31
0.0
 12
256.7979890043283
 22
139.1865200105105
 32
0.0
 13
257.3600187579445
 23
139.1865200105105
 33
0.0
  0
SOLID
  5
1288
330
2
100
AcDbEntity
  8
LOGO
 62
     5
100
AcDbTrace
 10
255.5802391371704
 20
139.1865200105105
 30
0.0
 11
256.1422688907856
 21
139.1865200105105
 31
0.0
 12
255.5802391371704
 22
136.3763712424326
 32
0.0
 13
256.1422688907856
 23
136.3763712424326
 33
0.0
  0
LINE
  5
1289
330
2
100
AcDbEntity
  8
LOGO
 62
     5
100
AcDbLine
 10
259.046108018791
 20
136.3763712424326
 30
0.0
 11
259.046108018791
 21
138.0624605032791
 31
0.0
  0
POLYLINE
  5
128A
330
2
100
AcDbEntity
  8
LOGO
 62
     5
100
AcDb2dPolyline
 66
     1
 10
0.0
 20
0.0
 30
0.0
 70
     1
 40
0.5629304423233743
 41
0.5629304423233743
  0
VERTEX
  5
128B
330
128A
100
AcDbEntity
  8
LOGO
 62
     5
100
AcDbVertex
100
AcDb2dVertex
 10
253.6113898250743
 20
137.7814456264713
 30
0.0
 42
1.0
  0
VERTEX
  5
128C
330
128A
100
AcDbEntity
  8
LOGO
 62
     5
100
AcDbVertex
100
AcDb2dVertex
 10
255.8631115943678
 20
137.7814456264713
 30
0.0
 42
1.0
  0
SEQEND
  5
128D
330
128A
100
AcDbEntity
  8
LOGO
 62
     5
  0
SOLID
  5
128E
330
2
100
AcDbEntity
  8
LOGO
 62
     5
100
AcDbTrace
 10
250.4282809947012
 20
138.0624605032791
 30
0.0
 11
250.9903107483164
 21
138.0624605032791
 31
0.0
 12
250.4282809947012
 22
136.3763712424326
 32
0.0
 13
250.9903107483164
 23
136.3763712424326
 33
0.0
  0
SOLID
  5
128F
330
2
100
AcDbEntity
  8
LOGO
 62
     5
100
AcDbTrace
 10
252.1143702555478
 20
138.0624605032791
 30
0.0
 11
252.6764000091629
 21
138.0624605032791
 31
0.0
 12
252.1143702555478
 22
136.3763712424316
 32
0.0
 13
252.6764000091629
 23
136.3763712424316
 33
0.0
  0
POLYLINE
  5
1290
330
2
100
AcDbEntity
  8
LOGO
 62
     5
100
AcDb2dPolyline
 66
     1
 10
0.0
 20
0.0
 30
0.0
 40
0.5629304423233743
 41
0.5629304423233743
  0
VERTEX
  5
1291
330
1290
100
AcDbEntity
  8
LOGO
 62
     5
100
AcDbVertex
100
AcDb2dVertex
 10
252.3967361654171
 20
138.0624605032791
 30
0.0
 42
1.0
  0
VERTEX
  5
1292
330
1290
100
AcDbEntity
  8
LOGO
 62
     5
100
AcDbVertex
100
AcDb2dVertex
 10
250.707944838447
 20
138.0624605032791
 30
0.0
 42
1.0
  0
SEQEND
  5
1293
330
1290
100
AcDbEntity
  8
LOGO
 62
     5
  0
POLYLINE
  5
1294
330
2
100
AcDbEntity
  8
LOGO
 62
     5
100
AcDb2dPolyline
 66
     1
 10
0.0
 20
0.0
 30
0.0
 40
0.5629304423233743
 41
0.5629304423233743
  0
VERTEX
  5
1295
330
1294
100
AcDbEntity
  8
LOGO
 62
     5
100
AcDbVertex
100
AcDb2dVertex
 10
258.7664441750454
 20
138.0624605032791
 30
0.0
 42
1.0
  0
VERTEX
  5
1296
330
1294
100
AcDbEntity
  8
LOGO
 62
     5
100
AcDbVertex
100
AcDb2dVertex
 10
257.0776528480752
 20
138.0624605032791
 30
0.0
 42
1.0
  0
SEQEND
  5
1297
330
1294
100
AcDbEntity
  8
LOGO
 62
     5
  0
TEXT
  5
1298
330
2
100
AcDbEntity
  8
LOGO
 62
     6
100
AcDbText
 10
266.4098097826321
 20
145.2072908114169
 30
0.0
 40
3.769623497701167
  1
投影 View:
 41
0.9
  7
CHINESET
 72
     4
 11
277.0623618989037
 21
147.039076770417
 31
0.0
100
AcDbText
  0
TEXT
  5
1299
330
2
100
AcDbEntity
  8
LOGO
 62
     6
100
AcDbText
 10
265.0921244260696
 20
152.6953671466429
 30
0.0
 40
3.769623497701167
  1
比例 Scale:
 41
0.9
  7
CHINESET
 72
     4
 11
277.0623618989037
 21
154.5783237658194
 31
0.0
100
AcDbText
  0
CIRCLE
  5
129A
330
2
100
AcDbEntity
  8
LOGO
  6
CONTINUOUS
 62
     6
100
AcDbCircle
 10
299.120785292756
 20
147.047140022664
 30
0.0
 40
1.282403270511625
  0
LINE
  5
129B
330
2
100
AcDbEntity
  8
0
100
AcDbLine
 10
289.9555630018136
 20
361.3175655867383
 30
0.0
 11
290.9555630018136
 21
362.3175655867382
 31
0.0
  0
LINE
  5
129C
330
2
100
AcDbEntity
  8
HIDDEN
  6
HIDDEN
100
AcDbLine
 10
294.9555630018136
 20
265.6105518825871
 30
0.0
 11
294.9555630018136
 21
281.6105518825871
 31
0.0
  0
LINE
  5
129D
102
{ACAD_REACTORS
330
1982
102
}
330
2
100
AcDbEntity
  8
0
100
AcDbLine
 10
289.9555630018136
 20
266.1105518825871
 30
0.0
 11
289.9555630018136
 21
281.1105518825872
 31
0.0
  0
LINE
  5
129E
330
2
100
AcDbEntity
  8
CENTER
 62
     2
100
AcDbLine
 10
289.9555630018136
 20
266.1105518825871
 30
0.0
 11
290.4555630018136
 21
265.6105518825871
 31
0.0
  0
LINE
  5
129F
330
2
100
AcDbEntity
  8
0
100
AcDbLine
 10
289.9555630018136
 20
281.1105518825872
 30
0.0
 11
290.4555630018136
 21
281.6105518825871
 31
0.0
  0
TEXT
  5
12A0
330
2
100
AcDbEntity
  8
DIM
100
AcDbText
 10
268.0005361257101
 20
335.8704324214064
 30
0.0
 40
4.0
  1
CCW
  7
ROMANS
100
AcDbText
  0
POLYLINE
  5
12A1
330
2
100
AcDbEntity
  8
DIM
100
AcDb2dPolyline
 66
     1
 10
0.0
 20
0.0
 30
0.0
 70
     7
  0
VERTEX
  5
12A2
330
12A1
100
AcDbEntity
  8
DIM
100
AcDbVertex
100
AcDb2dVertex
 10
281.5226322075739
 20
340.804570323971
 30
0.0
 42
0.0185322085214218
  0
VERTEX
  5
12A3
330
12A1
100
AcDbEntity
  8
DIM
100
AcDbVertex
100
AcDb2dVertex
 10
283.5518052774535
 20
336.4034710842898
 30
0.0
  0
VERTEX
  5
12A4
330
12A1
100
AcDbEntity
  8
DIM
100
AcDbVertex
100
AcDb2dVertex
 10
283.0166128728538
 20
336.1322348587246
 30
0.0
  0
VERTEX
  5
12A5
330
12A1
100
AcDbEntity
  8
DIM
100
AcDbVertex
100
AcDb2dVertex
 10
285.6390976561871
 20
334.0980372198755
 30
0.0
  0
VERTEX
  5
12A6
330
12A1
100
AcDbEntity
  8
DIM
100
AcDbVertex
100
AcDb2dVertex
 10
285.4249786935526
 20
337.352797873768
 30
0.0
  0
VERTEX
  5
12A7
330
12A1
100
AcDbEntity
  8
DIM
100
AcDbVertex
100
AcDb2dVertex
 10
284.8897862889526
 20
337.0815616482026
 30
0.0
 42
-0.018532208521422
  0
VERTEX
  5
12A8
330
12A1
100
AcDbEntity
  8
DIM
100
AcDbVertex
100
AcDb2dVertex
 10
282.9071538858134
 20
341.3817182447718
 30
0.0
  0
SEQEND
  5
12A9
330
12A1
100
AcDbEntity
  8
DIM
  0
LINE
  5
12AA
330
2
100
AcDbEntity
  8
0
100
AcDbLine
 10
289.9555630018136
 20
347.3175655867382
 30
0.0
 11
289.9555630018136
 21
361.3175655867383
 31
0.0
  0
LINE
  5
12AB
330
2
100
AcDbEntity
  8
0
100
AcDbLine
 10
290.9555630018136
 20
346.3175655867382
 30
0.0
 11
289.9555630018136
 21
347.3175655867382
 31
0.0
  0
POLYLINE
  5
12AC
330
2
100
AcDbEntity
  8
DIM
100
AcDb2dPolyline
 66
     1
 10
0.0
 20
0.0
 30
0.0
 70
     7
  0
VERTEX
  5
12AD
330
12AC
100
AcDbEntity
  8
DIM
100
AcDbVertex
100
AcDb2dVertex
 10
281.5226322075743
 20
366.9588661655732
 30
0.0
 42
-0.0185322085214218
  0
VERTEX
  5
12AE
330
12AC
100
AcDbEntity
  8
DIM
100
AcDbVertex
100
AcDb2dVertex
 10
283.5518052774539
 20
371.3599654052543
 30
0.0
  0
VERTEX
  5
12AF
330
12AC
100
AcDbEntity
  8
DIM
100
AcDbVertex
100
AcDb2dVertex
 10
283.0166128728542
 20
371.6312016308195
 30
0.0
  0
VERTEX
  5
12B0
330
12AC
100
AcDbEntity
  8
DIM
100
AcDbVertex
100
AcDb2dVertex
 10
285.6390976561875
 20
373.6653992696685
 30
0.0
  0
VERTEX
  5
12B1
330
12AC
100
AcDbEntity
  8
DIM
100
AcDbVertex
100
AcDb2dVertex
 10
285.4249786935531
 20
370.4106386157762
 30
0.0
  0
VERTEX
  5
12B2
330
12AC
100
AcDbEntity
  8
DIM
100
AcDbVertex
100
AcDb2dVertex
 10
284.8897862889531
 20
370.6818748413415
 30
0.0
 42
0.018532208521422
  0
VERTEX
  5
12B3
330
12AC
100
AcDbEntity
  8
DIM
100
AcDbVertex
100
AcDb2dVertex
 10
282.9071538858136
 20
366.3817182447717
 30
0.0
  0
SEQEND
  5
12B4
330
12AC
100
AcDbEntity
  8
DIM
  0
TEXT
  5
12B5
330
2
100
AcDbEntity
  8
DIM
100
AcDbText
 10
272.8861512966066
 20
368.9333814058031
 30
0.0
 40
4.0
  1
CW
  7
ROMANS
100
AcDbText
  0
LINE
  5
12B6
330
2
100
AcDbEntity
  8
CENTER
100
AcDbLine
 10
327.9555630018136
 20
283.7885762121021
 30
0.0
 11
327.9555630018136
 21
167.8194502638871
 31
0.0
  0
LINE
  5
12B7
330
2
100
AcDbEntity
  8
0
100
AcDbLine
 10
320.9555630018136
 20
265.6105518825871
 30
0.0
 11
320.9555630018136
 21
236.6105518825871
 31
0.0
  0
LINE
  5
12B8
330
2
100
AcDbEntity
  8
0
100
AcDbLine
 10
334.9555630018136
 20
265.6105518825871
 30
0.0
 11
334.9555630018136
 21
236.6105518825871
 31
0.0
  0
DIMENSION
  5
12B9
330
2
100
AcDbEntity
  8
AM_5
100
AcDbDimension
  2
*D12
 10
375.9555630018136
 20
170.1105518825871
 30
0.0
 11
373.4476889860655
 21
217.8605518825872
 31
0.0
 70
    32
  3
AM_ISO
100
AcDbAlignedDimension
 13
339.4555630018136
 23
265.6105518825871
 33
0.0
 14
347.4555630018136
 24
170.1105518825871
 34
0.0
 50
90.0
100
AcDbRotatedDimension
  0
LINE
  5
12BA
330
2
100
AcDbEntity
  8
0
 62
     4
100
AcDbLine
 10
513.2513657317579
 20
389.3479472635206
 30
0.0
 11
513.2513657317579
 21
158.3479472635206
 31
0.0
  0
LINE
  5
12BB
330
2
100
AcDbEntity
  8
LOGO
 62
     6
100
AcDbLine
 10
508.2492898558771
 20
123.79306520126
 30
0.0
 11
474.7649032625528
 21
123.79306520126
 31
0.0
  0
LINE
  5
12BC
330
2
100
AcDbEntity
  8
LOGO
 62
     6
100
AcDbLine
 10
508.2492898558771
 20
137.6150706058781
 30
0.0
 11
474.7649032625528
 21
137.6150706058781
 31
0.0
  0
LINE
  5
12BD
330
2
100
AcDbEntity
  8
LOGO
 62
     6
100
AcDbLine
 10
508.2492898558771
 20
143.2694883258585
 30
0.0
 11
474.7649032625528
 21
143.2694883258585
 31
0.0
  0
LINE
  5
12BE
330
2
100
AcDbEntity
  8
LOGO
 62
     6
100
AcDbLine
 10
508.2492898558771
 20
154.5783237658196
 30
0.0
 11
474.7649032625528
 21
154.5783237658194
 31
0.0
  0
LINE
  5
12BF
330
2
100
AcDbEntity
  8
LOGO
 62
     6
100
AcDbLine
 10
438.1808639907508
 20
143.2694883258585
 30
0.0
 11
401.4271488108779
 21
143.2694883258585
 31
0.0
  0
LINE
  5
12C0
330
2
100
AcDbEntity
  8
LOGO
 62
     6
100
AcDbLine
 10
438.1808639907508
 20
154.5783237658196
 30
0.0
 11
401.4271488108779
 21
154.5783237658194
 31
0.0
  0
LINE
  5
12C1
330
2
100
AcDbEntity
  8
LOGO
 62
     6
100
AcDbLine
 10
438.1808639907508
 20
123.79306520126
 30
0.0
 11
401.4271488108779
 21
123.7930652012599
 31
0.0
  0
LINE
  5
12C2
330
2
100
AcDbEntity
  8
LOGO
 62
     6
100
AcDbLine
 10
438.1808639907508
 20
137.615070605878
 30
0.0
 11
401.4271488108779
 21
137.615070605878
 31
0.0
  0
TEXT
  5
12C3
330
2
100
AcDbEntity
  8
LOGO
 62
     6
100
AcDbText
 10
402.810835686799
 20
125.3637465271274
 30
0.0
 40
3.141343177766915
  1
Rotating direction
 41
0.8
  7
ROMANS1
 72
     1
 11
419.8040064008144
 21
126.9344181160109
 31
0.0
100
AcDbText
 73
     2
  0
TEXT
  5
12C4
330
2
100
AcDbEntity
  8
LOGO
 62
     7
100
AcDbText
 10
319.4555648018217
 20
141.8338681763423
 30
0.0
 40
5.026164663601556
  1
Order example:
 41
0.8
  7
CHINESET
100
AcDbText
  0
LINE
  5
12C5
330
2
100
AcDbEntity
  8
LOGO
 62
     1
100
AcDbLine
 10
317.2716792077161
 20
120.6517122865089
 30
0.0
 11
317.2716792077161
 21
158.3479472635206
 31
0.0
  0
TEXT
  5
12C6
330
2
100
AcDbEntity
  8
LOGO
 62
     7
100
AcDbText
 10
320.3573003071625
 20
148.9096673420207
 30
0.0
 40
7.539246995402335
  1
訂購代號:
  7
CHINESET
100
AcDbText
  0
LINE
  5
12C7
330
2
100
AcDbEntity
  8
LOGO
 62
     6
100
AcDbLine
 10
312.875031965531
 20
144.8584078929635
 30
0.0
 11
312.875031965531
 21
149.2358721523646
 31
0.0
  0
LINE
  5
12C8
330
2
100
AcDbEntity
  8
LOGO
  6
CONTINUOUS
 62
     6
100
AcDbLine
 10
306.0134823781386
 20
148.3295432931757
 30
0.0
 11
312.875031965531
 21
149.2358721523646
 31
0.0
  0
LINE
  5
12C9
330
2
100
AcDbEntity
  8
LOGO
  6
CONTINUOUS
 62
     6
100
AcDbLine
 10
306.0134823781386
 20
145.7647367521524
 30
0.0
 11
312.875031965531
 21
144.8584078929635
 31
0.0
  0
LINE
  5
12CA
330
2
100
AcDbEntity
  8
LOGO
 62
     6
100
AcDbLine
 10
306.0134823781387
 20
145.7647367521524
 30
0.0
 11
306.0134823781386
 21
148.3295432931757
 31
0.0
  0
LINE
  5
12CB
330
2
100
AcDbEntity
  8
LOGO
 62
     6
100
AcDbLine
 10
384.1996713655602
 20
143.2694532727159
 30
0.0
 11
384.1996713655602
 21
137.6150180261642
 31
0.0
  0
TEXT
  5
12CC
330
2
100
AcDbEntity
  8
LOGO
  6
CONTINUOUS
 62
     6
100
AcDbText
 10
378.2161420041298
 20
125.3637416586353
 30
0.0
 40
3.141352914750973
  1
Model
  7
CHINESET
 72
     4
 11
384.1996713655602
 21
126.9344181160108
 31
0.0
100
AcDbText
  0
TEXT
  5
12CD
330
2
100
AcDbEntity
  8
LOGO
 62
     6
100
AcDbText
 10
379.1735067019586
 20
130.8326639377805
 30
0.0
 40
5.026164663601556
  1
型式
  7
CHINESET
 72
     4
 11
384.1996713655602
 21
133.2171239455128
 31
0.0
100
AcDbText
  0
LINE
  5
12CE
330
2
100
AcDbEntity
  8
LOGO
 62
     6
100
AcDbLine
 10
396.7650830245641
 20
123.7930652012598
 30
0.0
 11
371.6342597065563
 21
123.7930652012598
 31
0.0
  0
LINE
  5
12CF
330
2
100
AcDbEntity
  8
LOGO
 62
     6
100
AcDbLine
 10
396.7650830245641
 20
137.6150180261642
 30
0.0
 11
371.6342597065563
 21
137.6150180261642
 31
0.0
  0
LINE
  5
12D0
330
2
100
AcDbEntity
  8
LOGO
 62
     6
100
AcDbLine
 10
371.6342597065563
 20
137.6150180261642
 30
0.0
 11
371.6342597065563
 21
123.7930652012598
 31
0.0
  0
LINE
  5
12D1
330
2
100
AcDbEntity
  8
LOGO
 62
     6
100
AcDbLine
 10
401.4271488108779
 20
137.615070605878
 30
0.0
 11
401.4271488108779
 21
123.7930652012599
 31
0.0
  0
LINE
  5
12D2
330
2
100
AcDbEntity
  8
LOGO
 62
     6
100
AcDbLine
 10
396.7650830245641
 20
137.6150180261642
 30
0.0
 11
396.7650830245641
 21
123.7930652012598
 31
0.0
  0
TEXT
  5
12D3
330
2
100
AcDbEntity
  8
LOGO
  6
CONTINUOUS
 62
     7
100
AcDbText
 10
375.2243773234145
 20
145.7825356045167
 30
0.0
 40
6.282705829501946
  1
MAS
  7
CHINESET
 72
     1
 11
384.1996713655602
 21
148.9238885192676
 31
0.0
100
AcDbText
 73
     2
  0
LINE
  5
12D4
330
2
100
AcDbEntity
  8
LOGO
 62
     6
100
AcDbLine
 10
399.2781653563648
 20
143.2694532727159
 30
0.0
 11
369.1211773747555
 21
143.2694532727159
 31
0.0
  0
LINE
  5
12D5
330
2
100
AcDbEntity
  8
LOGO
 62
     6
100
AcDbLine
 10
399.2781653563648
 20
154.5783237658194
 30
0.0
 11
369.1211773747555
 21
154.5783237658194
 31
0.0
  0
LINE
  5
12D6
330
2
100
AcDbEntity
  8
LOGO
 62
     6
100
AcDbLine
 10
369.1211773747555
 20
154.5783237658194
 30
0.0
 11
369.1211773747555
 21
143.2694532727159
 31
0.0
  0
LINE
  5
12D7
330
2
100
AcDbEntity
  8
LOGO
 62
     6
100
AcDbLine
 10
401.4271488108778
 20
154.5783237658194
 30
0.0
 11
401.4271488108779
 21
143.2694883258585
 31
0.0
  0
LINE
  5
12D8
330
2
100
AcDbEntity
  8
LOGO
 62
     6
100
AcDbLine
 10
401.4271488108779
 20
154.5783237658194
 30
0.0
 11
401.4271488108779
 21
143.2694532727159
 31
0.0
  0
LINE
  5
12D9
330
2
100
AcDbEntity
  8
LOGO
 62
     6
100
AcDbLine
 10
399.2781653563649
 20
154.5783237658194
 30
0.0
 11
399.2781653563649
 21
143.2694532727159
 31
0.0
  0
TEXT
  5
12DA
330
2
100
AcDbEntity
  8
LOGO
  6
CONTINUOUS
 62
     6
100
AcDbText
 10
452.7865695912541
 20
125.3637416586354
 30
0.0
 40
3.141352914750973
  1
Bore
 41
0.8
  7
CHINESET
 72
     4
 11
456.6758636761838
 21
126.9344181160109
 31
0.0
100
AcDbText
  0
TEXT
  5
12DB
330
2
100
AcDbEntity
  8
LOGO
 62
     6
100
AcDbText
 10
451.8695937166149
 20
130.704041613712
 30
0.0
 40
5.026164663601556
  1
內徑
 41
0.9
  7
CHINESET
 72
     4
 11
456.6758636761838
 21
133.2171239455128
 31
0.0
100
AcDbText
  0
LINE
  5
12DC
330
2
100
AcDbEntity
  8
LOGO
 62
     6
100
AcDbLine
 10
466.763001717527
 20
123.7930652012599
 30
0.0
 11
446.5887256348405
 21
123.7930652012599
 31
0.0
  0
LINE
  5
12DD
330
2
100
AcDbEntity
  8
LOGO
 62
     6
100
AcDbLine
 10
466.763001717527
 20
137.6150180261642
 30
0.0
 11
446.5887256348405
 21
137.6150180261642
 31
0.0
  0
TEXT
  5
12DE
330
2
100
AcDbEntity
  8
LOGO
  6
CONTINUOUS
 62
     7
100
AcDbText
 10
452.176249758219
 20
145.7112893245195
 30
0.0
 40
6.282705829501946
  1
25
  7
CHINESET
 72
     1
 11
457.2622497154348
 21
148.8526422392704
 31
0.0
100
AcDbText
 73
     2
  0
LINE
  5
12DF
330
2
100
AcDbEntity
  8
LOGO
 62
     6
100
AcDbLine
 10
466.763001717527
 20
143.269453272716
 30
0.0
 11
446.5887256348405
 21
143.269453272716
 31
0.0
  0
LINE
  5
12E0
330
2
100
AcDbEntity
  8
LOGO
 62
     6
100
AcDbLine
 10
466.763001717527
 20
154.5783237658195
 30
0.0
 11
446.5887256348405
 21
154.5783237658195
 31
0.0
  0
LINE
  5
12E1
330
2
100
AcDbEntity
  8
LOGO
 62
     6
100
AcDbLine
 10
419.8040064008142
 20
143.2694883258585
 30
0.0
 11
419.8040064008142
 21
137.615070605878
 31
0.0
  0
TEXT
  5
12E2
330
2
100
AcDbEntity
  8
LOGO
 62
     6
100
AcDbText
 10
410.9453911812166
 20
130.8559561214661
 30
0.0
 40
5.026164663601556
  1
旋轉方向
 41
0.9
  7
CHINESET
 72
     4
 11
419.8040064008144
 21
133.2171239455128
 31
0.0
100
AcDbText
  0
LINE
  5
12E3
330
2
100
AcDbEntity
  8
LOGO
 62
     6
100
AcDbLine
 10
446.5887256348405
 20
137.6150180261642
 30
0.0
 11
446.5887256348405
 21
123.7930652012599
 31
0.0
  0
LINE
  5
12E4
330
2
100
AcDbEntity
  8
LOGO
 62
     6
100
AcDbLine
 10
438.1808639907508
 20
137.615070605878
 30
0.0
 11
438.1808639907508
 21
123.79306520126
 31
0.0
  0
LINE
  5
12E5
330
2
100
AcDbEntity
  8
LOGO
 62
     6
100
AcDbLine
 10
446.5887256348405
 20
154.5783237658195
 30
0.0
 11
446.5887256348405
 21
143.269453272716
 31
0.0
  0
LINE
  5
12E6
330
2
100
AcDbEntity
  8
LOGO
 62
     6
100
AcDbLine
 10
438.1808639907508
 20
154.5783237658195
 30
0.0
 11
438.1808639907508
 21
143.2694883258585
 31
0.0
  0
LINE
  5
12E7
330
2
100
AcDbEntity
  8
LOGO
  6
CONTINUOUS
 62
     7
100
AcDbLine
 10
439.825098028411
 20
148.8838307127572
 30
0.0
 11
444.818682595817
 21
148.8838307127572
 31
0.0
  0
LINE
  5
12E8
330
2
100
AcDbEntity
  8
LOGO
 62
     6
100
AcDbLine
 10
456.6758633864449
 20
143.269453272716
 30
0.0
 11
456.6758633864449
 21
137.6150180261642
 31
0.0
  0
LINE
  5
12E9
330
2
100
AcDbEntity
  8
LOGO
 62
     6
100
AcDbLine
 10
491.8703554137509
 20
143.2694883258585
 30
0.0
 11
491.8703554137509
 21
137.6150706058781
 31
0.0
  0
TEXT
  5
12EA
330
2
100
AcDbEntity
  8
LOGO
 62
     6
100
AcDbText
 10
477.8689401071327
 20
125.3637465271274
 30
0.0
 40
3.141343177766915
  1
Rotating angle
 41
0.8
  7
ROMANS1
 72
     1
 11
491.8703554137509
 21
126.9344181160109
 31
0.0
100
AcDbText
 73
     2
  0
LINE
  5
12EB
330
2
100
AcDbEntity
  8
LOGO
 62
     6
100
AcDbLine
 10
466.763001717527
 20
137.6150180261642
 30
0.0
 11
466.763001717527
 21
123.79306520126
 31
0.0
  0
LINE
  5
12EC
330
2
100
AcDbEntity
  8
LOGO
 62
     6
100
AcDbLine
 10
474.7649032625528
 20
137.6150706058781
 30
0.0
 11
474.7649032625528
 21
123.79306520126
 31
0.0
  0
TEXT
  5
12ED
330
2
100
AcDbEntity
  8
LOGO
 62
     6
100
AcDbText
 10
482.8703793129894
 20
130.8609031339303
 30
0.0
 40
5.026164663601556
  1
旋轉角度
 41
0.9
  7
CHINESET
 72
     4
 11
491.8703554137509
 21
133.2171239455128
 31
0.0
100
AcDbText
  0
LINE
  5
12EE
330
2
100
AcDbEntity
  8
LOGO
 62
     6
100
AcDbLine
 10
466.763001717527
 20
154.5783237658195
 30
0.0
 11
466.763001717527
 21
143.269453272716
 31
0.0
  0
LINE
  5
12EF
330
2
100
AcDbEntity
  8
LOGO
 62
     6
100
AcDbLine
 10
474.7649032625528
 20
154.5783237658194
 30
0.0
 11
474.7649032625528
 21
143.2694883258585
 31
0.0
  0
LINE
  5
12F0
330
2
100
AcDbEntity
  8
LOGO
  6
CONTINUOUS
 62
     7
100
AcDbLine
 10
468.3090698033563
 20
148.8838307127572
 30
0.0
 11
473.3026543707622
 21
148.8838307127572
 31
0.0
  0
LINE
  5
12F1
330
2
100
AcDbEntity
  8
0
100
AcDbLine
 10
345.4555630018136
 20
235.6105518825871
 30
0.0
 11
345.4555630018136
 21
193.1105518825871
 31
0.0
  0
LINE
  5
12F2
330
2
100
AcDbEntity
  8
0
100
AcDbLine
 10
310.4555630018136
 20
235.6105518825871
 30
0.0
 11
310.4555630018136
 21
193.1105518825871
 31
0.0
  0
DIMENSION
  5
12F3
330
2
100
AcDbEntity
  8
AM_5
100
AcDbDimension
  2
*D13
 10
367.9555630018136
 20
170.1105518825871
 30
0.0
 11
365.4476889860655
 21
203.3605518825872
 31
0.0
 70
    32
  3
AM_ISO
100
AcDbAlignedDimension
 13
344.4555630018136
 23
236.6105518825871
 33
0.0
 14
347.4555630018136
 24
170.1105518825871
 34
0.0
 50
90.0
100
AcDbRotatedDimension
  0
LINE
  5
12F4
102
{ACAD_REACTORS
330
1C15
102
}
330
2
100
AcDbEntity
  8
0
100
AcDbLine
 10
308.4555630018136
 20
170.1105518825871
 30
0.0
 11
347.4555630018136
 21
170.1105518825871
 31
0.0
  0
LINE
  5
12F5
330
2
100
AcDbEntity
  8
0
100
AcDbLine
 10
308.4555630018136
 20
193.1105518825871
 30
0.0
 11
347.4555630018136
 21
193.1105518825871
 31
0.0
  0
LINE
  5
12F6
330
2
100
AcDbEntity
  8
CENTER
100
AcDbLine
 10
319.9555630018136
 20
193.1105518825871
 30
0.0
 11
319.9555630018136
 21
184.6399931622871
 31
0.0
  0
CIRCLE
  5
12F8
330
2
100
AcDbEntity
  8
0
100
AcDbCircle
 10
319.9555630018136
 20
189.1105518825871
 30
0.0
 40
2.0
  0
LINE
  5
12F9
330
2
100
AcDbEntity
  8
0
100
AcDbLine
 10
307.9555630018136
 20
192.6105518825871
 30
0.0
 11
307.9555630018136
 21
173.6105518825871
 31
0.0
  0
LINE
  5
12FA
330
2
100
AcDbEntity
  8
CENTER
100
AcDbLine
 10
314.5757789191136
 20
189.1105518825871
 30
0.0
 11
324.9978794890135
 21
189.1105518825871
 31
0.0
  0
LINE
  5
12FB
330
2
100
AcDbEntity
  8
0
  6
CONTINUOUS
100
AcDbLine
 10
307.9555630018136
 20
170.6105518825871
 30
0.0
 11
308.4555630018136
 21
170.1105518825871
 31
0.0
  0
LINE
  5
12FC
330
2
100
AcDbEntity
  8
0
  6
CONTINUOUS
100
AcDbLine
 10
307.9555630018136
 20
173.6105518825871
 30
0.0
 11
307.9555630018136
 21
170.6105518825871
 31
0.0
  0
LINE
  5
12FD
330
2
100
AcDbEntity
  8
0
100
AcDbLine
 10
307.9555630018136
 20
192.6105518825871
 30
0.0
 11
308.4555630018136
 21
193.1105518825871
 31
0.0
  0
LINE
  5
12FE
330
2
100
AcDbEntity
  8
0
100
AcDbLine
 10
347.9555630018136
 20
192.6105518825871
 30
0.0
 11
347.9555630018136
 21
173.6105518825871
 31
0.0
  0
DIMENSION
  5
12FF
330
2
100
AcDbEntity
  8
AM_5
100
AcDbDimension
  2
*D14
 10
359.9555630018136
 20
170.1105518825871
 30
0.0
 11
357.4553005346219
 21
181.6105518825872
 31
0.0
 70
    32
  3
AM_ISO
100
AcDbAlignedDimension
 13
347.4555630018136
 23
193.1105518825871
 33
0.0
 14
347.4555630018136
 24
170.1105518825871
 34
0.0
 50
90.0
100
AcDbRotatedDimension
  0
LINE
  5
1300
330
2
100
AcDbEntity
  8
0
  6
CONTINUOUS
100
AcDbLine
 10
347.9555630018136
 20
173.6105518825871
 30
0.0
 11
347.9555630018136
 21
170.6105518825871
 31
0.0
  0
LINE
  5
1301
330
2
100
AcDbEntity
  8
0
  6
CONTINUOUS
100
AcDbLine
 10
347.9555630018136
 20
170.6105518825871
 30
0.0
 11
347.4555630018136
 21
170.1105518825871
 31
0.0
  0
LINE
  5
1302
330
2
100
AcDbEntity
  8
0
100
AcDbLine
 10
347.9555630018136
 20
192.6105518825871
 30
0.0
 11
347.4555630018136
 21
193.1105518825871
 31
0.0
  0
LINE
  5
1303
330
2
100
AcDbEntity
  8
0
100
AcDbLine
 10
345.4555630018136
 20
235.6105518825871
 30
0.0
 11
344.4555630018136
 21
236.6105518825871
 31
0.0
  0
LINE
  5
1304
330
2
100
AcDbEntity
  8
0
100
AcDbLine
 10
311.4555630018136
 20
236.6105518825871
 30
0.0
 11
310.4555630018136
 21
235.6105518825871
 31
0.0
  0
CIRCLE
  5
1305
330
2
100
AcDbEntity
  8
0
100
AcDbCircle
 10
327.9555630018136
 20
229.6105518825871
 30
0.0
 40
2.0
  0
LINE
  5
1307
330
2
100
AcDbEntity
  8
CENTER
100
AcDbLine
 10
323.3944791015136
 20
229.6105518825871
 30
0.0
 11
333.1484962230136
 21
229.6105518825871
 31
0.0
  0
LINE
  5
1308
330
2
100
AcDbEntity
  8
0
100
AcDbLine
 10
311.4555630018136
 20
236.6105518825871
 30
0.0
 11
344.4555630018136
 21
236.6105518825871
 31
0.0
  0
LINE
  5
1309
330
2
100
AcDbEntity
  8
LOGO
 62
     1
100
AcDbLine
 10
513.2513657317579
 20
120.6517122865089
 30
0.0
 11
513.2513657317579
 21
158.3479472635206
 31
0.0
  0
LINE
  5
130A
330
2
100
AcDbEntity
  8
LOGO
 62
     6
100
AcDbLine
 10
508.2492898558771
 20
137.6150706058781
 30
0.0
 11
508.2492898558771
 21
123.79306520126
 31
0.0
  0
LINE
  5
130B
330
2
100
AcDbEntity
  8
LOGO
 62
     6
100
AcDbLine
 10
508.2492898558771
 20
154.5783237658195
 30
0.0
 11
508.2492898558771
 21
143.2694883258585
 31
0.0
  0
DIMENSION
  5
130D
330
2
100
AcDbEntity
  8
AM_5
100
AcDbDimension
  2
*D15
 10
367.9555630018136
 20
338.8175655867383
 30
0.0
 11
365.4555630018135
 21
354.3175655867383
 31
0.0
 70
    32
  3
AM_ISO
100
AcDbAlignedDimension
 13
346.7055630018136
 23
369.8175655867383
 33
0.0
 14
346.7055630018136
 24
338.8175655867383
 34
0.0
 50
90.0
100
AcDbRotatedDimension
  0
LINE
  5
130E
330
2
100
AcDbEntity
  8
0
100
AcDbLine
 10
339.9555630018136
 20
361.3175655867383
 30
0.0
 11
338.9555630018136
 21
362.3175655867382
 31
0.0
  0
LINE
  5
130F
330
2
100
AcDbEntity
  8
CENTER
100
AcDbLine
 10
327.9555630018136
 20
333.2538665393382
 30
0.0
 11
327.9555630018136
 21
375.1766479751382
 31
0.0
  0
POLYLINE
  5
1310
102
{ACAD_REACTORS
330
1E22
102
}
330
2
100
AcDbEntity
  8
0
100
AcDb2dPolyline
 66
     1
 10
0.0
 20
0.0
 30
0.0
  0
VERTEX
  5
1311
330
1310
100
AcDbEntity
  8
0
100
AcDbVertex
100
AcDb2dVertex
 10
307.9555630018136
 20
362.3175655867382
 30
0.0
  0
VERTEX
  5
1312
330
1310
100
AcDbEntity
  8
0
100
AcDbVertex
100
AcDb2dVertex
 10
307.9555630018136
 20
371.7317791491382
 30
0.0
  0
VERTEX
  5
1313
330
1310
100
AcDbEntity
  8
0
100
AcDbVertex
100
AcDb2dVertex
 10
310.5413494394136
 20
374.3175655867382
 30
0.0
  0
VERTEX
  5
1314
330
1310
100
AcDbEntity
  8
0
100
AcDbVertex
100
AcDb2dVertex
 10
345.3697765642136
 20
374.3175655867382
 30
0.0
  0
VERTEX
  5
1315
102
{ACAD_REACTORS
330
1E22
102
}
330
1310
100
AcDbEntity
  8
0
100
AcDbVertex
100
AcDb2dVertex
 10
347.9555630018136
 20
371.7317791491382
 30
0.0
  0
VERTEX
  5
1316
330
1310
100
AcDbEntity
  8
0
100
AcDbVertex
100
AcDb2dVertex
 10
347.9555630018136
 20
336.9033520243382
 30
0.0
  0
VERTEX
  5
1317
330
1310
100
AcDbEntity
  8
0
100
AcDbVertex
100
AcDb2dVertex
 10
345.3697765642136
 20
334.3175655867383
 30
0.0
  0
VERTEX
  5
1318
330
1310
100
AcDbEntity
  8
0
100
AcDbVertex
100
AcDb2dVertex
 10
310.5413494394136
 20
334.3175655867383
 30
0.0
  0
VERTEX
  5
1319
330
1310
100
AcDbEntity
  8
0
100
AcDbVertex
100
AcDb2dVertex
 10
308.2484562206136
 20
336.6104588055383
 30
0.0
  0
SEQEND
  5
131A
330
1310
100
AcDbEntity
  8
0
  0
ARC
  5
131B
330
2
100
AcDbEntity
  8
0
100
AcDbCircle
 10
327.9555630018136
 20
354.3175655867382
 30
0.0
 40
17.5
100
AcDbArc
 50
209.00254602667
 51
150.9974539733286
  0
DIMENSION
  5
131C
330
2
100
AcDbEntity
  8
AM_5
100
AcDbDimension
  2
*D16
 10
375.9555630018136
 20
265.6105518825871
 30
0.0
 11
373.4555630018135
 21
273.6105518825872
 31
0.0
 70
    32
  3
STANDARD
100
AcDbAlignedDimension
 13
339.4555630018136
 23
281.6105518825871
 33
0.0
 14
339.4555630018136
 24
265.6105518825871
 34
0.0
 50
90.0
100
AcDbRotatedDimension
1001
ACAD
1000
DSTYLE
1002
{
1070
   287
1070
     5
1070
    41
1040
3.0
1070
    42
1040
1.0
1070
    43
1040
12.0
1070
    44
1040
1.0
1070
    47
1040
0.15
1070
    48
1040
-0.1
1070
    73
1070
     0
1070
    74
1070
     0
1070
    77
1070
     1
1070
    78
1070
     8
1070
   140
1040
3.0
1070
   141
1040
2.0
1070
   145
1040
1.0
1070
   147
1040
1.0
1070
   172
1070
     1
1070
   271
1070
     2
1070
   272
1070
     2
1070
   279
1070
     2
1002
}
  0
LINE
  5
131D
330
2
100
AcDbEntity
  8
CENTER
100
AcDbLine
 10
297.9555630018136
 20
264.6110380285871
 30
0.0
 11
297.9555630018136
 21
282.6105518825871
 31
0.0
  0
LINE
  5
131E
330
2
100
AcDbEntity
  8
HIDDEN
  6
HIDDEN
100
AcDbLine
 10
295.4555630018136
 20
265.6105518825871
 30
0.0
 11
295.4555630018136
 21
281.6105518825871
 31
0.0
  0
LINE
  5
131F
330
2
100
AcDbEntity
  8
HIDDEN
  6
HIDDEN
100
AcDbLine
 10
300.9555630018136
 20
265.6105518825871
 30
0.0
 11
300.9555630018136
 21
281.6105518825871
 31
0.0
  0
LINE
  5
1320
330
2
100
AcDbEntity
  8
HIDDEN
  6
HIDDEN
100
AcDbLine
 10
300.4555630018136
 20
265.6105518825871
 30
0.0
 11
300.4555630018136
 21
281.6105518825871
 31
0.0
  0
LINE
  5
1321
102
{ACAD_REACTORS
330
1982
102
}
330
2
100
AcDbEntity
  8
0
100
AcDbLine
 10
339.9555630018136
 20
281.1105518825872
 30
0.0
 11
339.9555630018136
 21
266.1105518825871
 31
0.0
  0
LINE
  5
1322
330
2
100
AcDbEntity
  8
0
100
AcDbLine
 10
339.4555630018136
 20
265.6105518825871
 30
0.0
 11
339.9555630018136
 21
266.1105518825871
 31
0.0
  0
LINE
  5
1323
102
{ACAD_REACTORS
330
1C15
102
}
330
2
100
AcDbEntity
  8
0
100
AcDbLine
 10
339.4555630018136
 20
281.6105518825871
 30
0.0
 11
339.9555630018136
 21
281.1105518825872
 31
0.0
  0
DIMENSION
  5
1324
330
2
100
AcDbEntity
  8
AM_5
100
AcDbDimension
  2
*D17
 10
327.9555630018136
 20
291.751093462233
 30
0.0
 11
312.9555630018136
 21
294.251093462233
 31
0.0
 70
    32
  3
AM_ISO
100
AcDbAlignedDimension
 13
297.9555630018136
 23
282.6105518825871
 33
0.0
 14
327.9555630018136
 24
283.7885762121021
 34
0.0
100
AcDbRotatedDimension
1001
ACAD
1000
DSTYLE
1002
{
1070
   173
1070
     1
1070
     6
1000
GENDOT
1002
}
  0
LINE
  5
1326
330
2
100
AcDbEntity
  8
AM_7
  6
CENTER2
100
AcDbLine
 10
312.4555630018136
 20
338.8175655867383
 30
0.0
 11
312.4555630018136
 21
342.0675655867382
 31
0.0
1001
GENIUS_GENOREF_13
1005
1345
  0
LINE
  5
1327
330
2
100
AcDbEntity
  8
AM_7
  6
CENTER2
100
AcDbLine
 10
343.4555630018136
 20
338.8175655867383
 30
0.0
 11
343.4555630018136
 21
342.0675655867382
 31
0.0
1001
GENIUS_GENOREF_13
1005
1346
  0
CIRCLE
  5
1328
330
2
100
AcDbEntity
  8
0
100
AcDbCircle
 10
343.4555630018136
 20
338.8175655867383
 30
0.0
 40
2.25
  0
CIRCLE
  5
1329
330
2
100
AcDbEntity
  8
0
100
AcDbCircle
 10
312.4555630018136
 20
338.8175655867383
 30
0.0
 40
2.25
  0
POLYLINE
  5
132A
102
{ACAD_REACTORS
330
1E22
102
}
330
2
100
AcDbEntity
  8
0
100
AcDb2dPolyline
 66
     1
 10
0.0
 20
0.0
 30
0.0
  0
VERTEX
  5
132B
102
{ACAD_REACTORS
330
1E22
102
}
330
132A
100
AcDbEntity
  8
0
100
AcDbVertex
100
AcDb2dVertex
 10
307.9555630018136
 20
337.3175655867382
 30
0.0
  0
VERTEX
  5
132C
330
132A
100
AcDbEntity
  8
0
100
AcDbVertex
100
AcDb2dVertex
 10
307.9555630018136
 20
346.3175655867382
 30
0.0
  0
SEQEND
  5
132D
330
132A
100
AcDbEntity
  8
0
  0
DIMENSION
  5
132E
330
2
100
AcDbEntity
  8
AM_5
100
AcDbDimension
  2
*D18
 10
343.4555630018136
 20
322.3175655867382
 30
0.0
 11
327.9555630018136
 21
324.8175655867382
 31
0.0
 70
    32
  3
AM_ISO
100
AcDbAlignedDimension
 13
312.4555630018136
 23
335.5675655867382
 33
0.0
 14
343.4555630018136
 24
335.5675655867382
 34
0.0
100
AcDbRotatedDimension
  0
LINE
  5
132F
330
2
100
AcDbEntity
  8
0
  6
CONTINUOUS
100
AcDbLine
 10
307.9555630018136
 20
337.3175655867382
 30
0.0
 11
308.2484562206136
 21
336.6104588055383
 31
0.0
  0
LINE
  5
1330
330
2
100
AcDbEntity
  8
AM_7
  6
CENTER2
100
AcDbLine
 10
312.4555630018136
 20
338.8175655867383
 30
0.0
 11
315.7055630018136
 21
338.8175655867383
 31
0.0
1001
GENIUS_GENOREF_13
1005
1345
  0
LINE
  5
1331
330
2
100
AcDbEntity
  8
AM_7
  6
CENTER2
100
AcDbLine
 10
312.4555630018136
 20
338.8175655867383
 30
0.0
 11
312.4555630018136
 21
335.5675655867382
 31
0.0
1001
GENIUS_GENOREF_13
1005
1345
  0
LINE
  5
1332
330
2
100
AcDbEntity
  8
AM_7
  6
CENTER2
100
AcDbLine
 10
312.4555630018136
 20
338.8175655867383
 30
0.0
 11
309.2055630018136
 21
338.8175655867383
 31
0.0
1001
GENIUS_GENOREF_13
1005
1345
  0
LINE
  5
1333
330
2
100
AcDbEntity
  8
AM_7
  6
CENTER2
100
AcDbLine
 10
343.4555630018136
 20
338.8175655867383
 30
0.0
 11
340.2055630018136
 21
338.8175655867383
 31
0.0
1001
GENIUS_GENOREF_13
1005
1346
  0
LINE
  5
1334
330
2
100
AcDbEntity
  8
AM_7
  6
CENTER2
100
AcDbLine
 10
343.4555630018136
 20
338.8175655867383
 30
0.0
 11
343.4555630018136
 21
335.5675655867382
 31
0.0
1001
GENIUS_GENOREF_13
1005
1346
  0
LINE
  5
1335
330
2
100
AcDbEntity
  8
AM_7
  6
CENTER2
100
AcDbLine
 10
343.4555630018136
 20
338.8175655867383
 30
0.0
 11
346.7055630018136
 21
338.8175655867383
 31
0.0
1001
GENIUS_GENOREF_13
1005
1346
  0
LINE
  5
1336
330
2
100
AcDbEntity
  8
CENTER
100
AcDbLine
 10
297.9555630018136
 20
346.7814632237383
 30
0.0
 11
297.9555630018136
 21
361.0002509371383
 31
0.0
  0
LINE
  5
1338
330
2
100
AcDbEntity
  8
0
100
AcDbLine
 10
339.9555630018136
 20
347.3175655867382
 30
0.0
 11
339.9555630018136
 21
361.3175655867383
 31
0.0
  0
CIRCLE
  5
1339
330
2
100
AcDbEntity
  8
0
100
AcDbCircle
 10
327.9555630018136
 20
354.3175655867382
 30
0.0
 40
5.5
  0
LINE
  5
133A
330
2
100
AcDbEntity
  8
0
100
AcDbLine
 10
338.9555630018136
 20
346.3175655867382
 30
0.0
 11
339.9555630018136
 21
347.3175655867382
 31
0.0
  0
LINE
  5
133B
330
2
100
AcDbEntity
  8
AM_7
  6
CENTER2
100
AcDbLine
 10
312.4555630018136
 20
369.8175655867383
 30
0.0
 11
312.4555630018136
 21
366.5675655867382
 31
0.0
1001
GENIUS_GENOREF_13
1005
1347
  0
CIRCLE
  5
133C
330
2
100
AcDbEntity
  8
0
100
AcDbCircle
 10
312.4555630018136
 20
369.8175655867383
 30
0.0
 40
2.25
  0
LINE
  5
133D
330
2
100
AcDbEntity
  8
AM_7
  6
CENTER2
100
AcDbLine
 10
312.4555630018136
 20
369.8175655867383
 30
0.0
 11
315.7055630018136
 21
369.8175655867383
 31
0.0
1001
GENIUS_GENOREF_13
1005
1347
  0
LINE
  5
133E
330
2
100
AcDbEntity
  8
AM_7
  6
CENTER2
100
AcDbLine
 10
312.4555630018136
 20
369.8175655867383
 30
0.0
 11
309.2055630018136
 21
369.8175655867383
 31
0.0
1001
GENIUS_GENOREF_13
1005
1347
  0
LINE
  5
133F
330
2
100
AcDbEntity
  8
AM_7
  6
CENTER2
100
AcDbLine
 10
312.4555630018136
 20
369.8175655867383
 30
0.0
 11
312.4555630018136
 21
373.0675655867382
 31
0.0
1001
GENIUS_GENOREF_13
1005
1347
  0
LINE
  5
1340
330
2
100
AcDbEntity
  8
AM_7
  6
CENTER2
100
AcDbLine
 10
343.4555630018136
 20
369.8175655867383
 30
0.0
 11
343.4555630018136
 21
366.5675655867382
 31
0.0
1001
GENIUS_GENOREF_13
1005
1348
  0
CIRCLE
  5
1341
330
2
100
AcDbEntity
  8
0
100
AcDbCircle
 10
343.4555630018136
 20
369.8175655867383
 30
0.0
 40
2.25
  0
LINE
  5
1342
330
2
100
AcDbEntity
  8
AM_7
  6
CENTER2
100
AcDbLine
 10
343.4555630018136
 20
369.8175655867383
 30
0.0
 11
340.2055630018136
 21
369.8175655867383
 31
0.0
1001
GENIUS_GENOREF_13
1005
1348
  0
LINE
  5
1343
330
2
100
AcDbEntity
  8
AM_7
  6
CENTER2
100
AcDbLine
 10
343.4555630018136
 20
369.8175655867383
 30
0.0
 11
343.4555630018136
 21
373.0675655867382
 31
0.0
1001
GENIUS_GENOREF_13
1005
1348
  0
LINE
  5
1344
330
2
100
AcDbEntity
  8
AM_7
  6
CENTER2
100
AcDbLine
 10
343.4555630018136
 20
369.8175655867383
 30
0.0
 11
346.7055630018136
 21
369.8175655867383
 31
0.0
1001
GENIUS_GENOREF_13
1005
1348
  0
POINT
  5
1345
330
2
100
AcDbEntity
  8
0
  6
CONTINUOUS
 60
     1
100
AcDbPoint
 10
116.3399622582905
 20
110.3479472635206
 30
0.0
1001
GENIUS_GENOLIS_13
1002
{
1000
ENT
1005
1331
1005
1332
1005
1326
1005
1330
1002
}
1001
GENIUS_GENOENT_13
1002
{
1000
MYREF
1005
1345
1002
}
1002
{
1000
GRP
1005
0
1002
}
1001
GENIUS_GENOBJ-N-CRS_13
1002
{
1000
OWNER
1000
GEN
1002
}
1001
GENIUS_GENODEF_13
1002
{
1000
HIER
1070
    10
1002
}
1002
{
1000
MANEDIT
1070
     0
1002
}
1002
{
1000
NOSEL
1070
     0
1002
}
1002
{
1000
BEHIND
1070
     0
1002
}
1002
{
1000
OTHER
1070
     0
1002
}
1002
{
1000
REACTOR
1002
}
  0
POINT
  5
1346
330
2
100
AcDbEntity
  8
0
  6
CONTINUOUS
 60
     1
100
AcDbPoint
 10
116.3399622582905
 20
110.3479472635206
 30
0.0
1001
GENIUS_GENOBJ-N-CRS_13
1002
{
1000
OWNER
1000
GEN
1002
}
1001
GENIUS_GENODEF_13
1002
{
1000
HIER
1070
    10
1002
}
1002
{
1000
MANEDIT
1070
     0
1002
}
1002
{
1000
NOSEL
1070
     0
1002
}
1002
{
1000
BEHIND
1070
     0
1002
}
1002
{
1000
OTHER
1070
     0
1002
}
1002
{
1000
REACTOR
1002
}
1001
GENIUS_GENOLIS_13
1002
{
1000
ENT
1005
1334
1005
1333
1005
1327
1005
1335
1002
}
1001
GENIUS_GENOENT_13
1002
{
1000
MYREF
1005
1346
1002
}
1002
{
1000
GRP
1005
0
1002
}
  0
POINT
  5
1347
330
2
100
AcDbEntity
  8
0
  6
CONTINUOUS
 60
     1
100
AcDbPoint
 10
116.3399622582905
 20
110.3479472635206
 30
0.0
1001
GENIUS_GENOENT_13
1002
{
1000
MYREF
1005
1347
1002
}
1002
{
1000
GRP
1005
0
1002
}
1001
GENIUS_GENOBJ-N-CRS_13
1002
{
1000
OWNER
1000
GEN
1002
}
1001
GENIUS_GENODEF_13
1002
{
1000
HIER
1070
    10
1002
}
1002
{
1000
MANEDIT
1070
     0
1002
}
1002
{
1000
NOSEL
1070
     0
1002
}
1002
{
1000
BEHIND
1070
     0
1002
}
1002
{
1000
OTHER
1070
     0
1002
}
1002
{
1000
REACTOR
1002
}
1001
GENIUS_GENOLIS_13
1002
{
1000
ENT
1005
133B
1005
133E
1005
133F
1005
133D
1002
}
  0
POINT
  5
1348
330
2
100
AcDbEntity
  8
0
  6
CONTINUOUS
 60
     1
100
AcDbPoint
 10
116.3399622582905
 20
110.3479472635206
 30
0.0
1001
GENIUS_GENODEF_13
1002
{
1000
HIER
1070
    10
1002
}
1002
{
1000
MANEDIT
1070
     0
1002
}
1002
{
1000
NOSEL
1070
     0
1002
}
1002
{
1000
BEHIND
1070
     0
1002
}
1002
{
1000
OTHER
1070
     0
1002
}
1002
{
1000
REACTOR
1002
}
1001
GENIUS_GENOLIS_13
1002
{
1000
ENT
1005
1340
1005
1342
1005
1343
1005
1344
1002
}
1001
GENIUS_GENOENT_13
1002
{
1000
MYREF
1005
1348
1002
}
1002
{
1000
GRP
1005
0
1002
}
1001
GENIUS_GENOBJ-N-CRS_13
1002
{
1000
OWNER
1000
GEN
1002
}
  0
INSERT
  5
152A
330
2
100
AcDbEntity
  8
AM_5
100
AcDbBlockReference
  2
*S25
 10
0.0
 20
0.0
 30
0.0
  0
LINE
  5
152B
330
2
100
AcDbEntity
  8
0
100
AcDbLine
 10
428.3521437156806
 20
235.6105518825871
 30
0.0
 11
428.3521437156806
 21
193.1105518825871
 31
0.0
  0
LINE
  5
152C
330
2
100
AcDbEntity
  8
0
100
AcDbLine
 10
463.3521437156806
 20
235.6105518825871
 30
0.0
 11
463.3521437156806
 21
193.1105518825871
 31
0.0
  0
LINE
  5
152D
330
2
100
AcDbEntity
  8
CENTER
100
AcDbLine
 10
445.8521437156806
 20
285.7435291471872
 30
0.0
 11
445.8521437156806
 21
167.8194502638871
 31
0.0
  0
LINE
  5
152E
330
2
100
AcDbEntity
  8
0
100
AcDbLine
 10
426.3521437156806
 20
193.1105518825871
 30
0.0
 11
465.3521437156806
 21
193.1105518825871
 31
0.0
  0
LINE
  5
152F
330
2
100
AcDbEntity
  8
0
100
AcDbLine
 10
426.3521437156806
 20
170.1105518825871
 30
0.0
 11
465.3521437156806
 21
170.1105518825871
 31
0.0
  0
LINE
  5
1530
330
2
100
AcDbEntity
  8
0
100
AcDbLine
 10
425.8521437156806
 20
192.6105518825871
 30
0.0
 11
425.8521437156806
 21
173.6105518825871
 31
0.0
  0
LINE
  5
1531
330
2
100
AcDbEntity
  8
0
  6
CONTINUOUS
100
AcDbLine
 10
425.8521437156806
 20
173.6105518825871
 30
0.0
 11
425.8521437156806
 21
170.6105518825871
 31
0.0
  0
LINE
  5
1532
330
2
100
AcDbEntity
  8
0
  6
CONTINUOUS
100
AcDbLine
 10
425.8521437156806
 20
170.6105518825871
 30
0.0
 11
426.3521437156806
 21
170.1105518825871
 31
0.0
  0
LINE
  5
1533
330
2
100
AcDbEntity
  8
0
100
AcDbLine
 10
425.8521437156806
 20
192.6105518825871
 30
0.0
 11
426.3521437156806
 21
193.1105518825871
 31
0.0
  0
LINE
  5
1539
330
2
100
AcDbEntity
  8
0
100
AcDbLine
 10
465.8521437156806
 20
192.6105518825871
 30
0.0
 11
465.8521437156806
 21
173.6105518825871
 31
0.0
  0
LINE
  5
153A
330
2
100
AcDbEntity
  8
0
  6
CONTINUOUS
100
AcDbLine
 10
465.8521437156806
 20
173.6105518825871
 30
0.0
 11
465.8521437156806
 21
170.6105518825871
 31
0.0
  0
LINE
  5
153B
330
2
100
AcDbEntity
  8
0
  6
CONTINUOUS
100
AcDbLine
 10
465.8521437156806
 20
170.6105518825871
 30
0.0
 11
465.3521437156806
 21
170.1105518825871
 31
0.0
  0
LINE
  5
153C
330
2
100
AcDbEntity
  8
0
100
AcDbLine
 10
465.8521437156806
 20
192.6105518825871
 30
0.0
 11
465.3521437156806
 21
193.1105518825871
 31
0.0
  0
LINE
  5
153D
330
2
100
AcDbEntity
  8
0
100
AcDbLine
 10
429.3521437156806
 20
236.6105518825871
 30
0.0
 11
462.3521437156806
 21
236.6105518825871
 31
0.0
  0
LINE
  5
153E
330
2
100
AcDbEntity
  8
0
100
AcDbLine
 10
438.3521437156807
 20
265.6105518825871
 30
0.0
 11
453.3521437156807
 21
265.6105518825871
 31
0.0
  0
LINE
  5
153F
330
2
100
AcDbEntity
  8
0
100
AcDbLine
 10
438.3521437156807
 20
281.6105518825871
 30
0.0
 11
453.3521437156807
 21
281.6105518825871
 31
0.0
  0
LINE
  5
1541
330
2
100
AcDbEntity
  8
0
100
AcDbLine
 10
438.8521437156806
 20
265.6105518825871
 30
0.0
 11
438.8521437156806
 21
236.6105518825871
 31
0.0
  0
LINE
  5
1542
330
2
100
AcDbEntity
  8
0
100
AcDbLine
 10
429.3521437156806
 20
236.6105518825871
 30
0.0
 11
428.3521437156806
 21
235.6105518825871
 31
0.0
  0
LINE
  5
1546
330
2
100
AcDbEntity
  8
0
100
AcDbLine
 10
437.8521437156806
 20
266.1105518825871
 30
0.0
 11
437.8521437156806
 21
281.1105518825872
 31
0.0
  0
LINE
  5
1547
330
2
100
AcDbEntity
  8
CENTER
 62
     2
100
AcDbLine
 10
437.8521437156806
 20
266.1105518825871
 30
0.0
 11
438.3521437156807
 21
265.6105518825871
 31
0.0
  0
LINE
  5
1548
330
2
100
AcDbEntity
  8
0
100
AcDbLine
 10
437.8521437156806
 20
281.1105518825872
 30
0.0
 11
438.3521437156807
 21
281.6105518825871
 31
0.0
  0
LINE
  5
154E
330
2
100
AcDbEntity
  8
0
100
AcDbLine
 10
452.8521437156806
 20
265.6105518825871
 30
0.0
 11
452.8521437156806
 21
236.6105518825871
 31
0.0
  0
LINE
  5
154F
330
2
100
AcDbEntity
  8
0
100
AcDbLine
 10
463.3521437156806
 20
235.6105518825871
 30
0.0
 11
462.3521437156806
 21
236.6105518825871
 31
0.0
  0
LINE
  5
1551
330
2
100
AcDbEntity
  8
0
100
AcDbLine
 10
453.8521437156807
 20
281.1105518825872
 30
0.0
 11
453.8521437156807
 21
266.1105518825871
 31
0.0
  0
LINE
  5
1552
330
2
100
AcDbEntity
  8
0
100
AcDbLine
 10
453.3521437156807
 20
265.6105518825871
 30
0.0
 11
453.8521437156807
 21
266.1105518825871
 31
0.0
  0
LINE
  5
1553
330
2
100
AcDbEntity
  8
0
100
AcDbLine
 10
453.3521437156807
 20
281.6105518825871
 30
0.0
 11
453.8521437156807
 21
281.1105518825872
 31
0.0
  0
INSERT
  5
18A0
330
2
100
AcDbEntity
  8
AM_5
100
AcDbBlockReference
  2
*S26
 10
0.0
 20
0.0
 30
0.0
  0
INSERT
  5
18A8
330
2
100
AcDbEntity
  8
AM_5
100
AcDbBlockReference
  2
*S27
 10
0.0
 20
0.0
 30
0.0
  0
DIMENSION
  5
18BA
102
{ACAD_XDICTIONARY
360
18C7
102
}
102
{ACAD_REACTORS
330
18D1
102
}
330
2
100
AcDbEntity
  8
AM_5
100
AcDbDimension
  2
*D19
 10
359.9555630018136
 20
346.3175655867382
 30
0.0
 11
357.4555630018135
 21
354.3175655867383
 31
0.0
 70
    32
  3
AM_ISO
100
AcDbAlignedDimension
 13
338.9555630018136
 23
362.3175655867382
 33
0.0
 14
338.9555630018136
 24
346.3175655867382
 34
0.0
 50
90.0
100
AcDbRotatedDimension
  0
LINE
  5
1918
330
2
100
AcDbEntity
  8
CENTER
  6
CENTER
100
AcDbLine
 10
438.5547335586196
 20
229.6105518825871
 30
0.0
 11
425.639453583046
 21
229.6105518825871
 31
0.0
  0
LINE
  5
1919
330
2
100
AcDbEntity
  8
HIDDEN
  6
HIDDEN
100
AcDbLine
 10
435.3521437156805
 20
227.1105518825873
 30
0.0
 11
428.3521437156805
 21
227.1105518825873
 31
0.0
  0
LINE
  5
191A
330
2
100
AcDbEntity
  8
HIDDEN
  6
HIDDEN
100
AcDbLine
 10
435.3521437156805
 20
227.5105518825871
 30
0.0
 11
428.3521437156805
 21
227.5105518825871
 31
0.0
  0
LINE
  5
191B
330
2
100
AcDbEntity
  8
HIDDEN
  6
HIDDEN
100
AcDbLine
 10
435.3521437156805
 20
232.110551882587
 30
0.0
 11
428.3521437156805
 21
232.110551882587
 31
0.0
  0
LINE
  5
191C
330
2
100
AcDbEntity
  8
HIDDEN
  6
HIDDEN
100
AcDbLine
 10
435.3521437156805
 20
231.7105518825871
 30
0.0
 11
428.3521437156805
 21
231.7105518825872
 31
0.0
  0
DIMENSION
  5
1931
330
2
100
AcDbEntity
  8
AM_5
100
AcDbDimension
  2
*D20
 10
345.4555630018136
 20
207.8402788205095
 30
0.0
 11
333.9218939302237
 21
207.8402788205095
 31
0.0
 70
   160
  1
%%c<>
  3
AM_ISO
100
AcDbAlignedDimension
 13
310.4555630018136
 23
214.3605518825871
 33
0.0
 14
345.4555630018136
 24
214.3605518825871
 34
0.0
 50
0.0000000000001132
100
AcDbRotatedDimension
  0
DIMENSION
  5
196B
102
{ACAD_XDICTIONARY
360
1978
102
}
102
{ACAD_REACTORS
330
1982
102
}
330
2
100
AcDbEntity
  8
AM_5
100
AcDbDimension
  2
*D21
 10
339.9555630018136
 20
299.751093462233
 30
0.0
 11
314.9555630018136
 21
302.258967477981
 31
0.0
 70
    32
  3
AM_ISO
100
AcDbAlignedDimension
 13
289.9555630018136
 23
281.1105518825872
 33
0.0
 14
339.9555630018136
 24
281.1105518825872
 34
0.0
100
AcDbRotatedDimension
  0
DIMENSION
  5
1BFE
102
{ACAD_XDICTIONARY
360
1C0B
102
}
102
{ACAD_REACTORS
330
1C15
102
}
330
2
100
AcDbEntity
  8
AM_5
100
AcDbDimension
  2
*D22
 10
383.9555630018136
 20
170.1105518825871
 30
0.0
 11
381.4476889860655
 21
225.8605518825872
 31
0.0
 70
    32
  3
AM_ISO
100
AcDbAlignedDimension
 13
339.4555630018136
 23
281.6105518825871
 33
0.0
 14
347.4555630018136
 24
170.1105518825871
 34
0.0
 50
90.00000000000003
100
AcDbRotatedDimension
  0
TEXT
  5
1DD1
330
2
100
AcDbEntity
  8
AM_5
100
AcDbText
 10
361.1484220849709
 20
322.0818167853841
 30
0.0
 40
3.0
  1
4-%%c4.5
  7
CHINA
100
AcDbText
  0
TEXT
  5
1DD3
330
2
100
AcDbEntity
  8
AM_5
100
AcDbText
 10
274.23232005661
 20
254.4968957221768
 30
0.0
 40
3.0
  1
M6x1.0
  7
CHINA
100
AcDbText
  0
TEXT
  5
1DD6
330
2
100
AcDbEntity
  8
AM_5
100
AcDbText
 10
279.9492677386168
 20
212.1032662009753
 30
0.0
 40
3.0
  1
M5x0.8
  7
CHINA
100
AcDbText
  0
DIMENSION
  5
1E0B
102
{ACAD_XDICTIONARY
360
1E18
102
}
102
{ACAD_REACTORS
330
1E22
102
}
330
2
100
AcDbEntity
  8
AM_5
100
AcDbDimension
  2
*D24
 10
347.9555630018136
 20
314.3175655867386
 30
0.0
 11
327.9555630018136
 21
316.8175655867386
 31
0.0
 70
    32
  1
{\Famgdt;o}<>
  3
AM_ISO
100
AcDbAlignedDimension
 13
307.9555630018136
 23
337.3175655867382
 33
0.0
 14
347.9555630018136
 24
336.9033520243382
 34
0.0
 50
0.0000000000001132
100
AcDbRotatedDimension
  0
LINE
  5
1E73
330
2
100
AcDbEntity
  8
HIDDEN
  6
HIDDEN
100
AcDbLine
 10
314.7055630018136
 20
193.1105518825871
 30
0.0
 11
314.7055630018136
 21
170.1105518825871
 31
0.0
  0
LINE
  5
1E75
330
2
100
AcDbEntity
  8
HIDDEN
  6
HIDDEN
100
AcDbLine
 10
310.2055630018136
 20
193.1105518825871
 30
0.0
 11
310.2055630018136
 21
170.1105518825871
 31
0.0
  0
LINE
  5
1E76
330
2
100
AcDbEntity
  8
CENTER
100
AcDbLine
 10
312.4555630018136
 20
194.1105518825871
 30
0.0
 11
312.4555630018136
 21
169.1105518825871
 31
0.0
  0
LINE
  5
1E77
330
2
100
AcDbEntity
  8
HIDDEN
  6
HIDDEN
100
AcDbLine
 10
345.7055630018136
 20
193.1105518825871
 30
0.0
 11
345.7055630018136
 21
170.1105518825871
 31
0.0
  0
LINE
  5
1E78
330
2
100
AcDbEntity
  8
HIDDEN
  6
HIDDEN
100
AcDbLine
 10
341.2055630018136
 20
193.1105518825871
 30
0.0
 11
341.2055630018136
 21
170.1105518825871
 31
0.0
  0
LINE
  5
1E79
330
2
100
AcDbEntity
  8
CENTER
100
AcDbLine
 10
343.4555630018136
 20
194.1105518825871
 30
0.0
 11
343.4555630018136
 21
169.1105518825871
 31
0.0
  0
LINE
  5
1E7A
330
2
100
AcDbEntity
  8
CENTER
100
AcDbLine
 10
461.3521437156806
 20
194.1105518825871
 30
0.0
 11
461.3521437156806
 21
169.1105518825871
 31
0.0
  0
LINE
  5
1E7B
330
2
100
AcDbEntity
  8
HIDDEN
  6
HIDDEN
100
AcDbLine
 10
459.1021437156806
 20
193.1105518825871
 30
0.0
 11
459.1021437156806
 21
170.1105518825871
 31
0.0
  0
LINE
  5
1E7C
330
2
100
AcDbEntity
  8
HIDDEN
  6
HIDDEN
100
AcDbLine
 10
463.6021437156806
 20
193.1105518825871
 30
0.0
 11
463.6021437156806
 21
170.1105518825871
 31
0.0
  0
LINE
  5
1E7D
330
2
100
AcDbEntity
  8
HIDDEN
  6
HIDDEN
100
AcDbLine
 10
428.1021437156806
 20
193.1105518825871
 30
0.0
 11
428.1021437156806
 21
170.1105518825871
 31
0.0
  0
LINE
  5
1E7E
330
2
100
AcDbEntity
  8
HIDDEN
  6
HIDDEN
100
AcDbLine
 10
432.6021437156806
 20
193.1105518825871
 30
0.0
 11
432.6021437156806
 21
170.1105518825871
 31
0.0
  0
LINE
  5
1E7F
330
2
100
AcDbEntity
  8
CENTER
100
AcDbLine
 10
430.3521437156806
 20
194.1105518825871
 30
0.0
 11
430.3521437156806
 21
169.1105518825871
 31
0.0
  0
ARC
  5
1EA5
330
2
100
AcDbEntity
  8
AM_4
100
AcDbCircle
 10
297.9555630018136
 20
354.3175655867382
 30
0.0
 40
3.0
100
AcDbArc
 50
260.0
 51
170.0
1001
GENIUS_GENOREF_13
1005
1E9F
  0
CIRCLE
  5
1EA7
330
2
100
AcDbEntity
  8
AM_0
100
AcDbCircle
 10
297.9555630018136
 20
354.3175655867382
 30
0.0
 40
2.45873412263477
1001
GENIUS_GENOREF_13
1005
1E9F
  0
ARC
  5
1ED3
330
2
100
AcDbEntity
  8
AM_4
100
AcDbCircle
 10
327.9555630018136
 20
229.6105518825871
 30
0.0
 40
2.5
100
AcDbArc
 50
260.0000000000013
 51
169.9999999999997
  0
ARC
  5
1ED4
330
2
100
AcDbEntity
  8
AM_4
100
AcDbCircle
 10
319.9555630018136
 20
188.8752725224371
 30
0.0
 40
2.5
100
AcDbArc
 50
260.0000000000013
 51
169.9999999999997
  0
ENDSEC
  0
SECTION
  2
OBJECTS
  0
DICTIONARY
  5
8
330
0
100
AcDbDictionary
  3
ACAD_GROUP
350
21
  3
ACAD_LAYOUT
350
C
  3
ACAD_MLINESTYLE
350
22
  3
ACAD_PLOTSETTINGS
350
23
  3
ACMDICTIONARY
350
1F4
  3
AMG
350
1DA
  3
AMGSNAPSETTINGS
350
37D
  3
ASE_INDEX_DICTIONARY
350
E58
  3
DWGPROPS
350
1F05
1001
ACAD
1000
TREAT_AS_HARD
1070
     0
  0
DICTIONARY
  5
3
330
2
100
AcDbDictionary
  3
ACAD_INDEX
350
1F08
  3
ACAD_LAYOUTSELFREF
350
1FC2
1001
ACAD
1000
TREAT_AS_HARD
1070
     1
  0
DICTIONARY
  5
1FC3
330
D
100
AcDbDictionary
  3
ACAD_LAYOUTSELFREF
350
1FC4
  0
DICTIONARY
  5
18C7
330
18BA
100
AcDbDictionary
  3
ACAD_DIMASSOC
350
18D1
1001
ACAD
1000
TREAT_AS_HARD
1070
     1
  0
DICTIONARY
  5
1978
330
196B
100
AcDbDictionary
  3
ACAD_DIMASSOC
350
1982
1001
ACAD
1000
TREAT_AS_HARD
1070
     1
  0
DICTIONARY
  5
1C0B
330
1BFE
100
AcDbDictionary
  3
ACAD_DIMASSOC
350
1C15
1001
ACAD
1000
TREAT_AS_HARD
1070
     1
  0
DICTIONARY
  5
1E18
330
1E0B
100
AcDbDictionary
  3
ACAD_DIMASSOC
350
1E22
1001
ACAD
1000
TREAT_AS_HARD
1070
     1
  0
DICTIONARY
  5
21
102
{ACAD_REACTORS
330
8
102
}
330
8
100
AcDbDictionary
1001
ACAD
1000
TREAT_AS_HARD
1070
     0
  0
DICTIONARY
  5
C
102
{ACAD_REACTORS
330
8
102
}
330
8
100
AcDbDictionary
1001
ACAD
1000
TREAT_AS_HARD
1070
     0
  0
DICTIONARY
  5
22
102
{ACAD_REACTORS
330
8
102
}
330
8
100
AcDbDictionary
  3
STANDARD
350
24
1001
ACAD
1000
TREAT_AS_HARD
1070
     0
  0
DICTIONARY
  5
23
102
{ACAD_REACTORS
330
8
102
}
330
8
100
AcDbDictionary
1001
ACAD
1000
TREAT_AS_HARD
1070
     0
  0
DICTIONARY
  5
1F4
102
{ACAD_REACTORS
330
8
102
}
330
8
100
AcDbDictionary
  3
ACMSTDDICTIONARY
350
1FA
1001
ACAD
1000
TREAT_AS_HARD
1070
     0
  0
DICTIONARY
  5
1DA
102
{ACAD_REACTORS
330
8
102
}
330
8
100
AcDbDictionary
  3
ACMGSETTINGS
350
1DB
1001
ACAD
1000
TREAT_AS_HARD
1070
     0
  0
DICTIONARY
  5
37D
102
{ACAD_REACTORS
330
8
102
}
330
8
100
AcDbDictionary
1001
ACAD
1000
TREAT_AS_HARD
1070
     0
  0
DICTIONARY
  5
E58
102
{ACAD_REACTORS
330
8
102
}
330
8
100
AcDbDictionary
  3
ASEBLOCKHIERARCHYINDEXRECORD
350
E5A
1001
DCO15
1040
1443953005.444
1001
ACAD
1000
TREAT_AS_HARD
1070
     0
  0
XRECORD
  5
1F05
102
{ACAD_REACTORS
330
8
102
}
330
8
100
AcDbXrecord
  1
DWGPROPS COOKIE
  2

  3

  4

  6

  7

  8

  9

300
AmdtFileType=84
301
=
302
=
303
=
304
=
305
=
306
=
307
=
308
=
309
=
 40
0.052640625
 41
2452794.706235081
 42
2452796.598256608
  1

 90
        1
  0
DICTIONARY
  5
1F08
102
{ACAD_REACTORS
330
3
102
}
330
3
100
AcDbDictionary
  3
*A1
350
1F09
1001
ACAD
1000
TREAT_AS_HARD
1070
     0
  0
XRECORD
  5
1FC2
102
{ACAD_REACTORS
330
3
102
}
330
3
100
AcDbXrecord
340
2
  0
XRECORD
  5
1FC4
102
{ACAD_REACTORS
330
1FC3
102
}
330
1FC3
100
AcDbXrecord
340
D
  0
DIMASSOC
  5
18D1
102
{ACAD_REACTORS
330
18C7
102
}
330
18C7
100
AcDbDimAssoc
330
18BA
 90
        3
 70
     0
 71
     0
  1
AcDbOsnapPointRef
 72
     1
331
1255
 73
     0
 91
        0
 40
0.0
 10
338.9555630018136
 20
362.3175655867382
 30
0.0
 75
     0
  1
AcDbOsnapPointRef
 72
     1
331
1254
 73
     0
 91
        0
 40
0.0
 10
338.9555630018136
 20
346.3175655867382
 30
0.0
 75
     0
  0
DIMASSOC
  5
1982
102
{ACAD_REACTORS
330
1978
102
}
330
1978
100
AcDbDimAssoc
330
196B
 90
        3
 70
     0
 71
     0
  1
AcDbOsnapPointRef
 72
     1
331
129D
 73
     0
 91
        0
 40
0.0
 10
289.9555630018136
 20
281.1105518825872
 30
0.0
 75
     0
  1
AcDbOsnapPointRef
 72
    13
331
1321
 73
     0
 91
        0
 40
0.0
 10
339.9555630018136
 20
281.1105518825872
 30
0.0
 75
     0
  0
DIMASSOC
  5
1C15
102
{ACAD_REACTORS
330
1C0B
102
}
330
1C0B
100
AcDbDimAssoc
330
1BFE
 90
        3
 70
     0
 71
     0
  1
AcDbOsnapPointRef
 72
    13
331
1323
 73
     0
 91
        0
 40
0.0
 10
339.4555630018136
 20
281.6105518825871
 30
0.0
 75
     0
  1
AcDbOsnapPointRef
 72
     1
331
12F4
 73
     0
 91
        0
 40
0.0
 10
347.4555630018136
 20
170.1105518825871
 30
0.0
 75
     0
  0
DIMASSOC
  5
1E22
102
{ACAD_REACTORS
330
1E18
102
}
330
1E18
100
AcDbDimAssoc
330
1E0B
 90
        3
 70
     0
 71
     0
  1
AcDbOsnapPointRef
 72
    13
331
132A
331
132B
 73
     0
 91
        0
 40
0.0
 10
0.0
 20
0.0
 30
0.0
 75
     0
  1
AcDbOsnapPointRef
 72
     1
331
1310
331
1315
 73
     0
 91
        0
 40
0.0
 10
0.0
 20
0.0
 30
0.0
 75
     0
  0
MLINESTYLE
  5
24
102
{ACAD_REACTORS
330
22
102
}
330
22
100
AcDbMlineStyle
  2
STANDARD
 70
     0
  3

 62
   256
 51
90.0
 52
90.0
 71
     2
 49
0.5
 62
   256
  6
BYLAYER
 49
-0.5
 62
   256
  6
BYLAYER
  0
DICTIONARY
  5
1FA
102
{ACAD_REACTORS
330
1F4
102
}
330
1F4
100
AcDbDictionary
1001
ACAD
1000
TREAT_AS_HARD
1070
     0
  0
DICTIONARY
  5
1DB
102
{ACAD_REACTORS
330
1DA
102
}
330
1DA
100
AcDbDictionary
  3
DWGSETTINGS
350
1DC
1001
ACAD
1000
TREAT_AS_HARD
1070
     0
  0
XRECORD
  5
E5A
102
{ACAD_REACTORS
330
E58
102
}
330
E58
100
AcDbXrecord
330
0
330
0
  0
LAYER_INDEX
  5
1F09
102
{ACAD_REACTORS
330
1F08
102
}
330
1F08
100
AcDbIndex
 40
2452796.636505822
100
AcDbLayerIndex
  8
0
360
1F0A
 90
       87
  8
Defpoints
360
1F0B
 90
        0
  8
AM_5
360
1F0C
 90
       21
  8
AM_PARDIM
360
1F0D
 90
       10
  8
AM_7
360
1F0E
 90
       17
  8
HIDDEN
360
1F0F
 90
       16
  8
DIM
360
1F10
 90
        4
  8
CENTER
360
1F11
 90
       16
  8
LOGO
360
1F12
 90
      110
  8
AM_0
360
1F14
 90
        1
  8
AM_4
360
1F15
 90
        3
  0
XRECORD
  5
1DC
102
{ACAD_REACTORS
330
1DB
102
}
330
1DB
100
AcDbXrecord
  1
VERSION
140
15.0
  1
PRODUCT
  2
AutoCAD Mechanical 2000
  0
IDBUFFER
  5
1F0A
330
0
100
AcDbIdBuffer
330
1322
330
1323
330
1328
330
1329
330
132A
330
132F
330
1338
330
1339
330
133A
330
133C
330
1341
330
1345
330
1346
330
1347
330
1348
330
152B
330
152C
330
152E
330
152F
330
1530
330
1531
330
1532
330
1533
330
1539
330
153A
330
153B
330
153C
330
153D
330
153E
330
153F
330
1541
330
1542
330
1546
330
1548
330
154E
330
154F
330
1551
330
1552
330
1553
330
25
330
26
330
27
330
28
330
29
330
2A
330
2B
330
2C
330
2D
330
2E
330
2F
330
30
330
1248
330
1249
330
1254
330
1255
330
1258
330
1259
330
125A
330
129B
330
129D
330
129F
330
12AA
330
12AB
330
12B7
330
12B8
330
12BA
330
12F1
330
12F2
330
12F4
330
12F5
330
12F8
330
12F9
330
12FB
330
12FC
330
12FD
330
12FE
330
1300
330
1301
330
1302
330
1303
330
1304
330
1305
330
1308
330
130E
330
1310
330
131B
330
1321
  0
IDBUFFER
  5
1F0B
330
0
100
AcDbIdBuffer
  0
IDBUFFER
  5
1F0C
330
0
100
AcDbIdBuffer
330
1BFE
330
1DD1
330
1DD3
330
1DD6
330
1E0B
330
151
330
156
330
1247
330
12B9
330
12F3
330
12FF
330
130D
330
131C
330
1324
330
132E
330
152A
330
18A0
330
18A8
330
18BA
330
1931
330
196B
  0
IDBUFFER
  5
1F0D
330
0
100
AcDbIdBuffer
330
31
330
43
330
52
330
5F
330
6C
330
79
330
86
330
95
330
A3
330
B0
  0
IDBUFFER
  5
1F0E
330
0
100
AcDbIdBuffer
330
1344
330
C8
330
1326
330
1327
330
1330
330
1331
330
1332
330
1333
330
1334
330
1335
330
133B
330
133D
330
133E
330
133F
330
1340
330
1342
330
1343
  0
IDBUFFER
  5
1F0F
330
0
100
AcDbIdBuffer
330
129C
330
131E
330
131F
330
1320
330
1919
330
191A
330
191B
330
191C
330
1E73
330
1E75
330
1E77
330
1E78
330
1E7B
330
1E7C
330
1E7D
330
1E7E
  0
IDBUFFER
  5
1F10
330
0
100
AcDbIdBuffer
330
12A0
330
12A1
330
12AC
330
12B5
  0
IDBUFFER
  5
1F11
330
0
100
AcDbIdBuffer
330
1253
330
129E
330
12B6
330
12F6
330
12FA
330
1307
330
130F
330
131D
330
1336
330
152D
330
1547
330
1918
330
1E76
330
1E79
330
1E7A
330
1E7F
  0
IDBUFFER
  5
1F12
330
0
100
AcDbIdBuffer
330
1290
330
1294
330
1298
330
1299
330
129A
330
12BB
330
12BC
330
12BD
330
12BE
330
12BF
330
12C0
330
12C1
330
12C2
330
12C3
330
12C4
330
12C5
330
12C6
330
12C7
330
12C8
330
12C9
330
12CA
330
12CB
330
12CC
330
12CD
330
12CE
330
12CF
330
12D0
330
12D1
330
12D2
330
12D3
330
12D4
330
12D5
330
12D6
330
12D7
330
12D8
330
12D9
330
12DA
330
12DB
330
12DC
330
12DD
330
12DE
330
12DF
330
12E0
330
12E1
330
12E2
330
12E3
330
12E4
330
12E5
330
12E6
330
12E7
330
12E8
330
12E9
330
12EA
330
12EB
330
12EC
330
12ED
330
12EE
330
12EF
330
12F0
330
1309
330
130A
330
130B
330
124B
330
124C
330
124D
330
124E
330
124F
330
1250
330
1251
330
1252
330
1256
330
1257
330
125B
330
125C
330
125D
330
1261
330
1262
330
1263
330
1264
330
1265
330
1266
330
1267
330
1268
330
1269
330
126A
330
126B
330
126F
330
1270
330
1271
330
1272
330
1273
330
1274
330
1275
330
1276
330
127A
330
127B
330
127C
330
127D
330
127E
330
127F
330
1280
330
1281
330
1282
330
1286
330
1287
330
1288
330
1289
330
128A
330
128E
330
128F
  0
IDBUFFER
  5
1F14
330
0
100
AcDbIdBuffer
330
1EA7
  0
IDBUFFER
  5
1F15
330
0
100
AcDbIdBuffer
330
1EA5
330
1ED3
330
1ED4
  0
ENDSEC
  0
EOF
