  0
SECTION
  2
HEADER
  9
$ACADVER
  1
AC1012
  9
$DWGCODEPAGE
  3
big5
  9
$INSBASE
 10
0.0
 20
0.0
 30
0.0
  9
$EXTMIN
 10
520.0656253025336
 20
94.21808224423433
 30
-0.0000000000000053
  9
$EXTMAX
 10
854.8155609139216
 20
416.6819764690951
 30
0.0000000000000099
  9
$LIMMIN
 10
0.0
 20
0.0
  9
$LIMMAX
 10
420.0
 20
297.0
  9
$ORTHOMODE
 70
     0
  9
$REGENMODE
 70
     1
  9
$FILLMODE
 70
     1
  9
$QTEXTMODE
 70
     0
  9
$MIRRTEXT
 70
     1
  9
$DRAGMODE
 70
     2
  9
$LTSCALE
 40
0.8
  9
$OSMODE
 70
    55
  9
$ATTMODE
 70
     1
  9
$TEXTSIZE
 40
3.0
  9
$TRACEWID
 40
1.0
  9
$TEXTSTYLE
  7
CHINA
  9
$CLAYER
  8
0
  9
$CELTYPE
  6
BYLAYER
  9
$CECOLOR
 62
   256
  9
$CELTSCALE
 40
1.0
  9
$DELOBJ
 70
     1
  9
$DISPSILH
 70
     0
  9
$DIMSCALE
 40
1.0
  9
$DIMASZ
 40
3.0
  9
$DIMEXO
 40
2.0
  9
$DIMDLI
 40
8.0
  9
$DIMRND
 40
0.0
  9
$DIMDLE
 40
0.0
  9
$DIMEXE
 40
1.5
  9
$DIMTP
 40
0.1
  9
$DIMTM
 40
0.1
  9
$DIMTXT
 40
3.0
  9
$DIMCEN
 40
0.0
  9
$DIMTSZ
 40
0.0
  9
$DIMTOL
 70
     0
  9
$DIMLIM
 70
     0
  9
$DIMTIH
 70
     0
  9
$DIMTOH
 70
     0
  9
$DIMSE1
 70
     0
  9
$DIMSE2
 70
     0
  9
$DIMTAD
 70
     1
  9
$DIMZIN
 70
     8
  9
$DIMBLK
  1

  9
$DIMASO
 70
     1
  9
$DIMSHO
 70
     1
  9
$DIMPOST
  1

  9
$DIMAPOST
  1
"
  9
$DIMALT
 70
     0
  9
$DIMALTD
 70
     2
  9
$DIMALTF
 40
0.0393701
  9
$DIMLFAC
 40
1.0
  9
$DIMTOFL
 70
     1
  9
$DIMTVP
 40
0.0
  9
$DIMTIX
 70
     0
  9
$DIMSOXD
 70
     0
  9
$DIMSAH
 70
     0
  9
$DIMBLK1
  1

  9
$DIMBLK2
  1

  9
$DIMSTYLE
  2
AM_ISO
  9
$DIMCLRD
 70
   256
  9
$DIMCLRE
 70
   256
  9
$DIMCLRT
 70
   256
  9
$DIMTFAC
 40
0.71
  9
$DIMGAP
 40
1.0
  9
$DIMJUST
 70
     0
  9
$DIMSD1
 70
     0
  9
$DIMSD2
 70
     0
  9
$DIMTOLJ
 70
     0
  9
$DIMTZIN
 70
     8
  9
$DIMALTZ
 70
     0
  9
$DIMALTTZ
 70
     0
  9
$DIMFIT
 70
     3
  9
$DIMUPT
 70
     0
  9
$DIMUNIT
 70
     2
  9
$DIMDEC
 70
     2
  9
$DIMTDEC
 70
     2
  9
$DIMALTU
 70
     2
  9
$DIMALTTD
 70
     2
  9
$DIMTXSTY
  7
CHINA
  9
$DIMAUNIT
 70
     0
  9
$LUNITS
 70
     2
  9
$LUPREC
 70
     2
  9
$SKETCHINC
 40
1.0
  9
$FILLETRAD
 40
2.5
  9
$AUNITS
 70
     0
  9
$AUPREC
 70
     0
  9
$MENU
  1
.
  9
$ELEVATION
 40
0.0
  9
$PELEVATION
 40
0.0
  9
$THICKNESS
 40
0.0
  9
$LIMCHECK
 70
     0
  9
$BLIPMODE
 70
     0
  9
$CHAMFERA
 40
1.5
  9
$CHAMFERB
 40
1.5
  9
$CHAMFERC
 40
20.0
  9
$CHAMFERD
 40
0.0
  9
$SKPOLY
 70
     0
  9
$TDCREATE
 40
2452794.706235081
  9
$TDUPDATE
 40
2452796.638036157
  9
$TDINDWG
 40
0.1418835069
  9
$TDUSRTIMER
 40
0.1418832755
  9
$USRTIMER
 70
     1
  9
$ANGBASE
 50
0.0
  9
$ANGDIR
 70
     0
  9
$PDMODE
 70
     0
  9
$PDSIZE
 40
0.0
  9
$PLINEWID
 40
0.0
  9
$COORDS
 70
     0
  9
$SPLFRAME
 70
     0
  9
$SPLINETYPE
 70
     6
  9
$SPLINESEGS
 70
     8
  9
$ATTDIA
 70
     1
  9
$ATTREQ
 70
     1
  9
$HANDLING
 70
 22529
  9
$HANDSEED
  5
2714
  9
$SURFTAB1
 70
     6
  9
$SURFTAB2
 70
     6
  9
$SURFTYPE
 70
     6
  9
$SURFU
 70
     6
  9
$SURFV
 70
     6
  9
$UCSNAME
  2

  9
$UCSORG
 10
0.0
 20
0.0
 30
0.0
  9
$UCSXDIR
 10
1.0
 20
0.0
 30
0.0
  9
$UCSYDIR
 10
0.0
 20
1.0
 30
0.0
  9
$PUCSNAME
  2

  9
$PUCSORG
 10
0.0
 20
0.0
 30
0.0
  9
$PUCSXDIR
 10
1.0
 20
0.0
 30
0.0
  9
$PUCSYDIR
 10
0.0
 20
1.0
 30
0.0
  9
$USERI1
 70
     0
  9
$USERI2
 70
     0
  9
$USERI3
 70
     0
  9
$USERI4
 70
     0
  9
$USERI5
 70
     0
  9
$USERR1
 40
0.0
  9
$USERR2
 40
0.0
  9
$USERR3
 40
0.0
  9
$USERR4
 40
0.0
  9
$USERR5
 40
0.0
  9
$WORLDVIEW
 70
     1
  9
$SHADEDGE
 70
     3
  9
$SHADEDIF
 70
    70
  9
$TILEMODE
 70
     1
  9
$MAXACTVP
 70
    64
  9
$PINSBASE
 10
0.0
 20
0.0
 30
0.0
  9
$PLIMCHECK
 70
     0
  9
$PEXTMIN
 10
26.80208481208632
 20
60.62932117531272
 30
-0.0000000000000153
  9
$PEXTMAX
 10
155.7606180029583
 20
204.4099130529699
 30
0.0
  9
$PLIMMIN
 10
-3.757083177566528
 20
-14.7637300491333
  9
$PLIMMAX
 10
206.2162444591522
 20
282.2045927047729
  9
$UNITMODE
 70
     0
  9
$VISRETAIN
 70
     1
  9
$PLINEGEN
 70
     0
  9
$PSLTSCALE
 70
     1
  9
$TREEDEPTH
 70
  3020
  9
$PICKSTYLE
 70
     0
  9
$CMLSTYLE
  2
STANDARD
  9
$CMLJUST
 70
     0
  9
$CMLSCALE
 40
20.0
  9
$SAVEIMAGES
 70
     1
  0
ENDSEC
  0
SECTION
  2
CLASSES
  0
CLASS
  1
ACDBDICTIONARYWDFLT
  2
AcDbDictionaryWithDefault
  3
AutoCAD 2000
 90
    32768
280
     0
281
     0
  0
CLASS
  1
ACDBPLACEHOLDER
  2
AcDbPlaceHolder
  3
AutoCAD 2000
 90
    32768
280
     0
281
     0
  0
CLASS
  1
LAYOUT
  2
AcDbLayout
  3
AutoCAD 2000
 90
    32768
280
     0
281
     0
  0
CLASS
  1
AMGSETTINGSOBJ
  2
AmgSettingsObj
  3
"AcadM|Product Description: AutoCAD Mechanical 2000|Company: Autodesk"
 90
    32768
280
     0
281
     0
  0
CLASS
  1
ACME_DOCUMENT
  2
AcMeDbDoc
  3
AcMeServices
 90
    32768
280
     0
281
     0
  0
CLASS
  1
ACMESCOPE
  2
AcMeScope
  3
AcMeServices
 90
    32768
280
     0
281
     0
  0
CLASS
  1
ACMECOMMANDHISTORY
  2
AcMeCommandHistory
  3
AcMeServices
 90
    32768
280
     0
281
     0
  0
CLASS
  1
ACIMSYSVARMAN
  2
AcImSysVarManager
  3
AcMeServices
 90
    32768
280
     0
281
     0
  0
CLASS
  1
ACIMREALSYSVAR
  2
AcImRealSysVar
  3
AcMeServices
 90
    32768
280
     0
281
     0
  0
CLASS
  1
ACIMINTSYSVAR
  2
AcImIntSysVar
  3
AcMeServices
 90
    32768
280
     0
281
     0
  0
CLASS
  1
ACMEDRAWINGMAN
  2
AcMeDrawingMan
  3
AcMeServices
 90
    32768
280
     0
281
     0
  0
CLASS
  1
ACMEVIEW
  2
AcMeView
  3
AcMeServices
 90
    32768
280
     0
281
     0
  0
CLASS
  1
ACDBENTITYCACHE
  2
AcMeEntityCache
  3
AcMeServices
 90
    32768
280
     0
281
     0
  0
CLASS
  1
GSMANAGER
  2
AcMeGSManager
  3
AcMeServices
 90
    32768
280
     0
281
     0
  0
CLASS
  1
AMDTINTERNALREACTOR
  2
AmdtInternalReactor
  3
AcMeServices
 90
    32768
280
     0
281
     0
  0
CLASS
  1
ACMESTATEMGR
  2
AcMeStateMgr
  3
AcMeServices
 90
    32768
280
     0
281
     0
  0
CLASS
  1
ACGREFMASTER
  2
AcGrefMaster
  3
AcAttribServices
 90
    32768
280
     0
281
     0
  0
CLASS
  1
AM_DRAWING_MGR
  2
AcDmDwgMgr
  3
AcMechDwgViewMgmt
 90
    32768
280
     0
281
     0
  0
CLASS
  1
AM_DWG_DOCUMENT
  2
AcDmDwgDocument
  3
AcMechDwgViewMgmt
 90
    32768
280
     0
281
     0
  0
CLASS
  1
AM_DWG_SHEET
  2
AcDmSheet
  3
AcMechDwgViewMgmt
 90
    32768
280
     0
281
     0
  0
CLASS
  1
AM_VIEWDIMPARMAP
  2
AcDmViewDimParMap
  3
AcMechDwgViewMgmt
 90
    32768
280
     0
281
     0
  0
CLASS
  1
AM_DWGMGR_NAME
  2
AcDmDwgMgrName
  3
AcMechDwgViewMgmt
 90
    32768
280
     0
281
     0
  0
CLASS
  1
ACME_DATABASE
  2
AcMeDbDatabase
  3
AcMeServices
 90
    32768
280
     0
281
     0
  0
CLASS
  1
ACRFINSADJUSTERMGR
  2
AcRfInsAdjusterMgr
  3
AcMeServices
 90
    32768
280
     0
281
     0
  0
CLASS
  1
ACGREFACADMASTER
  2
AcGrefacadMaster
  3
AcGrefServices
 90
    32768
280
     0
281
     0
  0
CLASS
  1
AMDTMENUSTATEMGR
  2
AmdtMenuStateMgr
  3
McadcomServices
 90
    32768
280
     0
281
     0
  0
CLASS
  1
AMDTMCOMMENUSTATE
  2
AmdtMcomMenuState
  3
McadcomServices
 90
    32768
280
     0
281
     0
  0
CLASS
  1
AMIMASTER
  2
AmiMaster
  3
AmiServices
 90
    32768
280
     0
281
     0
  0
CLASS
  1
ASAPP
  2
AcAsAppObject
  3
AutoSurfServices
 90
    32768
280
     0
281
     0
  0
CLASS
  1
IM_STATIC_MAN
  2
AcImStaticVarManager
  3
AcMeServices
 90
    32768
280
     0
281
     0
  0
CLASS
  1
ACIMSTRSYSVAR
  2
AcImStrSysVar
  3
AcMeServices
 90
    32768
280
     0
281
     0
  0
CLASS
  1
ACIMDBLSTATICVAR
  2
AcImDblStaticVar
  3
AcMeServices
 90
    32768
280
     0
281
     0
  0
CLASS
  1
ACIMSTRSTATICVAR
  2
AcImStrStaticVar
  3
AcMeServices
 90
    32768
280
     0
281
     0
  0
CLASS
  1
ACIMINTSTATICVAR
  2
AcImIntStaticVar
  3
AcMeServices
 90
    32768
280
     0
281
     0
  0
CLASS
  1
ACASGREFMASTER
  2
AcAsGrefMaster
  3
AutoSurfResolverServices
 90
    32768
280
     0
281
     0
  0
CLASS
  1
ACADGREFMODULE
  2
AcAdGrefModule
  3
AdGrefServices
 90
    32768
280
     0
281
     0
  0
CLASS
  1
AMDTMAPISURFMOUDULE
  2
AmdtMApiSurfModule
  3
MApiSurfServices
 90
    32768
280
     0
281
     0
  0
CLASS
  1
MAPIAMMOUDLE
  2
MApiAmModule
  3
MApiAmServices
 90
    32768
280
     0
281
     0
  0
CLASS
  1
AMDTADMENUSTATE
  2
AmdtAdMenuState
  3
DesignerServices
 90
    32768
280
     0
281
     0
  0
CLASS
  1
ADAPPL
  2
AcAdAppl
  3
DesignerServices
 90
    32768
280
     0
281
     0
  0
CLASS
  1
DEPMGR
  2
AcAdDepMgr
  3
DesignerServices
 90
    32768
280
     0
281
     0
  0
CLASS
  1
PARAMMGR
  2
AcAdParamMgr
  3
DesignerServices
 90
    32768
280
     0
281
     0
  0
CLASS
  1
PARAMSCOPE
  2
AcAdParamScope
  3
DesignerServices
 90
    32768
280
     0
281
     0
  0
CLASS
  1
NAMEDAPPL
  2
AcAdNamedAppl
  3
DesignerServices
 90
    32768
280
     0
281
     0
  0
CLASS
  1
AMDTDMMENUSTATE
  2
AmdtDmMenuState
  3
AcMechDwgViewMgmt
 90
    32768
280
     0
281
     0
  0
CLASS
  1
MAPIADMODULE
  2
MApiAdModule
  3
MApiAdServices
 90
    32768
280
     0
281
     0
  0
CLASS
  1
AMDTAMMENUSTATE
  2
AmdtAmMenuState
  3
DesignerAssemblies
 90
    32768
280
     0
281
     0
  0
CLASS
  1
ACAMPROJECT
  2
AcAmProject
  3
DesignerAssemblies
 90
    32768
280
     0
281
     0
  0
CLASS
  1
ACAMCOMPDEFMGR
  2
AcAmCompDefMgr
  3
DesignerAssemblies
 90
    32768
280
     0
281
     0
  0
CLASS
  1
AMCONTEXTMGR
  2
AcAmContextMgr
  3
DesignerAssemblies
 90
    32768
280
     0
281
     0
  0
CLASS
  1
ACAMCONTEXTPARTMODELER
  2
AcAmContextPartModeler
  3
DesignerAssemblies
 90
    32768
280
     0
281
     0
  0
CLASS
  1
ACMDATADICTIONARY
  2
AcmDataDictionary
  3
"AcmSymBB|Product Description: AutoCAD Mechanical 2000|Company: Autodesk"
 90
    32768
280
     0
281
     0
  0
CLASS
  1
ACMDATAENTRYBLOCK
  2
AcmDataEntryBlock
  3
"AcmSymBB|Product Description: AutoCAD Mechanical 2000|Company: Autodesk"
 90
    32768
280
     0
281
     0
  0
CLASS
  1
ACMSTANDARDISO
  2
AcmStandardISO
  3
"Amdt_StdImp|Product Description: AutoCAD Mechanical 2000|Company: Autodesk"
 90
    32768
280
     0
281
     0
  0
CLASS
  1
AMGOBJPROPCFG
  2
AmgObjPropCfg
  3
"AmgLay|Product Description: AutoCAD Mechanical 2000|Company: Autodesk"
 90
    32769
280
     0
281
     0
  0
CLASS
  1
AMDTEDGESTANDARDISO
  2
AmdtEdgeStdISO
  3
"Amdt_StdImp|Product Description: AutoCAD Mechanical 2000|Company: Autodesk"
 90
    32768
280
     0
281
     0
  0
CLASS
  1
ACMSURFSTANDARDISO
  2
AcmSurfTextStdISO
  3
"Amdt_StdImp|Product Description: AutoCAD Mechanical 2000|Company: Autodesk"
 90
    32768
280
     0
281
     0
  0
CLASS
  1
ACMFCFSTANDARDISO
  2
AcmFCFStdISO
  3
"Amdt_StdImp|Product Description: AutoCAD Mechanical 2000|Company: Autodesk"
 90
    32768
280
     0
281
     0
  0
CLASS
  1
ACMWELDSTANDARDISO
  2
AcmWeldingStdISO
  3
"Amdt_StdImp|Product Description: AutoCAD Mechanical 2000|Company: Autodesk"
 90
    32768
280
     0
281
     0
  0
CLASS
  1
ACMIDSTANDARDISO
  2
AcmIdStdISO
  3
"Amdt_StdImp|Product Description: AutoCAD Mechanical 2000|Company: Autodesk"
 90
    32768
280
     0
281
     0
  0
CLASS
  1
ACMDATUMSTANDARDISO
  2
AcmDatumStdISO
  3
"Amdt_StdImp|Product Description: AutoCAD Mechanical 2000|Company: Autodesk"
 90
    32768
280
     0
281
     0
  0
CLASS
  1
ACMBOMSTANDARDISO
  2
AcmBOMStdISO
  3
"Amdt_StdImp|Product Description: AutoCAD Mechanical 2000|Company: Autodesk"
 90
    32768
280
     0
281
     0
  0
CLASS
  1
ACMDETAILSTANDARDISO
  2
AmdtDetailSymStdISO
  3
"Amdt_StdImp|Product Description: AutoCAD Mechanical 2000|Company: Autodesk"
 90
    32768
280
     0
281
     0
  0
CLASS
  1
ACMSECTIONSTANDARDISO
  2
AmdtSectionSymStdISO
  3
"Amdt_StdImp|Product Description: AutoCAD Mechanical 2000|Company: Autodesk"
 90
    32768
280
     0
281
     0
  0
CLASS
  1
ACMCENTERLINESTANDARDISO
  2
AmdtCenterLineStdISO
  3
"Amdt_StdImp|Product Description: AutoCAD Mechanical 2000|Company: Autodesk"
 90
    32768
280
     0
281
     0
  0
CLASS
  1
ACMTHREADLINESTANDARDISO
  2
AmdtThreadLineStdISO
  3
"Amdt_StdImp|Product Description: AutoCAD Mechanical 2000|Company: Autodesk"
 90
    32768
280
     0
281
     0
  0
CLASS
  1
ACMNOTESTANDARDISO
  2
AmdtNoteStdISO
  3
"Amdt_StdImp|Product Description: AutoCAD Mechanical 2000|Company: Autodesk"
 90
    32768
280
     0
281
     0
  0
CLASS
  1
ACAMGLAYSTD
  2
AcAmgLayStd
  3
"AcAmgLayStd|Product Description: AutoCAD Mechanical 2000|Company: Autodesk"
 90
    32768
280
     0
281
     0
  0
CLASS
  1
ACAMGDIMSTD
  2
AcAmgDimStd
  3
"AcAmgDimStd|Product Description: AutoCAD Mechanical 2000|Company: Autodesk"
 90
    32768
280
     0
281
     0
  0
CLASS
  1
ACAMGHOLECHARTSTDISO
  2
AcAmgHoleChartStdISO
  3
ACMSYMBB_MODULE_NAME
 90
    32768
280
     0
281
     0
  0
CLASS
  1
ACAMGTITLESTD
  2
AcAmgTitleStd
  3
"TITLEAPP"
 90
    32768
280
     0
281
     0
  0
CLASS
  1
CATALOGSTATE
  2
AcAmCatalogState
  3
DesignerAssemblies
 90
    32768
280
     0
281
     0
  0
CLASS
  1
ACAMGRCOMPDEFSET
  2
AcAmGrCompDefSet
  3
DesignerAssemblies
 90
    32768
280
     0
281
     0
  0
CLASS
  1
AMDTBROWSERDBTAB
  2
AmdtBrowserDbTab
  3
McadcomServices
 90
    32768
280
     0
281
     0
  0
CLASS
  1
CBROWSERAPPOBJECT
  2
CBrowserAppObject
  3
McadcomServices
 90
    32768
280
     0
281
     0
  0
CLASS
  1
DM_PLACEHOLDER
  2
AcDmSelsetPlaceholder
  3
AcMechDwgViewMgmt
 90
    32768
280
     0
281
     0
  0
CLASS
  1
ACAMGFILTERDAT
  2
AcAmgFilterDat
  3
"AcadM|Product Description: AutoCAD Mechanical 2000|Company: Autodesk"
 90
    32768
280
     0
281
     0
  0
CLASS
  1
LAYER_INDEX
  2
AcDbLayerIndex
  3
AutoCAD 2000
 90
    32768
280
     0
281
     0
  0
CLASS
  1
IDBUFFER
  2
AcDbIdBuffer
  3
AutoCAD 2000
 90
    32768
280
     0
281
     0
  0
CLASS
  1
DICTIONARYVAR
  2
AcDbDictionaryVar
  3
AutoCAD 2000
 90
    32768
280
     0
281
     0
  0
CLASS
  1
ACAMGRCOMPDEF
  2
AcAmGrCompDef
  3
DesignerAssemblies
 90
    32768
280
     0
281
     0
  0
CLASS
  1
ACCMCONTEXT
  2
AcCmContext
  3
DesignerAssemblies
 90
    32768
280
     0
281
     0
  0
CLASS
  1
ACAMCOMPDEF
  2
AcAmCompDef
  3
DesignerAssemblies
 90
    32768
280
     0
281
     0
  0
CLASS
  1
ADPART
  2
AcAdPart
  3
DesignerServices
 90
    32768
280
     0
281
     1
  0
CLASS
  1
ADBASE
  2
AcAdBase
  3
DesignerServices
 90
    32768
280
     0
281
     0
  0
CLASS
  1
BODYID
  2
AcAdBodyId
  3
DesignerServices
 90
    32768
280
     0
281
     0
  0
CLASS
  1
WORKPLANEDISPLAYMGR
  2
AcAdDisplayMgr
  3
DesignerServices
 90
    32768
280
     0
281
     0
  0
CLASS
  1
ACCMBODY
  2
AcCmBody
  3
DesignerAssemblies
 90
    32768
280
     0
281
     0
  0
CLASS
  1
ACAMCOMPENT
  2
AcAmCompEnt
  3
DesignerAssemblies
 90
    32768
280
     0
281
     1
  0
CLASS
  1
ACAMCOMPFEEDBACK
  2
AcAmCompFeedback
  3
DesignerAssemblies
 90
    32768
280
     0
281
     0
  0
CLASS
  1
ACAMGROUNDEDBASECOMP
  2
AcAmGroundedBaseComp
  3
DesignerAssemblies
 90
    32768
280
     0
281
     0
  0
CLASS
  1
ACAMCOMPENTCLONE
  2
AcAmCompEntClone
  3
DesignerAssemblies
 90
    32768
280
     0
281
     1
  0
CLASS
  1
ACAMCLONEREACTOR
  2
AcAmGrCompCloneReactor
  3
DesignerAssemblies
 90
    32768
280
     0
281
     0
  0
CLASS
  1
ADDATUMPLANEABS
  2
AcAdDatumPlaneAbs
  3
DesignerServices
 90
    32768
280
     0
281
     0
  0
CLASS
  1
ADDATUMAXISABS
  2
AcAdDatumAxisAbs
  3
DesignerServices
 90
    32768
280
     0
281
     0
  0
CLASS
  1
ADDATUMORIENTEDPLANE
  2
AcAdDatumOrientedPlane
  3
DesignerServices
 90
    32768
280
     0
281
     0
  0
CLASS
  1
ACAD_LINE
  2
AcAdLine
  3
DesignerServices
 90
    32768
280
     0
281
     1
  0
CLASS
  1
ACADLINEACAD
  2
AcAdVirtualBoundedLineAcad
  3
DesignerServices
 90
    32768
280
     0
281
     0
  0
CLASS
  1
ACADREFLINEACAD
  2
AcAdVirtualReferenceLine
  3
DesignerServices
 90
    32768
280
     0
281
     0
  0
CLASS
  1
ACADCONSLINE
  2
AcAdConstrainedLine
  3
DesignerServices
 90
    32768
280
     0
281
     0
  0
CLASS
  1
ACADCONSGROUP
  2
AcAdConstraintGroup
  3
DesignerServices
 90
    32768
280
     0
281
     0
  0
CLASS
  1
ACADIMPPTACAD
  2
AcAdVirtualImplicitPoint
  3
DesignerServices
 90
    32768
280
     0
281
     0
  0
CLASS
  1
ACADCONSPOINT
  2
AcAdConstrainedPoint
  3
DesignerServices
 90
    32768
280
     0
281
     0
  0
CLASS
  1
ADPCURCNS
  2
AcAdPointCurveConstr
  3
DesignerServices
 90
    32768
280
     0
281
     0
  0
CLASS
  1
ADVERCNS
  2
AcAdVerticalConstr
  3
DesignerServices
 90
    32768
280
     0
281
     0
  0
CLASS
  1
ADHORCNS
  2
AcAdHorizontalConstr
  3
DesignerServices
 90
    32768
280
     0
281
     0
  0
CLASS
  1
ADCLPROF2D
  2
AcAdClosedProfile2d
  3
DesignerServices
 90
    32768
280
     0
281
     0
  0
CLASS
  1
ACAD_FIXCONSTRAINT
  2
AcAdFixedConstraint
  3
DesignerServices
 90
    32768
280
     0
281
     0
  0
CLASS
  1
AMDTFORMULAUPDATEDISPATCHER
  2
AmdtFormulaUpdateDispatcher
  3
AcMeServices
 90
    32768
280
     0
281
     0
  0
CLASS
  1
ADCONSDISP
  2
AcAdConstraintDisplay
  3
DesignerServices
 90
    32768
280
     0
281
     1
  0
CLASS
  1
ADCONSTDSP
  2
AcAdConstraintDisplayTag
  3
DesignerServices
 90
    32768
280
     0
281
     1
  0
CLASS
  1
PARAM
  2
AcAdParam
  3
DesignerServices
 90
    32768
280
     0
281
     0
  0
CLASS
  1
ADVDISTCNS
  2
AcAdVerticalDistanceConstr
  3
DesignerServices
 90
    32768
280
     0
281
     0
  0
CLASS
  1
ADHDISTCNS
  2
AcAdHorizontalDistanceConstr
  3
DesignerServices
 90
    32768
280
     0
281
     0
  0
CLASS
  1
ACMEROTATIONARROW
  2
AcImRotationArrowDisplay
  3
AcMeServices
 90
    32768
280
     0
281
     1
  0
CLASS
  1
ACADVOLFEATWITHTRIM
  2
AcAdVolFeatWithTrim
  3
DesignerServices
 90
    32768
280
     0
281
     0
  0
CLASS
  1
DEPEDGEFEATUREORDERING
  2
AcAdDepEdgeFeatureOrdering
  3
DesignerServices
 90
    32768
280
     0
281
     0
  0
CLASS
  1
DATUMAXISDISPLAY
  2
AcAdDatumAxisDisplay
  3
DesignerServices
 90
    32768
280
     0
281
     1
  0
CLASS
  1
ADDATUMAXISCENTER
  2
AcAdDatumAxisCenter
  3
DesignerServices
 90
    32768
280
     0
281
     0
  0
CLASS
  1
ADPLANEID
  2
AcAdSurfGeomId
  3
DesignerServices
 90
    32768
280
     0
281
     0
  0
CLASS
  1
ACMEPOINT
  2
AcImPointDisplay
  3
AcMeServices
 90
    32768
280
     0
281
     1
  0
CLASS
  1
ADPLANEID
  2
AcAdPlaneId
  3
DesignerServices
 90
    32768
280
     0
281
     0
  0
CLASS
  1
ADDATUMPLANEFACE
  2
AcAdDatumPlaneFace
  3
DesignerServices
 90
    32768
280
     0
281
     0
  0
CLASS
  1
ADDATUMPOINTAXISPLANE
  2
AcAdDatumPointAxisPlane
  3
DesignerServices
 90
    32768
280
     0
281
     0
  0
CLASS
  1
ADHOLEFEAT
  2
AcAdHoleFeat
  3
DesignerServices
 90
    32768
280
     0
281
     0
  0
CLASS
  1
CIRREFID
  2
AcAdCircleRefId
  3
DesignerServices
 90
    32768
280
     0
281
     0
  0
CLASS
  1
ACADCIRCDEPID
  2
AcAdVirtualCircleDepId
  3
DesignerServices
 90
    32768
280
     0
281
     0
  0
CLASS
  1
ACADCONSCIRCLE
  2
AcAdConstrainedCircle
  3
DesignerServices
 90
    32768
280
     0
281
     0
  0
CLASS
  1
ADCTRPTCNS
  2
AcAdCenterPointConstr
  3
DesignerServices
 90
    32768
280
     0
281
     0
  0
CLASS
  1
AMDT_ALIGNED_DIM
  2
AmdtAlignedDimension
  3
AcMeServices
 90
    32768
280
     0
281
     1
  0
CLASS
  1
ACADBOUNDEDLINEDATUMID
  2
AcAdVirtualBoundedLineDatumId
  3
DesignerServices
 90
    32768
280
     0
281
     0
  0
CLASS
  1
AMDT_ORDINATE_DIM
  2
AmdtOrdinateDimension
  3
AcMeServices
 90
    32768
280
     0
281
     1
  0
CLASS
  1
EDGEID
  2
AcAdEdgeId
  3
DesignerServices
 90
    32768
280
     0
281
     0
  0
CLASS
  1
ADFILLET
  2
AcAdFillet
  3
DesignerServices
 90
    32768
280
     0
281
     0
  0
CLASS
  1
DATUMPLANEDISPLAY
  2
AcAdDatumPlaneDisplay
  3
DesignerServices
 90
    32768
280
     0
281
     1
  0
CLASS
  1
ADDATUMPLANEAXISPLANE
  2
AcAdDatumPlaneAxisPlane
  3
DesignerServices
 90
    32768
280
     0
281
     0
  0
CLASS
  1
ACMEPLINE
  2
AcImPlineDisplay
  3
AcMeServices
 90
    32768
280
     0
281
     1
  0
CLASS
  1
ACMELINEARARROW
  2
AcImLinearArrowDisplay
  3
AcMeServices
 90
    32768
280
     0
281
     1
  0
CLASS
  1
ACMETEXT
  2
AcImTextDisplay
  3
AcMeServices
 90
    32768
280
     0
281
     1
  0
CLASS
  1
ADDATUMPLANEOFFSET
  2
AcAdDatumPlaneOffset
  3
DesignerServices
 90
    32768
280
     0
281
     0
  0
CLASS
  1
ADCOLNCNS
  2
AcAdColinearConstr
  3
DesignerServices
 90
    32768
280
     0
281
     0
  0
CLASS
  1
STREFID
  2
AcAdStraightRefId
  3
DesignerServices
 90
    32768
280
     0
281
     0
  0
CLASS
  1
ACADLINEDEPID
  2
AcAdVirtualLineDepId
  3
DesignerServices
 90
    32768
280
     0
281
     0
  0
CLASS
  1
ADFEATUREDISPLAY
  2
AcImFeatureDisplay
  3
ACME_MODULE_NAME
 90
    32768
280
     0
281
     1
  0
CLASS
  1
ACMEAXIS
  2
AcImAxisDisplay
  3
AcMeServices
 90
    32768
280
     0
281
     1
  0
CLASS
  1
DEPEDGEPATTERNFEATURE
  2
AcAdDepEdgePatternFeature
  3
DesignerServices
 90
    32768
280
     0
281
     0
  0
CLASS
  1
ACADPATTNFEAT
  2
AcAdPatternFeat
  3
DesignerServices
 90
    32768
280
     0
281
     0
  0
CLASS
  1
ACADORDORIGPT
  2
AcAdOrdinateOriginPoint
  3
DesignerServices
 90
    32768
280
     0
281
     0
  0
CLASS
  1
ADORDBASECNS
  2
AcAdOrdinateBaseConstr
  3
DesignerServices
 90
    32768
280
     0
281
     0
  0
CLASS
  1
DEPEDGESECONDARYDEPID
  2
AcAdDepEdgeSecondaryDepId
  3
DesignerServices
 90
    32768
280
     0
281
     0
  0
CLASS
  1
DEPEDGEPATTERNINSTANCE
  2
AcAdDepEdgePatternInstance
  3
DesignerServices
 90
    32768
280
     0
281
     0
  0
CLASS
  1
AM_VIEW_SELECT_FILTER
  2
AcDmActivePartViewEntFilter
  3
DesignerServices
 90
    32768
280
     0
281
     0
  0
CLASS
  1
AM_ABS_PLANE
  2
AcDmAbsPlnDef
  3
AcMechDwgViewMgmt
 90
    32768
280
     0
281
     0
  0
CLASS
  1
AM_ABS_AXIS
  2
AcDmAbsAxisDef
  3
AcMechDwgViewMgmt
 90
    32768
280
     0
281
     0
  0
CLASS
  1
AM_BASE_VIEW_ORIENT
  2
AcDmBaseViewOr
  3
AcMechDwgViewMgmt
 90
    32768
280
     0
281
     0
  0
CLASS
  1
AM_DWG_VIEWPORT
  2
AcDmViewport
  3
AcMechDwgViewMgmt
 90
    32768
280
     0
281
     0
  0
CLASS
  1
AM_VIEW_DISPLAY
  2
AcDmDwgViewDisplay
  3
AcMechDwgViewMgmt
 90
    32768
280
     0
281
     0
  0
CLASS
  1
AM_CLDFLTS
  2
AcDmClDflts
  3
AcMechDwgViewMgmt
 90
    32768
280
     0
281
     0
  0
CLASS
  1
AM_BASE_VIEW
  2
AcDmBaseView
  3
AcMechDwgViewMgmt
 90
    32768
280
     0
281
     0
  0
CLASS
  1
AM_ISO_VIEW_ORIENT
  2
AcDmIsoViewOr
  3
AcMechDwgViewMgmt
 90
    32768
280
     0
281
     0
  0
CLASS
  1
AM_ISO_VIEW
  2
AcDmIsoView
  3
AcMechDwgViewMgmt
 90
    32768
280
     0
281
     0
  0
CLASS
  1
AM_ORTHO_VIEW_ORIENT
  2
AcDmOrthoViewOr
  3
AcMechDwgViewMgmt
 90
    32768
280
     0
281
     0
  0
CLASS
  1
AM_ORTHO_VIEW
  2
AcDmOrthoView
  3
AcMechDwgViewMgmt
 90
    32768
280
     0
281
     0
  0
CLASS
  1
ACDMPARTVIEWDATA
  2
AcDmPartViewData
  3
AcMechDwgViewMgmt
 90
    32768
280
     0
281
     0
  0
CLASS
  1
ACDMDISPLAYATTRIBS
  2
AcDmDisplayAttribs
  3
AcMechDwgViewMgmt
 90
    32768
280
     0
281
     0
  0
CLASS
  1
ACDMBODYINSTANCEDATA
  2
AcDmBodyInstanceData
  3
AcMechDwgViewMgmt
 90
    32768
280
     0
281
     0
  0
CLASS
  1
ACDMVWEDLINE
  2
AcDmViewEdgeLine
  3
AcMechDwgViewMgmt
 90
    32768
280
     0
281
     1
  0
CLASS
  1
ACDMVWEDARC
  2
AcDmViewEdgeArc
  3
AcMechDwgViewMgmt
 90
    32768
280
     0
281
     1
  0
CLASS
  1
ACADSKETCHPOINTRES
  2
AcAdSketchPointRes
  3
DesignerServices
 90
    32768
280
     0
281
     0
  0
CLASS
  1
AM_VIEWDIMLINEAR
  2
AcDmViewDimLinear
  3
AcMechDwgViewMgmt
 90
    32768
280
     0
281
     0
  0
CLASS
  1
AMDTDMPARMAPDATA
  2
AmdtDmDimParMapData
  3
AcMechDwgViewMgmt
 90
    32768
280
     0
281
     0
  0
CLASS
  1
AM_ADLINCTRLINE
  2
AcAdLineCl
  3
DesignerServices
 90
    32768
280
     0
281
     0
  0
CLASS
  1
ACDMVWEDCIRC
  2
AcDmViewEdgeCircle
  3
AcMechDwgViewMgmt
 90
    32768
280
     0
281
     1
  0
CLASS
  1
AM_ADCIRCTRLINE
  2
AcAdBullsEyeCl
  3
DesignerServices
 90
    32768
280
     0
281
     0
  0
CLASS
  1
AD_CIRCTAPH
  2
AcAdTapHoleCircDisp
  3
DesignerServices
 90
    32768
280
     0
281
     0
  0
CLASS
  1
ACDMVIEWGEOM
  2
AcDmViewGeometry
  3
AcMechDwgViewMgmt
 90
    32768
280
     0
281
     1
  0
CLASS
  1
FACEID
  2
AcAdFaceId
  3
DesignerServices
 90
    32768
280
     0
281
     0
  0
CLASS
  1
ACADPARTPLANARFACERES
  2
AcAdPartPlanarFaceRes
  3
AdGrefServices
 90
    32768
280
     0
281
     0
  0
CLASS
  1
AM_GREF_PLANE
  2
AcDmGrefPlnDef
  3
AcMechDwgViewMgmt
 90
    32768
280
     0
281
     0
  0
CLASS
  1
ACADPARTLINEDGRES
  2
AcAdPartLinEdgRes
  3
AdGrefServices
 90
    32768
280
     0
281
     0
  0
CLASS
  1
AM_GREF_AXIS
  2
AcDmGrefAxisDef
  3
AcMechDwgViewMgmt
 90
    32768
280
     0
281
     0
  0
CLASS
  1
AMDTEXTERNALTHREAD
  2
AmdtExternalThreadFeat
  3
DesignerServices
 90
    32768
280
     0
281
     0
  0
CLASS
  1
THREADDISPLAY
  2
AcAdThreadDisplay
  3
DesignerServices
 90
    32768
280
     0
281
     1
  0
CLASS
  1
AD_LINETAPH
  2
AcAdTapHoleLineDisp
  3
DesignerServices
 90
    32768
280
     0
281
     0
  0
CLASS
  1
ADRADDISP
  2
AcAdRadiusDisplay
  3
DesignerServices
 90
    32768
280
     0
281
     1
  0
CLASS
  1
ACDBLINERES
  2
AcDbLineRes
  3
AcGrefServices
 90
    32768
280
     0
281
     0
  0
CLASS
  1
ACADPARTCONICALFACERES
  2
AcAdPartConicalFaceRes
  3
AdGrefServices
 90
    32768
280
     0
281
     0
  0
CLASS
  1
ACDMGREFEDIT
  2
AcDmViewEntityGeomrefEdit
  3
AcMechDwgViewMgmt
 90
    32768
280
     0
281
     0
  0
CLASS
  1
ACDMVIEWLINEDGERES
  2
AcDmViewLinEdgeRes
  3
AcMechDwgViewMgmt
 90
    32768
280
     0
281
     0
  0
CLASS
  1
SILEDGEID
  2
AcAdSilhouetteEdgeId
  3
DesignerServices
 90
    32768
280
     0
281
     0
  0
CLASS
  1
ACADPARTCYLINDERFACERES
  2
AcAdPartCylinderFaceRes
  3
AdGrefServices
 90
    32768
280
     0
281
     0
  0
CLASS
  1
CNRREFID
  2
AcAdCornerId
  3
DesignerServices
 90
    32768
280
     0
281
     0
  0
CLASS
  1
ACADPARTPOINTRES
  2
AcAdPartPointRes
  3
AdGrefServices
 90
    32768
280
     0
281
     0
  0
CLASS
  1
ACADPARTCIRCEDGRES
  2
AcAdPartCircEdgRes
  3
AdGrefServices
 90
    32768
280
     0
281
     0
  0
CLASS
  1
ACRFDMINSADJ
  2
AcRfDMInsAdjuster
  3
AcMechDwgViewMgmt
 90
    32768
280
     0
281
     0
  0
CLASS
  1
AM_VIEWDIMRADIUS
  2
AcDmViewDimRadius
  3
AcMechDwgViewMgmt
 90
    32768
280
     0
281
     0
  0
CLASS
  1
ACADPARTDATUMPLANERES
  2
AcAdPartDatumPlaneRes
  3
AdGrefServices
 90
    32768
280
     0
281
     0
  0
CLASS
  1
AM_FULLPLANESECTION
  2
AcDmFullPlaneSection
  3
AcMechDwgViewMgmt
 90
    32768
280
     0
281
     0
  0
CLASS
  1
AMDTSECTIONSYM
  2
AmdtSectionSym
  3
"AcmSymBB|Product Description: AutoCAD Mechanical 2000|Company: Autodesk"
 90
    33791
280
     0
281
     1
  0
CLASS
  1
AM_VWNOTEADAPTER
  2
AcDmViewAnnotAdapter
  3
AcMechDwgViewMgmt
 90
    32768
280
     0
281
     0
  0
CLASS
  1
AMDTSECTIONSYMLABEL
  2
AmdtSectionSymLabel
  3
"AcmSymBB|Product Description: AutoCAD Mechanical 2000|Company: Autodesk"
 90
    33791
280
     0
281
     1
  0
CLASS
  1
AMDTNOTE
  2
AmdtNote
  3
"AcmSymBB|Product Description: AutoCAD Mechanical 2000|Company: Autodesk"
 90
    33791
280
     0
281
     1
  0
CLASS
  1
DIMASSOC
  2
AcDbDimAssoc
  3
"AcDbDimAssoc|Product Desc:     AcDim ARX App For Dimension|Company:          Autodesk, Inc.|WEB Address:      www.autodesk.com"
 90
    32768
280
     0
281
     0
  0
CLASS
  1
ACMSTANDARDANSI
  2
AcmStandardANSI
  3
"Amdt_StdImp|Product Description: AutoCAD Mechanical 2000|Company: Autodesk"
 90
    32768
280
     0
281
     0
  0
CLASS
  1
ACMSURFSTANDARDANSI
  2
AcmSurfTextStdANSI
  3
"Amdt_StdImp|Product Description: AutoCAD Mechanical 2000|Company: Autodesk"
 90
    32768
280
     0
281
     0
  0
CLASS
  1
ACMFCFSTANDARDANSI
  2
AcmFCFStdANSI
  3
"Amdt_StdImp|Product Description: AutoCAD Mechanical 2000|Company: Autodesk"
 90
    32768
280
     0
281
     0
  0
CLASS
  1
ACMWELDSTANDARDANSI
  2
AcmWeldingStdANSI
  3
"Amdt_StdImp|Product Description: AutoCAD Mechanical 2000|Company: Autodesk"
 90
    32768
280
     0
281
     0
  0
CLASS
  1
ACMIDSTANDARDANSI
  2
AcmIdStdANSI
  3
"Amdt_StdImp|Product Description: AutoCAD Mechanical 2000|Company: Autodesk"
 90
    32768
280
     0
281
     0
  0
CLASS
  1
ACMDATUMSTANDARDANSI
  2
AcmDatumStdANSI
  3
"Amdt_StdImp|Product Description: AutoCAD Mechanical 2000|Company: Autodesk"
 90
    32768
280
     0
281
     0
  0
CLASS
  1
ACMBOMSTANDARDANSI
  2
AcmBOMStdANSI
  3
"Amdt_StdImp|Product Description: AutoCAD Mechanical 2000|Company: Autodesk"
 90
    32768
280
     0
281
     0
  0
CLASS
  1
ACMDETAILSTANDARDANSI
  2
AmdtDetailSymStdANSI
  3
"Amdt_StdImp|Product Description: AutoCAD Mechanical 2000|Company: Autodesk"
 90
    32768
280
     0
281
     0
  0
CLASS
  1
ACMSECTIONSTANDARDANSI
  2
AmdtSectionSymStdANSI
  3
"Amdt_StdImp|Product Description: AutoCAD Mechanical 2000|Company: Autodesk"
 90
    32768
280
     0
281
     0
  0
CLASS
  1
ACMCENTERLINESTANDARDANSI
  2
AmdtCenterLineStdANSI
  3
"Amdt_StdImp|Product Description: AutoCAD Mechanical 2000|Company: Autodesk"
 90
    32768
280
     0
281
     0
  0
CLASS
  1
ACMNOTESTANDARDANSI
  2
AmdtNoteStdANSI
  3
"Amdt_StdImp|Product Description: AutoCAD Mechanical 2000|Company: Autodesk"
 90
    32768
280
     0
281
     0
  0
CLASS
  1
ACAMGHOLECHARTSTDANSI
  2
AcAmgHoleChartStdANSI
  3
ACMSYMBB_MODULE_NAME
 90
    32768
280
     0
281
     0
  0
CLASS
  1
ACDBCIRCARCRES
  2
AcDbCircArcRes
  3
AcGrefServices
 90
    32768
280
     0
281
     0
  0
CLASS
  1
LONG_TRANSACTION
  2
AcDbLongTransaction
  3
AutoCAD 2000
 90
    32768
280
     0
281
     0
  0
CLASS
  1
LWPOLYLINE
  2
AcDbPolyline
  3
AutoCAD 2000
 90
    32768
280
     0
281
     1
  0
CLASS
  1
HATCH
  2
AcDbHatch
  3
AutoCAD 2000
 90
    32768
280
     0
281
     1
  0
CLASS
  1
XRECORD
  2
AcDbXrecord
  3
AutoCAD 2000
 90
    32768
280
     0
281
     0
  0
ENDSEC
  0
SECTION
  2
TABLES
  0
TABLE
  2
VPORT
  5
1A
330
0
100
AcDbSymbolTable
 70
    11
  0
VPORT
  5
26DE
330
1A
100
AcDbSymbolTableRecord
100
AcDbViewportTableRecord
  2
*ACTIVE
 70
     0
 10
0.0
 20
0.0
 11
1.0
 21
1.0
 12
687.4405931082276
 22
255.4500293566647
 13
0.0
 23
0.0
 14
2.5
 24
2.5
 15
10.0
 25
10.0
 16
0.0
 26
0.0
 36
1.0
 17
0.0
 27
0.0
 37
0.0
 40
325.9004543764579
 41
1.765124555160142
 42
50.0
 43
0.0
 44
0.0
 50
0.0
 51
0.0
 71
     0
 72
   100
 73
     1
 74
     3
 75
     0
 76
     0
 77
     0
 78
     0
  0
ENDTAB
  0
TABLE
  2
LTYPE
  5
15
330
0
100
AcDbSymbolTable
 70
    16
  0
LTYPE
  5
16
330
15
100
AcDbSymbolTableRecord
100
AcDbLinetypeTableRecord
  2
BYBLOCK
 70
     0
  3

 72
    65
 73
     0
 40
0.0
  0
LTYPE
  5
17
330
15
100
AcDbSymbolTableRecord
100
AcDbLinetypeTableRecord
  2
BYLAYER
 70
     0
  3

 72
    65
 73
     0
 40
0.0
  0
LTYPE
  5
9
330
15
100
AcDbSymbolTableRecord
100
AcDbLinetypeTableRecord
  2
CONTINUOUS
 70
     0
  3
Solid line
 72
    65
 73
     0
 40
0.0
  0
LTYPE
  5
161
330
15
100
AcDbSymbolTableRecord
100
AcDbLinetypeTableRecord
  2
HIDDEN
 70
     0
  3
Hidden __ __ __ __ __ __ __ __ __ __ __ __ __ _
 72
    65
 73
     2
 40
9.524999999999998
 49
6.349999999999999
 74
     0
 49
-3.174999999999999
 74
     0
  0
LTYPE
  5
BF
330
15
100
AcDbSymbolTableRecord
100
AcDbLinetypeTableRecord
  2
AM_ISO08W050
 70
     0
  3
____ . ____ . ____ . ____ . ____ . ____ . ____
 72
    65
 73
     4
 40
18.0
 49
12.0
 74
     0
 49
-1.5
 74
     0
 49
3.0
 74
     0
 49
-1.5
 74
     0
  0
LTYPE
  5
1FD
330
15
100
AcDbSymbolTableRecord
100
AcDbLinetypeTableRecord
  2
AM_ISO02W050
 70
     0
  3
__ __ __ __ __ __ __ __ __ __ __ __ __ __ __
 72
    65
 73
     2
 40
7.5
 49
6.0
 74
     0
 49
-1.5
 74
     0
  0
LTYPE
  5
1FE
330
15
100
AcDbSymbolTableRecord
100
AcDbLinetypeTableRecord
  2
AM_ISO09W050
 70
     0
  3
_____ . . _____ . . _____ . . ____ .. ____
 72
    65
 73
     6
 40
22.5
 49
12.0
 74
     0
 49
-1.5
 74
     0
 49
3.0
 74
     0
 49
-1.5
 74
     0
 49
3.0
 74
     0
 49
-1.5
 74
     0
  0
LTYPE
  5
1FF
330
15
100
AcDbSymbolTableRecord
100
AcDbLinetypeTableRecord
  2
AMCONSTR
 70
     0
  3
_______________________
 72
    65
 73
     2
 40
9999.0
 49
9999.0
 74
     0
 49
0.0
 74
     0
  0
LTYPE
  5
200
330
15
100
AcDbSymbolTableRecord
100
AcDbLinetypeTableRecord
  2
AM_ISO08W050X2
 70
     0
  3
__ . __ . __ . __ . __ . __
 72
    65
 73
     4
 40
9.0
 49
6.0
 74
     0
 49
-0.75
 74
     0
 49
1.5
 74
     0
 49
-0.75
 74
     0
  0
LTYPE
  5
201
330
15
100
AcDbSymbolTableRecord
100
AcDbLinetypeTableRecord
  2
AM_ISO02W050X2
 70
     0
  3
 _ _ _ _ _ _ _ _ _ _ _ _
 72
    65
 73
     2
 40
3.75
 49
3.0
 74
     0
 49
-0.75
 74
     0
  0
LTYPE
  5
204
330
15
100
AcDbSymbolTableRecord
100
AcDbLinetypeTableRecord
  2
AMZIGZAG
 70
     0
  3
/\/-/\/-/\/-/\/-/\/-/\/
 72
    65
 73
     2
 40
11.00009999999999
 49
0.0001
 74
     4
 75
   135
340
203
 46
0.04
 50
0.0
 44
0.0
 45
0.0
 49
-11.0
 74
     0
  0
LTYPE
  5
211
330
15
100
AcDbSymbolTableRecord
100
AcDbLinetypeTableRecord
  2
ACISOWELD
 70
     0
  3
_ _ _ _ _
 72
    65
 73
     2
 40
2.0
 49
2.0
 74
     0
 49
-1.0
 74
     0
  0
LTYPE
  5
212
330
15
100
AcDbSymbolTableRecord
100
AcDbLinetypeTableRecord
  2
ACISOTGB
 70
     0
  3
__ . . __ . .
 72
    65
 73
     6
 40
9.0
 49
4.0
 74
     0
 49
-1.0
 74
     0
 49
1.0
 74
     0
 49
-1.0
 74
     0
 49
1.0
 74
     0
 49
-1.0
 74
     0
  0
LTYPE
  5
213
330
15
100
AcDbSymbolTableRecord
100
AcDbLinetypeTableRecord
  2
ACISOTGL
 70
     0
  3
_ _ _ _ _
 72
    65
 73
     2
 40
3.0
 49
2.0
 74
     0
 49
-1.0
 74
     0
  0
LTYPE
  5
214
330
15
100
AcDbSymbolTableRecord
100
AcDbLinetypeTableRecord
  2
CENTER
 70
     0
  3
__ . __
 72
    65
 73
     4
 40
7.0
 49
4.0
 74
     0
 49
-1.0
 74
     0
 49
1.0
 74
     0
 49
-1.0
 74
     0
  0
LTYPE
  5
1112
330
15
100
AcDbSymbolTableRecord
100
AcDbLinetypeTableRecord
  2
PHANTOM2
 70
     0
  3
Phantom (.5x) ___ _ _ ___ _ _ ___ _ _ ___ _ _
 72
    65
 73
     6
 40
1.25
 49
0.625
 74
     0
 49
-0.125
 74
     0
 49
0.125
 74
     0
 49
-0.125
 74
     0
 49
0.125
 74
     0
 49
-0.125
 74
     0
  0
LTYPE
  5
1115
330
15
100
AcDbSymbolTableRecord
100
AcDbLinetypeTableRecord
  2
ACANSTGB
 70
     0
  3
__ . . __ . .
 72
    65
 73
     6
 40
0.35433070866
 49
0.15748031496
 74
     0
 49
-0.03937007874
 74
     0
 49
0.03937007874
 74
     0
 49
-0.03937007874
 74
     0
 49
0.03937007874
 74
     0
 49
-0.03937007874
 74
     0
  0
LTYPE
  5
1116
330
15
100
AcDbSymbolTableRecord
100
AcDbLinetypeTableRecord
  2
ACANSTGL
 70
     0
  3
_ _ _ _ _
 72
    65
 73
     2
 40
0.11811023622
 49
0.07874015748
 74
     0
 49
-0.03937007874
 74
     0
  0
ENDTAB
  0
TABLE
  2
LAYER
  5
11
330
0
100
AcDbSymbolTable
 70
    10
  0
LAYER
  5
5
330
11
100
AcDbSymbolTableRecord
100
AcDbLayerTableRecord
  2
0
 70
     0
 62
     7
  6
CONTINUOUS
  0
LAYER
  5
3B
330
11
100
AcDbSymbolTableRecord
100
AcDbLayerTableRecord
  2
DEFPOINTS
 70
     0
 62
     7
  6
CONTINUOUS
  0
LAYER
  5
14E
330
11
100
AcDbSymbolTableRecord
100
AcDbLayerTableRecord
  2
AM_5
 70
     0
 62
     5
  6
CONTINUOUS
  0
LAYER
  5
32
330
11
100
AcDbSymbolTableRecord
100
AcDbLayerTableRecord
  2
AM_PARDIM
 70
     0
 62
     5
  6
CONTINUOUS
  0
LAYER
  5
BE
330
11
100
AcDbSymbolTableRecord
100
AcDbLayerTableRecord
  2
AM_7
 70
     0
 62
     1
  6
AM_ISO08W050
  0
LAYER
  5
1117
330
11
100
AcDbSymbolTableRecord
100
AcDbLayerTableRecord
  2
HIDDEN
 70
     0
 62
     6
  6
HIDDEN
  0
LAYER
  5
1118
330
11
100
AcDbSymbolTableRecord
100
AcDbLayerTableRecord
  2
DIM
 70
     0
 62
     5
  6
CONTINUOUS
  0
LAYER
  5
1119
330
11
100
AcDbSymbolTableRecord
100
AcDbLayerTableRecord
  2
CENTER
 70
     0
 62
     1
  6
CENTER
  0
LAYER
  5
111A
330
11
100
AcDbSymbolTableRecord
100
AcDbLayerTableRecord
  2
LOGO
 70
     0
 62
     7
  6
CONTINUOUS
  0
LAYER
  5
2574
330
11
100
AcDbSymbolTableRecord
100
AcDbLayerTableRecord
  2
AM_4
 70
     0
 62
     3
  6
CONTINUOUS
  0
ENDTAB
  0
TABLE
  2
STYLE
  5
12
330
0
100
AcDbSymbolTable
 70
    11
  0
STYLE
  5
13
330
12
100
AcDbSymbolTableRecord
100
AcDbTextStyleTableRecord
  2
STANDARD
 70
     0
 40
0.0
 41
1.0
 50
0.0
 71
     0
 42
2.5
  3
ISOCP.SHX
  4
CHINESET.SHX
  0
STYLE
  5
152
330
12
100
AcDbSymbolTableRecord
100
AcDbTextStyleTableRecord
  2
ACISOTS
 70
     0
 40
1.0
 41
1.0
 50
0.0
 71
     0
 42
2.5
  3
isocp.shx
  4
chineset.shx
  0
STYLE
  5
203
330
12
100
AcDbSymbolTableRecord
100
AcDbTextStyleTableRecord
  2

 70
     1
 40
0.0
 41
1.0
 50
0.0
 71
     0
 42
2.5
  3
ltypeshp.shx
  4

  0
STYLE
  5
210
330
12
100
AcDbSymbolTableRecord
100
AcDbTextStyleTableRecord
  2
ACISOGDT
 70
     0
 40
0.0
 41
1.0
 50
0.0
 71
     0
 42
2.5
  3
amgdt.shx
  4

  0
STYLE
  5
356
330
12
100
AcDbSymbolTableRecord
100
AcDbTextStyleTableRecord
  2
CHINESET
 70
     0
 40
0.0
 41
1.0
 50
0.0
 71
     0
 42
2.5
  3
simplex.shx
  4
CHINESET.shx
  0
STYLE
  5
357
330
12
100
AcDbSymbolTableRecord
100
AcDbTextStyleTableRecord
  2
CHINA
 70
     0
 40
0.0
 41
1.0
 50
0.0
 71
     0
 42
3.0
  3
/rubon/c2
  4
/rubon/china
  0
STYLE
  5
111C
330
12
100
AcDbSymbolTableRecord
100
AcDbTextStyleTableRecord
  2
ROMANS
 70
     0
 40
0.0
 41
1.0
 50
0.0
 71
     0
 42
3.0
  3
ROMANS.SHX
  4
LMP
  0
STYLE
  5
111D
330
12
100
AcDbSymbolTableRecord
100
AcDbTextStyleTableRecord
  2
ROMANS1
 70
     0
 40
0.0
 41
1.0
 50
0.0
 71
     0
 42
3.0
  3
ROMANS.SHX
  4

  0
STYLE
  5
111E
330
12
100
AcDbSymbolTableRecord
100
AcDbTextStyleTableRecord
  2
LOGO
 70
     0
 40
0.0
 41
1.0
 50
0.0
 71
     0
 42
5.0
  3
LEI00DP.TTF
  4

1001
ACAD
1000
文鼎中粗隸
1071
    34865
  0
STYLE
  5
111F
330
12
100
AcDbSymbolTableRecord
100
AcDbTextStyleTableRecord
  2
ACANSTS
 70
     0
 40
1.0
 41
1.0
 50
0.0
 71
     0
 42
2.5
  3
romans.shx
  4
chineset.shx
  0
STYLE
  5
1120
330
12
100
AcDbSymbolTableRecord
100
AcDbTextStyleTableRecord
  2
ACANSGDT
 70
     0
 40
0.0
 41
1.0
 50
0.0
 71
     0
 42
2.5
  3
amgdtans.shx
  4

  0
ENDTAB
  0
TABLE
  2
VIEW
  5
18
330
0
100
AcDbSymbolTable
 70
     0
  0
ENDTAB
  0
TABLE
  2
UCS
  5
19
330
0
100
AcDbSymbolTable
 70
     0
  0
ENDTAB
  0
TABLE
  2
APPID
  5
1C
330
0
100
AcDbSymbolTable
 70
    18
  0
APPID
  5
1D
330
1C
100
AcDbSymbolTableRecord
100
AcDbRegAppTableRecord
  2
ACAD
 70
     0
  0
APPID
  5
41
330
1C
100
AcDbSymbolTableRecord
100
AcDbRegAppTableRecord
  2
AD_SKETCHDIM
 70
     0
  0
APPID
  5
42
330
1C
100
AcDbSymbolTableRecord
100
AcDbRegAppTableRecord
  2
ACAD_DIMASSOC_DIMLFAC
 70
     0
  0
APPID
  5
40
330
1C
100
AcDbSymbolTableRecord
100
AcDbRegAppTableRecord
  2
ACAD_DIMASSOC_CALC_DIMLFAC
 70
     0
  0
APPID
  5
1DF
330
1C
100
AcDbSymbolTableRecord
100
AcDbRegAppTableRecord
  2
MCAD_NO_VIS
 70
     0
  0
APPID
  5
1E0
330
1C
100
AcDbSymbolTableRecord
100
AcDbRegAppTableRecord
  2
ACAD_TEMP_GRAPHIC
 70
     0
  0
APPID
  5
1F1
330
1C
100
AcDbSymbolTableRecord
100
AcDbRegAppTableRecord
  2
ACATTRIBSERVICES
 70
     0
  0
APPID
  5
CAF
330
1C
100
AcDbSymbolTableRecord
100
AcDbRegAppTableRecord
  2
GENIUS_GENODEF_13
 70
     0
  0
APPID
  5
CB0
330
1C
100
AcDbSymbolTableRecord
100
AcDbRegAppTableRecord
  2
GENIUS_GENOBJ-N-DIM_13
 70
     0
  0
APPID
  5
CBC
330
1C
100
AcDbSymbolTableRecord
100
AcDbRegAppTableRecord
  2
GENIUS_GENDIM_13
 70
     0
  0
APPID
  5
CDC
330
1C
100
AcDbSymbolTableRecord
100
AcDbRegAppTableRecord
  2
GENIUS_GENDIMSH_14
 70
     0
  0
APPID
  5
E3C
330
1C
100
AcDbSymbolTableRecord
100
AcDbRegAppTableRecord
  2
GENIUS_GENOBJ-N-HTC_13
 70
     0
  0
APPID
  5
E3D
330
1C
100
AcDbSymbolTableRecord
100
AcDbRegAppTableRecord
  2
GENIUS_GENHATCH_13
 70
     0
  0
APPID
  5
E59
330
1C
100
AcDbSymbolTableRecord
100
AcDbRegAppTableRecord
  2
DCO15
 70
     0
  0
APPID
  5
1128
330
1C
100
AcDbSymbolTableRecord
100
AcDbRegAppTableRecord
  2
GENIUS_GENOENT_13
 70
     0
  0
APPID
  5
1129
330
1C
100
AcDbSymbolTableRecord
100
AcDbRegAppTableRecord
  2
GENIUS_GENOLIS_13
 70
     0
  0
APPID
  5
112A
330
1C
100
AcDbSymbolTableRecord
100
AcDbRegAppTableRecord
  2
GENIUS_GENOBJ-N-CRS_13
 70
     0
  0
APPID
  5
112B
330
1C
100
AcDbSymbolTableRecord
100
AcDbRegAppTableRecord
  2
GENIUS_GENOREF_13
 70
     0
  0
ENDTAB
  0
TABLE
  2
DIMSTYLE
  5
1E
330
0
100
AcDbSymbolTable
 70
    14
  0
DIMSTYLE
105
1F
102
{ACAD_REACTORS
330
31
330
43
330
52
330
5F
330
6C
330
79
330
86
330
95
330
A3
330
B0
330
2020
330
20A1
330
20E8
330
2120
330
2158
330
2190
330
21C8
330
2200
330
2238
330
2274
330
22AC
330
22E4
330
253D
102
}
330
1E
100
AcDbSymbolTableRecord
100
AcDbDimStyleTableRecord
  2
AM_ISO
 70
     0
  3

  4
"
  5

  6

  7

 40
1.2
 41
3.0
 42
2.0
 43
8.0
 44
1.5
 45
0.0
 46
0.0
 47
0.1
 48
0.1
140
3.0
141
0.0
142
0.0
143
0.0393701
144
1.0
145
0.0
146
0.71
147
1.0
 71
     0
 72
     0
 73
     0
 74
     0
 75
     0
 76
     0
 77
     1
 78
     8
170
     0
171
     2
172
     1
173
     0
174
     0
175
     0
176
   256
177
   256
178
   256
270
     2
271
     2
272
     2
273
     2
274
     2
340
357
275
     0
280
     0
281
     0
282
     0
283
     0
284
     8
285
     0
286
     0
287
     3
288
     0
  0
DIMSTYLE
105
217
330
1E
100
AcDbSymbolTableRecord
100
AcDbDimStyleTableRecord
  2
AM_ISO$3
 70
     0
  3

  4
"
  5

  6

  7

 40
1.2
 41
3.0
 42
2.0
 43
8.0
 44
1.5
 45
0.0
 46
0.0
 47
0.1
 48
0.1
140
3.0
141
0.0
142
0.0
143
0.0393701
144
1.0
145
0.0
146
0.71
147
1.0
 71
     0
 72
     0
 73
     0
 74
     1
 75
     0
 76
     0
 77
     1
 78
     8
170
     0
171
     2
172
     0
173
     0
174
     0
175
     0
176
   256
177
   256
178
   256
270
     2
271
     2
272
     2
273
     2
274
     2
340
357
275
     0
280
     0
281
     0
282
     0
283
     0
284
     8
285
     0
286
     0
287
     0
288
     1
  0
DIMSTYLE
105
218
330
1E
100
AcDbSymbolTableRecord
100
AcDbDimStyleTableRecord
  2
AM_ISO$4
 70
     0
  3

  4
"
  5

  6

  7

 40
1.2
 41
3.0
 42
2.0
 43
8.0
 44
1.5
 45
0.0
 46
0.0
 47
0.1
 48
0.1
140
3.0
141
0.0
142
0.0
143
0.0393701
144
1.0
145
0.0
146
0.71
147
1.0
 71
     0
 72
     0
 73
     0
 74
     1
 75
     0
 76
     0
 77
     1
 78
     8
170
     0
171
     2
172
     0
173
     0
174
     0
175
     0
176
   256
177
   256
178
   256
270
     2
271
     2
272
     2
273
     2
274
     2
340
357
275
     0
280
     0
281
     0
282
     0
283
     0
284
     8
285
     0
286
     0
287
     0
288
     1
  0
DIMSTYLE
105
219
330
1E
100
AcDbSymbolTableRecord
100
AcDbDimStyleTableRecord
  2
AM_ISO$6
 70
     0
  3

  4
"
  5

  6

  7

 40
1.2
 41
3.0
 42
2.0
 43
8.0
 44
1.5
 45
0.0
 46
0.0
 47
0.1
 48
0.1
140
3.0
141
0.0
142
0.0
143
0.0393701
144
1.0
145
0.0
146
0.71
147
1.0
 71
     0
 72
     0
 73
     0
 74
     0
 75
     0
 76
     0
 77
     0
 78
     8
170
     0
171
     2
172
     1
173
     0
174
     0
175
     0
176
   256
177
   256
178
   256
270
     2
271
     2
272
     2
273
     2
274
     2
340
357
275
     0
280
     0
281
     0
282
     0
283
     0
284
     8
285
     0
286
     0
287
     3
288
     0
  0
DIMSTYLE
105
21A
330
1E
100
AcDbSymbolTableRecord
100
AcDbDimStyleTableRecord
  2
AM_ISO$7
 70
     0
  3

  4
"
  5

  6

  7

 40
1.2
 41
2.5
 42
2.0
 43
8.0
 44
1.5
 45
0.0
 46
0.0
 47
0.1
 48
0.1
140
5.0
141
0.0
142
0.0
143
0.0393701
144
1.0
145
0.0
146
0.71
147
1.5
 71
     0
 72
     0
 73
     0
 74
     0
 75
     0
 76
     0
 77
     1
 78
     8
170
     0
171
     2
172
     1
173
     0
174
     0
175
     0
176
   256
177
   256
178
   256
270
     2
271
     2
272
     2
273
     2
274
     2
340
357
275
     0
280
     0
281
     0
282
     0
283
     0
284
     8
285
     0
286
     0
287
     3
288
     0
  0
DIMSTYLE
105
21B
330
1E
100
AcDbSymbolTableRecord
100
AcDbDimStyleTableRecord
  2
AM_ISO$SF
 70
     0
  3

  4
"
  5

  6

  7

 40
1.0
 41
3.0
 42
2.0
 43
5.0
 44
1.5
 45
0.0
 46
0.0
 47
0.1
 48
0.1
140
3.0
141
0.0
142
0.0
143
0.0393701
144
1.0
145
0.0
146
0.71
147
1.0
 71
     0
 72
     0
 73
     0
 74
     0
 75
     1
 76
     1
 77
     1
 78
     8
170
     0
171
     2
172
     1
173
     0
174
     0
175
     0
176
   256
177
   256
178
     5
270
     2
271
     2
272
     2
273
     2
274
     2
340
13
275
     0
280
     0
281
     0
282
     0
283
     0
284
     8
285
     0
286
     0
287
     3
288
     0
  0
DIMSTYLE
105
220
330
1E
100
AcDbSymbolTableRecord
100
AcDbDimStyleTableRecord
  2
AM_ISO$SH
 70
     0
  3

  4
"
  5

  6
GENAXEH
  7

 40
1.0
 41
3.0
 42
2.0
 43
5.0
 44
1.5
 45
0.0
 46
0.0
 47
0.1
 48
0.1
140
3.0
141
0.0
142
0.0
143
0.0393701
144
2.0
145
0.0
146
0.71
147
1.0
 71
     0
 72
     0
 73
     0
 74
     0
 75
     1
 76
     1
 77
     1
 78
     8
170
     0
171
     2
172
     1
173
     1
174
     0
175
     0
176
   256
177
   256
178
     5
270
     2
271
     2
272
     2
273
     2
274
     2
340
13
275
     0
280
     0
281
     0
282
     0
283
     0
284
     8
285
     0
286
     0
287
     3
288
     0
  0
DIMSTYLE
105
1121
330
1E
100
AcDbSymbolTableRecord
100
AcDbDimStyleTableRecord
  2
STANDARD
 70
     0
  3

  4

  5

  6

  7

 40
1.0
 41
0.18
 42
0.0625
 43
0.38
 44
0.18
 45
0.0
 46
0.0
 47
0.0
 48
0.0
140
0.18
141
0.09
142
0.0
143
25.4
144
1.0
145
0.0
146
1.0
147
0.09
 71
     0
 72
     0
 73
     1
 74
     1
 75
     0
 76
     0
 77
     0
 78
     0
170
     0
171
     2
172
     0
173
     0
174
     0
175
     0
176
     0
177
     0
178
     0
270
     2
271
     4
272
     4
273
     2
274
     2
340
13
275
     0
280
     0
281
     0
282
     0
283
     1
284
     0
285
     0
286
     0
287
     3
288
     0
  0
DIMSTYLE
105
1122
330
1E
100
AcDbSymbolTableRecord
100
AcDbDimStyleTableRecord
  2
AM_ANSI
 70
     0
  3

  4
mm
  5

  6

  7

 40
1.0
 41
0.1
 42
0.05
 43
0.5
 44
0.1
 45
0.0
 46
0.0
 47
0.1
 48
0.1
140
0.12
141
0.0
142
0.0
143
25.4
144
1.0
145
0.0
146
0.71
147
0.06
 71
     0
 72
     0
 73
     1
 74
     1
 75
     0
 76
     0
 77
     0
 78
     7
170
     0
171
     2
172
     0
173
     0
174
     0
175
     0
176
   256
177
   256
178
     2
270
     2
271
     4
272
     4
273
     2
274
     4
340
13
275
     0
280
     0
281
     0
282
     0
283
     1
284
     7
285
     0
286
     0
287
     3
288
     0
  0
DIMSTYLE
105
1123
330
1E
100
AcDbSymbolTableRecord
100
AcDbDimStyleTableRecord
  2
AM_ANSI$3
 70
     0
  3

  4
mm
  5

  6

  7

 40
1.0
 41
0.1
 42
0.05
 43
0.5
 44
0.1
 45
0.0
 46
0.0
 47
0.1
 48
0.1
140
0.12
141
0.0
142
0.0
143
25.4
144
1.0
145
0.0
146
0.71
147
0.06
 71
     0
 72
     0
 73
     1
 74
     1
 75
     0
 76
     0
 77
     0
 78
     7
170
     0
171
     2
172
     0
173
     0
174
     0
175
     0
176
   256
177
   256
178
     2
270
     2
271
     4
272
     4
273
     2
274
     4
340
13
275
     0
280
     0
281
     0
282
     0
283
     1
284
     7
285
     0
286
     0
287
     0
288
     1
  0
DIMSTYLE
105
1124
330
1E
100
AcDbSymbolTableRecord
100
AcDbDimStyleTableRecord
  2
AM_ANSI$4
 70
     0
  3

  4
mm
  5

  6

  7

 40
1.0
 41
0.1
 42
0.05
 43
0.5
 44
0.1
 45
0.0
 46
0.0
 47
0.1
 48
0.1
140
0.12
141
0.0
142
0.0
143
25.4
144
1.0
145
0.0
146
0.71
147
0.06
 71
     0
 72
     0
 73
     1
 74
     1
 75
     0
 76
     0
 77
     0
 78
     7
170
     0
171
     2
172
     0
173
     0
174
     0
175
     0
176
   256
177
   256
178
     2
270
     2
271
     4
272
     4
273
     2
274
     4
340
13
275
     0
280
     0
281
     0
282
     0
283
     1
284
     7
285
     0
286
     0
287
     0
288
     1
  0
DIMSTYLE
105
1125
330
1E
100
AcDbSymbolTableRecord
100
AcDbDimStyleTableRecord
  2
AM_ANSI$7
 70
     0
  3

  4
mm
  5

  6

  7

 40
1.0
 41
0.1
 42
0.05
 43
0.5
 44
0.1
 45
0.0
 46
0.0
 47
0.1
 48
0.1
140
0.24
141
0.0
142
0.0
143
25.4
144
1.0
145
0.0
146
0.71
147
0.06
 71
     0
 72
     0
 73
     1
 74
     1
 75
     0
 76
     0
 77
     0
 78
     7
170
     0
171
     2
172
     0
173
     0
174
     0
175
     0
176
   256
177
   256
178
     2
270
     2
271
     4
272
     4
273
     2
274
     4
340
13
275
     0
280
     0
281
     0
282
     0
283
     1
284
     7
285
     0
286
     0
287
     3
288
     0
  0
DIMSTYLE
105
1126
330
1E
100
AcDbSymbolTableRecord
100
AcDbDimStyleTableRecord
  2
AM_ANSI$SF
 70
     0
  3

  4
mm
  5

  6

  7

 40
1.0
 41
0.1
 42
0.05
 43
0.5
 44
0.1
 45
0.0
 46
0.0
 47
0.1
 48
0.1
140
0.12
141
0.0
142
0.0
143
25.4
144
1.0
145
0.0
146
0.71
147
0.06
 71
     0
 72
     0
 73
     1
 74
     1
 75
     1
 76
     1
 77
     0
 78
     7
170
     0
171
     2
172
     0
173
     0
174
     0
175
     0
176
   256
177
   256
178
     2
270
     2
271
     4
272
     4
273
     2
274
     4
340
13
275
     0
280
     0
281
     0
282
     0
283
     1
284
     7
285
     0
286
     0
287
     3
288
     0
  0
DIMSTYLE
105
1127
330
1E
100
AcDbSymbolTableRecord
100
AcDbDimStyleTableRecord
  2
AM_ANSI$SH
 70
     0
  3

  4
mm
  5

  6
GENAXEH
  7

 40
1.0
 41
0.1
 42
0.05
 43
0.5
 44
0.1
 45
0.0
 46
0.0
 47
0.1
 48
0.1
140
0.12
141
0.0
142
0.0
143
25.4
144
1.0
145
0.0
146
0.71
147
0.06
 71
     0
 72
     0
 73
     1
 74
     1
 75
     1
 76
     1
 77
     0
 78
     7
170
     0
171
     2
172
     0
173
     1
174
     0
175
     0
176
   256
177
   256
178
     2
270
     2
271
     4
272
     4
273
     2
274
     4
340
13
275
     0
280
     0
281
     0
282
     0
283
     1
284
     7
285
     0
286
     0
287
     3
288
     0
  0
ENDTAB
  0
TABLE
  2
BLOCK_RECORD
  5
1
330
0
100
AcDbSymbolTable
 70
    28
  0
BLOCK_RECORD
  5
2
102
{ACAD_XDICTIONARY
360
3
102
}
330
1
100
AcDbSymbolTableRecord
100
AcDbBlockTableRecord
  2
*MODEL_SPACE
  0
BLOCK_RECORD
  5
D
102
{ACAD_XDICTIONARY
360
26E0
102
}
330
1
100
AcDbSymbolTableRecord
100
AcDbBlockTableRecord
  2
*PAPER_SPACE
  0
BLOCK_RECORD
  5
21C
330
1
100
AcDbSymbolTableRecord
100
AcDbBlockTableRecord
  2
GENAXEH
  0
BLOCK_RECORD
  5
F83
330
1
100
AcDbSymbolTableRecord
100
AcDbBlockTableRecord
  2
*D1
  0
BLOCK_RECORD
  5
F8F
330
1
100
AcDbSymbolTableRecord
100
AcDbBlockTableRecord
  2
*D2
  0
BLOCK_RECORD
  5
F9D
330
1
100
AcDbSymbolTableRecord
100
AcDbBlockTableRecord
  2
*D3
  0
BLOCK_RECORD
  5
FA9
330
1
100
AcDbSymbolTableRecord
100
AcDbBlockTableRecord
  2
*D4
  0
BLOCK_RECORD
  5
FB5
330
1
100
AcDbSymbolTableRecord
100
AcDbBlockTableRecord
  2
*D5
  0
BLOCK_RECORD
  5
FC1
330
1
100
AcDbSymbolTableRecord
100
AcDbBlockTableRecord
  2
*D6
  0
BLOCK_RECORD
  5
FCD
330
1
100
AcDbSymbolTableRecord
100
AcDbBlockTableRecord
  2
*D7
  0
BLOCK_RECORD
  5
FDB
330
1
100
AcDbSymbolTableRecord
100
AcDbBlockTableRecord
  2
*D8
  0
BLOCK_RECORD
  5
FE8
330
1
100
AcDbSymbolTableRecord
100
AcDbBlockTableRecord
  2
*D9
  0
BLOCK_RECORD
  5
FF4
330
1
100
AcDbSymbolTableRecord
100
AcDbBlockTableRecord
  2
*D10
  0
BLOCK_RECORD
  5
1D96
330
1
100
AcDbSymbolTableRecord
100
AcDbBlockTableRecord
  2
GENDOT
  0
BLOCK_RECORD
  5
2021
330
1
100
AcDbSymbolTableRecord
100
AcDbBlockTableRecord
  2
*D12
  0
BLOCK_RECORD
  5
20A2
330
1
100
AcDbSymbolTableRecord
100
AcDbBlockTableRecord
  2
*D13
  0
BLOCK_RECORD
  5
20E9
330
1
100
AcDbSymbolTableRecord
100
AcDbBlockTableRecord
  2
*D14
  0
BLOCK_RECORD
  5
2121
330
1
100
AcDbSymbolTableRecord
100
AcDbBlockTableRecord
  2
*D15
  0
BLOCK_RECORD
  5
2159
330
1
100
AcDbSymbolTableRecord
100
AcDbBlockTableRecord
  2
*D16
  0
BLOCK_RECORD
  5
2191
330
1
100
AcDbSymbolTableRecord
100
AcDbBlockTableRecord
  2
*D17
  0
BLOCK_RECORD
  5
21C9
330
1
100
AcDbSymbolTableRecord
100
AcDbBlockTableRecord
  2
*D18
  0
BLOCK_RECORD
  5
2201
330
1
100
AcDbSymbolTableRecord
100
AcDbBlockTableRecord
  2
*D19
  0
BLOCK_RECORD
  5
2239
330
1
100
AcDbSymbolTableRecord
100
AcDbBlockTableRecord
  2
*D20
  0
BLOCK_RECORD
  5
2275
330
1
100
AcDbSymbolTableRecord
100
AcDbBlockTableRecord
  2
*D21
  0
BLOCK_RECORD
  5
22AD
330
1
100
AcDbSymbolTableRecord
100
AcDbBlockTableRecord
  2
*D22
  0
BLOCK_RECORD
  5
22E5
330
1
100
AcDbSymbolTableRecord
100
AcDbBlockTableRecord
  2
*D23
  0
BLOCK_RECORD
  5
253E
330
1
100
AcDbSymbolTableRecord
100
AcDbBlockTableRecord
  2
*D24
  0
BLOCK_RECORD
  5
26F9
330
1
100
AcDbSymbolTableRecord
100
AcDbBlockTableRecord
  2
*S25
  0
BLOCK_RECORD
  5
2701
330
1
100
AcDbSymbolTableRecord
100
AcDbBlockTableRecord
  2
*S26
  0
BLOCK_RECORD
  5
270B
330
1
100
AcDbSymbolTableRecord
100
AcDbBlockTableRecord
  2
*S27
  0
ENDTAB
  0
ENDSEC
  0
SECTION
  2
BLOCKS
  0
BLOCK
  5
4
330
2
100
AcDbEntity
  8
0
100
AcDbBlockBegin
  2
*MODEL_SPACE
 70
     0
 10
0.0
 20
0.0
 30
0.0
  3
*MODEL_SPACE
  1

  0
ENDBLK
  5
A
330
2
100
AcDbEntity
  8
0
100
AcDbBlockEnd
  0
BLOCK
  5
E
330
D
100
AcDbEntity
 67
     1
  8
0
100
AcDbBlockBegin
  2
*PAPER_SPACE
 70
     0
 10
0.0
 20
0.0
 30
0.0
  3
*PAPER_SPACE
  1

  0
ENDBLK
  5
F
330
D
100
AcDbEntity
 67
     1
  8
0
100
AcDbBlockEnd
  0
BLOCK
  5
21E
330
21C
100
AcDbEntity
  8
0
100
AcDbBlockBegin
  2
GENAXEH
 70
     0
 10
0.0
 20
0.0
 30
0.0
  3
GENAXEH
  1

  0
LINE
  5
21D
330
21C
100
AcDbEntity
  8
0
100
AcDbLine
 10
-1.0
 20
0.0
 30
0.0
 11
1.0
 21
0.0
 31
0.0
  0
ENDBLK
  5
21F
330
21C
100
AcDbEntity
  8
0
100
AcDbBlockEnd
  0
BLOCK
  5
F8D
330
F83
100
AcDbEntity
  8
0
100
AcDbBlockBegin
  2
*D1
 70
     1
 10
0.0
 20
0.0
 30
0.0
  3
*D1
  1

  0
LINE
  5
23D4
330
F83
100
AcDbEntity
  8
AM_PARDIM
100
AcDbLine
 10
77.77464887656421
 20
116.1938113892625
 30
0.0
 11
116.3325708695175
 21
116.1938113892624
 31
0.0
  0
LINE
  5
23D5
330
F83
100
AcDbEntity
  8
AM_PARDIM
100
AcDbLine
 10
77.77464887656421
 20
128.6938113892625
 30
0.0
 11
116.3325708695175
 21
128.6938113892625
 31
0.0
  0
LINE
  5
23D6
330
F83
100
AcDbEntity
  8
AM_PARDIM
100
AcDbLine
 10
114.5325708695175
 20
119.7938113892624
 30
0.0
 11
114.5325708695175
 21
125.0938113892624
 31
0.0
  0
SOLID
  5
23D7
330
F83
100
AcDbEntity
  8
AM_PARDIM
100
AcDbTrace
 10
113.9325708695175
 20
119.7938113892624
 30
0.0
 11
115.1325708695175
 21
119.7938113892624
 31
0.0
 12
114.5325708695175
 22
116.1938113892624
 32
0.0
 13
114.5325708695175
 23
116.1938113892624
 33
0.0
  0
SOLID
  5
23D8
330
F83
100
AcDbEntity
  8
AM_PARDIM
100
AcDbTrace
 10
113.9325708695175
 20
125.0938113892624
 30
0.0
 11
115.1325708695175
 21
125.0938113892624
 31
0.0
 12
114.5325708695175
 22
128.6938113892625
 32
0.0
 13
114.5325708695175
 23
128.6938113892625
 33
0.0
  0
MTEXT
  5
23D9
330
F83
100
AcDbEntity
  8
AM_PARDIM
100
AcDbMText
 10
111.5228070899899
 20
122.4438113892625
 30
0.0
 40
3.6
 41
0.0
 71
     5
 72
     1
  1
12.5
  7
CHINA
 11
0.0000000000000001
 21
1.0
 31
0.0
1001
ACAD
1000
MTEXTBEGIN
1070
    73
1070
     1
1070
    44
1040
1.0
1070
    74
1070
     0
1000
MTEXTEND
  0
POINT
  5
23DA
330
F83
100
AcDbEntity
  8
DEFPOINTS
 62
     0
100
AcDbPoint
 10
75.37464887656421
 20
116.1938113892625
 30
0.0
  0
POINT
  5
23DB
330
F83
100
AcDbEntity
  8
DEFPOINTS
 62
     0
100
AcDbPoint
 10
75.37464887656421
 20
128.6938113892625
 30
0.0
  0
POINT
  5
23DC
330
F83
100
AcDbEntity
  8
DEFPOINTS
 62
     0
100
AcDbPoint
 10
114.5325708695175
 20
128.6938113892625
 30
0.0
  0
ENDBLK
  5
F8E
330
F83
100
AcDbEntity
  8
0
100
AcDbBlockEnd
  0
BLOCK
  5
F9B
330
F8F
100
AcDbEntity
  8
0
100
AcDbBlockBegin
  2
*D2
 70
     1
 10
0.0
 20
0.0
 30
0.0
  3
*D2
  1

  0
LINE
  5
23DD
330
F8F
100
AcDbEntity
  8
AM_PARDIM
100
AcDbLine
 10
36.47464887656421
 20
116.1938113892625
 30
0.0
 11
25.0746488765642
 21
116.1938113892625
 31
0.0
  0
LINE
  5
23DE
330
F8F
100
AcDbEntity
  8
AM_PARDIM
100
AcDbLine
 10
36.47464887656421
 20
122.1938113892624
 30
0.0
 11
25.0746488765642
 21
122.1938113892625
 31
0.0
  0
LINE
  5
23DF
330
F8F
100
AcDbEntity
  8
AM_PARDIM
100
AcDbLine
 10
26.8746488765642
 20
112.5938113892625
 30
0.0
 11
26.8746488765642
 21
108.9938113892624
 31
0.0
  0
LINE
  5
23E0
330
F8F
100
AcDbEntity
  8
AM_PARDIM
100
AcDbLine
 10
26.87464887656421
 20
125.7938113892625
 30
0.0
 11
26.87464887656421
 21
129.3938113892625
 31
0.0
  0
LINE
  5
23E1
330
F8F
100
AcDbEntity
  8
AM_PARDIM
100
AcDbLine
 10
26.8746488765642
 20
116.1938113892625
 30
0.0
 11
26.87464887656421
 21
122.1938113892625
 31
0.0
  0
SOLID
  5
23E2
330
F8F
100
AcDbEntity
  8
AM_PARDIM
100
AcDbTrace
 10
26.2746488765642
 20
112.5938113892625
 30
0.0
 11
27.4746488765642
 21
112.5938113892625
 31
0.0
 12
26.8746488765642
 22
116.1938113892625
 32
0.0
 13
26.8746488765642
 23
116.1938113892625
 33
0.0
  0
SOLID
  5
23E3
330
F8F
100
AcDbEntity
  8
AM_PARDIM
100
AcDbTrace
 10
26.27464887656421
 20
125.7938113892625
 30
0.0
 11
27.47464887656421
 21
125.7938113892625
 31
0.0
 12
26.87464887656421
 22
122.1938113892625
 32
0.0
 13
26.87464887656421
 23
122.1938113892625
 33
0.0
  0
MTEXT
  5
23E4
330
F8F
100
AcDbEntity
  8
AM_PARDIM
100
AcDbMText
 10
23.87464887656418
 20
119.1938113892625
 30
0.0
 40
3.6
 41
0.0
 71
     5
 72
     1
  1
6
  7
CHINA
 11
0.0000000000000001
 21
1.0
 31
0.0
1001
ACAD
1000
MTEXTBEGIN
1070
    73
1070
     1
1070
    44
1040
1.0
1070
    74
1070
     0
1000
MTEXTEND
  0
POINT
  5
23E5
330
F8F
100
AcDbEntity
  8
DEFPOINTS
 62
     0
100
AcDbPoint
 10
38.8746488765642
 20
116.1938113892625
 30
0.0
  0
POINT
  5
23E6
330
F8F
100
AcDbEntity
  8
DEFPOINTS
 62
     0
100
AcDbPoint
 10
38.8746488765642
 20
122.1938113892624
 30
0.0
  0
POINT
  5
23E7
330
F8F
100
AcDbEntity
  8
DEFPOINTS
 62
     0
100
AcDbPoint
 10
26.87464887656421
 20
122.1938113892625
 30
0.0
  0
ENDBLK
  5
F9C
330
F8F
100
AcDbEntity
  8
0
100
AcDbBlockEnd
  0
BLOCK
  5
FA7
330
F9D
100
AcDbEntity
  8
0
100
AcDbBlockBegin
  2
*D3
 70
     1
 10
0.0
 20
0.0
 30
0.0
  3
*D3
  1

  0
LINE
  5
23E8
330
F9D
100
AcDbEntity
  8
AM_PARDIM
100
AcDbLine
 10
38.8746488765642
 20
124.5938113892625
 30
0.0
 11
38.8746488765642
 21
142.4938113892625
 31
0.0
  0
LINE
  5
23E9
330
F9D
100
AcDbEntity
  8
AM_PARDIM
100
AcDbLine
 10
50.87464887656421
 20
124.5938113892625
 30
0.0
 11
50.87464887656421
 21
142.4938113892625
 31
0.0
  0
LINE
  5
23EA
330
F9D
100
AcDbEntity
  8
AM_PARDIM
100
AcDbLine
 10
42.47464887656421
 20
140.6938113892624
 30
0.0
 11
47.2746488765642
 21
140.6938113892624
 31
0.0
  0
SOLID
  5
23EB
330
F9D
100
AcDbEntity
  8
AM_PARDIM
100
AcDbTrace
 10
42.47464887656421
 20
141.2938113892624
 30
0.0
 11
42.47464887656421
 21
140.0938113892624
 31
0.0
 12
38.8746488765642
 22
140.6938113892624
 32
0.0
 13
38.8746488765642
 23
140.6938113892624
 33
0.0
  0
SOLID
  5
23EC
330
F9D
100
AcDbEntity
  8
AM_PARDIM
100
AcDbTrace
 10
47.2746488765642
 20
141.2938113892624
 30
0.0
 11
47.2746488765642
 21
140.0938113892624
 31
0.0
 12
50.87464887656421
 22
140.6938113892624
 32
0.0
 13
50.87464887656421
 23
140.6938113892624
 33
0.0
  0
MTEXT
  5
23ED
330
F9D
100
AcDbEntity
  8
AM_PARDIM
100
AcDbMText
 10
44.87464887656421
 20
143.6941263498924
 30
0.0
 40
3.6
 41
0.0
 71
     5
 72
     1
  1
12
  7
CHINA
1001
ACAD
1000
MTEXTBEGIN
1070
    73
1070
     1
1070
    44
1040
1.0
1070
    74
1070
     0
1000
MTEXTEND
  0
POINT
  5
23EE
330
F9D
100
AcDbEntity
  8
DEFPOINTS
 62
     0
100
AcDbPoint
 10
38.8746488765642
 20
122.1938113892624
 30
0.0
  0
POINT
  5
23EF
330
F9D
100
AcDbEntity
  8
DEFPOINTS
 62
     0
100
AcDbPoint
 10
50.87464887656421
 20
122.1938113892624
 30
0.0
  0
POINT
  5
23F0
330
F9D
100
AcDbEntity
  8
DEFPOINTS
 62
     0
100
AcDbPoint
 10
50.87464887656421
 20
140.6938113892624
 30
0.0
  0
ENDBLK
  5
FA8
330
F9D
100
AcDbEntity
  8
0
100
AcDbBlockEnd
  0
BLOCK
  5
FB3
330
FA9
100
AcDbEntity
  8
0
100
AcDbBlockBegin
  2
*D4
 70
     1
 10
0.0
 20
0.0
 30
0.0
  3
*D4
  1

  0
LINE
  5
23F1
330
FA9
100
AcDbEntity
  8
AM_PARDIM
100
AcDbLine
 10
38.8746488765642
 20
118.5938113892625
 30
0.0
 11
38.8746488765642
 21
162.4938113892624
 31
0.0
  0
LINE
  5
23F2
330
FA9
100
AcDbEntity
  8
AM_PARDIM
100
AcDbLine
 10
75.37464887656421
 20
118.5938113892625
 30
0.0
 11
75.37464887656421
 21
162.4938113892624
 31
0.0
  0
LINE
  5
23F3
330
FA9
100
AcDbEntity
  8
AM_PARDIM
100
AcDbLine
 10
42.47464887656421
 20
160.6938113892624
 30
0.0
 11
71.77464887656421
 21
160.6938113892624
 31
0.0
  0
SOLID
  5
23F4
330
FA9
100
AcDbEntity
  8
AM_PARDIM
100
AcDbTrace
 10
42.47464887656421
 20
161.2938113892624
 30
0.0
 11
42.47464887656421
 21
160.0938113892625
 31
0.0
 12
38.8746488765642
 22
160.6938113892624
 32
0.0
 13
38.8746488765642
 23
160.6938113892624
 33
0.0
  0
SOLID
  5
23F5
330
FA9
100
AcDbEntity
  8
AM_PARDIM
100
AcDbTrace
 10
71.77464887656421
 20
161.2938113892624
 30
0.0
 11
71.77464887656421
 21
160.0938113892625
 31
0.0
 12
75.37464887656421
 22
160.6938113892624
 32
0.0
 13
75.37464887656421
 23
160.6938113892624
 33
0.0
  0
MTEXT
  5
23F6
330
FA9
100
AcDbEntity
  8
AM_PARDIM
100
AcDbMText
 10
57.12464887656421
 20
163.7032602081601
 30
0.0
 40
3.6
 41
0.0
 71
     5
 72
     1
  1
36.5
  7
CHINA
1001
ACAD
1000
MTEXTBEGIN
1070
    73
1070
     1
1070
    44
1040
1.0
1070
    74
1070
     0
1000
MTEXTEND
  0
POINT
  5
23F7
330
FA9
100
AcDbEntity
  8
DEFPOINTS
 62
     0
100
AcDbPoint
 10
38.8746488765642
 20
116.1938113892625
 30
0.0
  0
POINT
  5
23F8
330
FA9
100
AcDbEntity
  8
DEFPOINTS
 62
     0
100
AcDbPoint
 10
75.37464887656421
 20
116.1938113892625
 30
0.0
  0
POINT
  5
23F9
330
FA9
100
AcDbEntity
  8
DEFPOINTS
 62
     0
100
AcDbPoint
 10
75.37464887656421
 20
160.6938113892624
 30
0.0
  0
ENDBLK
  5
FB4
330
FA9
100
AcDbEntity
  8
0
100
AcDbBlockEnd
  0
BLOCK
  5
FBF
330
FB5
100
AcDbEntity
  8
0
100
AcDbBlockBegin
  2
*D5
 70
     1
 10
0.0
 20
0.0
 30
0.0
  3
*D5
  1

  0
LINE
  5
23FA
330
FB5
100
AcDbEntity
  8
AM_PARDIM
100
AcDbLine
 10
53.27464887656421
 20
127.1938113892624
 30
0.0
 11
106.3325708695175
 21
127.1938113892624
 31
0.0
  0
LINE
  5
23FB
330
FB5
100
AcDbEntity
  8
AM_PARDIM
100
AcDbLine
 10
77.77464887656421
 20
116.1938113892625
 30
0.0
 11
106.3325708695175
 21
116.1938113892624
 31
0.0
  0
LINE
  5
23FC
330
FB5
100
AcDbEntity
  8
AM_PARDIM
100
AcDbLine
 10
104.5325708695175
 20
123.5938113892624
 30
0.0
 11
104.5325708695175
 21
119.7938113892624
 31
0.0
  0
SOLID
  5
23FD
330
FB5
100
AcDbEntity
  8
AM_PARDIM
100
AcDbTrace
 10
103.9325708695175
 20
123.5938113892624
 30
0.0
 11
105.1325708695175
 21
123.5938113892624
 31
0.0
 12
104.5325708695175
 22
127.1938113892624
 32
0.0
 13
104.5325708695175
 23
127.1938113892624
 33
0.0
  0
SOLID
  5
23FE
330
FB5
100
AcDbEntity
  8
AM_PARDIM
100
AcDbTrace
 10
103.9325708695175
 20
119.7938113892624
 30
0.0
 11
105.1325708695175
 21
119.7938113892624
 31
0.0
 12
104.5325708695175
 22
116.1938113892624
 32
0.0
 13
104.5325708695175
 23
116.1938113892624
 33
0.0
  0
MTEXT
  5
23FF
330
FB5
100
AcDbEntity
  8
AM_PARDIM
100
AcDbMText
 10
101.5325708695175
 20
121.6938113892625
 30
0.0
 40
3.6
 41
0.0
 71
     5
 72
     1
  1
11
  7
CHINA
 11
0.0000000000000001
 21
1.0
 31
0.0
1001
ACAD
1000
MTEXTBEGIN
1070
    73
1070
     1
1070
    44
1040
1.0
1070
    74
1070
     0
1000
MTEXTEND
  0
POINT
  5
2400
330
FB5
100
AcDbEntity
  8
DEFPOINTS
 62
     0
100
AcDbPoint
 10
50.87464887656421
 20
127.1938113892624
 30
0.0
  0
POINT
  5
2401
330
FB5
100
AcDbEntity
  8
DEFPOINTS
 62
     0
100
AcDbPoint
 10
75.37464887656421
 20
116.1938113892625
 30
0.0
  0
POINT
  5
2402
330
FB5
100
AcDbEntity
  8
DEFPOINTS
 62
     0
100
AcDbPoint
 10
104.5325708695175
 20
116.1938113892624
 30
0.0
  0
ENDBLK
  5
FC0
330
FB5
100
AcDbEntity
  8
0
100
AcDbBlockEnd
  0
BLOCK
  5
FCB
330
FC1
100
AcDbEntity
  8
0
100
AcDbBlockBegin
  2
*D6
 70
     1
 10
0.0
 20
0.0
 30
0.0
  3
*D6
  1

  0
LINE
  5
2403
330
FC1
100
AcDbEntity
  8
AM_PARDIM
100
AcDbLine
 10
66.3746488765642
 20
131.0938113892625
 30
0.0
 11
66.3746488765642
 21
152.4938113892624
 31
0.0
  0
LINE
  5
2404
330
FC1
100
AcDbEntity
  8
AM_PARDIM
100
AcDbLine
 10
75.37464887656421
 20
131.0938113892625
 30
0.0
 11
75.37464887656421
 21
152.4938113892624
 31
0.0
  0
LINE
  5
2405
330
FC1
100
AcDbEntity
  8
AM_PARDIM
100
AcDbLine
 10
62.77464887656421
 20
150.6938113892624
 30
0.0
 11
59.17464887656421
 21
150.6938113892624
 31
0.0
  0
LINE
  5
2406
330
FC1
100
AcDbEntity
  8
AM_PARDIM
100
AcDbLine
 10
78.9746488765642
 20
150.6938113892624
 30
0.0
 11
82.57464887656421
 21
150.6938113892624
 31
0.0
  0
LINE
  5
2407
330
FC1
100
AcDbEntity
  8
AM_PARDIM
100
AcDbLine
 10
66.3746488765642
 20
150.6938113892624
 30
0.0
 11
75.37464887656421
 21
150.6938113892624
 31
0.0
  0
SOLID
  5
2408
330
FC1
100
AcDbEntity
  8
AM_PARDIM
100
AcDbTrace
 10
62.77464887656421
 20
151.2938113892625
 30
0.0
 11
62.77464887656421
 21
150.0938113892624
 31
0.0
 12
66.3746488765642
 22
150.6938113892624
 32
0.0
 13
66.3746488765642
 23
150.6938113892624
 33
0.0
  0
SOLID
  5
2409
330
FC1
100
AcDbEntity
  8
AM_PARDIM
100
AcDbTrace
 10
78.9746488765642
 20
151.2938113892625
 30
0.0
 11
78.9746488765642
 21
150.0938113892624
 31
0.0
 12
75.37464887656421
 22
150.6938113892624
 32
0.0
 13
75.37464887656421
 23
150.6938113892624
 33
0.0
  0
MTEXT
  5
240A
330
FC1
100
AcDbEntity
  8
AM_PARDIM
100
AcDbMText
 10
70.87464887656421
 20
153.6938113892625
 30
0.0
 40
3.6
 41
0.0
 71
     5
 72
     1
  1
9
  7
CHINA
1001
ACAD
1000
MTEXTBEGIN
1070
    73
1070
     1
1070
    44
1040
1.0
1070
    74
1070
     0
1000
MTEXTEND
  0
POINT
  5
240B
330
FC1
100
AcDbEntity
  8
DEFPOINTS
 62
     0
100
AcDbPoint
 10
66.3746488765642
 20
128.6938113892625
 30
0.0
  0
POINT
  5
240C
330
FC1
100
AcDbEntity
  8
DEFPOINTS
 62
     0
100
AcDbPoint
 10
75.37464887656421
 20
128.6938113892625
 30
0.0
  0
POINT
  5
240D
330
FC1
100
AcDbEntity
  8
DEFPOINTS
 62
     0
100
AcDbPoint
 10
75.37464887656421
 20
150.6938113892624
 30
0.0
  0
ENDBLK
  5
FCC
330
FC1
100
AcDbEntity
  8
0
100
AcDbBlockEnd
  0
BLOCK
  5
FD9
330
FCD
100
AcDbEntity
  8
0
100
AcDbBlockBegin
  2
*D7
 70
     1
 10
0.0
 20
0.0
 30
0.0
  3
*D7
  1

  0
LINE
  5
240E
330
FCD
100
AcDbEntity
  8
AM_PARDIM
100
AcDbLine
 10
63.87464887656418
 20
131.0938113892624
 30
0.0
 11
63.87464887656418
 21
142.4938113892625
 31
0.0
  0
LINE
  5
240F
330
FCD
100
AcDbEntity
  8
AM_PARDIM
100
AcDbLine
 10
66.37464887656418
 20
131.0938113892624
 30
0.0
 11
66.37464887656418
 21
142.4938113892625
 31
0.0
  0
LINE
  5
2410
330
FCD
100
AcDbEntity
  8
AM_PARDIM
100
AcDbLine
 10
60.27464887656417
 20
140.6938113892624
 30
0.0
 11
56.67464887656418
 21
140.6938113892624
 31
0.0
  0
LINE
  5
2411
330
FCD
100
AcDbEntity
  8
AM_PARDIM
100
AcDbLine
 10
69.97464887656417
 20
140.6938113892624
 30
0.0
 11
82.1056724986114
 21
140.6938113892624
 31
0.0
  0
LINE
  5
2412
330
FCD
100
AcDbEntity
  8
AM_PARDIM
100
AcDbLine
 10
63.87464887656418
 20
140.6938113892624
 30
0.0
 11
66.37464887656418
 21
140.6938113892624
 31
0.0
  0
SOLID
  5
2413
330
FCD
100
AcDbEntity
  8
AM_PARDIM
100
AcDbTrace
 10
60.27464887656417
 20
141.2938113892624
 30
0.0
 11
60.27464887656417
 21
140.0938113892624
 31
0.0
 12
63.87464887656418
 22
140.6938113892624
 32
0.0
 13
63.87464887656418
 23
140.6938113892624
 33
0.0
  0
SOLID
  5
2414
330
FCD
100
AcDbEntity
  8
AM_PARDIM
100
AcDbTrace
 10
69.97464887656417
 20
141.2938113892624
 30
0.0
 11
69.97464887656417
 21
140.0938113892624
 31
0.0
 12
66.37464887656418
 22
140.6938113892624
 32
0.0
 13
66.37464887656418
 23
140.6938113892624
 33
0.0
  0
MTEXT
  5
2415
330
FCD
100
AcDbEntity
  8
AM_PARDIM
100
AcDbMText
 10
77.8401606875878
 20
143.70357516879
 30
0.0
 40
3.6
 41
0.0
 71
     5
 72
     1
  1
2.5
  7
CHINA
1001
ACAD
1000
MTEXTBEGIN
1070
    73
1070
     1
1070
    44
1040
1.0
1070
    74
1070
     0
1000
MTEXTEND
  0
POINT
  5
2416
330
FCD
100
AcDbEntity
  8
DEFPOINTS
 62
     0
100
AcDbPoint
 10
63.87464887656418
 20
128.6938113892624
 30
0.0
  0
POINT
  5
2417
330
FCD
100
AcDbEntity
  8
DEFPOINTS
 62
     0
100
AcDbPoint
 10
66.37464887656418
 20
128.6938113892624
 30
0.0
  0
POINT
  5
2418
330
FCD
100
AcDbEntity
  8
DEFPOINTS
 62
     0
100
AcDbPoint
 10
66.37464887656418
 20
140.6938113892624
 30
0.0
  0
ENDBLK
  5
FDA
330
FCD
100
AcDbEntity
  8
0
100
AcDbBlockEnd
  0
BLOCK
  5
FE6
330
FDB
100
AcDbEntity
  8
0
100
AcDbBlockBegin
  2
*D8
 70
     1
 10
0.0
 20
0.0
 30
0.0
  3
*D8
  1

  0
LINE
  5
2419
330
FDB
100
AcDbEntity
  8
AM_PARDIM
100
AcDbLine
 10
66.37464887656418
 20
131.0938113892624
 30
0.0
 11
66.37464887656418
 21
137.830378563861
 31
0.0
  0
LINE
  5
241A
330
FDB
100
AcDbEntity
  8
AM_PARDIM
100
AcDbLine
 10
66.37464887656418
 20
118.5938113892624
 30
0.0
 11
66.37464887656418
 21
137.830378563861
 31
0.0
  0
LINE
  5
241B
330
FDB
100
AcDbEntity
  8
AM_PARDIM
100
AcDbLine
 10
62.77464887656417
 20
136.030378563861
 30
0.0
 11
59.17464887656418
 21
136.030378563861
 31
0.0
  0
LINE
  5
241C
330
FDB
100
AcDbEntity
  8
AM_PARDIM
100
AcDbLine
 10
69.97464887656417
 20
136.030378563861
 30
0.0
 11
77.89464887656419
 21
136.030378563861
 31
0.0
  0
SOLID
  5
241D
330
FDB
100
AcDbEntity
  8
AM_PARDIM
100
AcDbTrace
 10
62.77464887656417
 20
136.630378563861
 30
0.0
 11
62.77464887656417
 21
135.430378563861
 31
0.0
 12
66.37464887656418
 22
136.030378563861
 32
0.0
 13
66.37464887656418
 23
136.030378563861
 33
0.0
  0
SOLID
  5
241E
330
FDB
100
AcDbEntity
  8
AM_PARDIM
100
AcDbTrace
 10
69.97464887656417
 20
136.630378563861
 30
0.0
 11
69.97464887656417
 21
135.430378563861
 31
0.0
 12
66.37464887656418
 22
136.030378563861
 32
0.0
 13
66.37464887656418
 23
136.030378563861
 33
0.0
  0
MTEXT
  5
241F
330
FDB
100
AcDbEntity
  8
AM_PARDIM
100
AcDbMText
 10
75.73464887656418
 20
139.030378563861
 30
0.0
 40
3.6
 41
0.0
 71
     5
 72
     1
  1
0
  7
CHINA
1001
ACAD
1000
MTEXTBEGIN
1070
    73
1070
     1
1070
    44
1040
1.0
1070
    74
1070
     0
1000
MTEXTEND
  0
POINT
  5
2420
330
FDB
100
AcDbEntity
  8
DEFPOINTS
 62
     0
100
AcDbPoint
 10
66.37464887656418
 20
128.6938113892624
 30
0.0
  0
POINT
  5
2421
330
FDB
100
AcDbEntity
  8
DEFPOINTS
 62
     0
100
AcDbPoint
 10
66.37464887656418
 20
116.1938113892624
 30
0.0
  0
POINT
  5
2422
330
FDB
100
AcDbEntity
  8
DEFPOINTS
 62
     0
100
AcDbPoint
 10
66.37464887656418
 20
136.030378563861
 30
0.0
  0
ENDBLK
  5
FE7
330
FDB
100
AcDbEntity
  8
0
100
AcDbBlockEnd
  0
BLOCK
  5
FF2
330
FE8
100
AcDbEntity
  8
0
100
AcDbBlockBegin
  2
*D9
 70
     1
 10
0.0
 20
0.0
 30
0.0
  3
*D9
  1

  0
LINE
  5
2423
330
FE8
100
AcDbEntity
  8
AM_PARDIM
100
AcDbLine
 10
66.27464887656419
 20
125.6938113892624
 30
0.0
 11
96.33257086951754
 21
125.6938113892624
 31
0.0
  0
LINE
  5
2424
330
FE8
100
AcDbEntity
  8
AM_PARDIM
100
AcDbLine
 10
84.93257086951755
 20
116.1938113892624
 30
0.0
 11
96.33257086951754
 21
116.1938113892624
 31
0.0
  0
LINE
  5
2425
330
FE8
100
AcDbEntity
  8
AM_PARDIM
100
AcDbLine
 10
94.53257086951754
 20
129.2938113892624
 30
0.0
 11
94.53257086951754
 21
132.8938113892624
 31
0.0
  0
LINE
  5
2426
330
FE8
100
AcDbEntity
  8
AM_PARDIM
100
AcDbLine
 10
94.53257086951754
 20
112.5938113892624
 30
0.0
 11
94.53257086951754
 21
108.9938113892624
 31
0.0
  0
LINE
  5
2427
330
FE8
100
AcDbEntity
  8
AM_PARDIM
100
AcDbLine
 10
94.53257086951754
 20
125.6938113892624
 30
0.0
 11
94.53257086951754
 21
116.1938113892624
 31
0.0
  0
SOLID
  5
2428
330
FE8
100
AcDbEntity
  8
AM_PARDIM
100
AcDbTrace
 10
93.93257086951754
 20
129.2938113892624
 30
0.0
 11
95.13257086951753
 21
129.2938113892624
 31
0.0
 12
94.53257086951754
 22
125.6938113892624
 32
0.0
 13
94.53257086951754
 23
125.6938113892624
 33
0.0
  0
SOLID
  5
2429
330
FE8
100
AcDbEntity
  8
AM_PARDIM
100
AcDbTrace
 10
93.93257086951754
 20
112.5938113892624
 30
0.0
 11
95.13257086951753
 21
112.5938113892624
 31
0.0
 12
94.53257086951754
 22
116.1938113892624
 32
0.0
 13
94.53257086951754
 23
116.1938113892624
 33
0.0
  0
MTEXT
  5
242A
330
FE8
100
AcDbEntity
  8
AM_PARDIM
100
AcDbMText
 10
91.52312205061988
 20
120.9438113892624
 30
0.0
 40
3.6
 41
0.0
 71
     5
 72
     1
  1
9.5
  7
CHINA
 11
0.0000000000000001
 21
1.0
 31
0.0
1001
ACAD
1000
MTEXTBEGIN
1070
    73
1070
     1
1070
    44
1040
1.0
1070
    74
1070
     0
1000
MTEXTEND
  0
POINT
  5
242B
330
FE8
100
AcDbEntity
  8
DEFPOINTS
 62
     0
100
AcDbPoint
 10
63.87464887656418
 20
125.6938113892624
 30
0.0
  0
POINT
  5
242C
330
FE8
100
AcDbEntity
  8
DEFPOINTS
 62
     0
100
AcDbPoint
 10
82.53257086951753
 20
116.1938113892624
 30
0.0
  0
POINT
  5
242D
330
FE8
100
AcDbEntity
  8
DEFPOINTS
 62
     0
100
AcDbPoint
 10
94.53257086951754
 20
116.1938113892624
 30
0.0
  0
ENDBLK
  5
FF3
330
FE8
100
AcDbEntity
  8
0
100
AcDbBlockEnd
  0
BLOCK
  5
FFE
330
FF4
100
AcDbEntity
  8
0
100
AcDbBlockBegin
  2
*D10
 70
     1
 10
0.0
 20
0.0
 30
0.0
  3
*D10
  1

  0
LINE
  5
242E
330
FF4
100
AcDbEntity
  8
AM_PARDIM
100
AcDbLine
 10
68.77464887656419
 20
128.6938113892624
 30
0.0
 11
126.3325708695175
 21
128.6938113892624
 31
0.0
  0
LINE
  5
242F
330
FF4
100
AcDbEntity
  8
AM_PARDIM
100
AcDbLine
 10
84.93257086951755
 20
116.1938113892624
 30
0.0
 11
126.3325708695175
 21
116.1938113892624
 31
0.0
  0
LINE
  5
2430
330
FF4
100
AcDbEntity
  8
AM_PARDIM
100
AcDbLine
 10
124.5325708695175
 20
125.0938113892624
 30
0.0
 11
124.5325708695175
 21
119.7938113892624
 31
0.0
  0
SOLID
  5
2431
330
FF4
100
AcDbEntity
  8
AM_PARDIM
100
AcDbTrace
 10
123.9325708695175
 20
125.0938113892624
 30
0.0
 11
125.1325708695175
 21
125.0938113892624
 31
0.0
 12
124.5325708695175
 22
128.6938113892624
 32
0.0
 13
124.5325708695175
 23
128.6938113892624
 33
0.0
  0
SOLID
  5
2432
330
FF4
100
AcDbEntity
  8
AM_PARDIM
100
AcDbTrace
 10
123.9325708695175
 20
119.7938113892624
 30
0.0
 11
125.1325708695175
 21
119.7938113892624
 31
0.0
 12
124.5325708695175
 22
116.1938113892624
 32
0.0
 13
124.5325708695175
 23
116.1938113892624
 33
0.0
  0
MTEXT
  5
2433
330
FF4
100
AcDbEntity
  8
AM_PARDIM
100
AcDbMText
 10
121.5228070899899
 20
122.4438113892624
 30
0.0
 40
3.6
 41
0.0
 71
     5
 72
     1
  1
12.5
  7
CHINA
 11
0.0000000000000001
 21
1.0
 31
0.0
1001
ACAD
1000
MTEXTBEGIN
1070
    73
1070
     1
1070
    44
1040
1.0
1070
    74
1070
     0
1000
MTEXTEND
  0
POINT
  5
2434
330
FF4
100
AcDbEntity
  8
DEFPOINTS
 62
     0
100
AcDbPoint
 10
66.37464887656418
 20
128.6938113892624
 30
0.0
  0
POINT
  5
2435
330
FF4
100
AcDbEntity
  8
DEFPOINTS
 62
     0
100
AcDbPoint
 10
82.53257086951753
 20
116.1938113892624
 30
0.0
  0
POINT
  5
2436
330
FF4
100
AcDbEntity
  8
DEFPOINTS
 62
     0
100
AcDbPoint
 10
124.5325708695175
 20
116.1938113892624
 30
0.0
  0
ENDBLK
  5
FFF
330
FF4
100
AcDbEntity
  8
0
100
AcDbBlockEnd
  0
BLOCK
  5
1D99
330
1D96
100
AcDbEntity
  8
0
100
AcDbBlockBegin
  2
GENDOT
 70
     0
 10
0.0
 20
0.0
 30
0.0
  3
GENDOT
  1

  0
LINE
  5
1D97
330
1D96
100
AcDbEntity
  8
0
100
AcDbLine
 10
0.0
 20
0.0
 30
0.0
 11
-1.0
 21
0.0
 31
0.0
  0
POLYLINE
  5
1D98
330
1D96
100
AcDbEntity
  8
0
100
AcDb2dPolyline
 66
     1
 10
0.0
 20
0.0
 30
0.0
 70
     1
 40
0.25
 41
0.25
  0
VERTEX
  5
26E2
330
1D98
100
AcDbEntity
  8
0
100
AcDbVertex
100
AcDb2dVertex
 10
-0.125
 20
0.0
 30
0.0
 42
1.0
  0
VERTEX
  5
26E3
330
1D98
100
AcDbEntity
  8
0
100
AcDbVertex
100
AcDb2dVertex
 10
0.125
 20
0.0
 30
0.0
 42
1.0
  0
SEQEND
  5
26E4
330
1D98
100
AcDbEntity
  8
0
  0
ENDBLK
  5
1D9A
330
1D96
100
AcDbEntity
  8
0
100
AcDbBlockEnd
  0
BLOCK
  5
202B
330
2021
100
AcDbEntity
  8
0
100
AcDbBlockBegin
  2
*D12
 70
     1
 10
0.0
 20
0.0
 30
0.0
  3
*D12
  1

  0
LINE
  5
2437
330
2021
100
AcDbEntity
  8
AM_5
100
AcDbLine
 10
677.0614531010563
 20
388.4122902270356
 30
0.0
 11
696.7114531010563
 21
388.4122902270356
 31
0.0
  0
LINE
  5
2438
330
2021
100
AcDbEntity
  8
AM_5
100
AcDbLine
 10
677.0614531010563
 20
344.4122902270355
 30
0.0
 11
696.7114531010563
 21
344.4122902270355
 31
0.0
  0
LINE
  5
2439
330
2021
100
AcDbEntity
  8
AM_5
100
AcDbLine
 10
694.9114531010564
 20
384.8122902270355
 30
0.0
 11
694.9114531010564
 21
348.0122902270355
 31
0.0
  0
SOLID
  5
243A
330
2021
100
AcDbEntity
  8
AM_5
100
AcDbTrace
 10
694.3114531010563
 20
384.8122902270355
 30
0.0
 11
695.5114531010564
 21
384.8122902270355
 31
0.0
 12
694.9114531010564
 22
388.4122902270356
 32
0.0
 13
694.9114531010564
 23
388.4122902270356
 33
0.0
  0
SOLID
  5
243B
330
2021
100
AcDbEntity
  8
AM_5
100
AcDbTrace
 10
694.3114531010563
 20
348.0122902270355
 30
0.0
 11
695.5114531010564
 21
348.0122902270355
 31
0.0
 12
694.9114531010564
 22
344.4122902270355
 32
0.0
 13
694.9114531010564
 23
344.4122902270355
 33
0.0
  0
MTEXT
  5
243C
330
2021
100
AcDbEntity
  8
AM_5
100
AcDbMText
 10
691.9114531010563
 20
366.4122902270357
 30
0.0
 40
3.6
 41
0.0
 71
     5
 72
     1
  1
44
  7
CHINA
 11
0.0000000000000001
 21
1.0
 31
0.0
1001
ACAD
1000
MTEXTBEGIN
1070
    73
1070
     1
1070
    44
1040
1.0
1070
    74
1070
     0
1000
MTEXTEND
  0
POINT
  5
243D
330
2021
100
AcDbEntity
  8
DEFPOINTS
 62
     0
100
AcDbPoint
 10
674.6614531010564
 20
388.4122902270356
 30
0.0
  0
POINT
  5
243E
330
2021
100
AcDbEntity
  8
DEFPOINTS
 62
     0
100
AcDbPoint
 10
674.6614531010564
 20
344.4122902270355
 30
0.0
  0
POINT
  5
243F
330
2021
100
AcDbEntity
  8
DEFPOINTS
 62
     0
100
AcDbPoint
 10
694.9114531010564
 20
344.4122902270355
 30
0.0
  0
ENDBLK
  5
202C
330
2021
100
AcDbEntity
  8
0
100
AcDbBlockEnd
  0
BLOCK
  5
20AC
330
20A2
100
AcDbEntity
  8
0
100
AcDbBlockBegin
  2
*D13
 70
     1
 10
0.0
 20
0.0
 30
0.0
  3
*D13
  1

  0
LINE
  5
2440
330
20A2
100
AcDbEntity
  8
AM_5
100
AcDbLine
 10
660.3114531010564
 20
375.9122902270356
 30
0.0
 11
688.7114531010563
 21
375.9122902270356
 31
0.0
  0
LINE
  5
2441
330
20A2
100
AcDbEntity
  8
AM_5
100
AcDbLine
 10
660.3114531010564
 20
356.9122902270355
 30
0.0
 11
688.7114531010563
 21
356.9122902270355
 31
0.0
  0
LINE
  5
2442
330
20A2
100
AcDbEntity
  8
AM_5
100
AcDbLine
 10
686.9114531010564
 20
372.3122902270355
 30
0.0
 11
686.9114531010564
 21
360.5122902270355
 31
0.0
  0
SOLID
  5
2443
330
20A2
100
AcDbEntity
  8
AM_5
100
AcDbTrace
 10
686.3114531010563
 20
372.3122902270355
 30
0.0
 11
687.5114531010564
 21
372.3122902270355
 31
0.0
 12
686.9114531010564
 22
375.9122902270356
 32
0.0
 13
686.9114531010564
 23
375.9122902270356
 33
0.0
  0
SOLID
  5
2444
330
20A2
100
AcDbEntity
  8
AM_5
100
AcDbTrace
 10
686.3114531010563
 20
360.5122902270355
 30
0.0
 11
687.5114531010564
 21
360.5122902270355
 31
0.0
 12
686.9114531010564
 22
356.9122902270355
 32
0.0
 13
686.9114531010564
 23
356.9122902270355
 33
0.0
  0
MTEXT
  5
2445
330
20A2
100
AcDbEntity
  8
AM_5
100
AcDbMText
 10
683.9114531010562
 20
366.4122902270357
 30
0.0
 40
3.6
 41
0.0
 71
     5
 72
     1
  1
19
  7
CHINA
 11
0.0000000000000001
 21
1.0
 31
0.0
1001
ACAD
1000
MTEXTBEGIN
1070
    73
1070
     1
1070
    44
1040
1.0
1070
    74
1070
     0
1000
MTEXTEND
  0
POINT
  5
2446
330
20A2
100
AcDbEntity
  8
DEFPOINTS
 62
     0
100
AcDbPoint
 10
657.9114531010564
 20
375.9122902270356
 30
0.0
  0
POINT
  5
2447
330
20A2
100
AcDbEntity
  8
DEFPOINTS
 62
     0
100
AcDbPoint
 10
657.9114531010564
 20
356.9122902270355
 30
0.0
  0
POINT
  5
2448
330
20A2
100
AcDbEntity
  8
DEFPOINTS
 62
     0
100
AcDbPoint
 10
686.9114531010564
 20
356.9122902270355
 30
0.0
  0
ENDBLK
  5
20AD
330
20A2
100
AcDbEntity
  8
0
100
AcDbBlockEnd
  0
BLOCK
  5
20F3
330
20E9
100
AcDbEntity
  8
0
100
AcDbBlockBegin
  2
*D14
 70
     1
 10
0.0
 20
0.0
 30
0.0
  3
*D14
  1

  0
LINE
  5
2449
330
20E9
100
AcDbEntity
  8
AM_5
100
AcDbLine
 10
625.9114531010563
 20
337.2622902270355
 30
0.0
 11
625.9114531010563
 21
325.6122902270356
 31
0.0
  0
LINE
  5
244A
330
20E9
100
AcDbEntity
  8
AM_5
100
AcDbLine
 10
669.9114531010564
 20
337.2622902270355
 30
0.0
 11
669.9114531010564
 21
325.6122902270356
 31
0.0
  0
LINE
  5
244B
330
20E9
100
AcDbEntity
  8
AM_5
100
AcDbLine
 10
629.5114531010564
 20
327.4122902270356
 30
0.0
 11
666.3114531010563
 21
327.4122902270356
 31
0.0
  0
SOLID
  5
244C
330
20E9
100
AcDbEntity
  8
AM_5
100
AcDbTrace
 10
629.5114531010564
 20
328.0122902270356
 30
0.0
 11
629.5114531010564
 21
326.8122902270356
 31
0.0
 12
625.9114531010563
 22
327.4122902270356
 32
0.0
 13
625.9114531010563
 23
327.4122902270356
 33
0.0
  0
SOLID
  5
244D
330
20E9
100
AcDbEntity
  8
AM_5
100
AcDbTrace
 10
666.3114531010563
 20
328.0122902270356
 30
0.0
 11
666.3114531010563
 21
326.8122902270356
 31
0.0
 12
669.9114531010564
 22
327.4122902270356
 32
0.0
 13
669.9114531010564
 23
327.4122902270356
 33
0.0
  0
MTEXT
  5
244E
330
20E9
100
AcDbEntity
  8
AM_5
100
AcDbMText
 10
647.9114531010564
 20
330.4122902270356
 30
0.0
 40
3.6
 41
0.0
 71
     5
 72
     1
  1
44
  7
CHINA
1001
ACAD
1000
MTEXTBEGIN
1070
    73
1070
     1
1070
    44
1040
1.0
1070
    74
1070
     0
1000
MTEXTEND
  0
POINT
  5
244F
330
20E9
100
AcDbEntity
  8
DEFPOINTS
 62
     0
100
AcDbPoint
 10
625.9114531010563
 20
339.6622902270355
 30
0.0
  0
POINT
  5
2450
330
20E9
100
AcDbEntity
  8
DEFPOINTS
 62
     0
100
AcDbPoint
 10
669.9114531010564
 20
339.6622902270355
 30
0.0
  0
POINT
  5
2451
330
20E9
100
AcDbEntity
  8
DEFPOINTS
 62
     0
100
AcDbPoint
 10
669.9114531010564
 20
327.4122902270356
 30
0.0
  0
ENDBLK
  5
20F4
330
20E9
100
AcDbEntity
  8
0
100
AcDbBlockEnd
  0
BLOCK
  5
212B
330
2121
100
AcDbEntity
  8
0
100
AcDbBlockBegin
  2
*D15
 70
     1
 10
0.0
 20
0.0
 30
0.0
  3
*D15
  1

  0
LINE
  5
25CA
330
2121
100
AcDbEntity
  8
AM_5
100
AcDbLine
 10
620.9114531010563
 20
339.0122902270356
 30
0.0
 11
620.9114531010563
 21
317.6122902270356
 31
0.0
  0
LINE
  5
25CB
330
2121
100
AcDbEntity
  8
AM_5
100
AcDbLine
 10
674.9114531010564
 20
339.0122902270356
 30
0.0
 11
674.9114531010564
 21
317.6122902270356
 31
0.0
  0
LINE
  5
25CC
330
2121
100
AcDbEntity
  8
AM_5
100
AcDbLine
 10
624.5114531010564
 20
319.4122902270356
 30
0.0
 11
671.3114531010563
 21
319.4122902270356
 31
0.0
  0
SOLID
  5
25CD
330
2121
100
AcDbEntity
  8
AM_5
100
AcDbTrace
 10
624.5114531010564
 20
320.0122902270356
 30
0.0
 11
624.5114531010564
 21
318.8122902270356
 31
0.0
 12
620.9114531010563
 22
319.4122902270356
 32
0.0
 13
620.9114531010563
 23
319.4122902270356
 33
0.0
  0
SOLID
  5
25CE
330
2121
100
AcDbEntity
  8
AM_5
100
AcDbTrace
 10
671.3114531010563
 20
320.0122902270356
 30
0.0
 11
671.3114531010563
 21
318.8122902270356
 31
0.0
 12
674.9114531010564
 22
319.4122902270356
 32
0.0
 13
674.9114531010564
 23
319.4122902270356
 33
0.0
  0
MTEXT
  5
25CF
330
2121
100
AcDbEntity
  8
AM_5
100
AcDbMText
 10
647.9114531010564
 20
322.4217390459332
 30
0.0
 40
3.6
 41
0.0
 71
     5
 72
     1
  1
{\Famgdt;o}54
  7
CHINA
1001
ACAD
1000
MTEXTBEGIN
1070
    73
1070
     1
1070
    44
1040
1.0
1070
    74
1070
     0
1000
MTEXTEND
  0
POINT
  5
25D0
330
2121
100
AcDbEntity
  8
DEFPOINTS
 62
     0
100
AcDbPoint
 10
620.9114531010563
 20
341.4122902270355
 30
0.0
  0
POINT
  5
25D1
330
2121
100
AcDbEntity
  8
DEFPOINTS
 62
     0
100
AcDbPoint
 10
674.9114531010564
 20
341.4122902270355
 30
0.0
  0
POINT
  5
25D2
330
2121
100
AcDbEntity
  8
DEFPOINTS
 62
     0
100
AcDbPoint
 10
674.9114531010564
 20
319.4122902270356
 30
0.0
  0
ENDBLK
  5
212C
330
2121
100
AcDbEntity
  8
0
100
AcDbBlockEnd
  0
BLOCK
  5
2163
330
2159
100
AcDbEntity
  8
0
100
AcDbBlockBegin
  2
*D16
 70
     1
 10
0.0
 20
0.0
 30
0.0
  3
*D16
  1

  0
LINE
  5
24DD
330
2159
100
AcDbEntity
  8
AM_5
100
AcDbLine
 10
676.3114531010564
 20
154.6882746016988
 30
0.0
 11
688.7114531010563
 21
154.6882746016988
 31
0.0
  0
LINE
  5
24DE
330
2159
100
AcDbEntity
  8
AM_5
100
AcDbLine
 10
676.8114531010564
 20
177.6882746016988
 30
0.0
 11
688.7114531010563
 21
177.6882746016988
 31
0.0
  0
LINE
  5
24DF
330
2159
100
AcDbEntity
  8
AM_5
100
AcDbLine
 10
686.9114531010564
 20
158.2882746016988
 30
0.0
 11
686.9114531010564
 21
174.0882746016988
 31
0.0
  0
SOLID
  5
24E0
330
2159
100
AcDbEntity
  8
AM_5
100
AcDbTrace
 10
686.3114531010563
 20
158.2882746016988
 30
0.0
 11
687.5114531010564
 21
158.2882746016988
 31
0.0
 12
686.9114531010564
 22
154.6882746016988
 32
0.0
 13
686.9114531010564
 23
154.6882746016988
 33
0.0
  0
SOLID
  5
24E1
330
2159
100
AcDbEntity
  8
AM_5
100
AcDbTrace
 10
686.3114531010563
 20
174.0882746016988
 30
0.0
 11
687.5114531010564
 21
174.0882746016988
 31
0.0
 12
686.9114531010564
 22
177.6882746016988
 32
0.0
 13
686.9114531010564
 23
177.6882746016988
 33
0.0
  0
MTEXT
  5
24E2
330
2159
100
AcDbEntity
  8
AM_5
100
AcDbMText
 10
683.9111381404265
 20
166.1882746016989
 30
0.0
 40
3.6
 41
0.0
 71
     5
 72
     1
  1
23
  7
CHINA
 11
0.0000000000000001
 21
1.0
 31
0.0
1001
ACAD
1000
MTEXTBEGIN
1070
    73
1070
     1
1070
    44
1040
1.0
1070
    74
1070
     0
1000
MTEXTEND
  0
POINT
  5
24E3
330
2159
100
AcDbEntity
  8
DEFPOINTS
 62
     0
100
AcDbPoint
 10
673.9114531010564
 20
154.6882746016988
 30
0.0
  0
POINT
  5
24E4
330
2159
100
AcDbEntity
  8
DEFPOINTS
 62
     0
100
AcDbPoint
 10
674.4114531010564
 20
177.6882746016988
 30
0.0
  0
POINT
  5
24E5
330
2159
100
AcDbEntity
  8
DEFPOINTS
 62
     0
100
AcDbPoint
 10
686.9114531010564
 20
177.6882746016988
 30
0.0
  0
ENDBLK
  5
2164
330
2159
100
AcDbEntity
  8
0
100
AcDbBlockEnd
  0
BLOCK
  5
219B
330
2191
100
AcDbEntity
  8
0
100
AcDbBlockBegin
  2
*D17
 70
     1
 10
0.0
 20
0.0
 30
0.0
  3
*D17
  1

  0
LINE
  5
24D4
330
2191
100
AcDbEntity
  8
AM_5
100
AcDbLine
 10
676.3114531010564
 20
154.6882746016988
 30
0.0
 11
696.7114531010563
 21
154.6882746016988
 31
0.0
  0
LINE
  5
24D5
330
2191
100
AcDbEntity
  8
AM_5
100
AcDbLine
 10
673.3114531010564
 20
225.6882746016988
 30
0.0
 11
696.7114531010563
 21
225.6882746016988
 31
0.0
  0
LINE
  5
24D6
330
2191
100
AcDbEntity
  8
AM_5
100
AcDbLine
 10
694.9114531010564
 20
158.2882746016988
 30
0.0
 11
694.9114531010564
 21
222.0882746016988
 31
0.0
  0
SOLID
  5
24D7
330
2191
100
AcDbEntity
  8
AM_5
100
AcDbTrace
 10
694.3114531010563
 20
158.2882746016988
 30
0.0
 11
695.5114531010564
 21
158.2882746016988
 31
0.0
 12
694.9114531010564
 22
154.6882746016988
 32
0.0
 13
694.9114531010564
 23
154.6882746016988
 33
0.0
  0
SOLID
  5
24D8
330
2191
100
AcDbEntity
  8
AM_5
100
AcDbTrace
 10
694.3114531010563
 20
222.0882746016988
 30
0.0
 11
695.5114531010564
 21
222.0882746016988
 31
0.0
 12
694.9114531010564
 22
225.6882746016988
 32
0.0
 13
694.9114531010564
 23
225.6882746016988
 33
0.0
  0
MTEXT
  5
24D9
330
2191
100
AcDbEntity
  8
AM_5
100
AcDbMText
 10
691.9114531010563
 20
190.1882746016989
 30
0.0
 40
3.6
 41
0.0
 71
     5
 72
     1
  1
71
  7
CHINA
 11
0.0000000000000001
 21
1.0
 31
0.0
1001
ACAD
1000
MTEXTBEGIN
1070
    73
1070
     1
1070
    44
1040
1.0
1070
    74
1070
     0
1000
MTEXTEND
  0
POINT
  5
24DA
330
2191
100
AcDbEntity
  8
DEFPOINTS
 62
     0
100
AcDbPoint
 10
673.9114531010564
 20
154.6882746016988
 30
0.0
  0
POINT
  5
24DB
330
2191
100
AcDbEntity
  8
DEFPOINTS
 62
     0
100
AcDbPoint
 10
670.9114531010563
 20
225.6882746016988
 30
0.0
  0
POINT
  5
24DC
330
2191
100
AcDbEntity
  8
DEFPOINTS
 62
     0
100
AcDbPoint
 10
694.9114531010564
 20
225.6882746016988
 30
0.0
  0
ENDBLK
  5
219C
330
2191
100
AcDbEntity
  8
0
100
AcDbBlockEnd
  0
BLOCK
  5
21D3
330
21C9
100
AcDbEntity
  8
0
100
AcDbBlockBegin
  2
*D18
 70
     1
 10
0.0
 20
0.0
 30
0.0
  3
*D18
  1

  0
LINE
  5
24CB
330
21C9
100
AcDbEntity
  8
AM_5
100
AcDbLine
 10
676.3114531010564
 20
154.6882746016988
 30
0.0
 11
704.7114531010562
 21
154.6882746016988
 31
0.0
  0
LINE
  5
24CC
330
21C9
100
AcDbEntity
  8
AM_5
100
AcDbLine
 10
660.3114531010564
 20
257.1882746016988
 30
0.0
 11
704.7114531010564
 21
257.1882746016988
 31
0.0
  0
LINE
  5
24CD
330
21C9
100
AcDbEntity
  8
AM_5
100
AcDbLine
 10
702.9114531010563
 20
158.2882746016988
 30
0.0
 11
702.9114531010563
 21
253.5882746016988
 31
0.0
  0
SOLID
  5
24CE
330
21C9
100
AcDbEntity
  8
AM_5
100
AcDbTrace
 10
702.3114531010563
 20
158.2882746016988
 30
0.0
 11
703.5114531010563
 21
158.2882746016988
 31
0.0
 12
702.9114531010563
 22
154.6882746016988
 32
0.0
 13
702.9114531010563
 23
154.6882746016988
 33
0.0
  0
SOLID
  5
24CF
330
21C9
100
AcDbEntity
  8
AM_5
100
AcDbTrace
 10
702.3114531010563
 20
253.5882746016988
 30
0.0
 11
703.5114531010563
 21
253.5882746016988
 31
0.0
 12
702.9114531010564
 22
257.1882746016988
 32
0.0
 13
702.9114531010564
 23
257.1882746016988
 33
0.0
  0
MTEXT
  5
24D0
330
21C9
100
AcDbEntity
  8
AM_5
100
AcDbMText
 10
699.9016893215286
 20
205.9382746016989
 30
0.0
 40
3.6
 41
0.0
 71
     5
 72
     1
  1
102.5
  7
CHINA
 11
0.0000000000000001
 21
1.0
 31
0.0
1001
ACAD
1000
MTEXTBEGIN
1070
    73
1070
     1
1070
    44
1040
1.0
1070
    74
1070
     0
1000
MTEXTEND
  0
POINT
  5
24D1
330
21C9
100
AcDbEntity
  8
DEFPOINTS
 62
     0
100
AcDbPoint
 10
673.9114531010564
 20
154.6882746016988
 30
0.0
  0
POINT
  5
24D2
330
21C9
100
AcDbEntity
  8
DEFPOINTS
 62
     0
100
AcDbPoint
 10
657.9114531010564
 20
257.1882746016988
 30
0.0
  0
POINT
  5
24D3
330
21C9
100
AcDbEntity
  8
DEFPOINTS
 62
     0
100
AcDbPoint
 10
702.9114531010564
 20
257.1882746016988
 30
0.0
  0
ENDBLK
  5
21D4
330
21C9
100
AcDbEntity
  8
0
100
AcDbBlockEnd
  0
BLOCK
  5
220B
330
2201
100
AcDbEntity
  8
0
100
AcDbBlockBegin
  2
*D19
 70
     1
 10
0.0
 20
0.0
 30
0.0
  3
*D19
  1

  0
LINE
  5
2503
330
2201
100
AcDbEntity
  8
AM_5
100
AcDbLine
 10
660.3114531010564
 20
257.1882746016988
 30
0.0
 11
704.7114531010564
 21
257.1882746016988
 31
0.0
  0
LINE
  5
2504
330
2201
100
AcDbEntity
  8
AM_5
100
AcDbLine
 10
660.3114531010564
 20
276.1882746016988
 30
0.0
 11
704.7114531010564
 21
276.1882746016988
 31
0.0
  0
LINE
  5
2505
330
2201
100
AcDbEntity
  8
AM_5
100
AcDbLine
 10
702.9114531010564
 20
260.7882746016988
 30
0.0
 11
702.9114531010564
 21
272.5882746016988
 31
0.0
  0
SOLID
  5
2506
330
2201
100
AcDbEntity
  8
AM_5
100
AcDbTrace
 10
702.3114531010564
 20
260.7882746016988
 30
0.0
 11
703.5114531010564
 21
260.7882746016988
 31
0.0
 12
702.9114531010564
 22
257.1882746016988
 32
0.0
 13
702.9114531010564
 23
257.1882746016988
 33
0.0
  0
SOLID
  5
2507
330
2201
100
AcDbEntity
  8
AM_5
100
AcDbTrace
 10
702.3114531010564
 20
272.5882746016988
 30
0.0
 11
703.5114531010564
 21
272.5882746016988
 31
0.0
 12
702.9114531010564
 22
276.1882746016988
 32
0.0
 13
702.9114531010564
 23
276.1882746016988
 33
0.0
  0
MTEXT
  5
2508
330
2201
100
AcDbEntity
  8
AM_5
100
AcDbMText
 10
699.9114531010563
 20
266.6882746016989
 30
0.0
 40
3.6
 41
0.0
 71
     5
 72
     1
  1
19
  7
CHINA
 11
0.0000000000000001
 21
1.0
 31
0.0
1001
ACAD
1000
MTEXTBEGIN
1070
    73
1070
     1
1070
    44
1040
1.0
1070
    74
1070
     0
1000
MTEXTEND
  0
POINT
  5
2509
330
2201
100
AcDbEntity
  8
DEFPOINTS
 62
     0
100
AcDbPoint
 10
657.9114531010564
 20
257.1882746016988
 30
0.0
  0
POINT
  5
250A
330
2201
100
AcDbEntity
  8
DEFPOINTS
 62
     0
100
AcDbPoint
 10
657.9114531010564
 20
276.1882746016988
 30
0.0
  0
POINT
  5
250B
330
2201
100
AcDbEntity
  8
DEFPOINTS
 62
     0
100
AcDbPoint
 10
702.9114531010564
 20
276.1882746016988
 30
0.0
  0
ENDBLK
  5
220C
330
2201
100
AcDbEntity
  8
0
100
AcDbBlockEnd
  0
BLOCK
  5
2243
330
2239
100
AcDbEntity
  8
0
100
AcDbBlockBegin
  2
*D20
 70
     1
 10
0.0
 20
0.0
 30
0.0
  3
*D20
  1

  0
LINE
  5
24C2
330
2239
100
AcDbEntity
  8
AM_5
100
AcDbLine
 10
660.3114531010564
 20
276.1882746016988
 30
0.0
 11
712.7114531010565
 21
276.1882746016988
 31
0.0
  0
LINE
  5
24C3
330
2239
100
AcDbEntity
  8
AM_5
100
AcDbLine
 10
676.3114531010564
 20
154.6882746016988
 30
0.0
 11
712.7114531010563
 21
154.6882746016988
 31
0.0
  0
LINE
  5
24C4
330
2239
100
AcDbEntity
  8
AM_5
100
AcDbLine
 10
710.9114531010565
 20
272.5882746016988
 30
0.0
 11
710.9114531010564
 21
158.2882746016988
 31
0.0
  0
SOLID
  5
24C5
330
2239
100
AcDbEntity
  8
AM_5
100
AcDbTrace
 10
710.3114531010565
 20
272.5882746016988
 30
0.0
 11
711.5114531010565
 21
272.5882746016988
 31
0.0
 12
710.9114531010565
 22
276.1882746016988
 32
0.0
 13
710.9114531010565
 23
276.1882746016988
 33
0.0
  0
SOLID
  5
24C6
330
2239
100
AcDbEntity
  8
AM_5
100
AcDbTrace
 10
710.3114531010564
 20
158.2882746016988
 30
0.0
 11
711.5114531010564
 21
158.2882746016988
 31
0.0
 12
710.9114531010564
 22
154.6882746016988
 32
0.0
 13
710.9114531010564
 23
154.6882746016988
 33
0.0
  0
MTEXT
  5
24C7
330
2239
100
AcDbEntity
  8
AM_5
100
AcDbMText
 10
707.9016893215288
 20
215.4382746016989
 30
0.0
 40
3.6
 41
0.0
 71
     5
 72
     1
  1
121.5
  7
CHINA
 11
0.0000000000000001
 21
1.0
 31
0.0
1001
ACAD
1000
MTEXTBEGIN
1070
    73
1070
     1
1070
    44
1040
1.0
1070
    74
1070
     0
1000
MTEXTEND
  0
POINT
  5
24C8
330
2239
100
AcDbEntity
  8
DEFPOINTS
 62
     0
100
AcDbPoint
 10
657.9114531010564
 20
276.1882746016988
 30
0.0
  0
POINT
  5
24C9
330
2239
100
AcDbEntity
  8
DEFPOINTS
 62
     0
100
AcDbPoint
 10
673.9114531010564
 20
154.6882746016988
 30
0.0
  0
POINT
  5
24CA
330
2239
100
AcDbEntity
  8
DEFPOINTS
 62
     0
100
AcDbPoint
 10
710.9114531010564
 20
154.6882746016988
 30
0.0
  0
ENDBLK
  5
2244
330
2239
100
AcDbEntity
  8
0
100
AcDbBlockEnd
  0
BLOCK
  5
227F
330
2275
100
AcDbEntity
  8
0
100
AcDbBlockBegin
  2
*D21
 70
     1
 10
0.0
 20
0.0
 30
0.0
  3
*D21
  1

  0
LINE
  5
26E5
330
2275
100
AcDbEntity
  8
AM_5
100
AcDbLine
 10
588.9114531010563
 20
277.5882746016987
 30
0.0
 11
588.9114531010563
 21
289.9882746016988
 31
0.0
  0
LINE
  5
26E6
330
2275
100
AcDbEntity
  8
AM_5
100
AcDbLine
 10
597.9114531010564
 20
281.5435256016988
 30
0.0
 11
597.9114531010564
 21
289.9882746016988
 31
0.0
  0
LINE
  5
26E7
330
2275
100
AcDbEntity
  8
AM_5
100
AcDbLine
 10
585.3114531010564
 20
288.1882746016988
 30
0.0
 11
581.7114531010563
 21
288.1882746016988
 31
0.0
  0
LINE
  5
26E8
330
2275
100
AcDbEntity
  8
AM_5
100
AcDbLine
 10
601.5114531010564
 20
288.1882746016988
 30
0.0
 11
605.1114531010564
 21
288.1882746016988
 31
0.0
  0
LINE
  5
26E9
330
2275
100
AcDbEntity
  8
AM_5
100
AcDbLine
 10
588.9114531010563
 20
288.1882746016988
 30
0.0
 11
597.9114531010564
 21
288.1882746016988
 31
0.0
  0
SOLID
  5
26EA
330
2275
100
AcDbEntity
  8
AM_5
100
AcDbTrace
 10
585.3114531010564
 20
288.7882746016988
 30
0.0
 11
585.3114531010564
 21
287.5882746016987
 31
0.0
 12
588.9114531010563
 22
288.1882746016988
 32
0.0
 13
588.9114531010563
 23
288.1882746016988
 33
0.0
  0
INSERT
  5
26EB
330
2275
100
AcDbEntity
  8
AM_5
100
AcDbBlockReference
  2
GENDOT
 10
597.9114531010564
 20
288.1882746016988
 30
0.0
 41
3.6
 42
3.6
 43
3.6
 50
180.0
  0
MTEXT
  5
26EC
330
2275
100
AcDbEntity
  8
AM_5
100
AcDbMText
 10
593.4114531010563
 20
291.1882746016988
 30
0.0
 40
3.6
 41
0.0
 71
     5
 72
     1
  1
9
  7
CHINA
  0
POINT
  5
26ED
330
2275
100
AcDbEntity
  8
DEFPOINTS
 62
     0
100
AcDbPoint
 10
588.9114531010563
 20
275.1882746016988
 30
0.0
  0
POINT
  5
26EE
330
2275
100
AcDbEntity
  8
DEFPOINTS
 62
     0
100
AcDbPoint
 10
597.9114531010564
 20
279.1435256016988
 30
0.0
  0
POINT
  5
26EF
330
2275
100
AcDbEntity
  8
DEFPOINTS
 62
     0
100
AcDbPoint
 10
597.9114531010564
 20
288.1882746016988
 30
0.0
  0
ENDBLK
  5
2280
330
2275
100
AcDbEntity
  8
0
100
AcDbBlockEnd
  0
BLOCK
  5
22B7
330
22AD
100
AcDbEntity
  8
0
100
AcDbBlockBegin
  2
*D22
 70
     1
 10
0.0
 20
0.0
 30
0.0
  3
*D22
  1

  0
LINE
  5
26F0
330
22AD
100
AcDbEntity
  8
AM_5
100
AcDbLine
 10
597.9114531010564
 20
281.5435256016988
 30
0.0
 11
597.9114531010564
 21
289.9882746016988
 31
0.0
  0
LINE
  5
26F1
330
22AD
100
AcDbEntity
  8
AM_5
100
AcDbLine
 10
647.9114531010564
 20
280.9464336297454
 30
0.0
 11
647.9114531010564
 21
289.9882746016988
 31
0.0
  0
LINE
  5
26F2
330
22AD
100
AcDbEntity
  8
AM_5
100
AcDbLine
 10
601.5114531010564
 20
288.1882746016988
 30
0.0
 11
644.3114531010563
 21
288.1882746016988
 31
0.0
  0
INSERT
  5
26F3
330
22AD
100
AcDbEntity
  8
AM_5
100
AcDbBlockReference
  2
GENDOT
 10
597.9114531010564
 20
288.1882746016988
 30
0.0
 41
3.6
 42
3.6
 43
3.6
 50
180.0
  0
SOLID
  5
26F4
330
22AD
100
AcDbEntity
  8
AM_5
100
AcDbTrace
 10
644.3114531010563
 20
288.7882746016988
 30
0.0
 11
644.3114531010563
 21
287.5882746016987
 31
0.0
 12
647.9114531010564
 22
288.1882746016988
 32
0.0
 13
647.9114531010564
 23
288.1882746016988
 33
0.0
  0
MTEXT
  5
26F5
330
22AD
100
AcDbEntity
  8
AM_5
100
AcDbMText
 10
622.9114531010564
 20
291.1977234205964
 30
0.0
 40
3.6
 41
0.0
 71
     5
 72
     1
  1
50
  7
CHINA
  0
POINT
  5
26F6
330
22AD
100
AcDbEntity
  8
DEFPOINTS
 62
     0
100
AcDbPoint
 10
597.9114531010564
 20
279.1435256016988
 30
0.0
  0
POINT
  5
26F7
330
22AD
100
AcDbEntity
  8
DEFPOINTS
 62
     0
100
AcDbPoint
 10
647.9114531010564
 20
278.5464336297454
 30
0.0
  0
POINT
  5
26F8
330
22AD
100
AcDbEntity
  8
DEFPOINTS
 62
     0
100
AcDbPoint
 10
647.9114531010564
 20
288.1882746016988
 30
0.0
  0
ENDBLK
  5
22B8
330
22AD
100
AcDbEntity
  8
0
100
AcDbBlockEnd
  0
BLOCK
  5
22EF
330
22E5
100
AcDbEntity
  8
0
100
AcDbBlockBegin
  2
*D23
 70
     1
 10
0.0
 20
0.0
 30
0.0
  3
*D23
  1

  0
LINE
  5
24E6
330
22E5
100
AcDbEntity
  8
AM_5
100
AcDbLine
 10
588.9114531010563
 20
277.5882746016987
 30
0.0
 11
588.9114531010563
 21
297.9882746016988
 31
0.0
  0
LINE
  5
24E7
330
22E5
100
AcDbEntity
  8
AM_5
100
AcDbLine
 10
658.9114531010563
 20
277.5882746016987
 30
0.0
 11
658.9114531010563
 21
297.9882746016988
 31
0.0
  0
LINE
  5
24E8
330
22E5
100
AcDbEntity
  8
AM_5
100
AcDbLine
 10
592.5114531010564
 20
296.1882746016988
 30
0.0
 11
655.3114531010564
 21
296.1882746016988
 31
0.0
  0
SOLID
  5
24E9
330
22E5
100
AcDbEntity
  8
AM_5
100
AcDbTrace
 10
592.5114531010564
 20
296.7882746016988
 30
0.0
 11
592.5114531010564
 21
295.5882746016987
 31
0.0
 12
588.9114531010563
 22
296.1882746016988
 32
0.0
 13
588.9114531010563
 23
296.1882746016988
 33
0.0
  0
SOLID
  5
24EA
330
22E5
100
AcDbEntity
  8
AM_5
100
AcDbTrace
 10
655.3114531010564
 20
296.7882746016988
 30
0.0
 11
655.3114531010564
 21
295.5882746016987
 31
0.0
 12
658.9114531010563
 22
296.1882746016988
 32
0.0
 13
658.9114531010563
 23
296.1882746016988
 33
0.0
  0
MTEXT
  5
24EB
330
22E5
100
AcDbEntity
  8
AM_5
100
AcDbMText
 10
623.9114531010564
 20
299.1882746016988
 30
0.0
 40
3.6
 41
0.0
 71
     5
 72
     1
  1
70
  7
CHINA
1001
ACAD
1000
MTEXTBEGIN
1070
    73
1070
     1
1070
    44
1040
1.0
1070
    74
1070
     0
1000
MTEXTEND
  0
POINT
  5
24EC
330
22E5
100
AcDbEntity
  8
DEFPOINTS
 62
     0
100
AcDbPoint
 10
588.9114531010563
 20
275.1882746016988
 30
0.0
  0
POINT
  5
24ED
330
22E5
100
AcDbEntity
  8
DEFPOINTS
 62
     0
100
AcDbPoint
 10
658.9114531010563
 20
275.1882746016988
 30
0.0
  0
POINT
  5
24EE
330
22E5
100
AcDbEntity
  8
DEFPOINTS
 62
     0
100
AcDbPoint
 10
658.9114531010563
 20
296.1882746016988
 30
0.0
  0
ENDBLK
  5
22F0
330
22E5
100
AcDbEntity
  8
0
100
AcDbBlockEnd
  0
BLOCK
  5
2548
330
253E
100
AcDbEntity
  8
0
100
AcDbBlockBegin
  2
*D24
 70
     1
 10
0.0
 20
0.0
 30
0.0
  3
*D24
  1

  0
LINE
  5
2568
330
253E
100
AcDbEntity
  8
AM_5
100
AcDbLine
 10
622.9114531010564
 20
198.2882746016988
 30
0.0
 11
622.9114531010564
 21
195.6154755107011
 31
0.0
  0
LINE
  5
2569
330
253E
100
AcDbEntity
  8
AM_5
100
AcDbLine
 10
672.9114531010564
 20
198.2882746016988
 30
0.0
 11
672.9114531010564
 21
195.6154755107011
 31
0.0
  0
LINE
  5
256A
330
253E
100
AcDbEntity
  8
AM_5
100
AcDbLine
 10
626.5114531010564
 20
197.4154755107011
 30
0.0
 11
669.3114531010563
 21
197.4154755107011
 31
0.0
  0
SOLID
  5
256B
330
253E
100
AcDbEntity
  8
AM_5
100
AcDbTrace
 10
626.5114531010564
 20
198.0154755107011
 30
0.0
 11
626.5114531010564
 21
196.8154755107011
 31
0.0
 12
622.9114531010564
 22
197.4154755107011
 32
0.0
 13
622.9114531010564
 23
197.4154755107011
 33
0.0
  0
SOLID
  5
256C
330
253E
100
AcDbEntity
  8
AM_5
100
AcDbTrace
 10
669.3114531010563
 20
198.0154755107011
 30
0.0
 11
669.3114531010563
 21
196.8154755107011
 31
0.0
 12
672.9114531010564
 22
197.4154755107011
 32
0.0
 13
672.9114531010564
 23
197.4154755107011
 33
0.0
  0
MTEXT
  5
256D
330
253E
100
AcDbEntity
  8
AM_5
100
AcDbMText
 10
654.6079920021401
 20
200.4249243295987
 30
0.0
 40
3.6
 41
0.0
 71
     5
 72
     1
  1
%%c50
  7
CHINA
1001
ACAD
1000
MTEXTBEGIN
1070
    73
1070
     1
1070
    44
1040
1.0
1070
    74
1070
     0
1000
MTEXTEND
  0
POINT
  5
256E
330
253E
100
AcDbEntity
  8
DEFPOINTS
 62
     0
100
AcDbPoint
 10
622.9114531010564
 20
200.6882746016988
 30
0.0
  0
POINT
  5
256F
330
253E
100
AcDbEntity
  8
DEFPOINTS
 62
     0
100
AcDbPoint
 10
672.9114531010564
 20
200.6882746016988
 30
0.0
  0
POINT
  5
2570
330
253E
100
AcDbEntity
  8
DEFPOINTS
 62
     0
100
AcDbPoint
 10
672.9114531010564
 20
197.4154755107011
 30
0.0
  0
ENDBLK
  5
2549
330
253E
100
AcDbEntity
  8
0
100
AcDbBlockEnd
  0
BLOCK
  5
26FE
330
26F9
100
AcDbEntity
  8
0
100
AcDbBlockBegin
  2
*S25
 70
     1
 10
0.0
 20
0.0
 30
0.0
  3
*S25
  1

  0
LINE
  5
26FA
330
26F9
100
AcDbEntity
  8
AM_5
100
AcDbLine
 10
566.9568666298471
 20
243.2103597228465
 30
0.0
 11
587.34877024161
 21
243.2103597228465
 31
0.0
  0
LINE
  5
26FB
330
26F9
100
AcDbEntity
  8
AM_5
100
AcDbLine
 10
587.34877024161
 20
243.2103597228465
 30
0.0
 11
596.1027803436904
 21
254.7948037209981
 31
0.0
  0
TRACE
  5
26FC
330
26F9
100
AcDbEntity
  8
AM_5
100
AcDbTrace
 10
596.4178867616314
 20
254.556687436235
 30
0.0
 11
595.7876739257493
 21
255.0329200057612
 31
0.0
 12
597.9114531010564
 22
257.1882746016988
 32
0.0
 13
597.9114531010564
 23
257.1882746016988
 33
0.0
  0
MTEXT
  5
26FD
330
26F9
100
AcDbEntity
  8
AM_5
 62
     2
100
AcDbMText
 10
566.9568666298471
 20
241.5672006036366
 30
0.0
 40
3.5
 41
0.0
 71
     9
 72
     1
  1

  7
ACISOTS
  0
ENDBLK
  5
26FF
330
26F9
100
AcDbEntity
  8
0
100
AcDbBlockEnd
  0
BLOCK
  5
2708
330
2701
100
AcDbEntity
  8
0
100
AcDbBlockBegin
  2
*S26
 70
     1
 10
0.0
 20
0.0
 30
0.0
  3
*S26
  1

  0
LINE
  5
2702
330
2701
100
AcDbEntity
  8
AM_5
100
AcDbLine
 10
582.0334312077318
 20
196.8404004182091
 30
0.0
 11
607.0494041960397
 21
196.8404004182091
 31
0.0
  0
LINE
  5
2703
330
2701
100
AcDbEntity
  8
AM_5
100
AcDbLine
 10
607.0494041960397
 20
196.8404004182091
 30
0.0
 11
641.7428789491638
 21
213.3771881319747
 31
0.0
  0
TRACE
  5
2704
330
2701
100
AcDbEntity
  8
AM_5
100
AcDbTrace
 10
641.9128191723972
 20
213.0206607975045
 30
0.0
 11
641.5729387259304
 21
213.7337154664448
 31
0.0
 12
644.4509729283472
 22
214.6680122872764
 32
0.0
 13
644.4509729283472
 23
214.6680122872764
 33
0.0
  0
LINE
  5
2705
330
2701
100
AcDbEntity
  8
AM_5
100
AcDbLine
 10
607.0494041960397
 20
196.8404004182091
 30
0.0
 11
631.3242910135228
 21
175.5171683281491
 31
0.0
  0
TRACE
  5
2706
330
2701
100
AcDbEntity
  8
AM_5
100
AcDbTrace
 10
631.0636375706287
 20
175.2204340995801
 30
0.0
 11
631.5849444564169
 21
175.8139025567182
 31
0.0
 12
633.5782112606186
 22
173.5373088584565
 32
0.0
 13
633.5782112606186
 23
173.5373088584565
 33
0.0
  0
MTEXT
  5
2707
330
2701
100
AcDbEntity
  8
AM_5
 62
     2
100
AcDbMText
 10
582.0334312077318
 20
193.7492283197823
 30
0.0
 40
3.5
 41
0.0
 71
     9
 72
     1
  1

  7
ACISOTS
  0
ENDBLK
  5
2709
330
2701
100
AcDbEntity
  8
0
100
AcDbBlockEnd
  0
BLOCK
  5
2710
330
270B
100
AcDbEntity
  8
0
100
AcDbBlockBegin
  2
*S27
 70
     1
 10
0.0
 20
0.0
 30
0.0
  3
*S27
  1

  0
LINE
  5
270C
330
270B
100
AcDbEntity
  8
AM_5
100
AcDbLine
 10
700.7767871403387
 20
329.426654750893
 30
0.0
 11
685.68525116929
 21
329.426654750893
 31
0.0
  0
LINE
  5
270D
330
270B
100
AcDbEntity
  8
AM_5
100
AcDbLine
 10
685.68525116929
 20
329.426654750893
 30
0.0
 11
674.6738367051679
 21
340.3016950509659
 31
0.0
  0
TRACE
  5
270E
330
270B
100
AcDbEntity
  8
AM_5
100
AcDbTrace
 10
674.9513682663281
 20
340.5827068874728
 30
0.0
 11
674.3963051440077
 21
340.020683214459
 31
0.0
 12
672.5393398827726
 22
342.4097565574653
 32
0.0
 13
672.5393398827726
 23
342.4097565574653
 33
0.0
  0
MTEXT
  5
270F
330
270B
100
AcDbEntity
  8
AM_5
 62
     2
100
AcDbMText
 10
700.7767871403387
 20
329.4543435105854
 30
0.0
 40
3.5
 41
0.0
 71
     7
 72
     1
  1

  7
ACISOTS
  0
ENDBLK
  5
2711
330
270B
100
AcDbEntity
  8
0
100
AcDbBlockEnd
  0
ENDSEC
  0
SECTION
  2
ENTITIES
  0
POINT
  5
25
330
2
100
AcDbEntity
  8
0
 60
     1
100
AcDbPoint
 10
0.0
 20
0.0
 30
0.0
  0
POINT
  5
26
330
2
100
AcDbEntity
  8
0
 60
     1
100
AcDbPoint
 10
0.0
 20
0.0
 30
0.0
  0
POINT
  5
27
330
2
100
AcDbEntity
  8
0
 60
     1
100
AcDbPoint
 10
0.0
 20
0.0
 30
0.0
  0
POINT
  5
28
330
2
100
AcDbEntity
  8
0
 60
     1
100
AcDbPoint
 10
0.0
 20
0.0
 30
0.0
  0
POINT
  5
29
330
2
100
AcDbEntity
  8
0
 60
     1
100
AcDbPoint
 10
0.0
 20
0.0
 30
0.0
  0
POINT
  5
2A
330
2
100
AcDbEntity
  8
0
 60
     1
100
AcDbPoint
 10
0.0
 20
0.0
 30
0.0
  0
POINT
  5
2B
330
2
100
AcDbEntity
  8
0
 60
     1
100
AcDbPoint
 10
0.0
 20
0.0
 30
0.0
  0
POINT
  5
2C
330
2
100
AcDbEntity
  8
0
 60
     1
100
AcDbPoint
 10
0.0
 20
0.0
 30
0.0
  0
POINT
  5
2D
330
2
100
AcDbEntity
  8
0
 60
     1
100
AcDbPoint
 10
0.0
 20
0.0
 30
0.0
  0
POINT
  5
2E
330
2
100
AcDbEntity
  8
0
 60
     1
100
AcDbPoint
 10
0.0
 20
0.0
 30
0.0
  0
POINT
  5
2F
330
2
100
AcDbEntity
  8
0
 60
     1
100
AcDbPoint
 10
0.0
 20
0.0
 30
0.0
  0
POINT
  5
30
330
2
100
AcDbEntity
  8
0
 60
     1
100
AcDbPoint
 10
0.0
 20
0.0
 30
0.0
  0
DIMENSION
  5
31
330
2
100
AcDbEntity
  8
AM_PARDIM
 60
     1
100
AcDbDimension
  2
*D1
 10
114.5325708695175
 20
128.6938113892625
 30
0.0
 11
111.5228070899899
 21
122.4438113892625
 31
0.0
 70
    32
  1
<>
  3
AM_ISO
100
AcDbAlignedDimension
 13
75.37464887656421
 23
116.1938113892625
 33
0.0
 14
75.37464887656421
 24
128.6938113892625
 34
0.0
 50
90.0
100
AcDbRotatedDimension
1001
ACAD_DIMASSOC_CALC_DIMLFAC
1040
-1.0
1001
ACAD
1000
DSTYLE
1002
{
1070
   144
1040
-1.0
1002
}
1001
AD_SKETCHDIM
1005
0
1000
d0
1001
ACAD_DIMASSOC_DIMLFAC
1040
-1.0
  0
DIMENSION
  5
43
330
2
100
AcDbEntity
  8
AM_PARDIM
 60
     1
100
AcDbDimension
  2
*D2
 10
26.87464887656421
 20
122.1938113892625
 30
0.0
 11
23.87464887656418
 21
119.1938113892625
 31
0.0
 70
    32
  1
<>
  3
AM_ISO
100
AcDbAlignedDimension
 13
38.8746488765642
 23
116.1938113892625
 33
0.0
 14
38.8746488765642
 24
122.1938113892624
 34
0.0
 50
90.0
100
AcDbRotatedDimension
1001
ACAD_DIMASSOC_CALC_DIMLFAC
1040
-1.0
1001
ACAD
1000
DSTYLE
1002
{
1070
   144
1040
-1.0
1002
}
1001
AD_SKETCHDIM
1005
0
1000
d1
1001
ACAD_DIMASSOC_DIMLFAC
1040
-1.0
  0
DIMENSION
  5
52
330
2
100
AcDbEntity
  8
AM_PARDIM
 60
     1
100
AcDbDimension
  2
*D3
 10
50.87464887656421
 20
140.6938113892624
 30
0.0
 11
44.87464887656421
 21
143.6941263498924
 31
0.0
 70
    32
  1
<>
  3
AM_ISO
100
AcDbAlignedDimension
 13
38.8746488765642
 23
122.1938113892624
 33
0.0
 14
50.87464887656421
 24
122.1938113892624
 34
0.0
100
AcDbRotatedDimension
1001
ACAD_DIMASSOC_CALC_DIMLFAC
1040
-1.0
1001
ACAD
1000
DSTYLE
1002
{
1070
   144
1040
-1.0
1002
}
1001
AD_SKETCHDIM
1005
0
1000
d2
1001
ACAD_DIMASSOC_DIMLFAC
1040
-1.0
  0
DIMENSION
  5
5F
330
2
100
AcDbEntity
  8
AM_PARDIM
 60
     1
100
AcDbDimension
  2
*D4
 10
75.37464887656421
 20
160.6938113892624
 30
0.0
 11
57.12464887656421
 21
163.7032602081601
 31
0.0
 70
    32
  1
<>
  3
AM_ISO
100
AcDbAlignedDimension
 13
38.8746488765642
 23
116.1938113892625
 33
0.0
 14
75.37464887656421
 24
116.1938113892625
 34
0.0
100
AcDbRotatedDimension
1001
ACAD_DIMASSOC_CALC_DIMLFAC
1040
-1.0
1001
ACAD
1000
DSTYLE
1002
{
1070
   144
1040
-1.0
1002
}
1001
AD_SKETCHDIM
1005
0
1000
d3
1001
ACAD_DIMASSOC_DIMLFAC
1040
-1.0
  0
DIMENSION
  5
6C
330
2
100
AcDbEntity
  8
AM_PARDIM
 60
     1
100
AcDbDimension
  2
*D5
 10
104.5325708695175
 20
116.1938113892624
 30
0.0
 11
101.5325708695175
 21
121.6938113892625
 31
0.0
 70
    32
  1
<>
  3
AM_ISO
100
AcDbAlignedDimension
 13
50.87464887656421
 23
127.1938113892624
 33
0.0
 14
75.37464887656421
 24
116.1938113892625
 34
0.0
 50
90.0
100
AcDbRotatedDimension
1001
ACAD_DIMASSOC_CALC_DIMLFAC
1040
-1.0
1001
ACAD
1000
DSTYLE
1002
{
1070
   144
1040
-1.0
1002
}
1001
AD_SKETCHDIM
1005
0
1000
d4
1001
ACAD_DIMASSOC_DIMLFAC
1040
-1.0
  0
DIMENSION
  5
79
330
2
100
AcDbEntity
  8
AM_PARDIM
 60
     1
100
AcDbDimension
  2
*D6
 10
75.37464887656421
 20
150.6938113892624
 30
0.0
 11
70.87464887656421
 21
153.6938113892625
 31
0.0
 70
    32
  1
<>
  3
AM_ISO
100
AcDbAlignedDimension
 13
66.3746488765642
 23
128.6938113892625
 33
0.0
 14
75.37464887656421
 24
128.6938113892625
 34
0.0
100
AcDbRotatedDimension
1001
ACAD_DIMASSOC_CALC_DIMLFAC
1040
-1.0
1001
ACAD
1000
DSTYLE
1002
{
1070
   144
1040
-1.0
1002
}
1001
AD_SKETCHDIM
1005
0
1000
d5
1001
ACAD_DIMASSOC_DIMLFAC
1040
-1.0
  0
DIMENSION
  5
86
330
2
100
AcDbEntity
  8
AM_PARDIM
 60
     1
100
AcDbDimension
  2
*D7
 10
66.37464887656418
 20
140.6938113892624
 30
0.0
 11
77.8401606875878
 21
143.70357516879
 31
0.0
 70
    32
  1
<>
  3
AM_ISO
100
AcDbAlignedDimension
 13
63.87464887656418
 23
128.6938113892624
 33
0.0
 14
66.37464887656418
 24
128.6938113892624
 34
0.0
100
AcDbRotatedDimension
1001
ACAD_DIMASSOC_CALC_DIMLFAC
1040
-1.0
1001
ACAD
1000
DSTYLE
1002
{
1070
   144
1040
-1.0
1002
}
1001
AD_SKETCHDIM
1005
0
1000
d25
1001
ACAD_DIMASSOC_DIMLFAC
1040
-1.0
  0
DIMENSION
  5
95
330
2
100
AcDbEntity
  8
AM_PARDIM
 60
     1
100
AcDbDimension
  2
*D8
 10
66.37464887656418
 20
136.030378563861
 30
0.0
 11
75.73464887656418
 21
139.030378563861
 31
0.0
 70
    32
  1
<>
  3
AM_ISO
100
AcDbAlignedDimension
 13
66.37464887656418
 23
128.6938113892624
 33
0.0
 14
66.37464887656418
 24
116.1938113892624
 34
0.0
100
AcDbRotatedDimension
1001
ACAD_DIMASSOC_CALC_DIMLFAC
1040
-1.0
1001
ACAD
1000
DSTYLE
1002
{
1070
   144
1040
-1.0
1002
}
1001
AD_SKETCHDIM
1005
0
1000
d26
1001
ACAD_DIMASSOC_DIMLFAC
1040
-1.0
  0
DIMENSION
  5
A3
330
2
100
AcDbEntity
  8
AM_PARDIM
 60
     1
100
AcDbDimension
  2
*D9
 10
94.53257086951754
 20
116.1938113892624
 30
0.0
 11
91.52312205061988
 21
120.9438113892624
 31
0.0
 70
    32
  1
<>
  3
AM_ISO
100
AcDbAlignedDimension
 13
63.87464887656418
 23
125.6938113892624
 33
0.0
 14
82.53257086951753
 24
116.1938113892624
 34
0.0
 50
90.0
100
AcDbRotatedDimension
1001
ACAD_DIMASSOC_CALC_DIMLFAC
1040
-1.0
1001
ACAD
1000
DSTYLE
1002
{
1070
   144
1040
-1.0
1002
}
1001
AD_SKETCHDIM
1005
0
1000
d27
1001
ACAD_DIMASSOC_DIMLFAC
1040
-1.0
  0
DIMENSION
  5
B0
330
2
100
AcDbEntity
  8
AM_PARDIM
 60
     1
100
AcDbDimension
  2
*D10
 10
124.5325708695175
 20
116.1938113892624
 30
0.0
 11
121.5228070899899
 21
122.4438113892624
 31
0.0
 70
    32
  1
<>
  3
AM_ISO
100
AcDbAlignedDimension
 13
66.37464887656418
 23
128.6938113892624
 33
0.0
 14
82.53257086951753
 24
116.1938113892624
 34
0.0
 50
90.0
100
AcDbRotatedDimension
1001
ACAD_DIMASSOC_CALC_DIMLFAC
1040
-1.0
1001
ACAD
1000
DSTYLE
1002
{
1070
   144
1040
-1.0
1002
}
1001
AD_SKETCHDIM
1005
0
1000
d28
1001
ACAD_DIMASSOC_DIMLFAC
1040
-1.0
  0
LINE
  5
C8
330
2
100
AcDbEntity
  8
AM_7
 60
     1
100
AcDbLine
 10
36.3746488765642
 20
116.1938113892624
 30
0.0
 11
51.3746488765642
 21
116.1938113892624
 31
0.0
  0
MTEXT
  5
151
330
2
100
AcDbEntity
  8
AM_5
 62
     5
100
AcDbMText
 10
33.56078100938998
 20
98.94002315335121
 30
0.0
 40
3.5
 41
0.0
 71
     9
 72
     1
  1

  7
ACISOTS
1001
ACAD
1000
MTEXTBEGIN
1070
    73
1070
     1
1070
    44
1040
1.0
1070
    74
1070
     0
1000
MTEXTEND
  0
MTEXT
  5
156
330
2
100
AcDbEntity
  8
AM_5
 62
     5
100
AcDbMText
 10
67.11527269722637
 20
92.4148402526181
 30
0.0
 40
3.5
 41
0.0
 71
     9
 72
     1
  1

  7
ACISOTS
1001
ACAD
1000
MTEXTBEGIN
1070
    73
1070
     1
1070
    44
1040
1.0
1070
    74
1070
     0
1000
MTEXTEND
  0
CIRCLE
  5
124B
330
2
100
AcDbEntity
  8
LOGO
  6
CONTINUOUS
 62
     6
100
AcDbCircle
 10
597.8319593615772
 20
125.9161181707333
 30
0.0
 40
2.626478555640676
  0
TEXT
  5
124C
330
2
100
AcDbEntity
  8
LOGO
 62
     6
100
AcDbText
 10
596.242112246876
 20
132.691764563899
 30
0.0
 40
4.5235481972414
  1
1 : 1
  7
CHINESET
 72
     1
 11
604.2121733563012
 21
134.9535386625197
 31
0.0
100
AcDbText
 73
     2
  0
TEXT
  5
124D
330
2
100
AcDbEntity
  8
LOGO
 62
     6
100
AcDbText
 10
596.242112246876
 20
114.5975717749334
 30
0.0
 40
4.5235481972414
  1
m/m
  7
CHINESET
 72
     1
 11
604.2121733563012
 21
116.8593458735541
 31
0.0
100
AcDbText
 73
     2
  0
LINE
  5
124E
330
2
100
AcDbEntity
  8
LOGO
 62
     1
100
AcDbLine
 10
619.6130320595293
 20
121.3828940707955
 30
0.0
 11
553.2676584999888
 21
121.3828940707955
 31
0.0
  0
LINE
  5
124F
330
2
100
AcDbEntity
  8
LOGO
 62
     1
100
AcDbLine
 10
619.6130320595293
 20
130.4299904652783
 30
0.0
 11
553.2676584999888
 21
130.4299904652783
 31
0.0
  0
TEXT
  5
1250
330
2
100
AcDbEntity
  8
LOGO
  6
CONTINUOUS
 62
     5
100
AcDbText
 10
523.5185124751588
 20
96.34139536749106
 30
0.0
 40
4.5235481972414
  1
MINDMAN INDUSTRIAL CO.,LTD
 41
0.85
  7
CHINESET
100
AcDbText
  0
TEXT
  5
1251
330
2
100
AcDbEntity
  8
LOGO
  6
CONTINUOUS
 62
     5
100
AcDbText
 10
521.5756054212438
 20
103.1280470545333
 30
0.0
 40
6.7853222958621
  1
金器工業股份有限公司
 41
0.8
  7
LOGO
100
AcDbText
  0
LINE
  5
1252
330
2
100
AcDbEntity
  8
LOGO
 62
     1
100
AcDbLine
 10
619.6130320595293
 20
112.3357976763128
 30
0.0
 11
520.0949717202186
 21
112.3357976763128
 31
0.0
  0
LINE
  5
1256
330
2
100
AcDbEntity
  8
LOGO
 62
     1
100
AcDbLine
 10
854.7886558883794
 20
94.24160488734717
 30
0.0
 11
520.0949717202186
 21
94.24160488734717
 31
0.0
  0
LINE
  5
1257
330
2
100
AcDbEntity
  8
LOGO
 62
     1
100
AcDbLine
 10
854.7886558883794
 20
139.4770868597611
 30
0.0
 11
520.0949717202186
 21
139.4770868597611
 31
0.0
  0
LINE
  5
1258
330
2
100
AcDbEntity
  8
0
 62
     4
100
AcDbLine
 10
520.0949717202186
 20
416.6770868597612
 30
0.0
 11
854.7886558883794
 21
416.6770868597612
 31
0.0
  0
LINE
  5
1259
330
2
100
AcDbEntity
  8
0
 62
     4
100
AcDbLine
 10
854.7886558883794
 20
139.4770868597611
 30
0.0
 11
520.0949717202186
 21
139.4770868597611
 31
0.0
  0
LINE
  5
125A
330
2
100
AcDbEntity
  8
0
 62
     4
100
AcDbLine
 10
520.0949717202186
 20
139.4770868597611
 30
0.0
 11
520.0949717202186
 21
416.6770868597612
 31
0.0
  0
SOLID
  5
125B
330
2
100
AcDbEntity
  8
LOGO
 62
     5
100
AcDbTrace
 10
537.6699475251554
 20
121.3393112273879
 30
0.0
 11
539.6258110677377
 21
128.510810883524
 31
0.0
 12
546.97716024503
 22
138.4025345471602
 32
0.0
 13
545.0212967024474
 23
138.4025345471602
 33
0.0
  0
SOLID
  5
125C
330
2
100
AcDbEntity
  8
LOGO
 62
     5
100
AcDbTrace
 10
537.6699475251554
 20
138.4025345471589
 30
0.0
 11
539.6258110677377
 21
138.4025345471602
 31
0.0
 12
537.6699475251554
 22
121.3393112273879
 32
0.0
 13
539.6258110677377
 23
128.510810883524
 33
0.0
  0
POLYLINE
  5
125D
330
2
100
AcDbEntity
  8
LOGO
 62
     5
100
AcDb2dPolyline
 66
     1
 10
0.0
 20
0.0
 30
0.0
 40
0.6755165307880492
 41
0.6755165307880492
  0
VERTEX
  5
125E
330
125D
100
AcDbEntity
  8
LOGO
 62
     5
100
AcDbVertex
100
AcDb2dVertex
 10
539.7397932957548
 20
115.1345027474714
 30
0.0
 42
1.0
  0
VERTEX
  5
125F
330
125D
100
AcDbEntity
  8
LOGO
 62
     5
100
AcDbVertex
100
AcDb2dVertex
 10
537.7132437033906
 20
115.1345027474714
 30
0.0
 42
1.0
  0
SEQEND
  5
1260
330
125D
100
AcDbEntity
  8
LOGO
 62
     5
  0
SOLID
  5
1261
330
2
100
AcDbEntity
  8
LOGO
 62
     5
100
AcDbTrace
 10
537.3776470908956
 20
116.483374156149
 30
0.0
 11
538.0520827952339
 21
116.483374156149
 31
0.0
 12
537.3776470908956
 22
113.1111956344557
 32
0.0
 13
538.0520827952339
 23
113.1111956344557
 33
0.0
  0
SOLID
  5
1262
330
2
100
AcDbEntity
  8
LOGO
 62
     2
100
AcDbTrace
 10
536.8606246799483
 20
119.8555526778431
 30
0.0
 11
537.6699475251554
 21
119.8555526778431
 31
0.0
 12
546.97716024503
 22
138.4025345471602
 32
0.0
 13
547.7864830902369
 23
138.4025345471589
 33
0.0
  0
SOLID
  5
1263
330
2
100
AcDbEntity
  8
LOGO
 62
     5
100
AcDbTrace
 10
537.6699475251554
 20
119.8555526778431
 30
0.0
 11
539.6258110677377
 21
119.8555526778431
 31
0.0
 12
546.97716024503
 22
136.9187759976142
 32
0.0
 13
545.0212967024474
 23
129.747276341478
 33
0.0
  0
SOLID
  5
1264
330
2
100
AcDbEntity
  8
LOGO
 62
     2
100
AcDbTrace
 10
536.8606246799483
 20
138.4025345471589
 30
0.0
 11
537.6699475251554
 21
138.4025345471589
 31
0.0
 12
536.8606246799483
 22
119.8555526778431
 32
0.0
 13
537.6699475251554
 23
119.8555526778431
 33
0.0
  0
SOLID
  5
1265
330
2
100
AcDbEntity
  8
LOGO
 62
     5
100
AcDbTrace
 10
534.9047611373661
 20
119.8555526778431
 30
0.0
 11
536.8606246799483
 21
119.8555526778431
 31
0.0
 12
534.9047611373661
 22
129.747276341478
 32
0.0
 13
536.8606246799483
 23
136.9187759976142
 33
0.0
  0
LINE
  5
1266
330
2
100
AcDbEntity
  8
LOGO
 62
     1
100
AcDbLine
 10
520.0949717202186
 20
94.24160488734717
 30
0.0
 11
520.0949717202186
 21
139.4770868597611
 31
0.0
  0
SOLID
  5
1267
330
2
100
AcDbEntity
  8
LOGO
 62
     2
100
AcDbTrace
 10
526.7440891148661
 20
119.8555526778425
 30
0.0
 11
527.5534119600738
 21
119.8555526778431
 31
0.0
 12
536.8606246799483
 22
138.4025345471589
 32
0.0
 13
537.6699475251554
 23
138.4025345471589
 33
0.0
  0
SOLID
  5
1268
330
2
100
AcDbEntity
  8
LOGO
 62
     5
100
AcDbTrace
 10
527.5534119600738
 20
119.8555526778431
 30
0.0
 11
529.5092755026561
 21
119.8555526778431
 31
0.0
 12
536.8606246799483
 22
136.9187759976142
 32
0.0
 13
534.9047611373661
 23
129.747276341478
 33
0.0
  0
SOLID
  5
1269
330
2
100
AcDbEntity
  8
LOGO
 62
     5
100
AcDbTrace
 10
524.7882255722837
 20
119.8555526778431
 30
0.0
 11
526.7440891148661
 21
119.8555526778425
 31
0.0
 12
534.9047611373661
 22
138.4025345471602
 32
0.0
 13
536.8606246799483
 23
138.4025345471589
 33
0.0
  0
SOLID
  5
126A
330
2
100
AcDbEntity
  8
LOGO
 62
     5
100
AcDbTrace
 10
521.6524966770314
 20
113.1111956344557
 30
0.0
 11
522.3269323813708
 21
113.1111956344557
 31
0.0
 12
524.2261958186685
 22
116.483374156149
 32
0.0
 13
524.9006315230068
 23
116.483374156149
 33
0.0
  0
POLYLINE
  5
126B
330
2
100
AcDbEntity
  8
LOGO
 62
     5
100
AcDb2dPolyline
 66
     1
 10
0.0
 20
0.0
 30
0.0
 70
     1
 40
0.6755165307880492
 41
0.6755165307880492
  0
VERTEX
  5
126C
330
126B
100
AcDbEntity
  8
LOGO
 62
     5
100
AcDbVertex
100
AcDb2dVertex
 10
533.5537280757895
 20
114.797284895302
 30
0.0
 42
1.0
  0
VERTEX
  5
126D
330
126B
100
AcDbEntity
  8
LOGO
 62
     5
100
AcDbVertex
100
AcDb2dVertex
 10
536.2557941989417
 20
114.797284895302
 30
0.0
 42
1.0
  0
SEQEND
  5
126E
330
126B
100
AcDbEntity
  8
LOGO
 62
     5
  0
SOLID
  5
126F
330
2
100
AcDbEntity
  8
LOGO
 62
     5
100
AcDbTrace
 10
535.9163472503042
 20
117.4950277126576
 30
0.0
 11
536.5907829546424
 21
117.4950277126576
 31
0.0
 12
535.9163472503042
 22
113.1111956344557
 32
0.0
 13
536.5907829546424
 23
113.1111956344557
 33
0.0
  0
SOLID
  5
1270
330
2
100
AcDbEntity
  8
LOGO
 62
     5
100
AcDbTrace
 10
528.2726976387504
 20
116.483374156149
 30
0.0
 11
528.9471333430904
 21
116.483374156149
 31
0.0
 12
528.2726976387504
 22
113.1111956344543
 32
0.0
 13
528.9471333430904
 23
113.1111956344557
 33
0.0
  0
SOLID
  5
1271
330
2
100
AcDbEntity
  8
LOGO
 62
     5
100
AcDbTrace
 10
529.7339974793419
 20
116.483374156149
 30
0.0
 11
530.40843318368
 21
116.483374156149
 31
0.0
 12
529.7339974793419
 22
113.1111956344557
 32
0.0
 13
530.40843318368
 23
113.1111956344557
 33
0.0
  0
SOLID
  5
1272
330
2
100
AcDbEntity
  8
LOGO
 62
     5
100
AcDbTrace
 10
524.2261958186685
 20
113.1111956344557
 30
0.0
 11
524.9006315230068
 21
113.1111956344557
 31
0.0
 12
526.7998949603065
 22
116.483374156149
 32
0.0
 13
527.4743306646446
 23
116.483374156149
 33
0.0
  0
SOLID
  5
1273
330
2
100
AcDbEntity
  8
LOGO
 62
     5
100
AcDbTrace
 10
524.2261958186685
 20
116.483374156149
 30
0.0
 11
524.9006315230068
 21
116.483374156149
 31
0.0
 12
524.2261958186685
 22
113.1111956344557
 32
0.0
 13
524.9006315230068
 23
113.1111956344557
 33
0.0
  0
SOLID
  5
1274
330
2
100
AcDbEntity
  8
LOGO
 62
     5
100
AcDbTrace
 10
526.7998949603065
 20
116.483374156149
 30
0.0
 11
527.4743306646446
 21
116.483374156149
 31
0.0
 12
526.7998949603065
 22
113.1111956344557
 32
0.0
 13
527.4743306646446
 23
113.1111956344557
 33
0.0
  0
SOLID
  5
1275
330
2
100
AcDbEntity
  8
LOGO
 62
     5
100
AcDbTrace
 10
531.7573045923576
 20
115.1345027474714
 30
0.0
 11
532.4317402966969
 21
115.1345027474714
 31
0.0
 12
531.7573045923576
 22
113.1111956344557
 32
0.0
 13
532.4317402966969
 23
113.1111956344557
 33
0.0
  0
POLYLINE
  5
1276
330
2
100
AcDbEntity
  8
LOGO
 62
     5
100
AcDb2dPolyline
 66
     1
 10
0.0
 20
0.0
 30
0.0
 40
0.6755165307880492
 41
0.6755165307880492
  0
VERTEX
  5
1277
330
1276
100
AcDbEntity
  8
LOGO
 62
     5
100
AcDbVertex
100
AcDb2dVertex
 10
532.0961436842011
 20
115.1345027474714
 30
0.0
 42
1.0
  0
VERTEX
  5
1278
330
1276
100
AcDbEntity
  8
LOGO
 62
     5
100
AcDbVertex
100
AcDb2dVertex
 10
530.0695940918368
 20
115.1345027474714
 30
0.0
 42
1.0
  0
SEQEND
  5
1279
330
1276
100
AcDbEntity
  8
LOGO
 62
     5
  0
SOLID
  5
127A
330
2
100
AcDbEntity
  8
LOGO
 62
     5
100
AcDbTrace
 10
528.2726976387504
 20
116.9554791491859
 30
0.0
 11
528.9471333430904
 21
116.9554791491859
 31
0.0
 12
528.2726976387504
 22
117.4950277126576
 32
0.0
 13
528.9471333430904
 23
117.4950277126576
 33
0.0
  0
LINE
  5
127B
330
2
100
AcDbEntity
  8
LOGO
 62
     1
100
AcDbLine
 10
589.45604407792
 20
112.3357976763127
 30
0.0
 11
589.45604407792
 21
139.4770868597611
 31
0.0
  0
LINE
  5
127C
330
2
100
AcDbEntity
  8
LOGO
 62
     1
100
AcDbLine
 10
553.2676584999888
 20
112.3357976763127
 30
0.0
 11
553.2676584999888
 21
139.4770868597611
 31
0.0
  0
SOLID
  5
127D
330
2
100
AcDbEntity
  8
LOGO
 62
     2
100
AcDbTrace
 10
546.97716024503
 20
138.4025345471602
 30
0.0
 11
547.7864830902369
 21
138.4025345471589
 31
0.0
 12
546.97716024503
 22
119.8555526778425
 32
0.0
 13
547.7864830902369
 23
119.8555526778425
 33
0.0
  0
SOLID
  5
127E
330
2
100
AcDbEntity
  8
LOGO
 62
     5
100
AcDbTrace
 10
546.97716024503
 20
136.9187759976142
 30
0.0
 11
545.0212967024474
 21
129.747276341478
 31
0.0
 12
546.97716024503
 22
119.8555526778425
 32
0.0
 13
545.0212967024474
 23
119.8555526778425
 33
0.0
  0
SOLID
  5
127F
330
2
100
AcDbEntity
  8
LOGO
 62
     5
100
AcDbTrace
 10
547.7864830902369
 20
119.8555526778425
 30
0.0
 11
549.7423466328192
 21
119.8555526778425
 31
0.0
 12
547.7864830902369
 22
138.4025345471589
 32
0.0
 13
549.7423466328192
 23
138.4025345471602
 33
0.0
  0
TEXT
  5
1280
330
2
100
AcDbEntity
  8
LOGO
 62
     6
100
AcDbText
 10
559.0210463633553
 20
114.5975717749334
 30
0.0
 40
4.5235481972414
  1
單位 Unit:
 41
0.9
  7
CHINESET
 72
     4
 11
571.3618512889545
 21
116.8593458735541
 31
0.0
100
AcDbText
  0
CIRCLE
  5
1281
330
2
100
AcDbEntity
  8
LOGO
 62
     5
100
AcDbCircle
 10
544.5717178619356
 20
114.7972848953024
 30
0.0
 40
1.011653556508182
  0
POLYLINE
  5
1282
330
2
100
AcDbEntity
  8
LOGO
 62
     5
100
AcDb2dPolyline
 66
     1
 10
0.0
 20
0.0
 30
0.0
 70
     1
  0
VERTEX
  5
1283
330
1282
100
AcDbEntity
  8
LOGO
 62
     5
100
AcDbVertex
100
AcDb2dVertex
 10
543.5600643054272
 20
114.7972848953024
 30
0.0
 42
1.000000057330635
  0
VERTEX
  5
1284
330
1282
100
AcDbEntity
  8
LOGO
 62
     5
100
AcDbVertex
100
AcDb2dVertex
 10
545.5833714184441
 20
114.7972848953024
 30
0.0
 42
1.000000057330635
  0
SEQEND
  5
1285
330
1282
100
AcDbEntity
  8
LOGO
 62
     5
  0
SOLID
  5
1286
330
2
100
AcDbEntity
  8
LOGO
 62
     5
100
AcDbTrace
 10
549.0679109284811
 20
115.1345027474714
 30
0.0
 11
549.7423466328192
 21
115.1345027474713
 31
0.0
 12
549.0679109284811
 22
113.1111956344557
 32
0.0
 13
549.7423466328192
 23
113.1111956344557
 33
0.0
  0
SOLID
  5
1287
330
2
100
AcDbEntity
  8
LOGO
 62
     5
100
AcDbTrace
 10
547.044603815464
 20
113.1111956344557
 30
0.0
 11
547.7190395198034
 21
113.1111956344557
 31
0.0
 12
547.044603815464
 22
116.483374156149
 32
0.0
 13
547.7190395198034
 23
116.483374156149
 33
0.0
  0
SOLID
  5
1288
330
2
100
AcDbEntity
  8
LOGO
 62
     5
100
AcDbTrace
 10
545.5833039748745
 20
116.483374156149
 30
0.0
 11
546.2577396792128
 21
116.483374156149
 31
0.0
 12
545.5833039748745
 22
113.1111956344557
 32
0.0
 13
546.2577396792128
 23
113.1111956344557
 33
0.0
  0
LINE
  5
1289
330
2
100
AcDbEntity
  8
LOGO
 62
     5
100
AcDbLine
 10
549.7423466328192
 20
113.1111956344557
 30
0.0
 11
549.7423466328192
 21
115.1345027474714
 31
0.0
  0
POLYLINE
  5
128A
330
2
100
AcDbEntity
  8
LOGO
 62
     5
100
AcDb2dPolyline
 66
     1
 10
0.0
 20
0.0
 30
0.0
 70
     1
 40
0.6755165307880492
 41
0.6755165307880492
  0
VERTEX
  5
128B
330
128A
100
AcDbEntity
  8
LOGO
 62
     5
100
AcDbVertex
100
AcDb2dVertex
 10
543.220684800359
 20
114.797284895302
 30
0.0
 42
1.0
  0
VERTEX
  5
128C
330
128A
100
AcDbEntity
  8
LOGO
 62
     5
100
AcDbVertex
100
AcDb2dVertex
 10
545.9227509235113
 20
114.797284895302
 30
0.0
 42
1.0
  0
SEQEND
  5
128D
330
128A
100
AcDbEntity
  8
LOGO
 62
     5
  0
SOLID
  5
128E
330
2
100
AcDbEntity
  8
LOGO
 62
     5
100
AcDbTrace
 10
539.4009542039115
 20
115.1345027474714
 30
0.0
 11
540.0753899082497
 21
115.1345027474714
 31
0.0
 12
539.4009542039115
 22
113.1111956344557
 32
0.0
 13
540.0753899082497
 23
113.1111956344557
 33
0.0
  0
SOLID
  5
128F
330
2
100
AcDbEntity
  8
LOGO
 62
     5
100
AcDbTrace
 10
541.4242613169274
 20
115.1345027474714
 30
0.0
 11
542.0986970212656
 21
115.1345027474714
 31
0.0
 12
541.4242613169274
 22
113.1111956344543
 32
0.0
 13
542.0986970212656
 23
113.1111956344543
 33
0.0
  0
POLYLINE
  5
1290
330
2
100
AcDbEntity
  8
LOGO
 62
     5
100
AcDb2dPolyline
 66
     1
 10
0.0
 20
0.0
 30
0.0
 40
0.6755165307880492
 41
0.6755165307880492
  0
VERTEX
  5
1291
330
1290
100
AcDbEntity
  8
LOGO
 62
     5
100
AcDbVertex
100
AcDb2dVertex
 10
541.7631004087707
 20
115.1345027474714
 30
0.0
 42
1.0
  0
VERTEX
  5
1292
330
1290
100
AcDbEntity
  8
LOGO
 62
     5
100
AcDbVertex
100
AcDb2dVertex
 10
539.7365508164064
 20
115.1345027474714
 30
0.0
 42
1.0
  0
SEQEND
  5
1293
330
1290
100
AcDbEntity
  8
LOGO
 62
     5
  0
POLYLINE
  5
1294
330
2
100
AcDbEntity
  8
LOGO
 62
     5
100
AcDb2dPolyline
 66
     1
 10
0.0
 20
0.0
 30
0.0
 40
0.6755165307880492
 41
0.6755165307880492
  0
VERTEX
  5
1295
330
1294
100
AcDbEntity
  8
LOGO
 62
     5
100
AcDbVertex
100
AcDb2dVertex
 10
549.4067500203244
 20
115.1345027474714
 30
0.0
 42
1.0
  0
VERTEX
  5
1296
330
1294
100
AcDbEntity
  8
LOGO
 62
     5
100
AcDbVertex
100
AcDb2dVertex
 10
547.3802004279603
 20
115.1345027474714
 30
0.0
 42
1.0
  0
SEQEND
  5
1297
330
1294
100
AcDbEntity
  8
LOGO
 62
     5
  0
TEXT
  5
1298
330
2
100
AcDbEntity
  8
LOGO
 62
     6
100
AcDbText
 10
558.5787887494286
 20
123.7082991172367
 30
0.0
 40
4.5235481972414
  1
投影 View:
 41
0.9
  7
CHINESET
 72
     4
 11
571.3618512889545
 21
125.9064422680369
 31
0.0
100
AcDbText
  0
TEXT
  5
1299
330
2
100
AcDbEntity
  8
LOGO
 62
     6
100
AcDbText
 10
556.9975663215536
 20
132.6939907195079
 30
0.0
 40
4.5235481972414
  1
比例 Scale:
 41
0.9
  7
CHINESET
 72
     4
 11
571.3618512889545
 21
134.9535386625197
 31
0.0
100
AcDbText
  0
CIRCLE
  5
129A
330
2
100
AcDbEntity
  8
LOGO
  6
CONTINUOUS
 62
     6
100
AcDbCircle
 10
597.8319593615772
 20
125.9161181707333
 30
0.0
 40
1.53888392461395
  0
LINE
  5
12BA
330
2
100
AcDbEntity
  8
0
 62
     4
100
AcDbLine
 10
854.7886558883794
 20
416.6770868597612
 30
0.0
 11
854.7886558883794
 21
139.4770868597611
 31
0.0
  0
LINE
  5
12BB
330
2
100
AcDbEntity
  8
LOGO
 62
     6
100
AcDbLine
 10
848.7861648373225
 20
98.0112283850485
 30
0.0
 11
808.6049009253333
 21
98.01122838504845
 31
0.0
  0
LINE
  5
12BC
330
2
100
AcDbEntity
  8
LOGO
 62
     6
100
AcDbLine
 10
848.7861648373225
 20
114.5976348705902
 30
0.0
 11
808.6049009253333
 21
114.5976348705902
 31
0.0
  0
LINE
  5
12BD
330
2
100
AcDbEntity
  8
LOGO
 62
     6
100
AcDbLine
 10
848.7861648373225
 20
121.3829361345667
 30
0.0
 11
808.6049009253333
 21
121.3829361345667
 31
0.0
  0
LINE
  5
12BE
330
2
100
AcDbEntity
  8
LOGO
 62
     6
100
AcDbLine
 10
848.7861648373225
 20
134.95353866252
 30
0.0
 11
808.6049009253333
 21
134.9535386625198
 31
0.0
  0
LINE
  5
12BF
330
2
100
AcDbEntity
  8
LOGO
 62
     6
100
AcDbLine
 10
764.704053799171
 20
121.3829361345666
 30
0.0
 11
720.5995955833235
 21
121.3829361345667
 31
0.0
  0
LINE
  5
12C0
330
2
100
AcDbEntity
  8
LOGO
 62
     6
100
AcDbLine
 10
764.704053799171
 20
134.95353866252
 30
0.0
 11
720.5995955833235
 21
134.9535386625197
 31
0.0
  0
LINE
  5
12C1
330
2
100
AcDbEntity
  8
LOGO
 62
     6
100
AcDbLine
 10
764.704053799171
 20
98.01122838504845
 30
0.0
 11
720.5995955833235
 21
98.01122838504845
 31
0.0
  0
LINE
  5
12C2
330
2
100
AcDbEntity
  8
LOGO
 62
     6
100
AcDbLine
 10
764.704053799171
 20
114.5976348705901
 30
0.0
 11
720.5995955833235
 21
114.5976348705901
 31
0.0
  0
TEXT
  5
12C3
330
2
100
AcDbEntity
  8
LOGO
 62
     6
100
AcDbText
 10
722.2600198344289
 20
99.89604597608943
 30
0.0
 40
3.769611813320298
  1
Rotating direction
 41
0.8
  7
ROMANS1
 72
     1
 11
742.6518246912472
 21
101.7808518827495
 31
0.0
100
AcDbText
 73
     2
  0
TEXT
  5
12C4
330
2
100
AcDbEntity
  8
LOGO
 62
     7
100
AcDbText
 10
622.233694772456
 20
119.6601919551472
 30
0.0
 40
6.031397596321867
  1
Order example:
 41
0.8
  7
CHINESET
100
AcDbText
  0
LINE
  5
12C5
330
2
100
AcDbEntity
  8
LOGO
 62
     1
100
AcDbLine
 10
619.6130320595293
 20
94.24160488734717
 30
0.0
 11
619.6130320595293
 21
139.4770868597611
 31
0.0
  0
TEXT
  5
12C6
330
2
100
AcDbEntity
  8
LOGO
 62
     7
100
AcDbText
 10
623.315777378865
 20
128.1511509539613
 30
0.0
 40
9.047096394482801
  1
訂購代號:
  7
CHINESET
100
AcDbText
  0
LINE
  5
12C7
330
2
100
AcDbEntity
  8
LOGO
 62
     6
100
AcDbLine
 10
614.3370553689071
 20
123.2896396150926
 30
0.0
 11
614.3370553689071
 21
128.542596726374
 31
0.0
  0
LINE
  5
12C8
330
2
100
AcDbEntity
  8
LOGO
  6
CONTINUOUS
 62
     6
100
AcDbLine
 10
606.1031958640365
 20
127.4550020953473
 30
0.0
 11
614.3370553689071
 21
128.542596726374
 31
0.0
  0
LINE
  5
12C9
330
2
100
AcDbEntity
  8
LOGO
  6
CONTINUOUS
 62
     6
100
AcDbLine
 10
606.1031958640365
 20
124.3772342461194
 30
0.0
 11
614.3370553689071
 21
123.2896396150926
 31
0.0
  0
LINE
  5
12CA
330
2
100
AcDbEntity
  8
LOGO
 62
     6
100
AcDbLine
 10
606.1031958640365
 20
124.3772342461193
 30
0.0
 11
606.1031958640365
 21
127.4550020953473
 31
0.0
  0
LINE
  5
12CB
330
2
100
AcDbEntity
  8
LOGO
 62
     6
100
AcDbLine
 10
699.9266226489423
 20
121.3828940707955
 30
0.0
 11
699.9266226489423
 21
114.5975717749334
 31
0.0
  0
TEXT
  5
12CC
330
2
100
AcDbEntity
  8
LOGO
  6
CONTINUOUS
 62
     6
100
AcDbText
 10
692.7463874152257
 20
99.89604013389891
 30
0.0
 40
3.769623497701167
  1
Model
  7
CHINESET
 72
     4
 11
699.9266226489423
 21
101.7808518827494
 31
0.0
100
AcDbText
  0
TEXT
  5
12CD
330
2
100
AcDbEntity
  8
LOGO
 62
     6
100
AcDbText
 10
693.8952250526203
 20
106.4587468688731
 30
0.0
 40
6.031397596321867
  1
型式
  7
CHINESET
 72
     4
 11
699.9266226489423
 21
109.3200988781518
 31
0.0
100
AcDbText
  0
LINE
  5
12CE
330
2
100
AcDbEntity
  8
LOGO
 62
     6
100
AcDbLine
 10
715.0051166397469
 20
98.01122838504831
 30
0.0
 11
684.8481286581376
 21
98.01122838504831
 31
0.0
  0
LINE
  5
12CF
330
2
100
AcDbEntity
  8
LOGO
 62
     6
100
AcDbLine
 10
715.0051166397469
 20
114.5975717749334
 30
0.0
 11
684.8481286581376
 21
114.5975717749334
 31
0.0
  0
LINE
  5
12D0
330
2
100
AcDbEntity
  8
LOGO
 62
     6
100
AcDbLine
 10
684.8481286581376
 20
114.5975717749334
 30
0.0
 11
684.8481286581376
 21
98.01122838504831
 31
0.0
  0
LINE
  5
12D1
330
2
100
AcDbEntity
  8
LOGO
 62
     6
100
AcDbLine
 10
720.5995955833235
 20
114.5976348705901
 30
0.0
 11
720.5995955833235
 21
98.01122838504845
 31
0.0
  0
LINE
  5
12D2
330
2
100
AcDbEntity
  8
LOGO
 62
     6
100
AcDbLine
 10
715.0051166397469
 20
114.5975717749334
 30
0.0
 11
715.0051166397469
 21
98.01122838504833
 31
0.0
  0
TEXT
  5
12D3
330
2
100
AcDbEntity
  8
LOGO
  6
CONTINUOUS
 62
     7
100
AcDbText
 10
689.1562697983674
 20
124.3985928689565
 30
0.0
 40
7.539246995402335
  1
MAS
  7
CHINESET
 72
     1
 11
699.9266226489423
 21
128.1682163666576
 31
0.0
100
AcDbText
 73
     2
  0
LINE
  5
12D4
330
2
100
AcDbEntity
  8
LOGO
 62
     6
100
AcDbLine
 10
718.0208154379077
 20
121.3828940707955
 30
0.0
 11
681.8324298599766
 21
121.3828940707955
 31
0.0
  0
LINE
  5
12D5
330
2
100
AcDbEntity
  8
LOGO
 62
     6
100
AcDbLine
 10
718.0208154379077
 20
134.9535386625197
 30
0.0
 11
681.8324298599766
 21
134.9535386625197
 31
0.0
  0
LINE
  5
12D6
330
2
100
AcDbEntity
  8
LOGO
 62
     6
100
AcDbLine
 10
681.8324298599766
 20
134.9535386625197
 30
0.0
 11
681.8324298599766
 21
121.3828940707955
 31
0.0
  0
LINE
  5
12D7
330
2
100
AcDbEntity
  8
LOGO
 62
     6
100
AcDbLine
 10
720.5995955833234
 20
134.9535386625197
 30
0.0
 11
720.5995955833235
 21
121.3829361345667
 31
0.0
  0
LINE
  5
12D8
330
2
100
AcDbEntity
  8
LOGO
 62
     6
100
AcDbLine
 10
720.5995955833235
 20
134.9535386625197
 30
0.0
 11
720.5995955833234
 21
121.3828940707955
 31
0.0
  0
LINE
  5
12D9
330
2
100
AcDbEntity
  8
LOGO
 62
     6
100
AcDbLine
 10
718.0208154379079
 20
134.9535386625197
 30
0.0
 11
718.0208154379079
 21
121.3828940707955
 31
0.0
  0
TEXT
  5
12DA
330
2
100
AcDbEntity
  8
LOGO
  6
CONTINUOUS
 62
     6
100
AcDbText
 10
782.2309005197748
 20
99.896040133899
 30
0.0
 40
3.769623497701167
  1
Bore
 41
0.8
  7
CHINESET
 72
     4
 11
786.8980534216906
 21
101.7808518827495
 31
0.0
100
AcDbText
  0
TEXT
  5
12DB
330
2
100
AcDbEntity
  8
LOGO
 62
     6
100
AcDbText
 10
781.1305294702078
 20
106.3044000799909
 30
0.0
 40
6.031397596321867
  1
內徑
 41
0.9
  7
CHINESET
 72
     4
 11
786.8980534216906
 21
109.3200988781519
 31
0.0
100
AcDbText
  0
LINE
  5
12DC
330
2
100
AcDbEntity
  8
LOGO
 62
     6
100
AcDbLine
 10
799.0026190713025
 20
98.01122838504845
 30
0.0
 11
774.7934877720787
 21
98.01122838504838
 31
0.0
  0
LINE
  5
12DD
330
2
100
AcDbEntity
  8
LOGO
 62
     6
100
AcDbLine
 10
799.0026190713025
 20
114.5975717749335
 30
0.0
 11
774.7934877720787
 21
114.5975717749335
 31
0.0
  0
TEXT
  5
12DE
330
2
100
AcDbEntity
  8
LOGO
  6
CONTINUOUS
 62
     7
100
AcDbText
 10
781.4985167201328
 20
124.3130973329598
 30
0.0
 40
7.539246995402335
  1
32
  7
CHINESET
 72
     1
 11
787.6017166687918
 21
128.082720830661
 31
0.0
100
AcDbText
 73
     2
  0
LINE
  5
12DF
330
2
100
AcDbEntity
  8
LOGO
 62
     6
100
AcDbLine
 10
799.0026190713025
 20
121.3828940707956
 30
0.0
 11
774.7934877720787
 21
121.3828940707956
 31
0.0
  0
LINE
  5
12E0
330
2
100
AcDbEntity
  8
LOGO
 62
     6
100
AcDbLine
 10
799.0026190713025
 20
134.9535386625199
 30
0.0
 11
774.7934877720787
 21
134.9535386625198
 31
0.0
  0
LINE
  5
12E1
330
2
100
AcDbEntity
  8
LOGO
 62
     6
100
AcDbLine
 10
742.6518246912471
 20
121.3829361345667
 30
0.0
 11
742.6518246912471
 21
114.5976348705901
 31
0.0
  0
TEXT
  5
12E2
330
2
100
AcDbEntity
  8
LOGO
 62
     6
100
AcDbText
 10
732.02148642773
 20
106.4866974892958
 30
0.0
 40
6.031397596321867
  1
旋轉方向
 41
0.9
  7
CHINESET
 72
     4
 11
742.6518246912472
 21
109.3200988781519
 31
0.0
100
AcDbText
  0
LINE
  5
12E3
330
2
100
AcDbEntity
  8
LOGO
 62
     6
100
AcDbLine
 10
774.7934877720787
 20
114.5975717749335
 30
0.0
 11
774.7934877720787
 21
98.01122838504845
 31
0.0
  0
LINE
  5
12E4
330
2
100
AcDbEntity
  8
LOGO
 62
     6
100
AcDbLine
 10
764.704053799171
 20
114.5976348705901
 30
0.0
 11
764.704053799171
 21
98.01122838504845
 31
0.0
  0
LINE
  5
12E5
330
2
100
AcDbEntity
  8
LOGO
 62
     6
100
AcDbLine
 10
774.7934877720787
 20
134.9535386625198
 30
0.0
 11
774.7934877720787
 21
121.3828940707956
 31
0.0
  0
LINE
  5
12E6
330
2
100
AcDbEntity
  8
LOGO
 62
     6
100
AcDbLine
 10
764.704053799171
 20
134.9535386625198
 30
0.0
 11
764.704053799171
 21
121.3829361345667
 31
0.0
  0
LINE
  5
12E7
330
2
100
AcDbEntity
  8
LOGO
  6
CONTINUOUS
 62
     7
100
AcDbLine
 10
766.6771346443632
 20
128.120146998845
 30
0.0
 11
772.6694361252504
 21
128.120146998845
 31
0.0
  0
LINE
  5
12E8
330
2
100
AcDbEntity
  8
LOGO
 62
     6
100
AcDbLine
 10
786.8980530740039
 20
121.3828940707956
 30
0.0
 11
786.8980530740039
 21
114.5975717749335
 31
0.0
  0
LINE
  5
12E9
330
2
100
AcDbEntity
  8
LOGO
 62
     6
100
AcDbLine
 10
829.1314435067711
 20
121.3829361345667
 30
0.0
 11
829.1314435067711
 21
114.5976348705902
 31
0.0
  0
TEXT
  5
12EA
330
2
100
AcDbEntity
  8
LOGO
 62
     6
100
AcDbText
 10
812.3297451388292
 20
99.89604597608943
 30
0.0
 40
3.769611813320298
  1
Rotating angle
 41
0.8
  7
ROMANS1
 72
     1
 11
829.1314435067711
 21
101.7808518827495
 31
0.0
100
AcDbText
 73
     2
  0
LINE
  5
12EB
330
2
100
AcDbEntity
  8
LOGO
 62
     6
100
AcDbLine
 10
799.0026190713025
 20
114.5975717749335
 30
0.0
 11
799.0026190713025
 21
98.01122838504847
 31
0.0
  0
LINE
  5
12EC
330
2
100
AcDbEntity
  8
LOGO
 62
     6
100
AcDbLine
 10
808.6049009253333
 20
114.5976348705902
 30
0.0
 11
808.6049009253333
 21
98.01122838504845
 31
0.0
  0
TEXT
  5
12ED
330
2
100
AcDbEntity
  8
LOGO
 62
     6
100
AcDbText
 10
818.3314721858572
 20
106.4926339042528
 30
0.0
 40
6.031397596321867
  1
旋轉角度
 41
0.9
  7
CHINESET
 72
     4
 11
829.1314435067711
 21
109.3200988781519
 31
0.0
100
AcDbText
  0
LINE
  5
12EE
330
2
100
AcDbEntity
  8
LOGO
 62
     6
100
AcDbLine
 10
799.0026190713025
 20
134.9535386625199
 30
0.0
 11
799.0026190713025
 21
121.3828940707956
 31
0.0
  0
LINE
  5
12EF
330
2
100
AcDbEntity
  8
LOGO
 62
     6
100
AcDbLine
 10
808.6049009253333
 20
134.9535386625198
 30
0.0
 11
808.6049009253333
 21
121.3829361345667
 31
0.0
  0
LINE
  5
12F0
330
2
100
AcDbEntity
  8
LOGO
  6
CONTINUOUS
 62
     7
100
AcDbLine
 10
800.8579007742977
 20
128.1201469988451
 30
0.0
 11
806.8502022551847
 21
128.1201469988451
 31
0.0
  0
LINE
  5
1309
330
2
100
AcDbEntity
  8
LOGO
 62
     1
100
AcDbLine
 10
854.7886558883794
 20
94.24160488734717
 30
0.0
 11
854.7886558883794
 21
139.4770868597611
 31
0.0
  0
LINE
  5
130A
330
2
100
AcDbEntity
  8
LOGO
 62
     6
100
AcDbLine
 10
848.7861648373225
 20
114.5976348705902
 30
0.0
 11
848.7861648373225
 21
98.0112283850485
 31
0.0
  0
LINE
  5
130B
330
2
100
AcDbEntity
  8
LOGO
 62
     6
100
AcDbLine
 10
848.7861648373225
 20
134.9535386625199
 30
0.0
 11
848.7861648373225
 21
121.3829361345667
 31
0.0
  0
LINE
  5
1E44
330
2
100
AcDbEntity
  8
CENTER
100
AcDbLine
 10
677.9114531010564
 20
366.4122902270355
 30
0.0
 11
586.1268839901488
 21
366.4122902270355
 31
0.0
  0
LINE
  5
1E45
102
{ACAD_REACTORS
330
216F
330
21A7
330
21DF
330
224F
102
}
330
2
100
AcDbEntity
  8
0
100
AcDbLine
 10
621.9114531010563
 20
154.6882746016988
 30
0.0
 11
673.9114531010564
 21
154.6882746016988
 31
0.0
  0
ARC
  5
1E46
330
2
100
AcDbEntity
  8
0
100
AcDbCircle
 10
647.9114531010564
 20
366.4122902270355
 30
0.0
 40
25.0
100
AcDbArc
 50
203.3179570000011
 51
156.6820429999988
  0
LINE
  5
1E47
102
{ACAD_REACTORS
330
21A7
102
}
330
2
100
AcDbEntity
  8
0
100
AcDbLine
 10
624.9114531010564
 20
225.6882746016988
 30
0.0
 11
670.9114531010563
 21
225.6882746016988
 31
0.0
  0
LINE
  5
1E48
102
{ACAD_REACTORS
330
216F
102
}
330
2
100
AcDbEntity
  8
0
100
AcDbLine
 10
621.4114531010563
 20
177.6882746016988
 30
0.0
 11
674.4114531010564
 21
177.6882746016988
 31
0.0
  0
LINE
  5
1E49
330
2
100
AcDbEntity
  8
0
100
AcDbLine
 10
672.9114531010564
 20
339.4122902270355
 30
0.0
 11
622.9114531010564
 21
339.4122902270355
 31
0.0
  0
LINE
  5
1E4A
330
2
100
AcDbEntity
  8
0
100
AcDbLine
 10
622.9114531010564
 20
393.4122902270356
 30
0.0
 11
672.9114531010564
 21
393.4122902270356
 31
0.0
  0
LINE
  5
1E4B
330
2
100
AcDbEntity
  8
0
100
AcDbLine
 10
639.9114531010564
 20
257.1882746016988
 30
0.0
 11
639.9114531010564
 21
225.6882746016988
 31
0.0
  0
LINE
  5
1E4C
330
2
100
AcDbEntity
  8
0
100
AcDbLine
 10
655.9114531010564
 20
257.1882746016988
 30
0.0
 11
655.9114531010564
 21
225.6882746016988
 31
0.0
  0
LINE
  5
1E4D
102
{ACAD_REACTORS
330
22C3
102
}
330
2
100
AcDbEntity
  8
CENTER
100
AcDbLine
 10
647.9114531010564
 20
278.5464336297454
 30
0.0
 11
647.9114531010564
 21
152.8170466016988
 31
0.0
  0
LINE
  5
1E4E
330
2
100
AcDbEntity
  8
0
100
AcDbLine
 10
620.9114531010563
 20
177.1882746016988
 30
0.0
 11
620.9114531010563
 21
155.6882746016988
 31
0.0
  0
LINE
  5
1E4F
330
2
100
AcDbEntity
  8
0
100
AcDbLine
 10
620.9114531010563
 20
155.6882746016988
 30
0.0
 11
621.9114531010563
 21
154.6882746016988
 31
0.0
  0
LINE
  5
1E50
330
2
100
AcDbEntity
  8
0
100
AcDbLine
 10
622.9114531010564
 20
223.6882746016988
 30
0.0
 11
622.9114531010564
 21
177.6882746016988
 31
0.0
  0
LINE
  5
1E52
330
2
100
AcDbEntity
  8
CENTER
100
AcDbLine
 10
629.9199321010563
 20
170.3882746016988
 30
0.0
 11
645.1679821010563
 21
170.3882746016988
 31
0.0
  0
LINE
  5
1E53
330
2
100
AcDbEntity
  8
0
100
AcDbLine
 10
621.4114531010563
 20
177.6882746016988
 30
0.0
 11
620.9114531010563
 21
177.1882746016988
 31
0.0
  0
CIRCLE
  5
1E54
330
2
100
AcDbEntity
  8
0
100
AcDbCircle
 10
636.9114531010564
 20
170.3882746016988
 30
0.0
 40
4.0
  0
LINE
  5
1E56
330
2
100
AcDbEntity
  8
CENTER
100
AcDbLine
 10
636.9114531010564
 20
177.1882746016988
 30
0.0
 11
636.9114531010564
 21
163.7294066016988
 31
0.0
  0
LINE
  5
1E57
330
2
100
AcDbEntity
  8
0
100
AcDbLine
 10
624.9114531010564
 20
225.6882746016988
 30
0.0
 11
622.9114531010564
 21
223.6882746016988
 31
0.0
  0
CIRCLE
  5
1E59
330
2
100
AcDbEntity
  8
0
100
AcDbCircle
 10
647.9114531010564
 20
217.6882746016988
 30
0.0
 40
4.0
  0
LINE
  5
1E5A
330
2
100
AcDbEntity
  8
CENTER
100
AcDbLine
 10
641.4030311010564
 20
217.6882746016988
 30
0.0
 11
655.7098421010564
 21
217.6882746016988
 31
0.0
  0
LINE
  5
1E5B
330
2
100
AcDbEntity
  8
CENTER
100
AcDbLine
 10
647.9114531010564
 20
396.4122902270356
 30
0.0
 11
647.9114531010564
 21
336.4122902270355
 31
0.0
  0
LINE
  5
1E5D
330
2
100
AcDbEntity
  8
0
100
AcDbLine
 10
588.9114531010563
 20
357.9122902270355
 30
0.0
 11
588.9114531010563
 21
374.9122902270356
 31
0.0
  0
LINE
  5
1E5E
330
2
100
AcDbEntity
  8
0
100
AcDbLine
 10
658.9114531010563
 20
357.9122902270355
 30
0.0
 11
658.9114531010563
 21
374.9122902270356
 31
0.0
  0
CIRCLE
  5
1E5F
330
2
100
AcDbEntity
  8
0
100
AcDbCircle
 10
647.9114531010564
 20
366.4122902270355
 30
0.0
 40
7.0
  0
LINE
  5
1E60
102
{ACAD_REACTORS
330
21DF
330
2217
102
}
330
2
100
AcDbEntity
  8
0
100
AcDbLine
 10
589.9114531010564
 20
257.1882746016988
 30
0.0
 11
657.9114531010564
 21
257.1882746016988
 31
0.0
  0
LINE
  5
1E61
102
{ACAD_REACTORS
330
2217
330
224F
102
}
330
2
100
AcDbEntity
  8
0
100
AcDbLine
 10
589.9114531010564
 20
276.1882746016988
 30
0.0
 11
657.9114531010564
 21
276.1882746016988
 31
0.0
  0
LINE
  5
1E62
102
{ACAD_REACTORS
330
20B8
102
}
330
2
100
AcDbEntity
  8
0
100
AcDbLine
 10
589.9114531010564
 20
356.9122902270355
 30
0.0
 11
657.9114531010564
 21
356.9122902270355
 31
0.0
  0
LINE
  5
1E63
330
2
100
AcDbEntity
  8
0
100
AcDbLine
 10
589.9114531010564
 20
276.1882746016988
 30
0.0
 11
588.9114531010563
 21
275.1882746016988
 31
0.0
  0
LINE
  5
1E64
330
2
100
AcDbEntity
  8
HIDDEN
  6
HIDDEN
100
AcDbLine
 10
594.4114531010564
 20
257.1882746016988
 30
0.0
 11
594.4114531010564
 21
276.1882746016988
 31
0.0
  0
LINE
  5
1E65
330
2
100
AcDbEntity
  8
HIDDEN
  6
HIDDEN
100
AcDbLine
 10
593.9114531010564
 20
257.1882746016988
 30
0.0
 11
593.9114531010564
 21
276.1882746016988
 31
0.0
  0
LINE
  5
1E66
102
{ACAD_REACTORS
330
228B
330
22C3
102
}
330
2
100
AcDbEntity
  8
CENTER
100
AcDbLine
 10
597.9114531010564
 20
253.7240616016988
 30
0.0
 11
597.9114531010564
 21
279.1435256016988
 31
0.0
  0
LINE
  5
1E67
102
{ACAD_REACTORS
330
228B
330
22FB
102
}
330
2
100
AcDbEntity
  8
0
100
AcDbLine
 10
588.9114531010563
 20
275.1882746016988
 30
0.0
 11
588.9114531010563
 21
258.1882746016988
 31
0.0
  0
LINE
  5
1E68
330
2
100
AcDbEntity
  8
0
100
AcDbLine
 10
588.9114531010563
 20
258.1882746016988
 30
0.0
 11
589.9114531010564
 21
257.1882746016988
 31
0.0
  0
LINE
  5
1E69
330
2
100
AcDbEntity
  8
0
100
AcDbLine
 10
589.9114531010564
 20
356.9122902270355
 30
0.0
 11
588.9114531010563
 21
357.9122902270355
 31
0.0
  0
LINE
  5
1E6A
330
2
100
AcDbEntity
  8
HIDDEN
  6
HIDDEN
100
AcDbLine
 10
601.4114531010563
 20
257.1882746016988
 30
0.0
 11
601.4114531010563
 21
276.1882746016988
 31
0.0
  0
LINE
  5
1E6B
330
2
100
AcDbEntity
  8
HIDDEN
  6
HIDDEN
100
AcDbLine
 10
601.9114531010564
 20
257.1882746016988
 30
0.0
 11
601.9114531010564
 21
276.1882746016988
 31
0.0
  0
LINE
  5
1E6C
330
2
100
AcDbEntity
  8
0
  6
CENTER
100
AcDbLine
 10
657.9114531010564
 20
276.1882746016988
 30
0.0
 11
658.9114531010563
 21
275.1882746016988
 31
0.0
  0
LINE
  5
1E6D
330
2
100
AcDbEntity
  8
0
100
AcDbLine
 10
658.9114531010563
 20
275.1882746016988
 30
0.0
 11
657.9114531010564
 21
276.1882746016988
 31
0.0
  0
LINE
  5
1E6E
102
{ACAD_REACTORS
330
22FB
102
}
330
2
100
AcDbEntity
  8
0
100
AcDbLine
 10
658.9114531010563
 20
275.1882746016988
 30
0.0
 11
658.9114531010563
 21
258.1882746016988
 31
0.0
  0
LINE
  5
1E6F
330
2
100
AcDbEntity
  8
0
100
AcDbLine
 10
657.9114531010564
 20
257.1882746016988
 30
0.0
 11
658.9114531010563
 21
258.1882746016988
 31
0.0
  0
LINE
  5
1E70
330
2
100
AcDbEntity
  8
0
100
AcDbLine
 10
657.9114531010564
 20
257.1882746016988
 30
0.0
 11
658.9114531010563
 21
258.1882746016988
 31
0.0
  0
LINE
  5
1E71
102
{ACAD_REACTORS
330
2137
102
}
330
2
100
AcDbEntity
  8
0
100
AcDbLine
 10
620.9114531010563
 20
341.4122902270355
 30
0.0
 11
620.9114531010563
 21
356.9122902270355
 31
0.0
  0
CIRCLE
  5
1E72
330
2
100
AcDbEntity
  8
0
100
AcDbCircle
 10
625.9114531010563
 20
344.4122902270355
 30
0.0
 40
3.25
  0
LINE
  5
1E73
330
2
100
AcDbEntity
  8
0
100
AcDbLine
 10
620.9114531010563
 20
341.4122902270355
 30
0.0
 11
622.9114531010564
 21
339.4122902270355
 31
0.0
  0
LINE
  5
1E74
330
2
100
AcDbEntity
  8
0
100
AcDbLine
 10
657.9114531010564
 20
356.9122902270355
 30
0.0
 11
658.9114531010563
 21
357.9122902270355
 31
0.0
  0
LINE
  5
1E75
330
2
100
AcDbEntity
  8
0
100
AcDbLine
 10
658.9114531010563
 20
357.9122902270355
 30
0.0
 11
657.9114531010564
 21
356.9122902270355
 31
0.0
  0
CIRCLE
  5
1E76
330
2
100
AcDbEntity
  8
0
100
AcDbCircle
 10
597.9114531010564
 20
366.4122902270355
 30
0.0
 40
3.5
  0
LINE
  5
1E78
102
{ACAD_REACTORS
330
20B8
102
}
330
2
100
AcDbEntity
  8
0
100
AcDbLine
 10
589.9114531010564
 20
375.9122902270356
 30
0.0
 11
657.9114531010564
 21
375.9122902270356
 31
0.0
  0
LINE
  5
1E79
330
2
100
AcDbEntity
  8
CENTER
100
AcDbLine
 10
597.9114531010564
 20
372.4122902270356
 30
0.0
 11
597.9114531010564
 21
360.4122902270355
 31
0.0
  0
LINE
  5
1E7A
330
2
100
AcDbEntity
  8
0
100
AcDbLine
 10
588.9114531010563
 20
374.9122902270356
 30
0.0
 11
589.9114531010564
 21
375.9122902270356
 31
0.0
  0
LINE
  5
1E7B
330
2
100
AcDbEntity
  8
0
100
AcDbLine
 10
620.9114531010563
 20
375.9122902270356
 30
0.0
 11
620.9114531010563
 21
391.4122902270356
 31
0.0
  0
CIRCLE
  5
1E7C
330
2
100
AcDbEntity
  8
0
100
AcDbCircle
 10
625.9114531010563
 20
388.4122902270356
 30
0.0
 40
3.25
  0
LINE
  5
1E7D
330
2
100
AcDbEntity
  8
0
100
AcDbLine
 10
620.9114531010563
 20
391.4122902270356
 30
0.0
 11
622.9114531010564
 21
393.4122902270356
 31
0.0
  0
LINE
  5
1E7E
330
2
100
AcDbEntity
  8
0
100
AcDbLine
 10
657.9114531010564
 20
375.9122902270356
 30
0.0
 11
658.9114531010563
 21
374.9122902270356
 31
0.0
  0
LINE
  5
1E7F
330
2
100
AcDbEntity
  8
0
100
AcDbLine
 10
657.9114531010564
 20
375.9122902270356
 30
0.0
 11
658.9114531010563
 21
374.9122902270356
 31
0.0
  0
LINE
  5
1E80
330
2
100
AcDbEntity
  8
0
100
AcDbLine
 10
674.9114531010564
 20
177.1882746016988
 30
0.0
 11
674.9114531010564
 21
155.6882746016988
 31
0.0
  0
LINE
  5
1E81
330
2
100
AcDbEntity
  8
0
100
AcDbLine
 10
673.9114531010564
 20
154.6882746016988
 30
0.0
 11
674.9114531010564
 21
155.6882746016988
 31
0.0
  0
LINE
  5
1E82
330
2
100
AcDbEntity
  8
0
100
AcDbLine
 10
672.9114531010564
 20
223.6882746016988
 30
0.0
 11
672.9114531010564
 21
177.6882746016988
 31
0.0
  0
LINE
  5
1E83
330
2
100
AcDbEntity
  8
0
100
AcDbLine
 10
674.9114531010564
 20
177.1882746016988
 30
0.0
 11
674.4114531010564
 21
177.6882746016988
 31
0.0
  0
LINE
  5
1E84
330
2
100
AcDbEntity
  8
0
100
AcDbLine
 10
672.9114531010564
 20
223.6882746016988
 30
0.0
 11
670.9114531010563
 21
225.6882746016988
 31
0.0
  0
LINE
  5
1E85
102
{ACAD_REACTORS
330
2137
102
}
330
2
100
AcDbEntity
  8
0
100
AcDbLine
 10
674.9114531010564
 20
391.4122902270356
 30
0.0
 11
674.9114531010564
 21
341.4122902270355
 31
0.0
  0
CIRCLE
  5
1E86
330
2
100
AcDbEntity
  8
0
100
AcDbCircle
 10
669.9114531010564
 20
344.4122902270355
 30
0.0
 40
3.25
  0
LINE
  5
1E87
330
2
100
AcDbEntity
  8
0
100
AcDbLine
 10
674.9114531010564
 20
341.4122902270355
 30
0.0
 11
672.9114531010564
 21
339.4122902270355
 31
0.0
  0
CIRCLE
  5
1E88
330
2
100
AcDbEntity
  8
0
100
AcDbCircle
 10
669.9114531010564
 20
388.4122902270356
 30
0.0
 40
3.25
  0
LINE
  5
1E89
330
2
100
AcDbEntity
  8
0
100
AcDbLine
 10
672.9114531010564
 20
393.4122902270356
 30
0.0
 11
674.9114531010564
 21
391.4122902270356
 31
0.0
  0
LINE
  5
1EBD
330
2
100
AcDbEntity
  8
AM_7
  6
AM_ISO08W050X2
100
AcDbLine
 10
625.9114531010563
 20
344.4122902270355
 30
0.0
 11
630.6614531010564
 21
344.4122902270355
 31
0.0
1001
GENIUS_GENOREF_13
1005
1EC1
  0
LINE
  5
1EBE
330
2
100
AcDbEntity
  8
AM_7
  6
AM_ISO08W050X2
100
AcDbLine
 10
625.9114531010563
 20
344.4122902270355
 30
0.0
 11
625.9114531010563
 21
349.1622902270355
 31
0.0
1001
GENIUS_GENOREF_13
1005
1EC1
  0
LINE
  5
1EBF
330
2
100
AcDbEntity
  8
AM_7
  6
AM_ISO08W050X2
100
AcDbLine
 10
625.9114531010563
 20
344.4122902270355
 30
0.0
 11
621.1614531010564
 21
344.4122902270355
 31
0.0
1001
GENIUS_GENOREF_13
1005
1EC1
  0
LINE
  5
1EC0
102
{ACAD_REACTORS
330
20FF
102
}
330
2
100
AcDbEntity
  8
AM_7
  6
AM_ISO08W050X2
100
AcDbLine
 10
625.9114531010563
 20
344.4122902270355
 30
0.0
 11
625.9114531010563
 21
339.6622902270355
 31
0.0
1001
GENIUS_GENOREF_13
1005
1EC1
  0
POINT
  5
1EC1
330
2
100
AcDbEntity
  8
0
 60
     1
100
AcDbPoint
 10
0.0
 20
0.0
 30
0.0
1001
GENIUS_GENODEF_13
1002
{
1000
HIER
1070
    10
1002
}
1002
{
1000
MANEDIT
1070
     0
1002
}
1002
{
1000
NOSEL
1070
     0
1002
}
1002
{
1000
BEHIND
1070
     0
1002
}
1002
{
1000
OTHER
1070
     0
1002
}
1002
{
1000
REACTOR
1002
}
1001
GENIUS_GENOLIS_13
1002
{
1000
ENT
1005
1EC0
1005
1EBF
1005
1EBE
1005
1EBD
1002
}
1001
GENIUS_GENOENT_13
1002
{
1000
MYREF
1005
1EC1
1002
}
1002
{
1000
GRP
1005
0
1002
}
1001
GENIUS_GENOBJ-N-CRS_13
1002
{
1000
OWNER
1000
GEN
1002
}
  0
LINE
  5
1ECF
102
{ACAD_REACTORS
330
2037
102
}
330
2
100
AcDbEntity
  8
AM_7
  6
AM_ISO08W050X2
100
AcDbLine
 10
669.9114531010564
 20
344.4122902270355
 30
0.0
 11
674.6614531010564
 21
344.4122902270355
 31
0.0
1001
GENIUS_GENOREF_13
1005
1ED3
  0
LINE
  5
1ED0
330
2
100
AcDbEntity
  8
AM_7
  6
AM_ISO08W050X2
100
AcDbLine
 10
669.9114531010564
 20
344.4122902270355
 30
0.0
 11
669.9114531010564
 21
349.1622902270355
 31
0.0
1001
GENIUS_GENOREF_13
1005
1ED3
  0
LINE
  5
1ED1
330
2
100
AcDbEntity
  8
AM_7
  6
AM_ISO08W050X2
100
AcDbLine
 10
669.9114531010564
 20
344.4122902270355
 30
0.0
 11
665.1614531010563
 21
344.4122902270355
 31
0.0
1001
GENIUS_GENOREF_13
1005
1ED3
  0
LINE
  5
1ED2
102
{ACAD_REACTORS
330
20FF
102
}
330
2
100
AcDbEntity
  8
AM_7
  6
AM_ISO08W050X2
100
AcDbLine
 10
669.9114531010564
 20
344.4122902270355
 30
0.0
 11
669.9114531010564
 21
339.6622902270355
 31
0.0
1001
GENIUS_GENOREF_13
1005
1ED3
  0
POINT
  5
1ED3
330
2
100
AcDbEntity
  8
0
 60
     1
100
AcDbPoint
 10
0.0
 20
0.0
 30
0.0
1001
GENIUS_GENOLIS_13
1002
{
1000
ENT
1005
1ED2
1005
1ED1
1005
1ED0
1005
1ECF
1002
}
1001
GENIUS_GENOENT_13
1002
{
1000
MYREF
1005
1ED3
1002
}
1002
{
1000
GRP
1005
0
1002
}
1001
GENIUS_GENODEF_13
1002
{
1000
HIER
1070
    10
1002
}
1002
{
1000
MANEDIT
1070
     0
1002
}
1002
{
1000
NOSEL
1070
     0
1002
}
1002
{
1000
BEHIND
1070
     0
1002
}
1002
{
1000
OTHER
1070
     0
1002
}
1002
{
1000
REACTOR
1002
}
1001
GENIUS_GENOBJ-N-CRS_13
1002
{
1000
OWNER
1000
GEN
1002
}
  0
LINE
  5
1EE1
102
{ACAD_REACTORS
330
2037
102
}
330
2
100
AcDbEntity
  8
AM_7
  6
AM_ISO08W050X2
100
AcDbLine
 10
669.9114531010564
 20
388.4122902270356
 30
0.0
 11
674.6614531010564
 21
388.4122902270356
 31
0.0
1001
GENIUS_GENOREF_13
1005
1EE5
  0
LINE
  5
1EE2
330
2
100
AcDbEntity
  8
AM_7
  6
AM_ISO08W050X2
100
AcDbLine
 10
669.9114531010564
 20
388.4122902270356
 30
0.0
 11
669.9114531010564
 21
393.1622902270356
 31
0.0
1001
GENIUS_GENOREF_13
1005
1EE5
  0
LINE
  5
1EE3
330
2
100
AcDbEntity
  8
AM_7
  6
AM_ISO08W050X2
100
AcDbLine
 10
669.9114531010564
 20
388.4122902270356
 30
0.0
 11
665.1614531010563
 21
388.4122902270356
 31
0.0
1001
GENIUS_GENOREF_13
1005
1EE5
  0
LINE
  5
1EE4
330
2
100
AcDbEntity
  8
AM_7
  6
AM_ISO08W050X2
100
AcDbLine
 10
669.9114531010564
 20
388.4122902270356
 30
0.0
 11
669.9114531010564
 21
383.6622902270356
 31
0.0
1001
GENIUS_GENOREF_13
1005
1EE5
  0
POINT
  5
1EE5
330
2
100
AcDbEntity
  8
0
 60
     1
100
AcDbPoint
 10
0.0
 20
0.0
 30
0.0
1001
GENIUS_GENOLIS_13
1002
{
1000
ENT
1005
1EE4
1005
1EE3
1005
1EE2
1005
1EE1
1002
}
1001
GENIUS_GENOENT_13
1002
{
1000
MYREF
1005
1EE5
1002
}
1002
{
1000
GRP
1005
0
1002
}
1001
GENIUS_GENOBJ-N-CRS_13
1002
{
1000
OWNER
1000
GEN
1002
}
1001
GENIUS_GENODEF_13
1002
{
1000
HIER
1070
    10
1002
}
1002
{
1000
MANEDIT
1070
     0
1002
}
1002
{
1000
NOSEL
1070
     0
1002
}
1002
{
1000
BEHIND
1070
     0
1002
}
1002
{
1000
OTHER
1070
     0
1002
}
1002
{
1000
REACTOR
1002
}
  0
LINE
  5
1EF3
330
2
100
AcDbEntity
  8
AM_7
  6
AM_ISO08W050X2
100
AcDbLine
 10
625.9114531010563
 20
388.4122902270356
 30
0.0
 11
630.6614531010564
 21
388.4122902270356
 31
0.0
1001
GENIUS_GENOREF_13
1005
1EF7
  0
LINE
  5
1EF4
330
2
100
AcDbEntity
  8
AM_7
  6
AM_ISO08W050X2
100
AcDbLine
 10
625.9114531010563
 20
388.4122902270356
 30
0.0
 11
625.9114531010563
 21
393.1622902270356
 31
0.0
1001
GENIUS_GENOREF_13
1005
1EF7
  0
LINE
  5
1EF5
330
2
100
AcDbEntity
  8
AM_7
  6
AM_ISO08W050X2
100
AcDbLine
 10
625.9114531010563
 20
388.4122902270356
 30
0.0
 11
621.1614531010564
 21
388.4122902270356
 31
0.0
1001
GENIUS_GENOREF_13
1005
1EF7
  0
LINE
  5
1EF6
330
2
100
AcDbEntity
  8
AM_7
  6
AM_ISO08W050X2
100
AcDbLine
 10
625.9114531010563
 20
388.4122902270356
 30
0.0
 11
625.9114531010563
 21
383.6622902270356
 31
0.0
1001
GENIUS_GENOREF_13
1005
1EF7
  0
POINT
  5
1EF7
330
2
100
AcDbEntity
  8
0
 60
     1
100
AcDbPoint
 10
0.0
 20
0.0
 30
0.0
1001
GENIUS_GENOLIS_13
1002
{
1000
ENT
1005
1EF6
1005
1EF5
1005
1EF4
1005
1EF3
1002
}
1001
GENIUS_GENOENT_13
1002
{
1000
MYREF
1005
1EF7
1002
}
1002
{
1000
GRP
1005
0
1002
}
1001
GENIUS_GENOBJ-N-CRS_13
1002
{
1000
OWNER
1000
GEN
1002
}
1001
GENIUS_GENODEF_13
1002
{
1000
HIER
1070
    10
1002
}
1002
{
1000
MANEDIT
1070
     0
1002
}
1002
{
1000
NOSEL
1070
     0
1002
}
1002
{
1000
BEHIND
1070
     0
1002
}
1002
{
1000
OTHER
1070
     0
1002
}
1002
{
1000
REACTOR
1002
}
  0
LINE
  5
1EF9
330
2
100
AcDbEntity
  8
CENTER
100
AcDbLine
 10
775.8808926814045
 20
280.0251006557926
 30
0.0
 11
775.8808926814045
 21
152.8170466016988
 31
0.0
  0
LINE
  5
1EFA
330
2
100
AcDbEntity
  8
0
100
AcDbLine
 10
800.8808926814044
 20
223.6882746016988
 30
0.0
 11
800.8808926814044
 21
177.6882746016988
 31
0.0
  0
LINE
  5
1EFB
330
2
100
AcDbEntity
  8
0
100
AcDbLine
 10
750.8808926814045
 20
223.6882746016988
 30
0.0
 11
750.8808926814045
 21
177.6882746016988
 31
0.0
  0
LINE
  5
1EFC
330
2
100
AcDbEntity
  8
0
100
AcDbLine
 10
749.3808926814044
 20
177.6882746016988
 30
0.0
 11
802.3808926814044
 21
177.6882746016988
 31
0.0
  0
LINE
  5
1EFD
330
2
100
AcDbEntity
  8
0
100
AcDbLine
 10
749.8808926814044
 20
154.6882746016988
 30
0.0
 11
801.8808926814044
 21
154.6882746016988
 31
0.0
  0
LINE
  5
1EFE
330
2
100
AcDbEntity
  8
0
100
AcDbLine
 10
748.8808926814044
 20
177.1882746016988
 30
0.0
 11
748.8808926814044
 21
155.6882746016988
 31
0.0
  0
LINE
  5
1EFF
330
2
100
AcDbEntity
  8
0
100
AcDbLine
 10
748.8808926814044
 20
155.6882746016988
 30
0.0
 11
749.8808926814044
 21
154.6882746016988
 31
0.0
  0
LINE
  5
1F04
330
2
100
AcDbEntity
  8
0
100
AcDbLine
 10
749.3808926814044
 20
177.6882746016988
 30
0.0
 11
748.8808926814044
 21
177.1882746016988
 31
0.0
  0
LINE
  5
1F05
330
2
100
AcDbEntity
  8
0
100
AcDbLine
 10
802.8808926814045
 20
177.1882746016988
 30
0.0
 11
802.8808926814045
 21
155.6882746016988
 31
0.0
  0
LINE
  5
1F06
330
2
100
AcDbEntity
  8
0
100
AcDbLine
 10
801.8808926814044
 20
154.6882746016988
 30
0.0
 11
802.8808926814045
 21
155.6882746016988
 31
0.0
  0
LINE
  5
1F07
330
2
100
AcDbEntity
  8
0
100
AcDbLine
 10
802.8808926814045
 20
177.1882746016988
 30
0.0
 11
802.3808926814044
 21
177.6882746016988
 31
0.0
  0
LINE
  5
1F08
330
2
100
AcDbEntity
  8
0
100
AcDbLine
 10
767.3808926814045
 20
276.1882746016988
 30
0.0
 11
784.3808926814045
 21
276.1882746016988
 31
0.0
  0
LINE
  5
1F09
330
2
100
AcDbEntity
  8
0
100
AcDbLine
 10
767.3808926814045
 20
257.1882746016988
 30
0.0
 11
784.3808926814045
 21
257.1882746016988
 31
0.0
  0
LINE
  5
1F0A
330
2
100
AcDbEntity
  8
0
100
AcDbLine
 10
752.8808926814044
 20
225.6882746016988
 30
0.0
 11
798.8808926814044
 21
225.6882746016988
 31
0.0
  0
LINE
  5
1F0B
330
2
100
AcDbEntity
  8
0
100
AcDbLine
 10
783.8808926814045
 20
257.1882746016988
 30
0.0
 11
783.8808926814045
 21
225.6882746016988
 31
0.0
  0
LINE
  5
1F0C
330
2
100
AcDbEntity
  8
0
100
AcDbLine
 10
767.8808926814045
 20
257.1882746016988
 30
0.0
 11
767.8808926814045
 21
225.6882746016988
 31
0.0
  0
LINE
  5
1F10
330
2
100
AcDbEntity
  8
0
100
AcDbLine
 10
752.8808926814044
 20
225.6882746016988
 30
0.0
 11
750.8808926814045
 21
223.6882746016988
 31
0.0
  0
LINE
  5
1F13
330
2
100
AcDbEntity
  8
0
100
AcDbLine
 10
766.3808926814044
 20
275.1882746016988
 30
0.0
 11
766.3808926814044
 21
258.1882746016988
 31
0.0
  0
LINE
  5
1F14
330
2
100
AcDbEntity
  8
0
100
AcDbLine
 10
766.3808926814044
 20
258.1882746016988
 30
0.0
 11
767.3808926814045
 21
257.1882746016988
 31
0.0
  0
LINE
  5
1F15
330
2
100
AcDbEntity
  8
0
100
AcDbLine
 10
767.3808926814045
 20
276.1882746016988
 30
0.0
 11
766.3808926814044
 21
275.1882746016988
 31
0.0
  0
LINE
  5
1F19
330
2
100
AcDbEntity
  8
0
100
AcDbLine
 10
800.8808926814044
 20
223.6882746016988
 30
0.0
 11
798.8808926814044
 21
225.6882746016988
 31
0.0
  0
LINE
  5
1F1A
330
2
100
AcDbEntity
  8
0
100
AcDbLine
 10
785.3808926814044
 20
275.1882746016988
 30
0.0
 11
785.3808926814044
 21
258.1882746016988
 31
0.0
  0
LINE
  5
1F1B
330
2
100
AcDbEntity
  8
0
100
AcDbLine
 10
784.3808926814045
 20
257.1882746016988
 30
0.0
 11
785.3808926814044
 21
258.1882746016988
 31
0.0
  0
LINE
  5
1F1C
330
2
100
AcDbEntity
  8
0
100
AcDbLine
 10
784.3808926814045
 20
257.1882746016988
 30
0.0
 11
785.3808926814044
 21
258.1882746016988
 31
0.0
  0
LINE
  5
1F1D
330
2
100
AcDbEntity
  8
0
100
AcDbLine
 10
785.3808926814044
 20
275.1882746016988
 30
0.0
 11
784.3808926814045
 21
276.1882746016988
 31
0.0
  0
LINE
  5
1F1E
330
2
100
AcDbEntity
  8
0
  6
CENTER
100
AcDbLine
 10
784.3808926814045
 20
276.1882746016988
 30
0.0
 11
785.3808926814044
 21
275.1882746016988
 31
0.0
  0
LINE
  5
1F96
330
2
100
AcDbEntity
  8
HIDDEN
  6
HIDDEN
100
AcDbLine
 10
629.1614531010564
 20
177.6882746016988
 30
0.0
 11
629.1614531010564
 21
154.6882746016988
 31
0.0
  0
LINE
  5
1F97
330
2
100
AcDbEntity
  8
HIDDEN
  6
HIDDEN
100
AcDbLine
 10
622.6614531010564
 20
177.6882746016988
 30
0.0
 11
622.6614531010564
 21
154.6882746016988
 31
0.0
  0
LINE
  5
1F99
330
2
100
AcDbEntity
  8
CENTER
100
AcDbLine
 10
625.9114531010563
 20
152.6403376140296
 30
0.0
 11
625.9114531010563
 21
180.1071389225124
 31
0.0
  0
LINE
  5
1F9A
330
2
100
AcDbEntity
  8
CENTER
100
AcDbLine
 10
669.9114531010564
 20
152.6403376140296
 30
0.0
 11
669.9114531010564
 21
180.1071389225124
 31
0.0
  0
LINE
  5
1F9B
330
2
100
AcDbEntity
  8
HIDDEN
  6
HIDDEN
100
AcDbLine
 10
666.6614531010564
 20
177.6882746016988
 30
0.0
 11
666.6614531010564
 21
154.6882746016988
 31
0.0
  0
LINE
  5
1F9C
330
2
100
AcDbEntity
  8
HIDDEN
  6
HIDDEN
100
AcDbLine
 10
673.1614531010563
 20
177.6882746016988
 30
0.0
 11
673.1614531010563
 21
154.6882746016988
 31
0.0
  0
LINE
  5
1FAB
330
2
100
AcDbEntity
  8
CENTER
  6
CENTER
100
AcDbLine
 10
765.4276844141831
 20
217.6882746016988
 30
0.0
 11
749.4276844141831
 21
217.6882746016988
 31
0.0
  0
LINE
  5
1FAC
330
2
100
AcDbEntity
  8
HIDDEN
  6
HIDDEN
100
AcDbLine
 10
759.8808926814045
 20
213.1599446152462
 30
0.0
 11
750.8808926814045
 21
212.6882746016988
 31
0.0
  0
LINE
  5
1FAD
330
2
100
AcDbEntity
  8
HIDDEN
  6
HIDDEN
100
AcDbLine
 10
759.8808926814045
 20
213.9099446152462
 30
0.0
 11
750.8808926814045
 21
213.4382746016988
 31
0.0
  0
LINE
  5
1FAE
330
2
100
AcDbEntity
  8
HIDDEN
  6
HIDDEN
100
AcDbLine
 10
759.8808926814045
 20
222.2166045881515
 30
0.0
 11
750.8808926814045
 21
222.6882746016988
 31
0.0
  0
LINE
  5
1FAF
330
2
100
AcDbEntity
  8
HIDDEN
  6
HIDDEN
100
AcDbLine
 10
759.8808926814045
 20
221.4666045881514
 30
0.0
 11
750.8808926814045
 21
221.9382746016988
 31
0.0
  0
TEXT
  5
1FC5
330
2
100
AcDbEntity
  8
DIM
100
AcDbText
 10
550.5348339937103
 20
345.3220140146743
 30
0.0
 40
4.799999999999999
  1
CCW
  7
ROMANS
100
AcDbText
  0
POLYLINE
  5
1FC6
330
2
100
AcDbEntity
  8
DIM
100
AcDb2dPolyline
 66
     1
 10
0.0
 20
0.0
 30
0.0
 70
     7
  0
VERTEX
  5
1FC7
330
1FC6
100
AcDbEntity
  8
DIM
100
AcDbVertex
100
AcDb2dVertex
 10
566.7613492919468
 20
351.2429794977517
 30
0.0
 42
0.0185322085214218
  0
VERTEX
  5
1FC8
330
1FC6
100
AcDbEntity
  8
DIM
100
AcDbVertex
100
AcDb2dVertex
 10
569.1963569758022
 20
345.9616604101344
 30
0.0
  0
VERTEX
  5
1FC9
330
1FC6
100
AcDbEntity
  8
DIM
100
AcDbVertex
100
AcDb2dVertex
 10
568.5541260902827
 20
345.6361769394562
 30
0.0
  0
VERTEX
  5
1FCA
330
1FC6
100
AcDbEntity
  8
DIM
100
AcDbVertex
100
AcDb2dVertex
 10
571.7011078302826
 20
343.1951397728372
 30
0.0
  0
VERTEX
  5
1FCB
330
1FC6
100
AcDbEntity
  8
DIM
100
AcDbVertex
100
AcDb2dVertex
 10
571.4441650751214
 20
347.1008525575082
 30
0.0
  0
VERTEX
  5
1FCC
330
1FC6
100
AcDbEntity
  8
DIM
100
AcDbVertex
100
AcDb2dVertex
 10
570.8019341896013
 20
346.7753690868297
 30
0.0
 42
-0.018532208521422
  0
VERTEX
  5
1FCD
330
1FC6
100
AcDbEntity
  8
DIM
100
AcDbVertex
100
AcDb2dVertex
 10
568.4227753058343
 20
351.9355570027127
 30
0.0
  0
SEQEND
  5
1FCE
330
1FC6
100
AcDbEntity
  8
DIM
  0
TEXT
  5
1FCF
330
2
100
AcDbEntity
  8
DIM
100
AcDbText
 10
556.397572198786
 20
384.9975527959504
 30
0.0
 40
4.799999999999999
  1
CW
  7
ROMANS
100
AcDbText
  0
POLYLINE
  5
1FD0
330
2
100
AcDbEntity
  8
DIM
100
AcDb2dPolyline
 66
     1
 10
0.0
 20
0.0
 30
0.0
 70
     7
  0
VERTEX
  5
1FD1
330
1FD0
100
AcDbEntity
  8
DIM
100
AcDbVertex
100
AcDb2dVertex
 10
566.7613492919473
 20
382.6281345076744
 30
0.0
 42
-0.0185322085214218
  0
VERTEX
  5
1FD2
330
1FD0
100
AcDbEntity
  8
DIM
100
AcDbVertex
100
AcDb2dVertex
 10
569.1963569758028
 20
387.9094535952917
 30
0.0
  0
VERTEX
  5
1FD3
330
1FD0
100
AcDbEntity
  8
DIM
100
AcDbVertex
100
AcDb2dVertex
 10
568.5541260902832
 20
388.23493706597
 30
0.0
  0
VERTEX
  5
1FD4
330
1FD0
100
AcDbEntity
  8
DIM
100
AcDbVertex
100
AcDb2dVertex
 10
571.7011078302832
 20
390.6759742325888
 30
0.0
  0
VERTEX
  5
1FD5
330
1FD0
100
AcDbEntity
  8
DIM
100
AcDbVertex
100
AcDb2dVertex
 10
571.4441650751219
 20
386.7702614479181
 30
0.0
  0
VERTEX
  5
1FD6
330
1FD0
100
AcDbEntity
  8
DIM
100
AcDbVertex
100
AcDb2dVertex
 10
570.8019341896018
 20
387.0957449185965
 30
0.0
 42
0.018532208521422
  0
VERTEX
  5
1FD7
330
1FD0
100
AcDbEntity
  8
DIM
100
AcDbVertex
100
AcDb2dVertex
 10
568.4227753058344
 20
381.9355570027126
 30
0.0
  0
SEQEND
  5
1FD8
330
1FD0
100
AcDbEntity
  8
DIM
  0
DIMENSION
  5
2020
102
{ACAD_XDICTIONARY
360
202D
102
}
102
{ACAD_REACTORS
330
2037
102
}
330
2
100
AcDbEntity
  8
AM_5
100
AcDbDimension
  2
*D12
 10
694.9114531010564
 20
344.4122902270355
 30
0.0
 11
691.9114531010563
 21
366.4122902270357
 31
0.0
 70
    32
  3
AM_ISO
100
AcDbAlignedDimension
 13
674.6614531010564
 23
388.4122902270356
 33
0.0
 14
674.6614531010564
 24
344.4122902270355
 34
0.0
 50
90.00000000000003
100
AcDbRotatedDimension
  0
DIMENSION
  5
20A1
102
{ACAD_XDICTIONARY
360
20AE
102
}
102
{ACAD_REACTORS
330
20B8
102
}
330
2
100
AcDbEntity
  8
AM_5
100
AcDbDimension
  2
*D13
 10
686.9114531010564
 20
356.9122902270355
 30
0.0
 11
683.9114531010562
 21
366.4122902270357
 31
0.0
 70
    32
  3
AM_ISO
100
AcDbAlignedDimension
 13
657.9114531010564
 23
375.9122902270356
 33
0.0
 14
657.9114531010564
 24
356.9122902270355
 34
0.0
 50
90.00000000000003
100
AcDbRotatedDimension
  0
DIMENSION
  5
20E8
102
{ACAD_XDICTIONARY
360
20F5
102
}
102
{ACAD_REACTORS
330
20FF
102
}
330
2
100
AcDbEntity
  8
AM_5
100
AcDbDimension
  2
*D14
 10
669.9114531010564
 20
327.4122902270356
 30
0.0
 11
647.9114531010564
 21
330.4122902270356
 31
0.0
 70
    32
  3
AM_ISO
100
AcDbAlignedDimension
 13
625.9114531010563
 23
339.6622902270355
 33
0.0
 14
669.9114531010564
 24
339.6622902270355
 34
0.0
 50
0.0000000000001018
100
AcDbRotatedDimension
  0
DIMENSION
  5
2120
102
{ACAD_XDICTIONARY
360
212D
102
}
102
{ACAD_REACTORS
330
2137
102
}
330
2
100
AcDbEntity
  8
AM_5
100
AcDbDimension
  2
*D15
 10
674.9114531010564
 20
319.4122902270356
 30
0.0
 11
647.9114531010564
 21
322.4217390459332
 31
0.0
 70
    32
  1
{\Famgdt;o}<>
  3
AM_ISO
100
AcDbAlignedDimension
 13
620.9114531010563
 23
341.4122902270355
 33
0.0
 14
674.9114531010564
 24
341.4122902270355
 34
0.0
 50
0.0000000000001018
100
AcDbRotatedDimension
  0
DIMENSION
  5
2158
102
{ACAD_XDICTIONARY
360
2165
102
}
102
{ACAD_REACTORS
330
216F
102
}
330
2
100
AcDbEntity
  8
AM_5
100
AcDbDimension
  2
*D16
 10
686.9114531010564
 20
177.6882746016988
 30
0.0
 11
683.9111381404265
 21
166.1882746016989
 31
0.0
 70
    32
  3
AM_ISO
100
AcDbAlignedDimension
 13
673.9114531010564
 23
154.6882746016988
 33
0.0
 14
674.4114531010564
 24
177.6882746016988
 34
0.0
 50
90.00000000000003
100
AcDbRotatedDimension
  0
DIMENSION
  5
2190
102
{ACAD_XDICTIONARY
360
219D
102
}
102
{ACAD_REACTORS
330
21A7
102
}
330
2
100
AcDbEntity
  8
AM_5
100
AcDbDimension
  2
*D17
 10
694.9114531010564
 20
225.6882746016988
 30
0.0
 11
691.9114531010563
 21
190.1882746016989
 31
0.0
 70
    32
  3
AM_ISO
100
AcDbAlignedDimension
 13
673.9114531010564
 23
154.6882746016988
 33
0.0
 14
670.9114531010563
 24
225.6882746016988
 34
0.0
 50
90.00000000000003
100
AcDbRotatedDimension
  0
DIMENSION
  5
21C8
102
{ACAD_XDICTIONARY
360
21D5
102
}
102
{ACAD_REACTORS
330
21DF
102
}
330
2
100
AcDbEntity
  8
AM_5
100
AcDbDimension
  2
*D18
 10
702.9114531010564
 20
257.1882746016988
 30
0.0
 11
699.9016893215286
 21
205.9382746016989
 31
0.0
 70
    32
  3
AM_ISO
100
AcDbAlignedDimension
 13
673.9114531010564
 23
154.6882746016988
 33
0.0
 14
657.9114531010564
 24
257.1882746016988
 34
0.0
 50
90.00000000000003
100
AcDbRotatedDimension
  0
DIMENSION
  5
2200
102
{ACAD_XDICTIONARY
360
220D
102
}
102
{ACAD_REACTORS
330
2217
102
}
330
2
100
AcDbEntity
  8
AM_5
100
AcDbDimension
  2
*D19
 10
702.9114531010564
 20
276.1882746016988
 30
0.0
 11
699.9114531010563
 21
266.6882746016989
 31
0.0
 70
    32
  3
AM_ISO
100
AcDbAlignedDimension
 13
657.9114531010564
 23
257.1882746016988
 33
0.0
 14
657.9114531010564
 24
276.1882746016988
 34
0.0
 50
90.00000000000003
100
AcDbRotatedDimension
  0
DIMENSION
  5
2238
102
{ACAD_XDICTIONARY
360
2245
102
}
102
{ACAD_REACTORS
330
224F
102
}
330
2
100
AcDbEntity
  8
AM_5
100
AcDbDimension
  2
*D20
 10
710.9114531010564
 20
154.6882746016988
 30
0.0
 11
707.9016893215288
 21
215.4382746016989
 31
0.0
 70
    32
  3
AM_ISO
100
AcDbAlignedDimension
 13
657.9114531010564
 23
276.1882746016988
 33
0.0
 14
673.9114531010564
 24
154.6882746016988
 34
0.0
 50
90.00000000000003
100
AcDbRotatedDimension
  0
DIMENSION
  5
2274
102
{ACAD_XDICTIONARY
360
2281
102
}
102
{ACAD_REACTORS
330
228B
102
}
330
2
100
AcDbEntity
  8
AM_5
100
AcDbDimension
  2
*D21
 10
597.9114531010564
 20
288.1882746016988
 30
0.0
 11
593.4114531010563
 21
291.1882746016988
 31
0.0
 70
    32
  3
AM_ISO
100
AcDbAlignedDimension
 13
588.9114531010563
 23
275.1882746016988
 33
0.0
 14
597.9114531010564
 24
279.1435256016988
 34
0.0
100
AcDbRotatedDimension
1001
ACAD
1000
DSTYLE
1002
{
1070
   173
1070
     1
1070
     7
1000
GENDOT
1002
}
  0
DIMENSION
  5
22AC
102
{ACAD_XDICTIONARY
360
22B9
102
}
102
{ACAD_REACTORS
330
22C3
102
}
330
2
100
AcDbEntity
  8
AM_5
100
AcDbDimension
  2
*D22
 10
647.9114531010564
 20
288.1882746016988
 30
0.0
 11
622.9114531010564
 21
291.1977234205964
 31
0.0
 70
    32
  3
AM_ISO
100
AcDbAlignedDimension
 13
597.9114531010564
 23
279.1435256016988
 33
0.0
 14
647.9114531010564
 24
278.5464336297454
 34
0.0
100
AcDbRotatedDimension
1001
ACAD
1000
DSTYLE
1002
{
1070
   173
1070
     1
1070
     6
1000
GENDOT
1002
}
  0
DIMENSION
  5
22E4
102
{ACAD_XDICTIONARY
360
22F1
102
}
102
{ACAD_REACTORS
330
22FB
102
}
330
2
100
AcDbEntity
  8
AM_5
100
AcDbDimension
  2
*D23
 10
658.9114531010563
 20
296.1882746016988
 30
0.0
 11
623.9114531010564
 21
299.1882746016988
 31
0.0
 70
    32
  3
AM_ISO
100
AcDbAlignedDimension
 13
588.9114531010563
 23
275.1882746016988
 33
0.0
 14
658.9114531010563
 24
275.1882746016988
 34
0.0
100
AcDbRotatedDimension
  0
INSERT
  5
2311
330
2
100
AcDbEntity
  8
AM_5
100
AcDbBlockReference
  2
*S25
 10
0.0
 20
0.0
 30
0.0
  0
TEXT
  5
2312
330
2
100
AcDbEntity
  8
AM_5
100
AcDbText
 10
566.7303893392725
 20
244.4851489533852
 30
0.0
 40
3.5
  1
M8x1.25
  7
CHINA
100
AcDbText
  0
INSERT
  5
2313
330
2
100
AcDbEntity
  8
AM_5
100
AcDbBlockReference
  2
*S26
 10
0.0
 20
0.0
 30
0.0
  0
TEXT
  5
2315
330
2
100
AcDbEntity
  8
AM_5
100
AcDbText
 10
583.2470475251819
 20
198.7182674749099
 30
0.0
 40
3.5
  1
PT 1/8
  7
CHINA
100
AcDbText
  0
TEXT
  5
24BD
330
2
100
AcDbEntity
  8
AM_5
100
AcDbText
 10
686.3881738415511
 20
330.4090350726597
 30
0.0
 40
3.0
  1
4-%%c6.5
  7
CHINA
100
AcDbText
  0
INSERT
  5
24C0
330
2
100
AcDbEntity
  8
AM_5
100
AcDbBlockReference
  2
*S27
 10
0.0
 20
0.0
 30
0.0
  0
LINE
  5
250E
330
2
100
AcDbEntity
  8
HIDDEN
  6
HIDDEN
100
AcDbLine
 10
757.1308926814045
 20
177.6882746016988
 30
0.0
 11
757.1308926814045
 21
154.6882746016988
 31
0.0
  0
LINE
  5
250F
330
2
100
AcDbEntity
  8
HIDDEN
  6
HIDDEN
100
AcDbLine
 10
750.6308926814044
 20
177.6882746016988
 30
0.0
 11
750.6308926814044
 21
154.6882746016988
 31
0.0
  0
LINE
  5
2510
330
2
100
AcDbEntity
  8
CENTER
100
AcDbLine
 10
753.8808926814044
 20
152.6403376140296
 30
0.0
 11
753.8808926814044
 21
180.1071389225124
 31
0.0
  0
LINE
  5
2511
330
2
100
AcDbEntity
  8
CENTER
100
AcDbLine
 10
797.8808926814044
 20
152.6403376140296
 30
0.0
 11
797.8808926814044
 21
180.1071389225124
 31
0.0
  0
LINE
  5
2512
330
2
100
AcDbEntity
  8
HIDDEN
  6
HIDDEN
100
AcDbLine
 10
794.6308926814045
 20
177.6882746016988
 30
0.0
 11
794.6308926814045
 21
154.6882746016988
 31
0.0
  0
LINE
  5
2513
330
2
100
AcDbEntity
  8
HIDDEN
  6
HIDDEN
100
AcDbLine
 10
801.1308926814045
 20
177.6882746016988
 30
0.0
 11
801.1308926814045
 21
154.6882746016988
 31
0.0
  0
DIMENSION
  5
253D
330
2
100
AcDbEntity
  8
AM_5
100
AcDbDimension
  2
*D24
 10
672.9114531010564
 20
197.4154755107011
 30
0.0
 11
654.6079920021401
 21
197.4154755107011
 31
0.0
 70
   160
  1
%%c<>
  3
AM_ISO
100
AcDbAlignedDimension
 13
622.9114531010564
 23
200.6882746016988
 33
0.0
 14
672.9114531010564
 24
200.6882746016988
 34
0.0
 50
0.0000000000001132
100
AcDbRotatedDimension
  0
ARC
  5
257B
330
2
100
AcDbEntity
  8
AM_4
100
AcDbCircle
 10
597.9114531010564
 20
366.4122902270355
 30
0.0
 40
4.0
100
AcDbArc
 50
260.0000000000013
 51
170.0000000000013
1001
GENIUS_GENOREF_13
1005
0
  0
ARC
  5
2584
330
2
100
AcDbEntity
  8
AM_4
100
AcDbCircle
 10
647.9114531010564
 20
217.6882746016989
 30
0.0
 40
4.5
100
AcDbArc
 50
165.0000000000008
 51
74.99999999999883
  0
ARC
  5
258D
330
2
100
AcDbEntity
  8
AM_4
100
AcDbCircle
 10
636.9114531010564
 20
170.3882746016989
 30
0.0
 40
4.5
100
AcDbArc
 50
165.0000000000008
 51
74.99999999999883
  0
ENDSEC
  0
SECTION
  2
OBJECTS
  0
DICTIONARY
  5
8
330
0
100
AcDbDictionary
  3
ACAD_GROUP
350
21
  3
ACAD_LAYOUT
350
C
  3
ACAD_MLINESTYLE
350
22
  3
ACAD_PLOTSETTINGS
350
23
  3
ACMDICTIONARY
350
1F4
  3
AMG
350
1DA
  3
AMGSNAPSETTINGS
350
37D
  3
ASE_INDEX_DICTIONARY
350
E58
  3
DWGPROPS
350
2621
1001
ACAD
1000
TREAT_AS_HARD
1070
     0
  0
DICTIONARY
  5
3
330
2
100
AcDbDictionary
  3
ACAD_INDEX
350
2635
  3
ACAD_LAYOUTSELFREF
350
26DF
1001
ACAD
1000
TREAT_AS_HARD
1070
     1
  0
DICTIONARY
  5
26E0
330
D
100
AcDbDictionary
  3
ACAD_LAYOUTSELFREF
350
26E1
  0
DICTIONARY
  5
202D
330
2020
100
AcDbDictionary
  3
ACAD_DIMASSOC
350
2037
1001
ACAD
1000
TREAT_AS_HARD
1070
     1
  0
DICTIONARY
  5
20AE
330
20A1
100
AcDbDictionary
  3
ACAD_DIMASSOC
350
20B8
1001
ACAD
1000
TREAT_AS_HARD
1070
     1
  0
DICTIONARY
  5
20F5
330
20E8
100
AcDbDictionary
  3
ACAD_DIMASSOC
350
20FF
1001
ACAD
1000
TREAT_AS_HARD
1070
     1
  0
DICTIONARY
  5
212D
330
2120
100
AcDbDictionary
  3
ACAD_DIMASSOC
350
2137
1001
ACAD
1000
TREAT_AS_HARD
1070
     1
  0
DICTIONARY
  5
2165
330
2158
100
AcDbDictionary
  3
ACAD_DIMASSOC
350
216F
1001
ACAD
1000
TREAT_AS_HARD
1070
     1
  0
DICTIONARY
  5
219D
330
2190
100
AcDbDictionary
  3
ACAD_DIMASSOC
350
21A7
1001
ACAD
1000
TREAT_AS_HARD
1070
     1
  0
DICTIONARY
  5
21D5
330
21C8
100
AcDbDictionary
  3
ACAD_DIMASSOC
350
21DF
1001
ACAD
1000
TREAT_AS_HARD
1070
     1
  0
DICTIONARY
  5
220D
330
2200
100
AcDbDictionary
  3
ACAD_DIMASSOC
350
2217
1001
ACAD
1000
TREAT_AS_HARD
1070
     1
  0
DICTIONARY
  5
2245
330
2238
100
AcDbDictionary
  3
ACAD_DIMASSOC
350
224F
1001
ACAD
1000
TREAT_AS_HARD
1070
     1
  0
DICTIONARY
  5
2281
330
2274
100
AcDbDictionary
  3
ACAD_DIMASSOC
350
228B
1001
ACAD
1000
TREAT_AS_HARD
1070
     1
  0
DICTIONARY
  5
22B9
330
22AC
100
AcDbDictionary
  3
ACAD_DIMASSOC
350
22C3
1001
ACAD
1000
TREAT_AS_HARD
1070
     1
  0
DICTIONARY
  5
22F1
330
22E4
100
AcDbDictionary
  3
ACAD_DIMASSOC
350
22FB
1001
ACAD
1000
TREAT_AS_HARD
1070
     1
  0
DICTIONARY
  5
21
102
{ACAD_REACTORS
330
8
102
}
330
8
100
AcDbDictionary
1001
ACAD
1000
TREAT_AS_HARD
1070
     0
  0
DICTIONARY
  5
C
102
{ACAD_REACTORS
330
8
102
}
330
8
100
AcDbDictionary
1001
ACAD
1000
TREAT_AS_HARD
1070
     0
  0
DICTIONARY
  5
22
102
{ACAD_REACTORS
330
8
102
}
330
8
100
AcDbDictionary
  3
STANDARD
350
24
1001
ACAD
1000
TREAT_AS_HARD
1070
     0
  0
DICTIONARY
  5
23
102
{ACAD_REACTORS
330
8
102
}
330
8
100
AcDbDictionary
1001
ACAD
1000
TREAT_AS_HARD
1070
     0
  0
DICTIONARY
  5
1F4
102
{ACAD_REACTORS
330
8
102
}
330
8
100
AcDbDictionary
  3
ACMSTDDICTIONARY
350
1FA
1001
ACAD
1000
TREAT_AS_HARD
1070
     0
  0
DICTIONARY
  5
1DA
102
{ACAD_REACTORS
330
8
102
}
330
8
100
AcDbDictionary
  3
ACMGSETTINGS
350
1DB
1001
ACAD
1000
TREAT_AS_HARD
1070
     0
  0
DICTIONARY
  5
37D
102
{ACAD_REACTORS
330
8
102
}
330
8
100
AcDbDictionary
1001
ACAD
1000
TREAT_AS_HARD
1070
     0
  0
DICTIONARY
  5
E58
102
{ACAD_REACTORS
330
8
102
}
330
8
100
AcDbDictionary
  3
ASEBLOCKHIERARCHYINDEXRECORD
350
E5A
1001
DCO15
1040
1443953005.444
1001
ACAD
1000
TREAT_AS_HARD
1070
     0
  0
XRECORD
  5
2621
102
{ACAD_REACTORS
330
8
102
}
330
8
100
AcDbXrecord
  1
DWGPROPS COOKIE
  2

  3

  4

  6

  7

  8

  9

300
AmdtFileType=84
301
=
302
=
303
=
304
=
305
=
306
=
307
=
308
=
309
=
 40
0.1026165046296296
 41
2452794.706235081
 42
2452796.598212916
  1

 90
        1
  0
DICTIONARY
  5
2635
102
{ACAD_REACTORS
330
3
102
}
330
3
100
AcDbDictionary
  3
*A1
350
2636
1001
ACAD
1000
TREAT_AS_HARD
1070
     0
  0
XRECORD
  5
26DF
102
{ACAD_REACTORS
330
3
102
}
330
3
100
AcDbXrecord
340
2
  0
XRECORD
  5
26E1
102
{ACAD_REACTORS
330
26E0
102
}
330
26E0
100
AcDbXrecord
340
D
  0
DIMASSOC
  5
2037
102
{ACAD_REACTORS
330
202D
102
}
330
202D
100
AcDbDimAssoc
330
2020
 90
        3
 70
     0
 71
     0
  1
AcDbOsnapPointRef
 72
     1
331
1EE1
 73
     0
 91
        0
 40
0.0
 10
674.6614531010564
 20
388.4122902270356
 30
0.0
 75
     0
  1
AcDbOsnapPointRef
 72
     1
331
1ECF
 73
     0
 91
        0
 40
0.0
 10
674.6614531010564
 20
344.4122902270355
 30
0.0
 75
     0
  0
DIMASSOC
  5
20B8
102
{ACAD_REACTORS
330
20AE
102
}
330
20AE
100
AcDbDimAssoc
330
20A1
 90
        3
 70
     0
 71
     0
  1
AcDbOsnapPointRef
 72
     1
331
1E78
 73
     0
 91
        0
 40
0.0
 10
657.9114531010564
 20
375.9122902270356
 30
0.0
 75
     0
  1
AcDbOsnapPointRef
 72
     1
331
1E62
 73
     0
 91
        0
 40
0.0
 10
657.9114531010564
 20
356.9122902270355
 30
0.0
 75
     0
  0
DIMASSOC
  5
20FF
102
{ACAD_REACTORS
330
20F5
102
}
330
20F5
100
AcDbDimAssoc
330
20E8
 90
        3
 70
     0
 71
     0
  1
AcDbOsnapPointRef
 72
     1
331
1EC0
 73
     0
 91
        0
 40
0.0
 10
625.9114531010563
 20
339.6622902270355
 30
0.0
 75
     0
  1
AcDbOsnapPointRef
 72
     1
331
1ED2
 73
     0
 91
        0
 40
0.0
 10
669.9114531010564
 20
339.6622902270355
 30
0.0
 75
     0
  0
DIMASSOC
  5
2137
102
{ACAD_REACTORS
330
212D
102
}
330
212D
100
AcDbDimAssoc
330
2120
 90
        3
 70
     0
 71
     0
  1
AcDbOsnapPointRef
 72
    13
331
1E71
 73
     0
 91
        0
 40
0.0
 10
620.9114531010563
 20
341.4122902270355
 30
0.0
 75
     0
  1
AcDbOsnapPointRef
 72
     1
331
1E85
 73
     0
 91
        0
 40
0.0
 10
674.9114531010564
 20
341.4122902270355
 30
0.0
 75
     0
  0
DIMASSOC
  5
216F
102
{ACAD_REACTORS
330
2165
102
}
330
2165
100
AcDbDimAssoc
330
2158
 90
        3
 70
     0
 71
     0
  1
AcDbOsnapPointRef
 72
     1
331
1E45
 73
     0
 91
        0
 40
0.0
 10
673.9114531010564
 20
154.6882746016988
 30
0.0
 75
     0
  1
AcDbOsnapPointRef
 72
     1
331
1E48
 73
     0
 91
        0
 40
0.0
 10
674.4114531010564
 20
177.6882746016988
 30
0.0
 75
     0
  0
DIMASSOC
  5
21A7
102
{ACAD_REACTORS
330
219D
102
}
330
219D
100
AcDbDimAssoc
330
2190
 90
        3
 70
     0
 71
     0
  1
AcDbOsnapPointRef
 72
     1
331
1E45
 73
     0
 91
        0
 40
0.0
 10
673.9114531010564
 20
154.6882746016988
 30
0.0
 75
     0
  1
AcDbOsnapPointRef
 72
     1
331
1E47
 73
     0
 91
        0
 40
0.0
 10
670.9114531010563
 20
225.6882746016988
 30
0.0
 75
     0
  0
DIMASSOC
  5
21DF
102
{ACAD_REACTORS
330
21D5
102
}
330
21D5
100
AcDbDimAssoc
330
21C8
 90
        3
 70
     0
 71
     0
  1
AcDbOsnapPointRef
 72
     1
331
1E45
 73
     0
 91
        0
 40
0.0
 10
673.9114531010564
 20
154.6882746016988
 30
0.0
 75
     0
  1
AcDbOsnapPointRef
 72
     1
331
1E60
 73
     0
 91
        0
 40
0.0
 10
657.9114531010564
 20
257.1882746016988
 30
0.0
 75
     0
  0
DIMASSOC
  5
2217
102
{ACAD_REACTORS
330
220D
102
}
330
220D
100
AcDbDimAssoc
330
2200
 90
        3
 70
     0
 71
     0
  1
AcDbOsnapPointRef
 72
     1
331
1E60
 73
     0
 91
        0
 40
0.0
 10
657.9114531010564
 20
257.1882746016988
 30
0.0
 75
     0
  1
AcDbOsnapPointRef
 72
     1
331
1E61
 73
     0
 91
        0
 40
0.0
 10
657.9114531010564
 20
276.1882746016988
 30
0.0
 75
     0
  0
DIMASSOC
  5
224F
102
{ACAD_REACTORS
330
2245
102
}
330
2245
100
AcDbDimAssoc
330
2238
 90
        3
 70
     0
 71
     0
  1
AcDbOsnapPointRef
 72
     1
331
1E61
 73
     0
 91
        0
 40
0.0
 10
657.9114531010564
 20
276.1882746016988
 30
0.0
 75
     0
  1
AcDbOsnapPointRef
 72
     1
331
1E45
 73
     0
 91
        0
 40
0.0
 10
673.9114531010564
 20
154.6882746016988
 30
0.0
 75
     0
  0
DIMASSOC
  5
228B
102
{ACAD_REACTORS
330
2281
102
}
330
2281
100
AcDbDimAssoc
330
2274
 90
        3
 70
     0
 71
     0
  1
AcDbOsnapPointRef
 72
    13
331
1E67
 73
     0
 91
        0
 40
0.0
 10
588.9114531010563
 20
275.1882746016988
 30
0.0
 75
     0
  1
AcDbOsnapPointRef
 72
     1
331
1E66
 73
     0
 91
        0
 40
0.0
 10
597.9114531010564
 20
279.1435256016988
 30
0.0
 75
     0
  0
DIMASSOC
  5
22C3
102
{ACAD_REACTORS
330
22B9
102
}
330
22B9
100
AcDbDimAssoc
330
22AC
 90
        3
 70
     0
 71
     0
  1
AcDbOsnapPointRef
 72
     1
331
1E66
 73
     0
 91
        0
 40
0.0
 10
597.9114531010564
 20
279.1435256016988
 30
0.0
 75
     0
  1
AcDbOsnapPointRef
 72
    13
331
1E4D
 73
     0
 91
        0
 40
0.0
 10
647.9114531010564
 20
278.5464336297454
 30
0.0
 75
     0
  0
DIMASSOC
  5
22FB
102
{ACAD_REACTORS
330
22F1
102
}
330
22F1
100
AcDbDimAssoc
330
22E4
 90
        3
 70
     0
 71
     0
  1
AcDbOsnapPointRef
 72
    13
331
1E67
 73
     0
 91
        0
 40
0.0
 10
588.9114531010563
 20
275.1882746016988
 30
0.0
 75
     0
  1
AcDbOsnapPointRef
 72
    13
331
1E6E
 73
     0
 91
        0
 40
0.0
 10
658.9114531010563
 20
275.1882746016988
 30
0.0
 75
     0
  0
MLINESTYLE
  5
24
102
{ACAD_REACTORS
330
22
102
}
330
22
100
AcDbMlineStyle
  2
STANDARD
 70
     0
  3

 62
   256
 51
90.0
 52
90.0
 71
     2
 49
0.5
 62
   256
  6
BYLAYER
 49
-0.5
 62
   256
  6
BYLAYER
  0
DICTIONARY
  5
1FA
102
{ACAD_REACTORS
330
1F4
102
}
330
1F4
100
AcDbDictionary
1001
ACAD
1000
TREAT_AS_HARD
1070
     0
  0
DICTIONARY
  5
1DB
102
{ACAD_REACTORS
330
1DA
102
}
330
1DA
100
AcDbDictionary
1001
ACAD
1000
TREAT_AS_HARD
1070
     0
  0
XRECORD
  5
E5A
102
{ACAD_REACTORS
330
E58
102
}
330
E58
100
AcDbXrecord
330
0
330
0
  0
LAYER_INDEX
  5
2636
102
{ACAD_REACTORS
330
2635
102
}
330
2635
100
AcDbIndex
 40
2452796.637273368
100
AcDbLayerIndex
  8
0
360
2637
 90
       98
  8
Defpoints
360
2638
 90
        0
  8
AM_5
360
2639
 90
       21
  8
AM_PARDIM
360
263A
 90
       10
  8
AM_7
360
263B
 90
       17
  8
HIDDEN
360
263C
 90
       16
  8
DIM
360
263D
 90
        4
  8
CENTER
360
263E
 90
       14
  8
LOGO
360
263F
 90
      110
  8
AM_4
360
2640
 90
        3
  0
IDBUFFER
  5
2637
330
0
100
AcDbIdBuffer
330
1E73
330
1E74
330
1E75
330
1E76
330
1E78
330
1E7A
330
1E7B
330
1E7C
330
1E7D
330
1E7E
330
1E7F
330
1E80
330
1E81
330
1E82
330
1E83
330
1E84
330
1E85
330
1E86
330
1E87
330
1E88
330
1E89
330
1EC1
330
1ED3
330
1EE5
330
1EF7
330
1EFA
330
1EFB
330
1EFC
330
1EFD
330
1EFE
330
1EFF
330
1F04
330
1F05
330
1F06
330
1F07
330
1F08
330
1F09
330
1F0A
330
1F0B
330
1F0C
330
1F10
330
1F13
330
1F14
330
1F15
330
1F19
330
1F1A
330
1F1B
330
1F1C
330
1F1D
330
1F1E
330
25
330
26
330
27
330
28
330
29
330
2A
330
2B
330
2C
330
2D
330
2E
330
2F
330
30
330
1258
330
1259
330
125A
330
12BA
330
1E45
330
1E46
330
1E47
330
1E48
330
1E49
330
1E4A
330
1E4B
330
1E4C
330
1E4E
330
1E4F
330
1E50
330
1E53
330
1E54
330
1E57
330
1E59
330
1E5D
330
1E5E
330
1E5F
330
1E60
330
1E61
330
1E62
330
1E63
330
1E67
330
1E68
330
1E69
330
1E6C
330
1E6D
330
1E6E
330
1E6F
330
1E70
330
1E71
330
1E72
  0
IDBUFFER
  5
2638
330
0
100
AcDbIdBuffer
  0
IDBUFFER
  5
2639
330
0
100
AcDbIdBuffer
330
2313
330
2315
330
24BD
330
24C0
330
253D
330
151
330
156
330
2020
330
20A1
330
20E8
330
2120
330
2158
330
2190
330
21C8
330
2200
330
2238
330
2274
330
22AC
330
22E4
330
2311
330
2312
  0
IDBUFFER
  5
263A
330
0
100
AcDbIdBuffer
330
31
330
43
330
52
330
5F
330
6C
330
79
330
86
330
95
330
A3
330
B0
  0
IDBUFFER
  5
263B
330
0
100
AcDbIdBuffer
330
1EF6
330
C8
330
1EBD
330
1EBE
330
1EBF
330
1EC0
330
1ECF
330
1ED0
330
1ED1
330
1ED2
330
1EE1
330
1EE2
330
1EE3
330
1EE4
330
1EF3
330
1EF4
330
1EF5
  0
IDBUFFER
  5
263C
330
0
100
AcDbIdBuffer
330
1E64
330
1E65
330
1E6A
330
1E6B
330
1F96
330
1F97
330
1F9B
330
1F9C
330
1FAC
330
1FAD
330
1FAE
330
1FAF
330
250E
330
250F
330
2512
330
2513
  0
IDBUFFER
  5
263D
330
0
100
AcDbIdBuffer
330
1FC5
330
1FC6
330
1FCF
330
1FD0
  0
IDBUFFER
  5
263E
330
0
100
AcDbIdBuffer
330
1E44
330
1E4D
330
1E52
330
1E56
330
1E5A
330
1E5B
330
1E66
330
1E79
330
1EF9
330
1F99
330
1F9A
330
1FAB
330
2510
330
2511
  0
IDBUFFER
  5
263F
330
0
100
AcDbIdBuffer
330
1290
330
1294
330
1298
330
1299
330
129A
330
12BB
330
12BC
330
12BD
330
12BE
330
12BF
330
12C0
330
12C1
330
12C2
330
12C3
330
12C4
330
12C5
330
12C6
330
12C7
330
12C8
330
12C9
330
12CA
330
12CB
330
12CC
330
12CD
330
12CE
330
12CF
330
12D0
330
12D1
330
12D2
330
12D3
330
12D4
330
12D5
330
12D6
330
12D7
330
12D8
330
12D9
330
12DA
330
12DB
330
12DC
330
12DD
330
12DE
330
12DF
330
12E0
330
12E1
330
12E2
330
12E3
330
12E4
330
12E5
330
12E6
330
12E7
330
12E8
330
12E9
330
12EA
330
12EB
330
12EC
330
12ED
330
12EE
330
12EF
330
12F0
330
1309
330
130A
330
130B
330
124B
330
124C
330
124D
330
124E
330
124F
330
1250
330
1251
330
1252
330
1256
330
1257
330
125B
330
125C
330
125D
330
1261
330
1262
330
1263
330
1264
330
1265
330
1266
330
1267
330
1268
330
1269
330
126A
330
126B
330
126F
330
1270
330
1271
330
1272
330
1273
330
1274
330
1275
330
1276
330
127A
330
127B
330
127C
330
127D
330
127E
330
127F
330
1280
330
1281
330
1282
330
1286
330
1287
330
1288
330
1289
330
128A
330
128E
330
128F
  0
IDBUFFER
  5
2640
330
0
100
AcDbIdBuffer
330
257B
330
2584
330
258D
  0
ENDSEC
  0
EOF
