  0
SECTION
  2
HEADER
  9
$ACADVER
  1
AC1012
  9
$DWGCODEPAGE
  3
big5
  9
$INSBASE
 10
0.0
 20
0.0
 30
0.0
  9
$EXTMIN
 10
520.0814976567739
 20
94.21376950206946
 30
-0.000000000000013
  9
$EXTMAX
 10
854.8416498048869
 20
399.8458282239471
 30
0.0000000000000023
  9
$LIMMIN
 10
0.0
 20
0.0
  9
$LIMMAX
 10
420.0
 20
297.0
  9
$ORTHOMODE
 70
     1
  9
$REGENMODE
 70
     1
  9
$FILLMODE
 70
     1
  9
$QTEXTMODE
 70
     0
  9
$MIRRTEXT
 70
     1
  9
$DRAGMODE
 70
     2
  9
$LTSCALE
 40
0.8
  9
$OSMODE
 70
    55
  9
$ATTMODE
 70
     1
  9
$TEXTSIZE
 40
3.0
  9
$TRACEWID
 40
1.0
  9
$TEXTSTYLE
  7
CHINA
  9
$CLAYER
  8
0
  9
$CELTYPE
  6
BYLAYER
  9
$CECOLOR
 62
   256
  9
$CELTSCALE
 40
1.0
  9
$DELOBJ
 70
     1
  9
$DISPSILH
 70
     0
  9
$DIMSCALE
 40
1.0
  9
$DIMASZ
 40
3.0
  9
$DIMEXO
 40
2.0
  9
$DIMDLI
 40
8.0
  9
$DIMRND
 40
0.0
  9
$DIMDLE
 40
0.0
  9
$DIMEXE
 40
1.5
  9
$DIMTP
 40
0.1
  9
$DIMTM
 40
0.1
  9
$DIMTXT
 40
3.0
  9
$DIMCEN
 40
0.0
  9
$DIMTSZ
 40
0.0
  9
$DIMTOL
 70
     0
  9
$DIMLIM
 70
     0
  9
$DIMTIH
 70
     0
  9
$DIMTOH
 70
     0
  9
$DIMSE1
 70
     0
  9
$DIMSE2
 70
     0
  9
$DIMTAD
 70
     1
  9
$DIMZIN
 70
     8
  9
$DIMBLK
  1

  9
$DIMASO
 70
     1
  9
$DIMSHO
 70
     1
  9
$DIMPOST
  1

  9
$DIMAPOST
  1
"
  9
$DIMALT
 70
     0
  9
$DIMALTD
 70
     2
  9
$DIMALTF
 40
0.0393701
  9
$DIMLFAC
 40
1.0
  9
$DIMTOFL
 70
     1
  9
$DIMTVP
 40
0.0
  9
$DIMTIX
 70
     0
  9
$DIMSOXD
 70
     0
  9
$DIMSAH
 70
     0
  9
$DIMBLK1
  1

  9
$DIMBLK2
  1

  9
$DIMSTYLE
  2
AM_ISO
  9
$DIMCLRD
 70
   256
  9
$DIMCLRE
 70
   256
  9
$DIMCLRT
 70
   256
  9
$DIMTFAC
 40
0.71
  9
$DIMGAP
 40
1.0
  9
$DIMJUST
 70
     0
  9
$DIMSD1
 70
     0
  9
$DIMSD2
 70
     0
  9
$DIMTOLJ
 70
     0
  9
$DIMTZIN
 70
     8
  9
$DIMALTZ
 70
     0
  9
$DIMALTTZ
 70
     0
  9
$DIMFIT
 70
     3
  9
$DIMUPT
 70
     0
  9
$DIMUNIT
 70
     2
  9
$DIMDEC
 70
     2
  9
$DIMTDEC
 70
     2
  9
$DIMALTU
 70
     2
  9
$DIMALTTD
 70
     2
  9
$DIMTXSTY
  7
CHINA
  9
$DIMAUNIT
 70
     0
  9
$LUNITS
 70
     2
  9
$LUPREC
 70
     2
  9
$SKETCHINC
 40
1.0
  9
$FILLETRAD
 40
2.5
  9
$AUNITS
 70
     0
  9
$AUPREC
 70
     0
  9
$MENU
  1
.
  9
$ELEVATION
 40
0.0
  9
$PELEVATION
 40
0.0
  9
$THICKNESS
 40
0.0
  9
$LIMCHECK
 70
     0
  9
$BLIPMODE
 70
     0
  9
$CHAMFERA
 40
1.5
  9
$CHAMFERB
 40
1.5
  9
$CHAMFERC
 40
20.0
  9
$CHAMFERD
 40
0.0
  9
$SKPOLY
 70
     0
  9
$TDCREATE
 40
2452794.706235081
  9
$TDUPDATE
 40
2452796.641927859
  9
$TDINDWG
 40
0.1131131134
  9
$TDUSRTIMER
 40
0.1131128819
  9
$USRTIMER
 70
     1
  9
$ANGBASE
 50
0.0
  9
$ANGDIR
 70
     0
  9
$PDMODE
 70
     0
  9
$PDSIZE
 40
0.0
  9
$PLINEWID
 40
0.0
  9
$COORDS
 70
     0
  9
$SPLFRAME
 70
     0
  9
$SPLINETYPE
 70
     6
  9
$SPLINESEGS
 70
     8
  9
$ATTDIA
 70
     1
  9
$ATTREQ
 70
     1
  9
$HANDLING
 70
 22529
  9
$HANDSEED
  5
3248
  9
$SURFTAB1
 70
     6
  9
$SURFTAB2
 70
     6
  9
$SURFTYPE
 70
     6
  9
$SURFU
 70
     6
  9
$SURFV
 70
     6
  9
$UCSNAME
  2

  9
$UCSORG
 10
0.0
 20
0.0
 30
0.0
  9
$UCSXDIR
 10
1.0
 20
0.0
 30
0.0
  9
$UCSYDIR
 10
0.0
 20
1.0
 30
0.0
  9
$PUCSNAME
  2

  9
$PUCSORG
 10
0.0
 20
0.0
 30
0.0
  9
$PUCSXDIR
 10
1.0
 20
0.0
 30
0.0
  9
$PUCSYDIR
 10
0.0
 20
1.0
 30
0.0
  9
$USERI1
 70
     0
  9
$USERI2
 70
     0
  9
$USERI3
 70
     0
  9
$USERI4
 70
     0
  9
$USERI5
 70
     0
  9
$USERR1
 40
0.0
  9
$USERR2
 40
0.0
  9
$USERR3
 40
0.0
  9
$USERR4
 40
0.0
  9
$USERR5
 40
0.0
  9
$WORLDVIEW
 70
     1
  9
$SHADEDGE
 70
     3
  9
$SHADEDIF
 70
    70
  9
$TILEMODE
 70
     1
  9
$MAXACTVP
 70
    64
  9
$PINSBASE
 10
0.0
 20
0.0
 30
0.0
  9
$PLIMCHECK
 70
     0
  9
$PEXTMIN
 10
26.80208481208632
 20
60.62932117531272
 30
-0.0000000000000153
  9
$PEXTMAX
 10
155.7606180029583
 20
204.4099130529699
 30
0.0
  9
$PLIMMIN
 10
-3.757083177566528
 20
-14.7637300491333
  9
$PLIMMAX
 10
206.2162444591522
 20
282.2045927047729
  9
$UNITMODE
 70
     0
  9
$VISRETAIN
 70
     1
  9
$PLINEGEN
 70
     0
  9
$PSLTSCALE
 70
     1
  9
$TREEDEPTH
 70
  3020
  9
$PICKSTYLE
 70
     0
  9
$CMLSTYLE
  2
STANDARD
  9
$CMLJUST
 70
     0
  9
$CMLSCALE
 40
20.0
  9
$SAVEIMAGES
 70
     1
  0
ENDSEC
  0
SECTION
  2
CLASSES
  0
CLASS
  1
ACDBDICTIONARYWDFLT
  2
AcDbDictionaryWithDefault
  3
AutoCAD 2000
 90
    32768
280
     0
281
     0
  0
CLASS
  1
ACDBPLACEHOLDER
  2
AcDbPlaceHolder
  3
AutoCAD 2000
 90
    32768
280
     0
281
     0
  0
CLASS
  1
LAYOUT
  2
AcDbLayout
  3
AutoCAD 2000
 90
    32768
280
     0
281
     0
  0
CLASS
  1
AMGSETTINGSOBJ
  2
AmgSettingsObj
  3
"AcadM|Product Description: AutoCAD Mechanical 2000|Company: Autodesk"
 90
    32768
280
     0
281
     0
  0
CLASS
  1
ACME_DOCUMENT
  2
AcMeDbDoc
  3
AcMeServices
 90
    32768
280
     0
281
     0
  0
CLASS
  1
ACMESCOPE
  2
AcMeScope
  3
AcMeServices
 90
    32768
280
     0
281
     0
  0
CLASS
  1
ACMECOMMANDHISTORY
  2
AcMeCommandHistory
  3
AcMeServices
 90
    32768
280
     0
281
     0
  0
CLASS
  1
ACIMSYSVARMAN
  2
AcImSysVarManager
  3
AcMeServices
 90
    32768
280
     0
281
     0
  0
CLASS
  1
ACIMREALSYSVAR
  2
AcImRealSysVar
  3
AcMeServices
 90
    32768
280
     0
281
     0
  0
CLASS
  1
ACIMINTSYSVAR
  2
AcImIntSysVar
  3
AcMeServices
 90
    32768
280
     0
281
     0
  0
CLASS
  1
ACMEDRAWINGMAN
  2
AcMeDrawingMan
  3
AcMeServices
 90
    32768
280
     0
281
     0
  0
CLASS
  1
ACMEVIEW
  2
AcMeView
  3
AcMeServices
 90
    32768
280
     0
281
     0
  0
CLASS
  1
ACDBENTITYCACHE
  2
AcMeEntityCache
  3
AcMeServices
 90
    32768
280
     0
281
     0
  0
CLASS
  1
GSMANAGER
  2
AcMeGSManager
  3
AcMeServices
 90
    32768
280
     0
281
     0
  0
CLASS
  1
AMDTINTERNALREACTOR
  2
AmdtInternalReactor
  3
AcMeServices
 90
    32768
280
     0
281
     0
  0
CLASS
  1
ACMESTATEMGR
  2
AcMeStateMgr
  3
AcMeServices
 90
    32768
280
     0
281
     0
  0
CLASS
  1
ACGREFMASTER
  2
AcGrefMaster
  3
AcAttribServices
 90
    32768
280
     0
281
     0
  0
CLASS
  1
AM_DRAWING_MGR
  2
AcDmDwgMgr
  3
AcMechDwgViewMgmt
 90
    32768
280
     0
281
     0
  0
CLASS
  1
AM_DWG_DOCUMENT
  2
AcDmDwgDocument
  3
AcMechDwgViewMgmt
 90
    32768
280
     0
281
     0
  0
CLASS
  1
AM_DWG_SHEET
  2
AcDmSheet
  3
AcMechDwgViewMgmt
 90
    32768
280
     0
281
     0
  0
CLASS
  1
AM_VIEWDIMPARMAP
  2
AcDmViewDimParMap
  3
AcMechDwgViewMgmt
 90
    32768
280
     0
281
     0
  0
CLASS
  1
AM_DWGMGR_NAME
  2
AcDmDwgMgrName
  3
AcMechDwgViewMgmt
 90
    32768
280
     0
281
     0
  0
CLASS
  1
ACME_DATABASE
  2
AcMeDbDatabase
  3
AcMeServices
 90
    32768
280
     0
281
     0
  0
CLASS
  1
ACRFINSADJUSTERMGR
  2
AcRfInsAdjusterMgr
  3
AcMeServices
 90
    32768
280
     0
281
     0
  0
CLASS
  1
ACGREFACADMASTER
  2
AcGrefacadMaster
  3
AcGrefServices
 90
    32768
280
     0
281
     0
  0
CLASS
  1
AMDTMENUSTATEMGR
  2
AmdtMenuStateMgr
  3
McadcomServices
 90
    32768
280
     0
281
     0
  0
CLASS
  1
AMDTMCOMMENUSTATE
  2
AmdtMcomMenuState
  3
McadcomServices
 90
    32768
280
     0
281
     0
  0
CLASS
  1
AMIMASTER
  2
AmiMaster
  3
AmiServices
 90
    32768
280
     0
281
     0
  0
CLASS
  1
ASAPP
  2
AcAsAppObject
  3
AutoSurfServices
 90
    32768
280
     0
281
     0
  0
CLASS
  1
IM_STATIC_MAN
  2
AcImStaticVarManager
  3
AcMeServices
 90
    32768
280
     0
281
     0
  0
CLASS
  1
ACIMSTRSYSVAR
  2
AcImStrSysVar
  3
AcMeServices
 90
    32768
280
     0
281
     0
  0
CLASS
  1
ACIMDBLSTATICVAR
  2
AcImDblStaticVar
  3
AcMeServices
 90
    32768
280
     0
281
     0
  0
CLASS
  1
ACIMSTRSTATICVAR
  2
AcImStrStaticVar
  3
AcMeServices
 90
    32768
280
     0
281
     0
  0
CLASS
  1
ACIMINTSTATICVAR
  2
AcImIntStaticVar
  3
AcMeServices
 90
    32768
280
     0
281
     0
  0
CLASS
  1
ACASGREFMASTER
  2
AcAsGrefMaster
  3
AutoSurfResolverServices
 90
    32768
280
     0
281
     0
  0
CLASS
  1
ACADGREFMODULE
  2
AcAdGrefModule
  3
AdGrefServices
 90
    32768
280
     0
281
     0
  0
CLASS
  1
AMDTMAPISURFMOUDULE
  2
AmdtMApiSurfModule
  3
MApiSurfServices
 90
    32768
280
     0
281
     0
  0
CLASS
  1
MAPIAMMOUDLE
  2
MApiAmModule
  3
MApiAmServices
 90
    32768
280
     0
281
     0
  0
CLASS
  1
AMDTADMENUSTATE
  2
AmdtAdMenuState
  3
DesignerServices
 90
    32768
280
     0
281
     0
  0
CLASS
  1
ADAPPL
  2
AcAdAppl
  3
DesignerServices
 90
    32768
280
     0
281
     0
  0
CLASS
  1
DEPMGR
  2
AcAdDepMgr
  3
DesignerServices
 90
    32768
280
     0
281
     0
  0
CLASS
  1
PARAMMGR
  2
AcAdParamMgr
  3
DesignerServices
 90
    32768
280
     0
281
     0
  0
CLASS
  1
PARAMSCOPE
  2
AcAdParamScope
  3
DesignerServices
 90
    32768
280
     0
281
     0
  0
CLASS
  1
NAMEDAPPL
  2
AcAdNamedAppl
  3
DesignerServices
 90
    32768
280
     0
281
     0
  0
CLASS
  1
AMDTDMMENUSTATE
  2
AmdtDmMenuState
  3
AcMechDwgViewMgmt
 90
    32768
280
     0
281
     0
  0
CLASS
  1
MAPIADMODULE
  2
MApiAdModule
  3
MApiAdServices
 90
    32768
280
     0
281
     0
  0
CLASS
  1
AMDTAMMENUSTATE
  2
AmdtAmMenuState
  3
DesignerAssemblies
 90
    32768
280
     0
281
     0
  0
CLASS
  1
ACAMPROJECT
  2
AcAmProject
  3
DesignerAssemblies
 90
    32768
280
     0
281
     0
  0
CLASS
  1
ACAMCOMPDEFMGR
  2
AcAmCompDefMgr
  3
DesignerAssemblies
 90
    32768
280
     0
281
     0
  0
CLASS
  1
AMCONTEXTMGR
  2
AcAmContextMgr
  3
DesignerAssemblies
 90
    32768
280
     0
281
     0
  0
CLASS
  1
ACAMCONTEXTPARTMODELER
  2
AcAmContextPartModeler
  3
DesignerAssemblies
 90
    32768
280
     0
281
     0
  0
CLASS
  1
ACMDATADICTIONARY
  2
AcmDataDictionary
  3
"AcmSymBB|Product Description: AutoCAD Mechanical 2000|Company: Autodesk"
 90
    32768
280
     0
281
     0
  0
CLASS
  1
ACMDATAENTRYBLOCK
  2
AcmDataEntryBlock
  3
"AcmSymBB|Product Description: AutoCAD Mechanical 2000|Company: Autodesk"
 90
    32768
280
     0
281
     0
  0
CLASS
  1
ACMSTANDARDISO
  2
AcmStandardISO
  3
"Amdt_StdImp|Product Description: AutoCAD Mechanical 2000|Company: Autodesk"
 90
    32768
280
     0
281
     0
  0
CLASS
  1
AMGOBJPROPCFG
  2
AmgObjPropCfg
  3
"AmgLay|Product Description: AutoCAD Mechanical 2000|Company: Autodesk"
 90
    32769
280
     0
281
     0
  0
CLASS
  1
AMDTEDGESTANDARDISO
  2
AmdtEdgeStdISO
  3
"Amdt_StdImp|Product Description: AutoCAD Mechanical 2000|Company: Autodesk"
 90
    32768
280
     0
281
     0
  0
CLASS
  1
ACMSURFSTANDARDISO
  2
AcmSurfTextStdISO
  3
"Amdt_StdImp|Product Description: AutoCAD Mechanical 2000|Company: Autodesk"
 90
    32768
280
     0
281
     0
  0
CLASS
  1
ACMFCFSTANDARDISO
  2
AcmFCFStdISO
  3
"Amdt_StdImp|Product Description: AutoCAD Mechanical 2000|Company: Autodesk"
 90
    32768
280
     0
281
     0
  0
CLASS
  1
ACMWELDSTANDARDISO
  2
AcmWeldingStdISO
  3
"Amdt_StdImp|Product Description: AutoCAD Mechanical 2000|Company: Autodesk"
 90
    32768
280
     0
281
     0
  0
CLASS
  1
ACMIDSTANDARDISO
  2
AcmIdStdISO
  3
"Amdt_StdImp|Product Description: AutoCAD Mechanical 2000|Company: Autodesk"
 90
    32768
280
     0
281
     0
  0
CLASS
  1
ACMDATUMSTANDARDISO
  2
AcmDatumStdISO
  3
"Amdt_StdImp|Product Description: AutoCAD Mechanical 2000|Company: Autodesk"
 90
    32768
280
     0
281
     0
  0
CLASS
  1
ACMBOMSTANDARDISO
  2
AcmBOMStdISO
  3
"Amdt_StdImp|Product Description: AutoCAD Mechanical 2000|Company: Autodesk"
 90
    32768
280
     0
281
     0
  0
CLASS
  1
ACMDETAILSTANDARDISO
  2
AmdtDetailSymStdISO
  3
"Amdt_StdImp|Product Description: AutoCAD Mechanical 2000|Company: Autodesk"
 90
    32768
280
     0
281
     0
  0
CLASS
  1
ACMSECTIONSTANDARDISO
  2
AmdtSectionSymStdISO
  3
"Amdt_StdImp|Product Description: AutoCAD Mechanical 2000|Company: Autodesk"
 90
    32768
280
     0
281
     0
  0
CLASS
  1
ACMCENTERLINESTANDARDISO
  2
AmdtCenterLineStdISO
  3
"Amdt_StdImp|Product Description: AutoCAD Mechanical 2000|Company: Autodesk"
 90
    32768
280
     0
281
     0
  0
CLASS
  1
ACMTHREADLINESTANDARDISO
  2
AmdtThreadLineStdISO
  3
"Amdt_StdImp|Product Description: AutoCAD Mechanical 2000|Company: Autodesk"
 90
    32768
280
     0
281
     0
  0
CLASS
  1
ACMNOTESTANDARDISO
  2
AmdtNoteStdISO
  3
"Amdt_StdImp|Product Description: AutoCAD Mechanical 2000|Company: Autodesk"
 90
    32768
280
     0
281
     0
  0
CLASS
  1
ACAMGLAYSTD
  2
AcAmgLayStd
  3
"AcAmgLayStd|Product Description: AutoCAD Mechanical 2000|Company: Autodesk"
 90
    32768
280
     0
281
     0
  0
CLASS
  1
ACAMGDIMSTD
  2
AcAmgDimStd
  3
"AcAmgDimStd|Product Description: AutoCAD Mechanical 2000|Company: Autodesk"
 90
    32768
280
     0
281
     0
  0
CLASS
  1
ACAMGHOLECHARTSTDISO
  2
AcAmgHoleChartStdISO
  3
ACMSYMBB_MODULE_NAME
 90
    32768
280
     0
281
     0
  0
CLASS
  1
ACAMGTITLESTD
  2
AcAmgTitleStd
  3
"TITLEAPP"
 90
    32768
280
     0
281
     0
  0
CLASS
  1
CATALOGSTATE
  2
AcAmCatalogState
  3
DesignerAssemblies
 90
    32768
280
     0
281
     0
  0
CLASS
  1
ACAMGRCOMPDEFSET
  2
AcAmGrCompDefSet
  3
DesignerAssemblies
 90
    32768
280
     0
281
     0
  0
CLASS
  1
AMDTBROWSERDBTAB
  2
AmdtBrowserDbTab
  3
McadcomServices
 90
    32768
280
     0
281
     0
  0
CLASS
  1
CBROWSERAPPOBJECT
  2
CBrowserAppObject
  3
McadcomServices
 90
    32768
280
     0
281
     0
  0
CLASS
  1
DM_PLACEHOLDER
  2
AcDmSelsetPlaceholder
  3
AcMechDwgViewMgmt
 90
    32768
280
     0
281
     0
  0
CLASS
  1
ACAMGFILTERDAT
  2
AcAmgFilterDat
  3
"AcadM|Product Description: AutoCAD Mechanical 2000|Company: Autodesk"
 90
    32768
280
     0
281
     0
  0
CLASS
  1
LAYER_INDEX
  2
AcDbLayerIndex
  3
AutoCAD 2000
 90
    32768
280
     0
281
     0
  0
CLASS
  1
IDBUFFER
  2
AcDbIdBuffer
  3
AutoCAD 2000
 90
    32768
280
     0
281
     0
  0
CLASS
  1
DICTIONARYVAR
  2
AcDbDictionaryVar
  3
AutoCAD 2000
 90
    32768
280
     0
281
     0
  0
CLASS
  1
ACAMGRCOMPDEF
  2
AcAmGrCompDef
  3
DesignerAssemblies
 90
    32768
280
     0
281
     0
  0
CLASS
  1
ACCMCONTEXT
  2
AcCmContext
  3
DesignerAssemblies
 90
    32768
280
     0
281
     0
  0
CLASS
  1
ACAMCOMPDEF
  2
AcAmCompDef
  3
DesignerAssemblies
 90
    32768
280
     0
281
     0
  0
CLASS
  1
ADPART
  2
AcAdPart
  3
DesignerServices
 90
    32768
280
     0
281
     1
  0
CLASS
  1
ADBASE
  2
AcAdBase
  3
DesignerServices
 90
    32768
280
     0
281
     0
  0
CLASS
  1
BODYID
  2
AcAdBodyId
  3
DesignerServices
 90
    32768
280
     0
281
     0
  0
CLASS
  1
WORKPLANEDISPLAYMGR
  2
AcAdDisplayMgr
  3
DesignerServices
 90
    32768
280
     0
281
     0
  0
CLASS
  1
ACCMBODY
  2
AcCmBody
  3
DesignerAssemblies
 90
    32768
280
     0
281
     0
  0
CLASS
  1
ACAMCOMPENT
  2
AcAmCompEnt
  3
DesignerAssemblies
 90
    32768
280
     0
281
     1
  0
CLASS
  1
ACAMCOMPFEEDBACK
  2
AcAmCompFeedback
  3
DesignerAssemblies
 90
    32768
280
     0
281
     0
  0
CLASS
  1
ACAMGROUNDEDBASECOMP
  2
AcAmGroundedBaseComp
  3
DesignerAssemblies
 90
    32768
280
     0
281
     0
  0
CLASS
  1
ACAMCOMPENTCLONE
  2
AcAmCompEntClone
  3
DesignerAssemblies
 90
    32768
280
     0
281
     1
  0
CLASS
  1
ACAMCLONEREACTOR
  2
AcAmGrCompCloneReactor
  3
DesignerAssemblies
 90
    32768
280
     0
281
     0
  0
CLASS
  1
ADDATUMPLANEABS
  2
AcAdDatumPlaneAbs
  3
DesignerServices
 90
    32768
280
     0
281
     0
  0
CLASS
  1
ADDATUMAXISABS
  2
AcAdDatumAxisAbs
  3
DesignerServices
 90
    32768
280
     0
281
     0
  0
CLASS
  1
ADDATUMORIENTEDPLANE
  2
AcAdDatumOrientedPlane
  3
DesignerServices
 90
    32768
280
     0
281
     0
  0
CLASS
  1
ACAD_LINE
  2
AcAdLine
  3
DesignerServices
 90
    32768
280
     0
281
     1
  0
CLASS
  1
ACADLINEACAD
  2
AcAdVirtualBoundedLineAcad
  3
DesignerServices
 90
    32768
280
     0
281
     0
  0
CLASS
  1
ACADREFLINEACAD
  2
AcAdVirtualReferenceLine
  3
DesignerServices
 90
    32768
280
     0
281
     0
  0
CLASS
  1
ACADCONSLINE
  2
AcAdConstrainedLine
  3
DesignerServices
 90
    32768
280
     0
281
     0
  0
CLASS
  1
ACADCONSGROUP
  2
AcAdConstraintGroup
  3
DesignerServices
 90
    32768
280
     0
281
     0
  0
CLASS
  1
ACADIMPPTACAD
  2
AcAdVirtualImplicitPoint
  3
DesignerServices
 90
    32768
280
     0
281
     0
  0
CLASS
  1
ACADCONSPOINT
  2
AcAdConstrainedPoint
  3
DesignerServices
 90
    32768
280
     0
281
     0
  0
CLASS
  1
ADPCURCNS
  2
AcAdPointCurveConstr
  3
DesignerServices
 90
    32768
280
     0
281
     0
  0
CLASS
  1
ADVERCNS
  2
AcAdVerticalConstr
  3
DesignerServices
 90
    32768
280
     0
281
     0
  0
CLASS
  1
ADHORCNS
  2
AcAdHorizontalConstr
  3
DesignerServices
 90
    32768
280
     0
281
     0
  0
CLASS
  1
ADCLPROF2D
  2
AcAdClosedProfile2d
  3
DesignerServices
 90
    32768
280
     0
281
     0
  0
CLASS
  1
ACAD_FIXCONSTRAINT
  2
AcAdFixedConstraint
  3
DesignerServices
 90
    32768
280
     0
281
     0
  0
CLASS
  1
AMDTFORMULAUPDATEDISPATCHER
  2
AmdtFormulaUpdateDispatcher
  3
AcMeServices
 90
    32768
280
     0
281
     0
  0
CLASS
  1
ADCONSDISP
  2
AcAdConstraintDisplay
  3
DesignerServices
 90
    32768
280
     0
281
     1
  0
CLASS
  1
ADCONSTDSP
  2
AcAdConstraintDisplayTag
  3
DesignerServices
 90
    32768
280
     0
281
     1
  0
CLASS
  1
PARAM
  2
AcAdParam
  3
DesignerServices
 90
    32768
280
     0
281
     0
  0
CLASS
  1
ADVDISTCNS
  2
AcAdVerticalDistanceConstr
  3
DesignerServices
 90
    32768
280
     0
281
     0
  0
CLASS
  1
ADHDISTCNS
  2
AcAdHorizontalDistanceConstr
  3
DesignerServices
 90
    32768
280
     0
281
     0
  0
CLASS
  1
ACMEROTATIONARROW
  2
AcImRotationArrowDisplay
  3
AcMeServices
 90
    32768
280
     0
281
     1
  0
CLASS
  1
ACADVOLFEATWITHTRIM
  2
AcAdVolFeatWithTrim
  3
DesignerServices
 90
    32768
280
     0
281
     0
  0
CLASS
  1
DEPEDGEFEATUREORDERING
  2
AcAdDepEdgeFeatureOrdering
  3
DesignerServices
 90
    32768
280
     0
281
     0
  0
CLASS
  1
DATUMAXISDISPLAY
  2
AcAdDatumAxisDisplay
  3
DesignerServices
 90
    32768
280
     0
281
     1
  0
CLASS
  1
ADDATUMAXISCENTER
  2
AcAdDatumAxisCenter
  3
DesignerServices
 90
    32768
280
     0
281
     0
  0
CLASS
  1
ADPLANEID
  2
AcAdSurfGeomId
  3
DesignerServices
 90
    32768
280
     0
281
     0
  0
CLASS
  1
ACMEPOINT
  2
AcImPointDisplay
  3
AcMeServices
 90
    32768
280
     0
281
     1
  0
CLASS
  1
ADPLANEID
  2
AcAdPlaneId
  3
DesignerServices
 90
    32768
280
     0
281
     0
  0
CLASS
  1
ADDATUMPLANEFACE
  2
AcAdDatumPlaneFace
  3
DesignerServices
 90
    32768
280
     0
281
     0
  0
CLASS
  1
ADDATUMPOINTAXISPLANE
  2
AcAdDatumPointAxisPlane
  3
DesignerServices
 90
    32768
280
     0
281
     0
  0
CLASS
  1
ADHOLEFEAT
  2
AcAdHoleFeat
  3
DesignerServices
 90
    32768
280
     0
281
     0
  0
CLASS
  1
CIRREFID
  2
AcAdCircleRefId
  3
DesignerServices
 90
    32768
280
     0
281
     0
  0
CLASS
  1
ACADCIRCDEPID
  2
AcAdVirtualCircleDepId
  3
DesignerServices
 90
    32768
280
     0
281
     0
  0
CLASS
  1
ACADCONSCIRCLE
  2
AcAdConstrainedCircle
  3
DesignerServices
 90
    32768
280
     0
281
     0
  0
CLASS
  1
ADCTRPTCNS
  2
AcAdCenterPointConstr
  3
DesignerServices
 90
    32768
280
     0
281
     0
  0
CLASS
  1
AMDT_ALIGNED_DIM
  2
AmdtAlignedDimension
  3
AcMeServices
 90
    32768
280
     0
281
     1
  0
CLASS
  1
ACADBOUNDEDLINEDATUMID
  2
AcAdVirtualBoundedLineDatumId
  3
DesignerServices
 90
    32768
280
     0
281
     0
  0
CLASS
  1
AMDT_ORDINATE_DIM
  2
AmdtOrdinateDimension
  3
AcMeServices
 90
    32768
280
     0
281
     1
  0
CLASS
  1
EDGEID
  2
AcAdEdgeId
  3
DesignerServices
 90
    32768
280
     0
281
     0
  0
CLASS
  1
ADFILLET
  2
AcAdFillet
  3
DesignerServices
 90
    32768
280
     0
281
     0
  0
CLASS
  1
DATUMPLANEDISPLAY
  2
AcAdDatumPlaneDisplay
  3
DesignerServices
 90
    32768
280
     0
281
     1
  0
CLASS
  1
ADDATUMPLANEAXISPLANE
  2
AcAdDatumPlaneAxisPlane
  3
DesignerServices
 90
    32768
280
     0
281
     0
  0
CLASS
  1
ACMEPLINE
  2
AcImPlineDisplay
  3
AcMeServices
 90
    32768
280
     0
281
     1
  0
CLASS
  1
ACMELINEARARROW
  2
AcImLinearArrowDisplay
  3
AcMeServices
 90
    32768
280
     0
281
     1
  0
CLASS
  1
ACMETEXT
  2
AcImTextDisplay
  3
AcMeServices
 90
    32768
280
     0
281
     1
  0
CLASS
  1
ADDATUMPLANEOFFSET
  2
AcAdDatumPlaneOffset
  3
DesignerServices
 90
    32768
280
     0
281
     0
  0
CLASS
  1
ADCOLNCNS
  2
AcAdColinearConstr
  3
DesignerServices
 90
    32768
280
     0
281
     0
  0
CLASS
  1
STREFID
  2
AcAdStraightRefId
  3
DesignerServices
 90
    32768
280
     0
281
     0
  0
CLASS
  1
ACADLINEDEPID
  2
AcAdVirtualLineDepId
  3
DesignerServices
 90
    32768
280
     0
281
     0
  0
CLASS
  1
ADFEATUREDISPLAY
  2
AcImFeatureDisplay
  3
ACME_MODULE_NAME
 90
    32768
280
     0
281
     1
  0
CLASS
  1
ACMEAXIS
  2
AcImAxisDisplay
  3
AcMeServices
 90
    32768
280
     0
281
     1
  0
CLASS
  1
DEPEDGEPATTERNFEATURE
  2
AcAdDepEdgePatternFeature
  3
DesignerServices
 90
    32768
280
     0
281
     0
  0
CLASS
  1
ACADPATTNFEAT
  2
AcAdPatternFeat
  3
DesignerServices
 90
    32768
280
     0
281
     0
  0
CLASS
  1
ACADORDORIGPT
  2
AcAdOrdinateOriginPoint
  3
DesignerServices
 90
    32768
280
     0
281
     0
  0
CLASS
  1
ADORDBASECNS
  2
AcAdOrdinateBaseConstr
  3
DesignerServices
 90
    32768
280
     0
281
     0
  0
CLASS
  1
DEPEDGESECONDARYDEPID
  2
AcAdDepEdgeSecondaryDepId
  3
DesignerServices
 90
    32768
280
     0
281
     0
  0
CLASS
  1
DEPEDGEPATTERNINSTANCE
  2
AcAdDepEdgePatternInstance
  3
DesignerServices
 90
    32768
280
     0
281
     0
  0
CLASS
  1
AM_VIEW_SELECT_FILTER
  2
AcDmActivePartViewEntFilter
  3
DesignerServices
 90
    32768
280
     0
281
     0
  0
CLASS
  1
AM_ABS_PLANE
  2
AcDmAbsPlnDef
  3
AcMechDwgViewMgmt
 90
    32768
280
     0
281
     0
  0
CLASS
  1
AM_ABS_AXIS
  2
AcDmAbsAxisDef
  3
AcMechDwgViewMgmt
 90
    32768
280
     0
281
     0
  0
CLASS
  1
AM_BASE_VIEW_ORIENT
  2
AcDmBaseViewOr
  3
AcMechDwgViewMgmt
 90
    32768
280
     0
281
     0
  0
CLASS
  1
AM_DWG_VIEWPORT
  2
AcDmViewport
  3
AcMechDwgViewMgmt
 90
    32768
280
     0
281
     0
  0
CLASS
  1
AM_VIEW_DISPLAY
  2
AcDmDwgViewDisplay
  3
AcMechDwgViewMgmt
 90
    32768
280
     0
281
     0
  0
CLASS
  1
AM_CLDFLTS
  2
AcDmClDflts
  3
AcMechDwgViewMgmt
 90
    32768
280
     0
281
     0
  0
CLASS
  1
AM_BASE_VIEW
  2
AcDmBaseView
  3
AcMechDwgViewMgmt
 90
    32768
280
     0
281
     0
  0
CLASS
  1
AM_ISO_VIEW_ORIENT
  2
AcDmIsoViewOr
  3
AcMechDwgViewMgmt
 90
    32768
280
     0
281
     0
  0
CLASS
  1
AM_ISO_VIEW
  2
AcDmIsoView
  3
AcMechDwgViewMgmt
 90
    32768
280
     0
281
     0
  0
CLASS
  1
AM_ORTHO_VIEW_ORIENT
  2
AcDmOrthoViewOr
  3
AcMechDwgViewMgmt
 90
    32768
280
     0
281
     0
  0
CLASS
  1
AM_ORTHO_VIEW
  2
AcDmOrthoView
  3
AcMechDwgViewMgmt
 90
    32768
280
     0
281
     0
  0
CLASS
  1
ACDMPARTVIEWDATA
  2
AcDmPartViewData
  3
AcMechDwgViewMgmt
 90
    32768
280
     0
281
     0
  0
CLASS
  1
ACDMDISPLAYATTRIBS
  2
AcDmDisplayAttribs
  3
AcMechDwgViewMgmt
 90
    32768
280
     0
281
     0
  0
CLASS
  1
ACDMBODYINSTANCEDATA
  2
AcDmBodyInstanceData
  3
AcMechDwgViewMgmt
 90
    32768
280
     0
281
     0
  0
CLASS
  1
ACDMVWEDLINE
  2
AcDmViewEdgeLine
  3
AcMechDwgViewMgmt
 90
    32768
280
     0
281
     1
  0
CLASS
  1
ACDMVWEDARC
  2
AcDmViewEdgeArc
  3
AcMechDwgViewMgmt
 90
    32768
280
     0
281
     1
  0
CLASS
  1
ACADSKETCHPOINTRES
  2
AcAdSketchPointRes
  3
DesignerServices
 90
    32768
280
     0
281
     0
  0
CLASS
  1
AM_VIEWDIMLINEAR
  2
AcDmViewDimLinear
  3
AcMechDwgViewMgmt
 90
    32768
280
     0
281
     0
  0
CLASS
  1
AMDTDMPARMAPDATA
  2
AmdtDmDimParMapData
  3
AcMechDwgViewMgmt
 90
    32768
280
     0
281
     0
  0
CLASS
  1
AM_ADLINCTRLINE
  2
AcAdLineCl
  3
DesignerServices
 90
    32768
280
     0
281
     0
  0
CLASS
  1
ACDMVWEDCIRC
  2
AcDmViewEdgeCircle
  3
AcMechDwgViewMgmt
 90
    32768
280
     0
281
     1
  0
CLASS
  1
AM_ADCIRCTRLINE
  2
AcAdBullsEyeCl
  3
DesignerServices
 90
    32768
280
     0
281
     0
  0
CLASS
  1
AD_CIRCTAPH
  2
AcAdTapHoleCircDisp
  3
DesignerServices
 90
    32768
280
     0
281
     0
  0
CLASS
  1
ACDMVIEWGEOM
  2
AcDmViewGeometry
  3
AcMechDwgViewMgmt
 90
    32768
280
     0
281
     1
  0
CLASS
  1
FACEID
  2
AcAdFaceId
  3
DesignerServices
 90
    32768
280
     0
281
     0
  0
CLASS
  1
ACADPARTPLANARFACERES
  2
AcAdPartPlanarFaceRes
  3
AdGrefServices
 90
    32768
280
     0
281
     0
  0
CLASS
  1
AM_GREF_PLANE
  2
AcDmGrefPlnDef
  3
AcMechDwgViewMgmt
 90
    32768
280
     0
281
     0
  0
CLASS
  1
ACADPARTLINEDGRES
  2
AcAdPartLinEdgRes
  3
AdGrefServices
 90
    32768
280
     0
281
     0
  0
CLASS
  1
AM_GREF_AXIS
  2
AcDmGrefAxisDef
  3
AcMechDwgViewMgmt
 90
    32768
280
     0
281
     0
  0
CLASS
  1
AMDTEXTERNALTHREAD
  2
AmdtExternalThreadFeat
  3
DesignerServices
 90
    32768
280
     0
281
     0
  0
CLASS
  1
THREADDISPLAY
  2
AcAdThreadDisplay
  3
DesignerServices
 90
    32768
280
     0
281
     1
  0
CLASS
  1
AD_LINETAPH
  2
AcAdTapHoleLineDisp
  3
DesignerServices
 90
    32768
280
     0
281
     0
  0
CLASS
  1
ADRADDISP
  2
AcAdRadiusDisplay
  3
DesignerServices
 90
    32768
280
     0
281
     1
  0
CLASS
  1
ACDBLINERES
  2
AcDbLineRes
  3
AcGrefServices
 90
    32768
280
     0
281
     0
  0
CLASS
  1
ACADPARTCONICALFACERES
  2
AcAdPartConicalFaceRes
  3
AdGrefServices
 90
    32768
280
     0
281
     0
  0
CLASS
  1
ACDMGREFEDIT
  2
AcDmViewEntityGeomrefEdit
  3
AcMechDwgViewMgmt
 90
    32768
280
     0
281
     0
  0
CLASS
  1
ACDMVIEWLINEDGERES
  2
AcDmViewLinEdgeRes
  3
AcMechDwgViewMgmt
 90
    32768
280
     0
281
     0
  0
CLASS
  1
SILEDGEID
  2
AcAdSilhouetteEdgeId
  3
DesignerServices
 90
    32768
280
     0
281
     0
  0
CLASS
  1
ACADPARTCYLINDERFACERES
  2
AcAdPartCylinderFaceRes
  3
AdGrefServices
 90
    32768
280
     0
281
     0
  0
CLASS
  1
CNRREFID
  2
AcAdCornerId
  3
DesignerServices
 90
    32768
280
     0
281
     0
  0
CLASS
  1
ACADPARTPOINTRES
  2
AcAdPartPointRes
  3
AdGrefServices
 90
    32768
280
     0
281
     0
  0
CLASS
  1
ACADPARTCIRCEDGRES
  2
AcAdPartCircEdgRes
  3
AdGrefServices
 90
    32768
280
     0
281
     0
  0
CLASS
  1
ACRFDMINSADJ
  2
AcRfDMInsAdjuster
  3
AcMechDwgViewMgmt
 90
    32768
280
     0
281
     0
  0
CLASS
  1
AM_VIEWDIMRADIUS
  2
AcDmViewDimRadius
  3
AcMechDwgViewMgmt
 90
    32768
280
     0
281
     0
  0
CLASS
  1
ACADPARTDATUMPLANERES
  2
AcAdPartDatumPlaneRes
  3
AdGrefServices
 90
    32768
280
     0
281
     0
  0
CLASS
  1
AM_FULLPLANESECTION
  2
AcDmFullPlaneSection
  3
AcMechDwgViewMgmt
 90
    32768
280
     0
281
     0
  0
CLASS
  1
AMDTSECTIONSYM
  2
AmdtSectionSym
  3
"AcmSymBB|Product Description: AutoCAD Mechanical 2000|Company: Autodesk"
 90
    33791
280
     0
281
     1
  0
CLASS
  1
AM_VWNOTEADAPTER
  2
AcDmViewAnnotAdapter
  3
AcMechDwgViewMgmt
 90
    32768
280
     0
281
     0
  0
CLASS
  1
AMDTSECTIONSYMLABEL
  2
AmdtSectionSymLabel
  3
"AcmSymBB|Product Description: AutoCAD Mechanical 2000|Company: Autodesk"
 90
    33791
280
     0
281
     1
  0
CLASS
  1
AMDTNOTE
  2
AmdtNote
  3
"AcmSymBB|Product Description: AutoCAD Mechanical 2000|Company: Autodesk"
 90
    33791
280
     0
281
     1
  0
CLASS
  1
DIMASSOC
  2
AcDbDimAssoc
  3
"AcDbDimAssoc|Product Desc:     AcDim ARX App For Dimension|Company:          Autodesk, Inc.|WEB Address:      www.autodesk.com"
 90
    32768
280
     0
281
     0
  0
CLASS
  1
ACMSTANDARDANSI
  2
AcmStandardANSI
  3
"Amdt_StdImp|Product Description: AutoCAD Mechanical 2000|Company: Autodesk"
 90
    32768
280
     0
281
     0
  0
CLASS
  1
ACMSURFSTANDARDANSI
  2
AcmSurfTextStdANSI
  3
"Amdt_StdImp|Product Description: AutoCAD Mechanical 2000|Company: Autodesk"
 90
    32768
280
     0
281
     0
  0
CLASS
  1
ACMFCFSTANDARDANSI
  2
AcmFCFStdANSI
  3
"Amdt_StdImp|Product Description: AutoCAD Mechanical 2000|Company: Autodesk"
 90
    32768
280
     0
281
     0
  0
CLASS
  1
ACMWELDSTANDARDANSI
  2
AcmWeldingStdANSI
  3
"Amdt_StdImp|Product Description: AutoCAD Mechanical 2000|Company: Autodesk"
 90
    32768
280
     0
281
     0
  0
CLASS
  1
ACMIDSTANDARDANSI
  2
AcmIdStdANSI
  3
"Amdt_StdImp|Product Description: AutoCAD Mechanical 2000|Company: Autodesk"
 90
    32768
280
     0
281
     0
  0
CLASS
  1
ACMDATUMSTANDARDANSI
  2
AcmDatumStdANSI
  3
"Amdt_StdImp|Product Description: AutoCAD Mechanical 2000|Company: Autodesk"
 90
    32768
280
     0
281
     0
  0
CLASS
  1
ACMBOMSTANDARDANSI
  2
AcmBOMStdANSI
  3
"Amdt_StdImp|Product Description: AutoCAD Mechanical 2000|Company: Autodesk"
 90
    32768
280
     0
281
     0
  0
CLASS
  1
ACMDETAILSTANDARDANSI
  2
AmdtDetailSymStdANSI
  3
"Amdt_StdImp|Product Description: AutoCAD Mechanical 2000|Company: Autodesk"
 90
    32768
280
     0
281
     0
  0
CLASS
  1
ACMSECTIONSTANDARDANSI
  2
AmdtSectionSymStdANSI
  3
"Amdt_StdImp|Product Description: AutoCAD Mechanical 2000|Company: Autodesk"
 90
    32768
280
     0
281
     0
  0
CLASS
  1
ACMCENTERLINESTANDARDANSI
  2
AmdtCenterLineStdANSI
  3
"Amdt_StdImp|Product Description: AutoCAD Mechanical 2000|Company: Autodesk"
 90
    32768
280
     0
281
     0
  0
CLASS
  1
ACMNOTESTANDARDANSI
  2
AmdtNoteStdANSI
  3
"Amdt_StdImp|Product Description: AutoCAD Mechanical 2000|Company: Autodesk"
 90
    32768
280
     0
281
     0
  0
CLASS
  1
ACAMGHOLECHARTSTDANSI
  2
AcAmgHoleChartStdANSI
  3
ACMSYMBB_MODULE_NAME
 90
    32768
280
     0
281
     0
  0
CLASS
  1
ACDBCIRCARCRES
  2
AcDbCircArcRes
  3
AcGrefServices
 90
    32768
280
     0
281
     0
  0
CLASS
  1
LONG_TRANSACTION
  2
AcDbLongTransaction
  3
AutoCAD 2000
 90
    32768
280
     0
281
     0
  0
CLASS
  1
LWPOLYLINE
  2
AcDbPolyline
  3
AutoCAD 2000
 90
    32768
280
     0
281
     1
  0
CLASS
  1
HATCH
  2
AcDbHatch
  3
AutoCAD 2000
 90
    32768
280
     0
281
     1
  0
CLASS
  1
XRECORD
  2
AcDbXrecord
  3
AutoCAD 2000
 90
    32768
280
     0
281
     0
  0
ENDSEC
  0
SECTION
  2
TABLES
  0
TABLE
  2
VPORT
  5
1A
330
0
100
AcDbSymbolTable
 70
     8
  0
VPORT
  5
3230
330
1A
100
AcDbSymbolTableRecord
100
AcDbViewportTableRecord
  2
*ACTIVE
 70
     0
 10
0.0
 20
0.0
 11
1.0
 21
1.0
 12
687.4615737308304
 22
247.0297988630083
 13
0.0
 23
0.0
 14
2.5
 24
2.5
 15
10.0
 25
10.0
 16
0.0
 26
0.0
 36
1.0
 17
0.0
 27
0.0
 37
0.0
 40
308.8892387437804
 41
1.765124555160142
 42
50.0
 43
0.0
 44
0.0
 50
0.0
 51
0.0
 71
     0
 72
   100
 73
     1
 74
     3
 75
     0
 76
     0
 77
     0
 78
     0
  0
ENDTAB
  0
TABLE
  2
LTYPE
  5
15
330
0
100
AcDbSymbolTable
 70
    20
  0
LTYPE
  5
16
330
15
100
AcDbSymbolTableRecord
100
AcDbLinetypeTableRecord
  2
BYBLOCK
 70
     0
  3

 72
    65
 73
     0
 40
0.0
  0
LTYPE
  5
17
330
15
100
AcDbSymbolTableRecord
100
AcDbLinetypeTableRecord
  2
BYLAYER
 70
     0
  3

 72
    65
 73
     0
 40
0.0
  0
LTYPE
  5
9
330
15
100
AcDbSymbolTableRecord
100
AcDbLinetypeTableRecord
  2
CONTINUOUS
 70
     0
  3
Solid line
 72
    65
 73
     0
 40
0.0
  0
LTYPE
  5
161
330
15
100
AcDbSymbolTableRecord
100
AcDbLinetypeTableRecord
  2
HIDDEN
 70
     0
  3
Hidden __ __ __ __ __ __ __ __ __ __ __ __ __ _
 72
    65
 73
     2
 40
9.524999999999998
 49
6.349999999999999
 74
     0
 49
-3.174999999999999
 74
     0
  0
LTYPE
  5
BF
330
15
100
AcDbSymbolTableRecord
100
AcDbLinetypeTableRecord
  2
AM_ISO08W050
 70
     0
  3
____ . ____ . ____ . ____ . ____ . ____ . ____
 72
    65
 73
     4
 40
18.0
 49
12.0
 74
     0
 49
-1.5
 74
     0
 49
3.0
 74
     0
 49
-1.5
 74
     0
  0
LTYPE
  5
1FD
330
15
100
AcDbSymbolTableRecord
100
AcDbLinetypeTableRecord
  2
AM_ISO02W050
 70
     0
  3
__ __ __ __ __ __ __ __ __ __ __ __ __ __ __
 72
    65
 73
     2
 40
7.5
 49
6.0
 74
     0
 49
-1.5
 74
     0
  0
LTYPE
  5
1FE
330
15
100
AcDbSymbolTableRecord
100
AcDbLinetypeTableRecord
  2
AM_ISO09W050
 70
     0
  3
_____ . . _____ . . _____ . . ____ .. ____
 72
    65
 73
     6
 40
22.5
 49
12.0
 74
     0
 49
-1.5
 74
     0
 49
3.0
 74
     0
 49
-1.5
 74
     0
 49
3.0
 74
     0
 49
-1.5
 74
     0
  0
LTYPE
  5
1FF
330
15
100
AcDbSymbolTableRecord
100
AcDbLinetypeTableRecord
  2
AMCONSTR
 70
     0
  3
_______________________
 72
    65
 73
     2
 40
9999.0
 49
9999.0
 74
     0
 49
0.0
 74
     0
  0
LTYPE
  5
200
330
15
100
AcDbSymbolTableRecord
100
AcDbLinetypeTableRecord
  2
AM_ISO08W050X2
 70
     0
  3
__ . __ . __ . __ . __ . __
 72
    65
 73
     4
 40
9.0
 49
6.0
 74
     0
 49
-0.75
 74
     0
 49
1.5
 74
     0
 49
-0.75
 74
     0
  0
LTYPE
  5
201
330
15
100
AcDbSymbolTableRecord
100
AcDbLinetypeTableRecord
  2
AM_ISO02W050X2
 70
     0
  3
 _ _ _ _ _ _ _ _ _ _ _ _
 72
    65
 73
     2
 40
3.75
 49
3.0
 74
     0
 49
-0.75
 74
     0
  0
LTYPE
  5
204
330
15
100
AcDbSymbolTableRecord
100
AcDbLinetypeTableRecord
  2
AMZIGZAG
 70
     0
  3
/\/-/\/-/\/-/\/-/\/-/\/
 72
    65
 73
     2
 40
11.00009999999999
 49
0.0001
 74
     4
 75
   135
340
203
 46
0.04
 50
0.0
 44
0.0
 45
0.0
 49
-11.0
 74
     0
  0
LTYPE
  5
211
330
15
100
AcDbSymbolTableRecord
100
AcDbLinetypeTableRecord
  2
ACISOWELD
 70
     0
  3
_ _ _ _ _
 72
    65
 73
     2
 40
2.0
 49
2.0
 74
     0
 49
-1.0
 74
     0
  0
LTYPE
  5
212
330
15
100
AcDbSymbolTableRecord
100
AcDbLinetypeTableRecord
  2
ACISOTGB
 70
     0
  3
__ . . __ . .
 72
    65
 73
     6
 40
9.0
 49
4.0
 74
     0
 49
-1.0
 74
     0
 49
1.0
 74
     0
 49
-1.0
 74
     0
 49
1.0
 74
     0
 49
-1.0
 74
     0
  0
LTYPE
  5
213
330
15
100
AcDbSymbolTableRecord
100
AcDbLinetypeTableRecord
  2
ACISOTGL
 70
     0
  3
_ _ _ _ _
 72
    65
 73
     2
 40
3.0
 49
2.0
 74
     0
 49
-1.0
 74
     0
  0
LTYPE
  5
214
330
15
100
AcDbSymbolTableRecord
100
AcDbLinetypeTableRecord
  2
CENTER
 70
     0
  3
__ . __
 72
    65
 73
     4
 40
7.0
 49
4.0
 74
     0
 49
-1.0
 74
     0
 49
1.0
 74
     0
 49
-1.0
 74
     0
  0
LTYPE
  5
1112
330
15
100
AcDbSymbolTableRecord
100
AcDbLinetypeTableRecord
  2
PHANTOM2
 70
     0
  3
Phantom (.5x) ___ _ _ ___ _ _ ___ _ _ ___ _ _
 72
    65
 73
     6
 40
1.25
 49
0.625
 74
     0
 49
-0.125
 74
     0
 49
0.125
 74
     0
 49
-0.125
 74
     0
 49
0.125
 74
     0
 49
-0.125
 74
     0
  0
LTYPE
  5
1115
330
15
100
AcDbSymbolTableRecord
100
AcDbLinetypeTableRecord
  2
ACANSTGB
 70
     0
  3
__ . . __ . .
 72
    65
 73
     6
 40
0.35433070866
 49
0.15748031496
 74
     0
 49
-0.03937007874
 74
     0
 49
0.03937007874
 74
     0
 49
-0.03937007874
 74
     0
 49
0.03937007874
 74
     0
 49
-0.03937007874
 74
     0
  0
LTYPE
  5
1116
330
15
100
AcDbSymbolTableRecord
100
AcDbLinetypeTableRecord
  2
ACANSTGL
 70
     0
  3
_ _ _ _ _
 72
    65
 73
     2
 40
0.11811023622
 49
0.07874015748
 74
     0
 49
-0.03937007874
 74
     0
  0
ENDTAB
  0
TABLE
  2
LAYER
  5
11
330
0
100
AcDbSymbolTable
 70
    12
  0
LAYER
  5
5
330
11
100
AcDbSymbolTableRecord
100
AcDbLayerTableRecord
  2
0
 70
     0
 62
     7
  6
CONTINUOUS
  0
LAYER
  5
3B
330
11
100
AcDbSymbolTableRecord
100
AcDbLayerTableRecord
  2
DEFPOINTS
 70
     0
 62
     7
  6
CONTINUOUS
  0
LAYER
  5
14E
330
11
100
AcDbSymbolTableRecord
100
AcDbLayerTableRecord
  2
AM_5
 70
     0
 62
     5
  6
CONTINUOUS
  0
LAYER
  5
32
330
11
100
AcDbSymbolTableRecord
100
AcDbLayerTableRecord
  2
AM_PARDIM
 70
     0
 62
     5
  6
CONTINUOUS
  0
LAYER
  5
BE
330
11
100
AcDbSymbolTableRecord
100
AcDbLayerTableRecord
  2
AM_7
 70
     0
 62
     1
  6
AM_ISO08W050
  0
LAYER
  5
1117
330
11
100
AcDbSymbolTableRecord
100
AcDbLayerTableRecord
  2
HIDDEN
 70
     0
 62
     6
  6
HIDDEN
  0
LAYER
  5
1118
330
11
100
AcDbSymbolTableRecord
100
AcDbLayerTableRecord
  2
DIM
 70
     0
 62
     5
  6
CONTINUOUS
  0
LAYER
  5
1119
330
11
100
AcDbSymbolTableRecord
100
AcDbLayerTableRecord
  2
CENTER
 70
     0
 62
     1
  6
CENTER
  0
LAYER
  5
111A
330
11
100
AcDbSymbolTableRecord
100
AcDbLayerTableRecord
  2
LOGO
 70
     0
 62
     7
  6
CONTINUOUS
  0
ENDTAB
  0
TABLE
  2
STYLE
  5
12
330
0
100
AcDbSymbolTable
 70
    12
  0
STYLE
  5
13
330
12
100
AcDbSymbolTableRecord
100
AcDbTextStyleTableRecord
  2
STANDARD
 70
     0
 40
0.0
 41
1.0
 50
0.0
 71
     0
 42
2.5
  3
ISOCP.SHX
  4
CHINESET.SHX
  0
STYLE
  5
152
330
12
100
AcDbSymbolTableRecord
100
AcDbTextStyleTableRecord
  2
ACISOTS
 70
     0
 40
1.0
 41
1.0
 50
0.0
 71
     0
 42
2.5
  3
isocp.shx
  4
chineset.shx
  0
STYLE
  5
203
330
12
100
AcDbSymbolTableRecord
100
AcDbTextStyleTableRecord
  2

 70
     1
 40
0.0
 41
1.0
 50
0.0
 71
     0
 42
2.5
  3
ltypeshp.shx
  4

  0
STYLE
  5
210
330
12
100
AcDbSymbolTableRecord
100
AcDbTextStyleTableRecord
  2
ACISOGDT
 70
     0
 40
0.0
 41
1.0
 50
0.0
 71
     0
 42
2.5
  3
amgdt.shx
  4

  0
STYLE
  5
356
330
12
100
AcDbSymbolTableRecord
100
AcDbTextStyleTableRecord
  2
CHINESET
 70
     0
 40
0.0
 41
1.0
 50
0.0
 71
     0
 42
2.5
  3
simplex.shx
  4
CHINESET.shx
  0
STYLE
  5
357
330
12
100
AcDbSymbolTableRecord
100
AcDbTextStyleTableRecord
  2
CHINA
 70
     0
 40
0.0
 41
1.0
 50
0.0
 71
     0
 42
3.0
  3
/rubon/c2
  4
/rubon/china
  0
STYLE
  5
111C
330
12
100
AcDbSymbolTableRecord
100
AcDbTextStyleTableRecord
  2
ROMANS
 70
     0
 40
0.0
 41
1.0
 50
0.0
 71
     0
 42
3.0
  3
ROMANS.SHX
  4
LMP
  0
STYLE
  5
111D
330
12
100
AcDbSymbolTableRecord
100
AcDbTextStyleTableRecord
  2
ROMANS1
 70
     0
 40
0.0
 41
1.0
 50
0.0
 71
     0
 42
3.0
  3
ROMANS.SHX
  4

  0
STYLE
  5
111E
330
12
100
AcDbSymbolTableRecord
100
AcDbTextStyleTableRecord
  2
LOGO
 70
     0
 40
0.0
 41
1.0
 50
0.0
 71
     0
 42
5.0
  3
LEI00DP.TTF
  4

1001
ACAD
1000
文鼎中粗隸
1071
    34865
  0
STYLE
  5
111F
330
12
100
AcDbSymbolTableRecord
100
AcDbTextStyleTableRecord
  2
ACANSTS
 70
     0
 40
1.0
 41
1.0
 50
0.0
 71
     0
 42
2.5
  3
romans.shx
  4
chineset.shx
  0
STYLE
  5
1120
330
12
100
AcDbSymbolTableRecord
100
AcDbTextStyleTableRecord
  2
ACANSGDT
 70
     0
 40
0.0
 41
1.0
 50
0.0
 71
     0
 42
2.5
  3
amgdtans.shx
  4

  0
ENDTAB
  0
TABLE
  2
VIEW
  5
18
330
0
100
AcDbSymbolTable
 70
     0
  0
ENDTAB
  0
TABLE
  2
UCS
  5
19
330
0
100
AcDbSymbolTable
 70
     0
  0
ENDTAB
  0
TABLE
  2
APPID
  5
1C
330
0
100
AcDbSymbolTable
 70
    18
  0
APPID
  5
1D
330
1C
100
AcDbSymbolTableRecord
100
AcDbRegAppTableRecord
  2
ACAD
 70
     0
  0
APPID
  5
41
330
1C
100
AcDbSymbolTableRecord
100
AcDbRegAppTableRecord
  2
AD_SKETCHDIM
 70
     0
  0
APPID
  5
42
330
1C
100
AcDbSymbolTableRecord
100
AcDbRegAppTableRecord
  2
ACAD_DIMASSOC_DIMLFAC
 70
     0
  0
APPID
  5
40
330
1C
100
AcDbSymbolTableRecord
100
AcDbRegAppTableRecord
  2
ACAD_DIMASSOC_CALC_DIMLFAC
 70
     0
  0
APPID
  5
1DF
330
1C
100
AcDbSymbolTableRecord
100
AcDbRegAppTableRecord
  2
MCAD_NO_VIS
 70
     0
  0
APPID
  5
1E0
330
1C
100
AcDbSymbolTableRecord
100
AcDbRegAppTableRecord
  2
ACAD_TEMP_GRAPHIC
 70
     0
  0
APPID
  5
1F1
330
1C
100
AcDbSymbolTableRecord
100
AcDbRegAppTableRecord
  2
ACATTRIBSERVICES
 70
     0
  0
APPID
  5
CAF
330
1C
100
AcDbSymbolTableRecord
100
AcDbRegAppTableRecord
  2
GENIUS_GENODEF_13
 70
     0
  0
APPID
  5
CB0
330
1C
100
AcDbSymbolTableRecord
100
AcDbRegAppTableRecord
  2
GENIUS_GENOBJ-N-DIM_13
 70
     0
  0
APPID
  5
CBC
330
1C
100
AcDbSymbolTableRecord
100
AcDbRegAppTableRecord
  2
GENIUS_GENDIM_13
 70
     0
  0
APPID
  5
CDC
330
1C
100
AcDbSymbolTableRecord
100
AcDbRegAppTableRecord
  2
GENIUS_GENDIMSH_14
 70
     0
  0
APPID
  5
E3C
330
1C
100
AcDbSymbolTableRecord
100
AcDbRegAppTableRecord
  2
GENIUS_GENOBJ-N-HTC_13
 70
     0
  0
APPID
  5
E3D
330
1C
100
AcDbSymbolTableRecord
100
AcDbRegAppTableRecord
  2
GENIUS_GENHATCH_13
 70
     0
  0
APPID
  5
E59
330
1C
100
AcDbSymbolTableRecord
100
AcDbRegAppTableRecord
  2
DCO15
 70
     0
  0
APPID
  5
1128
330
1C
100
AcDbSymbolTableRecord
100
AcDbRegAppTableRecord
  2
GENIUS_GENOENT_13
 70
     0
  0
APPID
  5
1129
330
1C
100
AcDbSymbolTableRecord
100
AcDbRegAppTableRecord
  2
GENIUS_GENOLIS_13
 70
     0
  0
APPID
  5
112A
330
1C
100
AcDbSymbolTableRecord
100
AcDbRegAppTableRecord
  2
GENIUS_GENOBJ-N-CRS_13
 70
     0
  0
APPID
  5
112B
330
1C
100
AcDbSymbolTableRecord
100
AcDbRegAppTableRecord
  2
GENIUS_GENOREF_13
 70
     0
  0
ENDTAB
  0
TABLE
  2
DIMSTYLE
  5
1E
330
0
100
AcDbSymbolTable
 70
    14
  0
DIMSTYLE
105
1F
102
{ACAD_REACTORS
330
31
330
43
330
52
330
5F
330
6C
330
79
330
86
330
95
330
A3
330
B0
330
20E8
330
2120
330
2158
330
2190
330
21C8
330
2200
330
2238
330
253D
330
20A1
330
2020
330
298C
102
}
330
1E
100
AcDbSymbolTableRecord
100
AcDbDimStyleTableRecord
  2
AM_ISO
 70
     0
  3

  4
"
  5

  6

  7

 40
1.2
 41
3.0
 42
2.0
 43
8.0
 44
1.5
 45
0.0
 46
0.0
 47
0.1
 48
0.1
140
3.0
141
0.0
142
0.0
143
0.0393701
144
1.0
145
0.0
146
0.71
147
1.0
 71
     0
 72
     0
 73
     0
 74
     0
 75
     0
 76
     0
 77
     1
 78
     8
170
     0
171
     2
172
     1
173
     0
174
     0
175
     0
176
   256
177
   256
178
   256
270
     2
271
     2
272
     2
273
     2
274
     2
340
357
275
     0
280
     0
281
     0
282
     0
283
     0
284
     8
285
     0
286
     0
287
     3
288
     0
  0
DIMSTYLE
105
217
330
1E
100
AcDbSymbolTableRecord
100
AcDbDimStyleTableRecord
  2
AM_ISO$3
 70
     0
  3

  4
"
  5

  6

  7

 40
1.2
 41
3.0
 42
2.0
 43
8.0
 44
1.5
 45
0.0
 46
0.0
 47
0.1
 48
0.1
140
3.0
141
0.0
142
0.0
143
0.0393701
144
1.0
145
0.0
146
0.71
147
1.0
 71
     0
 72
     0
 73
     0
 74
     1
 75
     0
 76
     0
 77
     1
 78
     8
170
     0
171
     2
172
     0
173
     0
174
     0
175
     0
176
   256
177
   256
178
   256
270
     2
271
     2
272
     2
273
     2
274
     2
340
357
275
     0
280
     0
281
     0
282
     0
283
     0
284
     8
285
     0
286
     0
287
     0
288
     1
  0
DIMSTYLE
105
218
330
1E
100
AcDbSymbolTableRecord
100
AcDbDimStyleTableRecord
  2
AM_ISO$4
 70
     0
  3

  4
"
  5

  6

  7

 40
1.2
 41
3.0
 42
2.0
 43
8.0
 44
1.5
 45
0.0
 46
0.0
 47
0.1
 48
0.1
140
3.0
141
0.0
142
0.0
143
0.0393701
144
1.0
145
0.0
146
0.71
147
1.0
 71
     0
 72
     0
 73
     0
 74
     1
 75
     0
 76
     0
 77
     1
 78
     8
170
     0
171
     2
172
     0
173
     0
174
     0
175
     0
176
   256
177
   256
178
   256
270
     2
271
     2
272
     2
273
     2
274
     2
340
357
275
     0
280
     0
281
     0
282
     0
283
     0
284
     8
285
     0
286
     0
287
     0
288
     1
  0
DIMSTYLE
105
219
330
1E
100
AcDbSymbolTableRecord
100
AcDbDimStyleTableRecord
  2
AM_ISO$6
 70
     0
  3

  4
"
  5

  6

  7

 40
1.2
 41
3.0
 42
2.0
 43
8.0
 44
1.5
 45
0.0
 46
0.0
 47
0.1
 48
0.1
140
3.0
141
0.0
142
0.0
143
0.0393701
144
1.0
145
0.0
146
0.71
147
1.0
 71
     0
 72
     0
 73
     0
 74
     0
 75
     0
 76
     0
 77
     0
 78
     8
170
     0
171
     2
172
     1
173
     0
174
     0
175
     0
176
   256
177
   256
178
   256
270
     2
271
     2
272
     2
273
     2
274
     2
340
357
275
     0
280
     0
281
     0
282
     0
283
     0
284
     8
285
     0
286
     0
287
     3
288
     0
  0
DIMSTYLE
105
21A
330
1E
100
AcDbSymbolTableRecord
100
AcDbDimStyleTableRecord
  2
AM_ISO$7
 70
     0
  3

  4
"
  5

  6

  7

 40
1.2
 41
2.5
 42
2.0
 43
8.0
 44
1.5
 45
0.0
 46
0.0
 47
0.1
 48
0.1
140
5.0
141
0.0
142
0.0
143
0.0393701
144
1.0
145
0.0
146
0.71
147
1.5
 71
     0
 72
     0
 73
     0
 74
     0
 75
     0
 76
     0
 77
     1
 78
     8
170
     0
171
     2
172
     1
173
     0
174
     0
175
     0
176
   256
177
   256
178
   256
270
     2
271
     2
272
     2
273
     2
274
     2
340
357
275
     0
280
     0
281
     0
282
     0
283
     0
284
     8
285
     0
286
     0
287
     3
288
     0
  0
DIMSTYLE
105
21B
330
1E
100
AcDbSymbolTableRecord
100
AcDbDimStyleTableRecord
  2
AM_ISO$SF
 70
     0
  3

  4
"
  5

  6

  7

 40
1.0
 41
3.0
 42
2.0
 43
5.0
 44
1.5
 45
0.0
 46
0.0
 47
0.1
 48
0.1
140
3.0
141
0.0
142
0.0
143
0.0393701
144
1.0
145
0.0
146
0.71
147
1.0
 71
     0
 72
     0
 73
     0
 74
     0
 75
     1
 76
     1
 77
     1
 78
     8
170
     0
171
     2
172
     1
173
     0
174
     0
175
     0
176
   256
177
   256
178
     5
270
     2
271
     2
272
     2
273
     2
274
     2
340
13
275
     0
280
     0
281
     0
282
     0
283
     0
284
     8
285
     0
286
     0
287
     3
288
     0
  0
DIMSTYLE
105
220
330
1E
100
AcDbSymbolTableRecord
100
AcDbDimStyleTableRecord
  2
AM_ISO$SH
 70
     0
  3

  4
"
  5

  6
GENAXEH
  7

 40
1.0
 41
3.0
 42
2.0
 43
5.0
 44
1.5
 45
0.0
 46
0.0
 47
0.1
 48
0.1
140
3.0
141
0.0
142
0.0
143
0.0393701
144
2.0
145
0.0
146
0.71
147
1.0
 71
     0
 72
     0
 73
     0
 74
     0
 75
     1
 76
     1
 77
     1
 78
     8
170
     0
171
     2
172
     1
173
     1
174
     0
175
     0
176
   256
177
   256
178
     5
270
     2
271
     2
272
     2
273
     2
274
     2
340
13
275
     0
280
     0
281
     0
282
     0
283
     0
284
     8
285
     0
286
     0
287
     3
288
     0
  0
DIMSTYLE
105
1121
330
1E
100
AcDbSymbolTableRecord
100
AcDbDimStyleTableRecord
  2
STANDARD
 70
     0
  3

  4

  5

  6

  7

 40
1.0
 41
0.18
 42
0.0625
 43
0.38
 44
0.18
 45
0.0
 46
0.0
 47
0.0
 48
0.0
140
0.18
141
0.09
142
0.0
143
25.4
144
1.0
145
0.0
146
1.0
147
0.09
 71
     0
 72
     0
 73
     1
 74
     1
 75
     0
 76
     0
 77
     0
 78
     0
170
     0
171
     2
172
     0
173
     0
174
     0
175
     0
176
     0
177
     0
178
     0
270
     2
271
     4
272
     4
273
     2
274
     2
340
13
275
     0
280
     0
281
     0
282
     0
283
     1
284
     0
285
     0
286
     0
287
     3
288
     0
  0
DIMSTYLE
105
1122
330
1E
100
AcDbSymbolTableRecord
100
AcDbDimStyleTableRecord
  2
AM_ANSI
 70
     0
  3

  4
mm
  5

  6

  7

 40
1.0
 41
0.1
 42
0.05
 43
0.5
 44
0.1
 45
0.0
 46
0.0
 47
0.1
 48
0.1
140
0.12
141
0.0
142
0.0
143
25.4
144
1.0
145
0.0
146
0.71
147
0.06
 71
     0
 72
     0
 73
     1
 74
     1
 75
     0
 76
     0
 77
     0
 78
     7
170
     0
171
     2
172
     0
173
     0
174
     0
175
     0
176
   256
177
   256
178
     2
270
     2
271
     4
272
     4
273
     2
274
     4
340
13
275
     0
280
     0
281
     0
282
     0
283
     1
284
     7
285
     0
286
     0
287
     3
288
     0
  0
DIMSTYLE
105
1123
330
1E
100
AcDbSymbolTableRecord
100
AcDbDimStyleTableRecord
  2
AM_ANSI$3
 70
     0
  3

  4
mm
  5

  6

  7

 40
1.0
 41
0.1
 42
0.05
 43
0.5
 44
0.1
 45
0.0
 46
0.0
 47
0.1
 48
0.1
140
0.12
141
0.0
142
0.0
143
25.4
144
1.0
145
0.0
146
0.71
147
0.06
 71
     0
 72
     0
 73
     1
 74
     1
 75
     0
 76
     0
 77
     0
 78
     7
170
     0
171
     2
172
     0
173
     0
174
     0
175
     0
176
   256
177
   256
178
     2
270
     2
271
     4
272
     4
273
     2
274
     4
340
13
275
     0
280
     0
281
     0
282
     0
283
     1
284
     7
285
     0
286
     0
287
     0
288
     1
  0
DIMSTYLE
105
1124
330
1E
100
AcDbSymbolTableRecord
100
AcDbDimStyleTableRecord
  2
AM_ANSI$4
 70
     0
  3

  4
mm
  5

  6

  7

 40
1.0
 41
0.1
 42
0.05
 43
0.5
 44
0.1
 45
0.0
 46
0.0
 47
0.1
 48
0.1
140
0.12
141
0.0
142
0.0
143
25.4
144
1.0
145
0.0
146
0.71
147
0.06
 71
     0
 72
     0
 73
     1
 74
     1
 75
     0
 76
     0
 77
     0
 78
     7
170
     0
171
     2
172
     0
173
     0
174
     0
175
     0
176
   256
177
   256
178
     2
270
     2
271
     4
272
     4
273
     2
274
     4
340
13
275
     0
280
     0
281
     0
282
     0
283
     1
284
     7
285
     0
286
     0
287
     0
288
     1
  0
DIMSTYLE
105
1125
330
1E
100
AcDbSymbolTableRecord
100
AcDbDimStyleTableRecord
  2
AM_ANSI$7
 70
     0
  3

  4
mm
  5

  6

  7

 40
1.0
 41
0.1
 42
0.05
 43
0.5
 44
0.1
 45
0.0
 46
0.0
 47
0.1
 48
0.1
140
0.24
141
0.0
142
0.0
143
25.4
144
1.0
145
0.0
146
0.71
147
0.06
 71
     0
 72
     0
 73
     1
 74
     1
 75
     0
 76
     0
 77
     0
 78
     7
170
     0
171
     2
172
     0
173
     0
174
     0
175
     0
176
   256
177
   256
178
     2
270
     2
271
     4
272
     4
273
     2
274
     4
340
13
275
     0
280
     0
281
     0
282
     0
283
     1
284
     7
285
     0
286
     0
287
     3
288
     0
  0
DIMSTYLE
105
1126
330
1E
100
AcDbSymbolTableRecord
100
AcDbDimStyleTableRecord
  2
AM_ANSI$SF
 70
     0
  3

  4
mm
  5

  6

  7

 40
1.0
 41
0.1
 42
0.05
 43
0.5
 44
0.1
 45
0.0
 46
0.0
 47
0.1
 48
0.1
140
0.12
141
0.0
142
0.0
143
25.4
144
1.0
145
0.0
146
0.71
147
0.06
 71
     0
 72
     0
 73
     1
 74
     1
 75
     1
 76
     1
 77
     0
 78
     7
170
     0
171
     2
172
     0
173
     0
174
     0
175
     0
176
   256
177
   256
178
     2
270
     2
271
     4
272
     4
273
     2
274
     4
340
13
275
     0
280
     0
281
     0
282
     0
283
     1
284
     7
285
     0
286
     0
287
     3
288
     0
  0
DIMSTYLE
105
1127
330
1E
100
AcDbSymbolTableRecord
100
AcDbDimStyleTableRecord
  2
AM_ANSI$SH
 70
     0
  3

  4
mm
  5

  6
GENAXEH
  7

 40
1.0
 41
0.1
 42
0.05
 43
0.5
 44
0.1
 45
0.0
 46
0.0
 47
0.1
 48
0.1
140
0.12
141
0.0
142
0.0
143
25.4
144
1.0
145
0.0
146
0.71
147
0.06
 71
     0
 72
     0
 73
     1
 74
     1
 75
     1
 76
     1
 77
     0
 78
     7
170
     0
171
     2
172
     0
173
     1
174
     0
175
     0
176
   256
177
   256
178
     2
270
     2
271
     4
272
     4
273
     2
274
     4
340
13
275
     0
280
     0
281
     0
282
     0
283
     1
284
     7
285
     0
286
     0
287
     3
288
     0
  0
ENDTAB
  0
TABLE
  2
BLOCK_RECORD
  5
1
330
0
100
AcDbSymbolTable
 70
    52
  0
BLOCK_RECORD
  5
2
102
{ACAD_XDICTIONARY
360
3
102
}
330
1
100
AcDbSymbolTableRecord
100
AcDbBlockTableRecord
  2
*MODEL_SPACE
  0
BLOCK_RECORD
  5
D
102
{ACAD_XDICTIONARY
360
3232
102
}
330
1
100
AcDbSymbolTableRecord
100
AcDbBlockTableRecord
  2
*PAPER_SPACE
  0
BLOCK_RECORD
  5
21C
330
1
100
AcDbSymbolTableRecord
100
AcDbBlockTableRecord
  2
GENAXEH
  0
BLOCK_RECORD
  5
F83
330
1
100
AcDbSymbolTableRecord
100
AcDbBlockTableRecord
  2
*D1
  0
BLOCK_RECORD
  5
F8F
330
1
100
AcDbSymbolTableRecord
100
AcDbBlockTableRecord
  2
*D2
  0
BLOCK_RECORD
  5
F9D
330
1
100
AcDbSymbolTableRecord
100
AcDbBlockTableRecord
  2
*D3
  0
BLOCK_RECORD
  5
FA9
330
1
100
AcDbSymbolTableRecord
100
AcDbBlockTableRecord
  2
*D4
  0
BLOCK_RECORD
  5
FB5
330
1
100
AcDbSymbolTableRecord
100
AcDbBlockTableRecord
  2
*D5
  0
BLOCK_RECORD
  5
FC1
330
1
100
AcDbSymbolTableRecord
100
AcDbBlockTableRecord
  2
*D6
  0
BLOCK_RECORD
  5
FCD
330
1
100
AcDbSymbolTableRecord
100
AcDbBlockTableRecord
  2
*D7
  0
BLOCK_RECORD
  5
FDB
330
1
100
AcDbSymbolTableRecord
100
AcDbBlockTableRecord
  2
*D8
  0
BLOCK_RECORD
  5
FE8
330
1
100
AcDbSymbolTableRecord
100
AcDbBlockTableRecord
  2
*D9
  0
BLOCK_RECORD
  5
FF4
330
1
100
AcDbSymbolTableRecord
100
AcDbBlockTableRecord
  2
*D10
  0
BLOCK_RECORD
  5
2021
330
1
100
AcDbSymbolTableRecord
100
AcDbBlockTableRecord
  2
*D12
  0
BLOCK_RECORD
  5
20A2
330
1
100
AcDbSymbolTableRecord
100
AcDbBlockTableRecord
  2
*D13
  0
BLOCK_RECORD
  5
20E9
330
1
100
AcDbSymbolTableRecord
100
AcDbBlockTableRecord
  2
*D14
  0
BLOCK_RECORD
  5
2121
330
1
100
AcDbSymbolTableRecord
100
AcDbBlockTableRecord
  2
*D15
  0
BLOCK_RECORD
  5
2159
330
1
100
AcDbSymbolTableRecord
100
AcDbBlockTableRecord
  2
*D16
  0
BLOCK_RECORD
  5
2191
330
1
100
AcDbSymbolTableRecord
100
AcDbBlockTableRecord
  2
*D17
  0
BLOCK_RECORD
  5
21C9
330
1
100
AcDbSymbolTableRecord
100
AcDbBlockTableRecord
  2
*D18
  0
BLOCK_RECORD
  5
2201
330
1
100
AcDbSymbolTableRecord
100
AcDbBlockTableRecord
  2
*D19
  0
BLOCK_RECORD
  5
2239
330
1
100
AcDbSymbolTableRecord
100
AcDbBlockTableRecord
  2
*D20
  0
BLOCK_RECORD
  5
253E
330
1
100
AcDbSymbolTableRecord
100
AcDbBlockTableRecord
  2
*D21
  0
BLOCK_RECORD
  5
298D
330
1
100
AcDbSymbolTableRecord
100
AcDbBlockTableRecord
  2
*D23
  0
BLOCK_RECORD
  5
3237
330
1
100
AcDbSymbolTableRecord
100
AcDbBlockTableRecord
  2
*S50
  0
BLOCK_RECORD
  5
3240
330
1
100
AcDbSymbolTableRecord
100
AcDbBlockTableRecord
  2
*S51
  0
ENDTAB
  0
ENDSEC
  0
SECTION
  2
BLOCKS
  0
BLOCK
  5
4
330
2
100
AcDbEntity
  8
0
100
AcDbBlockBegin
  2
*MODEL_SPACE
 70
     0
 10
0.0
 20
0.0
 30
0.0
  3
*MODEL_SPACE
  1

  0
ENDBLK
  5
A
330
2
100
AcDbEntity
  8
0
100
AcDbBlockEnd
  0
BLOCK
  5
E
330
D
100
AcDbEntity
 67
     1
  8
0
100
AcDbBlockBegin
  2
*PAPER_SPACE
 70
     0
 10
0.0
 20
0.0
 30
0.0
  3
*PAPER_SPACE
  1

  0
ENDBLK
  5
F
330
D
100
AcDbEntity
 67
     1
  8
0
100
AcDbBlockEnd
  0
BLOCK
  5
21E
330
21C
100
AcDbEntity
  8
0
100
AcDbBlockBegin
  2
GENAXEH
 70
     0
 10
0.0
 20
0.0
 30
0.0
  3
GENAXEH
  1

  0
LINE
  5
21D
330
21C
100
AcDbEntity
  8
0
100
AcDbLine
 10
-1.0
 20
0.0
 30
0.0
 11
1.0
 21
0.0
 31
0.0
  0
ENDBLK
  5
21F
330
21C
100
AcDbEntity
  8
0
100
AcDbBlockEnd
  0
BLOCK
  5
F8D
330
F83
100
AcDbEntity
  8
0
100
AcDbBlockBegin
  2
*D1
 70
     1
 10
0.0
 20
0.0
 30
0.0
  3
*D1
  1

  0
LINE
  5
3147
330
F83
100
AcDbEntity
  8
AM_PARDIM
100
AcDbLine
 10
77.77464887656421
 20
116.1938113892625
 30
0.0
 11
116.3325708695175
 21
116.1938113892624
 31
0.0
  0
LINE
  5
3148
330
F83
100
AcDbEntity
  8
AM_PARDIM
100
AcDbLine
 10
77.77464887656421
 20
128.6938113892625
 30
0.0
 11
116.3325708695175
 21
128.6938113892625
 31
0.0
  0
LINE
  5
3149
330
F83
100
AcDbEntity
  8
AM_PARDIM
100
AcDbLine
 10
114.5325708695175
 20
119.7938113892624
 30
0.0
 11
114.5325708695175
 21
125.0938113892624
 31
0.0
  0
SOLID
  5
314A
330
F83
100
AcDbEntity
  8
AM_PARDIM
100
AcDbTrace
 10
113.9325708695175
 20
119.7938113892624
 30
0.0
 11
115.1325708695175
 21
119.7938113892624
 31
0.0
 12
114.5325708695175
 22
116.1938113892624
 32
0.0
 13
114.5325708695175
 23
116.1938113892624
 33
0.0
  0
SOLID
  5
314B
330
F83
100
AcDbEntity
  8
AM_PARDIM
100
AcDbTrace
 10
113.9325708695175
 20
125.0938113892624
 30
0.0
 11
115.1325708695175
 21
125.0938113892624
 31
0.0
 12
114.5325708695175
 22
128.6938113892625
 32
0.0
 13
114.5325708695175
 23
128.6938113892625
 33
0.0
  0
MTEXT
  5
314C
330
F83
100
AcDbEntity
  8
AM_PARDIM
100
AcDbMText
 10
111.5228070899899
 20
122.4438113892625
 30
0.0
 40
3.6
 41
0.0
 71
     5
 72
     1
  1
12.5
  7
CHINA
 11
0.0000000000000001
 21
1.0
 31
0.0
1001
ACAD
1000
MTEXTBEGIN
1070
    73
1070
     1
1070
    44
1040
1.0
1070
    74
1070
     0
1000
MTEXTEND
  0
POINT
  5
314D
330
F83
100
AcDbEntity
  8
DEFPOINTS
 62
     0
100
AcDbPoint
 10
75.37464887656421
 20
116.1938113892625
 30
0.0
  0
POINT
  5
314E
330
F83
100
AcDbEntity
  8
DEFPOINTS
 62
     0
100
AcDbPoint
 10
75.37464887656421
 20
128.6938113892625
 30
0.0
  0
POINT
  5
314F
330
F83
100
AcDbEntity
  8
DEFPOINTS
 62
     0
100
AcDbPoint
 10
114.5325708695175
 20
128.6938113892625
 30
0.0
  0
ENDBLK
  5
F8E
330
F83
100
AcDbEntity
  8
0
100
AcDbBlockEnd
  0
BLOCK
  5
F9B
330
F8F
100
AcDbEntity
  8
0
100
AcDbBlockBegin
  2
*D2
 70
     1
 10
0.0
 20
0.0
 30
0.0
  3
*D2
  1

  0
LINE
  5
3150
330
F8F
100
AcDbEntity
  8
AM_PARDIM
100
AcDbLine
 10
36.47464887656421
 20
116.1938113892625
 30
0.0
 11
25.0746488765642
 21
116.1938113892625
 31
0.0
  0
LINE
  5
3151
330
F8F
100
AcDbEntity
  8
AM_PARDIM
100
AcDbLine
 10
36.47464887656421
 20
122.1938113892624
 30
0.0
 11
25.0746488765642
 21
122.1938113892625
 31
0.0
  0
LINE
  5
3152
330
F8F
100
AcDbEntity
  8
AM_PARDIM
100
AcDbLine
 10
26.8746488765642
 20
112.5938113892625
 30
0.0
 11
26.8746488765642
 21
108.9938113892624
 31
0.0
  0
LINE
  5
3153
330
F8F
100
AcDbEntity
  8
AM_PARDIM
100
AcDbLine
 10
26.87464887656421
 20
125.7938113892625
 30
0.0
 11
26.87464887656421
 21
129.3938113892625
 31
0.0
  0
LINE
  5
3154
330
F8F
100
AcDbEntity
  8
AM_PARDIM
100
AcDbLine
 10
26.8746488765642
 20
116.1938113892625
 30
0.0
 11
26.87464887656421
 21
122.1938113892625
 31
0.0
  0
SOLID
  5
3155
330
F8F
100
AcDbEntity
  8
AM_PARDIM
100
AcDbTrace
 10
26.2746488765642
 20
112.5938113892625
 30
0.0
 11
27.4746488765642
 21
112.5938113892625
 31
0.0
 12
26.8746488765642
 22
116.1938113892625
 32
0.0
 13
26.8746488765642
 23
116.1938113892625
 33
0.0
  0
SOLID
  5
3156
330
F8F
100
AcDbEntity
  8
AM_PARDIM
100
AcDbTrace
 10
26.27464887656421
 20
125.7938113892625
 30
0.0
 11
27.47464887656421
 21
125.7938113892625
 31
0.0
 12
26.87464887656421
 22
122.1938113892625
 32
0.0
 13
26.87464887656421
 23
122.1938113892625
 33
0.0
  0
MTEXT
  5
3157
330
F8F
100
AcDbEntity
  8
AM_PARDIM
100
AcDbMText
 10
23.87464887656418
 20
119.1938113892625
 30
0.0
 40
3.6
 41
0.0
 71
     5
 72
     1
  1
6
  7
CHINA
 11
0.0000000000000001
 21
1.0
 31
0.0
1001
ACAD
1000
MTEXTBEGIN
1070
    73
1070
     1
1070
    44
1040
1.0
1070
    74
1070
     0
1000
MTEXTEND
  0
POINT
  5
3158
330
F8F
100
AcDbEntity
  8
DEFPOINTS
 62
     0
100
AcDbPoint
 10
38.8746488765642
 20
116.1938113892625
 30
0.0
  0
POINT
  5
3159
330
F8F
100
AcDbEntity
  8
DEFPOINTS
 62
     0
100
AcDbPoint
 10
38.8746488765642
 20
122.1938113892624
 30
0.0
  0
POINT
  5
315A
330
F8F
100
AcDbEntity
  8
DEFPOINTS
 62
     0
100
AcDbPoint
 10
26.87464887656421
 20
122.1938113892625
 30
0.0
  0
ENDBLK
  5
F9C
330
F8F
100
AcDbEntity
  8
0
100
AcDbBlockEnd
  0
BLOCK
  5
FA7
330
F9D
100
AcDbEntity
  8
0
100
AcDbBlockBegin
  2
*D3
 70
     1
 10
0.0
 20
0.0
 30
0.0
  3
*D3
  1

  0
LINE
  5
315B
330
F9D
100
AcDbEntity
  8
AM_PARDIM
100
AcDbLine
 10
38.8746488765642
 20
124.5938113892625
 30
0.0
 11
38.8746488765642
 21
142.4938113892625
 31
0.0
  0
LINE
  5
315C
330
F9D
100
AcDbEntity
  8
AM_PARDIM
100
AcDbLine
 10
50.87464887656421
 20
124.5938113892625
 30
0.0
 11
50.87464887656421
 21
142.4938113892625
 31
0.0
  0
LINE
  5
315D
330
F9D
100
AcDbEntity
  8
AM_PARDIM
100
AcDbLine
 10
42.47464887656421
 20
140.6938113892624
 30
0.0
 11
47.2746488765642
 21
140.6938113892624
 31
0.0
  0
SOLID
  5
315E
330
F9D
100
AcDbEntity
  8
AM_PARDIM
100
AcDbTrace
 10
42.47464887656421
 20
141.2938113892624
 30
0.0
 11
42.47464887656421
 21
140.0938113892624
 31
0.0
 12
38.8746488765642
 22
140.6938113892624
 32
0.0
 13
38.8746488765642
 23
140.6938113892624
 33
0.0
  0
SOLID
  5
315F
330
F9D
100
AcDbEntity
  8
AM_PARDIM
100
AcDbTrace
 10
47.2746488765642
 20
141.2938113892624
 30
0.0
 11
47.2746488765642
 21
140.0938113892624
 31
0.0
 12
50.87464887656421
 22
140.6938113892624
 32
0.0
 13
50.87464887656421
 23
140.6938113892624
 33
0.0
  0
MTEXT
  5
3160
330
F9D
100
AcDbEntity
  8
AM_PARDIM
100
AcDbMText
 10
44.87464887656421
 20
143.6941263498924
 30
0.0
 40
3.6
 41
0.0
 71
     5
 72
     1
  1
12
  7
CHINA
1001
ACAD
1000
MTEXTBEGIN
1070
    73
1070
     1
1070
    44
1040
1.0
1070
    74
1070
     0
1000
MTEXTEND
  0
POINT
  5
3161
330
F9D
100
AcDbEntity
  8
DEFPOINTS
 62
     0
100
AcDbPoint
 10
38.8746488765642
 20
122.1938113892624
 30
0.0
  0
POINT
  5
3162
330
F9D
100
AcDbEntity
  8
DEFPOINTS
 62
     0
100
AcDbPoint
 10
50.87464887656421
 20
122.1938113892624
 30
0.0
  0
POINT
  5
3163
330
F9D
100
AcDbEntity
  8
DEFPOINTS
 62
     0
100
AcDbPoint
 10
50.87464887656421
 20
140.6938113892624
 30
0.0
  0
ENDBLK
  5
FA8
330
F9D
100
AcDbEntity
  8
0
100
AcDbBlockEnd
  0
BLOCK
  5
FB3
330
FA9
100
AcDbEntity
  8
0
100
AcDbBlockBegin
  2
*D4
 70
     1
 10
0.0
 20
0.0
 30
0.0
  3
*D4
  1

  0
LINE
  5
3164
330
FA9
100
AcDbEntity
  8
AM_PARDIM
100
AcDbLine
 10
38.8746488765642
 20
118.5938113892625
 30
0.0
 11
38.8746488765642
 21
162.4938113892624
 31
0.0
  0
LINE
  5
3165
330
FA9
100
AcDbEntity
  8
AM_PARDIM
100
AcDbLine
 10
75.37464887656421
 20
118.5938113892625
 30
0.0
 11
75.37464887656421
 21
162.4938113892624
 31
0.0
  0
LINE
  5
3166
330
FA9
100
AcDbEntity
  8
AM_PARDIM
100
AcDbLine
 10
42.47464887656421
 20
160.6938113892624
 30
0.0
 11
71.77464887656421
 21
160.6938113892624
 31
0.0
  0
SOLID
  5
3167
330
FA9
100
AcDbEntity
  8
AM_PARDIM
100
AcDbTrace
 10
42.47464887656421
 20
161.2938113892624
 30
0.0
 11
42.47464887656421
 21
160.0938113892625
 31
0.0
 12
38.8746488765642
 22
160.6938113892624
 32
0.0
 13
38.8746488765642
 23
160.6938113892624
 33
0.0
  0
SOLID
  5
3168
330
FA9
100
AcDbEntity
  8
AM_PARDIM
100
AcDbTrace
 10
71.77464887656421
 20
161.2938113892624
 30
0.0
 11
71.77464887656421
 21
160.0938113892625
 31
0.0
 12
75.37464887656421
 22
160.6938113892624
 32
0.0
 13
75.37464887656421
 23
160.6938113892624
 33
0.0
  0
MTEXT
  5
3169
330
FA9
100
AcDbEntity
  8
AM_PARDIM
100
AcDbMText
 10
57.12464887656421
 20
163.7032602081601
 30
0.0
 40
3.6
 41
0.0
 71
     5
 72
     1
  1
36.5
  7
CHINA
1001
ACAD
1000
MTEXTBEGIN
1070
    73
1070
     1
1070
    44
1040
1.0
1070
    74
1070
     0
1000
MTEXTEND
  0
POINT
  5
316A
330
FA9
100
AcDbEntity
  8
DEFPOINTS
 62
     0
100
AcDbPoint
 10
38.8746488765642
 20
116.1938113892625
 30
0.0
  0
POINT
  5
316B
330
FA9
100
AcDbEntity
  8
DEFPOINTS
 62
     0
100
AcDbPoint
 10
75.37464887656421
 20
116.1938113892625
 30
0.0
  0
POINT
  5
316C
330
FA9
100
AcDbEntity
  8
DEFPOINTS
 62
     0
100
AcDbPoint
 10
75.37464887656421
 20
160.6938113892624
 30
0.0
  0
ENDBLK
  5
FB4
330
FA9
100
AcDbEntity
  8
0
100
AcDbBlockEnd
  0
BLOCK
  5
FBF
330
FB5
100
AcDbEntity
  8
0
100
AcDbBlockBegin
  2
*D5
 70
     1
 10
0.0
 20
0.0
 30
0.0
  3
*D5
  1

  0
LINE
  5
316D
330
FB5
100
AcDbEntity
  8
AM_PARDIM
100
AcDbLine
 10
53.27464887656421
 20
127.1938113892624
 30
0.0
 11
106.3325708695175
 21
127.1938113892624
 31
0.0
  0
LINE
  5
316E
330
FB5
100
AcDbEntity
  8
AM_PARDIM
100
AcDbLine
 10
77.77464887656421
 20
116.1938113892625
 30
0.0
 11
106.3325708695175
 21
116.1938113892624
 31
0.0
  0
LINE
  5
316F
330
FB5
100
AcDbEntity
  8
AM_PARDIM
100
AcDbLine
 10
104.5325708695175
 20
123.5938113892624
 30
0.0
 11
104.5325708695175
 21
119.7938113892624
 31
0.0
  0
SOLID
  5
3170
330
FB5
100
AcDbEntity
  8
AM_PARDIM
100
AcDbTrace
 10
103.9325708695175
 20
123.5938113892624
 30
0.0
 11
105.1325708695175
 21
123.5938113892624
 31
0.0
 12
104.5325708695175
 22
127.1938113892624
 32
0.0
 13
104.5325708695175
 23
127.1938113892624
 33
0.0
  0
SOLID
  5
3171
330
FB5
100
AcDbEntity
  8
AM_PARDIM
100
AcDbTrace
 10
103.9325708695175
 20
119.7938113892624
 30
0.0
 11
105.1325708695175
 21
119.7938113892624
 31
0.0
 12
104.5325708695175
 22
116.1938113892624
 32
0.0
 13
104.5325708695175
 23
116.1938113892624
 33
0.0
  0
MTEXT
  5
3172
330
FB5
100
AcDbEntity
  8
AM_PARDIM
100
AcDbMText
 10
101.5325708695175
 20
121.6938113892625
 30
0.0
 40
3.6
 41
0.0
 71
     5
 72
     1
  1
11
  7
CHINA
 11
0.0000000000000001
 21
1.0
 31
0.0
1001
ACAD
1000
MTEXTBEGIN
1070
    73
1070
     1
1070
    44
1040
1.0
1070
    74
1070
     0
1000
MTEXTEND
  0
POINT
  5
3173
330
FB5
100
AcDbEntity
  8
DEFPOINTS
 62
     0
100
AcDbPoint
 10
50.87464887656421
 20
127.1938113892624
 30
0.0
  0
POINT
  5
3174
330
FB5
100
AcDbEntity
  8
DEFPOINTS
 62
     0
100
AcDbPoint
 10
75.37464887656421
 20
116.1938113892625
 30
0.0
  0
POINT
  5
3175
330
FB5
100
AcDbEntity
  8
DEFPOINTS
 62
     0
100
AcDbPoint
 10
104.5325708695175
 20
116.1938113892624
 30
0.0
  0
ENDBLK
  5
FC0
330
FB5
100
AcDbEntity
  8
0
100
AcDbBlockEnd
  0
BLOCK
  5
FCB
330
FC1
100
AcDbEntity
  8
0
100
AcDbBlockBegin
  2
*D6
 70
     1
 10
0.0
 20
0.0
 30
0.0
  3
*D6
  1

  0
LINE
  5
3176
330
FC1
100
AcDbEntity
  8
AM_PARDIM
100
AcDbLine
 10
66.3746488765642
 20
131.0938113892625
 30
0.0
 11
66.3746488765642
 21
152.4938113892624
 31
0.0
  0
LINE
  5
3177
330
FC1
100
AcDbEntity
  8
AM_PARDIM
100
AcDbLine
 10
75.37464887656421
 20
131.0938113892625
 30
0.0
 11
75.37464887656421
 21
152.4938113892624
 31
0.0
  0
LINE
  5
3178
330
FC1
100
AcDbEntity
  8
AM_PARDIM
100
AcDbLine
 10
62.77464887656421
 20
150.6938113892624
 30
0.0
 11
59.17464887656421
 21
150.6938113892624
 31
0.0
  0
LINE
  5
3179
330
FC1
100
AcDbEntity
  8
AM_PARDIM
100
AcDbLine
 10
78.9746488765642
 20
150.6938113892624
 30
0.0
 11
82.57464887656421
 21
150.6938113892624
 31
0.0
  0
LINE
  5
317A
330
FC1
100
AcDbEntity
  8
AM_PARDIM
100
AcDbLine
 10
66.3746488765642
 20
150.6938113892624
 30
0.0
 11
75.37464887656421
 21
150.6938113892624
 31
0.0
  0
SOLID
  5
317B
330
FC1
100
AcDbEntity
  8
AM_PARDIM
100
AcDbTrace
 10
62.77464887656421
 20
151.2938113892625
 30
0.0
 11
62.77464887656421
 21
150.0938113892624
 31
0.0
 12
66.3746488765642
 22
150.6938113892624
 32
0.0
 13
66.3746488765642
 23
150.6938113892624
 33
0.0
  0
SOLID
  5
317C
330
FC1
100
AcDbEntity
  8
AM_PARDIM
100
AcDbTrace
 10
78.9746488765642
 20
151.2938113892625
 30
0.0
 11
78.9746488765642
 21
150.0938113892624
 31
0.0
 12
75.37464887656421
 22
150.6938113892624
 32
0.0
 13
75.37464887656421
 23
150.6938113892624
 33
0.0
  0
MTEXT
  5
317D
330
FC1
100
AcDbEntity
  8
AM_PARDIM
100
AcDbMText
 10
70.87464887656421
 20
153.6938113892625
 30
0.0
 40
3.6
 41
0.0
 71
     5
 72
     1
  1
9
  7
CHINA
1001
ACAD
1000
MTEXTBEGIN
1070
    73
1070
     1
1070
    44
1040
1.0
1070
    74
1070
     0
1000
MTEXTEND
  0
POINT
  5
317E
330
FC1
100
AcDbEntity
  8
DEFPOINTS
 62
     0
100
AcDbPoint
 10
66.3746488765642
 20
128.6938113892625
 30
0.0
  0
POINT
  5
317F
330
FC1
100
AcDbEntity
  8
DEFPOINTS
 62
     0
100
AcDbPoint
 10
75.37464887656421
 20
128.6938113892625
 30
0.0
  0
POINT
  5
3180
330
FC1
100
AcDbEntity
  8
DEFPOINTS
 62
     0
100
AcDbPoint
 10
75.37464887656421
 20
150.6938113892624
 30
0.0
  0
ENDBLK
  5
FCC
330
FC1
100
AcDbEntity
  8
0
100
AcDbBlockEnd
  0
BLOCK
  5
FD9
330
FCD
100
AcDbEntity
  8
0
100
AcDbBlockBegin
  2
*D7
 70
     1
 10
0.0
 20
0.0
 30
0.0
  3
*D7
  1

  0
LINE
  5
3181
330
FCD
100
AcDbEntity
  8
AM_PARDIM
100
AcDbLine
 10
63.87464887656418
 20
131.0938113892624
 30
0.0
 11
63.87464887656418
 21
142.4938113892625
 31
0.0
  0
LINE
  5
3182
330
FCD
100
AcDbEntity
  8
AM_PARDIM
100
AcDbLine
 10
66.37464887656418
 20
131.0938113892624
 30
0.0
 11
66.37464887656418
 21
142.4938113892625
 31
0.0
  0
LINE
  5
3183
330
FCD
100
AcDbEntity
  8
AM_PARDIM
100
AcDbLine
 10
60.27464887656417
 20
140.6938113892624
 30
0.0
 11
56.67464887656418
 21
140.6938113892624
 31
0.0
  0
LINE
  5
3184
330
FCD
100
AcDbEntity
  8
AM_PARDIM
100
AcDbLine
 10
69.97464887656417
 20
140.6938113892624
 30
0.0
 11
82.1056724986114
 21
140.6938113892624
 31
0.0
  0
LINE
  5
3185
330
FCD
100
AcDbEntity
  8
AM_PARDIM
100
AcDbLine
 10
63.87464887656418
 20
140.6938113892624
 30
0.0
 11
66.37464887656418
 21
140.6938113892624
 31
0.0
  0
SOLID
  5
3186
330
FCD
100
AcDbEntity
  8
AM_PARDIM
100
AcDbTrace
 10
60.27464887656417
 20
141.2938113892624
 30
0.0
 11
60.27464887656417
 21
140.0938113892624
 31
0.0
 12
63.87464887656418
 22
140.6938113892624
 32
0.0
 13
63.87464887656418
 23
140.6938113892624
 33
0.0
  0
SOLID
  5
3187
330
FCD
100
AcDbEntity
  8
AM_PARDIM
100
AcDbTrace
 10
69.97464887656417
 20
141.2938113892624
 30
0.0
 11
69.97464887656417
 21
140.0938113892624
 31
0.0
 12
66.37464887656418
 22
140.6938113892624
 32
0.0
 13
66.37464887656418
 23
140.6938113892624
 33
0.0
  0
MTEXT
  5
3188
330
FCD
100
AcDbEntity
  8
AM_PARDIM
100
AcDbMText
 10
77.8401606875878
 20
143.70357516879
 30
0.0
 40
3.6
 41
0.0
 71
     5
 72
     1
  1
2.5
  7
CHINA
1001
ACAD
1000
MTEXTBEGIN
1070
    73
1070
     1
1070
    44
1040
1.0
1070
    74
1070
     0
1000
MTEXTEND
  0
POINT
  5
3189
330
FCD
100
AcDbEntity
  8
DEFPOINTS
 62
     0
100
AcDbPoint
 10
63.87464887656418
 20
128.6938113892624
 30
0.0
  0
POINT
  5
318A
330
FCD
100
AcDbEntity
  8
DEFPOINTS
 62
     0
100
AcDbPoint
 10
66.37464887656418
 20
128.6938113892624
 30
0.0
  0
POINT
  5
318B
330
FCD
100
AcDbEntity
  8
DEFPOINTS
 62
     0
100
AcDbPoint
 10
66.37464887656418
 20
140.6938113892624
 30
0.0
  0
ENDBLK
  5
FDA
330
FCD
100
AcDbEntity
  8
0
100
AcDbBlockEnd
  0
BLOCK
  5
FE6
330
FDB
100
AcDbEntity
  8
0
100
AcDbBlockBegin
  2
*D8
 70
     1
 10
0.0
 20
0.0
 30
0.0
  3
*D8
  1

  0
LINE
  5
318C
330
FDB
100
AcDbEntity
  8
AM_PARDIM
100
AcDbLine
 10
66.37464887656418
 20
131.0938113892624
 30
0.0
 11
66.37464887656418
 21
137.830378563861
 31
0.0
  0
LINE
  5
318D
330
FDB
100
AcDbEntity
  8
AM_PARDIM
100
AcDbLine
 10
66.37464887656418
 20
118.5938113892624
 30
0.0
 11
66.37464887656418
 21
137.830378563861
 31
0.0
  0
LINE
  5
318E
330
FDB
100
AcDbEntity
  8
AM_PARDIM
100
AcDbLine
 10
62.77464887656417
 20
136.030378563861
 30
0.0
 11
59.17464887656418
 21
136.030378563861
 31
0.0
  0
LINE
  5
318F
330
FDB
100
AcDbEntity
  8
AM_PARDIM
100
AcDbLine
 10
69.97464887656417
 20
136.030378563861
 30
0.0
 11
77.89464887656419
 21
136.030378563861
 31
0.0
  0
SOLID
  5
3190
330
FDB
100
AcDbEntity
  8
AM_PARDIM
100
AcDbTrace
 10
62.77464887656417
 20
136.630378563861
 30
0.0
 11
62.77464887656417
 21
135.430378563861
 31
0.0
 12
66.37464887656418
 22
136.030378563861
 32
0.0
 13
66.37464887656418
 23
136.030378563861
 33
0.0
  0
SOLID
  5
3191
330
FDB
100
AcDbEntity
  8
AM_PARDIM
100
AcDbTrace
 10
69.97464887656417
 20
136.630378563861
 30
0.0
 11
69.97464887656417
 21
135.430378563861
 31
0.0
 12
66.37464887656418
 22
136.030378563861
 32
0.0
 13
66.37464887656418
 23
136.030378563861
 33
0.0
  0
MTEXT
  5
3192
330
FDB
100
AcDbEntity
  8
AM_PARDIM
100
AcDbMText
 10
75.73464887656418
 20
139.030378563861
 30
0.0
 40
3.6
 41
0.0
 71
     5
 72
     1
  1
0
  7
CHINA
1001
ACAD
1000
MTEXTBEGIN
1070
    73
1070
     1
1070
    44
1040
1.0
1070
    74
1070
     0
1000
MTEXTEND
  0
POINT
  5
3193
330
FDB
100
AcDbEntity
  8
DEFPOINTS
 62
     0
100
AcDbPoint
 10
66.37464887656418
 20
128.6938113892624
 30
0.0
  0
POINT
  5
3194
330
FDB
100
AcDbEntity
  8
DEFPOINTS
 62
     0
100
AcDbPoint
 10
66.37464887656418
 20
116.1938113892624
 30
0.0
  0
POINT
  5
3195
330
FDB
100
AcDbEntity
  8
DEFPOINTS
 62
     0
100
AcDbPoint
 10
66.37464887656418
 20
136.030378563861
 30
0.0
  0
ENDBLK
  5
FE7
330
FDB
100
AcDbEntity
  8
0
100
AcDbBlockEnd
  0
BLOCK
  5
FF2
330
FE8
100
AcDbEntity
  8
0
100
AcDbBlockBegin
  2
*D9
 70
     1
 10
0.0
 20
0.0
 30
0.0
  3
*D9
  1

  0
LINE
  5
3196
330
FE8
100
AcDbEntity
  8
AM_PARDIM
100
AcDbLine
 10
66.27464887656419
 20
125.6938113892624
 30
0.0
 11
96.33257086951754
 21
125.6938113892624
 31
0.0
  0
LINE
  5
3197
330
FE8
100
AcDbEntity
  8
AM_PARDIM
100
AcDbLine
 10
84.93257086951755
 20
116.1938113892624
 30
0.0
 11
96.33257086951754
 21
116.1938113892624
 31
0.0
  0
LINE
  5
3198
330
FE8
100
AcDbEntity
  8
AM_PARDIM
100
AcDbLine
 10
94.53257086951754
 20
129.2938113892624
 30
0.0
 11
94.53257086951754
 21
132.8938113892624
 31
0.0
  0
LINE
  5
3199
330
FE8
100
AcDbEntity
  8
AM_PARDIM
100
AcDbLine
 10
94.53257086951754
 20
112.5938113892624
 30
0.0
 11
94.53257086951754
 21
108.9938113892624
 31
0.0
  0
LINE
  5
319A
330
FE8
100
AcDbEntity
  8
AM_PARDIM
100
AcDbLine
 10
94.53257086951754
 20
125.6938113892624
 30
0.0
 11
94.53257086951754
 21
116.1938113892624
 31
0.0
  0
SOLID
  5
319B
330
FE8
100
AcDbEntity
  8
AM_PARDIM
100
AcDbTrace
 10
93.93257086951754
 20
129.2938113892624
 30
0.0
 11
95.13257086951753
 21
129.2938113892624
 31
0.0
 12
94.53257086951754
 22
125.6938113892624
 32
0.0
 13
94.53257086951754
 23
125.6938113892624
 33
0.0
  0
SOLID
  5
319C
330
FE8
100
AcDbEntity
  8
AM_PARDIM
100
AcDbTrace
 10
93.93257086951754
 20
112.5938113892624
 30
0.0
 11
95.13257086951753
 21
112.5938113892624
 31
0.0
 12
94.53257086951754
 22
116.1938113892624
 32
0.0
 13
94.53257086951754
 23
116.1938113892624
 33
0.0
  0
MTEXT
  5
319D
330
FE8
100
AcDbEntity
  8
AM_PARDIM
100
AcDbMText
 10
91.52312205061988
 20
120.9438113892624
 30
0.0
 40
3.6
 41
0.0
 71
     5
 72
     1
  1
9.5
  7
CHINA
 11
0.0000000000000001
 21
1.0
 31
0.0
1001
ACAD
1000
MTEXTBEGIN
1070
    73
1070
     1
1070
    44
1040
1.0
1070
    74
1070
     0
1000
MTEXTEND
  0
POINT
  5
319E
330
FE8
100
AcDbEntity
  8
DEFPOINTS
 62
     0
100
AcDbPoint
 10
63.87464887656418
 20
125.6938113892624
 30
0.0
  0
POINT
  5
319F
330
FE8
100
AcDbEntity
  8
DEFPOINTS
 62
     0
100
AcDbPoint
 10
82.53257086951753
 20
116.1938113892624
 30
0.0
  0
POINT
  5
31A0
330
FE8
100
AcDbEntity
  8
DEFPOINTS
 62
     0
100
AcDbPoint
 10
94.53257086951754
 20
116.1938113892624
 30
0.0
  0
ENDBLK
  5
FF3
330
FE8
100
AcDbEntity
  8
0
100
AcDbBlockEnd
  0
BLOCK
  5
FFE
330
FF4
100
AcDbEntity
  8
0
100
AcDbBlockBegin
  2
*D10
 70
     1
 10
0.0
 20
0.0
 30
0.0
  3
*D10
  1

  0
LINE
  5
31A1
330
FF4
100
AcDbEntity
  8
AM_PARDIM
100
AcDbLine
 10
68.77464887656419
 20
128.6938113892624
 30
0.0
 11
126.3325708695175
 21
128.6938113892624
 31
0.0
  0
LINE
  5
31A2
330
FF4
100
AcDbEntity
  8
AM_PARDIM
100
AcDbLine
 10
84.93257086951755
 20
116.1938113892624
 30
0.0
 11
126.3325708695175
 21
116.1938113892624
 31
0.0
  0
LINE
  5
31A3
330
FF4
100
AcDbEntity
  8
AM_PARDIM
100
AcDbLine
 10
124.5325708695175
 20
125.0938113892624
 30
0.0
 11
124.5325708695175
 21
119.7938113892624
 31
0.0
  0
SOLID
  5
31A4
330
FF4
100
AcDbEntity
  8
AM_PARDIM
100
AcDbTrace
 10
123.9325708695175
 20
125.0938113892624
 30
0.0
 11
125.1325708695175
 21
125.0938113892624
 31
0.0
 12
124.5325708695175
 22
128.6938113892624
 32
0.0
 13
124.5325708695175
 23
128.6938113892624
 33
0.0
  0
SOLID
  5
31A5
330
FF4
100
AcDbEntity
  8
AM_PARDIM
100
AcDbTrace
 10
123.9325708695175
 20
119.7938113892624
 30
0.0
 11
125.1325708695175
 21
119.7938113892624
 31
0.0
 12
124.5325708695175
 22
116.1938113892624
 32
0.0
 13
124.5325708695175
 23
116.1938113892624
 33
0.0
  0
MTEXT
  5
31A6
330
FF4
100
AcDbEntity
  8
AM_PARDIM
100
AcDbMText
 10
121.5228070899899
 20
122.4438113892624
 30
0.0
 40
3.6
 41
0.0
 71
     5
 72
     1
  1
12.5
  7
CHINA
 11
0.0000000000000001
 21
1.0
 31
0.0
1001
ACAD
1000
MTEXTBEGIN
1070
    73
1070
     1
1070
    44
1040
1.0
1070
    74
1070
     0
1000
MTEXTEND
  0
POINT
  5
31A7
330
FF4
100
AcDbEntity
  8
DEFPOINTS
 62
     0
100
AcDbPoint
 10
66.37464887656418
 20
128.6938113892624
 30
0.0
  0
POINT
  5
31A8
330
FF4
100
AcDbEntity
  8
DEFPOINTS
 62
     0
100
AcDbPoint
 10
82.53257086951753
 20
116.1938113892624
 30
0.0
  0
POINT
  5
31A9
330
FF4
100
AcDbEntity
  8
DEFPOINTS
 62
     0
100
AcDbPoint
 10
124.5325708695175
 20
116.1938113892624
 30
0.0
  0
ENDBLK
  5
FFF
330
FF4
100
AcDbEntity
  8
0
100
AcDbBlockEnd
  0
BLOCK
  5
202B
330
2021
100
AcDbEntity
  8
0
100
AcDbBlockBegin
  2
*D12
 70
     1
 10
0.0
 20
0.0
 30
0.0
  3
*D12
  1

  0
LINE
  5
30B0
330
2021
100
AcDbEntity
  8
AM_5
100
AcDbLine
 10
651.9956865305388
 20
377.412477302911
 30
0.0
 11
694.6456865305387
 21
377.412477302911
 31
0.0
  0
LINE
  5
30B1
330
2021
100
AcDbEntity
  8
AM_5
100
AcDbLine
 10
651.9956865305388
 20
333.412477302911
 30
0.0
 11
694.6456865305387
 21
333.412477302911
 31
0.0
  0
LINE
  5
30B2
330
2021
100
AcDbEntity
  8
AM_5
100
AcDbLine
 10
692.8456865305388
 20
373.812477302911
 30
0.0
 11
692.8456865305388
 21
337.012477302911
 31
0.0
  0
SOLID
  5
30B3
330
2021
100
AcDbEntity
  8
AM_5
100
AcDbTrace
 10
692.2456865305388
 20
373.812477302911
 30
0.0
 11
693.4456865305389
 21
373.812477302911
 31
0.0
 12
692.8456865305388
 22
377.412477302911
 32
0.0
 13
692.8456865305388
 23
377.412477302911
 33
0.0
  0
SOLID
  5
30B4
330
2021
100
AcDbEntity
  8
AM_5
100
AcDbTrace
 10
692.2456865305388
 20
337.012477302911
 30
0.0
 11
693.4456865305389
 21
337.012477302911
 31
0.0
 12
692.8456865305388
 22
333.412477302911
 32
0.0
 13
692.8456865305388
 23
333.412477302911
 33
0.0
  0
MTEXT
  5
30B5
330
2021
100
AcDbEntity
  8
AM_5
100
AcDbMText
 10
689.8456865305387
 20
355.4124773029112
 30
0.0
 40
3.6
 41
0.0
 71
     5
 72
     1
  1
44
  7
CHINA
 11
0.0000000000000001
 21
1.0
 31
0.0
1001
ACAD
1000
MTEXTBEGIN
1070
    73
1070
     1
1070
    44
1040
1.0
1070
    74
1070
     0
1000
MTEXTEND
  0
POINT
  5
30B6
330
2021
100
AcDbEntity
  8
DEFPOINTS
 62
     0
100
AcDbPoint
 10
649.5956865305388
 20
377.412477302911
 30
0.0
  0
POINT
  5
30B7
330
2021
100
AcDbEntity
  8
DEFPOINTS
 62
     0
100
AcDbPoint
 10
649.5956865305388
 20
333.412477302911
 30
0.0
  0
POINT
  5
30B8
330
2021
100
AcDbEntity
  8
DEFPOINTS
 62
     0
100
AcDbPoint
 10
692.8456865305388
 20
333.412477302911
 30
0.0
  0
ENDBLK
  5
202C
330
2021
100
AcDbEntity
  8
0
100
AcDbBlockEnd
  0
BLOCK
  5
20AC
330
20A2
100
AcDbEntity
  8
0
100
AcDbBlockBegin
  2
*D13
 70
     1
 10
0.0
 20
0.0
 30
0.0
  3
*D13
  1

  0
LINE
  5
313B
330
20A2
100
AcDbEntity
  8
AM_5
100
AcDbLine
 10
674.2456865305388
 20
364.912477302911
 30
0.0
 11
686.6456865305387
 21
364.912477302911
 31
0.0
  0
LINE
  5
313C
330
20A2
100
AcDbEntity
  8
AM_5
100
AcDbLine
 10
674.2456865305388
 20
345.912477302911
 30
0.0
 11
686.6456865305387
 21
345.912477302911
 31
0.0
  0
LINE
  5
313D
330
20A2
100
AcDbEntity
  8
AM_5
100
AcDbLine
 10
684.8456865305388
 20
361.312477302911
 30
0.0
 11
684.8456865305388
 21
349.512477302911
 31
0.0
  0
SOLID
  5
313E
330
20A2
100
AcDbEntity
  8
AM_5
100
AcDbTrace
 10
684.2456865305388
 20
361.312477302911
 30
0.0
 11
685.4456865305389
 21
361.312477302911
 31
0.0
 12
684.8456865305388
 22
364.912477302911
 32
0.0
 13
684.8456865305388
 23
364.912477302911
 33
0.0
  0
SOLID
  5
313F
330
20A2
100
AcDbEntity
  8
AM_5
100
AcDbTrace
 10
684.2456865305388
 20
349.512477302911
 30
0.0
 11
685.4456865305389
 21
349.512477302911
 31
0.0
 12
684.8456865305388
 22
345.912477302911
 32
0.0
 13
684.8456865305388
 23
345.912477302911
 33
0.0
  0
MTEXT
  5
3140
330
20A2
100
AcDbEntity
  8
AM_5
100
AcDbMText
 10
681.8456865305387
 20
355.4124773029111
 30
0.0
 40
3.6
 41
0.0
 71
     5
 72
     1
  1
19
  7
CHINA
 11
0.0000000000000001
 21
1.0
 31
0.0
1001
ACAD
1000
MTEXTBEGIN
1070
    73
1070
     1
1070
    44
1040
1.0
1070
    74
1070
     0
1000
MTEXTEND
  0
POINT
  5
3141
330
20A2
100
AcDbEntity
  8
DEFPOINTS
 62
     0
100
AcDbPoint
 10
671.8456865305388
 20
364.912477302911
 30
0.0
  0
POINT
  5
3142
330
20A2
100
AcDbEntity
  8
DEFPOINTS
 62
     0
100
AcDbPoint
 10
671.8456865305388
 20
345.912477302911
 30
0.0
  0
POINT
  5
3143
330
20A2
100
AcDbEntity
  8
DEFPOINTS
 62
     0
100
AcDbPoint
 10
684.8456865305388
 20
345.912477302911
 30
0.0
  0
ENDBLK
  5
20AD
330
20A2
100
AcDbEntity
  8
0
100
AcDbBlockEnd
  0
BLOCK
  5
20F3
330
20E9
100
AcDbEntity
  8
0
100
AcDbBlockBegin
  2
*D14
 70
     1
 10
0.0
 20
0.0
 30
0.0
  3
*D14
  1

  0
LINE
  5
30C2
330
20E9
100
AcDbEntity
  8
AM_5
100
AcDbLine
 10
600.8456865305388
 20
326.262477302911
 30
0.0
 11
600.8456865305388
 21
314.612477302911
 31
0.0
  0
LINE
  5
30C3
330
20E9
100
AcDbEntity
  8
AM_5
100
AcDbLine
 10
644.8456865305388
 20
326.262477302911
 30
0.0
 11
644.8456865305388
 21
314.612477302911
 31
0.0
  0
LINE
  5
30C4
330
20E9
100
AcDbEntity
  8
AM_5
100
AcDbLine
 10
604.4456865305388
 20
316.4124773029111
 30
0.0
 11
641.2456865305387
 21
316.4124773029111
 31
0.0
  0
SOLID
  5
30C5
330
20E9
100
AcDbEntity
  8
AM_5
100
AcDbTrace
 10
604.4456865305388
 20
317.0124773029111
 30
0.0
 11
604.4456865305388
 21
315.812477302911
 31
0.0
 12
600.8456865305388
 22
316.4124773029111
 32
0.0
 13
600.8456865305388
 23
316.4124773029111
 33
0.0
  0
SOLID
  5
30C6
330
20E9
100
AcDbEntity
  8
AM_5
100
AcDbTrace
 10
641.2456865305387
 20
317.0124773029111
 30
0.0
 11
641.2456865305387
 21
315.812477302911
 31
0.0
 12
644.8456865305388
 22
316.4124773029111
 32
0.0
 13
644.8456865305388
 23
316.4124773029111
 33
0.0
  0
MTEXT
  5
30C7
330
20E9
100
AcDbEntity
  8
AM_5
100
AcDbMText
 10
622.8456865305388
 20
319.412477302911
 30
0.0
 40
3.6
 41
0.0
 71
     5
 72
     1
  1
44
  7
CHINA
1001
ACAD
1000
MTEXTBEGIN
1070
    73
1070
     1
1070
    44
1040
1.0
1070
    74
1070
     0
1000
MTEXTEND
  0
POINT
  5
30C8
330
20E9
100
AcDbEntity
  8
DEFPOINTS
 62
     0
100
AcDbPoint
 10
600.8456865305388
 20
328.662477302911
 30
0.0
  0
POINT
  5
30C9
330
20E9
100
AcDbEntity
  8
DEFPOINTS
 62
     0
100
AcDbPoint
 10
644.8456865305388
 20
328.662477302911
 30
0.0
  0
POINT
  5
30CA
330
20E9
100
AcDbEntity
  8
DEFPOINTS
 62
     0
100
AcDbPoint
 10
644.8456865305388
 20
316.4124773029111
 30
0.0
  0
ENDBLK
  5
20F4
330
20E9
100
AcDbEntity
  8
0
100
AcDbBlockEnd
  0
BLOCK
  5
212B
330
2121
100
AcDbEntity
  8
0
100
AcDbBlockBegin
  2
*D15
 70
     1
 10
0.0
 20
0.0
 30
0.0
  3
*D15
  1

  0
LINE
  5
30B9
330
2121
100
AcDbEntity
  8
AM_5
100
AcDbLine
 10
595.8456865305388
 20
328.012477302911
 30
0.0
 11
595.8456865305388
 21
306.612477302911
 31
0.0
  0
LINE
  5
30BA
330
2121
100
AcDbEntity
  8
AM_5
100
AcDbLine
 10
649.8456865305388
 20
328.012477302911
 30
0.0
 11
649.8456865305388
 21
306.612477302911
 31
0.0
  0
LINE
  5
30BB
330
2121
100
AcDbEntity
  8
AM_5
100
AcDbLine
 10
599.4456865305388
 20
308.4124773029111
 30
0.0
 11
646.2456865305388
 21
308.4124773029111
 31
0.0
  0
SOLID
  5
30BC
330
2121
100
AcDbEntity
  8
AM_5
100
AcDbTrace
 10
599.4456865305388
 20
309.0124773029111
 30
0.0
 11
599.4456865305388
 21
307.812477302911
 31
0.0
 12
595.8456865305388
 22
308.4124773029111
 32
0.0
 13
595.8456865305388
 23
308.4124773029111
 33
0.0
  0
SOLID
  5
30BD
330
2121
100
AcDbEntity
  8
AM_5
100
AcDbTrace
 10
646.2456865305388
 20
309.0124773029111
 30
0.0
 11
646.2456865305388
 21
307.812477302911
 31
0.0
 12
649.8456865305388
 22
308.4124773029111
 32
0.0
 13
649.8456865305388
 23
308.4124773029111
 33
0.0
  0
MTEXT
  5
30BE
330
2121
100
AcDbEntity
  8
AM_5
100
AcDbMText
 10
622.8456865305388
 20
311.4219261218087
 30
0.0
 40
3.6
 41
0.0
 71
     5
 72
     1
  1
{\Famgdt;o}54
  7
CHINA
1001
ACAD
1000
MTEXTBEGIN
1070
    73
1070
     1
1070
    44
1040
1.0
1070
    74
1070
     0
1000
MTEXTEND
  0
POINT
  5
30BF
330
2121
100
AcDbEntity
  8
DEFPOINTS
 62
     0
100
AcDbPoint
 10
595.8456865305388
 20
330.412477302911
 30
0.0
  0
POINT
  5
30C0
330
2121
100
AcDbEntity
  8
DEFPOINTS
 62
     0
100
AcDbPoint
 10
649.8456865305388
 20
330.412477302911
 30
0.0
  0
POINT
  5
30C1
330
2121
100
AcDbEntity
  8
DEFPOINTS
 62
     0
100
AcDbPoint
 10
649.8456865305388
 20
308.4124773029111
 30
0.0
  0
ENDBLK
  5
212C
330
2121
100
AcDbEntity
  8
0
100
AcDbBlockEnd
  0
BLOCK
  5
2163
330
2159
100
AcDbEntity
  8
0
100
AcDbBlockBegin
  2
*D16
 70
     1
 10
0.0
 20
0.0
 30
0.0
  3
*D16
  1

  0
LINE
  5
293B
330
2159
100
AcDbEntity
  8
AM_5
100
AcDbLine
 10
651.2456865305388
 20
154.6882746016988
 30
0.0
 11
663.6456865305388
 21
154.6882746016988
 31
0.0
  0
LINE
  5
293C
330
2159
100
AcDbEntity
  8
AM_5
100
AcDbLine
 10
651.7456865305388
 20
177.6882746016988
 30
0.0
 11
663.6456865305388
 21
177.6882746016988
 31
0.0
  0
LINE
  5
293D
330
2159
100
AcDbEntity
  8
AM_5
100
AcDbLine
 10
661.8456865305388
 20
158.2882746016988
 30
0.0
 11
661.8456865305388
 21
174.0882746016988
 31
0.0
  0
SOLID
  5
293E
330
2159
100
AcDbEntity
  8
AM_5
100
AcDbTrace
 10
661.2456865305388
 20
158.2882746016988
 30
0.0
 11
662.4456865305388
 21
158.2882746016988
 31
0.0
 12
661.8456865305388
 22
154.6882746016988
 32
0.0
 13
661.8456865305388
 23
154.6882746016988
 33
0.0
  0
SOLID
  5
293F
330
2159
100
AcDbEntity
  8
AM_5
100
AcDbTrace
 10
661.2456865305388
 20
174.0882746016988
 30
0.0
 11
662.4456865305388
 21
174.0882746016988
 31
0.0
 12
661.8456865305388
 22
177.6882746016988
 32
0.0
 13
661.8456865305388
 23
177.6882746016988
 33
0.0
  0
MTEXT
  5
2940
330
2159
100
AcDbEntity
  8
AM_5
100
AcDbMText
 10
658.8453715699089
 20
166.1882746016989
 30
0.0
 40
3.6
 41
0.0
 71
     5
 72
     1
  1
23
  7
CHINA
 11
0.0000000000000001
 21
1.0
 31
0.0
1001
ACAD
1000
MTEXTBEGIN
1070
    73
1070
     1
1070
    44
1040
1.0
1070
    74
1070
     0
1000
MTEXTEND
  0
POINT
  5
2941
330
2159
100
AcDbEntity
  8
DEFPOINTS
 62
     0
100
AcDbPoint
 10
648.8456865305388
 20
154.6882746016988
 30
0.0
  0
POINT
  5
2942
330
2159
100
AcDbEntity
  8
DEFPOINTS
 62
     0
100
AcDbPoint
 10
649.3456865305388
 20
177.6882746016988
 30
0.0
  0
POINT
  5
2943
330
2159
100
AcDbEntity
  8
DEFPOINTS
 62
     0
100
AcDbPoint
 10
661.8456865305388
 20
177.6882746016988
 30
0.0
  0
ENDBLK
  5
2164
330
2159
100
AcDbEntity
  8
0
100
AcDbBlockEnd
  0
BLOCK
  5
219B
330
2191
100
AcDbEntity
  8
0
100
AcDbBlockBegin
  2
*D17
 70
     1
 10
0.0
 20
0.0
 30
0.0
  3
*D17
  1

  0
LINE
  5
2917
330
2191
100
AcDbEntity
  8
AM_5
100
AcDbLine
 10
651.2456865305388
 20
154.6882746016988
 30
0.0
 11
671.6456865305388
 21
154.6882746016988
 31
0.0
  0
LINE
  5
2918
330
2191
100
AcDbEntity
  8
AM_5
100
AcDbLine
 10
648.2456865305388
 20
225.6882746016988
 30
0.0
 11
671.6456865305388
 21
225.6882746016988
 31
0.0
  0
LINE
  5
2919
330
2191
100
AcDbEntity
  8
AM_5
100
AcDbLine
 10
669.8456865305388
 20
158.2882746016988
 30
0.0
 11
669.8456865305388
 21
222.0882746016988
 31
0.0
  0
SOLID
  5
291A
330
2191
100
AcDbEntity
  8
AM_5
100
AcDbTrace
 10
669.2456865305388
 20
158.2882746016988
 30
0.0
 11
670.4456865305388
 21
158.2882746016988
 31
0.0
 12
669.8456865305388
 22
154.6882746016988
 32
0.0
 13
669.8456865305388
 23
154.6882746016988
 33
0.0
  0
SOLID
  5
291B
330
2191
100
AcDbEntity
  8
AM_5
100
AcDbTrace
 10
669.2456865305388
 20
222.0882746016988
 30
0.0
 11
670.4456865305388
 21
222.0882746016988
 31
0.0
 12
669.8456865305388
 22
225.6882746016988
 32
0.0
 13
669.8456865305388
 23
225.6882746016988
 33
0.0
  0
MTEXT
  5
291C
330
2191
100
AcDbEntity
  8
AM_5
100
AcDbMText
 10
666.8456865305388
 20
190.1882746016989
 30
0.0
 40
3.6
 41
0.0
 71
     5
 72
     1
  1
71
  7
CHINA
 11
0.0000000000000001
 21
1.0
 31
0.0
1001
ACAD
1000
MTEXTBEGIN
1070
    73
1070
     1
1070
    44
1040
1.0
1070
    74
1070
     0
1000
MTEXTEND
  0
POINT
  5
291D
330
2191
100
AcDbEntity
  8
DEFPOINTS
 62
     0
100
AcDbPoint
 10
648.8456865305388
 20
154.6882746016988
 30
0.0
  0
POINT
  5
291E
330
2191
100
AcDbEntity
  8
DEFPOINTS
 62
     0
100
AcDbPoint
 10
645.8456865305388
 20
225.6882746016988
 30
0.0
  0
POINT
  5
291F
330
2191
100
AcDbEntity
  8
DEFPOINTS
 62
     0
100
AcDbPoint
 10
669.8456865305388
 20
225.6882746016988
 30
0.0
  0
ENDBLK
  5
219C
330
2191
100
AcDbEntity
  8
0
100
AcDbBlockEnd
  0
BLOCK
  5
21D3
330
21C9
100
AcDbEntity
  8
0
100
AcDbBlockBegin
  2
*D18
 70
     1
 10
0.0
 20
0.0
 30
0.0
  3
*D18
  1

  0
LINE
  5
2920
330
21C9
100
AcDbEntity
  8
AM_5
100
AcDbLine
 10
651.2456865305388
 20
154.6882746016988
 30
0.0
 11
686.6456865305386
 21
154.6882746016988
 31
0.0
  0
LINE
  5
2921
330
21C9
100
AcDbEntity
  8
AM_5
100
AcDbLine
 10
674.2456865305388
 20
257.1882746016988
 30
0.0
 11
686.6456865305387
 21
257.1882746016988
 31
0.0
  0
LINE
  5
2922
330
21C9
100
AcDbEntity
  8
AM_5
100
AcDbLine
 10
684.8456865305386
 20
158.2882746016988
 30
0.0
 11
684.8456865305386
 21
253.5882746016988
 31
0.0
  0
SOLID
  5
2923
330
21C9
100
AcDbEntity
  8
AM_5
100
AcDbTrace
 10
684.2456865305386
 20
158.2882746016988
 30
0.0
 11
685.4456865305387
 21
158.2882746016988
 31
0.0
 12
684.8456865305386
 22
154.6882746016988
 32
0.0
 13
684.8456865305386
 23
154.6882746016988
 33
0.0
  0
SOLID
  5
2924
330
21C9
100
AcDbEntity
  8
AM_5
100
AcDbTrace
 10
684.2456865305386
 20
253.5882746016988
 30
0.0
 11
685.4456865305387
 21
253.5882746016988
 31
0.0
 12
684.8456865305388
 22
257.1882746016988
 32
0.0
 13
684.8456865305388
 23
257.1882746016988
 33
0.0
  0
MTEXT
  5
2925
330
21C9
100
AcDbEntity
  8
AM_5
100
AcDbMText
 10
681.8359227510111
 20
205.9382746016989
 30
0.0
 40
3.6
 41
0.0
 71
     5
 72
     1
  1
102.5
  7
CHINA
 11
0.0000000000000001
 21
1.0
 31
0.0
1001
ACAD
1000
MTEXTBEGIN
1070
    73
1070
     1
1070
    44
1040
1.0
1070
    74
1070
     0
1000
MTEXTEND
  0
POINT
  5
2926
330
21C9
100
AcDbEntity
  8
DEFPOINTS
 62
     0
100
AcDbPoint
 10
648.8456865305388
 20
154.6882746016988
 30
0.0
  0
POINT
  5
2927
330
21C9
100
AcDbEntity
  8
DEFPOINTS
 62
     0
100
AcDbPoint
 10
671.8456865305388
 20
257.1882746016988
 30
0.0
  0
POINT
  5
2928
330
21C9
100
AcDbEntity
  8
DEFPOINTS
 62
     0
100
AcDbPoint
 10
684.8456865305388
 20
257.1882746016988
 30
0.0
  0
ENDBLK
  5
21D4
330
21C9
100
AcDbEntity
  8
0
100
AcDbBlockEnd
  0
BLOCK
  5
220B
330
2201
100
AcDbEntity
  8
0
100
AcDbBlockBegin
  2
*D19
 70
     1
 10
0.0
 20
0.0
 30
0.0
  3
*D19
  1

  0
LINE
  5
2956
330
2201
100
AcDbEntity
  8
AM_5
100
AcDbLine
 10
674.2456865305388
 20
257.1882746016988
 30
0.0
 11
686.6456865305387
 21
257.1882746016988
 31
0.0
  0
LINE
  5
2957
330
2201
100
AcDbEntity
  8
AM_5
100
AcDbLine
 10
674.2456865305388
 20
276.1882746016988
 30
0.0
 11
686.6456865305387
 21
276.1882746016988
 31
0.0
  0
LINE
  5
2958
330
2201
100
AcDbEntity
  8
AM_5
100
AcDbLine
 10
684.8456865305388
 20
260.7882746016988
 30
0.0
 11
684.8456865305388
 21
272.5882746016988
 31
0.0
  0
SOLID
  5
2959
330
2201
100
AcDbEntity
  8
AM_5
100
AcDbTrace
 10
684.2456865305388
 20
260.7882746016988
 30
0.0
 11
685.4456865305389
 21
260.7882746016988
 31
0.0
 12
684.8456865305388
 22
257.1882746016988
 32
0.0
 13
684.8456865305388
 23
257.1882746016988
 33
0.0
  0
SOLID
  5
295A
330
2201
100
AcDbEntity
  8
AM_5
100
AcDbTrace
 10
684.2456865305388
 20
272.5882746016988
 30
0.0
 11
685.4456865305389
 21
272.5882746016988
 31
0.0
 12
684.8456865305388
 22
276.1882746016988
 32
0.0
 13
684.8456865305388
 23
276.1882746016988
 33
0.0
  0
MTEXT
  5
295B
330
2201
100
AcDbEntity
  8
AM_5
100
AcDbMText
 10
681.8456865305387
 20
266.6882746016989
 30
0.0
 40
3.6
 41
0.0
 71
     5
 72
     1
  1
19
  7
CHINA
 11
0.0000000000000001
 21
1.0
 31
0.0
1001
ACAD
1000
MTEXTBEGIN
1070
    73
1070
     1
1070
    44
1040
1.0
1070
    74
1070
     0
1000
MTEXTEND
  0
POINT
  5
295C
330
2201
100
AcDbEntity
  8
DEFPOINTS
 62
     0
100
AcDbPoint
 10
671.8456865305388
 20
257.1882746016988
 30
0.0
  0
POINT
  5
295D
330
2201
100
AcDbEntity
  8
DEFPOINTS
 62
     0
100
AcDbPoint
 10
671.8456865305388
 20
276.1882746016988
 30
0.0
  0
POINT
  5
295E
330
2201
100
AcDbEntity
  8
DEFPOINTS
 62
     0
100
AcDbPoint
 10
684.8456865305388
 20
276.1882746016988
 30
0.0
  0
ENDBLK
  5
220C
330
2201
100
AcDbEntity
  8
0
100
AcDbBlockEnd
  0
BLOCK
  5
2243
330
2239
100
AcDbEntity
  8
0
100
AcDbBlockBegin
  2
*D20
 70
     1
 10
0.0
 20
0.0
 30
0.0
  3
*D20
  1

  0
LINE
  5
2929
330
2239
100
AcDbEntity
  8
AM_5
100
AcDbLine
 10
674.2456865305388
 20
276.1882746016988
 30
0.0
 11
694.6456865305389
 21
276.1882746016988
 31
0.0
  0
LINE
  5
292A
330
2239
100
AcDbEntity
  8
AM_5
100
AcDbLine
 10
651.2456865305388
 20
154.6882746016988
 30
0.0
 11
694.6456865305387
 21
154.6882746016988
 31
0.0
  0
LINE
  5
292B
330
2239
100
AcDbEntity
  8
AM_5
100
AcDbLine
 10
692.8456865305389
 20
272.5882746016988
 30
0.0
 11
692.8456865305388
 21
158.2882746016988
 31
0.0
  0
SOLID
  5
292C
330
2239
100
AcDbEntity
  8
AM_5
100
AcDbTrace
 10
692.2456865305389
 20
272.5882746016988
 30
0.0
 11
693.4456865305389
 21
272.5882746016988
 31
0.0
 12
692.8456865305389
 22
276.1882746016988
 32
0.0
 13
692.8456865305389
 23
276.1882746016988
 33
0.0
  0
SOLID
  5
292D
330
2239
100
AcDbEntity
  8
AM_5
100
AcDbTrace
 10
692.2456865305388
 20
158.2882746016988
 30
0.0
 11
693.4456865305389
 21
158.2882746016988
 31
0.0
 12
692.8456865305388
 22
154.6882746016988
 32
0.0
 13
692.8456865305388
 23
154.6882746016988
 33
0.0
  0
MTEXT
  5
292E
330
2239
100
AcDbEntity
  8
AM_5
100
AcDbMText
 10
689.8359227510113
 20
215.4382746016989
 30
0.0
 40
3.6
 41
0.0
 71
     5
 72
     1
  1
121.5
  7
CHINA
 11
0.0000000000000001
 21
1.0
 31
0.0
1001
ACAD
1000
MTEXTBEGIN
1070
    73
1070
     1
1070
    44
1040
1.0
1070
    74
1070
     0
1000
MTEXTEND
  0
POINT
  5
292F
330
2239
100
AcDbEntity
  8
DEFPOINTS
 62
     0
100
AcDbPoint
 10
671.8456865305388
 20
276.1882746016988
 30
0.0
  0
POINT
  5
2930
330
2239
100
AcDbEntity
  8
DEFPOINTS
 62
     0
100
AcDbPoint
 10
648.8456865305388
 20
154.6882746016988
 30
0.0
  0
POINT
  5
2931
330
2239
100
AcDbEntity
  8
DEFPOINTS
 62
     0
100
AcDbPoint
 10
692.8456865305388
 20
154.6882746016988
 30
0.0
  0
ENDBLK
  5
2244
330
2239
100
AcDbEntity
  8
0
100
AcDbBlockEnd
  0
BLOCK
  5
2548
330
253E
100
AcDbEntity
  8
0
100
AcDbBlockBegin
  2
*D21
 70
     1
 10
0.0
 20
0.0
 30
0.0
  3
*D21
  1

  0
LINE
  5
2932
330
253E
100
AcDbEntity
  8
AM_5
100
AcDbLine
 10
597.8456865305388
 20
198.2882746016988
 30
0.0
 11
597.8456865305388
 21
195.6154755107011
 31
0.0
  0
LINE
  5
2933
330
253E
100
AcDbEntity
  8
AM_5
100
AcDbLine
 10
647.8456865305388
 20
198.2882746016988
 30
0.0
 11
647.8456865305388
 21
195.6154755107011
 31
0.0
  0
LINE
  5
2934
330
253E
100
AcDbEntity
  8
AM_5
100
AcDbLine
 10
601.4456865305389
 20
197.4154755107011
 30
0.0
 11
644.2456865305388
 21
197.4154755107011
 31
0.0
  0
SOLID
  5
2935
330
253E
100
AcDbEntity
  8
AM_5
100
AcDbTrace
 10
601.4456865305389
 20
198.0154755107011
 30
0.0
 11
601.4456865305389
 21
196.8154755107011
 31
0.0
 12
597.8456865305388
 22
197.4154755107011
 32
0.0
 13
597.8456865305388
 23
197.4154755107011
 33
0.0
  0
SOLID
  5
2936
330
253E
100
AcDbEntity
  8
AM_5
100
AcDbTrace
 10
644.2456865305388
 20
198.0154755107011
 30
0.0
 11
644.2456865305388
 21
196.8154755107011
 31
0.0
 12
647.8456865305388
 22
197.4154755107011
 32
0.0
 13
647.8456865305388
 23
197.4154755107011
 33
0.0
  0
MTEXT
  5
2937
330
253E
100
AcDbEntity
  8
AM_5
100
AcDbMText
 10
629.5422254316226
 20
200.4249243295987
 30
0.0
 40
3.6
 41
0.0
 71
     5
 72
     1
  1
%%c50
  7
CHINA
1001
ACAD
1000
MTEXTBEGIN
1070
    73
1070
     1
1070
    44
1040
1.0
1070
    74
1070
     0
1000
MTEXTEND
  0
POINT
  5
2938
330
253E
100
AcDbEntity
  8
DEFPOINTS
 62
     0
100
AcDbPoint
 10
597.8456865305388
 20
200.6882746016988
 30
0.0
  0
POINT
  5
2939
330
253E
100
AcDbEntity
  8
DEFPOINTS
 62
     0
100
AcDbPoint
 10
647.8456865305388
 20
200.6882746016988
 30
0.0
  0
POINT
  5
293A
330
253E
100
AcDbEntity
  8
DEFPOINTS
 62
     0
100
AcDbPoint
 10
647.8456865305388
 20
197.4154755107011
 30
0.0
  0
ENDBLK
  5
2549
330
253E
100
AcDbEntity
  8
0
100
AcDbBlockEnd
  0
BLOCK
  5
2997
330
298D
100
AcDbEntity
  8
0
100
AcDbBlockBegin
  2
*D23
 70
     1
 10
0.0
 20
0.0
 30
0.0
  3
*D23
  1

  0
LINE
  5
31AA
330
298D
100
AcDbEntity
  8
AM_5
100
AcDbLine
 10
572.8456865305388
 20
277.1882746016988
 30
0.0
 11
572.8456865305388
 21
288.6882746016988
 31
0.0
  0
LINE
  5
31AB
330
298D
100
AcDbEntity
  8
AM_5
100
AcDbLine
 10
672.8456865305388
 20
277.1882746016988
 30
0.0
 11
672.8456865305388
 21
288.6882746016988
 31
0.0
  0
LINE
  5
31AC
330
298D
100
AcDbEntity
  8
AM_5
100
AcDbLine
 10
575.8456865305388
 20
287.1882746016988
 30
0.0
 11
669.8456865305388
 21
287.1882746016988
 31
0.0
  0
SOLID
  5
31AD
330
298D
100
AcDbEntity
  8
AM_5
100
AcDbTrace
 10
575.8456865305388
 20
287.6882746016988
 30
0.0
 11
575.8456865305388
 21
286.6882746016988
 31
0.0
 12
572.8456865305388
 22
287.1882746016988
 32
0.0
 13
572.8456865305388
 23
287.1882746016988
 33
0.0
  0
SOLID
  5
31AE
330
298D
100
AcDbEntity
  8
AM_5
100
AcDbTrace
 10
669.8456865305388
 20
287.6882746016988
 30
0.0
 11
669.8456865305388
 21
286.6882746016988
 31
0.0
 12
672.8456865305388
 22
287.1882746016988
 32
0.0
 13
672.8456865305388
 23
287.1882746016988
 33
0.0
  0
MTEXT
  5
31AF
330
298D
100
AcDbEntity
  8
AM_5
100
AcDbMText
 10
622.8456865305388
 20
289.6882746016988
 30
0.0
 40
3.0
 41
0.0
 71
     5
 72
     1
  1
100
  7
CHINA
1001
ACAD
1000
MTEXTBEGIN
1070
    73
1070
     1
1070
    44
1040
1.0
1070
    74
1070
     0
1000
MTEXTEND
  0
POINT
  5
31B0
330
298D
100
AcDbEntity
  8
DEFPOINTS
 62
     0
100
AcDbPoint
 10
572.8456865305388
 20
275.1882746016988
 30
0.0
  0
POINT
  5
31B1
330
298D
100
AcDbEntity
  8
DEFPOINTS
 62
     0
100
AcDbPoint
 10
672.8456865305388
 20
275.1882746016988
 30
0.0
  0
POINT
  5
31B2
330
298D
100
AcDbEntity
  8
DEFPOINTS
 62
     0
100
AcDbPoint
 10
672.8456865305388
 20
287.1882746016988
 30
0.0
  0
ENDBLK
  5
2998
330
298D
100
AcDbEntity
  8
0
100
AcDbBlockEnd
  0
BLOCK
  5
323C
330
3237
100
AcDbEntity
  8
0
100
AcDbBlockBegin
  2
*S50
 70
     1
 10
0.0
 20
0.0
 30
0.0
  3
*S50
  1

  0
LINE
  5
3238
330
3237
100
AcDbEntity
  8
AM_5
100
AcDbLine
 10
675.7110205698211
 20
318.4268418267685
 30
0.0
 11
660.6194845987724
 21
318.4268418267685
 31
0.0
  0
LINE
  5
3239
330
3237
100
AcDbEntity
  8
AM_5
100
AcDbLine
 10
660.6194845987724
 20
318.4268418267685
 30
0.0
 11
649.6080701346503
 21
329.3018821268414
 31
0.0
  0
TRACE
  5
323A
330
3237
100
AcDbEntity
  8
AM_5
100
AcDbTrace
 10
649.8856016958105
 20
329.5828939633484
 30
0.0
 11
649.3305385734901
 21
329.0208702903345
 31
0.0
 12
647.4735733122551
 22
331.4099436333408
 32
0.0
 13
647.4735733122551
 23
331.4099436333408
 33
0.0
  0
MTEXT
  5
323B
330
3237
100
AcDbEntity
  8
AM_5
 62
     2
100
AcDbMText
 10
675.7110205698211
 20
318.4545305864608
 30
0.0
 40
3.5
 41
0.0
 71
     7
 72
     1
  1

  7
ACISOTS
  0
ENDBLK
  5
323D
330
3237
100
AcDbEntity
  8
0
100
AcDbBlockEnd
  0
BLOCK
  5
3245
330
3240
100
AcDbEntity
  8
0
100
AcDbBlockBegin
  2
*S51
 70
     1
 10
0.0
 20
0.0
 30
0.0
  3
*S51
  1

  0
LINE
  5
3241
330
3240
100
AcDbEntity
  8
AM_5
100
AcDbLine
 10
679.0221566811526
 20
232.4243663522774
 30
0.0
 11
659.9760843962804
 21
232.4243663522774
 31
0.0
  0
LINE
  5
3242
330
3240
100
AcDbEntity
  8
AM_5
100
AcDbLine
 10
659.9760843962804
 20
232.4243663522774
 30
0.0
 11
649.7523205558109
 21
220.0044668850973
 31
0.0
  0
TRACE
  5
3243
330
3240
100
AcDbEntity
  8
AM_5
100
AcDbTrace
 10
649.4473880581693
 20
220.2554800153896
 30
0.0
 11
650.0572530534524
 21
219.7534537548051
 31
0.0
 12
647.8456865305388
 22
217.6882746016988
 32
0.0
 13
647.8456865305388
 23
217.6882746016988
 33
0.0
  0
MTEXT
  5
3244
330
3240
100
AcDbEntity
  8
AM_5
 62
     2
100
AcDbMText
 10
679.0221566811526
 20
229.3664849027192
 30
0.0
 40
3.5
 41
0.0
 71
     7
 72
     1
  1

  7
ACISOTS
  0
ENDBLK
  5
3246
330
3240
100
AcDbEntity
  8
0
100
AcDbBlockEnd
  0
ENDSEC
  0
SECTION
  2
ENTITIES
  0
POINT
  5
25
330
2
100
AcDbEntity
  8
0
 60
     1
100
AcDbPoint
 10
0.0
 20
0.0
 30
0.0
  0
POINT
  5
26
330
2
100
AcDbEntity
  8
0
 60
     1
100
AcDbPoint
 10
0.0
 20
0.0
 30
0.0
  0
POINT
  5
27
330
2
100
AcDbEntity
  8
0
 60
     1
100
AcDbPoint
 10
0.0
 20
0.0
 30
0.0
  0
POINT
  5
28
330
2
100
AcDbEntity
  8
0
 60
     1
100
AcDbPoint
 10
0.0
 20
0.0
 30
0.0
  0
POINT
  5
29
330
2
100
AcDbEntity
  8
0
 60
     1
100
AcDbPoint
 10
0.0
 20
0.0
 30
0.0
  0
POINT
  5
2A
330
2
100
AcDbEntity
  8
0
 60
     1
100
AcDbPoint
 10
0.0
 20
0.0
 30
0.0
  0
POINT
  5
2B
330
2
100
AcDbEntity
  8
0
 60
     1
100
AcDbPoint
 10
0.0
 20
0.0
 30
0.0
  0
POINT
  5
2C
330
2
100
AcDbEntity
  8
0
 60
     1
100
AcDbPoint
 10
0.0
 20
0.0
 30
0.0
  0
POINT
  5
2D
330
2
100
AcDbEntity
  8
0
 60
     1
100
AcDbPoint
 10
0.0
 20
0.0
 30
0.0
  0
POINT
  5
2E
330
2
100
AcDbEntity
  8
0
 60
     1
100
AcDbPoint
 10
0.0
 20
0.0
 30
0.0
  0
POINT
  5
2F
330
2
100
AcDbEntity
  8
0
 60
     1
100
AcDbPoint
 10
0.0
 20
0.0
 30
0.0
  0
POINT
  5
30
330
2
100
AcDbEntity
  8
0
 60
     1
100
AcDbPoint
 10
0.0
 20
0.0
 30
0.0
  0
DIMENSION
  5
31
330
2
100
AcDbEntity
  8
AM_PARDIM
 60
     1
100
AcDbDimension
  2
*D1
 10
114.5325708695175
 20
128.6938113892625
 30
0.0
 11
111.5228070899899
 21
122.4438113892625
 31
0.0
 70
    32
  1
<>
  3
AM_ISO
100
AcDbAlignedDimension
 13
75.37464887656421
 23
116.1938113892625
 33
0.0
 14
75.37464887656421
 24
128.6938113892625
 34
0.0
 50
90.0
100
AcDbRotatedDimension
1001
ACAD_DIMASSOC_CALC_DIMLFAC
1040
-1.0
1001
ACAD
1000
DSTYLE
1002
{
1070
   144
1040
-1.0
1002
}
1001
AD_SKETCHDIM
1005
0
1000
d0
1001
ACAD_DIMASSOC_DIMLFAC
1040
-1.0
  0
DIMENSION
  5
43
330
2
100
AcDbEntity
  8
AM_PARDIM
 60
     1
100
AcDbDimension
  2
*D2
 10
26.87464887656421
 20
122.1938113892625
 30
0.0
 11
23.87464887656418
 21
119.1938113892625
 31
0.0
 70
    32
  1
<>
  3
AM_ISO
100
AcDbAlignedDimension
 13
38.8746488765642
 23
116.1938113892625
 33
0.0
 14
38.8746488765642
 24
122.1938113892624
 34
0.0
 50
90.0
100
AcDbRotatedDimension
1001
ACAD_DIMASSOC_CALC_DIMLFAC
1040
-1.0
1001
ACAD
1000
DSTYLE
1002
{
1070
   144
1040
-1.0
1002
}
1001
AD_SKETCHDIM
1005
0
1000
d1
1001
ACAD_DIMASSOC_DIMLFAC
1040
-1.0
  0
DIMENSION
  5
52
330
2
100
AcDbEntity
  8
AM_PARDIM
 60
     1
100
AcDbDimension
  2
*D3
 10
50.87464887656421
 20
140.6938113892624
 30
0.0
 11
44.87464887656421
 21
143.6941263498924
 31
0.0
 70
    32
  1
<>
  3
AM_ISO
100
AcDbAlignedDimension
 13
38.8746488765642
 23
122.1938113892624
 33
0.0
 14
50.87464887656421
 24
122.1938113892624
 34
0.0
100
AcDbRotatedDimension
1001
ACAD_DIMASSOC_CALC_DIMLFAC
1040
-1.0
1001
ACAD
1000
DSTYLE
1002
{
1070
   144
1040
-1.0
1002
}
1001
AD_SKETCHDIM
1005
0
1000
d2
1001
ACAD_DIMASSOC_DIMLFAC
1040
-1.0
  0
DIMENSION
  5
5F
330
2
100
AcDbEntity
  8
AM_PARDIM
 60
     1
100
AcDbDimension
  2
*D4
 10
75.37464887656421
 20
160.6938113892624
 30
0.0
 11
57.12464887656421
 21
163.7032602081601
 31
0.0
 70
    32
  1
<>
  3
AM_ISO
100
AcDbAlignedDimension
 13
38.8746488765642
 23
116.1938113892625
 33
0.0
 14
75.37464887656421
 24
116.1938113892625
 34
0.0
100
AcDbRotatedDimension
1001
ACAD_DIMASSOC_CALC_DIMLFAC
1040
-1.0
1001
ACAD
1000
DSTYLE
1002
{
1070
   144
1040
-1.0
1002
}
1001
AD_SKETCHDIM
1005
0
1000
d3
1001
ACAD_DIMASSOC_DIMLFAC
1040
-1.0
  0
DIMENSION
  5
6C
330
2
100
AcDbEntity
  8
AM_PARDIM
 60
     1
100
AcDbDimension
  2
*D5
 10
104.5325708695175
 20
116.1938113892624
 30
0.0
 11
101.5325708695175
 21
121.6938113892625
 31
0.0
 70
    32
  1
<>
  3
AM_ISO
100
AcDbAlignedDimension
 13
50.87464887656421
 23
127.1938113892624
 33
0.0
 14
75.37464887656421
 24
116.1938113892625
 34
0.0
 50
90.0
100
AcDbRotatedDimension
1001
ACAD_DIMASSOC_CALC_DIMLFAC
1040
-1.0
1001
ACAD
1000
DSTYLE
1002
{
1070
   144
1040
-1.0
1002
}
1001
AD_SKETCHDIM
1005
0
1000
d4
1001
ACAD_DIMASSOC_DIMLFAC
1040
-1.0
  0
DIMENSION
  5
79
330
2
100
AcDbEntity
  8
AM_PARDIM
 60
     1
100
AcDbDimension
  2
*D6
 10
75.37464887656421
 20
150.6938113892624
 30
0.0
 11
70.87464887656421
 21
153.6938113892625
 31
0.0
 70
    32
  1
<>
  3
AM_ISO
100
AcDbAlignedDimension
 13
66.3746488765642
 23
128.6938113892625
 33
0.0
 14
75.37464887656421
 24
128.6938113892625
 34
0.0
100
AcDbRotatedDimension
1001
ACAD_DIMASSOC_CALC_DIMLFAC
1040
-1.0
1001
ACAD
1000
DSTYLE
1002
{
1070
   144
1040
-1.0
1002
}
1001
AD_SKETCHDIM
1005
0
1000
d5
1001
ACAD_DIMASSOC_DIMLFAC
1040
-1.0
  0
DIMENSION
  5
86
330
2
100
AcDbEntity
  8
AM_PARDIM
 60
     1
100
AcDbDimension
  2
*D7
 10
66.37464887656418
 20
140.6938113892624
 30
0.0
 11
77.8401606875878
 21
143.70357516879
 31
0.0
 70
    32
  1
<>
  3
AM_ISO
100
AcDbAlignedDimension
 13
63.87464887656418
 23
128.6938113892624
 33
0.0
 14
66.37464887656418
 24
128.6938113892624
 34
0.0
100
AcDbRotatedDimension
1001
ACAD_DIMASSOC_CALC_DIMLFAC
1040
-1.0
1001
ACAD
1000
DSTYLE
1002
{
1070
   144
1040
-1.0
1002
}
1001
AD_SKETCHDIM
1005
0
1000
d25
1001
ACAD_DIMASSOC_DIMLFAC
1040
-1.0
  0
DIMENSION
  5
95
330
2
100
AcDbEntity
  8
AM_PARDIM
 60
     1
100
AcDbDimension
  2
*D8
 10
66.37464887656418
 20
136.030378563861
 30
0.0
 11
75.73464887656418
 21
139.030378563861
 31
0.0
 70
    32
  1
<>
  3
AM_ISO
100
AcDbAlignedDimension
 13
66.37464887656418
 23
128.6938113892624
 33
0.0
 14
66.37464887656418
 24
116.1938113892624
 34
0.0
100
AcDbRotatedDimension
1001
ACAD_DIMASSOC_CALC_DIMLFAC
1040
-1.0
1001
ACAD
1000
DSTYLE
1002
{
1070
   144
1040
-1.0
1002
}
1001
AD_SKETCHDIM
1005
0
1000
d26
1001
ACAD_DIMASSOC_DIMLFAC
1040
-1.0
  0
DIMENSION
  5
A3
330
2
100
AcDbEntity
  8
AM_PARDIM
 60
     1
100
AcDbDimension
  2
*D9
 10
94.53257086951754
 20
116.1938113892624
 30
0.0
 11
91.52312205061988
 21
120.9438113892624
 31
0.0
 70
    32
  1
<>
  3
AM_ISO
100
AcDbAlignedDimension
 13
63.87464887656418
 23
125.6938113892624
 33
0.0
 14
82.53257086951753
 24
116.1938113892624
 34
0.0
 50
90.0
100
AcDbRotatedDimension
1001
ACAD_DIMASSOC_CALC_DIMLFAC
1040
-1.0
1001
ACAD
1000
DSTYLE
1002
{
1070
   144
1040
-1.0
1002
}
1001
AD_SKETCHDIM
1005
0
1000
d27
1001
ACAD_DIMASSOC_DIMLFAC
1040
-1.0
  0
DIMENSION
  5
B0
330
2
100
AcDbEntity
  8
AM_PARDIM
 60
     1
100
AcDbDimension
  2
*D10
 10
124.5325708695175
 20
116.1938113892624
 30
0.0
 11
121.5228070899899
 21
122.4438113892624
 31
0.0
 70
    32
  1
<>
  3
AM_ISO
100
AcDbAlignedDimension
 13
66.37464887656418
 23
128.6938113892624
 33
0.0
 14
82.53257086951753
 24
116.1938113892624
 34
0.0
 50
90.0
100
AcDbRotatedDimension
1001
ACAD_DIMASSOC_CALC_DIMLFAC
1040
-1.0
1001
ACAD
1000
DSTYLE
1002
{
1070
   144
1040
-1.0
1002
}
1001
AD_SKETCHDIM
1005
0
1000
d28
1001
ACAD_DIMASSOC_DIMLFAC
1040
-1.0
  0
LINE
  5
C8
330
2
100
AcDbEntity
  8
AM_7
 60
     1
100
AcDbLine
 10
36.3746488765642
 20
116.1938113892624
 30
0.0
 11
51.3746488765642
 21
116.1938113892624
 31
0.0
  0
MTEXT
  5
151
330
2
100
AcDbEntity
  8
AM_5
 62
     5
100
AcDbMText
 10
33.56078100938998
 20
98.94002315335121
 30
0.0
 40
3.5
 41
0.0
 71
     9
 72
     1
  1

  7
ACISOTS
1001
ACAD
1000
MTEXTBEGIN
1070
    73
1070
     1
1070
    44
1040
1.0
1070
    74
1070
     0
1000
MTEXTEND
  0
MTEXT
  5
156
330
2
100
AcDbEntity
  8
AM_5
 62
     5
100
AcDbMText
 10
67.11527269722637
 20
92.4148402526181
 30
0.0
 40
3.5
 41
0.0
 71
     9
 72
     1
  1

  7
ACISOTS
1001
ACAD
1000
MTEXTBEGIN
1070
    73
1070
     1
1070
    44
1040
1.0
1070
    74
1070
     0
1000
MTEXTEND
  0
CIRCLE
  5
124B
330
2
100
AcDbEntity
  8
LOGO
  6
CONTINUOUS
 62
     6
100
AcDbCircle
 10
597.8319593615772
 20
125.9161181707333
 30
0.0
 40
2.626478555640676
  0
TEXT
  5
124C
330
2
100
AcDbEntity
  8
LOGO
 62
     6
100
AcDbText
 10
596.242112246876
 20
132.691764563899
 30
0.0
 40
4.5235481972414
  1
1 : 1
  7
CHINESET
 72
     1
 11
604.2121733563012
 21
134.9535386625197
 31
0.0
100
AcDbText
 73
     2
  0
TEXT
  5
124D
330
2
100
AcDbEntity
  8
LOGO
 62
     6
100
AcDbText
 10
596.242112246876
 20
114.5975717749334
 30
0.0
 40
4.5235481972414
  1
m/m
  7
CHINESET
 72
     1
 11
604.2121733563012
 21
116.8593458735541
 31
0.0
100
AcDbText
 73
     2
  0
LINE
  5
124E
330
2
100
AcDbEntity
  8
LOGO
 62
     1
100
AcDbLine
 10
619.6130320595293
 20
121.3828940707955
 30
0.0
 11
553.2676584999888
 21
121.3828940707955
 31
0.0
  0
LINE
  5
124F
330
2
100
AcDbEntity
  8
LOGO
 62
     1
100
AcDbLine
 10
619.6130320595293
 20
130.4299904652783
 30
0.0
 11
553.2676584999888
 21
130.4299904652783
 31
0.0
  0
TEXT
  5
1250
330
2
100
AcDbEntity
  8
LOGO
  6
CONTINUOUS
 62
     5
100
AcDbText
 10
523.5185124751588
 20
96.34139536749106
 30
0.0
 40
4.5235481972414
  1
MINDMAN INDUSTRIAL CO.,LTD
 41
0.85
  7
CHINESET
100
AcDbText
  0
TEXT
  5
1251
330
2
100
AcDbEntity
  8
LOGO
  6
CONTINUOUS
 62
     5
100
AcDbText
 10
521.5756054212438
 20
103.1280470545333
 30
0.0
 40
6.7853222958621
  1
金器工業股份有限公司
 41
0.8
  7
LOGO
100
AcDbText
  0
LINE
  5
1252
330
2
100
AcDbEntity
  8
LOGO
 62
     1
100
AcDbLine
 10
619.6130320595293
 20
112.3357976763128
 30
0.0
 11
520.0949717202186
 21
112.3357976763128
 31
0.0
  0
LINE
  5
1256
330
2
100
AcDbEntity
  8
LOGO
 62
     1
100
AcDbLine
 10
854.7886558883794
 20
94.24160488734717
 30
0.0
 11
520.0949717202186
 21
94.24160488734717
 31
0.0
  0
LINE
  5
1257
330
2
100
AcDbEntity
  8
LOGO
 62
     1
100
AcDbLine
 10
854.7886558883794
 20
139.4770868597611
 30
0.0
 11
520.0949717202186
 21
139.4770868597611
 31
0.0
  0
LINE
  5
1258
330
2
100
AcDbEntity
  8
0
 62
     4
100
AcDbLine
 10
520.0949717202186
 20
399.8397566924968
 30
0.0
 11
854.7886558883794
 21
399.8397566924968
 31
0.0
  0
LINE
  5
1259
330
2
100
AcDbEntity
  8
0
 62
     4
100
AcDbLine
 10
854.7886558883794
 20
139.4770868597611
 30
0.0
 11
520.0949717202186
 21
139.4770868597611
 31
0.0
  0
LINE
  5
125A
330
2
100
AcDbEntity
  8
0
 62
     4
100
AcDbLine
 10
520.0949717202186
 20
139.4770868597611
 30
0.0
 11
520.0949717202186
 21
399.8397566924968
 31
0.0
  0
SOLID
  5
125B
330
2
100
AcDbEntity
  8
LOGO
 62
     5
100
AcDbTrace
 10
537.6699475251554
 20
121.3393112273879
 30
0.0
 11
539.6258110677377
 21
128.510810883524
 31
0.0
 12
546.97716024503
 22
138.4025345471602
 32
0.0
 13
545.0212967024474
 23
138.4025345471602
 33
0.0
  0
SOLID
  5
125C
330
2
100
AcDbEntity
  8
LOGO
 62
     5
100
AcDbTrace
 10
537.6699475251554
 20
138.4025345471589
 30
0.0
 11
539.6258110677377
 21
138.4025345471602
 31
0.0
 12
537.6699475251554
 22
121.3393112273879
 32
0.0
 13
539.6258110677377
 23
128.510810883524
 33
0.0
  0
POLYLINE
  5
125D
330
2
100
AcDbEntity
  8
LOGO
 62
     5
100
AcDb2dPolyline
 66
     1
 10
0.0
 20
0.0
 30
0.0
 40
0.6755165307880492
 41
0.6755165307880492
  0
VERTEX
  5
125E
330
125D
100
AcDbEntity
  8
LOGO
 62
     5
100
AcDbVertex
100
AcDb2dVertex
 10
539.7397932957548
 20
115.1345027474714
 30
0.0
 42
1.0
  0
VERTEX
  5
125F
330
125D
100
AcDbEntity
  8
LOGO
 62
     5
100
AcDbVertex
100
AcDb2dVertex
 10
537.7132437033906
 20
115.1345027474714
 30
0.0
 42
1.0
  0
SEQEND
  5
1260
330
125D
100
AcDbEntity
  8
LOGO
 62
     5
  0
SOLID
  5
1261
330
2
100
AcDbEntity
  8
LOGO
 62
     5
100
AcDbTrace
 10
537.3776470908956
 20
116.483374156149
 30
0.0
 11
538.0520827952339
 21
116.483374156149
 31
0.0
 12
537.3776470908956
 22
113.1111956344557
 32
0.0
 13
538.0520827952339
 23
113.1111956344557
 33
0.0
  0
SOLID
  5
1262
330
2
100
AcDbEntity
  8
LOGO
 62
     2
100
AcDbTrace
 10
536.8606246799483
 20
119.8555526778431
 30
0.0
 11
537.6699475251554
 21
119.8555526778431
 31
0.0
 12
546.97716024503
 22
138.4025345471602
 32
0.0
 13
547.7864830902369
 23
138.4025345471589
 33
0.0
  0
SOLID
  5
1263
330
2
100
AcDbEntity
  8
LOGO
 62
     5
100
AcDbTrace
 10
537.6699475251554
 20
119.8555526778431
 30
0.0
 11
539.6258110677377
 21
119.8555526778431
 31
0.0
 12
546.97716024503
 22
136.9187759976142
 32
0.0
 13
545.0212967024474
 23
129.747276341478
 33
0.0
  0
SOLID
  5
1264
330
2
100
AcDbEntity
  8
LOGO
 62
     2
100
AcDbTrace
 10
536.8606246799483
 20
138.4025345471589
 30
0.0
 11
537.6699475251554
 21
138.4025345471589
 31
0.0
 12
536.8606246799483
 22
119.8555526778431
 32
0.0
 13
537.6699475251554
 23
119.8555526778431
 33
0.0
  0
SOLID
  5
1265
330
2
100
AcDbEntity
  8
LOGO
 62
     5
100
AcDbTrace
 10
534.9047611373661
 20
119.8555526778431
 30
0.0
 11
536.8606246799483
 21
119.8555526778431
 31
0.0
 12
534.9047611373661
 22
129.747276341478
 32
0.0
 13
536.8606246799483
 23
136.9187759976142
 33
0.0
  0
LINE
  5
1266
330
2
100
AcDbEntity
  8
LOGO
 62
     1
100
AcDbLine
 10
520.0949717202186
 20
94.24160488734717
 30
0.0
 11
520.0949717202186
 21
139.4770868597611
 31
0.0
  0
SOLID
  5
1267
330
2
100
AcDbEntity
  8
LOGO
 62
     2
100
AcDbTrace
 10
526.7440891148661
 20
119.8555526778425
 30
0.0
 11
527.5534119600738
 21
119.8555526778431
 31
0.0
 12
536.8606246799483
 22
138.4025345471589
 32
0.0
 13
537.6699475251554
 23
138.4025345471589
 33
0.0
  0
SOLID
  5
1268
330
2
100
AcDbEntity
  8
LOGO
 62
     5
100
AcDbTrace
 10
527.5534119600738
 20
119.8555526778431
 30
0.0
 11
529.5092755026561
 21
119.8555526778431
 31
0.0
 12
536.8606246799483
 22
136.9187759976142
 32
0.0
 13
534.9047611373661
 23
129.747276341478
 33
0.0
  0
SOLID
  5
1269
330
2
100
AcDbEntity
  8
LOGO
 62
     5
100
AcDbTrace
 10
524.7882255722837
 20
119.8555526778431
 30
0.0
 11
526.7440891148661
 21
119.8555526778425
 31
0.0
 12
534.9047611373661
 22
138.4025345471602
 32
0.0
 13
536.8606246799483
 23
138.4025345471589
 33
0.0
  0
SOLID
  5
126A
330
2
100
AcDbEntity
  8
LOGO
 62
     5
100
AcDbTrace
 10
521.6524966770314
 20
113.1111956344557
 30
0.0
 11
522.3269323813708
 21
113.1111956344557
 31
0.0
 12
524.2261958186685
 22
116.483374156149
 32
0.0
 13
524.9006315230068
 23
116.483374156149
 33
0.0
  0
POLYLINE
  5
126B
330
2
100
AcDbEntity
  8
LOGO
 62
     5
100
AcDb2dPolyline
 66
     1
 10
0.0
 20
0.0
 30
0.0
 70
     1
 40
0.6755165307880492
 41
0.6755165307880492
  0
VERTEX
  5
126C
330
126B
100
AcDbEntity
  8
LOGO
 62
     5
100
AcDbVertex
100
AcDb2dVertex
 10
533.5537280757895
 20
114.797284895302
 30
0.0
 42
1.0
  0
VERTEX
  5
126D
330
126B
100
AcDbEntity
  8
LOGO
 62
     5
100
AcDbVertex
100
AcDb2dVertex
 10
536.2557941989417
 20
114.797284895302
 30
0.0
 42
1.0
  0
SEQEND
  5
126E
330
126B
100
AcDbEntity
  8
LOGO
 62
     5
  0
SOLID
  5
126F
330
2
100
AcDbEntity
  8
LOGO
 62
     5
100
AcDbTrace
 10
535.9163472503042
 20
117.4950277126576
 30
0.0
 11
536.5907829546424
 21
117.4950277126576
 31
0.0
 12
535.9163472503042
 22
113.1111956344557
 32
0.0
 13
536.5907829546424
 23
113.1111956344557
 33
0.0
  0
SOLID
  5
1270
330
2
100
AcDbEntity
  8
LOGO
 62
     5
100
AcDbTrace
 10
528.2726976387504
 20
116.483374156149
 30
0.0
 11
528.9471333430904
 21
116.483374156149
 31
0.0
 12
528.2726976387504
 22
113.1111956344543
 32
0.0
 13
528.9471333430904
 23
113.1111956344557
 33
0.0
  0
SOLID
  5
1271
330
2
100
AcDbEntity
  8
LOGO
 62
     5
100
AcDbTrace
 10
529.7339974793419
 20
116.483374156149
 30
0.0
 11
530.40843318368
 21
116.483374156149
 31
0.0
 12
529.7339974793419
 22
113.1111956344557
 32
0.0
 13
530.40843318368
 23
113.1111956344557
 33
0.0
  0
SOLID
  5
1272
330
2
100
AcDbEntity
  8
LOGO
 62
     5
100
AcDbTrace
 10
524.2261958186685
 20
113.1111956344557
 30
0.0
 11
524.9006315230068
 21
113.1111956344557
 31
0.0
 12
526.7998949603065
 22
116.483374156149
 32
0.0
 13
527.4743306646446
 23
116.483374156149
 33
0.0
  0
SOLID
  5
1273
330
2
100
AcDbEntity
  8
LOGO
 62
     5
100
AcDbTrace
 10
524.2261958186685
 20
116.483374156149
 30
0.0
 11
524.9006315230068
 21
116.483374156149
 31
0.0
 12
524.2261958186685
 22
113.1111956344557
 32
0.0
 13
524.9006315230068
 23
113.1111956344557
 33
0.0
  0
SOLID
  5
1274
330
2
100
AcDbEntity
  8
LOGO
 62
     5
100
AcDbTrace
 10
526.7998949603065
 20
116.483374156149
 30
0.0
 11
527.4743306646446
 21
116.483374156149
 31
0.0
 12
526.7998949603065
 22
113.1111956344557
 32
0.0
 13
527.4743306646446
 23
113.1111956344557
 33
0.0
  0
SOLID
  5
1275
330
2
100
AcDbEntity
  8
LOGO
 62
     5
100
AcDbTrace
 10
531.7573045923576
 20
115.1345027474714
 30
0.0
 11
532.4317402966969
 21
115.1345027474714
 31
0.0
 12
531.7573045923576
 22
113.1111956344557
 32
0.0
 13
532.4317402966969
 23
113.1111956344557
 33
0.0
  0
POLYLINE
  5
1276
330
2
100
AcDbEntity
  8
LOGO
 62
     5
100
AcDb2dPolyline
 66
     1
 10
0.0
 20
0.0
 30
0.0
 40
0.6755165307880492
 41
0.6755165307880492
  0
VERTEX
  5
1277
330
1276
100
AcDbEntity
  8
LOGO
 62
     5
100
AcDbVertex
100
AcDb2dVertex
 10
532.0961436842011
 20
115.1345027474714
 30
0.0
 42
1.0
  0
VERTEX
  5
1278
330
1276
100
AcDbEntity
  8
LOGO
 62
     5
100
AcDbVertex
100
AcDb2dVertex
 10
530.0695940918368
 20
115.1345027474714
 30
0.0
 42
1.0
  0
SEQEND
  5
1279
330
1276
100
AcDbEntity
  8
LOGO
 62
     5
  0
SOLID
  5
127A
330
2
100
AcDbEntity
  8
LOGO
 62
     5
100
AcDbTrace
 10
528.2726976387504
 20
116.9554791491859
 30
0.0
 11
528.9471333430904
 21
116.9554791491859
 31
0.0
 12
528.2726976387504
 22
117.4950277126576
 32
0.0
 13
528.9471333430904
 23
117.4950277126576
 33
0.0
  0
LINE
  5
127B
330
2
100
AcDbEntity
  8
LOGO
 62
     1
100
AcDbLine
 10
589.45604407792
 20
112.3357976763127
 30
0.0
 11
589.45604407792
 21
139.4770868597611
 31
0.0
  0
LINE
  5
127C
330
2
100
AcDbEntity
  8
LOGO
 62
     1
100
AcDbLine
 10
553.2676584999888
 20
112.3357976763127
 30
0.0
 11
553.2676584999888
 21
139.4770868597611
 31
0.0
  0
SOLID
  5
127D
330
2
100
AcDbEntity
  8
LOGO
 62
     2
100
AcDbTrace
 10
546.97716024503
 20
138.4025345471602
 30
0.0
 11
547.7864830902369
 21
138.4025345471589
 31
0.0
 12
546.97716024503
 22
119.8555526778425
 32
0.0
 13
547.7864830902369
 23
119.8555526778425
 33
0.0
  0
SOLID
  5
127E
330
2
100
AcDbEntity
  8
LOGO
 62
     5
100
AcDbTrace
 10
546.97716024503
 20
136.9187759976142
 30
0.0
 11
545.0212967024474
 21
129.747276341478
 31
0.0
 12
546.97716024503
 22
119.8555526778425
 32
0.0
 13
545.0212967024474
 23
119.8555526778425
 33
0.0
  0
SOLID
  5
127F
330
2
100
AcDbEntity
  8
LOGO
 62
     5
100
AcDbTrace
 10
547.7864830902369
 20
119.8555526778425
 30
0.0
 11
549.7423466328192
 21
119.8555526778425
 31
0.0
 12
547.7864830902369
 22
138.4025345471589
 32
0.0
 13
549.7423466328192
 23
138.4025345471602
 33
0.0
  0
TEXT
  5
1280
330
2
100
AcDbEntity
  8
LOGO
 62
     6
100
AcDbText
 10
559.0210463633553
 20
114.5975717749334
 30
0.0
 40
4.5235481972414
  1
單位 Unit:
 41
0.9
  7
CHINESET
 72
     4
 11
571.3618512889545
 21
116.8593458735541
 31
0.0
100
AcDbText
  0
CIRCLE
  5
1281
330
2
100
AcDbEntity
  8
LOGO
 62
     5
100
AcDbCircle
 10
544.5717178619356
 20
114.7972848953024
 30
0.0
 40
1.011653556508182
  0
POLYLINE
  5
1282
330
2
100
AcDbEntity
  8
LOGO
 62
     5
100
AcDb2dPolyline
 66
     1
 10
0.0
 20
0.0
 30
0.0
 70
     1
  0
VERTEX
  5
1283
330
1282
100
AcDbEntity
  8
LOGO
 62
     5
100
AcDbVertex
100
AcDb2dVertex
 10
543.5600643054272
 20
114.7972848953024
 30
0.0
 42
1.000000057330635
  0
VERTEX
  5
1284
330
1282
100
AcDbEntity
  8
LOGO
 62
     5
100
AcDbVertex
100
AcDb2dVertex
 10
545.5833714184441
 20
114.7972848953024
 30
0.0
 42
1.000000057330635
  0
SEQEND
  5
1285
330
1282
100
AcDbEntity
  8
LOGO
 62
     5
  0
SOLID
  5
1286
330
2
100
AcDbEntity
  8
LOGO
 62
     5
100
AcDbTrace
 10
549.0679109284811
 20
115.1345027474714
 30
0.0
 11
549.7423466328192
 21
115.1345027474713
 31
0.0
 12
549.0679109284811
 22
113.1111956344557
 32
0.0
 13
549.7423466328192
 23
113.1111956344557
 33
0.0
  0
SOLID
  5
1287
330
2
100
AcDbEntity
  8
LOGO
 62
     5
100
AcDbTrace
 10
547.044603815464
 20
113.1111956344557
 30
0.0
 11
547.7190395198034
 21
113.1111956344557
 31
0.0
 12
547.044603815464
 22
116.483374156149
 32
0.0
 13
547.7190395198034
 23
116.483374156149
 33
0.0
  0
SOLID
  5
1288
330
2
100
AcDbEntity
  8
LOGO
 62
     5
100
AcDbTrace
 10
545.5833039748745
 20
116.483374156149
 30
0.0
 11
546.2577396792128
 21
116.483374156149
 31
0.0
 12
545.5833039748745
 22
113.1111956344557
 32
0.0
 13
546.2577396792128
 23
113.1111956344557
 33
0.0
  0
LINE
  5
1289
330
2
100
AcDbEntity
  8
LOGO
 62
     5
100
AcDbLine
 10
549.7423466328192
 20
113.1111956344557
 30
0.0
 11
549.7423466328192
 21
115.1345027474714
 31
0.0
  0
POLYLINE
  5
128A
330
2
100
AcDbEntity
  8
LOGO
 62
     5
100
AcDb2dPolyline
 66
     1
 10
0.0
 20
0.0
 30
0.0
 70
     1
 40
0.6755165307880492
 41
0.6755165307880492
  0
VERTEX
  5
128B
330
128A
100
AcDbEntity
  8
LOGO
 62
     5
100
AcDbVertex
100
AcDb2dVertex
 10
543.220684800359
 20
114.797284895302
 30
0.0
 42
1.0
  0
VERTEX
  5
128C
330
128A
100
AcDbEntity
  8
LOGO
 62
     5
100
AcDbVertex
100
AcDb2dVertex
 10
545.9227509235113
 20
114.797284895302
 30
0.0
 42
1.0
  0
SEQEND
  5
128D
330
128A
100
AcDbEntity
  8
LOGO
 62
     5
  0
SOLID
  5
128E
330
2
100
AcDbEntity
  8
LOGO
 62
     5
100
AcDbTrace
 10
539.4009542039115
 20
115.1345027474714
 30
0.0
 11
540.0753899082497
 21
115.1345027474714
 31
0.0
 12
539.4009542039115
 22
113.1111956344557
 32
0.0
 13
540.0753899082497
 23
113.1111956344557
 33
0.0
  0
SOLID
  5
128F
330
2
100
AcDbEntity
  8
LOGO
 62
     5
100
AcDbTrace
 10
541.4242613169274
 20
115.1345027474714
 30
0.0
 11
542.0986970212656
 21
115.1345027474714
 31
0.0
 12
541.4242613169274
 22
113.1111956344543
 32
0.0
 13
542.0986970212656
 23
113.1111956344543
 33
0.0
  0
POLYLINE
  5
1290
330
2
100
AcDbEntity
  8
LOGO
 62
     5
100
AcDb2dPolyline
 66
     1
 10
0.0
 20
0.0
 30
0.0
 40
0.6755165307880492
 41
0.6755165307880492
  0
VERTEX
  5
1291
330
1290
100
AcDbEntity
  8
LOGO
 62
     5
100
AcDbVertex
100
AcDb2dVertex
 10
541.7631004087707
 20
115.1345027474714
 30
0.0
 42
1.0
  0
VERTEX
  5
1292
330
1290
100
AcDbEntity
  8
LOGO
 62
     5
100
AcDbVertex
100
AcDb2dVertex
 10
539.7365508164064
 20
115.1345027474714
 30
0.0
 42
1.0
  0
SEQEND
  5
1293
330
1290
100
AcDbEntity
  8
LOGO
 62
     5
  0
POLYLINE
  5
1294
330
2
100
AcDbEntity
  8
LOGO
 62
     5
100
AcDb2dPolyline
 66
     1
 10
0.0
 20
0.0
 30
0.0
 40
0.6755165307880492
 41
0.6755165307880492
  0
VERTEX
  5
1295
330
1294
100
AcDbEntity
  8
LOGO
 62
     5
100
AcDbVertex
100
AcDb2dVertex
 10
549.4067500203244
 20
115.1345027474714
 30
0.0
 42
1.0
  0
VERTEX
  5
1296
330
1294
100
AcDbEntity
  8
LOGO
 62
     5
100
AcDbVertex
100
AcDb2dVertex
 10
547.3802004279603
 20
115.1345027474714
 30
0.0
 42
1.0
  0
SEQEND
  5
1297
330
1294
100
AcDbEntity
  8
LOGO
 62
     5
  0
TEXT
  5
1298
330
2
100
AcDbEntity
  8
LOGO
 62
     6
100
AcDbText
 10
558.5787887494286
 20
123.7082991172367
 30
0.0
 40
4.5235481972414
  1
投影 View:
 41
0.9
  7
CHINESET
 72
     4
 11
571.3618512889545
 21
125.9064422680369
 31
0.0
100
AcDbText
  0
TEXT
  5
1299
330
2
100
AcDbEntity
  8
LOGO
 62
     6
100
AcDbText
 10
556.9975663215536
 20
132.6939907195079
 30
0.0
 40
4.5235481972414
  1
比例 Scale:
 41
0.9
  7
CHINESET
 72
     4
 11
571.3618512889545
 21
134.9535386625197
 31
0.0
100
AcDbText
  0
CIRCLE
  5
129A
330
2
100
AcDbEntity
  8
LOGO
  6
CONTINUOUS
 62
     6
100
AcDbCircle
 10
597.8319593615772
 20
125.9161181707333
 30
0.0
 40
1.53888392461395
  0
LINE
  5
12BA
330
2
100
AcDbEntity
  8
0
 62
     4
100
AcDbLine
 10
854.7886558883794
 20
399.8397566924968
 30
0.0
 11
854.7886558883794
 21
139.4770868597611
 31
0.0
  0
LINE
  5
12BB
330
2
100
AcDbEntity
  8
LOGO
 62
     6
100
AcDbLine
 10
848.7861648373225
 20
98.0112283850485
 30
0.0
 11
808.6049009253333
 21
98.01122838504845
 31
0.0
  0
LINE
  5
12BC
330
2
100
AcDbEntity
  8
LOGO
 62
     6
100
AcDbLine
 10
848.7861648373225
 20
114.5976348705902
 30
0.0
 11
808.6049009253333
 21
114.5976348705902
 31
0.0
  0
LINE
  5
12BD
330
2
100
AcDbEntity
  8
LOGO
 62
     6
100
AcDbLine
 10
848.7861648373225
 20
121.3829361345667
 30
0.0
 11
808.6049009253333
 21
121.3829361345667
 31
0.0
  0
LINE
  5
12BE
330
2
100
AcDbEntity
  8
LOGO
 62
     6
100
AcDbLine
 10
848.7861648373225
 20
134.95353866252
 30
0.0
 11
808.6049009253333
 21
134.9535386625198
 31
0.0
  0
LINE
  5
12BF
330
2
100
AcDbEntity
  8
LOGO
 62
     6
100
AcDbLine
 10
764.704053799171
 20
121.3829361345666
 30
0.0
 11
720.5995955833235
 21
121.3829361345667
 31
0.0
  0
LINE
  5
12C0
330
2
100
AcDbEntity
  8
LOGO
 62
     6
100
AcDbLine
 10
764.704053799171
 20
134.95353866252
 30
0.0
 11
720.5995955833235
 21
134.9535386625197
 31
0.0
  0
LINE
  5
12C1
330
2
100
AcDbEntity
  8
LOGO
 62
     6
100
AcDbLine
 10
764.704053799171
 20
98.01122838504845
 30
0.0
 11
720.5995955833235
 21
98.01122838504845
 31
0.0
  0
LINE
  5
12C2
330
2
100
AcDbEntity
  8
LOGO
 62
     6
100
AcDbLine
 10
764.704053799171
 20
114.5976348705901
 30
0.0
 11
720.5995955833235
 21
114.5976348705901
 31
0.0
  0
TEXT
  5
12C3
330
2
100
AcDbEntity
  8
LOGO
 62
     6
100
AcDbText
 10
722.2600198344289
 20
99.89604597608943
 30
0.0
 40
3.769611813320298
  1
Rotating direction
 41
0.8
  7
ROMANS1
 72
     1
 11
742.6518246912472
 21
101.7808518827495
 31
0.0
100
AcDbText
 73
     2
  0
TEXT
  5
12C4
330
2
100
AcDbEntity
  8
LOGO
 62
     7
100
AcDbText
 10
622.233694772456
 20
119.6601919551472
 30
0.0
 40
6.031397596321867
  1
Order example:
 41
0.8
  7
CHINESET
100
AcDbText
  0
LINE
  5
12C5
330
2
100
AcDbEntity
  8
LOGO
 62
     1
100
AcDbLine
 10
619.6130320595293
 20
94.24160488734717
 30
0.0
 11
619.6130320595293
 21
139.4770868597611
 31
0.0
  0
TEXT
  5
12C6
330
2
100
AcDbEntity
  8
LOGO
 62
     7
100
AcDbText
 10
623.315777378865
 20
128.1511509539613
 30
0.0
 40
9.047096394482801
  1
訂購代號:
  7
CHINESET
100
AcDbText
  0
LINE
  5
12C7
330
2
100
AcDbEntity
  8
LOGO
 62
     6
100
AcDbLine
 10
614.3370553689071
 20
123.2896396150926
 30
0.0
 11
614.3370553689071
 21
128.542596726374
 31
0.0
  0
LINE
  5
12C8
330
2
100
AcDbEntity
  8
LOGO
  6
CONTINUOUS
 62
     6
100
AcDbLine
 10
606.1031958640365
 20
127.4550020953473
 30
0.0
 11
614.3370553689071
 21
128.542596726374
 31
0.0
  0
LINE
  5
12C9
330
2
100
AcDbEntity
  8
LOGO
  6
CONTINUOUS
 62
     6
100
AcDbLine
 10
606.1031958640365
 20
124.3772342461194
 30
0.0
 11
614.3370553689071
 21
123.2896396150926
 31
0.0
  0
LINE
  5
12CA
330
2
100
AcDbEntity
  8
LOGO
 62
     6
100
AcDbLine
 10
606.1031958640365
 20
124.3772342461193
 30
0.0
 11
606.1031958640365
 21
127.4550020953473
 31
0.0
  0
LINE
  5
12CB
330
2
100
AcDbEntity
  8
LOGO
 62
     6
100
AcDbLine
 10
699.9266226489423
 20
121.3828940707955
 30
0.0
 11
699.9266226489423
 21
114.5975717749334
 31
0.0
  0
TEXT
  5
12CC
330
2
100
AcDbEntity
  8
LOGO
  6
CONTINUOUS
 62
     6
100
AcDbText
 10
692.7463874152257
 20
99.89604013389891
 30
0.0
 40
3.769623497701167
  1
Model
  7
CHINESET
 72
     4
 11
699.9266226489423
 21
101.7808518827494
 31
0.0
100
AcDbText
  0
TEXT
  5
12CD
330
2
100
AcDbEntity
  8
LOGO
 62
     6
100
AcDbText
 10
693.8952250526203
 20
106.4587468688731
 30
0.0
 40
6.031397596321867
  1
型式
  7
CHINESET
 72
     4
 11
699.9266226489423
 21
109.3200988781518
 31
0.0
100
AcDbText
  0
LINE
  5
12CE
330
2
100
AcDbEntity
  8
LOGO
 62
     6
100
AcDbLine
 10
715.0051166397469
 20
98.01122838504831
 30
0.0
 11
684.8481286581376
 21
98.01122838504831
 31
0.0
  0
LINE
  5
12CF
330
2
100
AcDbEntity
  8
LOGO
 62
     6
100
AcDbLine
 10
715.0051166397469
 20
114.5975717749334
 30
0.0
 11
684.8481286581376
 21
114.5975717749334
 31
0.0
  0
LINE
  5
12D0
330
2
100
AcDbEntity
  8
LOGO
 62
     6
100
AcDbLine
 10
684.8481286581376
 20
114.5975717749334
 30
0.0
 11
684.8481286581376
 21
98.01122838504831
 31
0.0
  0
LINE
  5
12D1
330
2
100
AcDbEntity
  8
LOGO
 62
     6
100
AcDbLine
 10
720.5995955833235
 20
114.5976348705901
 30
0.0
 11
720.5995955833235
 21
98.01122838504845
 31
0.0
  0
LINE
  5
12D2
330
2
100
AcDbEntity
  8
LOGO
 62
     6
100
AcDbLine
 10
715.0051166397469
 20
114.5975717749334
 30
0.0
 11
715.0051166397469
 21
98.01122838504833
 31
0.0
  0
TEXT
  5
12D3
330
2
100
AcDbEntity
  8
LOGO
  6
CONTINUOUS
 62
     7
100
AcDbText
 10
685.5661521815092
 20
124.3985928689565
 30
0.0
 40
7.539246995402335
  1
MASD
  7
CHINESET
 72
     1
 11
699.9266226489423
 21
128.1682163666576
 31
0.0
100
AcDbText
 73
     2
  0
LINE
  5
12D4
330
2
100
AcDbEntity
  8
LOGO
 62
     6
100
AcDbLine
 10
718.0208154379077
 20
121.3828940707955
 30
0.0
 11
681.8324298599766
 21
121.3828940707955
 31
0.0
  0
LINE
  5
12D5
330
2
100
AcDbEntity
  8
LOGO
 62
     6
100
AcDbLine
 10
718.0208154379077
 20
134.9535386625197
 30
0.0
 11
681.8324298599766
 21
134.9535386625197
 31
0.0
  0
LINE
  5
12D6
330
2
100
AcDbEntity
  8
LOGO
 62
     6
100
AcDbLine
 10
681.8324298599766
 20
134.9535386625197
 30
0.0
 11
681.8324298599766
 21
121.3828940707955
 31
0.0
  0
LINE
  5
12D7
330
2
100
AcDbEntity
  8
LOGO
 62
     6
100
AcDbLine
 10
720.5995955833234
 20
134.9535386625197
 30
0.0
 11
720.5995955833235
 21
121.3829361345667
 31
0.0
  0
LINE
  5
12D8
330
2
100
AcDbEntity
  8
LOGO
 62
     6
100
AcDbLine
 10
720.5995955833235
 20
134.9535386625197
 30
0.0
 11
720.5995955833234
 21
121.3828940707955
 31
0.0
  0
LINE
  5
12D9
330
2
100
AcDbEntity
  8
LOGO
 62
     6
100
AcDbLine
 10
718.0208154379079
 20
134.9535386625197
 30
0.0
 11
718.0208154379079
 21
121.3828940707955
 31
0.0
  0
TEXT
  5
12DA
330
2
100
AcDbEntity
  8
LOGO
  6
CONTINUOUS
 62
     6
100
AcDbText
 10
782.2309005197748
 20
99.896040133899
 30
0.0
 40
3.769623497701167
  1
Bore
 41
0.8
  7
CHINESET
 72
     4
 11
786.8980534216906
 21
101.7808518827495
 31
0.0
100
AcDbText
  0
TEXT
  5
12DB
330
2
100
AcDbEntity
  8
LOGO
 62
     6
100
AcDbText
 10
781.1305294702078
 20
106.3044000799909
 30
0.0
 40
6.031397596321867
  1
內徑
 41
0.9
  7
CHINESET
 72
     4
 11
786.8980534216906
 21
109.3200988781519
 31
0.0
100
AcDbText
  0
LINE
  5
12DC
330
2
100
AcDbEntity
  8
LOGO
 62
     6
100
AcDbLine
 10
799.0026190713025
 20
98.01122838504845
 30
0.0
 11
774.7934877720787
 21
98.01122838504838
 31
0.0
  0
LINE
  5
12DD
330
2
100
AcDbEntity
  8
LOGO
 62
     6
100
AcDbLine
 10
799.0026190713025
 20
114.5975717749335
 30
0.0
 11
774.7934877720787
 21
114.5975717749335
 31
0.0
  0
TEXT
  5
12DE
330
2
100
AcDbEntity
  8
LOGO
  6
CONTINUOUS
 62
     7
100
AcDbText
 10
781.4985167201328
 20
124.3130973329598
 30
0.0
 40
7.539246995402335
  1
32
  7
CHINESET
 72
     1
 11
787.6017166687918
 21
128.082720830661
 31
0.0
100
AcDbText
 73
     2
  0
LINE
  5
12DF
330
2
100
AcDbEntity
  8
LOGO
 62
     6
100
AcDbLine
 10
799.0026190713025
 20
121.3828940707956
 30
0.0
 11
774.7934877720787
 21
121.3828940707956
 31
0.0
  0
LINE
  5
12E0
330
2
100
AcDbEntity
  8
LOGO
 62
     6
100
AcDbLine
 10
799.0026190713025
 20
134.9535386625199
 30
0.0
 11
774.7934877720787
 21
134.9535386625198
 31
0.0
  0
LINE
  5
12E1
330
2
100
AcDbEntity
  8
LOGO
 62
     6
100
AcDbLine
 10
742.6518246912471
 20
121.3829361345667
 30
0.0
 11
742.6518246912471
 21
114.5976348705901
 31
0.0
  0
TEXT
  5
12E2
330
2
100
AcDbEntity
  8
LOGO
 62
     6
100
AcDbText
 10
732.02148642773
 20
106.4866974892958
 30
0.0
 40
6.031397596321867
  1
旋轉方向
 41
0.9
  7
CHINESET
 72
     4
 11
742.6518246912472
 21
109.3200988781519
 31
0.0
100
AcDbText
  0
LINE
  5
12E3
330
2
100
AcDbEntity
  8
LOGO
 62
     6
100
AcDbLine
 10
774.7934877720787
 20
114.5975717749335
 30
0.0
 11
774.7934877720787
 21
98.01122838504845
 31
0.0
  0
LINE
  5
12E4
330
2
100
AcDbEntity
  8
LOGO
 62
     6
100
AcDbLine
 10
764.704053799171
 20
114.5976348705901
 30
0.0
 11
764.704053799171
 21
98.01122838504845
 31
0.0
  0
LINE
  5
12E5
330
2
100
AcDbEntity
  8
LOGO
 62
     6
100
AcDbLine
 10
774.7934877720787
 20
134.9535386625198
 30
0.0
 11
774.7934877720787
 21
121.3828940707956
 31
0.0
  0
LINE
  5
12E6
330
2
100
AcDbEntity
  8
LOGO
 62
     6
100
AcDbLine
 10
764.704053799171
 20
134.9535386625198
 30
0.0
 11
764.704053799171
 21
121.3829361345667
 31
0.0
  0
LINE
  5
12E7
330
2
100
AcDbEntity
  8
LOGO
  6
CONTINUOUS
 62
     7
100
AcDbLine
 10
766.6771346443632
 20
128.120146998845
 30
0.0
 11
772.6694361252504
 21
128.120146998845
 31
0.0
  0
LINE
  5
12E8
330
2
100
AcDbEntity
  8
LOGO
 62
     6
100
AcDbLine
 10
786.8980530740039
 20
121.3828940707956
 30
0.0
 11
786.8980530740039
 21
114.5975717749335
 31
0.0
  0
LINE
  5
12E9
330
2
100
AcDbEntity
  8
LOGO
 62
     6
100
AcDbLine
 10
829.1314435067711
 20
121.3829361345667
 30
0.0
 11
829.1314435067711
 21
114.5976348705902
 31
0.0
  0
TEXT
  5
12EA
330
2
100
AcDbEntity
  8
LOGO
 62
     6
100
AcDbText
 10
812.3297451388292
 20
99.89604597608943
 30
0.0
 40
3.769611813320298
  1
Rotating angle
 41
0.8
  7
ROMANS1
 72
     1
 11
829.1314435067711
 21
101.7808518827495
 31
0.0
100
AcDbText
 73
     2
  0
LINE
  5
12EB
330
2
100
AcDbEntity
  8
LOGO
 62
     6
100
AcDbLine
 10
799.0026190713025
 20
114.5975717749335
 30
0.0
 11
799.0026190713025
 21
98.01122838504847
 31
0.0
  0
LINE
  5
12EC
330
2
100
AcDbEntity
  8
LOGO
 62
     6
100
AcDbLine
 10
808.6049009253333
 20
114.5976348705902
 30
0.0
 11
808.6049009253333
 21
98.01122838504845
 31
0.0
  0
TEXT
  5
12ED
330
2
100
AcDbEntity
  8
LOGO
 62
     6
100
AcDbText
 10
818.3314721858572
 20
106.4926339042528
 30
0.0
 40
6.031397596321867
  1
旋轉角度
 41
0.9
  7
CHINESET
 72
     4
 11
829.1314435067711
 21
109.3200988781519
 31
0.0
100
AcDbText
  0
LINE
  5
12EE
330
2
100
AcDbEntity
  8
LOGO
 62
     6
100
AcDbLine
 10
799.0026190713025
 20
134.9535386625199
 30
0.0
 11
799.0026190713025
 21
121.3828940707956
 31
0.0
  0
LINE
  5
12EF
330
2
100
AcDbEntity
  8
LOGO
 62
     6
100
AcDbLine
 10
808.6049009253333
 20
134.9535386625198
 30
0.0
 11
808.6049009253333
 21
121.3829361345667
 31
0.0
  0
LINE
  5
12F0
330
2
100
AcDbEntity
  8
LOGO
  6
CONTINUOUS
 62
     7
100
AcDbLine
 10
800.8579007742977
 20
128.1201469988451
 30
0.0
 11
806.8502022551847
 21
128.1201469988451
 31
0.0
  0
LINE
  5
1309
330
2
100
AcDbEntity
  8
LOGO
 62
     1
100
AcDbLine
 10
854.7886558883794
 20
94.24160488734717
 30
0.0
 11
854.7886558883794
 21
139.4770868597611
 31
0.0
  0
LINE
  5
130A
330
2
100
AcDbEntity
  8
LOGO
 62
     6
100
AcDbLine
 10
848.7861648373225
 20
114.5976348705902
 30
0.0
 11
848.7861648373225
 21
98.0112283850485
 31
0.0
  0
LINE
  5
130B
330
2
100
AcDbEntity
  8
LOGO
 62
     6
100
AcDbLine
 10
848.7861648373225
 20
134.9535386625199
 30
0.0
 11
848.7861648373225
 21
121.3829361345667
 31
0.0
  0
LINE
  5
1E45
102
{ACAD_REACTORS
330
216F
330
21A7
330
21DF
330
224F
102
}
330
2
100
AcDbEntity
  8
0
100
AcDbLine
 10
596.8456865305388
 20
154.6882746016988
 30
0.0
 11
648.8456865305388
 21
154.6882746016988
 31
0.0
  0
ARC
  5
1E46
330
2
100
AcDbEntity
  8
0
100
AcDbCircle
 10
622.8456865305388
 20
355.412477302911
 30
0.0
 40
25.0
100
AcDbArc
 50
203.3179570000011
 51
337.6663173421947
  0
LINE
  5
1E47
102
{ACAD_REACTORS
330
21A7
102
}
330
2
100
AcDbEntity
  8
0
100
AcDbLine
 10
599.8456865305388
 20
225.6882746016988
 30
0.0
 11
645.8456865305388
 21
225.6882746016988
 31
0.0
  0
LINE
  5
1E48
102
{ACAD_REACTORS
330
216F
102
}
330
2
100
AcDbEntity
  8
0
100
AcDbLine
 10
596.3456865305388
 20
177.6882746016988
 30
0.0
 11
649.3456865305388
 21
177.6882746016988
 31
0.0
  0
LINE
  5
1E49
330
2
100
AcDbEntity
  8
0
100
AcDbLine
 10
647.8456865305388
 20
328.412477302911
 30
0.0
 11
597.8456865305388
 21
328.412477302911
 31
0.0
  0
LINE
  5
1E4A
330
2
100
AcDbEntity
  8
0
100
AcDbLine
 10
597.8456865305388
 20
382.4124773029111
 30
0.0
 11
647.8456865305388
 21
382.4124773029111
 31
0.0
  0
LINE
  5
1E4B
330
2
100
AcDbEntity
  8
0
100
AcDbLine
 10
614.8456865305388
 20
257.1882746016988
 30
0.0
 11
614.8456865305388
 21
225.6882746016988
 31
0.0
  0
LINE
  5
1E4C
330
2
100
AcDbEntity
  8
0
100
AcDbLine
 10
630.8456865305388
 20
257.1882746016988
 30
0.0
 11
630.8456865305388
 21
225.6882746016988
 31
0.0
  0
LINE
  5
1E4D
330
2
100
AcDbEntity
  8
CENTER
100
AcDbLine
 10
622.8456865305388
 20
278.5464336297454
 30
0.0
 11
622.8456865305388
 21
152.8170466016988
 31
0.0
  0
LINE
  5
1E4E
330
2
100
AcDbEntity
  8
0
100
AcDbLine
 10
595.8456865305388
 20
177.1882746016988
 30
0.0
 11
595.8456865305388
 21
155.6882746016988
 31
0.0
  0
LINE
  5
1E4F
330
2
100
AcDbEntity
  8
0
100
AcDbLine
 10
595.8456865305388
 20
155.6882746016988
 30
0.0
 11
596.8456865305388
 21
154.6882746016988
 31
0.0
  0
LINE
  5
1E50
330
2
100
AcDbEntity
  8
0
100
AcDbLine
 10
597.8456865305388
 20
223.6882746016988
 30
0.0
 11
597.8456865305388
 21
177.6882746016988
 31
0.0
  0
LINE
  5
1E53
330
2
100
AcDbEntity
  8
0
100
AcDbLine
 10
596.3456865305388
 20
177.6882746016988
 30
0.0
 11
595.8456865305388
 21
177.1882746016988
 31
0.0
  0
LINE
  5
1E57
330
2
100
AcDbEntity
  8
0
100
AcDbLine
 10
599.8456865305388
 20
225.6882746016988
 30
0.0
 11
597.8456865305388
 21
223.6882746016988
 31
0.0
  0
LINE
  5
1E5B
330
2
100
AcDbEntity
  8
CENTER
100
AcDbLine
 10
622.8456865305388
 20
385.4124773029111
 30
0.0
 11
622.8456865305388
 21
325.412477302911
 31
0.0
  0
LINE
  5
1E71
102
{ACAD_REACTORS
330
2137
102
}
330
2
100
AcDbEntity
  8
0
100
AcDbLine
 10
595.8456865305388
 20
330.412477302911
 30
0.0
 11
595.8456865305388
 21
345.912477302911
 31
0.0
  0
CIRCLE
  5
1E72
330
2
100
AcDbEntity
  8
0
100
AcDbCircle
 10
600.8456865305388
 20
333.412477302911
 30
0.0
 40
3.25
  0
LINE
  5
1E73
330
2
100
AcDbEntity
  8
0
100
AcDbLine
 10
595.8456865305388
 20
330.412477302911
 30
0.0
 11
597.8456865305388
 21
328.412477302911
 31
0.0
  0
LINE
  5
1E7B
330
2
100
AcDbEntity
  8
0
100
AcDbLine
 10
595.8456865305388
 20
364.912477302911
 30
0.0
 11
595.8456865305388
 21
380.4124773029111
 31
0.0
  0
CIRCLE
  5
1E7C
330
2
100
AcDbEntity
  8
0
100
AcDbCircle
 10
600.8456865305388
 20
377.412477302911
 30
0.0
 40
3.25
  0
LINE
  5
1E7D
330
2
100
AcDbEntity
  8
0
100
AcDbLine
 10
595.8456865305388
 20
380.4124773029111
 30
0.0
 11
597.8456865305388
 21
382.4124773029111
 31
0.0
  0
LINE
  5
1E80
330
2
100
AcDbEntity
  8
0
100
AcDbLine
 10
649.8456865305388
 20
177.1882746016988
 30
0.0
 11
649.8456865305388
 21
155.6882746016988
 31
0.0
  0
LINE
  5
1E81
330
2
100
AcDbEntity
  8
0
100
AcDbLine
 10
648.8456865305388
 20
154.6882746016988
 30
0.0
 11
649.8456865305388
 21
155.6882746016988
 31
0.0
  0
LINE
  5
1E82
330
2
100
AcDbEntity
  8
0
100
AcDbLine
 10
647.8456865305388
 20
223.6882746016988
 30
0.0
 11
647.8456865305388
 21
177.6882746016988
 31
0.0
  0
LINE
  5
1E83
330
2
100
AcDbEntity
  8
0
100
AcDbLine
 10
649.8456865305388
 20
177.1882746016988
 30
0.0
 11
649.3456865305388
 21
177.6882746016988
 31
0.0
  0
LINE
  5
1E84
330
2
100
AcDbEntity
  8
0
100
AcDbLine
 10
647.8456865305388
 20
223.6882746016988
 30
0.0
 11
645.8456865305388
 21
225.6882746016988
 31
0.0
  0
LINE
  5
1E85
330
2
100
AcDbEntity
  8
0
100
AcDbLine
 10
649.8456865305388
 20
380.4124773029111
 30
0.0
 11
649.845686530539
 21
364.912477302911
 31
0.0
  0
CIRCLE
  5
1E86
330
2
100
AcDbEntity
  8
0
100
AcDbCircle
 10
644.8456865305388
 20
333.412477302911
 30
0.0
 40
3.25
  0
LINE
  5
1E87
330
2
100
AcDbEntity
  8
0
100
AcDbLine
 10
649.8456865305388
 20
330.412477302911
 30
0.0
 11
647.8456865305388
 21
328.412477302911
 31
0.0
  0
CIRCLE
  5
1E88
330
2
100
AcDbEntity
  8
0
100
AcDbCircle
 10
644.8456865305388
 20
377.412477302911
 30
0.0
 40
3.25
  0
LINE
  5
1E89
330
2
100
AcDbEntity
  8
0
100
AcDbLine
 10
647.8456865305388
 20
382.4124773029111
 30
0.0
 11
649.8456865305388
 21
380.4124773029111
 31
0.0
  0
LINE
  5
1EBD
330
2
100
AcDbEntity
  8
AM_7
  6
AM_ISO08W050X2
100
AcDbLine
 10
600.8456865305388
 20
333.412477302911
 30
0.0
 11
605.5956865305388
 21
333.412477302911
 31
0.0
1001
GENIUS_GENOREF_13
1005
1EC1
  0
LINE
  5
1EBE
330
2
100
AcDbEntity
  8
AM_7
  6
AM_ISO08W050X2
100
AcDbLine
 10
600.8456865305388
 20
333.412477302911
 30
0.0
 11
600.8456865305388
 21
338.162477302911
 31
0.0
1001
GENIUS_GENOREF_13
1005
1EC1
  0
LINE
  5
1EBF
330
2
100
AcDbEntity
  8
AM_7
  6
AM_ISO08W050X2
100
AcDbLine
 10
600.8456865305388
 20
333.412477302911
 30
0.0
 11
596.0956865305388
 21
333.412477302911
 31
0.0
1001
GENIUS_GENOREF_13
1005
1EC1
  0
LINE
  5
1EC0
102
{ACAD_REACTORS
330
20FF
102
}
330
2
100
AcDbEntity
  8
AM_7
  6
AM_ISO08W050X2
100
AcDbLine
 10
600.8456865305388
 20
333.412477302911
 30
0.0
 11
600.8456865305388
 21
328.662477302911
 31
0.0
1001
GENIUS_GENOREF_13
1005
1EC1
  0
POINT
  5
1EC1
330
2
100
AcDbEntity
  8
0
 60
     1
100
AcDbPoint
 10
0.0
 20
0.0
 30
0.0
1001
GENIUS_GENODEF_13
1002
{
1000
HIER
1070
    10
1002
}
1002
{
1000
MANEDIT
1070
     0
1002
}
1002
{
1000
NOSEL
1070
     0
1002
}
1002
{
1000
BEHIND
1070
     0
1002
}
1002
{
1000
OTHER
1070
     0
1002
}
1002
{
1000
REACTOR
1002
}
1001
GENIUS_GENOLIS_13
1002
{
1000
ENT
1005
1EC0
1005
1EBF
1005
1EBE
1005
1EBD
1002
}
1001
GENIUS_GENOENT_13
1002
{
1000
MYREF
1005
1EC1
1002
}
1002
{
1000
GRP
1005
0
1002
}
1001
GENIUS_GENOBJ-N-CRS_13
1002
{
1000
OWNER
1000
GEN
1002
}
  0
LINE
  5
1ECF
102
{ACAD_REACTORS
330
2037
102
}
330
2
100
AcDbEntity
  8
AM_7
  6
AM_ISO08W050X2
100
AcDbLine
 10
644.8456865305388
 20
333.412477302911
 30
0.0
 11
649.5956865305388
 21
333.412477302911
 31
0.0
1001
GENIUS_GENOREF_13
1005
1ED3
  0
LINE
  5
1ED0
330
2
100
AcDbEntity
  8
AM_7
  6
AM_ISO08W050X2
100
AcDbLine
 10
644.8456865305388
 20
333.412477302911
 30
0.0
 11
644.8456865305388
 21
338.162477302911
 31
0.0
1001
GENIUS_GENOREF_13
1005
1ED3
  0
LINE
  5
1ED1
330
2
100
AcDbEntity
  8
AM_7
  6
AM_ISO08W050X2
100
AcDbLine
 10
644.8456865305388
 20
333.412477302911
 30
0.0
 11
640.0956865305388
 21
333.412477302911
 31
0.0
1001
GENIUS_GENOREF_13
1005
1ED3
  0
LINE
  5
1ED2
102
{ACAD_REACTORS
330
20FF
102
}
330
2
100
AcDbEntity
  8
AM_7
  6
AM_ISO08W050X2
100
AcDbLine
 10
644.8456865305388
 20
333.412477302911
 30
0.0
 11
644.8456865305388
 21
328.662477302911
 31
0.0
1001
GENIUS_GENOREF_13
1005
1ED3
  0
POINT
  5
1ED3
330
2
100
AcDbEntity
  8
0
 60
     1
100
AcDbPoint
 10
0.0
 20
0.0
 30
0.0
1001
GENIUS_GENOLIS_13
1002
{
1000
ENT
1005
1ED2
1005
1ED1
1005
1ED0
1005
1ECF
1002
}
1001
GENIUS_GENOENT_13
1002
{
1000
MYREF
1005
1ED3
1002
}
1002
{
1000
GRP
1005
0
1002
}
1001
GENIUS_GENODEF_13
1002
{
1000
HIER
1070
    10
1002
}
1002
{
1000
MANEDIT
1070
     0
1002
}
1002
{
1000
NOSEL
1070
     0
1002
}
1002
{
1000
BEHIND
1070
     0
1002
}
1002
{
1000
OTHER
1070
     0
1002
}
1002
{
1000
REACTOR
1002
}
1001
GENIUS_GENOBJ-N-CRS_13
1002
{
1000
OWNER
1000
GEN
1002
}
  0
LINE
  5
1EE1
102
{ACAD_REACTORS
330
2037
102
}
330
2
100
AcDbEntity
  8
AM_7
  6
AM_ISO08W050X2
100
AcDbLine
 10
644.8456865305388
 20
377.412477302911
 30
0.0
 11
649.5956865305388
 21
377.412477302911
 31
0.0
1001
GENIUS_GENOREF_13
1005
1EE5
  0
LINE
  5
1EE2
330
2
100
AcDbEntity
  8
AM_7
  6
AM_ISO08W050X2
100
AcDbLine
 10
644.8456865305388
 20
377.412477302911
 30
0.0
 11
644.8456865305388
 21
382.162477302911
 31
0.0
1001
GENIUS_GENOREF_13
1005
1EE5
  0
LINE
  5
1EE3
330
2
100
AcDbEntity
  8
AM_7
  6
AM_ISO08W050X2
100
AcDbLine
 10
644.8456865305388
 20
377.412477302911
 30
0.0
 11
640.0956865305388
 21
377.412477302911
 31
0.0
1001
GENIUS_GENOREF_13
1005
1EE5
  0
LINE
  5
1EE4
330
2
100
AcDbEntity
  8
AM_7
  6
AM_ISO08W050X2
100
AcDbLine
 10
644.8456865305388
 20
377.412477302911
 30
0.0
 11
644.8456865305388
 21
372.6624773029111
 31
0.0
1001
GENIUS_GENOREF_13
1005
1EE5
  0
POINT
  5
1EE5
330
2
100
AcDbEntity
  8
0
 60
     1
100
AcDbPoint
 10
0.0
 20
0.0
 30
0.0
1001
GENIUS_GENOLIS_13
1002
{
1000
ENT
1005
1EE4
1005
1EE3
1005
1EE2
1005
1EE1
1002
}
1001
GENIUS_GENOENT_13
1002
{
1000
MYREF
1005
1EE5
1002
}
1002
{
1000
GRP
1005
0
1002
}
1001
GENIUS_GENOBJ-N-CRS_13
1002
{
1000
OWNER
1000
GEN
1002
}
1001
GENIUS_GENODEF_13
1002
{
1000
HIER
1070
    10
1002
}
1002
{
1000
MANEDIT
1070
     0
1002
}
1002
{
1000
NOSEL
1070
     0
1002
}
1002
{
1000
BEHIND
1070
     0
1002
}
1002
{
1000
OTHER
1070
     0
1002
}
1002
{
1000
REACTOR
1002
}
  0
LINE
  5
1EF3
330
2
100
AcDbEntity
  8
AM_7
  6
AM_ISO08W050X2
100
AcDbLine
 10
600.8456865305388
 20
377.412477302911
 30
0.0
 11
605.5956865305388
 21
377.412477302911
 31
0.0
1001
GENIUS_GENOREF_13
1005
1EF7
  0
LINE
  5
1EF4
330
2
100
AcDbEntity
  8
AM_7
  6
AM_ISO08W050X2
100
AcDbLine
 10
600.8456865305388
 20
377.412477302911
 30
0.0
 11
600.8456865305388
 21
382.162477302911
 31
0.0
1001
GENIUS_GENOREF_13
1005
1EF7
  0
LINE
  5
1EF5
330
2
100
AcDbEntity
  8
AM_7
  6
AM_ISO08W050X2
100
AcDbLine
 10
600.8456865305388
 20
377.412477302911
 30
0.0
 11
596.0956865305388
 21
377.412477302911
 31
0.0
1001
GENIUS_GENOREF_13
1005
1EF7
  0
LINE
  5
1EF6
330
2
100
AcDbEntity
  8
AM_7
  6
AM_ISO08W050X2
100
AcDbLine
 10
600.8456865305388
 20
377.412477302911
 30
0.0
 11
600.8456865305388
 21
372.6624773029111
 31
0.0
1001
GENIUS_GENOREF_13
1005
1EF7
  0
POINT
  5
1EF7
330
2
100
AcDbEntity
  8
0
 60
     1
100
AcDbPoint
 10
0.0
 20
0.0
 30
0.0
1001
GENIUS_GENOLIS_13
1002
{
1000
ENT
1005
1EF6
1005
1EF5
1005
1EF4
1005
1EF3
1002
}
1001
GENIUS_GENOENT_13
1002
{
1000
MYREF
1005
1EF7
1002
}
1002
{
1000
GRP
1005
0
1002
}
1001
GENIUS_GENOBJ-N-CRS_13
1002
{
1000
OWNER
1000
GEN
1002
}
1001
GENIUS_GENODEF_13
1002
{
1000
HIER
1070
    10
1002
}
1002
{
1000
MANEDIT
1070
     0
1002
}
1002
{
1000
NOSEL
1070
     0
1002
}
1002
{
1000
BEHIND
1070
     0
1002
}
1002
{
1000
OTHER
1070
     0
1002
}
1002
{
1000
REACTOR
1002
}
  0
LINE
  5
1EF9
330
2
100
AcDbEntity
  8
CENTER
100
AcDbLine
 10
775.8808926814045
 20
280.0251006557926
 30
0.0
 11
775.8808926814045
 21
152.8170466016988
 31
0.0
  0
LINE
  5
1EFA
330
2
100
AcDbEntity
  8
0
100
AcDbLine
 10
800.8808926814044
 20
223.6882746016988
 30
0.0
 11
800.8808926814044
 21
177.6882746016988
 31
0.0
  0
LINE
  5
1EFB
330
2
100
AcDbEntity
  8
0
100
AcDbLine
 10
750.8808926814045
 20
223.6882746016988
 30
0.0
 11
750.8808926814045
 21
177.6882746016988
 31
0.0
  0
LINE
  5
1EFC
330
2
100
AcDbEntity
  8
0
100
AcDbLine
 10
749.3808926814044
 20
177.6882746016988
 30
0.0
 11
802.3808926814044
 21
177.6882746016988
 31
0.0
  0
LINE
  5
1EFD
330
2
100
AcDbEntity
  8
0
100
AcDbLine
 10
749.8808926814044
 20
154.6882746016988
 30
0.0
 11
801.8808926814044
 21
154.6882746016988
 31
0.0
  0
LINE
  5
1EFE
330
2
100
AcDbEntity
  8
0
100
AcDbLine
 10
748.8808926814044
 20
177.1882746016988
 30
0.0
 11
748.8808926814044
 21
155.6882746016988
 31
0.0
  0
LINE
  5
1EFF
330
2
100
AcDbEntity
  8
0
100
AcDbLine
 10
748.8808926814044
 20
155.6882746016988
 30
0.0
 11
749.8808926814044
 21
154.6882746016988
 31
0.0
  0
LINE
  5
1F04
330
2
100
AcDbEntity
  8
0
100
AcDbLine
 10
749.3808926814044
 20
177.6882746016988
 30
0.0
 11
748.8808926814044
 21
177.1882746016988
 31
0.0
  0
LINE
  5
1F05
330
2
100
AcDbEntity
  8
0
100
AcDbLine
 10
802.8808926814045
 20
177.1882746016988
 30
0.0
 11
802.8808926814045
 21
155.6882746016988
 31
0.0
  0
LINE
  5
1F06
330
2
100
AcDbEntity
  8
0
100
AcDbLine
 10
801.8808926814044
 20
154.6882746016988
 30
0.0
 11
802.8808926814045
 21
155.6882746016988
 31
0.0
  0
LINE
  5
1F07
330
2
100
AcDbEntity
  8
0
100
AcDbLine
 10
802.8808926814045
 20
177.1882746016988
 30
0.0
 11
802.3808926814044
 21
177.6882746016988
 31
0.0
  0
LINE
  5
1F08
330
2
100
AcDbEntity
  8
0
100
AcDbLine
 10
767.3808926814045
 20
276.1882746016988
 30
0.0
 11
784.3808926814045
 21
276.1882746016988
 31
0.0
  0
LINE
  5
1F09
330
2
100
AcDbEntity
  8
0
100
AcDbLine
 10
767.3808926814045
 20
257.1882746016988
 30
0.0
 11
784.3808926814045
 21
257.1882746016988
 31
0.0
  0
LINE
  5
1F0A
330
2
100
AcDbEntity
  8
0
100
AcDbLine
 10
752.8808926814044
 20
225.6882746016988
 30
0.0
 11
798.8808926814044
 21
225.6882746016988
 31
0.0
  0
LINE
  5
1F0B
330
2
100
AcDbEntity
  8
0
100
AcDbLine
 10
783.8808926814045
 20
257.1882746016988
 30
0.0
 11
783.8808926814045
 21
225.6882746016988
 31
0.0
  0
LINE
  5
1F0C
330
2
100
AcDbEntity
  8
0
100
AcDbLine
 10
767.8808926814045
 20
257.1882746016988
 30
0.0
 11
767.8808926814045
 21
225.6882746016988
 31
0.0
  0
LINE
  5
1F10
330
2
100
AcDbEntity
  8
0
100
AcDbLine
 10
752.8808926814044
 20
225.6882746016988
 30
0.0
 11
750.8808926814045
 21
223.6882746016988
 31
0.0
  0
LINE
  5
1F13
330
2
100
AcDbEntity
  8
0
100
AcDbLine
 10
766.3808926814044
 20
275.1882746016988
 30
0.0
 11
766.3808926814044
 21
258.1882746016988
 31
0.0
  0
LINE
  5
1F14
330
2
100
AcDbEntity
  8
0
100
AcDbLine
 10
766.3808926814044
 20
258.1882746016988
 30
0.0
 11
767.3808926814045
 21
257.1882746016988
 31
0.0
  0
LINE
  5
1F15
330
2
100
AcDbEntity
  8
0
100
AcDbLine
 10
767.3808926814045
 20
276.1882746016988
 30
0.0
 11
766.3808926814044
 21
275.1882746016988
 31
0.0
  0
LINE
  5
1F19
330
2
100
AcDbEntity
  8
0
100
AcDbLine
 10
800.8808926814044
 20
223.6882746016988
 30
0.0
 11
798.8808926814044
 21
225.6882746016988
 31
0.0
  0
LINE
  5
1F1A
330
2
100
AcDbEntity
  8
0
100
AcDbLine
 10
785.3808926814044
 20
275.1882746016988
 30
0.0
 11
785.3808926814044
 21
258.1882746016988
 31
0.0
  0
LINE
  5
1F1B
330
2
100
AcDbEntity
  8
0
100
AcDbLine
 10
784.3808926814045
 20
257.1882746016988
 30
0.0
 11
785.3808926814044
 21
258.1882746016988
 31
0.0
  0
LINE
  5
1F1C
330
2
100
AcDbEntity
  8
0
100
AcDbLine
 10
784.3808926814045
 20
257.1882746016988
 30
0.0
 11
785.3808926814044
 21
258.1882746016988
 31
0.0
  0
LINE
  5
1F1D
330
2
100
AcDbEntity
  8
0
100
AcDbLine
 10
785.3808926814044
 20
275.1882746016988
 30
0.0
 11
784.3808926814045
 21
276.1882746016988
 31
0.0
  0
LINE
  5
1F1E
330
2
100
AcDbEntity
  8
0
  6
CENTER
100
AcDbLine
 10
784.3808926814045
 20
276.1882746016988
 30
0.0
 11
785.3808926814044
 21
275.1882746016988
 31
0.0
  0
TEXT
  5
1FC5
330
2
100
AcDbEntity
  8
DIM
100
AcDbText
 10
535.4564587537332
 20
334.3222010905498
 30
0.0
 40
4.799999999999999
  1
CCW
  7
ROMANS
100
AcDbText
  0
POLYLINE
  5
1FC6
330
2
100
AcDbEntity
  8
DIM
100
AcDb2dPolyline
 66
     1
 10
0.0
 20
0.0
 30
0.0
 70
     5
 75
     6
  0
VERTEX
  5
1FC7
330
1FC6
100
AcDbEntity
  8
DIM
100
AcDbVertex
100
AcDb2dVertex
 10
551.6829740519697
 20
340.2431665736272
 30
0.0
 70
    16
  0
VERTEX
  5
30CB
330
1FC6
100
AcDbEntity
  8
DIM
100
AcDbVertex
100
AcDb2dVertex
 10
553.6051086409294
 20
335.7878200888331
 30
0.0
 70
     8
  0
VERTEX
  5
30CC
330
1FC6
100
AcDbEntity
  8
DIM
100
AcDbVertex
100
AcDb2dVertex
 10
553.6953514374171
 20
335.473810510155
 30
0.0
 70
     8
  0
VERTEX
  5
30CD
330
1FC6
100
AcDbEntity
  8
DIM
100
AcDbVertex
100
AcDb2dVertex
 10
553.7509234187483
 20
335.2234245557399
 30
0.0
 70
     8
  0
VERTEX
  5
30CE
330
1FC6
100
AcDbEntity
  8
DIM
100
AcDbVertex
100
AcDb2dVertex
 10
553.7852356224133
 20
335.022850918336
 30
0.0
 70
     8
  0
VERTEX
  5
30CF
330
1FC6
100
AcDbEntity
  8
DIM
100
AcDbVertex
100
AcDb2dVertex
 10
553.8116990859017
 20
334.8582782906916
 30
0.0
 70
     8
  0
VERTEX
  5
30D0
330
1FC6
100
AcDbEntity
  8
DIM
100
AcDbVertex
100
AcDb2dVertex
 10
553.8437248467038
 20
334.715895365555
 30
0.0
 70
     8
  0
VERTEX
  5
30D1
330
1FC6
100
AcDbEntity
  8
DIM
100
AcDbVertex
100
AcDb2dVertex
 10
553.8947239423095
 20
334.5818908356745
 30
0.0
 70
     8
  0
VERTEX
  5
30D2
330
1FC6
100
AcDbEntity
  8
DIM
100
AcDbVertex
100
AcDb2dVertex
 10
553.9781074102091
 20
334.4424533937983
 30
0.0
 70
     8
  0
VERTEX
  5
30D3
330
1FC6
100
AcDbEntity
  8
DIM
100
AcDbVertex
100
AcDb2dVertex
 10
554.1072862878921
 20
334.2837717326748
 30
0.0
 70
     8
  0
VERTEX
  5
30D4
330
1FC6
100
AcDbEntity
  8
DIM
100
AcDbVertex
100
AcDb2dVertex
 10
554.2910949239443
 20
334.0970910857294
 30
0.0
 70
     8
  0
VERTEX
  5
30D5
330
1FC6
100
AcDbEntity
  8
DIM
100
AcDbVertex
100
AcDb2dVertex
 10
554.5200609113313
 20
333.893882849096
 30
0.0
 70
     8
  0
VERTEX
  5
30D6
330
1FC6
100
AcDbEntity
  8
DIM
100
AcDbVertex
100
AcDb2dVertex
 10
554.7801351541144
 20
333.6906749595853
 30
0.0
 70
     8
  0
VERTEX
  5
30D7
330
1FC6
100
AcDbEntity
  8
DIM
100
AcDbVertex
100
AcDb2dVertex
 10
555.0572685563547
 20
333.5039953540086
 30
0.0
 70
     8
  0
VERTEX
  5
30D8
330
1FC6
100
AcDbEntity
  8
DIM
100
AcDbVertex
100
AcDb2dVertex
 10
555.3374120221135
 20
333.3503719691768
 30
0.0
 70
     8
  0
VERTEX
  5
30D9
330
1FC6
100
AcDbEntity
  8
DIM
100
AcDbVertex
100
AcDb2dVertex
 10
555.6065164554519
 20
333.246332741901
 30
0.0
 70
     8
  0
VERTEX
  5
30DA
330
1FC6
100
AcDbEntity
  8
DIM
100
AcDbVertex
100
AcDb2dVertex
 10
555.8505327604311
 20
333.2084056089921
 30
0.0
 70
     8
  0
VERTEX
  5
30DB
330
1FC6
100
AcDbEntity
  8
DIM
100
AcDbVertex
100
AcDb2dVertex
 10
556.0554118411121
 20
333.253118507261
 30
0.0
 70
     8
  0
VERTEX
  5
30DC
330
1FC6
100
AcDbEntity
  8
DIM
100
AcDbVertex
100
AcDb2dVertex
 10
556.2104287465711
 20
333.3908013755196
 30
0.0
 70
     8
  0
VERTEX
  5
30DD
330
1FC6
100
AcDbEntity
  8
DIM
100
AcDbVertex
100
AcDb2dVertex
 10
556.3181551059432
 20
333.6069921605822
 30
0.0
 70
     8
  0
VERTEX
  5
30DE
330
1FC6
100
AcDbEntity
  8
DIM
100
AcDbVertex
100
AcDb2dVertex
 10
556.3844866933783
 20
333.8810308112641
 30
0.0
 70
     8
  0
VERTEX
  5
30DF
330
1FC6
100
AcDbEntity
  8
DIM
100
AcDbVertex
100
AcDb2dVertex
 10
556.4153192830266
 20
334.1922572763802
 30
0.0
 70
     8
  0
VERTEX
  5
30E0
330
1FC6
100
AcDbEntity
  8
DIM
100
AcDbVertex
100
AcDb2dVertex
 10
556.4165486490382
 20
334.520011504746
 30
0.0
 70
     8
  0
VERTEX
  5
30E1
330
1FC6
100
AcDbEntity
  8
DIM
100
AcDbVertex
100
AcDb2dVertex
 10
556.3940705655626
 20
334.8436334451765
 30
0.0
 70
     8
  0
VERTEX
  5
30E2
330
1FC6
100
AcDbEntity
  8
DIM
100
AcDbVertex
100
AcDb2dVertex
 10
556.3537808067504
 20
335.1424630464868
 30
0.0
 70
     8
  0
VERTEX
  5
30E3
330
1FC6
100
AcDbEntity
  8
DIM
100
AcDbVertex
100
AcDb2dVertex
 10
556.3015751467512
 20
335.3958402574921
 30
0.0
 70
     8
  0
VERTEX
  5
30E4
330
1FC6
100
AcDbEntity
  8
DIM
100
AcDbVertex
100
AcDb2dVertex
 10
556.241926743754
 20
335.5897114117239
 30
0.0
 70
     8
  0
VERTEX
  5
30E5
330
1FC6
100
AcDbEntity
  8
DIM
100
AcDbVertex
100
AcDb2dVertex
 10
556.173618292103
 20
335.736448381579
 30
0.0
 70
     8
  0
VERTEX
  5
30E6
330
1FC6
100
AcDbEntity
  8
DIM
100
AcDbVertex
100
AcDb2dVertex
 10
556.0940098701812
 20
335.8550294241704
 30
0.0
 70
     8
  0
VERTEX
  5
30E7
330
1FC6
100
AcDbEntity
  8
DIM
100
AcDbVertex
100
AcDb2dVertex
 10
556.0004615563717
 20
335.9644327966114
 30
0.0
 70
     8
  0
VERTEX
  5
30E8
330
1FC6
100
AcDbEntity
  8
DIM
100
AcDbVertex
100
AcDb2dVertex
 10
555.8903334290573
 20
336.0836367560149
 30
0.0
 70
     8
  0
VERTEX
  5
30E9
330
1FC6
100
AcDbEntity
  8
DIM
100
AcDbVertex
100
AcDb2dVertex
 10
555.7609855666213
 20
336.2316195594941
 30
0.0
 70
     8
  0
VERTEX
  5
30EA
330
1FC6
100
AcDbEntity
  8
DIM
100
AcDbVertex
100
AcDb2dVertex
 10
555.6097780474467
 20
336.4273594641622
 30
0.0
 70
     8
  0
VERTEX
  5
30EB
330
1FC6
100
AcDbEntity
  8
DIM
100
AcDbVertex
100
AcDb2dVertex
 10
555.4340709499164
 20
336.6898347271321
 30
0.0
 70
     8
  0
VERTEX
  5
30EC
330
1FC6
100
AcDbEntity
  8
DIM
100
AcDbVertex
100
AcDb2dVertex
 10
555.232463382601
 20
337.0311696652667
 30
0.0
 70
     8
  0
VERTEX
  5
30ED
330
1FC6
100
AcDbEntity
  8
DIM
100
AcDbVertex
100
AcDb2dVertex
 10
555.0085105748211
 20
337.4360728344268
 30
0.0
 70
     8
  0
VERTEX
  5
30EE
330
1FC6
100
AcDbEntity
  8
DIM
100
AcDbVertex
100
AcDb2dVertex
 10
554.7670067860845
 20
337.882398850223
 30
0.0
 70
     8
  0
VERTEX
  5
30EF
330
1FC6
100
AcDbEntity
  8
DIM
100
AcDbVertex
100
AcDb2dVertex
 10
554.5127462758997
 20
338.3480023282658
 30
0.0
 70
     8
  0
VERTEX
  5
30F0
330
1FC6
100
AcDbEntity
  8
DIM
100
AcDbVertex
100
AcDb2dVertex
 10
554.2505233037744
 20
338.8107378841659
 30
0.0
 70
     8
  0
VERTEX
  5
30F1
330
1FC6
100
AcDbEntity
  8
DIM
100
AcDbVertex
100
AcDb2dVertex
 10
553.9851321292169
 20
339.2484601335335
 30
0.0
 70
     8
  0
VERTEX
  5
30F2
330
1FC6
100
AcDbEntity
  8
DIM
100
AcDbVertex
100
AcDb2dVertex
 10
553.7213670117352
 20
339.6390236919795
 30
0.0
 70
     8
  0
VERTEX
  5
30F3
330
1FC6
100
AcDbEntity
  8
DIM
100
AcDbVertex
100
AcDb2dVertex
 10
553.4640222108372
 20
339.9602831751142
 30
0.0
 70
     8
  0
VERTEX
  5
30F4
330
1FC6
100
AcDbEntity
  8
DIM
100
AcDbVertex
100
AcDb2dVertex
 10
553.2181927802888
 20
340.1941955620396
 30
0.0
 70
     8
  0
VERTEX
  5
30F5
330
1FC6
100
AcDbEntity
  8
DIM
100
AcDbVertex
100
AcDb2dVertex
 10
552.9901769508866
 20
340.3391272858233
 30
0.0
 70
     8
  0
VERTEX
  5
30F6
330
1FC6
100
AcDbEntity
  8
DIM
100
AcDbVertex
100
AcDb2dVertex
 10
552.7865737476853
 20
340.3975471430243
 30
0.0
 70
     8
  0
VERTEX
  5
30F7
330
1FC6
100
AcDbEntity
  8
DIM
100
AcDbVertex
100
AcDb2dVertex
 10
552.613982195739
 20
340.3719239302014
 30
0.0
 70
     8
  0
VERTEX
  5
30F8
330
1FC6
100
AcDbEntity
  8
DIM
100
AcDbVertex
100
AcDb2dVertex
 10
552.4790013201022
 20
340.2647264439137
 30
0.0
 70
     8
  0
VERTEX
  5
30F9
330
1FC6
100
AcDbEntity
  8
DIM
100
AcDbVertex
100
AcDb2dVertex
 10
552.3882301458295
 20
340.0784234807201
 30
0.0
 70
     8
  0
VERTEX
  5
30FA
330
1FC6
100
AcDbEntity
  8
DIM
100
AcDbVertex
100
AcDb2dVertex
 10
552.3482676979751
 20
339.8154838371796
 30
0.0
 70
     8
  0
VERTEX
  5
30FB
330
1FC6
100
AcDbEntity
  8
DIM
100
AcDbVertex
100
AcDb2dVertex
 10
552.3657130015935
 20
339.4783763098512
 30
0.0
 70
     8
  0
VERTEX
  5
30FC
330
1FC6
100
AcDbEntity
  8
DIM
100
AcDbVertex
100
AcDb2dVertex
 10
552.4437300644557
 20
339.0722651879244
 30
0.0
 70
     8
  0
VERTEX
  5
30FD
330
1FC6
100
AcDbEntity
  8
DIM
100
AcDbVertex
100
AcDb2dVertex
 10
552.5717428251984
 20
338.6130967311115
 30
0.0
 70
     8
  0
VERTEX
  5
30FE
330
1FC6
100
AcDbEntity
  8
DIM
100
AcDbVertex
100
AcDb2dVertex
 10
552.7357402051749
 20
338.1195126917555
 30
0.0
 70
     8
  0
VERTEX
  5
30FF
330
1FC6
100
AcDbEntity
  8
DIM
100
AcDbVertex
100
AcDb2dVertex
 10
552.9217111257385
 20
337.6101548221995
 30
0.0
 70
     8
  0
VERTEX
  5
3100
330
1FC6
100
AcDbEntity
  8
DIM
100
AcDbVertex
100
AcDb2dVertex
 10
553.1156445082424
 20
337.1036648747862
 30
0.0
 70
     8
  0
VERTEX
  5
3101
330
1FC6
100
AcDbEntity
  8
DIM
100
AcDbVertex
100
AcDb2dVertex
 10
553.3035292740399
 20
336.6186846018588
 30
0.0
 70
     8
  0
VERTEX
  5
3102
330
1FC6
100
AcDbEntity
  8
DIM
100
AcDbVertex
100
AcDb2dVertex
 10
553.4713543444846
 20
336.1738557557601
 30
0.0
 70
     8
  0
VERTEX
  5
1FC8
330
1FC6
100
AcDbEntity
  8
DIM
100
AcDbVertex
100
AcDb2dVertex
 10
554.1179817358251
 20
334.9618474860099
 30
0.0
 70
    16
  0
VERTEX
  5
1FC9
330
1FC6
100
AcDbEntity
  8
DIM
100
AcDbVertex
100
AcDb2dVertex
 10
553.4757508503056
 20
334.6363640153317
 30
0.0
 70
    16
  0
VERTEX
  5
1FCA
330
1FC6
100
AcDbEntity
  8
DIM
100
AcDbVertex
100
AcDb2dVertex
 10
556.6227325903056
 20
332.1953268487127
 30
0.0
 70
    16
  0
VERTEX
  5
1FCB
330
1FC6
100
AcDbEntity
  8
DIM
100
AcDbVertex
100
AcDb2dVertex
 10
556.3657898351443
 20
336.1010396333837
 30
0.0
 70
    16
  0
VERTEX
  5
1FCC
330
1FC6
100
AcDbEntity
  8
DIM
100
AcDbVertex
100
AcDb2dVertex
 10
555.7235589496242
 20
335.7755561627052
 30
0.0
 70
    16
  0
VERTEX
  5
1FCD
330
1FC6
100
AcDbEntity
  8
DIM
100
AcDbVertex
100
AcDb2dVertex
 10
553.3444000658573
 20
340.9357440785882
 30
0.0
 70
    16
  0
SEQEND
  5
1FCE
330
1FC6
100
AcDbEntity
  8
DIM
  0
TEXT
  5
1FCF
330
2
100
AcDbEntity
  8
DIM
100
AcDbText
 10
541.319196958809
 20
373.9977398718258
 30
0.0
 40
4.799999999999999
  1
CW
  7
ROMANS
100
AcDbText
  0
POLYLINE
  5
1FD0
330
2
100
AcDbEntity
  8
DIM
100
AcDb2dPolyline
 66
     1
 10
0.0
 20
0.0
 30
0.0
 70
     5
 75
     6
  0
VERTEX
  5
1FD1
330
1FD0
100
AcDbEntity
  8
DIM
100
AcDbVertex
100
AcDb2dVertex
 10
551.6829740519702
 20
371.6283215835499
 30
0.0
 70
    16
  0
VERTEX
  5
3103
330
1FD0
100
AcDbEntity
  8
DIM
100
AcDbVertex
100
AcDb2dVertex
 10
553.6051086409298
 20
376.083668068344
 30
0.0
 70
     8
  0
VERTEX
  5
3104
330
1FD0
100
AcDbEntity
  8
DIM
100
AcDbVertex
100
AcDb2dVertex
 10
553.6953514374176
 20
376.3976776470221
 30
0.0
 70
     8
  0
VERTEX
  5
3105
330
1FD0
100
AcDbEntity
  8
DIM
100
AcDbVertex
100
AcDb2dVertex
 10
553.7509234187488
 20
376.6480636014372
 30
0.0
 70
     8
  0
VERTEX
  5
3106
330
1FD0
100
AcDbEntity
  8
DIM
100
AcDbVertex
100
AcDb2dVertex
 10
553.7852356224138
 20
376.8486372388411
 30
0.0
 70
     8
  0
VERTEX
  5
3107
330
1FD0
100
AcDbEntity
  8
DIM
100
AcDbVertex
100
AcDb2dVertex
 10
553.8116990859022
 20
377.0132098664855
 30
0.0
 70
     8
  0
VERTEX
  5
3108
330
1FD0
100
AcDbEntity
  8
DIM
100
AcDbVertex
100
AcDb2dVertex
 10
553.8437248467044
 20
377.1555927916221
 30
0.0
 70
     8
  0
VERTEX
  5
3109
330
1FD0
100
AcDbEntity
  8
DIM
100
AcDbVertex
100
AcDb2dVertex
 10
553.8947239423102
 20
377.2895973215026
 30
0.0
 70
     8
  0
VERTEX
  5
310A
330
1FD0
100
AcDbEntity
  8
DIM
100
AcDbVertex
100
AcDb2dVertex
 10
553.9781074102096
 20
377.4290347633787
 30
0.0
 70
     8
  0
VERTEX
  5
310B
330
1FD0
100
AcDbEntity
  8
DIM
100
AcDbVertex
100
AcDb2dVertex
 10
554.1072862878928
 20
377.5877164245022
 30
0.0
 70
     8
  0
VERTEX
  5
310C
330
1FD0
100
AcDbEntity
  8
DIM
100
AcDbVertex
100
AcDb2dVertex
 10
554.2910949239448
 20
377.7743970714477
 30
0.0
 70
     8
  0
VERTEX
  5
310D
330
1FD0
100
AcDbEntity
  8
DIM
100
AcDbVertex
100
AcDb2dVertex
 10
554.5200609113319
 20
377.9776053080812
 30
0.0
 70
     8
  0
VERTEX
  5
310E
330
1FD0
100
AcDbEntity
  8
DIM
100
AcDbVertex
100
AcDb2dVertex
 10
554.7801351541149
 20
378.1808131975918
 30
0.0
 70
     8
  0
VERTEX
  5
310F
330
1FD0
100
AcDbEntity
  8
DIM
100
AcDbVertex
100
AcDb2dVertex
 10
555.0572685563553
 20
378.3674928031684
 30
0.0
 70
     8
  0
VERTEX
  5
3110
330
1FD0
100
AcDbEntity
  8
DIM
100
AcDbVertex
100
AcDb2dVertex
 10
555.3374120221141
 20
378.5211161880002
 30
0.0
 70
     8
  0
VERTEX
  5
3111
330
1FD0
100
AcDbEntity
  8
DIM
100
AcDbVertex
100
AcDb2dVertex
 10
555.6065164554524
 20
378.6251554152761
 30
0.0
 70
     8
  0
VERTEX
  5
3112
330
1FD0
100
AcDbEntity
  8
DIM
100
AcDbVertex
100
AcDb2dVertex
 10
555.8505327604315
 20
378.663082548185
 30
0.0
 70
     8
  0
VERTEX
  5
3113
330
1FD0
100
AcDbEntity
  8
DIM
100
AcDbVertex
100
AcDb2dVertex
 10
556.0554118411126
 20
378.618369649916
 30
0.0
 70
     8
  0
VERTEX
  5
3114
330
1FD0
100
AcDbEntity
  8
DIM
100
AcDbVertex
100
AcDb2dVertex
 10
556.2104287465716
 20
378.4806867816575
 30
0.0
 70
     8
  0
VERTEX
  5
3115
330
1FD0
100
AcDbEntity
  8
DIM
100
AcDbVertex
100
AcDb2dVertex
 10
556.3181551059436
 20
378.2644959965949
 30
0.0
 70
     8
  0
VERTEX
  5
3116
330
1FD0
100
AcDbEntity
  8
DIM
100
AcDbVertex
100
AcDb2dVertex
 10
556.3844866933789
 20
377.990457345913
 30
0.0
 70
     8
  0
VERTEX
  5
3117
330
1FD0
100
AcDbEntity
  8
DIM
100
AcDbVertex
100
AcDb2dVertex
 10
556.4153192830271
 20
377.6792308807968
 30
0.0
 70
     8
  0
VERTEX
  5
3118
330
1FD0
100
AcDbEntity
  8
DIM
100
AcDbVertex
100
AcDb2dVertex
 10
556.4165486490386
 20
377.3514766524311
 30
0.0
 70
     8
  0
VERTEX
  5
3119
330
1FD0
100
AcDbEntity
  8
DIM
100
AcDbVertex
100
AcDb2dVertex
 10
556.3940705655632
 20
377.0278547120007
 30
0.0
 70
     8
  0
VERTEX
  5
311A
330
1FD0
100
AcDbEntity
  8
DIM
100
AcDbVertex
100
AcDb2dVertex
 10
556.3537808067509
 20
376.7290251106904
 30
0.0
 70
     8
  0
VERTEX
  5
311B
330
1FD0
100
AcDbEntity
  8
DIM
100
AcDbVertex
100
AcDb2dVertex
 10
556.3015751467516
 20
376.4756478996851
 30
0.0
 70
     8
  0
VERTEX
  5
311C
330
1FD0
100
AcDbEntity
  8
DIM
100
AcDbVertex
100
AcDb2dVertex
 10
556.2419267437546
 20
376.2817767454532
 30
0.0
 70
     8
  0
VERTEX
  5
311D
330
1FD0
100
AcDbEntity
  8
DIM
100
AcDbVertex
100
AcDb2dVertex
 10
556.1736182921034
 20
376.1350397755982
 30
0.0
 70
     8
  0
VERTEX
  5
311E
330
1FD0
100
AcDbEntity
  8
DIM
100
AcDbVertex
100
AcDb2dVertex
 10
556.0940098701816
 20
376.0164587330068
 30
0.0
 70
     8
  0
VERTEX
  5
311F
330
1FD0
100
AcDbEntity
  8
DIM
100
AcDbVertex
100
AcDb2dVertex
 10
556.0004615563721
 20
375.9070553605658
 30
0.0
 70
     8
  0
VERTEX
  5
3120
330
1FD0
100
AcDbEntity
  8
DIM
100
AcDbVertex
100
AcDb2dVertex
 10
555.8903334290579
 20
375.7878514011622
 30
0.0
 70
     8
  0
VERTEX
  5
3121
330
1FD0
100
AcDbEntity
  8
DIM
100
AcDbVertex
100
AcDb2dVertex
 10
555.7609855666219
 20
375.6398685976829
 30
0.0
 70
     8
  0
VERTEX
  5
3122
330
1FD0
100
AcDbEntity
  8
DIM
100
AcDbVertex
100
AcDb2dVertex
 10
555.6097780474472
 20
375.4441286930148
 30
0.0
 70
     8
  0
VERTEX
  5
3123
330
1FD0
100
AcDbEntity
  8
DIM
100
AcDbVertex
100
AcDb2dVertex
 10
555.4340709499168
 20
375.1816534300449
 30
0.0
 70
     8
  0
VERTEX
  5
3124
330
1FD0
100
AcDbEntity
  8
DIM
100
AcDbVertex
100
AcDb2dVertex
 10
555.2324633826015
 20
374.8403184919102
 30
0.0
 70
     8
  0
VERTEX
  5
3125
330
1FD0
100
AcDbEntity
  8
DIM
100
AcDbVertex
100
AcDb2dVertex
 10
555.0085105748215
 20
374.4354153227502
 30
0.0
 70
     8
  0
VERTEX
  5
3126
330
1FD0
100
AcDbEntity
  8
DIM
100
AcDbVertex
100
AcDb2dVertex
 10
554.767006786085
 20
373.9890893069538
 30
0.0
 70
     8
  0
VERTEX
  5
3127
330
1FD0
100
AcDbEntity
  8
DIM
100
AcDbVertex
100
AcDb2dVertex
 10
554.5127462759
 20
373.5234858289109
 30
0.0
 70
     8
  0
VERTEX
  5
3128
330
1FD0
100
AcDbEntity
  8
DIM
100
AcDbVertex
100
AcDb2dVertex
 10
554.2505233037749
 20
373.0607502730109
 30
0.0
 70
     8
  0
VERTEX
  5
3129
330
1FD0
100
AcDbEntity
  8
DIM
100
AcDbVertex
100
AcDb2dVertex
 10
553.9851321292172
 20
372.6230280236431
 30
0.0
 70
     8
  0
VERTEX
  5
312A
330
1FD0
100
AcDbEntity
  8
DIM
100
AcDbVertex
100
AcDb2dVertex
 10
553.7213670117353
 20
372.2324644651971
 30
0.0
 70
     8
  0
VERTEX
  5
312B
330
1FD0
100
AcDbEntity
  8
DIM
100
AcDbVertex
100
AcDb2dVertex
 10
553.4640222108374
 20
371.9112049820623
 30
0.0
 70
     8
  0
VERTEX
  5
312C
330
1FD0
100
AcDbEntity
  8
DIM
100
AcDbVertex
100
AcDb2dVertex
 10
553.218192780289
 20
371.6772925951369
 30
0.0
 70
     8
  0
VERTEX
  5
312D
330
1FD0
100
AcDbEntity
  8
DIM
100
AcDbVertex
100
AcDb2dVertex
 10
552.9901769508869
 20
371.5323608713533
 30
0.0
 70
     8
  0
VERTEX
  5
312E
330
1FD0
100
AcDbEntity
  8
DIM
100
AcDbVertex
100
AcDb2dVertex
 10
552.7865737476855
 20
371.4739410141524
 30
0.0
 70
     8
  0
VERTEX
  5
312F
330
1FD0
100
AcDbEntity
  8
DIM
100
AcDbVertex
100
AcDb2dVertex
 10
552.6139821957393
 20
371.4995642269752
 30
0.0
 70
     8
  0
VERTEX
  5
3130
330
1FD0
100
AcDbEntity
  8
DIM
100
AcDbVertex
100
AcDb2dVertex
 10
552.4790013201026
 20
371.606761713263
 30
0.0
 70
     8
  0
VERTEX
  5
3131
330
1FD0
100
AcDbEntity
  8
DIM
100
AcDbVertex
100
AcDb2dVertex
 10
552.3882301458298
 20
371.7930646764567
 30
0.0
 70
     8
  0
VERTEX
  5
3132
330
1FD0
100
AcDbEntity
  8
DIM
100
AcDbVertex
100
AcDb2dVertex
 10
552.3482676979755
 20
372.0560043199973
 30
0.0
 70
     8
  0
VERTEX
  5
3133
330
1FD0
100
AcDbEntity
  8
DIM
100
AcDbVertex
100
AcDb2dVertex
 10
552.365713001594
 20
372.3931118473259
 30
0.0
 70
     8
  0
VERTEX
  5
3134
330
1FD0
100
AcDbEntity
  8
DIM
100
AcDbVertex
100
AcDb2dVertex
 10
552.4437300644562
 20
372.7992229692527
 30
0.0
 70
     8
  0
VERTEX
  5
3135
330
1FD0
100
AcDbEntity
  8
DIM
100
AcDbVertex
100
AcDb2dVertex
 10
552.5717428251989
 20
373.2583914260656
 30
0.0
 70
     8
  0
VERTEX
  5
3136
330
1FD0
100
AcDbEntity
  8
DIM
100
AcDbVertex
100
AcDb2dVertex
 10
552.7357402051753
 20
373.7519754654215
 30
0.0
 70
     8
  0
VERTEX
  5
3137
330
1FD0
100
AcDbEntity
  8
DIM
100
AcDbVertex
100
AcDb2dVertex
 10
552.921711125739
 20
374.2613333349777
 30
0.0
 70
     8
  0
VERTEX
  5
3138
330
1FD0
100
AcDbEntity
  8
DIM
100
AcDbVertex
100
AcDb2dVertex
 10
553.1156445082429
 20
374.7678232823909
 30
0.0
 70
     8
  0
VERTEX
  5
3139
330
1FD0
100
AcDbEntity
  8
DIM
100
AcDbVertex
100
AcDb2dVertex
 10
553.3035292740406
 20
375.2528035553184
 30
0.0
 70
     8
  0
VERTEX
  5
313A
330
1FD0
100
AcDbEntity
  8
DIM
100
AcDbVertex
100
AcDb2dVertex
 10
553.471354344485
 20
375.6976324014171
 30
0.0
 70
     8
  0
VERTEX
  5
1FD2
330
1FD0
100
AcDbEntity
  8
DIM
100
AcDbVertex
100
AcDb2dVertex
 10
554.1179817358258
 20
376.9096406711672
 30
0.0
 70
    16
  0
VERTEX
  5
1FD3
330
1FD0
100
AcDbEntity
  8
DIM
100
AcDbVertex
100
AcDb2dVertex
 10
553.4757508503061
 20
377.2351241418455
 30
0.0
 70
    16
  0
VERTEX
  5
1FD4
330
1FD0
100
AcDbEntity
  8
DIM
100
AcDbVertex
100
AcDb2dVertex
 10
556.6227325903062
 20
379.6761613084643
 30
0.0
 70
    16
  0
VERTEX
  5
1FD5
330
1FD0
100
AcDbEntity
  8
DIM
100
AcDbVertex
100
AcDb2dVertex
 10
556.3657898351448
 20
375.7704485237936
 30
0.0
 70
    16
  0
VERTEX
  5
1FD6
330
1FD0
100
AcDbEntity
  8
DIM
100
AcDbVertex
100
AcDb2dVertex
 10
555.7235589496248
 20
376.0959319944719
 30
0.0
 70
    16
  0
VERTEX
  5
1FD7
330
1FD0
100
AcDbEntity
  8
DIM
100
AcDbVertex
100
AcDb2dVertex
 10
553.3444000658573
 20
370.9357440785881
 30
0.0
 70
    16
  0
SEQEND
  5
1FD8
330
1FD0
100
AcDbEntity
  8
DIM
  0
DIMENSION
  5
2020
102
{ACAD_XDICTIONARY
360
202D
102
}
102
{ACAD_REACTORS
330
2037
102
}
330
2
100
AcDbEntity
  8
AM_5
100
AcDbDimension
  2
*D12
 10
692.8456865305388
 20
333.412477302911
 30
0.0
 11
689.8456865305387
 21
355.4124773029112
 31
0.0
 70
    32
  3
AM_ISO
100
AcDbAlignedDimension
 13
649.5956865305388
 23
377.412477302911
 33
0.0
 14
649.5956865305388
 24
333.412477302911
 34
0.0
 50
90.0
100
AcDbRotatedDimension
  0
DIMENSION
  5
20A1
330
2
100
AcDbEntity
  8
AM_5
100
AcDbDimension
  2
*D13
 10
684.8456865305388
 20
345.912477302911
 30
0.0
 11
681.8456865305387
 21
355.4124773029111
 31
0.0
 70
    32
  3
AM_ISO
100
AcDbAlignedDimension
 13
671.8456865305388
 23
364.912477302911
 33
0.0
 14
671.8456865305388
 24
345.912477302911
 34
0.0
 50
90.0
100
AcDbRotatedDimension
  0
DIMENSION
  5
20E8
102
{ACAD_XDICTIONARY
360
20F5
102
}
102
{ACAD_REACTORS
330
20FF
102
}
330
2
100
AcDbEntity
  8
AM_5
100
AcDbDimension
  2
*D14
 10
644.8456865305388
 20
316.4124773029111
 30
0.0
 11
622.8456865305388
 21
319.412477302911
 31
0.0
 70
    32
  3
AM_ISO
100
AcDbAlignedDimension
 13
600.8456865305388
 23
328.662477302911
 33
0.0
 14
644.8456865305388
 24
328.662477302911
 34
0.0
 50
0.0000000000001018
100
AcDbRotatedDimension
  0
DIMENSION
  5
2120
102
{ACAD_XDICTIONARY
360
212D
102
}
102
{ACAD_REACTORS
330
2137
102
}
330
2
100
AcDbEntity
  8
AM_5
100
AcDbDimension
  2
*D15
 10
649.8456865305388
 20
308.4124773029111
 30
0.0
 11
622.8456865305388
 21
311.4219261218087
 31
0.0
 70
    32
  1
{\Famgdt;o}<>
  3
AM_ISO
100
AcDbAlignedDimension
 13
595.8456865305388
 23
330.412477302911
 33
0.0
 14
649.8456865305388
 24
330.412477302911
 34
0.0
 50
0.0000000000001018
100
AcDbRotatedDimension
  0
DIMENSION
  5
2158
102
{ACAD_XDICTIONARY
360
2165
102
}
102
{ACAD_REACTORS
330
216F
102
}
330
2
100
AcDbEntity
  8
AM_5
100
AcDbDimension
  2
*D16
 10
661.8456865305388
 20
177.6882746016988
 30
0.0
 11
658.8453715699089
 21
166.1882746016989
 31
0.0
 70
    32
  3
AM_ISO
100
AcDbAlignedDimension
 13
648.8456865305388
 23
154.6882746016988
 33
0.0
 14
649.3456865305388
 24
177.6882746016988
 34
0.0
 50
90.0
100
AcDbRotatedDimension
  0
DIMENSION
  5
2190
102
{ACAD_XDICTIONARY
360
219D
102
}
102
{ACAD_REACTORS
330
21A7
102
}
330
2
100
AcDbEntity
  8
AM_5
100
AcDbDimension
  2
*D17
 10
669.8456865305388
 20
225.6882746016988
 30
0.0
 11
666.8456865305388
 21
190.1882746016989
 31
0.0
 70
    32
  3
AM_ISO
100
AcDbAlignedDimension
 13
648.8456865305388
 23
154.6882746016988
 33
0.0
 14
645.8456865305388
 24
225.6882746016988
 34
0.0
 50
90.0
100
AcDbRotatedDimension
  0
DIMENSION
  5
21C8
102
{ACAD_XDICTIONARY
360
21D5
102
}
102
{ACAD_REACTORS
330
21DF
102
}
330
2
100
AcDbEntity
  8
AM_5
100
AcDbDimension
  2
*D18
 10
684.8456865305388
 20
257.1882746016988
 30
0.0
 11
681.8359227510111
 21
205.9382746016989
 31
0.0
 70
    32
  3
AM_ISO
100
AcDbAlignedDimension
 13
648.8456865305388
 23
154.6882746016988
 33
0.0
 14
671.8456865305388
 24
257.1882746016988
 34
0.0
 50
90.0
100
AcDbRotatedDimension
  0
DIMENSION
  5
2200
330
2
100
AcDbEntity
  8
AM_5
100
AcDbDimension
  2
*D19
 10
684.8456865305388
 20
276.1882746016988
 30
0.0
 11
681.8456865305387
 21
266.6882746016989
 31
0.0
 70
    32
  3
AM_ISO
100
AcDbAlignedDimension
 13
671.8456865305388
 23
257.1882746016988
 33
0.0
 14
671.8456865305388
 24
276.1882746016988
 34
0.0
 50
90.0
100
AcDbRotatedDimension
  0
DIMENSION
  5
2238
102
{ACAD_XDICTIONARY
360
2245
102
}
102
{ACAD_REACTORS
330
224F
102
}
330
2
100
AcDbEntity
  8
AM_5
100
AcDbDimension
  2
*D20
 10
692.8456865305388
 20
154.6882746016988
 30
0.0
 11
689.8359227510113
 21
215.4382746016989
 31
0.0
 70
    32
  3
AM_ISO
100
AcDbAlignedDimension
 13
671.8456865305388
 23
276.1882746016988
 33
0.0
 14
648.8456865305388
 24
154.6882746016988
 34
0.0
 50
90.0
100
AcDbRotatedDimension
  0
TEXT
  5
2315
330
2
100
AcDbEntity
  8
AM_5
100
AcDbText
 10
660.6413375611547
 20
233.9852182620948
 30
0.0
 40
3.5
  1
PT 1/8
  7
CHINA
100
AcDbText
  0
TEXT
  5
24BD
330
2
100
AcDbEntity
  8
AM_5
100
AcDbText
 10
661.3224072710336
 20
319.4092221485352
 30
0.0
 40
3.0
  1
4-%%c6.5
  7
CHINA
100
AcDbText
  0
INSERT
  5
24C0
330
2
100
AcDbEntity
  8
AM_5
100
AcDbBlockReference
  2
*S50
 10
0.0
 20
0.0
 30
0.0
  0
DIMENSION
  5
253D
330
2
100
AcDbEntity
  8
AM_5
100
AcDbDimension
  2
*D21
 10
647.8456865305388
 20
197.4154755107011
 30
0.0
 11
629.5422254316226
 21
197.4154755107011
 31
0.0
 70
   160
  1
%%c<>
  3
AM_ISO
100
AcDbAlignedDimension
 13
597.8456865305388
 23
200.6882746016988
 33
0.0
 14
647.8456865305388
 24
200.6882746016988
 34
0.0
 50
0.0000000000001132
100
AcDbRotatedDimension
  0
LINE
  5
2675
330
2
100
AcDbEntity
  8
0
100
AcDbLine
 10
573.8456865305388
 20
345.912477302911
 30
0.0
 11
671.8456865305388
 21
345.912477302911
 31
0.0
  0
LINE
  5
2676
330
2
100
AcDbEntity
  8
0
100
AcDbLine
 10
573.8456865305388
 20
364.912477302911
 30
0.0
 11
671.8456865305388
 21
364.912477302911
 31
0.0
  0
LINE
  5
2677
330
2
100
AcDbEntity
  8
CENTER
100
AcDbLine
 10
569.7319898933736
 20
355.412477302911
 30
0.0
 11
675.8101252437389
 21
355.412477302911
 31
0.0
  0
LINE
  5
2678
330
2
100
AcDbEntity
  8
0
100
AcDbLine
 10
612.3456865305388
 20
359.912477302911
 30
0.0
 11
633.3456865305388
 21
359.912477302911
 31
0.0
  0
LINE
  5
2679
330
2
100
AcDbEntity
  8
0
100
AcDbLine
 10
612.3456865305388
 20
350.912477302911
 30
0.0
 11
633.3456865305388
 21
350.912477302911
 31
0.0
  0
LINE
  5
267A
330
2
100
AcDbEntity
  8
0
100
AcDbLine
 10
572.8456865305388
 20
346.912477302911
 30
0.0
 11
572.8456865305388
 21
363.912477302911
 31
0.0
  0
LINE
  5
267B
330
2
100
AcDbEntity
  8
0
100
AcDbLine
 10
573.8456865305388
 20
345.912477302911
 30
0.0
 11
572.8456865305388
 21
346.912477302911
 31
0.0
  0
LINE
  5
267C
330
2
100
AcDbEntity
  8
0
100
AcDbLine
 10
573.8456865305388
 20
364.912477302911
 30
0.0
 11
572.8456865305388
 21
363.912477302911
 31
0.0
  0
ARC
  5
267D
330
2
100
AcDbEntity
  8
0
100
AcDbCircle
 10
612.3456865305388
 20
355.412477302911
 30
0.0
 40
4.5
100
AcDbArc
 50
90.0
 51
270.0
  0
ARC
  5
267E
330
2
100
AcDbEntity
  8
0
100
AcDbCircle
 10
622.8456865305388
 20
355.412477302911
 30
0.0
 40
8.0
100
AcDbArc
 50
145.7711336721882
 51
214.2288663278117
  0
ARC
  5
267F
330
2
100
AcDbEntity
  8
0
100
AcDbCircle
 10
622.8456865305388
 20
355.412477302911
 30
0.0
 40
8.0
100
AcDbArc
 50
325.7711336721882
 51
34.22886632781179
  0
ARC
  5
2680
330
2
100
AcDbEntity
  8
0
100
AcDbCircle
 10
633.3456865305388
 20
355.412477302911
 30
0.0
 40
4.5
100
AcDbArc
 50
270.0
 51
90.0
  0
LINE
  5
2681
330
2
100
AcDbEntity
  8
0
100
AcDbLine
 10
672.8456865305388
 20
346.912477302911
 30
0.0
 11
672.8456865305388
 21
363.912477302911
 31
0.0
  0
LINE
  5
2682
330
2
100
AcDbEntity
  8
0
100
AcDbLine
 10
672.8456865305388
 20
346.912477302911
 30
0.0
 11
671.8456865305388
 21
345.912477302911
 31
0.0
  0
LINE
  5
2683
330
2
100
AcDbEntity
  8
0
100
AcDbLine
 10
671.8456865305388
 20
364.912477302911
 30
0.0
 11
672.8456865305388
 21
363.912477302911
 31
0.0
  0
LINE
  5
26D9
330
2
100
AcDbEntity
  8
HIDDEN
  6
HIDDEN
100
AcDbLine
 10
638.8456865305388
 20
222.2166045881515
 30
0.0
 11
647.8456865305388
 21
222.6882746016988
 31
0.0
  0
LINE
  5
26DA
330
2
100
AcDbEntity
  8
HIDDEN
  6
HIDDEN
100
AcDbLine
 10
638.8456865305388
 20
221.4666045881514
 30
0.0
 11
647.8456865305388
 21
221.9382746016988
 31
0.0
  0
LINE
  5
26DB
330
2
100
AcDbEntity
  8
HIDDEN
  6
HIDDEN
100
AcDbLine
 10
638.8456865305388
 20
213.1599446152462
 30
0.0
 11
647.8456865305388
 21
212.6882746016988
 31
0.0
  0
LINE
  5
26DC
330
2
100
AcDbEntity
  8
HIDDEN
  6
HIDDEN
100
AcDbLine
 10
638.8456865305388
 20
213.9099446152462
 30
0.0
 11
647.8456865305388
 21
213.4382746016988
 31
0.0
  0
LINE
  5
26DD
330
2
100
AcDbEntity
  8
CENTER
  6
CENTER
100
AcDbLine
 10
633.2988947977602
 20
217.6882746016988
 30
0.0
 11
649.2988947977602
 21
217.6882746016988
 31
0.0
  0
LINE
  5
2775
330
2
100
AcDbEntity
  8
0
100
AcDbLine
 10
573.8456865305388
 20
276.1882746016988
 30
0.0
 11
671.8456865305388
 21
276.1882746016988
 31
0.0
  0
LINE
  5
2776
330
2
100
AcDbEntity
  8
0
100
AcDbLine
 10
573.8456865305388
 20
257.1882746016988
 30
0.0
 11
671.8456865305388
 21
257.1882746016988
 31
0.0
  0
LINE
  5
2777
102
{ACAD_REACTORS
330
29A3
102
}
330
2
100
AcDbEntity
  8
0
100
AcDbLine
 10
572.8456865305388
 20
275.1882746016988
 30
0.0
 11
572.8456865305388
 21
258.1882746016988
 31
0.0
  0
LINE
  5
2778
330
2
100
AcDbEntity
  8
0
100
AcDbLine
 10
573.8456865305388
 20
257.1882746016988
 30
0.0
 11
572.8456865305388
 21
258.1882746016988
 31
0.0
  0
LINE
  5
2779
330
2
100
AcDbEntity
  8
0
100
AcDbLine
 10
572.8456865305388
 20
275.1882746016988
 30
0.0
 11
573.8456865305388
 21
276.1882746016988
 31
0.0
  0
LINE
  5
277A
102
{ACAD_REACTORS
330
29A3
102
}
330
2
100
AcDbEntity
  8
0
100
AcDbLine
 10
672.8456865305388
 20
275.1882746016988
 30
0.0
 11
672.8456865305388
 21
258.1882746016988
 31
0.0
  0
CIRCLE
  5
277B
330
2
100
AcDbEntity
  8
0
100
AcDbCircle
 10
622.8456865305388
 20
266.6882746016988
 30
0.0
 40
4.0
  0
LINE
  5
277C
330
2
100
AcDbEntity
  8
0
100
AcDbLine
 10
672.8456865305388
 20
258.1882746016988
 30
0.0
 11
671.8456865305388
 21
257.1882746016988
 31
0.0
  0
LINE
  5
277D
330
2
100
AcDbEntity
  8
0
100
AcDbLine
 10
671.8456865305388
 20
276.1882746016988
 30
0.0
 11
672.8456865305388
 21
275.1882746016988
 31
0.0
  0
DIMENSION
  5
298C
102
{ACAD_XDICTIONARY
360
2999
102
}
102
{ACAD_REACTORS
330
29A3
102
}
330
2
100
AcDbEntity
  8
AM_5
100
AcDbDimension
  2
*D23
 10
672.8456865305388
 20
287.1882746016988
 30
0.0
 11
622.8456865305388
 21
289.6882746016988
 31
0.0
 70
    32
  3
AM_ISO
100
AcDbAlignedDimension
 13
572.8456865305388
 23
275.1882746016988
 33
0.0
 14
672.8456865305388
 24
275.1882746016988
 34
0.0
100
AcDbRotatedDimension
1001
ACAD
1000
DSTYLE
1002
{
1070
    40
1040
1.0
1002
}
  0
LINE
  5
29BA
102
{ACAD_REACTORS
330
2137
102
}
330
2
100
AcDbEntity
  8
0
100
AcDbLine
 10
649.845686530539
 20
345.912477302911
 30
0.0
 11
649.8456865305388
 21
330.412477302911
 31
0.0
  0
ARC
  5
29BB
330
2
100
AcDbEntity
  8
0
100
AcDbCircle
 10
622.8456865305388
 20
355.412477302911
 30
0.0
 40
25.0
100
AcDbArc
 50
22.33368265780529
 51
156.6820429999988
  0
LINE
  5
2A49
330
2
100
AcDbEntity
  8
HIDDEN
  6
HIDDEN
100
AcDbLine
 10
640.8456865305388
 20
172.1420093972201
 30
0.0
 11
649.8456865305388
 21
172.6136794107674
 31
0.0
  0
LINE
  5
2A4A
330
2
100
AcDbEntity
  8
HIDDEN
  6
HIDDEN
100
AcDbLine
 10
640.8456865305388
 20
172.8920093972201
 30
0.0
 11
649.8456865305388
 21
173.3636794107674
 31
0.0
  0
LINE
  5
2A4B
330
2
100
AcDbEntity
  8
HIDDEN
  6
HIDDEN
100
AcDbLine
 10
640.8456865305388
 20
164.5853494243148
 30
0.0
 11
649.8456865305388
 21
164.1136794107675
 31
0.0
  0
LINE
  5
2A4C
330
2
100
AcDbEntity
  8
HIDDEN
  6
HIDDEN
100
AcDbLine
 10
640.8456865305388
 20
163.8353494243148
 30
0.0
 11
649.8456865305388
 21
163.3636794107675
 31
0.0
  0
LINE
  5
2A4D
330
2
100
AcDbEntity
  8
CENTER
  6
CENTER
100
AcDbLine
 10
635.2988947977602
 20
168.3636794107675
 30
0.0
 11
651.2988947977602
 21
168.3636794107675
 31
0.0
  0
INSERT
  5
2A4E
330
2
100
AcDbEntity
  8
AM_5
100
AcDbBlockReference
  2
*S51
 10
0.0
 20
0.0
 30
0.0
  0
LINE
  5
2A5E
330
2
100
AcDbEntity
  8
CENTER
100
AcDbLine
 10
753.8808926814044
 20
152.6403376140296
 30
0.0
 11
753.8808926814044
 21
180.1071389225124
 31
0.0
  0
LINE
  5
2A5F
330
2
100
AcDbEntity
  8
HIDDEN
  6
HIDDEN
100
AcDbLine
 10
757.1308926814045
 20
177.6882746016988
 30
0.0
 11
757.1308926814045
 21
154.6882746016988
 31
0.0
  0
LINE
  5
2A60
330
2
100
AcDbEntity
  8
HIDDEN
  6
HIDDEN
100
AcDbLine
 10
750.6308926814044
 20
177.6882746016988
 30
0.0
 11
750.6308926814044
 21
154.6882746016988
 31
0.0
  0
LINE
  5
2A61
330
2
100
AcDbEntity
  8
HIDDEN
  6
HIDDEN
100
AcDbLine
 10
801.1308926814045
 20
177.6882746016988
 30
0.0
 11
801.1308926814045
 21
154.6882746016988
 31
0.0
  0
LINE
  5
2A62
330
2
100
AcDbEntity
  8
HIDDEN
  6
HIDDEN
100
AcDbLine
 10
794.6308926814045
 20
177.6882746016988
 30
0.0
 11
794.6308926814045
 21
154.6882746016988
 31
0.0
  0
LINE
  5
2A63
330
2
100
AcDbEntity
  8
CENTER
100
AcDbLine
 10
797.8808926814044
 20
152.6403376140296
 30
0.0
 11
797.8808926814044
 21
180.1071389225124
 31
0.0
  0
ENDSEC
  0
SECTION
  2
OBJECTS
  0
DICTIONARY
  5
8
330
0
100
AcDbDictionary
  3
ACAD_GROUP
350
21
  3
ACAD_LAYOUT
350
C
  3
ACAD_MLINESTYLE
350
22
  3
ACAD_PLOTSETTINGS
350
23
  3
ACMDICTIONARY
350
1F4
  3
AMG
350
1DA
  3
AMGSNAPSETTINGS
350
37D
  3
ASE_INDEX_DICTIONARY
350
E58
  3
DWGPROPS
350
30AE
1001
ACAD
1000
TREAT_AS_HARD
1070
     0
  0
DICTIONARY
  5
3
330
2
100
AcDbDictionary
  3
ACAD_INDEX
350
25A7
  3
ACAD_LAYOUTSELFREF
350
3231
1001
ACAD
1000
TREAT_AS_HARD
1070
     1
  0
DICTIONARY
  5
3232
330
D
100
AcDbDictionary
  3
ACAD_LAYOUTSELFREF
350
3233
  0
DICTIONARY
  5
202D
330
2020
100
AcDbDictionary
  3
ACAD_DIMASSOC
350
2037
1001
ACAD
1000
TREAT_AS_HARD
1070
     1
  0
DICTIONARY
  5
20F5
330
20E8
100
AcDbDictionary
  3
ACAD_DIMASSOC
350
20FF
1001
ACAD
1000
TREAT_AS_HARD
1070
     1
  0
DICTIONARY
  5
212D
330
2120
100
AcDbDictionary
  3
ACAD_DIMASSOC
350
2137
1001
ACAD
1000
TREAT_AS_HARD
1070
     1
  0
DICTIONARY
  5
2165
330
2158
100
AcDbDictionary
  3
ACAD_DIMASSOC
350
216F
1001
ACAD
1000
TREAT_AS_HARD
1070
     1
  0
DICTIONARY
  5
219D
330
2190
100
AcDbDictionary
  3
ACAD_DIMASSOC
350
21A7
1001
ACAD
1000
TREAT_AS_HARD
1070
     1
  0
DICTIONARY
  5
21D5
330
21C8
100
AcDbDictionary
  3
ACAD_DIMASSOC
350
21DF
1001
ACAD
1000
TREAT_AS_HARD
1070
     1
  0
DICTIONARY
  5
2245
330
2238
100
AcDbDictionary
  3
ACAD_DIMASSOC
350
224F
1001
ACAD
1000
TREAT_AS_HARD
1070
     1
  0
DICTIONARY
  5
2999
330
298C
100
AcDbDictionary
  3
ACAD_DIMASSOC
350
29A3
1001
ACAD
1000
TREAT_AS_HARD
1070
     1
  0
DICTIONARY
  5
21
102
{ACAD_REACTORS
330
8
102
}
330
8
100
AcDbDictionary
1001
ACAD
1000
TREAT_AS_HARD
1070
     0
  0
DICTIONARY
  5
C
102
{ACAD_REACTORS
330
8
102
}
330
8
100
AcDbDictionary
1001
ACAD
1000
TREAT_AS_HARD
1070
     0
  0
DICTIONARY
  5
22
102
{ACAD_REACTORS
330
8
102
}
330
8
100
AcDbDictionary
  3
STANDARD
350
24
1001
ACAD
1000
TREAT_AS_HARD
1070
     0
  0
DICTIONARY
  5
23
102
{ACAD_REACTORS
330
8
102
}
330
8
100
AcDbDictionary
1001
ACAD
1000
TREAT_AS_HARD
1070
     0
  0
DICTIONARY
  5
1F4
102
{ACAD_REACTORS
330
8
102
}
330
8
100
AcDbDictionary
  3
ACMSTDDICTIONARY
350
1FA
1001
ACAD
1000
TREAT_AS_HARD
1070
     0
  0
DICTIONARY
  5
1DA
102
{ACAD_REACTORS
330
8
102
}
330
8
100
AcDbDictionary
  3
ACMGSETTINGS
350
1DB
1001
ACAD
1000
TREAT_AS_HARD
1070
     0
  0
DICTIONARY
  5
37D
102
{ACAD_REACTORS
330
8
102
}
330
8
100
AcDbDictionary
1001
ACAD
1000
TREAT_AS_HARD
1070
     0
  0
DICTIONARY
  5
E58
102
{ACAD_REACTORS
330
8
102
}
330
8
100
AcDbDictionary
  3
ASEBLOCKHIERARCHYINDEXRECORD
350
E5A
1001
DCO15
1040
1443953005.444
1001
ACAD
1000
TREAT_AS_HARD
1070
     0
  0
XRECORD
  5
30AE
102
{ACAD_REACTORS
330
8
102
}
330
8
100
AcDbXrecord
  1
DWGPROPS COOKIE
  2

  3

  4

  6

  7

  8

  9

300
AmdtFileType=84
301
=
302
=
303
=
304
=
305
=
306
=
307
=
308
=
309
=
 40
0.1120369097222222
 41
2452794.706235081
 42
2452796.621803669
  1

 90
        1
  0
DICTIONARY
  5
25A7
102
{ACAD_REACTORS
330
3
102
}
330
3
100
AcDbDictionary
  3
*A1
350
25A8
1001
ACAD
1000
TREAT_AS_HARD
1070
     0
  0
XRECORD
  5
3231
102
{ACAD_REACTORS
330
3
102
}
330
3
100
AcDbXrecord
340
2
  0
XRECORD
  5
3233
102
{ACAD_REACTORS
330
3232
102
}
330
3232
100
AcDbXrecord
340
D
  0
DIMASSOC
  5
2037
102
{ACAD_REACTORS
330
202D
102
}
330
202D
100
AcDbDimAssoc
330
2020
 90
        3
 70
     0
 71
     0
  1
AcDbOsnapPointRef
 72
     1
331
1EE1
 73
     0
 91
        0
 40
0.0
 10
649.5956865305388
 20
377.412477302911
 30
0.0
 75
     0
  1
AcDbOsnapPointRef
 72
     1
331
1ECF
 73
     0
 91
        0
 40
0.0
 10
649.5956865305388
 20
333.412477302911
 30
0.0
 75
     0
  0
DIMASSOC
  5
20FF
102
{ACAD_REACTORS
330
20F5
102
}
330
20F5
100
AcDbDimAssoc
330
20E8
 90
        3
 70
     0
 71
     0
  1
AcDbOsnapPointRef
 72
     1
331
1EC0
 73
     0
 91
        0
 40
0.0
 10
600.8456865305388
 20
328.662477302911
 30
0.0
 75
     0
  1
AcDbOsnapPointRef
 72
     1
331
1ED2
 73
     0
 91
        0
 40
0.0
 10
644.8456865305388
 20
328.662477302911
 30
0.0
 75
     0
  0
DIMASSOC
  5
2137
102
{ACAD_REACTORS
330
212D
102
}
330
212D
100
AcDbDimAssoc
330
2120
 90
        3
 70
     0
 71
     0
  1
AcDbOsnapPointRef
 72
    13
331
1E71
 73
     0
 91
        0
 40
0.0
 10
595.8456865305388
 20
330.412477302911
 30
0.0
 75
     0
  1
AcDbOsnapPointRef
 72
     1
331
29BA
 73
     0
 91
        0
 40
0.0
 10
649.8456865305388
 20
330.412477302911
 30
0.0
 75
     0
  0
DIMASSOC
  5
216F
102
{ACAD_REACTORS
330
2165
102
}
330
2165
100
AcDbDimAssoc
330
2158
 90
        3
 70
     0
 71
     0
  1
AcDbOsnapPointRef
 72
     1
331
1E45
 73
     0
 91
        0
 40
0.0
 10
648.8456865305388
 20
154.6882746016988
 30
0.0
 75
     0
  1
AcDbOsnapPointRef
 72
     1
331
1E48
 73
     0
 91
        0
 40
0.0
 10
649.3456865305388
 20
177.6882746016988
 30
0.0
 75
     0
  0
DIMASSOC
  5
21A7
102
{ACAD_REACTORS
330
219D
102
}
330
219D
100
AcDbDimAssoc
330
2190
 90
        3
 70
     0
 71
     0
  1
AcDbOsnapPointRef
 72
     1
331
1E45
 73
     0
 91
        0
 40
0.0
 10
648.8456865305388
 20
154.6882746016988
 30
0.0
 75
     0
  1
AcDbOsnapPointRef
 72
     1
331
1E47
 73
     0
 91
        0
 40
0.0
 10
645.8456865305388
 20
225.6882746016988
 30
0.0
 75
     0
  0
DIMASSOC
  5
21DF
102
{ACAD_REACTORS
330
21D5
102
}
330
21D5
100
AcDbDimAssoc
330
21C8
 90
        1
 70
     0
 71
     0
  1
AcDbOsnapPointRef
 72
     1
331
1E45
 73
     0
 91
        0
 40
0.0
 10
648.8456865305388
 20
154.6882746016988
 30
0.0
 75
     0
  0
DIMASSOC
  5
224F
102
{ACAD_REACTORS
330
2245
102
}
330
2245
100
AcDbDimAssoc
330
2238
 90
        2
 70
     0
 71
     0
  1
AcDbOsnapPointRef
 72
     1
331
1E45
 73
     0
 91
        0
 40
0.0
 10
648.8456865305388
 20
154.6882746016988
 30
0.0
 75
     0
  0
DIMASSOC
  5
29A3
102
{ACAD_REACTORS
330
2999
102
}
330
2999
100
AcDbDimAssoc
330
298C
 90
        3
 70
     0
 71
     0
  1
AcDbOsnapPointRef
 72
    13
331
2777
 73
     0
 91
        0
 40
0.0
 10
572.8456865305388
 20
275.1882746016988
 30
0.0
 75
     0
  1
AcDbOsnapPointRef
 72
    13
331
277A
 73
     0
 91
        0
 40
0.0
 10
672.8456865305388
 20
275.1882746016988
 30
0.0
 75
     0
  0
MLINESTYLE
  5
24
102
{ACAD_REACTORS
330
22
102
}
330
22
100
AcDbMlineStyle
  2
STANDARD
 70
     0
  3

 62
   256
 51
90.0
 52
90.0
 71
     2
 49
0.5
 62
   256
  6
BYLAYER
 49
-0.5
 62
   256
  6
BYLAYER
  0
DICTIONARY
  5
1FA
102
{ACAD_REACTORS
330
1F4
102
}
330
1F4
100
AcDbDictionary
1001
ACAD
1000
TREAT_AS_HARD
1070
     0
  0
DICTIONARY
  5
1DB
102
{ACAD_REACTORS
330
1DA
102
}
330
1DA
100
AcDbDictionary
1001
ACAD
1000
TREAT_AS_HARD
1070
     0
  0
XRECORD
  5
E5A
102
{ACAD_REACTORS
330
E58
102
}
330
E58
100
AcDbXrecord
330
0
330
0
  0
LAYER_INDEX
  5
25A8
102
{ACAD_REACTORS
330
25A7
102
}
330
25A7
100
AcDbIndex
 40
2452796.641850659
100
AcDbLayerIndex
  8
0
360
25A9
 90
       99
  8
Defpoints
360
25AA
 90
        0
  8
AM_5
360
25AB
 90
       17
  8
AM_PARDIM
360
25AC
 90
       10
  8
AM_7
360
25AD
 90
       17
  8
HIDDEN
360
25AE
 90
       12
  8
DIM
360
25AF
 90
        4
  8
CENTER
360
25B0
 90
        8
  8
LOGO
360
25B1
 90
      110
  0
IDBUFFER
  5
25A9
330
0
100
AcDbIdBuffer
330
25
330
26
330
27
330
28
330
29
330
2A
330
2B
330
2C
330
2D
330
2E
330
2F
330
30
330
1258
330
1259
330
125A
330
12BA
330
1E45
330
1E46
330
1E47
330
1E48
330
1E49
330
1E4A
330
1E4B
330
1E4C
330
1E4E
330
1E4F
330
1E50
330
1E53
330
1E57
330
1E71
330
1E72
330
1E73
330
1E7B
330
1E7C
330
1E7D
330
1E80
330
1E81
330
1E82
330
1E83
330
1E84
330
1E85
330
1E86
330
1E87
330
1E88
330
1E89
330
1EC1
330
1ED3
330
1EE5
330
1EF7
330
1EFA
330
1EFB
330
1EFC
330
1EFD
330
1EFE
330
1EFF
330
1F04
330
1F05
330
1F06
330
1F07
330
1F08
330
1F09
330
1F0A
330
1F0B
330
1F0C
330
1F10
330
1F13
330
1F14
330
1F15
330
1F19
330
1F1A
330
1F1B
330
1F1C
330
1F1D
330
1F1E
330
2675
330
2676
330
2678
330
2679
330
267A
330
267B
330
267C
330
267D
330
267E
330
267F
330
2680
330
2681
330
2682
330
2683
330
2775
330
2776
330
2777
330
2778
330
2779
330
277A
330
277B
330
277C
330
277D
330
29BA
330
29BB
  0
IDBUFFER
  5
25AA
330
0
100
AcDbIdBuffer
  0
IDBUFFER
  5
25AB
330
0
100
AcDbIdBuffer
330
151
330
156
330
2020
330
20A1
330
20E8
330
2120
330
2158
330
2190
330
21C8
330
2200
330
2238
330
2315
330
24BD
330
24C0
330
253D
330
298C
330
2A4E
  0
IDBUFFER
  5
25AC
330
0
100
AcDbIdBuffer
330
31
330
43
330
52
330
5F
330
6C
330
79
330
86
330
95
330
A3
330
B0
  0
IDBUFFER
  5
25AD
330
0
100
AcDbIdBuffer
330
C8
330
1EBD
330
1EBE
330
1EBF
330
1EC0
330
1ECF
330
1ED0
330
1ED1
330
1ED2
330
1EE1
330
1EE2
330
1EE3
330
1EE4
330
1EF3
330
1EF4
330
1EF5
330
1EF6
  0
IDBUFFER
  5
25AE
330
0
100
AcDbIdBuffer
330
26D9
330
26DA
330
26DB
330
26DC
330
2A49
330
2A4A
330
2A4B
330
2A4C
330
2A5F
330
2A60
330
2A61
330
2A62
  0
IDBUFFER
  5
25AF
330
0
100
AcDbIdBuffer
330
1FC5
330
1FC6
330
1FCF
330
1FD0
  0
IDBUFFER
  5
25B0
330
0
100
AcDbIdBuffer
330
1E4D
330
1E5B
330
1EF9
330
2677
330
26DD
330
2A4D
330
2A5E
330
2A63
  0
IDBUFFER
  5
25B1
330
0
100
AcDbIdBuffer
330
124B
330
124C
330
124D
330
124E
330
124F
330
1250
330
1251
330
1252
330
1256
330
1257
330
125B
330
125C
330
125D
330
1261
330
1262
330
1263
330
1264
330
1265
330
1266
330
1267
330
1268
330
1269
330
126A
330
126B
330
126F
330
1270
330
1271
330
1272
330
1273
330
1274
330
1275
330
1276
330
127A
330
127B
330
127C
330
127D
330
127E
330
127F
330
1280
330
1281
330
1282
330
1286
330
1287
330
1288
330
1289
330
128A
330
128E
330
128F
330
1290
330
1294
330
1298
330
1299
330
129A
330
12BB
330
12BC
330
12BD
330
12BE
330
12BF
330
12C0
330
12C1
330
12C2
330
12C3
330
12C4
330
12C5
330
12C6
330
12C7
330
12C8
330
12C9
330
12CA
330
12CB
330
12CC
330
12CD
330
12CE
330
12CF
330
12D0
330
12D1
330
12D2
330
12D3
330
12D4
330
12D5
330
12D6
330
12D7
330
12D8
330
12D9
330
12DA
330
12DB
330
12DC
330
12DD
330
12DE
330
12DF
330
12E0
330
12E1
330
12E2
330
12E3
330
12E4
330
12E5
330
12E6
330
12E7
330
12E8
330
12E9
330
12EA
330
12EB
330
12EC
330
12ED
330
12EE
330
12EF
330
12F0
330
1309
330
130A
330
130B
  0
ENDSEC
  0
EOF
