  0
SECTION
  2
HEADER
  9
$ACADVER
  1
AC1012
  9
$DWGCODEPAGE
  3
big5
  9
$INSBASE
 10
0.0
 20
0.0
 30
0.0
  9
$EXTMIN
 10
869.7049743533675
 20
94.21520680493484
 30
-0.000000000000013
  9
$EXTMAX
 10
1204.496723590617
 20
404.2072673586881
 30
0.0000000000000023
  9
$LIMMIN
 10
0.0
 20
0.0
  9
$LIMMAX
 10
420.0
 20
297.0
  9
$ORTHOMODE
 70
     1
  9
$REGENMODE
 70
     1
  9
$FILLMODE
 70
     1
  9
$QTEXTMODE
 70
     0
  9
$MIRRTEXT
 70
     1
  9
$DRAGMODE
 70
     2
  9
$LTSCALE
 40
0.8
  9
$OSMODE
 70
    55
  9
$ATTMODE
 70
     1
  9
$TEXTSIZE
 40
3.0
  9
$TRACEWID
 40
1.0
  9
$TEXTSTYLE
  7
CHINA
  9
$CLAYER
  8
0
  9
$CELTYPE
  6
BYLAYER
  9
$CECOLOR
 62
   256
  9
$CELTSCALE
 40
1.0
  9
$DELOBJ
 70
     1
  9
$DISPSILH
 70
     0
  9
$DIMSCALE
 40
1.0
  9
$DIMASZ
 40
3.0
  9
$DIMEXO
 40
2.0
  9
$DIMDLI
 40
8.0
  9
$DIMRND
 40
0.0
  9
$DIMDLE
 40
0.0
  9
$DIMEXE
 40
1.5
  9
$DIMTP
 40
0.1
  9
$DIMTM
 40
0.1
  9
$DIMTXT
 40
3.0
  9
$DIMCEN
 40
0.0
  9
$DIMTSZ
 40
0.0
  9
$DIMTOL
 70
     0
  9
$DIMLIM
 70
     0
  9
$DIMTIH
 70
     0
  9
$DIMTOH
 70
     0
  9
$DIMSE1
 70
     0
  9
$DIMSE2
 70
     0
  9
$DIMTAD
 70
     1
  9
$DIMZIN
 70
     8
  9
$DIMBLK
  1

  9
$DIMASO
 70
     1
  9
$DIMSHO
 70
     1
  9
$DIMPOST
  1

  9
$DIMAPOST
  1
"
  9
$DIMALT
 70
     0
  9
$DIMALTD
 70
     2
  9
$DIMALTF
 40
0.0393701
  9
$DIMLFAC
 40
1.0
  9
$DIMTOFL
 70
     1
  9
$DIMTVP
 40
0.0
  9
$DIMTIX
 70
     0
  9
$DIMSOXD
 70
     0
  9
$DIMSAH
 70
     0
  9
$DIMBLK1
  1

  9
$DIMBLK2
  1

  9
$DIMSTYLE
  2
AM_ISO
  9
$DIMCLRD
 70
   256
  9
$DIMCLRE
 70
   256
  9
$DIMCLRT
 70
   256
  9
$DIMTFAC
 40
0.71
  9
$DIMGAP
 40
1.0
  9
$DIMJUST
 70
     0
  9
$DIMSD1
 70
     0
  9
$DIMSD2
 70
     0
  9
$DIMTOLJ
 70
     0
  9
$DIMTZIN
 70
     8
  9
$DIMALTZ
 70
     0
  9
$DIMALTTZ
 70
     0
  9
$DIMFIT
 70
     3
  9
$DIMUPT
 70
     0
  9
$DIMUNIT
 70
     2
  9
$DIMDEC
 70
     2
  9
$DIMTDEC
 70
     2
  9
$DIMALTU
 70
     2
  9
$DIMALTTD
 70
     2
  9
$DIMTXSTY
  7
CHINA
  9
$DIMAUNIT
 70
     0
  9
$LUNITS
 70
     2
  9
$LUPREC
 70
     2
  9
$SKETCHINC
 40
1.0
  9
$FILLETRAD
 40
2.5
  9
$AUNITS
 70
     0
  9
$AUPREC
 70
     0
  9
$MENU
  1
.
  9
$ELEVATION
 40
0.0
  9
$PELEVATION
 40
0.0
  9
$THICKNESS
 40
0.0
  9
$LIMCHECK
 70
     0
  9
$BLIPMODE
 70
     0
  9
$CHAMFERA
 40
1.5
  9
$CHAMFERB
 40
1.5
  9
$CHAMFERC
 40
20.0
  9
$CHAMFERD
 40
0.0
  9
$SKPOLY
 70
     0
  9
$TDCREATE
 40
2452794.706235081
  9
$TDUPDATE
 40
2452796.642878067
  9
$TDINDWG
 40
0.1093587384
  9
$TDUSRTIMER
 40
0.1093585069
  9
$USRTIMER
 70
     1
  9
$ANGBASE
 50
0.0
  9
$ANGDIR
 70
     0
  9
$PDMODE
 70
     0
  9
$PDSIZE
 40
0.0
  9
$PLINEWID
 40
0.0
  9
$COORDS
 70
     0
  9
$SPLFRAME
 70
     0
  9
$SPLINETYPE
 70
     6
  9
$SPLINESEGS
 70
     8
  9
$ATTDIA
 70
     1
  9
$ATTREQ
 70
     1
  9
$HANDLING
 70
 22529
  9
$HANDSEED
  5
3638
  9
$SURFTAB1
 70
     6
  9
$SURFTAB2
 70
     6
  9
$SURFTYPE
 70
     6
  9
$SURFU
 70
     6
  9
$SURFV
 70
     6
  9
$UCSNAME
  2

  9
$UCSORG
 10
0.0
 20
0.0
 30
0.0
  9
$UCSXDIR
 10
1.0
 20
0.0
 30
0.0
  9
$UCSYDIR
 10
0.0
 20
1.0
 30
0.0
  9
$PUCSNAME
  2

  9
$PUCSORG
 10
0.0
 20
0.0
 30
0.0
  9
$PUCSXDIR
 10
1.0
 20
0.0
 30
0.0
  9
$PUCSYDIR
 10
0.0
 20
1.0
 30
0.0
  9
$USERI1
 70
     0
  9
$USERI2
 70
     0
  9
$USERI3
 70
     0
  9
$USERI4
 70
     0
  9
$USERI5
 70
     0
  9
$USERR1
 40
0.0
  9
$USERR2
 40
0.0
  9
$USERR3
 40
0.0
  9
$USERR4
 40
0.0
  9
$USERR5
 40
0.0
  9
$WORLDVIEW
 70
     1
  9
$SHADEDGE
 70
     3
  9
$SHADEDIF
 70
    70
  9
$TILEMODE
 70
     1
  9
$MAXACTVP
 70
    64
  9
$PINSBASE
 10
0.0
 20
0.0
 30
0.0
  9
$PLIMCHECK
 70
     0
  9
$PEXTMIN
 10
26.80208481208632
 20
60.62932117531272
 30
-0.0000000000000153
  9
$PEXTMAX
 10
155.7606180029583
 20
204.4099130529699
 30
0.0
  9
$PLIMMIN
 10
-3.757083177566528
 20
-14.7637300491333
  9
$PLIMMAX
 10
206.2162444591522
 20
282.2045927047729
  9
$UNITMODE
 70
     0
  9
$VISRETAIN
 70
     1
  9
$PLINEGEN
 70
     0
  9
$PSLTSCALE
 70
     1
  9
$TREEDEPTH
 70
  3020
  9
$PICKSTYLE
 70
     0
  9
$CMLSTYLE
  2
STANDARD
  9
$CMLJUST
 70
     0
  9
$CMLSCALE
 40
20.0
  9
$SAVEIMAGES
 70
     1
  0
ENDSEC
  0
SECTION
  2
CLASSES
  0
CLASS
  1
ACDBDICTIONARYWDFLT
  2
AcDbDictionaryWithDefault
  3
AutoCAD 2000
 90
    32768
280
     0
281
     0
  0
CLASS
  1
ACDBPLACEHOLDER
  2
AcDbPlaceHolder
  3
AutoCAD 2000
 90
    32768
280
     0
281
     0
  0
CLASS
  1
LAYOUT
  2
AcDbLayout
  3
AutoCAD 2000
 90
    32768
280
     0
281
     0
  0
CLASS
  1
AMGSETTINGSOBJ
  2
AmgSettingsObj
  3
"AcadM|Product Description: AutoCAD Mechanical 2000|Company: Autodesk"
 90
    32768
280
     0
281
     0
  0
CLASS
  1
ACME_DOCUMENT
  2
AcMeDbDoc
  3
AcMeServices
 90
    32768
280
     0
281
     0
  0
CLASS
  1
ACMESCOPE
  2
AcMeScope
  3
AcMeServices
 90
    32768
280
     0
281
     0
  0
CLASS
  1
ACMECOMMANDHISTORY
  2
AcMeCommandHistory
  3
AcMeServices
 90
    32768
280
     0
281
     0
  0
CLASS
  1
ACIMSYSVARMAN
  2
AcImSysVarManager
  3
AcMeServices
 90
    32768
280
     0
281
     0
  0
CLASS
  1
ACIMREALSYSVAR
  2
AcImRealSysVar
  3
AcMeServices
 90
    32768
280
     0
281
     0
  0
CLASS
  1
ACIMINTSYSVAR
  2
AcImIntSysVar
  3
AcMeServices
 90
    32768
280
     0
281
     0
  0
CLASS
  1
ACMEDRAWINGMAN
  2
AcMeDrawingMan
  3
AcMeServices
 90
    32768
280
     0
281
     0
  0
CLASS
  1
ACMEVIEW
  2
AcMeView
  3
AcMeServices
 90
    32768
280
     0
281
     0
  0
CLASS
  1
ACDBENTITYCACHE
  2
AcMeEntityCache
  3
AcMeServices
 90
    32768
280
     0
281
     0
  0
CLASS
  1
GSMANAGER
  2
AcMeGSManager
  3
AcMeServices
 90
    32768
280
     0
281
     0
  0
CLASS
  1
AMDTINTERNALREACTOR
  2
AmdtInternalReactor
  3
AcMeServices
 90
    32768
280
     0
281
     0
  0
CLASS
  1
ACMESTATEMGR
  2
AcMeStateMgr
  3
AcMeServices
 90
    32768
280
     0
281
     0
  0
CLASS
  1
ACGREFMASTER
  2
AcGrefMaster
  3
AcAttribServices
 90
    32768
280
     0
281
     0
  0
CLASS
  1
AM_DRAWING_MGR
  2
AcDmDwgMgr
  3
AcMechDwgViewMgmt
 90
    32768
280
     0
281
     0
  0
CLASS
  1
AM_DWG_DOCUMENT
  2
AcDmDwgDocument
  3
AcMechDwgViewMgmt
 90
    32768
280
     0
281
     0
  0
CLASS
  1
AM_DWG_SHEET
  2
AcDmSheet
  3
AcMechDwgViewMgmt
 90
    32768
280
     0
281
     0
  0
CLASS
  1
AM_VIEWDIMPARMAP
  2
AcDmViewDimParMap
  3
AcMechDwgViewMgmt
 90
    32768
280
     0
281
     0
  0
CLASS
  1
AM_DWGMGR_NAME
  2
AcDmDwgMgrName
  3
AcMechDwgViewMgmt
 90
    32768
280
     0
281
     0
  0
CLASS
  1
ACME_DATABASE
  2
AcMeDbDatabase
  3
AcMeServices
 90
    32768
280
     0
281
     0
  0
CLASS
  1
ACRFINSADJUSTERMGR
  2
AcRfInsAdjusterMgr
  3
AcMeServices
 90
    32768
280
     0
281
     0
  0
CLASS
  1
ACGREFACADMASTER
  2
AcGrefacadMaster
  3
AcGrefServices
 90
    32768
280
     0
281
     0
  0
CLASS
  1
AMDTMENUSTATEMGR
  2
AmdtMenuStateMgr
  3
McadcomServices
 90
    32768
280
     0
281
     0
  0
CLASS
  1
AMDTMCOMMENUSTATE
  2
AmdtMcomMenuState
  3
McadcomServices
 90
    32768
280
     0
281
     0
  0
CLASS
  1
AMIMASTER
  2
AmiMaster
  3
AmiServices
 90
    32768
280
     0
281
     0
  0
CLASS
  1
ASAPP
  2
AcAsAppObject
  3
AutoSurfServices
 90
    32768
280
     0
281
     0
  0
CLASS
  1
IM_STATIC_MAN
  2
AcImStaticVarManager
  3
AcMeServices
 90
    32768
280
     0
281
     0
  0
CLASS
  1
ACIMSTRSYSVAR
  2
AcImStrSysVar
  3
AcMeServices
 90
    32768
280
     0
281
     0
  0
CLASS
  1
ACIMDBLSTATICVAR
  2
AcImDblStaticVar
  3
AcMeServices
 90
    32768
280
     0
281
     0
  0
CLASS
  1
ACIMSTRSTATICVAR
  2
AcImStrStaticVar
  3
AcMeServices
 90
    32768
280
     0
281
     0
  0
CLASS
  1
ACIMINTSTATICVAR
  2
AcImIntStaticVar
  3
AcMeServices
 90
    32768
280
     0
281
     0
  0
CLASS
  1
ACASGREFMASTER
  2
AcAsGrefMaster
  3
AutoSurfResolverServices
 90
    32768
280
     0
281
     0
  0
CLASS
  1
ACADGREFMODULE
  2
AcAdGrefModule
  3
AdGrefServices
 90
    32768
280
     0
281
     0
  0
CLASS
  1
AMDTMAPISURFMOUDULE
  2
AmdtMApiSurfModule
  3
MApiSurfServices
 90
    32768
280
     0
281
     0
  0
CLASS
  1
MAPIAMMOUDLE
  2
MApiAmModule
  3
MApiAmServices
 90
    32768
280
     0
281
     0
  0
CLASS
  1
AMDTADMENUSTATE
  2
AmdtAdMenuState
  3
DesignerServices
 90
    32768
280
     0
281
     0
  0
CLASS
  1
ADAPPL
  2
AcAdAppl
  3
DesignerServices
 90
    32768
280
     0
281
     0
  0
CLASS
  1
DEPMGR
  2
AcAdDepMgr
  3
DesignerServices
 90
    32768
280
     0
281
     0
  0
CLASS
  1
PARAMMGR
  2
AcAdParamMgr
  3
DesignerServices
 90
    32768
280
     0
281
     0
  0
CLASS
  1
PARAMSCOPE
  2
AcAdParamScope
  3
DesignerServices
 90
    32768
280
     0
281
     0
  0
CLASS
  1
NAMEDAPPL
  2
AcAdNamedAppl
  3
DesignerServices
 90
    32768
280
     0
281
     0
  0
CLASS
  1
AMDTDMMENUSTATE
  2
AmdtDmMenuState
  3
AcMechDwgViewMgmt
 90
    32768
280
     0
281
     0
  0
CLASS
  1
MAPIADMODULE
  2
MApiAdModule
  3
MApiAdServices
 90
    32768
280
     0
281
     0
  0
CLASS
  1
AMDTAMMENUSTATE
  2
AmdtAmMenuState
  3
DesignerAssemblies
 90
    32768
280
     0
281
     0
  0
CLASS
  1
ACAMPROJECT
  2
AcAmProject
  3
DesignerAssemblies
 90
    32768
280
     0
281
     0
  0
CLASS
  1
ACAMCOMPDEFMGR
  2
AcAmCompDefMgr
  3
DesignerAssemblies
 90
    32768
280
     0
281
     0
  0
CLASS
  1
AMCONTEXTMGR
  2
AcAmContextMgr
  3
DesignerAssemblies
 90
    32768
280
     0
281
     0
  0
CLASS
  1
ACAMCONTEXTPARTMODELER
  2
AcAmContextPartModeler
  3
DesignerAssemblies
 90
    32768
280
     0
281
     0
  0
CLASS
  1
ACMDATADICTIONARY
  2
AcmDataDictionary
  3
"AcmSymBB|Product Description: AutoCAD Mechanical 2000|Company: Autodesk"
 90
    32768
280
     0
281
     0
  0
CLASS
  1
ACMDATAENTRYBLOCK
  2
AcmDataEntryBlock
  3
"AcmSymBB|Product Description: AutoCAD Mechanical 2000|Company: Autodesk"
 90
    32768
280
     0
281
     0
  0
CLASS
  1
ACMSTANDARDISO
  2
AcmStandardISO
  3
"Amdt_StdImp|Product Description: AutoCAD Mechanical 2000|Company: Autodesk"
 90
    32768
280
     0
281
     0
  0
CLASS
  1
AMGOBJPROPCFG
  2
AmgObjPropCfg
  3
"AmgLay|Product Description: AutoCAD Mechanical 2000|Company: Autodesk"
 90
    32769
280
     0
281
     0
  0
CLASS
  1
AMDTEDGESTANDARDISO
  2
AmdtEdgeStdISO
  3
"Amdt_StdImp|Product Description: AutoCAD Mechanical 2000|Company: Autodesk"
 90
    32768
280
     0
281
     0
  0
CLASS
  1
ACMSURFSTANDARDISO
  2
AcmSurfTextStdISO
  3
"Amdt_StdImp|Product Description: AutoCAD Mechanical 2000|Company: Autodesk"
 90
    32768
280
     0
281
     0
  0
CLASS
  1
ACMFCFSTANDARDISO
  2
AcmFCFStdISO
  3
"Amdt_StdImp|Product Description: AutoCAD Mechanical 2000|Company: Autodesk"
 90
    32768
280
     0
281
     0
  0
CLASS
  1
ACMWELDSTANDARDISO
  2
AcmWeldingStdISO
  3
"Amdt_StdImp|Product Description: AutoCAD Mechanical 2000|Company: Autodesk"
 90
    32768
280
     0
281
     0
  0
CLASS
  1
ACMIDSTANDARDISO
  2
AcmIdStdISO
  3
"Amdt_StdImp|Product Description: AutoCAD Mechanical 2000|Company: Autodesk"
 90
    32768
280
     0
281
     0
  0
CLASS
  1
ACMDATUMSTANDARDISO
  2
AcmDatumStdISO
  3
"Amdt_StdImp|Product Description: AutoCAD Mechanical 2000|Company: Autodesk"
 90
    32768
280
     0
281
     0
  0
CLASS
  1
ACMBOMSTANDARDISO
  2
AcmBOMStdISO
  3
"Amdt_StdImp|Product Description: AutoCAD Mechanical 2000|Company: Autodesk"
 90
    32768
280
     0
281
     0
  0
CLASS
  1
ACMDETAILSTANDARDISO
  2
AmdtDetailSymStdISO
  3
"Amdt_StdImp|Product Description: AutoCAD Mechanical 2000|Company: Autodesk"
 90
    32768
280
     0
281
     0
  0
CLASS
  1
ACMSECTIONSTANDARDISO
  2
AmdtSectionSymStdISO
  3
"Amdt_StdImp|Product Description: AutoCAD Mechanical 2000|Company: Autodesk"
 90
    32768
280
     0
281
     0
  0
CLASS
  1
ACMCENTERLINESTANDARDISO
  2
AmdtCenterLineStdISO
  3
"Amdt_StdImp|Product Description: AutoCAD Mechanical 2000|Company: Autodesk"
 90
    32768
280
     0
281
     0
  0
CLASS
  1
ACMTHREADLINESTANDARDISO
  2
AmdtThreadLineStdISO
  3
"Amdt_StdImp|Product Description: AutoCAD Mechanical 2000|Company: Autodesk"
 90
    32768
280
     0
281
     0
  0
CLASS
  1
ACMNOTESTANDARDISO
  2
AmdtNoteStdISO
  3
"Amdt_StdImp|Product Description: AutoCAD Mechanical 2000|Company: Autodesk"
 90
    32768
280
     0
281
     0
  0
CLASS
  1
ACAMGLAYSTD
  2
AcAmgLayStd
  3
"AcAmgLayStd|Product Description: AutoCAD Mechanical 2000|Company: Autodesk"
 90
    32768
280
     0
281
     0
  0
CLASS
  1
ACAMGDIMSTD
  2
AcAmgDimStd
  3
"AcAmgDimStd|Product Description: AutoCAD Mechanical 2000|Company: Autodesk"
 90
    32768
280
     0
281
     0
  0
CLASS
  1
ACAMGHOLECHARTSTDISO
  2
AcAmgHoleChartStdISO
  3
ACMSYMBB_MODULE_NAME
 90
    32768
280
     0
281
     0
  0
CLASS
  1
ACAMGTITLESTD
  2
AcAmgTitleStd
  3
"TITLEAPP"
 90
    32768
280
     0
281
     0
  0
CLASS
  1
CATALOGSTATE
  2
AcAmCatalogState
  3
DesignerAssemblies
 90
    32768
280
     0
281
     0
  0
CLASS
  1
ACAMGRCOMPDEFSET
  2
AcAmGrCompDefSet
  3
DesignerAssemblies
 90
    32768
280
     0
281
     0
  0
CLASS
  1
AMDTBROWSERDBTAB
  2
AmdtBrowserDbTab
  3
McadcomServices
 90
    32768
280
     0
281
     0
  0
CLASS
  1
CBROWSERAPPOBJECT
  2
CBrowserAppObject
  3
McadcomServices
 90
    32768
280
     0
281
     0
  0
CLASS
  1
DM_PLACEHOLDER
  2
AcDmSelsetPlaceholder
  3
AcMechDwgViewMgmt
 90
    32768
280
     0
281
     0
  0
CLASS
  1
ACAMGFILTERDAT
  2
AcAmgFilterDat
  3
"AcadM|Product Description: AutoCAD Mechanical 2000|Company: Autodesk"
 90
    32768
280
     0
281
     0
  0
CLASS
  1
LAYER_INDEX
  2
AcDbLayerIndex
  3
AutoCAD 2000
 90
    32768
280
     0
281
     0
  0
CLASS
  1
IDBUFFER
  2
AcDbIdBuffer
  3
AutoCAD 2000
 90
    32768
280
     0
281
     0
  0
CLASS
  1
DICTIONARYVAR
  2
AcDbDictionaryVar
  3
AutoCAD 2000
 90
    32768
280
     0
281
     0
  0
CLASS
  1
ACAMGRCOMPDEF
  2
AcAmGrCompDef
  3
DesignerAssemblies
 90
    32768
280
     0
281
     0
  0
CLASS
  1
ACCMCONTEXT
  2
AcCmContext
  3
DesignerAssemblies
 90
    32768
280
     0
281
     0
  0
CLASS
  1
ACAMCOMPDEF
  2
AcAmCompDef
  3
DesignerAssemblies
 90
    32768
280
     0
281
     0
  0
CLASS
  1
ADPART
  2
AcAdPart
  3
DesignerServices
 90
    32768
280
     0
281
     1
  0
CLASS
  1
ADBASE
  2
AcAdBase
  3
DesignerServices
 90
    32768
280
     0
281
     0
  0
CLASS
  1
BODYID
  2
AcAdBodyId
  3
DesignerServices
 90
    32768
280
     0
281
     0
  0
CLASS
  1
WORKPLANEDISPLAYMGR
  2
AcAdDisplayMgr
  3
DesignerServices
 90
    32768
280
     0
281
     0
  0
CLASS
  1
ACCMBODY
  2
AcCmBody
  3
DesignerAssemblies
 90
    32768
280
     0
281
     0
  0
CLASS
  1
ACAMCOMPENT
  2
AcAmCompEnt
  3
DesignerAssemblies
 90
    32768
280
     0
281
     1
  0
CLASS
  1
ACAMCOMPFEEDBACK
  2
AcAmCompFeedback
  3
DesignerAssemblies
 90
    32768
280
     0
281
     0
  0
CLASS
  1
ACAMGROUNDEDBASECOMP
  2
AcAmGroundedBaseComp
  3
DesignerAssemblies
 90
    32768
280
     0
281
     0
  0
CLASS
  1
ACAMCOMPENTCLONE
  2
AcAmCompEntClone
  3
DesignerAssemblies
 90
    32768
280
     0
281
     1
  0
CLASS
  1
ACAMCLONEREACTOR
  2
AcAmGrCompCloneReactor
  3
DesignerAssemblies
 90
    32768
280
     0
281
     0
  0
CLASS
  1
ADDATUMPLANEABS
  2
AcAdDatumPlaneAbs
  3
DesignerServices
 90
    32768
280
     0
281
     0
  0
CLASS
  1
ADDATUMAXISABS
  2
AcAdDatumAxisAbs
  3
DesignerServices
 90
    32768
280
     0
281
     0
  0
CLASS
  1
ADDATUMORIENTEDPLANE
  2
AcAdDatumOrientedPlane
  3
DesignerServices
 90
    32768
280
     0
281
     0
  0
CLASS
  1
ACAD_LINE
  2
AcAdLine
  3
DesignerServices
 90
    32768
280
     0
281
     1
  0
CLASS
  1
ACADLINEACAD
  2
AcAdVirtualBoundedLineAcad
  3
DesignerServices
 90
    32768
280
     0
281
     0
  0
CLASS
  1
ACADREFLINEACAD
  2
AcAdVirtualReferenceLine
  3
DesignerServices
 90
    32768
280
     0
281
     0
  0
CLASS
  1
ACADCONSLINE
  2
AcAdConstrainedLine
  3
DesignerServices
 90
    32768
280
     0
281
     0
  0
CLASS
  1
ACADCONSGROUP
  2
AcAdConstraintGroup
  3
DesignerServices
 90
    32768
280
     0
281
     0
  0
CLASS
  1
ACADIMPPTACAD
  2
AcAdVirtualImplicitPoint
  3
DesignerServices
 90
    32768
280
     0
281
     0
  0
CLASS
  1
ACADCONSPOINT
  2
AcAdConstrainedPoint
  3
DesignerServices
 90
    32768
280
     0
281
     0
  0
CLASS
  1
ADPCURCNS
  2
AcAdPointCurveConstr
  3
DesignerServices
 90
    32768
280
     0
281
     0
  0
CLASS
  1
ADVERCNS
  2
AcAdVerticalConstr
  3
DesignerServices
 90
    32768
280
     0
281
     0
  0
CLASS
  1
ADHORCNS
  2
AcAdHorizontalConstr
  3
DesignerServices
 90
    32768
280
     0
281
     0
  0
CLASS
  1
ADCLPROF2D
  2
AcAdClosedProfile2d
  3
DesignerServices
 90
    32768
280
     0
281
     0
  0
CLASS
  1
ACAD_FIXCONSTRAINT
  2
AcAdFixedConstraint
  3
DesignerServices
 90
    32768
280
     0
281
     0
  0
CLASS
  1
AMDTFORMULAUPDATEDISPATCHER
  2
AmdtFormulaUpdateDispatcher
  3
AcMeServices
 90
    32768
280
     0
281
     0
  0
CLASS
  1
ADCONSDISP
  2
AcAdConstraintDisplay
  3
DesignerServices
 90
    32768
280
     0
281
     1
  0
CLASS
  1
ADCONSTDSP
  2
AcAdConstraintDisplayTag
  3
DesignerServices
 90
    32768
280
     0
281
     1
  0
CLASS
  1
PARAM
  2
AcAdParam
  3
DesignerServices
 90
    32768
280
     0
281
     0
  0
CLASS
  1
ADVDISTCNS
  2
AcAdVerticalDistanceConstr
  3
DesignerServices
 90
    32768
280
     0
281
     0
  0
CLASS
  1
ADHDISTCNS
  2
AcAdHorizontalDistanceConstr
  3
DesignerServices
 90
    32768
280
     0
281
     0
  0
CLASS
  1
ACMEROTATIONARROW
  2
AcImRotationArrowDisplay
  3
AcMeServices
 90
    32768
280
     0
281
     1
  0
CLASS
  1
ACADVOLFEATWITHTRIM
  2
AcAdVolFeatWithTrim
  3
DesignerServices
 90
    32768
280
     0
281
     0
  0
CLASS
  1
DEPEDGEFEATUREORDERING
  2
AcAdDepEdgeFeatureOrdering
  3
DesignerServices
 90
    32768
280
     0
281
     0
  0
CLASS
  1
DATUMAXISDISPLAY
  2
AcAdDatumAxisDisplay
  3
DesignerServices
 90
    32768
280
     0
281
     1
  0
CLASS
  1
ADDATUMAXISCENTER
  2
AcAdDatumAxisCenter
  3
DesignerServices
 90
    32768
280
     0
281
     0
  0
CLASS
  1
ADPLANEID
  2
AcAdSurfGeomId
  3
DesignerServices
 90
    32768
280
     0
281
     0
  0
CLASS
  1
ACMEPOINT
  2
AcImPointDisplay
  3
AcMeServices
 90
    32768
280
     0
281
     1
  0
CLASS
  1
ADPLANEID
  2
AcAdPlaneId
  3
DesignerServices
 90
    32768
280
     0
281
     0
  0
CLASS
  1
ADDATUMPLANEFACE
  2
AcAdDatumPlaneFace
  3
DesignerServices
 90
    32768
280
     0
281
     0
  0
CLASS
  1
ADDATUMPOINTAXISPLANE
  2
AcAdDatumPointAxisPlane
  3
DesignerServices
 90
    32768
280
     0
281
     0
  0
CLASS
  1
ADHOLEFEAT
  2
AcAdHoleFeat
  3
DesignerServices
 90
    32768
280
     0
281
     0
  0
CLASS
  1
CIRREFID
  2
AcAdCircleRefId
  3
DesignerServices
 90
    32768
280
     0
281
     0
  0
CLASS
  1
ACADCIRCDEPID
  2
AcAdVirtualCircleDepId
  3
DesignerServices
 90
    32768
280
     0
281
     0
  0
CLASS
  1
ACADCONSCIRCLE
  2
AcAdConstrainedCircle
  3
DesignerServices
 90
    32768
280
     0
281
     0
  0
CLASS
  1
ADCTRPTCNS
  2
AcAdCenterPointConstr
  3
DesignerServices
 90
    32768
280
     0
281
     0
  0
CLASS
  1
AMDT_ALIGNED_DIM
  2
AmdtAlignedDimension
  3
AcMeServices
 90
    32768
280
     0
281
     1
  0
CLASS
  1
ACADBOUNDEDLINEDATUMID
  2
AcAdVirtualBoundedLineDatumId
  3
DesignerServices
 90
    32768
280
     0
281
     0
  0
CLASS
  1
AMDT_ORDINATE_DIM
  2
AmdtOrdinateDimension
  3
AcMeServices
 90
    32768
280
     0
281
     1
  0
CLASS
  1
EDGEID
  2
AcAdEdgeId
  3
DesignerServices
 90
    32768
280
     0
281
     0
  0
CLASS
  1
ADFILLET
  2
AcAdFillet
  3
DesignerServices
 90
    32768
280
     0
281
     0
  0
CLASS
  1
DATUMPLANEDISPLAY
  2
AcAdDatumPlaneDisplay
  3
DesignerServices
 90
    32768
280
     0
281
     1
  0
CLASS
  1
ADDATUMPLANEAXISPLANE
  2
AcAdDatumPlaneAxisPlane
  3
DesignerServices
 90
    32768
280
     0
281
     0
  0
CLASS
  1
ACMEPLINE
  2
AcImPlineDisplay
  3
AcMeServices
 90
    32768
280
     0
281
     1
  0
CLASS
  1
ACMELINEARARROW
  2
AcImLinearArrowDisplay
  3
AcMeServices
 90
    32768
280
     0
281
     1
  0
CLASS
  1
ACMETEXT
  2
AcImTextDisplay
  3
AcMeServices
 90
    32768
280
     0
281
     1
  0
CLASS
  1
ADDATUMPLANEOFFSET
  2
AcAdDatumPlaneOffset
  3
DesignerServices
 90
    32768
280
     0
281
     0
  0
CLASS
  1
ADCOLNCNS
  2
AcAdColinearConstr
  3
DesignerServices
 90
    32768
280
     0
281
     0
  0
CLASS
  1
STREFID
  2
AcAdStraightRefId
  3
DesignerServices
 90
    32768
280
     0
281
     0
  0
CLASS
  1
ACADLINEDEPID
  2
AcAdVirtualLineDepId
  3
DesignerServices
 90
    32768
280
     0
281
     0
  0
CLASS
  1
ADFEATUREDISPLAY
  2
AcImFeatureDisplay
  3
ACME_MODULE_NAME
 90
    32768
280
     0
281
     1
  0
CLASS
  1
ACMEAXIS
  2
AcImAxisDisplay
  3
AcMeServices
 90
    32768
280
     0
281
     1
  0
CLASS
  1
DEPEDGEPATTERNFEATURE
  2
AcAdDepEdgePatternFeature
  3
DesignerServices
 90
    32768
280
     0
281
     0
  0
CLASS
  1
ACADPATTNFEAT
  2
AcAdPatternFeat
  3
DesignerServices
 90
    32768
280
     0
281
     0
  0
CLASS
  1
ACADORDORIGPT
  2
AcAdOrdinateOriginPoint
  3
DesignerServices
 90
    32768
280
     0
281
     0
  0
CLASS
  1
ADORDBASECNS
  2
AcAdOrdinateBaseConstr
  3
DesignerServices
 90
    32768
280
     0
281
     0
  0
CLASS
  1
DEPEDGESECONDARYDEPID
  2
AcAdDepEdgeSecondaryDepId
  3
DesignerServices
 90
    32768
280
     0
281
     0
  0
CLASS
  1
DEPEDGEPATTERNINSTANCE
  2
AcAdDepEdgePatternInstance
  3
DesignerServices
 90
    32768
280
     0
281
     0
  0
CLASS
  1
AM_VIEW_SELECT_FILTER
  2
AcDmActivePartViewEntFilter
  3
DesignerServices
 90
    32768
280
     0
281
     0
  0
CLASS
  1
AM_ABS_PLANE
  2
AcDmAbsPlnDef
  3
AcMechDwgViewMgmt
 90
    32768
280
     0
281
     0
  0
CLASS
  1
AM_ABS_AXIS
  2
AcDmAbsAxisDef
  3
AcMechDwgViewMgmt
 90
    32768
280
     0
281
     0
  0
CLASS
  1
AM_BASE_VIEW_ORIENT
  2
AcDmBaseViewOr
  3
AcMechDwgViewMgmt
 90
    32768
280
     0
281
     0
  0
CLASS
  1
AM_DWG_VIEWPORT
  2
AcDmViewport
  3
AcMechDwgViewMgmt
 90
    32768
280
     0
281
     0
  0
CLASS
  1
AM_VIEW_DISPLAY
  2
AcDmDwgViewDisplay
  3
AcMechDwgViewMgmt
 90
    32768
280
     0
281
     0
  0
CLASS
  1
AM_CLDFLTS
  2
AcDmClDflts
  3
AcMechDwgViewMgmt
 90
    32768
280
     0
281
     0
  0
CLASS
  1
AM_BASE_VIEW
  2
AcDmBaseView
  3
AcMechDwgViewMgmt
 90
    32768
280
     0
281
     0
  0
CLASS
  1
AM_ISO_VIEW_ORIENT
  2
AcDmIsoViewOr
  3
AcMechDwgViewMgmt
 90
    32768
280
     0
281
     0
  0
CLASS
  1
AM_ISO_VIEW
  2
AcDmIsoView
  3
AcMechDwgViewMgmt
 90
    32768
280
     0
281
     0
  0
CLASS
  1
AM_ORTHO_VIEW_ORIENT
  2
AcDmOrthoViewOr
  3
AcMechDwgViewMgmt
 90
    32768
280
     0
281
     0
  0
CLASS
  1
AM_ORTHO_VIEW
  2
AcDmOrthoView
  3
AcMechDwgViewMgmt
 90
    32768
280
     0
281
     0
  0
CLASS
  1
ACDMPARTVIEWDATA
  2
AcDmPartViewData
  3
AcMechDwgViewMgmt
 90
    32768
280
     0
281
     0
  0
CLASS
  1
ACDMDISPLAYATTRIBS
  2
AcDmDisplayAttribs
  3
AcMechDwgViewMgmt
 90
    32768
280
     0
281
     0
  0
CLASS
  1
ACDMBODYINSTANCEDATA
  2
AcDmBodyInstanceData
  3
AcMechDwgViewMgmt
 90
    32768
280
     0
281
     0
  0
CLASS
  1
ACDMVWEDLINE
  2
AcDmViewEdgeLine
  3
AcMechDwgViewMgmt
 90
    32768
280
     0
281
     1
  0
CLASS
  1
ACDMVWEDARC
  2
AcDmViewEdgeArc
  3
AcMechDwgViewMgmt
 90
    32768
280
     0
281
     1
  0
CLASS
  1
ACADSKETCHPOINTRES
  2
AcAdSketchPointRes
  3
DesignerServices
 90
    32768
280
     0
281
     0
  0
CLASS
  1
AM_VIEWDIMLINEAR
  2
AcDmViewDimLinear
  3
AcMechDwgViewMgmt
 90
    32768
280
     0
281
     0
  0
CLASS
  1
AMDTDMPARMAPDATA
  2
AmdtDmDimParMapData
  3
AcMechDwgViewMgmt
 90
    32768
280
     0
281
     0
  0
CLASS
  1
AM_ADLINCTRLINE
  2
AcAdLineCl
  3
DesignerServices
 90
    32768
280
     0
281
     0
  0
CLASS
  1
ACDMVWEDCIRC
  2
AcDmViewEdgeCircle
  3
AcMechDwgViewMgmt
 90
    32768
280
     0
281
     1
  0
CLASS
  1
AM_ADCIRCTRLINE
  2
AcAdBullsEyeCl
  3
DesignerServices
 90
    32768
280
     0
281
     0
  0
CLASS
  1
AD_CIRCTAPH
  2
AcAdTapHoleCircDisp
  3
DesignerServices
 90
    32768
280
     0
281
     0
  0
CLASS
  1
ACDMVIEWGEOM
  2
AcDmViewGeometry
  3
AcMechDwgViewMgmt
 90
    32768
280
     0
281
     1
  0
CLASS
  1
FACEID
  2
AcAdFaceId
  3
DesignerServices
 90
    32768
280
     0
281
     0
  0
CLASS
  1
ACADPARTPLANARFACERES
  2
AcAdPartPlanarFaceRes
  3
AdGrefServices
 90
    32768
280
     0
281
     0
  0
CLASS
  1
AM_GREF_PLANE
  2
AcDmGrefPlnDef
  3
AcMechDwgViewMgmt
 90
    32768
280
     0
281
     0
  0
CLASS
  1
ACADPARTLINEDGRES
  2
AcAdPartLinEdgRes
  3
AdGrefServices
 90
    32768
280
     0
281
     0
  0
CLASS
  1
AM_GREF_AXIS
  2
AcDmGrefAxisDef
  3
AcMechDwgViewMgmt
 90
    32768
280
     0
281
     0
  0
CLASS
  1
AMDTEXTERNALTHREAD
  2
AmdtExternalThreadFeat
  3
DesignerServices
 90
    32768
280
     0
281
     0
  0
CLASS
  1
THREADDISPLAY
  2
AcAdThreadDisplay
  3
DesignerServices
 90
    32768
280
     0
281
     1
  0
CLASS
  1
AD_LINETAPH
  2
AcAdTapHoleLineDisp
  3
DesignerServices
 90
    32768
280
     0
281
     0
  0
CLASS
  1
ADRADDISP
  2
AcAdRadiusDisplay
  3
DesignerServices
 90
    32768
280
     0
281
     1
  0
CLASS
  1
ACDBLINERES
  2
AcDbLineRes
  3
AcGrefServices
 90
    32768
280
     0
281
     0
  0
CLASS
  1
ACADPARTCONICALFACERES
  2
AcAdPartConicalFaceRes
  3
AdGrefServices
 90
    32768
280
     0
281
     0
  0
CLASS
  1
ACDMGREFEDIT
  2
AcDmViewEntityGeomrefEdit
  3
AcMechDwgViewMgmt
 90
    32768
280
     0
281
     0
  0
CLASS
  1
ACDMVIEWLINEDGERES
  2
AcDmViewLinEdgeRes
  3
AcMechDwgViewMgmt
 90
    32768
280
     0
281
     0
  0
CLASS
  1
SILEDGEID
  2
AcAdSilhouetteEdgeId
  3
DesignerServices
 90
    32768
280
     0
281
     0
  0
CLASS
  1
ACADPARTCYLINDERFACERES
  2
AcAdPartCylinderFaceRes
  3
AdGrefServices
 90
    32768
280
     0
281
     0
  0
CLASS
  1
CNRREFID
  2
AcAdCornerId
  3
DesignerServices
 90
    32768
280
     0
281
     0
  0
CLASS
  1
ACADPARTPOINTRES
  2
AcAdPartPointRes
  3
AdGrefServices
 90
    32768
280
     0
281
     0
  0
CLASS
  1
ACADPARTCIRCEDGRES
  2
AcAdPartCircEdgRes
  3
AdGrefServices
 90
    32768
280
     0
281
     0
  0
CLASS
  1
ACRFDMINSADJ
  2
AcRfDMInsAdjuster
  3
AcMechDwgViewMgmt
 90
    32768
280
     0
281
     0
  0
CLASS
  1
AM_VIEWDIMRADIUS
  2
AcDmViewDimRadius
  3
AcMechDwgViewMgmt
 90
    32768
280
     0
281
     0
  0
CLASS
  1
ACADPARTDATUMPLANERES
  2
AcAdPartDatumPlaneRes
  3
AdGrefServices
 90
    32768
280
     0
281
     0
  0
CLASS
  1
AM_FULLPLANESECTION
  2
AcDmFullPlaneSection
  3
AcMechDwgViewMgmt
 90
    32768
280
     0
281
     0
  0
CLASS
  1
AMDTSECTIONSYM
  2
AmdtSectionSym
  3
"AcmSymBB|Product Description: AutoCAD Mechanical 2000|Company: Autodesk"
 90
    33791
280
     0
281
     1
  0
CLASS
  1
AM_VWNOTEADAPTER
  2
AcDmViewAnnotAdapter
  3
AcMechDwgViewMgmt
 90
    32768
280
     0
281
     0
  0
CLASS
  1
AMDTSECTIONSYMLABEL
  2
AmdtSectionSymLabel
  3
"AcmSymBB|Product Description: AutoCAD Mechanical 2000|Company: Autodesk"
 90
    33791
280
     0
281
     1
  0
CLASS
  1
AMDTNOTE
  2
AmdtNote
  3
"AcmSymBB|Product Description: AutoCAD Mechanical 2000|Company: Autodesk"
 90
    33791
280
     0
281
     1
  0
CLASS
  1
DIMASSOC
  2
AcDbDimAssoc
  3
"AcDbDimAssoc|Product Desc:     AcDim ARX App For Dimension|Company:          Autodesk, Inc.|WEB Address:      www.autodesk.com"
 90
    32768
280
     0
281
     0
  0
CLASS
  1
ACMSTANDARDANSI
  2
AcmStandardANSI
  3
"Amdt_StdImp|Product Description: AutoCAD Mechanical 2000|Company: Autodesk"
 90
    32768
280
     0
281
     0
  0
CLASS
  1
ACMSURFSTANDARDANSI
  2
AcmSurfTextStdANSI
  3
"Amdt_StdImp|Product Description: AutoCAD Mechanical 2000|Company: Autodesk"
 90
    32768
280
     0
281
     0
  0
CLASS
  1
ACMFCFSTANDARDANSI
  2
AcmFCFStdANSI
  3
"Amdt_StdImp|Product Description: AutoCAD Mechanical 2000|Company: Autodesk"
 90
    32768
280
     0
281
     0
  0
CLASS
  1
ACMWELDSTANDARDANSI
  2
AcmWeldingStdANSI
  3
"Amdt_StdImp|Product Description: AutoCAD Mechanical 2000|Company: Autodesk"
 90
    32768
280
     0
281
     0
  0
CLASS
  1
ACMIDSTANDARDANSI
  2
AcmIdStdANSI
  3
"Amdt_StdImp|Product Description: AutoCAD Mechanical 2000|Company: Autodesk"
 90
    32768
280
     0
281
     0
  0
CLASS
  1
ACMDATUMSTANDARDANSI
  2
AcmDatumStdANSI
  3
"Amdt_StdImp|Product Description: AutoCAD Mechanical 2000|Company: Autodesk"
 90
    32768
280
     0
281
     0
  0
CLASS
  1
ACMBOMSTANDARDANSI
  2
AcmBOMStdANSI
  3
"Amdt_StdImp|Product Description: AutoCAD Mechanical 2000|Company: Autodesk"
 90
    32768
280
     0
281
     0
  0
CLASS
  1
ACMDETAILSTANDARDANSI
  2
AmdtDetailSymStdANSI
  3
"Amdt_StdImp|Product Description: AutoCAD Mechanical 2000|Company: Autodesk"
 90
    32768
280
     0
281
     0
  0
CLASS
  1
ACMSECTIONSTANDARDANSI
  2
AmdtSectionSymStdANSI
  3
"Amdt_StdImp|Product Description: AutoCAD Mechanical 2000|Company: Autodesk"
 90
    32768
280
     0
281
     0
  0
CLASS
  1
ACMCENTERLINESTANDARDANSI
  2
AmdtCenterLineStdANSI
  3
"Amdt_StdImp|Product Description: AutoCAD Mechanical 2000|Company: Autodesk"
 90
    32768
280
     0
281
     0
  0
CLASS
  1
ACMNOTESTANDARDANSI
  2
AmdtNoteStdANSI
  3
"Amdt_StdImp|Product Description: AutoCAD Mechanical 2000|Company: Autodesk"
 90
    32768
280
     0
281
     0
  0
CLASS
  1
ACAMGHOLECHARTSTDANSI
  2
AcAmgHoleChartStdANSI
  3
ACMSYMBB_MODULE_NAME
 90
    32768
280
     0
281
     0
  0
CLASS
  1
ACDBCIRCARCRES
  2
AcDbCircArcRes
  3
AcGrefServices
 90
    32768
280
     0
281
     0
  0
CLASS
  1
STDPART2D
  2
AmgStdPart
  3
"AmgStdPart|Product Description: AutoCAD Mechanical 2000|Company: Autodesk"
 90
    33791
280
     0
281
     1
  0
CLASS
  1
LONG_TRANSACTION
  2
AcDbLongTransaction
  3
AutoCAD 2000
 90
    32768
280
     0
281
     0
  0
CLASS
  1
LWPOLYLINE
  2
AcDbPolyline
  3
AutoCAD 2000
 90
    32768
280
     0
281
     1
  0
CLASS
  1
HATCH
  2
AcDbHatch
  3
AutoCAD 2000
 90
    32768
280
     0
281
     1
  0
CLASS
  1
XRECORD
  2
AcDbXrecord
  3
AutoCAD 2000
 90
    32768
280
     0
281
     0
  0
ENDSEC
  0
SECTION
  2
TABLES
  0
TABLE
  2
VPORT
  5
1A
330
0
100
AcDbSymbolTable
 70
     6
  0
VPORT
  5
3620
330
1A
100
AcDbSymbolTableRecord
100
AcDbViewportTableRecord
  2
*ACTIVE
 70
     0
 10
0.0
 20
0.0
 11
1.0
 21
1.0
 12
1037.100848971992
 22
249.2112370818114
 13
0.0
 23
0.0
 14
2.5
 24
2.5
 15
10.0
 25
10.0
 16
0.0
 26
0.0
 36
1.0
 17
0.0
 27
0.0
 37
0.0
 40
313.2957059592995
 41
1.765124555160142
 42
50.0
 43
0.0
 44
0.0
 50
0.0
 51
0.0
 71
     0
 72
   100
 73
     1
 74
     3
 75
     0
 76
     0
 77
     0
 78
     0
  0
ENDTAB
  0
TABLE
  2
LTYPE
  5
15
330
0
100
AcDbSymbolTable
 70
    16
  0
LTYPE
  5
16
330
15
100
AcDbSymbolTableRecord
100
AcDbLinetypeTableRecord
  2
BYBLOCK
 70
     0
  3

 72
    65
 73
     0
 40
0.0
  0
LTYPE
  5
17
330
15
100
AcDbSymbolTableRecord
100
AcDbLinetypeTableRecord
  2
BYLAYER
 70
     0
  3

 72
    65
 73
     0
 40
0.0
  0
LTYPE
  5
9
330
15
100
AcDbSymbolTableRecord
100
AcDbLinetypeTableRecord
  2
CONTINUOUS
 70
     0
  3
Solid line
 72
    65
 73
     0
 40
0.0
  0
LTYPE
  5
161
330
15
100
AcDbSymbolTableRecord
100
AcDbLinetypeTableRecord
  2
HIDDEN
 70
     0
  3
Hidden __ __ __ __ __ __ __ __ __ __ __ __ __ _
 72
    65
 73
     2
 40
9.524999999999998
 49
6.349999999999999
 74
     0
 49
-3.174999999999999
 74
     0
  0
LTYPE
  5
BF
330
15
100
AcDbSymbolTableRecord
100
AcDbLinetypeTableRecord
  2
AM_ISO08W050
 70
     0
  3
____ . ____ . ____ . ____ . ____ . ____ . ____
 72
    65
 73
     4
 40
18.0
 49
12.0
 74
     0
 49
-1.5
 74
     0
 49
3.0
 74
     0
 49
-1.5
 74
     0
  0
LTYPE
  5
1FD
330
15
100
AcDbSymbolTableRecord
100
AcDbLinetypeTableRecord
  2
AM_ISO02W050
 70
     0
  3
__ __ __ __ __ __ __ __ __ __ __ __ __ __ __
 72
    65
 73
     2
 40
7.5
 49
6.0
 74
     0
 49
-1.5
 74
     0
  0
LTYPE
  5
1FE
330
15
100
AcDbSymbolTableRecord
100
AcDbLinetypeTableRecord
  2
AM_ISO09W050
 70
     0
  3
_____ . . _____ . . _____ . . ____ .. ____
 72
    65
 73
     6
 40
22.5
 49
12.0
 74
     0
 49
-1.5
 74
     0
 49
3.0
 74
     0
 49
-1.5
 74
     0
 49
3.0
 74
     0
 49
-1.5
 74
     0
  0
LTYPE
  5
1FF
330
15
100
AcDbSymbolTableRecord
100
AcDbLinetypeTableRecord
  2
AMCONSTR
 70
     0
  3
_______________________
 72
    65
 73
     2
 40
9999.0
 49
9999.0
 74
     0
 49
0.0
 74
     0
  0
LTYPE
  5
200
330
15
100
AcDbSymbolTableRecord
100
AcDbLinetypeTableRecord
  2
AM_ISO08W050X2
 70
     0
  3
__ . __ . __ . __ . __ . __
 72
    65
 73
     4
 40
9.0
 49
6.0
 74
     0
 49
-0.75
 74
     0
 49
1.5
 74
     0
 49
-0.75
 74
     0
  0
LTYPE
  5
201
330
15
100
AcDbSymbolTableRecord
100
AcDbLinetypeTableRecord
  2
AM_ISO02W050X2
 70
     0
  3
 _ _ _ _ _ _ _ _ _ _ _ _
 72
    65
 73
     2
 40
3.75
 49
3.0
 74
     0
 49
-0.75
 74
     0
  0
LTYPE
  5
204
330
15
100
AcDbSymbolTableRecord
100
AcDbLinetypeTableRecord
  2
AMZIGZAG
 70
     0
  3
/\/-/\/-/\/-/\/-/\/-/\/
 72
    65
 73
     2
 40
11.00009999999999
 49
0.0001
 74
     4
 75
   135
340
203
 46
0.04
 50
0.0
 44
0.0
 45
0.0
 49
-11.0
 74
     0
  0
LTYPE
  5
211
330
15
100
AcDbSymbolTableRecord
100
AcDbLinetypeTableRecord
  2
ACISOWELD
 70
     0
  3
_ _ _ _ _
 72
    65
 73
     2
 40
2.0
 49
2.0
 74
     0
 49
-1.0
 74
     0
  0
LTYPE
  5
212
330
15
100
AcDbSymbolTableRecord
100
AcDbLinetypeTableRecord
  2
ACISOTGB
 70
     0
  3
__ . . __ . .
 72
    65
 73
     6
 40
9.0
 49
4.0
 74
     0
 49
-1.0
 74
     0
 49
1.0
 74
     0
 49
-1.0
 74
     0
 49
1.0
 74
     0
 49
-1.0
 74
     0
  0
LTYPE
  5
213
330
15
100
AcDbSymbolTableRecord
100
AcDbLinetypeTableRecord
  2
ACISOTGL
 70
     0
  3
_ _ _ _ _
 72
    65
 73
     2
 40
3.0
 49
2.0
 74
     0
 49
-1.0
 74
     0
  0
LTYPE
  5
214
330
15
100
AcDbSymbolTableRecord
100
AcDbLinetypeTableRecord
  2
CENTER
 70
     0
  3
__ . __
 72
    65
 73
     4
 40
7.0
 49
4.0
 74
     0
 49
-1.0
 74
     0
 49
1.0
 74
     0
 49
-1.0
 74
     0
  0
LTYPE
  5
1112
330
15
100
AcDbSymbolTableRecord
100
AcDbLinetypeTableRecord
  2
PHANTOM2
 70
     0
  3
Phantom (.5x) ___ _ _ ___ _ _ ___ _ _ ___ _ _
 72
    65
 73
     6
 40
1.25
 49
0.625
 74
     0
 49
-0.125
 74
     0
 49
0.125
 74
     0
 49
-0.125
 74
     0
 49
0.125
 74
     0
 49
-0.125
 74
     0
  0
LTYPE
  5
1115
330
15
100
AcDbSymbolTableRecord
100
AcDbLinetypeTableRecord
  2
ACANSTGB
 70
     0
  3
__ . . __ . .
 72
    65
 73
     6
 40
0.35433070866
 49
0.15748031496
 74
     0
 49
-0.03937007874
 74
     0
 49
0.03937007874
 74
     0
 49
-0.03937007874
 74
     0
 49
0.03937007874
 74
     0
 49
-0.03937007874
 74
     0
  0
LTYPE
  5
1116
330
15
100
AcDbSymbolTableRecord
100
AcDbLinetypeTableRecord
  2
ACANSTGL
 70
     0
  3
_ _ _ _ _
 72
    65
 73
     2
 40
0.11811023622
 49
0.07874015748
 74
     0
 49
-0.03937007874
 74
     0
  0
ENDTAB
  0
TABLE
  2
LAYER
  5
11
330
0
100
AcDbSymbolTable
 70
    11
  0
LAYER
  5
5
330
11
100
AcDbSymbolTableRecord
100
AcDbLayerTableRecord
  2
0
 70
     0
 62
     7
  6
CONTINUOUS
  0
LAYER
  5
3B
330
11
100
AcDbSymbolTableRecord
100
AcDbLayerTableRecord
  2
DEFPOINTS
 70
     0
 62
     7
  6
CONTINUOUS
  0
LAYER
  5
14E
330
11
100
AcDbSymbolTableRecord
100
AcDbLayerTableRecord
  2
AM_5
 70
     0
 62
     5
  6
CONTINUOUS
  0
LAYER
  5
32
330
11
100
AcDbSymbolTableRecord
100
AcDbLayerTableRecord
  2
AM_PARDIM
 70
     0
 62
     5
  6
CONTINUOUS
  0
LAYER
  5
BE
330
11
100
AcDbSymbolTableRecord
100
AcDbLayerTableRecord
  2
AM_7
 70
     0
 62
     1
  6
AM_ISO08W050
  0
LAYER
  5
1117
330
11
100
AcDbSymbolTableRecord
100
AcDbLayerTableRecord
  2
HIDDEN
 70
     0
 62
     6
  6
HIDDEN
  0
LAYER
  5
1118
330
11
100
AcDbSymbolTableRecord
100
AcDbLayerTableRecord
  2
DIM
 70
     0
 62
     5
  6
CONTINUOUS
  0
LAYER
  5
1119
330
11
100
AcDbSymbolTableRecord
100
AcDbLayerTableRecord
  2
CENTER
 70
     0
 62
     1
  6
CENTER
  0
LAYER
  5
111A
330
11
100
AcDbSymbolTableRecord
100
AcDbLayerTableRecord
  2
LOGO
 70
     0
 62
     7
  6
CONTINUOUS
  0
ENDTAB
  0
TABLE
  2
STYLE
  5
12
330
0
100
AcDbSymbolTable
 70
    11
  0
STYLE
  5
13
330
12
100
AcDbSymbolTableRecord
100
AcDbTextStyleTableRecord
  2
STANDARD
 70
     0
 40
0.0
 41
1.0
 50
0.0
 71
     0
 42
2.5
  3
ISOCP.SHX
  4
CHINESET.SHX
  0
STYLE
  5
152
330
12
100
AcDbSymbolTableRecord
100
AcDbTextStyleTableRecord
  2
ACISOTS
 70
     0
 40
1.0
 41
1.0
 50
0.0
 71
     0
 42
2.5
  3
isocp.shx
  4
chineset.shx
  0
STYLE
  5
203
330
12
100
AcDbSymbolTableRecord
100
AcDbTextStyleTableRecord
  2

 70
     1
 40
0.0
 41
1.0
 50
0.0
 71
     0
 42
2.5
  3
ltypeshp.shx
  4

  0
STYLE
  5
210
330
12
100
AcDbSymbolTableRecord
100
AcDbTextStyleTableRecord
  2
ACISOGDT
 70
     0
 40
0.0
 41
1.0
 50
0.0
 71
     0
 42
2.5
  3
amgdt.shx
  4

  0
STYLE
  5
356
330
12
100
AcDbSymbolTableRecord
100
AcDbTextStyleTableRecord
  2
CHINESET
 70
     0
 40
0.0
 41
1.0
 50
0.0
 71
     0
 42
2.5
  3
simplex.shx
  4
CHINESET.shx
  0
STYLE
  5
357
330
12
100
AcDbSymbolTableRecord
100
AcDbTextStyleTableRecord
  2
CHINA
 70
     0
 40
0.0
 41
1.0
 50
0.0
 71
     0
 42
3.0
  3
/rubon/c2
  4
/rubon/china
  0
STYLE
  5
111C
330
12
100
AcDbSymbolTableRecord
100
AcDbTextStyleTableRecord
  2
ROMANS
 70
     0
 40
0.0
 41
1.0
 50
0.0
 71
     0
 42
3.0
  3
ROMANS.SHX
  4
LMP
  0
STYLE
  5
111D
330
12
100
AcDbSymbolTableRecord
100
AcDbTextStyleTableRecord
  2
ROMANS1
 70
     0
 40
0.0
 41
1.0
 50
0.0
 71
     0
 42
3.0
  3
ROMANS.SHX
  4

  0
STYLE
  5
111E
330
12
100
AcDbSymbolTableRecord
100
AcDbTextStyleTableRecord
  2
LOGO
 70
     0
 40
0.0
 41
1.0
 50
0.0
 71
     0
 42
5.0
  3
LEI00DP.TTF
  4

1001
ACAD
1000
文鼎中粗隸
1071
    34865
  0
STYLE
  5
111F
330
12
100
AcDbSymbolTableRecord
100
AcDbTextStyleTableRecord
  2
ACANSTS
 70
     0
 40
1.0
 41
1.0
 50
0.0
 71
     0
 42
2.5
  3
romans.shx
  4
chineset.shx
  0
STYLE
  5
1120
330
12
100
AcDbSymbolTableRecord
100
AcDbTextStyleTableRecord
  2
ACANSGDT
 70
     0
 40
0.0
 41
1.0
 50
0.0
 71
     0
 42
2.5
  3
amgdtans.shx
  4

  0
ENDTAB
  0
TABLE
  2
VIEW
  5
18
330
0
100
AcDbSymbolTable
 70
     0
  0
ENDTAB
  0
TABLE
  2
UCS
  5
19
330
0
100
AcDbSymbolTable
 70
     0
  0
ENDTAB
  0
TABLE
  2
APPID
  5
1C
330
0
100
AcDbSymbolTable
 70
    24
  0
APPID
  5
1D
330
1C
100
AcDbSymbolTableRecord
100
AcDbRegAppTableRecord
  2
ACAD
 70
     0
  0
APPID
  5
41
330
1C
100
AcDbSymbolTableRecord
100
AcDbRegAppTableRecord
  2
AD_SKETCHDIM
 70
     0
  0
APPID
  5
42
330
1C
100
AcDbSymbolTableRecord
100
AcDbRegAppTableRecord
  2
ACAD_DIMASSOC_DIMLFAC
 70
     0
  0
APPID
  5
40
330
1C
100
AcDbSymbolTableRecord
100
AcDbRegAppTableRecord
  2
ACAD_DIMASSOC_CALC_DIMLFAC
 70
     0
  0
APPID
  5
1DF
330
1C
100
AcDbSymbolTableRecord
100
AcDbRegAppTableRecord
  2
MCAD_NO_VIS
 70
     0
  0
APPID
  5
1E0
330
1C
100
AcDbSymbolTableRecord
100
AcDbRegAppTableRecord
  2
ACAD_TEMP_GRAPHIC
 70
     0
  0
APPID
  5
1F1
330
1C
100
AcDbSymbolTableRecord
100
AcDbRegAppTableRecord
  2
ACATTRIBSERVICES
 70
     0
  0
APPID
  5
CAF
330
1C
100
AcDbSymbolTableRecord
100
AcDbRegAppTableRecord
  2
GENIUS_GENODEF_13
 70
     0
  0
APPID
  5
CB0
330
1C
100
AcDbSymbolTableRecord
100
AcDbRegAppTableRecord
  2
GENIUS_GENOBJ-N-DIM_13
 70
     0
  0
APPID
  5
CBC
330
1C
100
AcDbSymbolTableRecord
100
AcDbRegAppTableRecord
  2
GENIUS_GENDIM_13
 70
     0
  0
APPID
  5
CDC
330
1C
100
AcDbSymbolTableRecord
100
AcDbRegAppTableRecord
  2
GENIUS_GENDIMSH_14
 70
     0
  0
APPID
  5
E3C
330
1C
100
AcDbSymbolTableRecord
100
AcDbRegAppTableRecord
  2
GENIUS_GENOBJ-N-HTC_13
 70
     0
  0
APPID
  5
E3D
330
1C
100
AcDbSymbolTableRecord
100
AcDbRegAppTableRecord
  2
GENIUS_GENHATCH_13
 70
     0
  0
APPID
  5
E59
330
1C
100
AcDbSymbolTableRecord
100
AcDbRegAppTableRecord
  2
DCO15
 70
     0
  0
APPID
  5
1128
330
1C
100
AcDbSymbolTableRecord
100
AcDbRegAppTableRecord
  2
GENIUS_GENOENT_13
 70
     0
  0
APPID
  5
1129
330
1C
100
AcDbSymbolTableRecord
100
AcDbRegAppTableRecord
  2
GENIUS_GENOLIS_13
 70
     0
  0
APPID
  5
112A
330
1C
100
AcDbSymbolTableRecord
100
AcDbRegAppTableRecord
  2
GENIUS_GENOBJ-N-CRS_13
 70
     0
  0
APPID
  5
112B
330
1C
100
AcDbSymbolTableRecord
100
AcDbRegAppTableRecord
  2
GENIUS_GENOREF_13
 70
     0
  0
APPID
  5
2637
330
1C
100
AcDbSymbolTableRecord
100
AcDbRegAppTableRecord
  2
GEVID1054773670
 70
     0
  0
APPID
  5
2638
330
1C
100
AcDbSymbolTableRecord
100
AcDbRegAppTableRecord
  2
GEVDC
 70
     0
  0
APPID
  5
2639
330
1C
100
AcDbSymbolTableRecord
100
AcDbRegAppTableRecord
  2
GEVRADREF
 70
     0
  0
APPID
  5
263D
330
1C
100
AcDbSymbolTableRecord
100
AcDbRegAppTableRecord
  2
GENIUS_GENBH_13
 70
     0
  0
APPID
  5
2640
330
1C
100
AcDbSymbolTableRecord
100
AcDbRegAppTableRecord
  2
GENIUS_GENOBJ-NBEHI-BHF_13
 70
     0
  0
APPID
  5
2642
330
1C
100
AcDbSymbolTableRecord
100
AcDbRegAppTableRecord
  2
GENIUS_GENOBJ-NBEHI-BHB_13
 70
     0
  0
ENDTAB
  0
TABLE
  2
DIMSTYLE
  5
1E
330
0
100
AcDbSymbolTable
 70
    14
  0
DIMSTYLE
105
1F
102
{ACAD_REACTORS
330
31
330
43
330
52
330
5F
330
6C
330
79
330
86
330
95
330
A3
330
B0
330
2D85
330
2854
330
281C
330
288C
330
27E4
330
27AC
330
28C4
330
2774
330
273C
330
2704
330
26CC
102
}
330
1E
100
AcDbSymbolTableRecord
100
AcDbDimStyleTableRecord
  2
AM_ISO
 70
     0
  3

  4
"
  5

  6

  7

 40
1.2
 41
3.0
 42
2.0
 43
8.0
 44
1.5
 45
0.0
 46
0.0
 47
0.1
 48
0.1
140
3.0
141
0.0
142
0.0
143
0.0393701
144
1.0
145
0.0
146
0.71
147
1.0
 71
     0
 72
     0
 73
     0
 74
     0
 75
     0
 76
     0
 77
     1
 78
     8
170
     0
171
     2
172
     1
173
     0
174
     0
175
     0
176
   256
177
   256
178
   256
270
     2
271
     2
272
     2
273
     2
274
     2
340
357
275
     0
280
     0
281
     0
282
     0
283
     0
284
     8
285
     0
286
     0
287
     3
288
     0
  0
DIMSTYLE
105
217
330
1E
100
AcDbSymbolTableRecord
100
AcDbDimStyleTableRecord
  2
AM_ISO$3
 70
     0
  3

  4
"
  5

  6

  7

 40
1.2
 41
3.0
 42
2.0
 43
8.0
 44
1.5
 45
0.0
 46
0.0
 47
0.1
 48
0.1
140
3.0
141
0.0
142
0.0
143
0.0393701
144
1.0
145
0.0
146
0.71
147
1.0
 71
     0
 72
     0
 73
     0
 74
     1
 75
     0
 76
     0
 77
     1
 78
     8
170
     0
171
     2
172
     0
173
     0
174
     0
175
     0
176
   256
177
   256
178
   256
270
     2
271
     2
272
     2
273
     2
274
     2
340
357
275
     0
280
     0
281
     0
282
     0
283
     0
284
     8
285
     0
286
     0
287
     0
288
     1
  0
DIMSTYLE
105
218
330
1E
100
AcDbSymbolTableRecord
100
AcDbDimStyleTableRecord
  2
AM_ISO$4
 70
     0
  3

  4
"
  5

  6

  7

 40
1.2
 41
3.0
 42
2.0
 43
8.0
 44
1.5
 45
0.0
 46
0.0
 47
0.1
 48
0.1
140
3.0
141
0.0
142
0.0
143
0.0393701
144
1.0
145
0.0
146
0.71
147
1.0
 71
     0
 72
     0
 73
     0
 74
     1
 75
     0
 76
     0
 77
     1
 78
     8
170
     0
171
     2
172
     0
173
     0
174
     0
175
     0
176
   256
177
   256
178
   256
270
     2
271
     2
272
     2
273
     2
274
     2
340
357
275
     0
280
     0
281
     0
282
     0
283
     0
284
     8
285
     0
286
     0
287
     0
288
     1
  0
DIMSTYLE
105
219
330
1E
100
AcDbSymbolTableRecord
100
AcDbDimStyleTableRecord
  2
AM_ISO$6
 70
     0
  3

  4
"
  5

  6

  7

 40
1.2
 41
3.0
 42
2.0
 43
8.0
 44
1.5
 45
0.0
 46
0.0
 47
0.1
 48
0.1
140
3.0
141
0.0
142
0.0
143
0.0393701
144
1.0
145
0.0
146
0.71
147
1.0
 71
     0
 72
     0
 73
     0
 74
     0
 75
     0
 76
     0
 77
     0
 78
     8
170
     0
171
     2
172
     1
173
     0
174
     0
175
     0
176
   256
177
   256
178
   256
270
     2
271
     2
272
     2
273
     2
274
     2
340
357
275
     0
280
     0
281
     0
282
     0
283
     0
284
     8
285
     0
286
     0
287
     3
288
     0
  0
DIMSTYLE
105
21A
330
1E
100
AcDbSymbolTableRecord
100
AcDbDimStyleTableRecord
  2
AM_ISO$7
 70
     0
  3

  4
"
  5

  6

  7

 40
1.2
 41
2.5
 42
2.0
 43
8.0
 44
1.5
 45
0.0
 46
0.0
 47
0.1
 48
0.1
140
5.0
141
0.0
142
0.0
143
0.0393701
144
1.0
145
0.0
146
0.71
147
1.5
 71
     0
 72
     0
 73
     0
 74
     0
 75
     0
 76
     0
 77
     1
 78
     8
170
     0
171
     2
172
     1
173
     0
174
     0
175
     0
176
   256
177
   256
178
   256
270
     2
271
     2
272
     2
273
     2
274
     2
340
357
275
     0
280
     0
281
     0
282
     0
283
     0
284
     8
285
     0
286
     0
287
     3
288
     0
  0
DIMSTYLE
105
21B
330
1E
100
AcDbSymbolTableRecord
100
AcDbDimStyleTableRecord
  2
AM_ISO$SF
 70
     0
  3

  4
"
  5

  6

  7

 40
1.0
 41
3.0
 42
2.0
 43
5.0
 44
1.5
 45
0.0
 46
0.0
 47
0.1
 48
0.1
140
3.0
141
0.0
142
0.0
143
0.0393701
144
1.0
145
0.0
146
0.71
147
1.0
 71
     0
 72
     0
 73
     0
 74
     0
 75
     1
 76
     1
 77
     1
 78
     8
170
     0
171
     2
172
     1
173
     0
174
     0
175
     0
176
   256
177
   256
178
     5
270
     2
271
     2
272
     2
273
     2
274
     2
340
13
275
     0
280
     0
281
     0
282
     0
283
     0
284
     8
285
     0
286
     0
287
     3
288
     0
  0
DIMSTYLE
105
220
330
1E
100
AcDbSymbolTableRecord
100
AcDbDimStyleTableRecord
  2
AM_ISO$SH
 70
     0
  3

  4
"
  5

  6
GENAXEH
  7

 40
1.0
 41
3.0
 42
2.0
 43
5.0
 44
1.5
 45
0.0
 46
0.0
 47
0.1
 48
0.1
140
3.0
141
0.0
142
0.0
143
0.0393701
144
2.0
145
0.0
146
0.71
147
1.0
 71
     0
 72
     0
 73
     0
 74
     0
 75
     1
 76
     1
 77
     1
 78
     8
170
     0
171
     2
172
     1
173
     1
174
     0
175
     0
176
   256
177
   256
178
     5
270
     2
271
     2
272
     2
273
     2
274
     2
340
13
275
     0
280
     0
281
     0
282
     0
283
     0
284
     8
285
     0
286
     0
287
     3
288
     0
  0
DIMSTYLE
105
1121
330
1E
100
AcDbSymbolTableRecord
100
AcDbDimStyleTableRecord
  2
STANDARD
 70
     0
  3

  4

  5

  6

  7

 40
1.0
 41
0.18
 42
0.0625
 43
0.38
 44
0.18
 45
0.0
 46
0.0
 47
0.0
 48
0.0
140
0.18
141
0.09
142
0.0
143
25.4
144
1.0
145
0.0
146
1.0
147
0.09
 71
     0
 72
     0
 73
     1
 74
     1
 75
     0
 76
     0
 77
     0
 78
     0
170
     0
171
     2
172
     0
173
     0
174
     0
175
     0
176
     0
177
     0
178
     0
270
     2
271
     4
272
     4
273
     2
274
     2
340
13
275
     0
280
     0
281
     0
282
     0
283
     1
284
     0
285
     0
286
     0
287
     3
288
     0
  0
DIMSTYLE
105
1122
330
1E
100
AcDbSymbolTableRecord
100
AcDbDimStyleTableRecord
  2
AM_ANSI
 70
     0
  3

  4
mm
  5

  6

  7

 40
1.0
 41
0.1
 42
0.05
 43
0.5
 44
0.1
 45
0.0
 46
0.0
 47
0.1
 48
0.1
140
0.12
141
0.0
142
0.0
143
25.4
144
1.0
145
0.0
146
0.71
147
0.06
 71
     0
 72
     0
 73
     1
 74
     1
 75
     0
 76
     0
 77
     0
 78
     7
170
     0
171
     2
172
     0
173
     0
174
     0
175
     0
176
   256
177
   256
178
     2
270
     2
271
     4
272
     4
273
     2
274
     4
340
13
275
     0
280
     0
281
     0
282
     0
283
     1
284
     7
285
     0
286
     0
287
     3
288
     0
  0
DIMSTYLE
105
1123
330
1E
100
AcDbSymbolTableRecord
100
AcDbDimStyleTableRecord
  2
AM_ANSI$3
 70
     0
  3

  4
mm
  5

  6

  7

 40
1.0
 41
0.1
 42
0.05
 43
0.5
 44
0.1
 45
0.0
 46
0.0
 47
0.1
 48
0.1
140
0.12
141
0.0
142
0.0
143
25.4
144
1.0
145
0.0
146
0.71
147
0.06
 71
     0
 72
     0
 73
     1
 74
     1
 75
     0
 76
     0
 77
     0
 78
     7
170
     0
171
     2
172
     0
173
     0
174
     0
175
     0
176
   256
177
   256
178
     2
270
     2
271
     4
272
     4
273
     2
274
     4
340
13
275
     0
280
     0
281
     0
282
     0
283
     1
284
     7
285
     0
286
     0
287
     0
288
     1
  0
DIMSTYLE
105
1124
330
1E
100
AcDbSymbolTableRecord
100
AcDbDimStyleTableRecord
  2
AM_ANSI$4
 70
     0
  3

  4
mm
  5

  6

  7

 40
1.0
 41
0.1
 42
0.05
 43
0.5
 44
0.1
 45
0.0
 46
0.0
 47
0.1
 48
0.1
140
0.12
141
0.0
142
0.0
143
25.4
144
1.0
145
0.0
146
0.71
147
0.06
 71
     0
 72
     0
 73
     1
 74
     1
 75
     0
 76
     0
 77
     0
 78
     7
170
     0
171
     2
172
     0
173
     0
174
     0
175
     0
176
   256
177
   256
178
     2
270
     2
271
     4
272
     4
273
     2
274
     4
340
13
275
     0
280
     0
281
     0
282
     0
283
     1
284
     7
285
     0
286
     0
287
     0
288
     1
  0
DIMSTYLE
105
1125
330
1E
100
AcDbSymbolTableRecord
100
AcDbDimStyleTableRecord
  2
AM_ANSI$7
 70
     0
  3

  4
mm
  5

  6

  7

 40
1.0
 41
0.1
 42
0.05
 43
0.5
 44
0.1
 45
0.0
 46
0.0
 47
0.1
 48
0.1
140
0.24
141
0.0
142
0.0
143
25.4
144
1.0
145
0.0
146
0.71
147
0.06
 71
     0
 72
     0
 73
     1
 74
     1
 75
     0
 76
     0
 77
     0
 78
     7
170
     0
171
     2
172
     0
173
     0
174
     0
175
     0
176
   256
177
   256
178
     2
270
     2
271
     4
272
     4
273
     2
274
     4
340
13
275
     0
280
     0
281
     0
282
     0
283
     1
284
     7
285
     0
286
     0
287
     3
288
     0
  0
DIMSTYLE
105
1126
330
1E
100
AcDbSymbolTableRecord
100
AcDbDimStyleTableRecord
  2
AM_ANSI$SF
 70
     0
  3

  4
mm
  5

  6

  7

 40
1.0
 41
0.1
 42
0.05
 43
0.5
 44
0.1
 45
0.0
 46
0.0
 47
0.1
 48
0.1
140
0.12
141
0.0
142
0.0
143
25.4
144
1.0
145
0.0
146
0.71
147
0.06
 71
     0
 72
     0
 73
     1
 74
     1
 75
     1
 76
     1
 77
     0
 78
     7
170
     0
171
     2
172
     0
173
     0
174
     0
175
     0
176
   256
177
   256
178
     2
270
     2
271
     4
272
     4
273
     2
274
     4
340
13
275
     0
280
     0
281
     0
282
     0
283
     1
284
     7
285
     0
286
     0
287
     3
288
     0
  0
DIMSTYLE
105
1127
330
1E
100
AcDbSymbolTableRecord
100
AcDbDimStyleTableRecord
  2
AM_ANSI$SH
 70
     0
  3

  4
mm
  5

  6
GENAXEH
  7

 40
1.0
 41
0.1
 42
0.05
 43
0.5
 44
0.1
 45
0.0
 46
0.0
 47
0.1
 48
0.1
140
0.12
141
0.0
142
0.0
143
25.4
144
1.0
145
0.0
146
0.71
147
0.06
 71
     0
 72
     0
 73
     1
 74
     1
 75
     1
 76
     1
 77
     0
 78
     7
170
     0
171
     2
172
     0
173
     1
174
     0
175
     0
176
   256
177
   256
178
     2
270
     2
271
     4
272
     4
273
     2
274
     4
340
13
275
     0
280
     0
281
     0
282
     0
283
     1
284
     7
285
     0
286
     0
287
     3
288
     0
  0
ENDTAB
  0
TABLE
  2
BLOCK_RECORD
  5
1
330
0
100
AcDbSymbolTable
 70
    51
  0
BLOCK_RECORD
  5
2
102
{ACAD_XDICTIONARY
360
3
102
}
330
1
100
AcDbSymbolTableRecord
100
AcDbBlockTableRecord
  2
*MODEL_SPACE
  0
BLOCK_RECORD
  5
D
102
{ACAD_XDICTIONARY
360
3622
102
}
330
1
100
AcDbSymbolTableRecord
100
AcDbBlockTableRecord
  2
*PAPER_SPACE
  0
BLOCK_RECORD
  5
21C
330
1
100
AcDbSymbolTableRecord
100
AcDbBlockTableRecord
  2
GENAXEH
  0
BLOCK_RECORD
  5
F83
330
1
100
AcDbSymbolTableRecord
100
AcDbBlockTableRecord
  2
*D1
  0
BLOCK_RECORD
  5
F8F
330
1
100
AcDbSymbolTableRecord
100
AcDbBlockTableRecord
  2
*D2
  0
BLOCK_RECORD
  5
F9D
330
1
100
AcDbSymbolTableRecord
100
AcDbBlockTableRecord
  2
*D3
  0
BLOCK_RECORD
  5
FA9
330
1
100
AcDbSymbolTableRecord
100
AcDbBlockTableRecord
  2
*D4
  0
BLOCK_RECORD
  5
FB5
330
1
100
AcDbSymbolTableRecord
100
AcDbBlockTableRecord
  2
*D5
  0
BLOCK_RECORD
  5
FC1
330
1
100
AcDbSymbolTableRecord
100
AcDbBlockTableRecord
  2
*D6
  0
BLOCK_RECORD
  5
FCD
330
1
100
AcDbSymbolTableRecord
100
AcDbBlockTableRecord
  2
*D7
  0
BLOCK_RECORD
  5
FDB
330
1
100
AcDbSymbolTableRecord
100
AcDbBlockTableRecord
  2
*D8
  0
BLOCK_RECORD
  5
FE8
330
1
100
AcDbSymbolTableRecord
100
AcDbBlockTableRecord
  2
*D9
  0
BLOCK_RECORD
  5
FF4
330
1
100
AcDbSymbolTableRecord
100
AcDbBlockTableRecord
  2
*D10
  0
BLOCK_RECORD
  5
26CD
330
1
100
AcDbSymbolTableRecord
100
AcDbBlockTableRecord
  2
*D11
  0
BLOCK_RECORD
  5
2705
330
1
100
AcDbSymbolTableRecord
100
AcDbBlockTableRecord
  2
*D12
  0
BLOCK_RECORD
  5
273D
330
1
100
AcDbSymbolTableRecord
100
AcDbBlockTableRecord
  2
*D13
  0
BLOCK_RECORD
  5
2775
330
1
100
AcDbSymbolTableRecord
100
AcDbBlockTableRecord
  2
*D14
  0
BLOCK_RECORD
  5
27AD
330
1
100
AcDbSymbolTableRecord
100
AcDbBlockTableRecord
  2
*D15
  0
BLOCK_RECORD
  5
27E5
330
1
100
AcDbSymbolTableRecord
100
AcDbBlockTableRecord
  2
*D16
  0
BLOCK_RECORD
  5
281D
330
1
100
AcDbSymbolTableRecord
100
AcDbBlockTableRecord
  2
*D17
  0
BLOCK_RECORD
  5
2855
330
1
100
AcDbSymbolTableRecord
100
AcDbBlockTableRecord
  2
*D18
  0
BLOCK_RECORD
  5
288D
330
1
100
AcDbSymbolTableRecord
100
AcDbBlockTableRecord
  2
*D19
  0
BLOCK_RECORD
  5
28C5
330
1
100
AcDbSymbolTableRecord
100
AcDbBlockTableRecord
  2
*D20
  0
BLOCK_RECORD
  5
2D86
330
1
100
AcDbSymbolTableRecord
100
AcDbBlockTableRecord
  2
*D21
  0
BLOCK_RECORD
  5
3624
330
1
100
AcDbSymbolTableRecord
100
AcDbBlockTableRecord
  2
*S49
  0
BLOCK_RECORD
  5
362C
330
1
100
AcDbSymbolTableRecord
100
AcDbBlockTableRecord
  2
*S50
  0
ENDTAB
  0
ENDSEC
  0
SECTION
  2
BLOCKS
  0
BLOCK
  5
4
330
2
100
AcDbEntity
  8
0
100
AcDbBlockBegin
  2
*MODEL_SPACE
 70
     0
 10
0.0
 20
0.0
 30
0.0
  3
*MODEL_SPACE
  1

  0
ENDBLK
  5
A
330
2
100
AcDbEntity
  8
0
100
AcDbBlockEnd
  0
BLOCK
  5
E
330
D
100
AcDbEntity
 67
     1
  8
0
100
AcDbBlockBegin
  2
*PAPER_SPACE
 70
     0
 10
0.0
 20
0.0
 30
0.0
  3
*PAPER_SPACE
  1

  0
ENDBLK
  5
F
330
D
100
AcDbEntity
 67
     1
  8
0
100
AcDbBlockEnd
  0
BLOCK
  5
21E
330
21C
100
AcDbEntity
  8
0
100
AcDbBlockBegin
  2
GENAXEH
 70
     0
 10
0.0
 20
0.0
 30
0.0
  3
GENAXEH
  1

  0
LINE
  5
21D
330
21C
100
AcDbEntity
  8
0
100
AcDbLine
 10
-1.0
 20
0.0
 30
0.0
 11
1.0
 21
0.0
 31
0.0
  0
ENDBLK
  5
21F
330
21C
100
AcDbEntity
  8
0
100
AcDbBlockEnd
  0
BLOCK
  5
F8D
330
F83
100
AcDbEntity
  8
0
100
AcDbBlockBegin
  2
*D1
 70
     1
 10
0.0
 20
0.0
 30
0.0
  3
*D1
  1

  0
LINE
  5
2A0E
330
F83
100
AcDbEntity
  8
AM_PARDIM
100
AcDbLine
 10
77.77464887656421
 20
116.1938113892625
 30
0.0
 11
116.3325708695175
 21
116.1938113892624
 31
0.0
  0
LINE
  5
2A0F
330
F83
100
AcDbEntity
  8
AM_PARDIM
100
AcDbLine
 10
77.77464887656421
 20
128.6938113892625
 30
0.0
 11
116.3325708695175
 21
128.6938113892625
 31
0.0
  0
LINE
  5
2A10
330
F83
100
AcDbEntity
  8
AM_PARDIM
100
AcDbLine
 10
114.5325708695175
 20
119.7938113892624
 30
0.0
 11
114.5325708695175
 21
125.0938113892624
 31
0.0
  0
SOLID
  5
2A11
330
F83
100
AcDbEntity
  8
AM_PARDIM
100
AcDbTrace
 10
113.9325708695175
 20
119.7938113892624
 30
0.0
 11
115.1325708695175
 21
119.7938113892624
 31
0.0
 12
114.5325708695175
 22
116.1938113892624
 32
0.0
 13
114.5325708695175
 23
116.1938113892624
 33
0.0
  0
SOLID
  5
2A12
330
F83
100
AcDbEntity
  8
AM_PARDIM
100
AcDbTrace
 10
113.9325708695175
 20
125.0938113892624
 30
0.0
 11
115.1325708695175
 21
125.0938113892624
 31
0.0
 12
114.5325708695175
 22
128.6938113892625
 32
0.0
 13
114.5325708695175
 23
128.6938113892625
 33
0.0
  0
MTEXT
  5
2A13
330
F83
100
AcDbEntity
  8
AM_PARDIM
100
AcDbMText
 10
111.5228070899899
 20
122.4438113892625
 30
0.0
 40
3.6
 41
0.0
 71
     5
 72
     1
  1
12.5
  7
CHINA
 11
0.0000000000000001
 21
1.0
 31
0.0
1001
ACAD
1000
MTEXTBEGIN
1070
    73
1070
     1
1070
    44
1040
1.0
1070
    74
1070
     0
1000
MTEXTEND
  0
POINT
  5
2A14
330
F83
100
AcDbEntity
  8
DEFPOINTS
 62
     0
100
AcDbPoint
 10
75.37464887656421
 20
116.1938113892625
 30
0.0
  0
POINT
  5
2A15
330
F83
100
AcDbEntity
  8
DEFPOINTS
 62
     0
100
AcDbPoint
 10
75.37464887656421
 20
128.6938113892625
 30
0.0
  0
POINT
  5
2A16
330
F83
100
AcDbEntity
  8
DEFPOINTS
 62
     0
100
AcDbPoint
 10
114.5325708695175
 20
128.6938113892625
 30
0.0
  0
ENDBLK
  5
F8E
330
F83
100
AcDbEntity
  8
0
100
AcDbBlockEnd
  0
BLOCK
  5
F9B
330
F8F
100
AcDbEntity
  8
0
100
AcDbBlockBegin
  2
*D2
 70
     1
 10
0.0
 20
0.0
 30
0.0
  3
*D2
  1

  0
LINE
  5
2A17
330
F8F
100
AcDbEntity
  8
AM_PARDIM
100
AcDbLine
 10
36.47464887656421
 20
116.1938113892625
 30
0.0
 11
25.0746488765642
 21
116.1938113892625
 31
0.0
  0
LINE
  5
2A18
330
F8F
100
AcDbEntity
  8
AM_PARDIM
100
AcDbLine
 10
36.47464887656421
 20
122.1938113892624
 30
0.0
 11
25.0746488765642
 21
122.1938113892625
 31
0.0
  0
LINE
  5
2A19
330
F8F
100
AcDbEntity
  8
AM_PARDIM
100
AcDbLine
 10
26.8746488765642
 20
112.5938113892625
 30
0.0
 11
26.8746488765642
 21
108.9938113892624
 31
0.0
  0
LINE
  5
2A1A
330
F8F
100
AcDbEntity
  8
AM_PARDIM
100
AcDbLine
 10
26.87464887656421
 20
125.7938113892625
 30
0.0
 11
26.87464887656421
 21
129.3938113892625
 31
0.0
  0
LINE
  5
2A1B
330
F8F
100
AcDbEntity
  8
AM_PARDIM
100
AcDbLine
 10
26.8746488765642
 20
116.1938113892625
 30
0.0
 11
26.87464887656421
 21
122.1938113892625
 31
0.0
  0
SOLID
  5
2A1C
330
F8F
100
AcDbEntity
  8
AM_PARDIM
100
AcDbTrace
 10
26.2746488765642
 20
112.5938113892625
 30
0.0
 11
27.4746488765642
 21
112.5938113892625
 31
0.0
 12
26.8746488765642
 22
116.1938113892625
 32
0.0
 13
26.8746488765642
 23
116.1938113892625
 33
0.0
  0
SOLID
  5
2A1D
330
F8F
100
AcDbEntity
  8
AM_PARDIM
100
AcDbTrace
 10
26.27464887656421
 20
125.7938113892625
 30
0.0
 11
27.47464887656421
 21
125.7938113892625
 31
0.0
 12
26.87464887656421
 22
122.1938113892625
 32
0.0
 13
26.87464887656421
 23
122.1938113892625
 33
0.0
  0
MTEXT
  5
2A1E
330
F8F
100
AcDbEntity
  8
AM_PARDIM
100
AcDbMText
 10
23.87464887656418
 20
119.1938113892625
 30
0.0
 40
3.6
 41
0.0
 71
     5
 72
     1
  1
6
  7
CHINA
 11
0.0000000000000001
 21
1.0
 31
0.0
1001
ACAD
1000
MTEXTBEGIN
1070
    73
1070
     1
1070
    44
1040
1.0
1070
    74
1070
     0
1000
MTEXTEND
  0
POINT
  5
2A1F
330
F8F
100
AcDbEntity
  8
DEFPOINTS
 62
     0
100
AcDbPoint
 10
38.8746488765642
 20
116.1938113892625
 30
0.0
  0
POINT
  5
2A20
330
F8F
100
AcDbEntity
  8
DEFPOINTS
 62
     0
100
AcDbPoint
 10
38.8746488765642
 20
122.1938113892624
 30
0.0
  0
POINT
  5
2A21
330
F8F
100
AcDbEntity
  8
DEFPOINTS
 62
     0
100
AcDbPoint
 10
26.87464887656421
 20
122.1938113892625
 30
0.0
  0
ENDBLK
  5
F9C
330
F8F
100
AcDbEntity
  8
0
100
AcDbBlockEnd
  0
BLOCK
  5
FA7
330
F9D
100
AcDbEntity
  8
0
100
AcDbBlockBegin
  2
*D3
 70
     1
 10
0.0
 20
0.0
 30
0.0
  3
*D3
  1

  0
LINE
  5
2A22
330
F9D
100
AcDbEntity
  8
AM_PARDIM
100
AcDbLine
 10
38.8746488765642
 20
124.5938113892625
 30
0.0
 11
38.8746488765642
 21
142.4938113892625
 31
0.0
  0
LINE
  5
2A23
330
F9D
100
AcDbEntity
  8
AM_PARDIM
100
AcDbLine
 10
50.87464887656421
 20
124.5938113892625
 30
0.0
 11
50.87464887656421
 21
142.4938113892625
 31
0.0
  0
LINE
  5
2A24
330
F9D
100
AcDbEntity
  8
AM_PARDIM
100
AcDbLine
 10
42.47464887656421
 20
140.6938113892624
 30
0.0
 11
47.2746488765642
 21
140.6938113892624
 31
0.0
  0
SOLID
  5
2A25
330
F9D
100
AcDbEntity
  8
AM_PARDIM
100
AcDbTrace
 10
42.47464887656421
 20
141.2938113892624
 30
0.0
 11
42.47464887656421
 21
140.0938113892624
 31
0.0
 12
38.8746488765642
 22
140.6938113892624
 32
0.0
 13
38.8746488765642
 23
140.6938113892624
 33
0.0
  0
SOLID
  5
2A26
330
F9D
100
AcDbEntity
  8
AM_PARDIM
100
AcDbTrace
 10
47.2746488765642
 20
141.2938113892624
 30
0.0
 11
47.2746488765642
 21
140.0938113892624
 31
0.0
 12
50.87464887656421
 22
140.6938113892624
 32
0.0
 13
50.87464887656421
 23
140.6938113892624
 33
0.0
  0
MTEXT
  5
2A27
330
F9D
100
AcDbEntity
  8
AM_PARDIM
100
AcDbMText
 10
44.87464887656421
 20
143.6941263498924
 30
0.0
 40
3.6
 41
0.0
 71
     5
 72
     1
  1
12
  7
CHINA
1001
ACAD
1000
MTEXTBEGIN
1070
    73
1070
     1
1070
    44
1040
1.0
1070
    74
1070
     0
1000
MTEXTEND
  0
POINT
  5
2A28
330
F9D
100
AcDbEntity
  8
DEFPOINTS
 62
     0
100
AcDbPoint
 10
38.8746488765642
 20
122.1938113892624
 30
0.0
  0
POINT
  5
2A29
330
F9D
100
AcDbEntity
  8
DEFPOINTS
 62
     0
100
AcDbPoint
 10
50.87464887656421
 20
122.1938113892624
 30
0.0
  0
POINT
  5
2A2A
330
F9D
100
AcDbEntity
  8
DEFPOINTS
 62
     0
100
AcDbPoint
 10
50.87464887656421
 20
140.6938113892624
 30
0.0
  0
ENDBLK
  5
FA8
330
F9D
100
AcDbEntity
  8
0
100
AcDbBlockEnd
  0
BLOCK
  5
FB3
330
FA9
100
AcDbEntity
  8
0
100
AcDbBlockBegin
  2
*D4
 70
     1
 10
0.0
 20
0.0
 30
0.0
  3
*D4
  1

  0
LINE
  5
2A2B
330
FA9
100
AcDbEntity
  8
AM_PARDIM
100
AcDbLine
 10
38.8746488765642
 20
118.5938113892625
 30
0.0
 11
38.8746488765642
 21
162.4938113892624
 31
0.0
  0
LINE
  5
2A2C
330
FA9
100
AcDbEntity
  8
AM_PARDIM
100
AcDbLine
 10
75.37464887656421
 20
118.5938113892625
 30
0.0
 11
75.37464887656421
 21
162.4938113892624
 31
0.0
  0
LINE
  5
2A2D
330
FA9
100
AcDbEntity
  8
AM_PARDIM
100
AcDbLine
 10
42.47464887656421
 20
160.6938113892624
 30
0.0
 11
71.77464887656421
 21
160.6938113892624
 31
0.0
  0
SOLID
  5
2A2E
330
FA9
100
AcDbEntity
  8
AM_PARDIM
100
AcDbTrace
 10
42.47464887656421
 20
161.2938113892624
 30
0.0
 11
42.47464887656421
 21
160.0938113892625
 31
0.0
 12
38.8746488765642
 22
160.6938113892624
 32
0.0
 13
38.8746488765642
 23
160.6938113892624
 33
0.0
  0
SOLID
  5
2A2F
330
FA9
100
AcDbEntity
  8
AM_PARDIM
100
AcDbTrace
 10
71.77464887656421
 20
161.2938113892624
 30
0.0
 11
71.77464887656421
 21
160.0938113892625
 31
0.0
 12
75.37464887656421
 22
160.6938113892624
 32
0.0
 13
75.37464887656421
 23
160.6938113892624
 33
0.0
  0
MTEXT
  5
2A30
330
FA9
100
AcDbEntity
  8
AM_PARDIM
100
AcDbMText
 10
57.12464887656421
 20
163.7032602081601
 30
0.0
 40
3.6
 41
0.0
 71
     5
 72
     1
  1
36.5
  7
CHINA
1001
ACAD
1000
MTEXTBEGIN
1070
    73
1070
     1
1070
    44
1040
1.0
1070
    74
1070
     0
1000
MTEXTEND
  0
POINT
  5
2A31
330
FA9
100
AcDbEntity
  8
DEFPOINTS
 62
     0
100
AcDbPoint
 10
38.8746488765642
 20
116.1938113892625
 30
0.0
  0
POINT
  5
2A32
330
FA9
100
AcDbEntity
  8
DEFPOINTS
 62
     0
100
AcDbPoint
 10
75.37464887656421
 20
116.1938113892625
 30
0.0
  0
POINT
  5
2A33
330
FA9
100
AcDbEntity
  8
DEFPOINTS
 62
     0
100
AcDbPoint
 10
75.37464887656421
 20
160.6938113892624
 30
0.0
  0
ENDBLK
  5
FB4
330
FA9
100
AcDbEntity
  8
0
100
AcDbBlockEnd
  0
BLOCK
  5
FBF
330
FB5
100
AcDbEntity
  8
0
100
AcDbBlockBegin
  2
*D5
 70
     1
 10
0.0
 20
0.0
 30
0.0
  3
*D5
  1

  0
LINE
  5
2A34
330
FB5
100
AcDbEntity
  8
AM_PARDIM
100
AcDbLine
 10
53.27464887656421
 20
127.1938113892624
 30
0.0
 11
106.3325708695175
 21
127.1938113892624
 31
0.0
  0
LINE
  5
2A35
330
FB5
100
AcDbEntity
  8
AM_PARDIM
100
AcDbLine
 10
77.77464887656421
 20
116.1938113892625
 30
0.0
 11
106.3325708695175
 21
116.1938113892624
 31
0.0
  0
LINE
  5
2A36
330
FB5
100
AcDbEntity
  8
AM_PARDIM
100
AcDbLine
 10
104.5325708695175
 20
123.5938113892624
 30
0.0
 11
104.5325708695175
 21
119.7938113892624
 31
0.0
  0
SOLID
  5
2A37
330
FB5
100
AcDbEntity
  8
AM_PARDIM
100
AcDbTrace
 10
103.9325708695175
 20
123.5938113892624
 30
0.0
 11
105.1325708695175
 21
123.5938113892624
 31
0.0
 12
104.5325708695175
 22
127.1938113892624
 32
0.0
 13
104.5325708695175
 23
127.1938113892624
 33
0.0
  0
SOLID
  5
2A38
330
FB5
100
AcDbEntity
  8
AM_PARDIM
100
AcDbTrace
 10
103.9325708695175
 20
119.7938113892624
 30
0.0
 11
105.1325708695175
 21
119.7938113892624
 31
0.0
 12
104.5325708695175
 22
116.1938113892624
 32
0.0
 13
104.5325708695175
 23
116.1938113892624
 33
0.0
  0
MTEXT
  5
2A39
330
FB5
100
AcDbEntity
  8
AM_PARDIM
100
AcDbMText
 10
101.5325708695175
 20
121.6938113892625
 30
0.0
 40
3.6
 41
0.0
 71
     5
 72
     1
  1
11
  7
CHINA
 11
0.0000000000000001
 21
1.0
 31
0.0
1001
ACAD
1000
MTEXTBEGIN
1070
    73
1070
     1
1070
    44
1040
1.0
1070
    74
1070
     0
1000
MTEXTEND
  0
POINT
  5
2A3A
330
FB5
100
AcDbEntity
  8
DEFPOINTS
 62
     0
100
AcDbPoint
 10
50.87464887656421
 20
127.1938113892624
 30
0.0
  0
POINT
  5
2A3B
330
FB5
100
AcDbEntity
  8
DEFPOINTS
 62
     0
100
AcDbPoint
 10
75.37464887656421
 20
116.1938113892625
 30
0.0
  0
POINT
  5
2A3C
330
FB5
100
AcDbEntity
  8
DEFPOINTS
 62
     0
100
AcDbPoint
 10
104.5325708695175
 20
116.1938113892624
 30
0.0
  0
ENDBLK
  5
FC0
330
FB5
100
AcDbEntity
  8
0
100
AcDbBlockEnd
  0
BLOCK
  5
FCB
330
FC1
100
AcDbEntity
  8
0
100
AcDbBlockBegin
  2
*D6
 70
     1
 10
0.0
 20
0.0
 30
0.0
  3
*D6
  1

  0
LINE
  5
2A3D
330
FC1
100
AcDbEntity
  8
AM_PARDIM
100
AcDbLine
 10
66.3746488765642
 20
131.0938113892625
 30
0.0
 11
66.3746488765642
 21
152.4938113892624
 31
0.0
  0
LINE
  5
2A3E
330
FC1
100
AcDbEntity
  8
AM_PARDIM
100
AcDbLine
 10
75.37464887656421
 20
131.0938113892625
 30
0.0
 11
75.37464887656421
 21
152.4938113892624
 31
0.0
  0
LINE
  5
2A3F
330
FC1
100
AcDbEntity
  8
AM_PARDIM
100
AcDbLine
 10
62.77464887656421
 20
150.6938113892624
 30
0.0
 11
59.17464887656421
 21
150.6938113892624
 31
0.0
  0
LINE
  5
2A40
330
FC1
100
AcDbEntity
  8
AM_PARDIM
100
AcDbLine
 10
78.9746488765642
 20
150.6938113892624
 30
0.0
 11
82.57464887656421
 21
150.6938113892624
 31
0.0
  0
LINE
  5
2A41
330
FC1
100
AcDbEntity
  8
AM_PARDIM
100
AcDbLine
 10
66.3746488765642
 20
150.6938113892624
 30
0.0
 11
75.37464887656421
 21
150.6938113892624
 31
0.0
  0
SOLID
  5
2A42
330
FC1
100
AcDbEntity
  8
AM_PARDIM
100
AcDbTrace
 10
62.77464887656421
 20
151.2938113892625
 30
0.0
 11
62.77464887656421
 21
150.0938113892624
 31
0.0
 12
66.3746488765642
 22
150.6938113892624
 32
0.0
 13
66.3746488765642
 23
150.6938113892624
 33
0.0
  0
SOLID
  5
2A43
330
FC1
100
AcDbEntity
  8
AM_PARDIM
100
AcDbTrace
 10
78.9746488765642
 20
151.2938113892625
 30
0.0
 11
78.9746488765642
 21
150.0938113892624
 31
0.0
 12
75.37464887656421
 22
150.6938113892624
 32
0.0
 13
75.37464887656421
 23
150.6938113892624
 33
0.0
  0
MTEXT
  5
2A44
330
FC1
100
AcDbEntity
  8
AM_PARDIM
100
AcDbMText
 10
70.87464887656421
 20
153.6938113892625
 30
0.0
 40
3.6
 41
0.0
 71
     5
 72
     1
  1
9
  7
CHINA
1001
ACAD
1000
MTEXTBEGIN
1070
    73
1070
     1
1070
    44
1040
1.0
1070
    74
1070
     0
1000
MTEXTEND
  0
POINT
  5
2A45
330
FC1
100
AcDbEntity
  8
DEFPOINTS
 62
     0
100
AcDbPoint
 10
66.3746488765642
 20
128.6938113892625
 30
0.0
  0
POINT
  5
2A46
330
FC1
100
AcDbEntity
  8
DEFPOINTS
 62
     0
100
AcDbPoint
 10
75.37464887656421
 20
128.6938113892625
 30
0.0
  0
POINT
  5
2A47
330
FC1
100
AcDbEntity
  8
DEFPOINTS
 62
     0
100
AcDbPoint
 10
75.37464887656421
 20
150.6938113892624
 30
0.0
  0
ENDBLK
  5
FCC
330
FC1
100
AcDbEntity
  8
0
100
AcDbBlockEnd
  0
BLOCK
  5
FD9
330
FCD
100
AcDbEntity
  8
0
100
AcDbBlockBegin
  2
*D7
 70
     1
 10
0.0
 20
0.0
 30
0.0
  3
*D7
  1

  0
LINE
  5
2A48
330
FCD
100
AcDbEntity
  8
AM_PARDIM
100
AcDbLine
 10
63.87464887656418
 20
131.0938113892624
 30
0.0
 11
63.87464887656418
 21
142.4938113892625
 31
0.0
  0
LINE
  5
2A49
330
FCD
100
AcDbEntity
  8
AM_PARDIM
100
AcDbLine
 10
66.37464887656418
 20
131.0938113892624
 30
0.0
 11
66.37464887656418
 21
142.4938113892625
 31
0.0
  0
LINE
  5
2A4A
330
FCD
100
AcDbEntity
  8
AM_PARDIM
100
AcDbLine
 10
60.27464887656417
 20
140.6938113892624
 30
0.0
 11
56.67464887656418
 21
140.6938113892624
 31
0.0
  0
LINE
  5
2A4B
330
FCD
100
AcDbEntity
  8
AM_PARDIM
100
AcDbLine
 10
69.97464887656417
 20
140.6938113892624
 30
0.0
 11
82.1056724986114
 21
140.6938113892624
 31
0.0
  0
LINE
  5
2A4C
330
FCD
100
AcDbEntity
  8
AM_PARDIM
100
AcDbLine
 10
63.87464887656418
 20
140.6938113892624
 30
0.0
 11
66.37464887656418
 21
140.6938113892624
 31
0.0
  0
SOLID
  5
2A4D
330
FCD
100
AcDbEntity
  8
AM_PARDIM
100
AcDbTrace
 10
60.27464887656417
 20
141.2938113892624
 30
0.0
 11
60.27464887656417
 21
140.0938113892624
 31
0.0
 12
63.87464887656418
 22
140.6938113892624
 32
0.0
 13
63.87464887656418
 23
140.6938113892624
 33
0.0
  0
SOLID
  5
2A4E
330
FCD
100
AcDbEntity
  8
AM_PARDIM
100
AcDbTrace
 10
69.97464887656417
 20
141.2938113892624
 30
0.0
 11
69.97464887656417
 21
140.0938113892624
 31
0.0
 12
66.37464887656418
 22
140.6938113892624
 32
0.0
 13
66.37464887656418
 23
140.6938113892624
 33
0.0
  0
MTEXT
  5
2A4F
330
FCD
100
AcDbEntity
  8
AM_PARDIM
100
AcDbMText
 10
77.8401606875878
 20
143.70357516879
 30
0.0
 40
3.6
 41
0.0
 71
     5
 72
     1
  1
2.5
  7
CHINA
1001
ACAD
1000
MTEXTBEGIN
1070
    73
1070
     1
1070
    44
1040
1.0
1070
    74
1070
     0
1000
MTEXTEND
  0
POINT
  5
2A50
330
FCD
100
AcDbEntity
  8
DEFPOINTS
 62
     0
100
AcDbPoint
 10
63.87464887656418
 20
128.6938113892624
 30
0.0
  0
POINT
  5
2A51
330
FCD
100
AcDbEntity
  8
DEFPOINTS
 62
     0
100
AcDbPoint
 10
66.37464887656418
 20
128.6938113892624
 30
0.0
  0
POINT
  5
2A52
330
FCD
100
AcDbEntity
  8
DEFPOINTS
 62
     0
100
AcDbPoint
 10
66.37464887656418
 20
140.6938113892624
 30
0.0
  0
ENDBLK
  5
FDA
330
FCD
100
AcDbEntity
  8
0
100
AcDbBlockEnd
  0
BLOCK
  5
FE6
330
FDB
100
AcDbEntity
  8
0
100
AcDbBlockBegin
  2
*D8
 70
     1
 10
0.0
 20
0.0
 30
0.0
  3
*D8
  1

  0
LINE
  5
2A53
330
FDB
100
AcDbEntity
  8
AM_PARDIM
100
AcDbLine
 10
66.37464887656418
 20
131.0938113892624
 30
0.0
 11
66.37464887656418
 21
137.830378563861
 31
0.0
  0
LINE
  5
2A54
330
FDB
100
AcDbEntity
  8
AM_PARDIM
100
AcDbLine
 10
66.37464887656418
 20
118.5938113892624
 30
0.0
 11
66.37464887656418
 21
137.830378563861
 31
0.0
  0
LINE
  5
2A55
330
FDB
100
AcDbEntity
  8
AM_PARDIM
100
AcDbLine
 10
62.77464887656417
 20
136.030378563861
 30
0.0
 11
59.17464887656418
 21
136.030378563861
 31
0.0
  0
LINE
  5
2A56
330
FDB
100
AcDbEntity
  8
AM_PARDIM
100
AcDbLine
 10
69.97464887656417
 20
136.030378563861
 30
0.0
 11
77.89464887656419
 21
136.030378563861
 31
0.0
  0
SOLID
  5
2A57
330
FDB
100
AcDbEntity
  8
AM_PARDIM
100
AcDbTrace
 10
62.77464887656417
 20
136.630378563861
 30
0.0
 11
62.77464887656417
 21
135.430378563861
 31
0.0
 12
66.37464887656418
 22
136.030378563861
 32
0.0
 13
66.37464887656418
 23
136.030378563861
 33
0.0
  0
SOLID
  5
2A58
330
FDB
100
AcDbEntity
  8
AM_PARDIM
100
AcDbTrace
 10
69.97464887656417
 20
136.630378563861
 30
0.0
 11
69.97464887656417
 21
135.430378563861
 31
0.0
 12
66.37464887656418
 22
136.030378563861
 32
0.0
 13
66.37464887656418
 23
136.030378563861
 33
0.0
  0
MTEXT
  5
2A59
330
FDB
100
AcDbEntity
  8
AM_PARDIM
100
AcDbMText
 10
75.73464887656418
 20
139.030378563861
 30
0.0
 40
3.6
 41
0.0
 71
     5
 72
     1
  1
0
  7
CHINA
1001
ACAD
1000
MTEXTBEGIN
1070
    73
1070
     1
1070
    44
1040
1.0
1070
    74
1070
     0
1000
MTEXTEND
  0
POINT
  5
2A5A
330
FDB
100
AcDbEntity
  8
DEFPOINTS
 62
     0
100
AcDbPoint
 10
66.37464887656418
 20
128.6938113892624
 30
0.0
  0
POINT
  5
2A5B
330
FDB
100
AcDbEntity
  8
DEFPOINTS
 62
     0
100
AcDbPoint
 10
66.37464887656418
 20
116.1938113892624
 30
0.0
  0
POINT
  5
2A5C
330
FDB
100
AcDbEntity
  8
DEFPOINTS
 62
     0
100
AcDbPoint
 10
66.37464887656418
 20
136.030378563861
 30
0.0
  0
ENDBLK
  5
FE7
330
FDB
100
AcDbEntity
  8
0
100
AcDbBlockEnd
  0
BLOCK
  5
FF2
330
FE8
100
AcDbEntity
  8
0
100
AcDbBlockBegin
  2
*D9
 70
     1
 10
0.0
 20
0.0
 30
0.0
  3
*D9
  1

  0
LINE
  5
2A5D
330
FE8
100
AcDbEntity
  8
AM_PARDIM
100
AcDbLine
 10
66.27464887656419
 20
125.6938113892624
 30
0.0
 11
96.33257086951754
 21
125.6938113892624
 31
0.0
  0
LINE
  5
2A5E
330
FE8
100
AcDbEntity
  8
AM_PARDIM
100
AcDbLine
 10
84.93257086951755
 20
116.1938113892624
 30
0.0
 11
96.33257086951754
 21
116.1938113892624
 31
0.0
  0
LINE
  5
2A5F
330
FE8
100
AcDbEntity
  8
AM_PARDIM
100
AcDbLine
 10
94.53257086951754
 20
129.2938113892624
 30
0.0
 11
94.53257086951754
 21
132.8938113892624
 31
0.0
  0
LINE
  5
2A60
330
FE8
100
AcDbEntity
  8
AM_PARDIM
100
AcDbLine
 10
94.53257086951754
 20
112.5938113892624
 30
0.0
 11
94.53257086951754
 21
108.9938113892624
 31
0.0
  0
LINE
  5
2A61
330
FE8
100
AcDbEntity
  8
AM_PARDIM
100
AcDbLine
 10
94.53257086951754
 20
125.6938113892624
 30
0.0
 11
94.53257086951754
 21
116.1938113892624
 31
0.0
  0
SOLID
  5
2A62
330
FE8
100
AcDbEntity
  8
AM_PARDIM
100
AcDbTrace
 10
93.93257086951754
 20
129.2938113892624
 30
0.0
 11
95.13257086951753
 21
129.2938113892624
 31
0.0
 12
94.53257086951754
 22
125.6938113892624
 32
0.0
 13
94.53257086951754
 23
125.6938113892624
 33
0.0
  0
SOLID
  5
2A63
330
FE8
100
AcDbEntity
  8
AM_PARDIM
100
AcDbTrace
 10
93.93257086951754
 20
112.5938113892624
 30
0.0
 11
95.13257086951753
 21
112.5938113892624
 31
0.0
 12
94.53257086951754
 22
116.1938113892624
 32
0.0
 13
94.53257086951754
 23
116.1938113892624
 33
0.0
  0
MTEXT
  5
2A64
330
FE8
100
AcDbEntity
  8
AM_PARDIM
100
AcDbMText
 10
91.52312205061988
 20
120.9438113892624
 30
0.0
 40
3.6
 41
0.0
 71
     5
 72
     1
  1
9.5
  7
CHINA
 11
0.0000000000000001
 21
1.0
 31
0.0
1001
ACAD
1000
MTEXTBEGIN
1070
    73
1070
     1
1070
    44
1040
1.0
1070
    74
1070
     0
1000
MTEXTEND
  0
POINT
  5
2A65
330
FE8
100
AcDbEntity
  8
DEFPOINTS
 62
     0
100
AcDbPoint
 10
63.87464887656418
 20
125.6938113892624
 30
0.0
  0
POINT
  5
2A66
330
FE8
100
AcDbEntity
  8
DEFPOINTS
 62
     0
100
AcDbPoint
 10
82.53257086951753
 20
116.1938113892624
 30
0.0
  0
POINT
  5
2A67
330
FE8
100
AcDbEntity
  8
DEFPOINTS
 62
     0
100
AcDbPoint
 10
94.53257086951754
 20
116.1938113892624
 30
0.0
  0
ENDBLK
  5
FF3
330
FE8
100
AcDbEntity
  8
0
100
AcDbBlockEnd
  0
BLOCK
  5
FFE
330
FF4
100
AcDbEntity
  8
0
100
AcDbBlockBegin
  2
*D10
 70
     1
 10
0.0
 20
0.0
 30
0.0
  3
*D10
  1

  0
LINE
  5
2A68
330
FF4
100
AcDbEntity
  8
AM_PARDIM
100
AcDbLine
 10
68.77464887656419
 20
128.6938113892624
 30
0.0
 11
126.3325708695175
 21
128.6938113892624
 31
0.0
  0
LINE
  5
2A69
330
FF4
100
AcDbEntity
  8
AM_PARDIM
100
AcDbLine
 10
84.93257086951755
 20
116.1938113892624
 30
0.0
 11
126.3325708695175
 21
116.1938113892624
 31
0.0
  0
LINE
  5
2A6A
330
FF4
100
AcDbEntity
  8
AM_PARDIM
100
AcDbLine
 10
124.5325708695175
 20
125.0938113892624
 30
0.0
 11
124.5325708695175
 21
119.7938113892624
 31
0.0
  0
SOLID
  5
2A6B
330
FF4
100
AcDbEntity
  8
AM_PARDIM
100
AcDbTrace
 10
123.9325708695175
 20
125.0938113892624
 30
0.0
 11
125.1325708695175
 21
125.0938113892624
 31
0.0
 12
124.5325708695175
 22
128.6938113892624
 32
0.0
 13
124.5325708695175
 23
128.6938113892624
 33
0.0
  0
SOLID
  5
2A6C
330
FF4
100
AcDbEntity
  8
AM_PARDIM
100
AcDbTrace
 10
123.9325708695175
 20
119.7938113892624
 30
0.0
 11
125.1325708695175
 21
119.7938113892624
 31
0.0
 12
124.5325708695175
 22
116.1938113892624
 32
0.0
 13
124.5325708695175
 23
116.1938113892624
 33
0.0
  0
MTEXT
  5
2A6D
330
FF4
100
AcDbEntity
  8
AM_PARDIM
100
AcDbMText
 10
121.5228070899899
 20
122.4438113892624
 30
0.0
 40
3.6
 41
0.0
 71
     5
 72
     1
  1
12.5
  7
CHINA
 11
0.0000000000000001
 21
1.0
 31
0.0
1001
ACAD
1000
MTEXTBEGIN
1070
    73
1070
     1
1070
    44
1040
1.0
1070
    74
1070
     0
1000
MTEXTEND
  0
POINT
  5
2A6E
330
FF4
100
AcDbEntity
  8
DEFPOINTS
 62
     0
100
AcDbPoint
 10
66.37464887656418
 20
128.6938113892624
 30
0.0
  0
POINT
  5
2A6F
330
FF4
100
AcDbEntity
  8
DEFPOINTS
 62
     0
100
AcDbPoint
 10
82.53257086951753
 20
116.1938113892624
 30
0.0
  0
POINT
  5
2A70
330
FF4
100
AcDbEntity
  8
DEFPOINTS
 62
     0
100
AcDbPoint
 10
124.5325708695175
 20
116.1938113892624
 30
0.0
  0
ENDBLK
  5
FFF
330
FF4
100
AcDbEntity
  8
0
100
AcDbBlockEnd
  0
BLOCK
  5
26D7
330
26CD
100
AcDbEntity
  8
0
100
AcDbBlockBegin
  2
*D11
 70
     1
 10
0.0
 20
0.0
 30
0.0
  3
*D11
  1

  0
LINE
  5
3599
330
26CD
100
AcDbEntity
  8
AM_5
100
AcDbLine
 10
1040.763567520608
 20
366.9740627464432
 30
0.0
 11
1053.163567520608
 21
366.9740627464432
 31
0.0
  0
LINE
  5
359A
330
26CD
100
AcDbEntity
  8
AM_5
100
AcDbLine
 10
1040.763567520608
 20
347.9740627464432
 30
0.0
 11
1053.163567520608
 21
347.9740627464432
 31
0.0
  0
LINE
  5
359B
330
26CD
100
AcDbEntity
  8
AM_5
100
AcDbLine
 10
1051.363567520608
 20
363.3740627464432
 30
0.0
 11
1051.363567520608
 21
351.5740627464432
 31
0.0
  0
SOLID
  5
359C
330
26CD
100
AcDbEntity
  8
AM_5
100
AcDbTrace
 10
1050.763567520608
 20
363.3740627464432
 30
0.0
 11
1051.963567520608
 21
363.3740627464432
 31
0.0
 12
1051.363567520608
 22
366.9740627464432
 32
0.0
 13
1051.363567520608
 23
366.9740627464432
 33
0.0
  0
SOLID
  5
359D
330
26CD
100
AcDbEntity
  8
AM_5
100
AcDbTrace
 10
1050.763567520608
 20
351.5740627464432
 30
0.0
 11
1051.963567520608
 21
351.5740627464432
 31
0.0
 12
1051.363567520608
 22
347.9740627464432
 32
0.0
 13
1051.363567520608
 23
347.9740627464432
 33
0.0
  0
MTEXT
  5
359E
330
26CD
100
AcDbEntity
  8
AM_5
100
AcDbMText
 10
1048.363567520608
 20
357.4740627464434
 30
0.0
 40
3.6
 41
0.0
 71
     5
 72
     1
  1
19
  7
CHINA
 11
0.0000000000000001
 21
1.0
 31
0.0
1001
ACAD
1000
MTEXTBEGIN
1070
    73
1070
     1
1070
    44
1040
1.0
1070
    74
1070
     0
1000
MTEXTEND
  0
POINT
  5
359F
330
26CD
100
AcDbEntity
  8
DEFPOINTS
 62
     0
100
AcDbPoint
 10
1038.363567520608
 20
366.9740627464432
 30
0.0
  0
POINT
  5
35A0
330
26CD
100
AcDbEntity
  8
DEFPOINTS
 62
     0
100
AcDbPoint
 10
1038.363567520608
 20
347.9740627464432
 30
0.0
  0
POINT
  5
35A1
330
26CD
100
AcDbEntity
  8
DEFPOINTS
 62
     0
100
AcDbPoint
 10
1051.363567520608
 20
347.9740627464432
 30
0.0
  0
ENDBLK
  5
26D8
330
26CD
100
AcDbEntity
  8
0
100
AcDbBlockEnd
  0
BLOCK
  5
270F
330
2705
100
AcDbEntity
  8
0
100
AcDbBlockBegin
  2
*D12
 70
     1
 10
0.0
 20
0.0
 30
0.0
  3
*D12
  1

  0
LINE
  5
3590
330
2705
100
AcDbEntity
  8
AM_5
100
AcDbLine
 10
1020.513567520608
 20
381.4740627464432
 30
0.0
 11
1061.163567520608
 21
381.4740627464432
 31
0.0
  0
LINE
  5
3591
330
2705
100
AcDbEntity
  8
AM_5
100
AcDbLine
 10
1020.513567520608
 20
333.4740627464432
 30
0.0
 11
1061.163567520608
 21
333.4740627464432
 31
0.0
  0
LINE
  5
3592
330
2705
100
AcDbEntity
  8
AM_5
100
AcDbLine
 10
1059.363567520608
 20
377.8740627464432
 30
0.0
 11
1059.363567520608
 21
337.0740627464432
 31
0.0
  0
SOLID
  5
3593
330
2705
100
AcDbEntity
  8
AM_5
100
AcDbTrace
 10
1058.763567520608
 20
377.8740627464432
 30
0.0
 11
1059.963567520608
 21
377.8740627464432
 31
0.0
 12
1059.363567520608
 22
381.4740627464432
 32
0.0
 13
1059.363567520608
 23
381.4740627464432
 33
0.0
  0
SOLID
  5
3594
330
2705
100
AcDbEntity
  8
AM_5
100
AcDbTrace
 10
1058.763567520608
 20
337.0740627464432
 30
0.0
 11
1059.963567520608
 21
337.0740627464432
 31
0.0
 12
1059.363567520608
 22
333.4740627464432
 32
0.0
 13
1059.363567520608
 23
333.4740627464432
 33
0.0
  0
MTEXT
  5
3595
330
2705
100
AcDbEntity
  8
AM_5
100
AcDbMText
 10
1056.363567520608
 20
357.4740627464434
 30
0.0
 40
3.6
 41
0.0
 71
     5
 72
     1
  1
48
  7
CHINA
 11
0.0000000000000001
 21
1.0
 31
0.0
1001
ACAD
1000
MTEXTBEGIN
1070
    73
1070
     1
1070
    44
1040
1.0
1070
    74
1070
     0
1000
MTEXTEND
  0
POINT
  5
3596
330
2705
100
AcDbEntity
  8
DEFPOINTS
 62
     0
100
AcDbPoint
 10
1018.113567520608
 20
381.4740627464432
 30
0.0
  0
POINT
  5
3597
330
2705
100
AcDbEntity
  8
DEFPOINTS
 62
     0
100
AcDbPoint
 10
1018.113567520608
 20
333.4740627464432
 30
0.0
  0
POINT
  5
3598
330
2705
100
AcDbEntity
  8
DEFPOINTS
 62
     0
100
AcDbPoint
 10
1059.363567520608
 20
333.4740627464432
 30
0.0
  0
ENDBLK
  5
2710
330
2705
100
AcDbEntity
  8
0
100
AcDbBlockEnd
  0
BLOCK
  5
2747
330
273D
100
AcDbEntity
  8
0
100
AcDbBlockBegin
  2
*D13
 70
     1
 10
0.0
 20
0.0
 30
0.0
  3
*D13
  1

  0
LINE
  5
3517
330
273D
100
AcDbEntity
  8
AM_5
100
AcDbLine
 10
965.3635675206086
 20
326.3240627464432
 30
0.0
 11
965.3635675206086
 21
314.6740627464432
 31
0.0
  0
LINE
  5
3518
330
273D
100
AcDbEntity
  8
AM_5
100
AcDbLine
 10
1013.363567520608
 20
326.3240627464432
 30
0.0
 11
1013.363567520608
 21
314.6740627464432
 31
0.0
  0
LINE
  5
3519
330
273D
100
AcDbEntity
  8
AM_5
100
AcDbLine
 10
968.9635675206085
 20
316.4740627464432
 30
0.0
 11
1009.763567520608
 21
316.4740627464432
 31
0.0
  0
SOLID
  5
351A
330
273D
100
AcDbEntity
  8
AM_5
100
AcDbTrace
 10
968.9635675206085
 20
317.0740627464433
 30
0.0
 11
968.9635675206085
 21
315.8740627464432
 31
0.0
 12
965.3635675206086
 22
316.4740627464432
 32
0.0
 13
965.3635675206086
 23
316.4740627464432
 33
0.0
  0
SOLID
  5
351B
330
273D
100
AcDbEntity
  8
AM_5
100
AcDbTrace
 10
1009.763567520608
 20
317.0740627464433
 30
0.0
 11
1009.763567520608
 21
315.8740627464432
 31
0.0
 12
1013.363567520608
 22
316.4740627464432
 32
0.0
 13
1013.363567520608
 23
316.4740627464432
 33
0.0
  0
MTEXT
  5
351C
330
273D
100
AcDbEntity
  8
AM_5
100
AcDbMText
 10
989.3635675206084
 20
319.4740627464432
 30
0.0
 40
3.6
 41
0.0
 71
     5
 72
     1
  1
48
  7
CHINA
1001
ACAD
1000
MTEXTBEGIN
1070
    73
1070
     1
1070
    44
1040
1.0
1070
    74
1070
     0
1000
MTEXTEND
  0
POINT
  5
351D
330
273D
100
AcDbEntity
  8
DEFPOINTS
 62
     0
100
AcDbPoint
 10
965.3635675206086
 20
328.7240627464433
 30
0.0
  0
POINT
  5
351E
330
273D
100
AcDbEntity
  8
DEFPOINTS
 62
     0
100
AcDbPoint
 10
1013.363567520608
 20
328.7240627464433
 30
0.0
  0
POINT
  5
351F
330
273D
100
AcDbEntity
  8
DEFPOINTS
 62
     0
100
AcDbPoint
 10
1013.363567520608
 20
316.4740627464432
 30
0.0
  0
ENDBLK
  5
2748
330
273D
100
AcDbEntity
  8
0
100
AcDbBlockEnd
  0
BLOCK
  5
277F
330
2775
100
AcDbEntity
  8
0
100
AcDbBlockBegin
  2
*D14
 70
     1
 10
0.0
 20
0.0
 30
0.0
  3
*D14
  1

  0
LINE
  5
350E
330
2775
100
AcDbEntity
  8
AM_5
100
AcDbLine
 10
960.3635675206085
 20
328.0740627464433
 30
0.0
 11
960.3635675206085
 21
306.6740627464433
 31
0.0
  0
LINE
  5
350F
330
2775
100
AcDbEntity
  8
AM_5
100
AcDbLine
 10
1018.363567520608
 20
328.0740627464433
 30
0.0
 11
1018.363567520608
 21
306.6740627464433
 31
0.0
  0
LINE
  5
3510
330
2775
100
AcDbEntity
  8
AM_5
100
AcDbLine
 10
963.9635675206084
 20
308.4740627464433
 30
0.0
 11
1014.763567520608
 21
308.4740627464433
 31
0.0
  0
SOLID
  5
3511
330
2775
100
AcDbEntity
  8
AM_5
100
AcDbTrace
 10
963.9635675206084
 20
309.0740627464433
 30
0.0
 11
963.9635675206084
 21
307.8740627464433
 31
0.0
 12
960.3635675206085
 22
308.4740627464433
 32
0.0
 13
960.3635675206085
 23
308.4740627464433
 33
0.0
  0
SOLID
  5
3512
330
2775
100
AcDbEntity
  8
AM_5
100
AcDbTrace
 10
1014.763567520608
 20
309.0740627464433
 30
0.0
 11
1014.763567520608
 21
307.8740627464433
 31
0.0
 12
1018.363567520608
 22
308.4740627464433
 32
0.0
 13
1018.363567520608
 23
308.4740627464433
 33
0.0
  0
MTEXT
  5
3513
330
2775
100
AcDbEntity
  8
AM_5
100
AcDbMText
 10
989.3635675206084
 20
311.4835115653409
 30
0.0
 40
3.6
 41
0.0
 71
     5
 72
     1
  1
{\Famgdt;o}58
  7
CHINA
1001
ACAD
1000
MTEXTBEGIN
1070
    73
1070
     1
1070
    44
1040
1.0
1070
    74
1070
     0
1000
MTEXTEND
  0
POINT
  5
3514
330
2775
100
AcDbEntity
  8
DEFPOINTS
 62
     0
100
AcDbPoint
 10
960.3635675206085
 20
330.4740627464433
 30
0.0
  0
POINT
  5
3515
330
2775
100
AcDbEntity
  8
DEFPOINTS
 62
     0
100
AcDbPoint
 10
1018.363567520608
 20
330.4740627464433
 30
0.0
  0
POINT
  5
3516
330
2775
100
AcDbEntity
  8
DEFPOINTS
 62
     0
100
AcDbPoint
 10
1018.363567520608
 20
308.4740627464433
 30
0.0
  0
ENDBLK
  5
2780
330
2775
100
AcDbEntity
  8
0
100
AcDbBlockEnd
  0
BLOCK
  5
27B7
330
27AD
100
AcDbEntity
  8
0
100
AcDbBlockBegin
  2
*D15
 70
     1
 10
0.0
 20
0.0
 30
0.0
  3
*D15
  1

  0
LINE
  5
2E3A
330
27AD
100
AcDbEntity
  8
AM_5
100
AcDbLine
 10
1020.263567520608
 20
154.6833029586079
 30
0.0
 11
1032.163567520608
 21
154.6833029586079
 31
0.0
  0
LINE
  5
2E3B
330
27AD
100
AcDbEntity
  8
AM_5
100
AcDbLine
 10
1020.263567520608
 20
180.6833029586079
 30
0.0
 11
1032.163567520608
 21
180.6833029586079
 31
0.0
  0
LINE
  5
2E3C
330
27AD
100
AcDbEntity
  8
AM_5
100
AcDbLine
 10
1030.363567520608
 20
158.2833029586079
 30
0.0
 11
1030.363567520608
 21
177.0833029586079
 31
0.0
  0
SOLID
  5
2E3D
330
27AD
100
AcDbEntity
  8
AM_5
100
AcDbTrace
 10
1029.763567520608
 20
158.2833029586079
 30
0.0
 11
1030.963567520608
 21
158.2833029586079
 31
0.0
 12
1030.363567520608
 22
154.6833029586079
 32
0.0
 13
1030.363567520608
 23
154.6833029586079
 33
0.0
  0
SOLID
  5
2E3E
330
27AD
100
AcDbEntity
  8
AM_5
100
AcDbTrace
 10
1029.763567520608
 20
177.0833029586079
 30
0.0
 11
1030.963567520608
 21
177.0833029586079
 31
0.0
 12
1030.363567520608
 22
180.6833029586079
 32
0.0
 13
1030.363567520608
 23
180.6833029586079
 33
0.0
  0
MTEXT
  5
2E3F
330
27AD
100
AcDbEntity
  8
AM_5
100
AcDbMText
 10
1027.363252559978
 20
167.6833029586081
 30
0.0
 40
3.6
 41
0.0
 71
     5
 72
     1
  1
26
  7
CHINA
 11
0.0000000000000001
 21
1.0
 31
0.0
1001
ACAD
1000
MTEXTBEGIN
1070
    73
1070
     1
1070
    44
1040
1.0
1070
    74
1070
     0
1000
MTEXTEND
  0
POINT
  5
2E40
330
27AD
100
AcDbEntity
  8
DEFPOINTS
 62
     0
100
AcDbPoint
 10
1017.863567520608
 20
154.6833029586079
 30
0.0
  0
POINT
  5
2E41
330
27AD
100
AcDbEntity
  8
DEFPOINTS
 62
     0
100
AcDbPoint
 10
1017.863567520608
 20
180.6833029586079
 30
0.0
  0
POINT
  5
2E42
330
27AD
100
AcDbEntity
  8
DEFPOINTS
 62
     0
100
AcDbPoint
 10
1030.363567520608
 20
180.6833029586079
 30
0.0
  0
ENDBLK
  5
27B8
330
27AD
100
AcDbEntity
  8
0
100
AcDbBlockEnd
  0
BLOCK
  5
27EF
330
27E5
100
AcDbEntity
  8
0
100
AcDbBlockBegin
  2
*D16
 70
     1
 10
0.0
 20
0.0
 30
0.0
  3
*D16
  1

  0
LINE
  5
2E31
330
27E5
100
AcDbEntity
  8
AM_5
100
AcDbLine
 10
1020.263567520608
 20
154.6833029586079
 30
0.0
 11
1040.163567520608
 21
154.6833029586079
 31
0.0
  0
LINE
  5
2E32
330
27E5
100
AcDbEntity
  8
AM_5
100
AcDbLine
 10
1016.263567520608
 20
229.6833029586079
 30
0.0
 11
1040.163567520608
 21
229.6833029586079
 31
0.0
  0
LINE
  5
2E33
330
27E5
100
AcDbEntity
  8
AM_5
100
AcDbLine
 10
1038.363567520608
 20
158.2833029586079
 30
0.0
 11
1038.363567520608
 21
226.0833029586079
 31
0.0
  0
SOLID
  5
2E34
330
27E5
100
AcDbEntity
  8
AM_5
100
AcDbTrace
 10
1037.763567520608
 20
158.2833029586079
 30
0.0
 11
1038.963567520608
 21
158.2833029586079
 31
0.0
 12
1038.363567520608
 22
154.6833029586079
 32
0.0
 13
1038.363567520608
 23
154.6833029586079
 33
0.0
  0
SOLID
  5
2E35
330
27E5
100
AcDbEntity
  8
AM_5
100
AcDbTrace
 10
1037.763567520608
 20
226.0833029586079
 30
0.0
 11
1038.963567520608
 21
226.0833029586079
 31
0.0
 12
1038.363567520608
 22
229.6833029586079
 32
0.0
 13
1038.363567520608
 23
229.6833029586079
 33
0.0
  0
MTEXT
  5
2E36
330
27E5
100
AcDbEntity
  8
AM_5
100
AcDbMText
 10
1035.354118701711
 20
192.1833029586081
 30
0.0
 40
3.6
 41
0.0
 71
     5
 72
     1
  1
75
  7
CHINA
 11
0.0000000000000001
 21
1.0
 31
0.0
1001
ACAD
1000
MTEXTBEGIN
1070
    73
1070
     1
1070
    44
1040
1.0
1070
    74
1070
     0
1000
MTEXTEND
  0
POINT
  5
2E37
330
27E5
100
AcDbEntity
  8
DEFPOINTS
 62
     0
100
AcDbPoint
 10
1017.863567520608
 20
154.6833029586079
 30
0.0
  0
POINT
  5
2E38
330
27E5
100
AcDbEntity
  8
DEFPOINTS
 62
     0
100
AcDbPoint
 10
1013.863567520608
 20
229.6833029586079
 30
0.0
  0
POINT
  5
2E39
330
27E5
100
AcDbEntity
  8
DEFPOINTS
 62
     0
100
AcDbPoint
 10
1038.363567520608
 20
229.6833029586079
 30
0.0
  0
ENDBLK
  5
27F0
330
27E5
100
AcDbEntity
  8
0
100
AcDbBlockEnd
  0
BLOCK
  5
2827
330
281D
100
AcDbEntity
  8
0
100
AcDbBlockBegin
  2
*D17
 70
     1
 10
0.0
 20
0.0
 30
0.0
  3
*D17
  1

  0
LINE
  5
2E1F
330
281D
100
AcDbEntity
  8
AM_5
100
AcDbLine
 10
1020.263567520608
 20
154.6833029586079
 30
0.0
 11
1053.163567520608
 21
154.6833029586079
 31
0.0
  0
LINE
  5
2E20
330
281D
100
AcDbEntity
  8
AM_5
100
AcDbLine
 10
1040.763567520608
 20
260.6833029586079
 30
0.0
 11
1053.163567520608
 21
260.6833029586079
 31
0.0
  0
LINE
  5
2E21
330
281D
100
AcDbEntity
  8
AM_5
100
AcDbLine
 10
1051.363567520608
 20
158.2833029586079
 30
0.0
 11
1051.363567520608
 21
257.0833029586079
 31
0.0
  0
SOLID
  5
2E22
330
281D
100
AcDbEntity
  8
AM_5
100
AcDbTrace
 10
1050.763567520608
 20
158.2833029586079
 30
0.0
 11
1051.963567520608
 21
158.2833029586079
 31
0.0
 12
1051.363567520608
 22
154.6833029586079
 32
0.0
 13
1051.363567520608
 23
154.6833029586079
 33
0.0
  0
SOLID
  5
2E23
330
281D
100
AcDbEntity
  8
AM_5
100
AcDbTrace
 10
1050.763567520608
 20
257.0833029586079
 30
0.0
 11
1051.963567520608
 21
257.0833029586079
 31
0.0
 12
1051.363567520608
 22
260.6833029586079
 32
0.0
 13
1051.363567520608
 23
260.6833029586079
 33
0.0
  0
MTEXT
  5
2E24
330
281D
100
AcDbEntity
  8
AM_5
100
AcDbMText
 10
1048.363567520608
 20
207.6833029586081
 30
0.0
 40
3.6
 41
0.0
 71
     5
 72
     1
  1
106
  7
CHINA
 11
0.0000000000000001
 21
1.0
 31
0.0
1001
ACAD
1000
MTEXTBEGIN
1070
    73
1070
     1
1070
    44
1040
1.0
1070
    74
1070
     0
1000
MTEXTEND
  0
POINT
  5
2E25
330
281D
100
AcDbEntity
  8
DEFPOINTS
 62
     0
100
AcDbPoint
 10
1017.863567520608
 20
154.6833029586079
 30
0.0
  0
POINT
  5
2E26
330
281D
100
AcDbEntity
  8
DEFPOINTS
 62
     0
100
AcDbPoint
 10
1038.363567520608
 20
260.6833029586079
 30
0.0
  0
POINT
  5
2E27
330
281D
100
AcDbEntity
  8
DEFPOINTS
 62
     0
100
AcDbPoint
 10
1051.363567520608
 20
260.6833029586079
 30
0.0
  0
ENDBLK
  5
2828
330
281D
100
AcDbEntity
  8
0
100
AcDbBlockEnd
  0
BLOCK
  5
285F
330
2855
100
AcDbEntity
  8
0
100
AcDbBlockBegin
  2
*D18
 70
     1
 10
0.0
 20
0.0
 30
0.0
  3
*D18
  1

  0
LINE
  5
2E16
330
2855
100
AcDbEntity
  8
AM_5
100
AcDbLine
 10
1020.263567520608
 20
154.6833029586079
 30
0.0
 11
1061.163567520608
 21
154.6833029586079
 31
0.0
  0
LINE
  5
2E17
330
2855
100
AcDbEntity
  8
AM_5
100
AcDbLine
 10
1040.763567520608
 20
279.6833029586079
 30
0.0
 11
1061.163567520608
 21
279.6833029586079
 31
0.0
  0
LINE
  5
2E18
330
2855
100
AcDbEntity
  8
AM_5
100
AcDbLine
 10
1059.363567520608
 20
158.2833029586079
 30
0.0
 11
1059.363567520608
 21
276.0833029586079
 31
0.0
  0
SOLID
  5
2E19
330
2855
100
AcDbEntity
  8
AM_5
100
AcDbTrace
 10
1058.763567520608
 20
158.2833029586079
 30
0.0
 11
1059.963567520608
 21
158.2833029586079
 31
0.0
 12
1059.363567520608
 22
154.6833029586079
 32
0.0
 13
1059.363567520608
 23
154.6833029586079
 33
0.0
  0
SOLID
  5
2E1A
330
2855
100
AcDbEntity
  8
AM_5
100
AcDbTrace
 10
1058.763567520608
 20
276.0833029586079
 30
0.0
 11
1059.963567520608
 21
276.0833029586079
 31
0.0
 12
1059.363567520608
 22
279.6833029586079
 32
0.0
 13
1059.363567520608
 23
279.6833029586079
 33
0.0
  0
MTEXT
  5
2E1B
330
2855
100
AcDbEntity
  8
AM_5
100
AcDbMText
 10
1056.353803741081
 20
217.1833029586081
 30
0.0
 40
3.6
 41
0.0
 71
     5
 72
     1
  1
125
  7
CHINA
 11
0.0000000000000001
 21
1.0
 31
0.0
1001
ACAD
1000
MTEXTBEGIN
1070
    73
1070
     1
1070
    44
1040
1.0
1070
    74
1070
     0
1000
MTEXTEND
  0
POINT
  5
2E1C
330
2855
100
AcDbEntity
  8
DEFPOINTS
 62
     0
100
AcDbPoint
 10
1017.863567520608
 20
154.6833029586079
 30
0.0
  0
POINT
  5
2E1D
330
2855
100
AcDbEntity
  8
DEFPOINTS
 62
     0
100
AcDbPoint
 10
1038.363567520608
 20
279.6833029586079
 30
0.0
  0
POINT
  5
2E1E
330
2855
100
AcDbEntity
  8
DEFPOINTS
 62
     0
100
AcDbPoint
 10
1059.363567520608
 20
279.6833029586079
 30
0.0
  0
ENDBLK
  5
2860
330
2855
100
AcDbEntity
  8
0
100
AcDbBlockEnd
  0
BLOCK
  5
2897
330
288D
100
AcDbEntity
  8
0
100
AcDbBlockBegin
  2
*D19
 70
     1
 10
0.0
 20
0.0
 30
0.0
  3
*D19
  1

  0
LINE
  5
2E28
330
288D
100
AcDbEntity
  8
AM_5
100
AcDbLine
 10
1040.763567520608
 20
279.6833029586079
 30
0.0
 11
1053.163567520608
 21
279.6833029586079
 31
0.0
  0
LINE
  5
2E29
330
288D
100
AcDbEntity
  8
AM_5
100
AcDbLine
 10
1040.763567520608
 20
260.6833029586079
 30
0.0
 11
1053.163567520608
 21
260.6833029586079
 31
0.0
  0
LINE
  5
2E2A
330
288D
100
AcDbEntity
  8
AM_5
100
AcDbLine
 10
1051.363567520608
 20
276.0833029586079
 30
0.0
 11
1051.363567520608
 21
264.2833029586079
 31
0.0
  0
SOLID
  5
2E2B
330
288D
100
AcDbEntity
  8
AM_5
100
AcDbTrace
 10
1050.763567520608
 20
276.0833029586079
 30
0.0
 11
1051.963567520608
 21
276.0833029586079
 31
0.0
 12
1051.363567520608
 22
279.6833029586079
 32
0.0
 13
1051.363567520608
 23
279.6833029586079
 33
0.0
  0
SOLID
  5
2E2C
330
288D
100
AcDbEntity
  8
AM_5
100
AcDbTrace
 10
1050.763567520608
 20
264.2833029586079
 30
0.0
 11
1051.963567520608
 21
264.2833029586079
 31
0.0
 12
1051.363567520608
 22
260.6833029586079
 32
0.0
 13
1051.363567520608
 23
260.6833029586079
 33
0.0
  0
MTEXT
  5
2E2D
330
288D
100
AcDbEntity
  8
AM_5
100
AcDbMText
 10
1048.363567520608
 20
270.1833029586081
 30
0.0
 40
3.6
 41
0.0
 71
     5
 72
     1
  1
19
  7
CHINA
 11
0.0000000000000001
 21
1.0
 31
0.0
1001
ACAD
1000
MTEXTBEGIN
1070
    73
1070
     1
1070
    44
1040
1.0
1070
    74
1070
     0
1000
MTEXTEND
  0
POINT
  5
2E2E
330
288D
100
AcDbEntity
  8
DEFPOINTS
 62
     0
100
AcDbPoint
 10
1038.363567520608
 20
279.6833029586079
 30
0.0
  0
POINT
  5
2E2F
330
288D
100
AcDbEntity
  8
DEFPOINTS
 62
     0
100
AcDbPoint
 10
1038.363567520608
 20
260.6833029586079
 30
0.0
  0
POINT
  5
2E30
330
288D
100
AcDbEntity
  8
DEFPOINTS
 62
     0
100
AcDbPoint
 10
1051.363567520608
 20
260.6833029586079
 30
0.0
  0
ENDBLK
  5
2898
330
288D
100
AcDbEntity
  8
0
100
AcDbBlockEnd
  0
BLOCK
  5
28CF
330
28C5
100
AcDbEntity
  8
0
100
AcDbBlockBegin
  2
*D20
 70
     1
 10
0.0
 20
0.0
 30
0.0
  3
*D20
  1

  0
LINE
  5
2E43
330
28C5
100
AcDbEntity
  8
AM_5
100
AcDbLine
 10
962.8635675206085
 20
201.7833029586079
 30
0.0
 11
962.8635675206085
 21
196.8619275060659
 31
0.0
  0
LINE
  5
2E44
330
28C5
100
AcDbEntity
  8
AM_5
100
AcDbLine
 10
1015.863567520608
 20
201.7833029586079
 30
0.0
 11
1015.863567520608
 21
196.8619275060659
 31
0.0
  0
LINE
  5
2E45
330
28C5
100
AcDbEntity
  8
AM_5
100
AcDbLine
 10
966.4635675206085
 20
198.6619275060659
 30
0.0
 11
1012.263567520608
 21
198.6619275060659
 31
0.0
  0
SOLID
  5
2E46
330
28C5
100
AcDbEntity
  8
AM_5
100
AcDbTrace
 10
966.4635675206085
 20
199.2619275060659
 30
0.0
 11
966.4635675206085
 21
198.0619275060659
 31
0.0
 12
962.8635675206085
 22
198.6619275060659
 32
0.0
 13
962.8635675206085
 23
198.6619275060659
 33
0.0
  0
SOLID
  5
2E47
330
28C5
100
AcDbEntity
  8
AM_5
100
AcDbTrace
 10
1012.263567520608
 20
199.2619275060659
 30
0.0
 11
1012.263567520608
 21
198.0619275060659
 31
0.0
 12
1015.863567520608
 22
198.6619275060659
 32
0.0
 13
1015.863567520608
 23
198.6619275060659
 33
0.0
  0
MTEXT
  5
2E48
330
28C5
100
AcDbEntity
  8
AM_5
100
AcDbMText
 10
996.3981176258785
 20
201.6713763249635
 30
0.0
 40
3.6
 41
0.0
 71
     5
 72
     1
  1
%%c53
  7
CHINA
1001
ACAD
1000
MTEXTBEGIN
1070
    73
1070
     1
1070
    44
1040
1.0
1070
    74
1070
     0
1000
MTEXTEND
  0
POINT
  5
2E49
330
28C5
100
AcDbEntity
  8
DEFPOINTS
 62
     0
100
AcDbPoint
 10
962.8635675206085
 20
204.1833029586079
 30
0.0
  0
POINT
  5
2E4A
330
28C5
100
AcDbEntity
  8
DEFPOINTS
 62
     0
100
AcDbPoint
 10
1015.863567520608
 20
204.1833029586079
 30
0.0
  0
POINT
  5
2E4B
330
28C5
100
AcDbEntity
  8
DEFPOINTS
 62
     0
100
AcDbPoint
 10
1015.863567520608
 20
198.6619275060659
 30
0.0
  0
ENDBLK
  5
28D0
330
28C5
100
AcDbEntity
  8
0
100
AcDbBlockEnd
  0
BLOCK
  5
2D90
330
2D86
100
AcDbEntity
  8
0
100
AcDbBlockBegin
  2
*D21
 70
     1
 10
0.0
 20
0.0
 30
0.0
  3
*D21
  1

  0
LINE
  5
2E04
330
2D86
100
AcDbEntity
  8
AM_5
100
AcDbLine
 10
939.3635675206084
 20
281.0833029586079
 30
0.0
 11
939.3635675206084
 21
292.4833029586079
 31
0.0
  0
LINE
  5
2E05
330
2D86
100
AcDbEntity
  8
AM_5
100
AcDbLine
 10
1039.363567520608
 20
281.0833029586079
 30
0.0
 11
1039.363567520608
 21
292.4833029586079
 31
0.0
  0
LINE
  5
2E06
330
2D86
100
AcDbEntity
  8
AM_5
100
AcDbLine
 10
942.9635675206085
 20
290.6833029586079
 30
0.0
 11
1035.763567520608
 21
290.6833029586079
 31
0.0
  0
SOLID
  5
2E07
330
2D86
100
AcDbEntity
  8
AM_5
100
AcDbTrace
 10
942.9635675206085
 20
291.2833029586079
 30
0.0
 11
942.9635675206085
 21
290.0833029586079
 31
0.0
 12
939.3635675206084
 22
290.6833029586079
 32
0.0
 13
939.3635675206084
 23
290.6833029586079
 33
0.0
  0
SOLID
  5
2E08
330
2D86
100
AcDbEntity
  8
AM_5
100
AcDbTrace
 10
1035.763567520608
 20
291.2833029586079
 30
0.0
 11
1035.763567520608
 21
290.0833029586079
 31
0.0
 12
1039.363567520608
 22
290.6833029586079
 32
0.0
 13
1039.363567520608
 23
290.6833029586079
 33
0.0
  0
MTEXT
  5
2E09
330
2D86
100
AcDbEntity
  8
AM_5
100
AcDbMText
 10
989.3635675206084
 20
293.6833029586079
 30
0.0
 40
3.6
 41
0.0
 71
     5
 72
     1
  1
100
  7
CHINA
1001
ACAD
1000
MTEXTBEGIN
1070
    73
1070
     1
1070
    44
1040
1.0
1070
    74
1070
     0
1000
MTEXTEND
  0
POINT
  5
2E0A
330
2D86
100
AcDbEntity
  8
DEFPOINTS
 62
     0
100
AcDbPoint
 10
939.3635675206084
 20
278.6833029586079
 30
0.0
  0
POINT
  5
2E0B
330
2D86
100
AcDbEntity
  8
DEFPOINTS
 62
     0
100
AcDbPoint
 10
1039.363567520608
 20
278.6833029586079
 30
0.0
  0
POINT
  5
2E0C
330
2D86
100
AcDbEntity
  8
DEFPOINTS
 62
     0
100
AcDbPoint
 10
1039.363567520608
 20
290.6833029586079
 30
0.0
  0
ENDBLK
  5
2D91
330
2D86
100
AcDbEntity
  8
0
100
AcDbBlockEnd
  0
BLOCK
  5
3629
330
3624
100
AcDbEntity
  8
0
100
AcDbBlockBegin
  2
*S49
 70
     1
 10
0.0
 20
0.0
 30
0.0
  3
*S49
  1

  0
LINE
  5
3625
330
3624
100
AcDbEntity
  8
AM_5
100
AcDbLine
 10
1044.22890155989
 20
318.4884272703008
 30
0.0
 11
1029.137365588842
 21
318.4884272703008
 31
0.0
  0
LINE
  5
3626
330
3624
100
AcDbEntity
  8
AM_5
100
AcDbLine
 10
1029.137365588842
 20
318.4884272703008
 30
0.0
 11
1018.12595112472
 21
329.3634675703736
 31
0.0
  0
TRACE
  5
3627
330
3624
100
AcDbEntity
  8
AM_5
100
AcDbTrace
 10
1018.40348268588
 20
329.6444794068806
 30
0.0
 11
1017.848419563559
 21
329.0824557338668
 31
0.0
 12
1015.991454302324
 22
331.471529076873
 32
0.0
 13
1015.991454302324
 23
331.471529076873
 33
0.0
  0
MTEXT
  5
3628
330
3624
100
AcDbEntity
  8
AM_5
 62
     2
100
AcDbMText
 10
1044.22890155989
 20
318.5161160299931
 30
0.0
 40
3.5
 41
0.0
 71
     7
 72
     1
  1

  7
ACISOTS
  0
ENDBLK
  5
362A
330
3624
100
AcDbEntity
  8
0
100
AcDbBlockEnd
  0
BLOCK
  5
3631
330
362C
100
AcDbEntity
  8
0
100
AcDbBlockBegin
  2
*S50
 70
     1
 10
0.0
 20
0.0
 30
0.0
  3
*S50
  1

  0
LINE
  5
362D
330
362C
100
AcDbEntity
  8
AM_5
100
AcDbLine
 10
1047.467212106368
 20
240.1336463186187
 30
0.0
 11
1027.619473218184
 21
240.1336463186187
 31
0.0
  0
LINE
  5
362E
330
362C
100
AcDbEntity
  8
AM_5
100
AcDbLine
 10
1027.619473218184
 20
240.1336463186187
 30
0.0
 11
1017.304007593335
 21
221.2881455688632
 31
0.0
  0
TRACE
  5
362F
330
362C
100
AcDbEntity
  8
AM_5
100
AcDbTrace
 10
1016.957555538904
 20
221.4777831012166
 30
0.0
 11
1017.650459647767
 21
221.0985080365098
 31
0.0
 12
1015.863567520608
 22
218.6565809398105
 32
0.0
 13
1015.863567520608
 23
218.6565809398105
 33
0.0
  0
MTEXT
  5
3630
330
362C
100
AcDbEntity
  8
AM_5
 62
     2
100
AcDbMText
 10
1047.467212106368
 20
239.2995705299906
 30
0.0
 40
3.5
 41
0.0
 71
     7
 72
     1
  1

  7
ACISOTS
  0
ENDBLK
  5
3632
330
362C
100
AcDbEntity
  8
0
100
AcDbBlockEnd
  0
ENDSEC
  0
SECTION
  2
ENTITIES
  0
POINT
  5
25
330
2
100
AcDbEntity
  8
0
 60
     1
100
AcDbPoint
 10
0.0
 20
0.0
 30
0.0
  0
POINT
  5
26
330
2
100
AcDbEntity
  8
0
 60
     1
100
AcDbPoint
 10
0.0
 20
0.0
 30
0.0
  0
POINT
  5
27
330
2
100
AcDbEntity
  8
0
 60
     1
100
AcDbPoint
 10
0.0
 20
0.0
 30
0.0
  0
POINT
  5
28
330
2
100
AcDbEntity
  8
0
 60
     1
100
AcDbPoint
 10
0.0
 20
0.0
 30
0.0
  0
POINT
  5
29
330
2
100
AcDbEntity
  8
0
 60
     1
100
AcDbPoint
 10
0.0
 20
0.0
 30
0.0
  0
POINT
  5
2A
330
2
100
AcDbEntity
  8
0
 60
     1
100
AcDbPoint
 10
0.0
 20
0.0
 30
0.0
  0
POINT
  5
2B
330
2
100
AcDbEntity
  8
0
 60
     1
100
AcDbPoint
 10
0.0
 20
0.0
 30
0.0
  0
POINT
  5
2C
330
2
100
AcDbEntity
  8
0
 60
     1
100
AcDbPoint
 10
0.0
 20
0.0
 30
0.0
  0
POINT
  5
2D
330
2
100
AcDbEntity
  8
0
 60
     1
100
AcDbPoint
 10
0.0
 20
0.0
 30
0.0
  0
POINT
  5
2E
330
2
100
AcDbEntity
  8
0
 60
     1
100
AcDbPoint
 10
0.0
 20
0.0
 30
0.0
  0
POINT
  5
2F
330
2
100
AcDbEntity
  8
0
 60
     1
100
AcDbPoint
 10
0.0
 20
0.0
 30
0.0
  0
POINT
  5
30
330
2
100
AcDbEntity
  8
0
 60
     1
100
AcDbPoint
 10
0.0
 20
0.0
 30
0.0
  0
DIMENSION
  5
31
330
2
100
AcDbEntity
  8
AM_PARDIM
 60
     1
100
AcDbDimension
  2
*D1
 10
114.5325708695175
 20
128.6938113892625
 30
0.0
 11
111.5228070899899
 21
122.4438113892625
 31
0.0
 70
    32
  1
<>
  3
AM_ISO
100
AcDbAlignedDimension
 13
75.37464887656421
 23
116.1938113892625
 33
0.0
 14
75.37464887656421
 24
128.6938113892625
 34
0.0
 50
90.0
100
AcDbRotatedDimension
1001
ACAD_DIMASSOC_CALC_DIMLFAC
1040
-1.0
1001
ACAD
1000
DSTYLE
1002
{
1070
   144
1040
-1.0
1002
}
1001
AD_SKETCHDIM
1005
0
1000
d0
1001
ACAD_DIMASSOC_DIMLFAC
1040
-1.0
  0
DIMENSION
  5
43
330
2
100
AcDbEntity
  8
AM_PARDIM
 60
     1
100
AcDbDimension
  2
*D2
 10
26.87464887656421
 20
122.1938113892625
 30
0.0
 11
23.87464887656418
 21
119.1938113892625
 31
0.0
 70
    32
  1
<>
  3
AM_ISO
100
AcDbAlignedDimension
 13
38.8746488765642
 23
116.1938113892625
 33
0.0
 14
38.8746488765642
 24
122.1938113892624
 34
0.0
 50
90.0
100
AcDbRotatedDimension
1001
ACAD_DIMASSOC_CALC_DIMLFAC
1040
-1.0
1001
ACAD
1000
DSTYLE
1002
{
1070
   144
1040
-1.0
1002
}
1001
AD_SKETCHDIM
1005
0
1000
d1
1001
ACAD_DIMASSOC_DIMLFAC
1040
-1.0
  0
DIMENSION
  5
52
330
2
100
AcDbEntity
  8
AM_PARDIM
 60
     1
100
AcDbDimension
  2
*D3
 10
50.87464887656421
 20
140.6938113892624
 30
0.0
 11
44.87464887656421
 21
143.6941263498924
 31
0.0
 70
    32
  1
<>
  3
AM_ISO
100
AcDbAlignedDimension
 13
38.8746488765642
 23
122.1938113892624
 33
0.0
 14
50.87464887656421
 24
122.1938113892624
 34
0.0
100
AcDbRotatedDimension
1001
ACAD_DIMASSOC_CALC_DIMLFAC
1040
-1.0
1001
ACAD
1000
DSTYLE
1002
{
1070
   144
1040
-1.0
1002
}
1001
AD_SKETCHDIM
1005
0
1000
d2
1001
ACAD_DIMASSOC_DIMLFAC
1040
-1.0
  0
DIMENSION
  5
5F
330
2
100
AcDbEntity
  8
AM_PARDIM
 60
     1
100
AcDbDimension
  2
*D4
 10
75.37464887656421
 20
160.6938113892624
 30
0.0
 11
57.12464887656421
 21
163.7032602081601
 31
0.0
 70
    32
  1
<>
  3
AM_ISO
100
AcDbAlignedDimension
 13
38.8746488765642
 23
116.1938113892625
 33
0.0
 14
75.37464887656421
 24
116.1938113892625
 34
0.0
100
AcDbRotatedDimension
1001
ACAD_DIMASSOC_CALC_DIMLFAC
1040
-1.0
1001
ACAD
1000
DSTYLE
1002
{
1070
   144
1040
-1.0
1002
}
1001
AD_SKETCHDIM
1005
0
1000
d3
1001
ACAD_DIMASSOC_DIMLFAC
1040
-1.0
  0
DIMENSION
  5
6C
330
2
100
AcDbEntity
  8
AM_PARDIM
 60
     1
100
AcDbDimension
  2
*D5
 10
104.5325708695175
 20
116.1938113892624
 30
0.0
 11
101.5325708695175
 21
121.6938113892625
 31
0.0
 70
    32
  1
<>
  3
AM_ISO
100
AcDbAlignedDimension
 13
50.87464887656421
 23
127.1938113892624
 33
0.0
 14
75.37464887656421
 24
116.1938113892625
 34
0.0
 50
90.0
100
AcDbRotatedDimension
1001
ACAD_DIMASSOC_CALC_DIMLFAC
1040
-1.0
1001
ACAD
1000
DSTYLE
1002
{
1070
   144
1040
-1.0
1002
}
1001
AD_SKETCHDIM
1005
0
1000
d4
1001
ACAD_DIMASSOC_DIMLFAC
1040
-1.0
  0
DIMENSION
  5
79
330
2
100
AcDbEntity
  8
AM_PARDIM
 60
     1
100
AcDbDimension
  2
*D6
 10
75.37464887656421
 20
150.6938113892624
 30
0.0
 11
70.87464887656421
 21
153.6938113892625
 31
0.0
 70
    32
  1
<>
  3
AM_ISO
100
AcDbAlignedDimension
 13
66.3746488765642
 23
128.6938113892625
 33
0.0
 14
75.37464887656421
 24
128.6938113892625
 34
0.0
100
AcDbRotatedDimension
1001
ACAD_DIMASSOC_CALC_DIMLFAC
1040
-1.0
1001
ACAD
1000
DSTYLE
1002
{
1070
   144
1040
-1.0
1002
}
1001
AD_SKETCHDIM
1005
0
1000
d5
1001
ACAD_DIMASSOC_DIMLFAC
1040
-1.0
  0
DIMENSION
  5
86
330
2
100
AcDbEntity
  8
AM_PARDIM
 60
     1
100
AcDbDimension
  2
*D7
 10
66.37464887656418
 20
140.6938113892624
 30
0.0
 11
77.8401606875878
 21
143.70357516879
 31
0.0
 70
    32
  1
<>
  3
AM_ISO
100
AcDbAlignedDimension
 13
63.87464887656418
 23
128.6938113892624
 33
0.0
 14
66.37464887656418
 24
128.6938113892624
 34
0.0
100
AcDbRotatedDimension
1001
ACAD_DIMASSOC_CALC_DIMLFAC
1040
-1.0
1001
ACAD
1000
DSTYLE
1002
{
1070
   144
1040
-1.0
1002
}
1001
AD_SKETCHDIM
1005
0
1000
d25
1001
ACAD_DIMASSOC_DIMLFAC
1040
-1.0
  0
DIMENSION
  5
95
330
2
100
AcDbEntity
  8
AM_PARDIM
 60
     1
100
AcDbDimension
  2
*D8
 10
66.37464887656418
 20
136.030378563861
 30
0.0
 11
75.73464887656418
 21
139.030378563861
 31
0.0
 70
    32
  1
<>
  3
AM_ISO
100
AcDbAlignedDimension
 13
66.37464887656418
 23
128.6938113892624
 33
0.0
 14
66.37464887656418
 24
116.1938113892624
 34
0.0
100
AcDbRotatedDimension
1001
ACAD_DIMASSOC_CALC_DIMLFAC
1040
-1.0
1001
ACAD
1000
DSTYLE
1002
{
1070
   144
1040
-1.0
1002
}
1001
AD_SKETCHDIM
1005
0
1000
d26
1001
ACAD_DIMASSOC_DIMLFAC
1040
-1.0
  0
DIMENSION
  5
A3
330
2
100
AcDbEntity
  8
AM_PARDIM
 60
     1
100
AcDbDimension
  2
*D9
 10
94.53257086951754
 20
116.1938113892624
 30
0.0
 11
91.52312205061988
 21
120.9438113892624
 31
0.0
 70
    32
  1
<>
  3
AM_ISO
100
AcDbAlignedDimension
 13
63.87464887656418
 23
125.6938113892624
 33
0.0
 14
82.53257086951753
 24
116.1938113892624
 34
0.0
 50
90.0
100
AcDbRotatedDimension
1001
ACAD_DIMASSOC_CALC_DIMLFAC
1040
-1.0
1001
ACAD
1000
DSTYLE
1002
{
1070
   144
1040
-1.0
1002
}
1001
AD_SKETCHDIM
1005
0
1000
d27
1001
ACAD_DIMASSOC_DIMLFAC
1040
-1.0
  0
DIMENSION
  5
B0
330
2
100
AcDbEntity
  8
AM_PARDIM
 60
     1
100
AcDbDimension
  2
*D10
 10
124.5325708695175
 20
116.1938113892624
 30
0.0
 11
121.5228070899899
 21
122.4438113892624
 31
0.0
 70
    32
  1
<>
  3
AM_ISO
100
AcDbAlignedDimension
 13
66.37464887656418
 23
128.6938113892624
 33
0.0
 14
82.53257086951753
 24
116.1938113892624
 34
0.0
 50
90.0
100
AcDbRotatedDimension
1001
ACAD_DIMASSOC_CALC_DIMLFAC
1040
-1.0
1001
ACAD
1000
DSTYLE
1002
{
1070
   144
1040
-1.0
1002
}
1001
AD_SKETCHDIM
1005
0
1000
d28
1001
ACAD_DIMASSOC_DIMLFAC
1040
-1.0
  0
LINE
  5
C8
330
2
100
AcDbEntity
  8
AM_7
 60
     1
100
AcDbLine
 10
36.3746488765642
 20
116.1938113892624
 30
0.0
 11
51.3746488765642
 21
116.1938113892624
 31
0.0
  0
MTEXT
  5
151
330
2
100
AcDbEntity
  8
AM_5
 62
     5
100
AcDbMText
 10
33.56078100938998
 20
98.94002315335121
 30
0.0
 40
3.5
 41
0.0
 71
     9
 72
     1
  1

  7
ACISOTS
1001
ACAD
1000
MTEXTBEGIN
1070
    73
1070
     1
1070
    44
1040
1.0
1070
    74
1070
     0
1000
MTEXTEND
  0
MTEXT
  5
156
330
2
100
AcDbEntity
  8
AM_5
 62
     5
100
AcDbMText
 10
67.11527269722637
 20
92.4148402526181
 30
0.0
 40
3.5
 41
0.0
 71
     9
 72
     1
  1

  7
ACISOTS
1001
ACAD
1000
MTEXTBEGIN
1070
    73
1070
     1
1070
    44
1040
1.0
1070
    74
1070
     0
1000
MTEXTEND
  0
CIRCLE
  5
124B
330
2
100
AcDbEntity
  8
LOGO
  6
CONTINUOUS
 62
     6
100
AcDbCircle
 10
947.5204871556369
 20
125.9161181707333
 30
0.0
 40
2.626478555640676
  0
TEXT
  5
124C
330
2
100
AcDbEntity
  8
LOGO
 62
     6
100
AcDbText
 10
945.9306400409356
 20
132.691764563899
 30
0.0
 40
4.5235481972414
  1
1 : 1
  7
CHINESET
 72
     1
 11
953.900701150361
 21
134.9535386625197
 31
0.0
100
AcDbText
 73
     2
  0
TEXT
  5
124D
330
2
100
AcDbEntity
  8
LOGO
 62
     6
100
AcDbText
 10
945.9306400409356
 20
114.5975717749334
 30
0.0
 40
4.5235481972414
  1
m/m
  7
CHINESET
 72
     1
 11
953.900701150361
 21
116.8593458735541
 31
0.0
100
AcDbText
 73
     2
  0
LINE
  5
124E
330
2
100
AcDbEntity
  8
LOGO
 62
     1
100
AcDbLine
 10
969.3015598535891
 20
121.3828940707955
 30
0.0
 11
902.9561862940486
 21
121.3828940707955
 31
0.0
  0
LINE
  5
124F
330
2
100
AcDbEntity
  8
LOGO
 62
     1
100
AcDbLine
 10
969.3015598535891
 20
130.4299904652783
 30
0.0
 11
902.9561862940486
 21
130.4299904652783
 31
0.0
  0
TEXT
  5
1250
330
2
100
AcDbEntity
  8
LOGO
  6
CONTINUOUS
 62
     5
100
AcDbText
 10
873.2070402692185
 20
96.34139536749106
 30
0.0
 40
4.5235481972414
  1
MINDMAN INDUSTRIAL CO.,LTD
 41
0.85
  7
CHINESET
100
AcDbText
  0
TEXT
  5
1251
330
2
100
AcDbEntity
  8
LOGO
  6
CONTINUOUS
 62
     5
100
AcDbText
 10
871.2641332153035
 20
103.1280470545333
 30
0.0
 40
6.7853222958621
  1
金器工業股份有限公司
 41
0.8
  7
LOGO
100
AcDbText
  0
LINE
  5
1252
330
2
100
AcDbEntity
  8
LOGO
 62
     1
100
AcDbLine
 10
969.3015598535891
 20
112.3357976763128
 30
0.0
 11
869.7834995142782
 21
112.3357976763128
 31
0.0
  0
LINE
  5
1256
330
2
100
AcDbEntity
  8
LOGO
 62
     1
100
AcDbLine
 10
1204.477183682439
 20
94.24160488734717
 30
0.0
 11
869.7834995142782
 21
94.24160488734717
 31
0.0
  0
LINE
  5
1257
330
2
100
AcDbEntity
  8
LOGO
 62
     1
100
AcDbLine
 10
1204.477183682439
 20
139.4770868597611
 30
0.0
 11
869.7834995142782
 21
139.4770868597611
 31
0.0
  0
LINE
  5
1258
330
2
100
AcDbEntity
  8
0
 62
     4
100
AcDbLine
 10
869.7834995142782
 20
404.2038938707916
 30
0.0
 11
1204.477183682439
 21
404.2038938707916
 31
0.0
  0
LINE
  5
1259
330
2
100
AcDbEntity
  8
0
 62
     4
100
AcDbLine
 10
1204.477183682439
 20
139.4770868597611
 30
0.0
 11
869.7834995142782
 21
139.4770868597611
 31
0.0
  0
LINE
  5
125A
330
2
100
AcDbEntity
  8
0
 62
     4
100
AcDbLine
 10
869.7834995142782
 20
139.4770868597611
 30
0.0
 11
869.7834995142782
 21
404.2038938707916
 31
0.0
  0
SOLID
  5
125B
330
2
100
AcDbEntity
  8
LOGO
 62
     5
100
AcDbTrace
 10
887.3584753192153
 20
121.3393112273879
 30
0.0
 11
889.3143388617973
 21
128.510810883524
 31
0.0
 12
896.6656880390896
 22
138.4025345471602
 32
0.0
 13
894.7098244965072
 23
138.4025345471602
 33
0.0
  0
SOLID
  5
125C
330
2
100
AcDbEntity
  8
LOGO
 62
     5
100
AcDbTrace
 10
887.3584753192153
 20
138.4025345471589
 30
0.0
 11
889.3143388617973
 21
138.4025345471602
 31
0.0
 12
887.3584753192153
 22
121.3393112273879
 32
0.0
 13
889.3143388617973
 23
128.510810883524
 33
0.0
  0
POLYLINE
  5
125D
330
2
100
AcDbEntity
  8
LOGO
 62
     5
100
AcDb2dPolyline
 66
     1
 10
0.0
 20
0.0
 30
0.0
 40
0.6755165307880492
 41
0.6755165307880492
  0
VERTEX
  5
125E
330
125D
100
AcDbEntity
  8
LOGO
 62
     5
100
AcDbVertex
100
AcDb2dVertex
 10
889.4283210898144
 20
115.1345027474714
 30
0.0
 42
1.0
  0
VERTEX
  5
125F
330
125D
100
AcDbEntity
  8
LOGO
 62
     5
100
AcDbVertex
100
AcDb2dVertex
 10
887.4017714974502
 20
115.1345027474714
 30
0.0
 42
1.0
  0
SEQEND
  5
1260
330
125D
100
AcDbEntity
  8
LOGO
 62
     5
  0
SOLID
  5
1261
330
2
100
AcDbEntity
  8
LOGO
 62
     5
100
AcDbTrace
 10
887.0661748849553
 20
116.483374156149
 30
0.0
 11
887.7406105892935
 21
116.483374156149
 31
0.0
 12
887.0661748849553
 22
113.1111956344557
 32
0.0
 13
887.7406105892935
 23
113.1111956344557
 33
0.0
  0
SOLID
  5
1262
330
2
100
AcDbEntity
  8
LOGO
 62
     2
100
AcDbTrace
 10
886.5491524740081
 20
119.8555526778431
 30
0.0
 11
887.3584753192153
 21
119.8555526778431
 31
0.0
 12
896.6656880390896
 22
138.4025345471602
 32
0.0
 13
897.4750108842966
 23
138.4025345471589
 33
0.0
  0
SOLID
  5
1263
330
2
100
AcDbEntity
  8
LOGO
 62
     5
100
AcDbTrace
 10
887.3584753192153
 20
119.8555526778431
 30
0.0
 11
889.3143388617973
 21
119.8555526778431
 31
0.0
 12
896.6656880390896
 22
136.9187759976142
 32
0.0
 13
894.7098244965072
 23
129.747276341478
 33
0.0
  0
SOLID
  5
1264
330
2
100
AcDbEntity
  8
LOGO
 62
     2
100
AcDbTrace
 10
886.5491524740081
 20
138.4025345471589
 30
0.0
 11
887.3584753192153
 21
138.4025345471589
 31
0.0
 12
886.5491524740081
 22
119.8555526778431
 32
0.0
 13
887.3584753192153
 23
119.8555526778431
 33
0.0
  0
SOLID
  5
1265
330
2
100
AcDbEntity
  8
LOGO
 62
     5
100
AcDbTrace
 10
884.5932889314259
 20
119.8555526778431
 30
0.0
 11
886.5491524740081
 21
119.8555526778431
 31
0.0
 12
884.5932889314259
 22
129.747276341478
 32
0.0
 13
886.5491524740081
 23
136.9187759976142
 33
0.0
  0
LINE
  5
1266
330
2
100
AcDbEntity
  8
LOGO
 62
     1
100
AcDbLine
 10
869.7834995142782
 20
94.24160488734717
 30
0.0
 11
869.7834995142782
 21
139.4770868597611
 31
0.0
  0
SOLID
  5
1267
330
2
100
AcDbEntity
  8
LOGO
 62
     2
100
AcDbTrace
 10
876.4326169089258
 20
119.8555526778425
 30
0.0
 11
877.2419397541336
 21
119.8555526778431
 31
0.0
 12
886.5491524740081
 22
138.4025345471589
 32
0.0
 13
887.3584753192153
 23
138.4025345471589
 33
0.0
  0
SOLID
  5
1268
330
2
100
AcDbEntity
  8
LOGO
 62
     5
100
AcDbTrace
 10
877.2419397541336
 20
119.8555526778431
 30
0.0
 11
879.1978032967158
 21
119.8555526778431
 31
0.0
 12
886.5491524740081
 22
136.9187759976142
 32
0.0
 13
884.5932889314259
 23
129.747276341478
 33
0.0
  0
SOLID
  5
1269
330
2
100
AcDbEntity
  8
LOGO
 62
     5
100
AcDbTrace
 10
874.4767533663434
 20
119.8555526778431
 30
0.0
 11
876.4326169089258
 21
119.8555526778425
 31
0.0
 12
884.5932889314259
 22
138.4025345471602
 32
0.0
 13
886.5491524740081
 23
138.4025345471589
 33
0.0
  0
SOLID
  5
126A
330
2
100
AcDbEntity
  8
LOGO
 62
     5
100
AcDbTrace
 10
871.3410244710912
 20
113.1111956344557
 30
0.0
 11
872.0154601754305
 21
113.1111956344557
 31
0.0
 12
873.9147236127282
 22
116.483374156149
 32
0.0
 13
874.5891593170666
 23
116.483374156149
 33
0.0
  0
POLYLINE
  5
126B
330
2
100
AcDbEntity
  8
LOGO
 62
     5
100
AcDb2dPolyline
 66
     1
 10
0.0
 20
0.0
 30
0.0
 70
     1
 40
0.6755165307880492
 41
0.6755165307880492
  0
VERTEX
  5
126C
330
126B
100
AcDbEntity
  8
LOGO
 62
     5
100
AcDbVertex
100
AcDb2dVertex
 10
883.2422558698493
 20
114.797284895302
 30
0.0
 42
1.0
  0
VERTEX
  5
126D
330
126B
100
AcDbEntity
  8
LOGO
 62
     5
100
AcDbVertex
100
AcDb2dVertex
 10
885.9443219930014
 20
114.797284895302
 30
0.0
 42
1.0
  0
SEQEND
  5
126E
330
126B
100
AcDbEntity
  8
LOGO
 62
     5
  0
SOLID
  5
126F
330
2
100
AcDbEntity
  8
LOGO
 62
     5
100
AcDbTrace
 10
885.604875044364
 20
117.4950277126576
 30
0.0
 11
886.2793107487021
 21
117.4950277126576
 31
0.0
 12
885.604875044364
 22
113.1111956344557
 32
0.0
 13
886.2793107487021
 23
113.1111956344557
 33
0.0
  0
SOLID
  5
1270
330
2
100
AcDbEntity
  8
LOGO
 62
     5
100
AcDbTrace
 10
877.9612254328101
 20
116.483374156149
 30
0.0
 11
878.6356611371502
 21
116.483374156149
 31
0.0
 12
877.9612254328101
 22
113.1111956344543
 32
0.0
 13
878.6356611371502
 23
113.1111956344557
 33
0.0
  0
SOLID
  5
1271
330
2
100
AcDbEntity
  8
LOGO
 62
     5
100
AcDbTrace
 10
879.4225252734017
 20
116.483374156149
 30
0.0
 11
880.0969609777396
 21
116.483374156149
 31
0.0
 12
879.4225252734017
 22
113.1111956344557
 32
0.0
 13
880.0969609777396
 23
113.1111956344557
 33
0.0
  0
SOLID
  5
1272
330
2
100
AcDbEntity
  8
LOGO
 62
     5
100
AcDbTrace
 10
873.9147236127282
 20
113.1111956344557
 30
0.0
 11
874.5891593170666
 21
113.1111956344557
 31
0.0
 12
876.4884227543662
 22
116.483374156149
 32
0.0
 13
877.1628584587043
 23
116.483374156149
 33
0.0
  0
SOLID
  5
1273
330
2
100
AcDbEntity
  8
LOGO
 62
     5
100
AcDbTrace
 10
873.9147236127282
 20
116.483374156149
 30
0.0
 11
874.5891593170666
 21
116.483374156149
 31
0.0
 12
873.9147236127282
 22
113.1111956344557
 32
0.0
 13
874.5891593170666
 23
113.1111956344557
 33
0.0
  0
SOLID
  5
1274
330
2
100
AcDbEntity
  8
LOGO
 62
     5
100
AcDbTrace
 10
876.4884227543662
 20
116.483374156149
 30
0.0
 11
877.1628584587043
 21
116.483374156149
 31
0.0
 12
876.4884227543662
 22
113.1111956344557
 32
0.0
 13
877.1628584587043
 23
113.1111956344557
 33
0.0
  0
SOLID
  5
1275
330
2
100
AcDbEntity
  8
LOGO
 62
     5
100
AcDbTrace
 10
881.4458323864172
 20
115.1345027474714
 30
0.0
 11
882.1202680907566
 21
115.1345027474714
 31
0.0
 12
881.4458323864172
 22
113.1111956344557
 32
0.0
 13
882.1202680907566
 23
113.1111956344557
 33
0.0
  0
POLYLINE
  5
1276
330
2
100
AcDbEntity
  8
LOGO
 62
     5
100
AcDb2dPolyline
 66
     1
 10
0.0
 20
0.0
 30
0.0
 40
0.6755165307880492
 41
0.6755165307880492
  0
VERTEX
  5
1277
330
1276
100
AcDbEntity
  8
LOGO
 62
     5
100
AcDbVertex
100
AcDb2dVertex
 10
881.7846714782609
 20
115.1345027474714
 30
0.0
 42
1.0
  0
VERTEX
  5
1278
330
1276
100
AcDbEntity
  8
LOGO
 62
     5
100
AcDbVertex
100
AcDb2dVertex
 10
879.7581218858965
 20
115.1345027474714
 30
0.0
 42
1.0
  0
SEQEND
  5
1279
330
1276
100
AcDbEntity
  8
LOGO
 62
     5
  0
SOLID
  5
127A
330
2
100
AcDbEntity
  8
LOGO
 62
     5
100
AcDbTrace
 10
877.9612254328101
 20
116.9554791491859
 30
0.0
 11
878.6356611371502
 21
116.9554791491859
 31
0.0
 12
877.9612254328101
 22
117.4950277126576
 32
0.0
 13
878.6356611371502
 23
117.4950277126576
 33
0.0
  0
LINE
  5
127B
330
2
100
AcDbEntity
  8
LOGO
 62
     1
100
AcDbLine
 10
939.1445718719797
 20
112.3357976763127
 30
0.0
 11
939.1445718719797
 21
139.4770868597611
 31
0.0
  0
LINE
  5
127C
330
2
100
AcDbEntity
  8
LOGO
 62
     1
100
AcDbLine
 10
902.9561862940486
 20
112.3357976763127
 30
0.0
 11
902.9561862940486
 21
139.4770868597611
 31
0.0
  0
SOLID
  5
127D
330
2
100
AcDbEntity
  8
LOGO
 62
     2
100
AcDbTrace
 10
896.6656880390896
 20
138.4025345471602
 30
0.0
 11
897.4750108842966
 21
138.4025345471589
 31
0.0
 12
896.6656880390896
 22
119.8555526778425
 32
0.0
 13
897.4750108842966
 23
119.8555526778425
 33
0.0
  0
SOLID
  5
127E
330
2
100
AcDbEntity
  8
LOGO
 62
     5
100
AcDbTrace
 10
896.6656880390896
 20
136.9187759976142
 30
0.0
 11
894.7098244965072
 21
129.747276341478
 31
0.0
 12
896.6656880390896
 22
119.8555526778425
 32
0.0
 13
894.7098244965072
 23
119.8555526778425
 33
0.0
  0
SOLID
  5
127F
330
2
100
AcDbEntity
  8
LOGO
 62
     5
100
AcDbTrace
 10
897.4750108842966
 20
119.8555526778425
 30
0.0
 11
899.430874426879
 21
119.8555526778425
 31
0.0
 12
897.4750108842966
 22
138.4025345471589
 32
0.0
 13
899.430874426879
 23
138.4025345471602
 33
0.0
  0
TEXT
  5
1280
330
2
100
AcDbEntity
  8
LOGO
 62
     6
100
AcDbText
 10
908.7095741574151
 20
114.5975717749334
 30
0.0
 40
4.5235481972414
  1
單位 Unit:
 41
0.9
  7
CHINESET
 72
     4
 11
921.0503790830143
 21
116.8593458735541
 31
0.0
100
AcDbText
  0
CIRCLE
  5
1281
330
2
100
AcDbEntity
  8
LOGO
 62
     5
100
AcDbCircle
 10
894.2602456559953
 20
114.7972848953024
 30
0.0
 40
1.011653556508182
  0
POLYLINE
  5
1282
330
2
100
AcDbEntity
  8
LOGO
 62
     5
100
AcDb2dPolyline
 66
     1
 10
0.0
 20
0.0
 30
0.0
 70
     1
  0
VERTEX
  5
1283
330
1282
100
AcDbEntity
  8
LOGO
 62
     5
100
AcDbVertex
100
AcDb2dVertex
 10
893.2485920994871
 20
114.7972848953024
 30
0.0
 42
1.000000057330635
  0
VERTEX
  5
1284
330
1282
100
AcDbEntity
  8
LOGO
 62
     5
100
AcDbVertex
100
AcDb2dVertex
 10
895.2718992125038
 20
114.7972848953024
 30
0.0
 42
1.000000057330635
  0
SEQEND
  5
1285
330
1282
100
AcDbEntity
  8
LOGO
 62
     5
  0
SOLID
  5
1286
330
2
100
AcDbEntity
  8
LOGO
 62
     5
100
AcDbTrace
 10
898.7564387225409
 20
115.1345027474714
 30
0.0
 11
899.430874426879
 21
115.1345027474713
 31
0.0
 12
898.7564387225409
 22
113.1111956344557
 32
0.0
 13
899.430874426879
 23
113.1111956344557
 33
0.0
  0
SOLID
  5
1287
330
2
100
AcDbEntity
  8
LOGO
 62
     5
100
AcDbTrace
 10
896.7331316095238
 20
113.1111956344557
 30
0.0
 11
897.4075673138631
 21
113.1111956344557
 31
0.0
 12
896.7331316095238
 22
116.483374156149
 32
0.0
 13
897.4075673138631
 23
116.483374156149
 33
0.0
  0
SOLID
  5
1288
330
2
100
AcDbEntity
  8
LOGO
 62
     5
100
AcDbTrace
 10
895.2718317689342
 20
116.483374156149
 30
0.0
 11
895.9462674732725
 21
116.483374156149
 31
0.0
 12
895.2718317689342
 22
113.1111956344557
 32
0.0
 13
895.9462674732725
 23
113.1111956344557
 33
0.0
  0
LINE
  5
1289
330
2
100
AcDbEntity
  8
LOGO
 62
     5
100
AcDbLine
 10
899.430874426879
 20
113.1111956344557
 30
0.0
 11
899.430874426879
 21
115.1345027474714
 31
0.0
  0
POLYLINE
  5
128A
330
2
100
AcDbEntity
  8
LOGO
 62
     5
100
AcDb2dPolyline
 66
     1
 10
0.0
 20
0.0
 30
0.0
 70
     1
 40
0.6755165307880492
 41
0.6755165307880492
  0
VERTEX
  5
128B
330
128A
100
AcDbEntity
  8
LOGO
 62
     5
100
AcDbVertex
100
AcDb2dVertex
 10
892.9092125944189
 20
114.797284895302
 30
0.0
 42
1.0
  0
VERTEX
  5
128C
330
128A
100
AcDbEntity
  8
LOGO
 62
     5
100
AcDbVertex
100
AcDb2dVertex
 10
895.611278717571
 20
114.797284895302
 30
0.0
 42
1.0
  0
SEQEND
  5
128D
330
128A
100
AcDbEntity
  8
LOGO
 62
     5
  0
SOLID
  5
128E
330
2
100
AcDbEntity
  8
LOGO
 62
     5
100
AcDbTrace
 10
889.0894819979711
 20
115.1345027474714
 30
0.0
 11
889.7639177023094
 21
115.1345027474714
 31
0.0
 12
889.0894819979711
 22
113.1111956344557
 32
0.0
 13
889.7639177023094
 23
113.1111956344557
 33
0.0
  0
SOLID
  5
128F
330
2
100
AcDbEntity
  8
LOGO
 62
     5
100
AcDbTrace
 10
891.112789110987
 20
115.1345027474714
 30
0.0
 11
891.7872248153253
 21
115.1345027474714
 31
0.0
 12
891.112789110987
 22
113.1111956344543
 32
0.0
 13
891.7872248153253
 23
113.1111956344543
 33
0.0
  0
POLYLINE
  5
1290
330
2
100
AcDbEntity
  8
LOGO
 62
     5
100
AcDb2dPolyline
 66
     1
 10
0.0
 20
0.0
 30
0.0
 40
0.6755165307880492
 41
0.6755165307880492
  0
VERTEX
  5
1291
330
1290
100
AcDbEntity
  8
LOGO
 62
     5
100
AcDbVertex
100
AcDb2dVertex
 10
891.4516282028303
 20
115.1345027474714
 30
0.0
 42
1.0
  0
VERTEX
  5
1292
330
1290
100
AcDbEntity
  8
LOGO
 62
     5
100
AcDbVertex
100
AcDb2dVertex
 10
889.4250786104661
 20
115.1345027474714
 30
0.0
 42
1.0
  0
SEQEND
  5
1293
330
1290
100
AcDbEntity
  8
LOGO
 62
     5
  0
POLYLINE
  5
1294
330
2
100
AcDbEntity
  8
LOGO
 62
     5
100
AcDb2dPolyline
 66
     1
 10
0.0
 20
0.0
 30
0.0
 40
0.6755165307880492
 41
0.6755165307880492
  0
VERTEX
  5
1295
330
1294
100
AcDbEntity
  8
LOGO
 62
     5
100
AcDbVertex
100
AcDb2dVertex
 10
899.0952778143842
 20
115.1345027474714
 30
0.0
 42
1.0
  0
VERTEX
  5
1296
330
1294
100
AcDbEntity
  8
LOGO
 62
     5
100
AcDbVertex
100
AcDb2dVertex
 10
897.06872822202
 20
115.1345027474714
 30
0.0
 42
1.0
  0
SEQEND
  5
1297
330
1294
100
AcDbEntity
  8
LOGO
 62
     5
  0
TEXT
  5
1298
330
2
100
AcDbEntity
  8
LOGO
 62
     6
100
AcDbText
 10
908.2673165434883
 20
123.7082991172367
 30
0.0
 40
4.5235481972414
  1
投影 View:
 41
0.9
  7
CHINESET
 72
     4
 11
921.0503790830143
 21
125.9064422680369
 31
0.0
100
AcDbText
  0
TEXT
  5
1299
330
2
100
AcDbEntity
  8
LOGO
 62
     6
100
AcDbText
 10
906.6860941156132
 20
132.6939907195079
 30
0.0
 40
4.5235481972414
  1
比例 Scale:
 41
0.9
  7
CHINESET
 72
     4
 11
921.0503790830143
 21
134.9535386625197
 31
0.0
100
AcDbText
  0
CIRCLE
  5
129A
330
2
100
AcDbEntity
  8
LOGO
  6
CONTINUOUS
 62
     6
100
AcDbCircle
 10
947.5204871556369
 20
125.9161181707333
 30
0.0
 40
1.53888392461395
  0
LINE
  5
12BA
330
2
100
AcDbEntity
  8
0
 62
     4
100
AcDbLine
 10
1204.477183682439
 20
404.2038938707916
 30
0.0
 11
1204.477183682439
 21
139.4770868597611
 31
0.0
  0
LINE
  5
12BB
330
2
100
AcDbEntity
  8
LOGO
 62
     6
100
AcDbLine
 10
1198.474692631382
 20
98.0112283850485
 30
0.0
 11
1158.293428719393
 21
98.01122838504845
 31
0.0
  0
LINE
  5
12BC
330
2
100
AcDbEntity
  8
LOGO
 62
     6
100
AcDbLine
 10
1198.474692631382
 20
114.5976348705902
 30
0.0
 11
1158.293428719393
 21
114.5976348705902
 31
0.0
  0
LINE
  5
12BD
330
2
100
AcDbEntity
  8
LOGO
 62
     6
100
AcDbLine
 10
1198.474692631382
 20
121.3829361345667
 30
0.0
 11
1158.293428719393
 21
121.3829361345667
 31
0.0
  0
LINE
  5
12BE
330
2
100
AcDbEntity
  8
LOGO
 62
     6
100
AcDbLine
 10
1198.474692631382
 20
134.95353866252
 30
0.0
 11
1158.293428719393
 21
134.9535386625198
 31
0.0
  0
LINE
  5
12BF
330
2
100
AcDbEntity
  8
LOGO
 62
     6
100
AcDbLine
 10
1114.39258159323
 20
121.3829361345666
 30
0.0
 11
1070.288123377383
 21
121.3829361345667
 31
0.0
  0
LINE
  5
12C0
330
2
100
AcDbEntity
  8
LOGO
 62
     6
100
AcDbLine
 10
1114.39258159323
 20
134.95353866252
 30
0.0
 11
1070.288123377383
 21
134.9535386625197
 31
0.0
  0
LINE
  5
12C1
330
2
100
AcDbEntity
  8
LOGO
 62
     6
100
AcDbLine
 10
1114.39258159323
 20
98.01122838504845
 30
0.0
 11
1070.288123377383
 21
98.01122838504845
 31
0.0
  0
LINE
  5
12C2
330
2
100
AcDbEntity
  8
LOGO
 62
     6
100
AcDbLine
 10
1114.39258159323
 20
114.5976348705901
 30
0.0
 11
1070.288123377383
 21
114.5976348705901
 31
0.0
  0
TEXT
  5
12C3
330
2
100
AcDbEntity
  8
LOGO
 62
     6
100
AcDbText
 10
1071.948547628488
 20
99.89604597608943
 30
0.0
 40
3.769611813320298
  1
Rotating direction
 41
0.8
  7
ROMANS1
 72
     1
 11
1092.340352485307
 21
101.7808518827495
 31
0.0
100
AcDbText
 73
     2
  0
TEXT
  5
12C4
330
2
100
AcDbEntity
  8
LOGO
 62
     7
100
AcDbText
 10
971.9222225665157
 20
119.6601919551472
 30
0.0
 40
6.031397596321867
  1
Order example:
 41
0.8
  7
CHINESET
100
AcDbText
  0
LINE
  5
12C5
330
2
100
AcDbEntity
  8
LOGO
 62
     1
100
AcDbLine
 10
969.3015598535891
 20
94.24160488734717
 30
0.0
 11
969.3015598535891
 21
139.4770868597611
 31
0.0
  0
TEXT
  5
12C6
330
2
100
AcDbEntity
  8
LOGO
 62
     7
100
AcDbText
 10
973.0043051729248
 20
128.1511509539613
 30
0.0
 40
9.047096394482801
  1
訂購代號:
  7
CHINESET
100
AcDbText
  0
LINE
  5
12C7
330
2
100
AcDbEntity
  8
LOGO
 62
     6
100
AcDbLine
 10
964.0255831629669
 20
123.2896396150926
 30
0.0
 11
964.0255831629669
 21
128.542596726374
 31
0.0
  0
LINE
  5
12C8
330
2
100
AcDbEntity
  8
LOGO
  6
CONTINUOUS
 62
     6
100
AcDbLine
 10
955.7917236580962
 20
127.4550020953473
 30
0.0
 11
964.0255831629669
 21
128.542596726374
 31
0.0
  0
LINE
  5
12C9
330
2
100
AcDbEntity
  8
LOGO
  6
CONTINUOUS
 62
     6
100
AcDbLine
 10
955.7917236580962
 20
124.3772342461194
 30
0.0
 11
964.0255831629669
 21
123.2896396150926
 31
0.0
  0
LINE
  5
12CA
330
2
100
AcDbEntity
  8
LOGO
 62
     6
100
AcDbLine
 10
955.7917236580962
 20
124.3772342461193
 30
0.0
 11
955.7917236580962
 21
127.4550020953473
 31
0.0
  0
LINE
  5
12CB
330
2
100
AcDbEntity
  8
LOGO
 62
     6
100
AcDbLine
 10
1049.615150443002
 20
121.3828940707955
 30
0.0
 11
1049.615150443002
 21
114.5975717749334
 31
0.0
  0
TEXT
  5
12CC
330
2
100
AcDbEntity
  8
LOGO
  6
CONTINUOUS
 62
     6
100
AcDbText
 10
1042.434915209285
 20
99.89604013389891
 30
0.0
 40
3.769623497701167
  1
Model
  7
CHINESET
 72
     4
 11
1049.615150443002
 21
101.7808518827494
 31
0.0
100
AcDbText
  0
TEXT
  5
12CD
330
2
100
AcDbEntity
  8
LOGO
 62
     6
100
AcDbText
 10
1043.58375284668
 20
106.4587468688731
 30
0.0
 40
6.031397596321867
  1
型式
  7
CHINESET
 72
     4
 11
1049.615150443002
 21
109.3200988781518
 31
0.0
100
AcDbText
  0
LINE
  5
12CE
330
2
100
AcDbEntity
  8
LOGO
 62
     6
100
AcDbLine
 10
1064.693644433806
 20
98.01122838504831
 30
0.0
 11
1034.536656452197
 21
98.01122838504831
 31
0.0
  0
LINE
  5
12CF
330
2
100
AcDbEntity
  8
LOGO
 62
     6
100
AcDbLine
 10
1064.693644433806
 20
114.5975717749334
 30
0.0
 11
1034.536656452197
 21
114.5975717749334
 31
0.0
  0
LINE
  5
12D0
330
2
100
AcDbEntity
  8
LOGO
 62
     6
100
AcDbLine
 10
1034.536656452197
 20
114.5975717749334
 30
0.0
 11
1034.536656452197
 21
98.01122838504831
 31
0.0
  0
LINE
  5
12D1
330
2
100
AcDbEntity
  8
LOGO
 62
     6
100
AcDbLine
 10
1070.288123377383
 20
114.5976348705901
 30
0.0
 11
1070.288123377383
 21
98.01122838504845
 31
0.0
  0
LINE
  5
12D2
330
2
100
AcDbEntity
  8
LOGO
 62
     6
100
AcDbLine
 10
1064.693644433806
 20
114.5975717749334
 30
0.0
 11
1064.693644433806
 21
98.01122838504833
 31
0.0
  0
TEXT
  5
12D3
330
2
100
AcDbEntity
  8
LOGO
  6
CONTINUOUS
 62
     7
100
AcDbText
 10
1035.254679975569
 20
124.3985928689565
 30
0.0
 40
7.539246995402335
  1
MASD
  7
CHINESET
 72
     1
 11
1049.615150443002
 21
128.1682163666576
 31
0.0
100
AcDbText
 73
     2
  0
LINE
  5
12D4
330
2
100
AcDbEntity
  8
LOGO
 62
     6
100
AcDbLine
 10
1067.709343231967
 20
121.3828940707955
 30
0.0
 11
1031.520957654036
 21
121.3828940707955
 31
0.0
  0
LINE
  5
12D5
330
2
100
AcDbEntity
  8
LOGO
 62
     6
100
AcDbLine
 10
1067.709343231967
 20
134.9535386625197
 30
0.0
 11
1031.520957654036
 21
134.9535386625197
 31
0.0
  0
LINE
  5
12D6
330
2
100
AcDbEntity
  8
LOGO
 62
     6
100
AcDbLine
 10
1031.520957654036
 20
134.9535386625197
 30
0.0
 11
1031.520957654036
 21
121.3828940707955
 31
0.0
  0
LINE
  5
12D7
330
2
100
AcDbEntity
  8
LOGO
 62
     6
100
AcDbLine
 10
1070.288123377383
 20
134.9535386625197
 30
0.0
 11
1070.288123377383
 21
121.3829361345667
 31
0.0
  0
LINE
  5
12D8
330
2
100
AcDbEntity
  8
LOGO
 62
     6
100
AcDbLine
 10
1070.288123377383
 20
134.9535386625197
 30
0.0
 11
1070.288123377383
 21
121.3828940707955
 31
0.0
  0
LINE
  5
12D9
330
2
100
AcDbEntity
  8
LOGO
 62
     6
100
AcDbLine
 10
1067.709343231967
 20
134.9535386625197
 30
0.0
 11
1067.709343231967
 21
121.3828940707955
 31
0.0
  0
TEXT
  5
12DA
330
2
100
AcDbEntity
  8
LOGO
  6
CONTINUOUS
 62
     6
100
AcDbText
 10
1131.919428313834
 20
99.896040133899
 30
0.0
 40
3.769623497701167
  1
Bore
 41
0.8
  7
CHINESET
 72
     4
 11
1136.58658121575
 21
101.7808518827495
 31
0.0
100
AcDbText
  0
TEXT
  5
12DB
330
2
100
AcDbEntity
  8
LOGO
 62
     6
100
AcDbText
 10
1130.819057264267
 20
106.3044000799909
 30
0.0
 40
6.031397596321867
  1
內徑
 41
0.9
  7
CHINESET
 72
     4
 11
1136.58658121575
 21
109.3200988781519
 31
0.0
100
AcDbText
  0
LINE
  5
12DC
330
2
100
AcDbEntity
  8
LOGO
 62
     6
100
AcDbLine
 10
1148.691146865362
 20
98.01122838504845
 30
0.0
 11
1124.482015566138
 21
98.01122838504838
 31
0.0
  0
LINE
  5
12DD
330
2
100
AcDbEntity
  8
LOGO
 62
     6
100
AcDbLine
 10
1148.691146865362
 20
114.5975717749335
 30
0.0
 11
1124.482015566138
 21
114.5975717749335
 31
0.0
  0
TEXT
  5
12DE
330
2
100
AcDbEntity
  8
LOGO
  6
CONTINUOUS
 62
     7
100
AcDbText
 10
1131.187044514192
 20
124.3130973329598
 30
0.0
 40
7.539246995402335
  1
40
  7
CHINESET
 72
     1
 11
1137.290244462851
 21
128.082720830661
 31
0.0
100
AcDbText
 73
     2
  0
LINE
  5
12DF
330
2
100
AcDbEntity
  8
LOGO
 62
     6
100
AcDbLine
 10
1148.691146865362
 20
121.3828940707956
 30
0.0
 11
1124.482015566138
 21
121.3828940707956
 31
0.0
  0
LINE
  5
12E0
330
2
100
AcDbEntity
  8
LOGO
 62
     6
100
AcDbLine
 10
1148.691146865362
 20
134.9535386625199
 30
0.0
 11
1124.482015566138
 21
134.9535386625198
 31
0.0
  0
LINE
  5
12E1
330
2
100
AcDbEntity
  8
LOGO
 62
     6
100
AcDbLine
 10
1092.340352485307
 20
121.3829361345667
 30
0.0
 11
1092.340352485307
 21
114.5976348705901
 31
0.0
  0
TEXT
  5
12E2
330
2
100
AcDbEntity
  8
LOGO
 62
     6
100
AcDbText
 10
1081.710014221789
 20
106.4866974892958
 30
0.0
 40
6.031397596321867
  1
旋轉方向
 41
0.9
  7
CHINESET
 72
     4
 11
1092.340352485307
 21
109.3200988781519
 31
0.0
100
AcDbText
  0
LINE
  5
12E3
330
2
100
AcDbEntity
  8
LOGO
 62
     6
100
AcDbLine
 10
1124.482015566138
 20
114.5975717749335
 30
0.0
 11
1124.482015566138
 21
98.01122838504845
 31
0.0
  0
LINE
  5
12E4
330
2
100
AcDbEntity
  8
LOGO
 62
     6
100
AcDbLine
 10
1114.39258159323
 20
114.5976348705901
 30
0.0
 11
1114.39258159323
 21
98.01122838504845
 31
0.0
  0
LINE
  5
12E5
330
2
100
AcDbEntity
  8
LOGO
 62
     6
100
AcDbLine
 10
1124.482015566138
 20
134.9535386625198
 30
0.0
 11
1124.482015566138
 21
121.3828940707956
 31
0.0
  0
LINE
  5
12E6
330
2
100
AcDbEntity
  8
LOGO
 62
     6
100
AcDbLine
 10
1114.39258159323
 20
134.9535386625198
 30
0.0
 11
1114.39258159323
 21
121.3829361345667
 31
0.0
  0
LINE
  5
12E7
330
2
100
AcDbEntity
  8
LOGO
  6
CONTINUOUS
 62
     7
100
AcDbLine
 10
1116.365662438423
 20
128.120146998845
 30
0.0
 11
1122.35796391931
 21
128.120146998845
 31
0.0
  0
LINE
  5
12E8
330
2
100
AcDbEntity
  8
LOGO
 62
     6
100
AcDbLine
 10
1136.586580868063
 20
121.3828940707956
 30
0.0
 11
1136.586580868063
 21
114.5975717749335
 31
0.0
  0
LINE
  5
12E9
330
2
100
AcDbEntity
  8
LOGO
 62
     6
100
AcDbLine
 10
1178.81997130083
 20
121.3829361345667
 30
0.0
 11
1178.81997130083
 21
114.5976348705902
 31
0.0
  0
TEXT
  5
12EA
330
2
100
AcDbEntity
  8
LOGO
 62
     6
100
AcDbText
 10
1162.018272932888
 20
99.89604597608943
 30
0.0
 40
3.769611813320298
  1
Rotating angle
 41
0.8
  7
ROMANS1
 72
     1
 11
1178.81997130083
 21
101.7808518827495
 31
0.0
100
AcDbText
 73
     2
  0
LINE
  5
12EB
330
2
100
AcDbEntity
  8
LOGO
 62
     6
100
AcDbLine
 10
1148.691146865362
 20
114.5975717749335
 30
0.0
 11
1148.691146865362
 21
98.01122838504847
 31
0.0
  0
LINE
  5
12EC
330
2
100
AcDbEntity
  8
LOGO
 62
     6
100
AcDbLine
 10
1158.293428719393
 20
114.5976348705902
 30
0.0
 11
1158.293428719393
 21
98.01122838504845
 31
0.0
  0
TEXT
  5
12ED
330
2
100
AcDbEntity
  8
LOGO
 62
     6
100
AcDbText
 10
1168.019999979917
 20
106.4926339042528
 30
0.0
 40
6.031397596321867
  1
旋轉角度
 41
0.9
  7
CHINESET
 72
     4
 11
1178.81997130083
 21
109.3200988781519
 31
0.0
100
AcDbText
  0
LINE
  5
12EE
330
2
100
AcDbEntity
  8
LOGO
 62
     6
100
AcDbLine
 10
1148.691146865362
 20
134.9535386625199
 30
0.0
 11
1148.691146865362
 21
121.3828940707956
 31
0.0
  0
LINE
  5
12EF
330
2
100
AcDbEntity
  8
LOGO
 62
     6
100
AcDbLine
 10
1158.293428719393
 20
134.9535386625198
 30
0.0
 11
1158.293428719393
 21
121.3829361345667
 31
0.0
  0
LINE
  5
12F0
330
2
100
AcDbEntity
  8
LOGO
  6
CONTINUOUS
 62
     7
100
AcDbLine
 10
1150.546428568357
 20
128.1201469988451
 30
0.0
 11
1156.538730049244
 21
128.1201469988451
 31
0.0
  0
LINE
  5
1309
330
2
100
AcDbEntity
  8
LOGO
 62
     1
100
AcDbLine
 10
1204.477183682439
 20
94.24160488734717
 30
0.0
 11
1204.477183682439
 21
139.4770868597611
 31
0.0
  0
LINE
  5
130A
330
2
100
AcDbEntity
  8
LOGO
 62
     6
100
AcDbLine
 10
1198.474692631382
 20
114.5976348705902
 30
0.0
 11
1198.474692631382
 21
98.0112283850485
 31
0.0
  0
LINE
  5
130B
330
2
100
AcDbEntity
  8
LOGO
 62
     6
100
AcDbLine
 10
1198.474692631382
 20
134.9535386625199
 30
0.0
 11
1198.474692631382
 21
121.3829361345667
 31
0.0
  0
LINE
  5
2577
102
{ACAD_REACTORS
330
27C3
330
27FB
330
2833
330
286B
102
}
330
2
100
AcDbEntity
  8
0
100
AcDbLine
 10
960.8635675206086
 20
154.6833029586079
 30
0.0
 11
1017.863567520608
 21
154.6833029586079
 31
0.0
  0
ARC
  5
2578
330
2
100
AcDbEntity
  8
0
100
AcDbCircle
 10
989.3635675206084
 20
357.4740627464432
 30
0.0
 40
27.5
100
AcDbArc
 50
201.0075254198194
 51
339.7904546262473
  0
LINE
  5
2588
102
{ACAD_REACTORS
330
27FB
102
}
330
2
100
AcDbEntity
  8
0
100
AcDbLine
 10
964.8635675206085
 20
229.6833029586079
 30
0.0
 11
1013.863567520608
 21
229.6833029586079
 31
0.0
  0
LINE
  5
2589
102
{ACAD_REACTORS
330
27C3
102
}
330
2
100
AcDbEntity
  8
0
100
AcDbLine
 10
960.8635675206086
 20
180.6833029586079
 30
0.0
 11
1017.863567520608
 21
180.6833029586079
 31
0.0
  0
LINE
  5
2596
330
2
100
AcDbEntity
  8
0
100
AcDbLine
 10
962.8635675206085
 20
227.6833029586079
 30
0.0
 11
962.8635675206085
 21
180.6833029586079
 31
0.0
  0
LINE
  5
2597
330
2
100
AcDbEntity
  8
0
100
AcDbLine
 10
960.3635675206085
 20
180.1833029586079
 30
0.0
 11
960.3635675206085
 21
155.0882729256079
 31
0.0
  0
LINE
  5
2598
330
2
100
AcDbEntity
  8
0
  6
CONTINUOUS
100
AcDbLine
 10
960.3635675206085
 20
155.0882729256079
 30
0.0
 11
960.8635675206086
 21
154.6833029586079
 31
0.0
  0
LINE
  5
2599
330
2
100
AcDbEntity
  8
0
100
AcDbLine
 10
960.8635675206086
 20
180.6833029586079
 30
0.0
 11
960.3635675206085
 21
180.1833029586079
 31
0.0
  0
LINE
  5
259A
330
2
100
AcDbEntity
  8
0
100
AcDbLine
 10
964.8635675206085
 20
229.6833029586079
 30
0.0
 11
962.8635675206085
 21
227.6833029586079
 31
0.0
  0
POLYLINE
  5
25A4
330
2
100
AcDbEntity
  8
0
100
AcDb2dPolyline
 66
     1
 10
0.0
 20
0.0
 30
0.0
  0
VERTEX
  5
25A5
330
25A4
100
AcDbEntity
  8
0
100
AcDbVertex
100
AcDb2dVertex
 10
960.3635675206085
 20
330.4740627464433
 30
0.0
  0
VERTEX
  5
25A6
330
25A4
100
AcDbEntity
  8
0
100
AcDbVertex
100
AcDb2dVertex
 10
960.3635675206085
 20
347.9740627464432
 30
0.0
  0
SEQEND
  5
25A7
330
25A4
100
AcDbEntity
  8
0
  0
CIRCLE
  5
25A8
330
2
100
AcDbEntity
  8
0
100
AcDbCircle
 10
965.3635675206086
 20
333.4740627464432
 30
0.0
 40
3.25
  0
CIRCLE
  5
25A9
330
2
100
AcDbEntity
  8
0
100
AcDbCircle
 10
965.3635675206086
 20
381.4740627464432
 30
0.0
 40
3.25
  0
LINE
  5
25AB
330
2
100
AcDbEntity
  8
CENTER
100
AcDbLine
 10
989.3635675206084
 20
280.5436367443079
 30
0.0
 11
989.3635675206084
 21
151.9015228171929
 31
0.0
  0
LINE
  5
25B0
330
2
100
AcDbEntity
  8
0
100
AcDbLine
 10
981.3635675206084
 20
260.6833029586079
 30
0.0
 11
981.3635675206084
 21
229.6833029586079
 31
0.0
  0
LINE
  5
25B1
330
2
100
AcDbEntity
  8
0
100
AcDbLine
 10
997.3635675206084
 20
260.6833029586079
 30
0.0
 11
997.3635675206084
 21
229.6833029586079
 31
0.0
  0
LINE
  5
25B4
330
2
100
AcDbEntity
  8
0
100
AcDbLine
 10
1015.863567520608
 20
227.6833029586079
 30
0.0
 11
1015.863567520608
 21
180.6833029586079
 31
0.0
  0
LINE
  5
25B5
330
2
100
AcDbEntity
  8
0
100
AcDbLine
 10
1018.363567520608
 20
180.1833029586079
 30
0.0
 11
1018.363567520608
 21
155.0073000922079
 31
0.0
  0
LINE
  5
25B6
330
2
100
AcDbEntity
  8
0
  6
CONTINUOUS
100
AcDbLine
 10
1018.363567520608
 20
155.0073000922079
 30
0.0
 11
1017.863567520608
 21
154.6833029586079
 31
0.0
  0
LINE
  5
25B7
330
2
100
AcDbEntity
  8
0
100
AcDbLine
 10
1018.363567520608
 20
180.1833029586079
 30
0.0
 11
1017.863567520608
 21
180.6833029586079
 31
0.0
  0
LINE
  5
25B8
330
2
100
AcDbEntity
  8
0
100
AcDbLine
 10
1015.863567520608
 20
227.6833029586079
 30
0.0
 11
1013.863567520608
 21
229.6833029586079
 31
0.0
  0
LINE
  5
25B9
330
2
100
AcDbEntity
  8
CENTER
100
AcDbLine
 10
989.3635675206084
 20
328.6341364656432
 30
0.0
 11
989.3635675206084
 21
387.8744989405432
 31
0.0
  0
CIRCLE
  5
25C2
330
2
100
AcDbEntity
  8
0
100
AcDbCircle
 10
1013.363567520608
 20
333.4740627464432
 30
0.0
 40
3.25
  0
CIRCLE
  5
25C3
330
2
100
AcDbEntity
  8
0
100
AcDbCircle
 10
1013.363567520608
 20
381.4740627464432
 30
0.0
 40
3.25
  0
LINE
  5
25C4
330
2
100
AcDbEntity
  8
0
100
AcDbLine
 10
1106.862799455737
 20
227.6833029586079
 30
0.0
 11
1106.862799455737
 21
180.6833029586079
 31
0.0
  0
LINE
  5
25C5
330
2
100
AcDbEntity
  8
CENTER
100
AcDbLine
 10
1133.362799455737
 20
280.5436367443079
 30
0.0
 11
1133.362799455737
 21
156.8120753839079
 31
0.0
  0
LINE
  5
25C6
330
2
100
AcDbEntity
  8
0
100
AcDbLine
 10
1159.862799455737
 20
227.6833029586079
 30
0.0
 11
1159.862799455737
 21
180.6833029586079
 31
0.0
  0
LINE
  5
25C7
330
2
100
AcDbEntity
  8
0
100
AcDbLine
 10
1104.862799455737
 20
154.6833029586079
 30
0.0
 11
1161.862799455737
 21
154.6833029586079
 31
0.0
  0
LINE
  5
25CB
330
2
100
AcDbEntity
  8
0
100
AcDbLine
 10
1104.862799455737
 20
180.6833029586079
 30
0.0
 11
1161.862799455737
 21
180.6833029586079
 31
0.0
  0
LINE
  5
25CC
330
2
100
AcDbEntity
  8
0
100
AcDbLine
 10
1104.362799455737
 20
180.1833029586079
 30
0.0
 11
1104.362799455737
 21
155.0882729256079
 31
0.0
  0
LINE
  5
25CD
330
2
100
AcDbEntity
  8
0
  6
CONTINUOUS
100
AcDbLine
 10
1104.362799455737
 20
155.0882729256079
 30
0.0
 11
1104.862799455737
 21
154.6833029586079
 31
0.0
  0
LINE
  5
25CF
330
2
100
AcDbEntity
  8
0
100
AcDbLine
 10
1104.862799455737
 20
180.6833029586079
 30
0.0
 11
1104.362799455737
 21
180.1833029586079
 31
0.0
  0
LINE
  5
25D0
330
2
100
AcDbEntity
  8
0
100
AcDbLine
 10
1162.362799455737
 20
180.1833029586079
 30
0.0
 11
1162.362799455737
 21
155.0073000922079
 31
0.0
  0
LINE
  5
25D1
330
2
100
AcDbEntity
  8
0
  6
CONTINUOUS
100
AcDbLine
 10
1162.362799455737
 20
155.0073000922079
 30
0.0
 11
1161.862799455737
 21
154.6833029586079
 31
0.0
  0
LINE
  5
25D2
330
2
100
AcDbEntity
  8
0
100
AcDbLine
 10
1162.362799455737
 20
180.1833029586079
 30
0.0
 11
1161.862799455737
 21
180.6833029586079
 31
0.0
  0
LINE
  5
25D3
330
2
100
AcDbEntity
  8
0
100
AcDbLine
 10
1124.862799455737
 20
260.6833029586079
 30
0.0
 11
1141.862799455737
 21
260.6833029586079
 31
0.0
  0
LINE
  5
25D4
330
2
100
AcDbEntity
  8
0
100
AcDbLine
 10
1108.862799455737
 20
229.6833029586079
 30
0.0
 11
1157.862799455737
 21
229.6833029586079
 31
0.0
  0
LINE
  5
25D5
330
2
100
AcDbEntity
  8
0
100
AcDbLine
 10
1124.862799455737
 20
279.6833029586079
 30
0.0
 11
1141.862799455737
 21
279.6833029586079
 31
0.0
  0
LINE
  5
25D6
330
2
100
AcDbEntity
  8
0
100
AcDbLine
 10
1108.862799455737
 20
229.6833029586079
 30
0.0
 11
1106.862799455737
 21
227.6833029586079
 31
0.0
  0
LINE
  5
25D7
330
2
100
AcDbEntity
  8
0
100
AcDbLine
 10
1123.862799455737
 20
278.6833029586079
 30
0.0
 11
1123.862799455737
 21
261.6833029586079
 31
0.0
  0
LINE
  5
25DA
330
2
100
AcDbEntity
  8
0
100
AcDbLine
 10
1123.862799455737
 20
261.6833029586079
 30
0.0
 11
1124.862799455737
 21
260.6833029586079
 31
0.0
  0
LINE
  5
25DB
330
2
100
AcDbEntity
  8
0
100
AcDbLine
 10
1124.862799455737
 20
260.6833029586079
 30
0.0
 11
1123.862799455737
 21
261.6833029586079
 31
0.0
  0
LINE
  5
25DC
330
2
100
AcDbEntity
  8
0
100
AcDbLine
 10
1124.862799455737
 20
279.6833029586079
 30
0.0
 11
1123.862799455737
 21
278.6833029586079
 31
0.0
  0
LINE
  5
25E0
330
2
100
AcDbEntity
  8
0
100
AcDbLine
 10
1125.362799455737
 20
260.6833029586079
 30
0.0
 11
1125.362799455737
 21
229.6833029586079
 31
0.0
  0
LINE
  5
25E1
330
2
100
AcDbEntity
  8
0
100
AcDbLine
 10
1141.362799455737
 20
260.6833029586079
 30
0.0
 11
1141.362799455737
 21
229.6833029586079
 31
0.0
  0
LINE
  5
25E5
330
2
100
AcDbEntity
  8
0
100
AcDbLine
 10
1159.862799455737
 20
227.6833029586079
 30
0.0
 11
1157.862799455737
 21
229.6833029586079
 31
0.0
  0
LINE
  5
25E6
330
2
100
AcDbEntity
  8
0
100
AcDbLine
 10
1142.862799455737
 20
278.6833029586079
 30
0.0
 11
1142.862799455737
 21
261.6833029586079
 31
0.0
  0
LINE
  5
25E7
330
2
100
AcDbEntity
  8
0
100
AcDbLine
 10
1141.862799455737
 20
260.6833029586079
 30
0.0
 11
1142.862799455737
 21
261.6833029586079
 31
0.0
  0
LINE
  5
25E8
330
2
100
AcDbEntity
  8
0
100
AcDbLine
 10
1141.862799455737
 20
260.6833029586079
 30
0.0
 11
1142.862799455737
 21
261.6833029586079
 31
0.0
  0
LINE
  5
25E9
330
2
100
AcDbEntity
  8
0
100
AcDbLine
 10
1141.862799455737
 20
279.6833029586079
 30
0.0
 11
1142.862799455737
 21
278.6833029586079
 31
0.0
  0
LINE
  5
25EA
330
2
100
AcDbEntity
  8
0
100
AcDbLine
 10
1142.862799455737
 20
278.6833029586079
 30
0.0
 11
1141.862799455737
 21
279.6833029586079
 31
0.0
  0
LINE
  5
266C
330
2
100
AcDbEntity
  8
AM_7
  6
AM_ISO08W050X2
100
AcDbLine
 10
965.3635675206086
 20
381.4740627464432
 30
0.0
 11
970.1135675206085
 21
381.4740627464432
 31
0.0
1001
GENIUS_GENOREF_13
1005
2670
  0
LINE
  5
266D
330
2
100
AcDbEntity
  8
AM_7
  6
AM_ISO08W050X2
100
AcDbLine
 10
965.3635675206086
 20
381.4740627464432
 30
0.0
 11
965.3635675206086
 21
386.2240627464432
 31
0.0
1001
GENIUS_GENOREF_13
1005
2670
  0
LINE
  5
266E
330
2
100
AcDbEntity
  8
AM_7
  6
AM_ISO08W050X2
100
AcDbLine
 10
965.3635675206086
 20
381.4740627464432
 30
0.0
 11
960.6135675206084
 21
381.4740627464432
 31
0.0
1001
GENIUS_GENOREF_13
1005
2670
  0
LINE
  5
266F
330
2
100
AcDbEntity
  8
AM_7
  6
AM_ISO08W050X2
100
AcDbLine
 10
965.3635675206086
 20
381.4740627464432
 30
0.0
 11
965.3635675206086
 21
376.7240627464433
 31
0.0
1001
GENIUS_GENOREF_13
1005
2670
  0
POINT
  5
2670
330
2
100
AcDbEntity
  8
0
 60
     1
100
AcDbPoint
 10
0.0
 20
0.0
 30
0.0
1001
GENIUS_GENODEF_13
1002
{
1000
HIER
1070
    10
1002
}
1002
{
1000
MANEDIT
1070
     0
1002
}
1002
{
1000
NOSEL
1070
     0
1002
}
1002
{
1000
BEHIND
1070
     0
1002
}
1002
{
1000
OTHER
1070
     0
1002
}
1002
{
1000
REACTOR
1002
}
1001
GENIUS_GENOLIS_13
1002
{
1000
ENT
1005
266F
1005
266E
1005
266D
1005
266C
1002
}
1001
GENIUS_GENOENT_13
1002
{
1000
MYREF
1005
2670
1002
}
1002
{
1000
GRP
1005
0
1002
}
1001
GENIUS_GENOBJ-N-CRS_13
1002
{
1000
OWNER
1000
GEN
1002
}
  0
LINE
  5
267E
102
{ACAD_REACTORS
330
271B
102
}
330
2
100
AcDbEntity
  8
AM_7
  6
AM_ISO08W050X2
100
AcDbLine
 10
1013.363567520608
 20
381.4740627464432
 30
0.0
 11
1018.113567520608
 21
381.4740627464432
 31
0.0
1001
GENIUS_GENOREF_13
1005
2682
  0
LINE
  5
267F
330
2
100
AcDbEntity
  8
AM_7
  6
AM_ISO08W050X2
100
AcDbLine
 10
1013.363567520608
 20
381.4740627464432
 30
0.0
 11
1013.363567520608
 21
386.2240627464432
 31
0.0
1001
GENIUS_GENOREF_13
1005
2682
  0
LINE
  5
2680
330
2
100
AcDbEntity
  8
AM_7
  6
AM_ISO08W050X2
100
AcDbLine
 10
1013.363567520608
 20
381.4740627464432
 30
0.0
 11
1008.613567520608
 21
381.4740627464432
 31
0.0
1001
GENIUS_GENOREF_13
1005
2682
  0
LINE
  5
2681
330
2
100
AcDbEntity
  8
AM_7
  6
AM_ISO08W050X2
100
AcDbLine
 10
1013.363567520608
 20
381.4740627464432
 30
0.0
 11
1013.363567520608
 21
376.7240627464433
 31
0.0
1001
GENIUS_GENOREF_13
1005
2682
  0
POINT
  5
2682
330
2
100
AcDbEntity
  8
0
 60
     1
100
AcDbPoint
 10
0.0
 20
0.0
 30
0.0
1001
GENIUS_GENOBJ-N-CRS_13
1002
{
1000
OWNER
1000
GEN
1002
}
1001
GENIUS_GENODEF_13
1002
{
1000
HIER
1070
    10
1002
}
1002
{
1000
MANEDIT
1070
     0
1002
}
1002
{
1000
NOSEL
1070
     0
1002
}
1002
{
1000
BEHIND
1070
     0
1002
}
1002
{
1000
OTHER
1070
     0
1002
}
1002
{
1000
REACTOR
1002
}
1001
GENIUS_GENOLIS_13
1002
{
1000
ENT
1005
2681
1005
2680
1005
267F
1005
267E
1002
}
1001
GENIUS_GENOENT_13
1002
{
1000
MYREF
1005
2682
1002
}
1002
{
1000
GRP
1005
0
1002
}
  0
LINE
  5
2690
102
{ACAD_REACTORS
330
271B
102
}
330
2
100
AcDbEntity
  8
AM_7
  6
AM_ISO08W050X2
100
AcDbLine
 10
1013.363567520608
 20
333.4740627464432
 30
0.0
 11
1018.113567520608
 21
333.4740627464432
 31
0.0
1001
GENIUS_GENOREF_13
1005
2694
  0
LINE
  5
2691
330
2
100
AcDbEntity
  8
AM_7
  6
AM_ISO08W050X2
100
AcDbLine
 10
1013.363567520608
 20
333.4740627464432
 30
0.0
 11
1013.363567520608
 21
338.2240627464432
 31
0.0
1001
GENIUS_GENOREF_13
1005
2694
  0
LINE
  5
2692
330
2
100
AcDbEntity
  8
AM_7
  6
AM_ISO08W050X2
100
AcDbLine
 10
1013.363567520608
 20
333.4740627464432
 30
0.0
 11
1008.613567520608
 21
333.4740627464432
 31
0.0
1001
GENIUS_GENOREF_13
1005
2694
  0
LINE
  5
2693
102
{ACAD_REACTORS
330
2753
102
}
330
2
100
AcDbEntity
  8
AM_7
  6
AM_ISO08W050X2
100
AcDbLine
 10
1013.363567520608
 20
333.4740627464432
 30
0.0
 11
1013.363567520608
 21
328.7240627464433
 31
0.0
1001
GENIUS_GENOREF_13
1005
2694
  0
POINT
  5
2694
330
2
100
AcDbEntity
  8
0
 60
     1
100
AcDbPoint
 10
0.0
 20
0.0
 30
0.0
1001
GENIUS_GENOENT_13
1002
{
1000
MYREF
1005
2694
1002
}
1002
{
1000
GRP
1005
0
1002
}
1001
GENIUS_GENOBJ-N-CRS_13
1002
{
1000
OWNER
1000
GEN
1002
}
1001
GENIUS_GENODEF_13
1002
{
1000
HIER
1070
    10
1002
}
1002
{
1000
MANEDIT
1070
     0
1002
}
1002
{
1000
NOSEL
1070
     0
1002
}
1002
{
1000
BEHIND
1070
     0
1002
}
1002
{
1000
OTHER
1070
     0
1002
}
1002
{
1000
REACTOR
1002
}
1001
GENIUS_GENOLIS_13
1002
{
1000
ENT
1005
2693
1005
2692
1005
2691
1005
2690
1002
}
  0
LINE
  5
26A2
330
2
100
AcDbEntity
  8
AM_7
  6
AM_ISO08W050X2
100
AcDbLine
 10
965.3635675206086
 20
333.4740627464432
 30
0.0
 11
970.1135675206085
 21
333.4740627464432
 31
0.0
1001
GENIUS_GENOREF_13
1005
26A6
  0
LINE
  5
26A3
330
2
100
AcDbEntity
  8
AM_7
  6
AM_ISO08W050X2
100
AcDbLine
 10
965.3635675206086
 20
333.4740627464432
 30
0.0
 11
965.3635675206086
 21
338.2240627464432
 31
0.0
1001
GENIUS_GENOREF_13
1005
26A6
  0
LINE
  5
26A4
330
2
100
AcDbEntity
  8
AM_7
  6
AM_ISO08W050X2
100
AcDbLine
 10
965.3635675206086
 20
333.4740627464432
 30
0.0
 11
960.6135675206084
 21
333.4740627464432
 31
0.0
1001
GENIUS_GENOREF_13
1005
26A6
  0
LINE
  5
26A5
102
{ACAD_REACTORS
330
2753
102
}
330
2
100
AcDbEntity
  8
AM_7
  6
AM_ISO08W050X2
100
AcDbLine
 10
965.3635675206086
 20
333.4740627464432
 30
0.0
 11
965.3635675206086
 21
328.7240627464433
 31
0.0
1001
GENIUS_GENOREF_13
1005
26A6
  0
POINT
  5
26A6
330
2
100
AcDbEntity
  8
0
 60
     1
100
AcDbPoint
 10
0.0
 20
0.0
 30
0.0
1001
GENIUS_GENOLIS_13
1002
{
1000
ENT
1005
26A5
1005
26A4
1005
26A3
1005
26A2
1002
}
1001
GENIUS_GENOENT_13
1002
{
1000
MYREF
1005
26A6
1002
}
1002
{
1000
GRP
1005
0
1002
}
1001
GENIUS_GENODEF_13
1002
{
1000
HIER
1070
    10
1002
}
1002
{
1000
MANEDIT
1070
     0
1002
}
1002
{
1000
NOSEL
1070
     0
1002
}
1002
{
1000
BEHIND
1070
     0
1002
}
1002
{
1000
OTHER
1070
     0
1002
}
1002
{
1000
REACTOR
1002
}
1001
GENIUS_GENOBJ-N-CRS_13
1002
{
1000
OWNER
1000
GEN
1002
}
  0
POLYLINE
  5
26A8
330
2
100
AcDbEntity
  8
DIM
100
AcDb2dPolyline
 66
     1
 10
0.0
 20
0.0
 30
0.0
 70
     5
 75
     6
  0
VERTEX
  5
26A9
330
26A8
100
AcDbEntity
  8
DIM
100
AcDbVertex
100
AcDb2dVertex
 10
921.7355032342659
 20
342.3819350774889
 30
0.0
 70
    16
  0
VERTEX
  5
3520
330
26A8
100
AcDbEntity
  8
DIM
100
AcDbVertex
100
AcDb2dVertex
 10
923.6576378232255
 20
337.9265885926948
 30
0.0
 70
     8
  0
VERTEX
  5
3521
330
26A8
100
AcDbEntity
  8
DIM
100
AcDbVertex
100
AcDb2dVertex
 10
923.7478806197133
 20
337.6125790140167
 30
0.0
 70
     8
  0
VERTEX
  5
3522
330
26A8
100
AcDbEntity
  8
DIM
100
AcDbVertex
100
AcDb2dVertex
 10
923.8034526010446
 20
337.3621930596015
 30
0.0
 70
     8
  0
VERTEX
  5
3523
330
26A8
100
AcDbEntity
  8
DIM
100
AcDbVertex
100
AcDb2dVertex
 10
923.8377648047094
 20
337.1616194221977
 30
0.0
 70
     8
  0
VERTEX
  5
3524
330
26A8
100
AcDbEntity
  8
DIM
100
AcDbVertex
100
AcDb2dVertex
 10
923.8642282681979
 20
336.9970467945532
 30
0.0
 70
     8
  0
VERTEX
  5
3525
330
26A8
100
AcDbEntity
  8
DIM
100
AcDbVertex
100
AcDb2dVertex
 10
923.896254029
 20
336.8546638694167
 30
0.0
 70
     8
  0
VERTEX
  5
3526
330
26A8
100
AcDbEntity
  8
DIM
100
AcDbVertex
100
AcDb2dVertex
 10
923.9472531246059
 20
336.7206593395362
 30
0.0
 70
     8
  0
VERTEX
  5
3527
330
26A8
100
AcDbEntity
  8
DIM
100
AcDbVertex
100
AcDb2dVertex
 10
924.0306365925052
 20
336.58122189766
 30
0.0
 70
     8
  0
VERTEX
  5
3528
330
26A8
100
AcDbEntity
  8
DIM
100
AcDbVertex
100
AcDb2dVertex
 10
924.1598154701884
 20
336.4225402365365
 30
0.0
 70
     8
  0
VERTEX
  5
3529
330
26A8
100
AcDbEntity
  8
DIM
100
AcDbVertex
100
AcDb2dVertex
 10
924.3436241062406
 20
336.2358595895911
 30
0.0
 70
     8
  0
VERTEX
  5
352A
330
26A8
100
AcDbEntity
  8
DIM
100
AcDbVertex
100
AcDb2dVertex
 10
924.5725900936276
 20
336.0326513529576
 30
0.0
 70
     8
  0
VERTEX
  5
352B
330
26A8
100
AcDbEntity
  8
DIM
100
AcDbVertex
100
AcDb2dVertex
 10
924.8326643364107
 20
335.829443463447
 30
0.0
 70
     8
  0
VERTEX
  5
352C
330
26A8
100
AcDbEntity
  8
DIM
100
AcDbVertex
100
AcDb2dVertex
 10
925.1097977386509
 20
335.6427638578703
 30
0.0
 70
     8
  0
VERTEX
  5
352D
330
26A8
100
AcDbEntity
  8
DIM
100
AcDbVertex
100
AcDb2dVertex
 10
925.3899412044097
 20
335.4891404730385
 30
0.0
 70
     8
  0
VERTEX
  5
352E
330
26A8
100
AcDbEntity
  8
DIM
100
AcDbVertex
100
AcDb2dVertex
 10
925.659045637748
 20
335.3851012457627
 30
0.0
 70
     8
  0
VERTEX
  5
352F
330
26A8
100
AcDbEntity
  8
DIM
100
AcDbVertex
100
AcDb2dVertex
 10
925.9030619427271
 20
335.3471741128537
 30
0.0
 70
     8
  0
VERTEX
  5
3530
330
26A8
100
AcDbEntity
  8
DIM
100
AcDbVertex
100
AcDb2dVertex
 10
926.1079410234083
 20
335.3918870111227
 30
0.0
 70
     8
  0
VERTEX
  5
3531
330
26A8
100
AcDbEntity
  8
DIM
100
AcDbVertex
100
AcDb2dVertex
 10
926.2629579288672
 20
335.5295698793813
 30
0.0
 70
     8
  0
VERTEX
  5
3532
330
26A8
100
AcDbEntity
  8
DIM
100
AcDbVertex
100
AcDb2dVertex
 10
926.3706842882394
 20
335.7457606644439
 30
0.0
 70
     8
  0
VERTEX
  5
3533
330
26A8
100
AcDbEntity
  8
DIM
100
AcDbVertex
100
AcDb2dVertex
 10
926.4370158756745
 20
336.0197993151258
 30
0.0
 70
     8
  0
VERTEX
  5
3534
330
26A8
100
AcDbEntity
  8
DIM
100
AcDbVertex
100
AcDb2dVertex
 10
926.4678484653229
 20
336.331025780242
 30
0.0
 70
     8
  0
VERTEX
  5
3535
330
26A8
100
AcDbEntity
  8
DIM
100
AcDbVertex
100
AcDb2dVertex
 10
926.4690778313342
 20
336.6587800086077
 30
0.0
 70
     8
  0
VERTEX
  5
3536
330
26A8
100
AcDbEntity
  8
DIM
100
AcDbVertex
100
AcDb2dVertex
 10
926.4465997478588
 20
336.9824019490382
 30
0.0
 70
     8
  0
VERTEX
  5
3537
330
26A8
100
AcDbEntity
  8
DIM
100
AcDbVertex
100
AcDb2dVertex
 10
926.4063099890467
 20
337.2812315503484
 30
0.0
 70
     8
  0
VERTEX
  5
3538
330
26A8
100
AcDbEntity
  8
DIM
100
AcDbVertex
100
AcDb2dVertex
 10
926.3541043290475
 20
337.5346087613538
 30
0.0
 70
     8
  0
VERTEX
  5
3539
330
26A8
100
AcDbEntity
  8
DIM
100
AcDbVertex
100
AcDb2dVertex
 10
926.2944559260503
 20
337.7284799155856
 30
0.0
 70
     8
  0
VERTEX
  5
353A
330
26A8
100
AcDbEntity
  8
DIM
100
AcDbVertex
100
AcDb2dVertex
 10
926.2261474743992
 20
337.8752168854406
 30
0.0
 70
     8
  0
VERTEX
  5
353B
330
26A8
100
AcDbEntity
  8
DIM
100
AcDbVertex
100
AcDb2dVertex
 10
926.1465390524776
 20
337.9937979280321
 30
0.0
 70
     8
  0
VERTEX
  5
353C
330
26A8
100
AcDbEntity
  8
DIM
100
AcDbVertex
100
AcDb2dVertex
 10
926.0529907386679
 20
338.103201300473
 30
0.0
 70
     8
  0
VERTEX
  5
353D
330
26A8
100
AcDbEntity
  8
DIM
100
AcDbVertex
100
AcDb2dVertex
 10
925.9428626113537
 20
338.2224052598766
 30
0.0
 70
     8
  0
VERTEX
  5
353E
330
26A8
100
AcDbEntity
  8
DIM
100
AcDbVertex
100
AcDb2dVertex
 10
925.8135147489177
 20
338.3703880633558
 30
0.0
 70
     8
  0
VERTEX
  5
353F
330
26A8
100
AcDbEntity
  8
DIM
100
AcDbVertex
100
AcDb2dVertex
 10
925.6623072297431
 20
338.5661279680238
 30
0.0
 70
     8
  0
VERTEX
  5
3540
330
26A8
100
AcDbEntity
  8
DIM
100
AcDbVertex
100
AcDb2dVertex
 10
925.4866001322126
 20
338.8286032309938
 30
0.0
 70
     8
  0
VERTEX
  5
3541
330
26A8
100
AcDbEntity
  8
DIM
100
AcDbVertex
100
AcDb2dVertex
 10
925.2849925648973
 20
339.1699381691283
 30
0.0
 70
     8
  0
VERTEX
  5
3542
330
26A8
100
AcDbEntity
  8
DIM
100
AcDbVertex
100
AcDb2dVertex
 10
925.0610397571174
 20
339.5748413382885
 30
0.0
 70
     8
  0
VERTEX
  5
3543
330
26A8
100
AcDbEntity
  8
DIM
100
AcDbVertex
100
AcDb2dVertex
 10
924.8195359683808
 20
340.0211673540847
 30
0.0
 70
     8
  0
VERTEX
  5
3544
330
26A8
100
AcDbEntity
  8
DIM
100
AcDbVertex
100
AcDb2dVertex
 10
924.5652754581959
 20
340.4867708321275
 30
0.0
 70
     8
  0
VERTEX
  5
3545
330
26A8
100
AcDbEntity
  8
DIM
100
AcDbVertex
100
AcDb2dVertex
 10
924.3030524860706
 20
340.9495063880275
 30
0.0
 70
     8
  0
VERTEX
  5
3546
330
26A8
100
AcDbEntity
  8
DIM
100
AcDbVertex
100
AcDb2dVertex
 10
924.0376613115131
 20
341.3872286373953
 30
0.0
 70
     8
  0
VERTEX
  5
3547
330
26A8
100
AcDbEntity
  8
DIM
100
AcDbVertex
100
AcDb2dVertex
 10
923.7738961940312
 20
341.7777921958411
 30
0.0
 70
     8
  0
VERTEX
  5
3548
330
26A8
100
AcDbEntity
  8
DIM
100
AcDbVertex
100
AcDb2dVertex
 10
923.5165513931333
 20
342.0990516789759
 30
0.0
 70
     8
  0
VERTEX
  5
3549
330
26A8
100
AcDbEntity
  8
DIM
100
AcDbVertex
100
AcDb2dVertex
 10
923.2707219625849
 20
342.3329640659013
 30
0.0
 70
     8
  0
VERTEX
  5
354A
330
26A8
100
AcDbEntity
  8
DIM
100
AcDbVertex
100
AcDb2dVertex
 10
923.0427061331829
 20
342.4778957896851
 30
0.0
 70
     8
  0
VERTEX
  5
354B
330
26A8
100
AcDbEntity
  8
DIM
100
AcDbVertex
100
AcDb2dVertex
 10
922.8391029299814
 20
342.536315646886
 30
0.0
 70
     8
  0
VERTEX
  5
354C
330
26A8
100
AcDbEntity
  8
DIM
100
AcDbVertex
100
AcDb2dVertex
 10
922.6665113780351
 20
342.5106924340632
 30
0.0
 70
     8
  0
VERTEX
  5
354D
330
26A8
100
AcDbEntity
  8
DIM
100
AcDbVertex
100
AcDb2dVertex
 10
922.5315305023983
 20
342.4034949477754
 30
0.0
 70
     8
  0
VERTEX
  5
354E
330
26A8
100
AcDbEntity
  8
DIM
100
AcDbVertex
100
AcDb2dVertex
 10
922.4407593281258
 20
342.2171919845818
 30
0.0
 70
     8
  0
VERTEX
  5
354F
330
26A8
100
AcDbEntity
  8
DIM
100
AcDbVertex
100
AcDb2dVertex
 10
922.4007968802713
 20
341.9542523410413
 30
0.0
 70
     8
  0
VERTEX
  5
3550
330
26A8
100
AcDbEntity
  8
DIM
100
AcDbVertex
100
AcDb2dVertex
 10
922.4182421838898
 20
341.6171448137129
 30
0.0
 70
     8
  0
VERTEX
  5
3551
330
26A8
100
AcDbEntity
  8
DIM
100
AcDbVertex
100
AcDb2dVertex
 10
922.496259246752
 20
341.211033691786
 30
0.0
 70
     8
  0
VERTEX
  5
3552
330
26A8
100
AcDbEntity
  8
DIM
100
AcDbVertex
100
AcDb2dVertex
 10
922.6242720074948
 20
340.7518652349732
 30
0.0
 70
     8
  0
VERTEX
  5
3553
330
26A8
100
AcDbEntity
  8
DIM
100
AcDbVertex
100
AcDb2dVertex
 10
922.7882693874713
 20
340.2582811956172
 30
0.0
 70
     8
  0
VERTEX
  5
3554
330
26A8
100
AcDbEntity
  8
DIM
100
AcDbVertex
100
AcDb2dVertex
 10
922.9742403080349
 20
339.7489233260611
 30
0.0
 70
     8
  0
VERTEX
  5
3555
330
26A8
100
AcDbEntity
  8
DIM
100
AcDbVertex
100
AcDb2dVertex
 10
923.1681736905388
 20
339.2424333786479
 30
0.0
 70
     8
  0
VERTEX
  5
3556
330
26A8
100
AcDbEntity
  8
DIM
100
AcDbVertex
100
AcDb2dVertex
 10
923.3560584563363
 20
338.7574531057205
 30
0.0
 70
     8
  0
VERTEX
  5
3557
330
26A8
100
AcDbEntity
  8
DIM
100
AcDbVertex
100
AcDb2dVertex
 10
923.5238835267809
 20
338.3126242596218
 30
0.0
 70
     8
  0
VERTEX
  5
26AA
330
26A8
100
AcDbEntity
  8
DIM
100
AcDbVertex
100
AcDb2dVertex
 10
924.1705109181214
 20
337.1006159898716
 30
0.0
 70
    16
  0
VERTEX
  5
26AB
330
26A8
100
AcDbEntity
  8
DIM
100
AcDbVertex
100
AcDb2dVertex
 10
923.5282800326018
 20
336.7751325191933
 30
0.0
 70
    16
  0
VERTEX
  5
26AC
330
26A8
100
AcDbEntity
  8
DIM
100
AcDbVertex
100
AcDb2dVertex
 10
926.6752617726018
 20
334.3340953525744
 30
0.0
 70
    16
  0
VERTEX
  5
26AD
330
26A8
100
AcDbEntity
  8
DIM
100
AcDbVertex
100
AcDb2dVertex
 10
926.4183190174405
 20
338.2398081372453
 30
0.0
 70
    16
  0
VERTEX
  5
26AE
330
26A8
100
AcDbEntity
  8
DIM
100
AcDbVertex
100
AcDb2dVertex
 10
925.7760881319205
 20
337.9143246665669
 30
0.0
 70
    16
  0
VERTEX
  5
26AF
330
26A8
100
AcDbEntity
  8
DIM
100
AcDbVertex
100
AcDb2dVertex
 10
923.3969292481534
 20
343.0745125824499
 30
0.0
 70
    16
  0
SEQEND
  5
26B0
330
26A8
100
AcDbEntity
  8
DIM
  0
TEXT
  5
26B1
330
2
100
AcDbEntity
  8
DIM
100
AcDbText
 10
905.5089879360295
 20
336.4609695944114
 30
0.0
 40
4.799999999999999
  1
CCW
  7
ROMANS
100
AcDbText
  0
TEXT
  5
26B2
330
2
100
AcDbEntity
  8
DIM
100
AcDbText
 10
911.3717261411052
 20
376.1365083756875
 30
0.0
 40
4.799999999999999
  1
CW
  7
ROMANS
100
AcDbText
  0
POLYLINE
  5
26B3
330
2
100
AcDbEntity
  8
DIM
100
AcDb2dPolyline
 66
     1
 10
0.0
 20
0.0
 30
0.0
 70
     5
 75
     6
  0
VERTEX
  5
26B4
330
26B3
100
AcDbEntity
  8
DIM
100
AcDbVertex
100
AcDb2dVertex
 10
921.7355032342664
 20
373.7670900874116
 30
0.0
 70
    16
  0
VERTEX
  5
3558
330
26B3
100
AcDbEntity
  8
DIM
100
AcDbVertex
100
AcDb2dVertex
 10
923.657637823226
 20
378.2224365722057
 30
0.0
 70
     8
  0
VERTEX
  5
3559
330
26B3
100
AcDbEntity
  8
DIM
100
AcDbVertex
100
AcDb2dVertex
 10
923.7478806197138
 20
378.5364461508838
 30
0.0
 70
     8
  0
VERTEX
  5
355A
330
26B3
100
AcDbEntity
  8
DIM
100
AcDbVertex
100
AcDb2dVertex
 10
923.8034526010451
 20
378.7868321052989
 30
0.0
 70
     8
  0
VERTEX
  5
355B
330
26B3
100
AcDbEntity
  8
DIM
100
AcDbVertex
100
AcDb2dVertex
 10
923.83776480471
 20
378.9874057427028
 30
0.0
 70
     8
  0
VERTEX
  5
355C
330
26B3
100
AcDbEntity
  8
DIM
100
AcDbVertex
100
AcDb2dVertex
 10
923.8642282681984
 20
379.1519783703472
 30
0.0
 70
     8
  0
VERTEX
  5
355D
330
26B3
100
AcDbEntity
  8
DIM
100
AcDbVertex
100
AcDb2dVertex
 10
923.8962540290007
 20
379.2943612954838
 30
0.0
 70
     8
  0
VERTEX
  5
355E
330
26B3
100
AcDbEntity
  8
DIM
100
AcDbVertex
100
AcDb2dVertex
 10
923.9472531246063
 20
379.4283658253643
 30
0.0
 70
     8
  0
VERTEX
  5
355F
330
26B3
100
AcDbEntity
  8
DIM
100
AcDbVertex
100
AcDb2dVertex
 10
924.0306365925059
 20
379.5678032672404
 30
0.0
 70
     8
  0
VERTEX
  5
3560
330
26B3
100
AcDbEntity
  8
DIM
100
AcDbVertex
100
AcDb2dVertex
 10
924.159815470189
 20
379.7264849283639
 30
0.0
 70
     8
  0
VERTEX
  5
3561
330
26B3
100
AcDbEntity
  8
DIM
100
AcDbVertex
100
AcDb2dVertex
 10
924.3436241062411
 20
379.9131655753094
 30
0.0
 70
     8
  0
VERTEX
  5
3562
330
26B3
100
AcDbEntity
  8
DIM
100
AcDbVertex
100
AcDb2dVertex
 10
924.5725900936282
 20
380.1163738119429
 30
0.0
 70
     8
  0
VERTEX
  5
3563
330
26B3
100
AcDbEntity
  8
DIM
100
AcDbVertex
100
AcDb2dVertex
 10
924.8326643364112
 20
380.3195817014535
 30
0.0
 70
     8
  0
VERTEX
  5
3564
330
26B3
100
AcDbEntity
  8
DIM
100
AcDbVertex
100
AcDb2dVertex
 10
925.1097977386516
 20
380.5062613070301
 30
0.0
 70
     8
  0
VERTEX
  5
3565
330
26B3
100
AcDbEntity
  8
DIM
100
AcDbVertex
100
AcDb2dVertex
 10
925.3899412044104
 20
380.6598846918619
 30
0.0
 70
     8
  0
VERTEX
  5
3566
330
26B3
100
AcDbEntity
  8
DIM
100
AcDbVertex
100
AcDb2dVertex
 10
925.6590456377486
 20
380.7639239191377
 30
0.0
 70
     8
  0
VERTEX
  5
3567
330
26B3
100
AcDbEntity
  8
DIM
100
AcDbVertex
100
AcDb2dVertex
 10
925.9030619427276
 20
380.8018510520467
 30
0.0
 70
     8
  0
VERTEX
  5
3568
330
26B3
100
AcDbEntity
  8
DIM
100
AcDbVertex
100
AcDb2dVertex
 10
926.1079410234087
 20
380.7571381537777
 30
0.0
 70
     8
  0
VERTEX
  5
3569
330
26B3
100
AcDbEntity
  8
DIM
100
AcDbVertex
100
AcDb2dVertex
 10
926.2629579288677
 20
380.6194552855192
 30
0.0
 70
     8
  0
VERTEX
  5
356A
330
26B3
100
AcDbEntity
  8
DIM
100
AcDbVertex
100
AcDb2dVertex
 10
926.3706842882397
 20
380.4032645004566
 30
0.0
 70
     8
  0
VERTEX
  5
356B
330
26B3
100
AcDbEntity
  8
DIM
100
AcDbVertex
100
AcDb2dVertex
 10
926.4370158756749
 20
380.1292258497747
 30
0.0
 70
     8
  0
VERTEX
  5
356C
330
26B3
100
AcDbEntity
  8
DIM
100
AcDbVertex
100
AcDb2dVertex
 10
926.4678484653233
 20
379.8179993846585
 30
0.0
 70
     8
  0
VERTEX
  5
356D
330
26B3
100
AcDbEntity
  8
DIM
100
AcDbVertex
100
AcDb2dVertex
 10
926.4690778313347
 20
379.4902451562928
 30
0.0
 70
     8
  0
VERTEX
  5
356E
330
26B3
100
AcDbEntity
  8
DIM
100
AcDbVertex
100
AcDb2dVertex
 10
926.4465997478593
 20
379.1666232158624
 30
0.0
 70
     8
  0
VERTEX
  5
356F
330
26B3
100
AcDbEntity
  8
DIM
100
AcDbVertex
100
AcDb2dVertex
 10
926.4063099890471
 20
378.8677936145521
 30
0.0
 70
     8
  0
VERTEX
  5
3570
330
26B3
100
AcDbEntity
  8
DIM
100
AcDbVertex
100
AcDb2dVertex
 10
926.3541043290478
 20
378.6144164035468
 30
0.0
 70
     8
  0
VERTEX
  5
3571
330
26B3
100
AcDbEntity
  8
DIM
100
AcDbVertex
100
AcDb2dVertex
 10
926.2944559260507
 20
378.4205452493149
 30
0.0
 70
     8
  0
VERTEX
  5
3572
330
26B3
100
AcDbEntity
  8
DIM
100
AcDbVertex
100
AcDb2dVertex
 10
926.2261474743997
 20
378.2738082794598
 30
0.0
 70
     8
  0
VERTEX
  5
3573
330
26B3
100
AcDbEntity
  8
DIM
100
AcDbVertex
100
AcDb2dVertex
 10
926.1465390524779
 20
378.1552272368684
 30
0.0
 70
     8
  0
VERTEX
  5
3574
330
26B3
100
AcDbEntity
  8
DIM
100
AcDbVertex
100
AcDb2dVertex
 10
926.0529907386684
 20
378.0458238644275
 30
0.0
 70
     8
  0
VERTEX
  5
3575
330
26B3
100
AcDbEntity
  8
DIM
100
AcDbVertex
100
AcDb2dVertex
 10
925.9428626113541
 20
377.9266199050239
 30
0.0
 70
     8
  0
VERTEX
  5
3576
330
26B3
100
AcDbEntity
  8
DIM
100
AcDbVertex
100
AcDb2dVertex
 10
925.8135147489181
 20
377.7786371015447
 30
0.0
 70
     8
  0
VERTEX
  5
3577
330
26B3
100
AcDbEntity
  8
DIM
100
AcDbVertex
100
AcDb2dVertex
 10
925.6623072297434
 20
377.5828971968765
 30
0.0
 70
     8
  0
VERTEX
  5
3578
330
26B3
100
AcDbEntity
  8
DIM
100
AcDbVertex
100
AcDb2dVertex
 10
925.4866001322131
 20
377.3204219339066
 30
0.0
 70
     8
  0
VERTEX
  5
3579
330
26B3
100
AcDbEntity
  8
DIM
100
AcDbVertex
100
AcDb2dVertex
 10
925.2849925648975
 20
376.979086995772
 30
0.0
 70
     8
  0
VERTEX
  5
357A
330
26B3
100
AcDbEntity
  8
DIM
100
AcDbVertex
100
AcDb2dVertex
 10
925.0610397571177
 20
376.5741838266118
 30
0.0
 70
     8
  0
VERTEX
  5
357B
330
26B3
100
AcDbEntity
  8
DIM
100
AcDbVertex
100
AcDb2dVertex
 10
924.8195359683812
 20
376.1278578108155
 30
0.0
 70
     8
  0
VERTEX
  5
357C
330
26B3
100
AcDbEntity
  8
DIM
100
AcDbVertex
100
AcDb2dVertex
 10
924.5652754581964
 20
375.6622543327726
 30
0.0
 70
     8
  0
VERTEX
  5
357D
330
26B3
100
AcDbEntity
  8
DIM
100
AcDbVertex
100
AcDb2dVertex
 10
924.303052486071
 20
375.1995187768725
 30
0.0
 70
     8
  0
VERTEX
  5
357E
330
26B3
100
AcDbEntity
  8
DIM
100
AcDbVertex
100
AcDb2dVertex
 10
924.0376613115135
 20
374.7617965275048
 30
0.0
 70
     8
  0
VERTEX
  5
357F
330
26B3
100
AcDbEntity
  8
DIM
100
AcDbVertex
100
AcDb2dVertex
 10
923.7738961940316
 20
374.3712329690588
 30
0.0
 70
     8
  0
VERTEX
  5
3580
330
26B3
100
AcDbEntity
  8
DIM
100
AcDbVertex
100
AcDb2dVertex
 10
923.5165513931336
 20
374.049973485924
 30
0.0
 70
     8
  0
VERTEX
  5
3581
330
26B3
100
AcDbEntity
  8
DIM
100
AcDbVertex
100
AcDb2dVertex
 10
923.2707219625853
 20
373.8160610989986
 30
0.0
 70
     8
  0
VERTEX
  5
3582
330
26B3
100
AcDbEntity
  8
DIM
100
AcDbVertex
100
AcDb2dVertex
 10
923.042706133183
 20
373.671129375215
 30
0.0
 70
     8
  0
VERTEX
  5
3583
330
26B3
100
AcDbEntity
  8
DIM
100
AcDbVertex
100
AcDb2dVertex
 10
922.8391029299817
 20
373.612709518014
 30
0.0
 70
     8
  0
VERTEX
  5
3584
330
26B3
100
AcDbEntity
  8
DIM
100
AcDbVertex
100
AcDb2dVertex
 10
922.6665113780354
 20
373.6383327308369
 30
0.0
 70
     8
  0
VERTEX
  5
3585
330
26B3
100
AcDbEntity
  8
DIM
100
AcDbVertex
100
AcDb2dVertex
 10
922.5315305023988
 20
373.7455302171247
 30
0.0
 70
     8
  0
VERTEX
  5
3586
330
26B3
100
AcDbEntity
  8
DIM
100
AcDbVertex
100
AcDb2dVertex
 10
922.4407593281261
 20
373.9318331803183
 30
0.0
 70
     8
  0
VERTEX
  5
3587
330
26B3
100
AcDbEntity
  8
DIM
100
AcDbVertex
100
AcDb2dVertex
 10
922.4007968802718
 20
374.194772823859
 30
0.0
 70
     8
  0
VERTEX
  5
3588
330
26B3
100
AcDbEntity
  8
DIM
100
AcDbVertex
100
AcDb2dVertex
 10
922.4182421838902
 20
374.5318803511875
 30
0.0
 70
     8
  0
VERTEX
  5
3589
330
26B3
100
AcDbEntity
  8
DIM
100
AcDbVertex
100
AcDb2dVertex
 10
922.4962592467523
 20
374.9379914731144
 30
0.0
 70
     8
  0
VERTEX
  5
358A
330
26B3
100
AcDbEntity
  8
DIM
100
AcDbVertex
100
AcDb2dVertex
 10
922.6242720074949
 20
375.3971599299273
 30
0.0
 70
     8
  0
VERTEX
  5
358B
330
26B3
100
AcDbEntity
  8
DIM
100
AcDbVertex
100
AcDb2dVertex
 10
922.7882693874716
 20
375.8907439692833
 30
0.0
 70
     8
  0
VERTEX
  5
358C
330
26B3
100
AcDbEntity
  8
DIM
100
AcDbVertex
100
AcDb2dVertex
 10
922.9742403080351
 20
376.4001018388394
 30
0.0
 70
     8
  0
VERTEX
  5
358D
330
26B3
100
AcDbEntity
  8
DIM
100
AcDbVertex
100
AcDb2dVertex
 10
923.1681736905391
 20
376.9065917862526
 30
0.0
 70
     8
  0
VERTEX
  5
358E
330
26B3
100
AcDbEntity
  8
DIM
100
AcDbVertex
100
AcDb2dVertex
 10
923.3560584563367
 20
377.3915720591801
 30
0.0
 70
     8
  0
VERTEX
  5
358F
330
26B3
100
AcDbEntity
  8
DIM
100
AcDbVertex
100
AcDb2dVertex
 10
923.5238835267812
 20
377.8364009052788
 30
0.0
 70
     8
  0
VERTEX
  5
26B5
330
26B3
100
AcDbEntity
  8
DIM
100
AcDbVertex
100
AcDb2dVertex
 10
924.170510918122
 20
379.0484091750289
 30
0.0
 70
    16
  0
VERTEX
  5
26B6
330
26B3
100
AcDbEntity
  8
DIM
100
AcDbVertex
100
AcDb2dVertex
 10
923.5282800326023
 20
379.3738926457072
 30
0.0
 70
    16
  0
VERTEX
  5
26B7
330
26B3
100
AcDbEntity
  8
DIM
100
AcDbVertex
100
AcDb2dVertex
 10
926.6752617726025
 20
381.814929812326
 30
0.0
 70
    16
  0
VERTEX
  5
26B8
330
26B3
100
AcDbEntity
  8
DIM
100
AcDbVertex
100
AcDb2dVertex
 10
926.418319017441
 20
377.9092170276553
 30
0.0
 70
    16
  0
VERTEX
  5
26B9
330
26B3
100
AcDbEntity
  8
DIM
100
AcDbVertex
100
AcDb2dVertex
 10
925.776088131921
 20
378.2347004983336
 30
0.0
 70
    16
  0
VERTEX
  5
26BA
330
26B3
100
AcDbEntity
  8
DIM
100
AcDbVertex
100
AcDb2dVertex
 10
923.3969292481535
 20
373.0745125824498
 30
0.0
 70
    16
  0
SEQEND
  5
26BB
330
26B3
100
AcDbEntity
  8
DIM
  0
DIMENSION
  5
26CC
330
2
100
AcDbEntity
  8
AM_5
100
AcDbDimension
  2
*D11
 10
1051.363567520608
 20
347.9740627464432
 30
0.0
 11
1048.363567520608
 21
357.4740627464434
 31
0.0
 70
    32
  3
AM_ISO
100
AcDbAlignedDimension
 13
1038.363567520608
 23
366.9740627464432
 33
0.0
 14
1038.363567520608
 24
347.9740627464432
 34
0.0
 50
90.00000000000003
100
AcDbRotatedDimension
  0
DIMENSION
  5
2704
102
{ACAD_XDICTIONARY
360
2711
102
}
102
{ACAD_REACTORS
330
271B
102
}
330
2
100
AcDbEntity
  8
AM_5
100
AcDbDimension
  2
*D12
 10
1059.363567520608
 20
333.4740627464432
 30
0.0
 11
1056.363567520608
 21
357.4740627464434
 31
0.0
 70
    32
  3
AM_ISO
100
AcDbAlignedDimension
 13
1018.113567520608
 23
381.4740627464432
 33
0.0
 14
1018.113567520608
 24
333.4740627464432
 34
0.0
 50
90.00000000000003
100
AcDbRotatedDimension
  0
DIMENSION
  5
273C
102
{ACAD_XDICTIONARY
360
2749
102
}
102
{ACAD_REACTORS
330
2753
102
}
330
2
100
AcDbEntity
  8
AM_5
100
AcDbDimension
  2
*D13
 10
1013.363567520608
 20
316.4740627464432
 30
0.0
 11
989.3635675206084
 21
319.4740627464432
 31
0.0
 70
    32
  3
AM_ISO
100
AcDbAlignedDimension
 13
965.3635675206086
 23
328.7240627464433
 33
0.0
 14
1013.363567520608
 24
328.7240627464433
 34
0.0
 50
0.0000000000001018
100
AcDbRotatedDimension
  0
DIMENSION
  5
2774
102
{ACAD_XDICTIONARY
360
2781
102
}
102
{ACAD_REACTORS
330
278B
102
}
330
2
100
AcDbEntity
  8
AM_5
100
AcDbDimension
  2
*D14
 10
1018.363567520608
 20
308.4740627464433
 30
0.0
 11
989.3635675206084
 21
311.4835115653409
 31
0.0
 70
    32
  1
{\Famgdt;o}<>
  3
AM_ISO
100
AcDbAlignedDimension
 13
960.3635675206085
 23
330.4740627464433
 33
0.0
 14
1018.363567520608
 24
330.4740627464433
 34
0.0
 50
0.0000000000001018
100
AcDbRotatedDimension
  0
DIMENSION
  5
27AC
102
{ACAD_XDICTIONARY
360
27B9
102
}
102
{ACAD_REACTORS
330
27C3
102
}
330
2
100
AcDbEntity
  8
AM_5
100
AcDbDimension
  2
*D15
 10
1030.363567520608
 20
180.6833029586079
 30
0.0
 11
1027.363252559978
 21
167.6833029586081
 31
0.0
 70
    32
  3
AM_ISO
100
AcDbAlignedDimension
 13
1017.863567520608
 23
154.6833029586079
 33
0.0
 14
1017.863567520608
 24
180.6833029586079
 34
0.0
 50
90.00000000000003
100
AcDbRotatedDimension
  0
DIMENSION
  5
27E4
102
{ACAD_XDICTIONARY
360
27F1
102
}
102
{ACAD_REACTORS
330
27FB
102
}
330
2
100
AcDbEntity
  8
AM_5
100
AcDbDimension
  2
*D16
 10
1038.363567520608
 20
229.6833029586079
 30
0.0
 11
1035.354118701711
 21
192.1833029586081
 31
0.0
 70
    32
  3
AM_ISO
100
AcDbAlignedDimension
 13
1017.863567520608
 23
154.6833029586079
 33
0.0
 14
1013.863567520608
 24
229.6833029586079
 34
0.0
 50
90.00000000000003
100
AcDbRotatedDimension
  0
DIMENSION
  5
281C
102
{ACAD_XDICTIONARY
360
2829
102
}
102
{ACAD_REACTORS
330
2833
102
}
330
2
100
AcDbEntity
  8
AM_5
100
AcDbDimension
  2
*D17
 10
1051.363567520608
 20
260.6833029586079
 30
0.0
 11
1048.363567520608
 21
207.6833029586081
 31
0.0
 70
    32
  3
AM_ISO
100
AcDbAlignedDimension
 13
1017.863567520608
 23
154.6833029586079
 33
0.0
 14
1038.363567520608
 24
260.6833029586079
 34
0.0
 50
90.00000000000003
100
AcDbRotatedDimension
  0
DIMENSION
  5
2854
102
{ACAD_XDICTIONARY
360
2861
102
}
102
{ACAD_REACTORS
330
286B
102
}
330
2
100
AcDbEntity
  8
AM_5
100
AcDbDimension
  2
*D18
 10
1059.363567520608
 20
279.6833029586079
 30
0.0
 11
1056.353803741081
 21
217.1833029586081
 31
0.0
 70
    32
  3
AM_ISO
100
AcDbAlignedDimension
 13
1017.863567520608
 23
154.6833029586079
 33
0.0
 14
1038.363567520608
 24
279.6833029586079
 34
0.0
 50
90.00000000000003
100
AcDbRotatedDimension
  0
DIMENSION
  5
288C
330
2
100
AcDbEntity
  8
AM_5
100
AcDbDimension
  2
*D19
 10
1051.363567520608
 20
260.6833029586079
 30
0.0
 11
1048.363567520608
 21
270.1833029586081
 31
0.0
 70
    32
  3
AM_ISO
100
AcDbAlignedDimension
 13
1038.363567520608
 23
279.6833029586079
 33
0.0
 14
1038.363567520608
 24
260.6833029586079
 34
0.0
 50
90.00000000000003
100
AcDbRotatedDimension
  0
DIMENSION
  5
28C4
330
2
100
AcDbEntity
  8
AM_5
100
AcDbDimension
  2
*D20
 10
1015.863567520608
 20
198.6619275060659
 30
0.0
 11
996.3981176258785
 21
198.6619275060659
 31
0.0
 70
   160
  1
%%c<>
  3
AM_ISO
100
AcDbAlignedDimension
 13
962.8635675206085
 23
204.1833029586079
 33
0.0
 14
1015.863567520608
 24
204.1833029586079
 34
0.0
 50
0.0000000000001132
100
AcDbRotatedDimension
  0
INSERT
  5
29A2
330
2
100
AcDbEntity
  8
AM_5
100
AcDbBlockReference
  2
*S49
 10
0.0
 20
0.0
 30
0.0
  0
TEXT
  5
29A3
330
2
100
AcDbEntity
  8
AM_5
100
AcDbText
 10
1029.840288261103
 20
319.4708075920674
 30
0.0
 40
3.0
  1
4-%%c6.5
  7
CHINA
100
AcDbText
  0
TEXT
  5
29A5
330
2
100
AcDbEntity
  8
AM_5
100
AcDbText
 10
1028.224058634078
 20
241.6340459937297
 30
0.0
 40
3.5
  1
PT 1/8
  7
CHINA
100
AcDbText
  0
LINE
  5
2B96
330
2
100
AcDbEntity
  8
HIDDEN
  6
HIDDEN
100
AcDbLine
 10
1154.112799455737
 20
180.6833029586079
 30
0.0
 11
1154.112799455737
 21
154.6833029586079
 31
0.0
  0
LINE
  5
2B97
330
2
100
AcDbEntity
  8
HIDDEN
  6
HIDDEN
100
AcDbLine
 10
1160.612799455737
 20
180.6833029586079
 30
0.0
 11
1160.612799455737
 21
154.6833029586079
 31
0.0
  0
LINE
  5
2B98
330
2
100
AcDbEntity
  8
CENTER
100
AcDbLine
 10
1157.362799455737
 20
152.7463205465083
 30
0.0
 11
1157.362799455737
 21
183.1021672794215
 31
0.0
  0
LINE
  5
2B99
330
2
100
AcDbEntity
  8
CENTER
100
AcDbLine
 10
1109.362799455737
 20
152.7463205465083
 30
0.0
 11
1109.362799455737
 21
183.1021672794215
 31
0.0
  0
LINE
  5
2B9A
330
2
100
AcDbEntity
  8
HIDDEN
  6
HIDDEN
100
AcDbLine
 10
1106.112799455737
 20
180.6833029586079
 30
0.0
 11
1106.112799455737
 21
154.6833029586079
 31
0.0
  0
LINE
  5
2B9B
330
2
100
AcDbEntity
  8
HIDDEN
  6
HIDDEN
100
AcDbLine
 10
1112.612799455737
 20
180.6833029586079
 30
0.0
 11
1112.612799455737
 21
154.6833029586079
 31
0.0
  0
LINE
  5
2C75
330
2
100
AcDbEntity
  8
CENTER
100
AcDbLine
 10
935.0595819038309
 20
357.4740627464432
 30
0.0
 11
1041.449646273852
 21
357.4740627464432
 31
0.0
  0
LINE
  5
2C76
330
2
100
AcDbEntity
  8
0
100
AcDbLine
 10
940.3635675206086
 20
347.9740627464432
 30
0.0
 11
1038.363567520608
 21
347.9740627464432
 31
0.0
  0
LINE
  5
2C77
330
2
100
AcDbEntity
  8
0
100
AcDbLine
 10
940.3635675206086
 20
366.9740627464432
 30
0.0
 11
1038.363567520608
 21
366.9740627464432
 31
0.0
  0
LINE
  5
2C79
330
2
100
AcDbEntity
  8
0
100
AcDbLine
 10
939.3635675206084
 20
348.9740627464432
 30
0.0
 11
939.3635675206084
 21
365.9740627464433
 31
0.0
  0
LINE
  5
2C7A
330
2
100
AcDbEntity
  8
0
100
AcDbLine
 10
940.3635675206086
 20
347.9740627464432
 30
0.0
 11
939.3635675206084
 21
348.9740627464432
 31
0.0
  0
LINE
  5
2C7B
330
2
100
AcDbEntity
  8
0
100
AcDbLine
 10
939.3635675206084
 20
365.9740627464433
 30
0.0
 11
940.3635675206086
 21
366.9740627464432
 31
0.0
  0
LINE
  5
2C7C
330
2
100
AcDbEntity
  8
0
100
AcDbLine
 10
978.8635675206085
 20
361.9740627464433
 30
0.0
 11
999.8635675206084
 21
361.9740627464433
 31
0.0
  0
LINE
  5
2C7D
330
2
100
AcDbEntity
  8
0
100
AcDbLine
 10
978.8635675206085
 20
352.9740627464432
 30
0.0
 11
999.8635675206084
 21
352.9740627464432
 31
0.0
  0
ARC
  5
2C7E
330
2
100
AcDbEntity
  8
0
100
AcDbCircle
 10
989.3635675206084
 20
357.4740627464432
 30
0.0
 40
8.0
100
AcDbArc
 50
325.7711336721882
 51
34.22886632781179
  0
ARC
  5
2C7F
330
2
100
AcDbEntity
  8
0
100
AcDbCircle
 10
989.3635675206084
 20
357.4740627464432
 30
0.0
 40
8.0
100
AcDbArc
 50
145.7711336721882
 51
214.2288663278117
  0
ARC
  5
2C80
330
2
100
AcDbEntity
  8
0
100
AcDbCircle
 10
978.8635675206085
 20
357.4740627464432
 30
0.0
 40
4.5
100
AcDbArc
 50
90.0
 51
270.0
  0
LINE
  5
2C81
330
2
100
AcDbEntity
  8
0
100
AcDbLine
 10
1039.363567520608
 20
348.9740627464432
 30
0.0
 11
1039.363567520608
 21
365.9740627464433
 31
0.0
  0
ARC
  5
2C82
330
2
100
AcDbEntity
  8
0
100
AcDbCircle
 10
999.8635675206084
 20
357.4740627464432
 30
0.0
 40
4.5
100
AcDbArc
 50
270.0
 51
90.0
  0
LINE
  5
2C83
330
2
100
AcDbEntity
  8
0
100
AcDbLine
 10
1039.363567520608
 20
348.9740627464432
 30
0.0
 11
1038.363567520608
 21
347.9740627464432
 31
0.0
  0
LINE
  5
2C84
330
2
100
AcDbEntity
  8
0
100
AcDbLine
 10
1038.363567520608
 20
366.9740627464432
 30
0.0
 11
1039.363567520608
 21
365.9740627464433
 31
0.0
  0
POLYLINE
  5
2C85
330
2
100
AcDbEntity
  8
0
100
AcDb2dPolyline
 66
     1
 10
0.0
 20
0.0
 30
0.0
  0
VERTEX
  5
2C86
330
2C85
100
AcDbEntity
  8
0
100
AcDbVertex
100
AcDb2dVertex
 10
960.3635675206085
 20
366.9740627464432
 30
0.0
  0
VERTEX
  5
2C87
330
2C85
100
AcDbEntity
  8
0
100
AcDbVertex
100
AcDb2dVertex
 10
960.3635675206085
 20
384.4740627464432
 30
0.0
  0
VERTEX
  5
2C88
330
2C85
100
AcDbEntity
  8
0
100
AcDbVertex
100
AcDb2dVertex
 10
962.3635675206084
 20
386.4740627464432
 30
0.0
  0
VERTEX
  5
2C89
330
2C85
100
AcDbEntity
  8
0
100
AcDbVertex
100
AcDb2dVertex
 10
1016.363567520608
 20
386.4740627464432
 30
0.0
  0
VERTEX
  5
2C8A
330
2C85
100
AcDbEntity
  8
0
100
AcDbVertex
100
AcDb2dVertex
 10
1018.363567520608
 20
384.4740627464432
 30
0.0
  0
VERTEX
  5
2C8B
330
2C85
100
AcDbEntity
  8
0
100
AcDbVertex
100
AcDb2dVertex
 10
1018.363567520608
 20
366.9740627464432
 30
0.0
  0
SEQEND
  5
2C8C
330
2C85
100
AcDbEntity
  8
0
  0
POLYLINE
  5
2C8D
102
{ACAD_REACTORS
330
278B
102
}
330
2
100
AcDbEntity
  8
0
100
AcDb2dPolyline
 66
     1
 10
0.0
 20
0.0
 30
0.0
  0
VERTEX
  5
2C8E
102
{ACAD_REACTORS
330
278B
102
}
330
2C8D
100
AcDbEntity
  8
0
100
AcDbVertex
100
AcDb2dVertex
 10
1018.363567520608
 20
347.9740627464432
 30
0.0
  0
VERTEX
  5
2C8F
330
2C8D
100
AcDbEntity
  8
0
100
AcDbVertex
100
AcDb2dVertex
 10
1018.363567520608
 20
330.4740627464433
 30
0.0
  0
VERTEX
  5
2C90
330
2C8D
100
AcDbEntity
  8
0
100
AcDbVertex
100
AcDb2dVertex
 10
1016.363567520608
 20
328.4740627464433
 30
0.0
  0
VERTEX
  5
2C91
102
{ACAD_REACTORS
330
278B
102
}
330
2C8D
100
AcDbEntity
  8
0
100
AcDbVertex
100
AcDb2dVertex
 10
962.3635675206084
 20
328.4740627464433
 30
0.0
  0
VERTEX
  5
2C92
330
2C8D
100
AcDbEntity
  8
0
100
AcDbVertex
100
AcDb2dVertex
 10
960.3635675206085
 20
330.4740627464433
 30
0.0
  0
SEQEND
  5
2C93
330
2C8D
100
AcDbEntity
  8
0
  0
ARC
  5
2C94
330
2
100
AcDbEntity
  8
0
100
AcDbCircle
 10
989.3635675206084
 20
357.4740627464432
 30
0.0
 40
27.5
100
AcDbArc
 50
20.20954537375268
 51
158.9924745801805
  0
LINE
  5
2CB0
102
{ACAD_REACTORS
330
2D9C
102
}
330
2
100
AcDbEntity
  8
0
100
AcDbLine
 10
1039.363567520608
 20
278.6833029586079
 30
0.0
 11
1039.363567520608
 21
261.6833029586079
 31
0.0
  0
LINE
  5
2CB1
102
{ACAD_REACTORS
330
2D9C
102
}
330
2
100
AcDbEntity
  8
0
100
AcDbLine
 10
939.3635675206084
 20
278.6833029586079
 30
0.0
 11
939.3635675206084
 21
261.6833029586079
 31
0.0
  0
LINE
  5
2CB2
330
2
100
AcDbEntity
  8
0
100
AcDbLine
 10
940.3635675206086
 20
260.6833029586079
 30
0.0
 11
1038.363567520608
 21
260.6833029586079
 31
0.0
  0
LINE
  5
2CB3
330
2
100
AcDbEntity
  8
0
100
AcDbLine
 10
940.3635675206086
 20
260.6833029586079
 30
0.0
 11
939.3635675206084
 21
261.6833029586079
 31
0.0
  0
CIRCLE
  5
2CB4
330
2
100
AcDbEntity
  8
0
100
AcDbCircle
 10
989.3635675206084
 20
270.1833029586079
 30
0.0
 40
4.0
  0
LINE
  5
2CB5
330
2
100
AcDbEntity
  8
0
100
AcDbLine
 10
1039.363567520608
 20
261.6833029586079
 30
0.0
 11
1038.363567520608
 21
260.6833029586079
 31
0.0
  0
LINE
  5
2CB6
330
2
100
AcDbEntity
  8
0
100
AcDbLine
 10
940.3635675206086
 20
279.6833029586079
 30
0.0
 11
1038.363567520608
 21
279.6833029586079
 31
0.0
  0
LINE
  5
2CB7
330
2
100
AcDbEntity
  8
0
100
AcDbLine
 10
939.3635675206084
 20
278.6833029586079
 30
0.0
 11
940.3635675206086
 21
279.6833029586079
 31
0.0
  0
LINE
  5
2CB8
330
2
100
AcDbEntity
  8
0
100
AcDbLine
 10
1038.363567520608
 20
279.6833029586079
 30
0.0
 11
1039.363567520608
 21
278.6833029586079
 31
0.0
  0
LINE
  5
2D49
330
2
100
AcDbEntity
  8
HIDDEN
  6
HIDDEN
100
AcDbLine
 10
1006.863567520608
 20
214.1282509533578
 30
0.0
 11
1015.863567520608
 21
213.6565809398105
 31
0.0
  0
LINE
  5
2D4A
330
2
100
AcDbEntity
  8
HIDDEN
  6
HIDDEN
100
AcDbLine
 10
1006.863567520608
 20
214.8782509533578
 30
0.0
 11
1015.863567520608
 21
214.4065809398105
 31
0.0
  0
LINE
  5
2D4B
330
2
100
AcDbEntity
  8
HIDDEN
  6
HIDDEN
100
AcDbLine
 10
1006.863567520608
 20
223.1849109262631
 30
0.0
 11
1015.863567520608
 21
223.6565809398104
 31
0.0
  0
LINE
  5
2D4C
330
2
100
AcDbEntity
  8
HIDDEN
  6
HIDDEN
100
AcDbLine
 10
1006.863567520608
 20
222.4349109262631
 30
0.0
 11
1015.863567520608
 21
222.9065809398104
 31
0.0
  0
LINE
  5
2D4D
330
2
100
AcDbEntity
  8
HIDDEN
  6
HIDDEN
100
AcDbLine
 10
1009.363567520608
 20
168.1513810608578
 30
0.0
 11
1018.363567520608
 21
167.6797110473105
 31
0.0
  0
LINE
  5
2D4E
330
2
100
AcDbEntity
  8
HIDDEN
  6
HIDDEN
100
AcDbLine
 10
1009.363567520608
 20
168.9013810608578
 30
0.0
 11
1018.363567520608
 21
168.4297110473105
 31
0.0
  0
LINE
  5
2D4F
330
2
100
AcDbEntity
  8
HIDDEN
  6
HIDDEN
100
AcDbLine
 10
1009.363567520608
 20
177.2080410337631
 30
0.0
 11
1018.363567520608
 21
177.6797110473104
 31
0.0
  0
LINE
  5
2D50
330
2
100
AcDbEntity
  8
HIDDEN
  6
HIDDEN
100
AcDbLine
 10
1009.363567520608
 20
176.4580410337631
 30
0.0
 11
1018.363567520608
 21
176.9297110473104
 31
0.0
  0
LINE
  5
2D51
330
2
100
AcDbEntity
  8
CENTER
  6
CENTER
100
AcDbLine
 10
1001.31677578783
 20
218.6565809398105
 30
0.0
 11
1017.31677578783
 21
218.6565809398105
 31
0.0
  0
LINE
  5
2D52
330
2
100
AcDbEntity
  8
CENTER
  6
CENTER
100
AcDbLine
 10
1003.81677578783
 20
172.6797110473104
 30
0.0
 11
1019.81677578783
 21
172.6797110473104
 31
0.0
  0
INSERT
  5
2D74
330
2
100
AcDbEntity
  8
AM_5
100
AcDbBlockReference
  2
*S50
 10
0.0
 20
0.0
 30
0.0
  0
DIMENSION
  5
2D85
102
{ACAD_XDICTIONARY
360
2D92
102
}
102
{ACAD_REACTORS
330
2D9C
102
}
330
2
100
AcDbEntity
  8
AM_5
100
AcDbDimension
  2
*D21
 10
1039.363567520608
 20
290.6833029586079
 30
0.0
 11
989.3635675206084
 21
293.6833029586079
 31
0.0
 70
    32
  3
AM_ISO
100
AcDbAlignedDimension
 13
939.3635675206084
 23
278.6833029586079
 33
0.0
 14
1039.363567520608
 24
278.6833029586079
 34
0.0
100
AcDbRotatedDimension
  0
ENDSEC
  0
SECTION
  2
OBJECTS
  0
DICTIONARY
  5
8
330
0
100
AcDbDictionary
  3
ACAD_GROUP
350
21
  3
ACAD_LAYOUT
350
C
  3
ACAD_MLINESTYLE
350
22
  3
ACAD_PLOTSETTINGS
350
23
  3
ACMDICTIONARY
350
1F4
  3
AMG
350
1DA
  3
AMGSNAPSETTINGS
350
37D
  3
ASE_INDEX_DICTIONARY
350
E58
  3
DWGPROPS
350
350C
1001
ACAD
1000
TREAT_AS_HARD
1070
     0
  0
DICTIONARY
  5
3
330
2
100
AcDbDictionary
  3
ACAD_INDEX
350
34EB
  3
ACAD_LAYOUTSELFREF
350
3621
1001
ACAD
1000
TREAT_AS_HARD
1070
     1
  0
DICTIONARY
  5
3622
330
D
100
AcDbDictionary
  3
ACAD_LAYOUTSELFREF
350
3623
  0
DICTIONARY
  5
2711
330
2704
100
AcDbDictionary
  3
ACAD_DIMASSOC
350
271B
1001
ACAD
1000
TREAT_AS_HARD
1070
     1
  0
DICTIONARY
  5
2749
330
273C
100
AcDbDictionary
  3
ACAD_DIMASSOC
350
2753
1001
ACAD
1000
TREAT_AS_HARD
1070
     1
  0
DICTIONARY
  5
2781
330
2774
100
AcDbDictionary
  3
ACAD_DIMASSOC
350
278B
1001
ACAD
1000
TREAT_AS_HARD
1070
     1
  0
DICTIONARY
  5
27B9
330
27AC
100
AcDbDictionary
  3
ACAD_DIMASSOC
350
27C3
1001
ACAD
1000
TREAT_AS_HARD
1070
     1
  0
DICTIONARY
  5
27F1
330
27E4
100
AcDbDictionary
  3
ACAD_DIMASSOC
350
27FB
1001
ACAD
1000
TREAT_AS_HARD
1070
     1
  0
DICTIONARY
  5
2829
330
281C
100
AcDbDictionary
  3
ACAD_DIMASSOC
350
2833
1001
ACAD
1000
TREAT_AS_HARD
1070
     1
  0
DICTIONARY
  5
2861
330
2854
100
AcDbDictionary
  3
ACAD_DIMASSOC
350
286B
1001
ACAD
1000
TREAT_AS_HARD
1070
     1
  0
DICTIONARY
  5
2D92
330
2D85
100
AcDbDictionary
  3
ACAD_DIMASSOC
350
2D9C
1001
ACAD
1000
TREAT_AS_HARD
1070
     1
  0
DICTIONARY
  5
21
102
{ACAD_REACTORS
330
8
102
}
330
8
100
AcDbDictionary
1001
ACAD
1000
TREAT_AS_HARD
1070
     0
  0
DICTIONARY
  5
C
102
{ACAD_REACTORS
330
8
102
}
330
8
100
AcDbDictionary
1001
ACAD
1000
TREAT_AS_HARD
1070
     0
  0
DICTIONARY
  5
22
102
{ACAD_REACTORS
330
8
102
}
330
8
100
AcDbDictionary
  3
STANDARD
350
24
1001
ACAD
1000
TREAT_AS_HARD
1070
     0
  0
DICTIONARY
  5
23
102
{ACAD_REACTORS
330
8
102
}
330
8
100
AcDbDictionary
1001
ACAD
1000
TREAT_AS_HARD
1070
     0
  0
DICTIONARY
  5
1F4
102
{ACAD_REACTORS
330
8
102
}
330
8
100
AcDbDictionary
  3
ACMSTDDICTIONARY
350
1FA
1001
ACAD
1000
TREAT_AS_HARD
1070
     0
  0
DICTIONARY
  5
1DA
102
{ACAD_REACTORS
330
8
102
}
330
8
100
AcDbDictionary
  3
ACMGSETTINGS
350
1DB
1001
ACAD
1000
TREAT_AS_HARD
1070
     0
  0
DICTIONARY
  5
37D
102
{ACAD_REACTORS
330
8
102
}
330
8
100
AcDbDictionary
1001
ACAD
1000
TREAT_AS_HARD
1070
     0
  0
DICTIONARY
  5
E58
102
{ACAD_REACTORS
330
8
102
}
330
8
100
AcDbDictionary
  3
ASEBLOCKHIERARCHYINDEXRECORD
350
E5A
1001
DCO15
1040
1443953005.444
1001
ACAD
1000
TREAT_AS_HARD
1070
     0
  0
XRECORD
  5
350C
102
{ACAD_REACTORS
330
8
102
}
330
8
100
AcDbXrecord
  1
DWGPROPS COOKIE
  2

  3

  4

  6

  7

  8

  9

300
AmdtFileType=84
301
=
302
=
303
=
304
=
305
=
306
=
307
=
308
=
309
=
 40
0.1073527314814815
 41
2452794.706235081
 42
2452796.622740775
  1

 90
        1
  0
DICTIONARY
  5
34EB
102
{ACAD_REACTORS
330
3
102
}
330
3
100
AcDbDictionary
  3
*A1
350
34EC
1001
ACAD
1000
TREAT_AS_HARD
1070
     0
  0
XRECORD
  5
3621
102
{ACAD_REACTORS
330
3
102
}
330
3
100
AcDbXrecord
340
2
  0
XRECORD
  5
3623
102
{ACAD_REACTORS
330
3622
102
}
330
3622
100
AcDbXrecord
340
D
  0
DIMASSOC
  5
271B
102
{ACAD_REACTORS
330
2711
102
}
330
2711
100
AcDbDimAssoc
330
2704
 90
        3
 70
     0
 71
     0
  1
AcDbOsnapPointRef
 72
     1
331
267E
 73
     0
 91
        0
 40
0.0
 10
1018.113567520608
 20
381.4740627464432
 30
0.0
 75
     0
  1
AcDbOsnapPointRef
 72
     1
331
2690
 73
     0
 91
        0
 40
0.0
 10
1018.113567520608
 20
333.4740627464432
 30
0.0
 75
     0
  0
DIMASSOC
  5
2753
102
{ACAD_REACTORS
330
2749
102
}
330
2749
100
AcDbDimAssoc
330
273C
 90
        3
 70
     0
 71
     0
  1
AcDbOsnapPointRef
 72
     1
331
26A5
 73
     0
 91
        0
 40
0.0
 10
965.3635675206086
 20
328.7240627464433
 30
0.0
 75
     0
  1
AcDbOsnapPointRef
 72
     1
331
2693
 73
     0
 91
        0
 40
0.0
 10
1013.363567520608
 20
328.7240627464433
 30
0.0
 75
     0
  0
DIMASSOC
  5
278B
102
{ACAD_REACTORS
330
2781
102
}
330
2781
100
AcDbDimAssoc
330
2774
 90
        3
 70
     0
 71
     0
  1
AcDbOsnapPointRef
 72
     1
331
2C8D
331
2C91
 73
     0
 91
        0
 40
0.0
 10
960.3635675206085
 20
330.4740627464433
 30
0.0
 75
     0
  1
AcDbOsnapPointRef
 72
     1
331
2C8D
331
2C8E
 73
     0
 91
        0
 40
0.0
 10
1018.363567520608
 20
330.4740627464433
 30
0.0
 75
     0
  0
DIMASSOC
  5
27C3
102
{ACAD_REACTORS
330
27B9
102
}
330
27B9
100
AcDbDimAssoc
330
27AC
 90
        3
 70
     0
 71
     0
  1
AcDbOsnapPointRef
 72
     1
331
2577
 73
     0
 91
        0
 40
0.0
 10
1017.863567520608
 20
154.6833029586079
 30
0.0
 75
     0
  1
AcDbOsnapPointRef
 72
     1
331
2589
 73
     0
 91
        0
 40
0.0
 10
1017.863567520608
 20
180.6833029586079
 30
0.0
 75
     0
  0
DIMASSOC
  5
27FB
102
{ACAD_REACTORS
330
27F1
102
}
330
27F1
100
AcDbDimAssoc
330
27E4
 90
        3
 70
     0
 71
     0
  1
AcDbOsnapPointRef
 72
     1
331
2577
 73
     0
 91
        0
 40
0.0
 10
1017.863567520608
 20
154.6833029586079
 30
0.0
 75
     0
  1
AcDbOsnapPointRef
 72
     1
331
2588
 73
     0
 91
        0
 40
0.0
 10
1013.863567520608
 20
229.6833029586079
 30
0.0
 75
     0
  0
DIMASSOC
  5
2833
102
{ACAD_REACTORS
330
2829
102
}
330
2829
100
AcDbDimAssoc
330
281C
 90
        1
 70
     0
 71
     0
  1
AcDbOsnapPointRef
 72
     1
331
2577
 73
     0
 91
        0
 40
0.0
 10
1017.863567520608
 20
154.6833029586079
 30
0.0
 75
     0
  0
DIMASSOC
  5
286B
102
{ACAD_REACTORS
330
2861
102
}
330
2861
100
AcDbDimAssoc
330
2854
 90
        1
 70
     0
 71
     0
  1
AcDbOsnapPointRef
 72
     1
331
2577
 73
     0
 91
        0
 40
0.0
 10
1017.863567520608
 20
154.6833029586079
 30
0.0
 75
     0
  0
DIMASSOC
  5
2D9C
102
{ACAD_REACTORS
330
2D92
102
}
330
2D92
100
AcDbDimAssoc
330
2D85
 90
        3
 70
     0
 71
     0
  1
AcDbOsnapPointRef
 72
    13
331
2CB1
 73
     0
 91
        0
 40
0.0
 10
939.3635675206084
 20
278.6833029586079
 30
0.0
 75
     0
  1
AcDbOsnapPointRef
 72
    13
331
2CB0
 73
     0
 91
        0
 40
0.0
 10
1039.363567520608
 20
278.6833029586079
 30
0.0
 75
     0
  0
MLINESTYLE
  5
24
102
{ACAD_REACTORS
330
22
102
}
330
22
100
AcDbMlineStyle
  2
STANDARD
 70
     0
  3

 62
   256
 51
90.0
 52
90.0
 71
     2
 49
0.5
 62
   256
  6
BYLAYER
 49
-0.5
 62
   256
  6
BYLAYER
  0
DICTIONARY
  5
1FA
102
{ACAD_REACTORS
330
1F4
102
}
330
1F4
100
AcDbDictionary
1001
ACAD
1000
TREAT_AS_HARD
1070
     0
  0
DICTIONARY
  5
1DB
102
{ACAD_REACTORS
330
1DA
102
}
330
1DA
100
AcDbDictionary
1001
ACAD
1000
TREAT_AS_HARD
1070
     0
  0
XRECORD
  5
E5A
102
{ACAD_REACTORS
330
E58
102
}
330
E58
100
AcDbXrecord
330
0
330
0
  0
LAYER_INDEX
  5
34EC
102
{ACAD_REACTORS
330
34EB
102
}
330
34EB
100
AcDbIndex
 40
2452796.642799826
100
AcDbLayerIndex
  8
0
360
34ED
 90
       93
  8
Defpoints
360
34EE
 90
        0
  8
AM_5
360
34EF
 90
       17
  8
AM_PARDIM
360
34F0
 90
       10
  8
AM_7
360
34F1
 90
       17
  8
HIDDEN
360
34F2
 90
       12
  8
DIM
360
34F3
 90
        4
  8
CENTER
360
34F4
 90
        8
  8
LOGO
360
34F5
 90
      110
  0
IDBUFFER
  5
34ED
330
0
100
AcDbIdBuffer
330
25
330
26
330
27
330
28
330
29
330
2A
330
2B
330
2C
330
2D
330
2E
330
2F
330
30
330
1258
330
1259
330
125A
330
12BA
330
2577
330
2578
330
2588
330
2589
330
2596
330
2597
330
2598
330
2599
330
259A
330
25A4
330
25A8
330
25A9
330
25B0
330
25B1
330
25B4
330
25B5
330
25B6
330
25B7
330
25B8
330
25C2
330
25C3
330
25C4
330
25C6
330
25C7
330
25CB
330
25CC
330
25CD
330
25CF
330
25D0
330
25D1
330
25D2
330
25D3
330
25D4
330
25D5
330
25D6
330
25D7
330
25DA
330
25DB
330
25DC
330
25E0
330
25E1
330
25E5
330
25E6
330
25E7
330
25E8
330
25E9
330
25EA
330
2670
330
2682
330
2694
330
26A6
330
2C76
330
2C77
330
2C79
330
2C7A
330
2C7B
330
2C7C
330
2C7D
330
2C7E
330
2C7F
330
2C80
330
2C81
330
2C82
330
2C83
330
2C84
330
2C85
330
2C8D
330
2C94
330
2CB0
330
2CB1
330
2CB2
330
2CB3
330
2CB4
330
2CB5
330
2CB6
330
2CB7
330
2CB8
  0
IDBUFFER
  5
34EE
330
0
100
AcDbIdBuffer
  0
IDBUFFER
  5
34EF
330
0
100
AcDbIdBuffer
330
151
330
156
330
26CC
330
2704
330
273C
330
2774
330
27AC
330
27E4
330
281C
330
2854
330
288C
330
28C4
330
29A2
330
29A3
330
29A5
330
2D74
330
2D85
  0
IDBUFFER
  5
34F0
330
0
100
AcDbIdBuffer
330
31
330
43
330
52
330
5F
330
6C
330
79
330
86
330
95
330
A3
330
B0
  0
IDBUFFER
  5
34F1
330
0
100
AcDbIdBuffer
330
C8
330
266C
330
266D
330
266E
330
266F
330
267E
330
267F
330
2680
330
2681
330
2690
330
2691
330
2692
330
2693
330
26A2
330
26A3
330
26A4
330
26A5
  0
IDBUFFER
  5
34F2
330
0
100
AcDbIdBuffer
330
2B96
330
2B97
330
2B9A
330
2B9B
330
2D49
330
2D4A
330
2D4B
330
2D4C
330
2D4D
330
2D4E
330
2D4F
330
2D50
  0
IDBUFFER
  5
34F3
330
0
100
AcDbIdBuffer
330
26A8
330
26B1
330
26B2
330
26B3
  0
IDBUFFER
  5
34F4
330
0
100
AcDbIdBuffer
330
25AB
330
25B9
330
25C5
330
2B98
330
2B99
330
2C75
330
2D51
330
2D52
  0
IDBUFFER
  5
34F5
330
0
100
AcDbIdBuffer
330
124B
330
124C
330
124D
330
124E
330
124F
330
1250
330
1251
330
1252
330
1256
330
1257
330
125B
330
125C
330
125D
330
1261
330
1262
330
1263
330
1264
330
1265
330
1266
330
1267
330
1268
330
1269
330
126A
330
126B
330
126F
330
1270
330
1271
330
1272
330
1273
330
1274
330
1275
330
1276
330
127A
330
127B
330
127C
330
127D
330
127E
330
127F
330
1280
330
1281
330
1282
330
1286
330
1287
330
1288
330
1289
330
128A
330
128E
330
128F
330
1290
330
1294
330
1298
330
1299
330
129A
330
12BB
330
12BC
330
12BD
330
12BE
330
12BF
330
12C0
330
12C1
330
12C2
330
12C3
330
12C4
330
12C5
330
12C6
330
12C7
330
12C8
330
12C9
330
12CA
330
12CB
330
12CC
330
12CD
330
12CE
330
12CF
330
12D0
330
12D1
330
12D2
330
12D3
330
12D4
330
12D5
330
12D6
330
12D7
330
12D8
330
12D9
330
12DA
330
12DB
330
12DC
330
12DD
330
12DE
330
12DF
330
12E0
330
12E1
330
12E2
330
12E3
330
12E4
330
12E5
330
12E6
330
12E7
330
12E8
330
12E9
330
12EA
330
12EB
330
12EC
330
12ED
330
12EE
330
12EF
330
12F0
330
1309
330
130A
330
130B
  0
ENDSEC
  0
EOF
