  0
SECTION
  2
HEADER
  9
$ACADVER
  1
AC1012
  9
$DWGCODEPAGE
  3
big5
  9
$INSBASE
 10
0.0
 20
0.0
 30
0.0
  9
$EXTMIN
 10
1874.642275305559
 20
48.38729928938062
 30
-0.0000000000000053
  9
$EXTMAX
 10
2256.298340184015
 20
398.4541363222703
 30
0.0000000000000099
  9
$LIMMIN
 10
0.0
 20
0.0
  9
$LIMMAX
 10
420.0
 20
297.0
  9
$ORTHOMODE
 70
     1
  9
$REGENMODE
 70
     1
  9
$FILLMODE
 70
     1
  9
$QTEXTMODE
 70
     0
  9
$MIRRTEXT
 70
     1
  9
$DRAGMODE
 70
     2
  9
$LTSCALE
 40
0.8
  9
$OSMODE
 70
    55
  9
$ATTMODE
 70
     1
  9
$TEXTSIZE
 40
3.0
  9
$TRACEWID
 40
1.0
  9
$TEXTSTYLE
  7
CHINA
  9
$CLAYER
  8
0
  9
$CELTYPE
  6
BYLAYER
  9
$CECOLOR
 62
   256
  9
$CELTSCALE
 40
1.0
  9
$DELOBJ
 70
     1
  9
$DISPSILH
 70
     0
  9
$DIMSCALE
 40
1.0
  9
$DIMASZ
 40
3.0
  9
$DIMEXO
 40
2.0
  9
$DIMDLI
 40
10.0
  9
$DIMRND
 40
0.0
  9
$DIMDLE
 40
0.0
  9
$DIMEXE
 40
1.5
  9
$DIMTP
 40
0.1
  9
$DIMTM
 40
0.1
  9
$DIMTXT
 40
3.0
  9
$DIMCEN
 40
0.0
  9
$DIMTSZ
 40
0.0
  9
$DIMTOL
 70
     0
  9
$DIMLIM
 70
     0
  9
$DIMTIH
 70
     0
  9
$DIMTOH
 70
     0
  9
$DIMSE1
 70
     0
  9
$DIMSE2
 70
     0
  9
$DIMTAD
 70
     1
  9
$DIMZIN
 70
     8
  9
$DIMBLK
  1

  9
$DIMASO
 70
     1
  9
$DIMSHO
 70
     1
  9
$DIMPOST
  1

  9
$DIMAPOST
  1
"
  9
$DIMALT
 70
     0
  9
$DIMALTD
 70
     2
  9
$DIMALTF
 40
0.0393701
  9
$DIMLFAC
 40
1.0
  9
$DIMTOFL
 70
     1
  9
$DIMTVP
 40
0.0
  9
$DIMTIX
 70
     0
  9
$DIMSOXD
 70
     0
  9
$DIMSAH
 70
     0
  9
$DIMBLK1
  1

  9
$DIMBLK2
  1

  9
$DIMSTYLE
  2
AM_ISO
  9
$DIMCLRD
 70
   256
  9
$DIMCLRE
 70
   256
  9
$DIMCLRT
 70
   256
  9
$DIMTFAC
 40
0.71
  9
$DIMGAP
 40
1.0
  9
$DIMJUST
 70
     0
  9
$DIMSD1
 70
     0
  9
$DIMSD2
 70
     0
  9
$DIMTOLJ
 70
     0
  9
$DIMTZIN
 70
     8
  9
$DIMALTZ
 70
     0
  9
$DIMALTTZ
 70
     0
  9
$DIMFIT
 70
     3
  9
$DIMUPT
 70
     0
  9
$DIMUNIT
 70
     2
  9
$DIMDEC
 70
     2
  9
$DIMTDEC
 70
     2
  9
$DIMALTU
 70
     2
  9
$DIMALTTD
 70
     2
  9
$DIMTXSTY
  7
CHINA
  9
$DIMAUNIT
 70
     0
  9
$LUNITS
 70
     2
  9
$LUPREC
 70
     2
  9
$SKETCHINC
 40
1.0
  9
$FILLETRAD
 40
2.5
  9
$AUNITS
 70
     0
  9
$AUPREC
 70
     0
  9
$MENU
  1
.
  9
$ELEVATION
 40
0.0
  9
$PELEVATION
 40
0.0
  9
$THICKNESS
 40
0.0
  9
$LIMCHECK
 70
     0
  9
$BLIPMODE
 70
     0
  9
$CHAMFERA
 40
1.5
  9
$CHAMFERB
 40
1.5
  9
$CHAMFERC
 40
20.0
  9
$CHAMFERD
 40
0.0
  9
$SKPOLY
 70
     0
  9
$TDCREATE
 40
2452794.706235081
  9
$TDUPDATE
 40
2452796.643678877
  9
$TDINDWG
 40
0.0810679398
  9
$TDUSRTIMER
 40
0.0810677083
  9
$USRTIMER
 70
     1
  9
$ANGBASE
 50
0.0
  9
$ANGDIR
 70
     0
  9
$PDMODE
 70
     0
  9
$PDSIZE
 40
0.0
  9
$PLINEWID
 40
0.0
  9
$COORDS
 70
     0
  9
$SPLFRAME
 70
     0
  9
$SPLINETYPE
 70
     6
  9
$SPLINESEGS
 70
     8
  9
$ATTDIA
 70
     1
  9
$ATTREQ
 70
     1
  9
$HANDLING
 70
 22529
  9
$HANDSEED
  5
3C1B
  9
$SURFTAB1
 70
     6
  9
$SURFTAB2
 70
     6
  9
$SURFTYPE
 70
     6
  9
$SURFU
 70
     6
  9
$SURFV
 70
     6
  9
$UCSNAME
  2

  9
$UCSORG
 10
0.0
 20
0.0
 30
0.0
  9
$UCSXDIR
 10
1.0
 20
0.0
 30
0.0
  9
$UCSYDIR
 10
0.0
 20
1.0
 30
0.0
  9
$PUCSNAME
  2

  9
$PUCSORG
 10
0.0
 20
0.0
 30
0.0
  9
$PUCSXDIR
 10
1.0
 20
0.0
 30
0.0
  9
$PUCSYDIR
 10
0.0
 20
1.0
 30
0.0
  9
$USERI1
 70
     0
  9
$USERI2
 70
     0
  9
$USERI3
 70
     0
  9
$USERI4
 70
     0
  9
$USERI5
 70
     0
  9
$USERR1
 40
0.0
  9
$USERR2
 40
0.0
  9
$USERR3
 40
0.0
  9
$USERR4
 40
0.0
  9
$USERR5
 40
0.0
  9
$WORLDVIEW
 70
     1
  9
$SHADEDGE
 70
     3
  9
$SHADEDIF
 70
    70
  9
$TILEMODE
 70
     1
  9
$MAXACTVP
 70
    64
  9
$PINSBASE
 10
0.0
 20
0.0
 30
0.0
  9
$PLIMCHECK
 70
     0
  9
$PEXTMIN
 10
26.80208481208632
 20
60.62932117531272
 30
-0.0000000000000153
  9
$PEXTMAX
 10
155.7606180029583
 20
204.4099130529699
 30
0.0
  9
$PLIMMIN
 10
-3.757083177566528
 20
-14.7637300491333
  9
$PLIMMAX
 10
206.2162444591522
 20
282.2045927047729
  9
$UNITMODE
 70
     0
  9
$VISRETAIN
 70
     1
  9
$PLINEGEN
 70
     0
  9
$PSLTSCALE
 70
     1
  9
$TREEDEPTH
 70
  3020
  9
$PICKSTYLE
 70
     0
  9
$CMLSTYLE
  2
STANDARD
  9
$CMLJUST
 70
     0
  9
$CMLSCALE
 40
20.0
  9
$SAVEIMAGES
 70
     1
  0
ENDSEC
  0
SECTION
  2
CLASSES
  0
CLASS
  1
ACDBDICTIONARYWDFLT
  2
AcDbDictionaryWithDefault
  3
AutoCAD 2000
 90
    32768
280
     0
281
     0
  0
CLASS
  1
ACDBPLACEHOLDER
  2
AcDbPlaceHolder
  3
AutoCAD 2000
 90
    32768
280
     0
281
     0
  0
CLASS
  1
LAYOUT
  2
AcDbLayout
  3
AutoCAD 2000
 90
    32768
280
     0
281
     0
  0
CLASS
  1
AMGSETTINGSOBJ
  2
AmgSettingsObj
  3
"AcadM|Product Description: AutoCAD Mechanical 2000|Company: Autodesk"
 90
    32768
280
     0
281
     0
  0
CLASS
  1
ACME_DOCUMENT
  2
AcMeDbDoc
  3
AcMeServices
 90
    32768
280
     0
281
     0
  0
CLASS
  1
ACMESCOPE
  2
AcMeScope
  3
AcMeServices
 90
    32768
280
     0
281
     0
  0
CLASS
  1
ACMECOMMANDHISTORY
  2
AcMeCommandHistory
  3
AcMeServices
 90
    32768
280
     0
281
     0
  0
CLASS
  1
ACIMSYSVARMAN
  2
AcImSysVarManager
  3
AcMeServices
 90
    32768
280
     0
281
     0
  0
CLASS
  1
ACIMREALSYSVAR
  2
AcImRealSysVar
  3
AcMeServices
 90
    32768
280
     0
281
     0
  0
CLASS
  1
ACIMINTSYSVAR
  2
AcImIntSysVar
  3
AcMeServices
 90
    32768
280
     0
281
     0
  0
CLASS
  1
ACMEDRAWINGMAN
  2
AcMeDrawingMan
  3
AcMeServices
 90
    32768
280
     0
281
     0
  0
CLASS
  1
ACMEVIEW
  2
AcMeView
  3
AcMeServices
 90
    32768
280
     0
281
     0
  0
CLASS
  1
ACDBENTITYCACHE
  2
AcMeEntityCache
  3
AcMeServices
 90
    32768
280
     0
281
     0
  0
CLASS
  1
GSMANAGER
  2
AcMeGSManager
  3
AcMeServices
 90
    32768
280
     0
281
     0
  0
CLASS
  1
AMDTINTERNALREACTOR
  2
AmdtInternalReactor
  3
AcMeServices
 90
    32768
280
     0
281
     0
  0
CLASS
  1
ACMESTATEMGR
  2
AcMeStateMgr
  3
AcMeServices
 90
    32768
280
     0
281
     0
  0
CLASS
  1
ACGREFMASTER
  2
AcGrefMaster
  3
AcAttribServices
 90
    32768
280
     0
281
     0
  0
CLASS
  1
AM_DRAWING_MGR
  2
AcDmDwgMgr
  3
AcMechDwgViewMgmt
 90
    32768
280
     0
281
     0
  0
CLASS
  1
AM_DWG_DOCUMENT
  2
AcDmDwgDocument
  3
AcMechDwgViewMgmt
 90
    32768
280
     0
281
     0
  0
CLASS
  1
AM_DWG_SHEET
  2
AcDmSheet
  3
AcMechDwgViewMgmt
 90
    32768
280
     0
281
     0
  0
CLASS
  1
AM_VIEWDIMPARMAP
  2
AcDmViewDimParMap
  3
AcMechDwgViewMgmt
 90
    32768
280
     0
281
     0
  0
CLASS
  1
AM_DWGMGR_NAME
  2
AcDmDwgMgrName
  3
AcMechDwgViewMgmt
 90
    32768
280
     0
281
     0
  0
CLASS
  1
ACME_DATABASE
  2
AcMeDbDatabase
  3
AcMeServices
 90
    32768
280
     0
281
     0
  0
CLASS
  1
ACRFINSADJUSTERMGR
  2
AcRfInsAdjusterMgr
  3
AcMeServices
 90
    32768
280
     0
281
     0
  0
CLASS
  1
ACGREFACADMASTER
  2
AcGrefacadMaster
  3
AcGrefServices
 90
    32768
280
     0
281
     0
  0
CLASS
  1
AMDTMENUSTATEMGR
  2
AmdtMenuStateMgr
  3
McadcomServices
 90
    32768
280
     0
281
     0
  0
CLASS
  1
AMDTMCOMMENUSTATE
  2
AmdtMcomMenuState
  3
McadcomServices
 90
    32768
280
     0
281
     0
  0
CLASS
  1
AMIMASTER
  2
AmiMaster
  3
AmiServices
 90
    32768
280
     0
281
     0
  0
CLASS
  1
ASAPP
  2
AcAsAppObject
  3
AutoSurfServices
 90
    32768
280
     0
281
     0
  0
CLASS
  1
IM_STATIC_MAN
  2
AcImStaticVarManager
  3
AcMeServices
 90
    32768
280
     0
281
     0
  0
CLASS
  1
ACIMSTRSYSVAR
  2
AcImStrSysVar
  3
AcMeServices
 90
    32768
280
     0
281
     0
  0
CLASS
  1
ACIMDBLSTATICVAR
  2
AcImDblStaticVar
  3
AcMeServices
 90
    32768
280
     0
281
     0
  0
CLASS
  1
ACIMSTRSTATICVAR
  2
AcImStrStaticVar
  3
AcMeServices
 90
    32768
280
     0
281
     0
  0
CLASS
  1
ACIMINTSTATICVAR
  2
AcImIntStaticVar
  3
AcMeServices
 90
    32768
280
     0
281
     0
  0
CLASS
  1
ACASGREFMASTER
  2
AcAsGrefMaster
  3
AutoSurfResolverServices
 90
    32768
280
     0
281
     0
  0
CLASS
  1
ACADGREFMODULE
  2
AcAdGrefModule
  3
AdGrefServices
 90
    32768
280
     0
281
     0
  0
CLASS
  1
AMDTMAPISURFMOUDULE
  2
AmdtMApiSurfModule
  3
MApiSurfServices
 90
    32768
280
     0
281
     0
  0
CLASS
  1
MAPIAMMOUDLE
  2
MApiAmModule
  3
MApiAmServices
 90
    32768
280
     0
281
     0
  0
CLASS
  1
AMDTADMENUSTATE
  2
AmdtAdMenuState
  3
DesignerServices
 90
    32768
280
     0
281
     0
  0
CLASS
  1
ADAPPL
  2
AcAdAppl
  3
DesignerServices
 90
    32768
280
     0
281
     0
  0
CLASS
  1
DEPMGR
  2
AcAdDepMgr
  3
DesignerServices
 90
    32768
280
     0
281
     0
  0
CLASS
  1
PARAMMGR
  2
AcAdParamMgr
  3
DesignerServices
 90
    32768
280
     0
281
     0
  0
CLASS
  1
PARAMSCOPE
  2
AcAdParamScope
  3
DesignerServices
 90
    32768
280
     0
281
     0
  0
CLASS
  1
NAMEDAPPL
  2
AcAdNamedAppl
  3
DesignerServices
 90
    32768
280
     0
281
     0
  0
CLASS
  1
AMDTDMMENUSTATE
  2
AmdtDmMenuState
  3
AcMechDwgViewMgmt
 90
    32768
280
     0
281
     0
  0
CLASS
  1
MAPIADMODULE
  2
MApiAdModule
  3
MApiAdServices
 90
    32768
280
     0
281
     0
  0
CLASS
  1
AMDTAMMENUSTATE
  2
AmdtAmMenuState
  3
DesignerAssemblies
 90
    32768
280
     0
281
     0
  0
CLASS
  1
ACAMPROJECT
  2
AcAmProject
  3
DesignerAssemblies
 90
    32768
280
     0
281
     0
  0
CLASS
  1
ACAMCOMPDEFMGR
  2
AcAmCompDefMgr
  3
DesignerAssemblies
 90
    32768
280
     0
281
     0
  0
CLASS
  1
AMCONTEXTMGR
  2
AcAmContextMgr
  3
DesignerAssemblies
 90
    32768
280
     0
281
     0
  0
CLASS
  1
ACAMCONTEXTPARTMODELER
  2
AcAmContextPartModeler
  3
DesignerAssemblies
 90
    32768
280
     0
281
     0
  0
CLASS
  1
ACMDATADICTIONARY
  2
AcmDataDictionary
  3
"AcmSymBB|Product Description: AutoCAD Mechanical 2000|Company: Autodesk"
 90
    32768
280
     0
281
     0
  0
CLASS
  1
ACMDATAENTRYBLOCK
  2
AcmDataEntryBlock
  3
"AcmSymBB|Product Description: AutoCAD Mechanical 2000|Company: Autodesk"
 90
    32768
280
     0
281
     0
  0
CLASS
  1
ACMSTANDARDISO
  2
AcmStandardISO
  3
"Amdt_StdImp|Product Description: AutoCAD Mechanical 2000|Company: Autodesk"
 90
    32768
280
     0
281
     0
  0
CLASS
  1
AMGOBJPROPCFG
  2
AmgObjPropCfg
  3
"AmgLay|Product Description: AutoCAD Mechanical 2000|Company: Autodesk"
 90
    32769
280
     0
281
     0
  0
CLASS
  1
AMDTEDGESTANDARDISO
  2
AmdtEdgeStdISO
  3
"Amdt_StdImp|Product Description: AutoCAD Mechanical 2000|Company: Autodesk"
 90
    32768
280
     0
281
     0
  0
CLASS
  1
ACMSURFSTANDARDISO
  2
AcmSurfTextStdISO
  3
"Amdt_StdImp|Product Description: AutoCAD Mechanical 2000|Company: Autodesk"
 90
    32768
280
     0
281
     0
  0
CLASS
  1
ACMFCFSTANDARDISO
  2
AcmFCFStdISO
  3
"Amdt_StdImp|Product Description: AutoCAD Mechanical 2000|Company: Autodesk"
 90
    32768
280
     0
281
     0
  0
CLASS
  1
ACMWELDSTANDARDISO
  2
AcmWeldingStdISO
  3
"Amdt_StdImp|Product Description: AutoCAD Mechanical 2000|Company: Autodesk"
 90
    32768
280
     0
281
     0
  0
CLASS
  1
ACMIDSTANDARDISO
  2
AcmIdStdISO
  3
"Amdt_StdImp|Product Description: AutoCAD Mechanical 2000|Company: Autodesk"
 90
    32768
280
     0
281
     0
  0
CLASS
  1
ACMDATUMSTANDARDISO
  2
AcmDatumStdISO
  3
"Amdt_StdImp|Product Description: AutoCAD Mechanical 2000|Company: Autodesk"
 90
    32768
280
     0
281
     0
  0
CLASS
  1
ACMBOMSTANDARDISO
  2
AcmBOMStdISO
  3
"Amdt_StdImp|Product Description: AutoCAD Mechanical 2000|Company: Autodesk"
 90
    32768
280
     0
281
     0
  0
CLASS
  1
ACMDETAILSTANDARDISO
  2
AmdtDetailSymStdISO
  3
"Amdt_StdImp|Product Description: AutoCAD Mechanical 2000|Company: Autodesk"
 90
    32768
280
     0
281
     0
  0
CLASS
  1
ACMSECTIONSTANDARDISO
  2
AmdtSectionSymStdISO
  3
"Amdt_StdImp|Product Description: AutoCAD Mechanical 2000|Company: Autodesk"
 90
    32768
280
     0
281
     0
  0
CLASS
  1
ACMCENTERLINESTANDARDISO
  2
AmdtCenterLineStdISO
  3
"Amdt_StdImp|Product Description: AutoCAD Mechanical 2000|Company: Autodesk"
 90
    32768
280
     0
281
     0
  0
CLASS
  1
ACMTHREADLINESTANDARDISO
  2
AmdtThreadLineStdISO
  3
"Amdt_StdImp|Product Description: AutoCAD Mechanical 2000|Company: Autodesk"
 90
    32768
280
     0
281
     0
  0
CLASS
  1
ACMNOTESTANDARDISO
  2
AmdtNoteStdISO
  3
"Amdt_StdImp|Product Description: AutoCAD Mechanical 2000|Company: Autodesk"
 90
    32768
280
     0
281
     0
  0
CLASS
  1
ACAMGLAYSTD
  2
AcAmgLayStd
  3
"AcAmgLayStd|Product Description: AutoCAD Mechanical 2000|Company: Autodesk"
 90
    32768
280
     0
281
     0
  0
CLASS
  1
ACAMGDIMSTD
  2
AcAmgDimStd
  3
"AcAmgDimStd|Product Description: AutoCAD Mechanical 2000|Company: Autodesk"
 90
    32768
280
     0
281
     0
  0
CLASS
  1
ACAMGHOLECHARTSTDISO
  2
AcAmgHoleChartStdISO
  3
ACMSYMBB_MODULE_NAME
 90
    32768
280
     0
281
     0
  0
CLASS
  1
ACAMGTITLESTD
  2
AcAmgTitleStd
  3
"TITLEAPP"
 90
    32768
280
     0
281
     0
  0
CLASS
  1
CATALOGSTATE
  2
AcAmCatalogState
  3
DesignerAssemblies
 90
    32768
280
     0
281
     0
  0
CLASS
  1
ACAMGRCOMPDEFSET
  2
AcAmGrCompDefSet
  3
DesignerAssemblies
 90
    32768
280
     0
281
     0
  0
CLASS
  1
AMDTBROWSERDBTAB
  2
AmdtBrowserDbTab
  3
McadcomServices
 90
    32768
280
     0
281
     0
  0
CLASS
  1
CBROWSERAPPOBJECT
  2
CBrowserAppObject
  3
McadcomServices
 90
    32768
280
     0
281
     0
  0
CLASS
  1
DM_PLACEHOLDER
  2
AcDmSelsetPlaceholder
  3
AcMechDwgViewMgmt
 90
    32768
280
     0
281
     0
  0
CLASS
  1
ACAMGFILTERDAT
  2
AcAmgFilterDat
  3
"AcadM|Product Description: AutoCAD Mechanical 2000|Company: Autodesk"
 90
    32768
280
     0
281
     0
  0
CLASS
  1
LAYER_INDEX
  2
AcDbLayerIndex
  3
AutoCAD 2000
 90
    32768
280
     0
281
     0
  0
CLASS
  1
IDBUFFER
  2
AcDbIdBuffer
  3
AutoCAD 2000
 90
    32768
280
     0
281
     0
  0
CLASS
  1
DICTIONARYVAR
  2
AcDbDictionaryVar
  3
AutoCAD 2000
 90
    32768
280
     0
281
     0
  0
CLASS
  1
ACAMGRCOMPDEF
  2
AcAmGrCompDef
  3
DesignerAssemblies
 90
    32768
280
     0
281
     0
  0
CLASS
  1
ACCMCONTEXT
  2
AcCmContext
  3
DesignerAssemblies
 90
    32768
280
     0
281
     0
  0
CLASS
  1
ACAMCOMPDEF
  2
AcAmCompDef
  3
DesignerAssemblies
 90
    32768
280
     0
281
     0
  0
CLASS
  1
ADPART
  2
AcAdPart
  3
DesignerServices
 90
    32768
280
     0
281
     1
  0
CLASS
  1
ADBASE
  2
AcAdBase
  3
DesignerServices
 90
    32768
280
     0
281
     0
  0
CLASS
  1
BODYID
  2
AcAdBodyId
  3
DesignerServices
 90
    32768
280
     0
281
     0
  0
CLASS
  1
WORKPLANEDISPLAYMGR
  2
AcAdDisplayMgr
  3
DesignerServices
 90
    32768
280
     0
281
     0
  0
CLASS
  1
ACCMBODY
  2
AcCmBody
  3
DesignerAssemblies
 90
    32768
280
     0
281
     0
  0
CLASS
  1
ACAMCOMPENT
  2
AcAmCompEnt
  3
DesignerAssemblies
 90
    32768
280
     0
281
     1
  0
CLASS
  1
ACAMCOMPFEEDBACK
  2
AcAmCompFeedback
  3
DesignerAssemblies
 90
    32768
280
     0
281
     0
  0
CLASS
  1
ACAMGROUNDEDBASECOMP
  2
AcAmGroundedBaseComp
  3
DesignerAssemblies
 90
    32768
280
     0
281
     0
  0
CLASS
  1
ACAMCOMPENTCLONE
  2
AcAmCompEntClone
  3
DesignerAssemblies
 90
    32768
280
     0
281
     1
  0
CLASS
  1
ACAMCLONEREACTOR
  2
AcAmGrCompCloneReactor
  3
DesignerAssemblies
 90
    32768
280
     0
281
     0
  0
CLASS
  1
ADDATUMPLANEABS
  2
AcAdDatumPlaneAbs
  3
DesignerServices
 90
    32768
280
     0
281
     0
  0
CLASS
  1
ADDATUMAXISABS
  2
AcAdDatumAxisAbs
  3
DesignerServices
 90
    32768
280
     0
281
     0
  0
CLASS
  1
ADDATUMORIENTEDPLANE
  2
AcAdDatumOrientedPlane
  3
DesignerServices
 90
    32768
280
     0
281
     0
  0
CLASS
  1
ACAD_LINE
  2
AcAdLine
  3
DesignerServices
 90
    32768
280
     0
281
     1
  0
CLASS
  1
ACADLINEACAD
  2
AcAdVirtualBoundedLineAcad
  3
DesignerServices
 90
    32768
280
     0
281
     0
  0
CLASS
  1
ACADREFLINEACAD
  2
AcAdVirtualReferenceLine
  3
DesignerServices
 90
    32768
280
     0
281
     0
  0
CLASS
  1
ACADCONSLINE
  2
AcAdConstrainedLine
  3
DesignerServices
 90
    32768
280
     0
281
     0
  0
CLASS
  1
ACADCONSGROUP
  2
AcAdConstraintGroup
  3
DesignerServices
 90
    32768
280
     0
281
     0
  0
CLASS
  1
ACADIMPPTACAD
  2
AcAdVirtualImplicitPoint
  3
DesignerServices
 90
    32768
280
     0
281
     0
  0
CLASS
  1
ACADCONSPOINT
  2
AcAdConstrainedPoint
  3
DesignerServices
 90
    32768
280
     0
281
     0
  0
CLASS
  1
ADPCURCNS
  2
AcAdPointCurveConstr
  3
DesignerServices
 90
    32768
280
     0
281
     0
  0
CLASS
  1
ADVERCNS
  2
AcAdVerticalConstr
  3
DesignerServices
 90
    32768
280
     0
281
     0
  0
CLASS
  1
ADHORCNS
  2
AcAdHorizontalConstr
  3
DesignerServices
 90
    32768
280
     0
281
     0
  0
CLASS
  1
ADCLPROF2D
  2
AcAdClosedProfile2d
  3
DesignerServices
 90
    32768
280
     0
281
     0
  0
CLASS
  1
ACAD_FIXCONSTRAINT
  2
AcAdFixedConstraint
  3
DesignerServices
 90
    32768
280
     0
281
     0
  0
CLASS
  1
AMDTFORMULAUPDATEDISPATCHER
  2
AmdtFormulaUpdateDispatcher
  3
AcMeServices
 90
    32768
280
     0
281
     0
  0
CLASS
  1
ADCONSDISP
  2
AcAdConstraintDisplay
  3
DesignerServices
 90
    32768
280
     0
281
     1
  0
CLASS
  1
ADCONSTDSP
  2
AcAdConstraintDisplayTag
  3
DesignerServices
 90
    32768
280
     0
281
     1
  0
CLASS
  1
PARAM
  2
AcAdParam
  3
DesignerServices
 90
    32768
280
     0
281
     0
  0
CLASS
  1
ADVDISTCNS
  2
AcAdVerticalDistanceConstr
  3
DesignerServices
 90
    32768
280
     0
281
     0
  0
CLASS
  1
ADHDISTCNS
  2
AcAdHorizontalDistanceConstr
  3
DesignerServices
 90
    32768
280
     0
281
     0
  0
CLASS
  1
ACMEROTATIONARROW
  2
AcImRotationArrowDisplay
  3
AcMeServices
 90
    32768
280
     0
281
     1
  0
CLASS
  1
ACADVOLFEATWITHTRIM
  2
AcAdVolFeatWithTrim
  3
DesignerServices
 90
    32768
280
     0
281
     0
  0
CLASS
  1
DEPEDGEFEATUREORDERING
  2
AcAdDepEdgeFeatureOrdering
  3
DesignerServices
 90
    32768
280
     0
281
     0
  0
CLASS
  1
DATUMAXISDISPLAY
  2
AcAdDatumAxisDisplay
  3
DesignerServices
 90
    32768
280
     0
281
     1
  0
CLASS
  1
ADDATUMAXISCENTER
  2
AcAdDatumAxisCenter
  3
DesignerServices
 90
    32768
280
     0
281
     0
  0
CLASS
  1
ADPLANEID
  2
AcAdSurfGeomId
  3
DesignerServices
 90
    32768
280
     0
281
     0
  0
CLASS
  1
ACMEPOINT
  2
AcImPointDisplay
  3
AcMeServices
 90
    32768
280
     0
281
     1
  0
CLASS
  1
ADPLANEID
  2
AcAdPlaneId
  3
DesignerServices
 90
    32768
280
     0
281
     0
  0
CLASS
  1
ADDATUMPLANEFACE
  2
AcAdDatumPlaneFace
  3
DesignerServices
 90
    32768
280
     0
281
     0
  0
CLASS
  1
ADDATUMPOINTAXISPLANE
  2
AcAdDatumPointAxisPlane
  3
DesignerServices
 90
    32768
280
     0
281
     0
  0
CLASS
  1
ADHOLEFEAT
  2
AcAdHoleFeat
  3
DesignerServices
 90
    32768
280
     0
281
     0
  0
CLASS
  1
CIRREFID
  2
AcAdCircleRefId
  3
DesignerServices
 90
    32768
280
     0
281
     0
  0
CLASS
  1
ACADCIRCDEPID
  2
AcAdVirtualCircleDepId
  3
DesignerServices
 90
    32768
280
     0
281
     0
  0
CLASS
  1
ACADCONSCIRCLE
  2
AcAdConstrainedCircle
  3
DesignerServices
 90
    32768
280
     0
281
     0
  0
CLASS
  1
ADCTRPTCNS
  2
AcAdCenterPointConstr
  3
DesignerServices
 90
    32768
280
     0
281
     0
  0
CLASS
  1
AMDT_ALIGNED_DIM
  2
AmdtAlignedDimension
  3
AcMeServices
 90
    32768
280
     0
281
     1
  0
CLASS
  1
ACADBOUNDEDLINEDATUMID
  2
AcAdVirtualBoundedLineDatumId
  3
DesignerServices
 90
    32768
280
     0
281
     0
  0
CLASS
  1
AMDT_ORDINATE_DIM
  2
AmdtOrdinateDimension
  3
AcMeServices
 90
    32768
280
     0
281
     1
  0
CLASS
  1
EDGEID
  2
AcAdEdgeId
  3
DesignerServices
 90
    32768
280
     0
281
     0
  0
CLASS
  1
ADFILLET
  2
AcAdFillet
  3
DesignerServices
 90
    32768
280
     0
281
     0
  0
CLASS
  1
DATUMPLANEDISPLAY
  2
AcAdDatumPlaneDisplay
  3
DesignerServices
 90
    32768
280
     0
281
     1
  0
CLASS
  1
ADDATUMPLANEAXISPLANE
  2
AcAdDatumPlaneAxisPlane
  3
DesignerServices
 90
    32768
280
     0
281
     0
  0
CLASS
  1
ACMEPLINE
  2
AcImPlineDisplay
  3
AcMeServices
 90
    32768
280
     0
281
     1
  0
CLASS
  1
ACMELINEARARROW
  2
AcImLinearArrowDisplay
  3
AcMeServices
 90
    32768
280
     0
281
     1
  0
CLASS
  1
ACMETEXT
  2
AcImTextDisplay
  3
AcMeServices
 90
    32768
280
     0
281
     1
  0
CLASS
  1
ADDATUMPLANEOFFSET
  2
AcAdDatumPlaneOffset
  3
DesignerServices
 90
    32768
280
     0
281
     0
  0
CLASS
  1
ADCOLNCNS
  2
AcAdColinearConstr
  3
DesignerServices
 90
    32768
280
     0
281
     0
  0
CLASS
  1
STREFID
  2
AcAdStraightRefId
  3
DesignerServices
 90
    32768
280
     0
281
     0
  0
CLASS
  1
ACADLINEDEPID
  2
AcAdVirtualLineDepId
  3
DesignerServices
 90
    32768
280
     0
281
     0
  0
CLASS
  1
ADFEATUREDISPLAY
  2
AcImFeatureDisplay
  3
ACME_MODULE_NAME
 90
    32768
280
     0
281
     1
  0
CLASS
  1
ACMEAXIS
  2
AcImAxisDisplay
  3
AcMeServices
 90
    32768
280
     0
281
     1
  0
CLASS
  1
DEPEDGEPATTERNFEATURE
  2
AcAdDepEdgePatternFeature
  3
DesignerServices
 90
    32768
280
     0
281
     0
  0
CLASS
  1
ACADPATTNFEAT
  2
AcAdPatternFeat
  3
DesignerServices
 90
    32768
280
     0
281
     0
  0
CLASS
  1
ACADORDORIGPT
  2
AcAdOrdinateOriginPoint
  3
DesignerServices
 90
    32768
280
     0
281
     0
  0
CLASS
  1
ADORDBASECNS
  2
AcAdOrdinateBaseConstr
  3
DesignerServices
 90
    32768
280
     0
281
     0
  0
CLASS
  1
DEPEDGESECONDARYDEPID
  2
AcAdDepEdgeSecondaryDepId
  3
DesignerServices
 90
    32768
280
     0
281
     0
  0
CLASS
  1
DEPEDGEPATTERNINSTANCE
  2
AcAdDepEdgePatternInstance
  3
DesignerServices
 90
    32768
280
     0
281
     0
  0
CLASS
  1
AM_VIEW_SELECT_FILTER
  2
AcDmActivePartViewEntFilter
  3
DesignerServices
 90
    32768
280
     0
281
     0
  0
CLASS
  1
AM_ABS_PLANE
  2
AcDmAbsPlnDef
  3
AcMechDwgViewMgmt
 90
    32768
280
     0
281
     0
  0
CLASS
  1
AM_ABS_AXIS
  2
AcDmAbsAxisDef
  3
AcMechDwgViewMgmt
 90
    32768
280
     0
281
     0
  0
CLASS
  1
AM_BASE_VIEW_ORIENT
  2
AcDmBaseViewOr
  3
AcMechDwgViewMgmt
 90
    32768
280
     0
281
     0
  0
CLASS
  1
AM_DWG_VIEWPORT
  2
AcDmViewport
  3
AcMechDwgViewMgmt
 90
    32768
280
     0
281
     0
  0
CLASS
  1
AM_VIEW_DISPLAY
  2
AcDmDwgViewDisplay
  3
AcMechDwgViewMgmt
 90
    32768
280
     0
281
     0
  0
CLASS
  1
AM_CLDFLTS
  2
AcDmClDflts
  3
AcMechDwgViewMgmt
 90
    32768
280
     0
281
     0
  0
CLASS
  1
AM_BASE_VIEW
  2
AcDmBaseView
  3
AcMechDwgViewMgmt
 90
    32768
280
     0
281
     0
  0
CLASS
  1
AM_ISO_VIEW_ORIENT
  2
AcDmIsoViewOr
  3
AcMechDwgViewMgmt
 90
    32768
280
     0
281
     0
  0
CLASS
  1
AM_ISO_VIEW
  2
AcDmIsoView
  3
AcMechDwgViewMgmt
 90
    32768
280
     0
281
     0
  0
CLASS
  1
AM_ORTHO_VIEW_ORIENT
  2
AcDmOrthoViewOr
  3
AcMechDwgViewMgmt
 90
    32768
280
     0
281
     0
  0
CLASS
  1
AM_ORTHO_VIEW
  2
AcDmOrthoView
  3
AcMechDwgViewMgmt
 90
    32768
280
     0
281
     0
  0
CLASS
  1
ACDMPARTVIEWDATA
  2
AcDmPartViewData
  3
AcMechDwgViewMgmt
 90
    32768
280
     0
281
     0
  0
CLASS
  1
ACDMDISPLAYATTRIBS
  2
AcDmDisplayAttribs
  3
AcMechDwgViewMgmt
 90
    32768
280
     0
281
     0
  0
CLASS
  1
ACDMBODYINSTANCEDATA
  2
AcDmBodyInstanceData
  3
AcMechDwgViewMgmt
 90
    32768
280
     0
281
     0
  0
CLASS
  1
ACDMVWEDLINE
  2
AcDmViewEdgeLine
  3
AcMechDwgViewMgmt
 90
    32768
280
     0
281
     1
  0
CLASS
  1
ACDMVWEDARC
  2
AcDmViewEdgeArc
  3
AcMechDwgViewMgmt
 90
    32768
280
     0
281
     1
  0
CLASS
  1
ACADSKETCHPOINTRES
  2
AcAdSketchPointRes
  3
DesignerServices
 90
    32768
280
     0
281
     0
  0
CLASS
  1
AM_VIEWDIMLINEAR
  2
AcDmViewDimLinear
  3
AcMechDwgViewMgmt
 90
    32768
280
     0
281
     0
  0
CLASS
  1
AMDTDMPARMAPDATA
  2
AmdtDmDimParMapData
  3
AcMechDwgViewMgmt
 90
    32768
280
     0
281
     0
  0
CLASS
  1
AM_ADLINCTRLINE
  2
AcAdLineCl
  3
DesignerServices
 90
    32768
280
     0
281
     0
  0
CLASS
  1
ACDMVWEDCIRC
  2
AcDmViewEdgeCircle
  3
AcMechDwgViewMgmt
 90
    32768
280
     0
281
     1
  0
CLASS
  1
AM_ADCIRCTRLINE
  2
AcAdBullsEyeCl
  3
DesignerServices
 90
    32768
280
     0
281
     0
  0
CLASS
  1
AD_CIRCTAPH
  2
AcAdTapHoleCircDisp
  3
DesignerServices
 90
    32768
280
     0
281
     0
  0
CLASS
  1
ACDMVIEWGEOM
  2
AcDmViewGeometry
  3
AcMechDwgViewMgmt
 90
    32768
280
     0
281
     1
  0
CLASS
  1
FACEID
  2
AcAdFaceId
  3
DesignerServices
 90
    32768
280
     0
281
     0
  0
CLASS
  1
ACADPARTPLANARFACERES
  2
AcAdPartPlanarFaceRes
  3
AdGrefServices
 90
    32768
280
     0
281
     0
  0
CLASS
  1
AM_GREF_PLANE
  2
AcDmGrefPlnDef
  3
AcMechDwgViewMgmt
 90
    32768
280
     0
281
     0
  0
CLASS
  1
ACADPARTLINEDGRES
  2
AcAdPartLinEdgRes
  3
AdGrefServices
 90
    32768
280
     0
281
     0
  0
CLASS
  1
AM_GREF_AXIS
  2
AcDmGrefAxisDef
  3
AcMechDwgViewMgmt
 90
    32768
280
     0
281
     0
  0
CLASS
  1
AMDTEXTERNALTHREAD
  2
AmdtExternalThreadFeat
  3
DesignerServices
 90
    32768
280
     0
281
     0
  0
CLASS
  1
THREADDISPLAY
  2
AcAdThreadDisplay
  3
DesignerServices
 90
    32768
280
     0
281
     1
  0
CLASS
  1
AD_LINETAPH
  2
AcAdTapHoleLineDisp
  3
DesignerServices
 90
    32768
280
     0
281
     0
  0
CLASS
  1
ADRADDISP
  2
AcAdRadiusDisplay
  3
DesignerServices
 90
    32768
280
     0
281
     1
  0
CLASS
  1
ACDBLINERES
  2
AcDbLineRes
  3
AcGrefServices
 90
    32768
280
     0
281
     0
  0
CLASS
  1
ACADPARTCONICALFACERES
  2
AcAdPartConicalFaceRes
  3
AdGrefServices
 90
    32768
280
     0
281
     0
  0
CLASS
  1
ACDMGREFEDIT
  2
AcDmViewEntityGeomrefEdit
  3
AcMechDwgViewMgmt
 90
    32768
280
     0
281
     0
  0
CLASS
  1
ACDMVIEWLINEDGERES
  2
AcDmViewLinEdgeRes
  3
AcMechDwgViewMgmt
 90
    32768
280
     0
281
     0
  0
CLASS
  1
SILEDGEID
  2
AcAdSilhouetteEdgeId
  3
DesignerServices
 90
    32768
280
     0
281
     0
  0
CLASS
  1
ACADPARTCYLINDERFACERES
  2
AcAdPartCylinderFaceRes
  3
AdGrefServices
 90
    32768
280
     0
281
     0
  0
CLASS
  1
CNRREFID
  2
AcAdCornerId
  3
DesignerServices
 90
    32768
280
     0
281
     0
  0
CLASS
  1
ACADPARTPOINTRES
  2
AcAdPartPointRes
  3
AdGrefServices
 90
    32768
280
     0
281
     0
  0
CLASS
  1
ACADPARTCIRCEDGRES
  2
AcAdPartCircEdgRes
  3
AdGrefServices
 90
    32768
280
     0
281
     0
  0
CLASS
  1
ACRFDMINSADJ
  2
AcRfDMInsAdjuster
  3
AcMechDwgViewMgmt
 90
    32768
280
     0
281
     0
  0
CLASS
  1
AM_VIEWDIMRADIUS
  2
AcDmViewDimRadius
  3
AcMechDwgViewMgmt
 90
    32768
280
     0
281
     0
  0
CLASS
  1
ACADPARTDATUMPLANERES
  2
AcAdPartDatumPlaneRes
  3
AdGrefServices
 90
    32768
280
     0
281
     0
  0
CLASS
  1
AM_FULLPLANESECTION
  2
AcDmFullPlaneSection
  3
AcMechDwgViewMgmt
 90
    32768
280
     0
281
     0
  0
CLASS
  1
AMDTSECTIONSYM
  2
AmdtSectionSym
  3
"AcmSymBB|Product Description: AutoCAD Mechanical 2000|Company: Autodesk"
 90
    33791
280
     0
281
     1
  0
CLASS
  1
AM_VWNOTEADAPTER
  2
AcDmViewAnnotAdapter
  3
AcMechDwgViewMgmt
 90
    32768
280
     0
281
     0
  0
CLASS
  1
AMDTSECTIONSYMLABEL
  2
AmdtSectionSymLabel
  3
"AcmSymBB|Product Description: AutoCAD Mechanical 2000|Company: Autodesk"
 90
    33791
280
     0
281
     1
  0
CLASS
  1
AMDTNOTE
  2
AmdtNote
  3
"AcmSymBB|Product Description: AutoCAD Mechanical 2000|Company: Autodesk"
 90
    33791
280
     0
281
     1
  0
CLASS
  1
DIMASSOC
  2
AcDbDimAssoc
  3
"AcDbDimAssoc|Product Desc:     AcDim ARX App For Dimension|Company:          Autodesk, Inc.|WEB Address:      www.autodesk.com"
 90
    32768
280
     0
281
     0
  0
CLASS
  1
ACMSTANDARDANSI
  2
AcmStandardANSI
  3
"Amdt_StdImp|Product Description: AutoCAD Mechanical 2000|Company: Autodesk"
 90
    32768
280
     0
281
     0
  0
CLASS
  1
ACMSURFSTANDARDANSI
  2
AcmSurfTextStdANSI
  3
"Amdt_StdImp|Product Description: AutoCAD Mechanical 2000|Company: Autodesk"
 90
    32768
280
     0
281
     0
  0
CLASS
  1
ACMFCFSTANDARDANSI
  2
AcmFCFStdANSI
  3
"Amdt_StdImp|Product Description: AutoCAD Mechanical 2000|Company: Autodesk"
 90
    32768
280
     0
281
     0
  0
CLASS
  1
ACMWELDSTANDARDANSI
  2
AcmWeldingStdANSI
  3
"Amdt_StdImp|Product Description: AutoCAD Mechanical 2000|Company: Autodesk"
 90
    32768
280
     0
281
     0
  0
CLASS
  1
ACMIDSTANDARDANSI
  2
AcmIdStdANSI
  3
"Amdt_StdImp|Product Description: AutoCAD Mechanical 2000|Company: Autodesk"
 90
    32768
280
     0
281
     0
  0
CLASS
  1
ACMDATUMSTANDARDANSI
  2
AcmDatumStdANSI
  3
"Amdt_StdImp|Product Description: AutoCAD Mechanical 2000|Company: Autodesk"
 90
    32768
280
     0
281
     0
  0
CLASS
  1
ACMBOMSTANDARDANSI
  2
AcmBOMStdANSI
  3
"Amdt_StdImp|Product Description: AutoCAD Mechanical 2000|Company: Autodesk"
 90
    32768
280
     0
281
     0
  0
CLASS
  1
ACMDETAILSTANDARDANSI
  2
AmdtDetailSymStdANSI
  3
"Amdt_StdImp|Product Description: AutoCAD Mechanical 2000|Company: Autodesk"
 90
    32768
280
     0
281
     0
  0
CLASS
  1
ACMSECTIONSTANDARDANSI
  2
AmdtSectionSymStdANSI
  3
"Amdt_StdImp|Product Description: AutoCAD Mechanical 2000|Company: Autodesk"
 90
    32768
280
     0
281
     0
  0
CLASS
  1
ACMCENTERLINESTANDARDANSI
  2
AmdtCenterLineStdANSI
  3
"Amdt_StdImp|Product Description: AutoCAD Mechanical 2000|Company: Autodesk"
 90
    32768
280
     0
281
     0
  0
CLASS
  1
ACMNOTESTANDARDANSI
  2
AmdtNoteStdANSI
  3
"Amdt_StdImp|Product Description: AutoCAD Mechanical 2000|Company: Autodesk"
 90
    32768
280
     0
281
     0
  0
CLASS
  1
ACAMGHOLECHARTSTDANSI
  2
AcAmgHoleChartStdANSI
  3
ACMSYMBB_MODULE_NAME
 90
    32768
280
     0
281
     0
  0
CLASS
  1
ACDBCIRCARCRES
  2
AcDbCircArcRes
  3
AcGrefServices
 90
    32768
280
     0
281
     0
  0
CLASS
  1
STDPART2D
  2
AmgStdPart
  3
"AmgStdPart|Product Description: AutoCAD Mechanical 2000|Company: Autodesk"
 90
    33791
280
     0
281
     1
  0
CLASS
  1
LONG_TRANSACTION
  2
AcDbLongTransaction
  3
AutoCAD 2000
 90
    32768
280
     0
281
     0
  0
CLASS
  1
LWPOLYLINE
  2
AcDbPolyline
  3
AutoCAD 2000
 90
    32768
280
     0
281
     1
  0
CLASS
  1
HATCH
  2
AcDbHatch
  3
AutoCAD 2000
 90
    32768
280
     0
281
     1
  0
CLASS
  1
XRECORD
  2
AcDbXrecord
  3
AutoCAD 2000
 90
    32768
280
     0
281
     0
  0
ENDSEC
  0
SECTION
  2
TABLES
  0
TABLE
  2
VPORT
  5
1A
330
0
100
AcDbSymbolTable
 70
     6
  0
VPORT
  5
3C06
330
1A
100
AcDbSymbolTableRecord
100
AcDbViewportTableRecord
  2
*ACTIVE
 70
     0
 10
0.0
 20
0.0
 11
1.0
 21
1.0
 12
2065.470307744787
 22
223.4207178058255
 13
0.0
 23
0.0
 14
2.5
 24
2.5
 15
10.0
 25
10.0
 16
0.0
 26
0.0
 36
1.0
 17
0.0
 27
0.0
 37
0.0
 40
353.7975670900787
 41
1.765124555160142
 42
50.0
 43
0.0
 44
0.0
 50
0.0
 51
0.0
 71
     0
 72
   100
 73
     1
 74
     3
 75
     0
 76
     0
 77
     0
 78
     0
  0
ENDTAB
  0
TABLE
  2
LTYPE
  5
15
330
0
100
AcDbSymbolTable
 70
    20
  0
LTYPE
  5
16
330
15
100
AcDbSymbolTableRecord
100
AcDbLinetypeTableRecord
  2
BYBLOCK
 70
     0
  3

 72
    65
 73
     0
 40
0.0
  0
LTYPE
  5
17
330
15
100
AcDbSymbolTableRecord
100
AcDbLinetypeTableRecord
  2
BYLAYER
 70
     0
  3

 72
    65
 73
     0
 40
0.0
  0
LTYPE
  5
9
330
15
100
AcDbSymbolTableRecord
100
AcDbLinetypeTableRecord
  2
CONTINUOUS
 70
     0
  3
Solid line
 72
    65
 73
     0
 40
0.0
  0
LTYPE
  5
161
330
15
100
AcDbSymbolTableRecord
100
AcDbLinetypeTableRecord
  2
HIDDEN
 70
     0
  3
Hidden __ __ __ __ __ __ __ __ __ __ __ __ __ _
 72
    65
 73
     2
 40
9.524999999999998
 49
6.349999999999999
 74
     0
 49
-3.174999999999999
 74
     0
  0
LTYPE
  5
BF
330
15
100
AcDbSymbolTableRecord
100
AcDbLinetypeTableRecord
  2
AM_ISO08W050
 70
     0
  3
____ . ____ . ____ . ____ . ____ . ____ . ____
 72
    65
 73
     4
 40
18.0
 49
12.0
 74
     0
 49
-1.5
 74
     0
 49
3.0
 74
     0
 49
-1.5
 74
     0
  0
LTYPE
  5
1FD
330
15
100
AcDbSymbolTableRecord
100
AcDbLinetypeTableRecord
  2
AM_ISO02W050
 70
     0
  3
__ __ __ __ __ __ __ __ __ __ __ __ __ __ __
 72
    65
 73
     2
 40
7.5
 49
6.0
 74
     0
 49
-1.5
 74
     0
  0
LTYPE
  5
1FE
330
15
100
AcDbSymbolTableRecord
100
AcDbLinetypeTableRecord
  2
AM_ISO09W050
 70
     0
  3
_____ . . _____ . . _____ . . ____ .. ____
 72
    65
 73
     6
 40
22.5
 49
12.0
 74
     0
 49
-1.5
 74
     0
 49
3.0
 74
     0
 49
-1.5
 74
     0
 49
3.0
 74
     0
 49
-1.5
 74
     0
  0
LTYPE
  5
1FF
330
15
100
AcDbSymbolTableRecord
100
AcDbLinetypeTableRecord
  2
AMCONSTR
 70
     0
  3
_______________________
 72
    65
 73
     2
 40
9999.0
 49
9999.0
 74
     0
 49
0.0
 74
     0
  0
LTYPE
  5
200
330
15
100
AcDbSymbolTableRecord
100
AcDbLinetypeTableRecord
  2
AM_ISO08W050X2
 70
     0
  3
__ . __ . __ . __ . __ . __
 72
    65
 73
     4
 40
9.0
 49
6.0
 74
     0
 49
-0.75
 74
     0
 49
1.5
 74
     0
 49
-0.75
 74
     0
  0
LTYPE
  5
201
330
15
100
AcDbSymbolTableRecord
100
AcDbLinetypeTableRecord
  2
AM_ISO02W050X2
 70
     0
  3
 _ _ _ _ _ _ _ _ _ _ _ _
 72
    65
 73
     2
 40
3.75
 49
3.0
 74
     0
 49
-0.75
 74
     0
  0
LTYPE
  5
204
330
15
100
AcDbSymbolTableRecord
100
AcDbLinetypeTableRecord
  2
AMZIGZAG
 70
     0
  3
/\/-/\/-/\/-/\/-/\/-/\/
 72
    65
 73
     2
 40
11.00009999999999
 49
0.0001
 74
     4
 75
   135
340
203
 46
0.04
 50
0.0
 44
0.0
 45
0.0
 49
-11.0
 74
     0
  0
LTYPE
  5
211
330
15
100
AcDbSymbolTableRecord
100
AcDbLinetypeTableRecord
  2
ACISOWELD
 70
     0
  3
_ _ _ _ _
 72
    65
 73
     2
 40
2.0
 49
2.0
 74
     0
 49
-1.0
 74
     0
  0
LTYPE
  5
212
330
15
100
AcDbSymbolTableRecord
100
AcDbLinetypeTableRecord
  2
ACISOTGB
 70
     0
  3
__ . . __ . .
 72
    65
 73
     6
 40
9.0
 49
4.0
 74
     0
 49
-1.0
 74
     0
 49
1.0
 74
     0
 49
-1.0
 74
     0
 49
1.0
 74
     0
 49
-1.0
 74
     0
  0
LTYPE
  5
213
330
15
100
AcDbSymbolTableRecord
100
AcDbLinetypeTableRecord
  2
ACISOTGL
 70
     0
  3
_ _ _ _ _
 72
    65
 73
     2
 40
3.0
 49
2.0
 74
     0
 49
-1.0
 74
     0
  0
LTYPE
  5
214
330
15
100
AcDbSymbolTableRecord
100
AcDbLinetypeTableRecord
  2
CENTER
 70
     0
  3
__ . __
 72
    65
 73
     4
 40
7.0
 49
4.0
 74
     0
 49
-1.0
 74
     0
 49
1.0
 74
     0
 49
-1.0
 74
     0
  0
LTYPE
  5
1112
330
15
100
AcDbSymbolTableRecord
100
AcDbLinetypeTableRecord
  2
PHANTOM2
 70
     0
  3
Phantom (.5x) ___ _ _ ___ _ _ ___ _ _ ___ _ _
 72
    65
 73
     6
 40
1.25
 49
0.625
 74
     0
 49
-0.125
 74
     0
 49
0.125
 74
     0
 49
-0.125
 74
     0
 49
0.125
 74
     0
 49
-0.125
 74
     0
  0
LTYPE
  5
1115
330
15
100
AcDbSymbolTableRecord
100
AcDbLinetypeTableRecord
  2
ACANSTGB
 70
     0
  3
__ . . __ . .
 72
    65
 73
     6
 40
0.35433070866
 49
0.15748031496
 74
     0
 49
-0.03937007874
 74
     0
 49
0.03937007874
 74
     0
 49
-0.03937007874
 74
     0
 49
0.03937007874
 74
     0
 49
-0.03937007874
 74
     0
  0
LTYPE
  5
1116
330
15
100
AcDbSymbolTableRecord
100
AcDbLinetypeTableRecord
  2
ACANSTGL
 70
     0
  3
_ _ _ _ _
 72
    65
 73
     2
 40
0.11811023622
 49
0.07874015748
 74
     0
 49
-0.03937007874
 74
     0
  0
ENDTAB
  0
TABLE
  2
LAYER
  5
11
330
0
100
AcDbSymbolTable
 70
    13
  0
LAYER
  5
5
330
11
100
AcDbSymbolTableRecord
100
AcDbLayerTableRecord
  2
0
 70
     0
 62
     7
  6
CONTINUOUS
  0
LAYER
  5
3B
330
11
100
AcDbSymbolTableRecord
100
AcDbLayerTableRecord
  2
DEFPOINTS
 70
     0
 62
     7
  6
CONTINUOUS
  0
LAYER
  5
14E
330
11
100
AcDbSymbolTableRecord
100
AcDbLayerTableRecord
  2
AM_5
 70
     0
 62
     5
  6
CONTINUOUS
  0
LAYER
  5
32
330
11
100
AcDbSymbolTableRecord
100
AcDbLayerTableRecord
  2
AM_PARDIM
 70
     0
 62
     5
  6
CONTINUOUS
  0
LAYER
  5
BE
330
11
100
AcDbSymbolTableRecord
100
AcDbLayerTableRecord
  2
AM_7
 70
     0
 62
     1
  6
AM_ISO08W050
  0
LAYER
  5
1117
330
11
100
AcDbSymbolTableRecord
100
AcDbLayerTableRecord
  2
HIDDEN
 70
     0
 62
     6
  6
HIDDEN
  0
LAYER
  5
1118
330
11
100
AcDbSymbolTableRecord
100
AcDbLayerTableRecord
  2
DIM
 70
     0
 62
     5
  6
CONTINUOUS
  0
LAYER
  5
1119
330
11
100
AcDbSymbolTableRecord
100
AcDbLayerTableRecord
  2
CENTER
 70
     0
 62
     1
  6
CENTER
  0
LAYER
  5
111A
330
11
100
AcDbSymbolTableRecord
100
AcDbLayerTableRecord
  2
LOGO
 70
     0
 62
     7
  6
CONTINUOUS
  0
ENDTAB
  0
TABLE
  2
STYLE
  5
12
330
0
100
AcDbSymbolTable
 70
    12
  0
STYLE
  5
13
330
12
100
AcDbSymbolTableRecord
100
AcDbTextStyleTableRecord
  2
STANDARD
 70
     0
 40
0.0
 41
1.0
 50
0.0
 71
     0
 42
2.5
  3
ISOCP.SHX
  4
CHINESET.SHX
  0
STYLE
  5
152
330
12
100
AcDbSymbolTableRecord
100
AcDbTextStyleTableRecord
  2
ACISOTS
 70
     0
 40
1.0
 41
1.0
 50
0.0
 71
     0
 42
2.5
  3
isocp.shx
  4
chineset.shx
  0
STYLE
  5
203
330
12
100
AcDbSymbolTableRecord
100
AcDbTextStyleTableRecord
  2

 70
     1
 40
0.0
 41
1.0
 50
0.0
 71
     0
 42
2.5
  3
ltypeshp.shx
  4

  0
STYLE
  5
210
330
12
100
AcDbSymbolTableRecord
100
AcDbTextStyleTableRecord
  2
ACISOGDT
 70
     0
 40
0.0
 41
1.0
 50
0.0
 71
     0
 42
2.5
  3
amgdt.shx
  4

  0
STYLE
  5
356
330
12
100
AcDbSymbolTableRecord
100
AcDbTextStyleTableRecord
  2
CHINESET
 70
     0
 40
0.0
 41
1.0
 50
0.0
 71
     0
 42
2.5
  3
simplex.shx
  4
CHINESET.shx
  0
STYLE
  5
357
330
12
100
AcDbSymbolTableRecord
100
AcDbTextStyleTableRecord
  2
CHINA
 70
     0
 40
0.0
 41
1.0
 50
0.0
 71
     0
 42
3.0
  3
/rubon/c2
  4
/rubon/china
  0
STYLE
  5
111C
330
12
100
AcDbSymbolTableRecord
100
AcDbTextStyleTableRecord
  2
ROMANS
 70
     0
 40
0.0
 41
1.0
 50
0.0
 71
     0
 42
3.0
  3
ROMANS.SHX
  4
LMP
  0
STYLE
  5
111D
330
12
100
AcDbSymbolTableRecord
100
AcDbTextStyleTableRecord
  2
ROMANS1
 70
     0
 40
0.0
 41
1.0
 50
0.0
 71
     0
 42
3.0
  3
ROMANS.SHX
  4

  0
STYLE
  5
111E
330
12
100
AcDbSymbolTableRecord
100
AcDbTextStyleTableRecord
  2
LOGO
 70
     0
 40
0.0
 41
1.0
 50
0.0
 71
     0
 42
5.0
  3
LEI00DP.TTF
  4

1001
ACAD
1000
文鼎中粗隸
1071
    34865
  0
STYLE
  5
111F
330
12
100
AcDbSymbolTableRecord
100
AcDbTextStyleTableRecord
  2
ACANSTS
 70
     0
 40
1.0
 41
1.0
 50
0.0
 71
     0
 42
2.5
  3
romans.shx
  4
chineset.shx
  0
STYLE
  5
1120
330
12
100
AcDbSymbolTableRecord
100
AcDbTextStyleTableRecord
  2
ACANSGDT
 70
     0
 40
0.0
 41
1.0
 50
0.0
 71
     0
 42
2.5
  3
amgdtans.shx
  4

  0
ENDTAB
  0
TABLE
  2
VIEW
  5
18
330
0
100
AcDbSymbolTable
 70
     0
  0
ENDTAB
  0
TABLE
  2
UCS
  5
19
330
0
100
AcDbSymbolTable
 70
     0
  0
ENDTAB
  0
TABLE
  2
APPID
  5
1C
330
0
100
AcDbSymbolTable
 70
    24
  0
APPID
  5
1D
330
1C
100
AcDbSymbolTableRecord
100
AcDbRegAppTableRecord
  2
ACAD
 70
     0
  0
APPID
  5
41
330
1C
100
AcDbSymbolTableRecord
100
AcDbRegAppTableRecord
  2
AD_SKETCHDIM
 70
     0
  0
APPID
  5
42
330
1C
100
AcDbSymbolTableRecord
100
AcDbRegAppTableRecord
  2
ACAD_DIMASSOC_DIMLFAC
 70
     0
  0
APPID
  5
40
330
1C
100
AcDbSymbolTableRecord
100
AcDbRegAppTableRecord
  2
ACAD_DIMASSOC_CALC_DIMLFAC
 70
     0
  0
APPID
  5
1DF
330
1C
100
AcDbSymbolTableRecord
100
AcDbRegAppTableRecord
  2
MCAD_NO_VIS
 70
     0
  0
APPID
  5
1E0
330
1C
100
AcDbSymbolTableRecord
100
AcDbRegAppTableRecord
  2
ACAD_TEMP_GRAPHIC
 70
     0
  0
APPID
  5
1F1
330
1C
100
AcDbSymbolTableRecord
100
AcDbRegAppTableRecord
  2
ACATTRIBSERVICES
 70
     0
  0
APPID
  5
CAF
330
1C
100
AcDbSymbolTableRecord
100
AcDbRegAppTableRecord
  2
GENIUS_GENODEF_13
 70
     0
  0
APPID
  5
CB0
330
1C
100
AcDbSymbolTableRecord
100
AcDbRegAppTableRecord
  2
GENIUS_GENOBJ-N-DIM_13
 70
     0
  0
APPID
  5
CBC
330
1C
100
AcDbSymbolTableRecord
100
AcDbRegAppTableRecord
  2
GENIUS_GENDIM_13
 70
     0
  0
APPID
  5
CDC
330
1C
100
AcDbSymbolTableRecord
100
AcDbRegAppTableRecord
  2
GENIUS_GENDIMSH_14
 70
     0
  0
APPID
  5
E3C
330
1C
100
AcDbSymbolTableRecord
100
AcDbRegAppTableRecord
  2
GENIUS_GENOBJ-N-HTC_13
 70
     0
  0
APPID
  5
E3D
330
1C
100
AcDbSymbolTableRecord
100
AcDbRegAppTableRecord
  2
GENIUS_GENHATCH_13
 70
     0
  0
APPID
  5
E59
330
1C
100
AcDbSymbolTableRecord
100
AcDbRegAppTableRecord
  2
DCO15
 70
     0
  0
APPID
  5
1128
330
1C
100
AcDbSymbolTableRecord
100
AcDbRegAppTableRecord
  2
GENIUS_GENOENT_13
 70
     0
  0
APPID
  5
1129
330
1C
100
AcDbSymbolTableRecord
100
AcDbRegAppTableRecord
  2
GENIUS_GENOLIS_13
 70
     0
  0
APPID
  5
112A
330
1C
100
AcDbSymbolTableRecord
100
AcDbRegAppTableRecord
  2
GENIUS_GENOBJ-N-CRS_13
 70
     0
  0
APPID
  5
112B
330
1C
100
AcDbSymbolTableRecord
100
AcDbRegAppTableRecord
  2
GENIUS_GENOREF_13
 70
     0
  0
APPID
  5
2637
330
1C
100
AcDbSymbolTableRecord
100
AcDbRegAppTableRecord
  2
GEVID1054773670
 70
     0
  0
APPID
  5
2638
330
1C
100
AcDbSymbolTableRecord
100
AcDbRegAppTableRecord
  2
GEVDC
 70
     0
  0
APPID
  5
2639
330
1C
100
AcDbSymbolTableRecord
100
AcDbRegAppTableRecord
  2
GEVRADREF
 70
     0
  0
APPID
  5
263D
330
1C
100
AcDbSymbolTableRecord
100
AcDbRegAppTableRecord
  2
GENIUS_GENBH_13
 70
     0
  0
APPID
  5
2640
330
1C
100
AcDbSymbolTableRecord
100
AcDbRegAppTableRecord
  2
GENIUS_GENOBJ-NBEHI-BHF_13
 70
     0
  0
APPID
  5
2642
330
1C
100
AcDbSymbolTableRecord
100
AcDbRegAppTableRecord
  2
GENIUS_GENOBJ-NBEHI-BHB_13
 70
     0
  0
ENDTAB
  0
TABLE
  2
DIMSTYLE
  5
1E
330
0
100
AcDbSymbolTable
 70
    14
  0
DIMSTYLE
105
1F
102
{ACAD_REACTORS
330
31
330
43
330
52
330
5F
330
6C
330
79
330
86
330
95
330
A3
330
B0
330
2EDE
330
2F16
330
2FBE
330
2F4E
330
2F86
330
2FF6
330
2DAB
330
2DE3
330
2D73
330
2D3B
330
3546
102
}
330
1E
100
AcDbSymbolTableRecord
100
AcDbDimStyleTableRecord
  2
AM_ISO
 70
     0
  3

  4
"
  5

  6

  7

 40
1.5
 41
3.0
 42
2.0
 43
8.0
 44
1.5
 45
0.0
 46
0.0
 47
0.1
 48
0.1
140
3.0
141
0.0
142
0.0
143
0.0393701
144
1.0
145
0.0
146
0.71
147
1.0
 71
     0
 72
     0
 73
     0
 74
     0
 75
     0
 76
     0
 77
     1
 78
     8
170
     0
171
     2
172
     1
173
     0
174
     0
175
     0
176
   256
177
   256
178
   256
270
     2
271
     2
272
     2
273
     2
274
     2
340
357
275
     0
280
     0
281
     0
282
     0
283
     0
284
     8
285
     0
286
     0
287
     3
288
     0
  0
DIMSTYLE
105
217
330
1E
100
AcDbSymbolTableRecord
100
AcDbDimStyleTableRecord
  2
AM_ISO$3
 70
     0
  3

  4
"
  5

  6

  7

 40
1.5
 41
3.0
 42
2.0
 43
8.0
 44
1.5
 45
0.0
 46
0.0
 47
0.1
 48
0.1
140
3.0
141
0.0
142
0.0
143
0.0393701
144
1.0
145
0.0
146
0.71
147
1.0
 71
     0
 72
     0
 73
     0
 74
     1
 75
     0
 76
     0
 77
     1
 78
     8
170
     0
171
     2
172
     0
173
     0
174
     0
175
     0
176
   256
177
   256
178
   256
270
     2
271
     2
272
     2
273
     2
274
     2
340
357
275
     0
280
     0
281
     0
282
     0
283
     0
284
     8
285
     0
286
     0
287
     0
288
     1
  0
DIMSTYLE
105
218
330
1E
100
AcDbSymbolTableRecord
100
AcDbDimStyleTableRecord
  2
AM_ISO$4
 70
     0
  3

  4
"
  5

  6

  7

 40
1.5
 41
3.0
 42
2.0
 43
8.0
 44
1.5
 45
0.0
 46
0.0
 47
0.1
 48
0.1
140
3.0
141
0.0
142
0.0
143
0.0393701
144
1.0
145
0.0
146
0.71
147
1.0
 71
     0
 72
     0
 73
     0
 74
     1
 75
     0
 76
     0
 77
     1
 78
     8
170
     0
171
     2
172
     0
173
     0
174
     0
175
     0
176
   256
177
   256
178
   256
270
     2
271
     2
272
     2
273
     2
274
     2
340
357
275
     0
280
     0
281
     0
282
     0
283
     0
284
     8
285
     0
286
     0
287
     0
288
     1
  0
DIMSTYLE
105
219
330
1E
100
AcDbSymbolTableRecord
100
AcDbDimStyleTableRecord
  2
AM_ISO$6
 70
     0
  3

  4
"
  5

  6

  7

 40
1.5
 41
3.0
 42
2.0
 43
8.0
 44
1.5
 45
0.0
 46
0.0
 47
0.1
 48
0.1
140
3.0
141
0.0
142
0.0
143
0.0393701
144
1.0
145
0.0
146
0.71
147
1.0
 71
     0
 72
     0
 73
     0
 74
     0
 75
     0
 76
     0
 77
     0
 78
     8
170
     0
171
     2
172
     1
173
     0
174
     0
175
     0
176
   256
177
   256
178
   256
270
     2
271
     2
272
     2
273
     2
274
     2
340
357
275
     0
280
     0
281
     0
282
     0
283
     0
284
     8
285
     0
286
     0
287
     3
288
     0
  0
DIMSTYLE
105
21A
330
1E
100
AcDbSymbolTableRecord
100
AcDbDimStyleTableRecord
  2
AM_ISO$7
 70
     0
  3

  4
"
  5

  6

  7

 40
1.5
 41
2.5
 42
2.0
 43
8.0
 44
1.5
 45
0.0
 46
0.0
 47
0.1
 48
0.1
140
5.0
141
0.0
142
0.0
143
0.0393701
144
1.0
145
0.0
146
0.71
147
1.5
 71
     0
 72
     0
 73
     0
 74
     0
 75
     0
 76
     0
 77
     1
 78
     8
170
     0
171
     2
172
     1
173
     0
174
     0
175
     0
176
   256
177
   256
178
   256
270
     2
271
     2
272
     2
273
     2
274
     2
340
357
275
     0
280
     0
281
     0
282
     0
283
     0
284
     8
285
     0
286
     0
287
     3
288
     0
  0
DIMSTYLE
105
21B
330
1E
100
AcDbSymbolTableRecord
100
AcDbDimStyleTableRecord
  2
AM_ISO$SF
 70
     0
  3

  4
"
  5

  6

  7

 40
1.0
 41
3.0
 42
2.0
 43
5.0
 44
1.5
 45
0.0
 46
0.0
 47
0.1
 48
0.1
140
3.0
141
0.0
142
0.0
143
0.0393701
144
1.0
145
0.0
146
0.71
147
1.0
 71
     0
 72
     0
 73
     0
 74
     0
 75
     1
 76
     1
 77
     1
 78
     8
170
     0
171
     2
172
     1
173
     0
174
     0
175
     0
176
   256
177
   256
178
     5
270
     2
271
     2
272
     2
273
     2
274
     2
340
13
275
     0
280
     0
281
     0
282
     0
283
     0
284
     8
285
     0
286
     0
287
     3
288
     0
  0
DIMSTYLE
105
220
330
1E
100
AcDbSymbolTableRecord
100
AcDbDimStyleTableRecord
  2
AM_ISO$SH
 70
     0
  3

  4
"
  5

  6
GENAXEH
  7

 40
1.0
 41
3.0
 42
2.0
 43
5.0
 44
1.5
 45
0.0
 46
0.0
 47
0.1
 48
0.1
140
3.0
141
0.0
142
0.0
143
0.0393701
144
2.0
145
0.0
146
0.71
147
1.0
 71
     0
 72
     0
 73
     0
 74
     0
 75
     1
 76
     1
 77
     1
 78
     8
170
     0
171
     2
172
     1
173
     1
174
     0
175
     0
176
   256
177
   256
178
     5
270
     2
271
     2
272
     2
273
     2
274
     2
340
13
275
     0
280
     0
281
     0
282
     0
283
     0
284
     8
285
     0
286
     0
287
     3
288
     0
  0
DIMSTYLE
105
1121
330
1E
100
AcDbSymbolTableRecord
100
AcDbDimStyleTableRecord
  2
STANDARD
 70
     0
  3

  4

  5

  6

  7

 40
1.0
 41
0.18
 42
0.0625
 43
0.38
 44
0.18
 45
0.0
 46
0.0
 47
0.0
 48
0.0
140
0.18
141
0.09
142
0.0
143
25.4
144
1.0
145
0.0
146
1.0
147
0.09
 71
     0
 72
     0
 73
     1
 74
     1
 75
     0
 76
     0
 77
     0
 78
     0
170
     0
171
     2
172
     0
173
     0
174
     0
175
     0
176
     0
177
     0
178
     0
270
     2
271
     4
272
     4
273
     2
274
     2
340
13
275
     0
280
     0
281
     0
282
     0
283
     1
284
     0
285
     0
286
     0
287
     3
288
     0
  0
DIMSTYLE
105
1122
330
1E
100
AcDbSymbolTableRecord
100
AcDbDimStyleTableRecord
  2
AM_ANSI
 70
     0
  3

  4
mm
  5

  6

  7

 40
1.0
 41
0.1
 42
0.05
 43
0.5
 44
0.1
 45
0.0
 46
0.0
 47
0.1
 48
0.1
140
0.12
141
0.0
142
0.0
143
25.4
144
1.0
145
0.0
146
0.71
147
0.06
 71
     0
 72
     0
 73
     1
 74
     1
 75
     0
 76
     0
 77
     0
 78
     7
170
     0
171
     2
172
     0
173
     0
174
     0
175
     0
176
   256
177
   256
178
     2
270
     2
271
     4
272
     4
273
     2
274
     4
340
13
275
     0
280
     0
281
     0
282
     0
283
     1
284
     7
285
     0
286
     0
287
     3
288
     0
  0
DIMSTYLE
105
1123
330
1E
100
AcDbSymbolTableRecord
100
AcDbDimStyleTableRecord
  2
AM_ANSI$3
 70
     0
  3

  4
mm
  5

  6

  7

 40
1.0
 41
0.1
 42
0.05
 43
0.5
 44
0.1
 45
0.0
 46
0.0
 47
0.1
 48
0.1
140
0.12
141
0.0
142
0.0
143
25.4
144
1.0
145
0.0
146
0.71
147
0.06
 71
     0
 72
     0
 73
     1
 74
     1
 75
     0
 76
     0
 77
     0
 78
     7
170
     0
171
     2
172
     0
173
     0
174
     0
175
     0
176
   256
177
   256
178
     2
270
     2
271
     4
272
     4
273
     2
274
     4
340
13
275
     0
280
     0
281
     0
282
     0
283
     1
284
     7
285
     0
286
     0
287
     0
288
     1
  0
DIMSTYLE
105
1124
330
1E
100
AcDbSymbolTableRecord
100
AcDbDimStyleTableRecord
  2
AM_ANSI$4
 70
     0
  3

  4
mm
  5

  6

  7

 40
1.0
 41
0.1
 42
0.05
 43
0.5
 44
0.1
 45
0.0
 46
0.0
 47
0.1
 48
0.1
140
0.12
141
0.0
142
0.0
143
25.4
144
1.0
145
0.0
146
0.71
147
0.06
 71
     0
 72
     0
 73
     1
 74
     1
 75
     0
 76
     0
 77
     0
 78
     7
170
     0
171
     2
172
     0
173
     0
174
     0
175
     0
176
   256
177
   256
178
     2
270
     2
271
     4
272
     4
273
     2
274
     4
340
13
275
     0
280
     0
281
     0
282
     0
283
     1
284
     7
285
     0
286
     0
287
     0
288
     1
  0
DIMSTYLE
105
1125
330
1E
100
AcDbSymbolTableRecord
100
AcDbDimStyleTableRecord
  2
AM_ANSI$7
 70
     0
  3

  4
mm
  5

  6

  7

 40
1.0
 41
0.1
 42
0.05
 43
0.5
 44
0.1
 45
0.0
 46
0.0
 47
0.1
 48
0.1
140
0.24
141
0.0
142
0.0
143
25.4
144
1.0
145
0.0
146
0.71
147
0.06
 71
     0
 72
     0
 73
     1
 74
     1
 75
     0
 76
     0
 77
     0
 78
     7
170
     0
171
     2
172
     0
173
     0
174
     0
175
     0
176
   256
177
   256
178
     2
270
     2
271
     4
272
     4
273
     2
274
     4
340
13
275
     0
280
     0
281
     0
282
     0
283
     1
284
     7
285
     0
286
     0
287
     3
288
     0
  0
DIMSTYLE
105
1126
330
1E
100
AcDbSymbolTableRecord
100
AcDbDimStyleTableRecord
  2
AM_ANSI$SF
 70
     0
  3

  4
mm
  5

  6

  7

 40
1.0
 41
0.1
 42
0.05
 43
0.5
 44
0.1
 45
0.0
 46
0.0
 47
0.1
 48
0.1
140
0.12
141
0.0
142
0.0
143
25.4
144
1.0
145
0.0
146
0.71
147
0.06
 71
     0
 72
     0
 73
     1
 74
     1
 75
     1
 76
     1
 77
     0
 78
     7
170
     0
171
     2
172
     0
173
     0
174
     0
175
     0
176
   256
177
   256
178
     2
270
     2
271
     4
272
     4
273
     2
274
     4
340
13
275
     0
280
     0
281
     0
282
     0
283
     1
284
     7
285
     0
286
     0
287
     3
288
     0
  0
DIMSTYLE
105
1127
330
1E
100
AcDbSymbolTableRecord
100
AcDbDimStyleTableRecord
  2
AM_ANSI$SH
 70
     0
  3

  4
mm
  5

  6
GENAXEH
  7

 40
1.0
 41
0.1
 42
0.05
 43
0.5
 44
0.1
 45
0.0
 46
0.0
 47
0.1
 48
0.1
140
0.12
141
0.0
142
0.0
143
25.4
144
1.0
145
0.0
146
0.71
147
0.06
 71
     0
 72
     0
 73
     1
 74
     1
 75
     1
 76
     1
 77
     0
 78
     7
170
     0
171
     2
172
     0
173
     1
174
     0
175
     0
176
   256
177
   256
178
     2
270
     2
271
     4
272
     4
273
     2
274
     4
340
13
275
     0
280
     0
281
     0
282
     0
283
     1
284
     7
285
     0
286
     0
287
     3
288
     0
  0
ENDTAB
  0
TABLE
  2
BLOCK_RECORD
  5
1
330
0
100
AcDbSymbolTable
 70
    25
  0
BLOCK_RECORD
  5
2
102
{ACAD_XDICTIONARY
360
3
102
}
330
1
100
AcDbSymbolTableRecord
100
AcDbBlockTableRecord
  2
*MODEL_SPACE
  0
BLOCK_RECORD
  5
D
102
{ACAD_XDICTIONARY
360
3C08
102
}
330
1
100
AcDbSymbolTableRecord
100
AcDbBlockTableRecord
  2
*PAPER_SPACE
  0
BLOCK_RECORD
  5
21C
330
1
100
AcDbSymbolTableRecord
100
AcDbBlockTableRecord
  2
GENAXEH
  0
BLOCK_RECORD
  5
F83
330
1
100
AcDbSymbolTableRecord
100
AcDbBlockTableRecord
  2
*D1
  0
BLOCK_RECORD
  5
F8F
330
1
100
AcDbSymbolTableRecord
100
AcDbBlockTableRecord
  2
*D2
  0
BLOCK_RECORD
  5
F9D
330
1
100
AcDbSymbolTableRecord
100
AcDbBlockTableRecord
  2
*D3
  0
BLOCK_RECORD
  5
FA9
330
1
100
AcDbSymbolTableRecord
100
AcDbBlockTableRecord
  2
*D4
  0
BLOCK_RECORD
  5
FB5
330
1
100
AcDbSymbolTableRecord
100
AcDbBlockTableRecord
  2
*D5
  0
BLOCK_RECORD
  5
FC1
330
1
100
AcDbSymbolTableRecord
100
AcDbBlockTableRecord
  2
*D6
  0
BLOCK_RECORD
  5
FCD
330
1
100
AcDbSymbolTableRecord
100
AcDbBlockTableRecord
  2
*D7
  0
BLOCK_RECORD
  5
FDB
330
1
100
AcDbSymbolTableRecord
100
AcDbBlockTableRecord
  2
*D8
  0
BLOCK_RECORD
  5
FE8
330
1
100
AcDbSymbolTableRecord
100
AcDbBlockTableRecord
  2
*D9
  0
BLOCK_RECORD
  5
FF4
330
1
100
AcDbSymbolTableRecord
100
AcDbBlockTableRecord
  2
*D10
  0
BLOCK_RECORD
  5
2D3C
330
1
100
AcDbSymbolTableRecord
100
AcDbBlockTableRecord
  2
*D11
  0
BLOCK_RECORD
  5
2D74
330
1
100
AcDbSymbolTableRecord
100
AcDbBlockTableRecord
  2
*D12
  0
BLOCK_RECORD
  5
2DAC
330
1
100
AcDbSymbolTableRecord
100
AcDbBlockTableRecord
  2
*D13
  0
BLOCK_RECORD
  5
2DE4
330
1
100
AcDbSymbolTableRecord
100
AcDbBlockTableRecord
  2
*D14
  0
BLOCK_RECORD
  5
2EDF
330
1
100
AcDbSymbolTableRecord
100
AcDbBlockTableRecord
  2
*D15
  0
BLOCK_RECORD
  5
2F17
330
1
100
AcDbSymbolTableRecord
100
AcDbBlockTableRecord
  2
*D16
  0
BLOCK_RECORD
  5
2F4F
330
1
100
AcDbSymbolTableRecord
100
AcDbBlockTableRecord
  2
*D17
  0
BLOCK_RECORD
  5
2F87
330
1
100
AcDbSymbolTableRecord
100
AcDbBlockTableRecord
  2
*D18
  0
BLOCK_RECORD
  5
2FBF
330
1
100
AcDbSymbolTableRecord
100
AcDbBlockTableRecord
  2
*D19
  0
BLOCK_RECORD
  5
2FF7
330
1
100
AcDbSymbolTableRecord
100
AcDbBlockTableRecord
  2
*D20
  0
BLOCK_RECORD
  5
3547
330
1
100
AcDbSymbolTableRecord
100
AcDbBlockTableRecord
  2
*D22
  0
BLOCK_RECORD
  5
3C0A
330
1
100
AcDbSymbolTableRecord
100
AcDbBlockTableRecord
  2
*S23
  0
BLOCK_RECORD
  5
3C13
330
1
100
AcDbSymbolTableRecord
100
AcDbBlockTableRecord
  2
*S24
  0
ENDTAB
  0
ENDSEC
  0
SECTION
  2
BLOCKS
  0
BLOCK
  5
4
330
2
100
AcDbEntity
  8
0
100
AcDbBlockBegin
  2
*MODEL_SPACE
 70
     0
 10
0.0
 20
0.0
 30
0.0
  3
*MODEL_SPACE
  1

  0
ENDBLK
  5
A
330
2
100
AcDbEntity
  8
0
100
AcDbBlockEnd
  0
BLOCK
  5
E
330
D
100
AcDbEntity
 67
     1
  8
0
100
AcDbBlockBegin
  2
*PAPER_SPACE
 70
     0
 10
0.0
 20
0.0
 30
0.0
  3
*PAPER_SPACE
  1

  0
ENDBLK
  5
F
330
D
100
AcDbEntity
 67
     1
  8
0
100
AcDbBlockEnd
  0
BLOCK
  5
21E
330
21C
100
AcDbEntity
  8
0
100
AcDbBlockBegin
  2
GENAXEH
 70
     0
 10
0.0
 20
0.0
 30
0.0
  3
GENAXEH
  1

  0
LINE
  5
21D
330
21C
100
AcDbEntity
  8
0
100
AcDbLine
 10
-1.0
 20
0.0
 30
0.0
 11
1.0
 21
0.0
 31
0.0
  0
ENDBLK
  5
21F
330
21C
100
AcDbEntity
  8
0
100
AcDbBlockEnd
  0
BLOCK
  5
F8D
330
F83
100
AcDbEntity
  8
0
100
AcDbBlockBegin
  2
*D1
 70
     1
 10
0.0
 20
0.0
 30
0.0
  3
*D1
  1

  0
LINE
  5
3030
330
F83
100
AcDbEntity
  8
AM_PARDIM
100
AcDbLine
 10
78.37464887656421
 20
116.1938113892625
 30
0.0
 11
116.7825708695175
 21
116.1938113892624
 31
0.0
  0
LINE
  5
3031
330
F83
100
AcDbEntity
  8
AM_PARDIM
100
AcDbLine
 10
78.37464887656421
 20
128.6938113892625
 30
0.0
 11
116.7825708695175
 21
128.6938113892625
 31
0.0
  0
LINE
  5
3032
330
F83
100
AcDbEntity
  8
AM_PARDIM
100
AcDbLine
 10
114.5325708695175
 20
120.6938113892624
 30
0.0
 11
114.5325708695175
 21
124.1938113892624
 31
0.0
  0
LINE
  5
3033
330
F83
100
AcDbEntity
  8
AM_PARDIM
100
AcDbLine
 10
114.5325708695175
 20
128.6938113892625
 30
0.0
 11
114.5325708695175
 21
146.8945987908373
 31
0.0
  0
SOLID
  5
3034
330
F83
100
AcDbEntity
  8
AM_PARDIM
100
AcDbTrace
 10
113.7825708695175
 20
120.6938113892624
 30
0.0
 11
115.2825708695175
 21
120.6938113892624
 31
0.0
 12
114.5325708695175
 22
116.1938113892624
 32
0.0
 13
114.5325708695175
 23
116.1938113892624
 33
0.0
  0
SOLID
  5
3035
330
F83
100
AcDbEntity
  8
AM_PARDIM
100
AcDbTrace
 10
113.7825708695175
 20
124.1938113892624
 30
0.0
 11
115.2825708695175
 21
124.1938113892624
 31
0.0
 12
114.5325708695175
 22
128.6938113892625
 32
0.0
 13
114.5325708695175
 23
128.6938113892625
 33
0.0
  0
MTEXT
  5
3036
330
F83
100
AcDbEntity
  8
AM_PARDIM
100
AcDbMText
 10
110.770366145108
 20
140.0442050900499
 30
0.0
 40
4.5
 41
0.0
 71
     5
 72
     1
  1
12.5
  7
CHINA
 11
0.0000000000000001
 21
1.0
 31
0.0
1001
ACAD
1000
MTEXTBEGIN
1070
    73
1070
     1
1070
    44
1040
1.0
1070
    74
1070
     0
1000
MTEXTEND
  0
POINT
  5
3037
330
F83
100
AcDbEntity
  8
DEFPOINTS
 62
     0
100
AcDbPoint
 10
75.37464887656421
 20
116.1938113892625
 30
0.0
  0
POINT
  5
3038
330
F83
100
AcDbEntity
  8
DEFPOINTS
 62
     0
100
AcDbPoint
 10
75.37464887656421
 20
128.6938113892625
 30
0.0
  0
POINT
  5
3039
330
F83
100
AcDbEntity
  8
DEFPOINTS
 62
     0
100
AcDbPoint
 10
114.5325708695175
 20
128.6938113892625
 30
0.0
  0
ENDBLK
  5
F8E
330
F83
100
AcDbEntity
  8
0
100
AcDbBlockEnd
  0
BLOCK
  5
F9B
330
F8F
100
AcDbEntity
  8
0
100
AcDbBlockBegin
  2
*D2
 70
     1
 10
0.0
 20
0.0
 30
0.0
  3
*D2
  1

  0
LINE
  5
303A
330
F8F
100
AcDbEntity
  8
AM_PARDIM
100
AcDbLine
 10
35.87464887656421
 20
116.1938113892625
 30
0.0
 11
24.6246488765642
 21
116.1938113892625
 31
0.0
  0
LINE
  5
303B
330
F8F
100
AcDbEntity
  8
AM_PARDIM
100
AcDbLine
 10
35.87464887656421
 20
122.1938113892624
 30
0.0
 11
24.62464887656421
 21
122.1938113892625
 31
0.0
  0
LINE
  5
303C
330
F8F
100
AcDbEntity
  8
AM_PARDIM
100
AcDbLine
 10
26.8746488765642
 20
111.6938113892625
 30
0.0
 11
26.8746488765642
 21
107.1938113892625
 31
0.0
  0
LINE
  5
303D
330
F8F
100
AcDbEntity
  8
AM_PARDIM
100
AcDbLine
 10
26.87464887656421
 20
126.6938113892625
 30
0.0
 11
26.87464887656421
 21
131.1938113892625
 31
0.0
  0
LINE
  5
303E
330
F8F
100
AcDbEntity
  8
AM_PARDIM
100
AcDbLine
 10
26.8746488765642
 20
116.1938113892625
 30
0.0
 11
26.87464887656421
 21
122.1938113892625
 31
0.0
  0
SOLID
  5
303F
330
F8F
100
AcDbEntity
  8
AM_PARDIM
100
AcDbTrace
 10
26.1246488765642
 20
111.6938113892625
 30
0.0
 11
27.6246488765642
 21
111.6938113892625
 31
0.0
 12
26.8746488765642
 22
116.1938113892625
 32
0.0
 13
26.8746488765642
 23
116.1938113892625
 33
0.0
  0
SOLID
  5
3040
330
F8F
100
AcDbEntity
  8
AM_PARDIM
100
AcDbTrace
 10
26.1246488765642
 20
126.6938113892625
 30
0.0
 11
27.6246488765642
 21
126.6938113892625
 31
0.0
 12
26.87464887656421
 22
122.1938113892625
 32
0.0
 13
26.87464887656421
 23
122.1938113892625
 33
0.0
  0
MTEXT
  5
3041
330
F8F
100
AcDbEntity
  8
AM_PARDIM
100
AcDbMText
 10
23.12464887656418
 20
119.1938113892625
 30
0.0
 40
4.5
 41
0.0
 71
     5
 72
     1
  1
6
  7
CHINA
 11
0.0000000000000001
 21
1.0
 31
0.0
1001
ACAD
1000
MTEXTBEGIN
1070
    73
1070
     1
1070
    44
1040
1.0
1070
    74
1070
     0
1000
MTEXTEND
  0
POINT
  5
3042
330
F8F
100
AcDbEntity
  8
DEFPOINTS
 62
     0
100
AcDbPoint
 10
38.8746488765642
 20
116.1938113892625
 30
0.0
  0
POINT
  5
3043
330
F8F
100
AcDbEntity
  8
DEFPOINTS
 62
     0
100
AcDbPoint
 10
38.8746488765642
 20
122.1938113892624
 30
0.0
  0
POINT
  5
3044
330
F8F
100
AcDbEntity
  8
DEFPOINTS
 62
     0
100
AcDbPoint
 10
26.87464887656421
 20
122.1938113892625
 30
0.0
  0
ENDBLK
  5
F9C
330
F8F
100
AcDbEntity
  8
0
100
AcDbBlockEnd
  0
BLOCK
  5
FA7
330
F9D
100
AcDbEntity
  8
0
100
AcDbBlockBegin
  2
*D3
 70
     1
 10
0.0
 20
0.0
 30
0.0
  3
*D3
  1

  0
LINE
  5
3045
330
F9D
100
AcDbEntity
  8
AM_PARDIM
100
AcDbLine
 10
38.8746488765642
 20
125.1938113892624
 30
0.0
 11
38.8746488765642
 21
142.9438113892624
 31
0.0
  0
LINE
  5
3046
330
F9D
100
AcDbEntity
  8
AM_PARDIM
100
AcDbLine
 10
50.87464887656421
 20
125.1938113892624
 30
0.0
 11
50.87464887656421
 21
142.9438113892624
 31
0.0
  0
LINE
  5
3047
330
F9D
100
AcDbEntity
  8
AM_PARDIM
100
AcDbLine
 10
34.37464887656421
 20
140.6938113892624
 30
0.0
 11
29.8746488765642
 21
140.6938113892624
 31
0.0
  0
LINE
  5
3048
330
F9D
100
AcDbEntity
  8
AM_PARDIM
100
AcDbLine
 10
55.37464887656421
 20
140.6938113892624
 30
0.0
 11
59.87464887656421
 21
140.6938113892624
 31
0.0
  0
LINE
  5
3049
330
F9D
100
AcDbEntity
  8
AM_PARDIM
100
AcDbLine
 10
38.8746488765642
 20
140.6938113892624
 30
0.0
 11
50.87464887656421
 21
140.6938113892624
 31
0.0
  0
SOLID
  5
304A
330
F9D
100
AcDbEntity
  8
AM_PARDIM
100
AcDbTrace
 10
34.37464887656421
 20
141.4438113892624
 30
0.0
 11
34.37464887656421
 21
139.9438113892624
 31
0.0
 12
38.8746488765642
 22
140.6938113892624
 32
0.0
 13
38.8746488765642
 23
140.6938113892624
 33
0.0
  0
SOLID
  5
304B
330
F9D
100
AcDbEntity
  8
AM_PARDIM
100
AcDbTrace
 10
55.37464887656421
 20
141.4438113892624
 30
0.0
 11
55.37464887656421
 21
139.9438113892624
 31
0.0
 12
50.87464887656421
 22
140.6938113892624
 32
0.0
 13
50.87464887656421
 23
140.6938113892624
 33
0.0
  0
MTEXT
  5
304C
330
F9D
100
AcDbEntity
  8
AM_PARDIM
100
AcDbMText
 10
44.87464887656421
 20
144.4442050900499
 30
0.0
 40
4.5
 41
0.0
 71
     5
 72
     1
  1
12
  7
CHINA
1001
ACAD
1000
MTEXTBEGIN
1070
    73
1070
     1
1070
    44
1040
1.0
1070
    74
1070
     0
1000
MTEXTEND
  0
POINT
  5
304D
330
F9D
100
AcDbEntity
  8
DEFPOINTS
 62
     0
100
AcDbPoint
 10
38.8746488765642
 20
122.1938113892624
 30
0.0
  0
POINT
  5
304E
330
F9D
100
AcDbEntity
  8
DEFPOINTS
 62
     0
100
AcDbPoint
 10
50.87464887656421
 20
122.1938113892624
 30
0.0
  0
POINT
  5
304F
330
F9D
100
AcDbEntity
  8
DEFPOINTS
 62
     0
100
AcDbPoint
 10
50.87464887656421
 20
140.6938113892624
 30
0.0
  0
ENDBLK
  5
FA8
330
F9D
100
AcDbEntity
  8
0
100
AcDbBlockEnd
  0
BLOCK
  5
FB3
330
FA9
100
AcDbEntity
  8
0
100
AcDbBlockBegin
  2
*D4
 70
     1
 10
0.0
 20
0.0
 30
0.0
  3
*D4
  1

  0
LINE
  5
3050
330
FA9
100
AcDbEntity
  8
AM_PARDIM
100
AcDbLine
 10
38.8746488765642
 20
119.1938113892625
 30
0.0
 11
38.8746488765642
 21
162.9438113892625
 31
0.0
  0
LINE
  5
3051
330
FA9
100
AcDbEntity
  8
AM_PARDIM
100
AcDbLine
 10
75.37464887656421
 20
119.1938113892625
 30
0.0
 11
75.37464887656421
 21
162.9438113892625
 31
0.0
  0
LINE
  5
3052
330
FA9
100
AcDbEntity
  8
AM_PARDIM
100
AcDbLine
 10
43.37464887656421
 20
160.6938113892624
 30
0.0
 11
70.87464887656421
 21
160.6938113892624
 31
0.0
  0
SOLID
  5
3053
330
FA9
100
AcDbEntity
  8
AM_PARDIM
100
AcDbTrace
 10
43.37464887656421
 20
161.4438113892624
 30
0.0
 11
43.37464887656421
 21
159.9438113892625
 31
0.0
 12
38.8746488765642
 22
160.6938113892624
 32
0.0
 13
38.8746488765642
 23
160.6938113892624
 33
0.0
  0
SOLID
  5
3054
330
FA9
100
AcDbEntity
  8
AM_PARDIM
100
AcDbTrace
 10
70.87464887656421
 20
161.4438113892624
 30
0.0
 11
70.87464887656421
 21
159.9438113892625
 31
0.0
 12
75.37464887656421
 22
160.6938113892624
 32
0.0
 13
75.37464887656421
 23
160.6938113892624
 33
0.0
  0
MTEXT
  5
3055
330
FA9
100
AcDbEntity
  8
AM_PARDIM
100
AcDbMText
 10
57.12464887656421
 20
164.4556224128845
 30
0.0
 40
4.5
 41
0.0
 71
     5
 72
     1
  1
36.5
  7
CHINA
1001
ACAD
1000
MTEXTBEGIN
1070
    73
1070
     1
1070
    44
1040
1.0
1070
    74
1070
     0
1000
MTEXTEND
  0
POINT
  5
3056
330
FA9
100
AcDbEntity
  8
DEFPOINTS
 62
     0
100
AcDbPoint
 10
38.8746488765642
 20
116.1938113892625
 30
0.0
  0
POINT
  5
3057
330
FA9
100
AcDbEntity
  8
DEFPOINTS
 62
     0
100
AcDbPoint
 10
75.37464887656421
 20
116.1938113892625
 30
0.0
  0
POINT
  5
3058
330
FA9
100
AcDbEntity
  8
DEFPOINTS
 62
     0
100
AcDbPoint
 10
75.37464887656421
 20
160.6938113892624
 30
0.0
  0
ENDBLK
  5
FB4
330
FA9
100
AcDbEntity
  8
0
100
AcDbBlockEnd
  0
BLOCK
  5
FBF
330
FB5
100
AcDbEntity
  8
0
100
AcDbBlockBegin
  2
*D5
 70
     1
 10
0.0
 20
0.0
 30
0.0
  3
*D5
  1

  0
LINE
  5
3059
330
FB5
100
AcDbEntity
  8
AM_PARDIM
100
AcDbLine
 10
53.8746488765642
 20
127.1938113892624
 30
0.0
 11
106.7825708695175
 21
127.1938113892624
 31
0.0
  0
LINE
  5
305A
330
FB5
100
AcDbEntity
  8
AM_PARDIM
100
AcDbLine
 10
78.37464887656421
 20
116.1938113892625
 30
0.0
 11
106.7825708695175
 21
116.1938113892624
 31
0.0
  0
LINE
  5
305B
330
FB5
100
AcDbEntity
  8
AM_PARDIM
100
AcDbLine
 10
104.5325708695175
 20
131.6938113892625
 30
0.0
 11
104.5325708695175
 21
136.1938113892624
 31
0.0
  0
LINE
  5
305C
330
FB5
100
AcDbEntity
  8
AM_PARDIM
100
AcDbLine
 10
104.5325708695175
 20
111.6938113892624
 30
0.0
 11
104.5325708695175
 21
107.1938113892624
 31
0.0
  0
LINE
  5
305D
330
FB5
100
AcDbEntity
  8
AM_PARDIM
100
AcDbLine
 10
104.5325708695175
 20
127.1938113892624
 30
0.0
 11
104.5325708695175
 21
116.1938113892624
 31
0.0
  0
SOLID
  5
305E
330
FB5
100
AcDbEntity
  8
AM_PARDIM
100
AcDbTrace
 10
103.7825708695175
 20
131.6938113892625
 30
0.0
 11
105.2825708695175
 21
131.6938113892625
 31
0.0
 12
104.5325708695175
 22
127.1938113892624
 32
0.0
 13
104.5325708695175
 23
127.1938113892624
 33
0.0
  0
SOLID
  5
305F
330
FB5
100
AcDbEntity
  8
AM_PARDIM
100
AcDbTrace
 10
103.7825708695175
 20
111.6938113892624
 30
0.0
 11
105.2825708695175
 21
111.6938113892624
 31
0.0
 12
104.5325708695175
 22
116.1938113892624
 32
0.0
 13
104.5325708695175
 23
116.1938113892624
 33
0.0
  0
MTEXT
  5
3060
330
FB5
100
AcDbEntity
  8
AM_PARDIM
100
AcDbMText
 10
100.7825708695175
 20
121.6938113892625
 30
0.0
 40
4.5
 41
0.0
 71
     5
 72
     1
  1
11
  7
CHINA
 11
0.0000000000000001
 21
1.0
 31
0.0
1001
ACAD
1000
MTEXTBEGIN
1070
    73
1070
     1
1070
    44
1040
1.0
1070
    74
1070
     0
1000
MTEXTEND
  0
POINT
  5
3061
330
FB5
100
AcDbEntity
  8
DEFPOINTS
 62
     0
100
AcDbPoint
 10
50.87464887656421
 20
127.1938113892624
 30
0.0
  0
POINT
  5
3062
330
FB5
100
AcDbEntity
  8
DEFPOINTS
 62
     0
100
AcDbPoint
 10
75.37464887656421
 20
116.1938113892625
 30
0.0
  0
POINT
  5
3063
330
FB5
100
AcDbEntity
  8
DEFPOINTS
 62
     0
100
AcDbPoint
 10
104.5325708695175
 20
116.1938113892624
 30
0.0
  0
ENDBLK
  5
FC0
330
FB5
100
AcDbEntity
  8
0
100
AcDbBlockEnd
  0
BLOCK
  5
FCB
330
FC1
100
AcDbEntity
  8
0
100
AcDbBlockBegin
  2
*D6
 70
     1
 10
0.0
 20
0.0
 30
0.0
  3
*D6
  1

  0
LINE
  5
3064
330
FC1
100
AcDbEntity
  8
AM_PARDIM
100
AcDbLine
 10
66.3746488765642
 20
131.6938113892625
 30
0.0
 11
66.3746488765642
 21
152.9438113892624
 31
0.0
  0
LINE
  5
3065
330
FC1
100
AcDbEntity
  8
AM_PARDIM
100
AcDbLine
 10
75.37464887656421
 20
131.6938113892625
 30
0.0
 11
75.37464887656421
 21
152.9438113892624
 31
0.0
  0
LINE
  5
3066
330
FC1
100
AcDbEntity
  8
AM_PARDIM
100
AcDbLine
 10
61.87464887656421
 20
150.6938113892624
 30
0.0
 11
57.37464887656421
 21
150.6938113892624
 31
0.0
  0
LINE
  5
3067
330
FC1
100
AcDbEntity
  8
AM_PARDIM
100
AcDbLine
 10
79.87464887656421
 20
150.6938113892624
 30
0.0
 11
84.37464887656421
 21
150.6938113892624
 31
0.0
  0
LINE
  5
3068
330
FC1
100
AcDbEntity
  8
AM_PARDIM
100
AcDbLine
 10
66.3746488765642
 20
150.6938113892624
 30
0.0
 11
75.37464887656421
 21
150.6938113892624
 31
0.0
  0
SOLID
  5
3069
330
FC1
100
AcDbEntity
  8
AM_PARDIM
100
AcDbTrace
 10
61.87464887656421
 20
151.4438113892625
 30
0.0
 11
61.87464887656421
 21
149.9438113892624
 31
0.0
 12
66.3746488765642
 22
150.6938113892624
 32
0.0
 13
66.3746488765642
 23
150.6938113892624
 33
0.0
  0
SOLID
  5
306A
330
FC1
100
AcDbEntity
  8
AM_PARDIM
100
AcDbTrace
 10
79.87464887656421
 20
151.4438113892625
 30
0.0
 11
79.87464887656421
 21
149.9438113892624
 31
0.0
 12
75.37464887656421
 22
150.6938113892624
 32
0.0
 13
75.37464887656421
 23
150.6938113892624
 33
0.0
  0
MTEXT
  5
306B
330
FC1
100
AcDbEntity
  8
AM_PARDIM
100
AcDbMText
 10
70.87464887656421
 20
154.4438113892624
 30
0.0
 40
4.5
 41
0.0
 71
     5
 72
     1
  1
9
  7
CHINA
1001
ACAD
1000
MTEXTBEGIN
1070
    73
1070
     1
1070
    44
1040
1.0
1070
    74
1070
     0
1000
MTEXTEND
  0
POINT
  5
306C
330
FC1
100
AcDbEntity
  8
DEFPOINTS
 62
     0
100
AcDbPoint
 10
66.3746488765642
 20
128.6938113892625
 30
0.0
  0
POINT
  5
306D
330
FC1
100
AcDbEntity
  8
DEFPOINTS
 62
     0
100
AcDbPoint
 10
75.37464887656421
 20
128.6938113892625
 30
0.0
  0
POINT
  5
306E
330
FC1
100
AcDbEntity
  8
DEFPOINTS
 62
     0
100
AcDbPoint
 10
75.37464887656421
 20
150.6938113892624
 30
0.0
  0
ENDBLK
  5
FCC
330
FC1
100
AcDbEntity
  8
0
100
AcDbBlockEnd
  0
BLOCK
  5
FD9
330
FCD
100
AcDbEntity
  8
0
100
AcDbBlockBegin
  2
*D7
 70
     1
 10
0.0
 20
0.0
 30
0.0
  3
*D7
  1

  0
LINE
  5
306F
330
FCD
100
AcDbEntity
  8
AM_PARDIM
100
AcDbLine
 10
63.87464887656418
 20
131.6938113892624
 30
0.0
 11
63.87464887656418
 21
142.9438113892624
 31
0.0
  0
LINE
  5
3070
330
FCD
100
AcDbEntity
  8
AM_PARDIM
100
AcDbLine
 10
66.37464887656418
 20
131.6938113892624
 30
0.0
 11
66.37464887656418
 21
142.9438113892624
 31
0.0
  0
LINE
  5
3071
330
FCD
100
AcDbEntity
  8
AM_PARDIM
100
AcDbLine
 10
59.37464887656418
 20
140.6938113892624
 30
0.0
 11
54.87464887656418
 21
140.6938113892624
 31
0.0
  0
LINE
  5
3072
330
FCD
100
AcDbEntity
  8
AM_PARDIM
100
AcDbLine
 10
70.87464887656418
 20
140.6938113892624
 30
0.0
 11
86.03842840412324
 21
140.6938113892624
 31
0.0
  0
LINE
  5
3073
330
FCD
100
AcDbEntity
  8
AM_PARDIM
100
AcDbLine
 10
63.87464887656418
 20
140.6938113892624
 30
0.0
 11
66.37464887656418
 21
140.6938113892624
 31
0.0
  0
SOLID
  5
3074
330
FCD
100
AcDbEntity
  8
AM_PARDIM
100
AcDbTrace
 10
59.37464887656418
 20
141.4438113892624
 30
0.0
 11
59.37464887656418
 21
139.9438113892624
 31
0.0
 12
63.87464887656418
 22
140.6938113892624
 32
0.0
 13
63.87464887656418
 23
140.6938113892624
 33
0.0
  0
SOLID
  5
3075
330
FCD
100
AcDbEntity
  8
AM_PARDIM
100
AcDbTrace
 10
70.87464887656418
 20
141.4438113892624
 30
0.0
 11
70.87464887656418
 21
139.9438113892624
 31
0.0
 12
66.37464887656418
 22
140.6938113892624
 32
0.0
 13
66.37464887656418
 23
140.6938113892624
 33
0.0
  0
MTEXT
  5
3076
330
FCD
100
AcDbEntity
  8
AM_PARDIM
100
AcDbMText
 10
80.70653864034371
 20
144.4560161136719
 30
0.0
 40
4.5
 41
0.0
 71
     5
 72
     1
  1
2.5
  7
CHINA
1001
ACAD
1000
MTEXTBEGIN
1070
    73
1070
     1
1070
    44
1040
1.0
1070
    74
1070
     0
1000
MTEXTEND
  0
POINT
  5
3077
330
FCD
100
AcDbEntity
  8
DEFPOINTS
 62
     0
100
AcDbPoint
 10
63.87464887656418
 20
128.6938113892624
 30
0.0
  0
POINT
  5
3078
330
FCD
100
AcDbEntity
  8
DEFPOINTS
 62
     0
100
AcDbPoint
 10
66.37464887656418
 20
128.6938113892624
 30
0.0
  0
POINT
  5
3079
330
FCD
100
AcDbEntity
  8
DEFPOINTS
 62
     0
100
AcDbPoint
 10
66.37464887656418
 20
140.6938113892624
 30
0.0
  0
ENDBLK
  5
FDA
330
FCD
100
AcDbEntity
  8
0
100
AcDbBlockEnd
  0
BLOCK
  5
FE6
330
FDB
100
AcDbEntity
  8
0
100
AcDbBlockBegin
  2
*D8
 70
     1
 10
0.0
 20
0.0
 30
0.0
  3
*D8
  1

  0
LINE
  5
307A
330
FDB
100
AcDbEntity
  8
AM_PARDIM
100
AcDbLine
 10
66.37464887656418
 20
131.6938113892624
 30
0.0
 11
66.37464887656418
 21
138.280378563861
 31
0.0
  0
LINE
  5
307B
330
FDB
100
AcDbEntity
  8
AM_PARDIM
100
AcDbLine
 10
66.37464887656418
 20
119.1938113892624
 30
0.0
 11
66.37464887656418
 21
138.280378563861
 31
0.0
  0
LINE
  5
307C
330
FDB
100
AcDbEntity
  8
AM_PARDIM
100
AcDbLine
 10
61.87464887656418
 20
136.030378563861
 30
0.0
 11
57.37464887656418
 21
136.030378563861
 31
0.0
  0
LINE
  5
307D
330
FDB
100
AcDbEntity
  8
AM_PARDIM
100
AcDbLine
 10
70.87464887656418
 20
136.030378563861
 30
0.0
 11
80.77464887656418
 21
136.030378563861
 31
0.0
  0
SOLID
  5
307E
330
FDB
100
AcDbEntity
  8
AM_PARDIM
100
AcDbTrace
 10
61.87464887656418
 20
136.780378563861
 30
0.0
 11
61.87464887656418
 21
135.280378563861
 31
0.0
 12
66.37464887656418
 22
136.030378563861
 32
0.0
 13
66.37464887656418
 23
136.030378563861
 33
0.0
  0
SOLID
  5
307F
330
FDB
100
AcDbEntity
  8
AM_PARDIM
100
AcDbTrace
 10
70.87464887656418
 20
136.780378563861
 30
0.0
 11
70.87464887656418
 21
135.280378563861
 31
0.0
 12
66.37464887656418
 22
136.030378563861
 32
0.0
 13
66.37464887656418
 23
136.030378563861
 33
0.0
  0
MTEXT
  5
3080
330
FDB
100
AcDbEntity
  8
AM_PARDIM
100
AcDbMText
 10
78.07464887656418
 20
139.780378563861
 30
0.0
 40
4.5
 41
0.0
 71
     5
 72
     1
  1
0
  7
CHINA
1001
ACAD
1000
MTEXTBEGIN
1070
    73
1070
     1
1070
    44
1040
1.0
1070
    74
1070
     0
1000
MTEXTEND
  0
POINT
  5
3081
330
FDB
100
AcDbEntity
  8
DEFPOINTS
 62
     0
100
AcDbPoint
 10
66.37464887656418
 20
128.6938113892624
 30
0.0
  0
POINT
  5
3082
330
FDB
100
AcDbEntity
  8
DEFPOINTS
 62
     0
100
AcDbPoint
 10
66.37464887656418
 20
116.1938113892624
 30
0.0
  0
POINT
  5
3083
330
FDB
100
AcDbEntity
  8
DEFPOINTS
 62
     0
100
AcDbPoint
 10
66.37464887656418
 20
136.030378563861
 30
0.0
  0
ENDBLK
  5
FE7
330
FDB
100
AcDbEntity
  8
0
100
AcDbBlockEnd
  0
BLOCK
  5
FF2
330
FE8
100
AcDbEntity
  8
0
100
AcDbBlockBegin
  2
*D9
 70
     1
 10
0.0
 20
0.0
 30
0.0
  3
*D9
  1

  0
LINE
  5
3084
330
FE8
100
AcDbEntity
  8
AM_PARDIM
100
AcDbLine
 10
66.87464887656418
 20
125.6938113892624
 30
0.0
 11
96.78257086951754
 21
125.6938113892624
 31
0.0
  0
LINE
  5
3085
330
FE8
100
AcDbEntity
  8
AM_PARDIM
100
AcDbLine
 10
85.53257086951754
 20
116.1938113892624
 30
0.0
 11
96.78257086951754
 21
116.1938113892624
 31
0.0
  0
LINE
  5
3086
330
FE8
100
AcDbEntity
  8
AM_PARDIM
100
AcDbLine
 10
94.53257086951754
 20
130.1938113892624
 30
0.0
 11
94.53257086951754
 21
134.6938113892624
 31
0.0
  0
LINE
  5
3087
330
FE8
100
AcDbEntity
  8
AM_PARDIM
100
AcDbLine
 10
94.53257086951754
 20
111.6938113892624
 30
0.0
 11
94.53257086951754
 21
96.89302398768763
 31
0.0
  0
LINE
  5
3088
330
FE8
100
AcDbEntity
  8
AM_PARDIM
100
AcDbLine
 10
94.53257086951754
 20
125.6938113892624
 30
0.0
 11
94.53257086951754
 21
116.1938113892624
 31
0.0
  0
SOLID
  5
3089
330
FE8
100
AcDbEntity
  8
AM_PARDIM
100
AcDbTrace
 10
93.78257086951753
 20
130.1938113892624
 30
0.0
 11
95.28257086951754
 21
130.1938113892624
 31
0.0
 12
94.53257086951754
 22
125.6938113892624
 32
0.0
 13
94.53257086951754
 23
125.6938113892624
 33
0.0
  0
SOLID
  5
308A
330
FE8
100
AcDbEntity
  8
AM_PARDIM
100
AcDbTrace
 10
93.78257086951753
 20
111.6938113892624
 30
0.0
 11
95.28257086951754
 21
111.6938113892624
 31
0.0
 12
94.53257086951754
 22
116.1938113892624
 32
0.0
 13
94.53257086951754
 23
116.1938113892624
 33
0.0
  0
MTEXT
  5
308B
330
FE8
100
AcDbEntity
  8
AM_PARDIM
100
AcDbMText
 10
90.77075984589546
 20
102.043417688475
 30
0.0
 40
4.5
 41
0.0
 71
     5
 72
     1
  1
9.5
  7
CHINA
 11
0.0000000000000001
 21
1.0
 31
0.0
1001
ACAD
1000
MTEXTBEGIN
1070
    73
1070
     1
1070
    44
1040
1.0
1070
    74
1070
     0
1000
MTEXTEND
  0
POINT
  5
308C
330
FE8
100
AcDbEntity
  8
DEFPOINTS
 62
     0
100
AcDbPoint
 10
63.87464887656418
 20
125.6938113892624
 30
0.0
  0
POINT
  5
308D
330
FE8
100
AcDbEntity
  8
DEFPOINTS
 62
     0
100
AcDbPoint
 10
82.53257086951753
 20
116.1938113892624
 30
0.0
  0
POINT
  5
308E
330
FE8
100
AcDbEntity
  8
DEFPOINTS
 62
     0
100
AcDbPoint
 10
94.53257086951754
 20
116.1938113892624
 30
0.0
  0
ENDBLK
  5
FF3
330
FE8
100
AcDbEntity
  8
0
100
AcDbBlockEnd
  0
BLOCK
  5
FFE
330
FF4
100
AcDbEntity
  8
0
100
AcDbBlockBegin
  2
*D10
 70
     1
 10
0.0
 20
0.0
 30
0.0
  3
*D10
  1

  0
LINE
  5
308F
330
FF4
100
AcDbEntity
  8
AM_PARDIM
100
AcDbLine
 10
69.37464887656418
 20
128.6938113892624
 30
0.0
 11
126.7825708695175
 21
128.6938113892624
 31
0.0
  0
LINE
  5
3090
330
FF4
100
AcDbEntity
  8
AM_PARDIM
100
AcDbLine
 10
85.53257086951754
 20
116.1938113892624
 30
0.0
 11
126.7825708695175
 21
116.1938113892624
 31
0.0
  0
LINE
  5
3091
330
FF4
100
AcDbEntity
  8
AM_PARDIM
100
AcDbLine
 10
124.5325708695175
 20
124.1938113892624
 30
0.0
 11
124.5325708695175
 21
120.6938113892624
 31
0.0
  0
LINE
  5
3092
330
FF4
100
AcDbEntity
  8
AM_PARDIM
100
AcDbLine
 10
124.5325708695175
 20
116.1938113892624
 30
0.0
 11
124.5325708695175
 21
97.99302398768762
 31
0.0
  0
SOLID
  5
3093
330
FF4
100
AcDbEntity
  8
AM_PARDIM
100
AcDbTrace
 10
123.7825708695175
 20
124.1938113892624
 30
0.0
 11
125.2825708695175
 21
124.1938113892624
 31
0.0
 12
124.5325708695175
 22
128.6938113892624
 32
0.0
 13
124.5325708695175
 23
128.6938113892624
 33
0.0
  0
SOLID
  5
3094
330
FF4
100
AcDbEntity
  8
AM_PARDIM
100
AcDbTrace
 10
123.7825708695175
 20
120.6938113892624
 30
0.0
 11
125.2825708695175
 21
120.6938113892624
 31
0.0
 12
124.5325708695175
 22
116.1938113892624
 32
0.0
 13
124.5325708695175
 23
116.1938113892624
 33
0.0
  0
MTEXT
  5
3095
330
FF4
100
AcDbEntity
  8
AM_PARDIM
100
AcDbMText
 10
120.770366145108
 20
104.843417688475
 30
0.0
 40
4.5
 41
0.0
 71
     5
 72
     1
  1
12.5
  7
CHINA
 11
0.0000000000000001
 21
1.0
 31
0.0
1001
ACAD
1000
MTEXTBEGIN
1070
    73
1070
     1
1070
    44
1040
1.0
1070
    74
1070
     0
1000
MTEXTEND
  0
POINT
  5
3096
330
FF4
100
AcDbEntity
  8
DEFPOINTS
 62
     0
100
AcDbPoint
 10
66.37464887656418
 20
128.6938113892624
 30
0.0
  0
POINT
  5
3097
330
FF4
100
AcDbEntity
  8
DEFPOINTS
 62
     0
100
AcDbPoint
 10
82.53257086951753
 20
116.1938113892624
 30
0.0
  0
POINT
  5
3098
330
FF4
100
AcDbEntity
  8
DEFPOINTS
 62
     0
100
AcDbPoint
 10
124.5325708695175
 20
116.1938113892624
 30
0.0
  0
ENDBLK
  5
FFF
330
FF4
100
AcDbEntity
  8
0
100
AcDbBlockEnd
  0
BLOCK
  5
2D46
330
2D3C
100
AcDbEntity
  8
0
100
AcDbBlockBegin
  2
*D11
 70
     1
 10
0.0
 20
0.0
 30
0.0
  3
*D11
  1

  0
LINE
  5
3B5B
330
2D3C
100
AcDbEntity
  8
AM_5
100
AcDbLine
 10
2068.201441279238
 20
329.6431085244479
 30
0.0
 11
2080.451441279238
 21
329.6431085244479
 31
0.0
  0
LINE
  5
3B5C
330
2D3C
100
AcDbEntity
  8
AM_5
100
AcDbLine
 10
2068.201441279238
 20
351.6431085245479
 30
0.0
 11
2080.451441279238
 21
351.6431085245479
 31
0.0
  0
LINE
  5
3B5D
330
2D3C
100
AcDbEntity
  8
AM_5
100
AcDbLine
 10
2078.201441279238
 20
334.1431085244479
 30
0.0
 11
2078.201441279238
 21
347.1431085245479
 31
0.0
  0
SOLID
  5
3B5E
330
2D3C
100
AcDbEntity
  8
AM_5
100
AcDbTrace
 10
2077.451441279238
 20
334.1431085244479
 30
0.0
 11
2078.951441279238
 21
334.1431085244479
 31
0.0
 12
2078.201441279238
 22
329.6431085244479
 32
0.0
 13
2078.201441279238
 23
329.6431085244479
 33
0.0
  0
SOLID
  5
3B5F
330
2D3C
100
AcDbEntity
  8
AM_5
100
AcDbTrace
 10
2077.451441279238
 20
347.1431085245479
 30
0.0
 11
2078.951441279238
 21
347.1431085245479
 31
0.0
 12
2078.201441279238
 22
351.6431085245479
 32
0.0
 13
2078.201441279238
 23
351.6431085245479
 33
0.0
  0
MTEXT
  5
3B60
330
2D3C
100
AcDbEntity
  8
AM_5
100
AcDbMText
 10
2074.45104757845
 20
340.6431085244983
 30
0.0
 40
4.5
 41
0.0
 71
     5
 72
     1
  1
22
  7
CHINA
 11
0.0000000000000001
 21
1.0
 31
0.0
1001
ACAD
1000
MTEXTBEGIN
1070
    73
1070
     1
1070
    44
1040
1.0
1070
    74
1070
     0
1000
MTEXTEND
  0
POINT
  5
3B61
330
2D3C
100
AcDbEntity
  8
DEFPOINTS
 62
     0
100
AcDbPoint
 10
2065.201441279238
 20
329.6431085244479
 30
0.0
  0
POINT
  5
3B62
330
2D3C
100
AcDbEntity
  8
DEFPOINTS
 62
     0
100
AcDbPoint
 10
2065.201441279238
 20
351.6431085245479
 30
0.0
  0
POINT
  5
3B63
330
2D3C
100
AcDbEntity
  8
DEFPOINTS
 62
     0
100
AcDbPoint
 10
2078.201441279238
 20
351.6431085245479
 30
0.0
  0
ENDBLK
  5
2D47
330
2D3C
100
AcDbEntity
  8
0
100
AcDbBlockEnd
  0
BLOCK
  5
2D7E
330
2D74
100
AcDbEntity
  8
0
100
AcDbBlockBegin
  2
*D12
 70
     1
 10
0.0
 20
0.0
 30
0.0
  3
*D12
  1

  0
LINE
  5
3B52
330
2D74
100
AcDbEntity
  8
AM_5
100
AcDbLine
 10
2042.451441279138
 20
313.1431085244479
 30
0.0
 11
2090.451441279238
 21
313.1431085244479
 31
0.0
  0
LINE
  5
3B53
330
2D74
100
AcDbEntity
  8
AM_5
100
AcDbLine
 10
2042.451441279138
 20
368.1431085244479
 30
0.0
 11
2090.451441279238
 21
368.1431085244479
 31
0.0
  0
LINE
  5
3B54
330
2D74
100
AcDbEntity
  8
AM_5
100
AcDbLine
 10
2088.201441279238
 20
317.6431085244479
 30
0.0
 11
2088.201441279238
 21
363.6431085244479
 31
0.0
  0
SOLID
  5
3B55
330
2D74
100
AcDbEntity
  8
AM_5
100
AcDbTrace
 10
2087.451441279238
 20
317.6431085244479
 30
0.0
 11
2088.951441279238
 21
317.6431085244479
 31
0.0
 12
2088.201441279238
 22
313.1431085244479
 32
0.0
 13
2088.201441279238
 23
313.1431085244479
 33
0.0
  0
SOLID
  5
3B56
330
2D74
100
AcDbEntity
  8
AM_5
100
AcDbTrace
 10
2087.451441279238
 20
363.6431085244479
 30
0.0
 11
2088.951441279238
 21
363.6431085244479
 31
0.0
 12
2088.201441279238
 22
368.1431085244479
 32
0.0
 13
2088.201441279238
 23
368.1431085244479
 33
0.0
  0
MTEXT
  5
3B57
330
2D74
100
AcDbEntity
  8
AM_5
100
AcDbMText
 10
2084.439630255615
 20
340.6431085244483
 30
0.0
 40
4.5
 41
0.0
 71
     5
 72
     1
  1
55
  7
CHINA
 11
0.0000000000000001
 21
1.0
 31
0.0
1001
ACAD
1000
MTEXTBEGIN
1070
    73
1070
     1
1070
    44
1040
1.0
1070
    74
1070
     0
1000
MTEXTEND
  0
POINT
  5
3B58
330
2D74
100
AcDbEntity
  8
DEFPOINTS
 62
     0
100
AcDbPoint
 10
2039.451441279138
 20
313.1431085244479
 30
0.0
  0
POINT
  5
3B59
330
2D74
100
AcDbEntity
  8
DEFPOINTS
 62
     0
100
AcDbPoint
 10
2039.451441279138
 20
368.1431085244479
 30
0.0
  0
POINT
  5
3B5A
330
2D74
100
AcDbEntity
  8
DEFPOINTS
 62
     0
100
AcDbPoint
 10
2088.201441279238
 20
368.1431085244479
 30
0.0
  0
ENDBLK
  5
2D7F
330
2D74
100
AcDbEntity
  8
0
100
AcDbBlockEnd
  0
BLOCK
  5
2DB6
330
2DAC
100
AcDbEntity
  8
0
100
AcDbBlockBegin
  2
*D13
 70
     1
 10
0.0
 20
0.0
 30
0.0
  3
*D13
  1

  0
LINE
  5
3B7F
330
2DAC
100
AcDbEntity
  8
AM_5
100
AcDbLine
 10
1978.701441279138
 20
304.3931085244479
 30
0.0
 11
1978.701441279138
 21
292.3931085244479
 31
0.0
  0
LINE
  5
3B80
330
2DAC
100
AcDbEntity
  8
AM_5
100
AcDbLine
 10
2033.701441279138
 20
304.3931085244479
 30
0.0
 11
2033.701441279138
 21
292.3931085244479
 31
0.0
  0
LINE
  5
3B81
330
2DAC
100
AcDbEntity
  8
AM_5
100
AcDbLine
 10
1983.201441279138
 20
294.643108524448
 30
0.0
 11
2029.201441279138
 21
294.643108524448
 31
0.0
  0
SOLID
  5
3B82
330
2DAC
100
AcDbEntity
  8
AM_5
100
AcDbTrace
 10
1983.201441279138
 20
295.393108524448
 30
0.0
 11
1983.201441279138
 21
293.893108524448
 31
0.0
 12
1978.701441279138
 22
294.643108524448
 32
0.0
 13
1978.701441279138
 23
294.643108524448
 33
0.0
  0
SOLID
  5
3B83
330
2DAC
100
AcDbEntity
  8
AM_5
100
AcDbTrace
 10
2029.201441279138
 20
295.393108524448
 30
0.0
 11
2029.201441279138
 21
293.893108524448
 31
0.0
 12
2033.701441279138
 22
294.643108524448
 32
0.0
 13
2033.701441279138
 23
294.643108524448
 33
0.0
  0
MTEXT
  5
3B84
330
2DAC
100
AcDbEntity
  8
AM_5
100
AcDbMText
 10
2006.201441279138
 20
298.40491954807
 30
0.0
 40
4.5
 41
0.0
 71
     5
 72
     1
  1
55
  7
CHINA
1001
ACAD
1000
MTEXTBEGIN
1070
    73
1070
     1
1070
    44
1040
1.0
1070
    74
1070
     0
1000
MTEXTEND
  0
POINT
  5
3B85
330
2DAC
100
AcDbEntity
  8
DEFPOINTS
 62
     0
100
AcDbPoint
 10
1978.701441279138
 20
307.3931085244479
 30
0.0
  0
POINT
  5
3B86
330
2DAC
100
AcDbEntity
  8
DEFPOINTS
 62
     0
100
AcDbPoint
 10
2033.701441279138
 20
307.3931085244479
 30
0.0
  0
POINT
  5
3B87
330
2DAC
100
AcDbEntity
  8
DEFPOINTS
 62
     0
100
AcDbPoint
 10
2033.701441279138
 20
294.643108524448
 30
0.0
  0
ENDBLK
  5
2DB7
330
2DAC
100
AcDbEntity
  8
0
100
AcDbBlockEnd
  0
BLOCK
  5
2DEE
330
2DE4
100
AcDbEntity
  8
0
100
AcDbBlockBegin
  2
*D14
 70
     1
 10
0.0
 20
0.0
 30
0.0
  3
*D14
  1

  0
LINE
  5
3B76
330
2DE4
100
AcDbEntity
  8
AM_5
100
AcDbLine
 10
1972.201441279138
 20
305.6431085244479
 30
0.0
 11
1972.201441279138
 21
282.3931085244479
 31
0.0
  0
LINE
  5
3B77
330
2DE4
100
AcDbEntity
  8
AM_5
100
AcDbLine
 10
2040.201441279138
 20
305.6431085244479
 30
0.0
 11
2040.201441279138
 21
282.3931085244479
 31
0.0
  0
LINE
  5
3B78
330
2DE4
100
AcDbEntity
  8
AM_5
100
AcDbLine
 10
1976.701441279138
 20
284.6431085244479
 30
0.0
 11
2035.701441279138
 21
284.6431085244479
 31
0.0
  0
SOLID
  5
3B79
330
2DE4
100
AcDbEntity
  8
AM_5
100
AcDbTrace
 10
1976.701441279138
 20
285.393108524448
 30
0.0
 11
1976.701441279138
 21
283.893108524448
 31
0.0
 12
1972.201441279138
 22
284.6431085244479
 32
0.0
 13
1972.201441279138
 23
284.6431085244479
 33
0.0
  0
SOLID
  5
3B7A
330
2DE4
100
AcDbEntity
  8
AM_5
100
AcDbTrace
 10
2035.701441279138
 20
285.393108524448
 30
0.0
 11
2035.701441279138
 21
283.893108524448
 31
0.0
 12
2040.201441279138
 22
284.6431085244479
 32
0.0
 13
2040.201441279138
 23
284.6431085244479
 33
0.0
  0
MTEXT
  5
3B7B
330
2DE4
100
AcDbEntity
  8
AM_5
100
AcDbMText
 10
2006.201441279138
 20
288.393108524448
 30
0.0
 40
4.5
 41
0.0
 71
     5
 72
     1
  1
{\Famgdt;o}68
  7
CHINA
1001
ACAD
1000
MTEXTBEGIN
1070
    73
1070
     1
1070
    44
1040
1.0
1070
    74
1070
     0
1000
MTEXTEND
  0
POINT
  5
3B7C
330
2DE4
100
AcDbEntity
  8
DEFPOINTS
 62
     0
100
AcDbPoint
 10
1972.201441279138
 20
308.6431085244479
 30
0.0
  0
POINT
  5
3B7D
330
2DE4
100
AcDbEntity
  8
DEFPOINTS
 62
     0
100
AcDbPoint
 10
2040.201441279138
 20
308.6431085244479
 30
0.0
  0
POINT
  5
3B7E
330
2DE4
100
AcDbEntity
  8
DEFPOINTS
 62
     0
100
AcDbPoint
 10
2040.201441279138
 20
284.6431085244479
 30
0.0
  0
ENDBLK
  5
2DEF
330
2DE4
100
AcDbEntity
  8
0
100
AcDbBlockEnd
  0
BLOCK
  5
2EE9
330
2EDF
100
AcDbEntity
  8
0
100
AcDbBlockBegin
  2
*D15
 70
     1
 10
0.0
 20
0.0
 30
0.0
  3
*D15
  1

  0
LINE
  5
3B6D
330
2EDF
100
AcDbEntity
  8
AM_5
100
AcDbLine
 10
2068.201441279138
 20
253.5868362655709
 30
0.0
 11
2080.451441279138
 21
253.5868362655709
 31
0.0
  0
LINE
  5
3B6E
330
2EDF
100
AcDbEntity
  8
AM_5
100
AcDbLine
 10
2068.201441279138
 20
231.5868362655709
 30
0.0
 11
2080.451441279138
 21
231.5868362655709
 31
0.0
  0
LINE
  5
3B6F
330
2EDF
100
AcDbEntity
  8
AM_5
100
AcDbLine
 10
2078.201441279138
 20
249.0868362655709
 30
0.0
 11
2078.201441279138
 21
236.0868362655709
 31
0.0
  0
SOLID
  5
3B70
330
2EDF
100
AcDbEntity
  8
AM_5
100
AcDbTrace
 10
2077.451441279138
 20
249.0868362655709
 30
0.0
 11
2078.951441279138
 21
249.0868362655709
 31
0.0
 12
2078.201441279138
 22
253.5868362655709
 32
0.0
 13
2078.201441279138
 23
253.5868362655709
 33
0.0
  0
SOLID
  5
3B71
330
2EDF
100
AcDbEntity
  8
AM_5
100
AcDbTrace
 10
2077.451441279138
 20
236.0868362655709
 30
0.0
 11
2078.951441279138
 21
236.0868362655709
 31
0.0
 12
2078.201441279138
 22
231.5868362655709
 32
0.0
 13
2078.201441279138
 23
231.5868362655709
 33
0.0
  0
MTEXT
  5
3B72
330
2EDF
100
AcDbEntity
  8
AM_5
100
AcDbMText
 10
2074.451047578351
 20
242.5868362655712
 30
0.0
 40
4.5
 41
0.0
 71
     5
 72
     1
  1
22
  7
CHINA
 11
0.0000000000000001
 21
1.0
 31
0.0
1001
ACAD
1000
MTEXTBEGIN
1070
    73
1070
     1
1070
    44
1040
1.0
1070
    74
1070
     0
1000
MTEXTEND
  0
POINT
  5
3B73
330
2EDF
100
AcDbEntity
  8
DEFPOINTS
 62
     0
100
AcDbPoint
 10
2065.201441279138
 20
253.5868362655709
 30
0.0
  0
POINT
  5
3B74
330
2EDF
100
AcDbEntity
  8
DEFPOINTS
 62
     0
100
AcDbPoint
 10
2065.201441279138
 20
231.5868362655709
 30
0.0
  0
POINT
  5
3B75
330
2EDF
100
AcDbEntity
  8
DEFPOINTS
 62
     0
100
AcDbPoint
 10
2078.201441279138
 20
231.5868362655709
 30
0.0
  0
ENDBLK
  5
2EEA
330
2EDF
100
AcDbEntity
  8
0
100
AcDbBlockEnd
  0
BLOCK
  5
2F21
330
2F17
100
AcDbEntity
  8
0
100
AcDbBlockBegin
  2
*D16
 70
     1
 10
0.0
 20
0.0
 30
0.0
  3
*D16
  1

  0
LINE
  5
3B2E
330
2F17
100
AcDbEntity
  8
AM_5
100
AcDbLine
 10
2068.201441279138
 20
231.5868362655709
 30
0.0
 11
2080.451441279138
 21
231.5868362655709
 31
0.0
  0
LINE
  5
3B2F
330
2F17
100
AcDbEntity
  8
AM_5
100
AcDbLine
 10
2042.201441279138
 20
118.5868362655709
 30
0.0
 11
2080.451441279138
 21
118.5868362655709
 31
0.0
  0
LINE
  5
3B30
330
2F17
100
AcDbEntity
  8
AM_5
100
AcDbLine
 10
2078.201441279138
 20
227.0868362655709
 30
0.0
 11
2078.201441279138
 21
123.0868362655709
 31
0.0
  0
SOLID
  5
3B31
330
2F17
100
AcDbEntity
  8
AM_5
100
AcDbTrace
 10
2077.451441279138
 20
227.0868362655709
 30
0.0
 11
2078.951441279138
 21
227.0868362655709
 31
0.0
 12
2078.201441279138
 22
231.5868362655709
 32
0.0
 13
2078.201441279138
 23
231.5868362655709
 33
0.0
  0
SOLID
  5
3B32
330
2F17
100
AcDbEntity
  8
AM_5
100
AcDbTrace
 10
2077.451441279138
 20
123.0868362655709
 30
0.0
 11
2078.951441279138
 21
123.0868362655709
 31
0.0
 12
2078.201441279138
 22
118.5868362655709
 32
0.0
 13
2078.201441279138
 23
118.5868362655709
 33
0.0
  0
MTEXT
  5
3B33
330
2F17
100
AcDbEntity
  8
AM_5
100
AcDbMText
 10
2074.451441279138
 20
175.0868362655712
 30
0.0
 40
4.5
 41
0.0
 71
     5
 72
     1
  1
113
  7
CHINA
 11
0.0000000000000001
 21
1.0
 31
0.0
1001
ACAD
1000
MTEXTBEGIN
1070
    73
1070
     1
1070
    44
1040
1.0
1070
    74
1070
     0
1000
MTEXTEND
  0
POINT
  5
3B34
330
2F17
100
AcDbEntity
  8
DEFPOINTS
 62
     0
100
AcDbPoint
 10
2065.201441279138
 20
231.5868362655709
 30
0.0
  0
POINT
  5
3B35
330
2F17
100
AcDbEntity
  8
DEFPOINTS
 62
     0
100
AcDbPoint
 10
2039.201441279138
 20
118.5868362655709
 30
0.0
  0
POINT
  5
3B36
330
2F17
100
AcDbEntity
  8
DEFPOINTS
 62
     0
100
AcDbPoint
 10
2078.201441279138
 20
118.5868362655709
 30
0.0
  0
ENDBLK
  5
2F22
330
2F17
100
AcDbEntity
  8
0
100
AcDbBlockEnd
  0
BLOCK
  5
2F59
330
2F4F
100
AcDbEntity
  8
0
100
AcDbBlockBegin
  2
*D17
 70
     1
 10
0.0
 20
0.0
 30
0.0
  3
*D17
  1

  0
LINE
  5
3B40
330
2F4F
100
AcDbEntity
  8
AM_5
100
AcDbLine
 10
2042.201441279138
 20
118.5868362655709
 30
0.0
 11
2054.451441279138
 21
118.5868362655709
 31
0.0
  0
LINE
  5
3B41
330
2F4F
100
AcDbEntity
  8
AM_5
100
AcDbLine
 10
2042.701441279138
 20
144.5868362655709
 30
0.0
 11
2054.451441279138
 21
144.5868362655709
 31
0.0
  0
LINE
  5
3B42
330
2F4F
100
AcDbEntity
  8
AM_5
100
AcDbLine
 10
2052.201441279138
 20
123.0868362655709
 30
0.0
 11
2052.201441279138
 21
140.0868362655709
 31
0.0
  0
SOLID
  5
3B43
330
2F4F
100
AcDbEntity
  8
AM_5
100
AcDbTrace
 10
2051.451441279138
 20
123.0868362655709
 30
0.0
 11
2052.951441279138
 21
123.0868362655709
 31
0.0
 12
2052.201441279138
 22
118.5868362655709
 32
0.0
 13
2052.201441279138
 23
118.5868362655709
 33
0.0
  0
SOLID
  5
3B44
330
2F4F
100
AcDbEntity
  8
AM_5
100
AcDbTrace
 10
2051.451441279138
 20
140.0868362655709
 30
0.0
 11
2052.951441279138
 21
140.0868362655709
 31
0.0
 12
2052.201441279138
 22
144.5868362655709
 32
0.0
 13
2052.201441279138
 23
144.5868362655709
 33
0.0
  0
MTEXT
  5
3B45
330
2F4F
100
AcDbEntity
  8
AM_5
100
AcDbMText
 10
2048.451047578351
 20
131.5868362655712
 30
0.0
 40
4.5
 41
0.0
 71
     5
 72
     1
  1
26
  7
CHINA
 11
0.0000000000000001
 21
1.0
 31
0.0
1001
ACAD
1000
MTEXTBEGIN
1070
    73
1070
     1
1070
    44
1040
1.0
1070
    74
1070
     0
1000
MTEXTEND
  0
POINT
  5
3B46
330
2F4F
100
AcDbEntity
  8
DEFPOINTS
 62
     0
100
AcDbPoint
 10
2039.201441279138
 20
118.5868362655709
 30
0.0
  0
POINT
  5
3B47
330
2F4F
100
AcDbEntity
  8
DEFPOINTS
 62
     0
100
AcDbPoint
 10
2039.701441279138
 20
144.5868362655709
 30
0.0
  0
POINT
  5
3B48
330
2F4F
100
AcDbEntity
  8
DEFPOINTS
 62
     0
100
AcDbPoint
 10
2052.201441279138
 20
144.5868362655709
 30
0.0
  0
ENDBLK
  5
2F5A
330
2F4F
100
AcDbEntity
  8
0
100
AcDbBlockEnd
  0
BLOCK
  5
2F91
330
2F87
100
AcDbEntity
  8
0
100
AcDbBlockBegin
  2
*D18
 70
     1
 10
0.0
 20
0.0
 30
0.0
  3
*D18
  1

  0
LINE
  5
3B37
330
2F87
100
AcDbEntity
  8
AM_5
100
AcDbLine
 10
2042.201441279138
 20
118.5868362655709
 30
0.0
 11
2064.451441279138
 21
118.5868362655709
 31
0.0
  0
LINE
  5
3B38
330
2F87
100
AcDbEntity
  8
AM_5
100
AcDbLine
 10
2038.201441279138
 20
198.5868362655709
 30
0.0
 11
2064.451441279138
 21
198.5868362655709
 31
0.0
  0
LINE
  5
3B39
330
2F87
100
AcDbEntity
  8
AM_5
100
AcDbLine
 10
2062.201441279138
 20
123.0868362655709
 30
0.0
 11
2062.201441279138
 21
194.0868362655709
 31
0.0
  0
SOLID
  5
3B3A
330
2F87
100
AcDbEntity
  8
AM_5
100
AcDbTrace
 10
2061.451441279138
 20
123.0868362655709
 30
0.0
 11
2062.951441279138
 21
123.0868362655709
 31
0.0
 12
2062.201441279138
 22
118.5868362655709
 32
0.0
 13
2062.201441279138
 23
118.5868362655709
 33
0.0
  0
SOLID
  5
3B3B
330
2F87
100
AcDbEntity
  8
AM_5
100
AcDbTrace
 10
2061.451441279138
 20
194.0868362655709
 30
0.0
 11
2062.951441279138
 21
194.0868362655709
 31
0.0
 12
2062.201441279138
 22
198.5868362655709
 32
0.0
 13
2062.201441279138
 23
198.5868362655709
 33
0.0
  0
MTEXT
  5
3B3C
330
2F87
100
AcDbEntity
  8
AM_5
100
AcDbMText
 10
2058.451441279138
 20
158.5868362655712
 30
0.0
 40
4.5
 41
0.0
 71
     5
 72
     1
  1
80
  7
CHINA
 11
0.0000000000000001
 21
1.0
 31
0.0
1001
ACAD
1000
MTEXTBEGIN
1070
    73
1070
     1
1070
    44
1040
1.0
1070
    74
1070
     0
1000
MTEXTEND
  0
POINT
  5
3B3D
330
2F87
100
AcDbEntity
  8
DEFPOINTS
 62
     0
100
AcDbPoint
 10
2039.201441279138
 20
118.5868362655709
 30
0.0
  0
POINT
  5
3B3E
330
2F87
100
AcDbEntity
  8
DEFPOINTS
 62
     0
100
AcDbPoint
 10
2035.201441279138
 20
198.5868362655709
 30
0.0
  0
POINT
  5
3B3F
330
2F87
100
AcDbEntity
  8
DEFPOINTS
 62
     0
100
AcDbPoint
 10
2062.201441279138
 20
198.5868362655709
 30
0.0
  0
ENDBLK
  5
2F92
330
2F87
100
AcDbEntity
  8
0
100
AcDbBlockEnd
  0
BLOCK
  5
2FC9
330
2FBF
100
AcDbEntity
  8
0
100
AcDbBlockBegin
  2
*D19
 70
     1
 10
0.0
 20
0.0
 30
0.0
  3
*D19
  1

  0
LINE
  5
3B25
330
2FBF
100
AcDbEntity
  8
AM_5
100
AcDbLine
 10
2042.201441279138
 20
118.5868362655709
 30
0.0
 11
2090.451441279138
 21
118.5868362655709
 31
0.0
  0
LINE
  5
3B26
330
2FBF
100
AcDbEntity
  8
AM_5
100
AcDbLine
 10
2068.201441279138
 20
253.5868362655709
 30
0.0
 11
2090.451441279138
 21
253.5868362655709
 31
0.0
  0
LINE
  5
3B27
330
2FBF
100
AcDbEntity
  8
AM_5
100
AcDbLine
 10
2088.201441279138
 20
123.0868362655709
 30
0.0
 11
2088.201441279138
 21
249.0868362655709
 31
0.0
  0
SOLID
  5
3B28
330
2FBF
100
AcDbEntity
  8
AM_5
100
AcDbTrace
 10
2087.451441279138
 20
123.0868362655709
 30
0.0
 11
2088.951441279138
 21
123.0868362655709
 31
0.0
 12
2088.201441279138
 22
118.5868362655709
 32
0.0
 13
2088.201441279138
 23
118.5868362655709
 33
0.0
  0
SOLID
  5
3B29
330
2FBF
100
AcDbEntity
  8
AM_5
100
AcDbTrace
 10
2087.451441279138
 20
249.0868362655709
 30
0.0
 11
2088.951441279138
 21
249.0868362655709
 31
0.0
 12
2088.201441279138
 22
253.5868362655709
 32
0.0
 13
2088.201441279138
 23
253.5868362655709
 33
0.0
  0
MTEXT
  5
3B2A
330
2FBF
100
AcDbEntity
  8
AM_5
100
AcDbMText
 10
2084.439630255516
 20
186.0868362655712
 30
0.0
 40
4.5
 41
0.0
 71
     5
 72
     1
  1
135
  7
CHINA
 11
0.0000000000000001
 21
1.0
 31
0.0
1001
ACAD
1000
MTEXTBEGIN
1070
    73
1070
     1
1070
    44
1040
1.0
1070
    74
1070
     0
1000
MTEXTEND
  0
POINT
  5
3B2B
330
2FBF
100
AcDbEntity
  8
DEFPOINTS
 62
     0
100
AcDbPoint
 10
2039.201441279138
 20
118.5868362655709
 30
0.0
  0
POINT
  5
3B2C
330
2FBF
100
AcDbEntity
  8
DEFPOINTS
 62
     0
100
AcDbPoint
 10
2065.201441279138
 20
253.5868362655709
 30
0.0
  0
POINT
  5
3B2D
330
2FBF
100
AcDbEntity
  8
DEFPOINTS
 62
     0
100
AcDbPoint
 10
2088.201441279138
 20
253.5868362655709
 30
0.0
  0
ENDBLK
  5
2FCA
330
2FBF
100
AcDbEntity
  8
0
100
AcDbBlockEnd
  0
BLOCK
  5
3001
330
2FF7
100
AcDbEntity
  8
0
100
AcDbBlockBegin
  2
*D20
 70
     1
 10
0.0
 20
0.0
 30
0.0
  3
*D20
  1

  0
LINE
  5
3B49
330
2FF7
100
AcDbEntity
  8
AM_5
100
AcDbLine
 10
1976.201441279138
 20
168.0868362655709
 30
0.0
 11
1976.201441279138
 21
163.7042558126951
 31
0.0
  0
LINE
  5
3B4A
330
2FF7
100
AcDbEntity
  8
AM_5
100
AcDbLine
 10
2036.201441279138
 20
168.0868362655709
 30
0.0
 11
2036.201441279138
 21
163.7042558126951
 31
0.0
  0
LINE
  5
3B4B
330
2FF7
100
AcDbEntity
  8
AM_5
100
AcDbLine
 10
1980.701441279138
 20
165.9542558126951
 30
0.0
 11
2031.701441279138
 21
165.9542558126951
 31
0.0
  0
SOLID
  5
3B4C
330
2FF7
100
AcDbEntity
  8
AM_5
100
AcDbTrace
 10
1980.701441279138
 20
166.7042558126951
 30
0.0
 11
1980.701441279138
 21
165.2042558126951
 31
0.0
 12
1976.201441279138
 22
165.9542558126951
 32
0.0
 13
1976.201441279138
 23
165.9542558126951
 33
0.0
  0
SOLID
  5
3B4D
330
2FF7
100
AcDbEntity
  8
AM_5
100
AcDbTrace
 10
2031.701441279138
 20
166.7042558126951
 30
0.0
 11
2031.701441279138
 21
165.2042558126951
 31
0.0
 12
2036.201441279138
 22
165.9542558126951
 32
0.0
 13
2036.201441279138
 23
165.9542558126951
 33
0.0
  0
MTEXT
  5
3B4E
330
2FF7
100
AcDbEntity
  8
AM_5
100
AcDbMText
 10
2015.526198552709
 20
169.7042558126951
 30
0.0
 40
4.5
 41
0.0
 71
     5
 72
     1
  1
%%c60
  7
CHINA
1001
ACAD
1000
MTEXTBEGIN
1070
    73
1070
     1
1070
    44
1040
1.0
1070
    74
1070
     0
1000
MTEXTEND
  0
POINT
  5
3B4F
330
2FF7
100
AcDbEntity
  8
DEFPOINTS
 62
     0
100
AcDbPoint
 10
1976.201441279138
 20
171.0868362655709
 30
0.0
  0
POINT
  5
3B50
330
2FF7
100
AcDbEntity
  8
DEFPOINTS
 62
     0
100
AcDbPoint
 10
2036.201441279138
 20
171.0868362655709
 30
0.0
  0
POINT
  5
3B51
330
2FF7
100
AcDbEntity
  8
DEFPOINTS
 62
     0
100
AcDbPoint
 10
2036.201441279138
 20
165.9542558126951
 30
0.0
  0
ENDBLK
  5
3002
330
2FF7
100
AcDbEntity
  8
0
100
AcDbBlockEnd
  0
BLOCK
  5
3551
330
3547
100
AcDbEntity
  8
0
100
AcDbBlockBegin
  2
*D22
 70
     1
 10
0.0
 20
0.0
 30
0.0
  3
*D22
  1

  0
LINE
  5
3B64
330
3547
100
AcDbEntity
  8
AM_5
100
AcDbLine
 10
1946.201441279138
 20
255.5868362655709
 30
0.0
 11
1946.201441279138
 21
267.8368362655709
 31
0.0
  0
LINE
  5
3B65
330
3547
100
AcDbEntity
  8
AM_5
100
AcDbLine
 10
2066.201441279138
 20
255.5868362655709
 30
0.0
 11
2066.201441279138
 21
267.8368362655709
 31
0.0
  0
LINE
  5
3B66
330
3547
100
AcDbEntity
  8
AM_5
100
AcDbLine
 10
1950.701441279138
 20
265.5868362655709
 30
0.0
 11
2061.701441279138
 21
265.5868362655709
 31
0.0
  0
SOLID
  5
3B67
330
3547
100
AcDbEntity
  8
AM_5
100
AcDbTrace
 10
1950.701441279138
 20
266.3368362655709
 30
0.0
 11
1950.701441279138
 21
264.8368362655709
 31
0.0
 12
1946.201441279138
 22
265.5868362655709
 32
0.0
 13
1946.201441279138
 23
265.5868362655709
 33
0.0
  0
SOLID
  5
3B68
330
3547
100
AcDbEntity
  8
AM_5
100
AcDbTrace
 10
2061.701441279138
 20
266.3368362655709
 30
0.0
 11
2061.701441279138
 21
264.8368362655709
 31
0.0
 12
2066.201441279138
 22
265.5868362655709
 32
0.0
 13
2066.201441279138
 23
265.5868362655709
 33
0.0
  0
MTEXT
  5
3B69
330
3547
100
AcDbEntity
  8
AM_5
100
AcDbMText
 10
2006.201441279138
 20
269.3372299663583
 30
0.0
 40
4.5
 41
0.0
 71
     5
 72
     1
  1
120
  7
CHINA
1001
ACAD
1000
MTEXTBEGIN
1070
    73
1070
     1
1070
    44
1040
1.0
1070
    74
1070
     0
1000
MTEXTEND
  0
POINT
  5
3B6A
330
3547
100
AcDbEntity
  8
DEFPOINTS
 62
     0
100
AcDbPoint
 10
1946.201441279138
 20
252.5868362655709
 30
0.0
  0
POINT
  5
3B6B
330
3547
100
AcDbEntity
  8
DEFPOINTS
 62
     0
100
AcDbPoint
 10
2066.201441279138
 20
252.5868362655709
 30
0.0
  0
POINT
  5
3B6C
330
3547
100
AcDbEntity
  8
DEFPOINTS
 62
     0
100
AcDbPoint
 10
2066.201441279138
 20
265.5868362655709
 30
0.0
  0
ENDBLK
  5
3552
330
3547
100
AcDbEntity
  8
0
100
AcDbBlockEnd
  0
BLOCK
  5
3C0F
330
3C0A
100
AcDbEntity
  8
0
100
AcDbBlockBegin
  2
*S23
 70
     1
 10
0.0
 20
0.0
 30
0.0
  3
*S23
  1

  0
LINE
  5
3C0B
330
3C0A
100
AcDbEntity
  8
AM_5
100
AcDbLine
 10
2064.622848047006
 20
297.4620728786656
 30
0.0
 11
2049.531312075957
 21
297.4620728786656
 31
0.0
  0
LINE
  5
3C0C
330
3C0A
100
AcDbEntity
  8
AM_5
100
AcDbLine
 10
2049.531312075957
 20
297.4620728786656
 30
0.0
 11
2038.519897611835
 21
308.3371131787385
 31
0.0
  0
TRACE
  5
3C0D
330
3C0A
100
AcDbEntity
  8
AM_5
100
AcDbTrace
 10
2038.797429172996
 20
308.6181250152453
 30
0.0
 11
2038.242366050675
 21
308.0561013422315
 31
0.0
 12
2036.38540078944
 22
310.4451746852378
 32
0.0
 13
2036.38540078944
 23
310.4451746852378
 33
0.0
  0
MTEXT
  5
3C0E
330
3C0A
100
AcDbEntity
  8
AM_5
 62
     2
100
AcDbMText
 10
2064.622848047006
 20
297.4897616383578
 30
0.0
 40
3.5
 41
0.0
 71
     7
 72
     1
  1

  7
ACISOTS
  0
ENDBLK
  5
3C10
330
3C0A
100
AcDbEntity
  8
0
100
AcDbBlockEnd
  0
BLOCK
  5
3C18
330
3C13
100
AcDbEntity
  8
0
100
AcDbBlockBegin
  2
*S24
 70
     1
 10
0.0
 20
0.0
 30
0.0
  3
*S24
  1

  0
LINE
  5
3C14
330
3C13
100
AcDbEntity
  8
AM_5
100
AcDbLine
 10
2066.784819136926
 20
208.956841712411
 30
0.0
 11
2048.981523003355
 21
208.956841712411
 31
0.0
  0
LINE
  5
3C15
330
3C13
100
AcDbEntity
  8
AM_5
100
AcDbLine
 10
2048.981523003355
 20
208.956841712411
 30
0.0
 11
2037.853596711426
 21
192.0909094329444
 31
0.0
  0
TRACE
  5
3C16
330
3C13
100
AcDbEntity
  8
AM_5
100
AcDbTrace
 10
2037.523929226271
 20
192.3084198210373
 30
0.0
 11
2038.183264196582
 21
191.8733990448515
 31
0.0
 12
2036.201441279138
 22
189.5868362655709
 32
0.0
 13
2036.201441279138
 23
189.5868362655709
 33
0.0
  0
MTEXT
  5
3C17
330
3C13
100
AcDbEntity
  8
AM_5
 62
     2
100
AcDbMText
 10
2066.784819136926
 20
208.3195695977198
 30
0.0
 40
3.5
 41
0.0
 71
     7
 72
     1
  1

  7
ACISOTS
  0
ENDBLK
  5
3C19
330
3C13
100
AcDbEntity
  8
0
100
AcDbBlockEnd
  0
ENDSEC
  0
SECTION
  2
ENTITIES
  0
POINT
  5
25
330
2
100
AcDbEntity
  8
0
 60
     1
100
AcDbPoint
 10
0.0
 20
0.0
 30
0.0
  0
POINT
  5
26
330
2
100
AcDbEntity
  8
0
 60
     1
100
AcDbPoint
 10
0.0
 20
0.0
 30
0.0
  0
POINT
  5
27
330
2
100
AcDbEntity
  8
0
 60
     1
100
AcDbPoint
 10
0.0
 20
0.0
 30
0.0
  0
POINT
  5
28
330
2
100
AcDbEntity
  8
0
 60
     1
100
AcDbPoint
 10
0.0
 20
0.0
 30
0.0
  0
POINT
  5
29
330
2
100
AcDbEntity
  8
0
 60
     1
100
AcDbPoint
 10
0.0
 20
0.0
 30
0.0
  0
POINT
  5
2A
330
2
100
AcDbEntity
  8
0
 60
     1
100
AcDbPoint
 10
0.0
 20
0.0
 30
0.0
  0
POINT
  5
2B
330
2
100
AcDbEntity
  8
0
 60
     1
100
AcDbPoint
 10
0.0
 20
0.0
 30
0.0
  0
POINT
  5
2C
330
2
100
AcDbEntity
  8
0
 60
     1
100
AcDbPoint
 10
0.0
 20
0.0
 30
0.0
  0
POINT
  5
2D
330
2
100
AcDbEntity
  8
0
 60
     1
100
AcDbPoint
 10
0.0
 20
0.0
 30
0.0
  0
POINT
  5
2E
330
2
100
AcDbEntity
  8
0
 60
     1
100
AcDbPoint
 10
0.0
 20
0.0
 30
0.0
  0
POINT
  5
2F
330
2
100
AcDbEntity
  8
0
 60
     1
100
AcDbPoint
 10
0.0
 20
0.0
 30
0.0
  0
POINT
  5
30
330
2
100
AcDbEntity
  8
0
 60
     1
100
AcDbPoint
 10
0.0
 20
0.0
 30
0.0
  0
DIMENSION
  5
31
330
2
100
AcDbEntity
  8
AM_PARDIM
 60
     1
100
AcDbDimension
  2
*D1
 10
114.5325708695175
 20
128.6938113892625
 30
0.0
 11
110.770366145108
 21
140.0442050900499
 31
0.0
 70
    32
  1
<>
  3
AM_ISO
100
AcDbAlignedDimension
 13
75.37464887656421
 23
116.1938113892625
 33
0.0
 14
75.37464887656421
 24
128.6938113892625
 34
0.0
 50
90.0
100
AcDbRotatedDimension
1001
ACAD_DIMASSOC_CALC_DIMLFAC
1040
-1.0
1001
ACAD
1000
DSTYLE
1002
{
1070
   144
1040
-1.0
1002
}
1001
AD_SKETCHDIM
1005
0
1000
d0
1001
ACAD_DIMASSOC_DIMLFAC
1040
-1.0
  0
DIMENSION
  5
43
330
2
100
AcDbEntity
  8
AM_PARDIM
 60
     1
100
AcDbDimension
  2
*D2
 10
26.87464887656421
 20
122.1938113892625
 30
0.0
 11
23.12464887656418
 21
119.1938113892625
 31
0.0
 70
    32
  1
<>
  3
AM_ISO
100
AcDbAlignedDimension
 13
38.8746488765642
 23
116.1938113892625
 33
0.0
 14
38.8746488765642
 24
122.1938113892624
 34
0.0
 50
90.0
100
AcDbRotatedDimension
1001
ACAD_DIMASSOC_CALC_DIMLFAC
1040
-1.0
1001
ACAD
1000
DSTYLE
1002
{
1070
   144
1040
-1.0
1002
}
1001
AD_SKETCHDIM
1005
0
1000
d1
1001
ACAD_DIMASSOC_DIMLFAC
1040
-1.0
  0
DIMENSION
  5
52
330
2
100
AcDbEntity
  8
AM_PARDIM
 60
     1
100
AcDbDimension
  2
*D3
 10
50.87464887656421
 20
140.6938113892624
 30
0.0
 11
44.87464887656421
 21
144.4442050900499
 31
0.0
 70
    32
  1
<>
  3
AM_ISO
100
AcDbAlignedDimension
 13
38.8746488765642
 23
122.1938113892624
 33
0.0
 14
50.87464887656421
 24
122.1938113892624
 34
0.0
100
AcDbRotatedDimension
1001
ACAD_DIMASSOC_CALC_DIMLFAC
1040
-1.0
1001
ACAD
1000
DSTYLE
1002
{
1070
   144
1040
-1.0
1002
}
1001
AD_SKETCHDIM
1005
0
1000
d2
1001
ACAD_DIMASSOC_DIMLFAC
1040
-1.0
  0
DIMENSION
  5
5F
330
2
100
AcDbEntity
  8
AM_PARDIM
 60
     1
100
AcDbDimension
  2
*D4
 10
75.37464887656421
 20
160.6938113892624
 30
0.0
 11
57.12464887656421
 21
164.4556224128845
 31
0.0
 70
    32
  1
<>
  3
AM_ISO
100
AcDbAlignedDimension
 13
38.8746488765642
 23
116.1938113892625
 33
0.0
 14
75.37464887656421
 24
116.1938113892625
 34
0.0
100
AcDbRotatedDimension
1001
ACAD_DIMASSOC_CALC_DIMLFAC
1040
-1.0
1001
ACAD
1000
DSTYLE
1002
{
1070
   144
1040
-1.0
1002
}
1001
AD_SKETCHDIM
1005
0
1000
d3
1001
ACAD_DIMASSOC_DIMLFAC
1040
-1.0
  0
DIMENSION
  5
6C
330
2
100
AcDbEntity
  8
AM_PARDIM
 60
     1
100
AcDbDimension
  2
*D5
 10
104.5325708695175
 20
116.1938113892624
 30
0.0
 11
100.7825708695175
 21
121.6938113892625
 31
0.0
 70
    32
  1
<>
  3
AM_ISO
100
AcDbAlignedDimension
 13
50.87464887656421
 23
127.1938113892624
 33
0.0
 14
75.37464887656421
 24
116.1938113892625
 34
0.0
 50
90.0
100
AcDbRotatedDimension
1001
ACAD_DIMASSOC_CALC_DIMLFAC
1040
-1.0
1001
ACAD
1000
DSTYLE
1002
{
1070
   144
1040
-1.0
1002
}
1001
AD_SKETCHDIM
1005
0
1000
d4
1001
ACAD_DIMASSOC_DIMLFAC
1040
-1.0
  0
DIMENSION
  5
79
330
2
100
AcDbEntity
  8
AM_PARDIM
 60
     1
100
AcDbDimension
  2
*D6
 10
75.37464887656421
 20
150.6938113892624
 30
0.0
 11
70.87464887656421
 21
154.4438113892624
 31
0.0
 70
    32
  1
<>
  3
AM_ISO
100
AcDbAlignedDimension
 13
66.3746488765642
 23
128.6938113892625
 33
0.0
 14
75.37464887656421
 24
128.6938113892625
 34
0.0
100
AcDbRotatedDimension
1001
ACAD_DIMASSOC_CALC_DIMLFAC
1040
-1.0
1001
ACAD
1000
DSTYLE
1002
{
1070
   144
1040
-1.0
1002
}
1001
AD_SKETCHDIM
1005
0
1000
d5
1001
ACAD_DIMASSOC_DIMLFAC
1040
-1.0
  0
DIMENSION
  5
86
330
2
100
AcDbEntity
  8
AM_PARDIM
 60
     1
100
AcDbDimension
  2
*D7
 10
66.37464887656418
 20
140.6938113892624
 30
0.0
 11
80.70653864034371
 21
144.4560161136719
 31
0.0
 70
    32
  1
<>
  3
AM_ISO
100
AcDbAlignedDimension
 13
63.87464887656418
 23
128.6938113892624
 33
0.0
 14
66.37464887656418
 24
128.6938113892624
 34
0.0
100
AcDbRotatedDimension
1001
ACAD_DIMASSOC_CALC_DIMLFAC
1040
-1.0
1001
ACAD
1000
DSTYLE
1002
{
1070
   144
1040
-1.0
1002
}
1001
AD_SKETCHDIM
1005
0
1000
d25
1001
ACAD_DIMASSOC_DIMLFAC
1040
-1.0
  0
DIMENSION
  5
95
330
2
100
AcDbEntity
  8
AM_PARDIM
 60
     1
100
AcDbDimension
  2
*D8
 10
66.37464887656418
 20
136.030378563861
 30
0.0
 11
78.07464887656418
 21
139.780378563861
 31
0.0
 70
    32
  1
<>
  3
AM_ISO
100
AcDbAlignedDimension
 13
66.37464887656418
 23
128.6938113892624
 33
0.0
 14
66.37464887656418
 24
116.1938113892624
 34
0.0
100
AcDbRotatedDimension
1001
ACAD_DIMASSOC_CALC_DIMLFAC
1040
-1.0
1001
ACAD
1000
DSTYLE
1002
{
1070
   144
1040
-1.0
1002
}
1001
AD_SKETCHDIM
1005
0
1000
d26
1001
ACAD_DIMASSOC_DIMLFAC
1040
-1.0
  0
DIMENSION
  5
A3
330
2
100
AcDbEntity
  8
AM_PARDIM
 60
     1
100
AcDbDimension
  2
*D9
 10
94.53257086951754
 20
116.1938113892624
 30
0.0
 11
90.77075984589546
 21
102.043417688475
 31
0.0
 70
    32
  1
<>
  3
AM_ISO
100
AcDbAlignedDimension
 13
63.87464887656418
 23
125.6938113892624
 33
0.0
 14
82.53257086951753
 24
116.1938113892624
 34
0.0
 50
90.0
100
AcDbRotatedDimension
1001
ACAD_DIMASSOC_CALC_DIMLFAC
1040
-1.0
1001
ACAD
1000
DSTYLE
1002
{
1070
   144
1040
-1.0
1002
}
1001
AD_SKETCHDIM
1005
0
1000
d27
1001
ACAD_DIMASSOC_DIMLFAC
1040
-1.0
  0
DIMENSION
  5
B0
330
2
100
AcDbEntity
  8
AM_PARDIM
 60
     1
100
AcDbDimension
  2
*D10
 10
124.5325708695175
 20
116.1938113892624
 30
0.0
 11
120.770366145108
 21
104.843417688475
 31
0.0
 70
    32
  1
<>
  3
AM_ISO
100
AcDbAlignedDimension
 13
66.37464887656418
 23
128.6938113892624
 33
0.0
 14
82.53257086951753
 24
116.1938113892624
 34
0.0
 50
90.0
100
AcDbRotatedDimension
1001
ACAD_DIMASSOC_CALC_DIMLFAC
1040
-1.0
1001
ACAD
1000
DSTYLE
1002
{
1070
   144
1040
-1.0
1002
}
1001
AD_SKETCHDIM
1005
0
1000
d28
1001
ACAD_DIMASSOC_DIMLFAC
1040
-1.0
  0
LINE
  5
C8
330
2
100
AcDbEntity
  8
AM_7
 60
     1
100
AcDbLine
 10
36.3746488765642
 20
116.1938113892624
 30
0.0
 11
51.3746488765642
 21
116.1938113892624
 31
0.0
  0
MTEXT
  5
151
330
2
100
AcDbEntity
  8
AM_5
 62
     5
100
AcDbMText
 10
33.56078100938998
 20
98.94002315335121
 30
0.0
 40
3.5
 41
0.0
 71
     9
 72
     1
  1

  7
ACISOTS
1001
ACAD
1000
MTEXTBEGIN
1070
    73
1070
     1
1070
    44
1040
1.0
1070
    74
1070
     0
1000
MTEXTEND
  0
MTEXT
  5
156
330
2
100
AcDbEntity
  8
AM_5
 62
     5
100
AcDbMText
 10
67.11527269722637
 20
92.4148402526181
 30
0.0
 40
3.5
 41
0.0
 71
     9
 72
     1
  1

  7
ACISOTS
1001
ACAD
1000
MTEXTBEGIN
1070
    73
1070
     1
1070
    44
1040
1.0
1070
    74
1070
     0
1000
MTEXTEND
  0
CIRCLE
  5
124B
330
2
100
AcDbEntity
  8
LOGO
  6
CONTINUOUS
 62
     6
100
AcDbCircle
 10
1963.344063399737
 20
84.51944604291307
 30
0.0
 40
2.99418555343037
  0
TEXT
  5
124C
330
2
100
AcDbEntity
  8
LOGO
 62
     6
100
AcDbText
 10
1961.531637688977
 20
92.24368293112201
 30
0.0
 40
5.156844944855196
  1
1 : 1
  7
CHINESET
 72
     1
 11
1970.617507353722
 21
94.82210540354961
 31
0.0
100
AcDbText
 73
     2
  0
TEXT
  5
124D
330
2
100
AcDbEntity
  8
LOGO
 62
     6
100
AcDbText
 10
1961.531637688977
 20
71.61630315170123
 30
0.0
 40
5.156844944855196
  1
m/m
  7
CHINESET
 72
     1
 11
1970.617507353722
 21
74.19472562412884
 31
0.0
100
AcDbText
 73
     2
  0
LINE
  5
124E
330
2
100
AcDbEntity
  8
LOGO
 62
     1
100
AcDbLine
 10
1988.174486275402
 20
79.35157056898401
 30
0.0
 11
1912.540760417526
 21
79.35157056898401
 31
0.0
  0
LINE
  5
124F
330
2
100
AcDbEntity
  8
LOGO
 62
     1
100
AcDbLine
 10
1988.174486275402
 20
89.66526045869443
 30
0.0
 11
1912.540760417526
 21
89.66526045869443
 31
0.0
  0
TEXT
  5
1250
330
2
100
AcDbEntity
  8
LOGO
  6
CONTINUOUS
 62
     5
100
AcDbText
 10
1878.62673394922
 20
50.80426204721686
 30
0.0
 40
5.156844944855196
  1
MINDMAN INDUSTRIAL CO.,LTD
 41
0.85
  7
CHINESET
100
AcDbText
  0
TEXT
  5
1251
330
2
100
AcDbEntity
  8
LOGO
  6
CONTINUOUS
 62
     5
100
AcDbText
 10
1876.411819907757
 20
58.54104497044509
 30
0.0
 40
7.735267417282793
  1
金器工業股份有限公司
 41
0.8
  7
LOGO
100
AcDbText
  0
LINE
  5
1252
330
2
100
AcDbEntity
  8
LOGO
 62
     1
100
AcDbLine
 10
1988.174486275402
 20
69.03788067927369
 30
0.0
 11
1874.723897488588
 21
69.03788067927369
 31
0.0
  0
LINE
  5
1256
330
2
100
AcDbEntity
  8
LOGO
 62
     1
100
AcDbLine
 10
2256.274697440292
 20
48.41050089985282
 30
0.0
 11
1874.723897488588
 21
48.41050089985282
 31
0.0
  0
LINE
  5
1257
330
2
100
AcDbEntity
  8
LOGO
 62
     1
100
AcDbLine
 10
2256.274697440292
 20
99.97895034840482
 30
0.0
 11
1874.723897488588
 21
99.97895034840482
 31
0.0
  0
LINE
  5
1258
330
2
100
AcDbEntity
  8
0
 62
     4
100
AcDbLine
 10
1874.723897488588
 20
398.4311085476757
 30
0.0
 11
2256.274697440292
 21
398.4311085476757
 31
0.0
  0
LINE
  5
1259
330
2
100
AcDbEntity
  8
0
 62
     4
100
AcDbLine
 10
2256.274697440292
 20
99.97895034840482
 30
0.0
 11
1874.723897488588
 21
99.97895034840482
 31
0.0
  0
LINE
  5
125A
330
2
100
AcDbEntity
  8
0
 62
     4
100
AcDbLine
 10
1874.723897488588
 20
99.97895034840482
 30
0.0
 11
1874.723897488588
 21
398.4311085476757
 31
0.0
  0
SOLID
  5
125B
330
2
100
AcDbEntity
  8
LOGO
 62
     5
100
AcDbTrace
 10
1894.759369906216
 20
79.3018861274993
 30
0.0
 11
1896.98905434476
 21
87.47739573549456
 31
0.0
 12
1905.369592406873
 22
98.75396071203972
 32
0.0
 13
1903.139907968329
 23
98.75396071203972
 33
0.0
  0
SOLID
  5
125C
330
2
100
AcDbEntity
  8
LOGO
 62
     5
100
AcDbTrace
 10
1894.759369906216
 20
98.75396071203827
 30
0.0
 11
1896.98905434476
 21
98.75396071203972
 31
0.0
 12
1894.759369906216
 22
79.3018861274993
 32
0.0
 13
1896.98905434476
 23
87.47739573549456
 33
0.0
  0
POLYLINE
  5
125D
330
2
100
AcDbEntity
  8
LOGO
 62
     5
100
AcDb2dPolyline
 66
     1
 10
0.0
 20
0.0
 30
0.0
 40
0.770088845098376
 41
0.770088845098376
  0
VERTEX
  5
125E
330
125D
100
AcDbEntity
  8
LOGO
 62
     5
100
AcDbVertex
100
AcDb2dVertex
 10
1897.118994084699
 20
72.22840446039453
 30
0.0
 42
1.0
  0
VERTEX
  5
125F
330
125D
100
AcDbEntity
  8
LOGO
 62
     5
100
AcDbVertex
100
AcDb2dVertex
 10
1894.808727549404
 20
72.22840446039453
 30
0.0
 42
1.0
  0
SEQEND
  5
1260
330
125D
100
AcDbEntity
  8
LOGO
 62
     5
  0
SOLID
  5
1261
330
2
100
AcDbEntity
  8
LOGO
 62
     5
100
AcDbTrace
 10
1894.42614741116
 20
73.76611786628703
 30
0.0
 11
1895.195004114105
 21
73.76611786628703
 31
0.0
 12
1894.42614741116
 22
69.92183435155656
 32
0.0
 13
1895.195004114105
 23
69.92183435155656
 33
0.0
  0
SOLID
  5
1262
330
2
100
AcDbEntity
  8
LOGO
 62
     2
100
AcDbTrace
 10
1893.83674186268
 20
77.6104013810183
 30
0.0
 11
1894.759369906216
 21
77.6104013810183
 31
0.0
 12
1905.369592406873
 22
98.75396071203972
 32
0.0
 13
1906.292220450409
 23
98.75396071203827
 33
0.0
  0
SOLID
  5
1263
330
2
100
AcDbEntity
  8
LOGO
 62
     5
100
AcDbTrace
 10
1894.759369906216
 20
77.6104013810183
 30
0.0
 11
1896.98905434476
 21
77.6104013810183
 31
0.0
 12
1905.369592406873
 22
97.06247596555726
 32
0.0
 13
1903.139907968329
 23
88.88696635756202
 33
0.0
  0
SOLID
  5
1264
330
2
100
AcDbEntity
  8
LOGO
 62
     2
100
AcDbTrace
 10
1893.83674186268
 20
98.75396071203827
 30
0.0
 11
1894.759369906216
 21
98.75396071203827
 31
0.0
 12
1893.83674186268
 22
77.6104013810183
 32
0.0
 13
1894.759369906216
 23
77.6104013810183
 33
0.0
  0
SOLID
  5
1265
330
2
100
AcDbEntity
  8
LOGO
 62
     5
100
AcDbTrace
 10
1891.607057424136
 20
77.6104013810183
 30
0.0
 11
1893.83674186268
 21
77.6104013810183
 31
0.0
 12
1891.607057424136
 22
88.88696635756202
 32
0.0
 13
1893.83674186268
 23
97.06247596555726
 33
0.0
  0
LINE
  5
1266
330
2
100
AcDbEntity
  8
LOGO
 62
     1
100
AcDbLine
 10
1874.723897488588
 20
48.41050089985282
 30
0.0
 11
1874.723897488588
 21
99.97895034840482
 31
0.0
  0
SOLID
  5
1267
330
2
100
AcDbEntity
  8
LOGO
 62
     2
100
AcDbTrace
 10
1882.303891318486
 20
77.61040138101754
 30
0.0
 11
1883.226519362023
 21
77.6104013810183
 31
0.0
 12
1893.83674186268
 22
98.75396071203827
 32
0.0
 13
1894.759369906216
 23
98.75396071203827
 33
0.0
  0
SOLID
  5
1268
330
2
100
AcDbEntity
  8
LOGO
 62
     5
100
AcDbTrace
 10
1883.226519362023
 20
77.6104013810183
 30
0.0
 11
1885.456203800567
 21
77.6104013810183
 31
0.0
 12
1893.83674186268
 22
97.06247596555726
 32
0.0
 13
1891.607057424136
 23
88.88696635756202
 33
0.0
  0
SOLID
  5
1269
330
2
100
AcDbEntity
  8
LOGO
 62
     5
100
AcDbTrace
 10
1880.074206879942
 20
77.6104013810183
 30
0.0
 11
1882.303891318486
 21
77.61040138101754
 31
0.0
 12
1891.607057424136
 22
98.75396071203972
 32
0.0
 13
1893.83674186268
 23
98.75396071203827
 33
0.0
  0
SOLID
  5
126A
330
2
100
AcDbEntity
  8
LOGO
 62
     5
100
AcDbTrace
 10
1876.499475939355
 20
69.92183435155656
 30
0.0
 11
1877.268332642302
 21
69.92183435155656
 31
0.0
 12
1879.433492960821
 22
73.76611786628703
 32
0.0
 13
1880.202349663766
 23
73.76611786628703
 33
0.0
  0
POLYLINE
  5
126B
330
2
100
AcDbEntity
  8
LOGO
 62
     5
100
AcDb2dPolyline
 66
     1
 10
0.0
 20
0.0
 30
0.0
 70
     1
 40
0.770088845098376
 41
0.770088845098376
  0
VERTEX
  5
126C
330
126B
100
AcDbEntity
  8
LOGO
 62
     5
100
AcDbVertex
100
AcDb2dVertex
 10
1890.066879733939
 20
71.8439761089214
 30
0.0
 42
1.0
  0
VERTEX
  5
126D
330
126B
100
AcDbEntity
  8
LOGO
 62
     5
100
AcDbVertex
100
AcDb2dVertex
 10
1893.147235114333
 20
71.8439761089214
 30
0.0
 42
1.0
  0
SEQEND
  5
126E
330
126B
100
AcDbEntity
  8
LOGO
 62
     5
  0
SOLID
  5
126F
330
2
100
AcDbEntity
  8
LOGO
 62
     5
100
AcDbTrace
 10
1892.760265592886
 20
74.9194029207068
 30
0.0
 11
1893.529122295831
 21
74.9194029207068
 31
0.0
 12
1892.760265592886
 22
69.92183435155656
 32
0.0
 13
1893.529122295831
 23
69.92183435155656
 33
0.0
  0
SOLID
  5
1270
330
2
100
AcDbEntity
  8
LOGO
 62
     5
100
AcDbTrace
 10
1884.046505035715
 20
73.76611786628703
 30
0.0
 11
1884.815361738662
 21
73.76611786628703
 31
0.0
 12
1884.046505035715
 22
69.92183435155507
 32
0.0
 13
1884.815361738662
 23
69.92183435155656
 33
0.0
  0
SOLID
  5
1271
330
2
100
AcDbEntity
  8
LOGO
 62
     5
100
AcDbTrace
 10
1885.712386853989
 20
73.76611786628703
 30
0.0
 11
1886.481243556934
 21
73.76611786628703
 31
0.0
 12
1885.712386853989
 22
69.92183435155656
 32
0.0
 13
1886.481243556934
 23
69.92183435155656
 33
0.0
  0
SOLID
  5
1272
330
2
100
AcDbEntity
  8
LOGO
 62
     5
100
AcDbTrace
 10
1879.433492960821
 20
69.92183435155656
 30
0.0
 11
1880.202349663766
 21
69.92183435155656
 31
0.0
 12
1882.367509982288
 22
73.76611786628703
 32
0.0
 13
1883.136366685234
 23
73.76611786628703
 33
0.0
  0
SOLID
  5
1273
330
2
100
AcDbEntity
  8
LOGO
 62
     5
100
AcDbTrace
 10
1879.433492960821
 20
73.76611786628703
 30
0.0
 11
1880.202349663766
 21
73.76611786628703
 31
0.0
 12
1879.433492960821
 22
69.92183435155656
 32
0.0
 13
1880.202349663766
 23
69.92183435155656
 33
0.0
  0
SOLID
  5
1274
330
2
100
AcDbEntity
  8
LOGO
 62
     5
100
AcDbTrace
 10
1882.367509982288
 20
73.76611786628703
 30
0.0
 11
1883.136366685234
 21
73.76611786628703
 31
0.0
 12
1882.367509982288
 22
69.92183435155656
 32
0.0
 13
1883.136366685234
 23
69.92183435155656
 33
0.0
  0
SOLID
  5
1275
330
2
100
AcDbEntity
  8
LOGO
 62
     5
100
AcDbTrace
 10
1888.018956962826
 20
72.22840446039453
 30
0.0
 11
1888.787813665773
 21
72.22840446039453
 31
0.0
 12
1888.018956962826
 22
69.92183435155656
 32
0.0
 13
1888.787813665773
 23
69.92183435155656
 33
0.0
  0
POLYLINE
  5
1276
330
2
100
AcDbEntity
  8
LOGO
 62
     5
100
AcDb2dPolyline
 66
     1
 10
0.0
 20
0.0
 30
0.0
 40
0.770088845098376
 41
0.770088845098376
  0
VERTEX
  5
1277
330
1276
100
AcDbEntity
  8
LOGO
 62
     5
100
AcDbVertex
100
AcDb2dVertex
 10
1888.405233527528
 20
72.22840446039453
 30
0.0
 42
1.0
  0
VERTEX
  5
1278
330
1276
100
AcDbEntity
  8
LOGO
 62
     5
100
AcDbVertex
100
AcDb2dVertex
 10
1886.094966992233
 20
72.22840446039453
 30
0.0
 42
1.0
  0
SEQEND
  5
1279
330
1276
100
AcDbEntity
  8
LOGO
 62
     5
  0
SOLID
  5
127A
330
2
100
AcDbEntity
  8
LOGO
 62
     5
100
AcDbTrace
 10
1884.046505035715
 20
74.30431755834906
 30
0.0
 11
1884.815361738662
 21
74.30431755834906
 31
0.0
 12
1884.046505035715
 22
74.9194029207068
 32
0.0
 13
1884.815361738662
 23
74.9194029207068
 33
0.0
  0
LINE
  5
127B
330
2
100
AcDbEntity
  8
LOGO
 62
     1
100
AcDbLine
 10
1953.795519976368
 20
69.03788067927365
 30
0.0
 11
1953.795519976368
 21
99.97895034840482
 31
0.0
  0
LINE
  5
127C
330
2
100
AcDbEntity
  8
LOGO
 62
     1
100
AcDbLine
 10
1912.540760417526
 20
69.03788067927365
 30
0.0
 11
1912.540760417526
 21
99.97895034840482
 31
0.0
  0
SOLID
  5
127D
330
2
100
AcDbEntity
  8
LOGO
 62
     2
100
AcDbTrace
 10
1905.369592406873
 20
98.75396071203972
 30
0.0
 11
1906.292220450409
 21
98.75396071203827
 31
0.0
 12
1905.369592406873
 22
77.61040138101754
 32
0.0
 13
1906.292220450409
 23
77.61040138101754
 33
0.0
  0
SOLID
  5
127E
330
2
100
AcDbEntity
  8
LOGO
 62
     5
100
AcDbTrace
 10
1905.369592406873
 20
97.06247596555726
 30
0.0
 11
1903.139907968329
 21
88.88696635756202
 31
0.0
 12
1905.369592406873
 22
77.61040138101754
 32
0.0
 13
1903.139907968329
 23
77.61040138101754
 33
0.0
  0
SOLID
  5
127F
330
2
100
AcDbEntity
  8
LOGO
 62
     5
100
AcDbTrace
 10
1906.292220450409
 20
77.61040138101754
 30
0.0
 11
1908.521904888953
 21
77.61040138101754
 31
0.0
 12
1906.292220450409
 22
98.75396071203827
 32
0.0
 13
1908.521904888953
 23
98.75396071203972
 33
0.0
  0
TEXT
  5
1280
330
2
100
AcDbEntity
  8
LOGO
 62
     6
100
AcDbText
 10
1919.099622581764
 20
71.61630315170123
 30
0.0
 40
5.156844944855196
  1
單位 Unit:
 41
0.9
  7
CHINESET
 72
     4
 11
1933.168140196947
 21
74.19472562412884
 31
0.0
100
AcDbText
  0
CIRCLE
  5
1281
330
2
100
AcDbEntity
  8
LOGO
 62
     5
100
AcDbCircle
 10
1902.627388090145
 20
71.84397610892182
 30
0.0
 40
1.153285054419328
  0
POLYLINE
  5
1282
330
2
100
AcDbEntity
  8
LOGO
 62
     5
100
AcDb2dPolyline
 66
     1
 10
0.0
 20
0.0
 30
0.0
 70
     1
  0
VERTEX
  5
1283
330
1282
100
AcDbEntity
  8
LOGO
 62
     5
100
AcDbVertex
100
AcDb2dVertex
 10
1901.474103035726
 20
71.84397610892182
 30
0.0
 42
1.000000057330635
  0
VERTEX
  5
1284
330
1282
100
AcDbEntity
  8
LOGO
 62
     5
100
AcDbVertex
100
AcDb2dVertex
 10
1903.780673144565
 20
71.84397610892182
 30
0.0
 42
1.000000057330635
  0
SEQEND
  5
1285
330
1282
100
AcDbEntity
  8
LOGO
 62
     5
  0
SOLID
  5
1286
330
2
100
AcDbEntity
  8
LOGO
 62
     5
100
AcDbTrace
 10
1907.753048186008
 20
72.22840446039453
 30
0.0
 11
1908.521904888953
 21
72.22840446039445
 31
0.0
 12
1907.753048186008
 22
69.92183435155656
 32
0.0
 13
1908.521904888953
 23
69.92183435155656
 33
0.0
  0
SOLID
  5
1287
330
2
100
AcDbEntity
  8
LOGO
 62
     5
100
AcDbTrace
 10
1905.446478077168
 20
69.92183435155656
 30
0.0
 11
1906.215334780115
 21
69.92183435155656
 31
0.0
 12
1905.446478077168
 22
73.76611786628703
 32
0.0
 13
1906.215334780115
 23
73.76611786628703
 33
0.0
  0
SOLID
  5
1288
330
2
100
AcDbEntity
  8
LOGO
 62
     5
100
AcDbTrace
 10
1903.780596258896
 20
73.76611786628703
 30
0.0
 11
1904.549452961841
 21
73.76611786628703
 31
0.0
 12
1903.780596258896
 22
69.92183435155656
 32
0.0
 13
1904.549452961841
 23
69.92183435155656
 33
0.0
  0
LINE
  5
1289
330
2
100
AcDbEntity
  8
LOGO
 62
     5
100
AcDbLine
 10
1908.521904888953
 20
69.92183435155656
 30
0.0
 11
1908.521904888953
 21
72.22840446039453
 31
0.0
  0
POLYLINE
  5
128A
330
2
100
AcDbEntity
  8
LOGO
 62
     5
100
AcDb2dPolyline
 66
     1
 10
0.0
 20
0.0
 30
0.0
 70
     1
 40
0.770088845098376
 41
0.770088845098376
  0
VERTEX
  5
128B
330
128A
100
AcDbEntity
  8
LOGO
 62
     5
100
AcDbVertex
100
AcDb2dVertex
 10
1901.087210399948
 20
71.8439761089214
 30
0.0
 42
1.0
  0
VERTEX
  5
128C
330
128A
100
AcDbEntity
  8
LOGO
 62
     5
100
AcDbVertex
100
AcDb2dVertex
 10
1904.167565780342
 20
71.8439761089214
 30
0.0
 42
1.0
  0
SEQEND
  5
128D
330
128A
100
AcDbEntity
  8
LOGO
 62
     5
  0
SOLID
  5
128E
330
2
100
AcDbEntity
  8
LOGO
 62
     5
100
AcDbTrace
 10
1896.732717519998
 20
72.22840446039453
 30
0.0
 11
1897.501574222944
 21
72.22840446039453
 31
0.0
 12
1896.732717519998
 22
69.92183435155656
 32
0.0
 13
1897.501574222944
 23
69.92183435155656
 33
0.0
  0
SOLID
  5
128F
330
2
100
AcDbEntity
  8
LOGO
 62
     5
100
AcDbTrace
 10
1899.039287628836
 20
72.22840446039453
 30
0.0
 11
1899.808144331782
 21
72.22840446039453
 31
0.0
 12
1899.039287628836
 22
69.92183435155507
 32
0.0
 13
1899.808144331782
 23
69.92183435155507
 33
0.0
  0
POLYLINE
  5
1290
330
2
100
AcDbEntity
  8
LOGO
 62
     5
100
AcDb2dPolyline
 66
     1
 10
0.0
 20
0.0
 30
0.0
 40
0.770088845098376
 41
0.770088845098376
  0
VERTEX
  5
1291
330
1290
100
AcDbEntity
  8
LOGO
 62
     5
100
AcDbVertex
100
AcDb2dVertex
 10
1899.425564193538
 20
72.22840446039453
 30
0.0
 42
1.0
  0
VERTEX
  5
1292
330
1290
100
AcDbEntity
  8
LOGO
 62
     5
100
AcDbVertex
100
AcDb2dVertex
 10
1897.115297658242
 20
72.22840446039453
 30
0.0
 42
1.0
  0
SEQEND
  5
1293
330
1290
100
AcDbEntity
  8
LOGO
 62
     5
  0
POLYLINE
  5
1294
330
2
100
AcDbEntity
  8
LOGO
 62
     5
100
AcDb2dPolyline
 66
     1
 10
0.0
 20
0.0
 30
0.0
 40
0.770088845098376
 41
0.770088845098376
  0
VERTEX
  5
1295
330
1294
100
AcDbEntity
  8
LOGO
 62
     5
100
AcDbVertex
100
AcDb2dVertex
 10
1908.139324750709
 20
72.22840446039453
 30
0.0
 42
1.0
  0
VERTEX
  5
1296
330
1294
100
AcDbEntity
  8
LOGO
 62
     5
100
AcDbVertex
100
AcDb2dVertex
 10
1905.829058215413
 20
72.22840446039453
 30
0.0
 42
1.0
  0
SEQEND
  5
1297
330
1294
100
AcDbEntity
  8
LOGO
 62
     5
  0
TEXT
  5
1298
330
2
100
AcDbEntity
  8
LOGO
 62
     6
100
AcDbText
 10
1918.595448901887
 20
82.00253232192691
 30
0.0
 40
5.156844944855196
  1
投影 View:
 41
0.9
  7
CHINESET
 72
     4
 11
1933.168140196947
 21
84.5084155138392
 31
0.0
100
AcDbText
  0
TEXT
  5
1299
330
2
100
AcDbEntity
  8
LOGO
 62
     6
100
AcDbText
 10
1916.79285533411
 20
92.24622074851614
 30
0.0
 40
5.156844944855196
  1
比例 Scale:
 41
0.9
  7
CHINESET
 72
     4
 11
1933.168140196947
 21
94.82210540354961
 31
0.0
100
AcDbText
  0
CIRCLE
  5
129A
330
2
100
AcDbEntity
  8
LOGO
  6
CONTINUOUS
 62
     6
100
AcDbCircle
 10
1963.344063399737
 20
84.51944604291307
 30
0.0
 40
1.754327674059902
  0
LINE
  5
12BA
330
2
100
AcDbEntity
  8
0
 62
     4
100
AcDbLine
 10
2256.274697440292
 20
398.4311085476757
 30
0.0
 11
2256.274697440292
 21
99.97895034840482
 31
0.0
  0
LINE
  5
12BB
330
2
100
AcDbEntity
  8
LOGO
 62
     6
100
AcDbLine
 10
2249.431857642087
 20
52.70787168723237
 30
0.0
 11
2203.625216782419
 21
52.70787168723228
 31
0.0
  0
LINE
  5
12BC
330
2
100
AcDbEntity
  8
LOGO
 62
     6
100
AcDbLine
 10
2249.431857642087
 20
71.61637508074992
 30
0.0
 11
2203.625216782419
 21
71.61637508074992
 31
0.0
  0
LINE
  5
12BD
330
2
100
AcDbEntity
  8
LOGO
 62
     6
100
AcDbLine
 10
2249.431857642087
 20
79.35161852168312
 30
0.0
 11
2203.625216782419
 21
79.35161852168318
 31
0.0
  0
LINE
  5
12BE
330
2
100
AcDbEntity
  8
LOGO
 62
     6
100
AcDbLine
 10
2249.431857642087
 20
94.82210540354987
 30
0.0
 11
2203.625216782419
 21
94.82210540354969
 31
0.0
  0
LINE
  5
12BF
330
2
100
AcDbEntity
  8
LOGO
 62
     6
100
AcDbLine
 10
2153.578251058594
 20
79.3516185216831
 30
0.0
 11
2103.299168692527
 21
79.35161852168312
 31
0.0
  0
LINE
  5
12C0
330
2
100
AcDbEntity
  8
LOGO
 62
     6
100
AcDbLine
 10
2153.578251058594
 20
94.82210540354987
 30
0.0
 11
2103.299168692527
 21
94.82210540354961
 31
0.0
  0
LINE
  5
12C1
330
2
100
AcDbEntity
  8
LOGO
 62
     6
100
AcDbLine
 10
2153.578251058594
 20
52.70787168723228
 30
0.0
 11
2103.299168692527
 21
52.70787168723228
 31
0.0
  0
LINE
  5
12C2
330
2
100
AcDbEntity
  8
LOGO
 62
     6
100
AcDbLine
 10
2153.578251058594
 20
71.61637508074986
 30
0.0
 11
2103.299168692527
 21
71.61637508074986
 31
0.0
  0
TEXT
  5
12C3
330
2
100
AcDbEntity
  8
LOGO
 62
     6
100
AcDbText
 10
2105.192052338788
 20
54.85656374101903
 30
0.0
 40
4.29735746718514
  1
Rotating direction
 41
0.8
  7
ROMANS1
 72
     1
 11
2128.438709875561
 21
57.0052424746116
 31
0.0
100
AcDbText
 73
     2
  0
TEXT
  5
12C4
330
2
100
AcDbEntity
  8
LOGO
 62
     7
100
AcDbText
 10
1991.162041768139
 20
77.38769015714499
 30
0.0
 40
6.875793259806928
  1
Order example:
 41
0.8
  7
CHINESET
100
AcDbText
  0
LINE
  5
12C5
330
2
100
AcDbEntity
  8
LOGO
 62
     1
100
AcDbLine
 10
1988.174486275402
 20
48.41050089985282
 30
0.0
 11
1988.174486275402
 21
99.97895034840482
 31
0.0
  0
TEXT
  5
12C6
330
2
100
AcDbEntity
  8
LOGO
 62
     7
100
AcDbText
 10
1992.395615939445
 20
87.06738341579301
 30
0.0
 40
10.31368988971039
  1
訂購代號:
  7
CHINESET
100
AcDbText
  0
LINE
  5
12C7
330
2
100
AcDbEntity
  8
LOGO
 62
     6
100
AcDbLine
 10
1982.159872848093
 20
81.52526048948274
 30
0.0
 11
1982.159872848093
 21
87.51363159634351
 31
0.0
  0
LINE
  5
12C8
330
2
100
AcDbEntity
  8
LOGO
  6
CONTINUOUS
 62
     6
100
AcDbLine
 10
1972.773273012541
 20
86.27377371697305
 30
0.0
 11
1982.159872848093
 21
87.51363159634351
 31
0.0
  0
LINE
  5
12C9
330
2
100
AcDbEntity
  8
LOGO
  6
CONTINUOUS
 62
     6
100
AcDbLine
 10
1972.773273012541
 20
82.76511836885322
 30
0.0
 11
1982.159872848093
 21
81.52526048948274
 31
0.0
  0
LINE
  5
12CA
330
2
100
AcDbEntity
  8
LOGO
 62
     6
100
AcDbLine
 10
1972.773273012541
 20
82.76511836885319
 30
0.0
 11
1972.773273012541
 21
86.27377371697305
 31
0.0
  0
LINE
  5
12CB
330
2
100
AcDbEntity
  8
LOGO
 62
     6
100
AcDbLine
 10
2079.731979547333
 20
79.35157056898401
 30
0.0
 11
2079.731979547333
 21
71.61630315170123
 31
0.0
  0
TEXT
  5
12CC
330
2
100
AcDbEntity
  8
LOGO
  6
CONTINUOUS
 62
     6
100
AcDbText
 10
2071.546511380896
 20
54.85655708092182
 30
0.0
 40
4.29737078737933
  1
Model
  7
CHINESET
 72
     4
 11
2079.731979547333
 21
57.00524247461149
 31
0.0
100
AcDbText
  0
TEXT
  5
12CD
330
2
100
AcDbEntity
  8
LOGO
 62
     6
100
AcDbText
 10
2072.856186287526
 20
62.33804275879244
 30
0.0
 40
6.875793259806928
  1
型式
  7
CHINESET
 72
     4
 11
2079.731979547333
 21
65.59998404937013
 31
0.0
100
AcDbText
  0
LINE
  5
12CE
330
2
100
AcDbEntity
  8
LOGO
 62
     6
100
AcDbLine
 10
2096.92146269685
 20
52.70787168723211
 30
0.0
 11
2062.542496397816
 21
52.70787168723211
 31
0.0
  0
LINE
  5
12CF
330
2
100
AcDbEntity
  8
LOGO
 62
     6
100
AcDbLine
 10
2096.92146269685
 20
71.61630315170123
 30
0.0
 11
2062.542496397816
 21
71.61630315170123
 31
0.0
  0
LINE
  5
12D0
330
2
100
AcDbEntity
  8
LOGO
 62
     6
100
AcDbLine
 10
2062.542496397816
 20
71.61630315170123
 30
0.0
 11
2062.542496397816
 21
52.70787168723211
 31
0.0
  0
LINE
  5
12D1
330
2
100
AcDbEntity
  8
LOGO
 62
     6
100
AcDbLine
 10
2103.299168692527
 20
71.61637508074986
 30
0.0
 11
2103.299168692527
 21
52.70787168723228
 31
0.0
  0
LINE
  5
12D2
330
2
100
AcDbEntity
  8
LOGO
 62
     6
100
AcDbLine
 10
2096.92146269685
 20
71.61630315170123
 30
0.0
 11
2096.92146269685
 21
52.70787168723217
 31
0.0
  0
TEXT
  5
12D3
330
2
100
AcDbEntity
  8
LOGO
  6
CONTINUOUS
 62
     7
100
AcDbText
 10
2063.361043214459
 20
82.78946719888747
 30
0.0
 40
8.594741574758661
  1
MASD
  7
CHINESET
 72
     1
 11
2079.731979547333
 21
87.0868379862668
 31
0.0
100
AcDbText
 73
     2
  0
LINE
  5
12D4
330
2
100
AcDbEntity
  8
LOGO
 62
     6
100
AcDbLine
 10
2100.359359326754
 20
79.35157056898401
 30
0.0
 11
2059.104599767913
 21
79.35157056898401
 31
0.0
  0
LINE
  5
12D5
330
2
100
AcDbEntity
  8
LOGO
 62
     6
100
AcDbLine
 10
2100.359359326754
 20
94.82210540354961
 30
0.0
 11
2059.104599767913
 21
94.82210540354961
 31
0.0
  0
LINE
  5
12D6
330
2
100
AcDbEntity
  8
LOGO
 62
     6
100
AcDbLine
 10
2059.104599767913
 20
94.82210540354961
 30
0.0
 11
2059.104599767913
 21
79.35157056898401
 31
0.0
  0
LINE
  5
12D7
330
2
100
AcDbEntity
  8
LOGO
 62
     6
100
AcDbLine
 10
2103.299168692527
 20
94.82210540354961
 30
0.0
 11
2103.299168692527
 21
79.35161852168312
 31
0.0
  0
LINE
  5
12D8
330
2
100
AcDbEntity
  8
LOGO
 62
     6
100
AcDbLine
 10
2103.299168692527
 20
94.82210540354961
 30
0.0
 11
2103.299168692527
 21
79.35157056898401
 31
0.0
  0
LINE
  5
12D9
330
2
100
AcDbEntity
  8
LOGO
 62
     6
100
AcDbLine
 10
2100.359359326754
 20
94.82210540354961
 30
0.0
 11
2100.359359326754
 21
79.35157056898401
 31
0.0
  0
TEXT
  5
12DA
330
2
100
AcDbEntity
  8
LOGO
  6
CONTINUOUS
 62
     6
100
AcDbText
 10
2173.558856320082
 20
54.85655708092194
 30
0.0
 40
4.29737078737933
  1
Bore
 41
0.8
  7
CHINESET
 72
     4
 11
2178.879410628266
 21
57.0052424746116
 31
0.0
100
AcDbText
  0
TEXT
  5
12DB
330
2
100
AcDbEntity
  8
LOGO
 62
     6
100
AcDbText
 10
2172.304433323576
 20
62.16208741946676
 30
0.0
 40
6.875793259806928
  1
內徑
 41
0.9
  7
CHINESET
 72
     4
 11
2178.879410628266
 21
65.59998404937022
 31
0.0
100
AcDbText
  0
LINE
  5
12DC
330
2
100
AcDbEntity
  8
LOGO
 62
     6
100
AcDbLine
 10
2192.678615468824
 20
52.70787168723228
 30
0.0
 11
2165.080205787709
 21
52.70787168723223
 31
0.0
  0
LINE
  5
12DD
330
2
100
AcDbEntity
  8
LOGO
 62
     6
100
AcDbLine
 10
2192.678615468824
 20
71.61630315170132
 30
0.0
 11
2165.080205787709
 21
71.61630315170132
 31
0.0
  0
TEXT
  5
12DE
330
2
100
AcDbEntity
  8
LOGO
  6
CONTINUOUS
 62
     7
100
AcDbText
 10
2172.72393878849
 20
82.69200228785129
 30
0.0
 40
8.594741574758661
  1
50
  7
CHINESET
 72
     1
 11
2179.681586729962
 21
86.98937307523062
 31
0.0
100
AcDbText
 73
     2
  0
LINE
  5
12DF
330
2
100
AcDbEntity
  8
LOGO
 62
     6
100
AcDbLine
 10
2192.678615468824
 20
79.35157056898415
 30
0.0
 11
2165.080205787709
 21
79.35157056898415
 31
0.0
  0
LINE
  5
12E0
330
2
100
AcDbEntity
  8
LOGO
 62
     6
100
AcDbLine
 10
2192.678615468824
 20
94.82210540354978
 30
0.0
 11
2165.080205787709
 21
94.82210540354973
 31
0.0
  0
LINE
  5
12E1
330
2
100
AcDbEntity
  8
LOGO
 62
     6
100
AcDbLine
 10
2128.438709875561
 20
79.35161852168312
 30
0.0
 11
2128.438709875561
 21
71.61637508074986
 31
0.0
  0
TEXT
  5
12E2
330
2
100
AcDbEntity
  8
LOGO
 62
     6
100
AcDbText
 10
2116.320124255151
 20
62.36990646607427
 30
0.0
 40
6.875793259806928
  1
旋轉方向
 41
0.9
  7
CHINESET
 72
     4
 11
2128.438709875561
 21
65.59998404937022
 31
0.0
100
AcDbText
  0
LINE
  5
12E3
330
2
100
AcDbEntity
  8
LOGO
 62
     6
100
AcDbLine
 10
2165.080205787709
 20
71.61630315170132
 30
0.0
 11
2165.080205787709
 21
52.70787168723228
 31
0.0
  0
LINE
  5
12E4
330
2
100
AcDbEntity
  8
LOGO
 62
     6
100
AcDbLine
 10
2153.578251058594
 20
71.61637508074986
 30
0.0
 11
2153.578251058594
 21
52.70787168723228
 31
0.0
  0
LINE
  5
12E5
330
2
100
AcDbEntity
  8
LOGO
 62
     6
100
AcDbLine
 10
2165.080205787709
 20
94.82210540354973
 30
0.0
 11
2165.080205787709
 21
79.35157056898415
 31
0.0
  0
LINE
  5
12E6
330
2
100
AcDbEntity
  8
LOGO
 62
     6
100
AcDbLine
 10
2153.578251058594
 20
94.82210540354973
 30
0.0
 11
2153.578251058594
 21
79.35161852168312
 31
0.0
  0
LINE
  5
12E7
330
2
100
AcDbEntity
  8
LOGO
  6
CONTINUOUS
 62
     7
100
AcDbLine
 10
2155.827563222113
 20
87.03203890696048
 30
0.0
 11
2162.658786910324
 21
87.03203890696048
 31
0.0
  0
LINE
  5
12E8
330
2
100
AcDbEntity
  8
LOGO
 62
     6
100
AcDbLine
 10
2178.879410231903
 20
79.35157056898415
 30
0.0
 11
2178.879410231903
 21
71.61630315170132
 31
0.0
  0
LINE
  5
12E9
330
2
100
AcDbEntity
  8
LOGO
 62
     6
100
AcDbLine
 10
2227.025475325258
 20
79.35161852168318
 30
0.0
 11
2227.025475325258
 21
71.61637508074992
 31
0.0
  0
TEXT
  5
12EA
330
2
100
AcDbEntity
  8
LOGO
 62
     6
100
AcDbText
 10
2207.871539185804
 20
54.85656374101903
 30
0.0
 40
4.29735746718514
  1
Rotating angle
 41
0.8
  7
ROMANS1
 72
     1
 11
2227.025475325258
 21
57.0052424746116
 31
0.0
100
AcDbText
 73
     2
  0
LINE
  5
12EB
330
2
100
AcDbEntity
  8
LOGO
 62
     6
100
AcDbLine
 10
2192.678615468824
 20
71.61630315170132
 30
0.0
 11
2192.678615468824
 21
52.70787168723234
 31
0.0
  0
LINE
  5
12EC
330
2
100
AcDbEntity
  8
LOGO
 62
     6
100
AcDbLine
 10
2203.625216782419
 20
71.61637508074992
 30
0.0
 11
2203.625216782419
 21
52.70787168723228
 31
0.0
  0
TEXT
  5
12ED
330
2
100
AcDbEntity
  8
LOGO
 62
     6
100
AcDbText
 10
2214.713508019416
 20
62.37667397912527
 30
0.0
 40
6.875793259806928
  1
旋轉角度
 41
0.9
  7
CHINESET
 72
     4
 11
2227.025475325258
 21
65.59998404937022
 31
0.0
100
AcDbText
  0
LINE
  5
12EE
330
2
100
AcDbEntity
  8
LOGO
 62
     6
100
AcDbLine
 10
2192.678615468824
 20
94.82210540354978
 30
0.0
 11
2192.678615468824
 21
79.35157056898415
 31
0.0
  0
LINE
  5
12EF
330
2
100
AcDbEntity
  8
LOGO
 62
     6
100
AcDbLine
 10
2203.625216782419
 20
94.82210540354969
 30
0.0
 11
2203.625216782419
 21
79.35161852168318
 31
0.0
  0
LINE
  5
12F0
330
2
100
AcDbEntity
  8
LOGO
  6
CONTINUOUS
 62
     7
100
AcDbLine
 10
2194.793636610238
 20
87.03203890696059
 30
0.0
 11
2201.624860298449
 21
87.03203890696059
 31
0.0
  0
LINE
  5
1309
330
2
100
AcDbEntity
  8
LOGO
 62
     1
100
AcDbLine
 10
2256.274697440292
 20
48.41050089985282
 30
0.0
 11
2256.274697440292
 21
99.97895034840482
 31
0.0
  0
LINE
  5
130A
330
2
100
AcDbEntity
  8
LOGO
 62
     6
100
AcDbLine
 10
2249.431857642087
 20
71.61637508074992
 30
0.0
 11
2249.431857642087
 21
52.70787168723237
 31
0.0
  0
LINE
  5
130B
330
2
100
AcDbEntity
  8
LOGO
 62
     6
100
AcDbLine
 10
2249.431857642087
 20
94.82210540354975
 30
0.0
 11
2249.431857642087
 21
79.35161852168318
 31
0.0
  0
TEXT
  5
29A5
330
2
100
AcDbEntity
  8
AM_5
100
AcDbText
 10
2050.186081219716
 20
211.0507125601953
 30
0.0
 40
3.5
  1
PT 1/8
  7
CHINA
100
AcDbText
  0
LINE
  5
2BF8
330
2
100
AcDbEntity
  8
0
100
AcDbLine
 10
1973.201441279138
 20
118.5868362655709
 30
0.0
 11
2039.201441279138
 21
118.5868362655709
 31
0.0
  0
ARC
  5
2BF9
330
2
100
AcDbEntity
  8
0
100
AcDbCircle
 10
2006.201441279138
 20
340.6431085244479
 30
0.0
 40
30.0
100
AcDbArc
 50
201.5101882668874
 51
338.4898117331125
  0
LINE
  5
2BFA
102
{ACAD_REACTORS
330
2F9D
102
}
330
2
100
AcDbEntity
  8
0
100
AcDbLine
 10
1977.201441279138
 20
198.5868362655709
 30
0.0
 11
2035.201441279138
 21
198.5868362655709
 31
0.0
  0
CIRCLE
  5
2C0A
330
2
100
AcDbEntity
  8
0
100
AcDbCircle
 10
1978.701441279138
 20
368.1431085244479
 30
0.0
 40
4.25
  0
CIRCLE
  5
2C0B
330
2
100
AcDbEntity
  8
0
100
AcDbCircle
 10
1978.701441279138
 20
313.1431085244479
 30
0.0
 40
4.25
  0
LINE
  5
2C0C
102
{ACAD_REACTORS
330
2F65
102
}
330
2
100
AcDbEntity
  8
0
100
AcDbLine
 10
1972.701441279138
 20
144.5868362655709
 30
0.0
 11
2039.701441279138
 21
144.5868362655709
 31
0.0
  0
LINE
  5
2C15
330
2
100
AcDbEntity
  8
0
100
AcDbLine
 10
1976.201441279138
 20
197.5868362655709
 30
0.0
 11
1976.201441279138
 21
144.5868362655709
 31
0.0
  0
LINE
  5
2C16
330
2
100
AcDbEntity
  8
0
100
AcDbLine
 10
1972.201441279138
 20
144.0868362655709
 30
0.0
 11
1972.201441279138
 21
119.5868362655709
 31
0.0
  0
LINE
  5
2C17
330
2
100
AcDbEntity
  8
0
100
AcDbLine
 10
1972.201441279138
 20
119.5868362655709
 30
0.0
 11
1973.201441279138
 21
118.5868362655709
 31
0.0
  0
LINE
  5
2C18
330
2
100
AcDbEntity
  8
0
100
AcDbLine
 10
1972.201441279138
 20
144.0868362655709
 30
0.0
 11
1972.701441279138
 21
144.5868362655709
 31
0.0
  0
LINE
  5
2C19
330
2
100
AcDbEntity
  8
0
100
AcDbLine
 10
1977.201441279138
 20
198.5868362655709
 30
0.0
 11
1976.201441279138
 21
197.5868362655709
 31
0.0
  0
POLYLINE
  5
2C21
330
2
100
AcDbEntity
  8
0
100
AcDb2dPolyline
 66
     1
 10
0.0
 20
0.0
 30
0.0
  0
VERTEX
  5
2C22
330
2C21
100
AcDbEntity
  8
0
100
AcDbVertex
100
AcDb2dVertex
 10
1972.201441279138
 20
308.6431085244479
 30
0.0
  0
VERTEX
  5
2C23
330
2C21
100
AcDbEntity
  8
0
100
AcDbVertex
100
AcDb2dVertex
 10
1972.201441279138
 20
329.6431085244479
 30
0.0
  0
SEQEND
  5
2C24
330
2C21
100
AcDbEntity
  8
0
  0
LINE
  5
2C26
330
2
100
AcDbEntity
  8
CENTER
100
AcDbLine
 10
2006.201441279138
 20
257.9214280755195
 30
0.0
 11
2006.201441279138
 21
115.7156086908709
 31
0.0
  0
LINE
  5
2C2C
330
2
100
AcDbEntity
  8
0
100
AcDbLine
 10
1996.201441279138
 20
231.5868362655709
 30
0.0
 11
1996.201441279138
 21
198.5868362655709
 31
0.0
  0
LINE
  5
2C2F
330
2
100
AcDbEntity
  8
0
100
AcDbLine
 10
2016.201441279138
 20
231.5868362655709
 30
0.0
 11
2016.201441279138
 21
198.5868362655709
 31
0.0
  0
LINE
  5
2C30
330
2
100
AcDbEntity
  8
0
100
AcDbLine
 10
2036.201441279138
 20
197.5868362655709
 30
0.0
 11
2036.201441279138
 21
144.5868362655709
 31
0.0
  0
LINE
  5
2C31
330
2
100
AcDbEntity
  8
0
100
AcDbLine
 10
2040.201441279138
 20
144.0868362655709
 30
0.0
 11
2040.201441279138
 21
119.5868362655709
 31
0.0
  0
LINE
  5
2C32
102
{ACAD_REACTORS
330
2F2D
330
2F65
330
2F9D
330
2FD5
102
}
330
2
100
AcDbEntity
  8
0
100
AcDbLine
 10
2039.201441279138
 20
118.5868362655709
 30
0.0
 11
2040.201441279138
 21
119.5868362655709
 31
0.0
  0
LINE
  5
2C33
330
2
100
AcDbEntity
  8
0
100
AcDbLine
 10
2039.701441279138
 20
144.5868362655709
 30
0.0
 11
2040.201441279138
 21
144.0868362655709
 31
0.0
  0
LINE
  5
2C36
330
2
100
AcDbEntity
  8
0
100
AcDbLine
 10
2036.201441279138
 20
197.5868362655709
 30
0.0
 11
2035.201441279138
 21
198.5868362655709
 31
0.0
  0
LINE
  5
2C38
330
2
100
AcDbEntity
  8
CENTER
100
AcDbLine
 10
2006.201441279138
 20
303.6195398439478
 30
0.0
 11
2006.201441279138
 21
377.1029654745479
 31
0.0
  0
CIRCLE
  5
2C3A
330
2
100
AcDbEntity
  8
0
100
AcDbCircle
 10
2033.701441279138
 20
313.1431085244479
 30
0.0
 40
4.25
  0
CIRCLE
  5
2C3E
330
2
100
AcDbEntity
  8
0
100
AcDbCircle
 10
2033.701441279138
 20
368.1431085244479
 30
0.0
 40
4.25
  0
LINE
  5
2C43
330
2
100
AcDbEntity
  8
0
100
AcDbLine
 10
2166.878596766108
 20
231.5868362655709
 30
0.0
 11
2166.878596766108
 21
198.5868362655709
 31
0.0
  0
LINE
  5
2C44
330
2
100
AcDbEntity
  8
0
100
AcDbLine
 10
2186.878596766109
 20
231.5868362655709
 30
0.0
 11
2186.878596766109
 21
198.5868362655709
 31
0.0
  0
LINE
  5
2C45
330
2
100
AcDbEntity
  8
CENTER
100
AcDbLine
 10
2176.878596766108
 20
258.1518198371709
 30
0.0
 11
2176.878596766108
 21
115.7156086908709
 31
0.0
  0
LINE
  5
2C46
330
2
100
AcDbEntity
  8
0
100
AcDbLine
 10
2143.378596766108
 20
144.5868362655709
 30
0.0
 11
2210.378596766108
 21
144.5868362655709
 31
0.0
  0
LINE
  5
2C47
330
2
100
AcDbEntity
  8
0
100
AcDbLine
 10
2209.878596766108
 20
118.5868362655709
 30
0.0
 11
2210.878596766109
 21
119.5868362655709
 31
0.0
  0
LINE
  5
2C48
330
2
100
AcDbEntity
  8
0
100
AcDbLine
 10
2142.878596766109
 20
144.0868362655709
 30
0.0
 11
2142.878596766109
 21
119.5868362655709
 31
0.0
  0
LINE
  5
2C4C
330
2
100
AcDbEntity
  8
0
100
AcDbLine
 10
2143.878596766108
 20
118.5868362655709
 30
0.0
 11
2209.878596766108
 21
118.5868362655709
 31
0.0
  0
LINE
  5
2C4D
330
2
100
AcDbEntity
  8
0
100
AcDbLine
 10
2142.878596766109
 20
119.5868362655709
 30
0.0
 11
2143.878596766108
 21
118.5868362655709
 31
0.0
  0
LINE
  5
2C4F
330
2
100
AcDbEntity
  8
0
100
AcDbLine
 10
2147.878596766108
 20
198.5868362655709
 30
0.0
 11
2205.878596766108
 21
198.5868362655709
 31
0.0
  0
LINE
  5
2C50
330
2
100
AcDbEntity
  8
0
100
AcDbLine
 10
2146.878596766109
 20
197.5868362655709
 30
0.0
 11
2146.878596766109
 21
144.5868362655709
 31
0.0
  0
LINE
  5
2C51
330
2
100
AcDbEntity
  8
0
100
AcDbLine
 10
2142.878596766109
 20
144.0868362655709
 30
0.0
 11
2143.378596766108
 21
144.5868362655709
 31
0.0
  0
LINE
  5
2C52
330
2
100
AcDbEntity
  8
0
100
AcDbLine
 10
2147.878596766108
 20
198.5868362655709
 30
0.0
 11
2146.878596766109
 21
197.5868362655709
 31
0.0
  0
LINE
  5
2C53
330
2
100
AcDbEntity
  8
0
100
AcDbLine
 10
2206.878596766109
 20
197.5868362655709
 30
0.0
 11
2206.878596766109
 21
144.5868362655709
 31
0.0
  0
LINE
  5
2C57
330
2
100
AcDbEntity
  8
0
100
AcDbLine
 10
2206.878596766109
 20
197.5868362655709
 30
0.0
 11
2205.878596766108
 21
198.5868362655709
 31
0.0
  0
LINE
  5
2C58
330
2
100
AcDbEntity
  8
0
100
AcDbLine
 10
2210.878596766109
 20
144.0868362655709
 30
0.0
 11
2210.878596766109
 21
119.5868362655709
 31
0.0
  0
LINE
  5
2C59
330
2
100
AcDbEntity
  8
0
100
AcDbLine
 10
2210.378596766108
 20
144.5868362655709
 30
0.0
 11
2210.878596766109
 21
144.0868362655709
 31
0.0
  0
LINE
  5
2C65
330
2
100
AcDbEntity
  8
0
100
AcDbLine
 10
2165.378596766108
 20
231.5868362655709
 30
0.0
 11
2188.378596766108
 21
231.5868362655709
 31
0.0
  0
LINE
  5
2C66
330
2
100
AcDbEntity
  8
0
100
AcDbLine
 10
2165.378596766108
 20
253.5868362655709
 30
0.0
 11
2188.378596766108
 21
253.5868362655709
 31
0.0
  0
LINE
  5
2C67
330
2
100
AcDbEntity
  8
0
100
AcDbLine
 10
2164.378596766109
 20
252.5868362655709
 30
0.0
 11
2164.378596766109
 21
232.5868362655709
 31
0.0
  0
LINE
  5
2C6B
330
2
100
AcDbEntity
  8
0
100
AcDbLine
 10
2165.378596766108
 20
231.5868362655709
 30
0.0
 11
2164.378596766109
 21
232.5868362655709
 31
0.0
  0
LINE
  5
2C6C
330
2
100
AcDbEntity
  8
0
100
AcDbLine
 10
2165.378596766108
 20
253.5868362655709
 30
0.0
 11
2164.378596766109
 21
252.5868362655709
 31
0.0
  0
LINE
  5
2C6F
330
2
100
AcDbEntity
  8
0
100
AcDbLine
 10
2189.378596766109
 20
252.5868362655709
 30
0.0
 11
2189.378596766109
 21
232.5868362655709
 31
0.0
  0
LINE
  5
2C70
330
2
100
AcDbEntity
  8
0
100
AcDbLine
 10
2189.378596766109
 20
232.5868362655709
 30
0.0
 11
2188.378596766108
 21
231.5868362655709
 31
0.0
  0
LINE
  5
2C71
330
2
100
AcDbEntity
  8
0
100
AcDbLine
 10
2189.378596766109
 20
232.5868362655709
 30
0.0
 11
2188.378596766108
 21
231.5868362655709
 31
0.0
  0
LINE
  5
2C72
330
2
100
AcDbEntity
  8
0
100
AcDbLine
 10
2188.378596766108
 20
253.5868362655709
 30
0.0
 11
2189.378596766109
 21
252.5868362655709
 31
0.0
  0
LINE
  5
2C73
330
2
100
AcDbEntity
  8
0
100
AcDbLine
 10
2189.378596766109
 20
252.5868362655709
 30
0.0
 11
2188.378596766108
 21
253.5868362655709
 31
0.0
  0
LINE
  5
2CC9
102
{ACAD_REACTORS
330
2D8A
102
}
330
2
100
AcDbEntity
  8
AM_7
  6
AM_ISO08W050X2
100
AcDbLine
 10
2033.701441279138
 20
313.1431085244479
 30
0.0
 11
2039.451441279138
 21
313.1431085244479
 31
0.0
1001
GENIUS_GENOREF_13
1005
2CCD
  0
LINE
  5
2CCA
330
2
100
AcDbEntity
  8
AM_7
  6
AM_ISO08W050X2
100
AcDbLine
 10
2033.701441279138
 20
313.1431085244479
 30
0.0
 11
2033.701441279138
 21
318.8931085244479
 31
0.0
1001
GENIUS_GENOREF_13
1005
2CCD
  0
LINE
  5
2CCB
330
2
100
AcDbEntity
  8
AM_7
  6
AM_ISO08W050X2
100
AcDbLine
 10
2033.701441279138
 20
313.1431085244479
 30
0.0
 11
2027.951441279138
 21
313.1431085244479
 31
0.0
1001
GENIUS_GENOREF_13
1005
2CCD
  0
LINE
  5
2CCC
102
{ACAD_REACTORS
330
2DC2
102
}
330
2
100
AcDbEntity
  8
AM_7
  6
AM_ISO08W050X2
100
AcDbLine
 10
2033.701441279138
 20
313.1431085244479
 30
0.0
 11
2033.701441279138
 21
307.3931085244479
 31
0.0
1001
GENIUS_GENOREF_13
1005
2CCD
  0
POINT
  5
2CCD
330
2
100
AcDbEntity
  8
0
 60
     1
100
AcDbPoint
 10
0.0
 20
0.0
 30
0.0
1001
GENIUS_GENODEF_13
1002
{
1000
HIER
1070
    10
1002
}
1002
{
1000
MANEDIT
1070
     0
1002
}
1002
{
1000
NOSEL
1070
     0
1002
}
1002
{
1000
BEHIND
1070
     0
1002
}
1002
{
1000
OTHER
1070
     0
1002
}
1002
{
1000
REACTOR
1002
}
1001
GENIUS_GENOLIS_13
1002
{
1000
ENT
1005
2CCC
1005
2CCB
1005
2CCA
1005
2CC9
1002
}
1001
GENIUS_GENOENT_13
1002
{
1000
MYREF
1005
2CCD
1002
}
1002
{
1000
GRP
1005
0
1002
}
1001
GENIUS_GENOBJ-N-CRS_13
1002
{
1000
OWNER
1000
GEN
1002
}
  0
LINE
  5
2CED
102
{ACAD_REACTORS
330
2D8A
102
}
330
2
100
AcDbEntity
  8
AM_7
  6
AM_ISO08W050X2
100
AcDbLine
 10
2033.701441279138
 20
368.1431085244479
 30
0.0
 11
2039.451441279138
 21
368.1431085244479
 31
0.0
1001
GENIUS_GENOREF_13
1005
2CF1
  0
LINE
  5
2CEE
330
2
100
AcDbEntity
  8
AM_7
  6
AM_ISO08W050X2
100
AcDbLine
 10
2033.701441279138
 20
368.1431085244479
 30
0.0
 11
2033.701441279138
 21
373.8931085244479
 31
0.0
1001
GENIUS_GENOREF_13
1005
2CF1
  0
LINE
  5
2CEF
330
2
100
AcDbEntity
  8
AM_7
  6
AM_ISO08W050X2
100
AcDbLine
 10
2033.701441279138
 20
368.1431085244479
 30
0.0
 11
2027.951441279138
 21
368.1431085244479
 31
0.0
1001
GENIUS_GENOREF_13
1005
2CF1
  0
LINE
  5
2CF0
330
2
100
AcDbEntity
  8
AM_7
  6
AM_ISO08W050X2
100
AcDbLine
 10
2033.701441279138
 20
368.1431085244479
 30
0.0
 11
2033.701441279138
 21
362.3931085244479
 31
0.0
1001
GENIUS_GENOREF_13
1005
2CF1
  0
POINT
  5
2CF1
330
2
100
AcDbEntity
  8
0
 60
     1
100
AcDbPoint
 10
0.0
 20
0.0
 30
0.0
1001
GENIUS_GENOLIS_13
1002
{
1000
ENT
1005
2CF0
1005
2CEF
1005
2CEE
1005
2CED
1002
}
1001
GENIUS_GENOENT_13
1002
{
1000
MYREF
1005
2CF1
1002
}
1002
{
1000
GRP
1005
0
1002
}
1001
GENIUS_GENOBJ-N-CRS_13
1002
{
1000
OWNER
1000
GEN
1002
}
1001
GENIUS_GENODEF_13
1002
{
1000
HIER
1070
    10
1002
}
1002
{
1000
MANEDIT
1070
     0
1002
}
1002
{
1000
NOSEL
1070
     0
1002
}
1002
{
1000
BEHIND
1070
     0
1002
}
1002
{
1000
OTHER
1070
     0
1002
}
1002
{
1000
REACTOR
1002
}
  0
LINE
  5
2CFF
330
2
100
AcDbEntity
  8
AM_7
  6
AM_ISO08W050X2
100
AcDbLine
 10
1978.701441279138
 20
368.1431085244479
 30
0.0
 11
1984.451441279138
 21
368.1431085244479
 31
0.0
1001
GENIUS_GENOREF_13
1005
2D03
  0
LINE
  5
2D00
330
2
100
AcDbEntity
  8
AM_7
  6
AM_ISO08W050X2
100
AcDbLine
 10
1978.701441279138
 20
368.1431085244479
 30
0.0
 11
1978.701441279138
 21
373.8931085244479
 31
0.0
1001
GENIUS_GENOREF_13
1005
2D03
  0
LINE
  5
2D01
330
2
100
AcDbEntity
  8
AM_7
  6
AM_ISO08W050X2
100
AcDbLine
 10
1978.701441279138
 20
368.1431085244479
 30
0.0
 11
1972.951441279138
 21
368.1431085244479
 31
0.0
1001
GENIUS_GENOREF_13
1005
2D03
  0
LINE
  5
2D02
330
2
100
AcDbEntity
  8
AM_7
  6
AM_ISO08W050X2
100
AcDbLine
 10
1978.701441279138
 20
368.1431085244479
 30
0.0
 11
1978.701441279138
 21
362.3931085244479
 31
0.0
1001
GENIUS_GENOREF_13
1005
2D03
  0
POINT
  5
2D03
330
2
100
AcDbEntity
  8
0
 60
     1
100
AcDbPoint
 10
0.0
 20
0.0
 30
0.0
1001
GENIUS_GENOENT_13
1002
{
1000
MYREF
1005
2D03
1002
}
1002
{
1000
GRP
1005
0
1002
}
1001
GENIUS_GENOBJ-N-CRS_13
1002
{
1000
OWNER
1000
GEN
1002
}
1001
GENIUS_GENODEF_13
1002
{
1000
HIER
1070
    10
1002
}
1002
{
1000
MANEDIT
1070
     0
1002
}
1002
{
1000
NOSEL
1070
     0
1002
}
1002
{
1000
BEHIND
1070
     0
1002
}
1002
{
1000
OTHER
1070
     0
1002
}
1002
{
1000
REACTOR
1002
}
1001
GENIUS_GENOLIS_13
1002
{
1000
ENT
1005
2D02
1005
2D01
1005
2D00
1005
2CFF
1002
}
  0
LINE
  5
2D11
330
2
100
AcDbEntity
  8
AM_7
  6
AM_ISO08W050X2
100
AcDbLine
 10
1978.701441279138
 20
313.1431085244479
 30
0.0
 11
1984.451441279138
 21
313.1431085244479
 31
0.0
1001
GENIUS_GENOREF_13
1005
2D15
  0
LINE
  5
2D12
330
2
100
AcDbEntity
  8
AM_7
  6
AM_ISO08W050X2
100
AcDbLine
 10
1978.701441279138
 20
313.1431085244479
 30
0.0
 11
1978.701441279138
 21
318.8931085244479
 31
0.0
1001
GENIUS_GENOREF_13
1005
2D15
  0
LINE
  5
2D13
330
2
100
AcDbEntity
  8
AM_7
  6
AM_ISO08W050X2
100
AcDbLine
 10
1978.701441279138
 20
313.1431085244479
 30
0.0
 11
1972.951441279138
 21
313.1431085244479
 31
0.0
1001
GENIUS_GENOREF_13
1005
2D15
  0
LINE
  5
2D14
102
{ACAD_REACTORS
330
2DC2
102
}
330
2
100
AcDbEntity
  8
AM_7
  6
AM_ISO08W050X2
100
AcDbLine
 10
1978.701441279138
 20
313.1431085244479
 30
0.0
 11
1978.701441279138
 21
307.3931085244479
 31
0.0
1001
GENIUS_GENOREF_13
1005
2D15
  0
POINT
  5
2D15
330
2
100
AcDbEntity
  8
0
 60
     1
100
AcDbPoint
 10
0.0
 20
0.0
 30
0.0
1001
GENIUS_GENODEF_13
1002
{
1000
HIER
1070
    10
1002
}
1002
{
1000
MANEDIT
1070
     0
1002
}
1002
{
1000
NOSEL
1070
     0
1002
}
1002
{
1000
BEHIND
1070
     0
1002
}
1002
{
1000
OTHER
1070
     0
1002
}
1002
{
1000
REACTOR
1002
}
1001
GENIUS_GENOLIS_13
1002
{
1000
ENT
1005
2D14
1005
2D13
1005
2D12
1005
2D11
1002
}
1001
GENIUS_GENOENT_13
1002
{
1000
MYREF
1005
2D15
1002
}
1002
{
1000
GRP
1005
0
1002
}
1001
GENIUS_GENOBJ-N-CRS_13
1002
{
1000
OWNER
1000
GEN
1002
}
  0
TEXT
  5
2D17
330
2
100
AcDbEntity
  8
DIM
100
AcDbText
 10
1908.839739384286
 20
325.3315087500831
 30
0.0
 40
4.799999999999999
  1
CCW
  7
ROMANS
100
AcDbText
  0
TEXT
  5
2D18
330
2
100
AcDbEntity
  8
DIM
100
AcDbText
 10
1914.702477589362
 20
354.1662923264758
 30
0.0
 40
4.799999999999999
  1
CW
  7
ROMANS
100
AcDbText
  0
POLYLINE
  5
2D19
330
2
100
AcDbEntity
  8
DIM
100
AcDb2dPolyline
 66
     1
 10
0.0
 20
0.0
 30
0.0
 70
     5
 75
     6
  0
VERTEX
  5
2D1A
330
2D19
100
AcDbEntity
  8
DIM
100
AcDbVertex
100
AcDb2dVertex
 10
1925.066254682523
 20
331.2524742331605
 30
0.0
 70
    16
  0
VERTEX
  5
3AE4
330
2D19
100
AcDbEntity
  8
DIM
100
AcDbVertex
100
AcDb2dVertex
 10
1926.988389271482
 20
326.7971277483664
 30
0.0
 70
     8
  0
VERTEX
  5
3AE5
330
2D19
100
AcDbEntity
  8
DIM
100
AcDbVertex
100
AcDb2dVertex
 10
1927.07863206797
 20
326.4831181696883
 30
0.0
 70
     8
  0
VERTEX
  5
3AE6
330
2D19
100
AcDbEntity
  8
DIM
100
AcDbVertex
100
AcDb2dVertex
 10
1927.134204049301
 20
326.2327322152732
 30
0.0
 70
     8
  0
VERTEX
  5
3AE7
330
2D19
100
AcDbEntity
  8
DIM
100
AcDbVertex
100
AcDb2dVertex
 10
1927.168516252966
 20
326.0321585778693
 30
0.0
 70
     8
  0
VERTEX
  5
3AE8
330
2D19
100
AcDbEntity
  8
DIM
100
AcDbVertex
100
AcDb2dVertex
 10
1927.194979716455
 20
325.8675859502249
 30
0.0
 70
     8
  0
VERTEX
  5
3AE9
330
2D19
100
AcDbEntity
  8
DIM
100
AcDbVertex
100
AcDb2dVertex
 10
1927.227005477257
 20
325.7252030250883
 30
0.0
 70
     8
  0
VERTEX
  5
3AEA
330
2D19
100
AcDbEntity
  8
DIM
100
AcDbVertex
100
AcDb2dVertex
 10
1927.278004572863
 20
325.5911984952078
 30
0.0
 70
     8
  0
VERTEX
  5
3AEB
330
2D19
100
AcDbEntity
  8
DIM
100
AcDbVertex
100
AcDb2dVertex
 10
1927.361388040762
 20
325.4517610533316
 30
0.0
 70
     8
  0
VERTEX
  5
3AEC
330
2D19
100
AcDbEntity
  8
DIM
100
AcDbVertex
100
AcDb2dVertex
 10
1927.490566918445
 20
325.2930793922081
 30
0.0
 70
     8
  0
VERTEX
  5
3AED
330
2D19
100
AcDbEntity
  8
DIM
100
AcDbVertex
100
AcDb2dVertex
 10
1927.674375554497
 20
325.1063987452627
 30
0.0
 70
     8
  0
VERTEX
  5
3AEE
330
2D19
100
AcDbEntity
  8
DIM
100
AcDbVertex
100
AcDb2dVertex
 10
1927.903341541885
 20
324.9031905086293
 30
0.0
 70
     8
  0
VERTEX
  5
3AEF
330
2D19
100
AcDbEntity
  8
DIM
100
AcDbVertex
100
AcDb2dVertex
 10
1928.163415784668
 20
324.6999826191186
 30
0.0
 70
     8
  0
VERTEX
  5
3AF0
330
2D19
100
AcDbEntity
  8
DIM
100
AcDbVertex
100
AcDb2dVertex
 10
1928.440549186908
 20
324.5133030135419
 30
0.0
 70
     8
  0
VERTEX
  5
3AF1
330
2D19
100
AcDbEntity
  8
DIM
100
AcDbVertex
100
AcDb2dVertex
 10
1928.720692652667
 20
324.3596796287101
 30
0.0
 70
     8
  0
VERTEX
  5
3AF2
330
2D19
100
AcDbEntity
  8
DIM
100
AcDbVertex
100
AcDb2dVertex
 10
1928.989797086005
 20
324.2556404014343
 30
0.0
 70
     8
  0
VERTEX
  5
3AF3
330
2D19
100
AcDbEntity
  8
DIM
100
AcDbVertex
100
AcDb2dVertex
 10
1929.233813390984
 20
324.2177132685254
 30
0.0
 70
     8
  0
VERTEX
  5
3AF4
330
2D19
100
AcDbEntity
  8
DIM
100
AcDbVertex
100
AcDb2dVertex
 10
1929.438692471665
 20
324.2624261667943
 30
0.0
 70
     8
  0
VERTEX
  5
3AF5
330
2D19
100
AcDbEntity
  8
DIM
100
AcDbVertex
100
AcDb2dVertex
 10
1929.593709377124
 20
324.4001090350529
 30
0.0
 70
     8
  0
VERTEX
  5
3AF6
330
2D19
100
AcDbEntity
  8
DIM
100
AcDbVertex
100
AcDb2dVertex
 10
1929.701435736497
 20
324.6162998201155
 30
0.0
 70
     8
  0
VERTEX
  5
3AF7
330
2D19
100
AcDbEntity
  8
DIM
100
AcDbVertex
100
AcDb2dVertex
 10
1929.767767323931
 20
324.8903384707974
 30
0.0
 70
     8
  0
VERTEX
  5
3AF8
330
2D19
100
AcDbEntity
  8
DIM
100
AcDbVertex
100
AcDb2dVertex
 10
1929.79859991358
 20
325.2015649359136
 30
0.0
 70
     8
  0
VERTEX
  5
3AF9
330
2D19
100
AcDbEntity
  8
DIM
100
AcDbVertex
100
AcDb2dVertex
 10
1929.799829279591
 20
325.5293191642793
 30
0.0
 70
     8
  0
VERTEX
  5
3AFA
330
2D19
100
AcDbEntity
  8
DIM
100
AcDbVertex
100
AcDb2dVertex
 10
1929.777351196116
 20
325.8529411047098
 30
0.0
 70
     8
  0
VERTEX
  5
3AFB
330
2D19
100
AcDbEntity
  8
DIM
100
AcDbVertex
100
AcDb2dVertex
 10
1929.737061437303
 20
326.1517707060201
 30
0.0
 70
     8
  0
VERTEX
  5
3AFC
330
2D19
100
AcDbEntity
  8
DIM
100
AcDbVertex
100
AcDb2dVertex
 10
1929.684855777304
 20
326.4051479170254
 30
0.0
 70
     8
  0
VERTEX
  5
3AFD
330
2D19
100
AcDbEntity
  8
DIM
100
AcDbVertex
100
AcDb2dVertex
 10
1929.625207374307
 20
326.5990190712572
 30
0.0
 70
     8
  0
VERTEX
  5
3AFE
330
2D19
100
AcDbEntity
  8
DIM
100
AcDbVertex
100
AcDb2dVertex
 10
1929.556898922656
 20
326.7457560411123
 30
0.0
 70
     8
  0
VERTEX
  5
3AFF
330
2D19
100
AcDbEntity
  8
DIM
100
AcDbVertex
100
AcDb2dVertex
 10
1929.477290500734
 20
326.8643370837037
 30
0.0
 70
     8
  0
VERTEX
  5
3B00
330
2D19
100
AcDbEntity
  8
DIM
100
AcDbVertex
100
AcDb2dVertex
 10
1929.383742186925
 20
326.9737404561447
 30
0.0
 70
     8
  0
VERTEX
  5
3B01
330
2D19
100
AcDbEntity
  8
DIM
100
AcDbVertex
100
AcDb2dVertex
 10
1929.27361405961
 20
327.0929444155482
 30
0.0
 70
     8
  0
VERTEX
  5
3B02
330
2D19
100
AcDbEntity
  8
DIM
100
AcDbVertex
100
AcDb2dVertex
 10
1929.144266197175
 20
327.2409272190274
 30
0.0
 70
     8
  0
VERTEX
  5
3B03
330
2D19
100
AcDbEntity
  8
DIM
100
AcDbVertex
100
AcDb2dVertex
 10
1928.993058678
 20
327.4366671236955
 30
0.0
 70
     8
  0
VERTEX
  5
3B04
330
2D19
100
AcDbEntity
  8
DIM
100
AcDbVertex
100
AcDb2dVertex
 10
1928.81735158047
 20
327.6991423866654
 30
0.0
 70
     8
  0
VERTEX
  5
3B05
330
2D19
100
AcDbEntity
  8
DIM
100
AcDbVertex
100
AcDb2dVertex
 10
1928.615744013154
 20
328.0404773248
 30
0.0
 70
     8
  0
VERTEX
  5
3B06
330
2D19
100
AcDbEntity
  8
DIM
100
AcDbVertex
100
AcDb2dVertex
 10
1928.391791205374
 20
328.4453804939601
 30
0.0
 70
     8
  0
VERTEX
  5
3B07
330
2D19
100
AcDbEntity
  8
DIM
100
AcDbVertex
100
AcDb2dVertex
 10
1928.150287416638
 20
328.8917065097563
 30
0.0
 70
     8
  0
VERTEX
  5
3B08
330
2D19
100
AcDbEntity
  8
DIM
100
AcDbVertex
100
AcDb2dVertex
 10
1927.896026906453
 20
329.3573099877991
 30
0.0
 70
     8
  0
VERTEX
  5
3B09
330
2D19
100
AcDbEntity
  8
DIM
100
AcDbVertex
100
AcDb2dVertex
 10
1927.633803934328
 20
329.8200455436992
 30
0.0
 70
     8
  0
VERTEX
  5
3B0A
330
2D19
100
AcDbEntity
  8
DIM
100
AcDbVertex
100
AcDb2dVertex
 10
1927.36841275977
 20
330.2577677930668
 30
0.0
 70
     8
  0
VERTEX
  5
3B0B
330
2D19
100
AcDbEntity
  8
DIM
100
AcDbVertex
100
AcDb2dVertex
 10
1927.104647642289
 20
330.6483313515128
 30
0.0
 70
     8
  0
VERTEX
  5
3B0C
330
2D19
100
AcDbEntity
  8
DIM
100
AcDbVertex
100
AcDb2dVertex
 10
1926.84730284139
 20
330.9695908346475
 30
0.0
 70
     8
  0
VERTEX
  5
3B0D
330
2D19
100
AcDbEntity
  8
DIM
100
AcDbVertex
100
AcDb2dVertex
 10
1926.601473410842
 20
331.2035032215729
 30
0.0
 70
     8
  0
VERTEX
  5
3B0E
330
2D19
100
AcDbEntity
  8
DIM
100
AcDbVertex
100
AcDb2dVertex
 10
1926.37345758144
 20
331.3484349453567
 30
0.0
 70
     8
  0
VERTEX
  5
3B0F
330
2D19
100
AcDbEntity
  8
DIM
100
AcDbVertex
100
AcDb2dVertex
 10
1926.169854378238
 20
331.4068548025576
 30
0.0
 70
     8
  0
VERTEX
  5
3B10
330
2D19
100
AcDbEntity
  8
DIM
100
AcDbVertex
100
AcDb2dVertex
 10
1925.997262826292
 20
331.3812315897347
 30
0.0
 70
     8
  0
VERTEX
  5
3B11
330
2D19
100
AcDbEntity
  8
DIM
100
AcDbVertex
100
AcDb2dVertex
 10
1925.862281950655
 20
331.274034103447
 30
0.0
 70
     8
  0
VERTEX
  5
3B12
330
2D19
100
AcDbEntity
  8
DIM
100
AcDbVertex
100
AcDb2dVertex
 10
1925.771510776383
 20
331.0877311402534
 30
0.0
 70
     8
  0
VERTEX
  5
3B13
330
2D19
100
AcDbEntity
  8
DIM
100
AcDbVertex
100
AcDb2dVertex
 10
1925.731548328528
 20
330.8247914967129
 30
0.0
 70
     8
  0
VERTEX
  5
3B14
330
2D19
100
AcDbEntity
  8
DIM
100
AcDbVertex
100
AcDb2dVertex
 10
1925.748993632146
 20
330.4876839693845
 30
0.0
 70
     8
  0
VERTEX
  5
3B15
330
2D19
100
AcDbEntity
  8
DIM
100
AcDbVertex
100
AcDb2dVertex
 10
1925.827010695009
 20
330.0815728474577
 30
0.0
 70
     8
  0
VERTEX
  5
3B16
330
2D19
100
AcDbEntity
  8
DIM
100
AcDbVertex
100
AcDb2dVertex
 10
1925.955023455751
 20
329.6224043906448
 30
0.0
 70
     8
  0
VERTEX
  5
3B17
330
2D19
100
AcDbEntity
  8
DIM
100
AcDbVertex
100
AcDb2dVertex
 10
1926.119020835728
 20
329.1288203512888
 30
0.0
 70
     8
  0
VERTEX
  5
3B18
330
2D19
100
AcDbEntity
  8
DIM
100
AcDbVertex
100
AcDb2dVertex
 10
1926.304991756292
 20
328.6194624817328
 30
0.0
 70
     8
  0
VERTEX
  5
3B19
330
2D19
100
AcDbEntity
  8
DIM
100
AcDbVertex
100
AcDb2dVertex
 10
1926.498925138796
 20
328.1129725343195
 30
0.0
 70
     8
  0
VERTEX
  5
3B1A
330
2D19
100
AcDbEntity
  8
DIM
100
AcDbVertex
100
AcDb2dVertex
 10
1926.686809904593
 20
327.6279922613921
 30
0.0
 70
     8
  0
VERTEX
  5
3B1B
330
2D19
100
AcDbEntity
  8
DIM
100
AcDbVertex
100
AcDb2dVertex
 10
1926.854634975037
 20
327.1831634152934
 30
0.0
 70
     8
  0
VERTEX
  5
2D1B
330
2D19
100
AcDbEntity
  8
DIM
100
AcDbVertex
100
AcDb2dVertex
 10
1927.501262366378
 20
325.9711551455432
 30
0.0
 70
    16
  0
VERTEX
  5
2D1C
330
2D19
100
AcDbEntity
  8
DIM
100
AcDbVertex
100
AcDb2dVertex
 10
1926.859031480859
 20
325.645671674865
 30
0.0
 70
    16
  0
VERTEX
  5
2D1D
330
2D19
100
AcDbEntity
  8
DIM
100
AcDbVertex
100
AcDb2dVertex
 10
1930.006013220859
 20
323.204634508246
 30
0.0
 70
    16
  0
VERTEX
  5
2D1E
330
2D19
100
AcDbEntity
  8
DIM
100
AcDbVertex
100
AcDb2dVertex
 10
1929.749070465697
 20
327.110347292917
 30
0.0
 70
    16
  0
VERTEX
  5
2D1F
330
2D19
100
AcDbEntity
  8
DIM
100
AcDbVertex
100
AcDb2dVertex
 10
1929.106839580177
 20
326.7848638222385
 30
0.0
 70
    16
  0
VERTEX
  5
2D20
330
2D19
100
AcDbEntity
  8
DIM
100
AcDbVertex
100
AcDb2dVertex
 10
1926.72768069641
 20
331.9450517381215
 30
0.0
 70
    16
  0
SEQEND
  5
2D21
330
2D19
100
AcDbEntity
  8
DIM
  0
POLYLINE
  5
2D22
330
2
100
AcDbEntity
  8
DIM
100
AcDb2dPolyline
 66
     1
 10
0.0
 20
0.0
 30
0.0
 70
     5
 75
     6
  0
VERTEX
  5
2D23
330
2D22
100
AcDbEntity
  8
DIM
100
AcDbVertex
100
AcDb2dVertex
 10
1925.066254682524
 20
351.7968740381998
 30
0.0
 70
    16
  0
VERTEX
  5
3AAC
330
2D22
100
AcDbEntity
  8
DIM
100
AcDbVertex
100
AcDb2dVertex
 10
1926.988389271483
 20
356.252220522994
 30
0.0
 70
     8
  0
VERTEX
  5
3AAD
330
2D22
100
AcDbEntity
  8
DIM
100
AcDbVertex
100
AcDb2dVertex
 10
1927.078632067971
 20
356.566230101672
 30
0.0
 70
     8
  0
VERTEX
  5
3AAE
330
2D22
100
AcDbEntity
  8
DIM
100
AcDbVertex
100
AcDb2dVertex
 10
1927.134204049302
 20
356.8166160560872
 30
0.0
 70
     8
  0
VERTEX
  5
3AAF
330
2D22
100
AcDbEntity
  8
DIM
100
AcDbVertex
100
AcDb2dVertex
 10
1927.168516252967
 20
357.0171896934911
 30
0.0
 70
     8
  0
VERTEX
  5
3AB0
330
2D22
100
AcDbEntity
  8
DIM
100
AcDbVertex
100
AcDb2dVertex
 10
1927.194979716455
 20
357.1817623211355
 30
0.0
 70
     8
  0
VERTEX
  5
3AB1
330
2D22
100
AcDbEntity
  8
DIM
100
AcDbVertex
100
AcDb2dVertex
 10
1927.227005477257
 20
357.324145246272
 30
0.0
 70
     8
  0
VERTEX
  5
3AB2
330
2D22
100
AcDbEntity
  8
DIM
100
AcDbVertex
100
AcDb2dVertex
 10
1927.278004572863
 20
357.4581497761526
 30
0.0
 70
     8
  0
VERTEX
  5
3AB3
330
2D22
100
AcDbEntity
  8
DIM
100
AcDbVertex
100
AcDb2dVertex
 10
1927.361388040763
 20
357.5975872180287
 30
0.0
 70
     8
  0
VERTEX
  5
3AB4
330
2D22
100
AcDbEntity
  8
DIM
100
AcDbVertex
100
AcDb2dVertex
 10
1927.490566918446
 20
357.7562688791522
 30
0.0
 70
     8
  0
VERTEX
  5
3AB5
330
2D22
100
AcDbEntity
  8
DIM
100
AcDbVertex
100
AcDb2dVertex
 10
1927.674375554498
 20
357.9429495260976
 30
0.0
 70
     8
  0
VERTEX
  5
3AB6
330
2D22
100
AcDbEntity
  8
DIM
100
AcDbVertex
100
AcDb2dVertex
 10
1927.903341541885
 20
358.1461577627312
 30
0.0
 70
     8
  0
VERTEX
  5
3AB7
330
2D22
100
AcDbEntity
  8
DIM
100
AcDbVertex
100
AcDb2dVertex
 10
1928.163415784668
 20
358.3493656522417
 30
0.0
 70
     8
  0
VERTEX
  5
3AB8
330
2D22
100
AcDbEntity
  8
DIM
100
AcDbVertex
100
AcDb2dVertex
 10
1928.440549186909
 20
358.5360452578184
 30
0.0
 70
     8
  0
VERTEX
  5
3AB9
330
2D22
100
AcDbEntity
  8
DIM
100
AcDbVertex
100
AcDb2dVertex
 10
1928.720692652667
 20
358.6896686426502
 30
0.0
 70
     8
  0
VERTEX
  5
3ABA
330
2D22
100
AcDbEntity
  8
DIM
100
AcDbVertex
100
AcDb2dVertex
 10
1928.989797086006
 20
358.793707869926
 30
0.0
 70
     8
  0
VERTEX
  5
3ABB
330
2D22
100
AcDbEntity
  8
DIM
100
AcDbVertex
100
AcDb2dVertex
 10
1929.233813390985
 20
358.8316350028349
 30
0.0
 70
     8
  0
VERTEX
  5
3ABC
330
2D22
100
AcDbEntity
  8
DIM
100
AcDbVertex
100
AcDb2dVertex
 10
1929.438692471666
 20
358.786922104566
 30
0.0
 70
     8
  0
VERTEX
  5
3ABD
330
2D22
100
AcDbEntity
  8
DIM
100
AcDbVertex
100
AcDb2dVertex
 10
1929.593709377125
 20
358.6492392363075
 30
0.0
 70
     8
  0
VERTEX
  5
3ABE
330
2D22
100
AcDbEntity
  8
DIM
100
AcDbVertex
100
AcDb2dVertex
 10
1929.701435736497
 20
358.4330484512449
 30
0.0
 70
     8
  0
VERTEX
  5
3ABF
330
2D22
100
AcDbEntity
  8
DIM
100
AcDbVertex
100
AcDb2dVertex
 10
1929.767767323932
 20
358.159009800563
 30
0.0
 70
     8
  0
VERTEX
  5
3AC0
330
2D22
100
AcDbEntity
  8
DIM
100
AcDbVertex
100
AcDb2dVertex
 10
1929.79859991358
 20
357.8477833354468
 30
0.0
 70
     8
  0
VERTEX
  5
3AC1
330
2D22
100
AcDbEntity
  8
DIM
100
AcDbVertex
100
AcDb2dVertex
 10
1929.799829279592
 20
357.520029107081
 30
0.0
 70
     8
  0
VERTEX
  5
3AC2
330
2D22
100
AcDbEntity
  8
DIM
100
AcDbVertex
100
AcDb2dVertex
 10
1929.777351196116
 20
357.1964071666506
 30
0.0
 70
     8
  0
VERTEX
  5
3AC3
330
2D22
100
AcDbEntity
  8
DIM
100
AcDbVertex
100
AcDb2dVertex
 10
1929.737061437304
 20
356.8975775653403
 30
0.0
 70
     8
  0
VERTEX
  5
3AC4
330
2D22
100
AcDbEntity
  8
DIM
100
AcDbVertex
100
AcDb2dVertex
 10
1929.684855777305
 20
356.644200354335
 30
0.0
 70
     8
  0
VERTEX
  5
3AC5
330
2D22
100
AcDbEntity
  8
DIM
100
AcDbVertex
100
AcDb2dVertex
 10
1929.625207374308
 20
356.4503292001032
 30
0.0
 70
     8
  0
VERTEX
  5
3AC6
330
2D22
100
AcDbEntity
  8
DIM
100
AcDbVertex
100
AcDb2dVertex
 10
1929.556898922657
 20
356.3035922302481
 30
0.0
 70
     8
  0
VERTEX
  5
3AC7
330
2D22
100
AcDbEntity
  8
DIM
100
AcDbVertex
100
AcDb2dVertex
 10
1929.477290500735
 20
356.1850111876567
 30
0.0
 70
     8
  0
VERTEX
  5
3AC8
330
2D22
100
AcDbEntity
  8
DIM
100
AcDbVertex
100
AcDb2dVertex
 10
1929.383742186925
 20
356.0756078152158
 30
0.0
 70
     8
  0
VERTEX
  5
3AC9
330
2D22
100
AcDbEntity
  8
DIM
100
AcDbVertex
100
AcDb2dVertex
 10
1929.273614059611
 20
355.9564038558121
 30
0.0
 70
     8
  0
VERTEX
  5
3ACA
330
2D22
100
AcDbEntity
  8
DIM
100
AcDbVertex
100
AcDb2dVertex
 10
1929.144266197175
 20
355.8084210523329
 30
0.0
 70
     8
  0
VERTEX
  5
3ACB
330
2D22
100
AcDbEntity
  8
DIM
100
AcDbVertex
100
AcDb2dVertex
 10
1928.993058678001
 20
355.6126811476648
 30
0.0
 70
     8
  0
VERTEX
  5
3ACC
330
2D22
100
AcDbEntity
  8
DIM
100
AcDbVertex
100
AcDb2dVertex
 10
1928.81735158047
 20
355.3502058846948
 30
0.0
 70
     8
  0
VERTEX
  5
3ACD
330
2D22
100
AcDbEntity
  8
DIM
100
AcDbVertex
100
AcDb2dVertex
 10
1928.615744013155
 20
355.0088709465601
 30
0.0
 70
     8
  0
VERTEX
  5
3ACE
330
2D22
100
AcDbEntity
  8
DIM
100
AcDbVertex
100
AcDb2dVertex
 10
1928.391791205375
 20
354.6039677774
 30
0.0
 70
     8
  0
VERTEX
  5
3ACF
330
2D22
100
AcDbEntity
  8
DIM
100
AcDbVertex
100
AcDb2dVertex
 10
1928.150287416638
 20
354.1576417616038
 30
0.0
 70
     8
  0
VERTEX
  5
3AD0
330
2D22
100
AcDbEntity
  8
DIM
100
AcDbVertex
100
AcDb2dVertex
 10
1927.896026906453
 20
353.6920382835608
 30
0.0
 70
     8
  0
VERTEX
  5
3AD1
330
2D22
100
AcDbEntity
  8
DIM
100
AcDbVertex
100
AcDb2dVertex
 10
1927.633803934328
 20
353.2293027276608
 30
0.0
 70
     8
  0
VERTEX
  5
3AD2
330
2D22
100
AcDbEntity
  8
DIM
100
AcDbVertex
100
AcDb2dVertex
 10
1927.36841275977
 20
352.7915804782931
 30
0.0
 70
     8
  0
VERTEX
  5
3AD3
330
2D22
100
AcDbEntity
  8
DIM
100
AcDbVertex
100
AcDb2dVertex
 10
1927.104647642289
 20
352.401016919847
 30
0.0
 70
     8
  0
VERTEX
  5
3AD4
330
2D22
100
AcDbEntity
  8
DIM
100
AcDbVertex
100
AcDb2dVertex
 10
1926.84730284139
 20
352.0797574367123
 30
0.0
 70
     8
  0
VERTEX
  5
3AD5
330
2D22
100
AcDbEntity
  8
DIM
100
AcDbVertex
100
AcDb2dVertex
 10
1926.601473410842
 20
351.8458450497869
 30
0.0
 70
     8
  0
VERTEX
  5
3AD6
330
2D22
100
AcDbEntity
  8
DIM
100
AcDbVertex
100
AcDb2dVertex
 10
1926.37345758144
 20
351.7009133260032
 30
0.0
 70
     8
  0
VERTEX
  5
3AD7
330
2D22
100
AcDbEntity
  8
DIM
100
AcDbVertex
100
AcDb2dVertex
 10
1926.169854378238
 20
351.6424934688023
 30
0.0
 70
     8
  0
VERTEX
  5
3AD8
330
2D22
100
AcDbEntity
  8
DIM
100
AcDbVertex
100
AcDb2dVertex
 10
1925.997262826292
 20
351.6681166816252
 30
0.0
 70
     8
  0
VERTEX
  5
3AD9
330
2D22
100
AcDbEntity
  8
DIM
100
AcDbVertex
100
AcDb2dVertex
 10
1925.862281950655
 20
351.775314167913
 30
0.0
 70
     8
  0
VERTEX
  5
3ADA
330
2D22
100
AcDbEntity
  8
DIM
100
AcDbVertex
100
AcDb2dVertex
 10
1925.771510776383
 20
351.9616171311067
 30
0.0
 70
     8
  0
VERTEX
  5
3ADB
330
2D22
100
AcDbEntity
  8
DIM
100
AcDbVertex
100
AcDb2dVertex
 10
1925.731548328529
 20
352.2245567746472
 30
0.0
 70
     8
  0
VERTEX
  5
3ADC
330
2D22
100
AcDbEntity
  8
DIM
100
AcDbVertex
100
AcDb2dVertex
 10
1925.748993632147
 20
352.5616643019757
 30
0.0
 70
     8
  0
VERTEX
  5
3ADD
330
2D22
100
AcDbEntity
  8
DIM
100
AcDbVertex
100
AcDb2dVertex
 10
1925.827010695009
 20
352.9677754239025
 30
0.0
 70
     8
  0
VERTEX
  5
3ADE
330
2D22
100
AcDbEntity
  8
DIM
100
AcDbVertex
100
AcDb2dVertex
 10
1925.955023455752
 20
353.4269438807155
 30
0.0
 70
     8
  0
VERTEX
  5
3ADF
330
2D22
100
AcDbEntity
  8
DIM
100
AcDbVertex
100
AcDb2dVertex
 10
1926.119020835729
 20
353.9205279200714
 30
0.0
 70
     8
  0
VERTEX
  5
3AE0
330
2D22
100
AcDbEntity
  8
DIM
100
AcDbVertex
100
AcDb2dVertex
 10
1926.304991756292
 20
354.4298857896275
 30
0.0
 70
     8
  0
VERTEX
  5
3AE1
330
2D22
100
AcDbEntity
  8
DIM
100
AcDbVertex
100
AcDb2dVertex
 10
1926.498925138796
 20
354.9363757370408
 30
0.0
 70
     8
  0
VERTEX
  5
3AE2
330
2D22
100
AcDbEntity
  8
DIM
100
AcDbVertex
100
AcDb2dVertex
 10
1926.686809904594
 20
355.4213560099682
 30
0.0
 70
     8
  0
VERTEX
  5
3AE3
330
2D22
100
AcDbEntity
  8
DIM
100
AcDbVertex
100
AcDb2dVertex
 10
1926.854634975038
 20
355.8661848560669
 30
0.0
 70
     8
  0
VERTEX
  5
2D24
330
2D22
100
AcDbEntity
  8
DIM
100
AcDbVertex
100
AcDb2dVertex
 10
1927.501262366379
 20
357.0781931258171
 30
0.0
 70
    16
  0
VERTEX
  5
2D25
330
2D22
100
AcDbEntity
  8
DIM
100
AcDbVertex
100
AcDb2dVertex
 10
1926.859031480859
 20
357.4036765964954
 30
0.0
 70
    16
  0
VERTEX
  5
2D26
330
2D22
100
AcDbEntity
  8
DIM
100
AcDbVertex
100
AcDb2dVertex
 10
1930.006013220859
 20
359.8447137631142
 30
0.0
 70
    16
  0
VERTEX
  5
2D27
330
2D22
100
AcDbEntity
  8
DIM
100
AcDbVertex
100
AcDb2dVertex
 10
1929.749070465698
 20
355.9390009784435
 30
0.0
 70
    16
  0
VERTEX
  5
2D28
330
2D22
100
AcDbEntity
  8
DIM
100
AcDbVertex
100
AcDb2dVertex
 10
1929.106839580178
 20
356.2644844491218
 30
0.0
 70
    16
  0
VERTEX
  5
2D29
330
2D22
100
AcDbEntity
  8
DIM
100
AcDbVertex
100
AcDb2dVertex
 10
1926.72768069641
 20
351.104296533238
 30
0.0
 70
    16
  0
SEQEND
  5
2D2A
330
2D22
100
AcDbEntity
  8
DIM
  0
DIMENSION
  5
2D3B
330
2
100
AcDbEntity
  8
AM_5
100
AcDbDimension
  2
*D11
 10
2078.201441279238
 20
351.6431085245479
 30
0.0
 11
2074.45104757845
 21
340.6431085244983
 31
0.0
 70
    32
  3
AM_ISO
100
AcDbAlignedDimension
 13
2065.201441279238
 23
329.6431085244479
 33
0.0
 14
2065.201441279238
 24
351.6431085245479
 34
0.0
 50
90.0
100
AcDbRotatedDimension
  0
DIMENSION
  5
2D73
102
{ACAD_XDICTIONARY
360
2D80
102
}
102
{ACAD_REACTORS
330
2D8A
102
}
330
2
100
AcDbEntity
  8
AM_5
100
AcDbDimension
  2
*D12
 10
2088.201441279238
 20
368.1431085244479
 30
0.0
 11
2084.439630255615
 21
340.6431085244483
 31
0.0
 70
    32
  3
AM_ISO
100
AcDbAlignedDimension
 13
2039.451441279138
 23
313.1431085244479
 33
0.0
 14
2039.451441279138
 24
368.1431085244479
 34
0.0
 50
90.0
100
AcDbRotatedDimension
  0
DIMENSION
  5
2DAB
102
{ACAD_XDICTIONARY
360
2DB8
102
}
102
{ACAD_REACTORS
330
2DC2
102
}
330
2
100
AcDbEntity
  8
AM_5
100
AcDbDimension
  2
*D13
 10
2033.701441279138
 20
294.643108524448
 30
0.0
 11
2006.201441279138
 21
298.40491954807
 31
0.0
 70
    32
  3
AM_ISO
100
AcDbAlignedDimension
 13
1978.701441279138
 23
307.3931085244479
 33
0.0
 14
2033.701441279138
 24
307.3931085244479
 34
0.0
 50
0.0000000000001018
100
AcDbRotatedDimension
  0
DIMENSION
  5
2DE3
102
{ACAD_XDICTIONARY
360
2DF0
102
}
102
{ACAD_REACTORS
330
2DFA
102
}
330
2
100
AcDbEntity
  8
AM_5
100
AcDbDimension
  2
*D14
 10
2040.201441279138
 20
284.6431085244479
 30
0.0
 11
2006.201441279138
 21
288.393108524448
 31
0.0
 70
    32
  1
{\Famgdt;o}<>
  3
AM_ISO
100
AcDbAlignedDimension
 13
1972.201441279138
 23
308.6431085244479
 33
0.0
 14
2040.201441279138
 24
308.6431085244479
 34
0.0
 50
0.0000000000001018
100
AcDbRotatedDimension
  0
DIMENSION
  5
2EDE
330
2
100
AcDbEntity
  8
AM_5
100
AcDbDimension
  2
*D15
 10
2078.201441279138
 20
231.5868362655709
 30
0.0
 11
2074.451047578351
 21
242.5868362655712
 31
0.0
 70
    32
  3
AM_ISO
100
AcDbAlignedDimension
 13
2065.201441279138
 23
253.5868362655709
 33
0.0
 14
2065.201441279138
 24
231.5868362655709
 34
0.0
 50
90.0
100
AcDbRotatedDimension
  0
DIMENSION
  5
2F16
102
{ACAD_XDICTIONARY
360
2F23
102
}
102
{ACAD_REACTORS
330
2F2D
102
}
330
2
100
AcDbEntity
  8
AM_5
100
AcDbDimension
  2
*D16
 10
2078.201441279138
 20
118.5868362655709
 30
0.0
 11
2074.451441279138
 21
175.0868362655712
 31
0.0
 70
    32
  3
AM_ISO
100
AcDbAlignedDimension
 13
2065.201441279138
 23
231.5868362655709
 33
0.0
 14
2039.201441279138
 24
118.5868362655709
 34
0.0
 50
90.0
100
AcDbRotatedDimension
  0
DIMENSION
  5
2F4E
102
{ACAD_XDICTIONARY
360
2F5B
102
}
102
{ACAD_REACTORS
330
2F65
102
}
330
2
100
AcDbEntity
  8
AM_5
100
AcDbDimension
  2
*D17
 10
2052.201441279138
 20
144.5868362655709
 30
0.0
 11
2048.451047578351
 21
131.5868362655712
 31
0.0
 70
    32
  3
AM_ISO
100
AcDbAlignedDimension
 13
2039.201441279138
 23
118.5868362655709
 33
0.0
 14
2039.701441279138
 24
144.5868362655709
 34
0.0
 50
90.0
100
AcDbRotatedDimension
  0
DIMENSION
  5
2F86
102
{ACAD_XDICTIONARY
360
2F93
102
}
102
{ACAD_REACTORS
330
2F9D
102
}
330
2
100
AcDbEntity
  8
AM_5
100
AcDbDimension
  2
*D18
 10
2062.201441279138
 20
198.5868362655709
 30
0.0
 11
2058.451441279138
 21
158.5868362655712
 31
0.0
 70
    32
  3
AM_ISO
100
AcDbAlignedDimension
 13
2039.201441279138
 23
118.5868362655709
 33
0.0
 14
2035.201441279138
 24
198.5868362655709
 34
0.0
 50
90.0
100
AcDbRotatedDimension
  0
DIMENSION
  5
2FBE
102
{ACAD_XDICTIONARY
360
2FCB
102
}
102
{ACAD_REACTORS
330
2FD5
102
}
330
2
100
AcDbEntity
  8
AM_5
100
AcDbDimension
  2
*D19
 10
2088.201441279138
 20
253.5868362655709
 30
0.0
 11
2084.439630255516
 21
186.0868362655712
 31
0.0
 70
    32
  3
AM_ISO
100
AcDbAlignedDimension
 13
2039.201441279138
 23
118.5868362655709
 33
0.0
 14
2065.201441279138
 24
253.5868362655709
 34
0.0
 50
90.0
100
AcDbRotatedDimension
  0
DIMENSION
  5
2FF6
330
2
100
AcDbEntity
  8
AM_5
100
AcDbDimension
  2
*D20
 10
2036.201441279138
 20
165.9542558126951
 30
0.0
 11
2015.526198552709
 21
165.9542558126951
 31
0.0
 70
   160
  1
%%c<>
  3
AM_ISO
100
AcDbAlignedDimension
 13
1976.201441279138
 23
171.0868362655709
 33
0.0
 14
2036.201441279138
 24
171.0868362655709
 34
0.0
 50
0.0000000000001018
100
AcDbRotatedDimension
  0
TEXT
  5
302D
330
2
100
AcDbEntity
  8
AM_5
100
AcDbText
 10
2050.234234748219
 20
298.4444532004322
 30
0.0
 40
3.0
  1
4-%%c8.5
  7
CHINA
100
AcDbText
  0
INSERT
  5
302E
330
2
100
AcDbEntity
  8
AM_5
100
AcDbBlockReference
  2
*S23
 10
0.0
 20
0.0
 30
0.0
  0
LINE
  5
33A5
330
2
100
AcDbEntity
  8
CENTER
100
AcDbLine
 10
2204.378596766108
 20
145.5868362655709
 30
0.0
 11
2204.378596766108
 21
117.5868362655709
 31
0.0
  0
LINE
  5
33A6
330
2
100
AcDbEntity
  8
HIDDEN
  6
HIDDEN
100
AcDbLine
 10
2200.128596766108
 20
144.5868362655709
 30
0.0
 11
2200.128596766108
 21
118.5868362655709
 31
0.0
  0
LINE
  5
33A7
330
2
100
AcDbEntity
  8
HIDDEN
  6
HIDDEN
100
AcDbLine
 10
2208.628596766109
 20
144.5868362655709
 30
0.0
 11
2208.628596766109
 21
118.5868362655709
 31
0.0
  0
LINE
  5
33A8
330
2
100
AcDbEntity
  8
HIDDEN
  6
HIDDEN
100
AcDbLine
 10
2145.128596766109
 20
144.5868362655709
 30
0.0
 11
2145.128596766109
 21
118.5868362655709
 31
0.0
  0
LINE
  5
33A9
330
2
100
AcDbEntity
  8
HIDDEN
  6
HIDDEN
100
AcDbLine
 10
2153.628596766108
 20
144.5868362655709
 30
0.0
 11
2153.628596766108
 21
118.5868362655709
 31
0.0
  0
LINE
  5
33AA
330
2
100
AcDbEntity
  8
CENTER
100
AcDbLine
 10
2149.378596766108
 20
145.5868362655709
 30
0.0
 11
2149.378596766108
 21
117.5868362655709
 31
0.0
  0
CIRCLE
  5
347C
330
2
100
AcDbEntity
  8
0
100
AcDbCircle
 10
2006.201441279138
 20
242.5868362655709
 30
0.0
 40
4.0
  0
LINE
  5
347D
102
{ACAD_REACTORS
330
355D
102
}
330
2
100
AcDbEntity
  8
0
100
AcDbLine
 10
1946.201441279138
 20
232.5868362655709
 30
0.0
 11
1946.201441279138
 21
252.5868362655709
 31
0.0
  0
LINE
  5
347E
102
{ACAD_REACTORS
330
355D
102
}
330
2
100
AcDbEntity
  8
0
100
AcDbLine
 10
2066.201441279138
 20
232.5868362655709
 30
0.0
 11
2066.201441279138
 21
252.5868362655709
 31
0.0
  0
LINE
  5
347F
330
2
100
AcDbEntity
  8
0
100
AcDbLine
 10
1947.201441279138
 20
231.5868362655709
 30
0.0
 11
2065.201441279138
 21
231.5868362655709
 31
0.0
  0
LINE
  5
3480
330
2
100
AcDbEntity
  8
0
100
AcDbLine
 10
1947.201441279138
 20
231.5868362655709
 30
0.0
 11
1946.201441279138
 21
232.5868362655709
 31
0.0
  0
LINE
  5
3481
330
2
100
AcDbEntity
  8
0
100
AcDbLine
 10
2065.201441279138
 20
231.5868362655709
 30
0.0
 11
2066.201441279138
 21
232.5868362655709
 31
0.0
  0
LINE
  5
3482
330
2
100
AcDbEntity
  8
0
100
AcDbLine
 10
1947.201441279138
 20
253.5868362655709
 30
0.0
 11
2065.201441279138
 21
253.5868362655709
 31
0.0
  0
LINE
  5
3483
330
2
100
AcDbEntity
  8
0
100
AcDbLine
 10
1946.201441279138
 20
252.5868362655709
 30
0.0
 11
1947.201441279138
 21
253.5868362655709
 31
0.0
  0
LINE
  5
3484
330
2
100
AcDbEntity
  8
0
100
AcDbLine
 10
2065.201441279138
 20
253.5868362655709
 30
0.0
 11
2066.201441279138
 21
252.5868362655709
 31
0.0
  0
LINE
  5
34EF
330
2
100
AcDbEntity
  8
HIDDEN
  6
HIDDEN
100
AcDbLine
 10
2027.201441279138
 20
185.8085062791182
 30
0.0
 11
2036.201441279138
 21
185.3368362655709
 31
0.0
  0
LINE
  5
34F0
330
2
100
AcDbEntity
  8
HIDDEN
  6
HIDDEN
100
AcDbLine
 10
2027.201441279138
 20
185.0585062791182
 30
0.0
 11
2036.201441279138
 21
184.5868362655709
 31
0.0
  0
LINE
  5
34F1
330
2
100
AcDbEntity
  8
CENTER
  6
CENTER
100
AcDbLine
 10
2021.65464954636
 20
189.5868362655709
 30
0.0
 11
2037.65464954636
 21
189.5868362655709
 31
0.0
  0
LINE
  5
34F2
330
2
100
AcDbEntity
  8
HIDDEN
  6
HIDDEN
100
AcDbLine
 10
2027.201441279138
 20
193.3651662520235
 30
0.0
 11
2036.201441279138
 21
193.8368362655708
 31
0.0
  0
LINE
  5
34F3
330
2
100
AcDbEntity
  8
HIDDEN
  6
HIDDEN
100
AcDbLine
 10
2027.201441279138
 20
194.1151662520235
 30
0.0
 11
2036.201441279138
 21
194.5868362655708
 31
0.0
  0
LINE
  5
34F4
330
2
100
AcDbEntity
  8
HIDDEN
  6
HIDDEN
100
AcDbLine
 10
2031.201441279138
 20
133.5085062791182
 30
0.0
 11
2040.201441279138
 21
133.0368362655709
 31
0.0
  0
LINE
  5
34F5
330
2
100
AcDbEntity
  8
HIDDEN
  6
HIDDEN
100
AcDbLine
 10
2031.201441279138
 20
132.7585062791182
 30
0.0
 11
2040.201441279138
 21
132.2868362655709
 31
0.0
  0
LINE
  5
34F6
330
2
100
AcDbEntity
  8
CENTER
  6
CENTER
100
AcDbLine
 10
2025.65464954636
 20
137.2868362655709
 30
0.0
 11
2041.65464954636
 21
137.2868362655709
 31
0.0
  0
LINE
  5
34F7
330
2
100
AcDbEntity
  8
HIDDEN
  6
HIDDEN
100
AcDbLine
 10
2031.201441279138
 20
141.0651662520235
 30
0.0
 11
2040.201441279138
 21
141.5368362655708
 31
0.0
  0
LINE
  5
34F8
330
2
100
AcDbEntity
  8
HIDDEN
  6
HIDDEN
100
AcDbLine
 10
2031.201441279138
 20
141.8151662520235
 30
0.0
 11
2040.201441279138
 21
142.2868362655708
 31
0.0
  0
INSERT
  5
34F9
330
2
100
AcDbEntity
  8
AM_5
100
AcDbBlockReference
  2
*S24
 10
0.0
 20
0.0
 30
0.0
  0
LINE
  5
3515
330
2
100
AcDbEntity
  8
CENTER
100
AcDbLine
 10
1943.317426107838
 20
340.6431085244479
 30
0.0
 11
2070.315578985538
 21
340.6431085244479
 31
0.0
  0
LINE
  5
3516
330
2
100
AcDbEntity
  8
0
100
AcDbLine
 10
1947.201441279138
 20
351.6431085245479
 30
0.0
 11
2065.201441279238
 21
351.6431085245479
 31
0.0
  0
LINE
  5
3517
330
2
100
AcDbEntity
  8
0
100
AcDbLine
 10
1993.701441279138
 20
345.6431085245479
 30
0.0
 11
2018.701441279238
 21
345.6431085245479
 31
0.0
  0
LINE
  5
3518
330
2
100
AcDbEntity
  8
0
100
AcDbLine
 10
1947.201441279138
 20
329.6431085244479
 30
0.0
 11
2065.201441279238
 21
329.6431085244479
 31
0.0
  0
LINE
  5
3519
330
2
100
AcDbEntity
  8
0
100
AcDbLine
 10
1993.701441279138
 20
335.6431085244479
 30
0.0
 11
2018.701441279238
 21
335.6431085244479
 31
0.0
  0
ARC
  5
351B
330
2
100
AcDbEntity
  8
0
100
AcDbCircle
 10
1993.701441279138
 20
340.6431085244479
 30
0.0
 40
5.0
100
AcDbArc
 50
90.0
 51
270.0
  0
ARC
  5
351C
330
2
100
AcDbEntity
  8
0
100
AcDbCircle
 10
2006.201441279238
 20
340.6431085244479
 30
0.0
 40
10.0
100
AcDbArc
 50
150.0000000000027
 51
209.9999999999972
  0
LINE
  5
351D
330
2
100
AcDbEntity
  8
0
100
AcDbLine
 10
1946.201441279138
 20
330.6431085244479
 30
0.0
 11
1946.201441279138
 21
350.643108524548
 31
0.0
  0
LINE
  5
351E
330
2
100
AcDbEntity
  8
0
100
AcDbLine
 10
1947.201441279138
 20
329.6431085244479
 30
0.0
 11
1946.201441279138
 21
330.6431085244479
 31
0.0
  0
LINE
  5
351F
330
2
100
AcDbEntity
  8
0
100
AcDbLine
 10
1946.201441279138
 20
350.643108524548
 30
0.0
 11
1947.201441279138
 21
351.6431085245479
 31
0.0
  0
LINE
  5
3520
330
2
100
AcDbEntity
  8
0
100
AcDbLine
 10
2066.201441279238
 20
330.6431085244479
 30
0.0
 11
2066.201441279238
 21
350.643108524548
 31
0.0
  0
ARC
  5
3521
330
2
100
AcDbEntity
  8
0
100
AcDbCircle
 10
2018.701441279238
 20
340.6431085244479
 30
0.0
 40
5.0
100
AcDbArc
 50
270.0
 51
90.0
  0
ARC
  5
3522
330
2
100
AcDbEntity
  8
0
100
AcDbCircle
 10
2006.201441279238
 20
340.6431085244479
 30
0.0
 40
10.0
100
AcDbArc
 50
330.0000000000027
 51
29.99999999999729
  0
LINE
  5
3523
330
2
100
AcDbEntity
  8
0
100
AcDbLine
 10
2066.201441279238
 20
330.6431085244479
 30
0.0
 11
2065.201441279238
 21
329.6431085244479
 31
0.0
  0
LINE
  5
3524
330
2
100
AcDbEntity
  8
0
100
AcDbLine
 10
2065.201441279238
 20
351.6431085245479
 30
0.0
 11
2066.201441279238
 21
350.643108524548
 31
0.0
  0
DIMENSION
  5
3546
102
{ACAD_XDICTIONARY
360
3553
102
}
102
{ACAD_REACTORS
330
355D
102
}
330
2
100
AcDbEntity
  8
AM_5
100
AcDbDimension
  2
*D22
 10
2066.201441279138
 20
265.5868362655709
 30
0.0
 11
2006.201441279138
 21
269.3372299663583
 31
0.0
 70
    32
  3
AM_ISO
100
AcDbAlignedDimension
 13
1946.201441279138
 23
252.5868362655709
 33
0.0
 14
2066.201441279138
 24
252.5868362655709
 34
0.0
100
AcDbRotatedDimension
  0
ARC
  5
357C
330
2
100
AcDbEntity
  8
0
100
AcDbCircle
 10
2006.201441279138
 20
340.6431085244479
 30
0.0
 40
30.0
100
AcDbArc
 50
21.51018826709278
 51
158.4898117329072
  0
POLYLINE
  5
357D
330
2
100
AcDbEntity
  8
0
100
AcDb2dPolyline
 66
     1
 10
0.0
 20
0.0
 30
0.0
  0
VERTEX
  5
357E
330
357D
100
AcDbEntity
  8
0
100
AcDbVertex
100
AcDb2dVertex
 10
1972.201441279138
 20
351.6431085245479
 30
0.0
  0
VERTEX
  5
357F
330
357D
100
AcDbEntity
  8
0
100
AcDbVertex
100
AcDb2dVertex
 10
1972.201441279138
 20
372.6431085244479
 30
0.0
  0
VERTEX
  5
3580
330
357D
100
AcDbEntity
  8
0
100
AcDbVertex
100
AcDb2dVertex
 10
1974.201441279138
 20
374.6431085244479
 30
0.0
  0
VERTEX
  5
3581
330
357D
100
AcDbEntity
  8
0
100
AcDbVertex
100
AcDb2dVertex
 10
2038.201441279138
 20
374.6431085244479
 30
0.0
  0
VERTEX
  5
3582
330
357D
100
AcDbEntity
  8
0
100
AcDbVertex
100
AcDb2dVertex
 10
2040.201441279138
 20
372.6431085244479
 30
0.0
  0
VERTEX
  5
3583
330
357D
100
AcDbEntity
  8
0
100
AcDbVertex
100
AcDb2dVertex
 10
2040.201441279138
 20
351.6431085245479
 30
0.0
  0
SEQEND
  5
3584
330
357D
100
AcDbEntity
  8
0
  0
POLYLINE
  5
3585
102
{ACAD_REACTORS
330
2DFA
102
}
330
2
100
AcDbEntity
  8
0
100
AcDb2dPolyline
 66
     1
 10
0.0
 20
0.0
 30
0.0
  0
VERTEX
  5
3586
102
{ACAD_REACTORS
330
2DFA
102
}
330
3585
100
AcDbEntity
  8
0
100
AcDbVertex
100
AcDb2dVertex
 10
2040.201441279138
 20
329.6431085244479
 30
0.0
  0
VERTEX
  5
3587
330
3585
100
AcDbEntity
  8
0
100
AcDbVertex
100
AcDb2dVertex
 10
2040.201441279138
 20
308.6431085244479
 30
0.0
  0
VERTEX
  5
3588
330
3585
100
AcDbEntity
  8
0
100
AcDbVertex
100
AcDb2dVertex
 10
2038.201441279138
 20
306.6431085244479
 30
0.0
  0
VERTEX
  5
3589
102
{ACAD_REACTORS
330
2DFA
102
}
330
3585
100
AcDbEntity
  8
0
100
AcDbVertex
100
AcDb2dVertex
 10
1974.201441279138
 20
306.6431085244479
 30
0.0
  0
VERTEX
  5
358A
330
3585
100
AcDbEntity
  8
0
100
AcDbVertex
100
AcDb2dVertex
 10
1972.201441279138
 20
308.6431085244479
 30
0.0
  0
SEQEND
  5
358B
330
3585
100
AcDbEntity
  8
0
  0
ENDSEC
  0
SECTION
  2
OBJECTS
  0
DICTIONARY
  5
8
330
0
100
AcDbDictionary
  3
ACAD_GROUP
350
21
  3
ACAD_LAYOUT
350
C
  3
ACAD_MLINESTYLE
350
22
  3
ACAD_PLOTSETTINGS
350
23
  3
ACMDICTIONARY
350
1F4
  3
AMG
350
1DA
  3
AMGSNAPSETTINGS
350
37D
  3
ASE_INDEX_DICTIONARY
350
E58
  3
DWGPROPS
350
3A8F
1001
ACAD
1000
TREAT_AS_HARD
1070
     0
  0
DICTIONARY
  5
3
330
2
100
AcDbDictionary
  3
ACAD_INDEX
350
2B85
  3
ACAD_LAYOUTSELFREF
350
3C07
1001
ACAD
1000
TREAT_AS_HARD
1070
     1
  0
DICTIONARY
  5
3C08
330
D
100
AcDbDictionary
  3
ACAD_LAYOUTSELFREF
350
3C09
  0
DICTIONARY
  5
2D80
330
2D73
100
AcDbDictionary
  3
ACAD_DIMASSOC
350
2D8A
1001
ACAD
1000
TREAT_AS_HARD
1070
     1
  0
DICTIONARY
  5
2DB8
330
2DAB
100
AcDbDictionary
  3
ACAD_DIMASSOC
350
2DC2
1001
ACAD
1000
TREAT_AS_HARD
1070
     1
  0
DICTIONARY
  5
2DF0
330
2DE3
100
AcDbDictionary
  3
ACAD_DIMASSOC
350
2DFA
1001
ACAD
1000
TREAT_AS_HARD
1070
     1
  0
DICTIONARY
  5
2F23
330
2F16
100
AcDbDictionary
  3
ACAD_DIMASSOC
350
2F2D
1001
ACAD
1000
TREAT_AS_HARD
1070
     1
  0
DICTIONARY
  5
2F5B
330
2F4E
100
AcDbDictionary
  3
ACAD_DIMASSOC
350
2F65
1001
ACAD
1000
TREAT_AS_HARD
1070
     1
  0
DICTIONARY
  5
2F93
330
2F86
100
AcDbDictionary
  3
ACAD_DIMASSOC
350
2F9D
1001
ACAD
1000
TREAT_AS_HARD
1070
     1
  0
DICTIONARY
  5
2FCB
330
2FBE
100
AcDbDictionary
  3
ACAD_DIMASSOC
350
2FD5
1001
ACAD
1000
TREAT_AS_HARD
1070
     1
  0
DICTIONARY
  5
3553
330
3546
100
AcDbDictionary
  3
ACAD_DIMASSOC
350
355D
1001
ACAD
1000
TREAT_AS_HARD
1070
     1
  0
DICTIONARY
  5
21
102
{ACAD_REACTORS
330
8
102
}
330
8
100
AcDbDictionary
1001
ACAD
1000
TREAT_AS_HARD
1070
     0
  0
DICTIONARY
  5
C
102
{ACAD_REACTORS
330
8
102
}
330
8
100
AcDbDictionary
1001
ACAD
1000
TREAT_AS_HARD
1070
     0
  0
DICTIONARY
  5
22
102
{ACAD_REACTORS
330
8
102
}
330
8
100
AcDbDictionary
  3
STANDARD
350
24
1001
ACAD
1000
TREAT_AS_HARD
1070
     0
  0
DICTIONARY
  5
23
102
{ACAD_REACTORS
330
8
102
}
330
8
100
AcDbDictionary
1001
ACAD
1000
TREAT_AS_HARD
1070
     0
  0
DICTIONARY
  5
1F4
102
{ACAD_REACTORS
330
8
102
}
330
8
100
AcDbDictionary
  3
ACMSTDDICTIONARY
350
1FA
1001
ACAD
1000
TREAT_AS_HARD
1070
     0
  0
DICTIONARY
  5
1DA
102
{ACAD_REACTORS
330
8
102
}
330
8
100
AcDbDictionary
  3
ACMGSETTINGS
350
1DB
1001
ACAD
1000
TREAT_AS_HARD
1070
     0
  0
DICTIONARY
  5
37D
102
{ACAD_REACTORS
330
8
102
}
330
8
100
AcDbDictionary
1001
ACAD
1000
TREAT_AS_HARD
1070
     0
  0
DICTIONARY
  5
E58
102
{ACAD_REACTORS
330
8
102
}
330
8
100
AcDbDictionary
  3
ASEBLOCKHIERARCHYINDEXRECORD
350
E5A
1001
DCO15
1040
1443953005.444
1001
ACAD
1000
TREAT_AS_HARD
1070
     0
  0
XRECORD
  5
3A8F
102
{ACAD_REACTORS
330
8
102
}
330
8
100
AcDbXrecord
  1
DWGPROPS COOKIE
  2

  3

  4

  6

  7

  8

  9

300
AmdtFileType=84
301
=
302
=
303
=
304
=
305
=
306
=
307
=
308
=
309
=
 40
0.0782815277777778
 41
2452794.706235081
 42
2452796.622829791
  1

 90
        1
  0
DICTIONARY
  5
2B85
102
{ACAD_REACTORS
330
3
102
}
330
3
100
AcDbDictionary
  3
*A1
350
2B86
1001
ACAD
1000
TREAT_AS_HARD
1070
     0
  0
XRECORD
  5
3C07
102
{ACAD_REACTORS
330
3
102
}
330
3
100
AcDbXrecord
340
2
  0
XRECORD
  5
3C09
102
{ACAD_REACTORS
330
3C08
102
}
330
3C08
100
AcDbXrecord
340
D
  0
DIMASSOC
  5
2D8A
102
{ACAD_REACTORS
330
2D80
102
}
330
2D80
100
AcDbDimAssoc
330
2D73
 90
        3
 70
     0
 71
     0
  1
AcDbOsnapPointRef
 72
     1
331
2CC9
 73
     0
 91
        0
 40
0.0
 10
2039.451441279138
 20
313.1431085244479
 30
0.0
 75
     0
  1
AcDbOsnapPointRef
 72
     1
331
2CED
 73
     0
 91
        0
 40
0.0
 10
2039.451441279138
 20
368.1431085244479
 30
0.0
 75
     0
  0
DIMASSOC
  5
2DC2
102
{ACAD_REACTORS
330
2DB8
102
}
330
2DB8
100
AcDbDimAssoc
330
2DAB
 90
        3
 70
     0
 71
     0
  1
AcDbOsnapPointRef
 72
     1
331
2D14
 73
     0
 91
        0
 40
0.0
 10
1978.701441279138
 20
307.3931085244479
 30
0.0
 75
     0
  1
AcDbOsnapPointRef
 72
     1
331
2CCC
 73
     0
 91
        0
 40
0.0
 10
2033.701441279138
 20
307.3931085244479
 30
0.0
 75
     0
  0
DIMASSOC
  5
2DFA
102
{ACAD_REACTORS
330
2DF0
102
}
330
2DF0
100
AcDbDimAssoc
330
2DE3
 90
        3
 70
     0
 71
     0
  1
AcDbOsnapPointRef
 72
     1
331
3585
331
3589
 73
     0
 91
        0
 40
0.0
 10
1972.201441279138
 20
308.6431085244479
 30
0.0
 75
     0
  1
AcDbOsnapPointRef
 72
     1
331
3585
331
3586
 73
     0
 91
        0
 40
0.0
 10
2040.201441279138
 20
308.6431085244479
 30
0.0
 75
     0
  0
DIMASSOC
  5
2F2D
102
{ACAD_REACTORS
330
2F23
102
}
330
2F23
100
AcDbDimAssoc
330
2F16
 90
        2
 70
     0
 71
     0
  1
AcDbOsnapPointRef
 72
    13
331
2C32
 73
     0
 91
        0
 40
0.0
 10
2039.201441279138
 20
118.5868362655709
 30
0.0
 75
     0
  0
DIMASSOC
  5
2F65
102
{ACAD_REACTORS
330
2F5B
102
}
330
2F5B
100
AcDbDimAssoc
330
2F4E
 90
        3
 70
     0
 71
     0
  1
AcDbOsnapPointRef
 72
    13
331
2C32
 73
     0
 91
        0
 40
0.0
 10
2039.201441279138
 20
118.5868362655709
 30
0.0
 75
     0
  1
AcDbOsnapPointRef
 72
     1
331
2C0C
 73
     0
 91
        0
 40
0.0
 10
2039.701441279138
 20
144.5868362655709
 30
0.0
 75
     0
  0
DIMASSOC
  5
2F9D
102
{ACAD_REACTORS
330
2F93
102
}
330
2F93
100
AcDbDimAssoc
330
2F86
 90
        3
 70
     0
 71
     0
  1
AcDbOsnapPointRef
 72
    13
331
2C32
 73
     0
 91
        0
 40
0.0
 10
2039.201441279138
 20
118.5868362655709
 30
0.0
 75
     0
  1
AcDbOsnapPointRef
 72
     1
331
2BFA
 73
     0
 91
        0
 40
0.0
 10
2035.201441279138
 20
198.5868362655709
 30
0.0
 75
     0
  0
DIMASSOC
  5
2FD5
102
{ACAD_REACTORS
330
2FCB
102
}
330
2FCB
100
AcDbDimAssoc
330
2FBE
 90
        1
 70
     0
 71
     0
  1
AcDbOsnapPointRef
 72
    13
331
2C32
 73
     0
 91
        0
 40
0.0
 10
2039.201441279138
 20
118.5868362655709
 30
0.0
 75
     0
  0
DIMASSOC
  5
355D
102
{ACAD_REACTORS
330
3553
102
}
330
3553
100
AcDbDimAssoc
330
3546
 90
        3
 70
     0
 71
     0
  1
AcDbOsnapPointRef
 72
     1
331
347D
 73
     0
 91
        0
 40
0.0
 10
1946.201441279138
 20
252.5868362655709
 30
0.0
 75
     0
  1
AcDbOsnapPointRef
 72
     1
331
347E
 73
     0
 91
        0
 40
0.0
 10
2066.201441279138
 20
252.5868362655709
 30
0.0
 75
     0
  0
MLINESTYLE
  5
24
102
{ACAD_REACTORS
330
22
102
}
330
22
100
AcDbMlineStyle
  2
STANDARD
 70
     0
  3

 62
   256
 51
90.0
 52
90.0
 71
     2
 49
0.5
 62
   256
  6
BYLAYER
 49
-0.5
 62
   256
  6
BYLAYER
  0
DICTIONARY
  5
1FA
102
{ACAD_REACTORS
330
1F4
102
}
330
1F4
100
AcDbDictionary
1001
ACAD
1000
TREAT_AS_HARD
1070
     0
  0
DICTIONARY
  5
1DB
102
{ACAD_REACTORS
330
1DA
102
}
330
1DA
100
AcDbDictionary
1001
ACAD
1000
TREAT_AS_HARD
1070
     0
  0
XRECORD
  5
E5A
102
{ACAD_REACTORS
330
E58
102
}
330
E58
100
AcDbXrecord
330
0
330
0
  0
LAYER_INDEX
  5
2B86
102
{ACAD_REACTORS
330
2B85
102
}
330
2B85
100
AcDbIndex
 40
2452796.64360272
100
AcDbLayerIndex
  8
0
360
2B87
 90
       92
  8
Defpoints
360
2B88
 90
        0
  8
AM_5
360
2B89
 90
       17
  8
AM_PARDIM
360
2B8A
 90
       10
  8
AM_7
360
2B8B
 90
       17
  8
HIDDEN
360
2B8C
 90
       12
  8
DIM
360
2B8D
 90
        4
  8
CENTER
360
2B8E
 90
        8
  8
LOGO
360
2B8F
 90
      110
  0
IDBUFFER
  5
2B87
330
0
100
AcDbIdBuffer
330
25
330
26
330
27
330
28
330
29
330
2A
330
2B
330
2C
330
2D
330
2E
330
2F
330
30
330
1258
330
1259
330
125A
330
12BA
330
2BF8
330
2BF9
330
2BFA
330
2C0A
330
2C0B
330
2C0C
330
2C15
330
2C16
330
2C17
330
2C18
330
2C19
330
2C21
330
2C2C
330
2C2F
330
2C30
330
2C31
330
2C32
330
2C33
330
2C36
330
2C3A
330
2C3E
330
2C43
330
2C44
330
2C46
330
2C47
330
2C48
330
2C4C
330
2C4D
330
2C4F
330
2C50
330
2C51
330
2C52
330
2C53
330
2C57
330
2C58
330
2C59
330
2C65
330
2C66
330
2C67
330
2C6B
330
2C6C
330
2C6F
330
2C70
330
2C71
330
2C72
330
2C73
330
2CCD
330
2CF1
330
2D03
330
2D15
330
347C
330
347D
330
347E
330
347F
330
3480
330
3481
330
3482
330
3483
330
3484
330
3516
330
3517
330
3518
330
3519
330
351B
330
351C
330
351D
330
351E
330
351F
330
3520
330
3521
330
3522
330
3523
330
3524
330
357C
330
357D
330
3585
  0
IDBUFFER
  5
2B88
330
0
100
AcDbIdBuffer
  0
IDBUFFER
  5
2B89
330
0
100
AcDbIdBuffer
330
151
330
156
330
29A5
330
2D3B
330
2D73
330
2DAB
330
2DE3
330
2EDE
330
2F16
330
2F4E
330
2F86
330
2FBE
330
2FF6
330
302D
330
302E
330
34F9
330
3546
  0
IDBUFFER
  5
2B8A
330
0
100
AcDbIdBuffer
330
31
330
43
330
52
330
5F
330
6C
330
79
330
86
330
95
330
A3
330
B0
  0
IDBUFFER
  5
2B8B
330
0
100
AcDbIdBuffer
330
C8
330
2CC9
330
2CCA
330
2CCB
330
2CCC
330
2CED
330
2CEE
330
2CEF
330
2CF0
330
2CFF
330
2D00
330
2D01
330
2D02
330
2D11
330
2D12
330
2D13
330
2D14
  0
IDBUFFER
  5
2B8C
330
0
100
AcDbIdBuffer
330
33A6
330
33A7
330
33A8
330
33A9
330
34EF
330
34F0
330
34F2
330
34F3
330
34F4
330
34F5
330
34F7
330
34F8
  0
IDBUFFER
  5
2B8D
330
0
100
AcDbIdBuffer
330
2D17
330
2D18
330
2D19
330
2D22
  0
IDBUFFER
  5
2B8E
330
0
100
AcDbIdBuffer
330
2C26
330
2C38
330
2C45
330
33A5
330
33AA
330
34F1
330
34F6
330
3515
  0
IDBUFFER
  5
2B8F
330
0
100
AcDbIdBuffer
330
124B
330
124C
330
124D
330
124E
330
124F
330
1250
330
1251
330
1252
330
1256
330
1257
330
125B
330
125C
330
125D
330
1261
330
1262
330
1263
330
1264
330
1265
330
1266
330
1267
330
1268
330
1269
330
126A
330
126B
330
126F
330
1270
330
1271
330
1272
330
1273
330
1274
330
1275
330
1276
330
127A
330
127B
330
127C
330
127D
330
127E
330
127F
330
1280
330
1281
330
1282
330
1286
330
1287
330
1288
330
1289
330
128A
330
128E
330
128F
330
1290
330
1294
330
1298
330
1299
330
129A
330
12BB
330
12BC
330
12BD
330
12BE
330
12BF
330
12C0
330
12C1
330
12C2
330
12C3
330
12C4
330
12C5
330
12C6
330
12C7
330
12C8
330
12C9
330
12CA
330
12CB
330
12CC
330
12CD
330
12CE
330
12CF
330
12D0
330
12D1
330
12D2
330
12D3
330
12D4
330
12D5
330
12D6
330
12D7
330
12D8
330
12D9
330
12DA
330
12DB
330
12DC
330
12DD
330
12DE
330
12DF
330
12E0
330
12E1
330
12E2
330
12E3
330
12E4
330
12E5
330
12E6
330
12E7
330
12E8
330
12E9
330
12EA
330
12EB
330
12EC
330
12ED
330
12EE
330
12EF
330
12F0
330
1309
330
130A
330
130B
  0
ENDSEC
  0
EOF
