  0
SECTION
  2
HEADER
  9
$ACADVER
  1
AC1012
  9
$DWGCODEPAGE
  3
big5
  9
$INSBASE
 10
0.0
 20
0.0
 30
0.0
  9
$EXTMIN
 10
2280.386385773656
 20
3.956789472827949
 30
-0.000000000000013
  9
$EXTMAX
 10
2715.67900551367
 20
378.7866543843063
 30
0.0000000000000023
  9
$LIMMIN
 10
0.0
 20
0.0
  9
$LIMMAX
 10
420.0
 20
297.0
  9
$ORTHOMODE
 70
     1
  9
$REGENMODE
 70
     1
  9
$FILLMODE
 70
     1
  9
$QTEXTMODE
 70
     0
  9
$MIRRTEXT
 70
     1
  9
$DRAGMODE
 70
     2
  9
$LTSCALE
 40
0.8
  9
$OSMODE
 70
    55
  9
$ATTMODE
 70
     1
  9
$TEXTSIZE
 40
3.0
  9
$TRACEWID
 40
1.0
  9
$TEXTSTYLE
  7
CHINA
  9
$CLAYER
  8
0
  9
$CELTYPE
  6
BYLAYER
  9
$CECOLOR
 62
   256
  9
$CELTSCALE
 40
1.0
  9
$DELOBJ
 70
     1
  9
$DISPSILH
 70
     0
  9
$DIMSCALE
 40
1.0
  9
$DIMASZ
 40
3.0
  9
$DIMEXO
 40
2.0
  9
$DIMDLI
 40
10.0
  9
$DIMRND
 40
0.0
  9
$DIMDLE
 40
0.0
  9
$DIMEXE
 40
1.5
  9
$DIMTP
 40
0.1
  9
$DIMTM
 40
0.1
  9
$DIMTXT
 40
3.0
  9
$DIMCEN
 40
0.0
  9
$DIMTSZ
 40
0.0
  9
$DIMTOL
 70
     0
  9
$DIMLIM
 70
     0
  9
$DIMTIH
 70
     0
  9
$DIMTOH
 70
     0
  9
$DIMSE1
 70
     0
  9
$DIMSE2
 70
     0
  9
$DIMTAD
 70
     1
  9
$DIMZIN
 70
     8
  9
$DIMBLK
  1

  9
$DIMASO
 70
     1
  9
$DIMSHO
 70
     1
  9
$DIMPOST
  1

  9
$DIMAPOST
  1
"
  9
$DIMALT
 70
     0
  9
$DIMALTD
 70
     2
  9
$DIMALTF
 40
0.0393701
  9
$DIMLFAC
 40
1.0
  9
$DIMTOFL
 70
     1
  9
$DIMTVP
 40
0.0
  9
$DIMTIX
 70
     0
  9
$DIMSOXD
 70
     0
  9
$DIMSAH
 70
     0
  9
$DIMBLK1
  1

  9
$DIMBLK2
  1

  9
$DIMSTYLE
  2
AM_ISO
  9
$DIMCLRD
 70
   256
  9
$DIMCLRE
 70
   256
  9
$DIMCLRT
 70
   256
  9
$DIMTFAC
 40
0.71
  9
$DIMGAP
 40
1.0
  9
$DIMJUST
 70
     0
  9
$DIMSD1
 70
     0
  9
$DIMSD2
 70
     0
  9
$DIMTOLJ
 70
     0
  9
$DIMTZIN
 70
     8
  9
$DIMALTZ
 70
     0
  9
$DIMALTTZ
 70
     0
  9
$DIMFIT
 70
     3
  9
$DIMUPT
 70
     0
  9
$DIMUNIT
 70
     2
  9
$DIMDEC
 70
     2
  9
$DIMTDEC
 70
     2
  9
$DIMALTU
 70
     2
  9
$DIMALTTD
 70
     2
  9
$DIMTXSTY
  7
CHINA
  9
$DIMAUNIT
 70
     0
  9
$LUNITS
 70
     2
  9
$LUPREC
 70
     2
  9
$SKETCHINC
 40
1.0
  9
$FILLETRAD
 40
2.5
  9
$AUNITS
 70
     0
  9
$AUPREC
 70
     0
  9
$MENU
  1
.
  9
$ELEVATION
 40
0.0
  9
$PELEVATION
 40
0.0
  9
$THICKNESS
 40
0.0
  9
$LIMCHECK
 70
     0
  9
$BLIPMODE
 70
     0
  9
$CHAMFERA
 40
1.5
  9
$CHAMFERB
 40
1.5
  9
$CHAMFERC
 40
20.0
  9
$CHAMFERD
 40
0.0
  9
$SKPOLY
 70
     0
  9
$TDCREATE
 40
2452794.706235081
  9
$TDUPDATE
 40
2452796.644619918
  9
$TDINDWG
 40
0.1332745255
  9
$TDUSRTIMER
 40
0.1332742940
  9
$USRTIMER
 70
     1
  9
$ANGBASE
 50
0.0
  9
$ANGDIR
 70
     0
  9
$PDMODE
 70
     0
  9
$PDSIZE
 40
0.0
  9
$PLINEWID
 40
0.0
  9
$COORDS
 70
     0
  9
$SPLFRAME
 70
     0
  9
$SPLINETYPE
 70
     6
  9
$SPLINESEGS
 70
     8
  9
$ATTDIA
 70
     1
  9
$ATTREQ
 70
     1
  9
$HANDLING
 70
 22529
  9
$HANDSEED
  5
485C
  9
$SURFTAB1
 70
     6
  9
$SURFTAB2
 70
     6
  9
$SURFTYPE
 70
     6
  9
$SURFU
 70
     6
  9
$SURFV
 70
     6
  9
$UCSNAME
  2

  9
$UCSORG
 10
0.0
 20
0.0
 30
0.0
  9
$UCSXDIR
 10
1.0
 20
0.0
 30
0.0
  9
$UCSYDIR
 10
0.0
 20
1.0
 30
0.0
  9
$PUCSNAME
  2

  9
$PUCSORG
 10
0.0
 20
0.0
 30
0.0
  9
$PUCSXDIR
 10
1.0
 20
0.0
 30
0.0
  9
$PUCSYDIR
 10
0.0
 20
1.0
 30
0.0
  9
$USERI1
 70
     0
  9
$USERI2
 70
     0
  9
$USERI3
 70
     0
  9
$USERI4
 70
     0
  9
$USERI5
 70
     0
  9
$USERR1
 40
0.0
  9
$USERR2
 40
0.0
  9
$USERR3
 40
0.0
  9
$USERR4
 40
0.0
  9
$USERR5
 40
0.0
  9
$WORLDVIEW
 70
     1
  9
$SHADEDGE
 70
     3
  9
$SHADEDIF
 70
    70
  9
$TILEMODE
 70
     1
  9
$MAXACTVP
 70
    64
  9
$PINSBASE
 10
0.0
 20
0.0
 30
0.0
  9
$PLIMCHECK
 70
     0
  9
$PEXTMIN
 10
26.80208481208632
 20
60.62932117531272
 30
-0.0000000000000153
  9
$PEXTMAX
 10
155.7606180029583
 20
204.4099130529699
 30
0.0
  9
$PLIMMIN
 10
-3.757083177566528
 20
-14.7637300491333
  9
$PLIMMAX
 10
206.2162444591522
 20
282.2045927047729
  9
$UNITMODE
 70
     0
  9
$VISRETAIN
 70
     1
  9
$PLINEGEN
 70
     0
  9
$PSLTSCALE
 70
     1
  9
$TREEDEPTH
 70
  3020
  9
$PICKSTYLE
 70
     0
  9
$CMLSTYLE
  2
STANDARD
  9
$CMLJUST
 70
     0
  9
$CMLSCALE
 40
20.0
  9
$SAVEIMAGES
 70
     1
  0
ENDSEC
  0
SECTION
  2
CLASSES
  0
CLASS
  1
ACDBDICTIONARYWDFLT
  2
AcDbDictionaryWithDefault
  3
AutoCAD 2000
 90
    32768
280
     0
281
     0
  0
CLASS
  1
ACDBPLACEHOLDER
  2
AcDbPlaceHolder
  3
AutoCAD 2000
 90
    32768
280
     0
281
     0
  0
CLASS
  1
LAYOUT
  2
AcDbLayout
  3
AutoCAD 2000
 90
    32768
280
     0
281
     0
  0
CLASS
  1
AMGSETTINGSOBJ
  2
AmgSettingsObj
  3
"AcadM|Product Description: AutoCAD Mechanical 2000|Company: Autodesk"
 90
    32768
280
     0
281
     0
  0
CLASS
  1
ACME_DOCUMENT
  2
AcMeDbDoc
  3
AcMeServices
 90
    32768
280
     0
281
     0
  0
CLASS
  1
ACMESCOPE
  2
AcMeScope
  3
AcMeServices
 90
    32768
280
     0
281
     0
  0
CLASS
  1
ACMECOMMANDHISTORY
  2
AcMeCommandHistory
  3
AcMeServices
 90
    32768
280
     0
281
     0
  0
CLASS
  1
ACIMSYSVARMAN
  2
AcImSysVarManager
  3
AcMeServices
 90
    32768
280
     0
281
     0
  0
CLASS
  1
ACIMREALSYSVAR
  2
AcImRealSysVar
  3
AcMeServices
 90
    32768
280
     0
281
     0
  0
CLASS
  1
ACIMINTSYSVAR
  2
AcImIntSysVar
  3
AcMeServices
 90
    32768
280
     0
281
     0
  0
CLASS
  1
ACMEDRAWINGMAN
  2
AcMeDrawingMan
  3
AcMeServices
 90
    32768
280
     0
281
     0
  0
CLASS
  1
ACMEVIEW
  2
AcMeView
  3
AcMeServices
 90
    32768
280
     0
281
     0
  0
CLASS
  1
ACDBENTITYCACHE
  2
AcMeEntityCache
  3
AcMeServices
 90
    32768
280
     0
281
     0
  0
CLASS
  1
GSMANAGER
  2
AcMeGSManager
  3
AcMeServices
 90
    32768
280
     0
281
     0
  0
CLASS
  1
AMDTINTERNALREACTOR
  2
AmdtInternalReactor
  3
AcMeServices
 90
    32768
280
     0
281
     0
  0
CLASS
  1
ACMESTATEMGR
  2
AcMeStateMgr
  3
AcMeServices
 90
    32768
280
     0
281
     0
  0
CLASS
  1
ACGREFMASTER
  2
AcGrefMaster
  3
AcAttribServices
 90
    32768
280
     0
281
     0
  0
CLASS
  1
AM_DRAWING_MGR
  2
AcDmDwgMgr
  3
AcMechDwgViewMgmt
 90
    32768
280
     0
281
     0
  0
CLASS
  1
AM_DWG_DOCUMENT
  2
AcDmDwgDocument
  3
AcMechDwgViewMgmt
 90
    32768
280
     0
281
     0
  0
CLASS
  1
AM_DWG_SHEET
  2
AcDmSheet
  3
AcMechDwgViewMgmt
 90
    32768
280
     0
281
     0
  0
CLASS
  1
AM_VIEWDIMPARMAP
  2
AcDmViewDimParMap
  3
AcMechDwgViewMgmt
 90
    32768
280
     0
281
     0
  0
CLASS
  1
AM_DWGMGR_NAME
  2
AcDmDwgMgrName
  3
AcMechDwgViewMgmt
 90
    32768
280
     0
281
     0
  0
CLASS
  1
ACME_DATABASE
  2
AcMeDbDatabase
  3
AcMeServices
 90
    32768
280
     0
281
     0
  0
CLASS
  1
ACRFINSADJUSTERMGR
  2
AcRfInsAdjusterMgr
  3
AcMeServices
 90
    32768
280
     0
281
     0
  0
CLASS
  1
ACGREFACADMASTER
  2
AcGrefacadMaster
  3
AcGrefServices
 90
    32768
280
     0
281
     0
  0
CLASS
  1
AMDTMENUSTATEMGR
  2
AmdtMenuStateMgr
  3
McadcomServices
 90
    32768
280
     0
281
     0
  0
CLASS
  1
AMDTMCOMMENUSTATE
  2
AmdtMcomMenuState
  3
McadcomServices
 90
    32768
280
     0
281
     0
  0
CLASS
  1
AMIMASTER
  2
AmiMaster
  3
AmiServices
 90
    32768
280
     0
281
     0
  0
CLASS
  1
ASAPP
  2
AcAsAppObject
  3
AutoSurfServices
 90
    32768
280
     0
281
     0
  0
CLASS
  1
IM_STATIC_MAN
  2
AcImStaticVarManager
  3
AcMeServices
 90
    32768
280
     0
281
     0
  0
CLASS
  1
ACIMSTRSYSVAR
  2
AcImStrSysVar
  3
AcMeServices
 90
    32768
280
     0
281
     0
  0
CLASS
  1
ACIMDBLSTATICVAR
  2
AcImDblStaticVar
  3
AcMeServices
 90
    32768
280
     0
281
     0
  0
CLASS
  1
ACIMSTRSTATICVAR
  2
AcImStrStaticVar
  3
AcMeServices
 90
    32768
280
     0
281
     0
  0
CLASS
  1
ACIMINTSTATICVAR
  2
AcImIntStaticVar
  3
AcMeServices
 90
    32768
280
     0
281
     0
  0
CLASS
  1
ACASGREFMASTER
  2
AcAsGrefMaster
  3
AutoSurfResolverServices
 90
    32768
280
     0
281
     0
  0
CLASS
  1
ACADGREFMODULE
  2
AcAdGrefModule
  3
AdGrefServices
 90
    32768
280
     0
281
     0
  0
CLASS
  1
AMDTMAPISURFMOUDULE
  2
AmdtMApiSurfModule
  3
MApiSurfServices
 90
    32768
280
     0
281
     0
  0
CLASS
  1
MAPIAMMOUDLE
  2
MApiAmModule
  3
MApiAmServices
 90
    32768
280
     0
281
     0
  0
CLASS
  1
AMDTADMENUSTATE
  2
AmdtAdMenuState
  3
DesignerServices
 90
    32768
280
     0
281
     0
  0
CLASS
  1
ADAPPL
  2
AcAdAppl
  3
DesignerServices
 90
    32768
280
     0
281
     0
  0
CLASS
  1
DEPMGR
  2
AcAdDepMgr
  3
DesignerServices
 90
    32768
280
     0
281
     0
  0
CLASS
  1
PARAMMGR
  2
AcAdParamMgr
  3
DesignerServices
 90
    32768
280
     0
281
     0
  0
CLASS
  1
PARAMSCOPE
  2
AcAdParamScope
  3
DesignerServices
 90
    32768
280
     0
281
     0
  0
CLASS
  1
NAMEDAPPL
  2
AcAdNamedAppl
  3
DesignerServices
 90
    32768
280
     0
281
     0
  0
CLASS
  1
AMDTDMMENUSTATE
  2
AmdtDmMenuState
  3
AcMechDwgViewMgmt
 90
    32768
280
     0
281
     0
  0
CLASS
  1
MAPIADMODULE
  2
MApiAdModule
  3
MApiAdServices
 90
    32768
280
     0
281
     0
  0
CLASS
  1
AMDTAMMENUSTATE
  2
AmdtAmMenuState
  3
DesignerAssemblies
 90
    32768
280
     0
281
     0
  0
CLASS
  1
ACAMPROJECT
  2
AcAmProject
  3
DesignerAssemblies
 90
    32768
280
     0
281
     0
  0
CLASS
  1
ACAMCOMPDEFMGR
  2
AcAmCompDefMgr
  3
DesignerAssemblies
 90
    32768
280
     0
281
     0
  0
CLASS
  1
AMCONTEXTMGR
  2
AcAmContextMgr
  3
DesignerAssemblies
 90
    32768
280
     0
281
     0
  0
CLASS
  1
ACAMCONTEXTPARTMODELER
  2
AcAmContextPartModeler
  3
DesignerAssemblies
 90
    32768
280
     0
281
     0
  0
CLASS
  1
ACMDATADICTIONARY
  2
AcmDataDictionary
  3
"AcmSymBB|Product Description: AutoCAD Mechanical 2000|Company: Autodesk"
 90
    32768
280
     0
281
     0
  0
CLASS
  1
ACMDATAENTRYBLOCK
  2
AcmDataEntryBlock
  3
"AcmSymBB|Product Description: AutoCAD Mechanical 2000|Company: Autodesk"
 90
    32768
280
     0
281
     0
  0
CLASS
  1
ACMSTANDARDISO
  2
AcmStandardISO
  3
"Amdt_StdImp|Product Description: AutoCAD Mechanical 2000|Company: Autodesk"
 90
    32768
280
     0
281
     0
  0
CLASS
  1
AMGOBJPROPCFG
  2
AmgObjPropCfg
  3
"AmgLay|Product Description: AutoCAD Mechanical 2000|Company: Autodesk"
 90
    32769
280
     0
281
     0
  0
CLASS
  1
AMDTEDGESTANDARDISO
  2
AmdtEdgeStdISO
  3
"Amdt_StdImp|Product Description: AutoCAD Mechanical 2000|Company: Autodesk"
 90
    32768
280
     0
281
     0
  0
CLASS
  1
ACMSURFSTANDARDISO
  2
AcmSurfTextStdISO
  3
"Amdt_StdImp|Product Description: AutoCAD Mechanical 2000|Company: Autodesk"
 90
    32768
280
     0
281
     0
  0
CLASS
  1
ACMFCFSTANDARDISO
  2
AcmFCFStdISO
  3
"Amdt_StdImp|Product Description: AutoCAD Mechanical 2000|Company: Autodesk"
 90
    32768
280
     0
281
     0
  0
CLASS
  1
ACMWELDSTANDARDISO
  2
AcmWeldingStdISO
  3
"Amdt_StdImp|Product Description: AutoCAD Mechanical 2000|Company: Autodesk"
 90
    32768
280
     0
281
     0
  0
CLASS
  1
ACMIDSTANDARDISO
  2
AcmIdStdISO
  3
"Amdt_StdImp|Product Description: AutoCAD Mechanical 2000|Company: Autodesk"
 90
    32768
280
     0
281
     0
  0
CLASS
  1
ACMDATUMSTANDARDISO
  2
AcmDatumStdISO
  3
"Amdt_StdImp|Product Description: AutoCAD Mechanical 2000|Company: Autodesk"
 90
    32768
280
     0
281
     0
  0
CLASS
  1
ACMBOMSTANDARDISO
  2
AcmBOMStdISO
  3
"Amdt_StdImp|Product Description: AutoCAD Mechanical 2000|Company: Autodesk"
 90
    32768
280
     0
281
     0
  0
CLASS
  1
ACMDETAILSTANDARDISO
  2
AmdtDetailSymStdISO
  3
"Amdt_StdImp|Product Description: AutoCAD Mechanical 2000|Company: Autodesk"
 90
    32768
280
     0
281
     0
  0
CLASS
  1
ACMSECTIONSTANDARDISO
  2
AmdtSectionSymStdISO
  3
"Amdt_StdImp|Product Description: AutoCAD Mechanical 2000|Company: Autodesk"
 90
    32768
280
     0
281
     0
  0
CLASS
  1
ACMCENTERLINESTANDARDISO
  2
AmdtCenterLineStdISO
  3
"Amdt_StdImp|Product Description: AutoCAD Mechanical 2000|Company: Autodesk"
 90
    32768
280
     0
281
     0
  0
CLASS
  1
ACMTHREADLINESTANDARDISO
  2
AmdtThreadLineStdISO
  3
"Amdt_StdImp|Product Description: AutoCAD Mechanical 2000|Company: Autodesk"
 90
    32768
280
     0
281
     0
  0
CLASS
  1
ACMNOTESTANDARDISO
  2
AmdtNoteStdISO
  3
"Amdt_StdImp|Product Description: AutoCAD Mechanical 2000|Company: Autodesk"
 90
    32768
280
     0
281
     0
  0
CLASS
  1
ACAMGLAYSTD
  2
AcAmgLayStd
  3
"AcAmgLayStd|Product Description: AutoCAD Mechanical 2000|Company: Autodesk"
 90
    32768
280
     0
281
     0
  0
CLASS
  1
ACAMGDIMSTD
  2
AcAmgDimStd
  3
"AcAmgDimStd|Product Description: AutoCAD Mechanical 2000|Company: Autodesk"
 90
    32768
280
     0
281
     0
  0
CLASS
  1
ACAMGHOLECHARTSTDISO
  2
AcAmgHoleChartStdISO
  3
ACMSYMBB_MODULE_NAME
 90
    32768
280
     0
281
     0
  0
CLASS
  1
ACAMGTITLESTD
  2
AcAmgTitleStd
  3
"TITLEAPP"
 90
    32768
280
     0
281
     0
  0
CLASS
  1
CATALOGSTATE
  2
AcAmCatalogState
  3
DesignerAssemblies
 90
    32768
280
     0
281
     0
  0
CLASS
  1
ACAMGRCOMPDEFSET
  2
AcAmGrCompDefSet
  3
DesignerAssemblies
 90
    32768
280
     0
281
     0
  0
CLASS
  1
AMDTBROWSERDBTAB
  2
AmdtBrowserDbTab
  3
McadcomServices
 90
    32768
280
     0
281
     0
  0
CLASS
  1
CBROWSERAPPOBJECT
  2
CBrowserAppObject
  3
McadcomServices
 90
    32768
280
     0
281
     0
  0
CLASS
  1
DM_PLACEHOLDER
  2
AcDmSelsetPlaceholder
  3
AcMechDwgViewMgmt
 90
    32768
280
     0
281
     0
  0
CLASS
  1
ACAMGFILTERDAT
  2
AcAmgFilterDat
  3
"AcadM|Product Description: AutoCAD Mechanical 2000|Company: Autodesk"
 90
    32768
280
     0
281
     0
  0
CLASS
  1
LAYER_INDEX
  2
AcDbLayerIndex
  3
AutoCAD 2000
 90
    32768
280
     0
281
     0
  0
CLASS
  1
IDBUFFER
  2
AcDbIdBuffer
  3
AutoCAD 2000
 90
    32768
280
     0
281
     0
  0
CLASS
  1
DICTIONARYVAR
  2
AcDbDictionaryVar
  3
AutoCAD 2000
 90
    32768
280
     0
281
     0
  0
CLASS
  1
ACAMGRCOMPDEF
  2
AcAmGrCompDef
  3
DesignerAssemblies
 90
    32768
280
     0
281
     0
  0
CLASS
  1
ACCMCONTEXT
  2
AcCmContext
  3
DesignerAssemblies
 90
    32768
280
     0
281
     0
  0
CLASS
  1
ACAMCOMPDEF
  2
AcAmCompDef
  3
DesignerAssemblies
 90
    32768
280
     0
281
     0
  0
CLASS
  1
ADPART
  2
AcAdPart
  3
DesignerServices
 90
    32768
280
     0
281
     1
  0
CLASS
  1
ADBASE
  2
AcAdBase
  3
DesignerServices
 90
    32768
280
     0
281
     0
  0
CLASS
  1
BODYID
  2
AcAdBodyId
  3
DesignerServices
 90
    32768
280
     0
281
     0
  0
CLASS
  1
WORKPLANEDISPLAYMGR
  2
AcAdDisplayMgr
  3
DesignerServices
 90
    32768
280
     0
281
     0
  0
CLASS
  1
ACCMBODY
  2
AcCmBody
  3
DesignerAssemblies
 90
    32768
280
     0
281
     0
  0
CLASS
  1
ACAMCOMPENT
  2
AcAmCompEnt
  3
DesignerAssemblies
 90
    32768
280
     0
281
     1
  0
CLASS
  1
ACAMCOMPFEEDBACK
  2
AcAmCompFeedback
  3
DesignerAssemblies
 90
    32768
280
     0
281
     0
  0
CLASS
  1
ACAMGROUNDEDBASECOMP
  2
AcAmGroundedBaseComp
  3
DesignerAssemblies
 90
    32768
280
     0
281
     0
  0
CLASS
  1
ACAMCOMPENTCLONE
  2
AcAmCompEntClone
  3
DesignerAssemblies
 90
    32768
280
     0
281
     1
  0
CLASS
  1
ACAMCLONEREACTOR
  2
AcAmGrCompCloneReactor
  3
DesignerAssemblies
 90
    32768
280
     0
281
     0
  0
CLASS
  1
ADDATUMPLANEABS
  2
AcAdDatumPlaneAbs
  3
DesignerServices
 90
    32768
280
     0
281
     0
  0
CLASS
  1
ADDATUMAXISABS
  2
AcAdDatumAxisAbs
  3
DesignerServices
 90
    32768
280
     0
281
     0
  0
CLASS
  1
ADDATUMORIENTEDPLANE
  2
AcAdDatumOrientedPlane
  3
DesignerServices
 90
    32768
280
     0
281
     0
  0
CLASS
  1
ACAD_LINE
  2
AcAdLine
  3
DesignerServices
 90
    32768
280
     0
281
     1
  0
CLASS
  1
ACADLINEACAD
  2
AcAdVirtualBoundedLineAcad
  3
DesignerServices
 90
    32768
280
     0
281
     0
  0
CLASS
  1
ACADREFLINEACAD
  2
AcAdVirtualReferenceLine
  3
DesignerServices
 90
    32768
280
     0
281
     0
  0
CLASS
  1
ACADCONSLINE
  2
AcAdConstrainedLine
  3
DesignerServices
 90
    32768
280
     0
281
     0
  0
CLASS
  1
ACADCONSGROUP
  2
AcAdConstraintGroup
  3
DesignerServices
 90
    32768
280
     0
281
     0
  0
CLASS
  1
ACADIMPPTACAD
  2
AcAdVirtualImplicitPoint
  3
DesignerServices
 90
    32768
280
     0
281
     0
  0
CLASS
  1
ACADCONSPOINT
  2
AcAdConstrainedPoint
  3
DesignerServices
 90
    32768
280
     0
281
     0
  0
CLASS
  1
ADPCURCNS
  2
AcAdPointCurveConstr
  3
DesignerServices
 90
    32768
280
     0
281
     0
  0
CLASS
  1
ADVERCNS
  2
AcAdVerticalConstr
  3
DesignerServices
 90
    32768
280
     0
281
     0
  0
CLASS
  1
ADHORCNS
  2
AcAdHorizontalConstr
  3
DesignerServices
 90
    32768
280
     0
281
     0
  0
CLASS
  1
ADCLPROF2D
  2
AcAdClosedProfile2d
  3
DesignerServices
 90
    32768
280
     0
281
     0
  0
CLASS
  1
ACAD_FIXCONSTRAINT
  2
AcAdFixedConstraint
  3
DesignerServices
 90
    32768
280
     0
281
     0
  0
CLASS
  1
AMDTFORMULAUPDATEDISPATCHER
  2
AmdtFormulaUpdateDispatcher
  3
AcMeServices
 90
    32768
280
     0
281
     0
  0
CLASS
  1
ADCONSDISP
  2
AcAdConstraintDisplay
  3
DesignerServices
 90
    32768
280
     0
281
     1
  0
CLASS
  1
ADCONSTDSP
  2
AcAdConstraintDisplayTag
  3
DesignerServices
 90
    32768
280
     0
281
     1
  0
CLASS
  1
PARAM
  2
AcAdParam
  3
DesignerServices
 90
    32768
280
     0
281
     0
  0
CLASS
  1
ADVDISTCNS
  2
AcAdVerticalDistanceConstr
  3
DesignerServices
 90
    32768
280
     0
281
     0
  0
CLASS
  1
ADHDISTCNS
  2
AcAdHorizontalDistanceConstr
  3
DesignerServices
 90
    32768
280
     0
281
     0
  0
CLASS
  1
ACMEROTATIONARROW
  2
AcImRotationArrowDisplay
  3
AcMeServices
 90
    32768
280
     0
281
     1
  0
CLASS
  1
ACADVOLFEATWITHTRIM
  2
AcAdVolFeatWithTrim
  3
DesignerServices
 90
    32768
280
     0
281
     0
  0
CLASS
  1
DEPEDGEFEATUREORDERING
  2
AcAdDepEdgeFeatureOrdering
  3
DesignerServices
 90
    32768
280
     0
281
     0
  0
CLASS
  1
DATUMAXISDISPLAY
  2
AcAdDatumAxisDisplay
  3
DesignerServices
 90
    32768
280
     0
281
     1
  0
CLASS
  1
ADDATUMAXISCENTER
  2
AcAdDatumAxisCenter
  3
DesignerServices
 90
    32768
280
     0
281
     0
  0
CLASS
  1
ADPLANEID
  2
AcAdSurfGeomId
  3
DesignerServices
 90
    32768
280
     0
281
     0
  0
CLASS
  1
ACMEPOINT
  2
AcImPointDisplay
  3
AcMeServices
 90
    32768
280
     0
281
     1
  0
CLASS
  1
ADPLANEID
  2
AcAdPlaneId
  3
DesignerServices
 90
    32768
280
     0
281
     0
  0
CLASS
  1
ADDATUMPLANEFACE
  2
AcAdDatumPlaneFace
  3
DesignerServices
 90
    32768
280
     0
281
     0
  0
CLASS
  1
ADDATUMPOINTAXISPLANE
  2
AcAdDatumPointAxisPlane
  3
DesignerServices
 90
    32768
280
     0
281
     0
  0
CLASS
  1
ADHOLEFEAT
  2
AcAdHoleFeat
  3
DesignerServices
 90
    32768
280
     0
281
     0
  0
CLASS
  1
CIRREFID
  2
AcAdCircleRefId
  3
DesignerServices
 90
    32768
280
     0
281
     0
  0
CLASS
  1
ACADCIRCDEPID
  2
AcAdVirtualCircleDepId
  3
DesignerServices
 90
    32768
280
     0
281
     0
  0
CLASS
  1
ACADCONSCIRCLE
  2
AcAdConstrainedCircle
  3
DesignerServices
 90
    32768
280
     0
281
     0
  0
CLASS
  1
ADCTRPTCNS
  2
AcAdCenterPointConstr
  3
DesignerServices
 90
    32768
280
     0
281
     0
  0
CLASS
  1
AMDT_ALIGNED_DIM
  2
AmdtAlignedDimension
  3
AcMeServices
 90
    32768
280
     0
281
     1
  0
CLASS
  1
ACADBOUNDEDLINEDATUMID
  2
AcAdVirtualBoundedLineDatumId
  3
DesignerServices
 90
    32768
280
     0
281
     0
  0
CLASS
  1
AMDT_ORDINATE_DIM
  2
AmdtOrdinateDimension
  3
AcMeServices
 90
    32768
280
     0
281
     1
  0
CLASS
  1
EDGEID
  2
AcAdEdgeId
  3
DesignerServices
 90
    32768
280
     0
281
     0
  0
CLASS
  1
ADFILLET
  2
AcAdFillet
  3
DesignerServices
 90
    32768
280
     0
281
     0
  0
CLASS
  1
DATUMPLANEDISPLAY
  2
AcAdDatumPlaneDisplay
  3
DesignerServices
 90
    32768
280
     0
281
     1
  0
CLASS
  1
ADDATUMPLANEAXISPLANE
  2
AcAdDatumPlaneAxisPlane
  3
DesignerServices
 90
    32768
280
     0
281
     0
  0
CLASS
  1
ACMEPLINE
  2
AcImPlineDisplay
  3
AcMeServices
 90
    32768
280
     0
281
     1
  0
CLASS
  1
ACMELINEARARROW
  2
AcImLinearArrowDisplay
  3
AcMeServices
 90
    32768
280
     0
281
     1
  0
CLASS
  1
ACMETEXT
  2
AcImTextDisplay
  3
AcMeServices
 90
    32768
280
     0
281
     1
  0
CLASS
  1
ADDATUMPLANEOFFSET
  2
AcAdDatumPlaneOffset
  3
DesignerServices
 90
    32768
280
     0
281
     0
  0
CLASS
  1
ADCOLNCNS
  2
AcAdColinearConstr
  3
DesignerServices
 90
    32768
280
     0
281
     0
  0
CLASS
  1
STREFID
  2
AcAdStraightRefId
  3
DesignerServices
 90
    32768
280
     0
281
     0
  0
CLASS
  1
ACADLINEDEPID
  2
AcAdVirtualLineDepId
  3
DesignerServices
 90
    32768
280
     0
281
     0
  0
CLASS
  1
ADFEATUREDISPLAY
  2
AcImFeatureDisplay
  3
ACME_MODULE_NAME
 90
    32768
280
     0
281
     1
  0
CLASS
  1
ACMEAXIS
  2
AcImAxisDisplay
  3
AcMeServices
 90
    32768
280
     0
281
     1
  0
CLASS
  1
DEPEDGEPATTERNFEATURE
  2
AcAdDepEdgePatternFeature
  3
DesignerServices
 90
    32768
280
     0
281
     0
  0
CLASS
  1
ACADPATTNFEAT
  2
AcAdPatternFeat
  3
DesignerServices
 90
    32768
280
     0
281
     0
  0
CLASS
  1
ACADORDORIGPT
  2
AcAdOrdinateOriginPoint
  3
DesignerServices
 90
    32768
280
     0
281
     0
  0
CLASS
  1
ADORDBASECNS
  2
AcAdOrdinateBaseConstr
  3
DesignerServices
 90
    32768
280
     0
281
     0
  0
CLASS
  1
DEPEDGESECONDARYDEPID
  2
AcAdDepEdgeSecondaryDepId
  3
DesignerServices
 90
    32768
280
     0
281
     0
  0
CLASS
  1
DEPEDGEPATTERNINSTANCE
  2
AcAdDepEdgePatternInstance
  3
DesignerServices
 90
    32768
280
     0
281
     0
  0
CLASS
  1
AM_VIEW_SELECT_FILTER
  2
AcDmActivePartViewEntFilter
  3
DesignerServices
 90
    32768
280
     0
281
     0
  0
CLASS
  1
AM_ABS_PLANE
  2
AcDmAbsPlnDef
  3
AcMechDwgViewMgmt
 90
    32768
280
     0
281
     0
  0
CLASS
  1
AM_ABS_AXIS
  2
AcDmAbsAxisDef
  3
AcMechDwgViewMgmt
 90
    32768
280
     0
281
     0
  0
CLASS
  1
AM_BASE_VIEW_ORIENT
  2
AcDmBaseViewOr
  3
AcMechDwgViewMgmt
 90
    32768
280
     0
281
     0
  0
CLASS
  1
AM_DWG_VIEWPORT
  2
AcDmViewport
  3
AcMechDwgViewMgmt
 90
    32768
280
     0
281
     0
  0
CLASS
  1
AM_VIEW_DISPLAY
  2
AcDmDwgViewDisplay
  3
AcMechDwgViewMgmt
 90
    32768
280
     0
281
     0
  0
CLASS
  1
AM_CLDFLTS
  2
AcDmClDflts
  3
AcMechDwgViewMgmt
 90
    32768
280
     0
281
     0
  0
CLASS
  1
AM_BASE_VIEW
  2
AcDmBaseView
  3
AcMechDwgViewMgmt
 90
    32768
280
     0
281
     0
  0
CLASS
  1
AM_ISO_VIEW_ORIENT
  2
AcDmIsoViewOr
  3
AcMechDwgViewMgmt
 90
    32768
280
     0
281
     0
  0
CLASS
  1
AM_ISO_VIEW
  2
AcDmIsoView
  3
AcMechDwgViewMgmt
 90
    32768
280
     0
281
     0
  0
CLASS
  1
AM_ORTHO_VIEW_ORIENT
  2
AcDmOrthoViewOr
  3
AcMechDwgViewMgmt
 90
    32768
280
     0
281
     0
  0
CLASS
  1
AM_ORTHO_VIEW
  2
AcDmOrthoView
  3
AcMechDwgViewMgmt
 90
    32768
280
     0
281
     0
  0
CLASS
  1
ACDMPARTVIEWDATA
  2
AcDmPartViewData
  3
AcMechDwgViewMgmt
 90
    32768
280
     0
281
     0
  0
CLASS
  1
ACDMDISPLAYATTRIBS
  2
AcDmDisplayAttribs
  3
AcMechDwgViewMgmt
 90
    32768
280
     0
281
     0
  0
CLASS
  1
ACDMBODYINSTANCEDATA
  2
AcDmBodyInstanceData
  3
AcMechDwgViewMgmt
 90
    32768
280
     0
281
     0
  0
CLASS
  1
ACDMVWEDLINE
  2
AcDmViewEdgeLine
  3
AcMechDwgViewMgmt
 90
    32768
280
     0
281
     1
  0
CLASS
  1
ACDMVWEDARC
  2
AcDmViewEdgeArc
  3
AcMechDwgViewMgmt
 90
    32768
280
     0
281
     1
  0
CLASS
  1
ACADSKETCHPOINTRES
  2
AcAdSketchPointRes
  3
DesignerServices
 90
    32768
280
     0
281
     0
  0
CLASS
  1
AM_VIEWDIMLINEAR
  2
AcDmViewDimLinear
  3
AcMechDwgViewMgmt
 90
    32768
280
     0
281
     0
  0
CLASS
  1
AMDTDMPARMAPDATA
  2
AmdtDmDimParMapData
  3
AcMechDwgViewMgmt
 90
    32768
280
     0
281
     0
  0
CLASS
  1
AM_ADLINCTRLINE
  2
AcAdLineCl
  3
DesignerServices
 90
    32768
280
     0
281
     0
  0
CLASS
  1
ACDMVWEDCIRC
  2
AcDmViewEdgeCircle
  3
AcMechDwgViewMgmt
 90
    32768
280
     0
281
     1
  0
CLASS
  1
AM_ADCIRCTRLINE
  2
AcAdBullsEyeCl
  3
DesignerServices
 90
    32768
280
     0
281
     0
  0
CLASS
  1
AD_CIRCTAPH
  2
AcAdTapHoleCircDisp
  3
DesignerServices
 90
    32768
280
     0
281
     0
  0
CLASS
  1
ACDMVIEWGEOM
  2
AcDmViewGeometry
  3
AcMechDwgViewMgmt
 90
    32768
280
     0
281
     1
  0
CLASS
  1
FACEID
  2
AcAdFaceId
  3
DesignerServices
 90
    32768
280
     0
281
     0
  0
CLASS
  1
ACADPARTPLANARFACERES
  2
AcAdPartPlanarFaceRes
  3
AdGrefServices
 90
    32768
280
     0
281
     0
  0
CLASS
  1
AM_GREF_PLANE
  2
AcDmGrefPlnDef
  3
AcMechDwgViewMgmt
 90
    32768
280
     0
281
     0
  0
CLASS
  1
ACADPARTLINEDGRES
  2
AcAdPartLinEdgRes
  3
AdGrefServices
 90
    32768
280
     0
281
     0
  0
CLASS
  1
AM_GREF_AXIS
  2
AcDmGrefAxisDef
  3
AcMechDwgViewMgmt
 90
    32768
280
     0
281
     0
  0
CLASS
  1
AMDTEXTERNALTHREAD
  2
AmdtExternalThreadFeat
  3
DesignerServices
 90
    32768
280
     0
281
     0
  0
CLASS
  1
THREADDISPLAY
  2
AcAdThreadDisplay
  3
DesignerServices
 90
    32768
280
     0
281
     1
  0
CLASS
  1
AD_LINETAPH
  2
AcAdTapHoleLineDisp
  3
DesignerServices
 90
    32768
280
     0
281
     0
  0
CLASS
  1
ADRADDISP
  2
AcAdRadiusDisplay
  3
DesignerServices
 90
    32768
280
     0
281
     1
  0
CLASS
  1
ACDBLINERES
  2
AcDbLineRes
  3
AcGrefServices
 90
    32768
280
     0
281
     0
  0
CLASS
  1
ACADPARTCONICALFACERES
  2
AcAdPartConicalFaceRes
  3
AdGrefServices
 90
    32768
280
     0
281
     0
  0
CLASS
  1
ACDMGREFEDIT
  2
AcDmViewEntityGeomrefEdit
  3
AcMechDwgViewMgmt
 90
    32768
280
     0
281
     0
  0
CLASS
  1
ACDMVIEWLINEDGERES
  2
AcDmViewLinEdgeRes
  3
AcMechDwgViewMgmt
 90
    32768
280
     0
281
     0
  0
CLASS
  1
SILEDGEID
  2
AcAdSilhouetteEdgeId
  3
DesignerServices
 90
    32768
280
     0
281
     0
  0
CLASS
  1
ACADPARTCYLINDERFACERES
  2
AcAdPartCylinderFaceRes
  3
AdGrefServices
 90
    32768
280
     0
281
     0
  0
CLASS
  1
CNRREFID
  2
AcAdCornerId
  3
DesignerServices
 90
    32768
280
     0
281
     0
  0
CLASS
  1
ACADPARTPOINTRES
  2
AcAdPartPointRes
  3
AdGrefServices
 90
    32768
280
     0
281
     0
  0
CLASS
  1
ACADPARTCIRCEDGRES
  2
AcAdPartCircEdgRes
  3
AdGrefServices
 90
    32768
280
     0
281
     0
  0
CLASS
  1
ACRFDMINSADJ
  2
AcRfDMInsAdjuster
  3
AcMechDwgViewMgmt
 90
    32768
280
     0
281
     0
  0
CLASS
  1
AM_VIEWDIMRADIUS
  2
AcDmViewDimRadius
  3
AcMechDwgViewMgmt
 90
    32768
280
     0
281
     0
  0
CLASS
  1
ACADPARTDATUMPLANERES
  2
AcAdPartDatumPlaneRes
  3
AdGrefServices
 90
    32768
280
     0
281
     0
  0
CLASS
  1
AM_FULLPLANESECTION
  2
AcDmFullPlaneSection
  3
AcMechDwgViewMgmt
 90
    32768
280
     0
281
     0
  0
CLASS
  1
AMDTSECTIONSYM
  2
AmdtSectionSym
  3
"AcmSymBB|Product Description: AutoCAD Mechanical 2000|Company: Autodesk"
 90
    33791
280
     0
281
     1
  0
CLASS
  1
AM_VWNOTEADAPTER
  2
AcDmViewAnnotAdapter
  3
AcMechDwgViewMgmt
 90
    32768
280
     0
281
     0
  0
CLASS
  1
AMDTSECTIONSYMLABEL
  2
AmdtSectionSymLabel
  3
"AcmSymBB|Product Description: AutoCAD Mechanical 2000|Company: Autodesk"
 90
    33791
280
     0
281
     1
  0
CLASS
  1
AMDTNOTE
  2
AmdtNote
  3
"AcmSymBB|Product Description: AutoCAD Mechanical 2000|Company: Autodesk"
 90
    33791
280
     0
281
     1
  0
CLASS
  1
DIMASSOC
  2
AcDbDimAssoc
  3
"AcDbDimAssoc|Product Desc:     AcDim ARX App For Dimension|Company:          Autodesk, Inc.|WEB Address:      www.autodesk.com"
 90
    32768
280
     0
281
     0
  0
CLASS
  1
ACMSTANDARDANSI
  2
AcmStandardANSI
  3
"Amdt_StdImp|Product Description: AutoCAD Mechanical 2000|Company: Autodesk"
 90
    32768
280
     0
281
     0
  0
CLASS
  1
ACMSURFSTANDARDANSI
  2
AcmSurfTextStdANSI
  3
"Amdt_StdImp|Product Description: AutoCAD Mechanical 2000|Company: Autodesk"
 90
    32768
280
     0
281
     0
  0
CLASS
  1
ACMFCFSTANDARDANSI
  2
AcmFCFStdANSI
  3
"Amdt_StdImp|Product Description: AutoCAD Mechanical 2000|Company: Autodesk"
 90
    32768
280
     0
281
     0
  0
CLASS
  1
ACMWELDSTANDARDANSI
  2
AcmWeldingStdANSI
  3
"Amdt_StdImp|Product Description: AutoCAD Mechanical 2000|Company: Autodesk"
 90
    32768
280
     0
281
     0
  0
CLASS
  1
ACMIDSTANDARDANSI
  2
AcmIdStdANSI
  3
"Amdt_StdImp|Product Description: AutoCAD Mechanical 2000|Company: Autodesk"
 90
    32768
280
     0
281
     0
  0
CLASS
  1
ACMDATUMSTANDARDANSI
  2
AcmDatumStdANSI
  3
"Amdt_StdImp|Product Description: AutoCAD Mechanical 2000|Company: Autodesk"
 90
    32768
280
     0
281
     0
  0
CLASS
  1
ACMBOMSTANDARDANSI
  2
AcmBOMStdANSI
  3
"Amdt_StdImp|Product Description: AutoCAD Mechanical 2000|Company: Autodesk"
 90
    32768
280
     0
281
     0
  0
CLASS
  1
ACMDETAILSTANDARDANSI
  2
AmdtDetailSymStdANSI
  3
"Amdt_StdImp|Product Description: AutoCAD Mechanical 2000|Company: Autodesk"
 90
    32768
280
     0
281
     0
  0
CLASS
  1
ACMSECTIONSTANDARDANSI
  2
AmdtSectionSymStdANSI
  3
"Amdt_StdImp|Product Description: AutoCAD Mechanical 2000|Company: Autodesk"
 90
    32768
280
     0
281
     0
  0
CLASS
  1
ACMCENTERLINESTANDARDANSI
  2
AmdtCenterLineStdANSI
  3
"Amdt_StdImp|Product Description: AutoCAD Mechanical 2000|Company: Autodesk"
 90
    32768
280
     0
281
     0
  0
CLASS
  1
ACMNOTESTANDARDANSI
  2
AmdtNoteStdANSI
  3
"Amdt_StdImp|Product Description: AutoCAD Mechanical 2000|Company: Autodesk"
 90
    32768
280
     0
281
     0
  0
CLASS
  1
ACAMGHOLECHARTSTDANSI
  2
AcAmgHoleChartStdANSI
  3
ACMSYMBB_MODULE_NAME
 90
    32768
280
     0
281
     0
  0
CLASS
  1
ACDBCIRCARCRES
  2
AcDbCircArcRes
  3
AcGrefServices
 90
    32768
280
     0
281
     0
  0
CLASS
  1
STDPART2D
  2
AmgStdPart
  3
"AmgStdPart|Product Description: AutoCAD Mechanical 2000|Company: Autodesk"
 90
    33791
280
     0
281
     1
  0
CLASS
  1
LONG_TRANSACTION
  2
AcDbLongTransaction
  3
AutoCAD 2000
 90
    32768
280
     0
281
     0
  0
CLASS
  1
LWPOLYLINE
  2
AcDbPolyline
  3
AutoCAD 2000
 90
    32768
280
     0
281
     1
  0
CLASS
  1
HATCH
  2
AcDbHatch
  3
AutoCAD 2000
 90
    32768
280
     0
281
     1
  0
CLASS
  1
XRECORD
  2
AcDbXrecord
  3
AutoCAD 2000
 90
    32768
280
     0
281
     0
  0
ENDSEC
  0
SECTION
  2
TABLES
  0
TABLE
  2
VPORT
  5
1A
330
0
100
AcDbSymbolTable
 70
     5
  0
VPORT
  5
4844
330
1A
100
AcDbSymbolTableRecord
100
AcDbViewportTableRecord
  2
*ACTIVE
 70
     0
 10
0.0
 20
0.0
 11
1.0
 21
1.0
 12
2498.032695643663
 22
191.3717219285671
 13
0.0
 23
0.0
 14
2.5
 24
2.5
 15
10.0
 25
10.0
 16
0.0
 26
0.0
 36
1.0
 17
0.0
 27
0.0
 37
0.0
 40
378.8244993510322
 41
1.765124555160142
 42
50.0
 43
0.0
 44
0.0
 50
0.0
 51
0.0
 71
     0
 72
   100
 73
     1
 74
     3
 75
     0
 76
     0
 77
     0
 78
     0
  0
ENDTAB
  0
TABLE
  2
LTYPE
  5
15
330
0
100
AcDbSymbolTable
 70
    19
  0
LTYPE
  5
16
330
15
100
AcDbSymbolTableRecord
100
AcDbLinetypeTableRecord
  2
BYBLOCK
 70
     0
  3

 72
    65
 73
     0
 40
0.0
  0
LTYPE
  5
17
330
15
100
AcDbSymbolTableRecord
100
AcDbLinetypeTableRecord
  2
BYLAYER
 70
     0
  3

 72
    65
 73
     0
 40
0.0
  0
LTYPE
  5
9
330
15
100
AcDbSymbolTableRecord
100
AcDbLinetypeTableRecord
  2
CONTINUOUS
 70
     0
  3
Solid line
 72
    65
 73
     0
 40
0.0
  0
LTYPE
  5
161
330
15
100
AcDbSymbolTableRecord
100
AcDbLinetypeTableRecord
  2
HIDDEN
 70
     0
  3
Hidden __ __ __ __ __ __ __ __ __ __ __ __ __ _
 72
    65
 73
     2
 40
9.524999999999998
 49
6.349999999999999
 74
     0
 49
-3.174999999999999
 74
     0
  0
LTYPE
  5
BF
330
15
100
AcDbSymbolTableRecord
100
AcDbLinetypeTableRecord
  2
AM_ISO08W050
 70
     0
  3
____ . ____ . ____ . ____ . ____ . ____ . ____
 72
    65
 73
     4
 40
18.0
 49
12.0
 74
     0
 49
-1.5
 74
     0
 49
3.0
 74
     0
 49
-1.5
 74
     0
  0
LTYPE
  5
1FD
330
15
100
AcDbSymbolTableRecord
100
AcDbLinetypeTableRecord
  2
AM_ISO02W050
 70
     0
  3
__ __ __ __ __ __ __ __ __ __ __ __ __ __ __
 72
    65
 73
     2
 40
7.5
 49
6.0
 74
     0
 49
-1.5
 74
     0
  0
LTYPE
  5
1FE
330
15
100
AcDbSymbolTableRecord
100
AcDbLinetypeTableRecord
  2
AM_ISO09W050
 70
     0
  3
_____ . . _____ . . _____ . . ____ .. ____
 72
    65
 73
     6
 40
22.5
 49
12.0
 74
     0
 49
-1.5
 74
     0
 49
3.0
 74
     0
 49
-1.5
 74
     0
 49
3.0
 74
     0
 49
-1.5
 74
     0
  0
LTYPE
  5
1FF
330
15
100
AcDbSymbolTableRecord
100
AcDbLinetypeTableRecord
  2
AMCONSTR
 70
     0
  3
_______________________
 72
    65
 73
     2
 40
9999.0
 49
9999.0
 74
     0
 49
0.0
 74
     0
  0
LTYPE
  5
200
330
15
100
AcDbSymbolTableRecord
100
AcDbLinetypeTableRecord
  2
AM_ISO08W050X2
 70
     0
  3
__ . __ . __ . __ . __ . __
 72
    65
 73
     4
 40
9.0
 49
6.0
 74
     0
 49
-0.75
 74
     0
 49
1.5
 74
     0
 49
-0.75
 74
     0
  0
LTYPE
  5
201
330
15
100
AcDbSymbolTableRecord
100
AcDbLinetypeTableRecord
  2
AM_ISO02W050X2
 70
     0
  3
 _ _ _ _ _ _ _ _ _ _ _ _
 72
    65
 73
     2
 40
3.75
 49
3.0
 74
     0
 49
-0.75
 74
     0
  0
LTYPE
  5
204
330
15
100
AcDbSymbolTableRecord
100
AcDbLinetypeTableRecord
  2
AMZIGZAG
 70
     0
  3
/\/-/\/-/\/-/\/-/\/-/\/
 72
    65
 73
     2
 40
11.00009999999999
 49
0.0001
 74
     4
 75
   135
340
203
 46
0.04
 50
0.0
 44
0.0
 45
0.0
 49
-11.0
 74
     0
  0
LTYPE
  5
211
330
15
100
AcDbSymbolTableRecord
100
AcDbLinetypeTableRecord
  2
ACISOWELD
 70
     0
  3
_ _ _ _ _
 72
    65
 73
     2
 40
2.0
 49
2.0
 74
     0
 49
-1.0
 74
     0
  0
LTYPE
  5
212
330
15
100
AcDbSymbolTableRecord
100
AcDbLinetypeTableRecord
  2
ACISOTGB
 70
     0
  3
__ . . __ . .
 72
    65
 73
     6
 40
9.0
 49
4.0
 74
     0
 49
-1.0
 74
     0
 49
1.0
 74
     0
 49
-1.0
 74
     0
 49
1.0
 74
     0
 49
-1.0
 74
     0
  0
LTYPE
  5
213
330
15
100
AcDbSymbolTableRecord
100
AcDbLinetypeTableRecord
  2
ACISOTGL
 70
     0
  3
_ _ _ _ _
 72
    65
 73
     2
 40
3.0
 49
2.0
 74
     0
 49
-1.0
 74
     0
  0
LTYPE
  5
214
330
15
100
AcDbSymbolTableRecord
100
AcDbLinetypeTableRecord
  2
CENTER
 70
     0
  3
__ . __
 72
    65
 73
     4
 40
7.0
 49
4.0
 74
     0
 49
-1.0
 74
     0
 49
1.0
 74
     0
 49
-1.0
 74
     0
  0
LTYPE
  5
1112
330
15
100
AcDbSymbolTableRecord
100
AcDbLinetypeTableRecord
  2
PHANTOM2
 70
     0
  3
Phantom (.5x) ___ _ _ ___ _ _ ___ _ _ ___ _ _
 72
    65
 73
     6
 40
1.25
 49
0.625
 74
     0
 49
-0.125
 74
     0
 49
0.125
 74
     0
 49
-0.125
 74
     0
 49
0.125
 74
     0
 49
-0.125
 74
     0
  0
LTYPE
  5
1115
330
15
100
AcDbSymbolTableRecord
100
AcDbLinetypeTableRecord
  2
ACANSTGB
 70
     0
  3
__ . . __ . .
 72
    65
 73
     6
 40
0.35433070866
 49
0.15748031496
 74
     0
 49
-0.03937007874
 74
     0
 49
0.03937007874
 74
     0
 49
-0.03937007874
 74
     0
 49
0.03937007874
 74
     0
 49
-0.03937007874
 74
     0
  0
LTYPE
  5
1116
330
15
100
AcDbSymbolTableRecord
100
AcDbLinetypeTableRecord
  2
ACANSTGL
 70
     0
  3
_ _ _ _ _
 72
    65
 73
     2
 40
0.11811023622
 49
0.07874015748
 74
     0
 49
-0.03937007874
 74
     0
  0
ENDTAB
  0
TABLE
  2
LAYER
  5
11
330
0
100
AcDbSymbolTable
 70
    13
  0
LAYER
  5
5
330
11
100
AcDbSymbolTableRecord
100
AcDbLayerTableRecord
  2
0
 70
     0
 62
     7
  6
CONTINUOUS
  0
LAYER
  5
3B
330
11
100
AcDbSymbolTableRecord
100
AcDbLayerTableRecord
  2
DEFPOINTS
 70
     0
 62
     7
  6
CONTINUOUS
  0
LAYER
  5
14E
330
11
100
AcDbSymbolTableRecord
100
AcDbLayerTableRecord
  2
AM_5
 70
     0
 62
     5
  6
CONTINUOUS
  0
LAYER
  5
32
330
11
100
AcDbSymbolTableRecord
100
AcDbLayerTableRecord
  2
AM_PARDIM
 70
     0
 62
     5
  6
CONTINUOUS
  0
LAYER
  5
BE
330
11
100
AcDbSymbolTableRecord
100
AcDbLayerTableRecord
  2
AM_7
 70
     0
 62
     1
  6
AM_ISO08W050
  0
LAYER
  5
1117
330
11
100
AcDbSymbolTableRecord
100
AcDbLayerTableRecord
  2
HIDDEN
 70
     0
 62
     6
  6
HIDDEN
  0
LAYER
  5
1118
330
11
100
AcDbSymbolTableRecord
100
AcDbLayerTableRecord
  2
DIM
 70
     0
 62
     5
  6
CONTINUOUS
  0
LAYER
  5
1119
330
11
100
AcDbSymbolTableRecord
100
AcDbLayerTableRecord
  2
CENTER
 70
     0
 62
     1
  6
CENTER
  0
LAYER
  5
111A
330
11
100
AcDbSymbolTableRecord
100
AcDbLayerTableRecord
  2
LOGO
 70
     0
 62
     7
  6
CONTINUOUS
  0
ENDTAB
  0
TABLE
  2
STYLE
  5
12
330
0
100
AcDbSymbolTable
 70
    12
  0
STYLE
  5
13
330
12
100
AcDbSymbolTableRecord
100
AcDbTextStyleTableRecord
  2
STANDARD
 70
     0
 40
0.0
 41
1.0
 50
0.0
 71
     0
 42
2.5
  3
ISOCP.SHX
  4
CHINESET.SHX
  0
STYLE
  5
152
330
12
100
AcDbSymbolTableRecord
100
AcDbTextStyleTableRecord
  2
ACISOTS
 70
     0
 40
1.0
 41
1.0
 50
0.0
 71
     0
 42
2.5
  3
isocp.shx
  4
chineset.shx
  0
STYLE
  5
203
330
12
100
AcDbSymbolTableRecord
100
AcDbTextStyleTableRecord
  2

 70
     1
 40
0.0
 41
1.0
 50
0.0
 71
     0
 42
2.5
  3
ltypeshp.shx
  4

  0
STYLE
  5
210
330
12
100
AcDbSymbolTableRecord
100
AcDbTextStyleTableRecord
  2
ACISOGDT
 70
     0
 40
0.0
 41
1.0
 50
0.0
 71
     0
 42
2.5
  3
amgdt.shx
  4

  0
STYLE
  5
356
330
12
100
AcDbSymbolTableRecord
100
AcDbTextStyleTableRecord
  2
CHINESET
 70
     0
 40
0.0
 41
1.0
 50
0.0
 71
     0
 42
2.5
  3
simplex.shx
  4
CHINESET.shx
  0
STYLE
  5
357
330
12
100
AcDbSymbolTableRecord
100
AcDbTextStyleTableRecord
  2
CHINA
 70
     0
 40
0.0
 41
1.0
 50
0.0
 71
     0
 42
3.0
  3
/rubon/c2
  4
/rubon/china
  0
STYLE
  5
111C
330
12
100
AcDbSymbolTableRecord
100
AcDbTextStyleTableRecord
  2
ROMANS
 70
     0
 40
0.0
 41
1.0
 50
0.0
 71
     0
 42
3.0
  3
ROMANS.SHX
  4
LMP
  0
STYLE
  5
111D
330
12
100
AcDbSymbolTableRecord
100
AcDbTextStyleTableRecord
  2
ROMANS1
 70
     0
 40
0.0
 41
1.0
 50
0.0
 71
     0
 42
3.0
  3
ROMANS.SHX
  4

  0
STYLE
  5
111E
330
12
100
AcDbSymbolTableRecord
100
AcDbTextStyleTableRecord
  2
LOGO
 70
     0
 40
0.0
 41
1.0
 50
0.0
 71
     0
 42
5.0
  3
LEI00DP.TTF
  4

1001
ACAD
1000
文鼎中粗隸
1071
    34865
  0
STYLE
  5
111F
330
12
100
AcDbSymbolTableRecord
100
AcDbTextStyleTableRecord
  2
ACANSTS
 70
     0
 40
1.0
 41
1.0
 50
0.0
 71
     0
 42
2.5
  3
romans.shx
  4
chineset.shx
  0
STYLE
  5
1120
330
12
100
AcDbSymbolTableRecord
100
AcDbTextStyleTableRecord
  2
ACANSGDT
 70
     0
 40
0.0
 41
1.0
 50
0.0
 71
     0
 42
2.5
  3
amgdtans.shx
  4

  0
ENDTAB
  0
TABLE
  2
VIEW
  5
18
330
0
100
AcDbSymbolTable
 70
     0
  0
ENDTAB
  0
TABLE
  2
UCS
  5
19
330
0
100
AcDbSymbolTable
 70
     0
  0
ENDTAB
  0
TABLE
  2
APPID
  5
1C
330
0
100
AcDbSymbolTable
 70
    24
  0
APPID
  5
1D
330
1C
100
AcDbSymbolTableRecord
100
AcDbRegAppTableRecord
  2
ACAD
 70
     0
  0
APPID
  5
41
330
1C
100
AcDbSymbolTableRecord
100
AcDbRegAppTableRecord
  2
AD_SKETCHDIM
 70
     0
  0
APPID
  5
42
330
1C
100
AcDbSymbolTableRecord
100
AcDbRegAppTableRecord
  2
ACAD_DIMASSOC_DIMLFAC
 70
     0
  0
APPID
  5
40
330
1C
100
AcDbSymbolTableRecord
100
AcDbRegAppTableRecord
  2
ACAD_DIMASSOC_CALC_DIMLFAC
 70
     0
  0
APPID
  5
1DF
330
1C
100
AcDbSymbolTableRecord
100
AcDbRegAppTableRecord
  2
MCAD_NO_VIS
 70
     0
  0
APPID
  5
1E0
330
1C
100
AcDbSymbolTableRecord
100
AcDbRegAppTableRecord
  2
ACAD_TEMP_GRAPHIC
 70
     0
  0
APPID
  5
1F1
330
1C
100
AcDbSymbolTableRecord
100
AcDbRegAppTableRecord
  2
ACATTRIBSERVICES
 70
     0
  0
APPID
  5
CAF
330
1C
100
AcDbSymbolTableRecord
100
AcDbRegAppTableRecord
  2
GENIUS_GENODEF_13
 70
     0
  0
APPID
  5
CB0
330
1C
100
AcDbSymbolTableRecord
100
AcDbRegAppTableRecord
  2
GENIUS_GENOBJ-N-DIM_13
 70
     0
  0
APPID
  5
CBC
330
1C
100
AcDbSymbolTableRecord
100
AcDbRegAppTableRecord
  2
GENIUS_GENDIM_13
 70
     0
  0
APPID
  5
CDC
330
1C
100
AcDbSymbolTableRecord
100
AcDbRegAppTableRecord
  2
GENIUS_GENDIMSH_14
 70
     0
  0
APPID
  5
E3C
330
1C
100
AcDbSymbolTableRecord
100
AcDbRegAppTableRecord
  2
GENIUS_GENOBJ-N-HTC_13
 70
     0
  0
APPID
  5
E3D
330
1C
100
AcDbSymbolTableRecord
100
AcDbRegAppTableRecord
  2
GENIUS_GENHATCH_13
 70
     0
  0
APPID
  5
E59
330
1C
100
AcDbSymbolTableRecord
100
AcDbRegAppTableRecord
  2
DCO15
 70
     0
  0
APPID
  5
1128
330
1C
100
AcDbSymbolTableRecord
100
AcDbRegAppTableRecord
  2
GENIUS_GENOENT_13
 70
     0
  0
APPID
  5
1129
330
1C
100
AcDbSymbolTableRecord
100
AcDbRegAppTableRecord
  2
GENIUS_GENOLIS_13
 70
     0
  0
APPID
  5
112A
330
1C
100
AcDbSymbolTableRecord
100
AcDbRegAppTableRecord
  2
GENIUS_GENOBJ-N-CRS_13
 70
     0
  0
APPID
  5
112B
330
1C
100
AcDbSymbolTableRecord
100
AcDbRegAppTableRecord
  2
GENIUS_GENOREF_13
 70
     0
  0
APPID
  5
2637
330
1C
100
AcDbSymbolTableRecord
100
AcDbRegAppTableRecord
  2
GEVID1054773670
 70
     0
  0
APPID
  5
2638
330
1C
100
AcDbSymbolTableRecord
100
AcDbRegAppTableRecord
  2
GEVDC
 70
     0
  0
APPID
  5
2639
330
1C
100
AcDbSymbolTableRecord
100
AcDbRegAppTableRecord
  2
GEVRADREF
 70
     0
  0
APPID
  5
263D
330
1C
100
AcDbSymbolTableRecord
100
AcDbRegAppTableRecord
  2
GENIUS_GENBH_13
 70
     0
  0
APPID
  5
2640
330
1C
100
AcDbSymbolTableRecord
100
AcDbRegAppTableRecord
  2
GENIUS_GENOBJ-NBEHI-BHF_13
 70
     0
  0
APPID
  5
2642
330
1C
100
AcDbSymbolTableRecord
100
AcDbRegAppTableRecord
  2
GENIUS_GENOBJ-NBEHI-BHB_13
 70
     0
  0
ENDTAB
  0
TABLE
  2
DIMSTYLE
  5
1E
330
0
100
AcDbSymbolTable
 70
    14
  0
DIMSTYLE
105
1F
102
{ACAD_REACTORS
330
31
330
43
330
52
330
5F
330
6C
330
79
330
86
330
95
330
A3
330
B0
330
37D7
330
379F
330
3767
330
372F
330
36D3
330
370B
330
35F3
330
35BB
330
3583
330
354B
330
400D
102
}
330
1E
100
AcDbSymbolTableRecord
100
AcDbDimStyleTableRecord
  2
AM_ISO
 70
     0
  3

  4
"
  5

  6

  7

 40
1.5
 41
3.0
 42
2.0
 43
10.0
 44
1.5
 45
0.0
 46
0.0
 47
0.1
 48
0.1
140
3.0
141
0.0
142
0.0
143
0.0393701
144
1.0
145
0.0
146
0.71
147
1.0
 71
     0
 72
     0
 73
     0
 74
     0
 75
     0
 76
     0
 77
     1
 78
     8
170
     0
171
     2
172
     1
173
     0
174
     0
175
     0
176
   256
177
   256
178
   256
270
     2
271
     2
272
     2
273
     2
274
     2
340
357
275
     0
280
     0
281
     0
282
     0
283
     0
284
     8
285
     0
286
     0
287
     3
288
     0
  0
DIMSTYLE
105
217
330
1E
100
AcDbSymbolTableRecord
100
AcDbDimStyleTableRecord
  2
AM_ISO$3
 70
     0
  3

  4
"
  5

  6

  7

 40
1.5
 41
3.0
 42
2.0
 43
10.0
 44
1.5
 45
0.0
 46
0.0
 47
0.1
 48
0.1
140
3.0
141
0.0
142
0.0
143
0.0393701
144
1.0
145
0.0
146
0.71
147
1.0
 71
     0
 72
     0
 73
     0
 74
     1
 75
     0
 76
     0
 77
     1
 78
     8
170
     0
171
     2
172
     0
173
     0
174
     0
175
     0
176
   256
177
   256
178
   256
270
     2
271
     2
272
     2
273
     2
274
     2
340
357
275
     0
280
     0
281
     0
282
     0
283
     0
284
     8
285
     0
286
     0
287
     0
288
     1
  0
DIMSTYLE
105
218
330
1E
100
AcDbSymbolTableRecord
100
AcDbDimStyleTableRecord
  2
AM_ISO$4
 70
     0
  3

  4
"
  5

  6

  7

 40
1.5
 41
3.0
 42
2.0
 43
10.0
 44
1.5
 45
0.0
 46
0.0
 47
0.1
 48
0.1
140
3.0
141
0.0
142
0.0
143
0.0393701
144
1.0
145
0.0
146
0.71
147
1.0
 71
     0
 72
     0
 73
     0
 74
     1
 75
     0
 76
     0
 77
     1
 78
     8
170
     0
171
     2
172
     0
173
     0
174
     0
175
     0
176
   256
177
   256
178
   256
270
     2
271
     2
272
     2
273
     2
274
     2
340
357
275
     0
280
     0
281
     0
282
     0
283
     0
284
     8
285
     0
286
     0
287
     0
288
     1
  0
DIMSTYLE
105
219
330
1E
100
AcDbSymbolTableRecord
100
AcDbDimStyleTableRecord
  2
AM_ISO$6
 70
     0
  3

  4
"
  5

  6

  7

 40
1.5
 41
3.0
 42
2.0
 43
10.0
 44
1.5
 45
0.0
 46
0.0
 47
0.1
 48
0.1
140
3.0
141
0.0
142
0.0
143
0.0393701
144
1.0
145
0.0
146
0.71
147
1.0
 71
     0
 72
     0
 73
     0
 74
     0
 75
     0
 76
     0
 77
     0
 78
     8
170
     0
171
     2
172
     1
173
     0
174
     0
175
     0
176
   256
177
   256
178
   256
270
     2
271
     2
272
     2
273
     2
274
     2
340
357
275
     0
280
     0
281
     0
282
     0
283
     0
284
     8
285
     0
286
     0
287
     3
288
     0
  0
DIMSTYLE
105
21A
330
1E
100
AcDbSymbolTableRecord
100
AcDbDimStyleTableRecord
  2
AM_ISO$7
 70
     0
  3

  4
"
  5

  6

  7

 40
1.5
 41
2.5
 42
2.0
 43
10.0
 44
1.5
 45
0.0
 46
0.0
 47
0.1
 48
0.1
140
5.0
141
0.0
142
0.0
143
0.0393701
144
1.0
145
0.0
146
0.71
147
1.5
 71
     0
 72
     0
 73
     0
 74
     0
 75
     0
 76
     0
 77
     1
 78
     8
170
     0
171
     2
172
     1
173
     0
174
     0
175
     0
176
   256
177
   256
178
   256
270
     2
271
     2
272
     2
273
     2
274
     2
340
357
275
     0
280
     0
281
     0
282
     0
283
     0
284
     8
285
     0
286
     0
287
     3
288
     0
  0
DIMSTYLE
105
21B
330
1E
100
AcDbSymbolTableRecord
100
AcDbDimStyleTableRecord
  2
AM_ISO$SF
 70
     0
  3

  4
"
  5

  6

  7

 40
1.0
 41
3.0
 42
2.0
 43
5.0
 44
1.5
 45
0.0
 46
0.0
 47
0.1
 48
0.1
140
3.0
141
0.0
142
0.0
143
0.0393701
144
1.0
145
0.0
146
0.71
147
1.0
 71
     0
 72
     0
 73
     0
 74
     0
 75
     1
 76
     1
 77
     1
 78
     8
170
     0
171
     2
172
     1
173
     0
174
     0
175
     0
176
   256
177
   256
178
     5
270
     2
271
     2
272
     2
273
     2
274
     2
340
13
275
     0
280
     0
281
     0
282
     0
283
     0
284
     8
285
     0
286
     0
287
     3
288
     0
  0
DIMSTYLE
105
220
330
1E
100
AcDbSymbolTableRecord
100
AcDbDimStyleTableRecord
  2
AM_ISO$SH
 70
     0
  3

  4
"
  5

  6
GENAXEH
  7

 40
1.0
 41
3.0
 42
2.0
 43
5.0
 44
1.5
 45
0.0
 46
0.0
 47
0.1
 48
0.1
140
3.0
141
0.0
142
0.0
143
0.0393701
144
2.0
145
0.0
146
0.71
147
1.0
 71
     0
 72
     0
 73
     0
 74
     0
 75
     1
 76
     1
 77
     1
 78
     8
170
     0
171
     2
172
     1
173
     1
174
     0
175
     0
176
   256
177
   256
178
     5
270
     2
271
     2
272
     2
273
     2
274
     2
340
13
275
     0
280
     0
281
     0
282
     0
283
     0
284
     8
285
     0
286
     0
287
     3
288
     0
  0
DIMSTYLE
105
1121
330
1E
100
AcDbSymbolTableRecord
100
AcDbDimStyleTableRecord
  2
STANDARD
 70
     0
  3

  4

  5

  6

  7

 40
1.0
 41
0.18
 42
0.0625
 43
0.38
 44
0.18
 45
0.0
 46
0.0
 47
0.0
 48
0.0
140
0.18
141
0.09
142
0.0
143
25.4
144
1.0
145
0.0
146
1.0
147
0.09
 71
     0
 72
     0
 73
     1
 74
     1
 75
     0
 76
     0
 77
     0
 78
     0
170
     0
171
     2
172
     0
173
     0
174
     0
175
     0
176
     0
177
     0
178
     0
270
     2
271
     4
272
     4
273
     2
274
     2
340
13
275
     0
280
     0
281
     0
282
     0
283
     1
284
     0
285
     0
286
     0
287
     3
288
     0
  0
DIMSTYLE
105
1122
330
1E
100
AcDbSymbolTableRecord
100
AcDbDimStyleTableRecord
  2
AM_ANSI
 70
     0
  3

  4
mm
  5

  6

  7

 40
1.0
 41
0.1
 42
0.05
 43
0.5
 44
0.1
 45
0.0
 46
0.0
 47
0.1
 48
0.1
140
0.12
141
0.0
142
0.0
143
25.4
144
1.0
145
0.0
146
0.71
147
0.06
 71
     0
 72
     0
 73
     1
 74
     1
 75
     0
 76
     0
 77
     0
 78
     7
170
     0
171
     2
172
     0
173
     0
174
     0
175
     0
176
   256
177
   256
178
     2
270
     2
271
     4
272
     4
273
     2
274
     4
340
13
275
     0
280
     0
281
     0
282
     0
283
     1
284
     7
285
     0
286
     0
287
     3
288
     0
  0
DIMSTYLE
105
1123
330
1E
100
AcDbSymbolTableRecord
100
AcDbDimStyleTableRecord
  2
AM_ANSI$3
 70
     0
  3

  4
mm
  5

  6

  7

 40
1.0
 41
0.1
 42
0.05
 43
0.5
 44
0.1
 45
0.0
 46
0.0
 47
0.1
 48
0.1
140
0.12
141
0.0
142
0.0
143
25.4
144
1.0
145
0.0
146
0.71
147
0.06
 71
     0
 72
     0
 73
     1
 74
     1
 75
     0
 76
     0
 77
     0
 78
     7
170
     0
171
     2
172
     0
173
     0
174
     0
175
     0
176
   256
177
   256
178
     2
270
     2
271
     4
272
     4
273
     2
274
     4
340
13
275
     0
280
     0
281
     0
282
     0
283
     1
284
     7
285
     0
286
     0
287
     0
288
     1
  0
DIMSTYLE
105
1124
330
1E
100
AcDbSymbolTableRecord
100
AcDbDimStyleTableRecord
  2
AM_ANSI$4
 70
     0
  3

  4
mm
  5

  6

  7

 40
1.0
 41
0.1
 42
0.05
 43
0.5
 44
0.1
 45
0.0
 46
0.0
 47
0.1
 48
0.1
140
0.12
141
0.0
142
0.0
143
25.4
144
1.0
145
0.0
146
0.71
147
0.06
 71
     0
 72
     0
 73
     1
 74
     1
 75
     0
 76
     0
 77
     0
 78
     7
170
     0
171
     2
172
     0
173
     0
174
     0
175
     0
176
   256
177
   256
178
     2
270
     2
271
     4
272
     4
273
     2
274
     4
340
13
275
     0
280
     0
281
     0
282
     0
283
     1
284
     7
285
     0
286
     0
287
     0
288
     1
  0
DIMSTYLE
105
1125
330
1E
100
AcDbSymbolTableRecord
100
AcDbDimStyleTableRecord
  2
AM_ANSI$7
 70
     0
  3

  4
mm
  5

  6

  7

 40
1.0
 41
0.1
 42
0.05
 43
0.5
 44
0.1
 45
0.0
 46
0.0
 47
0.1
 48
0.1
140
0.24
141
0.0
142
0.0
143
25.4
144
1.0
145
0.0
146
0.71
147
0.06
 71
     0
 72
     0
 73
     1
 74
     1
 75
     0
 76
     0
 77
     0
 78
     7
170
     0
171
     2
172
     0
173
     0
174
     0
175
     0
176
   256
177
   256
178
     2
270
     2
271
     4
272
     4
273
     2
274
     4
340
13
275
     0
280
     0
281
     0
282
     0
283
     1
284
     7
285
     0
286
     0
287
     3
288
     0
  0
DIMSTYLE
105
1126
330
1E
100
AcDbSymbolTableRecord
100
AcDbDimStyleTableRecord
  2
AM_ANSI$SF
 70
     0
  3

  4
mm
  5

  6

  7

 40
1.0
 41
0.1
 42
0.05
 43
0.5
 44
0.1
 45
0.0
 46
0.0
 47
0.1
 48
0.1
140
0.12
141
0.0
142
0.0
143
25.4
144
1.0
145
0.0
146
0.71
147
0.06
 71
     0
 72
     0
 73
     1
 74
     1
 75
     1
 76
     1
 77
     0
 78
     7
170
     0
171
     2
172
     0
173
     0
174
     0
175
     0
176
   256
177
   256
178
     2
270
     2
271
     4
272
     4
273
     2
274
     4
340
13
275
     0
280
     0
281
     0
282
     0
283
     1
284
     7
285
     0
286
     0
287
     3
288
     0
  0
DIMSTYLE
105
1127
330
1E
100
AcDbSymbolTableRecord
100
AcDbDimStyleTableRecord
  2
AM_ANSI$SH
 70
     0
  3

  4
mm
  5

  6
GENAXEH
  7

 40
1.0
 41
0.1
 42
0.05
 43
0.5
 44
0.1
 45
0.0
 46
0.0
 47
0.1
 48
0.1
140
0.12
141
0.0
142
0.0
143
25.4
144
1.0
145
0.0
146
0.71
147
0.06
 71
     0
 72
     0
 73
     1
 74
     1
 75
     1
 76
     1
 77
     0
 78
     7
170
     0
171
     2
172
     0
173
     1
174
     0
175
     0
176
   256
177
   256
178
     2
270
     2
271
     4
272
     4
273
     2
274
     4
340
13
275
     0
280
     0
281
     0
282
     0
283
     1
284
     7
285
     0
286
     0
287
     3
288
     0
  0
ENDTAB
  0
TABLE
  2
BLOCK_RECORD
  5
1
330
0
100
AcDbSymbolTable
 70
    25
  0
BLOCK_RECORD
  5
2
102
{ACAD_XDICTIONARY
360
3
102
}
330
1
100
AcDbSymbolTableRecord
100
AcDbBlockTableRecord
  2
*MODEL_SPACE
  0
BLOCK_RECORD
  5
D
102
{ACAD_XDICTIONARY
360
4846
102
}
330
1
100
AcDbSymbolTableRecord
100
AcDbBlockTableRecord
  2
*PAPER_SPACE
  0
BLOCK_RECORD
  5
21C
330
1
100
AcDbSymbolTableRecord
100
AcDbBlockTableRecord
  2
GENAXEH
  0
BLOCK_RECORD
  5
F83
330
1
100
AcDbSymbolTableRecord
100
AcDbBlockTableRecord
  2
*D1
  0
BLOCK_RECORD
  5
F8F
330
1
100
AcDbSymbolTableRecord
100
AcDbBlockTableRecord
  2
*D2
  0
BLOCK_RECORD
  5
F9D
330
1
100
AcDbSymbolTableRecord
100
AcDbBlockTableRecord
  2
*D3
  0
BLOCK_RECORD
  5
FA9
330
1
100
AcDbSymbolTableRecord
100
AcDbBlockTableRecord
  2
*D4
  0
BLOCK_RECORD
  5
FB5
330
1
100
AcDbSymbolTableRecord
100
AcDbBlockTableRecord
  2
*D5
  0
BLOCK_RECORD
  5
FC1
330
1
100
AcDbSymbolTableRecord
100
AcDbBlockTableRecord
  2
*D6
  0
BLOCK_RECORD
  5
FCD
330
1
100
AcDbSymbolTableRecord
100
AcDbBlockTableRecord
  2
*D7
  0
BLOCK_RECORD
  5
FDB
330
1
100
AcDbSymbolTableRecord
100
AcDbBlockTableRecord
  2
*D8
  0
BLOCK_RECORD
  5
FE8
330
1
100
AcDbSymbolTableRecord
100
AcDbBlockTableRecord
  2
*D9
  0
BLOCK_RECORD
  5
FF4
330
1
100
AcDbSymbolTableRecord
100
AcDbBlockTableRecord
  2
*D10
  0
BLOCK_RECORD
  5
354C
330
1
100
AcDbSymbolTableRecord
100
AcDbBlockTableRecord
  2
*D11
  0
BLOCK_RECORD
  5
3584
330
1
100
AcDbSymbolTableRecord
100
AcDbBlockTableRecord
  2
*D12
  0
BLOCK_RECORD
  5
35BC
330
1
100
AcDbSymbolTableRecord
100
AcDbBlockTableRecord
  2
*D13
  0
BLOCK_RECORD
  5
35F4
330
1
100
AcDbSymbolTableRecord
100
AcDbBlockTableRecord
  2
*D14
  0
BLOCK_RECORD
  5
36D4
330
1
100
AcDbSymbolTableRecord
100
AcDbBlockTableRecord
  2
*D15
  0
BLOCK_RECORD
  5
370C
330
1
100
AcDbSymbolTableRecord
100
AcDbBlockTableRecord
  2
*D16
  0
BLOCK_RECORD
  5
3730
330
1
100
AcDbSymbolTableRecord
100
AcDbBlockTableRecord
  2
*D17
  0
BLOCK_RECORD
  5
3768
330
1
100
AcDbSymbolTableRecord
100
AcDbBlockTableRecord
  2
*D18
  0
BLOCK_RECORD
  5
37A0
330
1
100
AcDbSymbolTableRecord
100
AcDbBlockTableRecord
  2
*D19
  0
BLOCK_RECORD
  5
37D8
330
1
100
AcDbSymbolTableRecord
100
AcDbBlockTableRecord
  2
*D20
  0
BLOCK_RECORD
  5
400E
330
1
100
AcDbSymbolTableRecord
100
AcDbBlockTableRecord
  2
*D22
  0
BLOCK_RECORD
  5
4848
330
1
100
AcDbSymbolTableRecord
100
AcDbBlockTableRecord
  2
*S23
  0
BLOCK_RECORD
  5
4854
330
1
100
AcDbSymbolTableRecord
100
AcDbBlockTableRecord
  2
*S24
  0
ENDTAB
  0
ENDSEC
  0
SECTION
  2
BLOCKS
  0
BLOCK
  5
4
330
2
100
AcDbEntity
  8
0
100
AcDbBlockBegin
  2
*MODEL_SPACE
 70
     0
 10
0.0
 20
0.0
 30
0.0
  3
*MODEL_SPACE
  1

  0
ENDBLK
  5
A
330
2
100
AcDbEntity
  8
0
100
AcDbBlockEnd
  0
BLOCK
  5
E
330
D
100
AcDbEntity
 67
     1
  8
0
100
AcDbBlockBegin
  2
*PAPER_SPACE
 70
     0
 10
0.0
 20
0.0
 30
0.0
  3
*PAPER_SPACE
  1

  0
ENDBLK
  5
F
330
D
100
AcDbEntity
 67
     1
  8
0
100
AcDbBlockEnd
  0
BLOCK
  5
21E
330
21C
100
AcDbEntity
  8
0
100
AcDbBlockBegin
  2
GENAXEH
 70
     0
 10
0.0
 20
0.0
 30
0.0
  3
GENAXEH
  1

  0
LINE
  5
21D
330
21C
100
AcDbEntity
  8
0
100
AcDbLine
 10
-1.0
 20
0.0
 30
0.0
 11
1.0
 21
0.0
 31
0.0
  0
ENDBLK
  5
21F
330
21C
100
AcDbEntity
  8
0
100
AcDbBlockEnd
  0
BLOCK
  5
F8D
330
F83
100
AcDbEntity
  8
0
100
AcDbBlockBegin
  2
*D1
 70
     1
 10
0.0
 20
0.0
 30
0.0
  3
*D1
  1

  0
LINE
  5
3B7A
330
F83
100
AcDbEntity
  8
AM_PARDIM
100
AcDbLine
 10
78.37464887656421
 20
116.1938113892625
 30
0.0
 11
116.7825708695175
 21
116.1938113892624
 31
0.0
  0
LINE
  5
3B7B
330
F83
100
AcDbEntity
  8
AM_PARDIM
100
AcDbLine
 10
78.37464887656421
 20
128.6938113892625
 30
0.0
 11
116.7825708695175
 21
128.6938113892625
 31
0.0
  0
LINE
  5
3B7C
330
F83
100
AcDbEntity
  8
AM_PARDIM
100
AcDbLine
 10
114.5325708695175
 20
120.6938113892624
 30
0.0
 11
114.5325708695175
 21
124.1938113892624
 31
0.0
  0
LINE
  5
3B7D
330
F83
100
AcDbEntity
  8
AM_PARDIM
100
AcDbLine
 10
114.5325708695175
 20
128.6938113892625
 30
0.0
 11
114.5325708695175
 21
146.8945987908373
 31
0.0
  0
SOLID
  5
3B7E
330
F83
100
AcDbEntity
  8
AM_PARDIM
100
AcDbTrace
 10
113.7825708695175
 20
120.6938113892624
 30
0.0
 11
115.2825708695175
 21
120.6938113892624
 31
0.0
 12
114.5325708695175
 22
116.1938113892624
 32
0.0
 13
114.5325708695175
 23
116.1938113892624
 33
0.0
  0
SOLID
  5
3B7F
330
F83
100
AcDbEntity
  8
AM_PARDIM
100
AcDbTrace
 10
113.7825708695175
 20
124.1938113892624
 30
0.0
 11
115.2825708695175
 21
124.1938113892624
 31
0.0
 12
114.5325708695175
 22
128.6938113892625
 32
0.0
 13
114.5325708695175
 23
128.6938113892625
 33
0.0
  0
MTEXT
  5
3B80
330
F83
100
AcDbEntity
  8
AM_PARDIM
100
AcDbMText
 10
110.770366145108
 20
140.0442050900499
 30
0.0
 40
4.5
 41
0.0
 71
     5
 72
     1
  1
12.5
  7
CHINA
 11
0.0000000000000001
 21
1.0
 31
0.0
1001
ACAD
1000
MTEXTBEGIN
1070
    73
1070
     1
1070
    44
1040
1.0
1070
    74
1070
     0
1000
MTEXTEND
  0
POINT
  5
3B81
330
F83
100
AcDbEntity
  8
DEFPOINTS
 62
     0
100
AcDbPoint
 10
75.37464887656421
 20
116.1938113892625
 30
0.0
  0
POINT
  5
3B82
330
F83
100
AcDbEntity
  8
DEFPOINTS
 62
     0
100
AcDbPoint
 10
75.37464887656421
 20
128.6938113892625
 30
0.0
  0
POINT
  5
3B83
330
F83
100
AcDbEntity
  8
DEFPOINTS
 62
     0
100
AcDbPoint
 10
114.5325708695175
 20
128.6938113892625
 30
0.0
  0
ENDBLK
  5
F8E
330
F83
100
AcDbEntity
  8
0
100
AcDbBlockEnd
  0
BLOCK
  5
F9B
330
F8F
100
AcDbEntity
  8
0
100
AcDbBlockBegin
  2
*D2
 70
     1
 10
0.0
 20
0.0
 30
0.0
  3
*D2
  1

  0
LINE
  5
3B84
330
F8F
100
AcDbEntity
  8
AM_PARDIM
100
AcDbLine
 10
35.87464887656421
 20
116.1938113892625
 30
0.0
 11
24.6246488765642
 21
116.1938113892625
 31
0.0
  0
LINE
  5
3B85
330
F8F
100
AcDbEntity
  8
AM_PARDIM
100
AcDbLine
 10
35.87464887656421
 20
122.1938113892624
 30
0.0
 11
24.62464887656421
 21
122.1938113892625
 31
0.0
  0
LINE
  5
3B86
330
F8F
100
AcDbEntity
  8
AM_PARDIM
100
AcDbLine
 10
26.8746488765642
 20
111.6938113892625
 30
0.0
 11
26.8746488765642
 21
107.1938113892625
 31
0.0
  0
LINE
  5
3B87
330
F8F
100
AcDbEntity
  8
AM_PARDIM
100
AcDbLine
 10
26.87464887656421
 20
126.6938113892625
 30
0.0
 11
26.87464887656421
 21
131.1938113892625
 31
0.0
  0
LINE
  5
3B88
330
F8F
100
AcDbEntity
  8
AM_PARDIM
100
AcDbLine
 10
26.8746488765642
 20
116.1938113892625
 30
0.0
 11
26.87464887656421
 21
122.1938113892625
 31
0.0
  0
SOLID
  5
3B89
330
F8F
100
AcDbEntity
  8
AM_PARDIM
100
AcDbTrace
 10
26.1246488765642
 20
111.6938113892625
 30
0.0
 11
27.6246488765642
 21
111.6938113892625
 31
0.0
 12
26.8746488765642
 22
116.1938113892625
 32
0.0
 13
26.8746488765642
 23
116.1938113892625
 33
0.0
  0
SOLID
  5
3B8A
330
F8F
100
AcDbEntity
  8
AM_PARDIM
100
AcDbTrace
 10
26.1246488765642
 20
126.6938113892625
 30
0.0
 11
27.6246488765642
 21
126.6938113892625
 31
0.0
 12
26.87464887656421
 22
122.1938113892625
 32
0.0
 13
26.87464887656421
 23
122.1938113892625
 33
0.0
  0
MTEXT
  5
3B8B
330
F8F
100
AcDbEntity
  8
AM_PARDIM
100
AcDbMText
 10
23.12464887656418
 20
119.1938113892625
 30
0.0
 40
4.5
 41
0.0
 71
     5
 72
     1
  1
6
  7
CHINA
 11
0.0000000000000001
 21
1.0
 31
0.0
1001
ACAD
1000
MTEXTBEGIN
1070
    73
1070
     1
1070
    44
1040
1.0
1070
    74
1070
     0
1000
MTEXTEND
  0
POINT
  5
3B8C
330
F8F
100
AcDbEntity
  8
DEFPOINTS
 62
     0
100
AcDbPoint
 10
38.8746488765642
 20
116.1938113892625
 30
0.0
  0
POINT
  5
3B8D
330
F8F
100
AcDbEntity
  8
DEFPOINTS
 62
     0
100
AcDbPoint
 10
38.8746488765642
 20
122.1938113892624
 30
0.0
  0
POINT
  5
3B8E
330
F8F
100
AcDbEntity
  8
DEFPOINTS
 62
     0
100
AcDbPoint
 10
26.87464887656421
 20
122.1938113892625
 30
0.0
  0
ENDBLK
  5
F9C
330
F8F
100
AcDbEntity
  8
0
100
AcDbBlockEnd
  0
BLOCK
  5
FA7
330
F9D
100
AcDbEntity
  8
0
100
AcDbBlockBegin
  2
*D3
 70
     1
 10
0.0
 20
0.0
 30
0.0
  3
*D3
  1

  0
LINE
  5
3B8F
330
F9D
100
AcDbEntity
  8
AM_PARDIM
100
AcDbLine
 10
38.8746488765642
 20
125.1938113892624
 30
0.0
 11
38.8746488765642
 21
142.9438113892624
 31
0.0
  0
LINE
  5
3B90
330
F9D
100
AcDbEntity
  8
AM_PARDIM
100
AcDbLine
 10
50.87464887656421
 20
125.1938113892624
 30
0.0
 11
50.87464887656421
 21
142.9438113892624
 31
0.0
  0
LINE
  5
3B91
330
F9D
100
AcDbEntity
  8
AM_PARDIM
100
AcDbLine
 10
34.37464887656421
 20
140.6938113892624
 30
0.0
 11
29.8746488765642
 21
140.6938113892624
 31
0.0
  0
LINE
  5
3B92
330
F9D
100
AcDbEntity
  8
AM_PARDIM
100
AcDbLine
 10
55.37464887656421
 20
140.6938113892624
 30
0.0
 11
59.87464887656421
 21
140.6938113892624
 31
0.0
  0
LINE
  5
3B93
330
F9D
100
AcDbEntity
  8
AM_PARDIM
100
AcDbLine
 10
38.8746488765642
 20
140.6938113892624
 30
0.0
 11
50.87464887656421
 21
140.6938113892624
 31
0.0
  0
SOLID
  5
3B94
330
F9D
100
AcDbEntity
  8
AM_PARDIM
100
AcDbTrace
 10
34.37464887656421
 20
141.4438113892624
 30
0.0
 11
34.37464887656421
 21
139.9438113892624
 31
0.0
 12
38.8746488765642
 22
140.6938113892624
 32
0.0
 13
38.8746488765642
 23
140.6938113892624
 33
0.0
  0
SOLID
  5
3B95
330
F9D
100
AcDbEntity
  8
AM_PARDIM
100
AcDbTrace
 10
55.37464887656421
 20
141.4438113892624
 30
0.0
 11
55.37464887656421
 21
139.9438113892624
 31
0.0
 12
50.87464887656421
 22
140.6938113892624
 32
0.0
 13
50.87464887656421
 23
140.6938113892624
 33
0.0
  0
MTEXT
  5
3B96
330
F9D
100
AcDbEntity
  8
AM_PARDIM
100
AcDbMText
 10
44.87464887656421
 20
144.4442050900499
 30
0.0
 40
4.5
 41
0.0
 71
     5
 72
     1
  1
12
  7
CHINA
1001
ACAD
1000
MTEXTBEGIN
1070
    73
1070
     1
1070
    44
1040
1.0
1070
    74
1070
     0
1000
MTEXTEND
  0
POINT
  5
3B97
330
F9D
100
AcDbEntity
  8
DEFPOINTS
 62
     0
100
AcDbPoint
 10
38.8746488765642
 20
122.1938113892624
 30
0.0
  0
POINT
  5
3B98
330
F9D
100
AcDbEntity
  8
DEFPOINTS
 62
     0
100
AcDbPoint
 10
50.87464887656421
 20
122.1938113892624
 30
0.0
  0
POINT
  5
3B99
330
F9D
100
AcDbEntity
  8
DEFPOINTS
 62
     0
100
AcDbPoint
 10
50.87464887656421
 20
140.6938113892624
 30
0.0
  0
ENDBLK
  5
FA8
330
F9D
100
AcDbEntity
  8
0
100
AcDbBlockEnd
  0
BLOCK
  5
FB3
330
FA9
100
AcDbEntity
  8
0
100
AcDbBlockBegin
  2
*D4
 70
     1
 10
0.0
 20
0.0
 30
0.0
  3
*D4
  1

  0
LINE
  5
3B9A
330
FA9
100
AcDbEntity
  8
AM_PARDIM
100
AcDbLine
 10
38.8746488765642
 20
119.1938113892625
 30
0.0
 11
38.8746488765642
 21
162.9438113892625
 31
0.0
  0
LINE
  5
3B9B
330
FA9
100
AcDbEntity
  8
AM_PARDIM
100
AcDbLine
 10
75.37464887656421
 20
119.1938113892625
 30
0.0
 11
75.37464887656421
 21
162.9438113892625
 31
0.0
  0
LINE
  5
3B9C
330
FA9
100
AcDbEntity
  8
AM_PARDIM
100
AcDbLine
 10
43.37464887656421
 20
160.6938113892624
 30
0.0
 11
70.87464887656421
 21
160.6938113892624
 31
0.0
  0
SOLID
  5
3B9D
330
FA9
100
AcDbEntity
  8
AM_PARDIM
100
AcDbTrace
 10
43.37464887656421
 20
161.4438113892624
 30
0.0
 11
43.37464887656421
 21
159.9438113892625
 31
0.0
 12
38.8746488765642
 22
160.6938113892624
 32
0.0
 13
38.8746488765642
 23
160.6938113892624
 33
0.0
  0
SOLID
  5
3B9E
330
FA9
100
AcDbEntity
  8
AM_PARDIM
100
AcDbTrace
 10
70.87464887656421
 20
161.4438113892624
 30
0.0
 11
70.87464887656421
 21
159.9438113892625
 31
0.0
 12
75.37464887656421
 22
160.6938113892624
 32
0.0
 13
75.37464887656421
 23
160.6938113892624
 33
0.0
  0
MTEXT
  5
3B9F
330
FA9
100
AcDbEntity
  8
AM_PARDIM
100
AcDbMText
 10
57.12464887656421
 20
164.4556224128845
 30
0.0
 40
4.5
 41
0.0
 71
     5
 72
     1
  1
36.5
  7
CHINA
1001
ACAD
1000
MTEXTBEGIN
1070
    73
1070
     1
1070
    44
1040
1.0
1070
    74
1070
     0
1000
MTEXTEND
  0
POINT
  5
3BA0
330
FA9
100
AcDbEntity
  8
DEFPOINTS
 62
     0
100
AcDbPoint
 10
38.8746488765642
 20
116.1938113892625
 30
0.0
  0
POINT
  5
3BA1
330
FA9
100
AcDbEntity
  8
DEFPOINTS
 62
     0
100
AcDbPoint
 10
75.37464887656421
 20
116.1938113892625
 30
0.0
  0
POINT
  5
3BA2
330
FA9
100
AcDbEntity
  8
DEFPOINTS
 62
     0
100
AcDbPoint
 10
75.37464887656421
 20
160.6938113892624
 30
0.0
  0
ENDBLK
  5
FB4
330
FA9
100
AcDbEntity
  8
0
100
AcDbBlockEnd
  0
BLOCK
  5
FBF
330
FB5
100
AcDbEntity
  8
0
100
AcDbBlockBegin
  2
*D5
 70
     1
 10
0.0
 20
0.0
 30
0.0
  3
*D5
  1

  0
LINE
  5
3BA3
330
FB5
100
AcDbEntity
  8
AM_PARDIM
100
AcDbLine
 10
53.8746488765642
 20
127.1938113892624
 30
0.0
 11
106.7825708695175
 21
127.1938113892624
 31
0.0
  0
LINE
  5
3BA4
330
FB5
100
AcDbEntity
  8
AM_PARDIM
100
AcDbLine
 10
78.37464887656421
 20
116.1938113892625
 30
0.0
 11
106.7825708695175
 21
116.1938113892624
 31
0.0
  0
LINE
  5
3BA5
330
FB5
100
AcDbEntity
  8
AM_PARDIM
100
AcDbLine
 10
104.5325708695175
 20
131.6938113892625
 30
0.0
 11
104.5325708695175
 21
136.1938113892624
 31
0.0
  0
LINE
  5
3BA6
330
FB5
100
AcDbEntity
  8
AM_PARDIM
100
AcDbLine
 10
104.5325708695175
 20
111.6938113892624
 30
0.0
 11
104.5325708695175
 21
107.1938113892624
 31
0.0
  0
LINE
  5
3BA7
330
FB5
100
AcDbEntity
  8
AM_PARDIM
100
AcDbLine
 10
104.5325708695175
 20
127.1938113892624
 30
0.0
 11
104.5325708695175
 21
116.1938113892624
 31
0.0
  0
SOLID
  5
3BA8
330
FB5
100
AcDbEntity
  8
AM_PARDIM
100
AcDbTrace
 10
103.7825708695175
 20
131.6938113892625
 30
0.0
 11
105.2825708695175
 21
131.6938113892625
 31
0.0
 12
104.5325708695175
 22
127.1938113892624
 32
0.0
 13
104.5325708695175
 23
127.1938113892624
 33
0.0
  0
SOLID
  5
3BA9
330
FB5
100
AcDbEntity
  8
AM_PARDIM
100
AcDbTrace
 10
103.7825708695175
 20
111.6938113892624
 30
0.0
 11
105.2825708695175
 21
111.6938113892624
 31
0.0
 12
104.5325708695175
 22
116.1938113892624
 32
0.0
 13
104.5325708695175
 23
116.1938113892624
 33
0.0
  0
MTEXT
  5
3BAA
330
FB5
100
AcDbEntity
  8
AM_PARDIM
100
AcDbMText
 10
100.7825708695175
 20
121.6938113892625
 30
0.0
 40
4.5
 41
0.0
 71
     5
 72
     1
  1
11
  7
CHINA
 11
0.0000000000000001
 21
1.0
 31
0.0
1001
ACAD
1000
MTEXTBEGIN
1070
    73
1070
     1
1070
    44
1040
1.0
1070
    74
1070
     0
1000
MTEXTEND
  0
POINT
  5
3BAB
330
FB5
100
AcDbEntity
  8
DEFPOINTS
 62
     0
100
AcDbPoint
 10
50.87464887656421
 20
127.1938113892624
 30
0.0
  0
POINT
  5
3BAC
330
FB5
100
AcDbEntity
  8
DEFPOINTS
 62
     0
100
AcDbPoint
 10
75.37464887656421
 20
116.1938113892625
 30
0.0
  0
POINT
  5
3BAD
330
FB5
100
AcDbEntity
  8
DEFPOINTS
 62
     0
100
AcDbPoint
 10
104.5325708695175
 20
116.1938113892624
 30
0.0
  0
ENDBLK
  5
FC0
330
FB5
100
AcDbEntity
  8
0
100
AcDbBlockEnd
  0
BLOCK
  5
FCB
330
FC1
100
AcDbEntity
  8
0
100
AcDbBlockBegin
  2
*D6
 70
     1
 10
0.0
 20
0.0
 30
0.0
  3
*D6
  1

  0
LINE
  5
3BAE
330
FC1
100
AcDbEntity
  8
AM_PARDIM
100
AcDbLine
 10
66.3746488765642
 20
131.6938113892625
 30
0.0
 11
66.3746488765642
 21
152.9438113892624
 31
0.0
  0
LINE
  5
3BAF
330
FC1
100
AcDbEntity
  8
AM_PARDIM
100
AcDbLine
 10
75.37464887656421
 20
131.6938113892625
 30
0.0
 11
75.37464887656421
 21
152.9438113892624
 31
0.0
  0
LINE
  5
3BB0
330
FC1
100
AcDbEntity
  8
AM_PARDIM
100
AcDbLine
 10
61.87464887656421
 20
150.6938113892624
 30
0.0
 11
57.37464887656421
 21
150.6938113892624
 31
0.0
  0
LINE
  5
3BB1
330
FC1
100
AcDbEntity
  8
AM_PARDIM
100
AcDbLine
 10
79.87464887656421
 20
150.6938113892624
 30
0.0
 11
84.37464887656421
 21
150.6938113892624
 31
0.0
  0
LINE
  5
3BB2
330
FC1
100
AcDbEntity
  8
AM_PARDIM
100
AcDbLine
 10
66.3746488765642
 20
150.6938113892624
 30
0.0
 11
75.37464887656421
 21
150.6938113892624
 31
0.0
  0
SOLID
  5
3BB3
330
FC1
100
AcDbEntity
  8
AM_PARDIM
100
AcDbTrace
 10
61.87464887656421
 20
151.4438113892625
 30
0.0
 11
61.87464887656421
 21
149.9438113892624
 31
0.0
 12
66.3746488765642
 22
150.6938113892624
 32
0.0
 13
66.3746488765642
 23
150.6938113892624
 33
0.0
  0
SOLID
  5
3BB4
330
FC1
100
AcDbEntity
  8
AM_PARDIM
100
AcDbTrace
 10
79.87464887656421
 20
151.4438113892625
 30
0.0
 11
79.87464887656421
 21
149.9438113892624
 31
0.0
 12
75.37464887656421
 22
150.6938113892624
 32
0.0
 13
75.37464887656421
 23
150.6938113892624
 33
0.0
  0
MTEXT
  5
3BB5
330
FC1
100
AcDbEntity
  8
AM_PARDIM
100
AcDbMText
 10
70.87464887656421
 20
154.4438113892624
 30
0.0
 40
4.5
 41
0.0
 71
     5
 72
     1
  1
9
  7
CHINA
1001
ACAD
1000
MTEXTBEGIN
1070
    73
1070
     1
1070
    44
1040
1.0
1070
    74
1070
     0
1000
MTEXTEND
  0
POINT
  5
3BB6
330
FC1
100
AcDbEntity
  8
DEFPOINTS
 62
     0
100
AcDbPoint
 10
66.3746488765642
 20
128.6938113892625
 30
0.0
  0
POINT
  5
3BB7
330
FC1
100
AcDbEntity
  8
DEFPOINTS
 62
     0
100
AcDbPoint
 10
75.37464887656421
 20
128.6938113892625
 30
0.0
  0
POINT
  5
3BB8
330
FC1
100
AcDbEntity
  8
DEFPOINTS
 62
     0
100
AcDbPoint
 10
75.37464887656421
 20
150.6938113892624
 30
0.0
  0
ENDBLK
  5
FCC
330
FC1
100
AcDbEntity
  8
0
100
AcDbBlockEnd
  0
BLOCK
  5
FD9
330
FCD
100
AcDbEntity
  8
0
100
AcDbBlockBegin
  2
*D7
 70
     1
 10
0.0
 20
0.0
 30
0.0
  3
*D7
  1

  0
LINE
  5
3BB9
330
FCD
100
AcDbEntity
  8
AM_PARDIM
100
AcDbLine
 10
63.87464887656418
 20
131.6938113892624
 30
0.0
 11
63.87464887656418
 21
142.9438113892624
 31
0.0
  0
LINE
  5
3BBA
330
FCD
100
AcDbEntity
  8
AM_PARDIM
100
AcDbLine
 10
66.37464887656418
 20
131.6938113892624
 30
0.0
 11
66.37464887656418
 21
142.9438113892624
 31
0.0
  0
LINE
  5
3BBB
330
FCD
100
AcDbEntity
  8
AM_PARDIM
100
AcDbLine
 10
59.37464887656418
 20
140.6938113892624
 30
0.0
 11
54.87464887656418
 21
140.6938113892624
 31
0.0
  0
LINE
  5
3BBC
330
FCD
100
AcDbEntity
  8
AM_PARDIM
100
AcDbLine
 10
70.87464887656418
 20
140.6938113892624
 30
0.0
 11
86.03842840412324
 21
140.6938113892624
 31
0.0
  0
LINE
  5
3BBD
330
FCD
100
AcDbEntity
  8
AM_PARDIM
100
AcDbLine
 10
63.87464887656418
 20
140.6938113892624
 30
0.0
 11
66.37464887656418
 21
140.6938113892624
 31
0.0
  0
SOLID
  5
3BBE
330
FCD
100
AcDbEntity
  8
AM_PARDIM
100
AcDbTrace
 10
59.37464887656418
 20
141.4438113892624
 30
0.0
 11
59.37464887656418
 21
139.9438113892624
 31
0.0
 12
63.87464887656418
 22
140.6938113892624
 32
0.0
 13
63.87464887656418
 23
140.6938113892624
 33
0.0
  0
SOLID
  5
3BBF
330
FCD
100
AcDbEntity
  8
AM_PARDIM
100
AcDbTrace
 10
70.87464887656418
 20
141.4438113892624
 30
0.0
 11
70.87464887656418
 21
139.9438113892624
 31
0.0
 12
66.37464887656418
 22
140.6938113892624
 32
0.0
 13
66.37464887656418
 23
140.6938113892624
 33
0.0
  0
MTEXT
  5
3BC0
330
FCD
100
AcDbEntity
  8
AM_PARDIM
100
AcDbMText
 10
80.70653864034371
 20
144.4560161136719
 30
0.0
 40
4.5
 41
0.0
 71
     5
 72
     1
  1
2.5
  7
CHINA
1001
ACAD
1000
MTEXTBEGIN
1070
    73
1070
     1
1070
    44
1040
1.0
1070
    74
1070
     0
1000
MTEXTEND
  0
POINT
  5
3BC1
330
FCD
100
AcDbEntity
  8
DEFPOINTS
 62
     0
100
AcDbPoint
 10
63.87464887656418
 20
128.6938113892624
 30
0.0
  0
POINT
  5
3BC2
330
FCD
100
AcDbEntity
  8
DEFPOINTS
 62
     0
100
AcDbPoint
 10
66.37464887656418
 20
128.6938113892624
 30
0.0
  0
POINT
  5
3BC3
330
FCD
100
AcDbEntity
  8
DEFPOINTS
 62
     0
100
AcDbPoint
 10
66.37464887656418
 20
140.6938113892624
 30
0.0
  0
ENDBLK
  5
FDA
330
FCD
100
AcDbEntity
  8
0
100
AcDbBlockEnd
  0
BLOCK
  5
FE6
330
FDB
100
AcDbEntity
  8
0
100
AcDbBlockBegin
  2
*D8
 70
     1
 10
0.0
 20
0.0
 30
0.0
  3
*D8
  1

  0
LINE
  5
3BC4
330
FDB
100
AcDbEntity
  8
AM_PARDIM
100
AcDbLine
 10
66.37464887656418
 20
131.6938113892624
 30
0.0
 11
66.37464887656418
 21
138.280378563861
 31
0.0
  0
LINE
  5
3BC5
330
FDB
100
AcDbEntity
  8
AM_PARDIM
100
AcDbLine
 10
66.37464887656418
 20
119.1938113892624
 30
0.0
 11
66.37464887656418
 21
138.280378563861
 31
0.0
  0
LINE
  5
3BC6
330
FDB
100
AcDbEntity
  8
AM_PARDIM
100
AcDbLine
 10
61.87464887656418
 20
136.030378563861
 30
0.0
 11
57.37464887656418
 21
136.030378563861
 31
0.0
  0
LINE
  5
3BC7
330
FDB
100
AcDbEntity
  8
AM_PARDIM
100
AcDbLine
 10
70.87464887656418
 20
136.030378563861
 30
0.0
 11
80.77464887656418
 21
136.030378563861
 31
0.0
  0
SOLID
  5
3BC8
330
FDB
100
AcDbEntity
  8
AM_PARDIM
100
AcDbTrace
 10
61.87464887656418
 20
136.780378563861
 30
0.0
 11
61.87464887656418
 21
135.280378563861
 31
0.0
 12
66.37464887656418
 22
136.030378563861
 32
0.0
 13
66.37464887656418
 23
136.030378563861
 33
0.0
  0
SOLID
  5
3BC9
330
FDB
100
AcDbEntity
  8
AM_PARDIM
100
AcDbTrace
 10
70.87464887656418
 20
136.780378563861
 30
0.0
 11
70.87464887656418
 21
135.280378563861
 31
0.0
 12
66.37464887656418
 22
136.030378563861
 32
0.0
 13
66.37464887656418
 23
136.030378563861
 33
0.0
  0
MTEXT
  5
3BCA
330
FDB
100
AcDbEntity
  8
AM_PARDIM
100
AcDbMText
 10
78.07464887656418
 20
139.780378563861
 30
0.0
 40
4.5
 41
0.0
 71
     5
 72
     1
  1
0
  7
CHINA
1001
ACAD
1000
MTEXTBEGIN
1070
    73
1070
     1
1070
    44
1040
1.0
1070
    74
1070
     0
1000
MTEXTEND
  0
POINT
  5
3BCB
330
FDB
100
AcDbEntity
  8
DEFPOINTS
 62
     0
100
AcDbPoint
 10
66.37464887656418
 20
128.6938113892624
 30
0.0
  0
POINT
  5
3BCC
330
FDB
100
AcDbEntity
  8
DEFPOINTS
 62
     0
100
AcDbPoint
 10
66.37464887656418
 20
116.1938113892624
 30
0.0
  0
POINT
  5
3BCD
330
FDB
100
AcDbEntity
  8
DEFPOINTS
 62
     0
100
AcDbPoint
 10
66.37464887656418
 20
136.030378563861
 30
0.0
  0
ENDBLK
  5
FE7
330
FDB
100
AcDbEntity
  8
0
100
AcDbBlockEnd
  0
BLOCK
  5
FF2
330
FE8
100
AcDbEntity
  8
0
100
AcDbBlockBegin
  2
*D9
 70
     1
 10
0.0
 20
0.0
 30
0.0
  3
*D9
  1

  0
LINE
  5
3BCE
330
FE8
100
AcDbEntity
  8
AM_PARDIM
100
AcDbLine
 10
66.87464887656418
 20
125.6938113892624
 30
0.0
 11
96.78257086951754
 21
125.6938113892624
 31
0.0
  0
LINE
  5
3BCF
330
FE8
100
AcDbEntity
  8
AM_PARDIM
100
AcDbLine
 10
85.53257086951754
 20
116.1938113892624
 30
0.0
 11
96.78257086951754
 21
116.1938113892624
 31
0.0
  0
LINE
  5
3BD0
330
FE8
100
AcDbEntity
  8
AM_PARDIM
100
AcDbLine
 10
94.53257086951754
 20
130.1938113892624
 30
0.0
 11
94.53257086951754
 21
134.6938113892624
 31
0.0
  0
LINE
  5
3BD1
330
FE8
100
AcDbEntity
  8
AM_PARDIM
100
AcDbLine
 10
94.53257086951754
 20
111.6938113892624
 30
0.0
 11
94.53257086951754
 21
96.89302398768763
 31
0.0
  0
LINE
  5
3BD2
330
FE8
100
AcDbEntity
  8
AM_PARDIM
100
AcDbLine
 10
94.53257086951754
 20
125.6938113892624
 30
0.0
 11
94.53257086951754
 21
116.1938113892624
 31
0.0
  0
SOLID
  5
3BD3
330
FE8
100
AcDbEntity
  8
AM_PARDIM
100
AcDbTrace
 10
93.78257086951753
 20
130.1938113892624
 30
0.0
 11
95.28257086951754
 21
130.1938113892624
 31
0.0
 12
94.53257086951754
 22
125.6938113892624
 32
0.0
 13
94.53257086951754
 23
125.6938113892624
 33
0.0
  0
SOLID
  5
3BD4
330
FE8
100
AcDbEntity
  8
AM_PARDIM
100
AcDbTrace
 10
93.78257086951753
 20
111.6938113892624
 30
0.0
 11
95.28257086951754
 21
111.6938113892624
 31
0.0
 12
94.53257086951754
 22
116.1938113892624
 32
0.0
 13
94.53257086951754
 23
116.1938113892624
 33
0.0
  0
MTEXT
  5
3BD5
330
FE8
100
AcDbEntity
  8
AM_PARDIM
100
AcDbMText
 10
90.77075984589546
 20
102.043417688475
 30
0.0
 40
4.5
 41
0.0
 71
     5
 72
     1
  1
9.5
  7
CHINA
 11
0.0000000000000001
 21
1.0
 31
0.0
1001
ACAD
1000
MTEXTBEGIN
1070
    73
1070
     1
1070
    44
1040
1.0
1070
    74
1070
     0
1000
MTEXTEND
  0
POINT
  5
3BD6
330
FE8
100
AcDbEntity
  8
DEFPOINTS
 62
     0
100
AcDbPoint
 10
63.87464887656418
 20
125.6938113892624
 30
0.0
  0
POINT
  5
3BD7
330
FE8
100
AcDbEntity
  8
DEFPOINTS
 62
     0
100
AcDbPoint
 10
82.53257086951753
 20
116.1938113892624
 30
0.0
  0
POINT
  5
3BD8
330
FE8
100
AcDbEntity
  8
DEFPOINTS
 62
     0
100
AcDbPoint
 10
94.53257086951754
 20
116.1938113892624
 30
0.0
  0
ENDBLK
  5
FF3
330
FE8
100
AcDbEntity
  8
0
100
AcDbBlockEnd
  0
BLOCK
  5
FFE
330
FF4
100
AcDbEntity
  8
0
100
AcDbBlockBegin
  2
*D10
 70
     1
 10
0.0
 20
0.0
 30
0.0
  3
*D10
  1

  0
LINE
  5
3BD9
330
FF4
100
AcDbEntity
  8
AM_PARDIM
100
AcDbLine
 10
69.37464887656418
 20
128.6938113892624
 30
0.0
 11
126.7825708695175
 21
128.6938113892624
 31
0.0
  0
LINE
  5
3BDA
330
FF4
100
AcDbEntity
  8
AM_PARDIM
100
AcDbLine
 10
85.53257086951754
 20
116.1938113892624
 30
0.0
 11
126.7825708695175
 21
116.1938113892624
 31
0.0
  0
LINE
  5
3BDB
330
FF4
100
AcDbEntity
  8
AM_PARDIM
100
AcDbLine
 10
124.5325708695175
 20
124.1938113892624
 30
0.0
 11
124.5325708695175
 21
120.6938113892624
 31
0.0
  0
LINE
  5
3BDC
330
FF4
100
AcDbEntity
  8
AM_PARDIM
100
AcDbLine
 10
124.5325708695175
 20
116.1938113892624
 30
0.0
 11
124.5325708695175
 21
97.99302398768762
 31
0.0
  0
SOLID
  5
3BDD
330
FF4
100
AcDbEntity
  8
AM_PARDIM
100
AcDbTrace
 10
123.7825708695175
 20
124.1938113892624
 30
0.0
 11
125.2825708695175
 21
124.1938113892624
 31
0.0
 12
124.5325708695175
 22
128.6938113892624
 32
0.0
 13
124.5325708695175
 23
128.6938113892624
 33
0.0
  0
SOLID
  5
3BDE
330
FF4
100
AcDbEntity
  8
AM_PARDIM
100
AcDbTrace
 10
123.7825708695175
 20
120.6938113892624
 30
0.0
 11
125.2825708695175
 21
120.6938113892624
 31
0.0
 12
124.5325708695175
 22
116.1938113892624
 32
0.0
 13
124.5325708695175
 23
116.1938113892624
 33
0.0
  0
MTEXT
  5
3BDF
330
FF4
100
AcDbEntity
  8
AM_PARDIM
100
AcDbMText
 10
120.770366145108
 20
104.843417688475
 30
0.0
 40
4.5
 41
0.0
 71
     5
 72
     1
  1
12.5
  7
CHINA
 11
0.0000000000000001
 21
1.0
 31
0.0
1001
ACAD
1000
MTEXTBEGIN
1070
    73
1070
     1
1070
    44
1040
1.0
1070
    74
1070
     0
1000
MTEXTEND
  0
POINT
  5
3BE0
330
FF4
100
AcDbEntity
  8
DEFPOINTS
 62
     0
100
AcDbPoint
 10
66.37464887656418
 20
128.6938113892624
 30
0.0
  0
POINT
  5
3BE1
330
FF4
100
AcDbEntity
  8
DEFPOINTS
 62
     0
100
AcDbPoint
 10
82.53257086951753
 20
116.1938113892624
 30
0.0
  0
POINT
  5
3BE2
330
FF4
100
AcDbEntity
  8
DEFPOINTS
 62
     0
100
AcDbPoint
 10
124.5325708695175
 20
116.1938113892624
 30
0.0
  0
ENDBLK
  5
FFF
330
FF4
100
AcDbEntity
  8
0
100
AcDbBlockEnd
  0
BLOCK
  5
3556
330
354C
100
AcDbEntity
  8
0
100
AcDbBlockBegin
  2
*D11
 70
     1
 10
0.0
 20
0.0
 30
0.0
  3
*D11
  1

  0
LINE
  5
47BE
330
354C
100
AcDbEntity
  8
AM_5
100
AcDbLine
 10
2486.259574378297
 20
308.8757594277966
 30
0.0
 11
2502.365095297913
 21
308.8757594277966
 31
0.0
  0
LINE
  5
47BF
330
354C
100
AcDbEntity
  8
AM_5
100
AcDbLine
 10
2486.259574378297
 20
330.8757594277966
 30
0.0
 11
2502.365095297913
 21
330.8757594277966
 31
0.0
  0
LINE
  5
47C0
330
354C
100
AcDbEntity
  8
AM_5
100
AcDbLine
 10
2500.115095297913
 20
313.3757594277966
 30
0.0
 11
2500.115095297913
 21
326.3757594277966
 31
0.0
  0
SOLID
  5
47C1
330
354C
100
AcDbEntity
  8
AM_5
100
AcDbTrace
 10
2499.365095297913
 20
313.3757594277966
 30
0.0
 11
2500.865095297913
 21
313.3757594277966
 31
0.0
 12
2500.115095297913
 22
308.8757594277966
 32
0.0
 13
2500.115095297913
 23
308.8757594277966
 33
0.0
  0
SOLID
  5
47C2
330
354C
100
AcDbEntity
  8
AM_5
100
AcDbTrace
 10
2499.365095297913
 20
326.3757594277966
 30
0.0
 11
2500.865095297913
 21
326.3757594277966
 31
0.0
 12
2500.115095297913
 22
330.8757594277966
 32
0.0
 13
2500.115095297913
 23
330.8757594277966
 33
0.0
  0
MTEXT
  5
47C3
330
354C
100
AcDbEntity
  8
AM_5
100
AcDbMText
 10
2496.364701597126
 20
319.875759427797
 30
0.0
 40
4.5
 41
0.0
 71
     5
 72
     1
  1
22
  7
CHINA
 11
0.0000000000000001
 21
1.0
 31
0.0
1001
ACAD
1000
MTEXTBEGIN
1070
    73
1070
     1
1070
    44
1040
1.0
1070
    74
1070
     0
1000
MTEXTEND
  0
POINT
  5
47C4
330
354C
100
AcDbEntity
  8
DEFPOINTS
 62
     0
100
AcDbPoint
 10
2483.259574378297
 20
308.8757594277966
 30
0.0
  0
POINT
  5
47C5
330
354C
100
AcDbEntity
  8
DEFPOINTS
 62
     0
100
AcDbPoint
 10
2483.259574378297
 20
330.8757594277966
 30
0.0
  0
POINT
  5
47C6
330
354C
100
AcDbEntity
  8
DEFPOINTS
 62
     0
100
AcDbPoint
 10
2500.115095297913
 20
330.8757594277966
 30
0.0
  0
ENDBLK
  5
3557
330
354C
100
AcDbEntity
  8
0
100
AcDbBlockEnd
  0
BLOCK
  5
358E
330
3584
100
AcDbEntity
  8
0
100
AcDbBlockBegin
  2
*D12
 70
     1
 10
0.0
 20
0.0
 30
0.0
  3
*D12
  1

  0
LINE
  5
479A
330
3584
100
AcDbEntity
  8
AM_5
100
AcDbLine
 10
2465.009574378297
 20
287.8757594277966
 30
0.0
 11
2512.365095297913
 21
287.8757594277966
 31
0.0
  0
LINE
  5
479B
330
3584
100
AcDbEntity
  8
AM_5
100
AcDbLine
 10
2465.009574378297
 20
351.8757594277966
 30
0.0
 11
2512.365095297913
 21
351.8757594277966
 31
0.0
  0
LINE
  5
479C
330
3584
100
AcDbEntity
  8
AM_5
100
AcDbLine
 10
2510.115095297913
 20
292.3757594277966
 30
0.0
 11
2510.115095297913
 21
347.3757594277966
 31
0.0
  0
SOLID
  5
479D
330
3584
100
AcDbEntity
  8
AM_5
100
AcDbTrace
 10
2509.365095297913
 20
292.3757594277966
 30
0.0
 11
2510.865095297913
 21
292.3757594277966
 31
0.0
 12
2510.115095297913
 22
287.8757594277966
 32
0.0
 13
2510.115095297913
 23
287.8757594277966
 33
0.0
  0
SOLID
  5
479E
330
3584
100
AcDbEntity
  8
AM_5
100
AcDbTrace
 10
2509.365095297913
 20
347.3757594277966
 30
0.0
 11
2510.865095297913
 21
347.3757594277966
 31
0.0
 12
2510.115095297913
 22
351.8757594277966
 32
0.0
 13
2510.115095297913
 23
351.8757594277966
 33
0.0
  0
MTEXT
  5
479F
330
3584
100
AcDbEntity
  8
AM_5
100
AcDbMText
 10
2506.365095297913
 20
319.875759427797
 30
0.0
 40
4.5
 41
0.0
 71
     5
 72
     1
  1
64
  7
CHINA
 11
0.0000000000000001
 21
1.0
 31
0.0
1001
ACAD
1000
MTEXTBEGIN
1070
    73
1070
     1
1070
    44
1040
1.0
1070
    74
1070
     0
1000
MTEXTEND
  0
POINT
  5
47A0
330
3584
100
AcDbEntity
  8
DEFPOINTS
 62
     0
100
AcDbPoint
 10
2462.009574378297
 20
287.8757594277966
 30
0.0
  0
POINT
  5
47A1
330
3584
100
AcDbEntity
  8
DEFPOINTS
 62
     0
100
AcDbPoint
 10
2462.009574378297
 20
351.8757594277966
 30
0.0
  0
POINT
  5
47A2
330
3584
100
AcDbEntity
  8
DEFPOINTS
 62
     0
100
AcDbPoint
 10
2510.115095297913
 20
351.8757594277966
 30
0.0
  0
ENDBLK
  5
358F
330
3584
100
AcDbEntity
  8
0
100
AcDbBlockEnd
  0
BLOCK
  5
35C6
330
35BC
100
AcDbEntity
  8
0
100
AcDbBlockBegin
  2
*D13
 70
     1
 10
0.0
 20
0.0
 30
0.0
  3
*D13
  1

  0
LINE
  5
47AC
330
35BC
100
AcDbEntity
  8
AM_5
100
AcDbLine
 10
2392.259574378297
 20
279.1257594277966
 30
0.0
 11
2392.259574378297
 21
263.6807815613662
 31
0.0
  0
LINE
  5
47AD
330
35BC
100
AcDbEntity
  8
AM_5
100
AcDbLine
 10
2456.259574378297
 20
279.1257594277966
 30
0.0
 11
2456.259574378297
 21
263.6807815613662
 31
0.0
  0
LINE
  5
47AE
330
35BC
100
AcDbEntity
  8
AM_5
100
AcDbLine
 10
2396.759574378297
 20
265.9307815613662
 30
0.0
 11
2451.759574378297
 21
265.9307815613662
 31
0.0
  0
SOLID
  5
47AF
330
35BC
100
AcDbEntity
  8
AM_5
100
AcDbTrace
 10
2396.759574378297
 20
266.6807815613662
 30
0.0
 11
2396.759574378297
 21
265.1807815613662
 31
0.0
 12
2392.259574378297
 22
265.9307815613662
 32
0.0
 13
2392.259574378297
 23
265.9307815613662
 33
0.0
  0
SOLID
  5
47B0
330
35BC
100
AcDbEntity
  8
AM_5
100
AcDbTrace
 10
2451.759574378297
 20
266.6807815613662
 30
0.0
 11
2451.759574378297
 21
265.1807815613662
 31
0.0
 12
2456.259574378297
 22
265.9307815613662
 32
0.0
 13
2456.259574378297
 23
265.9307815613662
 33
0.0
  0
MTEXT
  5
47B1
330
35BC
100
AcDbEntity
  8
AM_5
100
AcDbMText
 10
2424.259574378297
 20
269.6807815613662
 30
0.0
 40
4.5
 41
0.0
 71
     5
 72
     1
  1
64
  7
CHINA
1001
ACAD
1000
MTEXTBEGIN
1070
    73
1070
     1
1070
    44
1040
1.0
1070
    74
1070
     0
1000
MTEXTEND
  0
POINT
  5
47B2
330
35BC
100
AcDbEntity
  8
DEFPOINTS
 62
     0
100
AcDbPoint
 10
2392.259574378297
 20
282.1257594277966
 30
0.0
  0
POINT
  5
47B3
330
35BC
100
AcDbEntity
  8
DEFPOINTS
 62
     0
100
AcDbPoint
 10
2456.259574378297
 20
282.1257594277966
 30
0.0
  0
POINT
  5
47B4
330
35BC
100
AcDbEntity
  8
DEFPOINTS
 62
     0
100
AcDbPoint
 10
2456.259574378297
 20
265.9307815613662
 30
0.0
  0
ENDBLK
  5
35C7
330
35BC
100
AcDbEntity
  8
0
100
AcDbBlockEnd
  0
BLOCK
  5
35FE
330
35F4
100
AcDbEntity
  8
0
100
AcDbBlockBegin
  2
*D14
 70
     1
 10
0.0
 20
0.0
 30
0.0
  3
*D14
  1

  0
LINE
  5
47A3
330
35F4
100
AcDbEntity
  8
AM_5
100
AcDbLine
 10
2384.259574378297
 20
279.8757594277966
 30
0.0
 11
2384.259574378297
 21
253.6807815613662
 31
0.0
  0
LINE
  5
47A4
330
35F4
100
AcDbEntity
  8
AM_5
100
AcDbLine
 10
2464.259574378297
 20
279.8757594277966
 30
0.0
 11
2464.259574378297
 21
253.6807815613662
 31
0.0
  0
LINE
  5
47A5
330
35F4
100
AcDbEntity
  8
AM_5
100
AcDbLine
 10
2388.759574378297
 20
255.9307815613663
 30
0.0
 11
2459.759574378297
 21
255.9307815613663
 31
0.0
  0
SOLID
  5
47A6
330
35F4
100
AcDbEntity
  8
AM_5
100
AcDbTrace
 10
2388.759574378297
 20
256.6807815613663
 30
0.0
 11
2388.759574378297
 21
255.1807815613662
 31
0.0
 12
2384.259574378297
 22
255.9307815613663
 32
0.0
 13
2384.259574378297
 23
255.9307815613663
 33
0.0
  0
SOLID
  5
47A7
330
35F4
100
AcDbEntity
  8
AM_5
100
AcDbTrace
 10
2459.759574378297
 20
256.6807815613663
 30
0.0
 11
2459.759574378297
 21
255.1807815613662
 31
0.0
 12
2464.259574378297
 22
255.9307815613663
 32
0.0
 13
2464.259574378297
 23
255.9307815613663
 33
0.0
  0
MTEXT
  5
47A8
330
35F4
100
AcDbEntity
  8
AM_5
100
AcDbMText
 10
2424.259574378297
 20
259.6807815613662
 30
0.0
 40
4.5
 41
0.0
 71
     5
 72
     1
  1
{\Famgdt;o}80
  7
CHINA
1001
ACAD
1000
MTEXTBEGIN
1070
    73
1070
     1
1070
    44
1040
1.0
1070
    74
1070
     0
1000
MTEXTEND
  0
POINT
  5
47A9
330
35F4
100
AcDbEntity
  8
DEFPOINTS
 62
     0
100
AcDbPoint
 10
2384.259574378297
 20
282.8757594277966
 30
0.0
  0
POINT
  5
47AA
330
35F4
100
AcDbEntity
  8
DEFPOINTS
 62
     0
100
AcDbPoint
 10
2464.259574378297
 20
282.8757594277966
 30
0.0
  0
POINT
  5
47AB
330
35F4
100
AcDbEntity
  8
DEFPOINTS
 62
     0
100
AcDbPoint
 10
2464.259574378297
 20
255.9307815613663
 30
0.0
  0
ENDBLK
  5
35FF
330
35F4
100
AcDbEntity
  8
0
100
AcDbBlockEnd
  0
BLOCK
  5
36DE
330
36D4
100
AcDbEntity
  8
0
100
AcDbBlockBegin
  2
*D15
 70
     1
 10
0.0
 20
0.0
 30
0.0
  3
*D15
  1

  0
LINE
  5
476D
330
36D4
100
AcDbEntity
  8
AM_5
100
AcDbLine
 10
2486.259574378297
 20
225.1557180045383
 30
0.0
 11
2498.509574378297
 21
225.1557180045383
 31
0.0
  0
LINE
  5
476E
330
36D4
100
AcDbEntity
  8
AM_5
100
AcDbLine
 10
2486.259574378297
 20
203.1557180045383
 30
0.0
 11
2498.509574378297
 21
203.1557180045382
 31
0.0
  0
LINE
  5
476F
330
36D4
100
AcDbEntity
  8
AM_5
100
AcDbLine
 10
2496.259574378297
 20
220.6557180045383
 30
0.0
 11
2496.259574378297
 21
207.6557180045383
 31
0.0
  0
SOLID
  5
4770
330
36D4
100
AcDbEntity
  8
AM_5
100
AcDbTrace
 10
2495.509574378297
 20
220.6557180045383
 30
0.0
 11
2497.009574378297
 21
220.6557180045383
 31
0.0
 12
2496.259574378297
 22
225.1557180045383
 32
0.0
 13
2496.259574378297
 23
225.1557180045383
 33
0.0
  0
SOLID
  5
4771
330
36D4
100
AcDbEntity
  8
AM_5
100
AcDbTrace
 10
2495.509574378297
 20
207.6557180045383
 30
0.0
 11
2497.009574378297
 21
207.6557180045383
 31
0.0
 12
2496.259574378297
 22
203.1557180045382
 32
0.0
 13
2496.259574378297
 23
203.1557180045382
 33
0.0
  0
MTEXT
  5
4772
330
36D4
100
AcDbEntity
  8
AM_5
100
AcDbMText
 10
2492.50918067751
 20
214.1557180045387
 30
0.0
 40
4.5
 41
0.0
 71
     5
 72
     1
  1
22
  7
CHINA
 11
0.0000000000000001
 21
1.0
 31
0.0
1001
ACAD
1000
MTEXTBEGIN
1070
    73
1070
     1
1070
    44
1040
1.0
1070
    74
1070
     0
1000
MTEXTEND
  0
POINT
  5
4773
330
36D4
100
AcDbEntity
  8
DEFPOINTS
 62
     0
100
AcDbPoint
 10
2483.259574378297
 20
225.1557180045383
 30
0.0
  0
POINT
  5
4774
330
36D4
100
AcDbEntity
  8
DEFPOINTS
 62
     0
100
AcDbPoint
 10
2483.259574378297
 20
203.1557180045383
 30
0.0
  0
POINT
  5
4775
330
36D4
100
AcDbEntity
  8
DEFPOINTS
 62
     0
100
AcDbPoint
 10
2496.259574378297
 20
203.1557180045382
 30
0.0
  0
ENDBLK
  5
36DF
330
36D4
100
AcDbEntity
  8
0
100
AcDbBlockEnd
  0
BLOCK
  5
3716
330
370C
100
AcDbEntity
  8
0
100
AcDbBlockBegin
  2
*D16
 70
     1
 10
0.0
 20
0.0
 30
0.0
  3
*D16
  1

  0
LINE
  5
4788
330
370C
100
AcDbEntity
  8
AM_5
100
AcDbLine
 10
2388.259574378297
 20
138.1557180045383
 30
0.0
 11
2388.259574378297
 21
127.7414867259655
 31
0.0
  0
LINE
  5
4789
330
370C
100
AcDbEntity
  8
AM_5
100
AcDbLine
 10
2460.259574378297
 20
138.1557180045383
 30
0.0
 11
2460.259574378297
 21
127.7414867259655
 31
0.0
  0
LINE
  5
478A
330
370C
100
AcDbEntity
  8
AM_5
100
AcDbLine
 10
2392.759574378297
 20
129.9914867259654
 30
0.0
 11
2455.759574378297
 21
129.9914867259654
 31
0.0
  0
SOLID
  5
478B
330
370C
100
AcDbEntity
  8
AM_5
100
AcDbTrace
 10
2392.759574378297
 20
130.7414867259655
 30
0.0
 11
2392.759574378297
 21
129.2414867259654
 31
0.0
 12
2388.259574378297
 22
129.9914867259654
 32
0.0
 13
2388.259574378297
 23
129.9914867259654
 33
0.0
  0
SOLID
  5
478C
330
370C
100
AcDbEntity
  8
AM_5
100
AcDbTrace
 10
2455.759574378297
 20
130.7414867259655
 30
0.0
 11
2455.759574378297
 21
129.2414867259654
 31
0.0
 12
2460.259574378297
 22
129.9914867259654
 32
0.0
 13
2460.259574378297
 23
129.9914867259654
 33
0.0
  0
MTEXT
  5
478D
330
370C
100
AcDbEntity
  8
AM_5
100
AcDbMText
 10
2439.896859480458
 20
133.7418804267529
 30
0.0
 40
4.5
 41
0.0
 71
     5
 72
     1
  1
%%c72
  7
CHINA
1001
ACAD
1000
MTEXTBEGIN
1070
    73
1070
     1
1070
    44
1040
1.0
1070
    74
1070
     0
1000
MTEXTEND
  0
POINT
  5
478E
330
370C
100
AcDbEntity
  8
DEFPOINTS
 62
     0
100
AcDbPoint
 10
2388.259574378297
 20
141.1557180045383
 30
0.0
  0
POINT
  5
478F
330
370C
100
AcDbEntity
  8
DEFPOINTS
 62
     0
100
AcDbPoint
 10
2460.259574378297
 20
141.1557180045383
 30
0.0
  0
POINT
  5
4790
330
370C
100
AcDbEntity
  8
DEFPOINTS
 62
     0
100
AcDbPoint
 10
2460.259574378297
 20
129.9914867259654
 30
0.0
  0
ENDBLK
  5
3717
330
370C
100
AcDbEntity
  8
0
100
AcDbBlockEnd
  0
BLOCK
  5
373A
330
3730
100
AcDbEntity
  8
0
100
AcDbBlockBegin
  2
*D17
 70
     1
 10
0.0
 20
0.0
 30
0.0
  3
*D17
  1

  0
LINE
  5
4791
330
3730
100
AcDbEntity
  8
AM_5
100
AcDbLine
 10
2466.759574378297
 20
114.1557180045383
 30
0.0
 11
2478.509574378297
 21
114.1557180045383
 31
0.0
  0
LINE
  5
4792
330
3730
100
AcDbEntity
  8
AM_5
100
AcDbLine
 10
2466.259574378297
 20
84.15571800453834
 30
0.0
 11
2478.509574378297
 21
84.15571800453834
 31
0.0
  0
LINE
  5
4793
330
3730
100
AcDbEntity
  8
AM_5
100
AcDbLine
 10
2476.259574378297
 20
109.6557180045383
 30
0.0
 11
2476.259574378297
 21
88.65571800453833
 31
0.0
  0
SOLID
  5
4794
330
3730
100
AcDbEntity
  8
AM_5
100
AcDbTrace
 10
2475.509574378297
 20
109.6557180045383
 30
0.0
 11
2477.009574378297
 21
109.6557180045383
 31
0.0
 12
2476.259574378297
 22
114.1557180045383
 32
0.0
 13
2476.259574378297
 23
114.1557180045383
 33
0.0
  0
SOLID
  5
4795
330
3730
100
AcDbEntity
  8
AM_5
100
AcDbTrace
 10
2475.509574378297
 20
88.65571800453833
 30
0.0
 11
2477.009574378297
 21
88.65571800453833
 31
0.0
 12
2476.259574378297
 22
84.15571800453834
 32
0.0
 13
2476.259574378297
 23
84.15571800453834
 33
0.0
  0
MTEXT
  5
4796
330
3730
100
AcDbEntity
  8
AM_5
100
AcDbMText
 10
2472.509574378297
 20
99.15571800453875
 30
0.0
 40
4.5
 41
0.0
 71
     5
 72
     1
  1
30
  7
CHINA
 11
0.0000000000000001
 21
1.0
 31
0.0
1001
ACAD
1000
MTEXTBEGIN
1070
    73
1070
     1
1070
    44
1040
1.0
1070
    74
1070
     0
1000
MTEXTEND
  0
POINT
  5
4797
330
3730
100
AcDbEntity
  8
DEFPOINTS
 62
     0
100
AcDbPoint
 10
2463.759574378297
 20
114.1557180045383
 30
0.0
  0
POINT
  5
4798
330
3730
100
AcDbEntity
  8
DEFPOINTS
 62
     0
100
AcDbPoint
 10
2463.259574378297
 20
84.15571800453836
 30
0.0
  0
POINT
  5
4799
330
3730
100
AcDbEntity
  8
DEFPOINTS
 62
     0
100
AcDbPoint
 10
2476.259574378297
 20
84.15571800453834
 30
0.0
  0
ENDBLK
  5
373B
330
3730
100
AcDbEntity
  8
0
100
AcDbBlockEnd
  0
BLOCK
  5
3772
330
3768
100
AcDbEntity
  8
0
100
AcDbBlockBegin
  2
*D18
 70
     1
 10
0.0
 20
0.0
 30
0.0
  3
*D18
  1

  0
LINE
  5
477F
330
3768
100
AcDbEntity
  8
AM_5
100
AcDbLine
 10
2466.259574378297
 20
84.15571800453834
 30
0.0
 11
2488.509574378297
 21
84.15571800453834
 31
0.0
  0
LINE
  5
4780
330
3768
100
AcDbEntity
  8
AM_5
100
AcDbLine
 10
2461.259574378297
 20
170.1557180045383
 30
0.0
 11
2488.509574378297
 21
170.1557180045383
 31
0.0
  0
LINE
  5
4781
330
3768
100
AcDbEntity
  8
AM_5
100
AcDbLine
 10
2486.259574378297
 20
88.65571800453833
 30
0.0
 11
2486.259574378297
 21
165.6557180045383
 31
0.0
  0
SOLID
  5
4782
330
3768
100
AcDbEntity
  8
AM_5
100
AcDbTrace
 10
2485.509574378297
 20
88.65571800453833
 30
0.0
 11
2487.009574378297
 21
88.65571800453833
 31
0.0
 12
2486.259574378297
 22
84.15571800453834
 32
0.0
 13
2486.259574378297
 23
84.15571800453834
 33
0.0
  0
SOLID
  5
4783
330
3768
100
AcDbEntity
  8
AM_5
100
AcDbTrace
 10
2485.509574378297
 20
165.6557180045383
 30
0.0
 11
2487.009574378297
 21
165.6557180045383
 31
0.0
 12
2486.259574378297
 22
170.1557180045383
 32
0.0
 13
2486.259574378297
 23
170.1557180045383
 33
0.0
  0
MTEXT
  5
4784
330
3768
100
AcDbEntity
  8
AM_5
100
AcDbMText
 10
2482.509574378297
 20
127.1557180045387
 30
0.0
 40
4.5
 41
0.0
 71
     5
 72
     1
  1
86
  7
CHINA
 11
0.0000000000000001
 21
1.0
 31
0.0
1001
ACAD
1000
MTEXTBEGIN
1070
    73
1070
     1
1070
    44
1040
1.0
1070
    74
1070
     0
1000
MTEXTEND
  0
POINT
  5
4785
330
3768
100
AcDbEntity
  8
DEFPOINTS
 62
     0
100
AcDbPoint
 10
2463.259574378297
 20
84.15571800453836
 30
0.0
  0
POINT
  5
4786
330
3768
100
AcDbEntity
  8
DEFPOINTS
 62
     0
100
AcDbPoint
 10
2458.259574378297
 20
170.1557180045383
 30
0.0
  0
POINT
  5
4787
330
3768
100
AcDbEntity
  8
DEFPOINTS
 62
     0
100
AcDbPoint
 10
2486.259574378297
 20
170.1557180045383
 30
0.0
  0
ENDBLK
  5
3773
330
3768
100
AcDbEntity
  8
0
100
AcDbBlockEnd
  0
BLOCK
  5
37AA
330
37A0
100
AcDbEntity
  8
0
100
AcDbBlockBegin
  2
*D19
 70
     1
 10
0.0
 20
0.0
 30
0.0
  3
*D19
  1

  0
LINE
  5
4764
330
37A0
100
AcDbEntity
  8
AM_5
100
AcDbLine
 10
2466.259574378297
 20
84.15571800453834
 30
0.0
 11
2508.509574378297
 21
84.15571800453834
 31
0.0
  0
LINE
  5
4765
330
37A0
100
AcDbEntity
  8
AM_5
100
AcDbLine
 10
2486.259574378297
 20
225.1557180045383
 30
0.0
 11
2508.509574378297
 21
225.1557180045383
 31
0.0
  0
LINE
  5
4766
330
37A0
100
AcDbEntity
  8
AM_5
100
AcDbLine
 10
2506.259574378297
 20
88.65571800453833
 30
0.0
 11
2506.259574378297
 21
220.6557180045383
 31
0.0
  0
SOLID
  5
4767
330
37A0
100
AcDbEntity
  8
AM_5
100
AcDbTrace
 10
2505.509574378297
 20
88.65571800453833
 30
0.0
 11
2507.009574378297
 21
88.65571800453833
 31
0.0
 12
2506.259574378297
 22
84.15571800453834
 32
0.0
 13
2506.259574378297
 23
84.15571800453834
 33
0.0
  0
SOLID
  5
4768
330
37A0
100
AcDbEntity
  8
AM_5
100
AcDbTrace
 10
2505.509574378297
 20
220.6557180045383
 30
0.0
 11
2507.009574378297
 21
220.6557180045383
 31
0.0
 12
2506.259574378297
 22
225.1557180045383
 32
0.0
 13
2506.259574378297
 23
225.1557180045383
 33
0.0
  0
MTEXT
  5
4769
330
37A0
100
AcDbEntity
  8
AM_5
100
AcDbMText
 10
2502.509574378297
 20
154.6557180045387
 30
0.0
 40
4.5
 41
0.0
 71
     5
 72
     1
  1
141
  7
CHINA
 11
0.0000000000000001
 21
1.0
 31
0.0
1001
ACAD
1000
MTEXTBEGIN
1070
    73
1070
     1
1070
    44
1040
1.0
1070
    74
1070
     0
1000
MTEXTEND
  0
POINT
  5
476A
330
37A0
100
AcDbEntity
  8
DEFPOINTS
 62
     0
100
AcDbPoint
 10
2463.259574378297
 20
84.15571800453836
 30
0.0
  0
POINT
  5
476B
330
37A0
100
AcDbEntity
  8
DEFPOINTS
 62
     0
100
AcDbPoint
 10
2483.259574378297
 20
225.1557180045383
 30
0.0
  0
POINT
  5
476C
330
37A0
100
AcDbEntity
  8
DEFPOINTS
 62
     0
100
AcDbPoint
 10
2506.259574378297
 20
225.1557180045383
 30
0.0
  0
ENDBLK
  5
37AB
330
37A0
100
AcDbEntity
  8
0
100
AcDbBlockEnd
  0
BLOCK
  5
37E2
330
37D8
100
AcDbEntity
  8
0
100
AcDbBlockBegin
  2
*D20
 70
     1
 10
0.0
 20
0.0
 30
0.0
  3
*D20
  1

  0
LINE
  5
4776
330
37D8
100
AcDbEntity
  8
AM_5
100
AcDbLine
 10
2466.259574378297
 20
84.15571800453834
 30
0.0
 11
2498.509574378297
 21
84.15571800453834
 31
0.0
  0
LINE
  5
4777
330
37D8
100
AcDbEntity
  8
AM_5
100
AcDbLine
 10
2486.259574378297
 20
203.1557180045383
 30
0.0
 11
2498.509574378297
 21
203.1557180045382
 31
0.0
  0
LINE
  5
4778
330
37D8
100
AcDbEntity
  8
AM_5
100
AcDbLine
 10
2496.259574378297
 20
88.65571800453833
 30
0.0
 11
2496.259574378297
 21
198.6557180045382
 31
0.0
  0
SOLID
  5
4779
330
37D8
100
AcDbEntity
  8
AM_5
100
AcDbTrace
 10
2495.509574378297
 20
88.65571800453833
 30
0.0
 11
2497.009574378297
 21
88.65571800453833
 31
0.0
 12
2496.259574378297
 22
84.15571800453834
 32
0.0
 13
2496.259574378297
 23
84.15571800453834
 33
0.0
  0
SOLID
  5
477A
330
37D8
100
AcDbEntity
  8
AM_5
100
AcDbTrace
 10
2495.509574378297
 20
198.6557180045383
 30
0.0
 11
2497.009574378297
 21
198.6557180045382
 31
0.0
 12
2496.259574378297
 22
203.1557180045382
 32
0.0
 13
2496.259574378297
 23
203.1557180045382
 33
0.0
  0
MTEXT
  5
477B
330
37D8
100
AcDbEntity
  8
AM_5
100
AcDbMText
 10
2492.509574378297
 20
143.6557180045387
 30
0.0
 40
4.5
 41
0.0
 71
     5
 72
     1
  1
119
  7
CHINA
 11
0.0000000000000001
 21
1.0
 31
0.0
1001
ACAD
1000
MTEXTBEGIN
1070
    73
1070
     1
1070
    44
1040
1.0
1070
    74
1070
     0
1000
MTEXTEND
  0
POINT
  5
477C
330
37D8
100
AcDbEntity
  8
DEFPOINTS
 62
     0
100
AcDbPoint
 10
2463.259574378297
 20
84.15571800453836
 30
0.0
  0
POINT
  5
477D
330
37D8
100
AcDbEntity
  8
DEFPOINTS
 62
     0
100
AcDbPoint
 10
2483.259574378297
 20
203.1557180045383
 30
0.0
  0
POINT
  5
477E
330
37D8
100
AcDbEntity
  8
DEFPOINTS
 62
     0
100
AcDbPoint
 10
2496.259574378297
 20
203.1557180045382
 30
0.0
  0
ENDBLK
  5
37E3
330
37D8
100
AcDbEntity
  8
0
100
AcDbBlockEnd
  0
BLOCK
  5
4018
330
400E
100
AcDbEntity
  8
0
100
AcDbBlockBegin
  2
*D22
 70
     1
 10
0.0
 20
0.0
 30
0.0
  3
*D22
  1

  0
LINE
  5
47B5
330
400E
100
AcDbEntity
  8
AM_5
100
AcDbLine
 10
2364.259574378297
 20
227.1557180045383
 30
0.0
 11
2364.259574378297
 21
238.4057180045383
 31
0.0
  0
LINE
  5
47B6
330
400E
100
AcDbEntity
  8
AM_5
100
AcDbLine
 10
2484.259574378297
 20
227.1557180045383
 30
0.0
 11
2484.259574378297
 21
238.4057180045383
 31
0.0
  0
LINE
  5
47B7
330
400E
100
AcDbEntity
  8
AM_5
100
AcDbLine
 10
2368.759574378297
 20
236.1557180045383
 30
0.0
 11
2479.759574378297
 21
236.1557180045383
 31
0.0
  0
SOLID
  5
47B8
330
400E
100
AcDbEntity
  8
AM_5
100
AcDbTrace
 10
2368.759574378297
 20
236.9057180045383
 30
0.0
 11
2368.759574378297
 21
235.4057180045383
 31
0.0
 12
2364.259574378297
 22
236.1557180045383
 32
0.0
 13
2364.259574378297
 23
236.1557180045383
 33
0.0
  0
SOLID
  5
47B9
330
400E
100
AcDbEntity
  8
AM_5
100
AcDbTrace
 10
2479.759574378297
 20
236.9057180045383
 30
0.0
 11
2479.759574378297
 21
235.4057180045383
 31
0.0
 12
2484.259574378297
 22
236.1557180045383
 32
0.0
 13
2484.259574378297
 23
236.1557180045383
 33
0.0
  0
MTEXT
  5
47BA
330
400E
100
AcDbEntity
  8
AM_5
100
AcDbMText
 10
2424.259574378297
 20
239.9061117053257
 30
0.0
 40
4.5
 41
0.0
 71
     5
 72
     1
  1
120
  7
CHINA
1001
ACAD
1000
MTEXTBEGIN
1070
    73
1070
     1
1070
    44
1040
1.0
1070
    74
1070
     0
1000
MTEXTEND
  0
POINT
  5
47BB
330
400E
100
AcDbEntity
  8
DEFPOINTS
 62
     0
100
AcDbPoint
 10
2364.259574378297
 20
224.1557180045383
 30
0.0
  0
POINT
  5
47BC
330
400E
100
AcDbEntity
  8
DEFPOINTS
 62
     0
100
AcDbPoint
 10
2484.259574378297
 20
224.1557180045383
 30
0.0
  0
POINT
  5
47BD
330
400E
100
AcDbEntity
  8
DEFPOINTS
 62
     0
100
AcDbPoint
 10
2484.259574378297
 20
236.1557180045383
 30
0.0
  0
ENDBLK
  5
4019
330
400E
100
AcDbEntity
  8
0
100
AcDbBlockEnd
  0
BLOCK
  5
484D
330
4848
100
AcDbEntity
  8
0
100
AcDbBlockBegin
  2
*S23
 70
     1
 10
0.0
 20
0.0
 30
0.0
  3
*S23
  1

  0
LINE
  5
4849
330
4848
100
AcDbEntity
  8
AM_5
100
AcDbLine
 10
2494.270416365996
 20
270.8200428594395
 30
0.0
 11
2474.476474570571
 21
270.8200428594395
 31
0.0
  0
LINE
  5
484A
330
4848
100
AcDbEntity
  8
AM_5
100
AcDbLine
 10
2474.476474570571
 20
270.8200428594395
 30
0.0
 11
2461.593157177104
 21
283.1504588758916
 31
0.0
  0
TRACE
  5
484B
330
4848
100
AcDbEntity
  8
AM_5
100
AcDbTrace
 10
2461.866244495671
 20
283.4357915521398
 30
0.0
 11
2461.320069858537
 21
282.8651261996433
 31
0.0
 12
2459.425840318327
 22
285.224763008284
 32
0.0
 13
2459.425840318327
 23
285.224763008284
 33
0.0
  0
MTEXT
  5
484C
330
4848
100
AcDbEntity
  8
AM_5
 62
     2
100
AcDbMText
 10
2494.270416365996
 20
267.6106633251944
 30
0.0
 40
3.5
 41
0.0
 71
     7
 72
     1
  1

  7
ACISOTS
  0
ENDBLK
  5
484E
330
4848
100
AcDbEntity
  8
0
100
AcDbBlockEnd
  0
BLOCK
  5
4859
330
4854
100
AcDbEntity
  8
0
100
AcDbBlockBegin
  2
*S24
 70
     1
 10
0.0
 20
0.0
 30
0.0
  3
*S24
  1

  0
LINE
  5
4855
330
4854
100
AcDbEntity
  8
AM_5
100
AcDbLine
 10
2492.758914015988
 20
181.3104620495136
 30
0.0
 11
2471.295247044978
 21
181.3104620495136
 31
0.0
  0
LINE
  5
4856
330
4854
100
AcDbEntity
  8
AM_5
100
AcDbLine
 10
2471.295247044978
 20
181.3104620495136
 30
0.0
 11
2461.700372702486
 21
163.7870865057205
 31
0.0
  0
TRACE
  5
4857
330
4854
100
AcDbEntity
  8
AM_5
100
AcDbTrace
 10
2461.353946468779
 20
163.9767712027734
 30
0.0
 11
2462.046798936194
 21
163.5974018086676
 31
0.0
 12
2460.259574378297
 22
161.1557180045383
 32
0.0
 13
2460.259574378297
 23
161.1557180045383
 33
0.0
  0
MTEXT
  5
4858
330
4854
100
AcDbEntity
  8
AM_5
 62
     2
100
AcDbMText
 10
2492.758914015988
 20
187.7916902311507
 30
0.0
 40
3.5
 41
0.0
 71
     7
 72
     1
  1

  7
ACISOTS
  0
ENDBLK
  5
485A
330
4854
100
AcDbEntity
  8
0
100
AcDbBlockEnd
  0
ENDSEC
  0
SECTION
  2
ENTITIES
  0
POINT
  5
25
330
2
100
AcDbEntity
  8
0
 60
     1
100
AcDbPoint
 10
0.0
 20
0.0
 30
0.0
  0
POINT
  5
26
330
2
100
AcDbEntity
  8
0
 60
     1
100
AcDbPoint
 10
0.0
 20
0.0
 30
0.0
  0
POINT
  5
27
330
2
100
AcDbEntity
  8
0
 60
     1
100
AcDbPoint
 10
0.0
 20
0.0
 30
0.0
  0
POINT
  5
28
330
2
100
AcDbEntity
  8
0
 60
     1
100
AcDbPoint
 10
0.0
 20
0.0
 30
0.0
  0
POINT
  5
29
330
2
100
AcDbEntity
  8
0
 60
     1
100
AcDbPoint
 10
0.0
 20
0.0
 30
0.0
  0
POINT
  5
2A
330
2
100
AcDbEntity
  8
0
 60
     1
100
AcDbPoint
 10
0.0
 20
0.0
 30
0.0
  0
POINT
  5
2B
330
2
100
AcDbEntity
  8
0
 60
     1
100
AcDbPoint
 10
0.0
 20
0.0
 30
0.0
  0
POINT
  5
2C
330
2
100
AcDbEntity
  8
0
 60
     1
100
AcDbPoint
 10
0.0
 20
0.0
 30
0.0
  0
POINT
  5
2D
330
2
100
AcDbEntity
  8
0
 60
     1
100
AcDbPoint
 10
0.0
 20
0.0
 30
0.0
  0
POINT
  5
2E
330
2
100
AcDbEntity
  8
0
 60
     1
100
AcDbPoint
 10
0.0
 20
0.0
 30
0.0
  0
POINT
  5
2F
330
2
100
AcDbEntity
  8
0
 60
     1
100
AcDbPoint
 10
0.0
 20
0.0
 30
0.0
  0
POINT
  5
30
330
2
100
AcDbEntity
  8
0
 60
     1
100
AcDbPoint
 10
0.0
 20
0.0
 30
0.0
  0
DIMENSION
  5
31
330
2
100
AcDbEntity
  8
AM_PARDIM
 60
     1
100
AcDbDimension
  2
*D1
 10
114.5325708695175
 20
128.6938113892625
 30
0.0
 11
110.770366145108
 21
140.0442050900499
 31
0.0
 70
    32
  1
<>
  3
AM_ISO
100
AcDbAlignedDimension
 13
75.37464887656421
 23
116.1938113892625
 33
0.0
 14
75.37464887656421
 24
128.6938113892625
 34
0.0
 50
90.0
100
AcDbRotatedDimension
1001
ACAD_DIMASSOC_CALC_DIMLFAC
1040
-1.0
1001
ACAD
1000
DSTYLE
1002
{
1070
   144
1040
-1.0
1002
}
1001
AD_SKETCHDIM
1005
0
1000
d0
1001
ACAD_DIMASSOC_DIMLFAC
1040
-1.0
  0
DIMENSION
  5
43
330
2
100
AcDbEntity
  8
AM_PARDIM
 60
     1
100
AcDbDimension
  2
*D2
 10
26.87464887656421
 20
122.1938113892625
 30
0.0
 11
23.12464887656418
 21
119.1938113892625
 31
0.0
 70
    32
  1
<>
  3
AM_ISO
100
AcDbAlignedDimension
 13
38.8746488765642
 23
116.1938113892625
 33
0.0
 14
38.8746488765642
 24
122.1938113892624
 34
0.0
 50
90.0
100
AcDbRotatedDimension
1001
ACAD_DIMASSOC_CALC_DIMLFAC
1040
-1.0
1001
ACAD
1000
DSTYLE
1002
{
1070
   144
1040
-1.0
1002
}
1001
AD_SKETCHDIM
1005
0
1000
d1
1001
ACAD_DIMASSOC_DIMLFAC
1040
-1.0
  0
DIMENSION
  5
52
330
2
100
AcDbEntity
  8
AM_PARDIM
 60
     1
100
AcDbDimension
  2
*D3
 10
50.87464887656421
 20
140.6938113892624
 30
0.0
 11
44.87464887656421
 21
144.4442050900499
 31
0.0
 70
    32
  1
<>
  3
AM_ISO
100
AcDbAlignedDimension
 13
38.8746488765642
 23
122.1938113892624
 33
0.0
 14
50.87464887656421
 24
122.1938113892624
 34
0.0
100
AcDbRotatedDimension
1001
ACAD_DIMASSOC_CALC_DIMLFAC
1040
-1.0
1001
ACAD
1000
DSTYLE
1002
{
1070
   144
1040
-1.0
1002
}
1001
AD_SKETCHDIM
1005
0
1000
d2
1001
ACAD_DIMASSOC_DIMLFAC
1040
-1.0
  0
DIMENSION
  5
5F
330
2
100
AcDbEntity
  8
AM_PARDIM
 60
     1
100
AcDbDimension
  2
*D4
 10
75.37464887656421
 20
160.6938113892624
 30
0.0
 11
57.12464887656421
 21
164.4556224128845
 31
0.0
 70
    32
  1
<>
  3
AM_ISO
100
AcDbAlignedDimension
 13
38.8746488765642
 23
116.1938113892625
 33
0.0
 14
75.37464887656421
 24
116.1938113892625
 34
0.0
100
AcDbRotatedDimension
1001
ACAD_DIMASSOC_CALC_DIMLFAC
1040
-1.0
1001
ACAD
1000
DSTYLE
1002
{
1070
   144
1040
-1.0
1002
}
1001
AD_SKETCHDIM
1005
0
1000
d3
1001
ACAD_DIMASSOC_DIMLFAC
1040
-1.0
  0
DIMENSION
  5
6C
330
2
100
AcDbEntity
  8
AM_PARDIM
 60
     1
100
AcDbDimension
  2
*D5
 10
104.5325708695175
 20
116.1938113892624
 30
0.0
 11
100.7825708695175
 21
121.6938113892625
 31
0.0
 70
    32
  1
<>
  3
AM_ISO
100
AcDbAlignedDimension
 13
50.87464887656421
 23
127.1938113892624
 33
0.0
 14
75.37464887656421
 24
116.1938113892625
 34
0.0
 50
90.0
100
AcDbRotatedDimension
1001
ACAD_DIMASSOC_CALC_DIMLFAC
1040
-1.0
1001
ACAD
1000
DSTYLE
1002
{
1070
   144
1040
-1.0
1002
}
1001
AD_SKETCHDIM
1005
0
1000
d4
1001
ACAD_DIMASSOC_DIMLFAC
1040
-1.0
  0
DIMENSION
  5
79
330
2
100
AcDbEntity
  8
AM_PARDIM
 60
     1
100
AcDbDimension
  2
*D6
 10
75.37464887656421
 20
150.6938113892624
 30
0.0
 11
70.87464887656421
 21
154.4438113892624
 31
0.0
 70
    32
  1
<>
  3
AM_ISO
100
AcDbAlignedDimension
 13
66.3746488765642
 23
128.6938113892625
 33
0.0
 14
75.37464887656421
 24
128.6938113892625
 34
0.0
100
AcDbRotatedDimension
1001
ACAD_DIMASSOC_CALC_DIMLFAC
1040
-1.0
1001
ACAD
1000
DSTYLE
1002
{
1070
   144
1040
-1.0
1002
}
1001
AD_SKETCHDIM
1005
0
1000
d5
1001
ACAD_DIMASSOC_DIMLFAC
1040
-1.0
  0
DIMENSION
  5
86
330
2
100
AcDbEntity
  8
AM_PARDIM
 60
     1
100
AcDbDimension
  2
*D7
 10
66.37464887656418
 20
140.6938113892624
 30
0.0
 11
80.70653864034371
 21
144.4560161136719
 31
0.0
 70
    32
  1
<>
  3
AM_ISO
100
AcDbAlignedDimension
 13
63.87464887656418
 23
128.6938113892624
 33
0.0
 14
66.37464887656418
 24
128.6938113892624
 34
0.0
100
AcDbRotatedDimension
1001
ACAD_DIMASSOC_CALC_DIMLFAC
1040
-1.0
1001
ACAD
1000
DSTYLE
1002
{
1070
   144
1040
-1.0
1002
}
1001
AD_SKETCHDIM
1005
0
1000
d25
1001
ACAD_DIMASSOC_DIMLFAC
1040
-1.0
  0
DIMENSION
  5
95
330
2
100
AcDbEntity
  8
AM_PARDIM
 60
     1
100
AcDbDimension
  2
*D8
 10
66.37464887656418
 20
136.030378563861
 30
0.0
 11
78.07464887656418
 21
139.780378563861
 31
0.0
 70
    32
  1
<>
  3
AM_ISO
100
AcDbAlignedDimension
 13
66.37464887656418
 23
128.6938113892624
 33
0.0
 14
66.37464887656418
 24
116.1938113892624
 34
0.0
100
AcDbRotatedDimension
1001
ACAD_DIMASSOC_CALC_DIMLFAC
1040
-1.0
1001
ACAD
1000
DSTYLE
1002
{
1070
   144
1040
-1.0
1002
}
1001
AD_SKETCHDIM
1005
0
1000
d26
1001
ACAD_DIMASSOC_DIMLFAC
1040
-1.0
  0
DIMENSION
  5
A3
330
2
100
AcDbEntity
  8
AM_PARDIM
 60
     1
100
AcDbDimension
  2
*D9
 10
94.53257086951754
 20
116.1938113892624
 30
0.0
 11
90.77075984589546
 21
102.043417688475
 31
0.0
 70
    32
  1
<>
  3
AM_ISO
100
AcDbAlignedDimension
 13
63.87464887656418
 23
125.6938113892624
 33
0.0
 14
82.53257086951753
 24
116.1938113892624
 34
0.0
 50
90.0
100
AcDbRotatedDimension
1001
ACAD_DIMASSOC_CALC_DIMLFAC
1040
-1.0
1001
ACAD
1000
DSTYLE
1002
{
1070
   144
1040
-1.0
1002
}
1001
AD_SKETCHDIM
1005
0
1000
d27
1001
ACAD_DIMASSOC_DIMLFAC
1040
-1.0
  0
DIMENSION
  5
B0
330
2
100
AcDbEntity
  8
AM_PARDIM
 60
     1
100
AcDbDimension
  2
*D10
 10
124.5325708695175
 20
116.1938113892624
 30
0.0
 11
120.770366145108
 21
104.843417688475
 31
0.0
 70
    32
  1
<>
  3
AM_ISO
100
AcDbAlignedDimension
 13
66.37464887656418
 23
128.6938113892624
 33
0.0
 14
82.53257086951753
 24
116.1938113892624
 34
0.0
 50
90.0
100
AcDbRotatedDimension
1001
ACAD_DIMASSOC_CALC_DIMLFAC
1040
-1.0
1001
ACAD
1000
DSTYLE
1002
{
1070
   144
1040
-1.0
1002
}
1001
AD_SKETCHDIM
1005
0
1000
d28
1001
ACAD_DIMASSOC_DIMLFAC
1040
-1.0
  0
LINE
  5
C8
330
2
100
AcDbEntity
  8
AM_7
 60
     1
100
AcDbLine
 10
36.3746488765642
 20
116.1938113892624
 30
0.0
 11
51.3746488765642
 21
116.1938113892624
 31
0.0
  0
MTEXT
  5
151
330
2
100
AcDbEntity
  8
AM_5
 62
     5
100
AcDbMText
 10
33.56078100938998
 20
98.94002315335121
 30
0.0
 40
3.5
 41
0.0
 71
     9
 72
     1
  1

  7
ACISOTS
1001
ACAD
1000
MTEXTBEGIN
1070
    73
1070
     1
1070
    44
1040
1.0
1070
    74
1070
     0
1000
MTEXTEND
  0
MTEXT
  5
156
330
2
100
AcDbEntity
  8
AM_5
 62
     5
100
AcDbMText
 10
67.11527269722637
 20
92.4148402526181
 30
0.0
 40
3.5
 41
0.0
 71
     9
 72
     1
  1

  7
ACISOTS
1001
ACAD
1000
MTEXTBEGIN
1070
    73
1070
     1
1070
    44
1040
1.0
1070
    74
1070
     0
1000
MTEXTEND
  0
CIRCLE
  5
124B
330
2
100
AcDbEntity
  8
LOGO
  6
CONTINUOUS
 62
     6
100
AcDbCircle
 10
2381.592359541949
 20
45.13250166597837
 30
0.0
 40
3.413371530910622
  0
TEXT
  5
124C
330
2
100
AcDbEntity
  8
LOGO
 62
     6
100
AcDbText
 10
2379.526194231684
 20
53.93813171853655
 30
0.0
 40
5.878803237134922
  1
1 : 1
  7
CHINESET
 72
     1
 11
2389.884085649493
 21
56.87753333710401
 31
0.0
100
AcDbText
 73
     2
  0
TEXT
  5
124D
330
2
100
AcDbEntity
  8
LOGO
 62
     6
100
AcDbText
 10
2379.526194231684
 20
30.42291876999685
 30
0.0
 40
5.878803237134922
  1
m/m
  7
CHINESET
 72
     1
 11
2389.884085649493
 21
33.36232038856431
 31
0.0
100
AcDbText
 73
     2
  0
LINE
  5
124E
330
2
100
AcDbEntity
  8
LOGO
 62
     1
100
AcDbLine
 10
2409.899041620208
 20
39.24112362569926
 30
0.0
 11
2323.67659414223
 21
39.24112362569926
 31
0.0
  0
LINE
  5
124F
330
2
100
AcDbEntity
  8
LOGO
 62
     1
100
AcDbLine
 10
2409.899041620208
 20
50.99873009996912
 30
0.0
 11
2323.67659414223
 21
50.99873009996912
 31
0.0
  0
TEXT
  5
1250
330
2
100
AcDbEntity
  8
LOGO
  6
CONTINUOUS
 62
     5
100
AcDbText
 10
2285.01460396836
 20
6.697191910884697
 30
0.0
 40
5.878803237134922
  1
MINDMAN INDUSTRIAL CO.,LTD
 41
0.85
  7
CHINESET
100
AcDbText
  0
TEXT
  5
1251
330
2
100
AcDbEntity
  8
LOGO
  6
CONTINUOUS
 62
     5
100
AcDbText
 10
2282.489601961093
 20
15.51712444336487
 30
0.0
 40
8.818204855702383
  1
金器工業股份有限公司
 41
0.8
  7
LOGO
100
AcDbText
  0
LINE
  5
1252
330
2
100
AcDbEntity
  8
LOGO
 62
     1
100
AcDbLine
 10
2409.899041620208
 20
27.48351715142945
 30
0.0
 11
2280.56537040324
 21
27.48351715142945
 31
0.0
  0
LINE
  5
1256
330
2
100
AcDbEntity
  8
LOGO
 62
     1
100
AcDbLine
 10
2715.533282348182
 20
3.968304202889697
 30
0.0
 11
2280.56537040324
 21
3.968304202889697
 31
0.0
  0
LINE
  5
1257
330
2
100
AcDbEntity
  8
LOGO
 62
     1
100
AcDbLine
 10
2715.533282348182
 20
62.75633657423895
 30
0.0
 11
2280.56537040324
 21
62.75633657423895
 31
0.0
  0
LINE
  5
1258
330
2
100
AcDbEntity
  8
0
 62
     4
100
AcDbLine
 10
2280.56537040324
 20
378.7759417620137
 30
0.0
 11
2715.533282348182
 21
378.7759417620137
 31
0.0
  0
LINE
  5
1259
330
2
100
AcDbEntity
  8
0
 62
     4
100
AcDbLine
 10
2715.533282348182
 20
62.75633657423895
 30
0.0
 11
2280.56537040324
 21
62.75633657423895
 31
0.0
  0
LINE
  5
125A
330
2
100
AcDbEntity
  8
0
 62
     4
100
AcDbLine
 10
2280.56537040324
 20
62.75633657423895
 30
0.0
 11
2280.56537040324
 21
378.7759417620137
 31
0.0
  0
SOLID
  5
125B
330
2
100
AcDbEntity
  8
LOGO
 62
     5
100
AcDbTrace
 10
2303.405808959336
 20
39.18448336240667
 30
0.0
 11
2305.947649219276
 21
48.50456431552124
 31
0.0
 12
2315.501462610086
 22
61.35984838878272
 32
0.0
 13
2312.959622350145
 23
61.35984838878272
 33
0.0
  0
SOLID
  5
125C
330
2
100
AcDbEntity
  8
LOGO
 62
     5
100
AcDbTrace
 10
2303.405808959336
 20
61.35984838878107
 30
0.0
 11
2305.947649219276
 21
61.35984838878272
 31
0.0
 12
2303.405808959336
 22
39.18448336240667
 32
0.0
 13
2305.947649219276
 23
48.50456431552124
 33
0.0
  0
POLYLINE
  5
125D
330
2
100
AcDbEntity
  8
LOGO
 62
     5
100
AcDb2dPolyline
 66
     1
 10
0.0
 20
0.0
 30
0.0
 40
0.8779012834121484
 41
0.8779012834121484
  0
VERTEX
  5
125E
330
125D
100
AcDbEntity
  8
LOGO
 62
     5
100
AcDbVertex
100
AcDb2dVertex
 10
2306.095780522807
 20
31.12071426190723
 30
0.0
 42
1.0
  0
VERTEX
  5
125F
330
125D
100
AcDbEntity
  8
LOGO
 62
     5
100
AcDbVertex
100
AcDb2dVertex
 10
2303.462076672571
 20
31.12071426190723
 30
0.0
 42
1.0
  0
SEQEND
  5
1260
330
125D
100
AcDbEntity
  8
LOGO
 62
     5
  0
SOLID
  5
1261
330
2
100
AcDbEntity
  8
LOGO
 62
     5
100
AcDbTrace
 10
2303.025935314972
 20
32.87370754462466
 30
0.0
 11
2303.90243195633
 21
32.87370754462466
 31
0.0
 12
2303.025935314972
 22
28.49122433783193
 32
0.0
 13
2303.90243195633
 23
28.49122433783193
 33
0.0
  0
SOLID
  5
1262
330
2
100
AcDbEntity
  8
LOGO
 62
     2
100
AcDbTrace
 10
2302.354012989705
 20
37.25619075141833
 30
0.0
 11
2303.405808959336
 21
37.25619075141833
 31
0.0
 12
2315.501462610086
 22
61.35984838878272
 32
0.0
 13
2316.553258579716
 23
61.35984838878107
 33
0.0
  0
SOLID
  5
1263
330
2
100
AcDbEntity
  8
LOGO
 62
     5
100
AcDbTrace
 10
2303.405808959336
 20
37.25619075141833
 30
0.0
 11
2305.947649219276
 21
37.25619075141833
 31
0.0
 12
2315.501462610086
 22
59.43155577779274
 32
0.0
 13
2312.959622350145
 23
50.11147482467817
 33
0.0
  0
SOLID
  5
1264
330
2
100
AcDbEntity
  8
LOGO
 62
     2
100
AcDbTrace
 10
2302.354012989705
 20
61.35984838878107
 30
0.0
 11
2303.405808959336
 21
61.35984838878107
 31
0.0
 12
2302.354012989705
 22
37.25619075141833
 32
0.0
 13
2303.405808959336
 23
37.25619075141833
 33
0.0
  0
SOLID
  5
1265
330
2
100
AcDbEntity
  8
LOGO
 62
     5
100
AcDbTrace
 10
2299.812172729765
 20
37.25619075141833
 30
0.0
 11
2302.354012989705
 21
37.25619075141833
 31
0.0
 12
2299.812172729765
 22
50.11147482467817
 32
0.0
 13
2302.354012989705
 23
59.43155577779274
 33
0.0
  0
LINE
  5
1266
330
2
100
AcDbEntity
  8
LOGO
 62
     1
100
AcDbLine
 10
2280.56537040324
 20
3.968304202889697
 30
0.0
 11
2280.56537040324
 21
62.75633657423895
 31
0.0
  0
SOLID
  5
1267
330
2
100
AcDbEntity
  8
LOGO
 62
     2
100
AcDbTrace
 10
2289.206563369324
 20
37.25619075141745
 30
0.0
 11
2290.258359338956
 21
37.25619075141833
 31
0.0
 12
2302.354012989705
 22
61.35984838878107
 32
0.0
 13
2303.405808959336
 23
61.35984838878107
 33
0.0
  0
SOLID
  5
1268
330
2
100
AcDbEntity
  8
LOGO
 62
     5
100
AcDbTrace
 10
2290.258359338956
 20
37.25619075141833
 30
0.0
 11
2292.800199598896
 21
37.25619075141833
 31
0.0
 12
2302.354012989705
 22
59.43155577779274
 32
0.0
 13
2299.812172729765
 23
50.11147482467817
 33
0.0
  0
SOLID
  5
1269
330
2
100
AcDbEntity
  8
LOGO
 62
     5
100
AcDbTrace
 10
2286.664723109384
 20
37.25619075141833
 30
0.0
 11
2289.206563369324
 21
37.25619075141745
 31
0.0
 12
2299.812172729765
 22
61.35984838878272
 32
0.0
 13
2302.354012989705
 23
61.35984838878107
 33
0.0
  0
SOLID
  5
126A
330
2
100
AcDbEntity
  8
LOGO
 62
     5
100
AcDbTrace
 10
2282.589529837114
 20
28.49122433783193
 30
0.0
 11
2283.466026478474
 21
28.49122433783193
 31
0.0
 12
2285.934309241586
 22
32.87370754462466
 32
0.0
 13
2286.810805882944
 23
32.87370754462466
 33
0.0
  0
POLYLINE
  5
126B
330
2
100
AcDbEntity
  8
LOGO
 62
     5
100
AcDb2dPolyline
 66
     1
 10
0.0
 20
0.0
 30
0.0
 70
     1
 40
0.8779012834121484
 41
0.8779012834121484
  0
VERTEX
  5
126C
330
126B
100
AcDbEntity
  8
LOGO
 62
     5
100
AcDbVertex
100
AcDb2dVertex
 10
2298.05637016294
 20
30.68246594122783
 30
0.0
 42
1.0
  0
VERTEX
  5
126D
330
126B
100
AcDbEntity
  8
LOGO
 62
     5
100
AcDbVertex
100
AcDb2dVertex
 10
2301.567975296589
 20
30.68246594122783
 30
0.0
 42
1.0
  0
SEQEND
  5
126E
330
126B
100
AcDbEntity
  8
LOGO
 62
     5
  0
SOLID
  5
126F
330
2
100
AcDbEntity
  8
LOGO
 62
     5
100
AcDbTrace
 10
2301.12683004214
 20
34.18845250666322
 30
0.0
 11
2302.003326683498
 21
34.18845250666322
 31
0.0
 12
2301.12683004214
 22
28.49122433783193
 32
0.0
 13
2302.003326683498
 23
28.49122433783193
 33
0.0
  0
SOLID
  5
1270
330
2
100
AcDbEntity
  8
LOGO
 62
     5
100
AcDbTrace
 10
2291.193143006964
 20
32.87370754462466
 30
0.0
 11
2292.069639648324
 21
32.87370754462466
 31
0.0
 12
2291.193143006964
 22
28.49122433783026
 32
0.0
 13
2292.069639648324
 23
28.49122433783193
 33
0.0
  0
SOLID
  5
1271
330
2
100
AcDbEntity
  8
LOGO
 62
     5
100
AcDbTrace
 10
2293.092248279797
 20
32.87370754462466
 30
0.0
 11
2293.968744921154
 21
32.87370754462466
 31
0.0
 12
2293.092248279797
 22
28.49122433783193
 32
0.0
 13
2293.968744921154
 23
28.49122433783193
 33
0.0
  0
SOLID
  5
1272
330
2
100
AcDbEntity
  8
LOGO
 62
     5
100
AcDbTrace
 10
2285.934309241586
 20
28.49122433783193
 30
0.0
 11
2286.810805882944
 21
28.49122433783193
 31
0.0
 12
2289.279088646059
 22
32.87370754462466
 32
0.0
 13
2290.155585287416
 23
32.87370754462466
 33
0.0
  0
SOLID
  5
1273
330
2
100
AcDbEntity
  8
LOGO
 62
     5
100
AcDbTrace
 10
2285.934309241586
 20
32.87370754462466
 30
0.0
 11
2286.810805882944
 21
32.87370754462466
 31
0.0
 12
2285.934309241586
 22
28.49122433783193
 32
0.0
 13
2286.810805882944
 23
28.49122433783193
 33
0.0
  0
SOLID
  5
1274
330
2
100
AcDbEntity
  8
LOGO
 62
     5
100
AcDbTrace
 10
2289.279088646059
 20
32.87370754462466
 30
0.0
 11
2290.155585287416
 21
32.87370754462466
 31
0.0
 12
2289.279088646059
 22
28.49122433783193
 32
0.0
 13
2290.155585287416
 23
28.49122433783193
 33
0.0
  0
SOLID
  5
1275
330
2
100
AcDbEntity
  8
LOGO
 62
     5
100
AcDbTrace
 10
2295.721738203872
 20
31.12071426190723
 30
0.0
 11
2296.598234845232
 21
31.12071426190723
 31
0.0
 12
2295.721738203872
 22
28.49122433783193
 32
0.0
 13
2296.598234845232
 23
28.49122433783193
 33
0.0
  0
POLYLINE
  5
1276
330
2
100
AcDbEntity
  8
LOGO
 62
     5
100
AcDb2dPolyline
 66
     1
 10
0.0
 20
0.0
 30
0.0
 40
0.8779012834121484
 41
0.8779012834121484
  0
VERTEX
  5
1277
330
1276
100
AcDbEntity
  8
LOGO
 62
     5
100
AcDbVertex
100
AcDb2dVertex
 10
2296.162093487632
 20
31.12071426190723
 30
0.0
 42
1.0
  0
VERTEX
  5
1278
330
1276
100
AcDbEntity
  8
LOGO
 62
     5
100
AcDbVertex
100
AcDb2dVertex
 10
2293.528389637395
 20
31.12071426190723
 30
0.0
 42
1.0
  0
SEQEND
  5
1279
330
1276
100
AcDbEntity
  8
LOGO
 62
     5
  0
SOLID
  5
127A
330
2
100
AcDbEntity
  8
LOGO
 62
     5
100
AcDbTrace
 10
2291.193143006964
 20
33.48725519357538
 30
0.0
 11
2292.069639648324
 21
33.48725519357538
 31
0.0
 12
2291.193143006964
 22
34.18845250666322
 32
0.0
 13
2292.069639648324
 23
34.18845250666322
 33
0.0
  0
LINE
  5
127B
330
2
100
AcDbEntity
  8
LOGO
 62
     1
100
AcDbLine
 10
2370.707020039309
 20
27.48351715142942
 30
0.0
 11
2370.707020039309
 21
62.75633657423895
 31
0.0
  0
LINE
  5
127C
330
2
100
AcDbEntity
  8
LOGO
 62
     1
100
AcDbLine
 10
2323.67659414223
 20
27.48351715142942
 30
0.0
 11
2323.67659414223
 21
62.75633657423895
 31
0.0
  0
SOLID
  5
127D
330
2
100
AcDbEntity
  8
LOGO
 62
     2
100
AcDbTrace
 10
2315.501462610086
 20
61.35984838878272
 30
0.0
 11
2316.553258579716
 21
61.35984838878107
 31
0.0
 12
2315.501462610086
 22
37.25619075141745
 32
0.0
 13
2316.553258579716
 23
37.25619075141745
 33
0.0
  0
SOLID
  5
127E
330
2
100
AcDbEntity
  8
LOGO
 62
     5
100
AcDbTrace
 10
2315.501462610086
 20
59.43155577779274
 30
0.0
 11
2312.959622350145
 21
50.11147482467817
 31
0.0
 12
2315.501462610086
 22
37.25619075141745
 32
0.0
 13
2312.959622350145
 23
37.25619075141745
 33
0.0
  0
SOLID
  5
127F
330
2
100
AcDbEntity
  8
LOGO
 62
     5
100
AcDbTrace
 10
2316.553258579716
 20
37.25619075141745
 30
0.0
 11
2319.095098839656
 21
37.25619075141745
 31
0.0
 12
2316.553258579716
 22
61.35984838878107
 32
0.0
 13
2319.095098839656
 23
61.35984838878272
 33
0.0
  0
TEXT
  5
1280
330
2
100
AcDbEntity
  8
LOGO
 62
     6
100
AcDbText
 10
2331.15369700946
 20
30.42291876999685
 30
0.0
 40
5.878803237134922
  1
單位 Unit:
 41
0.9
  7
CHINESET
 72
     4
 11
2347.191807090769
 21
33.36232038856431
 31
0.0
100
AcDbText
  0
CIRCLE
  5
1281
330
2
100
AcDbEntity
  8
LOGO
 62
     5
100
AcDbCircle
 10
2312.375349689016
 20
30.68246594122834
 30
0.0
 40
1.314744962038034
  0
POLYLINE
  5
1282
330
2
100
AcDbEntity
  8
LOGO
 62
     5
100
AcDb2dPolyline
 66
     1
 10
0.0
 20
0.0
 30
0.0
 70
     1
  0
VERTEX
  5
1283
330
1282
100
AcDbEntity
  8
LOGO
 62
     5
100
AcDbVertex
100
AcDb2dVertex
 10
2311.060604726978
 20
30.68246594122834
 30
0.0
 42
1.000000057330635
  0
VERTEX
  5
1284
330
1282
100
AcDbEntity
  8
LOGO
 62
     5
100
AcDbVertex
100
AcDb2dVertex
 10
2313.690094651053
 20
30.68246594122834
 30
0.0
 42
1.000000057330635
  0
SEQEND
  5
1285
330
1282
100
AcDbEntity
  8
LOGO
 62
     5
  0
SOLID
  5
1286
330
2
100
AcDbEntity
  8
LOGO
 62
     5
100
AcDbTrace
 10
2318.218602198299
 20
31.12071426190723
 30
0.0
 11
2319.095098839656
 21
31.12071426190712
 31
0.0
 12
2318.218602198299
 22
28.49122433783193
 32
0.0
 13
2319.095098839656
 23
28.49122433783193
 33
0.0
  0
SOLID
  5
1287
330
2
100
AcDbEntity
  8
LOGO
 62
     5
100
AcDbTrace
 10
2315.589112274221
 20
28.49122433783193
 30
0.0
 11
2316.465608915581
 21
28.49122433783193
 31
0.0
 12
2315.589112274221
 22
32.87370754462466
 32
0.0
 13
2316.465608915581
 23
32.87370754462466
 33
0.0
  0
SOLID
  5
1288
330
2
100
AcDbEntity
  8
LOGO
 62
     5
100
AcDbTrace
 10
2313.690007001392
 20
32.87370754462466
 30
0.0
 11
2314.566503642749
 21
32.87370754462466
 31
0.0
 12
2313.690007001392
 22
28.49122433783193
 32
0.0
 13
2314.566503642749
 23
28.49122433783193
 33
0.0
  0
LINE
  5
1289
330
2
100
AcDbEntity
  8
LOGO
 62
     5
100
AcDbLine
 10
2319.095098839656
 20
28.49122433783193
 30
0.0
 11
2319.095098839656
 21
31.12071426190723
 31
0.0
  0
POLYLINE
  5
128A
330
2
100
AcDbEntity
  8
LOGO
 62
     5
100
AcDb2dPolyline
 66
     1
 10
0.0
 20
0.0
 30
0.0
 70
     1
 40
0.8779012834121484
 41
0.8779012834121484
  0
VERTEX
  5
128B
330
128A
100
AcDbEntity
  8
LOGO
 62
     5
100
AcDbVertex
100
AcDb2dVertex
 10
2310.619547122191
 20
30.68246594122783
 30
0.0
 42
1.0
  0
VERTEX
  5
128C
330
128A
100
AcDbEntity
  8
LOGO
 62
     5
100
AcDbVertex
100
AcDb2dVertex
 10
2314.13115225584
 20
30.68246594122783
 30
0.0
 42
1.0
  0
SEQEND
  5
128D
330
128A
100
AcDbEntity
  8
LOGO
 62
     5
  0
SOLID
  5
128E
330
2
100
AcDbEntity
  8
LOGO
 62
     5
100
AcDbTrace
 10
2305.655425239048
 20
31.12071426190723
 30
0.0
 11
2306.531921880405
 21
31.12071426190723
 31
0.0
 12
2305.655425239048
 22
28.49122433783193
 32
0.0
 13
2306.531921880405
 23
28.49122433783193
 33
0.0
  0
SOLID
  5
128F
330
2
100
AcDbEntity
  8
LOGO
 62
     5
100
AcDbTrace
 10
2308.284915163123
 20
31.12071426190723
 30
0.0
 11
2309.161411804481
 21
31.12071426190723
 31
0.0
 12
2308.284915163123
 22
28.49122433783026
 32
0.0
 13
2309.161411804481
 23
28.49122433783026
 33
0.0
  0
POLYLINE
  5
1290
330
2
100
AcDbEntity
  8
LOGO
 62
     5
100
AcDb2dPolyline
 66
     1
 10
0.0
 20
0.0
 30
0.0
 40
0.8779012834121484
 41
0.8779012834121484
  0
VERTEX
  5
1291
330
1290
100
AcDbEntity
  8
LOGO
 62
     5
100
AcDbVertex
100
AcDb2dVertex
 10
2308.725270446883
 20
31.12071426190723
 30
0.0
 42
1.0
  0
VERTEX
  5
1292
330
1290
100
AcDbEntity
  8
LOGO
 62
     5
100
AcDbVertex
100
AcDb2dVertex
 10
2306.091566596646
 20
31.12071426190723
 30
0.0
 42
1.0
  0
SEQEND
  5
1293
330
1290
100
AcDbEntity
  8
LOGO
 62
     5
  0
POLYLINE
  5
1294
330
2
100
AcDbEntity
  8
LOGO
 62
     5
100
AcDb2dPolyline
 66
     1
 10
0.0
 20
0.0
 30
0.0
 40
0.8779012834121484
 41
0.8779012834121484
  0
VERTEX
  5
1295
330
1294
100
AcDbEntity
  8
LOGO
 62
     5
100
AcDbVertex
100
AcDb2dVertex
 10
2318.658957482058
 20
31.12071426190723
 30
0.0
 42
1.0
  0
VERTEX
  5
1296
330
1294
100
AcDbEntity
  8
LOGO
 62
     5
100
AcDbVertex
100
AcDb2dVertex
 10
2316.025253631822
 20
31.12071426190723
 30
0.0
 42
1.0
  0
SEQEND
  5
1297
330
1294
100
AcDbEntity
  8
LOGO
 62
     5
  0
TEXT
  5
1298
330
2
100
AcDbEntity
  8
LOGO
 62
     6
100
AcDbText
 10
2330.578939014401
 20
42.26322002405414
 30
0.0
 40
5.878803237134922
  1
投影 View:
 41
0.9
  7
CHINESET
 72
     4
 11
2347.191807090769
 21
45.11992686283415
 31
0.0
100
AcDbText
  0
TEXT
  5
1299
330
2
100
AcDbEntity
  8
LOGO
 62
     6
100
AcDbText
 10
2328.523982347135
 20
53.94102483036585
 30
0.0
 40
5.878803237134922
  1
比例 Scale:
 41
0.9
  7
CHINESET
 72
     4
 11
2347.191807090769
 21
56.87753333710401
 31
0.0
100
AcDbText
  0
CIRCLE
  5
129A
330
2
100
AcDbEntity
  8
LOGO
  6
CONTINUOUS
 62
     6
100
AcDbCircle
 10
2381.592359541949
 20
45.13250166597837
 30
0.0
 40
1.999933548428289
  0
LINE
  5
12BA
330
2
100
AcDbEntity
  8
0
 62
     4
100
AcDbLine
 10
2715.533282348182
 20
378.7759417620137
 30
0.0
 11
2715.533282348182
 21
62.75633657423895
 31
0.0
  0
LINE
  5
12BB
330
2
100
AcDbEntity
  8
LOGO
 62
     6
100
AcDbLine
 10
2707.732444978229
 20
8.86730690050237
 30
0.0
 11
2655.512874398207
 21
8.867306900502285
 31
0.0
  0
LINE
  5
12BC
330
2
100
AcDbEntity
  8
LOGO
 62
     6
100
AcDbLine
 10
2707.732444978229
 20
30.42300076911237
 30
0.0
 11
2655.512874398207
 21
30.42300076911237
 31
0.0
  0
LINE
  5
12BD
330
2
100
AcDbEntity
  8
LOGO
 62
     6
100
AcDbLine
 10
2707.732444978229
 20
39.24117829177621
 30
0.0
 11
2655.512874398207
 21
39.24117829177629
 31
0.0
  0
LINE
  5
12BE
330
2
100
AcDbEntity
  8
LOGO
 62
     6
100
AcDbLine
 10
2707.732444978229
 20
56.87753333710429
 30
0.0
 11
2655.512874398207
 21
56.87753333710412
 31
0.0
  0
LINE
  5
12BF
330
2
100
AcDbEntity
  8
LOGO
 62
     6
100
AcDbLine
 10
2598.459333473047
 20
39.24117829177617
 30
0.0
 11
2541.141179575731
 21
39.24117829177621
 31
0.0
  0
LINE
  5
12C0
330
2
100
AcDbEntity
  8
LOGO
 62
     6
100
AcDbLine
 10
2598.459333473047
 20
56.87753333710429
 30
0.0
 11
2541.141179575731
 21
56.87753333710401
 31
0.0
  0
LINE
  5
12C1
330
2
100
AcDbEntity
  8
LOGO
 62
     6
100
AcDbLine
 10
2598.459333473047
 20
8.867306900502285
 30
0.0
 11
2541.141179575731
 21
8.867306900502285
 31
0.0
  0
LINE
  5
12C2
330
2
100
AcDbEntity
  8
LOGO
 62
     6
100
AcDbLine
 10
2598.459333473047
 20
30.42300076911232
 30
0.0
 11
2541.141179575731
 21
30.42300076911232
 31
0.0
  0
TEXT
  5
12C3
330
2
100
AcDbEntity
  8
LOGO
 62
     6
100
AcDbText
 10
2543.299066932468
 20
11.31681584181917
 30
0.0
 40
4.898987512591059
  1
Rotating direction
 41
0.8
  7
ROMANS1
 72
     1
 11
2569.80025652439
 21
13.7663095981147
 31
0.0
100
AcDbText
 73
     2
  0
TEXT
  5
12C4
330
2
100
AcDbEntity
  8
LOGO
 62
     7
100
AcDbText
 10
2413.304854881928
 20
37.00229995620273
 30
0.0
 40
7.838404316179898
  1
Order example:
 41
0.8
  7
CHINESET
100
AcDbText
  0
LINE
  5
12C5
330
2
100
AcDbEntity
  8
LOGO
 62
     1
100
AcDbLine
 10
2409.899041620208
 20
3.968304202889697
 30
0.0
 11
2409.899041620208
 21
62.75633657423895
 31
0.0
  0
TEXT
  5
12C6
330
2
100
AcDbEntity
  8
LOGO
 62
     7
100
AcDbText
 10
2414.711129437218
 20
48.0371502710615
 30
0.0
 40
11.75760647426984
  1
訂購代號:
  7
CHINESET
100
AcDbText
  0
LINE
  5
12C7
330
2
100
AcDbEntity
  8
LOGO
 62
     6
100
AcDbLine
 10
2403.042382313076
 20
41.71913013506778
 30
0.0
 11
2403.042382313076
 21
48.54587319688906
 31
0.0
  0
LINE
  5
12C8
330
2
100
AcDbEntity
  8
LOGO
  6
CONTINUOUS
 62
     6
100
AcDbLine
 10
2392.341658500546
 20
47.13243521440674
 30
0.0
 11
2403.042382313076
 21
48.54587319688906
 31
0.0
  0
LINE
  5
12C9
330
2
100
AcDbEntity
  8
LOGO
  6
CONTINUOUS
 62
     6
100
AcDbLine
 10
2392.341658500546
 20
43.13256811755013
 30
0.0
 11
2403.042382313076
 21
41.71913013506778
 31
0.0
  0
LINE
  5
12CA
330
2
100
AcDbEntity
  8
LOGO
 62
     6
100
AcDbLine
 10
2392.341658500546
 20
43.1325681175501
 30
0.0
 11
2392.341658500546
 21
47.13243521440674
 31
0.0
  0
LINE
  5
12CB
330
2
100
AcDbEntity
  8
LOGO
 62
     6
100
AcDbLine
 10
2514.274583950209
 20
39.24112362569926
 30
0.0
 11
2514.274583950209
 21
30.42291876999687
 31
0.0
  0
TEXT
  5
12CC
330
2
100
AcDbEntity
  8
LOGO
  6
CONTINUOUS
 62
     6
100
AcDbText
 10
2504.943150240471
 20
11.31680824930834
 30
0.0
 40
4.899002697612436
  1
Model
  7
CHINESET
 72
     4
 11
2514.274583950209
 21
13.76630959811456
 31
0.0
100
AcDbText
  0
TEXT
  5
12CD
330
2
100
AcDbEntity
  8
LOGO
 62
     6
100
AcDbText
 10
2506.436179634029
 20
19.84570192208084
 30
0.0
 40
7.838404316179898
  1
型式
  7
CHINESET
 72
     4
 11
2514.274583950209
 21
23.56431499333942
 31
0.0
100
AcDbText
  0
LINE
  5
12CE
330
2
100
AcDbEntity
  8
LOGO
 62
     6
100
AcDbLine
 10
2533.870594740659
 20
8.867306900502086
 30
0.0
 11
2494.67857315976
 21
8.867306900502086
 31
0.0
  0
LINE
  5
12CF
330
2
100
AcDbEntity
  8
LOGO
 62
     6
100
AcDbLine
 10
2533.870594740659
 20
30.42291876999687
 30
0.0
 11
2494.67857315976
 21
30.42291876999687
 31
0.0
  0
LINE
  5
12D0
330
2
100
AcDbEntity
  8
LOGO
 62
     6
100
AcDbLine
 10
2494.67857315976
 20
30.42291876999687
 30
0.0
 11
2494.67857315976
 21
8.867306900502086
 31
0.0
  0
LINE
  5
12D1
330
2
100
AcDbEntity
  8
LOGO
 62
     6
100
AcDbLine
 10
2541.141179575731
 20
30.42300076911232
 30
0.0
 11
2541.141179575731
 21
8.867306900502285
 31
0.0
  0
LINE
  5
12D2
330
2
100
AcDbEntity
  8
LOGO
 62
     6
100
AcDbLine
 10
2533.870594740659
 20
30.42291876999687
 30
0.0
 11
2533.870594740659
 21
8.867306900502143
 31
0.0
  0
TEXT
  5
12D3
330
2
100
AcDbEntity
  8
LOGO
  6
CONTINUOUS
 62
     7
100
AcDbText
 10
2495.611716530733
 20
43.16032578378918
 30
0.0
 40
9.798005395224873
  1
MASD
  7
CHINESET
 72
     1
 11
2514.274583950209
 21
48.05932848140162
 31
0.0
100
AcDbText
 73
     2
  0
LINE
  5
12D4
330
2
100
AcDbEntity
  8
LOGO
 62
     6
100
AcDbLine
 10
2537.789796898749
 20
39.24112362569926
 30
0.0
 11
2490.75937100167
 21
39.24112362569926
 31
0.0
  0
LINE
  5
12D5
330
2
100
AcDbEntity
  8
LOGO
 62
     6
100
AcDbLine
 10
2537.789796898749
 20
56.87753333710401
 30
0.0
 11
2490.75937100167
 21
56.87753333710401
 31
0.0
  0
LINE
  5
12D6
330
2
100
AcDbEntity
  8
LOGO
 62
     6
100
AcDbLine
 10
2490.75937100167
 20
56.87753333710401
 30
0.0
 11
2490.75937100167
 21
39.24112362569926
 31
0.0
  0
LINE
  5
12D7
330
2
100
AcDbEntity
  8
LOGO
 62
     6
100
AcDbLine
 10
2541.141179575731
 20
56.87753333710401
 30
0.0
 11
2541.141179575731
 21
39.24117829177621
 31
0.0
  0
LINE
  5
12D8
330
2
100
AcDbEntity
  8
LOGO
 62
     6
100
AcDbLine
 10
2541.141179575731
 20
56.87753333710401
 30
0.0
 11
2541.141179575731
 21
39.24112362569926
 31
0.0
  0
LINE
  5
12D9
330
2
100
AcDbEntity
  8
LOGO
 62
     6
100
AcDbLine
 10
2537.789796898749
 20
56.87753333710401
 30
0.0
 11
2537.789796898749
 21
39.24112362569926
 31
0.0
  0
TEXT
  5
12DA
330
2
100
AcDbEntity
  8
LOGO
  6
CONTINUOUS
 62
     6
100
AcDbText
 10
2621.237223471144
 20
11.31680824930848
 30
0.0
 40
4.899002697612436
  1
Bore
 41
0.8
  7
CHINESET
 72
     4
 11
2627.302655382473
 21
13.7663095981147
 31
0.0
100
AcDbText
  0
TEXT
  5
12DB
330
2
100
AcDbEntity
  8
LOGO
 62
     6
100
AcDbText
 10
2619.807181255127
 20
19.64511283524956
 30
0.0
 40
7.838404316179898
  1
內徑
 41
0.9
  7
CHINESET
 72
     4
 11
2627.302655382473
 21
23.5643149933395
 31
0.0
100
AcDbText
  0
LINE
  5
12DC
330
2
100
AcDbEntity
  8
LOGO
 62
     6
100
AcDbLine
 10
2643.033748900709
 20
8.867306900502285
 30
0.0
 11
2611.571561864238
 21
8.867306900502228
 31
0.0
  0
LINE
  5
12DD
330
2
100
AcDbEntity
  8
LOGO
 62
     6
100
AcDbLine
 10
2643.033748900709
 20
30.42291876999695
 30
0.0
 11
2611.571561864238
 21
30.42291876999695
 31
0.0
  0
TEXT
  5
12DE
330
2
100
AcDbEntity
  8
LOGO
  6
CONTINUOUS
 62
     7
100
AcDbText
 10
2620.285417485129
 20
43.04921578520794
 30
0.0
 40
9.798005395224873
  1
63
  7
CHINESET
 72
     1
 11
2628.217136138406
 21
47.94821848282038
 31
0.0
100
AcDbText
 73
     2
  0
LINE
  5
12DF
330
2
100
AcDbEntity
  8
LOGO
 62
     6
100
AcDbLine
 10
2643.033748900709
 20
39.2411236256994
 30
0.0
 11
2611.571561864238
 21
39.2411236256994
 31
0.0
  0
LINE
  5
12E0
330
2
100
AcDbEntity
  8
LOGO
 62
     6
100
AcDbLine
 10
2643.033748900709
 20
56.87753333710424
 30
0.0
 11
2611.571561864238
 21
56.87753333710415
 31
0.0
  0
LINE
  5
12E1
330
2
100
AcDbEntity
  8
LOGO
 62
     6
100
AcDbLine
 10
2569.80025652439
 20
39.24117829177621
 30
0.0
 11
2569.80025652439
 21
30.42300076911232
 31
0.0
  0
TEXT
  5
12E2
330
2
100
AcDbEntity
  8
LOGO
 62
     6
100
AcDbText
 10
2555.985068917122
 20
19.88202654838212
 30
0.0
 40
7.838404316179898
  1
旋轉方向
 41
0.9
  7
CHINESET
 72
     4
 11
2569.80025652439
 21
23.5643149933395
 31
0.0
100
AcDbText
  0
LINE
  5
12E3
330
2
100
AcDbEntity
  8
LOGO
 62
     6
100
AcDbLine
 10
2611.571561864238
 20
30.42291876999695
 30
0.0
 11
2611.571561864238
 21
8.867306900502285
 31
0.0
  0
LINE
  5
12E4
330
2
100
AcDbEntity
  8
LOGO
 62
     6
100
AcDbLine
 10
2598.459333473047
 20
30.42300076911232
 30
0.0
 11
2598.459333473047
 21
8.867306900502285
 31
0.0
  0
LINE
  5
12E5
330
2
100
AcDbEntity
  8
LOGO
 62
     6
100
AcDbLine
 10
2611.571561864238
 20
56.87753333710415
 30
0.0
 11
2611.571561864238
 21
39.2411236256994
 31
0.0
  0
LINE
  5
12E6
330
2
100
AcDbEntity
  8
LOGO
 62
     6
100
AcDbLine
 10
2598.459333473047
 20
56.87753333710415
 30
0.0
 11
2598.459333473047
 21
39.24117829177621
 31
0.0
  0
LINE
  5
12E7
330
2
100
AcDbEntity
  8
LOGO
  6
CONTINUOUS
 62
     7
100
AcDbLine
 10
2601.023549339459
 20
47.9968575309924
 30
0.0
 11
2608.811144344019
 21
47.9968575309924
 31
0.0
  0
LINE
  5
12E8
330
2
100
AcDbEntity
  8
LOGO
 62
     6
100
AcDbLine
 10
2627.30265493062
 20
39.2411236256994
 30
0.0
 11
2627.30265493062
 21
30.42291876999695
 31
0.0
  0
LINE
  5
12E9
330
2
100
AcDbEntity
  8
LOGO
 62
     6
100
AcDbLine
 10
2682.189169137044
 20
39.24117829177629
 30
0.0
 11
2682.189169137044
 21
30.42300076911237
 31
0.0
  0
TEXT
  5
12EA
330
2
100
AcDbEntity
  8
LOGO
 62
     6
100
AcDbText
 10
2660.353681938067
 20
11.31681584181917
 30
0.0
 40
4.898987512591059
  1
Rotating angle
 41
0.8
  7
ROMANS1
 72
     1
 11
2682.189169137044
 21
13.7663095981147
 31
0.0
100
AcDbText
 73
     2
  0
LINE
  5
12EB
330
2
100
AcDbEntity
  8
LOGO
 62
     6
100
AcDbLine
 10
2643.033748900709
 20
30.42291876999695
 30
0.0
 11
2643.033748900709
 21
8.867306900502342
 31
0.0
  0
LINE
  5
12EC
330
2
100
AcDbEntity
  8
LOGO
 62
     6
100
AcDbLine
 10
2655.512874398207
 20
30.42300076911237
 30
0.0
 11
2655.512874398207
 21
8.867306900502285
 31
0.0
  0
TEXT
  5
12ED
330
2
100
AcDbEntity
  8
LOGO
 62
     6
100
AcDbText
 10
2668.153526408384
 20
19.88974151326025
 30
0.0
 40
7.838404316179898
  1
旋轉角度
 41
0.9
  7
CHINESET
 72
     4
 11
2682.189169137044
 21
23.5643149933395
 31
0.0
100
AcDbText
  0
LINE
  5
12EE
330
2
100
AcDbEntity
  8
LOGO
 62
     6
100
AcDbLine
 10
2643.033748900709
 20
56.87753333710424
 30
0.0
 11
2643.033748900709
 21
39.2411236256994
 31
0.0
  0
LINE
  5
12EF
330
2
100
AcDbEntity
  8
LOGO
 62
     6
100
AcDbLine
 10
2655.512874398207
 20
56.87753333710412
 30
0.0
 11
2655.512874398207
 21
39.24117829177629
 31
0.0
  0
LINE
  5
12F0
330
2
100
AcDbEntity
  8
LOGO
  6
CONTINUOUS
 62
     7
100
AcDbLine
 10
2645.444873001921
 20
47.99685753099254
 30
0.0
 11
2653.232468006482
 21
47.99685753099254
 31
0.0
  0
LINE
  5
1309
330
2
100
AcDbEntity
  8
LOGO
 62
     1
100
AcDbLine
 10
2715.533282348182
 20
3.968304202889697
 30
0.0
 11
2715.533282348182
 21
62.75633657423895
 31
0.0
  0
LINE
  5
130A
330
2
100
AcDbEntity
  8
LOGO
 62
     6
100
AcDbLine
 10
2707.732444978229
 20
30.42300076911237
 30
0.0
 11
2707.732444978229
 21
8.86730690050237
 31
0.0
  0
LINE
  5
130B
330
2
100
AcDbEntity
  8
LOGO
 62
     6
100
AcDbLine
 10
2707.732444978229
 20
56.87753333710418
 30
0.0
 11
2707.732444978229
 21
39.24117829177629
 31
0.0
  0
TEXT
  5
2D17
330
2
100
AcDbEntity
  8
DIM
100
AcDbText
 10
2318.013975638868
 20
296.250414352114
 30
0.0
 40
7.199999999999999
  1
CCW
  7
ROMANS
100
AcDbText
  0
TEXT
  5
2D18
330
2
100
AcDbEntity
  8
DIM
100
AcDbText
 10
2326.808082946481
 20
339.1571415567958
 30
0.0
 40
7.199999999999999
  1
CW
  7
ROMANS
100
AcDbText
  0
POLYLINE
  5
2D19
330
2
100
AcDbEntity
  8
DIM
100
AcDb2dPolyline
 66
     1
 10
0.0
 20
0.0
 30
0.0
 70
     5
 75
     6
  0
VERTEX
  5
2D1A
330
2D19
100
AcDbEntity
  8
DIM
100
AcDbVertex
100
AcDb2dVertex
 10
2342.353748586222
 20
305.1318625767302
 30
0.0
 70
    16
  0
VERTEX
  5
46D0
330
2D19
100
AcDbEntity
  8
DIM
100
AcDbVertex
100
AcDb2dVertex
 10
2345.236950469661
 20
298.448842849539
 30
0.0
 70
     8
  0
VERTEX
  5
46D1
330
2D19
100
AcDbEntity
  8
DIM
100
AcDbVertex
100
AcDb2dVertex
 10
2345.372314664393
 20
297.9778284815218
 30
0.0
 70
     8
  0
VERTEX
  5
46D2
330
2D19
100
AcDbEntity
  8
DIM
100
AcDbVertex
100
AcDb2dVertex
 10
2345.45567263639
 20
297.6022495498991
 30
0.0
 70
     8
  0
VERTEX
  5
46D3
330
2D19
100
AcDbEntity
  8
DIM
100
AcDbVertex
100
AcDb2dVertex
 10
2345.507140941887
 20
297.3013890937933
 30
0.0
 70
     8
  0
VERTEX
  5
46D4
330
2D19
100
AcDbEntity
  8
DIM
100
AcDbVertex
100
AcDb2dVertex
 10
2345.54683613712
 20
297.0545301523267
 30
0.0
 70
     8
  0
VERTEX
  5
46D5
330
2D19
100
AcDbEntity
  8
DIM
100
AcDbVertex
100
AcDb2dVertex
 10
2345.594874778323
 20
296.8409557646219
 30
0.0
 70
     8
  0
VERTEX
  5
46D6
330
2D19
100
AcDbEntity
  8
DIM
100
AcDbVertex
100
AcDb2dVertex
 10
2345.671373421732
 20
296.6399489698011
 30
0.0
 70
     8
  0
VERTEX
  5
46D7
330
2D19
100
AcDbEntity
  8
DIM
100
AcDbVertex
100
AcDb2dVertex
 10
2345.796448623581
 20
296.4307928069869
 30
0.0
 70
     8
  0
VERTEX
  5
46D8
330
2D19
100
AcDbEntity
  8
DIM
100
AcDbVertex
100
AcDb2dVertex
 10
2345.990216940106
 20
296.1927703153017
 30
0.0
 70
     8
  0
VERTEX
  5
46D9
330
2D19
100
AcDbEntity
  8
DIM
100
AcDbVertex
100
AcDb2dVertex
 10
2346.265929894184
 20
295.9127493448835
 30
0.0
 70
     8
  0
VERTEX
  5
46DA
330
2D19
100
AcDbEntity
  8
DIM
100
AcDbVertex
100
AcDb2dVertex
 10
2346.609378875264
 20
295.6079369899332
 30
0.0
 70
     8
  0
VERTEX
  5
46DB
330
2D19
100
AcDbEntity
  8
DIM
100
AcDbVertex
100
AcDb2dVertex
 10
2346.999490239439
 20
295.3031251556673
 30
0.0
 70
     8
  0
VERTEX
  5
46DC
330
2D19
100
AcDbEntity
  8
DIM
100
AcDbVertex
100
AcDb2dVertex
 10
2347.415190342799
 20
295.0231057473023
 30
0.0
 70
     8
  0
VERTEX
  5
46DD
330
2D19
100
AcDbEntity
  8
DIM
100
AcDbVertex
100
AcDb2dVertex
 10
2347.835405541438
 20
294.7926706700546
 30
0.0
 70
     8
  0
VERTEX
  5
46DE
330
2D19
100
AcDbEntity
  8
DIM
100
AcDbVertex
100
AcDb2dVertex
 10
2348.239062191445
 20
294.6366118291409
 30
0.0
 70
     8
  0
VERTEX
  5
46DF
330
2D19
100
AcDbEntity
  8
DIM
100
AcDbVertex
100
AcDb2dVertex
 10
2348.605086648914
 20
294.5797211297774
 30
0.0
 70
     8
  0
VERTEX
  5
46E0
330
2D19
100
AcDbEntity
  8
DIM
100
AcDbVertex
100
AcDb2dVertex
 10
2348.912405269936
 20
294.6467904771809
 30
0.0
 70
     8
  0
VERTEX
  5
46E1
330
2D19
100
AcDbEntity
  8
DIM
100
AcDbVertex
100
AcDb2dVertex
 10
2349.144930628124
 20
294.8533147795687
 30
0.0
 70
     8
  0
VERTEX
  5
46E2
330
2D19
100
AcDbEntity
  8
DIM
100
AcDbVertex
100
AcDb2dVertex
 10
2349.306520167182
 20
295.1776009571627
 30
0.0
 70
     8
  0
VERTEX
  5
46E3
330
2D19
100
AcDbEntity
  8
DIM
100
AcDbVertex
100
AcDb2dVertex
 10
2349.406017548335
 20
295.5886589331854
 30
0.0
 70
     8
  0
VERTEX
  5
46E4
330
2D19
100
AcDbEntity
  8
DIM
100
AcDbVertex
100
AcDb2dVertex
 10
2349.452266432808
 20
296.0554986308597
 30
0.0
 70
     8
  0
VERTEX
  5
46E5
330
2D19
100
AcDbEntity
  8
DIM
100
AcDbVertex
100
AcDb2dVertex
 10
2349.454110481825
 20
296.5471299734084
 30
0.0
 70
     8
  0
VERTEX
  5
46E6
330
2D19
100
AcDbEntity
  8
DIM
100
AcDbVertex
100
AcDb2dVertex
 10
2349.420393356612
 20
297.0325628840541
 30
0.0
 70
     8
  0
VERTEX
  5
46E7
330
2D19
100
AcDbEntity
  8
DIM
100
AcDbVertex
100
AcDb2dVertex
 10
2349.359958718393
 20
297.4808072860195
 30
0.0
 70
     8
  0
VERTEX
  5
46E8
330
2D19
100
AcDbEntity
  8
DIM
100
AcDbVertex
100
AcDb2dVertex
 10
2349.281650228394
 20
297.8608731025275
 30
0.0
 70
     8
  0
VERTEX
  5
46E9
330
2D19
100
AcDbEntity
  8
DIM
100
AcDbVertex
100
AcDb2dVertex
 10
2349.192177623899
 20
298.1516798338752
 30
0.0
 70
     8
  0
VERTEX
  5
46EA
330
2D19
100
AcDbEntity
  8
DIM
100
AcDbVertex
100
AcDb2dVertex
 10
2349.089714946422
 20
298.3717852886578
 30
0.0
 70
     8
  0
VERTEX
  5
46EB
330
2D19
100
AcDbEntity
  8
DIM
100
AcDbVertex
100
AcDb2dVertex
 10
2348.970302313539
 20
298.549656852545
 30
0.0
 70
     8
  0
VERTEX
  5
46EC
330
2D19
100
AcDbEntity
  8
DIM
100
AcDbVertex
100
AcDb2dVertex
 10
2348.829979842825
 20
298.7137619112063
 30
0.0
 70
     8
  0
VERTEX
  5
46ED
330
2D19
100
AcDbEntity
  8
DIM
100
AcDbVertex
100
AcDb2dVertex
 10
2348.664787651854
 20
298.8925678503117
 30
0.0
 70
     8
  0
VERTEX
  5
46EE
330
2D19
100
AcDbEntity
  8
DIM
100
AcDbVertex
100
AcDb2dVertex
 10
2348.4707658582
 20
299.1145420555305
 30
0.0
 70
     8
  0
VERTEX
  5
46EF
330
2D19
100
AcDbEntity
  8
DIM
100
AcDbVertex
100
AcDb2dVertex
 10
2348.243954579438
 20
299.4081519125326
 30
0.0
 70
     8
  0
VERTEX
  5
46F0
330
2D19
100
AcDbEntity
  8
DIM
100
AcDbVertex
100
AcDb2dVertex
 10
2347.980393933143
 20
299.8018648069875
 30
0.0
 70
     8
  0
VERTEX
  5
46F1
330
2D19
100
AcDbEntity
  8
DIM
100
AcDbVertex
100
AcDb2dVertex
 10
2347.677982582169
 20
300.3138672141894
 30
0.0
 70
     8
  0
VERTEX
  5
46F2
330
2D19
100
AcDbEntity
  8
DIM
100
AcDbVertex
100
AcDb2dVertex
 10
2347.342053370499
 20
300.9212219679294
 30
0.0
 70
     8
  0
VERTEX
  5
46F3
330
2D19
100
AcDbEntity
  8
DIM
100
AcDbVertex
100
AcDb2dVertex
 10
2346.979797687394
 20
301.5907109916238
 30
0.0
 70
     8
  0
VERTEX
  5
46F4
330
2D19
100
AcDbEntity
  8
DIM
100
AcDbVertex
100
AcDb2dVertex
 10
2346.598406922117
 20
302.289116208688
 30
0.0
 70
     8
  0
VERTEX
  5
46F5
330
2D19
100
AcDbEntity
  8
DIM
100
AcDbVertex
100
AcDb2dVertex
 10
2346.205072463929
 20
302.9832195425381
 30
0.0
 70
     8
  0
VERTEX
  5
46F6
330
2D19
100
AcDbEntity
  8
DIM
100
AcDbVertex
100
AcDb2dVertex
 10
2345.806985702093
 20
303.6398029165896
 30
0.0
 70
     8
  0
VERTEX
  5
46F7
330
2D19
100
AcDbEntity
  8
DIM
100
AcDbVertex
100
AcDb2dVertex
 10
2345.41133802587
 20
304.2256482542585
 30
0.0
 70
     8
  0
VERTEX
  5
46F8
330
2D19
100
AcDbEntity
  8
DIM
100
AcDbVertex
100
AcDb2dVertex
 10
2345.025320824523
 20
304.7075374789606
 30
0.0
 70
     8
  0
VERTEX
  5
46F9
330
2D19
100
AcDbEntity
  8
DIM
100
AcDbVertex
100
AcDb2dVertex
 10
2344.656576678701
 20
305.0584060593488
 30
0.0
 70
     8
  0
VERTEX
  5
46FA
330
2D19
100
AcDbEntity
  8
DIM
100
AcDbVertex
100
AcDb2dVertex
 10
2344.314552934597
 20
305.2758036450244
 30
0.0
 70
     8
  0
VERTEX
  5
46FB
330
2D19
100
AcDbEntity
  8
DIM
100
AcDbVertex
100
AcDb2dVertex
 10
2344.009148129795
 20
305.3634334308258
 30
0.0
 70
     8
  0
VERTEX
  5
46FC
330
2D19
100
AcDbEntity
  8
DIM
100
AcDbVertex
100
AcDb2dVertex
 10
2343.750260801876
 20
305.3249986115915
 30
0.0
 70
     8
  0
VERTEX
  5
46FD
330
2D19
100
AcDbEntity
  8
DIM
100
AcDbVertex
100
AcDb2dVertex
 10
2343.547789488421
 20
305.1642023821599
 30
0.0
 70
     8
  0
VERTEX
  5
46FE
330
2D19
100
AcDbEntity
  8
DIM
100
AcDbVertex
100
AcDb2dVertex
 10
2343.411632727012
 20
304.8847479373696
 30
0.0
 70
     8
  0
VERTEX
  5
46FF
330
2D19
100
AcDbEntity
  8
DIM
100
AcDbVertex
100
AcDb2dVertex
 10
2343.35168905523
 20
304.4903384720588
 30
0.0
 70
     8
  0
VERTEX
  5
4700
330
2D19
100
AcDbEntity
  8
DIM
100
AcDbVertex
100
AcDb2dVertex
 10
2343.377857010658
 20
303.9846771810661
 30
0.0
 70
     8
  0
VERTEX
  5
4701
330
2D19
100
AcDbEntity
  8
DIM
100
AcDbVertex
100
AcDb2dVertex
 10
2343.494882604951
 20
303.3755104981759
 30
0.0
 70
     8
  0
VERTEX
  5
4702
330
2D19
100
AcDbEntity
  8
DIM
100
AcDbVertex
100
AcDb2dVertex
 10
2343.686901746065
 20
302.6867578129566
 30
0.0
 70
     8
  0
VERTEX
  5
4703
330
2D19
100
AcDbEntity
  8
DIM
100
AcDbVertex
100
AcDb2dVertex
 10
2343.93289781603
 20
301.9463817539226
 30
0.0
 70
     8
  0
VERTEX
  5
4704
330
2D19
100
AcDbEntity
  8
DIM
100
AcDbVertex
100
AcDb2dVertex
 10
2344.211854196875
 20
301.1823449495885
 30
0.0
 70
     8
  0
VERTEX
  5
4705
330
2D19
100
AcDbEntity
  8
DIM
100
AcDbVertex
100
AcDb2dVertex
 10
2344.502754270631
 20
300.4226100284686
 30
0.0
 70
     8
  0
VERTEX
  5
4706
330
2D19
100
AcDbEntity
  8
DIM
100
AcDbVertex
100
AcDb2dVertex
 10
2344.784581419327
 20
299.6951396190775
 30
0.0
 70
     8
  0
VERTEX
  5
4707
330
2D19
100
AcDbEntity
  8
DIM
100
AcDbVertex
100
AcDb2dVertex
 10
2345.036319024994
 20
299.0278963499294
 30
0.0
 70
     8
  0
VERTEX
  5
2D1B
330
2D19
100
AcDbEntity
  8
DIM
100
AcDbVertex
100
AcDb2dVertex
 10
2346.006260112005
 20
297.2098839453042
 30
0.0
 70
    16
  0
VERTEX
  5
2D1C
330
2D19
100
AcDbEntity
  8
DIM
100
AcDbVertex
100
AcDb2dVertex
 10
2345.042913783726
 20
296.7216587392869
 30
0.0
 70
    16
  0
VERTEX
  5
2D1D
330
2D19
100
AcDbEntity
  8
DIM
100
AcDbVertex
100
AcDb2dVertex
 10
2349.763386393726
 20
293.0601029893584
 30
0.0
 70
    16
  0
VERTEX
  5
2D1E
330
2D19
100
AcDbEntity
  8
DIM
100
AcDbVertex
100
AcDb2dVertex
 10
2349.377972260984
 20
298.9186721663648
 30
0.0
 70
    16
  0
VERTEX
  5
2D1F
330
2D19
100
AcDbEntity
  8
DIM
100
AcDbVertex
100
AcDb2dVertex
 10
2348.414625932704
 20
298.4304469603472
 30
0.0
 70
    16
  0
VERTEX
  5
2D20
330
2D19
100
AcDbEntity
  8
DIM
100
AcDbVertex
100
AcDb2dVertex
 10
2344.845887607053
 20
306.1707288341716
 30
0.0
 70
    16
  0
SEQEND
  5
2D21
330
2D19
100
AcDbEntity
  8
DIM
  0
POLYLINE
  5
2D22
330
2
100
AcDbEntity
  8
DIM
100
AcDb2dPolyline
 66
     1
 10
0.0
 20
0.0
 30
0.0
 70
     5
 75
     6
  0
VERTEX
  5
2D23
330
2D22
100
AcDbEntity
  8
DIM
100
AcDbVertex
100
AcDb2dVertex
 10
2342.353748586223
 20
335.6030141243819
 30
0.0
 70
    16
  0
VERTEX
  5
4708
330
2D22
100
AcDbEntity
  8
DIM
100
AcDbVertex
100
AcDb2dVertex
 10
2345.236950469663
 20
342.2860338515731
 30
0.0
 70
     8
  0
VERTEX
  5
4709
330
2D22
100
AcDbEntity
  8
DIM
100
AcDbVertex
100
AcDb2dVertex
 10
2345.372314664394
 20
342.7570482195903
 30
0.0
 70
     8
  0
VERTEX
  5
470A
330
2D22
100
AcDbEntity
  8
DIM
100
AcDbVertex
100
AcDb2dVertex
 10
2345.455672636391
 20
343.1326271512129
 30
0.0
 70
     8
  0
VERTEX
  5
470B
330
2D22
100
AcDbEntity
  8
DIM
100
AcDbVertex
100
AcDb2dVertex
 10
2345.507140941889
 20
343.4334876073187
 30
0.0
 70
     8
  0
VERTEX
  5
470C
330
2D22
100
AcDbEntity
  8
DIM
100
AcDbVertex
100
AcDb2dVertex
 10
2345.546836137121
 20
343.6803465487853
 30
0.0
 70
     8
  0
VERTEX
  5
470D
330
2D22
100
AcDbEntity
  8
DIM
100
AcDbVertex
100
AcDb2dVertex
 10
2345.594874778324
 20
343.8939209364903
 30
0.0
 70
     8
  0
VERTEX
  5
470E
330
2D22
100
AcDbEntity
  8
DIM
100
AcDbVertex
100
AcDb2dVertex
 10
2345.671373421733
 20
344.0949277313109
 30
0.0
 70
     8
  0
VERTEX
  5
470F
330
2D22
100
AcDbEntity
  8
DIM
100
AcDbVertex
100
AcDb2dVertex
 10
2345.796448623582
 20
344.3040838941251
 30
0.0
 70
     8
  0
VERTEX
  5
4710
330
2D22
100
AcDbEntity
  8
DIM
100
AcDbVertex
100
AcDb2dVertex
 10
2345.990216940107
 20
344.5421063858105
 30
0.0
 70
     8
  0
VERTEX
  5
4711
330
2D22
100
AcDbEntity
  8
DIM
100
AcDbVertex
100
AcDb2dVertex
 10
2346.265929894185
 20
344.8221273562286
 30
0.0
 70
     8
  0
VERTEX
  5
4712
330
2D22
100
AcDbEntity
  8
DIM
100
AcDbVertex
100
AcDb2dVertex
 10
2346.609378875265
 20
345.1269397111789
 30
0.0
 70
     8
  0
VERTEX
  5
4713
330
2D22
100
AcDbEntity
  8
DIM
100
AcDbVertex
100
AcDb2dVertex
 10
2346.99949023944
 20
345.4317515454448
 30
0.0
 70
     8
  0
VERTEX
  5
4714
330
2D22
100
AcDbEntity
  8
DIM
100
AcDbVertex
100
AcDb2dVertex
 10
2347.4151903428
 20
345.7117709538097
 30
0.0
 70
     8
  0
VERTEX
  5
4715
330
2D22
100
AcDbEntity
  8
DIM
100
AcDbVertex
100
AcDb2dVertex
 10
2347.835405541438
 20
345.9422060310574
 30
0.0
 70
     8
  0
VERTEX
  5
4716
330
2D22
100
AcDbEntity
  8
DIM
100
AcDbVertex
100
AcDb2dVertex
 10
2348.239062191446
 20
346.0982648719712
 30
0.0
 70
     8
  0
VERTEX
  5
4717
330
2D22
100
AcDbEntity
  8
DIM
100
AcDbVertex
100
AcDb2dVertex
 10
2348.605086648915
 20
346.1551555713346
 30
0.0
 70
     8
  0
VERTEX
  5
4718
330
2D22
100
AcDbEntity
  8
DIM
100
AcDbVertex
100
AcDb2dVertex
 10
2348.912405269936
 20
346.0880862239311
 30
0.0
 70
     8
  0
VERTEX
  5
4719
330
2D22
100
AcDbEntity
  8
DIM
100
AcDbVertex
100
AcDb2dVertex
 10
2349.144930628125
 20
345.8815619215433
 30
0.0
 70
     8
  0
VERTEX
  5
471A
330
2D22
100
AcDbEntity
  8
DIM
100
AcDbVertex
100
AcDb2dVertex
 10
2349.306520167183
 20
345.5572757439493
 30
0.0
 70
     8
  0
VERTEX
  5
471B
330
2D22
100
AcDbEntity
  8
DIM
100
AcDbVertex
100
AcDb2dVertex
 10
2349.406017548335
 20
345.1462177679266
 30
0.0
 70
     8
  0
VERTEX
  5
471C
330
2D22
100
AcDbEntity
  8
DIM
100
AcDbVertex
100
AcDb2dVertex
 10
2349.452266432809
 20
344.6793780702523
 30
0.0
 70
     8
  0
VERTEX
  5
471D
330
2D22
100
AcDbEntity
  8
DIM
100
AcDbVertex
100
AcDb2dVertex
 10
2349.454110481826
 20
344.1877467277036
 30
0.0
 70
     8
  0
VERTEX
  5
471E
330
2D22
100
AcDbEntity
  8
DIM
100
AcDbVertex
100
AcDb2dVertex
 10
2349.420393356612
 20
343.702313817058
 30
0.0
 70
     8
  0
VERTEX
  5
471F
330
2D22
100
AcDbEntity
  8
DIM
100
AcDbVertex
100
AcDb2dVertex
 10
2349.359958718394
 20
343.2540694150925
 30
0.0
 70
     8
  0
VERTEX
  5
4720
330
2D22
100
AcDbEntity
  8
DIM
100
AcDbVertex
100
AcDb2dVertex
 10
2349.281650228395
 20
342.8740035985847
 30
0.0
 70
     8
  0
VERTEX
  5
4721
330
2D22
100
AcDbEntity
  8
DIM
100
AcDbVertex
100
AcDb2dVertex
 10
2349.192177623899
 20
342.583196867237
 30
0.0
 70
     8
  0
VERTEX
  5
4722
330
2D22
100
AcDbEntity
  8
DIM
100
AcDbVertex
100
AcDb2dVertex
 10
2349.089714946423
 20
342.3630914124544
 30
0.0
 70
     8
  0
VERTEX
  5
4723
330
2D22
100
AcDbEntity
  8
DIM
100
AcDbVertex
100
AcDb2dVertex
 10
2348.97030231354
 20
342.1852198485672
 30
0.0
 70
     8
  0
VERTEX
  5
4724
330
2D22
100
AcDbEntity
  8
DIM
100
AcDbVertex
100
AcDb2dVertex
 10
2348.829979842826
 20
342.0211147899058
 30
0.0
 70
     8
  0
VERTEX
  5
4725
330
2D22
100
AcDbEntity
  8
DIM
100
AcDbVertex
100
AcDb2dVertex
 10
2348.664787651855
 20
341.8423088508005
 30
0.0
 70
     8
  0
VERTEX
  5
4726
330
2D22
100
AcDbEntity
  8
DIM
100
AcDbVertex
100
AcDb2dVertex
 10
2348.4707658582
 20
341.6203346455816
 30
0.0
 70
     8
  0
VERTEX
  5
4727
330
2D22
100
AcDbEntity
  8
DIM
100
AcDbVertex
100
AcDb2dVertex
 10
2348.243954579439
 20
341.3267247885794
 30
0.0
 70
     8
  0
VERTEX
  5
4728
330
2D22
100
AcDbEntity
  8
DIM
100
AcDbVertex
100
AcDb2dVertex
 10
2347.980393933143
 20
340.9330118941245
 30
0.0
 70
     8
  0
VERTEX
  5
4729
330
2D22
100
AcDbEntity
  8
DIM
100
AcDbVertex
100
AcDb2dVertex
 10
2347.67798258217
 20
340.4210094869225
 30
0.0
 70
     8
  0
VERTEX
  5
472A
330
2D22
100
AcDbEntity
  8
DIM
100
AcDbVertex
100
AcDb2dVertex
 10
2347.342053370499
 20
339.8136547331822
 30
0.0
 70
     8
  0
VERTEX
  5
472B
330
2D22
100
AcDbEntity
  8
DIM
100
AcDbVertex
100
AcDb2dVertex
 10
2346.979797687395
 20
339.1441657094878
 30
0.0
 70
     8
  0
VERTEX
  5
472C
330
2D22
100
AcDbEntity
  8
DIM
100
AcDbVertex
100
AcDb2dVertex
 10
2346.598406922118
 20
338.4457604924235
 30
0.0
 70
     8
  0
VERTEX
  5
472D
330
2D22
100
AcDbEntity
  8
DIM
100
AcDbVertex
100
AcDb2dVertex
 10
2346.205072463929
 20
337.7516571585733
 30
0.0
 70
     8
  0
VERTEX
  5
472E
330
2D22
100
AcDbEntity
  8
DIM
100
AcDbVertex
100
AcDb2dVertex
 10
2345.806985702093
 20
337.0950737845217
 30
0.0
 70
     8
  0
VERTEX
  5
472F
330
2D22
100
AcDbEntity
  8
DIM
100
AcDbVertex
100
AcDb2dVertex
 10
2345.411338025871
 20
336.5092284468527
 30
0.0
 70
     8
  0
VERTEX
  5
4730
330
2D22
100
AcDbEntity
  8
DIM
100
AcDbVertex
100
AcDb2dVertex
 10
2345.025320824523
 20
336.0273392221506
 30
0.0
 70
     8
  0
VERTEX
  5
4731
330
2D22
100
AcDbEntity
  8
DIM
100
AcDbVertex
100
AcDb2dVertex
 10
2344.656576678701
 20
335.6764706417624
 30
0.0
 70
     8
  0
VERTEX
  5
4732
330
2D22
100
AcDbEntity
  8
DIM
100
AcDbVertex
100
AcDb2dVertex
 10
2344.314552934597
 20
335.4590730560869
 30
0.0
 70
     8
  0
VERTEX
  5
4733
330
2D22
100
AcDbEntity
  8
DIM
100
AcDbVertex
100
AcDb2dVertex
 10
2344.009148129795
 20
335.3714432702856
 30
0.0
 70
     8
  0
VERTEX
  5
4734
330
2D22
100
AcDbEntity
  8
DIM
100
AcDbVertex
100
AcDb2dVertex
 10
2343.750260801876
 20
335.40987808952
 30
0.0
 70
     8
  0
VERTEX
  5
4735
330
2D22
100
AcDbEntity
  8
DIM
100
AcDbVertex
100
AcDb2dVertex
 10
2343.547789488421
 20
335.5706743189516
 30
0.0
 70
     8
  0
VERTEX
  5
4736
330
2D22
100
AcDbEntity
  8
DIM
100
AcDbVertex
100
AcDb2dVertex
 10
2343.411632727012
 20
335.8501287637421
 30
0.0
 70
     8
  0
VERTEX
  5
4737
330
2D22
100
AcDbEntity
  8
DIM
100
AcDbVertex
100
AcDb2dVertex
 10
2343.351689055231
 20
336.244538229053
 30
0.0
 70
     8
  0
VERTEX
  5
4738
330
2D22
100
AcDbEntity
  8
DIM
100
AcDbVertex
100
AcDb2dVertex
 10
2343.377857010659
 20
336.7501995200458
 30
0.0
 70
     8
  0
VERTEX
  5
4739
330
2D22
100
AcDbEntity
  8
DIM
100
AcDbVertex
100
AcDb2dVertex
 10
2343.494882604952
 20
337.3593662029361
 30
0.0
 70
     8
  0
VERTEX
  5
473A
330
2D22
100
AcDbEntity
  8
DIM
100
AcDbVertex
100
AcDb2dVertex
 10
2343.686901746066
 20
338.0481188881554
 30
0.0
 70
     8
  0
VERTEX
  5
473B
330
2D22
100
AcDbEntity
  8
DIM
100
AcDbVertex
100
AcDb2dVertex
 10
2343.932897816031
 20
338.7884949471894
 30
0.0
 70
     8
  0
VERTEX
  5
473C
330
2D22
100
AcDbEntity
  8
DIM
100
AcDbVertex
100
AcDb2dVertex
 10
2344.211854196876
 20
339.5525317515236
 30
0.0
 70
     8
  0
VERTEX
  5
473D
330
2D22
100
AcDbEntity
  8
DIM
100
AcDbVertex
100
AcDb2dVertex
 10
2344.502754270632
 20
340.3122666726435
 30
0.0
 70
     8
  0
VERTEX
  5
473E
330
2D22
100
AcDbEntity
  8
DIM
100
AcDbVertex
100
AcDb2dVertex
 10
2344.784581419329
 20
341.0397370820346
 30
0.0
 70
     8
  0
VERTEX
  5
473F
330
2D22
100
AcDbEntity
  8
DIM
100
AcDbVertex
100
AcDb2dVertex
 10
2345.036319024996
 20
341.7069803511826
 30
0.0
 70
     8
  0
VERTEX
  5
2D24
330
2D22
100
AcDbEntity
  8
DIM
100
AcDbVertex
100
AcDb2dVertex
 10
2346.006260112007
 20
343.5249927558079
 30
0.0
 70
    16
  0
VERTEX
  5
2D25
330
2D22
100
AcDbEntity
  8
DIM
100
AcDbVertex
100
AcDb2dVertex
 10
2345.042913783727
 20
344.0132179618253
 30
0.0
 70
    16
  0
VERTEX
  5
2D26
330
2D22
100
AcDbEntity
  8
DIM
100
AcDbVertex
100
AcDb2dVertex
 10
2349.763386393727
 20
347.6747737117535
 30
0.0
 70
    16
  0
VERTEX
  5
2D27
330
2D22
100
AcDbEntity
  8
DIM
100
AcDbVertex
100
AcDb2dVertex
 10
2349.377972260985
 20
341.8162045347475
 30
0.0
 70
    16
  0
VERTEX
  5
2D28
330
2D22
100
AcDbEntity
  8
DIM
100
AcDbVertex
100
AcDb2dVertex
 10
2348.414625932705
 20
342.304429740765
 30
0.0
 70
    16
  0
VERTEX
  5
2D29
330
2D22
100
AcDbEntity
  8
DIM
100
AcDbVertex
100
AcDb2dVertex
 10
2344.845887607053
 20
334.5641478669392
 30
0.0
 70
    16
  0
SEQEND
  5
2D2A
330
2D22
100
AcDbEntity
  8
DIM
  0
TEXT
  5
302D
330
2
100
AcDbEntity
  8
AM_5
100
AcDbText
 10
2475.179397242832
 20
271.8024231812062
 30
0.0
 40
4.0
  1
4-%%c8.5
  7
CHINA
100
AcDbText
  0
INSERT
  5
302E
330
2
100
AcDbEntity
  8
AM_5
100
AcDbBlockReference
  2
*S23
 10
0.0
 20
0.0
 30
0.0
  0
LINE
  5
3408
102
{ACAD_REACTORS
330
3746
330
377E
330
37B6
330
37EE
102
}
330
2
100
AcDbEntity
  8
0
100
AcDbLine
 10
2385.259574378297
 20
84.15571800453836
 30
0.0
 11
2463.259574378297
 21
84.15571800453836
 31
0.0
  0
ARC
  5
340A
330
2
100
AcDbEntity
  8
0
100
AcDbCircle
 10
2424.259574378297
 20
319.8757594277966
 30
0.0
 40
37.5
100
AcDbArc
 50
197.0576236202418
 51
342.9423763797581
  0
LINE
  5
3416
102
{ACAD_REACTORS
330
377E
102
}
330
2
100
AcDbEntity
  8
0
100
AcDbLine
 10
2390.259574378297
 20
170.1557180045383
 30
0.0
 11
2458.259574378297
 21
170.1557180045383
 31
0.0
  0
LINE
  5
341E
102
{ACAD_REACTORS
330
3746
102
}
330
2
100
AcDbEntity
  8
0
100
AcDbLine
 10
2384.759574378297
 20
114.1557180045383
 30
0.0
 11
2463.759574378297
 21
114.1557180045383
 31
0.0
  0
LINE
  5
3426
330
2
100
AcDbEntity
  8
0
100
AcDbLine
 10
2388.259574378297
 20
168.1557180045383
 30
0.0
 11
2388.259574378297
 21
114.1557180045383
 31
0.0
  0
LINE
  5
3427
330
2
100
AcDbEntity
  8
0
100
AcDbLine
 10
2384.259574378297
 20
113.6557180045383
 30
0.0
 11
2384.259574378297
 21
85.15571800453836
 31
0.0
  0
LINE
  5
3428
330
2
100
AcDbEntity
  8
0
100
AcDbLine
 10
2384.259574378297
 20
85.15571800453836
 30
0.0
 11
2385.259574378297
 21
84.15571800453836
 31
0.0
  0
LINE
  5
3429
330
2
100
AcDbEntity
  8
0
100
AcDbLine
 10
2384.259574378297
 20
113.6557180045383
 30
0.0
 11
2384.759574378297
 21
114.1557180045383
 31
0.0
  0
LINE
  5
342B
330
2
100
AcDbEntity
  8
0
100
AcDbLine
 10
2390.259574378297
 20
170.1557180045383
 30
0.0
 11
2388.259574378297
 21
168.1557180045383
 31
0.0
  0
POLYLINE
  5
3434
330
2
100
AcDbEntity
  8
0
100
AcDb2dPolyline
 66
     1
 10
0.0
 20
0.0
 30
0.0
  0
VERTEX
  5
3435
330
3434
100
AcDbEntity
  8
0
100
AcDbVertex
100
AcDb2dVertex
 10
2384.259574378297
 20
282.8757594277966
 30
0.0
  0
VERTEX
  5
3436
330
3434
100
AcDbEntity
  8
0
100
AcDbVertex
100
AcDb2dVertex
 10
2384.259574378297
 20
308.8757594277966
 30
0.0
  0
SEQEND
  5
3437
330
3434
100
AcDbEntity
  8
0
  0
CIRCLE
  5
3438
330
2
100
AcDbEntity
  8
0
100
AcDbCircle
 10
2392.259574378297
 20
287.8757594277966
 30
0.0
 40
4.25
  0
CIRCLE
  5
3439
330
2
100
AcDbEntity
  8
0
100
AcDbCircle
 10
2392.259574378297
 20
351.8757594277966
 30
0.0
 40
4.25
  0
LINE
  5
343B
330
2
100
AcDbEntity
  8
CENTER
100
AcDbLine
 10
2424.259574378297
 20
231.7207015761383
 30
0.0
 11
2424.259574378297
 21
81.62102522194947
 31
0.0
  0
LINE
  5
343F
330
2
100
AcDbEntity
  8
0
100
AcDbLine
 10
2414.259574378297
 20
203.1557180045383
 30
0.0
 11
2414.259574378297
 21
170.1557180045383
 31
0.0
  0
LINE
  5
3440
330
2
100
AcDbEntity
  8
0
100
AcDbLine
 10
2434.259574378297
 20
203.1557180045383
 30
0.0
 11
2434.259574378297
 21
170.1557180045383
 31
0.0
  0
LINE
  5
3441
330
2
100
AcDbEntity
  8
0
100
AcDbLine
 10
2460.259574378297
 20
168.1557180045383
 30
0.0
 11
2460.259574378297
 21
114.1557180045383
 31
0.0
  0
LINE
  5
3442
330
2
100
AcDbEntity
  8
0
100
AcDbLine
 10
2464.259574378297
 20
113.6557180045383
 30
0.0
 11
2464.259574378297
 21
85.15571800453836
 31
0.0
  0
LINE
  5
3443
330
2
100
AcDbEntity
  8
0
100
AcDbLine
 10
2463.259574378297
 20
84.15571800453836
 30
0.0
 11
2464.259574378297
 21
85.15571800453836
 31
0.0
  0
LINE
  5
3444
330
2
100
AcDbEntity
  8
0
100
AcDbLine
 10
2463.759574378297
 20
114.1557180045383
 30
0.0
 11
2464.259574378297
 21
113.6557180045383
 31
0.0
  0
LINE
  5
3445
330
2
100
AcDbEntity
  8
0
100
AcDbLine
 10
2460.259574378297
 20
168.1557180045383
 30
0.0
 11
2458.259574378297
 21
170.1557180045383
 31
0.0
  0
CIRCLE
  5
344D
330
2
100
AcDbEntity
  8
0
100
AcDbCircle
 10
2456.259574378297
 20
287.8757594277966
 30
0.0
 40
4.25
  0
CIRCLE
  5
344E
330
2
100
AcDbEntity
  8
0
100
AcDbCircle
 10
2456.259574378297
 20
351.8757594277966
 30
0.0
 40
4.25
  0
LINE
  5
344F
330
2
100
AcDbEntity
  8
CENTER
100
AcDbLine
 10
2612.281172690638
 20
228.7207015761383
 30
0.0
 11
2612.281172690638
 21
79.48313180664206
 31
0.0
  0
LINE
  5
3450
330
2
100
AcDbEntity
  8
0
100
AcDbLine
 10
2572.281172690637
 20
113.6557180045383
 30
0.0
 11
2572.281172690637
 21
85.15571800453836
 31
0.0
  0
LINE
  5
3451
330
2
100
AcDbEntity
  8
0
100
AcDbLine
 10
2652.281172690637
 20
113.6557180045383
 30
0.0
 11
2652.281172690637
 21
85.15571800453836
 31
0.0
  0
LINE
  5
3452
330
2
100
AcDbEntity
  8
0
100
AcDbLine
 10
2573.281172690637
 20
84.15571800453836
 30
0.0
 11
2651.281172690637
 21
84.15571800453836
 31
0.0
  0
LINE
  5
3453
330
2
100
AcDbEntity
  8
0
100
AcDbLine
 10
2572.281172690637
 20
85.15571800453836
 30
0.0
 11
2573.281172690637
 21
84.15571800453836
 31
0.0
  0
LINE
  5
3454
330
2
100
AcDbEntity
  8
0
100
AcDbLine
 10
2651.281172690637
 20
84.15571800453836
 30
0.0
 11
2652.281172690637
 21
85.15571800453836
 31
0.0
  0
LINE
  5
3457
330
2
100
AcDbEntity
  8
0
100
AcDbLine
 10
2576.281172690637
 20
168.1557180045383
 30
0.0
 11
2576.281172690637
 21
114.1557180045383
 31
0.0
  0
LINE
  5
3458
330
2
100
AcDbEntity
  8
0
100
AcDbLine
 10
2648.281172690637
 20
168.1557180045383
 30
0.0
 11
2648.281172690637
 21
114.1557180045383
 31
0.0
  0
LINE
  5
3459
330
2
100
AcDbEntity
  8
0
100
AcDbLine
 10
2572.781172690637
 20
114.1557180045383
 30
0.0
 11
2651.781172690637
 21
114.1557180045383
 31
0.0
  0
LINE
  5
345E
330
2
100
AcDbEntity
  8
0
100
AcDbLine
 10
2572.281172690637
 20
113.6557180045383
 30
0.0
 11
2572.781172690637
 21
114.1557180045383
 31
0.0
  0
LINE
  5
345F
330
2
100
AcDbEntity
  8
0
100
AcDbLine
 10
2651.781172690637
 20
114.1557180045383
 30
0.0
 11
2652.281172690637
 21
113.6557180045383
 31
0.0
  0
LINE
  5
3461
330
2
100
AcDbEntity
  8
0
100
AcDbLine
 10
2600.781172690637
 20
225.1557180045383
 30
0.0
 11
2623.781172690637
 21
225.1557180045383
 31
0.0
  0
LINE
  5
3462
330
2
100
AcDbEntity
  8
0
100
AcDbLine
 10
2600.781172690637
 20
203.1557180045383
 30
0.0
 11
2623.781172690637
 21
203.1557180045383
 31
0.0
  0
LINE
  5
3468
330
2
100
AcDbEntity
  8
0
100
AcDbLine
 10
2599.781172690637
 20
224.1557180045383
 30
0.0
 11
2599.781172690637
 21
204.1557180045383
 31
0.0
  0
LINE
  5
3469
330
2
100
AcDbEntity
  8
0
100
AcDbLine
 10
2600.781172690637
 20
203.1557180045383
 30
0.0
 11
2599.781172690637
 21
204.1557180045383
 31
0.0
  0
LINE
  5
346A
330
2
100
AcDbEntity
  8
0
100
AcDbLine
 10
2600.781172690637
 20
225.1557180045383
 30
0.0
 11
2599.781172690637
 21
224.1557180045383
 31
0.0
  0
LINE
  5
346B
330
2
100
AcDbEntity
  8
0
100
AcDbLine
 10
2602.281172690637
 20
203.1557180045383
 30
0.0
 11
2602.281172690637
 21
170.1557180045383
 31
0.0
  0
LINE
  5
346C
330
2
100
AcDbEntity
  8
0
100
AcDbLine
 10
2622.281172690637
 20
203.1557180045383
 30
0.0
 11
2622.281172690637
 21
170.1557180045383
 31
0.0
  0
LINE
  5
346D
330
2
100
AcDbEntity
  8
0
100
AcDbLine
 10
2578.281172690637
 20
170.1557180045383
 30
0.0
 11
2646.281172690637
 21
170.1557180045383
 31
0.0
  0
LINE
  5
346F
330
2
100
AcDbEntity
  8
0
100
AcDbLine
 10
2578.281172690637
 20
170.1557180045383
 30
0.0
 11
2576.281172690637
 21
168.1557180045383
 31
0.0
  0
LINE
  5
3470
330
2
100
AcDbEntity
  8
0
100
AcDbLine
 10
2648.281172690637
 20
168.1557180045383
 30
0.0
 11
2646.281172690637
 21
170.1557180045383
 31
0.0
  0
LINE
  5
3471
330
2
100
AcDbEntity
  8
0
100
AcDbLine
 10
2624.781172690637
 20
224.1557180045383
 30
0.0
 11
2624.781172690637
 21
204.1557180045383
 31
0.0
  0
LINE
  5
3472
330
2
100
AcDbEntity
  8
0
100
AcDbLine
 10
2624.781172690637
 20
204.1557180045383
 30
0.0
 11
2623.781172690637
 21
203.1557180045383
 31
0.0
  0
LINE
  5
3473
330
2
100
AcDbEntity
  8
0
100
AcDbLine
 10
2624.781172690637
 20
224.1557180045383
 30
0.0
 11
2623.781172690637
 21
225.1557180045383
 31
0.0
  0
LINE
  5
34CB
330
2
100
AcDbEntity
  8
AM_7
100
AcDbLine
 10
2424.259574378297
 20
319.8757594277966
 30
0.0
 11
2424.259574378297
 21
358.8757594277966
 31
0.0
1001
GENIUS_GENOREF_13
1005
34CE
  0
LINE
  5
34CD
330
2
100
AcDbEntity
  8
AM_7
100
AcDbLine
 10
2424.259574378297
 20
319.8757594277966
 30
0.0
 11
2424.259574378297
 21
280.8757594277966
 31
0.0
1001
GENIUS_GENOREF_13
1005
34CE
  0
POINT
  5
34CE
330
2
100
AcDbEntity
  8
0
 60
     1
100
AcDbPoint
 10
0.0
 20
0.0
 30
0.0
1001
GENIUS_GENOBJ-N-CRS_13
1002
{
1000
OWNER
1000
GEN
1002
}
1001
GENIUS_GENOENT_13
1002
{
1000
MYREF
1005
34CE
1002
}
1002
{
1000
GRP
1005
0
1002
}
1001
GENIUS_GENOLIS_13
1002
{
1000
ENT
1005
34CD
1005
34CC
1005
34CB
1005
34CA
1002
}
1001
GENIUS_GENODEF_13
1002
{
1000
HIER
1070
    10
1002
}
1002
{
1000
MANEDIT
1070
     1
1002
}
1002
{
1000
NOSEL
1070
     0
1002
}
1002
{
1000
BEHIND
1070
     0
1002
}
1002
{
1000
OTHER
1070
     0
1002
}
1002
{
1000
REACTOR
1002
}
  0
LINE
  5
34DC
330
2
100
AcDbEntity
  8
AM_7
  6
AM_ISO08W050X2
100
AcDbLine
 10
2392.259574378297
 20
351.8757594277966
 30
0.0
 11
2398.009574378297
 21
351.8757594277966
 31
0.0
1001
GENIUS_GENOREF_13
1005
34E0
  0
LINE
  5
34DD
330
2
100
AcDbEntity
  8
AM_7
  6
AM_ISO08W050X2
100
AcDbLine
 10
2392.259574378297
 20
351.8757594277966
 30
0.0
 11
2392.259574378297
 21
357.6257594277966
 31
0.0
1001
GENIUS_GENOREF_13
1005
34E0
  0
LINE
  5
34DE
330
2
100
AcDbEntity
  8
AM_7
  6
AM_ISO08W050X2
100
AcDbLine
 10
2392.259574378297
 20
351.8757594277966
 30
0.0
 11
2386.509574378297
 21
351.8757594277966
 31
0.0
1001
GENIUS_GENOREF_13
1005
34E0
  0
LINE
  5
34DF
330
2
100
AcDbEntity
  8
AM_7
  6
AM_ISO08W050X2
100
AcDbLine
 10
2392.259574378297
 20
351.8757594277966
 30
0.0
 11
2392.259574378297
 21
346.1257594277966
 31
0.0
1001
GENIUS_GENOREF_13
1005
34E0
  0
POINT
  5
34E0
330
2
100
AcDbEntity
  8
0
 60
     1
100
AcDbPoint
 10
0.0
 20
0.0
 30
0.0
1001
GENIUS_GENOBJ-N-CRS_13
1002
{
1000
OWNER
1000
GEN
1002
}
1001
GENIUS_GENOENT_13
1002
{
1000
MYREF
1005
34E0
1002
}
1002
{
1000
GRP
1005
0
1002
}
1001
GENIUS_GENOLIS_13
1002
{
1000
ENT
1005
34DF
1005
34DE
1005
34DD
1005
34DC
1002
}
1001
GENIUS_GENODEF_13
1002
{
1000
HIER
1070
    10
1002
}
1002
{
1000
MANEDIT
1070
     0
1002
}
1002
{
1000
NOSEL
1070
     0
1002
}
1002
{
1000
BEHIND
1070
     0
1002
}
1002
{
1000
OTHER
1070
     0
1002
}
1002
{
1000
REACTOR
1002
}
  0
LINE
  5
34EE
102
{ACAD_REACTORS
330
359A
102
}
330
2
100
AcDbEntity
  8
AM_7
  6
AM_ISO08W050X2
100
AcDbLine
 10
2456.259574378297
 20
351.8757594277966
 30
0.0
 11
2462.009574378297
 21
351.8757594277966
 31
0.0
1001
GENIUS_GENOREF_13
1005
34F2
  0
LINE
  5
34EF
330
2
100
AcDbEntity
  8
AM_7
  6
AM_ISO08W050X2
100
AcDbLine
 10
2456.259574378297
 20
351.8757594277966
 30
0.0
 11
2456.259574378297
 21
357.6257594277966
 31
0.0
1001
GENIUS_GENOREF_13
1005
34F2
  0
LINE
  5
34F0
330
2
100
AcDbEntity
  8
AM_7
  6
AM_ISO08W050X2
100
AcDbLine
 10
2456.259574378297
 20
351.8757594277966
 30
0.0
 11
2450.509574378297
 21
351.8757594277966
 31
0.0
1001
GENIUS_GENOREF_13
1005
34F2
  0
LINE
  5
34F1
330
2
100
AcDbEntity
  8
AM_7
  6
AM_ISO08W050X2
100
AcDbLine
 10
2456.259574378297
 20
351.8757594277966
 30
0.0
 11
2456.259574378297
 21
346.1257594277966
 31
0.0
1001
GENIUS_GENOREF_13
1005
34F2
  0
POINT
  5
34F2
330
2
100
AcDbEntity
  8
0
 60
     1
100
AcDbPoint
 10
0.0
 20
0.0
 30
0.0
1001
GENIUS_GENOLIS_13
1002
{
1000
ENT
1005
34F1
1005
34F0
1005
34EF
1005
34EE
1002
}
1001
GENIUS_GENOENT_13
1002
{
1000
MYREF
1005
34F2
1002
}
1002
{
1000
GRP
1005
0
1002
}
1001
GENIUS_GENOBJ-N-CRS_13
1002
{
1000
OWNER
1000
GEN
1002
}
1001
GENIUS_GENODEF_13
1002
{
1000
HIER
1070
    10
1002
}
1002
{
1000
MANEDIT
1070
     0
1002
}
1002
{
1000
NOSEL
1070
     0
1002
}
1002
{
1000
BEHIND
1070
     0
1002
}
1002
{
1000
OTHER
1070
     0
1002
}
1002
{
1000
REACTOR
1002
}
  0
LINE
  5
3500
102
{ACAD_REACTORS
330
359A
102
}
330
2
100
AcDbEntity
  8
AM_7
  6
AM_ISO08W050X2
100
AcDbLine
 10
2456.259574378297
 20
287.8757594277966
 30
0.0
 11
2462.009574378297
 21
287.8757594277966
 31
0.0
1001
GENIUS_GENOREF_13
1005
3504
  0
LINE
  5
3501
330
2
100
AcDbEntity
  8
AM_7
  6
AM_ISO08W050X2
100
AcDbLine
 10
2456.259574378297
 20
287.8757594277966
 30
0.0
 11
2456.259574378297
 21
293.6257594277966
 31
0.0
1001
GENIUS_GENOREF_13
1005
3504
  0
LINE
  5
3502
330
2
100
AcDbEntity
  8
AM_7
  6
AM_ISO08W050X2
100
AcDbLine
 10
2456.259574378297
 20
287.8757594277966
 30
0.0
 11
2450.509574378297
 21
287.8757594277966
 31
0.0
1001
GENIUS_GENOREF_13
1005
3504
  0
LINE
  5
3503
102
{ACAD_REACTORS
330
35D2
102
}
330
2
100
AcDbEntity
  8
AM_7
  6
AM_ISO08W050X2
100
AcDbLine
 10
2456.259574378297
 20
287.8757594277966
 30
0.0
 11
2456.259574378297
 21
282.1257594277966
 31
0.0
1001
GENIUS_GENOREF_13
1005
3504
  0
POINT
  5
3504
330
2
100
AcDbEntity
  8
0
 60
     1
100
AcDbPoint
 10
0.0
 20
0.0
 30
0.0
1001
GENIUS_GENOLIS_13
1002
{
1000
ENT
1005
3503
1005
3502
1005
3501
1005
3500
1002
}
1001
GENIUS_GENOENT_13
1002
{
1000
MYREF
1005
3504
1002
}
1002
{
1000
GRP
1005
0
1002
}
1001
GENIUS_GENOBJ-N-CRS_13
1002
{
1000
OWNER
1000
GEN
1002
}
1001
GENIUS_GENODEF_13
1002
{
1000
HIER
1070
    10
1002
}
1002
{
1000
MANEDIT
1070
     0
1002
}
1002
{
1000
NOSEL
1070
     0
1002
}
1002
{
1000
BEHIND
1070
     0
1002
}
1002
{
1000
OTHER
1070
     0
1002
}
1002
{
1000
REACTOR
1002
}
  0
LINE
  5
3512
330
2
100
AcDbEntity
  8
AM_7
  6
AM_ISO08W050X2
100
AcDbLine
 10
2392.259574378297
 20
287.8757594277966
 30
0.0
 11
2398.009574378297
 21
287.8757594277966
 31
0.0
1001
GENIUS_GENOREF_13
1005
3516
  0
LINE
  5
3513
330
2
100
AcDbEntity
  8
AM_7
  6
AM_ISO08W050X2
100
AcDbLine
 10
2392.259574378297
 20
287.8757594277966
 30
0.0
 11
2392.259574378297
 21
293.6257594277966
 31
0.0
1001
GENIUS_GENOREF_13
1005
3516
  0
LINE
  5
3514
330
2
100
AcDbEntity
  8
AM_7
  6
AM_ISO08W050X2
100
AcDbLine
 10
2392.259574378297
 20
287.8757594277966
 30
0.0
 11
2386.509574378297
 21
287.8757594277966
 31
0.0
1001
GENIUS_GENOREF_13
1005
3516
  0
LINE
  5
3515
102
{ACAD_REACTORS
330
35D2
102
}
330
2
100
AcDbEntity
  8
AM_7
  6
AM_ISO08W050X2
100
AcDbLine
 10
2392.259574378297
 20
287.8757594277966
 30
0.0
 11
2392.259574378297
 21
282.1257594277966
 31
0.0
1001
GENIUS_GENOREF_13
1005
3516
  0
POINT
  5
3516
330
2
100
AcDbEntity
  8
0
 60
     1
100
AcDbPoint
 10
0.0
 20
0.0
 30
0.0
1001
GENIUS_GENODEF_13
1002
{
1000
HIER
1070
    10
1002
}
1002
{
1000
MANEDIT
1070
     0
1002
}
1002
{
1000
NOSEL
1070
     0
1002
}
1002
{
1000
BEHIND
1070
     0
1002
}
1002
{
1000
OTHER
1070
     0
1002
}
1002
{
1000
REACTOR
1002
}
1001
GENIUS_GENOLIS_13
1002
{
1000
ENT
1005
3515
1005
3514
1005
3513
1005
3512
1002
}
1001
GENIUS_GENOENT_13
1002
{
1000
MYREF
1005
3516
1002
}
1002
{
1000
GRP
1005
0
1002
}
1001
GENIUS_GENOBJ-N-CRS_13
1002
{
1000
OWNER
1000
GEN
1002
}
  0
LINE
  5
352B
330
2
100
AcDbEntity
  8
HIDDEN
  6
HIDDEN
100
AcDbLine
 10
2648.531172690637
 20
114.1557180045383
 30
0.0
 11
2648.531172690637
 21
84.15571800453834
 31
0.0
  0
LINE
  5
352C
330
2
100
AcDbEntity
  8
HIDDEN
  6
HIDDEN
100
AcDbLine
 10
2640.031172690637
 20
114.1557180045383
 30
0.0
 11
2640.031172690637
 21
84.15571800453834
 31
0.0
  0
LINE
  5
352D
330
2
100
AcDbEntity
  8
CENTER
100
AcDbLine
 10
2644.281172690637
 20
115.1557180045383
 30
0.0
 11
2644.281172690637
 21
82.01373005537174
 31
0.0
  0
LINE
  5
352E
330
2
100
AcDbEntity
  8
CENTER
100
AcDbLine
 10
2580.281172690638
 20
115.1557180045383
 30
0.0
 11
2580.281172690638
 21
82.01373005537174
 31
0.0
  0
LINE
  5
352F
330
2
100
AcDbEntity
  8
HIDDEN
  6
HIDDEN
100
AcDbLine
 10
2584.531172690637
 20
114.1557180045383
 30
0.0
 11
2584.531172690637
 21
84.15571800453834
 31
0.0
  0
LINE
  5
3530
330
2
100
AcDbEntity
  8
HIDDEN
  6
HIDDEN
100
AcDbLine
 10
2576.031172690637
 20
114.1557180045383
 30
0.0
 11
2576.031172690637
 21
84.15571800453834
 31
0.0
  0
DIMENSION
  5
354B
330
2
100
AcDbEntity
  8
AM_5
100
AcDbDimension
  2
*D11
 10
2500.115095297913
 20
330.8757594277966
 30
0.0
 11
2496.364701597126
 21
319.875759427797
 31
0.0
 70
    32
  3
AM_ISO
100
AcDbAlignedDimension
 13
2483.259574378297
 23
308.8757594277966
 33
0.0
 14
2483.259574378297
 24
330.8757594277966
 34
0.0
 50
90.0
100
AcDbRotatedDimension
  0
DIMENSION
  5
3583
102
{ACAD_XDICTIONARY
360
3590
102
}
102
{ACAD_REACTORS
330
359A
102
}
330
2
100
AcDbEntity
  8
AM_5
100
AcDbDimension
  2
*D12
 10
2510.115095297913
 20
351.8757594277966
 30
0.0
 11
2506.365095297913
 21
319.875759427797
 31
0.0
 70
    32
  3
AM_ISO
100
AcDbAlignedDimension
 13
2462.009574378297
 23
287.8757594277966
 33
0.0
 14
2462.009574378297
 24
351.8757594277966
 34
0.0
 50
90.0
100
AcDbRotatedDimension
  0
DIMENSION
  5
35BB
102
{ACAD_XDICTIONARY
360
35C8
102
}
102
{ACAD_REACTORS
330
35D2
102
}
330
2
100
AcDbEntity
  8
AM_5
100
AcDbDimension
  2
*D13
 10
2456.259574378297
 20
265.9307815613662
 30
0.0
 11
2424.259574378297
 21
265.9307815613662
 31
0.0
 70
   160
  3
AM_ISO
100
AcDbAlignedDimension
 13
2392.259574378297
 23
282.1257594277966
 33
0.0
 14
2456.259574378297
 24
282.1257594277966
 34
0.0
 50
0.0000000000002036
100
AcDbRotatedDimension
  0
DIMENSION
  5
35F3
102
{ACAD_XDICTIONARY
360
3600
102
}
102
{ACAD_REACTORS
330
360A
102
}
330
2
100
AcDbEntity
  8
AM_5
100
AcDbDimension
  2
*D14
 10
2464.259574378297
 20
255.9307815613663
 30
0.0
 11
2424.259574378297
 21
255.9307815613663
 31
0.0
 70
   160
  1
{\Famgdt;o}<>
  3
AM_ISO
100
AcDbAlignedDimension
 13
2384.259574378297
 23
282.8757594277966
 33
0.0
 14
2464.259574378297
 24
282.8757594277966
 34
0.0
 50
0.0000000000002036
100
AcDbRotatedDimension
  0
DIMENSION
  5
36D3
330
2
100
AcDbEntity
  8
AM_5
100
AcDbDimension
  2
*D15
 10
2496.259574378297
 20
203.1557180045382
 30
0.0
 11
2492.50918067751
 21
214.1557180045387
 31
0.0
 70
    32
  3
AM_ISO
100
AcDbAlignedDimension
 13
2483.259574378297
 23
225.1557180045383
 33
0.0
 14
2483.259574378297
 24
203.1557180045383
 34
0.0
 50
90.0
100
AcDbRotatedDimension
  0
DIMENSION
  5
370B
330
2
100
AcDbEntity
  8
AM_5
100
AcDbDimension
  2
*D16
 10
2460.259574378297
 20
129.9914867259654
 30
0.0
 11
2439.896859480458
 21
129.9914867259654
 31
0.0
 70
   160
  1
%%c<>
  3
AM_ISO
100
AcDbAlignedDimension
 13
2388.259574378297
 23
141.1557180045383
 33
0.0
 14
2460.259574378297
 24
141.1557180045383
 34
0.0
 50
0.0000000000001018
100
AcDbRotatedDimension
  0
DIMENSION
  5
372F
102
{ACAD_XDICTIONARY
360
373C
102
}
102
{ACAD_REACTORS
330
3746
102
}
330
2
100
AcDbEntity
  8
AM_5
100
AcDbDimension
  2
*D17
 10
2476.259574378297
 20
84.15571800453834
 30
0.0
 11
2472.509574378297
 21
99.15571800453875
 31
0.0
 70
    32
  3
AM_ISO
100
AcDbAlignedDimension
 13
2463.759574378297
 23
114.1557180045383
 33
0.0
 14
2463.259574378297
 24
84.15571800453836
 34
0.0
 50
90.0
100
AcDbRotatedDimension
  0
DIMENSION
  5
3767
102
{ACAD_XDICTIONARY
360
3774
102
}
102
{ACAD_REACTORS
330
377E
102
}
330
2
100
AcDbEntity
  8
AM_5
100
AcDbDimension
  2
*D18
 10
2486.259574378297
 20
170.1557180045383
 30
0.0
 11
2482.509574378297
 21
127.1557180045387
 31
0.0
 70
    32
  3
AM_ISO
100
AcDbAlignedDimension
 13
2463.259574378297
 23
84.15571800453836
 33
0.0
 14
2458.259574378297
 24
170.1557180045383
 34
0.0
 50
90.0
100
AcDbRotatedDimension
  0
DIMENSION
  5
379F
102
{ACAD_XDICTIONARY
360
37AC
102
}
102
{ACAD_REACTORS
330
37B6
102
}
330
2
100
AcDbEntity
  8
AM_5
100
AcDbDimension
  2
*D19
 10
2506.259574378297
 20
225.1557180045383
 30
0.0
 11
2502.509574378297
 21
154.6557180045387
 31
0.0
 70
    32
  3
AM_ISO
100
AcDbAlignedDimension
 13
2463.259574378297
 23
84.15571800453836
 33
0.0
 14
2483.259574378297
 24
225.1557180045383
 34
0.0
 50
90.0
100
AcDbRotatedDimension
  0
DIMENSION
  5
37D7
102
{ACAD_XDICTIONARY
360
37E4
102
}
102
{ACAD_REACTORS
330
37EE
102
}
330
2
100
AcDbEntity
  8
AM_5
100
AcDbDimension
  2
*D20
 10
2496.259574378297
 20
203.1557180045382
 30
0.0
 11
2492.509574378297
 21
143.6557180045387
 31
0.0
 70
    32
  3
AM_ISO
100
AcDbAlignedDimension
 13
2463.259574378297
 23
84.15571800453836
 33
0.0
 14
2483.259574378297
 24
203.1557180045383
 34
0.0
 50
90.0
100
AcDbRotatedDimension
  0
TEXT
  5
38AA
330
2
100
AcDbEntity
  8
AM_5
100
AcDbText
 10
2471.265316688102
 20
182.7650441191968
 30
0.0
 40
4.0
  1
PT 1/8
  7
CHINA
100
AcDbText
  0
LINE
  5
3ED4
330
2
100
AcDbEntity
  8
0
100
AcDbLine
 10
2365.259574378297
 20
203.1557180045383
 30
0.0
 11
2483.259574378297
 21
203.1557180045383
 31
0.0
  0
LINE
  5
3ED5
330
2
100
AcDbEntity
  8
0
100
AcDbLine
 10
2365.259574378297
 20
225.1557180045383
 30
0.0
 11
2483.259574378297
 21
225.1557180045383
 31
0.0
  0
LINE
  5
3ED6
102
{ACAD_REACTORS
330
4024
102
}
330
2
100
AcDbEntity
  8
0
100
AcDbLine
 10
2364.259574378297
 20
204.1557180045383
 30
0.0
 11
2364.259574378297
 21
224.1557180045383
 31
0.0
  0
LINE
  5
3ED7
330
2
100
AcDbEntity
  8
0
100
AcDbLine
 10
2365.259574378297
 20
203.1557180045383
 30
0.0
 11
2364.259574378297
 21
204.1557180045383
 31
0.0
  0
LINE
  5
3ED8
330
2
100
AcDbEntity
  8
0
100
AcDbLine
 10
2364.259574378297
 20
224.1557180045383
 30
0.0
 11
2365.259574378297
 21
225.1557180045383
 31
0.0
  0
CIRCLE
  5
3ED9
330
2
100
AcDbEntity
  8
0
100
AcDbCircle
 10
2424.259574378297
 20
214.1557180045383
 30
0.0
 40
4.0
  0
LINE
  5
3EDA
102
{ACAD_REACTORS
330
4024
102
}
330
2
100
AcDbEntity
  8
0
100
AcDbLine
 10
2484.259574378297
 20
204.1557180045383
 30
0.0
 11
2484.259574378297
 21
224.1557180045383
 31
0.0
  0
LINE
  5
3EDB
330
2
100
AcDbEntity
  8
0
100
AcDbLine
 10
2484.259574378297
 20
204.1557180045383
 30
0.0
 11
2483.259574378297
 21
203.1557180045383
 31
0.0
  0
LINE
  5
3EDC
330
2
100
AcDbEntity
  8
0
100
AcDbLine
 10
2484.259574378297
 20
224.1557180045383
 30
0.0
 11
2483.259574378297
 21
225.1557180045383
 31
0.0
  0
LINE
  5
3F4A
330
2
100
AcDbEntity
  8
HIDDEN
  6
HIDDEN
100
AcDbLine
 10
2451.259574378297
 20
156.6273880180857
 30
0.0
 11
2460.259574378297
 21
156.1557180045383
 31
0.0
  0
LINE
  5
3F4B
330
2
100
AcDbEntity
  8
HIDDEN
  6
HIDDEN
100
AcDbLine
 10
2451.259574378297
 20
157.3773880180857
 30
0.0
 11
2460.259574378297
 21
156.9057180045383
 31
0.0
  0
LINE
  5
3F4C
330
2
100
AcDbEntity
  8
CENTER
  6
CENTER
100
AcDbLine
 10
2445.712782645518
 20
161.1557180045383
 30
0.0
 11
2461.712782645518
 21
161.1557180045383
 31
0.0
  0
LINE
  5
3F4D
330
2
100
AcDbEntity
  8
HIDDEN
  6
HIDDEN
100
AcDbLine
 10
2451.259574378297
 20
165.684047990991
 30
0.0
 11
2460.259574378297
 21
166.1557180045383
 31
0.0
  0
LINE
  5
3F4E
330
2
100
AcDbEntity
  8
HIDDEN
  6
HIDDEN
100
AcDbLine
 10
2451.259574378297
 20
164.9340479909909
 30
0.0
 11
2460.259574378297
 21
165.4057180045383
 31
0.0
  0
LINE
  5
3F4F
330
2
100
AcDbEntity
  8
HIDDEN
  6
HIDDEN
100
AcDbLine
 10
2455.259574378297
 20
109.6340479909909
 30
0.0
 11
2464.259574378297
 21
110.1057180045383
 31
0.0
  0
LINE
  5
3F50
330
2
100
AcDbEntity
  8
HIDDEN
  6
HIDDEN
100
AcDbLine
 10
2455.259574378297
 20
110.384047990991
 30
0.0
 11
2464.259574378297
 21
110.8557180045383
 31
0.0
  0
LINE
  5
3F51
330
2
100
AcDbEntity
  8
CENTER
  6
CENTER
100
AcDbLine
 10
2449.712782645519
 20
105.8557180045383
 30
0.0
 11
2465.712782645519
 21
105.8557180045383
 31
0.0
  0
LINE
  5
3F52
330
2
100
AcDbEntity
  8
HIDDEN
  6
HIDDEN
100
AcDbLine
 10
2455.259574378297
 20
102.0773880180857
 30
0.0
 11
2464.259574378297
 21
101.6057180045383
 31
0.0
  0
LINE
  5
3F53
330
2
100
AcDbEntity
  8
HIDDEN
  6
HIDDEN
100
AcDbLine
 10
2455.259574378297
 20
101.3273880180857
 30
0.0
 11
2464.259574378297
 21
100.8557180045383
 31
0.0
  0
INSERT
  5
3F54
330
2
100
AcDbEntity
  8
AM_5
100
AcDbBlockReference
  2
*S24
 10
0.0
 20
0.0
 30
0.0
  0
LINE
  5
3F70
330
2
100
AcDbEntity
  8
CENTER
100
AcDbLine
 10
2361.212425807697
 20
319.8757594277966
 30
0.0
 11
2489.340237552497
 21
319.8757594277966
 31
0.0
  0
LINE
  5
3F71
330
2
100
AcDbEntity
  8
0
100
AcDbLine
 10
2365.259574378297
 20
330.8757594277966
 30
0.0
 11
2483.259574378297
 21
330.8757594277966
 31
0.0
  0
LINE
  5
3F72
330
2
100
AcDbEntity
  8
0
100
AcDbLine
 10
2365.259574378297
 20
308.8757594277966
 30
0.0
 11
2483.259574378297
 21
308.8757594277966
 31
0.0
  0
LINE
  5
3F73
330
2
100
AcDbEntity
  8
0
100
AcDbLine
 10
2364.259574378297
 20
309.8757594277966
 30
0.0
 11
2364.259574378297
 21
329.8757594277966
 31
0.0
  0
LINE
  5
3F75
330
2
100
AcDbEntity
  8
0
100
AcDbLine
 10
2365.259574378297
 20
308.8757594277966
 30
0.0
 11
2364.259574378297
 21
309.8757594277966
 31
0.0
  0
LINE
  5
3F76
330
2
100
AcDbEntity
  8
0
100
AcDbLine
 10
2411.759574378297
 20
324.8757594277966
 30
0.0
 11
2436.759574378297
 21
324.8757594277966
 31
0.0
  0
LINE
  5
3F77
330
2
100
AcDbEntity
  8
0
100
AcDbLine
 10
2411.759574378297
 20
314.8757594277966
 30
0.0
 11
2436.759574378297
 21
314.8757594277966
 31
0.0
  0
ARC
  5
3F78
330
2
100
AcDbEntity
  8
0
100
AcDbCircle
 10
2411.759574378297
 20
319.8757594277966
 30
0.0
 40
5.0
100
AcDbArc
 50
90.0
 51
270.0
  0
ARC
  5
3F79
330
2
100
AcDbEntity
  8
0
100
AcDbCircle
 10
2424.259574378297
 20
319.8757594277966
 30
0.0
 40
10.0
100
AcDbArc
 50
150.0000000000027
 51
209.9999999999972
  0
ARC
  5
3F7A
330
2
100
AcDbEntity
  8
0
100
AcDbCircle
 10
2436.759574378297
 20
319.8757594277966
 30
0.0
 40
5.0
100
AcDbArc
 50
270.0
 51
90.0
  0
ARC
  5
3F7B
330
2
100
AcDbEntity
  8
0
100
AcDbCircle
 10
2424.259574378297
 20
319.8757594277966
 30
0.0
 40
10.0
100
AcDbArc
 50
330.0000000000027
 51
29.99999999999729
  0
LINE
  5
3F7C
330
2
100
AcDbEntity
  8
0
100
AcDbLine
 10
2364.259574378297
 20
329.8757594277966
 30
0.0
 11
2365.259574378297
 21
330.8757594277966
 31
0.0
  0
LINE
  5
3F7D
330
2
100
AcDbEntity
  8
0
100
AcDbLine
 10
2484.259574378297
 20
309.8757594277966
 30
0.0
 11
2484.259574378297
 21
329.8757594277966
 31
0.0
  0
LINE
  5
3F7E
330
2
100
AcDbEntity
  8
0
100
AcDbLine
 10
2484.259574378297
 20
309.8757594277966
 30
0.0
 11
2483.259574378297
 21
308.8757594277966
 31
0.0
  0
LINE
  5
3F7F
330
2
100
AcDbEntity
  8
0
100
AcDbLine
 10
2484.259574378297
 20
329.8757594277966
 30
0.0
 11
2483.259574378297
 21
330.8757594277966
 31
0.0
  0
ARC
  5
3F92
330
2
100
AcDbEntity
  8
0
100
AcDbCircle
 10
2424.259574378297
 20
319.8757594277966
 30
0.0
 40
37.5
100
AcDbArc
 50
17.05762362024188
 51
162.9423763797581
  0
POLYLINE
  5
3F9B
102
{ACAD_REACTORS
330
360A
102
}
330
2
100
AcDbEntity
  8
0
100
AcDb2dPolyline
 66
     1
 10
0.0
 20
0.0
 30
0.0
  0
VERTEX
  5
3F9C
102
{ACAD_REACTORS
330
360A
102
}
330
3F9B
100
AcDbEntity
  8
0
100
AcDbVertex
100
AcDb2dVertex
 10
2464.259574378297
 20
308.8757594277966
 30
0.0
  0
VERTEX
  5
3F9D
330
3F9B
100
AcDbEntity
  8
0
100
AcDbVertex
100
AcDb2dVertex
 10
2464.259574378297
 20
282.8757594277966
 30
0.0
  0
VERTEX
  5
3F9E
330
3F9B
100
AcDbEntity
  8
0
100
AcDbVertex
100
AcDb2dVertex
 10
2461.259574378297
 20
279.8757594277966
 30
0.0
  0
VERTEX
  5
3F9F
102
{ACAD_REACTORS
330
360A
102
}
330
3F9B
100
AcDbEntity
  8
0
100
AcDbVertex
100
AcDb2dVertex
 10
2387.259574378297
 20
279.8757594277966
 30
0.0
  0
VERTEX
  5
3FA0
330
3F9B
100
AcDbEntity
  8
0
100
AcDbVertex
100
AcDb2dVertex
 10
2384.259574378297
 20
282.8757594277966
 30
0.0
  0
SEQEND
  5
3FA1
330
3F9B
100
AcDbEntity
  8
0
  0
POLYLINE
  5
3FA2
330
2
100
AcDbEntity
  8
0
100
AcDb2dPolyline
 66
     1
 10
0.0
 20
0.0
 30
0.0
  0
VERTEX
  5
3FA3
330
3FA2
100
AcDbEntity
  8
0
100
AcDbVertex
100
AcDb2dVertex
 10
2384.259574378297
 20
330.8757594277966
 30
0.0
  0
VERTEX
  5
3FA4
330
3FA2
100
AcDbEntity
  8
0
100
AcDbVertex
100
AcDb2dVertex
 10
2384.259574378297
 20
356.8757594277966
 30
0.0
  0
VERTEX
  5
3FA5
330
3FA2
100
AcDbEntity
  8
0
100
AcDbVertex
100
AcDb2dVertex
 10
2387.259574378297
 20
359.8757594277966
 30
0.0
  0
VERTEX
  5
3FA6
330
3FA2
100
AcDbEntity
  8
0
100
AcDbVertex
100
AcDb2dVertex
 10
2461.259574378297
 20
359.8757594277966
 30
0.0
  0
VERTEX
  5
3FA7
330
3FA2
100
AcDbEntity
  8
0
100
AcDbVertex
100
AcDb2dVertex
 10
2464.259574378297
 20
356.8757594277966
 30
0.0
  0
VERTEX
  5
3FA8
330
3FA2
100
AcDbEntity
  8
0
100
AcDbVertex
100
AcDb2dVertex
 10
2464.259574378297
 20
330.8757594277966
 30
0.0
  0
SEQEND
  5
3FA9
330
3FA2
100
AcDbEntity
  8
0
  0
DIMENSION
  5
400D
102
{ACAD_XDICTIONARY
360
401A
102
}
102
{ACAD_REACTORS
330
4024
102
}
330
2
100
AcDbEntity
  8
AM_5
100
AcDbDimension
  2
*D22
 10
2484.259574378297
 20
236.1557180045383
 30
0.0
 11
2424.259574378297
 21
239.9061117053257
 31
0.0
 70
    32
  3
AM_ISO
100
AcDbAlignedDimension
 13
2364.259574378297
 23
224.1557180045383
 33
0.0
 14
2484.259574378297
 24
224.1557180045383
 34
0.0
100
AcDbRotatedDimension
  0
ENDSEC
  0
SECTION
  2
OBJECTS
  0
DICTIONARY
  5
8
330
0
100
AcDbDictionary
  3
ACAD_GROUP
350
21
  3
ACAD_LAYOUT
350
C
  3
ACAD_MLINESTYLE
350
22
  3
ACAD_PLOTSETTINGS
350
23
  3
ACMDICTIONARY
350
1F4
  3
AMG
350
1DA
  3
AMGSNAPSETTINGS
350
37D
  3
ASE_INDEX_DICTIONARY
350
E58
  3
DWGPROPS
350
46AA
1001
ACAD
1000
TREAT_AS_HARD
1070
     0
  0
DICTIONARY
  5
3
330
2
100
AcDbDictionary
  3
ACAD_INDEX
350
2B85
  3
ACAD_LAYOUTSELFREF
350
4845
1001
ACAD
1000
TREAT_AS_HARD
1070
     1
  0
DICTIONARY
  5
4846
330
D
100
AcDbDictionary
  3
ACAD_LAYOUTSELFREF
350
4847
  0
DICTIONARY
  5
3590
330
3583
100
AcDbDictionary
  3
ACAD_DIMASSOC
350
359A
1001
ACAD
1000
TREAT_AS_HARD
1070
     1
  0
DICTIONARY
  5
35C8
330
35BB
100
AcDbDictionary
  3
ACAD_DIMASSOC
350
35D2
1001
ACAD
1000
TREAT_AS_HARD
1070
     1
  0
DICTIONARY
  5
3600
330
35F3
100
AcDbDictionary
  3
ACAD_DIMASSOC
350
360A
1001
ACAD
1000
TREAT_AS_HARD
1070
     1
  0
DICTIONARY
  5
373C
330
372F
100
AcDbDictionary
  3
ACAD_DIMASSOC
350
3746
1001
ACAD
1000
TREAT_AS_HARD
1070
     1
  0
DICTIONARY
  5
3774
330
3767
100
AcDbDictionary
  3
ACAD_DIMASSOC
350
377E
1001
ACAD
1000
TREAT_AS_HARD
1070
     1
  0
DICTIONARY
  5
37AC
330
379F
100
AcDbDictionary
  3
ACAD_DIMASSOC
350
37B6
1001
ACAD
1000
TREAT_AS_HARD
1070
     1
  0
DICTIONARY
  5
37E4
330
37D7
100
AcDbDictionary
  3
ACAD_DIMASSOC
350
37EE
1001
ACAD
1000
TREAT_AS_HARD
1070
     1
  0
DICTIONARY
  5
401A
330
400D
100
AcDbDictionary
  3
ACAD_DIMASSOC
350
4024
1001
ACAD
1000
TREAT_AS_HARD
1070
     1
  0
DICTIONARY
  5
21
102
{ACAD_REACTORS
330
8
102
}
330
8
100
AcDbDictionary
1001
ACAD
1000
TREAT_AS_HARD
1070
     0
  0
DICTIONARY
  5
C
102
{ACAD_REACTORS
330
8
102
}
330
8
100
AcDbDictionary
1001
ACAD
1000
TREAT_AS_HARD
1070
     0
  0
DICTIONARY
  5
22
102
{ACAD_REACTORS
330
8
102
}
330
8
100
AcDbDictionary
  3
STANDARD
350
24
1001
ACAD
1000
TREAT_AS_HARD
1070
     0
  0
DICTIONARY
  5
23
102
{ACAD_REACTORS
330
8
102
}
330
8
100
AcDbDictionary
1001
ACAD
1000
TREAT_AS_HARD
1070
     0
  0
DICTIONARY
  5
1F4
102
{ACAD_REACTORS
330
8
102
}
330
8
100
AcDbDictionary
  3
ACMSTDDICTIONARY
350
1FA
1001
ACAD
1000
TREAT_AS_HARD
1070
     0
  0
DICTIONARY
  5
1DA
102
{ACAD_REACTORS
330
8
102
}
330
8
100
AcDbDictionary
  3
ACMGSETTINGS
350
1DB
1001
ACAD
1000
TREAT_AS_HARD
1070
     0
  0
DICTIONARY
  5
37D
102
{ACAD_REACTORS
330
8
102
}
330
8
100
AcDbDictionary
1001
ACAD
1000
TREAT_AS_HARD
1070
     0
  0
DICTIONARY
  5
E58
102
{ACAD_REACTORS
330
8
102
}
330
8
100
AcDbDictionary
  3
ASEBLOCKHIERARCHYINDEXRECORD
350
E5A
1001
DCO15
1040
1443953005.444
1001
ACAD
1000
TREAT_AS_HARD
1070
     0
  0
XRECORD
  5
46AA
102
{ACAD_REACTORS
330
8
102
}
330
8
100
AcDbXrecord
  1
DWGPROPS COOKIE
  2

  3

  4

  6

  7

  8

  9

300
AmdtFileType=84
301
=
302
=
303
=
304
=
305
=
306
=
307
=
308
=
309
=
 40
0.1295824074074074
 41
2452794.706235081
 42
2452796.62288949
  1

 90
        1
  0
DICTIONARY
  5
2B85
102
{ACAD_REACTORS
330
3
102
}
330
3
100
AcDbDictionary
  3
*A1
350
2B86
1001
ACAD
1000
TREAT_AS_HARD
1070
     0
  0
XRECORD
  5
4845
102
{ACAD_REACTORS
330
3
102
}
330
3
100
AcDbXrecord
340
2
  0
XRECORD
  5
4847
102
{ACAD_REACTORS
330
4846
102
}
330
4846
100
AcDbXrecord
340
D
  0
DIMASSOC
  5
359A
102
{ACAD_REACTORS
330
3590
102
}
330
3590
100
AcDbDimAssoc
330
3583
 90
        3
 70
     0
 71
     0
  1
AcDbOsnapPointRef
 72
     1
331
3500
 73
     0
 91
        0
 40
0.0
 10
2462.009574378297
 20
287.8757594277966
 30
0.0
 75
     0
  1
AcDbOsnapPointRef
 72
     1
331
34EE
 73
     0
 91
        0
 40
0.0
 10
2462.009574378297
 20
351.8757594277966
 30
0.0
 75
     0
  0
DIMASSOC
  5
35D2
102
{ACAD_REACTORS
330
35C8
102
}
330
35C8
100
AcDbDimAssoc
330
35BB
 90
        3
 70
     0
 71
     0
  1
AcDbOsnapPointRef
 72
     1
331
3515
 73
     0
 91
        0
 40
0.0
 10
2392.259574378297
 20
282.1257594277966
 30
0.0
 75
     0
  1
AcDbOsnapPointRef
 72
     1
331
3503
 73
     0
 91
        0
 40
0.0
 10
2456.259574378297
 20
282.1257594277966
 30
0.0
 75
     0
  0
DIMASSOC
  5
360A
102
{ACAD_REACTORS
330
3600
102
}
330
3600
100
AcDbDimAssoc
330
35F3
 90
        3
 70
     0
 71
     0
  1
AcDbOsnapPointRef
 72
     1
331
3F9B
331
3F9F
 73
     0
 91
        0
 40
0.0
 10
2384.259574378297
 20
282.8757594277966
 30
0.0
 75
     0
  1
AcDbOsnapPointRef
 72
     1
331
3F9B
331
3F9C
 73
     0
 91
        0
 40
0.0
 10
2464.259574378297
 20
282.8757594277966
 30
0.0
 75
     0
  0
DIMASSOC
  5
3746
102
{ACAD_REACTORS
330
373C
102
}
330
373C
100
AcDbDimAssoc
330
372F
 90
        3
 70
     0
 71
     0
  1
AcDbOsnapPointRef
 72
     1
331
341E
 73
     0
 91
        0
 40
0.0
 10
2463.759574378297
 20
114.1557180045383
 30
0.0
 75
     0
  1
AcDbOsnapPointRef
 72
     1
331
3408
 73
     0
 91
        0
 40
0.0
 10
2463.259574378297
 20
84.15571800453836
 30
0.0
 75
     0
  0
DIMASSOC
  5
377E
102
{ACAD_REACTORS
330
3774
102
}
330
3774
100
AcDbDimAssoc
330
3767
 90
        3
 70
     0
 71
     0
  1
AcDbOsnapPointRef
 72
     1
331
3408
 73
     0
 91
        0
 40
0.0
 10
2463.259574378297
 20
84.15571800453836
 30
0.0
 75
     0
  1
AcDbOsnapPointRef
 72
     1
331
3416
 73
     0
 91
        0
 40
0.0
 10
2458.259574378297
 20
170.1557180045383
 30
0.0
 75
     0
  0
DIMASSOC
  5
37B6
102
{ACAD_REACTORS
330
37AC
102
}
330
37AC
100
AcDbDimAssoc
330
379F
 90
        1
 70
     0
 71
     0
  1
AcDbOsnapPointRef
 72
     1
331
3408
 73
     0
 91
        0
 40
0.0
 10
2463.259574378297
 20
84.15571800453836
 30
0.0
 75
     0
  0
DIMASSOC
  5
37EE
102
{ACAD_REACTORS
330
37E4
102
}
330
37E4
100
AcDbDimAssoc
330
37D7
 90
        1
 70
     0
 71
     0
  1
AcDbOsnapPointRef
 72
     1
331
3408
 73
     0
 91
        0
 40
0.0
 10
2463.259574378297
 20
84.15571800453836
 30
0.0
 75
     0
  0
DIMASSOC
  5
4024
102
{ACAD_REACTORS
330
401A
102
}
330
401A
100
AcDbDimAssoc
330
400D
 90
        3
 70
     0
 71
     0
  1
AcDbOsnapPointRef
 72
     1
331
3ED6
 73
     0
 91
        0
 40
0.0
 10
2364.259574378297
 20
224.1557180045383
 30
0.0
 75
     0
  1
AcDbOsnapPointRef
 72
     1
331
3EDA
 73
     0
 91
        0
 40
0.0
 10
2484.259574378297
 20
224.1557180045383
 30
0.0
 75
     0
  0
MLINESTYLE
  5
24
102
{ACAD_REACTORS
330
22
102
}
330
22
100
AcDbMlineStyle
  2
STANDARD
 70
     0
  3

 62
   256
 51
90.0
 52
90.0
 71
     2
 49
0.5
 62
   256
  6
BYLAYER
 49
-0.5
 62
   256
  6
BYLAYER
  0
DICTIONARY
  5
1FA
102
{ACAD_REACTORS
330
1F4
102
}
330
1F4
100
AcDbDictionary
1001
ACAD
1000
TREAT_AS_HARD
1070
     0
  0
DICTIONARY
  5
1DB
102
{ACAD_REACTORS
330
1DA
102
}
330
1DA
100
AcDbDictionary
  3
DWGSETTINGS
350
1DC
1001
ACAD
1000
TREAT_AS_HARD
1070
     0
  0
XRECORD
  5
E5A
102
{ACAD_REACTORS
330
E58
102
}
330
E58
100
AcDbXrecord
330
0
330
0
  0
LAYER_INDEX
  5
2B86
102
{ACAD_REACTORS
330
2B85
102
}
330
2B85
100
AcDbIndex
 40
2452796.644619918
100
AcDbLayerIndex
  8
0
360
2B87
 90
       91
  8
Defpoints
360
2B88
 90
        0
  8
AM_5
360
2B89
 90
       17
  8
AM_PARDIM
360
2B8A
 90
       10
  8
AM_7
360
2B8B
 90
       19
  8
HIDDEN
360
2B8C
 90
       12
  8
DIM
360
2B8D
 90
        4
  8
CENTER
360
2B8E
 90
        7
  8
LOGO
360
2B8F
 90
      110
  0
XRECORD
  5
1DC
102
{ACAD_REACTORS
330
1DB
102
}
330
1DB
100
AcDbXrecord
  1
VERSION
140
15.0
  1
PRODUCT
  2
AutoCAD Mechanical 2000
  0
IDBUFFER
  5
2B87
330
0
100
AcDbIdBuffer
330
25
330
26
330
27
330
28
330
29
330
2A
330
2B
330
2C
330
2D
330
2E
330
2F
330
30
330
1258
330
1259
330
125A
330
12BA
330
3408
330
340A
330
3416
330
341E
330
3426
330
3427
330
3428
330
3429
330
342B
330
3434
330
3438
330
3439
330
343F
330
3440
330
3441
330
3442
330
3443
330
3444
330
3445
330
344D
330
344E
330
3450
330
3451
330
3452
330
3453
330
3454
330
3457
330
3458
330
3459
330
345E
330
345F
330
3461
330
3462
330
3468
330
3469
330
346A
330
346B
330
346C
330
346D
330
346F
330
3470
330
3471
330
3472
330
3473
330
34CE
330
34E0
330
34F2
330
3504
330
3516
330
3ED4
330
3ED5
330
3ED6
330
3ED7
330
3ED8
330
3ED9
330
3EDA
330
3EDB
330
3EDC
330
3F71
330
3F72
330
3F73
330
3F75
330
3F76
330
3F77
330
3F78
330
3F79
330
3F7A
330
3F7B
330
3F7C
330
3F7D
330
3F7E
330
3F7F
330
3F92
330
3F9B
330
3FA2
  0
IDBUFFER
  5
2B88
330
0
100
AcDbIdBuffer
  0
IDBUFFER
  5
2B89
330
0
100
AcDbIdBuffer
330
151
330
156
330
302D
330
302E
330
354B
330
3583
330
35BB
330
35F3
330
36D3
330
370B
330
372F
330
3767
330
379F
330
37D7
330
38AA
330
3F54
330
400D
  0
IDBUFFER
  5
2B8A
330
0
100
AcDbIdBuffer
330
31
330
43
330
52
330
5F
330
6C
330
79
330
86
330
95
330
A3
330
B0
  0
IDBUFFER
  5
2B8B
330
0
100
AcDbIdBuffer
330
C8
330
34CB
330
34CD
330
34DC
330
34DD
330
34DE
330
34DF
330
34EE
330
34EF
330
34F0
330
34F1
330
3500
330
3501
330
3502
330
3503
330
3512
330
3513
330
3514
330
3515
  0
IDBUFFER
  5
2B8C
330
0
100
AcDbIdBuffer
330
352B
330
352C
330
352F
330
3530
330
3F4A
330
3F4B
330
3F4D
330
3F4E
330
3F4F
330
3F50
330
3F52
330
3F53
  0
IDBUFFER
  5
2B8D
330
0
100
AcDbIdBuffer
330
2D17
330
2D18
330
2D19
330
2D22
  0
IDBUFFER
  5
2B8E
330
0
100
AcDbIdBuffer
330
343B
330
344F
330
352D
330
352E
330
3F4C
330
3F51
330
3F70
  0
IDBUFFER
  5
2B8F
330
0
100
AcDbIdBuffer
330
124B
330
124C
330
124D
330
124E
330
124F
330
1250
330
1251
330
1252
330
1256
330
1257
330
125B
330
125C
330
125D
330
1261
330
1262
330
1263
330
1264
330
1265
330
1266
330
1267
330
1268
330
1269
330
126A
330
126B
330
126F
330
1270
330
1271
330
1272
330
1273
330
1274
330
1275
330
1276
330
127A
330
127B
330
127C
330
127D
330
127E
330
127F
330
1280
330
1281
330
1282
330
1286
330
1287
330
1288
330
1289
330
128A
330
128E
330
128F
330
1290
330
1294
330
1298
330
1299
330
129A
330
12BB
330
12BC
330
12BD
330
12BE
330
12BF
330
12C0
330
12C1
330
12C2
330
12C3
330
12C4
330
12C5
330
12C6
330
12C7
330
12C8
330
12C9
330
12CA
330
12CB
330
12CC
330
12CD
330
12CE
330
12CF
330
12D0
330
12D1
330
12D2
330
12D3
330
12D4
330
12D5
330
12D6
330
12D7
330
12D8
330
12D9
330
12DA
330
12DB
330
12DC
330
12DD
330
12DE
330
12DF
330
12E0
330
12E1
330
12E2
330
12E3
330
12E4
330
12E5
330
12E6
330
12E7
330
12E8
330
12E9
330
12EA
330
12EB
330
12EC
330
12ED
330
12EE
330
12EF
330
12F0
330
1309
330
130A
330
130B
  0
ENDSEC
  0
EOF
