  0
SECTION
  2
HEADER
  9
$ACADVER
  1
AC1015
  9
$ACADMAINTVER
 70
    20
  9
$DWGCODEPAGE
  3
ANSI_950
  9
$INSBASE
 10
0.0
 20
0.0
 30
0.0
  9
$EXTMIN
 10
1960.579553207196
 20
1138.711441737062
 30
0.0
  9
$EXTMAX
 10
2252.794254745644
 20
1385.224513536883
 30
207.2678891830533
  9
$LIMMIN
 10
0.0
 20
0.0
  9
$LIMMAX
 10
420.0
 20
297.0
  9
$ORTHOMODE
 70
     0
  9
$REGENMODE
 70
     1
  9
$FILLMODE
 70
     1
  9
$QTEXTMODE
 70
     0
  9
$MIRRTEXT
 70
     1
  9
$LTSCALE
 40
1.0
  9
$ATTMODE
 70
     1
  9
$TEXTSIZE
 40
3.0
  9
$TRACEWID
 40
1.0
  9
$TEXTSTYLE
  7
CHINESET
  9
$CLAYER
  8
0
  9
$CELTYPE
  6
ByLayer
  9
$CECOLOR
 62
   256
  9
$CELTSCALE
 40
1.0
  9
$DISPSILH
 70
     0
  9
$DIMSCALE
 40
1.0
  9
$DIMASZ
 40
3.0
  9
$DIMEXO
 40
1.0
  9
$DIMDLI
 40
14.0
  9
$DIMRND
 40
0.0
  9
$DIMDLE
 40
0.0
  9
$DIMEXE
 40
1.5
  9
$DIMTP
 40
0.1
  9
$DIMTM
 40
0.1
  9
$DIMTXT
 40
3.0
  9
$DIMCEN
 40
0.0
  9
$DIMTSZ
 40
0.0
  9
$DIMTOL
 70
     0
  9
$DIMLIM
 70
     0
  9
$DIMTIH
 70
     0
  9
$DIMTOH
 70
     0
  9
$DIMSE1
 70
     0
  9
$DIMSE2
 70
     0
  9
$DIMTAD
 70
     1
  9
$DIMZIN
 70
     8
  9
$DIMBLK
  1

  9
$DIMASO
 70
     1
  9
$DIMSHO
 70
     1
  9
$DIMPOST
  1

  9
$DIMAPOST
  1
"
  9
$DIMALT
 70
     0
  9
$DIMALTD
 70
     2
  9
$DIMALTF
 40
0.0393701
  9
$DIMLFAC
 40
1.0
  9
$DIMTOFL
 70
     1
  9
$DIMTVP
 40
0.0
  9
$DIMTIX
 70
     0
  9
$DIMSOXD
 70
     0
  9
$DIMSAH
 70
     0
  9
$DIMBLK1
  1

  9
$DIMBLK2
  1

  9
$DIMSTYLE
  2
AM_ISO
  9
$DIMCLRD
 70
   256
  9
$DIMCLRE
 70
   256
  9
$DIMCLRT
 70
   256
  9
$DIMTFAC
 40
0.71
  9
$DIMGAP
 40
1.0
  9
$DIMJUST
 70
     0
  9
$DIMSD1
 70
     0
  9
$DIMSD2
 70
     0
  9
$DIMTOLJ
 70
     0
  9
$DIMTZIN
 70
     8
  9
$DIMALTZ
 70
     0
  9
$DIMALTTZ
 70
     0
  9
$DIMUPT
 70
     0
  9
$DIMDEC
 70
     1
  9
$DIMTDEC
 70
     8
  9
$DIMALTU
 70
     2
  9
$DIMALTTD
 70
     2
  9
$DIMTXSTY
  7
STANDARD
  9
$DIMAUNIT
 70
     0
  9
$DIMADEC
 70
     0
  9
$DIMALTRND
 40
0.0
  9
$DIMAZIN
 70
     2
  9
$DIMDSEP
 70
    46
  9
$DIMATFIT
 70
     3
  9
$DIMFRAC
 70
     0
  9
$DIMLDRBLK
  1

  9
$DIMLUNIT
 70
     2
  9
$DIMLWD
 70
    -1
  9
$DIMLWE
 70
    -1
  9
$DIMTMOVE
 70
     0
  9
$LUNITS
 70
     2
  9
$LUPREC
 70
     2
  9
$SKETCHINC
 40
1.0
  9
$FILLETRAD
 40
2.5
  9
$AUNITS
 70
     0
  9
$AUPREC
 70
     0
  9
$MENU
  1
.
  9
$ELEVATION
 40
0.0
  9
$PELEVATION
 40
0.0
  9
$THICKNESS
 40
0.0
  9
$LIMCHECK
 70
     0
  9
$CHAMFERA
 40
2.5
  9
$CHAMFERB
 40
2.5
  9
$CHAMFERC
 40
20.0
  9
$CHAMFERD
 40
0.0
  9
$SKPOLY
 70
     0
  9
$TDCREATE
 40
2453595.458965741
  9
$TDUCREATE
 40
2453595.125632408
  9
$TDUPDATE
 40
2456561.597511748
  9
$TDUUPDATE
 40
2456561.264178414
  9
$TDINDWG
 40
0.5703763079
  9
$TDUSRTIMER
 40
0.5703763079
  9
$USRTIMER
 70
     1
  9
$ANGBASE
 50
0.0
  9
$ANGDIR
 70
     0
  9
$PDMODE
 70
     0
  9
$PDSIZE
 40
0.0
  9
$PLINEWID
 40
0.0
  9
$SPLFRAME
 70
     0
  9
$SPLINETYPE
 70
     6
  9
$SPLINESEGS
 70
     8
  9
$HANDSEED
  5
784B
  9
$SURFTAB1
 70
     6
  9
$SURFTAB2
 70
     6
  9
$SURFTYPE
 70
     6
  9
$SURFU
 70
     6
  9
$SURFV
 70
     6
  9
$UCSBASE
  2

  9
$UCSNAME
  2

  9
$UCSORG
 10
0.0
 20
0.0
 30
0.0
  9
$UCSXDIR
 10
1.0
 20
0.0
 30
0.0
  9
$UCSYDIR
 10
0.0
 20
1.0
 30
0.0
  9
$UCSORTHOREF
  2

  9
$UCSORTHOVIEW
 70
     0
  9
$UCSORGTOP
 10
0.0
 20
0.0
 30
0.0
  9
$UCSORGBOTTOM
 10
0.0
 20
0.0
 30
0.0
  9
$UCSORGLEFT
 10
0.0
 20
0.0
 30
0.0
  9
$UCSORGRIGHT
 10
0.0
 20
0.0
 30
0.0
  9
$UCSORGFRONT
 10
0.0
 20
0.0
 30
0.0
  9
$UCSORGBACK
 10
0.0
 20
0.0
 30
0.0
  9
$PUCSBASE
  2

  9
$PUCSNAME
  2

  9
$PUCSORG
 10
0.0
 20
0.0
 30
0.0
  9
$PUCSXDIR
 10
1.0
 20
0.0
 30
0.0
  9
$PUCSYDIR
 10
0.0
 20
1.0
 30
0.0
  9
$PUCSORTHOREF
  2

  9
$PUCSORTHOVIEW
 70
     0
  9
$PUCSORGTOP
 10
0.0
 20
0.0
 30
0.0
  9
$PUCSORGBOTTOM
 10
0.0
 20
0.0
 30
0.0
  9
$PUCSORGLEFT
 10
0.0
 20
0.0
 30
0.0
  9
$PUCSORGRIGHT
 10
0.0
 20
0.0
 30
0.0
  9
$PUCSORGFRONT
 10
0.0
 20
0.0
 30
0.0
  9
$PUCSORGBACK
 10
0.0
 20
0.0
 30
0.0
  9
$USERI1
 70
     0
  9
$USERI2
 70
     0
  9
$USERI3
 70
     0
  9
$USERI4
 70
     0
  9
$USERI5
 70
     0
  9
$USERR1
 40
0.0
  9
$USERR2
 40
0.0
  9
$USERR3
 40
0.0
  9
$USERR4
 40
0.0
  9
$USERR5
 40
0.0
  9
$WORLDVIEW
 70
     1
  9
$SHADEDGE
 70
     3
  9
$SHADEDIF
 70
    70
  9
$TILEMODE
 70
     1
  9
$MAXACTVP
 70
    64
  9
$PINSBASE
 10
0.0
 20
0.0
 30
0.0
  9
$PLIMCHECK
 70
     0
  9
$PEXTMIN
 10
1.000000000000000E+20
 20
1.000000000000000E+20
 30
1.000000000000000E+20
  9
$PEXTMAX
 10
-1.000000000000000E+20
 20
-1.000000000000000E+20
 30
-1.000000000000000E+20
  9
$PLIMMIN
 10
0.0
 20
0.0
  9
$PLIMMAX
 10
420.0
 20
297.0
  9
$UNITMODE
 70
     0
  9
$VISRETAIN
 70
     1
  9
$PLINEGEN
 70
     0
  9
$PSLTSCALE
 70
     1
  9
$TREEDEPTH
 70
  3020
  9
$CMLSTYLE
  2
Standard
  9
$CMLJUST
 70
     0
  9
$CMLSCALE
 40
20.0
  9
$PROXYGRAPHICS
 70
     1
  9
$MEASUREMENT
 70
     1
  9
$CELWEIGHT
370
    -1
  9
$ENDCAPS
280
     0
  9
$JOINSTYLE
280
     0
  9
$LWDISPLAY
290
     0
  9
$INSUNITS
 70
     4
  9
$HYPERLINKBASE
  1

  9
$STYLESHEET
  1
彩色出圖.ctb
  9
$XEDIT
290
     1
  9
$CEPSNTYPE
380
     0
  9
$PSTYLEMODE
290
     1
  9
$FINGERPRINTGUID
  2
{9E01B807-D114-4957-B4FC-231A1635D619}
  9
$VERSIONGUID
  2
{AFFBA7A3-A924-420A-805D-98155195D9F9}
  9
$EXTNAMES
290
     1
  9
$PSVPSCALE
 40
0.0
  9
$OLESTARTUP
290
     0
  0
ENDSEC
  0
SECTION
  2
CLASSES
  0
CLASS
  1
ACDBDICTIONARYWDFLT
  2
AcDbDictionaryWithDefault
  3
ObjectDBX Classes
 90
        0
280
     0
281
     0
  0
CLASS
  1
ACDBPLACEHOLDER
  2
AcDbPlaceHolder
  3
ObjectDBX Classes
 90
        0
280
     0
281
     0
  0
CLASS
  1
LAYOUT
  2
AcDbLayout
  3
ObjectDBX Classes
 90
        0
280
     0
281
     0
  0
CLASS
  1
ACME_DOCUMENT
  2
AcMeDbDoc
  3
AcMeServices
 90
        0
280
     0
281
     0
  0
CLASS
  1
AMGSETTINGSOBJ
  2
AmgSettingsObj
  3
"AcadM|Product Description: AutoCAD Mechanical 2000|Company: Autodesk"
 90
        0
280
     0
281
     0
  0
CLASS
  1
ACMESCOPE
  2
AcMeScope
  3
AcMeServices
 90
        0
280
     0
281
     0
  0
CLASS
  1
ACMECOMMANDHISTORY
  2
AcMeCommandHistory
  3
AcMeServices
 90
        0
280
     0
281
     0
  0
CLASS
  1
ACIMSYSVARMAN
  2
AcImSysVarManager
  3
AcMeServices
 90
        0
280
     0
281
     0
  0
CLASS
  1
ACIMREALSYSVAR
  2
AcImRealSysVar
  3
AcMeServices
 90
        0
280
     0
281
     0
  0
CLASS
  1
ACIMINTSYSVAR
  2
AcImIntSysVar
  3
AcMeServices
 90
        0
280
     0
281
     0
  0
CLASS
  1
ACMEDRAWINGMAN
  2
AcMeDrawingMan
  3
AcMeServices
 90
        0
280
     0
281
     0
  0
CLASS
  1
ACMEVIEW
  2
AcMeView
  3
AcMeServices
 90
        0
280
     0
281
     0
  0
CLASS
  1
ACDBENTITYCACHE
  2
AcMeEntityCache
  3
AcMeServices
 90
        0
280
     0
281
     0
  0
CLASS
  1
GSMANAGER
  2
AcMeGSManager
  3
AcMeServices
 90
        0
280
     0
281
     0
  0
CLASS
  1
AMDTINTERNALREACTOR
  2
AmdtInternalReactor
  3
AcMeServices
 90
        0
280
     0
281
     0
  0
CLASS
  1
ACMESTATEMGR
  2
AcMeStateMgr
  3
AcMeServices
 90
        0
280
     0
281
     0
  0
CLASS
  1
ACGREFMASTER
  2
AcGrefMaster
  3
AcAttribServices
 90
        0
280
     0
281
     0
  0
CLASS
  1
ACME_DATABASE
  2
AcMeDbDatabase
  3
AcMeServices
 90
        0
280
     0
281
     0
  0
CLASS
  1
ACRFINSADJUSTERMGR
  2
AcRfInsAdjusterMgr
  3
AcMeServices
 90
        0
280
     0
281
     0
  0
CLASS
  1
ACGREFACADMASTER
  2
AcGrefacadMaster
  3
AcGrefServices
 90
        0
280
     0
281
     0
  0
CLASS
  1
AMIMASTER
  2
AmiMaster
  3
AmiServices
 90
        0
280
     0
281
     0
  0
CLASS
  1
ACMDATADICTIONARY
  2
AcmDataDictionary
  3
"AcmSymBB|Product Description: AutoCAD Mechanical 2004 DX|Company: Autodesk"
 90
        0
280
     0
281
     0
  0
CLASS
  1
ACMDATAENTRYBLOCK
  2
AcmDataEntryBlock
  3
"AcmSymBB|Product Description: AutoCAD Mechanical 2004 DX|Company: Autodesk"
 90
        0
280
     0
281
     0
  0
CLASS
  1
ACIMSTRSYSVAR
  2
AcImStrSysVar
  3
AcMeServices
 90
        0
280
     0
281
     0
  0
CLASS
  1
ACMSTANDARDISO
  2
AcmStandardISO
  3
"Amdt_StdImp|Product Description: AutoCAD Mechanical 2004 DX|Company: Autodesk"
 90
        0
280
     0
281
     0
  0
CLASS
  1
AMGOBJPROPCFG
  2
AmgObjPropCfg
  3
"AmgLay|Product Description: AutoCAD Mechanical 2000|Company: Autodesk"
 90
        1
280
     0
281
     0
  0
CLASS
  1
AMDTEDGESTANDARDISO
  2
AmdtEdgeStdISO
  3
"Amdt_StdImp|Product Description: AutoCAD Mechanical 2004 DX|Company: Autodesk"
 90
    32768
280
     0
281
     0
  0
CLASS
  1
ACMSURFSTANDARDISO
  2
AcmSurfTextStdISO
  3
"Amdt_StdImp|Product Description: AutoCAD Mechanical 2004 DX|Company: Autodesk"
 90
        0
280
     0
281
     0
  0
CLASS
  1
ACMFCFSTANDARDISO
  2
AcmFCFStdISO
  3
"Amdt_StdImp|Product Description: AutoCAD Mechanical 2004 DX|Company: Autodesk"
 90
        0
280
     0
281
     0
  0
CLASS
  1
ACMWELDSTANDARDISO
  2
AcmWeldingStdISO
  3
"Amdt_StdImp|Product Description: AutoCAD Mechanical 2004 DX|Company: Autodesk"
 90
        0
280
     0
281
     0
  0
CLASS
  1
ACMIDSTANDARDISO
  2
AcmIdStdISO
  3
"Amdt_StdImp|Product Description: AutoCAD Mechanical 2004 DX|Company: Autodesk"
 90
        0
280
     0
281
     0
  0
CLASS
  1
ACMDATUMSTANDARDISO
  2
AcmDatumStdISO
  3
"Amdt_StdImp|Product Description: AutoCAD Mechanical 2004 DX|Company: Autodesk"
 90
        0
280
     0
281
     0
  0
CLASS
  1
ACMBOMSTANDARDISO
  2
AcmBOMStdISO
  3
"Amdt_StdImp|Product Description: AutoCAD Mechanical 2004 DX|Company: Autodesk"
 90
        0
280
     0
281
     0
  0
CLASS
  1
ACMDETAILSTANDARDISO
  2
AmdtDetailSymStdISO
  3
"Amdt_StdImp|Product Description: AutoCAD Mechanical 2004 DX|Company: Autodesk"
 90
        0
280
     0
281
     0
  0
CLASS
  1
ACMSECTIONSTANDARDISO
  2
AmdtSectionSymStdISO
  3
"Amdt_StdImp|Product Description: AutoCAD Mechanical 2004 DX|Company: Autodesk"
 90
        0
280
     0
281
     0
  0
CLASS
  1
ACMCENTERLINESTANDARDISO
  2
AmdtCenterLineStdISO
  3
"Amdt_StdImp|Product Description: AutoCAD Mechanical 2004 DX|Company: Autodesk"
 90
        0
280
     0
281
     0
  0
CLASS
  1
ACMNOTESTANDARDISO
  2
AmdtNoteStdISO
  3
"Amdt_StdImp|Product Description: AutoCAD Mechanical 2004 DX|Company: Autodesk"
 90
        0
280
     0
281
     0
  0
CLASS
  1
ACAMGLAYSTD
  2
AcAmgLayStd
  3
"AcAmgLayStd|Product Description: AutoCAD Mechanical 2000|Company: Autodesk"
 90
        0
280
     0
281
     0
  0
CLASS
  1
ACAMGDIMSTD
  2
AcAmgDimStd
  3
"AcAmgDimStd|Product Description: AutoCAD Mechanical 2000|Company: Autodesk"
 90
        0
280
     0
281
     0
  0
CLASS
  1
ACAMGHOLECHARTSTDISO
  2
AcAmgHoleChartStdISO
  3
ACMSYMBB_MODULE_NAME
 90
        0
280
     0
281
     0
  0
CLASS
  1
ACAMGTITLESTD
  2
AcAmgTitleStd
  3
"TITLEAPP"
 90
        0
280
     0
281
     0
  0
CLASS
  1
LAYER_INDEX
  2
AcDbLayerIndex
  3
ObjectDBX Classes
 90
        0
280
     0
281
     0
  0
CLASS
  1
IDBUFFER
  2
AcDbIdBuffer
  3
ObjectDBX Classes
 90
        0
280
     0
281
     0
  0
CLASS
  1
DICTIONARYVAR
  2
AcDbDictionaryVar
  3
ObjectDBX Classes
 90
        0
280
     0
281
     0
  0
CLASS
  1
AM_DRAWING_MGR
  2
AcDmDwgMgr
  3
AcMechDwgViewMgmt
 90
        0
280
     0
281
     0
  0
CLASS
  1
AM_DWG_DOCUMENT
  2
AcDmDwgDocument
  3
AcMechDwgViewMgmt
 90
        0
280
     0
281
     0
  0
CLASS
  1
AM_DWG_SHEET
  2
AcDmSheet
  3
AcMechDwgViewMgmt
 90
        0
280
     0
281
     0
  0
CLASS
  1
AM_VIEWDIMPARMAP
  2
AcDmViewDimParMap
  3
AcMechDwgViewMgmt
 90
        0
280
     0
281
     0
  0
CLASS
  1
AM_DWGMGR_NAME
  2
AcDmDwgMgrName
  3
AcMechDwgViewMgmt
 90
        0
280
     0
281
     0
  0
CLASS
  1
AMDTMENUSTATEMGR
  2
AmdtMenuStateMgr
  3
McadcomServices
 90
        0
280
     0
281
     0
  0
CLASS
  1
AMDTMCOMMENUSTATE
  2
AmdtMcomMenuState
  3
McadcomServices
 90
        0
280
     0
281
     0
  0
CLASS
  1
MAPIAMMOUDLE
  2
MApiAmModule
  3
MApiAmServices
 90
        0
280
     0
281
     0
  0
CLASS
  1
AMDTADMENUSTATE
  2
AmdtAdMenuState
  3
DesignerServices
 90
        0
280
     0
281
     0
  0
CLASS
  1
ADAPPL
  2
AcAdAppl
  3
DesignerServices
 90
        0
280
     0
281
     0
  0
CLASS
  1
DEPMGR
  2
AcAdDepMgr
  3
DesignerServices
 90
        0
280
     0
281
     0
  0
CLASS
  1
PARAMMGR
  2
AcAdParamMgr
  3
DesignerServices
 90
        0
280
     0
281
     0
  0
CLASS
  1
PARAMSCOPE
  2
AcAdParamScope
  3
DesignerServices
 90
        0
280
     0
281
     0
  0
CLASS
  1
NAMEDAPPL
  2
AcAdNamedAppl
  3
DesignerServices
 90
        0
280
     0
281
     0
  0
CLASS
  1
AMDTDMMENUSTATE
  2
AmdtDmMenuState
  3
AcMechDwgViewMgmt
 90
        0
280
     0
281
     0
  0
CLASS
  1
AMDTAMMENUSTATE
  2
AmdtAmMenuState
  3
DesignerAssemblies
 90
        0
280
     0
281
     0
  0
CLASS
  1
ACAMPROJECT
  2
AcAmProject
  3
DesignerAssemblies
 90
        0
280
     0
281
     0
  0
CLASS
  1
ACAMGRCOMPDEF
  2
AcAmGrCompDef
  3
DesignerAssemblies
 90
        0
280
     0
281
     0
  0
CLASS
  1
ACCMCONTEXT
  2
AcCmContext
  3
DesignerAssemblies
 90
        0
280
     0
281
     0
  0
CLASS
  1
ACAMCOMPDEF
  2
AcAmCompDef
  3
DesignerAssemblies
 90
        0
280
     0
281
     0
  0
CLASS
  1
ACAMCOMPDEFMGR
  2
AcAmCompDefMgr
  3
DesignerAssemblies
 90
        0
280
     0
281
     0
  0
CLASS
  1
AMCONTEXTMGR
  2
AcAmContextMgr
  3
DesignerAssemblies
 90
        0
280
     0
281
     0
  0
CLASS
  1
ACAMCONTEXTMODELER
  2
AcAmContextModeler
  3
DesignerAssemblies
 90
        0
280
     0
281
     0
  0
CLASS
  1
ACMTHREADLINESTANDARDISO
  2
AmdtThreadLineStdISO
  3
"Amdt_StdImp|Product Description: AutoCAD Mechanical 2004 DX|Company: Autodesk"
 90
        0
280
     0
281
     0
  0
CLASS
  1
CATALOGSTATE
  2
AcAmCatalogState
  3
DesignerAssemblies
 90
        0
280
     0
281
     0
  0
CLASS
  1
ACAMGRCOMPDEFSET
  2
AcAmGrCompDefSet
  3
DesignerAssemblies
 90
        0
280
     0
281
     0
  0
CLASS
  1
AMDTBROWSERDBTAB
  2
AmdtBrowserDbTab
  3
McadcomServices
 90
        0
280
     0
281
     0
  0
CLASS
  1
CBROWSERAPPOBJECT
  2
CBrowserAppObject
  3
McadcomServices
 90
        0
280
     0
281
     0
  0
CLASS
  1
DM_PLACEHOLDER
  2
AcDmSelsetPlaceholder
  3
AcMechDwgViewMgmt
 90
        0
280
     0
281
     0
  0
CLASS
  1
TABLESTYLE
  2
AcDbTableStyle
  3
ObjectDBX Classes
 90
     2047
280
     0
281
     0
  0
CLASS
  1
VAACXREFPANELOBJECT
  2
VaAcXREFPanelObject
  3
VAAC_ADDIN
 90
    32768
280
     0
281
     0
  0
CLASS
  1
VAACIMAGEINVENTORY
  2
VaAcImageInventory
  3
VAAC_ADDIN
 90
    32768
280
     0
281
     0
  0
CLASS
  1
AMDTNOTETEMPLATEDB
  2
AmdtNoteTemplateDB
  3
AMDT_STDIMP_MODULE_NAME
 90
        0
280
     0
281
     0
  0
CLASS
  1
ACMBOM
  2
AcmBom
  3
"AcmSymBB|Product Description: AutoCAD Mechanical 2004 DX|Company: Autodesk"
 90
    32768
280
     0
281
     0
  0
CLASS
  1
AMDTFORMULAUPDATEDISPATCHER
  2
AmdtFormulaUpdateDispatcher
  3
AcMeServices
 90
    32768
280
     0
281
     0
  0
CLASS
  1
ACMPARTLIST
  2
AcmPartList
  3
"AcmSymBB|Product Description: AutoCAD Mechanical 2004 DX|Company: Autodesk"
 90
    33791
280
     0
281
     1
  0
CLASS
  1
ACAMGFILTERDAT
  2
AcAmgFilterDat
  3
"AcadM|Product Description: AutoCAD Mechanical 2000|Company: Autodesk"
 90
    32768
280
     0
281
     0
  0
CLASS
  1
DIMASSOC
  2
AcDbDimAssoc
  3
"AcDbDimAssoc|Product Desc:     AcDim ARX App For Dimension|Company:          Autodesk, Inc.|WEB Address:      www.autodesk.com"
 90
        0
280
     0
281
     0
  0
CLASS
  1
SORTENTSTABLE
  2
AcDbSortentsTable
  3
ObjectDBX Classes
 90
        0
280
     0
281
     0
  0
CLASS
  1
AMDTNOTE
  2
AmdtNote
  3
"AcmSymBB|Product Description: AutoCAD Mechanical 2004 DX|Company: Autodesk"
 90
    33791
280
     0
281
     1
  0
CLASS
  1
STDPART2D
  2
AmgStdPart
  3
"AmgStdPart|Product Description: AutoCAD Mechanical 2000|Company: Autodesk"
 90
    33791
280
     0
281
     1
  0
CLASS
  1
ACAMSTDPCOMPDEF
  2
AcAmStdpCompDef
  3
DesignerAssemblies
 90
    32768
280
     0
281
     0
  0
CLASS
  1
ACRFATTGENMGR
  2
AcRfAttGeneralMgr
  3
AcAttribServices
 90
    32768
280
     0
281
     0
  0
CLASS
  1
ACRFOBJATTMGR
  2
AcRfObjAttGroupMgr
  3
AcAttribServices
 90
    32768
280
     0
281
     0
  0
CLASS
  1
ACRFMCADAPIATTHOLDER
  2
AcRfMCADAPIAttHolder
  3
AcAttribServices
 90
    32768
280
     0
281
     0
  0
CLASS
  1
AMDTSYSATTR
  2
AmdtSystemAttribute
  3
AcAttribServices
 90
    32768
280
     0
281
     0
  0
CLASS
  1
ACAMCOMP
  2
AcAmComp
  3
DesignerAssemblies
 90
    32768
280
     0
281
     0
  0
CLASS
  1
AC_AM_STDP_VIEW_DEF
  2
AcAmStdpViewDef
  3
DesignerAssemblies
 90
    32768
280
     0
281
     0
  0
CLASS
  1
AC_AM_MVD_DEP_MGR
  2
AcAmMVDdepMgr
  3
DesignerAssemblies
 90
    32768
280
     0
281
     0
  0
CLASS
  1
AC_AM_MASTER_VIEW_DEF
  2
AcAmMasterViewDef
  3
DesignerAssemblies
 90
    32768
280
     0
281
     0
  0
CLASS
  1
AC_AM_DIRTY_NODES
  2
AcAmDirtyNodes
  3
DesignerAssemblies
 90
    32768
280
     0
281
     0
  0
CLASS
  1
AC_AM_MAPPER_CACHE
  2
AcAmMapperCache
  3
DesignerAssemblies
 90
    32768
280
     0
281
     0
  0
CLASS
  1
ACAMMVDBACKUPOBJECT
  2
AcAmMVDBackupObject
  3
DesignerAssemblies
 90
    32768
280
     0
281
     0
  0
CLASS
  1
AC_AM_COMP_VIEW_INST
  2
AcAmCompView
  3
DesignerAssemblies
 90
    32768
280
     0
281
     0
  0
CLASS
  1
AC_AM_2D_XREF_MGR
  2
AcAmXrefMgr2d
  3
DesignerAssemblies
 90
    32768
280
     0
281
     0
  0
CLASS
  1
ACMSTANDARDANSI
  2
AcmStandardANSI
  3
"Amdt_StdImp|Product Description: AutoCAD Mechanical 2004 DX|Company: Autodesk"
 90
    32768
280
     0
281
     0
  0
CLASS
  1
ACMSURFSTANDARDANSI
  2
AcmSurfTextStdANSI
  3
"Amdt_StdImp|Product Description: AutoCAD Mechanical 2004 DX|Company: Autodesk"
 90
    32768
280
     0
281
     0
  0
CLASS
  1
ACMFCFSTANDARDANSI
  2
AcmFCFStdANSI
  3
"Amdt_StdImp|Product Description: AutoCAD Mechanical 2004 DX|Company: Autodesk"
 90
    32768
280
     0
281
     0
  0
CLASS
  1
ACMWELDSTANDARDANSI
  2
AcmWeldingStdANSI
  3
"Amdt_StdImp|Product Description: AutoCAD Mechanical 2004 DX|Company: Autodesk"
 90
    32768
280
     0
281
     0
  0
CLASS
  1
ACMIDSTANDARDANSI
  2
AcmIdStdANSI
  3
"Amdt_StdImp|Product Description: AutoCAD Mechanical 2004 DX|Company: Autodesk"
 90
    32768
280
     0
281
     0
  0
CLASS
  1
ACMDATUMSTANDARDANSI
  2
AcmDatumStdANSI
  3
"Amdt_StdImp|Product Description: AutoCAD Mechanical 2004 DX|Company: Autodesk"
 90
    32768
280
     0
281
     0
  0
CLASS
  1
ACMBOMSTANDARDANSI
  2
AcmBOMStdANSI
  3
"Amdt_StdImp|Product Description: AutoCAD Mechanical 2004 DX|Company: Autodesk"
 90
    32768
280
     0
281
     0
  0
CLASS
  1
ACMDETAILSTANDARDANSI
  2
AmdtDetailSymStdANSI
  3
"Amdt_StdImp|Product Description: AutoCAD Mechanical 2004 DX|Company: Autodesk"
 90
    32768
280
     0
281
     0
  0
CLASS
  1
ACMSECTIONSTANDARDANSI
  2
AmdtSectionSymStdANSI
  3
"Amdt_StdImp|Product Description: AutoCAD Mechanical 2004 DX|Company: Autodesk"
 90
    32768
280
     0
281
     0
  0
CLASS
  1
ACMCENTERLINESTANDARDANSI
  2
AmdtCenterLineStdANSI
  3
"Amdt_StdImp|Product Description: AutoCAD Mechanical 2004 DX|Company: Autodesk"
 90
    32768
280
     0
281
     0
  0
CLASS
  1
ACMTHREADLINESTANDARDANSI
  2
AmdtThreadLineStdANSI
  3
"Amdt_StdImp|Product Description: AutoCAD Mechanical 2004 DX|Company: Autodesk"
 90
    32768
280
     0
281
     0
  0
CLASS
  1
ACMNOTESTANDARDANSI
  2
AmdtNoteStdANSI
  3
"Amdt_StdImp|Product Description: AutoCAD Mechanical 2004 DX|Company: Autodesk"
 90
    32768
280
     0
281
     0
  0
CLASS
  1
ACAMGHOLECHARTSTDANSI
  2
AcAmgHoleChartStdANSI
  3
ACMSYMBB_MODULE_NAME
 90
    32768
280
     0
281
     0
  0
CLASS
  1
ASAPP
  2
AcAsAppObject
  3
AutoSurfServices
 90
        0
280
     0
281
     0
  0
CLASS
  1
IM_STATIC_MAN
  2
AcImStaticVarManager
  3
AcMeServices
 90
        0
280
     0
281
     0
  0
CLASS
  1
ACIMDBLSTATICVAR
  2
AcImDblStaticVar
  3
AcMeServices
 90
        0
280
     0
281
     0
  0
CLASS
  1
ACIMSTRSTATICVAR
  2
AcImStrStaticVar
  3
AcMeServices
 90
        0
280
     0
281
     0
  0
CLASS
  1
ACIMINTSTATICVAR
  2
AcImIntStaticVar
  3
AcMeServices
 90
        0
280
     0
281
     0
  0
CLASS
  1
ACASGREFMASTER
  2
AcAsGrefMaster
  3
AutoSurfResolverServices
 90
        0
280
     0
281
     0
  0
CLASS
  1
ACADGREFMODULE
  2
AcAdGrefModule
  3
AdGrefServices
 90
        0
280
     0
281
     0
  0
CLASS
  1
AMDTMAPISURFMOUDULE
  2
AmdtMApiSurfModule
  3
MApiSurfServices
 90
        0
280
     0
281
     0
  0
CLASS
  1
MAPIADMODULE
  2
MApiAdModule
  3
MApiAdServices
 90
        0
280
     0
281
     0
  0
CLASS
  1
AMDTEDGESTANDARDISO13715
  2
AmdtEdgeStdISO13715
  3
"Amdt_StdImp|Product Description: AutoCAD Mechanical 2004 DX|Company: Autodesk"
 90
        0
280
     0
281
     0
  0
ENDSEC
  0
SECTION
  2
TABLES
  0
TABLE
  2
VPORT
  5
8
330
0
100
AcDbSymbolTable
 70
   107
  0
VPORT
  5
7842
330
8
100
AcDbSymbolTableRecord
100
AcDbViewportTableRecord
  2
*Active
 70
     0
 10
0.0
 20
0.0
 11
1.0
 21
1.0
 12
-70.73216267733951
 22
-394.3065611043264
 13
0.0
 23
0.0
 14
2.5
 24
2.5
 15
10.0
 25
10.0
 16
0.0
 26
0.0
 36
1.0
 17
2245.588035000848
 27
1648.488145768168
 37
0.0
 40
397.5873717195696
 41
1.263157894736842
 42
50.0
 43
0.0
 44
0.0
 50
0.0
 51
0.0
 71
     0
 72
  2000
 73
     1
 74
     3
 75
     0
 76
     0
 77
     0
 78
     0
281
     0
 65
     0
110
0.0
120
0.0
130
0.0
111
1.0
121
0.0
131
0.0
112
0.0
122
1.0
132
0.0
 79
     0
146
0.0
  0
ENDTAB
  0
TABLE
  2
LTYPE
  5
5
330
0
100
AcDbSymbolTable
 70
    21
  0
LTYPE
  5
14
330
5
100
AcDbSymbolTableRecord
100
AcDbLinetypeTableRecord
  2
ByBlock
 70
     0
  3

 72
    65
 73
     0
 40
0.0
  0
LTYPE
  5
15
330
5
100
AcDbSymbolTableRecord
100
AcDbLinetypeTableRecord
  2
ByLayer
 70
     0
  3

 72
    65
 73
     0
 40
0.0
  0
LTYPE
  5
16
330
5
100
AcDbSymbolTableRecord
100
AcDbLinetypeTableRecord
  2
Continuous
 70
     0
  3
Solid line
 72
    65
 73
     0
 40
0.0
  0
LTYPE
  5
64
330
5
100
AcDbSymbolTableRecord
100
AcDbLinetypeTableRecord
  2
AM_ISO02W050
 70
     0
  3
__ __ __ __ __ __ __ __ __ __ __ __ __ __ __
 72
    65
 73
     2
 40
7.5
 49
6.0
 74
     0
 49
-1.5
 74
     0
  0
LTYPE
  5
65
330
5
100
AcDbSymbolTableRecord
100
AcDbLinetypeTableRecord
  2
AM_ISO08W050
 70
     0
  3
____ . ____ . ____ . ____ . ____ . ____ . ____
 72
    65
 73
     4
 40
18.0
 49
12.0
 74
     0
 49
-1.5
 74
     0
 49
3.0
 74
     0
 49
-1.5
 74
     0
  0
LTYPE
  5
66
330
5
100
AcDbSymbolTableRecord
100
AcDbLinetypeTableRecord
  2
AM_ISO09W050
 70
     0
  3
_____ . . _____ . . _____ . . ____ .. ____
 72
    65
 73
     6
 40
22.5
 49
12.0
 74
     0
 49
-1.5
 74
     0
 49
3.0
 74
     0
 49
-1.5
 74
     0
 49
3.0
 74
     0
 49
-1.5
 74
     0
  0
LTYPE
  5
67
330
5
100
AcDbSymbolTableRecord
100
AcDbLinetypeTableRecord
  2
Amconstr
 70
     0
  3
_______________________
 72
    65
 73
     2
 40
9999.0
 49
9999.0
 74
     0
 49
0.0
 74
     0
  0
LTYPE
  5
68
330
5
100
AcDbSymbolTableRecord
100
AcDbLinetypeTableRecord
  2
AM_ISO08W050x2
 70
     0
  3
__ . __ . __ . __ . __ . __
 72
    65
 73
     4
 40
9.0
 49
6.0
 74
     0
 49
-0.75
 74
     0
 49
1.5
 74
     0
 49
-0.75
 74
     0
  0
LTYPE
  5
69
330
5
100
AcDbSymbolTableRecord
100
AcDbLinetypeTableRecord
  2
AM_ISO02W050x2
 70
     0
  3
 _ _ _ _ _ _ _ _ _ _ _ _
 72
    65
 73
     2
 40
3.75
 49
3.0
 74
     0
 49
-0.75
 74
     0
  0
LTYPE
  5
6C
330
5
100
AcDbSymbolTableRecord
100
AcDbLinetypeTableRecord
  2
Amzigzag
 70
     0
  3
/\/-/\/-/\/-/\/-/\/-/\/
 72
    65
 73
     2
 40
11.0001
 49
0.0001
 74
     4
 75
   135
340
6B
 46
0.04
 50
0.0
 44
0.0
 45
0.0
 49
-11.0
 74
     0
  0
LTYPE
  5
7A
330
5
100
AcDbSymbolTableRecord
100
AcDbLinetypeTableRecord
  2
ACISOWELD
 70
     0
  3
_ _ _ _ _
 72
    65
 73
     2
 40
2.0
 49
2.0
 74
     0
 49
-1.0
 74
     0
  0
LTYPE
  5
7B
330
5
100
AcDbSymbolTableRecord
100
AcDbLinetypeTableRecord
  2
ACISOTGB
 70
     0
  3
__ . . __ . .
 72
    65
 73
     6
 40
9.0
 49
4.0
 74
     0
 49
-1.0
 74
     0
 49
1.0
 74
     0
 49
-1.0
 74
     0
 49
1.0
 74
     0
 49
-1.0
 74
     0
  0
LTYPE
  5
7C
330
5
100
AcDbSymbolTableRecord
100
AcDbLinetypeTableRecord
  2
ACISOTGL
 70
     0
  3
_ _ _ _ _
 72
    65
 73
     2
 40
3.0
 49
2.0
 74
     0
 49
-1.0
 74
     0
  0
LTYPE
  5
7E
330
5
100
AcDbSymbolTableRecord
100
AcDbLinetypeTableRecord
  2
CENTER
 70
     0
  3
__ . __
 72
    65
 73
     4
 40
7.0
 49
4.0
 74
     0
 49
-1.0
 74
     0
 49
1.0
 74
     0
 49
-1.0
 74
     0
  0
LTYPE
  5
D8
330
5
100
AcDbSymbolTableRecord
100
AcDbLinetypeTableRecord
  2
HIDDEN
 70
     0
  3
Hidden __ __ __ __ __ __ __ __ __ __ __ __ __ _
 72
    65
 73
     2
 40
9.524999999999998
 49
6.349999999999999
 74
     0
 49
-3.174999999999999
 74
     0
  0
LTYPE
  5
D9
330
5
100
AcDbSymbolTableRecord
100
AcDbLinetypeTableRecord
  2
PHANTOM2
 70
     0
  3
Phantom (.5x) ___ _ _ ___ _ _ ___ _ _ ___ _ _
 72
    65
 73
     6
 40
31.75
 49
15.875
 74
     0
 49
-3.174999999999999
 74
     0
 49
3.174999999999999
 74
     0
 49
-3.174999999999999
 74
     0
 49
3.174999999999999
 74
     0
 49
-3.174999999999999
 74
     0
  0
LTYPE
  5
4930
330
5
100
AcDbSymbolTableRecord
100
AcDbLinetypeTableRecord
  2
ACANSTGB
 70
     0
  3
__ . . __ . .
 72
    65
 73
     6
 40
0.35433070866
 49
0.15748031496
 74
     0
 49
-0.03937007874
 74
     0
 49
0.03937007874
 74
     0
 49
-0.03937007874
 74
     0
 49
0.03937007874
 74
     0
 49
-0.03937007874
 74
     0
  0
LTYPE
  5
4931
330
5
100
AcDbSymbolTableRecord
100
AcDbLinetypeTableRecord
  2
ACANSTGL
 70
     0
  3
_ _ _ _ _
 72
    65
 73
     2
 40
0.11811023622
 49
0.07874015748
 74
     0
 49
-0.03937007874
 74
     0
  0
LTYPE
  5
4DBF
330
5
100
AcDbSymbolTableRecord
100
AcDbLinetypeTableRecord
  2
ASULTYPE
 70
     0
  3
實線
 72
    65
 73
     2
 40
3.0
 49
2.5
 74
     0
 49
0.5
 74
     0
  0
LTYPE
  5
4DC0
330
5
100
AcDbSymbolTableRecord
100
AcDbLinetypeTableRecord
  2
ASVLTYPE
 70
     0
  3
__ __ __ __ __ __ __ __ __ __ __ __ __ __ __ __ __ __ __ __ __
 72
    65
 73
     2
 40
0.75
 49
0.5
 74
     0
 49
-0.25
 74
     0
  0
LTYPE
  5
71A9
330
5
100
AcDbSymbolTableRecord
100
AcDbLinetypeTableRecord
  2
PHANTOM
 70
     0
  3
Phantom ______  __  __  ______  __  __  ______
 72
    65
 73
     6
 40
12.7
 49
6.349999999999999
 74
     0
 49
-1.27
 74
     0
 49
1.27
 74
     0
 49
-1.27
 74
     0
 49
1.27
 74
     0
 49
-1.27
 74
     0
  0
LTYPE
  5
71AA
330
5
100
AcDbSymbolTableRecord
100
AcDbLinetypeTableRecord
  2
CENTERX2
 70
     0
  3
Center (2x) ________  __  ________  __  _____
 72
    65
 73
     4
 40
20.32
 49
12.7
 74
     0
 49
-2.54
 74
     0
 49
2.54
 74
     0
 49
-2.54
 74
     0
  0
LTYPE
  5
71AB
330
5
100
AcDbSymbolTableRecord
100
AcDbLinetypeTableRecord
  2
DOT2
 70
     0
  3
Dot (.5x) ........................................
 72
    65
 73
     2
 40
0.635
 49
0.0
 74
     0
 49
-0.635
 74
     0
  0
ENDTAB
  0
TABLE
  2
LAYER
  5
2
102
{ACAD_XDICTIONARY
360
3F9
102
}
330
0
100
AcDbSymbolTable
 70
     8
  0
LAYER
  5
10
330
2
100
AcDbSymbolTableRecord
100
AcDbLayerTableRecord
  2
0
 70
     0
 62
     7
  6
Continuous
370
    -3
390
F
  0
LAYER
  5
206
330
2
100
AcDbSymbolTableRecord
100
AcDbLayerTableRecord
  2
Defpoints
 70
     0
 62
     7
  6
Continuous
290
     0
370
    -3
390
F
  0
LAYER
  5
5AE
330
2
100
AcDbSymbolTableRecord
100
AcDbLayerTableRecord
  2
AM_7
 70
     0
 62
     1
  6
AM_ISO08W050
370
    25
390
F
  0
LAYER
  5
7C5
330
2
100
AcDbSymbolTableRecord
100
AcDbLayerTableRecord
  2
LOGO
 70
     0
 62
     7
  6
Continuous
370
    -3
390
F
  0
LAYER
  5
7C6
330
2
100
AcDbSymbolTableRecord
100
AcDbLayerTableRecord
  2
AM_5
 70
     0
 62
     5
  6
Continuous
370
    25
390
F
  0
LAYER
  5
7C7
330
2
100
AcDbSymbolTableRecord
100
AcDbLayerTableRecord
  2
AM_VIS
 70
     0
 62
     7
  6
Continuous
370
    50
390
F
  0
LAYER
  5
7C8
330
2
100
AcDbSymbolTableRecord
100
AcDbLayerTableRecord
  2
AM_0
 70
     0
 62
     7
  6
Continuous
370
    50
390
F
  0
LAYER
  5
7C9
330
2
100
AcDbSymbolTableRecord
100
AcDbLayerTableRecord
  2
AM_4
 70
     0
 62
     3
  6
Continuous
370
    25
390
F
  0
ENDTAB
  0
TABLE
  2
STYLE
  5
3
330
0
100
AcDbSymbolTable
 70
     8
  0
STYLE
  5
11
330
3
100
AcDbSymbolTableRecord
100
AcDbTextStyleTableRecord
  2
STANDARD
 70
     0
 40
0.0
 41
1.0
 50
0.0
 71
     0
 42
3.0
  3
ISOCP.SHX
  4
CHINESET.SHX
  0
STYLE
  5
6B
330
3
100
AcDbSymbolTableRecord
100
AcDbTextStyleTableRecord
  2

 70
     1
 40
0.0
 41
1.0
 50
0.0
 71
     0
 42
2.5
  3
ltypeshp.shx
  4

  0
STYLE
  5
6D
330
3
100
AcDbSymbolTableRecord
100
AcDbTextStyleTableRecord
  2
ACISOTS
 70
     0
 40
1.0
 41
1.0
 50
0.0
 71
     0
 42
1.0
  3
isocp.shx
  4
chineset.shx
  0
STYLE
  5
79
330
3
100
AcDbSymbolTableRecord
100
AcDbTextStyleTableRecord
  2
ACISOGDT
 70
     0
 40
0.0
 41
1.0
 50
0.0
 71
     0
 42
2.5
  3
amgdt.shx
  4
chineset.shx
  0
STYLE
  5
60C
330
3
100
AcDbSymbolTableRecord
100
AcDbTextStyleTableRecord
  2
CHINESET
 70
     0
 40
0.0
 41
1.0
 50
0.0
 71
     0
 42
3.0
  3
simplex.shx
  4
CHINESET.SHX
  0
STYLE
  5
40C5
330
3
100
AcDbSymbolTableRecord
100
AcDbTextStyleTableRecord
  2
DAYUS
 70
     0
 40
0.0
 41
1.0
 50
0.0
 71
     0
 42
3.0
  3
simplex.shx
  4
dayus.shx
  0
STYLE
  5
4935
330
3
100
AcDbSymbolTableRecord
100
AcDbTextStyleTableRecord
  2
ACANSTS
 70
     0
 40
1.0
 41
1.0
 50
0.0
 71
     0
 42
4.0
  3
romans.shx
  4
chineset.shx
  0
STYLE
  5
4936
330
3
100
AcDbSymbolTableRecord
100
AcDbTextStyleTableRecord
  2
ACANSGDT
 70
     0
 40
0.0
 41
1.0
 50
0.0
 71
     0
 42
4.0
  3
amgdtans.shx
  4

  0
ENDTAB
  0
TABLE
  2
VIEW
  5
6
330
0
100
AcDbSymbolTable
 70
     0
  0
ENDTAB
  0
TABLE
  2
UCS
  5
7
330
0
100
AcDbSymbolTable
 70
     0
  0
ENDTAB
  0
TABLE
  2
APPID
  5
9
330
0
100
AcDbSymbolTable
 70
    33
  0
APPID
  5
12
330
9
100
AcDbSymbolTableRecord
100
AcDbRegAppTableRecord
  2
ACAD
 70
     0
  0
APPID
  5
46
330
9
100
AcDbSymbolTableRecord
100
AcDbRegAppTableRecord
  2
MCAD_NO_VIS
 70
     0
  0
APPID
  5
47
330
9
100
AcDbSymbolTableRecord
100
AcDbRegAppTableRecord
  2
ACAD_TEMP_GRAPHIC
 70
     0
  0
APPID
  5
58
330
9
100
AcDbSymbolTableRecord
100
AcDbRegAppTableRecord
  2
ACATTRIBSERVICES
 70
     0
  0
APPID
  5
EE
330
9
100
AcDbSymbolTableRecord
100
AcDbRegAppTableRecord
  2
AD_DRAW
 70
     0
  0
APPID
  5
10C
330
9
100
AcDbSymbolTableRecord
100
AcDbRegAppTableRecord
  2
DESIGNERASSEMBLIES
 70
     0
  0
APPID
  5
111
330
9
100
AcDbSymbolTableRecord
100
AcDbRegAppTableRecord
  2
ACADM_DIM_EDIT
 70
     0
  0
APPID
  5
112
330
9
100
AcDbSymbolTableRecord
100
AcDbRegAppTableRecord
  2
AMDT_DM_ADJ
 70
     0
  0
APPID
  5
22C
330
9
100
AcDbSymbolTableRecord
100
AcDbRegAppTableRecord
  2
ACAD_DSTYLE_DIMTEXT_FILL
 70
     0
  0
APPID
  5
452
330
9
100
AcDbSymbolTableRecord
100
AcDbRegAppTableRecord
  2
GENIUS_GENOENT_13
 70
     0
  0
APPID
  5
453
330
9
100
AcDbSymbolTableRecord
100
AcDbRegAppTableRecord
  2
GENIUS_GENOBJ-N-CRS_13
 70
     0
  0
APPID
  5
454
330
9
100
AcDbSymbolTableRecord
100
AcDbRegAppTableRecord
  2
GENIUS_GENOLIS_13
 70
     0
  0
APPID
  5
455
330
9
100
AcDbSymbolTableRecord
100
AcDbRegAppTableRecord
  2
GENIUS_GENODEF_13
 70
     0
  0
APPID
  5
456
330
9
100
AcDbSymbolTableRecord
100
AcDbRegAppTableRecord
  2
GENIUS_GENOREF_13
 70
     0
  0
APPID
  5
6F3
330
9
100
AcDbSymbolTableRecord
100
AcDbRegAppTableRecord
  2
ACAD_PSEXT
 70
     0
  0
APPID
  5
7CB
330
9
100
AcDbSymbolTableRecord
100
AcDbRegAppTableRecord
  2
GENIUS_GENREC_14
 70
     0
  0
APPID
  5
7CC
330
9
100
AcDbSymbolTableRecord
100
AcDbRegAppTableRecord
  2
GENIUS_GENOBJ-N-REC_13
 70
     0
  0
APPID
  5
7CD
330
9
100
AcDbSymbolTableRecord
100
AcDbRegAppTableRecord
  2
GENIUS_GENOBJ-N-CEN_13
 70
     0
  0
APPID
  5
7CE
330
9
100
AcDbSymbolTableRecord
100
AcDbRegAppTableRecord
  2
GENIUS_GENCEN_19
 70
     0
  0
APPID
  5
245E
330
9
100
AcDbSymbolTableRecord
100
AcDbRegAppTableRecord
  2
GEVID1124068070
 70
     0
  0
APPID
  5
245F
330
9
100
AcDbSymbolTableRecord
100
AcDbRegAppTableRecord
  2
GEVDC
 70
     0
  0
APPID
  5
2468
330
9
100
AcDbSymbolTableRecord
100
AcDbRegAppTableRecord
  2
AMG_2DHIDE
 70
     0
  0
APPID
  5
2469
330
9
100
AcDbSymbolTableRecord
100
AcDbRegAppTableRecord
  2
AMG_2DSTRUCT_BTR
 70
     0
  0
APPID
  5
247A
330
9
100
AcDbSymbolTableRecord
100
AcDbRegAppTableRecord
  2
ACADM_2DVIEW_IGN_NOTIFY
 70
     0
  0
APPID
  5
2576
330
9
100
AcDbSymbolTableRecord
100
AcDbRegAppTableRecord
  2
GEVID1124068071
 70
     0
  0
APPID
  5
2577
330
9
100
AcDbSymbolTableRecord
100
AcDbRegAppTableRecord
  2
GEVRADREF
 70
     0
  0
APPID
  5
3843
330
9
100
AcDbSymbolTableRecord
100
AcDbRegAppTableRecord
  2
GEVID1124068072
 70
     0
  0
APPID
  5
451E
330
9
100
AcDbSymbolTableRecord
100
AcDbRegAppTableRecord
  2
GEVID1124068073
 70
     0
  0
APPID
  5
4D3F
330
9
100
AcDbSymbolTableRecord
100
AcDbRegAppTableRecord
  2
GENIUS_GENDIM_13
 70
     0
  0
APPID
  5
4D40
330
9
100
AcDbSymbolTableRecord
100
AcDbRegAppTableRecord
  2
GENIUS_GENDTOL_13
 70
     0
  0
APPID
  5
4D41
330
9
100
AcDbSymbolTableRecord
100
AcDbRegAppTableRecord
  2
GENIUS_GE3DTOL_13
 70
     0
  0
APPID
  5
4DC1
330
9
100
AcDbSymbolTableRecord
100
AcDbRegAppTableRecord
  2
ASURF_PCURVE_APPNAME
 70
     0
  0
APPID
  5
4DC6
330
9
100
AcDbSymbolTableRecord
100
AcDbRegAppTableRecord
  2
AMG_3D2D_5.0
 70
     0
  0
ENDTAB
  0
TABLE
  2
DIMSTYLE
  5
A
330
0
100
AcDbSymbolTable
 70
    16
100
AcDbDimStyleTable
 71
     3
340
81
340
8B
340
86
  0
DIMSTYLE
105
81
330
A
100
AcDbSymbolTableRecord
100
AcDbDimStyleTableRecord
  2
AM_ISO
 70
     0
  4
"
 41
3.0
 42
1.0
 43
14.0
 44
1.5
 47
0.1
 48
0.1
 73
     0
 74
     0
 77
     1
 78
     8
 79
     2
140
3.0
141
0.0
143
0.0393701
146
0.71
147
1.0
172
     1
176
   256
177
   256
178
   256
271
     2
272
     2
283
     0
284
     8
340
11
371
    -1
372
    -1
  0
DIMSTYLE
105
82
330
A
100
AcDbSymbolTableRecord
100
AcDbDimStyleTableRecord
  2
AM_ISO$3
 70
     0
  4
"
 41
3.0
 42
1.0
 43
14.0
 44
1.5
 47
0.1
 48
0.1
 73
     0
 77
     1
 78
     8
 79
     2
140
3.0
141
0.0
143
0.0393701
146
0.71
147
1.0
176
   256
177
   256
178
   256
271
     2
272
     2
283
     0
284
     8
288
     1
289
     0
340
11
371
    -1
372
    -1
  0
DIMSTYLE
105
83
330
A
100
AcDbSymbolTableRecord
100
AcDbDimStyleTableRecord
  2
AM_ISO$4
 70
     0
  4
"
 41
3.0
 42
1.0
 43
14.0
 44
1.5
 47
0.1
 48
0.1
 73
     0
 77
     1
 78
     8
 79
     2
140
3.0
141
0.0
143
0.0393701
146
0.71
147
1.0
176
   256
177
   256
178
   256
271
     2
272
     2
283
     0
284
     8
288
     1
289
     0
340
11
371
    -1
372
    -1
  0
DIMSTYLE
105
84
330
A
100
AcDbSymbolTableRecord
100
AcDbDimStyleTableRecord
  2
AM_ISO$6
 70
     0
  4
"
 41
3.0
 42
1.0
 43
14.0
 44
1.5
 47
0.1
 48
0.1
 73
     0
 74
     0
 78
     8
 79
     2
140
3.0
141
0.0
143
0.0393701
146
0.71
147
1.0
172
     1
176
   256
177
   256
178
   256
271
     2
272
     2
283
     0
284
     8
340
11
371
    -1
372
    -1
  0
DIMSTYLE
105
85
330
A
100
AcDbSymbolTableRecord
100
AcDbDimStyleTableRecord
  2
AM_ISO$7
 70
     0
  4
"
 41
3.0
 42
1.0
 43
14.0
 44
1.5
 47
0.1
 48
0.1
 73
     0
 74
     0
 77
     1
 78
     8
 79
     2
140
5.0
141
0.0
143
0.0393701
146
0.71
147
1.0
172
     1
176
   256
177
   256
178
   256
271
     2
272
     2
283
     0
284
     8
340
11
371
    -1
372
    -1
  0
DIMSTYLE
105
86
330
A
100
AcDbSymbolTableRecord
100
AcDbDimStyleTableRecord
  2
AM_ISO$SF
 70
     0
  4
"
 41
2.5
 42
1.0
 43
10.0
 44
1.0
 47
0.1
 48
0.1
 73
     0
 74
     0
 75
     1
 76
     1
 77
     1
 78
     8
 79
     2
140
3.5
141
0.0
143
0.0393701
146
0.71
147
1.5
172
     1
176
   256
177
   256
178
     2
271
     2
272
     3
274
     4
283
     0
284
     8
340
11
371
    -1
372
    -1
  0
DIMSTYLE
105
8B
330
A
100
AcDbSymbolTableRecord
100
AcDbDimStyleTableRecord
  2
AM_ISO$SH
 70
     0
  4
"
 41
2.5
 42
1.0
 43
10.0
 44
1.0
 47
0.1
 48
0.1
 73
     0
 74
     0
 75
     1
 76
     1
 77
     1
 78
     8
 79
     2
140
3.5
141
0.0
143
0.0393701
144
2.0
146
0.71
147
1.5
172
     1
173
     1
176
   256
177
   256
178
     2
271
     2
272
     3
274
     4
283
     0
284
     8
340
11
343
87
371
    -1
372
    -1
  0
DIMSTYLE
105
40B
102
{ACAD_REACTORS
330
6F2C
330
746E
330
7588
330
7761
330
77A5
330
77E9
330
7818
102
}
330
A
100
AcDbSymbolTableRecord
100
AcDbDimStyleTableRecord
  2
AM_ISO$0
 70
     0
  4
"
 41
3.0
 42
1.0
 43
14.0
 44
1.5
 47
0.1
 48
0.1
 73
     0
 74
     0
 77
     1
 78
     8
 79
     2
140
3.0
141
0.0
143
0.0393701
146
0.71
147
1.0
172
     1
176
   256
177
   256
178
   256
271
     2
272
     2
283
     0
284
     8
340
11
371
    -1
372
    -1
  0
DIMSTYLE
105
40C6
330
A
100
AcDbSymbolTableRecord
100
AcDbDimStyleTableRecord
  2
AM_ANSI
 70
     0
  4
"
 41
3.0
 42
1.5
 43
8.0
 44
2.0
 47
0.1
 48
0.1
 73
     0
 74
     0
 77
     3
 78
     8
 79
     2
140
3.0
141
3.0
143
0.0393701
146
0.6
147
0.8
172
     1
176
   256
177
   256
178
   256
271
     2
272
     8
284
     8
340
40C5
371
    -1
372
    -1
  0
DIMSTYLE
105
4937
330
A
100
AcDbSymbolTableRecord
100
AcDbDimStyleTableRecord
  2
AM_ANSI$3
 70
     0
  4
mm
 41
0.1
 42
0.05
 43
0.5
 44
0.1
 47
0.1
 48
0.1
 78
     7
140
0.12
141
0.0
146
0.71
147
0.06
176
   256
177
   256
178
     2
274
     4
284
     7
288
     1
340
11
  0
DIMSTYLE
105
4938
330
A
100
AcDbSymbolTableRecord
100
AcDbDimStyleTableRecord
  2
AM_ANSI$4
 70
     0
  4
mm
 41
0.1
 42
0.05
 43
0.5
 44
0.1
 47
0.1
 48
0.1
 78
     7
140
0.12
141
0.0
146
0.71
147
0.06
176
   256
177
   256
178
     2
274
     4
284
     7
288
     1
340
11
  0
DIMSTYLE
105
4939
330
A
100
AcDbSymbolTableRecord
100
AcDbDimStyleTableRecord
  2
AM_ANSI$7
 70
     0
  4
mm
 41
0.1
 42
0.05
 43
0.5
 44
0.1
 47
0.1
 48
0.1
 78
     7
140
0.24
141
0.0
146
0.71
147
0.06
176
   256
177
   256
178
     2
274
     4
284
     7
340
11
  0
DIMSTYLE
105
493A
330
A
100
AcDbSymbolTableRecord
100
AcDbDimStyleTableRecord
  2
AM_ANSI$SF
 70
     0
  4
mm
 41
0.1
 42
0.05
 43
0.5
 44
0.1
 47
0.1
 48
0.1
 75
     1
 76
     1
 78
     7
140
0.12
141
0.0
146
0.71
147
0.06
176
   256
177
   256
178
     2
274
     4
284
     7
340
11
  0
DIMSTYLE
105
493B
330
A
100
AcDbSymbolTableRecord
100
AcDbDimStyleTableRecord
  2
AM_ANSI$SH
 70
     0
  4
mm
 41
0.1
 42
0.05
 43
0.5
 44
0.1
 47
0.1
 48
0.1
 75
     1
 76
     1
 78
     7
140
0.12
141
0.0
146
0.71
147
0.06
173
     1
176
   256
177
   256
178
     2
274
     4
284
     7
340
11
341
87
343
87
  0
DIMSTYLE
105
4E5F
330
A
100
AcDbSymbolTableRecord
100
AcDbDimStyleTableRecord
  2
STANDARD
 70
     0
 41
3.0
 42
2.0
 43
8.0
 44
2.0
 48
0.000000001
 73
     0
 74
     0
 77
     1
 78
     8
 79
     2
140
3.0
141
1.0
146
0.6
147
1.0
176
   256
177
   256
178
   256
179
     2
271
     2
272
     2
279
     2
284
     8
340
60C
371
    -1
  0
DIMSTYLE
105
59C3
330
A
100
AcDbSymbolTableRecord
100
AcDbDimStyleTableRecord
  2
ISO-25
 70
     0
 41
2.5
 42
0.625
 43
3.75
 44
1.25
 73
     0
 74
     0
 77
     1
 78
     8
140
2.5
141
2.5
143
0.03937007874016
147
0.625
171
     3
172
     1
271
     2
272
     2
274
     3
278
    44
283
     0
284
     8
340
11
  0
ENDTAB
  0
TABLE
  2
BLOCK_RECORD
  5
1
330
0
100
AcDbSymbolTable
 70
    42
  0
BLOCK_RECORD
  5
1F
102
{ACAD_XDICTIONARY
360
8F
102
}
330
1
100
AcDbSymbolTableRecord
100
AcDbBlockTableRecord
  2
*Model_Space
340
22
  0
BLOCK_RECORD
  5
1B
330
1
100
AcDbSymbolTableRecord
100
AcDbBlockTableRecord
  2
*Paper_Space
340
1E
  0
BLOCK_RECORD
  5
23
330
1
100
AcDbSymbolTableRecord
100
AcDbBlockTableRecord
  2
*Paper_Space0
340
26
  0
BLOCK_RECORD
  5
87
330
1
100
AcDbSymbolTableRecord
100
AcDbBlockTableRecord
  2
GENAXEH
340
0
  0
BLOCK_RECORD
  5
6F2D
330
1
100
AcDbSymbolTableRecord
100
AcDbBlockTableRecord
  2
*D4
340
0
  0
BLOCK_RECORD
  5
706A
330
1
100
AcDbSymbolTableRecord
100
AcDbBlockTableRecord
  2
SW_CENTERMARKSYMBOL_0
340
0
102
{BLKREFS
331
722A
102
}
  0
BLOCK_RECORD
  5
7075
330
1
100
AcDbSymbolTableRecord
100
AcDbBlockTableRecord
  2
SW_CENTERMARKSYMBOL_1
340
0
102
{BLKREFS
331
722B
102
}
  0
BLOCK_RECORD
  5
7080
330
1
100
AcDbSymbolTableRecord
100
AcDbBlockTableRecord
  2
SW_CENTERMARKSYMBOL_2
340
0
102
{BLKREFS
331
722C
102
}
  0
BLOCK_RECORD
  5
708B
330
1
100
AcDbSymbolTableRecord
100
AcDbBlockTableRecord
  2
SW_CENTERMARKSYMBOL_3
340
0
102
{BLKREFS
331
722D
102
}
  0
BLOCK_RECORD
  5
7096
330
1
100
AcDbSymbolTableRecord
100
AcDbBlockTableRecord
  2
SW_CENTERMARKSYMBOL_4
340
0
102
{BLKREFS
331
722E
102
}
  0
BLOCK_RECORD
  5
70A1
330
1
100
AcDbSymbolTableRecord
100
AcDbBlockTableRecord
  2
SW_CENTERMARKSYMBOL_5
340
0
102
{BLKREFS
331
722F
102
}
  0
BLOCK_RECORD
  5
70AC
330
1
100
AcDbSymbolTableRecord
100
AcDbBlockTableRecord
  2
SW_CENTERMARKSYMBOL_6
340
0
102
{BLKREFS
331
7230
102
}
  0
BLOCK_RECORD
  5
70B7
330
1
100
AcDbSymbolTableRecord
100
AcDbBlockTableRecord
  2
SW_CENTERMARKSYMBOL_7
340
0
102
{BLKREFS
331
7231
102
}
  0
BLOCK_RECORD
  5
70C2
330
1
100
AcDbSymbolTableRecord
100
AcDbBlockTableRecord
  2
SW_CENTERMARKSYMBOL_8
340
0
102
{BLKREFS
331
7232
102
}
  0
BLOCK_RECORD
  5
70CD
330
1
100
AcDbSymbolTableRecord
100
AcDbBlockTableRecord
  2
SW_CENTERMARKSYMBOL_9
340
0
102
{BLKREFS
331
7233
102
}
  0
BLOCK_RECORD
  5
70D8
330
1
100
AcDbSymbolTableRecord
100
AcDbBlockTableRecord
  2
SW_CENTERMARKSYMBOL_10
340
0
102
{BLKREFS
331
7234
102
}
  0
BLOCK_RECORD
  5
70E3
330
1
100
AcDbSymbolTableRecord
100
AcDbBlockTableRecord
  2
SW_CENTERMARKSYMBOL_11
340
0
102
{BLKREFS
331
7235
102
}
  0
BLOCK_RECORD
  5
70EE
330
1
100
AcDbSymbolTableRecord
100
AcDbBlockTableRecord
  2
SW_CENTERMARKSYMBOL_12
340
0
102
{BLKREFS
331
7236
102
}
  0
BLOCK_RECORD
  5
70F9
330
1
100
AcDbSymbolTableRecord
100
AcDbBlockTableRecord
  2
SW_CENTERMARKSYMBOL_13
340
0
102
{BLKREFS
331
7237
102
}
  0
BLOCK_RECORD
  5
7104
330
1
100
AcDbSymbolTableRecord
100
AcDbBlockTableRecord
  2
SW_CENTERMARKSYMBOL_14
340
0
102
{BLKREFS
331
7238
102
}
  0
BLOCK_RECORD
  5
710F
330
1
100
AcDbSymbolTableRecord
100
AcDbBlockTableRecord
  2
SW_CENTERMARKSYMBOL_15
340
0
102
{BLKREFS
331
7239
102
}
  0
BLOCK_RECORD
  5
711A
330
1
100
AcDbSymbolTableRecord
100
AcDbBlockTableRecord
  2
SW_CENTERMARKSYMBOL_16
340
0
102
{BLKREFS
331
723A
102
}
  0
BLOCK_RECORD
  5
7125
330
1
100
AcDbSymbolTableRecord
100
AcDbBlockTableRecord
  2
SW_CENTERMARKSYMBOL_17
340
0
102
{BLKREFS
331
723B
102
}
  0
BLOCK_RECORD
  5
7130
330
1
100
AcDbSymbolTableRecord
100
AcDbBlockTableRecord
  2
SW_CENTERMARKSYMBOL_18
340
0
102
{BLKREFS
331
723C
102
}
  0
BLOCK_RECORD
  5
713B
330
1
100
AcDbSymbolTableRecord
100
AcDbBlockTableRecord
  2
SW_CENTERMARKSYMBOL_19
340
0
102
{BLKREFS
331
723D
102
}
  0
BLOCK_RECORD
  5
7146
330
1
100
AcDbSymbolTableRecord
100
AcDbBlockTableRecord
  2
SW_CENTERMARKSYMBOL_20
340
0
102
{BLKREFS
331
723E
102
}
  0
BLOCK_RECORD
  5
7151
330
1
100
AcDbSymbolTableRecord
100
AcDbBlockTableRecord
  2
SW_CENTERMARKSYMBOL_21
340
0
102
{BLKREFS
331
723F
102
}
  0
BLOCK_RECORD
  5
715C
330
1
100
AcDbSymbolTableRecord
100
AcDbBlockTableRecord
  2
SW_CENTERMARKSYMBOL_22
340
0
102
{BLKREFS
331
7240
102
}
  0
BLOCK_RECORD
  5
7167
330
1
100
AcDbSymbolTableRecord
100
AcDbBlockTableRecord
  2
SW_CENTERMARKSYMBOL_23
340
0
102
{BLKREFS
331
7241
102
}
  0
BLOCK_RECORD
  5
7172
330
1
100
AcDbSymbolTableRecord
100
AcDbBlockTableRecord
  2
SW_CENTERMARKSYMBOL_24
340
0
102
{BLKREFS
331
7242
102
}
  0
BLOCK_RECORD
  5
717D
330
1
100
AcDbSymbolTableRecord
100
AcDbBlockTableRecord
  2
SW_CENTERMARKSYMBOL_25
340
0
102
{BLKREFS
331
7243
102
}
  0
BLOCK_RECORD
  5
7188
330
1
100
AcDbSymbolTableRecord
100
AcDbBlockTableRecord
  2
SW_CENTERMARKSYMBOL_26
340
0
102
{BLKREFS
331
7244
102
}
  0
BLOCK_RECORD
  5
7193
330
1
100
AcDbSymbolTableRecord
100
AcDbBlockTableRecord
  2
SW_CENTERMARKSYMBOL_27
340
0
102
{BLKREFS
331
7245
102
}
  0
BLOCK_RECORD
  5
719E
330
1
100
AcDbSymbolTableRecord
100
AcDbBlockTableRecord
  2
SW_CENTERMARKSYMBOL_28
340
0
102
{BLKREFS
331
7246
102
}
  0
BLOCK_RECORD
  5
71AC
330
1
100
AcDbSymbolTableRecord
100
AcDbBlockTableRecord
  2
A1188D
340
0
  0
BLOCK_RECORD
  5
746F
330
1
100
AcDbSymbolTableRecord
100
AcDbBlockTableRecord
  2
*D35
340
0
  0
BLOCK_RECORD
  5
7589
330
1
100
AcDbSymbolTableRecord
100
AcDbBlockTableRecord
  2
*D36
340
0
  0
BLOCK_RECORD
  5
75EC
330
1
100
AcDbSymbolTableRecord
100
AcDbBlockTableRecord
  2
MATP
340
0
102
{BLKREFS
331
7677
102
}
  0
BLOCK_RECORD
  5
7762
330
1
100
AcDbSymbolTableRecord
100
AcDbBlockTableRecord
  2
*D38
340
0
  0
BLOCK_RECORD
  5
77A6
330
1
100
AcDbSymbolTableRecord
100
AcDbBlockTableRecord
  2
*D39
340
0
  0
BLOCK_RECORD
  5
77EA
330
1
100
AcDbSymbolTableRecord
100
AcDbBlockTableRecord
  2
*D40
340
0
  0
BLOCK_RECORD
  5
7819
330
1
100
AcDbSymbolTableRecord
100
AcDbBlockTableRecord
  2
*D41
340
0
  0
ENDTAB
  0
ENDSEC
  0
SECTION
  2
BLOCKS
  0
BLOCK
  5
20
330
1F
100
AcDbEntity
  8
0
100
AcDbBlockBegin
  2
*Model_Space
 70
     0
 10
0.0
 20
0.0
 30
0.0
  3
*Model_Space
  1

  0
ENDBLK
  5
21
330
1F
100
AcDbEntity
  8
0
100
AcDbBlockEnd
  0
BLOCK
  5
1C
330
1B
100
AcDbEntity
 67
     1
  8
0
100
AcDbBlockBegin
  2
*Paper_Space
 70
     0
 10
0.0
 20
0.0
 30
0.0
  3
*Paper_Space
  1

  0
ENDBLK
  5
1D
330
1B
100
AcDbEntity
 67
     1
  8
0
100
AcDbBlockEnd
  0
BLOCK
  5
24
330
23
100
AcDbEntity
  8
0
100
AcDbBlockBegin
  2
*Paper_Space0
 70
     0
 10
0.0
 20
0.0
 30
0.0
  3
*Paper_Space0
  1

  0
ENDBLK
  5
25
330
23
100
AcDbEntity
  8
0
100
AcDbBlockEnd
  0
BLOCK
  5
89
330
87
100
AcDbEntity
  8
0
100
AcDbBlockBegin
  2
GENAXEH
 70
     0
 10
0.0
 20
0.0
 30
0.0
  3
GENAXEH
  1

  0
LINE
  5
88
330
87
100
AcDbEntity
  8
0
100
AcDbLine
 10
-1.0
 20
0.0
 30
0.0
 11
1.0
 21
0.0
 31
0.0
  0
ENDBLK
  5
8A
330
87
100
AcDbEntity
  8
0
100
AcDbBlockEnd
  0
BLOCK
  5
6F37
330
6F2D
100
AcDbEntity
  8
0
100
AcDbBlockBegin
  2
*D4
 70
     1
 10
0.0
 20
0.0
 30
0.0
  3
*D4
  1

  0
LINE
  5
7716
330
6F2D
100
AcDbEntity
  8
AM_5
100
AcDbLine
 10
2142.408833455527
 20
1318.753581120778
 30
0.0
 11
2161.059133733176
 21
1318.753581120778
 31
0.0
  0
LINE
  5
7717
330
6F2D
100
AcDbEntity
  8
AM_5
100
AcDbLine
 10
2142.408833455527
 20
1231.753581120778
 30
0.0
 11
2161.059133733176
 21
1231.753581120778
 31
0.0
  0
LINE
  5
7718
330
6F2D
100
AcDbEntity
  8
AM_5
100
AcDbLine
 10
2159.559133733176
 20
1315.753581120779
 30
0.0
 11
2159.559133733176
 21
1234.753581120778
 31
0.0
  0
SOLID
  5
7719
330
6F2D
100
AcDbEntity
  8
AM_5
100
AcDbTrace
 10
2159.059133733176
 20
1315.753581120779
 30
0.0
 11
2160.059133733176
 21
1315.753581120779
 31
0.0
 12
2159.559133733176
 22
1318.753581120778
 32
0.0
 13
2159.559133733176
 23
1318.753581120778
 33
0.0
  0
SOLID
  5
771A
330
6F2D
100
AcDbEntity
  8
AM_5
100
AcDbTrace
 10
2159.059133733176
 20
1234.753581120778
 30
0.0
 11
2160.059133733176
 21
1234.753581120778
 31
0.0
 12
2159.559133733176
 22
1231.753581120778
 32
0.0
 13
2159.559133733176
 23
1231.753581120778
 33
0.0
  0
MTEXT
  5
771B
330
6F2D
100
AcDbEntity
  8
AM_5
100
AcDbMText
 10
2157.059133733175
 20
1275.253581120778
 30
0.0
 40
3.0
 41
0.0
 71
     5
 72
     1
  1
87
 11
0.0000000000000001
 21
1.0
 31
0.0
 73
     1
 44
1.0
1001
ACAD
1000
MTEXTBEGIN
1070
    73
1070
     1
1070
    44
1040
1.0
1070
    74
1070
     0
1000
MTEXTEND
  0
POINT
  5
771C
330
6F2D
100
AcDbEntity
  8
Defpoints
 62
     0
100
AcDbPoint
 10
2141.408833455527
 20
1318.753581120778
 30
0.0
  0
POINT
  5
771D
330
6F2D
100
AcDbEntity
  8
Defpoints
 62
     0
100
AcDbPoint
 10
2141.408833455527
 20
1231.753581120778
 30
0.0
  0
POINT
  5
771E
330
6F2D
100
AcDbEntity
  8
Defpoints
 62
     0
100
AcDbPoint
 10
2159.559133733176
 20
1231.753581120778
 30
0.0
  0
ENDBLK
  5
6F38
330
6F2D
100
AcDbEntity
  8
0
100
AcDbBlockEnd
  0
BLOCK
  5
706B
330
706A
100
AcDbEntity
  8
0
100
AcDbBlockBegin
  2
SW_CENTERMARKSYMBOL_0
 70
     0
 10
0.0
 20
0.0
 30
0.0
  3
SW_CENTERMARKSYMBOL_0
  1

  0
LINE
  5
706C
330
706A
100
AcDbEntity
  8
0
  6
Continuous
 62
     0
370
     0
100
AcDbLine
 10
0.0
 20
0.0
 30
0.0
 11
0.0
 21
2.500000000000002
 31
0.0
  0
LINE
  5
706D
330
706A
100
AcDbEntity
  8
0
  6
Continuous
 62
     0
370
     0
100
AcDbLine
 10
0.0
 20
0.0
 30
0.0
 11
-2.500000000000002
 21
0.0
 31
0.0
  0
LINE
  5
706E
330
706A
100
AcDbEntity
  8
0
  6
Continuous
 62
     0
370
     0
100
AcDbLine
 10
0.0
 20
0.0
 30
0.0
 11
0.0
 21
-2.500000000000002
 31
0.0
  0
LINE
  5
706F
330
706A
100
AcDbEntity
  8
0
  6
Continuous
 62
     0
370
     0
100
AcDbLine
 10
0.0
 20
0.0
 30
0.0
 11
2.499999999999974
 21
0.0
 31
0.0
  0
LINE
  5
7070
330
706A
100
AcDbEntity
  8
0
  6
Continuous
 62
     0
370
     0
100
AcDbLine
 10
0.0
 20
2.500000000000002
 30
0.0
 11
0.0
 21
3.750000000000003
 31
0.0
  0
LINE
  5
7071
330
706A
100
AcDbEntity
  8
0
  6
Continuous
 62
     0
370
     0
100
AcDbLine
 10
-2.500000000000002
 20
0.0
 30
0.0
 11
-3.750000000000003
 21
0.0
 31
0.0
  0
LINE
  5
7072
330
706A
100
AcDbEntity
  8
0
  6
Continuous
 62
     0
370
     0
100
AcDbLine
 10
0.0
 20
-2.500000000000002
 30
0.0
 11
0.0
 21
-3.750000000000003
 31
0.0
  0
LINE
  5
7073
330
706A
100
AcDbEntity
  8
0
  6
Continuous
 62
     0
370
     0
100
AcDbLine
 10
2.499999999999974
 20
0.0
 30
0.0
 11
3.750000000000003
 21
0.0
 31
0.0
  0
ENDBLK
  5
7074
330
706A
100
AcDbEntity
  8
0
100
AcDbBlockEnd
  0
BLOCK
  5
7076
330
7075
100
AcDbEntity
  8
0
100
AcDbBlockBegin
  2
SW_CENTERMARKSYMBOL_1
 70
     0
 10
0.0
 20
0.0
 30
0.0
  3
SW_CENTERMARKSYMBOL_1
  1

  0
LINE
  5
7077
330
7075
100
AcDbEntity
  8
0
  6
Continuous
 62
     0
370
     0
100
AcDbLine
 10
0.0
 20
0.0
 30
0.0
 11
0.0
 21
2.500000000000002
 31
0.0
  0
LINE
  5
7078
330
7075
100
AcDbEntity
  8
0
  6
Continuous
 62
     0
370
     0
100
AcDbLine
 10
0.0
 20
0.0
 30
0.0
 11
-2.500000000000002
 21
0.0
 31
0.0
  0
LINE
  5
7079
330
7075
100
AcDbEntity
  8
0
  6
Continuous
 62
     0
370
     0
100
AcDbLine
 10
0.0
 20
0.0
 30
0.0
 11
0.0
 21
-2.500000000000002
 31
0.0
  0
LINE
  5
707A
330
7075
100
AcDbEntity
  8
0
  6
Continuous
 62
     0
370
     0
100
AcDbLine
 10
0.0
 20
0.0
 30
0.0
 11
2.499999999999974
 21
0.0
 31
0.0
  0
LINE
  5
707B
330
7075
100
AcDbEntity
  8
0
  6
Continuous
 62
     0
370
     0
100
AcDbLine
 10
0.0
 20
2.500000000000002
 30
0.0
 11
0.0
 21
3.750000000000003
 31
0.0
  0
LINE
  5
707C
330
7075
100
AcDbEntity
  8
0
  6
Continuous
 62
     0
370
     0
100
AcDbLine
 10
-2.500000000000002
 20
0.0
 30
0.0
 11
-3.750000000000003
 21
0.0
 31
0.0
  0
LINE
  5
707D
330
7075
100
AcDbEntity
  8
0
  6
Continuous
 62
     0
370
     0
100
AcDbLine
 10
0.0
 20
-2.500000000000002
 30
0.0
 11
0.0
 21
-3.750000000000003
 31
0.0
  0
LINE
  5
707E
330
7075
100
AcDbEntity
  8
0
  6
Continuous
 62
     0
370
     0
100
AcDbLine
 10
2.499999999999974
 20
0.0
 30
0.0
 11
3.749999999999975
 21
0.0
 31
0.0
  0
ENDBLK
  5
707F
330
7075
100
AcDbEntity
  8
0
100
AcDbBlockEnd
  0
BLOCK
  5
7081
330
7080
100
AcDbEntity
  8
0
100
AcDbBlockBegin
  2
SW_CENTERMARKSYMBOL_2
 70
     0
 10
0.0
 20
0.0
 30
0.0
  3
SW_CENTERMARKSYMBOL_2
  1

  0
LINE
  5
7082
330
7080
100
AcDbEntity
  8
0
  6
Continuous
 62
     0
370
     0
100
AcDbLine
 10
0.0
 20
0.0
 30
0.0
 11
0.0
 21
2.500000000000002
 31
0.0
  0
LINE
  5
7083
330
7080
100
AcDbEntity
  8
0
  6
Continuous
 62
     0
370
     0
100
AcDbLine
 10
0.0
 20
0.0
 30
0.0
 11
-2.500000000000002
 21
0.0
 31
0.0
  0
LINE
  5
7084
330
7080
100
AcDbEntity
  8
0
  6
Continuous
 62
     0
370
     0
100
AcDbLine
 10
0.0
 20
0.0
 30
0.0
 11
0.0
 21
-2.500000000000002
 31
0.0
  0
LINE
  5
7085
330
7080
100
AcDbEntity
  8
0
  6
Continuous
 62
     0
370
     0
100
AcDbLine
 10
0.0
 20
0.0
 30
0.0
 11
2.500000000000002
 21
0.0
 31
0.0
  0
LINE
  5
7086
330
7080
100
AcDbEntity
  8
0
  6
Continuous
 62
     0
370
     0
100
AcDbLine
 10
0.0
 20
2.500000000000002
 30
0.0
 11
0.0
 21
3.750000000000003
 31
0.0
  0
LINE
  5
7087
330
7080
100
AcDbEntity
  8
0
  6
Continuous
 62
     0
370
     0
100
AcDbLine
 10
-2.500000000000002
 20
0.0
 30
0.0
 11
-3.749999999999975
 21
0.0
 31
0.0
  0
LINE
  5
7088
330
7080
100
AcDbEntity
  8
0
  6
Continuous
 62
     0
370
     0
100
AcDbLine
 10
0.0
 20
-2.500000000000002
 30
0.0
 11
0.0
 21
-3.750000000000003
 31
0.0
  0
LINE
  5
7089
330
7080
100
AcDbEntity
  8
0
  6
Continuous
 62
     0
370
     0
100
AcDbLine
 10
2.500000000000002
 20
0.0
 30
0.0
 11
3.750000000000003
 21
0.0
 31
0.0
  0
ENDBLK
  5
708A
330
7080
100
AcDbEntity
  8
0
100
AcDbBlockEnd
  0
BLOCK
  5
708C
330
708B
100
AcDbEntity
  8
0
100
AcDbBlockBegin
  2
SW_CENTERMARKSYMBOL_3
 70
     0
 10
0.0
 20
0.0
 30
0.0
  3
SW_CENTERMARKSYMBOL_3
  1

  0
LINE
  5
708D
330
708B
100
AcDbEntity
  8
0
  6
Continuous
 62
     0
370
     0
100
AcDbLine
 10
0.0
 20
0.0
 30
0.0
 11
0.0
 21
2.500000000000002
 31
0.0
  0
LINE
  5
708E
330
708B
100
AcDbEntity
  8
0
  6
Continuous
 62
     0
370
     0
100
AcDbLine
 10
0.0
 20
0.0
 30
0.0
 11
-2.500000000000002
 21
0.0
 31
0.0
  0
LINE
  5
708F
330
708B
100
AcDbEntity
  8
0
  6
Continuous
 62
     0
370
     0
100
AcDbLine
 10
0.0
 20
0.0
 30
0.0
 11
0.0
 21
-2.500000000000002
 31
0.0
  0
LINE
  5
7090
330
708B
100
AcDbEntity
  8
0
  6
Continuous
 62
     0
370
     0
100
AcDbLine
 10
0.0
 20
0.0
 30
0.0
 11
2.500000000000002
 21
0.0
 31
0.0
  0
LINE
  5
7091
330
708B
100
AcDbEntity
  8
0
  6
Continuous
 62
     0
370
     0
100
AcDbLine
 10
0.0
 20
2.500000000000002
 30
0.0
 11
0.0
 21
3.750000000000003
 31
0.0
  0
LINE
  5
7092
330
708B
100
AcDbEntity
  8
0
  6
Continuous
 62
     0
370
     0
100
AcDbLine
 10
-2.500000000000002
 20
0.0
 30
0.0
 11
-3.750000000000003
 21
0.0
 31
0.0
  0
LINE
  5
7093
330
708B
100
AcDbEntity
  8
0
  6
Continuous
 62
     0
370
     0
100
AcDbLine
 10
0.0
 20
-2.500000000000002
 30
0.0
 11
0.0
 21
-3.750000000000003
 31
0.0
  0
LINE
  5
7094
330
708B
100
AcDbEntity
  8
0
  6
Continuous
 62
     0
370
     0
100
AcDbLine
 10
2.500000000000002
 20
0.0
 30
0.0
 11
3.750000000000003
 21
0.0
 31
0.0
  0
ENDBLK
  5
7095
330
708B
100
AcDbEntity
  8
0
100
AcDbBlockEnd
  0
BLOCK
  5
7097
330
7096
100
AcDbEntity
  8
0
100
AcDbBlockBegin
  2
SW_CENTERMARKSYMBOL_4
 70
     0
 10
0.0
 20
0.0
 30
0.0
  3
SW_CENTERMARKSYMBOL_4
  1

  0
LINE
  5
7098
330
7096
100
AcDbEntity
  8
0
  6
Continuous
 62
     0
370
     0
100
AcDbLine
 10
0.0
 20
0.0
 30
0.0
 11
0.0
 21
2.500000000000002
 31
0.0
  0
LINE
  5
7099
330
7096
100
AcDbEntity
  8
0
  6
Continuous
 62
     0
370
     0
100
AcDbLine
 10
0.0
 20
0.0
 30
0.0
 11
-2.500000000000002
 21
0.0
 31
0.0
  0
LINE
  5
709A
330
7096
100
AcDbEntity
  8
0
  6
Continuous
 62
     0
370
     0
100
AcDbLine
 10
0.0
 20
0.0
 30
0.0
 11
0.0
 21
-2.500000000000002
 31
0.0
  0
LINE
  5
709B
330
7096
100
AcDbEntity
  8
0
  6
Continuous
 62
     0
370
     0
100
AcDbLine
 10
0.0
 20
0.0
 30
0.0
 11
2.500000000000002
 21
0.0
 31
0.0
  0
LINE
  5
709C
330
7096
100
AcDbEntity
  8
0
  6
Continuous
 62
     0
370
     0
100
AcDbLine
 10
0.0
 20
2.500000000000002
 30
0.0
 11
0.0
 21
3.750000000000003
 31
0.0
  0
LINE
  5
709D
330
7096
100
AcDbEntity
  8
0
  6
Continuous
 62
     0
370
     0
100
AcDbLine
 10
-2.500000000000002
 20
0.0
 30
0.0
 11
-3.750000000000003
 21
0.0
 31
0.0
  0
LINE
  5
709E
330
7096
100
AcDbEntity
  8
0
  6
Continuous
 62
     0
370
     0
100
AcDbLine
 10
0.0
 20
-2.500000000000002
 30
0.0
 11
0.0
 21
-3.750000000000003
 31
0.0
  0
LINE
  5
709F
330
7096
100
AcDbEntity
  8
0
  6
Continuous
 62
     0
370
     0
100
AcDbLine
 10
2.500000000000002
 20
0.0
 30
0.0
 11
3.750000000000003
 21
0.0
 31
0.0
  0
ENDBLK
  5
70A0
330
7096
100
AcDbEntity
  8
0
100
AcDbBlockEnd
  0
BLOCK
  5
70A2
330
70A1
100
AcDbEntity
  8
0
100
AcDbBlockBegin
  2
SW_CENTERMARKSYMBOL_5
 70
     0
 10
0.0
 20
0.0
 30
0.0
  3
SW_CENTERMARKSYMBOL_5
  1

  0
LINE
  5
70A3
330
70A1
100
AcDbEntity
  8
0
  6
Continuous
 62
     0
370
     0
100
AcDbLine
 10
0.0
 20
0.0
 30
0.0
 11
0.0
 21
2.500000000000002
 31
0.0
  0
LINE
  5
70A4
330
70A1
100
AcDbEntity
  8
0
  6
Continuous
 62
     0
370
     0
100
AcDbLine
 10
0.0
 20
0.0
 30
0.0
 11
-2.500000000000002
 21
0.0
 31
0.0
  0
LINE
  5
70A5
330
70A1
100
AcDbEntity
  8
0
  6
Continuous
 62
     0
370
     0
100
AcDbLine
 10
0.0
 20
0.0
 30
0.0
 11
0.0
 21
-2.500000000000002
 31
0.0
  0
LINE
  5
70A6
330
70A1
100
AcDbEntity
  8
0
  6
Continuous
 62
     0
370
     0
100
AcDbLine
 10
0.0
 20
0.0
 30
0.0
 11
2.500000000000002
 21
0.0
 31
0.0
  0
LINE
  5
70A7
330
70A1
100
AcDbEntity
  8
0
  6
Continuous
 62
     0
370
     0
100
AcDbLine
 10
0.0
 20
2.500000000000002
 30
0.0
 11
0.0
 21
3.750000000000003
 31
0.0
  0
LINE
  5
70A8
330
70A1
100
AcDbEntity
  8
0
  6
Continuous
 62
     0
370
     0
100
AcDbLine
 10
-2.500000000000002
 20
0.0
 30
0.0
 11
-3.750000000000003
 21
0.0
 31
0.0
  0
LINE
  5
70A9
330
70A1
100
AcDbEntity
  8
0
  6
Continuous
 62
     0
370
     0
100
AcDbLine
 10
0.0
 20
-2.500000000000002
 30
0.0
 11
0.0
 21
-3.750000000000003
 31
0.0
  0
LINE
  5
70AA
330
70A1
100
AcDbEntity
  8
0
  6
Continuous
 62
     0
370
     0
100
AcDbLine
 10
2.500000000000002
 20
0.0
 30
0.0
 11
3.750000000000003
 21
0.0
 31
0.0
  0
ENDBLK
  5
70AB
330
70A1
100
AcDbEntity
  8
0
100
AcDbBlockEnd
  0
BLOCK
  5
70AD
330
70AC
100
AcDbEntity
  8
0
100
AcDbBlockBegin
  2
SW_CENTERMARKSYMBOL_6
 70
     0
 10
0.0
 20
0.0
 30
0.0
  3
SW_CENTERMARKSYMBOL_6
  1

  0
LINE
  5
70AE
330
70AC
100
AcDbEntity
  8
0
  6
Continuous
 62
     0
370
     0
100
AcDbLine
 10
0.0
 20
0.0
 30
0.0
 11
0.0
 21
2.500000000000002
 31
0.0
  0
LINE
  5
70AF
330
70AC
100
AcDbEntity
  8
0
  6
Continuous
 62
     0
370
     0
100
AcDbLine
 10
0.0
 20
0.0
 30
0.0
 11
-2.500000000000002
 21
0.0
 31
0.0
  0
LINE
  5
70B0
330
70AC
100
AcDbEntity
  8
0
  6
Continuous
 62
     0
370
     0
100
AcDbLine
 10
0.0
 20
0.0
 30
0.0
 11
0.0
 21
-2.500000000000002
 31
0.0
  0
LINE
  5
70B1
330
70AC
100
AcDbEntity
  8
0
  6
Continuous
 62
     0
370
     0
100
AcDbLine
 10
0.0
 20
0.0
 30
0.0
 11
2.500000000000002
 21
0.0
 31
0.0
  0
LINE
  5
70B2
330
70AC
100
AcDbEntity
  8
0
  6
Continuous
 62
     0
370
     0
100
AcDbLine
 10
0.0
 20
2.500000000000002
 30
0.0
 11
0.0
 21
3.750000000000003
 31
0.0
  0
LINE
  5
70B3
330
70AC
100
AcDbEntity
  8
0
  6
Continuous
 62
     0
370
     0
100
AcDbLine
 10
-2.500000000000002
 20
0.0
 30
0.0
 11
-3.750000000000003
 21
0.0
 31
0.0
  0
LINE
  5
70B4
330
70AC
100
AcDbEntity
  8
0
  6
Continuous
 62
     0
370
     0
100
AcDbLine
 10
0.0
 20
-2.500000000000002
 30
0.0
 11
0.0
 21
-3.750000000000003
 31
0.0
  0
LINE
  5
70B5
330
70AC
100
AcDbEntity
  8
0
  6
Continuous
 62
     0
370
     0
100
AcDbLine
 10
2.500000000000002
 20
0.0
 30
0.0
 11
3.750000000000003
 21
0.0
 31
0.0
  0
ENDBLK
  5
70B6
330
70AC
100
AcDbEntity
  8
0
100
AcDbBlockEnd
  0
BLOCK
  5
70B8
330
70B7
100
AcDbEntity
  8
0
100
AcDbBlockBegin
  2
SW_CENTERMARKSYMBOL_7
 70
     0
 10
0.0
 20
0.0
 30
0.0
  3
SW_CENTERMARKSYMBOL_7
  1

  0
LINE
  5
70B9
330
70B7
100
AcDbEntity
  8
0
  6
Continuous
 62
     0
370
     0
100
AcDbLine
 10
0.0
 20
0.0
 30
0.0
 11
0.0
 21
2.500000000000002
 31
0.0
  0
LINE
  5
70BA
330
70B7
100
AcDbEntity
  8
0
  6
Continuous
 62
     0
370
     0
100
AcDbLine
 10
0.0
 20
0.0
 30
0.0
 11
-2.500000000000002
 21
0.0
 31
0.0
  0
LINE
  5
70BB
330
70B7
100
AcDbEntity
  8
0
  6
Continuous
 62
     0
370
     0
100
AcDbLine
 10
0.0
 20
0.0
 30
0.0
 11
0.0
 21
-2.500000000000002
 31
0.0
  0
LINE
  5
70BC
330
70B7
100
AcDbEntity
  8
0
  6
Continuous
 62
     0
370
     0
100
AcDbLine
 10
0.0
 20
0.0
 30
0.0
 11
2.500000000000002
 21
0.0
 31
0.0
  0
LINE
  5
70BD
330
70B7
100
AcDbEntity
  8
0
  6
Continuous
 62
     0
370
     0
100
AcDbLine
 10
0.0
 20
2.500000000000002
 30
0.0
 11
0.0
 21
3.750000000000003
 31
0.0
  0
LINE
  5
70BE
330
70B7
100
AcDbEntity
  8
0
  6
Continuous
 62
     0
370
     0
100
AcDbLine
 10
-2.500000000000002
 20
0.0
 30
0.0
 11
-3.750000000000003
 21
0.0
 31
0.0
  0
LINE
  5
70BF
330
70B7
100
AcDbEntity
  8
0
  6
Continuous
 62
     0
370
     0
100
AcDbLine
 10
0.0
 20
-2.500000000000002
 30
0.0
 11
0.0
 21
-3.750000000000003
 31
0.0
  0
LINE
  5
70C0
330
70B7
100
AcDbEntity
  8
0
  6
Continuous
 62
     0
370
     0
100
AcDbLine
 10
2.500000000000002
 20
0.0
 30
0.0
 11
3.750000000000003
 21
0.0
 31
0.0
  0
ENDBLK
  5
70C1
330
70B7
100
AcDbEntity
  8
0
100
AcDbBlockEnd
  0
BLOCK
  5
70C3
330
70C2
100
AcDbEntity
  8
0
100
AcDbBlockBegin
  2
SW_CENTERMARKSYMBOL_8
 70
     0
 10
0.0
 20
0.0
 30
0.0
  3
SW_CENTERMARKSYMBOL_8
  1

  0
LINE
  5
70C4
330
70C2
100
AcDbEntity
  8
0
  6
Continuous
 62
     0
370
     0
100
AcDbLine
 10
0.0
 20
0.0
 30
0.0
 11
0.0
 21
2.500000000000002
 31
0.0
  0
LINE
  5
70C5
330
70C2
100
AcDbEntity
  8
0
  6
Continuous
 62
     0
370
     0
100
AcDbLine
 10
0.0
 20
0.0
 30
0.0
 11
-2.499999999999974
 21
0.0
 31
0.0
  0
LINE
  5
70C6
330
70C2
100
AcDbEntity
  8
0
  6
Continuous
 62
     0
370
     0
100
AcDbLine
 10
0.0
 20
0.0
 30
0.0
 11
0.0
 21
-2.500000000000002
 31
0.0
  0
LINE
  5
70C7
330
70C2
100
AcDbEntity
  8
0
  6
Continuous
 62
     0
370
     0
100
AcDbLine
 10
0.0
 20
0.0
 30
0.0
 11
2.500000000000002
 21
0.0
 31
0.0
  0
LINE
  5
70C8
330
70C2
100
AcDbEntity
  8
0
  6
Continuous
 62
     0
370
     0
100
AcDbLine
 10
0.0
 20
2.500000000000002
 30
0.0
 11
0.0
 21
3.750000000000003
 31
0.0
  0
LINE
  5
70C9
330
70C2
100
AcDbEntity
  8
0
  6
Continuous
 62
     0
370
     0
100
AcDbLine
 10
-2.499999999999974
 20
0.0
 30
0.0
 11
-3.749999999999975
 21
0.0
 31
0.0
  0
LINE
  5
70CA
330
70C2
100
AcDbEntity
  8
0
  6
Continuous
 62
     0
370
     0
100
AcDbLine
 10
0.0
 20
-2.500000000000002
 30
0.0
 11
0.0
 21
-3.750000000000003
 31
0.0
  0
LINE
  5
70CB
330
70C2
100
AcDbEntity
  8
0
  6
Continuous
 62
     0
370
     0
100
AcDbLine
 10
2.500000000000002
 20
0.0
 30
0.0
 11
3.750000000000003
 21
0.0
 31
0.0
  0
ENDBLK
  5
70CC
330
70C2
100
AcDbEntity
  8
0
100
AcDbBlockEnd
  0
BLOCK
  5
70CE
330
70CD
100
AcDbEntity
  8
0
100
AcDbBlockBegin
  2
SW_CENTERMARKSYMBOL_9
 70
     0
 10
0.0
 20
0.0
 30
0.0
  3
SW_CENTERMARKSYMBOL_9
  1

  0
LINE
  5
70CF
330
70CD
100
AcDbEntity
  8
0
  6
Continuous
 62
     0
370
     0
100
AcDbLine
 10
0.0
 20
0.0
 30
0.0
 11
0.0
 21
2.500000000000002
 31
0.0
  0
LINE
  5
70D0
330
70CD
100
AcDbEntity
  8
0
  6
Continuous
 62
     0
370
     0
100
AcDbLine
 10
0.0
 20
0.0
 30
0.0
 11
-2.500000000000002
 21
0.0
 31
0.0
  0
LINE
  5
70D1
330
70CD
100
AcDbEntity
  8
0
  6
Continuous
 62
     0
370
     0
100
AcDbLine
 10
0.0
 20
0.0
 30
0.0
 11
0.0
 21
-2.500000000000002
 31
0.0
  0
LINE
  5
70D2
330
70CD
100
AcDbEntity
  8
0
  6
Continuous
 62
     0
370
     0
100
AcDbLine
 10
0.0
 20
0.0
 30
0.0
 11
2.500000000000002
 21
0.0
 31
0.0
  0
LINE
  5
70D3
330
70CD
100
AcDbEntity
  8
0
  6
Continuous
 62
     0
370
     0
100
AcDbLine
 10
0.0
 20
2.500000000000002
 30
0.0
 11
0.0
 21
3.750000000000003
 31
0.0
  0
LINE
  5
70D4
330
70CD
100
AcDbEntity
  8
0
  6
Continuous
 62
     0
370
     0
100
AcDbLine
 10
-2.500000000000002
 20
0.0
 30
0.0
 11
-3.750000000000003
 21
0.0
 31
0.0
  0
LINE
  5
70D5
330
70CD
100
AcDbEntity
  8
0
  6
Continuous
 62
     0
370
     0
100
AcDbLine
 10
0.0
 20
-2.500000000000002
 30
0.0
 11
0.0
 21
-3.750000000000003
 31
0.0
  0
LINE
  5
70D6
330
70CD
100
AcDbEntity
  8
0
  6
Continuous
 62
     0
370
     0
100
AcDbLine
 10
2.500000000000002
 20
0.0
 30
0.0
 11
3.750000000000003
 21
0.0
 31
0.0
  0
ENDBLK
  5
70D7
330
70CD
100
AcDbEntity
  8
0
100
AcDbBlockEnd
  0
BLOCK
  5
70D9
330
70D8
100
AcDbEntity
  8
0
100
AcDbBlockBegin
  2
SW_CENTERMARKSYMBOL_10
 70
     0
 10
0.0
 20
0.0
 30
0.0
  3
SW_CENTERMARKSYMBOL_10
  1

  0
LINE
  5
70DA
330
70D8
100
AcDbEntity
  8
0
  6
Continuous
 62
     0
370
     0
100
AcDbLine
 10
0.0
 20
0.0
 30
0.0
 11
0.0
 21
2.500000000000002
 31
0.0
  0
LINE
  5
70DB
330
70D8
100
AcDbEntity
  8
0
  6
Continuous
 62
     0
370
     0
100
AcDbLine
 10
0.0
 20
0.0
 30
0.0
 11
-2.500000000000002
 21
0.0
 31
0.0
  0
LINE
  5
70DC
330
70D8
100
AcDbEntity
  8
0
  6
Continuous
 62
     0
370
     0
100
AcDbLine
 10
0.0
 20
0.0
 30
0.0
 11
0.0
 21
-2.500000000000002
 31
0.0
  0
LINE
  5
70DD
330
70D8
100
AcDbEntity
  8
0
  6
Continuous
 62
     0
370
     0
100
AcDbLine
 10
0.0
 20
0.0
 30
0.0
 11
2.500000000000002
 21
0.0
 31
0.0
  0
LINE
  5
70DE
330
70D8
100
AcDbEntity
  8
0
  6
Continuous
 62
     0
370
     0
100
AcDbLine
 10
0.0
 20
2.500000000000002
 30
0.0
 11
0.0
 21
3.750000000000003
 31
0.0
  0
LINE
  5
70DF
330
70D8
100
AcDbEntity
  8
0
  6
Continuous
 62
     0
370
     0
100
AcDbLine
 10
-2.500000000000002
 20
0.0
 30
0.0
 11
-3.750000000000003
 21
0.0
 31
0.0
  0
LINE
  5
70E0
330
70D8
100
AcDbEntity
  8
0
  6
Continuous
 62
     0
370
     0
100
AcDbLine
 10
0.0
 20
-2.500000000000002
 30
0.0
 11
0.0
 21
-3.750000000000003
 31
0.0
  0
LINE
  5
70E1
330
70D8
100
AcDbEntity
  8
0
  6
Continuous
 62
     0
370
     0
100
AcDbLine
 10
2.500000000000002
 20
0.0
 30
0.0
 11
3.750000000000003
 21
0.0
 31
0.0
  0
ENDBLK
  5
70E2
330
70D8
100
AcDbEntity
  8
0
100
AcDbBlockEnd
  0
BLOCK
  5
70E4
330
70E3
100
AcDbEntity
  8
0
100
AcDbBlockBegin
  2
SW_CENTERMARKSYMBOL_11
 70
     0
 10
0.0
 20
0.0
 30
0.0
  3
SW_CENTERMARKSYMBOL_11
  1

  0
LINE
  5
70E5
330
70E3
100
AcDbEntity
  8
0
  6
Continuous
 62
     0
370
     0
100
AcDbLine
 10
0.0
 20
0.0
 30
0.0
 11
0.0
 21
2.500000000000002
 31
0.0
  0
LINE
  5
70E6
330
70E3
100
AcDbEntity
  8
0
  6
Continuous
 62
     0
370
     0
100
AcDbLine
 10
0.0
 20
0.0
 30
0.0
 11
-2.500000000000002
 21
0.0
 31
0.0
  0
LINE
  5
70E7
330
70E3
100
AcDbEntity
  8
0
  6
Continuous
 62
     0
370
     0
100
AcDbLine
 10
0.0
 20
0.0
 30
0.0
 11
0.0
 21
-2.500000000000002
 31
0.0
  0
LINE
  5
70E8
330
70E3
100
AcDbEntity
  8
0
  6
Continuous
 62
     0
370
     0
100
AcDbLine
 10
0.0
 20
0.0
 30
0.0
 11
2.500000000000002
 21
0.0
 31
0.0
  0
LINE
  5
70E9
330
70E3
100
AcDbEntity
  8
0
  6
Continuous
 62
     0
370
     0
100
AcDbLine
 10
0.0
 20
2.500000000000002
 30
0.0
 11
0.0
 21
3.750000000000003
 31
0.0
  0
LINE
  5
70EA
330
70E3
100
AcDbEntity
  8
0
  6
Continuous
 62
     0
370
     0
100
AcDbLine
 10
-2.500000000000002
 20
0.0
 30
0.0
 11
-3.750000000000003
 21
0.0
 31
0.0
  0
LINE
  5
70EB
330
70E3
100
AcDbEntity
  8
0
  6
Continuous
 62
     0
370
     0
100
AcDbLine
 10
0.0
 20
-2.500000000000002
 30
0.0
 11
0.0
 21
-3.750000000000003
 31
0.0
  0
LINE
  5
70EC
330
70E3
100
AcDbEntity
  8
0
  6
Continuous
 62
     0
370
     0
100
AcDbLine
 10
2.500000000000002
 20
0.0
 30
0.0
 11
3.750000000000003
 21
0.0
 31
0.0
  0
ENDBLK
  5
70ED
330
70E3
100
AcDbEntity
  8
0
100
AcDbBlockEnd
  0
BLOCK
  5
70EF
330
70EE
100
AcDbEntity
  8
0
100
AcDbBlockBegin
  2
SW_CENTERMARKSYMBOL_12
 70
     0
 10
0.0
 20
0.0
 30
0.0
  3
SW_CENTERMARKSYMBOL_12
  1

  0
LINE
  5
70F0
330
70EE
100
AcDbEntity
  8
0
  6
Continuous
 62
     0
370
     0
100
AcDbLine
 10
0.0
 20
0.0
 30
0.0
 11
0.0
 21
2.500000000000002
 31
0.0
  0
LINE
  5
70F1
330
70EE
100
AcDbEntity
  8
0
  6
Continuous
 62
     0
370
     0
100
AcDbLine
 10
0.0
 20
0.0
 30
0.0
 11
-2.500000000000002
 21
0.0
 31
0.0
  0
LINE
  5
70F2
330
70EE
100
AcDbEntity
  8
0
  6
Continuous
 62
     0
370
     0
100
AcDbLine
 10
0.0
 20
0.0
 30
0.0
 11
0.0
 21
-2.500000000000002
 31
0.0
  0
LINE
  5
70F3
330
70EE
100
AcDbEntity
  8
0
  6
Continuous
 62
     0
370
     0
100
AcDbLine
 10
0.0
 20
0.0
 30
0.0
 11
2.500000000000002
 21
0.0
 31
0.0
  0
LINE
  5
70F4
330
70EE
100
AcDbEntity
  8
0
  6
Continuous
 62
     0
370
     0
100
AcDbLine
 10
0.0
 20
2.500000000000002
 30
0.0
 11
0.0
 21
3.750000000000003
 31
0.0
  0
LINE
  5
70F5
330
70EE
100
AcDbEntity
  8
0
  6
Continuous
 62
     0
370
     0
100
AcDbLine
 10
-2.500000000000002
 20
0.0
 30
0.0
 11
-3.750000000000003
 21
0.0
 31
0.0
  0
LINE
  5
70F6
330
70EE
100
AcDbEntity
  8
0
  6
Continuous
 62
     0
370
     0
100
AcDbLine
 10
0.0
 20
-2.500000000000002
 30
0.0
 11
0.0
 21
-3.750000000000003
 31
0.0
  0
LINE
  5
70F7
330
70EE
100
AcDbEntity
  8
0
  6
Continuous
 62
     0
370
     0
100
AcDbLine
 10
2.500000000000002
 20
0.0
 30
0.0
 11
3.750000000000003
 21
0.0
 31
0.0
  0
ENDBLK
  5
70F8
330
70EE
100
AcDbEntity
  8
0
100
AcDbBlockEnd
  0
BLOCK
  5
70FA
330
70F9
100
AcDbEntity
  8
0
100
AcDbBlockBegin
  2
SW_CENTERMARKSYMBOL_13
 70
     0
 10
0.0
 20
0.0
 30
0.0
  3
SW_CENTERMARKSYMBOL_13
  1

  0
LINE
  5
70FB
330
70F9
100
AcDbEntity
  8
0
  6
Continuous
 62
     0
370
     0
100
AcDbLine
 10
0.0
 20
0.0
 30
0.0
 11
0.0
 21
2.500000000000002
 31
0.0
  0
LINE
  5
70FC
330
70F9
100
AcDbEntity
  8
0
  6
Continuous
 62
     0
370
     0
100
AcDbLine
 10
0.0
 20
0.0
 30
0.0
 11
-2.500000000000002
 21
0.0
 31
0.0
  0
LINE
  5
70FD
330
70F9
100
AcDbEntity
  8
0
  6
Continuous
 62
     0
370
     0
100
AcDbLine
 10
0.0
 20
0.0
 30
0.0
 11
0.0
 21
-2.500000000000002
 31
0.0
  0
LINE
  5
70FE
330
70F9
100
AcDbEntity
  8
0
  6
Continuous
 62
     0
370
     0
100
AcDbLine
 10
0.0
 20
0.0
 30
0.0
 11
2.500000000000002
 21
0.0
 31
0.0
  0
LINE
  5
70FF
330
70F9
100
AcDbEntity
  8
0
  6
Continuous
 62
     0
370
     0
100
AcDbLine
 10
0.0
 20
2.500000000000002
 30
0.0
 11
0.0
 21
3.750000000000003
 31
0.0
  0
LINE
  5
7100
330
70F9
100
AcDbEntity
  8
0
  6
Continuous
 62
     0
370
     0
100
AcDbLine
 10
-2.500000000000002
 20
0.0
 30
0.0
 11
-3.750000000000003
 21
0.0
 31
0.0
  0
LINE
  5
7101
330
70F9
100
AcDbEntity
  8
0
  6
Continuous
 62
     0
370
     0
100
AcDbLine
 10
0.0
 20
-2.500000000000002
 30
0.0
 11
0.0
 21
-3.750000000000003
 31
0.0
  0
LINE
  5
7102
330
70F9
100
AcDbEntity
  8
0
  6
Continuous
 62
     0
370
     0
100
AcDbLine
 10
2.500000000000002
 20
0.0
 30
0.0
 11
3.750000000000003
 21
0.0
 31
0.0
  0
ENDBLK
  5
7103
330
70F9
100
AcDbEntity
  8
0
100
AcDbBlockEnd
  0
BLOCK
  5
7105
330
7104
100
AcDbEntity
  8
0
100
AcDbBlockBegin
  2
SW_CENTERMARKSYMBOL_14
 70
     0
 10
0.0
 20
0.0
 30
0.0
  3
SW_CENTERMARKSYMBOL_14
  1

  0
LINE
  5
7106
330
7104
100
AcDbEntity
  8
0
  6
Continuous
 62
     0
370
     0
100
AcDbLine
 10
0.0
 20
0.0
 30
0.0
 11
0.0
 21
2.500000000000002
 31
0.0
  0
LINE
  5
7107
330
7104
100
AcDbEntity
  8
0
  6
Continuous
 62
     0
370
     0
100
AcDbLine
 10
0.0
 20
0.0
 30
0.0
 11
-2.500000000000002
 21
0.0
 31
0.0
  0
LINE
  5
7108
330
7104
100
AcDbEntity
  8
0
  6
Continuous
 62
     0
370
     0
100
AcDbLine
 10
0.0
 20
0.0
 30
0.0
 11
0.0
 21
-2.500000000000002
 31
0.0
  0
LINE
  5
7109
330
7104
100
AcDbEntity
  8
0
  6
Continuous
 62
     0
370
     0
100
AcDbLine
 10
0.0
 20
0.0
 30
0.0
 11
2.500000000000002
 21
0.0
 31
0.0
  0
LINE
  5
710A
330
7104
100
AcDbEntity
  8
0
  6
Continuous
 62
     0
370
     0
100
AcDbLine
 10
0.0
 20
2.500000000000002
 30
0.0
 11
0.0
 21
3.750000000000003
 31
0.0
  0
LINE
  5
710B
330
7104
100
AcDbEntity
  8
0
  6
Continuous
 62
     0
370
     0
100
AcDbLine
 10
-2.500000000000002
 20
0.0
 30
0.0
 11
-3.750000000000003
 21
0.0
 31
0.0
  0
LINE
  5
710C
330
7104
100
AcDbEntity
  8
0
  6
Continuous
 62
     0
370
     0
100
AcDbLine
 10
0.0
 20
-2.500000000000002
 30
0.0
 11
0.0
 21
-3.750000000000003
 31
0.0
  0
LINE
  5
710D
330
7104
100
AcDbEntity
  8
0
  6
Continuous
 62
     0
370
     0
100
AcDbLine
 10
2.500000000000002
 20
0.0
 30
0.0
 11
3.750000000000003
 21
0.0
 31
0.0
  0
ENDBLK
  5
710E
330
7104
100
AcDbEntity
  8
0
100
AcDbBlockEnd
  0
BLOCK
  5
7110
330
710F
100
AcDbEntity
  8
0
100
AcDbBlockBegin
  2
SW_CENTERMARKSYMBOL_15
 70
     0
 10
0.0
 20
0.0
 30
0.0
  3
SW_CENTERMARKSYMBOL_15
  1

  0
LINE
  5
7111
330
710F
100
AcDbEntity
  8
0
  6
Continuous
 62
     0
370
     0
100
AcDbLine
 10
0.0
 20
0.0
 30
0.0
 11
0.0
 21
2.500000000000002
 31
0.0
  0
LINE
  5
7112
330
710F
100
AcDbEntity
  8
0
  6
Continuous
 62
     0
370
     0
100
AcDbLine
 10
0.0
 20
0.0
 30
0.0
 11
-2.500000000000002
 21
0.0
 31
0.0
  0
LINE
  5
7113
330
710F
100
AcDbEntity
  8
0
  6
Continuous
 62
     0
370
     0
100
AcDbLine
 10
0.0
 20
0.0
 30
0.0
 11
0.0
 21
-2.500000000000002
 31
0.0
  0
LINE
  5
7114
330
710F
100
AcDbEntity
  8
0
  6
Continuous
 62
     0
370
     0
100
AcDbLine
 10
0.0
 20
0.0
 30
0.0
 11
2.500000000000002
 21
0.0
 31
0.0
  0
LINE
  5
7115
330
710F
100
AcDbEntity
  8
0
  6
Continuous
 62
     0
370
     0
100
AcDbLine
 10
0.0
 20
2.500000000000002
 30
0.0
 11
0.0
 21
3.750000000000003
 31
0.0
  0
LINE
  5
7116
330
710F
100
AcDbEntity
  8
0
  6
Continuous
 62
     0
370
     0
100
AcDbLine
 10
-2.500000000000002
 20
0.0
 30
0.0
 11
-3.750000000000003
 21
0.0
 31
0.0
  0
LINE
  5
7117
330
710F
100
AcDbEntity
  8
0
  6
Continuous
 62
     0
370
     0
100
AcDbLine
 10
0.0
 20
-2.500000000000002
 30
0.0
 11
0.0
 21
-3.750000000000003
 31
0.0
  0
LINE
  5
7118
330
710F
100
AcDbEntity
  8
0
  6
Continuous
 62
     0
370
     0
100
AcDbLine
 10
2.500000000000002
 20
0.0
 30
0.0
 11
3.750000000000003
 21
0.0
 31
0.0
  0
ENDBLK
  5
7119
330
710F
100
AcDbEntity
  8
0
100
AcDbBlockEnd
  0
BLOCK
  5
711B
330
711A
100
AcDbEntity
  8
0
100
AcDbBlockBegin
  2
SW_CENTERMARKSYMBOL_16
 70
     0
 10
0.0
 20
0.0
 30
0.0
  3
SW_CENTERMARKSYMBOL_16
  1

  0
LINE
  5
711C
330
711A
100
AcDbEntity
  8
0
  6
Continuous
 62
     0
370
     0
100
AcDbLine
 10
0.0
 20
0.0
 30
0.0
 11
0.0
 21
2.500000000000002
 31
0.0
  0
LINE
  5
711D
330
711A
100
AcDbEntity
  8
0
  6
Continuous
 62
     0
370
     0
100
AcDbLine
 10
0.0
 20
0.0
 30
0.0
 11
-2.500000000000002
 21
0.0
 31
0.0
  0
LINE
  5
711E
330
711A
100
AcDbEntity
  8
0
  6
Continuous
 62
     0
370
     0
100
AcDbLine
 10
0.0
 20
0.0
 30
0.0
 11
0.0
 21
-2.500000000000002
 31
0.0
  0
LINE
  5
711F
330
711A
100
AcDbEntity
  8
0
  6
Continuous
 62
     0
370
     0
100
AcDbLine
 10
0.0
 20
0.0
 30
0.0
 11
2.500000000000002
 21
0.0
 31
0.0
  0
LINE
  5
7120
330
711A
100
AcDbEntity
  8
0
  6
Continuous
 62
     0
370
     0
100
AcDbLine
 10
0.0
 20
2.500000000000002
 30
0.0
 11
0.0
 21
3.750000000000003
 31
0.0
  0
LINE
  5
7121
330
711A
100
AcDbEntity
  8
0
  6
Continuous
 62
     0
370
     0
100
AcDbLine
 10
-2.500000000000002
 20
0.0
 30
0.0
 11
-3.750000000000003
 21
0.0
 31
0.0
  0
LINE
  5
7122
330
711A
100
AcDbEntity
  8
0
  6
Continuous
 62
     0
370
     0
100
AcDbLine
 10
0.0
 20
-2.500000000000002
 30
0.0
 11
0.0
 21
-3.750000000000003
 31
0.0
  0
LINE
  5
7123
330
711A
100
AcDbEntity
  8
0
  6
Continuous
 62
     0
370
     0
100
AcDbLine
 10
2.500000000000002
 20
0.0
 30
0.0
 11
3.750000000000003
 21
0.0
 31
0.0
  0
ENDBLK
  5
7124
330
711A
100
AcDbEntity
  8
0
100
AcDbBlockEnd
  0
BLOCK
  5
7126
330
7125
100
AcDbEntity
  8
0
100
AcDbBlockBegin
  2
SW_CENTERMARKSYMBOL_17
 70
     0
 10
0.0
 20
0.0
 30
0.0
  3
SW_CENTERMARKSYMBOL_17
  1

  0
LINE
  5
7127
330
7125
100
AcDbEntity
  8
0
  6
Continuous
 62
     0
370
     0
100
AcDbLine
 10
0.0
 20
0.0
 30
0.0
 11
0.0
 21
2.500000000000002
 31
0.0
  0
LINE
  5
7128
330
7125
100
AcDbEntity
  8
0
  6
Continuous
 62
     0
370
     0
100
AcDbLine
 10
0.0
 20
0.0
 30
0.0
 11
-2.499999999999974
 21
0.0
 31
0.0
  0
LINE
  5
7129
330
7125
100
AcDbEntity
  8
0
  6
Continuous
 62
     0
370
     0
100
AcDbLine
 10
0.0
 20
0.0
 30
0.0
 11
0.0
 21
-2.500000000000002
 31
0.0
  0
LINE
  5
712A
330
7125
100
AcDbEntity
  8
0
  6
Continuous
 62
     0
370
     0
100
AcDbLine
 10
0.0
 20
0.0
 30
0.0
 11
2.500000000000002
 21
0.0
 31
0.0
  0
LINE
  5
712B
330
7125
100
AcDbEntity
  8
0
  6
Continuous
 62
     0
370
     0
100
AcDbLine
 10
0.0
 20
2.500000000000002
 30
0.0
 11
0.0
 21
3.750000000000003
 31
0.0
  0
LINE
  5
712C
330
7125
100
AcDbEntity
  8
0
  6
Continuous
 62
     0
370
     0
100
AcDbLine
 10
-2.499999999999974
 20
0.0
 30
0.0
 11
-3.749999999999975
 21
0.0
 31
0.0
  0
LINE
  5
712D
330
7125
100
AcDbEntity
  8
0
  6
Continuous
 62
     0
370
     0
100
AcDbLine
 10
0.0
 20
-2.500000000000002
 30
0.0
 11
0.0
 21
-3.750000000000003
 31
0.0
  0
LINE
  5
712E
330
7125
100
AcDbEntity
  8
0
  6
Continuous
 62
     0
370
     0
100
AcDbLine
 10
2.500000000000002
 20
0.0
 30
0.0
 11
3.750000000000003
 21
0.0
 31
0.0
  0
ENDBLK
  5
712F
330
7125
100
AcDbEntity
  8
0
100
AcDbBlockEnd
  0
BLOCK
  5
7131
330
7130
100
AcDbEntity
  8
0
100
AcDbBlockBegin
  2
SW_CENTERMARKSYMBOL_18
 70
     0
 10
0.0
 20
0.0
 30
0.0
  3
SW_CENTERMARKSYMBOL_18
  1

  0
LINE
  5
7132
330
7130
100
AcDbEntity
  8
0
  6
Continuous
 62
     0
370
     0
100
AcDbLine
 10
0.0
 20
0.0
 30
0.0
 11
0.0
 21
2.500000000000002
 31
0.0
  0
LINE
  5
7133
330
7130
100
AcDbEntity
  8
0
  6
Continuous
 62
     0
370
     0
100
AcDbLine
 10
0.0
 20
0.0
 30
0.0
 11
-2.500000000000002
 21
0.0
 31
0.0
  0
LINE
  5
7134
330
7130
100
AcDbEntity
  8
0
  6
Continuous
 62
     0
370
     0
100
AcDbLine
 10
0.0
 20
0.0
 30
0.0
 11
0.0
 21
-2.500000000000002
 31
0.0
  0
LINE
  5
7135
330
7130
100
AcDbEntity
  8
0
  6
Continuous
 62
     0
370
     0
100
AcDbLine
 10
0.0
 20
0.0
 30
0.0
 11
2.500000000000002
 21
0.0
 31
0.0
  0
LINE
  5
7136
330
7130
100
AcDbEntity
  8
0
  6
Continuous
 62
     0
370
     0
100
AcDbLine
 10
0.0
 20
2.500000000000002
 30
0.0
 11
0.0
 21
3.750000000000003
 31
0.0
  0
LINE
  5
7137
330
7130
100
AcDbEntity
  8
0
  6
Continuous
 62
     0
370
     0
100
AcDbLine
 10
-2.500000000000002
 20
0.0
 30
0.0
 11
-3.750000000000003
 21
0.0
 31
0.0
  0
LINE
  5
7138
330
7130
100
AcDbEntity
  8
0
  6
Continuous
 62
     0
370
     0
100
AcDbLine
 10
0.0
 20
-2.500000000000002
 30
0.0
 11
0.0
 21
-3.750000000000003
 31
0.0
  0
LINE
  5
7139
330
7130
100
AcDbEntity
  8
0
  6
Continuous
 62
     0
370
     0
100
AcDbLine
 10
2.500000000000002
 20
0.0
 30
0.0
 11
3.750000000000003
 21
0.0
 31
0.0
  0
ENDBLK
  5
713A
330
7130
100
AcDbEntity
  8
0
100
AcDbBlockEnd
  0
BLOCK
  5
713C
330
713B
100
AcDbEntity
  8
0
100
AcDbBlockBegin
  2
SW_CENTERMARKSYMBOL_19
 70
     0
 10
0.0
 20
0.0
 30
0.0
  3
SW_CENTERMARKSYMBOL_19
  1

  0
LINE
  5
713D
330
713B
100
AcDbEntity
  8
0
  6
Continuous
 62
     0
370
     0
100
AcDbLine
 10
0.0
 20
0.0
 30
0.0
 11
0.0
 21
2.500000000000002
 31
0.0
  0
LINE
  5
713E
330
713B
100
AcDbEntity
  8
0
  6
Continuous
 62
     0
370
     0
100
AcDbLine
 10
0.0
 20
0.0
 30
0.0
 11
-2.500000000000002
 21
0.0
 31
0.0
  0
LINE
  5
713F
330
713B
100
AcDbEntity
  8
0
  6
Continuous
 62
     0
370
     0
100
AcDbLine
 10
0.0
 20
0.0
 30
0.0
 11
0.0
 21
-2.500000000000002
 31
0.0
  0
LINE
  5
7140
330
713B
100
AcDbEntity
  8
0
  6
Continuous
 62
     0
370
     0
100
AcDbLine
 10
0.0
 20
0.0
 30
0.0
 11
2.500000000000002
 21
0.0
 31
0.0
  0
LINE
  5
7141
330
713B
100
AcDbEntity
  8
0
  6
Continuous
 62
     0
370
     0
100
AcDbLine
 10
0.0
 20
2.500000000000002
 30
0.0
 11
0.0
 21
3.750000000000003
 31
0.0
  0
LINE
  5
7142
330
713B
100
AcDbEntity
  8
0
  6
Continuous
 62
     0
370
     0
100
AcDbLine
 10
-2.500000000000002
 20
0.0
 30
0.0
 11
-3.750000000000003
 21
0.0
 31
0.0
  0
LINE
  5
7143
330
713B
100
AcDbEntity
  8
0
  6
Continuous
 62
     0
370
     0
100
AcDbLine
 10
0.0
 20
-2.500000000000002
 30
0.0
 11
0.0
 21
-3.750000000000003
 31
0.0
  0
LINE
  5
7144
330
713B
100
AcDbEntity
  8
0
  6
Continuous
 62
     0
370
     0
100
AcDbLine
 10
2.500000000000002
 20
0.0
 30
0.0
 11
3.750000000000003
 21
0.0
 31
0.0
  0
ENDBLK
  5
7145
330
713B
100
AcDbEntity
  8
0
100
AcDbBlockEnd
  0
BLOCK
  5
7147
330
7146
100
AcDbEntity
  8
0
100
AcDbBlockBegin
  2
SW_CENTERMARKSYMBOL_20
 70
     0
 10
0.0
 20
0.0
 30
0.0
  3
SW_CENTERMARKSYMBOL_20
  1

  0
LINE
  5
7148
330
7146
100
AcDbEntity
  8
0
  6
Continuous
 62
     0
370
     0
100
AcDbLine
 10
0.0
 20
0.0
 30
0.0
 11
0.0
 21
2.500000000000002
 31
0.0
  0
LINE
  5
7149
330
7146
100
AcDbEntity
  8
0
  6
Continuous
 62
     0
370
     0
100
AcDbLine
 10
0.0
 20
0.0
 30
0.0
 11
-2.500000000000002
 21
0.0
 31
0.0
  0
LINE
  5
714A
330
7146
100
AcDbEntity
  8
0
  6
Continuous
 62
     0
370
     0
100
AcDbLine
 10
0.0
 20
0.0
 30
0.0
 11
0.0
 21
-2.500000000000002
 31
0.0
  0
LINE
  5
714B
330
7146
100
AcDbEntity
  8
0
  6
Continuous
 62
     0
370
     0
100
AcDbLine
 10
0.0
 20
0.0
 30
0.0
 11
2.500000000000002
 21
0.0
 31
0.0
  0
LINE
  5
714C
330
7146
100
AcDbEntity
  8
0
  6
Continuous
 62
     0
370
     0
100
AcDbLine
 10
0.0
 20
2.500000000000002
 30
0.0
 11
0.0
 21
3.750000000000003
 31
0.0
  0
LINE
  5
714D
330
7146
100
AcDbEntity
  8
0
  6
Continuous
 62
     0
370
     0
100
AcDbLine
 10
-2.500000000000002
 20
0.0
 30
0.0
 11
-3.750000000000003
 21
0.0
 31
0.0
  0
LINE
  5
714E
330
7146
100
AcDbEntity
  8
0
  6
Continuous
 62
     0
370
     0
100
AcDbLine
 10
0.0
 20
-2.500000000000002
 30
0.0
 11
0.0
 21
-3.750000000000003
 31
0.0
  0
LINE
  5
714F
330
7146
100
AcDbEntity
  8
0
  6
Continuous
 62
     0
370
     0
100
AcDbLine
 10
2.500000000000002
 20
0.0
 30
0.0
 11
3.750000000000003
 21
0.0
 31
0.0
  0
ENDBLK
  5
7150
330
7146
100
AcDbEntity
  8
0
100
AcDbBlockEnd
  0
BLOCK
  5
7152
330
7151
100
AcDbEntity
  8
0
100
AcDbBlockBegin
  2
SW_CENTERMARKSYMBOL_21
 70
     0
 10
0.0
 20
0.0
 30
0.0
  3
SW_CENTERMARKSYMBOL_21
  1

  0
LINE
  5
7153
330
7151
100
AcDbEntity
  8
0
  6
Continuous
 62
     0
370
     0
100
AcDbLine
 10
0.0
 20
0.0
 30
0.0
 11
0.0
 21
2.500000000000002
 31
0.0
  0
LINE
  5
7154
330
7151
100
AcDbEntity
  8
0
  6
Continuous
 62
     0
370
     0
100
AcDbLine
 10
0.0
 20
0.0
 30
0.0
 11
-2.500000000000002
 21
0.0
 31
0.0
  0
LINE
  5
7155
330
7151
100
AcDbEntity
  8
0
  6
Continuous
 62
     0
370
     0
100
AcDbLine
 10
0.0
 20
0.0
 30
0.0
 11
0.0
 21
-2.500000000000002
 31
0.0
  0
LINE
  5
7156
330
7151
100
AcDbEntity
  8
0
  6
Continuous
 62
     0
370
     0
100
AcDbLine
 10
0.0
 20
0.0
 30
0.0
 11
2.500000000000002
 21
0.0
 31
0.0
  0
LINE
  5
7157
330
7151
100
AcDbEntity
  8
0
  6
Continuous
 62
     0
370
     0
100
AcDbLine
 10
0.0
 20
2.500000000000002
 30
0.0
 11
0.0
 21
3.750000000000003
 31
0.0
  0
LINE
  5
7158
330
7151
100
AcDbEntity
  8
0
  6
Continuous
 62
     0
370
     0
100
AcDbLine
 10
-2.500000000000002
 20
0.0
 30
0.0
 11
-3.750000000000003
 21
0.0
 31
0.0
  0
LINE
  5
7159
330
7151
100
AcDbEntity
  8
0
  6
Continuous
 62
     0
370
     0
100
AcDbLine
 10
0.0
 20
-2.500000000000002
 30
0.0
 11
0.0
 21
-3.750000000000003
 31
0.0
  0
LINE
  5
715A
330
7151
100
AcDbEntity
  8
0
  6
Continuous
 62
     0
370
     0
100
AcDbLine
 10
2.500000000000002
 20
0.0
 30
0.0
 11
3.750000000000003
 21
0.0
 31
0.0
  0
ENDBLK
  5
715B
330
7151
100
AcDbEntity
  8
0
100
AcDbBlockEnd
  0
BLOCK
  5
715D
330
715C
100
AcDbEntity
  8
0
100
AcDbBlockBegin
  2
SW_CENTERMARKSYMBOL_22
 70
     0
 10
0.0
 20
0.0
 30
0.0
  3
SW_CENTERMARKSYMBOL_22
  1

  0
LINE
  5
715E
330
715C
100
AcDbEntity
  8
0
  6
Continuous
 62
     0
370
     0
100
AcDbLine
 10
0.0
 20
0.0
 30
0.0
 11
0.0
 21
2.500000000000002
 31
0.0
  0
LINE
  5
715F
330
715C
100
AcDbEntity
  8
0
  6
Continuous
 62
     0
370
     0
100
AcDbLine
 10
0.0
 20
0.0
 30
0.0
 11
-2.500000000000002
 21
0.0
 31
0.0
  0
LINE
  5
7160
330
715C
100
AcDbEntity
  8
0
  6
Continuous
 62
     0
370
     0
100
AcDbLine
 10
0.0
 20
0.0
 30
0.0
 11
0.0
 21
-2.500000000000002
 31
0.0
  0
LINE
  5
7161
330
715C
100
AcDbEntity
  8
0
  6
Continuous
 62
     0
370
     0
100
AcDbLine
 10
0.0
 20
0.0
 30
0.0
 11
2.500000000000002
 21
0.0
 31
0.0
  0
LINE
  5
7162
330
715C
100
AcDbEntity
  8
0
  6
Continuous
 62
     0
370
     0
100
AcDbLine
 10
0.0
 20
2.500000000000002
 30
0.0
 11
0.0
 21
3.750000000000003
 31
0.0
  0
LINE
  5
7163
330
715C
100
AcDbEntity
  8
0
  6
Continuous
 62
     0
370
     0
100
AcDbLine
 10
-2.500000000000002
 20
0.0
 30
0.0
 11
-3.750000000000003
 21
0.0
 31
0.0
  0
LINE
  5
7164
330
715C
100
AcDbEntity
  8
0
  6
Continuous
 62
     0
370
     0
100
AcDbLine
 10
0.0
 20
-2.500000000000002
 30
0.0
 11
0.0
 21
-3.750000000000003
 31
0.0
  0
LINE
  5
7165
330
715C
100
AcDbEntity
  8
0
  6
Continuous
 62
     0
370
     0
100
AcDbLine
 10
2.500000000000002
 20
0.0
 30
0.0
 11
3.750000000000003
 21
0.0
 31
0.0
  0
ENDBLK
  5
7166
330
715C
100
AcDbEntity
  8
0
100
AcDbBlockEnd
  0
BLOCK
  5
7168
330
7167
100
AcDbEntity
  8
0
100
AcDbBlockBegin
  2
SW_CENTERMARKSYMBOL_23
 70
     0
 10
0.0
 20
0.0
 30
0.0
  3
SW_CENTERMARKSYMBOL_23
  1

  0
LINE
  5
7169
330
7167
100
AcDbEntity
  8
0
  6
Continuous
 62
     0
370
     0
100
AcDbLine
 10
0.0
 20
0.0
 30
0.0
 11
0.0
 21
2.500000000000002
 31
0.0
  0
LINE
  5
716A
330
7167
100
AcDbEntity
  8
0
  6
Continuous
 62
     0
370
     0
100
AcDbLine
 10
0.0
 20
0.0
 30
0.0
 11
-2.500000000000002
 21
0.0
 31
0.0
  0
LINE
  5
716B
330
7167
100
AcDbEntity
  8
0
  6
Continuous
 62
     0
370
     0
100
AcDbLine
 10
0.0
 20
0.0
 30
0.0
 11
0.0
 21
-2.500000000000002
 31
0.0
  0
LINE
  5
716C
330
7167
100
AcDbEntity
  8
0
  6
Continuous
 62
     0
370
     0
100
AcDbLine
 10
0.0
 20
0.0
 30
0.0
 11
2.500000000000002
 21
0.0
 31
0.0
  0
LINE
  5
716D
330
7167
100
AcDbEntity
  8
0
  6
Continuous
 62
     0
370
     0
100
AcDbLine
 10
0.0
 20
2.500000000000002
 30
0.0
 11
0.0
 21
3.750000000000003
 31
0.0
  0
LINE
  5
716E
330
7167
100
AcDbEntity
  8
0
  6
Continuous
 62
     0
370
     0
100
AcDbLine
 10
-2.500000000000002
 20
0.0
 30
0.0
 11
-3.749999999999975
 21
0.0
 31
0.0
  0
LINE
  5
716F
330
7167
100
AcDbEntity
  8
0
  6
Continuous
 62
     0
370
     0
100
AcDbLine
 10
0.0
 20
-2.500000000000002
 30
0.0
 11
0.0
 21
-3.750000000000003
 31
0.0
  0
LINE
  5
7170
330
7167
100
AcDbEntity
  8
0
  6
Continuous
 62
     0
370
     0
100
AcDbLine
 10
2.500000000000002
 20
0.0
 30
0.0
 11
3.750000000000003
 21
0.0
 31
0.0
  0
ENDBLK
  5
7171
330
7167
100
AcDbEntity
  8
0
100
AcDbBlockEnd
  0
BLOCK
  5
7173
330
7172
100
AcDbEntity
  8
0
100
AcDbBlockBegin
  2
SW_CENTERMARKSYMBOL_24
 70
     0
 10
0.0
 20
0.0
 30
0.0
  3
SW_CENTERMARKSYMBOL_24
  1

  0
LINE
  5
7174
330
7172
100
AcDbEntity
  8
0
  6
Continuous
 62
     0
370
     0
100
AcDbLine
 10
0.0
 20
0.0
 30
0.0
 11
0.0
 21
2.500000000000002
 31
0.0
  0
LINE
  5
7175
330
7172
100
AcDbEntity
  8
0
  6
Continuous
 62
     0
370
     0
100
AcDbLine
 10
0.0
 20
0.0
 30
0.0
 11
-2.500000000000002
 21
0.0
 31
0.0
  0
LINE
  5
7176
330
7172
100
AcDbEntity
  8
0
  6
Continuous
 62
     0
370
     0
100
AcDbLine
 10
0.0
 20
0.0
 30
0.0
 11
0.0
 21
-2.500000000000002
 31
0.0
  0
LINE
  5
7177
330
7172
100
AcDbEntity
  8
0
  6
Continuous
 62
     0
370
     0
100
AcDbLine
 10
0.0
 20
0.0
 30
0.0
 11
2.499999999999974
 21
0.0
 31
0.0
  0
LINE
  5
7178
330
7172
100
AcDbEntity
  8
0
  6
Continuous
 62
     0
370
     0
100
AcDbLine
 10
0.0
 20
2.500000000000002
 30
0.0
 11
0.0
 21
3.750000000000003
 31
0.0
  0
LINE
  5
7179
330
7172
100
AcDbEntity
  8
0
  6
Continuous
 62
     0
370
     0
100
AcDbLine
 10
-2.500000000000002
 20
0.0
 30
0.0
 11
-3.750000000000003
 21
0.0
 31
0.0
  0
LINE
  5
717A
330
7172
100
AcDbEntity
  8
0
  6
Continuous
 62
     0
370
     0
100
AcDbLine
 10
0.0
 20
-2.500000000000002
 30
0.0
 11
0.0
 21
-3.750000000000003
 31
0.0
  0
LINE
  5
717B
330
7172
100
AcDbEntity
  8
0
  6
Continuous
 62
     0
370
     0
100
AcDbLine
 10
2.499999999999974
 20
0.0
 30
0.0
 11
3.749999999999975
 21
0.0
 31
0.0
  0
ENDBLK
  5
717C
330
7172
100
AcDbEntity
  8
0
100
AcDbBlockEnd
  0
BLOCK
  5
717E
330
717D
100
AcDbEntity
  8
0
100
AcDbBlockBegin
  2
SW_CENTERMARKSYMBOL_25
 70
     0
 10
0.0
 20
0.0
 30
0.0
  3
SW_CENTERMARKSYMBOL_25
  1

  0
LINE
  5
717F
330
717D
100
AcDbEntity
  8
0
  6
Continuous
 62
     0
370
     0
100
AcDbLine
 10
0.0
 20
0.0
 30
0.0
 11
0.0
 21
2.500000000000002
 31
0.0
  0
LINE
  5
7180
330
717D
100
AcDbEntity
  8
0
  6
Continuous
 62
     0
370
     0
100
AcDbLine
 10
0.0
 20
0.0
 30
0.0
 11
-2.500000000000002
 21
0.0
 31
0.0
  0
LINE
  5
7181
330
717D
100
AcDbEntity
  8
0
  6
Continuous
 62
     0
370
     0
100
AcDbLine
 10
0.0
 20
0.0
 30
0.0
 11
0.0
 21
-2.500000000000002
 31
0.0
  0
LINE
  5
7182
330
717D
100
AcDbEntity
  8
0
  6
Continuous
 62
     0
370
     0
100
AcDbLine
 10
0.0
 20
0.0
 30
0.0
 11
2.499999999999974
 21
0.0
 31
0.0
  0
LINE
  5
7183
330
717D
100
AcDbEntity
  8
0
  6
Continuous
 62
     0
370
     0
100
AcDbLine
 10
0.0
 20
2.500000000000002
 30
0.0
 11
0.0
 21
3.750000000000003
 31
0.0
  0
LINE
  5
7184
330
717D
100
AcDbEntity
  8
0
  6
Continuous
 62
     0
370
     0
100
AcDbLine
 10
-2.500000000000002
 20
0.0
 30
0.0
 11
-3.750000000000003
 21
0.0
 31
0.0
  0
LINE
  5
7185
330
717D
100
AcDbEntity
  8
0
  6
Continuous
 62
     0
370
     0
100
AcDbLine
 10
0.0
 20
-2.500000000000002
 30
0.0
 11
0.0
 21
-3.750000000000003
 31
0.0
  0
LINE
  5
7186
330
717D
100
AcDbEntity
  8
0
  6
Continuous
 62
     0
370
     0
100
AcDbLine
 10
2.499999999999974
 20
0.0
 30
0.0
 11
3.750000000000003
 21
0.0
 31
0.0
  0
ENDBLK
  5
7187
330
717D
100
AcDbEntity
  8
0
100
AcDbBlockEnd
  0
BLOCK
  5
7189
330
7188
100
AcDbEntity
  8
0
100
AcDbBlockBegin
  2
SW_CENTERMARKSYMBOL_26
 70
     0
 10
0.0
 20
0.0
 30
0.0
  3
SW_CENTERMARKSYMBOL_26
  1

  0
LINE
  5
718A
330
7188
100
AcDbEntity
  8
0
  6
Continuous
 62
     0
370
     0
100
AcDbLine
 10
0.0
 20
0.0
 30
0.0
 11
0.0
 21
2.500000000000002
 31
0.0
  0
LINE
  5
718B
330
7188
100
AcDbEntity
  8
0
  6
Continuous
 62
     0
370
     0
100
AcDbLine
 10
0.0
 20
0.0
 30
0.0
 11
-2.500000000000002
 21
0.0
 31
0.0
  0
LINE
  5
718C
330
7188
100
AcDbEntity
  8
0
  6
Continuous
 62
     0
370
     0
100
AcDbLine
 10
0.0
 20
0.0
 30
0.0
 11
0.0
 21
-2.500000000000002
 31
0.0
  0
LINE
  5
718D
330
7188
100
AcDbEntity
  8
0
  6
Continuous
 62
     0
370
     0
100
AcDbLine
 10
0.0
 20
0.0
 30
0.0
 11
2.500000000000002
 21
0.0
 31
0.0
  0
LINE
  5
718E
330
7188
100
AcDbEntity
  8
0
  6
Continuous
 62
     0
370
     0
100
AcDbLine
 10
0.0
 20
5.000000000000004
 30
0.0
 11
0.0
 21
6.250000000000005
 31
0.0
  0
LINE
  5
718F
330
7188
100
AcDbEntity
  8
0
  6
Continuous
 62
     0
370
     0
100
AcDbLine
 10
-5.000000000000004
 20
0.0
 30
0.0
 11
-6.250000000000005
 21
0.0
 31
0.0
  0
LINE
  5
7190
330
7188
100
AcDbEntity
  8
0
  6
Continuous
 62
     0
370
     0
100
AcDbLine
 10
0.0
 20
-5.000000000000004
 30
0.0
 11
0.0
 21
-6.250000000000005
 31
0.0
  0
LINE
  5
7191
330
7188
100
AcDbEntity
  8
0
  6
Continuous
 62
     0
370
     0
100
AcDbLine
 10
5.000000000000004
 20
0.0
 30
0.0
 11
6.250000000000005
 21
0.0
 31
0.0
  0
ENDBLK
  5
7192
330
7188
100
AcDbEntity
  8
0
100
AcDbBlockEnd
  0
BLOCK
  5
7194
330
7193
100
AcDbEntity
  8
0
100
AcDbBlockBegin
  2
SW_CENTERMARKSYMBOL_27
 70
     0
 10
0.0
 20
0.0
 30
0.0
  3
SW_CENTERMARKSYMBOL_27
  1

  0
LINE
  5
7195
330
7193
100
AcDbEntity
  8
0
  6
Continuous
 62
     0
370
     0
100
AcDbLine
 10
0.0
 20
0.0
 30
0.0
 11
0.0
 21
2.500000000000002
 31
0.0
  0
LINE
  5
7196
330
7193
100
AcDbEntity
  8
0
  6
Continuous
 62
     0
370
     0
100
AcDbLine
 10
0.0
 20
0.0
 30
0.0
 11
-2.500000000000002
 21
0.0
 31
0.0
  0
LINE
  5
7197
330
7193
100
AcDbEntity
  8
0
  6
Continuous
 62
     0
370
     0
100
AcDbLine
 10
0.0
 20
0.0
 30
0.0
 11
0.0
 21
-2.500000000000002
 31
0.0
  0
LINE
  5
7198
330
7193
100
AcDbEntity
  8
0
  6
Continuous
 62
     0
370
     0
100
AcDbLine
 10
0.0
 20
0.0
 30
0.0
 11
2.500000000000002
 21
0.0
 31
0.0
  0
LINE
  5
7199
330
7193
100
AcDbEntity
  8
0
  6
Continuous
 62
     0
370
     0
100
AcDbLine
 10
0.0
 20
5.000000000000004
 30
0.0
 11
0.0
 21
6.250000000000005
 31
0.0
  0
LINE
  5
719A
330
7193
100
AcDbEntity
  8
0
  6
Continuous
 62
     0
370
     0
100
AcDbLine
 10
-5.000000000000004
 20
0.0
 30
0.0
 11
-6.250000000000005
 21
0.0
 31
0.0
  0
LINE
  5
719B
330
7193
100
AcDbEntity
  8
0
  6
Continuous
 62
     0
370
     0
100
AcDbLine
 10
0.0
 20
-5.000000000000004
 30
0.0
 11
0.0
 21
-6.250000000000005
 31
0.0
  0
LINE
  5
719C
330
7193
100
AcDbEntity
  8
0
  6
Continuous
 62
     0
370
     0
100
AcDbLine
 10
5.000000000000004
 20
0.0
 30
0.0
 11
6.250000000000005
 21
0.0
 31
0.0
  0
ENDBLK
  5
719D
330
7193
100
AcDbEntity
  8
0
100
AcDbBlockEnd
  0
BLOCK
  5
719F
330
719E
100
AcDbEntity
  8
0
100
AcDbBlockBegin
  2
SW_CENTERMARKSYMBOL_28
 70
     0
 10
0.0
 20
0.0
 30
0.0
  3
SW_CENTERMARKSYMBOL_28
  1

  0
LINE
  5
71A0
330
719E
100
AcDbEntity
  8
0
  6
Continuous
 62
     0
370
     0
100
AcDbLine
 10
0.0
 20
0.0
 30
0.0
 11
0.0
 21
2.500000000000002
 31
0.0
  0
LINE
  5
71A1
330
719E
100
AcDbEntity
  8
0
  6
Continuous
 62
     0
370
     0
100
AcDbLine
 10
0.0
 20
0.0
 30
0.0
 11
-2.500000000000002
 21
0.0
 31
0.0
  0
LINE
  5
71A2
330
719E
100
AcDbEntity
  8
0
  6
Continuous
 62
     0
370
     0
100
AcDbLine
 10
0.0
 20
0.0
 30
0.0
 11
0.0
 21
-2.499999999999974
 31
0.0
  0
LINE
  5
71A3
330
719E
100
AcDbEntity
  8
0
  6
Continuous
 62
     0
370
     0
100
AcDbLine
 10
0.0
 20
0.0
 30
0.0
 11
2.500000000000002
 21
0.0
 31
0.0
  0
LINE
  5
71A4
330
719E
100
AcDbEntity
  8
0
  6
Continuous
 62
     0
370
     0
100
AcDbLine
 10
0.0
 20
2.500000000000002
 30
0.0
 11
0.0
 21
4.250000000000031
 31
0.0
  0
LINE
  5
71A5
330
719E
100
AcDbEntity
  8
0
  6
Continuous
 62
     0
370
     0
100
AcDbLine
 10
-2.500000000000002
 20
0.0
 30
0.0
 11
-4.250000000000003
 21
0.0
 31
0.0
  0
LINE
  5
71A6
330
719E
100
AcDbEntity
  8
0
  6
Continuous
 62
     0
370
     0
100
AcDbLine
 10
0.0
 20
-2.499999999999974
 30
0.0
 11
0.0
 21
-4.249999999999976
 31
0.0
  0
LINE
  5
71A7
330
719E
100
AcDbEntity
  8
0
  6
Continuous
 62
     0
370
     0
100
AcDbLine
 10
2.500000000000002
 20
0.0
 30
0.0
 11
4.250000000000003
 21
0.0
 31
0.0
  0
ENDBLK
  5
71A8
330
719E
100
AcDbEntity
  8
0
100
AcDbBlockEnd
  0
BLOCK
  5
7286
330
71AC
100
AcDbEntity
  8
0
100
AcDbBlockBegin
  2
A1188D
 70
     0
 10
0.0
 20
0.0
 30
0.0
  3
A1188D
  1

  0
SPLINE
  5
71AD
330
71AC
100
AcDbEntity
  8
0
  6
Continuous
 62
     7
370
    15
100
AcDbSpline
210
0.0
220
0.0
230
1.0
 70
    24
 71
     1
 72
     4
 73
     2
 74
     0
 42
0.0000000001
 43
0.0000000001
 40
0.0
 40
0.0
 40
1.0
 40
1.0
 10
124.9963357962961
 20
176.8950294363655
 30
0.0
 10
124.9963357962961
 20
92.83668134690897
 30
0.0
  0
SPLINE
  5
71AE
330
71AC
100
AcDbEntity
  8
0
  6
Continuous
 62
     7
370
    15
100
AcDbSpline
210
0.0
220
0.0
230
1.0
 70
    24
 71
     1
 72
     4
 73
     2
 74
     0
 42
0.0000000001
 43
0.0000000001
 40
0.0
 40
0.0
 40
1.0
 40
1.0
 10
196.9963326968546
 20
92.83668134690897
 30
0.0
 10
196.9963326968546
 20
176.8950294363655
 30
0.0
  0
LINE
  5
71AF
330
71AC
100
AcDbEntity
  8
0
  6
Continuous
 62
     7
370
    15
100
AcDbLine
 10
138.8463336892719
 20
110.8733039009727
 30
0.0
 11
134.9963337101336
 21
110.8733039009727
 31
0.0
  0
LINE
  5
71B0
330
71AC
100
AcDbEntity
  8
0
  6
Continuous
 62
     7
370
    15
100
AcDbLine
 10
138.8463336892719
 20
104.8733047801412
 30
0.0
 11
138.8463336892719
 21
110.8733039009727
 31
0.0
  0
LINE
  5
71B1
330
71AC
100
AcDbEntity
  8
0
  6
Continuous
 62
     7
370
    15
100
AcDbLine
 10
134.9963337101336
 20
104.8733047801412
 30
0.0
 11
138.8463336892719
 21
104.8733047801412
 31
0.0
  0
LINE
  5
71B2
330
71AC
100
AcDbEntity
  8
0
  6
Continuous
 62
     7
370
    15
100
AcDbLine
 10
134.9963337101336
 20
110.8733039009727
 30
0.0
 11
134.9963337101336
 21
104.8733047801412
 31
0.0
  0
LINE
  5
71B3
330
71AC
100
AcDbEntity
  8
0
  6
Continuous
 62
     7
370
    15
100
AcDbLine
 10
138.4963333525057
 20
115.8733047205366
 30
0.0
 11
138.4963333525057
 21
119.7233037683524
 31
0.0
  0
LINE
  5
71B4
330
71AC
100
AcDbEntity
  8
0
  6
Continuous
 62
     7
370
    15
100
AcDbLine
 10
132.4963342316742
 20
115.8733047205366
 30
0.0
 11
138.4963333525057
 21
115.8733047205366
 31
0.0
  0
LINE
  5
71B5
330
71AC
100
AcDbEntity
  8
0
  6
Continuous
 62
     7
370
    15
100
AcDbLine
 10
132.4963342316742
 20
119.7233037683524
 30
0.0
 11
132.4963342316742
 21
115.8733047205366
 31
0.0
  0
LINE
  5
71B6
330
71AC
100
AcDbEntity
  8
0
  6
Continuous
 62
     7
370
    15
100
AcDbLine
 10
138.4963333525057
 20
119.7233037683524
 30
0.0
 11
132.4963342316742
 21
119.7233037683524
 31
0.0
  0
LINE
  5
71B7
330
71AC
100
AcDbEntity
  8
0
  6
Continuous
 62
     7
370
    15
100
AcDbLine
 10
187.496333933651
 20
119.7233037683524
 30
0.0
 11
181.4963348128195
 21
119.7233037683524
 31
0.0
  0
LINE
  5
71B8
330
71AC
100
AcDbEntity
  8
0
  6
Continuous
 62
     7
370
    15
100
AcDbLine
 10
187.496333933651
 20
115.8733047205366
 30
0.0
 11
187.496333933651
 21
119.7233037683524
 31
0.0
  0
LINE
  5
71B9
330
71AC
100
AcDbEntity
  8
0
  6
Continuous
 62
     7
370
    15
100
AcDbLine
 10
181.4963348128195
 20
119.7233037683524
 30
0.0
 11
181.4963348128195
 21
115.8733047205366
 31
0.0
  0
LINE
  5
71BA
330
71AC
100
AcDbEntity
  8
0
  6
Continuous
 62
     7
370
    15
100
AcDbLine
 10
181.4963348128195
 20
115.8733047205366
 30
0.0
 11
187.496333933651
 21
115.8733047205366
 31
0.0
  0
LINE
  5
71BB
330
71AC
100
AcDbEntity
  8
0
  6
Continuous
 62
     7
370
    15
100
AcDbLine
 10
180.6963343091602
 20
110.8733039009727
 30
0.0
 11
176.8463343300219
 21
110.8733039009727
 31
0.0
  0
LINE
  5
71BC
330
71AC
100
AcDbEntity
  8
0
  6
Continuous
 62
     7
370
    15
100
AcDbLine
 10
180.6963343091602
 20
104.8733047801412
 30
0.0
 11
180.6963343091602
 21
110.8733039009727
 31
0.0
  0
LINE
  5
71BD
330
71AC
100
AcDbEntity
  8
0
  6
Continuous
 62
     7
370
    15
100
AcDbLine
 10
176.8463343300219
 20
104.8733047801412
 30
0.0
 11
180.6963343091602
 21
104.8733047801412
 31
0.0
  0
LINE
  5
71BE
330
71AC
100
AcDbEntity
  8
0
  6
Continuous
 62
     7
370
    15
100
AcDbLine
 10
176.8463343300219
 20
110.8733039009727
 30
0.0
 11
176.8463343300219
 21
104.8733047801412
 31
0.0
  0
ARC
  5
71BF
330
71AC
100
AcDbEntity
  8
0
  6
Continuous
 62
     7
370
    15
100
AcDbCircle
 10
181.9514828456199
 20
101.4293683607834
 30
0.0
 40
17.3076222846294
100
AcDbArc
 50
286.9466710473349
 51
321.0078378543207
  0
LINE
  5
71C0
330
71AC
100
AcDbEntity
  8
0
  6
Continuous
 62
     7
370
    15
100
AcDbLine
 10
134.9963337101336
 20
84.87330336453096
 30
0.0
 11
186.9963347830172
 21
84.87330336453096
 31
0.0
  0
ARC
  5
71C1
330
71AC
100
AcDbEntity
  8
0
  6
Continuous
 62
     7
370
    15
100
AcDbCircle
 10
140.0411856475308
 20
101.4293683607834
 30
0.0
 40
17.30762228462939
100
AcDbArc
 50
218.9921621456808
 51
253.0533289526668
  0
LINE
  5
71C2
330
71AC
100
AcDbEntity
  8
0
  6
Continuous
 62
     7
370
    15
100
AcDbLine
 10
126.5891469933386
 20
179.2074400592007
 30
0.0
 11
126.5891469933386
 21
90.53916815997736
 31
0.0
  0
ARC
  5
71C3
330
71AC
100
AcDbEntity
  8
0
  6
Continuous
 62
     7
370
    15
100
AcDbCircle
 10
140.0411856475308
 20
168.3172398583946
 30
0.0
 40
17.3076222846294
100
AcDbArc
 50
106.9466710473341
 51
141.0078378543199
  0
ARC
  5
71C4
330
71AC
100
AcDbEntity
  8
0
  6
Continuous
 62
     7
370
    15
100
AcDbCircle
 10
181.9514828456199
 20
168.3172398583946
 30
0.0
 40
17.3076222846294
100
AcDbArc
 50
38.9921621456801
 51
73.05332895266589
  0
LINE
  5
71C5
330
71AC
100
AcDbEntity
  8
0
  6
Continuous
 62
     7
370
    15
100
AcDbLine
 10
195.4035214998121
 20
179.2074400592007
 30
0.0
 11
195.4035214998121
 21
90.53916815997736
 31
0.0
  0
LINE
  5
71C6
330
71AC
100
AcDbEntity
  8
0
  6
Continuous
 62
     7
370
    15
100
AcDbLine
 10
129.4963337399359
 20
175.3733042287983
 30
0.0
 11
129.4963337399359
 21
161.1233032900251
 31
0.0
  0
LINE
  5
71C7
330
71AC
100
AcDbEntity
  8
0
  6
Continuous
 62
     7
370
    15
100
AcDbLine
 10
129.4963337399359
 20
161.1233032900251
 30
0.0
 11
130.4963339038487
 21
160.1233049887575
 31
0.0
  0
LINE
  5
71C8
330
71AC
100
AcDbEntity
  8
0
  6
Continuous
 62
     7
370
    15
100
AcDbLine
 10
130.4963339038487
 20
160.1233049887575
 30
0.0
 11
138.4963333525057
 21
160.1233049887575
 31
0.0
  0
ARC
  5
71C9
330
71AC
100
AcDbEntity
  8
0
  6
Continuous
 62
     7
370
    15
100
AcDbCircle
 10
138.4963342465753
 20
158.623304109589
 30
0.0
 40
1.5
100
AcDbArc
 50
0.0
 51
90.0000000000011
  0
LINE
  5
71CA
330
71AC
100
AcDbEntity
  8
0
  6
Continuous
 62
     7
370
    15
100
AcDbLine
 10
139.9963345296974
 20
158.6233038115658
 30
0.0
 11
139.9963345296974
 21
134.873304109589
 31
0.0
  0
ARC
  5
71CB
330
71AC
100
AcDbEntity
  8
0
  6
Continuous
 62
     7
370
    15
100
AcDbCircle
 10
133.7463342465754
 20
134.873304109589
 30
0.0
 40
6.250000000000028
100
AcDbArc
 50
270.0000000000008
 51
0.0
  0
LINE
  5
71CC
330
71AC
100
AcDbEntity
  8
0
  6
Continuous
 62
     7
370
    15
100
AcDbLine
 10
133.7463349022265
 20
128.6233040164568
 30
0.0
 11
129.4963337399359
 21
128.6233040164568
 31
0.0
  0
LINE
  5
71CD
330
71AC
100
AcDbEntity
  8
0
  6
Continuous
 62
     7
370
    15
100
AcDbLine
 10
129.4963337399359
 20
94.37330399037973
 30
0.0
 11
134.4963345594998
 21
89.37330503346101
 31
0.0
  0
LINE
  5
71CE
330
71AC
100
AcDbEntity
  8
0
  6
Continuous
 62
     7
370
    15
100
AcDbLine
 10
134.4963345594998
 20
89.37330503346101
 30
0.0
 11
187.496333933651
 21
89.37330503346101
 31
0.0
  0
LINE
  5
71CF
330
71AC
100
AcDbEntity
  8
0
  6
Continuous
 62
     7
370
    15
100
AcDbLine
 10
187.496333933651
 20
89.37330503346101
 30
0.0
 11
192.4963347532148
 21
94.37330399037973
 31
0.0
  0
LINE
  5
71D0
330
71AC
100
AcDbEntity
  8
0
  6
Continuous
 62
     7
370
    15
100
AcDbLine
 10
192.4963347532148
 20
94.37330399037973
 30
0.0
 11
192.4963347532148
 21
128.6233040164568
 31
0.0
  0
LINE
  5
71D1
330
71AC
100
AcDbEntity
  8
0
  6
Continuous
 62
     7
370
    15
100
AcDbLine
 10
192.4963347532148
 20
128.6233040164568
 30
0.0
 11
188.2463335909243
 21
128.6233040164568
 31
0.0
  0
ARC
  5
71D2
330
71AC
100
AcDbEntity
  8
0
  6
Continuous
 62
     7
370
    15
100
AcDbCircle
 10
188.2463342465754
 20
134.873304109589
 30
0.0
 40
6.250000000000028
100
AcDbArc
 50
90.0
 51
270.0000000000008
  0
LINE
  5
71D3
330
71AC
100
AcDbEntity
  8
0
  6
Continuous
 62
     7
370
    15
100
AcDbLine
 10
188.2463335909243
 20
141.1233042027213
 30
0.0
 11
192.4963347532148
 21
141.1233042027213
 31
0.0
  0
LINE
  5
71D4
330
71AC
100
AcDbEntity
  8
0
  6
Continuous
 62
     7
370
    15
100
AcDbLine
 10
192.4963347532148
 20
141.1233042027213
 30
0.0
 11
192.4963347532148
 21
175.3733042287983
 31
0.0
  0
LINE
  5
71D5
330
71AC
100
AcDbEntity
  8
0
  6
Continuous
 62
     7
370
    15
100
AcDbLine
 10
192.4963347532148
 20
175.3733042287983
 30
0.0
 11
187.496333933651
 21
180.373303185717
 31
0.0
  0
LINE
  5
71D6
330
71AC
100
AcDbEntity
  8
0
  6
Continuous
 62
     7
370
    15
100
AcDbLine
 10
187.496333933651
 20
180.373303185717
 30
0.0
 11
134.4963345594998
 21
180.373303185717
 31
0.0
  0
LINE
  5
71D7
330
71AC
100
AcDbEntity
  8
0
  6
Continuous
 62
     7
370
    15
100
AcDbLine
 10
134.4963345594998
 20
180.373303185717
 30
0.0
 11
129.4963337399359
 21
175.3733042287983
 31
0.0
  0
CIRCLE
  5
71D8
330
71AC
100
AcDbEntity
  8
0
  6
Continuous
 62
     7
370
    15
100
AcDbCircle
 10
188.2463342465754
 20
134.873304109589
 30
0.0
 40
3.750000000000028
  0
CIRCLE
  5
71D9
330
71AC
100
AcDbEntity
  8
0
  6
Continuous
 62
     7
370
    15
100
AcDbCircle
 10
133.7463342465754
 20
134.873304109589
 30
0.0
 40
3.75
  0
LINE
  5
71DA
330
71AC
100
AcDbEntity
  8
0
  6
Continuous
 62
     7
370
    15
100
AcDbLine
 10
186.9963347830172
 20
184.8733048546471
 30
0.0
 11
134.9963337101336
 21
184.8733048546471
 31
0.0
  0
LINE
  5
71DB
330
71AC
100
AcDbEntity
  8
0
  6
Continuous
 62
     7
370
    15
100
AcDbLine
 10
129.4963337399359
 20
128.6233040164568
 30
0.0
 11
129.4963337399359
 21
94.37330399037973
 31
0.0
  0
LINE
  5
71DC
330
71AC
100
AcDbEntity
  8
0
  6
Continuous
 62
     7
370
    15
100
AcDbLine
 10
180.9463348157997
 20
104.6233042735018
 30
0.0
 11
180.9463348157997
 21
111.1233044076122
 31
0.0
  0
LINE
  5
71DD
330
71AC
100
AcDbEntity
  8
0
  6
Continuous
 62
     7
370
    15
100
AcDbLine
 10
180.9463348157997
 20
111.1233044076122
 30
0.0
 11
176.5963338233824
 21
111.1233044076122
 31
0.0
  0
LINE
  5
71DE
330
71AC
100
AcDbEntity
  8
0
  6
Continuous
 62
     7
370
    15
100
AcDbLine
 10
176.5963338233824
 20
111.1233044076122
 30
0.0
 11
176.5963338233824
 21
104.6233042735018
 31
0.0
  0
LINE
  5
71DF
330
71AC
100
AcDbEntity
  8
0
  6
Continuous
 62
     7
370
    15
100
AcDbLine
 10
176.5963338233824
 20
104.6233042735018
 30
0.0
 11
180.9463348157997
 21
104.6233042735018
 31
0.0
  0
LINE
  5
71E0
330
71AC
100
AcDbEntity
  8
0
  6
Continuous
 62
     7
370
    15
100
AcDbLine
 10
134.7463350661392
 20
111.1233044076122
 30
0.0
 11
134.7463350661392
 21
104.6233042735018
 31
0.0
  0
LINE
  5
71E1
330
71AC
100
AcDbEntity
  8
0
  6
Continuous
 62
     7
370
    15
100
AcDbLine
 10
134.7463350661392
 20
104.6233042735018
 30
0.0
 11
139.0963341959114
 21
104.6233042735018
 31
0.0
  0
LINE
  5
71E2
330
71AC
100
AcDbEntity
  8
0
  6
Continuous
 62
     7
370
    15
100
AcDbLine
 10
139.0963341959114
 20
111.1233044076122
 30
0.0
 11
134.7463350661392
 21
111.1233044076122
 31
0.0
  0
LINE
  5
71E3
330
71AC
100
AcDbEntity
  8
0
  6
Continuous
 62
     7
370
    15
100
AcDbLine
 10
139.0963341959114
 20
104.6233042735018
 30
0.0
 11
139.0963341959114
 21
111.1233044076122
 31
0.0
  0
LINE
  5
71E4
330
71AC
100
AcDbEntity
  8
0
  6
Continuous
 62
     7
370
    15
100
AcDbLine
 10
138.7463338591452
 20
119.9733042749919
 30
0.0
 11
132.2463337250347
 21
119.9733042749919
 31
0.0
  0
LINE
  5
71E5
330
71AC
100
AcDbEntity
  8
0
  6
Continuous
 62
     7
370
    15
100
AcDbLine
 10
132.2463337250347
 20
119.9733042749919
 30
0.0
 11
132.2463337250347
 21
115.6233042138971
 31
0.0
  0
LINE
  5
71E6
330
71AC
100
AcDbEntity
  8
0
  6
Continuous
 62
     7
370
    15
100
AcDbLine
 10
138.7463338591452
 20
115.6233042138971
 30
0.0
 11
138.7463338591452
 21
119.9733042749919
 31
0.0
  0
LINE
  5
71E7
330
71AC
100
AcDbEntity
  8
0
  6
Continuous
 62
     7
370
    15
100
AcDbLine
 10
132.2463337250347
 20
115.6233042138971
 30
0.0
 11
138.7463338591452
 21
115.6233042138971
 31
0.0
  0
CIRCLE
  5
71E8
330
71AC
100
AcDbEntity
  8
0
  6
Continuous
 62
     7
370
    15
100
AcDbCircle
 10
137.9963342465754
 20
164.873304109589
 30
0.0
 40
1.75
  0
CIRCLE
  5
71E9
330
71AC
100
AcDbEntity
  8
0
  6
Continuous
 62
     7
370
    15
100
AcDbCircle
 10
137.9963342465754
 20
164.873304109589
 30
0.0
 40
1.375
  0
LINE
  5
71EA
330
71AC
100
AcDbEntity
  8
0
  6
Continuous
 62
     7
370
    15
100
AcDbLine
 10
145.4963344998951
 20
125.3733044150628
 30
0.0
 11
176.4963339932556
 21
125.3733044150628
 31
0.0
  0
ARC
  5
71EB
330
71AC
100
AcDbEntity
  8
0
  6
Continuous
 62
     7
370
    15
100
AcDbCircle
 10
145.4963342465753
 20
125.873304109589
 30
0.0
 40
0.5
100
AcDbArc
 50
179.9999999999967
 51
270.0000000000008
  0
LINE
  5
71EC
330
71AC
100
AcDbEntity
  8
0
  6
Continuous
 62
     7
370
    15
100
AcDbLine
 10
144.9963334866161
 20
149.8733037743129
 30
0.0
 11
144.9963334866161
 21
125.8733044970192
 31
0.0
  0
LINE
  5
71ED
330
71AC
100
AcDbEntity
  8
0
  6
Continuous
 62
     7
370
    15
100
AcDbLine
 10
176.4963339932556
 20
150.3733038562693
 30
0.0
 11
145.4963344998951
 21
150.3733038562693
 31
0.0
  0
ARC
  5
71EE
330
71AC
100
AcDbEntity
  8
0
  6
Continuous
 62
     7
370
    15
100
AcDbCircle
 10
145.4963342465753
 20
149.873304109589
 30
0.0
 40
0.5
100
AcDbArc
 50
90.0
 51
180.000000000004
  0
LINE
  5
71EF
330
71AC
100
AcDbEntity
  8
0
  6
Continuous
 62
     7
370
    15
100
AcDbLine
 10
176.9963350065346
 20
125.8733044970192
 30
0.0
 11
176.9963350065346
 21
149.8733037743129
 31
0.0
  0
ARC
  5
71F0
330
71AC
100
AcDbEntity
  8
0
  6
Continuous
 62
     7
370
    15
100
AcDbCircle
 10
176.4963342465754
 20
149.873304109589
 30
0.0
 40
0.5
100
AcDbArc
 50
0.0
 51
90.0
  0
ARC
  5
71F1
330
71AC
100
AcDbEntity
  8
0
  6
Continuous
 62
     7
370
    15
100
AcDbCircle
 10
176.4963342465754
 20
125.873304109589
 30
0.0
 40
0.5
100
AcDbArc
 50
270.0000000000008
 51
0.0
  0
LINE
  5
71F2
330
71AC
100
AcDbEntity
  8
0
  6
Continuous
 62
     7
370
    15
100
AcDbLine
 10
181.24633430618
 20
119.9733042749919
 30
0.0
 11
181.24633430618
 21
115.6233042138971
 31
0.0
  0
LINE
  5
71F3
330
71AC
100
AcDbEntity
  8
0
  6
Continuous
 62
     7
370
    15
100
AcDbLine
 10
181.24633430618
 20
115.6233042138971
 30
0.0
 11
187.7463344402905
 21
115.6233042138971
 31
0.0
  0
LINE
  5
71F4
330
71AC
100
AcDbEntity
  8
0
  6
Continuous
 62
     7
370
    15
100
AcDbLine
 10
187.7463344402905
 20
115.6233042138971
 30
0.0
 11
187.7463344402905
 21
119.9733042749919
 31
0.0
  0
LINE
  5
71F5
330
71AC
100
AcDbEntity
  8
0
  6
Continuous
 62
     7
370
    15
100
AcDbLine
 10
187.7463344402905
 20
119.9733042749919
 30
0.0
 11
181.24633430618
 21
119.9733042749919
 31
0.0
  0
SPLINE
  5
71F6
330
71AC
100
AcDbEntity
  8
0
  6
Continuous
 62
     7
370
    15
100
AcDbSpline
210
0.0
220
0.0
230
1.0
 70
     8
 71
     3
 72
    12
 73
     8
 74
     0
 42
0.0000000001
 43
0.0000000001
 40
0.0
 40
0.0
 40
0.0
 40
0.0
 40
0.2245462745777873
 40
0.4563991229209141
 40
0.6881687026645449
 40
0.9265081329216615
 40
1.0
 40
1.0
 40
1.0
 40
1.0
 10
126.5891469933386
 20
90.53916815997736
 30
0.0
 10
126.370116695594
 20
90.82071947987724
 30
0.0
 10
125.9249290122459
 20
91.39298359648817
 30
0.0
 10
125.4484159206309
 20
92.11511400775489
 30
0.0
 10
125.1311452787458
 20
92.63644103364999
 30
0.0
 10
124.9871112126629
 20
92.88679341155585
 30
0.0
 10
125.01089236586
 20
92.84623911434726
 30
0.0
 10
125.0164970673914
 20
92.83668134690897
 30
0.0
  0
SPLINE
  5
71F7
330
71AC
100
AcDbEntity
  8
0
  6
Continuous
 62
     7
370
    15
100
AcDbSpline
210
0.0
220
0.0
230
1.0
 70
     8
 71
     3
 72
    13
 73
     9
 74
     0
 42
0.0000000001
 43
0.0000000001
 40
0.0
 40
0.0
 40
0.0
 40
0.0
 40
0.1018884907519907
 40
0.2801267048019241
 40
0.4586066816924548
 40
0.6369536550308946
 40
0.8182859372561072
 40
1.0
 40
1.0
 40
1.0
 40
1.0
 10
125.0080816366072
 20
176.8950294363655
 30
0.0
 10
125.0067898321487
 20
176.8922873528315
 30
0.0
 10
125.0032382148507
 20
176.8847484166965
 30
0.0
 10
125.1111210759312
 20
177.0756728321856
 30
0.0
 10
125.3214766116872
 20
177.4270979281573
 30
0.0
 10
125.6394187573225
 20
177.922516445798
 30
0.0
 10
126.0506380258371
 20
178.5207079012138
 30
0.0
 10
126.4095182043825
 20
178.9783689140186
 30
0.0
 10
126.5891469933386
 20
179.2074400592007
 30
0.0
  0
SPLINE
  5
71F8
330
71AC
100
AcDbEntity
  8
0
  6
Continuous
 62
     7
370
    15
100
AcDbSpline
210
0.0
220
0.0
230
1.0
 70
     8
 71
     3
 72
    12
 73
     8
 74
     0
 42
0.0000000001
 43
0.0000000001
 40
0.0
 40
0.0
 40
0.0
 40
0.0
 40
0.2245462745777873
 40
0.4563991229209141
 40
0.6881687026645449
 40
0.9265081329216615
 40
1.0
 40
1.0
 40
1.0
 40
1.0
 10
195.4035214998121
 20
90.53916815997736
 30
0.0
 10
195.6225517975568
 20
90.82071947987724
 30
0.0
 10
196.0677394809049
 20
91.39298359648817
 30
0.0
 10
196.5442525725198
 20
92.11511400775489
 30
0.0
 10
196.8615232144049
 20
92.63644103364999
 30
0.0
 10
197.0055572804879
 20
92.88679341155585
 30
0.0
 10
196.9817761272908
 20
92.84623911434726
 30
0.0
 10
196.9761714257593
 20
92.83668134690897
 30
0.0
  0
SPLINE
  5
71F9
330
71AC
100
AcDbEntity
  8
0
  6
Continuous
 62
     7
370
    15
100
AcDbSpline
210
0.0
220
0.0
230
1.0
 70
     8
 71
     3
 72
    13
 73
     9
 74
     0
 42
0.0000000001
 43
0.0000000001
 40
0.0
 40
0.0
 40
0.0
 40
0.0
 40
0.1018884907519907
 40
0.2801267048019241
 40
0.4586066816924548
 40
0.6369536550308946
 40
0.8182859372561072
 40
1.0
 40
1.0
 40
1.0
 40
1.0
 10
196.9845868565436
 20
176.8950294363655
 30
0.0
 10
196.9858786610021
 20
176.8922873528315
 30
0.0
 10
196.9894302783
 20
176.8847484166965
 30
0.0
 10
196.8815474172196
 20
177.0756728321856
 30
0.0
 10
196.6711918814636
 20
177.4270979281573
 30
0.0
 10
196.3532497358283
 20
177.922516445798
 30
0.0
 10
195.9420304673136
 20
178.5207079012138
 30
0.0
 10
195.5831502887683
 20
178.9783689140186
 30
0.0
 10
195.4035214998121
 20
179.2074400592007
 30
0.0
  0
LINE
  5
71FA
330
71AC
100
AcDbEntity
  8
0
  6
Continuous
 62
     7
370
    15
100
AcDbLine
 10
185.9963346191044
 20
84.87330336453096
 30
0.0
 11
185.9963346191044
 21
76.87330577851908
 31
0.0
  0
LINE
  5
71FB
330
71AC
100
AcDbEntity
  8
0
  6
Continuous
 62
     7
370
    15
100
AcDbLine
 10
185.9963346191044
 20
76.87330577851908
 30
0.0
 11
135.9963338740463
 21
76.87330577851908
 31
0.0
  0
LINE
  5
71FC
330
71AC
100
AcDbEntity
  8
0
  6
Continuous
 62
     7
370
    15
100
AcDbLine
 10
135.9963338740463
 20
84.87330336453096
 30
0.0
 11
135.9963338740463
 21
76.87330577851908
 31
0.0
  0
CIRCLE
  5
71FD
330
71AC
100
AcDbEntity
  8
0
  6
Continuous
 62
     7
370
    15
100
AcDbCircle
 10
183.4963342465753
 20
80.62330410958905
 30
0.0
 40
1.25
  0
CIRCLE
  5
71FE
330
71AC
100
AcDbEntity
  8
0
  6
Continuous
 62
     7
370
    15
100
AcDbCircle
 10
179.7463342465754
 20
80.62330410958905
 30
0.0
 40
1.25
  0
CIRCLE
  5
71FF
330
71AC
100
AcDbEntity
  8
0
  6
Continuous
 62
     7
370
    15
100
AcDbCircle
 10
175.9963342465753
 20
80.62330410958905
 30
0.0
 40
1.25
  0
CIRCLE
  5
7200
330
71AC
100
AcDbEntity
  8
0
  6
Continuous
 62
     7
370
    15
100
AcDbCircle
 10
172.2463342465754
 20
80.62330410958905
 30
0.0
 40
1.25
  0
CIRCLE
  5
7201
330
71AC
100
AcDbEntity
  8
0
  6
Continuous
 62
     7
370
    15
100
AcDbCircle
 10
168.4963342465754
 20
80.62330410958905
 30
0.0
 40
1.25
  0
CIRCLE
  5
7202
330
71AC
100
AcDbEntity
  8
0
  6
Continuous
 62
     7
370
    15
100
AcDbCircle
 10
164.7463342465754
 20
80.62330410958905
 30
0.0
 40
1.25
  0
CIRCLE
  5
7203
330
71AC
100
AcDbEntity
  8
0
  6
Continuous
 62
     7
370
    15
100
AcDbCircle
 10
160.9963342465754
 20
80.62330410958905
 30
0.0
 40
1.25
  0
CIRCLE
  5
7204
330
71AC
100
AcDbEntity
  8
0
  6
Continuous
 62
     7
370
    15
100
AcDbCircle
 10
157.2463342465753
 20
80.62330410958905
 30
0.0
 40
1.25
  0
CIRCLE
  5
7205
330
71AC
100
AcDbEntity
  8
0
  6
Continuous
 62
     7
370
    15
100
AcDbCircle
 10
153.4963342465754
 20
80.62330410958905
 30
0.0
 40
1.25
  0
CIRCLE
  5
7206
330
71AC
100
AcDbEntity
  8
0
  6
Continuous
 62
     7
370
    15
100
AcDbCircle
 10
149.7463342465754
 20
80.62330410958905
 30
0.0
 40
1.25
  0
CIRCLE
  5
7207
330
71AC
100
AcDbEntity
  8
0
  6
Continuous
 62
     7
370
    15
100
AcDbCircle
 10
145.9963342465753
 20
80.62330410958905
 30
0.0
 40
1.25
  0
CIRCLE
  5
7208
330
71AC
100
AcDbEntity
  8
0
  6
Continuous
 62
     7
370
    15
100
AcDbCircle
 10
142.2463342465754
 20
80.62330410958905
 30
0.0
 40
1.250000000000028
  0
CIRCLE
  5
7209
330
71AC
100
AcDbEntity
  8
0
  6
Continuous
 62
     7
370
    15
100
AcDbCircle
 10
138.4963342465754
 20
80.62330410958905
 30
0.0
 40
1.25
  0
LINE
  5
720A
330
71AC
100
AcDbEntity
  8
0
  6
Continuous
 62
     7
370
    15
100
AcDbLine
 10
185.9963346191044
 20
194.8733027684845
 30
0.0
 11
135.9963338740463
 21
194.8733027684845
 31
0.0
  0
LINE
  5
720B
330
71AC
100
AcDbEntity
  8
0
  6
Continuous
 62
     7
370
    15
100
AcDbLine
 10
185.9963346191044
 20
194.8733027684845
 30
0.0
 11
185.9963346191044
 21
192.873302440659
 31
0.0
  0
LINE
  5
720C
330
71AC
100
AcDbEntity
  8
0
  6
Continuous
 62
     7
370
    15
100
AcDbLine
 10
185.9963346191044
 20
192.873302440659
 30
0.0
 11
135.9963338740463
 21
192.873302440659
 31
0.0
  0
LINE
  5
720D
330
71AC
100
AcDbEntity
  8
0
  6
Continuous
 62
     7
370
    15
100
AcDbLine
 10
135.9963338740463
 20
194.8733027684845
 30
0.0
 11
135.9963338740463
 21
192.873302440659
 31
0.0
  0
LINE
  5
720E
330
71AC
100
AcDbEntity
  8
0
  6
Continuous
 62
     7
370
    15
100
AcDbLine
 10
185.9963346191044
 20
192.873302440659
 30
0.0
 11
185.9963346191044
 21
184.8733048546471
 31
0.0
  0
LINE
  5
720F
330
71AC
100
AcDbEntity
  8
0
  6
Continuous
 62
     7
370
    15
100
AcDbLine
 10
135.9963338740463
 20
192.873302440659
 30
0.0
 11
135.9963338740463
 21
184.8733048546471
 31
0.0
  0
CIRCLE
  5
7210
330
71AC
100
AcDbEntity
  8
0
  6
Continuous
 62
     7
370
    15
100
AcDbCircle
 10
138.4963342465754
 20
189.123304109589
 30
0.0
 40
1.25
  0
CIRCLE
  5
7211
330
71AC
100
AcDbEntity
  8
0
  6
Continuous
 62
     7
370
    15
100
AcDbCircle
 10
142.2463342465754
 20
189.123304109589
 30
0.0
 40
1.249999999999971
  0
CIRCLE
  5
7212
330
71AC
100
AcDbEntity
  8
0
  6
Continuous
 62
     7
370
    15
100
AcDbCircle
 10
145.9963342465753
 20
189.123304109589
 30
0.0
 40
1.25
  0
CIRCLE
  5
7213
330
71AC
100
AcDbEntity
  8
0
  6
Continuous
 62
     7
370
    15
100
AcDbCircle
 10
149.7463342465754
 20
189.123304109589
 30
0.0
 40
1.25
  0
CIRCLE
  5
7214
330
71AC
100
AcDbEntity
  8
0
  6
Continuous
 62
     7
370
    15
100
AcDbCircle
 10
153.4963342465754
 20
189.123304109589
 30
0.0
 40
1.25
  0
CIRCLE
  5
7215
330
71AC
100
AcDbEntity
  8
0
  6
Continuous
 62
     7
370
    15
100
AcDbCircle
 10
157.2463342465753
 20
189.123304109589
 30
0.0
 40
1.250000000000028
  0
CIRCLE
  5
7216
330
71AC
100
AcDbEntity
  8
0
  6
Continuous
 62
     7
370
    15
100
AcDbCircle
 10
160.9963342465754
 20
189.123304109589
 30
0.0
 40
1.25
  0
CIRCLE
  5
7217
330
71AC
100
AcDbEntity
  8
0
  6
Continuous
 62
     7
370
    15
100
AcDbCircle
 10
164.7463342465754
 20
189.123304109589
 30
0.0
 40
1.25
  0
CIRCLE
  5
7218
330
71AC
100
AcDbEntity
  8
0
  6
Continuous
 62
     7
370
    15
100
AcDbCircle
 10
168.4963342465754
 20
189.123304109589
 30
0.0
 40
1.25
  0
CIRCLE
  5
7219
330
71AC
100
AcDbEntity
  8
0
  6
Continuous
 62
     7
370
    15
100
AcDbCircle
 10
172.2463342465754
 20
189.123304109589
 30
0.0
 40
1.25
  0
CIRCLE
  5
721A
330
71AC
100
AcDbEntity
  8
0
  6
Continuous
 62
     7
370
    15
100
AcDbCircle
 10
175.9963342465753
 20
189.123304109589
 30
0.0
 40
1.25
  0
CIRCLE
  5
721B
330
71AC
100
AcDbEntity
  8
0
  6
Continuous
 62
     7
370
    15
100
AcDbCircle
 10
179.7463342465754
 20
189.123304109589
 30
0.0
 40
1.25
  0
CIRCLE
  5
721C
330
71AC
100
AcDbEntity
  8
0
  6
Continuous
 62
     7
370
    15
100
AcDbCircle
 10
183.4963342465753
 20
189.123304109589
 30
0.0
 40
1.25
  0
LINE
  5
721D
330
71AC
100
AcDbEntity
  8
0
  6
Continuous
 62
     7
370
    15
100
AcDbLine
 10
185.9963346191044
 20
74.87330545069354
 30
0.0
 11
135.9963338740463
 21
74.87330545069354
 31
0.0
  0
LINE
  5
721E
330
71AC
100
AcDbEntity
  8
0
  6
Continuous
 62
     7
370
    15
100
AcDbLine
 10
185.9963346191044
 20
76.87330577851908
 30
0.0
 11
185.9963346191044
 21
74.87330545069354
 31
0.0
  0
LINE
  5
721F
330
71AC
100
AcDbEntity
  8
0
  6
Continuous
 62
     7
370
    15
100
AcDbLine
 10
135.9963338740463
 20
76.87330577851908
 30
0.0
 11
135.9963338740463
 21
74.87330545069354
 31
0.0
  0
LINE
  5
7220
330
71AC
100
AcDbEntity
  8
0
  6
Continuous
 62
     7
370
    15
100
AcDbLine
 10
199.2463335313196
 20
117.3733040350832
 30
0.0
 11
196.9963326968546
 21
117.3733040350832
 31
0.0
  0
LINE
  5
7221
330
71AC
100
AcDbEntity
  8
0
  6
Continuous
 62
     7
370
    15
100
AcDbLine
 10
124.9963357962961
 20
117.3733040350832
 30
0.0
 11
122.7463349618311
 21
117.3733040350832
 31
0.0
  0
LINE
  5
7222
330
71AC
100
AcDbEntity
  8
0
  6
Continuous
 62
     7
370
    15
100
AcDbLine
 10
199.2463335313196
 20
152.3733041840948
 30
0.0
 11
196.9963326968546
 21
152.3733041840948
 31
0.0
  0
LINE
  5
7223
330
71AC
100
AcDbEntity
  8
0
  6
Continuous
 62
     7
370
    15
100
AcDbLine
 10
124.9963357962961
 20
152.3733041840948
 30
0.0
 11
122.7463349618311
 21
152.3733041840948
 31
0.0
  0
LINE
  5
7224
330
71AC
100
AcDbEntity
  8
0
  6
Continuous
 62
     7
370
    15
100
AcDbLine
 10
199.2463335313196
 20
152.3733041840948
 30
0.0
 11
199.2463335313196
 21
117.3733040350832
 31
0.0
  0
LINE
  5
7225
330
71AC
100
AcDbEntity
  8
0
  6
Continuous
 62
     7
370
    15
100
AcDbLine
 10
122.7463349618311
 20
152.3733041840948
 30
0.0
 11
122.7463349618311
 21
117.3733040350832
 31
0.0
  0
LINE
  5
7226
330
71AC
100
AcDbEntity
  8
0
  6
Continuous
 62
     7
370
    15
100
AcDbLine
 10
199.2463335313196
 20
120.3233036804356
 30
0.0
 11
199.2463335313196
 21
119.3233044478454
 31
0.0
  0
LINE
  5
7227
330
71AC
100
AcDbEntity
  8
0
  6
Continuous
 62
     7
370
    15
100
AcDbLine
 10
122.7463349618311
 20
120.3233036804356
 30
0.0
 11
122.7463349618311
 21
119.3233044478454
 31
0.0
  0
LINE
  5
7228
330
71AC
100
AcDbEntity
  8
0
  6
Continuous
 62
     7
370
    15
100
AcDbLine
 10
199.2463335313196
 20
150.4233037713327
 30
0.0
 11
199.2463335313196
 21
149.4233045387425
 31
0.0
  0
LINE
  5
7229
330
71AC
100
AcDbEntity
  8
0
  6
Continuous
 62
     7
370
    15
100
AcDbLine
 10
122.7463349618311
 20
150.4233037713327
 30
0.0
 11
122.7463349618311
 21
149.4233045387425
 31
0.0
  0
INSERT
  5
722A
330
71AC
100
AcDbEntity
  8
0
  6
Continuous
 62
     7
370
     0
100
AcDbBlockReference
  2
SW_CENTERMARKSYMBOL_0
 10
138.4963342465754
 20
189.123304109589
 30
0.0
  0
INSERT
  5
722B
330
71AC
100
AcDbEntity
  8
0
  6
Continuous
 62
     7
370
     0
100
AcDbBlockReference
  2
SW_CENTERMARKSYMBOL_1
 10
142.2463342465754
 20
189.123304109589
 30
0.0
  0
INSERT
  5
722C
330
71AC
100
AcDbEntity
  8
0
  6
Continuous
 62
     7
370
     0
100
AcDbBlockReference
  2
SW_CENTERMARKSYMBOL_2
 10
145.9963342465753
 20
189.123304109589
 30
0.0
  0
INSERT
  5
722D
330
71AC
100
AcDbEntity
  8
0
  6
Continuous
 62
     7
370
     0
100
AcDbBlockReference
  2
SW_CENTERMARKSYMBOL_3
 10
149.7463342465754
 20
189.123304109589
 30
0.0
  0
INSERT
  5
722E
330
71AC
100
AcDbEntity
  8
0
  6
Continuous
 62
     7
370
     0
100
AcDbBlockReference
  2
SW_CENTERMARKSYMBOL_4
 10
153.4963342465754
 20
189.123304109589
 30
0.0
  0
INSERT
  5
722F
330
71AC
100
AcDbEntity
  8
0
  6
Continuous
 62
     7
370
     0
100
AcDbBlockReference
  2
SW_CENTERMARKSYMBOL_5
 10
157.2463342465753
 20
189.123304109589
 30
0.0
  0
INSERT
  5
7230
330
71AC
100
AcDbEntity
  8
0
  6
Continuous
 62
     7
370
     0
100
AcDbBlockReference
  2
SW_CENTERMARKSYMBOL_6
 10
160.9963342465754
 20
189.123304109589
 30
0.0
  0
INSERT
  5
7231
330
71AC
100
AcDbEntity
  8
0
  6
Continuous
 62
     7
370
     0
100
AcDbBlockReference
  2
SW_CENTERMARKSYMBOL_7
 10
164.7463342465754
 20
189.123304109589
 30
0.0
  0
INSERT
  5
7232
330
71AC
100
AcDbEntity
  8
0
  6
Continuous
 62
     7
370
     0
100
AcDbBlockReference
  2
SW_CENTERMARKSYMBOL_8
 10
168.4963342465754
 20
189.123304109589
 30
0.0
  0
INSERT
  5
7233
330
71AC
100
AcDbEntity
  8
0
  6
Continuous
 62
     7
370
     0
100
AcDbBlockReference
  2
SW_CENTERMARKSYMBOL_9
 10
172.2463342465754
 20
189.123304109589
 30
0.0
  0
INSERT
  5
7234
330
71AC
100
AcDbEntity
  8
0
  6
Continuous
 62
     7
370
     0
100
AcDbBlockReference
  2
SW_CENTERMARKSYMBOL_10
 10
175.9963342465753
 20
189.123304109589
 30
0.0
  0
INSERT
  5
7235
330
71AC
100
AcDbEntity
  8
0
  6
Continuous
 62
     7
370
     0
100
AcDbBlockReference
  2
SW_CENTERMARKSYMBOL_11
 10
179.7463342465754
 20
189.123304109589
 30
0.0
  0
INSERT
  5
7236
330
71AC
100
AcDbEntity
  8
0
  6
Continuous
 62
     7
370
     0
100
AcDbBlockReference
  2
SW_CENTERMARKSYMBOL_12
 10
183.4963342465753
 20
189.123304109589
 30
0.0
  0
INSERT
  5
7237
330
71AC
100
AcDbEntity
  8
0
  6
Continuous
 62
     7
370
     0
100
AcDbBlockReference
  2
SW_CENTERMARKSYMBOL_13
 10
183.4963342465753
 20
80.62330410958905
 30
0.0
  0
INSERT
  5
7238
330
71AC
100
AcDbEntity
  8
0
  6
Continuous
 62
     7
370
     0
100
AcDbBlockReference
  2
SW_CENTERMARKSYMBOL_14
 10
179.7463342465754
 20
80.62330410958905
 30
0.0
  0
INSERT
  5
7239
330
71AC
100
AcDbEntity
  8
0
  6
Continuous
 62
     7
370
     0
100
AcDbBlockReference
  2
SW_CENTERMARKSYMBOL_15
 10
175.9963342465753
 20
80.62330410958905
 30
0.0
  0
INSERT
  5
723A
330
71AC
100
AcDbEntity
  8
0
  6
Continuous
 62
     7
370
     0
100
AcDbBlockReference
  2
SW_CENTERMARKSYMBOL_16
 10
172.2463342465754
 20
80.62330410958905
 30
0.0
  0
INSERT
  5
723B
330
71AC
100
AcDbEntity
  8
0
  6
Continuous
 62
     7
370
     0
100
AcDbBlockReference
  2
SW_CENTERMARKSYMBOL_17
 10
168.4963342465754
 20
80.62330410958905
 30
0.0
  0
INSERT
  5
723C
330
71AC
100
AcDbEntity
  8
0
  6
Continuous
 62
     7
370
     0
100
AcDbBlockReference
  2
SW_CENTERMARKSYMBOL_18
 10
164.7463342465754
 20
80.62330410958905
 30
0.0
  0
INSERT
  5
723D
330
71AC
100
AcDbEntity
  8
0
  6
Continuous
 62
     7
370
     0
100
AcDbBlockReference
  2
SW_CENTERMARKSYMBOL_19
 10
160.9963342465754
 20
80.62330410958905
 30
0.0
  0
INSERT
  5
723E
330
71AC
100
AcDbEntity
  8
0
  6
Continuous
 62
     7
370
     0
100
AcDbBlockReference
  2
SW_CENTERMARKSYMBOL_20
 10
157.2463342465753
 20
80.62330410958905
 30
0.0
  0
INSERT
  5
723F
330
71AC
100
AcDbEntity
  8
0
  6
Continuous
 62
     7
370
     0
100
AcDbBlockReference
  2
SW_CENTERMARKSYMBOL_21
 10
153.4963342465754
 20
80.62330410958905
 30
0.0
  0
INSERT
  5
7240
330
71AC
100
AcDbEntity
  8
0
  6
Continuous
 62
     7
370
     0
100
AcDbBlockReference
  2
SW_CENTERMARKSYMBOL_22
 10
149.7463342465754
 20
80.62330410958905
 30
0.0
  0
INSERT
  5
7241
330
71AC
100
AcDbEntity
  8
0
  6
Continuous
 62
     7
370
     0
100
AcDbBlockReference
  2
SW_CENTERMARKSYMBOL_23
 10
145.9963342465753
 20
80.62330410958905
 30
0.0
  0
INSERT
  5
7242
330
71AC
100
AcDbEntity
  8
0
  6
Continuous
 62
     7
370
     0
100
AcDbBlockReference
  2
SW_CENTERMARKSYMBOL_24
 10
142.2463342465754
 20
80.62330410958905
 30
0.0
  0
INSERT
  5
7243
330
71AC
100
AcDbEntity
  8
0
  6
Continuous
 62
     7
370
     0
100
AcDbBlockReference
  2
SW_CENTERMARKSYMBOL_25
 10
138.4963342465754
 20
80.62330410958905
 30
0.0
  0
INSERT
  5
7244
330
71AC
100
AcDbEntity
  8
0
  6
Continuous
 62
     7
370
     0
100
AcDbBlockReference
  2
SW_CENTERMARKSYMBOL_26
 10
188.2463342465754
 20
134.873304109589
 30
0.0
  0
INSERT
  5
7245
330
71AC
100
AcDbEntity
  8
0
  6
Continuous
 62
     7
370
     0
100
AcDbBlockReference
  2
SW_CENTERMARKSYMBOL_27
 10
133.7463342465754
 20
134.873304109589
 30
0.0
  0
INSERT
  5
7246
330
71AC
100
AcDbEntity
  8
0
  6
Continuous
 62
     7
370
     0
100
AcDbBlockReference
  2
SW_CENTERMARKSYMBOL_28
 10
137.9963342465754
 20
164.873304109589
 30
0.0
  0
LINE
  5
7247
330
71AC
100
AcDbEntity
  8
0
  6
Continuous
 62
     7
370
    15
100
AcDbLine
 10
256.3259131930343
 20
179.2074400592007
 30
0.0
 11
256.3259131930343
 21
90.53916815997736
 31
0.0
  0
SPLINE
  5
7248
330
71AC
100
AcDbEntity
  8
0
  6
Continuous
 62
     7
370
    15
100
AcDbSpline
210
0.0
220
0.0
230
1.0
 70
     8
 71
     3
 72
    24
 73
    20
 74
     0
 42
0.0000000001
 43
0.0000000001
 40
0.0
 40
0.0
 40
0.0
 40
0.0
 40
0.1249999999999998
 40
0.1249999999999998
 40
0.1874999999999996
 40
0.1874999999999996
 40
0.2499999999999994
 40
0.2499999999999994
 40
0.374999999999999
 40
0.374999999999999
 40
0.4999999999999986
 40
0.4999999999999986
 40
0.7499999999999982
 40
0.7499999999999982
 40
0.8124999999999982
 40
0.8124999999999982
 40
0.8749999999999984
 40
0.8749999999999984
 40
1.0
 40
1.0
 40
1.0
 40
1.0
 10
281.8259123287668
 20
177.9813263593988
 30
0.0
 10
280.7752602875796
 20
177.7686420495751
 30
0.0
 10
279.7137489095135
 20
177.5771912684166
 30
0.0
 10
278.1015829186411
 20
177.334806916138
 30
0.0
 10
277.5609043934201
 20
177.261557407398
 30
0.0
 10
276.4830030593539
 20
177.1332945918417
 30
0.0
 10
275.9445158662639
 20
177.078083086122
 30
0.0
 10
274.3305096261575
 20
176.941084976918
 30
0.0
 10
273.2564553919074
 20
176.8881986410053
 30
0.0
 10
271.1123982338368
 20
176.8638938693788
 30
0.0
 10
270.042395386686
 20
176.8924786838405
 30
0.0
 10
266.8382394883874
 20
177.0947032766215
 30
0.0
 10
264.7099898419163
 20
177.3863144918292
 30
0.0
 10
262.0571822449573
 20
177.8833406862169
 30
0.0
 10
261.5263634575693
 20
177.9893999328366
 30
0.0
 10
260.4720018101007
 20
178.211227917985
 30
0.0
 10
259.9477313828201
 20
178.3271155518402
 30
0.0
 10
258.3828167797287
 20
178.6867844533813
 30
0.0
 10
257.3500395042587
 20
178.9424811684879
 30
0.0
 10
256.325912328767
 20
179.207439394627
 30
0.0
  0
LINE
  5
7249
330
71AC
100
AcDbEntity
  8
0
  6
Continuous
 62
     7
370
    15
100
AcDbLine
 10
281.8259127161972
 20
91.76528040649072
 30
0.0
 11
281.8259127161972
 21
177.9813278126873
 31
0.0
  0
SPLINE
  5
724A
330
71AC
100
AcDbEntity
  8
0
  6
Continuous
 62
     7
370
    15
100
AcDbSpline
210
0.0
220
0.0
230
1.0
 70
     8
 71
     3
 72
    20
 73
    16
 74
     0
 42
0.0000000001
 43
0.0000000001
 40
0.0
 40
0.0
 40
0.0
 40
0.0
 40
0.1249999999999996
 40
0.1249999999999996
 40
0.2499999999999996
 40
0.2499999999999996
 40
0.5
 40
0.5
 40
0.6249999999999999
 40
0.6249999999999999
 40
0.6875
 40
0.6875
 40
0.75
 40
0.75
 40
1.0
 40
1.0
 40
1.0
 40
1.0
 10
256.3259123287669
 20
90.53916882455121
 30
0.0
 10
257.348714774467
 20
90.80378432171674
 30
0.0
 10
258.3806957406354
 20
91.0593086252734
 30
0.0
 10
260.466805729762
 20
91.53882063696059
 30
0.0
 10
261.5156149373114
 20
91.76145860568619
 30
0.0
 10
264.6699728747978
 20
92.35346954329095
 30
0.0
 10
266.7884449090434
 20
92.6464998392999
 30
0.0
 10
269.9977106570608
 20
92.85240413901355
 30
0.0
 10
271.0727035671149
 20
92.88236388329314
 30
0.0
 10
272.6935152135935
 20
92.8651741424658
 30
0.0
 10
273.2351668446625
 20
92.84915203609791
 30
0.0
 10
274.3212326251009
 20
92.79664365952058
 30
0.0
 10
274.8654865754498
 20
92.76011822620652
 30
0.0
 10
277.5724171806412
 20
92.5303306125085
 30
0.0
 10
279.7092319707378
 20
92.1937631108665
 30
0.0
 10
281.825912328767
 20
91.76528185977973
 30
0.0
  0
LINE
  5
724B
330
71AC
100
AcDbEntity
  8
0
  6
Continuous
 62
     7
370
    15
100
AcDbLine
 10
256.3259131930343
 20
179.2074400592007
 30
0.0
 11
256.3259131930343
 21
184.8733048546471
 31
0.0
  0
LINE
  5
724C
330
71AC
100
AcDbEntity
  8
0
  6
Continuous
 62
     7
370
    15
100
AcDbLine
 10
256.3259131930343
 20
184.8733048546471
 30
0.0
 11
281.8259127161972
 21
184.8733048546471
 31
0.0
  0
LINE
  5
724D
330
71AC
100
AcDbEntity
  8
0
  6
Continuous
 62
     7
370
    15
100
AcDbLine
 10
281.8259127161972
 20
184.8733048546471
 30
0.0
 11
281.8259127161972
 21
177.9813278126873
 31
0.0
  0
LINE
  5
724E
330
71AC
100
AcDbEntity
  8
0
  6
Continuous
 62
     7
370
    15
100
AcDbLine
 10
281.8259127161972
 20
91.76528040649072
 30
0.0
 11
281.8259127161972
 21
84.87330336453096
 31
0.0
  0
LINE
  5
724F
330
71AC
100
AcDbEntity
  8
0
  6
Continuous
 62
     7
370
    15
100
AcDbLine
 10
256.3259131930343
 20
84.87330336453096
 30
0.0
 11
281.8259127161972
 21
84.87330336453096
 31
0.0
  0
LINE
  5
7250
330
71AC
100
AcDbEntity
  8
0
  6
Continuous
 62
     7
370
    15
100
AcDbLine
 10
256.3259131930343
 20
84.87330336453096
 30
0.0
 11
256.3259131930343
 21
90.53916815997736
 31
0.0
  0
ELLIPSE
  5
7251
330
71AC
100
AcDbEntity
  8
0
  6
Continuous
 62
     7
370
    15
100
AcDbEllipse
 10
282.8259123287669
 20
93.46235928963862
 30
0.0
 11
1.0
 21
0.0
 31
0.0
210
0.0
220
0.0
230
1.0
 40
0.4109448199504158
 41
1.570796326794896
 42
3.141592653589793
  0
LINE
  5
7252
330
71AC
100
AcDbEntity
  8
0
  6
Continuous
 62
     7
370
    15
100
AcDbLine
 10
282.8259119487874
 20
93.87330297710077
 30
0.0
 11
282.8259119487874
 21
84.87330336453096
 31
0.0
  0
LINE
  5
7253
330
71AC
100
AcDbEntity
  8
0
  6
Continuous
 62
     7
370
    15
100
AcDbLine
 10
282.8259119487874
 20
84.87330336453096
 30
0.0
 11
281.8259127161972
 21
84.87330336453096
 31
0.0
  0
LINE
  5
7254
330
71AC
100
AcDbEntity
  8
0
  6
Continuous
 62
     7
370
    15
100
AcDbLine
 10
281.8259127161972
 20
184.8733048546471
 30
0.0
 11
282.8259119487874
 21
184.8733048546471
 31
0.0
  0
LINE
  5
7255
330
71AC
100
AcDbEntity
  8
0
  6
Continuous
 62
     7
370
    15
100
AcDbLine
 10
282.8259119487874
 20
184.8733048546471
 30
0.0
 11
282.8259119487874
 21
175.8733052420773
 31
0.0
  0
ELLIPSE
  5
7256
330
71AC
100
AcDbEntity
  8
0
  6
Continuous
 62
     7
370
    15
100
AcDbEllipse
 10
282.8259123287669
 20
176.2842489295394
 30
0.0
 11
1.0
 21
0.0
 31
0.0
210
0.0
220
0.0
230
1.0
 40
0.41094481995043
 41
3.141592653589793
 42
4.712388980384695
  0
LINE
  5
7257
330
71AC
100
AcDbEntity
  8
0
  6
Continuous
 62
     7
370
    15
100
AcDbLine
 10
282.8259119487874
 20
175.8733052420773
 30
0.0
 11
282.8259119487874
 21
93.87330297710077
 31
0.0
  0
LINE
  5
7258
330
71AC
100
AcDbEntity
  8
0
  6
Continuous
 62
     7
370
    15
100
AcDbLine
 10
289.8259122812696
 20
93.87330297710077
 30
0.0
 11
289.8259122812696
 21
117.3733040350832
 31
0.0
  0
LINE
  5
7259
330
71AC
100
AcDbEntity
  8
0
  6
Continuous
 62
     7
370
    15
100
AcDbLine
 10
289.8259122812696
 20
117.3733040350832
 30
0.0
 11
290.825912328767
 21
117.3733040350832
 31
0.0
  0
LINE
  5
725A
330
71AC
100
AcDbEntity
  8
0
  6
Continuous
 62
     7
370
    15
100
AcDbLine
 10
290.825912328767
 20
117.3733040350832
 30
0.0
 11
290.825912328767
 21
94.2842472005047
 31
0.0
  0
ELLIPSE
  5
725B
330
71AC
100
AcDbEntity
  8
0
  6
Continuous
 62
     7
370
    15
100
AcDbEllipse
 10
289.825912328767
 20
94.28424892953946
 30
0.0
 11
1.0
 21
0.0
 31
0.0
210
0.0
220
0.0
230
1.0
 40
0.4109448199504158
 41
4.712388980384695
 42
6.283185307179586
  0
LINE
  5
725C
330
71AC
100
AcDbEntity
  8
0
  6
Continuous
 62
     7
370
    15
100
AcDbLine
 10
289.8259122812696
 20
175.8733052420773
 30
0.0
 11
289.8259122812696
 21
184.8733048546471
 31
0.0
  0
ARC
  5
725D
330
71AC
100
AcDbEntity
  8
0
  6
Continuous
 62
     7
370
    15
100
AcDbCircle
 10
289.825912328767
 20
183.873304109589
 30
0.0
 40
1.000000000000028
100
AcDbArc
 50
0.0
 51
90.0
  0
LINE
  5
725E
330
71AC
100
AcDbEntity
  8
0
  6
Continuous
 62
     7
370
    15
100
AcDbLine
 10
290.825912328767
 20
183.8733028280891
 30
0.0
 11
290.825912328767
 21
175.4623610186733
 31
0.0
  0
ELLIPSE
  5
725F
330
71AC
100
AcDbEntity
  8
0
  6
Continuous
 62
     7
370
    15
100
AcDbEllipse
 10
289.825912328767
 20
175.4623592896386
 30
0.0
 11
1.0
 21
0.0
 31
0.0
210
0.0
220
0.0
230
1.0
 40
0.41094481995043
 41
0.0
 42
1.570796326794896
  0
LINE
  5
7260
330
71AC
100
AcDbEntity
  8
0
  6
Continuous
 62
     7
370
    15
100
AcDbLine
 10
289.8259122812696
 20
84.87330336453096
 30
0.0
 11
289.8259122812696
 21
93.87330297710077
 31
0.0
  0
LINE
  5
7261
330
71AC
100
AcDbEntity
  8
0
  6
Continuous
 62
     7
370
    15
100
AcDbLine
 10
290.825912328767
 20
94.2842472005047
 30
0.0
 11
290.825912328767
 21
85.87330539108888
 31
0.0
  0
ARC
  5
7262
330
71AC
100
AcDbEntity
  8
0
  6
Continuous
 62
     7
370
    15
100
AcDbCircle
 10
289.825912328767
 20
85.87330410958903
 30
0.0
 40
1.000000000000028
100
AcDbArc
 50
270.0000000000008
 51
0.0
  0
LINE
  5
7263
330
71AC
100
AcDbEntity
  8
0
  6
Continuous
 62
     7
370
    15
100
AcDbLine
 10
289.8259122812696
 20
152.3733041840948
 30
0.0
 11
289.8259122812696
 21
175.8733052420773
 31
0.0
  0
LINE
  5
7264
330
71AC
100
AcDbEntity
  8
0
  6
Continuous
 62
     7
370
    15
100
AcDbLine
 10
290.825912328767
 20
175.4623610186733
 30
0.0
 11
290.825912328767
 21
152.3733041840948
 31
0.0
  0
LINE
  5
7265
330
71AC
100
AcDbEntity
  8
0
  6
Continuous
 62
     7
370
    15
100
AcDbLine
 10
290.825912328767
 20
152.3733041840948
 30
0.0
 11
289.8259122812696
 21
152.3733041840948
 31
0.0
  0
LINE
  5
7266
330
71AC
100
AcDbEntity
  8
0
  6
Continuous
 62
     7
370
    15
100
AcDbLine
 10
282.8259119487874
 20
93.87330297710077
 30
0.0
 11
289.8259122812696
 21
93.87330297710077
 31
0.0
  0
LINE
  5
7267
330
71AC
100
AcDbEntity
  8
0
  6
Continuous
 62
     7
370
    15
100
AcDbLine
 10
282.8259119487874
 20
175.8733052420773
 30
0.0
 11
289.8259122812696
 21
175.8733052420773
 31
0.0
  0
LINE
  5
7268
330
71AC
100
AcDbEntity
  8
0
  6
Continuous
 62
     7
370
    15
100
AcDbLine
 10
289.8259122812696
 20
117.3733040350832
 30
0.0
 11
289.3259123157285
 21
117.3733040350832
 31
0.0
  0
LINE
  5
7269
330
71AC
100
AcDbEntity
  8
0
  6
Continuous
 62
     7
370
    15
100
AcDbLine
 10
289.3259123157285
 20
152.3733041840948
 30
0.0
 11
289.8259122812696
 21
152.3733041840948
 31
0.0
  0
LINE
  5
726A
330
71AC
100
AcDbEntity
  8
0
  6
Continuous
 62
     7
370
    15
100
AcDbLine
 10
282.8259119487874
 20
84.87330336453096
 30
0.0
 11
289.8259122812696
 21
84.87330336453096
 31
0.0
  0
LINE
  5
726B
330
71AC
100
AcDbEntity
  8
0
  6
Continuous
 62
     7
370
    15
100
AcDbLine
 10
282.8259119487874
 20
184.8733048546471
 30
0.0
 11
289.8259122812696
 21
184.8733048546471
 31
0.0
  0
LINE
  5
726C
330
71AC
100
AcDbEntity
  8
0
  6
Continuous
 62
     7
370
    15
100
AcDbLine
 10
253.8259118519298
 20
115.8733047205366
 30
0.0
 11
256.3259131930343
 21
115.8733047205366
 31
0.0
  0
LINE
  5
726D
330
71AC
100
AcDbEntity
  8
0
  6
Continuous
 62
     7
370
    15
100
AcDbLine
 10
253.8259118519298
 20
115.8733047205366
 30
0.0
 11
253.8259118519298
 21
119.7233037683524
 31
0.0
  0
LINE
  5
726E
330
71AC
100
AcDbEntity
  8
0
  6
Continuous
 62
     7
370
    15
100
AcDbLine
 10
253.8259118519298
 20
119.7233037683524
 30
0.0
 11
256.3259131930343
 21
119.7233037683524
 31
0.0
  0
LINE
  5
726F
330
71AC
100
AcDbEntity
  8
0
  6
Continuous
 62
     7
370
    15
100
AcDbLine
 10
270.8259127758018
 20
76.87330577851908
 30
0.0
 11
274.8259115688078
 21
74.87330545069354
 31
0.0
  0
LINE
  5
7270
330
71AC
100
AcDbEntity
  8
0
  6
Continuous
 62
     7
370
    15
100
AcDbLine
 10
270.8259127758018
 20
84.87330336453096
 30
0.0
 11
270.8259127758018
 21
76.87330577851908
 31
0.0
  0
LINE
  5
7271
330
71AC
100
AcDbEntity
  8
0
  6
Continuous
 62
     7
370
    15
100
AcDbLine
 10
281.8259127161972
 20
74.87330545069354
 30
0.0
 11
281.8259127161972
 21
84.87330336453096
 31
0.0
  0
LINE
  5
7272
330
71AC
100
AcDbEntity
  8
0
  6
Continuous
 62
     7
370
    15
100
AcDbLine
 10
274.8259115688078
 20
74.87330545069354
 30
0.0
 11
281.8259127161972
 21
74.87330545069354
 31
0.0
  0
LINE
  5
7273
330
71AC
100
AcDbEntity
  8
0
  6
Continuous
 62
     7
370
    15
100
AcDbLine
 10
270.8259127758018
 20
192.873302440659
 30
0.0
 11
270.8259127758018
 21
184.8733048546471
 31
0.0
  0
LINE
  5
7274
330
71AC
100
AcDbEntity
  8
0
  6
Continuous
 62
     7
370
    15
100
AcDbLine
 10
274.8259115688078
 20
194.8733027684845
 30
0.0
 11
270.8259127758018
 21
192.873302440659
 31
0.0
  0
LINE
  5
7275
330
71AC
100
AcDbEntity
  8
0
  6
Continuous
 62
     7
370
    15
100
AcDbLine
 10
281.8259127161972
 20
194.8733027684845
 30
0.0
 11
274.8259115688078
 21
194.8733027684845
 31
0.0
  0
LINE
  5
7276
330
71AC
100
AcDbEntity
  8
0
  6
Continuous
 62
     7
370
    15
100
AcDbLine
 10
281.8259127161972
 20
184.8733048546471
 30
0.0
 11
281.8259127161972
 21
194.8733027684845
 31
0.0
  0
LINE
  5
7277
330
71AC
100
AcDbEntity
  8
0
  6
Continuous
 62
     7
370
    15
100
AcDbLine
 10
253.8259118519298
 20
104.8733047801412
 30
0.0
 11
253.8259118519298
 21
110.8733039009727
 31
0.0
  0
LINE
  5
7278
330
71AC
100
AcDbEntity
  8
0
  6
Continuous
 62
     7
370
    15
100
AcDbLine
 10
253.8259118519298
 20
110.8733039009727
 30
0.0
 11
256.3259131930343
 21
110.8733039009727
 31
0.0
  0
LINE
  5
7279
330
71AC
100
AcDbEntity
  8
0
  6
Continuous
 62
     7
370
    15
100
AcDbLine
 10
253.8259118519298
 20
104.8733047801412
 30
0.0
 11
256.3259131930343
 21
104.8733047801412
 31
0.0
  0
LINE
  5
727A
330
71AC
100
AcDbEntity
  8
0
  6
Continuous
 62
     7
370
    15
100
AcDbLine
 10
293.3259122728876
 20
120.3233036804356
 30
0.0
 11
293.3259122728876
 21
119.3233044478454
 31
0.0
  0
LINE
  5
727B
330
71AC
100
AcDbEntity
  8
0
  6
Continuous
 62
     7
370
    15
100
AcDbLine
 10
289.3259123157284
 20
120.3233036804356
 30
0.0
 11
293.3259122728876
 21
120.3233036804356
 31
0.0
  0
LINE
  5
727C
330
71AC
100
AcDbEntity
  8
0
  6
Continuous
 62
     7
370
    15
100
AcDbLine
 10
289.3259123157284
 20
117.3733040350832
 30
0.0
 11
289.3259123157284
 21
120.3233036804356
 31
0.0
  0
LINE
  5
727D
330
71AC
100
AcDbEntity
  8
0
  6
Continuous
 62
     7
370
    15
100
AcDbLine
 10
287.8259123026899
 20
117.3733040350832
 30
0.0
 11
289.3259123157284
 21
117.3733040350832
 31
0.0
  0
LINE
  5
727E
330
71AC
100
AcDbEntity
  8
0
  6
Continuous
 62
     7
370
    15
100
AcDbLine
 10
287.8259123026899
 20
152.3733041840948
 30
0.0
 11
287.8259123026899
 21
117.3733040350832
 31
0.0
  0
LINE
  5
727F
330
71AC
100
AcDbEntity
  8
0
  6
Continuous
 62
     7
370
    15
100
AcDbLine
 10
289.3259123157284
 20
152.3733041840948
 30
0.0
 11
287.8259123026899
 21
152.3733041840948
 31
0.0
  0
LINE
  5
7280
330
71AC
100
AcDbEntity
  8
0
  6
Continuous
 62
     7
370
    15
100
AcDbLine
 10
289.3259123157284
 20
149.4233045387425
 30
0.0
 11
289.3259123157284
 21
152.3733041840948
 31
0.0
  0
LINE
  5
7281
330
71AC
100
AcDbEntity
  8
0
  6
Continuous
 62
     7
370
    15
100
AcDbLine
 10
293.3259122728876
 20
149.4233045387425
 30
0.0
 11
289.3259123157284
 21
149.4233045387425
 31
0.0
  0
LINE
  5
7282
330
71AC
100
AcDbEntity
  8
0
  6
Continuous
 62
     7
370
    15
100
AcDbLine
 10
293.3259122728876
 20
150.4233037713327
 30
0.0
 11
293.3259122728876
 21
149.4233045387425
 31
0.0
  0
LINE
  5
7283
330
71AC
100
AcDbEntity
  8
0
  6
Continuous
 62
     7
370
    15
100
AcDbLine
 10
295.8259122170082
 20
150.4233037713327
 30
0.0
 11
293.3259122728876
 21
150.4233037713327
 31
0.0
  0
LINE
  5
7284
330
71AC
100
AcDbEntity
  8
0
  6
Continuous
 62
     7
370
    15
100
AcDbLine
 10
295.8259122170082
 20
119.3233044478454
 30
0.0
 11
295.8259122170082
 21
150.4233037713327
 31
0.0
  0
LINE
  5
7285
330
71AC
100
AcDbEntity
  8
0
  6
Continuous
 62
     7
370
    15
100
AcDbLine
 10
293.3259122728876
 20
119.3233044478454
 30
0.0
 11
295.8259122170082
 21
119.3233044478454
 31
0.0
  0
ENDBLK
  5
7287
330
71AC
100
AcDbEntity
  8
0
100
AcDbBlockEnd
  0
BLOCK
  5
7479
330
746F
100
AcDbEntity
  8
0
100
AcDbBlockBegin
  2
*D35
 70
     1
 10
0.0
 20
0.0
 30
0.0
  3
*D35
  1

  0
LINE
  5
771F
330
746F
100
AcDbEntity
  8
AM_5
100
AcDbLine
 10
1988.408829819643
 20
1314.753580912162
 30
0.0
 11
1988.408829819643
 21
1347.55633408538
 31
0.0
  0
LINE
  5
7720
330
746F
100
AcDbEntity
  8
AM_5
100
AcDbLine
 10
2146.40883709141
 20
1314.753580912162
 30
0.0
 11
2146.40883709141
 21
1347.55633408538
 31
0.0
  0
LINE
  5
7721
330
746F
100
AcDbEntity
  8
AM_5
100
AcDbLine
 10
1991.408829819643
 20
1346.056334085379
 30
0.0
 11
2143.40883709141
 21
1346.056334085379
 31
0.0
  0
SOLID
  5
7722
330
746F
100
AcDbEntity
  8
AM_5
100
AcDbTrace
 10
1991.408829819643
 20
1346.556334085379
 30
0.0
 11
1991.408829819643
 21
1345.55633408538
 31
0.0
 12
1988.408829819643
 22
1346.056334085379
 32
0.0
 13
1988.408829819643
 23
1346.056334085379
 33
0.0
  0
SOLID
  5
7723
330
746F
100
AcDbEntity
  8
AM_5
100
AcDbTrace
 10
2143.40883709141
 20
1346.556334085379
 30
0.0
 11
2143.40883709141
 21
1345.55633408538
 31
0.0
 12
2146.40883709141
 22
1346.056334085379
 32
0.0
 13
2146.40883709141
 23
1346.056334085379
 33
0.0
  0
MTEXT
  5
7724
330
746F
100
AcDbEntity
  8
AM_5
100
AcDbMText
 10
2067.408833455527
 20
1348.706334085379
 30
0.0
 40
3.0
 41
0.0
 71
     5
 72
     1
  1
(158)
 73
     1
 44
1.0
1001
ACAD
1000
MTEXTBEGIN
1070
    73
1070
     1
1070
    44
1040
1.0
1070
    74
1070
     0
1000
MTEXTEND
  0
POINT
  5
7725
330
746F
100
AcDbEntity
  8
Defpoints
 62
     0
100
AcDbPoint
 10
1988.408829819643
 20
1313.753580912162
 30
0.0
  0
POINT
  5
7726
330
746F
100
AcDbEntity
  8
Defpoints
 62
     0
100
AcDbPoint
 10
2146.40883709141
 20
1313.753580912162
 30
0.0
  0
POINT
  5
7727
330
746F
100
AcDbEntity
  8
Defpoints
 62
     0
100
AcDbPoint
 10
2146.40883709141
 20
1346.056334085379
 30
0.0
  0
ENDBLK
  5
747A
330
746F
100
AcDbEntity
  8
0
100
AcDbBlockEnd
  0
BLOCK
  5
7593
330
7589
100
AcDbEntity
  8
0
100
AcDbBlockBegin
  2
*D36
 70
     1
 10
0.0
 20
0.0
 30
0.0
  3
*D36
  1

  0
LINE
  5
7728
330
7589
100
AcDbEntity
  8
AM_5
100
AcDbLine
 10
2191.124115647308
 20
1318.753581120778
 30
0.0
 11
2191.124115647308
 21
1347.55633408538
 31
0.0
  0
LINE
  5
7729
330
7589
100
AcDbEntity
  8
AM_5
100
AcDbLine
 10
2220.124116541377
 20
1313.753582610895
 30
0.0
 11
2220.124116541377
 21
1347.55633408538
 31
0.0
  0
LINE
  5
772A
330
7589
100
AcDbEntity
  8
AM_5
100
AcDbLine
 10
2194.124115647308
 20
1346.056334085379
 30
0.0
 11
2217.124116541377
 21
1346.056334085379
 31
0.0
  0
SOLID
  5
772B
330
7589
100
AcDbEntity
  8
AM_5
100
AcDbTrace
 10
2194.124115647308
 20
1346.556334085379
 30
0.0
 11
2194.124115647308
 21
1345.55633408538
 31
0.0
 12
2191.124115647308
 22
1346.056334085379
 32
0.0
 13
2191.124115647308
 23
1346.056334085379
 33
0.0
  0
SOLID
  5
772C
330
7589
100
AcDbEntity
  8
AM_5
100
AcDbTrace
 10
2217.124116541377
 20
1346.556334085379
 30
0.0
 11
2217.124116541377
 21
1345.55633408538
 31
0.0
 12
2220.124116541377
 22
1346.056334085379
 32
0.0
 13
2220.124116541377
 23
1346.056334085379
 33
0.0
  0
MTEXT
  5
772D
330
7589
100
AcDbEntity
  8
AM_5
100
AcDbMText
 10
2205.624116094342
 20
1348.55662936097
 30
0.0
 40
3.0
 41
0.0
 71
     5
 72
     1
  1
29
 73
     1
 44
1.0
1001
ACAD
1000
MTEXTBEGIN
1070
    73
1070
     1
1070
    44
1040
1.0
1070
    74
1070
     0
1000
MTEXTEND
  0
POINT
  5
772E
330
7589
100
AcDbEntity
  8
Defpoints
 62
     0
100
AcDbPoint
 10
2191.124115647308
 20
1317.753581120779
 30
0.0
  0
POINT
  5
772F
330
7589
100
AcDbEntity
  8
Defpoints
 62
     0
100
AcDbPoint
 10
2220.124116541377
 20
1312.753582610894
 30
0.0
  0
POINT
  5
7730
330
7589
100
AcDbEntity
  8
Defpoints
 62
     0
100
AcDbPoint
 10
2220.124116541377
 20
1346.056334085379
 30
0.0
  0
ENDBLK
  5
7594
330
7589
100
AcDbEntity
  8
0
100
AcDbBlockEnd
  0
BLOCK
  5
7675
330
75EC
100
AcDbEntity
  8
0
100
AcDbBlockBegin
  2
MATP
 70
     0
 10
0.0
 20
0.0
 30
0.0
  3
MATP
  1

  0
LINE
  5
75ED
330
75EC
100
AcDbEntity
  8
0
  6
Continuous
 62
     7
370
    15
100
AcDbLine
 10
264.9622764063281
 20
148.2122902209691
 30
0.0
 11
256.3020195436877
 21
148.2122902209691
 31
0.0
  0
LINE
  5
75EE
330
75EC
100
AcDbEntity
  8
0
  6
Continuous
 62
     7
370
    15
100
AcDbLine
 10
260.6321479750079
 20
140.7122903886072
 30
0.0
 11
264.9622764063281
 21
148.2122902209691
 31
0.0
  0
LINE
  5
75EF
330
75EC
100
AcDbEntity
  8
0
  6
Continuous
 62
     7
370
    15
100
AcDbLine
 10
256.3020195436877
 20
148.2122902209691
 30
0.0
 11
260.6321479750079
 21
140.7122903886072
 31
0.0
  0
LINE
  5
75F0
330
75EC
100
AcDbEntity
  8
0
  6
Continuous
 62
     7
370
    15
100
AcDbLine
 10
256.3020195436877
 20
160.7122908728949
 30
0.0
 11
264.9622764063281
 21
160.7122908728949
 31
0.0
  0
LINE
  5
75F1
330
75EC
100
AcDbEntity
  8
0
  6
Continuous
 62
     7
370
    15
100
AcDbLine
 10
260.6321479750079
 20
168.2122911709182
 30
0.0
 11
256.3020195436877
 21
160.7122908728949
 31
0.0
  0
LINE
  5
75F2
330
75EC
100
AcDbEntity
  8
0
  6
Continuous
 62
     7
370
    15
100
AcDbLine
 10
264.9622764063281
 20
160.7122908728949
 30
0.0
 11
260.6321479750079
 21
168.2122911709182
 31
0.0
  0
LINE
  5
75F3
330
75EC
100
AcDbEntity
  8
0
  6
Continuous
 62
     7
370
    15
100
AcDbLine
 10
266.6321489584845
 20
150.7122903979204
 30
0.0
 11
254.6321469915312
 21
150.7122903979204
 31
0.0
  0
LINE
  5
75F4
330
75EC
100
AcDbEntity
  8
0
  6
Continuous
 62
     7
370
    15
100
AcDbLine
 10
266.6321489584845
 20
138.7122900607816
 30
0.0
 11
266.6321489584845
 21
150.7122903979204
 31
0.0
  0
LINE
  5
75F5
330
75EC
100
AcDbEntity
  8
0
  6
Continuous
 62
     7
370
    15
100
AcDbLine
 10
254.6321469915312
 20
138.7122900607816
 30
0.0
 11
266.6321489584845
 21
138.7122900607816
 31
0.0
  0
LINE
  5
75F6
330
75EC
100
AcDbEntity
  8
0
  6
Continuous
 62
     7
370
    15
100
AcDbLine
 10
254.6321469915312
 20
150.7122903979204
 30
0.0
 11
254.6321469915312
 21
138.7122900607816
 31
0.0
  0
LINE
  5
75F7
330
75EC
100
AcDbEntity
  8
0
  6
Continuous
 62
     7
370
    15
100
AcDbLine
 10
266.6321489584845
 20
170.2122896360986
 30
0.0
 11
254.6321469915312
 21
170.2122896360986
 31
0.0
  0
LINE
  5
75F8
330
75EC
100
AcDbEntity
  8
0
  6
Continuous
 62
     7
370
    15
100
AcDbLine
 10
266.6321489584845
 20
158.212290463113
 30
0.0
 11
266.6321489584845
 21
170.2122896360986
 31
0.0
  0
LINE
  5
75F9
330
75EC
100
AcDbEntity
  8
0
  6
Continuous
 62
     7
370
    15
100
AcDbLine
 10
254.6321469915312
 20
158.212290463113
 30
0.0
 11
266.6321489584845
 21
158.212290463113
 31
0.0
  0
LINE
  5
75FA
330
75EC
100
AcDbEntity
  8
0
  6
Continuous
 62
     7
370
    15
100
AcDbLine
 10
254.6321469915312
 20
170.2122896360986
 30
0.0
 11
254.6321469915312
 21
158.212290463113
 31
0.0
  0
LINE
  5
75FB
330
75EC
100
AcDbEntity
  8
0
  6
Continuous
 62
     7
370
    15
100
AcDbLine
 10
252.3821461570662
 20
120.2122888910405
 30
0.0
 11
252.3821461570662
 21
131.7122898447148
 31
0.0
  0
LINE
  5
75FC
330
75EC
100
AcDbEntity
  8
0
  6
Continuous
 62
     7
370
    15
100
AcDbLine
 10
240.8821489286821
 20
120.2122888910405
 30
0.0
 11
252.3821461570662
 21
120.2122888910405
 31
0.0
  0
LINE
  5
75FD
330
75EC
100
AcDbEntity
  8
0
  6
Continuous
 62
     7
370
    15
100
AcDbLine
 10
240.8821489286821
 20
131.7122898447148
 30
0.0
 11
240.8821489286821
 21
120.2122888910405
 31
0.0
  0
LINE
  5
75FE
330
75EC
100
AcDbEntity
  8
0
  6
Continuous
 62
     7
370
    15
100
AcDbLine
 10
252.3821461570662
 20
131.7122898447148
 30
0.0
 11
240.8821489286821
 21
131.7122898447148
 31
0.0
  0
LINE
  5
75FF
330
75EC
100
AcDbEntity
  8
0
  6
Continuous
 62
     7
370
    15
100
AcDbLine
 10
248.6321497333448
 20
173.2122901278369
 30
0.0
 11
149.6321465444963
 21
173.2122901278369
 31
0.0
  0
LINE
  5
7600
330
75EC
100
AcDbEntity
  8
0
  6
Continuous
 62
     7
370
    15
100
AcDbLine
 10
248.6321497333448
 20
137.2122907462351
 30
0.0
 11
248.6321497333448
 21
173.2122901278369
 31
0.0
  0
LINE
  5
7601
330
75EC
100
AcDbEntity
  8
0
  6
Continuous
 62
     7
370
    15
100
AcDbLine
 10
149.6321465444963
 20
137.2122907462351
 30
0.0
 11
248.6321497333448
 21
137.2122907462351
 31
0.0
  0
LINE
  5
7602
330
75EC
100
AcDbEntity
  8
0
  6
Continuous
 62
     7
370
    15
100
AcDbLine
 10
149.6321465444963
 20
173.2122901278369
 30
0.0
 11
149.6321465444963
 21
137.2122907462351
 31
0.0
  0
LINE
  5
7603
330
75EC
100
AcDbEntity
  8
0
  6
Continuous
 62
     7
370
    15
100
AcDbLine
 10
281.6321495545309
 20
113.7122906195752
 30
0.0
 11
281.6321495545309
 21
190.7122902023427
 31
0.0
  0
ARC
  5
7604
330
75EC
100
AcDbEntity
  8
0
  6
Continuous
 62
     7
370
    15
100
AcDbCircle
 10
277.6321479452055
 20
113.712290410959
 30
0.0
 40
4.0
100
AcDbArc
 50
270.0
 51
0.0000000000006107
  0
LINE
  5
7605
330
75EC
100
AcDbEntity
  8
0
  6
Continuous
 62
     7
370
    15
100
AcDbLine
 10
129.6321469915312
 20
109.7122899639241
 30
0.0
 11
277.6321488988799
 21
109.7122899639241
 31
0.0
  0
ARC
  5
7606
330
75EC
100
AcDbEntity
  8
0
  6
Continuous
 62
     7
370
    15
100
AcDbCircle
 10
129.6321479452055
 20
113.7122904109589
 30
0.0
 40
4.0
100
AcDbArc
 50
179.9999999999996
 51
270.0000000000017
  0
LINE
  5
7607
330
75EC
100
AcDbEntity
  8
0
  6
Continuous
 62
     7
370
    15
100
AcDbLine
 10
125.6321463358801
 20
190.7122902023427
 30
0.0
 11
125.6321463358801
 21
113.7122906195752
 31
0.0
  0
ARC
  5
7608
330
75EC
100
AcDbEntity
  8
0
  6
Continuous
 62
     7
370
    15
100
AcDbCircle
 10
129.6321479452055
 20
190.7122904109589
 30
0.0
 40
4.000000000000028
100
AcDbArc
 50
89.9999999999992
 51
180.0000000000012
  0
LINE
  5
7609
330
75EC
100
AcDbEntity
  8
0
  6
Continuous
 62
     7
370
    15
100
AcDbLine
 10
277.6321488988799
 20
194.7122908579938
 30
0.0
 11
129.6321469915312
 21
194.7122908579938
 31
0.0
  0
ARC
  5
760A
330
75EC
100
AcDbEntity
  8
0
  6
Continuous
 62
     7
370
    15
100
AcDbCircle
 10
277.6321479452055
 20
190.7122904109589
 30
0.0
 40
4.000000000000028
100
AcDbArc
 50
0.0000000000004071
 51
90.0
  0
LINE
  5
760B
330
75EC
100
AcDbEntity
  8
0
  6
Continuous
 62
     7
370
    15
100
AcDbLine
 10
278.6321509254378
 20
113.7122906195752
 30
0.0
 11
278.6321509254378
 21
190.7122902023427
 31
0.0
  0
ARC
  5
760C
330
75EC
100
AcDbEntity
  8
0
  6
Continuous
 62
     7
370
    15
100
AcDbCircle
 10
277.6321479452055
 20
190.7122904109589
 30
0.0
 40
1.0
100
AcDbArc
 50
359.9999999999992
 51
90.0
  0
LINE
  5
760D
330
75EC
100
AcDbEntity
  8
0
  6
Continuous
 62
     7
370
    15
100
AcDbLine
 10
277.6321488988799
 20
191.7122922289006
 30
0.0
 11
129.6321469915312
 21
191.7122922289006
 31
0.0
  0
ARC
  5
760E
330
75EC
100
AcDbEntity
  8
0
  6
Continuous
 62
     7
370
    15
100
AcDbCircle
 10
129.6321479452055
 20
190.7122904109589
 30
0.0
 40
1.0
100
AcDbArc
 50
89.99999999999674
 51
180.0
  0
LINE
  5
760F
330
75EC
100
AcDbEntity
  8
0
  6
Continuous
 62
     7
370
    15
100
AcDbLine
 10
128.6321449649732
 20
190.7122902023427
 30
0.0
 11
128.6321449649732
 21
113.7122906195752
 31
0.0
  0
ARC
  5
7610
330
75EC
100
AcDbEntity
  8
0
  6
Continuous
 62
     7
370
    15
100
AcDbCircle
 10
129.6321479452055
 20
113.7122904109589
 30
0.0
 40
1.0
100
AcDbArc
 50
180.0
 51
270.0000000000008
  0
LINE
  5
7611
330
75EC
100
AcDbEntity
  8
0
  6
Continuous
 62
     7
370
    15
100
AcDbLine
 10
129.6321469915312
 20
112.7122885930172
 30
0.0
 11
277.6321488988799
 21
112.7122885930172
 31
0.0
  0
ARC
  5
7612
330
75EC
100
AcDbEntity
  8
0
  6
Continuous
 62
     7
370
    15
100
AcDbCircle
 10
277.6321479452055
 20
113.712290410959
 30
0.0
 40
1.0
100
AcDbArc
 50
269.9999999999976
 51
0.0000000000008142
  0
LINE
  5
7613
330
75EC
100
AcDbEntity
  8
0
  6
Continuous
 62
     7
370
    15
100
AcDbLine
 10
124.6321443093221
 20
113.7122906195752
 30
0.0
 11
124.6321443093221
 21
190.7122902023427
 31
0.0
  0
LINE
  5
7614
330
75EC
100
AcDbEntity
  8
0
  6
Continuous
 62
     7
370
    15
100
AcDbLine
 10
124.6321443093221
 20
190.7122902023427
 30
0.0
 11
125.6321463358801
 21
190.7122902023427
 31
0.0
  0
LINE
  5
7615
330
75EC
100
AcDbEntity
  8
0
  6
Continuous
 62
     7
370
    15
100
AcDbLine
 10
124.6321443093221
 20
113.7122906195752
 30
0.0
 11
125.6321463358801
 21
113.7122906195752
 31
0.0
  0
ARC
  5
7616
330
75EC
100
AcDbEntity
  8
0
  6
Continuous
 62
     7
370
    15
100
AcDbCircle
 10
129.6321479452055
 20
113.7122904109589
 30
0.0
 40
5.0
100
AcDbArc
 50
179.9999999999996
 51
270.0000000000015
  0
LINE
  5
7617
330
75EC
100
AcDbEntity
  8
0
  6
Continuous
 62
     7
370
    15
100
AcDbLine
 10
129.6321469915312
 20
108.7122916626565
 30
0.0
 11
129.6321469915312
 21
109.7122899639241
 31
0.0
  0
LINE
  5
7618
330
75EC
100
AcDbEntity
  8
0
  6
Continuous
 62
     7
370
    15
100
AcDbLine
 10
277.6321488988799
 20
109.7122899639241
 30
0.0
 11
277.6321488988799
 21
108.7122916626565
 31
0.0
  0
LINE
  5
7619
330
75EC
100
AcDbEntity
  8
0
  6
Continuous
 62
     7
370
    15
100
AcDbLine
 10
277.6321488988799
 20
108.7122916626565
 30
0.0
 11
129.6321469915312
 21
108.7122916626565
 31
0.0
  0
LINE
  5
761A
330
75EC
100
AcDbEntity
  8
0
  6
Continuous
 62
     7
370
    15
100
AcDbLine
 10
281.6321495545309
 20
113.7122906195752
 30
0.0
 11
282.6321515810889
 21
113.7122906195752
 31
0.0
  0
ARC
  5
761B
330
75EC
100
AcDbEntity
  8
0
  6
Continuous
 62
     7
370
    15
100
AcDbCircle
 10
277.6321479452055
 20
113.712290410959
 30
0.0
 40
5.0
100
AcDbArc
 50
270.0000000000002
 51
0.0000000000004885
  0
LINE
  5
761C
330
75EC
100
AcDbEntity
  8
0
  6
Continuous
 62
     7
370
    15
100
AcDbLine
 10
281.6321495545309
 20
190.7122902023427
 30
0.0
 11
282.6321515810889
 21
190.7122902023427
 31
0.0
  0
LINE
  5
761D
330
75EC
100
AcDbEntity
  8
0
  6
Continuous
 62
     7
370
    15
100
AcDbLine
 10
282.6321515810889
 20
190.7122902023427
 30
0.0
 11
282.6321515810889
 21
113.7122906195752
 31
0.0
  0
LINE
  5
761E
330
75EC
100
AcDbEntity
  8
0
  6
Continuous
 62
     7
370
    15
100
AcDbLine
 10
277.6321488988799
 20
194.7122908579938
 30
0.0
 11
277.6321488988799
 21
195.7122891592614
 31
0.0
  0
ARC
  5
761F
330
75EC
100
AcDbEntity
  8
0
  6
Continuous
 62
     7
370
    15
100
AcDbCircle
 10
277.6321479452055
 20
190.7122904109589
 30
0.0
 40
5.000000000000028
100
AcDbArc
 50
0.0000000000005089
 51
90.0
  0
LINE
  5
7620
330
75EC
100
AcDbEntity
  8
0
  6
Continuous
 62
     7
370
    15
100
AcDbLine
 10
129.6321469915312
 20
195.7122891592614
 30
0.0
 11
129.6321469915312
 21
194.7122908579938
 31
0.0
  0
LINE
  5
7621
330
75EC
100
AcDbEntity
  8
0
  6
Continuous
 62
     7
370
    15
100
AcDbLine
 10
129.6321469915312
 20
195.7122891592614
 30
0.0
 11
277.6321488988799
 21
195.7122891592614
 31
0.0
  0
ARC
  5
7622
330
75EC
100
AcDbEntity
  8
0
  6
Continuous
 62
     7
370
    15
100
AcDbCircle
 10
129.6321479452055
 20
190.7122904109589
 30
0.0
 40
5.000000000000028
100
AcDbArc
 50
89.99999999999934
 51
180.0000000000011
  0
LINE
  5
7623
330
75EC
100
AcDbEntity
  8
0
  6
Continuous
 62
     7
370
    15
100
AcDbLine
 10
254.8821474981707
 20
120.2122888910405
 30
0.0
 11
266.3821447265547
 21
120.2122888910405
 31
0.0
  0
LINE
  5
7624
330
75EC
100
AcDbEntity
  8
0
  6
Continuous
 62
     7
370
    15
100
AcDbLine
 10
254.8821474981707
 20
131.7122898447148
 30
0.0
 11
254.8821474981707
 21
120.2122888910405
 31
0.0
  0
LINE
  5
7625
330
75EC
100
AcDbEntity
  8
0
  6
Continuous
 62
     7
370
    15
100
AcDbLine
 10
266.3821447265547
 20
131.7122898447148
 30
0.0
 11
254.8821474981707
 21
131.7122898447148
 31
0.0
  0
LINE
  5
7626
330
75EC
100
AcDbEntity
  8
0
  6
Continuous
 62
     7
370
    15
100
AcDbLine
 10
266.3821447265547
 20
120.2122888910405
 30
0.0
 11
266.3821447265547
 21
131.7122898447148
 31
0.0
  0
ARC
  5
7627
330
75EC
100
AcDbEntity
  8
0
  6
Continuous
 62
     7
370
    15
100
AcDbCircle
 10
236.3821479452055
 20
109.2122904109589
 30
0.0
 40
1.0
100
AcDbArc
 50
210.0000000000007
 51
270.0000000000008
  0
LINE
  5
7628
330
75EC
100
AcDbEntity
  8
0
  6
Continuous
 62
     7
370
    15
100
AcDbLine
 10
248.77500344042
 20
108.7122916626565
 30
0.0
 11
247.9541096461218
 21
107.2388871955506
 31
0.0
  0
LINE
  5
7629
330
75EC
100
AcDbEntity
  8
0
  6
Continuous
 62
     7
370
    15
100
AcDbLine
 10
246.2069708478849
 20
106.2122903215519
 30
0.0
 11
234.5573231202763
 21
106.2122903215519
 31
0.0
  0
ARC
  5
762A
330
75EC
100
AcDbEntity
  8
0
  6
Continuous
 62
     7
370
    15
100
AcDbCircle
 10
234.5573234454987
 20
108.2122904109589
 30
0.0
 40
2.000000000000014
100
AcDbArc
 50
209.1240534947779
 51
270.0000000000008
  0
LINE
  5
762B
330
75EC
100
AcDbEntity
  8
0
  6
Continuous
 62
     7
370
    15
100
AcDbLine
 10
232.8101880473297
 20
107.2388871955506
 30
0.0
 11
231.9892905277412
 21
108.7122916626565
 31
0.0
  0
LINE
  5
762C
330
75EC
100
AcDbEntity
  8
0
  6
Continuous
 62
     7
370
    15
100
AcDbLine
 10
244.3821485710543
 20
108.2122906493775
 30
0.0
 11
236.3821472597521
 21
108.2122906493775
 31
0.0
  0
ARC
  5
762D
330
75EC
100
AcDbEntity
  8
0
  6
Continuous
 62
     7
370
    15
100
AcDbCircle
 10
244.3821479452055
 20
109.2122904109589
 30
0.0
 40
1.000000000000001
100
AcDbArc
 50
270.0000000000008
 51
330.0000000000018
  0
ARC
  5
762E
330
75EC
100
AcDbEntity
  8
0
  6
Continuous
 62
     7
370
    15
100
AcDbCircle
 10
246.2069724449123
 20
108.2122904109589
 30
0.0
 40
2.000000000000014
100
AcDbArc
 50
270.0000000000008
 51
330.8759465052233
  0
LINE
  5
762F
330
75EC
100
AcDbEntity
  8
0
  6
Continuous
 62
     7
370
    15
100
AcDbLine
 10
170.8821486306589
 20
108.2122906493775
 30
0.0
 11
162.8821473193567
 21
108.2122906493775
 31
0.0
  0
ARC
  5
7630
330
75EC
100
AcDbEntity
  8
0
  6
Continuous
 62
     7
370
    15
100
AcDbCircle
 10
170.8821479452055
 20
109.2122904109589
 30
0.0
 40
1.000000000000008
100
AcDbArc
 50
270.0000000000008
 51
330.0000000000011
  0
ARC
  5
7631
330
75EC
100
AcDbEntity
  8
0
  6
Continuous
 62
     7
370
    15
100
AcDbCircle
 10
162.8821479452055
 20
109.2122904109589
 30
0.0
 40
1.000000000000008
100
AcDbArc
 50
210.0000000000005
 51
270.0000000000008
  0
LINE
  5
7632
330
75EC
100
AcDbEntity
  8
0
  6
Continuous
 62
     7
370
    15
100
AcDbLine
 10
172.7069727701347
 20
106.2122903215519
 30
0.0
 11
161.057325042526
 21
106.2122903215519
 31
0.0
  0
ARC
  5
7633
330
75EC
100
AcDbEntity
  8
0
  6
Continuous
 62
     7
370
    15
100
AcDbCircle
 10
161.0573234454987
 20
108.2122904109589
 30
0.0
 40
2.0
100
AcDbArc
 50
209.1240534947783
 51
270.0000000000008
  0
ARC
  5
7634
330
75EC
100
AcDbEntity
  8
0
  6
Continuous
 62
     7
370
    15
100
AcDbCircle
 10
172.7069724449122
 20
108.2122904109589
 30
0.0
 40
2.000000000000014
100
AcDbArc
 50
270.0000000000008
 51
330.8759465052237
  0
LINE
  5
7635
330
75EC
100
AcDbEntity
  8
0
  6
Continuous
 62
     7
370
    15
100
AcDbLine
 10
175.2750053626697
 20
108.7122916626565
 30
0.0
 11
174.4541078430813
 21
107.2388871955506
 31
0.0
  0
LINE
  5
7636
330
75EC
100
AcDbEntity
  8
0
  6
Continuous
 62
     7
370
    15
100
AcDbLine
 10
159.3101862442892
 20
107.2388871955506
 30
0.0
 11
158.489292449991
 21
108.7122916626565
 31
0.0
  0
LINE
  5
7637
330
75EC
100
AcDbEntity
  8
0
  6
Continuous
 62
     7
370
    15
100
AcDbLine
 10
333.8474301369863
 20
108.7122916626565
 30
0.0
 11
333.8474301369863
 21
113.7122906195752
 31
0.0
  0
LINE
  5
7638
330
75EC
100
AcDbEntity
  8
0
  6
Continuous
 62
     7
370
    15
100
AcDbLine
 10
328.3474301667886
 20
108.7122916626565
 30
0.0
 11
333.8474301369863
 21
108.7122916626565
 31
0.0
  0
LINE
  5
7639
330
75EC
100
AcDbEntity
  8
0
  6
Continuous
 62
     7
370
    15
100
AcDbLine
 10
328.3474301667886
 20
113.7122906195752
 30
0.0
 11
328.3474301667886
 21
108.7122916626565
 31
0.0
  0
LINE
  5
763A
330
75EC
100
AcDbEntity
  8
0
  6
Continuous
 62
     7
370
    15
100
AcDbLine
 10
328.3474301667886
 20
113.7122906195752
 30
0.0
 11
333.8474301369863
 21
113.7122906195752
 31
0.0
  0
LINE
  5
763B
330
75EC
100
AcDbEntity
  8
0
  6
Continuous
 62
     7
370
    15
100
AcDbLine
 10
333.8474301369863
 20
113.7122906195752
 30
0.0
 11
333.8474301369863
 21
190.7122902023427
 31
0.0
  0
LINE
  5
763C
330
75EC
100
AcDbEntity
  8
0
  6
Continuous
 62
     7
370
    15
100
AcDbLine
 10
328.3474301667886
 20
190.7122902023427
 30
0.0
 11
328.3474301667886
 21
113.7122906195752
 31
0.0
  0
LINE
  5
763D
330
75EC
100
AcDbEntity
  8
0
  6
Continuous
 62
     7
370
    15
100
AcDbLine
 10
328.3474301667886
 20
190.7122902023427
 30
0.0
 11
333.8474301369863
 21
190.7122902023427
 31
0.0
  0
LINE
  5
763E
330
75EC
100
AcDbEntity
  8
0
  6
Continuous
 62
     7
370
    15
100
AcDbLine
 10
327.3474300028758
 20
109.7122899639241
 30
0.0
 11
327.3474300028758
 21
113.7122906195752
 31
0.0
  0
LINE
  5
763F
330
75EC
100
AcDbEntity
  8
0
  6
Continuous
 62
     7
370
    15
100
AcDbLine
 10
327.3474300028758
 20
113.7122906195752
 30
0.0
 11
328.3474301667886
 21
113.7122906195752
 31
0.0
  0
ARC
  5
7640
330
75EC
100
AcDbEntity
  8
0
  6
Continuous
 62
     7
370
    15
100
AcDbCircle
 10
328.3474301369863
 20
109.712290410959
 30
0.0
 40
1.000000000000014
100
AcDbArc
 50
179.9999999999992
 51
270.0000000000008
  0
LINE
  5
7641
330
75EC
100
AcDbEntity
  8
0
  6
Continuous
 62
     7
370
    15
100
AcDbLine
 10
327.3474300028758
 20
113.7122906195752
 30
0.0
 11
327.3474300028758
 21
190.7122902023427
 31
0.0
  0
LINE
  5
7642
330
75EC
100
AcDbEntity
  8
0
  6
Continuous
 62
     7
370
    15
100
AcDbLine
 10
327.3474300028758
 20
190.7122902023427
 30
0.0
 11
328.3474301667886
 21
190.7122902023427
 31
0.0
  0
LINE
  5
7643
330
75EC
100
AcDbEntity
  8
0
  6
Continuous
 62
     7
370
    15
100
AcDbLine
 10
328.3474301667886
 20
195.7122891592614
 30
0.0
 11
328.3474301667886
 21
190.7122902023427
 31
0.0
  0
LINE
  5
7644
330
75EC
100
AcDbEntity
  8
0
  6
Continuous
 62
     7
370
    15
100
AcDbLine
 10
328.3474301667886
 20
195.7122891592614
 30
0.0
 11
333.8474301369863
 21
195.7122891592614
 31
0.0
  0
LINE
  5
7645
330
75EC
100
AcDbEntity
  8
0
  6
Continuous
 62
     7
370
    15
100
AcDbLine
 10
333.8474301369863
 20
190.7122902023427
 30
0.0
 11
333.8474301369863
 21
195.7122891592614
 31
0.0
  0
LINE
  5
7646
330
75EC
100
AcDbEntity
  8
0
  6
Continuous
 62
     7
370
    15
100
AcDbLine
 10
327.3474300028758
 20
190.7122902023427
 30
0.0
 11
327.3474300028758
 21
194.7122908579938
 31
0.0
  0
ARC
  5
7647
330
75EC
100
AcDbEntity
  8
0
  6
Continuous
 62
     7
370
    15
100
AcDbCircle
 10
328.3474301369863
 20
194.712290410959
 30
0.0
 40
1.000000000000028
100
AcDbArc
 50
90.0
 51
179.9999999999992
  0
LINE
  5
7648
330
75EC
100
AcDbEntity
  8
0
  6
Continuous
 62
     7
370
    15
100
AcDbLine
 10
352.8474295260387
 20
146.7122904407613
 30
0.0
 11
352.8474295260387
 21
181.7122905897729
 31
0.0
  0
LINE
  5
7649
330
75EC
100
AcDbEntity
  8
0
  6
Continuous
 62
     7
370
    15
100
AcDbLine
 10
352.8474295260387
 20
146.7122904407613
 30
0.0
 11
356.347431031056
 21
146.7122904407613
 31
0.0
  0
LINE
  5
764A
330
75EC
100
AcDbEntity
  8
0
  6
Continuous
 62
     7
370
    15
100
AcDbLine
 10
356.347431031056
 20
115.7122909474008
 30
0.0
 11
356.347431031056
 21
146.7122904407613
 31
0.0
  0
LINE
  5
764B
330
75EC
100
AcDbEntity
  8
0
  6
Continuous
 62
     7
370
    15
100
AcDbLine
 10
341.3474299693482
 20
115.7122909474008
 30
0.0
 11
356.347431031056
 21
115.7122909474008
 31
0.0
  0
LINE
  5
764C
330
75EC
100
AcDbEntity
  8
0
  6
Continuous
 62
     7
370
    15
100
AcDbLine
 10
341.3474299693482
 20
188.7122898745171
 30
0.0
 11
341.3474299693482
 21
115.7122909474008
 31
0.0
  0
LINE
  5
764D
330
75EC
100
AcDbEntity
  8
0
  6
Continuous
 62
     7
370
    15
100
AcDbLine
 10
356.347431031056
 20
188.7122898745171
 30
0.0
 11
341.3474299693482
 21
188.7122898745171
 31
0.0
  0
LINE
  5
764E
330
75EC
100
AcDbEntity
  8
0
  6
Continuous
 62
     7
370
    15
100
AcDbLine
 10
356.347431031056
 20
181.7122905897729
 30
0.0
 11
356.347431031056
 21
188.7122898745171
 31
0.0
  0
LINE
  5
764F
330
75EC
100
AcDbEntity
  8
0
  6
Continuous
 62
     7
370
    15
100
AcDbLine
 10
356.347431031056
 20
181.7122905897729
 30
0.0
 11
352.8474295260387
 21
181.7122905897729
 31
0.0
  0
LINE
  5
7650
330
75EC
100
AcDbEntity
  8
0
  6
Continuous
 62
     7
370
    15
100
AcDbLine
 10
356.347431031056
 20
114.7122889208428
 30
0.0
 11
341.3474299693482
 21
114.7122889208428
 31
0.0
  0
LINE
  5
7651
330
75EC
100
AcDbEntity
  8
0
  6
Continuous
 62
     7
370
    15
100
AcDbLine
 10
341.3474299693482
 20
114.7122889208428
 30
0.0
 11
341.3474299693482
 21
115.7122909474008
 31
0.0
  0
LINE
  5
7652
330
75EC
100
AcDbEntity
  8
0
  6
Continuous
 62
     7
370
    15
100
AcDbLine
 10
356.347431031056
 20
115.7122909474008
 30
0.0
 11
356.347431031056
 21
114.7122889208428
 31
0.0
  0
LINE
  5
7653
330
75EC
100
AcDbEntity
  8
0
  6
Continuous
 62
     7
370
    15
100
AcDbLine
 10
341.3474299693482
 20
188.7122898745171
 30
0.0
 11
341.3474299693482
 21
189.7122919010751
 31
0.0
  0
LINE
  5
7654
330
75EC
100
AcDbEntity
  8
0
  6
Continuous
 62
     7
370
    15
100
AcDbLine
 10
341.3474299693482
 20
189.7122919010751
 30
0.0
 11
356.347431031056
 21
189.7122919010751
 31
0.0
  0
LINE
  5
7655
330
75EC
100
AcDbEntity
  8
0
  6
Continuous
 62
     7
370
    15
100
AcDbLine
 10
356.347431031056
 20
189.7122919010751
 30
0.0
 11
356.347431031056
 21
188.7122898745171
 31
0.0
  0
LINE
  5
7656
330
75EC
100
AcDbEntity
  8
0
  6
Continuous
 62
     7
370
    15
100
AcDbLine
 10
340.3474302710967
 20
114.7122889208428
 30
0.0
 11
333.8474301369863
 21
114.7122889208428
 31
0.0
  0
LINE
  5
7657
330
75EC
100
AcDbEntity
  8
0
  6
Continuous
 62
     7
370
    15
100
AcDbLine
 10
340.3474302710967
 20
115.7122909474008
 30
0.0
 11
340.3474302710967
 21
114.7122889208428
 31
0.0
  0
LINE
  5
7658
330
75EC
100
AcDbEntity
  8
0
  6
Continuous
 62
     7
370
    15
100
AcDbLine
 10
340.3474302710967
 20
188.7122898745171
 30
0.0
 11
340.3474302710967
 21
115.7122909474008
 31
0.0
  0
LINE
  5
7659
330
75EC
100
AcDbEntity
  8
0
  6
Continuous
 62
     7
370
    15
100
AcDbLine
 10
333.8474301369863
 20
189.7122919010751
 30
0.0
 11
340.3474302710967
 21
189.7122919010751
 31
0.0
  0
LINE
  5
765A
330
75EC
100
AcDbEntity
  8
0
  6
Continuous
 62
     7
370
    15
100
AcDbLine
 10
340.3474302710967
 20
189.7122919010751
 30
0.0
 11
340.3474302710967
 21
188.7122898745171
 31
0.0
  0
LINE
  5
765B
330
75EC
100
AcDbEntity
  8
0
  6
Continuous
 62
     7
370
    15
100
AcDbLine
 10
340.3474302710967
 20
188.7122898745171
 30
0.0
 11
341.3474299693482
 21
188.7122898745171
 31
0.0
  0
LINE
  5
765C
330
75EC
100
AcDbEntity
  8
0
  6
Continuous
 62
     7
370
    15
100
AcDbLine
 10
340.3474302710967
 20
115.7122909474008
 30
0.0
 11
341.3474299693482
 21
115.7122909474008
 31
0.0
  0
LINE
  5
765D
330
75EC
100
AcDbEntity
  8
0
  6
Continuous
 62
     7
370
    15
100
AcDbLine
 10
327.1474303426224
 20
168.2122911709182
 30
0.0
 11
327.3474300028759
 21
168.2122911709182
 31
0.0
  0
LINE
  5
765E
330
75EC
100
AcDbEntity
  8
0
  6
Continuous
 62
     7
370
    15
100
AcDbLine
 10
327.1474303426224
 20
160.7122908728949
 30
0.0
 11
327.3474300028759
 21
160.7122908728949
 31
0.0
  0
LINE
  5
765F
330
75EC
100
AcDbEntity
  8
0
  6
Continuous
 62
     7
370
    15
100
AcDbLine
 10
327.1474303426224
 20
160.7122908728949
 30
0.0
 11
327.1474303426224
 21
168.2122911709182
 31
0.0
  0
LINE
  5
7660
330
75EC
100
AcDbEntity
  8
0
  6
Continuous
 62
     7
370
    15
100
AcDbLine
 10
327.1474303426224
 20
140.7122903886072
 30
0.0
 11
327.3474300028759
 21
140.7122903886072
 31
0.0
  0
LINE
  5
7661
330
75EC
100
AcDbEntity
  8
0
  6
Continuous
 62
     7
370
    15
100
AcDbLine
 10
327.1474303426224
 20
148.2122902209691
 30
0.0
 11
327.3474300028759
 21
148.2122902209691
 31
0.0
  0
LINE
  5
7662
330
75EC
100
AcDbEntity
  8
0
  6
Continuous
 62
     7
370
    15
100
AcDbLine
 10
327.1474303426224
 20
140.7122903886072
 30
0.0
 11
327.1474303426224
 21
148.2122902209691
 31
0.0
  0
LINE
  5
7663
330
75EC
100
AcDbEntity
  8
0
  6
Continuous
 62
     7
370
    15
100
AcDbLine
 10
340.347430271097
 20
114.7122889208428
 30
0.0
 11
341.3474299693485
 21
114.7122889208428
 31
0.0
  0
LINE
  5
7664
330
75EC
100
AcDbEntity
  8
0
  6
Continuous
 62
     7
370
    15
100
AcDbLine
 10
334.3474301607353
 20
114.7122889208428
 30
0.0
 11
334.8474301844841
 21
114.7122889208428
 31
0.0
  0
LINE
  5
7665
330
75EC
100
AcDbEntity
  8
0
  6
Continuous
 62
     7
370
    15
100
AcDbLine
 10
340.3474302710972
 20
114.7122889208428
 30
0.0
 11
341.3474299693487
 21
114.7122889208428
 31
0.0
  0
LINE
  5
7666
330
75EC
100
AcDbEntity
  8
0
  6
Continuous
 62
     7
370
    15
100
AcDbLine
 10
334.3474301607355
 20
114.7122889208428
 30
0.0
 11
334.8474301844842
 21
114.7122889208428
 31
0.0
  0
LINE
  5
7667
330
75EC
100
AcDbEntity
  8
0
  6
Continuous
 62
     7
370
    15
100
AcDbLine
 10
356.8474301816899
 20
113.2122896062963
 30
0.0
 11
353.3474305393178
 21
113.2122896062963
 31
0.0
  0
LINE
  5
7668
330
75EC
100
AcDbEntity
  8
0
  6
Continuous
 62
     7
370
    15
100
AcDbLine
 10
353.3474305393178
 20
149.7122904668383
 30
0.0
 11
353.3474305393178
 21
146.7122904407613
 31
0.0
  0
LINE
  5
7669
330
75EC
100
AcDbEntity
  8
0
  6
Continuous
 62
     7
370
    15
100
AcDbLine
 10
353.3474305393178
 20
114.7122889208428
 30
0.0
 11
353.3474305393178
 21
113.2122896062963
 31
0.0
  0
LINE
  5
766A
330
75EC
100
AcDbEntity
  8
0
  6
Continuous
 62
     7
370
    15
100
AcDbLine
 10
355.8474300177771
 20
149.7122904668383
 30
0.0
 11
353.3474305393178
 21
149.7122904668383
 31
0.0
  0
LINE
  5
766B
330
75EC
100
AcDbEntity
  8
0
  6
Continuous
 62
     7
370
    15
100
AcDbLine
 10
356.8474301816899
 20
145.7122902768485
 30
0.0
 11
356.8474301816899
 21
113.2122896062963
 31
0.0
  0
LINE
  5
766C
330
75EC
100
AcDbEntity
  8
0
  6
Continuous
 62
     7
370
    15
100
AcDbLine
 10
356.8474301816899
 20
145.7122902768485
 30
0.0
 11
355.8474300177771
 21
149.7122904668383
 31
0.0
  0
LINE
  5
766D
330
75EC
100
AcDbEntity
  8
0
  6
Continuous
 62
     7
370
    15
100
AcDbLine
 10
356.8474301816899
 20
107.2388871955506
 30
0.0
 11
353.3474305393178
 21
107.2388871955506
 31
0.0
  0
LINE
  5
766E
330
75EC
100
AcDbEntity
  8
0
  6
Continuous
 62
     7
370
    15
100
AcDbLine
 10
353.3474305393178
 20
113.2122896062963
 30
0.0
 11
353.3474305393178
 21
107.2388871955506
 31
0.0
  0
LINE
  5
766F
330
75EC
100
AcDbEntity
  8
0
  6
Continuous
 62
     7
370
    15
100
AcDbLine
 10
356.8474301816899
 20
113.2122896062963
 30
0.0
 11
356.8474301816899
 21
107.2388871955506
 31
0.0
  0
LINE
  5
7670
330
75EC
100
AcDbEntity
  8
0
  6
Continuous
 62
     7
370
    15
100
AcDbLine
 10
356.8474301816899
 20
106.212290321552
 30
0.0
 11
353.3474305393178
 21
106.212290321552
 31
0.0
  0
LINE
  5
7671
330
75EC
100
AcDbEntity
  8
0
  6
Continuous
 62
     7
370
    15
100
AcDbLine
 10
353.3474305393178
 20
107.2388871955506
 30
0.0
 11
353.3474305393178
 21
106.212290321552
 31
0.0
  0
LINE
  5
7672
330
75EC
100
AcDbEntity
  8
0
  6
Continuous
 62
     7
370
    15
100
AcDbLine
 10
356.8474301816899
 20
107.2388871955506
 30
0.0
 11
356.8474301816899
 21
106.212290321552
 31
0.0
  0
LINE
  5
7673
330
75EC
100
AcDbEntity
  8
0
  6
Continuous
 62
     7
370
    15
100
AcDbLine
 10
333.8474301369863
 20
115.7122909474008
 30
0.0
 11
340.3474302710967
 21
115.7122909474008
 31
0.0
  0
LINE
  5
7674
330
75EC
100
AcDbEntity
  8
0
  6
Continuous
 62
     7
370
    15
100
AcDbLine
 10
340.3474302710967
 20
188.7122898745171
 30
0.0
 11
333.8474301369863
 21
188.7122898745171
 31
0.0
  0
ENDBLK
  5
7676
330
75EC
100
AcDbEntity
  8
0
100
AcDbBlockEnd
  0
BLOCK
  5
776C
330
7762
100
AcDbEntity
  8
0
100
AcDbBlockBegin
  2
*D38
 70
     1
 10
0.0
 20
0.0
 30
0.0
  3
*D38
  1

  0
LINE
  5
7770
330
7762
100
AcDbEntity
  8
AM_5
100
AcDbLine
 10
2221.124116541378
 20
1312.753582610894
 30
0.0
 11
2233.624116541378
 21
1312.753582610894
 31
0.0
  0
LINE
  5
7771
330
7762
100
AcDbEntity
  8
AM_5
100
AcDbLine
 10
2221.124116541378
 20
1237.753579630662
 30
0.0
 11
2233.624116541378
 21
1237.753579630662
 31
0.0
  0
LINE
  5
7772
330
7762
100
AcDbEntity
  8
AM_5
100
AcDbLine
 10
2232.124116541378
 20
1309.753582610895
 30
0.0
 11
2232.124116541378
 21
1240.753579630662
 31
0.0
  0
SOLID
  5
7773
330
7762
100
AcDbEntity
  8
AM_5
100
AcDbTrace
 10
2231.624116541377
 20
1309.753582610895
 30
0.0
 11
2232.624116541378
 21
1309.753582610895
 31
0.0
 12
2232.124116541378
 22
1312.753582610894
 32
0.0
 13
2232.124116541378
 23
1312.753582610894
 33
0.0
  0
SOLID
  5
7774
330
7762
100
AcDbEntity
  8
AM_5
100
AcDbTrace
 10
2231.624116541377
 20
1240.753579630662
 30
0.0
 11
2232.624116541378
 21
1240.753579630662
 31
0.0
 12
2232.124116541378
 22
1237.753579630662
 32
0.0
 13
2232.124116541378
 23
1237.753579630662
 33
0.0
  0
MTEXT
  5
7775
330
7762
100
AcDbEntity
  8
AM_5
100
AcDbMText
 10
2229.624116541377
 20
1275.253581120779
 30
0.0
 40
3.0
 41
0.0
 71
     5
 72
     1
  1
75
 11
0.0000000000000001
 21
1.0
 31
0.0
 73
     1
 44
1.0
1001
ACAD
1000
MTEXTBEGIN
1070
    73
1070
     1
1070
    44
1040
1.0
1070
    74
1070
     0
1000
MTEXTEND
  0
POINT
  5
7776
330
7762
100
AcDbEntity
  8
Defpoints
 62
     0
100
AcDbPoint
 10
2220.124116541378
 20
1312.753582610894
 30
0.0
  0
POINT
  5
7777
330
7762
100
AcDbEntity
  8
Defpoints
 62
     0
100
AcDbPoint
 10
2220.124116541378
 20
1237.753579630662
 30
0.0
  0
POINT
  5
7778
330
7762
100
AcDbEntity
  8
Defpoints
 62
     0
100
AcDbPoint
 10
2232.124116541378
 20
1237.753579630662
 30
0.0
  0
ENDBLK
  5
776D
330
7762
100
AcDbEntity
  8
0
100
AcDbBlockEnd
  0
BLOCK
  5
77B2
330
77A6
100
AcDbEntity
  8
0
100
AcDbBlockBegin
  2
*D39
 70
     1
 10
0.0
 20
0.0
 30
0.0
  3
*D39
  1

  0
LINE
  5
77CF
330
77A6
100
AcDbEntity
  8
AM_5
100
AcDbLine
 10
2110.983656358206
 20
1229.253581031371
 30
0.0
 11
2160.988736750939
 21
1229.253581031371
 31
0.0
  0
LINE
  5
77D0
330
77A6
100
AcDbEntity
  8
AM_5
100
AcDbLine
 10
2142.408833455527
 20
1231.753581120778
 30
0.0
 11
2160.988736750939
 21
1231.753581120778
 31
0.0
  0
LINE
  5
77D1
330
77A6
100
AcDbEntity
  8
AM_5
100
AcDbLine
 10
2159.488736750938
 20
1234.753581120778
 30
0.0
 11
2159.488736750938
 21
1237.753581120778
 31
0.0
  0
LINE
  5
77D2
330
77A6
100
AcDbEntity
  8
AM_5
100
AcDbLine
 10
2159.488736750938
 20
1226.253581031371
 30
0.0
 11
2159.488736750938
 21
1216.265411081419
 31
0.0
  0
LINE
  5
77D3
330
77A6
100
AcDbEntity
  8
AM_5
100
AcDbLine
 10
2159.488736750938
 20
1231.753581120778
 30
0.0
 11
2159.488736750938
 21
1229.253581031371
 31
0.0
  0
SOLID
  5
77D4
330
77A6
100
AcDbEntity
  8
AM_5
100
AcDbTrace
 10
2158.988736750938
 20
1234.753581120778
 30
0.0
 11
2159.988736750938
 21
1234.753581120778
 31
0.0
 12
2159.488736750938
 22
1231.753581120778
 32
0.0
 13
2159.488736750938
 23
1231.753581120778
 33
0.0
  0
SOLID
  5
77D5
330
77A6
100
AcDbEntity
  8
AM_5
100
AcDbTrace
 10
2158.988736750938
 20
1226.253581031371
 30
0.0
 11
2159.988736750938
 21
1226.253581031371
 31
0.0
 12
2159.488736750938
 22
1229.253581031371
 32
0.0
 13
2159.488736750938
 23
1229.253581031371
 33
0.0
  0
MTEXT
  5
77D6
330
77A6
100
AcDbEntity
  8
AM_5
100
AcDbMText
 10
2156.988441475347
 20
1219.465633666956
 30
0.0
 40
3.0
 41
0.0
 71
     5
 72
     1
  1
2.5
 11
0.0000000000000001
 21
1.0
 31
0.0
 73
     1
 44
1.0
1001
ACAD
1000
MTEXTBEGIN
1070
    73
1070
     1
1070
    44
1040
1.0
1070
    74
1070
     0
1000
MTEXTEND
  0
POINT
  5
77D7
330
77A6
100
AcDbEntity
  8
Defpoints
 62
     0
100
AcDbPoint
 10
2109.983656358206
 20
1229.253581031371
 30
0.0
  0
POINT
  5
77D8
330
77A6
100
AcDbEntity
  8
Defpoints
 62
     0
100
AcDbPoint
 10
2141.408833455527
 20
1231.753581120778
 30
0.0
  0
POINT
  5
77D9
330
77A6
100
AcDbEntity
  8
Defpoints
 62
     0
100
AcDbPoint
 10
2159.488736750938
 20
1231.753581120778
 30
0.0
  0
ENDBLK
  5
77B3
330
77A6
100
AcDbEntity
  8
0
100
AcDbBlockEnd
  0
BLOCK
  5
77F6
330
77EA
100
AcDbEntity
  8
0
100
AcDbBlockBegin
  2
*D40
 70
     1
 10
0.0
 20
0.0
 30
0.0
  3
*D40
  1

  0
LINE
  5
77FA
330
77EA
100
AcDbEntity
  8
AM_5
100
AcDbLine
 10
2197.624115647308
 20
1319.753579869081
 30
0.0
 11
2197.624115647308
 21
1333.556334085379
 31
0.0
  0
LINE
  5
77FB
330
77EA
100
AcDbEntity
  8
AM_5
100
AcDbLine
 10
2191.124115647308
 20
1318.753581120778
 30
0.0
 11
2191.124115647308
 21
1333.556334085379
 31
0.0
  0
LINE
  5
77FC
330
77EA
100
AcDbEntity
  8
AM_5
100
AcDbLine
 10
2200.624115647308
 20
1332.056334085379
 30
0.0
 11
2203.624115647308
 21
1332.056334085379
 31
0.0
  0
LINE
  5
77FD
330
77EA
100
AcDbEntity
  8
AM_5
100
AcDbLine
 10
2188.124115647308
 20
1332.056334085379
 30
0.0
 11
2178.620324019541
 21
1332.056334085379
 31
0.0
  0
LINE
  5
77FE
330
77EA
100
AcDbEntity
  8
AM_5
100
AcDbLine
 10
2197.624115647308
 20
1332.056334085379
 30
0.0
 11
2191.124115647308
 21
1332.056334085379
 31
0.0
  0
SOLID
  5
77FF
330
77EA
100
AcDbEntity
  8
AM_5
100
AcDbTrace
 10
2200.624115647308
 20
1332.556334085379
 30
0.0
 11
2200.624115647308
 21
1331.556334085379
 31
0.0
 12
2197.624115647308
 22
1332.056334085379
 32
0.0
 13
2197.624115647308
 23
1332.056334085379
 33
0.0
  0
SOLID
  5
7800
330
77EA
100
AcDbEntity
  8
AM_5
100
AcDbTrace
 10
2188.124115647308
 20
1332.556334085379
 30
0.0
 11
2188.124115647308
 21
1331.556334085379
 31
0.0
 12
2191.124115647308
 22
1332.056334085379
 32
0.0
 13
2191.124115647308
 23
1332.056334085379
 33
0.0
  0
MTEXT
  5
7801
330
77EA
100
AcDbEntity
  8
AM_5
100
AcDbMText
 10
2181.872219833425
 20
1334.55633408538
 30
0.0
 40
3.0
 41
0.0
 71
     5
 72
     1
  1
6.5
 73
     1
 44
1.0
1001
ACAD
1000
MTEXTBEGIN
1070
    73
1070
     1
1070
    44
1040
1.0
1070
    74
1070
     0
1000
MTEXTEND
  0
POINT
  5
7802
330
77EA
100
AcDbEntity
  8
Defpoints
 62
     0
100
AcDbPoint
 10
2197.624115647308
 20
1318.753579869081
 30
0.0
  0
POINT
  5
7803
330
77EA
100
AcDbEntity
  8
Defpoints
 62
     0
100
AcDbPoint
 10
2191.124115647308
 20
1317.753581120779
 30
0.0
  0
POINT
  5
7804
330
77EA
100
AcDbEntity
  8
Defpoints
 62
     0
100
AcDbPoint
 10
2191.124115647308
 20
1332.056334085379
 30
0.0
  0
ENDBLK
  5
77F7
330
77EA
100
AcDbEntity
  8
0
100
AcDbBlockEnd
  0
BLOCK
  5
7825
330
7819
100
AcDbEntity
  8
0
100
AcDbBlockBegin
  2
*D41
 70
     1
 10
0.0
 20
0.0
 30
0.0
  3
*D41
  1

  0
LINE
  5
7829
330
7819
100
AcDbEntity
  8
AM_5
100
AcDbLine
 10
2220.624115692011
 20
1228.253581031371
 30
0.0
 11
2220.624115692011
 21
1223.88062330398
 31
0.0
  0
LINE
  5
782A
330
7819
100
AcDbEntity
  8
AM_5
100
AcDbLine
 10
2217.124116049639
 20
1228.253581031371
 30
0.0
 11
2217.124116049639
 21
1223.88062330398
 31
0.0
  0
LINE
  5
782B
330
7819
100
AcDbEntity
  8
AM_5
100
AcDbLine
 10
2223.624115692012
 20
1225.38062330398
 30
0.0
 11
2226.624115692011
 21
1225.38062330398
 31
0.0
  0
LINE
  5
782C
330
7819
100
AcDbEntity
  8
AM_5
100
AcDbLine
 10
2214.124116049639
 20
1225.38062330398
 30
0.0
 11
2204.799851980927
 21
1225.38062330398
 31
0.0
  0
LINE
  5
782D
330
7819
100
AcDbEntity
  8
AM_5
100
AcDbLine
 10
2220.624115692011
 20
1225.38062330398
 30
0.0
 11
2217.124116049639
 21
1225.38062330398
 31
0.0
  0
SOLID
  5
782E
330
7819
100
AcDbEntity
  8
AM_5
100
AcDbTrace
 10
2223.624115692012
 20
1225.88062330398
 30
0.0
 11
2223.624115692012
 21
1224.88062330398
 31
0.0
 12
2220.624115692011
 22
1225.38062330398
 32
0.0
 13
2220.624115692011
 23
1225.38062330398
 33
0.0
  0
SOLID
  5
782F
330
7819
100
AcDbEntity
  8
AM_5
100
AcDbTrace
 10
2214.124116049639
 20
1225.88062330398
 30
0.0
 11
2214.124116049639
 21
1224.88062330398
 31
0.0
 12
2217.124116049639
 22
1225.38062330398
 32
0.0
 13
2217.124116049639
 23
1225.38062330398
 33
0.0
  0
MTEXT
  5
7830
330
7819
100
AcDbEntity
  8
AM_5
100
AcDbMText
 10
2207.961984015283
 20
1227.88062330398
 30
0.0
 40
3.0
 41
0.0
 71
     5
 72
     1
  1
3.5
 73
     1
 44
1.0
1001
ACAD
1000
MTEXTBEGIN
1070
    73
1070
     1
1070
    44
1040
1.0
1070
    74
1070
     0
1000
MTEXTEND
  0
POINT
  5
7831
330
7819
100
AcDbEntity
  8
Defpoints
 62
     0
100
AcDbPoint
 10
2220.624115692011
 20
1229.253581031371
 30
0.0
  0
POINT
  5
7832
330
7819
100
AcDbEntity
  8
Defpoints
 62
     0
100
AcDbPoint
 10
2217.124116049639
 20
1229.253581031371
 30
0.0
  0
POINT
  5
7833
330
7819
100
AcDbEntity
  8
Defpoints
 62
     0
100
AcDbPoint
 10
2217.124116049639
 20
1225.38062330398
 30
0.0
  0
ENDBLK
  5
7826
330
7819
100
AcDbEntity
  8
0
100
AcDbBlockEnd
  0
ENDSEC
  0
SECTION
  2
ENTITIES
  0
LWPOLYLINE
  5
DB0
330
1F
100
AcDbEntity
  8
0
 62
     4
100
AcDbPolyline
 90
        4
 70
     0
 43
0.0
 10
1960.579553207196
 20
1385.224513536883
 10
1960.579553207196
 20
1170.329262928013
 10
2252.794254745644
 20
1170.329262928013
 10
2252.794254745644
 20
1385.224513536883
1001
GENIUS_GENREC_14
1002
{
1000
PYDIR
1011
1985.701809933031
1021
1656.352443461824
1031
0.0
1002
}
1002
{
1000
PXDIR
1011
2252.794254745644
1021
1170.329262928013
1031
0.0
1002
}
1002
{
1000
PORI
1011
1960.579553207196
1021
1170.329262928013
1031
0.0
1002
}
1002
{
1000
PINS
1011
1960.579553207196
1021
1170.329262928013
1031
0.0
1002
}
1002
{
1000
PINS2
1011
2355.041229847794
1021
1656.352443461824
1031
0.0
1002
}
1002
{
1000
C
1070
     1
1002
}
1001
GENIUS_GENODEF_13
1002
{
1000
HIER
1070
     0
1002
}
1002
{
1000
MANEDIT
1070
     0
1002
}
1002
{
1000
NOSEL
1070
     0
1002
}
1002
{
1000
BEHIND
1070
     0
1002
}
1002
{
1000
OTHER
1070
     0
1002
}
1002
{
1000
REACTOR
1002
}
1001
GENIUS_GENOBJ-N-REC_13
1002
{
1000
OWNER
1000
GEN
1002
}
  0
LINE
  5
DEE
330
1F
100
AcDbEntity
  8
LOGO
 62
     4
100
AcDbLine
 10
2112.655575849585
 20
1141.345502828248
 30
0.0
 11
2091.571952701476
 21
1141.345502828248
 31
0.0
  0
LINE
  5
DEF
330
1F
100
AcDbEntity
  8
LOGO
 62
     4
100
AcDbLine
 10
2112.655575849585
 20
1152.941495559709
 30
0.0
 11
2091.571952701476
 21
1152.941495559709
 31
0.0
  0
LINE
  5
DF0
330
1F
100
AcDbEntity
  8
LOGO
 62
     4
100
AcDbLine
 10
2130.586324906359
 20
1157.685310768033
 30
0.0
 11
2073.6412036447
 21
1157.685310768033
 31
0.0
  0
LINE
  5
DF1
330
1F
100
AcDbEntity
  8
LOGO
 62
     4
100
AcDbLine
 10
2130.586324906359
 20
1167.172941184683
 30
0.0
 11
2073.6412036447
 21
1167.172941184683
 31
0.0
  0
TEXT
  5
DF2
330
1F
100
AcDbEntity
  8
LOGO
  6
Continuous
 62
     7
100
AcDbText
 10
2091.565130675279
 20
1159.662165976358
 30
0.0
 40
5.53392
  1
MATP
  7
CHINESET
 72
     1
 11
2101.842410675278
 21
1162.429125976358
 31
0.0
100
AcDbText
 73
     2
  0
LINE
  5
DF3
330
1F
100
AcDbEntity
  8
LOGO
 62
     4
100
AcDbLine
 10
2073.6412036447
 20
1167.172941184683
 30
0.0
 11
2073.6412036447
 21
1157.685310768033
 31
0.0
  0
LINE
  5
DF4
330
1F
100
AcDbEntity
  8
LOGO
 62
     4
100
AcDbLine
 10
2091.571952701476
 20
1152.941495559709
 30
0.0
 11
2091.571952701476
 21
1141.345502828248
 31
0.0
  0
TEXT
  5
DF5
330
1F
100
AcDbEntity
  8
LOGO
  6
Continuous
100
AcDbText
 10
2098.499775704101
 20
1142.795115721762
 30
207.2678891830533
 40
2.37168
  1
Model
 41
0.8
  7
CHINESET
 72
     4
 11
2102.113764275529
 21
1143.980955721762
 31
207.2678891830533
100
AcDbText
  0
TEXT
  5
DF6
330
1F
100
AcDbEntity
  8
LOGO
100
AcDbText
 10
2098.16096427553
 20
1147.376615839498
 30
207.2678891830533
 40
3.9528
  1
型式
  7
CHINESET
 72
     4
 11
2102.113764275529
 21
1149.25186150879
 31
207.2678891830533
100
AcDbText
  0
LINE
  5
DF7
330
1F
100
AcDbEntity
  8
LOGO
 62
     4
100
AcDbLine
 10
2102.113764275529
 20
1157.685310768033
 30
0.0
 11
2102.113764275529
 21
1152.941495559709
 31
0.0
  0
LINE
  5
E00
330
1F
100
AcDbEntity
  8
LOGO
 62
     4
100
AcDbLine
 10
2112.655575849585
 20
1152.941495559709
 30
0.0
 11
2112.655575849585
 21
1141.345502828248
 31
0.0
  0
LINE
  5
E0E
330
1F
100
AcDbEntity
  8
LOGO
 62
     4
100
AcDbLine
 10
2130.586324906359
 20
1167.172941184683
 30
0.0
 11
2130.586324906359
 21
1157.685310768033
 31
0.0
  0
LINE
  5
E21
330
1F
100
AcDbEntity
  8
0
 62
     4
100
AcDbLine
 10
1960.579553207196
 20
1385.224513536883
 30
0.0
 11
2252.794254745644
 21
1385.224513536883
 31
0.0
  0
LWPOLYLINE
  5
4C8F
330
1F
100
AcDbEntity
  8
LOGO
 62
     4
100
AcDbPolyline
 90
        4
 70
     1
 43
0.0
 10
1960.579553207196
 20
1170.329262928013
 10
2252.794254745644
 20
1170.329262928013
 10
2252.794254745644
 20
1138.711441737062
 10
1960.579553207196
 20
1138.711441737062
1001
GENIUS_GENREC_14
1002
{
1000
PYDIR
1011
1960.579553207196
1021
1138.711441737062
1031
0.0
1002
}
1002
{
1000
PXDIR
1011
2252.794254745644
1021
1170.329262928013
1031
0.0
1002
}
1002
{
1000
PORI
1011
1960.579553207196
1021
1170.329262928013
1031
0.0
1002
}
1002
{
1000
PINS
1011
1960.579553207196
1021
1170.329262928013
1031
0.0
1002
}
1002
{
1000
PINS2
1011
2252.794254745644
1021
1138.711441737062
1031
0.0
1002
}
1002
{
1000
C
1070
     1
1002
}
1001
GENIUS_GENOBJ-N-REC_13
1002
{
1000
OWNER
1000
GEN
1002
}
1001
GENIUS_GENODEF_13
1002
{
1000
HIER
1070
     0
1002
}
1002
{
1000
MANEDIT
1070
     0
1002
}
1002
{
1000
NOSEL
1070
     0
1002
}
1002
{
1000
BEHIND
1070
     0
1002
}
1002
{
1000
OTHER
1070
     0
1002
}
1002
{
1000
REACTOR
1002
}
  0
TEXT
  5
4C90
330
1F
100
AcDbEntity
  8
LOGO
 62
     7
100
AcDbText
 10
2031.97049990048
 20
1156.478033487459
 30
0.0
 40
4.215709492126697
  1
Order example:
 41
0.8
  7
CHINESET
100
AcDbText
  0
TEXT
  5
4C91
330
1F
100
AcDbEntity
  8
LOGO
 62
     7
100
AcDbText
 10
2032.726833045867
 20
1162.412879578586
 30
0.0
 40
6.323564238190045
  1
訂購代號：
  7
CHINESET
100
AcDbText
  0
LINE
  5
4C92
330
1F
100
AcDbEntity
  8
LOGO
 62
     4
100
AcDbLine
 10
2030.138759827287
 20
1138.711441737063
 30
0.0
 11
2030.138759827287
 21
1170.329262928013
 31
0.0
  0
TEXT
  5
4C93
330
1F
100
AcDbEntity
  8
LOGO
  6
Continuous
100
AcDbText
 10
1971.936816703842
 20
1144.922714994573
 30
0.0
 40
4.742673178642534
  1
金器工業股份有限公司
  7
CHINESET
100
AcDbText
  0
TEXT
  5
4C94
330
1F
100
AcDbEntity
  8
LOGO
  6
Continuous
100
AcDbText
 10
1963.225464366292
 20
1140.179112623827
 30
0.0
 40
3.161782119095022
  1
MINDMAN INDUSTRIAL CO., LTD.
 41
0.85
  7
CHINESET
100
AcDbText
  0
LINE
  5
4C95
330
1F
100
AcDbEntity
  8
LOGO
 62
     4
100
AcDbLine
 10
2030.138759827287
 20
1164.005698689823
 30
0.0
 11
1983.765955413892
 21
1164.005698689823
 31
0.0
  0
LINE
  5
4C96
330
1F
100
AcDbEntity
  8
LOGO
 62
     4
100
AcDbLine
 10
2030.138759827287
 20
1157.682134451633
 30
0.0
 11
1983.765955413892
 21
1157.682134451633
 31
0.0
  0
LINE
  5
4C97
330
1F
100
AcDbEntity
  8
LOGO
 62
     4
100
AcDbLine
 10
2030.138759827287
 20
1151.358570213443
 30
0.0
 11
1960.579553207196
 21
1151.358570213443
 31
0.0
  0
LINE
  5
4C98
330
1F
100
AcDbEntity
  8
LOGO
 62
     4
100
AcDbLine
 10
1983.765955413892
 20
1151.358570213443
 30
0.0
 11
1983.765955413892
 21
1170.329262928013
 31
0.0
  0
TEXT
  5
4C99
330
1F
100
AcDbEntity
  8
LOGO
100
AcDbText
 10
2015.459578467419
 20
1152.939461272991
 30
0.0
 40
3.161782119095022
  1
mm
  7
CHINESET
 72
     1
 11
2019.374165852965
 21
1154.520352332538
 31
0.0
100
AcDbText
 73
     2
  0
TEXT
  5
4C9A
330
1F
100
AcDbEntity
  8
LOGO
100
AcDbText
 10
2013.803406881226
 20
1165.58658974937
 30
0.0
 40
3.161782119095022
  1
1 : 1
  7
CHINESET
 72
     1
 11
2019.374165852965
 21
1167.167480808918
 31
0.0
100
AcDbText
 73
     2
  0
LINE
  5
4C9B
330
1F
100
AcDbEntity
  8
LOGO
 62
     4
100
AcDbLine
 10
2009.060212366653
 20
1151.358570213443
 30
0.0
 11
2009.060212366653
 21
1170.329262928013
 31
0.0
  0
CIRCLE
  5
4C9C
330
1F
100
AcDbEntity
  8
LOGO
  6
Continuous
100
AcDbCircle
 10
2014.914647429613
 20
1160.850679645818
 30
0.0
 40
1.835805118308556
  0
CIRCLE
  5
4C9D
330
1F
100
AcDbEntity
  8
LOGO
  6
Continuous
100
AcDbCircle
 10
2014.914647429613
 20
1160.850679645818
 30
0.0
 40
1.075619284696549
  0
LINE
  5
4C9E
330
1F
100
AcDbEntity
  8
LOGO
100
AcDbLine
 10
2026.451059810883
 20
1159.014874527509
 30
0.0
 11
2026.451059810883
 21
1162.686484764127
 31
0.0
  0
LINE
  5
4C9F
330
1F
100
AcDbEntity
  8
LOGO
100
AcDbLine
 10
2020.695916145227
 20
1159.775060361122
 30
0.0
 11
2020.695916145227
 21
1161.926298930515
 31
0.0
  0
LINE
  5
4CA0
330
1F
100
AcDbEntity
  8
LOGO
  6
Continuous
100
AcDbLine
 10
2020.695916145227
 20
1161.926298930515
 30
0.0
 11
2026.451059810883
 21
1162.686484764127
 31
0.0
  0
LINE
  5
4CA1
330
1F
100
AcDbEntity
  8
LOGO
  6
Continuous
100
AcDbLine
 10
2020.695916145227
 20
1159.775060361122
 30
0.0
 11
2026.451059810883
 21
1159.014874527509
 31
0.0
  0
TEXT
  5
4CA2
330
1F
100
AcDbEntity
  8
LOGO
100
AcDbText
 10
1986.373014152272
 20
1165.588145744508
 30
207.21799135373
 40
3.161782119095022
  1
比例 Scale:
 41
0.9
  7
CHINESET
 72
     4
 11
1996.413083890273
 21
1167.167480808918
 31
207.21799135373
100
AcDbText
  0
TEXT
  5
4CA3
330
1F
100
AcDbEntity
  8
LOGO
100
AcDbText
 10
1986.190929378449
 20
1159.307501038856
 30
207.21799135373
 40
3.161782119095022
  1
投影  View:
 41
0.9
  7
CHINESET
 72
     4
 11
1996.413083890273
 21
1160.843916570728
 31
207.21799135373
100
AcDbText
  0
TEXT
  5
4CA4
330
1F
100
AcDbEntity
  8
LOGO
100
AcDbText
 10
1986.500050040986
 20
1152.939461272991
 30
207.21799135373
 40
3.161782119095022
  1
單位  Unit:
 41
0.9
  7
CHINESET
 72
     4
 11
1996.413083890273
 21
1154.520352332538
 31
207.21799135373
100
AcDbText
  0
SOLID
  5
4CA5
330
1F
100
AcDbEntity
  8
LOGO
 62
     5
100
AcDbTrace
 10
1963.859952898501
 20
1156.614582942193
 30
0.0
 11
1965.227024521635
 21
1156.614582942192
 31
0.0
 12
1970.931013018158
 22
1169.578193161566
 32
0.0
 13
1972.298084641292
 23
1169.578193161565
 33
0.0
  0
SOLID
  5
4CA6
330
1F
100
AcDbEntity
  8
LOGO
 62
     5
100
AcDbTrace
 10
1965.792709331209
 20
1156.614582942193
 30
0.0
 11
1967.159780954343
 21
1156.614582942193
 31
0.0
 12
1972.298084641292
 22
1168.541104344016
 32
0.0
 13
1970.931013018158
 23
1163.528508392525
 33
0.0
  0
SOLID
  5
4CA7
330
1F
100
AcDbEntity
  8
LOGO
 62
     2
100
AcDbTrace
 10
1965.227024521635
 20
1156.614582942192
 30
0.0
 11
1965.792709331209
 21
1156.614582942193
 31
0.0
 12
1972.298084641292
 22
1169.578193161565
 32
0.0
 13
1972.863769450867
 23
1169.578193161565
 33
0.0
  0
SOLID
  5
4CA8
330
1F
100
AcDbEntity
  8
LOGO
 62
     5
100
AcDbTrace
 10
1961.668201839589
 20
1151.900542862421
 30
0.0
 11
1962.139605847568
 21
1151.900542862421
 31
0.0
 12
1963.467116225186
 22
1154.257562902307
 32
0.0
 13
1963.938520233163
 23
1154.257562902307
 33
0.0
  0
SOLID
  5
4CA9
330
1F
100
AcDbEntity
  8
LOGO
 62
     5
100
AcDbTrace
 10
1963.467116225186
 20
1154.257562902307
 30
0.0
 11
1963.938520233163
 21
1154.257562902307
 31
0.0
 12
1963.467116225186
 22
1151.900542862421
 32
0.0
 13
1963.938520233163
 23
1151.900542862421
 33
0.0
  0
SOLID
  5
4CAA
330
1F
100
AcDbEntity
  8
LOGO
 62
     5
100
AcDbTrace
 10
1963.467116225186
 20
1151.900542862421
 30
0.0
 11
1963.938520233163
 21
1151.900542862421
 31
0.0
 12
1965.266030610784
 22
1154.257562902307
 32
0.0
 13
1965.737434618762
 23
1154.257562902307
 33
0.0
  0
SOLID
  5
4CAB
330
1F
100
AcDbEntity
  8
LOGO
 62
     5
100
AcDbTrace
 10
1965.266030610784
 20
1154.257562902307
 30
0.0
 11
1965.737434618762
 21
1154.257562902307
 31
0.0
 12
1965.266030610784
 22
1151.900542862421
 32
0.0
 13
1965.737434618762
 23
1151.900542862421
 33
0.0
  0
POLYLINE
  5
4CAC
330
1F
100
AcDbEntity
  8
LOGO
 62
     5
100
AcDb2dPolyline
 66
     1
 10
0.0
 20
0.0
 30
0.0
 40
0.4721594631181901
 41
0.4721594631181901
  0
VERTEX
  5
4CAD
330
4CAC
100
AcDbEntity
  8
LOGO
 62
     5
100
AcDbVertex
100
AcDb2dVertex
 10
1981.06733237238
 20
1153.314754886352
 30
0.0
 42
1.0
  0
VERTEX
  5
4CAE
330
4CAC
100
AcDbEntity
  8
LOGO
 62
     5
100
AcDbVertex
100
AcDb2dVertex
 10
1979.650853983027
 20
1153.314754886352
 30
0.0
 42
1.0
  0
SEQEND
  5
4CAF
330
4CAC
100
AcDbEntity
  8
LOGO
 62
     5
  0
POLYLINE
  5
4CB0
330
1F
100
AcDbEntity
  8
LOGO
 62
     5
100
AcDb2dPolyline
 66
     1
 10
0.0
 20
0.0
 30
0.0
 70
     1
  0
VERTEX
  5
4CB1
330
4CB0
100
AcDbEntity
  8
LOGO
 62
     5
100
AcDbVertex
100
AcDb2dVertex
 10
1976.980729214133
 20
1153.079052882364
 30
0.0
 42
1.000000057330635
  0
VERTEX
  5
4CB2
330
4CB0
100
AcDbEntity
  8
LOGO
 62
     5
100
AcDbVertex
100
AcDb2dVertex
 10
1978.394941238065
 20
1153.079052882364
 30
0.0
 42
1.000000057330635
  0
SEQEND
  5
4CB3
330
4CB0
100
AcDbEntity
  8
LOGO
 62
     5
  0
CIRCLE
  5
4CB4
330
1F
100
AcDbEntity
  8
LOGO
 62
     5
100
AcDbCircle
 10
1977.6878352261
 20
1153.079052882364
 30
0.0
 40
0.7071060119658015
  0
POLYLINE
  5
4CB5
330
1F
100
AcDbEntity
  8
LOGO
 62
     5
100
AcDb2dPolyline
 66
     1
 10
0.0
 20
0.0
 30
0.0
 70
     1
 40
0.4721594631181901
 41
0.4721594631181901
  0
VERTEX
  5
4CB6
330
4CB5
100
AcDbEntity
  8
LOGO
 62
     5
100
AcDbVertex
100
AcDb2dVertex
 10
1976.743516299863
 20
1153.079052882364
 30
0.0
 42
1.0
  0
VERTEX
  5
4CB7
330
4CB5
100
AcDbEntity
  8
LOGO
 62
     5
100
AcDbVertex
100
AcDb2dVertex
 10
1978.632154152336
 20
1153.079052882364
 30
0.0
 42
1.0
  0
SEQEND
  5
4CB8
330
4CB5
100
AcDbEntity
  8
LOGO
 62
     5
  0
LINE
  5
4CB9
330
1F
100
AcDbEntity
  8
LOGO
100
AcDbLine
 10
1981.301901193656
 20
1151.900542862421
 30
0.0
 11
1981.301901193656
 21
1153.314754886352
 31
0.0
  0
SOLID
  5
4CBA
330
1F
100
AcDbEntity
  8
LOGO
 62
     5
100
AcDbTrace
 10
1978.394894097666
 20
1154.257562902307
 30
0.0
 11
1978.866298105642
 21
1154.257562902307
 31
0.0
 12
1978.394894097666
 22
1151.900542862421
 32
0.0
 13
1978.866298105642
 23
1151.900542862421
 33
0.0
  0
SOLID
  5
4CBB
330
1F
100
AcDbEntity
  8
LOGO
 62
     5
100
AcDbTrace
 10
1979.416285161749
 20
1151.900542862421
 30
0.0
 11
1979.887689169726
 21
1151.900542862421
 31
0.0
 12
1979.416285161749
 22
1154.257562902307
 32
0.0
 13
1979.887689169726
 23
1154.257562902307
 33
0.0
  0
SOLID
  5
4CBC
330
1F
100
AcDbEntity
  8
LOGO
 62
     5
100
AcDbTrace
 10
1980.830497185681
 20
1153.314754886352
 30
0.0
 11
1981.301901193656
 21
1153.314754886352
 31
0.0
 12
1980.830497185681
 22
1151.900542862421
 32
0.0
 13
1981.301901193656
 23
1151.900542862421
 33
0.0
  0
SOLID
  5
4CBD
330
1F
100
AcDbEntity
  8
LOGO
 62
     5
100
AcDbTrace
 10
1979.36914476095
 20
1168.541104344016
 30
0.0
 11
1978.002073137818
 21
1163.528508392525
 31
0.0
 12
1979.36914476095
 22
1156.614582942192
 32
0.0
 13
1978.002073137818
 23
1156.614582942192
 33
0.0
  0
SOLID
  5
4CBE
330
1F
100
AcDbEntity
  8
LOGO
 62
     5
100
AcDbTrace
 10
1979.934829570524
 20
1156.614582942192
 30
0.0
 11
1981.301901193656
 21
1156.614582942192
 31
0.0
 12
1979.934829570524
 22
1169.578193161565
 32
0.0
 13
1981.301901193656
 23
1169.578193161566
 33
0.0
  0
SOLID
  5
4CBF
330
1F
100
AcDbEntity
  8
LOGO
 62
     2
100
AcDbTrace
 10
1979.36914476095
 20
1169.578193161566
 30
0.0
 11
1979.934829570524
 21
1169.578193161565
 31
0.0
 12
1979.36914476095
 22
1156.614582942192
 32
0.0
 13
1979.934829570524
 23
1156.614582942192
 33
0.0
  0
POLYLINE
  5
4CC0
330
1F
100
AcDbEntity
  8
LOGO
 62
     5
100
AcDb2dPolyline
 66
     1
 10
0.0
 20
0.0
 30
0.0
 40
0.4721594631181901
 41
0.4721594631181901
  0
VERTEX
  5
4CC1
330
4CC0
100
AcDbEntity
  8
LOGO
 62
     5
100
AcDbVertex
100
AcDb2dVertex
 10
1974.310510164441
 20
1153.314754886352
 30
0.0
 42
1.0
  0
VERTEX
  5
4CC2
330
4CC0
100
AcDbEntity
  8
LOGO
 62
     5
100
AcDbVertex
100
AcDb2dVertex
 10
1972.894031775086
 20
1153.314754886352
 30
0.0
 42
1.0
  0
SEQEND
  5
4CC3
330
4CC0
100
AcDbEntity
  8
LOGO
 62
     5
  0
POLYLINE
  5
4CC4
330
1F
100
AcDbEntity
  8
LOGO
 62
     5
100
AcDb2dPolyline
 66
     1
 10
0.0
 20
0.0
 30
0.0
 40
0.4721594631181901
 41
0.4721594631181901
  0
VERTEX
  5
4CC5
330
4CC4
100
AcDbEntity
  8
LOGO
 62
     5
100
AcDbVertex
100
AcDb2dVertex
 10
1975.724722188371
 20
1153.314754886352
 30
0.0
 42
1.0
  0
VERTEX
  5
4CC6
330
4CC4
100
AcDbEntity
  8
LOGO
 62
     5
100
AcDbVertex
100
AcDb2dVertex
 10
1974.308243799017
 20
1153.314754886352
 30
0.0
 42
1.0
  0
SEQEND
  5
4CC7
330
4CC4
100
AcDbEntity
  8
LOGO
 62
     5
  0
POLYLINE
  5
4CC8
330
1F
100
AcDbEntity
  8
LOGO
 62
     5
100
AcDb2dPolyline
 66
     1
 10
0.0
 20
0.0
 30
0.0
 40
0.4721594631181901
 41
0.4721594631181901
  0
VERTEX
  5
4CC9
330
4CC8
100
AcDbEntity
  8
LOGO
 62
     5
100
AcDbVertex
100
AcDb2dVertex
 10
1968.967899980431
 20
1153.314754886352
 30
0.0
 42
1.0
  0
VERTEX
  5
4CCA
330
4CC8
100
AcDbEntity
  8
LOGO
 62
     5
100
AcDbVertex
100
AcDb2dVertex
 10
1967.551421591077
 20
1153.314754886352
 30
0.0
 42
1.0
  0
SEQEND
  5
4CCB
330
4CC8
100
AcDbEntity
  8
LOGO
 62
     5
  0
SOLID
  5
4CCC
330
1F
100
AcDbEntity
  8
LOGO
 62
     5
100
AcDbTrace
 10
1967.316852769799
 20
1154.257562902307
 30
0.0
 11
1967.788256777776
 21
1154.257562902307
 31
0.0
 12
1967.316852769799
 22
1151.900542862421
 32
0.0
 13
1967.788256777776
 23
1151.900542862421
 33
0.0
  0
SOLID
  5
4CCD
330
1F
100
AcDbEntity
  8
LOGO
 62
     5
100
AcDbTrace
 10
1968.731064793732
 20
1153.314754886352
 30
0.0
 11
1969.202468801708
 21
1153.314754886352
 31
0.0
 12
1968.731064793732
 22
1151.900542862421
 32
0.0
 13
1969.202468801708
 23
1151.900542862421
 33
0.0
  0
POLYLINE
  5
4CCE
330
1F
100
AcDbEntity
  8
LOGO
 62
     5
100
AcDb2dPolyline
 66
     1
 10
0.0
 20
0.0
 30
0.0
 70
     1
 40
0.4721594631181901
 41
0.4721594631181901
  0
VERTEX
  5
4CCF
330
4CCE
100
AcDbEntity
  8
LOGO
 62
     5
100
AcDbVertex
100
AcDb2dVertex
 10
1969.986694091921
 20
1153.079052882364
 30
0.0
 42
1.0
  0
VERTEX
  5
4CD0
330
4CCE
100
AcDbEntity
  8
LOGO
 62
     5
100
AcDbVertex
100
AcDb2dVertex
 10
1971.875331944396
 20
1153.079052882364
 30
0.0
 42
1.0
  0
SEQEND
  5
4CD1
330
4CCE
100
AcDbEntity
  8
LOGO
 62
     5
  0
SOLID
  5
4CD2
330
1F
100
AcDbEntity
  8
LOGO
 62
     5
100
AcDbTrace
 10
1971.638071889725
 20
1154.964668914273
 30
0.0
 11
1972.109475897702
 21
1154.964668914273
 31
0.0
 12
1971.638071889725
 22
1151.900542862421
 32
0.0
 13
1972.109475897702
 23
1151.900542862421
 33
0.0
  0
SOLID
  5
4CD3
330
1F
100
AcDbEntity
  8
LOGO
 62
     5
100
AcDbTrace
 10
1972.65946295381
 20
1154.257562902307
 30
0.0
 11
1973.130866961786
 21
1154.257562902307
 31
0.0
 12
1972.65946295381
 22
1151.900542862421
 32
0.0
 13
1973.130866961786
 23
1151.900542862421
 33
0.0
  0
SOLID
  5
4CD4
330
1F
100
AcDbEntity
  8
LOGO
 62
     5
100
AcDbTrace
 10
1974.073674977739
 20
1153.314754886352
 30
0.0
 11
1974.545078985718
 21
1153.314754886352
 31
0.0
 12
1974.073674977739
 22
1151.900542862421
 32
0.0
 13
1974.545078985718
 23
1151.900542862421
 33
0.0
  0
SOLID
  5
4CD5
330
1F
100
AcDbEntity
  8
LOGO
 62
     5
100
AcDbTrace
 10
1975.487887001672
 20
1153.314754886352
 30
0.0
 11
1975.959291009649
 21
1153.314754886352
 31
0.0
 12
1975.487887001672
 22
1151.900542862421
 32
0.0
 13
1975.959291009649
 23
1151.900542862421
 33
0.0
  0
SOLID
  5
4CD6
330
1F
100
AcDbEntity
  8
LOGO
 62
     5
100
AcDbTrace
 10
1966.295461705715
 20
1154.587545707891
 30
0.0
 11
1966.766865713694
 21
1154.587545707891
 31
0.0
 12
1966.295461705715
 22
1154.964668914273
 32
0.0
 13
1966.766865713694
 23
1154.964668914273
 33
0.0
  0
SOLID
  5
4CD7
330
1F
100
AcDbEntity
  8
LOGO
 62
     5
100
AcDbTrace
 10
1966.295461705715
 20
1154.257562902307
 30
0.0
 11
1966.766865713694
 21
1154.257562902307
 31
0.0
 12
1966.295461705715
 22
1151.900542862421
 32
0.0
 13
1966.766865713694
 23
1151.900542862421
 33
0.0
  0
SOLID
  5
4CD8
330
1F
100
AcDbEntity
  8
LOGO
 62
     5
100
AcDbTrace
 10
1970.931013018158
 20
1156.614582942193
 30
0.0
 11
1972.298084641292
 21
1156.614582942193
 31
0.0
 12
1970.931013018158
 22
1163.528508392525
 32
0.0
 13
1972.298084641292
 23
1168.541104344016
 33
0.0
  0
SOLID
  5
4CD9
330
1F
100
AcDbEntity
  8
LOGO
 62
     5
100
AcDbTrace
 10
1972.863769450867
 20
1169.578193161565
 30
0.0
 11
1974.230841073999
 21
1169.578193161566
 31
0.0
 12
1972.863769450867
 22
1157.651671759742
 32
0.0
 13
1974.230841073999
 23
1162.664267711233
 33
0.0
  0
SOLID
  5
4CDA
330
1F
100
AcDbEntity
  8
LOGO
 62
     2
100
AcDbTrace
 10
1972.298084641292
 20
1169.578193161565
 30
0.0
 11
1972.863769450867
 21
1169.578193161565
 31
0.0
 12
1972.298084641292
 22
1156.614582942193
 32
0.0
 13
1972.863769450867
 23
1156.614582942193
 33
0.0
  0
SOLID
  5
4CDB
330
1F
100
AcDbEntity
  8
LOGO
 62
     5
100
AcDbTrace
 10
1972.863769450867
 20
1157.651671759742
 30
0.0
 11
1974.230841073999
 21
1162.664267711233
 31
0.0
 12
1979.36914476095
 22
1169.578193161566
 32
0.0
 13
1978.002073137818
 23
1169.578193161566
 33
0.0
  0
SOLID
  5
4CDC
330
1F
100
AcDbEntity
  8
LOGO
 62
     5
100
AcDbTrace
 10
1972.863769450867
 20
1156.614582942193
 30
0.0
 11
1974.230841073999
 21
1156.614582942193
 31
0.0
 12
1979.36914476095
 22
1168.541104344016
 32
0.0
 13
1978.002073137818
 23
1163.528508392525
 33
0.0
  0
SOLID
  5
4CDD
330
1F
100
AcDbEntity
  8
LOGO
 62
     2
100
AcDbTrace
 10
1972.298084641292
 20
1156.614582942193
 30
0.0
 11
1972.863769450867
 21
1156.614582942193
 31
0.0
 12
1979.36914476095
 22
1169.578193161566
 32
0.0
 13
1979.934829570524
 23
1169.578193161565
 33
0.0
  0
TEXT
  5
4CDE
330
1F
100
AcDbEntity
  8
LOGO
100
AcDbText
 10
2031.603723781305
 20
1140.393497345068
 30
0.0
 40
3.162239999999999
  1
1130925B
 41
0.7
  7
CHINESET
 72
     1
 11
2039.298507781305
 21
1140.393497345068
 31
0.0
100
AcDbText
  0
LINE
  5
4CDF
330
1F
100
AcDbEntity
  8
LOGO
 62
     4
100
AcDbLine
 10
2049.112199827286
 20
1145.035005975253
 30
0.0
 11
2049.112199827287
 21
1138.711441737063
 31
0.0
  0
LINE
  5
4CE0
330
1F
100
AcDbEntity
  8
LOGO
 62
     4
100
AcDbLine
 10
2049.112199827286
 20
1145.035005975253
 30
0.0
 11
2030.138759827287
 21
1145.035005975253
 31
0.0
  0
LINE
  5
4CE1
330
1F
100
AcDbEntity
  8
LOGO
  6
AM_ISO08W050x2
 48
0.3
100
AcDbLine
 10
2012.383962585009
 20
1160.850679645818
 30
0.0
 11
2017.445332274219
 21
1160.850679645818
 31
0.0
1001
GENIUS_GENOREF_13
1005
4CE6
  0
LINE
  5
4CE2
330
1F
100
AcDbEntity
  8
LOGO
  6
AM_ISO08W050x2
 48
0.3
100
AcDbLine
 10
2014.914647429613
 20
1158.319994801213
 30
0.0
 11
2014.914647429613
 21
1163.381364490424
 31
0.0
1001
GENIUS_GENOREF_13
1005
4CE5
  0
LINE
  5
4CE3
330
1F
100
AcDbEntity
  8
LOGO
  6
CENTER
 48
0.5
100
AcDbLine
 10
2020.235664615444
 20
1160.850679645818
 30
0.0
 11
2027.030584147653
 21
1160.850679645818
 31
0.0
1001
GENIUS_GENOREF_13
1005
4CE4
  0
POINT
  5
4CE4
330
1F
100
AcDbEntity
  8
0
 60
     1
100
AcDbPoint
 10
-111.7616065327861
 20
200.5781394313366
 30
0.0
1001
GENIUS_GENOBJ-N-CRS_13
1002
{
1000
OWNER
1000
GEN
1002
}
1001
GENIUS_GENOLIS_13
1002
{
1000
ENT
1005
0
1005
0
1005
0
1005
4CE3
1002
}
1001
GENIUS_GENOENT_13
1002
{
1000
MYREF
1005
4CE4
1002
}
1002
{
1000
GRP
1005
0
1002
}
1001
GENIUS_GENODEF_13
1002
{
1000
HIER
1070
    10
1002
}
1002
{
1000
MANEDIT
1070
     1
1002
}
1002
{
1000
NOSEL
1070
     0
1002
}
1002
{
1000
BEHIND
1070
     0
1002
}
1002
{
1000
OTHER
1070
     0
1002
}
1002
{
1000
REACTOR
1002
}
  0
POINT
  5
4CE5
330
1F
100
AcDbEntity
  8
0
 60
     1
100
AcDbPoint
 10
-123.0861917556408
 20
209.4537259099728
 30
0.0
1001
GENIUS_GENOBJ-N-CRS_13
1002
{
1000
OWNER
1000
GEN
1002
}
1001
GENIUS_GENOLIS_13
1002
{
1000
ENT
1005
0
1005
0
1005
0
1005
4CE2
1002
}
1001
GENIUS_GENOENT_13
1002
{
1000
MYREF
1005
4CE5
1002
}
1002
{
1000
GRP
1005
0
1002
}
1001
GENIUS_GENODEF_13
1002
{
1000
HIER
1070
    10
1002
}
1002
{
1000
MANEDIT
1070
     1
1002
}
1002
{
1000
NOSEL
1070
     0
1002
}
1002
{
1000
BEHIND
1070
     0
1002
}
1002
{
1000
OTHER
1070
     0
1002
}
1002
{
1000
REACTOR
1002
}
  0
POINT
  5
4CE6
330
1F
100
AcDbEntity
  8
0
 60
     1
100
AcDbPoint
 10
-116.727518057804
 20
200.5781394313366
 30
0.0
1001
GENIUS_GENOBJ-N-CRS_13
1002
{
1000
OWNER
1000
GEN
1002
}
1001
GENIUS_GENOLIS_13
1002
{
1000
ENT
1005
0
1005
0
1005
0
1005
4CE1
1002
}
1001
GENIUS_GENOENT_13
1002
{
1000
MYREF
1005
4CE6
1002
}
1002
{
1000
GRP
1005
0
1002
}
1001
GENIUS_GENODEF_13
1002
{
1000
HIER
1070
    10
1002
}
1002
{
1000
MANEDIT
1070
     1
1002
}
1002
{
1000
NOSEL
1070
     0
1002
}
1002
{
1000
BEHIND
1070
     0
1002
}
1002
{
1000
OTHER
1070
     0
1002
}
1002
{
1000
REACTOR
1002
}
  0
MTEXT
  5
534B
330
1F
100
AcDbEntity
  8
AM_5
 62
     2
100
AcDbMText
 10
2683.98297219956
 20
1643.315558993319
 30
0.0
 40
5.25
 41
0.0
 71
     7
 72
     5
  1

  7
ACISOTS
 73
     1
 44
1.0
1001
ACAD
1000
MTEXTBEGIN
1070
    73
1070
     1
1070
    44
1040
1.0
1070
    74
1070
     0
1000
MTEXTEND
  0
DIMENSION
  5
6F2C
330
1F
100
AcDbEntity
  8
AM_5
100
AcDbDimension
  2
*D4
 10
2159.559133733176
 20
1231.753581120778
 30
0.0
 11
2159.559133733175
 21
1275.253581120778
 31
0.0
 70
   160
 71
     5
 42
87.0
  3
AM_ISO$0
100
AcDbAlignedDimension
 13
2141.408833455527
 23
1318.753581120778
 33
0.0
 14
2141.408833455527
 24
1231.753581120778
 34
0.0
 50
90.0
100
AcDbRotatedDimension
1001
ACAD
1000
DSTYLE
1002
{
1070
   271
1070
     0
1070
   272
1070
     8
1002
}
  0
DIMENSION
  5
746E
330
1F
100
AcDbEntity
  8
AM_5
100
AcDbDimension
  2
*D35
 10
2146.40883709141
 20
1346.056334085379
 30
0.0
 11
2067.408833455527
 21
1346.056334085379
 31
0.0
 70
   160
  1
(158)
 71
     5
 42
158.0000072717666
  3
AM_ISO$0
100
AcDbAlignedDimension
 13
1988.408829819643
 23
1313.753580912162
 33
0.0
 14
2146.40883709141
 24
1313.753580912162
 34
0.0
100
AcDbRotatedDimension
1001
ACAD
1000
DSTYLE
1002
{
1070
    40
1040
1.0
1070
   144
1040
1.0
1070
   271
1070
     0
1070
   272
1070
     8
1002
}
  0
DIMENSION
  5
7588
330
1F
100
AcDbEntity
  8
AM_5
100
AcDbDimension
  2
*D36
 10
2220.124116541377
 20
1346.056334085379
 30
0.0
 11
2205.624116094342
 21
1346.056334085379
 31
0.0
 70
   160
  1
<>
 71
     5
 42
29.00000089406967
  3
AM_ISO$0
100
AcDbAlignedDimension
 13
2191.124115647308
 23
1317.753581120779
 33
0.0
 14
2220.124116541377
 24
1312.753582610894
 34
0.0
100
AcDbRotatedDimension
1001
ACAD
1000
DSTYLE
1002
{
1070
    40
1040
1.0
1070
   144
1040
1.0
1070
   271
1070
     0
1070
   272
1070
     8
1002
}
  0
INSERT
  5
7677
102
{ACAD_REACTORS
330
776F
330
77B5
330
77F9
330
7828
102
}
330
1F
100
AcDbEntity
  8
0
100
AcDbBlockReference
  2
MATP
 10
1863.776685510321
 20
1123.041290709819
 30
0.0
  0
DIMENSION
  5
7761
102
{ACAD_XDICTIONARY
360
776E
102
}
102
{ACAD_REACTORS
330
776F
102
}
330
1F
100
AcDbEntity
  8
AM_5
100
AcDbDimension
  2
*D38
 10
2232.124116541378
 20
1237.753579630662
 30
0.0
 11
2229.624116541377
 21
1275.253581120779
 31
0.0
 70
    32
 71
     5
 42
75.00000298023223
  3
AM_ISO$0
100
AcDbAlignedDimension
 13
2220.124116541378
 23
1312.753582610894
 33
0.0
 14
2220.124116541378
 24
1237.753579630662
 34
0.0
 50
90.00000000000003
100
AcDbRotatedDimension
1001
ACAD
1000
DSTYLE
1002
{
1070
    40
1040
1.0
1070
   144
1040
1.0
1070
   271
1070
     0
1070
   272
1070
     8
1002
}
  0
DIMENSION
  5
77A5
102
{ACAD_XDICTIONARY
360
77B4
102
}
102
{ACAD_REACTORS
330
77B5
102
}
330
1F
100
AcDbEntity
  8
AM_5
100
AcDbDimension
  2
*D39
 10
2159.488736750938
 20
1231.753581120778
 30
0.0
 11
2159.488736750938
 21
1219.465633666956
 31
0.0
 70
   160
 71
     5
 42
2.500000089406967
  3
AM_ISO$0
100
AcDbAlignedDimension
 13
2109.983656358206
 23
1229.253581031371
 33
0.0
 14
2141.408833455527
 24
1231.753581120778
 34
0.0
 50
90.00000000000003
100
AcDbRotatedDimension
1001
ACAD
1000
DSTYLE
1002
{
1070
   271
1070
     1
1070
   272
1070
     8
1002
}
  0
DIMENSION
  5
77E9
102
{ACAD_XDICTIONARY
360
77F8
102
}
102
{ACAD_REACTORS
330
77F9
102
}
330
1F
100
AcDbEntity
  8
AM_5
100
AcDbDimension
  2
*D40
 10
2191.124115647308
 20
1332.056334085379
 30
0.0
 11
2181.872219833425
 21
1334.55633408538
 31
0.0
 70
    32
 71
     5
 42
6.5
  3
AM_ISO$0
100
AcDbAlignedDimension
 13
2197.624115647308
 23
1318.753579869081
 33
0.0
 14
2191.124115647308
 24
1317.753581120779
 34
0.0
 50
0.0000000000000114
100
AcDbRotatedDimension
1001
ACAD
1000
DSTYLE
1002
{
1070
    40
1040
1.0
1070
   144
1040
1.0
1070
   271
1070
     1
1070
   272
1070
     8
1002
}
  0
DIMENSION
  5
7818
102
{ACAD_XDICTIONARY
360
7827
102
}
102
{ACAD_REACTORS
330
7828
102
}
330
1F
100
AcDbEntity
  8
AM_5
100
AcDbDimension
  2
*D41
 10
2217.124116049639
 20
1225.38062330398
 30
0.0
 11
2207.961984015283
 21
1227.88062330398
 31
0.0
 70
    32
 71
     5
 42
3.499999642372131
  3
AM_ISO$0
100
AcDbAlignedDimension
 13
2220.624115692011
 23
1229.253581031371
 33
0.0
 14
2217.124116049639
 24
1229.253581031371
 34
0.0
 50
0.0000000000001132
100
AcDbRotatedDimension
1001
ACAD
1000
DSTYLE
1002
{
1070
    40
1040
1.0
1070
   144
1040
1.0
1070
   271
1070
     1
1070
   272
1070
     8
1002
}
  0
ENDSEC
  0
SECTION
  2
OBJECTS
  0
DICTIONARY
  5
C
330
0
100
AcDbDictionary
281
     1
  3
ACAD_COLOR
350
BE
  3
ACAD_GROUP
350
D
  3
ACAD_LAYOUT
350
1A
  3
ACAD_MATERIAL
350
BD
  3
ACAD_MLINESTYLE
350
17
  3
ACAD_PLOTSETTINGS
350
19
  3
ACAD_PLOTSTYLENAME
350
E
  3
ACAD_TABLESTYLE
350
11A
  3
AcadDim
350
6FC9
  3
ACDBHEADERROUNDTRIPXREC
350
7844
  3
AcDbVariableDictionary
350
94
  3
AcmDictionary
350
5B
  3
AMG
350
41
  3
AMGSNAPSETTINGS
350
1B8
  3
DWGPROPS
350
7843
  3
MAPISURF_MODULE
350
4DC4
  0
DICTIONARY
  5
3F9
330
2
100
AcDbDictionary
280
     1
281
     1
  3
ACAD_LAYERFILTERS
360
4E20
  3
ACAD_LAYERSTATES
360
7CF
  3
ACLYDICTIONARY
360
4E1F
  3
AMLAYER_GROUPCOLORS
360
4E1C
  0
DICTIONARY
  5
8F
330
1F
100
AcDbDictionary
280
     1
281
     1
  3
ACAD_INDEX
360
4E40
  3
ACAD_SORTENTS
360
2489
  0
DICTIONARY
  5
776E
330
7761
100
AcDbDictionary
280
     1
281
     1
  3
ACAD_DIMASSOC
360
776F
  0
DICTIONARY
  5
77B4
330
77A5
100
AcDbDictionary
280
     1
281
     1
  3
ACAD_DIMASSOC
360
77B5
  0
DICTIONARY
  5
77F8
330
77E9
100
AcDbDictionary
280
     1
281
     1
  3
ACAD_DIMASSOC
360
77F9
  0
DICTIONARY
  5
7827
330
7818
100
AcDbDictionary
280
     1
281
     1
  3
ACAD_DIMASSOC
360
7828
  0
DICTIONARY
  5
BE
102
{ACAD_REACTORS
330
C
102
}
330
C
100
AcDbDictionary
281
     1
  0
DICTIONARY
  5
D
102
{ACAD_REACTORS
330
C
102
}
330
C
100
AcDbDictionary
281
     1
  0
DICTIONARY
  5
1A
102
{ACAD_REACTORS
330
C
102
}
330
C
100
AcDbDictionary
281
     1
  3
Model
350
22
  3
配置1
350
1E
  3
配置2
350
26
  0
DICTIONARY
  5
BD
102
{ACAD_REACTORS
330
C
102
}
330
C
100
AcDbDictionary
281
     1
  0
DICTIONARY
  5
17
102
{ACAD_REACTORS
330
C
102
}
330
C
100
AcDbDictionary
281
     1
  3
Standard
350
18
  0
DICTIONARY
  5
19
102
{ACAD_REACTORS
330
C
102
}
330
C
100
AcDbDictionary
281
     1
  0
ACDBDICTIONARYWDFLT
  5
E
102
{ACAD_REACTORS
330
C
102
}
330
C
100
AcDbDictionary
281
     1
  3
Normal
350
F
100
AcDbDictionaryWithDefault
340
F
  0
DICTIONARY
  5
11A
102
{ACAD_REACTORS
330
C
102
}
330
C
100
AcDbDictionary
281
     1
  3
Standard
350
11B
  0
XRECORD
  5
6FC9
102
{ACAD_REACTORS
330
C
102
}
330
C
100
AcDbXrecord
280
     1
 90
   990106
  3

 60
     0
 61
     0
 62
     1
 63
     3
 64
     0
 65
     0
 66
     0
 67
     3
 68
     1
 69
     0
 70
     0
 71
     0
 72
     0
 40
0.0
170
     0
  0
DICTIONARY
  5
7844
102
{ACAD_REACTORS
330
C
102
}
330
C
100
AcDbDictionary
281
     1
  0
DICTIONARY
  5
94
102
{ACAD_REACTORS
330
C
102
}
330
C
100
AcDbDictionary
281
     1
  3
CTABLESTYLE
350
138
  3
DIMASSOC
350
96
  3
INDEXCTL
350
95
  3
PROJECTNAME
350
4D31
  0
DICTIONARY
  5
5B
102
{ACAD_REACTORS
330
C
102
}
330
C
100
AcDbDictionary
281
     1
  3
AcmBOM
350
1B5
  3
AcmStdDictionary
350
61
  3
AMDTSECTSYM_ARROWCOLOR
350
123
  0
DICTIONARY
  5
41
102
{ACAD_REACTORS
330
C
102
}
330
C
100
AcDbDictionary
281
     1
  3
AcMgSettings
350
4D3D
  0
DICTIONARY
  5
1B8
102
{ACAD_REACTORS
330
C
102
}
330
C
100
AcDbDictionary
281
     1
  0
XRECORD
  5
7843
102
{ACAD_REACTORS
330
C
102
}
330
C
100
AcDbXrecord
280
     1
  1
DWGPROPS COOKIE
  2

  3

  4

  6

  7

  8

  9

300
AmdtFileType=84
301
=
302
=
303
=
304
=
305
=
306
=
307
=
308
=
309
=
 40
0.5703752314814815
 41
2453595.458965741
 42
2456561.597511748
  1

 90
        1
  0
DICTIONARY
  5
4E20
102
{ACAD_REACTORS
330
3F9
102
}
330
3F9
100
AcDbDictionary
281
     1
  0
DICTIONARY
  5
7CF
102
{ACAD_REACTORS
330
3F9
102
}
330
3F9
100
AcDbDictionary
281
     1
  0
DICTIONARY
  5
4E1F
102
{ACAD_REACTORS
330
3F9
102
}
330
3F9
100
AcDbDictionary
281
     1
1001
ACAD
1000
<All
  0
DICTIONARY
  5
4E1C
102
{ACAD_REACTORS
330
3F9
102
}
330
3F9
100
AcDbDictionary
280
     1
281
     1
  0
DICTIONARY
  5
4E40
102
{ACAD_REACTORS
330
8F
102
}
330
8F
100
AcDbDictionary
281
     1
  3
*A1
350
4E41
  0
SORTENTSTABLE
  5
2489
102
{ACAD_REACTORS
330
8F
102
}
330
8F
100
AcDbSortentsTable
330
1F
331
4CA8
  5
4CA8
331
4CB0
  5
4CB0
331
4CC0
  5
4CC0
331
6F2C
  5
6F2C
331
4CC8
  5
4CC8
331
4C91
  5
4C91
331
DF3
  5
DF3
331
4CD8
  5
4CD8
331
4C99
  5
4C99
331
4CA1
  5
4CA1
331
4CE0
  5
4CE0
331
4CA9
  5
4CA9
331
4CB9
  5
4CB9
331
4C92
  5
4C92
331
DF4
  5
DF4
331
4CD9
  5
4CD9
331
4C9A
  5
4C9A
331
4CA2
  5
4CA2
331
4CE1
  5
4CE1
331
4CAA
  5
4CAA
331
4CBA
  5
4CBA
331
4CD2
  5
4CD2
331
DF5
  5
DF5
331
4C93
  5
4C93
331
4C9B
  5
4C9B
331
4CDA
  5
4CDA
331
4CA3
  5
4CA3
331
4CAB
  5
4CAB
331
4CE2
  5
4CE2
331
4CBB
  5
4CBB
331
DEE
  5
DEE
331
4CD3
  5
4CD3
331
DF6
  5
DF6
331
4C94
  5
4C94
331
4C9C
  5
4C9C
331
4CDB
  5
4CDB
331
4CA4
  5
4CA4
331
E0E
  5
E0E
331
4CAC
  5
4CAC
331
4CE3
  5
4CE3
331
4CB4
  5
4CB4
331
4CBC
  5
4CBC
331
4CC4
  5
4CC4
331
DEF
  5
DEF
331
4CCC
  5
4CCC
331
4CD4
  5
4CD4
331
DF7
  5
DF7
331
4C95
  5
4C95
331
4CDC
  5
4CDC
331
4C9D
  5
4C9D
331
4CA5
  5
4CA5
331
4CB5
  5
4CB5
331
4CBD
  5
4CBD
331
DB0
  5
DB0
331
4CCD
  5
4CCD
331
DF0
  5
DF0
331
4CD5
  5
4CD5
331
E00
  5
E00
331
4C96
  5
4C96
331
4CDD
  5
4CDD
331
4C9E
  5
4C9E
331
4CA6
  5
4CA6
331
4CBE
  5
4CBE
331
4CCE
  5
4CCE
331
4C8F
  5
4C8F
331
DF1
  5
DF1
331
4CD6
  5
4CD6
331
4C97
  5
4C97
331
4CDE
  5
4CDE
331
4C9F
  5
4C9F
331
534B
  5
534B
331
4CA7
  5
4CA7
331
E21
  5
E21
331
4CBF
  5
4CBF
331
4C90
  5
4C90
331
DF2
  5
DF2
331
4CD7
  5
4CD7
331
4C98
  5
4C98
331
4CDF
  5
4CDF
331
4CA0
  5
4CA0
  0
DIMASSOC
  5
776F
102
{ACAD_REACTORS
330
776E
102
}
330
776E
100
AcDbDimAssoc
330
7761
 90
        3
 70
     0
 71
     0
  1
AcDbOsnapPointRef
 72
     1
331
7677
331
7654
 73
     0
 91
        0
 40
0.0
 10
0.0
 20
0.0
 30
2.000000000000000E+50
 75
     0
  1
AcDbOsnapPointRef
 72
    13
331
7677
331
7650
 73
     0
 91
        0
 40
0.0
 10
0.0
 20
0.0
 30
2.000000000000000E+50
 75
     0
  0
DIMASSOC
  5
77B5
102
{ACAD_REACTORS
330
77B4
102
}
330
77B4
100
AcDbDimAssoc
330
77A5
 90
        3
 70
     0
 71
     0
  1
AcDbOsnapPointRef
 72
    13
331
7677
331
7629
 73
     0
 91
        0
 40
0.0
 10
0.0
 20
0.0
 30
2.000000000000000E+50
 75
     0
  1
AcDbOsnapPointRef
 72
    13
331
7677
331
761B
 73
     0
 91
        0
 40
0.0
 10
0.0
 20
0.0
 30
2.000000000000000E+50
 75
     0
  0
DIMASSOC
  5
77F9
102
{ACAD_REACTORS
330
77F8
102
}
330
77F8
100
AcDbDimAssoc
330
77E9
 90
        3
 70
     0
 71
     0
  1
AcDbOsnapPointRef
 72
     1
331
7677
331
7644
 73
     0
 91
        0
 40
0.0
 10
0.0
 20
0.0
 30
2.000000000000000E+50
 75
     0
  1
AcDbOsnapPointRef
 72
     1
331
7677
331
7647
 73
     0
 91
        0
 40
0.0
 10
0.0
 20
0.0
 30
2.000000000000000E+50
 75
     0
  0
DIMASSOC
  5
7828
102
{ACAD_REACTORS
330
7827
102
}
330
7827
100
AcDbDimAssoc
330
7818
 90
        3
 70
     0
 71
     0
  1
AcDbOsnapPointRef
 72
    13
331
7677
331
7670
 73
     0
 91
        0
 40
0.0
 10
0.0
 20
0.0
 30
2.000000000000000E+50
 75
     0
  1
AcDbOsnapPointRef
 72
     1
331
7677
331
7670
 73
     0
 91
        0
 40
0.0
 10
0.0
 20
0.0
 30
2.000000000000000E+50
 75
     0
  0
LAYOUT
  5
22
102
{ACAD_XDICTIONARY
360
7847
102
}
102
{ACAD_REACTORS
330
1A
102
}
330
1A
100
AcDbPlotSettings
  1

  2
DWF6 ePlot.pc3
  4
ISO_A1_(841.00_x_594.00_MM)
  6

 40
5.793749809265136
 41
17.79375076293945
 42
5.79376220703125
 43
17.79376220703125
 44
841.0
 45
594.0
 46
83.78995121863727
 47
0.0
 48
-403.86172
 49
-192.01869
140
-94.19251
141
239.98826
142
1.0
143
0.4907745955431377
 70
  3764
 72
     1
 73
     0
 74
     1
  7
彩色出圖.ctb
 75
     0
147
2.037595281176494
148
285.0413049420918
149
509.8071474043895
100
AcDbLayout
  1
Model
 70
     1
 71
     0
 10
0.0
 20
0.0
 11
12.0
 21
9.0
 12
0.0
 22
0.0
 32
0.0
 14
0.0
 24
0.0
 34
0.0
 15
0.0
 25
0.0
 35
0.0
146
0.0
 13
0.0
 23
0.0
 33
0.0
 16
1.0
 26
0.0
 36
0.0
 17
0.0
 27
1.0
 37
0.0
 76
     0
330
1F
1001
ACAD_PSEXT
1000
DWF6 ePlot.pc3
1000
DWF6 ePlot
1000
檔案
1000

1070
     0
  0
LAYOUT
  5
1E
102
{ACAD_XDICTIONARY
360
7845
102
}
102
{ACAD_REACTORS
330
1A
102
}
330
1A
100
AcDbPlotSettings
  1

  2

  4

  6

 40
0.0
 41
0.0
 42
0.0
 43
0.0
 44
0.0
 45
0.0
 46
0.0
 47
0.0
 48
0.0
 49
0.0
140
0.0
141
0.0
142
1.0
143
1.0
 70
   688
 72
     0
 73
     0
 74
     5
  7
單色出圖.ctb
 75
    16
147
1.0
148
0.0
149
0.0
100
AcDbLayout
  1
配置1
 70
     1
 71
     1
 10
0.0
 20
0.0
 11
420.0
 21
297.0
 12
0.0
 22
0.0
 32
0.0
 14
1.000000000000000E+20
 24
1.000000000000000E+20
 34
1.000000000000000E+20
 15
-1.000000000000000E+20
 25
-1.000000000000000E+20
 35
-1.000000000000000E+20
146
0.0
 13
0.0
 23
0.0
 33
0.0
 16
1.0
 26
0.0
 36
0.0
 17
0.0
 27
1.0
 37
0.0
 76
     0
330
1B
  0
LAYOUT
  5
26
102
{ACAD_XDICTIONARY
360
7849
102
}
102
{ACAD_REACTORS
330
1A
102
}
330
1A
100
AcDbPlotSettings
  1

  2

  4

  6

 40
0.0
 41
0.0
 42
0.0
 43
0.0
 44
0.0
 45
0.0
 46
0.0
 47
0.0
 48
0.0
 49
0.0
140
0.0
141
0.0
142
1.0
143
1.0
 70
   688
 72
     0
 73
     0
 74
     5
  7
單色出圖.ctb
 75
    16
147
1.0
148
0.0
149
0.0
100
AcDbLayout
  1
配置2
 70
     1
 71
     2
 10
0.0
 20
0.0
 11
12.0
 21
9.0
 12
0.0
 22
0.0
 32
0.0
 14
0.0
 24
0.0
 34
0.0
 15
0.0
 25
0.0
 35
0.0
146
0.0
 13
0.0
 23
0.0
 33
0.0
 16
1.0
 26
0.0
 36
0.0
 17
0.0
 27
1.0
 37
0.0
 76
     0
330
23
  0
MLINESTYLE
  5
18
102
{ACAD_REACTORS
330
17
102
}
330
17
100
AcDbMlineStyle
  2
STANDARD
 70
     0
  3

 62
   256
 51
90.0
 52
90.0
 71
     2
 49
0.5
 62
   256
  6
BYLAYER
 49
-0.5
 62
   256
  6
BYLAYER
  0
ACDBPLACEHOLDER
  5
F
102
{ACAD_REACTORS
330
E
102
}
330
E
  0
TABLESTYLE
  5
11B
102
{ACAD_REACTORS
330
11A
102
}
330
11A
100
AcDbTableStyle
  3
Standard
 70
     0
 71
     0
 40
1.5
 41
1.5
280
     0
281
     0
  7
STANDARD
140
4.5
170
     2
 62
     0
 63
     7
283
     0
274
    -2
284
     1
 64
     0
275
    -2
285
     1
 65
     0
276
    -2
286
     1
 66
     0
277
    -2
287
     1
 67
     0
278
    -2
288
     1
 68
     0
279
    -2
289
     1
 69
     0
  7
STANDARD
140
6.0
170
     5
 62
     0
 63
     7
283
     0
274
    -2
284
     1
 64
     0
275
    -2
285
     1
 65
     0
276
    -2
286
     1
 66
     0
277
    -2
287
     1
 67
     0
278
    -2
288
     1
 68
     0
279
    -2
289
     1
 69
     0
  7
STANDARD
140
4.5
170
     5
 62
     0
 63
     7
283
     0
274
    -2
284
     1
 64
     0
275
    -2
285
     1
 65
     0
276
    -2
286
     1
 66
     0
277
    -2
287
     1
 67
     0
278
    -2
288
     1
 68
     0
279
    -2
289
     1
 69
     0
  0
DICTIONARYVAR
  5
138
102
{ACAD_REACTORS
330
94
102
}
330
94
100
DictionaryVariables
280
     0
  1
STANDARD
  0
DICTIONARYVAR
  5
96
102
{ACAD_REACTORS
330
94
102
}
330
94
100
DictionaryVariables
280
     0
  1
2
  0
DICTIONARYVAR
  5
95
102
{ACAD_REACTORS
330
94
102
}
330
94
100
DictionaryVariables
280
     0
  1
1
  0
DICTIONARYVAR
  5
4D31
102
{ACAD_REACTORS
330
94
102
}
330
94
100
DictionaryVariables
280
     0
  1

  0
DICTIONARY
  5
1B5
102
{ACAD_REACTORS
330
5B
102
}
330
5B
100
AcDbDictionary
281
     1
  0
DICTIONARY
  5
61
102
{ACAD_REACTORS
330
5B
102
}
330
5B
100
AcDbDictionary
281
     1
  0
XRECORD
  5
123
102
{ACAD_REACTORS
330
5B
102
}
330
5B
100
AcDbXrecord
280
     1
 90
-1023410169
  0
DICTIONARY
  5
4D3D
102
{ACAD_REACTORS
330
41
102
}
330
41
100
AcDbDictionary
281
     1
  3
DWGSETTINGS
350
4D3E
  3
Shaft
350
4E1B
  3
TRANSSETTINGS
350
4D42
  0
LAYER_INDEX
  5
4E41
102
{ACAD_REACTORS
330
4E40
102
}
330
4E40
100
AcDbIndex
 40
2456561.597511748
100
AcDbLayerIndex
  8
0
360
545A
 90
        6
  8
Defpoints
360
545B
 90
        0
  8
AM_7
360
545C
 90
        0
  8
LOGO
360
545D
 90
       76
  8
AM_5
360
545E
 90
        8
  8
AM_VIS
360
545F
 90
        0
  8
AM_0
360
5460
 90
        0
  8
AM_4
360
5461
 90
        0
  0
DICTIONARY
  5
7847
330
22
100
AcDbDictionary
280
     1
281
     1
  3
ACAD_XREC_ROUNDTRIP
360
7848
  0
DICTIONARY
  5
7845
330
1E
100
AcDbDictionary
280
     1
281
     1
  3
ACAD_XREC_ROUNDTRIP
360
7846
  0
DICTIONARY
  5
7849
330
26
100
AcDbDictionary
280
     1
281
     1
  3
ACAD_XREC_ROUNDTRIP
360
784A
  0
IDBUFFER
  5
545A
330
0
100
AcDbIdBuffer
330
DB0
330
E21
330
4CE4
330
4CE5
330
4CE6
330
7677
  0
IDBUFFER
  5
545B
330
0
100
AcDbIdBuffer
  0
IDBUFFER
  5
545C
330
0
100
AcDbIdBuffer
  0
IDBUFFER
  5
545D
330
0
100
AcDbIdBuffer
330
DEE
330
DEF
330
DF0
330
DF1
330
DF2
330
DF3
330
DF4
330
DF5
330
DF6
330
DF7
330
E00
330
E0E
330
4C8F
330
4C90
330
4C91
330
4C92
330
4C93
330
4C94
330
4C95
330
4C96
330
4C97
330
4C98
330
4C99
330
4C9A
330
4C9B
330
4C9C
330
4C9D
330
4C9E
330
4C9F
330
4CA0
330
4CA1
330
4CA2
330
4CA3
330
4CA4
330
4CA5
330
4CA6
330
4CA7
330
4CA8
330
4CA9
330
4CAA
330
4CAB
330
4CAC
330
4CB0
330
4CB4
330
4CB5
330
4CB9
330
4CBA
330
4CBB
330
4CBC
330
4CBD
330
4CBE
330
4CBF
330
4CC0
330
4CC4
330
4CC8
330
4CCC
330
4CCD
330
4CCE
330
4CD2
330
4CD3
330
4CD4
330
4CD5
330
4CD6
330
4CD7
330
4CD8
330
4CD9
330
4CDA
330
4CDB
330
4CDC
330
4CDD
330
4CDE
330
4CDF
330
4CE0
330
4CE1
330
4CE2
330
4CE3
  0
IDBUFFER
  5
545E
330
0
100
AcDbIdBuffer
330
7761
330
77A5
330
77E9
330
7818
330
534B
330
6F2C
330
746E
330
7588
  0
IDBUFFER
  5
545F
330
0
100
AcDbIdBuffer
  0
IDBUFFER
  5
5460
330
0
100
AcDbIdBuffer
  0
IDBUFFER
  5
5461
330
0
100
AcDbIdBuffer
  0
XRECORD
  5
7848
102
{ACAD_REACTORS
330
7847
102
}
330
7847
100
AcDbXrecord
280
     1
102
SHADEPLOT
 70
     1
102
SHADEPLOTRESLEVEL
 70
     2
102
SHADEPLOTCUSTOMDPI
 70
   300
  0
XRECORD
  5
7846
102
{ACAD_REACTORS
330
7845
102
}
330
7845
100
AcDbXrecord
280
     1
102
SHADEPLOT
 70
     0
102
SHADEPLOTRESLEVEL
 70
     2
102
SHADEPLOTCUSTOMDPI
 70
   300
  0
XRECORD
  5
784A
102
{ACAD_REACTORS
330
7849
102
}
330
7849
100
AcDbXrecord
280
     1
102
SHADEPLOT
 70
     0
102
SHADEPLOTRESLEVEL
 70
     2
102
SHADEPLOTCUSTOMDPI
 70
   300
  0
ENDSEC
  0
EOF
