  0
SECTION
  2
HEADER
  9
$ACADVER
  1
AC1012
  9
$DWGCODEPAGE
  3
big5
  9
$INSBASE
 10
0.0
 20
0.0
 30
0.0
  9
$EXTMIN
 10
548.605190525438
 20
120.6252039112454
 30
-0.000000000000013
  9
$EXTMAX
 10
827.5612611072656
 20
382.1293314317169
 30
0.0000000000000023
  9
$LIMMIN
 10
0.0
 20
0.0
  9
$LIMMAX
 10
420.0
 20
297.0
  9
$ORTHOMODE
 70
     1
  9
$REGENMODE
 70
     1
  9
$FILLMODE
 70
     1
  9
$QTEXTMODE
 70
     0
  9
$MIRRTEXT
 70
     1
  9
$DRAGMODE
 70
     2
  9
$LTSCALE
 40
0.8
  9
$OSMODE
 70
    55
  9
$ATTMODE
 70
     1
  9
$TEXTSIZE
 40
3.0
  9
$TRACEWID
 40
1.0
  9
$TEXTSTYLE
  7
CHINA
  9
$CLAYER
  8
0
  9
$CELTYPE
  6
BYLAYER
  9
$CECOLOR
 62
   256
  9
$CELTSCALE
 40
1.0
  9
$DELOBJ
 70
     1
  9
$DISPSILH
 70
     0
  9
$DIMSCALE
 40
1.0
  9
$DIMASZ
 40
3.0
  9
$DIMEXO
 40
2.0
  9
$DIMDLI
 40
8.0
  9
$DIMRND
 40
0.0
  9
$DIMDLE
 40
0.0
  9
$DIMEXE
 40
1.5
  9
$DIMTP
 40
0.1
  9
$DIMTM
 40
0.1
  9
$DIMTXT
 40
3.0
  9
$DIMCEN
 40
0.0
  9
$DIMTSZ
 40
0.0
  9
$DIMTOL
 70
     0
  9
$DIMLIM
 70
     0
  9
$DIMTIH
 70
     0
  9
$DIMTOH
 70
     0
  9
$DIMSE1
 70
     0
  9
$DIMSE2
 70
     0
  9
$DIMTAD
 70
     1
  9
$DIMZIN
 70
     8
  9
$DIMBLK
  1

  9
$DIMASO
 70
     1
  9
$DIMSHO
 70
     1
  9
$DIMPOST
  1

  9
$DIMAPOST
  1
"
  9
$DIMALT
 70
     0
  9
$DIMALTD
 70
     2
  9
$DIMALTF
 40
0.0393701
  9
$DIMLFAC
 40
1.0
  9
$DIMTOFL
 70
     1
  9
$DIMTVP
 40
0.0
  9
$DIMTIX
 70
     0
  9
$DIMSOXD
 70
     0
  9
$DIMSAH
 70
     0
  9
$DIMBLK1
  1

  9
$DIMBLK2
  1

  9
$DIMSTYLE
  2
AM_ISO
  9
$DIMCLRD
 70
   256
  9
$DIMCLRE
 70
   256
  9
$DIMCLRT
 70
   256
  9
$DIMTFAC
 40
0.71
  9
$DIMGAP
 40
1.0
  9
$DIMJUST
 70
     0
  9
$DIMSD1
 70
     0
  9
$DIMSD2
 70
     0
  9
$DIMTOLJ
 70
     0
  9
$DIMTZIN
 70
     8
  9
$DIMALTZ
 70
     0
  9
$DIMALTTZ
 70
     0
  9
$DIMFIT
 70
     3
  9
$DIMUPT
 70
     0
  9
$DIMUNIT
 70
     2
  9
$DIMDEC
 70
     2
  9
$DIMTDEC
 70
     2
  9
$DIMALTU
 70
     2
  9
$DIMALTTD
 70
     2
  9
$DIMTXSTY
  7
CHINA
  9
$DIMAUNIT
 70
     0
  9
$LUNITS
 70
     2
  9
$LUPREC
 70
     2
  9
$SKETCHINC
 40
1.0
  9
$FILLETRAD
 40
2.5
  9
$AUNITS
 70
     0
  9
$AUPREC
 70
     0
  9
$MENU
  1
.
  9
$ELEVATION
 40
0.0
  9
$PELEVATION
 40
0.0
  9
$THICKNESS
 40
0.0
  9
$LIMCHECK
 70
     0
  9
$BLIPMODE
 70
     0
  9
$CHAMFERA
 40
1.5
  9
$CHAMFERB
 40
1.5
  9
$CHAMFERC
 40
20.0
  9
$CHAMFERD
 40
0.0
  9
$SKPOLY
 70
     0
  9
$TDCREATE
 40
2452794.706235081
  9
$TDUPDATE
 40
2452796.645894907
  9
$TDINDWG
 40
0.1543710417
  9
$TDUSRTIMER
 40
0.1543708102
  9
$USRTIMER
 70
     1
  9
$ANGBASE
 50
0.0
  9
$ANGDIR
 70
     0
  9
$PDMODE
 70
     0
  9
$PDSIZE
 40
0.0
  9
$PLINEWID
 40
0.0
  9
$COORDS
 70
     0
  9
$SPLFRAME
 70
     0
  9
$SPLINETYPE
 70
     6
  9
$SPLINESEGS
 70
     8
  9
$ATTDIA
 70
     1
  9
$ATTREQ
 70
     1
  9
$HANDLING
 70
 22529
  9
$HANDSEED
  5
2A05
  9
$SURFTAB1
 70
     6
  9
$SURFTAB2
 70
     6
  9
$SURFTYPE
 70
     6
  9
$SURFU
 70
     6
  9
$SURFV
 70
     6
  9
$UCSNAME
  2

  9
$UCSORG
 10
0.0
 20
0.0
 30
0.0
  9
$UCSXDIR
 10
1.0
 20
0.0
 30
0.0
  9
$UCSYDIR
 10
0.0
 20
1.0
 30
0.0
  9
$PUCSNAME
  2

  9
$PUCSORG
 10
0.0
 20
0.0
 30
0.0
  9
$PUCSXDIR
 10
1.0
 20
0.0
 30
0.0
  9
$PUCSYDIR
 10
0.0
 20
1.0
 30
0.0
  9
$USERI1
 70
     0
  9
$USERI2
 70
     0
  9
$USERI3
 70
     0
  9
$USERI4
 70
     0
  9
$USERI5
 70
     0
  9
$USERR1
 40
0.0
  9
$USERR2
 40
0.0
  9
$USERR3
 40
0.0
  9
$USERR4
 40
0.0
  9
$USERR5
 40
0.0
  9
$WORLDVIEW
 70
     1
  9
$SHADEDGE
 70
     3
  9
$SHADEDIF
 70
    70
  9
$TILEMODE
 70
     1
  9
$MAXACTVP
 70
    64
  9
$PINSBASE
 10
0.0
 20
0.0
 30
0.0
  9
$PLIMCHECK
 70
     0
  9
$PEXTMIN
 10
26.80208481208632
 20
60.62932117531272
 30
-0.0000000000000153
  9
$PEXTMAX
 10
155.7606180029583
 20
204.4099130529699
 30
0.0
  9
$PLIMMIN
 10
-3.757083177566528
 20
-14.7637300491333
  9
$PLIMMAX
 10
206.2162444591522
 20
282.2045927047729
  9
$UNITMODE
 70
     0
  9
$VISRETAIN
 70
     1
  9
$PLINEGEN
 70
     0
  9
$PSLTSCALE
 70
     1
  9
$TREEDEPTH
 70
  3020
  9
$PICKSTYLE
 70
     0
  9
$CMLSTYLE
  2
STANDARD
  9
$CMLJUST
 70
     0
  9
$CMLSCALE
 40
20.0
  9
$SAVEIMAGES
 70
     1
  0
ENDSEC
  0
SECTION
  2
CLASSES
  0
CLASS
  1
ACDBDICTIONARYWDFLT
  2
AcDbDictionaryWithDefault
  3
AutoCAD 2000
 90
    32768
280
     0
281
     0
  0
CLASS
  1
ACDBPLACEHOLDER
  2
AcDbPlaceHolder
  3
AutoCAD 2000
 90
    32768
280
     0
281
     0
  0
CLASS
  1
LAYOUT
  2
AcDbLayout
  3
AutoCAD 2000
 90
    32768
280
     0
281
     0
  0
CLASS
  1
AMGSETTINGSOBJ
  2
AmgSettingsObj
  3
"AcadM|Product Description: AutoCAD Mechanical 2000|Company: Autodesk"
 90
    32768
280
     0
281
     0
  0
CLASS
  1
ACME_DOCUMENT
  2
AcMeDbDoc
  3
AcMeServices
 90
    32768
280
     0
281
     0
  0
CLASS
  1
ACMESCOPE
  2
AcMeScope
  3
AcMeServices
 90
    32768
280
     0
281
     0
  0
CLASS
  1
ACMECOMMANDHISTORY
  2
AcMeCommandHistory
  3
AcMeServices
 90
    32768
280
     0
281
     0
  0
CLASS
  1
ACIMSYSVARMAN
  2
AcImSysVarManager
  3
AcMeServices
 90
    32768
280
     0
281
     0
  0
CLASS
  1
ACIMREALSYSVAR
  2
AcImRealSysVar
  3
AcMeServices
 90
    32768
280
     0
281
     0
  0
CLASS
  1
ACIMINTSYSVAR
  2
AcImIntSysVar
  3
AcMeServices
 90
    32768
280
     0
281
     0
  0
CLASS
  1
ACMEDRAWINGMAN
  2
AcMeDrawingMan
  3
AcMeServices
 90
    32768
280
     0
281
     0
  0
CLASS
  1
ACMEVIEW
  2
AcMeView
  3
AcMeServices
 90
    32768
280
     0
281
     0
  0
CLASS
  1
ACDBENTITYCACHE
  2
AcMeEntityCache
  3
AcMeServices
 90
    32768
280
     0
281
     0
  0
CLASS
  1
GSMANAGER
  2
AcMeGSManager
  3
AcMeServices
 90
    32768
280
     0
281
     0
  0
CLASS
  1
AMDTINTERNALREACTOR
  2
AmdtInternalReactor
  3
AcMeServices
 90
    32768
280
     0
281
     0
  0
CLASS
  1
ACMESTATEMGR
  2
AcMeStateMgr
  3
AcMeServices
 90
    32768
280
     0
281
     0
  0
CLASS
  1
ACGREFMASTER
  2
AcGrefMaster
  3
AcAttribServices
 90
    32768
280
     0
281
     0
  0
CLASS
  1
AM_DRAWING_MGR
  2
AcDmDwgMgr
  3
AcMechDwgViewMgmt
 90
    32768
280
     0
281
     0
  0
CLASS
  1
AM_DWG_DOCUMENT
  2
AcDmDwgDocument
  3
AcMechDwgViewMgmt
 90
    32768
280
     0
281
     0
  0
CLASS
  1
AM_DWG_SHEET
  2
AcDmSheet
  3
AcMechDwgViewMgmt
 90
    32768
280
     0
281
     0
  0
CLASS
  1
AM_VIEWDIMPARMAP
  2
AcDmViewDimParMap
  3
AcMechDwgViewMgmt
 90
    32768
280
     0
281
     0
  0
CLASS
  1
AM_DWGMGR_NAME
  2
AcDmDwgMgrName
  3
AcMechDwgViewMgmt
 90
    32768
280
     0
281
     0
  0
CLASS
  1
ACME_DATABASE
  2
AcMeDbDatabase
  3
AcMeServices
 90
    32768
280
     0
281
     0
  0
CLASS
  1
ACRFINSADJUSTERMGR
  2
AcRfInsAdjusterMgr
  3
AcMeServices
 90
    32768
280
     0
281
     0
  0
CLASS
  1
ACGREFACADMASTER
  2
AcGrefacadMaster
  3
AcGrefServices
 90
    32768
280
     0
281
     0
  0
CLASS
  1
AMDTMENUSTATEMGR
  2
AmdtMenuStateMgr
  3
McadcomServices
 90
    32768
280
     0
281
     0
  0
CLASS
  1
AMDTMCOMMENUSTATE
  2
AmdtMcomMenuState
  3
McadcomServices
 90
    32768
280
     0
281
     0
  0
CLASS
  1
AMIMASTER
  2
AmiMaster
  3
AmiServices
 90
    32768
280
     0
281
     0
  0
CLASS
  1
ASAPP
  2
AcAsAppObject
  3
AutoSurfServices
 90
    32768
280
     0
281
     0
  0
CLASS
  1
IM_STATIC_MAN
  2
AcImStaticVarManager
  3
AcMeServices
 90
    32768
280
     0
281
     0
  0
CLASS
  1
ACIMSTRSYSVAR
  2
AcImStrSysVar
  3
AcMeServices
 90
    32768
280
     0
281
     0
  0
CLASS
  1
ACIMDBLSTATICVAR
  2
AcImDblStaticVar
  3
AcMeServices
 90
    32768
280
     0
281
     0
  0
CLASS
  1
ACIMSTRSTATICVAR
  2
AcImStrStaticVar
  3
AcMeServices
 90
    32768
280
     0
281
     0
  0
CLASS
  1
ACIMINTSTATICVAR
  2
AcImIntStaticVar
  3
AcMeServices
 90
    32768
280
     0
281
     0
  0
CLASS
  1
ACASGREFMASTER
  2
AcAsGrefMaster
  3
AutoSurfResolverServices
 90
    32768
280
     0
281
     0
  0
CLASS
  1
ACADGREFMODULE
  2
AcAdGrefModule
  3
AdGrefServices
 90
    32768
280
     0
281
     0
  0
CLASS
  1
AMDTMAPISURFMOUDULE
  2
AmdtMApiSurfModule
  3
MApiSurfServices
 90
    32768
280
     0
281
     0
  0
CLASS
  1
MAPIAMMOUDLE
  2
MApiAmModule
  3
MApiAmServices
 90
    32768
280
     0
281
     0
  0
CLASS
  1
AMDTADMENUSTATE
  2
AmdtAdMenuState
  3
DesignerServices
 90
    32768
280
     0
281
     0
  0
CLASS
  1
ADAPPL
  2
AcAdAppl
  3
DesignerServices
 90
    32768
280
     0
281
     0
  0
CLASS
  1
DEPMGR
  2
AcAdDepMgr
  3
DesignerServices
 90
    32768
280
     0
281
     0
  0
CLASS
  1
PARAMMGR
  2
AcAdParamMgr
  3
DesignerServices
 90
    32768
280
     0
281
     0
  0
CLASS
  1
PARAMSCOPE
  2
AcAdParamScope
  3
DesignerServices
 90
    32768
280
     0
281
     0
  0
CLASS
  1
NAMEDAPPL
  2
AcAdNamedAppl
  3
DesignerServices
 90
    32768
280
     0
281
     0
  0
CLASS
  1
AMDTDMMENUSTATE
  2
AmdtDmMenuState
  3
AcMechDwgViewMgmt
 90
    32768
280
     0
281
     0
  0
CLASS
  1
MAPIADMODULE
  2
MApiAdModule
  3
MApiAdServices
 90
    32768
280
     0
281
     0
  0
CLASS
  1
AMDTAMMENUSTATE
  2
AmdtAmMenuState
  3
DesignerAssemblies
 90
    32768
280
     0
281
     0
  0
CLASS
  1
ACAMPROJECT
  2
AcAmProject
  3
DesignerAssemblies
 90
    32768
280
     0
281
     0
  0
CLASS
  1
ACAMCOMPDEFMGR
  2
AcAmCompDefMgr
  3
DesignerAssemblies
 90
    32768
280
     0
281
     0
  0
CLASS
  1
AMCONTEXTMGR
  2
AcAmContextMgr
  3
DesignerAssemblies
 90
    32768
280
     0
281
     0
  0
CLASS
  1
ACAMCONTEXTPARTMODELER
  2
AcAmContextPartModeler
  3
DesignerAssemblies
 90
    32768
280
     0
281
     0
  0
CLASS
  1
ACMDATADICTIONARY
  2
AcmDataDictionary
  3
"AcmSymBB|Product Description: AutoCAD Mechanical 2000|Company: Autodesk"
 90
    32768
280
     0
281
     0
  0
CLASS
  1
ACMDATAENTRYBLOCK
  2
AcmDataEntryBlock
  3
"AcmSymBB|Product Description: AutoCAD Mechanical 2000|Company: Autodesk"
 90
    32768
280
     0
281
     0
  0
CLASS
  1
ACMSTANDARDISO
  2
AcmStandardISO
  3
"Amdt_StdImp|Product Description: AutoCAD Mechanical 2000|Company: Autodesk"
 90
    32768
280
     0
281
     0
  0
CLASS
  1
AMGOBJPROPCFG
  2
AmgObjPropCfg
  3
"AmgLay|Product Description: AutoCAD Mechanical 2000|Company: Autodesk"
 90
    32769
280
     0
281
     0
  0
CLASS
  1
AMDTEDGESTANDARDISO
  2
AmdtEdgeStdISO
  3
"Amdt_StdImp|Product Description: AutoCAD Mechanical 2000|Company: Autodesk"
 90
    32768
280
     0
281
     0
  0
CLASS
  1
ACMSURFSTANDARDISO
  2
AcmSurfTextStdISO
  3
"Amdt_StdImp|Product Description: AutoCAD Mechanical 2000|Company: Autodesk"
 90
    32768
280
     0
281
     0
  0
CLASS
  1
ACMFCFSTANDARDISO
  2
AcmFCFStdISO
  3
"Amdt_StdImp|Product Description: AutoCAD Mechanical 2000|Company: Autodesk"
 90
    32768
280
     0
281
     0
  0
CLASS
  1
ACMWELDSTANDARDISO
  2
AcmWeldingStdISO
  3
"Amdt_StdImp|Product Description: AutoCAD Mechanical 2000|Company: Autodesk"
 90
    32768
280
     0
281
     0
  0
CLASS
  1
ACMIDSTANDARDISO
  2
AcmIdStdISO
  3
"Amdt_StdImp|Product Description: AutoCAD Mechanical 2000|Company: Autodesk"
 90
    32768
280
     0
281
     0
  0
CLASS
  1
ACMDATUMSTANDARDISO
  2
AcmDatumStdISO
  3
"Amdt_StdImp|Product Description: AutoCAD Mechanical 2000|Company: Autodesk"
 90
    32768
280
     0
281
     0
  0
CLASS
  1
ACMBOMSTANDARDISO
  2
AcmBOMStdISO
  3
"Amdt_StdImp|Product Description: AutoCAD Mechanical 2000|Company: Autodesk"
 90
    32768
280
     0
281
     0
  0
CLASS
  1
ACMDETAILSTANDARDISO
  2
AmdtDetailSymStdISO
  3
"Amdt_StdImp|Product Description: AutoCAD Mechanical 2000|Company: Autodesk"
 90
    32768
280
     0
281
     0
  0
CLASS
  1
ACMSECTIONSTANDARDISO
  2
AmdtSectionSymStdISO
  3
"Amdt_StdImp|Product Description: AutoCAD Mechanical 2000|Company: Autodesk"
 90
    32768
280
     0
281
     0
  0
CLASS
  1
ACMCENTERLINESTANDARDISO
  2
AmdtCenterLineStdISO
  3
"Amdt_StdImp|Product Description: AutoCAD Mechanical 2000|Company: Autodesk"
 90
    32768
280
     0
281
     0
  0
CLASS
  1
ACMTHREADLINESTANDARDISO
  2
AmdtThreadLineStdISO
  3
"Amdt_StdImp|Product Description: AutoCAD Mechanical 2000|Company: Autodesk"
 90
    32768
280
     0
281
     0
  0
CLASS
  1
ACMNOTESTANDARDISO
  2
AmdtNoteStdISO
  3
"Amdt_StdImp|Product Description: AutoCAD Mechanical 2000|Company: Autodesk"
 90
    32768
280
     0
281
     0
  0
CLASS
  1
ACAMGLAYSTD
  2
AcAmgLayStd
  3
"AcAmgLayStd|Product Description: AutoCAD Mechanical 2000|Company: Autodesk"
 90
    32768
280
     0
281
     0
  0
CLASS
  1
ACAMGDIMSTD
  2
AcAmgDimStd
  3
"AcAmgDimStd|Product Description: AutoCAD Mechanical 2000|Company: Autodesk"
 90
    32768
280
     0
281
     0
  0
CLASS
  1
ACAMGHOLECHARTSTDISO
  2
AcAmgHoleChartStdISO
  3
ACMSYMBB_MODULE_NAME
 90
    32768
280
     0
281
     0
  0
CLASS
  1
ACAMGTITLESTD
  2
AcAmgTitleStd
  3
"TITLEAPP"
 90
    32768
280
     0
281
     0
  0
CLASS
  1
CATALOGSTATE
  2
AcAmCatalogState
  3
DesignerAssemblies
 90
    32768
280
     0
281
     0
  0
CLASS
  1
ACAMGRCOMPDEFSET
  2
AcAmGrCompDefSet
  3
DesignerAssemblies
 90
    32768
280
     0
281
     0
  0
CLASS
  1
AMDTBROWSERDBTAB
  2
AmdtBrowserDbTab
  3
McadcomServices
 90
    32768
280
     0
281
     0
  0
CLASS
  1
CBROWSERAPPOBJECT
  2
CBrowserAppObject
  3
McadcomServices
 90
    32768
280
     0
281
     0
  0
CLASS
  1
DM_PLACEHOLDER
  2
AcDmSelsetPlaceholder
  3
AcMechDwgViewMgmt
 90
    32768
280
     0
281
     0
  0
CLASS
  1
ACAMGFILTERDAT
  2
AcAmgFilterDat
  3
"AcadM|Product Description: AutoCAD Mechanical 2000|Company: Autodesk"
 90
    32768
280
     0
281
     0
  0
CLASS
  1
LAYER_INDEX
  2
AcDbLayerIndex
  3
AutoCAD 2000
 90
    32768
280
     0
281
     0
  0
CLASS
  1
IDBUFFER
  2
AcDbIdBuffer
  3
AutoCAD 2000
 90
    32768
280
     0
281
     0
  0
CLASS
  1
DICTIONARYVAR
  2
AcDbDictionaryVar
  3
AutoCAD 2000
 90
    32768
280
     0
281
     0
  0
CLASS
  1
ACAMGRCOMPDEF
  2
AcAmGrCompDef
  3
DesignerAssemblies
 90
    32768
280
     0
281
     0
  0
CLASS
  1
ACCMCONTEXT
  2
AcCmContext
  3
DesignerAssemblies
 90
    32768
280
     0
281
     0
  0
CLASS
  1
ACAMCOMPDEF
  2
AcAmCompDef
  3
DesignerAssemblies
 90
    32768
280
     0
281
     0
  0
CLASS
  1
ADPART
  2
AcAdPart
  3
DesignerServices
 90
    32768
280
     0
281
     1
  0
CLASS
  1
ADBASE
  2
AcAdBase
  3
DesignerServices
 90
    32768
280
     0
281
     0
  0
CLASS
  1
BODYID
  2
AcAdBodyId
  3
DesignerServices
 90
    32768
280
     0
281
     0
  0
CLASS
  1
WORKPLANEDISPLAYMGR
  2
AcAdDisplayMgr
  3
DesignerServices
 90
    32768
280
     0
281
     0
  0
CLASS
  1
ACCMBODY
  2
AcCmBody
  3
DesignerAssemblies
 90
    32768
280
     0
281
     0
  0
CLASS
  1
ACAMCOMPENT
  2
AcAmCompEnt
  3
DesignerAssemblies
 90
    32768
280
     0
281
     1
  0
CLASS
  1
ACAMCOMPFEEDBACK
  2
AcAmCompFeedback
  3
DesignerAssemblies
 90
    32768
280
     0
281
     0
  0
CLASS
  1
ACAMGROUNDEDBASECOMP
  2
AcAmGroundedBaseComp
  3
DesignerAssemblies
 90
    32768
280
     0
281
     0
  0
CLASS
  1
ACAMCOMPENTCLONE
  2
AcAmCompEntClone
  3
DesignerAssemblies
 90
    32768
280
     0
281
     1
  0
CLASS
  1
ACAMCLONEREACTOR
  2
AcAmGrCompCloneReactor
  3
DesignerAssemblies
 90
    32768
280
     0
281
     0
  0
CLASS
  1
ADDATUMPLANEABS
  2
AcAdDatumPlaneAbs
  3
DesignerServices
 90
    32768
280
     0
281
     0
  0
CLASS
  1
ADDATUMAXISABS
  2
AcAdDatumAxisAbs
  3
DesignerServices
 90
    32768
280
     0
281
     0
  0
CLASS
  1
ADDATUMORIENTEDPLANE
  2
AcAdDatumOrientedPlane
  3
DesignerServices
 90
    32768
280
     0
281
     0
  0
CLASS
  1
ACAD_LINE
  2
AcAdLine
  3
DesignerServices
 90
    32768
280
     0
281
     1
  0
CLASS
  1
ACADLINEACAD
  2
AcAdVirtualBoundedLineAcad
  3
DesignerServices
 90
    32768
280
     0
281
     0
  0
CLASS
  1
ACADREFLINEACAD
  2
AcAdVirtualReferenceLine
  3
DesignerServices
 90
    32768
280
     0
281
     0
  0
CLASS
  1
ACADCONSLINE
  2
AcAdConstrainedLine
  3
DesignerServices
 90
    32768
280
     0
281
     0
  0
CLASS
  1
ACADCONSGROUP
  2
AcAdConstraintGroup
  3
DesignerServices
 90
    32768
280
     0
281
     0
  0
CLASS
  1
ACADIMPPTACAD
  2
AcAdVirtualImplicitPoint
  3
DesignerServices
 90
    32768
280
     0
281
     0
  0
CLASS
  1
ACADCONSPOINT
  2
AcAdConstrainedPoint
  3
DesignerServices
 90
    32768
280
     0
281
     0
  0
CLASS
  1
ADPCURCNS
  2
AcAdPointCurveConstr
  3
DesignerServices
 90
    32768
280
     0
281
     0
  0
CLASS
  1
ADVERCNS
  2
AcAdVerticalConstr
  3
DesignerServices
 90
    32768
280
     0
281
     0
  0
CLASS
  1
ADHORCNS
  2
AcAdHorizontalConstr
  3
DesignerServices
 90
    32768
280
     0
281
     0
  0
CLASS
  1
ADCLPROF2D
  2
AcAdClosedProfile2d
  3
DesignerServices
 90
    32768
280
     0
281
     0
  0
CLASS
  1
ACAD_FIXCONSTRAINT
  2
AcAdFixedConstraint
  3
DesignerServices
 90
    32768
280
     0
281
     0
  0
CLASS
  1
AMDTFORMULAUPDATEDISPATCHER
  2
AmdtFormulaUpdateDispatcher
  3
AcMeServices
 90
    32768
280
     0
281
     0
  0
CLASS
  1
ADCONSDISP
  2
AcAdConstraintDisplay
  3
DesignerServices
 90
    32768
280
     0
281
     1
  0
CLASS
  1
ADCONSTDSP
  2
AcAdConstraintDisplayTag
  3
DesignerServices
 90
    32768
280
     0
281
     1
  0
CLASS
  1
PARAM
  2
AcAdParam
  3
DesignerServices
 90
    32768
280
     0
281
     0
  0
CLASS
  1
ADVDISTCNS
  2
AcAdVerticalDistanceConstr
  3
DesignerServices
 90
    32768
280
     0
281
     0
  0
CLASS
  1
ADHDISTCNS
  2
AcAdHorizontalDistanceConstr
  3
DesignerServices
 90
    32768
280
     0
281
     0
  0
CLASS
  1
ACMEROTATIONARROW
  2
AcImRotationArrowDisplay
  3
AcMeServices
 90
    32768
280
     0
281
     1
  0
CLASS
  1
ACADVOLFEATWITHTRIM
  2
AcAdVolFeatWithTrim
  3
DesignerServices
 90
    32768
280
     0
281
     0
  0
CLASS
  1
DEPEDGEFEATUREORDERING
  2
AcAdDepEdgeFeatureOrdering
  3
DesignerServices
 90
    32768
280
     0
281
     0
  0
CLASS
  1
DATUMAXISDISPLAY
  2
AcAdDatumAxisDisplay
  3
DesignerServices
 90
    32768
280
     0
281
     1
  0
CLASS
  1
ADDATUMAXISCENTER
  2
AcAdDatumAxisCenter
  3
DesignerServices
 90
    32768
280
     0
281
     0
  0
CLASS
  1
ADPLANEID
  2
AcAdSurfGeomId
  3
DesignerServices
 90
    32768
280
     0
281
     0
  0
CLASS
  1
ACMEPOINT
  2
AcImPointDisplay
  3
AcMeServices
 90
    32768
280
     0
281
     1
  0
CLASS
  1
ADPLANEID
  2
AcAdPlaneId
  3
DesignerServices
 90
    32768
280
     0
281
     0
  0
CLASS
  1
ADDATUMPLANEFACE
  2
AcAdDatumPlaneFace
  3
DesignerServices
 90
    32768
280
     0
281
     0
  0
CLASS
  1
ADDATUMPOINTAXISPLANE
  2
AcAdDatumPointAxisPlane
  3
DesignerServices
 90
    32768
280
     0
281
     0
  0
CLASS
  1
ADHOLEFEAT
  2
AcAdHoleFeat
  3
DesignerServices
 90
    32768
280
     0
281
     0
  0
CLASS
  1
CIRREFID
  2
AcAdCircleRefId
  3
DesignerServices
 90
    32768
280
     0
281
     0
  0
CLASS
  1
ACADCIRCDEPID
  2
AcAdVirtualCircleDepId
  3
DesignerServices
 90
    32768
280
     0
281
     0
  0
CLASS
  1
ACADCONSCIRCLE
  2
AcAdConstrainedCircle
  3
DesignerServices
 90
    32768
280
     0
281
     0
  0
CLASS
  1
ADCTRPTCNS
  2
AcAdCenterPointConstr
  3
DesignerServices
 90
    32768
280
     0
281
     0
  0
CLASS
  1
AMDT_ALIGNED_DIM
  2
AmdtAlignedDimension
  3
AcMeServices
 90
    32768
280
     0
281
     1
  0
CLASS
  1
ACADBOUNDEDLINEDATUMID
  2
AcAdVirtualBoundedLineDatumId
  3
DesignerServices
 90
    32768
280
     0
281
     0
  0
CLASS
  1
AMDT_ORDINATE_DIM
  2
AmdtOrdinateDimension
  3
AcMeServices
 90
    32768
280
     0
281
     1
  0
CLASS
  1
EDGEID
  2
AcAdEdgeId
  3
DesignerServices
 90
    32768
280
     0
281
     0
  0
CLASS
  1
ADFILLET
  2
AcAdFillet
  3
DesignerServices
 90
    32768
280
     0
281
     0
  0
CLASS
  1
DATUMPLANEDISPLAY
  2
AcAdDatumPlaneDisplay
  3
DesignerServices
 90
    32768
280
     0
281
     1
  0
CLASS
  1
ADDATUMPLANEAXISPLANE
  2
AcAdDatumPlaneAxisPlane
  3
DesignerServices
 90
    32768
280
     0
281
     0
  0
CLASS
  1
ACMEPLINE
  2
AcImPlineDisplay
  3
AcMeServices
 90
    32768
280
     0
281
     1
  0
CLASS
  1
ACMELINEARARROW
  2
AcImLinearArrowDisplay
  3
AcMeServices
 90
    32768
280
     0
281
     1
  0
CLASS
  1
ACMETEXT
  2
AcImTextDisplay
  3
AcMeServices
 90
    32768
280
     0
281
     1
  0
CLASS
  1
ADDATUMPLANEOFFSET
  2
AcAdDatumPlaneOffset
  3
DesignerServices
 90
    32768
280
     0
281
     0
  0
CLASS
  1
ADCOLNCNS
  2
AcAdColinearConstr
  3
DesignerServices
 90
    32768
280
     0
281
     0
  0
CLASS
  1
STREFID
  2
AcAdStraightRefId
  3
DesignerServices
 90
    32768
280
     0
281
     0
  0
CLASS
  1
ACADLINEDEPID
  2
AcAdVirtualLineDepId
  3
DesignerServices
 90
    32768
280
     0
281
     0
  0
CLASS
  1
ADFEATUREDISPLAY
  2
AcImFeatureDisplay
  3
ACME_MODULE_NAME
 90
    32768
280
     0
281
     1
  0
CLASS
  1
ACMEAXIS
  2
AcImAxisDisplay
  3
AcMeServices
 90
    32768
280
     0
281
     1
  0
CLASS
  1
DEPEDGEPATTERNFEATURE
  2
AcAdDepEdgePatternFeature
  3
DesignerServices
 90
    32768
280
     0
281
     0
  0
CLASS
  1
ACADPATTNFEAT
  2
AcAdPatternFeat
  3
DesignerServices
 90
    32768
280
     0
281
     0
  0
CLASS
  1
ACADORDORIGPT
  2
AcAdOrdinateOriginPoint
  3
DesignerServices
 90
    32768
280
     0
281
     0
  0
CLASS
  1
ADORDBASECNS
  2
AcAdOrdinateBaseConstr
  3
DesignerServices
 90
    32768
280
     0
281
     0
  0
CLASS
  1
DEPEDGESECONDARYDEPID
  2
AcAdDepEdgeSecondaryDepId
  3
DesignerServices
 90
    32768
280
     0
281
     0
  0
CLASS
  1
DEPEDGEPATTERNINSTANCE
  2
AcAdDepEdgePatternInstance
  3
DesignerServices
 90
    32768
280
     0
281
     0
  0
CLASS
  1
AM_VIEW_SELECT_FILTER
  2
AcDmActivePartViewEntFilter
  3
DesignerServices
 90
    32768
280
     0
281
     0
  0
CLASS
  1
AM_ABS_PLANE
  2
AcDmAbsPlnDef
  3
AcMechDwgViewMgmt
 90
    32768
280
     0
281
     0
  0
CLASS
  1
AM_ABS_AXIS
  2
AcDmAbsAxisDef
  3
AcMechDwgViewMgmt
 90
    32768
280
     0
281
     0
  0
CLASS
  1
AM_BASE_VIEW_ORIENT
  2
AcDmBaseViewOr
  3
AcMechDwgViewMgmt
 90
    32768
280
     0
281
     0
  0
CLASS
  1
AM_DWG_VIEWPORT
  2
AcDmViewport
  3
AcMechDwgViewMgmt
 90
    32768
280
     0
281
     0
  0
CLASS
  1
AM_VIEW_DISPLAY
  2
AcDmDwgViewDisplay
  3
AcMechDwgViewMgmt
 90
    32768
280
     0
281
     0
  0
CLASS
  1
AM_CLDFLTS
  2
AcDmClDflts
  3
AcMechDwgViewMgmt
 90
    32768
280
     0
281
     0
  0
CLASS
  1
AM_BASE_VIEW
  2
AcDmBaseView
  3
AcMechDwgViewMgmt
 90
    32768
280
     0
281
     0
  0
CLASS
  1
AM_ISO_VIEW_ORIENT
  2
AcDmIsoViewOr
  3
AcMechDwgViewMgmt
 90
    32768
280
     0
281
     0
  0
CLASS
  1
AM_ISO_VIEW
  2
AcDmIsoView
  3
AcMechDwgViewMgmt
 90
    32768
280
     0
281
     0
  0
CLASS
  1
AM_ORTHO_VIEW_ORIENT
  2
AcDmOrthoViewOr
  3
AcMechDwgViewMgmt
 90
    32768
280
     0
281
     0
  0
CLASS
  1
AM_ORTHO_VIEW
  2
AcDmOrthoView
  3
AcMechDwgViewMgmt
 90
    32768
280
     0
281
     0
  0
CLASS
  1
ACDMPARTVIEWDATA
  2
AcDmPartViewData
  3
AcMechDwgViewMgmt
 90
    32768
280
     0
281
     0
  0
CLASS
  1
ACDMDISPLAYATTRIBS
  2
AcDmDisplayAttribs
  3
AcMechDwgViewMgmt
 90
    32768
280
     0
281
     0
  0
CLASS
  1
ACDMBODYINSTANCEDATA
  2
AcDmBodyInstanceData
  3
AcMechDwgViewMgmt
 90
    32768
280
     0
281
     0
  0
CLASS
  1
ACDMVWEDLINE
  2
AcDmViewEdgeLine
  3
AcMechDwgViewMgmt
 90
    32768
280
     0
281
     1
  0
CLASS
  1
ACDMVWEDARC
  2
AcDmViewEdgeArc
  3
AcMechDwgViewMgmt
 90
    32768
280
     0
281
     1
  0
CLASS
  1
ACADSKETCHPOINTRES
  2
AcAdSketchPointRes
  3
DesignerServices
 90
    32768
280
     0
281
     0
  0
CLASS
  1
AM_VIEWDIMLINEAR
  2
AcDmViewDimLinear
  3
AcMechDwgViewMgmt
 90
    32768
280
     0
281
     0
  0
CLASS
  1
AMDTDMPARMAPDATA
  2
AmdtDmDimParMapData
  3
AcMechDwgViewMgmt
 90
    32768
280
     0
281
     0
  0
CLASS
  1
AM_ADLINCTRLINE
  2
AcAdLineCl
  3
DesignerServices
 90
    32768
280
     0
281
     0
  0
CLASS
  1
ACDMVWEDCIRC
  2
AcDmViewEdgeCircle
  3
AcMechDwgViewMgmt
 90
    32768
280
     0
281
     1
  0
CLASS
  1
AM_ADCIRCTRLINE
  2
AcAdBullsEyeCl
  3
DesignerServices
 90
    32768
280
     0
281
     0
  0
CLASS
  1
AD_CIRCTAPH
  2
AcAdTapHoleCircDisp
  3
DesignerServices
 90
    32768
280
     0
281
     0
  0
CLASS
  1
ACDMVIEWGEOM
  2
AcDmViewGeometry
  3
AcMechDwgViewMgmt
 90
    32768
280
     0
281
     1
  0
CLASS
  1
FACEID
  2
AcAdFaceId
  3
DesignerServices
 90
    32768
280
     0
281
     0
  0
CLASS
  1
ACADPARTPLANARFACERES
  2
AcAdPartPlanarFaceRes
  3
AdGrefServices
 90
    32768
280
     0
281
     0
  0
CLASS
  1
AM_GREF_PLANE
  2
AcDmGrefPlnDef
  3
AcMechDwgViewMgmt
 90
    32768
280
     0
281
     0
  0
CLASS
  1
ACADPARTLINEDGRES
  2
AcAdPartLinEdgRes
  3
AdGrefServices
 90
    32768
280
     0
281
     0
  0
CLASS
  1
AM_GREF_AXIS
  2
AcDmGrefAxisDef
  3
AcMechDwgViewMgmt
 90
    32768
280
     0
281
     0
  0
CLASS
  1
AMDTEXTERNALTHREAD
  2
AmdtExternalThreadFeat
  3
DesignerServices
 90
    32768
280
     0
281
     0
  0
CLASS
  1
THREADDISPLAY
  2
AcAdThreadDisplay
  3
DesignerServices
 90
    32768
280
     0
281
     1
  0
CLASS
  1
AD_LINETAPH
  2
AcAdTapHoleLineDisp
  3
DesignerServices
 90
    32768
280
     0
281
     0
  0
CLASS
  1
ADRADDISP
  2
AcAdRadiusDisplay
  3
DesignerServices
 90
    32768
280
     0
281
     1
  0
CLASS
  1
ACDBLINERES
  2
AcDbLineRes
  3
AcGrefServices
 90
    32768
280
     0
281
     0
  0
CLASS
  1
ACADPARTCONICALFACERES
  2
AcAdPartConicalFaceRes
  3
AdGrefServices
 90
    32768
280
     0
281
     0
  0
CLASS
  1
ACDMGREFEDIT
  2
AcDmViewEntityGeomrefEdit
  3
AcMechDwgViewMgmt
 90
    32768
280
     0
281
     0
  0
CLASS
  1
ACDMVIEWLINEDGERES
  2
AcDmViewLinEdgeRes
  3
AcMechDwgViewMgmt
 90
    32768
280
     0
281
     0
  0
CLASS
  1
SILEDGEID
  2
AcAdSilhouetteEdgeId
  3
DesignerServices
 90
    32768
280
     0
281
     0
  0
CLASS
  1
ACADPARTCYLINDERFACERES
  2
AcAdPartCylinderFaceRes
  3
AdGrefServices
 90
    32768
280
     0
281
     0
  0
CLASS
  1
CNRREFID
  2
AcAdCornerId
  3
DesignerServices
 90
    32768
280
     0
281
     0
  0
CLASS
  1
ACADPARTPOINTRES
  2
AcAdPartPointRes
  3
AdGrefServices
 90
    32768
280
     0
281
     0
  0
CLASS
  1
ACADPARTCIRCEDGRES
  2
AcAdPartCircEdgRes
  3
AdGrefServices
 90
    32768
280
     0
281
     0
  0
CLASS
  1
ACRFDMINSADJ
  2
AcRfDMInsAdjuster
  3
AcMechDwgViewMgmt
 90
    32768
280
     0
281
     0
  0
CLASS
  1
AM_VIEWDIMRADIUS
  2
AcDmViewDimRadius
  3
AcMechDwgViewMgmt
 90
    32768
280
     0
281
     0
  0
CLASS
  1
ACADPARTDATUMPLANERES
  2
AcAdPartDatumPlaneRes
  3
AdGrefServices
 90
    32768
280
     0
281
     0
  0
CLASS
  1
AM_FULLPLANESECTION
  2
AcDmFullPlaneSection
  3
AcMechDwgViewMgmt
 90
    32768
280
     0
281
     0
  0
CLASS
  1
AMDTSECTIONSYM
  2
AmdtSectionSym
  3
"AcmSymBB|Product Description: AutoCAD Mechanical 2000|Company: Autodesk"
 90
    33791
280
     0
281
     1
  0
CLASS
  1
AM_VWNOTEADAPTER
  2
AcDmViewAnnotAdapter
  3
AcMechDwgViewMgmt
 90
    32768
280
     0
281
     0
  0
CLASS
  1
AMDTSECTIONSYMLABEL
  2
AmdtSectionSymLabel
  3
"AcmSymBB|Product Description: AutoCAD Mechanical 2000|Company: Autodesk"
 90
    33791
280
     0
281
     1
  0
CLASS
  1
AMDTNOTE
  2
AmdtNote
  3
"AcmSymBB|Product Description: AutoCAD Mechanical 2000|Company: Autodesk"
 90
    33791
280
     0
281
     1
  0
CLASS
  1
DIMASSOC
  2
AcDbDimAssoc
  3
"AcDbDimAssoc|Product Desc:     AcDim ARX App For Dimension|Company:          Autodesk, Inc.|WEB Address:      www.autodesk.com"
 90
    32768
280
     0
281
     0
  0
CLASS
  1
ACMSTANDARDANSI
  2
AcmStandardANSI
  3
"Amdt_StdImp|Product Description: AutoCAD Mechanical 2000|Company: Autodesk"
 90
    32768
280
     0
281
     0
  0
CLASS
  1
ACMSURFSTANDARDANSI
  2
AcmSurfTextStdANSI
  3
"Amdt_StdImp|Product Description: AutoCAD Mechanical 2000|Company: Autodesk"
 90
    32768
280
     0
281
     0
  0
CLASS
  1
ACMFCFSTANDARDANSI
  2
AcmFCFStdANSI
  3
"Amdt_StdImp|Product Description: AutoCAD Mechanical 2000|Company: Autodesk"
 90
    32768
280
     0
281
     0
  0
CLASS
  1
ACMWELDSTANDARDANSI
  2
AcmWeldingStdANSI
  3
"Amdt_StdImp|Product Description: AutoCAD Mechanical 2000|Company: Autodesk"
 90
    32768
280
     0
281
     0
  0
CLASS
  1
ACMIDSTANDARDANSI
  2
AcmIdStdANSI
  3
"Amdt_StdImp|Product Description: AutoCAD Mechanical 2000|Company: Autodesk"
 90
    32768
280
     0
281
     0
  0
CLASS
  1
ACMDATUMSTANDARDANSI
  2
AcmDatumStdANSI
  3
"Amdt_StdImp|Product Description: AutoCAD Mechanical 2000|Company: Autodesk"
 90
    32768
280
     0
281
     0
  0
CLASS
  1
ACMBOMSTANDARDANSI
  2
AcmBOMStdANSI
  3
"Amdt_StdImp|Product Description: AutoCAD Mechanical 2000|Company: Autodesk"
 90
    32768
280
     0
281
     0
  0
CLASS
  1
ACMDETAILSTANDARDANSI
  2
AmdtDetailSymStdANSI
  3
"Amdt_StdImp|Product Description: AutoCAD Mechanical 2000|Company: Autodesk"
 90
    32768
280
     0
281
     0
  0
CLASS
  1
ACMSECTIONSTANDARDANSI
  2
AmdtSectionSymStdANSI
  3
"Amdt_StdImp|Product Description: AutoCAD Mechanical 2000|Company: Autodesk"
 90
    32768
280
     0
281
     0
  0
CLASS
  1
ACMCENTERLINESTANDARDANSI
  2
AmdtCenterLineStdANSI
  3
"Amdt_StdImp|Product Description: AutoCAD Mechanical 2000|Company: Autodesk"
 90
    32768
280
     0
281
     0
  0
CLASS
  1
ACMNOTESTANDARDANSI
  2
AmdtNoteStdANSI
  3
"Amdt_StdImp|Product Description: AutoCAD Mechanical 2000|Company: Autodesk"
 90
    32768
280
     0
281
     0
  0
CLASS
  1
ACAMGHOLECHARTSTDANSI
  2
AcAmgHoleChartStdANSI
  3
ACMSYMBB_MODULE_NAME
 90
    32768
280
     0
281
     0
  0
CLASS
  1
ACDBCIRCARCRES
  2
AcDbCircArcRes
  3
AcGrefServices
 90
    32768
280
     0
281
     0
  0
CLASS
  1
STDPART2D
  2
AmgStdPart
  3
"AmgStdPart|Product Description: AutoCAD Mechanical 2000|Company: Autodesk"
 90
    33791
280
     0
281
     1
  0
CLASS
  1
ACMDATAENTRYPART
  2
AcmDataEntryPart
  3
"AcmSymBB|Product Description: AutoCAD Mechanical 2000|Company: Autodesk"
 90
    32768
280
     0
281
     0
  0
CLASS
  1
ACMPARTREF
  2
AcmPartRef
  3
"AcmSymBB|Product Description: AutoCAD Mechanical 2000|Company: Autodesk"
 90
    33791
280
     0
281
     1
  0
CLASS
  1
ACDBSTDPARTRES_LINE
  2
AcDbStdPartRes_Line
  3
"AcDbStdPartRes_Line|Product Description: AutoCAD Mechanical 2000|Company: Autodesk"
 90
    32768
280
     0
281
     0
  0
CLASS
  1
LONG_TRANSACTION
  2
AcDbLongTransaction
  3
AutoCAD 2000
 90
    32768
280
     0
281
     0
  0
CLASS
  1
LWPOLYLINE
  2
AcDbPolyline
  3
AutoCAD 2000
 90
    32768
280
     0
281
     1
  0
CLASS
  1
HATCH
  2
AcDbHatch
  3
AutoCAD 2000
 90
    32768
280
     0
281
     1
  0
CLASS
  1
XRECORD
  2
AcDbXrecord
  3
AutoCAD 2000
 90
    32768
280
     0
281
     0
  0
ENDSEC
  0
SECTION
  2
TABLES
  0
TABLE
  2
VPORT
  5
1A
330
0
100
AcDbSymbolTable
 70
     5
  0
VPORT
  5
29BD
330
1A
100
AcDbSymbolTableRecord
100
AcDbViewportTableRecord
  2
*ACTIVE
 70
     0
 10
0.0
 20
0.0
 11
1.0
 21
1.0
 12
688.0832258163518
 22
251.3772676714812
 13
0.0
 23
0.0
 14
2.5
 24
2.5
 15
10.0
 25
10.0
 16
0.0
 26
0.0
 36
1.0
 17
0.0
 27
0.0
 37
0.0
 40
264.2910276361426
 41
1.765124555160142
 42
50.0
 43
0.0
 44
0.0
 50
0.0
 51
0.0
 71
     0
 72
   100
 73
     1
 74
     3
 75
     0
 76
     0
 77
     0
 78
     0
  0
ENDTAB
  0
TABLE
  2
LTYPE
  5
15
330
0
100
AcDbSymbolTable
 70
    17
  0
LTYPE
  5
16
330
15
100
AcDbSymbolTableRecord
100
AcDbLinetypeTableRecord
  2
BYBLOCK
 70
     0
  3

 72
    65
 73
     0
 40
0.0
  0
LTYPE
  5
17
330
15
100
AcDbSymbolTableRecord
100
AcDbLinetypeTableRecord
  2
BYLAYER
 70
     0
  3

 72
    65
 73
     0
 40
0.0
  0
LTYPE
  5
9
330
15
100
AcDbSymbolTableRecord
100
AcDbLinetypeTableRecord
  2
CONTINUOUS
 70
     0
  3
Solid line
 72
    65
 73
     0
 40
0.0
  0
LTYPE
  5
161
330
15
100
AcDbSymbolTableRecord
100
AcDbLinetypeTableRecord
  2
HIDDEN
 70
     0
  3
Hidden __ __ __ __ __ __ __ __ __ __ __ __ __ _
 72
    65
 73
     2
 40
9.524999999999998
 49
6.349999999999999
 74
     0
 49
-3.174999999999999
 74
     0
  0
LTYPE
  5
BF
330
15
100
AcDbSymbolTableRecord
100
AcDbLinetypeTableRecord
  2
AM_ISO08W050
 70
     0
  3
____ . ____ . ____ . ____ . ____ . ____ . ____
 72
    65
 73
     4
 40
18.0
 49
12.0
 74
     0
 49
-1.5
 74
     0
 49
3.0
 74
     0
 49
-1.5
 74
     0
  0
LTYPE
  5
1FD
330
15
100
AcDbSymbolTableRecord
100
AcDbLinetypeTableRecord
  2
AM_ISO02W050
 70
     0
  3
__ __ __ __ __ __ __ __ __ __ __ __ __ __ __
 72
    65
 73
     2
 40
7.5
 49
6.0
 74
     0
 49
-1.5
 74
     0
  0
LTYPE
  5
1FE
330
15
100
AcDbSymbolTableRecord
100
AcDbLinetypeTableRecord
  2
AM_ISO09W050
 70
     0
  3
_____ . . _____ . . _____ . . ____ .. ____
 72
    65
 73
     6
 40
22.5
 49
12.0
 74
     0
 49
-1.5
 74
     0
 49
3.0
 74
     0
 49
-1.5
 74
     0
 49
3.0
 74
     0
 49
-1.5
 74
     0
  0
LTYPE
  5
1FF
330
15
100
AcDbSymbolTableRecord
100
AcDbLinetypeTableRecord
  2
AMCONSTR
 70
     0
  3
_______________________
 72
    65
 73
     2
 40
9999.0
 49
9999.0
 74
     0
 49
0.0
 74
     0
  0
LTYPE
  5
200
330
15
100
AcDbSymbolTableRecord
100
AcDbLinetypeTableRecord
  2
AM_ISO08W050X2
 70
     0
  3
__ . __ . __ . __ . __ . __
 72
    65
 73
     4
 40
9.0
 49
6.0
 74
     0
 49
-0.75
 74
     0
 49
1.5
 74
     0
 49
-0.75
 74
     0
  0
LTYPE
  5
201
330
15
100
AcDbSymbolTableRecord
100
AcDbLinetypeTableRecord
  2
AM_ISO02W050X2
 70
     0
  3
 _ _ _ _ _ _ _ _ _ _ _ _
 72
    65
 73
     2
 40
3.75
 49
3.0
 74
     0
 49
-0.75
 74
     0
  0
LTYPE
  5
204
330
15
100
AcDbSymbolTableRecord
100
AcDbLinetypeTableRecord
  2
AMZIGZAG
 70
     0
  3
/\/-/\/-/\/-/\/-/\/-/\/
 72
    65
 73
     2
 40
11.00009999999999
 49
0.0001
 74
     4
 75
   135
340
203
 46
0.04
 50
0.0
 44
0.0
 45
0.0
 49
-11.0
 74
     0
  0
LTYPE
  5
211
330
15
100
AcDbSymbolTableRecord
100
AcDbLinetypeTableRecord
  2
ACISOWELD
 70
     0
  3
_ _ _ _ _
 72
    65
 73
     2
 40
2.0
 49
2.0
 74
     0
 49
-1.0
 74
     0
  0
LTYPE
  5
212
330
15
100
AcDbSymbolTableRecord
100
AcDbLinetypeTableRecord
  2
ACISOTGB
 70
     0
  3
__ . . __ . .
 72
    65
 73
     6
 40
9.0
 49
4.0
 74
     0
 49
-1.0
 74
     0
 49
1.0
 74
     0
 49
-1.0
 74
     0
 49
1.0
 74
     0
 49
-1.0
 74
     0
  0
LTYPE
  5
213
330
15
100
AcDbSymbolTableRecord
100
AcDbLinetypeTableRecord
  2
ACISOTGL
 70
     0
  3
_ _ _ _ _
 72
    65
 73
     2
 40
3.0
 49
2.0
 74
     0
 49
-1.0
 74
     0
  0
LTYPE
  5
214
330
15
100
AcDbSymbolTableRecord
100
AcDbLinetypeTableRecord
  2
CENTER
 70
     0
  3
__ . __
 72
    65
 73
     4
 40
7.0
 49
4.0
 74
     0
 49
-1.0
 74
     0
 49
1.0
 74
     0
 49
-1.0
 74
     0
  0
LTYPE
  5
1112
330
15
100
AcDbSymbolTableRecord
100
AcDbLinetypeTableRecord
  2
PHANTOM2
 70
     0
  3
Phantom (.5x) ___ _ _ ___ _ _ ___ _ _ ___ _ _
 72
    65
 73
     6
 40
1.25
 49
0.625
 74
     0
 49
-0.125
 74
     0
 49
0.125
 74
     0
 49
-0.125
 74
     0
 49
0.125
 74
     0
 49
-0.125
 74
     0
  0
LTYPE
  5
1115
330
15
100
AcDbSymbolTableRecord
100
AcDbLinetypeTableRecord
  2
ACANSTGB
 70
     0
  3
__ . . __ . .
 72
    65
 73
     6
 40
0.35433070866
 49
0.15748031496
 74
     0
 49
-0.03937007874
 74
     0
 49
0.03937007874
 74
     0
 49
-0.03937007874
 74
     0
 49
0.03937007874
 74
     0
 49
-0.03937007874
 74
     0
  0
LTYPE
  5
1116
330
15
100
AcDbSymbolTableRecord
100
AcDbLinetypeTableRecord
  2
ACANSTGL
 70
     0
  3
_ _ _ _ _
 72
    65
 73
     2
 40
0.11811023622
 49
0.07874015748
 74
     0
 49
-0.03937007874
 74
     0
  0
ENDTAB
  0
TABLE
  2
LAYER
  5
11
330
0
100
AcDbSymbolTable
 70
    12
  0
LAYER
  5
5
330
11
100
AcDbSymbolTableRecord
100
AcDbLayerTableRecord
  2
0
 70
     0
 62
     7
  6
CONTINUOUS
  0
LAYER
  5
3B
330
11
100
AcDbSymbolTableRecord
100
AcDbLayerTableRecord
  2
DEFPOINTS
 70
     0
 62
     7
  6
CONTINUOUS
  0
LAYER
  5
14E
330
11
100
AcDbSymbolTableRecord
100
AcDbLayerTableRecord
  2
AM_5
 70
     0
 62
     5
  6
CONTINUOUS
  0
LAYER
  5
32
330
11
100
AcDbSymbolTableRecord
100
AcDbLayerTableRecord
  2
AM_PARDIM
 70
     0
 62
     5
  6
CONTINUOUS
  0
LAYER
  5
BE
330
11
100
AcDbSymbolTableRecord
100
AcDbLayerTableRecord
  2
AM_7
 70
     0
 62
     1
  6
AM_ISO08W050
  0
LAYER
  5
1117
330
11
100
AcDbSymbolTableRecord
100
AcDbLayerTableRecord
  2
HIDDEN
 70
     0
 62
     6
  6
HIDDEN
  0
LAYER
  5
1118
330
11
100
AcDbSymbolTableRecord
100
AcDbLayerTableRecord
  2
DIM
 70
     0
 62
     5
  6
CONTINUOUS
  0
LAYER
  5
1119
330
11
100
AcDbSymbolTableRecord
100
AcDbLayerTableRecord
  2
CENTER
 70
     0
 62
     1
  6
CENTER
  0
LAYER
  5
111A
330
11
100
AcDbSymbolTableRecord
100
AcDbLayerTableRecord
  2
LOGO
 70
     0
 62
     7
  6
CONTINUOUS
  0
LAYER
  5
1EA3
330
11
100
AcDbSymbolTableRecord
100
AcDbLayerTableRecord
  2
AM_4
 70
     0
 62
     3
  6
CONTINUOUS
  0
LAYER
  5
1F59
330
11
100
AcDbSymbolTableRecord
100
AcDbLayerTableRecord
  2
AM_4N
 70
     0
 62
     3
  6
CONTINUOUS
  0
ENDTAB
  0
TABLE
  2
STYLE
  5
12
330
0
100
AcDbSymbolTable
 70
    11
  0
STYLE
  5
13
330
12
100
AcDbSymbolTableRecord
100
AcDbTextStyleTableRecord
  2
STANDARD
 70
     0
 40
0.0
 41
1.0
 50
0.0
 71
     0
 42
2.5
  3
ISOCP.SHX
  4
CHINESET.SHX
  0
STYLE
  5
152
330
12
100
AcDbSymbolTableRecord
100
AcDbTextStyleTableRecord
  2
ACISOTS
 70
     0
 40
1.0
 41
1.0
 50
0.0
 71
     0
 42
2.5
  3
isocp.shx
  4
chineset.shx
  0
STYLE
  5
203
330
12
100
AcDbSymbolTableRecord
100
AcDbTextStyleTableRecord
  2

 70
     1
 40
0.0
 41
1.0
 50
0.0
 71
     0
 42
2.5
  3
ltypeshp.shx
  4

  0
STYLE
  5
210
330
12
100
AcDbSymbolTableRecord
100
AcDbTextStyleTableRecord
  2
ACISOGDT
 70
     0
 40
0.0
 41
1.0
 50
0.0
 71
     0
 42
2.5
  3
amgdt.shx
  4

  0
STYLE
  5
356
330
12
100
AcDbSymbolTableRecord
100
AcDbTextStyleTableRecord
  2
CHINESET
 70
     0
 40
0.0
 41
1.0
 50
0.0
 71
     0
 42
2.5
  3
simplex.shx
  4
CHINESET.shx
  0
STYLE
  5
357
330
12
100
AcDbSymbolTableRecord
100
AcDbTextStyleTableRecord
  2
CHINA
 70
     0
 40
0.0
 41
1.0
 50
0.0
 71
     0
 42
3.0
  3
/rubon/c2
  4
/rubon/china
  0
STYLE
  5
111C
330
12
100
AcDbSymbolTableRecord
100
AcDbTextStyleTableRecord
  2
ROMANS
 70
     0
 40
0.0
 41
1.0
 50
0.0
 71
     0
 42
3.0
  3
ROMANS.SHX
  4
LMP
  0
STYLE
  5
111D
330
12
100
AcDbSymbolTableRecord
100
AcDbTextStyleTableRecord
  2
ROMANS1
 70
     0
 40
0.0
 41
1.0
 50
0.0
 71
     0
 42
3.0
  3
ROMANS.SHX
  4

  0
STYLE
  5
111E
330
12
100
AcDbSymbolTableRecord
100
AcDbTextStyleTableRecord
  2
LOGO
 70
     0
 40
0.0
 41
1.0
 50
0.0
 71
     0
 42
5.0
  3
LEI00DP.TTF
  4

1001
ACAD
1000
文鼎中粗隸
1071
    34865
  0
STYLE
  5
111F
330
12
100
AcDbSymbolTableRecord
100
AcDbTextStyleTableRecord
  2
ACANSTS
 70
     0
 40
1.0
 41
1.0
 50
0.0
 71
     0
 42
2.5
  3
romans.shx
  4
chineset.shx
  0
STYLE
  5
1120
330
12
100
AcDbSymbolTableRecord
100
AcDbTextStyleTableRecord
  2
ACANSGDT
 70
     0
 40
0.0
 41
1.0
 50
0.0
 71
     0
 42
2.5
  3
amgdtans.shx
  4

  0
ENDTAB
  0
TABLE
  2
VIEW
  5
18
330
0
100
AcDbSymbolTable
 70
     0
  0
ENDTAB
  0
TABLE
  2
UCS
  5
19
330
0
100
AcDbSymbolTable
 70
     0
  0
ENDTAB
  0
TABLE
  2
APPID
  5
1C
330
0
100
AcDbSymbolTable
 70
    27
  0
APPID
  5
1D
330
1C
100
AcDbSymbolTableRecord
100
AcDbRegAppTableRecord
  2
ACAD
 70
     0
  0
APPID
  5
41
330
1C
100
AcDbSymbolTableRecord
100
AcDbRegAppTableRecord
  2
AD_SKETCHDIM
 70
     0
  0
APPID
  5
42
330
1C
100
AcDbSymbolTableRecord
100
AcDbRegAppTableRecord
  2
ACAD_DIMASSOC_DIMLFAC
 70
     0
  0
APPID
  5
40
330
1C
100
AcDbSymbolTableRecord
100
AcDbRegAppTableRecord
  2
ACAD_DIMASSOC_CALC_DIMLFAC
 70
     0
  0
APPID
  5
1DF
330
1C
100
AcDbSymbolTableRecord
100
AcDbRegAppTableRecord
  2
MCAD_NO_VIS
 70
     0
  0
APPID
  5
1E0
330
1C
100
AcDbSymbolTableRecord
100
AcDbRegAppTableRecord
  2
ACAD_TEMP_GRAPHIC
 70
     0
  0
APPID
  5
1F1
330
1C
100
AcDbSymbolTableRecord
100
AcDbRegAppTableRecord
  2
ACATTRIBSERVICES
 70
     0
  0
APPID
  5
CAF
330
1C
100
AcDbSymbolTableRecord
100
AcDbRegAppTableRecord
  2
GENIUS_GENODEF_13
 70
     0
  0
APPID
  5
CB0
330
1C
100
AcDbSymbolTableRecord
100
AcDbRegAppTableRecord
  2
GENIUS_GENOBJ-N-DIM_13
 70
     0
  0
APPID
  5
CBC
330
1C
100
AcDbSymbolTableRecord
100
AcDbRegAppTableRecord
  2
GENIUS_GENDIM_13
 70
     0
  0
APPID
  5
CDC
330
1C
100
AcDbSymbolTableRecord
100
AcDbRegAppTableRecord
  2
GENIUS_GENDIMSH_14
 70
     0
  0
APPID
  5
E3C
330
1C
100
AcDbSymbolTableRecord
100
AcDbRegAppTableRecord
  2
GENIUS_GENOBJ-N-HTC_13
 70
     0
  0
APPID
  5
E3D
330
1C
100
AcDbSymbolTableRecord
100
AcDbRegAppTableRecord
  2
GENIUS_GENHATCH_13
 70
     0
  0
APPID
  5
E59
330
1C
100
AcDbSymbolTableRecord
100
AcDbRegAppTableRecord
  2
DCO15
 70
     0
  0
APPID
  5
1128
330
1C
100
AcDbSymbolTableRecord
100
AcDbRegAppTableRecord
  2
GENIUS_GENOENT_13
 70
     0
  0
APPID
  5
1129
330
1C
100
AcDbSymbolTableRecord
100
AcDbRegAppTableRecord
  2
GENIUS_GENOLIS_13
 70
     0
  0
APPID
  5
112A
330
1C
100
AcDbSymbolTableRecord
100
AcDbRegAppTableRecord
  2
GENIUS_GENOBJ-N-CRS_13
 70
     0
  0
APPID
  5
112B
330
1C
100
AcDbSymbolTableRecord
100
AcDbRegAppTableRecord
  2
GENIUS_GENOREF_13
 70
     0
  0
APPID
  5
1E97
330
1C
100
AcDbSymbolTableRecord
100
AcDbRegAppTableRecord
  2
GEVID1054773671
 70
     0
  0
APPID
  5
1E98
330
1C
100
AcDbSymbolTableRecord
100
AcDbRegAppTableRecord
  2
GEVDC
 70
     0
  0
APPID
  5
1E99
330
1C
100
AcDbSymbolTableRecord
100
AcDbRegAppTableRecord
  2
GEVRADREF
 70
     0
  0
APPID
  5
1E9D
330
1C
100
AcDbSymbolTableRecord
100
AcDbRegAppTableRecord
  2
GENIUS_GENBH_13
 70
     0
  0
APPID
  5
1EA0
330
1C
100
AcDbSymbolTableRecord
100
AcDbRegAppTableRecord
  2
GENIUS_GENOBJ-NBEHI-BHF_13
 70
     0
  0
APPID
  5
1EA2
330
1C
100
AcDbSymbolTableRecord
100
AcDbRegAppTableRecord
  2
GENIUS_GENOBJ-NBEHI-BHB_13
 70
     0
  0
APPID
  5
1F4E
330
1C
100
AcDbSymbolTableRecord
100
AcDbRegAppTableRecord
  2
GEVID1054773672
 70
     0
  0
APPID
  5
1F50
330
1C
100
AcDbSymbolTableRecord
100
AcDbRegAppTableRecord
  2
GEVCON
 70
     0
  0
APPID
  5
2204
330
1C
100
AcDbSymbolTableRecord
100
AcDbRegAppTableRecord
  2
GEVID1054773673
 70
     0
  0
ENDTAB
  0
TABLE
  2
DIMSTYLE
  5
1E
330
0
100
AcDbSymbolTable
 70
    14
  0
DIMSTYLE
105
1F
102
{ACAD_REACTORS
330
31
330
43
330
52
330
5F
330
6C
330
79
330
86
330
95
330
A3
330
B0
330
1FDB
330
1FDA
330
1FDC
330
1FD7
330
212C
330
2128
330
212B
330
217F
102
}
330
1E
100
AcDbSymbolTableRecord
100
AcDbDimStyleTableRecord
  2
AM_ISO
 70
     0
  3

  4
"
  5

  6

  7

 40
1.0
 41
3.0
 42
2.0
 43
8.0
 44
1.5
 45
0.0
 46
0.0
 47
0.1
 48
0.1
140
3.0
141
0.0
142
0.0
143
0.0393701
144
1.0
145
0.0
146
0.71
147
1.0
 71
     0
 72
     0
 73
     0
 74
     0
 75
     0
 76
     0
 77
     1
 78
     8
170
     0
171
     2
172
     1
173
     0
174
     0
175
     0
176
   256
177
   256
178
   256
270
     2
271
     2
272
     2
273
     2
274
     2
340
357
275
     0
280
     0
281
     0
282
     0
283
     0
284
     8
285
     0
286
     0
287
     3
288
     0
  0
DIMSTYLE
105
217
330
1E
100
AcDbSymbolTableRecord
100
AcDbDimStyleTableRecord
  2
AM_ISO$3
 70
     0
  3

  4
"
  5

  6

  7

 40
1.0
 41
3.0
 42
2.0
 43
8.0
 44
1.5
 45
0.0
 46
0.0
 47
0.1
 48
0.1
140
3.0
141
0.0
142
0.0
143
0.0393701
144
1.0
145
0.0
146
0.71
147
1.0
 71
     0
 72
     0
 73
     0
 74
     1
 75
     0
 76
     0
 77
     1
 78
     8
170
     0
171
     2
172
     0
173
     0
174
     0
175
     0
176
   256
177
   256
178
   256
270
     2
271
     2
272
     2
273
     2
274
     2
340
357
275
     0
280
     0
281
     0
282
     0
283
     0
284
     8
285
     0
286
     0
287
     0
288
     1
  0
DIMSTYLE
105
218
330
1E
100
AcDbSymbolTableRecord
100
AcDbDimStyleTableRecord
  2
AM_ISO$4
 70
     0
  3

  4
"
  5

  6

  7

 40
1.0
 41
3.0
 42
2.0
 43
8.0
 44
1.5
 45
0.0
 46
0.0
 47
0.1
 48
0.1
140
3.0
141
0.0
142
0.0
143
0.0393701
144
1.0
145
0.0
146
0.71
147
1.0
 71
     0
 72
     0
 73
     0
 74
     1
 75
     0
 76
     0
 77
     1
 78
     8
170
     0
171
     2
172
     0
173
     0
174
     0
175
     0
176
   256
177
   256
178
   256
270
     2
271
     2
272
     2
273
     2
274
     2
340
357
275
     0
280
     0
281
     0
282
     0
283
     0
284
     8
285
     0
286
     0
287
     0
288
     1
  0
DIMSTYLE
105
219
330
1E
100
AcDbSymbolTableRecord
100
AcDbDimStyleTableRecord
  2
AM_ISO$6
 70
     0
  3

  4
"
  5

  6

  7

 40
1.0
 41
3.0
 42
2.0
 43
8.0
 44
1.5
 45
0.0
 46
0.0
 47
0.1
 48
0.1
140
3.0
141
0.0
142
0.0
143
0.0393701
144
1.0
145
0.0
146
0.71
147
1.0
 71
     0
 72
     0
 73
     0
 74
     0
 75
     0
 76
     0
 77
     0
 78
     8
170
     0
171
     2
172
     1
173
     0
174
     0
175
     0
176
   256
177
   256
178
   256
270
     2
271
     2
272
     2
273
     2
274
     2
340
357
275
     0
280
     0
281
     0
282
     0
283
     0
284
     8
285
     0
286
     0
287
     3
288
     0
  0
DIMSTYLE
105
21A
330
1E
100
AcDbSymbolTableRecord
100
AcDbDimStyleTableRecord
  2
AM_ISO$7
 70
     0
  3

  4
"
  5

  6

  7

 40
1.0
 41
2.5
 42
2.0
 43
8.0
 44
1.5
 45
0.0
 46
0.0
 47
0.1
 48
0.1
140
5.0
141
0.0
142
0.0
143
0.0393701
144
1.0
145
0.0
146
0.71
147
1.5
 71
     0
 72
     0
 73
     0
 74
     0
 75
     0
 76
     0
 77
     1
 78
     8
170
     0
171
     2
172
     1
173
     0
174
     0
175
     0
176
   256
177
   256
178
   256
270
     2
271
     2
272
     2
273
     2
274
     2
340
357
275
     0
280
     0
281
     0
282
     0
283
     0
284
     8
285
     0
286
     0
287
     3
288
     0
  0
DIMSTYLE
105
21B
330
1E
100
AcDbSymbolTableRecord
100
AcDbDimStyleTableRecord
  2
AM_ISO$SF
 70
     0
  3

  4
"
  5

  6

  7

 40
1.0
 41
3.0
 42
2.0
 43
5.0
 44
1.5
 45
0.0
 46
0.0
 47
0.1
 48
0.1
140
3.0
141
0.0
142
0.0
143
0.0393701
144
1.0
145
0.0
146
0.71
147
1.0
 71
     0
 72
     0
 73
     0
 74
     0
 75
     1
 76
     1
 77
     1
 78
     8
170
     0
171
     2
172
     1
173
     0
174
     0
175
     0
176
   256
177
   256
178
     5
270
     2
271
     2
272
     2
273
     2
274
     2
340
13
275
     0
280
     0
281
     0
282
     0
283
     0
284
     8
285
     0
286
     0
287
     3
288
     0
  0
DIMSTYLE
105
220
330
1E
100
AcDbSymbolTableRecord
100
AcDbDimStyleTableRecord
  2
AM_ISO$SH
 70
     0
  3

  4
"
  5

  6
GENAXEH
  7

 40
1.0
 41
3.0
 42
2.0
 43
5.0
 44
1.5
 45
0.0
 46
0.0
 47
0.1
 48
0.1
140
3.0
141
0.0
142
0.0
143
0.0393701
144
2.0
145
0.0
146
0.71
147
1.0
 71
     0
 72
     0
 73
     0
 74
     0
 75
     1
 76
     1
 77
     1
 78
     8
170
     0
171
     2
172
     1
173
     1
174
     0
175
     0
176
   256
177
   256
178
     5
270
     2
271
     2
272
     2
273
     2
274
     2
340
13
275
     0
280
     0
281
     0
282
     0
283
     0
284
     8
285
     0
286
     0
287
     3
288
     0
  0
DIMSTYLE
105
1121
102
{ACAD_REACTORS
330
1FDD
102
}
330
1E
100
AcDbSymbolTableRecord
100
AcDbDimStyleTableRecord
  2
STANDARD
 70
     0
  3

  4

  5

  6

  7

 40
1.0
 41
0.18
 42
0.0625
 43
0.38
 44
0.18
 45
0.0
 46
0.0
 47
0.0
 48
0.0
140
0.18
141
0.09
142
0.0
143
25.4
144
1.0
145
0.0
146
1.0
147
0.09
 71
     0
 72
     0
 73
     1
 74
     1
 75
     0
 76
     0
 77
     0
 78
     0
170
     0
171
     2
172
     0
173
     0
174
     0
175
     0
176
     0
177
     0
178
     0
270
     2
271
     4
272
     4
273
     2
274
     2
340
13
275
     0
280
     0
281
     0
282
     0
283
     1
284
     0
285
     0
286
     0
287
     3
288
     0
  0
DIMSTYLE
105
1122
330
1E
100
AcDbSymbolTableRecord
100
AcDbDimStyleTableRecord
  2
AM_ANSI
 70
     0
  3

  4
mm
  5

  6

  7

 40
1.0
 41
0.1
 42
0.05
 43
0.5
 44
0.1
 45
0.0
 46
0.0
 47
0.1
 48
0.1
140
0.12
141
0.0
142
0.0
143
25.4
144
1.0
145
0.0
146
0.71
147
0.06
 71
     0
 72
     0
 73
     1
 74
     1
 75
     0
 76
     0
 77
     0
 78
     7
170
     0
171
     2
172
     0
173
     0
174
     0
175
     0
176
   256
177
   256
178
     2
270
     2
271
     4
272
     4
273
     2
274
     4
340
13
275
     0
280
     0
281
     0
282
     0
283
     1
284
     7
285
     0
286
     0
287
     3
288
     0
  0
DIMSTYLE
105
1123
330
1E
100
AcDbSymbolTableRecord
100
AcDbDimStyleTableRecord
  2
AM_ANSI$3
 70
     0
  3

  4
mm
  5

  6

  7

 40
1.0
 41
0.1
 42
0.05
 43
0.5
 44
0.1
 45
0.0
 46
0.0
 47
0.1
 48
0.1
140
0.12
141
0.0
142
0.0
143
25.4
144
1.0
145
0.0
146
0.71
147
0.06
 71
     0
 72
     0
 73
     1
 74
     1
 75
     0
 76
     0
 77
     0
 78
     7
170
     0
171
     2
172
     0
173
     0
174
     0
175
     0
176
   256
177
   256
178
     2
270
     2
271
     4
272
     4
273
     2
274
     4
340
13
275
     0
280
     0
281
     0
282
     0
283
     1
284
     7
285
     0
286
     0
287
     0
288
     1
  0
DIMSTYLE
105
1124
330
1E
100
AcDbSymbolTableRecord
100
AcDbDimStyleTableRecord
  2
AM_ANSI$4
 70
     0
  3

  4
mm
  5

  6

  7

 40
1.0
 41
0.1
 42
0.05
 43
0.5
 44
0.1
 45
0.0
 46
0.0
 47
0.1
 48
0.1
140
0.12
141
0.0
142
0.0
143
25.4
144
1.0
145
0.0
146
0.71
147
0.06
 71
     0
 72
     0
 73
     1
 74
     1
 75
     0
 76
     0
 77
     0
 78
     7
170
     0
171
     2
172
     0
173
     0
174
     0
175
     0
176
   256
177
   256
178
     2
270
     2
271
     4
272
     4
273
     2
274
     4
340
13
275
     0
280
     0
281
     0
282
     0
283
     1
284
     7
285
     0
286
     0
287
     0
288
     1
  0
DIMSTYLE
105
1125
330
1E
100
AcDbSymbolTableRecord
100
AcDbDimStyleTableRecord
  2
AM_ANSI$7
 70
     0
  3

  4
mm
  5

  6

  7

 40
1.0
 41
0.1
 42
0.05
 43
0.5
 44
0.1
 45
0.0
 46
0.0
 47
0.1
 48
0.1
140
0.24
141
0.0
142
0.0
143
25.4
144
1.0
145
0.0
146
0.71
147
0.06
 71
     0
 72
     0
 73
     1
 74
     1
 75
     0
 76
     0
 77
     0
 78
     7
170
     0
171
     2
172
     0
173
     0
174
     0
175
     0
176
   256
177
   256
178
     2
270
     2
271
     4
272
     4
273
     2
274
     4
340
13
275
     0
280
     0
281
     0
282
     0
283
     1
284
     7
285
     0
286
     0
287
     3
288
     0
  0
DIMSTYLE
105
1126
330
1E
100
AcDbSymbolTableRecord
100
AcDbDimStyleTableRecord
  2
AM_ANSI$SF
 70
     0
  3

  4
mm
  5

  6

  7

 40
1.0
 41
0.1
 42
0.05
 43
0.5
 44
0.1
 45
0.0
 46
0.0
 47
0.1
 48
0.1
140
0.12
141
0.0
142
0.0
143
25.4
144
1.0
145
0.0
146
0.71
147
0.06
 71
     0
 72
     0
 73
     1
 74
     1
 75
     1
 76
     1
 77
     0
 78
     7
170
     0
171
     2
172
     0
173
     0
174
     0
175
     0
176
   256
177
   256
178
     2
270
     2
271
     4
272
     4
273
     2
274
     4
340
13
275
     0
280
     0
281
     0
282
     0
283
     1
284
     7
285
     0
286
     0
287
     3
288
     0
  0
DIMSTYLE
105
1127
330
1E
100
AcDbSymbolTableRecord
100
AcDbDimStyleTableRecord
  2
AM_ANSI$SH
 70
     0
  3

  4
mm
  5

  6
GENAXEH
  7

 40
1.0
 41
0.1
 42
0.05
 43
0.5
 44
0.1
 45
0.0
 46
0.0
 47
0.1
 48
0.1
140
0.12
141
0.0
142
0.0
143
25.4
144
1.0
145
0.0
146
0.71
147
0.06
 71
     0
 72
     0
 73
     1
 74
     1
 75
     1
 76
     1
 77
     0
 78
     7
170
     0
171
     2
172
     0
173
     1
174
     0
175
     0
176
   256
177
   256
178
     2
270
     2
271
     4
272
     4
273
     2
274
     4
340
13
275
     0
280
     0
281
     0
282
     0
283
     1
284
     7
285
     0
286
     0
287
     3
288
     0
  0
ENDTAB
  0
TABLE
  2
BLOCK_RECORD
  5
1
330
0
100
AcDbSymbolTable
 70
    75
  0
BLOCK_RECORD
  5
2
102
{ACAD_XDICTIONARY
360
3
102
}
330
1
100
AcDbSymbolTableRecord
100
AcDbBlockTableRecord
  2
*MODEL_SPACE
  0
BLOCK_RECORD
  5
D
102
{ACAD_XDICTIONARY
360
29BF
102
}
330
1
100
AcDbSymbolTableRecord
100
AcDbBlockTableRecord
  2
*PAPER_SPACE
  0
BLOCK_RECORD
  5
21C
330
1
100
AcDbSymbolTableRecord
100
AcDbBlockTableRecord
  2
GENAXEH
  0
BLOCK_RECORD
  5
F83
330
1
100
AcDbSymbolTableRecord
100
AcDbBlockTableRecord
  2
*D1
  0
BLOCK_RECORD
  5
F8F
330
1
100
AcDbSymbolTableRecord
100
AcDbBlockTableRecord
  2
*D2
  0
BLOCK_RECORD
  5
F9D
330
1
100
AcDbSymbolTableRecord
100
AcDbBlockTableRecord
  2
*D3
  0
BLOCK_RECORD
  5
FA9
330
1
100
AcDbSymbolTableRecord
100
AcDbBlockTableRecord
  2
*D4
  0
BLOCK_RECORD
  5
FB5
330
1
100
AcDbSymbolTableRecord
100
AcDbBlockTableRecord
  2
*D5
  0
BLOCK_RECORD
  5
FC1
330
1
100
AcDbSymbolTableRecord
100
AcDbBlockTableRecord
  2
*D6
  0
BLOCK_RECORD
  5
FCD
330
1
100
AcDbSymbolTableRecord
100
AcDbBlockTableRecord
  2
*D7
  0
BLOCK_RECORD
  5
FDB
330
1
100
AcDbSymbolTableRecord
100
AcDbBlockTableRecord
  2
*D8
  0
BLOCK_RECORD
  5
FE8
330
1
100
AcDbSymbolTableRecord
100
AcDbBlockTableRecord
  2
*D9
  0
BLOCK_RECORD
  5
FF4
330
1
100
AcDbSymbolTableRecord
100
AcDbBlockTableRecord
  2
*D10
  0
BLOCK_RECORD
  5
1D96
330
1
100
AcDbSymbolTableRecord
100
AcDbBlockTableRecord
  2
GENDOT
  0
BLOCK_RECORD
  5
1FDE
330
1
100
AcDbSymbolTableRecord
100
AcDbBlockTableRecord
  2
*D12
  0
BLOCK_RECORD
  5
1FEA
330
1
100
AcDbSymbolTableRecord
100
AcDbBlockTableRecord
  2
*D13
  0
BLOCK_RECORD
  5
1FF6
330
1
100
AcDbSymbolTableRecord
100
AcDbBlockTableRecord
  2
*D14
  0
BLOCK_RECORD
  5
2002
330
1
100
AcDbSymbolTableRecord
100
AcDbBlockTableRecord
  2
*D15
  0
BLOCK_RECORD
  5
2032
330
1
100
AcDbSymbolTableRecord
100
AcDbBlockTableRecord
  2
*D16
  0
BLOCK_RECORD
  5
212D
330
1
100
AcDbSymbolTableRecord
100
AcDbBlockTableRecord
  2
*D17
  0
BLOCK_RECORD
  5
2139
330
1
100
AcDbSymbolTableRecord
100
AcDbBlockTableRecord
  2
*D18
  0
BLOCK_RECORD
  5
2150
330
1
100
AcDbSymbolTableRecord
100
AcDbBlockTableRecord
  2
*D19
  0
BLOCK_RECORD
  5
2180
330
1
100
AcDbSymbolTableRecord
100
AcDbBlockTableRecord
  2
*D20
  0
BLOCK_RECORD
  5
29F5
330
1
100
AcDbSymbolTableRecord
100
AcDbBlockTableRecord
  2
*S73
  0
BLOCK_RECORD
  5
29FD
330
1
100
AcDbSymbolTableRecord
100
AcDbBlockTableRecord
  2
*S74
  0
ENDTAB
  0
ENDSEC
  0
SECTION
  2
BLOCKS
  0
BLOCK
  5
4
330
2
100
AcDbEntity
  8
0
100
AcDbBlockBegin
  2
*MODEL_SPACE
 70
     0
 10
0.0
 20
0.0
 30
0.0
  3
*MODEL_SPACE
  1

  0
ENDBLK
  5
A
330
2
100
AcDbEntity
  8
0
100
AcDbBlockEnd
  0
BLOCK
  5
E
330
D
100
AcDbEntity
 67
     1
  8
0
100
AcDbBlockBegin
  2
*PAPER_SPACE
 70
     0
 10
0.0
 20
0.0
 30
0.0
  3
*PAPER_SPACE
  1

  0
ENDBLK
  5
F
330
D
100
AcDbEntity
 67
     1
  8
0
100
AcDbBlockEnd
  0
BLOCK
  5
21E
330
21C
100
AcDbEntity
  8
0
100
AcDbBlockBegin
  2
GENAXEH
 70
     0
 10
0.0
 20
0.0
 30
0.0
  3
GENAXEH
  1

  0
LINE
  5
21D
330
21C
100
AcDbEntity
  8
0
100
AcDbLine
 10
-1.0
 20
0.0
 30
0.0
 11
1.0
 21
0.0
 31
0.0
  0
ENDBLK
  5
21F
330
21C
100
AcDbEntity
  8
0
100
AcDbBlockEnd
  0
BLOCK
  5
F8D
330
F83
100
AcDbEntity
  8
0
100
AcDbBlockBegin
  2
*D1
 70
     1
 10
0.0
 20
0.0
 30
0.0
  3
*D1
  1

  0
LINE
  5
1C57
330
F83
100
AcDbEntity
  8
AM_PARDIM
100
AcDbLine
 10
77.37464887656421
 20
116.1938113892625
 30
0.0
 11
116.0325708695175
 21
116.1938113892624
 31
0.0
  0
LINE
  5
1C58
330
F83
100
AcDbEntity
  8
AM_PARDIM
100
AcDbLine
 10
77.37464887656421
 20
128.6938113892625
 30
0.0
 11
116.0325708695175
 21
128.6938113892625
 31
0.0
  0
LINE
  5
1C59
330
F83
100
AcDbEntity
  8
AM_PARDIM
100
AcDbLine
 10
114.5325708695175
 20
119.1938113892624
 30
0.0
 11
114.5325708695175
 21
125.6938113892624
 31
0.0
  0
SOLID
  5
1C5A
330
F83
100
AcDbEntity
  8
AM_PARDIM
100
AcDbTrace
 10
114.0325708695175
 20
119.1938113892624
 30
0.0
 11
115.0325708695175
 21
119.1938113892624
 31
0.0
 12
114.5325708695175
 22
116.1938113892624
 32
0.0
 13
114.5325708695175
 23
116.1938113892624
 33
0.0
  0
SOLID
  5
1C5B
330
F83
100
AcDbEntity
  8
AM_PARDIM
100
AcDbTrace
 10
114.0325708695175
 20
125.6938113892624
 30
0.0
 11
115.0325708695175
 21
125.6938113892624
 31
0.0
 12
114.5325708695175
 22
128.6938113892625
 32
0.0
 13
114.5325708695175
 23
128.6938113892625
 33
0.0
  0
MTEXT
  5
1C5C
330
F83
100
AcDbEntity
  8
AM_PARDIM
100
AcDbMText
 10
112.0244343865778
 20
122.4438113892625
 30
0.0
 40
3.0
 41
0.0
 71
     5
 72
     1
  1
12.5
  7
CHINA
 11
0.0000000000000001
 21
1.0
 31
0.0
1001
ACAD
1000
MTEXTBEGIN
1070
    73
1070
     1
1070
    44
1040
1.0
1070
    74
1070
     0
1000
MTEXTEND
  0
POINT
  5
1C5D
330
F83
100
AcDbEntity
  8
DEFPOINTS
 62
     0
100
AcDbPoint
 10
75.37464887656421
 20
116.1938113892625
 30
0.0
  0
POINT
  5
1C5E
330
F83
100
AcDbEntity
  8
DEFPOINTS
 62
     0
100
AcDbPoint
 10
75.37464887656421
 20
128.6938113892625
 30
0.0
  0
POINT
  5
1C5F
330
F83
100
AcDbEntity
  8
DEFPOINTS
 62
     0
100
AcDbPoint
 10
114.5325708695175
 20
128.6938113892625
 30
0.0
  0
ENDBLK
  5
F8E
330
F83
100
AcDbEntity
  8
0
100
AcDbBlockEnd
  0
BLOCK
  5
F9B
330
F8F
100
AcDbEntity
  8
0
100
AcDbBlockBegin
  2
*D2
 70
     1
 10
0.0
 20
0.0
 30
0.0
  3
*D2
  1

  0
LINE
  5
1C60
330
F8F
100
AcDbEntity
  8
AM_PARDIM
100
AcDbLine
 10
36.87464887656421
 20
116.1938113892625
 30
0.0
 11
25.3746488765642
 21
116.1938113892625
 31
0.0
  0
LINE
  5
1C61
330
F8F
100
AcDbEntity
  8
AM_PARDIM
100
AcDbLine
 10
36.87464887656421
 20
122.1938113892624
 30
0.0
 11
25.37464887656421
 21
122.1938113892625
 31
0.0
  0
LINE
  5
1C62
330
F8F
100
AcDbEntity
  8
AM_PARDIM
100
AcDbLine
 10
26.8746488765642
 20
113.1938113892624
 30
0.0
 11
26.8746488765642
 21
110.1938113892625
 31
0.0
  0
LINE
  5
1C63
330
F8F
100
AcDbEntity
  8
AM_PARDIM
100
AcDbLine
 10
26.87464887656421
 20
125.1938113892625
 30
0.0
 11
26.87464887656421
 21
128.1938113892625
 31
0.0
  0
LINE
  5
1C64
330
F8F
100
AcDbEntity
  8
AM_PARDIM
100
AcDbLine
 10
26.8746488765642
 20
116.1938113892625
 30
0.0
 11
26.87464887656421
 21
122.1938113892625
 31
0.0
  0
SOLID
  5
1C65
330
F8F
100
AcDbEntity
  8
AM_PARDIM
100
AcDbTrace
 10
26.3746488765642
 20
113.1938113892624
 30
0.0
 11
27.3746488765642
 21
113.1938113892624
 31
0.0
 12
26.8746488765642
 22
116.1938113892625
 32
0.0
 13
26.8746488765642
 23
116.1938113892625
 33
0.0
  0
SOLID
  5
1C66
330
F8F
100
AcDbEntity
  8
AM_PARDIM
100
AcDbTrace
 10
26.3746488765642
 20
125.1938113892625
 30
0.0
 11
27.3746488765642
 21
125.1938113892625
 31
0.0
 12
26.87464887656421
 22
122.1938113892625
 32
0.0
 13
26.87464887656421
 23
122.1938113892625
 33
0.0
  0
MTEXT
  5
1C67
330
F8F
100
AcDbEntity
  8
AM_PARDIM
100
AcDbMText
 10
24.37464887656418
 20
119.1938113892625
 30
0.0
 40
3.0
 41
0.0
 71
     5
 72
     1
  1
6
  7
CHINA
 11
0.0000000000000001
 21
1.0
 31
0.0
1001
ACAD
1000
MTEXTBEGIN
1070
    73
1070
     1
1070
    44
1040
1.0
1070
    74
1070
     0
1000
MTEXTEND
  0
POINT
  5
1C68
330
F8F
100
AcDbEntity
  8
DEFPOINTS
 62
     0
100
AcDbPoint
 10
38.8746488765642
 20
116.1938113892625
 30
0.0
  0
POINT
  5
1C69
330
F8F
100
AcDbEntity
  8
DEFPOINTS
 62
     0
100
AcDbPoint
 10
38.8746488765642
 20
122.1938113892624
 30
0.0
  0
POINT
  5
1C6A
330
F8F
100
AcDbEntity
  8
DEFPOINTS
 62
     0
100
AcDbPoint
 10
26.87464887656421
 20
122.1938113892625
 30
0.0
  0
ENDBLK
  5
F9C
330
F8F
100
AcDbEntity
  8
0
100
AcDbBlockEnd
  0
BLOCK
  5
FA7
330
F9D
100
AcDbEntity
  8
0
100
AcDbBlockBegin
  2
*D3
 70
     1
 10
0.0
 20
0.0
 30
0.0
  3
*D3
  1

  0
LINE
  5
1C6B
330
F9D
100
AcDbEntity
  8
AM_PARDIM
100
AcDbLine
 10
38.8746488765642
 20
124.1938113892624
 30
0.0
 11
38.8746488765642
 21
142.1938113892625
 31
0.0
  0
LINE
  5
1C6C
330
F9D
100
AcDbEntity
  8
AM_PARDIM
100
AcDbLine
 10
50.87464887656421
 20
124.1938113892624
 30
0.0
 11
50.87464887656421
 21
142.1938113892625
 31
0.0
  0
LINE
  5
1C6D
330
F9D
100
AcDbEntity
  8
AM_PARDIM
100
AcDbLine
 10
41.8746488765642
 20
140.6938113892624
 30
0.0
 11
47.87464887656421
 21
140.6938113892624
 31
0.0
  0
SOLID
  5
1C6E
330
F9D
100
AcDbEntity
  8
AM_PARDIM
100
AcDbTrace
 10
41.8746488765642
 20
141.1938113892625
 30
0.0
 11
41.8746488765642
 21
140.1938113892625
 31
0.0
 12
38.8746488765642
 22
140.6938113892624
 32
0.0
 13
38.8746488765642
 23
140.6938113892624
 33
0.0
  0
SOLID
  5
1C6F
330
F9D
100
AcDbEntity
  8
AM_PARDIM
100
AcDbTrace
 10
47.87464887656421
 20
141.1938113892625
 30
0.0
 11
47.87464887656421
 21
140.1938113892625
 31
0.0
 12
50.87464887656421
 22
140.6938113892624
 32
0.0
 13
50.87464887656421
 23
140.6938113892624
 33
0.0
  0
MTEXT
  5
1C70
330
F9D
100
AcDbEntity
  8
AM_PARDIM
100
AcDbMText
 10
44.87464887656421
 20
143.194073856454
 30
0.0
 40
3.0
 41
0.0
 71
     5
 72
     1
  1
12
  7
CHINA
1001
ACAD
1000
MTEXTBEGIN
1070
    73
1070
     1
1070
    44
1040
1.0
1070
    74
1070
     0
1000
MTEXTEND
  0
POINT
  5
1C71
330
F9D
100
AcDbEntity
  8
DEFPOINTS
 62
     0
100
AcDbPoint
 10
38.8746488765642
 20
122.1938113892624
 30
0.0
  0
POINT
  5
1C72
330
F9D
100
AcDbEntity
  8
DEFPOINTS
 62
     0
100
AcDbPoint
 10
50.87464887656421
 20
122.1938113892624
 30
0.0
  0
POINT
  5
1C73
330
F9D
100
AcDbEntity
  8
DEFPOINTS
 62
     0
100
AcDbPoint
 10
50.87464887656421
 20
140.6938113892624
 30
0.0
  0
ENDBLK
  5
FA8
330
F9D
100
AcDbEntity
  8
0
100
AcDbBlockEnd
  0
BLOCK
  5
FB3
330
FA9
100
AcDbEntity
  8
0
100
AcDbBlockBegin
  2
*D4
 70
     1
 10
0.0
 20
0.0
 30
0.0
  3
*D4
  1

  0
LINE
  5
1C74
330
FA9
100
AcDbEntity
  8
AM_PARDIM
100
AcDbLine
 10
38.8746488765642
 20
118.1938113892625
 30
0.0
 11
38.8746488765642
 21
162.1938113892625
 31
0.0
  0
LINE
  5
1C75
330
FA9
100
AcDbEntity
  8
AM_PARDIM
100
AcDbLine
 10
75.37464887656421
 20
118.1938113892625
 30
0.0
 11
75.37464887656421
 21
162.1938113892625
 31
0.0
  0
LINE
  5
1C76
330
FA9
100
AcDbEntity
  8
AM_PARDIM
100
AcDbLine
 10
41.8746488765642
 20
160.6938113892624
 30
0.0
 11
72.37464887656421
 21
160.6938113892624
 31
0.0
  0
SOLID
  5
1C77
330
FA9
100
AcDbEntity
  8
AM_PARDIM
100
AcDbTrace
 10
41.8746488765642
 20
161.1938113892624
 30
0.0
 11
41.8746488765642
 21
160.1938113892624
 31
0.0
 12
38.8746488765642
 22
160.6938113892624
 32
0.0
 13
38.8746488765642
 23
160.6938113892624
 33
0.0
  0
SOLID
  5
1C78
330
FA9
100
AcDbEntity
  8
AM_PARDIM
100
AcDbTrace
 10
72.37464887656421
 20
161.1938113892624
 30
0.0
 11
72.37464887656421
 21
160.1938113892624
 31
0.0
 12
75.37464887656421
 22
160.6938113892624
 32
0.0
 13
75.37464887656421
 23
160.6938113892624
 33
0.0
  0
MTEXT
  5
1C79
330
FA9
100
AcDbEntity
  8
AM_PARDIM
100
AcDbMText
 10
57.12464887656421
 20
163.2016854050105
 30
0.0
 40
3.0
 41
0.0
 71
     5
 72
     1
  1
36.5
  7
CHINA
1001
ACAD
1000
MTEXTBEGIN
1070
    73
1070
     1
1070
    44
1040
1.0
1070
    74
1070
     0
1000
MTEXTEND
  0
POINT
  5
1C7A
330
FA9
100
AcDbEntity
  8
DEFPOINTS
 62
     0
100
AcDbPoint
 10
38.8746488765642
 20
116.1938113892625
 30
0.0
  0
POINT
  5
1C7B
330
FA9
100
AcDbEntity
  8
DEFPOINTS
 62
     0
100
AcDbPoint
 10
75.37464887656421
 20
116.1938113892625
 30
0.0
  0
POINT
  5
1C7C
330
FA9
100
AcDbEntity
  8
DEFPOINTS
 62
     0
100
AcDbPoint
 10
75.37464887656421
 20
160.6938113892624
 30
0.0
  0
ENDBLK
  5
FB4
330
FA9
100
AcDbEntity
  8
0
100
AcDbBlockEnd
  0
BLOCK
  5
FBF
330
FB5
100
AcDbEntity
  8
0
100
AcDbBlockBegin
  2
*D5
 70
     1
 10
0.0
 20
0.0
 30
0.0
  3
*D5
  1

  0
LINE
  5
1C7D
330
FB5
100
AcDbEntity
  8
AM_PARDIM
100
AcDbLine
 10
52.87464887656421
 20
127.1938113892624
 30
0.0
 11
106.0325708695175
 21
127.1938113892624
 31
0.0
  0
LINE
  5
1C7E
330
FB5
100
AcDbEntity
  8
AM_PARDIM
100
AcDbLine
 10
77.37464887656421
 20
116.1938113892625
 30
0.0
 11
106.0325708695175
 21
116.1938113892624
 31
0.0
  0
LINE
  5
1C7F
330
FB5
100
AcDbEntity
  8
AM_PARDIM
100
AcDbLine
 10
104.5325708695175
 20
124.1938113892624
 30
0.0
 11
104.5325708695175
 21
119.1938113892624
 31
0.0
  0
SOLID
  5
1C80
330
FB5
100
AcDbEntity
  8
AM_PARDIM
100
AcDbTrace
 10
104.0325708695175
 20
124.1938113892624
 30
0.0
 11
105.0325708695175
 21
124.1938113892624
 31
0.0
 12
104.5325708695175
 22
127.1938113892624
 32
0.0
 13
104.5325708695175
 23
127.1938113892624
 33
0.0
  0
SOLID
  5
1C81
330
FB5
100
AcDbEntity
  8
AM_PARDIM
100
AcDbTrace
 10
104.0325708695175
 20
119.1938113892624
 30
0.0
 11
105.0325708695175
 21
119.1938113892624
 31
0.0
 12
104.5325708695175
 22
116.1938113892624
 32
0.0
 13
104.5325708695175
 23
116.1938113892624
 33
0.0
  0
MTEXT
  5
1C82
330
FB5
100
AcDbEntity
  8
AM_PARDIM
100
AcDbMText
 10
102.0325708695175
 20
121.6938113892625
 30
0.0
 40
3.0
 41
0.0
 71
     5
 72
     1
  1
11
  7
CHINA
 11
0.0000000000000001
 21
1.0
 31
0.0
1001
ACAD
1000
MTEXTBEGIN
1070
    73
1070
     1
1070
    44
1040
1.0
1070
    74
1070
     0
1000
MTEXTEND
  0
POINT
  5
1C83
330
FB5
100
AcDbEntity
  8
DEFPOINTS
 62
     0
100
AcDbPoint
 10
50.87464887656421
 20
127.1938113892624
 30
0.0
  0
POINT
  5
1C84
330
FB5
100
AcDbEntity
  8
DEFPOINTS
 62
     0
100
AcDbPoint
 10
75.37464887656421
 20
116.1938113892625
 30
0.0
  0
POINT
  5
1C85
330
FB5
100
AcDbEntity
  8
DEFPOINTS
 62
     0
100
AcDbPoint
 10
104.5325708695175
 20
116.1938113892624
 30
0.0
  0
ENDBLK
  5
FC0
330
FB5
100
AcDbEntity
  8
0
100
AcDbBlockEnd
  0
BLOCK
  5
FCB
330
FC1
100
AcDbEntity
  8
0
100
AcDbBlockBegin
  2
*D6
 70
     1
 10
0.0
 20
0.0
 30
0.0
  3
*D6
  1

  0
LINE
  5
1C86
330
FC1
100
AcDbEntity
  8
AM_PARDIM
100
AcDbLine
 10
66.3746488765642
 20
130.6938113892625
 30
0.0
 11
66.3746488765642
 21
152.1938113892624
 31
0.0
  0
LINE
  5
1C87
330
FC1
100
AcDbEntity
  8
AM_PARDIM
100
AcDbLine
 10
75.37464887656421
 20
130.6938113892625
 30
0.0
 11
75.37464887656421
 21
152.1938113892624
 31
0.0
  0
LINE
  5
1C88
330
FC1
100
AcDbEntity
  8
AM_PARDIM
100
AcDbLine
 10
69.37464887656421
 20
150.6938113892624
 30
0.0
 11
72.37464887656421
 21
150.6938113892624
 31
0.0
  0
SOLID
  5
1C89
330
FC1
100
AcDbEntity
  8
AM_PARDIM
100
AcDbTrace
 10
69.37464887656421
 20
151.1938113892624
 30
0.0
 11
69.37464887656421
 21
150.1938113892624
 31
0.0
 12
66.3746488765642
 22
150.6938113892624
 32
0.0
 13
66.3746488765642
 23
150.6938113892624
 33
0.0
  0
SOLID
  5
1C8A
330
FC1
100
AcDbEntity
  8
AM_PARDIM
100
AcDbTrace
 10
72.37464887656421
 20
151.1938113892624
 30
0.0
 11
72.37464887656421
 21
150.1938113892624
 31
0.0
 12
75.37464887656421
 22
150.6938113892624
 32
0.0
 13
75.37464887656421
 23
150.6938113892624
 33
0.0
  0
MTEXT
  5
1C8B
330
FC1
100
AcDbEntity
  8
AM_PARDIM
100
AcDbMText
 10
70.87464887656421
 20
153.1938113892624
 30
0.0
 40
3.0
 41
0.0
 71
     5
 72
     1
  1
9
  7
CHINA
1001
ACAD
1000
MTEXTBEGIN
1070
    73
1070
     1
1070
    44
1040
1.0
1070
    74
1070
     0
1000
MTEXTEND
  0
POINT
  5
1C8C
330
FC1
100
AcDbEntity
  8
DEFPOINTS
 62
     0
100
AcDbPoint
 10
66.3746488765642
 20
128.6938113892625
 30
0.0
  0
POINT
  5
1C8D
330
FC1
100
AcDbEntity
  8
DEFPOINTS
 62
     0
100
AcDbPoint
 10
75.37464887656421
 20
128.6938113892625
 30
0.0
  0
POINT
  5
1C8E
330
FC1
100
AcDbEntity
  8
DEFPOINTS
 62
     0
100
AcDbPoint
 10
75.37464887656421
 20
150.6938113892624
 30
0.0
  0
ENDBLK
  5
FCC
330
FC1
100
AcDbEntity
  8
0
100
AcDbBlockEnd
  0
BLOCK
  5
FD9
330
FCD
100
AcDbEntity
  8
0
100
AcDbBlockBegin
  2
*D7
 70
     1
 10
0.0
 20
0.0
 30
0.0
  3
*D7
  1

  0
LINE
  5
1C8F
330
FCD
100
AcDbEntity
  8
AM_PARDIM
100
AcDbLine
 10
63.87464887656418
 20
130.6938113892624
 30
0.0
 11
63.87464887656418
 21
142.1938113892625
 31
0.0
  0
LINE
  5
1C90
330
FCD
100
AcDbEntity
  8
AM_PARDIM
100
AcDbLine
 10
66.37464887656418
 20
130.6938113892624
 30
0.0
 11
66.37464887656418
 21
142.1938113892625
 31
0.0
  0
LINE
  5
1C91
330
FCD
100
AcDbEntity
  8
AM_PARDIM
100
AcDbLine
 10
60.87464887656418
 20
140.6938113892624
 30
0.0
 11
57.87464887656418
 21
140.6938113892624
 31
0.0
  0
LINE
  5
1C92
330
FCD
100
AcDbEntity
  8
AM_PARDIM
100
AcDbLine
 10
69.37464887656418
 20
140.6938113892624
 30
0.0
 11
79.48383522827022
 21
140.6938113892624
 31
0.0
  0
LINE
  5
1C93
330
FCD
100
AcDbEntity
  8
AM_PARDIM
100
AcDbLine
 10
63.87464887656418
 20
140.6938113892624
 30
0.0
 11
66.37464887656418
 21
140.6938113892624
 31
0.0
  0
SOLID
  5
1C94
330
FCD
100
AcDbEntity
  8
AM_PARDIM
100
AcDbTrace
 10
60.87464887656418
 20
141.1938113892625
 30
0.0
 11
60.87464887656418
 21
140.1938113892625
 31
0.0
 12
63.87464887656418
 22
140.6938113892624
 32
0.0
 13
63.87464887656418
 23
140.6938113892624
 33
0.0
  0
SOLID
  5
1C95
330
FCD
100
AcDbEntity
  8
AM_PARDIM
100
AcDbTrace
 10
69.37464887656418
 20
141.1938113892625
 30
0.0
 11
69.37464887656418
 21
140.1938113892625
 31
0.0
 12
66.37464887656418
 22
140.6938113892624
 32
0.0
 13
66.37464887656418
 23
140.6938113892624
 33
0.0
  0
MTEXT
  5
1C96
330
FCD
100
AcDbEntity
  8
AM_PARDIM
100
AcDbMText
 10
75.92924205241719
 20
143.2019478722021
 30
0.0
 40
3.0
 41
0.0
 71
     5
 72
     1
  1
2.5
  7
CHINA
1001
ACAD
1000
MTEXTBEGIN
1070
    73
1070
     1
1070
    44
1040
1.0
1070
    74
1070
     0
1000
MTEXTEND
  0
POINT
  5
1C97
330
FCD
100
AcDbEntity
  8
DEFPOINTS
 62
     0
100
AcDbPoint
 10
63.87464887656418
 20
128.6938113892624
 30
0.0
  0
POINT
  5
1C98
330
FCD
100
AcDbEntity
  8
DEFPOINTS
 62
     0
100
AcDbPoint
 10
66.37464887656418
 20
128.6938113892624
 30
0.0
  0
POINT
  5
1C99
330
FCD
100
AcDbEntity
  8
DEFPOINTS
 62
     0
100
AcDbPoint
 10
66.37464887656418
 20
140.6938113892624
 30
0.0
  0
ENDBLK
  5
FDA
330
FCD
100
AcDbEntity
  8
0
100
AcDbBlockEnd
  0
BLOCK
  5
FE6
330
FDB
100
AcDbEntity
  8
0
100
AcDbBlockBegin
  2
*D8
 70
     1
 10
0.0
 20
0.0
 30
0.0
  3
*D8
  1

  0
LINE
  5
1C9A
330
FDB
100
AcDbEntity
  8
AM_PARDIM
100
AcDbLine
 10
66.37464887656418
 20
130.6938113892624
 30
0.0
 11
66.37464887656418
 21
137.530378563861
 31
0.0
  0
LINE
  5
1C9B
330
FDB
100
AcDbEntity
  8
AM_PARDIM
100
AcDbLine
 10
66.37464887656418
 20
118.1938113892624
 30
0.0
 11
66.37464887656418
 21
137.530378563861
 31
0.0
  0
LINE
  5
1C9C
330
FDB
100
AcDbEntity
  8
AM_PARDIM
100
AcDbLine
 10
63.37464887656418
 20
136.030378563861
 30
0.0
 11
60.37464887656418
 21
136.030378563861
 31
0.0
  0
LINE
  5
1C9D
330
FDB
100
AcDbEntity
  8
AM_PARDIM
100
AcDbLine
 10
69.37464887656418
 20
136.030378563861
 30
0.0
 11
75.97464887656418
 21
136.030378563861
 31
0.0
  0
SOLID
  5
1C9E
330
FDB
100
AcDbEntity
  8
AM_PARDIM
100
AcDbTrace
 10
63.37464887656418
 20
136.530378563861
 30
0.0
 11
63.37464887656418
 21
135.530378563861
 31
0.0
 12
66.37464887656418
 22
136.030378563861
 32
0.0
 13
66.37464887656418
 23
136.030378563861
 33
0.0
  0
SOLID
  5
1C9F
330
FDB
100
AcDbEntity
  8
AM_PARDIM
100
AcDbTrace
 10
69.37464887656418
 20
136.530378563861
 30
0.0
 11
69.37464887656418
 21
135.530378563861
 31
0.0
 12
66.37464887656418
 22
136.030378563861
 32
0.0
 13
66.37464887656418
 23
136.030378563861
 33
0.0
  0
MTEXT
  5
1CA0
330
FDB
100
AcDbEntity
  8
AM_PARDIM
100
AcDbMText
 10
74.17464887656418
 20
138.530378563861
 30
0.0
 40
3.0
 41
0.0
 71
     5
 72
     1
  1
0
  7
CHINA
1001
ACAD
1000
MTEXTBEGIN
1070
    73
1070
     1
1070
    44
1040
1.0
1070
    74
1070
     0
1000
MTEXTEND
  0
POINT
  5
1CA1
330
FDB
100
AcDbEntity
  8
DEFPOINTS
 62
     0
100
AcDbPoint
 10
66.37464887656418
 20
128.6938113892624
 30
0.0
  0
POINT
  5
1CA2
330
FDB
100
AcDbEntity
  8
DEFPOINTS
 62
     0
100
AcDbPoint
 10
66.37464887656418
 20
116.1938113892624
 30
0.0
  0
POINT
  5
1CA3
330
FDB
100
AcDbEntity
  8
DEFPOINTS
 62
     0
100
AcDbPoint
 10
66.37464887656418
 20
136.030378563861
 30
0.0
  0
ENDBLK
  5
FE7
330
FDB
100
AcDbEntity
  8
0
100
AcDbBlockEnd
  0
BLOCK
  5
FF2
330
FE8
100
AcDbEntity
  8
0
100
AcDbBlockBegin
  2
*D9
 70
     1
 10
0.0
 20
0.0
 30
0.0
  3
*D9
  1

  0
LINE
  5
1CA4
330
FE8
100
AcDbEntity
  8
AM_PARDIM
100
AcDbLine
 10
65.87464887656418
 20
125.6938113892624
 30
0.0
 11
96.03257086951755
 21
125.6938113892624
 31
0.0
  0
LINE
  5
1CA5
330
FE8
100
AcDbEntity
  8
AM_PARDIM
100
AcDbLine
 10
84.53257086951754
 20
116.1938113892624
 30
0.0
 11
96.03257086951755
 21
116.1938113892624
 31
0.0
  0
LINE
  5
1CA6
330
FE8
100
AcDbEntity
  8
AM_PARDIM
100
AcDbLine
 10
94.53257086951754
 20
122.6938113892624
 30
0.0
 11
94.53257086951754
 21
119.1938113892624
 31
0.0
  0
SOLID
  5
1CA7
330
FE8
100
AcDbEntity
  8
AM_PARDIM
100
AcDbTrace
 10
94.03257086951754
 20
122.6938113892624
 30
0.0
 11
95.03257086951753
 21
122.6938113892624
 31
0.0
 12
94.53257086951754
 22
125.6938113892624
 32
0.0
 13
94.53257086951754
 23
125.6938113892624
 33
0.0
  0
SOLID
  5
1CA8
330
FE8
100
AcDbEntity
  8
AM_PARDIM
100
AcDbTrace
 10
94.03257086951754
 20
119.1938113892624
 30
0.0
 11
95.03257086951753
 21
119.1938113892624
 31
0.0
 12
94.53257086951754
 22
116.1938113892624
 32
0.0
 13
94.53257086951754
 23
116.1938113892624
 33
0.0
  0
MTEXT
  5
1CA9
330
FE8
100
AcDbEntity
  8
AM_PARDIM
100
AcDbMText
 10
92.0246968537695
 20
120.9438113892624
 30
0.0
 40
3.0
 41
0.0
 71
     5
 72
     1
  1
9.5
  7
CHINA
 11
0.0000000000000001
 21
1.0
 31
0.0
1001
ACAD
1000
MTEXTBEGIN
1070
    73
1070
     1
1070
    44
1040
1.0
1070
    74
1070
     0
1000
MTEXTEND
  0
POINT
  5
1CAA
330
FE8
100
AcDbEntity
  8
DEFPOINTS
 62
     0
100
AcDbPoint
 10
63.87464887656418
 20
125.6938113892624
 30
0.0
  0
POINT
  5
1CAB
330
FE8
100
AcDbEntity
  8
DEFPOINTS
 62
     0
100
AcDbPoint
 10
82.53257086951753
 20
116.1938113892624
 30
0.0
  0
POINT
  5
1CAC
330
FE8
100
AcDbEntity
  8
DEFPOINTS
 62
     0
100
AcDbPoint
 10
94.53257086951754
 20
116.1938113892624
 30
0.0
  0
ENDBLK
  5
FF3
330
FE8
100
AcDbEntity
  8
0
100
AcDbBlockEnd
  0
BLOCK
  5
FFE
330
FF4
100
AcDbEntity
  8
0
100
AcDbBlockBegin
  2
*D10
 70
     1
 10
0.0
 20
0.0
 30
0.0
  3
*D10
  1

  0
LINE
  5
1CAD
330
FF4
100
AcDbEntity
  8
AM_PARDIM
100
AcDbLine
 10
68.37464887656418
 20
128.6938113892624
 30
0.0
 11
126.0325708695175
 21
128.6938113892624
 31
0.0
  0
LINE
  5
1CAE
330
FF4
100
AcDbEntity
  8
AM_PARDIM
100
AcDbLine
 10
84.53257086951754
 20
116.1938113892624
 30
0.0
 11
126.0325708695175
 21
116.1938113892624
 31
0.0
  0
LINE
  5
1CAF
330
FF4
100
AcDbEntity
  8
AM_PARDIM
100
AcDbLine
 10
124.5325708695175
 20
125.6938113892624
 30
0.0
 11
124.5325708695175
 21
119.1938113892624
 31
0.0
  0
SOLID
  5
1CB0
330
FF4
100
AcDbEntity
  8
AM_PARDIM
100
AcDbTrace
 10
124.0325708695175
 20
125.6938113892624
 30
0.0
 11
125.0325708695175
 21
125.6938113892624
 31
0.0
 12
124.5325708695175
 22
128.6938113892624
 32
0.0
 13
124.5325708695175
 23
128.6938113892624
 33
0.0
  0
SOLID
  5
1CB1
330
FF4
100
AcDbEntity
  8
AM_PARDIM
100
AcDbTrace
 10
124.0325708695175
 20
119.1938113892624
 30
0.0
 11
125.0325708695175
 21
119.1938113892624
 31
0.0
 12
124.5325708695175
 22
116.1938113892624
 32
0.0
 13
124.5325708695175
 23
116.1938113892624
 33
0.0
  0
MTEXT
  5
1CB2
330
FF4
100
AcDbEntity
  8
AM_PARDIM
100
AcDbMText
 10
122.0244343865779
 20
122.4438113892624
 30
0.0
 40
3.0
 41
0.0
 71
     5
 72
     1
  1
12.5
  7
CHINA
 11
0.0000000000000001
 21
1.0
 31
0.0
1001
ACAD
1000
MTEXTBEGIN
1070
    73
1070
     1
1070
    44
1040
1.0
1070
    74
1070
     0
1000
MTEXTEND
  0
POINT
  5
1CB3
330
FF4
100
AcDbEntity
  8
DEFPOINTS
 62
     0
100
AcDbPoint
 10
66.37464887656418
 20
128.6938113892624
 30
0.0
  0
POINT
  5
1CB4
330
FF4
100
AcDbEntity
  8
DEFPOINTS
 62
     0
100
AcDbPoint
 10
82.53257086951753
 20
116.1938113892624
 30
0.0
  0
POINT
  5
1CB5
330
FF4
100
AcDbEntity
  8
DEFPOINTS
 62
     0
100
AcDbPoint
 10
124.5325708695175
 20
116.1938113892624
 30
0.0
  0
ENDBLK
  5
FFF
330
FF4
100
AcDbEntity
  8
0
100
AcDbBlockEnd
  0
BLOCK
  5
1D99
330
1D96
100
AcDbEntity
  8
0
100
AcDbBlockBegin
  2
GENDOT
 70
     0
 10
0.0
 20
0.0
 30
0.0
  3
GENDOT
  1

  0
LINE
  5
1D97
330
1D96
100
AcDbEntity
  8
0
100
AcDbLine
 10
0.0
 20
0.0
 30
0.0
 11
-1.0
 21
0.0
 31
0.0
  0
POLYLINE
  5
1D98
330
1D96
100
AcDbEntity
  8
0
100
AcDb2dPolyline
 66
     1
 10
0.0
 20
0.0
 30
0.0
 70
     1
 40
0.25
 41
0.25
  0
VERTEX
  5
29C1
330
1D98
100
AcDbEntity
  8
0
100
AcDbVertex
100
AcDb2dVertex
 10
-0.125
 20
0.0
 30
0.0
 42
1.0
  0
VERTEX
  5
29C2
330
1D98
100
AcDbEntity
  8
0
100
AcDbVertex
100
AcDb2dVertex
 10
0.125
 20
0.0
 30
0.0
 42
1.0
  0
SEQEND
  5
29C3
330
1D98
100
AcDbEntity
  8
0
  0
ENDBLK
  5
1D9A
330
1D96
100
AcDbEntity
  8
0
100
AcDbBlockEnd
  0
BLOCK
  5
1FE8
330
1FDE
100
AcDbEntity
  8
0
100
AcDbBlockBegin
  2
*D12
 70
     1
 10
0.0
 20
0.0
 30
0.0
  3
*D12
  1

  0
LINE
  5
2259
330
1FDE
100
AcDbEntity
  8
AM_5
100
AcDbLine
 10
648.0512016352673
 20
277.7276240678392
 30
0.0
 11
675.5512016352675
 21
277.7276240678392
 31
0.0
  0
LINE
  5
225A
330
1FDE
100
AcDbEntity
  8
AM_5
100
AcDbLine
 10
656.0512016352674
 20
182.2275419603393
 30
0.0
 11
675.5512016352674
 21
182.2275419603393
 31
0.0
  0
LINE
  5
225B
330
1FDE
100
AcDbEntity
  8
AM_5
100
AcDbLine
 10
674.0512016352674
 20
274.7276240678392
 30
0.0
 11
674.0512016352673
 21
185.2275419603392
 31
0.0
  0
SOLID
  5
225C
330
1FDE
100
AcDbEntity
  8
AM_5
100
AcDbTrace
 10
673.5512016352674
 20
274.7276240678392
 30
0.0
 11
674.5512016352675
 21
274.7276240678392
 31
0.0
 12
674.0512016352674
 22
277.7276240678392
 32
0.0
 13
674.0512016352674
 23
277.7276240678392
 33
0.0
  0
SOLID
  5
225D
330
1FDE
100
AcDbEntity
  8
AM_5
100
AcDbTrace
 10
673.5512016352673
 20
185.2275419603392
 30
0.0
 11
674.5512016352673
 21
185.2275419603392
 31
0.0
 12
674.0512016352673
 22
182.2275419603393
 32
0.0
 13
674.0512016352673
 23
182.2275419603393
 33
0.0
  0
MTEXT
  5
225E
330
1FDE
100
AcDbEntity
  8
AM_5
100
AcDbMText
 10
671.5433276195193
 20
229.9775830140894
 30
0.0
 40
3.0
 41
0.0
 71
     5
 72
     1
  1
95.5
  7
CHINA
 11
0.0000000000000001
 21
1.0
 31
0.0
1001
ACAD
1000
MTEXTBEGIN
1070
    73
1070
     1
1070
    44
1040
1.0
1070
    74
1070
     0
1000
MTEXTEND
  0
POINT
  5
225F
330
1FDE
100
AcDbEntity
  8
DEFPOINTS
 62
     0
100
AcDbPoint
 10
646.0512016352673
 20
277.7276240678392
 30
0.0
  0
POINT
  5
2260
330
1FDE
100
AcDbEntity
  8
DEFPOINTS
 62
     0
100
AcDbPoint
 10
654.0512016352673
 20
182.2275419603393
 30
0.0
  0
POINT
  5
2261
330
1FDE
100
AcDbEntity
  8
DEFPOINTS
 62
     0
100
AcDbPoint
 10
674.0512016352673
 20
182.2275419603393
 30
0.0
  0
ENDBLK
  5
1FE9
330
1FDE
100
AcDbEntity
  8
0
100
AcDbBlockEnd
  0
BLOCK
  5
1FF4
330
1FEA
100
AcDbEntity
  8
0
100
AcDbBlockBegin
  2
*D13
 70
     1
 10
0.0
 20
0.0
 30
0.0
  3
*D13
  1

  0
LINE
  5
29C4
330
1FEA
100
AcDbEntity
  8
AM_5
100
AcDbLine
 10
655.0512016352674
 20
248.7275419603392
 30
0.0
 11
667.5512016352674
 21
248.7275419603392
 31
0.0
  0
LINE
  5
29C5
330
1FEA
100
AcDbEntity
  8
AM_5
100
AcDbLine
 10
656.0512016352674
 20
189.2275419603393
 30
0.0
 11
667.5512016352674
 21
189.2275419603393
 31
0.0
  0
LINE
  5
29C6
330
1FEA
100
AcDbEntity
  8
AM_5
100
AcDbLine
 10
666.0512016352673
 20
245.7275419603393
 30
0.0
 11
666.0512016352673
 21
192.2275419603393
 31
0.0
  0
SOLID
  5
29C7
330
1FEA
100
AcDbEntity
  8
AM_5
100
AcDbTrace
 10
665.5512016352673
 20
245.7275419603393
 30
0.0
 11
666.5512016352673
 21
245.7275419603393
 31
0.0
 12
666.0512016352673
 22
248.7275419603392
 32
0.0
 13
666.0512016352673
 23
248.7275419603392
 33
0.0
  0
INSERT
  5
29C8
330
1FEA
100
AcDbEntity
  8
AM_5
100
AcDbBlockReference
  2
GENDOT
 10
666.0512016352673
 20
189.2275419603393
 30
0.0
 41
3.0
 42
3.0
 43
3.0
 50
270.0
  0
MTEXT
  5
29C9
330
1FEA
100
AcDbEntity
  8
AM_5
100
AcDbMText
 10
663.5433276195193
 20
218.9775419603394
 30
0.0
 40
3.0
 41
0.0
 71
     5
 72
     1
  1
59.5
  7
CHINA
 11
0.0000000000000001
 21
1.0
 31
0.0
  0
POINT
  5
29CA
330
1FEA
100
AcDbEntity
  8
DEFPOINTS
 62
     0
100
AcDbPoint
 10
653.0512016352673
 20
248.7275419603392
 30
0.0
  0
POINT
  5
29CB
330
1FEA
100
AcDbEntity
  8
DEFPOINTS
 62
     0
100
AcDbPoint
 10
654.0512016352673
 20
189.2275419603393
 30
0.0
  0
POINT
  5
29CC
330
1FEA
100
AcDbEntity
  8
DEFPOINTS
 62
     0
100
AcDbPoint
 10
666.0512016352673
 20
189.2275419603393
 30
0.0
  0
ENDBLK
  5
1FF5
330
1FEA
100
AcDbEntity
  8
0
100
AcDbBlockEnd
  0
BLOCK
  5
2000
330
1FF6
100
AcDbEntity
  8
0
100
AcDbBlockBegin
  2
*D14
 70
     1
 10
0.0
 20
0.0
 30
0.0
  3
*D14
  1

  0
LINE
  5
29CD
330
1FF6
100
AcDbEntity
  8
AM_5
100
AcDbLine
 10
656.0512016352674
 20
189.2275419603393
 30
0.0
 11
667.5512016352674
 21
189.2275419603393
 31
0.0
  0
LINE
  5
29CE
330
1FF6
100
AcDbEntity
  8
AM_5
100
AcDbLine
 10
656.0512016352674
 20
182.2275419603393
 30
0.0
 11
667.5512016352674
 21
182.2275419603393
 31
0.0
  0
LINE
  5
29CF
330
1FF6
100
AcDbEntity
  8
AM_5
100
AcDbLine
 10
666.0512016352673
 20
192.2275419603393
 30
0.0
 11
666.0512016352673
 21
195.2275419603392
 31
0.0
  0
LINE
  5
29D0
330
1FF6
100
AcDbEntity
  8
AM_5
100
AcDbLine
 10
666.0512016352673
 20
179.2275419603392
 30
0.0
 11
666.0512016352673
 21
176.2275419603392
 31
0.0
  0
LINE
  5
29D1
330
1FF6
100
AcDbEntity
  8
AM_5
100
AcDbLine
 10
666.0512016352673
 20
189.2275419603393
 30
0.0
 11
666.0512016352673
 21
182.2275419603393
 31
0.0
  0
INSERT
  5
29D2
330
1FF6
100
AcDbEntity
  8
AM_5
100
AcDbBlockReference
  2
GENDOT
 10
666.0512016352673
 20
189.2275419603393
 30
0.0
 41
3.0
 42
3.0
 43
3.0
 50
270.0
  0
SOLID
  5
29D3
330
1FF6
100
AcDbEntity
  8
AM_5
100
AcDbTrace
 10
665.5512016352673
 20
179.2275419603392
 30
0.0
 11
666.5512016352673
 21
179.2275419603392
 31
0.0
 12
666.0512016352673
 22
182.2275419603393
 32
0.0
 13
666.0512016352673
 23
182.2275419603393
 33
0.0
  0
MTEXT
  5
29D4
330
1FF6
100
AcDbEntity
  8
AM_5
100
AcDbMText
 10
663.5512016352674
 20
185.7275419603394
 30
0.0
 40
3.0
 41
0.0
 71
     5
 72
     1
  1
7
  7
CHINA
 11
0.0000000000000001
 21
1.0
 31
0.0
  0
POINT
  5
29D5
330
1FF6
100
AcDbEntity
  8
DEFPOINTS
 62
     0
100
AcDbPoint
 10
654.0512016352673
 20
189.2275419603393
 30
0.0
  0
POINT
  5
29D6
330
1FF6
100
AcDbEntity
  8
DEFPOINTS
 62
     0
100
AcDbPoint
 10
654.0512016352673
 20
182.2275419603393
 30
0.0
  0
POINT
  5
29D7
330
1FF6
100
AcDbEntity
  8
DEFPOINTS
 62
     0
100
AcDbPoint
 10
666.0512016352673
 20
182.2275419603393
 30
0.0
  0
ENDBLK
  5
2001
330
1FF6
100
AcDbEntity
  8
0
100
AcDbBlockEnd
  0
BLOCK
  5
200C
330
2002
100
AcDbEntity
  8
0
100
AcDbBlockBegin
  2
*D15
 70
     1
 10
0.0
 20
0.0
 30
0.0
  3
*D15
  1

  0
LINE
  5
29D8
330
2002
100
AcDbEntity
  8
AM_5
 62
     0
100
AcDbLine
 10
647.0512016352674
 20
293.7276240678392
 30
0.0
 11
675.0512016352675
 21
293.7276240678392
 31
0.0
  0
LINE
  5
29D9
330
2002
100
AcDbEntity
  8
AM_5
 62
     0
100
AcDbLine
 10
647.0512016352674
 20
277.7276240678392
 30
0.0
 11
675.0512016352675
 21
277.7276240678392
 31
0.0
  0
LINE
  5
29DA
330
2002
100
AcDbEntity
  8
AM_5
 62
     0
100
AcDbLine
 10
674.0512016352674
 20
290.7276240678392
 30
0.0
 11
674.0512016352674
 21
280.7276240678392
 31
0.0
  0
SOLID
  5
29DB
330
2002
100
AcDbEntity
  8
AM_5
 62
     0
100
AcDbTrace
 10
673.5512016352674
 20
290.7276240678392
 30
0.0
 11
674.5512016352675
 21
290.7276240678392
 31
0.0
 12
674.0512016352674
 22
293.7276240678392
 32
0.0
 13
674.0512016352674
 23
293.7276240678392
 33
0.0
  0
SOLID
  5
29DC
330
2002
100
AcDbEntity
  8
AM_5
 62
     0
100
AcDbTrace
 10
673.5512016352674
 20
280.7276240678392
 30
0.0
 11
674.5512016352675
 21
280.7276240678392
 31
0.0
 12
674.0512016352674
 22
277.7276240678392
 32
0.0
 13
674.0512016352674
 23
277.7276240678392
 33
0.0
  0
MTEXT
  5
29DD
330
2002
100
AcDbEntity
  8
AM_5
 62
     0
100
AcDbMText
 10
671.5512016352674
 20
285.7276240678393
 30
0.0
 40
3.0
 41
0.0
 71
     5
 72
     1
  1
\A1;16
 11
0.0000000000000001
 21
1.0
 31
0.0
  0
POINT
  5
29DE
330
2002
100
AcDbEntity
  8
DEFPOINTS
 62
     0
100
AcDbPoint
 10
646.0512016352673
 20
293.7276240678392
 30
0.0
  0
POINT
  5
29DF
330
2002
100
AcDbEntity
  8
DEFPOINTS
 62
     0
100
AcDbPoint
 10
646.0512016352673
 20
277.7276240678392
 30
0.0
  0
POINT
  5
29E0
330
2002
100
AcDbEntity
  8
DEFPOINTS
 62
     0
100
AcDbPoint
 10
674.0512016352674
 20
277.7276240678392
 30
0.0
  0
ENDBLK
  5
200D
330
2002
100
AcDbEntity
  8
0
100
AcDbBlockEnd
  0
BLOCK
  5
203C
330
2032
100
AcDbEntity
  8
0
100
AcDbBlockBegin
  2
*D16
 70
     1
 10
0.0
 20
0.0
 30
0.0
  3
*D16
  1

  0
LINE
  5
226B
330
2032
100
AcDbEntity
  8
AM_5
100
AcDbLine
 10
648.0512016352673
 20
293.7276240678392
 30
0.0
 11
683.5512016352675
 21
293.7276240678392
 31
0.0
  0
LINE
  5
226C
330
2032
100
AcDbEntity
  8
AM_5
100
AcDbLine
 10
656.0512016352674
 20
182.2275419603393
 30
0.0
 11
683.5512016352673
 21
182.2275419603393
 31
0.0
  0
LINE
  5
226D
330
2032
100
AcDbEntity
  8
AM_5
100
AcDbLine
 10
682.0512016352674
 20
290.7276240678392
 30
0.0
 11
682.0512016352673
 21
185.2275419603392
 31
0.0
  0
SOLID
  5
226E
330
2032
100
AcDbEntity
  8
AM_5
100
AcDbTrace
 10
681.5512016352674
 20
290.7276240678392
 30
0.0
 11
682.5512016352675
 21
290.7276240678392
 31
0.0
 12
682.0512016352674
 22
293.7276240678392
 32
0.0
 13
682.0512016352674
 23
293.7276240678392
 33
0.0
  0
SOLID
  5
226F
330
2032
100
AcDbEntity
  8
AM_5
100
AcDbTrace
 10
681.5512016352673
 20
185.2275419603392
 30
0.0
 11
682.5512016352673
 21
185.2275419603392
 31
0.0
 12
682.0512016352673
 22
182.2275419603393
 32
0.0
 13
682.0512016352673
 23
182.2275419603393
 33
0.0
  0
MTEXT
  5
2270
330
2032
100
AcDbEntity
  8
AM_5
100
AcDbMText
 10
679.5433276195193
 20
237.9775830140893
 30
0.0
 40
3.0
 41
0.0
 71
     5
 72
     1
  1
111.5
  7
CHINA
 11
0.0000000000000001
 21
1.0
 31
0.0
1001
ACAD
1000
MTEXTBEGIN
1070
    73
1070
     1
1070
    44
1040
1.0
1070
    74
1070
     0
1000
MTEXTEND
  0
POINT
  5
2271
330
2032
100
AcDbEntity
  8
DEFPOINTS
 62
     0
100
AcDbPoint
 10
646.0512016352673
 20
293.7276240678392
 30
0.0
  0
POINT
  5
2272
330
2032
100
AcDbEntity
  8
DEFPOINTS
 62
     0
100
AcDbPoint
 10
654.0512016352673
 20
182.2275419603393
 30
0.0
  0
POINT
  5
2273
330
2032
100
AcDbEntity
  8
DEFPOINTS
 62
     0
100
AcDbPoint
 10
682.0512016352673
 20
182.2275419603393
 30
0.0
  0
ENDBLK
  5
203D
330
2032
100
AcDbEntity
  8
0
100
AcDbBlockEnd
  0
BLOCK
  5
2137
330
212D
100
AcDbEntity
  8
0
100
AcDbBlockBegin
  2
*D17
 70
     1
 10
0.0
 20
0.0
 30
0.0
  3
*D17
  1

  0
LINE
  5
29EC
330
212D
100
AcDbEntity
  8
AM_5
100
AcDbLine
 10
605.0512016352674
 20
297.4499707192785
 30
0.0
 11
605.0512016352674
 21
305.3681656474851
 31
0.0
  0
LINE
  5
29ED
330
212D
100
AcDbEntity
  8
AM_5
100
AcDbLine
 10
635.0512016352674
 20
301.8606013325392
 30
0.0
 11
635.0512016352674
 21
305.3681656474851
 31
0.0
  0
LINE
  5
29EE
330
212D
100
AcDbEntity
  8
AM_5
100
AcDbLine
 10
608.0512016352673
 20
303.8681656474851
 30
0.0
 11
632.0512016352673
 21
303.8681656474851
 31
0.0
  0
INSERT
  5
29EF
330
212D
100
AcDbEntity
  8
AM_5
100
AcDbBlockReference
  2
GENDOT
 10
605.0512016352674
 20
303.8681656474851
 30
0.0
 41
3.0
 42
3.0
 43
3.0
 50
180.0
  0
SOLID
  5
29F0
330
212D
100
AcDbEntity
  8
AM_5
100
AcDbTrace
 10
632.0512016352673
 20
304.3681656474851
 30
0.0
 11
632.0512016352673
 21
303.368165647485
 31
0.0
 12
635.0512016352674
 22
303.8681656474851
 32
0.0
 13
635.0512016352674
 23
303.8681656474851
 33
0.0
  0
MTEXT
  5
29F1
330
212D
100
AcDbEntity
  8
AM_5
100
AcDbMText
 10
620.0512016352673
 20
306.3681656474851
 30
0.0
 40
3.0
 41
0.0
 71
     5
 72
     1
  1
30
  7
CHINA
  0
POINT
  5
29F2
330
212D
100
AcDbEntity
  8
DEFPOINTS
 62
     0
100
AcDbPoint
 10
605.0512016352674
 20
295.4499707192785
 30
0.0
  0
POINT
  5
29F3
330
212D
100
AcDbEntity
  8
DEFPOINTS
 62
     0
100
AcDbPoint
 10
635.0512016352674
 20
299.8606013325392
 30
0.0
  0
POINT
  5
29F4
330
212D
100
AcDbEntity
  8
DEFPOINTS
 62
     0
100
AcDbPoint
 10
635.0512016352674
 20
303.8681656474851
 30
0.0
  0
ENDBLK
  5
2138
330
212D
100
AcDbEntity
  8
0
100
AcDbBlockEnd
  0
BLOCK
  5
2145
330
2139
100
AcDbEntity
  8
0
100
AcDbBlockBegin
  2
*D18
 70
     1
 10
0.0
 20
0.0
 30
0.0
  3
*D18
  1

  0
LINE
  5
29E1
330
2139
100
AcDbEntity
  8
AM_5
100
AcDbLine
 10
597.0512016352674
 20
295.2276240678392
 30
0.0
 11
597.0512016352674
 21
305.3681656474851
 31
0.0
  0
LINE
  5
29E2
330
2139
100
AcDbEntity
  8
AM_5
100
AcDbLine
 10
605.0512016352674
 20
297.4499707192785
 30
0.0
 11
605.0512016352674
 21
305.3681656474851
 31
0.0
  0
LINE
  5
29E3
330
2139
100
AcDbEntity
  8
AM_5
100
AcDbLine
 10
594.0512016352673
 20
303.8681656474851
 30
0.0
 11
591.0512016352673
 21
303.8681656474851
 31
0.0
  0
LINE
  5
29E4
330
2139
100
AcDbEntity
  8
AM_5
100
AcDbLine
 10
608.0512016352673
 20
303.8681656474851
 30
0.0
 11
611.0512016352673
 21
303.8681656474851
 31
0.0
  0
LINE
  5
29E5
330
2139
100
AcDbEntity
  8
AM_5
100
AcDbLine
 10
597.0512016352674
 20
303.8681656474851
 30
0.0
 11
605.0512016352674
 21
303.8681656474851
 31
0.0
  0
SOLID
  5
29E6
330
2139
100
AcDbEntity
  8
AM_5
100
AcDbTrace
 10
594.0512016352673
 20
304.3681656474851
 30
0.0
 11
594.0512016352673
 21
303.368165647485
 31
0.0
 12
597.0512016352674
 22
303.8681656474851
 32
0.0
 13
597.0512016352674
 23
303.8681656474851
 33
0.0
  0
INSERT
  5
29E7
330
2139
100
AcDbEntity
  8
AM_5
100
AcDbBlockReference
  2
GENDOT
 10
605.0512016352674
 20
303.8681656474851
 30
0.0
 41
3.0
 42
3.0
 43
3.0
 50
180.0
  0
MTEXT
  5
29E8
330
2139
100
AcDbEntity
  8
AM_5
100
AcDbMText
 10
601.0512016352674
 20
306.3681656474851
 30
0.0
 40
3.0
 41
0.0
 71
     5
 72
     1
  1
8
  7
CHINA
  0
POINT
  5
29E9
330
2139
100
AcDbEntity
  8
DEFPOINTS
 62
     0
100
AcDbPoint
 10
597.0512016352674
 20
293.2276240678392
 30
0.0
  0
POINT
  5
29EA
330
2139
100
AcDbEntity
  8
DEFPOINTS
 62
     0
100
AcDbPoint
 10
605.0512016352674
 20
295.4499707192785
 30
0.0
  0
POINT
  5
29EB
330
2139
100
AcDbEntity
  8
DEFPOINTS
 62
     0
100
AcDbPoint
 10
605.0512016352674
 20
303.8681656474851
 30
0.0
  0
ENDBLK
  5
2146
330
2139
100
AcDbEntity
  8
0
100
AcDbBlockEnd
  0
BLOCK
  5
215A
330
2150
100
AcDbEntity
  8
0
100
AcDbBlockBegin
  2
*D19
 70
     1
 10
0.0
 20
0.0
 30
0.0
  3
*D19
  1

  0
LINE
  5
2291
330
2150
100
AcDbEntity
  8
AM_5
100
AcDbLine
 10
597.0512016352674
 20
295.2276240678392
 30
0.0
 11
597.0512016352674
 21
313.3681656474851
 31
0.0
  0
LINE
  5
2292
330
2150
100
AcDbEntity
  8
AM_5
100
AcDbLine
 10
647.0512016352674
 20
295.2276240678392
 30
0.0
 11
647.0512016352674
 21
313.3681656474851
 31
0.0
  0
LINE
  5
2293
330
2150
100
AcDbEntity
  8
AM_5
100
AcDbLine
 10
600.0512016352673
 20
311.8681656474851
 30
0.0
 11
644.0512016352673
 21
311.8681656474851
 31
0.0
  0
SOLID
  5
2294
330
2150
100
AcDbEntity
  8
AM_5
100
AcDbTrace
 10
600.0512016352673
 20
312.3681656474851
 30
0.0
 11
600.0512016352673
 21
311.3681656474851
 31
0.0
 12
597.0512016352674
 22
311.8681656474851
 32
0.0
 13
597.0512016352674
 23
311.8681656474851
 33
0.0
  0
SOLID
  5
2295
330
2150
100
AcDbEntity
  8
AM_5
100
AcDbTrace
 10
644.0512016352673
 20
312.3681656474851
 30
0.0
 11
644.0512016352673
 21
311.3681656474851
 31
0.0
 12
647.0512016352674
 22
311.8681656474851
 32
0.0
 13
647.0512016352674
 23
311.8681656474851
 33
0.0
  0
MTEXT
  5
2296
330
2150
100
AcDbEntity
  8
AM_5
100
AcDbMText
 10
622.0512016352674
 20
314.3760396632331
 30
0.0
 40
3.0
 41
0.0
 71
     5
 72
     1
  1
50
  7
CHINA
1001
ACAD
1000
MTEXTBEGIN
1070
    73
1070
     1
1070
    44
1040
1.0
1070
    74
1070
     0
1000
MTEXTEND
  0
POINT
  5
2297
330
2150
100
AcDbEntity
  8
DEFPOINTS
 62
     0
100
AcDbPoint
 10
597.0512016352674
 20
293.2276240678392
 30
0.0
  0
POINT
  5
2298
330
2150
100
AcDbEntity
  8
DEFPOINTS
 62
     0
100
AcDbPoint
 10
647.0512016352674
 20
293.2276240678392
 30
0.0
  0
POINT
  5
2299
330
2150
100
AcDbEntity
  8
DEFPOINTS
 62
     0
100
AcDbPoint
 10
647.0512016352674
 20
311.8681656474851
 30
0.0
  0
ENDBLK
  5
215B
330
2150
100
AcDbEntity
  8
0
100
AcDbBlockEnd
  0
BLOCK
  5
218A
330
2180
100
AcDbEntity
  8
0
100
AcDbBlockBegin
  2
*D20
 70
     1
 10
0.0
 20
0.0
 30
0.0
  3
*D20
  1

  0
LINE
  5
22A5
330
2180
100
AcDbEntity
  8
AM_5
100
AcDbLine
 10
615.0512016352673
 20
188.2275419603393
 30
0.0
 11
615.0512016352673
 21
168.8702917267393
 31
0.0
  0
LINE
  5
22A6
330
2180
100
AcDbEntity
  8
AM_5
100
AcDbLine
 10
655.0512016352674
 20
188.2275419603393
 30
0.0
 11
655.0512016352674
 21
168.8702917267393
 31
0.0
  0
LINE
  5
22A7
330
2180
100
AcDbEntity
  8
AM_5
100
AcDbLine
 10
618.0512016352674
 20
170.3702917267393
 30
0.0
 11
652.0512016352673
 21
170.3702917267393
 31
0.0
  0
SOLID
  5
22A8
330
2180
100
AcDbEntity
  8
AM_5
100
AcDbTrace
 10
618.0512016352674
 20
170.8702917267393
 30
0.0
 11
618.0512016352674
 21
169.8702917267393
 31
0.0
 12
615.0512016352673
 22
170.3702917267393
 32
0.0
 13
615.0512016352673
 23
170.3702917267393
 33
0.0
  0
SOLID
  5
22A9
330
2180
100
AcDbEntity
  8
AM_5
100
AcDbTrace
 10
652.0512016352673
 20
170.8702917267393
 30
0.0
 11
652.0512016352673
 21
169.8702917267393
 31
0.0
 12
655.0512016352674
 22
170.3702917267393
 32
0.0
 13
655.0512016352674
 23
170.3702917267393
 33
0.0
  0
MTEXT
  5
22AA
330
2180
100
AcDbEntity
  8
AM_5
100
AcDbMText
 10
635.0512016352674
 20
172.8781657424874
 30
0.0
 40
3.0
 41
0.0
 71
     5
 72
     1
  1
M40x1.5
  7
CHINA
1001
ACAD
1000
MTEXTBEGIN
1070
    73
1070
     1
1070
    44
1040
1.0
1070
    74
1070
     0
1000
MTEXTEND
  0
POINT
  5
22AB
330
2180
100
AcDbEntity
  8
DEFPOINTS
 62
     0
100
AcDbPoint
 10
615.0512016352673
 20
190.2275419603393
 30
0.0
  0
POINT
  5
22AC
330
2180
100
AcDbEntity
  8
DEFPOINTS
 62
     0
100
AcDbPoint
 10
655.0512016352674
 20
190.2275419603393
 30
0.0
  0
POINT
  5
22AD
330
2180
100
AcDbEntity
  8
DEFPOINTS
 62
     0
100
AcDbPoint
 10
655.0512016352674
 20
170.3702917267393
 30
0.0
  0
ENDBLK
  5
218B
330
2180
100
AcDbEntity
  8
0
100
AcDbBlockEnd
  0
BLOCK
  5
29FA
330
29F5
100
AcDbEntity
  8
0
100
AcDbBlockBegin
  2
*S73
 70
     1
 10
0.0
 20
0.0
 30
0.0
  3
*S73
  1

  0
LINE
  5
29F6
330
29F5
100
AcDbEntity
  8
AM_5
100
AcDbLine
 10
580.217535504547
 20
265.2701468063834
 30
0.0
 11
594.488518775821
 21
265.2701468063834
 31
0.0
  0
LINE
  5
29F7
330
29F5
100
AcDbEntity
  8
AM_5
100
AcDbLine
 10
594.488518775821
 20
265.2701468063834
 30
0.0
 11
603.111048778527
 21
275.4394355064478
 31
0.0
  0
TRACE
  5
29F8
330
29F5
100
AcDbEntity
  8
AM_5
100
AcDbTrace
 10
603.4122945162411
 20
275.1840095382962
 30
0.0
 11
602.8098030408131
 21
275.6948614745993
 31
0.0
 12
605.0512016352674
 22
277.7276240678392
 32
0.0
 13
605.0512016352674
 23
277.7276240678392
 33
0.0
  0
MTEXT
  5
29F9
330
29F5
100
AcDbEntity
  8
AM_5
 62
     2
100
AcDbMText
 10
580.217535504547
 20
263.6269876871735
 30
0.0
 40
3.5
 41
0.0
 71
     9
 72
     1
  1

  7
ACISOTS
  0
ENDBLK
  5
29FB
330
29F5
100
AcDbEntity
  8
0
100
AcDbBlockEnd
  0
BLOCK
  5
2A02
330
29FD
100
AcDbEntity
  8
0
100
AcDbBlockBegin
  2
*S74
 70
     1
 10
0.0
 20
0.0
 30
0.0
  3
*S74
  1

  0
LINE
  5
29FE
330
29FD
100
AcDbEntity
  8
AM_5
100
AcDbLine
 10
596.0543232455132
 20
240.7684060862576
 30
0.0
 11
611.2878532551918
 21
240.7684060862576
 31
0.0
  0
LINE
  5
29FF
330
29FD
100
AcDbEntity
  8
AM_5
100
AcDbLine
 10
611.2878532551918
 20
240.7684060862576
 30
0.0
 11
629.9081736495439
 21
233.7114413229393
 31
0.0
  0
TRACE
  5
2A00
330
29FD
100
AcDbEntity
  8
AM_5
100
AcDbTrace
 10
629.7682028791938
 20
233.3421181539605
 30
0.0
 11
630.0481444198939
 21
234.0807644919183
 31
0.0
 12
632.7134616417566
 22
232.6482577636484
 32
0.0
 13
632.7134616417566
 23
232.6482577636484
 33
0.0
  0
MTEXT
  5
2A01
330
29FD
100
AcDbEntity
  8
AM_5
 62
     2
100
AcDbMText
 10
596.0543232455132
 20
238.1572330781168
 30
0.0
 40
3.5
 41
0.0
 71
     9
 72
     1
  1

  7
ACISOTS
  0
ENDBLK
  5
2A03
330
29FD
100
AcDbEntity
  8
0
100
AcDbBlockEnd
  0
ENDSEC
  0
SECTION
  2
ENTITIES
  0
POINT
  5
25
330
2
100
AcDbEntity
  8
0
 60
     1
100
AcDbPoint
 10
0.0
 20
0.0
 30
0.0
  0
POINT
  5
26
330
2
100
AcDbEntity
  8
0
 60
     1
100
AcDbPoint
 10
0.0
 20
0.0
 30
0.0
  0
POINT
  5
27
330
2
100
AcDbEntity
  8
0
 60
     1
100
AcDbPoint
 10
0.0
 20
0.0
 30
0.0
  0
POINT
  5
28
330
2
100
AcDbEntity
  8
0
 60
     1
100
AcDbPoint
 10
0.0
 20
0.0
 30
0.0
  0
POINT
  5
29
330
2
100
AcDbEntity
  8
0
 60
     1
100
AcDbPoint
 10
0.0
 20
0.0
 30
0.0
  0
POINT
  5
2A
330
2
100
AcDbEntity
  8
0
 60
     1
100
AcDbPoint
 10
0.0
 20
0.0
 30
0.0
  0
POINT
  5
2B
330
2
100
AcDbEntity
  8
0
 60
     1
100
AcDbPoint
 10
0.0
 20
0.0
 30
0.0
  0
POINT
  5
2C
330
2
100
AcDbEntity
  8
0
 60
     1
100
AcDbPoint
 10
0.0
 20
0.0
 30
0.0
  0
POINT
  5
2D
330
2
100
AcDbEntity
  8
0
 60
     1
100
AcDbPoint
 10
0.0
 20
0.0
 30
0.0
  0
POINT
  5
2E
330
2
100
AcDbEntity
  8
0
 60
     1
100
AcDbPoint
 10
0.0
 20
0.0
 30
0.0
  0
POINT
  5
2F
330
2
100
AcDbEntity
  8
0
 60
     1
100
AcDbPoint
 10
0.0
 20
0.0
 30
0.0
  0
POINT
  5
30
330
2
100
AcDbEntity
  8
0
 60
     1
100
AcDbPoint
 10
0.0
 20
0.0
 30
0.0
  0
DIMENSION
  5
31
330
2
100
AcDbEntity
  8
AM_PARDIM
 60
     1
100
AcDbDimension
  2
*D1
 10
114.5325708695175
 20
128.6938113892625
 30
0.0
 11
112.0244343865778
 21
122.4438113892625
 31
0.0
 70
    32
  1
<>
  3
AM_ISO
100
AcDbAlignedDimension
 13
75.37464887656421
 23
116.1938113892625
 33
0.0
 14
75.37464887656421
 24
128.6938113892625
 34
0.0
 50
90.0
100
AcDbRotatedDimension
1001
ACAD_DIMASSOC_CALC_DIMLFAC
1040
-1.0
1001
ACAD
1000
DSTYLE
1002
{
1070
   144
1040
-1.0
1002
}
1001
AD_SKETCHDIM
1005
0
1000
d0
1001
ACAD_DIMASSOC_DIMLFAC
1040
-1.0
  0
DIMENSION
  5
43
330
2
100
AcDbEntity
  8
AM_PARDIM
 60
     1
100
AcDbDimension
  2
*D2
 10
26.87464887656421
 20
122.1938113892625
 30
0.0
 11
24.37464887656418
 21
119.1938113892625
 31
0.0
 70
    32
  1
<>
  3
AM_ISO
100
AcDbAlignedDimension
 13
38.8746488765642
 23
116.1938113892625
 33
0.0
 14
38.8746488765642
 24
122.1938113892624
 34
0.0
 50
90.0
100
AcDbRotatedDimension
1001
ACAD_DIMASSOC_CALC_DIMLFAC
1040
-1.0
1001
ACAD
1000
DSTYLE
1002
{
1070
   144
1040
-1.0
1002
}
1001
AD_SKETCHDIM
1005
0
1000
d1
1001
ACAD_DIMASSOC_DIMLFAC
1040
-1.0
  0
DIMENSION
  5
52
330
2
100
AcDbEntity
  8
AM_PARDIM
 60
     1
100
AcDbDimension
  2
*D3
 10
50.87464887656421
 20
140.6938113892624
 30
0.0
 11
44.87464887656421
 21
143.194073856454
 31
0.0
 70
    32
  1
<>
  3
AM_ISO
100
AcDbAlignedDimension
 13
38.8746488765642
 23
122.1938113892624
 33
0.0
 14
50.87464887656421
 24
122.1938113892624
 34
0.0
100
AcDbRotatedDimension
1001
ACAD_DIMASSOC_CALC_DIMLFAC
1040
-1.0
1001
ACAD
1000
DSTYLE
1002
{
1070
   144
1040
-1.0
1002
}
1001
AD_SKETCHDIM
1005
0
1000
d2
1001
ACAD_DIMASSOC_DIMLFAC
1040
-1.0
  0
DIMENSION
  5
5F
330
2
100
AcDbEntity
  8
AM_PARDIM
 60
     1
100
AcDbDimension
  2
*D4
 10
75.37464887656421
 20
160.6938113892624
 30
0.0
 11
57.12464887656421
 21
163.2016854050105
 31
0.0
 70
    32
  1
<>
  3
AM_ISO
100
AcDbAlignedDimension
 13
38.8746488765642
 23
116.1938113892625
 33
0.0
 14
75.37464887656421
 24
116.1938113892625
 34
0.0
100
AcDbRotatedDimension
1001
ACAD_DIMASSOC_CALC_DIMLFAC
1040
-1.0
1001
ACAD
1000
DSTYLE
1002
{
1070
   144
1040
-1.0
1002
}
1001
AD_SKETCHDIM
1005
0
1000
d3
1001
ACAD_DIMASSOC_DIMLFAC
1040
-1.0
  0
DIMENSION
  5
6C
330
2
100
AcDbEntity
  8
AM_PARDIM
 60
     1
100
AcDbDimension
  2
*D5
 10
104.5325708695175
 20
116.1938113892624
 30
0.0
 11
102.0325708695175
 21
121.6938113892625
 31
0.0
 70
    32
  1
<>
  3
AM_ISO
100
AcDbAlignedDimension
 13
50.87464887656421
 23
127.1938113892624
 33
0.0
 14
75.37464887656421
 24
116.1938113892625
 34
0.0
 50
90.0
100
AcDbRotatedDimension
1001
ACAD_DIMASSOC_CALC_DIMLFAC
1040
-1.0
1001
ACAD
1000
DSTYLE
1002
{
1070
   144
1040
-1.0
1002
}
1001
AD_SKETCHDIM
1005
0
1000
d4
1001
ACAD_DIMASSOC_DIMLFAC
1040
-1.0
  0
DIMENSION
  5
79
330
2
100
AcDbEntity
  8
AM_PARDIM
 60
     1
100
AcDbDimension
  2
*D6
 10
75.37464887656421
 20
150.6938113892624
 30
0.0
 11
70.87464887656421
 21
153.1938113892624
 31
0.0
 70
    32
  1
<>
  3
AM_ISO
100
AcDbAlignedDimension
 13
66.3746488765642
 23
128.6938113892625
 33
0.0
 14
75.37464887656421
 24
128.6938113892625
 34
0.0
100
AcDbRotatedDimension
1001
ACAD_DIMASSOC_CALC_DIMLFAC
1040
-1.0
1001
ACAD
1000
DSTYLE
1002
{
1070
   144
1040
-1.0
1002
}
1001
AD_SKETCHDIM
1005
0
1000
d5
1001
ACAD_DIMASSOC_DIMLFAC
1040
-1.0
  0
DIMENSION
  5
86
330
2
100
AcDbEntity
  8
AM_PARDIM
 60
     1
100
AcDbDimension
  2
*D7
 10
66.37464887656418
 20
140.6938113892624
 30
0.0
 11
75.92924205241719
 21
143.2019478722021
 31
0.0
 70
    32
  1
<>
  3
AM_ISO
100
AcDbAlignedDimension
 13
63.87464887656418
 23
128.6938113892624
 33
0.0
 14
66.37464887656418
 24
128.6938113892624
 34
0.0
100
AcDbRotatedDimension
1001
ACAD_DIMASSOC_CALC_DIMLFAC
1040
-1.0
1001
ACAD
1000
DSTYLE
1002
{
1070
   144
1040
-1.0
1002
}
1001
AD_SKETCHDIM
1005
0
1000
d25
1001
ACAD_DIMASSOC_DIMLFAC
1040
-1.0
  0
DIMENSION
  5
95
330
2
100
AcDbEntity
  8
AM_PARDIM
 60
     1
100
AcDbDimension
  2
*D8
 10
66.37464887656418
 20
136.030378563861
 30
0.0
 11
74.17464887656418
 21
138.530378563861
 31
0.0
 70
    32
  1
<>
  3
AM_ISO
100
AcDbAlignedDimension
 13
66.37464887656418
 23
128.6938113892624
 33
0.0
 14
66.37464887656418
 24
116.1938113892624
 34
0.0
100
AcDbRotatedDimension
1001
ACAD_DIMASSOC_CALC_DIMLFAC
1040
-1.0
1001
ACAD
1000
DSTYLE
1002
{
1070
   144
1040
-1.0
1002
}
1001
AD_SKETCHDIM
1005
0
1000
d26
1001
ACAD_DIMASSOC_DIMLFAC
1040
-1.0
  0
DIMENSION
  5
A3
330
2
100
AcDbEntity
  8
AM_PARDIM
 60
     1
100
AcDbDimension
  2
*D9
 10
94.53257086951754
 20
116.1938113892624
 30
0.0
 11
92.0246968537695
 21
120.9438113892624
 31
0.0
 70
    32
  1
<>
  3
AM_ISO
100
AcDbAlignedDimension
 13
63.87464887656418
 23
125.6938113892624
 33
0.0
 14
82.53257086951753
 24
116.1938113892624
 34
0.0
 50
90.0
100
AcDbRotatedDimension
1001
ACAD_DIMASSOC_CALC_DIMLFAC
1040
-1.0
1001
ACAD
1000
DSTYLE
1002
{
1070
   144
1040
-1.0
1002
}
1001
AD_SKETCHDIM
1005
0
1000
d27
1001
ACAD_DIMASSOC_DIMLFAC
1040
-1.0
  0
DIMENSION
  5
B0
330
2
100
AcDbEntity
  8
AM_PARDIM
 60
     1
100
AcDbDimension
  2
*D10
 10
124.5325708695175
 20
116.1938113892624
 30
0.0
 11
122.0244343865779
 21
122.4438113892624
 31
0.0
 70
    32
  1
<>
  3
AM_ISO
100
AcDbAlignedDimension
 13
66.37464887656418
 23
128.6938113892624
 33
0.0
 14
82.53257086951753
 24
116.1938113892624
 34
0.0
 50
90.0
100
AcDbRotatedDimension
1001
ACAD_DIMASSOC_CALC_DIMLFAC
1040
-1.0
1001
ACAD
1000
DSTYLE
1002
{
1070
   144
1040
-1.0
1002
}
1001
AD_SKETCHDIM
1005
0
1000
d28
1001
ACAD_DIMASSOC_DIMLFAC
1040
-1.0
  0
LINE
  5
C8
330
2
100
AcDbEntity
  8
AM_7
 60
     1
100
AcDbLine
 10
36.3746488765642
 20
116.1938113892624
 30
0.0
 11
51.3746488765642
 21
116.1938113892624
 31
0.0
  0
MTEXT
  5
151
330
2
100
AcDbEntity
  8
AM_5
 62
     5
100
AcDbMText
 10
33.56078100938998
 20
98.94002315335121
 30
0.0
 40
3.5
 41
0.0
 71
     9
 72
     1
  1

  7
ACISOTS
1001
ACAD
1000
MTEXTBEGIN
1070
    73
1070
     1
1070
    44
1040
1.0
1070
    74
1070
     0
1000
MTEXTEND
  0
MTEXT
  5
156
330
2
100
AcDbEntity
  8
AM_5
 62
     5
100
AcDbMText
 10
67.11527269722637
 20
92.4148402526181
 30
0.0
 40
3.5
 41
0.0
 71
     9
 72
     1
  1

  7
ACISOTS
1001
ACAD
1000
MTEXTBEGIN
1070
    73
1070
     1
1070
    44
1040
1.0
1070
    74
1070
     0
1000
MTEXTEND
  0
CIRCLE
  5
124B
330
2
100
AcDbEntity
  8
LOGO
  6
CONTINUOUS
 62
     6
100
AcDbCircle
 10
613.4174773427067
 20
147.047140022664
 30
0.0
 40
2.188732129700563
  0
TEXT
  5
124C
330
2
100
AcDbEntity
  8
LOGO
 62
     6
100
AcDbText
 10
612.0926047471224
 20
152.6935120169688
 30
0.0
 40
3.769623497701167
  1
1 : 1
  7
CHINESET
 72
     1
 11
618.7343223383102
 21
154.5783237658194
 31
0.0
100
AcDbText
 73
     2
  0
TEXT
  5
124D
330
2
100
AcDbEntity
  8
LOGO
 62
     6
100
AcDbText
 10
612.0926047471224
 20
137.6150180261642
 30
0.0
 40
3.769623497701167
  1
m/m
  7
CHINESET
 72
     1
 11
618.7343223383102
 21
139.4998297750147
 31
0.0
100
AcDbText
 73
     2
  0
LINE
  5
124E
330
2
100
AcDbEntity
  8
LOGO
 62
     1
100
AcDbLine
 10
631.5683712576669
 20
143.2694532727159
 30
0.0
 11
576.2805599580498
 21
143.2694532727159
 31
0.0
  0
LINE
  5
124F
330
2
100
AcDbEntity
  8
LOGO
 62
     1
100
AcDbLine
 10
631.5683712576669
 20
150.8087002681183
 30
0.0
 11
576.2805599580498
 21
150.8087002681183
 31
0.0
  0
TEXT
  5
1250
330
2
100
AcDbEntity
  8
LOGO
  6
CONTINUOUS
 62
     5
100
AcDbText
 10
551.4896049373581
 20
122.4015376866288
 30
0.0
 40
3.769623497701167
  1
MINDMAN INDUSTRIAL CO.,LTD
 41
0.85
  7
CHINESET
100
AcDbText
  0
TEXT
  5
1251
330
2
100
AcDbEntity
  8
LOGO
  6
CONTINUOUS
 62
     5
100
AcDbText
 10
549.8705157257623
 20
128.057080759164
 30
0.0
 40
5.65443524655175
  1
金器工業股份有限公司
 41
0.8
  7
LOGO
100
AcDbText
  0
LINE
  5
1252
330
2
100
AcDbEntity
  8
LOGO
 62
     1
100
AcDbLine
 10
631.5683712576669
 20
135.7302062773136
 30
0.0
 11
548.6366543082413
 21
135.7302062773136
 31
0.0
  0
LINE
  5
1256
330
2
100
AcDbEntity
  8
LOGO
 62
     1
100
AcDbLine
 10
827.5480577817086
 20
120.6517122865089
 30
0.0
 11
548.6366543082413
 21
120.6517122865089
 31
0.0
  0
LINE
  5
1257
330
2
100
AcDbEntity
  8
LOGO
 62
     1
100
AcDbLine
 10
827.5480577817086
 20
158.3479472635206
 30
0.0
 11
548.6366543082413
 21
158.3479472635206
 31
0.0
  0
LINE
  5
1258
330
2
100
AcDbEntity
  8
0
 62
     4
100
AcDbLine
 10
548.6366543082413
 20
382.1107670618255
 30
0.0
 11
827.5480577817086
 21
382.1107670618255
 31
0.0
  0
LINE
  5
1259
330
2
100
AcDbEntity
  8
0
 62
     4
100
AcDbLine
 10
827.5480577817086
 20
158.3479472635206
 30
0.0
 11
548.6366543082413
 21
158.3479472635206
 31
0.0
  0
LINE
  5
125A
330
2
100
AcDbEntity
  8
0
 62
     4
100
AcDbLine
 10
548.6366543082413
 20
158.3479472635206
 30
0.0
 11
548.6366543082413
 21
382.1107670618255
 31
0.0
  0
SOLID
  5
125B
330
2
100
AcDbEntity
  8
LOGO
 62
     5
100
AcDbTrace
 10
563.282467479022
 20
143.2331342365428
 30
0.0
 11
564.9123537645071
 21
149.2093839499897
 31
0.0
 12
571.0384780789172
 22
157.4524870030198
 32
0.0
 13
569.4085917934319
 23
157.4524870030198
 33
0.0
  0
SOLID
  5
125C
330
2
100
AcDbEntity
  8
LOGO
 62
     5
100
AcDbTrace
 10
563.282467479022
 20
157.4524870030187
 30
0.0
 11
564.9123537645071
 21
157.4524870030198
 31
0.0
 12
563.282467479022
 22
143.2331342365428
 32
0.0
 13
564.9123537645071
 23
149.2093839499897
 33
0.0
  0
POLYLINE
  5
125D
330
2
100
AcDbEntity
  8
LOGO
 62
     5
100
AcDb2dPolyline
 66
     1
 10
0.0
 20
0.0
 30
0.0
 40
0.5629304423233743
 41
0.5629304423233743
  0
VERTEX
  5
125E
330
125D
100
AcDbEntity
  8
LOGO
 62
     5
100
AcDbVertex
100
AcDb2dVertex
 10
565.0073389545213
 20
138.0624605032791
 30
0.0
 42
1.0
  0
VERTEX
  5
125F
330
125D
100
AcDbEntity
  8
LOGO
 62
     5
100
AcDbVertex
100
AcDb2dVertex
 10
563.3185476275512
 20
138.0624605032791
 30
0.0
 42
1.0
  0
SEQEND
  5
1260
330
125D
100
AcDbEntity
  8
LOGO
 62
     5
  0
SOLID
  5
1261
330
2
100
AcDbEntity
  8
LOGO
 62
     5
100
AcDbTrace
 10
563.0388837838053
 20
139.1865200105105
 30
0.0
 11
563.6009135374206
 21
139.1865200105105
 31
0.0
 12
563.0388837838053
 22
136.3763712424326
 32
0.0
 13
563.6009135374206
 23
136.3763712424326
 33
0.0
  0
SOLID
  5
1262
330
2
100
AcDbEntity
  8
LOGO
 62
     2
100
AcDbTrace
 10
562.6080317746827
 20
141.9966687785889
 30
0.0
 11
563.282467479022
 21
141.9966687785889
 31
0.0
 12
571.0384780789172
 22
157.4524870030198
 32
0.0
 13
571.7129137832565
 23
157.4524870030187
 33
0.0
  0
SOLID
  5
1263
330
2
100
AcDbEntity
  8
LOGO
 62
     5
100
AcDbTrace
 10
563.282467479022
 20
141.9966687785889
 30
0.0
 11
564.9123537645071
 21
141.9966687785889
 31
0.0
 12
571.0384780789172
 22
156.2160215450647
 32
0.0
 13
569.4085917934319
 23
150.2397718316179
 33
0.0
  0
SOLID
  5
1264
330
2
100
AcDbEntity
  8
LOGO
 62
     2
100
AcDbTrace
 10
562.6080317746827
 20
157.4524870030187
 30
0.0
 11
563.282467479022
 21
157.4524870030187
 31
0.0
 12
562.6080317746827
 22
141.9966687785889
 32
0.0
 13
563.282467479022
 23
141.9966687785889
 33
0.0
  0
SOLID
  5
1265
330
2
100
AcDbEntity
  8
LOGO
 62
     5
100
AcDbTrace
 10
560.9781454891974
 20
141.9966687785889
 30
0.0
 11
562.6080317746827
 21
141.9966687785889
 31
0.0
 12
560.9781454891974
 22
150.2397718316179
 32
0.0
 13
562.6080317746827
 23
156.2160215450647
 33
0.0
  0
LINE
  5
1266
330
2
100
AcDbEntity
  8
LOGO
 62
     1
100
AcDbLine
 10
548.6366543082413
 20
120.6517122865089
 30
0.0
 11
548.6366543082413
 21
158.3479472635206
 31
0.0
  0
SOLID
  5
1267
330
2
100
AcDbEntity
  8
LOGO
 62
     2
100
AcDbTrace
 10
554.1775854704475
 20
141.9966687785884
 30
0.0
 11
554.8520211747873
 21
141.9966687785889
 31
0.0
 12
562.6080317746827
 22
157.4524870030187
 32
0.0
 13
563.282467479022
 23
157.4524870030187
 33
0.0
  0
SOLID
  5
1268
330
2
100
AcDbEntity
  8
LOGO
 62
     5
100
AcDbTrace
 10
554.8520211747873
 20
141.9966687785889
 30
0.0
 11
556.4819074602724
 21
141.9966687785889
 31
0.0
 12
562.6080317746827
 22
156.2160215450647
 32
0.0
 13
560.9781454891974
 23
150.2397718316179
 33
0.0
  0
SOLID
  5
1269
330
2
100
AcDbEntity
  8
LOGO
 62
     5
100
AcDbTrace
 10
552.5476991849622
 20
141.9966687785889
 30
0.0
 11
554.1775854704475
 21
141.9966687785884
 31
0.0
 12
560.9781454891974
 22
157.4524870030198
 32
0.0
 13
562.6080317746827
 23
157.4524870030187
 33
0.0
  0
SOLID
  5
126A
330
2
100
AcDbEntity
  8
LOGO
 62
     5
100
AcDbTrace
 10
549.9345917722519
 20
136.3763712424326
 30
0.0
 11
550.4966215258681
 21
136.3763712424326
 31
0.0
 12
552.0793410569495
 22
139.1865200105105
 32
0.0
 13
552.6413708105646
 23
139.1865200105105
 33
0.0
  0
POLYLINE
  5
126B
330
2
100
AcDbEntity
  8
LOGO
 62
     5
100
AcDb2dPolyline
 66
     1
 10
0.0
 20
0.0
 30
0.0
 70
     1
 40
0.5629304423233743
 41
0.5629304423233743
  0
VERTEX
  5
126C
330
126B
100
AcDbEntity
  8
LOGO
 62
     5
100
AcDbVertex
100
AcDb2dVertex
 10
559.8522846045502
 20
137.7814456264713
 30
0.0
 42
1.0
  0
VERTEX
  5
126D
330
126B
100
AcDbEntity
  8
LOGO
 62
     5
100
AcDbVertex
100
AcDb2dVertex
 10
562.1040063738438
 20
137.7814456264713
 30
0.0
 42
1.0
  0
SEQEND
  5
126E
330
126B
100
AcDbEntity
  8
LOGO
 62
     5
  0
SOLID
  5
126F
330
2
100
AcDbEntity
  8
LOGO
 62
     5
100
AcDbTrace
 10
561.8211339166459
 20
140.0295646409343
 30
0.0
 11
562.383163670261
 21
140.0295646409343
 31
0.0
 12
561.8211339166459
 22
136.3763712424326
 32
0.0
 13
562.383163670261
 23
136.3763712424326
 33
0.0
  0
SOLID
  5
1270
330
2
100
AcDbEntity
  8
LOGO
 62
     5
100
AcDbTrace
 10
555.4514259070177
 20
139.1865200105105
 30
0.0
 11
556.0134556606344
 21
139.1865200105105
 31
0.0
 12
555.4514259070177
 22
136.3763712424316
 32
0.0
 13
556.0134556606344
 23
136.3763712424326
 33
0.0
  0
SOLID
  5
1271
330
2
100
AcDbEntity
  8
LOGO
 62
     5
100
AcDbTrace
 10
556.6691757741773
 20
139.1865200105105
 30
0.0
 11
557.2312055277924
 21
139.1865200105105
 31
0.0
 12
556.6691757741773
 22
136.3763712424326
 32
0.0
 13
557.2312055277924
 23
136.3763712424326
 33
0.0
  0
SOLID
  5
1272
330
2
100
AcDbEntity
  8
LOGO
 62
     5
100
AcDbTrace
 10
552.0793410569495
 20
136.3763712424326
 30
0.0
 11
552.6413708105646
 21
136.3763712424326
 31
0.0
 12
554.2240903416479
 22
139.1865200105105
 32
0.0
 13
554.7861200952629
 23
139.1865200105105
 33
0.0
  0
SOLID
  5
1273
330
2
100
AcDbEntity
  8
LOGO
 62
     5
100
AcDbTrace
 10
552.0793410569495
 20
139.1865200105105
 30
0.0
 11
552.6413708105646
 21
139.1865200105105
 31
0.0
 12
552.0793410569495
 22
136.3763712424326
 32
0.0
 13
552.6413708105646
 23
136.3763712424326
 33
0.0
  0
SOLID
  5
1274
330
2
100
AcDbEntity
  8
LOGO
 62
     5
100
AcDbTrace
 10
554.2240903416479
 20
139.1865200105105
 30
0.0
 11
554.7861200952629
 21
139.1865200105105
 31
0.0
 12
554.2240903416479
 22
136.3763712424326
 32
0.0
 13
554.7861200952629
 23
136.3763712424326
 33
0.0
  0
SOLID
  5
1275
330
2
100
AcDbEntity
  8
LOGO
 62
     5
100
AcDbTrace
 10
558.3552650350237
 20
138.0624605032791
 30
0.0
 11
558.9172947886399
 21
138.0624605032791
 31
0.0
 12
558.3552650350237
 22
136.3763712424326
 32
0.0
 13
558.9172947886399
 23
136.3763712424326
 33
0.0
  0
POLYLINE
  5
1276
330
2
100
AcDbEntity
  8
LOGO
 62
     5
100
AcDb2dPolyline
 66
     1
 10
0.0
 20
0.0
 30
0.0
 40
0.5629304423233743
 41
0.5629304423233743
  0
VERTEX
  5
1277
330
1276
100
AcDbEntity
  8
LOGO
 62
     5
100
AcDbVertex
100
AcDb2dVertex
 10
558.6376309448933
 20
138.0624605032791
 30
0.0
 42
1.0
  0
VERTEX
  5
1278
330
1276
100
AcDbEntity
  8
LOGO
 62
     5
100
AcDbVertex
100
AcDb2dVertex
 10
556.9488396179231
 20
138.0624605032791
 30
0.0
 42
1.0
  0
SEQEND
  5
1279
330
1276
100
AcDbEntity
  8
LOGO
 62
     5
  0
SOLID
  5
127A
330
2
100
AcDbEntity
  8
LOGO
 62
     5
100
AcDbTrace
 10
555.4514259070177
 20
139.5799408380412
 30
0.0
 11
556.0134556606344
 21
139.5799408380412
 31
0.0
 12
555.4514259070177
 22
140.0295646409343
 32
0.0
 13
556.0134556606344
 23
140.0295646409343
 33
0.0
  0
LINE
  5
127B
330
2
100
AcDbEntity
  8
LOGO
 62
     1
100
AcDbLine
 10
606.4375479396592
 20
135.7302062773136
 30
0.0
 11
606.4375479396592
 21
158.3479472635206
 31
0.0
  0
LINE
  5
127C
330
2
100
AcDbEntity
  8
LOGO
 62
     1
100
AcDbLine
 10
576.2805599580498
 20
135.7302062773136
 30
0.0
 11
576.2805599580498
 21
158.3479472635206
 31
0.0
  0
SOLID
  5
127D
330
2
100
AcDbEntity
  8
LOGO
 62
     2
100
AcDbTrace
 10
571.0384780789172
 20
157.4524870030198
 30
0.0
 11
571.7129137832565
 21
157.4524870030187
 31
0.0
 12
571.0384780789172
 22
141.9966687785884
 32
0.0
 13
571.7129137832565
 23
141.9966687785884
 33
0.0
  0
SOLID
  5
127E
330
2
100
AcDbEntity
  8
LOGO
 62
     5
100
AcDbTrace
 10
571.0384780789172
 20
156.2160215450647
 30
0.0
 11
569.4085917934319
 21
150.2397718316179
 31
0.0
 12
571.0384780789172
 22
141.9966687785884
 32
0.0
 13
569.4085917934319
 23
141.9966687785884
 33
0.0
  0
SOLID
  5
127F
330
2
100
AcDbEntity
  8
LOGO
 62
     5
100
AcDbTrace
 10
571.7129137832565
 20
141.9966687785884
 30
0.0
 11
573.3428000687418
 21
141.9966687785884
 31
0.0
 12
571.7129137832565
 22
157.4524870030187
 32
0.0
 13
573.3428000687418
 23
157.4524870030198
 33
0.0
  0
TEXT
  5
1280
330
2
100
AcDbEntity
  8
LOGO
 62
     6
100
AcDbText
 10
581.0750498441884
 20
137.6150180261642
 30
0.0
 40
3.769623497701167
  1
單位 Unit:
 41
0.9
  7
CHINESET
 72
     4
 11
591.3590539488544
 21
139.4998297750147
 31
0.0
100
AcDbText
  0
CIRCLE
  5
1281
330
2
100
AcDbEntity
  8
LOGO
 62
     5
100
AcDbCircle
 10
569.033942759672
 20
137.7814456264716
 30
0.0
 40
0.8430446304234855
  0
POLYLINE
  5
1282
330
2
100
AcDbEntity
  8
LOGO
 62
     5
100
AcDb2dPolyline
 66
     1
 10
0.0
 20
0.0
 30
0.0
 70
     1
  0
VERTEX
  5
1283
330
1282
100
AcDbEntity
  8
LOGO
 62
     5
100
AcDbVertex
100
AcDb2dVertex
 10
568.1908981292484
 20
137.7814456264716
 30
0.0
 42
1.000000057330635
  0
VERTEX
  5
1284
330
1282
100
AcDbEntity
  8
LOGO
 62
     5
100
AcDbVertex
100
AcDb2dVertex
 10
569.8769873900958
 20
137.7814456264716
 30
0.0
 42
1.000000057330635
  0
SEQEND
  5
1285
330
1282
100
AcDbEntity
  8
LOGO
 62
     5
  0
SOLID
  5
1286
330
2
100
AcDbEntity
  8
LOGO
 62
     5
100
AcDbTrace
 10
572.7807703151267
 20
138.0624605032791
 30
0.0
 11
573.3428000687418
 21
138.0624605032791
 31
0.0
 12
572.7807703151267
 22
136.3763712424326
 32
0.0
 13
573.3428000687418
 23
136.3763712424326
 33
0.0
  0
SOLID
  5
1287
330
2
100
AcDbEntity
  8
LOGO
 62
     5
100
AcDbTrace
 10
571.0946810542791
 20
136.3763712424326
 30
0.0
 11
571.6567108078952
 21
136.3763712424326
 31
0.0
 12
571.0946810542791
 22
139.1865200105105
 32
0.0
 13
571.6567108078952
 23
139.1865200105105
 33
0.0
  0
SOLID
  5
1288
330
2
100
AcDbEntity
  8
LOGO
 62
     5
100
AcDbTrace
 10
569.8769311871211
 20
139.1865200105105
 30
0.0
 11
570.4389609407363
 21
139.1865200105105
 31
0.0
 12
569.8769311871211
 22
136.3763712424326
 32
0.0
 13
570.4389609407363
 23
136.3763712424326
 33
0.0
  0
LINE
  5
1289
330
2
100
AcDbEntity
  8
LOGO
 62
     5
100
AcDbLine
 10
573.3428000687418
 20
136.3763712424326
 30
0.0
 11
573.3428000687418
 21
138.0624605032791
 31
0.0
  0
POLYLINE
  5
128A
330
2
100
AcDbEntity
  8
LOGO
 62
     5
100
AcDb2dPolyline
 66
     1
 10
0.0
 20
0.0
 30
0.0
 70
     1
 40
0.5629304423233743
 41
0.5629304423233743
  0
VERTEX
  5
128B
330
128A
100
AcDbEntity
  8
LOGO
 62
     5
100
AcDbVertex
100
AcDb2dVertex
 10
567.9080818750249
 20
137.7814456264713
 30
0.0
 42
1.0
  0
VERTEX
  5
128C
330
128A
100
AcDbEntity
  8
LOGO
 62
     5
100
AcDbVertex
100
AcDb2dVertex
 10
570.1598036443185
 20
137.7814456264713
 30
0.0
 42
1.0
  0
SEQEND
  5
128D
330
128A
100
AcDbEntity
  8
LOGO
 62
     5
  0
SOLID
  5
128E
330
2
100
AcDbEntity
  8
LOGO
 62
     5
100
AcDbTrace
 10
564.7249730446519
 20
138.0624605032791
 30
0.0
 11
565.2870027982671
 21
138.0624605032791
 31
0.0
 12
564.7249730446519
 22
136.3763712424326
 32
0.0
 13
565.2870027982671
 23
136.3763712424326
 33
0.0
  0
SOLID
  5
128F
330
2
100
AcDbEntity
  8
LOGO
 62
     5
100
AcDbTrace
 10
566.4110623054986
 20
138.0624605032791
 30
0.0
 11
566.9730920591137
 21
138.0624605032791
 31
0.0
 12
566.4110623054986
 22
136.3763712424316
 32
0.0
 13
566.9730920591137
 23
136.3763712424316
 33
0.0
  0
POLYLINE
  5
1290
330
2
100
AcDbEntity
  8
LOGO
 62
     5
100
AcDb2dPolyline
 66
     1
 10
0.0
 20
0.0
 30
0.0
 40
0.5629304423233743
 41
0.5629304423233743
  0
VERTEX
  5
1291
330
1290
100
AcDbEntity
  8
LOGO
 62
     5
100
AcDbVertex
100
AcDb2dVertex
 10
566.6934282153679
 20
138.0624605032791
 30
0.0
 42
1.0
  0
VERTEX
  5
1292
330
1290
100
AcDbEntity
  8
LOGO
 62
     5
100
AcDbVertex
100
AcDb2dVertex
 10
565.0046368883977
 20
138.0624605032791
 30
0.0
 42
1.0
  0
SEQEND
  5
1293
330
1290
100
AcDbEntity
  8
LOGO
 62
     5
  0
POLYLINE
  5
1294
330
2
100
AcDbEntity
  8
LOGO
 62
     5
100
AcDb2dPolyline
 66
     1
 10
0.0
 20
0.0
 30
0.0
 40
0.5629304423233743
 41
0.5629304423233743
  0
VERTEX
  5
1295
330
1294
100
AcDbEntity
  8
LOGO
 62
     5
100
AcDbVertex
100
AcDb2dVertex
 10
573.0631362249961
 20
138.0624605032791
 30
0.0
 42
1.0
  0
VERTEX
  5
1296
330
1294
100
AcDbEntity
  8
LOGO
 62
     5
100
AcDbVertex
100
AcDb2dVertex
 10
571.3743448980259
 20
138.0624605032791
 30
0.0
 42
1.0
  0
SEQEND
  5
1297
330
1294
100
AcDbEntity
  8
LOGO
 62
     5
  0
TEXT
  5
1298
330
2
100
AcDbEntity
  8
LOGO
 62
     6
100
AcDbText
 10
580.7065018325828
 20
145.2072908114169
 30
0.0
 40
3.769623497701167
  1
投影 View:
 41
0.9
  7
CHINESET
 72
     4
 11
591.3590539488544
 21
147.039076770417
 31
0.0
100
AcDbText
  0
TEXT
  5
1299
330
2
100
AcDbEntity
  8
LOGO
 62
     6
100
AcDbText
 10
579.3888164760203
 20
152.6953671466429
 30
0.0
 40
3.769623497701167
  1
比例 Scale:
 41
0.9
  7
CHINESET
 72
     4
 11
591.3590539488544
 21
154.5783237658194
 31
0.0
100
AcDbText
  0
CIRCLE
  5
129A
330
2
100
AcDbEntity
  8
LOGO
  6
CONTINUOUS
 62
     6
100
AcDbCircle
 10
613.4174773427067
 20
147.047140022664
 30
0.0
 40
1.282403270511625
  0
TEXT
  5
12A0
330
2
100
AcDbEntity
  8
DIM
100
AcDbText
 10
567.6424418892852
 20
327.9198185750402
 30
0.0
 40
4.0
  1
CCW
  7
ROMANS
100
AcDbText
  0
POLYLINE
  5
12A1
330
2
100
AcDbEntity
  8
DIM
100
AcDb2dPolyline
 66
     1
 10
0.0
 20
0.0
 30
0.0
 70
     5
 75
     6
  0
VERTEX
  5
12A2
330
12A1
100
AcDbEntity
  8
DIM
100
AcDbVertex
100
AcDb2dVertex
 10
581.164537971149
 20
332.8539564776048
 30
0.0
 70
    16
  0
VERTEX
  5
289C
330
12A1
100
AcDbEntity
  8
DIM
100
AcDbVertex
100
AcDb2dVertex
 10
582.7663167952819
 20
329.1411677402763
 30
0.0
 70
     8
  0
VERTEX
  5
289D
330
12A1
100
AcDbEntity
  8
DIM
100
AcDbVertex
100
AcDb2dVertex
 10
582.8415191256884
 20
328.8794930913779
 30
0.0
 70
     8
  0
VERTEX
  5
289E
330
12A1
100
AcDbEntity
  8
DIM
100
AcDbVertex
100
AcDb2dVertex
 10
582.8878291101313
 20
328.6708381293653
 30
0.0
 70
     8
  0
VERTEX
  5
289F
330
12A1
100
AcDbEntity
  8
DIM
100
AcDbVertex
100
AcDb2dVertex
 10
582.9164226131853
 20
328.5036934315287
 30
0.0
 70
     8
  0
VERTEX
  5
28A0
330
12A1
100
AcDbEntity
  8
DIM
100
AcDbVertex
100
AcDb2dVertex
 10
582.9384754994256
 20
328.3665495751584
 30
0.0
 70
     8
  0
VERTEX
  5
28A1
330
12A1
100
AcDbEntity
  8
DIM
100
AcDbVertex
100
AcDb2dVertex
 10
582.9651636334274
 20
328.2478971375446
 30
0.0
 70
     8
  0
VERTEX
  5
28A2
330
12A1
100
AcDbEntity
  8
DIM
100
AcDbVertex
100
AcDb2dVertex
 10
583.0076628797655
 20
328.1362266959775
 30
0.0
 70
     8
  0
VERTEX
  5
28A3
330
12A1
100
AcDbEntity
  8
DIM
100
AcDbVertex
100
AcDb2dVertex
 10
583.0771491030151
 20
328.0200288277474
 30
0.0
 70
     8
  0
VERTEX
  5
28A4
330
12A1
100
AcDbEntity
  8
DIM
100
AcDbVertex
100
AcDb2dVertex
 10
583.184798167751
 20
327.8877941101445
 30
0.0
 70
     8
  0
VERTEX
  5
28A5
330
12A1
100
AcDbEntity
  8
DIM
100
AcDbVertex
100
AcDb2dVertex
 10
583.3379720311278
 20
327.7322269043566
 30
0.0
 70
     8
  0
VERTEX
  5
28A6
330
12A1
100
AcDbEntity
  8
DIM
100
AcDbVertex
100
AcDb2dVertex
 10
583.528777020617
 20
327.562886707162
 30
0.0
 70
     8
  0
VERTEX
  5
28A7
330
12A1
100
AcDbEntity
  8
DIM
100
AcDbVertex
100
AcDb2dVertex
 10
583.7455055562696
 20
327.3935467992365
 30
0.0
 70
     8
  0
VERTEX
  5
28A8
330
12A1
100
AcDbEntity
  8
DIM
100
AcDbVertex
100
AcDb2dVertex
 10
583.9764500581365
 20
327.2379804612559
 30
0.0
 70
     8
  0
VERTEX
  5
28A9
330
12A1
100
AcDbEntity
  8
DIM
100
AcDbVertex
100
AcDb2dVertex
 10
584.2099029462688
 20
327.1099609738961
 30
0.0
 70
     8
  0
VERTEX
  5
28AA
330
12A1
100
AcDbEntity
  8
DIM
100
AcDbVertex
100
AcDb2dVertex
 10
584.4341566407174
 20
327.0232616178329
 30
0.0
 70
     8
  0
VERTEX
  5
28AB
330
12A1
100
AcDbEntity
  8
DIM
100
AcDbVertex
100
AcDb2dVertex
 10
584.6375035615334
 20
326.9916556737421
 30
0.0
 70
     8
  0
VERTEX
  5
28AC
330
12A1
100
AcDbEntity
  8
DIM
100
AcDbVertex
100
AcDb2dVertex
 10
584.8082361287676
 20
327.0289164222996
 30
0.0
 70
     8
  0
VERTEX
  5
28AD
330
12A1
100
AcDbEntity
  8
DIM
100
AcDbVertex
100
AcDb2dVertex
 10
584.9374168833167
 20
327.1436521458484
 30
0.0
 70
     8
  0
VERTEX
  5
28AE
330
12A1
100
AcDbEntity
  8
DIM
100
AcDbVertex
100
AcDb2dVertex
 10
585.0271888494602
 20
327.3238111334006
 30
0.0
 70
     8
  0
VERTEX
  5
28AF
330
12A1
100
AcDbEntity
  8
DIM
100
AcDbVertex
100
AcDb2dVertex
 10
585.0824651723228
 20
327.5521766756355
 30
0.0
 70
     8
  0
VERTEX
  5
28B0
330
12A1
100
AcDbEntity
  8
DIM
100
AcDbVertex
100
AcDb2dVertex
 10
585.1081589970298
 20
327.8115320632323
 30
0.0
 70
     8
  0
VERTEX
  5
28B1
330
12A1
100
AcDbEntity
  8
DIM
100
AcDbVertex
100
AcDb2dVertex
 10
585.109183468706
 20
328.0846605868704
 30
0.0
 70
     8
  0
VERTEX
  5
28B2
330
12A1
100
AcDbEntity
  8
DIM
100
AcDbVertex
100
AcDb2dVertex
 10
585.0904517324765
 20
328.3543455372292
 30
0.0
 70
     8
  0
VERTEX
  5
28B3
330
12A1
100
AcDbEntity
  8
DIM
100
AcDbVertex
100
AcDb2dVertex
 10
585.0568769334662
 20
328.6033702049877
 30
0.0
 70
     8
  0
VERTEX
  5
28B4
330
12A1
100
AcDbEntity
  8
DIM
100
AcDbVertex
100
AcDb2dVertex
 10
585.0133722168002
 20
328.8145178808255
 30
0.0
 70
     8
  0
VERTEX
  5
28B5
330
12A1
100
AcDbEntity
  8
DIM
100
AcDbVertex
100
AcDb2dVertex
 10
584.9636652143025
 20
328.9760771760187
 30
0.0
 70
     8
  0
VERTEX
  5
28B6
330
12A1
100
AcDbEntity
  8
DIM
100
AcDbVertex
100
AcDb2dVertex
 10
584.9067415045935
 20
329.0983579842313
 30
0.0
 70
     8
  0
VERTEX
  5
28B7
330
12A1
100
AcDbEntity
  8
DIM
100
AcDbVertex
100
AcDb2dVertex
 10
584.8404011529919
 20
329.1971755197241
 30
0.0
 70
     8
  0
VERTEX
  5
28B8
330
12A1
100
AcDbEntity
  8
DIM
100
AcDbVertex
100
AcDb2dVertex
 10
584.7624442248172
 20
329.2883449967582
 30
0.0
 70
     8
  0
VERTEX
  5
28B9
330
12A1
100
AcDbEntity
  8
DIM
100
AcDbVertex
100
AcDb2dVertex
 10
584.6706707853887
 20
329.3876816295945
 30
0.0
 70
     8
  0
VERTEX
  5
28BA
330
12A1
100
AcDbEntity
  8
DIM
100
AcDbVertex
100
AcDb2dVertex
 10
584.5628809000253
 20
329.5110006324939
 30
0.0
 70
     8
  0
VERTEX
  5
28BB
330
12A1
100
AcDbEntity
  8
DIM
100
AcDbVertex
100
AcDb2dVertex
 10
584.4368746340465
 20
329.6741172197172
 30
0.0
 70
     8
  0
VERTEX
  5
28BC
330
12A1
100
AcDbEntity
  8
DIM
100
AcDbVertex
100
AcDb2dVertex
 10
584.2904520527712
 20
329.8928466055255
 30
0.0
 70
     8
  0
VERTEX
  5
28BD
330
12A1
100
AcDbEntity
  8
DIM
100
AcDbVertex
100
AcDb2dVertex
 10
584.1224457466751
 20
330.1772923873043
 30
0.0
 70
     8
  0
VERTEX
  5
28BE
330
12A1
100
AcDbEntity
  8
DIM
100
AcDbVertex
100
AcDb2dVertex
 10
583.9358184068584
 20
330.5147116949378
 30
0.0
 70
     8
  0
VERTEX
  5
28BF
330
12A1
100
AcDbEntity
  8
DIM
100
AcDbVertex
100
AcDb2dVertex
 10
583.7345652495781
 20
330.8866500414346
 30
0.0
 70
     8
  0
VERTEX
  5
28C0
330
12A1
100
AcDbEntity
  8
DIM
100
AcDbVertex
100
AcDb2dVertex
 10
583.5226814910907
 20
331.2746529398036
 30
0.0
 70
     8
  0
VERTEX
  5
28C1
330
12A1
100
AcDbEntity
  8
DIM
100
AcDbVertex
100
AcDb2dVertex
 10
583.304162347653
 20
331.6602659030536
 30
0.0
 70
     8
  0
VERTEX
  5
28C2
330
12A1
100
AcDbEntity
  8
DIM
100
AcDbVertex
100
AcDb2dVertex
 10
583.0830030355217
 20
332.0250344441934
 30
0.0
 70
     8
  0
VERTEX
  5
28C3
330
12A1
100
AcDbEntity
  8
DIM
100
AcDbVertex
100
AcDb2dVertex
 10
582.8631987709535
 20
332.3505040762317
 30
0.0
 70
     8
  0
VERTEX
  5
28C4
330
12A1
100
AcDbEntity
  8
DIM
100
AcDbVertex
100
AcDb2dVertex
 10
582.6487447702052
 20
332.6182203121772
 30
0.0
 70
     8
  0
VERTEX
  5
28C5
330
12A1
100
AcDbEntity
  8
DIM
100
AcDbVertex
100
AcDb2dVertex
 10
582.4438869114149
 20
332.8131473012818
 30
0.0
 70
     8
  0
VERTEX
  5
28C6
330
12A1
100
AcDbEntity
  8
DIM
100
AcDbVertex
100
AcDb2dVertex
 10
582.2538737202465
 20
332.9339237377682
 30
0.0
 70
     8
  0
VERTEX
  5
28C7
330
12A1
100
AcDbEntity
  8
DIM
100
AcDbVertex
100
AcDb2dVertex
 10
582.0842043842453
 20
332.9826069521024
 30
0.0
 70
     8
  0
VERTEX
  5
28C8
330
12A1
100
AcDbEntity
  8
DIM
100
AcDbVertex
100
AcDb2dVertex
 10
581.9403780909566
 20
332.9612542747499
 30
0.0
 70
     8
  0
VERTEX
  5
28C9
330
12A1
100
AcDbEntity
  8
DIM
100
AcDbVertex
100
AcDb2dVertex
 10
581.8278940279261
 20
332.8719230361769
 30
0.0
 70
     8
  0
VERTEX
  5
28CA
330
12A1
100
AcDbEntity
  8
DIM
100
AcDbVertex
100
AcDb2dVertex
 10
581.7522513826987
 20
332.7166705668489
 30
0.0
 70
     8
  0
VERTEX
  5
28CB
330
12A1
100
AcDbEntity
  8
DIM
100
AcDbVertex
100
AcDb2dVertex
 10
581.7189493428201
 20
332.4975541972318
 30
0.0
 70
     8
  0
VERTEX
  5
28CC
330
12A1
100
AcDbEntity
  8
DIM
100
AcDbVertex
100
AcDb2dVertex
 10
581.7334870958355
 20
332.2166312577914
 30
0.0
 70
     8
  0
VERTEX
  5
28CD
330
12A1
100
AcDbEntity
  8
DIM
100
AcDbVertex
100
AcDb2dVertex
 10
581.7985013148874
 20
331.8782053228524
 30
0.0
 70
     8
  0
VERTEX
  5
28CE
330
12A1
100
AcDbEntity
  8
DIM
100
AcDbVertex
100
AcDb2dVertex
 10
581.9051786155063
 20
331.495564942175
 30
0.0
 70
     8
  0
VERTEX
  5
28CF
330
12A1
100
AcDbEntity
  8
DIM
100
AcDbVertex
100
AcDb2dVertex
 10
582.0418430988199
 20
331.0842449093784
 30
0.0
 70
     8
  0
VERTEX
  5
28D0
330
12A1
100
AcDbEntity
  8
DIM
100
AcDbVertex
100
AcDb2dVertex
 10
582.1968188659562
 20
330.6597800180816
 30
0.0
 70
     8
  0
VERTEX
  5
28D1
330
12A1
100
AcDbEntity
  8
DIM
100
AcDbVertex
100
AcDb2dVertex
 10
582.3584300180429
 20
330.2377050619039
 30
0.0
 70
     8
  0
VERTEX
  5
28D2
330
12A1
100
AcDbEntity
  8
DIM
100
AcDbVertex
100
AcDb2dVertex
 10
582.5150006562076
 20
329.8335548344644
 30
0.0
 70
     8
  0
VERTEX
  5
28D3
330
12A1
100
AcDbEntity
  8
DIM
100
AcDbVertex
100
AcDb2dVertex
 10
582.6548548815781
 20
329.4628641293821
 30
0.0
 70
     8
  0
VERTEX
  5
12A3
330
12A1
100
AcDbEntity
  8
DIM
100
AcDbVertex
100
AcDb2dVertex
 10
583.1937110410286
 20
328.4528572379237
 30
0.0
 70
    16
  0
VERTEX
  5
12A4
330
12A1
100
AcDbEntity
  8
DIM
100
AcDbVertex
100
AcDb2dVertex
 10
582.6585186364289
 20
328.1816210123585
 30
0.0
 70
    16
  0
VERTEX
  5
12A5
330
12A1
100
AcDbEntity
  8
DIM
100
AcDbVertex
100
AcDb2dVertex
 10
585.2810034197622
 20
326.1474233735093
 30
0.0
 70
    16
  0
VERTEX
  5
12A6
330
12A1
100
AcDbEntity
  8
DIM
100
AcDbVertex
100
AcDb2dVertex
 10
585.0668844571278
 20
329.4021840274018
 30
0.0
 70
    16
  0
VERTEX
  5
12A7
330
12A1
100
AcDbEntity
  8
DIM
100
AcDbVertex
100
AcDb2dVertex
 10
584.5316920525277
 20
329.1309478018364
 30
0.0
 70
    16
  0
VERTEX
  5
12A8
330
12A1
100
AcDbEntity
  8
DIM
100
AcDbVertex
100
AcDb2dVertex
 10
582.5490596493885
 20
333.4311043984056
 30
0.0
 70
    16
  0
SEQEND
  5
12A9
330
12A1
100
AcDbEntity
  8
DIM
  0
POLYLINE
  5
12AC
330
2
100
AcDbEntity
  8
DIM
100
AcDb2dPolyline
 66
     1
 10
0.0
 20
0.0
 30
0.0
 70
     5
 75
     6
  0
VERTEX
  5
12AD
330
12AC
100
AcDbEntity
  8
DIM
100
AcDbVertex
100
AcDb2dVertex
 10
581.1645379711494
 20
359.008252319207
 30
0.0
 70
    16
  0
VERTEX
  5
28D4
330
12AC
100
AcDbEntity
  8
DIM
100
AcDbVertex
100
AcDb2dVertex
 10
582.7663167952825
 20
362.7210410565355
 30
0.0
 70
     8
  0
VERTEX
  5
28D5
330
12AC
100
AcDbEntity
  8
DIM
100
AcDbVertex
100
AcDb2dVertex
 10
582.8415191256889
 20
362.9827157054339
 30
0.0
 70
     8
  0
VERTEX
  5
28D6
330
12AC
100
AcDbEntity
  8
DIM
100
AcDbVertex
100
AcDb2dVertex
 10
582.8878291101317
 20
363.1913706674465
 30
0.0
 70
     8
  0
VERTEX
  5
28D7
330
12AC
100
AcDbEntity
  8
DIM
100
AcDbVertex
100
AcDb2dVertex
 10
582.9164226131857
 20
363.358515365283
 30
0.0
 70
     8
  0
VERTEX
  5
28D8
330
12AC
100
AcDbEntity
  8
DIM
100
AcDbVertex
100
AcDb2dVertex
 10
582.9384754994261
 20
363.4956592216533
 30
0.0
 70
     8
  0
VERTEX
  5
28D9
330
12AC
100
AcDbEntity
  8
DIM
100
AcDbVertex
100
AcDb2dVertex
 10
582.9651636334278
 20
363.6143116592672
 30
0.0
 70
     8
  0
VERTEX
  5
28DA
330
12AC
100
AcDbEntity
  8
DIM
100
AcDbVertex
100
AcDb2dVertex
 10
583.007662879766
 20
363.7259821008342
 30
0.0
 70
     8
  0
VERTEX
  5
28DB
330
12AC
100
AcDbEntity
  8
DIM
100
AcDbVertex
100
AcDb2dVertex
 10
583.0771491030155
 20
363.8421799690643
 30
0.0
 70
     8
  0
VERTEX
  5
28DC
330
12AC
100
AcDbEntity
  8
DIM
100
AcDbVertex
100
AcDb2dVertex
 10
583.1847981677515
 20
363.9744146866673
 30
0.0
 70
     8
  0
VERTEX
  5
28DD
330
12AC
100
AcDbEntity
  8
DIM
100
AcDbVertex
100
AcDb2dVertex
 10
583.3379720311283
 20
364.1299818924551
 30
0.0
 70
     8
  0
VERTEX
  5
28DE
330
12AC
100
AcDbEntity
  8
DIM
100
AcDbVertex
100
AcDb2dVertex
 10
583.5287770206174
 20
364.2993220896498
 30
0.0
 70
     8
  0
VERTEX
  5
28DF
330
12AC
100
AcDbEntity
  8
DIM
100
AcDbVertex
100
AcDb2dVertex
 10
583.74550555627
 20
364.4686619975753
 30
0.0
 70
     8
  0
VERTEX
  5
28E0
330
12AC
100
AcDbEntity
  8
DIM
100
AcDbVertex
100
AcDb2dVertex
 10
583.9764500581369
 20
364.6242283355558
 30
0.0
 70
     8
  0
VERTEX
  5
28E1
330
12AC
100
AcDbEntity
  8
DIM
100
AcDbVertex
100
AcDb2dVertex
 10
584.2099029462692
 20
364.7522478229156
 30
0.0
 70
     8
  0
VERTEX
  5
28E2
330
12AC
100
AcDbEntity
  8
DIM
100
AcDbVertex
100
AcDb2dVertex
 10
584.4341566407178
 20
364.8389471789788
 30
0.0
 70
     8
  0
VERTEX
  5
28E3
330
12AC
100
AcDbEntity
  8
DIM
100
AcDbVertex
100
AcDb2dVertex
 10
584.6375035615339
 20
364.8705531230696
 30
0.0
 70
     8
  0
VERTEX
  5
28E4
330
12AC
100
AcDbEntity
  8
DIM
100
AcDbVertex
100
AcDb2dVertex
 10
584.808236128768
 20
364.8332923745121
 30
0.0
 70
     8
  0
VERTEX
  5
28E5
330
12AC
100
AcDbEntity
  8
DIM
100
AcDbVertex
100
AcDb2dVertex
 10
584.9374168833172
 20
364.7185566509633
 30
0.0
 70
     8
  0
VERTEX
  5
28E6
330
12AC
100
AcDbEntity
  8
DIM
100
AcDbVertex
100
AcDb2dVertex
 10
585.0271888494606
 20
364.5383976634111
 30
0.0
 70
     8
  0
VERTEX
  5
28E7
330
12AC
100
AcDbEntity
  8
DIM
100
AcDbVertex
100
AcDb2dVertex
 10
585.0824651723232
 20
364.3100321211763
 30
0.0
 70
     8
  0
VERTEX
  5
28E8
330
12AC
100
AcDbEntity
  8
DIM
100
AcDbVertex
100
AcDb2dVertex
 10
585.1081589970302
 20
364.0506767335794
 30
0.0
 70
     8
  0
VERTEX
  5
28E9
330
12AC
100
AcDbEntity
  8
DIM
100
AcDbVertex
100
AcDb2dVertex
 10
585.1091834687064
 20
363.7775482099413
 30
0.0
 70
     8
  0
VERTEX
  5
28EA
330
12AC
100
AcDbEntity
  8
DIM
100
AcDbVertex
100
AcDb2dVertex
 10
585.0904517324769
 20
363.5078632595826
 30
0.0
 70
     8
  0
VERTEX
  5
28EB
330
12AC
100
AcDbEntity
  8
DIM
100
AcDbVertex
100
AcDb2dVertex
 10
585.0568769334667
 20
363.258838591824
 30
0.0
 70
     8
  0
VERTEX
  5
28EC
330
12AC
100
AcDbEntity
  8
DIM
100
AcDbVertex
100
AcDb2dVertex
 10
585.0133722168006
 20
363.0476909159863
 30
0.0
 70
     8
  0
VERTEX
  5
28ED
330
12AC
100
AcDbEntity
  8
DIM
100
AcDbVertex
100
AcDb2dVertex
 10
584.9636652143029
 20
362.8861316207932
 30
0.0
 70
     8
  0
VERTEX
  5
28EE
330
12AC
100
AcDbEntity
  8
DIM
100
AcDbVertex
100
AcDb2dVertex
 10
584.9067415045939
 20
362.7638508125806
 30
0.0
 70
     8
  0
VERTEX
  5
28EF
330
12AC
100
AcDbEntity
  8
DIM
100
AcDbVertex
100
AcDb2dVertex
 10
584.8404011529924
 20
362.6650332770878
 30
0.0
 70
     8
  0
VERTEX
  5
28F0
330
12AC
100
AcDbEntity
  8
DIM
100
AcDbVertex
100
AcDb2dVertex
 10
584.7624442248177
 20
362.5738638000536
 30
0.0
 70
     8
  0
VERTEX
  5
28F1
330
12AC
100
AcDbEntity
  8
DIM
100
AcDbVertex
100
AcDb2dVertex
 10
584.6706707853892
 20
362.4745271672174
 30
0.0
 70
     8
  0
VERTEX
  5
28F2
330
12AC
100
AcDbEntity
  8
DIM
100
AcDbVertex
100
AcDb2dVertex
 10
584.5628809000258
 20
362.351208164318
 30
0.0
 70
     8
  0
VERTEX
  5
28F3
330
12AC
100
AcDbEntity
  8
DIM
100
AcDbVertex
100
AcDb2dVertex
 10
584.4368746340469
 20
362.1880915770946
 30
0.0
 70
     8
  0
VERTEX
  5
28F4
330
12AC
100
AcDbEntity
  8
DIM
100
AcDbVertex
100
AcDb2dVertex
 10
584.2904520527716
 20
361.9693621912861
 30
0.0
 70
     8
  0
VERTEX
  5
28F5
330
12AC
100
AcDbEntity
  8
DIM
100
AcDbVertex
100
AcDb2dVertex
 10
584.1224457466754
 20
361.6849164095073
 30
0.0
 70
     8
  0
VERTEX
  5
28F6
330
12AC
100
AcDbEntity
  8
DIM
100
AcDbVertex
100
AcDb2dVertex
 10
583.9358184068588
 20
361.3474971018738
 30
0.0
 70
     8
  0
VERTEX
  5
28F7
330
12AC
100
AcDbEntity
  8
DIM
100
AcDbVertex
100
AcDb2dVertex
 10
583.7345652495783
 20
360.9755587553769
 30
0.0
 70
     8
  0
VERTEX
  5
28F8
330
12AC
100
AcDbEntity
  8
DIM
100
AcDbVertex
100
AcDb2dVertex
 10
583.5226814910909
 20
360.5875558570078
 30
0.0
 70
     8
  0
VERTEX
  5
28F9
330
12AC
100
AcDbEntity
  8
DIM
100
AcDbVertex
100
AcDb2dVertex
 10
583.3041623476532
 20
360.2019428937578
 30
0.0
 70
     8
  0
VERTEX
  5
28FA
330
12AC
100
AcDbEntity
  8
DIM
100
AcDbVertex
100
AcDb2dVertex
 10
583.083003035522
 20
359.837174352618
 30
0.0
 70
     8
  0
VERTEX
  5
28FB
330
12AC
100
AcDbEntity
  8
DIM
100
AcDbVertex
100
AcDb2dVertex
 10
582.8631987709537
 20
359.5117047205797
 30
0.0
 70
     8
  0
VERTEX
  5
28FC
330
12AC
100
AcDbEntity
  8
DIM
100
AcDbVertex
100
AcDb2dVertex
 10
582.6487447702054
 20
359.2439884846341
 30
0.0
 70
     8
  0
VERTEX
  5
28FD
330
12AC
100
AcDbEntity
  8
DIM
100
AcDbVertex
100
AcDb2dVertex
 10
582.4438869114151
 20
359.0490614955295
 30
0.0
 70
     8
  0
VERTEX
  5
28FE
330
12AC
100
AcDbEntity
  8
DIM
100
AcDbVertex
100
AcDb2dVertex
 10
582.2538737202466
 20
358.9282850590432
 30
0.0
 70
     8
  0
VERTEX
  5
28FF
330
12AC
100
AcDbEntity
  8
DIM
100
AcDbVertex
100
AcDb2dVertex
 10
582.0842043842454
 20
358.8796018447091
 30
0.0
 70
     8
  0
VERTEX
  5
2900
330
12AC
100
AcDbEntity
  8
DIM
100
AcDbVertex
100
AcDb2dVertex
 10
581.940378090957
 20
358.9009545220615
 30
0.0
 70
     8
  0
VERTEX
  5
2901
330
12AC
100
AcDbEntity
  8
DIM
100
AcDbVertex
100
AcDb2dVertex
 10
581.8278940279263
 20
358.9902857606346
 30
0.0
 70
     8
  0
VERTEX
  5
2902
330
12AC
100
AcDbEntity
  8
DIM
100
AcDbVertex
100
AcDb2dVertex
 10
581.7522513826991
 20
359.1455382299627
 30
0.0
 70
     8
  0
VERTEX
  5
2903
330
12AC
100
AcDbEntity
  8
DIM
100
AcDbVertex
100
AcDb2dVertex
 10
581.7189493428205
 20
359.3646545995798
 30
0.0
 70
     8
  0
VERTEX
  5
2904
330
12AC
100
AcDbEntity
  8
DIM
100
AcDbVertex
100
AcDb2dVertex
 10
581.7334870958359
 20
359.6455775390202
 30
0.0
 70
     8
  0
VERTEX
  5
2905
330
12AC
100
AcDbEntity
  8
DIM
100
AcDbVertex
100
AcDb2dVertex
 10
581.7985013148877
 20
359.9840034739593
 30
0.0
 70
     8
  0
VERTEX
  5
2906
330
12AC
100
AcDbEntity
  8
DIM
100
AcDbVertex
100
AcDb2dVertex
 10
581.9051786155066
 20
360.3666438546367
 30
0.0
 70
     8
  0
VERTEX
  5
2907
330
12AC
100
AcDbEntity
  8
DIM
100
AcDbVertex
100
AcDb2dVertex
 10
582.0418430988204
 20
360.7779638874333
 30
0.0
 70
     8
  0
VERTEX
  5
2908
330
12AC
100
AcDbEntity
  8
DIM
100
AcDbVertex
100
AcDb2dVertex
 10
582.1968188659567
 20
361.2024287787301
 30
0.0
 70
     8
  0
VERTEX
  5
2909
330
12AC
100
AcDbEntity
  8
DIM
100
AcDbVertex
100
AcDb2dVertex
 10
582.3584300180433
 20
361.6245037349078
 30
0.0
 70
     8
  0
VERTEX
  5
290A
330
12AC
100
AcDbEntity
  8
DIM
100
AcDbVertex
100
AcDb2dVertex
 10
582.515000656208
 20
362.0286539623474
 30
0.0
 70
     8
  0
VERTEX
  5
290B
330
12AC
100
AcDbEntity
  8
DIM
100
AcDbVertex
100
AcDb2dVertex
 10
582.6548548815784
 20
362.3993446674296
 30
0.0
 70
     8
  0
VERTEX
  5
12AE
330
12AC
100
AcDbEntity
  8
DIM
100
AcDbVertex
100
AcDb2dVertex
 10
583.193711041029
 20
363.4093515588881
 30
0.0
 70
    16
  0
VERTEX
  5
12AF
330
12AC
100
AcDbEntity
  8
DIM
100
AcDbVertex
100
AcDb2dVertex
 10
582.6585186364293
 20
363.6805877844533
 30
0.0
 70
    16
  0
VERTEX
  5
12B0
330
12AC
100
AcDbEntity
  8
DIM
100
AcDbVertex
100
AcDb2dVertex
 10
585.2810034197626
 20
365.7147854233024
 30
0.0
 70
    16
  0
VERTEX
  5
12B1
330
12AC
100
AcDbEntity
  8
DIM
100
AcDbVertex
100
AcDb2dVertex
 10
585.0668844571282
 20
362.46002476941
 30
0.0
 70
    16
  0
VERTEX
  5
12B2
330
12AC
100
AcDbEntity
  8
DIM
100
AcDbVertex
100
AcDb2dVertex
 10
584.5316920525282
 20
362.7312609949754
 30
0.0
 70
    16
  0
VERTEX
  5
12B3
330
12AC
100
AcDbEntity
  8
DIM
100
AcDbVertex
100
AcDb2dVertex
 10
582.5490596493887
 20
358.4311043984055
 30
0.0
 70
    16
  0
SEQEND
  5
12B4
330
12AC
100
AcDbEntity
  8
DIM
  0
TEXT
  5
12B5
330
2
100
AcDbEntity
  8
DIM
100
AcDbText
 10
572.5280570601817
 20
360.9827675594369
 30
0.0
 40
4.0
  1
CW
  7
ROMANS
100
AcDbText
  0
LINE
  5
12BA
330
2
100
AcDbEntity
  8
0
 62
     4
100
AcDbLine
 10
827.5480577817086
 20
382.1107670618255
 30
0.0
 11
827.5480577817086
 21
158.3479472635206
 31
0.0
  0
LINE
  5
12BB
330
2
100
AcDbEntity
  8
LOGO
 62
     6
100
AcDbLine
 10
822.5459819058277
 20
123.79306520126
 30
0.0
 11
789.0615953125036
 21
123.79306520126
 31
0.0
  0
LINE
  5
12BC
330
2
100
AcDbEntity
  8
LOGO
 62
     6
100
AcDbLine
 10
822.5459819058277
 20
137.6150706058781
 30
0.0
 11
789.0615953125036
 21
137.6150706058781
 31
0.0
  0
LINE
  5
12BD
330
2
100
AcDbEntity
  8
LOGO
 62
     6
100
AcDbLine
 10
822.5459819058277
 20
143.2694883258585
 30
0.0
 11
789.0615953125036
 21
143.2694883258585
 31
0.0
  0
LINE
  5
12BE
330
2
100
AcDbEntity
  8
LOGO
 62
     6
100
AcDbLine
 10
822.5459819058277
 20
154.5783237658196
 30
0.0
 11
789.0615953125036
 21
154.5783237658194
 31
0.0
  0
LINE
  5
12BF
330
2
100
AcDbEntity
  8
LOGO
 62
     6
100
AcDbLine
 10
752.4775560407015
 20
143.2694883258585
 30
0.0
 11
715.7238408608286
 21
143.2694883258585
 31
0.0
  0
LINE
  5
12C0
330
2
100
AcDbEntity
  8
LOGO
 62
     6
100
AcDbLine
 10
752.4775560407015
 20
154.5783237658196
 30
0.0
 11
715.7238408608286
 21
154.5783237658194
 31
0.0
  0
LINE
  5
12C1
330
2
100
AcDbEntity
  8
LOGO
 62
     6
100
AcDbLine
 10
752.4775560407015
 20
123.79306520126
 30
0.0
 11
715.7238408608286
 21
123.7930652012599
 31
0.0
  0
LINE
  5
12C2
330
2
100
AcDbEntity
  8
LOGO
 62
     6
100
AcDbLine
 10
752.4775560407015
 20
137.615070605878
 30
0.0
 11
715.7238408608286
 21
137.615070605878
 31
0.0
  0
TEXT
  5
12C3
330
2
100
AcDbEntity
  8
LOGO
 62
     6
100
AcDbText
 10
717.1075277367498
 20
125.3637465271274
 30
0.0
 40
3.141343177766915
  1
Rotating direction
 41
0.8
  7
ROMANS1
 72
     1
 11
734.100698450765
 21
126.9344181160109
 31
0.0
100
AcDbText
 73
     2
  0
TEXT
  5
12C4
330
2
100
AcDbEntity
  8
LOGO
 62
     7
100
AcDbText
 10
633.7522568517725
 20
141.8338681763423
 30
0.0
 40
5.026164663601556
  1
Order example:
 41
0.8
  7
CHINESET
100
AcDbText
  0
LINE
  5
12C5
330
2
100
AcDbEntity
  8
LOGO
 62
     1
100
AcDbLine
 10
631.5683712576669
 20
120.6517122865089
 30
0.0
 11
631.5683712576669
 21
158.3479472635206
 31
0.0
  0
TEXT
  5
12C6
330
2
100
AcDbEntity
  8
LOGO
 62
     7
100
AcDbText
 10
634.6539923571132
 20
148.9096673420207
 30
0.0
 40
7.539246995402335
  1
訂購代號:
  7
CHINESET
100
AcDbText
  0
LINE
  5
12C7
330
2
100
AcDbEntity
  8
LOGO
 62
     6
100
AcDbLine
 10
627.1717240154816
 20
144.8584078929635
 30
0.0
 11
627.1717240154816
 21
149.2358721523646
 31
0.0
  0
LINE
  5
12C8
330
2
100
AcDbEntity
  8
LOGO
  6
CONTINUOUS
 62
     6
100
AcDbLine
 10
620.3101744280893
 20
148.3295432931757
 30
0.0
 11
627.1717240154816
 21
149.2358721523646
 31
0.0
  0
LINE
  5
12C9
330
2
100
AcDbEntity
  8
LOGO
  6
CONTINUOUS
 62
     6
100
AcDbLine
 10
620.3101744280893
 20
145.7647367521524
 30
0.0
 11
627.1717240154816
 21
144.8584078929635
 31
0.0
  0
LINE
  5
12CA
330
2
100
AcDbEntity
  8
LOGO
 62
     6
100
AcDbLine
 10
620.3101744280894
 20
145.7647367521524
 30
0.0
 11
620.3101744280893
 21
148.3295432931757
 31
0.0
  0
LINE
  5
12CB
330
2
100
AcDbEntity
  8
LOGO
 62
     6
100
AcDbLine
 10
698.4963634155109
 20
143.2694532727159
 30
0.0
 11
698.4963634155109
 21
137.6150180261642
 31
0.0
  0
TEXT
  5
12CC
330
2
100
AcDbEntity
  8
LOGO
  6
CONTINUOUS
 62
     6
100
AcDbText
 10
692.5128340540805
 20
125.3637416586353
 30
0.0
 40
3.141352914750973
  1
Model
  7
CHINESET
 72
     4
 11
698.4963634155109
 21
126.9344181160108
 31
0.0
100
AcDbText
  0
TEXT
  5
12CD
330
2
100
AcDbEntity
  8
LOGO
 62
     6
100
AcDbText
 10
693.4701987519093
 20
130.8326639377805
 30
0.0
 40
5.026164663601556
  1
型式
  7
CHINESET
 72
     4
 11
698.4963634155109
 21
133.2171239455128
 31
0.0
100
AcDbText
  0
LINE
  5
12CE
330
2
100
AcDbEntity
  8
LOGO
 62
     6
100
AcDbLine
 10
711.0617750745148
 20
123.7930652012598
 30
0.0
 11
685.930951756507
 21
123.7930652012598
 31
0.0
  0
LINE
  5
12CF
330
2
100
AcDbEntity
  8
LOGO
 62
     6
100
AcDbLine
 10
711.0617750745148
 20
137.6150180261642
 30
0.0
 11
685.930951756507
 21
137.6150180261642
 31
0.0
  0
LINE
  5
12D0
330
2
100
AcDbEntity
  8
LOGO
 62
     6
100
AcDbLine
 10
685.930951756507
 20
137.6150180261642
 30
0.0
 11
685.930951756507
 21
123.7930652012598
 31
0.0
  0
LINE
  5
12D1
330
2
100
AcDbEntity
  8
LOGO
 62
     6
100
AcDbLine
 10
715.7238408608286
 20
137.615070605878
 30
0.0
 11
715.7238408608286
 21
123.7930652012599
 31
0.0
  0
LINE
  5
12D2
330
2
100
AcDbEntity
  8
LOGO
 62
     6
100
AcDbLine
 10
711.0617750745148
 20
137.6150180261642
 30
0.0
 11
711.0617750745148
 21
123.7930652012598
 31
0.0
  0
TEXT
  5
12D3
330
2
100
AcDbEntity
  8
LOGO
  6
CONTINUOUS
 62
     7
100
AcDbText
 10
686.8284811607216
 20
145.7825356045167
 30
0.0
 40
6.282705829501946
  1
MATS
  7
CHINESET
 72
     1
 11
698.4963634155109
 21
148.9238885192676
 31
0.0
100
AcDbText
 73
     2
  0
LINE
  5
12D4
330
2
100
AcDbEntity
  8
LOGO
 62
     6
100
AcDbLine
 10
713.5748574063155
 20
143.2694532727159
 30
0.0
 11
683.4178694247063
 21
143.2694532727159
 31
0.0
  0
LINE
  5
12D5
330
2
100
AcDbEntity
  8
LOGO
 62
     6
100
AcDbLine
 10
713.5748574063155
 20
154.5783237658194
 30
0.0
 11
683.4178694247063
 21
154.5783237658194
 31
0.0
  0
LINE
  5
12D6
330
2
100
AcDbEntity
  8
LOGO
 62
     6
100
AcDbLine
 10
683.4178694247063
 20
154.5783237658194
 30
0.0
 11
683.4178694247063
 21
143.2694532727159
 31
0.0
  0
LINE
  5
12D7
330
2
100
AcDbEntity
  8
LOGO
 62
     6
100
AcDbLine
 10
715.7238408608285
 20
154.5783237658194
 30
0.0
 11
715.7238408608286
 21
143.2694883258585
 31
0.0
  0
LINE
  5
12D8
330
2
100
AcDbEntity
  8
LOGO
 62
     6
100
AcDbLine
 10
715.7238408608286
 20
154.5783237658194
 30
0.0
 11
715.7238408608286
 21
143.2694532727159
 31
0.0
  0
LINE
  5
12D9
330
2
100
AcDbEntity
  8
LOGO
 62
     6
100
AcDbLine
 10
713.5748574063157
 20
154.5783237658194
 30
0.0
 11
713.5748574063157
 21
143.2694532727159
 31
0.0
  0
TEXT
  5
12DA
330
2
100
AcDbEntity
  8
LOGO
  6
CONTINUOUS
 62
     6
100
AcDbText
 10
767.0832616412048
 20
125.3637416586354
 30
0.0
 40
3.141352914750973
  1
Bore
 41
0.8
  7
CHINESET
 72
     4
 11
770.9725557261346
 21
126.9344181160109
 31
0.0
100
AcDbText
  0
TEXT
  5
12DB
330
2
100
AcDbEntity
  8
LOGO
 62
     6
100
AcDbText
 10
766.1662857665655
 20
130.704041613712
 30
0.0
 40
5.026164663601556
  1
內徑
 41
0.9
  7
CHINESET
 72
     4
 11
770.9725557261346
 21
133.2171239455128
 31
0.0
100
AcDbText
  0
LINE
  5
12DC
330
2
100
AcDbEntity
  8
LOGO
 62
     6
100
AcDbLine
 10
781.0596937674778
 20
123.7930652012599
 30
0.0
 11
760.8854176847913
 21
123.7930652012599
 31
0.0
  0
LINE
  5
12DD
330
2
100
AcDbEntity
  8
LOGO
 62
     6
100
AcDbLine
 10
781.0596937674778
 20
137.6150180261642
 30
0.0
 11
760.8854176847913
 21
137.6150180261642
 31
0.0
  0
TEXT
  5
12DE
330
2
100
AcDbEntity
  8
LOGO
  6
CONTINUOUS
 62
     7
100
AcDbText
 10
766.4729418081697
 20
145.7112893245195
 30
0.0
 40
6.282705829501946
  1
25
  7
CHINESET
 72
     1
 11
771.5589417653855
 21
148.8526422392704
 31
0.0
100
AcDbText
 73
     2
  0
LINE
  5
12DF
330
2
100
AcDbEntity
  8
LOGO
 62
     6
100
AcDbLine
 10
781.0596937674778
 20
143.269453272716
 30
0.0
 11
760.8854176847913
 21
143.269453272716
 31
0.0
  0
LINE
  5
12E0
330
2
100
AcDbEntity
  8
LOGO
 62
     6
100
AcDbLine
 10
781.0596937674778
 20
154.5783237658195
 30
0.0
 11
760.8854176847913
 21
154.5783237658195
 31
0.0
  0
LINE
  5
12E1
330
2
100
AcDbEntity
  8
LOGO
 62
     6
100
AcDbLine
 10
734.1006984507649
 20
143.2694883258585
 30
0.0
 11
734.1006984507649
 21
137.615070605878
 31
0.0
  0
TEXT
  5
12E2
330
2
100
AcDbEntity
  8
LOGO
 62
     6
100
AcDbText
 10
725.2420832311673
 20
130.8559561214661
 30
0.0
 40
5.026164663601556
  1
旋轉方向
 41
0.9
  7
CHINESET
 72
     4
 11
734.100698450765
 21
133.2171239455128
 31
0.0
100
AcDbText
  0
LINE
  5
12E3
330
2
100
AcDbEntity
  8
LOGO
 62
     6
100
AcDbLine
 10
760.8854176847913
 20
137.6150180261642
 30
0.0
 11
760.8854176847913
 21
123.7930652012599
 31
0.0
  0
LINE
  5
12E4
330
2
100
AcDbEntity
  8
LOGO
 62
     6
100
AcDbLine
 10
752.4775560407015
 20
137.615070605878
 30
0.0
 11
752.4775560407015
 21
123.79306520126
 31
0.0
  0
LINE
  5
12E5
330
2
100
AcDbEntity
  8
LOGO
 62
     6
100
AcDbLine
 10
760.8854176847913
 20
154.5783237658195
 30
0.0
 11
760.8854176847913
 21
143.269453272716
 31
0.0
  0
LINE
  5
12E6
330
2
100
AcDbEntity
  8
LOGO
 62
     6
100
AcDbLine
 10
752.4775560407015
 20
154.5783237658195
 30
0.0
 11
752.4775560407015
 21
143.2694883258585
 31
0.0
  0
LINE
  5
12E7
330
2
100
AcDbEntity
  8
LOGO
  6
CONTINUOUS
 62
     7
100
AcDbLine
 10
754.1217900783617
 20
148.8838307127572
 30
0.0
 11
759.1153746457677
 21
148.8838307127572
 31
0.0
  0
LINE
  5
12E8
330
2
100
AcDbEntity
  8
LOGO
 62
     6
100
AcDbLine
 10
770.9725554363956
 20
143.269453272716
 30
0.0
 11
770.9725554363956
 21
137.6150180261642
 31
0.0
  0
LINE
  5
12E9
330
2
100
AcDbEntity
  8
LOGO
 62
     6
100
AcDbLine
 10
806.1670474637017
 20
143.2694883258585
 30
0.0
 11
806.1670474637017
 21
137.6150706058781
 31
0.0
  0
TEXT
  5
12EA
330
2
100
AcDbEntity
  8
LOGO
 62
     6
100
AcDbText
 10
792.1656321570834
 20
125.3637465271274
 30
0.0
 40
3.141343177766915
  1
Rotating angle
 41
0.8
  7
ROMANS1
 72
     1
 11
806.1670474637017
 21
126.9344181160109
 31
0.0
100
AcDbText
 73
     2
  0
LINE
  5
12EB
330
2
100
AcDbEntity
  8
LOGO
 62
     6
100
AcDbLine
 10
781.0596937674778
 20
137.6150180261642
 30
0.0
 11
781.0596937674778
 21
123.79306520126
 31
0.0
  0
LINE
  5
12EC
330
2
100
AcDbEntity
  8
LOGO
 62
     6
100
AcDbLine
 10
789.0615953125036
 20
137.6150706058781
 30
0.0
 11
789.0615953125036
 21
123.79306520126
 31
0.0
  0
TEXT
  5
12ED
330
2
100
AcDbEntity
  8
LOGO
 62
     6
100
AcDbText
 10
797.1670713629402
 20
130.8609031339303
 30
0.0
 40
5.026164663601556
  1
旋轉角度
 41
0.9
  7
CHINESET
 72
     4
 11
806.1670474637017
 21
133.2171239455128
 31
0.0
100
AcDbText
  0
LINE
  5
12EE
330
2
100
AcDbEntity
  8
LOGO
 62
     6
100
AcDbLine
 10
781.0596937674778
 20
154.5783237658195
 30
0.0
 11
781.0596937674778
 21
143.269453272716
 31
0.0
  0
LINE
  5
12EF
330
2
100
AcDbEntity
  8
LOGO
 62
     6
100
AcDbLine
 10
789.0615953125035
 20
154.5783237658194
 30
0.0
 11
789.0615953125036
 21
143.2694883258585
 31
0.0
  0
LINE
  5
12F0
330
2
100
AcDbEntity
  8
LOGO
  6
CONTINUOUS
 62
     7
100
AcDbLine
 10
782.605761853307
 20
148.8838307127572
 30
0.0
 11
787.5993464207129
 21
148.8838307127572
 31
0.0
  0
LINE
  5
1309
330
2
100
AcDbEntity
  8
LOGO
 62
     1
100
AcDbLine
 10
827.5480577817086
 20
120.6517122865089
 30
0.0
 11
827.5480577817086
 21
158.3479472635206
 31
0.0
  0
LINE
  5
130A
330
2
100
AcDbEntity
  8
LOGO
 62
     6
100
AcDbLine
 10
822.5459819058277
 20
137.6150706058781
 30
0.0
 11
822.5459819058277
 21
123.79306520126
 31
0.0
  0
LINE
  5
130B
330
2
100
AcDbEntity
  8
LOGO
 62
     6
100
AcDbLine
 10
822.5459819058277
 20
154.5783237658195
 30
0.0
 11
822.5459819058277
 21
143.2694883258585
 31
0.0
  0
TEXT
  5
1DD6
330
2
100
AcDbEntity
  8
AM_5
100
AcDbText
 10
597.0553885326518
 20
242.1691535412685
 30
0.0
 40
3.0
  1
M5x0.8
  7
CHINA
100
AcDbText
  0
LINE
  5
1EFD
330
2
100
AcDbEntity
  8
0
100
AcDbLine
 10
654.0512016352673
 20
189.2275419603393
 30
0.0
 11
616.0512016352673
 21
189.2275419603393
 31
0.0
  0
LINE
  5
1EFE
330
2
100
AcDbEntity
  8
0
100
AcDbLine
 10
616.0512016352673
 20
224.2275419603393
 30
0.0
 11
654.0512016352673
 21
224.2275419603393
 31
0.0
  0
LINE
  5
1EFF
330
2
100
AcDbEntity
  8
0
100
AcDbLine
 10
653.0512016352673
 20
248.7275419603392
 30
0.0
 11
617.0512016352674
 21
248.7275419603392
 31
0.0
  0
LINE
  5
1F00
330
2
100
AcDbEntity
  8
0
100
AcDbLine
 10
616.0512016352673
 20
182.2275419603393
 30
0.0
 11
654.0512016352673
 21
182.2275419603393
 31
0.0
  0
ARC
  5
1F01
330
2
100
AcDbEntity
  8
0
100
AcDbCircle
 10
632.6191474276117
 20
347.1826937145432
 30
0.0
 40
20.0
100
AcDbArc
 50
203.5781784782026
 51
156.4218215217973
  0
ARC
  5
1F02
330
2
100
AcDbEntity
  8
0
100
AcDbCircle
 10
632.6191474276117
 20
347.1826937145432
 30
0.0
 40
19.0
100
AcDbArc
 50
204.9010623703668
 51
155.0989376296331
  0
LINE
  5
1F04
330
2
100
AcDbEntity
  8
0
100
AcDbLine
 10
598.0512016352673
 20
277.7276240678392
 30
0.0
 11
646.0512016352673
 21
277.7276240678392
 31
0.0
  0
LINE
  5
1F05
330
2
100
AcDbEntity
  8
0
100
AcDbLine
 10
598.0512016352673
 20
293.7276240678392
 30
0.0
 11
646.0512016352673
 21
293.7276240678392
 31
0.0
  0
LINE
  5
1F06
330
2
100
AcDbEntity
  8
0
100
AcDbLine
 10
595.6191474276117
 20
339.1826937145431
 30
0.0
 11
643.6191474276117
 21
339.1826937145431
 31
0.0
  0
LINE
  5
1F07
330
2
100
AcDbEntity
  8
0
100
AcDbLine
 10
595.6191474276117
 20
355.1826937145431
 30
0.0
 11
643.6191474276117
 21
355.1826937145431
 31
0.0
  0
LINE
  5
1F08
330
2
100
AcDbEntity
  8
CENTER
100
AcDbLine
 10
595.4668734409117
 20
347.1826937145432
 30
0.0
 11
653.4775711975117
 21
347.1826937145432
 31
0.0
  0
LINE
  5
1F09
330
2
100
AcDbEntity
  8
0
100
AcDbLine
 10
616.0512016352673
 20
247.7275419603393
 30
0.0
 11
616.0512016352673
 21
224.2275419603393
 31
0.0
  0
LINE
  5
1F0A
330
2
100
AcDbEntity
  8
0
100
AcDbLine
 10
615.0512016352673
 20
190.2275419603393
 30
0.0
 11
615.0512016352673
 21
223.2275419603392
 31
0.0
  0
LINE
  5
1F0B
330
2
100
AcDbEntity
  8
0
100
AcDbLine
 10
616.0512016352673
 20
189.2275419603393
 30
0.0
 11
615.0512016352673
 21
190.2275419603393
 31
0.0
  0
LINE
  5
1F0C
330
2
100
AcDbEntity
  8
0
100
AcDbLine
 10
617.0512016352674
 20
248.7275419603392
 30
0.0
 11
616.0512016352673
 21
247.7275419603393
 31
0.0
  0
LINE
  5
1F0D
330
2
100
AcDbEntity
  8
0
100
AcDbLine
 10
615.0512016352673
 20
223.2275419603392
 30
0.0
 11
616.0512016352673
 21
224.2275419603393
 31
0.0
  0
LINE
  5
1F0E
330
2
100
AcDbEntity
  8
0
100
AcDbLine
 10
597.0512016352674
 20
292.7276240678392
 30
0.0
 11
597.0512016352674
 21
278.7276240678392
 31
0.0
  0
LINE
  5
1F0F
330
2
100
AcDbEntity
  8
0
100
AcDbLine
 10
597.0512016352674
 20
278.7276240678392
 30
0.0
 11
598.0512016352673
 21
277.7276240678392
 31
0.0
  0
LINE
  5
1F10
330
2
100
AcDbEntity
  8
0
100
AcDbLine
 10
598.0512016352673
 20
277.7276240678392
 30
0.0
 11
597.0512016352674
 21
278.7276240678392
 31
0.0
  0
LINE
  5
1F11
330
2
100
AcDbEntity
  8
0
100
AcDbLine
 10
598.0512016352673
 20
293.7276240678392
 30
0.0
 11
597.0512016352674
 21
292.7276240678392
 31
0.0
  0
LINE
  5
1F12
330
2
100
AcDbEntity
  8
0
100
AcDbLine
 10
598.0512016352673
 20
293.7276240678392
 30
0.0
 11
597.0512016352674
 21
292.7276240678392
 31
0.0
  0
LINE
  5
1F13
330
2
100
AcDbEntity
  8
HIDDEN
  6
HIDDEN
100
AcDbLine
 10
602.5512016352673
 20
277.7276240678392
 30
0.0
 11
602.5512016352673
 21
293.7276240678392
 31
0.0
  0
LINE
  5
1F14
330
2
100
AcDbEntity
  8
HIDDEN
  6
HIDDEN
100
AcDbLine
 10
602.0512016352673
 20
277.7276240678392
 30
0.0
 11
602.0512016352673
 21
293.7276240678392
 31
0.0
  0
LINE
  5
1F15
330
2
100
AcDbEntity
  8
HIDDEN
  6
HIDDEN
100
AcDbLine
 10
607.5512016352673
 20
277.7276240678392
 30
0.0
 11
607.5512016352673
 21
293.7276240678392
 31
0.0
  0
LINE
  5
1F16
330
2
100
AcDbEntity
  8
CENTER
100
AcDbLine
 10
605.0512016352674
 20
276.7281102138392
 30
0.0
 11
605.0512016352674
 21
295.4499707192785
 31
0.0
  0
LINE
  5
1F17
330
2
100
AcDbEntity
  8
0
100
AcDbLine
 10
594.6191474276117
 20
340.1826937145431
 30
0.0
 11
594.6191474276117
 21
354.1826937145431
 31
0.0
  0
LINE
  5
1F18
330
2
100
AcDbEntity
  8
0
100
AcDbLine
 10
594.6191474276117
 20
340.1826937145431
 30
0.0
 11
595.6191474276117
 21
339.1826937145431
 31
0.0
  0
LINE
  5
1F19
330
2
100
AcDbEntity
  8
0
100
AcDbLine
 10
595.6191474276117
 20
339.1826937145431
 30
0.0
 11
594.6191474276117
 21
340.1826937145431
 31
0.0
  0
LINE
  5
1F1A
330
2
100
AcDbEntity
  8
0
100
AcDbLine
 10
595.6191474276117
 20
355.1826937145431
 30
0.0
 11
594.6191474276117
 21
354.1826937145431
 31
0.0
  0
LINE
  5
1F1B
330
2
100
AcDbEntity
  8
0
100
AcDbLine
 10
594.6191474276117
 20
354.1826937145431
 30
0.0
 11
595.6191474276117
 21
355.1826937145431
 31
0.0
  0
CIRCLE
  5
1F1C
330
2
100
AcDbEntity
  8
0
100
AcDbCircle
 10
602.6191474276117
 20
347.1826937145432
 30
0.0
 40
2.5
  0
LINE
  5
1F1E
330
2
100
AcDbEntity
  8
CENTER
100
AcDbLine
 10
602.6191474276117
 20
339.6465913515431
 30
0.0
 11
602.6191474276117
 21
353.8653790649431
 31
0.0
  0
LINE
  5
1F1F
330
2
100
AcDbEntity
  8
HIDDEN
  6
HIDDEN
100
AcDbLine
 10
608.0512016352673
 20
277.7276240678392
 30
0.0
 11
608.0512016352673
 21
293.7276240678392
 31
0.0
  0
LINE
  5
1F20
330
2
100
AcDbEntity
  8
0
100
AcDbLine
 10
628.0512016352673
 20
277.7276240678392
 30
0.0
 11
628.0512016352673
 21
248.7275419603392
 31
0.0
  0
LINE
  5
1F21
330
2
100
AcDbEntity
  8
0
100
AcDbLine
 10
642.0512016352674
 20
277.7276240678392
 30
0.0
 11
642.0512016352674
 21
248.7275419603392
 31
0.0
  0
LINE
  5
1F22
330
2
100
AcDbEntity
  8
CENTER
100
AcDbLine
 10
635.0512016352674
 20
299.8606013325392
 30
0.0
 11
635.0512016352674
 21
181.9365224491392
 31
0.0
  0
LINE
  5
1F25
330
2
100
AcDbEntity
  8
HIDDEN
  6
HIDDEN
100
AcDbLine
 10
633.8775260574674
 20
186.2368079385392
 30
0.0
 11
633.8775260574674
 21
182.2591755953392
 31
0.0
  0
LINE
  5
1F26
330
2
100
AcDbEntity
  8
HIDDEN
  6
HIDDEN
100
AcDbLine
 10
633.3775260574674
 20
186.2368079385392
 30
0.0
 11
633.3775260574674
 21
182.2591755953392
 31
0.0
  0
LINE
  5
1F27
330
2
100
AcDbEntity
  8
HIDDEN
  6
HIDDEN
100
AcDbLine
 10
636.8082399314674
 20
182.3702917267393
 30
0.0
 11
636.8082399314674
 21
186.3383162432392
 31
0.0
  0
LINE
  5
1F28
330
2
100
AcDbEntity
  8
HIDDEN
  6
HIDDEN
100
AcDbLine
 10
636.4161583458674
 20
186.3897284916392
 30
0.0
 11
636.4161583458674
 21
182.3702917267393
 31
0.0
  0
CIRCLE
  5
1F2A
330
2
100
AcDbEntity
  8
0
100
AcDbCircle
 10
635.0512016352674
 20
231.7622714642392
 30
0.0
 40
2.0
  0
LINE
  5
1F2B
330
2
100
AcDbEntity
  8
CENTER
100
AcDbLine
 10
630.4901177349673
 20
231.7622714642392
 30
0.0
 11
640.2441348564674
 21
231.7622714642392
 31
0.0
  0
LINE
  5
1F2C
330
2
100
AcDbEntity
  8
0
100
AcDbLine
 10
654.0512016352673
 20
182.2275419603393
 30
0.0
 11
654.0512016352673
 21
189.2275419603393
 31
0.0
  0
LINE
  5
1F2D
330
2
100
AcDbEntity
  8
0
100
AcDbLine
 10
655.0512016352674
 20
223.2275419603392
 30
0.0
 11
655.0512016352674
 21
190.2275419603393
 31
0.0
  0
LINE
  5
1F2E
330
2
100
AcDbEntity
  8
0
100
AcDbLine
 10
655.0512016352674
 20
190.2275419603393
 30
0.0
 11
654.0512016352673
 21
189.2275419603393
 31
0.0
  0
LINE
  5
1F2F
330
2
100
AcDbEntity
  8
0
100
AcDbLine
 10
654.0512016352673
 20
247.7275419603393
 30
0.0
 11
653.0512016352673
 21
248.7275419603392
 31
0.0
  0
LINE
  5
1F30
330
2
100
AcDbEntity
  8
0
100
AcDbLine
 10
654.0512016352673
 20
224.2275419603393
 30
0.0
 11
655.0512016352674
 21
223.2275419603392
 31
0.0
  0
LINE
  5
1F31
330
2
100
AcDbEntity
  8
CENTER
100
AcDbLine
 10
632.6191474276117
 20
326.1189946671431
 30
0.0
 11
632.6191474276117
 21
368.0417761029431
 31
0.0
  0
CIRCLE
  5
1F32
330
2
100
AcDbEntity
  8
0
100
AcDbCircle
 10
632.6191474276117
 20
347.1826937145432
 30
0.0
 40
5.5
  0
LINE
  5
1F33
330
2
100
AcDbEntity
  8
0
100
AcDbLine
 10
647.0512016352674
 20
292.7276240678392
 30
0.0
 11
647.0512016352674
 21
278.7276240678392
 31
0.0
  0
LINE
  5
1F34
330
2
100
AcDbEntity
  8
0
100
AcDbLine
 10
646.0512016352673
 20
277.7276240678392
 30
0.0
 11
647.0512016352674
 21
278.7276240678392
 31
0.0
  0
LINE
  5
1F35
330
2
100
AcDbEntity
  8
0
100
AcDbLine
 10
647.0512016352674
 20
278.7276240678392
 30
0.0
 11
646.0512016352673
 21
277.7276240678392
 31
0.0
  0
LINE
  5
1F36
330
2
100
AcDbEntity
  8
0
100
AcDbLine
 10
646.0512016352673
 20
293.7276240678392
 30
0.0
 11
647.0512016352674
 21
292.7276240678392
 31
0.0
  0
LINE
  5
1F37
330
2
100
AcDbEntity
  8
0
100
AcDbLine
 10
647.0512016352674
 20
292.7276240678392
 30
0.0
 11
646.0512016352673
 21
293.7276240678392
 31
0.0
  0
LINE
  5
1F38
330
2
100
AcDbEntity
  8
0
100
AcDbLine
 10
644.6191474276117
 20
340.1826937145431
 30
0.0
 11
644.6191474276117
 21
354.1826937145431
 31
0.0
  0
LINE
  5
1F39
330
2
100
AcDbEntity
  8
0
100
AcDbLine
 10
643.6191474276117
 20
339.1826937145431
 30
0.0
 11
644.6191474276117
 21
340.1826937145431
 31
0.0
  0
LINE
  5
1F3A
330
2
100
AcDbEntity
  8
0
100
AcDbLine
 10
643.6191474276117
 20
339.1826937145431
 30
0.0
 11
644.6191474276117
 21
340.1826937145431
 31
0.0
  0
LINE
  5
1F3B
330
2
100
AcDbEntity
  8
0
100
AcDbLine
 10
644.6191474276117
 20
354.1826937145431
 30
0.0
 11
643.6191474276117
 21
355.1826937145431
 31
0.0
  0
LINE
  5
1F3C
330
2
100
AcDbEntity
  8
0
100
AcDbLine
 10
644.6191474276117
 20
354.1826937145431
 30
0.0
 11
643.6191474276117
 21
355.1826937145431
 31
0.0
  0
LINE
  5
1F78
330
2
100
AcDbEntity
  8
0
100
AcDbLine
 10
654.0512016352673
 20
224.2275419603393
 30
0.0
 11
654.0512016352673
 21
247.7275419603393
 31
0.0
  0
LINE
  5
1F7A
330
2
100
AcDbEntity
  8
0
100
AcDbLine
 10
616.0512016352673
 20
189.2275419603393
 30
0.0
 11
616.0512016352673
 21
182.2275419603393
 31
0.0
  0
LINE
  5
1F7B
330
2
100
AcDbEntity
  8
AM_4N
100
AcDbLine
 10
616.0512016352673
 20
224.2275419603393
 30
0.0
 11
616.0512016352673
 21
189.2275419603393
 31
0.0
  0
LINE
  5
1F7C
330
2
100
AcDbEntity
  8
AM_4N
100
AcDbLine
 10
654.0512016352673
 20
224.2275419603393
 30
0.0
 11
654.0512016352673
 21
189.2275419603393
 31
0.0
  0
LINE
  5
1FA2
330
2
100
AcDbEntity
  8
AM_4N
100
AcDbLine
 10
742.6228302127859
 20
224.2275419603393
 30
0.0
 11
742.6228302127859
 21
189.2275419603393
 31
0.0
  0
LINE
  5
1FA3
330
2
100
AcDbEntity
  8
AM_4N
100
AcDbLine
 10
780.6228302127859
 20
224.2275419603393
 30
0.0
 11
780.6228302127859
 21
189.2275419603393
 31
0.0
  0
LINE
  5
1FA4
330
2
100
AcDbEntity
  8
0
100
AcDbLine
 10
741.6228302127859
 20
190.2275419603393
 30
0.0
 11
741.6228302127859
 21
223.2275419603392
 31
0.0
  0
LINE
  5
1FA5
330
2
100
AcDbEntity
  8
0
100
AcDbLine
 10
781.622830212786
 20
223.2275419603392
 30
0.0
 11
781.622830212786
 21
190.2275419603393
 31
0.0
  0
LINE
  5
1FA6
330
2
100
AcDbEntity
  8
CENTER
100
AcDbLine
 10
761.622830212786
 20
299.8606013325392
 30
0.0
 11
761.622830212786
 21
181.9365224491392
 31
0.0
  0
LINE
  5
1FA7
330
2
100
AcDbEntity
  8
0
100
AcDbLine
 10
742.6228302127859
 20
182.2275419603393
 30
0.0
 11
780.6228302127859
 21
182.2275419603393
 31
0.0
  0
LINE
  5
1FA8
330
2
100
AcDbEntity
  8
0
100
AcDbLine
 10
780.6228302127859
 20
189.2275419603393
 30
0.0
 11
742.6228302127859
 21
189.2275419603393
 31
0.0
  0
LINE
  5
1FA9
330
2
100
AcDbEntity
  8
0
100
AcDbLine
 10
742.6228302127859
 20
189.2275419603393
 30
0.0
 11
742.6228302127859
 21
182.2275419603393
 31
0.0
  0
LINE
  5
1FAA
330
2
100
AcDbEntity
  8
0
100
AcDbLine
 10
742.6228302127859
 20
189.2275419603393
 30
0.0
 11
741.6228302127859
 21
190.2275419603393
 31
0.0
  0
LINE
  5
1FAB
330
2
100
AcDbEntity
  8
HIDDEN
  6
HIDDEN
100
AcDbLine
 10
762.987786923386
 20
186.3897284916392
 30
0.0
 11
762.987786923386
 21
182.3702917267393
 31
0.0
  0
LINE
  5
1FAC
330
2
100
AcDbEntity
  8
HIDDEN
  6
HIDDEN
100
AcDbLine
 10
763.379868508986
 20
182.3702917267393
 30
0.0
 11
763.379868508986
 21
186.3383162432392
 31
0.0
  0
LINE
  5
1FAD
330
2
100
AcDbEntity
  8
HIDDEN
  6
HIDDEN
100
AcDbLine
 10
759.949154634986
 20
186.2368079385392
 30
0.0
 11
759.949154634986
 21
182.2591755953392
 31
0.0
  0
LINE
  5
1FAE
330
2
100
AcDbEntity
  8
HIDDEN
  6
HIDDEN
100
AcDbLine
 10
760.449154634986
 20
186.2368079385392
 30
0.0
 11
760.449154634986
 21
182.2591755953392
 31
0.0
  0
LINE
  5
1FAF
330
2
100
AcDbEntity
  8
0
100
AcDbLine
 10
780.6228302127859
 20
182.2275419603393
 30
0.0
 11
780.6228302127859
 21
189.2275419603393
 31
0.0
  0
LINE
  5
1FB0
330
2
100
AcDbEntity
  8
0
100
AcDbLine
 10
781.622830212786
 20
190.2275419603393
 30
0.0
 11
780.6228302127859
 21
189.2275419603393
 31
0.0
  0
LINE
  5
1FB1
330
2
100
AcDbEntity
  8
0
100
AcDbLine
 10
768.6228302127859
 20
277.7276240678392
 30
0.0
 11
768.6228302127859
 21
248.7275419603392
 31
0.0
  0
LINE
  5
1FB2
330
2
100
AcDbEntity
  8
0
100
AcDbLine
 10
754.6228302127859
 20
277.7276240678392
 30
0.0
 11
754.6228302127859
 21
248.7275419603392
 31
0.0
  0
LINE
  5
1FB3
330
2
100
AcDbEntity
  8
0
100
AcDbLine
 10
779.6228302127859
 20
248.7275419603392
 30
0.0
 11
743.6228302127859
 21
248.7275419603392
 31
0.0
  0
LINE
  5
1FB4
330
2
100
AcDbEntity
  8
0
100
AcDbLine
 10
742.6228302127859
 20
224.2275419603393
 30
0.0
 11
780.6228302127859
 21
224.2275419603393
 31
0.0
  0
LINE
  5
1FB5
330
2
100
AcDbEntity
  8
0
100
AcDbLine
 10
742.6228302127859
 20
247.7275419603393
 30
0.0
 11
742.6228302127859
 21
224.2275419603393
 31
0.0
  0
LINE
  5
1FB6
330
2
100
AcDbEntity
  8
0
100
AcDbLine
 10
741.6228302127859
 20
223.2275419603392
 30
0.0
 11
742.6228302127859
 21
224.2275419603393
 31
0.0
  0
LINE
  5
1FB7
330
2
100
AcDbEntity
  8
0
100
AcDbLine
 10
743.6228302127859
 20
248.7275419603392
 30
0.0
 11
742.6228302127859
 21
247.7275419603393
 31
0.0
  0
LINE
  5
1FB8
330
2
100
AcDbEntity
  8
0
100
AcDbLine
 10
780.6228302127859
 20
224.2275419603393
 30
0.0
 11
780.6228302127859
 21
247.7275419603393
 31
0.0
  0
LINE
  5
1FBC
330
2
100
AcDbEntity
  8
0
100
AcDbLine
 10
780.6228302127859
 20
224.2275419603393
 30
0.0
 11
781.622830212786
 21
223.2275419603392
 31
0.0
  0
LINE
  5
1FBD
330
2
100
AcDbEntity
  8
0
100
AcDbLine
 10
780.6228302127859
 20
247.7275419603393
 30
0.0
 11
779.6228302127859
 21
248.7275419603392
 31
0.0
  0
LINE
  5
1FCF
330
2
100
AcDbEntity
  8
0
100
AcDbLine
 10
769.6228302127861
 20
293.2275419603393
 30
0.0
 11
769.6228302127861
 21
278.2275419603393
 31
0.0
  0
LINE
  5
1FD0
330
2
100
AcDbEntity
  8
0
100
AcDbLine
 10
753.622830212786
 20
278.2275419603393
 30
0.0
 11
753.622830212786
 21
293.2275419603393
 31
0.0
  0
LINE
  5
1FD1
330
2
100
AcDbEntity
  8
0
100
AcDbLine
 10
754.122830212786
 20
277.7275419603392
 30
0.0
 11
769.1228302127861
 21
277.7275419603392
 31
0.0
  0
LINE
  5
1FD2
330
2
100
AcDbEntity
  8
CENTER
 62
     2
100
AcDbLine
 10
753.622830212786
 20
278.2275419603393
 30
0.0
 11
754.122830212786
 21
277.7275419603392
 31
0.0
  0
LINE
  5
1FD3
330
2
100
AcDbEntity
  8
0
100
AcDbLine
 10
769.1228302127861
 20
277.7275419603392
 30
0.0
 11
769.6228302127861
 21
278.2275419603393
 31
0.0
  0
LINE
  5
1FD4
330
2
100
AcDbEntity
  8
0
100
AcDbLine
 10
754.122830212786
 20
293.7275419603393
 30
0.0
 11
769.1228302127861
 21
293.7275419603393
 31
0.0
  0
LINE
  5
1FD5
330
2
100
AcDbEntity
  8
0
100
AcDbLine
 10
753.622830212786
 20
293.2275419603393
 30
0.0
 11
754.122830212786
 21
293.7275419603393
 31
0.0
  0
LINE
  5
1FD6
330
2
100
AcDbEntity
  8
0
100
AcDbLine
 10
769.1228302127861
 20
293.7275419603393
 30
0.0
 11
769.6228302127861
 21
293.2275419603393
 31
0.0
  0
DIMENSION
  5
1FD7
330
2
100
AcDbEntity
  8
AM_5
100
AcDbDimension
  2
*D16
 10
682.0512016352673
 20
182.2275419603393
 30
0.0
 11
679.5433276195193
 21
237.9775830140893
 31
0.0
 70
    32
  3
AM_ISO
100
AcDbAlignedDimension
 13
646.0512016352673
 23
293.7276240678392
 33
0.0
 14
654.0512016352673
 24
182.2275419603393
 34
0.0
 50
90.0
100
AcDbRotatedDimension
  0
DIMENSION
  5
1FDA
330
2
100
AcDbEntity
  8
AM_5
100
AcDbDimension
  2
*D13
 10
666.0512016352673
 20
189.2275419603393
 30
0.0
 11
663.5433276195193
 21
218.9775419603394
 31
0.0
 70
    32
  3
AM_ISO
100
AcDbAlignedDimension
 13
653.0512016352673
 23
248.7275419603392
 33
0.0
 14
654.0512016352673
 24
189.2275419603393
 34
0.0
 50
90.0
100
AcDbRotatedDimension
1001
ACAD
1000
DSTYLE
1002
{
1070
   173
1070
     1
1070
     7
1000
GENDOT
1002
}
  0
DIMENSION
  5
1FDB
330
2
100
AcDbEntity
  8
AM_5
100
AcDbDimension
  2
*D12
 10
674.0512016352673
 20
182.2275419603393
 30
0.0
 11
671.5433276195193
 21
229.9775830140894
 31
0.0
 70
    32
  3
AM_ISO
100
AcDbAlignedDimension
 13
646.0512016352673
 23
277.7276240678392
 33
0.0
 14
654.0512016352673
 24
182.2275419603393
 34
0.0
 50
90.0
100
AcDbRotatedDimension
  0
DIMENSION
  5
1FDC
330
2
100
AcDbEntity
  8
AM_5
100
AcDbDimension
  2
*D14
 10
666.0512016352673
 20
182.2275419603393
 30
0.0
 11
666.0512016352673
 21
185.7275419603394
 31
0.0
 70
   160
  3
AM_ISO
100
AcDbAlignedDimension
 13
654.0512016352673
 23
189.2275419603393
 33
0.0
 14
654.0512016352673
 24
182.2275419603393
 34
0.0
 50
90.0
100
AcDbRotatedDimension
1001
ACAD
1000
DSTYLE
1002
{
1070
   173
1070
     1
1070
     6
1000
GENDOT
1002
}
  0
DIMENSION
  5
1FDD
330
2
100
AcDbEntity
  8
AM_5
100
AcDbDimension
  2
*D15
 10
674.0512016352674
 20
277.7276240678392
 30
0.0
 11
671.5512016352674
 21
285.7276240678393
 31
0.0
 70
    32
  3
STANDARD
100
AcDbAlignedDimension
 13
646.0512016352673
 23
293.7276240678392
 33
0.0
 14
646.0512016352673
 24
277.7276240678392
 34
0.0
 50
90.0
100
AcDbRotatedDimension
1001
ACAD
1000
DSTYLE
1002
{
1070
   287
1070
     5
1070
    41
1040
3.0
1070
    42
1040
1.0
1070
    43
1040
12.0
1070
    44
1040
1.0
1070
    47
1040
0.15
1070
    48
1040
-0.1
1070
    73
1070
     0
1070
    74
1070
     0
1070
    77
1070
     1
1070
    78
1070
     8
1070
   140
1040
3.0
1070
   141
1040
2.0
1070
   145
1040
1.0
1070
   147
1040
1.0
1070
   172
1070
     1
1070
   271
1070
     2
1070
   272
1070
     2
1070
   279
1070
     2
1002
}
  0
DIMENSION
  5
2128
330
2
100
AcDbEntity
  8
AM_5
100
AcDbDimension
  2
*D19
 10
647.0512016352674
 20
311.8681656474851
 30
0.0
 11
622.0512016352674
 21
314.3760396632331
 31
0.0
 70
    32
  3
AM_ISO
100
AcDbAlignedDimension
 13
597.0512016352674
 23
293.2276240678392
 33
0.0
 14
647.0512016352674
 24
293.2276240678392
 34
0.0
100
AcDbRotatedDimension
  0
DIMENSION
  5
212B
330
2
100
AcDbEntity
  8
AM_5
100
AcDbDimension
  2
*D18
 10
605.0512016352674
 20
303.8681656474851
 30
0.0
 11
601.0512016352674
 21
306.3681656474851
 31
0.0
 70
    32
  3
AM_ISO
100
AcDbAlignedDimension
 13
597.0512016352674
 23
293.2276240678392
 33
0.0
 14
605.0512016352674
 24
295.4499707192785
 34
0.0
100
AcDbRotatedDimension
1001
ACAD
1000
DSTYLE
1002
{
1070
   173
1070
     1
1070
     7
1000
GENDOT
1002
}
  0
DIMENSION
  5
212C
330
2
100
AcDbEntity
  8
AM_5
100
AcDbDimension
  2
*D17
 10
635.0512016352674
 20
303.8681656474851
 30
0.0
 11
620.0512016352673
 21
306.3681656474851
 31
0.0
 70
    32
  3
AM_ISO
100
AcDbAlignedDimension
 13
605.0512016352674
 23
295.4499707192785
 33
0.0
 14
635.0512016352674
 24
299.8606013325392
 34
0.0
100
AcDbRotatedDimension
1001
ACAD
1000
DSTYLE
1002
{
1070
   173
1070
     1
1070
     6
1000
GENDOT
1002
}
  0
DIMENSION
  5
217F
330
2
100
AcDbEntity
  8
AM_5
100
AcDbDimension
  2
*D20
 10
655.0512016352674
 20
170.3702917267393
 30
0.0
 11
635.0512016352674
 21
170.3702917267393
 31
0.0
 70
   160
  1
M<>x1.5
  3
AM_ISO
100
AcDbAlignedDimension
 13
615.0512016352673
 23
190.2275419603393
 33
0.0
 14
655.0512016352674
 24
190.2275419603393
 34
0.0
 50
0.0000000000001018
100
AcDbRotatedDimension
  0
INSERT
  5
21F6
330
2
100
AcDbEntity
  8
AM_5
100
AcDbBlockReference
  2
*S73
 10
0.0
 20
0.0
 30
0.0
  0
TEXT
  5
21F7
330
2
100
AcDbEntity
  8
AM_5
100
AcDbText
 10
581.3279586900638
 20
266.6139679074289
 30
0.0
 40
3.0
  1
M6x1.0
  7
CHINA
100
AcDbText
  0
INSERT
  5
21F9
330
2
100
AcDbEntity
  8
AM_5
100
AcDbBlockReference
  2
*S74
 10
0.0
 20
0.0
 30
0.0
  0
ARC
  5
220D
330
2
100
AcDbEntity
  8
AM_4
100
AcDbCircle
 10
635.0512016352674
 20
231.7622714642392
 30
0.0
 40
2.5
100
AcDbArc
 50
260.0
 51
170.0
1001
GENIUS_GENOREF_13
1005
220B
  0
ARC
  5
2212
330
2
100
AcDbEntity
  8
AM_4
100
AcDbCircle
 10
602.6191474276117
 20
347.1826937145432
 30
0.0
 40
3.0
100
AcDbArc
 50
260.0
 51
170.0
  0
LINE
  5
221D
330
2
100
AcDbEntity
  8
CENTER
  6
CENTER
100
AcDbLine
 10
752.8254200557249
 20
231.7622714642392
 30
0.0
 11
739.9101400801513
 21
231.7622714642392
 31
0.0
  0
LINE
  5
221E
330
2
100
AcDbEntity
  8
HIDDEN
  6
HIDDEN
100
AcDbLine
 10
749.6228302127859
 20
233.8622714642392
 30
0.0
 11
742.6228302127858
 21
233.8622714642393
 31
0.0
  0
LINE
  5
221F
330
2
100
AcDbEntity
  8
HIDDEN
  6
HIDDEN
100
AcDbLine
 10
749.6228302127859
 20
234.2622714642391
 30
0.0
 11
742.6228302127858
 21
234.2622714642391
 31
0.0
  0
LINE
  5
2220
330
2
100
AcDbEntity
  8
HIDDEN
  6
HIDDEN
100
AcDbLine
 10
749.6228302127859
 20
229.6622714642393
 30
0.0
 11
742.6228302127858
 21
229.6622714642393
 31
0.0
  0
LINE
  5
2221
330
2
100
AcDbEntity
  8
HIDDEN
  6
HIDDEN
100
AcDbLine
 10
749.6228302127859
 20
229.2622714642394
 30
0.0
 11
742.6228302127858
 21
229.2622714642394
 31
0.0
  0
ENDSEC
  0
SECTION
  2
OBJECTS
  0
DICTIONARY
  5
8
330
0
100
AcDbDictionary
  3
ACAD_GROUP
350
21
  3
ACAD_LAYOUT
350
C
  3
ACAD_MLINESTYLE
350
22
  3
ACAD_PLOTSETTINGS
350
23
  3
ACMDICTIONARY
350
1F4
  3
AMG
350
1DA
  3
AMGSNAPSETTINGS
350
37D
  3
ASE_INDEX_DICTIONARY
350
E58
  3
DWGPROPS
350
289A
1001
ACAD
1000
TREAT_AS_HARD
1070
     0
  0
DICTIONARY
  5
3
330
2
100
AcDbDictionary
  3
ACAD_INDEX
350
22B0
  3
ACAD_LAYOUTSELFREF
350
29BE
1001
ACAD
1000
TREAT_AS_HARD
1070
     1
  0
DICTIONARY
  5
29BF
330
D
100
AcDbDictionary
  3
ACAD_LAYOUTSELFREF
350
29C0
  0
DICTIONARY
  5
21
102
{ACAD_REACTORS
330
8
102
}
330
8
100
AcDbDictionary
1001
ACAD
1000
TREAT_AS_HARD
1070
     0
  0
DICTIONARY
  5
C
102
{ACAD_REACTORS
330
8
102
}
330
8
100
AcDbDictionary
1001
ACAD
1000
TREAT_AS_HARD
1070
     0
  0
DICTIONARY
  5
22
102
{ACAD_REACTORS
330
8
102
}
330
8
100
AcDbDictionary
  3
STANDARD
350
24
1001
ACAD
1000
TREAT_AS_HARD
1070
     0
  0
DICTIONARY
  5
23
102
{ACAD_REACTORS
330
8
102
}
330
8
100
AcDbDictionary
1001
ACAD
1000
TREAT_AS_HARD
1070
     0
  0
DICTIONARY
  5
1F4
102
{ACAD_REACTORS
330
8
102
}
330
8
100
AcDbDictionary
  3
ACMSTDDICTIONARY
350
1FA
1001
ACAD
1000
TREAT_AS_HARD
1070
     0
  0
DICTIONARY
  5
1DA
102
{ACAD_REACTORS
330
8
102
}
330
8
100
AcDbDictionary
  3
ACMGSETTINGS
350
1DB
1001
ACAD
1000
TREAT_AS_HARD
1070
     0
  0
DICTIONARY
  5
37D
102
{ACAD_REACTORS
330
8
102
}
330
8
100
AcDbDictionary
1001
ACAD
1000
TREAT_AS_HARD
1070
     0
  0
DICTIONARY
  5
E58
102
{ACAD_REACTORS
330
8
102
}
330
8
100
AcDbDictionary
  3
ASEBLOCKHIERARCHYINDEXRECORD
350
E5A
1001
DCO15
1040
1443953005.444
1001
ACAD
1000
TREAT_AS_HARD
1070
     0
  0
XRECORD
  5
289A
102
{ACAD_REACTORS
330
8
102
}
330
8
100
AcDbXrecord
  1
DWGPROPS COOKIE
  2

  3

  4

  6

  7

  8

  9

300
AmdtFileType=84
301
=
302
=
303
=
304
=
305
=
306
=
307
=
308
=
309
=
 40
0.1532672569444445
 41
2452794.706235081
 42
2452796.625785208
  1

 90
        1
  0
DICTIONARY
  5
22B0
102
{ACAD_REACTORS
330
3
102
}
330
3
100
AcDbDictionary
  3
*A1
350
22B1
1001
ACAD
1000
TREAT_AS_HARD
1070
     0
  0
XRECORD
  5
29BE
102
{ACAD_REACTORS
330
3
102
}
330
3
100
AcDbXrecord
340
2
  0
XRECORD
  5
29C0
102
{ACAD_REACTORS
330
29BF
102
}
330
29BF
100
AcDbXrecord
340
D
  0
MLINESTYLE
  5
24
102
{ACAD_REACTORS
330
22
102
}
330
22
100
AcDbMlineStyle
  2
STANDARD
 70
     0
  3

 62
   256
 51
90.0
 52
90.0
 71
     2
 49
0.5
 62
   256
  6
BYLAYER
 49
-0.5
 62
   256
  6
BYLAYER
  0
DICTIONARY
  5
1FA
102
{ACAD_REACTORS
330
1F4
102
}
330
1F4
100
AcDbDictionary
1001
ACAD
1000
TREAT_AS_HARD
1070
     0
  0
DICTIONARY
  5
1DB
102
{ACAD_REACTORS
330
1DA
102
}
330
1DA
100
AcDbDictionary
1001
ACAD
1000
TREAT_AS_HARD
1070
     0
  0
XRECORD
  5
E5A
102
{ACAD_REACTORS
330
E58
102
}
330
E58
100
AcDbXrecord
330
0
330
0
  0
LAYER_INDEX
  5
22B1
102
{ACAD_REACTORS
330
22B0
102
}
330
22B0
100
AcDbIndex
 40
2452796.645802176
100
AcDbLayerIndex
  8
0
360
22B2
 90
       88
  8
Defpoints
360
22B3
 90
        0
  8
AM_5
360
22B4
 90
       15
  8
AM_PARDIM
360
22B5
 90
       10
  8
AM_7
360
22B6
 90
        1
  8
HIDDEN
360
22B7
 90
       16
  8
DIM
360
22B8
 90
        4
  8
CENTER
360
22B9
 90
        9
  8
LOGO
360
22BA
 90
      110
  8
AM_4
360
22BB
 90
        2
  8
AM_4N
360
22BC
 90
        4
  0
IDBUFFER
  5
22B2
330
0
100
AcDbIdBuffer
330
25
330
26
330
27
330
28
330
29
330
2A
330
2B
330
2C
330
2D
330
2E
330
2F
330
30
330
1258
330
1259
330
125A
330
12BA
330
1EFD
330
1EFE
330
1EFF
330
1F00
330
1F01
330
1F02
330
1F04
330
1F05
330
1F06
330
1F07
330
1F09
330
1F0A
330
1F0B
330
1F0C
330
1F0D
330
1F0E
330
1F0F
330
1F10
330
1F11
330
1F12
330
1F17
330
1F18
330
1F19
330
1F1A
330
1F1B
330
1F1C
330
1F20
330
1F21
330
1F2A
330
1F2C
330
1F2D
330
1F2E
330
1F2F
330
1F30
330
1F32
330
1F33
330
1F34
330
1F35
330
1F36
330
1F37
330
1F38
330
1F39
330
1F3A
330
1F3B
330
1F3C
330
1F78
330
1F7A
330
1FA4
330
1FA5
330
1FA7
330
1FA8
330
1FA9
330
1FAA
330
1FAF
330
1FB0
330
1FB1
330
1FB2
330
1FB3
330
1FB4
330
1FB5
330
1FB6
330
1FB7
330
1FB8
330
1FBC
330
1FBD
330
1FCF
330
1FD0
330
1FD1
330
1FD3
330
1FD4
330
1FD5
330
1FD6
  0
IDBUFFER
  5
22B3
330
0
100
AcDbIdBuffer
  0
IDBUFFER
  5
22B4
330
0
100
AcDbIdBuffer
330
151
330
156
330
1DD6
330
1FD7
330
1FDA
330
1FDB
330
1FDC
330
1FDD
330
2128
330
212B
330
212C
330
217F
330
21F6
330
21F7
330
21F9
  0
IDBUFFER
  5
22B5
330
0
100
AcDbIdBuffer
330
31
330
43
330
52
330
5F
330
6C
330
79
330
86
330
95
330
A3
330
B0
  0
IDBUFFER
  5
22B6
330
0
100
AcDbIdBuffer
330
C8
  0
IDBUFFER
  5
22B7
330
0
100
AcDbIdBuffer
330
1F13
330
1F14
330
1F15
330
1F1F
330
1F25
330
1F26
330
1F27
330
1F28
330
1FAB
330
1FAC
330
1FAD
330
1FAE
330
221E
330
221F
330
2220
330
2221
  0
IDBUFFER
  5
22B8
330
0
100
AcDbIdBuffer
330
12A0
330
12A1
330
12AC
330
12B5
  0
IDBUFFER
  5
22B9
330
0
100
AcDbIdBuffer
330
1F08
330
1F16
330
1F1E
330
1F22
330
1F2B
330
1F31
330
1FA6
330
1FD2
330
221D
  0
IDBUFFER
  5
22BA
330
0
100
AcDbIdBuffer
330
124B
330
124C
330
124D
330
124E
330
124F
330
1250
330
1251
330
1252
330
1256
330
1257
330
125B
330
125C
330
125D
330
1261
330
1262
330
1263
330
1264
330
1265
330
1266
330
1267
330
1268
330
1269
330
126A
330
126B
330
126F
330
1270
330
1271
330
1272
330
1273
330
1274
330
1275
330
1276
330
127A
330
127B
330
127C
330
127D
330
127E
330
127F
330
1280
330
1281
330
1282
330
1286
330
1287
330
1288
330
1289
330
128A
330
128E
330
128F
330
1290
330
1294
330
1298
330
1299
330
129A
330
12BB
330
12BC
330
12BD
330
12BE
330
12BF
330
12C0
330
12C1
330
12C2
330
12C3
330
12C4
330
12C5
330
12C6
330
12C7
330
12C8
330
12C9
330
12CA
330
12CB
330
12CC
330
12CD
330
12CE
330
12CF
330
12D0
330
12D1
330
12D2
330
12D3
330
12D4
330
12D5
330
12D6
330
12D7
330
12D8
330
12D9
330
12DA
330
12DB
330
12DC
330
12DD
330
12DE
330
12DF
330
12E0
330
12E1
330
12E2
330
12E3
330
12E4
330
12E5
330
12E6
330
12E7
330
12E8
330
12E9
330
12EA
330
12EB
330
12EC
330
12ED
330
12EE
330
12EF
330
12F0
330
1309
330
130A
330
130B
  0
IDBUFFER
  5
22BB
330
0
100
AcDbIdBuffer
330
220D
330
2212
  0
IDBUFFER
  5
22BC
330
0
100
AcDbIdBuffer
330
1F7B
330
1F7C
330
1FA2
330
1FA3
  0
ENDSEC
  0
EOF
