  0
SECTION
  2
HEADER
  9
$ACADVER
  1
AC1012
  9
$DWGCODEPAGE
  3
big5
  9
$INSBASE
 10
0.0
 20
0.0
 30
0.0
  9
$EXTMIN
 10
869.7570602512755
 20
94.21808224423433
 30
-0.0000000000000053
  9
$EXTMAX
 10
1204.533484717961
 20
401.0722187738775
 30
0.0000000000000099
  9
$LIMMIN
 10
0.0
 20
0.0
  9
$LIMMAX
 10
420.0
 20
297.0
  9
$ORTHOMODE
 70
     1
  9
$REGENMODE
 70
     1
  9
$FILLMODE
 70
     1
  9
$QTEXTMODE
 70
     0
  9
$MIRRTEXT
 70
     1
  9
$DRAGMODE
 70
     2
  9
$LTSCALE
 40
0.8
  9
$OSMODE
 70
    55
  9
$ATTMODE
 70
     1
  9
$TEXTSIZE
 40
3.0
  9
$TRACEWID
 40
1.0
  9
$TEXTSTYLE
  7
CHINA
  9
$CLAYER
  8
0
  9
$CELTYPE
  6
BYLAYER
  9
$CECOLOR
 62
   256
  9
$CELTSCALE
 40
1.0
  9
$DELOBJ
 70
     1
  9
$DISPSILH
 70
     0
  9
$DIMSCALE
 40
1.0
  9
$DIMASZ
 40
3.0
  9
$DIMEXO
 40
2.0
  9
$DIMDLI
 40
10.0
  9
$DIMRND
 40
0.0
  9
$DIMDLE
 40
0.0
  9
$DIMEXE
 40
1.5
  9
$DIMTP
 40
0.1
  9
$DIMTM
 40
0.1
  9
$DIMTXT
 40
3.0
  9
$DIMCEN
 40
0.0
  9
$DIMTSZ
 40
0.0
  9
$DIMTOL
 70
     0
  9
$DIMLIM
 70
     0
  9
$DIMTIH
 70
     0
  9
$DIMTOH
 70
     0
  9
$DIMSE1
 70
     0
  9
$DIMSE2
 70
     0
  9
$DIMTAD
 70
     1
  9
$DIMZIN
 70
     8
  9
$DIMBLK
  1

  9
$DIMASO
 70
     1
  9
$DIMSHO
 70
     1
  9
$DIMPOST
  1

  9
$DIMAPOST
  1
"
  9
$DIMALT
 70
     0
  9
$DIMALTD
 70
     2
  9
$DIMALTF
 40
0.0393701
  9
$DIMLFAC
 40
1.0
  9
$DIMTOFL
 70
     1
  9
$DIMTVP
 40
0.0
  9
$DIMTIX
 70
     0
  9
$DIMSOXD
 70
     0
  9
$DIMSAH
 70
     0
  9
$DIMBLK1
  1

  9
$DIMBLK2
  1

  9
$DIMSTYLE
  2
AM_ISO
  9
$DIMCLRD
 70
   256
  9
$DIMCLRE
 70
   256
  9
$DIMCLRT
 70
   256
  9
$DIMTFAC
 40
0.71
  9
$DIMGAP
 40
1.0
  9
$DIMJUST
 70
     0
  9
$DIMSD1
 70
     0
  9
$DIMSD2
 70
     0
  9
$DIMTOLJ
 70
     0
  9
$DIMTZIN
 70
     8
  9
$DIMALTZ
 70
     0
  9
$DIMALTTZ
 70
     0
  9
$DIMFIT
 70
     3
  9
$DIMUPT
 70
     0
  9
$DIMUNIT
 70
     2
  9
$DIMDEC
 70
     2
  9
$DIMTDEC
 70
     2
  9
$DIMALTU
 70
     2
  9
$DIMALTTD
 70
     2
  9
$DIMTXSTY
  7
CHINA
  9
$DIMAUNIT
 70
     0
  9
$LUNITS
 70
     2
  9
$LUPREC
 70
     2
  9
$SKETCHINC
 40
1.0
  9
$FILLETRAD
 40
2.5
  9
$AUNITS
 70
     0
  9
$AUPREC
 70
     0
  9
$MENU
  1
.
  9
$ELEVATION
 40
0.0
  9
$PELEVATION
 40
0.0
  9
$THICKNESS
 40
0.0
  9
$LIMCHECK
 70
     0
  9
$BLIPMODE
 70
     0
  9
$CHAMFERA
 40
1.5
  9
$CHAMFERB
 40
1.5
  9
$CHAMFERC
 40
20.0
  9
$CHAMFERD
 40
0.0
  9
$SKPOLY
 70
     0
  9
$TDCREATE
 40
2452794.706235081
  9
$TDUPDATE
 40
2452796.650003935
  9
$TDINDWG
 40
0.1092396065
  9
$TDUSRTIMER
 40
0.1092393750
  9
$USRTIMER
 70
     1
  9
$ANGBASE
 50
0.0
  9
$ANGDIR
 70
     0
  9
$PDMODE
 70
     0
  9
$PDSIZE
 40
0.0
  9
$PLINEWID
 40
0.0
  9
$COORDS
 70
     0
  9
$SPLFRAME
 70
     0
  9
$SPLINETYPE
 70
     6
  9
$SPLINESEGS
 70
     8
  9
$ATTDIA
 70
     1
  9
$ATTREQ
 70
     1
  9
$HANDLING
 70
 22529
  9
$HANDSEED
  5
381A
  9
$SURFTAB1
 70
     6
  9
$SURFTAB2
 70
     6
  9
$SURFTYPE
 70
     6
  9
$SURFU
 70
     6
  9
$SURFV
 70
     6
  9
$UCSNAME
  2

  9
$UCSORG
 10
0.0
 20
0.0
 30
0.0
  9
$UCSXDIR
 10
1.0
 20
0.0
 30
0.0
  9
$UCSYDIR
 10
0.0
 20
1.0
 30
0.0
  9
$PUCSNAME
  2

  9
$PUCSORG
 10
0.0
 20
0.0
 30
0.0
  9
$PUCSXDIR
 10
1.0
 20
0.0
 30
0.0
  9
$PUCSYDIR
 10
0.0
 20
1.0
 30
0.0
  9
$USERI1
 70
     0
  9
$USERI2
 70
     0
  9
$USERI3
 70
     0
  9
$USERI4
 70
     0
  9
$USERI5
 70
     0
  9
$USERR1
 40
0.0
  9
$USERR2
 40
0.0
  9
$USERR3
 40
0.0
  9
$USERR4
 40
0.0
  9
$USERR5
 40
0.0
  9
$WORLDVIEW
 70
     1
  9
$SHADEDGE
 70
     3
  9
$SHADEDIF
 70
    70
  9
$TILEMODE
 70
     1
  9
$MAXACTVP
 70
    64
  9
$PINSBASE
 10
0.0
 20
0.0
 30
0.0
  9
$PLIMCHECK
 70
     0
  9
$PEXTMIN
 10
26.80208481208632
 20
60.62932117531272
 30
-0.0000000000000153
  9
$PEXTMAX
 10
155.7606180029583
 20
204.4099130529699
 30
0.0
  9
$PLIMMIN
 10
-3.757083177566528
 20
-14.7637300491333
  9
$PLIMMAX
 10
206.2162444591522
 20
282.2045927047729
  9
$UNITMODE
 70
     0
  9
$VISRETAIN
 70
     1
  9
$PLINEGEN
 70
     0
  9
$PSLTSCALE
 70
     1
  9
$TREEDEPTH
 70
  3020
  9
$PICKSTYLE
 70
     0
  9
$CMLSTYLE
  2
STANDARD
  9
$CMLJUST
 70
     0
  9
$CMLSCALE
 40
20.0
  9
$SAVEIMAGES
 70
     1
  0
ENDSEC
  0
SECTION
  2
CLASSES
  0
CLASS
  1
ACDBDICTIONARYWDFLT
  2
AcDbDictionaryWithDefault
  3
AutoCAD 2000
 90
    32768
280
     0
281
     0
  0
CLASS
  1
ACDBPLACEHOLDER
  2
AcDbPlaceHolder
  3
AutoCAD 2000
 90
    32768
280
     0
281
     0
  0
CLASS
  1
LAYOUT
  2
AcDbLayout
  3
AutoCAD 2000
 90
    32768
280
     0
281
     0
  0
CLASS
  1
AMGSETTINGSOBJ
  2
AmgSettingsObj
  3
"AcadM|Product Description: AutoCAD Mechanical 2000|Company: Autodesk"
 90
    32768
280
     0
281
     0
  0
CLASS
  1
ACME_DOCUMENT
  2
AcMeDbDoc
  3
AcMeServices
 90
    32768
280
     0
281
     0
  0
CLASS
  1
ACMESCOPE
  2
AcMeScope
  3
AcMeServices
 90
    32768
280
     0
281
     0
  0
CLASS
  1
ACMECOMMANDHISTORY
  2
AcMeCommandHistory
  3
AcMeServices
 90
    32768
280
     0
281
     0
  0
CLASS
  1
ACIMSYSVARMAN
  2
AcImSysVarManager
  3
AcMeServices
 90
    32768
280
     0
281
     0
  0
CLASS
  1
ACIMREALSYSVAR
  2
AcImRealSysVar
  3
AcMeServices
 90
    32768
280
     0
281
     0
  0
CLASS
  1
ACIMINTSYSVAR
  2
AcImIntSysVar
  3
AcMeServices
 90
    32768
280
     0
281
     0
  0
CLASS
  1
ACMEDRAWINGMAN
  2
AcMeDrawingMan
  3
AcMeServices
 90
    32768
280
     0
281
     0
  0
CLASS
  1
ACMEVIEW
  2
AcMeView
  3
AcMeServices
 90
    32768
280
     0
281
     0
  0
CLASS
  1
ACDBENTITYCACHE
  2
AcMeEntityCache
  3
AcMeServices
 90
    32768
280
     0
281
     0
  0
CLASS
  1
GSMANAGER
  2
AcMeGSManager
  3
AcMeServices
 90
    32768
280
     0
281
     0
  0
CLASS
  1
AMDTINTERNALREACTOR
  2
AmdtInternalReactor
  3
AcMeServices
 90
    32768
280
     0
281
     0
  0
CLASS
  1
ACMESTATEMGR
  2
AcMeStateMgr
  3
AcMeServices
 90
    32768
280
     0
281
     0
  0
CLASS
  1
ACGREFMASTER
  2
AcGrefMaster
  3
AcAttribServices
 90
    32768
280
     0
281
     0
  0
CLASS
  1
AM_DRAWING_MGR
  2
AcDmDwgMgr
  3
AcMechDwgViewMgmt
 90
    32768
280
     0
281
     0
  0
CLASS
  1
AM_DWG_DOCUMENT
  2
AcDmDwgDocument
  3
AcMechDwgViewMgmt
 90
    32768
280
     0
281
     0
  0
CLASS
  1
AM_DWG_SHEET
  2
AcDmSheet
  3
AcMechDwgViewMgmt
 90
    32768
280
     0
281
     0
  0
CLASS
  1
AM_VIEWDIMPARMAP
  2
AcDmViewDimParMap
  3
AcMechDwgViewMgmt
 90
    32768
280
     0
281
     0
  0
CLASS
  1
AM_DWGMGR_NAME
  2
AcDmDwgMgrName
  3
AcMechDwgViewMgmt
 90
    32768
280
     0
281
     0
  0
CLASS
  1
ACME_DATABASE
  2
AcMeDbDatabase
  3
AcMeServices
 90
    32768
280
     0
281
     0
  0
CLASS
  1
ACRFINSADJUSTERMGR
  2
AcRfInsAdjusterMgr
  3
AcMeServices
 90
    32768
280
     0
281
     0
  0
CLASS
  1
ACGREFACADMASTER
  2
AcGrefacadMaster
  3
AcGrefServices
 90
    32768
280
     0
281
     0
  0
CLASS
  1
AMDTMENUSTATEMGR
  2
AmdtMenuStateMgr
  3
McadcomServices
 90
    32768
280
     0
281
     0
  0
CLASS
  1
AMDTMCOMMENUSTATE
  2
AmdtMcomMenuState
  3
McadcomServices
 90
    32768
280
     0
281
     0
  0
CLASS
  1
AMIMASTER
  2
AmiMaster
  3
AmiServices
 90
    32768
280
     0
281
     0
  0
CLASS
  1
ASAPP
  2
AcAsAppObject
  3
AutoSurfServices
 90
    32768
280
     0
281
     0
  0
CLASS
  1
IM_STATIC_MAN
  2
AcImStaticVarManager
  3
AcMeServices
 90
    32768
280
     0
281
     0
  0
CLASS
  1
ACIMSTRSYSVAR
  2
AcImStrSysVar
  3
AcMeServices
 90
    32768
280
     0
281
     0
  0
CLASS
  1
ACIMDBLSTATICVAR
  2
AcImDblStaticVar
  3
AcMeServices
 90
    32768
280
     0
281
     0
  0
CLASS
  1
ACIMSTRSTATICVAR
  2
AcImStrStaticVar
  3
AcMeServices
 90
    32768
280
     0
281
     0
  0
CLASS
  1
ACIMINTSTATICVAR
  2
AcImIntStaticVar
  3
AcMeServices
 90
    32768
280
     0
281
     0
  0
CLASS
  1
ACASGREFMASTER
  2
AcAsGrefMaster
  3
AutoSurfResolverServices
 90
    32768
280
     0
281
     0
  0
CLASS
  1
ACADGREFMODULE
  2
AcAdGrefModule
  3
AdGrefServices
 90
    32768
280
     0
281
     0
  0
CLASS
  1
AMDTMAPISURFMOUDULE
  2
AmdtMApiSurfModule
  3
MApiSurfServices
 90
    32768
280
     0
281
     0
  0
CLASS
  1
MAPIAMMOUDLE
  2
MApiAmModule
  3
MApiAmServices
 90
    32768
280
     0
281
     0
  0
CLASS
  1
AMDTADMENUSTATE
  2
AmdtAdMenuState
  3
DesignerServices
 90
    32768
280
     0
281
     0
  0
CLASS
  1
ADAPPL
  2
AcAdAppl
  3
DesignerServices
 90
    32768
280
     0
281
     0
  0
CLASS
  1
DEPMGR
  2
AcAdDepMgr
  3
DesignerServices
 90
    32768
280
     0
281
     0
  0
CLASS
  1
PARAMMGR
  2
AcAdParamMgr
  3
DesignerServices
 90
    32768
280
     0
281
     0
  0
CLASS
  1
PARAMSCOPE
  2
AcAdParamScope
  3
DesignerServices
 90
    32768
280
     0
281
     0
  0
CLASS
  1
NAMEDAPPL
  2
AcAdNamedAppl
  3
DesignerServices
 90
    32768
280
     0
281
     0
  0
CLASS
  1
AMDTDMMENUSTATE
  2
AmdtDmMenuState
  3
AcMechDwgViewMgmt
 90
    32768
280
     0
281
     0
  0
CLASS
  1
MAPIADMODULE
  2
MApiAdModule
  3
MApiAdServices
 90
    32768
280
     0
281
     0
  0
CLASS
  1
AMDTAMMENUSTATE
  2
AmdtAmMenuState
  3
DesignerAssemblies
 90
    32768
280
     0
281
     0
  0
CLASS
  1
ACAMPROJECT
  2
AcAmProject
  3
DesignerAssemblies
 90
    32768
280
     0
281
     0
  0
CLASS
  1
ACAMCOMPDEFMGR
  2
AcAmCompDefMgr
  3
DesignerAssemblies
 90
    32768
280
     0
281
     0
  0
CLASS
  1
AMCONTEXTMGR
  2
AcAmContextMgr
  3
DesignerAssemblies
 90
    32768
280
     0
281
     0
  0
CLASS
  1
ACAMCONTEXTPARTMODELER
  2
AcAmContextPartModeler
  3
DesignerAssemblies
 90
    32768
280
     0
281
     0
  0
CLASS
  1
ACMDATADICTIONARY
  2
AcmDataDictionary
  3
"AcmSymBB|Product Description: AutoCAD Mechanical 2000|Company: Autodesk"
 90
    32768
280
     0
281
     0
  0
CLASS
  1
ACMDATAENTRYBLOCK
  2
AcmDataEntryBlock
  3
"AcmSymBB|Product Description: AutoCAD Mechanical 2000|Company: Autodesk"
 90
    32768
280
     0
281
     0
  0
CLASS
  1
ACMSTANDARDISO
  2
AcmStandardISO
  3
"Amdt_StdImp|Product Description: AutoCAD Mechanical 2000|Company: Autodesk"
 90
    32768
280
     0
281
     0
  0
CLASS
  1
AMGOBJPROPCFG
  2
AmgObjPropCfg
  3
"AmgLay|Product Description: AutoCAD Mechanical 2000|Company: Autodesk"
 90
    32769
280
     0
281
     0
  0
CLASS
  1
AMDTEDGESTANDARDISO
  2
AmdtEdgeStdISO
  3
"Amdt_StdImp|Product Description: AutoCAD Mechanical 2000|Company: Autodesk"
 90
    32768
280
     0
281
     0
  0
CLASS
  1
ACMSURFSTANDARDISO
  2
AcmSurfTextStdISO
  3
"Amdt_StdImp|Product Description: AutoCAD Mechanical 2000|Company: Autodesk"
 90
    32768
280
     0
281
     0
  0
CLASS
  1
ACMFCFSTANDARDISO
  2
AcmFCFStdISO
  3
"Amdt_StdImp|Product Description: AutoCAD Mechanical 2000|Company: Autodesk"
 90
    32768
280
     0
281
     0
  0
CLASS
  1
ACMWELDSTANDARDISO
  2
AcmWeldingStdISO
  3
"Amdt_StdImp|Product Description: AutoCAD Mechanical 2000|Company: Autodesk"
 90
    32768
280
     0
281
     0
  0
CLASS
  1
ACMIDSTANDARDISO
  2
AcmIdStdISO
  3
"Amdt_StdImp|Product Description: AutoCAD Mechanical 2000|Company: Autodesk"
 90
    32768
280
     0
281
     0
  0
CLASS
  1
ACMDATUMSTANDARDISO
  2
AcmDatumStdISO
  3
"Amdt_StdImp|Product Description: AutoCAD Mechanical 2000|Company: Autodesk"
 90
    32768
280
     0
281
     0
  0
CLASS
  1
ACMBOMSTANDARDISO
  2
AcmBOMStdISO
  3
"Amdt_StdImp|Product Description: AutoCAD Mechanical 2000|Company: Autodesk"
 90
    32768
280
     0
281
     0
  0
CLASS
  1
ACMDETAILSTANDARDISO
  2
AmdtDetailSymStdISO
  3
"Amdt_StdImp|Product Description: AutoCAD Mechanical 2000|Company: Autodesk"
 90
    32768
280
     0
281
     0
  0
CLASS
  1
ACMSECTIONSTANDARDISO
  2
AmdtSectionSymStdISO
  3
"Amdt_StdImp|Product Description: AutoCAD Mechanical 2000|Company: Autodesk"
 90
    32768
280
     0
281
     0
  0
CLASS
  1
ACMCENTERLINESTANDARDISO
  2
AmdtCenterLineStdISO
  3
"Amdt_StdImp|Product Description: AutoCAD Mechanical 2000|Company: Autodesk"
 90
    32768
280
     0
281
     0
  0
CLASS
  1
ACMTHREADLINESTANDARDISO
  2
AmdtThreadLineStdISO
  3
"Amdt_StdImp|Product Description: AutoCAD Mechanical 2000|Company: Autodesk"
 90
    32768
280
     0
281
     0
  0
CLASS
  1
ACMNOTESTANDARDISO
  2
AmdtNoteStdISO
  3
"Amdt_StdImp|Product Description: AutoCAD Mechanical 2000|Company: Autodesk"
 90
    32768
280
     0
281
     0
  0
CLASS
  1
ACAMGLAYSTD
  2
AcAmgLayStd
  3
"AcAmgLayStd|Product Description: AutoCAD Mechanical 2000|Company: Autodesk"
 90
    32768
280
     0
281
     0
  0
CLASS
  1
ACAMGDIMSTD
  2
AcAmgDimStd
  3
"AcAmgDimStd|Product Description: AutoCAD Mechanical 2000|Company: Autodesk"
 90
    32768
280
     0
281
     0
  0
CLASS
  1
ACAMGHOLECHARTSTDISO
  2
AcAmgHoleChartStdISO
  3
ACMSYMBB_MODULE_NAME
 90
    32768
280
     0
281
     0
  0
CLASS
  1
ACAMGTITLESTD
  2
AcAmgTitleStd
  3
"TITLEAPP"
 90
    32768
280
     0
281
     0
  0
CLASS
  1
CATALOGSTATE
  2
AcAmCatalogState
  3
DesignerAssemblies
 90
    32768
280
     0
281
     0
  0
CLASS
  1
ACAMGRCOMPDEFSET
  2
AcAmGrCompDefSet
  3
DesignerAssemblies
 90
    32768
280
     0
281
     0
  0
CLASS
  1
AMDTBROWSERDBTAB
  2
AmdtBrowserDbTab
  3
McadcomServices
 90
    32768
280
     0
281
     0
  0
CLASS
  1
CBROWSERAPPOBJECT
  2
CBrowserAppObject
  3
McadcomServices
 90
    32768
280
     0
281
     0
  0
CLASS
  1
DM_PLACEHOLDER
  2
AcDmSelsetPlaceholder
  3
AcMechDwgViewMgmt
 90
    32768
280
     0
281
     0
  0
CLASS
  1
ACAMGFILTERDAT
  2
AcAmgFilterDat
  3
"AcadM|Product Description: AutoCAD Mechanical 2000|Company: Autodesk"
 90
    32768
280
     0
281
     0
  0
CLASS
  1
LAYER_INDEX
  2
AcDbLayerIndex
  3
AutoCAD 2000
 90
    32768
280
     0
281
     0
  0
CLASS
  1
IDBUFFER
  2
AcDbIdBuffer
  3
AutoCAD 2000
 90
    32768
280
     0
281
     0
  0
CLASS
  1
DICTIONARYVAR
  2
AcDbDictionaryVar
  3
AutoCAD 2000
 90
    32768
280
     0
281
     0
  0
CLASS
  1
ACAMGRCOMPDEF
  2
AcAmGrCompDef
  3
DesignerAssemblies
 90
    32768
280
     0
281
     0
  0
CLASS
  1
ACCMCONTEXT
  2
AcCmContext
  3
DesignerAssemblies
 90
    32768
280
     0
281
     0
  0
CLASS
  1
ACAMCOMPDEF
  2
AcAmCompDef
  3
DesignerAssemblies
 90
    32768
280
     0
281
     0
  0
CLASS
  1
ADPART
  2
AcAdPart
  3
DesignerServices
 90
    32768
280
     0
281
     1
  0
CLASS
  1
ADBASE
  2
AcAdBase
  3
DesignerServices
 90
    32768
280
     0
281
     0
  0
CLASS
  1
BODYID
  2
AcAdBodyId
  3
DesignerServices
 90
    32768
280
     0
281
     0
  0
CLASS
  1
WORKPLANEDISPLAYMGR
  2
AcAdDisplayMgr
  3
DesignerServices
 90
    32768
280
     0
281
     0
  0
CLASS
  1
ACCMBODY
  2
AcCmBody
  3
DesignerAssemblies
 90
    32768
280
     0
281
     0
  0
CLASS
  1
ACAMCOMPENT
  2
AcAmCompEnt
  3
DesignerAssemblies
 90
    32768
280
     0
281
     1
  0
CLASS
  1
ACAMCOMPFEEDBACK
  2
AcAmCompFeedback
  3
DesignerAssemblies
 90
    32768
280
     0
281
     0
  0
CLASS
  1
ACAMGROUNDEDBASECOMP
  2
AcAmGroundedBaseComp
  3
DesignerAssemblies
 90
    32768
280
     0
281
     0
  0
CLASS
  1
ACAMCOMPENTCLONE
  2
AcAmCompEntClone
  3
DesignerAssemblies
 90
    32768
280
     0
281
     1
  0
CLASS
  1
ACAMCLONEREACTOR
  2
AcAmGrCompCloneReactor
  3
DesignerAssemblies
 90
    32768
280
     0
281
     0
  0
CLASS
  1
ADDATUMPLANEABS
  2
AcAdDatumPlaneAbs
  3
DesignerServices
 90
    32768
280
     0
281
     0
  0
CLASS
  1
ADDATUMAXISABS
  2
AcAdDatumAxisAbs
  3
DesignerServices
 90
    32768
280
     0
281
     0
  0
CLASS
  1
ADDATUMORIENTEDPLANE
  2
AcAdDatumOrientedPlane
  3
DesignerServices
 90
    32768
280
     0
281
     0
  0
CLASS
  1
ACAD_LINE
  2
AcAdLine
  3
DesignerServices
 90
    32768
280
     0
281
     1
  0
CLASS
  1
ACADLINEACAD
  2
AcAdVirtualBoundedLineAcad
  3
DesignerServices
 90
    32768
280
     0
281
     0
  0
CLASS
  1
ACADREFLINEACAD
  2
AcAdVirtualReferenceLine
  3
DesignerServices
 90
    32768
280
     0
281
     0
  0
CLASS
  1
ACADCONSLINE
  2
AcAdConstrainedLine
  3
DesignerServices
 90
    32768
280
     0
281
     0
  0
CLASS
  1
ACADCONSGROUP
  2
AcAdConstraintGroup
  3
DesignerServices
 90
    32768
280
     0
281
     0
  0
CLASS
  1
ACADIMPPTACAD
  2
AcAdVirtualImplicitPoint
  3
DesignerServices
 90
    32768
280
     0
281
     0
  0
CLASS
  1
ACADCONSPOINT
  2
AcAdConstrainedPoint
  3
DesignerServices
 90
    32768
280
     0
281
     0
  0
CLASS
  1
ADPCURCNS
  2
AcAdPointCurveConstr
  3
DesignerServices
 90
    32768
280
     0
281
     0
  0
CLASS
  1
ADVERCNS
  2
AcAdVerticalConstr
  3
DesignerServices
 90
    32768
280
     0
281
     0
  0
CLASS
  1
ADHORCNS
  2
AcAdHorizontalConstr
  3
DesignerServices
 90
    32768
280
     0
281
     0
  0
CLASS
  1
ADCLPROF2D
  2
AcAdClosedProfile2d
  3
DesignerServices
 90
    32768
280
     0
281
     0
  0
CLASS
  1
ACAD_FIXCONSTRAINT
  2
AcAdFixedConstraint
  3
DesignerServices
 90
    32768
280
     0
281
     0
  0
CLASS
  1
AMDTFORMULAUPDATEDISPATCHER
  2
AmdtFormulaUpdateDispatcher
  3
AcMeServices
 90
    32768
280
     0
281
     0
  0
CLASS
  1
ADCONSDISP
  2
AcAdConstraintDisplay
  3
DesignerServices
 90
    32768
280
     0
281
     1
  0
CLASS
  1
ADCONSTDSP
  2
AcAdConstraintDisplayTag
  3
DesignerServices
 90
    32768
280
     0
281
     1
  0
CLASS
  1
PARAM
  2
AcAdParam
  3
DesignerServices
 90
    32768
280
     0
281
     0
  0
CLASS
  1
ADVDISTCNS
  2
AcAdVerticalDistanceConstr
  3
DesignerServices
 90
    32768
280
     0
281
     0
  0
CLASS
  1
ADHDISTCNS
  2
AcAdHorizontalDistanceConstr
  3
DesignerServices
 90
    32768
280
     0
281
     0
  0
CLASS
  1
ACMEROTATIONARROW
  2
AcImRotationArrowDisplay
  3
AcMeServices
 90
    32768
280
     0
281
     1
  0
CLASS
  1
ACADVOLFEATWITHTRIM
  2
AcAdVolFeatWithTrim
  3
DesignerServices
 90
    32768
280
     0
281
     0
  0
CLASS
  1
DEPEDGEFEATUREORDERING
  2
AcAdDepEdgeFeatureOrdering
  3
DesignerServices
 90
    32768
280
     0
281
     0
  0
CLASS
  1
DATUMAXISDISPLAY
  2
AcAdDatumAxisDisplay
  3
DesignerServices
 90
    32768
280
     0
281
     1
  0
CLASS
  1
ADDATUMAXISCENTER
  2
AcAdDatumAxisCenter
  3
DesignerServices
 90
    32768
280
     0
281
     0
  0
CLASS
  1
ADPLANEID
  2
AcAdSurfGeomId
  3
DesignerServices
 90
    32768
280
     0
281
     0
  0
CLASS
  1
ACMEPOINT
  2
AcImPointDisplay
  3
AcMeServices
 90
    32768
280
     0
281
     1
  0
CLASS
  1
ADPLANEID
  2
AcAdPlaneId
  3
DesignerServices
 90
    32768
280
     0
281
     0
  0
CLASS
  1
ADDATUMPLANEFACE
  2
AcAdDatumPlaneFace
  3
DesignerServices
 90
    32768
280
     0
281
     0
  0
CLASS
  1
ADDATUMPOINTAXISPLANE
  2
AcAdDatumPointAxisPlane
  3
DesignerServices
 90
    32768
280
     0
281
     0
  0
CLASS
  1
ADHOLEFEAT
  2
AcAdHoleFeat
  3
DesignerServices
 90
    32768
280
     0
281
     0
  0
CLASS
  1
CIRREFID
  2
AcAdCircleRefId
  3
DesignerServices
 90
    32768
280
     0
281
     0
  0
CLASS
  1
ACADCIRCDEPID
  2
AcAdVirtualCircleDepId
  3
DesignerServices
 90
    32768
280
     0
281
     0
  0
CLASS
  1
ACADCONSCIRCLE
  2
AcAdConstrainedCircle
  3
DesignerServices
 90
    32768
280
     0
281
     0
  0
CLASS
  1
ADCTRPTCNS
  2
AcAdCenterPointConstr
  3
DesignerServices
 90
    32768
280
     0
281
     0
  0
CLASS
  1
AMDT_ALIGNED_DIM
  2
AmdtAlignedDimension
  3
AcMeServices
 90
    32768
280
     0
281
     1
  0
CLASS
  1
ACADBOUNDEDLINEDATUMID
  2
AcAdVirtualBoundedLineDatumId
  3
DesignerServices
 90
    32768
280
     0
281
     0
  0
CLASS
  1
AMDT_ORDINATE_DIM
  2
AmdtOrdinateDimension
  3
AcMeServices
 90
    32768
280
     0
281
     1
  0
CLASS
  1
EDGEID
  2
AcAdEdgeId
  3
DesignerServices
 90
    32768
280
     0
281
     0
  0
CLASS
  1
ADFILLET
  2
AcAdFillet
  3
DesignerServices
 90
    32768
280
     0
281
     0
  0
CLASS
  1
DATUMPLANEDISPLAY
  2
AcAdDatumPlaneDisplay
  3
DesignerServices
 90
    32768
280
     0
281
     1
  0
CLASS
  1
ADDATUMPLANEAXISPLANE
  2
AcAdDatumPlaneAxisPlane
  3
DesignerServices
 90
    32768
280
     0
281
     0
  0
CLASS
  1
ACMEPLINE
  2
AcImPlineDisplay
  3
AcMeServices
 90
    32768
280
     0
281
     1
  0
CLASS
  1
ACMELINEARARROW
  2
AcImLinearArrowDisplay
  3
AcMeServices
 90
    32768
280
     0
281
     1
  0
CLASS
  1
ACMETEXT
  2
AcImTextDisplay
  3
AcMeServices
 90
    32768
280
     0
281
     1
  0
CLASS
  1
ADDATUMPLANEOFFSET
  2
AcAdDatumPlaneOffset
  3
DesignerServices
 90
    32768
280
     0
281
     0
  0
CLASS
  1
ADCOLNCNS
  2
AcAdColinearConstr
  3
DesignerServices
 90
    32768
280
     0
281
     0
  0
CLASS
  1
STREFID
  2
AcAdStraightRefId
  3
DesignerServices
 90
    32768
280
     0
281
     0
  0
CLASS
  1
ACADLINEDEPID
  2
AcAdVirtualLineDepId
  3
DesignerServices
 90
    32768
280
     0
281
     0
  0
CLASS
  1
ADFEATUREDISPLAY
  2
AcImFeatureDisplay
  3
ACME_MODULE_NAME
 90
    32768
280
     0
281
     1
  0
CLASS
  1
ACMEAXIS
  2
AcImAxisDisplay
  3
AcMeServices
 90
    32768
280
     0
281
     1
  0
CLASS
  1
DEPEDGEPATTERNFEATURE
  2
AcAdDepEdgePatternFeature
  3
DesignerServices
 90
    32768
280
     0
281
     0
  0
CLASS
  1
ACADPATTNFEAT
  2
AcAdPatternFeat
  3
DesignerServices
 90
    32768
280
     0
281
     0
  0
CLASS
  1
ACADORDORIGPT
  2
AcAdOrdinateOriginPoint
  3
DesignerServices
 90
    32768
280
     0
281
     0
  0
CLASS
  1
ADORDBASECNS
  2
AcAdOrdinateBaseConstr
  3
DesignerServices
 90
    32768
280
     0
281
     0
  0
CLASS
  1
DEPEDGESECONDARYDEPID
  2
AcAdDepEdgeSecondaryDepId
  3
DesignerServices
 90
    32768
280
     0
281
     0
  0
CLASS
  1
DEPEDGEPATTERNINSTANCE
  2
AcAdDepEdgePatternInstance
  3
DesignerServices
 90
    32768
280
     0
281
     0
  0
CLASS
  1
AM_VIEW_SELECT_FILTER
  2
AcDmActivePartViewEntFilter
  3
DesignerServices
 90
    32768
280
     0
281
     0
  0
CLASS
  1
AM_ABS_PLANE
  2
AcDmAbsPlnDef
  3
AcMechDwgViewMgmt
 90
    32768
280
     0
281
     0
  0
CLASS
  1
AM_ABS_AXIS
  2
AcDmAbsAxisDef
  3
AcMechDwgViewMgmt
 90
    32768
280
     0
281
     0
  0
CLASS
  1
AM_BASE_VIEW_ORIENT
  2
AcDmBaseViewOr
  3
AcMechDwgViewMgmt
 90
    32768
280
     0
281
     0
  0
CLASS
  1
AM_DWG_VIEWPORT
  2
AcDmViewport
  3
AcMechDwgViewMgmt
 90
    32768
280
     0
281
     0
  0
CLASS
  1
AM_VIEW_DISPLAY
  2
AcDmDwgViewDisplay
  3
AcMechDwgViewMgmt
 90
    32768
280
     0
281
     0
  0
CLASS
  1
AM_CLDFLTS
  2
AcDmClDflts
  3
AcMechDwgViewMgmt
 90
    32768
280
     0
281
     0
  0
CLASS
  1
AM_BASE_VIEW
  2
AcDmBaseView
  3
AcMechDwgViewMgmt
 90
    32768
280
     0
281
     0
  0
CLASS
  1
AM_ISO_VIEW_ORIENT
  2
AcDmIsoViewOr
  3
AcMechDwgViewMgmt
 90
    32768
280
     0
281
     0
  0
CLASS
  1
AM_ISO_VIEW
  2
AcDmIsoView
  3
AcMechDwgViewMgmt
 90
    32768
280
     0
281
     0
  0
CLASS
  1
AM_ORTHO_VIEW_ORIENT
  2
AcDmOrthoViewOr
  3
AcMechDwgViewMgmt
 90
    32768
280
     0
281
     0
  0
CLASS
  1
AM_ORTHO_VIEW
  2
AcDmOrthoView
  3
AcMechDwgViewMgmt
 90
    32768
280
     0
281
     0
  0
CLASS
  1
ACDMPARTVIEWDATA
  2
AcDmPartViewData
  3
AcMechDwgViewMgmt
 90
    32768
280
     0
281
     0
  0
CLASS
  1
ACDMDISPLAYATTRIBS
  2
AcDmDisplayAttribs
  3
AcMechDwgViewMgmt
 90
    32768
280
     0
281
     0
  0
CLASS
  1
ACDMBODYINSTANCEDATA
  2
AcDmBodyInstanceData
  3
AcMechDwgViewMgmt
 90
    32768
280
     0
281
     0
  0
CLASS
  1
ACDMVWEDLINE
  2
AcDmViewEdgeLine
  3
AcMechDwgViewMgmt
 90
    32768
280
     0
281
     1
  0
CLASS
  1
ACDMVWEDARC
  2
AcDmViewEdgeArc
  3
AcMechDwgViewMgmt
 90
    32768
280
     0
281
     1
  0
CLASS
  1
ACADSKETCHPOINTRES
  2
AcAdSketchPointRes
  3
DesignerServices
 90
    32768
280
     0
281
     0
  0
CLASS
  1
AM_VIEWDIMLINEAR
  2
AcDmViewDimLinear
  3
AcMechDwgViewMgmt
 90
    32768
280
     0
281
     0
  0
CLASS
  1
AMDTDMPARMAPDATA
  2
AmdtDmDimParMapData
  3
AcMechDwgViewMgmt
 90
    32768
280
     0
281
     0
  0
CLASS
  1
AM_ADLINCTRLINE
  2
AcAdLineCl
  3
DesignerServices
 90
    32768
280
     0
281
     0
  0
CLASS
  1
ACDMVWEDCIRC
  2
AcDmViewEdgeCircle
  3
AcMechDwgViewMgmt
 90
    32768
280
     0
281
     1
  0
CLASS
  1
AM_ADCIRCTRLINE
  2
AcAdBullsEyeCl
  3
DesignerServices
 90
    32768
280
     0
281
     0
  0
CLASS
  1
AD_CIRCTAPH
  2
AcAdTapHoleCircDisp
  3
DesignerServices
 90
    32768
280
     0
281
     0
  0
CLASS
  1
ACDMVIEWGEOM
  2
AcDmViewGeometry
  3
AcMechDwgViewMgmt
 90
    32768
280
     0
281
     1
  0
CLASS
  1
FACEID
  2
AcAdFaceId
  3
DesignerServices
 90
    32768
280
     0
281
     0
  0
CLASS
  1
ACADPARTPLANARFACERES
  2
AcAdPartPlanarFaceRes
  3
AdGrefServices
 90
    32768
280
     0
281
     0
  0
CLASS
  1
AM_GREF_PLANE
  2
AcDmGrefPlnDef
  3
AcMechDwgViewMgmt
 90
    32768
280
     0
281
     0
  0
CLASS
  1
ACADPARTLINEDGRES
  2
AcAdPartLinEdgRes
  3
AdGrefServices
 90
    32768
280
     0
281
     0
  0
CLASS
  1
AM_GREF_AXIS
  2
AcDmGrefAxisDef
  3
AcMechDwgViewMgmt
 90
    32768
280
     0
281
     0
  0
CLASS
  1
AMDTEXTERNALTHREAD
  2
AmdtExternalThreadFeat
  3
DesignerServices
 90
    32768
280
     0
281
     0
  0
CLASS
  1
THREADDISPLAY
  2
AcAdThreadDisplay
  3
DesignerServices
 90
    32768
280
     0
281
     1
  0
CLASS
  1
AD_LINETAPH
  2
AcAdTapHoleLineDisp
  3
DesignerServices
 90
    32768
280
     0
281
     0
  0
CLASS
  1
ADRADDISP
  2
AcAdRadiusDisplay
  3
DesignerServices
 90
    32768
280
     0
281
     1
  0
CLASS
  1
ACDBLINERES
  2
AcDbLineRes
  3
AcGrefServices
 90
    32768
280
     0
281
     0
  0
CLASS
  1
ACADPARTCONICALFACERES
  2
AcAdPartConicalFaceRes
  3
AdGrefServices
 90
    32768
280
     0
281
     0
  0
CLASS
  1
ACDMGREFEDIT
  2
AcDmViewEntityGeomrefEdit
  3
AcMechDwgViewMgmt
 90
    32768
280
     0
281
     0
  0
CLASS
  1
ACDMVIEWLINEDGERES
  2
AcDmViewLinEdgeRes
  3
AcMechDwgViewMgmt
 90
    32768
280
     0
281
     0
  0
CLASS
  1
SILEDGEID
  2
AcAdSilhouetteEdgeId
  3
DesignerServices
 90
    32768
280
     0
281
     0
  0
CLASS
  1
ACADPARTCYLINDERFACERES
  2
AcAdPartCylinderFaceRes
  3
AdGrefServices
 90
    32768
280
     0
281
     0
  0
CLASS
  1
CNRREFID
  2
AcAdCornerId
  3
DesignerServices
 90
    32768
280
     0
281
     0
  0
CLASS
  1
ACADPARTPOINTRES
  2
AcAdPartPointRes
  3
AdGrefServices
 90
    32768
280
     0
281
     0
  0
CLASS
  1
ACADPARTCIRCEDGRES
  2
AcAdPartCircEdgRes
  3
AdGrefServices
 90
    32768
280
     0
281
     0
  0
CLASS
  1
ACRFDMINSADJ
  2
AcRfDMInsAdjuster
  3
AcMechDwgViewMgmt
 90
    32768
280
     0
281
     0
  0
CLASS
  1
AM_VIEWDIMRADIUS
  2
AcDmViewDimRadius
  3
AcMechDwgViewMgmt
 90
    32768
280
     0
281
     0
  0
CLASS
  1
ACADPARTDATUMPLANERES
  2
AcAdPartDatumPlaneRes
  3
AdGrefServices
 90
    32768
280
     0
281
     0
  0
CLASS
  1
AM_FULLPLANESECTION
  2
AcDmFullPlaneSection
  3
AcMechDwgViewMgmt
 90
    32768
280
     0
281
     0
  0
CLASS
  1
AMDTSECTIONSYM
  2
AmdtSectionSym
  3
"AcmSymBB|Product Description: AutoCAD Mechanical 2000|Company: Autodesk"
 90
    33791
280
     0
281
     1
  0
CLASS
  1
AM_VWNOTEADAPTER
  2
AcDmViewAnnotAdapter
  3
AcMechDwgViewMgmt
 90
    32768
280
     0
281
     0
  0
CLASS
  1
AMDTSECTIONSYMLABEL
  2
AmdtSectionSymLabel
  3
"AcmSymBB|Product Description: AutoCAD Mechanical 2000|Company: Autodesk"
 90
    33791
280
     0
281
     1
  0
CLASS
  1
AMDTNOTE
  2
AmdtNote
  3
"AcmSymBB|Product Description: AutoCAD Mechanical 2000|Company: Autodesk"
 90
    33791
280
     0
281
     1
  0
CLASS
  1
DIMASSOC
  2
AcDbDimAssoc
  3
"AcDbDimAssoc|Product Desc:     AcDim ARX App For Dimension|Company:          Autodesk, Inc.|WEB Address:      www.autodesk.com"
 90
    32768
280
     0
281
     0
  0
CLASS
  1
ACMSTANDARDANSI
  2
AcmStandardANSI
  3
"Amdt_StdImp|Product Description: AutoCAD Mechanical 2000|Company: Autodesk"
 90
    32768
280
     0
281
     0
  0
CLASS
  1
ACMSURFSTANDARDANSI
  2
AcmSurfTextStdANSI
  3
"Amdt_StdImp|Product Description: AutoCAD Mechanical 2000|Company: Autodesk"
 90
    32768
280
     0
281
     0
  0
CLASS
  1
ACMFCFSTANDARDANSI
  2
AcmFCFStdANSI
  3
"Amdt_StdImp|Product Description: AutoCAD Mechanical 2000|Company: Autodesk"
 90
    32768
280
     0
281
     0
  0
CLASS
  1
ACMWELDSTANDARDANSI
  2
AcmWeldingStdANSI
  3
"Amdt_StdImp|Product Description: AutoCAD Mechanical 2000|Company: Autodesk"
 90
    32768
280
     0
281
     0
  0
CLASS
  1
ACMIDSTANDARDANSI
  2
AcmIdStdANSI
  3
"Amdt_StdImp|Product Description: AutoCAD Mechanical 2000|Company: Autodesk"
 90
    32768
280
     0
281
     0
  0
CLASS
  1
ACMDATUMSTANDARDANSI
  2
AcmDatumStdANSI
  3
"Amdt_StdImp|Product Description: AutoCAD Mechanical 2000|Company: Autodesk"
 90
    32768
280
     0
281
     0
  0
CLASS
  1
ACMBOMSTANDARDANSI
  2
AcmBOMStdANSI
  3
"Amdt_StdImp|Product Description: AutoCAD Mechanical 2000|Company: Autodesk"
 90
    32768
280
     0
281
     0
  0
CLASS
  1
ACMDETAILSTANDARDANSI
  2
AmdtDetailSymStdANSI
  3
"Amdt_StdImp|Product Description: AutoCAD Mechanical 2000|Company: Autodesk"
 90
    32768
280
     0
281
     0
  0
CLASS
  1
ACMSECTIONSTANDARDANSI
  2
AmdtSectionSymStdANSI
  3
"Amdt_StdImp|Product Description: AutoCAD Mechanical 2000|Company: Autodesk"
 90
    32768
280
     0
281
     0
  0
CLASS
  1
ACMCENTERLINESTANDARDANSI
  2
AmdtCenterLineStdANSI
  3
"Amdt_StdImp|Product Description: AutoCAD Mechanical 2000|Company: Autodesk"
 90
    32768
280
     0
281
     0
  0
CLASS
  1
ACMNOTESTANDARDANSI
  2
AmdtNoteStdANSI
  3
"Amdt_StdImp|Product Description: AutoCAD Mechanical 2000|Company: Autodesk"
 90
    32768
280
     0
281
     0
  0
CLASS
  1
ACAMGHOLECHARTSTDANSI
  2
AcAmgHoleChartStdANSI
  3
ACMSYMBB_MODULE_NAME
 90
    32768
280
     0
281
     0
  0
CLASS
  1
ACDBCIRCARCRES
  2
AcDbCircArcRes
  3
AcGrefServices
 90
    32768
280
     0
281
     0
  0
CLASS
  1
STDPART2D
  2
AmgStdPart
  3
"AmgStdPart|Product Description: AutoCAD Mechanical 2000|Company: Autodesk"
 90
    33791
280
     0
281
     1
  0
CLASS
  1
LONG_TRANSACTION
  2
AcDbLongTransaction
  3
AutoCAD 2000
 90
    32768
280
     0
281
     0
  0
CLASS
  1
LWPOLYLINE
  2
AcDbPolyline
  3
AutoCAD 2000
 90
    32768
280
     0
281
     1
  0
CLASS
  1
HATCH
  2
AcDbHatch
  3
AutoCAD 2000
 90
    32768
280
     0
281
     1
  0
CLASS
  1
XRECORD
  2
AcDbXrecord
  3
AutoCAD 2000
 90
    32768
280
     0
281
     0
  0
ENDSEC
  0
SECTION
  2
TABLES
  0
TABLE
  2
VPORT
  5
1A
330
0
100
AcDbSymbolTable
 70
     6
  0
VPORT
  5
37F7
330
1A
100
AcDbSymbolTableRecord
100
AcDbViewportTableRecord
  2
*ACTIVE
 70
     0
 10
0.0
 20
0.0
 11
1.0
 21
1.0
 12
1037.145272484618
 22
247.6451505090559
 13
0.0
 23
0.0
 14
2.5
 24
2.5
 15
10.0
 25
10.0
 16
0.0
 26
0.0
 36
1.0
 17
0.0
 27
0.0
 37
0.0
 40
310.1243404713444
 41
1.765124555160142
 42
50.0
 43
0.0
 44
0.0
 50
0.0
 51
0.0
 71
     0
 72
   100
 73
     1
 74
     3
 75
     0
 76
     0
 77
     0
 78
     0
  0
ENDTAB
  0
TABLE
  2
LTYPE
  5
15
330
0
100
AcDbSymbolTable
 70
    16
  0
LTYPE
  5
16
330
15
100
AcDbSymbolTableRecord
100
AcDbLinetypeTableRecord
  2
BYBLOCK
 70
     0
  3

 72
    65
 73
     0
 40
0.0
  0
LTYPE
  5
17
330
15
100
AcDbSymbolTableRecord
100
AcDbLinetypeTableRecord
  2
BYLAYER
 70
     0
  3

 72
    65
 73
     0
 40
0.0
  0
LTYPE
  5
9
330
15
100
AcDbSymbolTableRecord
100
AcDbLinetypeTableRecord
  2
CONTINUOUS
 70
     0
  3
Solid line
 72
    65
 73
     0
 40
0.0
  0
LTYPE
  5
161
330
15
100
AcDbSymbolTableRecord
100
AcDbLinetypeTableRecord
  2
HIDDEN
 70
     0
  3
Hidden __ __ __ __ __ __ __ __ __ __ __ __ __ _
 72
    65
 73
     2
 40
9.524999999999998
 49
6.349999999999999
 74
     0
 49
-3.174999999999999
 74
     0
  0
LTYPE
  5
BF
330
15
100
AcDbSymbolTableRecord
100
AcDbLinetypeTableRecord
  2
AM_ISO08W050
 70
     0
  3
____ . ____ . ____ . ____ . ____ . ____ . ____
 72
    65
 73
     4
 40
18.0
 49
12.0
 74
     0
 49
-1.5
 74
     0
 49
3.0
 74
     0
 49
-1.5
 74
     0
  0
LTYPE
  5
1FD
330
15
100
AcDbSymbolTableRecord
100
AcDbLinetypeTableRecord
  2
AM_ISO02W050
 70
     0
  3
__ __ __ __ __ __ __ __ __ __ __ __ __ __ __
 72
    65
 73
     2
 40
7.5
 49
6.0
 74
     0
 49
-1.5
 74
     0
  0
LTYPE
  5
1FE
330
15
100
AcDbSymbolTableRecord
100
AcDbLinetypeTableRecord
  2
AM_ISO09W050
 70
     0
  3
_____ . . _____ . . _____ . . ____ .. ____
 72
    65
 73
     6
 40
22.5
 49
12.0
 74
     0
 49
-1.5
 74
     0
 49
3.0
 74
     0
 49
-1.5
 74
     0
 49
3.0
 74
     0
 49
-1.5
 74
     0
  0
LTYPE
  5
1FF
330
15
100
AcDbSymbolTableRecord
100
AcDbLinetypeTableRecord
  2
AMCONSTR
 70
     0
  3
_______________________
 72
    65
 73
     2
 40
9999.0
 49
9999.0
 74
     0
 49
0.0
 74
     0
  0
LTYPE
  5
200
330
15
100
AcDbSymbolTableRecord
100
AcDbLinetypeTableRecord
  2
AM_ISO08W050X2
 70
     0
  3
__ . __ . __ . __ . __ . __
 72
    65
 73
     4
 40
9.0
 49
6.0
 74
     0
 49
-0.75
 74
     0
 49
1.5
 74
     0
 49
-0.75
 74
     0
  0
LTYPE
  5
201
330
15
100
AcDbSymbolTableRecord
100
AcDbLinetypeTableRecord
  2
AM_ISO02W050X2
 70
     0
  3
 _ _ _ _ _ _ _ _ _ _ _ _
 72
    65
 73
     2
 40
3.75
 49
3.0
 74
     0
 49
-0.75
 74
     0
  0
LTYPE
  5
204
330
15
100
AcDbSymbolTableRecord
100
AcDbLinetypeTableRecord
  2
AMZIGZAG
 70
     0
  3
/\/-/\/-/\/-/\/-/\/-/\/
 72
    65
 73
     2
 40
11.00009999999999
 49
0.0001
 74
     4
 75
   135
340
203
 46
0.04
 50
0.0
 44
0.0
 45
0.0
 49
-11.0
 74
     0
  0
LTYPE
  5
211
330
15
100
AcDbSymbolTableRecord
100
AcDbLinetypeTableRecord
  2
ACISOWELD
 70
     0
  3
_ _ _ _ _
 72
    65
 73
     2
 40
2.0
 49
2.0
 74
     0
 49
-1.0
 74
     0
  0
LTYPE
  5
212
330
15
100
AcDbSymbolTableRecord
100
AcDbLinetypeTableRecord
  2
ACISOTGB
 70
     0
  3
__ . . __ . .
 72
    65
 73
     6
 40
9.0
 49
4.0
 74
     0
 49
-1.0
 74
     0
 49
1.0
 74
     0
 49
-1.0
 74
     0
 49
1.0
 74
     0
 49
-1.0
 74
     0
  0
LTYPE
  5
213
330
15
100
AcDbSymbolTableRecord
100
AcDbLinetypeTableRecord
  2
ACISOTGL
 70
     0
  3
_ _ _ _ _
 72
    65
 73
     2
 40
3.0
 49
2.0
 74
     0
 49
-1.0
 74
     0
  0
LTYPE
  5
214
330
15
100
AcDbSymbolTableRecord
100
AcDbLinetypeTableRecord
  2
CENTER
 70
     0
  3
__ . __
 72
    65
 73
     4
 40
7.0
 49
4.0
 74
     0
 49
-1.0
 74
     0
 49
1.0
 74
     0
 49
-1.0
 74
     0
  0
LTYPE
  5
1112
330
15
100
AcDbSymbolTableRecord
100
AcDbLinetypeTableRecord
  2
PHANTOM2
 70
     0
  3
Phantom (.5x) ___ _ _ ___ _ _ ___ _ _ ___ _ _
 72
    65
 73
     6
 40
1.25
 49
0.625
 74
     0
 49
-0.125
 74
     0
 49
0.125
 74
     0
 49
-0.125
 74
     0
 49
0.125
 74
     0
 49
-0.125
 74
     0
  0
LTYPE
  5
1115
330
15
100
AcDbSymbolTableRecord
100
AcDbLinetypeTableRecord
  2
ACANSTGB
 70
     0
  3
__ . . __ . .
 72
    65
 73
     6
 40
0.35433070866
 49
0.15748031496
 74
     0
 49
-0.03937007874
 74
     0
 49
0.03937007874
 74
     0
 49
-0.03937007874
 74
     0
 49
0.03937007874
 74
     0
 49
-0.03937007874
 74
     0
  0
LTYPE
  5
1116
330
15
100
AcDbSymbolTableRecord
100
AcDbLinetypeTableRecord
  2
ACANSTGL
 70
     0
  3
_ _ _ _ _
 72
    65
 73
     2
 40
0.11811023622
 49
0.07874015748
 74
     0
 49
-0.03937007874
 74
     0
  0
ENDTAB
  0
TABLE
  2
LAYER
  5
11
330
0
100
AcDbSymbolTable
 70
    12
  0
LAYER
  5
5
330
11
100
AcDbSymbolTableRecord
100
AcDbLayerTableRecord
  2
0
 70
     0
 62
     7
  6
CONTINUOUS
  0
LAYER
  5
3B
330
11
100
AcDbSymbolTableRecord
100
AcDbLayerTableRecord
  2
DEFPOINTS
 70
     0
 62
     7
  6
CONTINUOUS
  0
LAYER
  5
14E
330
11
100
AcDbSymbolTableRecord
100
AcDbLayerTableRecord
  2
AM_5
 70
     0
 62
     5
  6
CONTINUOUS
  0
LAYER
  5
32
330
11
100
AcDbSymbolTableRecord
100
AcDbLayerTableRecord
  2
AM_PARDIM
 70
     0
 62
     5
  6
CONTINUOUS
  0
LAYER
  5
BE
330
11
100
AcDbSymbolTableRecord
100
AcDbLayerTableRecord
  2
AM_7
 70
     0
 62
     1
  6
AM_ISO08W050
  0
LAYER
  5
1117
330
11
100
AcDbSymbolTableRecord
100
AcDbLayerTableRecord
  2
HIDDEN
 70
     0
 62
     6
  6
HIDDEN
  0
LAYER
  5
1118
330
11
100
AcDbSymbolTableRecord
100
AcDbLayerTableRecord
  2
DIM
 70
     0
 62
     5
  6
CONTINUOUS
  0
LAYER
  5
1119
330
11
100
AcDbSymbolTableRecord
100
AcDbLayerTableRecord
  2
CENTER
 70
     0
 62
     1
  6
CENTER
  0
LAYER
  5
111A
330
11
100
AcDbSymbolTableRecord
100
AcDbLayerTableRecord
  2
LOGO
 70
     0
 62
     7
  6
CONTINUOUS
  0
LAYER
  5
2C66
330
11
100
AcDbSymbolTableRecord
100
AcDbLayerTableRecord
  2
AM_4N
 70
     0
 62
     3
  6
CONTINUOUS
  0
ENDTAB
  0
TABLE
  2
STYLE
  5
12
330
0
100
AcDbSymbolTable
 70
    11
  0
STYLE
  5
13
330
12
100
AcDbSymbolTableRecord
100
AcDbTextStyleTableRecord
  2
STANDARD
 70
     0
 40
0.0
 41
1.0
 50
0.0
 71
     0
 42
2.5
  3
ISOCP.SHX
  4
CHINESET.SHX
  0
STYLE
  5
152
330
12
100
AcDbSymbolTableRecord
100
AcDbTextStyleTableRecord
  2
ACISOTS
 70
     0
 40
1.0
 41
1.0
 50
0.0
 71
     0
 42
2.5
  3
isocp.shx
  4
chineset.shx
  0
STYLE
  5
203
330
12
100
AcDbSymbolTableRecord
100
AcDbTextStyleTableRecord
  2

 70
     1
 40
0.0
 41
1.0
 50
0.0
 71
     0
 42
2.5
  3
ltypeshp.shx
  4

  0
STYLE
  5
210
330
12
100
AcDbSymbolTableRecord
100
AcDbTextStyleTableRecord
  2
ACISOGDT
 70
     0
 40
0.0
 41
1.0
 50
0.0
 71
     0
 42
2.5
  3
amgdt.shx
  4

  0
STYLE
  5
356
330
12
100
AcDbSymbolTableRecord
100
AcDbTextStyleTableRecord
  2
CHINESET
 70
     0
 40
0.0
 41
1.0
 50
0.0
 71
     0
 42
2.5
  3
simplex.shx
  4
CHINESET.shx
  0
STYLE
  5
357
330
12
100
AcDbSymbolTableRecord
100
AcDbTextStyleTableRecord
  2
CHINA
 70
     0
 40
0.0
 41
1.0
 50
0.0
 71
     0
 42
3.0
  3
/rubon/c2
  4
/rubon/china
  0
STYLE
  5
111C
330
12
100
AcDbSymbolTableRecord
100
AcDbTextStyleTableRecord
  2
ROMANS
 70
     0
 40
0.0
 41
1.0
 50
0.0
 71
     0
 42
3.0
  3
ROMANS.SHX
  4
LMP
  0
STYLE
  5
111D
330
12
100
AcDbSymbolTableRecord
100
AcDbTextStyleTableRecord
  2
ROMANS1
 70
     0
 40
0.0
 41
1.0
 50
0.0
 71
     0
 42
3.0
  3
ROMANS.SHX
  4

  0
STYLE
  5
111E
330
12
100
AcDbSymbolTableRecord
100
AcDbTextStyleTableRecord
  2
LOGO
 70
     0
 40
0.0
 41
1.0
 50
0.0
 71
     0
 42
5.0
  3
LEI00DP.TTF
  4

1001
ACAD
1000
文鼎中粗隸
1071
    34865
  0
STYLE
  5
111F
330
12
100
AcDbSymbolTableRecord
100
AcDbTextStyleTableRecord
  2
ACANSTS
 70
     0
 40
1.0
 41
1.0
 50
0.0
 71
     0
 42
2.5
  3
romans.shx
  4
chineset.shx
  0
STYLE
  5
1120
330
12
100
AcDbSymbolTableRecord
100
AcDbTextStyleTableRecord
  2
ACANSGDT
 70
     0
 40
0.0
 41
1.0
 50
0.0
 71
     0
 42
2.5
  3
amgdtans.shx
  4

  0
ENDTAB
  0
TABLE
  2
VIEW
  5
18
330
0
100
AcDbSymbolTable
 70
     0
  0
ENDTAB
  0
TABLE
  2
UCS
  5
19
330
0
100
AcDbSymbolTable
 70
     0
  0
ENDTAB
  0
TABLE
  2
APPID
  5
1C
330
0
100
AcDbSymbolTable
 70
    24
  0
APPID
  5
1D
330
1C
100
AcDbSymbolTableRecord
100
AcDbRegAppTableRecord
  2
ACAD
 70
     0
  0
APPID
  5
41
330
1C
100
AcDbSymbolTableRecord
100
AcDbRegAppTableRecord
  2
AD_SKETCHDIM
 70
     0
  0
APPID
  5
42
330
1C
100
AcDbSymbolTableRecord
100
AcDbRegAppTableRecord
  2
ACAD_DIMASSOC_DIMLFAC
 70
     0
  0
APPID
  5
40
330
1C
100
AcDbSymbolTableRecord
100
AcDbRegAppTableRecord
  2
ACAD_DIMASSOC_CALC_DIMLFAC
 70
     0
  0
APPID
  5
1DF
330
1C
100
AcDbSymbolTableRecord
100
AcDbRegAppTableRecord
  2
MCAD_NO_VIS
 70
     0
  0
APPID
  5
1E0
330
1C
100
AcDbSymbolTableRecord
100
AcDbRegAppTableRecord
  2
ACAD_TEMP_GRAPHIC
 70
     0
  0
APPID
  5
1F1
330
1C
100
AcDbSymbolTableRecord
100
AcDbRegAppTableRecord
  2
ACATTRIBSERVICES
 70
     0
  0
APPID
  5
CAF
330
1C
100
AcDbSymbolTableRecord
100
AcDbRegAppTableRecord
  2
GENIUS_GENODEF_13
 70
     0
  0
APPID
  5
CB0
330
1C
100
AcDbSymbolTableRecord
100
AcDbRegAppTableRecord
  2
GENIUS_GENOBJ-N-DIM_13
 70
     0
  0
APPID
  5
CBC
330
1C
100
AcDbSymbolTableRecord
100
AcDbRegAppTableRecord
  2
GENIUS_GENDIM_13
 70
     0
  0
APPID
  5
CDC
330
1C
100
AcDbSymbolTableRecord
100
AcDbRegAppTableRecord
  2
GENIUS_GENDIMSH_14
 70
     0
  0
APPID
  5
E3C
330
1C
100
AcDbSymbolTableRecord
100
AcDbRegAppTableRecord
  2
GENIUS_GENOBJ-N-HTC_13
 70
     0
  0
APPID
  5
E3D
330
1C
100
AcDbSymbolTableRecord
100
AcDbRegAppTableRecord
  2
GENIUS_GENHATCH_13
 70
     0
  0
APPID
  5
E59
330
1C
100
AcDbSymbolTableRecord
100
AcDbRegAppTableRecord
  2
DCO15
 70
     0
  0
APPID
  5
1128
330
1C
100
AcDbSymbolTableRecord
100
AcDbRegAppTableRecord
  2
GENIUS_GENOENT_13
 70
     0
  0
APPID
  5
1129
330
1C
100
AcDbSymbolTableRecord
100
AcDbRegAppTableRecord
  2
GENIUS_GENOLIS_13
 70
     0
  0
APPID
  5
112A
330
1C
100
AcDbSymbolTableRecord
100
AcDbRegAppTableRecord
  2
GENIUS_GENOBJ-N-CRS_13
 70
     0
  0
APPID
  5
112B
330
1C
100
AcDbSymbolTableRecord
100
AcDbRegAppTableRecord
  2
GENIUS_GENOREF_13
 70
     0
  0
APPID
  5
2637
330
1C
100
AcDbSymbolTableRecord
100
AcDbRegAppTableRecord
  2
GEVID1054773670
 70
     0
  0
APPID
  5
2638
330
1C
100
AcDbSymbolTableRecord
100
AcDbRegAppTableRecord
  2
GEVDC
 70
     0
  0
APPID
  5
2639
330
1C
100
AcDbSymbolTableRecord
100
AcDbRegAppTableRecord
  2
GEVRADREF
 70
     0
  0
APPID
  5
263D
330
1C
100
AcDbSymbolTableRecord
100
AcDbRegAppTableRecord
  2
GENIUS_GENBH_13
 70
     0
  0
APPID
  5
2640
330
1C
100
AcDbSymbolTableRecord
100
AcDbRegAppTableRecord
  2
GENIUS_GENOBJ-NBEHI-BHF_13
 70
     0
  0
APPID
  5
2642
330
1C
100
AcDbSymbolTableRecord
100
AcDbRegAppTableRecord
  2
GENIUS_GENOBJ-NBEHI-BHB_13
 70
     0
  0
ENDTAB
  0
TABLE
  2
DIMSTYLE
  5
1E
330
0
100
AcDbSymbolTable
 70
    14
  0
DIMSTYLE
105
1F
102
{ACAD_REACTORS
330
31
330
43
330
52
330
5F
330
6C
330
79
330
86
330
95
330
A3
330
B0
330
2D25
330
2DEA
330
2D22
330
2D1F
330
2D76
330
2E22
330
3697
102
}
330
1E
100
AcDbSymbolTableRecord
100
AcDbDimStyleTableRecord
  2
AM_ISO
 70
     0
  3

  4
"
  5

  6

  7

 40
1.2
 41
3.0
 42
2.0
 43
8.0
 44
1.5
 45
0.0
 46
0.0
 47
0.1
 48
0.1
140
3.0
141
0.0
142
0.0
143
0.0393701
144
1.0
145
0.0
146
0.71
147
1.0
 71
     0
 72
     0
 73
     0
 74
     0
 75
     0
 76
     0
 77
     1
 78
     8
170
     0
171
     2
172
     1
173
     0
174
     0
175
     0
176
   256
177
   256
178
   256
270
     2
271
     2
272
     2
273
     2
274
     2
340
357
275
     0
280
     0
281
     0
282
     0
283
     0
284
     8
285
     0
286
     0
287
     3
288
     0
  0
DIMSTYLE
105
217
330
1E
100
AcDbSymbolTableRecord
100
AcDbDimStyleTableRecord
  2
AM_ISO$3
 70
     0
  3

  4
"
  5

  6

  7

 40
1.2
 41
3.0
 42
2.0
 43
8.0
 44
1.5
 45
0.0
 46
0.0
 47
0.1
 48
0.1
140
3.0
141
0.0
142
0.0
143
0.0393701
144
1.0
145
0.0
146
0.71
147
1.0
 71
     0
 72
     0
 73
     0
 74
     1
 75
     0
 76
     0
 77
     1
 78
     8
170
     0
171
     2
172
     0
173
     0
174
     0
175
     0
176
   256
177
   256
178
   256
270
     2
271
     2
272
     2
273
     2
274
     2
340
357
275
     0
280
     0
281
     0
282
     0
283
     0
284
     8
285
     0
286
     0
287
     0
288
     1
  0
DIMSTYLE
105
218
330
1E
100
AcDbSymbolTableRecord
100
AcDbDimStyleTableRecord
  2
AM_ISO$4
 70
     0
  3

  4
"
  5

  6

  7

 40
1.2
 41
3.0
 42
2.0
 43
8.0
 44
1.5
 45
0.0
 46
0.0
 47
0.1
 48
0.1
140
3.0
141
0.0
142
0.0
143
0.0393701
144
1.0
145
0.0
146
0.71
147
1.0
 71
     0
 72
     0
 73
     0
 74
     1
 75
     0
 76
     0
 77
     1
 78
     8
170
     0
171
     2
172
     0
173
     0
174
     0
175
     0
176
   256
177
   256
178
   256
270
     2
271
     2
272
     2
273
     2
274
     2
340
357
275
     0
280
     0
281
     0
282
     0
283
     0
284
     8
285
     0
286
     0
287
     0
288
     1
  0
DIMSTYLE
105
219
330
1E
100
AcDbSymbolTableRecord
100
AcDbDimStyleTableRecord
  2
AM_ISO$6
 70
     0
  3

  4
"
  5

  6

  7

 40
1.2
 41
3.0
 42
2.0
 43
8.0
 44
1.5
 45
0.0
 46
0.0
 47
0.1
 48
0.1
140
3.0
141
0.0
142
0.0
143
0.0393701
144
1.0
145
0.0
146
0.71
147
1.0
 71
     0
 72
     0
 73
     0
 74
     0
 75
     0
 76
     0
 77
     0
 78
     8
170
     0
171
     2
172
     1
173
     0
174
     0
175
     0
176
   256
177
   256
178
   256
270
     2
271
     2
272
     2
273
     2
274
     2
340
357
275
     0
280
     0
281
     0
282
     0
283
     0
284
     8
285
     0
286
     0
287
     3
288
     0
  0
DIMSTYLE
105
21A
330
1E
100
AcDbSymbolTableRecord
100
AcDbDimStyleTableRecord
  2
AM_ISO$7
 70
     0
  3

  4
"
  5

  6

  7

 40
1.2
 41
2.5
 42
2.0
 43
8.0
 44
1.5
 45
0.0
 46
0.0
 47
0.1
 48
0.1
140
5.0
141
0.0
142
0.0
143
0.0393701
144
1.0
145
0.0
146
0.71
147
1.5
 71
     0
 72
     0
 73
     0
 74
     0
 75
     0
 76
     0
 77
     1
 78
     8
170
     0
171
     2
172
     1
173
     0
174
     0
175
     0
176
   256
177
   256
178
   256
270
     2
271
     2
272
     2
273
     2
274
     2
340
357
275
     0
280
     0
281
     0
282
     0
283
     0
284
     8
285
     0
286
     0
287
     3
288
     0
  0
DIMSTYLE
105
21B
330
1E
100
AcDbSymbolTableRecord
100
AcDbDimStyleTableRecord
  2
AM_ISO$SF
 70
     0
  3

  4
"
  5

  6

  7

 40
1.0
 41
3.0
 42
2.0
 43
5.0
 44
1.5
 45
0.0
 46
0.0
 47
0.1
 48
0.1
140
3.0
141
0.0
142
0.0
143
0.0393701
144
1.0
145
0.0
146
0.71
147
1.0
 71
     0
 72
     0
 73
     0
 74
     0
 75
     1
 76
     1
 77
     1
 78
     8
170
     0
171
     2
172
     1
173
     0
174
     0
175
     0
176
   256
177
   256
178
     5
270
     2
271
     2
272
     2
273
     2
274
     2
340
13
275
     0
280
     0
281
     0
282
     0
283
     0
284
     8
285
     0
286
     0
287
     3
288
     0
  0
DIMSTYLE
105
220
330
1E
100
AcDbSymbolTableRecord
100
AcDbDimStyleTableRecord
  2
AM_ISO$SH
 70
     0
  3

  4
"
  5

  6
GENAXEH
  7

 40
1.0
 41
3.0
 42
2.0
 43
5.0
 44
1.5
 45
0.0
 46
0.0
 47
0.1
 48
0.1
140
3.0
141
0.0
142
0.0
143
0.0393701
144
2.0
145
0.0
146
0.71
147
1.0
 71
     0
 72
     0
 73
     0
 74
     0
 75
     1
 76
     1
 77
     1
 78
     8
170
     0
171
     2
172
     1
173
     1
174
     0
175
     0
176
   256
177
   256
178
     5
270
     2
271
     2
272
     2
273
     2
274
     2
340
13
275
     0
280
     0
281
     0
282
     0
283
     0
284
     8
285
     0
286
     0
287
     3
288
     0
  0
DIMSTYLE
105
1121
330
1E
100
AcDbSymbolTableRecord
100
AcDbDimStyleTableRecord
  2
STANDARD
 70
     0
  3

  4

  5

  6

  7

 40
1.0
 41
0.18
 42
0.0625
 43
0.38
 44
0.18
 45
0.0
 46
0.0
 47
0.0
 48
0.0
140
0.18
141
0.09
142
0.0
143
25.4
144
1.0
145
0.0
146
1.0
147
0.09
 71
     0
 72
     0
 73
     1
 74
     1
 75
     0
 76
     0
 77
     0
 78
     0
170
     0
171
     2
172
     0
173
     0
174
     0
175
     0
176
     0
177
     0
178
     0
270
     2
271
     4
272
     4
273
     2
274
     2
340
13
275
     0
280
     0
281
     0
282
     0
283
     1
284
     0
285
     0
286
     0
287
     3
288
     0
  0
DIMSTYLE
105
1122
330
1E
100
AcDbSymbolTableRecord
100
AcDbDimStyleTableRecord
  2
AM_ANSI
 70
     0
  3

  4
mm
  5

  6

  7

 40
1.0
 41
0.1
 42
0.05
 43
0.5
 44
0.1
 45
0.0
 46
0.0
 47
0.1
 48
0.1
140
0.12
141
0.0
142
0.0
143
25.4
144
1.0
145
0.0
146
0.71
147
0.06
 71
     0
 72
     0
 73
     1
 74
     1
 75
     0
 76
     0
 77
     0
 78
     7
170
     0
171
     2
172
     0
173
     0
174
     0
175
     0
176
   256
177
   256
178
     2
270
     2
271
     4
272
     4
273
     2
274
     4
340
13
275
     0
280
     0
281
     0
282
     0
283
     1
284
     7
285
     0
286
     0
287
     3
288
     0
  0
DIMSTYLE
105
1123
330
1E
100
AcDbSymbolTableRecord
100
AcDbDimStyleTableRecord
  2
AM_ANSI$3
 70
     0
  3

  4
mm
  5

  6

  7

 40
1.0
 41
0.1
 42
0.05
 43
0.5
 44
0.1
 45
0.0
 46
0.0
 47
0.1
 48
0.1
140
0.12
141
0.0
142
0.0
143
25.4
144
1.0
145
0.0
146
0.71
147
0.06
 71
     0
 72
     0
 73
     1
 74
     1
 75
     0
 76
     0
 77
     0
 78
     7
170
     0
171
     2
172
     0
173
     0
174
     0
175
     0
176
   256
177
   256
178
     2
270
     2
271
     4
272
     4
273
     2
274
     4
340
13
275
     0
280
     0
281
     0
282
     0
283
     1
284
     7
285
     0
286
     0
287
     0
288
     1
  0
DIMSTYLE
105
1124
330
1E
100
AcDbSymbolTableRecord
100
AcDbDimStyleTableRecord
  2
AM_ANSI$4
 70
     0
  3

  4
mm
  5

  6

  7

 40
1.0
 41
0.1
 42
0.05
 43
0.5
 44
0.1
 45
0.0
 46
0.0
 47
0.1
 48
0.1
140
0.12
141
0.0
142
0.0
143
25.4
144
1.0
145
0.0
146
0.71
147
0.06
 71
     0
 72
     0
 73
     1
 74
     1
 75
     0
 76
     0
 77
     0
 78
     7
170
     0
171
     2
172
     0
173
     0
174
     0
175
     0
176
   256
177
   256
178
     2
270
     2
271
     4
272
     4
273
     2
274
     4
340
13
275
     0
280
     0
281
     0
282
     0
283
     1
284
     7
285
     0
286
     0
287
     0
288
     1
  0
DIMSTYLE
105
1125
330
1E
100
AcDbSymbolTableRecord
100
AcDbDimStyleTableRecord
  2
AM_ANSI$7
 70
     0
  3

  4
mm
  5

  6

  7

 40
1.0
 41
0.1
 42
0.05
 43
0.5
 44
0.1
 45
0.0
 46
0.0
 47
0.1
 48
0.1
140
0.24
141
0.0
142
0.0
143
25.4
144
1.0
145
0.0
146
0.71
147
0.06
 71
     0
 72
     0
 73
     1
 74
     1
 75
     0
 76
     0
 77
     0
 78
     7
170
     0
171
     2
172
     0
173
     0
174
     0
175
     0
176
   256
177
   256
178
     2
270
     2
271
     4
272
     4
273
     2
274
     4
340
13
275
     0
280
     0
281
     0
282
     0
283
     1
284
     7
285
     0
286
     0
287
     3
288
     0
  0
DIMSTYLE
105
1126
330
1E
100
AcDbSymbolTableRecord
100
AcDbDimStyleTableRecord
  2
AM_ANSI$SF
 70
     0
  3

  4
mm
  5

  6

  7

 40
1.0
 41
0.1
 42
0.05
 43
0.5
 44
0.1
 45
0.0
 46
0.0
 47
0.1
 48
0.1
140
0.12
141
0.0
142
0.0
143
25.4
144
1.0
145
0.0
146
0.71
147
0.06
 71
     0
 72
     0
 73
     1
 74
     1
 75
     1
 76
     1
 77
     0
 78
     7
170
     0
171
     2
172
     0
173
     0
174
     0
175
     0
176
   256
177
   256
178
     2
270
     2
271
     4
272
     4
273
     2
274
     4
340
13
275
     0
280
     0
281
     0
282
     0
283
     1
284
     7
285
     0
286
     0
287
     3
288
     0
  0
DIMSTYLE
105
1127
330
1E
100
AcDbSymbolTableRecord
100
AcDbDimStyleTableRecord
  2
AM_ANSI$SH
 70
     0
  3

  4
mm
  5

  6
GENAXEH
  7

 40
1.0
 41
0.1
 42
0.05
 43
0.5
 44
0.1
 45
0.0
 46
0.0
 47
0.1
 48
0.1
140
0.12
141
0.0
142
0.0
143
25.4
144
1.0
145
0.0
146
0.71
147
0.06
 71
     0
 72
     0
 73
     1
 74
     1
 75
     1
 76
     1
 77
     0
 78
     7
170
     0
171
     2
172
     0
173
     1
174
     0
175
     0
176
   256
177
   256
178
     2
270
     2
271
     4
272
     4
273
     2
274
     4
340
13
275
     0
280
     0
281
     0
282
     0
283
     1
284
     7
285
     0
286
     0
287
     3
288
     0
  0
ENDTAB
  0
TABLE
  2
BLOCK_RECORD
  5
1
330
0
100
AcDbSymbolTable
 70
    20
  0
BLOCK_RECORD
  5
2
102
{ACAD_XDICTIONARY
360
3
102
}
330
1
100
AcDbSymbolTableRecord
100
AcDbBlockTableRecord
  2
*MODEL_SPACE
  0
BLOCK_RECORD
  5
D
102
{ACAD_XDICTIONARY
360
37F9
102
}
330
1
100
AcDbSymbolTableRecord
100
AcDbBlockTableRecord
  2
*PAPER_SPACE
  0
BLOCK_RECORD
  5
21C
330
1
100
AcDbSymbolTableRecord
100
AcDbBlockTableRecord
  2
GENAXEH
  0
BLOCK_RECORD
  5
F83
330
1
100
AcDbSymbolTableRecord
100
AcDbBlockTableRecord
  2
*D1
  0
BLOCK_RECORD
  5
F8F
330
1
100
AcDbSymbolTableRecord
100
AcDbBlockTableRecord
  2
*D2
  0
BLOCK_RECORD
  5
F9D
330
1
100
AcDbSymbolTableRecord
100
AcDbBlockTableRecord
  2
*D3
  0
BLOCK_RECORD
  5
FA9
330
1
100
AcDbSymbolTableRecord
100
AcDbBlockTableRecord
  2
*D4
  0
BLOCK_RECORD
  5
FB5
330
1
100
AcDbSymbolTableRecord
100
AcDbBlockTableRecord
  2
*D5
  0
BLOCK_RECORD
  5
FC1
330
1
100
AcDbSymbolTableRecord
100
AcDbBlockTableRecord
  2
*D6
  0
BLOCK_RECORD
  5
FCD
330
1
100
AcDbSymbolTableRecord
100
AcDbBlockTableRecord
  2
*D7
  0
BLOCK_RECORD
  5
FDB
330
1
100
AcDbSymbolTableRecord
100
AcDbBlockTableRecord
  2
*D8
  0
BLOCK_RECORD
  5
FE8
330
1
100
AcDbSymbolTableRecord
100
AcDbBlockTableRecord
  2
*D9
  0
BLOCK_RECORD
  5
FF4
330
1
100
AcDbSymbolTableRecord
100
AcDbBlockTableRecord
  2
*D10
  0
BLOCK_RECORD
  5
1D96
330
1
100
AcDbSymbolTableRecord
100
AcDbBlockTableRecord
  2
GENDOT
  0
BLOCK_RECORD
  5
2D28
330
1
100
AcDbSymbolTableRecord
100
AcDbBlockTableRecord
  2
*D12
  0
BLOCK_RECORD
  5
2D34
330
1
100
AcDbSymbolTableRecord
100
AcDbBlockTableRecord
  2
*D13
  0
BLOCK_RECORD
  5
2D40
330
1
100
AcDbSymbolTableRecord
100
AcDbBlockTableRecord
  2
*D14
  0
BLOCK_RECORD
  5
2D77
330
1
100
AcDbSymbolTableRecord
100
AcDbBlockTableRecord
  2
*D15
  0
BLOCK_RECORD
  5
2DEB
330
1
100
AcDbSymbolTableRecord
100
AcDbBlockTableRecord
  2
*D16
  0
BLOCK_RECORD
  5
2E23
330
1
100
AcDbSymbolTableRecord
100
AcDbBlockTableRecord
  2
*D17
  0
BLOCK_RECORD
  5
3698
330
1
100
AcDbSymbolTableRecord
100
AcDbBlockTableRecord
  2
*D18
  0
BLOCK_RECORD
  5
3812
330
1
100
AcDbSymbolTableRecord
100
AcDbBlockTableRecord
  2
*S19
  0
ENDTAB
  0
ENDSEC
  0
SECTION
  2
BLOCKS
  0
BLOCK
  5
4
330
2
100
AcDbEntity
  8
0
100
AcDbBlockBegin
  2
*MODEL_SPACE
 70
     0
 10
0.0
 20
0.0
 30
0.0
  3
*MODEL_SPACE
  1

  0
ENDBLK
  5
A
330
2
100
AcDbEntity
  8
0
100
AcDbBlockEnd
  0
BLOCK
  5
E
330
D
100
AcDbEntity
 67
     1
  8
0
100
AcDbBlockBegin
  2
*PAPER_SPACE
 70
     0
 10
0.0
 20
0.0
 30
0.0
  3
*PAPER_SPACE
  1

  0
ENDBLK
  5
F
330
D
100
AcDbEntity
 67
     1
  8
0
100
AcDbBlockEnd
  0
BLOCK
  5
21E
330
21C
100
AcDbEntity
  8
0
100
AcDbBlockBegin
  2
GENAXEH
 70
     0
 10
0.0
 20
0.0
 30
0.0
  3
GENAXEH
  1

  0
LINE
  5
21D
330
21C
100
AcDbEntity
  8
0
100
AcDbLine
 10
-1.0
 20
0.0
 30
0.0
 11
1.0
 21
0.0
 31
0.0
  0
ENDBLK
  5
21F
330
21C
100
AcDbEntity
  8
0
100
AcDbBlockEnd
  0
BLOCK
  5
F8D
330
F83
100
AcDbEntity
  8
0
100
AcDbBlockBegin
  2
*D1
 70
     1
 10
0.0
 20
0.0
 30
0.0
  3
*D1
  1

  0
LINE
  5
2A0E
330
F83
100
AcDbEntity
  8
AM_PARDIM
100
AcDbLine
 10
77.77464887656421
 20
116.1938113892625
 30
0.0
 11
116.3325708695175
 21
116.1938113892624
 31
0.0
  0
LINE
  5
2A0F
330
F83
100
AcDbEntity
  8
AM_PARDIM
100
AcDbLine
 10
77.77464887656421
 20
128.6938113892625
 30
0.0
 11
116.3325708695175
 21
128.6938113892625
 31
0.0
  0
LINE
  5
2A10
330
F83
100
AcDbEntity
  8
AM_PARDIM
100
AcDbLine
 10
114.5325708695175
 20
119.7938113892624
 30
0.0
 11
114.5325708695175
 21
125.0938113892624
 31
0.0
  0
SOLID
  5
2A11
330
F83
100
AcDbEntity
  8
AM_PARDIM
100
AcDbTrace
 10
113.9325708695175
 20
119.7938113892624
 30
0.0
 11
115.1325708695175
 21
119.7938113892624
 31
0.0
 12
114.5325708695175
 22
116.1938113892624
 32
0.0
 13
114.5325708695175
 23
116.1938113892624
 33
0.0
  0
SOLID
  5
2A12
330
F83
100
AcDbEntity
  8
AM_PARDIM
100
AcDbTrace
 10
113.9325708695175
 20
125.0938113892624
 30
0.0
 11
115.1325708695175
 21
125.0938113892624
 31
0.0
 12
114.5325708695175
 22
128.6938113892625
 32
0.0
 13
114.5325708695175
 23
128.6938113892625
 33
0.0
  0
MTEXT
  5
2A13
330
F83
100
AcDbEntity
  8
AM_PARDIM
100
AcDbMText
 10
111.5228070899899
 20
122.4438113892625
 30
0.0
 40
3.6
 41
0.0
 71
     5
 72
     1
  1
12.5
  7
CHINA
 11
0.0000000000000001
 21
1.0
 31
0.0
1001
ACAD
1000
MTEXTBEGIN
1070
    73
1070
     1
1070
    44
1040
1.0
1070
    74
1070
     0
1000
MTEXTEND
  0
POINT
  5
2A14
330
F83
100
AcDbEntity
  8
DEFPOINTS
 62
     0
100
AcDbPoint
 10
75.37464887656421
 20
116.1938113892625
 30
0.0
  0
POINT
  5
2A15
330
F83
100
AcDbEntity
  8
DEFPOINTS
 62
     0
100
AcDbPoint
 10
75.37464887656421
 20
128.6938113892625
 30
0.0
  0
POINT
  5
2A16
330
F83
100
AcDbEntity
  8
DEFPOINTS
 62
     0
100
AcDbPoint
 10
114.5325708695175
 20
128.6938113892625
 30
0.0
  0
ENDBLK
  5
F8E
330
F83
100
AcDbEntity
  8
0
100
AcDbBlockEnd
  0
BLOCK
  5
F9B
330
F8F
100
AcDbEntity
  8
0
100
AcDbBlockBegin
  2
*D2
 70
     1
 10
0.0
 20
0.0
 30
0.0
  3
*D2
  1

  0
LINE
  5
2A17
330
F8F
100
AcDbEntity
  8
AM_PARDIM
100
AcDbLine
 10
36.47464887656421
 20
116.1938113892625
 30
0.0
 11
25.0746488765642
 21
116.1938113892625
 31
0.0
  0
LINE
  5
2A18
330
F8F
100
AcDbEntity
  8
AM_PARDIM
100
AcDbLine
 10
36.47464887656421
 20
122.1938113892624
 30
0.0
 11
25.0746488765642
 21
122.1938113892625
 31
0.0
  0
LINE
  5
2A19
330
F8F
100
AcDbEntity
  8
AM_PARDIM
100
AcDbLine
 10
26.8746488765642
 20
112.5938113892625
 30
0.0
 11
26.8746488765642
 21
108.9938113892624
 31
0.0
  0
LINE
  5
2A1A
330
F8F
100
AcDbEntity
  8
AM_PARDIM
100
AcDbLine
 10
26.87464887656421
 20
125.7938113892625
 30
0.0
 11
26.87464887656421
 21
129.3938113892625
 31
0.0
  0
LINE
  5
2A1B
330
F8F
100
AcDbEntity
  8
AM_PARDIM
100
AcDbLine
 10
26.8746488765642
 20
116.1938113892625
 30
0.0
 11
26.87464887656421
 21
122.1938113892625
 31
0.0
  0
SOLID
  5
2A1C
330
F8F
100
AcDbEntity
  8
AM_PARDIM
100
AcDbTrace
 10
26.2746488765642
 20
112.5938113892625
 30
0.0
 11
27.4746488765642
 21
112.5938113892625
 31
0.0
 12
26.8746488765642
 22
116.1938113892625
 32
0.0
 13
26.8746488765642
 23
116.1938113892625
 33
0.0
  0
SOLID
  5
2A1D
330
F8F
100
AcDbEntity
  8
AM_PARDIM
100
AcDbTrace
 10
26.27464887656421
 20
125.7938113892625
 30
0.0
 11
27.47464887656421
 21
125.7938113892625
 31
0.0
 12
26.87464887656421
 22
122.1938113892625
 32
0.0
 13
26.87464887656421
 23
122.1938113892625
 33
0.0
  0
MTEXT
  5
2A1E
330
F8F
100
AcDbEntity
  8
AM_PARDIM
100
AcDbMText
 10
23.87464887656418
 20
119.1938113892625
 30
0.0
 40
3.6
 41
0.0
 71
     5
 72
     1
  1
6
  7
CHINA
 11
0.0000000000000001
 21
1.0
 31
0.0
1001
ACAD
1000
MTEXTBEGIN
1070
    73
1070
     1
1070
    44
1040
1.0
1070
    74
1070
     0
1000
MTEXTEND
  0
POINT
  5
2A1F
330
F8F
100
AcDbEntity
  8
DEFPOINTS
 62
     0
100
AcDbPoint
 10
38.8746488765642
 20
116.1938113892625
 30
0.0
  0
POINT
  5
2A20
330
F8F
100
AcDbEntity
  8
DEFPOINTS
 62
     0
100
AcDbPoint
 10
38.8746488765642
 20
122.1938113892624
 30
0.0
  0
POINT
  5
2A21
330
F8F
100
AcDbEntity
  8
DEFPOINTS
 62
     0
100
AcDbPoint
 10
26.87464887656421
 20
122.1938113892625
 30
0.0
  0
ENDBLK
  5
F9C
330
F8F
100
AcDbEntity
  8
0
100
AcDbBlockEnd
  0
BLOCK
  5
FA7
330
F9D
100
AcDbEntity
  8
0
100
AcDbBlockBegin
  2
*D3
 70
     1
 10
0.0
 20
0.0
 30
0.0
  3
*D3
  1

  0
LINE
  5
2A22
330
F9D
100
AcDbEntity
  8
AM_PARDIM
100
AcDbLine
 10
38.8746488765642
 20
124.5938113892625
 30
0.0
 11
38.8746488765642
 21
142.4938113892625
 31
0.0
  0
LINE
  5
2A23
330
F9D
100
AcDbEntity
  8
AM_PARDIM
100
AcDbLine
 10
50.87464887656421
 20
124.5938113892625
 30
0.0
 11
50.87464887656421
 21
142.4938113892625
 31
0.0
  0
LINE
  5
2A24
330
F9D
100
AcDbEntity
  8
AM_PARDIM
100
AcDbLine
 10
42.47464887656421
 20
140.6938113892624
 30
0.0
 11
47.2746488765642
 21
140.6938113892624
 31
0.0
  0
SOLID
  5
2A25
330
F9D
100
AcDbEntity
  8
AM_PARDIM
100
AcDbTrace
 10
42.47464887656421
 20
141.2938113892624
 30
0.0
 11
42.47464887656421
 21
140.0938113892624
 31
0.0
 12
38.8746488765642
 22
140.6938113892624
 32
0.0
 13
38.8746488765642
 23
140.6938113892624
 33
0.0
  0
SOLID
  5
2A26
330
F9D
100
AcDbEntity
  8
AM_PARDIM
100
AcDbTrace
 10
47.2746488765642
 20
141.2938113892624
 30
0.0
 11
47.2746488765642
 21
140.0938113892624
 31
0.0
 12
50.87464887656421
 22
140.6938113892624
 32
0.0
 13
50.87464887656421
 23
140.6938113892624
 33
0.0
  0
MTEXT
  5
2A27
330
F9D
100
AcDbEntity
  8
AM_PARDIM
100
AcDbMText
 10
44.87464887656421
 20
143.6941263498924
 30
0.0
 40
3.6
 41
0.0
 71
     5
 72
     1
  1
12
  7
CHINA
1001
ACAD
1000
MTEXTBEGIN
1070
    73
1070
     1
1070
    44
1040
1.0
1070
    74
1070
     0
1000
MTEXTEND
  0
POINT
  5
2A28
330
F9D
100
AcDbEntity
  8
DEFPOINTS
 62
     0
100
AcDbPoint
 10
38.8746488765642
 20
122.1938113892624
 30
0.0
  0
POINT
  5
2A29
330
F9D
100
AcDbEntity
  8
DEFPOINTS
 62
     0
100
AcDbPoint
 10
50.87464887656421
 20
122.1938113892624
 30
0.0
  0
POINT
  5
2A2A
330
F9D
100
AcDbEntity
  8
DEFPOINTS
 62
     0
100
AcDbPoint
 10
50.87464887656421
 20
140.6938113892624
 30
0.0
  0
ENDBLK
  5
FA8
330
F9D
100
AcDbEntity
  8
0
100
AcDbBlockEnd
  0
BLOCK
  5
FB3
330
FA9
100
AcDbEntity
  8
0
100
AcDbBlockBegin
  2
*D4
 70
     1
 10
0.0
 20
0.0
 30
0.0
  3
*D4
  1

  0
LINE
  5
2A2B
330
FA9
100
AcDbEntity
  8
AM_PARDIM
100
AcDbLine
 10
38.8746488765642
 20
118.5938113892625
 30
0.0
 11
38.8746488765642
 21
162.4938113892624
 31
0.0
  0
LINE
  5
2A2C
330
FA9
100
AcDbEntity
  8
AM_PARDIM
100
AcDbLine
 10
75.37464887656421
 20
118.5938113892625
 30
0.0
 11
75.37464887656421
 21
162.4938113892624
 31
0.0
  0
LINE
  5
2A2D
330
FA9
100
AcDbEntity
  8
AM_PARDIM
100
AcDbLine
 10
42.47464887656421
 20
160.6938113892624
 30
0.0
 11
71.77464887656421
 21
160.6938113892624
 31
0.0
  0
SOLID
  5
2A2E
330
FA9
100
AcDbEntity
  8
AM_PARDIM
100
AcDbTrace
 10
42.47464887656421
 20
161.2938113892624
 30
0.0
 11
42.47464887656421
 21
160.0938113892625
 31
0.0
 12
38.8746488765642
 22
160.6938113892624
 32
0.0
 13
38.8746488765642
 23
160.6938113892624
 33
0.0
  0
SOLID
  5
2A2F
330
FA9
100
AcDbEntity
  8
AM_PARDIM
100
AcDbTrace
 10
71.77464887656421
 20
161.2938113892624
 30
0.0
 11
71.77464887656421
 21
160.0938113892625
 31
0.0
 12
75.37464887656421
 22
160.6938113892624
 32
0.0
 13
75.37464887656421
 23
160.6938113892624
 33
0.0
  0
MTEXT
  5
2A30
330
FA9
100
AcDbEntity
  8
AM_PARDIM
100
AcDbMText
 10
57.12464887656421
 20
163.7032602081601
 30
0.0
 40
3.6
 41
0.0
 71
     5
 72
     1
  1
36.5
  7
CHINA
1001
ACAD
1000
MTEXTBEGIN
1070
    73
1070
     1
1070
    44
1040
1.0
1070
    74
1070
     0
1000
MTEXTEND
  0
POINT
  5
2A31
330
FA9
100
AcDbEntity
  8
DEFPOINTS
 62
     0
100
AcDbPoint
 10
38.8746488765642
 20
116.1938113892625
 30
0.0
  0
POINT
  5
2A32
330
FA9
100
AcDbEntity
  8
DEFPOINTS
 62
     0
100
AcDbPoint
 10
75.37464887656421
 20
116.1938113892625
 30
0.0
  0
POINT
  5
2A33
330
FA9
100
AcDbEntity
  8
DEFPOINTS
 62
     0
100
AcDbPoint
 10
75.37464887656421
 20
160.6938113892624
 30
0.0
  0
ENDBLK
  5
FB4
330
FA9
100
AcDbEntity
  8
0
100
AcDbBlockEnd
  0
BLOCK
  5
FBF
330
FB5
100
AcDbEntity
  8
0
100
AcDbBlockBegin
  2
*D5
 70
     1
 10
0.0
 20
0.0
 30
0.0
  3
*D5
  1

  0
LINE
  5
2A34
330
FB5
100
AcDbEntity
  8
AM_PARDIM
100
AcDbLine
 10
53.27464887656421
 20
127.1938113892624
 30
0.0
 11
106.3325708695175
 21
127.1938113892624
 31
0.0
  0
LINE
  5
2A35
330
FB5
100
AcDbEntity
  8
AM_PARDIM
100
AcDbLine
 10
77.77464887656421
 20
116.1938113892625
 30
0.0
 11
106.3325708695175
 21
116.1938113892624
 31
0.0
  0
LINE
  5
2A36
330
FB5
100
AcDbEntity
  8
AM_PARDIM
100
AcDbLine
 10
104.5325708695175
 20
123.5938113892624
 30
0.0
 11
104.5325708695175
 21
119.7938113892624
 31
0.0
  0
SOLID
  5
2A37
330
FB5
100
AcDbEntity
  8
AM_PARDIM
100
AcDbTrace
 10
103.9325708695175
 20
123.5938113892624
 30
0.0
 11
105.1325708695175
 21
123.5938113892624
 31
0.0
 12
104.5325708695175
 22
127.1938113892624
 32
0.0
 13
104.5325708695175
 23
127.1938113892624
 33
0.0
  0
SOLID
  5
2A38
330
FB5
100
AcDbEntity
  8
AM_PARDIM
100
AcDbTrace
 10
103.9325708695175
 20
119.7938113892624
 30
0.0
 11
105.1325708695175
 21
119.7938113892624
 31
0.0
 12
104.5325708695175
 22
116.1938113892624
 32
0.0
 13
104.5325708695175
 23
116.1938113892624
 33
0.0
  0
MTEXT
  5
2A39
330
FB5
100
AcDbEntity
  8
AM_PARDIM
100
AcDbMText
 10
101.5325708695175
 20
121.6938113892625
 30
0.0
 40
3.6
 41
0.0
 71
     5
 72
     1
  1
11
  7
CHINA
 11
0.0000000000000001
 21
1.0
 31
0.0
1001
ACAD
1000
MTEXTBEGIN
1070
    73
1070
     1
1070
    44
1040
1.0
1070
    74
1070
     0
1000
MTEXTEND
  0
POINT
  5
2A3A
330
FB5
100
AcDbEntity
  8
DEFPOINTS
 62
     0
100
AcDbPoint
 10
50.87464887656421
 20
127.1938113892624
 30
0.0
  0
POINT
  5
2A3B
330
FB5
100
AcDbEntity
  8
DEFPOINTS
 62
     0
100
AcDbPoint
 10
75.37464887656421
 20
116.1938113892625
 30
0.0
  0
POINT
  5
2A3C
330
FB5
100
AcDbEntity
  8
DEFPOINTS
 62
     0
100
AcDbPoint
 10
104.5325708695175
 20
116.1938113892624
 30
0.0
  0
ENDBLK
  5
FC0
330
FB5
100
AcDbEntity
  8
0
100
AcDbBlockEnd
  0
BLOCK
  5
FCB
330
FC1
100
AcDbEntity
  8
0
100
AcDbBlockBegin
  2
*D6
 70
     1
 10
0.0
 20
0.0
 30
0.0
  3
*D6
  1

  0
LINE
  5
2A3D
330
FC1
100
AcDbEntity
  8
AM_PARDIM
100
AcDbLine
 10
66.3746488765642
 20
131.0938113892625
 30
0.0
 11
66.3746488765642
 21
152.4938113892624
 31
0.0
  0
LINE
  5
2A3E
330
FC1
100
AcDbEntity
  8
AM_PARDIM
100
AcDbLine
 10
75.37464887656421
 20
131.0938113892625
 30
0.0
 11
75.37464887656421
 21
152.4938113892624
 31
0.0
  0
LINE
  5
2A3F
330
FC1
100
AcDbEntity
  8
AM_PARDIM
100
AcDbLine
 10
62.77464887656421
 20
150.6938113892624
 30
0.0
 11
59.17464887656421
 21
150.6938113892624
 31
0.0
  0
LINE
  5
2A40
330
FC1
100
AcDbEntity
  8
AM_PARDIM
100
AcDbLine
 10
78.9746488765642
 20
150.6938113892624
 30
0.0
 11
82.57464887656421
 21
150.6938113892624
 31
0.0
  0
LINE
  5
2A41
330
FC1
100
AcDbEntity
  8
AM_PARDIM
100
AcDbLine
 10
66.3746488765642
 20
150.6938113892624
 30
0.0
 11
75.37464887656421
 21
150.6938113892624
 31
0.0
  0
SOLID
  5
2A42
330
FC1
100
AcDbEntity
  8
AM_PARDIM
100
AcDbTrace
 10
62.77464887656421
 20
151.2938113892625
 30
0.0
 11
62.77464887656421
 21
150.0938113892624
 31
0.0
 12
66.3746488765642
 22
150.6938113892624
 32
0.0
 13
66.3746488765642
 23
150.6938113892624
 33
0.0
  0
SOLID
  5
2A43
330
FC1
100
AcDbEntity
  8
AM_PARDIM
100
AcDbTrace
 10
78.9746488765642
 20
151.2938113892625
 30
0.0
 11
78.9746488765642
 21
150.0938113892624
 31
0.0
 12
75.37464887656421
 22
150.6938113892624
 32
0.0
 13
75.37464887656421
 23
150.6938113892624
 33
0.0
  0
MTEXT
  5
2A44
330
FC1
100
AcDbEntity
  8
AM_PARDIM
100
AcDbMText
 10
70.87464887656421
 20
153.6938113892625
 30
0.0
 40
3.6
 41
0.0
 71
     5
 72
     1
  1
9
  7
CHINA
1001
ACAD
1000
MTEXTBEGIN
1070
    73
1070
     1
1070
    44
1040
1.0
1070
    74
1070
     0
1000
MTEXTEND
  0
POINT
  5
2A45
330
FC1
100
AcDbEntity
  8
DEFPOINTS
 62
     0
100
AcDbPoint
 10
66.3746488765642
 20
128.6938113892625
 30
0.0
  0
POINT
  5
2A46
330
FC1
100
AcDbEntity
  8
DEFPOINTS
 62
     0
100
AcDbPoint
 10
75.37464887656421
 20
128.6938113892625
 30
0.0
  0
POINT
  5
2A47
330
FC1
100
AcDbEntity
  8
DEFPOINTS
 62
     0
100
AcDbPoint
 10
75.37464887656421
 20
150.6938113892624
 30
0.0
  0
ENDBLK
  5
FCC
330
FC1
100
AcDbEntity
  8
0
100
AcDbBlockEnd
  0
BLOCK
  5
FD9
330
FCD
100
AcDbEntity
  8
0
100
AcDbBlockBegin
  2
*D7
 70
     1
 10
0.0
 20
0.0
 30
0.0
  3
*D7
  1

  0
LINE
  5
2A48
330
FCD
100
AcDbEntity
  8
AM_PARDIM
100
AcDbLine
 10
63.87464887656418
 20
131.0938113892624
 30
0.0
 11
63.87464887656418
 21
142.4938113892625
 31
0.0
  0
LINE
  5
2A49
330
FCD
100
AcDbEntity
  8
AM_PARDIM
100
AcDbLine
 10
66.37464887656418
 20
131.0938113892624
 30
0.0
 11
66.37464887656418
 21
142.4938113892625
 31
0.0
  0
LINE
  5
2A4A
330
FCD
100
AcDbEntity
  8
AM_PARDIM
100
AcDbLine
 10
60.27464887656417
 20
140.6938113892624
 30
0.0
 11
56.67464887656418
 21
140.6938113892624
 31
0.0
  0
LINE
  5
2A4B
330
FCD
100
AcDbEntity
  8
AM_PARDIM
100
AcDbLine
 10
69.97464887656417
 20
140.6938113892624
 30
0.0
 11
82.1056724986114
 21
140.6938113892624
 31
0.0
  0
LINE
  5
2A4C
330
FCD
100
AcDbEntity
  8
AM_PARDIM
100
AcDbLine
 10
63.87464887656418
 20
140.6938113892624
 30
0.0
 11
66.37464887656418
 21
140.6938113892624
 31
0.0
  0
SOLID
  5
2A4D
330
FCD
100
AcDbEntity
  8
AM_PARDIM
100
AcDbTrace
 10
60.27464887656417
 20
141.2938113892624
 30
0.0
 11
60.27464887656417
 21
140.0938113892624
 31
0.0
 12
63.87464887656418
 22
140.6938113892624
 32
0.0
 13
63.87464887656418
 23
140.6938113892624
 33
0.0
  0
SOLID
  5
2A4E
330
FCD
100
AcDbEntity
  8
AM_PARDIM
100
AcDbTrace
 10
69.97464887656417
 20
141.2938113892624
 30
0.0
 11
69.97464887656417
 21
140.0938113892624
 31
0.0
 12
66.37464887656418
 22
140.6938113892624
 32
0.0
 13
66.37464887656418
 23
140.6938113892624
 33
0.0
  0
MTEXT
  5
2A4F
330
FCD
100
AcDbEntity
  8
AM_PARDIM
100
AcDbMText
 10
77.8401606875878
 20
143.70357516879
 30
0.0
 40
3.6
 41
0.0
 71
     5
 72
     1
  1
2.5
  7
CHINA
1001
ACAD
1000
MTEXTBEGIN
1070
    73
1070
     1
1070
    44
1040
1.0
1070
    74
1070
     0
1000
MTEXTEND
  0
POINT
  5
2A50
330
FCD
100
AcDbEntity
  8
DEFPOINTS
 62
     0
100
AcDbPoint
 10
63.87464887656418
 20
128.6938113892624
 30
0.0
  0
POINT
  5
2A51
330
FCD
100
AcDbEntity
  8
DEFPOINTS
 62
     0
100
AcDbPoint
 10
66.37464887656418
 20
128.6938113892624
 30
0.0
  0
POINT
  5
2A52
330
FCD
100
AcDbEntity
  8
DEFPOINTS
 62
     0
100
AcDbPoint
 10
66.37464887656418
 20
140.6938113892624
 30
0.0
  0
ENDBLK
  5
FDA
330
FCD
100
AcDbEntity
  8
0
100
AcDbBlockEnd
  0
BLOCK
  5
FE6
330
FDB
100
AcDbEntity
  8
0
100
AcDbBlockBegin
  2
*D8
 70
     1
 10
0.0
 20
0.0
 30
0.0
  3
*D8
  1

  0
LINE
  5
2A53
330
FDB
100
AcDbEntity
  8
AM_PARDIM
100
AcDbLine
 10
66.37464887656418
 20
131.0938113892624
 30
0.0
 11
66.37464887656418
 21
137.830378563861
 31
0.0
  0
LINE
  5
2A54
330
FDB
100
AcDbEntity
  8
AM_PARDIM
100
AcDbLine
 10
66.37464887656418
 20
118.5938113892624
 30
0.0
 11
66.37464887656418
 21
137.830378563861
 31
0.0
  0
LINE
  5
2A55
330
FDB
100
AcDbEntity
  8
AM_PARDIM
100
AcDbLine
 10
62.77464887656417
 20
136.030378563861
 30
0.0
 11
59.17464887656418
 21
136.030378563861
 31
0.0
  0
LINE
  5
2A56
330
FDB
100
AcDbEntity
  8
AM_PARDIM
100
AcDbLine
 10
69.97464887656417
 20
136.030378563861
 30
0.0
 11
77.89464887656419
 21
136.030378563861
 31
0.0
  0
SOLID
  5
2A57
330
FDB
100
AcDbEntity
  8
AM_PARDIM
100
AcDbTrace
 10
62.77464887656417
 20
136.630378563861
 30
0.0
 11
62.77464887656417
 21
135.430378563861
 31
0.0
 12
66.37464887656418
 22
136.030378563861
 32
0.0
 13
66.37464887656418
 23
136.030378563861
 33
0.0
  0
SOLID
  5
2A58
330
FDB
100
AcDbEntity
  8
AM_PARDIM
100
AcDbTrace
 10
69.97464887656417
 20
136.630378563861
 30
0.0
 11
69.97464887656417
 21
135.430378563861
 31
0.0
 12
66.37464887656418
 22
136.030378563861
 32
0.0
 13
66.37464887656418
 23
136.030378563861
 33
0.0
  0
MTEXT
  5
2A59
330
FDB
100
AcDbEntity
  8
AM_PARDIM
100
AcDbMText
 10
75.73464887656418
 20
139.030378563861
 30
0.0
 40
3.6
 41
0.0
 71
     5
 72
     1
  1
0
  7
CHINA
1001
ACAD
1000
MTEXTBEGIN
1070
    73
1070
     1
1070
    44
1040
1.0
1070
    74
1070
     0
1000
MTEXTEND
  0
POINT
  5
2A5A
330
FDB
100
AcDbEntity
  8
DEFPOINTS
 62
     0
100
AcDbPoint
 10
66.37464887656418
 20
128.6938113892624
 30
0.0
  0
POINT
  5
2A5B
330
FDB
100
AcDbEntity
  8
DEFPOINTS
 62
     0
100
AcDbPoint
 10
66.37464887656418
 20
116.1938113892624
 30
0.0
  0
POINT
  5
2A5C
330
FDB
100
AcDbEntity
  8
DEFPOINTS
 62
     0
100
AcDbPoint
 10
66.37464887656418
 20
136.030378563861
 30
0.0
  0
ENDBLK
  5
FE7
330
FDB
100
AcDbEntity
  8
0
100
AcDbBlockEnd
  0
BLOCK
  5
FF2
330
FE8
100
AcDbEntity
  8
0
100
AcDbBlockBegin
  2
*D9
 70
     1
 10
0.0
 20
0.0
 30
0.0
  3
*D9
  1

  0
LINE
  5
2A5D
330
FE8
100
AcDbEntity
  8
AM_PARDIM
100
AcDbLine
 10
66.27464887656419
 20
125.6938113892624
 30
0.0
 11
96.33257086951754
 21
125.6938113892624
 31
0.0
  0
LINE
  5
2A5E
330
FE8
100
AcDbEntity
  8
AM_PARDIM
100
AcDbLine
 10
84.93257086951755
 20
116.1938113892624
 30
0.0
 11
96.33257086951754
 21
116.1938113892624
 31
0.0
  0
LINE
  5
2A5F
330
FE8
100
AcDbEntity
  8
AM_PARDIM
100
AcDbLine
 10
94.53257086951754
 20
129.2938113892624
 30
0.0
 11
94.53257086951754
 21
132.8938113892624
 31
0.0
  0
LINE
  5
2A60
330
FE8
100
AcDbEntity
  8
AM_PARDIM
100
AcDbLine
 10
94.53257086951754
 20
112.5938113892624
 30
0.0
 11
94.53257086951754
 21
108.9938113892624
 31
0.0
  0
LINE
  5
2A61
330
FE8
100
AcDbEntity
  8
AM_PARDIM
100
AcDbLine
 10
94.53257086951754
 20
125.6938113892624
 30
0.0
 11
94.53257086951754
 21
116.1938113892624
 31
0.0
  0
SOLID
  5
2A62
330
FE8
100
AcDbEntity
  8
AM_PARDIM
100
AcDbTrace
 10
93.93257086951754
 20
129.2938113892624
 30
0.0
 11
95.13257086951753
 21
129.2938113892624
 31
0.0
 12
94.53257086951754
 22
125.6938113892624
 32
0.0
 13
94.53257086951754
 23
125.6938113892624
 33
0.0
  0
SOLID
  5
2A63
330
FE8
100
AcDbEntity
  8
AM_PARDIM
100
AcDbTrace
 10
93.93257086951754
 20
112.5938113892624
 30
0.0
 11
95.13257086951753
 21
112.5938113892624
 31
0.0
 12
94.53257086951754
 22
116.1938113892624
 32
0.0
 13
94.53257086951754
 23
116.1938113892624
 33
0.0
  0
MTEXT
  5
2A64
330
FE8
100
AcDbEntity
  8
AM_PARDIM
100
AcDbMText
 10
91.52312205061988
 20
120.9438113892624
 30
0.0
 40
3.6
 41
0.0
 71
     5
 72
     1
  1
9.5
  7
CHINA
 11
0.0000000000000001
 21
1.0
 31
0.0
1001
ACAD
1000
MTEXTBEGIN
1070
    73
1070
     1
1070
    44
1040
1.0
1070
    74
1070
     0
1000
MTEXTEND
  0
POINT
  5
2A65
330
FE8
100
AcDbEntity
  8
DEFPOINTS
 62
     0
100
AcDbPoint
 10
63.87464887656418
 20
125.6938113892624
 30
0.0
  0
POINT
  5
2A66
330
FE8
100
AcDbEntity
  8
DEFPOINTS
 62
     0
100
AcDbPoint
 10
82.53257086951753
 20
116.1938113892624
 30
0.0
  0
POINT
  5
2A67
330
FE8
100
AcDbEntity
  8
DEFPOINTS
 62
     0
100
AcDbPoint
 10
94.53257086951754
 20
116.1938113892624
 30
0.0
  0
ENDBLK
  5
FF3
330
FE8
100
AcDbEntity
  8
0
100
AcDbBlockEnd
  0
BLOCK
  5
FFE
330
FF4
100
AcDbEntity
  8
0
100
AcDbBlockBegin
  2
*D10
 70
     1
 10
0.0
 20
0.0
 30
0.0
  3
*D10
  1

  0
LINE
  5
2A68
330
FF4
100
AcDbEntity
  8
AM_PARDIM
100
AcDbLine
 10
68.77464887656419
 20
128.6938113892624
 30
0.0
 11
126.3325708695175
 21
128.6938113892624
 31
0.0
  0
LINE
  5
2A69
330
FF4
100
AcDbEntity
  8
AM_PARDIM
100
AcDbLine
 10
84.93257086951755
 20
116.1938113892624
 30
0.0
 11
126.3325708695175
 21
116.1938113892624
 31
0.0
  0
LINE
  5
2A6A
330
FF4
100
AcDbEntity
  8
AM_PARDIM
100
AcDbLine
 10
124.5325708695175
 20
125.0938113892624
 30
0.0
 11
124.5325708695175
 21
119.7938113892624
 31
0.0
  0
SOLID
  5
2A6B
330
FF4
100
AcDbEntity
  8
AM_PARDIM
100
AcDbTrace
 10
123.9325708695175
 20
125.0938113892624
 30
0.0
 11
125.1325708695175
 21
125.0938113892624
 31
0.0
 12
124.5325708695175
 22
128.6938113892624
 32
0.0
 13
124.5325708695175
 23
128.6938113892624
 33
0.0
  0
SOLID
  5
2A6C
330
FF4
100
AcDbEntity
  8
AM_PARDIM
100
AcDbTrace
 10
123.9325708695175
 20
119.7938113892624
 30
0.0
 11
125.1325708695175
 21
119.7938113892624
 31
0.0
 12
124.5325708695175
 22
116.1938113892624
 32
0.0
 13
124.5325708695175
 23
116.1938113892624
 33
0.0
  0
MTEXT
  5
2A6D
330
FF4
100
AcDbEntity
  8
AM_PARDIM
100
AcDbMText
 10
121.5228070899899
 20
122.4438113892624
 30
0.0
 40
3.6
 41
0.0
 71
     5
 72
     1
  1
12.5
  7
CHINA
 11
0.0000000000000001
 21
1.0
 31
0.0
1001
ACAD
1000
MTEXTBEGIN
1070
    73
1070
     1
1070
    44
1040
1.0
1070
    74
1070
     0
1000
MTEXTEND
  0
POINT
  5
2A6E
330
FF4
100
AcDbEntity
  8
DEFPOINTS
 62
     0
100
AcDbPoint
 10
66.37464887656418
 20
128.6938113892624
 30
0.0
  0
POINT
  5
2A6F
330
FF4
100
AcDbEntity
  8
DEFPOINTS
 62
     0
100
AcDbPoint
 10
82.53257086951753
 20
116.1938113892624
 30
0.0
  0
POINT
  5
2A70
330
FF4
100
AcDbEntity
  8
DEFPOINTS
 62
     0
100
AcDbPoint
 10
124.5325708695175
 20
116.1938113892624
 30
0.0
  0
ENDBLK
  5
FFF
330
FF4
100
AcDbEntity
  8
0
100
AcDbBlockEnd
  0
BLOCK
  5
1D99
330
1D96
100
AcDbEntity
  8
0
100
AcDbBlockBegin
  2
GENDOT
 70
     0
 10
0.0
 20
0.0
 30
0.0
  3
GENDOT
  1

  0
LINE
  5
1D97
330
1D96
100
AcDbEntity
  8
0
100
AcDbLine
 10
0.0
 20
0.0
 30
0.0
 11
-1.0
 21
0.0
 31
0.0
  0
POLYLINE
  5
1D98
330
1D96
100
AcDbEntity
  8
0
100
AcDb2dPolyline
 66
     1
 10
0.0
 20
0.0
 30
0.0
 70
     1
 40
0.25
 41
0.25
  0
VERTEX
  5
37FB
330
1D98
100
AcDbEntity
  8
0
100
AcDbVertex
100
AcDb2dVertex
 10
-0.125
 20
0.0
 30
0.0
 42
1.0
  0
VERTEX
  5
37FC
330
1D98
100
AcDbEntity
  8
0
100
AcDbVertex
100
AcDb2dVertex
 10
0.125
 20
0.0
 30
0.0
 42
1.0
  0
SEQEND
  5
37FD
330
1D98
100
AcDbEntity
  8
0
  0
ENDBLK
  5
1D9A
330
1D96
100
AcDbEntity
  8
0
100
AcDbBlockEnd
  0
BLOCK
  5
2D32
330
2D28
100
AcDbEntity
  8
0
100
AcDbBlockBegin
  2
*D12
 70
     1
 10
0.0
 20
0.0
 30
0.0
  3
*D12
  1

  0
LINE
  5
3329
330
2D28
100
AcDbEntity
  8
AM_5
100
AcDbLine
 10
1014.140899952114
 20
168.8031464629571
 30
0.0
 11
1047.040899952114
 21
168.8031464629571
 31
0.0
  0
LINE
  5
332A
330
2D28
100
AcDbEntity
  8
AM_5
100
AcDbLine
 10
1034.640899952114
 20
274.803146462957
 30
0.0
 11
1047.040899952114
 21
274.803146462957
 31
0.0
  0
LINE
  5
332B
330
2D28
100
AcDbEntity
  8
AM_5
100
AcDbLine
 10
1045.240899952114
 20
172.403146462957
 30
0.0
 11
1045.240899952114
 21
271.203146462957
 31
0.0
  0
SOLID
  5
332C
330
2D28
100
AcDbEntity
  8
AM_5
100
AcDbTrace
 10
1044.640899952114
 20
172.403146462957
 30
0.0
 11
1045.840899952114
 21
172.403146462957
 31
0.0
 12
1045.240899952114
 22
168.8031464629571
 32
0.0
 13
1045.240899952114
 23
168.8031464629571
 33
0.0
  0
SOLID
  5
332D
330
2D28
100
AcDbEntity
  8
AM_5
100
AcDbTrace
 10
1044.640899952114
 20
271.203146462957
 30
0.0
 11
1045.840899952114
 21
271.203146462957
 31
0.0
 12
1045.240899952114
 22
274.803146462957
 32
0.0
 13
1045.240899952114
 23
274.803146462957
 33
0.0
  0
MTEXT
  5
332E
330
2D28
100
AcDbEntity
  8
AM_5
100
AcDbMText
 10
1042.240899952114
 20
221.8031464629572
 30
0.0
 40
3.6
 41
0.0
 71
     5
 72
     1
  1
106
  7
CHINA
 11
0.0000000000000001
 21
1.0
 31
0.0
1001
ACAD
1000
MTEXTBEGIN
1070
    73
1070
     1
1070
    44
1040
1.0
1070
    74
1070
     0
1000
MTEXTEND
  0
POINT
  5
332F
330
2D28
100
AcDbEntity
  8
DEFPOINTS
 62
     0
100
AcDbPoint
 10
1011.740899952114
 20
168.8031464629571
 30
0.0
  0
POINT
  5
3330
330
2D28
100
AcDbEntity
  8
DEFPOINTS
 62
     0
100
AcDbPoint
 10
1032.240899952114
 20
274.803146462957
 30
0.0
  0
POINT
  5
3331
330
2D28
100
AcDbEntity
  8
DEFPOINTS
 62
     0
100
AcDbPoint
 10
1045.240899952114
 20
274.803146462957
 30
0.0
  0
ENDBLK
  5
2D33
330
2D28
100
AcDbEntity
  8
0
100
AcDbBlockEnd
  0
BLOCK
  5
2D3E
330
2D34
100
AcDbEntity
  8
0
100
AcDbBlockBegin
  2
*D13
 70
     1
 10
0.0
 20
0.0
 30
0.0
  3
*D13
  1

  0
LINE
  5
3332
330
2D34
100
AcDbEntity
  8
AM_5
100
AcDbLine
 10
1014.140899952114
 20
168.8031464629571
 30
0.0
 11
1057.040899952114
 21
168.8031464629571
 31
0.0
  0
LINE
  5
3333
330
2D34
100
AcDbEntity
  8
AM_5
100
AcDbLine
 10
1034.640899952114
 20
293.803146462957
 30
0.0
 11
1057.040899952114
 21
293.803146462957
 31
0.0
  0
LINE
  5
3334
330
2D34
100
AcDbEntity
  8
AM_5
100
AcDbLine
 10
1055.240899952114
 20
172.403146462957
 30
0.0
 11
1055.240899952114
 21
290.203146462957
 31
0.0
  0
SOLID
  5
3335
330
2D34
100
AcDbEntity
  8
AM_5
100
AcDbTrace
 10
1054.640899952114
 20
172.403146462957
 30
0.0
 11
1055.840899952114
 21
172.403146462957
 31
0.0
 12
1055.240899952114
 22
168.8031464629571
 32
0.0
 13
1055.240899952114
 23
168.8031464629571
 33
0.0
  0
SOLID
  5
3336
330
2D34
100
AcDbEntity
  8
AM_5
100
AcDbTrace
 10
1054.640899952114
 20
290.203146462957
 30
0.0
 11
1055.840899952114
 21
290.203146462957
 31
0.0
 12
1055.240899952114
 22
293.803146462957
 32
0.0
 13
1055.240899952114
 23
293.803146462957
 33
0.0
  0
MTEXT
  5
3337
330
2D34
100
AcDbEntity
  8
AM_5
100
AcDbMText
 10
1052.231136172586
 20
231.3031464629572
 30
0.0
 40
3.6
 41
0.0
 71
     5
 72
     1
  1
125
  7
CHINA
 11
0.0000000000000001
 21
1.0
 31
0.0
1001
ACAD
1000
MTEXTBEGIN
1070
    73
1070
     1
1070
    44
1040
1.0
1070
    74
1070
     0
1000
MTEXTEND
  0
POINT
  5
3338
330
2D34
100
AcDbEntity
  8
DEFPOINTS
 62
     0
100
AcDbPoint
 10
1011.740899952114
 20
168.8031464629571
 30
0.0
  0
POINT
  5
3339
330
2D34
100
AcDbEntity
  8
DEFPOINTS
 62
     0
100
AcDbPoint
 10
1032.240899952114
 20
293.803146462957
 30
0.0
  0
POINT
  5
333A
330
2D34
100
AcDbEntity
  8
DEFPOINTS
 62
     0
100
AcDbPoint
 10
1055.240899952114
 20
293.803146462957
 30
0.0
  0
ENDBLK
  5
2D3F
330
2D34
100
AcDbEntity
  8
0
100
AcDbBlockEnd
  0
BLOCK
  5
2D4A
330
2D40
100
AcDbEntity
  8
0
100
AcDbBlockBegin
  2
*D14
 70
     1
 10
0.0
 20
0.0
 30
0.0
  3
*D14
  1

  0
LINE
  5
3358
330
2D40
100
AcDbEntity
  8
AM_5
100
AcDbLine
 10
1034.640899952114
 20
293.803146462957
 30
0.0
 11
1047.040899952114
 21
293.803146462957
 31
0.0
  0
LINE
  5
3359
330
2D40
100
AcDbEntity
  8
AM_5
100
AcDbLine
 10
1034.640899952114
 20
274.803146462957
 30
0.0
 11
1047.040899952114
 21
274.803146462957
 31
0.0
  0
LINE
  5
335A
330
2D40
100
AcDbEntity
  8
AM_5
100
AcDbLine
 10
1045.240899952114
 20
290.203146462957
 30
0.0
 11
1045.240899952114
 21
278.4031464629571
 31
0.0
  0
SOLID
  5
335B
330
2D40
100
AcDbEntity
  8
AM_5
100
AcDbTrace
 10
1044.640899952114
 20
290.203146462957
 30
0.0
 11
1045.840899952114
 21
290.203146462957
 31
0.0
 12
1045.240899952114
 22
293.803146462957
 32
0.0
 13
1045.240899952114
 23
293.803146462957
 33
0.0
  0
SOLID
  5
335C
330
2D40
100
AcDbEntity
  8
AM_5
100
AcDbTrace
 10
1044.640899952114
 20
278.4031464629571
 30
0.0
 11
1045.840899952114
 21
278.4031464629571
 31
0.0
 12
1045.240899952114
 22
274.803146462957
 32
0.0
 13
1045.240899952114
 23
274.803146462957
 33
0.0
  0
MTEXT
  5
335D
330
2D40
100
AcDbEntity
  8
AM_5
100
AcDbMText
 10
1042.240899952114
 20
284.3031464629572
 30
0.0
 40
3.6
 41
0.0
 71
     5
 72
     1
  1
19
  7
CHINA
 11
0.0000000000000001
 21
1.0
 31
0.0
1001
ACAD
1000
MTEXTBEGIN
1070
    73
1070
     1
1070
    44
1040
1.0
1070
    74
1070
     0
1000
MTEXTEND
  0
POINT
  5
335E
330
2D40
100
AcDbEntity
  8
DEFPOINTS
 62
     0
100
AcDbPoint
 10
1032.240899952114
 20
293.803146462957
 30
0.0
  0
POINT
  5
335F
330
2D40
100
AcDbEntity
  8
DEFPOINTS
 62
     0
100
AcDbPoint
 10
1032.240899952114
 20
274.803146462957
 30
0.0
  0
POINT
  5
3360
330
2D40
100
AcDbEntity
  8
DEFPOINTS
 62
     0
100
AcDbPoint
 10
1045.240899952114
 20
274.803146462957
 30
0.0
  0
ENDBLK
  5
2D4B
330
2D40
100
AcDbEntity
  8
0
100
AcDbBlockEnd
  0
BLOCK
  5
2D81
330
2D77
100
AcDbEntity
  8
0
100
AcDbBlockBegin
  2
*D15
 70
     1
 10
0.0
 20
0.0
 30
0.0
  3
*D15
  1

  0
LINE
  5
37FE
330
2D77
100
AcDbEntity
  8
AM_5
100
AcDbLine
 10
1011.640899952114
 20
168.8031464629571
 30
0.0
 11
1024.540899952114
 21
168.8031464629571
 31
0.0
  0
LINE
  5
37FF
330
2D77
100
AcDbEntity
  8
AM_5
100
AcDbLine
 10
1012.140899952114
 20
177.803146462957
 30
0.0
 11
1024.540899952114
 21
177.803146462957
 31
0.0
  0
LINE
  5
3800
330
2D77
100
AcDbEntity
  8
AM_5
100
AcDbLine
 10
1022.740899952114
 20
165.2031464629571
 30
0.0
 11
1022.740899952114
 21
161.6031464629571
 31
0.0
  0
LINE
  5
3801
330
2D77
100
AcDbEntity
  8
AM_5
100
AcDbLine
 10
1022.740899952114
 20
181.4031464629571
 30
0.0
 11
1022.740899952114
 21
185.003146462957
 31
0.0
  0
LINE
  5
3802
330
2D77
100
AcDbEntity
  8
AM_5
100
AcDbLine
 10
1022.740899952114
 20
168.8031464629571
 30
0.0
 11
1022.740899952114
 21
177.803146462957
 31
0.0
  0
SOLID
  5
3803
330
2D77
100
AcDbEntity
  8
AM_5
100
AcDbTrace
 10
1022.140899952114
 20
165.2031464629571
 30
0.0
 11
1023.340899952114
 21
165.2031464629571
 31
0.0
 12
1022.740899952114
 22
168.8031464629571
 32
0.0
 13
1022.740899952114
 23
168.8031464629571
 33
0.0
  0
INSERT
  5
3804
330
2D77
100
AcDbEntity
  8
AM_5
100
AcDbBlockReference
  2
GENDOT
 10
1022.740899952114
 20
177.803146462957
 30
0.0
 41
3.6
 42
3.6
 43
3.6
 50
270.0
  0
MTEXT
  5
3805
330
2D77
100
AcDbEntity
  8
AM_5
100
AcDbMText
 10
1019.740899952114
 20
173.3031464629572
 30
0.0
 40
3.6
 41
0.0
 71
     5
 72
     1
  1
9
  7
CHINA
 11
0.0000000000000001
 21
1.0
 31
0.0
  0
POINT
  5
3806
330
2D77
100
AcDbEntity
  8
DEFPOINTS
 62
     0
100
AcDbPoint
 10
1009.240899952114
 20
168.8031464629571
 30
0.0
  0
POINT
  5
3807
330
2D77
100
AcDbEntity
  8
DEFPOINTS
 62
     0
100
AcDbPoint
 10
1009.740899952114
 20
177.803146462957
 30
0.0
  0
POINT
  5
3808
330
2D77
100
AcDbEntity
  8
DEFPOINTS
 62
     0
100
AcDbPoint
 10
1022.740899952114
 20
177.803146462957
 30
0.0
  0
ENDBLK
  5
2D82
330
2D77
100
AcDbEntity
  8
0
100
AcDbBlockEnd
  0
BLOCK
  5
2DF5
330
2DEB
100
AcDbEntity
  8
0
100
AcDbBlockBegin
  2
*D16
 70
     1
 10
0.0
 20
0.0
 30
0.0
  3
*D16
  1

  0
LINE
  5
3809
330
2DEB
100
AcDbEntity
  8
AM_5
100
AcDbLine
 10
1012.140899952114
 20
177.803146462957
 30
0.0
 11
1024.540899952114
 21
177.803146462957
 31
0.0
  0
LINE
  5
380A
330
2DEB
100
AcDbEntity
  8
AM_5
100
AcDbLine
 10
1012.140899952114
 20
222.803146462957
 30
0.0
 11
1024.540899952114
 21
222.803146462957
 31
0.0
  0
LINE
  5
380B
330
2DEB
100
AcDbEntity
  8
AM_5
100
AcDbLine
 10
1022.740899952114
 20
181.4031464629571
 30
0.0
 11
1022.740899952114
 21
219.2031464629571
 31
0.0
  0
INSERT
  5
380C
330
2DEB
100
AcDbEntity
  8
AM_5
100
AcDbBlockReference
  2
GENDOT
 10
1022.740899952114
 20
177.803146462957
 30
0.0
 41
3.6
 42
3.6
 43
3.6
 50
270.0
  0
SOLID
  5
380D
330
2DEB
100
AcDbEntity
  8
AM_5
100
AcDbTrace
 10
1022.140899952114
 20
219.2031464629571
 30
0.0
 11
1023.340899952114
 21
219.2031464629571
 31
0.0
 12
1022.740899952114
 22
222.803146462957
 32
0.0
 13
1022.740899952114
 23
222.803146462957
 33
0.0
  0
MTEXT
  5
380E
330
2DEB
100
AcDbEntity
  8
AM_5
100
AcDbMText
 10
1019.731451133216
 20
200.3031464629572
 30
0.0
 40
3.6
 41
0.0
 71
     5
 72
     1
  1
45
  7
CHINA
 11
0.0000000000000001
 21
1.0
 31
0.0
  0
POINT
  5
380F
330
2DEB
100
AcDbEntity
  8
DEFPOINTS
 62
     0
100
AcDbPoint
 10
1009.740899952114
 20
177.803146462957
 30
0.0
  0
POINT
  5
3810
330
2DEB
100
AcDbEntity
  8
DEFPOINTS
 62
     0
100
AcDbPoint
 10
1009.740899952114
 20
222.803146462957
 30
0.0
  0
POINT
  5
3811
330
2DEB
100
AcDbEntity
  8
DEFPOINTS
 62
     0
100
AcDbPoint
 10
1022.740899952114
 20
222.803146462957
 30
0.0
  0
ENDBLK
  5
2DF6
330
2DEB
100
AcDbEntity
  8
0
100
AcDbBlockEnd
  0
BLOCK
  5
2E2D
330
2E23
100
AcDbEntity
  8
0
100
AcDbBlockBegin
  2
*D17
 70
     1
 10
0.0
 20
0.0
 30
0.0
  3
*D17
  1

  0
LINE
  5
3344
330
2E23
100
AcDbEntity
  8
AM_5
100
AcDbLine
 10
955.7408999521141
 20
176.403146462957
 30
0.0
 11
955.7408999521141
 21
155.0031464629571
 31
0.0
  0
LINE
  5
3345
330
2E23
100
AcDbEntity
  8
AM_5
100
AcDbLine
 10
1010.740899952114
 20
176.403146462957
 30
0.0
 11
1010.740899952114
 21
155.0031464629571
 31
0.0
  0
LINE
  5
3346
330
2E23
100
AcDbEntity
  8
AM_5
100
AcDbLine
 10
959.3408999521143
 20
156.8031464629571
 30
0.0
 11
1007.140899952114
 21
156.8031464629571
 31
0.0
  0
SOLID
  5
3347
330
2E23
100
AcDbEntity
  8
AM_5
100
AcDbTrace
 10
959.3408999521143
 20
157.4031464629571
 30
0.0
 11
959.3408999521143
 21
156.2031464629571
 31
0.0
 12
955.7408999521141
 22
156.8031464629571
 32
0.0
 13
955.7408999521141
 23
156.8031464629571
 33
0.0
  0
SOLID
  5
3348
330
2E23
100
AcDbEntity
  8
AM_5
100
AcDbTrace
 10
1007.140899952114
 20
157.4031464629571
 30
0.0
 11
1007.140899952114
 21
156.2031464629571
 31
0.0
 12
1010.740899952114
 22
156.8031464629571
 32
0.0
 13
1010.740899952114
 23
156.8031464629571
 33
0.0
  0
MTEXT
  5
3349
330
2E23
100
AcDbEntity
  8
AM_5
100
AcDbMText
 10
983.2408999521142
 20
159.8125952818547
 30
0.0
 40
3.6
 41
0.0
 71
     5
 72
     1
  1
M55x1.5
  7
CHINA
1001
ACAD
1000
MTEXTBEGIN
1070
    73
1070
     1
1070
    44
1040
1.0
1070
    74
1070
     0
1000
MTEXTEND
  0
POINT
  5
334A
330
2E23
100
AcDbEntity
  8
DEFPOINTS
 62
     0
100
AcDbPoint
 10
955.7408999521141
 20
178.803146462957
 30
0.0
  0
POINT
  5
334B
330
2E23
100
AcDbEntity
  8
DEFPOINTS
 62
     0
100
AcDbPoint
 10
1010.740899952114
 20
178.803146462957
 30
0.0
  0
POINT
  5
334C
330
2E23
100
AcDbEntity
  8
DEFPOINTS
 62
     0
100
AcDbPoint
 10
1010.740899952114
 20
156.8031464629571
 30
0.0
  0
ENDBLK
  5
2E2E
330
2E23
100
AcDbEntity
  8
0
100
AcDbBlockEnd
  0
BLOCK
  5
36A2
330
3698
100
AcDbEntity
  8
0
100
AcDbBlockBegin
  2
*D18
 70
     1
 10
0.0
 20
0.0
 30
0.0
  3
*D18
  1

  0
LINE
  5
36DD
330
3698
100
AcDbEntity
  8
AM_5
100
AcDbLine
 10
933.2408999521142
 20
295.203146462957
 30
0.0
 11
933.2408999521142
 21
306.603146462957
 31
0.0
  0
LINE
  5
36DE
330
3698
100
AcDbEntity
  8
AM_5
100
AcDbLine
 10
1033.240899952114
 20
295.203146462957
 30
0.0
 11
1033.240899952114
 21
306.603146462957
 31
0.0
  0
LINE
  5
36DF
330
3698
100
AcDbEntity
  8
AM_5
100
AcDbLine
 10
936.8408999521141
 20
304.8031464629571
 30
0.0
 11
1029.640899952114
 21
304.8031464629571
 31
0.0
  0
SOLID
  5
36E0
330
3698
100
AcDbEntity
  8
AM_5
100
AcDbTrace
 10
936.8408999521141
 20
305.4031464629571
 30
0.0
 11
936.8408999521141
 21
304.203146462957
 31
0.0
 12
933.2408999521142
 22
304.8031464629571
 32
0.0
 13
933.2408999521142
 23
304.8031464629571
 33
0.0
  0
SOLID
  5
36E1
330
3698
100
AcDbEntity
  8
AM_5
100
AcDbTrace
 10
1029.640899952114
 20
305.4031464629571
 30
0.0
 11
1029.640899952114
 21
304.203146462957
 31
0.0
 12
1033.240899952114
 22
304.8031464629571
 32
0.0
 13
1033.240899952114
 23
304.8031464629571
 33
0.0
  0
MTEXT
  5
36E2
330
3698
100
AcDbEntity
  8
AM_5
100
AcDbMText
 10
983.2408999521142
 20
307.8031464629571
 30
0.0
 40
3.6
 41
0.0
 71
     5
 72
     1
  1
100
  7
CHINA
1001
ACAD
1000
MTEXTBEGIN
1070
    73
1070
     1
1070
    44
1040
1.0
1070
    74
1070
     0
1000
MTEXTEND
  0
POINT
  5
36E3
330
3698
100
AcDbEntity
  8
DEFPOINTS
 62
     0
100
AcDbPoint
 10
933.2408999521142
 20
292.8031464629571
 30
0.0
  0
POINT
  5
36E4
330
3698
100
AcDbEntity
  8
DEFPOINTS
 62
     0
100
AcDbPoint
 10
1033.240899952114
 20
292.8031464629571
 30
0.0
  0
POINT
  5
36E5
330
3698
100
AcDbEntity
  8
DEFPOINTS
 62
     0
100
AcDbPoint
 10
1033.240899952114
 20
304.8031464629571
 30
0.0
  0
ENDBLK
  5
36A3
330
3698
100
AcDbEntity
  8
0
100
AcDbBlockEnd
  0
BLOCK
  5
3817
330
3812
100
AcDbEntity
  8
0
100
AcDbBlockBegin
  2
*S19
 70
     1
 10
0.0
 20
0.0
 30
0.0
  3
*S19
  1

  0
LINE
  5
3813
330
3812
100
AcDbEntity
  8
AM_5
100
AcDbLine
 10
1039.785107396119
 20
246.483543330676
 30
0.0
 11
1020.083130987716
 21
246.483543330676
 31
0.0
  0
LINE
  5
3814
330
3812
100
AcDbEntity
  8
AM_5
100
AcDbLine
 10
1020.083130987716
 20
246.483543330676
 30
0.0
 11
1011.550059639119
 21
235.1962493079921
 31
0.0
  0
TRACE
  5
3815
330
3812
100
AcDbEntity
  8
AM_5
100
AcDbTrace
 10
1011.235001673992
 20
235.4344296982581
 30
0.0
 11
1011.865117604246
 21
234.9580689177261
 31
0.0
 12
1009.740899952114
 22
232.8031464629571
 32
0.0
 13
1009.740899952114
 23
232.8031464629571
 33
0.0
  0
MTEXT
  5
3816
330
3812
100
AcDbEntity
  8
AM_5
 62
     2
100
AcDbMText
 10
1039.785107396119
 20
243.2544902354909
 30
0.0
 40
3.5
 41
0.0
 71
     7
 72
     1
  1

  7
ACISOTS
  0
ENDBLK
  5
3818
330
3812
100
AcDbEntity
  8
0
100
AcDbBlockEnd
  0
ENDSEC
  0
SECTION
  2
ENTITIES
  0
POINT
  5
25
330
2
100
AcDbEntity
  8
0
 60
     1
100
AcDbPoint
 10
0.0
 20
0.0
 30
0.0
  0
POINT
  5
26
330
2
100
AcDbEntity
  8
0
 60
     1
100
AcDbPoint
 10
0.0
 20
0.0
 30
0.0
  0
POINT
  5
27
330
2
100
AcDbEntity
  8
0
 60
     1
100
AcDbPoint
 10
0.0
 20
0.0
 30
0.0
  0
POINT
  5
28
330
2
100
AcDbEntity
  8
0
 60
     1
100
AcDbPoint
 10
0.0
 20
0.0
 30
0.0
  0
POINT
  5
29
330
2
100
AcDbEntity
  8
0
 60
     1
100
AcDbPoint
 10
0.0
 20
0.0
 30
0.0
  0
POINT
  5
2A
330
2
100
AcDbEntity
  8
0
 60
     1
100
AcDbPoint
 10
0.0
 20
0.0
 30
0.0
  0
POINT
  5
2B
330
2
100
AcDbEntity
  8
0
 60
     1
100
AcDbPoint
 10
0.0
 20
0.0
 30
0.0
  0
POINT
  5
2C
330
2
100
AcDbEntity
  8
0
 60
     1
100
AcDbPoint
 10
0.0
 20
0.0
 30
0.0
  0
POINT
  5
2D
330
2
100
AcDbEntity
  8
0
 60
     1
100
AcDbPoint
 10
0.0
 20
0.0
 30
0.0
  0
POINT
  5
2E
330
2
100
AcDbEntity
  8
0
 60
     1
100
AcDbPoint
 10
0.0
 20
0.0
 30
0.0
  0
POINT
  5
2F
330
2
100
AcDbEntity
  8
0
 60
     1
100
AcDbPoint
 10
0.0
 20
0.0
 30
0.0
  0
POINT
  5
30
330
2
100
AcDbEntity
  8
0
 60
     1
100
AcDbPoint
 10
0.0
 20
0.0
 30
0.0
  0
DIMENSION
  5
31
330
2
100
AcDbEntity
  8
AM_PARDIM
 60
     1
100
AcDbDimension
  2
*D1
 10
114.5325708695175
 20
128.6938113892625
 30
0.0
 11
111.5228070899899
 21
122.4438113892625
 31
0.0
 70
    32
  1
<>
  3
AM_ISO
100
AcDbAlignedDimension
 13
75.37464887656421
 23
116.1938113892625
 33
0.0
 14
75.37464887656421
 24
128.6938113892625
 34
0.0
 50
90.0
100
AcDbRotatedDimension
1001
ACAD_DIMASSOC_CALC_DIMLFAC
1040
-1.0
1001
ACAD
1000
DSTYLE
1002
{
1070
   144
1040
-1.0
1002
}
1001
AD_SKETCHDIM
1005
0
1000
d0
1001
ACAD_DIMASSOC_DIMLFAC
1040
-1.0
  0
DIMENSION
  5
43
330
2
100
AcDbEntity
  8
AM_PARDIM
 60
     1
100
AcDbDimension
  2
*D2
 10
26.87464887656421
 20
122.1938113892625
 30
0.0
 11
23.87464887656418
 21
119.1938113892625
 31
0.0
 70
    32
  1
<>
  3
AM_ISO
100
AcDbAlignedDimension
 13
38.8746488765642
 23
116.1938113892625
 33
0.0
 14
38.8746488765642
 24
122.1938113892624
 34
0.0
 50
90.0
100
AcDbRotatedDimension
1001
ACAD_DIMASSOC_CALC_DIMLFAC
1040
-1.0
1001
ACAD
1000
DSTYLE
1002
{
1070
   144
1040
-1.0
1002
}
1001
AD_SKETCHDIM
1005
0
1000
d1
1001
ACAD_DIMASSOC_DIMLFAC
1040
-1.0
  0
DIMENSION
  5
52
330
2
100
AcDbEntity
  8
AM_PARDIM
 60
     1
100
AcDbDimension
  2
*D3
 10
50.87464887656421
 20
140.6938113892624
 30
0.0
 11
44.87464887656421
 21
143.6941263498924
 31
0.0
 70
    32
  1
<>
  3
AM_ISO
100
AcDbAlignedDimension
 13
38.8746488765642
 23
122.1938113892624
 33
0.0
 14
50.87464887656421
 24
122.1938113892624
 34
0.0
100
AcDbRotatedDimension
1001
ACAD_DIMASSOC_CALC_DIMLFAC
1040
-1.0
1001
ACAD
1000
DSTYLE
1002
{
1070
   144
1040
-1.0
1002
}
1001
AD_SKETCHDIM
1005
0
1000
d2
1001
ACAD_DIMASSOC_DIMLFAC
1040
-1.0
  0
DIMENSION
  5
5F
330
2
100
AcDbEntity
  8
AM_PARDIM
 60
     1
100
AcDbDimension
  2
*D4
 10
75.37464887656421
 20
160.6938113892624
 30
0.0
 11
57.12464887656421
 21
163.7032602081601
 31
0.0
 70
    32
  1
<>
  3
AM_ISO
100
AcDbAlignedDimension
 13
38.8746488765642
 23
116.1938113892625
 33
0.0
 14
75.37464887656421
 24
116.1938113892625
 34
0.0
100
AcDbRotatedDimension
1001
ACAD_DIMASSOC_CALC_DIMLFAC
1040
-1.0
1001
ACAD
1000
DSTYLE
1002
{
1070
   144
1040
-1.0
1002
}
1001
AD_SKETCHDIM
1005
0
1000
d3
1001
ACAD_DIMASSOC_DIMLFAC
1040
-1.0
  0
DIMENSION
  5
6C
330
2
100
AcDbEntity
  8
AM_PARDIM
 60
     1
100
AcDbDimension
  2
*D5
 10
104.5325708695175
 20
116.1938113892624
 30
0.0
 11
101.5325708695175
 21
121.6938113892625
 31
0.0
 70
    32
  1
<>
  3
AM_ISO
100
AcDbAlignedDimension
 13
50.87464887656421
 23
127.1938113892624
 33
0.0
 14
75.37464887656421
 24
116.1938113892625
 34
0.0
 50
90.0
100
AcDbRotatedDimension
1001
ACAD_DIMASSOC_CALC_DIMLFAC
1040
-1.0
1001
ACAD
1000
DSTYLE
1002
{
1070
   144
1040
-1.0
1002
}
1001
AD_SKETCHDIM
1005
0
1000
d4
1001
ACAD_DIMASSOC_DIMLFAC
1040
-1.0
  0
DIMENSION
  5
79
330
2
100
AcDbEntity
  8
AM_PARDIM
 60
     1
100
AcDbDimension
  2
*D6
 10
75.37464887656421
 20
150.6938113892624
 30
0.0
 11
70.87464887656421
 21
153.6938113892625
 31
0.0
 70
    32
  1
<>
  3
AM_ISO
100
AcDbAlignedDimension
 13
66.3746488765642
 23
128.6938113892625
 33
0.0
 14
75.37464887656421
 24
128.6938113892625
 34
0.0
100
AcDbRotatedDimension
1001
ACAD_DIMASSOC_CALC_DIMLFAC
1040
-1.0
1001
ACAD
1000
DSTYLE
1002
{
1070
   144
1040
-1.0
1002
}
1001
AD_SKETCHDIM
1005
0
1000
d5
1001
ACAD_DIMASSOC_DIMLFAC
1040
-1.0
  0
DIMENSION
  5
86
330
2
100
AcDbEntity
  8
AM_PARDIM
 60
     1
100
AcDbDimension
  2
*D7
 10
66.37464887656418
 20
140.6938113892624
 30
0.0
 11
77.8401606875878
 21
143.70357516879
 31
0.0
 70
    32
  1
<>
  3
AM_ISO
100
AcDbAlignedDimension
 13
63.87464887656418
 23
128.6938113892624
 33
0.0
 14
66.37464887656418
 24
128.6938113892624
 34
0.0
100
AcDbRotatedDimension
1001
ACAD_DIMASSOC_CALC_DIMLFAC
1040
-1.0
1001
ACAD
1000
DSTYLE
1002
{
1070
   144
1040
-1.0
1002
}
1001
AD_SKETCHDIM
1005
0
1000
d25
1001
ACAD_DIMASSOC_DIMLFAC
1040
-1.0
  0
DIMENSION
  5
95
330
2
100
AcDbEntity
  8
AM_PARDIM
 60
     1
100
AcDbDimension
  2
*D8
 10
66.37464887656418
 20
136.030378563861
 30
0.0
 11
75.73464887656418
 21
139.030378563861
 31
0.0
 70
    32
  1
<>
  3
AM_ISO
100
AcDbAlignedDimension
 13
66.37464887656418
 23
128.6938113892624
 33
0.0
 14
66.37464887656418
 24
116.1938113892624
 34
0.0
100
AcDbRotatedDimension
1001
ACAD_DIMASSOC_CALC_DIMLFAC
1040
-1.0
1001
ACAD
1000
DSTYLE
1002
{
1070
   144
1040
-1.0
1002
}
1001
AD_SKETCHDIM
1005
0
1000
d26
1001
ACAD_DIMASSOC_DIMLFAC
1040
-1.0
  0
DIMENSION
  5
A3
330
2
100
AcDbEntity
  8
AM_PARDIM
 60
     1
100
AcDbDimension
  2
*D9
 10
94.53257086951754
 20
116.1938113892624
 30
0.0
 11
91.52312205061988
 21
120.9438113892624
 31
0.0
 70
    32
  1
<>
  3
AM_ISO
100
AcDbAlignedDimension
 13
63.87464887656418
 23
125.6938113892624
 33
0.0
 14
82.53257086951753
 24
116.1938113892624
 34
0.0
 50
90.0
100
AcDbRotatedDimension
1001
ACAD_DIMASSOC_CALC_DIMLFAC
1040
-1.0
1001
ACAD
1000
DSTYLE
1002
{
1070
   144
1040
-1.0
1002
}
1001
AD_SKETCHDIM
1005
0
1000
d27
1001
ACAD_DIMASSOC_DIMLFAC
1040
-1.0
  0
DIMENSION
  5
B0
330
2
100
AcDbEntity
  8
AM_PARDIM
 60
     1
100
AcDbDimension
  2
*D10
 10
124.5325708695175
 20
116.1938113892624
 30
0.0
 11
121.5228070899899
 21
122.4438113892624
 31
0.0
 70
    32
  1
<>
  3
AM_ISO
100
AcDbAlignedDimension
 13
66.37464887656418
 23
128.6938113892624
 33
0.0
 14
82.53257086951753
 24
116.1938113892624
 34
0.0
 50
90.0
100
AcDbRotatedDimension
1001
ACAD_DIMASSOC_CALC_DIMLFAC
1040
-1.0
1001
ACAD
1000
DSTYLE
1002
{
1070
   144
1040
-1.0
1002
}
1001
AD_SKETCHDIM
1005
0
1000
d28
1001
ACAD_DIMASSOC_DIMLFAC
1040
-1.0
  0
LINE
  5
C8
330
2
100
AcDbEntity
  8
AM_7
 60
     1
100
AcDbLine
 10
36.3746488765642
 20
116.1938113892624
 30
0.0
 11
51.3746488765642
 21
116.1938113892624
 31
0.0
  0
MTEXT
  5
151
330
2
100
AcDbEntity
  8
AM_5
 62
     5
100
AcDbMText
 10
33.56078100938998
 20
98.94002315335121
 30
0.0
 40
3.5
 41
0.0
 71
     9
 72
     1
  1

  7
ACISOTS
1001
ACAD
1000
MTEXTBEGIN
1070
    73
1070
     1
1070
    44
1040
1.0
1070
    74
1070
     0
1000
MTEXTEND
  0
MTEXT
  5
156
330
2
100
AcDbEntity
  8
AM_5
 62
     5
100
AcDbMText
 10
67.11527269722637
 20
92.4148402526181
 30
0.0
 40
3.5
 41
0.0
 71
     9
 72
     1
  1

  7
ACISOTS
1001
ACAD
1000
MTEXTBEGIN
1070
    73
1070
     1
1070
    44
1040
1.0
1070
    74
1070
     0
1000
MTEXTEND
  0
CIRCLE
  5
124B
330
2
100
AcDbEntity
  8
LOGO
  6
CONTINUOUS
 62
     6
100
AcDbCircle
 10
947.5204871556369
 20
125.9161181707333
 30
0.0
 40
2.626478555640676
  0
TEXT
  5
124C
330
2
100
AcDbEntity
  8
LOGO
 62
     6
100
AcDbText
 10
945.9306400409356
 20
132.691764563899
 30
0.0
 40
4.5235481972414
  1
1 : 1
  7
CHINESET
 72
     1
 11
953.900701150361
 21
134.9535386625197
 31
0.0
100
AcDbText
 73
     2
  0
TEXT
  5
124D
330
2
100
AcDbEntity
  8
LOGO
 62
     6
100
AcDbText
 10
945.9306400409356
 20
114.5975717749334
 30
0.0
 40
4.5235481972414
  1
m/m
  7
CHINESET
 72
     1
 11
953.900701150361
 21
116.8593458735541
 31
0.0
100
AcDbText
 73
     2
  0
LINE
  5
124E
330
2
100
AcDbEntity
  8
LOGO
 62
     1
100
AcDbLine
 10
969.3015598535891
 20
121.3828940707955
 30
0.0
 11
902.9561862940486
 21
121.3828940707955
 31
0.0
  0
LINE
  5
124F
330
2
100
AcDbEntity
  8
LOGO
 62
     1
100
AcDbLine
 10
969.3015598535891
 20
130.4299904652783
 30
0.0
 11
902.9561862940486
 21
130.4299904652783
 31
0.0
  0
TEXT
  5
1250
330
2
100
AcDbEntity
  8
LOGO
  6
CONTINUOUS
 62
     5
100
AcDbText
 10
873.2070402692185
 20
96.34139536749106
 30
0.0
 40
4.5235481972414
  1
MINDMAN INDUSTRIAL CO.,LTD
 41
0.85
  7
CHINESET
100
AcDbText
  0
TEXT
  5
1251
330
2
100
AcDbEntity
  8
LOGO
  6
CONTINUOUS
 62
     5
100
AcDbText
 10
871.2641332153035
 20
103.1280470545333
 30
0.0
 40
6.7853222958621
  1
金器工業股份有限公司
 41
0.8
  7
LOGO
100
AcDbText
  0
LINE
  5
1252
330
2
100
AcDbEntity
  8
LOGO
 62
     1
100
AcDbLine
 10
969.3015598535891
 20
112.3357976763128
 30
0.0
 11
869.7834995142782
 21
112.3357976763128
 31
0.0
  0
LINE
  5
1256
330
2
100
AcDbEntity
  8
LOGO
 62
     1
100
AcDbLine
 10
1204.477183682439
 20
94.24160488734717
 30
0.0
 11
869.7834995142782
 21
94.24160488734717
 31
0.0
  0
LINE
  5
1257
330
2
100
AcDbEntity
  8
LOGO
 62
     1
100
AcDbLine
 10
1204.477183682439
 20
139.4770868597611
 30
0.0
 11
869.7834995142782
 21
139.4770868597611
 31
0.0
  0
LINE
  5
1258
330
2
100
AcDbEntity
  8
0
 62
     4
100
AcDbLine
 10
869.7834995142782
 20
401.0466947480966
 30
0.0
 11
1204.477183682439
 21
401.0466947480966
 31
0.0
  0
LINE
  5
1259
330
2
100
AcDbEntity
  8
0
 62
     4
100
AcDbLine
 10
1204.477183682439
 20
139.4770868597611
 30
0.0
 11
869.7834995142782
 21
139.4770868597611
 31
0.0
  0
LINE
  5
125A
330
2
100
AcDbEntity
  8
0
 62
     4
100
AcDbLine
 10
869.7834995142782
 20
139.4770868597611
 30
0.0
 11
869.7834995142782
 21
401.0466947480966
 31
0.0
  0
SOLID
  5
125B
330
2
100
AcDbEntity
  8
LOGO
 62
     5
100
AcDbTrace
 10
887.3584753192153
 20
121.3393112273879
 30
0.0
 11
889.3143388617973
 21
128.510810883524
 31
0.0
 12
896.6656880390896
 22
138.4025345471602
 32
0.0
 13
894.7098244965072
 23
138.4025345471602
 33
0.0
  0
SOLID
  5
125C
330
2
100
AcDbEntity
  8
LOGO
 62
     5
100
AcDbTrace
 10
887.3584753192153
 20
138.4025345471589
 30
0.0
 11
889.3143388617973
 21
138.4025345471602
 31
0.0
 12
887.3584753192153
 22
121.3393112273879
 32
0.0
 13
889.3143388617973
 23
128.510810883524
 33
0.0
  0
POLYLINE
  5
125D
330
2
100
AcDbEntity
  8
LOGO
 62
     5
100
AcDb2dPolyline
 66
     1
 10
0.0
 20
0.0
 30
0.0
 40
0.6755165307880492
 41
0.6755165307880492
  0
VERTEX
  5
125E
330
125D
100
AcDbEntity
  8
LOGO
 62
     5
100
AcDbVertex
100
AcDb2dVertex
 10
889.4283210898144
 20
115.1345027474714
 30
0.0
 42
1.0
  0
VERTEX
  5
125F
330
125D
100
AcDbEntity
  8
LOGO
 62
     5
100
AcDbVertex
100
AcDb2dVertex
 10
887.4017714974502
 20
115.1345027474714
 30
0.0
 42
1.0
  0
SEQEND
  5
1260
330
125D
100
AcDbEntity
  8
LOGO
 62
     5
  0
SOLID
  5
1261
330
2
100
AcDbEntity
  8
LOGO
 62
     5
100
AcDbTrace
 10
887.0661748849553
 20
116.483374156149
 30
0.0
 11
887.7406105892935
 21
116.483374156149
 31
0.0
 12
887.0661748849553
 22
113.1111956344557
 32
0.0
 13
887.7406105892935
 23
113.1111956344557
 33
0.0
  0
SOLID
  5
1262
330
2
100
AcDbEntity
  8
LOGO
 62
     2
100
AcDbTrace
 10
886.5491524740081
 20
119.8555526778431
 30
0.0
 11
887.3584753192153
 21
119.8555526778431
 31
0.0
 12
896.6656880390896
 22
138.4025345471602
 32
0.0
 13
897.4750108842966
 23
138.4025345471589
 33
0.0
  0
SOLID
  5
1263
330
2
100
AcDbEntity
  8
LOGO
 62
     5
100
AcDbTrace
 10
887.3584753192153
 20
119.8555526778431
 30
0.0
 11
889.3143388617973
 21
119.8555526778431
 31
0.0
 12
896.6656880390896
 22
136.9187759976142
 32
0.0
 13
894.7098244965072
 23
129.747276341478
 33
0.0
  0
SOLID
  5
1264
330
2
100
AcDbEntity
  8
LOGO
 62
     2
100
AcDbTrace
 10
886.5491524740081
 20
138.4025345471589
 30
0.0
 11
887.3584753192153
 21
138.4025345471589
 31
0.0
 12
886.5491524740081
 22
119.8555526778431
 32
0.0
 13
887.3584753192153
 23
119.8555526778431
 33
0.0
  0
SOLID
  5
1265
330
2
100
AcDbEntity
  8
LOGO
 62
     5
100
AcDbTrace
 10
884.5932889314259
 20
119.8555526778431
 30
0.0
 11
886.5491524740081
 21
119.8555526778431
 31
0.0
 12
884.5932889314259
 22
129.747276341478
 32
0.0
 13
886.5491524740081
 23
136.9187759976142
 33
0.0
  0
LINE
  5
1266
330
2
100
AcDbEntity
  8
LOGO
 62
     1
100
AcDbLine
 10
869.7834995142782
 20
94.24160488734717
 30
0.0
 11
869.7834995142782
 21
139.4770868597611
 31
0.0
  0
SOLID
  5
1267
330
2
100
AcDbEntity
  8
LOGO
 62
     2
100
AcDbTrace
 10
876.4326169089258
 20
119.8555526778425
 30
0.0
 11
877.2419397541336
 21
119.8555526778431
 31
0.0
 12
886.5491524740081
 22
138.4025345471589
 32
0.0
 13
887.3584753192153
 23
138.4025345471589
 33
0.0
  0
SOLID
  5
1268
330
2
100
AcDbEntity
  8
LOGO
 62
     5
100
AcDbTrace
 10
877.2419397541336
 20
119.8555526778431
 30
0.0
 11
879.1978032967158
 21
119.8555526778431
 31
0.0
 12
886.5491524740081
 22
136.9187759976142
 32
0.0
 13
884.5932889314259
 23
129.747276341478
 33
0.0
  0
SOLID
  5
1269
330
2
100
AcDbEntity
  8
LOGO
 62
     5
100
AcDbTrace
 10
874.4767533663434
 20
119.8555526778431
 30
0.0
 11
876.4326169089258
 21
119.8555526778425
 31
0.0
 12
884.5932889314259
 22
138.4025345471602
 32
0.0
 13
886.5491524740081
 23
138.4025345471589
 33
0.0
  0
SOLID
  5
126A
330
2
100
AcDbEntity
  8
LOGO
 62
     5
100
AcDbTrace
 10
871.3410244710912
 20
113.1111956344557
 30
0.0
 11
872.0154601754305
 21
113.1111956344557
 31
0.0
 12
873.9147236127282
 22
116.483374156149
 32
0.0
 13
874.5891593170666
 23
116.483374156149
 33
0.0
  0
POLYLINE
  5
126B
330
2
100
AcDbEntity
  8
LOGO
 62
     5
100
AcDb2dPolyline
 66
     1
 10
0.0
 20
0.0
 30
0.0
 70
     1
 40
0.6755165307880492
 41
0.6755165307880492
  0
VERTEX
  5
126C
330
126B
100
AcDbEntity
  8
LOGO
 62
     5
100
AcDbVertex
100
AcDb2dVertex
 10
883.2422558698493
 20
114.797284895302
 30
0.0
 42
1.0
  0
VERTEX
  5
126D
330
126B
100
AcDbEntity
  8
LOGO
 62
     5
100
AcDbVertex
100
AcDb2dVertex
 10
885.9443219930014
 20
114.797284895302
 30
0.0
 42
1.0
  0
SEQEND
  5
126E
330
126B
100
AcDbEntity
  8
LOGO
 62
     5
  0
SOLID
  5
126F
330
2
100
AcDbEntity
  8
LOGO
 62
     5
100
AcDbTrace
 10
885.604875044364
 20
117.4950277126576
 30
0.0
 11
886.2793107487021
 21
117.4950277126576
 31
0.0
 12
885.604875044364
 22
113.1111956344557
 32
0.0
 13
886.2793107487021
 23
113.1111956344557
 33
0.0
  0
SOLID
  5
1270
330
2
100
AcDbEntity
  8
LOGO
 62
     5
100
AcDbTrace
 10
877.9612254328101
 20
116.483374156149
 30
0.0
 11
878.6356611371502
 21
116.483374156149
 31
0.0
 12
877.9612254328101
 22
113.1111956344543
 32
0.0
 13
878.6356611371502
 23
113.1111956344557
 33
0.0
  0
SOLID
  5
1271
330
2
100
AcDbEntity
  8
LOGO
 62
     5
100
AcDbTrace
 10
879.4225252734017
 20
116.483374156149
 30
0.0
 11
880.0969609777396
 21
116.483374156149
 31
0.0
 12
879.4225252734017
 22
113.1111956344557
 32
0.0
 13
880.0969609777396
 23
113.1111956344557
 33
0.0
  0
SOLID
  5
1272
330
2
100
AcDbEntity
  8
LOGO
 62
     5
100
AcDbTrace
 10
873.9147236127282
 20
113.1111956344557
 30
0.0
 11
874.5891593170666
 21
113.1111956344557
 31
0.0
 12
876.4884227543662
 22
116.483374156149
 32
0.0
 13
877.1628584587043
 23
116.483374156149
 33
0.0
  0
SOLID
  5
1273
330
2
100
AcDbEntity
  8
LOGO
 62
     5
100
AcDbTrace
 10
873.9147236127282
 20
116.483374156149
 30
0.0
 11
874.5891593170666
 21
116.483374156149
 31
0.0
 12
873.9147236127282
 22
113.1111956344557
 32
0.0
 13
874.5891593170666
 23
113.1111956344557
 33
0.0
  0
SOLID
  5
1274
330
2
100
AcDbEntity
  8
LOGO
 62
     5
100
AcDbTrace
 10
876.4884227543662
 20
116.483374156149
 30
0.0
 11
877.1628584587043
 21
116.483374156149
 31
0.0
 12
876.4884227543662
 22
113.1111956344557
 32
0.0
 13
877.1628584587043
 23
113.1111956344557
 33
0.0
  0
SOLID
  5
1275
330
2
100
AcDbEntity
  8
LOGO
 62
     5
100
AcDbTrace
 10
881.4458323864172
 20
115.1345027474714
 30
0.0
 11
882.1202680907566
 21
115.1345027474714
 31
0.0
 12
881.4458323864172
 22
113.1111956344557
 32
0.0
 13
882.1202680907566
 23
113.1111956344557
 33
0.0
  0
POLYLINE
  5
1276
330
2
100
AcDbEntity
  8
LOGO
 62
     5
100
AcDb2dPolyline
 66
     1
 10
0.0
 20
0.0
 30
0.0
 40
0.6755165307880492
 41
0.6755165307880492
  0
VERTEX
  5
1277
330
1276
100
AcDbEntity
  8
LOGO
 62
     5
100
AcDbVertex
100
AcDb2dVertex
 10
881.7846714782609
 20
115.1345027474714
 30
0.0
 42
1.0
  0
VERTEX
  5
1278
330
1276
100
AcDbEntity
  8
LOGO
 62
     5
100
AcDbVertex
100
AcDb2dVertex
 10
879.7581218858965
 20
115.1345027474714
 30
0.0
 42
1.0
  0
SEQEND
  5
1279
330
1276
100
AcDbEntity
  8
LOGO
 62
     5
  0
SOLID
  5
127A
330
2
100
AcDbEntity
  8
LOGO
 62
     5
100
AcDbTrace
 10
877.9612254328101
 20
116.9554791491859
 30
0.0
 11
878.6356611371502
 21
116.9554791491859
 31
0.0
 12
877.9612254328101
 22
117.4950277126576
 32
0.0
 13
878.6356611371502
 23
117.4950277126576
 33
0.0
  0
LINE
  5
127B
330
2
100
AcDbEntity
  8
LOGO
 62
     1
100
AcDbLine
 10
939.1445718719797
 20
112.3357976763127
 30
0.0
 11
939.1445718719797
 21
139.4770868597611
 31
0.0
  0
LINE
  5
127C
330
2
100
AcDbEntity
  8
LOGO
 62
     1
100
AcDbLine
 10
902.9561862940486
 20
112.3357976763127
 30
0.0
 11
902.9561862940486
 21
139.4770868597611
 31
0.0
  0
SOLID
  5
127D
330
2
100
AcDbEntity
  8
LOGO
 62
     2
100
AcDbTrace
 10
896.6656880390896
 20
138.4025345471602
 30
0.0
 11
897.4750108842966
 21
138.4025345471589
 31
0.0
 12
896.6656880390896
 22
119.8555526778425
 32
0.0
 13
897.4750108842966
 23
119.8555526778425
 33
0.0
  0
SOLID
  5
127E
330
2
100
AcDbEntity
  8
LOGO
 62
     5
100
AcDbTrace
 10
896.6656880390896
 20
136.9187759976142
 30
0.0
 11
894.7098244965072
 21
129.747276341478
 31
0.0
 12
896.6656880390896
 22
119.8555526778425
 32
0.0
 13
894.7098244965072
 23
119.8555526778425
 33
0.0
  0
SOLID
  5
127F
330
2
100
AcDbEntity
  8
LOGO
 62
     5
100
AcDbTrace
 10
897.4750108842966
 20
119.8555526778425
 30
0.0
 11
899.430874426879
 21
119.8555526778425
 31
0.0
 12
897.4750108842966
 22
138.4025345471589
 32
0.0
 13
899.430874426879
 23
138.4025345471602
 33
0.0
  0
TEXT
  5
1280
330
2
100
AcDbEntity
  8
LOGO
 62
     6
100
AcDbText
 10
908.7095741574151
 20
114.5975717749334
 30
0.0
 40
4.5235481972414
  1
單位 Unit:
 41
0.9
  7
CHINESET
 72
     4
 11
921.0503790830143
 21
116.8593458735541
 31
0.0
100
AcDbText
  0
CIRCLE
  5
1281
330
2
100
AcDbEntity
  8
LOGO
 62
     5
100
AcDbCircle
 10
894.2602456559953
 20
114.7972848953024
 30
0.0
 40
1.011653556508182
  0
POLYLINE
  5
1282
330
2
100
AcDbEntity
  8
LOGO
 62
     5
100
AcDb2dPolyline
 66
     1
 10
0.0
 20
0.0
 30
0.0
 70
     1
  0
VERTEX
  5
1283
330
1282
100
AcDbEntity
  8
LOGO
 62
     5
100
AcDbVertex
100
AcDb2dVertex
 10
893.2485920994871
 20
114.7972848953024
 30
0.0
 42
1.000000057330635
  0
VERTEX
  5
1284
330
1282
100
AcDbEntity
  8
LOGO
 62
     5
100
AcDbVertex
100
AcDb2dVertex
 10
895.2718992125038
 20
114.7972848953024
 30
0.0
 42
1.000000057330635
  0
SEQEND
  5
1285
330
1282
100
AcDbEntity
  8
LOGO
 62
     5
  0
SOLID
  5
1286
330
2
100
AcDbEntity
  8
LOGO
 62
     5
100
AcDbTrace
 10
898.7564387225409
 20
115.1345027474714
 30
0.0
 11
899.430874426879
 21
115.1345027474713
 31
0.0
 12
898.7564387225409
 22
113.1111956344557
 32
0.0
 13
899.430874426879
 23
113.1111956344557
 33
0.0
  0
SOLID
  5
1287
330
2
100
AcDbEntity
  8
LOGO
 62
     5
100
AcDbTrace
 10
896.7331316095238
 20
113.1111956344557
 30
0.0
 11
897.4075673138631
 21
113.1111956344557
 31
0.0
 12
896.7331316095238
 22
116.483374156149
 32
0.0
 13
897.4075673138631
 23
116.483374156149
 33
0.0
  0
SOLID
  5
1288
330
2
100
AcDbEntity
  8
LOGO
 62
     5
100
AcDbTrace
 10
895.2718317689342
 20
116.483374156149
 30
0.0
 11
895.9462674732725
 21
116.483374156149
 31
0.0
 12
895.2718317689342
 22
113.1111956344557
 32
0.0
 13
895.9462674732725
 23
113.1111956344557
 33
0.0
  0
LINE
  5
1289
330
2
100
AcDbEntity
  8
LOGO
 62
     5
100
AcDbLine
 10
899.430874426879
 20
113.1111956344557
 30
0.0
 11
899.430874426879
 21
115.1345027474714
 31
0.0
  0
POLYLINE
  5
128A
330
2
100
AcDbEntity
  8
LOGO
 62
     5
100
AcDb2dPolyline
 66
     1
 10
0.0
 20
0.0
 30
0.0
 70
     1
 40
0.6755165307880492
 41
0.6755165307880492
  0
VERTEX
  5
128B
330
128A
100
AcDbEntity
  8
LOGO
 62
     5
100
AcDbVertex
100
AcDb2dVertex
 10
892.9092125944189
 20
114.797284895302
 30
0.0
 42
1.0
  0
VERTEX
  5
128C
330
128A
100
AcDbEntity
  8
LOGO
 62
     5
100
AcDbVertex
100
AcDb2dVertex
 10
895.611278717571
 20
114.797284895302
 30
0.0
 42
1.0
  0
SEQEND
  5
128D
330
128A
100
AcDbEntity
  8
LOGO
 62
     5
  0
SOLID
  5
128E
330
2
100
AcDbEntity
  8
LOGO
 62
     5
100
AcDbTrace
 10
889.0894819979711
 20
115.1345027474714
 30
0.0
 11
889.7639177023094
 21
115.1345027474714
 31
0.0
 12
889.0894819979711
 22
113.1111956344557
 32
0.0
 13
889.7639177023094
 23
113.1111956344557
 33
0.0
  0
SOLID
  5
128F
330
2
100
AcDbEntity
  8
LOGO
 62
     5
100
AcDbTrace
 10
891.112789110987
 20
115.1345027474714
 30
0.0
 11
891.7872248153253
 21
115.1345027474714
 31
0.0
 12
891.112789110987
 22
113.1111956344543
 32
0.0
 13
891.7872248153253
 23
113.1111956344543
 33
0.0
  0
POLYLINE
  5
1290
330
2
100
AcDbEntity
  8
LOGO
 62
     5
100
AcDb2dPolyline
 66
     1
 10
0.0
 20
0.0
 30
0.0
 40
0.6755165307880492
 41
0.6755165307880492
  0
VERTEX
  5
1291
330
1290
100
AcDbEntity
  8
LOGO
 62
     5
100
AcDbVertex
100
AcDb2dVertex
 10
891.4516282028303
 20
115.1345027474714
 30
0.0
 42
1.0
  0
VERTEX
  5
1292
330
1290
100
AcDbEntity
  8
LOGO
 62
     5
100
AcDbVertex
100
AcDb2dVertex
 10
889.4250786104661
 20
115.1345027474714
 30
0.0
 42
1.0
  0
SEQEND
  5
1293
330
1290
100
AcDbEntity
  8
LOGO
 62
     5
  0
POLYLINE
  5
1294
330
2
100
AcDbEntity
  8
LOGO
 62
     5
100
AcDb2dPolyline
 66
     1
 10
0.0
 20
0.0
 30
0.0
 40
0.6755165307880492
 41
0.6755165307880492
  0
VERTEX
  5
1295
330
1294
100
AcDbEntity
  8
LOGO
 62
     5
100
AcDbVertex
100
AcDb2dVertex
 10
899.0952778143842
 20
115.1345027474714
 30
0.0
 42
1.0
  0
VERTEX
  5
1296
330
1294
100
AcDbEntity
  8
LOGO
 62
     5
100
AcDbVertex
100
AcDb2dVertex
 10
897.06872822202
 20
115.1345027474714
 30
0.0
 42
1.0
  0
SEQEND
  5
1297
330
1294
100
AcDbEntity
  8
LOGO
 62
     5
  0
TEXT
  5
1298
330
2
100
AcDbEntity
  8
LOGO
 62
     6
100
AcDbText
 10
908.2673165434883
 20
123.7082991172367
 30
0.0
 40
4.5235481972414
  1
投影 View:
 41
0.9
  7
CHINESET
 72
     4
 11
921.0503790830143
 21
125.9064422680369
 31
0.0
100
AcDbText
  0
TEXT
  5
1299
330
2
100
AcDbEntity
  8
LOGO
 62
     6
100
AcDbText
 10
906.6860941156132
 20
132.6939907195079
 30
0.0
 40
4.5235481972414
  1
比例 Scale:
 41
0.9
  7
CHINESET
 72
     4
 11
921.0503790830143
 21
134.9535386625197
 31
0.0
100
AcDbText
  0
CIRCLE
  5
129A
330
2
100
AcDbEntity
  8
LOGO
  6
CONTINUOUS
 62
     6
100
AcDbCircle
 10
947.5204871556369
 20
125.9161181707333
 30
0.0
 40
1.53888392461395
  0
LINE
  5
12BA
330
2
100
AcDbEntity
  8
0
 62
     4
100
AcDbLine
 10
1204.477183682439
 20
401.0466947480966
 30
0.0
 11
1204.477183682439
 21
139.4770868597611
 31
0.0
  0
LINE
  5
12BB
330
2
100
AcDbEntity
  8
LOGO
 62
     6
100
AcDbLine
 10
1198.474692631382
 20
98.0112283850485
 30
0.0
 11
1158.293428719393
 21
98.01122838504845
 31
0.0
  0
LINE
  5
12BC
330
2
100
AcDbEntity
  8
LOGO
 62
     6
100
AcDbLine
 10
1198.474692631382
 20
114.5976348705902
 30
0.0
 11
1158.293428719393
 21
114.5976348705902
 31
0.0
  0
LINE
  5
12BD
330
2
100
AcDbEntity
  8
LOGO
 62
     6
100
AcDbLine
 10
1198.474692631382
 20
121.3829361345667
 30
0.0
 11
1158.293428719393
 21
121.3829361345667
 31
0.0
  0
LINE
  5
12BE
330
2
100
AcDbEntity
  8
LOGO
 62
     6
100
AcDbLine
 10
1198.474692631382
 20
134.95353866252
 30
0.0
 11
1158.293428719393
 21
134.9535386625198
 31
0.0
  0
LINE
  5
12BF
330
2
100
AcDbEntity
  8
LOGO
 62
     6
100
AcDbLine
 10
1116.39258159323
 20
121.3829361345666
 30
0.0
 11
1072.288123377383
 21
121.3829361345667
 31
0.0
  0
LINE
  5
12C0
330
2
100
AcDbEntity
  8
LOGO
 62
     6
100
AcDbLine
 10
1116.39258159323
 20
134.95353866252
 30
0.0
 11
1072.288123377383
 21
134.9535386625197
 31
0.0
  0
LINE
  5
12C1
330
2
100
AcDbEntity
  8
LOGO
 62
     6
100
AcDbLine
 10
1116.39258159323
 20
98.01122838504845
 30
0.0
 11
1072.288123377383
 21
98.01122838504845
 31
0.0
  0
LINE
  5
12C2
330
2
100
AcDbEntity
  8
LOGO
 62
     6
100
AcDbLine
 10
1116.39258159323
 20
114.5976348705901
 30
0.0
 11
1072.288123377383
 21
114.5976348705901
 31
0.0
  0
TEXT
  5
12C3
330
2
100
AcDbEntity
  8
LOGO
 62
     6
100
AcDbText
 10
1073.948547628488
 20
99.89604597608943
 30
0.0
 40
3.769611813320298
  1
Rotating direction
 41
0.8
  7
ROMANS1
 72
     1
 11
1094.340352485307
 21
101.7808518827495
 31
0.0
100
AcDbText
 73
     2
  0
TEXT
  5
12C4
330
2
100
AcDbEntity
  8
LOGO
 62
     7
100
AcDbText
 10
971.9222225665157
 20
119.6601919551472
 30
0.0
 40
6.031397596321867
  1
Order example:
 41
0.8
  7
CHINESET
100
AcDbText
  0
LINE
  5
12C5
330
2
100
AcDbEntity
  8
LOGO
 62
     1
100
AcDbLine
 10
969.3015598535891
 20
94.24160488734717
 30
0.0
 11
969.3015598535891
 21
139.4770868597611
 31
0.0
  0
TEXT
  5
12C6
330
2
100
AcDbEntity
  8
LOGO
 62
     7
100
AcDbText
 10
973.0043051729248
 20
128.1511509539613
 30
0.0
 40
9.047096394482801
  1
訂購代號:
  7
CHINESET
100
AcDbText
  0
LINE
  5
12C7
330
2
100
AcDbEntity
  8
LOGO
 62
     6
100
AcDbLine
 10
964.0255831629669
 20
123.2896396150926
 30
0.0
 11
964.0255831629669
 21
128.542596726374
 31
0.0
  0
LINE
  5
12C8
330
2
100
AcDbEntity
  8
LOGO
  6
CONTINUOUS
 62
     6
100
AcDbLine
 10
955.7917236580962
 20
127.4550020953473
 30
0.0
 11
964.0255831629669
 21
128.542596726374
 31
0.0
  0
LINE
  5
12C9
330
2
100
AcDbEntity
  8
LOGO
  6
CONTINUOUS
 62
     6
100
AcDbLine
 10
955.7917236580962
 20
124.3772342461194
 30
0.0
 11
964.0255831629669
 21
123.2896396150926
 31
0.0
  0
LINE
  5
12CA
330
2
100
AcDbEntity
  8
LOGO
 62
     6
100
AcDbLine
 10
955.7917236580962
 20
124.3772342461193
 30
0.0
 11
955.7917236580962
 21
127.4550020953473
 31
0.0
  0
LINE
  5
12CB
330
2
100
AcDbEntity
  8
LOGO
 62
     6
100
AcDbLine
 10
1049.615150443002
 20
121.3828940707955
 30
0.0
 11
1049.615150443002
 21
114.5975717749334
 31
0.0
  0
TEXT
  5
12CC
330
2
100
AcDbEntity
  8
LOGO
  6
CONTINUOUS
 62
     6
100
AcDbText
 10
1042.434915209285
 20
99.89604013389891
 30
0.0
 40
3.769623497701167
  1
Model
  7
CHINESET
 72
     4
 11
1049.615150443002
 21
101.7808518827494
 31
0.0
100
AcDbText
  0
TEXT
  5
12CD
330
2
100
AcDbEntity
  8
LOGO
 62
     6
100
AcDbText
 10
1043.58375284668
 20
106.4587468688731
 30
0.0
 40
6.031397596321867
  1
型式
  7
CHINESET
 72
     4
 11
1049.615150443002
 21
109.3200988781518
 31
0.0
100
AcDbText
  0
LINE
  5
12CE
330
2
100
AcDbEntity
  8
LOGO
 62
     6
100
AcDbLine
 10
1066.693644433806
 20
98.01122838504831
 30
0.0
 11
1034.536656452197
 21
98.01122838504831
 31
0.0
  0
LINE
  5
12CF
330
2
100
AcDbEntity
  8
LOGO
 62
     6
100
AcDbLine
 10
1066.693644433806
 20
114.5975717749334
 30
0.0
 11
1034.536656452197
 21
114.5975717749334
 31
0.0
  0
LINE
  5
12D0
330
2
100
AcDbEntity
  8
LOGO
 62
     6
100
AcDbLine
 10
1034.536656452197
 20
114.5975717749334
 30
0.0
 11
1034.536656452197
 21
98.01122838504831
 31
0.0
  0
LINE
  5
12D1
330
2
100
AcDbEntity
  8
LOGO
 62
     6
100
AcDbLine
 10
1072.288123377383
 20
114.5976348705901
 30
0.0
 11
1072.288123377383
 21
98.01122838504845
 31
0.0
  0
LINE
  5
12D2
330
2
100
AcDbEntity
  8
LOGO
 62
     6
100
AcDbLine
 10
1066.693644433806
 20
114.5975717749334
 30
0.0
 11
1066.693644433806
 21
98.01122838504833
 31
0.0
  0
TEXT
  5
12D3
330
2
100
AcDbEntity
  8
LOGO
  6
CONTINUOUS
 62
     7
100
AcDbText
 10
1033.023574120396
 20
124.3985928689565
 30
0.0
 40
7.539246995402335
  1
MATSD
  7
CHINESET
 72
     1
 11
1050.615150443002
 21
128.1682163666576
 31
0.0
100
AcDbText
 73
     2
  0
LINE
  5
12D4
330
2
100
AcDbEntity
  8
LOGO
 62
     6
100
AcDbLine
 10
1069.709343231967
 20
121.3828940707955
 30
0.0
 11
1031.520957654036
 21
121.3828940707955
 31
0.0
  0
LINE
  5
12D5
330
2
100
AcDbEntity
  8
LOGO
 62
     6
100
AcDbLine
 10
1069.709343231967
 20
134.9535386625197
 30
0.0
 11
1031.520957654036
 21
134.9535386625197
 31
0.0
  0
LINE
  5
12D6
330
2
100
AcDbEntity
  8
LOGO
 62
     6
100
AcDbLine
 10
1031.520957654036
 20
134.9535386625197
 30
0.0
 11
1031.520957654036
 21
121.3828940707955
 31
0.0
  0
LINE
  5
12D7
330
2
100
AcDbEntity
  8
LOGO
 62
     6
100
AcDbLine
 10
1072.288123377383
 20
134.9535386625197
 30
0.0
 11
1072.288123377383
 21
121.3829361345667
 31
0.0
  0
LINE
  5
12D8
330
2
100
AcDbEntity
  8
LOGO
 62
     6
100
AcDbLine
 10
1072.288123377383
 20
134.9535386625197
 30
0.0
 11
1072.288123377383
 21
121.3828940707955
 31
0.0
  0
LINE
  5
12D9
330
2
100
AcDbEntity
  8
LOGO
 62
     6
100
AcDbLine
 10
1069.709343231967
 20
134.9535386625197
 30
0.0
 11
1069.709343231967
 21
121.3828940707955
 31
0.0
  0
TEXT
  5
12DA
330
2
100
AcDbEntity
  8
LOGO
  6
CONTINUOUS
 62
     6
100
AcDbText
 10
1133.919428313834
 20
99.896040133899
 30
0.0
 40
3.769623497701167
  1
Bore
 41
0.8
  7
CHINESET
 72
     4
 11
1138.58658121575
 21
101.7808518827495
 31
0.0
100
AcDbText
  0
TEXT
  5
12DB
330
2
100
AcDbEntity
  8
LOGO
 62
     6
100
AcDbText
 10
1132.819057264267
 20
106.3044000799909
 30
0.0
 40
6.031397596321867
  1
內徑
 41
0.9
  7
CHINESET
 72
     4
 11
1138.58658121575
 21
109.3200988781519
 31
0.0
100
AcDbText
  0
LINE
  5
12DC
330
2
100
AcDbEntity
  8
LOGO
 62
     6
100
AcDbLine
 10
1148.691146865362
 20
98.01122838504845
 30
0.0
 11
1126.482015566138
 21
98.01122838504838
 31
0.0
  0
LINE
  5
12DD
330
2
100
AcDbEntity
  8
LOGO
 62
     6
100
AcDbLine
 10
1148.691146865362
 20
114.5975717749335
 30
0.0
 11
1126.482015566138
 21
114.5975717749335
 31
0.0
  0
TEXT
  5
12DE
330
2
100
AcDbEntity
  8
LOGO
  6
CONTINUOUS
 62
     7
100
AcDbText
 10
1133.187044514192
 20
124.3130973329598
 30
0.0
 40
7.539246995402335
  1
40
  7
CHINESET
 72
     1
 11
1139.290244462851
 21
128.082720830661
 31
0.0
100
AcDbText
 73
     2
  0
LINE
  5
12DF
330
2
100
AcDbEntity
  8
LOGO
 62
     6
100
AcDbLine
 10
1148.691146865362
 20
121.3828940707956
 30
0.0
 11
1126.482015566138
 21
121.3828940707956
 31
0.0
  0
LINE
  5
12E0
330
2
100
AcDbEntity
  8
LOGO
 62
     6
100
AcDbLine
 10
1148.691146865362
 20
134.9535386625199
 30
0.0
 11
1126.482015566138
 21
134.9535386625198
 31
0.0
  0
LINE
  5
12E1
330
2
100
AcDbEntity
  8
LOGO
 62
     6
100
AcDbLine
 10
1094.340352485307
 20
121.3829361345667
 30
0.0
 11
1094.340352485307
 21
114.5976348705901
 31
0.0
  0
TEXT
  5
12E2
330
2
100
AcDbEntity
  8
LOGO
 62
     6
100
AcDbText
 10
1083.710014221789
 20
106.4866974892958
 30
0.0
 40
6.031397596321867
  1
旋轉方向
 41
0.9
  7
CHINESET
 72
     4
 11
1094.340352485307
 21
109.3200988781519
 31
0.0
100
AcDbText
  0
LINE
  5
12E3
330
2
100
AcDbEntity
  8
LOGO
 62
     6
100
AcDbLine
 10
1126.482015566138
 20
114.5975717749335
 30
0.0
 11
1126.482015566138
 21
98.01122838504845
 31
0.0
  0
LINE
  5
12E4
330
2
100
AcDbEntity
  8
LOGO
 62
     6
100
AcDbLine
 10
1116.39258159323
 20
114.5976348705901
 30
0.0
 11
1116.39258159323
 21
98.01122838504845
 31
0.0
  0
LINE
  5
12E5
330
2
100
AcDbEntity
  8
LOGO
 62
     6
100
AcDbLine
 10
1126.482015566138
 20
134.9535386625198
 30
0.0
 11
1126.482015566138
 21
121.3828940707956
 31
0.0
  0
LINE
  5
12E6
330
2
100
AcDbEntity
  8
LOGO
 62
     6
100
AcDbLine
 10
1116.39258159323
 20
134.9535386625198
 30
0.0
 11
1116.39258159323
 21
121.3829361345667
 31
0.0
  0
LINE
  5
12E7
330
2
100
AcDbEntity
  8
LOGO
  6
CONTINUOUS
 62
     7
100
AcDbLine
 10
1118.365662438423
 20
128.120146998845
 30
0.0
 11
1124.35796391931
 21
128.120146998845
 31
0.0
  0
LINE
  5
12E8
330
2
100
AcDbEntity
  8
LOGO
 62
     6
100
AcDbLine
 10
1136.586580868063
 20
121.3828940707956
 30
0.0
 11
1136.586580868063
 21
114.5975717749335
 31
0.0
  0
LINE
  5
12E9
330
2
100
AcDbEntity
  8
LOGO
 62
     6
100
AcDbLine
 10
1178.81997130083
 20
121.3829361345667
 30
0.0
 11
1178.81997130083
 21
114.5976348705902
 31
0.0
  0
TEXT
  5
12EA
330
2
100
AcDbEntity
  8
LOGO
 62
     6
100
AcDbText
 10
1162.018272932888
 20
99.89604597608943
 30
0.0
 40
3.769611813320298
  1
Rotating angle
 41
0.8
  7
ROMANS1
 72
     1
 11
1178.81997130083
 21
101.7808518827495
 31
0.0
100
AcDbText
 73
     2
  0
LINE
  5
12EB
330
2
100
AcDbEntity
  8
LOGO
 62
     6
100
AcDbLine
 10
1148.691146865362
 20
114.5975717749335
 30
0.0
 11
1148.691146865362
 21
98.01122838504847
 31
0.0
  0
LINE
  5
12EC
330
2
100
AcDbEntity
  8
LOGO
 62
     6
100
AcDbLine
 10
1158.293428719393
 20
114.5976348705902
 30
0.0
 11
1158.293428719393
 21
98.01122838504845
 31
0.0
  0
TEXT
  5
12ED
330
2
100
AcDbEntity
  8
LOGO
 62
     6
100
AcDbText
 10
1168.019999979917
 20
106.4926339042528
 30
0.0
 40
6.031397596321867
  1
旋轉角度
 41
0.9
  7
CHINESET
 72
     4
 11
1178.81997130083
 21
109.3200988781519
 31
0.0
100
AcDbText
  0
LINE
  5
12EE
330
2
100
AcDbEntity
  8
LOGO
 62
     6
100
AcDbLine
 10
1148.691146865362
 20
134.9535386625199
 30
0.0
 11
1148.691146865362
 21
121.3828940707956
 31
0.0
  0
LINE
  5
12EF
330
2
100
AcDbEntity
  8
LOGO
 62
     6
100
AcDbLine
 10
1158.293428719393
 20
134.9535386625198
 30
0.0
 11
1158.293428719393
 21
121.3829361345667
 31
0.0
  0
LINE
  5
12F0
330
2
100
AcDbEntity
  8
LOGO
  6
CONTINUOUS
 62
     7
100
AcDbLine
 10
1150.546428568357
 20
128.1201469988451
 30
0.0
 11
1156.538730049244
 21
128.1201469988451
 31
0.0
  0
LINE
  5
1309
330
2
100
AcDbEntity
  8
LOGO
 62
     1
100
AcDbLine
 10
1204.477183682439
 20
94.24160488734717
 30
0.0
 11
1204.477183682439
 21
139.4770868597611
 31
0.0
  0
LINE
  5
130A
330
2
100
AcDbEntity
  8
LOGO
 62
     6
100
AcDbLine
 10
1198.474692631382
 20
114.5976348705902
 30
0.0
 11
1198.474692631382
 21
98.0112283850485
 31
0.0
  0
LINE
  5
130B
330
2
100
AcDbEntity
  8
LOGO
 62
     6
100
AcDbLine
 10
1198.474692631382
 20
134.9535386625199
 30
0.0
 11
1198.474692631382
 21
121.3829361345667
 31
0.0
  0
LINE
  5
2C07
330
2
100
AcDbEntity
  8
0
100
AcDbLine
 10
956.7408999521141
 20
222.803146462957
 30
0.0
 11
1009.740899952114
 21
222.803146462957
 31
0.0
  0
ARC
  5
2C0A
330
2
100
AcDbEntity
  8
0
100
AcDbCircle
 10
983.2408999521142
 20
356.5284455596272
 30
0.0
 40
27.5
100
AcDbArc
 50
200.2095453737525
 51
339.7904546262473
  0
LINE
  5
2C0B
102
{ACAD_REACTORS
330
2D8D
330
2E01
102
}
330
2
100
AcDbEntity
  8
0
100
AcDbLine
 10
1009.740899952114
 20
177.803146462957
 30
0.0
 11
956.7408999521141
 21
177.803146462957
 31
0.0
  0
LINE
  5
2C0F
102
{ACAD_REACTORS
330
2D8D
102
}
330
2
100
AcDbEntity
  8
0
100
AcDbLine
 10
957.2408999521142
 20
168.8031464629571
 30
0.0
 11
1009.240899952114
 21
168.8031464629571
 31
0.0
  0
LINE
  5
2C11
330
2
100
AcDbEntity
  8
0
100
AcDbLine
 10
958.7408999521143
 20
243.803146462957
 30
0.0
 11
1007.740899952114
 21
243.803146462957
 31
0.0
  0
ARC
  5
2C13
330
2
100
AcDbEntity
  8
0
100
AcDbCircle
 10
983.2408999521142
 20
356.5284455596272
 30
0.0
 40
26.5
100
AcDbArc
 50
201.0075254198194
 51
338.9924745801818
  0
LINE
  5
2C1C
102
{ACAD_REACTORS
330
2E39
102
}
330
2
100
AcDbEntity
  8
0
100
AcDbLine
 10
955.7408999521141
 20
178.803146462957
 30
0.0
 11
955.7408999521141
 21
221.8031464629571
 31
0.0
  0
LINE
  5
2C1D
330
2
100
AcDbEntity
  8
0
100
AcDbLine
 10
956.7408999521141
 20
241.803146462957
 30
0.0
 11
956.7408999521141
 21
222.803146462957
 31
0.0
  0
LINE
  5
2C1E
330
2
100
AcDbEntity
  8
0
100
AcDbLine
 10
957.2408999521142
 20
168.8031464629571
 30
0.0
 11
956.7408999521141
 21
169.303146462957
 31
0.0
  0
LINE
  5
2C1F
330
2
100
AcDbEntity
  8
0
100
AcDbLine
 10
956.7408999521141
 20
177.803146462957
 30
0.0
 11
955.7408999521141
 21
178.803146462957
 31
0.0
  0
LINE
  5
2C20
330
2
100
AcDbEntity
  8
0
100
AcDbLine
 10
956.7408999521141
 20
222.803146462957
 30
0.0
 11
955.7408999521141
 21
221.8031464629571
 31
0.0
  0
LINE
  5
2C21
330
2
100
AcDbEntity
  8
0
100
AcDbLine
 10
958.7408999521143
 20
243.803146462957
 30
0.0
 11
956.7408999521141
 21
241.803146462957
 31
0.0
  0
LINE
  5
2C2C
330
2
100
AcDbEntity
  8
CENTER
100
AcDbLine
 10
983.2408999521142
 20
296.2176910793697
 30
0.0
 11
983.2408999521142
 21
166.931918888257
 31
0.0
  0
LINE
  5
2C30
330
2
100
AcDbEntity
  8
HIDDEN
  6
HIDDEN
100
AcDbLine
 10
996.1708999521141
 20
177.094916079657
 30
0.0
 11
996.1708999521141
 21
168.8031464629571
 31
0.0
  0
LINE
  5
2C31
330
2
100
AcDbEntity
  8
HIDDEN
  6
HIDDEN
100
AcDbLine
 10
995.1708999521141
 20
177.094916079657
 30
0.0
 11
995.1708999521141
 21
168.8031464629571
 31
0.0
  0
LINE
  5
2C32
330
2
100
AcDbEntity
  8
HIDDEN
  6
HIDDEN
100
AcDbLine
 10
1004.170899952114
 20
177.094916079657
 30
0.0
 11
1004.170899952114
 21
168.8031464629571
 31
0.0
  0
LINE
  5
2C33
330
2
100
AcDbEntity
  8
HIDDEN
  6
HIDDEN
100
AcDbLine
 10
1005.170899952114
 20
177.094916079657
 30
0.0
 11
1005.170899952114
 21
168.8031464629571
 31
0.0
  0
LINE
  5
2C38
330
2
100
AcDbEntity
  8
0
100
AcDbLine
 10
975.2408999521142
 20
274.803146462957
 30
0.0
 11
975.2408999521142
 21
243.803146462957
 31
0.0
  0
LINE
  5
2C39
330
2
100
AcDbEntity
  8
0
100
AcDbLine
 10
991.2408999521142
 20
274.803146462957
 30
0.0
 11
991.2408999521142
 21
243.803146462957
 31
0.0
  0
LINE
  5
2C3A
102
{ACAD_REACTORS
330
2E39
102
}
330
2
100
AcDbEntity
  8
0
100
AcDbLine
 10
1010.740899952114
 20
221.8031464629571
 30
0.0
 11
1010.740899952114
 21
178.803146462957
 31
0.0
  0
LINE
  5
2C3B
102
{ACAD_REACTORS
330
2E01
102
}
330
2
100
AcDbEntity
  8
0
100
AcDbLine
 10
1009.740899952114
 20
241.803146462957
 30
0.0
 11
1009.740899952114
 21
222.803146462957
 31
0.0
  0
LINE
  5
2C3C
330
2
100
AcDbEntity
  8
0
100
AcDbLine
 10
1009.240899952114
 20
168.8031464629571
 30
0.0
 11
1009.740899952114
 21
169.303146462957
 31
0.0
  0
LINE
  5
2C3D
330
2
100
AcDbEntity
  8
0
100
AcDbLine
 10
1010.740899952114
 20
178.803146462957
 30
0.0
 11
1009.740899952114
 21
177.803146462957
 31
0.0
  0
LINE
  5
2C3E
330
2
100
AcDbEntity
  8
0
100
AcDbLine
 10
1009.740899952114
 20
241.803146462957
 30
0.0
 11
1007.740899952114
 21
243.803146462957
 31
0.0
  0
LINE
  5
2C3F
330
2
100
AcDbEntity
  8
0
100
AcDbLine
 10
1009.740899952114
 20
222.803146462957
 30
0.0
 11
1010.740899952114
 21
221.8031464629571
 31
0.0
  0
LINE
  5
2C46
330
2
100
AcDbEntity
  8
CENTER
100
AcDbLine
 10
983.2408999521142
 20
327.6885192788272
 30
0.0
 11
983.2408999521142
 21
386.9288817537272
 31
0.0
  0
POLYLINE
  5
2C4A
330
2
100
AcDbEntity
  8
DIM
100
AcDb2dPolyline
 66
     1
 10
0.0
 20
0.0
 30
0.0
 70
     5
 75
     6
  0
VERTEX
  5
2C4B
330
2C4A
100
AcDbEntity
  8
DIM
100
AcDbVertex
100
AcDb2dVertex
 10
918.5625771323495
 20
340.0259346780757
 30
0.0
 70
    16
  0
VERTEX
  5
36FC
330
2C4A
100
AcDbEntity
  8
DIM
100
AcDbVertex
100
AcDb2dVertex
 10
920.4847117213093
 20
335.5705881932816
 30
0.0
 70
     8
  0
VERTEX
  5
36FD
330
2C4A
100
AcDbEntity
  8
DIM
100
AcDbVertex
100
AcDb2dVertex
 10
920.5749545177969
 20
335.2565786146034
 30
0.0
 70
     8
  0
VERTEX
  5
36FE
330
2C4A
100
AcDbEntity
  8
DIM
100
AcDbVertex
100
AcDb2dVertex
 10
920.6305264991284
 20
335.0061926601883
 30
0.0
 70
     8
  0
VERTEX
  5
36FF
330
2C4A
100
AcDbEntity
  8
DIM
100
AcDbVertex
100
AcDb2dVertex
 10
920.6648387027932
 20
334.8056190227844
 30
0.0
 70
     8
  0
VERTEX
  5
3700
330
2C4A
100
AcDbEntity
  8
DIM
100
AcDbVertex
100
AcDb2dVertex
 10
920.6913021662815
 20
334.64104639514
 30
0.0
 70
     8
  0
VERTEX
  5
3701
330
2C4A
100
AcDbEntity
  8
DIM
100
AcDbVertex
100
AcDb2dVertex
 10
920.7233279270836
 20
334.4986634700034
 30
0.0
 70
     8
  0
VERTEX
  5
3702
330
2C4A
100
AcDbEntity
  8
DIM
100
AcDbVertex
100
AcDb2dVertex
 10
920.7743270226895
 20
334.3646589401229
 30
0.0
 70
     8
  0
VERTEX
  5
3703
330
2C4A
100
AcDbEntity
  8
DIM
100
AcDbVertex
100
AcDb2dVertex
 10
920.857710490589
 20
334.2252214982468
 30
0.0
 70
     8
  0
VERTEX
  5
3704
330
2C4A
100
AcDbEntity
  8
DIM
100
AcDbVertex
100
AcDb2dVertex
 10
920.986889368272
 20
334.0665398371233
 30
0.0
 70
     8
  0
VERTEX
  5
3705
330
2C4A
100
AcDbEntity
  8
DIM
100
AcDbVertex
100
AcDb2dVertex
 10
921.1706980043242
 20
333.8798591901779
 30
0.0
 70
     8
  0
VERTEX
  5
3706
330
2C4A
100
AcDbEntity
  8
DIM
100
AcDbVertex
100
AcDb2dVertex
 10
921.3996639917112
 20
333.6766509535444
 30
0.0
 70
     8
  0
VERTEX
  5
3707
330
2C4A
100
AcDbEntity
  8
DIM
100
AcDbVertex
100
AcDb2dVertex
 10
921.6597382344943
 20
333.4734430640338
 30
0.0
 70
     8
  0
VERTEX
  5
3708
330
2C4A
100
AcDbEntity
  8
DIM
100
AcDbVertex
100
AcDb2dVertex
 10
921.9368716367345
 20
333.286763458457
 30
0.0
 70
     8
  0
VERTEX
  5
3709
330
2C4A
100
AcDbEntity
  8
DIM
100
AcDbVertex
100
AcDb2dVertex
 10
922.2170151024934
 20
333.1331400736253
 30
0.0
 70
     8
  0
VERTEX
  5
370A
330
2C4A
100
AcDbEntity
  8
DIM
100
AcDbVertex
100
AcDb2dVertex
 10
922.4861195358316
 20
333.0291008463494
 30
0.0
 70
     8
  0
VERTEX
  5
370B
330
2C4A
100
AcDbEntity
  8
DIM
100
AcDbVertex
100
AcDb2dVertex
 10
922.7301358408109
 20
332.9911737134405
 30
0.0
 70
     8
  0
VERTEX
  5
370C
330
2C4A
100
AcDbEntity
  8
DIM
100
AcDbVertex
100
AcDb2dVertex
 10
922.9350149214919
 20
333.0358866117094
 30
0.0
 70
     8
  0
VERTEX
  5
370D
330
2C4A
100
AcDbEntity
  8
DIM
100
AcDbVertex
100
AcDb2dVertex
 10
923.090031826951
 20
333.1735694799681
 30
0.0
 70
     8
  0
VERTEX
  5
370E
330
2C4A
100
AcDbEntity
  8
DIM
100
AcDbVertex
100
AcDb2dVertex
 10
923.197758186323
 20
333.3897602650306
 30
0.0
 70
     8
  0
VERTEX
  5
370F
330
2C4A
100
AcDbEntity
  8
DIM
100
AcDbVertex
100
AcDb2dVertex
 10
923.2640897737582
 20
333.6637989157125
 30
0.0
 70
     8
  0
VERTEX
  5
3710
330
2C4A
100
AcDbEntity
  8
DIM
100
AcDbVertex
100
AcDb2dVertex
 10
923.2949223634065
 20
333.9750253808287
 30
0.0
 70
     8
  0
VERTEX
  5
3711
330
2C4A
100
AcDbEntity
  8
DIM
100
AcDbVertex
100
AcDb2dVertex
 10
923.296151729418
 20
334.3027796091945
 30
0.0
 70
     8
  0
VERTEX
  5
3712
330
2C4A
100
AcDbEntity
  8
DIM
100
AcDbVertex
100
AcDb2dVertex
 10
923.2736736459425
 20
334.6264015496249
 30
0.0
 70
     8
  0
VERTEX
  5
3713
330
2C4A
100
AcDbEntity
  8
DIM
100
AcDbVertex
100
AcDb2dVertex
 10
923.2333838871303
 20
334.9252311509352
 30
0.0
 70
     8
  0
VERTEX
  5
3714
330
2C4A
100
AcDbEntity
  8
DIM
100
AcDbVertex
100
AcDb2dVertex
 10
923.1811782271311
 20
335.1786083619405
 30
0.0
 70
     8
  0
VERTEX
  5
3715
330
2C4A
100
AcDbEntity
  8
DIM
100
AcDbVertex
100
AcDb2dVertex
 10
923.1215298241339
 20
335.3724795161724
 30
0.0
 70
     8
  0
VERTEX
  5
3716
330
2C4A
100
AcDbEntity
  8
DIM
100
AcDbVertex
100
AcDb2dVertex
 10
923.0532213724828
 20
335.5192164860274
 30
0.0
 70
     8
  0
VERTEX
  5
3717
330
2C4A
100
AcDbEntity
  8
DIM
100
AcDbVertex
100
AcDb2dVertex
 10
922.9736129505612
 20
335.6377975286189
 30
0.0
 70
     8
  0
VERTEX
  5
3718
330
2C4A
100
AcDbEntity
  8
DIM
100
AcDbVertex
100
AcDb2dVertex
 10
922.8800646367515
 20
335.7472009010598
 30
0.0
 70
     8
  0
VERTEX
  5
3719
330
2C4A
100
AcDbEntity
  8
DIM
100
AcDbVertex
100
AcDb2dVertex
 10
922.7699365094373
 20
335.8664048604633
 30
0.0
 70
     8
  0
VERTEX
  5
371A
330
2C4A
100
AcDbEntity
  8
DIM
100
AcDbVertex
100
AcDb2dVertex
 10
922.6405886470015
 20
336.0143876639426
 30
0.0
 70
     8
  0
VERTEX
  5
371B
330
2C4A
100
AcDbEntity
  8
DIM
100
AcDbVertex
100
AcDb2dVertex
 10
922.4893811278267
 20
336.2101275686106
 30
0.0
 70
     8
  0
VERTEX
  5
371C
330
2C4A
100
AcDbEntity
  8
DIM
100
AcDbVertex
100
AcDb2dVertex
 10
922.3136740302962
 20
336.4726028315806
 30
0.0
 70
     8
  0
VERTEX
  5
371D
330
2C4A
100
AcDbEntity
  8
DIM
100
AcDbVertex
100
AcDb2dVertex
 10
922.1120664629809
 20
336.8139377697151
 30
0.0
 70
     8
  0
VERTEX
  5
371E
330
2C4A
100
AcDbEntity
  8
DIM
100
AcDbVertex
100
AcDb2dVertex
 10
921.888113655201
 20
337.2188409388753
 30
0.0
 70
     8
  0
VERTEX
  5
371F
330
2C4A
100
AcDbEntity
  8
DIM
100
AcDbVertex
100
AcDb2dVertex
 10
921.6466098664646
 20
337.6651669546715
 30
0.0
 70
     8
  0
VERTEX
  5
3720
330
2C4A
100
AcDbEntity
  8
DIM
100
AcDbVertex
100
AcDb2dVertex
 10
921.3923493562797
 20
338.1307704327143
 30
0.0
 70
     8
  0
VERTEX
  5
3721
330
2C4A
100
AcDbEntity
  8
DIM
100
AcDbVertex
100
AcDb2dVertex
 10
921.1301263841543
 20
338.5935059886143
 30
0.0
 70
     8
  0
VERTEX
  5
3722
330
2C4A
100
AcDbEntity
  8
DIM
100
AcDbVertex
100
AcDb2dVertex
 10
920.8647352095967
 20
339.031228237982
 30
0.0
 70
     8
  0
VERTEX
  5
3723
330
2C4A
100
AcDbEntity
  8
DIM
100
AcDbVertex
100
AcDb2dVertex
 10
920.600970092115
 20
339.4217917964279
 30
0.0
 70
     8
  0
VERTEX
  5
3724
330
2C4A
100
AcDbEntity
  8
DIM
100
AcDbVertex
100
AcDb2dVertex
 10
920.3436252912169
 20
339.7430512795626
 30
0.0
 70
     8
  0
VERTEX
  5
3725
330
2C4A
100
AcDbEntity
  8
DIM
100
AcDbVertex
100
AcDb2dVertex
 10
920.0977958606685
 20
339.9769636664881
 30
0.0
 70
     8
  0
VERTEX
  5
3726
330
2C4A
100
AcDbEntity
  8
DIM
100
AcDbVertex
100
AcDb2dVertex
 10
919.8697800312665
 20
340.1218953902718
 30
0.0
 70
     8
  0
VERTEX
  5
3727
330
2C4A
100
AcDbEntity
  8
DIM
100
AcDbVertex
100
AcDb2dVertex
 10
919.666176828065
 20
340.1803152474727
 30
0.0
 70
     8
  0
VERTEX
  5
3728
330
2C4A
100
AcDbEntity
  8
DIM
100
AcDbVertex
100
AcDb2dVertex
 10
919.4935852761188
 20
340.1546920346499
 30
0.0
 70
     8
  0
VERTEX
  5
3729
330
2C4A
100
AcDbEntity
  8
DIM
100
AcDbVertex
100
AcDb2dVertex
 10
919.358604400482
 20
340.0474945483622
 30
0.0
 70
     8
  0
VERTEX
  5
372A
330
2C4A
100
AcDbEntity
  8
DIM
100
AcDbVertex
100
AcDb2dVertex
 10
919.2678332262094
 20
339.8611915851686
 30
0.0
 70
     8
  0
VERTEX
  5
372B
330
2C4A
100
AcDbEntity
  8
DIM
100
AcDbVertex
100
AcDb2dVertex
 10
919.2278707783549
 20
339.5982519416281
 30
0.0
 70
     8
  0
VERTEX
  5
372C
330
2C4A
100
AcDbEntity
  8
DIM
100
AcDbVertex
100
AcDb2dVertex
 10
919.2453160819736
 20
339.2611444142996
 30
0.0
 70
     8
  0
VERTEX
  5
372D
330
2C4A
100
AcDbEntity
  8
DIM
100
AcDbVertex
100
AcDb2dVertex
 10
919.3233331448356
 20
338.8550332923728
 30
0.0
 70
     8
  0
VERTEX
  5
372E
330
2C4A
100
AcDbEntity
  8
DIM
100
AcDbVertex
100
AcDb2dVertex
 10
919.4513459055784
 20
338.3958648355599
 30
0.0
 70
     8
  0
VERTEX
  5
372F
330
2C4A
100
AcDbEntity
  8
DIM
100
AcDbVertex
100
AcDb2dVertex
 10
919.6153432855549
 20
337.902280796204
 30
0.0
 70
     8
  0
VERTEX
  5
3730
330
2C4A
100
AcDbEntity
  8
DIM
100
AcDbVertex
100
AcDb2dVertex
 10
919.8013142061185
 20
337.3929229266479
 30
0.0
 70
     8
  0
VERTEX
  5
3731
330
2C4A
100
AcDbEntity
  8
DIM
100
AcDbVertex
100
AcDb2dVertex
 10
919.9952475886224
 20
336.8864329792347
 30
0.0
 70
     8
  0
VERTEX
  5
3732
330
2C4A
100
AcDbEntity
  8
DIM
100
AcDbVertex
100
AcDb2dVertex
 10
920.1831323544201
 20
336.4014527063072
 30
0.0
 70
     8
  0
VERTEX
  5
3733
330
2C4A
100
AcDbEntity
  8
DIM
100
AcDbVertex
100
AcDb2dVertex
 10
920.3509574248647
 20
335.9566238602086
 30
0.0
 70
     8
  0
VERTEX
  5
2C4C
330
2C4A
100
AcDbEntity
  8
DIM
100
AcDbVertex
100
AcDb2dVertex
 10
920.997584816205
 20
334.7446155904584
 30
0.0
 70
    16
  0
VERTEX
  5
2C4D
330
2C4A
100
AcDbEntity
  8
DIM
100
AcDbVertex
100
AcDb2dVertex
 10
920.3553539306854
 20
334.4191321197801
 30
0.0
 70
    16
  0
VERTEX
  5
2C4E
330
2C4A
100
AcDbEntity
  8
DIM
100
AcDbVertex
100
AcDb2dVertex
 10
923.5023356706856
 20
331.9780949531612
 30
0.0
 70
    16
  0
VERTEX
  5
2C4F
330
2C4A
100
AcDbEntity
  8
DIM
100
AcDbVertex
100
AcDb2dVertex
 10
923.2453929155242
 20
335.8838077378321
 30
0.0
 70
    16
  0
VERTEX
  5
2C50
330
2C4A
100
AcDbEntity
  8
DIM
100
AcDbVertex
100
AcDb2dVertex
 10
922.6031620300041
 20
335.5583242671536
 30
0.0
 70
    16
  0
VERTEX
  5
2C51
330
2C4A
100
AcDbEntity
  8
DIM
100
AcDbVertex
100
AcDb2dVertex
 10
920.2240031462372
 20
340.7185121830366
 30
0.0
 70
    16
  0
SEQEND
  5
2C52
330
2C4A
100
AcDbEntity
  8
DIM
  0
TEXT
  5
2C53
330
2
100
AcDbEntity
  8
DIM
100
AcDbText
 10
902.3360618341131
 20
334.1049691949982
 30
0.0
 40
4.799999999999999
  1
CCW
  7
ROMANS
100
AcDbText
  0
POLYLINE
  5
2C54
330
2
100
AcDbEntity
  8
DIM
100
AcDb2dPolyline
 66
     1
 10
0.0
 20
0.0
 30
0.0
 70
     5
 75
     6
  0
VERTEX
  5
2C55
330
2C54
100
AcDbEntity
  8
DIM
100
AcDbVertex
100
AcDb2dVertex
 10
918.56257713235
 20
371.4110896879984
 30
0.0
 70
    16
  0
VERTEX
  5
3734
330
2C54
100
AcDbEntity
  8
DIM
100
AcDbVertex
100
AcDb2dVertex
 10
920.4847117213097
 20
375.8664361727925
 30
0.0
 70
     8
  0
VERTEX
  5
3735
330
2C54
100
AcDbEntity
  8
DIM
100
AcDbVertex
100
AcDb2dVertex
 10
920.5749545177974
 20
376.1804457514706
 30
0.0
 70
     8
  0
VERTEX
  5
3736
330
2C54
100
AcDbEntity
  8
DIM
100
AcDbVertex
100
AcDb2dVertex
 10
920.6305264991287
 20
376.4308317058858
 30
0.0
 70
     8
  0
VERTEX
  5
3737
330
2C54
100
AcDbEntity
  8
DIM
100
AcDbVertex
100
AcDb2dVertex
 10
920.6648387027936
 20
376.6314053432897
 30
0.0
 70
     8
  0
VERTEX
  5
3738
330
2C54
100
AcDbEntity
  8
DIM
100
AcDbVertex
100
AcDb2dVertex
 10
920.6913021662822
 20
376.795977970934
 30
0.0
 70
     8
  0
VERTEX
  5
3739
330
2C54
100
AcDbEntity
  8
DIM
100
AcDbVertex
100
AcDb2dVertex
 10
920.7233279270843
 20
376.9383608960706
 30
0.0
 70
     8
  0
VERTEX
  5
373A
330
2C54
100
AcDbEntity
  8
DIM
100
AcDbVertex
100
AcDb2dVertex
 10
920.7743270226901
 20
377.0723654259511
 30
0.0
 70
     8
  0
VERTEX
  5
373B
330
2C54
100
AcDbEntity
  8
DIM
100
AcDbVertex
100
AcDb2dVertex
 10
920.8577104905895
 20
377.2118028678273
 30
0.0
 70
     8
  0
VERTEX
  5
373C
330
2C54
100
AcDbEntity
  8
DIM
100
AcDbVertex
100
AcDb2dVertex
 10
920.9868893682727
 20
377.3704845289508
 30
0.0
 70
     8
  0
VERTEX
  5
373D
330
2C54
100
AcDbEntity
  8
DIM
100
AcDbVertex
100
AcDb2dVertex
 10
921.1706980043249
 20
377.5571651758962
 30
0.0
 70
     8
  0
VERTEX
  5
373E
330
2C54
100
AcDbEntity
  8
DIM
100
AcDbVertex
100
AcDb2dVertex
 10
921.3996639917118
 20
377.7603734125297
 30
0.0
 70
     8
  0
VERTEX
  5
373F
330
2C54
100
AcDbEntity
  8
DIM
100
AcDbVertex
100
AcDb2dVertex
 10
921.6597382344948
 20
377.9635813020402
 30
0.0
 70
     8
  0
VERTEX
  5
3740
330
2C54
100
AcDbEntity
  8
DIM
100
AcDbVertex
100
AcDb2dVertex
 10
921.9368716367352
 20
378.150260907617
 30
0.0
 70
     8
  0
VERTEX
  5
3741
330
2C54
100
AcDbEntity
  8
DIM
100
AcDbVertex
100
AcDb2dVertex
 10
922.217015102494
 20
378.3038842924487
 30
0.0
 70
     8
  0
VERTEX
  5
3742
330
2C54
100
AcDbEntity
  8
DIM
100
AcDbVertex
100
AcDb2dVertex
 10
922.4861195358322
 20
378.4079235197245
 30
0.0
 70
     8
  0
VERTEX
  5
3743
330
2C54
100
AcDbEntity
  8
DIM
100
AcDbVertex
100
AcDb2dVertex
 10
922.7301358408114
 20
378.4458506526334
 30
0.0
 70
     8
  0
VERTEX
  5
3744
330
2C54
100
AcDbEntity
  8
DIM
100
AcDbVertex
100
AcDb2dVertex
 10
922.9350149214925
 20
378.4011377543645
 30
0.0
 70
     8
  0
VERTEX
  5
3745
330
2C54
100
AcDbEntity
  8
DIM
100
AcDbVertex
100
AcDb2dVertex
 10
923.0900318269513
 20
378.263454886106
 30
0.0
 70
     8
  0
VERTEX
  5
3746
330
2C54
100
AcDbEntity
  8
DIM
100
AcDbVertex
100
AcDb2dVertex
 10
923.1977581863233
 20
378.0472641010435
 30
0.0
 70
     8
  0
VERTEX
  5
3747
330
2C54
100
AcDbEntity
  8
DIM
100
AcDbVertex
100
AcDb2dVertex
 10
923.2640897737587
 20
377.7732254503616
 30
0.0
 70
     8
  0
VERTEX
  5
3748
330
2C54
100
AcDbEntity
  8
DIM
100
AcDbVertex
100
AcDb2dVertex
 10
923.2949223634069
 20
377.4619989852453
 30
0.0
 70
     8
  0
VERTEX
  5
3749
330
2C54
100
AcDbEntity
  8
DIM
100
AcDbVertex
100
AcDb2dVertex
 10
923.2961517294183
 20
377.1342447568795
 30
0.0
 70
     8
  0
VERTEX
  5
374A
330
2C54
100
AcDbEntity
  8
DIM
100
AcDbVertex
100
AcDb2dVertex
 10
923.2736736459429
 20
376.8106228164492
 30
0.0
 70
     8
  0
VERTEX
  5
374B
330
2C54
100
AcDbEntity
  8
DIM
100
AcDbVertex
100
AcDb2dVertex
 10
923.2333838871308
 20
376.5117932151389
 30
0.0
 70
     8
  0
VERTEX
  5
374C
330
2C54
100
AcDbEntity
  8
DIM
100
AcDbVertex
100
AcDb2dVertex
 10
923.1811782271316
 20
376.2584160041336
 30
0.0
 70
     8
  0
VERTEX
  5
374D
330
2C54
100
AcDbEntity
  8
DIM
100
AcDbVertex
100
AcDb2dVertex
 10
923.1215298241345
 20
376.0645448499017
 30
0.0
 70
     8
  0
VERTEX
  5
374E
330
2C54
100
AcDbEntity
  8
DIM
100
AcDbVertex
100
AcDb2dVertex
 10
923.0532213724833
 20
375.9178078800467
 30
0.0
 70
     8
  0
VERTEX
  5
374F
330
2C54
100
AcDbEntity
  8
DIM
100
AcDbVertex
100
AcDb2dVertex
 10
922.9736129505617
 20
375.7992268374553
 30
0.0
 70
     8
  0
VERTEX
  5
3750
330
2C54
100
AcDbEntity
  8
DIM
100
AcDbVertex
100
AcDb2dVertex
 10
922.880064636752
 20
375.6898234650143
 30
0.0
 70
     8
  0
VERTEX
  5
3751
330
2C54
100
AcDbEntity
  8
DIM
100
AcDbVertex
100
AcDb2dVertex
 10
922.7699365094379
 20
375.5706195056107
 30
0.0
 70
     8
  0
VERTEX
  5
3752
330
2C54
100
AcDbEntity
  8
DIM
100
AcDbVertex
100
AcDb2dVertex
 10
922.6405886470017
 20
375.4226367021315
 30
0.0
 70
     8
  0
VERTEX
  5
3753
330
2C54
100
AcDbEntity
  8
DIM
100
AcDbVertex
100
AcDb2dVertex
 10
922.4893811278271
 20
375.2268967974634
 30
0.0
 70
     8
  0
VERTEX
  5
3754
330
2C54
100
AcDbEntity
  8
DIM
100
AcDbVertex
100
AcDb2dVertex
 10
922.3136740302967
 20
374.9644215344933
 30
0.0
 70
     8
  0
VERTEX
  5
3755
330
2C54
100
AcDbEntity
  8
DIM
100
AcDbVertex
100
AcDb2dVertex
 10
922.1120664629813
 20
374.6230865963587
 30
0.0
 70
     8
  0
VERTEX
  5
3756
330
2C54
100
AcDbEntity
  8
DIM
100
AcDbVertex
100
AcDb2dVertex
 10
921.8881136552013
 20
374.2181834271986
 30
0.0
 70
     8
  0
VERTEX
  5
3757
330
2C54
100
AcDbEntity
  8
DIM
100
AcDbVertex
100
AcDb2dVertex
 10
921.646609866465
 20
373.7718574114023
 30
0.0
 70
     8
  0
VERTEX
  5
3758
330
2C54
100
AcDbEntity
  8
DIM
100
AcDbVertex
100
AcDb2dVertex
 10
921.39234935628
 20
373.3062539333594
 30
0.0
 70
     8
  0
VERTEX
  5
3759
330
2C54
100
AcDbEntity
  8
DIM
100
AcDbVertex
100
AcDb2dVertex
 10
921.1301263841546
 20
372.8435183774593
 30
0.0
 70
     8
  0
VERTEX
  5
375A
330
2C54
100
AcDbEntity
  8
DIM
100
AcDbVertex
100
AcDb2dVertex
 10
920.8647352095971
 20
372.4057961280916
 30
0.0
 70
     8
  0
VERTEX
  5
375B
330
2C54
100
AcDbEntity
  8
DIM
100
AcDbVertex
100
AcDb2dVertex
 10
920.6009700921153
 20
372.0152325696456
 30
0.0
 70
     8
  0
VERTEX
  5
375C
330
2C54
100
AcDbEntity
  8
DIM
100
AcDbVertex
100
AcDb2dVertex
 10
920.3436252912172
 20
371.6939730865108
 30
0.0
 70
     8
  0
VERTEX
  5
375D
330
2C54
100
AcDbEntity
  8
DIM
100
AcDbVertex
100
AcDb2dVertex
 10
920.0977958606689
 20
371.4600606995854
 30
0.0
 70
     8
  0
VERTEX
  5
375E
330
2C54
100
AcDbEntity
  8
DIM
100
AcDbVertex
100
AcDb2dVertex
 10
919.8697800312666
 20
371.3151289758018
 30
0.0
 70
     8
  0
VERTEX
  5
375F
330
2C54
100
AcDbEntity
  8
DIM
100
AcDbVertex
100
AcDb2dVertex
 10
919.6661768280653
 20
371.2567091186008
 30
0.0
 70
     8
  0
VERTEX
  5
3760
330
2C54
100
AcDbEntity
  8
DIM
100
AcDbVertex
100
AcDb2dVertex
 10
919.493585276119
 20
371.2823323314237
 30
0.0
 70
     8
  0
VERTEX
  5
3761
330
2C54
100
AcDbEntity
  8
DIM
100
AcDbVertex
100
AcDb2dVertex
 10
919.3586044004824
 20
371.3895298177115
 30
0.0
 70
     8
  0
VERTEX
  5
3762
330
2C54
100
AcDbEntity
  8
DIM
100
AcDbVertex
100
AcDb2dVertex
 10
919.2678332262097
 20
371.5758327809052
 30
0.0
 70
     8
  0
VERTEX
  5
3763
330
2C54
100
AcDbEntity
  8
DIM
100
AcDbVertex
100
AcDb2dVertex
 10
919.2278707783554
 20
371.8387724244458
 30
0.0
 70
     8
  0
VERTEX
  5
3764
330
2C54
100
AcDbEntity
  8
DIM
100
AcDbVertex
100
AcDb2dVertex
 10
919.2453160819738
 20
372.1758799517743
 30
0.0
 70
     8
  0
VERTEX
  5
3765
330
2C54
100
AcDbEntity
  8
DIM
100
AcDbVertex
100
AcDb2dVertex
 10
919.3233331448359
 20
372.5819910737011
 30
0.0
 70
     8
  0
VERTEX
  5
3766
330
2C54
100
AcDbEntity
  8
DIM
100
AcDbVertex
100
AcDb2dVertex
 10
919.4513459055787
 20
373.041159530514
 30
0.0
 70
     8
  0
VERTEX
  5
3767
330
2C54
100
AcDbEntity
  8
DIM
100
AcDbVertex
100
AcDb2dVertex
 10
919.6153432855552
 20
373.5347435698699
 30
0.0
 70
     8
  0
VERTEX
  5
3768
330
2C54
100
AcDbEntity
  8
DIM
100
AcDbVertex
100
AcDb2dVertex
 10
919.8013142061187
 20
374.0441014394261
 30
0.0
 70
     8
  0
VERTEX
  5
3769
330
2C54
100
AcDbEntity
  8
DIM
100
AcDbVertex
100
AcDb2dVertex
 10
919.9952475886229
 20
374.5505913868393
 30
0.0
 70
     8
  0
VERTEX
  5
376A
330
2C54
100
AcDbEntity
  8
DIM
100
AcDbVertex
100
AcDb2dVertex
 10
920.1831323544203
 20
375.0355716597668
 30
0.0
 70
     8
  0
VERTEX
  5
376B
330
2C54
100
AcDbEntity
  8
DIM
100
AcDbVertex
100
AcDb2dVertex
 10
920.350957424865
 20
375.4804005058654
 30
0.0
 70
     8
  0
VERTEX
  5
2C56
330
2C54
100
AcDbEntity
  8
DIM
100
AcDbVertex
100
AcDb2dVertex
 10
920.9975848162056
 20
376.6924087756157
 30
0.0
 70
    16
  0
VERTEX
  5
2C57
330
2C54
100
AcDbEntity
  8
DIM
100
AcDbVertex
100
AcDb2dVertex
 10
920.3553539306861
 20
377.0178922462939
 30
0.0
 70
    16
  0
VERTEX
  5
2C58
330
2C54
100
AcDbEntity
  8
DIM
100
AcDbVertex
100
AcDb2dVertex
 10
923.5023356706861
 20
379.4589294129128
 30
0.0
 70
    16
  0
VERTEX
  5
2C59
330
2C54
100
AcDbEntity
  8
DIM
100
AcDbVertex
100
AcDb2dVertex
 10
923.2453929155246
 20
375.553216628242
 30
0.0
 70
    16
  0
VERTEX
  5
2C5A
330
2C54
100
AcDbEntity
  8
DIM
100
AcDbVertex
100
AcDb2dVertex
 10
922.6031620300046
 20
375.8787000989204
 30
0.0
 70
    16
  0
VERTEX
  5
2C5B
330
2C54
100
AcDbEntity
  8
DIM
100
AcDbVertex
100
AcDb2dVertex
 10
920.2240031462372
 20
370.7185121830365
 30
0.0
 70
    16
  0
SEQEND
  5
2C5C
330
2C54
100
AcDbEntity
  8
DIM
  0
TEXT
  5
2C5D
330
2
100
AcDbEntity
  8
DIM
100
AcDbText
 10
908.1988000391888
 20
373.7805079762743
 30
0.0
 40
4.799999999999999
  1
CW
  7
ROMANS
100
AcDbText
  0
LINE
  5
2C61
330
2
100
AcDbEntity
  8
0
100
AcDbLine
 10
956.7408999521141
 20
177.803146462957
 30
0.0
 11
956.7408999521141
 21
169.303146462957
 31
0.0
  0
LINE
  5
2C62
330
2
100
AcDbEntity
  8
0
100
AcDbLine
 10
1009.740899952114
 20
177.803146462957
 30
0.0
 11
1009.740899952114
 21
169.303146462957
 31
0.0
  0
LINE
  5
2C63
330
2
100
AcDbEntity
  8
AM_4N
100
AcDbLine
 10
956.7408999521141
 20
222.803146462957
 30
0.0
 11
956.7408999521141
 21
177.803146462957
 31
0.0
  0
LINE
  5
2C6E
330
2
100
AcDbEntity
  8
AM_4N
100
AcDbLine
 10
1009.740899952114
 20
222.803146462957
 30
0.0
 11
1009.740899952114
 21
177.803146462957
 31
0.0
  0
DIMENSION
  5
2D1F
330
2
100
AcDbEntity
  8
AM_5
100
AcDbDimension
  2
*D13
 10
1055.240899952114
 20
293.803146462957
 30
0.0
 11
1055.240899952114
 21
231.3031464629572
 31
0.0
 70
   160
  3
AM_ISO
100
AcDbAlignedDimension
 13
1011.740899952114
 23
168.8031464629571
 33
0.0
 14
1032.240899952114
 24
293.803146462957
 34
0.0
 50
90.0
100
AcDbRotatedDimension
  0
DIMENSION
  5
2D22
330
2
100
AcDbEntity
  8
AM_5
100
AcDbDimension
  2
*D12
 10
1045.240899952114
 20
274.803146462957
 30
0.0
 11
1042.240899952114
 21
221.8031464629572
 31
0.0
 70
    32
  3
AM_ISO
100
AcDbAlignedDimension
 13
1011.740899952114
 23
168.8031464629571
 33
0.0
 14
1032.240899952114
 24
274.803146462957
 34
0.0
 50
90.0
100
AcDbRotatedDimension
  0
DIMENSION
  5
2D25
330
2
100
AcDbEntity
  8
AM_5
100
AcDbDimension
  2
*D14
 10
1045.240899952114
 20
274.803146462957
 30
0.0
 11
1045.240899952114
 21
284.3031464629572
 31
0.0
 70
   160
  3
AM_ISO
100
AcDbAlignedDimension
 13
1032.240899952114
 23
293.803146462957
 33
0.0
 14
1032.240899952114
 24
274.803146462957
 34
0.0
 50
90.0
100
AcDbRotatedDimension
  0
DIMENSION
  5
2D76
102
{ACAD_XDICTIONARY
360
2D83
102
}
102
{ACAD_REACTORS
330
2D8D
102
}
330
2
100
AcDbEntity
  8
AM_5
100
AcDbDimension
  2
*D15
 10
1022.740899952114
 20
177.803146462957
 30
0.0
 11
1019.740899952114
 21
173.3031464629572
 31
0.0
 70
    32
  3
AM_ISO
100
AcDbAlignedDimension
 13
1009.240899952114
 23
168.8031464629571
 33
0.0
 14
1009.740899952114
 24
177.803146462957
 34
0.0
 50
90.0
100
AcDbRotatedDimension
1001
ACAD
1000
DSTYLE
1002
{
1070
   173
1070
     1
1070
     7
1000
GENDOT
1002
}
  0
DIMENSION
  5
2DEA
102
{ACAD_XDICTIONARY
360
2DF7
102
}
102
{ACAD_REACTORS
330
2E01
102
}
330
2
100
AcDbEntity
  8
AM_5
100
AcDbDimension
  2
*D16
 10
1022.740899952114
 20
222.803146462957
 30
0.0
 11
1019.731451133216
 21
200.3031464629572
 31
0.0
 70
    32
  3
AM_ISO
100
AcDbAlignedDimension
 13
1009.740899952114
 23
177.803146462957
 33
0.0
 14
1009.740899952114
 24
222.803146462957
 34
0.0
 50
90.0
100
AcDbRotatedDimension
1001
ACAD
1000
DSTYLE
1002
{
1070
   173
1070
     1
1070
     6
1000
GENDOT
1002
}
  0
DIMENSION
  5
2E22
102
{ACAD_XDICTIONARY
360
2E2F
102
}
102
{ACAD_REACTORS
330
2E39
102
}
330
2
100
AcDbEntity
  8
AM_5
100
AcDbDimension
  2
*D17
 10
1010.740899952114
 20
156.8031464629571
 30
0.0
 11
983.2408999521142
 21
159.8125952818547
 31
0.0
 70
    32
  1
M<>x1.5
  3
AM_ISO
100
AcDbAlignedDimension
 13
955.7408999521141
 23
178.803146462957
 33
0.0
 14
1010.740899952114
 24
178.803146462957
 34
0.0
 50
0.0000000000001018
100
AcDbRotatedDimension
  0
LINE
  5
2EC7
330
2
100
AcDbEntity
  8
0
100
AcDbLine
 10
1104.665842430497
 20
241.803146462957
 30
0.0
 11
1104.665842430497
 21
222.803146462957
 31
0.0
  0
LINE
  5
2EC8
330
2
100
AcDbEntity
  8
0
100
AcDbLine
 10
1157.665842430497
 20
241.803146462957
 30
0.0
 11
1157.665842430497
 21
222.803146462957
 31
0.0
  0
LINE
  5
2EC9
330
2
100
AcDbEntity
  8
CENTER
100
AcDbLine
 10
1131.165842430497
 20
296.2176910793697
 30
0.0
 11
1131.165842430497
 21
167.931918888257
 31
0.0
  0
LINE
  5
2ECF
330
2
100
AcDbEntity
  8
0
100
AcDbLine
 10
1158.665842430497
 20
221.8031464629571
 30
0.0
 11
1158.665842430497
 21
178.803146462957
 31
0.0
  0
LINE
  5
2ED0
330
2
100
AcDbEntity
  8
AM_4N
100
AcDbLine
 10
1157.665842430497
 20
222.803146462957
 30
0.0
 11
1157.665842430497
 21
177.803146462957
 31
0.0
  0
LINE
  5
2ED4
330
2
100
AcDbEntity
  8
0
100
AcDbLine
 10
1103.665842430497
 20
178.803146462957
 30
0.0
 11
1103.665842430497
 21
221.8031464629571
 31
0.0
  0
LINE
  5
2ED5
330
2
100
AcDbEntity
  8
AM_4N
100
AcDbLine
 10
1104.665842430497
 20
222.803146462957
 30
0.0
 11
1104.665842430497
 21
177.803146462957
 31
0.0
  0
LINE
  5
2ED6
330
2
100
AcDbEntity
  8
0
100
AcDbLine
 10
1157.665842430497
 20
177.803146462957
 30
0.0
 11
1104.665842430497
 21
177.803146462957
 31
0.0
  0
LINE
  5
2ED7
330
2
100
AcDbEntity
  8
0
100
AcDbLine
 10
1105.165842430497
 20
168.8031464629571
 30
0.0
 11
1157.165842430497
 21
168.8031464629571
 31
0.0
  0
LINE
  5
2EDA
330
2
100
AcDbEntity
  8
0
100
AcDbLine
 10
1104.665842430497
 20
177.803146462957
 30
0.0
 11
1104.665842430497
 21
169.303146462957
 31
0.0
  0
LINE
  5
2EDB
330
2
100
AcDbEntity
  8
0
100
AcDbLine
 10
1105.165842430497
 20
168.8031464629571
 30
0.0
 11
1104.665842430497
 21
169.303146462957
 31
0.0
  0
LINE
  5
2EDC
330
2
100
AcDbEntity
  8
0
100
AcDbLine
 10
1104.665842430497
 20
177.803146462957
 30
0.0
 11
1103.665842430497
 21
178.803146462957
 31
0.0
  0
LINE
  5
2EDD
330
2
100
AcDbEntity
  8
0
100
AcDbLine
 10
1157.665842430497
 20
177.803146462957
 30
0.0
 11
1157.665842430497
 21
169.303146462957
 31
0.0
  0
LINE
  5
2EE3
330
2
100
AcDbEntity
  8
0
100
AcDbLine
 10
1157.165842430497
 20
168.8031464629571
 30
0.0
 11
1157.665842430497
 21
169.303146462957
 31
0.0
  0
LINE
  5
2EE4
330
2
100
AcDbEntity
  8
0
100
AcDbLine
 10
1158.665842430497
 20
178.803146462957
 30
0.0
 11
1157.665842430497
 21
177.803146462957
 31
0.0
  0
LINE
  5
2EE5
330
2
100
AcDbEntity
  8
0
100
AcDbLine
 10
1104.665842430497
 20
222.803146462957
 30
0.0
 11
1157.665842430497
 21
222.803146462957
 31
0.0
  0
LINE
  5
2EE6
330
2
100
AcDbEntity
  8
0
100
AcDbLine
 10
1104.665842430497
 20
222.803146462957
 30
0.0
 11
1103.665842430497
 21
221.8031464629571
 31
0.0
  0
LINE
  5
2EE7
330
2
100
AcDbEntity
  8
0
100
AcDbLine
 10
1157.665842430497
 20
222.803146462957
 30
0.0
 11
1158.665842430497
 21
221.8031464629571
 31
0.0
  0
LINE
  5
2EED
330
2
100
AcDbEntity
  8
0
100
AcDbLine
 10
1123.165842430497
 20
274.803146462957
 30
0.0
 11
1123.165842430497
 21
243.803146462957
 31
0.0
  0
LINE
  5
2EEE
330
2
100
AcDbEntity
  8
0
100
AcDbLine
 10
1139.165842430497
 20
274.803146462957
 30
0.0
 11
1139.165842430497
 21
243.803146462957
 31
0.0
  0
LINE
  5
2EF4
330
2
100
AcDbEntity
  8
0
100
AcDbLine
 10
1106.665842430497
 20
243.803146462957
 30
0.0
 11
1155.665842430497
 21
243.803146462957
 31
0.0
  0
LINE
  5
2EF6
330
2
100
AcDbEntity
  8
0
100
AcDbLine
 10
1106.665842430497
 20
243.803146462957
 30
0.0
 11
1104.665842430497
 21
241.803146462957
 31
0.0
  0
LINE
  5
2EF7
330
2
100
AcDbEntity
  8
0
100
AcDbLine
 10
1157.665842430497
 20
241.803146462957
 30
0.0
 11
1155.665842430497
 21
243.803146462957
 31
0.0
  0
LINE
  5
2FAD
330
2
100
AcDbEntity
  8
0
100
AcDbLine
 10
1121.665842430497
 20
292.8031464629571
 30
0.0
 11
1121.665842430497
 21
275.8031464629571
 31
0.0
  0
LINE
  5
2FAE
330
2
100
AcDbEntity
  8
0
100
AcDbLine
 10
1140.665842430497
 20
292.8031464629571
 30
0.0
 11
1140.665842430497
 21
275.8031464629571
 31
0.0
  0
LINE
  5
2FAF
330
2
100
AcDbEntity
  8
0
100
AcDbLine
 10
1122.665842430497
 20
274.803146462957
 30
0.0
 11
1139.665842430497
 21
274.803146462957
 31
0.0
  0
LINE
  5
2FB0
330
2
100
AcDbEntity
  8
0
100
AcDbLine
 10
1121.665842430497
 20
275.8031464629571
 30
0.0
 11
1122.665842430497
 21
274.803146462957
 31
0.0
  0
LINE
  5
2FB1
330
2
100
AcDbEntity
  8
0
100
AcDbLine
 10
1122.665842430497
 20
274.803146462957
 30
0.0
 11
1121.665842430497
 21
275.8031464629571
 31
0.0
  0
LINE
  5
2FB2
330
2
100
AcDbEntity
  8
0
100
AcDbLine
 10
1139.665842430497
 20
274.803146462957
 30
0.0
 11
1140.665842430497
 21
275.8031464629571
 31
0.0
  0
LINE
  5
2FB3
330
2
100
AcDbEntity
  8
0
100
AcDbLine
 10
1139.665842430497
 20
274.803146462957
 30
0.0
 11
1140.665842430497
 21
275.8031464629571
 31
0.0
  0
LINE
  5
2FB4
330
2
100
AcDbEntity
  8
0
100
AcDbLine
 10
1122.665842430497
 20
293.803146462957
 30
0.0
 11
1139.665842430497
 21
293.803146462957
 31
0.0
  0
LINE
  5
2FB5
330
2
100
AcDbEntity
  8
0
100
AcDbLine
 10
1122.665842430497
 20
293.803146462957
 30
0.0
 11
1121.665842430497
 21
292.8031464629571
 31
0.0
  0
LINE
  5
2FB6
330
2
100
AcDbEntity
  8
0
100
AcDbLine
 10
1139.665842430497
 20
293.803146462957
 30
0.0
 11
1140.665842430497
 21
292.8031464629571
 31
0.0
  0
LINE
  5
2FB7
330
2
100
AcDbEntity
  8
0
100
AcDbLine
 10
1140.665842430497
 20
292.8031464629571
 30
0.0
 11
1139.665842430497
 21
293.803146462957
 31
0.0
  0
LINE
  5
3270
330
2
100
AcDbEntity
  8
0
100
AcDbLine
 10
934.1990757875141
 20
366.0284455596272
 30
0.0
 11
1032.199075787514
 21
366.0284455596272
 31
0.0
  0
LINE
  5
3271
330
2
100
AcDbEntity
  8
0
100
AcDbLine
 10
934.1990757875141
 20
347.0284455596272
 30
0.0
 11
1032.199075787514
 21
347.0284455596272
 31
0.0
  0
LINE
  5
3272
330
2
100
AcDbEntity
  8
CENTER
100
AcDbLine
 10
925.9503757497142
 20
356.5284455596272
 30
0.0
 11
1040.531424154514
 21
356.5284455596272
 31
0.0
  0
LINE
  5
3273
330
2
100
AcDbEntity
  8
0
100
AcDbLine
 10
933.1990757875141
 20
348.0284455596272
 30
0.0
 11
933.1990757875141
 21
365.0284455596272
 31
0.0
  0
LINE
  5
3274
330
2
100
AcDbEntity
  8
0
100
AcDbLine
 10
934.1990757875141
 20
347.0284455596272
 30
0.0
 11
933.1990757875141
 21
348.0284455596272
 31
0.0
  0
LINE
  5
3275
330
2
100
AcDbEntity
  8
0
100
AcDbLine
 10
972.6990757875141
 20
361.0284455596272
 30
0.0
 11
993.699075787514
 21
361.0284455596272
 31
0.0
  0
LINE
  5
3276
330
2
100
AcDbEntity
  8
0
100
AcDbLine
 10
972.6990757875141
 20
352.0284455596272
 30
0.0
 11
993.699075787514
 21
352.0284455596272
 31
0.0
  0
ARC
  5
3277
330
2
100
AcDbEntity
  8
0
100
AcDbCircle
 10
983.1990757875141
 20
356.5284455596272
 30
0.0
 40
8.0
100
AcDbArc
 50
145.7711336721882
 51
214.2288663278117
  0
ARC
  5
3278
330
2
100
AcDbEntity
  8
0
100
AcDbCircle
 10
972.6990757875141
 20
356.5284455596272
 30
0.0
 40
4.5
100
AcDbArc
 50
90.0
 51
270.0
  0
ARC
  5
3279
330
2
100
AcDbEntity
  8
0
100
AcDbCircle
 10
993.699075787514
 20
356.5284455596272
 30
0.0
 40
4.5
100
AcDbArc
 50
270.0
 51
90.0
  0
ARC
  5
327A
330
2
100
AcDbEntity
  8
0
100
AcDbCircle
 10
983.1990757875141
 20
356.5284455596272
 30
0.0
 40
8.0
100
AcDbArc
 50
325.7711336721882
 51
34.22886632781179
  0
LINE
  5
327B
330
2
100
AcDbEntity
  8
0
100
AcDbLine
 10
933.1990757875141
 20
365.0284455596272
 30
0.0
 11
934.1990757875141
 21
366.0284455596272
 31
0.0
  0
LINE
  5
327C
330
2
100
AcDbEntity
  8
0
100
AcDbLine
 10
1033.199075787514
 20
348.0284455596272
 30
0.0
 11
1033.199075787514
 21
365.0284455596272
 31
0.0
  0
LINE
  5
327D
330
2
100
AcDbEntity
  8
0
100
AcDbLine
 10
1033.199075787514
 20
348.0284455596272
 30
0.0
 11
1032.199075787514
 21
347.0284455596272
 31
0.0
  0
LINE
  5
327E
330
2
100
AcDbEntity
  8
0
100
AcDbLine
 10
1032.199075787514
 20
366.0284455596272
 30
0.0
 11
1033.199075787514
 21
365.0284455596272
 31
0.0
  0
ARC
  5
327F
330
2
100
AcDbEntity
  8
0
100
AcDbCircle
 10
983.2408999521142
 20
356.5284455596272
 30
0.0
 40
26.5
100
AcDbArc
 50
21.00752541981816
 51
158.9924745801805
  0
ARC
  5
3280
330
2
100
AcDbEntity
  8
0
100
AcDbCircle
 10
983.2408999521142
 20
356.5284455596272
 30
0.0
 40
27.5
100
AcDbArc
 50
20.20954537375268
 51
159.7904546262474
  0
LINE
  5
3282
330
2
100
AcDbEntity
  8
0
100
AcDbLine
 10
934.2408999521142
 20
274.803146462957
 30
0.0
 11
1032.240899952114
 21
274.803146462957
 31
0.0
  0
LINE
  5
3283
330
2
100
AcDbEntity
  8
0
100
AcDbLine
 10
934.2408999521142
 20
293.803146462957
 30
0.0
 11
1032.240899952114
 21
293.803146462957
 31
0.0
  0
LINE
  5
3284
330
2
100
AcDbEntity
  8
0
100
AcDbLine
 10
934.2408999521142
 20
274.803146462957
 30
0.0
 11
933.2408999521142
 21
275.8031464629571
 31
0.0
  0
LINE
  5
3285
102
{ACAD_REACTORS
330
36AE
102
}
330
2
100
AcDbEntity
  8
0
100
AcDbLine
 10
933.2408999521142
 20
292.8031464629571
 30
0.0
 11
933.2408999521142
 21
275.8031464629571
 31
0.0
  0
LINE
  5
3286
330
2
100
AcDbEntity
  8
0
100
AcDbLine
 10
933.2408999521142
 20
292.8031464629571
 30
0.0
 11
934.2408999521142
 21
293.803146462957
 31
0.0
  0
CIRCLE
  5
3287
330
2
100
AcDbEntity
  8
0
100
AcDbCircle
 10
983.2408999521142
 20
284.3031464629571
 30
0.0
 40
4.0
  0
LINE
  5
3288
330
2
100
AcDbEntity
  8
0
100
AcDbLine
 10
1033.240899952114
 20
275.8031464629571
 30
0.0
 11
1032.240899952114
 21
274.803146462957
 31
0.0
  0
LINE
  5
3289
102
{ACAD_REACTORS
330
36AE
102
}
330
2
100
AcDbEntity
  8
0
100
AcDbLine
 10
1033.240899952114
 20
292.8031464629571
 30
0.0
 11
1033.240899952114
 21
275.8031464629571
 31
0.0
  0
LINE
  5
328A
330
2
100
AcDbEntity
  8
0
100
AcDbLine
 10
1032.240899952114
 20
293.803146462957
 30
0.0
 11
1033.240899952114
 21
292.8031464629571
 31
0.0
  0
LINE
  5
3324
330
2
100
AcDbEntity
  8
CENTER
  6
CENTER
100
AcDbLine
 10
995.1941082193357
 20
232.8031464629571
 30
0.0
 11
1011.194108219335
 21
232.8031464629571
 31
0.0
  0
LINE
  5
3325
330
2
100
AcDbEntity
  8
HIDDEN
  6
HIDDEN
100
AcDbLine
 10
1000.740899952114
 20
236.5814764494097
 30
0.0
 11
1009.740899952114
 21
237.053146462957
 31
0.0
  0
LINE
  5
3326
330
2
100
AcDbEntity
  8
HIDDEN
  6
HIDDEN
100
AcDbLine
 10
1000.740899952114
 20
237.3314764494097
 30
0.0
 11
1009.740899952114
 21
237.803146462957
 31
0.0
  0
LINE
  5
3327
330
2
100
AcDbEntity
  8
HIDDEN
  6
HIDDEN
100
AcDbLine
 10
1000.740899952114
 20
229.0248164765044
 30
0.0
 11
1009.740899952114
 21
228.5531464629571
 31
0.0
  0
LINE
  5
3328
330
2
100
AcDbEntity
  8
HIDDEN
  6
HIDDEN
100
AcDbLine
 10
1000.740899952114
 20
228.2748164765044
 30
0.0
 11
1009.740899952114
 21
227.8031464629571
 31
0.0
  0
INSERT
  5
3368
330
2
100
AcDbEntity
  8
AM_5
100
AcDbBlockReference
  2
*S19
 10
0.0
 20
0.0
 30
0.0
  0
TEXT
  5
336A
330
2
100
AcDbEntity
  8
AM_5
100
AcDbText
 10
1021.509168583915
 20
248.0370949190461
 30
0.0
 40
4.0
  1
PT1/8
  7
CHINA
100
AcDbText
  0
DIMENSION
  5
3697
102
{ACAD_XDICTIONARY
360
36A4
102
}
102
{ACAD_REACTORS
330
36AE
102
}
330
2
100
AcDbEntity
  8
AM_5
100
AcDbDimension
  2
*D18
 10
1033.240899952114
 20
304.8031464629571
 30
0.0
 11
983.2408999521142
 21
307.8031464629571
 31
0.0
 70
    32
  3
AM_ISO
100
AcDbAlignedDimension
 13
933.2408999521142
 23
292.8031464629571
 33
0.0
 14
1033.240899952114
 24
292.8031464629571
 34
0.0
100
AcDbRotatedDimension
  0
ENDSEC
  0
SECTION
  2
OBJECTS
  0
DICTIONARY
  5
8
330
0
100
AcDbDictionary
  3
ACAD_GROUP
350
21
  3
ACAD_LAYOUT
350
C
  3
ACAD_MLINESTYLE
350
22
  3
ACAD_PLOTSETTINGS
350
23
  3
ACMDICTIONARY
350
1F4
  3
AMG
350
1DA
  3
AMGSNAPSETTINGS
350
37D
  3
ASE_INDEX_DICTIONARY
350
E58
  3
DWGPROPS
350
36FA
1001
ACAD
1000
TREAT_AS_HARD
1070
     0
  0
DICTIONARY
  5
3
330
2
100
AcDbDictionary
  3
ACAD_INDEX
350
2B85
  3
ACAD_LAYOUTSELFREF
350
37F8
1001
ACAD
1000
TREAT_AS_HARD
1070
     1
  0
DICTIONARY
  5
37F9
330
D
100
AcDbDictionary
  3
ACAD_LAYOUTSELFREF
350
37FA
  0
DICTIONARY
  5
2D83
330
2D76
100
AcDbDictionary
  3
ACAD_DIMASSOC
350
2D8D
1001
ACAD
1000
TREAT_AS_HARD
1070
     1
  0
DICTIONARY
  5
2DF7
330
2DEA
100
AcDbDictionary
  3
ACAD_DIMASSOC
350
2E01
1001
ACAD
1000
TREAT_AS_HARD
1070
     1
  0
DICTIONARY
  5
2E2F
330
2E22
100
AcDbDictionary
  3
ACAD_DIMASSOC
350
2E39
1001
ACAD
1000
TREAT_AS_HARD
1070
     1
  0
DICTIONARY
  5
36A4
330
3697
100
AcDbDictionary
  3
ACAD_DIMASSOC
350
36AE
1001
ACAD
1000
TREAT_AS_HARD
1070
     1
  0
DICTIONARY
  5
21
102
{ACAD_REACTORS
330
8
102
}
330
8
100
AcDbDictionary
1001
ACAD
1000
TREAT_AS_HARD
1070
     0
  0
DICTIONARY
  5
C
102
{ACAD_REACTORS
330
8
102
}
330
8
100
AcDbDictionary
1001
ACAD
1000
TREAT_AS_HARD
1070
     0
  0
DICTIONARY
  5
22
102
{ACAD_REACTORS
330
8
102
}
330
8
100
AcDbDictionary
  3
STANDARD
350
24
1001
ACAD
1000
TREAT_AS_HARD
1070
     0
  0
DICTIONARY
  5
23
102
{ACAD_REACTORS
330
8
102
}
330
8
100
AcDbDictionary
1001
ACAD
1000
TREAT_AS_HARD
1070
     0
  0
DICTIONARY
  5
1F4
102
{ACAD_REACTORS
330
8
102
}
330
8
100
AcDbDictionary
  3
ACMSTDDICTIONARY
350
1FA
1001
ACAD
1000
TREAT_AS_HARD
1070
     0
  0
DICTIONARY
  5
1DA
102
{ACAD_REACTORS
330
8
102
}
330
8
100
AcDbDictionary
  3
ACMGSETTINGS
350
1DB
1001
ACAD
1000
TREAT_AS_HARD
1070
     0
  0
DICTIONARY
  5
37D
102
{ACAD_REACTORS
330
8
102
}
330
8
100
AcDbDictionary
1001
ACAD
1000
TREAT_AS_HARD
1070
     0
  0
DICTIONARY
  5
E58
102
{ACAD_REACTORS
330
8
102
}
330
8
100
AcDbDictionary
  3
ASEBLOCKHIERARCHYINDEXRECORD
350
E5A
1001
DCO15
1040
1443953005.444
1001
ACAD
1000
TREAT_AS_HARD
1070
     0
  0
XRECORD
  5
36FA
102
{ACAD_REACTORS
330
8
102
}
330
8
100
AcDbXrecord
  1
DWGPROPS COOKIE
  2

  3

  4

  6

  7

  8

  9

300
AmdtFileType=84
301
=
302
=
303
=
304
=
305
=
306
=
307
=
308
=
309
=
 40
0.1077668865740741
 41
2452794.706235081
 42
2452796.634061458
  1

 90
        1
  0
DICTIONARY
  5
2B85
102
{ACAD_REACTORS
330
3
102
}
330
3
100
AcDbDictionary
  3
*A1
350
2B86
1001
ACAD
1000
TREAT_AS_HARD
1070
     0
  0
XRECORD
  5
37F8
102
{ACAD_REACTORS
330
3
102
}
330
3
100
AcDbXrecord
340
2
  0
XRECORD
  5
37FA
102
{ACAD_REACTORS
330
37F9
102
}
330
37F9
100
AcDbXrecord
340
D
  0
DIMASSOC
  5
2D8D
102
{ACAD_REACTORS
330
2D83
102
}
330
2D83
100
AcDbDimAssoc
330
2D76
 90
        3
 70
     0
 71
     0
  1
AcDbOsnapPointRef
 72
     1
331
2C0F
 73
     0
 91
        0
 40
0.0
 10
1009.240899952114
 20
168.8031464629571
 30
0.0
 75
     0
  1
AcDbOsnapPointRef
 72
    13
331
2C0B
 73
     0
 91
        0
 40
0.0
 10
1009.740899952114
 20
177.803146462957
 30
0.0
 75
     0
  0
DIMASSOC
  5
2E01
102
{ACAD_REACTORS
330
2DF7
102
}
330
2DF7
100
AcDbDimAssoc
330
2DEA
 90
        3
 70
     0
 71
     0
  1
AcDbOsnapPointRef
 72
    13
331
2C0B
 73
     0
 91
        0
 40
0.0
 10
1009.740899952114
 20
177.803146462957
 30
0.0
 75
     0
  1
AcDbOsnapPointRef
 72
     1
331
2C3B
 73
     0
 91
        0
 40
0.0
 10
1009.740899952114
 20
222.803146462957
 30
0.0
 75
     0
  0
DIMASSOC
  5
2E39
102
{ACAD_REACTORS
330
2E2F
102
}
330
2E2F
100
AcDbDimAssoc
330
2E22
 90
        3
 70
     0
 71
     0
  1
AcDbOsnapPointRef
 72
    13
331
2C1C
 73
     0
 91
        0
 40
0.0
 10
955.7408999521141
 20
178.803146462957
 30
0.0
 75
     0
  1
AcDbOsnapPointRef
 72
     1
331
2C3A
 73
     0
 91
        0
 40
0.0
 10
1010.740899952114
 20
178.803146462957
 30
0.0
 75
     0
  0
DIMASSOC
  5
36AE
102
{ACAD_REACTORS
330
36A4
102
}
330
36A4
100
AcDbDimAssoc
330
3697
 90
        3
 70
     0
 71
     0
  1
AcDbOsnapPointRef
 72
    13
331
3285
 73
     0
 91
        0
 40
0.0
 10
933.2408999521142
 20
292.8031464629571
 30
0.0
 75
     0
  1
AcDbOsnapPointRef
 72
    13
331
3289
 73
     0
 91
        0
 40
0.0
 10
1033.240899952114
 20
292.8031464629571
 30
0.0
 75
     0
  0
MLINESTYLE
  5
24
102
{ACAD_REACTORS
330
22
102
}
330
22
100
AcDbMlineStyle
  2
STANDARD
 70
     0
  3

 62
   256
 51
90.0
 52
90.0
 71
     2
 49
0.5
 62
   256
  6
BYLAYER
 49
-0.5
 62
   256
  6
BYLAYER
  0
DICTIONARY
  5
1FA
102
{ACAD_REACTORS
330
1F4
102
}
330
1F4
100
AcDbDictionary
1001
ACAD
1000
TREAT_AS_HARD
1070
     0
  0
DICTIONARY
  5
1DB
102
{ACAD_REACTORS
330
1DA
102
}
330
1DA
100
AcDbDictionary
  3
DWGSETTINGS
350
1DC
1001
ACAD
1000
TREAT_AS_HARD
1070
     0
  0
XRECORD
  5
E5A
102
{ACAD_REACTORS
330
E58
102
}
330
E58
100
AcDbXrecord
330
0
330
0
  0
LAYER_INDEX
  5
2B86
102
{ACAD_REACTORS
330
2B85
102
}
330
2B85
100
AcDbIndex
 40
2452796.650003935
100
AcDbLayerIndex
  8
0
360
2B87
 90
       94
  8
Defpoints
360
2B88
 90
        0
  8
AM_5
360
2B89
 90
       11
  8
AM_PARDIM
360
2B8A
 90
       10
  8
AM_7
360
2B8B
 90
        1
  8
HIDDEN
360
2B8C
 90
        8
  8
DIM
360
2B8D
 90
        4
  8
CENTER
360
2B8E
 90
        5
  8
LOGO
360
2B8F
 90
      110
  8
AM_4N
360
2C71
 90
        4
  0
XRECORD
  5
1DC
102
{ACAD_REACTORS
330
1DB
102
}
330
1DB
100
AcDbXrecord
  1
VERSION
140
15.0
  1
PRODUCT
  2
AutoCAD Mechanical 2000
  0
IDBUFFER
  5
2B87
330
0
100
AcDbIdBuffer
330
25
330
26
330
27
330
28
330
29
330
2A
330
2B
330
2C
330
2D
330
2E
330
2F
330
30
330
1258
330
1259
330
125A
330
12BA
330
2C07
330
2C0A
330
2C0B
330
2C0F
330
2C11
330
2C13
330
2C1C
330
2C1D
330
2C1E
330
2C1F
330
2C20
330
2C21
330
2C38
330
2C39
330
2C3A
330
2C3B
330
2C3C
330
2C3D
330
2C3E
330
2C3F
330
2C61
330
2C62
330
2EC7
330
2EC8
330
2ECF
330
2ED4
330
2ED6
330
2ED7
330
2EDA
330
2EDB
330
2EDC
330
2EDD
330
2EE3
330
2EE4
330
2EE5
330
2EE6
330
2EE7
330
2EED
330
2EEE
330
2EF4
330
2EF6
330
2EF7
330
2FAD
330
2FAE
330
2FAF
330
2FB0
330
2FB1
330
2FB2
330
2FB3
330
2FB4
330
2FB5
330
2FB6
330
2FB7
330
3270
330
3271
330
3273
330
3274
330
3275
330
3276
330
3277
330
3278
330
3279
330
327A
330
327B
330
327C
330
327D
330
327E
330
327F
330
3280
330
3282
330
3283
330
3284
330
3285
330
3286
330
3287
330
3288
330
3289
330
328A
  0
IDBUFFER
  5
2B88
330
0
100
AcDbIdBuffer
  0
IDBUFFER
  5
2B89
330
0
100
AcDbIdBuffer
330
3697
330
151
330
156
330
2D1F
330
2D22
330
2D25
330
2D76
330
2DEA
330
2E22
330
3368
330
336A
  0
IDBUFFER
  5
2B8A
330
0
100
AcDbIdBuffer
330
31
330
43
330
52
330
5F
330
6C
330
79
330
86
330
95
330
A3
330
B0
  0
IDBUFFER
  5
2B8B
330
0
100
AcDbIdBuffer
330
C8
  0
IDBUFFER
  5
2B8C
330
0
100
AcDbIdBuffer
330
2C30
330
2C31
330
2C32
330
2C33
330
3325
330
3326
330
3327
330
3328
  0
IDBUFFER
  5
2B8D
330
0
100
AcDbIdBuffer
330
2C4A
330
2C53
330
2C54
330
2C5D
  0
IDBUFFER
  5
2B8E
330
0
100
AcDbIdBuffer
330
2C2C
330
2C46
330
2EC9
330
3272
330
3324
  0
IDBUFFER
  5
2B8F
330
0
100
AcDbIdBuffer
330
124B
330
124C
330
124D
330
124E
330
124F
330
1250
330
1251
330
1252
330
1256
330
1257
330
125B
330
125C
330
125D
330
1261
330
1262
330
1263
330
1264
330
1265
330
1266
330
1267
330
1268
330
1269
330
126A
330
126B
330
126F
330
1270
330
1271
330
1272
330
1273
330
1274
330
1275
330
1276
330
127A
330
127B
330
127C
330
127D
330
127E
330
127F
330
1280
330
1281
330
1282
330
1286
330
1287
330
1288
330
1289
330
128A
330
128E
330
128F
330
1290
330
1294
330
1298
330
1299
330
129A
330
12BB
330
12BC
330
12BD
330
12BE
330
12BF
330
12C0
330
12C1
330
12C2
330
12C3
330
12C4
330
12C5
330
12C6
330
12C7
330
12C8
330
12C9
330
12CA
330
12CB
330
12CC
330
12CD
330
12CE
330
12CF
330
12D0
330
12D1
330
12D2
330
12D3
330
12D4
330
12D5
330
12D6
330
12D7
330
12D8
330
12D9
330
12DA
330
12DB
330
12DC
330
12DD
330
12DE
330
12DF
330
12E0
330
12E1
330
12E2
330
12E3
330
12E4
330
12E5
330
12E6
330
12E7
330
12E8
330
12E9
330
12EA
330
12EB
330
12EC
330
12ED
330
12EE
330
12EF
330
12F0
330
1309
330
130A
330
130B
  0
IDBUFFER
  5
2C71
330
0
100
AcDbIdBuffer
330
2C63
330
2C6E
330
2ED0
330
2ED5
  0
ENDSEC
  0
EOF
