  0
SECTION
  2
HEADER
  9
$ACADVER
  1
AC1012
  9
$DWGCODEPAGE
  3
big5
  9
$INSBASE
 10
0.0
 20
0.0
 30
0.0
  9
$EXTMIN
 10
1874.585063144767
 20
48.38521520044139
 30
-0.000000000000013
  9
$EXTMAX
 10
2256.40162479984
 20
382.1740969904212
 30
0.0000000000000023
  9
$LIMMIN
 10
0.0
 20
0.0
  9
$LIMMAX
 10
420.0
 20
297.0
  9
$ORTHOMODE
 70
     1
  9
$REGENMODE
 70
     1
  9
$FILLMODE
 70
     1
  9
$QTEXTMODE
 70
     0
  9
$MIRRTEXT
 70
     1
  9
$DRAGMODE
 70
     2
  9
$LTSCALE
 40
0.8
  9
$OSMODE
 70
    55
  9
$ATTMODE
 70
     1
  9
$TEXTSIZE
 40
3.0
  9
$TRACEWID
 40
1.0
  9
$TEXTSTYLE
  7
CHINA
  9
$CLAYER
  8
0
  9
$CELTYPE
  6
BYLAYER
  9
$CECOLOR
 62
   256
  9
$CELTSCALE
 40
1.0
  9
$DELOBJ
 70
     1
  9
$DISPSILH
 70
     0
  9
$DIMSCALE
 40
1.0
  9
$DIMASZ
 40
3.0
  9
$DIMEXO
 40
2.0
  9
$DIMDLI
 40
10.0
  9
$DIMRND
 40
0.0
  9
$DIMDLE
 40
0.0
  9
$DIMEXE
 40
1.5
  9
$DIMTP
 40
0.1
  9
$DIMTM
 40
0.1
  9
$DIMTXT
 40
3.0
  9
$DIMCEN
 40
0.0
  9
$DIMTSZ
 40
0.0
  9
$DIMTOL
 70
     0
  9
$DIMLIM
 70
     0
  9
$DIMTIH
 70
     0
  9
$DIMTOH
 70
     0
  9
$DIMSE1
 70
     0
  9
$DIMSE2
 70
     0
  9
$DIMTAD
 70
     1
  9
$DIMZIN
 70
     8
  9
$DIMBLK
  1

  9
$DIMASO
 70
     1
  9
$DIMSHO
 70
     1
  9
$DIMPOST
  1

  9
$DIMAPOST
  1
"
  9
$DIMALT
 70
     0
  9
$DIMALTD
 70
     2
  9
$DIMALTF
 40
0.0393701
  9
$DIMLFAC
 40
1.0
  9
$DIMTOFL
 70
     1
  9
$DIMTVP
 40
0.0
  9
$DIMTIX
 70
     0
  9
$DIMSOXD
 70
     0
  9
$DIMSAH
 70
     0
  9
$DIMBLK1
  1

  9
$DIMBLK2
  1

  9
$DIMSTYLE
  2
AM_ISO
  9
$DIMCLRD
 70
   256
  9
$DIMCLRE
 70
   256
  9
$DIMCLRT
 70
   256
  9
$DIMTFAC
 40
0.71
  9
$DIMGAP
 40
1.0
  9
$DIMJUST
 70
     0
  9
$DIMSD1
 70
     0
  9
$DIMSD2
 70
     0
  9
$DIMTOLJ
 70
     0
  9
$DIMTZIN
 70
     8
  9
$DIMALTZ
 70
     0
  9
$DIMALTTZ
 70
     0
  9
$DIMFIT
 70
     3
  9
$DIMUPT
 70
     0
  9
$DIMUNIT
 70
     2
  9
$DIMDEC
 70
     2
  9
$DIMTDEC
 70
     2
  9
$DIMALTU
 70
     2
  9
$DIMALTTD
 70
     2
  9
$DIMTXSTY
  7
CHINA
  9
$DIMAUNIT
 70
     0
  9
$LUNITS
 70
     2
  9
$LUPREC
 70
     2
  9
$SKETCHINC
 40
1.0
  9
$FILLETRAD
 40
2.5
  9
$AUNITS
 70
     0
  9
$AUPREC
 70
     0
  9
$MENU
  1
.
  9
$ELEVATION
 40
0.0
  9
$PELEVATION
 40
0.0
  9
$THICKNESS
 40
0.0
  9
$LIMCHECK
 70
     0
  9
$BLIPMODE
 70
     0
  9
$CHAMFERA
 40
1.5
  9
$CHAMFERB
 40
1.5
  9
$CHAMFERC
 40
20.0
  9
$CHAMFERD
 40
0.0
  9
$SKPOLY
 70
     0
  9
$TDCREATE
 40
2452794.706235081
  9
$TDUPDATE
 40
2452796.650741458
  9
$TDINDWG
 40
0.1007280440
  9
$TDUSRTIMER
 40
0.1007278125
  9
$USRTIMER
 70
     1
  9
$ANGBASE
 50
0.0
  9
$ANGDIR
 70
     0
  9
$PDMODE
 70
     0
  9
$PDSIZE
 40
0.0
  9
$PLINEWID
 40
0.0
  9
$COORDS
 70
     0
  9
$SPLFRAME
 70
     0
  9
$SPLINETYPE
 70
     6
  9
$SPLINESEGS
 70
     8
  9
$ATTDIA
 70
     1
  9
$ATTREQ
 70
     1
  9
$HANDLING
 70
 22529
  9
$HANDSEED
  5
4281
  9
$SURFTAB1
 70
     6
  9
$SURFTAB2
 70
     6
  9
$SURFTYPE
 70
     6
  9
$SURFU
 70
     6
  9
$SURFV
 70
     6
  9
$UCSNAME
  2

  9
$UCSORG
 10
0.0
 20
0.0
 30
0.0
  9
$UCSXDIR
 10
1.0
 20
0.0
 30
0.0
  9
$UCSYDIR
 10
0.0
 20
1.0
 30
0.0
  9
$PUCSNAME
  2

  9
$PUCSORG
 10
0.0
 20
0.0
 30
0.0
  9
$PUCSXDIR
 10
1.0
 20
0.0
 30
0.0
  9
$PUCSYDIR
 10
0.0
 20
1.0
 30
0.0
  9
$USERI1
 70
     0
  9
$USERI2
 70
     0
  9
$USERI3
 70
     0
  9
$USERI4
 70
     0
  9
$USERI5
 70
     0
  9
$USERR1
 40
0.0
  9
$USERR2
 40
0.0
  9
$USERR3
 40
0.0
  9
$USERR4
 40
0.0
  9
$USERR5
 40
0.0
  9
$WORLDVIEW
 70
     1
  9
$SHADEDGE
 70
     3
  9
$SHADEDIF
 70
    70
  9
$TILEMODE
 70
     1
  9
$MAXACTVP
 70
    64
  9
$PINSBASE
 10
0.0
 20
0.0
 30
0.0
  9
$PLIMCHECK
 70
     0
  9
$PEXTMIN
 10
26.80208481208632
 20
60.62932117531272
 30
-0.0000000000000153
  9
$PEXTMAX
 10
155.7606180029583
 20
204.4099130529699
 30
0.0
  9
$PLIMMIN
 10
-3.757083177566528
 20
-14.7637300491333
  9
$PLIMMAX
 10
206.2162444591522
 20
282.2045927047729
  9
$UNITMODE
 70
     0
  9
$VISRETAIN
 70
     1
  9
$PLINEGEN
 70
     0
  9
$PSLTSCALE
 70
     1
  9
$TREEDEPTH
 70
  3020
  9
$PICKSTYLE
 70
     0
  9
$CMLSTYLE
  2
STANDARD
  9
$CMLJUST
 70
     0
  9
$CMLSCALE
 40
20.0
  9
$SAVEIMAGES
 70
     1
  0
ENDSEC
  0
SECTION
  2
CLASSES
  0
CLASS
  1
ACDBDICTIONARYWDFLT
  2
AcDbDictionaryWithDefault
  3
AutoCAD 2000
 90
    32768
280
     0
281
     0
  0
CLASS
  1
ACDBPLACEHOLDER
  2
AcDbPlaceHolder
  3
AutoCAD 2000
 90
    32768
280
     0
281
     0
  0
CLASS
  1
LAYOUT
  2
AcDbLayout
  3
AutoCAD 2000
 90
    32768
280
     0
281
     0
  0
CLASS
  1
AMGSETTINGSOBJ
  2
AmgSettingsObj
  3
"AcadM|Product Description: AutoCAD Mechanical 2000|Company: Autodesk"
 90
    32768
280
     0
281
     0
  0
CLASS
  1
ACME_DOCUMENT
  2
AcMeDbDoc
  3
AcMeServices
 90
    32768
280
     0
281
     0
  0
CLASS
  1
ACMESCOPE
  2
AcMeScope
  3
AcMeServices
 90
    32768
280
     0
281
     0
  0
CLASS
  1
ACMECOMMANDHISTORY
  2
AcMeCommandHistory
  3
AcMeServices
 90
    32768
280
     0
281
     0
  0
CLASS
  1
ACIMSYSVARMAN
  2
AcImSysVarManager
  3
AcMeServices
 90
    32768
280
     0
281
     0
  0
CLASS
  1
ACIMREALSYSVAR
  2
AcImRealSysVar
  3
AcMeServices
 90
    32768
280
     0
281
     0
  0
CLASS
  1
ACIMINTSYSVAR
  2
AcImIntSysVar
  3
AcMeServices
 90
    32768
280
     0
281
     0
  0
CLASS
  1
ACMEDRAWINGMAN
  2
AcMeDrawingMan
  3
AcMeServices
 90
    32768
280
     0
281
     0
  0
CLASS
  1
ACMEVIEW
  2
AcMeView
  3
AcMeServices
 90
    32768
280
     0
281
     0
  0
CLASS
  1
ACDBENTITYCACHE
  2
AcMeEntityCache
  3
AcMeServices
 90
    32768
280
     0
281
     0
  0
CLASS
  1
GSMANAGER
  2
AcMeGSManager
  3
AcMeServices
 90
    32768
280
     0
281
     0
  0
CLASS
  1
AMDTINTERNALREACTOR
  2
AmdtInternalReactor
  3
AcMeServices
 90
    32768
280
     0
281
     0
  0
CLASS
  1
ACMESTATEMGR
  2
AcMeStateMgr
  3
AcMeServices
 90
    32768
280
     0
281
     0
  0
CLASS
  1
ACGREFMASTER
  2
AcGrefMaster
  3
AcAttribServices
 90
    32768
280
     0
281
     0
  0
CLASS
  1
AM_DRAWING_MGR
  2
AcDmDwgMgr
  3
AcMechDwgViewMgmt
 90
    32768
280
     0
281
     0
  0
CLASS
  1
AM_DWG_DOCUMENT
  2
AcDmDwgDocument
  3
AcMechDwgViewMgmt
 90
    32768
280
     0
281
     0
  0
CLASS
  1
AM_DWG_SHEET
  2
AcDmSheet
  3
AcMechDwgViewMgmt
 90
    32768
280
     0
281
     0
  0
CLASS
  1
AM_VIEWDIMPARMAP
  2
AcDmViewDimParMap
  3
AcMechDwgViewMgmt
 90
    32768
280
     0
281
     0
  0
CLASS
  1
AM_DWGMGR_NAME
  2
AcDmDwgMgrName
  3
AcMechDwgViewMgmt
 90
    32768
280
     0
281
     0
  0
CLASS
  1
ACME_DATABASE
  2
AcMeDbDatabase
  3
AcMeServices
 90
    32768
280
     0
281
     0
  0
CLASS
  1
ACRFINSADJUSTERMGR
  2
AcRfInsAdjusterMgr
  3
AcMeServices
 90
    32768
280
     0
281
     0
  0
CLASS
  1
ACGREFACADMASTER
  2
AcGrefacadMaster
  3
AcGrefServices
 90
    32768
280
     0
281
     0
  0
CLASS
  1
AMDTMENUSTATEMGR
  2
AmdtMenuStateMgr
  3
McadcomServices
 90
    32768
280
     0
281
     0
  0
CLASS
  1
AMDTMCOMMENUSTATE
  2
AmdtMcomMenuState
  3
McadcomServices
 90
    32768
280
     0
281
     0
  0
CLASS
  1
AMIMASTER
  2
AmiMaster
  3
AmiServices
 90
    32768
280
     0
281
     0
  0
CLASS
  1
ASAPP
  2
AcAsAppObject
  3
AutoSurfServices
 90
    32768
280
     0
281
     0
  0
CLASS
  1
IM_STATIC_MAN
  2
AcImStaticVarManager
  3
AcMeServices
 90
    32768
280
     0
281
     0
  0
CLASS
  1
ACIMSTRSYSVAR
  2
AcImStrSysVar
  3
AcMeServices
 90
    32768
280
     0
281
     0
  0
CLASS
  1
ACIMDBLSTATICVAR
  2
AcImDblStaticVar
  3
AcMeServices
 90
    32768
280
     0
281
     0
  0
CLASS
  1
ACIMSTRSTATICVAR
  2
AcImStrStaticVar
  3
AcMeServices
 90
    32768
280
     0
281
     0
  0
CLASS
  1
ACIMINTSTATICVAR
  2
AcImIntStaticVar
  3
AcMeServices
 90
    32768
280
     0
281
     0
  0
CLASS
  1
ACASGREFMASTER
  2
AcAsGrefMaster
  3
AutoSurfResolverServices
 90
    32768
280
     0
281
     0
  0
CLASS
  1
ACADGREFMODULE
  2
AcAdGrefModule
  3
AdGrefServices
 90
    32768
280
     0
281
     0
  0
CLASS
  1
AMDTMAPISURFMOUDULE
  2
AmdtMApiSurfModule
  3
MApiSurfServices
 90
    32768
280
     0
281
     0
  0
CLASS
  1
MAPIAMMOUDLE
  2
MApiAmModule
  3
MApiAmServices
 90
    32768
280
     0
281
     0
  0
CLASS
  1
AMDTADMENUSTATE
  2
AmdtAdMenuState
  3
DesignerServices
 90
    32768
280
     0
281
     0
  0
CLASS
  1
ADAPPL
  2
AcAdAppl
  3
DesignerServices
 90
    32768
280
     0
281
     0
  0
CLASS
  1
DEPMGR
  2
AcAdDepMgr
  3
DesignerServices
 90
    32768
280
     0
281
     0
  0
CLASS
  1
PARAMMGR
  2
AcAdParamMgr
  3
DesignerServices
 90
    32768
280
     0
281
     0
  0
CLASS
  1
PARAMSCOPE
  2
AcAdParamScope
  3
DesignerServices
 90
    32768
280
     0
281
     0
  0
CLASS
  1
NAMEDAPPL
  2
AcAdNamedAppl
  3
DesignerServices
 90
    32768
280
     0
281
     0
  0
CLASS
  1
AMDTDMMENUSTATE
  2
AmdtDmMenuState
  3
AcMechDwgViewMgmt
 90
    32768
280
     0
281
     0
  0
CLASS
  1
MAPIADMODULE
  2
MApiAdModule
  3
MApiAdServices
 90
    32768
280
     0
281
     0
  0
CLASS
  1
AMDTAMMENUSTATE
  2
AmdtAmMenuState
  3
DesignerAssemblies
 90
    32768
280
     0
281
     0
  0
CLASS
  1
ACAMPROJECT
  2
AcAmProject
  3
DesignerAssemblies
 90
    32768
280
     0
281
     0
  0
CLASS
  1
ACAMCOMPDEFMGR
  2
AcAmCompDefMgr
  3
DesignerAssemblies
 90
    32768
280
     0
281
     0
  0
CLASS
  1
AMCONTEXTMGR
  2
AcAmContextMgr
  3
DesignerAssemblies
 90
    32768
280
     0
281
     0
  0
CLASS
  1
ACAMCONTEXTPARTMODELER
  2
AcAmContextPartModeler
  3
DesignerAssemblies
 90
    32768
280
     0
281
     0
  0
CLASS
  1
ACMDATADICTIONARY
  2
AcmDataDictionary
  3
"AcmSymBB|Product Description: AutoCAD Mechanical 2000|Company: Autodesk"
 90
    32768
280
     0
281
     0
  0
CLASS
  1
ACMDATAENTRYBLOCK
  2
AcmDataEntryBlock
  3
"AcmSymBB|Product Description: AutoCAD Mechanical 2000|Company: Autodesk"
 90
    32768
280
     0
281
     0
  0
CLASS
  1
ACMSTANDARDISO
  2
AcmStandardISO
  3
"Amdt_StdImp|Product Description: AutoCAD Mechanical 2000|Company: Autodesk"
 90
    32768
280
     0
281
     0
  0
CLASS
  1
AMGOBJPROPCFG
  2
AmgObjPropCfg
  3
"AmgLay|Product Description: AutoCAD Mechanical 2000|Company: Autodesk"
 90
    32769
280
     0
281
     0
  0
CLASS
  1
AMDTEDGESTANDARDISO
  2
AmdtEdgeStdISO
  3
"Amdt_StdImp|Product Description: AutoCAD Mechanical 2000|Company: Autodesk"
 90
    32768
280
     0
281
     0
  0
CLASS
  1
ACMSURFSTANDARDISO
  2
AcmSurfTextStdISO
  3
"Amdt_StdImp|Product Description: AutoCAD Mechanical 2000|Company: Autodesk"
 90
    32768
280
     0
281
     0
  0
CLASS
  1
ACMFCFSTANDARDISO
  2
AcmFCFStdISO
  3
"Amdt_StdImp|Product Description: AutoCAD Mechanical 2000|Company: Autodesk"
 90
    32768
280
     0
281
     0
  0
CLASS
  1
ACMWELDSTANDARDISO
  2
AcmWeldingStdISO
  3
"Amdt_StdImp|Product Description: AutoCAD Mechanical 2000|Company: Autodesk"
 90
    32768
280
     0
281
     0
  0
CLASS
  1
ACMIDSTANDARDISO
  2
AcmIdStdISO
  3
"Amdt_StdImp|Product Description: AutoCAD Mechanical 2000|Company: Autodesk"
 90
    32768
280
     0
281
     0
  0
CLASS
  1
ACMDATUMSTANDARDISO
  2
AcmDatumStdISO
  3
"Amdt_StdImp|Product Description: AutoCAD Mechanical 2000|Company: Autodesk"
 90
    32768
280
     0
281
     0
  0
CLASS
  1
ACMBOMSTANDARDISO
  2
AcmBOMStdISO
  3
"Amdt_StdImp|Product Description: AutoCAD Mechanical 2000|Company: Autodesk"
 90
    32768
280
     0
281
     0
  0
CLASS
  1
ACMDETAILSTANDARDISO
  2
AmdtDetailSymStdISO
  3
"Amdt_StdImp|Product Description: AutoCAD Mechanical 2000|Company: Autodesk"
 90
    32768
280
     0
281
     0
  0
CLASS
  1
ACMSECTIONSTANDARDISO
  2
AmdtSectionSymStdISO
  3
"Amdt_StdImp|Product Description: AutoCAD Mechanical 2000|Company: Autodesk"
 90
    32768
280
     0
281
     0
  0
CLASS
  1
ACMCENTERLINESTANDARDISO
  2
AmdtCenterLineStdISO
  3
"Amdt_StdImp|Product Description: AutoCAD Mechanical 2000|Company: Autodesk"
 90
    32768
280
     0
281
     0
  0
CLASS
  1
ACMTHREADLINESTANDARDISO
  2
AmdtThreadLineStdISO
  3
"Amdt_StdImp|Product Description: AutoCAD Mechanical 2000|Company: Autodesk"
 90
    32768
280
     0
281
     0
  0
CLASS
  1
ACMNOTESTANDARDISO
  2
AmdtNoteStdISO
  3
"Amdt_StdImp|Product Description: AutoCAD Mechanical 2000|Company: Autodesk"
 90
    32768
280
     0
281
     0
  0
CLASS
  1
ACAMGLAYSTD
  2
AcAmgLayStd
  3
"AcAmgLayStd|Product Description: AutoCAD Mechanical 2000|Company: Autodesk"
 90
    32768
280
     0
281
     0
  0
CLASS
  1
ACAMGDIMSTD
  2
AcAmgDimStd
  3
"AcAmgDimStd|Product Description: AutoCAD Mechanical 2000|Company: Autodesk"
 90
    32768
280
     0
281
     0
  0
CLASS
  1
ACAMGHOLECHARTSTDISO
  2
AcAmgHoleChartStdISO
  3
ACMSYMBB_MODULE_NAME
 90
    32768
280
     0
281
     0
  0
CLASS
  1
ACAMGTITLESTD
  2
AcAmgTitleStd
  3
"TITLEAPP"
 90
    32768
280
     0
281
     0
  0
CLASS
  1
CATALOGSTATE
  2
AcAmCatalogState
  3
DesignerAssemblies
 90
    32768
280
     0
281
     0
  0
CLASS
  1
ACAMGRCOMPDEFSET
  2
AcAmGrCompDefSet
  3
DesignerAssemblies
 90
    32768
280
     0
281
     0
  0
CLASS
  1
AMDTBROWSERDBTAB
  2
AmdtBrowserDbTab
  3
McadcomServices
 90
    32768
280
     0
281
     0
  0
CLASS
  1
CBROWSERAPPOBJECT
  2
CBrowserAppObject
  3
McadcomServices
 90
    32768
280
     0
281
     0
  0
CLASS
  1
DM_PLACEHOLDER
  2
AcDmSelsetPlaceholder
  3
AcMechDwgViewMgmt
 90
    32768
280
     0
281
     0
  0
CLASS
  1
ACAMGFILTERDAT
  2
AcAmgFilterDat
  3
"AcadM|Product Description: AutoCAD Mechanical 2000|Company: Autodesk"
 90
    32768
280
     0
281
     0
  0
CLASS
  1
LAYER_INDEX
  2
AcDbLayerIndex
  3
AutoCAD 2000
 90
    32768
280
     0
281
     0
  0
CLASS
  1
IDBUFFER
  2
AcDbIdBuffer
  3
AutoCAD 2000
 90
    32768
280
     0
281
     0
  0
CLASS
  1
DICTIONARYVAR
  2
AcDbDictionaryVar
  3
AutoCAD 2000
 90
    32768
280
     0
281
     0
  0
CLASS
  1
ACAMGRCOMPDEF
  2
AcAmGrCompDef
  3
DesignerAssemblies
 90
    32768
280
     0
281
     0
  0
CLASS
  1
ACCMCONTEXT
  2
AcCmContext
  3
DesignerAssemblies
 90
    32768
280
     0
281
     0
  0
CLASS
  1
ACAMCOMPDEF
  2
AcAmCompDef
  3
DesignerAssemblies
 90
    32768
280
     0
281
     0
  0
CLASS
  1
ADPART
  2
AcAdPart
  3
DesignerServices
 90
    32768
280
     0
281
     1
  0
CLASS
  1
ADBASE
  2
AcAdBase
  3
DesignerServices
 90
    32768
280
     0
281
     0
  0
CLASS
  1
BODYID
  2
AcAdBodyId
  3
DesignerServices
 90
    32768
280
     0
281
     0
  0
CLASS
  1
WORKPLANEDISPLAYMGR
  2
AcAdDisplayMgr
  3
DesignerServices
 90
    32768
280
     0
281
     0
  0
CLASS
  1
ACCMBODY
  2
AcCmBody
  3
DesignerAssemblies
 90
    32768
280
     0
281
     0
  0
CLASS
  1
ACAMCOMPENT
  2
AcAmCompEnt
  3
DesignerAssemblies
 90
    32768
280
     0
281
     1
  0
CLASS
  1
ACAMCOMPFEEDBACK
  2
AcAmCompFeedback
  3
DesignerAssemblies
 90
    32768
280
     0
281
     0
  0
CLASS
  1
ACAMGROUNDEDBASECOMP
  2
AcAmGroundedBaseComp
  3
DesignerAssemblies
 90
    32768
280
     0
281
     0
  0
CLASS
  1
ACAMCOMPENTCLONE
  2
AcAmCompEntClone
  3
DesignerAssemblies
 90
    32768
280
     0
281
     1
  0
CLASS
  1
ACAMCLONEREACTOR
  2
AcAmGrCompCloneReactor
  3
DesignerAssemblies
 90
    32768
280
     0
281
     0
  0
CLASS
  1
ADDATUMPLANEABS
  2
AcAdDatumPlaneAbs
  3
DesignerServices
 90
    32768
280
     0
281
     0
  0
CLASS
  1
ADDATUMAXISABS
  2
AcAdDatumAxisAbs
  3
DesignerServices
 90
    32768
280
     0
281
     0
  0
CLASS
  1
ADDATUMORIENTEDPLANE
  2
AcAdDatumOrientedPlane
  3
DesignerServices
 90
    32768
280
     0
281
     0
  0
CLASS
  1
ACAD_LINE
  2
AcAdLine
  3
DesignerServices
 90
    32768
280
     0
281
     1
  0
CLASS
  1
ACADLINEACAD
  2
AcAdVirtualBoundedLineAcad
  3
DesignerServices
 90
    32768
280
     0
281
     0
  0
CLASS
  1
ACADREFLINEACAD
  2
AcAdVirtualReferenceLine
  3
DesignerServices
 90
    32768
280
     0
281
     0
  0
CLASS
  1
ACADCONSLINE
  2
AcAdConstrainedLine
  3
DesignerServices
 90
    32768
280
     0
281
     0
  0
CLASS
  1
ACADCONSGROUP
  2
AcAdConstraintGroup
  3
DesignerServices
 90
    32768
280
     0
281
     0
  0
CLASS
  1
ACADIMPPTACAD
  2
AcAdVirtualImplicitPoint
  3
DesignerServices
 90
    32768
280
     0
281
     0
  0
CLASS
  1
ACADCONSPOINT
  2
AcAdConstrainedPoint
  3
DesignerServices
 90
    32768
280
     0
281
     0
  0
CLASS
  1
ADPCURCNS
  2
AcAdPointCurveConstr
  3
DesignerServices
 90
    32768
280
     0
281
     0
  0
CLASS
  1
ADVERCNS
  2
AcAdVerticalConstr
  3
DesignerServices
 90
    32768
280
     0
281
     0
  0
CLASS
  1
ADHORCNS
  2
AcAdHorizontalConstr
  3
DesignerServices
 90
    32768
280
     0
281
     0
  0
CLASS
  1
ADCLPROF2D
  2
AcAdClosedProfile2d
  3
DesignerServices
 90
    32768
280
     0
281
     0
  0
CLASS
  1
ACAD_FIXCONSTRAINT
  2
AcAdFixedConstraint
  3
DesignerServices
 90
    32768
280
     0
281
     0
  0
CLASS
  1
AMDTFORMULAUPDATEDISPATCHER
  2
AmdtFormulaUpdateDispatcher
  3
AcMeServices
 90
    32768
280
     0
281
     0
  0
CLASS
  1
ADCONSDISP
  2
AcAdConstraintDisplay
  3
DesignerServices
 90
    32768
280
     0
281
     1
  0
CLASS
  1
ADCONSTDSP
  2
AcAdConstraintDisplayTag
  3
DesignerServices
 90
    32768
280
     0
281
     1
  0
CLASS
  1
PARAM
  2
AcAdParam
  3
DesignerServices
 90
    32768
280
     0
281
     0
  0
CLASS
  1
ADVDISTCNS
  2
AcAdVerticalDistanceConstr
  3
DesignerServices
 90
    32768
280
     0
281
     0
  0
CLASS
  1
ADHDISTCNS
  2
AcAdHorizontalDistanceConstr
  3
DesignerServices
 90
    32768
280
     0
281
     0
  0
CLASS
  1
ACMEROTATIONARROW
  2
AcImRotationArrowDisplay
  3
AcMeServices
 90
    32768
280
     0
281
     1
  0
CLASS
  1
ACADVOLFEATWITHTRIM
  2
AcAdVolFeatWithTrim
  3
DesignerServices
 90
    32768
280
     0
281
     0
  0
CLASS
  1
DEPEDGEFEATUREORDERING
  2
AcAdDepEdgeFeatureOrdering
  3
DesignerServices
 90
    32768
280
     0
281
     0
  0
CLASS
  1
DATUMAXISDISPLAY
  2
AcAdDatumAxisDisplay
  3
DesignerServices
 90
    32768
280
     0
281
     1
  0
CLASS
  1
ADDATUMAXISCENTER
  2
AcAdDatumAxisCenter
  3
DesignerServices
 90
    32768
280
     0
281
     0
  0
CLASS
  1
ADPLANEID
  2
AcAdSurfGeomId
  3
DesignerServices
 90
    32768
280
     0
281
     0
  0
CLASS
  1
ACMEPOINT
  2
AcImPointDisplay
  3
AcMeServices
 90
    32768
280
     0
281
     1
  0
CLASS
  1
ADPLANEID
  2
AcAdPlaneId
  3
DesignerServices
 90
    32768
280
     0
281
     0
  0
CLASS
  1
ADDATUMPLANEFACE
  2
AcAdDatumPlaneFace
  3
DesignerServices
 90
    32768
280
     0
281
     0
  0
CLASS
  1
ADDATUMPOINTAXISPLANE
  2
AcAdDatumPointAxisPlane
  3
DesignerServices
 90
    32768
280
     0
281
     0
  0
CLASS
  1
ADHOLEFEAT
  2
AcAdHoleFeat
  3
DesignerServices
 90
    32768
280
     0
281
     0
  0
CLASS
  1
CIRREFID
  2
AcAdCircleRefId
  3
DesignerServices
 90
    32768
280
     0
281
     0
  0
CLASS
  1
ACADCIRCDEPID
  2
AcAdVirtualCircleDepId
  3
DesignerServices
 90
    32768
280
     0
281
     0
  0
CLASS
  1
ACADCONSCIRCLE
  2
AcAdConstrainedCircle
  3
DesignerServices
 90
    32768
280
     0
281
     0
  0
CLASS
  1
ADCTRPTCNS
  2
AcAdCenterPointConstr
  3
DesignerServices
 90
    32768
280
     0
281
     0
  0
CLASS
  1
AMDT_ALIGNED_DIM
  2
AmdtAlignedDimension
  3
AcMeServices
 90
    32768
280
     0
281
     1
  0
CLASS
  1
ACADBOUNDEDLINEDATUMID
  2
AcAdVirtualBoundedLineDatumId
  3
DesignerServices
 90
    32768
280
     0
281
     0
  0
CLASS
  1
AMDT_ORDINATE_DIM
  2
AmdtOrdinateDimension
  3
AcMeServices
 90
    32768
280
     0
281
     1
  0
CLASS
  1
EDGEID
  2
AcAdEdgeId
  3
DesignerServices
 90
    32768
280
     0
281
     0
  0
CLASS
  1
ADFILLET
  2
AcAdFillet
  3
DesignerServices
 90
    32768
280
     0
281
     0
  0
CLASS
  1
DATUMPLANEDISPLAY
  2
AcAdDatumPlaneDisplay
  3
DesignerServices
 90
    32768
280
     0
281
     1
  0
CLASS
  1
ADDATUMPLANEAXISPLANE
  2
AcAdDatumPlaneAxisPlane
  3
DesignerServices
 90
    32768
280
     0
281
     0
  0
CLASS
  1
ACMEPLINE
  2
AcImPlineDisplay
  3
AcMeServices
 90
    32768
280
     0
281
     1
  0
CLASS
  1
ACMELINEARARROW
  2
AcImLinearArrowDisplay
  3
AcMeServices
 90
    32768
280
     0
281
     1
  0
CLASS
  1
ACMETEXT
  2
AcImTextDisplay
  3
AcMeServices
 90
    32768
280
     0
281
     1
  0
CLASS
  1
ADDATUMPLANEOFFSET
  2
AcAdDatumPlaneOffset
  3
DesignerServices
 90
    32768
280
     0
281
     0
  0
CLASS
  1
ADCOLNCNS
  2
AcAdColinearConstr
  3
DesignerServices
 90
    32768
280
     0
281
     0
  0
CLASS
  1
STREFID
  2
AcAdStraightRefId
  3
DesignerServices
 90
    32768
280
     0
281
     0
  0
CLASS
  1
ACADLINEDEPID
  2
AcAdVirtualLineDepId
  3
DesignerServices
 90
    32768
280
     0
281
     0
  0
CLASS
  1
ADFEATUREDISPLAY
  2
AcImFeatureDisplay
  3
ACME_MODULE_NAME
 90
    32768
280
     0
281
     1
  0
CLASS
  1
ACMEAXIS
  2
AcImAxisDisplay
  3
AcMeServices
 90
    32768
280
     0
281
     1
  0
CLASS
  1
DEPEDGEPATTERNFEATURE
  2
AcAdDepEdgePatternFeature
  3
DesignerServices
 90
    32768
280
     0
281
     0
  0
CLASS
  1
ACADPATTNFEAT
  2
AcAdPatternFeat
  3
DesignerServices
 90
    32768
280
     0
281
     0
  0
CLASS
  1
ACADORDORIGPT
  2
AcAdOrdinateOriginPoint
  3
DesignerServices
 90
    32768
280
     0
281
     0
  0
CLASS
  1
ADORDBASECNS
  2
AcAdOrdinateBaseConstr
  3
DesignerServices
 90
    32768
280
     0
281
     0
  0
CLASS
  1
DEPEDGESECONDARYDEPID
  2
AcAdDepEdgeSecondaryDepId
  3
DesignerServices
 90
    32768
280
     0
281
     0
  0
CLASS
  1
DEPEDGEPATTERNINSTANCE
  2
AcAdDepEdgePatternInstance
  3
DesignerServices
 90
    32768
280
     0
281
     0
  0
CLASS
  1
AM_VIEW_SELECT_FILTER
  2
AcDmActivePartViewEntFilter
  3
DesignerServices
 90
    32768
280
     0
281
     0
  0
CLASS
  1
AM_ABS_PLANE
  2
AcDmAbsPlnDef
  3
AcMechDwgViewMgmt
 90
    32768
280
     0
281
     0
  0
CLASS
  1
AM_ABS_AXIS
  2
AcDmAbsAxisDef
  3
AcMechDwgViewMgmt
 90
    32768
280
     0
281
     0
  0
CLASS
  1
AM_BASE_VIEW_ORIENT
  2
AcDmBaseViewOr
  3
AcMechDwgViewMgmt
 90
    32768
280
     0
281
     0
  0
CLASS
  1
AM_DWG_VIEWPORT
  2
AcDmViewport
  3
AcMechDwgViewMgmt
 90
    32768
280
     0
281
     0
  0
CLASS
  1
AM_VIEW_DISPLAY
  2
AcDmDwgViewDisplay
  3
AcMechDwgViewMgmt
 90
    32768
280
     0
281
     0
  0
CLASS
  1
AM_CLDFLTS
  2
AcDmClDflts
  3
AcMechDwgViewMgmt
 90
    32768
280
     0
281
     0
  0
CLASS
  1
AM_BASE_VIEW
  2
AcDmBaseView
  3
AcMechDwgViewMgmt
 90
    32768
280
     0
281
     0
  0
CLASS
  1
AM_ISO_VIEW_ORIENT
  2
AcDmIsoViewOr
  3
AcMechDwgViewMgmt
 90
    32768
280
     0
281
     0
  0
CLASS
  1
AM_ISO_VIEW
  2
AcDmIsoView
  3
AcMechDwgViewMgmt
 90
    32768
280
     0
281
     0
  0
CLASS
  1
AM_ORTHO_VIEW_ORIENT
  2
AcDmOrthoViewOr
  3
AcMechDwgViewMgmt
 90
    32768
280
     0
281
     0
  0
CLASS
  1
AM_ORTHO_VIEW
  2
AcDmOrthoView
  3
AcMechDwgViewMgmt
 90
    32768
280
     0
281
     0
  0
CLASS
  1
ACDMPARTVIEWDATA
  2
AcDmPartViewData
  3
AcMechDwgViewMgmt
 90
    32768
280
     0
281
     0
  0
CLASS
  1
ACDMDISPLAYATTRIBS
  2
AcDmDisplayAttribs
  3
AcMechDwgViewMgmt
 90
    32768
280
     0
281
     0
  0
CLASS
  1
ACDMBODYINSTANCEDATA
  2
AcDmBodyInstanceData
  3
AcMechDwgViewMgmt
 90
    32768
280
     0
281
     0
  0
CLASS
  1
ACDMVWEDLINE
  2
AcDmViewEdgeLine
  3
AcMechDwgViewMgmt
 90
    32768
280
     0
281
     1
  0
CLASS
  1
ACDMVWEDARC
  2
AcDmViewEdgeArc
  3
AcMechDwgViewMgmt
 90
    32768
280
     0
281
     1
  0
CLASS
  1
ACADSKETCHPOINTRES
  2
AcAdSketchPointRes
  3
DesignerServices
 90
    32768
280
     0
281
     0
  0
CLASS
  1
AM_VIEWDIMLINEAR
  2
AcDmViewDimLinear
  3
AcMechDwgViewMgmt
 90
    32768
280
     0
281
     0
  0
CLASS
  1
AMDTDMPARMAPDATA
  2
AmdtDmDimParMapData
  3
AcMechDwgViewMgmt
 90
    32768
280
     0
281
     0
  0
CLASS
  1
AM_ADLINCTRLINE
  2
AcAdLineCl
  3
DesignerServices
 90
    32768
280
     0
281
     0
  0
CLASS
  1
ACDMVWEDCIRC
  2
AcDmViewEdgeCircle
  3
AcMechDwgViewMgmt
 90
    32768
280
     0
281
     1
  0
CLASS
  1
AM_ADCIRCTRLINE
  2
AcAdBullsEyeCl
  3
DesignerServices
 90
    32768
280
     0
281
     0
  0
CLASS
  1
AD_CIRCTAPH
  2
AcAdTapHoleCircDisp
  3
DesignerServices
 90
    32768
280
     0
281
     0
  0
CLASS
  1
ACDMVIEWGEOM
  2
AcDmViewGeometry
  3
AcMechDwgViewMgmt
 90
    32768
280
     0
281
     1
  0
CLASS
  1
FACEID
  2
AcAdFaceId
  3
DesignerServices
 90
    32768
280
     0
281
     0
  0
CLASS
  1
ACADPARTPLANARFACERES
  2
AcAdPartPlanarFaceRes
  3
AdGrefServices
 90
    32768
280
     0
281
     0
  0
CLASS
  1
AM_GREF_PLANE
  2
AcDmGrefPlnDef
  3
AcMechDwgViewMgmt
 90
    32768
280
     0
281
     0
  0
CLASS
  1
ACADPARTLINEDGRES
  2
AcAdPartLinEdgRes
  3
AdGrefServices
 90
    32768
280
     0
281
     0
  0
CLASS
  1
AM_GREF_AXIS
  2
AcDmGrefAxisDef
  3
AcMechDwgViewMgmt
 90
    32768
280
     0
281
     0
  0
CLASS
  1
AMDTEXTERNALTHREAD
  2
AmdtExternalThreadFeat
  3
DesignerServices
 90
    32768
280
     0
281
     0
  0
CLASS
  1
THREADDISPLAY
  2
AcAdThreadDisplay
  3
DesignerServices
 90
    32768
280
     0
281
     1
  0
CLASS
  1
AD_LINETAPH
  2
AcAdTapHoleLineDisp
  3
DesignerServices
 90
    32768
280
     0
281
     0
  0
CLASS
  1
ADRADDISP
  2
AcAdRadiusDisplay
  3
DesignerServices
 90
    32768
280
     0
281
     1
  0
CLASS
  1
ACDBLINERES
  2
AcDbLineRes
  3
AcGrefServices
 90
    32768
280
     0
281
     0
  0
CLASS
  1
ACADPARTCONICALFACERES
  2
AcAdPartConicalFaceRes
  3
AdGrefServices
 90
    32768
280
     0
281
     0
  0
CLASS
  1
ACDMGREFEDIT
  2
AcDmViewEntityGeomrefEdit
  3
AcMechDwgViewMgmt
 90
    32768
280
     0
281
     0
  0
CLASS
  1
ACDMVIEWLINEDGERES
  2
AcDmViewLinEdgeRes
  3
AcMechDwgViewMgmt
 90
    32768
280
     0
281
     0
  0
CLASS
  1
SILEDGEID
  2
AcAdSilhouetteEdgeId
  3
DesignerServices
 90
    32768
280
     0
281
     0
  0
CLASS
  1
ACADPARTCYLINDERFACERES
  2
AcAdPartCylinderFaceRes
  3
AdGrefServices
 90
    32768
280
     0
281
     0
  0
CLASS
  1
CNRREFID
  2
AcAdCornerId
  3
DesignerServices
 90
    32768
280
     0
281
     0
  0
CLASS
  1
ACADPARTPOINTRES
  2
AcAdPartPointRes
  3
AdGrefServices
 90
    32768
280
     0
281
     0
  0
CLASS
  1
ACADPARTCIRCEDGRES
  2
AcAdPartCircEdgRes
  3
AdGrefServices
 90
    32768
280
     0
281
     0
  0
CLASS
  1
ACRFDMINSADJ
  2
AcRfDMInsAdjuster
  3
AcMechDwgViewMgmt
 90
    32768
280
     0
281
     0
  0
CLASS
  1
AM_VIEWDIMRADIUS
  2
AcDmViewDimRadius
  3
AcMechDwgViewMgmt
 90
    32768
280
     0
281
     0
  0
CLASS
  1
ACADPARTDATUMPLANERES
  2
AcAdPartDatumPlaneRes
  3
AdGrefServices
 90
    32768
280
     0
281
     0
  0
CLASS
  1
AM_FULLPLANESECTION
  2
AcDmFullPlaneSection
  3
AcMechDwgViewMgmt
 90
    32768
280
     0
281
     0
  0
CLASS
  1
AMDTSECTIONSYM
  2
AmdtSectionSym
  3
"AcmSymBB|Product Description: AutoCAD Mechanical 2000|Company: Autodesk"
 90
    33791
280
     0
281
     1
  0
CLASS
  1
AM_VWNOTEADAPTER
  2
AcDmViewAnnotAdapter
  3
AcMechDwgViewMgmt
 90
    32768
280
     0
281
     0
  0
CLASS
  1
AMDTSECTIONSYMLABEL
  2
AmdtSectionSymLabel
  3
"AcmSymBB|Product Description: AutoCAD Mechanical 2000|Company: Autodesk"
 90
    33791
280
     0
281
     1
  0
CLASS
  1
AMDTNOTE
  2
AmdtNote
  3
"AcmSymBB|Product Description: AutoCAD Mechanical 2000|Company: Autodesk"
 90
    33791
280
     0
281
     1
  0
CLASS
  1
DIMASSOC
  2
AcDbDimAssoc
  3
"AcDbDimAssoc|Product Desc:     AcDim ARX App For Dimension|Company:          Autodesk, Inc.|WEB Address:      www.autodesk.com"
 90
    32768
280
     0
281
     0
  0
CLASS
  1
ACMSTANDARDANSI
  2
AcmStandardANSI
  3
"Amdt_StdImp|Product Description: AutoCAD Mechanical 2000|Company: Autodesk"
 90
    32768
280
     0
281
     0
  0
CLASS
  1
ACMSURFSTANDARDANSI
  2
AcmSurfTextStdANSI
  3
"Amdt_StdImp|Product Description: AutoCAD Mechanical 2000|Company: Autodesk"
 90
    32768
280
     0
281
     0
  0
CLASS
  1
ACMFCFSTANDARDANSI
  2
AcmFCFStdANSI
  3
"Amdt_StdImp|Product Description: AutoCAD Mechanical 2000|Company: Autodesk"
 90
    32768
280
     0
281
     0
  0
CLASS
  1
ACMWELDSTANDARDANSI
  2
AcmWeldingStdANSI
  3
"Amdt_StdImp|Product Description: AutoCAD Mechanical 2000|Company: Autodesk"
 90
    32768
280
     0
281
     0
  0
CLASS
  1
ACMIDSTANDARDANSI
  2
AcmIdStdANSI
  3
"Amdt_StdImp|Product Description: AutoCAD Mechanical 2000|Company: Autodesk"
 90
    32768
280
     0
281
     0
  0
CLASS
  1
ACMDATUMSTANDARDANSI
  2
AcmDatumStdANSI
  3
"Amdt_StdImp|Product Description: AutoCAD Mechanical 2000|Company: Autodesk"
 90
    32768
280
     0
281
     0
  0
CLASS
  1
ACMBOMSTANDARDANSI
  2
AcmBOMStdANSI
  3
"Amdt_StdImp|Product Description: AutoCAD Mechanical 2000|Company: Autodesk"
 90
    32768
280
     0
281
     0
  0
CLASS
  1
ACMDETAILSTANDARDANSI
  2
AmdtDetailSymStdANSI
  3
"Amdt_StdImp|Product Description: AutoCAD Mechanical 2000|Company: Autodesk"
 90
    32768
280
     0
281
     0
  0
CLASS
  1
ACMSECTIONSTANDARDANSI
  2
AmdtSectionSymStdANSI
  3
"Amdt_StdImp|Product Description: AutoCAD Mechanical 2000|Company: Autodesk"
 90
    32768
280
     0
281
     0
  0
CLASS
  1
ACMCENTERLINESTANDARDANSI
  2
AmdtCenterLineStdANSI
  3
"Amdt_StdImp|Product Description: AutoCAD Mechanical 2000|Company: Autodesk"
 90
    32768
280
     0
281
     0
  0
CLASS
  1
ACMNOTESTANDARDANSI
  2
AmdtNoteStdANSI
  3
"Amdt_StdImp|Product Description: AutoCAD Mechanical 2000|Company: Autodesk"
 90
    32768
280
     0
281
     0
  0
CLASS
  1
ACAMGHOLECHARTSTDANSI
  2
AcAmgHoleChartStdANSI
  3
ACMSYMBB_MODULE_NAME
 90
    32768
280
     0
281
     0
  0
CLASS
  1
ACDBCIRCARCRES
  2
AcDbCircArcRes
  3
AcGrefServices
 90
    32768
280
     0
281
     0
  0
CLASS
  1
STDPART2D
  2
AmgStdPart
  3
"AmgStdPart|Product Description: AutoCAD Mechanical 2000|Company: Autodesk"
 90
    33791
280
     0
281
     1
  0
CLASS
  1
LONG_TRANSACTION
  2
AcDbLongTransaction
  3
AutoCAD 2000
 90
    32768
280
     0
281
     0
  0
CLASS
  1
LWPOLYLINE
  2
AcDbPolyline
  3
AutoCAD 2000
 90
    32768
280
     0
281
     1
  0
CLASS
  1
HATCH
  2
AcDbHatch
  3
AutoCAD 2000
 90
    32768
280
     0
281
     1
  0
CLASS
  1
XRECORD
  2
AcDbXrecord
  3
AutoCAD 2000
 90
    32768
280
     0
281
     0
  0
ENDSEC
  0
SECTION
  2
TABLES
  0
TABLE
  2
VPORT
  5
1A
330
0
100
AcDbSymbolTable
 70
     6
  0
VPORT
  5
4267
330
1A
100
AcDbSymbolTableRecord
100
AcDbViewportTableRecord
  2
*ACTIVE
 70
     0
 10
0.0
 20
0.0
 11
1.0
 21
1.0
 12
2065.493343972304
 22
215.2796560954313
 13
0.0
 23
0.0
 14
2.5
 24
2.5
 15
10.0
 25
10.0
 16
0.0
 26
0.0
 36
1.0
 17
0.0
 27
0.0
 37
0.0
 40
337.3461345266404
 41
1.765124555160142
 42
50.0
 43
0.0
 44
0.0
 50
0.0
 51
0.0
 71
     0
 72
   100
 73
     1
 74
     3
 75
     0
 76
     0
 77
     0
 78
     0
  0
ENDTAB
  0
TABLE
  2
LTYPE
  5
15
330
0
100
AcDbSymbolTable
 70
    20
  0
LTYPE
  5
16
330
15
100
AcDbSymbolTableRecord
100
AcDbLinetypeTableRecord
  2
BYBLOCK
 70
     0
  3

 72
    65
 73
     0
 40
0.0
  0
LTYPE
  5
17
330
15
100
AcDbSymbolTableRecord
100
AcDbLinetypeTableRecord
  2
BYLAYER
 70
     0
  3

 72
    65
 73
     0
 40
0.0
  0
LTYPE
  5
9
330
15
100
AcDbSymbolTableRecord
100
AcDbLinetypeTableRecord
  2
CONTINUOUS
 70
     0
  3
Solid line
 72
    65
 73
     0
 40
0.0
  0
LTYPE
  5
161
330
15
100
AcDbSymbolTableRecord
100
AcDbLinetypeTableRecord
  2
HIDDEN
 70
     0
  3
Hidden __ __ __ __ __ __ __ __ __ __ __ __ __ _
 72
    65
 73
     2
 40
9.524999999999998
 49
6.349999999999999
 74
     0
 49
-3.174999999999999
 74
     0
  0
LTYPE
  5
BF
330
15
100
AcDbSymbolTableRecord
100
AcDbLinetypeTableRecord
  2
AM_ISO08W050
 70
     0
  3
____ . ____ . ____ . ____ . ____ . ____ . ____
 72
    65
 73
     4
 40
18.0
 49
12.0
 74
     0
 49
-1.5
 74
     0
 49
3.0
 74
     0
 49
-1.5
 74
     0
  0
LTYPE
  5
1FD
330
15
100
AcDbSymbolTableRecord
100
AcDbLinetypeTableRecord
  2
AM_ISO02W050
 70
     0
  3
__ __ __ __ __ __ __ __ __ __ __ __ __ __ __
 72
    65
 73
     2
 40
7.5
 49
6.0
 74
     0
 49
-1.5
 74
     0
  0
LTYPE
  5
1FE
330
15
100
AcDbSymbolTableRecord
100
AcDbLinetypeTableRecord
  2
AM_ISO09W050
 70
     0
  3
_____ . . _____ . . _____ . . ____ .. ____
 72
    65
 73
     6
 40
22.5
 49
12.0
 74
     0
 49
-1.5
 74
     0
 49
3.0
 74
     0
 49
-1.5
 74
     0
 49
3.0
 74
     0
 49
-1.5
 74
     0
  0
LTYPE
  5
1FF
330
15
100
AcDbSymbolTableRecord
100
AcDbLinetypeTableRecord
  2
AMCONSTR
 70
     0
  3
_______________________
 72
    65
 73
     2
 40
9999.0
 49
9999.0
 74
     0
 49
0.0
 74
     0
  0
LTYPE
  5
200
330
15
100
AcDbSymbolTableRecord
100
AcDbLinetypeTableRecord
  2
AM_ISO08W050X2
 70
     0
  3
__ . __ . __ . __ . __ . __
 72
    65
 73
     4
 40
9.0
 49
6.0
 74
     0
 49
-0.75
 74
     0
 49
1.5
 74
     0
 49
-0.75
 74
     0
  0
LTYPE
  5
201
330
15
100
AcDbSymbolTableRecord
100
AcDbLinetypeTableRecord
  2
AM_ISO02W050X2
 70
     0
  3
 _ _ _ _ _ _ _ _ _ _ _ _
 72
    65
 73
     2
 40
3.75
 49
3.0
 74
     0
 49
-0.75
 74
     0
  0
LTYPE
  5
204
330
15
100
AcDbSymbolTableRecord
100
AcDbLinetypeTableRecord
  2
AMZIGZAG
 70
     0
  3
/\/-/\/-/\/-/\/-/\/-/\/
 72
    65
 73
     2
 40
11.00009999999999
 49
0.0001
 74
     4
 75
   135
340
203
 46
0.04
 50
0.0
 44
0.0
 45
0.0
 49
-11.0
 74
     0
  0
LTYPE
  5
211
330
15
100
AcDbSymbolTableRecord
100
AcDbLinetypeTableRecord
  2
ACISOWELD
 70
     0
  3
_ _ _ _ _
 72
    65
 73
     2
 40
2.0
 49
2.0
 74
     0
 49
-1.0
 74
     0
  0
LTYPE
  5
212
330
15
100
AcDbSymbolTableRecord
100
AcDbLinetypeTableRecord
  2
ACISOTGB
 70
     0
  3
__ . . __ . .
 72
    65
 73
     6
 40
9.0
 49
4.0
 74
     0
 49
-1.0
 74
     0
 49
1.0
 74
     0
 49
-1.0
 74
     0
 49
1.0
 74
     0
 49
-1.0
 74
     0
  0
LTYPE
  5
213
330
15
100
AcDbSymbolTableRecord
100
AcDbLinetypeTableRecord
  2
ACISOTGL
 70
     0
  3
_ _ _ _ _
 72
    65
 73
     2
 40
3.0
 49
2.0
 74
     0
 49
-1.0
 74
     0
  0
LTYPE
  5
214
330
15
100
AcDbSymbolTableRecord
100
AcDbLinetypeTableRecord
  2
CENTER
 70
     0
  3
__ . __
 72
    65
 73
     4
 40
7.0
 49
4.0
 74
     0
 49
-1.0
 74
     0
 49
1.0
 74
     0
 49
-1.0
 74
     0
  0
LTYPE
  5
1112
330
15
100
AcDbSymbolTableRecord
100
AcDbLinetypeTableRecord
  2
PHANTOM2
 70
     0
  3
Phantom (.5x) ___ _ _ ___ _ _ ___ _ _ ___ _ _
 72
    65
 73
     6
 40
1.25
 49
0.625
 74
     0
 49
-0.125
 74
     0
 49
0.125
 74
     0
 49
-0.125
 74
     0
 49
0.125
 74
     0
 49
-0.125
 74
     0
  0
LTYPE
  5
1115
330
15
100
AcDbSymbolTableRecord
100
AcDbLinetypeTableRecord
  2
ACANSTGB
 70
     0
  3
__ . . __ . .
 72
    65
 73
     6
 40
0.35433070866
 49
0.15748031496
 74
     0
 49
-0.03937007874
 74
     0
 49
0.03937007874
 74
     0
 49
-0.03937007874
 74
     0
 49
0.03937007874
 74
     0
 49
-0.03937007874
 74
     0
  0
LTYPE
  5
1116
330
15
100
AcDbSymbolTableRecord
100
AcDbLinetypeTableRecord
  2
ACANSTGL
 70
     0
  3
_ _ _ _ _
 72
    65
 73
     2
 40
0.11811023622
 49
0.07874015748
 74
     0
 49
-0.03937007874
 74
     0
  0
ENDTAB
  0
TABLE
  2
LAYER
  5
11
330
0
100
AcDbSymbolTable
 70
    13
  0
LAYER
  5
5
330
11
100
AcDbSymbolTableRecord
100
AcDbLayerTableRecord
  2
0
 70
     0
 62
     7
  6
CONTINUOUS
  0
LAYER
  5
3B
330
11
100
AcDbSymbolTableRecord
100
AcDbLayerTableRecord
  2
DEFPOINTS
 70
     0
 62
     7
  6
CONTINUOUS
  0
LAYER
  5
14E
330
11
100
AcDbSymbolTableRecord
100
AcDbLayerTableRecord
  2
AM_5
 70
     0
 62
     5
  6
CONTINUOUS
  0
LAYER
  5
32
330
11
100
AcDbSymbolTableRecord
100
AcDbLayerTableRecord
  2
AM_PARDIM
 70
     0
 62
     5
  6
CONTINUOUS
  0
LAYER
  5
BE
330
11
100
AcDbSymbolTableRecord
100
AcDbLayerTableRecord
  2
AM_7
 70
     0
 62
     1
  6
AM_ISO08W050
  0
LAYER
  5
1117
330
11
100
AcDbSymbolTableRecord
100
AcDbLayerTableRecord
  2
HIDDEN
 70
     0
 62
     6
  6
HIDDEN
  0
LAYER
  5
1118
330
11
100
AcDbSymbolTableRecord
100
AcDbLayerTableRecord
  2
DIM
 70
     0
 62
     5
  6
CONTINUOUS
  0
LAYER
  5
1119
330
11
100
AcDbSymbolTableRecord
100
AcDbLayerTableRecord
  2
CENTER
 70
     0
 62
     1
  6
CENTER
  0
LAYER
  5
111A
330
11
100
AcDbSymbolTableRecord
100
AcDbLayerTableRecord
  2
LOGO
 70
     0
 62
     7
  6
CONTINUOUS
  0
LAYER
  5
2643
330
11
100
AcDbSymbolTableRecord
100
AcDbLayerTableRecord
  2
AM_4
 70
     0
 62
     3
  6
CONTINUOUS
  0
ENDTAB
  0
TABLE
  2
STYLE
  5
12
330
0
100
AcDbSymbolTable
 70
    12
  0
STYLE
  5
13
330
12
100
AcDbSymbolTableRecord
100
AcDbTextStyleTableRecord
  2
STANDARD
 70
     0
 40
0.0
 41
1.0
 50
0.0
 71
     0
 42
2.5
  3
ISOCP.SHX
  4
CHINESET.SHX
  0
STYLE
  5
152
330
12
100
AcDbSymbolTableRecord
100
AcDbTextStyleTableRecord
  2
ACISOTS
 70
     0
 40
1.0
 41
1.0
 50
0.0
 71
     0
 42
2.5
  3
isocp.shx
  4
chineset.shx
  0
STYLE
  5
203
330
12
100
AcDbSymbolTableRecord
100
AcDbTextStyleTableRecord
  2

 70
     1
 40
0.0
 41
1.0
 50
0.0
 71
     0
 42
2.5
  3
ltypeshp.shx
  4

  0
STYLE
  5
210
330
12
100
AcDbSymbolTableRecord
100
AcDbTextStyleTableRecord
  2
ACISOGDT
 70
     0
 40
0.0
 41
1.0
 50
0.0
 71
     0
 42
2.5
  3
amgdt.shx
  4

  0
STYLE
  5
356
330
12
100
AcDbSymbolTableRecord
100
AcDbTextStyleTableRecord
  2
CHINESET
 70
     0
 40
0.0
 41
1.0
 50
0.0
 71
     0
 42
2.5
  3
simplex.shx
  4
CHINESET.shx
  0
STYLE
  5
357
330
12
100
AcDbSymbolTableRecord
100
AcDbTextStyleTableRecord
  2
CHINA
 70
     0
 40
0.0
 41
1.0
 50
0.0
 71
     0
 42
3.0
  3
/rubon/c2
  4
/rubon/china
  0
STYLE
  5
111C
330
12
100
AcDbSymbolTableRecord
100
AcDbTextStyleTableRecord
  2
ROMANS
 70
     0
 40
0.0
 41
1.0
 50
0.0
 71
     0
 42
3.0
  3
ROMANS.SHX
  4
LMP
  0
STYLE
  5
111D
330
12
100
AcDbSymbolTableRecord
100
AcDbTextStyleTableRecord
  2
ROMANS1
 70
     0
 40
0.0
 41
1.0
 50
0.0
 71
     0
 42
3.0
  3
ROMANS.SHX
  4

  0
STYLE
  5
111E
330
12
100
AcDbSymbolTableRecord
100
AcDbTextStyleTableRecord
  2
LOGO
 70
     0
 40
0.0
 41
1.0
 50
0.0
 71
     0
 42
5.0
  3
LEI00DP.TTF
  4

1001
ACAD
1000
文鼎中粗隸
1071
    34865
  0
STYLE
  5
111F
330
12
100
AcDbSymbolTableRecord
100
AcDbTextStyleTableRecord
  2
ACANSTS
 70
     0
 40
1.0
 41
1.0
 50
0.0
 71
     0
 42
2.5
  3
romans.shx
  4
chineset.shx
  0
STYLE
  5
1120
330
12
100
AcDbSymbolTableRecord
100
AcDbTextStyleTableRecord
  2
ACANSGDT
 70
     0
 40
0.0
 41
1.0
 50
0.0
 71
     0
 42
2.5
  3
amgdtans.shx
  4

  0
ENDTAB
  0
TABLE
  2
VIEW
  5
18
330
0
100
AcDbSymbolTable
 70
     0
  0
ENDTAB
  0
TABLE
  2
UCS
  5
19
330
0
100
AcDbSymbolTable
 70
     0
  0
ENDTAB
  0
TABLE
  2
APPID
  5
1C
330
0
100
AcDbSymbolTable
 70
    24
  0
APPID
  5
1D
330
1C
100
AcDbSymbolTableRecord
100
AcDbRegAppTableRecord
  2
ACAD
 70
     0
  0
APPID
  5
41
330
1C
100
AcDbSymbolTableRecord
100
AcDbRegAppTableRecord
  2
AD_SKETCHDIM
 70
     0
  0
APPID
  5
42
330
1C
100
AcDbSymbolTableRecord
100
AcDbRegAppTableRecord
  2
ACAD_DIMASSOC_DIMLFAC
 70
     0
  0
APPID
  5
40
330
1C
100
AcDbSymbolTableRecord
100
AcDbRegAppTableRecord
  2
ACAD_DIMASSOC_CALC_DIMLFAC
 70
     0
  0
APPID
  5
1DF
330
1C
100
AcDbSymbolTableRecord
100
AcDbRegAppTableRecord
  2
MCAD_NO_VIS
 70
     0
  0
APPID
  5
1E0
330
1C
100
AcDbSymbolTableRecord
100
AcDbRegAppTableRecord
  2
ACAD_TEMP_GRAPHIC
 70
     0
  0
APPID
  5
1F1
330
1C
100
AcDbSymbolTableRecord
100
AcDbRegAppTableRecord
  2
ACATTRIBSERVICES
 70
     0
  0
APPID
  5
CAF
330
1C
100
AcDbSymbolTableRecord
100
AcDbRegAppTableRecord
  2
GENIUS_GENODEF_13
 70
     0
  0
APPID
  5
CB0
330
1C
100
AcDbSymbolTableRecord
100
AcDbRegAppTableRecord
  2
GENIUS_GENOBJ-N-DIM_13
 70
     0
  0
APPID
  5
CBC
330
1C
100
AcDbSymbolTableRecord
100
AcDbRegAppTableRecord
  2
GENIUS_GENDIM_13
 70
     0
  0
APPID
  5
CDC
330
1C
100
AcDbSymbolTableRecord
100
AcDbRegAppTableRecord
  2
GENIUS_GENDIMSH_14
 70
     0
  0
APPID
  5
E3C
330
1C
100
AcDbSymbolTableRecord
100
AcDbRegAppTableRecord
  2
GENIUS_GENOBJ-N-HTC_13
 70
     0
  0
APPID
  5
E3D
330
1C
100
AcDbSymbolTableRecord
100
AcDbRegAppTableRecord
  2
GENIUS_GENHATCH_13
 70
     0
  0
APPID
  5
E59
330
1C
100
AcDbSymbolTableRecord
100
AcDbRegAppTableRecord
  2
DCO15
 70
     0
  0
APPID
  5
1128
330
1C
100
AcDbSymbolTableRecord
100
AcDbRegAppTableRecord
  2
GENIUS_GENOENT_13
 70
     0
  0
APPID
  5
1129
330
1C
100
AcDbSymbolTableRecord
100
AcDbRegAppTableRecord
  2
GENIUS_GENOLIS_13
 70
     0
  0
APPID
  5
112A
330
1C
100
AcDbSymbolTableRecord
100
AcDbRegAppTableRecord
  2
GENIUS_GENOBJ-N-CRS_13
 70
     0
  0
APPID
  5
112B
330
1C
100
AcDbSymbolTableRecord
100
AcDbRegAppTableRecord
  2
GENIUS_GENOREF_13
 70
     0
  0
APPID
  5
2637
330
1C
100
AcDbSymbolTableRecord
100
AcDbRegAppTableRecord
  2
GEVID1054773670
 70
     0
  0
APPID
  5
2638
330
1C
100
AcDbSymbolTableRecord
100
AcDbRegAppTableRecord
  2
GEVDC
 70
     0
  0
APPID
  5
2639
330
1C
100
AcDbSymbolTableRecord
100
AcDbRegAppTableRecord
  2
GEVRADREF
 70
     0
  0
APPID
  5
263D
330
1C
100
AcDbSymbolTableRecord
100
AcDbRegAppTableRecord
  2
GENIUS_GENBH_13
 70
     0
  0
APPID
  5
2640
330
1C
100
AcDbSymbolTableRecord
100
AcDbRegAppTableRecord
  2
GENIUS_GENOBJ-NBEHI-BHF_13
 70
     0
  0
APPID
  5
2642
330
1C
100
AcDbSymbolTableRecord
100
AcDbRegAppTableRecord
  2
GENIUS_GENOBJ-NBEHI-BHB_13
 70
     0
  0
ENDTAB
  0
TABLE
  2
DIMSTYLE
  5
1E
330
0
100
AcDbSymbolTable
 70
    14
  0
DIMSTYLE
105
1F
102
{ACAD_REACTORS
330
31
330
43
330
52
330
5F
330
6C
330
79
330
86
330
95
330
A3
330
B0
330
36D5
330
36DB
330
3670
330
372C
330
36A8
330
36D8
330
4196
102
}
330
1E
100
AcDbSymbolTableRecord
100
AcDbDimStyleTableRecord
  2
AM_ISO
 70
     0
  3

  4
"
  5

  6

  7

 40
1.5
 41
3.0
 42
2.0
 43
10.0
 44
1.5
 45
0.0
 46
0.0
 47
0.1
 48
0.1
140
3.0
141
0.0
142
0.0
143
0.0393701
144
1.0
145
0.0
146
0.71
147
1.0
 71
     0
 72
     0
 73
     0
 74
     0
 75
     0
 76
     0
 77
     1
 78
     8
170
     0
171
     2
172
     1
173
     0
174
     0
175
     0
176
   256
177
   256
178
   256
270
     2
271
     2
272
     2
273
     2
274
     2
340
357
275
     0
280
     0
281
     0
282
     0
283
     0
284
     8
285
     0
286
     0
287
     3
288
     0
  0
DIMSTYLE
105
217
330
1E
100
AcDbSymbolTableRecord
100
AcDbDimStyleTableRecord
  2
AM_ISO$3
 70
     0
  3

  4
"
  5

  6

  7

 40
1.5
 41
3.0
 42
2.0
 43
10.0
 44
1.5
 45
0.0
 46
0.0
 47
0.1
 48
0.1
140
3.0
141
0.0
142
0.0
143
0.0393701
144
1.0
145
0.0
146
0.71
147
1.0
 71
     0
 72
     0
 73
     0
 74
     1
 75
     0
 76
     0
 77
     1
 78
     8
170
     0
171
     2
172
     0
173
     0
174
     0
175
     0
176
   256
177
   256
178
   256
270
     2
271
     2
272
     2
273
     2
274
     2
340
357
275
     0
280
     0
281
     0
282
     0
283
     0
284
     8
285
     0
286
     0
287
     0
288
     1
  0
DIMSTYLE
105
218
330
1E
100
AcDbSymbolTableRecord
100
AcDbDimStyleTableRecord
  2
AM_ISO$4
 70
     0
  3

  4
"
  5

  6

  7

 40
1.5
 41
3.0
 42
2.0
 43
10.0
 44
1.5
 45
0.0
 46
0.0
 47
0.1
 48
0.1
140
3.0
141
0.0
142
0.0
143
0.0393701
144
1.0
145
0.0
146
0.71
147
1.0
 71
     0
 72
     0
 73
     0
 74
     1
 75
     0
 76
     0
 77
     1
 78
     8
170
     0
171
     2
172
     0
173
     0
174
     0
175
     0
176
   256
177
   256
178
   256
270
     2
271
     2
272
     2
273
     2
274
     2
340
357
275
     0
280
     0
281
     0
282
     0
283
     0
284
     8
285
     0
286
     0
287
     0
288
     1
  0
DIMSTYLE
105
219
330
1E
100
AcDbSymbolTableRecord
100
AcDbDimStyleTableRecord
  2
AM_ISO$6
 70
     0
  3

  4
"
  5

  6

  7

 40
1.5
 41
3.0
 42
2.0
 43
10.0
 44
1.5
 45
0.0
 46
0.0
 47
0.1
 48
0.1
140
3.0
141
0.0
142
0.0
143
0.0393701
144
1.0
145
0.0
146
0.71
147
1.0
 71
     0
 72
     0
 73
     0
 74
     0
 75
     0
 76
     0
 77
     0
 78
     8
170
     0
171
     2
172
     1
173
     0
174
     0
175
     0
176
   256
177
   256
178
   256
270
     2
271
     2
272
     2
273
     2
274
     2
340
357
275
     0
280
     0
281
     0
282
     0
283
     0
284
     8
285
     0
286
     0
287
     3
288
     0
  0
DIMSTYLE
105
21A
330
1E
100
AcDbSymbolTableRecord
100
AcDbDimStyleTableRecord
  2
AM_ISO$7
 70
     0
  3

  4
"
  5

  6

  7

 40
1.5
 41
2.5
 42
2.0
 43
10.0
 44
1.5
 45
0.0
 46
0.0
 47
0.1
 48
0.1
140
5.0
141
0.0
142
0.0
143
0.0393701
144
1.0
145
0.0
146
0.71
147
1.5
 71
     0
 72
     0
 73
     0
 74
     0
 75
     0
 76
     0
 77
     1
 78
     8
170
     0
171
     2
172
     1
173
     0
174
     0
175
     0
176
   256
177
   256
178
   256
270
     2
271
     2
272
     2
273
     2
274
     2
340
357
275
     0
280
     0
281
     0
282
     0
283
     0
284
     8
285
     0
286
     0
287
     3
288
     0
  0
DIMSTYLE
105
21B
330
1E
100
AcDbSymbolTableRecord
100
AcDbDimStyleTableRecord
  2
AM_ISO$SF
 70
     0
  3

  4
"
  5

  6

  7

 40
1.0
 41
3.0
 42
2.0
 43
5.0
 44
1.5
 45
0.0
 46
0.0
 47
0.1
 48
0.1
140
3.0
141
0.0
142
0.0
143
0.0393701
144
1.0
145
0.0
146
0.71
147
1.0
 71
     0
 72
     0
 73
     0
 74
     0
 75
     1
 76
     1
 77
     1
 78
     8
170
     0
171
     2
172
     1
173
     0
174
     0
175
     0
176
   256
177
   256
178
     5
270
     2
271
     2
272
     2
273
     2
274
     2
340
13
275
     0
280
     0
281
     0
282
     0
283
     0
284
     8
285
     0
286
     0
287
     3
288
     0
  0
DIMSTYLE
105
220
330
1E
100
AcDbSymbolTableRecord
100
AcDbDimStyleTableRecord
  2
AM_ISO$SH
 70
     0
  3

  4
"
  5

  6
GENAXEH
  7

 40
1.0
 41
3.0
 42
2.0
 43
5.0
 44
1.5
 45
0.0
 46
0.0
 47
0.1
 48
0.1
140
3.0
141
0.0
142
0.0
143
0.0393701
144
2.0
145
0.0
146
0.71
147
1.0
 71
     0
 72
     0
 73
     0
 74
     0
 75
     1
 76
     1
 77
     1
 78
     8
170
     0
171
     2
172
     1
173
     1
174
     0
175
     0
176
   256
177
   256
178
     5
270
     2
271
     2
272
     2
273
     2
274
     2
340
13
275
     0
280
     0
281
     0
282
     0
283
     0
284
     8
285
     0
286
     0
287
     3
288
     0
  0
DIMSTYLE
105
1121
330
1E
100
AcDbSymbolTableRecord
100
AcDbDimStyleTableRecord
  2
STANDARD
 70
     0
  3

  4

  5

  6

  7

 40
1.0
 41
0.18
 42
0.0625
 43
0.38
 44
0.18
 45
0.0
 46
0.0
 47
0.0
 48
0.0
140
0.18
141
0.09
142
0.0
143
25.4
144
1.0
145
0.0
146
1.0
147
0.09
 71
     0
 72
     0
 73
     1
 74
     1
 75
     0
 76
     0
 77
     0
 78
     0
170
     0
171
     2
172
     0
173
     0
174
     0
175
     0
176
     0
177
     0
178
     0
270
     2
271
     4
272
     4
273
     2
274
     2
340
13
275
     0
280
     0
281
     0
282
     0
283
     1
284
     0
285
     0
286
     0
287
     3
288
     0
  0
DIMSTYLE
105
1122
330
1E
100
AcDbSymbolTableRecord
100
AcDbDimStyleTableRecord
  2
AM_ANSI
 70
     0
  3

  4
mm
  5

  6

  7

 40
1.0
 41
0.1
 42
0.05
 43
0.5
 44
0.1
 45
0.0
 46
0.0
 47
0.1
 48
0.1
140
0.12
141
0.0
142
0.0
143
25.4
144
1.0
145
0.0
146
0.71
147
0.06
 71
     0
 72
     0
 73
     1
 74
     1
 75
     0
 76
     0
 77
     0
 78
     7
170
     0
171
     2
172
     0
173
     0
174
     0
175
     0
176
   256
177
   256
178
     2
270
     2
271
     4
272
     4
273
     2
274
     4
340
13
275
     0
280
     0
281
     0
282
     0
283
     1
284
     7
285
     0
286
     0
287
     3
288
     0
  0
DIMSTYLE
105
1123
330
1E
100
AcDbSymbolTableRecord
100
AcDbDimStyleTableRecord
  2
AM_ANSI$3
 70
     0
  3

  4
mm
  5

  6

  7

 40
1.0
 41
0.1
 42
0.05
 43
0.5
 44
0.1
 45
0.0
 46
0.0
 47
0.1
 48
0.1
140
0.12
141
0.0
142
0.0
143
25.4
144
1.0
145
0.0
146
0.71
147
0.06
 71
     0
 72
     0
 73
     1
 74
     1
 75
     0
 76
     0
 77
     0
 78
     7
170
     0
171
     2
172
     0
173
     0
174
     0
175
     0
176
   256
177
   256
178
     2
270
     2
271
     4
272
     4
273
     2
274
     4
340
13
275
     0
280
     0
281
     0
282
     0
283
     1
284
     7
285
     0
286
     0
287
     0
288
     1
  0
DIMSTYLE
105
1124
330
1E
100
AcDbSymbolTableRecord
100
AcDbDimStyleTableRecord
  2
AM_ANSI$4
 70
     0
  3

  4
mm
  5

  6

  7

 40
1.0
 41
0.1
 42
0.05
 43
0.5
 44
0.1
 45
0.0
 46
0.0
 47
0.1
 48
0.1
140
0.12
141
0.0
142
0.0
143
25.4
144
1.0
145
0.0
146
0.71
147
0.06
 71
     0
 72
     0
 73
     1
 74
     1
 75
     0
 76
     0
 77
     0
 78
     7
170
     0
171
     2
172
     0
173
     0
174
     0
175
     0
176
   256
177
   256
178
     2
270
     2
271
     4
272
     4
273
     2
274
     4
340
13
275
     0
280
     0
281
     0
282
     0
283
     1
284
     7
285
     0
286
     0
287
     0
288
     1
  0
DIMSTYLE
105
1125
330
1E
100
AcDbSymbolTableRecord
100
AcDbDimStyleTableRecord
  2
AM_ANSI$7
 70
     0
  3

  4
mm
  5

  6

  7

 40
1.0
 41
0.1
 42
0.05
 43
0.5
 44
0.1
 45
0.0
 46
0.0
 47
0.1
 48
0.1
140
0.24
141
0.0
142
0.0
143
25.4
144
1.0
145
0.0
146
0.71
147
0.06
 71
     0
 72
     0
 73
     1
 74
     1
 75
     0
 76
     0
 77
     0
 78
     7
170
     0
171
     2
172
     0
173
     0
174
     0
175
     0
176
   256
177
   256
178
     2
270
     2
271
     4
272
     4
273
     2
274
     4
340
13
275
     0
280
     0
281
     0
282
     0
283
     1
284
     7
285
     0
286
     0
287
     3
288
     0
  0
DIMSTYLE
105
1126
330
1E
100
AcDbSymbolTableRecord
100
AcDbDimStyleTableRecord
  2
AM_ANSI$SF
 70
     0
  3

  4
mm
  5

  6

  7

 40
1.0
 41
0.1
 42
0.05
 43
0.5
 44
0.1
 45
0.0
 46
0.0
 47
0.1
 48
0.1
140
0.12
141
0.0
142
0.0
143
25.4
144
1.0
145
0.0
146
0.71
147
0.06
 71
     0
 72
     0
 73
     1
 74
     1
 75
     1
 76
     1
 77
     0
 78
     7
170
     0
171
     2
172
     0
173
     0
174
     0
175
     0
176
   256
177
   256
178
     2
270
     2
271
     4
272
     4
273
     2
274
     4
340
13
275
     0
280
     0
281
     0
282
     0
283
     1
284
     7
285
     0
286
     0
287
     3
288
     0
  0
DIMSTYLE
105
1127
330
1E
100
AcDbSymbolTableRecord
100
AcDbDimStyleTableRecord
  2
AM_ANSI$SH
 70
     0
  3

  4
mm
  5

  6
GENAXEH
  7

 40
1.0
 41
0.1
 42
0.05
 43
0.5
 44
0.1
 45
0.0
 46
0.0
 47
0.1
 48
0.1
140
0.12
141
0.0
142
0.0
143
25.4
144
1.0
145
0.0
146
0.71
147
0.06
 71
     0
 72
     0
 73
     1
 74
     1
 75
     1
 76
     1
 77
     0
 78
     7
170
     0
171
     2
172
     0
173
     1
174
     0
175
     0
176
   256
177
   256
178
     2
270
     2
271
     4
272
     4
273
     2
274
     4
340
13
275
     0
280
     0
281
     0
282
     0
283
     1
284
     7
285
     0
286
     0
287
     3
288
     0
  0
ENDTAB
  0
TABLE
  2
BLOCK_RECORD
  5
1
330
0
100
AcDbSymbolTable
 70
    48
  0
BLOCK_RECORD
  5
2
102
{ACAD_XDICTIONARY
360
3
102
}
330
1
100
AcDbSymbolTableRecord
100
AcDbBlockTableRecord
  2
*MODEL_SPACE
  0
BLOCK_RECORD
  5
D
102
{ACAD_XDICTIONARY
360
4269
102
}
330
1
100
AcDbSymbolTableRecord
100
AcDbBlockTableRecord
  2
*PAPER_SPACE
  0
BLOCK_RECORD
  5
21C
330
1
100
AcDbSymbolTableRecord
100
AcDbBlockTableRecord
  2
GENAXEH
  0
BLOCK_RECORD
  5
F83
330
1
100
AcDbSymbolTableRecord
100
AcDbBlockTableRecord
  2
*D1
  0
BLOCK_RECORD
  5
F8F
330
1
100
AcDbSymbolTableRecord
100
AcDbBlockTableRecord
  2
*D2
  0
BLOCK_RECORD
  5
F9D
330
1
100
AcDbSymbolTableRecord
100
AcDbBlockTableRecord
  2
*D3
  0
BLOCK_RECORD
  5
FA9
330
1
100
AcDbSymbolTableRecord
100
AcDbBlockTableRecord
  2
*D4
  0
BLOCK_RECORD
  5
FB5
330
1
100
AcDbSymbolTableRecord
100
AcDbBlockTableRecord
  2
*D5
  0
BLOCK_RECORD
  5
FC1
330
1
100
AcDbSymbolTableRecord
100
AcDbBlockTableRecord
  2
*D6
  0
BLOCK_RECORD
  5
FCD
330
1
100
AcDbSymbolTableRecord
100
AcDbBlockTableRecord
  2
*D7
  0
BLOCK_RECORD
  5
FDB
330
1
100
AcDbSymbolTableRecord
100
AcDbBlockTableRecord
  2
*D8
  0
BLOCK_RECORD
  5
FE8
330
1
100
AcDbSymbolTableRecord
100
AcDbBlockTableRecord
  2
*D9
  0
BLOCK_RECORD
  5
FF4
330
1
100
AcDbSymbolTableRecord
100
AcDbBlockTableRecord
  2
*D10
  0
BLOCK_RECORD
  5
3671
330
1
100
AcDbSymbolTableRecord
100
AcDbBlockTableRecord
  2
*D11
  0
BLOCK_RECORD
  5
36A9
330
1
100
AcDbSymbolTableRecord
100
AcDbBlockTableRecord
  2
*D12
  0
BLOCK_RECORD
  5
36DE
330
1
100
AcDbSymbolTableRecord
100
AcDbBlockTableRecord
  2
*D13
  0
BLOCK_RECORD
  5
36EA
330
1
100
AcDbSymbolTableRecord
100
AcDbBlockTableRecord
  2
*D14
  0
BLOCK_RECORD
  5
36F6
330
1
100
AcDbSymbolTableRecord
100
AcDbBlockTableRecord
  2
*D15
  0
BLOCK_RECORD
  5
372D
330
1
100
AcDbSymbolTableRecord
100
AcDbBlockTableRecord
  2
*D16
  0
BLOCK_RECORD
  5
37C6
330
1
100
AcDbSymbolTableRecord
100
AcDbBlockTableRecord
  2
GENDOT
  0
BLOCK_RECORD
  5
4197
330
1
100
AcDbSymbolTableRecord
100
AcDbBlockTableRecord
  2
*D46
  0
BLOCK_RECORD
  5
4279
330
1
100
AcDbSymbolTableRecord
100
AcDbBlockTableRecord
  2
*S47
  0
ENDTAB
  0
ENDSEC
  0
SECTION
  2
BLOCKS
  0
BLOCK
  5
4
330
2
100
AcDbEntity
  8
0
100
AcDbBlockBegin
  2
*MODEL_SPACE
 70
     0
 10
0.0
 20
0.0
 30
0.0
  3
*MODEL_SPACE
  1

  0
ENDBLK
  5
A
330
2
100
AcDbEntity
  8
0
100
AcDbBlockEnd
  0
BLOCK
  5
E
330
D
100
AcDbEntity
 67
     1
  8
0
100
AcDbBlockBegin
  2
*PAPER_SPACE
 70
     0
 10
0.0
 20
0.0
 30
0.0
  3
*PAPER_SPACE
  1

  0
ENDBLK
  5
F
330
D
100
AcDbEntity
 67
     1
  8
0
100
AcDbBlockEnd
  0
BLOCK
  5
21E
330
21C
100
AcDbEntity
  8
0
100
AcDbBlockBegin
  2
GENAXEH
 70
     0
 10
0.0
 20
0.0
 30
0.0
  3
GENAXEH
  1

  0
LINE
  5
21D
330
21C
100
AcDbEntity
  8
0
100
AcDbLine
 10
-1.0
 20
0.0
 30
0.0
 11
1.0
 21
0.0
 31
0.0
  0
ENDBLK
  5
21F
330
21C
100
AcDbEntity
  8
0
100
AcDbBlockEnd
  0
BLOCK
  5
F8D
330
F83
100
AcDbEntity
  8
0
100
AcDbBlockBegin
  2
*D1
 70
     1
 10
0.0
 20
0.0
 30
0.0
  3
*D1
  1

  0
LINE
  5
3B0F
330
F83
100
AcDbEntity
  8
AM_PARDIM
100
AcDbLine
 10
78.37464887656421
 20
116.1938113892625
 30
0.0
 11
116.7825708695175
 21
116.1938113892624
 31
0.0
  0
LINE
  5
3B10
330
F83
100
AcDbEntity
  8
AM_PARDIM
100
AcDbLine
 10
78.37464887656421
 20
128.6938113892625
 30
0.0
 11
116.7825708695175
 21
128.6938113892625
 31
0.0
  0
LINE
  5
3B11
330
F83
100
AcDbEntity
  8
AM_PARDIM
100
AcDbLine
 10
114.5325708695175
 20
120.6938113892624
 30
0.0
 11
114.5325708695175
 21
124.1938113892624
 31
0.0
  0
LINE
  5
3B12
330
F83
100
AcDbEntity
  8
AM_PARDIM
100
AcDbLine
 10
114.5325708695175
 20
128.6938113892625
 30
0.0
 11
114.5325708695175
 21
146.8945987908373
 31
0.0
  0
SOLID
  5
3B13
330
F83
100
AcDbEntity
  8
AM_PARDIM
100
AcDbTrace
 10
113.7825708695175
 20
120.6938113892624
 30
0.0
 11
115.2825708695175
 21
120.6938113892624
 31
0.0
 12
114.5325708695175
 22
116.1938113892624
 32
0.0
 13
114.5325708695175
 23
116.1938113892624
 33
0.0
  0
SOLID
  5
3B14
330
F83
100
AcDbEntity
  8
AM_PARDIM
100
AcDbTrace
 10
113.7825708695175
 20
124.1938113892624
 30
0.0
 11
115.2825708695175
 21
124.1938113892624
 31
0.0
 12
114.5325708695175
 22
128.6938113892625
 32
0.0
 13
114.5325708695175
 23
128.6938113892625
 33
0.0
  0
MTEXT
  5
3B15
330
F83
100
AcDbEntity
  8
AM_PARDIM
100
AcDbMText
 10
110.770366145108
 20
140.0442050900499
 30
0.0
 40
4.5
 41
0.0
 71
     5
 72
     1
  1
12.5
  7
CHINA
 11
0.0000000000000001
 21
1.0
 31
0.0
1001
ACAD
1000
MTEXTBEGIN
1070
    73
1070
     1
1070
    44
1040
1.0
1070
    74
1070
     0
1000
MTEXTEND
  0
POINT
  5
3B16
330
F83
100
AcDbEntity
  8
DEFPOINTS
 62
     0
100
AcDbPoint
 10
75.37464887656421
 20
116.1938113892625
 30
0.0
  0
POINT
  5
3B17
330
F83
100
AcDbEntity
  8
DEFPOINTS
 62
     0
100
AcDbPoint
 10
75.37464887656421
 20
128.6938113892625
 30
0.0
  0
POINT
  5
3B18
330
F83
100
AcDbEntity
  8
DEFPOINTS
 62
     0
100
AcDbPoint
 10
114.5325708695175
 20
128.6938113892625
 30
0.0
  0
ENDBLK
  5
F8E
330
F83
100
AcDbEntity
  8
0
100
AcDbBlockEnd
  0
BLOCK
  5
F9B
330
F8F
100
AcDbEntity
  8
0
100
AcDbBlockBegin
  2
*D2
 70
     1
 10
0.0
 20
0.0
 30
0.0
  3
*D2
  1

  0
LINE
  5
3B19
330
F8F
100
AcDbEntity
  8
AM_PARDIM
100
AcDbLine
 10
35.87464887656421
 20
116.1938113892625
 30
0.0
 11
24.6246488765642
 21
116.1938113892625
 31
0.0
  0
LINE
  5
3B1A
330
F8F
100
AcDbEntity
  8
AM_PARDIM
100
AcDbLine
 10
35.87464887656421
 20
122.1938113892624
 30
0.0
 11
24.62464887656421
 21
122.1938113892625
 31
0.0
  0
LINE
  5
3B1B
330
F8F
100
AcDbEntity
  8
AM_PARDIM
100
AcDbLine
 10
26.8746488765642
 20
111.6938113892625
 30
0.0
 11
26.8746488765642
 21
107.1938113892625
 31
0.0
  0
LINE
  5
3B1C
330
F8F
100
AcDbEntity
  8
AM_PARDIM
100
AcDbLine
 10
26.87464887656421
 20
126.6938113892625
 30
0.0
 11
26.87464887656421
 21
131.1938113892625
 31
0.0
  0
LINE
  5
3B1D
330
F8F
100
AcDbEntity
  8
AM_PARDIM
100
AcDbLine
 10
26.8746488765642
 20
116.1938113892625
 30
0.0
 11
26.87464887656421
 21
122.1938113892625
 31
0.0
  0
SOLID
  5
3B1E
330
F8F
100
AcDbEntity
  8
AM_PARDIM
100
AcDbTrace
 10
26.1246488765642
 20
111.6938113892625
 30
0.0
 11
27.6246488765642
 21
111.6938113892625
 31
0.0
 12
26.8746488765642
 22
116.1938113892625
 32
0.0
 13
26.8746488765642
 23
116.1938113892625
 33
0.0
  0
SOLID
  5
3B1F
330
F8F
100
AcDbEntity
  8
AM_PARDIM
100
AcDbTrace
 10
26.1246488765642
 20
126.6938113892625
 30
0.0
 11
27.6246488765642
 21
126.6938113892625
 31
0.0
 12
26.87464887656421
 22
122.1938113892625
 32
0.0
 13
26.87464887656421
 23
122.1938113892625
 33
0.0
  0
MTEXT
  5
3B20
330
F8F
100
AcDbEntity
  8
AM_PARDIM
100
AcDbMText
 10
23.12464887656418
 20
119.1938113892625
 30
0.0
 40
4.5
 41
0.0
 71
     5
 72
     1
  1
6
  7
CHINA
 11
0.0000000000000001
 21
1.0
 31
0.0
1001
ACAD
1000
MTEXTBEGIN
1070
    73
1070
     1
1070
    44
1040
1.0
1070
    74
1070
     0
1000
MTEXTEND
  0
POINT
  5
3B21
330
F8F
100
AcDbEntity
  8
DEFPOINTS
 62
     0
100
AcDbPoint
 10
38.8746488765642
 20
116.1938113892625
 30
0.0
  0
POINT
  5
3B22
330
F8F
100
AcDbEntity
  8
DEFPOINTS
 62
     0
100
AcDbPoint
 10
38.8746488765642
 20
122.1938113892624
 30
0.0
  0
POINT
  5
3B23
330
F8F
100
AcDbEntity
  8
DEFPOINTS
 62
     0
100
AcDbPoint
 10
26.87464887656421
 20
122.1938113892625
 30
0.0
  0
ENDBLK
  5
F9C
330
F8F
100
AcDbEntity
  8
0
100
AcDbBlockEnd
  0
BLOCK
  5
FA7
330
F9D
100
AcDbEntity
  8
0
100
AcDbBlockBegin
  2
*D3
 70
     1
 10
0.0
 20
0.0
 30
0.0
  3
*D3
  1

  0
LINE
  5
3B24
330
F9D
100
AcDbEntity
  8
AM_PARDIM
100
AcDbLine
 10
38.8746488765642
 20
125.1938113892624
 30
0.0
 11
38.8746488765642
 21
142.9438113892624
 31
0.0
  0
LINE
  5
3B25
330
F9D
100
AcDbEntity
  8
AM_PARDIM
100
AcDbLine
 10
50.87464887656421
 20
125.1938113892624
 30
0.0
 11
50.87464887656421
 21
142.9438113892624
 31
0.0
  0
LINE
  5
3B26
330
F9D
100
AcDbEntity
  8
AM_PARDIM
100
AcDbLine
 10
34.37464887656421
 20
140.6938113892624
 30
0.0
 11
29.8746488765642
 21
140.6938113892624
 31
0.0
  0
LINE
  5
3B27
330
F9D
100
AcDbEntity
  8
AM_PARDIM
100
AcDbLine
 10
55.37464887656421
 20
140.6938113892624
 30
0.0
 11
59.87464887656421
 21
140.6938113892624
 31
0.0
  0
LINE
  5
3B28
330
F9D
100
AcDbEntity
  8
AM_PARDIM
100
AcDbLine
 10
38.8746488765642
 20
140.6938113892624
 30
0.0
 11
50.87464887656421
 21
140.6938113892624
 31
0.0
  0
SOLID
  5
3B29
330
F9D
100
AcDbEntity
  8
AM_PARDIM
100
AcDbTrace
 10
34.37464887656421
 20
141.4438113892624
 30
0.0
 11
34.37464887656421
 21
139.9438113892624
 31
0.0
 12
38.8746488765642
 22
140.6938113892624
 32
0.0
 13
38.8746488765642
 23
140.6938113892624
 33
0.0
  0
SOLID
  5
3B2A
330
F9D
100
AcDbEntity
  8
AM_PARDIM
100
AcDbTrace
 10
55.37464887656421
 20
141.4438113892624
 30
0.0
 11
55.37464887656421
 21
139.9438113892624
 31
0.0
 12
50.87464887656421
 22
140.6938113892624
 32
0.0
 13
50.87464887656421
 23
140.6938113892624
 33
0.0
  0
MTEXT
  5
3B2B
330
F9D
100
AcDbEntity
  8
AM_PARDIM
100
AcDbMText
 10
44.87464887656421
 20
144.4442050900499
 30
0.0
 40
4.5
 41
0.0
 71
     5
 72
     1
  1
12
  7
CHINA
1001
ACAD
1000
MTEXTBEGIN
1070
    73
1070
     1
1070
    44
1040
1.0
1070
    74
1070
     0
1000
MTEXTEND
  0
POINT
  5
3B2C
330
F9D
100
AcDbEntity
  8
DEFPOINTS
 62
     0
100
AcDbPoint
 10
38.8746488765642
 20
122.1938113892624
 30
0.0
  0
POINT
  5
3B2D
330
F9D
100
AcDbEntity
  8
DEFPOINTS
 62
     0
100
AcDbPoint
 10
50.87464887656421
 20
122.1938113892624
 30
0.0
  0
POINT
  5
3B2E
330
F9D
100
AcDbEntity
  8
DEFPOINTS
 62
     0
100
AcDbPoint
 10
50.87464887656421
 20
140.6938113892624
 30
0.0
  0
ENDBLK
  5
FA8
330
F9D
100
AcDbEntity
  8
0
100
AcDbBlockEnd
  0
BLOCK
  5
FB3
330
FA9
100
AcDbEntity
  8
0
100
AcDbBlockBegin
  2
*D4
 70
     1
 10
0.0
 20
0.0
 30
0.0
  3
*D4
  1

  0
LINE
  5
3B2F
330
FA9
100
AcDbEntity
  8
AM_PARDIM
100
AcDbLine
 10
38.8746488765642
 20
119.1938113892625
 30
0.0
 11
38.8746488765642
 21
162.9438113892625
 31
0.0
  0
LINE
  5
3B30
330
FA9
100
AcDbEntity
  8
AM_PARDIM
100
AcDbLine
 10
75.37464887656421
 20
119.1938113892625
 30
0.0
 11
75.37464887656421
 21
162.9438113892625
 31
0.0
  0
LINE
  5
3B31
330
FA9
100
AcDbEntity
  8
AM_PARDIM
100
AcDbLine
 10
43.37464887656421
 20
160.6938113892624
 30
0.0
 11
70.87464887656421
 21
160.6938113892624
 31
0.0
  0
SOLID
  5
3B32
330
FA9
100
AcDbEntity
  8
AM_PARDIM
100
AcDbTrace
 10
43.37464887656421
 20
161.4438113892624
 30
0.0
 11
43.37464887656421
 21
159.9438113892625
 31
0.0
 12
38.8746488765642
 22
160.6938113892624
 32
0.0
 13
38.8746488765642
 23
160.6938113892624
 33
0.0
  0
SOLID
  5
3B33
330
FA9
100
AcDbEntity
  8
AM_PARDIM
100
AcDbTrace
 10
70.87464887656421
 20
161.4438113892624
 30
0.0
 11
70.87464887656421
 21
159.9438113892625
 31
0.0
 12
75.37464887656421
 22
160.6938113892624
 32
0.0
 13
75.37464887656421
 23
160.6938113892624
 33
0.0
  0
MTEXT
  5
3B34
330
FA9
100
AcDbEntity
  8
AM_PARDIM
100
AcDbMText
 10
57.12464887656421
 20
164.4556224128845
 30
0.0
 40
4.5
 41
0.0
 71
     5
 72
     1
  1
36.5
  7
CHINA
1001
ACAD
1000
MTEXTBEGIN
1070
    73
1070
     1
1070
    44
1040
1.0
1070
    74
1070
     0
1000
MTEXTEND
  0
POINT
  5
3B35
330
FA9
100
AcDbEntity
  8
DEFPOINTS
 62
     0
100
AcDbPoint
 10
38.8746488765642
 20
116.1938113892625
 30
0.0
  0
POINT
  5
3B36
330
FA9
100
AcDbEntity
  8
DEFPOINTS
 62
     0
100
AcDbPoint
 10
75.37464887656421
 20
116.1938113892625
 30
0.0
  0
POINT
  5
3B37
330
FA9
100
AcDbEntity
  8
DEFPOINTS
 62
     0
100
AcDbPoint
 10
75.37464887656421
 20
160.6938113892624
 30
0.0
  0
ENDBLK
  5
FB4
330
FA9
100
AcDbEntity
  8
0
100
AcDbBlockEnd
  0
BLOCK
  5
FBF
330
FB5
100
AcDbEntity
  8
0
100
AcDbBlockBegin
  2
*D5
 70
     1
 10
0.0
 20
0.0
 30
0.0
  3
*D5
  1

  0
LINE
  5
3B38
330
FB5
100
AcDbEntity
  8
AM_PARDIM
100
AcDbLine
 10
53.8746488765642
 20
127.1938113892624
 30
0.0
 11
106.7825708695175
 21
127.1938113892624
 31
0.0
  0
LINE
  5
3B39
330
FB5
100
AcDbEntity
  8
AM_PARDIM
100
AcDbLine
 10
78.37464887656421
 20
116.1938113892625
 30
0.0
 11
106.7825708695175
 21
116.1938113892624
 31
0.0
  0
LINE
  5
3B3A
330
FB5
100
AcDbEntity
  8
AM_PARDIM
100
AcDbLine
 10
104.5325708695175
 20
131.6938113892625
 30
0.0
 11
104.5325708695175
 21
136.1938113892624
 31
0.0
  0
LINE
  5
3B3B
330
FB5
100
AcDbEntity
  8
AM_PARDIM
100
AcDbLine
 10
104.5325708695175
 20
111.6938113892624
 30
0.0
 11
104.5325708695175
 21
107.1938113892624
 31
0.0
  0
LINE
  5
3B3C
330
FB5
100
AcDbEntity
  8
AM_PARDIM
100
AcDbLine
 10
104.5325708695175
 20
127.1938113892624
 30
0.0
 11
104.5325708695175
 21
116.1938113892624
 31
0.0
  0
SOLID
  5
3B3D
330
FB5
100
AcDbEntity
  8
AM_PARDIM
100
AcDbTrace
 10
103.7825708695175
 20
131.6938113892625
 30
0.0
 11
105.2825708695175
 21
131.6938113892625
 31
0.0
 12
104.5325708695175
 22
127.1938113892624
 32
0.0
 13
104.5325708695175
 23
127.1938113892624
 33
0.0
  0
SOLID
  5
3B3E
330
FB5
100
AcDbEntity
  8
AM_PARDIM
100
AcDbTrace
 10
103.7825708695175
 20
111.6938113892624
 30
0.0
 11
105.2825708695175
 21
111.6938113892624
 31
0.0
 12
104.5325708695175
 22
116.1938113892624
 32
0.0
 13
104.5325708695175
 23
116.1938113892624
 33
0.0
  0
MTEXT
  5
3B3F
330
FB5
100
AcDbEntity
  8
AM_PARDIM
100
AcDbMText
 10
100.7825708695175
 20
121.6938113892625
 30
0.0
 40
4.5
 41
0.0
 71
     5
 72
     1
  1
11
  7
CHINA
 11
0.0000000000000001
 21
1.0
 31
0.0
1001
ACAD
1000
MTEXTBEGIN
1070
    73
1070
     1
1070
    44
1040
1.0
1070
    74
1070
     0
1000
MTEXTEND
  0
POINT
  5
3B40
330
FB5
100
AcDbEntity
  8
DEFPOINTS
 62
     0
100
AcDbPoint
 10
50.87464887656421
 20
127.1938113892624
 30
0.0
  0
POINT
  5
3B41
330
FB5
100
AcDbEntity
  8
DEFPOINTS
 62
     0
100
AcDbPoint
 10
75.37464887656421
 20
116.1938113892625
 30
0.0
  0
POINT
  5
3B42
330
FB5
100
AcDbEntity
  8
DEFPOINTS
 62
     0
100
AcDbPoint
 10
104.5325708695175
 20
116.1938113892624
 30
0.0
  0
ENDBLK
  5
FC0
330
FB5
100
AcDbEntity
  8
0
100
AcDbBlockEnd
  0
BLOCK
  5
FCB
330
FC1
100
AcDbEntity
  8
0
100
AcDbBlockBegin
  2
*D6
 70
     1
 10
0.0
 20
0.0
 30
0.0
  3
*D6
  1

  0
LINE
  5
3B43
330
FC1
100
AcDbEntity
  8
AM_PARDIM
100
AcDbLine
 10
66.3746488765642
 20
131.6938113892625
 30
0.0
 11
66.3746488765642
 21
152.9438113892624
 31
0.0
  0
LINE
  5
3B44
330
FC1
100
AcDbEntity
  8
AM_PARDIM
100
AcDbLine
 10
75.37464887656421
 20
131.6938113892625
 30
0.0
 11
75.37464887656421
 21
152.9438113892624
 31
0.0
  0
LINE
  5
3B45
330
FC1
100
AcDbEntity
  8
AM_PARDIM
100
AcDbLine
 10
61.87464887656421
 20
150.6938113892624
 30
0.0
 11
57.37464887656421
 21
150.6938113892624
 31
0.0
  0
LINE
  5
3B46
330
FC1
100
AcDbEntity
  8
AM_PARDIM
100
AcDbLine
 10
79.87464887656421
 20
150.6938113892624
 30
0.0
 11
84.37464887656421
 21
150.6938113892624
 31
0.0
  0
LINE
  5
3B47
330
FC1
100
AcDbEntity
  8
AM_PARDIM
100
AcDbLine
 10
66.3746488765642
 20
150.6938113892624
 30
0.0
 11
75.37464887656421
 21
150.6938113892624
 31
0.0
  0
SOLID
  5
3B48
330
FC1
100
AcDbEntity
  8
AM_PARDIM
100
AcDbTrace
 10
61.87464887656421
 20
151.4438113892625
 30
0.0
 11
61.87464887656421
 21
149.9438113892624
 31
0.0
 12
66.3746488765642
 22
150.6938113892624
 32
0.0
 13
66.3746488765642
 23
150.6938113892624
 33
0.0
  0
SOLID
  5
3B49
330
FC1
100
AcDbEntity
  8
AM_PARDIM
100
AcDbTrace
 10
79.87464887656421
 20
151.4438113892625
 30
0.0
 11
79.87464887656421
 21
149.9438113892624
 31
0.0
 12
75.37464887656421
 22
150.6938113892624
 32
0.0
 13
75.37464887656421
 23
150.6938113892624
 33
0.0
  0
MTEXT
  5
3B4A
330
FC1
100
AcDbEntity
  8
AM_PARDIM
100
AcDbMText
 10
70.87464887656421
 20
154.4438113892624
 30
0.0
 40
4.5
 41
0.0
 71
     5
 72
     1
  1
9
  7
CHINA
1001
ACAD
1000
MTEXTBEGIN
1070
    73
1070
     1
1070
    44
1040
1.0
1070
    74
1070
     0
1000
MTEXTEND
  0
POINT
  5
3B4B
330
FC1
100
AcDbEntity
  8
DEFPOINTS
 62
     0
100
AcDbPoint
 10
66.3746488765642
 20
128.6938113892625
 30
0.0
  0
POINT
  5
3B4C
330
FC1
100
AcDbEntity
  8
DEFPOINTS
 62
     0
100
AcDbPoint
 10
75.37464887656421
 20
128.6938113892625
 30
0.0
  0
POINT
  5
3B4D
330
FC1
100
AcDbEntity
  8
DEFPOINTS
 62
     0
100
AcDbPoint
 10
75.37464887656421
 20
150.6938113892624
 30
0.0
  0
ENDBLK
  5
FCC
330
FC1
100
AcDbEntity
  8
0
100
AcDbBlockEnd
  0
BLOCK
  5
FD9
330
FCD
100
AcDbEntity
  8
0
100
AcDbBlockBegin
  2
*D7
 70
     1
 10
0.0
 20
0.0
 30
0.0
  3
*D7
  1

  0
LINE
  5
3B4E
330
FCD
100
AcDbEntity
  8
AM_PARDIM
100
AcDbLine
 10
63.87464887656418
 20
131.6938113892624
 30
0.0
 11
63.87464887656418
 21
142.9438113892624
 31
0.0
  0
LINE
  5
3B4F
330
FCD
100
AcDbEntity
  8
AM_PARDIM
100
AcDbLine
 10
66.37464887656418
 20
131.6938113892624
 30
0.0
 11
66.37464887656418
 21
142.9438113892624
 31
0.0
  0
LINE
  5
3B50
330
FCD
100
AcDbEntity
  8
AM_PARDIM
100
AcDbLine
 10
59.37464887656418
 20
140.6938113892624
 30
0.0
 11
54.87464887656418
 21
140.6938113892624
 31
0.0
  0
LINE
  5
3B51
330
FCD
100
AcDbEntity
  8
AM_PARDIM
100
AcDbLine
 10
70.87464887656418
 20
140.6938113892624
 30
0.0
 11
86.03842840412324
 21
140.6938113892624
 31
0.0
  0
LINE
  5
3B52
330
FCD
100
AcDbEntity
  8
AM_PARDIM
100
AcDbLine
 10
63.87464887656418
 20
140.6938113892624
 30
0.0
 11
66.37464887656418
 21
140.6938113892624
 31
0.0
  0
SOLID
  5
3B53
330
FCD
100
AcDbEntity
  8
AM_PARDIM
100
AcDbTrace
 10
59.37464887656418
 20
141.4438113892624
 30
0.0
 11
59.37464887656418
 21
139.9438113892624
 31
0.0
 12
63.87464887656418
 22
140.6938113892624
 32
0.0
 13
63.87464887656418
 23
140.6938113892624
 33
0.0
  0
SOLID
  5
3B54
330
FCD
100
AcDbEntity
  8
AM_PARDIM
100
AcDbTrace
 10
70.87464887656418
 20
141.4438113892624
 30
0.0
 11
70.87464887656418
 21
139.9438113892624
 31
0.0
 12
66.37464887656418
 22
140.6938113892624
 32
0.0
 13
66.37464887656418
 23
140.6938113892624
 33
0.0
  0
MTEXT
  5
3B55
330
FCD
100
AcDbEntity
  8
AM_PARDIM
100
AcDbMText
 10
80.70653864034371
 20
144.4560161136719
 30
0.0
 40
4.5
 41
0.0
 71
     5
 72
     1
  1
2.5
  7
CHINA
1001
ACAD
1000
MTEXTBEGIN
1070
    73
1070
     1
1070
    44
1040
1.0
1070
    74
1070
     0
1000
MTEXTEND
  0
POINT
  5
3B56
330
FCD
100
AcDbEntity
  8
DEFPOINTS
 62
     0
100
AcDbPoint
 10
63.87464887656418
 20
128.6938113892624
 30
0.0
  0
POINT
  5
3B57
330
FCD
100
AcDbEntity
  8
DEFPOINTS
 62
     0
100
AcDbPoint
 10
66.37464887656418
 20
128.6938113892624
 30
0.0
  0
POINT
  5
3B58
330
FCD
100
AcDbEntity
  8
DEFPOINTS
 62
     0
100
AcDbPoint
 10
66.37464887656418
 20
140.6938113892624
 30
0.0
  0
ENDBLK
  5
FDA
330
FCD
100
AcDbEntity
  8
0
100
AcDbBlockEnd
  0
BLOCK
  5
FE6
330
FDB
100
AcDbEntity
  8
0
100
AcDbBlockBegin
  2
*D8
 70
     1
 10
0.0
 20
0.0
 30
0.0
  3
*D8
  1

  0
LINE
  5
3B59
330
FDB
100
AcDbEntity
  8
AM_PARDIM
100
AcDbLine
 10
66.37464887656418
 20
131.6938113892624
 30
0.0
 11
66.37464887656418
 21
138.280378563861
 31
0.0
  0
LINE
  5
3B5A
330
FDB
100
AcDbEntity
  8
AM_PARDIM
100
AcDbLine
 10
66.37464887656418
 20
119.1938113892624
 30
0.0
 11
66.37464887656418
 21
138.280378563861
 31
0.0
  0
LINE
  5
3B5B
330
FDB
100
AcDbEntity
  8
AM_PARDIM
100
AcDbLine
 10
61.87464887656418
 20
136.030378563861
 30
0.0
 11
57.37464887656418
 21
136.030378563861
 31
0.0
  0
LINE
  5
3B5C
330
FDB
100
AcDbEntity
  8
AM_PARDIM
100
AcDbLine
 10
70.87464887656418
 20
136.030378563861
 30
0.0
 11
80.77464887656418
 21
136.030378563861
 31
0.0
  0
SOLID
  5
3B5D
330
FDB
100
AcDbEntity
  8
AM_PARDIM
100
AcDbTrace
 10
61.87464887656418
 20
136.780378563861
 30
0.0
 11
61.87464887656418
 21
135.280378563861
 31
0.0
 12
66.37464887656418
 22
136.030378563861
 32
0.0
 13
66.37464887656418
 23
136.030378563861
 33
0.0
  0
SOLID
  5
3B5E
330
FDB
100
AcDbEntity
  8
AM_PARDIM
100
AcDbTrace
 10
70.87464887656418
 20
136.780378563861
 30
0.0
 11
70.87464887656418
 21
135.280378563861
 31
0.0
 12
66.37464887656418
 22
136.030378563861
 32
0.0
 13
66.37464887656418
 23
136.030378563861
 33
0.0
  0
MTEXT
  5
3B5F
330
FDB
100
AcDbEntity
  8
AM_PARDIM
100
AcDbMText
 10
78.07464887656418
 20
139.780378563861
 30
0.0
 40
4.5
 41
0.0
 71
     5
 72
     1
  1
0
  7
CHINA
1001
ACAD
1000
MTEXTBEGIN
1070
    73
1070
     1
1070
    44
1040
1.0
1070
    74
1070
     0
1000
MTEXTEND
  0
POINT
  5
3B60
330
FDB
100
AcDbEntity
  8
DEFPOINTS
 62
     0
100
AcDbPoint
 10
66.37464887656418
 20
128.6938113892624
 30
0.0
  0
POINT
  5
3B61
330
FDB
100
AcDbEntity
  8
DEFPOINTS
 62
     0
100
AcDbPoint
 10
66.37464887656418
 20
116.1938113892624
 30
0.0
  0
POINT
  5
3B62
330
FDB
100
AcDbEntity
  8
DEFPOINTS
 62
     0
100
AcDbPoint
 10
66.37464887656418
 20
136.030378563861
 30
0.0
  0
ENDBLK
  5
FE7
330
FDB
100
AcDbEntity
  8
0
100
AcDbBlockEnd
  0
BLOCK
  5
FF2
330
FE8
100
AcDbEntity
  8
0
100
AcDbBlockBegin
  2
*D9
 70
     1
 10
0.0
 20
0.0
 30
0.0
  3
*D9
  1

  0
LINE
  5
3B63
330
FE8
100
AcDbEntity
  8
AM_PARDIM
100
AcDbLine
 10
66.87464887656418
 20
125.6938113892624
 30
0.0
 11
96.78257086951754
 21
125.6938113892624
 31
0.0
  0
LINE
  5
3B64
330
FE8
100
AcDbEntity
  8
AM_PARDIM
100
AcDbLine
 10
85.53257086951754
 20
116.1938113892624
 30
0.0
 11
96.78257086951754
 21
116.1938113892624
 31
0.0
  0
LINE
  5
3B65
330
FE8
100
AcDbEntity
  8
AM_PARDIM
100
AcDbLine
 10
94.53257086951754
 20
130.1938113892624
 30
0.0
 11
94.53257086951754
 21
134.6938113892624
 31
0.0
  0
LINE
  5
3B66
330
FE8
100
AcDbEntity
  8
AM_PARDIM
100
AcDbLine
 10
94.53257086951754
 20
111.6938113892624
 30
0.0
 11
94.53257086951754
 21
96.89302398768763
 31
0.0
  0
LINE
  5
3B67
330
FE8
100
AcDbEntity
  8
AM_PARDIM
100
AcDbLine
 10
94.53257086951754
 20
125.6938113892624
 30
0.0
 11
94.53257086951754
 21
116.1938113892624
 31
0.0
  0
SOLID
  5
3B68
330
FE8
100
AcDbEntity
  8
AM_PARDIM
100
AcDbTrace
 10
93.78257086951753
 20
130.1938113892624
 30
0.0
 11
95.28257086951754
 21
130.1938113892624
 31
0.0
 12
94.53257086951754
 22
125.6938113892624
 32
0.0
 13
94.53257086951754
 23
125.6938113892624
 33
0.0
  0
SOLID
  5
3B69
330
FE8
100
AcDbEntity
  8
AM_PARDIM
100
AcDbTrace
 10
93.78257086951753
 20
111.6938113892624
 30
0.0
 11
95.28257086951754
 21
111.6938113892624
 31
0.0
 12
94.53257086951754
 22
116.1938113892624
 32
0.0
 13
94.53257086951754
 23
116.1938113892624
 33
0.0
  0
MTEXT
  5
3B6A
330
FE8
100
AcDbEntity
  8
AM_PARDIM
100
AcDbMText
 10
90.77075984589546
 20
102.043417688475
 30
0.0
 40
4.5
 41
0.0
 71
     5
 72
     1
  1
9.5
  7
CHINA
 11
0.0000000000000001
 21
1.0
 31
0.0
1001
ACAD
1000
MTEXTBEGIN
1070
    73
1070
     1
1070
    44
1040
1.0
1070
    74
1070
     0
1000
MTEXTEND
  0
POINT
  5
3B6B
330
FE8
100
AcDbEntity
  8
DEFPOINTS
 62
     0
100
AcDbPoint
 10
63.87464887656418
 20
125.6938113892624
 30
0.0
  0
POINT
  5
3B6C
330
FE8
100
AcDbEntity
  8
DEFPOINTS
 62
     0
100
AcDbPoint
 10
82.53257086951753
 20
116.1938113892624
 30
0.0
  0
POINT
  5
3B6D
330
FE8
100
AcDbEntity
  8
DEFPOINTS
 62
     0
100
AcDbPoint
 10
94.53257086951754
 20
116.1938113892624
 30
0.0
  0
ENDBLK
  5
FF3
330
FE8
100
AcDbEntity
  8
0
100
AcDbBlockEnd
  0
BLOCK
  5
FFE
330
FF4
100
AcDbEntity
  8
0
100
AcDbBlockBegin
  2
*D10
 70
     1
 10
0.0
 20
0.0
 30
0.0
  3
*D10
  1

  0
LINE
  5
3B6E
330
FF4
100
AcDbEntity
  8
AM_PARDIM
100
AcDbLine
 10
69.37464887656418
 20
128.6938113892624
 30
0.0
 11
126.7825708695175
 21
128.6938113892624
 31
0.0
  0
LINE
  5
3B6F
330
FF4
100
AcDbEntity
  8
AM_PARDIM
100
AcDbLine
 10
85.53257086951754
 20
116.1938113892624
 30
0.0
 11
126.7825708695175
 21
116.1938113892624
 31
0.0
  0
LINE
  5
3B70
330
FF4
100
AcDbEntity
  8
AM_PARDIM
100
AcDbLine
 10
124.5325708695175
 20
124.1938113892624
 30
0.0
 11
124.5325708695175
 21
120.6938113892624
 31
0.0
  0
LINE
  5
3B71
330
FF4
100
AcDbEntity
  8
AM_PARDIM
100
AcDbLine
 10
124.5325708695175
 20
116.1938113892624
 30
0.0
 11
124.5325708695175
 21
97.99302398768762
 31
0.0
  0
SOLID
  5
3B72
330
FF4
100
AcDbEntity
  8
AM_PARDIM
100
AcDbTrace
 10
123.7825708695175
 20
124.1938113892624
 30
0.0
 11
125.2825708695175
 21
124.1938113892624
 31
0.0
 12
124.5325708695175
 22
128.6938113892624
 32
0.0
 13
124.5325708695175
 23
128.6938113892624
 33
0.0
  0
SOLID
  5
3B73
330
FF4
100
AcDbEntity
  8
AM_PARDIM
100
AcDbTrace
 10
123.7825708695175
 20
120.6938113892624
 30
0.0
 11
125.2825708695175
 21
120.6938113892624
 31
0.0
 12
124.5325708695175
 22
116.1938113892624
 32
0.0
 13
124.5325708695175
 23
116.1938113892624
 33
0.0
  0
MTEXT
  5
3B74
330
FF4
100
AcDbEntity
  8
AM_PARDIM
100
AcDbMText
 10
120.770366145108
 20
104.843417688475
 30
0.0
 40
4.5
 41
0.0
 71
     5
 72
     1
  1
12.5
  7
CHINA
 11
0.0000000000000001
 21
1.0
 31
0.0
1001
ACAD
1000
MTEXTBEGIN
1070
    73
1070
     1
1070
    44
1040
1.0
1070
    74
1070
     0
1000
MTEXTEND
  0
POINT
  5
3B75
330
FF4
100
AcDbEntity
  8
DEFPOINTS
 62
     0
100
AcDbPoint
 10
66.37464887656418
 20
128.6938113892624
 30
0.0
  0
POINT
  5
3B76
330
FF4
100
AcDbEntity
  8
DEFPOINTS
 62
     0
100
AcDbPoint
 10
82.53257086951753
 20
116.1938113892624
 30
0.0
  0
POINT
  5
3B77
330
FF4
100
AcDbEntity
  8
DEFPOINTS
 62
     0
100
AcDbPoint
 10
124.5325708695175
 20
116.1938113892624
 30
0.0
  0
ENDBLK
  5
FFF
330
FF4
100
AcDbEntity
  8
0
100
AcDbBlockEnd
  0
BLOCK
  5
367B
330
3671
100
AcDbEntity
  8
0
100
AcDbBlockBegin
  2
*D11
 70
     1
 10
0.0
 20
0.0
 30
0.0
  3
*D11
  1

  0
LINE
  5
426B
330
3671
100
AcDbEntity
  8
AM_5
100
AcDbLine
 10
2035.85319452364
 20
131.4094895962981
 30
0.0
 11
2059.695906333906
 21
131.4094895962981
 31
0.0
  0
LINE
  5
426C
330
3671
100
AcDbEntity
  8
AM_5
100
AcDbLine
 10
2036.353194523639
 20
140.4094895962981
 30
0.0
 11
2059.695906333906
 21
140.4094895962981
 31
0.0
  0
LINE
  5
426D
330
3671
100
AcDbEntity
  8
AM_5
100
AcDbLine
 10
2057.445906333906
 20
126.9094895962981
 30
0.0
 11
2057.445906333906
 21
122.4094895962981
 31
0.0
  0
LINE
  5
426E
330
3671
100
AcDbEntity
  8
AM_5
100
AcDbLine
 10
2057.445906333906
 20
144.9094895962981
 30
0.0
 11
2057.445906333906
 21
149.4094895962981
 31
0.0
  0
LINE
  5
426F
330
3671
100
AcDbEntity
  8
AM_5
100
AcDbLine
 10
2057.445906333906
 20
131.4094895962981
 30
0.0
 11
2057.445906333906
 21
140.4094895962981
 31
0.0
  0
SOLID
  5
4270
330
3671
100
AcDbEntity
  8
AM_5
100
AcDbTrace
 10
2056.695906333906
 20
126.9094895962981
 30
0.0
 11
2058.195906333906
 21
126.9094895962981
 31
0.0
 12
2057.445906333906
 22
131.4094895962981
 32
0.0
 13
2057.445906333906
 23
131.4094895962981
 33
0.0
  0
INSERT
  5
4271
330
3671
100
AcDbEntity
  8
AM_5
100
AcDbBlockReference
  2
GENDOT
 10
2057.445906333906
 20
140.4094895962981
 30
0.0
 41
4.5
 42
4.5
 43
4.5
 50
270.0
  0
MTEXT
  5
4272
330
3671
100
AcDbEntity
  8
AM_5
100
AcDbMText
 10
2053.695906333905
 20
135.9094895962984
 30
0.0
 40
4.5
 41
0.0
 71
     5
 72
     1
  1
9
  7
CHINA
 11
0.0000000000000001
 21
1.0
 31
0.0
  0
POINT
  5
4273
330
3671
100
AcDbEntity
  8
DEFPOINTS
 62
     0
100
AcDbPoint
 10
2032.85319452364
 20
131.4094895962981
 30
0.0
  0
POINT
  5
4274
330
3671
100
AcDbEntity
  8
DEFPOINTS
 62
     0
100
AcDbPoint
 10
2033.35319452364
 20
140.4094895962981
 30
0.0
  0
POINT
  5
4275
330
3671
100
AcDbEntity
  8
DEFPOINTS
 62
     0
100
AcDbPoint
 10
2057.445906333906
 20
140.4094895962981
 30
0.0
  0
ENDBLK
  5
367C
330
3671
100
AcDbEntity
  8
0
100
AcDbBlockEnd
  0
BLOCK
  5
36B3
330
36A9
100
AcDbEntity
  8
0
100
AcDbBlockBegin
  2
*D12
 70
     1
 10
0.0
 20
0.0
 30
0.0
  3
*D12
  1

  0
LINE
  5
3E15
330
36A9
100
AcDbEntity
  8
AM_5
100
AcDbLine
 10
2036.353194523639
 20
140.4094895962981
 30
0.0
 11
2059.695906333906
 21
140.4094895962981
 31
0.0
  0
LINE
  5
3E16
330
36A9
100
AcDbEntity
  8
AM_5
100
AcDbLine
 10
2036.353194523639
 20
190.4094895962981
 30
0.0
 11
2059.695906333906
 21
190.4094895962981
 31
0.0
  0
LINE
  5
3E17
330
36A9
100
AcDbEntity
  8
AM_5
100
AcDbLine
 10
2057.445906333906
 20
144.9094895962981
 30
0.0
 11
2057.445906333906
 21
185.9094895962981
 31
0.0
  0
SOLID
  5
3E18
330
36A9
100
AcDbEntity
  8
AM_5
100
AcDbTrace
 10
2056.695906333906
 20
144.9094895962981
 30
0.0
 11
2058.195906333906
 21
144.9094895962981
 31
0.0
 12
2057.445906333906
 22
140.4094895962981
 32
0.0
 13
2057.445906333906
 23
140.4094895962981
 33
0.0
  0
SOLID
  5
3E19
330
36A9
100
AcDbEntity
  8
AM_5
100
AcDbTrace
 10
2056.695906333906
 20
185.9094895962981
 30
0.0
 11
2058.195906333906
 21
185.9094895962981
 31
0.0
 12
2057.445906333906
 22
190.4094895962981
 32
0.0
 13
2057.445906333906
 23
190.4094895962981
 33
0.0
  0
MTEXT
  5
3E1A
330
36A9
100
AcDbEntity
  8
AM_5
100
AcDbMText
 10
2053.684095310284
 20
165.4094895962985
 30
0.0
 40
4.5
 41
0.0
 71
     5
 72
     1
  1
50
  7
CHINA
 11
0.0000000000000001
 21
1.0
 31
0.0
1001
ACAD
1000
MTEXTBEGIN
1070
    73
1070
     1
1070
    44
1040
1.0
1070
    74
1070
     0
1000
MTEXTEND
  0
POINT
  5
3E1B
330
36A9
100
AcDbEntity
  8
DEFPOINTS
 62
     0
100
AcDbPoint
 10
2033.35319452364
 20
140.4094895962981
 30
0.0
  0
POINT
  5
3E1C
330
36A9
100
AcDbEntity
  8
DEFPOINTS
 62
     0
100
AcDbPoint
 10
2033.35319452364
 20
190.4094895962981
 30
0.0
  0
POINT
  5
3E1D
330
36A9
100
AcDbEntity
  8
DEFPOINTS
 62
     0
100
AcDbPoint
 10
2057.445906333906
 20
190.4094895962981
 30
0.0
  0
ENDBLK
  5
36B4
330
36A9
100
AcDbEntity
  8
0
100
AcDbBlockEnd
  0
BLOCK
  5
36E8
330
36DE
100
AcDbEntity
  8
0
100
AcDbBlockBegin
  2
*D13
 70
     1
 10
0.0
 20
0.0
 30
0.0
  3
*D13
  1

  0
LINE
  5
3E1E
330
36DE
100
AcDbEntity
  8
AM_5
100
AcDbLine
 10
2064.353194523639
 20
266.4094895962981
 30
0.0
 11
2076.603194523639
 21
266.4094895962981
 31
0.0
  0
LINE
  5
3E1F
330
36DE
100
AcDbEntity
  8
AM_5
100
AcDbLine
 10
2064.353194523639
 20
244.4094895962981
 30
0.0
 11
2076.603194523639
 21
244.4094895962981
 31
0.0
  0
LINE
  5
3E20
330
36DE
100
AcDbEntity
  8
AM_5
100
AcDbLine
 10
2074.35319452364
 20
261.9094895962981
 30
0.0
 11
2074.35319452364
 21
248.9094895962981
 31
0.0
  0
SOLID
  5
3E21
330
36DE
100
AcDbEntity
  8
AM_5
100
AcDbTrace
 10
2073.60319452364
 20
261.9094895962981
 30
0.0
 11
2075.10319452364
 21
261.9094895962981
 31
0.0
 12
2074.35319452364
 22
266.4094895962981
 32
0.0
 13
2074.35319452364
 23
266.4094895962981
 33
0.0
  0
SOLID
  5
3E22
330
36DE
100
AcDbEntity
  8
AM_5
100
AcDbTrace
 10
2073.60319452364
 20
248.9094895962981
 30
0.0
 11
2075.10319452364
 21
248.9094895962981
 31
0.0
 12
2074.35319452364
 22
244.4094895962981
 32
0.0
 13
2074.35319452364
 23
244.4094895962981
 33
0.0
  0
MTEXT
  5
3E23
330
36DE
100
AcDbEntity
  8
AM_5
100
AcDbMText
 10
2070.602800822852
 20
256.9094895962984
 30
0.0
 40
4.5
 41
0.0
 71
     5
 72
     1
  1
22
  7
CHINA
 11
0.0000000000000001
 21
1.0
 31
0.0
1001
ACAD
1000
MTEXTBEGIN
1070
    73
1070
     1
1070
    44
1040
1.0
1070
    74
1070
     0
1000
MTEXTEND
  0
POINT
  5
3E24
330
36DE
100
AcDbEntity
  8
DEFPOINTS
 62
     0
100
AcDbPoint
 10
2061.353194523639
 20
266.4094895962981
 30
0.0
  0
POINT
  5
3E25
330
36DE
100
AcDbEntity
  8
DEFPOINTS
 62
     0
100
AcDbPoint
 10
2061.353194523639
 20
244.4094895962981
 30
0.0
  0
POINT
  5
3E26
330
36DE
100
AcDbEntity
  8
DEFPOINTS
 62
     0
100
AcDbPoint
 10
2074.35319452364
 20
244.4094895962981
 30
0.0
  0
ENDBLK
  5
36E9
330
36DE
100
AcDbEntity
  8
0
100
AcDbBlockEnd
  0
BLOCK
  5
36F4
330
36EA
100
AcDbEntity
  8
0
100
AcDbBlockBegin
  2
*D14
 70
     1
 10
0.0
 20
0.0
 30
0.0
  3
*D14
  1

  0
LINE
  5
3DF8
330
36EA
100
AcDbEntity
  8
AM_5
100
AcDbLine
 10
2064.353194523639
 20
244.4094895962981
 30
0.0
 11
2076.603194523639
 21
244.4094895962981
 31
0.0
  0
LINE
  5
3DF9
330
36EA
100
AcDbEntity
  8
AM_5
100
AcDbLine
 10
2038.35319452364
 20
131.4094895962981
 30
0.0
 11
2076.603194523639
 21
131.4094895962981
 31
0.0
  0
LINE
  5
3DFA
330
36EA
100
AcDbEntity
  8
AM_5
100
AcDbLine
 10
2074.35319452364
 20
239.9094895962981
 30
0.0
 11
2074.35319452364
 21
135.9094895962981
 31
0.0
  0
SOLID
  5
3DFB
330
36EA
100
AcDbEntity
  8
AM_5
100
AcDbTrace
 10
2073.60319452364
 20
239.9094895962981
 30
0.0
 11
2075.10319452364
 21
239.9094895962981
 31
0.0
 12
2074.35319452364
 22
244.4094895962981
 32
0.0
 13
2074.35319452364
 23
244.4094895962981
 33
0.0
  0
SOLID
  5
3DFC
330
36EA
100
AcDbEntity
  8
AM_5
100
AcDbTrace
 10
2073.60319452364
 20
135.9094895962981
 30
0.0
 11
2075.10319452364
 21
135.9094895962981
 31
0.0
 12
2074.35319452364
 22
131.4094895962981
 32
0.0
 13
2074.35319452364
 23
131.4094895962981
 33
0.0
  0
MTEXT
  5
3DFD
330
36EA
100
AcDbEntity
  8
AM_5
100
AcDbMText
 10
2070.60319452364
 20
187.9094895962984
 30
0.0
 40
4.5
 41
0.0
 71
     5
 72
     1
  1
113
  7
CHINA
 11
0.0000000000000001
 21
1.0
 31
0.0
1001
ACAD
1000
MTEXTBEGIN
1070
    73
1070
     1
1070
    44
1040
1.0
1070
    74
1070
     0
1000
MTEXTEND
  0
POINT
  5
3DFE
330
36EA
100
AcDbEntity
  8
DEFPOINTS
 62
     0
100
AcDbPoint
 10
2061.353194523639
 20
244.4094895962981
 30
0.0
  0
POINT
  5
3DFF
330
36EA
100
AcDbEntity
  8
DEFPOINTS
 62
     0
100
AcDbPoint
 10
2035.35319452364
 20
131.4094895962981
 30
0.0
  0
POINT
  5
3E00
330
36EA
100
AcDbEntity
  8
DEFPOINTS
 62
     0
100
AcDbPoint
 10
2074.35319452364
 20
131.4094895962981
 30
0.0
  0
ENDBLK
  5
36F5
330
36EA
100
AcDbEntity
  8
0
100
AcDbBlockEnd
  0
BLOCK
  5
3700
330
36F6
100
AcDbEntity
  8
0
100
AcDbBlockBegin
  2
*D15
 70
     1
 10
0.0
 20
0.0
 30
0.0
  3
*D15
  1

  0
LINE
  5
3DEF
330
36F6
100
AcDbEntity
  8
AM_5
100
AcDbLine
 10
2038.35319452364
 20
131.4094895962981
 30
0.0
 11
2086.60319452364
 21
131.4094895962981
 31
0.0
  0
LINE
  5
3DF0
330
36F6
100
AcDbEntity
  8
AM_5
100
AcDbLine
 10
2064.353194523639
 20
266.4094895962981
 30
0.0
 11
2086.60319452364
 21
266.4094895962981
 31
0.0
  0
LINE
  5
3DF1
330
36F6
100
AcDbEntity
  8
AM_5
100
AcDbLine
 10
2084.353194523639
 20
135.9094895962981
 30
0.0
 11
2084.353194523639
 21
261.9094895962981
 31
0.0
  0
SOLID
  5
3DF2
330
36F6
100
AcDbEntity
  8
AM_5
100
AcDbTrace
 10
2083.603194523639
 20
135.9094895962981
 30
0.0
 11
2085.10319452364
 21
135.9094895962981
 31
0.0
 12
2084.353194523639
 22
131.4094895962981
 32
0.0
 13
2084.353194523639
 23
131.4094895962981
 33
0.0
  0
SOLID
  5
3DF3
330
36F6
100
AcDbEntity
  8
AM_5
100
AcDbTrace
 10
2083.603194523639
 20
261.9094895962981
 30
0.0
 11
2085.10319452364
 21
261.9094895962981
 31
0.0
 12
2084.353194523639
 22
266.4094895962981
 32
0.0
 13
2084.353194523639
 23
266.4094895962981
 33
0.0
  0
MTEXT
  5
3DF4
330
36F6
100
AcDbEntity
  8
AM_5
100
AcDbMText
 10
2080.591383500018
 20
198.9094895962985
 30
0.0
 40
4.5
 41
0.0
 71
     5
 72
     1
  1
135
  7
CHINA
 11
0.0000000000000001
 21
1.0
 31
0.0
1001
ACAD
1000
MTEXTBEGIN
1070
    73
1070
     1
1070
    44
1040
1.0
1070
    74
1070
     0
1000
MTEXTEND
  0
POINT
  5
3DF5
330
36F6
100
AcDbEntity
  8
DEFPOINTS
 62
     0
100
AcDbPoint
 10
2035.35319452364
 20
131.4094895962981
 30
0.0
  0
POINT
  5
3DF6
330
36F6
100
AcDbEntity
  8
DEFPOINTS
 62
     0
100
AcDbPoint
 10
2061.353194523639
 20
266.4094895962981
 30
0.0
  0
POINT
  5
3DF7
330
36F6
100
AcDbEntity
  8
DEFPOINTS
 62
     0
100
AcDbPoint
 10
2084.353194523639
 20
266.4094895962981
 30
0.0
  0
ENDBLK
  5
3701
330
36F6
100
AcDbEntity
  8
0
100
AcDbBlockEnd
  0
BLOCK
  5
3737
330
372D
100
AcDbEntity
  8
0
100
AcDbBlockBegin
  2
*D16
 70
     1
 10
0.0
 20
0.0
 30
0.0
  3
*D16
  1

  0
LINE
  5
3E0C
330
372D
100
AcDbEntity
  8
AM_5
100
AcDbLine
 10
1969.85319452364
 20
138.4094895962981
 30
0.0
 11
1969.85319452364
 21
114.2882610215981
 31
0.0
  0
LINE
  5
3E0D
330
372D
100
AcDbEntity
  8
AM_5
100
AcDbLine
 10
2034.853194523639
 20
138.4094895962981
 30
0.0
 11
2034.853194523639
 21
114.2882610215981
 31
0.0
  0
LINE
  5
3E0E
330
372D
100
AcDbEntity
  8
AM_5
100
AcDbLine
 10
1974.35319452364
 20
116.5382610215981
 30
0.0
 11
2030.35319452364
 21
116.5382610215981
 31
0.0
  0
SOLID
  5
3E0F
330
372D
100
AcDbEntity
  8
AM_5
100
AcDbTrace
 10
1974.35319452364
 20
117.2882610215981
 30
0.0
 11
1974.35319452364
 21
115.7882610215981
 31
0.0
 12
1969.85319452364
 22
116.5382610215981
 32
0.0
 13
1969.85319452364
 23
116.5382610215981
 33
0.0
  0
SOLID
  5
3E10
330
372D
100
AcDbEntity
  8
AM_5
100
AcDbTrace
 10
2030.35319452364
 20
117.2882610215981
 30
0.0
 11
2030.35319452364
 21
115.7882610215981
 31
0.0
 12
2034.853194523639
 22
116.5382610215981
 32
0.0
 13
2034.853194523639
 23
116.5382610215981
 33
0.0
  0
MTEXT
  5
3E11
330
372D
100
AcDbEntity
  8
AM_5
100
AcDbMText
 10
2002.35319452364
 20
120.3000720452201
 30
0.0
 40
4.5
 41
0.0
 71
     5
 72
     1
  1
M65x1.5
  7
CHINA
1001
ACAD
1000
MTEXTBEGIN
1070
    73
1070
     1
1070
    44
1040
1.0
1070
    74
1070
     0
1000
MTEXTEND
  0
POINT
  5
3E12
330
372D
100
AcDbEntity
  8
DEFPOINTS
 62
     0
100
AcDbPoint
 10
1969.85319452364
 20
141.4094895962981
 30
0.0
  0
POINT
  5
3E13
330
372D
100
AcDbEntity
  8
DEFPOINTS
 62
     0
100
AcDbPoint
 10
2034.853194523639
 20
141.4094895962981
 30
0.0
  0
POINT
  5
3E14
330
372D
100
AcDbEntity
  8
DEFPOINTS
 62
     0
100
AcDbPoint
 10
2034.853194523639
 20
116.5382610215981
 30
0.0
  0
ENDBLK
  5
3738
330
372D
100
AcDbEntity
  8
0
100
AcDbBlockEnd
  0
BLOCK
  5
37C9
330
37C6
100
AcDbEntity
  8
0
100
AcDbBlockBegin
  2
GENDOT
 70
     0
 10
0.0
 20
0.0
 30
0.0
  3
GENDOT
  1

  0
LINE
  5
37C7
330
37C6
100
AcDbEntity
  8
0
100
AcDbLine
 10
0.0
 20
0.0
 30
0.0
 11
-1.0
 21
0.0
 31
0.0
  0
POLYLINE
  5
37C8
330
37C6
100
AcDbEntity
  8
0
100
AcDb2dPolyline
 66
     1
 10
0.0
 20
0.0
 30
0.0
 70
     1
 40
0.25
 41
0.25
  0
VERTEX
  5
4276
330
37C8
100
AcDbEntity
  8
0
100
AcDbVertex
100
AcDb2dVertex
 10
-0.125
 20
0.0
 30
0.0
 42
1.0
  0
VERTEX
  5
4277
330
37C8
100
AcDbEntity
  8
0
100
AcDbVertex
100
AcDb2dVertex
 10
0.125
 20
0.0
 30
0.0
 42
1.0
  0
SEQEND
  5
4278
330
37C8
100
AcDbEntity
  8
0
  0
ENDBLK
  5
37CA
330
37C6
100
AcDbEntity
  8
0
100
AcDbBlockEnd
  0
BLOCK
  5
41A1
330
4197
100
AcDbEntity
  8
0
100
AcDbBlockBegin
  2
*D46
 70
     1
 10
0.0
 20
0.0
 30
0.0
  3
*D46
  1

  0
LINE
  5
41C3
330
4197
100
AcDbEntity
  8
AM_5
100
AcDbLine
 10
1942.35319452364
 20
268.4094895962981
 30
0.0
 11
1942.35319452364
 21
279.6594895962981
 31
0.0
  0
LINE
  5
41C4
330
4197
100
AcDbEntity
  8
AM_5
100
AcDbLine
 10
2062.35319452364
 20
268.4094895962981
 30
0.0
 11
2062.35319452364
 21
279.6594895962981
 31
0.0
  0
LINE
  5
41C5
330
4197
100
AcDbEntity
  8
AM_5
100
AcDbLine
 10
1946.853194523639
 20
277.4094895962981
 30
0.0
 11
2057.85319452364
 21
277.4094895962981
 31
0.0
  0
SOLID
  5
41C6
330
4197
100
AcDbEntity
  8
AM_5
100
AcDbTrace
 10
1946.853194523639
 20
278.1594895962981
 30
0.0
 11
1946.853194523639
 21
276.6594895962981
 31
0.0
 12
1942.35319452364
 22
277.4094895962981
 32
0.0
 13
1942.35319452364
 23
277.4094895962981
 33
0.0
  0
SOLID
  5
41C7
330
4197
100
AcDbEntity
  8
AM_5
100
AcDbTrace
 10
2057.85319452364
 20
278.1594895962981
 30
0.0
 11
2057.85319452364
 21
276.6594895962981
 31
0.0
 12
2062.35319452364
 22
277.4094895962981
 32
0.0
 13
2062.35319452364
 23
277.4094895962981
 33
0.0
  0
MTEXT
  5
41C8
330
4197
100
AcDbEntity
  8
AM_5
100
AcDbMText
 10
2002.35319452364
 20
281.1598832970855
 30
0.0
 40
4.5
 41
0.0
 71
     5
 72
     1
  1
120
  7
CHINA
1001
ACAD
1000
MTEXTBEGIN
1070
    73
1070
     1
1070
    44
1040
1.0
1070
    74
1070
     0
1000
MTEXTEND
  0
POINT
  5
41C9
330
4197
100
AcDbEntity
  8
DEFPOINTS
 62
     0
100
AcDbPoint
 10
1942.35319452364
 20
265.4094895962981
 30
0.0
  0
POINT
  5
41CA
330
4197
100
AcDbEntity
  8
DEFPOINTS
 62
     0
100
AcDbPoint
 10
2062.35319452364
 20
265.4094895962981
 30
0.0
  0
POINT
  5
41CB
330
4197
100
AcDbEntity
  8
DEFPOINTS
 62
     0
100
AcDbPoint
 10
2062.35319452364
 20
277.4094895962981
 30
0.0
  0
ENDBLK
  5
41A2
330
4197
100
AcDbEntity
  8
0
100
AcDbBlockEnd
  0
BLOCK
  5
427E
330
4279
100
AcDbEntity
  8
0
100
AcDbBlockBegin
  2
*S47
 70
     1
 10
0.0
 20
0.0
 30
0.0
  3
*S47
  1

  0
LINE
  5
427A
330
4279
100
AcDbEntity
  8
AM_5
100
AcDbLine
 10
2064.955899026579
 20
213.6466816093286
 30
0.0
 11
2045.924516636407
 21
213.6466816093286
 31
0.0
  0
LINE
  5
427B
330
4279
100
AcDbEntity
  8
AM_5
100
AcDbLine
 10
2045.924516636407
 20
213.6466816093286
 30
0.0
 11
2035.589875980763
 21
204.408803493454
 31
0.0
  0
TRACE
  5
427C
330
4279
100
AcDbEntity
  8
AM_5
100
AcDbTrace
 10
2035.326661313916
 20
204.7032681922779
 30
0.0
 11
2035.853090647611
 21
204.1143387946301
 31
0.0
 12
2033.35319452364
 22
202.4094895962981
 32
0.0
 13
2033.35319452364
 23
202.4094895962981
 33
0.0
  0
MTEXT
  5
427D
330
4279
100
AcDbEntity
  8
AM_5
 62
     2
100
AcDbMText
 10
2064.955899026579
 20
211.1966732064421
 30
0.0
 40
3.5
 41
0.0
 71
     7
 72
     1
  1

  7
ACISOTS
  0
ENDBLK
  5
427F
330
4279
100
AcDbEntity
  8
0
100
AcDbBlockEnd
  0
ENDSEC
  0
SECTION
  2
ENTITIES
  0
POINT
  5
25
330
2
100
AcDbEntity
  8
0
 60
     1
100
AcDbPoint
 10
0.0
 20
0.0
 30
0.0
  0
POINT
  5
26
330
2
100
AcDbEntity
  8
0
 60
     1
100
AcDbPoint
 10
0.0
 20
0.0
 30
0.0
  0
POINT
  5
27
330
2
100
AcDbEntity
  8
0
 60
     1
100
AcDbPoint
 10
0.0
 20
0.0
 30
0.0
  0
POINT
  5
28
330
2
100
AcDbEntity
  8
0
 60
     1
100
AcDbPoint
 10
0.0
 20
0.0
 30
0.0
  0
POINT
  5
29
330
2
100
AcDbEntity
  8
0
 60
     1
100
AcDbPoint
 10
0.0
 20
0.0
 30
0.0
  0
POINT
  5
2A
330
2
100
AcDbEntity
  8
0
 60
     1
100
AcDbPoint
 10
0.0
 20
0.0
 30
0.0
  0
POINT
  5
2B
330
2
100
AcDbEntity
  8
0
 60
     1
100
AcDbPoint
 10
0.0
 20
0.0
 30
0.0
  0
POINT
  5
2C
330
2
100
AcDbEntity
  8
0
 60
     1
100
AcDbPoint
 10
0.0
 20
0.0
 30
0.0
  0
POINT
  5
2D
330
2
100
AcDbEntity
  8
0
 60
     1
100
AcDbPoint
 10
0.0
 20
0.0
 30
0.0
  0
POINT
  5
2E
330
2
100
AcDbEntity
  8
0
 60
     1
100
AcDbPoint
 10
0.0
 20
0.0
 30
0.0
  0
POINT
  5
2F
330
2
100
AcDbEntity
  8
0
 60
     1
100
AcDbPoint
 10
0.0
 20
0.0
 30
0.0
  0
POINT
  5
30
330
2
100
AcDbEntity
  8
0
 60
     1
100
AcDbPoint
 10
0.0
 20
0.0
 30
0.0
  0
DIMENSION
  5
31
330
2
100
AcDbEntity
  8
AM_PARDIM
 60
     1
100
AcDbDimension
  2
*D1
 10
114.5325708695175
 20
128.6938113892625
 30
0.0
 11
110.770366145108
 21
140.0442050900499
 31
0.0
 70
    32
  1
<>
  3
AM_ISO
100
AcDbAlignedDimension
 13
75.37464887656421
 23
116.1938113892625
 33
0.0
 14
75.37464887656421
 24
128.6938113892625
 34
0.0
 50
90.0
100
AcDbRotatedDimension
1001
ACAD_DIMASSOC_CALC_DIMLFAC
1040
-1.0
1001
ACAD
1000
DSTYLE
1002
{
1070
   144
1040
-1.0
1002
}
1001
AD_SKETCHDIM
1005
0
1000
d0
1001
ACAD_DIMASSOC_DIMLFAC
1040
-1.0
  0
DIMENSION
  5
43
330
2
100
AcDbEntity
  8
AM_PARDIM
 60
     1
100
AcDbDimension
  2
*D2
 10
26.87464887656421
 20
122.1938113892625
 30
0.0
 11
23.12464887656418
 21
119.1938113892625
 31
0.0
 70
    32
  1
<>
  3
AM_ISO
100
AcDbAlignedDimension
 13
38.8746488765642
 23
116.1938113892625
 33
0.0
 14
38.8746488765642
 24
122.1938113892624
 34
0.0
 50
90.0
100
AcDbRotatedDimension
1001
ACAD_DIMASSOC_CALC_DIMLFAC
1040
-1.0
1001
ACAD
1000
DSTYLE
1002
{
1070
   144
1040
-1.0
1002
}
1001
AD_SKETCHDIM
1005
0
1000
d1
1001
ACAD_DIMASSOC_DIMLFAC
1040
-1.0
  0
DIMENSION
  5
52
330
2
100
AcDbEntity
  8
AM_PARDIM
 60
     1
100
AcDbDimension
  2
*D3
 10
50.87464887656421
 20
140.6938113892624
 30
0.0
 11
44.87464887656421
 21
144.4442050900499
 31
0.0
 70
    32
  1
<>
  3
AM_ISO
100
AcDbAlignedDimension
 13
38.8746488765642
 23
122.1938113892624
 33
0.0
 14
50.87464887656421
 24
122.1938113892624
 34
0.0
100
AcDbRotatedDimension
1001
ACAD_DIMASSOC_CALC_DIMLFAC
1040
-1.0
1001
ACAD
1000
DSTYLE
1002
{
1070
   144
1040
-1.0
1002
}
1001
AD_SKETCHDIM
1005
0
1000
d2
1001
ACAD_DIMASSOC_DIMLFAC
1040
-1.0
  0
DIMENSION
  5
5F
330
2
100
AcDbEntity
  8
AM_PARDIM
 60
     1
100
AcDbDimension
  2
*D4
 10
75.37464887656421
 20
160.6938113892624
 30
0.0
 11
57.12464887656421
 21
164.4556224128845
 31
0.0
 70
    32
  1
<>
  3
AM_ISO
100
AcDbAlignedDimension
 13
38.8746488765642
 23
116.1938113892625
 33
0.0
 14
75.37464887656421
 24
116.1938113892625
 34
0.0
100
AcDbRotatedDimension
1001
ACAD_DIMASSOC_CALC_DIMLFAC
1040
-1.0
1001
ACAD
1000
DSTYLE
1002
{
1070
   144
1040
-1.0
1002
}
1001
AD_SKETCHDIM
1005
0
1000
d3
1001
ACAD_DIMASSOC_DIMLFAC
1040
-1.0
  0
DIMENSION
  5
6C
330
2
100
AcDbEntity
  8
AM_PARDIM
 60
     1
100
AcDbDimension
  2
*D5
 10
104.5325708695175
 20
116.1938113892624
 30
0.0
 11
100.7825708695175
 21
121.6938113892625
 31
0.0
 70
    32
  1
<>
  3
AM_ISO
100
AcDbAlignedDimension
 13
50.87464887656421
 23
127.1938113892624
 33
0.0
 14
75.37464887656421
 24
116.1938113892625
 34
0.0
 50
90.0
100
AcDbRotatedDimension
1001
ACAD_DIMASSOC_CALC_DIMLFAC
1040
-1.0
1001
ACAD
1000
DSTYLE
1002
{
1070
   144
1040
-1.0
1002
}
1001
AD_SKETCHDIM
1005
0
1000
d4
1001
ACAD_DIMASSOC_DIMLFAC
1040
-1.0
  0
DIMENSION
  5
79
330
2
100
AcDbEntity
  8
AM_PARDIM
 60
     1
100
AcDbDimension
  2
*D6
 10
75.37464887656421
 20
150.6938113892624
 30
0.0
 11
70.87464887656421
 21
154.4438113892624
 31
0.0
 70
    32
  1
<>
  3
AM_ISO
100
AcDbAlignedDimension
 13
66.3746488765642
 23
128.6938113892625
 33
0.0
 14
75.37464887656421
 24
128.6938113892625
 34
0.0
100
AcDbRotatedDimension
1001
ACAD_DIMASSOC_CALC_DIMLFAC
1040
-1.0
1001
ACAD
1000
DSTYLE
1002
{
1070
   144
1040
-1.0
1002
}
1001
AD_SKETCHDIM
1005
0
1000
d5
1001
ACAD_DIMASSOC_DIMLFAC
1040
-1.0
  0
DIMENSION
  5
86
330
2
100
AcDbEntity
  8
AM_PARDIM
 60
     1
100
AcDbDimension
  2
*D7
 10
66.37464887656418
 20
140.6938113892624
 30
0.0
 11
80.70653864034371
 21
144.4560161136719
 31
0.0
 70
    32
  1
<>
  3
AM_ISO
100
AcDbAlignedDimension
 13
63.87464887656418
 23
128.6938113892624
 33
0.0
 14
66.37464887656418
 24
128.6938113892624
 34
0.0
100
AcDbRotatedDimension
1001
ACAD_DIMASSOC_CALC_DIMLFAC
1040
-1.0
1001
ACAD
1000
DSTYLE
1002
{
1070
   144
1040
-1.0
1002
}
1001
AD_SKETCHDIM
1005
0
1000
d25
1001
ACAD_DIMASSOC_DIMLFAC
1040
-1.0
  0
DIMENSION
  5
95
330
2
100
AcDbEntity
  8
AM_PARDIM
 60
     1
100
AcDbDimension
  2
*D8
 10
66.37464887656418
 20
136.030378563861
 30
0.0
 11
78.07464887656418
 21
139.780378563861
 31
0.0
 70
    32
  1
<>
  3
AM_ISO
100
AcDbAlignedDimension
 13
66.37464887656418
 23
128.6938113892624
 33
0.0
 14
66.37464887656418
 24
116.1938113892624
 34
0.0
100
AcDbRotatedDimension
1001
ACAD_DIMASSOC_CALC_DIMLFAC
1040
-1.0
1001
ACAD
1000
DSTYLE
1002
{
1070
   144
1040
-1.0
1002
}
1001
AD_SKETCHDIM
1005
0
1000
d26
1001
ACAD_DIMASSOC_DIMLFAC
1040
-1.0
  0
DIMENSION
  5
A3
330
2
100
AcDbEntity
  8
AM_PARDIM
 60
     1
100
AcDbDimension
  2
*D9
 10
94.53257086951754
 20
116.1938113892624
 30
0.0
 11
90.77075984589546
 21
102.043417688475
 31
0.0
 70
    32
  1
<>
  3
AM_ISO
100
AcDbAlignedDimension
 13
63.87464887656418
 23
125.6938113892624
 33
0.0
 14
82.53257086951753
 24
116.1938113892624
 34
0.0
 50
90.0
100
AcDbRotatedDimension
1001
ACAD_DIMASSOC_CALC_DIMLFAC
1040
-1.0
1001
ACAD
1000
DSTYLE
1002
{
1070
   144
1040
-1.0
1002
}
1001
AD_SKETCHDIM
1005
0
1000
d27
1001
ACAD_DIMASSOC_DIMLFAC
1040
-1.0
  0
DIMENSION
  5
B0
330
2
100
AcDbEntity
  8
AM_PARDIM
 60
     1
100
AcDbDimension
  2
*D10
 10
124.5325708695175
 20
116.1938113892624
 30
0.0
 11
120.770366145108
 21
104.843417688475
 31
0.0
 70
    32
  1
<>
  3
AM_ISO
100
AcDbAlignedDimension
 13
66.37464887656418
 23
128.6938113892624
 33
0.0
 14
82.53257086951753
 24
116.1938113892624
 34
0.0
 50
90.0
100
AcDbRotatedDimension
1001
ACAD_DIMASSOC_CALC_DIMLFAC
1040
-1.0
1001
ACAD
1000
DSTYLE
1002
{
1070
   144
1040
-1.0
1002
}
1001
AD_SKETCHDIM
1005
0
1000
d28
1001
ACAD_DIMASSOC_DIMLFAC
1040
-1.0
  0
LINE
  5
C8
330
2
100
AcDbEntity
  8
AM_7
 60
     1
100
AcDbLine
 10
36.3746488765642
 20
116.1938113892624
 30
0.0
 11
51.3746488765642
 21
116.1938113892624
 31
0.0
  0
MTEXT
  5
151
330
2
100
AcDbEntity
  8
AM_5
 62
     5
100
AcDbMText
 10
33.56078100938998
 20
98.94002315335121
 30
0.0
 40
3.5
 41
0.0
 71
     9
 72
     1
  1

  7
ACISOTS
1001
ACAD
1000
MTEXTBEGIN
1070
    73
1070
     1
1070
    44
1040
1.0
1070
    74
1070
     0
1000
MTEXTEND
  0
MTEXT
  5
156
330
2
100
AcDbEntity
  8
AM_5
 62
     5
100
AcDbMText
 10
67.11527269722637
 20
92.4148402526181
 30
0.0
 40
3.5
 41
0.0
 71
     9
 72
     1
  1

  7
ACISOTS
1001
ACAD
1000
MTEXTBEGIN
1070
    73
1070
     1
1070
    44
1040
1.0
1070
    74
1070
     0
1000
MTEXTEND
  0
CIRCLE
  5
124B
330
2
100
AcDbEntity
  8
LOGO
  6
CONTINUOUS
 62
     6
100
AcDbCircle
 10
1963.344063399737
 20
84.51944604291307
 30
0.0
 40
2.99418555343037
  0
TEXT
  5
124C
330
2
100
AcDbEntity
  8
LOGO
 62
     6
100
AcDbText
 10
1961.531637688977
 20
92.24368293112201
 30
0.0
 40
5.156844944855196
  1
1 : 1
  7
CHINESET
 72
     1
 11
1970.617507353722
 21
94.82210540354961
 31
0.0
100
AcDbText
 73
     2
  0
TEXT
  5
124D
330
2
100
AcDbEntity
  8
LOGO
 62
     6
100
AcDbText
 10
1961.531637688977
 20
71.61630315170123
 30
0.0
 40
5.156844944855196
  1
m/m
  7
CHINESET
 72
     1
 11
1970.617507353722
 21
74.19472562412884
 31
0.0
100
AcDbText
 73
     2
  0
LINE
  5
124E
330
2
100
AcDbEntity
  8
LOGO
 62
     1
100
AcDbLine
 10
1988.174486275402
 20
79.35157056898401
 30
0.0
 11
1912.540760417526
 21
79.35157056898401
 31
0.0
  0
LINE
  5
124F
330
2
100
AcDbEntity
  8
LOGO
 62
     1
100
AcDbLine
 10
1988.174486275402
 20
89.66526045869443
 30
0.0
 11
1912.540760417526
 21
89.66526045869443
 31
0.0
  0
TEXT
  5
1250
330
2
100
AcDbEntity
  8
LOGO
  6
CONTINUOUS
 62
     5
100
AcDbText
 10
1878.62673394922
 20
50.80426204721686
 30
0.0
 40
5.156844944855196
  1
MINDMAN INDUSTRIAL CO.,LTD
 41
0.85
  7
CHINESET
100
AcDbText
  0
TEXT
  5
1251
330
2
100
AcDbEntity
  8
LOGO
  6
CONTINUOUS
 62
     5
100
AcDbText
 10
1876.411819907757
 20
58.54104497044509
 30
0.0
 40
7.735267417282793
  1
金器工業股份有限公司
 41
0.8
  7
LOGO
100
AcDbText
  0
LINE
  5
1252
330
2
100
AcDbEntity
  8
LOGO
 62
     1
100
AcDbLine
 10
1988.174486275402
 20
69.03788067927369
 30
0.0
 11
1874.723897488588
 21
69.03788067927369
 31
0.0
  0
LINE
  5
1256
330
2
100
AcDbEntity
  8
LOGO
 62
     1
100
AcDbLine
 10
2256.274697440292
 20
48.41050089985282
 30
0.0
 11
1874.723897488588
 21
48.41050089985282
 31
0.0
  0
LINE
  5
1257
330
2
100
AcDbEntity
  8
LOGO
 62
     1
100
AcDbLine
 10
2256.274697440292
 20
99.97895034840482
 30
0.0
 11
1874.723897488588
 21
99.97895034840482
 31
0.0
  0
LINE
  5
1258
330
2
100
AcDbEntity
  8
0
 62
     4
100
AcDbLine
 10
1874.723897488588
 20
382.1592413180828
 30
0.0
 11
2256.274697440292
 21
382.1592413180828
 31
0.0
  0
LINE
  5
1259
330
2
100
AcDbEntity
  8
0
 62
     4
100
AcDbLine
 10
2256.274697440292
 20
99.97895034840482
 30
0.0
 11
1874.723897488588
 21
99.97895034840482
 31
0.0
  0
LINE
  5
125A
330
2
100
AcDbEntity
  8
0
 62
     4
100
AcDbLine
 10
1874.723897488588
 20
99.97895034840482
 30
0.0
 11
1874.723897488588
 21
382.1592413180828
 31
0.0
  0
SOLID
  5
125B
330
2
100
AcDbEntity
  8
LOGO
 62
     5
100
AcDbTrace
 10
1894.759369906216
 20
79.3018861274993
 30
0.0
 11
1896.98905434476
 21
87.47739573549456
 31
0.0
 12
1905.369592406873
 22
98.75396071203972
 32
0.0
 13
1903.139907968329
 23
98.75396071203972
 33
0.0
  0
SOLID
  5
125C
330
2
100
AcDbEntity
  8
LOGO
 62
     5
100
AcDbTrace
 10
1894.759369906216
 20
98.75396071203827
 30
0.0
 11
1896.98905434476
 21
98.75396071203972
 31
0.0
 12
1894.759369906216
 22
79.3018861274993
 32
0.0
 13
1896.98905434476
 23
87.47739573549456
 33
0.0
  0
POLYLINE
  5
125D
330
2
100
AcDbEntity
  8
LOGO
 62
     5
100
AcDb2dPolyline
 66
     1
 10
0.0
 20
0.0
 30
0.0
 40
0.770088845098376
 41
0.770088845098376
  0
VERTEX
  5
125E
330
125D
100
AcDbEntity
  8
LOGO
 62
     5
100
AcDbVertex
100
AcDb2dVertex
 10
1897.118994084699
 20
72.22840446039453
 30
0.0
 42
1.0
  0
VERTEX
  5
125F
330
125D
100
AcDbEntity
  8
LOGO
 62
     5
100
AcDbVertex
100
AcDb2dVertex
 10
1894.808727549404
 20
72.22840446039453
 30
0.0
 42
1.0
  0
SEQEND
  5
1260
330
125D
100
AcDbEntity
  8
LOGO
 62
     5
  0
SOLID
  5
1261
330
2
100
AcDbEntity
  8
LOGO
 62
     5
100
AcDbTrace
 10
1894.42614741116
 20
73.76611786628703
 30
0.0
 11
1895.195004114105
 21
73.76611786628703
 31
0.0
 12
1894.42614741116
 22
69.92183435155656
 32
0.0
 13
1895.195004114105
 23
69.92183435155656
 33
0.0
  0
SOLID
  5
1262
330
2
100
AcDbEntity
  8
LOGO
 62
     2
100
AcDbTrace
 10
1893.83674186268
 20
77.6104013810183
 30
0.0
 11
1894.759369906216
 21
77.6104013810183
 31
0.0
 12
1905.369592406873
 22
98.75396071203972
 32
0.0
 13
1906.292220450409
 23
98.75396071203827
 33
0.0
  0
SOLID
  5
1263
330
2
100
AcDbEntity
  8
LOGO
 62
     5
100
AcDbTrace
 10
1894.759369906216
 20
77.6104013810183
 30
0.0
 11
1896.98905434476
 21
77.6104013810183
 31
0.0
 12
1905.369592406873
 22
97.06247596555726
 32
0.0
 13
1903.139907968329
 23
88.88696635756202
 33
0.0
  0
SOLID
  5
1264
330
2
100
AcDbEntity
  8
LOGO
 62
     2
100
AcDbTrace
 10
1893.83674186268
 20
98.75396071203827
 30
0.0
 11
1894.759369906216
 21
98.75396071203827
 31
0.0
 12
1893.83674186268
 22
77.6104013810183
 32
0.0
 13
1894.759369906216
 23
77.6104013810183
 33
0.0
  0
SOLID
  5
1265
330
2
100
AcDbEntity
  8
LOGO
 62
     5
100
AcDbTrace
 10
1891.607057424136
 20
77.6104013810183
 30
0.0
 11
1893.83674186268
 21
77.6104013810183
 31
0.0
 12
1891.607057424136
 22
88.88696635756202
 32
0.0
 13
1893.83674186268
 23
97.06247596555726
 33
0.0
  0
LINE
  5
1266
330
2
100
AcDbEntity
  8
LOGO
 62
     1
100
AcDbLine
 10
1874.723897488588
 20
48.41050089985282
 30
0.0
 11
1874.723897488588
 21
99.97895034840482
 31
0.0
  0
SOLID
  5
1267
330
2
100
AcDbEntity
  8
LOGO
 62
     2
100
AcDbTrace
 10
1882.303891318486
 20
77.61040138101754
 30
0.0
 11
1883.226519362023
 21
77.6104013810183
 31
0.0
 12
1893.83674186268
 22
98.75396071203827
 32
0.0
 13
1894.759369906216
 23
98.75396071203827
 33
0.0
  0
SOLID
  5
1268
330
2
100
AcDbEntity
  8
LOGO
 62
     5
100
AcDbTrace
 10
1883.226519362023
 20
77.6104013810183
 30
0.0
 11
1885.456203800567
 21
77.6104013810183
 31
0.0
 12
1893.83674186268
 22
97.06247596555726
 32
0.0
 13
1891.607057424136
 23
88.88696635756202
 33
0.0
  0
SOLID
  5
1269
330
2
100
AcDbEntity
  8
LOGO
 62
     5
100
AcDbTrace
 10
1880.074206879942
 20
77.6104013810183
 30
0.0
 11
1882.303891318486
 21
77.61040138101754
 31
0.0
 12
1891.607057424136
 22
98.75396071203972
 32
0.0
 13
1893.83674186268
 23
98.75396071203827
 33
0.0
  0
SOLID
  5
126A
330
2
100
AcDbEntity
  8
LOGO
 62
     5
100
AcDbTrace
 10
1876.499475939355
 20
69.92183435155656
 30
0.0
 11
1877.268332642302
 21
69.92183435155656
 31
0.0
 12
1879.433492960821
 22
73.76611786628703
 32
0.0
 13
1880.202349663766
 23
73.76611786628703
 33
0.0
  0
POLYLINE
  5
126B
330
2
100
AcDbEntity
  8
LOGO
 62
     5
100
AcDb2dPolyline
 66
     1
 10
0.0
 20
0.0
 30
0.0
 70
     1
 40
0.770088845098376
 41
0.770088845098376
  0
VERTEX
  5
126C
330
126B
100
AcDbEntity
  8
LOGO
 62
     5
100
AcDbVertex
100
AcDb2dVertex
 10
1890.066879733939
 20
71.8439761089214
 30
0.0
 42
1.0
  0
VERTEX
  5
126D
330
126B
100
AcDbEntity
  8
LOGO
 62
     5
100
AcDbVertex
100
AcDb2dVertex
 10
1893.147235114333
 20
71.8439761089214
 30
0.0
 42
1.0
  0
SEQEND
  5
126E
330
126B
100
AcDbEntity
  8
LOGO
 62
     5
  0
SOLID
  5
126F
330
2
100
AcDbEntity
  8
LOGO
 62
     5
100
AcDbTrace
 10
1892.760265592886
 20
74.9194029207068
 30
0.0
 11
1893.529122295831
 21
74.9194029207068
 31
0.0
 12
1892.760265592886
 22
69.92183435155656
 32
0.0
 13
1893.529122295831
 23
69.92183435155656
 33
0.0
  0
SOLID
  5
1270
330
2
100
AcDbEntity
  8
LOGO
 62
     5
100
AcDbTrace
 10
1884.046505035715
 20
73.76611786628703
 30
0.0
 11
1884.815361738662
 21
73.76611786628703
 31
0.0
 12
1884.046505035715
 22
69.92183435155507
 32
0.0
 13
1884.815361738662
 23
69.92183435155656
 33
0.0
  0
SOLID
  5
1271
330
2
100
AcDbEntity
  8
LOGO
 62
     5
100
AcDbTrace
 10
1885.712386853989
 20
73.76611786628703
 30
0.0
 11
1886.481243556934
 21
73.76611786628703
 31
0.0
 12
1885.712386853989
 22
69.92183435155656
 32
0.0
 13
1886.481243556934
 23
69.92183435155656
 33
0.0
  0
SOLID
  5
1272
330
2
100
AcDbEntity
  8
LOGO
 62
     5
100
AcDbTrace
 10
1879.433492960821
 20
69.92183435155656
 30
0.0
 11
1880.202349663766
 21
69.92183435155656
 31
0.0
 12
1882.367509982288
 22
73.76611786628703
 32
0.0
 13
1883.136366685234
 23
73.76611786628703
 33
0.0
  0
SOLID
  5
1273
330
2
100
AcDbEntity
  8
LOGO
 62
     5
100
AcDbTrace
 10
1879.433492960821
 20
73.76611786628703
 30
0.0
 11
1880.202349663766
 21
73.76611786628703
 31
0.0
 12
1879.433492960821
 22
69.92183435155656
 32
0.0
 13
1880.202349663766
 23
69.92183435155656
 33
0.0
  0
SOLID
  5
1274
330
2
100
AcDbEntity
  8
LOGO
 62
     5
100
AcDbTrace
 10
1882.367509982288
 20
73.76611786628703
 30
0.0
 11
1883.136366685234
 21
73.76611786628703
 31
0.0
 12
1882.367509982288
 22
69.92183435155656
 32
0.0
 13
1883.136366685234
 23
69.92183435155656
 33
0.0
  0
SOLID
  5
1275
330
2
100
AcDbEntity
  8
LOGO
 62
     5
100
AcDbTrace
 10
1888.018956962826
 20
72.22840446039453
 30
0.0
 11
1888.787813665773
 21
72.22840446039453
 31
0.0
 12
1888.018956962826
 22
69.92183435155656
 32
0.0
 13
1888.787813665773
 23
69.92183435155656
 33
0.0
  0
POLYLINE
  5
1276
330
2
100
AcDbEntity
  8
LOGO
 62
     5
100
AcDb2dPolyline
 66
     1
 10
0.0
 20
0.0
 30
0.0
 40
0.770088845098376
 41
0.770088845098376
  0
VERTEX
  5
1277
330
1276
100
AcDbEntity
  8
LOGO
 62
     5
100
AcDbVertex
100
AcDb2dVertex
 10
1888.405233527528
 20
72.22840446039453
 30
0.0
 42
1.0
  0
VERTEX
  5
1278
330
1276
100
AcDbEntity
  8
LOGO
 62
     5
100
AcDbVertex
100
AcDb2dVertex
 10
1886.094966992233
 20
72.22840446039453
 30
0.0
 42
1.0
  0
SEQEND
  5
1279
330
1276
100
AcDbEntity
  8
LOGO
 62
     5
  0
SOLID
  5
127A
330
2
100
AcDbEntity
  8
LOGO
 62
     5
100
AcDbTrace
 10
1884.046505035715
 20
74.30431755834906
 30
0.0
 11
1884.815361738662
 21
74.30431755834906
 31
0.0
 12
1884.046505035715
 22
74.9194029207068
 32
0.0
 13
1884.815361738662
 23
74.9194029207068
 33
0.0
  0
LINE
  5
127B
330
2
100
AcDbEntity
  8
LOGO
 62
     1
100
AcDbLine
 10
1953.795519976368
 20
69.03788067927365
 30
0.0
 11
1953.795519976368
 21
99.97895034840482
 31
0.0
  0
LINE
  5
127C
330
2
100
AcDbEntity
  8
LOGO
 62
     1
100
AcDbLine
 10
1912.540760417526
 20
69.03788067927365
 30
0.0
 11
1912.540760417526
 21
99.97895034840482
 31
0.0
  0
SOLID
  5
127D
330
2
100
AcDbEntity
  8
LOGO
 62
     2
100
AcDbTrace
 10
1905.369592406873
 20
98.75396071203972
 30
0.0
 11
1906.292220450409
 21
98.75396071203827
 31
0.0
 12
1905.369592406873
 22
77.61040138101754
 32
0.0
 13
1906.292220450409
 23
77.61040138101754
 33
0.0
  0
SOLID
  5
127E
330
2
100
AcDbEntity
  8
LOGO
 62
     5
100
AcDbTrace
 10
1905.369592406873
 20
97.06247596555726
 30
0.0
 11
1903.139907968329
 21
88.88696635756202
 31
0.0
 12
1905.369592406873
 22
77.61040138101754
 32
0.0
 13
1903.139907968329
 23
77.61040138101754
 33
0.0
  0
SOLID
  5
127F
330
2
100
AcDbEntity
  8
LOGO
 62
     5
100
AcDbTrace
 10
1906.292220450409
 20
77.61040138101754
 30
0.0
 11
1908.521904888953
 21
77.61040138101754
 31
0.0
 12
1906.292220450409
 22
98.75396071203827
 32
0.0
 13
1908.521904888953
 23
98.75396071203972
 33
0.0
  0
TEXT
  5
1280
330
2
100
AcDbEntity
  8
LOGO
 62
     6
100
AcDbText
 10
1919.099622581764
 20
71.61630315170123
 30
0.0
 40
5.156844944855196
  1
單位 Unit:
 41
0.9
  7
CHINESET
 72
     4
 11
1933.168140196947
 21
74.19472562412884
 31
0.0
100
AcDbText
  0
CIRCLE
  5
1281
330
2
100
AcDbEntity
  8
LOGO
 62
     5
100
AcDbCircle
 10
1902.627388090145
 20
71.84397610892182
 30
0.0
 40
1.153285054419328
  0
POLYLINE
  5
1282
330
2
100
AcDbEntity
  8
LOGO
 62
     5
100
AcDb2dPolyline
 66
     1
 10
0.0
 20
0.0
 30
0.0
 70
     1
  0
VERTEX
  5
1283
330
1282
100
AcDbEntity
  8
LOGO
 62
     5
100
AcDbVertex
100
AcDb2dVertex
 10
1901.474103035726
 20
71.84397610892182
 30
0.0
 42
1.000000057330635
  0
VERTEX
  5
1284
330
1282
100
AcDbEntity
  8
LOGO
 62
     5
100
AcDbVertex
100
AcDb2dVertex
 10
1903.780673144565
 20
71.84397610892182
 30
0.0
 42
1.000000057330635
  0
SEQEND
  5
1285
330
1282
100
AcDbEntity
  8
LOGO
 62
     5
  0
SOLID
  5
1286
330
2
100
AcDbEntity
  8
LOGO
 62
     5
100
AcDbTrace
 10
1907.753048186008
 20
72.22840446039453
 30
0.0
 11
1908.521904888953
 21
72.22840446039445
 31
0.0
 12
1907.753048186008
 22
69.92183435155656
 32
0.0
 13
1908.521904888953
 23
69.92183435155656
 33
0.0
  0
SOLID
  5
1287
330
2
100
AcDbEntity
  8
LOGO
 62
     5
100
AcDbTrace
 10
1905.446478077168
 20
69.92183435155656
 30
0.0
 11
1906.215334780115
 21
69.92183435155656
 31
0.0
 12
1905.446478077168
 22
73.76611786628703
 32
0.0
 13
1906.215334780115
 23
73.76611786628703
 33
0.0
  0
SOLID
  5
1288
330
2
100
AcDbEntity
  8
LOGO
 62
     5
100
AcDbTrace
 10
1903.780596258896
 20
73.76611786628703
 30
0.0
 11
1904.549452961841
 21
73.76611786628703
 31
0.0
 12
1903.780596258896
 22
69.92183435155656
 32
0.0
 13
1904.549452961841
 23
69.92183435155656
 33
0.0
  0
LINE
  5
1289
330
2
100
AcDbEntity
  8
LOGO
 62
     5
100
AcDbLine
 10
1908.521904888953
 20
69.92183435155656
 30
0.0
 11
1908.521904888953
 21
72.22840446039453
 31
0.0
  0
POLYLINE
  5
128A
330
2
100
AcDbEntity
  8
LOGO
 62
     5
100
AcDb2dPolyline
 66
     1
 10
0.0
 20
0.0
 30
0.0
 70
     1
 40
0.770088845098376
 41
0.770088845098376
  0
VERTEX
  5
128B
330
128A
100
AcDbEntity
  8
LOGO
 62
     5
100
AcDbVertex
100
AcDb2dVertex
 10
1901.087210399948
 20
71.8439761089214
 30
0.0
 42
1.0
  0
VERTEX
  5
128C
330
128A
100
AcDbEntity
  8
LOGO
 62
     5
100
AcDbVertex
100
AcDb2dVertex
 10
1904.167565780342
 20
71.8439761089214
 30
0.0
 42
1.0
  0
SEQEND
  5
128D
330
128A
100
AcDbEntity
  8
LOGO
 62
     5
  0
SOLID
  5
128E
330
2
100
AcDbEntity
  8
LOGO
 62
     5
100
AcDbTrace
 10
1896.732717519998
 20
72.22840446039453
 30
0.0
 11
1897.501574222944
 21
72.22840446039453
 31
0.0
 12
1896.732717519998
 22
69.92183435155656
 32
0.0
 13
1897.501574222944
 23
69.92183435155656
 33
0.0
  0
SOLID
  5
128F
330
2
100
AcDbEntity
  8
LOGO
 62
     5
100
AcDbTrace
 10
1899.039287628836
 20
72.22840446039453
 30
0.0
 11
1899.808144331782
 21
72.22840446039453
 31
0.0
 12
1899.039287628836
 22
69.92183435155507
 32
0.0
 13
1899.808144331782
 23
69.92183435155507
 33
0.0
  0
POLYLINE
  5
1290
330
2
100
AcDbEntity
  8
LOGO
 62
     5
100
AcDb2dPolyline
 66
     1
 10
0.0
 20
0.0
 30
0.0
 40
0.770088845098376
 41
0.770088845098376
  0
VERTEX
  5
1291
330
1290
100
AcDbEntity
  8
LOGO
 62
     5
100
AcDbVertex
100
AcDb2dVertex
 10
1899.425564193538
 20
72.22840446039453
 30
0.0
 42
1.0
  0
VERTEX
  5
1292
330
1290
100
AcDbEntity
  8
LOGO
 62
     5
100
AcDbVertex
100
AcDb2dVertex
 10
1897.115297658242
 20
72.22840446039453
 30
0.0
 42
1.0
  0
SEQEND
  5
1293
330
1290
100
AcDbEntity
  8
LOGO
 62
     5
  0
POLYLINE
  5
1294
330
2
100
AcDbEntity
  8
LOGO
 62
     5
100
AcDb2dPolyline
 66
     1
 10
0.0
 20
0.0
 30
0.0
 40
0.770088845098376
 41
0.770088845098376
  0
VERTEX
  5
1295
330
1294
100
AcDbEntity
  8
LOGO
 62
     5
100
AcDbVertex
100
AcDb2dVertex
 10
1908.139324750709
 20
72.22840446039453
 30
0.0
 42
1.0
  0
VERTEX
  5
1296
330
1294
100
AcDbEntity
  8
LOGO
 62
     5
100
AcDbVertex
100
AcDb2dVertex
 10
1905.829058215413
 20
72.22840446039453
 30
0.0
 42
1.0
  0
SEQEND
  5
1297
330
1294
100
AcDbEntity
  8
LOGO
 62
     5
  0
TEXT
  5
1298
330
2
100
AcDbEntity
  8
LOGO
 62
     6
100
AcDbText
 10
1918.595448901887
 20
82.00253232192691
 30
0.0
 40
5.156844944855196
  1
投影 View:
 41
0.9
  7
CHINESET
 72
     4
 11
1933.168140196947
 21
84.5084155138392
 31
0.0
100
AcDbText
  0
TEXT
  5
1299
330
2
100
AcDbEntity
  8
LOGO
 62
     6
100
AcDbText
 10
1916.79285533411
 20
92.24622074851614
 30
0.0
 40
5.156844944855196
  1
比例 Scale:
 41
0.9
  7
CHINESET
 72
     4
 11
1933.168140196947
 21
94.82210540354961
 31
0.0
100
AcDbText
  0
CIRCLE
  5
129A
330
2
100
AcDbEntity
  8
LOGO
  6
CONTINUOUS
 62
     6
100
AcDbCircle
 10
1963.344063399737
 20
84.51944604291307
 30
0.0
 40
1.754327674059902
  0
LINE
  5
12BA
330
2
100
AcDbEntity
  8
0
 62
     4
100
AcDbLine
 10
2256.274697440292
 20
382.1592413180828
 30
0.0
 11
2256.274697440292
 21
99.97895034840482
 31
0.0
  0
LINE
  5
12BB
330
2
100
AcDbEntity
  8
LOGO
 62
     6
100
AcDbLine
 10
2249.431857642087
 20
52.70787168723237
 30
0.0
 11
2203.625216782419
 21
52.70787168723228
 31
0.0
  0
LINE
  5
12BC
330
2
100
AcDbEntity
  8
LOGO
 62
     6
100
AcDbLine
 10
2249.431857642087
 20
71.61637508074992
 30
0.0
 11
2203.625216782419
 21
71.61637508074992
 31
0.0
  0
LINE
  5
12BD
330
2
100
AcDbEntity
  8
LOGO
 62
     6
100
AcDbLine
 10
2249.431857642087
 20
79.35161852168312
 30
0.0
 11
2203.625216782419
 21
79.35161852168318
 31
0.0
  0
LINE
  5
12BE
330
2
100
AcDbEntity
  8
LOGO
 62
     6
100
AcDbLine
 10
2249.431857642087
 20
94.82210540354987
 30
0.0
 11
2203.625216782419
 21
94.82210540354969
 31
0.0
  0
LINE
  5
12BF
330
2
100
AcDbEntity
  8
LOGO
 62
     6
100
AcDbLine
 10
2155.578251058594
 20
79.3516185216831
 30
0.0
 11
2105.299168692527
 21
79.35161852168312
 31
0.0
  0
LINE
  5
12C0
330
2
100
AcDbEntity
  8
LOGO
 62
     6
100
AcDbLine
 10
2155.578251058594
 20
94.82210540354987
 30
0.0
 11
2105.299168692527
 21
94.82210540354961
 31
0.0
  0
LINE
  5
12C1
330
2
100
AcDbEntity
  8
LOGO
 62
     6
100
AcDbLine
 10
2155.578251058594
 20
52.70787168723228
 30
0.0
 11
2105.299168692527
 21
52.70787168723228
 31
0.0
  0
LINE
  5
12C2
330
2
100
AcDbEntity
  8
LOGO
 62
     6
100
AcDbLine
 10
2155.578251058594
 20
71.61637508074986
 30
0.0
 11
2105.299168692527
 21
71.61637508074986
 31
0.0
  0
TEXT
  5
12C3
330
2
100
AcDbEntity
  8
LOGO
 62
     6
100
AcDbText
 10
2107.192052338788
 20
54.85656374101903
 30
0.0
 40
4.29735746718514
  1
Rotating direction
 41
0.8
  7
ROMANS1
 72
     1
 11
2130.438709875561
 21
57.0052424746116
 31
0.0
100
AcDbText
 73
     2
  0
TEXT
  5
12C4
330
2
100
AcDbEntity
  8
LOGO
 62
     7
100
AcDbText
 10
1991.162041768139
 20
77.38769015714499
 30
0.0
 40
6.875793259806928
  1
Order example:
 41
0.8
  7
CHINESET
100
AcDbText
  0
LINE
  5
12C5
330
2
100
AcDbEntity
  8
LOGO
 62
     1
100
AcDbLine
 10
1988.174486275402
 20
48.41050089985282
 30
0.0
 11
1988.174486275402
 21
99.97895034840482
 31
0.0
  0
TEXT
  5
12C6
330
2
100
AcDbEntity
  8
LOGO
 62
     7
100
AcDbText
 10
1992.395615939445
 20
87.06738341579301
 30
0.0
 40
10.31368988971039
  1
訂購代號:
  7
CHINESET
100
AcDbText
  0
LINE
  5
12C7
330
2
100
AcDbEntity
  8
LOGO
 62
     6
100
AcDbLine
 10
1982.159872848093
 20
81.52526048948274
 30
0.0
 11
1982.159872848093
 21
87.51363159634351
 31
0.0
  0
LINE
  5
12C8
330
2
100
AcDbEntity
  8
LOGO
  6
CONTINUOUS
 62
     6
100
AcDbLine
 10
1972.773273012541
 20
86.27377371697305
 30
0.0
 11
1982.159872848093
 21
87.51363159634351
 31
0.0
  0
LINE
  5
12C9
330
2
100
AcDbEntity
  8
LOGO
  6
CONTINUOUS
 62
     6
100
AcDbLine
 10
1972.773273012541
 20
82.76511836885322
 30
0.0
 11
1982.159872848093
 21
81.52526048948274
 31
0.0
  0
LINE
  5
12CA
330
2
100
AcDbEntity
  8
LOGO
 62
     6
100
AcDbLine
 10
1972.773273012541
 20
82.76511836885319
 30
0.0
 11
1972.773273012541
 21
86.27377371697305
 31
0.0
  0
LINE
  5
12CB
330
2
100
AcDbEntity
  8
LOGO
 62
     6
100
AcDbLine
 10
2079.731979547333
 20
79.35157056898401
 30
0.0
 11
2079.731979547333
 21
71.61630315170123
 31
0.0
  0
TEXT
  5
12CC
330
2
100
AcDbEntity
  8
LOGO
  6
CONTINUOUS
 62
     6
100
AcDbText
 10
2071.546511380896
 20
54.85655708092182
 30
0.0
 40
4.29737078737933
  1
Model
  7
CHINESET
 72
     4
 11
2079.731979547333
 21
57.00524247461149
 31
0.0
100
AcDbText
  0
TEXT
  5
12CD
330
2
100
AcDbEntity
  8
LOGO
 62
     6
100
AcDbText
 10
2072.856186287526
 20
62.33804275879244
 30
0.0
 40
6.875793259806928
  1
型式
  7
CHINESET
 72
     4
 11
2079.731979547333
 21
65.59998404937013
 31
0.0
100
AcDbText
  0
LINE
  5
12CE
330
2
100
AcDbEntity
  8
LOGO
 62
     6
100
AcDbLine
 10
2098.92146269685
 20
52.70787168723211
 30
0.0
 11
2062.542496397816
 21
52.70787168723211
 31
0.0
  0
LINE
  5
12CF
330
2
100
AcDbEntity
  8
LOGO
 62
     6
100
AcDbLine
 10
2098.92146269685
 20
71.61630315170123
 30
0.0
 11
2062.542496397816
 21
71.61630315170123
 31
0.0
  0
LINE
  5
12D0
330
2
100
AcDbEntity
  8
LOGO
 62
     6
100
AcDbLine
 10
2062.542496397816
 20
71.61630315170123
 30
0.0
 11
2062.542496397816
 21
52.70787168723211
 31
0.0
  0
LINE
  5
12D1
330
2
100
AcDbEntity
  8
LOGO
 62
     6
100
AcDbLine
 10
2105.299168692527
 20
71.61637508074986
 30
0.0
 11
2105.299168692527
 21
52.70787168723228
 31
0.0
  0
LINE
  5
12D2
330
2
100
AcDbEntity
  8
LOGO
 62
     6
100
AcDbLine
 10
2098.92146269685
 20
71.61630315170123
 30
0.0
 11
2098.92146269685
 21
52.70787168723217
 31
0.0
  0
TEXT
  5
12D3
330
2
100
AcDbEntity
  8
LOGO
  6
CONTINUOUS
 62
     7
100
AcDbText
 10
2060.677582539562
 20
82.78946719888747
 30
0.0
 40
8.594741574758661
  1
MATSD
  7
CHINESET
 72
     1
 11
2080.731979547333
 21
87.0868379862668
 31
0.0
100
AcDbText
 73
     2
  0
LINE
  5
12D4
330
2
100
AcDbEntity
  8
LOGO
 62
     6
100
AcDbLine
 10
2102.359359326754
 20
79.35157056898401
 30
0.0
 11
2059.104599767913
 21
79.35157056898401
 31
0.0
  0
LINE
  5
12D5
330
2
100
AcDbEntity
  8
LOGO
 62
     6
100
AcDbLine
 10
2102.359359326754
 20
94.82210540354961
 30
0.0
 11
2059.104599767913
 21
94.82210540354961
 31
0.0
  0
LINE
  5
12D6
330
2
100
AcDbEntity
  8
LOGO
 62
     6
100
AcDbLine
 10
2059.104599767913
 20
94.82210540354961
 30
0.0
 11
2059.104599767913
 21
79.35157056898401
 31
0.0
  0
LINE
  5
12D7
330
2
100
AcDbEntity
  8
LOGO
 62
     6
100
AcDbLine
 10
2105.299168692527
 20
94.82210540354961
 30
0.0
 11
2105.299168692527
 21
79.35161852168312
 31
0.0
  0
LINE
  5
12D8
330
2
100
AcDbEntity
  8
LOGO
 62
     6
100
AcDbLine
 10
2105.299168692527
 20
94.82210540354961
 30
0.0
 11
2105.299168692527
 21
79.35157056898401
 31
0.0
  0
LINE
  5
12D9
330
2
100
AcDbEntity
  8
LOGO
 62
     6
100
AcDbLine
 10
2102.359359326754
 20
94.82210540354961
 30
0.0
 11
2102.359359326754
 21
79.35157056898401
 31
0.0
  0
TEXT
  5
12DA
330
2
100
AcDbEntity
  8
LOGO
  6
CONTINUOUS
 62
     6
100
AcDbText
 10
2174.558856320082
 20
54.85655708092194
 30
0.0
 40
4.29737078737933
  1
Bore
 41
0.8
  7
CHINESET
 72
     4
 11
2179.879410628266
 21
57.0052424746116
 31
0.0
100
AcDbText
  0
TEXT
  5
12DB
330
2
100
AcDbEntity
  8
LOGO
 62
     6
100
AcDbText
 10
2173.304433323576
 20
62.16208741946676
 30
0.0
 40
6.875793259806928
  1
內徑
 41
0.9
  7
CHINESET
 72
     4
 11
2179.879410628266
 21
65.59998404937022
 31
0.0
100
AcDbText
  0
LINE
  5
12DC
330
2
100
AcDbEntity
  8
LOGO
 62
     6
100
AcDbLine
 10
2192.678615468824
 20
52.70787168723228
 30
0.0
 11
2167.080205787708
 21
52.70787168723223
 31
0.0
  0
LINE
  5
12DD
330
2
100
AcDbEntity
  8
LOGO
 62
     6
100
AcDbLine
 10
2192.678615468824
 20
71.61630315170132
 30
0.0
 11
2167.080205787708
 21
71.61630315170132
 31
0.0
  0
TEXT
  5
12DE
330
2
100
AcDbEntity
  8
LOGO
  6
CONTINUOUS
 62
     7
100
AcDbText
 10
2173.72393878849
 20
82.69200228785129
 30
0.0
 40
8.594741574758661
  1
50
  7
CHINESET
 72
     1
 11
2180.681586729961
 21
86.98937307523062
 31
0.0
100
AcDbText
 73
     2
  0
LINE
  5
12DF
330
2
100
AcDbEntity
  8
LOGO
 62
     6
100
AcDbLine
 10
2192.678615468824
 20
79.35157056898415
 30
0.0
 11
2167.080205787708
 21
79.35157056898415
 31
0.0
  0
LINE
  5
12E0
330
2
100
AcDbEntity
  8
LOGO
 62
     6
100
AcDbLine
 10
2192.678615468824
 20
94.82210540354978
 30
0.0
 11
2167.080205787708
 21
94.82210540354973
 31
0.0
  0
LINE
  5
12E1
330
2
100
AcDbEntity
  8
LOGO
 62
     6
100
AcDbLine
 10
2130.438709875561
 20
79.35161852168312
 30
0.0
 11
2130.438709875561
 21
71.61637508074986
 31
0.0
  0
TEXT
  5
12E2
330
2
100
AcDbEntity
  8
LOGO
 62
     6
100
AcDbText
 10
2118.320124255152
 20
62.36990646607427
 30
0.0
 40
6.875793259806928
  1
旋轉方向
 41
0.9
  7
CHINESET
 72
     4
 11
2130.438709875561
 21
65.59998404937022
 31
0.0
100
AcDbText
  0
LINE
  5
12E3
330
2
100
AcDbEntity
  8
LOGO
 62
     6
100
AcDbLine
 10
2167.080205787708
 20
71.61630315170132
 30
0.0
 11
2167.080205787708
 21
52.70787168723228
 31
0.0
  0
LINE
  5
12E4
330
2
100
AcDbEntity
  8
LOGO
 62
     6
100
AcDbLine
 10
2155.578251058594
 20
71.61637508074986
 30
0.0
 11
2155.578251058594
 21
52.70787168723228
 31
0.0
  0
LINE
  5
12E5
330
2
100
AcDbEntity
  8
LOGO
 62
     6
100
AcDbLine
 10
2167.080205787708
 20
94.82210540354973
 30
0.0
 11
2167.080205787708
 21
79.35157056898415
 31
0.0
  0
LINE
  5
12E6
330
2
100
AcDbEntity
  8
LOGO
 62
     6
100
AcDbLine
 10
2155.578251058594
 20
94.82210540354973
 30
0.0
 11
2155.578251058594
 21
79.35161852168312
 31
0.0
  0
LINE
  5
12E7
330
2
100
AcDbEntity
  8
LOGO
  6
CONTINUOUS
 62
     7
100
AcDbLine
 10
2157.827563222113
 20
87.03203890696048
 30
0.0
 11
2164.658786910324
 21
87.03203890696048
 31
0.0
  0
LINE
  5
12E8
330
2
100
AcDbEntity
  8
LOGO
 62
     6
100
AcDbLine
 10
2178.879410231903
 20
79.35157056898415
 30
0.0
 11
2178.879410231903
 21
71.61630315170132
 31
0.0
  0
LINE
  5
12E9
330
2
100
AcDbEntity
  8
LOGO
 62
     6
100
AcDbLine
 10
2227.025475325258
 20
79.35161852168318
 30
0.0
 11
2227.025475325258
 21
71.61637508074992
 31
0.0
  0
TEXT
  5
12EA
330
2
100
AcDbEntity
  8
LOGO
 62
     6
100
AcDbText
 10
2207.871539185804
 20
54.85656374101903
 30
0.0
 40
4.29735746718514
  1
Rotating angle
 41
0.8
  7
ROMANS1
 72
     1
 11
2227.025475325258
 21
57.0052424746116
 31
0.0
100
AcDbText
 73
     2
  0
LINE
  5
12EB
330
2
100
AcDbEntity
  8
LOGO
 62
     6
100
AcDbLine
 10
2192.678615468824
 20
71.61630315170132
 30
0.0
 11
2192.678615468824
 21
52.70787168723234
 31
0.0
  0
LINE
  5
12EC
330
2
100
AcDbEntity
  8
LOGO
 62
     6
100
AcDbLine
 10
2203.625216782419
 20
71.61637508074992
 30
0.0
 11
2203.625216782419
 21
52.70787168723228
 31
0.0
  0
TEXT
  5
12ED
330
2
100
AcDbEntity
  8
LOGO
 62
     6
100
AcDbText
 10
2214.713508019416
 20
62.37667397912527
 30
0.0
 40
6.875793259806928
  1
旋轉角度
 41
0.9
  7
CHINESET
 72
     4
 11
2227.025475325258
 21
65.59998404937022
 31
0.0
100
AcDbText
  0
LINE
  5
12EE
330
2
100
AcDbEntity
  8
LOGO
 62
     6
100
AcDbLine
 10
2192.678615468824
 20
94.82210540354978
 30
0.0
 11
2192.678615468824
 21
79.35157056898415
 31
0.0
  0
LINE
  5
12EF
330
2
100
AcDbEntity
  8
LOGO
 62
     6
100
AcDbLine
 10
2203.625216782419
 20
94.82210540354969
 30
0.0
 11
2203.625216782419
 21
79.35161852168318
 31
0.0
  0
LINE
  5
12F0
330
2
100
AcDbEntity
  8
LOGO
  6
CONTINUOUS
 62
     7
100
AcDbLine
 10
2194.793636610238
 20
87.03203890696059
 30
0.0
 11
2201.624860298449
 21
87.03203890696059
 31
0.0
  0
LINE
  5
1309
330
2
100
AcDbEntity
  8
LOGO
 62
     1
100
AcDbLine
 10
2256.274697440292
 20
48.41050089985282
 30
0.0
 11
2256.274697440292
 21
99.97895034840482
 31
0.0
  0
LINE
  5
130A
330
2
100
AcDbEntity
  8
LOGO
 62
     6
100
AcDbLine
 10
2249.431857642087
 20
71.61637508074992
 30
0.0
 11
2249.431857642087
 21
52.70787168723237
 31
0.0
  0
LINE
  5
130B
330
2
100
AcDbEntity
  8
LOGO
 62
     6
100
AcDbLine
 10
2249.431857642087
 20
94.82210540354975
 30
0.0
 11
2249.431857642087
 21
79.35161852168318
 31
0.0
  0
LINE
  5
3412
330
2
100
AcDbEntity
  8
0
100
AcDbLine
 10
1970.85319452364
 20
190.4094895962981
 30
0.0
 11
2033.853194523639
 21
190.4094895962981
 31
0.0
  0
ARC
  5
3415
330
2
100
AcDbEntity
  8
0
100
AcDbCircle
 10
2002.35319452364
 20
333.3315389239312
 30
0.0
 40
32.5
100
AcDbArc
 50
199.7831703726615
 51
340.2168296273384
  0
LINE
  5
3416
330
2
100
AcDbEntity
  8
0
100
AcDbLine
 10
1970.85319452364
 20
140.4094895962981
 30
0.0
 11
2033.853194523639
 21
140.4094895962981
 31
0.0
  0
LINE
  5
3418
102
{ACAD_REACTORS
330
3687
102
}
330
2
100
AcDbEntity
  8
0
100
AcDbLine
 10
1971.85319452364
 20
131.4094895962981
 30
0.0
 11
2032.85319452364
 21
131.4094895962981
 31
0.0
  0
ARC
  5
3419
330
2
100
AcDbEntity
  8
0
100
AcDbCircle
 10
2002.35319452364
 20
333.3315389239312
 30
0.0
 40
31.0
100
AcDbArc
 50
200.7835595958457
 51
339.2164404041543
  0
LINE
  5
341E
330
2
100
AcDbEntity
  8
0
100
AcDbLine
 10
1973.35319452364
 20
211.4094895962981
 30
0.0
 11
2031.35319452364
 21
211.4094895962981
 31
0.0
  0
LINE
  5
3426
102
{ACAD_REACTORS
330
3743
102
}
330
2
100
AcDbEntity
  8
0
100
AcDbLine
 10
1969.85319452364
 20
189.4094895962981
 30
0.0
 11
1969.85319452364
 21
141.4094895962981
 31
0.0
  0
LINE
  5
3427
330
2
100
AcDbEntity
  8
0
100
AcDbLine
 10
1971.35319452364
 20
209.4094895962981
 30
0.0
 11
1971.35319452364
 21
190.4094895962981
 31
0.0
  0
LINE
  5
3428
330
2
100
AcDbEntity
  8
0
100
AcDbLine
 10
1971.85319452364
 20
131.4094895962981
 30
0.0
 11
1971.35319452364
 21
131.9094895962981
 31
0.0
  0
LINE
  5
3429
330
2
100
AcDbEntity
  8
0
100
AcDbLine
 10
1970.85319452364
 20
140.4094895962981
 30
0.0
 11
1969.85319452364
 21
141.4094895962981
 31
0.0
  0
LINE
  5
342A
330
2
100
AcDbEntity
  8
0
100
AcDbLine
 10
1973.35319452364
 20
211.4094895962981
 30
0.0
 11
1971.35319452364
 21
209.4094895962981
 31
0.0
  0
LINE
  5
342B
330
2
100
AcDbEntity
  8
0
100
AcDbLine
 10
1969.85319452364
 20
189.4094895962981
 30
0.0
 11
1970.85319452364
 21
190.4094895962981
 31
0.0
  0
LINE
  5
3433
330
2
100
AcDbEntity
  8
CENTER
100
AcDbLine
 10
2002.35319452364
 20
271.9744731678981
 30
0.0
 11
2002.35319452364
 21
128.5382620215981
 31
0.0
  0
LINE
  5
3439
330
2
100
AcDbEntity
  8
CENTER
100
AcDbLine
 10
2002.35319452364
 20
145.6731963569981
 30
0.0
 11
2002.35319452364
 21
128.8019687822981
 31
0.0
  0
LINE
  5
343B
330
2
100
AcDbEntity
  8
0
100
AcDbLine
 10
1992.35319452364
 20
244.4094895962981
 30
0.0
 11
1992.35319452364
 21
211.4094895962981
 31
0.0
  0
LINE
  5
343F
330
2
100
AcDbEntity
  8
0
100
AcDbLine
 10
2012.35319452364
 20
244.4094895962981
 30
0.0
 11
2012.35319452364
 21
211.4094895962981
 31
0.0
  0
LINE
  5
3440
102
{ACAD_REACTORS
330
3743
102
}
330
2
100
AcDbEntity
  8
0
100
AcDbLine
 10
2034.853194523639
 20
189.4094895962981
 30
0.0
 11
2034.853194523639
 21
141.4094895962981
 31
0.0
  0
LINE
  5
3441
330
2
100
AcDbEntity
  8
0
100
AcDbLine
 10
2033.35319452364
 20
209.4094895962981
 30
0.0
 11
2033.35319452364
 21
190.4094895962981
 31
0.0
  0
LINE
  5
3442
330
2
100
AcDbEntity
  8
0
100
AcDbLine
 10
2033.35319452364
 20
131.9094895962981
 30
0.0
 11
2032.85319452364
 21
131.4094895962981
 31
0.0
  0
LINE
  5
3443
330
2
100
AcDbEntity
  8
0
100
AcDbLine
 10
2034.853194523639
 20
141.4094895962981
 30
0.0
 11
2033.853194523639
 21
140.4094895962981
 31
0.0
  0
LINE
  5
3445
330
2
100
AcDbEntity
  8
0
100
AcDbLine
 10
2033.35319452364
 20
209.4094895962981
 30
0.0
 11
2031.35319452364
 21
211.4094895962981
 31
0.0
  0
LINE
  5
3446
330
2
100
AcDbEntity
  8
0
100
AcDbLine
 10
2033.853194523639
 20
190.4094895962981
 30
0.0
 11
2034.853194523639
 21
189.4094895962981
 31
0.0
  0
LINE
  5
3447
330
2
100
AcDbEntity
  8
CENTER
100
AcDbLine
 10
2002.35319452364
 20
296.3079702434312
 30
0.0
 11
2002.35319452364
 21
369.7913958740312
 31
0.0
  0
LINE
  5
3450
330
2
100
AcDbEntity
  8
0
100
AcDbLine
 10
1971.35319452364
 20
140.4094895962981
 30
0.0
 11
1971.35319452364
 21
131.9094895962981
 31
0.0
  0
LINE
  5
3451
330
2
100
AcDbEntity
  8
0
100
AcDbLine
 10
2033.35319452364
 20
140.4094895962981
 30
0.0
 11
2033.35319452364
 21
131.9094895962981
 31
0.0
  0
LINE
  5
3452
330
2
100
AcDbEntity
  8
AM_4
100
AcDbLine
 10
1971.35319452364
 20
190.4094895962981
 30
0.0
 11
1971.35319452364
 21
140.4094895962981
 31
0.0
  0
LINE
  5
3453
102
{ACAD_REACTORS
330
3687
330
36BF
102
}
330
2
100
AcDbEntity
  8
AM_4
100
AcDbLine
 10
2033.35319452364
 20
190.4094895962981
 30
0.0
 11
2033.35319452364
 21
140.4094895962981
 31
0.0
  0
DIMENSION
  5
3670
102
{ACAD_XDICTIONARY
360
367D
102
}
102
{ACAD_REACTORS
330
3687
102
}
330
2
100
AcDbEntity
  8
AM_5
100
AcDbDimension
  2
*D11
 10
2057.445906333906
 20
140.4094895962981
 30
0.0
 11
2053.695906333905
 21
135.9094895962984
 31
0.0
 70
    32
  3
AM_ISO
100
AcDbAlignedDimension
 13
2032.85319452364
 23
131.4094895962981
 33
0.0
 14
2033.35319452364
 24
140.4094895962981
 34
0.0
 50
90.0
100
AcDbRotatedDimension
1001
ACAD
1000
DSTYLE
1002
{
1070
   173
1070
     1
1070
     7
1000
GENDOT
1002
}
  0
DIMENSION
  5
36A8
102
{ACAD_XDICTIONARY
360
36B5
102
}
102
{ACAD_REACTORS
330
36BF
102
}
330
2
100
AcDbEntity
  8
AM_5
100
AcDbDimension
  2
*D12
 10
2057.445906333906
 20
190.4094895962981
 30
0.0
 11
2053.684095310284
 21
165.4094895962985
 31
0.0
 70
    32
  3
AM_ISO
100
AcDbAlignedDimension
 13
2033.35319452364
 23
140.4094895962981
 33
0.0
 14
2033.35319452364
 24
190.4094895962981
 34
0.0
 50
90.0
100
AcDbRotatedDimension
  0
DIMENSION
  5
36D5
330
2
100
AcDbEntity
  8
AM_5
100
AcDbDimension
  2
*D15
 10
2084.353194523639
 20
266.4094895962981
 30
0.0
 11
2080.591383500018
 21
198.9094895962985
 31
0.0
 70
    32
  3
AM_ISO
100
AcDbAlignedDimension
 13
2035.35319452364
 23
131.4094895962981
 33
0.0
 14
2061.353194523639
 24
266.4094895962981
 34
0.0
 50
90.0
100
AcDbRotatedDimension
  0
DIMENSION
  5
36D8
330
2
100
AcDbEntity
  8
AM_5
100
AcDbDimension
  2
*D14
 10
2074.35319452364
 20
131.4094895962981
 30
0.0
 11
2070.60319452364
 21
187.9094895962984
 31
0.0
 70
    32
  3
AM_ISO
100
AcDbAlignedDimension
 13
2061.353194523639
 23
244.4094895962981
 33
0.0
 14
2035.35319452364
 24
131.4094895962981
 34
0.0
 50
90.0
100
AcDbRotatedDimension
  0
DIMENSION
  5
36DB
330
2
100
AcDbEntity
  8
AM_5
100
AcDbDimension
  2
*D13
 10
2074.35319452364
 20
244.4094895962981
 30
0.0
 11
2074.35319452364
 21
256.9094895962984
 31
0.0
 70
   160
  3
AM_ISO
100
AcDbAlignedDimension
 13
2061.353194523639
 23
266.4094895962981
 33
0.0
 14
2061.353194523639
 24
244.4094895962981
 34
0.0
 50
90.0
100
AcDbRotatedDimension
  0
DIMENSION
  5
372C
102
{ACAD_XDICTIONARY
360
3739
102
}
102
{ACAD_REACTORS
330
3743
102
}
330
2
100
AcDbEntity
  8
AM_5
100
AcDbDimension
  2
*D16
 10
2034.853194523639
 20
116.5382610215981
 30
0.0
 11
2002.35319452364
 21
120.3000720452201
 31
0.0
 70
    32
  1
M<>x1.5
  3
AM_ISO
100
AcDbAlignedDimension
 13
1969.85319452364
 23
141.4094895962981
 33
0.0
 14
2034.853194523639
 24
141.4094895962981
 34
0.0
 50
0.0000000000002036
100
AcDbRotatedDimension
  0
LINE
  5
3977
330
2
100
AcDbEntity
  8
0
100
AcDbLine
 10
2182.045147193027
 20
244.4094895962981
 30
0.0
 11
2182.045147193027
 21
211.4094895962981
 31
0.0
  0
LINE
  5
3978
330
2
100
AcDbEntity
  8
0
100
AcDbLine
 10
2162.045147193027
 20
244.4094895962981
 30
0.0
 11
2162.045147193027
 21
211.4094895962981
 31
0.0
  0
LINE
  5
3979
330
2
100
AcDbEntity
  8
CENTER
100
AcDbLine
 10
2172.045147193027
 20
268.9744731678981
 30
0.0
 11
2172.045147193027
 21
128.5382620215981
 31
0.0
  0
LINE
  5
397A
330
2
100
AcDbEntity
  8
AM_4
100
AcDbLine
 10
2203.045147193027
 20
190.4094895962981
 30
0.0
 11
2203.045147193027
 21
140.4094895962981
 31
0.0
  0
LINE
  5
397B
330
2
100
AcDbEntity
  8
AM_4
100
AcDbLine
 10
2141.045147193027
 20
190.4094895962981
 30
0.0
 11
2141.045147193027
 21
140.4094895962981
 31
0.0
  0
LINE
  5
397C
330
2
100
AcDbEntity
  8
0
100
AcDbLine
 10
2204.545147193027
 20
189.4094895962981
 30
0.0
 11
2204.545147193027
 21
141.4094895962981
 31
0.0
  0
LINE
  5
397D
330
2
100
AcDbEntity
  8
0
100
AcDbLine
 10
2139.545147193027
 20
189.4094895962981
 30
0.0
 11
2139.545147193027
 21
141.4094895962981
 31
0.0
  0
LINE
  5
397E
330
2
100
AcDbEntity
  8
0
100
AcDbLine
 10
2140.545147193027
 20
140.4094895962981
 30
0.0
 11
2203.545147193027
 21
140.4094895962981
 31
0.0
  0
LINE
  5
397F
330
2
100
AcDbEntity
  8
0
100
AcDbLine
 10
2141.545147193027
 20
131.4094895962981
 30
0.0
 11
2202.545147193027
 21
131.4094895962981
 31
0.0
  0
LINE
  5
3981
330
2
100
AcDbEntity
  8
0
100
AcDbLine
 10
2141.045147193027
 20
140.4094895962981
 30
0.0
 11
2141.045147193027
 21
131.9094895962981
 31
0.0
  0
LINE
  5
3986
330
2
100
AcDbEntity
  8
0
100
AcDbLine
 10
2141.545147193027
 20
131.4094895962981
 30
0.0
 11
2141.045147193027
 21
131.9094895962981
 31
0.0
  0
LINE
  5
3987
330
2
100
AcDbEntity
  8
0
100
AcDbLine
 10
2140.545147193027
 20
140.4094895962981
 30
0.0
 11
2139.545147193027
 21
141.4094895962981
 31
0.0
  0
LINE
  5
3988
330
2
100
AcDbEntity
  8
0
100
AcDbLine
 10
2203.045147193027
 20
140.4094895962981
 30
0.0
 11
2203.045147193027
 21
131.9094895962981
 31
0.0
  0
LINE
  5
3989
330
2
100
AcDbEntity
  8
0
100
AcDbLine
 10
2203.045147193027
 20
131.9094895962981
 30
0.0
 11
2202.545147193027
 21
131.4094895962981
 31
0.0
  0
LINE
  5
398A
330
2
100
AcDbEntity
  8
0
100
AcDbLine
 10
2204.545147193027
 20
141.4094895962981
 30
0.0
 11
2203.545147193027
 21
140.4094895962981
 31
0.0
  0
LINE
  5
398B
330
2
100
AcDbEntity
  8
0
100
AcDbLine
 10
2143.045147193027
 20
211.4094895962981
 30
0.0
 11
2201.045147193027
 21
211.4094895962981
 31
0.0
  0
LINE
  5
398C
330
2
100
AcDbEntity
  8
0
100
AcDbLine
 10
2140.545147193027
 20
190.4094895962981
 30
0.0
 11
2203.545147193027
 21
190.4094895962981
 31
0.0
  0
LINE
  5
398D
330
2
100
AcDbEntity
  8
0
100
AcDbLine
 10
2141.045147193027
 20
209.4094895962981
 30
0.0
 11
2141.045147193027
 21
190.4094895962981
 31
0.0
  0
LINE
  5
398E
330
2
100
AcDbEntity
  8
0
100
AcDbLine
 10
2139.545147193027
 20
189.4094895962981
 30
0.0
 11
2140.545147193027
 21
190.4094895962981
 31
0.0
  0
LINE
  5
3992
330
2
100
AcDbEntity
  8
0
100
AcDbLine
 10
2143.045147193027
 20
211.4094895962981
 30
0.0
 11
2141.045147193027
 21
209.4094895962981
 31
0.0
  0
LINE
  5
3993
330
2
100
AcDbEntity
  8
0
100
AcDbLine
 10
2203.045147193027
 20
209.4094895962981
 30
0.0
 11
2203.045147193027
 21
190.4094895962981
 31
0.0
  0
LINE
  5
3994
330
2
100
AcDbEntity
  8
0
100
AcDbLine
 10
2203.545147193027
 20
190.4094895962981
 30
0.0
 11
2204.545147193027
 21
189.4094895962981
 31
0.0
  0
LINE
  5
3995
330
2
100
AcDbEntity
  8
0
100
AcDbLine
 10
2203.045147193027
 20
209.4094895962981
 30
0.0
 11
2201.045147193027
 21
211.4094895962981
 31
0.0
  0
LINE
  5
39CF
330
2
100
AcDbEntity
  8
0
100
AcDbLine
 10
2184.545147193027
 20
265.4094895962981
 30
0.0
 11
2184.545147193027
 21
245.4094895962981
 31
0.0
  0
LINE
  5
39D0
330
2
100
AcDbEntity
  8
0
100
AcDbLine
 10
2159.545147193027
 20
265.4094895962981
 30
0.0
 11
2159.545147193027
 21
245.4094895962981
 31
0.0
  0
LINE
  5
39D1
330
2
100
AcDbEntity
  8
0
100
AcDbLine
 10
2160.545147193027
 20
244.4094895962981
 30
0.0
 11
2183.545147193027
 21
244.4094895962981
 31
0.0
  0
LINE
  5
39D2
330
2
100
AcDbEntity
  8
0
100
AcDbLine
 10
2160.545147193027
 20
244.4094895962981
 30
0.0
 11
2159.545147193027
 21
245.4094895962981
 31
0.0
  0
LINE
  5
39D3
330
2
100
AcDbEntity
  8
0
100
AcDbLine
 10
2184.545147193027
 20
245.4094895962981
 30
0.0
 11
2183.545147193027
 21
244.4094895962981
 31
0.0
  0
LINE
  5
39D4
330
2
100
AcDbEntity
  8
0
100
AcDbLine
 10
2184.545147193027
 20
245.4094895962981
 30
0.0
 11
2183.545147193027
 21
244.4094895962981
 31
0.0
  0
LINE
  5
39D5
330
2
100
AcDbEntity
  8
0
100
AcDbLine
 10
2160.545147193027
 20
266.4094895962981
 30
0.0
 11
2183.545147193027
 21
266.4094895962981
 31
0.0
  0
LINE
  5
39D6
330
2
100
AcDbEntity
  8
0
100
AcDbLine
 10
2160.545147193027
 20
266.4094895962981
 30
0.0
 11
2159.545147193027
 21
265.4094895962981
 31
0.0
  0
LINE
  5
39D7
330
2
100
AcDbEntity
  8
0
100
AcDbLine
 10
2183.545147193027
 20
266.4094895962981
 30
0.0
 11
2184.545147193027
 21
265.4094895962981
 31
0.0
  0
LINE
  5
39D8
330
2
100
AcDbEntity
  8
0
100
AcDbLine
 10
2184.545147193027
 20
265.4094895962981
 30
0.0
 11
2183.545147193027
 21
266.4094895962981
 31
0.0
  0
TEXT
  5
39DE
330
2
100
AcDbEntity
  8
AM_5
100
AcDbText
 10
2046.252291719117
 20
214.8806472359047
 30
0.0
 40
3.5
  1
PT 1/8
  7
CHINA
100
AcDbText
  0
POLYLINE
  5
39DF
330
2
100
AcDbEntity
  8
DIM
100
AcDb2dPolyline
 66
     1
 10
0.0
 20
0.0
 30
0.0
 70
     5
 75
     6
  0
VERTEX
  5
39E0
330
39DF
100
AcDbEntity
  8
DIM
100
AcDbVertex
100
AcDb2dVertex
 10
1923.634102466672
 20
318.8622576605913
 30
0.0
 70
    16
  0
VERTEX
  5
3E27
330
39DF
100
AcDbEntity
  8
DIM
100
AcDbVertex
100
AcDb2dVertex
 10
1925.556237055632
 20
314.4069111757972
 30
0.0
 70
     8
  0
VERTEX
  5
3E28
330
39DF
100
AcDbEntity
  8
DIM
100
AcDbVertex
100
AcDb2dVertex
 10
1925.64647985212
 20
314.0929015971191
 30
0.0
 70
     8
  0
VERTEX
  5
3E29
330
39DF
100
AcDbEntity
  8
DIM
100
AcDbVertex
100
AcDb2dVertex
 10
1925.702051833451
 20
313.842515642704
 30
0.0
 70
     8
  0
VERTEX
  5
3E2A
330
39DF
100
AcDbEntity
  8
DIM
100
AcDbVertex
100
AcDb2dVertex
 10
1925.736364037116
 20
313.6419420053001
 30
0.0
 70
     8
  0
VERTEX
  5
3E2B
330
39DF
100
AcDbEntity
  8
DIM
100
AcDbVertex
100
AcDb2dVertex
 10
1925.762827500604
 20
313.4773693776557
 30
0.0
 70
     8
  0
VERTEX
  5
3E2C
330
39DF
100
AcDbEntity
  8
DIM
100
AcDbVertex
100
AcDb2dVertex
 10
1925.794853261406
 20
313.334986452519
 30
0.0
 70
     8
  0
VERTEX
  5
3E2D
330
39DF
100
AcDbEntity
  8
DIM
100
AcDbVertex
100
AcDb2dVertex
 10
1925.845852357012
 20
313.2009819226386
 30
0.0
 70
     8
  0
VERTEX
  5
3E2E
330
39DF
100
AcDbEntity
  8
DIM
100
AcDbVertex
100
AcDb2dVertex
 10
1925.929235824911
 20
313.0615444807624
 30
0.0
 70
     8
  0
VERTEX
  5
3E2F
330
39DF
100
AcDbEntity
  8
DIM
100
AcDbVertex
100
AcDb2dVertex
 10
1926.058414702595
 20
312.9028628196389
 30
0.0
 70
     8
  0
VERTEX
  5
3E30
330
39DF
100
AcDbEntity
  8
DIM
100
AcDbVertex
100
AcDb2dVertex
 10
1926.242223338647
 20
312.7161821726935
 30
0.0
 70
     8
  0
VERTEX
  5
3E31
330
39DF
100
AcDbEntity
  8
DIM
100
AcDbVertex
100
AcDb2dVertex
 10
1926.471189326034
 20
312.51297393606
 30
0.0
 70
     8
  0
VERTEX
  5
3E32
330
39DF
100
AcDbEntity
  8
DIM
100
AcDbVertex
100
AcDb2dVertex
 10
1926.731263568817
 20
312.3097660465494
 30
0.0
 70
     8
  0
VERTEX
  5
3E33
330
39DF
100
AcDbEntity
  8
DIM
100
AcDbVertex
100
AcDb2dVertex
 10
1927.008396971057
 20
312.1230864409727
 30
0.0
 70
     8
  0
VERTEX
  5
3E34
330
39DF
100
AcDbEntity
  8
DIM
100
AcDbVertex
100
AcDb2dVertex
 10
1927.288540436816
 20
311.9694630561409
 30
0.0
 70
     8
  0
VERTEX
  5
3E35
330
39DF
100
AcDbEntity
  8
DIM
100
AcDbVertex
100
AcDb2dVertex
 10
1927.557644870154
 20
311.8654238288651
 30
0.0
 70
     8
  0
VERTEX
  5
3E36
330
39DF
100
AcDbEntity
  8
DIM
100
AcDbVertex
100
AcDb2dVertex
 10
1927.801661175133
 20
311.8274966959562
 30
0.0
 70
     8
  0
VERTEX
  5
3E37
330
39DF
100
AcDbEntity
  8
DIM
100
AcDbVertex
100
AcDb2dVertex
 10
1928.006540255814
 20
311.8722095942251
 30
0.0
 70
     8
  0
VERTEX
  5
3E38
330
39DF
100
AcDbEntity
  8
DIM
100
AcDbVertex
100
AcDb2dVertex
 10
1928.161557161273
 20
312.0098924624837
 30
0.0
 70
     8
  0
VERTEX
  5
3E39
330
39DF
100
AcDbEntity
  8
DIM
100
AcDbVertex
100
AcDb2dVertex
 10
1928.269283520646
 20
312.2260832475463
 30
0.0
 70
     8
  0
VERTEX
  5
3E3A
330
39DF
100
AcDbEntity
  8
DIM
100
AcDbVertex
100
AcDb2dVertex
 10
1928.33561510808
 20
312.5001218982282
 30
0.0
 70
     8
  0
VERTEX
  5
3E3B
330
39DF
100
AcDbEntity
  8
DIM
100
AcDbVertex
100
AcDb2dVertex
 10
1928.366447697729
 20
312.8113483633443
 30
0.0
 70
     8
  0
VERTEX
  5
3E3C
330
39DF
100
AcDbEntity
  8
DIM
100
AcDbVertex
100
AcDb2dVertex
 10
1928.36767706374
 20
313.1391025917101
 30
0.0
 70
     8
  0
VERTEX
  5
3E3D
330
39DF
100
AcDbEntity
  8
DIM
100
AcDbVertex
100
AcDb2dVertex
 10
1928.345198980265
 20
313.4627245321406
 30
0.0
 70
     8
  0
VERTEX
  5
3E3E
330
39DF
100
AcDbEntity
  8
DIM
100
AcDbVertex
100
AcDb2dVertex
 10
1928.304909221452
 20
313.7615541334509
 30
0.0
 70
     8
  0
VERTEX
  5
3E3F
330
39DF
100
AcDbEntity
  8
DIM
100
AcDbVertex
100
AcDb2dVertex
 10
1928.252703561454
 20
314.0149313444562
 30
0.0
 70
     8
  0
VERTEX
  5
3E40
330
39DF
100
AcDbEntity
  8
DIM
100
AcDbVertex
100
AcDb2dVertex
 10
1928.193055158456
 20
314.208802498688
 30
0.0
 70
     8
  0
VERTEX
  5
3E41
330
39DF
100
AcDbEntity
  8
DIM
100
AcDbVertex
100
AcDb2dVertex
 10
1928.124746706806
 20
314.3555394685431
 30
0.0
 70
     8
  0
VERTEX
  5
3E42
330
39DF
100
AcDbEntity
  8
DIM
100
AcDbVertex
100
AcDb2dVertex
 10
1928.045138284883
 20
314.4741205111345
 30
0.0
 70
     8
  0
VERTEX
  5
3E43
330
39DF
100
AcDbEntity
  8
DIM
100
AcDbVertex
100
AcDb2dVertex
 10
1927.951589971074
 20
314.5835238835754
 30
0.0
 70
     8
  0
VERTEX
  5
3E44
330
39DF
100
AcDbEntity
  8
DIM
100
AcDbVertex
100
AcDb2dVertex
 10
1927.84146184376
 20
314.702727842979
 30
0.0
 70
     8
  0
VERTEX
  5
3E45
330
39DF
100
AcDbEntity
  8
DIM
100
AcDbVertex
100
AcDb2dVertex
 10
1927.712113981324
 20
314.8507106464582
 30
0.0
 70
     8
  0
VERTEX
  5
3E46
330
39DF
100
AcDbEntity
  8
DIM
100
AcDbVertex
100
AcDb2dVertex
 10
1927.560906462149
 20
315.0464505511262
 30
0.0
 70
     8
  0
VERTEX
  5
3E47
330
39DF
100
AcDbEntity
  8
DIM
100
AcDbVertex
100
AcDb2dVertex
 10
1927.385199364619
 20
315.3089258140962
 30
0.0
 70
     8
  0
VERTEX
  5
3E48
330
39DF
100
AcDbEntity
  8
DIM
100
AcDbVertex
100
AcDb2dVertex
 10
1927.183591797303
 20
315.6502607522308
 30
0.0
 70
     8
  0
VERTEX
  5
3E49
330
39DF
100
AcDbEntity
  8
DIM
100
AcDbVertex
100
AcDb2dVertex
 10
1926.959638989523
 20
316.0551639213909
 30
0.0
 70
     8
  0
VERTEX
  5
3E4A
330
39DF
100
AcDbEntity
  8
DIM
100
AcDbVertex
100
AcDb2dVertex
 10
1926.718135200787
 20
316.5014899371871
 30
0.0
 70
     8
  0
VERTEX
  5
3E4B
330
39DF
100
AcDbEntity
  8
DIM
100
AcDbVertex
100
AcDb2dVertex
 10
1926.463874690602
 20
316.9670934152299
 30
0.0
 70
     8
  0
VERTEX
  5
3E4C
330
39DF
100
AcDbEntity
  8
DIM
100
AcDbVertex
100
AcDb2dVertex
 10
1926.201651718477
 20
317.42982897113
 30
0.0
 70
     8
  0
VERTEX
  5
3E4D
330
39DF
100
AcDbEntity
  8
DIM
100
AcDbVertex
100
AcDb2dVertex
 10
1925.936260543919
 20
317.8675512204976
 30
0.0
 70
     8
  0
VERTEX
  5
3E4E
330
39DF
100
AcDbEntity
  8
DIM
100
AcDbVertex
100
AcDb2dVertex
 10
1925.672495426437
 20
318.2581147789436
 30
0.0
 70
     8
  0
VERTEX
  5
3E4F
330
39DF
100
AcDbEntity
  8
DIM
100
AcDbVertex
100
AcDb2dVertex
 10
1925.41515062554
 20
318.5793742620783
 30
0.0
 70
     8
  0
VERTEX
  5
3E50
330
39DF
100
AcDbEntity
  8
DIM
100
AcDbVertex
100
AcDb2dVertex
 10
1925.169321194991
 20
318.8132866490037
 30
0.0
 70
     8
  0
VERTEX
  5
3E51
330
39DF
100
AcDbEntity
  8
DIM
100
AcDbVertex
100
AcDb2dVertex
 10
1924.941305365589
 20
318.9582183727874
 30
0.0
 70
     8
  0
VERTEX
  5
3E52
330
39DF
100
AcDbEntity
  8
DIM
100
AcDbVertex
100
AcDb2dVertex
 10
1924.737702162388
 20
319.0166382299884
 30
0.0
 70
     8
  0
VERTEX
  5
3E53
330
39DF
100
AcDbEntity
  8
DIM
100
AcDbVertex
100
AcDb2dVertex
 10
1924.565110610441
 20
318.9910150171655
 30
0.0
 70
     8
  0
VERTEX
  5
3E54
330
39DF
100
AcDbEntity
  8
DIM
100
AcDbVertex
100
AcDb2dVertex
 10
1924.430129734805
 20
318.8838175308778
 30
0.0
 70
     8
  0
VERTEX
  5
3E55
330
39DF
100
AcDbEntity
  8
DIM
100
AcDbVertex
100
AcDb2dVertex
 10
1924.339358560532
 20
318.6975145676842
 30
0.0
 70
     8
  0
VERTEX
  5
3E56
330
39DF
100
AcDbEntity
  8
DIM
100
AcDbVertex
100
AcDb2dVertex
 10
1924.299396112678
 20
318.4345749241437
 30
0.0
 70
     8
  0
VERTEX
  5
3E57
330
39DF
100
AcDbEntity
  8
DIM
100
AcDbVertex
100
AcDb2dVertex
 10
1924.316841416296
 20
318.0974673968153
 30
0.0
 70
     8
  0
VERTEX
  5
3E58
330
39DF
100
AcDbEntity
  8
DIM
100
AcDbVertex
100
AcDb2dVertex
 10
1924.394858479158
 20
317.6913562748885
 30
0.0
 70
     8
  0
VERTEX
  5
3E59
330
39DF
100
AcDbEntity
  8
DIM
100
AcDbVertex
100
AcDb2dVertex
 10
1924.522871239901
 20
317.2321878180756
 30
0.0
 70
     8
  0
VERTEX
  5
3E5A
330
39DF
100
AcDbEntity
  8
DIM
100
AcDbVertex
100
AcDb2dVertex
 10
1924.686868619877
 20
316.7386037787196
 30
0.0
 70
     8
  0
VERTEX
  5
3E5B
330
39DF
100
AcDbEntity
  8
DIM
100
AcDbVertex
100
AcDb2dVertex
 10
1924.872839540441
 20
316.2292459091635
 30
0.0
 70
     8
  0
VERTEX
  5
3E5C
330
39DF
100
AcDbEntity
  8
DIM
100
AcDbVertex
100
AcDb2dVertex
 10
1925.066772922945
 20
315.7227559617503
 30
0.0
 70
     8
  0
VERTEX
  5
3E5D
330
39DF
100
AcDbEntity
  8
DIM
100
AcDbVertex
100
AcDb2dVertex
 10
1925.254657688742
 20
315.2377756888229
 30
0.0
 70
     8
  0
VERTEX
  5
3E5E
330
39DF
100
AcDbEntity
  8
DIM
100
AcDbVertex
100
AcDb2dVertex
 10
1925.422482759187
 20
314.7929468427242
 30
0.0
 70
     8
  0
VERTEX
  5
39E1
330
39DF
100
AcDbEntity
  8
DIM
100
AcDbVertex
100
AcDb2dVertex
 10
1926.069110150528
 20
313.580938572974
 30
0.0
 70
    16
  0
VERTEX
  5
39E2
330
39DF
100
AcDbEntity
  8
DIM
100
AcDbVertex
100
AcDb2dVertex
 10
1925.426879265008
 20
313.2554551022958
 30
0.0
 70
    16
  0
VERTEX
  5
39E3
330
39DF
100
AcDbEntity
  8
DIM
100
AcDbVertex
100
AcDb2dVertex
 10
1928.573861005008
 20
310.8144179356768
 30
0.0
 70
    16
  0
VERTEX
  5
39E4
330
39DF
100
AcDbEntity
  8
DIM
100
AcDbVertex
100
AcDb2dVertex
 10
1928.316918249847
 20
314.7201307203478
 30
0.0
 70
    16
  0
VERTEX
  5
39E5
330
39DF
100
AcDbEntity
  8
DIM
100
AcDbVertex
100
AcDb2dVertex
 10
1927.674687364327
 20
314.3946472496693
 30
0.0
 70
    16
  0
VERTEX
  5
39E6
330
39DF
100
AcDbEntity
  8
DIM
100
AcDbVertex
100
AcDb2dVertex
 10
1925.29552848056
 20
319.5548351655523
 30
0.0
 70
    16
  0
SEQEND
  5
39E7
330
39DF
100
AcDbEntity
  8
DIM
  0
TEXT
  5
39E8
330
2
100
AcDbEntity
  8
DIM
100
AcDbText
 10
1907.407587168436
 20
312.9412921775139
 30
0.0
 40
4.799999999999999
  1
CCW
  7
ROMANS
100
AcDbText
  0
POLYLINE
  5
39E9
330
2
100
AcDbEntity
  8
DIM
100
AcDb2dPolyline
 66
     1
 10
0.0
 20
0.0
 30
0.0
 70
     5
 75
     6
  0
VERTEX
  5
39EA
330
39E9
100
AcDbEntity
  8
DIM
100
AcDbVertex
100
AcDb2dVertex
 10
1923.634102466673
 20
350.247412670514
 30
0.0
 70
    16
  0
VERTEX
  5
3E5F
330
39E9
100
AcDbEntity
  8
DIM
100
AcDbVertex
100
AcDb2dVertex
 10
1925.556237055632
 20
354.7027591553081
 30
0.0
 70
     8
  0
VERTEX
  5
3E60
330
39E9
100
AcDbEntity
  8
DIM
100
AcDbVertex
100
AcDb2dVertex
 10
1925.64647985212
 20
355.0167687339862
 30
0.0
 70
     8
  0
VERTEX
  5
3E61
330
39E9
100
AcDbEntity
  8
DIM
100
AcDbVertex
100
AcDb2dVertex
 10
1925.702051833451
 20
355.2671546884013
 30
0.0
 70
     8
  0
VERTEX
  5
3E62
330
39E9
100
AcDbEntity
  8
DIM
100
AcDbVertex
100
AcDb2dVertex
 10
1925.736364037116
 20
355.4677283258052
 30
0.0
 70
     8
  0
VERTEX
  5
3E63
330
39E9
100
AcDbEntity
  8
DIM
100
AcDbVertex
100
AcDb2dVertex
 10
1925.762827500605
 20
355.6323009534496
 30
0.0
 70
     8
  0
VERTEX
  5
3E64
330
39E9
100
AcDbEntity
  8
DIM
100
AcDbVertex
100
AcDb2dVertex
 10
1925.794853261407
 20
355.7746838785862
 30
0.0
 70
     8
  0
VERTEX
  5
3E65
330
39E9
100
AcDbEntity
  8
DIM
100
AcDbVertex
100
AcDb2dVertex
 10
1925.845852357012
 20
355.9086884084667
 30
0.0
 70
     8
  0
VERTEX
  5
3E66
330
39E9
100
AcDbEntity
  8
DIM
100
AcDbVertex
100
AcDb2dVertex
 10
1925.929235824912
 20
356.0481258503428
 30
0.0
 70
     8
  0
VERTEX
  5
3E67
330
39E9
100
AcDbEntity
  8
DIM
100
AcDbVertex
100
AcDb2dVertex
 10
1926.058414702595
 20
356.2068075114663
 30
0.0
 70
     8
  0
VERTEX
  5
3E68
330
39E9
100
AcDbEntity
  8
DIM
100
AcDbVertex
100
AcDb2dVertex
 10
1926.242223338647
 20
356.3934881584117
 30
0.0
 70
     8
  0
VERTEX
  5
3E69
330
39E9
100
AcDbEntity
  8
DIM
100
AcDbVertex
100
AcDb2dVertex
 10
1926.471189326034
 20
356.5966963950452
 30
0.0
 70
     8
  0
VERTEX
  5
3E6A
330
39E9
100
AcDbEntity
  8
DIM
100
AcDbVertex
100
AcDb2dVertex
 10
1926.731263568817
 20
356.7999042845559
 30
0.0
 70
     8
  0
VERTEX
  5
3E6B
330
39E9
100
AcDbEntity
  8
DIM
100
AcDbVertex
100
AcDb2dVertex
 10
1927.008396971057
 20
356.9865838901325
 30
0.0
 70
     8
  0
VERTEX
  5
3E6C
330
39E9
100
AcDbEntity
  8
DIM
100
AcDbVertex
100
AcDb2dVertex
 10
1927.288540436816
 20
357.1402072749643
 30
0.0
 70
     8
  0
VERTEX
  5
3E6D
330
39E9
100
AcDbEntity
  8
DIM
100
AcDbVertex
100
AcDb2dVertex
 10
1927.557644870154
 20
357.2442465022401
 30
0.0
 70
     8
  0
VERTEX
  5
3E6E
330
39E9
100
AcDbEntity
  8
DIM
100
AcDbVertex
100
AcDb2dVertex
 10
1927.801661175134
 20
357.2821736351491
 30
0.0
 70
     8
  0
VERTEX
  5
3E6F
330
39E9
100
AcDbEntity
  8
DIM
100
AcDbVertex
100
AcDb2dVertex
 10
1928.006540255815
 20
357.2374607368801
 30
0.0
 70
     8
  0
VERTEX
  5
3E70
330
39E9
100
AcDbEntity
  8
DIM
100
AcDbVertex
100
AcDb2dVertex
 10
1928.161557161274
 20
357.0997778686216
 30
0.0
 70
     8
  0
VERTEX
  5
3E71
330
39E9
100
AcDbEntity
  8
DIM
100
AcDbVertex
100
AcDb2dVertex
 10
1928.269283520646
 20
356.883587083559
 30
0.0
 70
     8
  0
VERTEX
  5
3E72
330
39E9
100
AcDbEntity
  8
DIM
100
AcDbVertex
100
AcDb2dVertex
 10
1928.335615108081
 20
356.6095484328771
 30
0.0
 70
     8
  0
VERTEX
  5
3E73
330
39E9
100
AcDbEntity
  8
DIM
100
AcDbVertex
100
AcDb2dVertex
 10
1928.36644769773
 20
356.2983219677609
 30
0.0
 70
     8
  0
VERTEX
  5
3E74
330
39E9
100
AcDbEntity
  8
DIM
100
AcDbVertex
100
AcDb2dVertex
 10
1928.367677063741
 20
355.9705677393952
 30
0.0
 70
     8
  0
VERTEX
  5
3E75
330
39E9
100
AcDbEntity
  8
DIM
100
AcDbVertex
100
AcDb2dVertex
 10
1928.345198980266
 20
355.6469457989648
 30
0.0
 70
     8
  0
VERTEX
  5
3E76
330
39E9
100
AcDbEntity
  8
DIM
100
AcDbVertex
100
AcDb2dVertex
 10
1928.304909221453
 20
355.3481161976545
 30
0.0
 70
     8
  0
VERTEX
  5
3E77
330
39E9
100
AcDbEntity
  8
DIM
100
AcDbVertex
100
AcDb2dVertex
 10
1928.252703561454
 20
355.0947389866491
 30
0.0
 70
     8
  0
VERTEX
  5
3E78
330
39E9
100
AcDbEntity
  8
DIM
100
AcDbVertex
100
AcDb2dVertex
 10
1928.193055158457
 20
354.9008678324173
 30
0.0
 70
     8
  0
VERTEX
  5
3E79
330
39E9
100
AcDbEntity
  8
DIM
100
AcDbVertex
100
AcDb2dVertex
 10
1928.124746706806
 20
354.7541308625623
 30
0.0
 70
     8
  0
VERTEX
  5
3E7A
330
39E9
100
AcDbEntity
  8
DIM
100
AcDbVertex
100
AcDb2dVertex
 10
1928.045138284884
 20
354.6355498199709
 30
0.0
 70
     8
  0
VERTEX
  5
3E7B
330
39E9
100
AcDbEntity
  8
DIM
100
AcDbVertex
100
AcDb2dVertex
 10
1927.951589971075
 20
354.5261464475299
 30
0.0
 70
     8
  0
VERTEX
  5
3E7C
330
39E9
100
AcDbEntity
  8
DIM
100
AcDbVertex
100
AcDb2dVertex
 10
1927.84146184376
 20
354.4069424881263
 30
0.0
 70
     8
  0
VERTEX
  5
3E7D
330
39E9
100
AcDbEntity
  8
DIM
100
AcDbVertex
100
AcDb2dVertex
 10
1927.712113981324
 20
354.258959684647
 30
0.0
 70
     8
  0
VERTEX
  5
3E7E
330
39E9
100
AcDbEntity
  8
DIM
100
AcDbVertex
100
AcDb2dVertex
 10
1927.56090646215
 20
354.0632197799789
 30
0.0
 70
     8
  0
VERTEX
  5
3E7F
330
39E9
100
AcDbEntity
  8
DIM
100
AcDbVertex
100
AcDb2dVertex
 10
1927.385199364619
 20
353.800744517009
 30
0.0
 70
     8
  0
VERTEX
  5
3E80
330
39E9
100
AcDbEntity
  8
DIM
100
AcDbVertex
100
AcDb2dVertex
 10
1927.183591797304
 20
353.4594095788743
 30
0.0
 70
     8
  0
VERTEX
  5
3E81
330
39E9
100
AcDbEntity
  8
DIM
100
AcDbVertex
100
AcDb2dVertex
 10
1926.959638989524
 20
353.0545064097143
 30
0.0
 70
     8
  0
VERTEX
  5
3E82
330
39E9
100
AcDbEntity
  8
DIM
100
AcDbVertex
100
AcDb2dVertex
 10
1926.718135200787
 20
352.6081803939179
 30
0.0
 70
     8
  0
VERTEX
  5
3E83
330
39E9
100
AcDbEntity
  8
DIM
100
AcDbVertex
100
AcDb2dVertex
 10
1926.463874690603
 20
352.142576915875
 30
0.0
 70
     8
  0
VERTEX
  5
3E84
330
39E9
100
AcDbEntity
  8
DIM
100
AcDbVertex
100
AcDb2dVertex
 10
1926.201651718477
 20
351.679841359975
 30
0.0
 70
     8
  0
VERTEX
  5
3E85
330
39E9
100
AcDbEntity
  8
DIM
100
AcDbVertex
100
AcDb2dVertex
 10
1925.93626054392
 20
351.2421191106072
 30
0.0
 70
     8
  0
VERTEX
  5
3E86
330
39E9
100
AcDbEntity
  8
DIM
100
AcDbVertex
100
AcDb2dVertex
 10
1925.672495426438
 20
350.8515555521612
 30
0.0
 70
     8
  0
VERTEX
  5
3E87
330
39E9
100
AcDbEntity
  8
DIM
100
AcDbVertex
100
AcDb2dVertex
 10
1925.41515062554
 20
350.5302960690264
 30
0.0
 70
     8
  0
VERTEX
  5
3E88
330
39E9
100
AcDbEntity
  8
DIM
100
AcDbVertex
100
AcDb2dVertex
 10
1925.169321194992
 20
350.296383682101
 30
0.0
 70
     8
  0
VERTEX
  5
3E89
330
39E9
100
AcDbEntity
  8
DIM
100
AcDbVertex
100
AcDb2dVertex
 10
1924.94130536559
 20
350.1514519583174
 30
0.0
 70
     8
  0
VERTEX
  5
3E8A
330
39E9
100
AcDbEntity
  8
DIM
100
AcDbVertex
100
AcDb2dVertex
 10
1924.737702162388
 20
350.0930321011164
 30
0.0
 70
     8
  0
VERTEX
  5
3E8B
330
39E9
100
AcDbEntity
  8
DIM
100
AcDbVertex
100
AcDb2dVertex
 10
1924.565110610442
 20
350.1186553139393
 30
0.0
 70
     8
  0
VERTEX
  5
3E8C
330
39E9
100
AcDbEntity
  8
DIM
100
AcDbVertex
100
AcDb2dVertex
 10
1924.430129734805
 20
350.2258528002271
 30
0.0
 70
     8
  0
VERTEX
  5
3E8D
330
39E9
100
AcDbEntity
  8
DIM
100
AcDbVertex
100
AcDb2dVertex
 10
1924.339358560533
 20
350.4121557634208
 30
0.0
 70
     8
  0
VERTEX
  5
3E8E
330
39E9
100
AcDbEntity
  8
DIM
100
AcDbVertex
100
AcDb2dVertex
 10
1924.299396112678
 20
350.6750954069614
 30
0.0
 70
     8
  0
VERTEX
  5
3E8F
330
39E9
100
AcDbEntity
  8
DIM
100
AcDbVertex
100
AcDb2dVertex
 10
1924.316841416296
 20
351.0122029342899
 30
0.0
 70
     8
  0
VERTEX
  5
3E90
330
39E9
100
AcDbEntity
  8
DIM
100
AcDbVertex
100
AcDb2dVertex
 10
1924.394858479159
 20
351.4183140562168
 30
0.0
 70
     8
  0
VERTEX
  5
3E91
330
39E9
100
AcDbEntity
  8
DIM
100
AcDbVertex
100
AcDb2dVertex
 10
1924.522871239902
 20
351.8774825130297
 30
0.0
 70
     8
  0
VERTEX
  5
3E92
330
39E9
100
AcDbEntity
  8
DIM
100
AcDbVertex
100
AcDb2dVertex
 10
1924.686868619878
 20
352.3710665523856
 30
0.0
 70
     8
  0
VERTEX
  5
3E93
330
39E9
100
AcDbEntity
  8
DIM
100
AcDbVertex
100
AcDb2dVertex
 10
1924.872839540441
 20
352.8804244219418
 30
0.0
 70
     8
  0
VERTEX
  5
3E94
330
39E9
100
AcDbEntity
  8
DIM
100
AcDbVertex
100
AcDb2dVertex
 10
1925.066772922945
 20
353.386914369355
 30
0.0
 70
     8
  0
VERTEX
  5
3E95
330
39E9
100
AcDbEntity
  8
DIM
100
AcDbVertex
100
AcDb2dVertex
 10
1925.254657688743
 20
353.8718946422825
 30
0.0
 70
     8
  0
VERTEX
  5
3E96
330
39E9
100
AcDbEntity
  8
DIM
100
AcDbVertex
100
AcDb2dVertex
 10
1925.422482759187
 20
354.3167234883812
 30
0.0
 70
     8
  0
VERTEX
  5
39EB
330
39E9
100
AcDbEntity
  8
DIM
100
AcDbVertex
100
AcDb2dVertex
 10
1926.069110150528
 20
355.5287317581313
 30
0.0
 70
    16
  0
VERTEX
  5
39EC
330
39E9
100
AcDbEntity
  8
DIM
100
AcDbVertex
100
AcDb2dVertex
 10
1925.426879265009
 20
355.8542152288096
 30
0.0
 70
    16
  0
VERTEX
  5
39ED
330
39E9
100
AcDbEntity
  8
DIM
100
AcDbVertex
100
AcDb2dVertex
 10
1928.573861005009
 20
358.2952523954284
 30
0.0
 70
    16
  0
VERTEX
  5
39EE
330
39E9
100
AcDbEntity
  8
DIM
100
AcDbVertex
100
AcDb2dVertex
 10
1928.316918249847
 20
354.3895396107576
 30
0.0
 70
    16
  0
VERTEX
  5
39EF
330
39E9
100
AcDbEntity
  8
DIM
100
AcDbVertex
100
AcDb2dVertex
 10
1927.674687364327
 20
354.715023081436
 30
0.0
 70
    16
  0
VERTEX
  5
39F0
330
39E9
100
AcDbEntity
  8
DIM
100
AcDbVertex
100
AcDb2dVertex
 10
1925.29552848056
 20
349.5548351655522
 30
0.0
 70
    16
  0
SEQEND
  5
39F1
330
39E9
100
AcDbEntity
  8
DIM
  0
TEXT
  5
39F2
330
2
100
AcDbEntity
  8
DIM
100
AcDbText
 10
1913.270325373511
 20
352.6168309587899
 30
0.0
 40
4.799999999999999
  1
CW
  7
ROMANS
100
AcDbText
  0
LINE
  5
3C8B
330
2
100
AcDbEntity
  8
0
100
AcDbLine
 10
1943.353194523639
 20
322.3315389239312
 30
0.0
 11
2061.353194523639
 21
322.3315389239312
 31
0.0
  0
LINE
  5
3C8C
330
2
100
AcDbEntity
  8
0
100
AcDbLine
 10
1943.353194523639
 20
344.3315389239312
 30
0.0
 11
2061.353194523639
 21
344.3315389239312
 31
0.0
  0
LINE
  5
3C8D
330
2
100
AcDbEntity
  8
CENTER
100
AcDbLine
 10
1939.469179352339
 20
333.3315389239312
 30
0.0
 11
2066.46733222994
 21
333.3315389239312
 31
0.0
  0
ARC
  5
3C8E
330
2
100
AcDbEntity
  8
0
100
AcDbCircle
 10
2002.35319452364
 20
333.3315389239312
 30
0.0
 40
10.0
100
AcDbArc
 50
330.0000000000027
 51
29.99999999999729
  0
ARC
  5
3C8F
330
2
100
AcDbEntity
  8
0
100
AcDbCircle
 10
2014.853194523639
 20
333.3315389239312
 30
0.0
 40
5.0
100
AcDbArc
 50
270.0
 51
90.0
  0
ARC
  5
3C90
330
2
100
AcDbEntity
  8
0
100
AcDbCircle
 10
2002.35319452364
 20
333.3315389239312
 30
0.0
 40
10.0
100
AcDbArc
 50
150.0000000000027
 51
209.9999999999972
  0
ARC
  5
3C91
330
2
100
AcDbEntity
  8
0
100
AcDbCircle
 10
1989.853194523639
 20
333.3315389239312
 30
0.0
 40
5.0
100
AcDbArc
 50
90.0
 51
270.0
  0
LINE
  5
3C92
330
2
100
AcDbEntity
  8
0
100
AcDbLine
 10
1942.35319452364
 20
323.3315389239312
 30
0.0
 11
1942.35319452364
 21
343.3315389239312
 31
0.0
  0
LINE
  5
3C94
330
2
100
AcDbEntity
  8
0
100
AcDbLine
 10
1943.353194523639
 20
322.3315389239312
 30
0.0
 11
1942.35319452364
 21
323.3315389239312
 31
0.0
  0
LINE
  5
3C95
330
2
100
AcDbEntity
  8
0
100
AcDbLine
 10
1989.853194523639
 20
328.3315389239312
 30
0.0
 11
2014.853194523639
 21
328.3315389239312
 31
0.0
  0
LINE
  5
3C96
330
2
100
AcDbEntity
  8
0
100
AcDbLine
 10
1942.35319452364
 20
343.3315389239312
 30
0.0
 11
1943.353194523639
 21
344.3315389239312
 31
0.0
  0
LINE
  5
3C97
330
2
100
AcDbEntity
  8
0
100
AcDbLine
 10
1989.853194523639
 20
338.3315389239312
 30
0.0
 11
2014.853194523639
 21
338.3315389239312
 31
0.0
  0
LINE
  5
3C98
330
2
100
AcDbEntity
  8
0
100
AcDbLine
 10
2062.35319452364
 20
323.3315389239312
 30
0.0
 11
2062.35319452364
 21
343.3315389239312
 31
0.0
  0
LINE
  5
3C99
330
2
100
AcDbEntity
  8
0
100
AcDbLine
 10
2062.35319452364
 20
323.3315389239312
 30
0.0
 11
2061.353194523639
 21
322.3315389239312
 31
0.0
  0
LINE
  5
3C9A
330
2
100
AcDbEntity
  8
0
100
AcDbLine
 10
2061.353194523639
 20
344.3315389239312
 30
0.0
 11
2062.35319452364
 21
343.3315389239312
 31
0.0
  0
ARC
  5
3C9B
330
2
100
AcDbEntity
  8
0
100
AcDbCircle
 10
2002.35319452364
 20
333.3315389239312
 30
0.0
 40
31.0
100
AcDbArc
 50
20.78355959584571
 51
159.2164404041542
  0
ARC
  5
3C9C
330
2
100
AcDbEntity
  8
0
100
AcDbCircle
 10
2002.35319452364
 20
333.3315389239312
 30
0.0
 40
32.5
100
AcDbArc
 50
19.78317037266157
 51
160.2168296273384
  0
LINE
  5
3C9D
330
2
100
AcDbEntity
  8
0
100
AcDbLine
 10
1943.353194523639
 20
244.4094895962981
 30
0.0
 11
2061.353194523639
 21
244.4094895962981
 31
0.0
  0
LINE
  5
3C9E
330
2
100
AcDbEntity
  8
0
100
AcDbLine
 10
1943.353194523639
 20
266.4094895962981
 30
0.0
 11
2061.353194523639
 21
266.4094895962981
 31
0.0
  0
LINE
  5
3C9F
102
{ACAD_REACTORS
330
41AD
102
}
330
2
100
AcDbEntity
  8
0
100
AcDbLine
 10
1942.35319452364
 20
245.4094895962981
 30
0.0
 11
1942.35319452364
 21
265.4094895962981
 31
0.0
  0
LINE
  5
3CA0
330
2
100
AcDbEntity
  8
0
100
AcDbLine
 10
1943.353194523639
 20
244.4094895962981
 30
0.0
 11
1942.35319452364
 21
245.4094895962981
 31
0.0
  0
LINE
  5
3CA1
330
2
100
AcDbEntity
  8
0
100
AcDbLine
 10
1942.35319452364
 20
265.4094895962981
 30
0.0
 11
1943.353194523639
 21
266.4094895962981
 31
0.0
  0
CIRCLE
  5
3CA2
330
2
100
AcDbEntity
  8
0
100
AcDbCircle
 10
2002.35319452364
 20
255.4094895962981
 30
0.0
 40
4.0
  0
LINE
  5
3CA3
102
{ACAD_REACTORS
330
41AD
102
}
330
2
100
AcDbEntity
  8
0
100
AcDbLine
 10
2062.35319452364
 20
245.4094895962981
 30
0.0
 11
2062.35319452364
 21
265.4094895962981
 31
0.0
  0
LINE
  5
3CA4
330
2
100
AcDbEntity
  8
0
100
AcDbLine
 10
2062.35319452364
 20
245.4094895962981
 30
0.0
 11
2061.353194523639
 21
244.4094895962981
 31
0.0
  0
LINE
  5
3CA5
330
2
100
AcDbEntity
  8
0
100
AcDbLine
 10
2061.353194523639
 20
266.4094895962981
 30
0.0
 11
2062.35319452364
 21
265.4094895962981
 31
0.0
  0
LINE
  5
3D34
330
2
100
AcDbEntity
  8
CENTER
  6
CENTER
100
AcDbLine
 10
2018.806402790861
 20
202.4094895962981
 30
0.0
 11
2034.806402790861
 21
202.4094895962981
 31
0.0
  0
LINE
  5
3D35
330
2
100
AcDbEntity
  8
HIDDEN
  6
HIDDEN
100
AcDbLine
 10
2024.35319452364
 20
197.8811596098455
 30
0.0
 11
2033.35319452364
 21
197.4094895962981
 31
0.0
  0
LINE
  5
3D36
330
2
100
AcDbEntity
  8
HIDDEN
  6
HIDDEN
100
AcDbLine
 10
2024.35319452364
 20
198.6311596098455
 30
0.0
 11
2033.35319452364
 21
198.1594895962981
 31
0.0
  0
LINE
  5
3D37
330
2
100
AcDbEntity
  8
HIDDEN
  6
HIDDEN
100
AcDbLine
 10
2024.35319452364
 20
206.1878195827508
 30
0.0
 11
2033.35319452364
 21
206.6594895962981
 31
0.0
  0
LINE
  5
3D38
330
2
100
AcDbEntity
  8
HIDDEN
  6
HIDDEN
100
AcDbLine
 10
2024.35319452364
 20
206.9378195827508
 30
0.0
 11
2033.35319452364
 21
207.4094895962981
 31
0.0
  0
INSERT
  5
3D39
330
2
100
AcDbEntity
  8
AM_5
100
AcDbBlockReference
  2
*S47
 10
0.0
 20
0.0
 30
0.0
  0
LINE
  5
3D3C
330
2
100
AcDbEntity
  8
HIDDEN
  6
HIDDEN
100
AcDbLine
 10
2029.66319452364
 20
139.6731963569981
 30
0.0
 11
2029.66319452364
 21
131.4094895962981
 31
0.0
  0
LINE
  5
3D3D
330
2
100
AcDbEntity
  8
HIDDEN
  6
HIDDEN
100
AcDbLine
 10
2019.66319452364
 20
139.6731963569981
 30
0.0
 11
2019.66319452364
 21
131.4094895962981
 31
0.0
  0
LINE
  5
3D3E
330
2
100
AcDbEntity
  8
HIDDEN
  6
HIDDEN
100
AcDbLine
 10
2028.66319452364
 20
139.6731963569981
 30
0.0
 11
2028.66319452364
 21
131.4094895962981
 31
0.0
  0
LINE
  5
3D3F
330
2
100
AcDbEntity
  8
HIDDEN
  6
HIDDEN
100
AcDbLine
 10
2020.66319452364
 20
139.6731963569981
 30
0.0
 11
2020.66319452364
 21
131.4094895962981
 31
0.0
  0
DIMENSION
  5
4196
102
{ACAD_XDICTIONARY
360
41A3
102
}
102
{ACAD_REACTORS
330
41AD
102
}
330
2
100
AcDbEntity
  8
AM_5
100
AcDbDimension
  2
*D46
 10
2062.35319452364
 20
277.4094895962981
 30
0.0
 11
2002.35319452364
 21
281.1598832970855
 31
0.0
 70
    32
  3
AM_ISO
100
AcDbAlignedDimension
 13
1942.35319452364
 23
265.4094895962981
 33
0.0
 14
2062.35319452364
 24
265.4094895962981
 34
0.0
100
AcDbRotatedDimension
  0
ENDSEC
  0
SECTION
  2
OBJECTS
  0
DICTIONARY
  5
8
330
0
100
AcDbDictionary
  3
ACAD_GROUP
350
21
  3
ACAD_LAYOUT
350
C
  3
ACAD_MLINESTYLE
350
22
  3
ACAD_PLOTSETTINGS
350
23
  3
ACMDICTIONARY
350
1F4
  3
AMG
350
1DA
  3
AMGSNAPSETTINGS
350
37D
  3
ASE_INDEX_DICTIONARY
350
E58
  3
DWGPROPS
350
41E3
1001
ACAD
1000
TREAT_AS_HARD
1070
     0
  0
DICTIONARY
  5
3
330
2
100
AcDbDictionary
  3
ACAD_INDEX
350
2B85
  3
ACAD_LAYOUTSELFREF
350
4268
1001
ACAD
1000
TREAT_AS_HARD
1070
     1
  0
DICTIONARY
  5
4269
330
D
100
AcDbDictionary
  3
ACAD_LAYOUTSELFREF
350
426A
  0
DICTIONARY
  5
367D
330
3670
100
AcDbDictionary
  3
ACAD_DIMASSOC
350
3687
1001
ACAD
1000
TREAT_AS_HARD
1070
     1
  0
DICTIONARY
  5
36B5
330
36A8
100
AcDbDictionary
  3
ACAD_DIMASSOC
350
36BF
1001
ACAD
1000
TREAT_AS_HARD
1070
     1
  0
DICTIONARY
  5
3739
330
372C
100
AcDbDictionary
  3
ACAD_DIMASSOC
350
3743
1001
ACAD
1000
TREAT_AS_HARD
1070
     1
  0
DICTIONARY
  5
41A3
330
4196
100
AcDbDictionary
  3
ACAD_DIMASSOC
350
41AD
1001
ACAD
1000
TREAT_AS_HARD
1070
     1
  0
DICTIONARY
  5
21
102
{ACAD_REACTORS
330
8
102
}
330
8
100
AcDbDictionary
1001
ACAD
1000
TREAT_AS_HARD
1070
     0
  0
DICTIONARY
  5
C
102
{ACAD_REACTORS
330
8
102
}
330
8
100
AcDbDictionary
1001
ACAD
1000
TREAT_AS_HARD
1070
     0
  0
DICTIONARY
  5
22
102
{ACAD_REACTORS
330
8
102
}
330
8
100
AcDbDictionary
  3
STANDARD
350
24
1001
ACAD
1000
TREAT_AS_HARD
1070
     0
  0
DICTIONARY
  5
23
102
{ACAD_REACTORS
330
8
102
}
330
8
100
AcDbDictionary
1001
ACAD
1000
TREAT_AS_HARD
1070
     0
  0
DICTIONARY
  5
1F4
102
{ACAD_REACTORS
330
8
102
}
330
8
100
AcDbDictionary
  3
ACMSTDDICTIONARY
350
1FA
1001
ACAD
1000
TREAT_AS_HARD
1070
     0
  0
DICTIONARY
  5
1DA
102
{ACAD_REACTORS
330
8
102
}
330
8
100
AcDbDictionary
  3
ACMGSETTINGS
350
1DB
1001
ACAD
1000
TREAT_AS_HARD
1070
     0
  0
DICTIONARY
  5
37D
102
{ACAD_REACTORS
330
8
102
}
330
8
100
AcDbDictionary
1001
ACAD
1000
TREAT_AS_HARD
1070
     0
  0
DICTIONARY
  5
E58
102
{ACAD_REACTORS
330
8
102
}
330
8
100
AcDbDictionary
  3
ASEBLOCKHIERARCHYINDEXRECORD
350
E5A
1001
DCO15
1040
1443953005.444
1001
ACAD
1000
TREAT_AS_HARD
1070
     0
  0
XRECORD
  5
41E3
102
{ACAD_REACTORS
330
8
102
}
330
8
100
AcDbXrecord
  1
DWGPROPS COOKIE
  2

  3

  4

  6

  7

  8

  9

300
AmdtFileType=84
301
=
302
=
303
=
304
=
305
=
306
=
307
=
308
=
309
=
 40
0.0984648263888889
 41
2452794.706235081
 42
2452796.634347627
  1

 90
        1
  0
DICTIONARY
  5
2B85
102
{ACAD_REACTORS
330
3
102
}
330
3
100
AcDbDictionary
  3
*A1
350
2B86
1001
ACAD
1000
TREAT_AS_HARD
1070
     0
  0
XRECORD
  5
4268
102
{ACAD_REACTORS
330
3
102
}
330
3
100
AcDbXrecord
340
2
  0
XRECORD
  5
426A
102
{ACAD_REACTORS
330
4269
102
}
330
4269
100
AcDbXrecord
340
D
  0
DIMASSOC
  5
3687
102
{ACAD_REACTORS
330
367D
102
}
330
367D
100
AcDbDimAssoc
330
3670
 90
        3
 70
     0
 71
     0
  1
AcDbOsnapPointRef
 72
     1
331
3418
 73
     0
 91
        0
 40
0.0
 10
2032.85319452364
 20
131.4094895962981
 30
0.0
 75
     0
  1
AcDbOsnapPointRef
 72
     1
331
3453
 73
     0
 91
        0
 40
0.0
 10
2033.35319452364
 20
140.4094895962981
 30
0.0
 75
     0
  0
DIMASSOC
  5
36BF
102
{ACAD_REACTORS
330
36B5
102
}
330
36B5
100
AcDbDimAssoc
330
36A8
 90
        3
 70
     0
 71
     0
  1
AcDbOsnapPointRef
 72
     1
331
3453
 73
     0
 91
        0
 40
0.0
 10
2033.35319452364
 20
140.4094895962981
 30
0.0
 75
     0
  1
AcDbOsnapPointRef
 72
    13
331
3453
 73
     0
 91
        0
 40
0.0
 10
2033.35319452364
 20
190.4094895962981
 30
0.0
 75
     0
  0
DIMASSOC
  5
3743
102
{ACAD_REACTORS
330
3739
102
}
330
3739
100
AcDbDimAssoc
330
372C
 90
        3
 70
     0
 71
     0
  1
AcDbOsnapPointRef
 72
     1
331
3426
 73
     0
 91
        0
 40
0.0
 10
1969.85319452364
 20
141.4094895962981
 30
0.0
 75
     0
  1
AcDbOsnapPointRef
 72
     1
331
3440
 73
     0
 91
        0
 40
0.0
 10
2034.853194523639
 20
141.4094895962981
 30
0.0
 75
     0
  0
DIMASSOC
  5
41AD
102
{ACAD_REACTORS
330
41A3
102
}
330
41A3
100
AcDbDimAssoc
330
4196
 90
        3
 70
     0
 71
     0
  1
AcDbOsnapPointRef
 72
     1
331
3C9F
 73
     0
 91
        0
 40
0.0
 10
1942.35319452364
 20
265.4094895962981
 30
0.0
 75
     0
  1
AcDbOsnapPointRef
 72
     1
331
3CA3
 73
     0
 91
        0
 40
0.0
 10
2062.35319452364
 20
265.4094895962981
 30
0.0
 75
     0
  0
MLINESTYLE
  5
24
102
{ACAD_REACTORS
330
22
102
}
330
22
100
AcDbMlineStyle
  2
STANDARD
 70
     0
  3

 62
   256
 51
90.0
 52
90.0
 71
     2
 49
0.5
 62
   256
  6
BYLAYER
 49
-0.5
 62
   256
  6
BYLAYER
  0
DICTIONARY
  5
1FA
102
{ACAD_REACTORS
330
1F4
102
}
330
1F4
100
AcDbDictionary
1001
ACAD
1000
TREAT_AS_HARD
1070
     0
  0
DICTIONARY
  5
1DB
102
{ACAD_REACTORS
330
1DA
102
}
330
1DA
100
AcDbDictionary
1001
ACAD
1000
TREAT_AS_HARD
1070
     0
  0
XRECORD
  5
E5A
102
{ACAD_REACTORS
330
E58
102
}
330
E58
100
AcDbXrecord
330
0
330
0
  0
LAYER_INDEX
  5
2B86
102
{ACAD_REACTORS
330
2B85
102
}
330
2B85
100
AcDbIndex
 40
2452796.650663217
100
AcDbLayerIndex
  8
0
360
2B87
 90
       93
  8
Defpoints
360
2B88
 90
        0
  8
AM_5
360
2B89
 90
       11
  8
AM_PARDIM
360
2B8A
 90
       10
  8
AM_7
360
2B8B
 90
        1
  8
HIDDEN
360
2B8C
 90
        8
  8
DIM
360
2B8D
 90
        4
  8
CENTER
360
2B8E
 90
        6
  8
LOGO
360
2B8F
 90
      110
  8
AM_4
360
2B93
 90
        4
  0
IDBUFFER
  5
2B87
330
0
100
AcDbIdBuffer
330
25
330
26
330
27
330
28
330
29
330
2A
330
2B
330
2C
330
2D
330
2E
330
2F
330
30
330
1258
330
1259
330
125A
330
12BA
330
3412
330
3415
330
3416
330
3418
330
3419
330
341E
330
3426
330
3427
330
3428
330
3429
330
342A
330
342B
330
343B
330
343F
330
3440
330
3441
330
3442
330
3443
330
3445
330
3446
330
3450
330
3451
330
3977
330
3978
330
397C
330
397D
330
397E
330
397F
330
3981
330
3986
330
3987
330
3988
330
3989
330
398A
330
398B
330
398C
330
398D
330
398E
330
3992
330
3993
330
3994
330
3995
330
39CF
330
39D0
330
39D1
330
39D2
330
39D3
330
39D4
330
39D5
330
39D6
330
39D7
330
39D8
330
3C8B
330
3C8C
330
3C8E
330
3C8F
330
3C90
330
3C91
330
3C92
330
3C94
330
3C95
330
3C96
330
3C97
330
3C98
330
3C99
330
3C9A
330
3C9B
330
3C9C
330
3C9D
330
3C9E
330
3C9F
330
3CA0
330
3CA1
330
3CA2
330
3CA3
330
3CA4
330
3CA5
  0
IDBUFFER
  5
2B88
330
0
100
AcDbIdBuffer
  0
IDBUFFER
  5
2B89
330
0
100
AcDbIdBuffer
330
4196
330
151
330
156
330
3670
330
36A8
330
36D5
330
36D8
330
36DB
330
372C
330
39DE
330
3D39
  0
IDBUFFER
  5
2B8A
330
0
100
AcDbIdBuffer
330
31
330
43
330
52
330
5F
330
6C
330
79
330
86
330
95
330
A3
330
B0
  0
IDBUFFER
  5
2B8B
330
0
100
AcDbIdBuffer
330
C8
  0
IDBUFFER
  5
2B8C
330
0
100
AcDbIdBuffer
330
3D35
330
3D36
330
3D37
330
3D38
330
3D3C
330
3D3D
330
3D3E
330
3D3F
  0
IDBUFFER
  5
2B8D
330
0
100
AcDbIdBuffer
330
39DF
330
39E8
330
39E9
330
39F2
  0
IDBUFFER
  5
2B8E
330
0
100
AcDbIdBuffer
330
3433
330
3439
330
3447
330
3979
330
3C8D
330
3D34
  0
IDBUFFER
  5
2B8F
330
0
100
AcDbIdBuffer
330
124B
330
124C
330
124D
330
124E
330
124F
330
1250
330
1251
330
1252
330
1256
330
1257
330
125B
330
125C
330
125D
330
1261
330
1262
330
1263
330
1264
330
1265
330
1266
330
1267
330
1268
330
1269
330
126A
330
126B
330
126F
330
1270
330
1271
330
1272
330
1273
330
1274
330
1275
330
1276
330
127A
330
127B
330
127C
330
127D
330
127E
330
127F
330
1280
330
1281
330
1282
330
1286
330
1287
330
1288
330
1289
330
128A
330
128E
330
128F
330
1290
330
1294
330
1298
330
1299
330
129A
330
12BB
330
12BC
330
12BD
330
12BE
330
12BF
330
12C0
330
12C1
330
12C2
330
12C3
330
12C4
330
12C5
330
12C6
330
12C7
330
12C8
330
12C9
330
12CA
330
12CB
330
12CC
330
12CD
330
12CE
330
12CF
330
12D0
330
12D1
330
12D2
330
12D3
330
12D4
330
12D5
330
12D6
330
12D7
330
12D8
330
12D9
330
12DA
330
12DB
330
12DC
330
12DD
330
12DE
330
12DF
330
12E0
330
12E1
330
12E2
330
12E3
330
12E4
330
12E5
330
12E6
330
12E7
330
12E8
330
12E9
330
12EA
330
12EB
330
12EC
330
12ED
330
12EE
330
12EF
330
12F0
330
1309
330
130A
330
130B
  0
IDBUFFER
  5
2B93
330
0
100
AcDbIdBuffer
330
3452
330
3453
330
397A
330
397B
  0
ENDSEC
  0
EOF
