  0
SECTION
  2
HEADER
  9
$ACADVER
  1
AC1015
  9
$ACADMAINTVER
 70
    20
  9
$DWGCODEPAGE
  3
ANSI_950
  9
$INSBASE
 10
0.0
 20
0.0
 30
0.0
  9
$EXTMIN
 10
1058.50279282229
 20
837.0127620740014
 30
-0.0043991851715646
  9
$EXTMAX
 10
1279.726814268312
 20
1057.101002126762
 30
144.16789819254
  9
$LIMMIN
 10
0.0
 20
0.0
  9
$LIMMAX
 10
420.0
 20
297.0
  9
$ORTHOMODE
 70
     1
  9
$REGENMODE
 70
     1
  9
$FILLMODE
 70
     1
  9
$QTEXTMODE
 70
     0
  9
$MIRRTEXT
 70
     1
  9
$LTSCALE
 40
1.0
  9
$ATTMODE
 70
     1
  9
$TEXTSIZE
 40
1.0
  9
$TRACEWID
 40
1.0
  9
$TEXTSTYLE
  7
STANDARD
  9
$CLAYER
  8
0
  9
$CELTYPE
  6
ByLayer
  9
$CECOLOR
 62
   256
  9
$CELTSCALE
 40
1.0
  9
$DISPSILH
 70
     0
  9
$DIMSCALE
 40
1.0
  9
$DIMASZ
 40
2.5
  9
$DIMEXO
 40
1.0
  9
$DIMDLI
 40
10.0
  9
$DIMRND
 40
0.0
  9
$DIMDLE
 40
0.0
  9
$DIMEXE
 40
1.0
  9
$DIMTP
 40
0.1
  9
$DIMTM
 40
0.1
  9
$DIMTXT
 40
3.5
  9
$DIMCEN
 40
0.0
  9
$DIMTSZ
 40
0.0
  9
$DIMTOL
 70
     0
  9
$DIMLIM
 70
     0
  9
$DIMTIH
 70
     0
  9
$DIMTOH
 70
     0
  9
$DIMSE1
 70
     0
  9
$DIMSE2
 70
     0
  9
$DIMTAD
 70
     1
  9
$DIMZIN
 70
     8
  9
$DIMBLK
  1

  9
$DIMASO
 70
     1
  9
$DIMSHO
 70
     1
  9
$DIMPOST
  1

  9
$DIMAPOST
  1
"
  9
$DIMALT
 70
     0
  9
$DIMALTD
 70
     2
  9
$DIMALTF
 40
0.0393701
  9
$DIMLFAC
 40
1.0
  9
$DIMTOFL
 70
     1
  9
$DIMTVP
 40
0.0
  9
$DIMTIX
 70
     0
  9
$DIMSOXD
 70
     0
  9
$DIMSAH
 70
     0
  9
$DIMBLK1
  1

  9
$DIMBLK2
  1

  9
$DIMSTYLE
  2
AM_ISO
  9
$DIMCLRD
 70
   256
  9
$DIMCLRE
 70
   256
  9
$DIMCLRT
 70
     2
  9
$DIMTFAC
 40
0.71
  9
$DIMGAP
 40
1.5
  9
$DIMJUST
 70
     0
  9
$DIMSD1
 70
     0
  9
$DIMSD2
 70
     0
  9
$DIMTOLJ
 70
     0
  9
$DIMTZIN
 70
     8
  9
$DIMALTZ
 70
     0
  9
$DIMALTTZ
 70
     0
  9
$DIMUPT
 70
     0
  9
$DIMDEC
 70
     2
  9
$DIMTDEC
 70
     3
  9
$DIMALTU
 70
     2
  9
$DIMALTTD
 70
     4
  9
$DIMTXSTY
  7
STANDARD
  9
$DIMAUNIT
 70
     0
  9
$DIMADEC
 70
     0
  9
$DIMALTRND
 40
0.0
  9
$DIMAZIN
 70
     2
  9
$DIMDSEP
 70
    46
  9
$DIMATFIT
 70
     3
  9
$DIMFRAC
 70
     0
  9
$DIMLDRBLK
  1

  9
$DIMLUNIT
 70
     2
  9
$DIMLWD
 70
    -1
  9
$DIMLWE
 70
    -1
  9
$DIMTMOVE
 70
     0
  9
$LUNITS
 70
     2
  9
$LUPREC
 70
     2
  9
$SKETCHINC
 40
1.0
  9
$FILLETRAD
 40
2.5
  9
$AUNITS
 70
     0
  9
$AUPREC
 70
     0
  9
$MENU
  1
.
  9
$ELEVATION
 40
0.0
  9
$PELEVATION
 40
0.0
  9
$THICKNESS
 40
0.0
  9
$LIMCHECK
 70
     0
  9
$CHAMFERA
 40
2.5
  9
$CHAMFERB
 40
2.5
  9
$CHAMFERC
 40
20.0
  9
$CHAMFERD
 40
0.0
  9
$SKPOLY
 70
     0
  9
$TDCREATE
 40
2453880.605782153
  9
$TDUCREATE
 40
2453880.272448820
  9
$TDUPDATE
 40
2453880.612800741
  9
$TDUUPDATE
 40
2453880.279467408
  9
$TDINDWG
 40
0.0076584144
  9
$TDUSRTIMER
 40
0.0070203935
  9
$USRTIMER
 70
     1
  9
$ANGBASE
 50
0.0
  9
$ANGDIR
 70
     0
  9
$PDMODE
 70
     0
  9
$PDSIZE
 40
0.0
  9
$PLINEWID
 40
0.0
  9
$SPLFRAME
 70
     0
  9
$SPLINETYPE
 70
     6
  9
$SPLINESEGS
 70
     8
  9
$HANDSEED
  5
6F1
  9
$SURFTAB1
 70
     6
  9
$SURFTAB2
 70
     6
  9
$SURFTYPE
 70
     6
  9
$SURFU
 70
     6
  9
$SURFV
 70
     6
  9
$UCSBASE
  2

  9
$UCSNAME
  2

  9
$UCSORG
 10
0.0
 20
0.0
 30
0.0
  9
$UCSXDIR
 10
1.0
 20
0.0
 30
0.0
  9
$UCSYDIR
 10
0.0
 20
1.0
 30
0.0
  9
$UCSORTHOREF
  2

  9
$UCSORTHOVIEW
 70
     0
  9
$UCSORGTOP
 10
0.0
 20
0.0
 30
0.0
  9
$UCSORGBOTTOM
 10
0.0
 20
0.0
 30
0.0
  9
$UCSORGLEFT
 10
0.0
 20
0.0
 30
0.0
  9
$UCSORGRIGHT
 10
0.0
 20
0.0
 30
0.0
  9
$UCSORGFRONT
 10
0.0
 20
0.0
 30
0.0
  9
$UCSORGBACK
 10
0.0
 20
0.0
 30
0.0
  9
$PUCSBASE
  2

  9
$PUCSNAME
  2

  9
$PUCSORG
 10
0.0
 20
0.0
 30
0.0
  9
$PUCSXDIR
 10
1.0
 20
0.0
 30
0.0
  9
$PUCSYDIR
 10
0.0
 20
1.0
 30
0.0
  9
$PUCSORTHOREF
  2

  9
$PUCSORTHOVIEW
 70
     0
  9
$PUCSORGTOP
 10
0.0
 20
0.0
 30
0.0
  9
$PUCSORGBOTTOM
 10
0.0
 20
0.0
 30
0.0
  9
$PUCSORGLEFT
 10
0.0
 20
0.0
 30
0.0
  9
$PUCSORGRIGHT
 10
0.0
 20
0.0
 30
0.0
  9
$PUCSORGFRONT
 10
0.0
 20
0.0
 30
0.0
  9
$PUCSORGBACK
 10
0.0
 20
0.0
 30
0.0
  9
$USERI1
 70
     0
  9
$USERI2
 70
     0
  9
$USERI3
 70
     0
  9
$USERI4
 70
     0
  9
$USERI5
 70
     0
  9
$USERR1
 40
0.0
  9
$USERR2
 40
0.0
  9
$USERR3
 40
0.0
  9
$USERR4
 40
0.0
  9
$USERR5
 40
0.0
  9
$WORLDVIEW
 70
     1
  9
$SHADEDGE
 70
     3
  9
$SHADEDIF
 70
    70
  9
$TILEMODE
 70
     1
  9
$MAXACTVP
 70
    64
  9
$PINSBASE
 10
0.0
 20
0.0
 30
0.0
  9
$PLIMCHECK
 70
     0
  9
$PEXTMIN
 10
1.000000000000000E+20
 20
1.000000000000000E+20
 30
1.000000000000000E+20
  9
$PEXTMAX
 10
-1.000000000000000E+20
 20
-1.000000000000000E+20
 30
-1.000000000000000E+20
  9
$PLIMMIN
 10
0.0
 20
0.0
  9
$PLIMMAX
 10
420.0
 20
297.0
  9
$UNITMODE
 70
     0
  9
$VISRETAIN
 70
     1
  9
$PLINEGEN
 70
     0
  9
$PSLTSCALE
 70
     1
  9
$TREEDEPTH
 70
  3020
  9
$CMLSTYLE
  2
Standard
  9
$CMLJUST
 70
     0
  9
$CMLSCALE
 40
20.0
  9
$PROXYGRAPHICS
 70
     1
  9
$MEASUREMENT
 70
     1
  9
$CELWEIGHT
370
    -1
  9
$ENDCAPS
280
     0
  9
$JOINSTYLE
280
     0
  9
$LWDISPLAY
290
     0
  9
$INSUNITS
 70
     4
  9
$HYPERLINKBASE
  1

  9
$STYLESHEET
  1
彩色出圖.ctb
  9
$XEDIT
290
     1
  9
$CEPSNTYPE
380
     0
  9
$PSTYLEMODE
290
     1
  9
$FINGERPRINTGUID
  2
{900FB7A5-84C1-4AFB-92A8-5813624988DE}
  9
$VERSIONGUID
  2
{A8821E55-1153-48B5-8725-26FBDB44746C}
  9
$EXTNAMES
290
     1
  9
$PSVPSCALE
 40
0.0
  9
$OLESTARTUP
290
     0
  0
ENDSEC
  0
SECTION
  2
CLASSES
  0
CLASS
  1
ACDBDICTIONARYWDFLT
  2
AcDbDictionaryWithDefault
  3
ObjectDBX Classes
 90
        0
280
     0
281
     0
  0
CLASS
  1
ACDBPLACEHOLDER
  2
AcDbPlaceHolder
  3
ObjectDBX Classes
 90
        0
280
     0
281
     0
  0
CLASS
  1
LAYOUT
  2
AcDbLayout
  3
ObjectDBX Classes
 90
        0
280
     0
281
     0
  0
CLASS
  1
ACME_DOCUMENT
  2
AcMeDbDoc
  3
AcMeServices
 90
        0
280
     0
281
     0
  0
CLASS
  1
AMGSETTINGSOBJ
  2
AmgSettingsObj
  3
"AcadM|Product Description: AutoCAD Mechanical 2000|Company: Autodesk"
 90
        0
280
     0
281
     0
  0
CLASS
  1
ACMESCOPE
  2
AcMeScope
  3
AcMeServices
 90
        0
280
     0
281
     0
  0
CLASS
  1
ACMECOMMANDHISTORY
  2
AcMeCommandHistory
  3
AcMeServices
 90
        0
280
     0
281
     0
  0
CLASS
  1
ACIMSYSVARMAN
  2
AcImSysVarManager
  3
AcMeServices
 90
        0
280
     0
281
     0
  0
CLASS
  1
ACIMREALSYSVAR
  2
AcImRealSysVar
  3
AcMeServices
 90
        0
280
     0
281
     0
  0
CLASS
  1
ACIMINTSYSVAR
  2
AcImIntSysVar
  3
AcMeServices
 90
        0
280
     0
281
     0
  0
CLASS
  1
ACMEDRAWINGMAN
  2
AcMeDrawingMan
  3
AcMeServices
 90
        0
280
     0
281
     0
  0
CLASS
  1
ACMEVIEW
  2
AcMeView
  3
AcMeServices
 90
        0
280
     0
281
     0
  0
CLASS
  1
ACDBENTITYCACHE
  2
AcMeEntityCache
  3
AcMeServices
 90
        0
280
     0
281
     0
  0
CLASS
  1
GSMANAGER
  2
AcMeGSManager
  3
AcMeServices
 90
        0
280
     0
281
     0
  0
CLASS
  1
AMDTINTERNALREACTOR
  2
AmdtInternalReactor
  3
AcMeServices
 90
        0
280
     0
281
     0
  0
CLASS
  1
ACMESTATEMGR
  2
AcMeStateMgr
  3
AcMeServices
 90
        0
280
     0
281
     0
  0
CLASS
  1
ACGREFMASTER
  2
AcGrefMaster
  3
AcAttribServices
 90
        0
280
     0
281
     0
  0
CLASS
  1
ACME_DATABASE
  2
AcMeDbDatabase
  3
AcMeServices
 90
        0
280
     0
281
     0
  0
CLASS
  1
ACRFINSADJUSTERMGR
  2
AcRfInsAdjusterMgr
  3
AcMeServices
 90
        0
280
     0
281
     0
  0
CLASS
  1
ACGREFACADMASTER
  2
AcGrefacadMaster
  3
AcGrefServices
 90
        0
280
     0
281
     0
  0
CLASS
  1
AMIMASTER
  2
AmiMaster
  3
AmiServices
 90
        0
280
     0
281
     0
  0
CLASS
  1
ACMDATADICTIONARY
  2
AcmDataDictionary
  3
"AcmSymBB|Product Description: AutoCAD Mechanical 2004 DX|Company: Autodesk"
 90
        0
280
     0
281
     0
  0
CLASS
  1
ACMDATAENTRYBLOCK
  2
AcmDataEntryBlock
  3
"AcmSymBB|Product Description: AutoCAD Mechanical 2004 DX|Company: Autodesk"
 90
        0
280
     0
281
     0
  0
CLASS
  1
ACIMSTRSYSVAR
  2
AcImStrSysVar
  3
AcMeServices
 90
        0
280
     0
281
     0
  0
CLASS
  1
ACMSTANDARDISO
  2
AcmStandardISO
  3
"Amdt_StdImp|Product Description: AutoCAD Mechanical 2004 DX|Company: Autodesk"
 90
        0
280
     0
281
     0
  0
CLASS
  1
AMGOBJPROPCFG
  2
AmgObjPropCfg
  3
"AmgLay|Product Description: AutoCAD Mechanical 2000|Company: Autodesk"
 90
        1
280
     0
281
     0
  0
CLASS
  1
AMDTEDGESTANDARDISO
  2
AmdtEdgeStdISO
  3
"Amdt_StdImp|Product Description: AutoCAD Mechanical 2004 DX|Company: Autodesk"
 90
        0
280
     0
281
     0
  0
CLASS
  1
ACMSURFSTANDARDISO
  2
AcmSurfTextStdISO
  3
"Amdt_StdImp|Product Description: AutoCAD Mechanical 2004 DX|Company: Autodesk"
 90
        0
280
     0
281
     0
  0
CLASS
  1
ACMFCFSTANDARDISO
  2
AcmFCFStdISO
  3
"Amdt_StdImp|Product Description: AutoCAD Mechanical 2004 DX|Company: Autodesk"
 90
        0
280
     0
281
     0
  0
CLASS
  1
ACMWELDSTANDARDISO
  2
AcmWeldingStdISO
  3
"Amdt_StdImp|Product Description: AutoCAD Mechanical 2004 DX|Company: Autodesk"
 90
        0
280
     0
281
     0
  0
CLASS
  1
ACMIDSTANDARDISO
  2
AcmIdStdISO
  3
"Amdt_StdImp|Product Description: AutoCAD Mechanical 2004 DX|Company: Autodesk"
 90
        0
280
     0
281
     0
  0
CLASS
  1
ACMDATUMSTANDARDISO
  2
AcmDatumStdISO
  3
"Amdt_StdImp|Product Description: AutoCAD Mechanical 2004 DX|Company: Autodesk"
 90
        0
280
     0
281
     0
  0
CLASS
  1
ACMBOMSTANDARDISO
  2
AcmBOMStdISO
  3
"Amdt_StdImp|Product Description: AutoCAD Mechanical 2004 DX|Company: Autodesk"
 90
        0
280
     0
281
     0
  0
CLASS
  1
ACMDETAILSTANDARDISO
  2
AmdtDetailSymStdISO
  3
"Amdt_StdImp|Product Description: AutoCAD Mechanical 2004 DX|Company: Autodesk"
 90
        0
280
     0
281
     0
  0
CLASS
  1
ACMSECTIONSTANDARDISO
  2
AmdtSectionSymStdISO
  3
"Amdt_StdImp|Product Description: AutoCAD Mechanical 2004 DX|Company: Autodesk"
 90
        0
280
     0
281
     0
  0
CLASS
  1
ACMCENTERLINESTANDARDISO
  2
AmdtCenterLineStdISO
  3
"Amdt_StdImp|Product Description: AutoCAD Mechanical 2004 DX|Company: Autodesk"
 90
        0
280
     0
281
     0
  0
CLASS
  1
ACMNOTESTANDARDISO
  2
AmdtNoteStdISO
  3
"Amdt_StdImp|Product Description: AutoCAD Mechanical 2004 DX|Company: Autodesk"
 90
        0
280
     0
281
     0
  0
CLASS
  1
ACAMGLAYSTD
  2
AcAmgLayStd
  3
"AcAmgLayStd|Product Description: AutoCAD Mechanical 2000|Company: Autodesk"
 90
        0
280
     0
281
     0
  0
CLASS
  1
ACAMGDIMSTD
  2
AcAmgDimStd
  3
"AcAmgDimStd|Product Description: AutoCAD Mechanical 2000|Company: Autodesk"
 90
        0
280
     0
281
     0
  0
CLASS
  1
ACAMGHOLECHARTSTDISO
  2
AcAmgHoleChartStdISO
  3
ACMSYMBB_MODULE_NAME
 90
        0
280
     0
281
     0
  0
CLASS
  1
ACAMGTITLESTD
  2
AcAmgTitleStd
  3
"TITLEAPP"
 90
        0
280
     0
281
     0
  0
CLASS
  1
LAYER_INDEX
  2
AcDbLayerIndex
  3
ObjectDBX Classes
 90
    32768
280
     0
281
     0
  0
CLASS
  1
IDBUFFER
  2
AcDbIdBuffer
  3
ObjectDBX Classes
 90
    32768
280
     0
281
     0
  0
CLASS
  1
DICTIONARYVAR
  2
AcDbDictionaryVar
  3
ObjectDBX Classes
 90
        0
280
     0
281
     0
  0
CLASS
  1
AM_DRAWING_MGR
  2
AcDmDwgMgr
  3
AcMechDwgViewMgmt
 90
        0
280
     0
281
     0
  0
CLASS
  1
AM_DWG_DOCUMENT
  2
AcDmDwgDocument
  3
AcMechDwgViewMgmt
 90
        0
280
     0
281
     0
  0
CLASS
  1
AM_DWG_SHEET
  2
AcDmSheet
  3
AcMechDwgViewMgmt
 90
        0
280
     0
281
     0
  0
CLASS
  1
AM_VIEWDIMPARMAP
  2
AcDmViewDimParMap
  3
AcMechDwgViewMgmt
 90
        0
280
     0
281
     0
  0
CLASS
  1
AM_DWGMGR_NAME
  2
AcDmDwgMgrName
  3
AcMechDwgViewMgmt
 90
        0
280
     0
281
     0
  0
CLASS
  1
AMDTMENUSTATEMGR
  2
AmdtMenuStateMgr
  3
McadcomServices
 90
        0
280
     0
281
     0
  0
CLASS
  1
AMDTMCOMMENUSTATE
  2
AmdtMcomMenuState
  3
McadcomServices
 90
        0
280
     0
281
     0
  0
CLASS
  1
MAPIAMMOUDLE
  2
MApiAmModule
  3
MApiAmServices
 90
        0
280
     0
281
     0
  0
CLASS
  1
AMDTADMENUSTATE
  2
AmdtAdMenuState
  3
DesignerServices
 90
        0
280
     0
281
     0
  0
CLASS
  1
ADAPPL
  2
AcAdAppl
  3
DesignerServices
 90
        0
280
     0
281
     0
  0
CLASS
  1
DEPMGR
  2
AcAdDepMgr
  3
DesignerServices
 90
        0
280
     0
281
     0
  0
CLASS
  1
PARAMMGR
  2
AcAdParamMgr
  3
DesignerServices
 90
        0
280
     0
281
     0
  0
CLASS
  1
PARAMSCOPE
  2
AcAdParamScope
  3
DesignerServices
 90
        0
280
     0
281
     0
  0
CLASS
  1
NAMEDAPPL
  2
AcAdNamedAppl
  3
DesignerServices
 90
        0
280
     0
281
     0
  0
CLASS
  1
AMDTDMMENUSTATE
  2
AmdtDmMenuState
  3
AcMechDwgViewMgmt
 90
        0
280
     0
281
     0
  0
CLASS
  1
AMDTAMMENUSTATE
  2
AmdtAmMenuState
  3
DesignerAssemblies
 90
        0
280
     0
281
     0
  0
CLASS
  1
ACAMPROJECT
  2
AcAmProject
  3
DesignerAssemblies
 90
        0
280
     0
281
     0
  0
CLASS
  1
ACAMGRCOMPDEF
  2
AcAmGrCompDef
  3
DesignerAssemblies
 90
        0
280
     0
281
     0
  0
CLASS
  1
ACCMCONTEXT
  2
AcCmContext
  3
DesignerAssemblies
 90
        0
280
     0
281
     0
  0
CLASS
  1
ACAMCOMPDEF
  2
AcAmCompDef
  3
DesignerAssemblies
 90
        0
280
     0
281
     0
  0
CLASS
  1
ACAMCOMPDEFMGR
  2
AcAmCompDefMgr
  3
DesignerAssemblies
 90
        0
280
     0
281
     0
  0
CLASS
  1
AMCONTEXTMGR
  2
AcAmContextMgr
  3
DesignerAssemblies
 90
        0
280
     0
281
     0
  0
CLASS
  1
ACAMCONTEXTMODELER
  2
AcAmContextModeler
  3
DesignerAssemblies
 90
        0
280
     0
281
     0
  0
CLASS
  1
ACMTHREADLINESTANDARDISO
  2
AmdtThreadLineStdISO
  3
"Amdt_StdImp|Product Description: AutoCAD Mechanical 2004 DX|Company: Autodesk"
 90
        0
280
     0
281
     0
  0
CLASS
  1
CATALOGSTATE
  2
AcAmCatalogState
  3
DesignerAssemblies
 90
        0
280
     0
281
     0
  0
CLASS
  1
ACAMGRCOMPDEFSET
  2
AcAmGrCompDefSet
  3
DesignerAssemblies
 90
        0
280
     0
281
     0
  0
CLASS
  1
AMDTBROWSERDBTAB
  2
AmdtBrowserDbTab
  3
McadcomServices
 90
        0
280
     0
281
     0
  0
CLASS
  1
CBROWSERAPPOBJECT
  2
CBrowserAppObject
  3
McadcomServices
 90
        0
280
     0
281
     0
  0
CLASS
  1
DM_PLACEHOLDER
  2
AcDmSelsetPlaceholder
  3
AcMechDwgViewMgmt
 90
        0
280
     0
281
     0
  0
CLASS
  1
TABLESTYLE
  2
AcDbTableStyle
  3
ObjectDBX Classes
 90
     2047
280
     0
281
     0
  0
CLASS
  1
VAACXREFPANELOBJECT
  2
VaAcXREFPanelObject
  3
VAAC_ADDIN
 90
        0
280
     0
281
     0
  0
CLASS
  1
VAACIMAGEINVENTORY
  2
VaAcImageInventory
  3
VAAC_ADDIN
 90
        0
280
     0
281
     0
  0
CLASS
  1
AMDTNOTETEMPLATEDB
  2
AmdtNoteTemplateDB
  3
AMDT_STDIMP_MODULE_NAME
 90
        0
280
     0
281
     0
  0
CLASS
  1
ACMBOM
  2
AcmBom
  3
"AcmSymBB|Product Description: AutoCAD Mechanical 2004 DX|Company: Autodesk"
 90
    32768
280
     0
281
     0
  0
CLASS
  1
AMDTFORMULAUPDATEDISPATCHER
  2
AmdtFormulaUpdateDispatcher
  3
AcMeServices
 90
    32768
280
     0
281
     0
  0
CLASS
  1
ACMPARTLIST
  2
AcmPartList
  3
"AcmSymBB|Product Description: AutoCAD Mechanical 2004 DX|Company: Autodesk"
 90
    33791
280
     0
281
     1
  0
CLASS
  1
ACAMGFILTERDAT
  2
AcAmgFilterDat
  3
"AcadM|Product Description: AutoCAD Mechanical 2000|Company: Autodesk"
 90
        0
280
     0
281
     0
  0
CLASS
  1
ACMSTANDARDJIS
  2
AcmStandardJIS
  3
"Amdt_StdImp|Product Description: AutoCAD Mechanical 2004 DX|Company: Autodesk"
 90
        0
280
     0
281
     0
  0
CLASS
  1
ACMSURFSTANDARDJIS
  2
AcmSurfTextStdJIS
  3
"Amdt_StdImp|Product Description: AutoCAD Mechanical 2004 DX|Company: Autodesk"
 90
        0
280
     0
281
     0
  0
CLASS
  1
ACMFCFSTANDARDJIS
  2
AcmFCFStdJIS
  3
"Amdt_StdImp|Product Description: AutoCAD Mechanical 2004 DX|Company: Autodesk"
 90
        0
280
     0
281
     0
  0
CLASS
  1
ACMWELDSTANDARDJIS
  2
AcmWeldingStdJIS
  3
"Amdt_StdImp|Product Description: AutoCAD Mechanical 2004 DX|Company: Autodesk"
 90
        0
280
     0
281
     0
  0
CLASS
  1
ACMIDSTANDARDJIS
  2
AcmIdStdJIS
  3
"Amdt_StdImp|Product Description: AutoCAD Mechanical 2004 DX|Company: Autodesk"
 90
        0
280
     0
281
     0
  0
CLASS
  1
ACMDATUMSTANDARDJIS
  2
AcmDatumStdJIS
  3
"Amdt_StdImp|Product Description: AutoCAD Mechanical 2004 DX|Company: Autodesk"
 90
        0
280
     0
281
     0
  0
CLASS
  1
ACMBOMSTANDARDJIS
  2
AcmBOMStdJIS
  3
"Amdt_StdImp|Product Description: AutoCAD Mechanical 2004 DX|Company: Autodesk"
 90
        0
280
     0
281
     0
  0
CLASS
  1
ACMDETAILSTANDARDJIS
  2
AmdtDetailSymStdJIS
  3
"Amdt_StdImp|Product Description: AutoCAD Mechanical 2004 DX|Company: Autodesk"
 90
        0
280
     0
281
     0
  0
CLASS
  1
ACMSECTIONSTANDARDJIS
  2
AmdtSectionSymStdJIS
  3
"Amdt_StdImp|Product Description: AutoCAD Mechanical 2004 DX|Company: Autodesk"
 90
        0
280
     0
281
     0
  0
CLASS
  1
ACMCENTERLINESTANDARDJIS
  2
AmdtCenterLineStdJIS
  3
"Amdt_StdImp|Product Description: AutoCAD Mechanical 2004 DX|Company: Autodesk"
 90
        0
280
     0
281
     0
  0
CLASS
  1
ACMTHREADLINESTANDARDJIS
  2
AmdtThreadLineStdJIS
  3
"Amdt_StdImp|Product Description: AutoCAD Mechanical 2004 DX|Company: Autodesk"
 90
        0
280
     0
281
     0
  0
CLASS
  1
ACMNOTESTANDARDJIS
  2
AmdtNoteStdJIS
  3
"Amdt_StdImp|Product Description: AutoCAD Mechanical 2004 DX|Company: Autodesk"
 90
        0
280
     0
281
     0
  0
CLASS
  1
ACAMGHOLECHARTSTDJIS
  2
AcAmgHoleChartStdJIS
  3
ACMSYMBB_MODULE_NAME
 90
        0
280
     0
281
     0
  0
CLASS
  1
ACRFATTGENMGR
  2
AcRfAttGeneralMgr
  3
AcAttribServices
 90
        0
280
     0
281
     0
  0
ENDSEC
  0
SECTION
  2
TABLES
  0
TABLE
  2
VPORT
  5
8
330
0
100
AcDbSymbolTable
 70
     7
  0
VPORT
  5
6E8
330
8
100
AcDbSymbolTableRecord
100
AcDbViewportTableRecord
  2
*Active
 70
     0
 10
0.0
 20
0.0
 11
1.0
 21
1.0
 12
1169.114803545301
 22
947.0568821003819
 13
0.0
 23
0.0
 14
2.5
 24
2.5
 15
10.0
 25
10.0
 16
0.0
 26
0.0
 36
1.0
 17
0.0
 27
0.0
 37
0.0
 40
221.7576830872954
 41
1.494936708860759
 42
50.0
 43
0.0
 44
0.0
 50
0.0
 51
0.0
 71
     0
 72
   100
 73
     1
 74
     3
 75
     0
 76
     0
 77
     0
 78
     0
281
     0
 65
     1
110
0.0
120
0.0
130
0.0
111
1.0
121
0.0
131
0.0
112
0.0
122
1.0
132
0.0
 79
     0
146
0.0
  0
ENDTAB
  0
TABLE
  2
LTYPE
  5
5
330
0
100
AcDbSymbolTable
 70
    16
  0
LTYPE
  5
14
330
5
100
AcDbSymbolTableRecord
100
AcDbLinetypeTableRecord
  2
ByBlock
 70
     0
  3

 72
    65
 73
     0
 40
0.0
  0
LTYPE
  5
15
330
5
100
AcDbSymbolTableRecord
100
AcDbLinetypeTableRecord
  2
ByLayer
 70
     0
  3

 72
    65
 73
     0
 40
0.0
  0
LTYPE
  5
16
330
5
100
AcDbSymbolTableRecord
100
AcDbLinetypeTableRecord
  2
Continuous
 70
     0
  3
Solid line
 72
    65
 73
     0
 40
0.0
  0
LTYPE
  5
64
330
5
100
AcDbSymbolTableRecord
100
AcDbLinetypeTableRecord
  2
AM_ISO02W050
 70
     0
  3
__ __ __ __ __ __ __ __ __ __ __ __ __ __ __
 72
    65
 73
     2
 40
7.5
 49
6.0
 74
     0
 49
-1.5
 74
     0
  0
LTYPE
  5
65
330
5
100
AcDbSymbolTableRecord
100
AcDbLinetypeTableRecord
  2
AM_ISO08W050
 70
     0
  3
____ . ____ . ____ . ____ . ____ . ____ . ____
 72
    65
 73
     4
 40
18.0
 49
12.0
 74
     0
 49
-1.5
 74
     0
 49
3.0
 74
     0
 49
-1.5
 74
     0
  0
LTYPE
  5
66
330
5
100
AcDbSymbolTableRecord
100
AcDbLinetypeTableRecord
  2
AM_ISO09W050
 70
     0
  3
_____ . . _____ . . _____ . . ____ .. ____
 72
    65
 73
     6
 40
22.5
 49
12.0
 74
     0
 49
-1.5
 74
     0
 49
3.0
 74
     0
 49
-1.5
 74
     0
 49
3.0
 74
     0
 49
-1.5
 74
     0
  0
LTYPE
  5
67
330
5
100
AcDbSymbolTableRecord
100
AcDbLinetypeTableRecord
  2
Amconstr
 70
     0
  3
_______________________
 72
    65
 73
     2
 40
9999.0
 49
9999.0
 74
     0
 49
0.0
 74
     0
  0
LTYPE
  5
68
330
5
100
AcDbSymbolTableRecord
100
AcDbLinetypeTableRecord
  2
AM_ISO08W050x2
 70
     0
  3
__ . __ . __ . __ . __ . __
 72
    65
 73
     4
 40
9.0
 49
6.0
 74
     0
 49
-0.75
 74
     0
 49
1.5
 74
     0
 49
-0.75
 74
     0
  0
LTYPE
  5
69
330
5
100
AcDbSymbolTableRecord
100
AcDbLinetypeTableRecord
  2
AM_ISO02W050x2
 70
     0
  3
 _ _ _ _ _ _ _ _ _ _ _ _
 72
    65
 73
     2
 40
3.75
 49
3.0
 74
     0
 49
-0.75
 74
     0
  0
LTYPE
  5
6C
330
5
100
AcDbSymbolTableRecord
100
AcDbLinetypeTableRecord
  2
Amzigzag
 70
     0
  3
/\/-/\/-/\/-/\/-/\/-/\/
 72
    65
 73
     2
 40
11.0001
 49
0.0001
 74
     4
 75
   135
340
6B
 46
0.04
 50
0.0
 44
0.0
 45
0.0
 49
-11.0
 74
     0
  0
LTYPE
  5
7A
330
5
100
AcDbSymbolTableRecord
100
AcDbLinetypeTableRecord
  2
ACISOWELD
 70
     0
  3
_ _ _ _ _
 72
    65
 73
     2
 40
2.0
 49
2.0
 74
     0
 49
-1.0
 74
     0
  0
LTYPE
  5
7B
330
5
100
AcDbSymbolTableRecord
100
AcDbLinetypeTableRecord
  2
ACISOTGB
 70
     0
  3
__ . . __ . .
 72
    65
 73
     6
 40
9.0
 49
4.0
 74
     0
 49
-1.0
 74
     0
 49
1.0
 74
     0
 49
-1.0
 74
     0
 49
1.0
 74
     0
 49
-1.0
 74
     0
  0
LTYPE
  5
7C
330
5
100
AcDbSymbolTableRecord
100
AcDbLinetypeTableRecord
  2
ACISOTGL
 70
     0
  3
_ _ _ _ _
 72
    65
 73
     2
 40
3.0
 49
2.0
 74
     0
 49
-1.0
 74
     0
  0
LTYPE
  5
7E
330
5
100
AcDbSymbolTableRecord
100
AcDbLinetypeTableRecord
  2
CENTER
 70
     0
  3
__ . __
 72
    65
 73
     4
 40
7.0
 49
4.0
 74
     0
 49
-1.0
 74
     0
 49
1.0
 74
     0
 49
-1.0
 74
     0
  0
LTYPE
  5
D8
330
5
100
AcDbSymbolTableRecord
100
AcDbLinetypeTableRecord
  2
HIDDEN
 70
     0
  3
Hidden __ __ __ __ __ __ __ __ __ __ __ __ __ _
 72
    65
 73
     2
 40
9.524999999999998
 49
6.349999999999999
 74
     0
 49
-3.174999999999999
 74
     0
  0
LTYPE
  5
D9
330
5
100
AcDbSymbolTableRecord
100
AcDbLinetypeTableRecord
  2
PHANTOM2
 70
     0
  3
Phantom (.5x) ___ _ _ ___ _ _ ___ _ _ ___ _ _
 72
    65
 73
     6
 40
31.75
 49
15.875
 74
     0
 49
-3.174999999999999
 74
     0
 49
3.174999999999999
 74
     0
 49
-3.174999999999999
 74
     0
 49
3.174999999999999
 74
     0
 49
-3.174999999999999
 74
     0
  0
LTYPE
  5
25B
330
5
100
AcDbSymbolTableRecord
100
AcDbLinetypeTableRecord
  2
ACJISTGB
 70
     0
  3
__ . . __ . .
 72
    65
 73
     6
 40
9.0
 49
4.0
 74
     0
 49
-1.0
 74
     0
 49
1.0
 74
     0
 49
-1.0
 74
     0
 49
1.0
 74
     0
 49
-1.0
 74
     0
  0
LTYPE
  5
25C
330
5
100
AcDbSymbolTableRecord
100
AcDbLinetypeTableRecord
  2
ACJISTGL
 70
     0
  3
_ _ _ _ _
 72
    65
 73
     2
 40
3.0
 49
2.0
 74
     0
 49
-1.0
 74
     0
  0
ENDTAB
  0
TABLE
  2
LAYER
  5
2
102
{ACAD_XDICTIONARY
360
275
102
}
330
0
100
AcDbSymbolTable
 70
     6
  0
LAYER
  5
10
330
2
100
AcDbSymbolTableRecord
100
AcDbLayerTableRecord
  2
0
 70
     0
 62
     7
  6
Continuous
370
    -3
390
F
  0
LAYER
  5
1B0
330
2
100
AcDbSymbolTableRecord
100
AcDbLayerTableRecord
  2
AM_5
 70
     0
 62
     3
  6
Continuous
370
    25
390
F
  0
LAYER
  5
25D
330
2
100
AcDbSymbolTableRecord
100
AcDbLayerTableRecord
  2
Defpoints
 70
     0
 62
     7
  6
Continuous
290
     0
370
    -3
390
F
  0
LAYER
  5
25E
330
2
100
AcDbSymbolTableRecord
100
AcDbLayerTableRecord
  2
AM_VIS
 70
     2
 62
     7
  6
Continuous
370
    50
390
F
  0
LAYER
  5
25F
330
2
100
AcDbSymbolTableRecord
100
AcDbLayerTableRecord
  2
AM_7
 70
     0
 62
     4
  6
AM_ISO08W050
370
    25
390
F
  0
LAYER
  5
260
330
2
100
AcDbSymbolTableRecord
100
AcDbLayerTableRecord
  2
LOGO
 70
     0
 62
     7
  6
Continuous
370
    -3
390
F
  0
ENDTAB
  0
TABLE
  2
STYLE
  5
3
330
0
100
AcDbSymbolTable
 70
    12
  0
STYLE
  5
11
330
3
100
AcDbSymbolTableRecord
100
AcDbTextStyleTableRecord
  2
STANDARD
 70
     0
 40
0.0
 41
1.0
 50
0.0
 71
     0
 42
1.0
  3
ISOCP.SHX
  4
CHINESET.SHX
  0
STYLE
  5
6B
330
3
100
AcDbSymbolTableRecord
100
AcDbTextStyleTableRecord
  2

 70
     1
 40
0.0
 41
1.0
 50
0.0
 71
     0
 42
2.5
  3
ltypeshp.shx
  4

  0
STYLE
  5
6D
330
3
100
AcDbSymbolTableRecord
100
AcDbTextStyleTableRecord
  2
ACISOTS
 70
     0
 40
1.0
 41
1.0
 50
0.0
 71
     0
 42
1.0
  3
isocp.shx
  4
chineset.shx
  0
STYLE
  5
79
330
3
100
AcDbSymbolTableRecord
100
AcDbTextStyleTableRecord
  2
ACISOGDT
 70
     0
 40
0.0
 41
1.0
 50
0.0
 71
     0
 42
2.5
  3
amgdt.shx
  4
chineset.shx
  0
STYLE
  5
1FA
330
3
100
AcDbSymbolTableRecord
100
AcDbTextStyleTableRecord
  2
USER1
 70
     0
 40
0.0
 41
1.0
 50
0.0
 71
     0
 42
1.0
  3
TXT.SHX
  4

  0
STYLE
  5
1FB
330
3
100
AcDbSymbolTableRecord
100
AcDbTextStyleTableRecord
  2
USER2
 70
     0
 40
0.0
 41
1.0
 50
0.0
 71
     0
 42
1.0
  3
SIMPLEX.SHX
  4

  0
STYLE
  5
1FC
330
3
100
AcDbSymbolTableRecord
100
AcDbTextStyleTableRecord
  2
USER3
 70
     0
 40
0.0
 41
1.0
 50
0.0
 71
     0
 42
1.0
  3
ITALIC.SHX
  4

  0
STYLE
  5
261
330
3
100
AcDbSymbolTableRecord
100
AcDbTextStyleTableRecord
  2
CHINESET
 70
     0
 40
0.0
 41
1.0
 50
0.0
 71
     0
 42
2.5
  3
simplex.shx
  4
CHINESET.shx
  0
STYLE
  5
262
330
3
100
AcDbSymbolTableRecord
100
AcDbTextStyleTableRecord
  2
ACJISTS
 70
     0
 40
1.0
 41
1.0
 50
0.0
 71
     0
 42
2.5
  3
isocp.shx
  4
chineset.shx
  0
STYLE
  5
263
330
3
100
AcDbSymbolTableRecord
100
AcDbTextStyleTableRecord
  2
ACJISGDT
 70
     0
 40
0.0
 41
1.0
 50
0.0
 71
     0
 42
2.5
  3
amgdt.shx
  4

  0
ENDTAB
  0
TABLE
  2
VIEW
  5
6
330
0
100
AcDbSymbolTable
 70
     0
  0
ENDTAB
  0
TABLE
  2
UCS
  5
7
330
0
100
AcDbSymbolTable
 70
     0
  0
ENDTAB
  0
TABLE
  2
APPID
  5
9
330
0
100
AcDbSymbolTable
 70
    17
  0
APPID
  5
12
330
9
100
AcDbSymbolTableRecord
100
AcDbRegAppTableRecord
  2
ACAD
 70
     0
  0
APPID
  5
46
330
9
100
AcDbSymbolTableRecord
100
AcDbRegAppTableRecord
  2
MCAD_NO_VIS
 70
     0
  0
APPID
  5
47
330
9
100
AcDbSymbolTableRecord
100
AcDbRegAppTableRecord
  2
ACAD_TEMP_GRAPHIC
 70
     0
  0
APPID
  5
58
330
9
100
AcDbSymbolTableRecord
100
AcDbRegAppTableRecord
  2
ACATTRIBSERVICES
 70
     0
  0
APPID
  5
EE
330
9
100
AcDbSymbolTableRecord
100
AcDbRegAppTableRecord
  2
AD_DRAW
 70
     0
  0
APPID
  5
10C
330
9
100
AcDbSymbolTableRecord
100
AcDbRegAppTableRecord
  2
DESIGNERASSEMBLIES
 70
     0
  0
APPID
  5
111
330
9
100
AcDbSymbolTableRecord
100
AcDbRegAppTableRecord
  2
ACADM_DIM_EDIT
 70
     0
  0
APPID
  5
112
330
9
100
AcDbSymbolTableRecord
100
AcDbRegAppTableRecord
  2
AMDT_DM_ADJ
 70
     0
  0
APPID
  5
26C
330
9
100
AcDbSymbolTableRecord
100
AcDbRegAppTableRecord
  2
GENIUS_GENODEF_13
 70
     0
  0
APPID
  5
26D
330
9
100
AcDbSymbolTableRecord
100
AcDbRegAppTableRecord
  2
ACAD_PSEXT
 70
     0
  0
APPID
  5
26E
330
9
100
AcDbSymbolTableRecord
100
AcDbRegAppTableRecord
  2
GENIUS_AMGTXT_16
 70
     0
  0
APPID
  5
26F
330
9
100
AcDbSymbolTableRecord
100
AcDbRegAppTableRecord
  2
GENIUS_GENOENT_13
 70
     0
  0
APPID
  5
270
330
9
100
AcDbSymbolTableRecord
100
AcDbRegAppTableRecord
  2
GENIUS_GENOBJ-N-CRS_13
 70
     0
  0
APPID
  5
271
330
9
100
AcDbSymbolTableRecord
100
AcDbRegAppTableRecord
  2
GENIUS_GENOLIS_13
 70
     0
  0
APPID
  5
272
330
9
100
AcDbSymbolTableRecord
100
AcDbRegAppTableRecord
  2
GENIUS_GENOREF_13
 70
     0
  0
APPID
  5
273
330
9
100
AcDbSymbolTableRecord
100
AcDbRegAppTableRecord
  2
GENIUS_GENREC_14
 70
     0
  0
APPID
  5
274
330
9
100
AcDbSymbolTableRecord
100
AcDbRegAppTableRecord
  2
GENIUS_GENOBJ-N-REC_13
 70
     0
  0
ENDTAB
  0
TABLE
  2
DIMSTYLE
  5
A
330
0
100
AcDbSymbolTable
 70
    18
100
AcDbDimStyleTable
 71
     1
340
81
  0
DIMSTYLE
105
27
330
A
100
AcDbSymbolTableRecord
100
AcDbDimStyleTableRecord
  2
ISO-25
 70
     0
 41
2.5
 42
0.625
 43
3.75
 44
1.25
 73
     0
 74
     0
 77
     1
 78
     8
140
2.5
141
2.5
143
0.03937007874016
147
0.625
171
     3
172
     1
271
     2
272
     2
274
     3
278
    44
283
     0
284
     8
340
11
  0
DIMSTYLE
105
81
330
A
100
AcDbSymbolTableRecord
100
AcDbDimStyleTableRecord
  2
AM_ISO
 70
     0
  4
"
 41
2.5
 42
1.0
 43
10.0
 44
1.0
 47
0.1
 48
0.1
 73
     0
 74
     0
 77
     1
 78
     8
 79
     2
140
3.5
141
0.0
143
0.0393701
146
0.71
147
1.5
172
     1
176
   256
177
   256
178
     2
271
     2
272
     3
274
     4
283
     0
284
     8
340
11
371
    -1
372
    -1
  0
DIMSTYLE
105
82
330
A
100
AcDbSymbolTableRecord
100
AcDbDimStyleTableRecord
  2
AM_ISO$3
 70
     0
  4
"
 41
2.5
 42
1.0
 43
10.0
 44
1.0
 47
0.1
 48
0.1
 73
     0
 77
     1
 78
     8
 79
     2
140
3.5
141
0.0
143
0.0393701
146
0.71
147
1.5
176
   256
177
   256
178
     2
271
     2
272
     3
274
     4
283
     0
284
     8
288
     1
289
     0
340
11
371
    -1
372
    -1
  0
DIMSTYLE
105
83
330
A
100
AcDbSymbolTableRecord
100
AcDbDimStyleTableRecord
  2
AM_ISO$4
 70
     0
  4
"
 41
2.5
 42
1.0
 43
10.0
 44
1.0
 47
0.1
 48
0.1
 73
     0
 77
     1
 78
     8
 79
     2
140
3.5
141
0.0
143
0.0393701
146
0.71
147
1.5
176
   256
177
   256
178
     2
271
     2
272
     3
274
     4
283
     0
284
     8
288
     1
289
     0
340
11
371
    -1
372
    -1
  0
DIMSTYLE
105
84
330
A
100
AcDbSymbolTableRecord
100
AcDbDimStyleTableRecord
  2
AM_ISO$6
 70
     0
  4
"
 41
2.5
 42
1.0
 43
10.0
 44
1.0
 47
0.1
 48
0.1
 73
     0
 74
     0
 78
     8
 79
     2
140
3.5
141
0.0
143
0.0393701
146
0.71
147
1.5
172
     1
176
   256
177
   256
178
     2
271
     2
272
     3
274
     4
283
     0
284
     8
340
11
371
    -1
372
    -1
  0
DIMSTYLE
105
85
330
A
100
AcDbSymbolTableRecord
100
AcDbDimStyleTableRecord
  2
AM_ISO$7
 70
     0
  4
"
 41
2.5
 42
1.0
 43
10.0
 44
1.0
 47
0.1
 48
0.1
 73
     0
 74
     0
 77
     1
 78
     8
 79
     2
140
5.0
141
0.0
143
0.0393701
146
0.71
147
1.5
172
     1
176
   256
177
   256
178
     2
271
     2
272
     3
274
     4
283
     0
284
     8
340
11
371
    -1
372
    -1
  0
DIMSTYLE
105
86
330
A
100
AcDbSymbolTableRecord
100
AcDbDimStyleTableRecord
  2
AM_ISO$SF
 70
     0
  4
"
 41
2.5
 42
1.0
 43
10.0
 44
1.0
 47
0.1
 48
0.1
 73
     0
 74
     0
 75
     1
 76
     1
 77
     1
 78
     8
 79
     2
140
3.5
141
0.0
143
0.0393701
146
0.71
147
1.5
172
     1
176
   256
177
   256
178
     2
271
     2
272
     3
274
     4
283
     0
284
     8
340
11
371
    -1
372
    -1
  0
DIMSTYLE
105
8B
330
A
100
AcDbSymbolTableRecord
100
AcDbDimStyleTableRecord
  2
AM_ISO$SH
 70
     0
  4
"
 41
2.5
 42
1.0
 43
10.0
 44
1.0
 47
0.1
 48
0.1
 73
     0
 74
     0
 75
     1
 76
     1
 77
     1
 78
     8
 79
     2
140
3.5
141
0.0
143
0.0393701
144
2.0
146
0.71
147
1.5
172
     1
173
     1
176
   256
177
   256
178
     2
271
     2
272
     3
274
     4
283
     0
284
     8
340
11
343
87
371
    -1
372
    -1
  0
DIMSTYLE
105
264
102
{ACAD_REACTORS
330
370
330
36E
330
36C
330
369
330
36F
330
424
330
423
330
425
330
535
330
53A
330
53B
330
53C
330
5EF
330
5F0
330
5F1
102
}
330
A
100
AcDbSymbolTableRecord
100
AcDbDimStyleTableRecord
  2
STANDARD
 70
     0
 41
3.0
 42
2.0
 43
8.0
 44
2.0
 48
0.000000001
 73
     0
 74
     0
 77
     1
 78
     8
 79
     2
140
3.0
141
1.0
146
0.6
147
1.0
176
   256
177
   256
178
   256
179
     2
271
     2
272
     2
279
     2
284
     8
340
261
371
    -1
  0
DIMSTYLE
105
265
330
A
100
AcDbSymbolTableRecord
100
AcDbDimStyleTableRecord
  2
AM_JIS
 70
     0
  4
"
 41
2.5
 42
1.0
 43
10.0
 44
1.0
 47
0.1
 48
0.1
 73
     0
 74
     0
 77
     3
 78
     8
 79
     2
140
3.5
141
0.0
143
0.0393701
146
0.71
147
1.5
172
     1
176
   256
177
   256
178
     2
271
     2
272
     3
274
     4
283
     0
340
11
341
201
342
201
343
201
344
201
371
    -1
372
    -1
  0
DIMSTYLE
105
266
330
A
100
AcDbSymbolTableRecord
100
AcDbDimStyleTableRecord
  2
AM_JIS$3
 70
     0
  4
"
 41
2.5
 42
1.0
 43
10.0
 44
1.0
 47
0.1
 48
0.1
 73
     0
 77
     3
 78
     8
 79
     2
140
3.5
141
0.0
143
0.0393701
146
0.71
147
1.5
176
   256
177
   256
178
     2
271
     2
272
     3
274
     4
283
     0
288
     1
289
     0
340
11
341
201
342
201
343
201
344
201
371
    -1
372
    -1
  0
DIMSTYLE
105
267
330
A
100
AcDbSymbolTableRecord
100
AcDbDimStyleTableRecord
  2
AM_JIS$4
 70
     0
  4
"
 41
2.5
 42
1.0
 43
10.0
 44
1.0
 47
0.1
 48
0.1
 73
     0
 77
     3
 78
     8
 79
     2
140
3.5
141
0.0
143
0.0393701
146
0.71
147
1.5
176
   256
177
   256
178
     2
271
     2
272
     3
274
     4
283
     0
288
     1
289
     0
340
11
341
201
342
201
343
201
344
201
371
    -1
372
    -1
  0
DIMSTYLE
105
268
330
A
100
AcDbSymbolTableRecord
100
AcDbDimStyleTableRecord
  2
AM_JIS$6
 70
     0
  4
"
 41
2.5
 42
1.0
 43
10.0
 44
1.0
 47
0.1
 48
0.1
 73
     0
 74
     0
 78
     8
 79
     2
140
3.5
141
0.0
143
0.0393701
146
0.71
147
1.5
172
     1
176
   256
177
   256
178
     2
271
     2
272
     3
274
     4
283
     0
340
11
341
201
342
201
343
201
344
201
371
    -1
372
    -1
  0
DIMSTYLE
105
269
330
A
100
AcDbSymbolTableRecord
100
AcDbDimStyleTableRecord
  2
AM_JIS$7
 70
     0
  4
"
 41
2.5
 42
1.0
 43
10.0
 44
1.0
 47
0.1
 48
0.1
 73
     0
 74
     0
 77
     3
 78
     8
 79
     2
140
5.0
141
0.0
143
0.0393701
146
0.71
147
1.5
172
     1
176
   256
177
   256
178
     2
271
     2
272
     3
274
     4
283
     0
340
11
341
201
342
201
343
201
344
201
371
    -1
372
    -1
  0
DIMSTYLE
105
26A
330
A
100
AcDbSymbolTableRecord
100
AcDbDimStyleTableRecord
  2
AM_JIS$SF
 70
     0
  4
"
 41
2.5
 42
1.0
 43
10.0
 44
1.0
 47
0.1
 48
0.1
 73
     0
 74
     0
 75
     1
 76
     1
 77
     3
 78
     8
 79
     2
140
3.5
141
0.0
143
0.0393701
146
0.71
147
1.5
172
     1
176
   256
177
   256
178
     2
271
     2
272
     3
274
     4
283
     0
340
11
341
201
342
201
343
201
344
201
371
    -1
372
    -1
  0
DIMSTYLE
105
26B
330
A
100
AcDbSymbolTableRecord
100
AcDbDimStyleTableRecord
  2
AM_JIS$SH
 70
     0
  4
"
 41
2.5
 42
1.0
 43
10.0
 44
1.0
 47
0.1
 48
0.1
 73
     0
 74
     0
 75
     1
 76
     1
 77
     3
 78
     8
 79
     2
140
3.5
141
0.0
143
0.0393701
144
2.0
146
0.71
147
1.5
172
     1
173
     1
176
   256
177
   256
178
     2
271
     2
272
     3
274
     4
283
     0
340
11
341
201
342
201
343
87
344
201
371
    -1
372
    -1
  0
ENDTAB
  0
TABLE
  2
BLOCK_RECORD
  5
1
330
0
100
AcDbSymbolTable
 70
    21
  0
BLOCK_RECORD
  5
1F
102
{ACAD_XDICTIONARY
360
8F
102
}
330
1
100
AcDbSymbolTableRecord
100
AcDbBlockTableRecord
  2
*Model_Space
340
22
  0
BLOCK_RECORD
  5
1B
330
1
100
AcDbSymbolTableRecord
100
AcDbBlockTableRecord
  2
*Paper_Space
340
1E
  0
BLOCK_RECORD
  5
23
330
1
100
AcDbSymbolTableRecord
100
AcDbBlockTableRecord
  2
*Paper_Space0
340
26
  0
BLOCK_RECORD
  5
87
330
1
100
AcDbSymbolTableRecord
100
AcDbBlockTableRecord
  2
GENAXEH
340
0
  0
BLOCK_RECORD
  5
201
330
1
100
AcDbSymbolTableRecord
100
AcDbBlockTableRecord
  2
_Open30
340
0
  0
BLOCK_RECORD
  5
207
330
1
100
AcDbSymbolTableRecord
100
AcDbBlockTableRecord
  2
*D4
340
0
  0
BLOCK_RECORD
  5
213
330
1
100
AcDbSymbolTableRecord
100
AcDbBlockTableRecord
  2
*D5
340
0
  0
BLOCK_RECORD
  5
21F
330
1
100
AcDbSymbolTableRecord
100
AcDbBlockTableRecord
  2
*D6
340
0
  0
BLOCK_RECORD
  5
22B
330
1
100
AcDbSymbolTableRecord
100
AcDbBlockTableRecord
  2
*D7
340
0
  0
BLOCK_RECORD
  5
237
330
1
100
AcDbSymbolTableRecord
100
AcDbBlockTableRecord
  2
*D8
340
0
  0
BLOCK_RECORD
  5
243
330
1
100
AcDbSymbolTableRecord
100
AcDbBlockTableRecord
  2
*D9
340
0
  0
BLOCK_RECORD
  5
24F
330
1
100
AcDbSymbolTableRecord
100
AcDbBlockTableRecord
  2
*D10
340
0
  0
BLOCK_RECORD
  5
5F5
330
1
100
AcDbSymbolTableRecord
100
AcDbBlockTableRecord
  2
*D12
340
0
  0
BLOCK_RECORD
  5
601
330
1
100
AcDbSymbolTableRecord
100
AcDbBlockTableRecord
  2
*D13
340
0
  0
BLOCK_RECORD
  5
60D
330
1
100
AcDbSymbolTableRecord
100
AcDbBlockTableRecord
  2
*D14
340
0
  0
BLOCK_RECORD
  5
619
330
1
100
AcDbSymbolTableRecord
100
AcDbBlockTableRecord
  2
*D15
340
0
  0
BLOCK_RECORD
  5
625
330
1
100
AcDbSymbolTableRecord
100
AcDbBlockTableRecord
  2
*D16
340
0
  0
BLOCK_RECORD
  5
631
330
1
100
AcDbSymbolTableRecord
100
AcDbBlockTableRecord
  2
*D17
340
0
  0
BLOCK_RECORD
  5
63D
330
1
100
AcDbSymbolTableRecord
100
AcDbBlockTableRecord
  2
*D18
340
0
  0
ENDTAB
  0
ENDSEC
  0
SECTION
  2
BLOCKS
  0
BLOCK
  5
20
330
1F
100
AcDbEntity
  8
0
100
AcDbBlockBegin
  2
*Model_Space
 70
     0
 10
0.0
 20
0.0
 30
0.0
  3
*Model_Space
  1

  0
ENDBLK
  5
21
330
1F
100
AcDbEntity
  8
0
100
AcDbBlockEnd
  0
BLOCK
  5
1C
330
1B
100
AcDbEntity
 67
     1
  8
0
100
AcDbBlockBegin
  2
*Paper_Space
 70
     0
 10
0.0
 20
0.0
 30
0.0
  3
*Paper_Space
  1

  0
ENDBLK
  5
1D
330
1B
100
AcDbEntity
 67
     1
  8
0
100
AcDbBlockEnd
  0
BLOCK
  5
24
330
23
100
AcDbEntity
  8
0
100
AcDbBlockBegin
  2
*Paper_Space0
 70
     0
 10
0.0
 20
0.0
 30
0.0
  3
*Paper_Space0
  1

  0
ENDBLK
  5
25
330
23
100
AcDbEntity
  8
0
100
AcDbBlockEnd
  0
BLOCK
  5
89
330
87
100
AcDbEntity
  8
0
100
AcDbBlockBegin
  2
GENAXEH
 70
     0
 10
0.0
 20
0.0
 30
0.0
  3
GENAXEH
  1

  0
LINE
  5
88
330
87
100
AcDbEntity
  8
0
100
AcDbLine
 10
-1.0
 20
0.0
 30
0.0
 11
1.0
 21
0.0
 31
0.0
  0
ENDBLK
  5
8A
330
87
100
AcDbEntity
  8
0
100
AcDbBlockEnd
  0
BLOCK
  5
202
330
201
100
AcDbEntity
  8
0
100
AcDbBlockBegin
  2
_Open30
 70
     0
 10
0.0
 20
0.0
 30
0.0
  3
_Open30
  1

  0
LINE
  5
203
330
201
100
AcDbEntity
  8
0
 62
     0
370
    -2
100
AcDbLine
 10
-1.0
 20
0.26794919
 30
0.0
 11
0.0
 21
0.0
 31
0.0
  0
LINE
  5
204
330
201
100
AcDbEntity
  8
0
 62
     0
370
    -2
100
AcDbLine
 10
0.0
 20
0.0
 30
0.0
 11
-1.0
 21
-0.26794919
 31
0.0
  0
LINE
  5
205
330
201
100
AcDbEntity
  8
0
 62
     0
370
    -2
100
AcDbLine
 10
0.0
 20
0.0
 30
0.0
 11
-1.0
 21
0.0
 31
0.0
  0
ENDBLK
  5
206
330
201
100
AcDbEntity
  8
0
100
AcDbBlockEnd
  0
BLOCK
  5
208
330
207
100
AcDbEntity
  8
0
100
AcDbBlockBegin
  2
*D4
 70
     1
 10
0.0
 20
0.0
 30
0.0
  3
*D4
  1

  0
LINE
  5
209
330
207
100
AcDbEntity
  8
0
 62
     5
370
    -2
100
AcDbLine
 10
120.5644690087823
 20
117.5827562913773
 30
0.0
 11
103.5068454728951
 21
117.5827562913773
 31
0.0
  0
LINE
  5
20A
330
207
100
AcDbEntity
  8
0
 62
     5
370
    -2
100
AcDbLine
 10
120.5644690087823
 20
102.5827562913773
 30
0.0
 11
103.5068454728951
 21
102.5827562913773
 31
0.0
  0
LINE
  5
20B
330
207
100
AcDbEntity
  8
0
 62
     5
100
AcDbLine
 10
105.5068454728951
 20
114.5827562913773
 30
0.0
 11
105.5068454728951
 21
105.5827562913773
 31
0.0
  0
SOLID
  5
20C
330
207
100
AcDbEntity
  8
0
 62
     5
100
AcDbTrace
 10
105.0068454728952
 20
114.5827562913773
 30
0.0
 11
106.0068454728952
 21
114.5827562913773
 31
0.0
 12
105.5068454728951
 22
117.5827562913773
 32
0.0
 13
105.5068454728951
 23
117.5827562913773
 33
0.0
  0
SOLID
  5
20D
330
207
100
AcDbEntity
  8
0
 62
     5
100
AcDbTrace
 10
105.0068454728952
 20
105.5827562913773
 30
0.0
 11
106.0068454728952
 21
105.5827562913773
 31
0.0
 12
105.5068454728951
 22
102.5827562913773
 32
0.0
 13
105.5068454728951
 23
102.5827562913773
 33
0.0
  0
MTEXT
  5
20E
330
207
100
AcDbEntity
  8
0
 62
     5
100
AcDbMText
 10
103.0068454728951
 20
110.0827562913774
 30
0.0
 40
3.0
 41
0.0
 71
     5
 72
     1
  1
\A1;15
  7
CHINESET
 11
0.0000000000000001
 21
1.0
 31
0.0
 73
     1
 44
1.0
1001
ACAD
1000
MTEXTBEGIN
1070
    73
1070
     1
1070
    44
1040
1.0
1070
    74
1070
     0
1000
MTEXTEND
  0
POINT
  5
20F
330
207
100
AcDbEntity
  8
Defpoints
 62
     0
100
AcDbPoint
 10
122.5644690087823
 20
117.5827562913773
 30
0.0
  0
POINT
  5
210
330
207
100
AcDbEntity
  8
Defpoints
 62
     0
100
AcDbPoint
 10
122.5644690087823
 20
102.5827562913773
 30
0.0
  0
POINT
  5
211
330
207
100
AcDbEntity
  8
Defpoints
 62
     0
100
AcDbPoint
 10
105.5068454728951
 20
102.5827562913773
 30
0.0
  0
ENDBLK
  5
212
330
207
100
AcDbEntity
  8
0
100
AcDbBlockEnd
  0
BLOCK
  5
214
330
213
100
AcDbEntity
  8
0
100
AcDbBlockBegin
  2
*D5
 70
     1
 10
0.0
 20
0.0
 30
0.0
  3
*D5
  1

  0
LINE
  5
215
330
213
100
AcDbEntity
  8
0
 62
     5
370
    -2
100
AcDbLine
 10
151.0644690087823
 20
121.9327562913773
 30
0.0
 11
187.1297710999732
 21
121.9327562913773
 31
0.0
  0
LINE
  5
216
330
213
100
AcDbEntity
  8
0
 62
     5
370
    -2
100
AcDbLine
 10
151.0644690087823
 20
98.93275629137736
 30
0.0
 11
187.1297710999732
 21
98.93275629137734
 31
0.0
  0
LINE
  5
217
330
213
100
AcDbEntity
  8
0
 62
     5
100
AcDbLine
 10
185.1297710999732
 20
118.9327562913773
 30
0.0
 11
185.1297710999732
 21
101.9327562913773
 31
0.0
  0
SOLID
  5
218
330
213
100
AcDbEntity
  8
0
 62
     5
100
AcDbTrace
 10
184.6297710999732
 20
118.9327562913773
 30
0.0
 11
185.6297710999732
 21
118.9327562913773
 31
0.0
 12
185.1297710999732
 22
121.9327562913773
 32
0.0
 13
185.1297710999732
 23
121.9327562913773
 33
0.0
  0
SOLID
  5
219
330
213
100
AcDbEntity
  8
0
 62
     5
100
AcDbTrace
 10
184.6297710999732
 20
101.9327562913773
 30
0.0
 11
185.6297710999732
 21
101.9327562913773
 31
0.0
 12
185.1297710999732
 22
98.93275629137734
 32
0.0
 13
185.1297710999732
 23
98.93275629137734
 33
0.0
  0
MTEXT
  5
21A
330
213
100
AcDbEntity
  8
0
 62
     5
100
AcDbMText
 10
182.6297710999732
 20
110.4327562913773
 30
0.0
 40
3.0
 41
0.0
 71
     5
 72
     1
  1
\A1;23
  7
CHINESET
 11
0.0000000000000001
 21
1.0
 31
0.0
 73
     1
 44
1.0
1001
ACAD
1000
MTEXTBEGIN
1070
    73
1070
     1
1070
    44
1040
1.0
1070
    74
1070
     0
1000
MTEXTEND
  0
POINT
  5
21B
330
213
100
AcDbEntity
  8
Defpoints
 62
     0
100
AcDbPoint
 10
149.0644690087823
 20
121.9327562913773
 30
0.0
  0
POINT
  5
21C
330
213
100
AcDbEntity
  8
Defpoints
 62
     0
100
AcDbPoint
 10
149.0644690087823
 20
98.93275629137736
 30
0.0
  0
POINT
  5
21D
330
213
100
AcDbEntity
  8
Defpoints
 62
     0
100
AcDbPoint
 10
185.1297710999732
 20
98.93275629137734
 30
0.0
  0
ENDBLK
  5
21E
330
213
100
AcDbEntity
  8
0
100
AcDbBlockEnd
  0
BLOCK
  5
220
330
21F
100
AcDbEntity
  8
0
100
AcDbBlockBegin
  2
*D6
 70
     1
 10
0.0
 20
0.0
 30
0.0
  3
*D6
  1

  0
LINE
  5
221
330
21F
100
AcDbEntity
  8
0
 62
     5
370
    -2
100
AcDbLine
 10
74.80729165991187
 20
205.4868397806817
 30
0.0
 11
62.66442406105683
 21
205.4868397806817
 31
0.0
  0
LINE
  5
222
330
21F
100
AcDbEntity
  8
0
 62
     5
370
    -2
100
AcDbLine
 10
72.55729165991187
 20
154.4868397806817
 30
0.0
 11
62.66442406105682
 21
154.4868397806817
 31
0.0
  0
LINE
  5
223
330
21F
100
AcDbEntity
  8
0
 62
     5
100
AcDbLine
 10
64.66442406105683
 20
202.4868397806816
 30
0.0
 11
64.66442406105682
 21
157.4868397806817
 31
0.0
  0
SOLID
  5
224
330
21F
100
AcDbEntity
  8
0
 62
     5
100
AcDbTrace
 10
64.16442406105684
 20
202.4868397806816
 30
0.0
 11
65.16442406105683
 21
202.4868397806816
 31
0.0
 12
64.66442406105683
 22
205.4868397806817
 32
0.0
 13
64.66442406105683
 23
205.4868397806817
 33
0.0
  0
SOLID
  5
225
330
21F
100
AcDbEntity
  8
0
 62
     5
100
AcDbTrace
 10
64.16442406105682
 20
157.4868397806817
 30
0.0
 11
65.16442406105682
 21
157.4868397806817
 31
0.0
 12
64.66442406105682
 22
154.4868397806817
 32
0.0
 13
64.66442406105682
 23
154.4868397806817
 33
0.0
  0
MTEXT
  5
226
330
21F
100
AcDbEntity
  8
0
 62
     5
100
AcDbMText
 10
62.16442406105681
 20
179.9868397806817
 30
0.0
 40
3.0
 41
0.0
 71
     5
 72
     1
  1
\A1;51
  7
CHINESET
 11
0.0000000000000001
 21
1.0
 31
0.0
 73
     1
 44
1.0
1001
ACAD
1000
MTEXTBEGIN
1070
    73
1070
     1
1070
    44
1040
1.0
1070
    74
1070
     0
1000
MTEXTEND
  0
POINT
  5
227
330
21F
100
AcDbEntity
  8
Defpoints
 62
     0
100
AcDbPoint
 10
76.80729165991187
 20
205.4868397806817
 30
0.0
  0
POINT
  5
228
330
21F
100
AcDbEntity
  8
Defpoints
 62
     0
100
AcDbPoint
 10
74.55729165991186
 20
154.4868397806817
 30
0.0
  0
POINT
  5
229
330
21F
100
AcDbEntity
  8
Defpoints
 62
     0
100
AcDbPoint
 10
64.66442406105682
 20
154.4868397806817
 30
0.0
  0
ENDBLK
  5
22A
330
21F
100
AcDbEntity
  8
0
100
AcDbBlockEnd
  0
BLOCK
  5
22C
330
22B
100
AcDbEntity
  8
0
100
AcDbBlockBegin
  2
*D7
 70
     1
 10
0.0
 20
0.0
 30
0.0
  3
*D7
  1

  0
LINE
  5
22D
330
22B
100
AcDbEntity
  8
0
 62
     5
370
    -2
100
AcDbLine
 10
115.0644690087823
 20
146.4868397806817
 30
0.0
 11
115.0644690087823
 21
136.455208047316
 31
0.0
  0
LINE
  5
22E
330
22B
100
AcDbEntity
  8
0
 62
     5
370
    -2
100
AcDbLine
 10
137.0644690087823
 20
146.4868397806817
 30
0.0
 11
137.0644690087823
 21
136.455208047316
 31
0.0
  0
LINE
  5
22F
330
22B
100
AcDbEntity
  8
0
 62
     5
100
AcDbLine
 10
118.0644690087823
 20
138.4552080473159
 30
0.0
 11
134.0644690087823
 21
138.4552080473159
 31
0.0
  0
SOLID
  5
230
330
22B
100
AcDbEntity
  8
0
 62
     5
100
AcDbTrace
 10
118.0644690087823
 20
138.955208047316
 30
0.0
 11
118.0644690087823
 21
137.955208047316
 31
0.0
 12
115.0644690087823
 22
138.4552080473159
 32
0.0
 13
115.0644690087823
 23
138.4552080473159
 33
0.0
  0
SOLID
  5
231
330
22B
100
AcDbEntity
  8
0
 62
     5
100
AcDbTrace
 10
134.0644690087823
 20
138.955208047316
 30
0.0
 11
134.0644690087823
 21
137.955208047316
 31
0.0
 12
137.0644690087823
 22
138.4552080473159
 32
0.0
 13
137.0644690087823
 23
138.4552080473159
 33
0.0
  0
MTEXT
  5
232
330
22B
100
AcDbEntity
  8
0
 62
     5
100
AcDbMText
 10
126.0644690087823
 20
140.955208047316
 30
0.0
 40
3.0
 41
0.0
 71
     5
 72
     1
  1
\A1;22
  7
CHINESET
 73
     1
 44
1.0
1001
ACAD
1000
MTEXTBEGIN
1070
    73
1070
     1
1070
    44
1040
1.0
1070
    74
1070
     0
1000
MTEXTEND
  0
POINT
  5
233
330
22B
100
AcDbEntity
  8
Defpoints
 62
     0
100
AcDbPoint
 10
115.0644690087823
 20
148.4868397806817
 30
0.0
  0
POINT
  5
234
330
22B
100
AcDbEntity
  8
Defpoints
 62
     0
100
AcDbPoint
 10
137.0644690087823
 20
148.4868397806817
 30
0.0
  0
POINT
  5
235
330
22B
100
AcDbEntity
  8
Defpoints
 62
     0
100
AcDbPoint
 10
137.0644690087823
 20
138.4552080473159
 30
0.0
  0
ENDBLK
  5
236
330
22B
100
AcDbEntity
  8
0
100
AcDbBlockEnd
  0
BLOCK
  5
238
330
237
100
AcDbEntity
  8
0
100
AcDbBlockBegin
  2
*D8
 70
     1
 10
0.0
 20
0.0
 30
0.0
  3
*D8
  1

  0
LINE
  5
239
330
237
100
AcDbEntity
  8
0
 62
     5
370
    -2
100
AcDbLine
 10
176.0644690087823
 20
174.7368397806817
 30
0.0
 11
176.0644690087823
 21
211.1990537889639
 31
0.0
  0
LINE
  5
23A
330
237
100
AcDbEntity
  8
0
 62
     5
370
    -2
100
AcDbLine
 10
126.0644690087823
 20
208.1156642584803
 30
0.0
 11
126.0644690087823
 21
211.1990537889639
 31
0.0
  0
LINE
  5
23B
330
237
100
AcDbEntity
  8
0
 62
     5
100
AcDbLine
 10
173.0644690087823
 20
209.1990537889639
 30
0.0
 11
129.0644690087823
 21
209.1990537889639
 31
0.0
  0
SOLID
  5
23C
330
237
100
AcDbEntity
  8
0
 62
     5
100
AcDbTrace
 10
173.0644690087823
 20
209.699053788964
 30
0.0
 11
173.0644690087823
 21
208.699053788964
 31
0.0
 12
176.0644690087823
 22
209.1990537889639
 32
0.0
 13
176.0644690087823
 23
209.1990537889639
 33
0.0
  0
SOLID
  5
23D
330
237
100
AcDbEntity
  8
0
 62
     5
100
AcDbTrace
 10
129.0644690087823
 20
209.699053788964
 30
0.0
 11
129.0644690087823
 21
208.699053788964
 31
0.0
 12
126.0644690087823
 22
209.1990537889639
 32
0.0
 13
126.0644690087823
 23
209.1990537889639
 33
0.0
  0
MTEXT
  5
23E
330
237
100
AcDbEntity
  8
0
 62
     5
100
AcDbMText
 10
151.0644690087823
 20
211.699053788964
 30
0.0
 40
3.0
 41
0.0
 71
     5
 72
     1
  1
\A1;50
  7
CHINESET
 73
     1
 44
1.0
1001
ACAD
1000
MTEXTBEGIN
1070
    73
1070
     1
1070
    44
1040
1.0
1070
    74
1070
     0
1000
MTEXTEND
  0
POINT
  5
23F
330
237
100
AcDbEntity
  8
Defpoints
 62
     0
100
AcDbPoint
 10
176.0644690087823
 20
172.7368397806817
 30
0.0
  0
POINT
  5
240
330
237
100
AcDbEntity
  8
Defpoints
 62
     0
100
AcDbPoint
 10
126.0644690087823
 20
206.1156642584803
 30
0.0
  0
POINT
  5
241
330
237
100
AcDbEntity
  8
Defpoints
 62
     0
100
AcDbPoint
 10
126.0644690087823
 20
209.1990537889639
 30
0.0
  0
ENDBLK
  5
242
330
237
100
AcDbEntity
  8
0
100
AcDbBlockEnd
  0
BLOCK
  5
244
330
243
100
AcDbEntity
  8
0
100
AcDbBlockBegin
  2
*D9
 70
     1
 10
0.0
 20
0.0
 30
0.0
  3
*D9
  1

  0
LINE
  5
245
330
243
100
AcDbEntity
  8
0
 62
     5
370
    -2
100
AcDbLine
 10
176.0644690087823
 20
174.7368397806817
 30
0.0
 11
176.0644690087823
 21
218.9240633524015
 31
0.0
  0
LINE
  5
246
330
243
100
AcDbEntity
  8
0
 62
     5
370
    -2
100
AcDbLine
 10
115.0644690087823
 20
172.4868397806817
 30
0.0
 11
115.0644690087823
 21
218.9240633524015
 31
0.0
  0
LINE
  5
247
330
243
100
AcDbEntity
  8
0
 62
     5
100
AcDbLine
 10
173.0644690087823
 20
216.9240633524015
 30
0.0
 11
118.0644690087823
 21
216.9240633524015
 31
0.0
  0
SOLID
  5
248
330
243
100
AcDbEntity
  8
0
 62
     5
100
AcDbTrace
 10
173.0644690087823
 20
217.4240633524015
 30
0.0
 11
173.0644690087823
 21
216.4240633524015
 31
0.0
 12
176.0644690087823
 22
216.9240633524015
 32
0.0
 13
176.0644690087823
 23
216.9240633524015
 33
0.0
  0
SOLID
  5
249
330
243
100
AcDbEntity
  8
0
 62
     5
100
AcDbTrace
 10
118.0644690087823
 20
217.4240633524015
 30
0.0
 11
118.0644690087823
 21
216.4240633524015
 31
0.0
 12
115.0644690087823
 22
216.9240633524015
 32
0.0
 13
115.0644690087823
 23
216.9240633524015
 33
0.0
  0
MTEXT
  5
24A
330
243
100
AcDbEntity
  8
0
 62
     5
100
AcDbMText
 10
145.5644690087823
 20
219.4240633524015
 30
0.0
 40
3.0
 41
0.0
 71
     5
 72
     1
  1
\A1;61
  7
CHINESET
 73
     1
 44
1.0
1001
ACAD
1000
MTEXTBEGIN
1070
    73
1070
     1
1070
    44
1040
1.0
1070
    74
1070
     0
1000
MTEXTEND
  0
POINT
  5
24B
330
243
100
AcDbEntity
  8
Defpoints
 62
     0
100
AcDbPoint
 10
176.0644690087823
 20
172.7368397806817
 30
0.0
  0
POINT
  5
24C
330
243
100
AcDbEntity
  8
Defpoints
 62
     0
100
AcDbPoint
 10
115.0644690087823
 20
170.4868397806817
 30
0.0
  0
POINT
  5
24D
330
243
100
AcDbEntity
  8
Defpoints
 62
     0
100
AcDbPoint
 10
115.0644690087823
 20
216.9240633524015
 30
0.0
  0
ENDBLK
  5
24E
330
243
100
AcDbEntity
  8
0
100
AcDbBlockEnd
  0
BLOCK
  5
250
330
24F
100
AcDbEntity
  8
0
100
AcDbBlockBegin
  2
*D10
 70
     1
 10
0.0
 20
0.0
 30
0.0
  3
*D10
  1

  0
LINE
  5
251
330
24F
100
AcDbEntity
  8
0
 62
     5
370
    -2
100
AcDbLine
 10
74.80729165991187
 20
205.4868397806817
 30
0.0
 11
56.10994797253989
 21
205.4868397806817
 31
0.0
  0
LINE
  5
252
330
24F
100
AcDbEntity
  8
0
 62
     5
370
    -2
100
AcDbLine
 10
67.55729165991187
 20
148.4868397806817
 30
0.0
 11
56.10994797253988
 21
148.4868397806817
 31
0.0
  0
LINE
  5
253
330
24F
100
AcDbEntity
  8
0
 62
     5
100
AcDbLine
 10
58.10994797253989
 20
202.4868397806817
 30
0.0
 11
58.10994797253989
 21
151.4868397806817
 31
0.0
  0
SOLID
  5
254
330
24F
100
AcDbEntity
  8
0
 62
     5
100
AcDbTrace
 10
57.60994797253989
 20
202.4868397806817
 30
0.0
 11
58.60994797253989
 21
202.4868397806817
 31
0.0
 12
58.10994797253989
 22
205.4868397806817
 32
0.0
 13
58.10994797253989
 23
205.4868397806817
 33
0.0
  0
SOLID
  5
255
330
24F
100
AcDbEntity
  8
0
 62
     5
100
AcDbTrace
 10
57.60994797253989
 20
151.4868397806817
 30
0.0
 11
58.60994797253988
 21
151.4868397806817
 31
0.0
 12
58.10994797253989
 22
148.4868397806817
 32
0.0
 13
58.10994797253989
 23
148.4868397806817
 33
0.0
  0
MTEXT
  5
256
330
24F
100
AcDbEntity
  8
0
 62
     5
100
AcDbMText
 10
55.60994797253986
 20
176.9868397806817
 30
0.0
 40
3.0
 41
0.0
 71
     5
 72
     1
  1
\A1;57
  7
CHINESET
 11
0.0000000000000001
 21
1.0
 31
0.0
 73
     1
 44
1.0
1001
ACAD
1000
MTEXTBEGIN
1070
    73
1070
     1
1070
    44
1040
1.0
1070
    74
1070
     0
1000
MTEXTEND
  0
POINT
  5
257
330
24F
100
AcDbEntity
  8
Defpoints
 62
     0
100
AcDbPoint
 10
76.80729165991187
 20
205.4868397806817
 30
0.0
  0
POINT
  5
258
330
24F
100
AcDbEntity
  8
Defpoints
 62
     0
100
AcDbPoint
 10
69.55729165991186
 20
148.4868397806817
 30
0.0
  0
POINT
  5
259
330
24F
100
AcDbEntity
  8
Defpoints
 62
     0
100
AcDbPoint
 10
58.10994797253989
 20
148.4868397806817
 30
0.0
  0
ENDBLK
  5
25A
330
24F
100
AcDbEntity
  8
0
100
AcDbBlockEnd
  0
BLOCK
  5
5FF
330
5F5
100
AcDbEntity
  8
0
100
AcDbBlockBegin
  2
*D12
 70
     1
 10
0.0
 20
0.0
 30
0.0
  3
*D12
  1

  0
LINE
  5
688
330
5F5
100
AcDbEntity
  8
0
 62
     5
370
    -2
100
AcDbLine
 10
1148.410818850091
 20
896.9186929754803
 30
0.0
 11
1131.353195314204
 21
896.9186929754803
 31
0.0
  0
LINE
  5
689
330
5F5
100
AcDbEntity
  8
0
 62
     5
370
    -2
100
AcDbLine
 10
1148.410818850091
 20
881.9186929754803
 30
0.0
 11
1131.353195314204
 21
881.9186929754803
 31
0.0
  0
LINE
  5
68A
330
5F5
100
AcDbEntity
  8
0
 62
     5
100
AcDbLine
 10
1133.353195314204
 20
893.9186929754804
 30
0.0
 11
1133.353195314204
 21
884.9186929754804
 31
0.0
  0
SOLID
  5
68B
330
5F5
100
AcDbEntity
  8
0
 62
     5
100
AcDbTrace
 10
1132.853195314204
 20
893.9186929754804
 30
0.0
 11
1133.853195314205
 21
893.9186929754804
 31
0.0
 12
1133.353195314204
 22
896.9186929754803
 32
0.0
 13
1133.353195314204
 23
896.9186929754803
 33
0.0
  0
SOLID
  5
68C
330
5F5
100
AcDbEntity
  8
0
 62
     5
100
AcDbTrace
 10
1132.853195314204
 20
884.9186929754804
 30
0.0
 11
1133.853195314205
 21
884.9186929754804
 31
0.0
 12
1133.353195314204
 22
881.9186929754803
 32
0.0
 13
1133.353195314204
 23
881.9186929754803
 33
0.0
  0
MTEXT
  5
68D
330
5F5
100
AcDbEntity
  8
0
 62
     5
100
AcDbMText
 10
1130.853195314204
 20
889.4186929754804
 30
0.0
 40
3.0
 41
0.0
 71
     5
 72
     1
  1
\A1;15
  7
CHINESET
 11
0.0000000000000001
 21
1.0
 31
0.0
 73
     1
 44
1.0
1001
ACAD
1000
MTEXTBEGIN
1070
    73
1070
     1
1070
    44
1040
1.0
1070
    74
1070
     0
1000
MTEXTEND
  0
POINT
  5
68E
330
5F5
100
AcDbEntity
  8
Defpoints
 62
     0
100
AcDbPoint
 10
1150.410818850091
 20
896.9186929754803
 30
0.0
  0
POINT
  5
68F
330
5F5
100
AcDbEntity
  8
Defpoints
 62
     0
100
AcDbPoint
 10
1150.410818850091
 20
881.9186929754803
 30
0.0
  0
POINT
  5
690
330
5F5
100
AcDbEntity
  8
Defpoints
 62
     0
100
AcDbPoint
 10
1133.353195314204
 20
881.9186929754803
 30
0.0
  0
ENDBLK
  5
600
330
5F5
100
AcDbEntity
  8
0
100
AcDbBlockEnd
  0
BLOCK
  5
60B
330
601
100
AcDbEntity
  8
0
100
AcDbBlockBegin
  2
*D13
 70
     1
 10
0.0
 20
0.0
 30
0.0
  3
*D13
  1

  0
LINE
  5
691
330
601
100
AcDbEntity
  8
0
 62
     5
370
    -2
100
AcDbLine
 10
1178.910818850091
 20
901.2686929754803
 30
0.0
 11
1214.976120941283
 21
901.2686929754803
 31
0.0
  0
LINE
  5
692
330
601
100
AcDbEntity
  8
0
 62
     5
370
    -2
100
AcDbLine
 10
1178.910818850091
 20
878.2686929754802
 30
0.0
 11
1214.976120941283
 21
878.2686929754802
 31
0.0
  0
LINE
  5
693
330
601
100
AcDbEntity
  8
0
 62
     5
100
AcDbLine
 10
1212.976120941283
 20
898.2686929754803
 30
0.0
 11
1212.976120941283
 21
881.2686929754804
 31
0.0
  0
SOLID
  5
694
330
601
100
AcDbEntity
  8
0
 62
     5
100
AcDbTrace
 10
1212.476120941283
 20
898.2686929754803
 30
0.0
 11
1213.476120941282
 21
898.2686929754803
 31
0.0
 12
1212.976120941283
 22
901.2686929754803
 32
0.0
 13
1212.976120941283
 23
901.2686929754803
 33
0.0
  0
SOLID
  5
695
330
601
100
AcDbEntity
  8
0
 62
     5
100
AcDbTrace
 10
1212.476120941283
 20
881.2686929754804
 30
0.0
 11
1213.476120941282
 21
881.2686929754804
 31
0.0
 12
1212.976120941283
 22
878.2686929754802
 32
0.0
 13
1212.976120941283
 23
878.2686929754802
 33
0.0
  0
MTEXT
  5
696
330
601
100
AcDbEntity
  8
0
 62
     5
100
AcDbMText
 10
1210.476120941282
 20
889.7686929754804
 30
0.0
 40
3.0
 41
0.0
 71
     5
 72
     1
  1
\A1;23
  7
CHINESET
 11
0.0000000000000001
 21
1.0
 31
0.0
 73
     1
 44
1.0
1001
ACAD
1000
MTEXTBEGIN
1070
    73
1070
     1
1070
    44
1040
1.0
1070
    74
1070
     0
1000
MTEXTEND
  0
POINT
  5
697
330
601
100
AcDbEntity
  8
Defpoints
 62
     0
100
AcDbPoint
 10
1176.910818850091
 20
901.2686929754803
 30
0.0
  0
POINT
  5
698
330
601
100
AcDbEntity
  8
Defpoints
 62
     0
100
AcDbPoint
 10
1176.910818850091
 20
878.2686929754802
 30
0.0
  0
POINT
  5
699
330
601
100
AcDbEntity
  8
Defpoints
 62
     0
100
AcDbPoint
 10
1212.976120941283
 20
878.2686929754802
 30
0.0
  0
ENDBLK
  5
60C
330
601
100
AcDbEntity
  8
0
100
AcDbBlockEnd
  0
BLOCK
  5
617
330
60D
100
AcDbEntity
  8
0
100
AcDbBlockBegin
  2
*D14
 70
     1
 10
0.0
 20
0.0
 30
0.0
  3
*D14
  1

  0
LINE
  5
69A
330
60D
100
AcDbEntity
  8
0
 62
     5
370
    -2
100
AcDbLine
 10
1102.653641501221
 20
984.8227764647846
 30
0.0
 11
1090.510773902366
 21
984.8227764647846
 31
0.0
  0
LINE
  5
69B
330
60D
100
AcDbEntity
  8
0
 62
     5
370
    -2
100
AcDbLine
 10
1100.403641501221
 20
933.8227764647847
 30
0.0
 11
1090.510773902366
 21
933.8227764647847
 31
0.0
  0
LINE
  5
69C
330
60D
100
AcDbEntity
  8
0
 62
     5
100
AcDbLine
 10
1092.510773902366
 20
981.8227764647845
 30
0.0
 11
1092.510773902366
 21
936.8227764647848
 31
0.0
  0
SOLID
  5
69D
330
60D
100
AcDbEntity
  8
0
 62
     5
100
AcDbTrace
 10
1092.010773902366
 20
981.8227764647845
 30
0.0
 11
1093.010773902366
 21
981.8227764647845
 31
0.0
 12
1092.510773902366
 22
984.8227764647846
 32
0.0
 13
1092.510773902366
 23
984.8227764647846
 33
0.0
  0
SOLID
  5
69E
330
60D
100
AcDbEntity
  8
0
 62
     5
100
AcDbTrace
 10
1092.010773902366
 20
936.8227764647848
 30
0.0
 11
1093.010773902366
 21
936.8227764647848
 31
0.0
 12
1092.510773902366
 22
933.8227764647847
 32
0.0
 13
1092.510773902366
 23
933.8227764647847
 33
0.0
  0
MTEXT
  5
69F
330
60D
100
AcDbEntity
  8
0
 62
     5
100
AcDbMText
 10
1090.010773902366
 20
959.3227764647847
 30
0.0
 40
3.0
 41
0.0
 71
     5
 72
     1
  1
\A1;51
  7
CHINESET
 11
0.0000000000000001
 21
1.0
 31
0.0
 73
     1
 44
1.0
1001
ACAD
1000
MTEXTBEGIN
1070
    73
1070
     1
1070
    44
1040
1.0
1070
    74
1070
     0
1000
MTEXTEND
  0
POINT
  5
6A0
330
60D
100
AcDbEntity
  8
Defpoints
 62
     0
100
AcDbPoint
 10
1104.653641501221
 20
984.8227764647846
 30
0.0
  0
POINT
  5
6A1
330
60D
100
AcDbEntity
  8
Defpoints
 62
     0
100
AcDbPoint
 10
1102.403641501221
 20
933.8227764647847
 30
0.0
  0
POINT
  5
6A2
330
60D
100
AcDbEntity
  8
Defpoints
 62
     0
100
AcDbPoint
 10
1092.510773902366
 20
933.8227764647847
 30
0.0
  0
ENDBLK
  5
618
330
60D
100
AcDbEntity
  8
0
100
AcDbBlockEnd
  0
BLOCK
  5
623
330
619
100
AcDbEntity
  8
0
100
AcDbBlockBegin
  2
*D15
 70
     1
 10
0.0
 20
0.0
 30
0.0
  3
*D15
  1

  0
LINE
  5
6A3
330
619
100
AcDbEntity
  8
0
 62
     5
370
    -2
100
AcDbLine
 10
1142.910818850091
 20
925.8227764647847
 30
0.0
 11
1142.910818850091
 21
915.7911447314189
 31
0.0
  0
LINE
  5
6A4
330
619
100
AcDbEntity
  8
0
 62
     5
370
    -2
100
AcDbLine
 10
1164.910818850091
 20
925.8227764647847
 30
0.0
 11
1164.910818850091
 21
915.7911447314189
 31
0.0
  0
LINE
  5
6A5
330
619
100
AcDbEntity
  8
0
 62
     5
100
AcDbLine
 10
1145.910818850091
 20
917.7911447314189
 30
0.0
 11
1161.910818850091
 21
917.7911447314189
 31
0.0
  0
SOLID
  5
6A6
330
619
100
AcDbEntity
  8
0
 62
     5
100
AcDbTrace
 10
1145.910818850091
 20
918.2911447314189
 30
0.0
 11
1145.910818850091
 21
917.291144731419
 31
0.0
 12
1142.910818850091
 22
917.7911447314189
 32
0.0
 13
1142.910818850091
 23
917.7911447314189
 33
0.0
  0
SOLID
  5
6A7
330
619
100
AcDbEntity
  8
0
 62
     5
100
AcDbTrace
 10
1161.910818850091
 20
918.2911447314189
 30
0.0
 11
1161.910818850091
 21
917.291144731419
 31
0.0
 12
1164.910818850091
 22
917.7911447314189
 32
0.0
 13
1164.910818850091
 23
917.7911447314189
 33
0.0
  0
MTEXT
  5
6A8
330
619
100
AcDbEntity
  8
0
 62
     5
100
AcDbMText
 10
1153.910818850091
 20
920.2911447314189
 30
0.0
 40
3.0
 41
0.0
 71
     5
 72
     1
  1
\A1;22
  7
CHINESET
 73
     1
 44
1.0
1001
ACAD
1000
MTEXTBEGIN
1070
    73
1070
     1
1070
    44
1040
1.0
1070
    74
1070
     0
1000
MTEXTEND
  0
POINT
  5
6A9
330
619
100
AcDbEntity
  8
Defpoints
 62
     0
100
AcDbPoint
 10
1142.910818850091
 20
927.8227764647848
 30
0.0
  0
POINT
  5
6AA
330
619
100
AcDbEntity
  8
Defpoints
 62
     0
100
AcDbPoint
 10
1164.910818850091
 20
927.8227764647848
 30
0.0
  0
POINT
  5
6AB
330
619
100
AcDbEntity
  8
Defpoints
 62
     0
100
AcDbPoint
 10
1164.910818850091
 20
917.7911447314189
 30
0.0
  0
ENDBLK
  5
624
330
619
100
AcDbEntity
  8
0
100
AcDbBlockEnd
  0
BLOCK
  5
62F
330
625
100
AcDbEntity
  8
0
100
AcDbBlockBegin
  2
*D16
 70
     1
 10
0.0
 20
0.0
 30
0.0
  3
*D16
  1

  0
LINE
  5
6AC
330
625
100
AcDbEntity
  8
0
 62
     5
370
    -2
100
AcDbLine
 10
1203.910818850091
 20
954.0727764647847
 30
0.0
 11
1203.910818850091
 21
990.534990473067
 31
0.0
  0
LINE
  5
6AD
330
625
100
AcDbEntity
  8
0
 62
     5
370
    -2
100
AcDbLine
 10
1153.910818850091
 20
987.4516009425832
 30
0.0
 11
1153.910818850091
 21
990.534990473067
 31
0.0
  0
LINE
  5
6AE
330
625
100
AcDbEntity
  8
0
 62
     5
100
AcDbLine
 10
1200.910818850091
 20
988.534990473067
 30
0.0
 11
1156.910818850091
 21
988.534990473067
 31
0.0
  0
SOLID
  5
6AF
330
625
100
AcDbEntity
  8
0
 62
     5
100
AcDbTrace
 10
1200.910818850091
 20
989.0349904730669
 30
0.0
 11
1200.910818850091
 21
988.0349904730669
 31
0.0
 12
1203.910818850091
 22
988.534990473067
 32
0.0
 13
1203.910818850091
 23
988.534990473067
 33
0.0
  0
SOLID
  5
6B0
330
625
100
AcDbEntity
  8
0
 62
     5
100
AcDbTrace
 10
1156.910818850091
 20
989.0349904730669
 30
0.0
 11
1156.910818850091
 21
988.0349904730669
 31
0.0
 12
1153.910818850091
 22
988.534990473067
 32
0.0
 13
1153.910818850091
 23
988.534990473067
 33
0.0
  0
MTEXT
  5
6B1
330
625
100
AcDbEntity
  8
0
 62
     5
100
AcDbMText
 10
1178.910818850091
 20
991.0349904730669
 30
0.0
 40
3.0
 41
0.0
 71
     5
 72
     1
  1
\A1;50
  7
CHINESET
 73
     1
 44
1.0
1001
ACAD
1000
MTEXTBEGIN
1070
    73
1070
     1
1070
    44
1040
1.0
1070
    74
1070
     0
1000
MTEXTEND
  0
POINT
  5
6B2
330
625
100
AcDbEntity
  8
Defpoints
 62
     0
100
AcDbPoint
 10
1203.910818850091
 20
952.0727764647848
 30
0.0
  0
POINT
  5
6B3
330
625
100
AcDbEntity
  8
Defpoints
 62
     0
100
AcDbPoint
 10
1153.910818850091
 20
985.4516009425832
 30
0.0
  0
POINT
  5
6B4
330
625
100
AcDbEntity
  8
Defpoints
 62
     0
100
AcDbPoint
 10
1153.910818850091
 20
988.534990473067
 30
0.0
  0
ENDBLK
  5
630
330
625
100
AcDbEntity
  8
0
100
AcDbBlockEnd
  0
BLOCK
  5
63B
330
631
100
AcDbEntity
  8
0
100
AcDbBlockBegin
  2
*D17
 70
     1
 10
0.0
 20
0.0
 30
0.0
  3
*D17
  1

  0
LINE
  5
6B5
330
631
100
AcDbEntity
  8
0
 62
     5
370
    -2
100
AcDbLine
 10
1203.910818850091
 20
954.0727764647847
 30
0.0
 11
1203.910818850091
 21
998.2600000365044
 31
0.0
  0
LINE
  5
6B6
330
631
100
AcDbEntity
  8
0
 62
     5
370
    -2
100
AcDbLine
 10
1142.910818850091
 20
951.8227764647846
 30
0.0
 11
1142.910818850091
 21
998.2600000365044
 31
0.0
  0
LINE
  5
6B7
330
631
100
AcDbEntity
  8
0
 62
     5
100
AcDbLine
 10
1200.910818850091
 20
996.2600000365045
 30
0.0
 11
1145.910818850091
 21
996.2600000365045
 31
0.0
  0
SOLID
  5
6B8
330
631
100
AcDbEntity
  8
0
 62
     5
100
AcDbTrace
 10
1200.910818850091
 20
996.7600000365045
 30
0.0
 11
1200.910818850091
 21
995.7600000365046
 31
0.0
 12
1203.910818850091
 22
996.2600000365045
 32
0.0
 13
1203.910818850091
 23
996.2600000365045
 33
0.0
  0
SOLID
  5
6B9
330
631
100
AcDbEntity
  8
0
 62
     5
100
AcDbTrace
 10
1145.910818850091
 20
996.7600000365045
 30
0.0
 11
1145.910818850091
 21
995.7600000365046
 31
0.0
 12
1142.910818850091
 22
996.2600000365045
 32
0.0
 13
1142.910818850091
 23
996.2600000365045
 33
0.0
  0
MTEXT
  5
6BA
330
631
100
AcDbEntity
  8
0
 62
     5
100
AcDbMText
 10
1173.410818850091
 20
998.7600000365045
 30
0.0
 40
3.0
 41
0.0
 71
     5
 72
     1
  1
\A1;61
  7
CHINESET
 73
     1
 44
1.0
1001
ACAD
1000
MTEXTBEGIN
1070
    73
1070
     1
1070
    44
1040
1.0
1070
    74
1070
     0
1000
MTEXTEND
  0
POINT
  5
6BB
330
631
100
AcDbEntity
  8
Defpoints
 62
     0
100
AcDbPoint
 10
1203.910818850091
 20
952.0727764647848
 30
0.0
  0
POINT
  5
6BC
330
631
100
AcDbEntity
  8
Defpoints
 62
     0
100
AcDbPoint
 10
1142.910818850091
 20
949.8227764647847
 30
0.0
  0
POINT
  5
6BD
330
631
100
AcDbEntity
  8
Defpoints
 62
     0
100
AcDbPoint
 10
1142.910818850091
 20
996.2600000365045
 30
0.0
  0
ENDBLK
  5
63C
330
631
100
AcDbEntity
  8
0
100
AcDbBlockEnd
  0
BLOCK
  5
647
330
63D
100
AcDbEntity
  8
0
100
AcDbBlockBegin
  2
*D18
 70
     1
 10
0.0
 20
0.0
 30
0.0
  3
*D18
  1

  0
LINE
  5
6BE
330
63D
100
AcDbEntity
  8
0
 62
     5
370
    -2
100
AcDbLine
 10
1102.653641501221
 20
984.8227764647846
 30
0.0
 11
1083.956297813849
 21
984.8227764647846
 31
0.0
  0
LINE
  5
6BF
330
63D
100
AcDbEntity
  8
0
 62
     5
370
    -2
100
AcDbLine
 10
1095.403641501221
 20
927.8227764647848
 30
0.0
 11
1083.956297813849
 21
927.8227764647848
 31
0.0
  0
LINE
  5
6C0
330
63D
100
AcDbEntity
  8
0
 62
     5
100
AcDbLine
 10
1085.956297813849
 20
981.8227764647845
 30
0.0
 11
1085.956297813849
 21
930.8227764647847
 31
0.0
  0
SOLID
  5
6C1
330
63D
100
AcDbEntity
  8
0
 62
     5
100
AcDbTrace
 10
1085.456297813849
 20
981.8227764647845
 30
0.0
 11
1086.456297813849
 21
981.8227764647845
 31
0.0
 12
1085.956297813849
 22
984.8227764647846
 32
0.0
 13
1085.956297813849
 23
984.8227764647846
 33
0.0
  0
SOLID
  5
6C2
330
63D
100
AcDbEntity
  8
0
 62
     5
100
AcDbTrace
 10
1085.456297813849
 20
930.8227764647847
 30
0.0
 11
1086.456297813849
 21
930.8227764647847
 31
0.0
 12
1085.956297813849
 22
927.8227764647848
 32
0.0
 13
1085.956297813849
 23
927.8227764647848
 33
0.0
  0
MTEXT
  5
6C3
330
63D
100
AcDbEntity
  8
0
 62
     5
100
AcDbMText
 10
1083.456297813849
 20
956.3227764647848
 30
0.0
 40
3.0
 41
0.0
 71
     5
 72
     1
  1
\A1;57
  7
CHINESET
 11
0.0000000000000001
 21
1.0
 31
0.0
 73
     1
 44
1.0
1001
ACAD
1000
MTEXTBEGIN
1070
    73
1070
     1
1070
    44
1040
1.0
1070
    74
1070
     0
1000
MTEXTEND
  0
POINT
  5
6C4
330
63D
100
AcDbEntity
  8
Defpoints
 62
     0
100
AcDbPoint
 10
1104.653641501221
 20
984.8227764647846
 30
0.0
  0
POINT
  5
6C5
330
63D
100
AcDbEntity
  8
Defpoints
 62
     0
100
AcDbPoint
 10
1097.403641501221
 20
927.8227764647848
 30
0.0
  0
POINT
  5
6C6
330
63D
100
AcDbEntity
  8
Defpoints
 62
     0
100
AcDbPoint
 10
1085.956297813849
 20
927.8227764647848
 30
0.0
  0
ENDBLK
  5
648
330
63D
100
AcDbEntity
  8
0
100
AcDbBlockEnd
  0
ENDSEC
  0
SECTION
  2
ENTITIES
  0
LINE
  5
444
330
1F
100
AcDbEntity
  8
AM_7
 62
     1
100
AcDbLine
 10
1194.910818850091
 20
954.0727764647847
 30
0.0
 11
1194.910818850091
 21
932.1389487334146
 31
0.0
  0
LINE
  5
445
330
1F
100
AcDbEntity
  8
AM_7
 62
     1
100
AcDbLine
 10
1108.403641501221
 20
925.4407768126286
 30
0.0
 11
1108.403641501221
 21
985.887922511562
 31
0.0
  0
LINE
  5
446
330
1F
100
AcDbEntity
  8
AM_7
 62
     1
100
AcDbLine
 10
1107.403641501221
 20
933.8227764647847
 30
0.0
 11
1109.403641501221
 21
933.8227764647847
 31
0.0
  0
LINE
  5
447
330
1F
100
AcDbEntity
  8
AM_7
 62
     1
100
AcDbLine
 10
1102.403641501221
 20
933.8227764647847
 30
0.0
 11
1106.403641501221
 21
933.8227764647847
 31
0.0
  0
LINE
  5
448
330
1F
100
AcDbEntity
  8
AM_7
 62
     1
100
AcDbLine
 10
1110.403641501221
 20
933.8227764647847
 30
0.0
 11
1114.403641501221
 21
933.8227764647847
 31
0.0
  0
LINE
  5
449
330
1F
100
AcDbEntity
  8
AM_VIS
100
AcDbLine
 10
1143.410818850091
 20
951.8227764647846
 30
0.0
 11
1143.410818850091
 21
980.8227764647847
 31
0.0
  0
LINE
  5
44A
330
1F
100
AcDbEntity
  8
AM_VIS
100
AcDbLine
 10
1171.910818850091
 20
951.8227764647846
 30
0.0
 11
1143.410818850091
 21
951.8227764647846
 31
0.0
  0
LINE
  5
44B
330
1F
100
AcDbEntity
  8
AM_VIS
100
AcDbLine
 10
1143.410818850091
 20
980.8227764647847
 30
0.0
 11
1171.910818850091
 21
980.8227764647847
 31
0.0
  0
LINE
  5
44C
330
1F
100
AcDbEntity
  8
AM_VIS
100
AcDbLine
 10
1171.910818850091
 20
950.8227764647847
 30
0.0
 11
1176.910818850091
 21
950.8227764647847
 31
0.0
  0
LINE
  5
44D
330
1F
100
AcDbEntity
  8
AM_VIS
100
AcDbLine
 10
1171.910818850091
 20
981.8227764647847
 30
0.0
 11
1176.910818850091
 21
981.8227764647847
 31
0.0
  0
LINE
  5
44E
330
1F
100
AcDbEntity
  8
AM_VIS
100
AcDbLine
 10
1176.910818850091
 20
950.8227764647847
 30
0.0
 11
1176.910818850091
 21
981.8227764647847
 31
0.0
  0
LINE
  5
44F
330
1F
100
AcDbEntity
  8
AM_VIS
100
AcDbLine
 10
1171.910818850091
 20
981.8227764647847
 30
0.0
 11
1171.910818850091
 21
950.8227764647847
 31
0.0
  0
LINE
  5
450
330
1F
100
AcDbEntity
  8
AM_VIS
100
AcDbLine
 10
1176.910818850091
 20
980.5727764647848
 30
0.0
 11
1202.410818850091
 21
980.5727764647848
 31
0.0
  0
LINE
  5
451
330
1F
100
AcDbEntity
  8
AM_VIS
100
AcDbLine
 10
1202.410818850091
 20
952.0727764647848
 30
0.0
 11
1202.410818850091
 21
980.5727764647848
 31
0.0
  0
LINE
  5
452
330
1F
100
AcDbEntity
  8
AM_VIS
100
AcDbLine
 10
1176.910818850091
 20
952.0727764647848
 30
0.0
 11
1202.410818850091
 21
952.0727764647848
 31
0.0
  0
LINE
  5
453
330
1F
100
AcDbEntity
  8
AM_VIS
100
AcDbLine
 10
1199.529621003608
 20
933.0727764647846
 30
0.0
 11
1203.910818850091
 21
933.0727764647846
 31
0.0
  0
LINE
  5
454
330
1F
100
AcDbEntity
  8
AM_VIS
100
AcDbLine
 10
1199.529621003608
 20
938.0727764647847
 30
0.0
 11
1199.529621003608
 21
933.0727764647846
 31
0.0
  0
LINE
  5
455
330
1F
100
AcDbEntity
  8
AM_VIS
100
AcDbLine
 10
1190.292016696574
 20
933.0727764647846
 30
0.0
 11
1199.529621003608
 21
933.0727764647846
 31
0.0
  0
LINE
  5
456
330
1F
100
AcDbEntity
  8
AM_VIS
100
AcDbLine
 10
1190.292016696574
 20
938.0727764647847
 30
0.0
 11
1190.292016696574
 21
933.0727764647846
 31
0.0
  0
LINE
  5
457
330
1F
100
AcDbEntity
  8
AM_VIS
100
AcDbLine
 10
1185.910818850091
 20
933.0727764647846
 30
0.0
 11
1190.292016696574
 21
933.0727764647846
 31
0.0
  0
LINE
  5
458
330
1F
100
AcDbEntity
  8
AM_VIS
100
AcDbLine
 10
1199.529621003608
 20
938.0727764647847
 30
0.0
 11
1203.910818850091
 21
938.0727764647847
 31
0.0
  0
LINE
  5
459
330
1F
100
AcDbEntity
  8
AM_VIS
100
AcDbLine
 10
1190.292016696574
 20
938.0727764647847
 30
0.0
 11
1199.529621003608
 21
938.0727764647847
 31
0.0
  0
LINE
  5
45A
330
1F
100
AcDbEntity
  8
AM_VIS
100
AcDbLine
 10
1185.910818850091
 20
938.0727764647847
 30
0.0
 11
1190.292016696574
 21
938.0727764647847
 31
0.0
  0
LINE
  5
45B
330
1F
100
AcDbEntity
  8
AM_VIS
100
AcDbLine
 10
1164.610818850091
 20
951.8227764647846
 30
0.0
 11
1164.610818850091
 21
949.8227764647847
 31
0.0
  0
LINE
  5
45C
330
1F
100
AcDbEntity
  8
AM_VIS
100
AcDbLine
 10
1150.610818850091
 20
951.8227764647846
 30
0.0
 11
1150.610818850091
 21
949.8227764647847
 31
0.0
  0
LINE
  5
45D
330
1F
100
AcDbEntity
  8
AM_VIS
100
AcDbLine
 10
1143.610818850091
 20
951.8227764647846
 30
0.0
 11
1143.610818850091
 21
949.8227764647847
 31
0.0
  0
LINE
  5
45E
330
1F
100
AcDbEntity
  8
AM_VIS
100
AcDbLine
 10
1164.910818850091
 20
949.8227764647847
 30
0.0
 11
1164.910818850091
 21
927.8227764647848
 31
0.0
  0
LINE
  5
45F
330
1F
100
AcDbEntity
  8
AM_7
 62
     1
100
AcDbLine
 10
1153.910818850091
 20
985.4516009425832
 30
0.0
 11
1153.910818850092
 21
927.2053407182886
 31
0.0
  0
LINE
  5
460
330
1F
100
AcDbEntity
  8
AM_VIS
100
AcDbLine
 10
1142.910818850091
 20
927.8227764647848
 30
0.0
 11
1164.910818850091
 21
927.8227764647848
 31
0.0
  0
LINE
  5
461
330
1F
100
AcDbEntity
  8
AM_VIS
100
AcDbLine
 10
1142.910818850091
 20
949.8227764647847
 30
0.0
 11
1142.910818850091
 21
927.8227764647848
 31
0.0
  0
LINE
  5
462
330
1F
100
AcDbEntity
  8
AM_VIS
100
AcDbLine
 10
1164.910818850091
 20
949.8227764647847
 30
0.0
 11
1142.910818850091
 21
949.8227764647847
 31
0.0
  0
LINE
  5
463
330
1F
100
AcDbEntity
  8
AM_VIS
100
AcDbLine
 10
1185.910818850091
 20
952.0727764647848
 30
0.0
 11
1185.910818850091
 21
940.0727764647847
 31
0.0
  0
LINE
  5
464
330
1F
100
AcDbEntity
  8
AM_VIS
100
AcDbLine
 10
1203.910818850091
 20
952.0727764647848
 30
0.0
 11
1203.910818850091
 21
940.0727764647847
 31
0.0
  0
LINE
  5
465
330
1F
100
AcDbEntity
  8
AM_VIS
100
AcDbLine
 10
1188.160818850091
 20
940.0727764647847
 30
0.0
 11
1188.160818850091
 21
938.0727764647847
 31
0.0
  0
LINE
  5
466
330
1F
100
AcDbEntity
  8
AM_VIS
100
AcDbLine
 10
1201.660818850091
 20
940.0727764647847
 30
0.0
 11
1201.660818850091
 21
938.0727764647847
 31
0.0
  0
LINE
  5
467
330
1F
100
AcDbEntity
  8
AM_VIS
100
AcDbLine
 10
1158.410818850091
 20
980.8227764647847
 30
0.0
 11
1158.410818850091
 21
983.3227764647848
 31
0.0
  0
LINE
  5
468
330
1F
100
AcDbEntity
  8
AM_VIS
100
AcDbLine
 10
1149.910818850091
 20
980.8227764647847
 30
0.0
 11
1149.910818850091
 21
983.3227764647848
 31
0.0
  0
LINE
  5
469
330
1F
100
AcDbEntity
  8
AM_VIS
100
AcDbLine
 10
1202.410818850091
 20
952.0727764647848
 30
0.0
 11
1203.910818850091
 21
952.0727764647848
 31
0.0
  0
LINE
  5
46A
330
1F
100
AcDbEntity
  8
AM_VIS
100
AcDbLine
 10
1203.910818850091
 20
940.0727764647847
 30
0.0
 11
1185.910818850091
 21
940.0727764647847
 31
0.0
  0
LINE
  5
46B
330
1F
100
AcDbEntity
  8
AM_VIS
100
AcDbLine
 10
1150.410818850091
 20
983.8227764647847
 30
0.0
 11
1157.910818850091
 21
983.8227764647847
 31
0.0
  0
ARC
  5
46C
330
1F
100
AcDbEntity
  8
AM_VIS
100
AcDbCircle
 10
1157.910818850091
 20
983.3227764647848
 30
0.0
 40
0.5
100
AcDbArc
 50
0.0
 51
90.0
  0
ARC
  5
46D
330
1F
100
AcDbEntity
  8
AM_VIS
100
AcDbCircle
 10
1150.410818850091
 20
983.3227764647848
 30
0.0
 40
0.5
100
AcDbArc
 50
90.0
 51
180.0
  0
LINE
  5
46E
330
1F
100
AcDbEntity
  8
AM_VIS
100
AcDbLine
 10
1097.503641501221
 20
980.8227764647847
 30
0.0
 11
1097.503641501221
 21
951.8227764647846
 31
0.0
  0
LINE
  5
46F
330
1F
100
AcDbEntity
  8
AM_VIS
100
AcDbLine
 10
1119.503641501221
 20
951.8227764647846
 30
0.0
 11
1119.503641501221
 21
980.8227764647847
 31
0.0
  0
LINE
  5
470
330
1F
100
AcDbEntity
  8
AM_VIS
100
AcDbLine
 10
1097.503641501221
 20
951.8227764647846
 30
0.0
 11
1119.503641501221
 21
951.8227764647846
 31
0.0
  0
LINE
  5
471
330
1F
100
AcDbEntity
  8
AM_VIS
100
AcDbLine
 10
1097.503641501221
 20
980.8227764647847
 30
0.0
 11
1119.503641501221
 21
980.8227764647847
 31
0.0
  0
LINE
  5
472
330
1F
100
AcDbEntity
  8
AM_VIS
100
AcDbLine
 10
1097.003641501221
 20
950.8227764647847
 30
0.0
 11
1097.003641501221
 21
981.8227764647847
 31
0.0
  0
LINE
  5
473
330
1F
100
AcDbEntity
  8
AM_VIS
100
AcDbLine
 10
1097.003641501221
 20
981.8227764647847
 30
0.0
 11
1104.153641501221
 21
981.8227764647847
 31
0.0
  0
LINE
  5
474
330
1F
100
AcDbEntity
  8
AM_VIS
100
AcDbLine
 10
1112.653641501221
 20
981.8227764647847
 30
0.0
 11
1120.003641501221
 21
981.8227764647847
 31
0.0
  0
LINE
  5
475
330
1F
100
AcDbEntity
  8
AM_VIS
100
AcDbLine
 10
1120.003641501221
 20
981.8227764647847
 30
0.0
 11
1120.003641501221
 21
950.8227764647847
 31
0.0
  0
LINE
  5
476
330
1F
100
AcDbEntity
  8
AM_VIS
100
AcDbLine
 10
1120.003641501221
 20
950.8227764647847
 30
0.0
 11
1119.303641501221
 21
950.8227764647847
 31
0.0
  0
LINE
  5
477
330
1F
100
AcDbEntity
  8
AM_VIS
100
AcDbLine
 10
1097.703641501221
 20
950.8227764647847
 30
0.0
 11
1097.003641501221
 21
950.8227764647847
 31
0.0
  0
LINE
  5
478
330
1F
100
AcDbEntity
  8
AM_VIS
100
AcDbLine
 10
1119.303641501221
 20
951.8227764647846
 30
0.0
 11
1119.303641501221
 21
949.8227764647847
 31
0.0
  0
LINE
  5
479
330
1F
100
AcDbEntity
  8
AM_VIS
100
AcDbLine
 10
1112.303641501221
 20
951.8227764647846
 30
0.0
 11
1112.303641501221
 21
949.8227764647847
 31
0.0
  0
LINE
  5
47A
330
1F
100
AcDbEntity
  8
AM_VIS
100
AcDbLine
 10
1097.703641501221
 20
951.8227764647846
 30
0.0
 11
1097.703641501221
 21
949.8227764647847
 31
0.0
  0
LINE
  5
47B
330
1F
100
AcDbEntity
  8
AM_VIS
100
AcDbLine
 10
1119.403641501221
 20
949.8227764647847
 30
0.0
 11
1119.403641501221
 21
927.8227764647848
 31
0.0
  0
LINE
  5
47C
330
1F
100
AcDbEntity
  8
AM_VIS
100
AcDbLine
 10
1097.403641501221
 20
927.8227764647848
 30
0.0
 11
1119.403641501221
 21
927.8227764647848
 31
0.0
  0
LINE
  5
47D
330
1F
100
AcDbEntity
  8
AM_VIS
100
AcDbLine
 10
1097.403641501221
 20
949.8227764647847
 30
0.0
 11
1097.403641501221
 21
927.8227764647848
 31
0.0
  0
LINE
  5
47E
330
1F
100
AcDbEntity
  8
AM_VIS
100
AcDbLine
 10
1119.403641501221
 20
949.8227764647847
 30
0.0
 11
1097.403641501221
 21
949.8227764647847
 31
0.0
  0
LINE
  5
47F
330
1F
100
AcDbEntity
  8
AM_VIS
100
AcDbLine
 10
1112.653641501221
 20
980.8227764647847
 30
0.0
 11
1112.653641501221
 21
984.3227764647847
 31
0.0
  0
ARC
  5
480
330
1F
100
AcDbEntity
  8
AM_VIS
100
AcDbCircle
 10
1112.153641501221
 20
984.3227764647847
 30
0.0
 40
0.5
100
AcDbArc
 50
0.0
 51
90.0
  0
LINE
  5
481
330
1F
100
AcDbEntity
  8
AM_VIS
100
AcDbLine
 10
1104.153641501221
 20
980.8227764647847
 30
0.0
 11
1104.153641501221
 21
984.3227764647846
 31
0.0
  0
ARC
  5
482
330
1F
100
AcDbEntity
  8
AM_VIS
100
AcDbCircle
 10
1104.653641501221
 20
984.3227764647846
 30
0.0
 40
0.5
100
AcDbArc
 50
90.0
 51
180.0
  0
CIRCLE
  5
483
330
1F
100
AcDbEntity
  8
AM_VIS
100
AcDbCircle
 10
1108.403641501221
 20
933.8227764647847
 30
0.0
 40
4.0
  0
LINE
  5
484
330
1F
100
AcDbEntity
  8
AM_VIS
100
AcDbLine
 10
1104.653641501221
 20
984.8227764647846
 30
0.0
 11
1112.153641501221
 21
984.8227764647846
 31
0.0
  0
LINE
  5
507
330
1F
100
AcDbEntity
  8
AM_7
 62
     1
100
AcDbLine
 10
1193.910818850091
 20
889.7686929754803
 30
0.0
 11
1195.910818850091
 21
889.7686929754803
 31
0.0
  0
LINE
  5
508
330
1F
100
AcDbEntity
  8
AM_7
 62
     1
100
AcDbLine
 10
1194.910818850091
 20
888.7686929754803
 30
0.0
 11
1194.910818850091
 21
890.7686929754802
 31
0.0
  0
LINE
  5
509
330
1F
100
AcDbEntity
  8
AM_7
 62
     1
100
AcDbLine
 10
1140.75997881834
 20
889.7686929754803
 30
0.0
 11
1192.910818850091
 21
889.7686929754803
 31
0.0
  0
LINE
  5
50A
330
1F
100
AcDbEntity
  8
AM_7
 62
     1
100
AcDbLine
 10
1196.910818850091
 20
889.7686929754803
 30
0.0
 11
1205.910818850091
 21
889.7686929754803
 31
0.0
  0
LINE
  5
50B
330
1F
100
AcDbEntity
  8
AM_7
 62
     1
100
AcDbLine
 10
1194.910818850091
 20
878.7686929754803
 30
0.0
 11
1194.910818850091
 21
887.7686929754803
 31
0.0
  0
LINE
  5
50C
330
1F
100
AcDbEntity
  8
AM_7
 62
     1
100
AcDbLine
 10
1194.910818850091
 20
891.7686929754804
 30
0.0
 11
1194.910818850091
 21
900.7686929754804
 31
0.0
  0
LINE
  5
50D
330
1F
100
AcDbEntity
  8
AM_7
 62
     1
100
AcDbLine
 10
1152.910818850091
 20
896.9186929754803
 30
0.0
 11
1154.910818850091
 21
896.9186929754803
 31
0.0
  0
LINE
  5
50E
330
1F
100
AcDbEntity
  8
AM_7
 62
     1
100
AcDbLine
 10
1153.910818850091
 20
895.9186929754803
 30
0.0
 11
1153.910818850091
 21
897.9186929754803
 31
0.0
  0
LINE
  5
50F
330
1F
100
AcDbEntity
  8
AM_7
 62
     1
100
AcDbLine
 10
1150.660818850091
 20
896.9186929754803
 30
0.0
 11
1151.910818850091
 21
896.9186929754803
 31
0.0
  0
LINE
  5
510
330
1F
100
AcDbEntity
  8
AM_7
 62
     1
100
AcDbLine
 10
1155.910818850091
 20
896.9186929754803
 30
0.0
 11
1157.160818850091
 21
896.9186929754803
 31
0.0
  0
LINE
  5
511
330
1F
100
AcDbEntity
  8
AM_7
 62
     1
100
AcDbLine
 10
1153.910818850091
 20
893.6686929754802
 30
0.0
 11
1153.910818850091
 21
894.9186929754803
 31
0.0
  0
LINE
  5
512
330
1F
100
AcDbEntity
  8
AM_7
 62
     1
100
AcDbLine
 10
1153.910818850091
 20
898.9186929754803
 30
0.0
 11
1153.910818850091
 21
900.1686929754804
 31
0.0
  0
LINE
  5
513
330
1F
100
AcDbEntity
  8
AM_7
 62
     1
100
AcDbLine
 10
1152.910818850091
 20
881.9186929754803
 30
0.0
 11
1154.910818850091
 21
881.9186929754803
 31
0.0
  0
LINE
  5
514
330
1F
100
AcDbEntity
  8
AM_7
 62
     1
100
AcDbLine
 10
1153.910818850091
 20
880.9186929754803
 30
0.0
 11
1153.910818850091
 21
882.9186929754802
 31
0.0
  0
LINE
  5
515
330
1F
100
AcDbEntity
  8
AM_7
 62
     1
100
AcDbLine
 10
1150.660818850091
 20
881.9186929754803
 30
0.0
 11
1151.910818850091
 21
881.9186929754803
 31
0.0
  0
LINE
  5
516
330
1F
100
AcDbEntity
  8
AM_7
 62
     1
100
AcDbLine
 10
1155.910818850091
 20
881.9186929754803
 30
0.0
 11
1157.160818850091
 21
881.9186929754803
 31
0.0
  0
LINE
  5
517
330
1F
100
AcDbEntity
  8
AM_7
 62
     1
100
AcDbLine
 10
1153.910818850091
 20
878.6686929754804
 30
0.0
 11
1153.910818850091
 21
879.9186929754803
 31
0.0
  0
LINE
  5
518
330
1F
100
AcDbEntity
  8
AM_7
 62
     1
100
AcDbLine
 10
1153.910818850091
 20
883.9186929754802
 30
0.0
 11
1153.910818850091
 21
885.1686929754803
 31
0.0
  0
LINE
  5
519
330
1F
100
AcDbEntity
  8
AM_VIS
100
AcDbLine
 10
1164.910818850091
 20
878.7686929754803
 30
0.0
 11
1171.910818850091
 21
878.7686929754803
 31
0.0
  0
LINE
  5
51A
330
1F
100
AcDbEntity
  8
AM_VIS
100
AcDbLine
 10
1143.410818850091
 20
900.6686929754803
 30
0.0
 11
1143.410818850091
 21
900.7686929754804
 31
0.0
  0
LINE
  5
51B
330
1F
100
AcDbEntity
  8
AM_VIS
100
AcDbLine
 10
1171.910818850091
 20
900.7686929754804
 30
0.0
 11
1143.410818850091
 21
900.7686929754804
 31
0.0
  0
LINE
  5
51C
330
1F
100
AcDbEntity
  8
AM_VIS
100
AcDbLine
 10
1176.910818850091
 20
878.2686929754802
 30
0.0
 11
1176.910818850091
 21
901.2686929754803
 31
0.0
  0
LINE
  5
51D
330
1F
100
AcDbEntity
  8
AM_VIS
100
AcDbLine
 10
1171.910818850091
 20
878.2686929754802
 30
0.0
 11
1176.910818850091
 21
878.2686929754802
 31
0.0
  0
LINE
  5
51E
330
1F
100
AcDbEntity
  8
AM_VIS
100
AcDbLine
 10
1171.910818850091
 20
901.2686929754803
 30
0.0
 11
1176.910818850091
 21
901.2686929754803
 31
0.0
  0
LINE
  5
51F
330
1F
100
AcDbEntity
  8
AM_VIS
100
AcDbLine
 10
1171.910818850091
 20
901.2686929754803
 30
0.0
 11
1171.910818850091
 21
878.2686929754802
 31
0.0
  0
LINE
  5
520
330
1F
100
AcDbEntity
  8
AM_VIS
100
AcDbLine
 10
1202.410818850091
 20
879.5186929754803
 30
0.0
 11
1202.410818850091
 21
884.7937557899472
 31
0.0
  0
LINE
  5
521
330
1F
100
AcDbEntity
  8
AM_VIS
100
AcDbLine
 10
1176.910818850091
 20
879.5186929754803
 30
0.0
 11
1202.410818850091
 21
879.5186929754803
 31
0.0
  0
LINE
  5
522
330
1F
100
AcDbEntity
  8
AM_VIS
100
AcDbLine
 10
1176.910818850091
 20
900.0186929754804
 30
0.0
 11
1202.410818850091
 21
900.0186929754804
 31
0.0
  0
LINE
  5
523
330
1F
100
AcDbEntity
  8
AM_VIS
100
AcDbLine
 10
1202.410818850091
 20
894.7436301610135
 30
0.0
 11
1202.410818850091
 21
900.0186929754804
 31
0.0
  0
LINE
  5
524
330
1F
100
AcDbEntity
  8
AM_VIS
100
AcDbLine
 10
1199.529621003608
 20
881.7686929754803
 30
0.0
 11
1190.292016696574
 21
881.7686929754803
 31
0.0
  0
LINE
  5
525
330
1F
100
AcDbEntity
  8
AM_VIS
100
AcDbLine
 10
1204.148423157126
 20
889.7686929754803
 30
0.0
 11
1199.529621003608
 21
881.7686929754803
 31
0.0
  0
LINE
  5
526
330
1F
100
AcDbEntity
  8
AM_VIS
100
AcDbLine
 10
1199.529621003608
 20
897.7686929754803
 30
0.0
 11
1204.148423157126
 21
889.7686929754803
 31
0.0
  0
LINE
  5
527
330
1F
100
AcDbEntity
  8
AM_VIS
100
AcDbLine
 10
1190.292016696574
 20
897.7686929754803
 30
0.0
 11
1199.529621003608
 21
897.7686929754803
 31
0.0
  0
LINE
  5
528
330
1F
100
AcDbEntity
  8
AM_VIS
100
AcDbLine
 10
1185.673214543057
 20
889.7686929754803
 30
0.0
 11
1190.292016696574
 21
897.7686929754803
 31
0.0
  0
LINE
  5
529
330
1F
100
AcDbEntity
  8
AM_VIS
100
AcDbLine
 10
1190.292016696574
 20
881.7686929754803
 30
0.0
 11
1185.673214543057
 21
889.7686929754803
 31
0.0
  0
LINE
  5
52A
330
1F
100
AcDbEntity
  8
AM_VIS
100
AcDbLine
 10
1164.910818850091
 20
900.6686929754803
 30
0.0
 11
1164.910818850091
 21
878.6686929754804
 31
0.0
  0
LINE
  5
52B
330
1F
100
AcDbEntity
  8
AM_VIS
100
AcDbLine
 10
1142.910818850091
 20
900.6686929754803
 30
0.0
 11
1164.910818850091
 21
900.6686929754803
 31
0.0
  0
LINE
  5
52C
330
1F
100
AcDbEntity
  8
AM_VIS
100
AcDbLine
 10
1142.910818850091
 20
878.6686929754804
 30
0.0
 11
1142.910818850091
 21
900.6686929754803
 31
0.0
  0
LINE
  5
52D
330
1F
100
AcDbEntity
  8
AM_VIS
100
AcDbLine
 10
1164.910818850091
 20
878.6686929754804
 30
0.0
 11
1142.910818850091
 21
878.6686929754804
 31
0.0
  0
ARC
  5
52E
330
1F
100
AcDbEntity
  8
AM_VIS
100
AcDbCircle
 10
1194.910818850091
 20
889.7686929754803
 30
0.0
 40
9.0
100
AcDbArc
 50
122.7339555492633
 51
177.2660444507338
  0
ARC
  5
52F
330
1F
100
AcDbEntity
  8
AM_VIS
100
AcDbCircle
 10
1194.910818850091
 20
889.7686929754803
 30
0.0
 40
9.0
100
AcDbArc
 50
62.73395554926273
 51
117.2660444507372
  0
ARC
  5
530
330
1F
100
AcDbEntity
  8
AM_VIS
100
AcDbCircle
 10
1194.910818850091
 20
889.7686929754803
 30
0.0
 40
9.0
100
AcDbArc
 50
2.733955549266189
 51
57.26604445073669
  0
ARC
  5
531
330
1F
100
AcDbEntity
  8
AM_VIS
100
AcDbCircle
 10
1194.910818850091
 20
889.7686929754803
 30
0.0
 40
9.0
100
AcDbArc
 50
302.7339555492633
 51
357.2660444507338
  0
ARC
  5
532
330
1F
100
AcDbEntity
  8
AM_VIS
100
AcDbCircle
 10
1194.910818850091
 20
889.7686929754803
 30
0.0
 40
9.0
100
AcDbArc
 50
242.7339555492628
 51
297.2660444507373
  0
ARC
  5
533
330
1F
100
AcDbEntity
  8
AM_VIS
100
AcDbCircle
 10
1194.910818850091
 20
889.7686929754803
 30
0.0
 40
9.0
100
AcDbArc
 50
182.7339555492662
 51
237.2660444507367
  0
CIRCLE
  5
534
330
1F
100
AcDbEntity
  8
AM_VIS
100
AcDbCircle
 10
1194.910818850091
 20
889.7686929754803
 30
0.0
 40
5.0
  0
DIMENSION
  5
535
330
1F
100
AcDbEntity
  8
0
100
AcDbDimension
  2
*D12
 10
1133.353195314204
 20
881.9186929754803
 30
0.0
 11
1130.853195314204
 21
889.4186929754804
 31
0.0
 70
    32
 71
     5
 42
15.0
  3
STANDARD
100
AcDbAlignedDimension
 13
1150.410818850091
 23
896.9186929754803
 33
0.0
 14
1150.410818850091
 24
881.9186929754803
 34
0.0
 50
90.0
100
AcDbRotatedDimension
1001
ACAD
1000
DSTYLE
1002
{
1070
   176
1070
     5
1070
   177
1070
     5
1070
   178
1070
     5
1070
   272
1070
     8
1002
}
  0
CIRCLE
  5
536
330
1F
100
AcDbEntity
  8
0
100
AcDbCircle
 10
1153.910818850091
 20
896.9186929754803
 30
0.0
 40
1.5
  0
CIRCLE
  5
537
330
1F
100
AcDbEntity
  8
0
100
AcDbCircle
 10
1153.910818850091
 20
881.9186929754803
 30
0.0
 40
1.5
  0
LEADER
  5
538
330
1F
100
AcDbEntity
  8
0
100
AcDbLeader
  3
STANDARD
 76
     3
 10
1152.745561601462
 20
880.7492698283832
 30
0.0
 10
1146.115590307863
 20
870.9081089642356
 30
0.0
 10
1130.58497382902
 20
870.9081089642356
 30
0.0
1001
ACAD
1000
DSTYLE
1002
{
1070
   176
1070
     5
1070
   177
1070
     5
1070
   178
1070
     5
1070
   272
1070
     8
1002
}
  0
MTEXT
  5
539
330
1F
100
AcDbEntity
  8
0
100
AcDbMText
 10
1131.250275442035
 20
874.829970264267
 30
0.0
 40
3.5
 41
15.38014201216481
 71
     1
 72
     5
  1
{\C5;M3x0.5}
 73
     1
 44
1.0
1001
GENIUS_AMGTXT_16
1040
3.5
1040
0.12
1001
ACAD
1000
MTEXTBEGIN
1070
    73
1070
     1
1070
    44
1040
1.0
1070
    74
1070
     0
1000
MTEXTEND
  0
DIMENSION
  5
53A
330
1F
100
AcDbEntity
  8
0
100
AcDbDimension
  2
*D13
 10
1212.976120941283
 20
878.2686929754802
 30
0.0
 11
1210.476120941282
 21
889.7686929754804
 31
0.0
 70
    32
 71
     5
 42
23.0
  3
STANDARD
100
AcDbAlignedDimension
 13
1176.910818850091
 23
901.2686929754803
 33
0.0
 14
1176.910818850091
 24
878.2686929754802
 34
0.0
 50
90.0
100
AcDbRotatedDimension
1001
ACAD
1000
DSTYLE
1002
{
1070
   176
1070
     5
1070
   177
1070
     5
1070
   178
1070
     5
1070
   272
1070
     8
1002
}
  0
DIMENSION
  5
53B
330
1F
100
AcDbEntity
  8
0
100
AcDbDimension
  2
*D14
 10
1092.510773902366
 20
933.8227764647847
 30
0.0
 11
1090.010773902366
 21
959.3227764647847
 31
0.0
 70
    32
 71
     5
 42
50.99999999999988
  3
STANDARD
100
AcDbAlignedDimension
 13
1104.653641501221
 23
984.8227764647846
 33
0.0
 14
1102.403641501221
 24
933.8227764647847
 34
0.0
 50
90.0
100
AcDbRotatedDimension
1001
ACAD
1000
DSTYLE
1002
{
1070
   176
1070
     5
1070
   177
1070
     5
1070
   178
1070
     5
1070
   272
1070
     8
1002
}
  0
DIMENSION
  5
53C
330
1F
100
AcDbEntity
  8
0
100
AcDbDimension
  2
*D15
 10
1164.910818850091
 20
917.7911447314189
 30
0.0
 11
1153.910818850091
 21
920.2911447314189
 31
0.0
 70
    32
 71
     5
 42
22.0
  3
STANDARD
100
AcDbAlignedDimension
 13
1142.910818850091
 23
927.8227764647848
 33
0.0
 14
1164.910818850091
 24
927.8227764647848
 34
0.0
100
AcDbRotatedDimension
1001
ACAD
1000
DSTYLE
1002
{
1070
   176
1070
     5
1070
   177
1070
     5
1070
   178
1070
     5
1070
   272
1070
     8
1002
}
  0
LINE
  5
53D
330
1F
100
AcDbEntity
  8
AM_7
 62
     1
100
AcDbLine
 10
1152.910818850091
 20
1027.657667540732
 30
0.0
 11
1154.910818850091
 21
1027.657667540732
 31
0.0
  0
LINE
  5
53E
330
1F
100
AcDbEntity
  8
AM_7
 62
     1
100
AcDbLine
 10
1153.910818850091
 20
1026.657667540732
 30
0.0
 11
1153.910818850091
 21
1028.657667540731
 31
0.0
  0
LINE
  5
53F
330
1F
100
AcDbEntity
  8
AM_7
 62
     1
100
AcDbLine
 10
1143.410818850091
 20
1027.657667540732
 30
0.0
 11
1151.910818850091
 21
1027.657667540732
 31
0.0
  0
LINE
  5
540
330
1F
100
AcDbEntity
  8
AM_7
 62
     1
100
AcDbLine
 10
1155.910818850091
 20
1027.657667540732
 30
0.0
 11
1164.410818850091
 21
1027.657667540732
 31
0.0
  0
LINE
  5
541
330
1F
100
AcDbEntity
  8
AM_7
 62
     1
100
AcDbLine
 10
1153.910818850091
 20
1017.157667540732
 30
0.0
 11
1153.910818850091
 21
1025.657667540732
 31
0.0
  0
LINE
  5
542
330
1F
100
AcDbEntity
  8
AM_7
 62
     1
100
AcDbLine
 10
1153.910818850091
 20
1029.657667540732
 30
0.0
 11
1153.910818850091
 21
1038.157667540732
 31
0.0
  0
LINE
  5
543
330
1F
100
AcDbEntity
  8
AM_7
 62
     1
100
AcDbLine
 10
1236.132199485404
 20
970.0727764647847
 30
0.0
 11
1238.132199485404
 21
970.0727764647847
 31
0.0
  0
LINE
  5
544
330
1F
100
AcDbEntity
  8
AM_7
 62
     1
100
AcDbLine
 10
1231.632199485404
 20
970.0727764647847
 30
0.0
 11
1235.132199485404
 21
970.0727764647847
 31
0.0
  0
LINE
  5
545
330
1F
100
AcDbEntity
  8
AM_7
 62
     1
100
AcDbLine
 10
1239.132199485404
 20
970.0727764647847
 30
0.0
 11
1242.632199485404
 21
970.0727764647847
 31
0.0
  0
LINE
  5
546
330
1F
100
AcDbEntity
  8
AM_VIS
100
AcDbLine
 10
1143.410818850091
 20
1038.557667540731
 30
0.0
 11
1143.410818850091
 21
1016.557667540731
 31
0.0
  0
LINE
  5
547
330
1F
100
AcDbEntity
  8
AM_VIS
100
AcDbLine
 10
1171.910818850091
 20
1038.557667540731
 30
0.0
 11
1143.410818850091
 21
1038.557667540731
 31
0.0
  0
LINE
  5
548
330
1F
100
AcDbEntity
  8
AM_VIS
100
AcDbLine
 10
1143.410818850091
 20
1016.557667540731
 30
0.0
 11
1171.910818850091
 21
1016.557667540731
 31
0.0
  0
LINE
  5
549
330
1F
100
AcDbEntity
  8
AM_VIS
100
AcDbLine
 10
1171.910818850091
 20
1039.057667540731
 30
0.0
 11
1176.910818850091
 21
1039.057667540731
 31
0.0
  0
LINE
  5
54A
330
1F
100
AcDbEntity
  8
AM_VIS
100
AcDbLine
 10
1176.910818850091
 20
1016.057667540732
 30
0.0
 11
1176.910818850091
 21
1039.057667540731
 31
0.0
  0
LINE
  5
54B
330
1F
100
AcDbEntity
  8
AM_VIS
100
AcDbLine
 10
1171.910818850091
 20
1016.057667540732
 30
0.0
 11
1176.910818850091
 21
1016.057667540732
 31
0.0
  0
LINE
  5
54C
330
1F
100
AcDbEntity
  8
AM_VIS
100
AcDbLine
 10
1171.910818850091
 20
1039.057667540731
 30
0.0
 11
1171.910818850091
 21
1016.057667540732
 31
0.0
  0
LINE
  5
54D
330
1F
100
AcDbEntity
  8
AM_VIS
100
AcDbLine
 10
1176.910818850091
 20
1037.807667540731
 30
0.0
 11
1202.410818850091
 21
1037.807667540731
 31
0.0
  0
LINE
  5
54E
330
1F
100
AcDbEntity
  8
AM_VIS
100
AcDbLine
 10
1202.410818850091
 20
1017.307667540731
 30
0.0
 11
1202.410818850091
 21
1037.807667540731
 31
0.0
  0
LINE
  5
54F
330
1F
100
AcDbEntity
  8
AM_VIS
100
AcDbLine
 10
1176.910818850091
 20
1017.307667540731
 30
0.0
 11
1202.410818850091
 21
1017.307667540731
 31
0.0
  0
LINE
  5
550
330
1F
100
AcDbEntity
  8
AM_VIS
100
AcDbLine
 10
1143.410818850091
 20
1016.657667540731
 30
0.0
 11
1142.910818850091
 21
1016.657667540731
 31
0.0
  0
LINE
  5
551
330
1F
100
AcDbEntity
  8
AM_VIS
100
AcDbLine
 10
1142.910818850091
 20
1016.657667540731
 30
0.0
 11
1142.910818850091
 21
1038.657667540732
 31
0.0
  0
LINE
  5
552
330
1F
100
AcDbEntity
  8
AM_VIS
100
AcDbLine
 10
1142.910818850091
 20
1038.657667540732
 30
0.0
 11
1164.910818850091
 21
1038.657667540732
 31
0.0
  0
LINE
  5
553
330
1F
100
AcDbEntity
  8
AM_VIS
100
AcDbLine
 10
1164.910818850091
 20
1038.657667540732
 30
0.0
 11
1164.910818850091
 21
1038.557667540731
 31
0.0
  0
ARC
  5
554
330
1F
100
AcDbEntity
  8
AM_VIS
100
AcDbCircle
 10
1194.910818850091
 20
1027.557667540731
 30
0.0
 40
9.0
100
AcDbArc
 50
326.442690238078
 51
33.55730976192203
  0
LINE
  5
555
330
1F
100
AcDbEntity
  8
AM_VIS
100
AcDbLine
 10
1248.632199485404
 20
950.8227764647847
 30
0.0
 11
1246.132199485404
 21
950.8227764647847
 31
0.0
  0
LINE
  5
556
330
1F
100
AcDbEntity
  8
AM_VIS
100
AcDbLine
 10
1228.132199485404
 20
950.8227764647847
 30
0.0
 11
1225.632199485404
 21
950.8227764647847
 31
0.0
  0
LINE
  5
557
330
1F
100
AcDbEntity
  8
AM_VIS
100
AcDbLine
 10
1248.632199485404
 20
981.8227764647847
 30
0.0
 11
1248.632199485404
 21
950.8227764647847
 31
0.0
  0
LINE
  5
558
330
1F
100
AcDbEntity
  8
AM_VIS
100
AcDbLine
 10
1225.632199485404
 20
981.8227764647847
 30
0.0
 11
1248.632199485404
 21
981.8227764647847
 31
0.0
  0
LINE
  5
559
330
1F
100
AcDbEntity
  8
AM_VIS
100
AcDbLine
 10
1225.632199485404
 20
950.8227764647847
 30
0.0
 11
1225.632199485404
 21
981.8227764647847
 31
0.0
  0
LINE
  5
55A
330
1F
100
AcDbEntity
  8
AM_VIS
100
AcDbLine
 10
1247.382199485404
 20
980.5727764647848
 30
0.0
 11
1247.382199485404
 21
952.0727764647848
 31
0.0
  0
LINE
  5
55B
330
1F
100
AcDbEntity
  8
AM_VIS
100
AcDbLine
 10
1226.882199485404
 20
980.5727764647848
 30
0.0
 11
1247.382199485404
 21
980.5727764647848
 31
0.0
  0
LINE
  5
55C
330
1F
100
AcDbEntity
  8
AM_VIS
100
AcDbLine
 10
1226.882199485404
 20
952.0727764647848
 30
0.0
 11
1226.882199485404
 21
980.5727764647848
 31
0.0
  0
LINE
  5
55D
330
1F
100
AcDbEntity
  8
AM_VIS
100
AcDbLine
 10
1247.382199485404
 20
952.0727764647848
 30
0.0
 11
1242.107136670937
 21
952.0727764647848
 31
0.0
  0
LINE
  5
55E
330
1F
100
AcDbEntity
  8
AM_VIS
100
AcDbLine
 10
1232.157262299871
 20
952.0727764647848
 30
0.0
 11
1226.882199485404
 21
952.0727764647848
 31
0.0
  0
LINE
  5
55F
330
1F
100
AcDbEntity
  8
AM_VIS
100
AcDbLine
 10
1245.132199485404
 20
938.0727764647847
 30
0.0
 11
1245.132199485404
 21
933.0727764647846
 31
0.0
  0
LINE
  5
560
330
1F
100
AcDbEntity
  8
AM_VIS
100
AcDbLine
 10
1237.132199485404
 20
933.0727764647846
 30
0.0
 11
1245.132199485404
 21
933.0727764647846
 31
0.0
  0
LINE
  5
561
330
1F
100
AcDbEntity
  8
AM_VIS
100
AcDbLine
 10
1229.132199485404
 20
933.0727764647846
 30
0.0
 11
1237.132199485404
 21
933.0727764647846
 31
0.0
  0
LINE
  5
562
330
1F
100
AcDbEntity
  8
AM_VIS
100
AcDbLine
 10
1229.132199485404
 20
938.0727764647847
 30
0.0
 11
1229.132199485404
 21
933.0727764647846
 31
0.0
  0
LINE
  5
563
330
1F
100
AcDbEntity
  8
AM_VIS
100
AcDbLine
 10
1237.132199485404
 20
938.0727764647847
 30
0.0
 11
1245.132199485404
 21
938.0727764647847
 31
0.0
  0
LINE
  5
564
330
1F
100
AcDbEntity
  8
AM_VIS
100
AcDbLine
 10
1229.132199485404
 20
938.0727764647847
 30
0.0
 11
1237.132199485404
 21
938.0727764647847
 31
0.0
  0
LINE
  5
565
330
1F
100
AcDbEntity
  8
AM_VIS
100
AcDbLine
 10
1226.332199485404
 20
950.8227764647847
 30
0.0
 11
1226.332199485404
 21
949.8227764647847
 31
0.0
  0
LINE
  5
566
330
1F
100
AcDbEntity
  8
AM_VIS
100
AcDbLine
 10
1247.932199485404
 20
950.8227764647847
 30
0.0
 11
1247.932199485404
 21
949.8227764647847
 31
0.0
  0
LINE
  5
567
330
1F
100
AcDbEntity
  8
AM_VIS
100
AcDbLine
 10
1226.232199485404
 20
927.8227764647848
 30
0.0
 11
1248.232199485404
 21
927.8227764647848
 31
0.0
  0
LINE
  5
568
330
1F
100
AcDbEntity
  8
AM_VIS
100
AcDbLine
 10
1226.232199485404
 20
949.8227764647847
 30
0.0
 11
1226.232199485404
 21
927.8227764647848
 31
0.0
  0
LINE
  5
569
330
1F
100
AcDbEntity
  8
AM_7
 62
     1
100
AcDbLine
 10
1237.232199485404
 20
984.1303558594686
 30
0.0
 11
1237.232199485404
 21
927.2014158553529
 31
0.0
  0
LINE
  5
56A
330
1F
100
AcDbEntity
  8
AM_VIS
100
AcDbLine
 10
1248.232199485404
 20
949.8227764647847
 30
0.0
 11
1248.232199485404
 21
927.8227764647848
 31
0.0
  0
LINE
  5
56B
330
1F
100
AcDbEntity
  8
AM_VIS
100
AcDbLine
 10
1248.232199485404
 20
949.8227764647847
 30
0.0
 11
1246.132199485404
 21
949.8227764647847
 31
0.0
  0
LINE
  5
56C
330
1F
100
AcDbEntity
  8
AM_VIS
100
AcDbLine
 10
1228.132199485404
 20
949.8227764647847
 30
0.0
 11
1226.232199485404
 21
949.8227764647847
 31
0.0
  0
LINE
  5
56D
330
1F
100
AcDbEntity
  8
AM_VIS
100
AcDbLine
 10
1228.132199485404
 20
952.0727764647848
 30
0.0
 11
1228.132199485404
 21
940.0727764647847
 31
0.0
  0
LINE
  5
56E
330
1F
100
AcDbEntity
  8
AM_VIS
100
AcDbLine
 10
1246.132199485404
 20
952.0727764647848
 30
0.0
 11
1246.132199485404
 21
940.0727764647847
 31
0.0
  0
LINE
  5
56F
330
1F
100
AcDbEntity
  8
AM_VIS
100
AcDbLine
 10
1230.382199485404
 20
940.0727764647847
 30
0.0
 11
1230.382199485404
 21
938.0727764647847
 31
0.0
  0
LINE
  5
570
330
1F
100
AcDbEntity
  8
AM_VIS
100
AcDbLine
 10
1243.882199485404
 20
940.0727764647847
 30
0.0
 11
1243.882199485404
 21
938.0727764647847
 31
0.0
  0
LINE
  5
571
330
1F
100
AcDbEntity
  8
AM_VIS
100
AcDbLine
 10
1241.482199485404
 20
981.8227764647847
 30
0.0
 11
1241.482199485404
 21
983.3227764647848
 31
0.0
  0
LINE
  5
572
330
1F
100
AcDbEntity
  8
AM_VIS
100
AcDbLine
 10
1232.982199485404
 20
981.8227764647847
 30
0.0
 11
1232.982199485404
 21
983.3227764647848
 31
0.0
  0
LINE
  5
573
330
1F
100
AcDbEntity
  8
AM_VIS
100
AcDbLine
 10
1232.157262299871
 20
952.0727764647848
 30
0.0
 11
1242.107136670937
 21
952.0727764647848
 31
0.0
  0
LINE
  5
574
330
1F
100
AcDbEntity
  8
AM_VIS
100
AcDbLine
 10
1246.132199485404
 20
940.0727764647847
 30
0.0
 11
1228.132199485404
 21
940.0727764647847
 31
0.0
  0
ARC
  5
575
330
1F
100
AcDbEntity
  8
AM_VIS
100
AcDbCircle
 10
1237.232199485404
 20
934.3227764647847
 30
0.0
 40
4.0
100
AcDbArc
 50
198.2099568642848
 51
341.7900431357152
  0
LINE
  5
576
330
1F
100
AcDbEntity
  8
AM_VIS
100
AcDbLine
 10
1233.482199485404
 20
983.8227764647847
 30
0.0
 11
1240.982199485404
 21
983.8227764647847
 31
0.0
  0
ARC
  5
577
330
1F
100
AcDbEntity
  8
AM_VIS
100
AcDbCircle
 10
1240.982199485404
 20
983.3227764647848
 30
0.0
 40
0.5
100
AcDbArc
 50
0.0
 51
90.0
  0
ARC
  5
578
330
1F
100
AcDbEntity
  8
AM_VIS
100
AcDbCircle
 10
1233.482199485404
 20
983.3227764647848
 30
0.0
 40
0.5
100
AcDbArc
 50
90.0
 51
180.0
  0
LINE
  5
579
330
1F
100
AcDbEntity
  8
0
100
AcDbLine
 10
1185.910818850092
 20
938.0727764647847
 30
0.0
 11
1185.910818850091
 21
933.0727764647846
 31
0.0
  0
LINE
  5
57A
330
1F
100
AcDbEntity
  8
0
100
AcDbLine
 10
1203.910818850092
 20
938.0727764647847
 30
0.0
 11
1203.910818850091
 21
933.0727764647846
 31
0.0
  0
TEXT
  5
57B
330
1F
100
AcDbEntity
  8
LOGO
 62
     7
100
AcDbText
 10
1108.219735539518
 20
849.4291248515656
 30
0.0
 40
2.932908597285067
  1
Order example:
 41
0.8
  7
CHINESET
100
AcDbText
  0
TEXT
  5
57C
330
1F
100
AcDbEntity
  8
LOGO
 62
     7
100
AcDbText
 10
1108.745923596038
 20
853.5580528900695
 30
0.0
 40
4.399362895927601
  1
訂購代號：
  7
CHINESET
100
AcDbText
  0
LINE
  5
57D
330
1F
100
AcDbEntity
  8
LOGO
 62
     4
100
AcDbLine
 10
1279.697546381768
 20
859.0655549673122
 30
0.0
 11
1058.55238495094
 21
859.0655549673122
 31
0.0
  0
LINE
  5
57E
330
1F
100
AcDbEntity
  8
LOGO
 62
     4
100
AcDbLine
 10
1106.945376806143
 20
837.068740487674
 30
0.0
 11
1106.945376806143
 21
859.0655549673122
 31
0.0
  0
TEXT
  5
57F
330
1F
100
AcDbEntity
  8
LOGO
  6
Continuous
100
AcDbText
 10
1066.45373958962
 20
841.3899814961114
 30
0.0
 40
3.299522171945701
  1
金器工業股份有限公司
  7
CHINESET
100
AcDbText
  0
TEXT
  5
580
330
1F
100
AcDbEntity
  8
LOGO
  6
Continuous
100
AcDbText
 10
1060.393170138026
 20
838.0898128765126
 30
0.0
 40
2.1996814479638
  1
MINDMAN INDUSTRIAL CO., LTD.
 41
0.85
  7
CHINESET
100
AcDbText
  0
LINE
  5
581
330
1F
100
AcDbEntity
  8
LOGO
 62
     4
100
AcDbLine
 10
1106.945376806143
 20
854.6661920713845
 30
0.0
 11
1074.683382236007
 21
854.6661920713845
 31
0.0
  0
LINE
  5
582
330
1F
100
AcDbEntity
  8
LOGO
 62
     4
100
AcDbLine
 10
1106.945376806143
 20
850.266829175457
 30
0.0
 11
1074.683382236007
 21
850.266829175457
 31
0.0
  0
LINE
  5
583
330
1F
100
AcDbEntity
  8
LOGO
 62
     4
100
AcDbLine
 10
1106.945376806143
 20
845.8674662795298
 30
0.0
 11
1058.55238495094
 21
845.8674662795298
 31
0.0
  0
LINE
  5
584
330
1F
100
AcDbEntity
  8
LOGO
 62
     4
100
AcDbLine
 10
1074.683382236007
 20
845.8674662795298
 30
0.0
 11
1074.683382236007
 21
859.0655549673122
 31
0.0
  0
TEXT
  5
585
330
1F
100
AcDbEntity
  8
LOGO
100
AcDbText
 10
1096.732932781746
 20
846.9673070035113
 30
0.0
 40
2.1996814479638
  1
mm
  7
CHINESET
 72
     1
 11
1099.456347907796
 21
848.0671477274931
 31
0.0
100
AcDbText
 73
     2
  0
TEXT
  5
586
330
1F
100
AcDbEntity
  8
LOGO
100
AcDbText
 10
1095.580718689955
 20
855.7660327953666
 30
0.0
 40
2.1996814479638
  1
1 : 1
  7
CHINESET
 72
     1
 11
1099.456347907796
 21
856.8658735193483
 31
0.0
100
AcDbText
 73
     2
  0
LINE
  5
587
330
1F
100
AcDbEntity
  8
LOGO
 62
     4
100
AcDbLine
 10
1092.280833819718
 20
845.8674662795298
 30
0.0
 11
1092.280833819718
 21
859.0655549673122
 31
0.0
  0
TEXT
  5
588
330
1F
100
AcDbEntity
  8
LOGO
100
AcDbText
 10
1076.497137429931
 20
855.7671153157642
 30
144.1634983360548
 40
2.1996814479638
  1
比例 Scale:
 41
0.9
  7
CHINESET
 72
     4
 11
1083.482108027863
 21
856.8658735193483
 31
144.1634983360548
100
AcDbText
  0
TEXT
  5
589
330
1F
100
AcDbEntity
  8
LOGO
100
AcDbText
 10
1076.370459346544
 20
851.3976119408038
 30
144.1634983360548
 40
2.1996814479638
  1
投影  View:
 41
0.9
  7
CHINESET
 72
     4
 11
1083.482108027863
 21
852.4665106234206
 31
144.1634983360548
100
AcDbText
  0
TEXT
  5
58A
330
1F
100
AcDbEntity
  8
LOGO
100
AcDbText
 10
1076.585517488108
 20
846.9673070035113
 30
144.1634983360548
 40
2.1996814479638
  1
單位  Unit:
 41
0.9
  7
CHINESET
 72
     4
 11
1083.482108027863
 21
848.0671477274931
 31
144.1634983360548
100
AcDbText
  0
LWPOLYLINE
  5
58B
330
1F
100
AcDbEntity
  8
LOGO
 62
     4
100
AcDbPolyline
 90
        4
 70
     1
 43
0.0
 10
1058.55238495094
 20
859.0655549673122
 10
1279.697546381768
 20
859.0655549673122
 10
1279.697546381768
 20
1057.068740487673
 10
1058.55238495094
 20
1057.068740487673
1001
GENIUS_GENREC_14
1002
{
1000
PYDIR
1011
1058.55238495094
1021
1057.068740487673
1031
0.0
1002
}
1002
{
1000
PXDIR
1011
1279.697546381768
1021
859.0655549673122
1031
0.0
1002
}
1002
{
1000
PORI
1011
1058.55238495094
1021
859.0655549673122
1031
0.0
1002
}
1002
{
1000
PINS
1011
1058.55238495094
1021
859.0655549673122
1031
0.0
1002
}
1002
{
1000
PINS2
1011
1279.697546381768
1021
1057.068740487673
1031
0.0
1002
}
1002
{
1000
C
1070
     1
1002
}
1001
GENIUS_GENODEF_13
1002
{
1000
HIER
1070
     0
1002
}
1002
{
1000
MANEDIT
1070
     0
1002
}
1002
{
1000
NOSEL
1070
     0
1002
}
1002
{
1000
BEHIND
1070
     0
1002
}
1002
{
1000
OTHER
1070
     0
1002
}
1002
{
1000
REACTOR
1002
}
1001
GENIUS_GENOBJ-N-REC_13
1002
{
1000
OWNER
1000
GEN
1002
}
  0
SOLID
  5
58C
330
1F
100
AcDbEntity
  8
LOGO
 62
     5
100
AcDbTrace
 10
1060.834589755404
 20
849.5241235867702
 30
0.0
 11
1061.785674293862
 21
849.5241235867702
 31
0.0
 12
1065.753992540533
 22
858.5430286928412
 32
0.0
 13
1066.705077078992
 23
858.5430286928406
 33
0.0
  0
SOLID
  5
58D
330
1F
100
AcDbEntity
  8
LOGO
 62
     5
100
AcDbTrace
 10
1062.179226516674
 20
849.5241235867702
 30
0.0
 11
1063.130311055132
 21
849.5241235867702
 31
0.0
 12
1066.705077078992
 22
857.8215162843552
 32
0.0
 13
1065.753992540533
 23
854.3342063100078
 33
0.0
  0
SOLID
  5
58E
330
1F
100
AcDbEntity
  8
LOGO
 62
     2
100
AcDbTrace
 10
1061.785674293862
 20
849.5241235867702
 30
0.0
 11
1062.179226516674
 21
849.5241235867702
 31
0.0
 12
1066.705077078992
 22
858.5430286928406
 32
0.0
 13
1067.098629301803
 23
858.5430286928406
 33
0.0
  0
SOLID
  5
58F
330
1F
100
AcDbEntity
  8
LOGO
 62
     5
100
AcDbTrace
 10
1059.309768005757
 20
846.2445217300176
 30
0.0
 11
1059.637728191432
 21
846.2445217300176
 31
0.0
 12
1060.561289600675
 22
847.884322658394
 32
0.0
 13
1060.88924978635
 23
847.884322658394
 33
0.0
  0
SOLID
  5
590
330
1F
100
AcDbEntity
  8
LOGO
 62
     5
100
AcDbTrace
 10
1060.561289600675
 20
847.884322658394
 30
0.0
 11
1060.88924978635
 21
847.884322658394
 31
0.0
 12
1060.561289600675
 22
846.2445217300176
 32
0.0
 13
1060.88924978635
 23
846.2445217300176
 33
0.0
  0
SOLID
  5
591
330
1F
100
AcDbEntity
  8
LOGO
 62
     5
100
AcDbTrace
 10
1060.561289600675
 20
846.2445217300176
 30
0.0
 11
1060.88924978635
 21
846.2445217300176
 31
0.0
 12
1061.812811195594
 22
847.884322658394
 32
0.0
 13
1062.140771381269
 23
847.884322658394
 33
0.0
  0
SOLID
  5
592
330
1F
100
AcDbEntity
  8
LOGO
 62
     5
100
AcDbTrace
 10
1061.812811195594
 20
847.884322658394
 30
0.0
 11
1062.140771381269
 21
847.884322658394
 31
0.0
 12
1061.812811195594
 22
846.2445217300176
 32
0.0
 13
1062.140771381269
 23
846.2445217300176
 33
0.0
  0
POLYLINE
  5
593
330
1F
100
AcDbEntity
  8
LOGO
 62
     5
100
AcDb2dPolyline
 66
     1
 10
0.0
 20
0.0
 30
0.0
 40
0.3284857628959275
 41
0.3284857628959275
  0
VERTEX
  5
594
330
593
100
AcDbEntity
  8
LOGO
 62
     5
100
AcDbVertex
100
AcDb2dVertex
 10
1072.805924898384
 20
847.2284022870432
 30
0.0
 42
1.0
  0
VERTEX
  5
595
330
593
100
AcDbEntity
  8
LOGO
 62
     5
100
AcDbVertex
100
AcDb2dVertex
 10
1071.820467609696
 20
847.2284022870432
 30
0.0
 42
1.0
  0
SEQEND
  5
596
330
593
100
AcDbEntity
  8
LOGO
 62
     5
  0
POLYLINE
  5
597
330
1F
100
AcDbEntity
  8
LOGO
 62
     5
100
AcDb2dPolyline
 66
     1
 10
0.0
 20
0.0
 30
0.0
 70
     1
  0
VERTEX
  5
598
330
597
100
AcDbEntity
  8
LOGO
 62
     5
100
AcDbVertex
100
AcDb2dVertex
 10
1069.962836787379
 20
847.0644221942055
 30
0.0
 42
1.000000057330635
  0
VERTEX
  5
599
330
597
100
AcDbEntity
  8
LOGO
 62
     5
100
AcDbVertex
100
AcDb2dVertex
 10
1070.946717344405
 20
847.0644221942055
 30
0.0
 42
1.000000057330635
  0
SEQEND
  5
59A
330
597
100
AcDbEntity
  8
LOGO
 62
     5
  0
CIRCLE
  5
59B
330
1F
100
AcDbEntity
  8
LOGO
 62
     5
100
AcDbCircle
 10
1070.454777065892
 20
847.0644221942055
 30
0.0
 40
0.4919402785129413
  0
POLYLINE
  5
59C
330
1F
100
AcDbEntity
  8
LOGO
 62
     5
100
AcDb2dPolyline
 66
     1
 10
0.0
 20
0.0
 30
0.0
 70
     1
 40
0.3284857628959275
 41
0.3284857628959275
  0
VERTEX
  5
59D
330
59C
100
AcDbEntity
  8
LOGO
 62
     5
100
AcDbVertex
100
AcDb2dVertex
 10
1069.7978055401
 20
847.0644221942055
 30
0.0
 42
1.0
  0
VERTEX
  5
59E
330
59C
100
AcDbEntity
  8
LOGO
 62
     5
100
AcDbVertex
100
AcDb2dVertex
 10
1071.111748591684
 20
847.0644221942055
 30
0.0
 42
1.0
  0
SEQEND
  5
59F
330
59C
100
AcDbEntity
  8
LOGO
 62
     5
  0
LINE
  5
5A0
330
1F
100
AcDbEntity
  8
LOGO
100
AcDbLine
 10
1072.96911662539
 20
846.2445217300176
 30
0.0
 11
1072.96911662539
 21
847.2284022870432
 31
0.0
  0
SOLID
  5
5A1
330
1F
100
AcDbEntity
  8
LOGO
 62
     5
100
AcDbTrace
 10
1070.946684548387
 20
847.884322658394
 30
0.0
 11
1071.274644734062
 21
847.884322658394
 31
0.0
 12
1070.946684548387
 22
846.2445217300176
 32
0.0
 13
1071.274644734062
 23
846.2445217300176
 33
0.0
  0
SOLID
  5
5A2
330
1F
100
AcDbEntity
  8
LOGO
 62
     5
100
AcDbTrace
 10
1071.657275882689
 20
846.2445217300176
 30
0.0
 11
1071.985236068364
 21
846.2445217300176
 31
0.0
 12
1071.657275882689
 22
847.884322658394
 32
0.0
 13
1071.985236068364
 23
847.884322658394
 33
0.0
  0
SOLID
  5
5A3
330
1F
100
AcDbEntity
  8
LOGO
 62
     5
100
AcDbTrace
 10
1072.641156439715
 20
847.2284022870432
 30
0.0
 11
1072.96911662539
 21
847.2284022870432
 31
0.0
 12
1072.641156439715
 22
846.2445217300176
 32
0.0
 13
1072.96911662539
 23
846.2445217300176
 33
0.0
  0
SOLID
  5
5A4
330
1F
100
AcDbEntity
  8
LOGO
 62
     5
100
AcDbTrace
 10
1071.624479864121
 20
857.8215162843552
 30
0.0
 11
1070.673395325663
 21
854.3342063100078
 31
0.0
 12
1071.624479864121
 22
849.5241235867702
 32
0.0
 13
1070.673395325663
 23
849.5241235867702
 33
0.0
  0
SOLID
  5
5A5
330
1F
100
AcDbEntity
  8
LOGO
 62
     5
100
AcDbTrace
 10
1072.018032086932
 20
849.5241235867702
 30
0.0
 11
1072.96911662539
 21
849.5241235867702
 31
0.0
 12
1072.018032086932
 22
858.5430286928406
 32
0.0
 13
1072.96911662539
 23
858.5430286928412
 33
0.0
  0
SOLID
  5
5A6
330
1F
100
AcDbEntity
  8
LOGO
 62
     2
100
AcDbTrace
 10
1071.624479864121
 20
858.5430286928412
 30
0.0
 11
1072.018032086932
 21
858.5430286928406
 31
0.0
 12
1071.624479864121
 22
849.5241235867702
 32
0.0
 13
1072.018032086932
 23
849.5241235867702
 33
0.0
  0
POLYLINE
  5
5A7
330
1F
100
AcDbEntity
  8
LOGO
 62
     5
100
AcDb2dPolyline
 66
     1
 10
0.0
 20
0.0
 30
0.0
 40
0.3284857628959275
 41
0.3284857628959275
  0
VERTEX
  5
5A8
330
5A7
100
AcDbEntity
  8
LOGO
 62
     5
100
AcDbVertex
100
AcDb2dVertex
 10
1068.105140373026
 20
847.2284022870432
 30
0.0
 42
1.0
  0
VERTEX
  5
5A9
330
5A7
100
AcDbEntity
  8
LOGO
 62
     5
100
AcDbVertex
100
AcDb2dVertex
 10
1067.119683084338
 20
847.2284022870432
 30
0.0
 42
1.0
  0
SEQEND
  5
5AA
330
5A7
100
AcDbEntity
  8
LOGO
 62
     5
  0
POLYLINE
  5
5AB
330
1F
100
AcDbEntity
  8
LOGO
 62
     5
100
AcDb2dPolyline
 66
     1
 10
0.0
 20
0.0
 30
0.0
 40
0.3284857628959275
 41
0.3284857628959275
  0
VERTEX
  5
5AC
330
5AB
100
AcDbEntity
  8
LOGO
 62
     5
100
AcDbVertex
100
AcDb2dVertex
 10
1069.089020930051
 20
847.2284022870432
 30
0.0
 42
1.0
  0
VERTEX
  5
5AD
330
5AB
100
AcDbEntity
  8
LOGO
 62
     5
100
AcDbVertex
100
AcDb2dVertex
 10
1068.103563641363
 20
847.2284022870432
 30
0.0
 42
1.0
  0
SEQEND
  5
5AE
330
5AB
100
AcDbEntity
  8
LOGO
 62
     5
  0
POLYLINE
  5
5AF
330
1F
100
AcDbEntity
  8
LOGO
 62
     5
100
AcDb2dPolyline
 66
     1
 10
0.0
 20
0.0
 30
0.0
 40
0.3284857628959275
 41
0.3284857628959275
  0
VERTEX
  5
5B0
330
5AF
100
AcDbEntity
  8
LOGO
 62
     5
100
AcDbVertex
100
AcDb2dVertex
 10
1064.388236404693
 20
847.2284022870432
 30
0.0
 42
1.0
  0
VERTEX
  5
5B1
330
5AF
100
AcDbEntity
  8
LOGO
 62
     5
100
AcDbVertex
100
AcDb2dVertex
 10
1063.402779116005
 20
847.2284022870432
 30
0.0
 42
1.0
  0
SEQEND
  5
5B2
330
5AF
100
AcDbEntity
  8
LOGO
 62
     5
  0
SOLID
  5
5B3
330
1F
100
AcDbEntity
  8
LOGO
 62
     5
100
AcDbTrace
 10
1063.239587388999
 20
847.884322658394
 30
0.0
 11
1063.567547574673
 21
847.884322658394
 31
0.0
 12
1063.239587388999
 22
846.2445217300176
 32
0.0
 13
1063.567547574673
 23
846.2445217300176
 33
0.0
  0
SOLID
  5
5B4
330
1F
100
AcDbEntity
  8
LOGO
 62
     5
100
AcDbTrace
 10
1064.223467946024
 20
847.2284022870432
 30
0.0
 11
1064.5514281317
 21
847.2284022870432
 31
0.0
 12
1064.223467946024
 22
846.2445217300176
 32
0.0
 13
1064.5514281317
 23
846.2445217300176
 33
0.0
  0
POLYLINE
  5
5B5
330
1F
100
AcDbEntity
  8
LOGO
 62
     5
100
AcDb2dPolyline
 66
     1
 10
0.0
 20
0.0
 30
0.0
 70
     1
 40
0.3284857628959275
 41
0.3284857628959275
  0
VERTEX
  5
5B6
330
5B5
100
AcDbEntity
  8
LOGO
 62
     5
100
AcDbVertex
100
AcDb2dVertex
 10
1065.097021014741
 20
847.0644221942055
 30
0.0
 42
1.0
  0
VERTEX
  5
5B7
330
5B5
100
AcDbEntity
  8
LOGO
 62
     5
100
AcDbVertex
100
AcDb2dVertex
 10
1066.410964066325
 20
847.0644221942055
 30
0.0
 42
1.0
  0
SEQEND
  5
5B8
330
5B5
100
AcDbEntity
  8
LOGO
 62
     5
  0
SOLID
  5
5B9
330
1F
100
AcDbEntity
  8
LOGO
 62
     5
100
AcDbTrace
 10
1066.245900023028
 20
848.3762629369072
 30
0.0
 11
1066.573860208704
 21
848.3762629369072
 31
0.0
 12
1066.245900023028
 22
846.2445217300176
 32
0.0
 13
1066.573860208704
 23
846.2445217300176
 33
0.0
  0
SOLID
  5
5BA
330
1F
100
AcDbEntity
  8
LOGO
 62
     5
100
AcDbTrace
 10
1066.956491357332
 20
847.884322658394
 30
0.0
 11
1067.284451543006
 21
847.884322658394
 31
0.0
 12
1066.956491357332
 22
846.2445217300176
 32
0.0
 13
1067.284451543006
 23
846.2445217300176
 33
0.0
  0
SOLID
  5
5BB
330
1F
100
AcDbEntity
  8
LOGO
 62
     5
100
AcDbTrace
 10
1067.940371914357
 20
847.2284022870432
 30
0.0
 11
1068.268332100032
 21
847.2284022870432
 31
0.0
 12
1067.940371914357
 22
846.2445217300176
 32
0.0
 13
1068.268332100032
 23
846.2445217300176
 33
0.0
  0
SOLID
  5
5BC
330
1F
100
AcDbEntity
  8
LOGO
 62
     5
100
AcDbTrace
 10
1068.924252471383
 20
847.2284022870432
 30
0.0
 11
1069.252212657058
 21
847.2284022870432
 31
0.0
 12
1068.924252471383
 22
846.2445217300173
 32
0.0
 13
1069.252212657058
 23
846.2445217300173
 33
0.0
  0
SOLID
  5
5BD
330
1F
100
AcDbEntity
  8
LOGO
 62
     5
100
AcDbTrace
 10
1062.528996054696
 20
848.1138947883668
 30
0.0
 11
1062.856956240372
 21
848.1138947883668
 31
0.0
 12
1062.528996054696
 22
848.3762629369072
 32
0.0
 13
1062.856956240372
 23
848.3762629369072
 33
0.0
  0
SOLID
  5
5BE
330
1F
100
AcDbEntity
  8
LOGO
 62
     5
100
AcDbTrace
 10
1062.528996054696
 20
847.884322658394
 30
0.0
 11
1062.856956240372
 21
847.884322658394
 31
0.0
 12
1062.528996054696
 22
846.2445217300173
 32
0.0
 13
1062.856956240372
 23
846.2445217300176
 33
0.0
  0
SOLID
  5
5BF
330
1F
100
AcDbEntity
  8
LOGO
 62
     5
100
AcDbTrace
 10
1065.753992540533
 20
849.5241235867702
 30
0.0
 11
1066.705077078992
 21
849.5241235867702
 31
0.0
 12
1065.753992540533
 22
854.3342063100078
 32
0.0
 13
1066.705077078992
 23
857.8215162843552
 33
0.0
  0
SOLID
  5
5C0
330
1F
100
AcDbEntity
  8
LOGO
 62
     5
100
AcDbTrace
 10
1067.098629301803
 20
858.5430286928406
 30
0.0
 11
1068.049713840261
 21
858.5430286928412
 31
0.0
 12
1067.098629301803
 22
850.2456359952557
 32
0.0
 13
1068.049713840261
 23
853.732945969603
 33
0.0
  0
SOLID
  5
5C1
330
1F
100
AcDbEntity
  8
LOGO
 62
     2
100
AcDbTrace
 10
1066.705077078992
 20
858.5430286928406
 30
0.0
 11
1067.098629301803
 21
858.5430286928406
 31
0.0
 12
1066.705077078992
 22
849.5241235867702
 32
0.0
 13
1067.098629301803
 23
849.5241235867702
 33
0.0
  0
SOLID
  5
5C2
330
1F
100
AcDbEntity
  8
LOGO
 62
     5
100
AcDbTrace
 10
1067.098629301803
 20
850.2456359952557
 30
0.0
 11
1068.049713840261
 21
853.732945969603
 31
0.0
 12
1071.624479864121
 22
858.5430286928412
 32
0.0
 13
1070.673395325663
 23
858.5430286928412
 33
0.0
  0
SOLID
  5
5C3
330
1F
100
AcDbEntity
  8
LOGO
 62
     5
100
AcDbTrace
 10
1067.098629301803
 20
849.5241235867702
 30
0.0
 11
1068.049713840261
 21
849.5241235867702
 31
0.0
 12
1071.624479864121
 22
857.8215162843552
 32
0.0
 13
1070.673395325663
 23
854.3342063100078
 33
0.0
  0
SOLID
  5
5C4
330
1F
100
AcDbEntity
  8
LOGO
 62
     2
100
AcDbTrace
 10
1066.705077078992
 20
849.5241235867702
 30
0.0
 11
1067.098629301803
 21
849.5241235867702
 31
0.0
 12
1071.624479864121
 22
858.5430286928412
 32
0.0
 13
1072.018032086932
 23
858.5430286928406
 33
0.0
  0
LWPOLYLINE
  5
5C5
330
1F
100
AcDbEntity
  8
LOGO
 62
     4
100
AcDbPolyline
 90
        4
 70
     1
 43
0.0
 10
1058.55238495094
 20
859.0655549673122
 10
1279.697546381768
 20
859.0655549673122
 10
1279.697546381768
 20
837.068740487674
 10
1058.55238495094
 20
837.068740487674
1001
GENIUS_GENREC_14
1002
{
1000
PYDIR
1011
1058.55238495094
1021
837.068740487674
1031
0.0
1002
}
1002
{
1000
PXDIR
1011
1279.697546381768
1021
859.0655549673122
1031
0.0
1002
}
1002
{
1000
PORI
1011
1058.55238495094
1021
859.0655549673122
1031
0.0
1002
}
1002
{
1000
PINS
1011
1058.55238495094
1021
859.0655549673122
1031
0.0
1002
}
1002
{
1000
PINS2
1011
1279.697546381768
1021
837.068740487674
1031
0.0
1002
}
1002
{
1000
C
1070
     1
1002
}
1001
GENIUS_GENOBJ-N-REC_13
1002
{
1000
OWNER
1000
GEN
1002
}
1001
GENIUS_GENODEF_13
1002
{
1000
HIER
1070
     0
1002
}
1002
{
1000
MANEDIT
1070
     0
1002
}
1002
{
1000
NOSEL
1070
     0
1002
}
1002
{
1000
BEHIND
1070
     0
1002
}
1002
{
1000
OTHER
1070
     0
1002
}
1002
{
1000
REACTOR
1002
}
  0
TEXT
  5
5C6
330
1F
100
AcDbEntity
  8
LOGO
100
AcDbText
 10
1108.147899289838
 20
838.2389623359875
 30
0.0
 40
2.2
  1
10605241
 41
0.7
  7
CHINESET
 72
     1
 11
1113.317899289838
 21
838.2389623359875
 31
0.0
100
AcDbText
  0
LINE
  5
5C7
330
1F
100
AcDbEntity
  8
LOGO
 62
     4
100
AcDbLine
 10
1120.145376806142
 20
841.4681033836023
 30
0.0
 11
1120.145376806143
 21
837.0687404876743
 31
0.0
  0
LINE
  5
5C8
330
1F
100
AcDbEntity
  8
LOGO
 62
     4
100
AcDbLine
 10
1120.145376806142
 20
841.4681033836023
 30
0.0
 11
1106.945376806143
 21
841.4681033836023
 31
0.0
  0
CIRCLE
  5
5C9
330
1F
100
AcDbEntity
  8
LOGO
  6
Continuous
100
AcDbCircle
 10
1096.353819152429
 20
852.4712157581349
 30
0.0
 40
1.277186823352694
  0
CIRCLE
  5
5CA
330
1F
100
AcDbEntity
  8
LOGO
  6
Continuous
100
AcDbCircle
 10
1096.353819152429
 20
852.4712157581349
 30
0.0
 40
0.748318415532157
  0
LINE
  5
5CB
330
1F
100
AcDbEntity
  8
LOGO
100
AcDbLine
 10
1104.379809348869
 20
851.1940289347821
 30
0.0
 11
1104.379809348869
 21
853.748402581488
 31
0.0
  0
LINE
  5
5CC
330
1F
100
AcDbEntity
  8
LOGO
100
AcDbLine
 10
1100.375901971681
 20
851.7228973426027
 30
0.0
 11
1100.375901971681
 21
853.2195341736672
 31
0.0
  0
LINE
  5
5CD
330
1F
100
AcDbEntity
  8
LOGO
  6
Continuous
100
AcDbLine
 10
1100.375901971681
 20
853.2195341736672
 30
0.0
 11
1104.379809348869
 21
853.748402581488
 31
0.0
  0
LINE
  5
5CE
330
1F
100
AcDbEntity
  8
LOGO
  6
Continuous
100
AcDbLine
 10
1100.375901971681
 20
851.7228973426027
 30
0.0
 11
1104.379809348869
 21
851.1940289347821
 31
0.0
  0
LINE
  5
5CF
330
1F
100
AcDbEntity
  8
LOGO
  6
AM_ISO08W050x2
 48
0.3
100
AcDbLine
 10
1094.593197992071
 20
852.4712157581349
 30
0.0
 11
1098.114440312787
 21
852.4712157581349
 31
0.0
1001
GENIUS_GENOREF_13
1005
5F4
  0
LINE
  5
5D0
330
1F
100
AcDbEntity
  8
LOGO
  6
AM_ISO08W050x2
 48
0.3
100
AcDbLine
 10
1096.353819152429
 20
850.7105945977766
 30
0.0
 11
1096.353819152429
 21
854.2318369184934
 31
0.0
1001
GENIUS_GENOREF_13
1005
5F3
  0
LINE
  5
5D1
330
1F
100
AcDbEntity
  8
LOGO
  6
CENTER
 48
0.5
100
AcDbLine
 10
1100.05570066959
 20
852.4712157581349
 30
0.0
 11
1104.782989860436
 21
852.4712157581349
 31
0.0
1001
GENIUS_GENOREF_13
1005
5F2
  0
LINE
  5
5D2
330
1F
100
AcDbEntity
  8
LOGO
 62
     4
100
AcDbLine
 10
1151.865561841124
 20
846.9673070035119
 30
0.0
 11
1151.865561841124
 21
838.9018083609776
 31
0.0
  0
LINE
  5
5D3
330
1F
100
AcDbEntity
  8
LOGO
 62
     4
100
AcDbLine
 10
1137.201018854698
 20
846.9673070035119
 30
0.0
 11
1137.201018854698
 21
838.9018083609776
 31
0.0
  0
LINE
  5
5D4
330
1F
100
AcDbEntity
  8
LOGO
 62
     4
100
AcDbLine
 10
1151.865561841124
 20
838.9018083609776
 30
0.0
 11
1137.201018854698
 21
838.9018083609776
 31
0.0
  0
LINE
  5
5D5
330
1F
100
AcDbEntity
  8
LOGO
 62
     4
100
AcDbLine
 10
1154.675022831451
 20
856.8658735193483
 30
0.0
 11
1137.201018854698
 21
856.8658735193483
 31
0.0
  0
LINE
  5
5D6
330
1F
100
AcDbEntity
  8
LOGO
 62
     4
100
AcDbLine
 10
1154.675022831451
 20
850.2668291754574
 30
0.0
 11
1137.201018854698
 21
850.2668291754574
 31
0.0
  0
LINE
  5
5D7
330
1F
100
AcDbEntity
  8
LOGO
 62
     4
100
AcDbLine
 10
1137.201018854698
 20
856.8658735193483
 30
0.0
 11
1137.201018854698
 21
850.2668291754574
 31
0.0
  0
LINE
  5
5D8
330
1F
100
AcDbEntity
  8
LOGO
 62
     4
100
AcDbLine
 10
1154.675022831451
 20
856.8658735193483
 30
0.0
 11
1154.675022831451
 21
850.2668291754574
 31
0.0
  0
LINE
  5
5D9
330
1F
100
AcDbEntity
  8
LOGO
 62
     4
100
AcDbLine
 10
1145.298411163971
 20
850.2668291754574
 30
0.0
 11
1145.298411163971
 21
846.9673070035119
 31
0.0
  0
LINE
  5
5DA
330
1F
100
AcDbEntity
  8
LOGO
 62
     4
100
AcDbLine
 10
1151.865561841124
 20
846.9673070035119
 30
0.0
 11
1137.201018854698
 21
846.9673070035119
 31
0.0
  0
TEXT
  5
5DB
330
1F
100
AcDbEntity
  8
LOGO
  6
Continuous
100
AcDbText
 10
1141.906824271806
 20
840.040236391084
 30
144.1634983360548
 40
1.649999999999999
  1
Model
 41
0.8
  7
CHINESET
100
AcDbText
  0
TEXT
  5
5DC
330
1F
100
AcDbEntity
  8
LOGO
100
AcDbText
 10
1141.467647910007
 20
843.0989807907042
 30
144.1634983360548
 40
2.75
  1
型號
  7
CHINESET
100
AcDbText
  0
LINE
  5
5DD
330
1F
100
AcDbEntity
  8
LOGO
  6
Continuous
 62
     7
100
AcDbLine
 10
1155.376555785557
 20
853.5429764894415
 30
0.0
 11
1158.290452979391
 21
853.5429764894415
 31
0.0
  0
LINE
  5
5DE
330
1F
100
AcDbEntity
  8
LOGO
 62
     4
100
AcDbLine
 10
1155.080659313644
 20
846.9673070035119
 30
0.0
 11
1155.080659313644
 21
838.9018083609776
 31
0.0
  0
LINE
  5
5DF
330
1F
100
AcDbEntity
  8
LOGO
 62
     4
100
AcDbLine
 10
1167.535577740613
 20
838.9018083609776
 30
0.0
 11
1155.080659313644
 21
838.9018083609776
 31
0.0
  0
LINE
  5
5E0
330
1F
100
AcDbEntity
  8
LOGO
 62
     4
100
AcDbLine
 10
1167.707633214638
 20
856.8658735193483
 30
0.0
 11
1159.209633943358
 21
856.8658735193483
 31
0.0
  0
LINE
  5
5E1
330
1F
100
AcDbEntity
  8
LOGO
 62
     4
100
AcDbLine
 10
1167.707633214638
 20
850.2668291754574
 30
0.0
 11
1159.209633943358
 21
850.2668291754574
 31
0.0
  0
LINE
  5
5E2
330
1F
100
AcDbEntity
  8
LOGO
 62
     4
100
AcDbLine
 10
1159.209633943358
 20
856.8658735193483
 30
0.0
 11
1159.209633943358
 21
850.2668291754574
 31
0.0
  0
LINE
  5
5E3
330
1F
100
AcDbEntity
  8
LOGO
 62
     4
100
AcDbLine
 10
1167.707633214638
 20
856.8658735193483
 30
0.0
 11
1167.707633214638
 21
850.2668291754574
 31
0.0
  0
LINE
  5
5E4
330
1F
100
AcDbEntity
  8
LOGO
 62
     4
100
AcDbLine
 10
1163.458633578998
 20
850.2668291754574
 30
0.0
 11
1163.458633578998
 21
846.9673070035119
 31
0.0
  0
LINE
  5
5E5
330
1F
100
AcDbEntity
  8
LOGO
 62
     4
100
AcDbLine
 10
1167.535577740613
 20
846.9673070035119
 30
0.0
 11
1155.080659313644
 21
846.9673070035119
 31
0.0
  0
TEXT
  5
5E6
330
1F
100
AcDbEntity
  8
LOGO
  6
Continuous
100
AcDbText
 10
1158.446333316816
 20
840.040236391084
 30
144.1634983360548
 40
1.649999999999999
  1
CODE
 41
0.8
  7
CHINESET
100
AcDbText
  0
TEXT
  5
5E7
330
1F
100
AcDbEntity
  8
LOGO
100
AcDbText
 10
1158.430789745342
 20
843.0989807907042
 30
144.1634983360548
 40
2.75
  1
記號
  7
CHINESET
100
AcDbText
  0
TEXT
  5
5E8
330
1F
100
AcDbEntity
  8
LOGO
100
AcDbText
 10
1141.467647910007
 20
852.5290189548911
 30
144.1634983360548
 40
2.75
  1
MBS
  7
CHINESET
100
AcDbText
  0
TEXT
  5
5E9
330
1F
100
AcDbEntity
  8
LOGO
100
AcDbText
 10
1161.512598891743
 20
852.5290189548911
 30
144.1634983360548
 40
2.75
  1
03
  7
CHINESET
100
AcDbText
  0
LINE
  5
5EA
330
1F
100
AcDbEntity
  8
LOGO
 62
     4
100
AcDbLine
 10
1167.535577740613
 20
846.9673070035119
 30
0.0
 11
1167.535577740613
 21
838.9018083609776
 31
0.0
  0
CIRCLE
  5
5EB
330
1F
100
AcDbEntity
  8
0
100
AcDbCircle
 10
1237.232199485404
 20
970.0727764647847
 30
0.0
 40
3.5
  0
CIRCLE
  5
5EC
330
1F
100
AcDbEntity
  8
0
100
AcDbCircle
 10
1237.232199485404
 20
970.0727764647847
 30
0.0
 40
2.5
  0
CIRCLE
  5
5ED
330
1F
100
AcDbEntity
  8
0
100
AcDbCircle
 10
1153.910818850091
 20
1027.657667540732
 30
0.0
 40
4.25
  0
CIRCLE
  5
5EE
330
1F
100
AcDbEntity
  8
0
100
AcDbCircle
 10
1153.910818850091
 20
1027.657667540732
 30
0.0
 40
8.5
  0
DIMENSION
  5
5EF
330
1F
100
AcDbEntity
  8
0
100
AcDbDimension
  2
*D16
 10
1153.910818850091
 20
988.534990473067
 30
0.0
 11
1178.910818850091
 21
991.0349904730669
 31
0.0
 70
    32
 71
     5
 42
50.0
  3
STANDARD
100
AcDbAlignedDimension
 13
1203.910818850091
 23
952.0727764647848
 33
0.0
 14
1153.910818850091
 24
985.4516009425832
 34
0.0
100
AcDbRotatedDimension
1001
ACAD
1000
DSTYLE
1002
{
1070
   176
1070
     5
1070
   177
1070
     5
1070
   178
1070
     5
1070
   272
1070
     8
1002
}
  0
DIMENSION
  5
5F0
330
1F
100
AcDbEntity
  8
0
100
AcDbDimension
  2
*D17
 10
1142.910818850091
 20
996.2600000365045
 30
0.0
 11
1173.410818850091
 21
998.7600000365045
 31
0.0
 70
    32
 71
     5
 42
61.0
  3
STANDARD
100
AcDbAlignedDimension
 13
1203.910818850091
 23
952.0727764647848
 33
0.0
 14
1142.910818850091
 24
949.8227764647847
 34
0.0
100
AcDbRotatedDimension
1001
ACAD
1000
DSTYLE
1002
{
1070
   176
1070
     5
1070
   177
1070
     5
1070
   178
1070
     5
1070
   272
1070
     8
1002
}
  0
DIMENSION
  5
5F1
330
1F
100
AcDbEntity
  8
0
100
AcDbDimension
  2
*D18
 10
1085.956297813849
 20
927.8227764647848
 30
0.0
 11
1083.456297813849
 21
956.3227764647848
 31
0.0
 70
    32
 71
     5
 42
56.99999999999988
  3
STANDARD
100
AcDbAlignedDimension
 13
1104.653641501221
 23
984.8227764647846
 33
0.0
 14
1097.403641501221
 24
927.8227764647848
 34
0.0
 50
90.0
100
AcDbRotatedDimension
1001
ACAD
1000
DSTYLE
1002
{
1070
   176
1070
     5
1070
   177
1070
     5
1070
   178
1070
     5
1070
   272
1070
     8
1002
}
  0
POINT
  5
5F2
330
1F
100
AcDbEntity
  8
0
 60
     1
100
AcDbPoint
 10
-1111.746551042107
 20
-42.40784807610544
 30
0.0
1001
GENIUS_GENOBJ-N-CRS_13
1002
{
1000
OWNER
1000
GEN
1002
}
1001
GENIUS_GENOLIS_13
1002
{
1000
ENT
1005
0
1005
0
1005
0
1005
5D1
1002
}
1001
GENIUS_GENOENT_13
1002
{
1000
MYREF
1005
5F2
1002
}
1002
{
1000
GRP
1005
0
1002
}
1001
GENIUS_GENODEF_13
1002
{
1000
HIER
1070
    10
1002
}
1002
{
1000
MANEDIT
1070
     1
1002
}
1002
{
1000
NOSEL
1070
     0
1002
}
1002
{
1000
BEHIND
1070
     0
1002
}
1002
{
1000
OTHER
1070
     0
1002
}
1002
{
1000
REACTOR
1002
}
  0
POINT
  5
5F3
330
1F
100
AcDbEntity
  8
0
 60
     1
100
AcDbPoint
 10
-1123.071136264962
 20
-33.53226159746919
 30
0.0
1001
GENIUS_GENOBJ-N-CRS_13
1002
{
1000
OWNER
1000
GEN
1002
}
1001
GENIUS_GENOLIS_13
1002
{
1000
ENT
1005
0
1005
0
1005
0
1005
5D0
1002
}
1001
GENIUS_GENOENT_13
1002
{
1000
MYREF
1005
5F3
1002
}
1002
{
1000
GRP
1005
0
1002
}
1001
GENIUS_GENODEF_13
1002
{
1000
HIER
1070
    10
1002
}
1002
{
1000
MANEDIT
1070
     1
1002
}
1002
{
1000
NOSEL
1070
     0
1002
}
1002
{
1000
BEHIND
1070
     0
1002
}
1002
{
1000
OTHER
1070
     0
1002
}
1002
{
1000
REACTOR
1002
}
  0
POINT
  5
5F4
330
1F
100
AcDbEntity
  8
0
 60
     1
100
AcDbPoint
 10
-1116.712462567125
 20
-42.40784807610544
 30
0.0
1001
GENIUS_GENOBJ-N-CRS_13
1002
{
1000
OWNER
1000
GEN
1002
}
1001
GENIUS_GENOLIS_13
1002
{
1000
ENT
1005
0
1005
0
1005
0
1005
5CF
1002
}
1001
GENIUS_GENOENT_13
1002
{
1000
MYREF
1005
5F4
1002
}
1002
{
1000
GRP
1005
0
1002
}
1001
GENIUS_GENODEF_13
1002
{
1000
HIER
1070
    10
1002
}
1002
{
1000
MANEDIT
1070
     1
1002
}
1002
{
1000
NOSEL
1070
     0
1002
}
1002
{
1000
BEHIND
1070
     0
1002
}
1002
{
1000
OTHER
1070
     0
1002
}
1002
{
1000
REACTOR
1002
}
  0
ENDSEC
  0
SECTION
  2
OBJECTS
  0
DICTIONARY
  5
C
330
0
100
AcDbDictionary
281
     1
  3
ACAD_COLOR
350
BE
  3
ACAD_GROUP
350
D
  3
ACAD_LAYOUT
350
1A
  3
ACAD_MATERIAL
350
BD
  3
ACAD_MLINESTYLE
350
17
  3
ACAD_PLOTSETTINGS
350
19
  3
ACAD_PLOTSTYLENAME
350
E
  3
ACAD_TABLESTYLE
350
11A
  3
ACDBHEADERROUNDTRIPXREC
350
6EA
  3
AcDbVariableDictionary
350
94
  3
AcmDictionary
350
5B
  3
AMG
350
41
  3
AMGSNAPSETTINGS
350
1B8
  3
DWGPROPS
350
6E9
  0
DICTIONARY
  5
275
330
2
100
AcDbDictionary
280
     1
281
     1
  3
ACAD_LAYERSTATES
360
276
  0
DICTIONARY
  5
8F
330
1F
100
AcDbDictionary
280
     1
281
     1
  0
DICTIONARY
  5
BE
102
{ACAD_REACTORS
330
C
102
}
330
C
100
AcDbDictionary
281
     1
  0
DICTIONARY
  5
D
102
{ACAD_REACTORS
330
C
102
}
330
C
100
AcDbDictionary
281
     1
  0
DICTIONARY
  5
1A
102
{ACAD_REACTORS
330
C
102
}
330
C
100
AcDbDictionary
281
     1
  3
Model
350
22
  3
配置1
350
1E
  3
配置2
350
26
  0
DICTIONARY
  5
BD
102
{ACAD_REACTORS
330
C
102
}
330
C
100
AcDbDictionary
281
     1
  0
DICTIONARY
  5
17
102
{ACAD_REACTORS
330
C
102
}
330
C
100
AcDbDictionary
281
     1
  3
Standard
350
18
  0
DICTIONARY
  5
19
102
{ACAD_REACTORS
330
C
102
}
330
C
100
AcDbDictionary
281
     1
  0
ACDBDICTIONARYWDFLT
  5
E
102
{ACAD_REACTORS
330
C
102
}
330
C
100
AcDbDictionary
281
     1
  3
Normal
350
F
100
AcDbDictionaryWithDefault
340
F
  0
DICTIONARY
  5
11A
102
{ACAD_REACTORS
330
C
102
}
330
C
100
AcDbDictionary
281
     1
  3
Standard
350
11B
  0
DICTIONARY
  5
6EA
102
{ACAD_REACTORS
330
C
102
}
330
C
100
AcDbDictionary
281
     1
  0
DICTIONARY
  5
94
102
{ACAD_REACTORS
330
C
102
}
330
C
100
AcDbDictionary
281
     1
  3
CTABLESTYLE
350
138
  3
DIMASSOC
350
96
  3
INDEXCTL
350
95
  3
PROJECTNAME
350
6E7
  0
DICTIONARY
  5
5B
102
{ACAD_REACTORS
330
C
102
}
330
C
100
AcDbDictionary
281
     1
  3
AcmBOM
350
1B5
  3
AcmStdDictionary
350
61
  3
AMDTSECTSYM_ARROWCOLOR
350
123
  0
DICTIONARY
  5
41
102
{ACAD_REACTORS
330
C
102
}
330
C
100
AcDbDictionary
281
     1
  0
DICTIONARY
  5
1B8
102
{ACAD_REACTORS
330
C
102
}
330
C
100
AcDbDictionary
281
     1
  0
XRECORD
  5
6E9
102
{ACAD_REACTORS
330
C
102
}
330
C
100
AcDbXrecord
280
     1
  1
DWGPROPS COOKIE
  2

  3

  4

  6

  7

  8

  9

300
AmdtFileType=84
301
=
302
=
303
=
304
=
305
=
306
=
307
=
308
=
309
=
 40
0.0076576967592593
 41
2453880.605782153
 42
2453880.612800741
  1

 90
        1
  0
DICTIONARY
  5
276
102
{ACAD_REACTORS
330
275
102
}
330
275
100
AcDbDictionary
281
     1
  0
LAYOUT
  5
22
102
{ACAD_XDICTIONARY
360
6ED
102
}
102
{ACAD_REACTORS
330
1A
102
}
330
1A
100
AcDbPlotSettings
  1

  2
\\RDS1\iR3300影印機
  4
A4
  6

 40
6.805083274841308
 41
5.619736671447753
 42
6.974411010742187
 43
5.027069091796875
 44
209.9733276367187
 45
296.9259948730469
 46
0.0
 47
0.0
 48
0.0
 49
0.0
140
0.0
141
0.0
142
1.0
143
1.158008383179947
 70
 11952
 72
     1
 73
     1
 74
     0
  7
彩色出圖.ctb
 75
     0
147
0.8635516068147545
148
-1003.357953085747
149
-836.1780405567342
100
AcDbLayout
  1
Model
 70
     1
 71
     0
 10
0.0
 20
0.0
 11
12.0
 21
9.0
 12
0.0
 22
0.0
 32
0.0
 14
0.0
 24
0.0
 34
0.0
 15
0.0
 25
0.0
 35
0.0
146
0.0
 13
0.0
 23
0.0
 33
0.0
 16
1.0
 26
0.0
 36
0.0
 17
0.0
 27
1.0
 37
0.0
 76
     0
330
1F
1001
ACAD_PSEXT
1000
\\RDS1\iR3300影印機
1000
Canon iR2200-3300 PCL5e
1000
\\RDS1
1000

1070
     0
  0
LAYOUT
  5
1E
102
{ACAD_XDICTIONARY
360
6EB
102
}
102
{ACAD_REACTORS
330
1A
102
}
330
1A
100
AcDbPlotSettings
  1

  2

  4

  6

 40
0.0
 41
0.0
 42
0.0
 43
0.0
 44
0.0
 45
0.0
 46
0.0
 47
0.0
 48
0.0
 49
0.0
140
0.0
141
0.0
142
1.0
143
1.0
 70
   688
 72
     0
 73
     0
 74
     5
  7
彩色出圖.ctb
 75
    16
147
1.0
148
0.0
149
0.0
100
AcDbLayout
  1
配置1
 70
     1
 71
     1
 10
0.0
 20
0.0
 11
420.0
 21
297.0
 12
0.0
 22
0.0
 32
0.0
 14
1.000000000000000E+20
 24
1.000000000000000E+20
 34
1.000000000000000E+20
 15
-1.000000000000000E+20
 25
-1.000000000000000E+20
 35
-1.000000000000000E+20
146
0.0
 13
0.0
 23
0.0
 33
0.0
 16
1.0
 26
0.0
 36
0.0
 17
0.0
 27
1.0
 37
0.0
 76
     0
330
1B
  0
LAYOUT
  5
26
102
{ACAD_XDICTIONARY
360
6EF
102
}
102
{ACAD_REACTORS
330
1A
102
}
330
1A
100
AcDbPlotSettings
  1

  2

  4

  6

 40
0.0
 41
0.0
 42
0.0
 43
0.0
 44
0.0
 45
0.0
 46
0.0
 47
0.0
 48
0.0
 49
0.0
140
0.0
141
0.0
142
1.0
143
1.0
 70
   688
 72
     0
 73
     0
 74
     5
  7
彩色出圖.ctb
 75
    16
147
1.0
148
0.0
149
0.0
100
AcDbLayout
  1
配置2
 70
     1
 71
     2
 10
0.0
 20
0.0
 11
12.0
 21
9.0
 12
0.0
 22
0.0
 32
0.0
 14
0.0
 24
0.0
 34
0.0
 15
0.0
 25
0.0
 35
0.0
146
0.0
 13
0.0
 23
0.0
 33
0.0
 16
1.0
 26
0.0
 36
0.0
 17
0.0
 27
1.0
 37
0.0
 76
     0
330
23
  0
MLINESTYLE
  5
18
102
{ACAD_REACTORS
330
17
102
}
330
17
100
AcDbMlineStyle
  2
STANDARD
 70
     0
  3

 62
   256
 51
90.0
 52
90.0
 71
     2
 49
0.5
 62
   256
  6
BYLAYER
 49
-0.5
 62
   256
  6
BYLAYER
  0
ACDBPLACEHOLDER
  5
F
102
{ACAD_REACTORS
330
E
102
}
330
E
  0
TABLESTYLE
  5
11B
102
{ACAD_REACTORS
330
11A
102
}
330
11A
100
AcDbTableStyle
  3
Standard
 70
     0
 71
     0
 40
1.5
 41
1.5
280
     0
281
     0
  7
STANDARD
140
4.5
170
     2
 62
     0
 63
     7
283
     0
274
    -2
284
     1
 64
     0
275
    -2
285
     1
 65
     0
276
    -2
286
     1
 66
     0
277
    -2
287
     1
 67
     0
278
    -2
288
     1
 68
     0
279
    -2
289
     1
 69
     0
  7
STANDARD
140
6.0
170
     5
 62
     0
 63
     7
283
     0
274
    -2
284
     1
 64
     0
275
    -2
285
     1
 65
     0
276
    -2
286
     1
 66
     0
277
    -2
287
     1
 67
     0
278
    -2
288
     1
 68
     0
279
    -2
289
     1
 69
     0
  7
STANDARD
140
4.5
170
     5
 62
     0
 63
     7
283
     0
274
    -2
284
     1
 64
     0
275
    -2
285
     1
 65
     0
276
    -2
286
     1
 66
     0
277
    -2
287
     1
 67
     0
278
    -2
288
     1
 68
     0
279
    -2
289
     1
 69
     0
  0
DICTIONARYVAR
  5
138
102
{ACAD_REACTORS
330
94
102
}
330
94
100
DictionaryVariables
280
     0
  1
STANDARD
  0
DICTIONARYVAR
  5
96
102
{ACAD_REACTORS
330
94
102
}
330
94
100
DictionaryVariables
280
     0
  1
2
  0
DICTIONARYVAR
  5
95
102
{ACAD_REACTORS
330
94
102
}
330
94
100
DictionaryVariables
280
     0
  1
0
  0
DICTIONARYVAR
  5
6E7
102
{ACAD_REACTORS
330
94
102
}
330
94
100
DictionaryVariables
280
     0
  1

  0
DICTIONARY
  5
1B5
102
{ACAD_REACTORS
330
5B
102
}
330
5B
100
AcDbDictionary
281
     1
  0
DICTIONARY
  5
61
102
{ACAD_REACTORS
330
5B
102
}
330
5B
100
AcDbDictionary
281
     1
  0
XRECORD
  5
123
102
{ACAD_REACTORS
330
5B
102
}
330
5B
100
AcDbXrecord
280
     1
 90
-1023410169
  0
DICTIONARY
  5
6ED
330
22
100
AcDbDictionary
280
     1
281
     1
  3
ACAD_XREC_ROUNDTRIP
360
6EE
  0
DICTIONARY
  5
6EB
330
1E
100
AcDbDictionary
280
     1
281
     1
  3
ACAD_XREC_ROUNDTRIP
360
6EC
  0
DICTIONARY
  5
6EF
330
26
100
AcDbDictionary
280
     1
281
     1
  3
ACAD_XREC_ROUNDTRIP
360
6F0
  0
XRECORD
  5
6EE
102
{ACAD_REACTORS
330
6ED
102
}
330
6ED
100
AcDbXrecord
280
     1
102
SHADEPLOT
 70
     0
102
SHADEPLOTRESLEVEL
 70
     2
102
SHADEPLOTCUSTOMDPI
 70
   300
  0
XRECORD
  5
6EC
102
{ACAD_REACTORS
330
6EB
102
}
330
6EB
100
AcDbXrecord
280
     1
102
SHADEPLOT
 70
     0
102
SHADEPLOTRESLEVEL
 70
     2
102
SHADEPLOTCUSTOMDPI
 70
   300
  0
XRECORD
  5
6F0
102
{ACAD_REACTORS
330
6EF
102
}
330
6EF
100
AcDbXrecord
280
     1
102
SHADEPLOT
 70
     0
102
SHADEPLOTRESLEVEL
 70
     2
102
SHADEPLOTCUSTOMDPI
 70
   300
  0
ENDSEC
  0
EOF
