  0
SECTION
  2
HEADER
  9
$ACADVER
  1
AC1015
  9
$ACADMAINTVER
 70
    20
  9
$DWGCODEPAGE
  3
ANSI_950
  9
$INSBASE
 10
0.0
 20
0.0
 30
0.0
  9
$EXTMIN
 10
141.3629161815194
 20
161.771697087068
 30
-0.0087986388480772
  9
$EXTMAX
 10
381.3684091360406
 20
381.8133620633237
 30
144.1722983175711
  9
$LIMMIN
 10
0.0
 20
0.0
  9
$LIMMAX
 10
420.0
 20
297.0
  9
$ORTHOMODE
 70
     1
  9
$REGENMODE
 70
     1
  9
$FILLMODE
 70
     1
  9
$QTEXTMODE
 70
     0
  9
$MIRRTEXT
 70
     1
  9
$LTSCALE
 40
1.0
  9
$ATTMODE
 70
     1
  9
$TEXTSIZE
 40
3.0
  9
$TRACEWID
 40
1.0
  9
$TEXTSTYLE
  7
STANDARD
  9
$CLAYER
  8
0
  9
$CELTYPE
  6
ByLayer
  9
$CECOLOR
 62
   256
  9
$CELTSCALE
 40
1.0
  9
$DISPSILH
 70
     0
  9
$DIMSCALE
 40
1.0
  9
$DIMASZ
 40
3.0
  9
$DIMEXO
 40
1.5
  9
$DIMDLI
 40
8.0
  9
$DIMRND
 40
0.0
  9
$DIMDLE
 40
0.0
  9
$DIMEXE
 40
1.5
  9
$DIMTP
 40
0.1
  9
$DIMTM
 40
0.1
  9
$DIMTXT
 40
3.5
  9
$DIMCEN
 40
0.0
  9
$DIMTSZ
 40
0.0
  9
$DIMTOL
 70
     0
  9
$DIMLIM
 70
     0
  9
$DIMTIH
 70
     0
  9
$DIMTOH
 70
     0
  9
$DIMSE1
 70
     0
  9
$DIMSE2
 70
     0
  9
$DIMTAD
 70
     1
  9
$DIMZIN
 70
     8
  9
$DIMBLK
  1

  9
$DIMASO
 70
     1
  9
$DIMSHO
 70
     1
  9
$DIMPOST
  1

  9
$DIMAPOST
  1
"
  9
$DIMALT
 70
     0
  9
$DIMALTD
 70
     2
  9
$DIMALTF
 40
0.0393701
  9
$DIMLFAC
 40
1.0
  9
$DIMTOFL
 70
     1
  9
$DIMTVP
 40
0.0
  9
$DIMTIX
 70
     0
  9
$DIMSOXD
 70
     0
  9
$DIMSAH
 70
     0
  9
$DIMBLK1
  1

  9
$DIMBLK2
  1

  9
$DIMSTYLE
  2
AM_ISO
  9
$DIMCLRD
 70
   256
  9
$DIMCLRE
 70
   256
  9
$DIMCLRT
 70
   256
  9
$DIMTFAC
 40
0.71
  9
$DIMGAP
 40
1.5
  9
$DIMJUST
 70
     0
  9
$DIMSD1
 70
     0
  9
$DIMSD2
 70
     0
  9
$DIMTOLJ
 70
     0
  9
$DIMTZIN
 70
     8
  9
$DIMALTZ
 70
     0
  9
$DIMALTTZ
 70
     0
  9
$DIMUPT
 70
     0
  9
$DIMDEC
 70
     2
  9
$DIMTDEC
 70
     8
  9
$DIMALTU
 70
     2
  9
$DIMALTTD
 70
     2
  9
$DIMTXSTY
  7
STANDARD
  9
$DIMAUNIT
 70
     0
  9
$DIMADEC
 70
     0
  9
$DIMALTRND
 40
0.0
  9
$DIMAZIN
 70
     2
  9
$DIMDSEP
 70
    46
  9
$DIMATFIT
 70
     3
  9
$DIMFRAC
 70
     0
  9
$DIMLDRBLK
  1

  9
$DIMLUNIT
 70
     2
  9
$DIMLWD
 70
    -1
  9
$DIMLWE
 70
    -1
  9
$DIMTMOVE
 70
     0
  9
$LUNITS
 70
     2
  9
$LUPREC
 70
     2
  9
$SKETCHINC
 40
1.0
  9
$FILLETRAD
 40
2.5
  9
$AUNITS
 70
     0
  9
$AUPREC
 70
     0
  9
$MENU
  1
.
  9
$ELEVATION
 40
0.0
  9
$PELEVATION
 40
0.0
  9
$THICKNESS
 40
0.0
  9
$LIMCHECK
 70
     0
  9
$CHAMFERA
 40
2.5
  9
$CHAMFERB
 40
2.5
  9
$CHAMFERC
 40
20.0
  9
$CHAMFERD
 40
0.0
  9
$SKPOLY
 70
     0
  9
$TDCREATE
 40
2453880.618711111
  9
$TDUCREATE
 40
2453880.285377778
  9
$TDUPDATE
 40
2454539.414890579
  9
$TDUUPDATE
 40
2454539.081557245
  9
$TDINDWG
 40
0.0067952431
  9
$TDUSRTIMER
 40
0.0067952431
  9
$USRTIMER
 70
     1
  9
$ANGBASE
 50
0.0
  9
$ANGDIR
 70
     0
  9
$PDMODE
 70
     0
  9
$PDSIZE
 40
0.0
  9
$PLINEWID
 40
0.0
  9
$SPLFRAME
 70
     0
  9
$SPLINETYPE
 70
     6
  9
$SPLINESEGS
 70
     8
  9
$HANDSEED
  5
A27
  9
$SURFTAB1
 70
     6
  9
$SURFTAB2
 70
     6
  9
$SURFTYPE
 70
     6
  9
$SURFU
 70
     6
  9
$SURFV
 70
     6
  9
$UCSBASE
  2

  9
$UCSNAME
  2

  9
$UCSORG
 10
0.0
 20
0.0
 30
0.0
  9
$UCSXDIR
 10
1.0
 20
0.0
 30
0.0
  9
$UCSYDIR
 10
0.0
 20
1.0
 30
0.0
  9
$UCSORTHOREF
  2

  9
$UCSORTHOVIEW
 70
     0
  9
$UCSORGTOP
 10
0.0
 20
0.0
 30
0.0
  9
$UCSORGBOTTOM
 10
0.0
 20
0.0
 30
0.0
  9
$UCSORGLEFT
 10
0.0
 20
0.0
 30
0.0
  9
$UCSORGRIGHT
 10
0.0
 20
0.0
 30
0.0
  9
$UCSORGFRONT
 10
0.0
 20
0.0
 30
0.0
  9
$UCSORGBACK
 10
0.0
 20
0.0
 30
0.0
  9
$PUCSBASE
  2

  9
$PUCSNAME
  2

  9
$PUCSORG
 10
0.0
 20
0.0
 30
0.0
  9
$PUCSXDIR
 10
1.0
 20
0.0
 30
0.0
  9
$PUCSYDIR
 10
0.0
 20
1.0
 30
0.0
  9
$PUCSORTHOREF
  2

  9
$PUCSORTHOVIEW
 70
     0
  9
$PUCSORGTOP
 10
0.0
 20
0.0
 30
0.0
  9
$PUCSORGBOTTOM
 10
0.0
 20
0.0
 30
0.0
  9
$PUCSORGLEFT
 10
0.0
 20
0.0
 30
0.0
  9
$PUCSORGRIGHT
 10
0.0
 20
0.0
 30
0.0
  9
$PUCSORGFRONT
 10
0.0
 20
0.0
 30
0.0
  9
$PUCSORGBACK
 10
0.0
 20
0.0
 30
0.0
  9
$USERI1
 70
     0
  9
$USERI2
 70
     0
  9
$USERI3
 70
     0
  9
$USERI4
 70
     0
  9
$USERI5
 70
     0
  9
$USERR1
 40
0.0
  9
$USERR2
 40
0.0
  9
$USERR3
 40
0.0
  9
$USERR4
 40
0.0
  9
$USERR5
 40
0.0
  9
$WORLDVIEW
 70
     1
  9
$SHADEDGE
 70
     3
  9
$SHADEDIF
 70
    70
  9
$TILEMODE
 70
     1
  9
$MAXACTVP
 70
    64
  9
$PINSBASE
 10
0.0
 20
0.0
 30
0.0
  9
$PLIMCHECK
 70
     0
  9
$PEXTMIN
 10
1.000000000000000E+20
 20
1.000000000000000E+20
 30
1.000000000000000E+20
  9
$PEXTMAX
 10
-1.000000000000000E+20
 20
-1.000000000000000E+20
 30
-1.000000000000000E+20
  9
$PLIMMIN
 10
0.0
 20
0.0
  9
$PLIMMAX
 10
420.0
 20
297.0
  9
$UNITMODE
 70
     0
  9
$VISRETAIN
 70
     1
  9
$PLINEGEN
 70
     0
  9
$PSLTSCALE
 70
     1
  9
$TREEDEPTH
 70
  3020
  9
$CMLSTYLE
  2
Standard
  9
$CMLJUST
 70
     0
  9
$CMLSCALE
 40
20.0
  9
$PROXYGRAPHICS
 70
     1
  9
$MEASUREMENT
 70
     1
  9
$CELWEIGHT
370
    -1
  9
$ENDCAPS
280
     0
  9
$JOINSTYLE
280
     0
  9
$LWDISPLAY
290
     0
  9
$INSUNITS
 70
     4
  9
$HYPERLINKBASE
  1

  9
$STYLESHEET
  1
彩色出圖.ctb
  9
$XEDIT
290
     1
  9
$CEPSNTYPE
380
     0
  9
$PSTYLEMODE
290
     1
  9
$FINGERPRINTGUID
  2
{9E90D972-FF96-43B8-90EE-897D6B4E6CBE}
  9
$VERSIONGUID
  2
{5DE3594C-B273-4834-A949-070B66914AE1}
  9
$EXTNAMES
290
     1
  9
$PSVPSCALE
 40
0.0
  9
$OLESTARTUP
290
     0
  0
ENDSEC
  0
SECTION
  2
CLASSES
  0
CLASS
  1
ACDBDICTIONARYWDFLT
  2
AcDbDictionaryWithDefault
  3
ObjectDBX Classes
 90
        0
280
     0
281
     0
  0
CLASS
  1
ACDBPLACEHOLDER
  2
AcDbPlaceHolder
  3
ObjectDBX Classes
 90
        0
280
     0
281
     0
  0
CLASS
  1
LAYOUT
  2
AcDbLayout
  3
ObjectDBX Classes
 90
        0
280
     0
281
     0
  0
CLASS
  1
ACME_DOCUMENT
  2
AcMeDbDoc
  3
AcMeServices
 90
        0
280
     0
281
     0
  0
CLASS
  1
AMGSETTINGSOBJ
  2
AmgSettingsObj
  3
"AcadM|Product Description: AutoCAD Mechanical 2000|Company: Autodesk"
 90
        0
280
     0
281
     0
  0
CLASS
  1
ACMESCOPE
  2
AcMeScope
  3
AcMeServices
 90
        0
280
     0
281
     0
  0
CLASS
  1
ACMECOMMANDHISTORY
  2
AcMeCommandHistory
  3
AcMeServices
 90
        0
280
     0
281
     0
  0
CLASS
  1
ACIMSYSVARMAN
  2
AcImSysVarManager
  3
AcMeServices
 90
        0
280
     0
281
     0
  0
CLASS
  1
ACIMREALSYSVAR
  2
AcImRealSysVar
  3
AcMeServices
 90
        0
280
     0
281
     0
  0
CLASS
  1
ACIMINTSYSVAR
  2
AcImIntSysVar
  3
AcMeServices
 90
        0
280
     0
281
     0
  0
CLASS
  1
ACMEDRAWINGMAN
  2
AcMeDrawingMan
  3
AcMeServices
 90
        0
280
     0
281
     0
  0
CLASS
  1
ACMEVIEW
  2
AcMeView
  3
AcMeServices
 90
        0
280
     0
281
     0
  0
CLASS
  1
ACDBENTITYCACHE
  2
AcMeEntityCache
  3
AcMeServices
 90
        0
280
     0
281
     0
  0
CLASS
  1
GSMANAGER
  2
AcMeGSManager
  3
AcMeServices
 90
        0
280
     0
281
     0
  0
CLASS
  1
AMDTINTERNALREACTOR
  2
AmdtInternalReactor
  3
AcMeServices
 90
        0
280
     0
281
     0
  0
CLASS
  1
ACMESTATEMGR
  2
AcMeStateMgr
  3
AcMeServices
 90
        0
280
     0
281
     0
  0
CLASS
  1
ACGREFMASTER
  2
AcGrefMaster
  3
AcAttribServices
 90
        0
280
     0
281
     0
  0
CLASS
  1
ACME_DATABASE
  2
AcMeDbDatabase
  3
AcMeServices
 90
        0
280
     0
281
     0
  0
CLASS
  1
ACRFINSADJUSTERMGR
  2
AcRfInsAdjusterMgr
  3
AcMeServices
 90
        0
280
     0
281
     0
  0
CLASS
  1
ACGREFACADMASTER
  2
AcGrefacadMaster
  3
AcGrefServices
 90
        0
280
     0
281
     0
  0
CLASS
  1
AMIMASTER
  2
AmiMaster
  3
AmiServices
 90
        0
280
     0
281
     0
  0
CLASS
  1
ACMDATADICTIONARY
  2
AcmDataDictionary
  3
"AcmSymBB|Product Description: AutoCAD Mechanical 2004 DX|Company: Autodesk"
 90
        0
280
     0
281
     0
  0
CLASS
  1
ACMDATAENTRYBLOCK
  2
AcmDataEntryBlock
  3
"AcmSymBB|Product Description: AutoCAD Mechanical 2004 DX|Company: Autodesk"
 90
    32768
280
     0
281
     0
  0
CLASS
  1
ACIMSTRSYSVAR
  2
AcImStrSysVar
  3
AcMeServices
 90
        0
280
     0
281
     0
  0
CLASS
  1
ACMSTANDARDISO
  2
AcmStandardISO
  3
"Amdt_StdImp|Product Description: AutoCAD Mechanical 2004 DX|Company: Autodesk"
 90
        0
280
     0
281
     0
  0
CLASS
  1
AMGOBJPROPCFG
  2
AmgObjPropCfg
  3
"AmgLay|Product Description: AutoCAD Mechanical 2000|Company: Autodesk"
 90
        1
280
     0
281
     0
  0
CLASS
  1
AMDTEDGESTANDARDISO
  2
AmdtEdgeStdISO
  3
"Amdt_StdImp|Product Description: AutoCAD Mechanical 2004 DX|Company: Autodesk"
 90
    32768
280
     0
281
     0
  0
CLASS
  1
ACMSURFSTANDARDISO
  2
AcmSurfTextStdISO
  3
"Amdt_StdImp|Product Description: AutoCAD Mechanical 2004 DX|Company: Autodesk"
 90
        0
280
     0
281
     0
  0
CLASS
  1
ACMFCFSTANDARDISO
  2
AcmFCFStdISO
  3
"Amdt_StdImp|Product Description: AutoCAD Mechanical 2004 DX|Company: Autodesk"
 90
        0
280
     0
281
     0
  0
CLASS
  1
ACMWELDSTANDARDISO
  2
AcmWeldingStdISO
  3
"Amdt_StdImp|Product Description: AutoCAD Mechanical 2004 DX|Company: Autodesk"
 90
        0
280
     0
281
     0
  0
CLASS
  1
ACMIDSTANDARDISO
  2
AcmIdStdISO
  3
"Amdt_StdImp|Product Description: AutoCAD Mechanical 2004 DX|Company: Autodesk"
 90
        0
280
     0
281
     0
  0
CLASS
  1
ACMDATUMSTANDARDISO
  2
AcmDatumStdISO
  3
"Amdt_StdImp|Product Description: AutoCAD Mechanical 2004 DX|Company: Autodesk"
 90
        0
280
     0
281
     0
  0
CLASS
  1
ACMBOMSTANDARDISO
  2
AcmBOMStdISO
  3
"Amdt_StdImp|Product Description: AutoCAD Mechanical 2004 DX|Company: Autodesk"
 90
        0
280
     0
281
     0
  0
CLASS
  1
ACMDETAILSTANDARDISO
  2
AmdtDetailSymStdISO
  3
"Amdt_StdImp|Product Description: AutoCAD Mechanical 2004 DX|Company: Autodesk"
 90
        0
280
     0
281
     0
  0
CLASS
  1
ACMSECTIONSTANDARDISO
  2
AmdtSectionSymStdISO
  3
"Amdt_StdImp|Product Description: AutoCAD Mechanical 2004 DX|Company: Autodesk"
 90
        0
280
     0
281
     0
  0
CLASS
  1
ACMCENTERLINESTANDARDISO
  2
AmdtCenterLineStdISO
  3
"Amdt_StdImp|Product Description: AutoCAD Mechanical 2004 DX|Company: Autodesk"
 90
        0
280
     0
281
     0
  0
CLASS
  1
ACMNOTESTANDARDISO
  2
AmdtNoteStdISO
  3
"Amdt_StdImp|Product Description: AutoCAD Mechanical 2004 DX|Company: Autodesk"
 90
        0
280
     0
281
     0
  0
CLASS
  1
ACAMGLAYSTD
  2
AcAmgLayStd
  3
"AcAmgLayStd|Product Description: AutoCAD Mechanical 2000|Company: Autodesk"
 90
        0
280
     0
281
     0
  0
CLASS
  1
ACAMGDIMSTD
  2
AcAmgDimStd
  3
"AcAmgDimStd|Product Description: AutoCAD Mechanical 2000|Company: Autodesk"
 90
        0
280
     0
281
     0
  0
CLASS
  1
ACAMGHOLECHARTSTDISO
  2
AcAmgHoleChartStdISO
  3
ACMSYMBB_MODULE_NAME
 90
        0
280
     0
281
     0
  0
CLASS
  1
ACAMGTITLESTD
  2
AcAmgTitleStd
  3
"TITLEAPP"
 90
        0
280
     0
281
     0
  0
CLASS
  1
LAYER_INDEX
  2
AcDbLayerIndex
  3
ObjectDBX Classes
 90
    32768
280
     0
281
     0
  0
CLASS
  1
IDBUFFER
  2
AcDbIdBuffer
  3
ObjectDBX Classes
 90
    32768
280
     0
281
     0
  0
CLASS
  1
DICTIONARYVAR
  2
AcDbDictionaryVar
  3
ObjectDBX Classes
 90
        0
280
     0
281
     0
  0
CLASS
  1
AM_DRAWING_MGR
  2
AcDmDwgMgr
  3
AcMechDwgViewMgmt
 90
        0
280
     0
281
     0
  0
CLASS
  1
AM_DWG_DOCUMENT
  2
AcDmDwgDocument
  3
AcMechDwgViewMgmt
 90
        0
280
     0
281
     0
  0
CLASS
  1
AM_DWG_SHEET
  2
AcDmSheet
  3
AcMechDwgViewMgmt
 90
        0
280
     0
281
     0
  0
CLASS
  1
AM_VIEWDIMPARMAP
  2
AcDmViewDimParMap
  3
AcMechDwgViewMgmt
 90
        0
280
     0
281
     0
  0
CLASS
  1
AM_DWGMGR_NAME
  2
AcDmDwgMgrName
  3
AcMechDwgViewMgmt
 90
        0
280
     0
281
     0
  0
CLASS
  1
AMDTMENUSTATEMGR
  2
AmdtMenuStateMgr
  3
McadcomServices
 90
        0
280
     0
281
     0
  0
CLASS
  1
AMDTMCOMMENUSTATE
  2
AmdtMcomMenuState
  3
McadcomServices
 90
        0
280
     0
281
     0
  0
CLASS
  1
MAPIAMMOUDLE
  2
MApiAmModule
  3
MApiAmServices
 90
        0
280
     0
281
     0
  0
CLASS
  1
AMDTADMENUSTATE
  2
AmdtAdMenuState
  3
DesignerServices
 90
        0
280
     0
281
     0
  0
CLASS
  1
ADAPPL
  2
AcAdAppl
  3
DesignerServices
 90
        0
280
     0
281
     0
  0
CLASS
  1
DEPMGR
  2
AcAdDepMgr
  3
DesignerServices
 90
        0
280
     0
281
     0
  0
CLASS
  1
PARAMMGR
  2
AcAdParamMgr
  3
DesignerServices
 90
        0
280
     0
281
     0
  0
CLASS
  1
PARAMSCOPE
  2
AcAdParamScope
  3
DesignerServices
 90
        0
280
     0
281
     0
  0
CLASS
  1
NAMEDAPPL
  2
AcAdNamedAppl
  3
DesignerServices
 90
        0
280
     0
281
     0
  0
CLASS
  1
AMDTDMMENUSTATE
  2
AmdtDmMenuState
  3
AcMechDwgViewMgmt
 90
        0
280
     0
281
     0
  0
CLASS
  1
AMDTAMMENUSTATE
  2
AmdtAmMenuState
  3
DesignerAssemblies
 90
        0
280
     0
281
     0
  0
CLASS
  1
ACAMPROJECT
  2
AcAmProject
  3
DesignerAssemblies
 90
        0
280
     0
281
     0
  0
CLASS
  1
ACAMGRCOMPDEF
  2
AcAmGrCompDef
  3
DesignerAssemblies
 90
        0
280
     0
281
     0
  0
CLASS
  1
ACCMCONTEXT
  2
AcCmContext
  3
DesignerAssemblies
 90
        0
280
     0
281
     0
  0
CLASS
  1
ACAMCOMPDEF
  2
AcAmCompDef
  3
DesignerAssemblies
 90
        0
280
     0
281
     0
  0
CLASS
  1
ACAMCOMPDEFMGR
  2
AcAmCompDefMgr
  3
DesignerAssemblies
 90
        0
280
     0
281
     0
  0
CLASS
  1
AMCONTEXTMGR
  2
AcAmContextMgr
  3
DesignerAssemblies
 90
        0
280
     0
281
     0
  0
CLASS
  1
ACAMCONTEXTMODELER
  2
AcAmContextModeler
  3
DesignerAssemblies
 90
        0
280
     0
281
     0
  0
CLASS
  1
ACMTHREADLINESTANDARDISO
  2
AmdtThreadLineStdISO
  3
"Amdt_StdImp|Product Description: AutoCAD Mechanical 2004 DX|Company: Autodesk"
 90
        0
280
     0
281
     0
  0
CLASS
  1
CATALOGSTATE
  2
AcAmCatalogState
  3
DesignerAssemblies
 90
        0
280
     0
281
     0
  0
CLASS
  1
ACAMGRCOMPDEFSET
  2
AcAmGrCompDefSet
  3
DesignerAssemblies
 90
        0
280
     0
281
     0
  0
CLASS
  1
AMDTBROWSERDBTAB
  2
AmdtBrowserDbTab
  3
McadcomServices
 90
        0
280
     0
281
     0
  0
CLASS
  1
CBROWSERAPPOBJECT
  2
CBrowserAppObject
  3
McadcomServices
 90
        0
280
     0
281
     0
  0
CLASS
  1
DM_PLACEHOLDER
  2
AcDmSelsetPlaceholder
  3
AcMechDwgViewMgmt
 90
        0
280
     0
281
     0
  0
CLASS
  1
TABLESTYLE
  2
AcDbTableStyle
  3
ObjectDBX Classes
 90
     2047
280
     0
281
     0
  0
CLASS
  1
VAACXREFPANELOBJECT
  2
VaAcXREFPanelObject
  3
VAAC_ADDIN
 90
    32768
280
     0
281
     0
  0
CLASS
  1
VAACIMAGEINVENTORY
  2
VaAcImageInventory
  3
VAAC_ADDIN
 90
    32768
280
     0
281
     0
  0
CLASS
  1
AMDTNOTETEMPLATEDB
  2
AmdtNoteTemplateDB
  3
AMDT_STDIMP_MODULE_NAME
 90
        0
280
     0
281
     0
  0
CLASS
  1
ACMBOM
  2
AcmBom
  3
"AcmSymBB|Product Description: AutoCAD Mechanical 2004 DX|Company: Autodesk"
 90
    32768
280
     0
281
     0
  0
CLASS
  1
AMDTFORMULAUPDATEDISPATCHER
  2
AmdtFormulaUpdateDispatcher
  3
AcMeServices
 90
        0
280
     0
281
     0
  0
CLASS
  1
ACMPARTLIST
  2
AcmPartList
  3
"AcmSymBB|Product Description: AutoCAD Mechanical 2004 DX|Company: Autodesk"
 90
    33791
280
     0
281
     1
  0
CLASS
  1
ACAMGFILTERDAT
  2
AcAmgFilterDat
  3
"AcadM|Product Description: AutoCAD Mechanical 2000|Company: Autodesk"
 90
    32768
280
     0
281
     0
  0
CLASS
  1
DIMASSOC
  2
AcDbDimAssoc
  3
"AcDbDimAssoc|Product Desc:     AcDim ARX App For Dimension|Company:          Autodesk, Inc.|WEB Address:      www.autodesk.com"
 90
    32768
280
     0
281
     0
  0
CLASS
  1
SORTENTSTABLE
  2
AcDbSortentsTable
  3
ObjectDBX Classes
 90
        0
280
     0
281
     0
  0
CLASS
  1
ACMSTANDARDJIS
  2
AcmStandardJIS
  3
"Amdt_StdImp|Product Description: AutoCAD Mechanical 2004 DX|Company: Autodesk"
 90
    32768
280
     0
281
     0
  0
CLASS
  1
ACMSURFSTANDARDJIS
  2
AcmSurfTextStdJIS
  3
"Amdt_StdImp|Product Description: AutoCAD Mechanical 2004 DX|Company: Autodesk"
 90
    32768
280
     0
281
     0
  0
CLASS
  1
ACMFCFSTANDARDJIS
  2
AcmFCFStdJIS
  3
"Amdt_StdImp|Product Description: AutoCAD Mechanical 2004 DX|Company: Autodesk"
 90
    32768
280
     0
281
     0
  0
CLASS
  1
ACMWELDSTANDARDJIS
  2
AcmWeldingStdJIS
  3
"Amdt_StdImp|Product Description: AutoCAD Mechanical 2004 DX|Company: Autodesk"
 90
    32768
280
     0
281
     0
  0
CLASS
  1
ACMIDSTANDARDJIS
  2
AcmIdStdJIS
  3
"Amdt_StdImp|Product Description: AutoCAD Mechanical 2004 DX|Company: Autodesk"
 90
    32768
280
     0
281
     0
  0
CLASS
  1
ACMDATUMSTANDARDJIS
  2
AcmDatumStdJIS
  3
"Amdt_StdImp|Product Description: AutoCAD Mechanical 2004 DX|Company: Autodesk"
 90
    32768
280
     0
281
     0
  0
CLASS
  1
ACMBOMSTANDARDJIS
  2
AcmBOMStdJIS
  3
"Amdt_StdImp|Product Description: AutoCAD Mechanical 2004 DX|Company: Autodesk"
 90
    32768
280
     0
281
     0
  0
CLASS
  1
ACMDETAILSTANDARDJIS
  2
AmdtDetailSymStdJIS
  3
"Amdt_StdImp|Product Description: AutoCAD Mechanical 2004 DX|Company: Autodesk"
 90
    32768
280
     0
281
     0
  0
CLASS
  1
ACMSECTIONSTANDARDJIS
  2
AmdtSectionSymStdJIS
  3
"Amdt_StdImp|Product Description: AutoCAD Mechanical 2004 DX|Company: Autodesk"
 90
    32768
280
     0
281
     0
  0
CLASS
  1
ACMCENTERLINESTANDARDJIS
  2
AmdtCenterLineStdJIS
  3
"Amdt_StdImp|Product Description: AutoCAD Mechanical 2004 DX|Company: Autodesk"
 90
    32768
280
     0
281
     0
  0
CLASS
  1
ACMTHREADLINESTANDARDJIS
  2
AmdtThreadLineStdJIS
  3
"Amdt_StdImp|Product Description: AutoCAD Mechanical 2004 DX|Company: Autodesk"
 90
    32768
280
     0
281
     0
  0
CLASS
  1
ACMNOTESTANDARDJIS
  2
AmdtNoteStdJIS
  3
"Amdt_StdImp|Product Description: AutoCAD Mechanical 2004 DX|Company: Autodesk"
 90
    32768
280
     0
281
     0
  0
CLASS
  1
ACAMGHOLECHARTSTDJIS
  2
AcAmgHoleChartStdJIS
  3
ACMSYMBB_MODULE_NAME
 90
    32768
280
     0
281
     0
  0
CLASS
  1
ACRFATTGENMGR
  2
AcRfAttGeneralMgr
  3
AcAttribServices
 90
        0
280
     0
281
     0
  0
CLASS
  1
AMDTEDGESTANDARDISO13715
  2
AmdtEdgeStdISO13715
  3
"Amdt_StdImp|Product Description: AutoCAD Mechanical 2004 DX|Company: Autodesk"
 90
        0
280
     0
281
     0
  0
CLASS
  1
AMDTNOTE
  2
AmdtNote
  3
"AcmSymBB|Product Description: AutoCAD Mechanical 2004 DX|Company: Autodesk"
 90
     1023
280
     0
281
     1
  0
ENDSEC
  0
SECTION
  2
TABLES
  0
TABLE
  2
VPORT
  5
8
330
0
100
AcDbSymbolTable
 70
     9
  0
VPORT
  5
A1E
330
8
100
AcDbSymbolTableRecord
100
AcDbViewportTableRecord
  2
*Active
 70
     0
 10
0.0
 20
0.0
 11
1.0
 21
1.0
 12
261.36566265878
 22
271.7925295751958
 13
0.0
 23
0.0
 14
2.5
 24
2.5
 15
10.0
 25
10.0
 16
0.0
 26
0.0
 36
1.0
 17
0.0
 27
0.0
 37
0.0
 40
221.8527074863483
 41
1.679945054945054
 42
50.0
 43
0.0
 44
0.0
 50
0.0
 51
0.0
 71
     0
 72
   100
 73
     1
 74
     3
 75
     0
 76
     0
 77
     0
 78
     0
281
     0
 65
     1
110
0.0
120
0.0
130
0.0
111
1.0
121
0.0
131
0.0
112
0.0
122
1.0
132
0.0
 79
     0
146
0.0
  0
ENDTAB
  0
TABLE
  2
LTYPE
  5
5
330
0
100
AcDbSymbolTable
 70
    16
  0
LTYPE
  5
14
330
5
100
AcDbSymbolTableRecord
100
AcDbLinetypeTableRecord
  2
ByBlock
 70
     0
  3

 72
    65
 73
     0
 40
0.0
  0
LTYPE
  5
15
330
5
100
AcDbSymbolTableRecord
100
AcDbLinetypeTableRecord
  2
ByLayer
 70
     0
  3

 72
    65
 73
     0
 40
0.0
  0
LTYPE
  5
16
330
5
100
AcDbSymbolTableRecord
100
AcDbLinetypeTableRecord
  2
Continuous
 70
     0
  3
Solid line
 72
    65
 73
     0
 40
0.0
  0
LTYPE
  5
64
330
5
100
AcDbSymbolTableRecord
100
AcDbLinetypeTableRecord
  2
AM_ISO02W050
 70
     0
  3
__ __ __ __ __ __ __ __ __ __ __ __ __ __ __
 72
    65
 73
     2
 40
7.5
 49
6.0
 74
     0
 49
-1.5
 74
     0
  0
LTYPE
  5
65
330
5
100
AcDbSymbolTableRecord
100
AcDbLinetypeTableRecord
  2
AM_ISO08W050
 70
     0
  3
____ . ____ . ____ . ____ . ____ . ____ . ____
 72
    65
 73
     4
 40
18.0
 49
12.0
 74
     0
 49
-1.5
 74
     0
 49
3.0
 74
     0
 49
-1.5
 74
     0
  0
LTYPE
  5
66
330
5
100
AcDbSymbolTableRecord
100
AcDbLinetypeTableRecord
  2
AM_ISO09W050
 70
     0
  3
_____ . . _____ . . _____ . . ____ .. ____
 72
    65
 73
     6
 40
22.5
 49
12.0
 74
     0
 49
-1.5
 74
     0
 49
3.0
 74
     0
 49
-1.5
 74
     0
 49
3.0
 74
     0
 49
-1.5
 74
     0
  0
LTYPE
  5
67
330
5
100
AcDbSymbolTableRecord
100
AcDbLinetypeTableRecord
  2
Amconstr
 70
     0
  3
_______________________
 72
    65
 73
     2
 40
9999.0
 49
9999.0
 74
     0
 49
0.0
 74
     0
  0
LTYPE
  5
68
330
5
100
AcDbSymbolTableRecord
100
AcDbLinetypeTableRecord
  2
AM_ISO08W050x2
 70
     0
  3
__ . __ . __ . __ . __ . __
 72
    65
 73
     4
 40
9.0
 49
6.0
 74
     0
 49
-0.75
 74
     0
 49
1.5
 74
     0
 49
-0.75
 74
     0
  0
LTYPE
  5
69
330
5
100
AcDbSymbolTableRecord
100
AcDbLinetypeTableRecord
  2
AM_ISO02W050x2
 70
     0
  3
 _ _ _ _ _ _ _ _ _ _ _ _
 72
    65
 73
     2
 40
3.75
 49
3.0
 74
     0
 49
-0.75
 74
     0
  0
LTYPE
  5
6C
330
5
100
AcDbSymbolTableRecord
100
AcDbLinetypeTableRecord
  2
Amzigzag
 70
     0
  3
/\/-/\/-/\/-/\/-/\/-/\/
 72
    65
 73
     2
 40
11.0001
 49
0.0001
 74
     4
 75
   135
340
6B
 46
0.04
 50
0.0
 44
0.0
 45
0.0
 49
-11.0
 74
     0
  0
LTYPE
  5
7A
330
5
100
AcDbSymbolTableRecord
100
AcDbLinetypeTableRecord
  2
ACISOWELD
 70
     0
  3
_ _ _ _ _
 72
    65
 73
     2
 40
2.0
 49
2.0
 74
     0
 49
-1.0
 74
     0
  0
LTYPE
  5
7B
330
5
100
AcDbSymbolTableRecord
100
AcDbLinetypeTableRecord
  2
ACISOTGB
 70
     0
  3
__ . . __ . .
 72
    65
 73
     6
 40
9.0
 49
4.0
 74
     0
 49
-1.0
 74
     0
 49
1.0
 74
     0
 49
-1.0
 74
     0
 49
1.0
 74
     0
 49
-1.0
 74
     0
  0
LTYPE
  5
7C
330
5
100
AcDbSymbolTableRecord
100
AcDbLinetypeTableRecord
  2
ACISOTGL
 70
     0
  3
_ _ _ _ _
 72
    65
 73
     2
 40
3.0
 49
2.0
 74
     0
 49
-1.0
 74
     0
  0
LTYPE
  5
7E
330
5
100
AcDbSymbolTableRecord
100
AcDbLinetypeTableRecord
  2
CENTER
 70
     0
  3
__ . __
 72
    65
 73
     4
 40
7.0
 49
4.0
 74
     0
 49
-1.0
 74
     0
 49
1.0
 74
     0
 49
-1.0
 74
     0
  0
LTYPE
  5
D8
330
5
100
AcDbSymbolTableRecord
100
AcDbLinetypeTableRecord
  2
HIDDEN
 70
     0
  3
Hidden __ __ __ __ __ __ __ __ __ __ __ __ __ _
 72
    65
 73
     2
 40
9.524999999999998
 49
6.349999999999999
 74
     0
 49
-3.174999999999999
 74
     0
  0
LTYPE
  5
D9
330
5
100
AcDbSymbolTableRecord
100
AcDbLinetypeTableRecord
  2
PHANTOM2
 70
     0
  3
Phantom (.5x) ___ _ _ ___ _ _ ___ _ _ ___ _ _
 72
    65
 73
     6
 40
31.75
 49
15.875
 74
     0
 49
-3.174999999999999
 74
     0
 49
3.174999999999999
 74
     0
 49
-3.174999999999999
 74
     0
 49
3.174999999999999
 74
     0
 49
-3.174999999999999
 74
     0
  0
ENDTAB
  0
TABLE
  2
LAYER
  5
2
102
{ACAD_XDICTIONARY
360
3C6
102
}
330
0
100
AcDbSymbolTable
 70
     6
  0
LAYER
  5
10
330
2
100
AcDbSymbolTableRecord
100
AcDbLayerTableRecord
  2
0
 70
     0
 62
     7
  6
Continuous
370
    -3
390
F
  0
LAYER
  5
3B3
330
2
100
AcDbSymbolTableRecord
100
AcDbLayerTableRecord
  2
Defpoints
 70
     0
 62
     7
  6
Continuous
290
     0
370
    -3
390
F
  0
LAYER
  5
3B4
330
2
100
AcDbSymbolTableRecord
100
AcDbLayerTableRecord
  2
AM_VIS
 70
     2
 62
     7
  6
Continuous
370
    50
390
F
  0
LAYER
  5
3B5
330
2
100
AcDbSymbolTableRecord
100
AcDbLayerTableRecord
  2
AM_6
 70
     0
 62
     2
  6
Continuous
370
    35
390
F
  0
LAYER
  5
3B6
330
2
100
AcDbSymbolTableRecord
100
AcDbLayerTableRecord
  2
LOGO
 70
     0
 62
     7
  6
Continuous
370
    -3
390
F
  0
LAYER
  5
9FB
330
2
100
AcDbSymbolTableRecord
100
AcDbLayerTableRecord
  2
AM_5
 70
     0
 62
     3
  6
Continuous
370
    25
390
F
  0
ENDTAB
  0
TABLE
  2
STYLE
  5
3
330
0
100
AcDbSymbolTable
 70
     7
  0
STYLE
  5
11
330
3
100
AcDbSymbolTableRecord
100
AcDbTextStyleTableRecord
  2
STANDARD
 70
     0
 40
0.0
 41
1.0
 50
0.0
 71
     0
 42
3.0
  3
ISOCP.SHX
  4
CHINESET.SHX
  0
STYLE
  5
6B
330
3
100
AcDbSymbolTableRecord
100
AcDbTextStyleTableRecord
  2

 70
     1
 40
0.0
 41
1.0
 50
0.0
 71
     0
 42
2.5
  3
ltypeshp.shx
  4

  0
STYLE
  5
6D
330
3
100
AcDbSymbolTableRecord
100
AcDbTextStyleTableRecord
  2
ACISOTS
 70
     0
 40
1.0
 41
1.0
 50
0.0
 71
     0
 42
1.0
  3
isocp.shx
  4
chineset.shx
  0
STYLE
  5
79
330
3
100
AcDbSymbolTableRecord
100
AcDbTextStyleTableRecord
  2
ACISOGDT
 70
     0
 40
0.0
 41
1.0
 50
0.0
 71
     0
 42
2.5
  3
amgdt.shx
  4
chineset.shx
  0
STYLE
  5
3B7
330
3
100
AcDbSymbolTableRecord
100
AcDbTextStyleTableRecord
  2
CHINESET
 70
     0
 40
0.0
 41
1.0
 50
0.0
 71
     0
 42
2.5
  3
simplex.shx
  4
CHINESET.shx
  0
ENDTAB
  0
TABLE
  2
VIEW
  5
6
330
0
100
AcDbSymbolTable
 70
     0
  0
ENDTAB
  0
TABLE
  2
UCS
  5
7
330
0
100
AcDbSymbolTable
 70
     0
  0
ENDTAB
  0
TABLE
  2
APPID
  5
9
330
0
100
AcDbSymbolTable
 70
    18
  0
APPID
  5
12
330
9
100
AcDbSymbolTableRecord
100
AcDbRegAppTableRecord
  2
ACAD
 70
     0
  0
APPID
  5
46
330
9
100
AcDbSymbolTableRecord
100
AcDbRegAppTableRecord
  2
MCAD_NO_VIS
 70
     0
  0
APPID
  5
47
330
9
100
AcDbSymbolTableRecord
100
AcDbRegAppTableRecord
  2
ACAD_TEMP_GRAPHIC
 70
     0
  0
APPID
  5
58
330
9
100
AcDbSymbolTableRecord
100
AcDbRegAppTableRecord
  2
ACATTRIBSERVICES
 70
     0
  0
APPID
  5
EE
330
9
100
AcDbSymbolTableRecord
100
AcDbRegAppTableRecord
  2
AD_DRAW
 70
     0
  0
APPID
  5
10C
330
9
100
AcDbSymbolTableRecord
100
AcDbRegAppTableRecord
  2
DESIGNERASSEMBLIES
 70
     0
  0
APPID
  5
111
330
9
100
AcDbSymbolTableRecord
100
AcDbRegAppTableRecord
  2
ACADM_DIM_EDIT
 70
     0
  0
APPID
  5
112
330
9
100
AcDbSymbolTableRecord
100
AcDbRegAppTableRecord
  2
AMDT_DM_ADJ
 70
     0
  0
APPID
  5
1FE
330
9
100
AcDbSymbolTableRecord
100
AcDbRegAppTableRecord
  2
ACAD_DSTYLE_DIMTEXT_FILL
 70
     0
  0
APPID
  5
2B5
330
9
100
AcDbSymbolTableRecord
100
AcDbRegAppTableRecord
  2
GENIUS_GENOLIS_13
 70
     0
  0
APPID
  5
2B6
330
9
100
AcDbSymbolTableRecord
100
AcDbRegAppTableRecord
  2
GENIUS_GENOENT_13
 70
     0
  0
APPID
  5
2B7
330
9
100
AcDbSymbolTableRecord
100
AcDbRegAppTableRecord
  2
GENIUS_GENOBJ-N-CRS_13
 70
     0
  0
APPID
  5
2B8
330
9
100
AcDbSymbolTableRecord
100
AcDbRegAppTableRecord
  2
GENIUS_GENODEF_13
 70
     0
  0
APPID
  5
2B9
330
9
100
AcDbSymbolTableRecord
100
AcDbRegAppTableRecord
  2
GENIUS_GENOREF_13
 70
     0
  0
APPID
  5
3C2
330
9
100
AcDbSymbolTableRecord
100
AcDbRegAppTableRecord
  2
ACAD_PSEXT
 70
     0
  0
APPID
  5
3C3
330
9
100
AcDbSymbolTableRecord
100
AcDbRegAppTableRecord
  2
GENIUS_AMGTXT_16
 70
     0
  0
APPID
  5
3C4
330
9
100
AcDbSymbolTableRecord
100
AcDbRegAppTableRecord
  2
GENIUS_GENREC_14
 70
     0
  0
APPID
  5
3C5
330
9
100
AcDbSymbolTableRecord
100
AcDbRegAppTableRecord
  2
GENIUS_GENOBJ-N-REC_13
 70
     0
  0
ENDTAB
  0
TABLE
  2
DIMSTYLE
  5
A
330
0
100
AcDbSymbolTable
 70
    16
100
AcDbDimStyleTable
 71
     1
340
81
  0
DIMSTYLE
105
81
330
A
100
AcDbSymbolTableRecord
100
AcDbDimStyleTableRecord
  2
AM_ISO
 70
     0
  4
"
 41
3.0
 42
1.5
 43
8.0
 44
1.5
 47
0.1
 48
0.1
 73
     0
 74
     0
 77
     1
 78
     8
 79
     2
140
3.5
141
0.0
143
0.0393701
146
0.71
147
1.5
172
     1
176
   256
177
   256
178
   256
271
     2
272
     2
283
     0
284
     8
340
11
371
    -1
372
    -1
  0
DIMSTYLE
105
82
330
A
100
AcDbSymbolTableRecord
100
AcDbDimStyleTableRecord
  2
AM_ISO$3
 70
     0
  4
"
 41
3.0
 42
1.5
 43
8.0
 44
1.5
 47
0.1
 48
0.1
 73
     0
 77
     1
 78
     8
 79
     2
140
3.5
141
0.0
143
0.0393701
146
0.71
147
1.5
176
   256
177
   256
178
   256
271
     2
272
     2
283
     0
284
     8
288
     1
289
     0
340
11
371
    -1
372
    -1
  0
DIMSTYLE
105
83
330
A
100
AcDbSymbolTableRecord
100
AcDbDimStyleTableRecord
  2
AM_ISO$4
 70
     0
  4
"
 41
3.0
 42
1.5
 43
8.0
 44
1.5
 47
0.1
 48
0.1
 73
     0
 77
     1
 78
     8
 79
     2
140
3.5
141
0.0
143
0.0393701
146
0.71
147
1.5
176
   256
177
   256
178
   256
271
     2
272
     2
283
     0
284
     8
288
     1
289
     0
340
11
371
    -1
372
    -1
  0
DIMSTYLE
105
84
330
A
100
AcDbSymbolTableRecord
100
AcDbDimStyleTableRecord
  2
AM_ISO$6
 70
     0
  4
"
 41
3.0
 42
1.5
 43
8.0
 44
1.5
 47
0.1
 48
0.1
 73
     0
 74
     0
 78
     8
 79
     2
140
3.5
141
0.0
143
0.0393701
146
0.71
147
1.5
172
     1
176
   256
177
   256
178
   256
271
     2
272
     2
283
     0
284
     8
340
11
371
    -1
372
    -1
  0
DIMSTYLE
105
85
330
A
100
AcDbSymbolTableRecord
100
AcDbDimStyleTableRecord
  2
AM_ISO$7
 70
     0
  4
"
 41
3.0
 42
1.5
 43
8.0
 44
1.5
 47
0.1
 48
0.1
 73
     0
 74
     0
 77
     1
 78
     8
 79
     2
140
5.0
141
0.0
143
0.0393701
146
0.71
147
1.5
172
     1
176
   256
177
   256
178
   256
271
     2
272
     2
283
     0
284
     8
340
11
371
    -1
372
    -1
  0
DIMSTYLE
105
86
330
A
100
AcDbSymbolTableRecord
100
AcDbDimStyleTableRecord
  2
AM_ISO$SF
 70
     0
  4
"
 41
2.5
 42
1.0
 43
10.0
 44
1.0
 47
0.1
 48
0.1
 73
     0
 74
     0
 75
     1
 76
     1
 77
     1
 78
     8
 79
     2
140
3.5
141
0.0
143
0.0393701
146
0.71
147
1.5
172
     1
176
   256
177
   256
178
     2
271
     2
272
     3
274
     4
283
     0
284
     8
340
11
371
    -1
372
    -1
  0
DIMSTYLE
105
8B
330
A
100
AcDbSymbolTableRecord
100
AcDbDimStyleTableRecord
  2
AM_ISO$SH
 70
     0
  4
"
 41
2.5
 42
1.0
 43
10.0
 44
1.0
 47
0.1
 48
0.1
 73
     0
 74
     0
 75
     1
 76
     1
 77
     1
 78
     8
 79
     2
140
3.5
141
0.0
143
0.0393701
144
2.0
146
0.71
147
1.5
172
     1
173
     1
176
   256
177
   256
178
     2
271
     2
272
     3
274
     4
283
     0
284
     8
340
11
343
87
371
    -1
372
    -1
  0
DIMSTYLE
105
27B
330
A
100
AcDbSymbolTableRecord
100
AcDbDimStyleTableRecord
  2
AM_ISO$0
 70
     0
  4
"
 41
3.0
 42
1.5
 43
8.0
 44
1.5
 47
0.1
 48
0.1
 73
     0
 74
     0
 77
     1
 78
     8
 79
     2
140
3.5
141
0.0
143
0.0393701
146
0.71
147
1.5
172
     1
176
   256
177
   256
178
   256
271
     2
272
     2
283
     0
284
     8
340
11
371
    -1
372
    -1
  0
DIMSTYLE
105
3BA
102
{ACAD_REACTORS
330
77C
330
81B
330
81E
330
820
330
821
330
822
330
823
102
}
330
A
100
AcDbSymbolTableRecord
100
AcDbDimStyleTableRecord
  2
STANDARD
 70
     0
 41
3.0
 42
2.0
 43
8.0
 44
2.0
 48
0.000000001
 73
     0
 74
     0
 77
     1
 78
     8
 79
     2
140
3.0
141
1.0
146
0.6
147
1.0
176
   256
177
   256
178
   256
179
     2
271
     2
272
     2
279
     2
284
     8
340
3B7
371
    -1
  0
ENDTAB
  0
TABLE
  2
BLOCK_RECORD
  5
1
330
0
100
AcDbSymbolTable
 70
    19
  0
BLOCK_RECORD
  5
1F
102
{ACAD_XDICTIONARY
360
8F
102
}
330
1
100
AcDbSymbolTableRecord
100
AcDbBlockTableRecord
  2
*Model_Space
340
22
  0
BLOCK_RECORD
  5
1B
330
1
100
AcDbSymbolTableRecord
100
AcDbBlockTableRecord
  2
*Paper_Space
340
1E
  0
BLOCK_RECORD
  5
23
330
1
100
AcDbSymbolTableRecord
100
AcDbBlockTableRecord
  2
*Paper_Space0
340
26
  0
BLOCK_RECORD
  5
87
330
1
100
AcDbSymbolTableRecord
100
AcDbBlockTableRecord
  2
GENAXEH
340
0
  0
BLOCK_RECORD
  5
827
330
1
100
AcDbSymbolTableRecord
100
AcDbBlockTableRecord
  2
*D10
340
0
  0
BLOCK_RECORD
  5
833
330
1
100
AcDbSymbolTableRecord
100
AcDbBlockTableRecord
  2
*D11
340
0
  0
BLOCK_RECORD
  5
83F
330
1
100
AcDbSymbolTableRecord
100
AcDbBlockTableRecord
  2
*D12
340
0
  0
BLOCK_RECORD
  5
84B
330
1
100
AcDbSymbolTableRecord
100
AcDbBlockTableRecord
  2
*D13
340
0
  0
BLOCK_RECORD
  5
857
330
1
100
AcDbSymbolTableRecord
100
AcDbBlockTableRecord
  2
*D14
340
0
  0
BLOCK_RECORD
  5
863
330
1
100
AcDbSymbolTableRecord
100
AcDbBlockTableRecord
  2
*D15
340
0
  0
BLOCK_RECORD
  5
86F
330
1
100
AcDbSymbolTableRecord
100
AcDbBlockTableRecord
  2
*D16
340
0
  0
BLOCK_RECORD
  5
A15
330
1
100
AcDbSymbolTableRecord
100
AcDbBlockTableRecord
  2
*S18
340
0
  0
ENDTAB
  0
ENDSEC
  0
SECTION
  2
BLOCKS
  0
BLOCK
  5
20
330
1F
100
AcDbEntity
  8
0
100
AcDbBlockBegin
  2
*Model_Space
 70
     0
 10
0.0
 20
0.0
 30
0.0
  3
*Model_Space
  1

  0
ENDBLK
  5
21
330
1F
100
AcDbEntity
  8
0
100
AcDbBlockEnd
  0
BLOCK
  5
1C
330
1B
100
AcDbEntity
 67
     1
  8
0
100
AcDbBlockBegin
  2
*Paper_Space
 70
     0
 10
0.0
 20
0.0
 30
0.0
  3
*Paper_Space
  1

  0
ENDBLK
  5
1D
330
1B
100
AcDbEntity
 67
     1
  8
0
100
AcDbBlockEnd
  0
BLOCK
  5
24
330
23
100
AcDbEntity
  8
0
100
AcDbBlockBegin
  2
*Paper_Space0
 70
     0
 10
0.0
 20
0.0
 30
0.0
  3
*Paper_Space0
  1

  0
ENDBLK
  5
25
330
23
100
AcDbEntity
  8
0
100
AcDbBlockEnd
  0
BLOCK
  5
89
330
87
100
AcDbEntity
  8
0
100
AcDbBlockBegin
  2
GENAXEH
 70
     0
 10
0.0
 20
0.0
 30
0.0
  3
GENAXEH
  1

  0
LINE
  5
88
330
87
100
AcDbEntity
  8
0
100
AcDbLine
 10
-1.0
 20
0.0
 30
0.0
 11
1.0
 21
0.0
 31
0.0
  0
ENDBLK
  5
8A
330
87
100
AcDbEntity
  8
0
100
AcDbBlockEnd
  0
BLOCK
  5
831
330
827
100
AcDbEntity
  8
0
100
AcDbBlockBegin
  2
*D10
 70
     1
 10
0.0
 20
0.0
 30
0.0
  3
*D10
  1

  0
LINE
  5
909
330
827
100
AcDbEntity
  8
0
 62
     5
370
    -2
100
AcDbLine
 10
267.1813813667858
 20
227.8760060562237
 30
0.0
 11
220.5145859220345
 21
227.8760060562237
 31
0.0
  0
LINE
  5
90A
330
827
100
AcDbEntity
  8
0
 62
     5
370
    -2
100
AcDbLine
 10
267.1813813667858
 20
204.8760060562237
 30
0.0
 11
220.5145859220345
 21
204.8760060562237
 31
0.0
  0
LINE
  5
90B
330
827
100
AcDbEntity
  8
0
 62
     5
100
AcDbLine
 10
222.5145859220345
 20
224.8760060562237
 30
0.0
 11
222.5145859220345
 21
207.8760060562237
 31
0.0
  0
SOLID
  5
90C
330
827
100
AcDbEntity
  8
0
 62
     5
100
AcDbTrace
 10
222.0145859220345
 20
224.8760060562237
 30
0.0
 11
223.0145859220345
 21
224.8760060562237
 31
0.0
 12
222.5145859220345
 22
227.8760060562237
 32
0.0
 13
222.5145859220345
 23
227.8760060562237
 33
0.0
  0
SOLID
  5
90D
330
827
100
AcDbEntity
  8
0
 62
     5
100
AcDbTrace
 10
222.0145859220345
 20
207.8760060562237
 30
0.0
 11
223.0145859220345
 21
207.8760060562237
 31
0.0
 12
222.5145859220345
 22
204.8760060562237
 32
0.0
 13
222.5145859220345
 23
204.8760060562237
 33
0.0
  0
MTEXT
  5
90E
330
827
100
AcDbEntity
  8
0
 62
     5
100
AcDbMText
 10
220.0145859220344
 20
216.3760060562237
 30
0.0
 40
3.0
 41
0.0
 71
     5
 72
     1
  1
\A1;23
  7
CHINESET
 11
0.0000000000000001
 21
1.0
 31
0.0
 73
     1
 44
1.0
1001
ACAD
1000
MTEXTBEGIN
1070
    73
1070
     1
1070
    44
1040
1.0
1070
    74
1070
     0
1000
MTEXTEND
  0
POINT
  5
90F
330
827
100
AcDbEntity
  8
Defpoints
 62
     0
100
AcDbPoint
 10
269.1813813667858
 20
227.8760060562237
 30
0.0
  0
POINT
  5
910
330
827
100
AcDbEntity
  8
Defpoints
 62
     0
100
AcDbPoint
 10
269.1813813667858
 20
204.8760060562237
 30
0.0
  0
POINT
  5
911
330
827
100
AcDbEntity
  8
Defpoints
 62
     0
100
AcDbPoint
 10
222.5145859220345
 20
204.8760060562237
 30
0.0
  0
ENDBLK
  5
832
330
827
100
AcDbEntity
  8
0
100
AcDbBlockEnd
  0
BLOCK
  5
83D
330
833
100
AcDbEntity
  8
0
100
AcDbBlockBegin
  2
*D11
 70
     1
 10
0.0
 20
0.0
 30
0.0
  3
*D11
  1

  0
LINE
  5
9F2
330
833
100
AcDbEntity
  8
0
 62
     5
370
    -2
100
AcDbLine
 10
247.3676033941047
 20
210.7760060562237
 30
0.0
 11
229.2721550932329
 21
210.7760060562237
 31
0.0
  0
LINE
  5
9F3
330
833
100
AcDbEntity
  8
0
 62
     5
370
    -2
100
AcDbLine
 10
247.3676033941047
 20
221.9760060562236
 30
0.0
 11
229.2721550932329
 21
221.9760060562236
 31
0.0
  0
LINE
  5
9F4
330
833
100
AcDbEntity
  8
0
 62
     5
100
AcDbLine
 10
231.2721550932329
 20
213.7760060562237
 30
0.0
 11
231.2721550932329
 21
218.9760060562237
 31
0.0
  0
SOLID
  5
9F5
330
833
100
AcDbEntity
  8
0
 62
     5
100
AcDbTrace
 10
230.7721550932329
 20
213.7760060562237
 30
0.0
 11
231.7721550932329
 21
213.7760060562237
 31
0.0
 12
231.2721550932329
 22
210.7760060562237
 32
0.0
 13
231.2721550932329
 23
210.7760060562237
 33
0.0
  0
SOLID
  5
9F6
330
833
100
AcDbEntity
  8
0
 62
     5
100
AcDbTrace
 10
230.7721550932329
 20
218.9760060562237
 30
0.0
 11
231.7721550932329
 21
218.9760060562237
 31
0.0
 12
231.2721550932329
 22
221.9760060562236
 32
0.0
 13
231.2721550932329
 23
221.9760060562236
 33
0.0
  0
MTEXT
  5
9F7
330
833
100
AcDbEntity
  8
0
 62
     5
100
AcDbMText
 10
228.7721550932328
 20
216.3760060562237
 30
0.0
 40
3.0
 41
0.0
 71
     5
 72
     1
  1
\A1;11.2
  7
CHINESET
 11
0.0000000000000001
 21
1.0
 31
0.0
 73
     1
 44
1.0
1001
ACAD
1000
MTEXTBEGIN
1070
    73
1070
     1
1070
    44
1040
1.0
1070
    74
1070
     0
1000
MTEXTEND
  0
POINT
  5
9F8
330
833
100
AcDbEntity
  8
Defpoints
 62
     0
100
AcDbPoint
 10
249.3676033941047
 20
210.7760060562237
 30
0.0
  0
POINT
  5
9F9
330
833
100
AcDbEntity
  8
Defpoints
 62
     0
100
AcDbPoint
 10
249.3676033941047
 20
221.9760060562236
 30
0.0
  0
POINT
  5
9FA
330
833
100
AcDbEntity
  8
Defpoints
 62
     0
100
AcDbPoint
 10
231.2721550932329
 20
221.9760060562236
 30
0.0
  0
ENDBLK
  5
83E
330
833
100
AcDbEntity
  8
0
100
AcDbBlockEnd
  0
BLOCK
  5
849
330
83F
100
AcDbEntity
  8
0
100
AcDbBlockBegin
  2
*D12
 70
     1
 10
0.0
 20
0.0
 30
0.0
  3
*D12
  1

  0
LINE
  5
91B
330
83F
100
AcDbEntity
  8
0
 62
     5
370
    -2
100
AcDbLine
 10
251.4313813667858
 20
314.8885432570626
 30
0.0
 11
251.4313813667858
 21
319.2383485593295
 31
0.0
  0
LINE
  5
91C
330
83F
100
AcDbEntity
  8
0
 62
     5
370
    -2
100
AcDbLine
 10
301.4289856738198
 20
282.2351152191644
 30
0.0
 11
301.4289856738198
 21
319.2383485593295
 31
0.0
  0
LINE
  5
91D
330
83F
100
AcDbEntity
  8
0
 62
     5
100
AcDbLine
 10
254.4313813667858
 20
317.2383485593295
 30
0.0
 11
298.4289856738198
 21
317.2383485593295
 31
0.0
  0
SOLID
  5
91E
330
83F
100
AcDbEntity
  8
0
 62
     5
100
AcDbTrace
 10
254.4313813667858
 20
317.7383485593295
 30
0.0
 11
254.4313813667858
 21
316.7383485593295
 31
0.0
 12
251.4313813667858
 22
317.2383485593295
 32
0.0
 13
251.4313813667858
 23
317.2383485593295
 33
0.0
  0
SOLID
  5
91F
330
83F
100
AcDbEntity
  8
0
 62
     5
100
AcDbTrace
 10
298.4289856738198
 20
317.7383485593295
 30
0.0
 11
298.4289856738198
 21
316.7383485593295
 31
0.0
 12
301.4289856738198
 22
317.2383485593295
 32
0.0
 13
301.4289856738198
 23
317.2383485593295
 33
0.0
  0
MTEXT
  5
920
330
83F
100
AcDbEntity
  8
0
 62
     5
100
AcDbMText
 10
276.4301835203028
 20
319.7383485593295
 30
0.0
 40
3.0
 41
0.0
 71
     5
 72
     1
  1
\A1;50
  7
CHINESET
 73
     1
 44
1.0
1001
ACAD
1000
MTEXTBEGIN
1070
    73
1070
     1
1070
    44
1040
1.0
1070
    74
1070
     0
1000
MTEXTEND
  0
POINT
  5
921
330
83F
100
AcDbEntity
  8
Defpoints
 62
     0
100
AcDbPoint
 10
251.4313813667858
 20
312.8885432570626
 30
0.0
  0
POINT
  5
922
330
83F
100
AcDbEntity
  8
Defpoints
 62
     0
100
AcDbPoint
 10
301.4289856738198
 20
280.2351152191644
 30
0.0
  0
POINT
  5
923
330
83F
100
AcDbEntity
  8
Defpoints
 62
     0
100
AcDbPoint
 10
301.4289856738198
 20
317.2383485593295
 30
0.0
  0
ENDBLK
  5
84A
330
83F
100
AcDbEntity
  8
0
100
AcDbBlockEnd
  0
BLOCK
  5
855
330
84B
100
AcDbEntity
  8
0
100
AcDbBlockBegin
  2
*D13
 70
     1
 10
0.0
 20
0.0
 30
0.0
  3
*D13
  1

  0
LINE
  5
924
330
84B
100
AcDbEntity
  8
0
 62
     5
370
    -2
100
AcDbLine
 10
245.6813813667858
 20
312.0151152191644
 30
0.0
 11
226.1796661573622
 21
312.0151152191644
 31
0.0
  0
LINE
  5
925
330
84B
100
AcDbEntity
  8
0
 62
     5
370
    -2
100
AcDbLine
 10
231.4313813667858
 20
261.0151152191644
 30
0.0
 11
226.1796661573622
 21
261.0151152191644
 31
0.0
  0
LINE
  5
926
330
84B
100
AcDbEntity
  8
0
 62
     5
100
AcDbLine
 10
228.1796661573622
 20
309.0151152191645
 30
0.0
 11
228.1796661573622
 21
264.0151152191644
 31
0.0
  0
SOLID
  5
927
330
84B
100
AcDbEntity
  8
0
 62
     5
100
AcDbTrace
 10
227.6796661573623
 20
309.0151152191645
 30
0.0
 11
228.6796661573622
 21
309.0151152191645
 31
0.0
 12
228.1796661573622
 22
312.0151152191644
 32
0.0
 13
228.1796661573622
 23
312.0151152191644
 33
0.0
  0
SOLID
  5
928
330
84B
100
AcDbEntity
  8
0
 62
     5
100
AcDbTrace
 10
227.6796661573623
 20
264.0151152191644
 30
0.0
 11
228.6796661573622
 21
264.0151152191644
 31
0.0
 12
228.1796661573622
 22
261.0151152191644
 32
0.0
 13
228.1796661573622
 23
261.0151152191644
 33
0.0
  0
MTEXT
  5
929
330
84B
100
AcDbEntity
  8
0
 62
     5
100
AcDbMText
 10
225.6796661573622
 20
286.5151152191645
 30
0.0
 40
3.0
 41
0.0
 71
     5
 72
     1
  1
\A1;51
  7
CHINESET
 11
0.0000000000000001
 21
1.0
 31
0.0
 73
     1
 44
1.0
1001
ACAD
1000
MTEXTBEGIN
1070
    73
1070
     1
1070
    44
1040
1.0
1070
    74
1070
     0
1000
MTEXTEND
  0
POINT
  5
92A
330
84B
100
AcDbEntity
  8
Defpoints
 62
     0
100
AcDbPoint
 10
247.6813813667858
 20
312.0151152191644
 30
0.0
  0
POINT
  5
92B
330
84B
100
AcDbEntity
  8
Defpoints
 62
     0
100
AcDbPoint
 10
233.4313813667858
 20
261.0151152191644
 30
0.0
  0
POINT
  5
92C
330
84B
100
AcDbEntity
  8
Defpoints
 62
     0
100
AcDbPoint
 10
228.1796661573622
 20
261.0151152191644
 30
0.0
  0
ENDBLK
  5
856
330
84B
100
AcDbEntity
  8
0
100
AcDbBlockEnd
  0
BLOCK
  5
861
330
857
100
AcDbEntity
  8
0
100
AcDbBlockBegin
  2
*D14
 70
     1
 10
0.0
 20
0.0
 30
0.0
  3
*D14
  1

  0
LINE
  5
92D
330
857
100
AcDbEntity
  8
0
 62
     5
370
    -2
100
AcDbLine
 10
180.6609985138709
 20
312.0151152191644
 30
0.0
 11
164.6786163857152
 21
312.0151152191644
 31
0.0
  0
LINE
  5
92E
330
857
100
AcDbEntity
  8
0
 62
     5
370
    -2
100
AcDbLine
 10
184.9109985138709
 20
252.0151152191644
 30
0.0
 11
164.6786163857152
 21
252.0151152191644
 31
0.0
  0
LINE
  5
92F
330
857
100
AcDbEntity
  8
0
 62
     5
100
AcDbLine
 10
166.6786163857152
 20
309.0151152191645
 30
0.0
 11
166.6786163857152
 21
255.0151152191644
 31
0.0
  0
SOLID
  5
930
330
857
100
AcDbEntity
  8
0
 62
     5
100
AcDbTrace
 10
166.1786163857152
 20
309.0151152191645
 30
0.0
 11
167.1786163857152
 21
309.0151152191645
 31
0.0
 12
166.6786163857152
 22
312.0151152191644
 32
0.0
 13
166.6786163857152
 23
312.0151152191644
 33
0.0
  0
SOLID
  5
931
330
857
100
AcDbEntity
  8
0
 62
     5
100
AcDbTrace
 10
166.1786163857152
 20
255.0151152191644
 30
0.0
 11
167.1786163857152
 21
255.0151152191644
 31
0.0
 12
166.6786163857152
 22
252.0151152191644
 32
0.0
 13
166.6786163857152
 23
252.0151152191644
 33
0.0
  0
MTEXT
  5
932
330
857
100
AcDbEntity
  8
0
 62
     5
100
AcDbMText
 10
164.1786163857152
 20
282.0151152191645
 30
0.0
 40
3.0
 41
0.0
 71
     5
 72
     1
  1
\A1;60
  7
CHINESET
 11
0.0000000000000001
 21
1.0
 31
0.0
 73
     1
 44
1.0
1001
ACAD
1000
MTEXTBEGIN
1070
    73
1070
     1
1070
    44
1040
1.0
1070
    74
1070
     0
1000
MTEXTEND
  0
POINT
  5
933
330
857
100
AcDbEntity
  8
Defpoints
 62
     0
100
AcDbPoint
 10
182.6609985138709
 20
312.0151152191644
 30
0.0
  0
POINT
  5
934
330
857
100
AcDbEntity
  8
Defpoints
 62
     0
100
AcDbPoint
 10
186.9109985138709
 20
252.0151152191644
 30
0.0
  0
POINT
  5
935
330
857
100
AcDbEntity
  8
Defpoints
 62
     0
100
AcDbPoint
 10
166.6786163857152
 20
252.0151152191644
 30
0.0
  0
ENDBLK
  5
862
330
857
100
AcDbEntity
  8
0
100
AcDbBlockEnd
  0
BLOCK
  5
86D
330
863
100
AcDbEntity
  8
0
100
AcDbBlockBegin
  2
*D15
 70
     1
 10
0.0
 20
0.0
 30
0.0
  3
*D15
  1

  0
LINE
  5
936
330
863
100
AcDbEntity
  8
0
 62
     5
370
    -2
100
AcDbLine
 10
234.9313813667858
 20
363.1139237633893
 30
0.0
 11
234.9313813667858
 21
371.5883486339628
 31
0.0
  0
LINE
  5
937
330
863
100
AcDbEntity
  8
0
 62
     5
370
    -2
100
AcDbLine
 10
301.4289856738198
 20
354.0139237633894
 30
0.0
 11
301.4289856738198
 21
371.5883486339628
 31
0.0
  0
LINE
  5
938
330
863
100
AcDbEntity
  8
0
 62
     5
100
AcDbLine
 10
237.9313813667858
 20
369.5883486339628
 30
0.0
 11
298.4289856738198
 21
369.5883486339628
 31
0.0
  0
SOLID
  5
939
330
863
100
AcDbEntity
  8
0
 62
     5
100
AcDbTrace
 10
237.9313813667858
 20
370.0883486339628
 30
0.0
 11
237.9313813667858
 21
369.0883486339628
 31
0.0
 12
234.9313813667858
 22
369.5883486339628
 32
0.0
 13
234.9313813667858
 23
369.5883486339628
 33
0.0
  0
SOLID
  5
93A
330
863
100
AcDbEntity
  8
0
 62
     5
100
AcDbTrace
 10
298.4289856738198
 20
370.0883486339628
 30
0.0
 11
298.4289856738198
 21
369.0883486339628
 31
0.0
 12
301.4289856738198
 22
369.5883486339628
 32
0.0
 13
301.4289856738198
 23
369.5883486339628
 33
0.0
  0
MTEXT
  5
93B
330
863
100
AcDbEntity
  8
0
 62
     5
100
AcDbMText
 10
268.1801835203028
 20
372.0883486339628
 30
0.0
 40
3.0
 41
0.0
 71
     5
 72
     1
  1
\A1;66.5
  7
CHINESET
 73
     1
 44
1.0
1001
ACAD
1000
MTEXTBEGIN
1070
    73
1070
     1
1070
    44
1040
1.0
1070
    74
1070
     0
1000
MTEXTEND
  0
POINT
  5
93C
330
863
100
AcDbEntity
  8
Defpoints
 62
     0
100
AcDbPoint
 10
234.9313813667858
 20
361.1139237633893
 30
0.0
  0
POINT
  5
93D
330
863
100
AcDbEntity
  8
Defpoints
 62
     0
100
AcDbPoint
 10
301.4289856738198
 20
352.0139237633894
 30
0.0
  0
POINT
  5
93E
330
863
100
AcDbEntity
  8
Defpoints
 62
     0
100
AcDbPoint
 10
301.4289856738198
 20
369.5883486339628
 30
0.0
  0
ENDBLK
  5
86E
330
863
100
AcDbEntity
  8
0
100
AcDbBlockEnd
  0
BLOCK
  5
879
330
86F
100
AcDbEntity
  8
0
100
AcDbBlockBegin
  2
*D16
 70
     1
 10
0.0
 20
0.0
 30
0.0
  3
*D16
  1

  0
LINE
  5
93F
330
86F
100
AcDbEntity
  8
0
 62
     5
370
    -2
100
AcDbLine
 10
234.9313813667858
 20
250.0151152191644
 30
0.0
 11
234.9313813667858
 21
243.1137405995608
 31
0.0
  0
LINE
  5
940
330
86F
100
AcDbEntity
  8
0
 62
     5
370
    -2
100
AcDbLine
 10
267.9313813667858
 20
250.0151152191644
 30
0.0
 11
267.9313813667858
 21
243.1137405995608
 31
0.0
  0
LINE
  5
941
330
86F
100
AcDbEntity
  8
0
 62
     5
100
AcDbLine
 10
237.9313813667858
 20
245.1137405995608
 30
0.0
 11
264.9313813667858
 21
245.1137405995608
 31
0.0
  0
SOLID
  5
942
330
86F
100
AcDbEntity
  8
0
 62
     5
100
AcDbTrace
 10
237.9313813667858
 20
245.6137405995608
 30
0.0
 11
237.9313813667858
 21
244.6137405995608
 31
0.0
 12
234.9313813667858
 22
245.1137405995608
 32
0.0
 13
234.9313813667858
 23
245.1137405995608
 33
0.0
  0
SOLID
  5
943
330
86F
100
AcDbEntity
  8
0
 62
     5
100
AcDbTrace
 10
264.9313813667858
 20
245.6137405995608
 30
0.0
 11
264.9313813667858
 21
244.6137405995608
 31
0.0
 12
267.9313813667858
 22
245.1137405995608
 32
0.0
 13
267.9313813667858
 23
245.1137405995608
 33
0.0
  0
MTEXT
  5
944
330
86F
100
AcDbEntity
  8
0
 62
     5
100
AcDbMText
 10
251.4313813667858
 20
247.6137405995608
 30
0.0
 40
3.0
 41
0.0
 71
     5
 72
     1
  1
\A1;33
  7
CHINESET
 73
     1
 44
1.0
1001
ACAD
1000
MTEXTBEGIN
1070
    73
1070
     1
1070
    44
1040
1.0
1070
    74
1070
     0
1000
MTEXTEND
  0
POINT
  5
945
330
86F
100
AcDbEntity
  8
Defpoints
 62
     0
100
AcDbPoint
 10
234.9313813667858
 20
252.0151152191644
 30
0.0
  0
POINT
  5
946
330
86F
100
AcDbEntity
  8
Defpoints
 62
     0
100
AcDbPoint
 10
267.9313813667858
 20
252.0151152191644
 30
0.0
  0
POINT
  5
947
330
86F
100
AcDbEntity
  8
Defpoints
 62
     0
100
AcDbPoint
 10
267.9313813667858
 20
245.1137405995608
 30
0.0
  0
ENDBLK
  5
87A
330
86F
100
AcDbEntity
  8
0
100
AcDbBlockEnd
  0
BLOCK
  5
A1A
330
A15
100
AcDbEntity
  8
0
100
AcDbBlockBegin
  2
*S18
 70
     1
 10
0.0
 20
0.0
 30
0.0
  3
*S18
  1

  0
LINE
  5
A16
330
A15
100
AcDbEntity
  8
AM_5
 62
     5
100
AcDbLine
 10
227.7377014223969
 20
232.8227981827667
 30
0.0
 11
244.0196711400696
 21
232.8227981827667
 31
0.0
  0
LINE
  5
A17
330
A15
100
AcDbEntity
  8
AM_5
 62
     5
100
AcDbLine
 10
244.0196711400696
 20
232.8227981827667
 30
0.0
 11
248.447753254977
 21
225.9783448293537
 31
0.0
  0
TRACE
  5
A18
330
A15
100
AcDbEntity
  8
AM_5
 62
     5
370
    35
100
AcDbTrace
 10
248.0608754016327
 20
225.7280506400897
 30
0.0
 11
248.8346311083213
 21
226.2286390186177
 31
0.0
 12
250.3489263809525
 22
223.0397157705802
 32
0.0
 13
250.3489263809525
 23
223.0397157705802
 33
0.0
  0
MTEXT
  5
A19
330
A15
100
AcDbEntity
  8
AM_5
 62
     2
100
AcDbMText
 10
227.7377014223969
 20
239.5000237731987
 30
0.0
 40
3.5
 41
0.0
 71
     9
 72
     5
  1

  7
ACISOTS
 73
     1
 44
1.0
1001
ACAD
1000
MTEXTBEGIN
1070
    73
1070
     1
1070
    44
1040
1.0
1070
    74
1070
     0
1000
MTEXTEND
  0
ENDBLK
  5
A1B
330
A15
100
AcDbEntity
  8
0
100
AcDbBlockEnd
  0
ENDSEC
  0
SECTION
  2
ENTITIES
  0
LINE
  5
605
330
1F
100
AcDbEntity
  8
0
  6
CENTER
 62
     1
100
AcDbLine
 10
292.1813813667858
 20
282.2351152191644
 30
0.0
 11
292.1813813667858
 21
260.3958196266007
 31
0.0
  0
LINE
  5
606
330
1F
100
AcDbEntity
  8
0
  6
CENTER
 62
     1
100
AcDbLine
 10
252.9313813667858
 20
261.0151152191644
 30
0.0
 11
270.4313813667858
 21
261.0151152191644
 31
0.0
  0
LINE
  5
607
330
1F
100
AcDbEntity
  8
0
  6
CENTER
 62
     1
100
AcDbLine
 10
250.9313813667858
 20
261.0151152191644
 30
0.0
 11
233.4313813667858
 21
261.0151152191644
 31
0.0
  0
LINE
  5
608
330
1F
100
AcDbEntity
  8
AM_VIS
100
AcDbLine
 10
256.1813813667858
 20
312.0151152191644
 30
0.0
 11
247.6813813667858
 21
312.0151152191644
 31
0.0
  0
LINE
  5
609
330
1F
100
AcDbEntity
  8
0
  6
CENTER
 62
     1
100
AcDbLine
 10
338.0307474009371
 20
249.2366620774637
 30
0.0
 11
338.0307474009371
 21
313.4851152191644
 31
0.0
  0
LINE
  5
60A
330
1F
100
AcDbEntity
  8
0
  6
CENTER
 62
     1
100
AcDbLine
 10
337.0307474009371
 20
298.2351152191644
 30
0.0
 11
339.0307474009371
 21
298.2351152191644
 31
0.0
  0
LINE
  5
60B
330
1F
100
AcDbEntity
  8
0
  6
CENTER
 62
     1
100
AcDbLine
 10
332.5307474009371
 20
298.2351152191644
 30
0.0
 11
336.0307474009371
 21
298.2351152191644
 31
0.0
  0
LINE
  5
60C
330
1F
100
AcDbEntity
  8
0
  6
CENTER
 62
     1
100
AcDbLine
 10
340.0307474009371
 20
298.2351152191644
 30
0.0
 11
343.5307474009371
 21
298.2351152191644
 31
0.0
  0
LINE
  5
60D
330
1F
100
AcDbEntity
  8
0
  6
CENTER
 62
     1
100
AcDbLine
 10
337.0307474009371
 20
261.0151152191644
 30
0.0
 11
339.0307474009371
 21
261.0151152191644
 31
0.0
  0
LINE
  5
60E
330
1F
100
AcDbEntity
  8
0
  6
CENTER
 62
     1
100
AcDbLine
 10
327.0307474009371
 20
261.0151152191644
 30
0.0
 11
336.0307474009371
 21
261.0151152191644
 31
0.0
  0
LINE
  5
60F
330
1F
100
AcDbEntity
  8
0
  6
CENTER
 62
     1
100
AcDbLine
 10
340.0307474009371
 20
261.0151152191644
 30
0.0
 11
349.0307474009371
 21
261.0151152191644
 31
0.0
  0
LINE
  5
610
330
1F
100
AcDbEntity
  8
0
  6
CENTER
 62
     1
100
AcDbLine
 10
185.9109985138709
 20
261.0151152191644
 30
0.0
 11
187.9109985138709
 21
261.0151152191644
 31
0.0
  0
LINE
  5
611
330
1F
100
AcDbEntity
  8
0
  6
CENTER
 62
     1
100
AcDbLine
 10
186.9109985138709
 20
260.0151152191644
 30
0.0
 11
186.9109985138709
 21
262.0151152191644
 31
0.0
  0
LINE
  5
612
330
1F
100
AcDbEntity
  8
0
  6
CENTER
 62
     1
100
AcDbLine
 10
175.9109985138709
 20
261.0151152191644
 30
0.0
 11
184.9109985138709
 21
261.0151152191644
 31
0.0
  0
LINE
  5
613
330
1F
100
AcDbEntity
  8
0
  6
CENTER
 62
     1
100
AcDbLine
 10
188.9109985138709
 20
261.0151152191644
 30
0.0
 11
197.9109985138709
 21
261.0151152191644
 31
0.0
  0
LINE
  5
614
330
1F
100
AcDbEntity
  8
0
  6
CENTER
 62
     1
100
AcDbLine
 10
186.9109985138709
 20
250.0151152191644
 30
0.0
 11
186.9109985138709
 21
259.0151152191644
 31
0.0
  0
LINE
  5
615
330
1F
100
AcDbEntity
  8
0
  6
CENTER
 62
     1
100
AcDbLine
 10
186.9109985138709
 20
263.0151152191644
 30
0.0
 11
186.9109985138709
 21
312.9143441273801
 31
0.0
  0
LINE
  5
616
330
1F
100
AcDbEntity
  8
0
  6
CENTER
 62
     1
100
AcDbLine
 10
250.4313813667858
 20
352.1139237633893
 30
0.0
 11
252.4313813667858
 21
352.1139237633893
 31
0.0
  0
LINE
  5
617
330
1F
100
AcDbEntity
  8
0
  6
CENTER
 62
     1
100
AcDbLine
 10
251.4313813667858
 20
351.1139237633893
 30
0.0
 11
251.4313813667858
 21
353.1139237633893
 31
0.0
  0
LINE
  5
618
330
1F
100
AcDbEntity
  8
0
  6
CENTER
 62
     1
100
AcDbLine
 10
240.9313813667858
 20
352.1139237633893
 30
0.0
 11
249.4313813667858
 21
352.1139237633893
 31
0.0
  0
LINE
  5
619
330
1F
100
AcDbEntity
  8
0
  6
CENTER
 62
     1
100
AcDbLine
 10
253.4313813667858
 20
352.1139237633893
 30
0.0
 11
261.9313813667858
 21
352.1139237633893
 31
0.0
  0
LINE
  5
61A
330
1F
100
AcDbEntity
  8
0
  6
CENTER
 62
     1
100
AcDbLine
 10
251.4313813667858
 20
341.6139237633893
 30
0.0
 11
251.4313813667858
 21
350.1139237633893
 31
0.0
  0
LINE
  5
61B
330
1F
100
AcDbEntity
  8
0
  6
CENTER
 62
     1
100
AcDbLine
 10
251.4313813667858
 20
354.1139237633893
 30
0.0
 11
251.4313813667858
 21
362.6139237633893
 31
0.0
  0
LINE
  5
61C
330
1F
100
AcDbEntity
  8
0
  6
CENTER
 62
     1
100
AcDbLine
 10
253.6558190976493
 20
210.7760060562237
 30
0.0
 11
249.3676033941047
 21
210.7760060562237
 31
0.0
  0
LINE
  5
61D
330
1F
100
AcDbEntity
  8
0
  6
CENTER
 62
     1
100
AcDbLine
 10
253.6028782282256
 20
221.9760060562236
 30
0.0
 11
249.3676033941047
 21
221.9760060562236
 31
0.0
  0
LINE
  5
61E
330
1F
100
AcDbEntity
  8
0
  6
CENTER
 62
     1
100
AcDbLine
 10
291.1813813667858
 20
216.3760060562237
 30
0.0
 11
293.1813813667858
 21
216.3760060562237
 31
0.0
  0
LINE
  5
61F
330
1F
100
AcDbEntity
  8
0
  6
CENTER
 62
     1
100
AcDbLine
 10
292.1813813667858
 20
215.3760060562237
 30
0.0
 11
292.1813813667858
 21
217.3760060562237
 31
0.0
  0
LINE
  5
620
330
1F
100
AcDbEntity
  8
0
  6
CENTER
 62
     1
100
AcDbLine
 10
233.3517814281253
 20
216.3760060562237
 30
0.0
 11
290.1813813667858
 21
216.3760060562237
 31
0.0
  0
LINE
  5
621
330
1F
100
AcDbEntity
  8
0
  6
CENTER
 62
     1
100
AcDbLine
 10
294.1813813667858
 20
216.3760060562237
 30
0.0
 11
303.1813813667858
 21
216.3760060562237
 31
0.0
  0
LINE
  5
622
330
1F
100
AcDbEntity
  8
0
  6
CENTER
 62
     1
100
AcDbLine
 10
292.1813813667858
 20
205.3760060562237
 30
0.0
 11
292.1813813667858
 21
214.3760060562237
 31
0.0
  0
LINE
  5
623
330
1F
100
AcDbEntity
  8
0
  6
CENTER
 62
     1
100
AcDbLine
 10
292.1813813667858
 20
218.3760060562237
 30
0.0
 11
292.1813813667858
 21
227.3760060562237
 31
0.0
  0
LINE
  5
624
330
1F
100
AcDbEntity
  8
AM_VIS
100
AcDbLine
 10
240.6813813667858
 20
279.9851152191644
 30
0.0
 11
240.6813813667858
 21
308.9851152191644
 31
0.0
  0
LINE
  5
625
330
1F
100
AcDbEntity
  8
AM_VIS
100
AcDbLine
 10
269.1813813667858
 20
279.9851152191644
 30
0.0
 11
240.6813813667858
 21
279.9851152191644
 31
0.0
  0
LINE
  5
626
330
1F
100
AcDbEntity
  8
AM_VIS
100
AcDbLine
 10
240.6813813667858
 20
308.9851152191644
 30
0.0
 11
269.1813813667858
 21
308.9851152191644
 31
0.0
  0
LINE
  5
627
330
1F
100
AcDbEntity
  8
AM_VIS
100
AcDbLine
 10
269.1813813667858
 20
278.9851152191644
 30
0.0
 11
274.1813813667858
 21
278.9851152191644
 31
0.0
  0
LINE
  5
628
330
1F
100
AcDbEntity
  8
AM_VIS
100
AcDbLine
 10
269.1813813667858
 20
309.9851152191644
 30
0.0
 11
274.1813813667858
 21
309.9851152191644
 31
0.0
  0
LINE
  5
629
330
1F
100
AcDbEntity
  8
AM_VIS
100
AcDbLine
 10
274.1813813667858
 20
278.9851152191644
 30
0.0
 11
274.1813813667858
 21
309.9851152191644
 31
0.0
  0
LINE
  5
62A
330
1F
100
AcDbEntity
  8
AM_VIS
100
AcDbLine
 10
269.1813813667858
 20
309.9851152191644
 30
0.0
 11
269.1813813667858
 21
278.9851152191644
 31
0.0
  0
LINE
  5
62B
330
1F
100
AcDbEntity
  8
AM_VIS
100
AcDbLine
 10
274.1813813667858
 20
308.7351152191644
 30
0.0
 11
299.6813813667858
 21
308.7351152191644
 31
0.0
  0
LINE
  5
62C
330
1F
100
AcDbEntity
  8
AM_VIS
100
AcDbLine
 10
299.6813813667858
 20
280.2351152191644
 30
0.0
 11
299.6813813667858
 21
308.7351152191644
 31
0.0
  0
LINE
  5
62D
330
1F
100
AcDbEntity
  8
AM_VIS
100
AcDbLine
 10
274.1813813667858
 20
280.2351152191644
 30
0.0
 11
299.6813813667858
 21
280.2351152191644
 31
0.0
  0
LINE
  5
62E
330
1F
100
AcDbEntity
  8
AM_VIS
100
AcDbLine
 10
301.4289856738198
 20
266.2351152191644
 30
0.0
 11
301.4289856738198
 21
261.2351152191644
 31
0.0
  0
LINE
  5
62F
330
1F
100
AcDbEntity
  8
AM_VIS
100
AcDbLine
 10
296.8001835203028
 20
261.2351152191644
 30
0.0
 11
301.4289856738198
 21
261.2351152191644
 31
0.0
  0
LINE
  5
630
330
1F
100
AcDbEntity
  8
AM_VIS
100
AcDbLine
 10
296.8001835203028
 20
266.2351152191644
 30
0.0
 11
296.8001835203028
 21
261.2351152191644
 31
0.0
  0
LINE
  5
631
330
1F
100
AcDbEntity
  8
AM_VIS
100
AcDbLine
 10
287.5625792132687
 20
261.2351152191644
 30
0.0
 11
296.8001835203028
 21
261.2351152191644
 31
0.0
  0
LINE
  5
632
330
1F
100
AcDbEntity
  8
AM_VIS
100
AcDbLine
 10
287.5625792132687
 20
266.2351152191644
 30
0.0
 11
287.5625792132687
 21
261.2351152191644
 31
0.0
  0
LINE
  5
633
330
1F
100
AcDbEntity
  8
AM_VIS
100
AcDbLine
 10
282.9337770597517
 20
261.2351152191644
 30
0.0
 11
287.5625792132687
 21
261.2351152191644
 31
0.0
  0
LINE
  5
634
330
1F
100
AcDbEntity
  8
AM_VIS
100
AcDbLine
 10
282.9337770597517
 20
266.2351152191644
 30
0.0
 11
282.9337770597517
 21
261.2351152191644
 31
0.0
  0
LINE
  5
635
330
1F
100
AcDbEntity
  8
AM_VIS
100
AcDbLine
 10
296.8001835203028
 20
266.2351152191644
 30
0.0
 11
301.4289856738198
 21
266.2351152191644
 31
0.0
  0
LINE
  5
636
330
1F
100
AcDbEntity
  8
AM_VIS
100
AcDbLine
 10
287.5625792132687
 20
266.2351152191644
 30
0.0
 11
296.8001835203028
 21
266.2351152191644
 31
0.0
  0
LINE
  5
637
330
1F
100
AcDbEntity
  8
AM_VIS
100
AcDbLine
 10
282.9337770597517
 20
266.2351152191644
 30
0.0
 11
287.5625792132687
 21
266.2351152191644
 31
0.0
  0
LINE
  5
638
330
1F
100
AcDbEntity
  8
AM_VIS
100
AcDbLine
 10
262.3813813667858
 20
279.9851152191644
 30
0.0
 11
262.3813813667858
 21
277.9851152191644
 31
0.0
  0
LINE
  5
639
330
1F
100
AcDbEntity
  8
AM_VIS
100
AcDbLine
 10
248.3813813667858
 20
279.9851152191644
 30
0.0
 11
248.3813813667858
 21
277.9851152191644
 31
0.0
  0
LINE
  5
63A
330
1F
100
AcDbEntity
  8
AM_VIS
100
AcDbLine
 10
241.3813813667858
 20
279.9851152191644
 30
0.0
 11
241.3813813667858
 21
277.9851152191644
 31
0.0
  0
LINE
  5
63B
330
1F
100
AcDbEntity
  8
AM_VIS
100
AcDbLine
 10
241.1813813667858
 20
273.9851152191644
 30
0.0
 11
263.1813813667858
 21
273.9851152191644
 31
0.0
  0
LINE
  5
63C
330
1F
100
AcDbEntity
  8
AM_VIS
100
AcDbLine
 10
241.1813813667858
 20
277.9851152191644
 30
0.0
 11
241.1813813667858
 21
273.9851152191644
 31
0.0
  0
LINE
  5
63D
330
1F
100
AcDbEntity
  8
AM_VIS
100
AcDbLine
 10
263.1813813667858
 20
277.9851152191644
 30
0.0
 11
241.1813813667858
 21
277.9851152191644
 31
0.0
  0
LINE
  5
63E
330
1F
100
AcDbEntity
  8
AM_VIS
100
AcDbLine
 10
263.1813813667858
 20
277.9851152191644
 30
0.0
 11
263.1813813667858
 21
273.9851152191644
 31
0.0
  0
LINE
  5
63F
330
1F
100
AcDbEntity
  8
AM_VIS
100
AcDbLine
 10
263.1813813667858
 20
275.0163013923307
 30
0.0
 11
267.9313813667858
 21
275.0163013923307
 31
0.0
  0
LINE
  5
640
330
1F
100
AcDbEntity
  8
AM_VIS
100
AcDbLine
 10
241.1813813667858
 20
275.0163013923307
 30
0.0
 11
234.9313813667858
 21
275.0163013923307
 31
0.0
  0
LINE
  5
641
330
1F
100
AcDbEntity
  8
AM_VIS
100
AcDbLine
 10
285.4313813667858
 20
268.2351152191644
 30
0.0
 11
285.4313813667858
 21
266.2351152191644
 31
0.0
  0
LINE
  5
642
330
1F
100
AcDbEntity
  8
AM_VIS
100
AcDbLine
 10
298.9313813667858
 20
268.2351152191644
 30
0.0
 11
298.9313813667858
 21
266.2351152191644
 31
0.0
  0
LINE
  5
643
330
1F
100
AcDbEntity
  8
AM_VIS
100
AcDbLine
 10
256.1813813667858
 20
308.9851152191644
 30
0.0
 11
256.1813813667858
 21
312.0151152191644
 31
0.0
  0
LINE
  5
644
330
1F
100
AcDbEntity
  8
AM_VIS
100
AcDbLine
 10
247.6813813667858
 20
308.9851152191644
 30
0.0
 11
247.6813813667858
 21
312.0151152191644
 31
0.0
  0
LINE
  5
645
330
1F
100
AcDbEntity
  8
AM_VIS
100
AcDbLine
 10
299.6813813667858
 20
280.2351152191644
 30
0.0
 11
301.4289856738198
 21
280.2351152191644
 31
0.0
  0
LINE
  5
646
330
1F
100
AcDbEntity
  8
AM_VIS
100
AcDbLine
 10
301.4289856738198
 20
268.2351152191644
 30
0.0
 11
282.9337770597517
 21
268.2351152191644
 31
0.0
  0
LINE
  5
647
330
1F
100
AcDbEntity
  8
AM_VIS
100
AcDbLine
 10
349.4307474009371
 20
278.9851152191644
 30
0.0
 11
346.9307474009371
 21
278.9851152191644
 31
0.0
  0
LINE
  5
648
330
1F
100
AcDbEntity
  8
AM_VIS
100
AcDbLine
 10
328.9307474009371
 20
278.9851152191644
 30
0.0
 11
326.4307474009371
 21
278.9851152191644
 31
0.0
  0
LINE
  5
649
330
1F
100
AcDbEntity
  8
AM_VIS
100
AcDbLine
 10
349.4307474009371
 20
309.9851152191644
 30
0.0
 11
349.4307474009371
 21
278.9851152191644
 31
0.0
  0
LINE
  5
64A
330
1F
100
AcDbEntity
  8
AM_VIS
100
AcDbLine
 10
326.4307474009371
 20
309.9851152191644
 30
0.0
 11
349.4307474009371
 21
309.9851152191644
 31
0.0
  0
LINE
  5
64B
330
1F
100
AcDbEntity
  8
AM_VIS
100
AcDbLine
 10
326.4307474009371
 20
278.9851152191644
 30
0.0
 11
326.4307474009371
 21
309.9851152191644
 31
0.0
  0
LINE
  5
64C
330
1F
100
AcDbEntity
  8
AM_VIS
100
AcDbLine
 10
348.1807474009371
 20
308.7351152191644
 30
0.0
 11
348.1807474009371
 21
280.2351152191644
 31
0.0
  0
LINE
  5
64D
330
1F
100
AcDbEntity
  8
AM_VIS
100
AcDbLine
 10
327.6807474009371
 20
308.7351152191644
 30
0.0
 11
348.1807474009371
 21
308.7351152191644
 31
0.0
  0
LINE
  5
64E
330
1F
100
AcDbEntity
  8
AM_VIS
100
AcDbLine
 10
327.6807474009371
 20
280.2351152191644
 30
0.0
 11
327.6807474009371
 21
308.7351152191644
 31
0.0
  0
LINE
  5
64F
330
1F
100
AcDbEntity
  8
AM_VIS
100
AcDbLine
 10
348.1807474009371
 20
280.2351152191644
 30
0.0
 11
342.9056845864702
 21
280.2351152191644
 31
0.0
  0
LINE
  5
650
330
1F
100
AcDbEntity
  8
AM_VIS
100
AcDbLine
 10
332.955810215404
 20
280.2351152191644
 30
0.0
 11
327.6807474009371
 21
280.2351152191644
 31
0.0
  0
LINE
  5
651
330
1F
100
AcDbEntity
  8
AM_VIS
100
AcDbLine
 10
345.9307474009371
 20
266.2351152191644
 30
0.0
 11
345.9307474009371
 21
261.2351152191644
 31
0.0
  0
LINE
  5
652
330
1F
100
AcDbEntity
  8
AM_VIS
100
AcDbLine
 10
337.9307474009371
 20
261.2351152191644
 30
0.0
 11
345.9307474009371
 21
261.2351152191644
 31
0.0
  0
LINE
  5
653
330
1F
100
AcDbEntity
  8
AM_VIS
100
AcDbLine
 10
329.9307474009371
 20
261.2351152191644
 30
0.0
 11
337.9307474009371
 21
261.2351152191644
 31
0.0
  0
LINE
  5
654
330
1F
100
AcDbEntity
  8
AM_VIS
100
AcDbLine
 10
329.9307474009371
 20
266.2351152191644
 30
0.0
 11
329.9307474009371
 21
261.2351152191644
 31
0.0
  0
LINE
  5
655
330
1F
100
AcDbEntity
  8
AM_VIS
100
AcDbLine
 10
337.9307474009371
 20
266.2351152191644
 30
0.0
 11
345.9307474009371
 21
266.2351152191644
 31
0.0
  0
LINE
  5
656
330
1F
100
AcDbEntity
  8
AM_VIS
100
AcDbLine
 10
329.9307474009371
 20
266.2351152191644
 30
0.0
 11
337.9307474009371
 21
266.2351152191644
 31
0.0
  0
LINE
  5
657
330
1F
100
AcDbEntity
  8
AM_VIS
100
AcDbLine
 10
327.1307474009371
 20
278.9851152191644
 30
0.0
 11
327.1307474009371
 21
277.9851152191644
 31
0.0
  0
LINE
  5
658
330
1F
100
AcDbEntity
  8
AM_VIS
100
AcDbLine
 10
348.7307474009371
 20
278.9851152191644
 30
0.0
 11
348.7307474009371
 21
277.9851152191644
 31
0.0
  0
LINE
  5
659
330
1F
100
AcDbEntity
  8
AM_VIS
100
AcDbLine
 10
326.9307474009371
 20
273.9851152191644
 30
0.0
 11
328.9307474009371
 21
273.9851152191644
 31
0.0
  0
LINE
  5
65A
330
1F
100
AcDbEntity
  8
AM_VIS
100
AcDbLine
 10
326.9307474009371
 20
277.9851152191644
 30
0.0
 11
326.9307474009371
 21
273.9851152191644
 31
0.0
  0
LINE
  5
65B
330
1F
100
AcDbEntity
  8
AM_VIS
100
AcDbLine
 10
348.9307474009371
 20
277.9851152191644
 30
0.0
 11
346.9307474009371
 21
277.9851152191644
 31
0.0
  0
LINE
  5
65C
330
1F
100
AcDbEntity
  8
AM_VIS
100
AcDbLine
 10
328.9307474009371
 20
277.9851152191644
 30
0.0
 11
326.9307474009371
 21
277.9851152191644
 31
0.0
  0
LINE
  5
65D
330
1F
100
AcDbEntity
  8
AM_VIS
100
AcDbLine
 10
348.9307474009371
 20
277.9851152191644
 30
0.0
 11
348.9307474009371
 21
273.9851152191644
 31
0.0
  0
LINE
  5
65E
330
1F
100
AcDbEntity
  8
AM_VIS
100
AcDbLine
 10
347.0307474009371
 20
275.0163013923307
 30
0.0
 11
347.0307474009371
 21
261.0151152191644
 31
0.0
  0
LINE
  5
65F
330
1F
100
AcDbEntity
  8
AM_VIS
100
AcDbLine
 10
346.9307474009371
 20
275.0163013923307
 30
0.0
 11
347.0307474009371
 21
275.0163013923307
 31
0.0
  0
LINE
  5
660
330
1F
100
AcDbEntity
  8
AM_VIS
100
AcDbLine
 10
329.0307474009371
 20
261.0151152191644
 30
0.0
 11
329.0307474009371
 21
268.2351152191644
 31
0.0
  0
LINE
  5
661
330
1F
100
AcDbEntity
  8
AM_VIS
100
AcDbLine
 10
347.0307474009371
 20
273.9851152191644
 30
0.0
 11
348.9307474009371
 21
273.9851152191644
 31
0.0
  0
LINE
  5
662
330
1F
100
AcDbEntity
  8
AM_VIS
100
AcDbLine
 10
328.9307474009371
 20
280.2351152191644
 30
0.0
 11
328.9307474009371
 21
268.2351152191644
 31
0.0
  0
LINE
  5
663
330
1F
100
AcDbEntity
  8
AM_VIS
100
AcDbLine
 10
346.9307474009371
 20
280.2351152191644
 30
0.0
 11
346.9307474009371
 21
268.2351152191644
 31
0.0
  0
LINE
  5
664
330
1F
100
AcDbEntity
  8
AM_VIS
100
AcDbLine
 10
331.1807474009371
 20
268.2351152191644
 30
0.0
 11
331.1807474009371
 21
266.2351152191644
 31
0.0
  0
LINE
  5
665
330
1F
100
AcDbEntity
  8
AM_VIS
100
AcDbLine
 10
344.6807474009371
 20
268.2351152191644
 30
0.0
 11
344.6807474009371
 21
266.2351152191644
 31
0.0
  0
LINE
  5
666
330
1F
100
AcDbEntity
  8
AM_VIS
100
AcDbLine
 10
342.2807474009371
 20
309.9851152191644
 30
0.0
 11
342.2807474009371
 21
312.0151152191644
 31
0.0
  0
LINE
  5
667
330
1F
100
AcDbEntity
  8
AM_VIS
100
AcDbLine
 10
333.7807474009371
 20
309.9851152191644
 30
0.0
 11
333.7807474009371
 21
312.0151152191644
 31
0.0
  0
LINE
  5
668
330
1F
100
AcDbEntity
  8
AM_VIS
100
AcDbLine
 10
332.955810215404
 20
280.2351152191644
 30
0.0
 11
342.9056845864702
 21
280.2351152191644
 31
0.0
  0
LINE
  5
669
330
1F
100
AcDbEntity
  8
AM_VIS
100
AcDbLine
 10
346.9307474009371
 20
268.2351152191644
 30
0.0
 11
328.9307474009371
 21
268.2351152191644
 31
0.0
  0
CIRCLE
  5
66A
330
1F
100
AcDbEntity
  8
AM_VIS
100
AcDbCircle
 10
338.0307474009371
 20
298.2351152191644
 30
0.0
 40
3.5
  0
CIRCLE
  5
66B
330
1F
100
AcDbEntity
  8
AM_VIS
100
AcDbCircle
 10
338.0307474009371
 20
298.2351152191644
 30
0.0
 40
2.5
  0
ARC
  5
66C
330
1F
100
AcDbEntity
  8
AM_VIS
100
AcDbCircle
 10
338.0307474009371
 20
261.0151152191644
 30
0.0
 40
9.0
100
AcDbArc
 50
180.0
 51
0.0
  0
ARC
  5
66D
330
1F
100
AcDbEntity
  8
AM_VIS
100
AcDbCircle
 10
338.0307474009371
 20
261.0151152191644
 30
0.0
 40
5.5
100
AcDbArc
 50
177.7075572240446
 51
2.292442775955408
  0
LINE
  5
66E
330
1F
100
AcDbEntity
  8
AM_VIS
100
AcDbLine
 10
176.0109985138709
 20
308.9851152191644
 30
0.0
 11
176.0109985138709
 21
279.9851152191644
 31
0.0
  0
LINE
  5
66F
330
1F
100
AcDbEntity
  8
AM_VIS
100
AcDbLine
 10
198.0109985138709
 20
279.9851152191644
 30
0.0
 11
198.0109985138709
 21
308.9851152191644
 31
0.0
  0
LINE
  5
670
330
1F
100
AcDbEntity
  8
AM_VIS
100
AcDbLine
 10
176.0109985138709
 20
279.9851152191644
 30
0.0
 11
198.0109985138709
 21
279.9851152191644
 31
0.0
  0
LINE
  5
671
330
1F
100
AcDbEntity
  8
AM_VIS
100
AcDbLine
 10
176.0109985138709
 20
308.9851152191644
 30
0.0
 11
198.0109985138709
 21
308.9851152191644
 31
0.0
  0
LINE
  5
672
330
1F
100
AcDbEntity
  8
AM_VIS
100
AcDbLine
 10
175.5109985138709
 20
278.9851152191644
 30
0.0
 11
175.5109985138709
 21
309.9851152191644
 31
0.0
  0
LINE
  5
673
330
1F
100
AcDbEntity
  8
AM_VIS
100
AcDbLine
 10
175.5109985138709
 20
309.9851152191644
 30
0.0
 11
182.6609985138709
 21
309.9851152191644
 31
0.0
  0
LINE
  5
674
330
1F
100
AcDbEntity
  8
AM_VIS
100
AcDbLine
 10
191.1609985138709
 20
309.9851152191644
 30
0.0
 11
198.5109985138709
 21
309.9851152191644
 31
0.0
  0
LINE
  5
675
330
1F
100
AcDbEntity
  8
AM_VIS
100
AcDbLine
 10
198.5109985138709
 20
309.9851152191644
 30
0.0
 11
198.5109985138709
 21
278.9851152191644
 31
0.0
  0
LINE
  5
676
330
1F
100
AcDbEntity
  8
AM_VIS
100
AcDbLine
 10
198.5109985138709
 20
278.9851152191644
 30
0.0
 11
197.810998513871
 21
278.9851152191644
 31
0.0
  0
LINE
  5
677
330
1F
100
AcDbEntity
  8
AM_VIS
100
AcDbLine
 10
176.2109985138709
 20
278.9851152191644
 30
0.0
 11
175.5109985138709
 21
278.9851152191644
 31
0.0
  0
LINE
  5
678
330
1F
100
AcDbEntity
  8
AM_VIS
100
AcDbLine
 10
197.810998513871
 20
279.9851152191644
 30
0.0
 11
197.810998513871
 21
277.9851152191644
 31
0.0
  0
LINE
  5
679
330
1F
100
AcDbEntity
  8
AM_VIS
100
AcDbLine
 10
190.8109985138709
 20
279.9851152191644
 30
0.0
 11
190.8109985138709
 21
277.9851152191644
 31
0.0
  0
LINE
  5
67A
330
1F
100
AcDbEntity
  8
AM_VIS
100
AcDbLine
 10
176.2109985138709
 20
279.9851152191644
 30
0.0
 11
176.2109985138709
 21
277.9851152191644
 31
0.0
  0
LINE
  5
67B
330
1F
100
AcDbEntity
  8
AM_VIS
100
AcDbLine
 10
198.0109985138709
 20
277.9851152191644
 30
0.0
 11
198.0109985138709
 21
273.9851152191644
 31
0.0
  0
LINE
  5
67C
330
1F
100
AcDbEntity
  8
AM_VIS
100
AcDbLine
 10
195.9109985138709
 20
273.9851152191644
 30
0.0
 11
198.0109985138709
 21
273.9851152191644
 31
0.0
  0
LINE
  5
67D
330
1F
100
AcDbEntity
  8
AM_VIS
100
AcDbLine
 10
176.0109985138709
 20
277.9851152191644
 30
0.0
 11
176.0109985138709
 21
273.9851152191644
 31
0.0
  0
LINE
  5
67E
330
1F
100
AcDbEntity
  8
AM_VIS
100
AcDbLine
 10
198.0109985138709
 20
277.9851152191644
 30
0.0
 11
176.0109985138709
 21
277.9851152191644
 31
0.0
  0
LINE
  5
67F
330
1F
100
AcDbEntity
  8
AM_VIS
100
AcDbLine
 10
176.0109985138709
 20
273.9851152191644
 30
0.0
 11
177.910998513871
 21
273.9851152191644
 31
0.0
  0
LINE
  5
680
330
1F
100
AcDbEntity
  8
AM_VIS
100
AcDbLine
 10
177.910998513871
 20
261.0151152191644
 30
0.0
 11
177.910998513871
 21
275.0163013923307
 31
0.0
  0
LINE
  5
681
330
1F
100
AcDbEntity
  8
AM_VIS
100
AcDbLine
 10
177.910998513871
 20
275.0163013923307
 30
0.0
 11
195.9109985138709
 21
275.0163013923307
 31
0.0
  0
LINE
  5
682
330
1F
100
AcDbEntity
  8
AM_VIS
100
AcDbLine
 10
195.9109985138709
 20
275.0163013923307
 30
0.0
 11
195.9109985138709
 21
261.0151152191644
 31
0.0
  0
LINE
  5
683
330
1F
100
AcDbEntity
  8
AM_VIS
100
AcDbLine
 10
191.1609985138709
 20
308.9851152191644
 30
0.0
 11
191.1609985138709
 21
312.0151152191644
 31
0.0
  0
LINE
  5
684
330
1F
100
AcDbEntity
  8
AM_VIS
100
AcDbLine
 10
182.6609985138709
 20
308.9851152191644
 30
0.0
 11
182.6609985138709
 21
312.0151152191644
 31
0.0
  0
ARC
  5
685
330
1F
100
AcDbEntity
  8
AM_VIS
100
AcDbCircle
 10
186.9109985138709
 20
261.0151152191644
 30
0.0
 40
9.0
100
AcDbArc
 50
180.0
 51
0.0
  0
CIRCLE
  5
686
330
1F
100
AcDbEntity
  8
AM_VIS
100
AcDbCircle
 10
186.9109985138709
 20
261.0151152191644
 30
0.0
 40
5.5
  0
LINE
  5
6DF
330
1F
100
AcDbEntity
  8
AM_VIS
100
AcDbLine
 10
269.1813813667858
 20
363.0139237633894
 30
0.0
 11
240.6813813667858
 21
363.0139237633893
 31
0.0
  0
LINE
  5
6E0
330
1F
100
AcDbEntity
  8
AM_VIS
100
AcDbLine
 10
240.6813813667858
 20
341.0139237633893
 30
0.0
 11
269.1813813667858
 21
341.0139237633893
 31
0.0
  0
LINE
  5
6E1
330
1F
100
AcDbEntity
  8
AM_VIS
100
AcDbLine
 10
269.1813813667858
 20
363.5139237633894
 30
0.0
 11
274.1813813667858
 21
363.5139237633894
 31
0.0
  0
LINE
  5
6E2
330
1F
100
AcDbEntity
  8
AM_VIS
100
AcDbLine
 10
274.1813813667858
 20
340.5139237633894
 30
0.0
 11
274.1813813667858
 21
363.5139237633894
 31
0.0
  0
LINE
  5
6E3
330
1F
100
AcDbEntity
  8
AM_VIS
100
AcDbLine
 10
269.1813813667858
 20
340.5139237633894
 30
0.0
 11
274.1813813667858
 21
340.5139237633894
 31
0.0
  0
LINE
  5
6E4
330
1F
100
AcDbEntity
  8
AM_VIS
100
AcDbLine
 10
269.1813813667858
 20
363.5139237633894
 30
0.0
 11
269.1813813667858
 21
340.5139237633894
 31
0.0
  0
LINE
  5
6E5
330
1F
100
AcDbEntity
  8
AM_VIS
100
AcDbLine
 10
274.1813813667858
 20
362.2639237633894
 30
0.0
 11
299.6813813667858
 21
362.2639237633894
 31
0.0
  0
LINE
  5
6E6
330
1F
100
AcDbEntity
  8
AM_VIS
100
AcDbLine
 10
299.6813813667858
 20
341.7639237633894
 30
0.0
 11
299.6813813667858
 21
362.2639237633894
 31
0.0
  0
LINE
  5
6E7
330
1F
100
AcDbEntity
  8
AM_VIS
100
AcDbLine
 10
274.1813813667858
 20
341.7639237633894
 30
0.0
 11
299.6813813667858
 21
341.7639237633894
 31
0.0
  0
LINE
  5
6E8
330
1F
100
AcDbEntity
  8
AM_VIS
100
AcDbLine
 10
234.9313813667858
 20
361.1139237633893
 30
0.0
 11
234.9313813667858
 21
343.1139237633893
 31
0.0
  0
LINE
  5
6E9
330
1F
100
AcDbEntity
  8
AM_VIS
100
AcDbLine
 10
240.6813813667858
 20
361.1139237633893
 30
0.0
 11
234.9313813667858
 21
361.1139237633893
 31
0.0
  0
LINE
  5
6EA
330
1F
100
AcDbEntity
  8
AM_VIS
100
AcDbLine
 10
240.6813813667858
 20
343.1139237633893
 30
0.0
 11
234.9313813667858
 21
343.1139237633893
 31
0.0
  0
ARC
  5
6EB
330
1F
100
AcDbEntity
  8
AM_VIS
100
AcDbCircle
 10
292.1813813667858
 20
352.0139237633894
 30
0.0
 40
9.0
100
AcDbArc
 50
326.4426902380793
 51
33.55730976192069
  0
CIRCLE
  5
6EC
330
1F
100
AcDbEntity
  8
AM_VIS
100
AcDbCircle
 10
251.4313813667858
 20
352.1139237633893
 30
0.0
 40
8.5
  0
CIRCLE
  5
6ED
330
1F
100
AcDbEntity
  8
AM_VIS
100
AcDbCircle
 10
251.4313813667858
 20
352.1139237633893
 30
0.0
 40
4.25
  0
LINE
  5
744
330
1F
100
AcDbEntity
  8
AM_VIS
100
AcDbLine
 10
262.6813813667858
 20
205.3760060562237
 30
0.0
 11
269.1813813667858
 21
205.3760060562237
 31
0.0
  0
LINE
  5
745
330
1F
100
AcDbEntity
  8
AM_VIS
100
AcDbLine
 10
269.1813813667858
 20
227.3760060562237
 30
0.0
 11
262.6813813667858
 21
227.3760060562237
 31
0.0
  0
LINE
  5
746
330
1F
100
AcDbEntity
  8
AM_VIS
100
AcDbLine
 10
274.1813813667858
 20
204.8760060562237
 30
0.0
 11
274.1813813667858
 21
227.8760060562237
 31
0.0
  0
LINE
  5
747
330
1F
100
AcDbEntity
  8
AM_VIS
100
AcDbLine
 10
269.1813813667858
 20
204.8760060562237
 30
0.0
 11
274.1813813667858
 21
204.8760060562237
 31
0.0
  0
LINE
  5
748
330
1F
100
AcDbEntity
  8
AM_VIS
100
AcDbLine
 10
269.1813813667858
 20
227.8760060562237
 30
0.0
 11
274.1813813667858
 21
227.8760060562237
 31
0.0
  0
LINE
  5
749
330
1F
100
AcDbEntity
  8
AM_VIS
100
AcDbLine
 10
269.1813813667858
 20
227.8760060562237
 30
0.0
 11
269.1813813667858
 21
204.8760060562237
 31
0.0
  0
LINE
  5
74A
330
1F
100
AcDbEntity
  8
AM_VIS
100
AcDbLine
 10
299.6813813667858
 20
206.1260060562237
 30
0.0
 11
299.6813813667858
 21
211.4010688706906
 31
0.0
  0
LINE
  5
74B
330
1F
100
AcDbEntity
  8
AM_VIS
100
AcDbLine
 10
274.1813813667858
 20
206.1260060562237
 30
0.0
 11
299.6813813667858
 21
206.1260060562237
 31
0.0
  0
LINE
  5
74C
330
1F
100
AcDbEntity
  8
AM_VIS
100
AcDbLine
 10
274.1813813667858
 20
226.6260060562237
 30
0.0
 11
299.6813813667858
 21
226.6260060562237
 31
0.0
  0
LINE
  5
74D
330
1F
100
AcDbEntity
  8
AM_VIS
100
AcDbLine
 10
299.6813813667858
 20
221.3509432417568
 30
0.0
 11
299.6813813667858
 21
226.6260060562237
 31
0.0
  0
LINE
  5
74E
330
1F
100
AcDbEntity
  8
AM_VIS
100
AcDbLine
 10
296.8001835203028
 20
208.3760060562237
 30
0.0
 11
287.5625792132687
 21
208.3760060562237
 31
0.0
  0
LINE
  5
74F
330
1F
100
AcDbEntity
  8
AM_VIS
100
AcDbLine
 10
301.4189856738198
 20
216.3760060562237
 30
0.0
 11
296.8001835203028
 21
208.3760060562237
 31
0.0
  0
LINE
  5
750
330
1F
100
AcDbEntity
  8
AM_VIS
100
AcDbLine
 10
240.6813813667858
 20
205.3760060562237
 30
0.0
 11
240.6813813667858
 21
207.2760060562237
 31
0.0
  0
LINE
  5
751
330
1F
100
AcDbEntity
  8
AM_VIS
100
AcDbLine
 10
296.8001835203028
 20
224.3760060562237
 30
0.0
 11
301.4189856738198
 21
216.3760060562237
 31
0.0
  0
LINE
  5
752
330
1F
100
AcDbEntity
  8
AM_VIS
100
AcDbLine
 10
248.4313813667858
 20
207.2760060562237
 30
0.0
 11
234.9313813667858
 21
207.2760060562237
 31
0.0
  0
LINE
  5
753
330
1F
100
AcDbEntity
  8
AM_VIS
100
AcDbLine
 10
287.5625792132687
 20
224.3760060562237
 30
0.0
 11
296.8001835203028
 21
224.3760060562237
 31
0.0
  0
LINE
  5
754
330
1F
100
AcDbEntity
  8
AM_VIS
100
AcDbLine
 10
282.9437770597517
 20
216.3760060562237
 30
0.0
 11
287.5625792132687
 21
224.3760060562237
 31
0.0
  0
LINE
  5
755
330
1F
100
AcDbEntity
  8
AM_VIS
100
AcDbLine
 10
287.5625792132687
 20
208.3760060562237
 30
0.0
 11
282.9437770597517
 21
216.3760060562237
 31
0.0
  0
LINE
  5
756
330
1F
100
AcDbEntity
  8
AM_VIS
100
AcDbLine
 10
240.6813813667858
 20
227.3760060562237
 30
0.0
 11
262.6813813667858
 21
227.3760060562237
 31
0.0
  0
LINE
  5
757
330
1F
100
AcDbEntity
  8
AM_VIS
100
AcDbLine
 10
240.6813813667858
 20
225.2760060562237
 30
0.0
 11
240.6813813667858
 21
227.3760060562237
 31
0.0
  0
LINE
  5
758
330
1F
100
AcDbEntity
  8
AM_VIS
100
AcDbLine
 10
254.4313813667858
 20
225.0260060562237
 30
0.0
 11
254.4313813667858
 21
207.5260060562237
 31
0.0
  0
LINE
  5
759
330
1F
100
AcDbEntity
  8
0
  6
CENTER
 62
     1
100
AcDbLine
 10
251.4313813667858
 20
224.2260060562237
 30
0.0
 11
251.4313813667858
 21
219.7718459619736
 31
0.0
  0
LINE
  5
75A
330
1F
100
AcDbEntity
  8
0
  6
CENTER
 62
     1
100
AcDbLine
 10
251.4313813667858
 20
212.7334089421446
 30
0.0
 11
251.4313813667858
 21
208.5260060562237
 31
0.0
  0
LINE
  5
75B
330
1F
100
AcDbEntity
  8
AM_VIS
100
AcDbLine
 10
248.4313813667858
 20
225.0260060562237
 30
0.0
 11
254.4313813667858
 21
225.0260060562237
 31
0.0
  0
LINE
  5
75C
330
1F
100
AcDbEntity
  8
AM_VIS
100
AcDbLine
 10
254.4313813667858
 20
207.5260060562237
 30
0.0
 11
248.4313813667858
 21
207.5260060562237
 31
0.0
  0
LINE
  5
75D
330
1F
100
AcDbEntity
  8
AM_VIS
100
AcDbLine
 10
262.6813813667858
 20
227.3760060562237
 30
0.0
 11
262.6813813667858
 21
225.2760060562237
 31
0.0
  0
LINE
  5
75E
330
1F
100
AcDbEntity
  8
AM_VIS
100
AcDbLine
 10
254.4313813667858
 20
207.2760060562237
 30
0.0
 11
267.9313813667858
 21
207.2760060562237
 31
0.0
  0
LINE
  5
75F
330
1F
100
AcDbEntity
  8
AM_VIS
100
AcDbLine
 10
254.4313813667858
 20
225.2760060562237
 30
0.0
 11
267.9313813667858
 21
225.2760060562237
 31
0.0
  0
LINE
  5
760
330
1F
100
AcDbEntity
  8
AM_VIS
100
AcDbLine
 10
262.6813813667858
 20
207.2760060562237
 30
0.0
 11
262.6813813667858
 21
205.3760060562237
 31
0.0
  0
LINE
  5
761
330
1F
100
AcDbEntity
  8
AM_VIS
100
AcDbLine
 10
262.6813813667858
 20
205.3760060562237
 30
0.0
 11
240.6813813667858
 21
205.3760060562237
 31
0.0
  0
LINE
  5
762
330
1F
100
AcDbEntity
  8
AM_VIS
100
AcDbLine
 10
248.4313813667858
 20
225.0260060562237
 30
0.0
 11
248.4313813667858
 21
225.2760060562237
 31
0.0
  0
LINE
  5
763
330
1F
100
AcDbEntity
  8
AM_VIS
100
AcDbLine
 10
248.4313813667858
 20
207.5260060562237
 30
0.0
 11
248.4313813667858
 21
225.0260060562237
 31
0.0
  0
ARC
  5
764
330
1F
100
AcDbEntity
  8
AM_VIS
100
AcDbCircle
 10
292.1813813667858
 20
216.3760060562237
 30
0.0
 40
9.0
100
AcDbArc
 50
122.7339555492669
 51
177.266044450732
  0
LINE
  5
765
330
1F
100
AcDbEntity
  8
AM_VIS
100
AcDbLine
 10
248.4313813667858
 20
225.2760060562237
 30
0.0
 11
234.9313813667858
 21
225.2760060562237
 31
0.0
  0
ARC
  5
766
330
1F
100
AcDbEntity
  8
AM_VIS
100
AcDbCircle
 10
292.1813813667858
 20
216.3760060562237
 30
0.0
 40
9.0
100
AcDbArc
 50
62.73395554926779
 51
117.2660444507322
  0
LINE
  5
767
330
1F
100
AcDbEntity
  8
AM_VIS
100
AcDbLine
 10
248.4313813667858
 20
207.2760060562237
 30
0.0
 11
248.4313813667858
 21
207.5260060562237
 31
0.0
  0
ARC
  5
768
330
1F
100
AcDbEntity
  8
AM_VIS
100
AcDbCircle
 10
292.1813813667858
 20
216.3760060562237
 30
0.0
 40
9.0
100
AcDbArc
 50
2.733955549267971
 51
57.26604445073306
  0
ARC
  5
769
330
1F
100
AcDbEntity
  8
AM_VIS
100
AcDbCircle
 10
292.1813813667858
 20
216.3760060562237
 30
0.0
 40
9.0
100
AcDbArc
 50
302.7339555492669
 51
357.2660444507337
  0
ARC
  5
76A
330
1F
100
AcDbEntity
  8
AM_VIS
100
AcDbCircle
 10
292.1813813667858
 20
216.3760060562237
 30
0.0
 40
9.0
100
AcDbArc
 50
242.7339555492677
 51
297.2660444507322
  0
ARC
  5
76B
330
1F
100
AcDbEntity
  8
AM_VIS
100
AcDbCircle
 10
292.1813813667858
 20
216.3760060562237
 30
0.0
 40
9.0
100
AcDbArc
 50
182.733955549268
 51
237.2660444507331
  0
CIRCLE
  5
76C
330
1F
100
AcDbEntity
  8
AM_VIS
100
AcDbCircle
 10
292.1813813667858
 20
216.3760060562237
 30
0.0
 40
5.0
  0
LINE
  5
76D
330
1F
100
AcDbEntity
  8
AM_VIS
100
AcDbLine
 10
267.9313813667858
 20
225.2760060562237
 30
0.0
 11
267.9313813667858
 21
207.2760060562237
 31
0.0
  0
LINE
  5
76E
330
1F
100
AcDbEntity
  8
AM_VIS
100
AcDbLine
 10
254.4313813667858
 20
225.2760060562237
 30
0.0
 11
254.4313813667858
 21
225.0260060562237
 31
0.0
  0
LINE
  5
76F
330
1F
100
AcDbEntity
  8
AM_VIS
100
AcDbLine
 10
254.4313813667858
 20
207.5260060562237
 30
0.0
 11
254.4313813667858
 21
207.2760060562237
 31
0.0
  0
LINE
  5
770
330
1F
100
AcDbEntity
  8
AM_VIS
100
AcDbLine
 10
234.9313813667858
 20
207.2760060562237
 30
0.0
 11
234.9313813667858
 21
225.2760060562237
 31
0.0
  0
LINE
  5
771
330
1F
100
AcDbEntity
  8
0
100
AcDbLine
 10
333.7807474009371
 20
312.0151152191644
 30
0.0
 11
342.2807474009371
 21
312.0151152191644
 31
0.0
  0
LINE
  5
772
330
1F
100
AcDbEntity
  8
AM_VIS
100
AcDbLine
 10
248.4313813667858
 20
252.0151152191644
 30
0.0
 11
234.9313813667858
 21
252.0151152191644
 31
0.0
  0
LINE
  5
773
330
1F
100
AcDbEntity
  8
AM_VIS
100
AcDbLine
 10
254.4313813667858
 20
253.0151152191645
 30
0.0
 11
248.4313813667858
 21
253.0151152191645
 31
0.0
  0
LINE
  5
774
330
1F
100
AcDbEntity
  8
0
100
AcDbLine
 10
191.1609985138709
 20
312.0151152191644
 30
0.0
 11
182.6609985138709
 21
312.0151152191644
 31
0.0
  0
LINE
  5
775
330
1F
100
AcDbEntity
  8
AM_VIS
100
AcDbLine
 10
254.4313813667858
 20
252.0151152191644
 30
0.0
 11
267.9313813667858
 21
252.0151152191644
 31
0.0
  0
LINE
  5
776
330
1F
100
AcDbEntity
  8
0
100
AcDbLine
 10
177.910998513871
 20
261.0151152191644
 30
0.0
 11
177.910998513871
 21
253.0151152191644
 31
0.0
  0
LINE
  5
777
330
1F
100
AcDbEntity
  8
0
100
AcDbLine
 10
195.9109985138709
 20
261.0151152191644
 30
0.0
 11
195.9109985138709
 21
253.0151152191644
 31
0.0
  0
LINE
  5
778
330
1F
100
AcDbEntity
  8
0
100
AcDbLine
 10
347.0307474009371
 20
261.0151152191644
 30
0.0
 11
347.0307474009371
 21
253.0151152191645
 31
0.0
  0
LINE
  5
779
330
1F
100
AcDbEntity
  8
0
100
AcDbLine
 10
329.0307474009371
 20
261.0151152191644
 30
0.0
 11
329.0307474009371
 21
253.0151152191645
 31
0.0
  0
CIRCLE
  5
77A
330
1F
100
AcDbEntity
  8
0
100
AcDbCircle
 10
251.4313813667858
 20
221.9760060562236
 30
0.0
 40
1.5
  0
CIRCLE
  5
77B
330
1F
100
AcDbEntity
  8
0
100
AcDbCircle
 10
251.4313813667858
 20
210.7760060562237
 30
0.0
 40
1.5
  0
DIMENSION
  5
77C
330
1F
100
AcDbEntity
  8
0
100
AcDbDimension
  2
*D10
 10
222.5145859220345
 20
204.8760060562237
 30
0.0
 11
220.0145859220344
 21
216.3760060562237
 31
0.0
 70
    32
 71
     5
 42
23.0
  3
STANDARD
100
AcDbAlignedDimension
 13
269.1813813667858
 23
227.8760060562237
 33
0.0
 14
269.1813813667858
 24
204.8760060562237
 34
0.0
 50
90.0
100
AcDbRotatedDimension
1001
ACAD
1000
DSTYLE
1002
{
1070
   176
1070
     5
1070
   177
1070
     5
1070
   178
1070
     5
1070
   272
1070
     8
1002
}
  0
TEXT
  5
77D
330
1F
100
AcDbEntity
  8
LOGO
 62
     7
100
AcDbText
 10
191.0370197893205
 20
174.1456683284609
 30
0.0
 40
2.932908597285067
  1
Order example:
 41
0.8
  7
CHINESET
100
AcDbText
  0
TEXT
  5
77E
330
1F
100
AcDbEntity
  8
LOGO
 62
     7
100
AcDbText
 10
191.5632078458408
 20
178.2745963669648
 30
0.0
 40
4.399362895927601
  1
訂購代號：
  7
CHINESET
100
AcDbText
  0
LINE
  5
77F
330
1F
100
AcDbEntity
  8
LOGO
 62
     4
100
AcDbLine
 10
381.3475769190874
 20
183.7820984442077
 30
0.0
 11
141.3696692007424
 21
183.7820984442077
 31
0.0
  0
LINE
  5
780
330
1F
100
AcDbEntity
  8
LOGO
 62
     4
100
AcDbLine
 10
189.7626610559461
 20
161.7852839645693
 30
0.0
 11
189.7626610559461
 21
183.7820984442077
 31
0.0
  0
TEXT
  5
781
330
1F
100
AcDbEntity
  8
LOGO
  6
Continuous
100
AcDbText
 10
149.2710238394226
 20
166.1065249730068
 30
0.0
 40
3.299522171945701
  1
金器工業股份有限公司
  7
CHINESET
100
AcDbText
  0
TEXT
  5
782
330
1F
100
AcDbEntity
  8
LOGO
  6
Continuous
100
AcDbText
 10
143.2104543878284
 20
162.8063563534079
 30
0.0
 40
2.1996814479638
  1
MINDMAN INDUSTRIAL CO., LTD.
 41
0.85
  7
CHINESET
100
AcDbText
  0
LINE
  5
783
330
1F
100
AcDbEntity
  8
LOGO
 62
     4
100
AcDbLine
 10
189.7626610559461
 20
179.3827355482798
 30
0.0
 11
157.5006664858101
 21
179.3827355482798
 31
0.0
  0
LINE
  5
784
330
1F
100
AcDbEntity
  8
LOGO
 62
     4
100
AcDbLine
 10
189.7626610559461
 20
174.9833726523524
 30
0.0
 11
157.5006664858101
 21
174.9833726523524
 31
0.0
  0
LINE
  5
785
330
1F
100
AcDbEntity
  8
LOGO
 62
     4
100
AcDbLine
 10
189.7626610559461
 20
170.584009756425
 30
0.0
 11
141.3696692007424
 21
170.584009756425
 31
0.0
  0
LINE
  5
786
330
1F
100
AcDbEntity
  8
LOGO
 62
     4
100
AcDbLine
 10
157.5006664858101
 20
170.584009756425
 30
0.0
 11
157.5006664858101
 21
183.7820984442077
 31
0.0
  0
TEXT
  5
787
330
1F
100
AcDbEntity
  8
LOGO
100
AcDbText
 10
179.5502170315485
 20
171.6838504804066
 30
0.0
 40
2.1996814479638
  1
mm
  7
CHINESET
 72
     1
 11
182.2736321575989
 21
172.7836912043885
 31
0.0
100
AcDbText
 73
     2
  0
TEXT
  5
788
330
1F
100
AcDbEntity
  8
LOGO
100
AcDbText
 10
178.398002939758
 20
180.4825762722618
 30
0.0
 40
2.1996814479638
  1
1 : 1
  7
CHINESET
 72
     1
 11
182.2736321575989
 21
181.5824169962438
 31
0.0
100
AcDbText
 73
     2
  0
LINE
  5
789
330
1F
100
AcDbEntity
  8
LOGO
 62
     4
100
AcDbLine
 10
175.0981180695206
 20
170.584009756425
 30
0.0
 11
175.0981180695206
 21
183.7820984442077
 31
0.0
  0
TEXT
  5
78A
330
1F
100
AcDbEntity
  8
LOGO
100
AcDbText
 10
159.3144216797339
 20
180.4836587926595
 30
144.1634983360548
 40
2.1996814479638
  1
比例 Scale:
 41
0.9
  7
CHINESET
 72
     4
 11
166.2993922776654
 21
181.5824169962438
 31
144.1634983360548
100
AcDbText
  0
TEXT
  5
78B
330
1F
100
AcDbEntity
  8
LOGO
100
AcDbText
 10
159.1877435963467
 20
176.1141554176993
 30
144.1634983360548
 40
2.1996814479638
  1
投影  View:
 41
0.9
  7
CHINESET
 72
     4
 11
166.2993922776654
 21
177.1830541003159
 31
144.1634983360548
100
AcDbText
  0
TEXT
  5
78C
330
1F
100
AcDbEntity
  8
LOGO
100
AcDbText
 10
159.402801737911
 20
171.6838504804066
 30
144.1634983360548
 40
2.1996814479638
  1
單位  Unit:
 41
0.9
  7
CHINESET
 72
     4
 11
166.2993922776654
 21
172.7836912043885
 31
144.1634983360548
100
AcDbText
  0
LWPOLYLINE
  5
78D
330
1F
100
AcDbEntity
  8
LOGO
 62
     4
100
AcDbPolyline
 90
        4
 70
     1
 43
0.0
 10
141.3696692007424
 20
183.7820984442077
 10
381.3475769190874
 20
183.7820984442077
 10
381.3475769190874
 20
381.7852839645691
 10
141.3696692007424
 20
381.7852839645691
1001
GENIUS_GENREC_14
1002
{
1000
PYDIR
1011
141.3696692007424
1021
381.7852839645691
1031
0.0
1002
}
1002
{
1000
PXDIR
1011
381.3475769190874
1021
183.7820984442077
1031
0.0
1002
}
1002
{
1000
PORI
1011
141.3696692007424
1021
183.7820984442077
1031
0.0
1002
}
1002
{
1000
PINS
1011
141.3696692007424
1021
183.7820984442077
1031
0.0
1002
}
1002
{
1000
PINS2
1011
381.3475769190874
1021
381.7852839645691
1031
0.0
1002
}
1002
{
1000
C
1070
     1
1002
}
1001
GENIUS_GENODEF_13
1002
{
1000
HIER
1070
     0
1002
}
1002
{
1000
MANEDIT
1070
     0
1002
}
1002
{
1000
NOSEL
1070
     0
1002
}
1002
{
1000
BEHIND
1070
     0
1002
}
1002
{
1000
OTHER
1070
     0
1002
}
1002
{
1000
REACTOR
1002
}
1001
GENIUS_GENOBJ-N-REC_13
1002
{
1000
OWNER
1000
GEN
1002
}
  0
SOLID
  5
78E
330
1F
100
AcDbEntity
  8
LOGO
 62
     5
100
AcDbTrace
 10
143.6518740052068
 20
174.2406670636655
 30
0.0
 11
144.6029585436651
 21
174.2406670636655
 31
0.0
 12
148.571276790336
 22
183.2595721697366
 32
0.0
 13
149.5223613287948
 23
183.2595721697361
 33
0.0
  0
SOLID
  5
78F
330
1F
100
AcDbEntity
  8
LOGO
 62
     5
100
AcDbTrace
 10
144.9965107664765
 20
174.2406670636655
 30
0.0
 11
145.9475953049348
 21
174.2406670636655
 31
0.0
 12
149.5223613287948
 22
182.5380597612506
 32
0.0
 13
148.571276790336
 23
179.0507497869032
 33
0.0
  0
SOLID
  5
790
330
1F
100
AcDbEntity
  8
LOGO
 62
     2
100
AcDbTrace
 10
144.6029585436651
 20
174.2406670636655
 30
0.0
 11
144.9965107664765
 21
174.2406670636655
 31
0.0
 12
149.5223613287948
 22
183.2595721697361
 32
0.0
 13
149.9159135516057
 23
183.2595721697361
 33
0.0
  0
SOLID
  5
791
330
1F
100
AcDbEntity
  8
LOGO
 62
     5
100
AcDbTrace
 10
142.1270522555596
 20
170.9610652069131
 30
0.0
 11
142.4550124412353
 21
170.9610652069131
 31
0.0
 12
143.3785738504777
 22
172.6008661352893
 32
0.0
 13
143.7065340361523
 23
172.6008661352893
 33
0.0
  0
SOLID
  5
792
330
1F
100
AcDbEntity
  8
LOGO
 62
     5
100
AcDbTrace
 10
143.3785738504777
 20
172.6008661352893
 30
0.0
 11
143.7065340361523
 21
172.6008661352893
 31
0.0
 12
143.3785738504777
 22
170.9610652069131
 32
0.0
 13
143.7065340361523
 23
170.9610652069131
 33
0.0
  0
SOLID
  5
793
330
1F
100
AcDbEntity
  8
LOGO
 62
     5
100
AcDbTrace
 10
143.3785738504777
 20
170.9610652069131
 30
0.0
 11
143.7065340361523
 21
170.9610652069131
 31
0.0
 12
144.6300954453963
 22
172.6008661352893
 32
0.0
 13
144.9580556310714
 23
172.6008661352893
 33
0.0
  0
SOLID
  5
794
330
1F
100
AcDbEntity
  8
LOGO
 62
     5
100
AcDbTrace
 10
144.6300954453963
 20
172.6008661352893
 30
0.0
 11
144.9580556310714
 21
172.6008661352893
 31
0.0
 12
144.6300954453963
 22
170.9610652069131
 32
0.0
 13
144.9580556310714
 23
170.9610652069131
 33
0.0
  0
POLYLINE
  5
795
330
1F
100
AcDbEntity
  8
LOGO
 62
     5
100
AcDb2dPolyline
 66
     1
 10
0.0
 20
0.0
 30
0.0
 40
0.3284857628959275
 41
0.3284857628959275
  0
VERTEX
  5
796
330
795
100
AcDbEntity
  8
LOGO
 62
     5
100
AcDbVertex
100
AcDb2dVertex
 10
155.6232091481867
 20
171.9449457639385
 30
0.0
 42
1.0
  0
VERTEX
  5
797
330
795
100
AcDbEntity
  8
LOGO
 62
     5
100
AcDbVertex
100
AcDb2dVertex
 10
154.6377518594987
 20
171.9449457639385
 30
0.0
 42
1.0
  0
SEQEND
  5
798
330
795
100
AcDbEntity
  8
LOGO
 62
     5
  0
POLYLINE
  5
799
330
1F
100
AcDbEntity
  8
LOGO
 62
     5
100
AcDb2dPolyline
 66
     1
 10
0.0
 20
0.0
 30
0.0
 70
     1
  0
VERTEX
  5
79A
330
799
100
AcDbEntity
  8
LOGO
 62
     5
100
AcDbVertex
100
AcDb2dVertex
 10
152.7801210371815
 20
171.7809656711009
 30
0.0
 42
1.000000057330635
  0
VERTEX
  5
79B
330
799
100
AcDbEntity
  8
LOGO
 62
     5
100
AcDbVertex
100
AcDb2dVertex
 10
153.7640015942074
 20
171.7809656711009
 30
0.0
 42
1.000000057330635
  0
SEQEND
  5
79C
330
799
100
AcDbEntity
  8
LOGO
 62
     5
  0
CIRCLE
  5
79D
330
1F
100
AcDbEntity
  8
LOGO
 62
     5
100
AcDbCircle
 10
153.2720613156952
 20
171.7809656711009
 30
0.0
 40
0.4919402785129413
  0
POLYLINE
  5
79E
330
1F
100
AcDbEntity
  8
LOGO
 62
     5
100
AcDb2dPolyline
 66
     1
 10
0.0
 20
0.0
 30
0.0
 70
     1
 40
0.3284857628959275
 41
0.3284857628959275
  0
VERTEX
  5
79F
330
79E
100
AcDbEntity
  8
LOGO
 62
     5
100
AcDbVertex
100
AcDb2dVertex
 10
152.6150897899029
 20
171.7809656711009
 30
0.0
 42
1.0
  0
VERTEX
  5
7A0
330
79E
100
AcDbEntity
  8
LOGO
 62
     5
100
AcDbVertex
100
AcDb2dVertex
 10
153.9290328414865
 20
171.7809656711009
 30
0.0
 42
1.0
  0
SEQEND
  5
7A1
330
79E
100
AcDbEntity
  8
LOGO
 62
     5
  0
LINE
  5
7A2
330
1F
100
AcDbEntity
  8
LOGO
100
AcDbLine
 10
155.7864008751927
 20
170.9610652069131
 30
0.0
 11
155.7864008751927
 21
171.9449457639385
 31
0.0
  0
SOLID
  5
7A3
330
1F
100
AcDbEntity
  8
LOGO
 62
     5
100
AcDbTrace
 10
153.7639687981903
 20
172.6008661352893
 30
0.0
 11
154.091928983865
 21
172.6008661352893
 31
0.0
 12
153.7639687981903
 22
170.9610652069131
 32
0.0
 13
154.091928983865
 23
170.9610652069131
 33
0.0
  0
SOLID
  5
7A4
330
1F
100
AcDbEntity
  8
LOGO
 62
     5
100
AcDbTrace
 10
154.4745601324916
 20
170.9610652069131
 30
0.0
 11
154.8025203181673
 21
170.9610652069131
 31
0.0
 12
154.4745601324916
 22
172.6008661352893
 32
0.0
 13
154.8025203181673
 23
172.6008661352893
 33
0.0
  0
SOLID
  5
7A5
330
1F
100
AcDbEntity
  8
LOGO
 62
     5
100
AcDbTrace
 10
155.4584406895181
 20
171.9449457639385
 30
0.0
 11
155.7864008751927
 21
171.9449457639385
 31
0.0
 12
155.4584406895181
 22
170.9610652069131
 32
0.0
 13
155.7864008751927
 23
170.9610652069131
 33
0.0
  0
SOLID
  5
7A6
330
1F
100
AcDbEntity
  8
LOGO
 62
     5
100
AcDbTrace
 10
154.441764113924
 20
182.5380597612506
 30
0.0
 11
153.4906795754662
 21
179.0507497869032
 31
0.0
 12
154.441764113924
 22
174.2406670636655
 32
0.0
 13
153.4906795754662
 23
174.2406670636655
 33
0.0
  0
SOLID
  5
7A7
330
1F
100
AcDbEntity
  8
LOGO
 62
     5
100
AcDbTrace
 10
154.8353163367349
 20
174.2406670636655
 30
0.0
 11
155.7864008751927
 21
174.2406670636655
 31
0.0
 12
154.8353163367349
 22
183.2595721697361
 32
0.0
 13
155.7864008751927
 23
183.2595721697366
 33
0.0
  0
SOLID
  5
7A8
330
1F
100
AcDbEntity
  8
LOGO
 62
     2
100
AcDbTrace
 10
154.441764113924
 20
183.2595721697366
 30
0.0
 11
154.8353163367349
 21
183.2595721697361
 31
0.0
 12
154.441764113924
 22
174.2406670636655
 32
0.0
 13
154.8353163367349
 23
174.2406670636655
 33
0.0
  0
POLYLINE
  5
7A9
330
1F
100
AcDbEntity
  8
LOGO
 62
     5
100
AcDb2dPolyline
 66
     1
 10
0.0
 20
0.0
 30
0.0
 40
0.3284857628959275
 41
0.3284857628959275
  0
VERTEX
  5
7AA
330
7A9
100
AcDbEntity
  8
LOGO
 62
     5
100
AcDbVertex
100
AcDb2dVertex
 10
150.9224246228285
 20
171.9449457639385
 30
0.0
 42
1.0
  0
VERTEX
  5
7AB
330
7A9
100
AcDbEntity
  8
LOGO
 62
     5
100
AcDbVertex
100
AcDb2dVertex
 10
149.9369673341405
 20
171.9449457639385
 30
0.0
 42
1.0
  0
SEQEND
  5
7AC
330
7A9
100
AcDbEntity
  8
LOGO
 62
     5
  0
POLYLINE
  5
7AD
330
1F
100
AcDbEntity
  8
LOGO
 62
     5
100
AcDb2dPolyline
 66
     1
 10
0.0
 20
0.0
 30
0.0
 40
0.3284857628959275
 41
0.3284857628959275
  0
VERTEX
  5
7AE
330
7AD
100
AcDbEntity
  8
LOGO
 62
     5
100
AcDbVertex
100
AcDb2dVertex
 10
151.9063051798534
 20
171.9449457639385
 30
0.0
 42
1.0
  0
VERTEX
  5
7AF
330
7AD
100
AcDbEntity
  8
LOGO
 62
     5
100
AcDbVertex
100
AcDb2dVertex
 10
150.9208478911659
 20
171.9449457639385
 30
0.0
 42
1.0
  0
SEQEND
  5
7B0
330
7AD
100
AcDbEntity
  8
LOGO
 62
     5
  0
POLYLINE
  5
7B1
330
1F
100
AcDbEntity
  8
LOGO
 62
     5
100
AcDb2dPolyline
 66
     1
 10
0.0
 20
0.0
 30
0.0
 40
0.3284857628959275
 41
0.3284857628959275
  0
VERTEX
  5
7B2
330
7B1
100
AcDbEntity
  8
LOGO
 62
     5
100
AcDbVertex
100
AcDb2dVertex
 10
147.2055206544953
 20
171.9449457639385
 30
0.0
 42
1.0
  0
VERTEX
  5
7B3
330
7B1
100
AcDbEntity
  8
LOGO
 62
     5
100
AcDbVertex
100
AcDb2dVertex
 10
146.2200633658078
 20
171.9449457639385
 30
0.0
 42
1.0
  0
SEQEND
  5
7B4
330
7B1
100
AcDbEntity
  8
LOGO
 62
     5
  0
SOLID
  5
7B5
330
1F
100
AcDbEntity
  8
LOGO
 62
     5
100
AcDbTrace
 10
146.0568716388013
 20
172.6008661352893
 30
0.0
 11
146.3848318244759
 21
172.6008661352893
 31
0.0
 12
146.0568716388013
 22
170.9610652069131
 32
0.0
 13
146.3848318244759
 23
170.9610652069131
 33
0.0
  0
SOLID
  5
7B6
330
1F
100
AcDbEntity
  8
LOGO
 62
     5
100
AcDbTrace
 10
147.0407521958272
 20
171.9449457639385
 30
0.0
 11
147.3687123815028
 21
171.9449457639385
 31
0.0
 12
147.0407521958272
 22
170.9610652069131
 32
0.0
 13
147.3687123815028
 23
170.9610652069131
 33
0.0
  0
POLYLINE
  5
7B7
330
1F
100
AcDbEntity
  8
LOGO
 62
     5
100
AcDb2dPolyline
 66
     1
 10
0.0
 20
0.0
 30
0.0
 70
     1
 40
0.3284857628959275
 41
0.3284857628959275
  0
VERTEX
  5
7B8
330
7B7
100
AcDbEntity
  8
LOGO
 62
     5
100
AcDbVertex
100
AcDb2dVertex
 10
147.9143052645442
 20
171.7809656711009
 30
0.0
 42
1.0
  0
VERTEX
  5
7B9
330
7B7
100
AcDbEntity
  8
LOGO
 62
     5
100
AcDbVertex
100
AcDb2dVertex
 10
149.2282483161283
 20
171.7809656711009
 30
0.0
 42
1.0
  0
SEQEND
  5
7BA
330
7B7
100
AcDbEntity
  8
LOGO
 62
     5
  0
SOLID
  5
7BB
330
1F
100
AcDbEntity
  8
LOGO
 62
     5
100
AcDbTrace
 10
149.0631842728311
 20
173.0928064138025
 30
0.0
 11
149.3911444585063
 21
173.0928064138025
 31
0.0
 12
149.0631842728311
 22
170.9610652069131
 32
0.0
 13
149.3911444585063
 23
170.9610652069131
 33
0.0
  0
SOLID
  5
7BC
330
1F
100
AcDbEntity
  8
LOGO
 62
     5
100
AcDbTrace
 10
149.7737756071345
 20
172.6008661352893
 30
0.0
 11
150.1017357928091
 21
172.6008661352893
 31
0.0
 12
149.7737756071345
 22
170.9610652069131
 32
0.0
 13
150.1017357928091
 23
170.9610652069131
 33
0.0
  0
SOLID
  5
7BD
330
1F
100
AcDbEntity
  8
LOGO
 62
     5
100
AcDbTrace
 10
150.7576561641594
 20
171.9449457639385
 30
0.0
 11
151.0856163498351
 21
171.9449457639385
 31
0.0
 12
150.7576561641594
 22
170.9610652069131
 32
0.0
 13
151.0856163498351
 23
170.9610652069131
 33
0.0
  0
SOLID
  5
7BE
330
1F
100
AcDbEntity
  8
LOGO
 62
     5
100
AcDbTrace
 10
151.7415367211853
 20
171.9449457639385
 30
0.0
 11
152.0694969068605
 21
171.9449457639385
 31
0.0
 12
151.7415367211853
 22
170.9610652069126
 32
0.0
 13
152.0694969068605
 23
170.9610652069126
 33
0.0
  0
SOLID
  5
7BF
330
1F
100
AcDbEntity
  8
LOGO
 62
     5
100
AcDbTrace
 10
145.3462803044984
 20
172.8304382652621
 30
0.0
 11
145.6742404901745
 21
172.8304382652621
 31
0.0
 12
145.3462803044984
 22
173.0928064138025
 32
0.0
 13
145.6742404901745
 23
173.0928064138025
 33
0.0
  0
SOLID
  5
7C0
330
1F
100
AcDbEntity
  8
LOGO
 62
     5
100
AcDbTrace
 10
145.3462803044984
 20
172.6008661352893
 30
0.0
 11
145.6742404901745
 21
172.6008661352893
 31
0.0
 12
145.3462803044984
 22
170.9610652069126
 32
0.0
 13
145.6742404901745
 23
170.9610652069131
 33
0.0
  0
SOLID
  5
7C1
330
1F
100
AcDbEntity
  8
LOGO
 62
     5
100
AcDbTrace
 10
148.571276790336
 20
174.2406670636655
 30
0.0
 11
149.5223613287948
 21
174.2406670636655
 31
0.0
 12
148.571276790336
 22
179.0507497869032
 32
0.0
 13
149.5223613287948
 23
182.5380597612506
 33
0.0
  0
SOLID
  5
7C2
330
1F
100
AcDbEntity
  8
LOGO
 62
     5
100
AcDbTrace
 10
149.9159135516057
 20
183.2595721697361
 30
0.0
 11
150.8669980900635
 21
183.2595721697366
 31
0.0
 12
149.9159135516057
 22
174.9621794721511
 32
0.0
 13
150.8669980900635
 23
178.4494894464984
 33
0.0
  0
SOLID
  5
7C3
330
1F
100
AcDbEntity
  8
LOGO
 62
     2
100
AcDbTrace
 10
149.5223613287948
 20
183.2595721697361
 30
0.0
 11
149.9159135516057
 21
183.2595721697361
 31
0.0
 12
149.5223613287948
 22
174.2406670636655
 32
0.0
 13
149.9159135516057
 23
174.2406670636655
 33
0.0
  0
SOLID
  5
7C4
330
1F
100
AcDbEntity
  8
LOGO
 62
     5
100
AcDbTrace
 10
149.9159135516057
 20
174.9621794721511
 30
0.0
 11
150.8669980900635
 21
178.4494894464984
 31
0.0
 12
154.441764113924
 22
183.2595721697366
 32
0.0
 13
153.4906795754662
 23
183.2595721697366
 33
0.0
  0
SOLID
  5
7C5
330
1F
100
AcDbEntity
  8
LOGO
 62
     5
100
AcDbTrace
 10
149.9159135516057
 20
174.2406670636655
 30
0.0
 11
150.8669980900635
 21
174.2406670636655
 31
0.0
 12
154.441764113924
 22
182.5380597612506
 32
0.0
 13
153.4906795754662
 23
179.0507497869032
 33
0.0
  0
SOLID
  5
7C6
330
1F
100
AcDbEntity
  8
LOGO
 62
     2
100
AcDbTrace
 10
149.5223613287948
 20
174.2406670636655
 30
0.0
 11
149.9159135516057
 21
174.2406670636655
 31
0.0
 12
154.441764113924
 22
183.2595721697366
 32
0.0
 13
154.8353163367349
 23
183.2595721697361
 33
0.0
  0
LWPOLYLINE
  5
7C7
330
1F
100
AcDbEntity
  8
LOGO
 62
     4
100
AcDbPolyline
 90
        4
 70
     1
 43
0.0
 10
141.3696692007424
 20
183.7820984442077
 10
381.3475769190874
 20
183.7820984442077
 10
381.3475769190874
 20
161.7852839645693
 10
141.3696692007424
 20
161.7852839645693
1001
GENIUS_GENREC_14
1002
{
1000
PYDIR
1011
141.3696692007424
1021
161.7852839645693
1031
0.0
1002
}
1002
{
1000
PXDIR
1011
381.3475769190874
1021
183.7820984442077
1031
0.0
1002
}
1002
{
1000
PORI
1011
141.3696692007424
1021
183.7820984442077
1031
0.0
1002
}
1002
{
1000
PINS
1011
141.3696692007424
1021
183.7820984442077
1031
0.0
1002
}
1002
{
1000
PINS2
1011
381.3475769190874
1021
161.7852839645693
1031
0.0
1002
}
1002
{
1000
C
1070
     1
1002
}
1001
GENIUS_GENOBJ-N-REC_13
1002
{
1000
OWNER
1000
GEN
1002
}
1001
GENIUS_GENODEF_13
1002
{
1000
HIER
1070
     0
1002
}
1002
{
1000
MANEDIT
1070
     0
1002
}
1002
{
1000
NOSEL
1070
     0
1002
}
1002
{
1000
BEHIND
1070
     0
1002
}
1002
{
1000
OTHER
1070
     0
1002
}
1002
{
1000
REACTOR
1002
}
  0
TEXT
  5
7C8
330
1F
100
AcDbEntity
  8
LOGO
100
AcDbText
 10
191.1118502063075
 20
162.9555058128828
 30
0.0
 40
2.2
  1
10803131
 41
0.7
  7
CHINESET
 72
     1
 11
196.1351835396408
 21
162.9555058128828
 31
0.0
100
AcDbText
  0
LINE
  5
7C9
330
1F
100
AcDbEntity
  8
LOGO
 62
     4
100
AcDbLine
 10
202.962661055945
 20
166.1846468604977
 30
0.0
 11
202.9626610559461
 21
161.7852839645698
 31
0.0
  0
LINE
  5
7CA
330
1F
100
AcDbEntity
  8
LOGO
 62
     4
100
AcDbLine
 10
202.962661055945
 20
166.1846468604977
 30
0.0
 11
189.7626610559461
 21
166.1846468604977
 31
0.0
  0
CIRCLE
  5
7CB
330
1F
100
AcDbEntity
  8
LOGO
  6
Continuous
100
AcDbCircle
 10
179.1711034022318
 20
177.1877592350304
 30
0.0
 40
1.277186823352694
  0
CIRCLE
  5
7CC
330
1F
100
AcDbEntity
  8
LOGO
  6
Continuous
100
AcDbCircle
 10
179.1711034022318
 20
177.1877592350304
 30
0.0
 40
0.748318415532157
  0
LINE
  5
7CD
330
1F
100
AcDbEntity
  8
LOGO
100
AcDbLine
 10
187.1970935986719
 20
175.9105724116774
 30
0.0
 11
187.1970935986719
 21
178.4649460583833
 31
0.0
  0
LINE
  5
7CE
330
1F
100
AcDbEntity
  8
LOGO
100
AcDbLine
 10
183.1931862214833
 20
176.4394408194981
 30
0.0
 11
183.1931862214833
 21
177.9360776505626
 31
0.0
  0
LINE
  5
7CF
330
1F
100
AcDbEntity
  8
LOGO
  6
Continuous
100
AcDbLine
 10
183.1931862214833
 20
177.9360776505626
 30
0.0
 11
187.1970935986719
 21
178.4649460583833
 31
0.0
  0
LINE
  5
7D0
330
1F
100
AcDbEntity
  8
LOGO
  6
Continuous
100
AcDbLine
 10
183.1931862214833
 20
176.4394408194981
 30
0.0
 11
187.1970935986719
 21
175.9105724116774
 31
0.0
  0
LINE
  5
7D1
330
1F
100
AcDbEntity
  8
LOGO
  6
AM_ISO08W050x2
 48
0.3
100
AcDbLine
 10
177.4104822418733
 20
177.1877592350304
 30
0.0
 11
180.9317245625902
 21
177.1877592350304
 31
0.0
1001
GENIUS_GENOREF_13
1005
826
  0
LINE
  5
7D2
330
1F
100
AcDbEntity
  8
LOGO
  6
AM_ISO08W050x2
 48
0.3
100
AcDbLine
 10
179.1711034022318
 20
175.427138074672
 30
0.0
 11
179.1711034022318
 21
178.9483803953888
 31
0.0
1001
GENIUS_GENOREF_13
1005
825
  0
LINE
  5
7D3
330
1F
100
AcDbEntity
  8
LOGO
  6
CENTER
 48
0.5
100
AcDbLine
 10
182.872984919393
 20
177.1877592350304
 30
0.0
 11
187.6002741102384
 21
177.1877592350304
 31
0.0
1001
GENIUS_GENOREF_13
1005
824
  0
LINE
  5
7D4
330
1F
100
AcDbEntity
  8
LOGO
 62
     4
100
AcDbLine
 10
234.6828460909266
 20
171.6838504804073
 30
0.0
 11
234.6828460909266
 21
163.6183518378729
 31
0.0
  0
LINE
  5
7D5
330
1F
100
AcDbEntity
  8
LOGO
 62
     4
100
AcDbLine
 10
220.0183031045012
 20
171.6838504804073
 30
0.0
 11
220.0183031045012
 21
163.6183518378729
 31
0.0
  0
LINE
  5
7D6
330
1F
100
AcDbEntity
  8
LOGO
 62
     4
100
AcDbLine
 10
234.6828460909266
 20
163.6183518378729
 30
0.0
 11
220.0183031045012
 21
163.6183518378729
 31
0.0
  0
LINE
  5
7D7
330
1F
100
AcDbEntity
  8
LOGO
 62
     4
100
AcDbLine
 10
237.4923070812538
 20
181.5824169962438
 30
0.0
 11
220.0183031045012
 21
181.5824169962438
 31
0.0
  0
LINE
  5
7D8
330
1F
100
AcDbEntity
  8
LOGO
 62
     4
100
AcDbLine
 10
237.4923070812538
 20
174.9833726523527
 30
0.0
 11
220.0183031045012
 21
174.9833726523527
 31
0.0
  0
LINE
  5
7D9
330
1F
100
AcDbEntity
  8
LOGO
 62
     4
100
AcDbLine
 10
220.0183031045012
 20
181.5824169962438
 30
0.0
 11
220.0183031045012
 21
174.9833726523527
 31
0.0
  0
LINE
  5
7DA
330
1F
100
AcDbEntity
  8
LOGO
 62
     4
100
AcDbLine
 10
237.4923070812538
 20
181.5824169962438
 30
0.0
 11
237.4923070812538
 21
174.9833726523527
 31
0.0
  0
LINE
  5
7DB
330
1F
100
AcDbEntity
  8
LOGO
 62
     4
100
AcDbLine
 10
228.115695413774
 20
174.9833726523527
 30
0.0
 11
228.115695413774
 21
171.6838504804073
 31
0.0
  0
LINE
  5
7DC
330
1F
100
AcDbEntity
  8
LOGO
 62
     4
100
AcDbLine
 10
234.6828460909266
 20
171.6838504804073
 30
0.0
 11
220.0183031045012
 21
171.6838504804073
 31
0.0
  0
TEXT
  5
7DD
330
1F
100
AcDbEntity
  8
LOGO
  6
Continuous
100
AcDbText
 10
224.7241085216085
 20
164.7567798679794
 30
144.1634983360548
 40
1.649999999999999
  1
Model
 41
0.8
  7
CHINESET
100
AcDbText
  0
TEXT
  5
7DE
330
1F
100
AcDbEntity
  8
LOGO
100
AcDbText
 10
224.2849321598094
 20
167.8155242675995
 30
144.1634983360548
 40
2.75
  1
型號
  7
CHINESET
100
AcDbText
  0
LINE
  5
7DF
330
1F
100
AcDbEntity
  8
LOGO
  6
Continuous
 62
     7
100
AcDbLine
 10
238.1938400353601
 20
178.2595199663369
 30
0.0
 11
241.1077372291936
 21
178.2595199663369
 31
0.0
  0
LINE
  5
7E0
330
1F
100
AcDbEntity
  8
LOGO
 62
     4
100
AcDbLine
 10
239.3962695120206
 20
171.6838504804073
 30
0.0
 11
239.3962695120206
 21
163.6183518378729
 31
0.0
  0
LINE
  5
7E1
330
1F
100
AcDbEntity
  8
LOGO
 62
     4
100
AcDbLine
 10
251.8511879389895
 20
163.6183518378729
 30
0.0
 11
239.3962695120206
 21
163.6183518378729
 31
0.0
  0
LINE
  5
7E2
330
1F
100
AcDbEntity
  8
LOGO
 62
     4
100
AcDbLine
 10
250.5249174644412
 20
181.5824169962438
 30
0.0
 11
242.0269181931605
 21
181.5824169962438
 31
0.0
  0
LINE
  5
7E3
330
1F
100
AcDbEntity
  8
LOGO
 62
     4
100
AcDbLine
 10
250.5249174644412
 20
174.9833726523527
 30
0.0
 11
242.0269181931605
 21
174.9833726523527
 31
0.0
  0
LINE
  5
7E4
330
1F
100
AcDbEntity
  8
LOGO
 62
     4
100
AcDbLine
 10
242.0269181931605
 20
181.5824169962438
 30
0.0
 11
242.0269181931605
 21
174.9833726523527
 31
0.0
  0
LINE
  5
7E5
330
1F
100
AcDbEntity
  8
LOGO
 62
     4
100
AcDbLine
 10
250.5249174644412
 20
181.5824169962438
 30
0.0
 11
250.5249174644412
 21
174.9833726523527
 31
0.0
  0
LINE
  5
7E6
330
1F
100
AcDbEntity
  8
LOGO
 62
     4
100
AcDbLine
 10
246.2759178288006
 20
174.9833726523527
 30
0.0
 11
246.2759178288006
 21
171.6838504804073
 31
0.0
  0
LINE
  5
7E7
330
1F
100
AcDbEntity
  8
LOGO
 62
     4
100
AcDbLine
 10
251.8511879389895
 20
171.6838504804073
 30
0.0
 11
239.3962695120206
 21
171.6838504804073
 31
0.0
  0
TEXT
  5
7FC
330
1F
100
AcDbEntity
  8
LOGO
  6
Continuous
100
AcDbText
 10
243.1502509064044
 20
164.7567798679794
 30
144.1634983360548
 40
1.649999999999999
  1
CODE
 41
0.8
  7
CHINESET
100
AcDbText
  0
TEXT
  5
7FD
330
1F
100
AcDbEntity
  8
LOGO
100
AcDbText
 10
243.1347073349297
 20
167.8155242675995
 30
144.1634983360548
 40
2.75
  1
記號
  7
CHINESET
100
AcDbText
  0
TEXT
  5
800
330
1F
100
AcDbEntity
  8
LOGO
100
AcDbText
 10
224.2849321598094
 20
177.2455624317865
 30
144.1634983360548
 40
2.75
  1
MBS
  7
CHINESET
100
AcDbText
  0
TEXT
  5
801
330
1F
100
AcDbEntity
  8
LOGO
100
AcDbText
 10
244.3298831415459
 20
177.2455624317865
 30
144.1634983360548
 40
2.75
  1
06
  7
CHINESET
100
AcDbText
  0
LINE
  5
802
330
1F
100
AcDbEntity
  8
LOGO
 62
     4
100
AcDbLine
 10
251.8511879389895
 20
171.6838504804073
 30
0.0
 11
251.8511879389895
 21
163.6183518378729
 31
0.0
  0
LINE
  5
80E
330
1F
100
AcDbEntity
  8
0
100
AcDbLine
 10
282.9337770597517
 20
268.2351152191644
 30
0.0
 11
282.9337770597517
 21
280.2351152191643
 31
0.0
  0
LINE
  5
80F
330
1F
100
AcDbEntity
  8
0
100
AcDbLine
 10
301.4289856738198
 20
268.2351152191644
 30
0.0
 11
301.4289856738198
 21
280.2351152191644
 31
0.0
  0
LINE
  5
810
330
1F
100
AcDbEntity
  8
AM_VIS
100
AcDbLine
 10
301.4289856738198
 20
352.0139237633894
 30
0.0
 11
301.1811374098701
 21
352.443209549118
 31
0.0
  0
LINE
  5
811
330
1F
100
AcDbEntity
  8
AM_VIS
100
AcDbLine
 10
301.1811374098701
 20
351.5846379776608
 30
0.0
 11
301.4289856738197
 21
352.0139237633894
 31
0.0
  0
LINE
  5
812
330
1F
100
AcDbEntity
  8
0
100
AcDbLine
 10
195.9109985138709
 20
253.0151152191644
 30
0.0
 11
191.0341041394886
 21
253.0151152191644
 31
0.0
  0
LINE
  5
813
330
1F
100
AcDbEntity
  8
0
100
AcDbLine
 10
182.7878928882532
 20
253.0151152191644
 30
0.0
 11
177.910998513871
 21
253.0151152191644
 31
0.0
  0
LINE
  5
814
330
1F
100
AcDbEntity
  8
0
100
AcDbLine
 10
234.9313813667858
 20
275.0163013923307
 30
0.0
 11
234.9313813667858
 21
252.0151152191644
 31
0.0
  0
LINE
  5
815
330
1F
100
AcDbEntity
  8
0
100
AcDbLine
 10
267.9313813667858
 20
275.0163013923307
 30
0.0
 11
267.9313813667858
 21
252.0151152191644
 31
0.0
  0
LINE
  5
816
330
1F
100
AcDbEntity
  8
0
  6
CENTER
 62
     1
100
AcDbLine
 10
251.4313813667858
 20
312.8885432570626
 30
0.0
 11
251.4313813667858
 21
251.5286613687072
 31
0.0
  0
LINE
  5
817
330
1F
100
AcDbEntity
  8
0
100
AcDbLine
 10
254.4313813667858
 20
273.9851152191644
 30
0.0
 11
254.4313813667858
 21
252.0151152191644
 31
0.0
  0
LINE
  5
818
330
1F
100
AcDbEntity
  8
0
100
AcDbLine
 10
248.4313813667858
 20
273.9851152191644
 30
0.0
 11
248.4313813667858
 21
252.0151152191644
 31
0.0
  0
LINE
  5
819
330
1F
100
AcDbEntity
  8
0
100
AcDbLine
 10
329.0307474009371
 20
253.0151152191645
 30
0.0
 11
333.9076417753195
 21
253.0151152191645
 31
0.0
  0
LINE
  5
81A
330
1F
100
AcDbEntity
  8
0
100
AcDbLine
 10
342.1538530265548
 20
253.0151152191645
 30
0.0
 11
347.0307474009371
 21
253.0151152191645
 31
0.0
  0
DIMENSION
  5
81B
330
1F
100
AcDbEntity
  8
0
100
AcDbDimension
  2
*D11
 10
231.2721550932329
 20
221.9760060562236
 30
0.0
 11
228.7721550932328
 21
216.3760060562237
 31
0.0
 70
    32
 71
     5
 42
11.19999999999999
  3
STANDARD
100
AcDbAlignedDimension
 13
249.3676033941047
 23
210.7760060562237
 33
0.0
 14
249.3676033941047
 24
221.9760060562236
 34
0.0
 50
90.0
100
AcDbRotatedDimension
1001
ACAD
1000
DSTYLE
1002
{
1070
   176
1070
     5
1070
   177
1070
     5
1070
   178
1070
     5
1070
   272
1070
     8
1002
}
  0
MTEXT
  5
81C
330
1F
100
AcDbEntity
  8
AM_6
100
AcDbMText
 10
164.1770216146974
 20
241.4262033507313
 30
0.0
 40
3.5
 41
11.67413353253869
 71
     1
 72
     5
  1
{\C5;2-PT1/4}
 73
     1
 44
1.0
1001
GENIUS_AMGTXT_16
1040
3.5
1040
0.12
1001
ACAD
1000
MTEXTBEGIN
1070
    73
1070
     1
1070
    44
1040
1.0
1070
    74
1070
     0
1000
MTEXTEND
  0
LEADER
  5
81D
330
1F
100
AcDbEntity
  8
0
100
AcDbLeader
  3
STANDARD
 76
     3
 10
184.6793560915001
 20
256.1740880859268
 30
0.0
 10
181.0202990222785
 20
237.3618260336088
 30
0.0
 10
163.9447008397394
 20
237.3618260336088
 30
0.0
1001
ACAD
1000
DSTYLE
1002
{
1070
   176
1070
     5
1070
   177
1070
     5
1070
   178
1070
     5
1070
   272
1070
     8
1002
}
  0
DIMENSION
  5
81E
330
1F
100
AcDbEntity
  8
0
100
AcDbDimension
  2
*D12
 10
301.4289856738198
 20
317.2383485593295
 30
0.0
 11
276.4301835203028
 21
319.7383485593295
 31
0.0
 70
    32
 71
     5
 42
49.99760430703401
  3
STANDARD
100
AcDbAlignedDimension
 13
251.4313813667858
 23
312.8885432570626
 33
0.0
 14
301.4289856738198
 24
280.2351152191644
 34
0.0
100
AcDbRotatedDimension
1001
ACAD
1000
DSTYLE
1002
{
1070
   176
1070
     5
1070
   177
1070
     5
1070
   178
1070
     5
1070
   272
1070
     8
1002
}
  0
LINE
  5
81F
330
1F
100
AcDbEntity
  8
0
100
AcDbLine
 10
240.6813813667857
 20
341.0139237633893
 30
0.0
 11
240.6813813667858
 21
363.0139237633893
 31
0.0
  0
DIMENSION
  5
820
330
1F
100
AcDbEntity
  8
0
100
AcDbDimension
  2
*D13
 10
228.1796661573622
 20
261.0151152191644
 30
0.0
 11
225.6796661573622
 21
286.5151152191645
 31
0.0
 70
    32
 71
     5
 42
51.0
  3
STANDARD
100
AcDbAlignedDimension
 13
247.6813813667858
 23
312.0151152191644
 33
0.0
 14
233.4313813667858
 24
261.0151152191644
 34
0.0
 50
90.0
100
AcDbRotatedDimension
1001
ACAD
1000
DSTYLE
1002
{
1070
   176
1070
     5
1070
   177
1070
     5
1070
   178
1070
     5
1070
   272
1070
     8
1002
}
  0
DIMENSION
  5
821
330
1F
100
AcDbEntity
  8
0
100
AcDbDimension
  2
*D14
 10
166.6786163857152
 20
252.0151152191644
 30
0.0
 11
164.1786163857152
 21
282.0151152191645
 31
0.0
 70
    32
 71
     5
 42
60.00000000000008
  3
STANDARD
100
AcDbAlignedDimension
 13
182.6609985138709
 23
312.0151152191644
 33
0.0
 14
186.9109985138709
 24
252.0151152191644
 34
0.0
 50
90.0
100
AcDbRotatedDimension
1001
ACAD
1000
DSTYLE
1002
{
1070
   176
1070
     5
1070
   177
1070
     5
1070
   178
1070
     5
1070
   272
1070
     8
1002
}
  0
DIMENSION
  5
822
330
1F
100
AcDbEntity
  8
0
100
AcDbDimension
  2
*D15
 10
301.4289856738198
 20
369.5883486339628
 30
0.0
 11
268.1801835203028
 21
372.0883486339628
 31
0.0
 70
    32
 71
     5
 42
66.49760430703401
  3
STANDARD
100
AcDbAlignedDimension
 13
234.9313813667858
 23
361.1139237633893
 33
0.0
 14
301.4289856738198
 24
352.0139237633894
 34
0.0
100
AcDbRotatedDimension
1001
ACAD
1000
DSTYLE
1002
{
1070
   176
1070
     5
1070
   177
1070
     5
1070
   178
1070
     5
1070
   272
1070
     8
1002
}
  0
DIMENSION
  5
823
330
1F
100
AcDbEntity
  8
0
100
AcDbDimension
  2
*D16
 10
267.9313813667858
 20
245.1137405995608
 30
0.0
 11
251.4313813667858
 21
247.6137405995608
 31
0.0
 70
    32
 71
     5
 42
33.0
  3
STANDARD
100
AcDbAlignedDimension
 13
234.9313813667858
 23
252.0151152191644
 33
0.0
 14
267.9313813667858
 24
252.0151152191644
 34
0.0
100
AcDbRotatedDimension
1001
ACAD
1000
DSTYLE
1002
{
1070
   176
1070
     5
1070
   177
1070
     5
1070
   178
1070
     5
1070
   272
1070
     8
1002
}
  0
POINT
  5
824
330
1F
100
AcDbEntity
  8
0
 60
     1
100
AcDbPoint
 10
-2028.929266792305
 20
-698.8074322365065
 30
0.0
1001
GENIUS_GENOBJ-N-CRS_13
1002
{
1000
OWNER
1000
GEN
1002
}
1001
GENIUS_GENOLIS_13
1002
{
1000
ENT
1005
0
1005
0
1005
0
1005
7D3
1002
}
1001
GENIUS_GENOENT_13
1002
{
1000
MYREF
1005
824
1002
}
1002
{
1000
GRP
1005
0
1002
}
1001
GENIUS_GENODEF_13
1002
{
1000
HIER
1070
    10
1002
}
1002
{
1000
MANEDIT
1070
     1
1002
}
1002
{
1000
NOSEL
1070
     0
1002
}
1002
{
1000
BEHIND
1070
     0
1002
}
1002
{
1000
OTHER
1070
     0
1002
}
1002
{
1000
REACTOR
1002
}
  0
POINT
  5
825
330
1F
100
AcDbEntity
  8
0
 60
     1
100
AcDbPoint
 10
-2040.25385201516
 20
-689.9318457578702
 30
0.0
1001
GENIUS_GENOBJ-N-CRS_13
1002
{
1000
OWNER
1000
GEN
1002
}
1001
GENIUS_GENOLIS_13
1002
{
1000
ENT
1005
0
1005
0
1005
0
1005
7D2
1002
}
1001
GENIUS_GENOENT_13
1002
{
1000
MYREF
1005
825
1002
}
1002
{
1000
GRP
1005
0
1002
}
1001
GENIUS_GENODEF_13
1002
{
1000
HIER
1070
    10
1002
}
1002
{
1000
MANEDIT
1070
     1
1002
}
1002
{
1000
NOSEL
1070
     0
1002
}
1002
{
1000
BEHIND
1070
     0
1002
}
1002
{
1000
OTHER
1070
     0
1002
}
1002
{
1000
REACTOR
1002
}
  0
POINT
  5
826
330
1F
100
AcDbEntity
  8
0
 60
     1
100
AcDbPoint
 10
-2033.895178317322
 20
-698.8074322365065
 30
0.0
1001
GENIUS_GENOBJ-N-CRS_13
1002
{
1000
OWNER
1000
GEN
1002
}
1001
GENIUS_GENOLIS_13
1002
{
1000
ENT
1005
0
1005
0
1005
0
1005
7D1
1002
}
1001
GENIUS_GENOENT_13
1002
{
1000
MYREF
1005
826
1002
}
1002
{
1000
GRP
1005
0
1002
}
1001
GENIUS_GENODEF_13
1002
{
1000
HIER
1070
    10
1002
}
1002
{
1000
MANEDIT
1070
     1
1002
}
1002
{
1000
NOSEL
1070
     0
1002
}
1002
{
1000
BEHIND
1070
     0
1002
}
1002
{
1000
OTHER
1070
     0
1002
}
1002
{
1000
REACTOR
1002
}
  0
INSERT
  5
9FC
330
1F
100
AcDbEntity
  8
AM_5
 62
     5
100
AcDbBlockReference
  2
*S18
 10
0.0
 20
0.0
 30
0.0
  0
TEXT
  5
9FE
330
1F
100
AcDbEntity
  8
0
 62
     5
100
AcDbText
 10
227.7591173077803
 20
233.7766874790862
 30
0.0
 40
3.0
  1
2-M3x0.5
100
AcDbText
  0
ENDSEC
  0
SECTION
  2
OBJECTS
  0
DICTIONARY
  5
C
330
0
100
AcDbDictionary
281
     1
  3
ACAD_COLOR
350
BE
  3
ACAD_GROUP
350
D
  3
ACAD_LAYOUT
350
1A
  3
ACAD_MATERIAL
350
BD
  3
ACAD_MLINESTYLE
350
17
  3
ACAD_PLOTSETTINGS
350
19
  3
ACAD_PLOTSTYLENAME
350
E
  3
ACAD_TABLESTYLE
350
11A
  3
ACDBHEADERROUNDTRIPXREC
350
A20
  3
AcDbVariableDictionary
350
94
  3
AcmDictionary
350
5B
  3
AMG
350
41
  3
AMGSNAPSETTINGS
350
1B8
  3
DWGPROPS
350
A1F
  0
DICTIONARY
  5
3C6
330
2
100
AcDbDictionary
280
     1
281
     1
  3
ACAD_LAYERSTATES
360
3C7
  0
DICTIONARY
  5
8F
330
1F
100
AcDbDictionary
280
     1
281
     1
  3
ACAD_SORTENTS
360
8C9
  0
DICTIONARY
  5
BE
102
{ACAD_REACTORS
330
C
102
}
330
C
100
AcDbDictionary
281
     1
  0
DICTIONARY
  5
D
102
{ACAD_REACTORS
330
C
102
}
330
C
100
AcDbDictionary
281
     1
  0
DICTIONARY
  5
1A
102
{ACAD_REACTORS
330
C
102
}
330
C
100
AcDbDictionary
281
     1
  3
Model
350
22
  3
配置1
350
1E
  3
配置2
350
26
  0
DICTIONARY
  5
BD
102
{ACAD_REACTORS
330
C
102
}
330
C
100
AcDbDictionary
281
     1
  0
DICTIONARY
  5
17
102
{ACAD_REACTORS
330
C
102
}
330
C
100
AcDbDictionary
281
     1
  3
Standard
350
18
  0
DICTIONARY
  5
19
102
{ACAD_REACTORS
330
C
102
}
330
C
100
AcDbDictionary
281
     1
  0
ACDBDICTIONARYWDFLT
  5
E
102
{ACAD_REACTORS
330
C
102
}
330
C
100
AcDbDictionary
281
     1
  3
Normal
350
F
100
AcDbDictionaryWithDefault
340
F
  0
DICTIONARY
  5
11A
102
{ACAD_REACTORS
330
C
102
}
330
C
100
AcDbDictionary
281
     1
  3
Standard
350
11B
  0
DICTIONARY
  5
A20
102
{ACAD_REACTORS
330
C
102
}
330
C
100
AcDbDictionary
281
     1
  0
DICTIONARY
  5
94
102
{ACAD_REACTORS
330
C
102
}
330
C
100
AcDbDictionary
281
     1
  3
CTABLESTYLE
350
138
  3
DIMASSOC
350
96
  3
INDEXCTL
350
95
  3
PROJECTNAME
350
964
  0
DICTIONARY
  5
5B
102
{ACAD_REACTORS
330
C
102
}
330
C
100
AcDbDictionary
281
     1
  3
AcmBOM
350
1B5
  3
AcmStdDictionary
350
61
  3
AMDTSECTSYM_ARROWCOLOR
350
123
  0
DICTIONARY
  5
41
102
{ACAD_REACTORS
330
C
102
}
330
C
100
AcDbDictionary
281
     1
  0
DICTIONARY
  5
1B8
102
{ACAD_REACTORS
330
C
102
}
330
C
100
AcDbDictionary
281
     1
  0
XRECORD
  5
A1F
102
{ACAD_REACTORS
330
C
102
}
330
C
100
AcDbXrecord
280
     1
  1
DWGPROPS COOKIE
  2

  3

  4

  6

  7

  8

  9

300
AmdtFileType=84
301
=
302
=
303
=
304
=
305
=
306
=
307
=
308
=
309
=
 40
0.0067950694444444
 41
2453880.618711111
 42
2454539.414890579
  1

 90
        1
  0
DICTIONARY
  5
3C7
102
{ACAD_REACTORS
330
3C6
102
}
330
3C6
100
AcDbDictionary
281
     1
  0
SORTENTSTABLE
  5
8C9
102
{ACAD_REACTORS
330
8F
102
}
330
8F
100
AcDbSortentsTable
330
1F
331
811
  5
812
331
7C2
  5
7C2
331
819
  5
81A
331
7CA
  5
7CA
331
821
  5
822
331
7D2
  5
7D2
331
630
  5
630
331
7DA
  5
7DA
331
677
  5
677
331
74E
  5
74E
331
638
  5
638
331
78D
  5
78D
331
795
  5
795
331
640
  5
640
331
67F
  5
67F
331
609
  5
609
331
756
  5
756
331
75E
  5
75E
331
79D
  5
79D
331
648
  5
648
331
766
  5
766
331
7E2
  5
7E3
331
7A3
  5
7A3
331
802
  5
80E
331
650
  5
650
331
7BB
  5
7BB
331
611
  5
611
331
76E
  5
76E
331
6DF
  5
6DF
331
619
  5
619
331
658
  5
658
331
776
  5
776
331
660
  5
660
331
621
  5
621
331
6E7
  5
6E7
331
668
  5
668
331
629
  5
629
331
77E
  5
77E
331
786
  5
786
331
747
  5
747
331
812
  5
813
331
7C3
  5
7C3
331
81A
  5
81B
331
7CB
  5
7CB
331
7D3
  5
7D3
331
822
  5
823
331
670
  5
670
331
7DB
  5
7DB
331
631
  5
631
331
74F
  5
74F
331
78E
  5
78E
331
639
  5
639
331
678
  5
678
331
680
  5
680
331
757
  5
757
331
60A
  5
60A
331
641
  5
641
331
75F
  5
75F
331
79E
  5
79E
331
649
  5
649
331
767
  5
767
331
7A4
  5
7A4
331
7E3
  5
7E4
331
651
  5
651
331
7BC
  5
7BC
331
612
  5
612
331
76F
  5
76F
331
6E0
  5
6E0
331
659
  5
659
331
61A
  5
61A
331
777
  5
777
331
6E8
  5
6E8
331
661
  5
661
331
622
  5
622
331
77F
  5
77F
331
62A
  5
62A
331
669
  5
669
331
787
  5
787
331
813
  5
814
331
7C4
  5
7C4
331
81B
  5
81C
331
7CC
  5
7CC
331
823
  5
8C8
331
7D4
  5
7D4
331
671
  5
671
331
632
  5
632
331
748
  5
748
331
7DC
  5
7DC
331
679
  5
679
331
750
  5
750
331
78F
  5
78F
331
63A
  5
63A
331
642
  5
642
331
681
  5
681
331
60B
  5
60B
331
758
  5
758
331
760
  5
760
331
64A
  5
64A
331
7E4
  5
7E5
331
7A5
  5
7A5
331
7AD
  5
7AD
331
7FC
  5
7FD
331
7B5
  5
7B5
331
768
  5
768
331
652
  5
652
331
7BD
  5
7BD
331
613
  5
613
331
770
  5
770
331
6E1
  5
6E1
331
61B
  5
61B
331
65A
  5
65A
331
778
  5
778
331
662
  5
662
331
623
  5
623
331
6E9
  5
6E9
331
780
  5
780
331
66A
  5
66A
331
62B
  5
62B
331
814
  5
815
331
7C5
  5
7C5
331
7CD
  5
7CD
331
81C
  5
81D
331
7D5
  5
7D5
331
788
  5
788
331
672
  5
672
331
7DD
  5
7DD
331
633
  5
633
331
749
  5
749
331
751
  5
751
331
790
  5
790
331
63B
  5
63B
331
67A
  5
67A
331
682
  5
682
331
759
  5
759
331
60C
  5
60C
331
643
  5
643
331
761
  5
761
331
64B
  5
64B
331
7A6
  5
7A6
331
7E5
  5
7E6
331
7FD
  5
800
331
7B6
  5
7B6
331
653
  5
653
331
7BE
  5
7BE
331
614
  5
614
331
769
  5
769
331
771
  5
771
331
6E2
  5
6E2
331
65B
  5
65B
331
61C
  5
61C
331
779
  5
779
331
6EA
  5
6EA
331
663
  5
663
331
624
  5
624
331
781
  5
781
331
62C
  5
62C
331
66B
  5
66B
331
815
  5
816
331
7C6
  5
7C6
331
81D
  5
81E
331
7CE
  5
7CE
331
7D6
  5
7D6
331
673
  5
673
331
7DE
  5
7DE
331
634
  5
634
331
74A
  5
74A
331
789
  5
789
331
791
  5
791
331
63C
  5
63C
331
67B
  5
67B
331
605
  5
605
331
752
  5
752
331
799
  5
799
331
644
  5
644
331
683
  5
683
331
60D
  5
60D
331
75A
  5
75A
331
762
  5
762
331
64C
  5
64C
331
7E6
  5
7E7
331
7A7
  5
7A7
331
7B7
  5
7B7
331
76A
  5
76A
331
654
  5
654
331
80E
  5
80F
331
7BF
  5
7BF
331
615
  5
615
331
772
  5
772
331
6E3
  5
6E3
331
61D
  5
61D
331
65C
  5
65C
331
77A
  5
77A
331
664
  5
664
331
625
  5
625
331
6EB
  5
6EB
331
782
  5
782
331
66C
  5
66C
331
62D
  5
62D
331
816
  5
817
331
7C7
  5
7C7
331
7CF
  5
7CF
331
81E
  5
81F
331
7D7
  5
7D7
331
78A
  5
78A
331
674
  5
674
331
7DF
  5
7DF
331
635
  5
635
331
74B
  5
74B
331
753
  5
753
331
792
  5
792
331
63D
  5
63D
331
67C
  5
67C
331
606
  5
606
331
684
  5
684
331
75B
  5
75B
331
60E
  5
60E
331
645
  5
645
331
64D
  5
64D
331
763
  5
763
331
7A8
  5
7A8
331
7E7
  5
7FC
331
655
  5
655
331
616
  5
616
331
76B
  5
76B
331
80F
  5
810
331
773
  5
773
331
6E4
  5
6E4
331
65D
  5
65D
331
61E
  5
61E
331
77B
  5
77B
331
6EC
  5
6EC
331
665
  5
665
331
626
  5
626
331
744
  5
744
331
783
  5
783
331
62E
  5
62E
331
66D
  5
66D
331
7C0
  5
7C0
331
817
  5
818
331
7C8
  5
7C8
331
81F
  5
820
331
7D0
  5
7D0
331
7D8
  5
7D8
331
675
  5
675
331
636
  5
636
331
74C
  5
74C
331
78B
  5
78B
331
793
  5
793
331
63E
  5
63E
331
67D
  5
67D
331
607
  5
607
331
754
  5
754
331
646
  5
646
331
685
  5
685
331
60F
  5
60F
331
75C
  5
75C
331
764
  5
764
331
64E
  5
64E
331
7E0
  5
7E0
331
7A9
  5
7A9
331
800
  5
801
331
7B1
  5
7B1
331
76C
  5
76C
331
656
  5
656
331
617
  5
617
331
774
  5
774
331
65E
  5
65E
331
61F
  5
61F
331
6E5
  5
6E5
331
77C
  5
77C
331
666
  5
666
331
627
  5
627
331
6ED
  5
6ED
331
784
  5
784
331
66E
  5
66E
331
62F
  5
62F
331
745
  5
745
331
810
  5
811
331
7C1
  5
7C1
331
818
  5
819
331
7C9
  5
7C9
331
7D1
  5
7D1
331
820
  5
821
331
7D9
  5
7D9
331
74D
  5
74D
331
78C
  5
78C
331
676
  5
676
331
637
  5
637
331
755
  5
755
331
794
  5
794
331
608
  5
608
331
63F
  5
63F
331
67E
  5
67E
331
686
  5
686
331
75D
  5
75D
331
647
  5
647
331
64F
  5
64F
331
765
  5
765
331
7A2
  5
7A2
331
7E1
  5
7E2
331
801
  5
802
331
610
  5
610
331
657
  5
657
331
618
  5
618
331
76D
  5
76D
331
775
  5
775
331
6E6
  5
6E6
331
65F
  5
65F
331
620
  5
620
331
77D
  5
77D
331
667
  5
667
331
628
  5
628
331
66F
  5
66F
331
746
  5
746
331
785
  5
785
  0
LAYOUT
  5
22
102
{ACAD_XDICTIONARY
360
A23
102
}
102
{ACAD_REACTORS
330
1A
102
}
330
1A
100
AcDbPlotSettings
  1

  2
\\RDS1\iR3300影印機
  4
A4
  6

 40
6.805083274841308
 41
5.619736671447753
 42
6.974411010742187
 43
5.027069091796875
 44
209.9733276367187
 45
296.9259948730469
 46
0.0
 47
0.0
 48
0.0
 49
0.0
140
0.0
141
0.0
142
1.0
143
1.157729843319109
 70
 11952
 72
     1
 73
     1
 74
     0
  7
彩色出圖.ctb
 75
     0
147
0.8637593699174995
148
-95.63332932826734
149
-160.9318873238153
100
AcDbLayout
  1
Model
 70
     1
 71
     0
 10
0.0
 20
0.0
 11
12.0
 21
9.0
 12
0.0
 22
0.0
 32
0.0
 14
0.0
 24
0.0
 34
0.0
 15
0.0
 25
0.0
 35
0.0
146
0.0
 13
0.0
 23
0.0
 33
0.0
 16
1.0
 26
0.0
 36
0.0
 17
0.0
 27
1.0
 37
0.0
 76
     0
330
1F
1001
ACAD_PSEXT
1000
\\RDS1\iR3300影印機
1000
Canon iR2200-3300 PCL5e
1000
\\RDS1
1000

1070
     0
  0
LAYOUT
  5
1E
102
{ACAD_XDICTIONARY
360
A21
102
}
102
{ACAD_REACTORS
330
1A
102
}
330
1A
100
AcDbPlotSettings
  1

  2

  4

  6

 40
0.0
 41
0.0
 42
0.0
 43
0.0
 44
0.0
 45
0.0
 46
0.0
 47
0.0
 48
0.0
 49
0.0
140
0.0
141
0.0
142
1.0
143
1.0
 70
   688
 72
     0
 73
     0
 74
     5
  7
彩色出圖.ctb
 75
    16
147
1.0
148
0.0
149
0.0
100
AcDbLayout
  1
配置1
 70
     1
 71
     1
 10
0.0
 20
0.0
 11
420.0
 21
297.0
 12
0.0
 22
0.0
 32
0.0
 14
1.000000000000000E+20
 24
1.000000000000000E+20
 34
1.000000000000000E+20
 15
-1.000000000000000E+20
 25
-1.000000000000000E+20
 35
-1.000000000000000E+20
146
0.0
 13
0.0
 23
0.0
 33
0.0
 16
1.0
 26
0.0
 36
0.0
 17
0.0
 27
1.0
 37
0.0
 76
     0
330
1B
  0
LAYOUT
  5
26
102
{ACAD_XDICTIONARY
360
A25
102
}
102
{ACAD_REACTORS
330
1A
102
}
330
1A
100
AcDbPlotSettings
  1

  2

  4

  6

 40
0.0
 41
0.0
 42
0.0
 43
0.0
 44
0.0
 45
0.0
 46
0.0
 47
0.0
 48
0.0
 49
0.0
140
0.0
141
0.0
142
1.0
143
1.0
 70
   688
 72
     0
 73
     0
 74
     5
  7
彩色出圖.ctb
 75
    16
147
1.0
148
0.0
149
0.0
100
AcDbLayout
  1
配置2
 70
     1
 71
     2
 10
0.0
 20
0.0
 11
12.0
 21
9.0
 12
0.0
 22
0.0
 32
0.0
 14
0.0
 24
0.0
 34
0.0
 15
0.0
 25
0.0
 35
0.0
146
0.0
 13
0.0
 23
0.0
 33
0.0
 16
1.0
 26
0.0
 36
0.0
 17
0.0
 27
1.0
 37
0.0
 76
     0
330
23
  0
MLINESTYLE
  5
18
102
{ACAD_REACTORS
330
17
102
}
330
17
100
AcDbMlineStyle
  2
STANDARD
 70
     0
  3

 62
   256
 51
90.0
 52
90.0
 71
     2
 49
0.5
 62
   256
  6
BYLAYER
 49
-0.5
 62
   256
  6
BYLAYER
  0
ACDBPLACEHOLDER
  5
F
102
{ACAD_REACTORS
330
E
102
}
330
E
  0
TABLESTYLE
  5
11B
102
{ACAD_REACTORS
330
11A
102
}
330
11A
100
AcDbTableStyle
  3
Standard
 70
     0
 71
     0
 40
1.5
 41
1.5
280
     0
281
     0
  7
STANDARD
140
4.5
170
     2
 62
     0
 63
     7
283
     0
274
    -2
284
     1
 64
     0
275
    -2
285
     1
 65
     0
276
    -2
286
     1
 66
     0
277
    -2
287
     1
 67
     0
278
    -2
288
     1
 68
     0
279
    -2
289
     1
 69
     0
  7
STANDARD
140
6.0
170
     5
 62
     0
 63
     7
283
     0
274
    -2
284
     1
 64
     0
275
    -2
285
     1
 65
     0
276
    -2
286
     1
 66
     0
277
    -2
287
     1
 67
     0
278
    -2
288
     1
 68
     0
279
    -2
289
     1
 69
     0
  7
STANDARD
140
4.5
170
     5
 62
     0
 63
     7
283
     0
274
    -2
284
     1
 64
     0
275
    -2
285
     1
 65
     0
276
    -2
286
     1
 66
     0
277
    -2
287
     1
 67
     0
278
    -2
288
     1
 68
     0
279
    -2
289
     1
 69
     0
  0
DICTIONARYVAR
  5
138
102
{ACAD_REACTORS
330
94
102
}
330
94
100
DictionaryVariables
280
     0
  1
STANDARD
  0
DICTIONARYVAR
  5
96
102
{ACAD_REACTORS
330
94
102
}
330
94
100
DictionaryVariables
280
     0
  1
2
  0
DICTIONARYVAR
  5
95
102
{ACAD_REACTORS
330
94
102
}
330
94
100
DictionaryVariables
280
     0
  1
0
  0
DICTIONARYVAR
  5
964
102
{ACAD_REACTORS
330
94
102
}
330
94
100
DictionaryVariables
280
     0
  1

  0
DICTIONARY
  5
1B5
102
{ACAD_REACTORS
330
5B
102
}
330
5B
100
AcDbDictionary
281
     1
  0
DICTIONARY
  5
61
102
{ACAD_REACTORS
330
5B
102
}
330
5B
100
AcDbDictionary
281
     1
  0
XRECORD
  5
123
102
{ACAD_REACTORS
330
5B
102
}
330
5B
100
AcDbXrecord
280
     1
 90
-1023410169
  0
DICTIONARY
  5
A23
330
22
100
AcDbDictionary
280
     1
281
     1
  3
ACAD_XREC_ROUNDTRIP
360
A24
  0
DICTIONARY
  5
A21
330
1E
100
AcDbDictionary
280
     1
281
     1
  3
ACAD_XREC_ROUNDTRIP
360
A22
  0
DICTIONARY
  5
A25
330
26
100
AcDbDictionary
280
     1
281
     1
  3
ACAD_XREC_ROUNDTRIP
360
A26
  0
XRECORD
  5
A24
102
{ACAD_REACTORS
330
A23
102
}
330
A23
100
AcDbXrecord
280
     1
102
SHADEPLOT
 70
     0
102
SHADEPLOTRESLEVEL
 70
     2
102
SHADEPLOTCUSTOMDPI
 70
   300
  0
XRECORD
  5
A22
102
{ACAD_REACTORS
330
A21
102
}
330
A21
100
AcDbXrecord
280
     1
102
SHADEPLOT
 70
     0
102
SHADEPLOTRESLEVEL
 70
     2
102
SHADEPLOTCUSTOMDPI
 70
   300
  0
XRECORD
  5
A26
102
{ACAD_REACTORS
330
A25
102
}
330
A25
100
AcDbXrecord
280
     1
102
SHADEPLOT
 70
     0
102
SHADEPLOTRESLEVEL
 70
     2
102
SHADEPLOTCUSTOMDPI
 70
   300
  0
ENDSEC
  0
EOF
