  0
SECTION
  2
HEADER
  9
$ACADVER
  1
AC1015
  9
$ACADMAINTVER
 70
    20
  9
$DWGCODEPAGE
  3
ANSI_950
  9
$INSBASE
 10
0.0
 20
0.0
 30
0.0
  9
$EXTMIN
 10
1.000000000000000E+20
 20
1.000000000000000E+20
 30
1.000000000000000E+20
  9
$EXTMAX
 10
-1.000000000000000E+20
 20
-1.000000000000000E+20
 30
-1.000000000000000E+20
  9
$LIMMIN
 10
0.0
 20
0.0
  9
$LIMMAX
 10
420.0
 20
297.0
  9
$ORTHOMODE
 70
     1
  9
$REGENMODE
 70
     1
  9
$FILLMODE
 70
     1
  9
$QTEXTMODE
 70
     0
  9
$MIRRTEXT
 70
     1
  9
$LTSCALE
 40
1.0
  9
$ATTMODE
 70
     1
  9
$TEXTSIZE
 40
1.0
  9
$TRACEWID
 40
1.0
  9
$TEXTSTYLE
  7
STANDARD
  9
$CLAYER
  8
0
  9
$CELTYPE
  6
BYLAYER
  9
$CECOLOR
 62
   256
  9
$CELTSCALE
 40
1.0
  9
$DISPSILH
 70
     0
  9
$DIMSCALE
 40
0.6666666666666666
  9
$DIMASZ
 40
3.0
  9
$DIMEXO
 40
1.0
  9
$DIMDLI
 40
10.0
  9
$DIMRND
 40
0.0
  9
$DIMDLE
 40
0.0
  9
$DIMEXE
 40
1.0
  9
$DIMTP
 40
0.1
  9
$DIMTM
 40
0.1
  9
$DIMTXT
 40
3.5
  9
$DIMCEN
 40
0.0
  9
$DIMTSZ
 40
0.0
  9
$DIMTOL
 70
     0
  9
$DIMLIM
 70
     0
  9
$DIMTIH
 70
     0
  9
$DIMTOH
 70
     0
  9
$DIMSE1
 70
     0
  9
$DIMSE2
 70
     0
  9
$DIMTAD
 70
     1
  9
$DIMZIN
 70
     8
  9
$DIMBLK
  1

  9
$DIMASO
 70
     1
  9
$DIMSHO
 70
     1
  9
$DIMPOST
  1

  9
$DIMAPOST
  1
"
  9
$DIMALT
 70
     0
  9
$DIMALTD
 70
     2
  9
$DIMALTF
 40
0.0393701
  9
$DIMLFAC
 40
1.0
  9
$DIMTOFL
 70
     1
  9
$DIMTVP
 40
0.0
  9
$DIMTIX
 70
     0
  9
$DIMSOXD
 70
     0
  9
$DIMSAH
 70
     0
  9
$DIMBLK1
  1

  9
$DIMBLK2
  1

  9
$DIMSTYLE
  2
AM_ISO
  9
$DIMCLRD
 70
   256
  9
$DIMCLRE
 70
   256
  9
$DIMCLRT
 70
   256
  9
$DIMTFAC
 40
0.71
  9
$DIMGAP
 40
1.0
  9
$DIMJUST
 70
     0
  9
$DIMSD1
 70
     0
  9
$DIMSD2
 70
     0
  9
$DIMTOLJ
 70
     0
  9
$DIMTZIN
 70
     8
  9
$DIMALTZ
 70
     8
  9
$DIMALTTZ
 70
     0
  9
$DIMUPT
 70
     0
  9
$DIMDEC
 70
     2
  9
$DIMTDEC
 70
     8
  9
$DIMALTU
 70
     2
  9
$DIMALTTD
 70
     2
  9
$DIMTXSTY
  7
STANDARD
  9
$DIMAUNIT
 70
     0
  9
$DIMADEC
 70
     0
  9
$DIMALTRND
 40
0.0
  9
$DIMAZIN
 70
     2
  9
$DIMDSEP
 70
    46
  9
$DIMATFIT
 70
     3
  9
$DIMFRAC
 70
     0
  9
$DIMLDRBLK
  1

  9
$DIMLUNIT
 70
     2
  9
$DIMLWD
 70
    -1
  9
$DIMLWE
 70
    -1
  9
$DIMTMOVE
 70
     0
  9
$LUNITS
 70
     2
  9
$LUPREC
 70
     2
  9
$SKETCHINC
 40
1.0
  9
$FILLETRAD
 40
2.5
  9
$AUNITS
 70
     0
  9
$AUPREC
 70
     0
  9
$MENU
  1
.
  9
$ELEVATION
 40
0.0
  9
$PELEVATION
 40
0.0
  9
$THICKNESS
 40
0.0
  9
$LIMCHECK
 70
     0
  9
$CHAMFERA
 40
2.5
  9
$CHAMFERB
 40
2.5
  9
$CHAMFERC
 40
20.0
  9
$CHAMFERD
 40
0.0
  9
$SKPOLY
 70
     0
  9
$TDCREATE
 40
2455098.657891898
  9
$TDUCREATE
 40
2455098.324558565
  9
$TDUPDATE
 40
2455117.711545347
  9
$TDUUPDATE
 40
2455117.378212014
  9
$TDINDWG
 40
0.1146389931
  9
$TDUSRTIMER
 40
0.1146388079
  9
$USRTIMER
 70
     1
  9
$ANGBASE
 50
0.0
  9
$ANGDIR
 70
     0
  9
$PDMODE
 70
     0
  9
$PDSIZE
 40
0.0
  9
$PLINEWID
 40
0.0
  9
$SPLFRAME
 70
     0
  9
$SPLINETYPE
 70
     6
  9
$SPLINESEGS
 70
     8
  9
$HANDSEED
  5
10D7
  9
$SURFTAB1
 70
     6
  9
$SURFTAB2
 70
     6
  9
$SURFTYPE
 70
     6
  9
$SURFU
 70
     6
  9
$SURFV
 70
     6
  9
$UCSBASE
  2

  9
$UCSNAME
  2

  9
$UCSORG
 10
0.0
 20
0.0
 30
0.0
  9
$UCSXDIR
 10
1.0
 20
0.0
 30
0.0
  9
$UCSYDIR
 10
0.0
 20
1.0
 30
0.0
  9
$UCSORTHOREF
  2

  9
$UCSORTHOVIEW
 70
     0
  9
$UCSORGTOP
 10
0.0
 20
0.0
 30
0.0
  9
$UCSORGBOTTOM
 10
0.0
 20
0.0
 30
0.0
  9
$UCSORGLEFT
 10
0.0
 20
0.0
 30
0.0
  9
$UCSORGRIGHT
 10
0.0
 20
0.0
 30
0.0
  9
$UCSORGFRONT
 10
0.0
 20
0.0
 30
0.0
  9
$UCSORGBACK
 10
0.0
 20
0.0
 30
0.0
  9
$PUCSBASE
  2

  9
$PUCSNAME
  2

  9
$PUCSORG
 10
0.0
 20
0.0
 30
0.0
  9
$PUCSXDIR
 10
1.0
 20
0.0
 30
0.0
  9
$PUCSYDIR
 10
0.0
 20
1.0
 30
0.0
  9
$PUCSORTHOREF
  2

  9
$PUCSORTHOVIEW
 70
     0
  9
$PUCSORGTOP
 10
0.0
 20
0.0
 30
0.0
  9
$PUCSORGBOTTOM
 10
0.0
 20
0.0
 30
0.0
  9
$PUCSORGLEFT
 10
0.0
 20
0.0
 30
0.0
  9
$PUCSORGRIGHT
 10
0.0
 20
0.0
 30
0.0
  9
$PUCSORGFRONT
 10
0.0
 20
0.0
 30
0.0
  9
$PUCSORGBACK
 10
0.0
 20
0.0
 30
0.0
  9
$USERI1
 70
     0
  9
$USERI2
 70
     0
  9
$USERI3
 70
     0
  9
$USERI4
 70
     0
  9
$USERI5
 70
     0
  9
$USERR1
 40
0.0
  9
$USERR2
 40
0.0
  9
$USERR3
 40
0.0
  9
$USERR4
 40
0.0
  9
$USERR5
 40
0.0
  9
$WORLDVIEW
 70
     1
  9
$SHADEDGE
 70
     3
  9
$SHADEDIF
 70
    70
  9
$TILEMODE
 70
     0
  9
$MAXACTVP
 70
    48
  9
$PINSBASE
 10
0.0
 20
0.0
 30
0.0
  9
$PLIMCHECK
 70
     0
  9
$PEXTMIN
 10
8.815044552509107
 20
3.73337283036443
 30
-0.0015234476054502
  9
$PEXTMAX
 10
266.732111097214
 20
181.7155937533084
 30
127.3972050562932
  9
$PLIMMIN
 10
-3.35137939453125
 20
-4.536722183227539
  9
$PLIMMAX
 10
276.6130574544271
 20
193.4139410654703
  9
$UNITMODE
 70
     0
  9
$VISRETAIN
 70
     1
  9
$PLINEGEN
 70
     0
  9
$PSLTSCALE
 70
     1
  9
$TREEDEPTH
 70
  3020
  9
$CMLSTYLE
  2
STANDARD
  9
$CMLJUST
 70
     0
  9
$CMLSCALE
 40
1.0
  9
$PROXYGRAPHICS
 70
     1
  9
$MEASUREMENT
 70
     1
  9
$CELWEIGHT
370
    -1
  9
$ENDCAPS
280
     0
  9
$JOINSTYLE
280
     0
  9
$LWDISPLAY
290
     0
  9
$INSUNITS
 70
     4
  9
$HYPERLINKBASE
  1

  9
$STYLESHEET
  1

  9
$XEDIT
290
     1
  9
$CEPSNTYPE
380
     0
  9
$PSTYLEMODE
290
     1
  9
$FINGERPRINTGUID
  2
{ABADBDDE-0E5B-4D34-AA65-B642EA43533B}
  9
$VERSIONGUID
  2
{C8887589-5898-42F8-B026-4ECDF9B20FFC}
  9
$EXTNAMES
290
     1
  9
$PSVPSCALE
 40
0.0
  9
$OLESTARTUP
290
     0
  0
ENDSEC
  0
SECTION
  2
CLASSES
  0
CLASS
  1
DICTIONARYVAR
  2
AcDbDictionaryVar
  3
ObjectDBX Classes
 90
        0
280
     0
281
     0
  0
CLASS
  1
ACMESTATEMGR
  2
AcMeStateMgr
  3
AcMeServices
 90
        0
280
     0
281
     0
  0
CLASS
  1
ACMESCOPE
  2
AcMeScope
  3
AcMeServices
 90
        0
280
     0
281
     0
  0
CLASS
  1
ACMECOMMANDHISTORY
  2
AcMeCommandHistory
  3
AcMeServices
 90
        0
280
     0
281
     0
  0
CLASS
  1
ACRFINSADJUSTERMGR
  2
AcRfInsAdjusterMgr
  3
AcMeServices
 90
        0
280
     0
281
     0
  0
CLASS
  1
ACMEDRAWINGMAN
  2
AcMeDrawingMan
  3
AcMeServices
 90
        0
280
     0
281
     0
  0
CLASS
  1
AMATTR
  2
AcMeAttribute
  3
AcMeServices
 90
    32768
280
     0
281
     0
  0
CLASS
  1
ACMEBOMCOLUMN
  2
AcMeBOMColumn
  3
AcMeServices
 90
    32768
280
     0
281
     0
  0
CLASS
  1
ACMEBOMCONF
  2
AcMeBOMConf
  3
AcMeServices
 90
    32768
280
     0
281
     0
  0
CLASS
  1
ACMEBOMTABLE
  2
AcMeBOMTable
  3
AcMeServices
 90
    32768
280
     0
281
     0
  0
CLASS
  1
ACMEBOMENTRY
  2
AcMeBOMEntry
  3
AcMeServices
 90
    32768
280
     0
281
     0
  0
CLASS
  1
ACMEVIEW
  2
AcMeView
  3
AcMeServices
 90
        0
280
     0
281
     0
  0
CLASS
  1
ACGREFMASTER
  2
AcGrefMaster
  3
AcAttribServices
 90
        0
280
     0
281
     0
  0
CLASS
  1
AMIMASTER
  2
AmiMaster
  3
AmiServices
 90
        0
280
     0
281
     0
  0
CLASS
  1
ACASGREFMASTER
  2
AcAsGrefMaster
  3
AutoSurfResolverServices
 90
        0
280
     0
281
     0
  0
CLASS
  1
ADAPPL
  2
AcAdAppl
  3
DesignerServices
 90
        0
280
     0
281
     0
  0
CLASS
  1
DEPMGR
  2
AcAdDepMgr
  3
DesignerServices
 90
        0
280
     0
281
     0
  0
CLASS
  1
PARAMMGR
  2
AcAdParamMgr
  3
DesignerServices
 90
        0
280
     0
281
     0
  0
CLASS
  1
PARAMSCOPE
  2
AcAdParamScope
  3
DesignerServices
 90
        0
280
     0
281
     0
  0
CLASS
  1
ACIMSYSVARMAN
  2
AcImSysVarManager
  3
AcMeServices
 90
        0
280
     0
281
     0
  0
CLASS
  1
ACIMINTSYSVAR
  2
AcImIntSysVar
  3
AcMeServices
 90
        0
280
     0
281
     0
  0
CLASS
  1
ACIMREALSYSVAR
  2
AcImRealSysVar
  3
AcMeServices
 90
        0
280
     0
281
     0
  0
CLASS
  1
ACIMSTRSYSVAR
  2
AcImStrSysVar
  3
AcMeServices
 90
        0
280
     0
281
     0
  0
CLASS
  1
NAMEDAPPL
  2
AcAdNamedAppl
  3
DesignerServices
 90
        0
280
     0
281
     0
  0
CLASS
  1
ADHNTMPLT
  2
AdHoleNoteTemplateMgr
  3
DesignerServices
 90
    32768
280
     0
281
     0
  0
CLASS
  1
AM_HNTEMPLATE_MGR_NAME
  2
AdHoleNoteTemplateMgrName
  3
DesignerServices
 90
    32768
280
     0
281
     0
  0
CLASS
  1
ACADGREFMODULE
  2
AcAdGrefModule
  3
AdGrefServices
 90
        0
280
     0
281
     0
  0
CLASS
  1
AM_DRAWING_MGR
  2
AcDmDwgMgr
  3
AcMechDwgViewMgmt
 90
        0
280
     0
281
     0
  0
CLASS
  1
AM_DWG_DOCUMENT
  2
AcDmDwgDocument
  3
AcMechDwgViewMgmt
 90
        0
280
     0
281
     0
  0
CLASS
  1
AM_DWG_SHEET
  2
AcDmSheet
  3
AcMechDwgViewMgmt
 90
        0
280
     0
281
     0
  0
CLASS
  1
AM_VIEWDIMPARMAP
  2
AcDmViewDimParMap
  3
AcMechDwgViewMgmt
 90
        0
280
     0
281
     0
  0
CLASS
  1
AM_DWGMGR_NAME
  2
AcDmDwgMgrName
  3
AcMechDwgViewMgmt
 90
        0
280
     0
281
     0
  0
CLASS
  1
ACAMPROJECT
  2
AcAmProject
  3
DesignerAssemblies
 90
        0
280
     0
281
     0
  0
CLASS
  1
ACAMGRCOMPSET
  2
AcAmGrCompSet
  3
DesignerAssemblies
 90
    32768
280
     1
281
     0
  0
CLASS
  1
ACAMGRCOMPDEFSET
  2
AcAmGrCompDefSet
  3
DesignerAssemblies
 90
        0
280
     0
281
     0
  0
CLASS
  1
ACAMGRCOMPDEF
  2
AcAmGrCompDef
  3
DesignerAssemblies
 90
        0
280
     0
281
     0
  0
CLASS
  1
ACCMCONTEXT
  2
AcCmContext
  3
DesignerAssemblies
 90
        0
280
     0
281
     0
  0
CLASS
  1
ACAMCOMPDEF
  2
AcAmCompDef
  3
DesignerAssemblies
 90
        0
280
     0
281
     0
  0
CLASS
  1
ACAMCOMPDEFMGR
  2
AcAmCompDefMgr
  3
DesignerAssemblies
 90
        0
280
     0
281
     0
  0
CLASS
  1
AMCONTEXTMGR
  2
AcAmContextMgr
  3
DesignerAssemblies
 90
        0
280
     0
281
     0
  0
CLASS
  1
ACAMCONTEXTMODELER
  2
AcAmContextModeler
  3
DesignerAssemblies
 90
        0
280
     0
281
     0
  0
CLASS
  1
ACDMVIEWGEOM
  2
AcDmViewGeometry
  3
AcMechDwgViewMgmt
 90
    32768
280
     0
281
     1
  0
CLASS
  1
CBROWSERAPPOBJECT
  2
CBrowserAppObject
  3
McadcomServices
 90
        0
280
     0
281
     0
  0
CLASS
  1
IM_STATIC_MAN
  2
AcImStaticVarManager
  3
AcMeServices
 90
        0
280
     0
281
     0
  0
CLASS
  1
ASAPP
  2
AcAsAppObject
  3
AutoSurfServices
 90
        0
280
     0
281
     0
  0
CLASS
  1
ACIMDBLSTATICVAR
  2
AcImDblStaticVar
  3
AcMeServices
 90
        0
280
     0
281
     0
  0
CLASS
  1
ACIMSTRSTATICVAR
  2
AcImStrStaticVar
  3
AcMeServices
 90
        0
280
     0
281
     0
  0
CLASS
  1
ACIMINTSTATICVAR
  2
AcImIntStaticVar
  3
AcMeServices
 90
        0
280
     0
281
     0
  0
CLASS
  1
CATALOGSTATE
  2
AcAmCatalogState
  3
DesignerAssemblies
 90
        0
280
     0
281
     0
  0
CLASS
  1
DM_PLACEHOLDER
  2
AcDmSelsetPlaceholder
  3
AcMechDwgViewMgmt
 90
        0
280
     0
281
     0
  0
CLASS
  1
LAYER_INDEX
  2
AcDbLayerIndex
  3
ObjectDBX Classes
 90
        0
280
     0
281
     0
  0
CLASS
  1
IDBUFFER
  2
AcDbIdBuffer
  3
ObjectDBX Classes
 90
        0
280
     0
281
     0
  0
CLASS
  1
ACMSTANDARDJIS
  2
AcmStandardJIS
  3
"Amdt_StdImp|Product Description: AutoCAD Mechanical 2004 DX|Company: Autodesk"
 90
    32768
280
     0
281
     0
  0
CLASS
  1
ACMSTANDARDANSI
  2
AcmStandardANSI
  3
"Amdt_StdImp|Product Description: AutoCAD Mechanical 2004 DX|Company: Autodesk"
 90
    32768
280
     0
281
     0
  0
CLASS
  1
ACMSTANDARDBSI
  2
AcmStandardBSI
  3
"Amdt_StdImp|Product Description: AutoCAD Mechanical 2004 DX|Company: Autodesk"
 90
    32768
280
     0
281
     0
  0
CLASS
  1
ACMSTANDARDDIN
  2
AcmStandardDIN
  3
"Amdt_StdImp|Product Description: AutoCAD Mechanical 2004 DX|Company: Autodesk"
 90
    32768
280
     0
281
     0
  0
CLASS
  1
ACMSTANDARDISO
  2
AcmStandardISO
  3
"Amdt_StdImp|Product Description: AutoCAD Mechanical 2004 DX|Company: Autodesk"
 90
        0
280
     0
281
     0
  0
CLASS
  1
ACDBDICTIONARYWDFLT
  2
AcDbDictionaryWithDefault
  3
ObjectDBX Classes
 90
        0
280
     0
281
     0
  0
CLASS
  1
ACDBPLACEHOLDER
  2
AcDbPlaceHolder
  3
ObjectDBX Classes
 90
        0
280
     0
281
     0
  0
CLASS
  1
LAYOUT
  2
AcDbLayout
  3
ObjectDBX Classes
 90
        0
280
     0
281
     0
  0
CLASS
  1
ACME_DOCUMENT
  2
AcMeDbDoc
  3
AcMeServices
 90
        0
280
     0
281
     0
  0
CLASS
  1
AMGSETTINGSOBJ
  2
AmgSettingsObj
  3
"AcadM|Product Description: AutoCAD Mechanical 2000|Company: Autodesk"
 90
        0
280
     0
281
     0
  0
CLASS
  1
AMGOBJPROPCFG
  2
AmgObjPropCfg
  3
"AmgLay|Product Description: AutoCAD Mechanical 2000|Company: Autodesk"
 90
        1
280
     0
281
     0
  0
CLASS
  1
ACDBENTITYCACHE
  2
AcMeEntityCache
  3
AcMeServices
 90
        0
280
     0
281
     0
  0
CLASS
  1
GSMANAGER
  2
AcMeGSManager
  3
AcMeServices
 90
        0
280
     0
281
     0
  0
CLASS
  1
AMDTINTERNALREACTOR
  2
AmdtInternalReactor
  3
AcMeServices
 90
        0
280
     0
281
     0
  0
CLASS
  1
ACME_DATABASE
  2
AcMeDbDatabase
  3
AcMeServices
 90
        0
280
     0
281
     0
  0
CLASS
  1
ACGREFACADMASTER
  2
AcGrefacadMaster
  3
AcGrefServices
 90
        0
280
     0
281
     0
  0
CLASS
  1
AMDTMENUSTATEMGR
  2
AmdtMenuStateMgr
  3
McadcomServices
 90
        0
280
     0
281
     0
  0
CLASS
  1
AMDTMCOMMENUSTATE
  2
AmdtMcomMenuState
  3
McadcomServices
 90
        0
280
     0
281
     0
  0
CLASS
  1
MAPIADMODULE
  2
MApiAdModule
  3
MApiAdServices
 90
        0
280
     0
281
     0
  0
CLASS
  1
AMDTDMMENUSTATE
  2
AmdtDmMenuState
  3
AcMechDwgViewMgmt
 90
        0
280
     0
281
     0
  0
CLASS
  1
AMDTADMENUSTATE
  2
AmdtAdMenuState
  3
DesignerServices
 90
        0
280
     0
281
     0
  0
CLASS
  1
AMDTAMMENUSTATE
  2
AmdtAmMenuState
  3
DesignerAssemblies
 90
        0
280
     0
281
     0
  0
CLASS
  1
ACMDATADICTIONARY
  2
AcmDataDictionary
  3
"AcmSymBB|Product Description: AutoCAD Mechanical 2004 DX|Company: Autodesk"
 90
        0
280
     0
281
     0
  0
CLASS
  1
ACMDATAENTRYBLOCK
  2
AcmDataEntryBlock
  3
"AcmSymBB|Product Description: AutoCAD Mechanical 2004 DX|Company: Autodesk"
 90
        0
280
     0
281
     0
  0
CLASS
  1
ACMSURFSTANDARDJIS
  2
AcmSurfTextStdJIS
  3
"Amdt_StdImp|Product Description: AutoCAD Mechanical 2004 DX|Company: Autodesk"
 90
    32768
280
     0
281
     0
  0
CLASS
  1
ACMFCFSTANDARDJIS
  2
AcmFCFStdJIS
  3
"Amdt_StdImp|Product Description: AutoCAD Mechanical 2004 DX|Company: Autodesk"
 90
    32768
280
     0
281
     0
  0
CLASS
  1
ACMWELDSTANDARDJIS
  2
AcmWeldingStdJIS
  3
"Amdt_StdImp|Product Description: AutoCAD Mechanical 2004 DX|Company: Autodesk"
 90
    32768
280
     0
281
     0
  0
CLASS
  1
ACMIDSTANDARDJIS
  2
AcmIdStdJIS
  3
"Amdt_StdImp|Product Description: AutoCAD Mechanical 2004 DX|Company: Autodesk"
 90
    32768
280
     0
281
     0
  0
CLASS
  1
ACMDATUMSTANDARDJIS
  2
AcmDatumStdJIS
  3
"Amdt_StdImp|Product Description: AutoCAD Mechanical 2004 DX|Company: Autodesk"
 90
    32768
280
     0
281
     0
  0
CLASS
  1
ACMBOMSTANDARDJIS
  2
AcmBOMStdJIS
  3
"Amdt_StdImp|Product Description: AutoCAD Mechanical 2004 DX|Company: Autodesk"
 90
    32768
280
     0
281
     0
  0
CLASS
  1
ACMSURFSTANDARDANSI
  2
AcmSurfTextStdANSI
  3
"Amdt_StdImp|Product Description: AutoCAD Mechanical 2004 DX|Company: Autodesk"
 90
    32768
280
     0
281
     0
  0
CLASS
  1
ACMFCFSTANDARDANSI
  2
AcmFCFStdANSI
  3
"Amdt_StdImp|Product Description: AutoCAD Mechanical 2004 DX|Company: Autodesk"
 90
    32768
280
     0
281
     0
  0
CLASS
  1
ACMWELDSTANDARDANSI
  2
AcmWeldingStdANSI
  3
"Amdt_StdImp|Product Description: AutoCAD Mechanical 2004 DX|Company: Autodesk"
 90
    32768
280
     0
281
     0
  0
CLASS
  1
ACMIDSTANDARDANSI
  2
AcmIdStdANSI
  3
"Amdt_StdImp|Product Description: AutoCAD Mechanical 2004 DX|Company: Autodesk"
 90
    32768
280
     0
281
     0
  0
CLASS
  1
ACMDATUMSTANDARDANSI
  2
AcmDatumStdANSI
  3
"Amdt_StdImp|Product Description: AutoCAD Mechanical 2004 DX|Company: Autodesk"
 90
    32768
280
     0
281
     0
  0
CLASS
  1
ACMBOMSTANDARDANSI
  2
AcmBOMStdANSI
  3
"Amdt_StdImp|Product Description: AutoCAD Mechanical 2004 DX|Company: Autodesk"
 90
    32768
280
     0
281
     0
  0
CLASS
  1
ACMSURFSTANDARDBSI
  2
AcmSurfTextStdBSI
  3
"Amdt_StdImp|Product Description: AutoCAD Mechanical 2004 DX|Company: Autodesk"
 90
    32768
280
     0
281
     0
  0
CLASS
  1
ACMFCFSTANDARDBSI
  2
AcmFCFStdBSI
  3
"Amdt_StdImp|Product Description: AutoCAD Mechanical 2004 DX|Company: Autodesk"
 90
    32768
280
     0
281
     0
  0
CLASS
  1
ACMWELDSTANDARDBSI
  2
AcmWeldingStdBSI
  3
"Amdt_StdImp|Product Description: AutoCAD Mechanical 2004 DX|Company: Autodesk"
 90
    32768
280
     0
281
     0
  0
CLASS
  1
ACMIDSTANDARDBSI
  2
AcmIdStdBSI
  3
"Amdt_StdImp|Product Description: AutoCAD Mechanical 2004 DX|Company: Autodesk"
 90
    32768
280
     0
281
     0
  0
CLASS
  1
ACMDATUMSTANDARDBSI
  2
AcmDatumStdBSI
  3
"Amdt_StdImp|Product Description: AutoCAD Mechanical 2004 DX|Company: Autodesk"
 90
    32768
280
     0
281
     0
  0
CLASS
  1
ACMBOMSTANDARDBSI
  2
AcmBOMStdBSI
  3
"Amdt_StdImp|Product Description: AutoCAD Mechanical 2004 DX|Company: Autodesk"
 90
    32768
280
     0
281
     0
  0
CLASS
  1
AMDTEDGESTANDARDDIN
  2
AmdtEdgeStdDIN
  3
"Amdt_StdImp|Product Description: AutoCAD Mechanical 2004 DX|Company: Autodesk"
 90
    32768
280
     0
281
     0
  0
CLASS
  1
ACMSURFSTANDARDDIN
  2
AcmSurfTextStdDIN
  3
"Amdt_StdImp|Product Description: AutoCAD Mechanical 2004 DX|Company: Autodesk"
 90
    32768
280
     0
281
     0
  0
CLASS
  1
ACMFCFSTANDARDDIN
  2
AcmFCFStdDIN
  3
"Amdt_StdImp|Product Description: AutoCAD Mechanical 2004 DX|Company: Autodesk"
 90
    32768
280
     0
281
     0
  0
CLASS
  1
ACMWELDSTANDARDDIN
  2
AcmWeldingStdDIN
  3
"Amdt_StdImp|Product Description: AutoCAD Mechanical 2004 DX|Company: Autodesk"
 90
    32768
280
     0
281
     0
  0
CLASS
  1
ACMIDSTANDARDDIN
  2
AcmIdStdDIN
  3
"Amdt_StdImp|Product Description: AutoCAD Mechanical 2004 DX|Company: Autodesk"
 90
    32768
280
     0
281
     0
  0
CLASS
  1
ACMDATUMSTANDARDDIN
  2
AcmDatumStdDIN
  3
"Amdt_StdImp|Product Description: AutoCAD Mechanical 2004 DX|Company: Autodesk"
 90
    32768
280
     0
281
     0
  0
CLASS
  1
ACMBOMSTANDARDDIN
  2
AcmBOMStdDIN
  3
"Amdt_StdImp|Product Description: AutoCAD Mechanical 2004 DX|Company: Autodesk"
 90
    32768
280
     0
281
     0
  0
CLASS
  1
ACMSURFSTANDARDISO
  2
AcmSurfTextStdISO
  3
"Amdt_StdImp|Product Description: AutoCAD Mechanical 2004 DX|Company: Autodesk"
 90
        0
280
     0
281
     0
  0
CLASS
  1
ACMFCFSTANDARDISO
  2
AcmFCFStdISO
  3
"Amdt_StdImp|Product Description: AutoCAD Mechanical 2004 DX|Company: Autodesk"
 90
        0
280
     0
281
     0
  0
CLASS
  1
ACMWELDSTANDARDISO
  2
AcmWeldingStdISO
  3
"Amdt_StdImp|Product Description: AutoCAD Mechanical 2004 DX|Company: Autodesk"
 90
        0
280
     0
281
     0
  0
CLASS
  1
ACMIDSTANDARDISO
  2
AcmIdStdISO
  3
"Amdt_StdImp|Product Description: AutoCAD Mechanical 2004 DX|Company: Autodesk"
 90
        0
280
     0
281
     0
  0
CLASS
  1
ACMDATUMSTANDARDISO
  2
AcmDatumStdISO
  3
"Amdt_StdImp|Product Description: AutoCAD Mechanical 2004 DX|Company: Autodesk"
 90
        0
280
     0
281
     0
  0
CLASS
  1
ACMBOMSTANDARDISO
  2
AcmBOMStdISO
  3
"Amdt_StdImp|Product Description: AutoCAD Mechanical 2004 DX|Company: Autodesk"
 90
        0
280
     0
281
     0
  0
CLASS
  1
AMDTBROWSERDBTAB
  2
AmdtBrowserDbTab
  3
McadcomServices
 90
        0
280
     0
281
     0
  0
CLASS
  1
ACAMGFILTERDAT
  2
AcAmgFilterDat
  3
"AcadM|Product Description: AutoCAD Mechanical 2000|Company: Autodesk"
 90
    32768
280
     0
281
     0
  0
CLASS
  1
MAPIAMMOUDLE
  2
MApiAmModule
  3
MApiAmServices
 90
        0
280
     0
281
     0
  0
CLASS
  1
AMDTMAPISURFMOUDULE
  2
AmdtMApiSurfModule
  3
MApiSurfServices
 90
        0
280
     0
281
     0
  0
CLASS
  1
ACAMGLAYSTD
  2
AcAmgLayStd
  3
"AcAmgLayStd|Product Description: AutoCAD Mechanical 2000|Company: Autodesk"
 90
        0
280
     0
281
     0
  0
CLASS
  1
ACAMGDIMSTD
  2
AcAmgDimStd
  3
"AcAmgDimStd|Product Description: AutoCAD Mechanical 2000|Company: Autodesk"
 90
        0
280
     0
281
     0
  0
CLASS
  1
ACAMGTITLESTD
  2
AcAmgTitleStd
  3
"TITLEAPP"
 90
        0
280
     0
281
     0
  0
CLASS
  1
ACMDETAILSTANDARDJIS
  2
AmdtDetailSymStdJIS
  3
"Amdt_StdImp|Product Description: AutoCAD Mechanical 2004 DX|Company: Autodesk"
 90
    32768
280
     0
281
     0
  0
CLASS
  1
ACMSECTIONSTANDARDJIS
  2
AmdtSectionSymStdJIS
  3
"Amdt_StdImp|Product Description: AutoCAD Mechanical 2004 DX|Company: Autodesk"
 90
    32768
280
     0
281
     0
  0
CLASS
  1
ACMCENTERLINESTANDARDJIS
  2
AmdtCenterLineStdJIS
  3
"Amdt_StdImp|Product Description: AutoCAD Mechanical 2004 DX|Company: Autodesk"
 90
    32768
280
     0
281
     0
  0
CLASS
  1
ACMTHREADLINESTANDARDJIS
  2
AmdtThreadLineStdJIS
  3
"Amdt_StdImp|Product Description: AutoCAD Mechanical 2004 DX|Company: Autodesk"
 90
    32768
280
     0
281
     0
  0
CLASS
  1
ACMDETAILSTANDARDANSI
  2
AmdtDetailSymStdANSI
  3
"Amdt_StdImp|Product Description: AutoCAD Mechanical 2004 DX|Company: Autodesk"
 90
    32768
280
     0
281
     0
  0
CLASS
  1
ACMSECTIONSTANDARDANSI
  2
AmdtSectionSymStdANSI
  3
"Amdt_StdImp|Product Description: AutoCAD Mechanical 2004 DX|Company: Autodesk"
 90
    32768
280
     0
281
     0
  0
CLASS
  1
ACMCENTERLINESTANDARDANSI
  2
AmdtCenterLineStdANSI
  3
"Amdt_StdImp|Product Description: AutoCAD Mechanical 2004 DX|Company: Autodesk"
 90
    32768
280
     0
281
     0
  0
CLASS
  1
ACMTHREADLINESTANDARDANSI
  2
AmdtThreadLineStdANSI
  3
"Amdt_StdImp|Product Description: AutoCAD Mechanical 2004 DX|Company: Autodesk"
 90
    32768
280
     0
281
     0
  0
CLASS
  1
ACMDETAILSTANDARDBSI
  2
AmdtDetailSymStdBSI
  3
"Amdt_StdImp|Product Description: AutoCAD Mechanical 2004 DX|Company: Autodesk"
 90
    32768
280
     0
281
     0
  0
CLASS
  1
ACMSECTIONSTANDARDBSI
  2
AmdtSectionSymStdBSI
  3
"Amdt_StdImp|Product Description: AutoCAD Mechanical 2004 DX|Company: Autodesk"
 90
    32768
280
     0
281
     0
  0
CLASS
  1
ACMCENTERLINESTANDARDBSI
  2
AmdtCenterLineStdBSI
  3
"Amdt_StdImp|Product Description: AutoCAD Mechanical 2004 DX|Company: Autodesk"
 90
    32768
280
     0
281
     0
  0
CLASS
  1
ACMTHREADLINESTANDARDBSI
  2
AmdtThreadLineStdBSI
  3
"Amdt_StdImp|Product Description: AutoCAD Mechanical 2004 DX|Company: Autodesk"
 90
    32768
280
     0
281
     0
  0
CLASS
  1
ACMDETAILSTANDARDDIN
  2
AmdtDetailSymStdDIN
  3
"Amdt_StdImp|Product Description: AutoCAD Mechanical 2004 DX|Company: Autodesk"
 90
    32768
280
     0
281
     0
  0
CLASS
  1
ACMSECTIONSTANDARDDIN
  2
AmdtSectionSymStdDIN
  3
"Amdt_StdImp|Product Description: AutoCAD Mechanical 2004 DX|Company: Autodesk"
 90
    32768
280
     0
281
     0
  0
CLASS
  1
ACMCENTERLINESTANDARDDIN
  2
AmdtCenterLineStdDIN
  3
"Amdt_StdImp|Product Description: AutoCAD Mechanical 2004 DX|Company: Autodesk"
 90
    32768
280
     0
281
     0
  0
CLASS
  1
ACMTHREADLINESTANDARDDIN
  2
AmdtThreadLineStdDIN
  3
"Amdt_StdImp|Product Description: AutoCAD Mechanical 2004 DX|Company: Autodesk"
 90
    32768
280
     0
281
     0
  0
CLASS
  1
AMDTEDGESTANDARDISO
  2
AmdtEdgeStdISO
  3
"Amdt_StdImp|Product Description: AutoCAD Mechanical 2004 DX|Company: Autodesk"
 90
    32768
280
     0
281
     0
  0
CLASS
  1
ACMDETAILSTANDARDISO
  2
AmdtDetailSymStdISO
  3
"Amdt_StdImp|Product Description: AutoCAD Mechanical 2004 DX|Company: Autodesk"
 90
        0
280
     0
281
     0
  0
CLASS
  1
ACMSECTIONSTANDARDISO
  2
AmdtSectionSymStdISO
  3
"Amdt_StdImp|Product Description: AutoCAD Mechanical 2004 DX|Company: Autodesk"
 90
        0
280
     0
281
     0
  0
CLASS
  1
ACMCENTERLINESTANDARDISO
  2
AmdtCenterLineStdISO
  3
"Amdt_StdImp|Product Description: AutoCAD Mechanical 2004 DX|Company: Autodesk"
 90
        0
280
     0
281
     0
  0
CLASS
  1
ACMTHREADLINESTANDARDISO
  2
AmdtThreadLineStdISO
  3
"Amdt_StdImp|Product Description: AutoCAD Mechanical 2004 DX|Company: Autodesk"
 90
        0
280
     0
281
     0
  0
CLASS
  1
ACMNOTESTANDARDISO
  2
AmdtNoteStdISO
  3
"Amdt_StdImp|Product Description: AutoCAD Mechanical 2004 DX|Company: Autodesk"
 90
        0
280
     0
281
     0
  0
CLASS
  1
ACAMGHOLECHARTSTDISO
  2
AcAmgHoleChartStdISO
  3
ACMSYMBB_MODULE_NAME
 90
        0
280
     0
281
     0
  0
CLASS
  1
ACMNOTESTANDARDANSI
  2
AmdtNoteStdANSI
  3
"Amdt_StdImp|Product Description: AutoCAD Mechanical 2004 DX|Company: Autodesk"
 90
    32768
280
     0
281
     0
  0
CLASS
  1
AMDTNOTETEMPLATEDB
  2
AmdtNoteTemplateDB
  3
AMDT_STDIMP_MODULE_NAME
 90
        0
280
     0
281
     0
  0
CLASS
  1
ACAMGHOLECHARTSTDANSI
  2
AcAmgHoleChartStdANSI
  3
ACMSYMBB_MODULE_NAME
 90
    32768
280
     0
281
     0
  0
CLASS
  1
TABLESTYLE
  2
AcDbTableStyle
  3
ObjectDBX Classes
 90
     2047
280
     0
281
     0
  0
CLASS
  1
ACMBOM
  2
AcmBom
  3
"AcmSymBB|Product Description: AutoCAD Mechanical 2004 DX|Company: Autodesk"
 90
    32768
280
     0
281
     0
  0
CLASS
  1
AMDTFORMULAUPDATEDISPATCHER
  2
AmdtFormulaUpdateDispatcher
  3
AcMeServices
 90
    32768
280
     0
281
     0
  0
CLASS
  1
ACMPARTLIST
  2
AcmPartList
  3
"AcmSymBB|Product Description: AutoCAD Mechanical 2004 DX|Company: Autodesk"
 90
    33791
280
     0
281
     1
  0
CLASS
  1
VAACXREFPANELOBJECT
  2
VaAcXREFPanelObject
  3
VAAC_ADDIN
 90
    32768
280
     1
281
     0
  0
CLASS
  1
VAACIMAGEINVENTORY
  2
VaAcImageInventory
  3
VAAC_ADDIN
 90
    32768
280
     1
281
     0
  0
CLASS
  1
AMDTPERSON
  2
AmdtPerson
  3
AcAttribServices
 90
    32768
280
     0
281
     0
  0
CLASS
  1
ACRFMCADAPIATTHOLDER
  2
AcRfMCADAPIAttHolder
  3
AcAttribServices
 90
    32768
280
     0
281
     0
  0
CLASS
  1
AMDTORGANIZATION
  2
AmdtOrganization
  3
AcAttribServices
 90
    32768
280
     0
281
     0
  0
CLASS
  1
AMDTPERSONANDORGANIZATION
  2
AmdtPersonAndOrganization
  3
AcAttribServices
 90
    32768
280
     0
281
     0
  0
CLASS
  1
AMDTPROPERTYDEFINITION
  2
AmdtPropertyDefinition
  3
AcAttribServices
 90
    32768
280
     0
281
     0
  0
CLASS
  1
AMDTAPPROVALPERSONORGANIZATION
  2
AmdtApprovalPersonOrganization
  3
AcAttribServices
 90
    32768
280
     0
281
     0
  0
CLASS
  1
AMDTDATEANDTIME
  2
AmdtDateAndTime
  3
AcAttribServices
 90
    32768
280
     0
281
     0
  0
CLASS
  1
AMDTPRODUCTCATEGORY
  2
AmdtProductCategory
  3
AcAttribServices
 90
    32768
280
     0
281
     0
  0
CLASS
  1
AMDTPRODUCTCATEGORYRELATIONSHIP
  2
AmdtProductCategoryRelationship
  3
AcAttribServices
 90
    32768
280
     0
281
     0
  0
CLASS
  1
AMDTAPPROVAL
  2
AmdtApproval
  3
AcAttribServices
 90
    32768
280
     0
281
     0
  0
CLASS
  1
AMDTDATEANDTIMEASSIGNMENT
  2
AmdtDateAndTimeAssignment
  3
AcAttribServices
 90
    32768
280
     0
281
     0
  0
CLASS
  1
AMDTPERSONANDORGANIZATIONASSIGNMENT
  2
AmdtPersonAndOrganizationAssignment
  3
AcAttribServices
 90
    32768
280
     0
281
     0
  0
CLASS
  1
AMDTSECURITYCLASSIFICATION
  2
AmdtSecurityClassification
  3
AcAttribServices
 90
    32768
280
     0
281
     0
  0
CLASS
  1
AMDTPRODUCTDEFINITION
  2
AmdtProductDefinition
  3
AcAttribServices
 90
    32768
280
     0
281
     0
  0
CLASS
  1
AMDTPRODUCTDEFINITIONFORMATION
  2
AmdtProductDefinitionFormation
  3
AcAttribServices
 90
    32768
280
     0
281
     0
  0
CLASS
  1
AMDTPRODUCT
  2
AmdtProduct
  3
AcAttribServices
 90
    32768
280
     0
281
     0
  0
CLASS
  1
ADPART
  2
AcAdPart
  3
DesignerServices
 90
    32768
280
     0
281
     1
  0
CLASS
  1
ADBASE
  2
AcAdBase
  3
DesignerServices
 90
    32768
280
     0
281
     0
  0
CLASS
  1
BODYID
  2
AcAdBodyId
  3
DesignerServices
 90
    32768
280
     0
281
     0
  0
CLASS
  1
WORKPLANEDISPLAYMGR
  2
AcAdDisplayMgr
  3
DesignerServices
 90
    32768
280
     0
281
     0
  0
CLASS
  1
ACCMBODY
  2
AcCmBody
  3
DesignerAssemblies
 90
    32768
280
     0
281
     0
  0
CLASS
  1
ACAMCOMPENT
  2
AcAmCompEnt
  3
DesignerAssemblies
 90
    32768
280
     0
281
     1
  0
CLASS
  1
ACAMCOMPFEEDBACK
  2
AcAmCompFeedback
  3
DesignerAssemblies
 90
    32768
280
     0
281
     0
  0
CLASS
  1
ACAMCOMP
  2
AcAmComp
  3
DesignerAssemblies
 90
    32768
280
     0
281
     0
  0
CLASS
  1
ACAMCOMPENTCLONE
  2
AcAmCompEntClone
  3
DesignerAssemblies
 90
    32768
280
     0
281
     1
  0
CLASS
  1
ACAMCLONEREACTOR
  2
AcAmGrCompCloneReactor
  3
DesignerAssemblies
 90
    32768
280
     0
281
     0
  0
CLASS
  1
ACRFATTGENMGR
  2
AcRfAttGeneralMgr
  3
AcAttribServices
 90
    32768
280
     0
281
     0
  0
CLASS
  1
ACRFOBJATTMGR
  2
AcRfObjAttGroupMgr
  3
AcAttribServices
 90
    32768
280
     0
281
     0
  0
CLASS
  1
ACAMCLONECHILDREACTOR
  2
AcAmGrCloneChildReactor
  3
DesignerAssemblies
 90
    32768
280
     0
281
     0
  0
CLASS
  1
ACAMVIEWREACTOR
  2
AcAmViewReactor
  3
DesignerAssemblies
 90
    32768
280
     0
281
     0
  0
CLASS
  1
AMVIEW
  2
AcAmView
  3
DesignerAssemblies
 90
    32768
280
     0
281
     0
  0
CLASS
  1
ACAMVIEWCONTEXT
  2
AcAmViewContext
  3
DesignerAssemblies
 90
    32768
280
     0
281
     0
  0
CLASS
  1
ACAMCOMPENTVIEW
  2
AcAmCompEntView
  3
DesignerAssemblies
 90
    32768
280
     0
281
     1
  0
CLASS
  1
ACAMCOMPVIEWREACTOR
  2
AcAmGrCompViewReactor
  3
DesignerAssemblies
 90
    32768
280
     0
281
     0
  0
CLASS
  1
ACAMVIEWENTITYFILTER
  2
AcAmViewEntityFilter
  3
DesignerAssemblies
 90
    32768
280
     0
281
     0
  0
CLASS
  1
FACEID
  2
AcAdFaceId
  3
DesignerServices
 90
    32768
280
     0
281
     0
  0
CLASS
  1
ACADPARTPLANARFACERES
  2
AcAdPartPlanarFaceRes
  3
AdGrefServices
 90
    32768
280
     0
281
     0
  0
CLASS
  1
ACRFINSADJ
  2
AcRfInsAdjuster
  3
AcMeServices
 90
    32768
280
     0
281
     0
  0
CLASS
  1
AM_GREF_PLANE
  2
AcDmGrefPlnDef
  3
AcMechDwgViewMgmt
 90
    32768
280
     0
281
     0
  0
CLASS
  1
AM_ABS_AXIS
  2
AcDmAbsAxisDef
  3
AcMechDwgViewMgmt
 90
    32768
280
     0
281
     0
  0
CLASS
  1
AM_BASE_VIEW_ORIENT
  2
AcDmBaseViewOr
  3
AcMechDwgViewMgmt
 90
    32768
280
     0
281
     0
  0
CLASS
  1
ACMELINEARARROW
  2
AcImLinearArrowDisplay
  3
AcMeServices
 90
    32768
280
     0
281
     1
  0
CLASS
  1
AM_DWG_VIEWPORT
  2
AcDmViewport
  3
AcMechDwgViewMgmt
 90
    32768
280
     0
281
     0
  0
CLASS
  1
AM_VIEW_DISPLAY
  2
AcDmDwgViewDisplay
  3
AcMechDwgViewMgmt
 90
    32768
280
     0
281
     0
  0
CLASS
  1
AM_CLDFLTS
  2
AcDmClDflts
  3
AcMechDwgViewMgmt
 90
    32768
280
     0
281
     0
  0
CLASS
  1
AM_BASE_VIEW
  2
AcDmBaseView
  3
AcMechDwgViewMgmt
 90
    32768
280
     0
281
     0
  0
CLASS
  1
ACMEPLINE
  2
AcImPlineDisplay
  3
AcMeServices
 90
    32768
280
     0
281
     1
  0
CLASS
  1
ACDMPARTVIEWDATA
  2
AcDmPartViewData
  3
AcMechDwgViewMgmt
 90
    32768
280
     0
281
     0
  0
CLASS
  1
ACDMDISPLAYATTRIBS
  2
AcDmDisplayAttribs
  3
AcMechDwgViewMgmt
 90
    32768
280
     0
281
     0
  0
CLASS
  1
ACDMBODYINSTANCEDATA
  2
AcDmBodyInstanceData
  3
AcMechDwgViewMgmt
 90
    32768
280
     0
281
     0
  0
CLASS
  1
ACDMVWEDLINE
  2
AcDmViewEdgeLine
  3
AcMechDwgViewMgmt
 90
    32768
280
     0
281
     1
  0
CLASS
  1
ACDMVWEDSPLINE
  2
AcDmViewEdgeSpline
  3
AcMechDwgViewMgmt
 90
    32768
280
     0
281
     1
  0
CLASS
  1
ACDMVWEDARC
  2
AcDmViewEdgeArc
  3
AcMechDwgViewMgmt
 90
    32768
280
     0
281
     1
  0
CLASS
  1
AM_ORTHO_VIEW_ORIENT
  2
AcDmOrthoViewOr
  3
AcMechDwgViewMgmt
 90
    32768
280
     0
281
     0
  0
CLASS
  1
AM_ORTHO_VIEW
  2
AcDmOrthoView
  3
AcMechDwgViewMgmt
 90
    32768
280
     0
281
     0
  0
CLASS
  1
AMDTEDGESTANDARDISO13715
  2
AmdtEdgeStdISO13715
  3
"Amdt_StdImp|Product Description: AutoCAD Mechanical 2004 DX|Company: Autodesk"
 90
        0
280
     0
281
     0
  0
CLASS
  1
SORTENTSTABLE
  2
AcDbSortentsTable
  3
ObjectDBX Classes
 90
        0
280
     0
281
     0
  0
ENDSEC
  0
SECTION
  2
TABLES
  0
TABLE
  2
VPORT
  5
1E
330
0
100
AcDbSymbolTable
 70
     1
  0
VPORT
  5
1F
330
1E
100
AcDbSymbolTableRecord
100
AcDbViewportTableRecord
  2
*Active
 70
     0
 10
0.0
 20
0.0
 11
1.0
 21
1.0
 12
0.0
 22
0.0
 13
0.0
 23
0.0
 14
2.5
 24
2.5
 15
10.0
 25
10.0
 16
0.0
 26
0.0
 36
1.0
 17
0.0
 27
0.0
 37
0.0
 40
2.000000000000000E+20
 41
1.0
 42
50.0
 43
0.0
 44
0.0
 50
0.0
 51
0.0
 71
     0
 72
   100
 73
     1
 74
     1
 75
     0
 76
     0
 77
     0
 78
     0
281
     0
 65
     0
110
0.0
120
0.0
130
0.0
111
1.0
121
0.0
131
0.0
112
0.0
122
1.0
132
0.0
 79
     0
146
0.0
  0
ENDTAB
  0
TABLE
  2
LTYPE
  5
19
330
0
100
AcDbSymbolTable
 70
    16
  0
LTYPE
  5
1A
330
19
100
AcDbSymbolTableRecord
100
AcDbLinetypeTableRecord
  2
BYBLOCK
 70
     0
  3

 72
    65
 73
     0
 40
0.0
  0
LTYPE
  5
1B
330
19
100
AcDbSymbolTableRecord
100
AcDbLinetypeTableRecord
  2
BYLAYER
 70
     0
  3

 72
    65
 73
     0
 40
0.0
  0
LTYPE
  5
9
330
19
100
AcDbSymbolTableRecord
100
AcDbLinetypeTableRecord
  2
CONTINUOUS
 70
     0
  3
Solid line
 72
    65
 73
     0
 40
0.0
  0
LTYPE
  5
1F7
330
19
100
AcDbSymbolTableRecord
100
AcDbLinetypeTableRecord
  2
HIDDEN
 70
     0
  3
Hidden __ __ __ __ __ __ __ __ __ __ __ __ __ _
 72
    65
 73
     2
 40
9.524999999999998
 49
6.349999999999999
 74
     0
 49
-3.174999999999999
 74
     0
  0
LTYPE
  5
1F8
330
19
100
AcDbSymbolTableRecord
100
AcDbLinetypeTableRecord
  2
PHANTOM2
 70
     0
  3
Phantom (.5x) ___ _ _ ___ _ _ ___ _ _ ___ _ _
 72
    65
 73
     6
 40
31.75
 49
15.875
 74
     0
 49
-3.174999999999999
 74
     0
 49
3.174999999999999
 74
     0
 49
-3.174999999999999
 74
     0
 49
3.174999999999999
 74
     0
 49
-3.174999999999999
 74
     0
  0
LTYPE
  5
1F9
330
19
100
AcDbSymbolTableRecord
100
AcDbLinetypeTableRecord
  2
CENTER
 70
     0
  3
Center ____ _ ____ _ ____ _ ____ _ ____ _ ____
 72
    65
 73
     4
 40
50.8
 49
31.75
 74
     0
 49
-6.349999999999999
 74
     0
 49
6.349999999999999
 74
     0
 49
-6.349999999999999
 74
     0
  0
LTYPE
  5
22D
330
19
100
AcDbSymbolTableRecord
100
AcDbLinetypeTableRecord
  2
AM_ISO02W050
 70
     0
  3
__ __ __ __ __ __ __ __ __ __ __ __ __ __ __
 72
    65
 73
     2
 40
7.5
 49
6.0
 74
     0
 49
-1.5
 74
     0
  0
LTYPE
  5
22E
330
19
100
AcDbSymbolTableRecord
100
AcDbLinetypeTableRecord
  2
AM_ISO08W050
 70
     0
  3
____ . ____ . ____ . ____ . ____ . ____ . ____
 72
    65
 73
     4
 40
18.0
 49
12.0
 74
     0
 49
-1.5
 74
     0
 49
3.0
 74
     0
 49
-1.5
 74
     0
  0
LTYPE
  5
22F
330
19
100
AcDbSymbolTableRecord
100
AcDbLinetypeTableRecord
  2
AM_ISO09W050
 70
     0
  3
_____ . . _____ . . _____ . . ____ .. ____
 72
    65
 73
     6
 40
22.5
 49
12.0
 74
     0
 49
-1.5
 74
     0
 49
3.0
 74
     0
 49
-1.5
 74
     0
 49
3.0
 74
     0
 49
-1.5
 74
     0
  0
LTYPE
  5
230
330
19
100
AcDbSymbolTableRecord
100
AcDbLinetypeTableRecord
  2
Amconstr
 70
     0
  3
_______________________
 72
    65
 73
     2
 40
9999.0
 49
9999.0
 74
     0
 49
0.0
 74
     0
  0
LTYPE
  5
231
330
19
100
AcDbSymbolTableRecord
100
AcDbLinetypeTableRecord
  2
AM_ISO08W050x2
 70
     0
  3
__ . __ . __ . __ . __ . __
 72
    65
 73
     4
 40
9.0
 49
6.0
 74
     0
 49
-0.75
 74
     0
 49
1.5
 74
     0
 49
-0.75
 74
     0
  0
LTYPE
  5
232
330
19
100
AcDbSymbolTableRecord
100
AcDbLinetypeTableRecord
  2
AM_ISO02W050x2
 70
     0
  3
 _ _ _ _ _ _ _ _ _ _ _ _
 72
    65
 73
     2
 40
3.75
 49
3.0
 74
     0
 49
-0.75
 74
     0
  0
LTYPE
  5
235
330
19
100
AcDbSymbolTableRecord
100
AcDbLinetypeTableRecord
  2
Amzigzag
 70
     0
  3
/\/-/\/-/\/-/\/-/\/-/\/
 72
    65
 73
     2
 40
11.0001
 49
0.0001
 74
     4
 75
   135
340
234
 46
0.04
 50
0.0
 44
0.0
 45
0.0
 49
-11.0
 74
     0
  0
LTYPE
  5
244
330
19
100
AcDbSymbolTableRecord
100
AcDbLinetypeTableRecord
  2
ACISOWELD
 70
     0
  3
_ _ _ _ _
 72
    65
 73
     2
 40
2.0
 49
2.0
 74
     0
 49
-1.0
 74
     0
  0
LTYPE
  5
245
330
19
100
AcDbSymbolTableRecord
100
AcDbLinetypeTableRecord
  2
ACISOTGB
 70
     0
  3
__ . . __ . .
 72
    65
 73
     6
 40
9.0
 49
4.0
 74
     0
 49
-1.0
 74
     0
 49
1.0
 74
     0
 49
-1.0
 74
     0
 49
1.0
 74
     0
 49
-1.0
 74
     0
  0
LTYPE
  5
246
330
19
100
AcDbSymbolTableRecord
100
AcDbLinetypeTableRecord
  2
ACISOTGL
 70
     0
  3
_ _ _ _ _
 72
    65
 73
     2
 40
3.0
 49
2.0
 74
     0
 49
-1.0
 74
     0
  0
LTYPE
  5
104D
330
19
100
AcDbSymbolTableRecord
100
AcDbLinetypeTableRecord
  2
ASULTYPE
 70
     0
  3
實線
 72
    65
 73
     2
 40
3.0
 49
2.5
 74
     0
 49
0.5
 74
     0
  0
LTYPE
  5
104E
330
19
100
AcDbSymbolTableRecord
100
AcDbLinetypeTableRecord
  2
ASVLTYPE
 70
     0
  3
__ __ __ __ __ __ __ __ __ __ __ __ __ __ __ __ __ __ __ __ __
 72
    65
 73
     2
 40
0.75
 49
0.5
 74
     0
 49
-0.25
 74
     0
  0
ENDTAB
  0
TABLE
  2
LAYER
  5
13
102
{ACAD_XDICTIONARY
360
14
102
}
330
0
100
AcDbSymbolTable
 70
     7
  0
LAYER
  5
5
330
13
100
AcDbSymbolTableRecord
100
AcDbLayerTableRecord
  2
0
 70
     0
 62
     7
  6
CONTINUOUS
370
    -3
390
6
  0
LAYER
  5
3E
330
13
100
AcDbSymbolTableRecord
100
AcDbLayerTableRecord
  2
AM_VIS
 70
     0
 62
     7
  6
CONTINUOUS
370
    50
390
6
  0
LAYER
  5
27A
330
13
100
AcDbSymbolTableRecord
100
AcDbLayerTableRecord
  2
LOGO
 70
     0
 62
     7
  6
CONTINUOUS
370
    -3
390
6
  0
LAYER
  5
36F
330
13
100
AcDbSymbolTableRecord
100
AcDbLayerTableRecord
  2
AM_5
 70
     0
 62
     5
  6
CONTINUOUS
370
    50
390
6
  0
LAYER
  5
371
330
13
100
AcDbSymbolTableRecord
100
AcDbLayerTableRecord
  2
Defpoints
 70
     0
 62
     7
  6
CONTINUOUS
290
     0
370
    -3
390
6
  0
LAYER
  5
4CB
330
13
100
AcDbSymbolTableRecord
100
AcDbLayerTableRecord
  2
AM_7
 70
     0
 62
     1
  6
AM_ISO08W050x2
370
    25
390
6
  0
LAYER
  5
556
330
13
100
AcDbSymbolTableRecord
100
AcDbLayerTableRecord
  2
HIDDEN
 70
     0
 62
     3
  6
AM_ISO02W050x2
370
    -3
390
6
1001
AcAecLayerStandard
1000

1000

  0
ENDTAB
  0
TABLE
  2
STYLE
  5
16
330
0
100
AcDbSymbolTable
 70
     5
  0
STYLE
  5
17
330
16
100
AcDbSymbolTableRecord
100
AcDbTextStyleTableRecord
  2
STANDARD
 70
     0
 40
0.0
 41
1.0
 50
0.0
 71
     0
 42
1.0
  3
ISOCP.SHX
  4
CHINESET.SHX
  0
STYLE
  5
234
330
16
100
AcDbSymbolTableRecord
100
AcDbTextStyleTableRecord
  2

 70
     1
 40
0.0
 41
1.0
 50
0.0
 71
     0
 42
1.0
  3
ltypeshp.shx
  4

  0
STYLE
  5
236
330
16
100
AcDbSymbolTableRecord
100
AcDbTextStyleTableRecord
  2
ACISOTS
 70
     0
 40
1.0
 41
1.0
 50
0.0
 71
     0
 42
1.0
  3
isocp.shx
  4
chineset.shx
  0
STYLE
  5
243
330
16
100
AcDbSymbolTableRecord
100
AcDbTextStyleTableRecord
  2
ACISOGDT
 70
     0
 40
0.0
 41
1.0
 50
0.0
 71
     0
 42
1.0
  3
amgdt.shx
  4

  0
STYLE
  5
27B
330
16
100
AcDbSymbolTableRecord
100
AcDbTextStyleTableRecord
  2
CHINESET
 70
     0
 40
0.0
 41
1.0
 50
0.0
 71
     0
 42
1.0
  3
simplex
  4
CHINESET.SHX
  0
ENDTAB
  0
TABLE
  2
VIEW
  5
1C
330
0
100
AcDbSymbolTable
 70
     0
  0
ENDTAB
  0
TABLE
  2
UCS
  5
1D
330
0
100
AcDbSymbolTable
 70
     0
  0
ENDTAB
  0
TABLE
  2
APPID
  5
20
330
0
100
AcDbSymbolTable
 70
    26
  0
APPID
  5
21
330
20
100
AcDbSymbolTableRecord
100
AcDbRegAppTableRecord
  2
ACAD
 70
     0
  0
APPID
  5
1CA
330
20
100
AcDbSymbolTableRecord
100
AcDbRegAppTableRecord
  2
MCAD_NO_VIS
 70
     0
  0
APPID
  5
1CB
330
20
100
AcDbSymbolTableRecord
100
AcDbRegAppTableRecord
  2
ACAD_TEMP_GRAPHIC
 70
     0
  0
APPID
  5
1FB
330
20
100
AcDbSymbolTableRecord
100
AcDbRegAppTableRecord
  2
AD_DRAW
 70
     0
  0
APPID
  5
1FE
330
20
100
AcDbSymbolTableRecord
100
AcDbRegAppTableRecord
  2
ACATTRIBSERVICES
 70
     0
  0
APPID
  5
21C
330
20
100
AcDbSymbolTableRecord
100
AcDbRegAppTableRecord
  2
DESIGNERASSEMBLIES
 70
     0
  0
APPID
  5
222
330
20
100
AcDbSymbolTableRecord
100
AcDbRegAppTableRecord
  2
ACADM_DIM_EDIT
 70
     0
  0
APPID
  5
223
330
20
100
AcDbSymbolTableRecord
100
AcDbRegAppTableRecord
  2
AMDT_DM_ADJ
 70
     0
  0
APPID
  5
265
330
20
100
AcDbSymbolTableRecord
100
AcDbRegAppTableRecord
  2
ACAD_PSEXT
 70
     0
  0
APPID
  5
27D
330
20
100
AcDbSymbolTableRecord
100
AcDbRegAppTableRecord
  2
GENIUS_GENOBJ-N-CRS_13
 70
     0
  0
APPID
  5
27E
330
20
100
AcDbSymbolTableRecord
100
AcDbRegAppTableRecord
  2
GENIUS_GENOLIS_13
 70
     0
  0
APPID
  5
27F
330
20
100
AcDbSymbolTableRecord
100
AcDbRegAppTableRecord
  2
GENIUS_GENOENT_13
 70
     0
  0
APPID
  5
280
330
20
100
AcDbSymbolTableRecord
100
AcDbRegAppTableRecord
  2
GENIUS_GENODEF_13
 70
     0
  0
APPID
  5
281
330
20
100
AcDbSymbolTableRecord
100
AcDbRegAppTableRecord
  2
GENIUS_GENOREF_13
 70
     0
  0
APPID
  5
282
330
20
100
AcDbSymbolTableRecord
100
AcDbRegAppTableRecord
  2
GENIUS_GENREC_14
 70
     0
  0
APPID
  5
283
330
20
100
AcDbSymbolTableRecord
100
AcDbRegAppTableRecord
  2
GENIUS_GENOBJ-N-REC_13
 70
     0
  0
APPID
  5
387
330
20
100
AcDbSymbolTableRecord
100
AcDbRegAppTableRecord
  2
ACAD_DSTYLE_DIMTEXT_FILL
 70
     0
  0
APPID
  5
4CD
330
20
100
AcDbSymbolTableRecord
100
AcDbRegAppTableRecord
  2
GENIUS_GENOBJ-N-CEN_13
 70
     0
  0
APPID
  5
4CE
330
20
100
AcDbSymbolTableRecord
100
AcDbRegAppTableRecord
  2
GENIUS_GENCEN_19
 70
     0
  0
APPID
  5
535
330
20
100
AcDbSymbolTableRecord
100
AcDbRegAppTableRecord
  2
GENIUS_GENDIMSH_14
 70
     0
  0
APPID
  5
551
330
20
100
AcDbSymbolTableRecord
100
AcDbRegAppTableRecord
  2
AcAecLayerStandard
 70
     0
  0
APPID
  5
573
330
20
100
AcDbSymbolTableRecord
100
AcDbRegAppTableRecord
  2
GENIUS_GENDTOL_13
 70
     0
  0
APPID
  5
FD0
330
20
100
AcDbSymbolTableRecord
100
AcDbRegAppTableRecord
  2
GENIUS_GENDIM_13
 70
     0
  0
APPID
  5
FD1
330
20
100
AcDbSymbolTableRecord
100
AcDbRegAppTableRecord
  2
GENIUS_GE3DTOL_13
 70
     0
  0
APPID
  5
104F
330
20
100
AcDbSymbolTableRecord
100
AcDbRegAppTableRecord
  2
ASURF_PCURVE_APPNAME
 70
     0
  0
APPID
  5
1054
330
20
100
AcDbSymbolTableRecord
100
AcDbRegAppTableRecord
  2
AMG_3D2D_5.0
 70
     0
  0
ENDTAB
  0
TABLE
  2
DIMSTYLE
  5
22
330
0
100
AcDbSymbolTable
 70
     8
100
AcDbDimStyleTable
 71
     3
340
23
340
24
340
25
  0
DIMSTYLE
105
23
330
22
100
AcDbSymbolTableRecord
100
AcDbDimStyleTableRecord
  2
AM_ISO
 70
     0
  4
"
 41
3.0
 42
1.0
 43
10.0
 44
1.0
 47
0.1
 48
0.1
 73
     0
 74
     0
 77
     1
 78
     8
 79
     2
140
3.5
141
0.0
143
0.0393701
146
0.71
147
1.0
172
     1
176
   256
177
   256
178
   256
271
     2
272
     2
283
     0
284
     8
285
     8
340
17
371
    -1
372
    -1
  0
DIMSTYLE
105
24
330
22
100
AcDbSymbolTableRecord
100
AcDbDimStyleTableRecord
  2
AM_ISO$SF
 70
     0
  4
"
 41
2.5
 42
1.0
 43
10.0
 44
1.0
 47
0.1
 48
0.1
 73
     0
 74
     0
 75
     1
 76
     1
 77
     1
 78
     8
 79
     2
140
3.5
141
0.0
143
0.0393701
146
0.71
147
1.0
172
     1
176
   256
177
   256
178
   256
271
     2
272
     2
283
     0
284
     8
340
17
371
    -1
372
    -1
  0
DIMSTYLE
105
25
330
22
100
AcDbSymbolTableRecord
100
AcDbDimStyleTableRecord
  2
AM_ISO$SH
 70
     0
  4
"
 41
2.5
 42
1.0
 43
10.0
 44
1.0
 47
0.1
 48
0.1
 73
     0
 74
     0
 75
     1
 76
     1
 77
     1
 78
     8
 79
     2
140
3.5
141
0.0
143
0.0393701
144
2.0
146
0.71
147
1.0
172
     1
173
     1
176
   256
177
   256
178
   256
271
     2
272
     2
283
     0
284
     8
340
17
343
26
371
    -1
372
    -1
  0
DIMSTYLE
105
24F
102
{ACAD_REACTORS
330
822
102
}
330
22
100
AcDbSymbolTableRecord
100
AcDbDimStyleTableRecord
  2
AM_ISO$3
 70
     0
  4
"
 41
3.0
 42
1.0
 43
10.0
 44
1.0
 47
0.1
 48
0.1
 73
     0
 77
     1
 78
     8
 79
     2
140
3.5
141
0.0
143
0.0393701
146
0.71
147
1.0
176
   256
177
   256
178
   256
271
     2
272
     2
283
     0
284
     8
285
     8
288
     1
289
     0
340
17
371
    -1
372
    -1
  0
DIMSTYLE
105
250
102
{ACAD_REACTORS
330
E02
330
EF9
102
}
330
22
100
AcDbSymbolTableRecord
100
AcDbDimStyleTableRecord
  2
AM_ISO$4
 70
     0
  4
"
 41
3.0
 42
1.0
 43
10.0
 44
1.0
 47
0.1
 48
0.1
 73
     0
 77
     1
 78
     8
 79
     2
140
3.5
141
0.0
143
0.0393701
146
0.71
147
1.0
176
   256
177
   256
178
   256
271
     2
272
     2
283
     0
284
     8
285
     8
288
     1
289
     0
340
17
371
    -1
372
    -1
  0
DIMSTYLE
105
251
330
22
100
AcDbSymbolTableRecord
100
AcDbDimStyleTableRecord
  2
AM_ISO$6
 70
     0
  4
"
 41
3.0
 42
1.0
 43
10.0
 44
1.0
 47
0.1
 48
0.1
 73
     0
 74
     0
 78
     8
 79
     2
140
3.5
141
0.0
143
0.0393701
146
0.71
147
1.0
172
     1
176
   256
177
   256
178
   256
271
     2
272
     2
283
     0
284
     8
285
     8
340
17
371
    -1
372
    -1
  0
DIMSTYLE
105
252
102
{ACAD_REACTORS
330
7DB
102
}
330
22
100
AcDbSymbolTableRecord
100
AcDbDimStyleTableRecord
  2
AM_ISO$7
 70
     0
  4
"
 41
3.0
 42
1.0
 43
10.0
 44
1.0
 47
0.1
 48
0.1
 73
     0
 74
     0
 77
     1
 78
     8
 79
     2
140
3.5
141
0.0
143
0.0393701
146
0.71
147
1.5
172
     1
176
   256
177
   256
178
   256
271
     2
272
     2
283
     0
284
     8
285
     8
340
17
371
    -1
372
    -1
  0
DIMSTYLE
105
27C
102
{ACAD_REACTORS
330
55D
330
5A0
330
B0B
330
B21
330
C52
330
C33
330
E24
330
E59
330
E78
330
E8E
330
EDA
102
}
330
22
100
AcDbSymbolTableRecord
100
AcDbDimStyleTableRecord
  2
AM_ISO$0
 70
     0
  4
"
 40
2.0
 41
3.0
 42
1.0
 43
10.0
 44
1.0
 47
0.1
 48
0.1
 73
     0
 74
     0
 77
     1
 78
     8
 79
     2
140
3.5
141
0.0
143
0.0393701
146
0.71
147
1.0
172
     1
176
   256
177
   256
178
   256
271
     2
272
     2
283
     0
284
     8
285
     8
340
17
371
    -1
372
    -1
  0
ENDTAB
  0
TABLE
  2
BLOCK_RECORD
  5
1
330
0
100
AcDbSymbolTable
 70
    16
  0
BLOCK_RECORD
  5
2
102
{ACAD_XDICTIONARY
360
3
102
}
330
1
100
AcDbSymbolTableRecord
100
AcDbBlockTableRecord
  2
*MODEL_SPACE
340
B
  0
BLOCK_RECORD
  5
D
102
{ACAD_XDICTIONARY
360
268
102
}
330
1
100
AcDbSymbolTableRecord
100
AcDbBlockTableRecord
  2
*PAPER_SPACE
340
10
  0
BLOCK_RECORD
  5
26
330
1
100
AcDbSymbolTableRecord
100
AcDbBlockTableRecord
  2
GENAXEH
340
0
  0
BLOCK_RECORD
  5
55E
330
1
100
AcDbSymbolTableRecord
100
AcDbBlockTableRecord
  2
*D1
340
0
  0
BLOCK_RECORD
  5
5A1
330
1
100
AcDbSymbolTableRecord
100
AcDbBlockTableRecord
  2
*D2
340
0
  0
BLOCK_RECORD
  5
823
330
1
100
AcDbSymbolTableRecord
100
AcDbBlockTableRecord
  2
*D3
340
0
  0
BLOCK_RECORD
  5
B0C
330
1
100
AcDbSymbolTableRecord
100
AcDbBlockTableRecord
  2
*D4
340
0
  0
BLOCK_RECORD
  5
B22
330
1
100
AcDbSymbolTableRecord
100
AcDbBlockTableRecord
  2
*D5
340
0
  0
BLOCK_RECORD
  5
C34
330
1
100
AcDbSymbolTableRecord
100
AcDbBlockTableRecord
  2
*D6
340
0
  0
BLOCK_RECORD
  5
C53
330
1
100
AcDbSymbolTableRecord
100
AcDbBlockTableRecord
  2
*D7
340
0
  0
BLOCK_RECORD
  5
E03
330
1
100
AcDbSymbolTableRecord
100
AcDbBlockTableRecord
  2
*D8
340
0
  0
BLOCK_RECORD
  5
E25
330
1
100
AcDbSymbolTableRecord
100
AcDbBlockTableRecord
  2
*D9
340
0
  0
BLOCK_RECORD
  5
E5A
330
1
100
AcDbSymbolTableRecord
100
AcDbBlockTableRecord
  2
*D10
340
0
  0
BLOCK_RECORD
  5
E79
330
1
100
AcDbSymbolTableRecord
100
AcDbBlockTableRecord
  2
*D11
340
0
  0
BLOCK_RECORD
  5
E8F
330
1
100
AcDbSymbolTableRecord
100
AcDbBlockTableRecord
  2
*D12
340
0
  0
BLOCK_RECORD
  5
EDB
330
1
100
AcDbSymbolTableRecord
100
AcDbBlockTableRecord
  2
*D13
340
0
  0
BLOCK_RECORD
  5
EFA
330
1
100
AcDbSymbolTableRecord
100
AcDbBlockTableRecord
  2
*D14
340
0
  0
ENDTAB
  0
ENDSEC
  0
SECTION
  2
BLOCKS
  0
BLOCK
  5
4
330
2
100
AcDbEntity
  8
0
100
AcDbBlockBegin
  2
*MODEL_SPACE
 70
     0
 10
0.0
 20
0.0
 30
0.0
  3
*MODEL_SPACE
  1

  0
ENDBLK
  5
A
330
2
100
AcDbEntity
  8
0
100
AcDbBlockEnd
  0
BLOCK
  5
E
330
D
100
AcDbEntity
 67
     1
  8
0
100
AcDbBlockBegin
  2
*PAPER_SPACE
 70
     0
 10
0.0
 20
0.0
 30
0.0
  3
*PAPER_SPACE
  1

  0
ENDBLK
  5
F
330
D
100
AcDbEntity
 67
     1
  8
0
100
AcDbBlockEnd
  0
BLOCK
  5
27
330
26
100
AcDbEntity
  8
0
100
AcDbBlockBegin
  2
GENAXEH
 70
     0
 10
0.0
 20
0.0
 30
0.0
  3
GENAXEH
  1

  0
LINE
  5
28
330
26
100
AcDbEntity
  8
0
100
AcDbLine
 10
-1.0
 20
0.0
 30
0.0
 11
1.0
 21
0.0
 31
0.0
  0
ENDBLK
  5
29
330
26
100
AcDbEntity
  8
0
100
AcDbBlockEnd
  0
BLOCK
  5
568
330
55E
100
AcDbEntity
  8
0
100
AcDbBlockBegin
  2
*D1
 70
     1
 10
0.0
 20
0.0
 30
0.0
  3
*D1
  1

  0
LINE
  5
ED1
330
55E
100
AcDbEntity
  8
AM_5
100
AcDbLine
 10
183.4754243376604
 20
90.2264437337426
 30
0.0
 11
196.5100798314077
 21
90.2264437337426
 31
0.0
  0
LINE
  5
ED2
330
55E
100
AcDbEntity
  8
AM_5
100
AcDbLine
 10
183.4754243376604
 20
125.7264437337426
 30
0.0
 11
196.5100798314077
 21
125.7264437337426
 31
0.0
  0
LINE
  5
ED3
330
55E
100
AcDbEntity
  8
AM_5
100
AcDbLine
 10
195.843413164741
 20
92.2264437337426
 30
0.0
 11
195.843413164741
 21
123.7264437337426
 31
0.0
  0
SOLID
  5
ED4
330
55E
100
AcDbEntity
  8
AM_5
100
AcDbTrace
 10
195.5100798314077
 20
92.2264437337426
 30
0.0
 11
196.1767464980744
 21
92.2264437337426
 31
0.0
 12
195.843413164741
 22
90.2264437337426
 32
0.0
 13
195.843413164741
 23
90.2264437337426
 33
0.0
  0
SOLID
  5
ED5
330
55E
100
AcDbEntity
  8
AM_5
100
AcDbTrace
 10
195.5100798314077
 20
123.7264437337426
 30
0.0
 11
196.1767464980744
 21
123.7264437337426
 31
0.0
 12
195.843413164741
 22
125.7264437337426
 32
0.0
 13
195.843413164741
 23
125.7264437337426
 33
0.0
  0
MTEXT
  5
ED6
330
55E
100
AcDbEntity
  8
AM_5
100
AcDbMText
 10
194.0100798314077
 20
107.9764437337426
 30
0.0
 40
2.333333333333333
 41
0.0
 71
     5
 72
     1
  1
%%c35.5
 11
0.0000000000000001
 21
1.0
 31
0.0
 73
     1
 44
1.0
1001
ACAD
1000
MTEXTBEGIN
1070
    73
1070
     1
1070
    44
1040
1.0
1070
    74
1070
     0
1000
MTEXTEND
  0
POINT
  5
ED7
330
55E
100
AcDbEntity
  8
Defpoints
 62
     0
100
AcDbPoint
 10
182.8087576709938
 20
90.2264437337426
 30
0.0
  0
POINT
  5
ED8
330
55E
100
AcDbEntity
  8
Defpoints
 62
     0
100
AcDbPoint
 10
182.8087576709938
 20
125.7264437337426
 30
0.0
  0
POINT
  5
ED9
330
55E
100
AcDbEntity
  8
Defpoints
 62
     0
100
AcDbPoint
 10
195.843413164741
 20
125.7264437337426
 30
0.0
  0
ENDBLK
  5
569
330
55E
100
AcDbEntity
  8
0
100
AcDbBlockEnd
  0
BLOCK
  5
5AB
330
5A1
100
AcDbEntity
  8
0
100
AcDbBlockBegin
  2
*D2
 70
     1
 10
0.0
 20
0.0
 30
0.0
  3
*D2
  1

  0
LINE
  5
EBF
330
5A1
100
AcDbEntity
  8
AM_5
100
AcDbLine
 10
182.8087576709938
 20
131.6431104004092
 30
0.0
 11
182.8087576709938
 21
140.1431104104092
 31
0.0
  0
LINE
  5
EC0
330
5A1
100
AcDbEntity
  8
AM_5
100
AcDbLine
 10
160.3087576709937
 20
123.8931104004092
 30
0.0
 11
160.3087576709937
 21
140.1431104104092
 31
0.0
  0
LINE
  5
EC1
330
5A1
100
AcDbEntity
  8
AM_5
100
AcDbLine
 10
180.8087576709938
 20
139.4764437437426
 30
0.0
 11
162.3087576709937
 21
139.4764437437426
 31
0.0
  0
SOLID
  5
EC2
330
5A1
100
AcDbEntity
  8
AM_5
100
AcDbTrace
 10
180.8087576709938
 20
139.8097770770759
 30
0.0
 11
180.8087576709938
 21
139.1431104104092
 31
0.0
 12
182.8087576709938
 22
139.4764437437426
 32
0.0
 13
182.8087576709938
 23
139.4764437437426
 33
0.0
  0
SOLID
  5
EC3
330
5A1
100
AcDbEntity
  8
AM_5
100
AcDbTrace
 10
162.3087576709937
 20
139.8097770770759
 30
0.0
 11
162.3087576709937
 21
139.1431104104092
 31
0.0
 12
160.3087576709937
 22
139.4764437437426
 32
0.0
 13
160.3087576709937
 23
139.4764437437426
 33
0.0
  0
MTEXT
  5
EC4
330
5A1
100
AcDbEntity
  8
AM_5
100
AcDbMText
 10
171.5587576709937
 20
141.3100067358686
 30
0.0
 40
2.333333333333333
 41
0.0
 71
     5
 72
     1
  1
22.5
 73
     1
 44
1.0
1001
ACAD
1000
MTEXTBEGIN
1070
    73
1070
     1
1070
    44
1040
1.0
1070
    74
1070
     0
1000
MTEXTEND
  0
POINT
  5
EC5
330
5A1
100
AcDbEntity
  8
Defpoints
 62
     0
100
AcDbPoint
 10
182.8087576709938
 20
130.9764437337426
 30
0.0
  0
POINT
  5
EC6
330
5A1
100
AcDbEntity
  8
Defpoints
 62
     0
100
AcDbPoint
 10
160.3087576709937
 20
123.2264437337426
 30
0.0
  0
POINT
  5
EC7
330
5A1
100
AcDbEntity
  8
Defpoints
 62
     0
100
AcDbPoint
 10
160.3087576709937
 20
139.4764437437426
 30
0.0
  0
ENDBLK
  5
5AC
330
5A1
100
AcDbEntity
  8
0
100
AcDbBlockEnd
  0
BLOCK
  5
829
330
823
100
AcDbEntity
  8
0
100
AcDbBlockBegin
  2
*D3
 70
     1
 10
0.0
 20
0.0
 30
0.0
  3
*D3
  1

  0
LINE
  5
D56
330
823
100
AcDbEntity
  8
AM_5
100
AcDbLine
 10
217.8271949326433
 20
131.763359549059
 30
0.0
 11
221.1322277504921
 21
139.1017607363782
 31
0.0
  0
LINE
  5
D57
330
823
100
AcDbEntity
  8
AM_5
100
AcDbLine
 10
221.1322277504921
 20
139.1017607363782
 30
0.0
 11
230.7622109150458
 21
139.1017607363782
 31
0.0
  0
SOLID
  5
D58
330
823
100
AcDbEntity
  8
AM_5
100
AcDbTrace
 10
217.5232637697661
 20
131.9002425624068
 30
0.0
 11
218.1311260955205
 21
131.626476535711
 31
0.0
 12
217.0058968525558
 22
129.9397725717955
 32
0.0
 13
217.0058968525558
 23
129.9397725717955
 33
0.0
  0
MTEXT
  5
D59
330
823
100
AcDbEntity
  8
AM_5
100
AcDbMText
 10
226.2805526661023
 20
140.9350940697115
 30
0.0
 40
2.333333333333333
 41
0.0
 71
     5
 72
     1
  1
4-\U+22056.5
 73
     1
 44
1.0
1001
ACAD
1000
MTEXTBEGIN
1070
    73
1070
     1
1070
    44
1040
1.0
1070
    74
1070
     0
1000
MTEXTEND
  0
POINT
  5
D5A
330
823
100
AcDbEntity
  8
Defpoints
 62
     0
100
AcDbPoint
 10
217.0058968525558
 20
129.9397725717955
 30
0.0
  0
POINT
  5
D5B
330
823
100
AcDbEntity
  8
Defpoints
 62
     0
100
AcDbPoint
 10
214.3366780922714
 20
124.0131148956896
 30
0.0
  0
ENDBLK
  5
82A
330
823
100
AcDbEntity
  8
0
100
AcDbBlockEnd
  0
BLOCK
  5
B16
330
B0C
100
AcDbEntity
  8
0
100
AcDbBlockBegin
  2
*D4
 70
     1
 10
0.0
 20
0.0
 30
0.0
  3
*D4
  1

  0
LINE
  5
DF9
330
B0C
100
AcDbEntity
  8
AM_5
100
AcDbLine
 10
207.6712874724136
 20
82.74862888544562
 30
0.0
 11
207.6712874724136
 21
65.64311040040919
 31
0.0
  0
LINE
  5
DFA
330
B0C
100
AcDbEntity
  8
AM_5
100
AcDbLine
 10
261.6712874724136
 20
82.74862888544562
 30
0.0
 11
261.6712874724136
 21
65.64311040040919
 31
0.0
  0
LINE
  5
DFB
330
B0C
100
AcDbEntity
  8
AM_5
100
AcDbLine
 10
209.6712874724136
 20
66.30977706707587
 30
0.0
 11
259.6712874724136
 21
66.30977706707587
 31
0.0
  0
SOLID
  5
DFC
330
B0C
100
AcDbEntity
  8
AM_5
100
AcDbTrace
 10
209.6712874724136
 20
66.6431104004092
 30
0.0
 11
209.6712874724136
 21
65.97644373374254
 31
0.0
 12
207.6712874724136
 22
66.30977706707587
 32
0.0
 13
207.6712874724136
 23
66.30977706707587
 33
0.0
  0
SOLID
  5
DFD
330
B0C
100
AcDbEntity
  8
AM_5
100
AcDbTrace
 10
259.6712874724136
 20
66.6431104004092
 30
0.0
 11
259.6712874724136
 21
65.97644373374254
 31
0.0
 12
261.6712874724136
 22
66.30977706707587
 32
0.0
 13
261.6712874724136
 23
66.30977706707587
 33
0.0
  0
MTEXT
  5
DFE
330
B0C
100
AcDbEntity
  8
AM_5
100
AcDbMText
 10
234.6712874724136
 20
68.14311040040919
 30
0.0
 40
2.333333333333333
 41
0.0
 71
     5
 72
     1
  1
{\Famgdt|c136;o}54
 73
     1
 44
1.0
1001
ACAD
1000
MTEXTBEGIN
1070
    73
1070
     1
1070
    44
1040
1.0
1070
    74
1070
     0
1000
MTEXTEND
  0
POINT
  5
DFF
330
B0C
100
AcDbEntity
  8
Defpoints
 62
     0
100
AcDbPoint
 10
207.6712874724136
 20
83.41529555211229
 30
0.0
  0
POINT
  5
E00
330
B0C
100
AcDbEntity
  8
Defpoints
 62
     0
100
AcDbPoint
 10
261.6712874724136
 20
83.41529555211229
 30
0.0
  0
POINT
  5
E01
330
B0C
100
AcDbEntity
  8
Defpoints
 62
     0
100
AcDbPoint
 10
261.6712874724136
 20
66.30977706707587
 30
0.0
  0
ENDBLK
  5
B17
330
B0C
100
AcDbEntity
  8
0
100
AcDbBlockEnd
  0
BLOCK
  5
B2C
330
B22
100
AcDbEntity
  8
0
100
AcDbBlockBegin
  2
*D5
 70
     1
 10
0.0
 20
0.0
 30
0.0
  3
*D5
  1

  0
LINE
  5
DD4
330
B22
100
AcDbEntity
  8
AM_5
100
AcDbLine
 10
215.6712874724136
 20
83.08883434446723
 30
0.0
 11
215.6712874724136
 21
72.30977706707587
 31
0.0
  0
LINE
  5
DD5
330
B22
100
AcDbEntity
  8
AM_5
100
AcDbLine
 10
253.6712874724136
 20
83.08883434446723
 30
0.0
 11
253.6712874724136
 21
72.30977706707587
 31
0.0
  0
LINE
  5
DD6
330
B22
100
AcDbEntity
  8
AM_5
100
AcDbLine
 10
217.6712874724136
 20
72.97644373374254
 30
0.0
 11
251.6712874724136
 21
72.97644373374254
 31
0.0
  0
SOLID
  5
DD7
330
B22
100
AcDbEntity
  8
AM_5
100
AcDbTrace
 10
217.6712874724136
 20
73.30977706707587
 30
0.0
 11
217.6712874724136
 21
72.64311040040921
 31
0.0
 12
215.6712874724136
 22
72.97644373374254
 32
0.0
 13
215.6712874724136
 23
72.97644373374254
 33
0.0
  0
SOLID
  5
DD8
330
B22
100
AcDbEntity
  8
AM_5
100
AcDbTrace
 10
251.6712874724136
 20
73.30977706707587
 30
0.0
 11
251.6712874724136
 21
72.64311040040921
 31
0.0
 12
253.6712874724136
 22
72.97644373374254
 32
0.0
 13
253.6712874724136
 23
72.97644373374254
 33
0.0
  0
MTEXT
  5
DD9
330
B22
100
AcDbEntity
  8
AM_5
100
AcDbMText
 10
234.6712874724136
 20
74.80977706707587
 30
0.0
 40
2.333333333333333
 41
0.0
 71
     5
 72
     1
  1
{\Famgdt|c136;o}38
 73
     1
 44
1.0
1001
ACAD
1000
MTEXTBEGIN
1070
    73
1070
     1
1070
    44
1040
1.0
1070
    74
1070
     0
1000
MTEXTEND
  0
POINT
  5
DDA
330
B22
100
AcDbEntity
  8
Defpoints
 62
     0
100
AcDbPoint
 10
215.6712874724136
 20
83.7555010111339
 30
0.0
  0
POINT
  5
DDB
330
B22
100
AcDbEntity
  8
Defpoints
 62
     0
100
AcDbPoint
 10
253.6712874724136
 20
83.7555010111339
 30
0.0
  0
POINT
  5
DDC
330
B22
100
AcDbEntity
  8
Defpoints
 62
     0
100
AcDbPoint
 10
253.6712874724136
 20
72.97644373374254
 30
0.0
  0
ENDBLK
  5
B2D
330
B22
100
AcDbEntity
  8
0
100
AcDbBlockEnd
  0
BLOCK
  5
C3E
330
C34
100
AcDbEntity
  8
0
100
AcDbBlockBegin
  2
*D6
 70
     1
 10
0.0
 20
0.0
 30
0.0
  3
*D6
  1

  0
LINE
  5
F15
330
C34
100
AcDbEntity
  8
AM_5
100
AcDbLine
 10
29.28337224141751
 20
83.08883434446729
 30
0.0
 11
29.28337224141751
 21
72.30977706707567
 31
0.0
  0
LINE
  5
F16
330
C34
100
AcDbEntity
  8
AM_5
100
AcDbLine
 10
67.28337224141753
 20
83.08883434446729
 30
0.0
 11
67.28337224141753
 21
72.30977706707567
 31
0.0
  0
LINE
  5
F17
330
C34
100
AcDbEntity
  8
AM_5
100
AcDbLine
 10
31.28337224141751
 20
72.97644373374234
 30
0.0
 11
65.28337224141754
 21
72.97644373374234
 31
0.0
  0
SOLID
  5
F18
330
C34
100
AcDbEntity
  8
AM_5
100
AcDbTrace
 10
31.28337224141751
 20
73.30977706707567
 30
0.0
 11
31.28337224141751
 21
72.64311040040901
 31
0.0
 12
29.28337224141751
 22
72.97644373374234
 32
0.0
 13
29.28337224141751
 23
72.97644373374234
 33
0.0
  0
SOLID
  5
F19
330
C34
100
AcDbEntity
  8
AM_5
100
AcDbTrace
 10
65.28337224141754
 20
73.30977706707567
 30
0.0
 11
65.28337224141754
 21
72.64311040040901
 31
0.0
 12
67.28337224141753
 22
72.97644373374234
 32
0.0
 13
67.28337224141753
 23
72.97644373374234
 33
0.0
  0
MTEXT
  5
F1A
330
C34
100
AcDbEntity
  8
AM_5
100
AcDbMText
 10
48.28337224141751
 20
74.80977706707567
 30
0.0
 40
2.333333333333333
 41
0.0
 71
     5
 72
     1
  1
{\Famgdt|c136;o}38
 73
     1
 44
1.0
1001
ACAD
1000
MTEXTBEGIN
1070
    73
1070
     1
1070
    44
1040
1.0
1070
    74
1070
     0
1000
MTEXTEND
  0
POINT
  5
F1B
330
C34
100
AcDbEntity
  8
Defpoints
 62
     0
100
AcDbPoint
 10
29.28337224141751
 20
83.75550101113395
 30
0.0
  0
POINT
  5
F1C
330
C34
100
AcDbEntity
  8
Defpoints
 62
     0
100
AcDbPoint
 10
67.28337224141753
 20
83.75550101113395
 30
0.0
  0
POINT
  5
F1D
330
C34
100
AcDbEntity
  8
Defpoints
 62
     0
100
AcDbPoint
 10
67.28337224141753
 20
72.97644373374234
 30
0.0
  0
ENDBLK
  5
C3F
330
C34
100
AcDbEntity
  8
0
100
AcDbBlockEnd
  0
BLOCK
  5
C5D
330
C53
100
AcDbEntity
  8
0
100
AcDbBlockBegin
  2
*D7
 70
     1
 10
0.0
 20
0.0
 30
0.0
  3
*D7
  1

  0
LINE
  5
F1E
330
C53
100
AcDbEntity
  8
AM_5
100
AcDbLine
 10
21.28337224141751
 20
82.74862888544562
 30
0.0
 11
21.28337224141751
 21
65.64311040040902
 31
0.0
  0
LINE
  5
F1F
330
C53
100
AcDbEntity
  8
AM_5
100
AcDbLine
 10
75.28337224141754
 20
82.74862888544562
 30
0.0
 11
75.28337224141754
 21
65.64311040040902
 31
0.0
  0
LINE
  5
F20
330
C53
100
AcDbEntity
  8
AM_5
100
AcDbLine
 10
23.28337224141751
 20
66.30977706707568
 30
0.0
 11
73.28337224141754
 21
66.30977706707568
 31
0.0
  0
SOLID
  5
F21
330
C53
100
AcDbEntity
  8
AM_5
100
AcDbTrace
 10
23.28337224141751
 20
66.64311040040901
 30
0.0
 11
23.28337224141751
 21
65.97644373374236
 31
0.0
 12
21.28337224141751
 22
66.30977706707568
 32
0.0
 13
21.28337224141751
 23
66.30977706707568
 33
0.0
  0
SOLID
  5
F22
330
C53
100
AcDbEntity
  8
AM_5
100
AcDbTrace
 10
73.28337224141754
 20
66.64311040040901
 30
0.0
 11
73.28337224141754
 21
65.97644373374236
 31
0.0
 12
75.28337224141754
 22
66.30977706707568
 32
0.0
 13
75.28337224141754
 23
66.30977706707568
 33
0.0
  0
MTEXT
  5
F23
330
C53
100
AcDbEntity
  8
AM_5
100
AcDbMText
 10
48.28337224141752
 20
68.14311040040902
 30
0.0
 40
2.333333333333333
 41
0.0
 71
     5
 72
     1
  1
{\Famgdt|c136;o}54
 73
     1
 44
1.0
1001
ACAD
1000
MTEXTBEGIN
1070
    73
1070
     1
1070
    44
1040
1.0
1070
    74
1070
     0
1000
MTEXTEND
  0
POINT
  5
F24
330
C53
100
AcDbEntity
  8
Defpoints
 62
     0
100
AcDbPoint
 10
21.28337224141751
 20
83.41529555211229
 30
0.0
  0
POINT
  5
F25
330
C53
100
AcDbEntity
  8
Defpoints
 62
     0
100
AcDbPoint
 10
75.28337224141754
 20
83.41529555211229
 30
0.0
  0
POINT
  5
F26
330
C53
100
AcDbEntity
  8
Defpoints
 62
     0
100
AcDbPoint
 10
75.28337224141754
 20
66.30977706707568
 30
0.0
  0
ENDBLK
  5
C5E
330
C53
100
AcDbEntity
  8
0
100
AcDbBlockEnd
  0
BLOCK
  5
E0A
330
E03
100
AcDbEntity
  8
0
100
AcDbBlockBegin
  2
*D8
 70
     1
 10
0.0
 20
0.0
 30
0.0
  3
*D8
  1

  0
LINE
  5
F27
330
E03
100
AcDbEntity
  8
AM_5
100
AcDbLine
 10
31.31507660234663
 20
131.6092580308978
 30
0.0
 11
34.37529943889062
 21
138.5873619235029
 31
0.0
  0
LINE
  5
F28
330
E03
100
AcDbEntity
  8
AM_5
100
AcDbLine
 10
34.37529943889062
 20
138.5873619235029
 30
0.0
 11
44.8419661055573
 21
138.5873619235029
 31
0.0
  0
SOLID
  5
F29
330
E03
100
AcDbEntity
  8
AM_5
100
AcDbTrace
 10
31.00980824963433
 20
131.7431323896953
 30
0.0
 11
31.62034495505895
 21
131.4753836721004
 31
0.0
 12
30.51183044956204
 22
129.777647914624
 32
0.0
 13
30.51183044956204
 23
129.777647914624
 33
0.0
  0
MTEXT
  5
F2A
330
E03
100
AcDbEntity
  8
AM_5
100
AcDbMText
 10
39.94196610555728
 20
140.4206952568362
 30
0.0
 40
2.333333333333333
 41
0.0
 71
     5
 72
     1
  1
4-M6*8
 73
     1
 44
1.0
1001
ACAD
1000
MTEXTBEGIN
1070
    73
1070
     1
1070
    44
1040
1.0
1070
    74
1070
     0
1000
MTEXTEND
  0
POINT
  5
F2B
330
E03
100
AcDbEntity
  8
Defpoints
 62
     0
100
AcDbPoint
 10
30.51183044956204
 20
129.777647914624
 30
0.0
  0
POINT
  5
F2C
330
E03
100
AcDbEntity
  8
Defpoints
 62
     0
100
AcDbPoint
 10
29.28337224141749
 20
126.9764437337425
 30
0.0
  0
ENDBLK
  5
E0B
330
E03
100
AcDbEntity
  8
0
100
AcDbBlockEnd
  0
BLOCK
  5
E2F
330
E25
100
AcDbEntity
  8
0
100
AcDbBlockBegin
  2
*D9
 70
     1
 10
0.0
 20
0.0
 30
0.0
  3
*D9
  1

  0
LINE
  5
E3A
330
E25
100
AcDbEntity
  8
AM_5
100
AcDbLine
 10
99.1420910043271
 20
99.97644373374255
 30
0.0
 11
91.14209100432709
 21
99.97644373374257
 31
0.0
  0
LINE
  5
E3B
330
E25
100
AcDbEntity
  8
AM_5
100
AcDbLine
 10
99.1420910043271
 20
115.9764437337425
 30
0.0
 11
91.14209100432709
 21
115.9764437337425
 31
0.0
  0
LINE
  5
E3C
330
E25
100
AcDbEntity
  8
AM_5
100
AcDbLine
 10
91.80875767099378
 20
101.9764437337425
 30
0.0
 11
91.80875767099378
 21
113.9764437337425
 31
0.0
  0
SOLID
  5
E3D
330
E25
100
AcDbEntity
  8
AM_5
100
AcDbTrace
 10
91.47542433766044
 20
101.9764437337425
 30
0.0
 11
92.14209100432709
 21
101.9764437337425
 31
0.0
 12
91.80875767099378
 22
99.97644373374257
 32
0.0
 13
91.80875767099378
 23
99.97644373374257
 33
0.0
  0
SOLID
  5
E3E
330
E25
100
AcDbEntity
  8
AM_5
100
AcDbTrace
 10
91.47542433766044
 20
113.9764437337425
 30
0.0
 11
92.14209100432709
 21
113.9764437337425
 31
0.0
 12
91.80875767099378
 22
115.9764437337425
 32
0.0
 13
91.80875767099378
 23
115.9764437337425
 33
0.0
  0
MTEXT
  5
E3F
330
E25
100
AcDbEntity
  8
AM_5
100
AcDbMText
 10
89.97542433766041
 20
107.9764437337425
 30
0.0
 40
2.333333333333333
 41
0.0
 71
     5
 72
     1
  1
%%c16
 11
0.0000000000000001
 21
1.0
 31
0.0
 73
     1
 44
1.0
1001
ACAD
1000
MTEXTBEGIN
1070
    73
1070
     1
1070
    44
1040
1.0
1070
    74
1070
     0
1000
MTEXTEND
  0
POINT
  5
E40
330
E25
100
AcDbEntity
  8
Defpoints
 62
     0
100
AcDbPoint
 10
99.80875767099377
 20
99.97644373374255
 30
0.0
  0
POINT
  5
E41
330
E25
100
AcDbEntity
  8
Defpoints
 62
     0
100
AcDbPoint
 10
99.80875767099377
 20
115.9764437337425
 30
0.0
  0
POINT
  5
E42
330
E25
100
AcDbEntity
  8
Defpoints
 62
     0
100
AcDbPoint
 10
91.80875767099378
 20
115.9764437337425
 30
0.0
  0
ENDBLK
  5
E30
330
E25
100
AcDbEntity
  8
0
100
AcDbBlockEnd
  0
BLOCK
  5
E64
330
E5A
100
AcDbEntity
  8
0
100
AcDbBlockBegin
  2
*D10
 70
     1
 10
0.0
 20
0.0
 30
0.0
  3
*D10
  1

  0
LINE
  5
E6F
330
E5A
100
AcDbEntity
  8
AM_5
100
AcDbLine
 10
102.8087576709938
 20
90.85977706707588
 30
0.0
 11
102.8087576709938
 21
72.80977706707585
 31
0.0
  0
LINE
  5
E70
330
E5A
100
AcDbEntity
  8
AM_5
100
AcDbLine
 10
112.8087576709937
 20
80.80977706707587
 30
0.0
 11
112.8087576709937
 21
72.80977706707585
 31
0.0
  0
LINE
  5
E71
330
E5A
100
AcDbEntity
  8
AM_5
100
AcDbLine
 10
104.8087576709938
 20
73.47644373374253
 30
0.0
 11
110.8087576709937
 21
73.47644373374253
 31
0.0
  0
SOLID
  5
E72
330
E5A
100
AcDbEntity
  8
AM_5
100
AcDbTrace
 10
104.8087576709938
 20
73.80977706707586
 30
0.0
 11
104.8087576709938
 21
73.14311040040919
 31
0.0
 12
102.8087576709938
 22
73.47644373374253
 32
0.0
 13
102.8087576709938
 23
73.47644373374253
 33
0.0
  0
SOLID
  5
E73
330
E5A
100
AcDbEntity
  8
AM_5
100
AcDbTrace
 10
110.8087576709937
 20
73.80977706707586
 30
0.0
 11
110.8087576709937
 21
73.14311040040919
 31
0.0
 12
112.8087576709937
 22
73.47644373374253
 32
0.0
 13
112.8087576709937
 23
73.47644373374253
 33
0.0
  0
MTEXT
  5
E74
330
E5A
100
AcDbEntity
  8
AM_5
100
AcDbMText
 10
107.8087576709938
 20
75.30977706707585
 30
0.0
 40
2.333333333333333
 41
0.0
 71
     5
 72
     1
  1
10
 73
     1
 44
1.0
1001
ACAD
1000
MTEXTBEGIN
1070
    73
1070
     1
1070
    44
1040
1.0
1070
    74
1070
     0
1000
MTEXTEND
  0
POINT
  5
E75
330
E5A
100
AcDbEntity
  8
Defpoints
 62
     0
100
AcDbPoint
 10
102.8087576709938
 20
91.52644373374256
 30
0.0
  0
POINT
  5
E76
330
E5A
100
AcDbEntity
  8
Defpoints
 62
     0
100
AcDbPoint
 10
112.8087576709937
 20
81.47644373374253
 30
0.0
  0
POINT
  5
E77
330
E5A
100
AcDbEntity
  8
Defpoints
 62
     0
100
AcDbPoint
 10
112.8087576709937
 20
73.47644373374253
 30
0.0
  0
ENDBLK
  5
E65
330
E5A
100
AcDbEntity
  8
0
100
AcDbBlockEnd
  0
BLOCK
  5
E83
330
E79
100
AcDbEntity
  8
0
100
AcDbBlockBegin
  2
*D11
 70
     1
 10
0.0
 20
0.0
 30
0.0
  3
*D11
  1

  0
LINE
  5
E85
330
E79
100
AcDbEntity
  8
AM_5
100
AcDbLine
 10
112.8087576709937
 20
80.80977706707589
 30
0.0
 11
112.8087576709937
 21
72.80977706707594
 31
0.0
  0
LINE
  5
E86
330
E79
100
AcDbEntity
  8
AM_5
100
AcDbLine
 10
182.8087576709938
 20
80.80977706707587
 30
0.0
 11
182.8087576709938
 21
72.80977706707594
 31
0.0
  0
LINE
  5
E87
330
E79
100
AcDbEntity
  8
AM_5
100
AcDbLine
 10
114.8087576709937
 20
73.47644373374262
 30
0.0
 11
180.8087576709938
 21
73.47644373374262
 31
0.0
  0
SOLID
  5
E88
330
E79
100
AcDbEntity
  8
AM_5
100
AcDbTrace
 10
114.8087576709937
 20
73.80977706707594
 30
0.0
 11
114.8087576709937
 21
73.14311040040928
 31
0.0
 12
112.8087576709937
 22
73.47644373374262
 32
0.0
 13
112.8087576709937
 23
73.47644373374262
 33
0.0
  0
SOLID
  5
E89
330
E79
100
AcDbEntity
  8
AM_5
100
AcDbTrace
 10
180.8087576709938
 20
73.80977706707594
 30
0.0
 11
180.8087576709938
 21
73.14311040040928
 31
0.0
 12
182.8087576709938
 22
73.47644373374262
 32
0.0
 13
182.8087576709938
 23
73.47644373374262
 33
0.0
  0
MTEXT
  5
E8A
330
E79
100
AcDbEntity
  8
AM_5
100
AcDbMText
 10
147.8087576709937
 20
75.30977706707594
 30
0.0
 40
2.333333333333333
 41
0.0
 71
     5
 72
     1
  1
70
 73
     1
 44
1.0
1001
ACAD
1000
MTEXTBEGIN
1070
    73
1070
     1
1070
    44
1040
1.0
1070
    74
1070
     0
1000
MTEXTEND
  0
POINT
  5
E8B
330
E79
100
AcDbEntity
  8
Defpoints
 62
     0
100
AcDbPoint
 10
112.8087576709937
 20
81.47644373374255
 30
0.0
  0
POINT
  5
E8C
330
E79
100
AcDbEntity
  8
Defpoints
 62
     0
100
AcDbPoint
 10
182.8087576709938
 20
81.47644373374253
 30
0.0
  0
POINT
  5
E8D
330
E79
100
AcDbEntity
  8
Defpoints
 62
     0
100
AcDbPoint
 10
182.8087576709938
 20
73.47644373374262
 30
0.0
  0
ENDBLK
  5
E84
330
E79
100
AcDbEntity
  8
0
100
AcDbBlockEnd
  0
BLOCK
  5
E99
330
E8F
100
AcDbEntity
  8
0
100
AcDbBlockBegin
  2
*D12
 70
     1
 10
0.0
 20
0.0
 30
0.0
  3
*D12
  1

  0
LINE
  5
E9B
330
E8F
100
AcDbEntity
  8
AM_5
100
AcDbLine
 10
102.8087576709938
 20
90.85977706707588
 30
0.0
 11
102.8087576709938
 21
66.14311040040944
 31
0.0
  0
LINE
  5
E9C
330
E8F
100
AcDbEntity
  8
AM_5
100
AcDbLine
 10
182.8087576709938
 20
80.80977706707587
 30
0.0
 11
182.8087576709938
 21
66.14311040040944
 31
0.0
  0
LINE
  5
E9D
330
E8F
100
AcDbEntity
  8
AM_5
100
AcDbLine
 10
104.8087576709938
 20
66.80977706707611
 30
0.0
 11
180.8087576709938
 21
66.80977706707611
 31
0.0
  0
SOLID
  5
E9E
330
E8F
100
AcDbEntity
  8
AM_5
100
AcDbTrace
 10
104.8087576709938
 20
67.14311040040944
 30
0.0
 11
104.8087576709938
 21
66.47644373374278
 31
0.0
 12
102.8087576709938
 22
66.80977706707611
 32
0.0
 13
102.8087576709938
 23
66.80977706707611
 33
0.0
  0
SOLID
  5
E9F
330
E8F
100
AcDbEntity
  8
AM_5
100
AcDbTrace
 10
180.8087576709938
 20
67.14311040040944
 30
0.0
 11
180.8087576709938
 21
66.47644373374278
 31
0.0
 12
182.8087576709938
 22
66.80977706707611
 32
0.0
 13
182.8087576709938
 23
66.80977706707611
 33
0.0
  0
MTEXT
  5
EA0
330
E8F
100
AcDbEntity
  8
AM_5
100
AcDbMText
 10
142.8087576709937
 20
68.64311040040944
 30
0.0
 40
2.333333333333333
 41
0.0
 71
     5
 72
     1
  1
80
 73
     1
 44
1.0
1001
ACAD
1000
MTEXTBEGIN
1070
    73
1070
     1
1070
    44
1040
1.0
1070
    74
1070
     0
1000
MTEXTEND
  0
POINT
  5
EA1
330
E8F
100
AcDbEntity
  8
Defpoints
 62
     0
100
AcDbPoint
 10
102.8087576709938
 20
91.52644373374256
 30
0.0
  0
POINT
  5
EA2
330
E8F
100
AcDbEntity
  8
Defpoints
 62
     0
100
AcDbPoint
 10
182.8087576709938
 20
81.47644373374253
 30
0.0
  0
POINT
  5
EA3
330
E8F
100
AcDbEntity
  8
Defpoints
 62
     0
100
AcDbPoint
 10
182.8087576709938
 20
66.80977706707611
 30
0.0
  0
ENDBLK
  5
E9A
330
E8F
100
AcDbEntity
  8
0
100
AcDbBlockEnd
  0
BLOCK
  5
EE5
330
EDB
100
AcDbEntity
  8
0
100
AcDbBlockBegin
  2
*D13
 70
     1
 10
0.0
 20
0.0
 30
0.0
  3
*D13
  1

  0
LINE
  5
EF0
330
EDB
100
AcDbEntity
  8
AM_5
100
AcDbLine
 10
103.1420910043271
 20
90.52644373374254
 30
0.0
 11
84.47542433766043
 21
90.52644373374256
 31
0.0
  0
LINE
  5
EF1
330
EDB
100
AcDbEntity
  8
AM_5
100
AcDbLine
 10
103.1420910043271
 20
125.4264437337425
 30
0.0
 11
84.47542433766043
 21
125.4264437337425
 31
0.0
  0
LINE
  5
EF2
330
EDB
100
AcDbEntity
  8
AM_5
100
AcDbLine
 10
85.1420910043271
 20
92.52644373374257
 30
0.0
 11
85.14209100432712
 21
123.4264437337425
 31
0.0
  0
SOLID
  5
EF3
330
EDB
100
AcDbEntity
  8
AM_5
100
AcDbTrace
 10
84.80875767099377
 20
92.52644373374257
 30
0.0
 11
85.47542433766043
 21
92.52644373374257
 31
0.0
 12
85.1420910043271
 22
90.52644373374256
 32
0.0
 13
85.1420910043271
 23
90.52644373374256
 33
0.0
  0
SOLID
  5
EF4
330
EDB
100
AcDbEntity
  8
AM_5
100
AcDbTrace
 10
84.80875767099378
 20
123.4264437337425
 30
0.0
 11
85.47542433766045
 21
123.4264437337425
 31
0.0
 12
85.14209100432712
 22
125.4264437337425
 32
0.0
 13
85.14209100432712
 23
125.4264437337425
 33
0.0
  0
MTEXT
  5
EF5
330
EDB
100
AcDbEntity
  8
AM_5
100
AcDbMText
 10
83.30875767099376
 20
107.9764437337425
 30
0.0
 40
2.333333333333333
 41
0.0
 71
     5
 72
     1
  1
%%c34.9
 11
0.0000000000000001
 21
1.0
 31
0.0
 73
     1
 44
1.0
1001
ACAD
1000
MTEXTBEGIN
1070
    73
1070
     1
1070
    44
1040
1.0
1070
    74
1070
     0
1000
MTEXTEND
  0
POINT
  5
EF6
330
EDB
100
AcDbEntity
  8
Defpoints
 62
     0
100
AcDbPoint
 10
103.8087576709938
 20
90.52644373374254
 30
0.0
  0
POINT
  5
EF7
330
EDB
100
AcDbEntity
  8
Defpoints
 62
     0
100
AcDbPoint
 10
103.8087576709938
 20
125.4264437337425
 30
0.0
  0
POINT
  5
EF8
330
EDB
100
AcDbEntity
  8
Defpoints
 62
     0
100
AcDbPoint
 10
85.14209100432712
 20
125.4264437337425
 30
0.0
  0
ENDBLK
  5
EE6
330
EDB
100
AcDbEntity
  8
0
100
AcDbBlockEnd
  0
BLOCK
  5
F01
330
EFA
100
AcDbEntity
  8
0
100
AcDbBlockBegin
  2
*D14
 70
     1
 10
0.0
 20
0.0
 30
0.0
  3
*D14
  1

  0
LINE
  5
F0F
330
EFA
100
AcDbEntity
  8
AM_5
100
AcDbLine
 10
151.7053918565958
 20
132.0746263489365
 30
0.0
 11
146.2599714668937
 21
141.290223560915
 31
0.0
  0
LINE
  5
F10
330
EFA
100
AcDbEntity
  8
AM_5
100
AcDbLine
 10
146.2599714668937
 20
141.290223560915
 30
0.0
 11
139.8724925112016
 21
141.290223560915
 31
0.0
  0
SOLID
  5
F11
330
EFA
100
AcDbEntity
  8
AM_5
100
AcDbTrace
 10
151.9923695452049
 20
132.2441990983737
 30
0.0
 11
151.4184141679868
 21
131.9050535994993
 31
0.0
 12
152.7228283532193
 22
130.3527602172821
 32
0.0
 13
152.7228283532193
 23
130.3527602172821
 33
0.0
  0
MTEXT
  5
F12
330
EFA
100
AcDbEntity
  8
AM_5
100
AcDbMText
 10
142.7328986557144
 20
143.1277025166072
 30
0.0
 40
2.333333333333333
 41
0.0
 71
     5
 72
     1
  1
G1/8
 73
     1
 44
1.0
1001
ACAD
1000
MTEXTBEGIN
1070
    73
1070
     1
1070
    44
1040
1.0
1070
    74
1070
     0
1000
MTEXTEND
  0
POINT
  5
F13
330
EFA
100
AcDbEntity
  8
Defpoints
 62
     0
100
AcDbPoint
 10
152.7228283532193
 20
130.3527602172821
 30
0.0
  0
POINT
  5
F14
330
EFA
100
AcDbEntity
  8
Defpoints
 62
     0
100
AcDbPoint
 10
155.3087576709937
 20
125.9764437337426
 30
0.0
  0
ENDBLK
  5
F02
330
EFA
100
AcDbEntity
  8
0
100
AcDbBlockEnd
  0
ENDSEC
  0
SECTION
  2
ENTITIES
  0
VIEWPORT
  5
1C3
102
{ACAD_XDICTIONARY
360
10D5
102
}
330
D
100
AcDbEntity
 67
     1
  8
0
100
AcDbViewport
 10
137.7735778248615
 20
92.72448329183642
 30
0.0
 40
259.5488654569004
 41
193.4968310586818
 68
     1
 69
     1
 12
137.7735778248615
 22
92.72448329183642
 13
0.0
 23
0.0
 14
1.0
 24
1.0
 15
0.0
 25
0.0
 16
0.0
 26
0.0
 36
1.0
 17
0.0
 27
0.0
 37
0.0
 42
50.0
 43
0.0
 44
0.0
 45
193.4968310586818
 50
0.0
 51
0.0
 72
  1000
 90
    32800
  1

281
     0
 71
     1
 74
     0
110
0.0
120
0.0
130
0.0
111
1.0
121
0.0
131
0.0
112
0.0
122
1.0
132
0.0
 79
     0
146
0.0
  0
TEXT
  5
2FD
330
D
100
AcDbEntity
 67
     1
  8
LOGO
 62
     7
100
AcDbText
 10
53.18944200857607
 20
18.30989395457408
 30
0.0
 40
3.887714579822564
  1
訂購代號:
  7
CHINESET
100
AcDbText
  0
TEXT
  5
2FE
330
D
100
AcDbEntity
 67
     1
  8
LOGO
 62
     7
100
AcDbText
 10
52.72444991143493
 20
14.66116251003063
 30
0.0
 40
2.59180971988171
  1
Order example:
 41
0.8
  7
CHINESET
100
AcDbText
  0
LINE
  5
2FF
330
D
100
AcDbEntity
 67
     1
  8
LOGO
 62
     4
100
AcDbLine
 10
92.59014755165054
 20
5.358178697362589
 30
0.0
 11
79.6310989522421
 21
5.358178697362589
 31
0.0
  0
LINE
  5
300
330
D
100
AcDbEntity
 67
     1
  8
LOGO
 62
     4
100
AcDbLine
 10
92.59014755165054
 20
12.48565542703724
 30
0.0
 11
79.6310989522421
 21
12.48565542703724
 31
0.0
  0
LINE
  5
301
330
D
100
AcDbEntity
 67
     1
  8
LOGO
 62
     4
100
AcDbLine
 10
93.0807139128052
 20
15.40144136190417
 30
0.0
 11
78.70549857959679
 21
15.40144136190417
 31
0.0
  0
LINE
  5
302
330
D
100
AcDbEntity
 67
     1
  8
LOGO
 62
     4
100
AcDbLine
 10
93.0807139128052
 20
21.23301323163807
 30
0.0
 11
78.70549857959679
 21
21.23301323163807
 31
0.0
  0
TEXT
  5
303
330
D
100
AcDbEntity
 67
     1
  8
LOGO
  6
Continuous
 62
     7
100
AcDbText
 10
81.55952880334444
 20
16.69734622184506
 30
0.0
 40
3.239762149852137
  1
MCB
  7
CHINESET
 72
     1
 11
86.11062325194627
 21
18.31722729677114
 31
0.0
100
AcDbText
 73
     2
  0
LINE
  5
304
330
D
100
AcDbEntity
 67
     1
  8
LOGO
 62
     4
100
AcDbLine
 10
78.70549857959679
 20
21.23301323163807
 30
0.0
 11
78.70549857959679
 21
15.40144136190417
 31
0.0
  0
LINE
  5
305
330
D
100
AcDbEntity
 67
     1
  8
LOGO
 62
     4
100
AcDbLine
 10
79.6310989522421
 20
12.48565542703724
 30
0.0
 11
79.6310989522421
 21
5.358178697362589
 31
0.0
  0
TEXT
  5
306
330
D
100
AcDbEntity
 67
     1
  8
LOGO
100
AcDbText
 10
83.91816455232147
 20
6.356590385995648
 30
0.0
 40
1.289681588014585
  1
Model
 72
     4
 11
86.11062325194627
 21
6.978059772288631
 31
0.0
100
AcDbText
  0
TEXT
  5
307
330
D
100
AcDbEntity
 67
     1
  8
LOGO
100
AcDbText
 10
83.51881353206456
 20
8.988242901488227
 30
0.0
 40
2.59180971988171
  1
型式
 72
     4
 11
86.11062325194627
 21
10.21782192214077
 31
0.0
100
AcDbText
  0
LINE
  5
308
330
D
100
AcDbEntity
 67
     1
  8
LOGO
 62
     4
100
AcDbLine
 10
86.11062325194627
 20
15.40144136190417
 30
0.0
 11
86.11062325194627
 21
12.48565542703724
 31
0.0
  0
LINE
  5
309
330
D
100
AcDbEntity
 67
     1
  8
LOGO
 62
     4
100
AcDbLine
 10
93.0807139128052
 20
21.23301323163807
 30
0.0
 11
93.0807139128052
 21
15.40144136190417
 31
0.0
  0
LINE
  5
30A
330
D
100
AcDbEntity
 67
     1
  8
LOGO
 62
     4
100
AcDbLine
 10
92.59014755165067
 20
12.48565542703724
 30
0.0
 11
92.59014755165067
 21
5.358178697362589
 31
0.0
  0
LINE
  5
30B
330
D
100
AcDbEntity
 67
     1
  8
LOGO
 62
     4
100
AcDbLine
 10
108.0843570673013
 20
21.23301323163813
 30
0.0
 11
108.0843570673013
 21
15.40144136190425
 31
0.0
  0
LINE
  5
30C
330
D
100
AcDbEntity
 67
     1
  8
LOGO
 62
     4
100
AcDbLine
 10
97.68121902024489
 20
21.23301323163807
 30
0.0
 11
97.68121902024489
 21
15.40144136190425
 31
0.0
  0
LINE
  5
30D
330
D
100
AcDbEntity
 67
     1
  8
LOGO
 62
     4
100
AcDbLine
 10
108.0843570673013
 20
5.358178697362589
 30
0.0
 11
97.68121902024489
 21
5.358178697362589
 31
0.0
  0
LINE
  5
30E
330
D
100
AcDbEntity
 67
     1
  8
LOGO
 62
     4
100
AcDbLine
 10
108.0843570673013
 20
15.40144136190425
 30
0.0
 11
97.68121902024489
 21
15.40144136190425
 31
0.0
  0
LINE
  5
30F
330
D
100
AcDbEntity
 67
     1
  8
LOGO
 62
     4
100
AcDbLine
 10
108.0843570673013
 20
12.48565542703734
 30
0.0
 11
97.68121902024489
 21
12.48565542703734
 31
0.0
  0
LINE
  5
310
330
D
100
AcDbEntity
 67
     1
  8
LOGO
 62
     4
100
AcDbLine
 10
97.68121902024489
 20
12.48565542703734
 30
0.0
 11
97.68121902024489
 21
5.358178697362589
 31
0.0
  0
TEXT
  5
311
330
D
100
AcDbEntity
 67
     1
  8
LOGO
100
AcDbText
 10
101.0772338205526
 20
6.353251613465031
 30
0.0
 40
1.289681588014585
  1
Bore
 72
     4
 11
102.8827880437731
 21
6.978059772288631
 31
0.0
100
AcDbText
  0
TEXT
  5
312
330
D
100
AcDbEntity
 67
     1
  8
LOGO
100
AcDbText
 10
100.1289902163987
 20
8.921917062199916
 30
0.0
 40
2.59180971988171
  1
內徑
 72
     4
 11
102.8827880437731
 21
10.21782192214077
 31
0.0
100
AcDbText
  0
LINE
  5
313
330
D
100
AcDbEntity
 67
     1
  8
LOGO
 62
     4
100
AcDbLine
 10
102.8827878943652
 20
15.40144136190425
 30
0.0
 11
102.8827878943652
 21
12.48565542703734
 31
0.0
  0
LINE
  5
314
330
D
100
AcDbEntity
 67
     1
  8
LOGO
 62
     4
100
AcDbLine
 10
108.0843570673013
 20
12.48565542703734
 30
0.0
 11
108.0843570673013
 21
5.358178697362589
 31
0.0
  0
LINE
  5
315
330
D
100
AcDbEntity
 67
     1
  8
LOGO
 62
     4
100
AcDbLine
 10
108.0843570673013
 20
21.23301323163813
 30
0.0
 11
97.68121902024489
 21
21.23301323163807
 31
0.0
  0
LINE
  5
316
330
D
100
AcDbEntity
 67
     1
  8
LOGO
  6
Continuous
 62
     7
100
AcDbLine
 10
94.09772937794469
 20
18.29657094760239
 30
0.0
 11
96.6727387310167
 21
18.29657094760239
 31
0.0
  0
TEXT
  5
317
330
D
100
AcDbEntity
 67
     1
  8
LOGO
  6
Continuous
 62
     7
100
AcDbText
 10
100.5625013303768
 20
16.66060711491934
 30
0.0
 40
3.239762149852137
  1
40
  7
CHINESET
 72
     1
 11
103.1851659278761
 21
18.28048818984541
 31
0.0
100
AcDbText
 73
     2
  0
LINE
  5
318
330
D
100
AcDbEntity
 67
     1
  8
LOGO
 62
     4
100
AcDbLine
 10
51.59829979723321
 20
3.738297622436377
 30
0.0
 11
51.59829979723321
 21
23.17687052154969
 31
0.0
  0
TEXT
  5
319
330
D
100
AcDbEntity
 67
     1
  8
LOGO
  6
Continuous
100
AcDbText
 10
15.81586218262202
 20
7.556975933102805
 30
0.0
 40
2.915785934866948
  1
金器工業股份有限公司
  7
CHINESET
100
AcDbText
  0
TEXT
  5
31A
330
D
100
AcDbEntity
 67
     1
  8
LOGO
  6
Continuous
100
AcDbText
 10
10.46014028007084
 20
4.640618732799069
 30
0.0
 40
1.943857289911299
  1
MINDMAN INDUSTRIAL CO., LTD.
 41
0.85
  7
CHINESET
100
AcDbText
  0
LINE
  5
31B
330
D
100
AcDbEntity
 67
     1
  8
LOGO
 62
     4
100
AcDbLine
 10
51.59829979723321
 20
19.2891559417269
 30
0.0
 11
23.08839287853345
 21
19.2891559417269
 31
0.0
  0
LINE
  5
31C
330
D
100
AcDbEntity
 67
     1
  8
LOGO
 62
     4
100
AcDbLine
 10
51.59829979723321
 20
15.40144136190425
 30
0.0
 11
23.08839287853345
 21
15.40144136190425
 31
0.0
  0
LINE
  5
31D
330
D
100
AcDbEntity
 67
     1
  8
LOGO
 62
     4
100
AcDbLine
 10
51.59829979723321
 20
11.51372678208175
 30
0.0
 11
8.833439419184117
 21
11.51372678208175
 31
0.0
  0
LINE
  5
31E
330
D
100
AcDbEntity
 67
     1
  8
LOGO
 62
     4
100
AcDbLine
 10
23.08839287853345
 20
11.51372678208175
 30
0.0
 11
23.08839287853345
 21
23.17687052154969
 31
0.0
  0
TEXT
  5
31F
330
D
100
AcDbEntity
 67
     1
  8
LOGO
100
AcDbText
 10
42.57356861035487
 20
12.48565542703729
 30
0.0
 40
1.943857289911299
  1
mm
  7
CHINESET
 72
     1
 11
44.98024906453077
 21
13.45758407199294
 31
0.0
100
AcDbText
 73
     2
  0
TEXT
  5
320
330
D
100
AcDbEntity
 67
     1
  8
LOGO
100
AcDbText
 10
41.55535764897276
 20
20.26108458668248
 30
0.0
 40
1.943857289911299
  1
1 : 1
  7
CHINESET
 72
     1
 11
44.98024906453077
 21
21.23301323163813
 31
0.0
100
AcDbText
 73
     2
  0
LINE
  5
321
330
D
100
AcDbEntity
 67
     1
  8
LOGO
 62
     4
100
AcDbLine
 10
38.63925119782425
 20
11.51372678208175
 30
0.0
 11
38.63925119782425
 21
23.17687052154969
 31
0.0
  0
TEXT
  5
322
330
D
100
AcDbEntity
 67
     1
  8
LOGO
100
AcDbText
 10
24.69120734927777
 20
20.26204120936452
 30
127.3972044629742
 40
1.943857289911299
  1
比例 Scale:
 41
0.9
  7
CHINESET
 72
     4
 11
30.86382203817914
 21
21.23301323163813
 31
127.3972044629742
100
AcDbText
  0
TEXT
  5
323
330
D
100
AcDbEntity
 67
     1
  8
LOGO
100
AcDbText
 10
24.57926199642127
 20
16.40071347185499
 30
127.3972044629742
 40
1.943857289911299
  1
投影  View:
 41
0.9
  7
CHINESET
 72
     4
 11
30.86382203817914
 21
17.34529865181558
 31
127.3972044629742
100
AcDbText
  0
TEXT
  5
324
330
D
100
AcDbEntity
 67
     1
  8
LOGO
100
AcDbText
 10
24.76930875824742
 20
12.48565542703729
 30
127.3972044629742
 40
1.943857289911299
  1
單位  Unit:
 41
0.9
  7
CHINESET
 72
     4
 11
30.86382203817914
 21
13.45758407199294
 31
127.3972044629742
100
AcDbText
  0
SOLID
  5
325
330
D
100
AcDbEntity
 67
     1
  8
LOGO
 62
     5
100
AcDbTrace
 10
10.85022255400389
 20
14.74511284026205
 30
0.0
 11
11.69069543934614
 21
14.74511284026154
 31
0.0
 12
15.19749609887816
 22
22.71511433919821
 32
0.0
 13
16.0379689842207
 23
22.71511433919761
 33
0.0
  0
SOLID
  5
326
330
D
100
AcDbEntity
 67
     1
  8
LOGO
 62
     5
100
AcDbTrace
 10
12.0384773229369
 20
14.74511284026205
 30
0.0
 11
12.8789502082792
 21
14.74511284026205
 31
0.0
 12
16.0379689842207
 22
22.07751421928305
 32
0.0
 13
15.19749609887816
 23
18.99578030636104
 33
0.0
  0
SOLID
  5
327
330
D
100
AcDbEntity
 67
     1
  8
LOGO
 62
     2
100
AcDbTrace
 10
11.69069543934614
 20
14.74511284026154
 30
0.0
 11
12.0384773229369
 21
14.74511284026205
 31
0.0
 12
16.0379689842207
 22
22.71511433919761
 32
0.0
 13
16.38575086781111
 23
22.71511433919761
 33
0.0
  0
SOLID
  5
328
330
D
100
AcDbEntity
 67
     1
  8
LOGO
 62
     5
100
AcDbTrace
 10
9.502738409601477
 20
11.84693047701246
 30
0.0
 11
9.792556645926822
 21
11.84693047701246
 31
0.0
 12
10.6087073570664
 22
13.29602165863721
 32
0.0
 13
10.89852559339135
 23
13.29602165863721
 33
0.0
  0
SOLID
  5
329
330
D
100
AcDbEntity
 67
     1
  8
LOGO
 62
     5
100
AcDbTrace
 10
10.6087073570664
 20
13.29602165863721
 30
0.0
 11
10.89852559339135
 21
13.29602165863721
 31
0.0
 12
10.6087073570664
 22
11.84693047701246
 32
0.0
 13
10.89852559339135
 23
11.84693047701246
 33
0.0
  0
SOLID
  5
32A
330
D
100
AcDbEntity
 67
     1
  8
LOGO
 62
     5
100
AcDbTrace
 10
10.6087073570664
 20
11.84693047701246
 30
0.0
 11
10.89852559339135
 21
11.84693047701246
 31
0.0
 12
11.71467630453236
 22
13.29602165863721
 32
0.0
 13
12.00449454085714
 23
13.29602165863721
 33
0.0
  0
SOLID
  5
32B
330
D
100
AcDbEntity
 67
     1
  8
LOGO
 62
     5
100
AcDbTrace
 10
11.71467630453236
 20
13.29602165863721
 30
0.0
 11
12.00449454085714
 21
13.29602165863721
 31
0.0
 12
11.71467630453236
 22
11.84693047701246
 32
0.0
 13
12.00449454085714
 23
11.84693047701246
 33
0.0
  0
POLYLINE
  5
32C
330
D
100
AcDbEntity
 67
     1
  8
LOGO
 62
     5
100
AcDb2dPolyline
 66
     1
 10
0.0
 20
0.0
 30
0.0
 40
0.290282688626754
 41
0.290282688626754
  0
VERTEX
  5
32D
330
32C
100
AcDbEntity
 67
     1
  8
LOGO
 62
     5
100
AcDbVertex
100
AcDb2dVertex
 10
21.42928485831772
 20
12.71638518598704
 30
0.0
 42
1.0
  0
VERTEX
  5
32E
330
32C
100
AcDbEntity
 67
     1
  8
LOGO
 62
     5
100
AcDbVertex
100
AcDb2dVertex
 10
20.55843679243782
 20
12.71638518598704
 30
0.0
 42
1.0
  0
SEQEND
  5
32F
330
32C
100
AcDbEntity
 67
     1
  8
LOGO
 62
     5
  0
POLYLINE
  5
330
330
D
100
AcDbEntity
 67
     1
  8
LOGO
 62
     5
100
AcDb2dPolyline
 66
     1
 10
0.0
 20
0.0
 30
0.0
 70
     1
  0
VERTEX
  5
331
330
330
100
AcDbEntity
 67
     1
  8
LOGO
 62
     5
100
AcDbVertex
100
AcDb2dVertex
 10
18.91684945293093
 20
12.57147606782476
 30
0.0
 42
1.000000057330635
  0
VERTEX
  5
332
330
330
100
AcDbEntity
 67
     1
  8
LOGO
 62
     5
100
AcDbVertex
100
AcDb2dVertex
 10
19.78630416190538
 20
12.57147606782476
 30
0.0
 42
1.000000057330635
  0
SEQEND
  5
333
330
330
100
AcDbEntity
 67
     1
  8
LOGO
 62
     5
  0
CIRCLE
  5
334
330
D
100
AcDbEntity
 67
     1
  8
LOGO
 62
     5
100
AcDbCircle
 10
19.35157680741866
 20
12.57147606782476
 30
0.0
 40
0.4347273544874267
  0
POLYLINE
  5
335
330
D
100
AcDbEntity
 67
     1
  8
LOGO
 62
     5
100
AcDb2dPolyline
 66
     1
 10
0.0
 20
0.0
 30
0.0
 70
     1
 40
0.290282688626754
 41
0.290282688626754
  0
VERTEX
  5
336
330
335
100
AcDbEntity
 67
     1
  8
LOGO
 62
     5
100
AcDbVertex
100
AcDb2dVertex
 10
18.77101143016489
 20
12.57147606782476
 30
0.0
 42
1.0
  0
VERTEX
  5
337
330
335
100
AcDbEntity
 67
     1
  8
LOGO
 62
     5
100
AcDbVertex
100
AcDb2dVertex
 10
19.93214218467193
 20
12.57147606782476
 30
0.0
 42
1.0
  0
SEQEND
  5
338
330
335
100
AcDbEntity
 67
     1
  8
LOGO
 62
     5
  0
LINE
  5
339
330
D
100
AcDbEntity
 67
     1
  8
LOGO
100
AcDbLine
 10
21.57349729802684
 20
11.84693047701246
 30
0.0
 11
21.57349729802684
 21
12.71638518598704
 31
0.0
  0
SOLID
  5
33A
330
D
100
AcDbEntity
 67
     1
  8
LOGO
 62
     5
100
AcDbTrace
 10
19.78627518008301
 20
13.29602165863721
 30
0.0
 11
20.07609341640756
 21
13.29602165863721
 31
0.0
 12
19.78627518008301
 22
11.84693047701246
 32
0.0
 13
20.07609341640756
 23
11.84693047701246
 33
0.0
  0
SOLID
  5
33B
330
D
100
AcDbEntity
 67
     1
  8
LOGO
 62
     5
100
AcDbTrace
 10
20.41422435272733
 20
11.84693047701246
 30
0.0
 11
20.70404258905239
 21
11.84693047701246
 31
0.0
 12
20.41422435272733
 22
13.29602165863721
 32
0.0
 13
20.70404258905239
 23
13.29602165863721
 33
0.0
  0
SOLID
  5
33C
330
D
100
AcDbEntity
 67
     1
  8
LOGO
 62
     5
100
AcDbTrace
 10
21.28367906170268
 20
12.71638518598704
 30
0.0
 11
21.57349729802684
 21
12.71638518598704
 31
0.0
 12
21.28367906170268
 22
11.84693047701246
 32
0.0
 13
21.57349729802684
 23
11.84693047701246
 33
0.0
  0
SOLID
  5
33D
330
D
100
AcDbEntity
 67
     1
  8
LOGO
 62
     5
100
AcDbTrace
 10
20.38524252909474
 20
22.07751421928305
 30
0.0
 11
19.54476964375271
 21
18.99578030636104
 31
0.0
 12
20.38524252909474
 22
14.74511284026154
 32
0.0
 13
19.54476964375271
 23
14.74511284026154
 33
0.0
  0
SOLID
  5
33E
330
D
100
AcDbEntity
 67
     1
  8
LOGO
 62
     5
100
AcDbTrace
 10
20.73302441268487
 20
14.74511284026154
 30
0.0
 11
21.57349729802684
 21
14.74511284026154
 31
0.0
 12
20.73302441268487
 22
22.71511433919761
 32
0.0
 13
21.57349729802684
 23
22.71511433919821
 33
0.0
  0
SOLID
  5
33F
330
D
100
AcDbEntity
 67
     1
  8
LOGO
 62
     2
100
AcDbTrace
 10
20.38524252909474
 20
22.71511433919821
 30
0.0
 11
20.73302441268487
 21
22.71511433919761
 31
0.0
 12
20.38524252909474
 22
14.74511284026154
 32
0.0
 13
20.73302441268487
 23
14.74511284026154
 33
0.0
  0
POLYLINE
  5
340
330
D
100
AcDbEntity
 67
     1
  8
LOGO
 62
     5
100
AcDb2dPolyline
 66
     1
 10
0.0
 20
0.0
 30
0.0
 40
0.290282688626754
 41
0.290282688626754
  0
VERTEX
  5
341
330
340
100
AcDbEntity
 67
     1
  8
LOGO
 62
     5
100
AcDbVertex
100
AcDb2dVertex
 10
17.27520414977806
 20
12.71638518598704
 30
0.0
 42
1.0
  0
VERTEX
  5
342
330
340
100
AcDbEntity
 67
     1
  8
LOGO
 62
     5
100
AcDbVertex
100
AcDb2dVertex
 10
16.4043560838972
 20
12.71638518598704
 30
0.0
 42
1.0
  0
SEQEND
  5
343
330
340
100
AcDbEntity
 67
     1
  8
LOGO
 62
     5
  0
POLYLINE
  5
344
330
D
100
AcDbEntity
 67
     1
  8
LOGO
 62
     5
100
AcDb2dPolyline
 66
     1
 10
0.0
 20
0.0
 30
0.0
 40
0.290282688626754
 41
0.290282688626754
  0
VERTEX
  5
345
330
344
100
AcDbEntity
 67
     1
  8
LOGO
 62
     5
100
AcDbVertex
100
AcDb2dVertex
 10
18.1446588587525
 20
12.71638518598704
 30
0.0
 42
1.0
  0
VERTEX
  5
346
330
344
100
AcDbEntity
 67
     1
  8
LOGO
 62
     5
100
AcDbVertex
100
AcDb2dVertex
 10
17.27381079287215
 20
12.71638518598704
 30
0.0
 42
1.0
  0
SEQEND
  5
347
330
344
100
AcDbEntity
 67
     1
  8
LOGO
 62
     5
  0
POLYLINE
  5
348
330
D
100
AcDbEntity
 67
     1
  8
LOGO
 62
     5
100
AcDb2dPolyline
 66
     1
 10
0.0
 20
0.0
 30
0.0
 40
0.290282688626754
 41
0.290282688626754
  0
VERTEX
  5
349
330
348
100
AcDbEntity
 67
     1
  8
LOGO
 62
     5
100
AcDbVertex
100
AcDb2dVertex
 10
13.990578150212
 20
12.71638518598704
 30
0.0
 42
1.0
  0
VERTEX
  5
34A
330
348
100
AcDbEntity
 67
     1
  8
LOGO
 62
     5
100
AcDbVertex
100
AcDb2dVertex
 10
13.1197300843317
 20
12.71638518598704
 30
0.0
 42
1.0
  0
SEQEND
  5
34B
330
348
100
AcDbEntity
 67
     1
  8
LOGO
 62
     5
  0
SOLID
  5
34C
330
D
100
AcDbEntity
 67
     1
  8
LOGO
 62
     5
100
AcDbTrace
 10
12.97551764462207
 20
13.29602165863721
 30
0.0
 11
13.26533588094656
 21
13.29602165863721
 31
0.0
 12
12.97551764462207
 22
11.84693047701246
 32
0.0
 13
13.26533588094656
 23
11.84693047701246
 33
0.0
  0
SOLID
  5
34D
330
D
100
AcDbEntity
 67
     1
  8
LOGO
 62
     5
100
AcDbTrace
 10
13.84497235359731
 20
12.71638518598704
 30
0.0
 11
14.13479058992283
 21
12.71638518598704
 31
0.0
 12
13.84497235359731
 22
11.84693047701246
 32
0.0
 13
14.13479058992283
 23
11.84693047701246
 33
0.0
  0
POLYLINE
  5
34E
330
D
100
AcDbEntity
 67
     1
  8
LOGO
 62
     5
100
AcDb2dPolyline
 66
     1
 10
0.0
 20
0.0
 30
0.0
 70
     1
 40
0.290282688626754
 41
0.290282688626754
  0
VERTEX
  5
34F
330
34E
100
AcDbEntity
 67
     1
  8
LOGO
 62
     5
100
AcDbVertex
100
AcDb2dVertex
 10
14.61693072162461
 20
12.57147606782476
 30
0.0
 42
1.0
  0
VERTEX
  5
350
330
34E
100
AcDbEntity
 67
     1
  8
LOGO
 62
     5
100
AcDbVertex
100
AcDb2dVertex
 10
15.77806147613165
 20
12.57147606782476
 30
0.0
 42
1.0
  0
SEQEND
  5
351
330
34E
100
AcDbEntity
 67
     1
  8
LOGO
 62
     5
  0
SOLID
  5
352
330
D
100
AcDbEntity
 67
     1
  8
LOGO
 62
     5
100
AcDbTrace
 10
15.63219447154245
 20
13.73074901312478
 30
0.0
 11
15.92201270786745
 21
13.73074901312478
 31
0.0
 12
15.63219447154245
 22
11.84693047701246
 32
0.0
 13
15.92201270786745
 23
11.84693047701246
 33
0.0
  0
SOLID
  5
353
330
D
100
AcDbEntity
 67
     1
  8
LOGO
 62
     5
100
AcDbTrace
 10
16.26014364418836
 20
13.29602165863721
 30
0.0
 11
16.54996188051291
 21
13.29602165863721
 31
0.0
 12
16.26014364418836
 22
11.84693047701246
 32
0.0
 13
16.54996188051291
 23
11.84693047701246
 33
0.0
  0
SOLID
  5
354
330
D
100
AcDbEntity
 67
     1
  8
LOGO
 62
     5
100
AcDbTrace
 10
17.1295983531624
 20
12.71638518598704
 30
0.0
 11
17.41941658948747
 21
12.71638518598704
 31
0.0
 12
17.1295983531624
 22
11.84693047701246
 32
0.0
 13
17.41941658948747
 23
11.84693047701246
 33
0.0
  0
SOLID
  5
355
330
D
100
AcDbEntity
 67
     1
  8
LOGO
 62
     5
100
AcDbTrace
 10
17.99905306213685
 20
12.71638518598704
 30
0.0
 11
18.28887129846236
 21
12.71638518598704
 31
0.0
 12
17.99905306213685
 22
11.84693047701213
 32
0.0
 13
18.28887129846236
 23
11.84693047701213
 33
0.0
  0
SOLID
  5
356
330
D
100
AcDbEntity
 67
     1
  8
LOGO
 62
     5
100
AcDbTrace
 10
12.3475684719765
 20
13.49889442406459
 30
0.0
 11
12.63738670830292
 21
13.49889442406459
 31
0.0
 12
12.3475684719765
 22
13.73074901312478
 32
0.0
 13
12.63738670830292
 23
13.73074901312478
 33
0.0
  0
SOLID
  5
357
330
D
100
AcDbEntity
 67
     1
  8
LOGO
 62
     5
100
AcDbTrace
 10
12.3475684719765
 20
13.29602165863721
 30
0.0
 11
12.63738670830292
 21
13.29602165863721
 31
0.0
 12
12.3475684719765
 22
11.84693047701213
 32
0.0
 13
12.63738670830292
 23
11.84693047701246
 33
0.0
  0
SOLID
  5
358
330
D
100
AcDbEntity
 67
     1
  8
LOGO
 62
     5
100
AcDbTrace
 10
15.19749609887816
 20
14.74511284026205
 30
0.0
 11
16.0379689842207
 21
14.74511284026205
 31
0.0
 12
15.19749609887816
 22
18.99578030636104
 32
0.0
 13
16.0379689842207
 23
22.07751421928305
 33
0.0
  0
SOLID
  5
359
330
D
100
AcDbEntity
 67
     1
  8
LOGO
 62
     5
100
AcDbTrace
 10
16.38575086781111
 20
22.71511433919761
 30
0.0
 11
17.22622375315342
 21
22.71511433919821
 31
0.0
 12
16.38575086781111
 22
15.38271296017639
 32
0.0
 13
17.22622375315342
 23
18.46444687309864
 33
0.0
  0
SOLID
  5
35A
330
D
100
AcDbEntity
 67
     1
  8
LOGO
 62
     2
100
AcDbTrace
 10
16.0379689842207
 20
22.71511433919761
 30
0.0
 11
16.38575086781111
 21
22.71511433919761
 31
0.0
 12
16.0379689842207
 22
14.74511284026205
 32
0.0
 13
16.38575086781111
 23
14.74511284026205
 33
0.0
  0
SOLID
  5
35B
330
D
100
AcDbEntity
 67
     1
  8
LOGO
 62
     5
100
AcDbTrace
 10
16.38575086781111
 20
15.38271296017639
 30
0.0
 11
17.22622375315342
 21
18.46444687309864
 31
0.0
 12
20.38524252909474
 22
22.71511433919821
 32
0.0
 13
19.54476964375271
 23
22.71511433919821
 33
0.0
  0
SOLID
  5
35C
330
D
100
AcDbEntity
 67
     1
  8
LOGO
 62
     5
100
AcDbTrace
 10
16.38575086781111
 20
14.74511284026205
 30
0.0
 11
17.22622375315342
 21
14.74511284026205
 31
0.0
 12
20.38524252909474
 22
22.07751421928305
 32
0.0
 13
19.54476964375271
 23
18.99578030636104
 33
0.0
  0
SOLID
  5
35D
330
D
100
AcDbEntity
 67
     1
  8
LOGO
 62
     2
100
AcDbTrace
 10
16.0379689842207
 20
14.74511284026205
 30
0.0
 11
16.38575086781111
 21
14.74511284026205
 31
0.0
 12
20.38524252909474
 22
22.71511433919821
 32
0.0
 13
20.73302441268487
 23
22.71511433919761
 33
0.0
  0
LWPOLYLINE
  5
35E
330
D
100
AcDbEntity
 67
     1
  8
LOGO
 62
     4
100
AcDbPolyline
 90
        4
 70
     1
 43
0.0
 10
8.833439419184912
 20
23.17687052154933
 10
266.7164548019039
 20
23.1768705215493
 10
266.7164548019039
 20
3.738297622436242
 10
8.833439419184912
 20
3.738297622436263
1001
GENIUS_GENREC_14
1002
{
1000
PYDIR
1011
8.833439419184912
1021
3.738297622436263
1031
0.0
1002
}
1002
{
1000
PXDIR
1011
266.7164548019039
1021
23.1768705215493
1031
0.0
1002
}
1002
{
1000
PORI
1011
8.833439419184912
1021
23.17687052154933
1031
0.0
1002
}
1002
{
1000
PINS
1011
8.833439419184912
1021
23.17687052154933
1031
0.0
1002
}
1002
{
1000
PINS2
1011
266.7164548019039
1021
3.738297622436242
1031
0.0
1002
}
1002
{
1000
C
1070
     1
1002
}
1001
GENIUS_GENOBJ-N-REC_13
1002
{
1000
OWNER
1000
GEN
1002
}
1001
GENIUS_GENODEF_13
1002
{
1000
HIER
1070
     0
1002
}
1002
{
1000
MANEDIT
1070
     0
1002
}
1002
{
1000
NOSEL
1070
     0
1002
}
1002
{
1000
BEHIND
1070
     0
1002
}
1002
{
1000
OTHER
1070
     0
1002
}
1002
{
1000
REACTOR
1002
}
  0
TEXT
  5
35F
330
D
100
AcDbEntity
 67
     1
  8
LOGO
100
AcDbText
 10
52.23973818489671
 20
4.772422028387495
 30
0.0
 40
1.944138794171087
  1
00909240
 41
0.7
  7
CHINESET
 72
     1
 11
57.22969442326917
 21
4.772422028387495
 31
0.0
100
AcDbText
  0
LINE
  5
360
330
D
100
AcDbEntity
 67
     1
  8
LOGO
 62
     4
100
AcDbLine
 10
63.26313256225842
 20
7.626012202259474
 30
0.0
 11
63.26313256225978
 21
3.738297622436562
 31
0.0
  0
LINE
  5
361
330
D
100
AcDbEntity
 67
     1
  8
LOGO
 62
     4
100
AcDbLine
 10
63.26313256225842
 20
7.626012202259474
 30
0.0
 11
51.59829979723321
 21
7.626012202259474
 31
0.0
  0
CIRCLE
  5
362
330
D
100
AcDbEntity
 67
     1
  8
LOGO
  6
Continuous
100
AcDbCircle
 10
42.23854610392175
 20
17.34945657678342
 30
0.0
 40
1.128649295765504
  0
CIRCLE
  5
363
330
D
100
AcDbEntity
 67
     1
  8
LOGO
  6
Continuous
100
AcDbCircle
 10
42.23854610392175
 20
17.34945657678342
 30
0.0
 40
0.6612885736494123
  0
LINE
  5
364
330
D
100
AcDbEntity
 67
     1
  8
LOGO
100
AcDbLine
 10
49.33110924143784
 20
16.22080728101781
 30
0.0
 11
49.33110924143784
 21
18.47810587254915
 31
0.0
  0
LINE
  5
365
330
D
100
AcDbEntity
 67
     1
  8
LOGO
100
AcDbLine
 10
45.79285848677364
 20
16.68816800313411
 30
0.0
 11
45.79285848677364
 21
18.01074515043308
 31
0.0
  0
LINE
  5
366
330
D
100
AcDbEntity
 67
     1
  8
LOGO
  6
Continuous
100
AcDbLine
 10
45.79285848677364
 20
18.01074515043308
 30
0.0
 11
49.33110924143784
 21
18.47810587254915
 31
0.0
  0
LINE
  5
367
330
D
100
AcDbEntity
 67
     1
  8
LOGO
  6
Continuous
100
AcDbLine
 10
45.79285848677364
 20
16.68816800313411
 30
0.0
 11
49.33110924143784
 21
16.22080728101781
 31
0.0
  0
LINE
  5
368
330
D
100
AcDbEntity
 67
     1
  8
LOGO
  6
AM_ISO08W050x2
 48
0.3
100
AcDbLine
 10
40.68268614951603
 20
17.34945657678342
 30
0.0
 11
43.79440605832627
 21
17.34945657678342
 31
0.0
1001
GENIUS_GENOREF_13
1005
36E
  0
LINE
  5
369
330
D
100
AcDbEntity
 67
     1
  8
LOGO
  6
AM_ISO08W050x2
 48
0.3
100
AcDbLine
 10
42.23854610392175
 20
15.79359662237851
 30
0.0
 11
42.23854610392175
 21
18.9053165311887
 31
0.0
1001
GENIUS_GENOREF_13
1005
36D
  0
LINE
  5
36A
330
D
100
AcDbEntity
 67
     1
  8
LOGO
  6
CENTER
 48
0.5
100
AcDbLine
 10
45.50989677162028
 20
17.34945657678342
 30
0.0
 11
49.6873996385238
 21
17.34945657678342
 31
0.0
1001
GENIUS_GENOREF_13
1005
36C
  0
LWPOLYLINE
  5
36B
330
D
100
AcDbEntity
 67
     1
  8
LOGO
 62
     4
100
AcDbPolyline
 90
        4
 70
     1
 43
0.0
 10
8.833439419184912
 20
181.7149007911886
 10
266.7164548019039
 20
181.7149007911886
 10
266.7164548019039
 20
23.1768705215493
 10
8.833439419184912
 20
23.1768705215493
  0
POINT
  5
36C
330
D
100
AcDbEntity
 67
     1
  8
0
 60
     1
100
AcDbPoint
 10
2409.994341745536
 20
-545.9823802467393
 30
0.0
1001
GENIUS_GENOBJ-N-CRS_13
1002
{
1000
OWNER
1000
GEN
1002
}
1001
GENIUS_GENOLIS_13
1002
{
1000
ENT
1005
0
1005
0
1005
0
1005
36A
1002
}
1001
GENIUS_GENOENT_13
1002
{
1000
MYREF
1005
36C
1002
}
1002
{
1000
GRP
1005
0
1002
}
1001
GENIUS_GENODEF_13
1002
{
1000
HIER
1070
    10
1002
}
1002
{
1000
MANEDIT
1070
     1
1002
}
1002
{
1000
NOSEL
1070
     0
1002
}
1002
{
1000
BEHIND
1070
     0
1002
}
1002
{
1000
OTHER
1070
     0
1002
}
1002
{
1000
REACTOR
1002
}
  0
POINT
  5
36D
330
D
100
AcDbEntity
 67
     1
  8
0
 60
     1
100
AcDbPoint
 10
2398.669756522681
 20
-537.1067937681031
 30
0.0
1001
GENIUS_GENOBJ-N-CRS_13
1002
{
1000
OWNER
1000
GEN
1002
}
1001
GENIUS_GENOLIS_13
1002
{
1000
ENT
1005
0
1005
0
1005
0
1005
369
1002
}
1001
GENIUS_GENOENT_13
1002
{
1000
MYREF
1005
36D
1002
}
1002
{
1000
GRP
1005
0
1002
}
1001
GENIUS_GENODEF_13
1002
{
1000
HIER
1070
    10
1002
}
1002
{
1000
MANEDIT
1070
     1
1002
}
1002
{
1000
NOSEL
1070
     0
1002
}
1002
{
1000
BEHIND
1070
     0
1002
}
1002
{
1000
OTHER
1070
     0
1002
}
1002
{
1000
REACTOR
1002
}
  0
POINT
  5
36E
330
D
100
AcDbEntity
 67
     1
  8
0
 60
     1
100
AcDbPoint
 10
2405.028430220518
 20
-545.9823802467393
 30
0.0
1001
GENIUS_GENOBJ-N-CRS_13
1002
{
1000
OWNER
1000
GEN
1002
}
1001
GENIUS_GENOLIS_13
1002
{
1000
ENT
1005
0
1005
0
1005
0
1005
368
1002
}
1001
GENIUS_GENOENT_13
1002
{
1000
MYREF
1005
36E
1002
}
1002
{
1000
GRP
1005
0
1002
}
1001
GENIUS_GENODEF_13
1002
{
1000
HIER
1070
    10
1002
}
1002
{
1000
MANEDIT
1070
     1
1002
}
1002
{
1000
NOSEL
1070
     0
1002
}
1002
{
1000
BEHIND
1070
     0
1002
}
1002
{
1000
OTHER
1070
     0
1002
}
1002
{
1000
REACTOR
1002
}
  0
LINE
  5
54C
330
D
100
AcDbEntity
 67
     1
  8
HIDDEN
100
AcDbLine
 10
182.8087576709938
 20
125.7264437337426
 30
0.0
 11
162.8087576709937
 21
125.7264437337426
 31
0.0
  0
LINE
  5
54E
330
D
100
AcDbEntity
 67
     1
  8
HIDDEN
100
AcDbLine
 10
182.8087576709938
 20
90.2264437337426
 30
0.0
 11
162.8087576709937
 21
90.2264437337426
 31
0.0
  0
LINE
  5
54F
330
D
100
AcDbEntity
 67
     1
  8
HIDDEN
100
AcDbLine
 10
160.3087576709937
 20
92.7264437337426
 30
0.0
 11
160.3087576709937
 21
123.2264437337426
 31
0.0
  0
ARC
  5
55B
330
D
100
AcDbEntity
 67
     1
  8
HIDDEN
100
AcDbCircle
 10
162.8087576709937
 20
123.2264437337426
 30
0.0
 40
2.5
100
AcDbArc
 50
90.0
 51
180.0
  0
ARC
  5
55C
330
D
100
AcDbEntity
 67
     1
  8
HIDDEN
100
AcDbCircle
 10
162.8087576709937
 20
92.7264437337426
 30
0.0
 40
2.5
100
AcDbArc
 50
180.0
 51
270.0
  0
DIMENSION
  5
55D
330
D
100
AcDbEntity
 67
     1
  8
AM_5
100
AcDbDimension
  2
*D1
 10
195.843413164741
 20
125.7264437337426
 30
0.0
 11
195.843413164741
 21
107.9764437337426
 31
0.0
 70
   160
  1
%%c<>
 71
     5
 42
35.5
  3
AM_ISO$0
100
AcDbAlignedDimension
 13
182.8087576709938
 23
90.2264437337426
 33
0.0
 14
182.8087576709938
 24
125.7264437337426
 34
0.0
 50
90.0
100
AcDbRotatedDimension
1001
ACAD
1000
DSTYLE
1002
{
1070
    40
1040
0.6666666666666666
1002
}
  0
DIMENSION
  5
5A0
330
D
100
AcDbEntity
 67
     1
  8
AM_5
100
AcDbDimension
  2
*D2
 10
160.3087576709937
 20
139.4764437437426
 30
0.0
 11
171.5587576709937
 21
141.3100067358686
 31
0.0
 70
    32
 71
     5
 42
22.5
  3
AM_ISO$0
100
AcDbAlignedDimension
 13
182.8087576709938
 23
130.9764437337426
 33
0.0
 14
160.3087576709937
 24
123.2264437337426
 34
0.0
100
AcDbRotatedDimension
1001
ACAD
1000
DSTYLE
1002
{
1070
    40
1040
0.6666666666666666
1002
}
  0
LEADER
  5
7DB
330
D
100
AcDbEntity
 67
     1
  8
AM_5
100
AcDbLeader
  3
AM_ISO$7
 73
     0
 74
     0
 75
     1
 40
2.5
 41
13.3490157480315
 76
     3
 10
184.3343947291389
 20
115.9764437337425
 30
0.0
 10
189.3043733769635
 20
139.4156878879727
 30
0.0
 10
191.3043733769635
 20
139.4156878879727
 30
0.0
340
7DC
213
0.8186013206027666
223
-0.0320605867346728
233
0.0
1001
ACAD
1000
DSTYLE
1002
{
1070
    40
1040
0.6666666666666666
1070
    43
1040
10.0
1070
   147
1040
1.0
1002
}
  0
MTEXT
  5
7DC
102
{ACAD_REACTORS
330
7DB
102
}
330
D
100
AcDbEntity
 67
     1
  8
AM_5
100
AcDbMText
 10
191.1524387230274
 20
140.114415141374
 30
0.0
 40
2.5
 41
0.0
 71
     7
 72
     1
  1
SUPPORT
 73
     1
 44
1.0
1001
ACAD
1000
MTEXTBEGIN
1070
    73
1070
     1
1070
    44
1040
1.0
1070
    74
1070
     0
1000
MTEXTEND
  0
CIRCLE
  5
815
330
D
100
AcDbEntity
 67
     1
  8
0
100
AcDbCircle
 10
215.6712874724136
 20
126.9764437337425
 30
0.0
 40
3.25
  0
LINE
  5
816
330
D
100
AcDbEntity
 67
     1
  8
AM_7
  6
AM_ISO08W050x2
100
AcDbLine
 10
210.8519385452048
 20
126.9764437337425
 30
0.0
 11
220.17819558949
 21
126.9764437337425
 31
0.0
1001
GENIUS_GENODEF_13
1002
{
1000
HIER
1070
     0
1002
}
1002
{
1000
MANEDIT
1070
     0
1002
}
1002
{
1000
NOSEL
1070
     0
1002
}
1002
{
1000
BEHIND
1070
     0
1002
}
1002
{
1000
OTHER
1070
     0
1002
}
1002
{
1000
REACTOR
1002
}
1001
GENIUS_GENOBJ-N-CEN_13
1002
{
1000
OWNER
1000
GEN
1002
}
1001
GENIUS_GENCEN_19
1002
{
1040
2.0
1002
}
  0
LINE
  5
817
330
D
100
AcDbEntity
 67
     1
  8
AM_7
  6
AM_ISO08W050x2
100
AcDbLine
 10
215.6712874724136
 20
131.7207549364775
 30
0.0
 11
215.6712874724136
 21
121.7555010111339
 31
0.0
1001
GENIUS_GENODEF_13
1002
{
1000
HIER
1070
     0
1002
}
1002
{
1000
MANEDIT
1070
     0
1002
}
1002
{
1000
NOSEL
1070
     0
1002
}
1002
{
1000
BEHIND
1070
     0
1002
}
1002
{
1000
OTHER
1070
     0
1002
}
1002
{
1000
REACTOR
1002
}
1001
GENIUS_GENOBJ-N-CEN_13
1002
{
1000
OWNER
1000
GEN
1002
}
1001
GENIUS_GENCEN_19
1002
{
1040
2.0
1002
}
  0
DIMENSION
  5
822
330
D
100
AcDbEntity
 67
     1
  8
AM_5
100
AcDbDimension
  2
*D3
 10
214.3366780922714
 20
124.0131148956896
 30
0.0
 11
226.2805526661023
 21
139.1017607363782
 31
0.0
 70
   163
  1
4-<>
 71
     5
 42
6.500000000000056
  3
AM_ISO$3
100
AcDbDiametricDimension
 15
217.0058968525558
 25
129.9397725717955
 35
0.0
 40
0.0
1001
ACAD
1000
DSTYLE
1002
{
1070
    40
1040
0.6666666666666666
1002
}
  0
LINE
  5
9F6
330
D
100
AcDbEntity
 67
     1
  8
AM_VIS
100
AcDbLine
 10
162.3087576709937
 20
80.97644373374254
 30
0.0
 11
113.3087576709937
 21
80.97644373374254
 31
0.0
  0
LINE
  5
9F7
330
D
100
AcDbEntity
 67
     1
  8
AM_VIS
100
AcDbLine
 10
113.3087576709937
 20
83.41529555211229
 30
0.0
 11
162.3087576709937
 21
83.41529555211229
 31
0.0
  0
LINE
  5
9F8
330
D
100
AcDbEntity
 67
     1
  8
AM_VIS
100
AcDbLine
 10
112.8087576709937
 20
81.47644373374248
 30
0.0
 11
113.3087576709937
 21
80.97644373374249
 31
0.0
  0
LINE
  5
9F9
330
D
100
AcDbEntity
 67
     1
  8
AM_VIS
100
AcDbLine
 10
112.8087576709937
 20
133.0762445297648
 30
0.0
 11
112.8087576709937
 21
82.8766429377203
 31
0.0
  0
LINE
  5
9FA
330
D
100
AcDbEntity
 67
     1
  8
AM_VIS
100
AcDbLine
 10
113.3087576709937
 20
83.41529555211229
 30
0.0
 11
113.3087576709937
 21
132.5375919153728
 31
0.0
  0
ARC
  5
9FB
330
D
100
AcDbEntity
 67
     1
  8
AM_VIS
100
AcDbCircle
 10
86.30875767099377
 20
107.9764437337425
 30
0.0
 40
36.50000000000002
100
AcDbArc
 50
316.5543824007933
 51
317.7080825370877
  0
LINE
  5
9FC
330
D
100
AcDbEntity
 67
     1
  8
AM_VIS
100
AcDbLine
 10
177.3087576709937
 20
83.41529555211229
 30
0.0
 11
177.3087576709937
 21
132.5375919153728
 31
0.0
  0
LINE
  5
9FD
330
D
100
AcDbEntity
 67
     1
  8
AM_VIS
100
AcDbLine
 10
182.3087576709937
 20
132.5375919153728
 30
0.0
 11
182.3087576709937
 21
83.41529555211229
 31
0.0
  0
ARC
  5
9FE
330
D
100
AcDbEntity
 67
     1
  8
AM_VIS
100
AcDbCircle
 10
209.3087576709938
 20
107.9764437337425
 30
0.0
 40
36.50000000000002
100
AcDbArc
 50
136.5543824007933
 51
137.7080825370886
  0
LINE
  5
9FF
330
D
100
AcDbEntity
 67
     1
  8
AM_VIS
100
AcDbLine
 10
182.3087576709937
 20
132.5375919153728
 30
0.0
 11
177.3087576709937
 21
132.5375919153728
 31
0.0
  0
ARC
  5
A00
330
D
100
AcDbEntity
 67
     1
  8
AM_VIS
100
AcDbCircle
 10
150.3087576709937
 20
107.9764437337425
 30
0.0
 40
36.50000000000002
100
AcDbArc
 50
42.29191746291222
 51
43.44561759920668
  0
LINE
  5
A01
330
D
100
AcDbEntity
 67
     1
  8
AM_VIS
100
AcDbLine
 10
177.3087576709937
 20
134.9764437337425
 30
0.0
 11
176.8087576709937
 21
134.4764437337425
 31
0.0
  0
LINE
  5
A02
330
D
100
AcDbEntity
 67
     1
  8
AM_VIS
100
AcDbLine
 10
177.3087576709937
 20
134.9764437337425
 30
0.0
 11
182.3087576709937
 21
134.9764437337425
 31
0.0
  0
LINE
  5
A03
330
D
100
AcDbEntity
 67
     1
  8
AM_VIS
100
AcDbLine
 10
182.8087576709938
 20
134.4764437337425
 30
0.0
 11
182.3087576709937
 21
134.9764437337425
 31
0.0
  0
LINE
  5
A04
330
D
100
AcDbEntity
 67
     1
  8
AM_VIS
100
AcDbLine
 10
182.3087576709937
 20
80.97644373374254
 30
0.0
 11
177.3087576709937
 21
80.97644373374254
 31
0.0
  0
ARC
  5
A05
330
D
100
AcDbEntity
 67
     1
  8
AM_VIS
100
AcDbCircle
 10
150.3087576709937
 20
107.9764437337425
 30
0.0
 40
36.50000000000002
100
AcDbArc
 50
316.5543824007933
 51
317.7080825370877
  0
LINE
  5
A06
330
D
100
AcDbEntity
 67
     1
  8
AM_VIS
100
AcDbLine
 10
177.3087576709937
 20
83.41529555211229
 30
0.0
 11
182.3087576709937
 21
83.41529555211229
 31
0.0
  0
ARC
  5
A07
330
D
100
AcDbEntity
 67
     1
  8
AM_VIS
100
AcDbCircle
 10
209.3087576709938
 20
107.9764437337425
 30
0.0
 40
36.50000000000002
100
AcDbArc
 50
222.2919174629113
 51
223.4456175992067
  0
LINE
  5
A08
330
D
100
AcDbEntity
 67
     1
  8
AM_VIS
100
AcDbLine
 10
176.8087576709937
 20
81.47644373374248
 30
0.0
 11
177.3087576709937
 21
80.97644373374249
 31
0.0
  0
LINE
  5
A09
330
D
100
AcDbEntity
 67
     1
  8
AM_VIS
100
AcDbLine
 10
182.8087576709938
 20
82.8766429377203
 30
0.0
 11
182.8087576709938
 21
133.0762445297648
 31
0.0
  0
LINE
  5
A0A
330
D
100
AcDbEntity
 67
     1
  8
AM_VIS
100
AcDbLine
 10
182.3087576709937
 20
80.97644373374254
 30
0.0
 11
182.8087576709938
 21
81.47644373374253
 31
0.0
  0
LINE
  5
A0B
330
D
100
AcDbEntity
 67
     1
  8
AM_VIS
100
AcDbLine
 10
176.8087576709937
 20
133.0762445297648
 30
0.0
 11
176.8087576709937
 21
82.8766429377203
 31
0.0
  0
LINE
  5
A0C
330
D
100
AcDbEntity
 67
     1
  8
AM_VIS
100
AcDbLine
 10
162.3087576709937
 20
80.97644373374254
 30
0.0
 11
162.8087576709937
 21
81.47644373374253
 31
0.0
  0
ARC
  5
A0D
330
D
100
AcDbEntity
 67
     1
  8
AM_VIS
100
AcDbCircle
 10
189.3087576709937
 20
107.9764437337425
 30
0.0
 40
36.50000000000002
100
AcDbArc
 50
222.2919174629113
 51
223.4456175992067
  0
LINE
  5
A0E
330
D
100
AcDbEntity
 67
     1
  8
AM_VIS
100
AcDbLine
 10
162.3087576709937
 20
132.5375919153728
 30
0.0
 11
162.3087576709937
 21
83.41529555211229
 31
0.0
  0
ARC
  5
A0F
330
D
100
AcDbEntity
 67
     1
  8
AM_VIS
100
AcDbCircle
 10
189.3087576709937
 20
107.9764437337425
 30
0.0
 40
36.50000000000002
100
AcDbArc
 50
136.5543824007933
 51
137.7080825370886
  0
LINE
  5
A10
330
D
100
AcDbEntity
 67
     1
  8
AM_VIS
100
AcDbLine
 10
162.3087576709937
 20
132.5375919153728
 30
0.0
 11
113.3087576709937
 21
132.5375919153728
 31
0.0
  0
ARC
  5
A11
330
D
100
AcDbEntity
 67
     1
  8
AM_VIS
100
AcDbCircle
 10
86.30875767099377
 20
107.9764437337425
 30
0.0
 40
36.50000000000002
100
AcDbArc
 50
42.29191746291222
 51
43.44561759920668
  0
LINE
  5
A12
330
D
100
AcDbEntity
 67
     1
  8
AM_VIS
100
AcDbLine
 10
113.3087576709937
 20
134.9764437337425
 30
0.0
 11
112.8087576709937
 21
134.4764437337425
 31
0.0
  0
LINE
  5
A13
330
D
100
AcDbEntity
 67
     1
  8
AM_VIS
100
AcDbLine
 10
113.3087576709937
 20
134.9764437337425
 30
0.0
 11
162.3087576709937
 21
134.9764437337425
 31
0.0
  0
LINE
  5
A14
330
D
100
AcDbEntity
 67
     1
  8
AM_VIS
100
AcDbLine
 10
162.8087576709937
 20
82.8766429377203
 30
0.0
 11
162.8087576709937
 21
133.0762445297648
 31
0.0
  0
LINE
  5
A15
330
D
100
AcDbEntity
 67
     1
  8
AM_VIS
100
AcDbLine
 10
162.8087576709937
 20
134.4764437337425
 30
0.0
 11
162.3087576709937
 21
134.9764437337425
 31
0.0
  0
LINE
  5
A16
330
D
100
AcDbEntity
 67
     1
  8
AM_VIS
100
AcDbLine
 10
163.6087576709937
 20
128.8764437337425
 30
0.0
 11
176.8087576709937
 21
128.8764437337425
 31
0.0
  0
LINE
  5
A17
330
D
100
AcDbEntity
 67
     1
  8
AM_VIS
100
AcDbLine
 10
163.6087576709937
 20
87.07644373374256
 30
0.0
 11
176.8087576709937
 21
87.07644373374256
 31
0.0
  0
LINE
  5
A18
330
D
100
AcDbEntity
 67
     1
  8
AM_VIS
100
AcDbLine
 10
103.8087576709938
 20
125.4264437337425
 30
0.0
 11
112.0087576709937
 21
125.4264437337425
 31
0.0
  0
LINE
  5
A19
330
D
100
AcDbEntity
 67
     1
  8
AM_VIS
100
AcDbLine
 10
103.8087576709938
 20
90.52644373374254
 30
0.0
 11
112.0087576709937
 21
90.52644373374254
 31
0.0
  0
LINE
  5
A1A
330
D
100
AcDbEntity
 67
     1
  8
AM_VIS
100
AcDbLine
 10
102.8087576709938
 20
91.52644373374256
 30
0.0
 11
103.8087576709938
 21
90.52644373374254
 31
0.0
  0
LINE
  5
A1B
330
D
100
AcDbEntity
 67
     1
  8
AM_VIS
100
AcDbLine
 10
102.8087576709938
 20
124.4264437337425
 30
0.0
 11
103.8087576709938
 21
125.4264437337425
 31
0.0
  0
LINE
  5
A20
330
D
100
AcDbEntity
 67
     1
  8
AM_VIS
100
AcDbLine
 10
112.8087576705656
 20
89.72648074679501
 30
0.0
 11
112.8087576705656
 21
89.72644373374254
 31
0.0
  0
LINE
  5
A21
330
D
100
AcDbEntity
 67
     1
  8
AM_VIS
100
AcDbLine
 10
112.8087576705656
 20
126.2264437337426
 30
0.0
 11
112.8087576705656
 21
126.2264067206901
 31
0.0
  0
LINE
  5
A22
330
D
100
AcDbEntity
 67
     1
  8
AM_VIS
100
AcDbLine
 10
162.808757671599
 20
129.6764437337425
 30
0.0
 11
162.808757671599
 21
129.676399723702
 31
0.0
  0
ARC
  5
A23
330
D
100
AcDbEntity
 67
     1
  8
AM_VIS
100
AcDbCircle
 10
163.6087576716779
 20
86.27644373305832
 30
0.0
 40
0.8000000006842107
100
AcDbArc
 50
90.0
 51
179.9999999019913
  0
LINE
  5
A24
330
D
100
AcDbEntity
 67
     1
  8
AM_VIS
100
AcDbLine
 10
162.808757671599
 20
129.6764437337425
 30
0.0
 11
162.808757671599
 21
129.676399723702
 31
0.0
  0
ARC
  5
A25
330
D
100
AcDbEntity
 67
     1
  8
AM_VIS
100
AcDbCircle
 10
163.6087576716779
 20
86.27644373305832
 30
0.0
 40
0.8000000006842107
100
AcDbArc
 50
90.0
 51
179.9999999019913
  0
LINE
  5
A26
330
D
100
AcDbEntity
 67
     1
  8
AM_VIS
100
AcDbLine
 10
112.8087576705656
 20
89.72648074679501
 30
0.0
 11
112.8087576705656
 21
89.72644373374254
 31
0.0
  0
LINE
  5
A27
330
D
100
AcDbEntity
 67
     1
  8
AM_VIS
100
AcDbLine
 10
112.8087576705656
 20
126.2264437337426
 30
0.0
 11
112.8087576705656
 21
126.2264067206901
 31
0.0
  0
ARC
  5
A29
330
D
100
AcDbEntity
 67
     1
  8
AM_VIS
100
AcDbCircle
 10
155.3087576709937
 20
125.9764437337425
 30
0.0
 40
5.083225000000001
100
AcDbArc
 50
277.5215590720543
 51
180.0
  0
LINE
  5
A2A
330
D
100
AcDbEntity
 67
     1
  8
AM_VIS
100
AcDbLine
 10
112.8087576709937
 20
82.8766429377203
 30
0.0
 11
112.8087576709937
 21
81.47644373374253
 31
0.0
  0
LINE
  5
A2B
330
D
100
AcDbEntity
 67
     1
  8
AM_VIS
100
AcDbLine
 10
182.8087576709938
 20
81.47644373374253
 30
0.0
 11
182.8087576709938
 21
82.8766429377203
 31
0.0
  0
LINE
  5
A2C
330
D
100
AcDbEntity
 67
     1
  8
AM_VIS
100
AcDbLine
 10
182.8087576709938
 20
133.0762445297648
 30
0.0
 11
182.8087576709938
 21
134.4764437337425
 31
0.0
  0
LINE
  5
A2D
330
D
100
AcDbEntity
 67
     1
  8
AM_VIS
100
AcDbLine
 10
176.8087576709937
 20
134.4764437337425
 30
0.0
 11
176.8087576709937
 21
133.0762445297648
 31
0.0
  0
LINE
  5
A2E
330
D
100
AcDbEntity
 67
     1
  8
AM_VIS
100
AcDbLine
 10
176.8087576709937
 20
82.8766429377203
 30
0.0
 11
176.8087576709937
 21
81.47644373374253
 31
0.0
  0
LINE
  5
A2F
330
D
100
AcDbEntity
 67
     1
  8
AM_VIS
100
AcDbLine
 10
112.8087576709937
 20
134.4764437337425
 30
0.0
 11
112.8087576709937
 21
133.0762445297648
 31
0.0
  0
LINE
  5
A30
330
D
100
AcDbEntity
 67
     1
  8
AM_VIS
100
AcDbLine
 10
162.8087576709937
 20
81.47644373374253
 30
0.0
 11
162.8087576709937
 21
82.8766429377203
 31
0.0
  0
LINE
  5
A31
330
D
100
AcDbEntity
 67
     1
  8
AM_VIS
100
AcDbLine
 10
162.8087576709937
 20
133.0762445297648
 30
0.0
 11
162.8087576709937
 21
134.4764437337425
 31
0.0
  0
ARC
  5
A32
330
D
100
AcDbEntity
 67
     1
  8
AM_VIS
100
AcDbCircle
 10
163.6087576709937
 20
129.6764437337425
 30
0.0
 40
0.8000000000000007
100
AcDbArc
 50
180.0
 51
270.0
  0
ARC
  5
A33
330
D
100
AcDbEntity
 67
     1
  8
AM_VIS
100
AcDbCircle
 10
163.6087576709937
 20
86.27644373374256
 30
0.0
 40
0.8000000000000007
100
AcDbArc
 50
90.0
 51
180.0
  0
ARC
  5
A34
330
D
100
AcDbEntity
 67
     1
  8
AM_VIS
100
AcDbCircle
 10
112.0087576709937
 20
126.2264437337425
 30
0.0
 40
0.8000000000000007
100
AcDbArc
 50
270.0
 51
0.0
  0
ARC
  5
A35
330
D
100
AcDbEntity
 67
     1
  8
AM_VIS
100
AcDbCircle
 10
112.0087576709937
 20
89.72644373374254
 30
0.0
 40
0.8000000000000007
100
AcDbArc
 50
0.0
 51
90.0
  0
LINE
  5
A36
330
D
100
AcDbEntity
 67
     1
  8
AM_VIS
100
AcDbLine
 10
103.8087576709938
 20
125.4264437337425
 30
0.0
 11
103.8087576709938
 21
90.52644373374254
 31
0.0
  0
LINE
  5
A37
330
D
100
AcDbEntity
 67
     1
  8
AM_VIS
100
AcDbLine
 10
102.8087576709938
 20
91.52644373374256
 30
0.0
 11
102.8087576709938
 21
124.4264437337425
 31
0.0
  0
ARC
  5
A39
330
D
100
AcDbEntity
 67
     1
  8
AM_VIS
100
AcDbCircle
 10
155.3087576709937
 20
125.9764437337425
 30
0.0
 40
4.283225000000001
100
AcDbArc
 50
0.0000000000008142
 51
180.0
  0
ARC
  5
A3A
330
D
100
AcDbEntity
 67
     1
  8
AM_VIS
100
AcDbCircle
 10
155.3087576709937
 20
125.9764437337425
 30
0.0
 40
4.283225000000001
100
AcDbArc
 50
180.0
 51
0.0000000000008142
  0
LINE
  5
A3D
330
D
100
AcDbEntity
 67
     1
  8
AM_VIS
100
AcDbLine
 10
100.8087576709937
 20
98.9764437337426
 30
0.0
 11
102.8087576709938
 21
98.03505794873894
 31
0.0
  0
LINE
  5
A3E
330
D
100
AcDbEntity
 67
     1
  8
AM_VIS
100
AcDbLine
 10
100.8087576709937
 20
116.9764437337425
 30
0.0
 11
102.8087576709938
 21
117.9178295187461
 31
0.0
  0
LINE
  5
A3F
330
D
100
AcDbEntity
 67
     1
  8
AM_VIS
100
AcDbLine
 10
100.8087576709937
 20
107.9764437337425
 30
0.0
 11
100.8087576709937
 21
98.97644373374255
 31
0.0
  0
LINE
  5
A40
330
D
100
AcDbEntity
 67
     1
  8
AM_VIS
100
AcDbLine
 10
100.8087576709937
 20
116.9764437337425
 30
0.0
 11
100.8087576709937
 21
107.9764437337425
 31
0.0
  0
LINE
  5
A41
330
D
100
AcDbEntity
 67
     1
  8
AM_7
  6
AM_ISO08W050x2
100
AcDbLine
 10
99.80875767099377
 20
99.97644373374255
 30
0.0
 11
186.3629668413849
 21
99.97644373374255
 31
0.0
  0
LINE
  5
A42
330
D
100
AcDbEntity
 67
     1
  8
AM_7
  6
AM_ISO08W050x2
100
AcDbLine
 10
99.80875767099377
 20
115.9764437337425
 30
0.0
 11
186.3629668413849
 21
115.9764437337425
 31
0.0
  0
LINE
  5
A43
330
D
100
AcDbEntity
 67
     1
  8
AM_7
  6
AM_ISO08W050x2
100
AcDbLine
 10
99.80875767099377
 20
115.9764437337425
 30
0.0
 11
96.80875767099378
 21
114.8845330309439
 31
0.0
  0
LINE
  5
A44
330
D
100
AcDbEntity
 67
     1
  8
AM_7
  6
AM_ISO08W050x2
100
AcDbLine
 10
99.80875767099377
 20
99.97644373374255
 30
0.0
 11
96.80875767099378
 21
101.0683544365411
 31
0.0
  0
LINE
  5
A45
330
D
100
AcDbEntity
 67
     1
  8
AM_7
  6
AM_ISO08W050x2
100
AcDbLine
 10
96.80875767099378
 20
101.0683544365411
 30
0.0
 11
96.80875767099378
 21
114.8845330309439
 31
0.0
  0
LINE
  5
A46
330
D
100
AcDbEntity
 67
     1
  8
AM_7
  6
AM_ISO08W050x2
100
AcDbLine
 10
99.80875767099377
 20
115.9764437337425
 30
0.0
 11
99.80875767099377
 21
99.97644373374255
 31
0.0
  0
ARC
  5
A7F
330
D
100
AcDbEntity
 67
     1
  8
AM_VIS
100
AcDbCircle
 10
137.8087576709937
 20
107.9764437337425
 30
0.0
 40
18.80000000000007
100
AcDbArc
 50
270.0
 51
90.0
  0
ARC
  5
A80
330
D
100
AcDbEntity
 67
     1
  8
AM_VIS
100
AcDbCircle
 10
137.8087576709937
 20
107.9764437337425
 30
0.0
 40
18.80000000000007
100
AcDbArc
 50
90.0
 51
270.0
  0
LINE
  5
A81
330
D
100
AcDbEntity
 67
     1
  8
AM_VIS
100
AcDbLine
 10
21.28337224141751
 20
132.5375919153728
 30
0.0
 11
21.28337224141751
 21
83.41529555211229
 31
0.0
  0
ARC
  5
A82
330
D
100
AcDbEntity
 67
     1
  8
AM_VIS
100
AcDbCircle
 10
48.28337224141751
 20
107.9764437337425
 30
0.0
 40
36.50000000000002
100
AcDbArc
 50
136.5543824007933
 51
137.7080825370878
  0
ARC
  5
A83
330
D
100
AcDbEntity
 67
     1
  8
AM_VIS
100
AcDbCircle
 10
48.28337224141751
 20
107.9764437337425
 30
0.0
 40
36.50000000000003
100
AcDbArc
 50
312.2919174629113
 51
313.4456175992063
  0
LINE
  5
A84
330
D
100
AcDbEntity
 67
     1
  8
AM_VIS
100
AcDbLine
 10
23.72222405978732
 20
80.97644373374254
 30
0.0
 11
72.84452042304781
 21
80.97644373374254
 31
0.0
  0
ARC
  5
A85
330
D
100
AcDbEntity
 67
     1
  8
AM_VIS
100
AcDbCircle
 10
48.28337224141751
 20
107.9764437337425
 30
0.0
 40
36.50000000000002
100
AcDbArc
 50
132.2919174629112
 51
133.4456175992063
  0
LINE
  5
A86
330
D
100
AcDbEntity
 67
     1
  8
AM_VIS
100
AcDbLine
 10
72.84452042304784
 20
134.9764437337425
 30
0.0
 11
23.72222405978721
 21
134.9764437337425
 31
0.0
  0
LINE
  5
A87
330
D
100
AcDbEntity
 67
     1
  8
AM_VIS
100
AcDbLine
 10
73.38317303743977
 20
81.47644373374253
 30
0.0
 11
23.18357144539527
 21
81.47644373374253
 31
0.0
  0
LINE
  5
A88
330
D
100
AcDbEntity
 67
     1
  8
AM_VIS
100
AcDbLine
 10
21.78337224141751
 20
82.8766429377203
 30
0.0
 11
21.78337224141751
 21
133.0762445297648
 31
0.0
  0
LINE
  5
A89
330
D
100
AcDbEntity
 67
     1
  8
AM_VIS
100
AcDbLine
 10
23.18357144539527
 20
134.4764437337425
 30
0.0
 11
73.38317303743983
 21
134.4764437337425
 31
0.0
  0
LINE
  5
A8A
330
D
100
AcDbEntity
 67
     1
  8
AM_VIS
100
AcDbLine
 10
74.78337224141753
 20
133.0762445297648
 30
0.0
 11
74.78337224141753
 21
82.8766429377203
 31
0.0
  0
LINE
  5
A8B
330
D
100
AcDbEntity
 67
     1
  8
AM_VIS
100
AcDbLine
 10
75.28337224141754
 20
83.41529555211229
 30
0.0
 11
75.28337224141754
 21
132.5375919153728
 31
0.0
  0
ARC
  5
A8C
330
D
100
AcDbEntity
 67
     1
  8
AM_VIS
100
AcDbCircle
 10
48.28337224141751
 20
107.9764437337425
 30
0.0
 40
36.50000000000002
100
AcDbArc
 50
316.5543824007933
 51
317.7080825370877
  0
ARC
  5
A8D
330
D
100
AcDbEntity
 67
     1
  8
AM_VIS
100
AcDbCircle
 10
48.28337224141751
 20
107.9764437337425
 30
0.0
 40
36.50000000000002
100
AcDbArc
 50
222.2919174629113
 51
223.4456175992067
  0
ARC
  5
A8E
330
D
100
AcDbEntity
 67
     1
  8
AM_VIS
100
AcDbCircle
 10
48.28337224141751
 20
107.9764437337425
 30
0.0
 40
36.50000000000003
100
AcDbArc
 50
226.5543824007937
 51
227.7080825370887
  0
ARC
  5
A8F
330
D
100
AcDbEntity
 67
     1
  8
AM_VIS
100
AcDbCircle
 10
48.28337224141751
 20
107.9764437337425
 30
0.0
 40
36.50000000000002
100
AcDbArc
 50
42.29191746291222
 51
43.44561759920668
  0
ARC
  5
A90
330
D
100
AcDbEntity
 67
     1
  8
AM_VIS
100
AcDbCircle
 10
48.28337224141751
 20
107.9764437337425
 30
0.0
 40
36.50000000000002
100
AcDbArc
 50
46.55438240079304
 51
47.70808253708872
  0
ARC
  5
A93
330
D
100
AcDbEntity
 67
     1
  8
AM_VIS
100
AcDbCircle
 10
67.28337224141753
 20
126.9764437337425
 30
0.0
 40
3.058734122500002
100
AcDbArc
 50
269.9999999999992
 51
220.1414327047265
  0
ARC
  5
A97
330
D
100
AcDbEntity
 67
     1
  8
AM_VIS
100
AcDbCircle
 10
48.28337224141751
 20
107.9764437337425
 30
0.0
 40
36.5
100
AcDbArc
 50
313.4456175992063
 51
316.5543824007933
  0
ARC
  5
A98
330
D
100
AcDbEntity
 67
     1
  8
AM_VIS
100
AcDbCircle
 10
48.28337224141751
 20
107.9764437337425
 30
0.0
 40
36.5
100
AcDbArc
 50
133.4456175992063
 51
136.5543824007933
  0
ARC
  5
A99
330
D
100
AcDbEntity
 67
     1
  8
AM_VIS
100
AcDbCircle
 10
48.28337224141751
 20
107.9764437337425
 30
0.0
 40
36.5
100
AcDbArc
 50
223.4456175992067
 51
226.5543824007937
  0
ARC
  5
A9A
330
D
100
AcDbEntity
 67
     1
  8
AM_VIS
100
AcDbCircle
 10
48.28337224141751
 20
107.9764437337425
 30
0.0
 40
36.5
100
AcDbArc
 50
43.44561759920668
 51
46.55438240079367
  0
ARC
  5
A9B
330
D
100
AcDbEntity
 67
     1
  8
AM_VIS
100
AcDbCircle
 10
48.28337224141751
 20
107.9764437337425
 30
0.0
 40
17.45000000000001
100
AcDbArc
 50
90.0
 51
270.0
  0
ARC
  5
A9C
330
D
100
AcDbEntity
 67
     1
  8
AM_VIS
100
AcDbCircle
 10
48.28337224141751
 20
107.9764437337425
 30
0.0
 40
17.45000000000001
100
AcDbArc
 50
270.0
 51
90.0
  0
ARC
  5
AAE
330
D
100
AcDbEntity
 67
     1
  8
AM_VIS
100
AcDbCircle
 10
48.28337224141751
 20
107.9764437337425
 30
0.0
 40
8.999999999999973
100
AcDbArc
 50
180.0
 51
0.0
  0
ARC
  5
AB2
330
D
100
AcDbEntity
 67
     1
  8
AM_VIS
100
AcDbCircle
 10
48.28337224141751
 20
107.9764437337425
 30
0.0
 40
8.999999999999973
100
AcDbArc
 50
0.0
 51
180.0
  0
ARC
  5
AB4
330
D
100
AcDbEntity
 67
     1
  8
AM_VIS
100
AcDbCircle
 10
48.28337224141751
 20
107.9764437337425
 30
0.0
 40
8.0
100
AcDbArc
 50
89.9999999999992
 51
270.0
  0
ARC
  5
AB6
330
D
100
AcDbEntity
 67
     1
  8
AM_VIS
100
AcDbCircle
 10
48.28337224141751
 20
107.9764437337425
 30
0.0
 40
8.0
100
AcDbArc
 50
270.0
 51
90.0
  0
LINE
  5
AB9
330
D
100
AcDbEntity
 67
     1
  8
AM_VIS
100
AcDbLine
 10
207.6712874724136
 20
132.5375919153728
 30
0.0
 11
207.6712874724136
 21
83.41529555211229
 31
0.0
  0
ARC
  5
ABA
330
D
100
AcDbEntity
 67
     1
  8
AM_VIS
100
AcDbCircle
 10
234.6712874724136
 20
107.9764437337425
 30
0.0
 40
36.50000000000002
100
AcDbArc
 50
136.5543824007933
 51
137.7080825370886
  0
LINE
  5
ABB
330
D
100
AcDbEntity
 67
     1
  8
AM_VIS
100
AcDbLine
 10
259.2324356540439
 20
134.9764437337425
 30
0.0
 11
210.1101392907833
 21
134.9764437337425
 31
0.0
  0
ARC
  5
ABC
330
D
100
AcDbEntity
 67
     1
  8
AM_VIS
100
AcDbCircle
 10
234.6712874724136
 20
107.9764437337425
 30
0.0
 40
36.50000000000002
100
AcDbArc
 50
46.55438240079367
 51
47.70808253708872
  0
ARC
  5
ABD
330
D
100
AcDbEntity
 67
     1
  8
AM_VIS
100
AcDbCircle
 10
234.6712874724136
 20
107.9764437337425
 30
0.0
 40
36.50000000000002
100
AcDbArc
 50
132.2919174629112
 51
133.4456175992063
  0
ARC
  5
ABE
330
D
100
AcDbEntity
 67
     1
  8
AM_VIS
100
AcDbCircle
 10
234.6712874724136
 20
107.9764437337425
 30
0.0
 40
36.50000000000002
100
AcDbArc
 50
222.2919174629113
 51
223.4456175992067
  0
LINE
  5
ABF
330
D
100
AcDbEntity
 67
     1
  8
AM_VIS
100
AcDbLine
 10
208.1712874724136
 20
82.8766429377203
 30
0.0
 11
208.1712874724136
 21
133.0762445297648
 31
0.0
  0
LINE
  5
AC0
330
D
100
AcDbEntity
 67
     1
  8
AM_VIS
100
AcDbLine
 10
209.5714866763913
 20
134.4764437337425
 30
0.0
 11
259.7710882684359
 21
134.4764437337425
 31
0.0
  0
LINE
  5
AC1
330
D
100
AcDbEntity
 67
     1
  8
AM_VIS
100
AcDbLine
 10
210.1101392907834
 20
80.97644373374254
 30
0.0
 11
259.2324356540439
 21
80.97644373374254
 31
0.0
  0
ARC
  5
AC2
330
D
100
AcDbEntity
 67
     1
  8
AM_VIS
100
AcDbCircle
 10
234.6712874724136
 20
107.9764437337425
 30
0.0
 40
36.50000000000002
100
AcDbArc
 50
226.5543824007937
 51
227.7080825370887
  0
LINE
  5
AC3
330
D
100
AcDbEntity
 67
     1
  8
AM_VIS
100
AcDbLine
 10
259.7710882684359
 20
81.47644373374253
 30
0.0
 11
209.5714866763914
 21
81.47644373374253
 31
0.0
  0
ARC
  5
AC4
330
D
100
AcDbEntity
 67
     1
  8
AM_VIS
100
AcDbCircle
 10
234.6712874724136
 20
107.9764437337425
 30
0.0
 40
36.50000000000002
100
AcDbArc
 50
312.2919174629113
 51
313.4456175992063
  0
LINE
  5
AC5
330
D
100
AcDbEntity
 67
     1
  8
AM_VIS
100
AcDbLine
 10
261.6712874724136
 20
83.41529555211229
 30
0.0
 11
261.6712874724136
 21
132.5375919153728
 31
0.0
  0
ARC
  5
AC6
330
D
100
AcDbEntity
 67
     1
  8
AM_VIS
100
AcDbCircle
 10
234.6712874724136
 20
107.9764437337425
 30
0.0
 40
36.50000000000002
100
AcDbArc
 50
316.5543824007933
 51
317.7080825370877
  0
LINE
  5
AC7
330
D
100
AcDbEntity
 67
     1
  8
AM_VIS
100
AcDbLine
 10
261.1712874724136
 20
133.0762445297648
 30
0.0
 11
261.1712874724136
 21
82.8766429377203
 31
0.0
  0
ARC
  5
AC8
330
D
100
AcDbEntity
 67
     1
  8
AM_VIS
100
AcDbCircle
 10
234.6712874724136
 20
107.9764437337425
 30
0.0
 40
36.50000000000002
100
AcDbArc
 50
42.29191746291222
 51
43.44561759920668
  0
ARC
  5
AD4
330
D
100
AcDbEntity
 67
     1
  8
AM_VIS
100
AcDbCircle
 10
234.6712874724136
 20
107.9764437337425
 30
0.0
 40
36.5
100
AcDbArc
 50
223.4456175992067
 51
226.5543824007937
  0
ARC
  5
AD5
330
D
100
AcDbEntity
 67
     1
  8
AM_VIS
100
AcDbCircle
 10
234.6712874724136
 20
107.9764437337425
 30
0.0
 40
36.5
100
AcDbArc
 50
133.4456175992063
 51
136.5543824007933
  0
ARC
  5
AD6
330
D
100
AcDbEntity
 67
     1
  8
AM_VIS
100
AcDbCircle
 10
234.6712874724136
 20
107.9764437337425
 30
0.0
 40
36.5
100
AcDbArc
 50
43.44561759920668
 51
46.55438240079367
  0
ARC
  5
AD7
330
D
100
AcDbEntity
 67
     1
  8
AM_VIS
100
AcDbCircle
 10
234.6712874724136
 20
107.9764437337425
 30
0.0
 40
36.5
100
AcDbArc
 50
313.4456175992063
 51
316.5543824007933
  0
ARC
  5
AE5
330
D
100
AcDbEntity
 67
     1
  8
AM_VIS
100
AcDbCircle
 10
234.6712874724136
 20
107.9764437337425
 30
0.0
 40
17.75
100
AcDbArc
 50
270.0
 51
90.0
  0
ARC
  5
AE7
330
D
100
AcDbEntity
 67
     1
  8
AM_VIS
100
AcDbCircle
 10
234.6712874724136
 20
107.9764437337425
 30
0.0
 40
17.75
100
AcDbArc
 50
90.0
 51
270.0
  0
ARC
  5
AEA
330
D
100
AcDbEntity
 67
     1
  8
AM_VIS
100
AcDbCircle
 10
234.6712874724136
 20
107.9764437337425
 30
0.0
 40
8.0
100
AcDbArc
 50
270.0
 51
89.9999999999992
  0
ARC
  5
AEB
330
D
100
AcDbEntity
 67
     1
  8
AM_VIS
100
AcDbCircle
 10
234.6712874724136
 20
107.9764437337425
 30
0.0
 40
8.0
100
AcDbArc
 50
89.9999999999992
 51
270.0
  0
CIRCLE
  5
B02
330
D
100
AcDbEntity
 67
     1
  8
0
100
AcDbCircle
 10
253.6712874724136
 20
126.9764437337425
 30
0.0
 40
3.25
  0
LINE
  5
B03
330
D
100
AcDbEntity
 67
     1
  8
AM_7
  6
AM_ISO08W050x2
100
AcDbLine
 10
248.8519385452048
 20
126.9764437337425
 30
0.0
 11
258.17819558949
 21
126.9764437337425
 31
0.0
1001
GENIUS_GENODEF_13
1002
{
1000
HIER
1070
     0
1002
}
1002
{
1000
MANEDIT
1070
     0
1002
}
1002
{
1000
NOSEL
1070
     0
1002
}
1002
{
1000
BEHIND
1070
     0
1002
}
1002
{
1000
OTHER
1070
     0
1002
}
1002
{
1000
REACTOR
1002
}
1001
GENIUS_GENOBJ-N-CEN_13
1002
{
1000
OWNER
1000
GEN
1002
}
1001
GENIUS_GENCEN_19
1002
{
1040
2.0
1002
}
  0
LINE
  5
B04
330
D
100
AcDbEntity
 67
     1
  8
AM_7
  6
AM_ISO08W050x2
100
AcDbLine
 10
253.6712874724136
 20
131.7207549364775
 30
0.0
 11
253.6712874724136
 21
121.7555010111339
 31
0.0
1001
GENIUS_GENODEF_13
1002
{
1000
HIER
1070
     0
1002
}
1002
{
1000
MANEDIT
1070
     0
1002
}
1002
{
1000
NOSEL
1070
     0
1002
}
1002
{
1000
BEHIND
1070
     0
1002
}
1002
{
1000
OTHER
1070
     0
1002
}
1002
{
1000
REACTOR
1002
}
1001
GENIUS_GENOBJ-N-CEN_13
1002
{
1000
OWNER
1000
GEN
1002
}
1001
GENIUS_GENCEN_19
1002
{
1040
2.0
1002
}
  0
CIRCLE
  5
B05
330
D
100
AcDbEntity
 67
     1
  8
0
100
AcDbCircle
 10
253.6712874724136
 20
88.97644373374248
 30
0.0
 40
3.25
  0
LINE
  5
B06
330
D
100
AcDbEntity
 67
     1
  8
AM_7
  6
AM_ISO08W050x2
100
AcDbLine
 10
248.8519385452048
 20
88.97644373374248
 30
0.0
 11
258.17819558949
 21
88.97644373374248
 31
0.0
1001
GENIUS_GENODEF_13
1002
{
1000
HIER
1070
     0
1002
}
1002
{
1000
MANEDIT
1070
     0
1002
}
1002
{
1000
NOSEL
1070
     0
1002
}
1002
{
1000
BEHIND
1070
     0
1002
}
1002
{
1000
OTHER
1070
     0
1002
}
1002
{
1000
REACTOR
1002
}
1001
GENIUS_GENOBJ-N-CEN_13
1002
{
1000
OWNER
1000
GEN
1002
}
1001
GENIUS_GENCEN_19
1002
{
1040
2.0
1002
}
  0
LINE
  5
B07
330
D
100
AcDbEntity
 67
     1
  8
AM_7
  6
AM_ISO08W050x2
100
AcDbLine
 10
253.6712874724136
 20
93.72075493647741
 30
0.0
 11
253.6712874724136
 21
83.7555010111339
 31
0.0
1001
GENIUS_GENODEF_13
1002
{
1000
HIER
1070
     0
1002
}
1002
{
1000
MANEDIT
1070
     0
1002
}
1002
{
1000
NOSEL
1070
     0
1002
}
1002
{
1000
BEHIND
1070
     0
1002
}
1002
{
1000
OTHER
1070
     0
1002
}
1002
{
1000
REACTOR
1002
}
1001
GENIUS_GENOBJ-N-CEN_13
1002
{
1000
OWNER
1000
GEN
1002
}
1001
GENIUS_GENCEN_19
1002
{
1040
2.0
1002
}
  0
CIRCLE
  5
B08
330
D
100
AcDbEntity
 67
     1
  8
0
100
AcDbCircle
 10
215.6712874724136
 20
88.97644373374248
 30
0.0
 40
3.25
  0
LINE
  5
B09
330
D
100
AcDbEntity
 67
     1
  8
AM_7
  6
AM_ISO08W050x2
100
AcDbLine
 10
210.8519385452048
 20
88.97644373374248
 30
0.0
 11
220.17819558949
 21
88.97644373374248
 31
0.0
1001
GENIUS_GENODEF_13
1002
{
1000
HIER
1070
     0
1002
}
1002
{
1000
MANEDIT
1070
     0
1002
}
1002
{
1000
NOSEL
1070
     0
1002
}
1002
{
1000
BEHIND
1070
     0
1002
}
1002
{
1000
OTHER
1070
     0
1002
}
1002
{
1000
REACTOR
1002
}
1001
GENIUS_GENOBJ-N-CEN_13
1002
{
1000
OWNER
1000
GEN
1002
}
1001
GENIUS_GENCEN_19
1002
{
1040
2.0
1002
}
  0
LINE
  5
B0A
330
D
100
AcDbEntity
 67
     1
  8
AM_7
  6
AM_ISO08W050x2
100
AcDbLine
 10
215.6712874724136
 20
93.72075493647741
 30
0.0
 11
215.6712874724136
 21
83.7555010111339
 31
0.0
1001
GENIUS_GENODEF_13
1002
{
1000
HIER
1070
     0
1002
}
1002
{
1000
MANEDIT
1070
     0
1002
}
1002
{
1000
NOSEL
1070
     0
1002
}
1002
{
1000
BEHIND
1070
     0
1002
}
1002
{
1000
OTHER
1070
     0
1002
}
1002
{
1000
REACTOR
1002
}
1001
GENIUS_GENOBJ-N-CEN_13
1002
{
1000
OWNER
1000
GEN
1002
}
1001
GENIUS_GENCEN_19
1002
{
1040
2.0
1002
}
  0
DIMENSION
  5
B0B
330
D
100
AcDbEntity
 67
     1
  8
AM_5
100
AcDbDimension
  2
*D4
 10
261.6712874724136
 20
66.30977706707587
 30
0.0
 11
234.6712874724136
 21
68.14311040040919
 31
0.0
 70
    32
  1
{\Famgdt;o}<>
 71
     5
 42
54.0
  3
AM_ISO$0
100
AcDbAlignedDimension
 13
207.6712874724136
 23
83.41529555211229
 33
0.0
 14
261.6712874724136
 24
83.41529555211229
 34
0.0
100
AcDbRotatedDimension
1001
ACAD
1000
DSTYLE
1002
{
1070
    40
1040
0.6666666666666666
1002
}
  0
DIMENSION
  5
B21
330
D
100
AcDbEntity
 67
     1
  8
AM_5
100
AcDbDimension
  2
*D5
 10
253.6712874724136
 20
72.97644373374254
 30
0.0
 11
234.6712874724136
 21
74.80977706707587
 31
0.0
 70
    32
  1
{\Famgdt;o}<>
 71
     5
 42
38.0
  3
AM_ISO$0
100
AcDbAlignedDimension
 13
215.6712874724136
 23
83.7555010111339
 33
0.0
 14
253.6712874724136
 24
83.7555010111339
 34
0.0
100
AcDbRotatedDimension
1001
ACAD
1000
DSTYLE
1002
{
1070
    40
1040
0.6666666666666666
1002
}
  0
LINE
  5
C14
330
D
100
AcDbEntity
 67
     1
  8
AM_7
  6
AM_ISO08W050x2
100
AcDbLine
 10
62.46402331420876
 20
126.9764437337425
 30
0.0
 11
71.79028035849393
 21
126.9764437337425
 31
0.0
1001
GENIUS_GENODEF_13
1002
{
1000
HIER
1070
     0
1002
}
1002
{
1000
MANEDIT
1070
     0
1002
}
1002
{
1000
NOSEL
1070
     0
1002
}
1002
{
1000
BEHIND
1070
     0
1002
}
1002
{
1000
OTHER
1070
     0
1002
}
1002
{
1000
REACTOR
1002
}
1001
GENIUS_GENOBJ-N-CEN_13
1002
{
1000
OWNER
1000
GEN
1002
}
1001
GENIUS_GENCEN_19
1002
{
1040
2.0
1002
}
  0
LINE
  5
C15
330
D
100
AcDbEntity
 67
     1
  8
AM_7
  6
AM_ISO08W050x2
100
AcDbLine
 10
67.28337224141753
 20
131.7207549364775
 30
0.0
 11
67.28337224141753
 21
121.7555010111339
 31
0.0
1001
GENIUS_GENODEF_13
1002
{
1000
HIER
1070
     0
1002
}
1002
{
1000
MANEDIT
1070
     0
1002
}
1002
{
1000
NOSEL
1070
     0
1002
}
1002
{
1000
BEHIND
1070
     0
1002
}
1002
{
1000
OTHER
1070
     0
1002
}
1002
{
1000
REACTOR
1002
}
1001
GENIUS_GENOBJ-N-CEN_13
1002
{
1000
OWNER
1000
GEN
1002
}
1001
GENIUS_GENCEN_19
1002
{
1040
2.0
1002
}
  0
CIRCLE
  5
C17
330
D
100
AcDbEntity
 67
     1
  8
0
100
AcDbCircle
 10
67.28337224141753
 20
126.9764437337425
 30
0.0
 40
2.459999999999999
  0
ARC
  5
C18
330
D
100
AcDbEntity
 67
     1
  8
AM_VIS
100
AcDbCircle
 10
29.28337224141751
 20
126.9764437337425
 30
0.0
 40
3.058734122500002
100
AcDbArc
 50
269.9999999999992
 51
220.1414327047265
  0
LINE
  5
C19
330
D
100
AcDbEntity
 67
     1
  8
AM_7
  6
AM_ISO08W050x2
100
AcDbLine
 10
24.46402331420873
 20
126.9764437337425
 30
0.0
 11
33.7902803584939
 21
126.9764437337425
 31
0.0
1001
GENIUS_GENODEF_13
1002
{
1000
HIER
1070
     0
1002
}
1002
{
1000
MANEDIT
1070
     0
1002
}
1002
{
1000
NOSEL
1070
     0
1002
}
1002
{
1000
BEHIND
1070
     0
1002
}
1002
{
1000
OTHER
1070
     0
1002
}
1002
{
1000
REACTOR
1002
}
1001
GENIUS_GENOBJ-N-CEN_13
1002
{
1000
OWNER
1000
GEN
1002
}
1001
GENIUS_GENCEN_19
1002
{
1040
2.0
1002
}
  0
LINE
  5
C1A
330
D
100
AcDbEntity
 67
     1
  8
AM_7
  6
AM_ISO08W050x2
100
AcDbLine
 10
29.28337224141751
 20
131.7207549364775
 30
0.0
 11
29.28337224141751
 21
121.7555010111339
 31
0.0
1001
GENIUS_GENODEF_13
1002
{
1000
HIER
1070
     0
1002
}
1002
{
1000
MANEDIT
1070
     0
1002
}
1002
{
1000
NOSEL
1070
     0
1002
}
1002
{
1000
BEHIND
1070
     0
1002
}
1002
{
1000
OTHER
1070
     0
1002
}
1002
{
1000
REACTOR
1002
}
1001
GENIUS_GENOBJ-N-CEN_13
1002
{
1000
OWNER
1000
GEN
1002
}
1001
GENIUS_GENCEN_19
1002
{
1040
2.0
1002
}
  0
CIRCLE
  5
C1B
330
D
100
AcDbEntity
 67
     1
  8
0
100
AcDbCircle
 10
29.28337224141751
 20
126.9764437337425
 30
0.0
 40
2.459999999999999
  0
ARC
  5
C1C
330
D
100
AcDbEntity
 67
     1
  8
AM_VIS
100
AcDbCircle
 10
29.28337224141751
 20
88.97644373374253
 30
0.0
 40
3.058734122500002
100
AcDbArc
 50
269.9999999999992
 51
220.1414327047265
  0
LINE
  5
C1D
330
D
100
AcDbEntity
 67
     1
  8
AM_7
  6
AM_ISO08W050x2
100
AcDbLine
 10
24.46402331420873
 20
88.97644373374253
 30
0.0
 11
33.7902803584939
 21
88.97644373374253
 31
0.0
1001
GENIUS_GENODEF_13
1002
{
1000
HIER
1070
     0
1002
}
1002
{
1000
MANEDIT
1070
     0
1002
}
1002
{
1000
NOSEL
1070
     0
1002
}
1002
{
1000
BEHIND
1070
     0
1002
}
1002
{
1000
OTHER
1070
     0
1002
}
1002
{
1000
REACTOR
1002
}
1001
GENIUS_GENOBJ-N-CEN_13
1002
{
1000
OWNER
1000
GEN
1002
}
1001
GENIUS_GENCEN_19
1002
{
1040
2.0
1002
}
  0
LINE
  5
C1E
330
D
100
AcDbEntity
 67
     1
  8
AM_7
  6
AM_ISO08W050x2
100
AcDbLine
 10
29.28337224141751
 20
93.72075493647747
 30
0.0
 11
29.28337224141751
 21
83.75550101113395
 31
0.0
1001
GENIUS_GENODEF_13
1002
{
1000
HIER
1070
     0
1002
}
1002
{
1000
MANEDIT
1070
     0
1002
}
1002
{
1000
NOSEL
1070
     0
1002
}
1002
{
1000
BEHIND
1070
     0
1002
}
1002
{
1000
OTHER
1070
     0
1002
}
1002
{
1000
REACTOR
1002
}
1001
GENIUS_GENOBJ-N-CEN_13
1002
{
1000
OWNER
1000
GEN
1002
}
1001
GENIUS_GENCEN_19
1002
{
1040
2.0
1002
}
  0
CIRCLE
  5
C1F
330
D
100
AcDbEntity
 67
     1
  8
0
100
AcDbCircle
 10
29.28337224141751
 20
88.97644373374253
 30
0.0
 40
2.459999999999999
  0
ARC
  5
C20
330
D
100
AcDbEntity
 67
     1
  8
AM_VIS
100
AcDbCircle
 10
67.28337224141753
 20
88.97644373374253
 30
0.0
 40
3.058734122500002
100
AcDbArc
 50
269.9999999999992
 51
220.1414327047265
  0
LINE
  5
C21
330
D
100
AcDbEntity
 67
     1
  8
AM_7
  6
AM_ISO08W050x2
100
AcDbLine
 10
62.46402331420876
 20
88.97644373374253
 30
0.0
 11
71.79028035849393
 21
88.97644373374253
 31
0.0
1001
GENIUS_GENODEF_13
1002
{
1000
HIER
1070
     0
1002
}
1002
{
1000
MANEDIT
1070
     0
1002
}
1002
{
1000
NOSEL
1070
     0
1002
}
1002
{
1000
BEHIND
1070
     0
1002
}
1002
{
1000
OTHER
1070
     0
1002
}
1002
{
1000
REACTOR
1002
}
1001
GENIUS_GENOBJ-N-CEN_13
1002
{
1000
OWNER
1000
GEN
1002
}
1001
GENIUS_GENCEN_19
1002
{
1040
2.0
1002
}
  0
LINE
  5
C22
330
D
100
AcDbEntity
 67
     1
  8
AM_7
  6
AM_ISO08W050x2
100
AcDbLine
 10
67.28337224141753
 20
93.72075493647747
 30
0.0
 11
67.28337224141753
 21
83.75550101113395
 31
0.0
1001
GENIUS_GENODEF_13
1002
{
1000
HIER
1070
     0
1002
}
1002
{
1000
MANEDIT
1070
     0
1002
}
1002
{
1000
NOSEL
1070
     0
1002
}
1002
{
1000
BEHIND
1070
     0
1002
}
1002
{
1000
OTHER
1070
     0
1002
}
1002
{
1000
REACTOR
1002
}
1001
GENIUS_GENOBJ-N-CEN_13
1002
{
1000
OWNER
1000
GEN
1002
}
1001
GENIUS_GENCEN_19
1002
{
1040
2.0
1002
}
  0
CIRCLE
  5
C23
330
D
100
AcDbEntity
 67
     1
  8
0
100
AcDbCircle
 10
67.28337224141753
 20
88.97644373374253
 30
0.0
 40
2.459999999999999
  0
LINE
  5
C24
330
D
100
AcDbEntity
 67
     1
  8
AM_7
  6
AM_ISO08W050x2
100
AcDbLine
 10
29.19821710920928
 20
107.9764437337425
 30
0.0
 11
67.84096130626858
 21
107.9764437337425
 31
0.0
1001
GENIUS_GENODEF_13
1002
{
1000
HIER
1070
     0
1002
}
1002
{
1000
MANEDIT
1070
     0
1002
}
1002
{
1000
NOSEL
1070
     0
1002
}
1002
{
1000
BEHIND
1070
     0
1002
}
1002
{
1000
OTHER
1070
     0
1002
}
1002
{
1000
REACTOR
1002
}
1001
GENIUS_GENOBJ-N-CEN_13
1002
{
1000
OWNER
1000
GEN
1002
}
1001
GENIUS_GENCEN_19
1002
{
1040
2.0
1002
}
  0
LINE
  5
C25
330
D
100
AcDbEntity
 67
     1
  8
AM_7
  6
AM_ISO08W050x2
100
AcDbLine
 10
48.28337224141751
 20
127.7966327773374
 30
0.0
 11
48.28337224141751
 21
88.09288141015542
 31
0.0
1001
GENIUS_GENODEF_13
1002
{
1000
HIER
1070
     0
1002
}
1002
{
1000
MANEDIT
1070
     0
1002
}
1002
{
1000
NOSEL
1070
     0
1002
}
1002
{
1000
BEHIND
1070
     0
1002
}
1002
{
1000
OTHER
1070
     0
1002
}
1002
{
1000
REACTOR
1002
}
1001
GENIUS_GENOBJ-N-CEN_13
1002
{
1000
OWNER
1000
GEN
1002
}
1001
GENIUS_GENCEN_19
1002
{
1040
2.0
1002
}
  0
LINE
  5
C26
330
D
100
AcDbEntity
 67
     1
  8
AM_7
  6
AM_ISO08W050x2
100
AcDbLine
 10
186.362966841385
 20
115.9764437337425
 30
0.0
 11
186.3629668413849
 21
99.97644373374253
 31
0.0
  0
LINE
  5
C27
330
D
100
AcDbEntity
 67
     1
  8
AM_7
  6
AM_ISO08W050x2
100
AcDbLine
 10
94.5798154593457
 20
107.9764437337425
 30
0.0
 11
190.2258698390972
 21
107.9764437337425
 31
0.0
  0
LINE
  5
C28
330
D
100
AcDbEntity
 67
     1
  8
AM_7
  6
AM_ISO08W050x2
100
AcDbLine
 10
150.4894087437849
 20
125.9764437337425
 30
0.0
 11
159.8156657880701
 21
125.9764437337425
 31
0.0
1001
GENIUS_GENODEF_13
1002
{
1000
HIER
1070
     0
1002
}
1002
{
1000
MANEDIT
1070
     0
1002
}
1002
{
1000
NOSEL
1070
     0
1002
}
1002
{
1000
BEHIND
1070
     0
1002
}
1002
{
1000
OTHER
1070
     0
1002
}
1002
{
1000
REACTOR
1002
}
1001
GENIUS_GENOBJ-N-CEN_13
1002
{
1000
OWNER
1000
GEN
1002
}
1001
GENIUS_GENCEN_19
1002
{
1040
2.0
1002
}
  0
LINE
  5
C29
330
D
100
AcDbEntity
 67
     1
  8
AM_7
  6
AM_ISO08W050x2
100
AcDbLine
 10
155.3087576709937
 20
130.7207549364775
 30
0.0
 11
155.3087576709937
 21
120.7555010111339
 31
0.0
1001
GENIUS_GENODEF_13
1002
{
1000
HIER
1070
     0
1002
}
1002
{
1000
MANEDIT
1070
     0
1002
}
1002
{
1000
NOSEL
1070
     0
1002
}
1002
{
1000
BEHIND
1070
     0
1002
}
1002
{
1000
OTHER
1070
     0
1002
}
1002
{
1000
REACTOR
1002
}
1001
GENIUS_GENOBJ-N-CEN_13
1002
{
1000
OWNER
1000
GEN
1002
}
1001
GENIUS_GENCEN_19
1002
{
1040
2.0
1002
}
  0
DIMENSION
  5
C33
330
D
100
AcDbEntity
 67
     1
  8
AM_5
100
AcDbDimension
  2
*D6
 10
67.28337224141753
 20
72.97644373374234
 30
0.0
 11
48.28337224141751
 21
72.97644373374234
 31
0.0
 70
   160
  1
{\Famgdt;o}<>
 71
     5
 42
38.00000000000003
  3
AM_ISO$0
100
AcDbAlignedDimension
 13
29.28337224141751
 23
83.75550101113395
 33
0.0
 14
67.28337224141753
 24
83.75550101113395
 34
0.0
 50
0.0000000000001132
100
AcDbRotatedDimension
1001
ACAD
1000
DSTYLE
1002
{
1070
    40
1040
0.6666666666666666
1002
}
  0
DIMENSION
  5
C52
330
D
100
AcDbEntity
 67
     1
  8
AM_5
100
AcDbDimension
  2
*D7
 10
75.28337224141754
 20
66.30977706707568
 30
0.0
 11
48.28337224141752
 21
68.14311040040902
 31
0.0
 70
    32
  1
{\Famgdt;o}<>
 71
     5
 42
54.00000000000003
  3
AM_ISO$0
100
AcDbAlignedDimension
 13
21.28337224141751
 23
83.41529555211229
 33
0.0
 14
75.28337224141754
 24
83.41529555211229
 34
0.0
 50
0.0000000000001132
100
AcDbRotatedDimension
1001
ACAD
1000
DSTYLE
1002
{
1070
    40
1040
0.6666666666666666
1002
}
  0
DIMENSION
  5
E02
330
D
100
AcDbEntity
 67
     1
  8
AM_5
100
AcDbDimension
  2
*D8
 10
29.28337224141749
 20
126.9764437337425
 30
0.0
 11
39.94196610555728
 21
138.5873619235029
 31
0.0
 70
   164
  1
4-M6*8
 71
     5
 42
3.058734122499998
  3
AM_ISO$4
100
AcDbRadialDimension
 15
30.51183044956204
 25
129.777647914624
 35
0.0
 40
0.0
1001
ACAD
1000
DSTYLE
1002
{
1070
    40
1040
0.6666666666666666
1002
}
  0
DIMENSION
  5
E24
330
D
100
AcDbEntity
 67
     1
  8
AM_5
100
AcDbDimension
  2
*D9
 10
91.80875767099378
 20
115.9764437337425
 30
0.0
 11
89.97542433766041
 21
107.9764437337425
 31
0.0
 70
    32
  1
%%c<>
 71
     5
 42
16.0
  3
AM_ISO$0
100
AcDbAlignedDimension
 13
99.80875767099377
 23
99.97644373374255
 33
0.0
 14
99.80875767099377
 24
115.9764437337425
 34
0.0
 50
90.0
100
AcDbRotatedDimension
1001
ACAD
1000
DSTYLE
1002
{
1070
    40
1040
0.6666666666666666
1002
}
  0
DIMENSION
  5
E59
330
D
100
AcDbEntity
 67
     1
  8
AM_5
100
AcDbDimension
  2
*D10
 10
112.8087576709937
 20
73.47644373374253
 30
0.0
 11
107.8087576709938
 21
75.30977706707585
 31
0.0
 70
    32
 71
     5
 42
10.0
  3
AM_ISO$0
100
AcDbAlignedDimension
 13
102.8087576709938
 23
91.52644373374256
 33
0.0
 14
112.8087576709937
 24
81.47644373374253
 34
0.0
 50
0.0000000000001132
100
AcDbRotatedDimension
1001
ACAD
1000
DSTYLE
1002
{
1070
    40
1040
0.6666666666666666
1070
   174
1070
     1
1002
}
  0
DIMENSION
  5
E78
330
D
100
AcDbEntity
 67
     1
  8
AM_5
100
AcDbDimension
  2
*D11
 10
182.8087576709938
 20
73.47644373374262
 30
0.0
 11
147.8087576709937
 21
75.30977706707594
 31
0.0
 70
    32
 71
     5
 42
70.0
  3
AM_ISO$0
100
AcDbAlignedDimension
 13
112.8087576709937
 23
81.47644373374255
 33
0.0
 14
182.8087576709938
 24
81.47644373374253
 34
0.0
100
AcDbRotatedDimension
1001
ACAD
1000
DSTYLE
1002
{
1070
   174
1070
     1
1070
    40
1040
0.6666666666666666
1002
}
  0
DIMENSION
  5
E8E
330
D
100
AcDbEntity
 67
     1
  8
AM_5
100
AcDbDimension
  2
*D12
 10
182.8087576709938
 20
66.80977706707611
 30
0.0
 11
142.8087576709937
 21
68.64311040040944
 31
0.0
 70
    32
 71
     5
 42
80.0
  3
AM_ISO$0
100
AcDbAlignedDimension
 13
102.8087576709938
 23
91.52644373374256
 33
0.0
 14
182.8087576709938
 24
81.47644373374253
 34
0.0
 50
0.0000000000001132
100
AcDbRotatedDimension
1001
ACAD
1000
DSTYLE
1002
{
1070
    40
1040
0.6666666666666666
1002
}
  0
DIMENSION
  5
EDA
330
D
100
AcDbEntity
 67
     1
  8
AM_5
100
AcDbDimension
  2
*D13
 10
85.14209100432712
 20
125.4264437337425
 30
0.0
 11
83.30875767099376
 21
107.9764437337425
 31
0.0
 70
    32
  1
%%c<>
 71
     5
 42
34.89999999999998
  3
AM_ISO$0
100
AcDbAlignedDimension
 13
103.8087576709938
 23
90.52644373374254
 33
0.0
 14
103.8087576709938
 24
125.4264437337425
 34
0.0
 50
90.0
100
AcDbRotatedDimension
1001
ACAD
1000
DSTYLE
1002
{
1070
    40
1040
0.6666666666666666
1002
}
  0
DIMENSION
  5
EF9
330
D
100
AcDbEntity
 67
     1
  8
AM_5
100
AcDbDimension
  2
*D14
 10
155.3087576709937
 20
125.9764437337426
 30
0.0
 11
142.7328986557144
 21
141.2902235609151
 31
0.0
 70
   164
  1
G1/8
 71
     5
 42
5.083224999999998
  3
AM_ISO$4
100
AcDbRadialDimension
 15
152.7228283532193
 25
130.3527602172821
 35
0.0
 40
0.0
1001
ACAD
1000
DSTYLE
1002
{
1070
    40
1040
0.6666666666666666
1002
}
  0
LINE
  5
FBC
330
D
100
AcDbEntity
 67
     1
  8
AM_7
  6
AM_ISO08W050x2
100
AcDbLine
 10
255.1997445849472
 20
107.9764437337425
 30
0.0
 11
214.227170460461
 21
107.9764437337425
 31
0.0
1001
GENIUS_GENOREF_13
1005
FBE
  0
LINE
  5
FBD
330
D
100
AcDbEntity
 67
     1
  8
AM_7
  6
AM_ISO08W050x2
100
AcDbLine
 10
234.6712874724136
 20
128.0512601062127
 30
0.0
 11
234.6712874724136
 21
87.82026518857009
 31
0.0
1001
GENIUS_GENOREF_13
1005
FBE
  0
POINT
  5
FBE
330
D
100
AcDbEntity
 67
     1
  8
0
 60
     1
100
AcDbPoint
 10
-93.0902457813392
 20
84.82271876384123
 30
0.0
1001
GENIUS_GENOLIS_13
1002
{
1000
ENT
1005
FBD
1005
FBC
1005
0
1005
0
1002
}
1001
GENIUS_GENOENT_13
1002
{
1000
MYREF
1005
FBE
1002
}
1002
{
1000
GRP
1005
0
1002
}
1001
GENIUS_GENOBJ-N-CRS_13
1002
{
1000
OWNER
1000
GEN
1002
}
1001
GENIUS_GENODEF_13
1002
{
1000
HIER
1070
    10
1002
}
1002
{
1000
MANEDIT
1070
     1
1002
}
1002
{
1000
NOSEL
1070
     0
1002
}
1002
{
1000
BEHIND
1070
     0
1002
}
1002
{
1000
OTHER
1070
     0
1002
}
1002
{
1000
REACTOR
1002
}
  0
ENDSEC
  0
SECTION
  2
OBJECTS
  0
DICTIONARY
  5
8
330
0
100
AcDbDictionary
281
     1
  3
ACAD_COLOR
350
38
  3
ACAD_GROUP
350
34
  3
ACAD_LAYOUT
350
C
  3
ACAD_MATERIAL
350
37
  3
ACAD_MLINESTYLE
350
35
  3
ACAD_PLOTSETTINGS
350
36
  3
ACAD_PLOTSTYLENAME
350
7
  3
ACAD_TABLESTYLE
350
39
  3
AcadDim
350
7DA
  3
ACDBHEADERROUNDTRIPXREC
350
10D1
  3
AcDbVariableDictionary
350
1B9
  3
AcmDictionary
350
21D
  3
AMG
350
1C5
  3
AMGSNAPSETTINGS
350
255
  3
DWGPROPS
350
10D0
  3
MAPISURF_MODULE
350
1052
  0
DICTIONARY
  5
14
330
13
100
AcDbDictionary
280
     1
281
     1
  3
ACAD_LAYERFILTERS
360
55A
  3
ACAD_LAYERSTATES
360
15
  3
ACLYDICTIONARY
360
559
  0
DICTIONARY
  5
3
330
2
100
AcDbDictionary
280
     1
281
     1
  3
ACAD_INDEX
360
10A5
  0
DICTIONARY
  5
268
330
D
100
AcDbDictionary
280
     1
281
     1
  3
ACAD_SORTENTS
360
269
  0
DICTIONARY
  5
10D5
330
1C3
100
AcDbDictionary
280
     1
281
     1
  3
ACAD_XREC_ROUNDTRIP
360
10D6
  0
DICTIONARY
  5
38
102
{ACAD_REACTORS
330
8
102
}
330
8
100
AcDbDictionary
281
     1
  0
DICTIONARY
  5
34
102
{ACAD_REACTORS
330
8
102
}
330
8
100
AcDbDictionary
281
     1
  0
DICTIONARY
  5
C
102
{ACAD_REACTORS
330
8
102
}
330
8
100
AcDbDictionary
281
     1
  3
Model
350
B
  3
配置1
350
10
  0
DICTIONARY
  5
37
102
{ACAD_REACTORS
330
8
102
}
330
8
100
AcDbDictionary
281
     1
  0
DICTIONARY
  5
35
102
{ACAD_REACTORS
330
8
102
}
330
8
100
AcDbDictionary
281
     1
  3
STANDARD
350
3A
  0
DICTIONARY
  5
36
102
{ACAD_REACTORS
330
8
102
}
330
8
100
AcDbDictionary
281
     1
  0
ACDBDICTIONARYWDFLT
  5
7
102
{ACAD_REACTORS
330
8
102
}
330
8
100
AcDbDictionary
281
     1
  3
Normal
350
6
100
AcDbDictionaryWithDefault
340
6
  0
DICTIONARY
  5
39
102
{ACAD_REACTORS
330
8
102
}
330
8
100
AcDbDictionary
281
     1
  3
Standard
350
3B
  0
XRECORD
  5
7DA
102
{ACAD_REACTORS
330
8
102
}
330
8
100
AcDbXrecord
280
     1
 90
   990106
  3

 60
     0
 61
     0
 62
     1
 63
     3
 64
     1
 65
     0
 66
     0
 67
     3
 68
     0
 69
     0
 70
     0
 71
     0
 72
     0
 40
0.0
170
     2
340
7DC
  0
DICTIONARY
  5
10D1
102
{ACAD_REACTORS
330
8
102
}
330
8
100
AcDbDictionary
281
     1
  0
DICTIONARY
  5
1B9
102
{ACAD_REACTORS
330
8
102
}
330
8
100
AcDbDictionary
281
     1
  3
CTABLESTYLE
350
1BA
  3
DIMASSOC
350
1BC
  3
HIDETEXT
350
1BB
  3
INDEXCTL
350
10CF
  3
PROJECTNAME
350
1BD
  0
DICTIONARY
  5
21D
102
{ACAD_REACTORS
330
8
102
}
330
8
100
AcDbDictionary
281
     1
  3
AcmStdDictionary
350
22A
  3
AMDTSECTSYM_ARROWCOLOR
350
247
  0
DICTIONARY
  5
1C5
102
{ACAD_REACTORS
330
8
102
}
330
8
100
AcDbDictionary
281
     1
  3
AcMgSettings
350
FCE
  0
DICTIONARY
  5
255
102
{ACAD_REACTORS
330
8
102
}
330
8
100
AcDbDictionary
281
     1
  0
XRECORD
  5
10D0
102
{ACAD_REACTORS
330
8
102
}
330
8
100
AcDbXrecord
280
     1
  1
DWGPROPS COOKIE
  2

  3

  4

  6

  7

  8

  9

300
AmdtFileType=84
301
=
302
=
303
=
304
=
305
=
306
=
307
=
308
=
309
=
 40
0.1146388194444444
 41
2455098.657891898
 42
2455117.711545347
  1

 90
        1
  0
DICTIONARY
  5
55A
102
{ACAD_REACTORS
330
14
102
}
330
14
100
AcDbDictionary
281
     1
  0
DICTIONARY
  5
15
102
{ACAD_REACTORS
330
14
102
}
330
14
100
AcDbDictionary
281
     1
  0
DICTIONARY
  5
559
102
{ACAD_REACTORS
330
14
102
}
330
14
100
AcDbDictionary
281
     1
1001
ACAD
1000
<All
  0
DICTIONARY
  5
10A5
102
{ACAD_REACTORS
330
3
102
}
330
3
100
AcDbDictionary
281
     1
  3
*A1
350
10A6
  0
SORTENTSTABLE
  5
269
102
{ACAD_REACTORS
330
268
102
}
330
268
100
AcDbSortentsTable
330
D
331
54E
  5
54F
331
34C
  5
34C
331
33E
  5
33E
331
363
  5
363
331
321
  5
321
331
31E
  5
31E
331
360
  5
360
331
33B
  5
33B
331
36B
  5
36B
331
35D
  5
35D
331
31B
  5
31B
331
368
  5
368
331
30D
  5
30D
331
335
  5
335
331
35A
  5
35A
331
318
  5
318
331
30A
  5
30A
331
357
  5
357
331
315
  5
315
331
55C
  5
55B
331
307
  5
307
331
1C3
  5
26C
331
312
  5
312
331
354
  5
354
331
304
  5
304
331
5A0
  5
5A0
331
32C
  5
32C
331
326
  5
326
331
301
  5
301
331
34E
  5
34E
331
329
  5
329
331
2FE
  5
2FE
331
365
  5
365
331
340
  5
340
331
323
  5
323
331
33D
  5
33D
331
362
  5
362
331
320
  5
320
331
348
  5
348
331
35F
  5
35F
331
33A
  5
33A
331
31D
  5
31D
331
30F
  5
30F
331
36A
  5
36A
331
31A
  5
31A
331
35C
  5
35C
331
30C
  5
30C
331
317
  5
317
331
359
  5
359
331
334
  5
334
331
309
  5
309
331
356
  5
356
331
314
  5
314
331
55B
  5
54E
331
306
  5
306
331
311
  5
311
331
353
  5
353
331
303
  5
303
331
32B
  5
32B
331
300
  5
300
331
367
  5
367
331
325
  5
325
331
34D
  5
34D
331
54F
  5
55C
331
328
  5
328
331
33F
  5
33F
331
364
  5
364
331
322
  5
322
331
2FD
  5
2FD
331
54C
  5
54C
331
31F
  5
31F
331
361
  5
361
331
33C
  5
33C
331
35E
  5
35E
331
339
  5
339
331
31C
  5
31C
331
30E
  5
30E
331
369
  5
369
331
319
  5
319
331
35B
  5
35B
331
30B
  5
30B
331
316
  5
316
331
358
  5
358
331
55D
  5
55D
331
308
  5
308
331
355
  5
355
331
330
  5
330
331
313
  5
313
331
305
  5
305
331
310
  5
310
331
352
  5
352
331
327
  5
327
331
344
  5
344
331
302
  5
302
331
32A
  5
32A
331
2FF
  5
2FF
331
366
  5
366
331
324
  5
324
  0
XRECORD
  5
10D6
102
{ACAD_REACTORS
330
10D5
102
}
330
10D5
100
AcDbXrecord
280
     1
102
SHADEPLOT
 70
     0
  0
LAYOUT
  5
B
102
{ACAD_XDICTIONARY
360
10D2
102
}
102
{ACAD_REACTORS
330
C
102
}
330
C
100
AcDbPlotSettings
  1

  2
\\NOVIBDC\HPLJ4-TPUB
  4

  6

 40
0.0
 41
0.0
 42
0.0
 43
0.0
 44
0.0
 45
0.0
 46
0.0
 47
0.0
 48
0.0
 49
0.0
140
0.0
141
0.0
142
1.0
143
1.0
 70
  1712
 72
     0
 73
     0
 74
     0
  7

 75
     0
147
1.0
148
0.0
149
0.0
100
AcDbLayout
  1
Model
 70
     1
 71
     0
 10
0.0
 20
0.0
 11
12.0
 21
9.0
 12
0.0
 22
0.0
 32
0.0
 14
0.0
 24
0.0
 34
0.0
 15
0.0
 25
0.0
 35
0.0
146
0.0
 13
0.0
 23
0.0
 33
0.0
 16
1.0
 26
0.0
 36
0.0
 17
0.0
 27
1.0
 37
0.0
 76
     0
330
2
  0
LAYOUT
  5
10
102
{ACAD_XDICTIONARY
360
11
102
}
102
{ACAD_REACTORS
330
C
102
}
330
C
100
AcDbPlotSettings
  1

  2
\\RDS1\iR3300影印機
  4
A3
  6

 40
6.805083274841308
 41
5.365738868713378
 42
7.228424072265625
 43
5.027069091796875
 44
296.9259948730469
 45
419.9466552734374
 46
0.0
 47
0.0
 48
0.0
 49
0.0
140
0.0
141
0.0
142
1.5
143
1.0
 70
   672
 72
     1
 73
     1
 74
     5
  7

 75
    16
147
1.0
148
0.0
149
0.0
100
AcDbLayout
  1
配置1
 70
     1
 71
     1
 10
-3.35137939453125
 20
-4.536722183227539
 11
276.6130574544271
 21
193.4139410654703
 12
0.0
 22
0.0
 32
0.0
 14
8.815044552509107
 24
3.73337283036443
 34
-0.0015234476054502
 15
266.732111097214
 25
181.7155937533084
 35
127.3972050562932
146
0.0
 13
0.0
 23
0.0
 33
0.0
 16
1.0
 26
0.0
 36
0.0
 17
0.0
 27
1.0
 37
0.0
 76
     0
330
D
331
1C3
1001
ACAD_PSEXT
1000
\\RDS1\iR3300影印機
1000
Canon iR2200-3300 PCL5e
1000
\\RDS1
1000

1070
     0
  0
MLINESTYLE
  5
3A
102
{ACAD_REACTORS
330
35
102
}
330
35
100
AcDbMlineStyle
  2
STANDARD
 70
     0
  3

 62
     0
 51
90.0
 52
90.0
 71
     2
 49
0.5
 62
   256
  6
BYLAYER
 49
-0.5
 62
   256
  6
BYLAYER
  0
ACDBPLACEHOLDER
  5
6
102
{ACAD_REACTORS
330
7
102
}
330
7
  0
TABLESTYLE
  5
3B
102
{ACAD_REACTORS
330
39
102
}
330
39
100
AcDbTableStyle
  3
Standard
 70
     0
 71
     0
 40
1.5
 41
1.5
280
     0
281
     0
  7
STANDARD
140
4.5
170
     2
 62
     0
 63
     7
283
     0
274
    -2
284
     1
 64
     0
275
    -2
285
     1
 65
     0
276
    -2
286
     1
 66
     0
277
    -2
287
     1
 67
     0
278
    -2
288
     1
 68
     0
279
    -2
289
     1
 69
     0
  7
STANDARD
140
6.0
170
     5
 62
     0
 63
     7
283
     0
274
    -2
284
     1
 64
     0
275
    -2
285
     1
 65
     0
276
    -2
286
     1
 66
     0
277
    -2
287
     1
 67
     0
278
    -2
288
     1
 68
     0
279
    -2
289
     1
 69
     0
  7
STANDARD
140
4.5
170
     5
 62
     0
 63
     7
283
     0
274
    -2
284
     1
 64
     0
275
    -2
285
     1
 65
     0
276
    -2
286
     1
 66
     0
277
    -2
287
     1
 67
     0
278
    -2
288
     1
 68
     0
279
    -2
289
     1
 69
     0
  0
DICTIONARYVAR
  5
1BA
102
{ACAD_REACTORS
330
1B9
102
}
330
1B9
100
DictionaryVariables
280
     0
  1
STANDARD
  0
DICTIONARYVAR
  5
1BC
102
{ACAD_REACTORS
330
1B9
102
}
330
1B9
100
DictionaryVariables
280
     0
  1
1
  0
DICTIONARYVAR
  5
1BB
102
{ACAD_REACTORS
330
1B9
102
}
330
1B9
100
DictionaryVariables
280
     0
  1
1
  0
DICTIONARYVAR
  5
10CF
102
{ACAD_REACTORS
330
1B9
102
}
330
1B9
100
DictionaryVariables
280
     0
  1
1
  0
DICTIONARYVAR
  5
1BD
102
{ACAD_REACTORS
330
1B9
102
}
330
1B9
100
DictionaryVariables
280
     0
  1

  0
DICTIONARY
  5
22A
102
{ACAD_REACTORS
330
21D
102
}
330
21D
100
AcDbDictionary
281
     1
  0
XRECORD
  5
247
102
{ACAD_REACTORS
330
21D
102
}
330
21D
100
AcDbXrecord
280
     1
 90
-1023410169
  0
DICTIONARY
  5
FCE
102
{ACAD_REACTORS
330
1C5
102
}
330
1C5
100
AcDbDictionary
281
     1
  3
DWGSETTINGS
350
FCF
  3
TRANSSETTINGS
350
FD2
  0
LAYER_INDEX
  5
10A6
102
{ACAD_REACTORS
330
10A5
102
}
330
10A5
100
AcDbIndex
 40
2455117.711545347
100
AcDbLayerIndex
  8
0
360
10A7
 90
        0
  8
AM_VIS
360
10A8
 90
        0
  8
LOGO
360
10A9
 90
        0
  8
AM_5
360
10AA
 90
        0
  8
Defpoints
360
10AB
 90
        0
  8
AM_7
360
10AC
 90
        0
  8
HIDDEN
360
10AD
 90
        0
  0
DICTIONARY
  5
10D2
330
B
100
AcDbDictionary
280
     1
281
     1
  3
ACAD_XREC_ROUNDTRIP
360
10D3
  0
DICTIONARY
  5
11
330
10
100
AcDbDictionary
280
     1
281
     1
  3
ACAD_XREC_ROUNDTRIP
360
10D4
  3
ADSK_XREC_LAYOUTTHUMBNAIL
360
12
  0
IDBUFFER
  5
10A7
330
0
100
AcDbIdBuffer
  0
IDBUFFER
  5
10A8
330
0
100
AcDbIdBuffer
  0
IDBUFFER
  5
10A9
330
0
100
AcDbIdBuffer
  0
IDBUFFER
  5
10AA
330
0
100
AcDbIdBuffer
  0
IDBUFFER
  5
10AB
330
0
100
AcDbIdBuffer
  0
IDBUFFER
  5
10AC
330
0
100
AcDbIdBuffer
  0
IDBUFFER
  5
10AD
330
0
100
AcDbIdBuffer
  0
XRECORD
  5
10D3
102
{ACAD_REACTORS
330
10D2
102
}
330
10D2
100
AcDbXrecord
280
     1
102
SHADEPLOT
 70
     0
102
SHADEPLOTRESLEVEL
 70
     2
102
SHADEPLOTCUSTOMDPI
 70
   300
  0
XRECORD
  5
10D4
102
{ACAD_REACTORS
330
11
102
}
330
11
100
AcDbXrecord
280
     1
102
SHADEPLOT
 70
     0
102
SHADEPLOTRESLEVEL
 70
     2
102
SHADEPLOTCUSTOMDPI
 70
   300
  0
XRECORD
  5
12
102
{ACAD_REACTORS
330
11
102
}
330
11
100
AcDbXrecord
280
     1
310
28000000B40000007F00000001000800000000004C590000000000000000000000010000000000000000000000000000FFFFFF000000000000000000000000000000000000000000000000000000000000000000330000006600000099000000CC000000FF00000000330000333300006633000099330000CC330000FF3300
310
0000660000336600006666000099660000CC660000FF66000000990000339900006699000099990000CC990000FF99000000CC000033CC000066CC000099CC0000CCCC0000FFCC000000FF000033FF000066FF000099FF0000CCFF0000FFFF000000003300330033006600330099003300CC003300FF003300003333003333
310
33006633330099333300CC333300FF33330000663300336633006666330099663300CC663300FF66330000993300339933006699330099993300CC993300FF99330000CC330033CC330066CC330099CC3300CCCC3300FFCC330000FF330033FF330066FF330099FF3300CCFF3300FFFF330000006600330066006600660099
310
006600CC006600FF00660000336600333366006633660099336600CC336600FF33660000666600336666006666660099666600CC666600FF66660000996600339966006699660099996600CC996600FF99660000CC660033CC660066CC660099CC6600CCCC6600FFCC660000FF660033FF660066FF660099FF6600CCFF6600
310
FFFF660000009900330099006600990099009900CC009900FF00990000339900333399006633990099339900CC339900FF33990000669900336699006666990099669900CC669900FF66990000999900339999006699990099999900CC999900FF99990000CC990033CC990066CC990099CC9900CCCC9900FFCC990000FF99
310
0033FF990066FF990099FF9900CCFF9900FFFF99000000CC003300CC006600CC009900CC00CC00CC00FF00CC000033CC003333CC006633CC009933CC00CC33CC00FF33CC000066CC003366CC006666CC009966CC00CC66CC00FF66CC000099CC003399CC006699CC009999CC00CC99CC00FF99CC0000CCCC0033CCCC0066CC
310
CC0099CCCC00CCCCCC00FFCCCC0000FFCC0033FFCC0066FFCC0099FFCC00CCFFCC00FFFFCC000000FF003300FF006600FF009900FF00CC00FF00FF00FF000033FF003333FF006633FF009933FF00CC33FF00FF33FF000066FF003366FF006666FF009966FF00CC66FF00FF66FF000099FF003399FF006699FF009999FF00CC
310
99FF00FF99FF0000CCFF0033CCFF0066CCFF0099CCFF00CCCCFF00FFCCFF0000FFFF0033FFFF0066FFFF0099FFFF00CCFFFF00FFFFFF00000000000D0D0D001A1A1A00282828003535350043434300505050005D5D5D006B6B6B00787878008686860093939300A1A1A100AEAEAE00BBBBBB00C9C9C900D6D6D600E4E4E400
310
F1F1F100FFFFFF0000000000000000000000000000000000000000000000000000000000000000000000000000000000E2E2E2E2E2E2E2E2E2E2E2E2E2E2E2E2E2E2E2E2E2E2E2E2E2E2E2E2E2E2E2E2E2E2E2E2E2E2E2E2E2E2E2E2E2E2E2E2E2E2E2E2E2E2E2E2E2E2E2E2E2E2E2E2E2E2E2E2E2E2E2E2E2E2E2E2E2E2E2
310
E2E2E2E2E2E2E2E2E2E2E2E2E2E2E2E2E2E2E2E2E2E2E2E2E2E2E2E2E2E2E2E2E2E2E2E2E2E2E2E2E2E2E2E2E2E2E2E2E2E2E2E2E2E2E2E2E2E2E2E2E2E2E2E2E2E2E2E2E2E2E2E2E2E2E2E2E2E2E2E2E2E2E2E2E2E2E2E2E2E2E2E2E2E2E2E2E2E2E2E2E2E2E2E2E2E2E2E2E2E2E2E2E2E2E2E2E2E2E2E2E2E2E2E2E2E2E2
310
E2E2E2E2E2E2E2E2E2E2E2E2E2E2E2E2E2E2E2E2E2E2E2E2E2E2E2E2E2E2E2E2E2E2E2E2E2E2E2E2E2E2E2E2E2E2E2E2E2E2E2E2E2E2E2E2E2E2E2E2E2E2E2E2E2E2E2E2E2E2E2E2E2E2E2E2E2E2E2E2E2E2E2E2E2E2E2E2E2E2E2E2E2E2E2E2E2E2E2E2E2E2E2E2E2E2E2E2E2E2E2E2E2E2E2E2E2E2E2E2E2E2E2E2E2E2E2
310
E2E2E2E2E2E2E2E2E2E2E2E2E2E2E2E2E2E2E2E2E2E2E2E2E2E2E2E2E2E2E2E2E2E2E2E2E2E2E2E2E2E2E2E2E2E2E2E2E2E2E2E2E2E2E2E2E2E2E2E2E2E2E2E2E2E2E2E2E2E2E2E2E2E2E2E2E2E2E2E2E2E2E2E2E2E2E2E2E2E2E2E2E2E2E2E2E2E2E2E2E2E2E2E2E2E2E2E2E2E2E2E2E2E2E2E2E2E2E2E2E2E2E2E2E2E2E2
310
E2E2E2E2E2E2E2E2E2E2E2E2E2E2E2E2E2E2E2E2E2E2E2E2E2E2E2E2E2E2E2E2E2E2E2E2E2E2E2E2E2E2E2E2E2E2E2E2E2E2E2E2E2E2E2E2E2E2E2E2E2E2E2E2E2E2E2E2E2E2E2E2E2E2E2E2E2E2E2E2E2E2E2E2E2E2E2E2E2E2E2E2E2E2E2E2E2E2E2E2E2E2E2E2E2E2E2E2E2E2E2E2E2E2E2E2E2E2E2E2E2E2E2E2E2E2E2
310
E2E2E2E2E2E2E2E2E2E2E2E2E2E2E2E2E2E2E2E2E2E2E2E2E2E2E2E2E2E2E2E2E2E2E2E2E2E2E2E2E2E2E2E2E2E2E2E2E2E2E2E2E2E2E2E2E2E2E2E2E2E2E2E2E2E2E2E2E2E2E2E2E2E2E2E2E2E2E2E2E2E2E2E2E2E2E2E2E2E2E2E2E2E2E2E2E2E2E2E2E2E2E2E2E2E2E2E2E2E2E2E2E2E2E2E2E2E2E2E2E2E2E2E2E2E2E2
310
E2E2E2E2E2E2E2E2E2E2E2E2E2E2E2E2E2E2E2E2E2E2E2E2E2E2E2E2E2E2E2E2E2E2E2E2E2E2E2E2E2E2E2E2E2E2E2E2E2E2E2E2E2E2E2E2E2E2E2E2E2E2E2E2E2E2E2E2E2E2E2E2E2E2E2E2E2E2E2E2E2E2E2E2E2E2E2E2E2E2E2E2E2E2E2E2E2E2E2E2E2E2E2E2E2E2E2E2E2E2E2E2E2E2E2E2E2E2E2E2E2E2E2E2E2E2E2
310
E2E2E2E2E2E2E2E2E2E2E2E2E2E2E2E2E2E2E2E2E2E2E2E2E2E2E2E2E2E2E2E2E2E2E2E2E2E2E2E2E2E2E2E2E2E2E2E2E2E2E2E2E2E2E2E2E2E2E2E2E2E2E2E2E2E2E2E2E2E2E2E2E2E2E2E2E2E2E2E2E2E2E2E2E2E2E2E2E2E2E2E2E2E2E2E2E2E2E2E2E2E2E2E2E2E2E2E2E2E2E2E2E2E2E2E2E2E2E2E2E2E2E2E2E2E2E2
310
E2E2E2E2E2E2E2E2E2E2E2E2E2E2E2E2E2E2E2E2E2E2E2E2E2E2E2E2E2E2E2E2E2E2E2E2E2E2E2E2E2E2E2E2E2E2E2E2E2E2E2E2E2E2E2E2E2E2E2E2E2E2E2E2E2E2E2E2E2E2E2E2E2E2E2E2E2E2E2E2E2E2E2E2E2E2E2E2E2E2E2E2E2E2E2E2E2E2E2E2E2E2E2E2E2E2E2E2E2E2E2E2E2E2E2E2E2E2E2E22D2D2D2D2D2D2D
310
2D2D2D2D2D2D2D2D2D2D2D2D2D2D2D2D2D2D2D2D2D2D2D2D2D2D2D2D2D2D2D2D2D2D2D2D2D2D2D2D2D2D2D2D2D2D2D2D2D2D2D2D2D2D2D2D2D2D2D2D2D2D2D2D2D2D2D2D2D2D2D2D2D2D2D2D2D2D2D2D2D2D2D2D2D2D2D2D2D2D2D2D2D2D2D2D2D2D2D2D2D2D2D2D2D2D2D2D2D2D2D2D2D2D2D2D2D2D2D2D2D2D2D2D2D2D2D
310
2D2D2D2D2D2D2D2D2D2D2D2D2D2D2D2D2D2D2D2D2D2D2D2D2D2D2D2D2D2DE2E2E2E2E2E2E2E2E2E2E2E2E2E2E2E22DF5F5F5F5F5F5F5F5F5F5F5F5F5F5F5F5F5F5F5F5F5F5F5F5F5F52DF5F5F5F5F5F5F52DE2E2E2E2E2E2E2E2E22D2D2D2D2D2D2D2D2DE2E22D2D2D2D2D2D2D2DE2E2E2E2E2E2E2E2E2E2E2E2E2E2E2E2E2
310
E2E2E2E2E2E2E2E2E2E2E2E2E2E2E2E2E2E2E2E2E2E2E2E2E2E2E2E2E2E2E2E2E2E2E2E2E2E2E2E2E2E2E2E2E2E2E2E2E2E2E2E2E2E2E2E2E2E2E2E2E2E2E2E2E2E2E2E2E2E2E2E2E2E2E2E2E2E2E2E2E2E22DE2E2E2E2E2E2E2E2E2E2E2E2E2E2E2E22DF5F5F5F5F5F5F5F5F5F5F5F5F5F5F5F5F5F5F5F5F5E2F5F5F5F52D
310
2D2D2D2D2D2D2D2DE2E2E2E2E2E2E2E2E22DE2E2F5F5F5E2E22DE2E22DE2E2F5F5F5E22DE2E2E2E2E2E2E2E2E2E2E2E2E2E2E2E2E2E2E2E2E2E2E2E2E2E2E2E2E2E2E2E2E2E2E2E2E2E2E2E2E2E2E2E2E2E2E2E2E2E2E2E2E2E2E2E2E2E2E2E2E2E2E2E2E2E2E2E2E2E2E2E2E2E2E2E2E2E2E2E2E2E2E2E2E2E2E2E2E2E2E2
310
E2E2E2E2E2E2E2E22DE2E2E2E2E2E2E2E2E2E2E2E2E2E2E2E22DE2E2E2E2F5F5F5F5F5F5F5F5F5F5F5F5F5F5F5F5F5F5F5E2E2E22DE2E2E2E2E2E2E2E2E2E2E2E2E2E2E2E2E22DE2E2F5F5E2F5E22DE2E22DE2F5F5F5F5E22DE2E2E2E2E2E2E2E2E2E2E2E2E2E2E2E2E2E2E2E2E2E2E2E2E2E2E2E2E2E2E2E2E2E2E2E2E2E2
310
E2E2E2E2E2E2E2E2E2E2E2E2E2E2E2E2E2E2E2E2E2E2E2E2E2E2E2E2E2E2E2E2E2E2E2E2E2E2E2E2E2E2E2E2E2E2E2E2E2E2E2E2E2E2E2E2E2E2E2E2E22DE2E2E2E2E2E2E2E2E2E2E2E2E2E2E2E22DE2E2E2E2F5F5F5F5F5F5F5F5F5F5F5F5F5F5F5F5F5F5F5E2E2E22DE2E2E2E2E2E2E2E2E2E2E2E2E2E2E2E2E22DE2E2F5
310
F5F5F5E22DE2E22DE2F5F5F5F5E22DE2E2E2E2E2E2E2E2E2E2E2E2E2E2E2E2E2E2E2E2E2E2E2E2E2E2E2E2E2E2E2E2E2E2E2E2E2E2E2E2E2E2E2E2E2E2E2E2E2E2E2E2E2E2E2E2E2E2E2E2E2E2E2E2E2E2E2E2E2E2E2E2E2E2E2E2E2E2E2E2E2E2E2E2E2E2E2E2E2E2E2E2E2E2E2E2E2E2E22DE2E2E2E2E2E2E2E2E2E2E2E2
310
E2E2E2E22D0F0F0F0F0F0F0F0F2D2D2D2D2D2D2D2D2D2D2D2D2D2D2D2D2D2D2DE2E2E2E2E2E2E2E2E2E2E2E2E2E2E2E2E22DE2E2F5F5F5F5E22DE2E22DE2F5F5F5F5E22DE2E2E2E2E2E2E2E2E2E2E2E2E2E2E2E2E2E2E2E2E2E2E2E2E2E2E2E2E2E2E2E2E2E2E2E2E2E2E2E2E2E2E2E2E2E2E2E2E2E2E2E2E2E2E2E2E2E2E2
310
E2E2E2E2E2E2E2E2E2E2E2E2E2E2E2E2E2E2E2E2E2E2E2E2E2E2E2E2E2E2E2E2E2E2E2E2E2E2E2E22DE2E2E2E2E2E2E2E2E2E2E2E2E2E2E2E22D0F0F0F0F0F0F0F0F2DF5F5F5E2F5F5F5F5F52DE2E2F5F5F5F5E22DE2E2E2E2E2E2E2E2E2E2E2E2F5E2E2E2E22D2D2D2D2D2D2D2D2DE2E22D2D2D2D2D2D2D2DE2E2E2E2E2E2
310
E2E2E2E2E2E2E2E2E2E2E2E2E2E2E2E2E2E2E2E2E2E2E2E2E2E2E2E2E2E2E2E2E2E2E2E2E2E2E2E2E2E2E2E2E2E2E2E2E2E2E2E2E2E2E2E2E2E2E2E2E2E2E2E2E2E2E2E2E2E2E2E2E2E2E2E2E2E2E2E2E2E2E2E2E2E2E2E2E2E2E2E2E22DE2E2E2E2E2E2E2E2E2E2E2E2E2E2E2E22D0FDC0F0FDCE2DCDC2DF5F5F52DF5F52D
310
F52D2D2D2D2D2D2D2D2D2DF5F5F5F5F5E2F5F5F5F5F5F5F5F5F5F52D2D2D2D2D2D2D2D2D2DE2E22D2D2D2D2D2D2D2DE2E2E2E2E2E2E2E2E2E2E2E2E2E2E2E2E2E2E2E2E2E2E2E2E2E2E2E2E2E2E2E2E2E2E2E2E2E2E2E2E2E2E2E2E2E2E2E2E2E2E2E2E2E2E2E2E2E2E2E2E2E2E2E2E2E2E2E2E2E2E2E2E2E2E2E2E2E2E2E2
310
E2E2E2E2E2E2E2E2E2E2E2E2E2E2E2E2E2E2E22DE2E2E2E2E2E2E2E2E2E2E2E2E2E2E2E22DE20FDC0FDCDCDCDC2DF5F5F5E2E2F5F5F5F52DE2F5F5E2F5F5F52DF5F5F5F5F5F5F5F5F5F5F5F5F5F5F5F52DE2F5F5F5F5F5F5F52DE2E22DE2E2F5F5F5E22DE2E2E2E2E2E2E2E2E2E2E2E2E2E2E2E2E2E2E2E2E2E2E2E2E2E2E2
310
E2E2E2E2E2E2E2E2E2E2E2E2E2E2E2E2E2E2E2E2E2E2E2E2E2E2E2E2E2E2E2E2E2E2E2E2E2E2E2E2E2E2E2E2E2E2E2E2E2E2E2E2E2E2E2E2E2E2E2E2E2E2E2E2E2E2E2E2E2E2E2E22DE2E2E2E2E2E2E2E2E2E2E2E2E2E2E2E22DE20FDC0F0FDCDCDC2DF5F5F5E2F5F5F5F5F52DF5F5F5F5F5F5F52DF5F5F5F5F5F5F5F5F5F5
310
F5E2E2F5E2E22DE2F5F5F5F5F5F5F52DF5F5F5E2F5F5F5F5F52DE2E2E2E2E2E2E2E2E2E2E2E2E2E2E2E2E2E2E2E2E2E2E2E2E2E2E2E2E2E2E2E2E2E2E2E2E2E2E2E2E2E2E2E2E2E2E2E2E2E2E2E2E2E2E2E2E2E2E2E2E2E2E2E2E2E2E2E2E2E2E2E2E2E2E2E2E2E2E2E2E2E2E2E2E2E2E2E2E2E2E2E2E2E2E2E2E2E2E22DE2
310
E2E2E2E2E2E2E2E2E2E2E2E2E2E2E22DE2E20F0FDCDCDCDC2D2D2D2D2DF5F5F5F5F52D2DF52DF52DF52D2DF5F5F5F5F5F5F5F5F5F5F5E2E2E2E2E22DE2F5E2F5F5F5F5F52DE2E22DE2E2F5F5F5E22DE2E2E2E2E2E2E2E2E2E2E2E2E2E2E2E2E2E2E2E2E2E2E2E2E2E2E2E2E2E2E2E2E2E2E2E2E2E2E2E2E2E2E2E2E2E2E2E2
310
E2E2E2E2E2E2E2E2E2E2E2E2E2E2E2E2E2E2E2E2E2E2E2E2E2E2E2E2E2E2E2E2E2E2E2E2E2E2E2E2E2E2E2E2E2E2E2E2E2E2E22DE2E2E2E2E2E2E2E2E2E2E2E2E2E2E2E22DE2E20FDCDC0FDCDC2DF5F5F5F5F5F5F5F5F52DE2F5E2F5E2F5E22DF5F5F5F5F5F5F5F5F5F5F5E2E2E2E2E22D2D2D2D2D2D2D2D2D2DE2E22D2D2D
310
2D2D2D2D2DE2E2E2E2E2E2E2E2E2E2E2E2E2E2E2E2E2E2E2E2E2E2E2E2E2E2E2E2E2E2E2E2E2E2E2E2E2E2E2E2E2E2E2E2E2E2E2E2E2E2E2E2E2E2E2E2E2E2E2E2E2E2E2E2E2E2E2E2E2E2E2E2E2E2E2E2E2E2E2E2E2E2E2E2E2E2E2E2E2E2E2E2E2E2E2E2E2E2E22DE2E2E2E2E2E2E2E2E2E2E2E2E2E2E2E22D2D2D2D2D2D
310
2D2D2D2D2D2D2D2D2D2D2D2D2D2D2D2D2D2D2D2D2D2D2D2D2D2D2D2D2D2D2D2D2D2D2D2D2D2D2D2D2D2D2D2D2D2D2D2D2D2D2D2D2D2D2D2D2D2D2D2D2D2D2D2D2D2D2D2D2D2D2D2D2D2D2D2D2D2D2D2D2D2D2D2D2D2D2D2D2D2D2D2D2D2D2D2D2D2D2D2D2D2D2D2D2D2D2D2D2D2D2D2D2D2D2D2D2D2D2D2D2D2D2D2D2D2D2D
310
2D2D2D2D2D2D2D2D2D2D2D2D2D2D2D2D2D2D2D2D2D2D2D2D2D2D2D2D2D2D2DE2E2E2E2E2E2E2E2E2E2E2E2E2E2E2E22DE2E2E2E2E2E2E2E2E2E2E2E2E2E2E2E2E2E2E2E2E2E2E2E2E2E2E2E2E2E2E2E2E2E2E2E2E2E2E2E2E2E2E2E2E2E2E2E2E2E2E2E2E2E2E2E2E2E2E2E2E2E2E2E2E2E2E2E2E2E2E2E2E2E2E2E2E2E2E2
310
E2E2E2E2E2E2E2E2E2E2E2E2E2E2E2E2E2E2E2E2E2E2E2E2E2E2E2E2E2E2E2E2E2E2E2E2E2E2E2E2E2E2E2E2E2E2E2E2E2E2E2E2E2E2E2E2E2E2E2E2E2E2E2E2E2E2E2E2E2E2E2E2E2E2E2E2E2E2E2E2E2E2E22DE2E2E2E2E2E2E2E2E2E2E2E2E2E2E2E22DE2E2E2E2E2E2E2E2E2E2E2E2E2E2E2E2E2E2E2E2E2E2E2E2E2E2
310
E2E2E2E2E2E2E2E2E2E2E2E2E2E2E2E2E2E2E2E2E2E2E2E2E2E2E2E2E2E2E2E2E2E2E2E2E2E2E2E2E2E2E2E2E2E2E2E2E2E2E2E2E2E2E2E2E2E2E2E2E2E2E2E2E2E2E2E2E2E2E2E2E2E2E2E2E2E2E2E2E2E2E2E2E2E2E2E2E2E2E2E2E2E2E2E2E2E2E2E2E2E2E2E2E2E2E2E2E2E2E2E2E2E2E2E2E2E2E2E2E2E2E2E2E2E2E2
310
E2E2E2E2E2E2E2E2E22DE2E2E2E2E2E2E2E2E2E2E2E2E2E2E2E22DE2E2E2E2E2E2E2E2E2E2E2E2E2E2E2E2E2E2E2E2E2E2E2E2E2E2E2E2E2E2E2E2E2E2E2E2E2E2E2E2E2E2E2E2E2E2E2E2E2E2E2E2E2E2E2E2E2E2E2E2E2E2E2E2E2E2E2E2E2E2E2E2E2E2E2E2E2E2E2E2E2E2E2E2E2E2E2E2E2E2E2E2E2E2E2E2E2E2E2E2
310
E2E2E2E2E2E2E2E2E2E2E2E2E2E2E2E2E2E2E2E2E2E2E2E2E2E2E2E2E2E2E2E2E2E2E2E2E2E2E2E2E2E2E2E2E2E2E2E2E2E2E2E2E2E2E2E2E2E2E2E2E2E22DE2E2E2E2E2E2E2E2E2E2E2E2E2E2E2E22DE2E2E2E2E2E2E2E2E2E2E2E2E2E2E2E2E2E2E2E2E2E2E2E2E2E2E2E2E2E2E2E2E2E2E2E2E2E2E2E2E2E2E2E2E2E2E2
310
E2E2E2E2E2E2E2E2E2E2E2E2E2E2E2E2E2E2E2E2E2E2E2E2E2E2E2E2E2E2E2E2E2E2E2E2E2E2E2E2E2E2E2E2E2E2E2E2E2E2E2E2E2E2E2E2E2E2E2E2E2E2E2E2E2E2E2E2E2E2E2E2E2E2E2E2E2E2E2E2E2E2E2E2E2E2E2E2E2E2E2E2E2E2E2E2E2E2E2E2E2E2E2E2E2E2E2E2E2E2E2E2E2E2E22DE2E2E2E2E2E2E2E2E2E2E2
310
E2E2E2E2E22DE2E2E2E2E2E2E2E2E2E2E2E2E2E2E2E2E2E2E2E2E2E2E2E2E2E2E2E2E2E2E2E2E2E2E2E2E2E2E2E2E2E2E2E2E2E2E2E2E2E2E2E2E2E2E2E2E2E2E2E2E2E2E2E2E2E2E2E2E2E2E2E2E2E2E2E2E2E2E2E2E2E2E2E2E2E2E2E2E2E2E2E2E2E2E2E2E2E2E2E2E2E2E2E2E2E2E2E2E2E2E2E2E2E2E2E2E2E2E2E2E2
310
E2E2E2E2E2E2E2E2E2E2E2E2E2E2E2E2E2E2E2E2E2E2E2E2E2E2E2E2E2E2E2E2E2E2E2E2E2E2E2E2E22DE2E2E2E2E2E2E2E2E2E2E2E2E2E2E2E22DE2E2E2E2E2E2E2E2E2E2E2E2E2E2E2E2E2E2E2E2E2E2E2E2E2E2E2E2E2E2E2E2E2E2E2E2E2E2E2E2E2E2E2E2E2E2E2E2E2E2E2E2E2E2E2E2E2E2E2E2E2E2E2E2E2E2E2E2
310
E2E2E2E2E2E2E2E2E2E2E2E2E2E2E2E2E2E2E2E2E2E2E2E2E2E2E2E2E2E2E2E2E2E2E2E2E2E2E2E2E2E2E2E2E2E2E2E2E2E2E2E2E2E2E2E2E2E2E2E2E2E2E2E2E2E2E2E2E2E2E2E2E2E2E2E2E2E2E2E2E2E2E2E2E2E2E2E2E2E2E2E2E2E22DE2E2E2E2E2E2E2E2E2E2E2E2E2E2E2E22DE2E2E2E2E2E2E2E2E2E2E2E2E2E2E2
310
E2E2E2E2E2E2E2E2E2E2E2E2E2E2E2E2E2E2E2E2E2E2E2E2E2E2E2E2E2E2E2E2E2E2E2E2E2E2E2E2E2E2E2E2E2E2E2E2E2E2E2E2E2E2E2E2E2E2E2E2E2E2E2E2E2E2E2E2E2E2E2E2E2E2E2E2E2E2E2E2E2E2E2E2E2E2E2E2E2E2E2E2E2E2E2E2E2E2E2E2E2E2E2E2E2E2E2E2E2E2E2E2E2E2E2E2E2E2E2E2E2E2E2E2E2E2E2
310
E2E2E2E2E2E2E2E2E2E2E2E2E2E2E2E2E2E2E2E22DE2E2E2E2E2E2E2E2E2E2E2E2E2E2E2E22DE2E2E2E2E2E2E2E2E2E2E2E2E2E2E2E2E2E2E2E2E2E2E2E2E2E2E2E2E2E2E2E2E2E2E2E2E2E2E2E2E2E2E2E2E2E2E2E2E2E2E2E2E2E2E2E2E2E2E2E2E2E2E2E2E2E2E2E2E2E2E2E2E2E2E2E2E2E2E2E2E2E2E2E2E2E2E2E2E2
310
E2E2E2E2E2E2E2E2E2E2E2E2E2E2E2E2E2E2E2E2E2E2E2E2E2E2E2E2E2E2E2E2E2E2E2E2E2E2E2E2E2E2E2E2E2E2E2E2E2E2E2E2E2E2E2E2E2E2E2E2E2E2E2E2E2E2E2E2E2E2E2E2E22DE2E2E2E2E2E2E2E2E2E2E2E2E2E2E2E22DE2E2E2E2E2E2E2E2E2E2E2E2E2E2E2E2E2E2E2E2E2E2E2E2E2E2E2E2E2E2E2E2E2E2E2E2
310
E2E2E2E2E2E2E2E2E2E2E2E2E2E2E2E2E2E2E2E2E2E2E2E2E2E2E2E2E2E2E2E2E2E2E2E2E2E2E2E2E2E2E2E2E2E2E2E2E2E2E2E2E2E2E2E2E2E2E2E2E2E2E2E2E2E2E2E2E2E2E2E2E2E2E2E2E2E2E2E2E2E2E2E2E2E2E2E2E2E2E2E2E2E2E2E2E2E2E2E2E2E2E2E2E2E2E2E2E2E2E2E2E2E2E2E2E2E2E2E2E2E2E2E2E2E22D
310
E2E2E2E2E2E2E2E2E2E2E2E2E2E2E2E22DE2E2E2E2E2E2E2E2E2E2E2E2E2E2E2E2E2E2E2E2E2E2E2E2E2E2E2E2E2E2E2E2E2E2E2E2E2E2E2E2E2E2E2E2E2E2E2E2E2E2E2E2E2E2E2E2E2E2E2E2E2E2E2E2E2E2E2E2E2E2E2E2E2E2E2E2E2E2E2E2E2E2E2E2E2E2E2E2E2E2E2E2E2E2E2E2E2E2E2E2E2E2E2E2E2E2E2E2E2E2
310
E2E2E2E2E2E2E2E2E2E2E2E2E2E2E2E2E2E2E2E2E2E2E2E2E2E2E2E2E2E2E2E2E2E2E2E2E2E2E2E2E2E2E2E2E2E2E2E2E2E2E2E22DE2E2E2E2E2E2E2E2E2E2E2E2E2E2E2E22DE2E2E2E2E2E2E2E2E2E2E2E2E2E2E2E2E2E2E2E2E2E2E2E2E2E2E2E2E2E2E2E2E2E2E2E2E2E2E2E2E2E2E2E2E2E2E2E2E2E2E2E2E2E2E2E2E2
310
E2E2E2E2E2E2E2E2E2E2E2E2E2E2E2E2E2E2E2E2E2E2E2E2E2E2E2E2E2E2E2E2E2E2E2E2E2E2E2E2E2E2E2E2E2E2E2E2E2E2E2E2E2E2E2E2E2E2E2E2E2E2E2E2E2E2E2E2E2E2E2E2E2E2E2E2E2E2E2E2E2E2E2E2E2E2E2E2E2E2E2E2E2E2E2E2E2E2E2E2E2E2E2E2E22DE2E2E2E2E2E2E2E2E2E2E2E2E2E2E2E22DE2E2E2E2
310
E2E2E2E2E2E2E2E2E2E2E2E2E2E2E2E2E2E2E2E2E2E2E2E2E2E2E2E2E2E2E2E2E2E2E2E2E2E2E2E2E2E2E2E2E2E2E2E2E2E2E2E2E2E2E2E2E2E2E2E2E2E2E2E2E2E2E2E2E2E2E2E2E2E2E2E2E2E2E2E2E2E2E2E2E2E2E2E2E2E2E2E2E2E2E2E2E2E2E2E2E2E2E2E2E2E2E2E2E2E2E2E2E2E2E2E2E2E2E2E2E2E2E2E2E2E2E2
310
E2E2E2E2E2E2E2E2E2E2E2E2E2E2E2E2E2E2E2E2E2E2E2E2E2E2E2E2E2E2E22DE2E2E2E2E2E2E2E2E2E2E2E2E2E2E2E22DE2E2E2E2E2E2E2E2E2E2E2E2E2E2E2E2E2E2E2E2E2E2E2E2E2E2E2E2E2E2E2E2E2E2E2E2E2E2E2E2E2E2E2E2E2E2E2E2E2E2E2E2E2E2E2E2E2E2E2E2E2E2E2E2E2E2E2E2E2E2E2E2E2E2E2E2E2E2
310
E2E2E2E2E2E2E2E2E2E2E2E2E2E2E2E2E2E2E2E2E2E2E2E2E2E2E2E2E2E2E2E2E2E2E2E2E2E2E2E2E2E2E2E2E2E2E2E2E2E2E2E2E2E2E2E2E2E2E2E2E2E2E2E2E2E2E2E2E2E2E2E2E2E2E2E2E2E2E2E2E2E2E2E22DE2E2E2E2E2E2E2E2E2E2E2E2E2E2E2E22DE2E2E2E2E2E2E2E2E2E2E2E2E2E2E2E2E2E2E2E2E2E2E2E2E2
310
E2E2E2E2E2E2E2E2E2E2E2E2E2E2E2E2E2E2E2E2E2E2E2E2E2E2E2E2E2E2E2E2E2E2E2E2E2E2E2E2E2E2E2E2E2E2E2E2E2E2E2E2E2E2E2E2E2E2E2E2E2E2E2E2E2E2E2E2E2E2E2E2E2E2E2E2E2E2E2E2E2E2E2E2E2E2E2E2E2E2E2E2E2E2E2E2E2E2E2E2E2E2E2E2E2E2E2E2E2E2E2E2E2E2E2E2E2E2E2E2E2E2E2E2E2E2E2
310
E2E2E2E2E2E2E2E2E2E22DE2E2E2E2E2E2E2E2E2E2E2E2E2E2E2E22DE2E2E2E2E2E2E2E2E2E2E2E2E2E2E2E2E2E2E2E2E2E2E2E2E2E2E2E2E2E2E2E2E2E2E2E2E2E2E2E2E2E2E2E2E2E2E2E2E2E2E2E2E2E2E2E2E2E2E2E2E2E2E2E2E2E2E2E2E2E2E2E2E2E2E2E2E2E2E2E2E2E2E2E2E2E2E2E2E2E2E2E2E2E2E2E2E2E2E2
310
E2E2E2E2E2E2E2E2E2E2E2E2E2E2E2E2E2E2E2E2E2E2E2E2E2E2E2E2E2E2E2E2E2E2E2E2E2E2E2E2E2E2E2E2E2E2E2E2E2E2E2E2E2E2E2E2E2E2E2E2E2E2E22DE2E2E2E2E2E2E2E2E2E2E2E2E2E2E2E22DE2E2E2E2E2E2E2E2E2E2E2E2E2E2E2E2E2E2E2E2E2E2E2E2E2E2E2E2E2E2E2E2E2E2E2E2E2E2E2E2E2E2E2E2E2E2
310
E2E2E2E2E2E2E2E2E2E2E2E2E2E2E2E2E2E2E2E2E2E2E2E2E2E2E2E2E2E2E2E2E2E2E2E2E2E2E2E2E2E2E2E2E2E2E2E2E2E2E2E2E2E2E2E2E2E2E2E2E2E2E2E2E2E2E2E2E2E2E2E2E2E2E2E2E2E2E2E2E2E2E2E2E2E2E2E2E2E2E2E2E2E2E2E2E2E2E2E2E2E2E2E2E2E2E2E2E2E2E2E2E2E2E2E22DE2E2E2E2E2E2E2E2E2E2
310
E2E2E2E2E2E22DE2E2E2E2E2E2E2E2E2E2E2E2E2E2E2E2E2E2E2E2E2E2E2E2E2E2E2E2E2E2E2E2E2E2E2E2E2E2E2E2E2E2E2E2E2E2E2E2E2E2E2E2E2E2E2E2E2E2E2E2E2E2E2E2E2E2E2E2E2E2E2E2E2E2E2E2E2E2E2E2E2E2E2E2E2E2E2E2E2E2E2E2E2E2E2E2E2E2E2E2E2E2E2E2E2E2E2E2E2E2E2E2E2E2E2E2E2E2E2E2
310
E2E2E2E2E2E2E2E2E2E2E2E2E2E2E2E2E2E2E2E2E2E2E2E2E2E2E2E2E2E2E2E2E2E2E2E2E2E2E2E2E2E22DE2E2E2E2E2E2E2E2E2E2E2E2E2E2E2E22DE2E2E2E2E2E2E2E2E2E2E2E2E2E2E2E2E2E2E2E2E2E2E2E2E2E2E2E2E2E2E2E2E2E2E2E2E2E2E2E2E2E2E2E2E2E2E2E2E2E2E2E2E2E2E2E2E2E2E2E2E2E2E2E2E2E2E2
310
E2E2E2E2E2E2E2E2E2E2E2E2E2E2E2E2E2E2E2E2E2E2E2E2E2E2E2E2E2E2E2E2E2E2E2E2E2E2E2E2E2E2E2E2E2E2E2E2E2E2E2E2E2E2E2E2E2E2E2E2E2E2E2E2E2E2E2E2E2E2E2E2E2E2E2E2E2E2E2E2E2E2E2E2E2E2E2E2E2E2E2E2E2E2E22DE2E2E2E2E2E2E2E2E2E2E2E2E2E2E2E22DE2E2E2E2E2E2E2E2E2E2E2E2E2E2
310
E2E2E2E2E2E2E2E2E2E2E2E2E2E2E2E2E2E2E2E2E2E2E2E2E2E2E2E2E2E2E2E2E2E2E2E2E2E2E2E2E2E2E2E2E2E2E2E2E2E2E2E2E2E2E2E2E2E2E2E2E2E2E2E2E2E2E2E2E2E2E2E2E2E2E2E2E2E2E2E2E2E2E2E2E2E2E2E2E2E2E2E2E2E2E2E2E2E2E2E2E2E2E2E2E2E2E2E2E2E2E2E2E2E2E2E2E2E2E2E2E2E2E2E2E2E2E2
310
E2E2E2E2E2E2E2E2E2E2E2E2E2E2E2E2E2E2E2E2E22DE2E2E2E2E2E2E2E2E2E2E2E2E2E2E2E22DE2E2E2E2E2E2E2E2E2E2E2E2E2E2E2E2E2E2E2E2E2E2E2E2E2E2E2E2E2E2E2E2E2E2E2E2E2E2E2E2E2E2E2E2E2E2E2E2E2E2E2E2E2E2E2E2E2E2E2E2E2E2E2E2E2E2E2E2E2E2E2E2E2E2E2E2E2E2E2E2E2E2E2E2E2E2E2E2
310
E2E2E2E2E2E2E2E2E2E2E2E2E2E2E2E2E2E2E2E2E2E2E2E2E2E2E2E2E2E2E2E2E2E2E2E2E2E2E2E2E2E2E2E2E2E2E2E2E2E2E2E2E2E2E2E2E2E2E2E2E2E2E2E2E2E2E2E2E2E2E2E2E2E22DE2E2E2E2E2E2E2E2E2E2E2E2E2E2E2E22DE2E2E2E2E2E2E2E2E2E2E2E2E2E2E2E2E2E2E2E2E2E2E2E2E2E2E2E2E2E2E2E2E2E2E2
310
E2E2E2E2E2E2E2E2E2E2E2E2E2E2E2E2E2E2E2E2E2E2E2E2E2E2E2E2E2E2E2E2E2E2E2E2E2E2E2E2E2E2E2E2E2E2E2E2E2E2E2E2E2E2E2E2E2E2E2E2E2E2E2E2E2E2E2E2E2E2E2E2E2E2E2E2E2E2E2E2E2E2E2E2E2E2E2E2E2E2E2E2E2E2E2E2E2E2E2E2E2E2E2E2E2E2E2E2E2E2E2E2E2E2E2E2E2E2E2E2E2E2E2E2E2E2E2
310
2DE2E2E2E2E2E2E2E2E2E2E2E2E2E2E2E22DE2E2E2E2E2E2E2E2E2E2E2E2E2E2E2E2E2E2E2E2E2E2E2E2E2E2E2E2E2E2E2E2E2E2E2E2E2E2E2E2E2E2E2E2E2E2E2E2E2E2E2E2E2E2E2E2E2E2E2E2E2E2E2E2E2E2E2E2E2E2E2E2E2E2E2E2E2E2E2E2E2E2E2E2E2E2E2E2E2E2E2E2E2E2E2E2E2E2E2E2E2E2E2E2E2E2E2E2E2
310
E2E2E2E2E2E2E2E2E2E2E2E2E2E2E2E2E2E2E2E2E2E2E2E2E2E2E2E2E2E2E2E2E2E2E2E2E2E2E2E2E2E2E2E2E2E2E2E2E2E2E2E2E22DE2E2E2E2E2E2E2E2E2E2E2E2E2E2E2E22DE2E2E2E2E2E2E2E2E2E2E2E2E2E2E2E2E2E2E2E2E2E2E2E2E2E2E2E2E2E2E2E2E2E2E2E2E2E2E2E2E2E2E2E2E2E2E2E2E2E2E2E2E2E2E2E2
310
E2E2E2E2E2E2E2E2E2E2E2E2E2E2E2E2E2E2E2E2E2E2E2E2E2E2E2E2E2E2E2E2E2E2E2E2E2E2E2E2E2E2E2E2E2E2E2E2E2E2E2E2E2E2E2E2E2E2E2E2E2E2E2E2E2E2E2E2E2E2E2E2E2E2E2E2E2E2E2E2E2E2E2E2E2E2E2E2E2E2E2E2E2E2E2E2E2E2E2E2E2E2E2E2E2E22DE2E2E2E2E2E2E2E2E2E2E2E2E2E2E2E22DE2E2E2
310
E2E2E2E2E2E2E2E2E2E2E2E2E2E2E2E2E2E2E2E2E2E2E2E2E2E2E2E2E2E2E2E2E2E2E2E2E2E2E2E2E2E2E2E2E2E2E2E2E2E2E2E2E2E2E2E2E2E2E2E2E2E2E2E2E2E2E2E2E2E2E2E2E2E2E2E2E2E2E2E2E2E2E2E2E2E2E2E2E2E2E2E2E2E2E2E2E2E2E2E2E2E2E2E2E2E2E2E2E2E2E2E2E2E2E2E2E2E2E2E2E2E2E2E2E2E2E2
310
E2E2E2E2E2E2E2E2E2E2E2E2E2E2E2E2E2E2E2E2E2E2E2E2E2E2E2E2E2E2E2E22DE2E2E2E2E2E2E2E2E2E2E2E2E2E2E2E22DE2E2E2E2E2E2E2E2E2E2E2E2E2E2E2E2E2E2E2E2E2E2E2E2E2E2E2E2E2E2E2E2E2E2E2E2E2E2E2E2E2E2E2E2E2E2E2E2E2E2E2E2E2E2E2E2E2E2E2E2E2E2E2E2E2E2E2E2E2E2E2E2E2E2E2E2E2
310
E2E2E2E2E2E2E2E2E2E2E2E2E2E2E2E2E2E2E2E2E2E2E2E2E2E2E2E2E2E2E2E2E2E2E2E2E2E2E2E2E2E2E2E2E2E2E2E2E2E2E2E2E2E2E2E2E2E2E2E2E2E2E2E2E2E2E2E2E2E2E2E2E2E2E2E2E2E2E2E2E2E2E2E2E22DE2E2E2E2E2E2E2E2E2E2E2E2E2E2E2E22DE2E2E2E2E2E2E2E2E2E2E2E2E2E2E2E2E2E2E2E2E2E2E2E2
310
E2E2E2E2E2E2E2E2E2E2E2E2E2E2E2E2E2E2E2E2E2E2E2E2E2E2E2E2E2E2E2E2E2E2E2E2E2E2E2E2E2E2E2E2E2E2E2E2E2E2E2E2E2E2E2E2E2E2E2E2E2E2E2E2E2E2E2E2E2E2E2E2E2E2E2E2E2E2E2E2E2E2E2E2E2E2E2E2E2E2E2E2E2E2E2E2E2E2E2E2E2E2E2E2E2E2E2E2E2E2E2E2E2E2E2E2E2E2E2E2E2E2E2E2E2E2E2
310
E2E2E2E2E2E2E2E2E2E2E22DE2E2E2E2E2E2E2E2E2E2E2E2E2E2E2E22DE2E2E2E2E2E2E20F0FE2E2E2E2E2E2E2E2E2E2E2E2E2E2E2E2E2E2E2E2E2E2E2E2E2E2E2E2E2E2E20F0FE2E2E2E2E2E2E2E2E2E2E2E2E2E2E2E2E2E2E2E2E2E2E2E2E2E2E2E2E2E2E2E2E2E2E2E2E2E2E2E2E2E2E2E2E2E2E2E2E2E2E2E2E2E2E2E2
310
E2E2E2E2E2E2E2E2E2E2E2E2E2E2E2E2E2E2E2E2E2E2E2E2E2E2E20F0FE2E2E2E2E2E2E2E2E2E2E2E2E2E2E2E2E2E2E2E2E2E2E2E2E2E2E2E2E2E2E20F0FE2E22DE2E2E2E2E2E2E2E2E2E2E2E2E2E2E2E22DE2E2E2E2E2E2E20F0F0F0F0F0F0F0F0F0F0F0F0F0F0F0F0F0F0F0F0F0F0F0F0F0F0F0F0F0F0F0F0F0F0FE2E2E2
310
E2E2E2E2E2E2E2E2E2E2E2E2E2E20F0F0F0F0F0F0F0F0F0F0F0F0F0F0F0F0F0F0F0F0F0F0F0F0F0F0F0F0F0F0F0F0F0F0F0F0F0F0F0F0F0F0F0F0F0F0F0F0F0F0FE2E2E2E2E2E2E2E2E2E2E2E2E2E2E20F0F0F0F0F0F0F0F0F0F0F0F0F0F0F0F0F0F0F0F0F0F0F0F0F0F0F0F0F0F0F0F0F0F0FE2E22DE2E2E2E2E2E2E2E2E2
310
E2E2E2E2E2E2E22DE2E2E2E2E2E2E20FE2E2E2E2E2E2E2E2E2E2E2E2E2E20FE20F0F0FE2E2E2E2E2E2E2E2E2E2E2E2E2E20FE2E2E2E2E2E2E2E2E2E2E2E2E2E2E2E2E20FE2E2E2E2E2E2E2E2E2E2E2E2E2E2E2E2E2E2E2E2E2E2E20F0F0FE2E2E2E2E2E2E2E2E2E2E2E2E2E2E2E2E2E2E2E2E2E2E20FE2E2E2E2E2E2E2E2E2
310
E2E2E2E2E2E20FE2E2E2E2E2E2E2E2E2E2E2E2E2E20FE20F0F0FE2E2E2E2E2E2E2E2E2E2E2E2E2E20FE2E22DE2E2E2E2E2E2E2E2E2E2E2E2E2E2E2E22DE2E2E2E2E2E2E20FE2E2E2E2E2E2E2E2E2E2E2E2E2E20F0F0FE2E2E2E2E2E2E2E2E2E2E2E2E2E2E2E20FE2E2E2E2E2E2E2E2E2E2E2E2E2E2E2E2E20FE2E2E2E2E2E2
310
E2E2E2E2E2E2E2E2E2E2E2E2E2E2E2E2E20F0F0FE2E2E2E2E2E2E2E2E2E2E2E2E2E2E2E2E2E2E2E2E2E2E20FE2E2E2E2E2E2E2E2E2E2E2E2E2E2E20FE2E2E2E2E2E2E2E2E2E2E2E2E2E20F0F0FE2E2E2E2E2E2E2E2E2E2E2E2E2E2E2E20FE2E22DE2E2E2E2E2E2E2E2E2E2E2E2E2E2E2E22DE2E2E2E2E2E2E20FE2E2E2E20F
310
E2E2E2E2E2E2E2E2E2E2E2E2E2E2E2E2E2E2E2E2E2E2E20FE2E2E2E20FE2E2E2E2E2E2E2E2E2E2E2E2E2E2E2E2E20FE2E2E2E2E2E2E2E2E2E2E2E2E2E2E2E2E2E2E2E2E2E2E2E2E2E2E2E2E2E2E2E2E2E2E2E2E2E2E2E2E2E2E2E2E2E2E2E2E20FE2E2E2E2E2E2E2E2E2E2E2E2E2E2E20FE2E2E2E20FE2E2E2E2E2E2E2E2E2
310
E2E2E2E2E2E2E2E2E2E2E2E2E2E20FE2E2E2E20FE2E22DE2E2E2E2E2E2E2E2E2E2E2E2E2E2E2E22DE2E2E2E2E2E2E20FE2E2E2E20F0F0F0F0F0F0F0F0F0F0F0F0F0F0F0F0F0F0F0F0F0F0F0F0FE2E2E2E20FE2E2E2E2E2E2E2E2E2E2E2E2E2E2E2E2E20F0F0F0F0F0F0F0F0F0F0F0F0F0F0F0F0F0F0F0F0F0F0F0F0F0F0F0F
310
0F0F0F0F0F0F0F0F0F0F0F0F0F0F0F0F0F0F0F0F0F0F0FE2E2E2E2E2E2E2E2E2E2E2E2E2E2E20FE2E2E2E20F0F0F0F0F0F0F0F0F0F0F0F0F0F0F0F0F0F0F0F0F0F0F0F0FE2E2E2E20FE2E22DE2E2E2E2E2E2E2E2E2E2E2E2E2E2E2E22DE2E2E2E2E2E2E20FE2E2E2E20FE2E2E2E2E2E2E2E2E20FE20F0F0FE2E2E2E2E2E2E2
310
E2E20FE2E2E2E20FE2E2E2E2E2E2E2E2E2E2E2E2E2E2E2E2E20FE20F0FE2E20FE2E2E2E2E2E2E2E2E2E2E2E2E2E2E2E2E2E2E2E2E20F0FE2E2E2E2E2E2E2E2E2E2E2E2E2E2E2E2E2E2E2E20FE2E2E2E2E2E2E2E2E2E2E2E2E2E2E20FE2E2E2E20FE2E2E2E2E2E2E2E2E20FE20F0F0FE2E2E2E2E2E2E2E2E20FE2E2E2E20FE2
310
E22DE2E2E2E2E2E2E2E2E2E2E2E2E2E2E2E22DE2E2E2E2E2E2E20FE2E2E2E20FE2E2E2E2E2E2E2E2E20F0F0F0F0FE2E2E2E2E2E2E2E2E20FE2E2E2E20FE2E2E2E2E2E2E2E2E2E2E2E2E2E2E2E2E20FE20F0FE2E20FE2E2E2E2E2E2E2E2E2E2E2E2E2E2E2E2E2E2E2E20F0F0FE2E2E2E2E2E2E2E2E2E2E2E2E2E2E2E2E2E2E2
310
E20FE2E2E2E2E2E2E2E2E2E2E2E2E2E2E20FE2E2E2E20FE2E2E2E2E2E2E2E2E20F0F0F0F0FE2E2E2E2E2E2E2E2E20FE2E2E2E20FE2E22DE2E2E2E2E2E2E2E2E2E2E2E2E2E2E2E22DE2E2E2E2E2E2E20FE2E2E2E20FE2E2E2E2E2E2E2E2E2E2E2E2E2E2E2E2E2E2E2E2E2E2E20FE2E2E2E20FE2E2E2E2E2E2E2E2E2E2E2E2E2
310
E2E2E2E20FE2E2E2E2E20FE2E2E2E2E2E2E2E2E2E2E2E2E2E2E2E2E2E2E2E2E2E2E2E2E2E2E2E2E2E2E2E2E2E2E2E2E2E2E2E2E2E2E20FE2E2E2E2E2E2E2E2E2E2E2E2E2E2E20FE2E2E2E20FE2E2E2E2E2E2E2E2E2E2E2E2E2E2E2E2E2E2E2E2E2E2E20FE2E2E2E20FE2E22DE2E2E2E2E2E2E2E2E2E2E2E2E2E2E2E22DE2E2
310
E2E2E2E2E20FE2E2E2E20FE2E2E2E2E2E2E2E2E2E2E2E2E2E2E2E2E2E2E2E2E2E2E20FE2E2E2E20FE2E2E2E2E2E2E2E2E2E2E2E2E2E2E2E2E20FE2E2E2E2E20FE2E2E2E2E2E2E2E2E2E2E2E2E2E2E2E2E2E2E2E2E2E2E2E2E2E2E2E2E2E2E2E2E2E2E2E2E2E2E2E2E2E2E20FE2E2E2E2E2E2E2E2E2E2E2E2E2E2E20FE2E2E2
310
E20FE2E2E2E2E2E2E2E2E2E2E2E2E2E2E2E2E2E2E2E2E2E2E20FE2E2E2E20FE2E22DE2E2E2E2E2E2E2E2E2E2E2E2E2E2E2E22DE2E2E2E2E2E2E20FF5F5F5F50FF5F5F5F5F5F5F5F5F5F5F5F5F5F5F5F5F5F5F5F5F5F5F50FF5F5F5F50FE2E2E2E2E2E2E2E2E2E2E2E2E2E2E2E2E20FE2E2E2E2E20FF5F5F5F5F5F5F5F5F5F5
310
F5F5F5F5F5F5F5F5F5F5F5F5F5F5F5F5F5F5F5F5F5F5E2E2E2E2E2E2E2F5F5F5F50FE2E2E2E2E2E2E2E2E2E2E2E2E2E2E20FF5F5F5F50FF5F5F5F5F5F5F5F5F5F5F5F5F5F5F5F5F5F5F5F5F5F5F50FF5F5F5F50FE2E22DE2E2E2E2E2E2E2E2E2E2E2E2E2E2E2E22DE2E2E2E2E2E2E20FE2E2E2E20FE2E2E2E2E2E2E2E2E2E2
310
E2E2E2E2E2E2E2E2E2E2E2E2E20FE2E2E2E20FE2E2E2E2E2E2E2E2E2E2E2E2E2E2E2E2E20FE2E2E2E2E2F5E2E2E2E2E2E2E2E2E2E2E2E2E2E2E2E2E2E2E2E2E2E2E2E2E2E2E2E2E2E2E2F5E2E2E2E2E2E2E2F5E2E2E2F5E2E2E2E2E2E2E2E2E2E2E2E2E2E2E20FE2E2E2E20FE2E2E2E2E2E2E2E2E2E2E2E2E2E2E2E2E2E2E2
310
E2E2E2E20FE2E2E2E20FE2E22DE2E2E2E2E2E2E2E2E2E2E2E2E2E2E2E22DE2E2E2E2E2E2E20FE2E2E2E20FE2E2E2E2E2E2E2E2E2E2E2E2E2E2E2E2E2E2E2E2E2E2E20FE2E2E2E20FE2E2E2E2E2E2E2E2E2E2E2E2E2E2E2E2E20FE2E2E2E2E2F5F5F5F5F5F5F5F5F5F5F5F5F5F5F5F5F5F5F5F5F5F5F5F5F5F5F5F5F5F5F5F5
310
F5E2E2E2E2E2E2E2F5F5F5F5F5E2E2E2E2E2E2E2E2E2E2E2E2E2E2E20FE2E2E2E20FE2E2E2E2E2E2E2E2E2E2E2E2E2E2E2E2E2E2E2E2E2E2E20FE2E2E2E20FE2E22DE2E2E2E2E2E2E2E2E2E2E2E2E2E2E2E22DE2E2E2E2E2E2E2F5E2E2E2E2F5F5E2E2E2E2E2E2E2E2E2E2E2E2E2E2E2E2E2E2E2E2E2E2F5F5E2E2E2F5E2E2
310
E2E2E2E2E2E2E2E2E2E2E2E2E2E2E20FE2E2E2E2E2F5E2E2E2E2E2E2E2E2E2E2E2E2E2E2E2E2E2E2E2E2E2E2E2E2E2E2E2E2E2E2F5F5E2E2E2E2E2E2E2F5F5E2E2F5E2E2E2E2E2E2E2E2E2E2E2E2E2E2E2F5E2E2E2F5BEF5E2E2E2E2E2E2E2E2E2E2E2E2E2E2E2E2E2E2E2E2E2F5BEF5E2E2E2F5E2E22DE2E2E2E2E2E2E2E2
310
E2E2E2E2E2E2E2E22DE2E2E2E2E2E2E2F5E2E2F5F5F5F5F5E2E2E2E2E2E2E2E2E2BEE2E2E2E2E2E2E2E2E2F5F5F5F5F5E2E2F5E2E2E2E2E2E2E2E2E2E2E2E2E2E2E2E2E20FE2E2E2E2E2F5E2E2E2E2E2E2E2E2E2E2E2E2E2E2E2E2E2E2E2E2E2E2E2E2E2E2E2E2E2E2F5F5F5F5F5F5F5F5F5F5F5E2E2F5E2E2E2E2E2E2E2E2
310
E2E2E2E2E2E2E2F5E2E2F5E2BEE2F5E2E2E2E2E2E2E2E2E2BEE2E2E2E2E2E2E2E2E2F5E2BEE2F5E2E2F5E2E22DE2E2E2E2E2E2E2E2E2E2E2E2E2E2E2E22DE2E2E2E2E2E2E2F5E2BEBEF5BEBEF5BEE2E2E2E2E2E2E2E2BEE2E2E2E2E2E2E2E2BEBEF5BEBEF5BEE2F5E2E2E2E2E2E2E2E2E2E2E2E2E2E2E2E2E20FE2E2E2E2E2
310
F5E2E2E2E2E2E2E2E2E2E2E2E2E2F5F5F5F5F5E2E2E2E2E2E2E2E2E2E2E2E2F5F5E2E2E2E2E2E2E2F5F5E2E2F5E2E2E2E2E2E2E2E2E2E2E2E2E2E2E2F5E2BEBEBEBEBEBEBEE2E2E2E2E2E2E2E2BEE2E2E2E2E2E2E2E2BEBEBEBEBEBEBEE2F5E2E22DE2E2E2E2E2E2E2E2E2E2E2E2E2E2E2E22DE2E2E2E2E2E2E2F5E2E2F5F5
310
BEF5F5E2E2E2E2E2E2F5F5F5BEF5F5F5E2E2E2E2E2E2F5F5BEF5F5E2E2F5E2E2E2E2E20F0F0F0F0F0F0F0F0F0F0F0F0FF5F5F5F5F5F5E2E2E2E2E2E2E2E2E2F5F5F5F5E2E2E2E2E2F5F5F5E2E2E2E2E2E2E2E228F5F528282828282828F5F52828F50F0F0F0F0F0F0F0F0FE2E2E2E2E2E2F5E2E2F5E2BEE2F5E2E2E2E2E2E2
310
F5F5F5BEF5F5F5E2E2E2E2E2E2F5E2BEE2F5E2E2F5E2E22DE2E2E2E2E2E2E2E2E2E2E2E2E2E2E2E22DE2E2E2E2E2E2E2F5E2E2E2F5F5F5E2E2E2E2E2F5F5E2E2E2BEE2E2E2F5F5E2E2E2E2E2F5F5F5E2E2E2F5E2E2E2E2E20F0FE2E2E2E2E2E2E2E2E2E20FE2E2E2E2E2F5E2E2E2E2E2E2E2E2F5E2E2E2E2E2E2E2E2E2E2E2
310
E2F5E2E2E2E2E2E2E228F5F5E2E2E2E2E2E2E2F5F5E2E2F5E2E2E2E2E2E2E20F0FE2E2E2E2E2E2F5E2E2E2F5BEF5E2E2E2E2E2F5F5E2E2E2BEE2E2E2F5F5E2E2E2E2E2F5BEF5E2E2E2F5E2E22DE2E2E2E2E2E2E2E2E2E2E2E2E2E2E2E22DE2E2E2E2E2E2E2F5E2E2E2E2BEE2E2E2E2F5F5E2E2E2E2E2BEE2E2E2E2E2F5F5E2
310
E2E2E2BEE2E2E2E2F5E2E2E2E2E20FE2E2E2E2E2E2E2E2E2E2E2F5E2E2E2E2E2F5E2E2E2E2E2E2E2F5F5E2E2E2E2E2E2E2E2E2E2E2E2E2F5F5E2E2E2E2E228F5F5E2E2E2E2E2E2E2F5F5E2E2F5E2E2E2E2E2E2E20FE2E2E2E2E2E2E2F5E2E2E2E2BEE2E2E2E2F5F5E2E2E2E2E2BEE2E2E2E2E2F5F5E2E2E2E2BEE2E2E2E2F5
310
E2E22DE2E2E2E2E2E2E2E2E2E2E2E2E2E2E2E22DE2E2E2E2E2E2E2F5E2E2E2E2E2E2E2E2E2F5E2E2E2E2E2E2BEE2E2E2E2E2E2E2F5E2E2E2E2E2E2E2E2F5E2E2E2E2E20FE2E2E2E2E2E2E2E2E2E2E2F5E2E2E2E2E2F5E2E2E2E2E2E2F5E2E2E2E2E2E2E2E2E2E2E2E2E2E2E2E2E2F5E2E2E2E228F5F5E2E2E2E2E2E2E2F5F5
310
E2E2F5E2E2E2E2E2E2E20FE2E2E2E2E2E2E2F5E2E2E2E2E2E2E2E2F5E2E2E2E2E2E2E2BEE2E2E2E2E2E2E2F5E2E2E2E2E2E2E2E2F5E2E22DE2E2E2E2E2E2E2E2E2E2E2E2E2E2E2E22DE2E2E2E2E2E2E2F5E2E2E2E2E2E2E2F5F5E2E2E2E2E2E2E2BEE2E2E2E2E2E2E2F5F5E2E2E2E2E2E2E2F5E2E2E2E2E20FE2E2E2E2E2E2
310
E2E2E2E2E2F5E2E2E2E2E2F5E2E2E2E2E2F5E2E2E2E2E2E2E2E2E2E2E2E2E2E2E2E2E2E2F5E2E2E2E228F5F5E2E2E2E2E2E2E2F5F5E2E2F5E2E2E2E2E2E2E20FE2E2E2E2E2E2E2F5E2E2E2E2E2E2E2F5F5E2E2E2E2E2E2E2BEE2E2E2E2E2E2E2F5F5E2E2E2E2E2E2E2F5E2E22DE2E2E2E2E2E2E2E2E2E2E2E2E2E2E2E22DE2
310
E2E2E2E2E2E2F5E2E2E2E2E2E2E2F5E2E2E2E2E2E2E2F5BEF5E2E2E2E2E2E2E2E2F5E2E2E2E2E2E2F5E2E2E2E2E20FE2E2E2E2E2E2E2E2E2F5F5F5E2E2E2E2E2F5E2E2E2E2E2F5E2E2E2E2E2E2E2E2E2E2E2E2E2E2E2E2E2E2E2F5E2E2E228F5F5E2E2E2E2E2E2E2F5F5E2E2F5E2E2E2E2E2E2E20FE2E2E2E2E2E2E2F5E2E2
310
E2E2E2E2F5E2E2E2E2E2E2E2E2E2BEE2E2E2E2E2E2E2E2E2F5E2E2E2E2E2E2F5E2E22DE2E2E2E2E2E2E2E2E2E2E2E2E2E2E2E22DE2E2E2E2E2E2E2F5E2E2E2E2E2E2F5E2E2E2E2E2E2F5F5F5BEF5F5F5E2E2E2E2E2E2F5E2E2E2E2E2E2F5E2E2E2E2E20FE2E2E20F0F0F0F0F0F0FBEBEBEBEBEBEBEBEBEBEBEBEF5BEBEBEBE
310
BEBEBEBEBEBEBEBEBEBEBEBEBEBEBEBEF5BEBEBEBEBEBEBEBEBEBEBEBEBEBEBEBEBEBEBEBEE2E2E2E2E20FE2E2E2E2E2E2E2F5E2E2E2E2E2E2F5E2E2E2E2E2E2E2F5F5BEF5F5E2E2E2E2E2E2E2F5E2E2E2E2E2E2F5E2E22DE2E2E2E2E2E2E2E2E2E2E2E2E2E2E2E22DE2E2E2E2E2E2E2F5E2E2E2E2E2E2F5E2E2E2E2E2F5F5
310
E2E2BEE2E2F5F5E2E2E2E2E2F5E2E2E2E2E2E2F5E2E2E2E2E20FE2E2E20F0FE2E2BEBEBEE2F5E2E2E2E2E2F5E2E2E2E2F5E2E2E2E2E2E2E2E2E2E2E2E2E2E2E2E2E2E2E2E2E2F5E2E228F5F5E2E2E2E2E2E2E2F5F5E2E2F5E2BEE2E2E2E2E20FE2E2E2E2E2E2E2F5E2E2E2E2E2E2F5E2E2E2E2E2E2F5E2E2BEE2E2F5E2E2E2
310
E2E2E2F5E2E2E2E2E2E2F5E2E22DE2E2E2E2E2E2E2E2E2E2E2E2E2E2E2E22DE2E2E2E2E2E2E2F5E2E2E2E2E2E2F5E2E2E2E2F5F5E2E2E2BEE2E2E2F5F5E2E2E2E2E2F5E2E2E2E2E2F5E2E2E2E2E20FE2E2E2E20FE2E2BEE2BEE2F5E2E2E2E2E2F5E2E2E2F5E2E2E2E2E2E2E2E2E2E2E2E2E2E2E2E2E2E2E2E2E2E2F5E2E228
310
F5F5E2E2E2E2E2E2E2F5F5E2E2F5E2BEE2E2E2E2E20FE2E2E2E2E2E2E2F5E2E2E2E2E2F5E2E2E2E2E2E2F5E2E2E2BEE2E2E2F5E2E2E2E2E2E2F5E2E2E2E2E2F5E2E22DE2E2E2E2E2E2E2E2E2E2E2E2E2E2E2E22DE2E2E2E2E2E2E2F5E2E2E2E2E2F5E2E2E2E2E2F5F5E2E2E2BEE2E2E2E2F5E2E2E2E2E2F5E2E2E2E2E2F5E2
310
E2E2E20F0FE2E2E2E20FE2E2BEE2BEE2F5E2E2E2E2E2F5E2E2E2F5E2E2E2E2E2E2E2E2E2E2E2E2E2E2E2E2E2E2E2E2E2E2F5E2E228F5F5E2E2E2E2E2E2E2F5F5E2E2F5E2BEE2E2E2E20F0FE2E2E2E2E2E2E2F5E2E2E2E2E2F5E2E2E2E2E2F5E2E2E2E2BEE2E2E2E2F5E2E2E2E2E2F5E2E2E2E2E2F5E2E22DE2E2E2E2E2E2E2
310
E2E2E2E2E2E2E2E2E22DE2E2E2E2E2E2E2F5E2E2E2E2E2F5E2E2E2E2F5F5E2E2E2E2BEE2E2E2E2F5F5E2E2E2E2F5E2E2E2E2E2F5E2E2E2E20F0FE2E20F0F0FE2E2BEE2BEE2F5E2E2E2E2E2F5E2E2E2F5E2E2E2E2E2E2E2E2E2E2E2E2E2E2E2E2E2E2E2E2E2E2E2F5E228F5F5E2E2E2E2E2E2E2F5F5E2E2F5E2BEE2E2E2E20F
310
0FE2E2E2E2E2E2E2F5E2E2E2E2E2F5E2E2E2E2E2F5E2E2E2E2BEE2E2E2E2F5E2E2E2E2E2F5E2E2E2E2E2F5E2E22DE2E2E2E2E2E2E2E2E2E2E2E2E2E2E2E22DE2E2E2E2E2E2E2F5E2E2E2E2BEBEBEBEBEBEBEBEBEBEBEBEBEBEBEBEBEBEBEBEBEBEBEBEBEE2E2E2E2F5E2E2E2E20F0FE2E20F0F0FBEBEBEBEBEBEBEBEBEBEBE
310
BEBEBEBEBEBEBEBEBEBEBEBEBEBEBEBEBEBEBEBEBEBEBEBEBEBEBEBEBEBEBEBEBEBEBEBEBEBEBEBEBEBEBEBEBEBEBEBEBEBEBEE20F0FE2E2E2E2E2E2E2F5E2E2E2BEBEBEBEBEBEBEBEBEBEBEBEBEBEBEBEBEBEBEBEBEBEBEBEBEBEBEE2E2E2F5E2E22DE2E2E2E2E2E2E2E2E2E2E2E2E2E2E2E22DE2E2E2E2E2E2E2F5E2E2E2
310
E2E2F5E2E2E2E2F5F5E2E2E2E2BEE2E2E2E2F5F5E2E2E2E2F5E2E2E2E2E2F5E2E2E2E20F0FE2E20F0F0FE2E2BEE2BEE2F5E2E2E2E2E2F5E2E2E2F5E2E2E2E2E2E2E2E2E2E2E2E2E2E2E2E2E2E2E2E2E2E2E2F5E228F5F5E2E2E2E2E2E2E2F5F5E2E2F5E2BEE2E2E2E20F0FE2E2E2E2E2E2E2F5E2E2E2E2E2F5E2E2E2E2E2F5
310
E2E2E2E2BEE2E2E2E2F5E2E2E2E2E2F5E2E2E2E2E2F5E2E22DE2E2E2E2E2E2E2E2E2E2E2E2E2E2E2E22DE2E2E2E2E2E2E2F5E2E2E2E2E2F5E2E2E2E2E2F5F5E2E2E2BEE2E2E2E2F5F5E2E2E2E2F5E2E2E2E2E2F5E2E2E2E20F0FE2E2E2E20FE2E2BEE2BEE2F5E2E2E2E2E2F5E2E2E2F5E2E2E2E2E2E2E2E2E2E2E2E2E2E2E2
310
E2E2E2E2E2E2E2F5E2E228F5F5E2E2E2E2E2E2E2F5F5E2E2F5E2BEE2E2E2E20F0FE2E2E2E2E2E2E2F5E2E2E2E2E2F5E2E2E2E2E2F5E2E2E2E2BEE2E2E2E2F5E2E2E2E2E2F5E2E2E2E2E2F5E2E22DE2E2E2E2E2E2E2E2E2E2E2E2E2E2E2E22DE2E2E2E2E2E2E2F5E2E2E2E2E2E2F5E2E2E2E2F5F5E2E2E2BEE2E2E2F5F5E2E2
310
E2E2E2F5E2E2E2E2E2F5E2E2E2E2E20FE2E2E2E20FE2E2BEE2BEE2F5E2E2E2E2E2F5E2E2E2F5E2E2E2E2E2E2E2E2E2E2E2E2E2E2E2E2E2E2E2E2E2E2F5E2E228F5F5E2E2E2E2E2E2E2F5F5E2E2F5E2BEE2E2E2E2E20FE2E2E2E2E2E2E2F5E2E2E2E2E2F5E2E2E2E2E2E2F5E2E2E2BEE2E2E2F5E2E2E2E2E2E2F5E2E2E2E2E2
310
F5E2E22DE2E2E2E2E2E2E2E2E2E2E2E2E2E2E2E22DE2E2E2E2E2E2E2F5E2E2E2E2E2E2F5E2E2E2E2E2F5F5E2E2BEE2E2F5F5F5E2E2E2E2F5E2E2E2E2E2E2F5E2E2E2E2E20FE2E2E20F0FE2E2BEE2BEE2F5E2E2E2E2E2F5E2E2E2E2F5E2E2E2E2E2E2E2E2E2E2E2E2E2E2E2E2E2E2E2E2E2F5E2E228F5F5E2E2E2E2E2E2E2F5
310
F5E2E2F5E2BEE2E2E2E2E20FE2E2E2E2E2E2E2F5E2E2E2E2E2E2F5E2E2E2E2E2E2F5E2E2BEE2E2F5E2E2E2E2E2E2F5E2E2E2E2E2E2F5E2E22DE2E2E2E2E2E2E2E2E2E2E2E2E2E2E2E22DE2E2E2E2E2E2E2F5E2E2E2E2E2E2F5E2E2E2E2E2E2F5F5F5BEF5F5F5F5E2E2E2E2E2F5E2E2E2E2E2E2F5E2E2E2E2E20FE2E2E20F0F
310
0F0F0F0F0FBEBEBEBEBEBEBEBEBEBEBEBEF5BEBEBEBEBEBEBEBEBEBEBEBEBEBEBEBEBEBEBEBEF5BEBEBEBEBEBEBEBEBEBEBEBEBEBEBEBEBEBEBEBEE2E2E2E2E20FE2E2E2E2E2E2E2F5E2E2E2E2E2E2F5E2E2E2E2E2E2E2F5F5BEF5F5E2E2E2E2E2E2E2F5E2E2E2E2E2E2F5E2E22DE2E2E2E2E2E2E2E2E2E2E2E2E2E2E2E22D
310
E2E2E2E2E2E2E2F5E2E2E2E2E2E2E2F5E2E2E2E2E2E2E2F5BEF5F5E2E2E2E2E2E2E2F5E2E2E2E2E2E2F5E2E2E2E2E20FE2E2E2E2E2E2E2E2E2F5F5F5E2E2E2E2E2F5E2E2E2E2E2F5E2E2E2E2E2E2E2E2E2E2E2E2E2E2E2E2E2E2E2F5E2E2E228F5F5E2E2E2E2E2E2E2F5F5E2E2F50F0FE2E2E2E2E20FE2E2E2E2E2E2E2F5E2
310
E2E2E2E2E2F5E2E2E2E2E2E2E2E2E2BEE2E2E2E2E2E2E2E2E2F5E2E2E2E2E2E2F5E2E22DE2E2E2E2E2E2E2E2E2E2E2E2E2E2E2E22DE2E2E2E2E2E2E2F5E2E2E2E2E2E2E2F5E2E2E2E2E2E2E2E2BEE2E2E2E2E2E2E2E2F5E2E2E2E2E2E2E2F5E2E2E2E2E20FE2E2E2E2E2E2E2E2E2E2E2F5E2E2E2E2E2F5E2E2E2E2E2F5E2E2
310
E2E2E2E2E2E2E2E2E2E2E2E2E2E2E2E2F5E2E2E2E228F5F5E2E2E2E2E2E2E2F5F5E2E2F50FE2E2E2E2E2E20FE2E2E2E2E2E2E2F5E2E2E2E2E2E2E2F5E2E2E2E2E2E2E2E2BEE2E2E2E2E2E2E2E2F5E2E2E2E2E2E2E2F5E2E22DE2E2E2E2E2E2E2E2E2E2E2E2E2E2E2E22DE2E2E2E2E2E2E2F5E2E2E2E2E2E2E2E2F5F5E2E2E2
310
E2E2E2BEE2E2E2E2E2E2E2F5E2E2E2E2E2E2E2E2F5E2E2E2E2E20FE2E2E2E2E2E2E2E2E2E2E2F5E2E2E2E2E2F5E2E2E2E2E2E2F5E2E2E2E2E2E2E2E2E2E2E2E2E2E2E2E2E2F5E2BEF5E228F5F5E2E2E2E2E2E2E2F5F5E2E2F50FE2E2E2E2E2E20FE2E2E2E2E2E2E2F5E2E2E2E2E2E2E2E2F5E2E2E2E2E2E2E2BEE2E2E2E2E2
310
E2E2F5E2E2E2E2E2E2E2E2F5E2E22DE2E2E2E2E2E2E2E2E2E2E2E2E2E2E2E22DE2E2E2E2E2E2E2F5E2E2E2E2BEE2E2E2E2F5F5E2E2E2E2E2BEE2E2E2E2E2F5F5E2E2E2E2BEE2E2E2E2F5E2E2E2E2E20FE2E2E2E2E2E2E2E2E2E2E2F5E2E2E2E2E2F5E2E2E2E2E2E2E2F5E2E2E2E2E2E2E2E2E2E2E2E2E2E2E2F5F5F5BEF5F5
310
28F5F5E2E2E2E2E2E2E2F5F5E2E2F5E20FE2E2E2E2E20FE2E2E2E2E2E2E2F5E2E2E2E2BEE2E2E2E2F5E2E2E2E2E2E2BEE2E2E2E2E2E2F5E2E2E2E2BEE2E2E2E2F5E2E22DE2E2E2E2E2E2E2E2E2E2E2E2E2E2E2E22DE2E2E2E2E2E2E2F5E2E2E2E2BEF5E2E2E2E2E2F5F5E2E2E2BEE2E2E2F5F5E2E2E2E2E2E2BEF5E2E2E2F5
310
E2E2E2E2E20F0FE2E2E2E2E2E2E2E2E2E2F5E2E2E2E2E2F5E2E2E2E2E2E2E2E2F5E2E2E2E2E2E2E2E2E2E2E2E2F5F5F5F5E2BEE2F5F5F5F5E2E2E2E2E2E2E2F5F5E2E2F5E20FE2E2E2E2E20F0FE2E2E2E2E2E2F5E2E2E20FBEF5E2E2E2E2F5F5E2E2E2E2BEE2E2E2E2F5F5E2E2E2E2F5BEF5E2E2E2F5E2E22DE2E2E2E2E2E2
310
E2E2E2E2E2E2E2E2E2E22DE2E2E2E2E2E2E2F5E2E2F5F5F5F5F5E2E2E2E2E2E2F5F5F5BEF5F5F5E2E2E2E2E2E2F5F5F5F5F5E2E2F5E2E2E2E2E20F0F0F0F0F0F0F0F0F0F0F0F0FF5F5F5F5F5F5E2E2E2E2E2E2E2E2E2F5F5E2E2E2E2E2E2E2E2F5F5E2E2BEBEBE0FBEBEBEF5F528282828282828F5F52828F50F0F0F0F0F0F
310
0F0F0FE2E2E2E2E2E2F5E2E2F5F5BEF5F5E2E2E2E2E2F5F5F5F5BEF5F5F5F5E2E2E2E2E2F5F5BEF5F5E2E2F5E2E22DE2E2E2E2E2E2E2E2E2E2E2E2E2E2E2E22DE2E2E2E2E2E2E2F5E2BEBEF50FBEF5BEE2E2E2E2E2E2E2E2BEE2E2E2E2E2E2E2E2BEBEF5BEBEF5BEE2F5E2E2E2E2E2E2E2E2E2E2E2E2E2E2E2E2E2E2E2E2E2
310
E2E2F5E2E2E2E2E2E2E2E2E2E2E2F5F5F5F5F5F5F5F5E2E2E2E2F5E2E2BEE2F5F5F5F5E2E2E2E2E2E2E2F5F5E2E2F5E20FE2E2E2E2E2E2E2E2E2E2E2E2E2F5E2BEBEBEBEBEBEBEE2E2E2E2E2E2E2E2BEE2E2E2E2E2E2E2E2BEBEBEBEBEBEBEE2F5E2E22DE2E2E2E2E2E2E2E2E2E2E2E2E2E2E2E22DE2E2E2E2E2E2E2F5E2E2
310
F5F5BEF5F5E2E2E2E2E2E2E2E2E2BEE2E2E2E2E2E2E2E2E2F5F5BEF5F5E2E2F5E2E2E2E2E2E2E2E2E2E2E2E2E2E2E2E2E2E2E2E2E2E2E2F5E2E2E2E2E2E2E2E2E2E2E2E2E2E2E2E2E2E2E2E2E2E2E2F5F5E2BEE2F5F5F5F5F5F5F5F5F5F5F5F5F5E2E2F5E20FE2E2E2E2E2E2E2E2E2E2E2E2E2F5E2E2F5E2BEE2F5E2E2E2E2
310
E2E2E2E2E2BEE2E2E2E2E2E2E2E2E2F5E2BEE2F5E2E2F5E2E22DE2E2E2E2E2E2E2E2E2E2E2E2E2E2E2E22DE2E2E2E2E2E2E2F5E2E2E2F5F50FE2E2E2E2E2E2E2E2E2E2E2E2E2E2E2E2E2E2E2E2E2F5F5F5E2E2E2F5E2E2E2E2E2E2E2E2E2E2E2E2E2E2E2E2E2E2E2E2E2E2E2F5E2E2E2E2E2E2E2E2E2E2E2E2E2E2E2E2E2E2
310
E2E2E2E2E2F50FF5BEF5F50FF5F5E2E2E2E2E2E2E2F5F5E2E2F5E2E20FE2E2E2E2E2E2E2E2E2E2E2E2F5E2E2E2F5BE0FE2E2E2E2E2E2E2E2E2E2E2E2E2E2E2E2E2E2E2E2E2F5BEF5E2E2E2F5E2E22DE2E2E2E2E2E2E2E2E2E2E2E2E2E2E2E22DE2E2E2E2E2E2E2F5E2E2E2E2BE0F0FE2E2E2E2E2E2E2E2E2E2E2E2E2E2E2E2
310
E2E2E2E2E2BEE2E2E2E2F5E2E2E2E2E2E2E2E2E2E2E2E2E2E2E2E2E2E2E2E2E2E2E2F5E2E2E2E2E2E2E2E2E2E2E2E2E2E2E2E2E2E2E2E2E2E2E20F0FF5BEF5E20FF5F5E2E2E2E2E2E2E2F5F5E2E2F5E2E20FE2E2E2E2E2E2E2E2E2E2E2E2F5E2E2E2E2BE0F0FE2E2E2E2E2E2E2E2E2E2E2E2E2E2E2E2E2E2E2E2E2BEE2E2E2
310
E2F5E2E22DE2E2E2E2E2E2E2E2E2E2E2E2E2E2E2E22DE2E2E2E2E2E2E2F5E2E2E2E2E2E20FE2E2E2E2E2E2E2E2E2E2E2E2E2E2E2E2E2E2E2E2E2E2E2E2E2E2F5E2E2E2E2E2E2E2E2E2E2E2E2E2E2E2E2E2E2E2E2E2E2E2F5F5F5F5F5F5F5F5F5F5F5F5F5F5F5F5F5F5F5F5F5F5F5F50FF5F5F5F5F5F5F5F5E2E2E2E2E2E2E2
310
F5F5F5F5F5E2E20FE2E2E2E2E2E2E2E2E2E2E2E2F5E2E2E2E2E20FE2E2E2E2E2E2E2E2E2E2E2E2E2E2E2E2E2E2E2E2E2E2E2E2E2E2E2F5E2E22DE2E2E2E2E2E2E2E2E2E2E2E2E2E2E2E22DE2E2E2E2E2E2E2E2F5F5F5F5F5F50FF5F5F5F5F5F5F5F5F5F5F5F5F5F5F5F5F5F5F5F5F5F5F5F5F5F5E2E2E2E2E2E2E2E2E2E2E2
310
E2E2E2E2E2E2E2E2E2E2E2E2E2F5F5F5F5F5F5F5F5F5F5F5F5F5F5F5F5F5F5F5F5F5F5F5F50FF5F5F5F5F5F5F5F5E2E2E2E2E2E2E2F5F5F5F5F5E2E20FE2E2E2E2E2E2E2E2E2E2E2E2E2F5F5F5F5F5F5F5F5F5F5F5F5F5F5F5F5F5F5F5F5F5F5F5F5F5F5F5F5F5F5F5F5F5E2E2E22DE2E2E2E2E2E2E2E2E2E2E2E2E2E2E2E2
310
2DE2E2E2E2E2E2E2E2E2E2E2E2E2E2E20FE2E2E2E2E2E2E2E2E2E2E2E2E2E2E2E2E2E2E2E2E2E2E2E2E2E2E2E2E2E2E2E2E2E2E2E2E2E2E2E2E2E2E2E2E2E2E2E2E2E2E2E2E2E2E2E2E2E2E2E2E2E2E2E2E2E2E2E2E2E2E2E20FE2E2E2E2E2E20FE2E2E2E2E2E2E2E2E2E2E2E2E20FE2E2E20FE2E2E2E2E2E2E2E2E2E2E2E2
310
E2E2E2E2E2E20FE2E2E2E2E2E2E2E2E2E2E2E2E2E2E2E2E2E2E2E2E2E2E2E2E2E2E2E2E22DE2E2E2E2E2E2E2E2E2E2E2E2E2E2E2E22DE2E2E2E2E2E2E2E2E2E2E2E2E2E2E20F0F0F0F0F0F0F0FE2E2E2E2E2E2E2E2E2E2E2E2E2E2E2E2E2E2E2E2E2E2E2E2E2E2E2E2E2E2E2E2E2E2E2E2E2E2E2E2E2E2E2E2E2E2E2E2E2E2
310
E2E2E2E2E2E2E2E2E2E2E2E2E2E20FE2E2E2E2E2E2E20FE2E2E2E2E2E2E2E2E2E2E2E2E20FE2E2E20FE2E2E2E2E2E2E2E2E2E2E2E2E2E2E2E2E2E2E20FE2E2E2E2E2E2E2E2E2E2E2E2E2E2E2E2E2E2E2E2E2E2E2E2E2E2E2E22DE2E2E2E2E2E2E2E2E2E2E2E2E2E2E2E22DE2E2E2E2E2E2E2E2E2E2E2E2E2E2E2E20F0F0F0F
310
0F0F0FE2E2E2E2E2E2E2E2E2E2E2E2E2E2E2E2E2E2E2E2E2E2E2E2E2E2E2E2E2E2E2E2E2E2E2E2E2E2E2E2E2E2E2E2E2E2E2E2E2E2E2E2E2E2E2E2E2E2E2E2E2E2E2E20FE2E2E2E2E2E2E20F0F0F0F0F0F0F0F0F0F0F0F0F0F0FE2E2E20F0F0F0F0F0F0F0F0F0F0FE2E2E2E2E2E2E2E2E20F0F0F0F0F0F0F0FE2E2E2E2E2E2
310
E2E2E2E2E2E2E2E2E2E2E2E2E2E2E22DE2E2E2E2E2E2E2E2E2E2E2E2E2E2E2E22DE2E2E2E2E2E2E2E2E2E2E2E2E2E2E2E20FE20F0F0F0F0FE2E2E2E2E2E2E2E2E2E2E2E2E2E2E2E2E2E2E2E2E2E2E2E2E2E2E2E2E2E2E2E2E2E2E2E2E2E2E2E2E2E2E2E2E2E2E2E2E2E2E2E2E2E2E2E2E2E2E20F0F0F0F0FE2E2E2E2E2E2E2
310
E2E2E2E2E2E2E20F0F0F0FE2E2E2E2E2E2E2E2E2E20F0F0F0F0F0F0F0F0FE2E2E2E2E2E2E2E2E2E20F0F0F0F0F0FE2E2E2E2E2E2E2E2E2E2E2E2E2E2E2E2E2E2E2E2E2E22DE2E2E2E2E2E2E2E2E2E2E2E2E2E2E2E22DE2E2E2E2E2E2E2E2E2E2E2E2E2E2E2E2E2E2E2E2E2E2E2E2E2E2E2E2E2E2E2E2E2E2E2E2E2E2E2E2E2
310
E2E2E2E2E2E2E2E2E2E2E2E2E2E2E2E2E2E2E2E2E2E2E2E2E2E2E2E2E2E2E2E2E2E2E2E2E2E2E2E2E20F0F0F0F0FE2E2E2E2E2E2E2E2E2E2E2E2E2E20F0F0F0FE2E2E2E2E2E2E2E2E2E20F0F0F0F0F0F0F0F0FE2E2E2E2E2E2E2E2E2E20FE2E20F0F0FE2E2E2E2E2E2E2E2E2E2E2E2E2E2E2E2E2E2E2E2E2E22DE2E2E2E2E2
310
E2E2E2E2E2E2E2E2E2E2E22DE2E2E2E2E2E2E2E2E2E2E2E2E2E2E2E2E2E2E2E2E2E2E2E2E2E2E2E2E2E2E2E2E2E2E2E2E2E2E2E2E2E2E2E2E2E2E2E2E2E2E2E2E2E2E2E2E2E2E2E2E2E2E2E2E2E2E2E2E2E2E2E2E2E2E2E2E2E2E2E2E2E20F0F0F0F0FE2E2E2E2E2E2E2E2E2E2E2E2E2E2E2E2E2E2E2E2E2E2E2E2E2E2E2E2
310
E2E2E2E2E2E2E2E2E2E2E2E2E2E2E2E2E2E2E2E2E2E2E2E2E2E2E2E2E2E2E2E2E2E2E2E2E2E2E2E2E2E2E2E2E2E2E22DE2E2E2E2E2E2E2E2E2E2E2E2E2E2E2E22DE2E2E2E2E2E2E2E2E2E2E2E2E2E2E2E2E2E2E2E2E2E2E2E2E2E2E2E2E2E2E2E2E2E2E2E2E2E2E2E2E2E2E2E2E2E2E2E2E2E2E2E2E2E2E2E2E2E2E2E2E2E2
310
E2E2E2E2E2E2E2E2E2E2E2E2E2E2E2E2E2E2E2E2E2E2E2E2E2E2E2E2E2E2E2E2E2E2E2E2E2E2E2E2E2E2E2E2E2E2E2E2E2E2E2E2E2E2E2E2E2E2E2E2E2E2E2E2E2E2E2E2E2E2E2E2E2E2E2E2E2E2E2E2E2E2E2E2E2E2E2E2E2E2E2E2E2E2E2E2E2E2E2E22DE2E2E2E2E2E2E2E2E2E2E2E2E2E2E2E22DE2E2E2E2E2E2E2E2E2
310
E2E2E2E2E2E2E2E2E2E2E2E2E2E2E2E2E2E2E2E2E2E2E2E2E2E2E2E2E2E2E2E2E2E2E2E2E2E2E2E2E2E2E2E2E2E2E2E2E2E2E2E2E2E2E2E2E2E2E2E2E2E2E2E2E2E2E2E2E2E2E2E2E2E2E2E2E2E2E2E2E2E2E2E2E2E2E2E2E2E2E2E2E2E2E2E2E2E2E2E2E2E2E2E2E2E2E2E2E2E2E2E2E2E2E2E2E2E2E2E2E2E2E2E2E2E2E2
310
E2E2E2E2E2E2E2E2E2E2E2E2E2E2E2E2E2E2E2E2E2E2E2E2E2E22DE2E2E2E2E2E2E2E2E2E2E2E2E2E2E2E22DE2E2E2E2E2E2E2E2E2E2E2E2E2E2E2E2E2E2E2E2E2E2E2E2E2E2E2E2E2E2E2E2E2E2E2E2E2E2E2E2E2E2E2E2E2E2E2E2E2E2E2E2E2E2E2E2E2E2E2E2E2E2E2E2E2E2E2E2E2E2E2E2E2E2E2E2E2E2E2E2E2E2E2
310
E2E2E2E2E2E2E2E2E2E2E2E2E2E2E2E2E2E2E2E2E2E2E2E2E2E2E2E2E2E2E2E2E2E2E2E2E2E2E2E2E2E2E2E2E2E2E2E2E2E2E2E2E2E2E2E2E2E2E2E2E2E2E2E2E2E2E2E2E2E2E2E2E2E2E2E2E2E2E22DE2E2E2E2E2E2E2E2E2E2E2E2E2E2E2E22DE2E2E2E2E2E2E2E2E2E2E2E2E2E2E2E2E2E2E2E2E2E2E2E2E2E2E2E2E2E2
310
E2E2E2E2E2E2E2E2E2E2E2E2E2E2E2E2E2E2E2E2E2E2E2E2E2E2E2E2E2E2E2E2E2E2E2E2E2E2E2E2E2E2E2E2E2E2E2E2E2E2E2E2E2E2E2E2E2E2E2E2E2E2E2E2E2E2E2E2E2E2E2E2E2E2E2E2E2E2E2E2E2E2E2E2E2E2E2E2E2E2E2E2E2E2E2E2E2E2E2E2E2E2E2E2E2E2E2E2E2E2E2E2E2E2E2E2E2E2E2E2E2E2E2E2E2E2E2
310
E2E2E2E2E22DE2E2E2E2E2E2E2E2E2E2E2E2E2E2E2E22DE2E2E2E2E2E2E2E2E2E2E2E2E2E2E2E2E2E2E2E2E2E2E2E2E2E2E2E2E2E2E2E2E2E2E2E2E2E2E2E2E2E2E2E2E2E2E2E2E2E2E2E2E2E2E2E2E2E2E2E2E2E2E2E2E2E2E2E2E2E2E2E2E2E2E2E2E2E2E2E2E2E2E2E2E2E2E2E2E2E2E2E2E2E2E2E2E2E2E2E2E2E2E2E2
310
E2E2E2E2E2E2E2E2E2E2E2E2E2E2E2E2E2E2E2E2E2E2E2E2E2E2E2E2E2E2E2E2E2E2E2E2E2E2E2E2E2E2E2E2E2E2E2E2E2E2E2E2E2E2E2E2E2E22DE2E2E2E2E2E2E2E2E2E2E2E2E2E2E2E22DE2E2E2E2E2E2E2E2E2E2E2E2E2E2E2E2E2E2E2E2E2E2E2E2E2E2E2E2E2E2E2E2E2E2E2E2E2E2E2E2E2E2E2E2E2E2E2E2E2E2E2
310
E2E2E2E2E2E2E2E2E2E2E2E2E2E2E2E2E2E2E2E2E2E2E2E2E2E2E2E2E2E2E2E2E2E2E2E2E2E2E2E2E2E2E2E2E2E2E2E2E2E2E2E2E2E2E2E2E2E2E2E2E2E2E2E2E2E2E2E2E2E2E2E2E2E2E2E2E2E2E2E2E2E2E2E2E2E2E2E2E2E2E2E2E2E2E2E2E2E2E2E2E2E2E2E2E2E2E2E2E2E2E22DE2E2E2E2E2E2E2E2E2E2E2E2E2E2E2
310
E22DE2E2E2E2E2E2E2E2E2E2E2E2E2E2E2E2E2E2E2E2E2E2E2E2E2E2E2E2E2E2E2E2E2E2E2E2E2E2E2E2E2E2E2E2E2E2E2E2E2E2E2E2E2E2E2E2E2E2E2E2E2E2E2E2E2E2E2E2E2E2E2E2E2E2E2E2E2E2E2E2E2E2E2E2E2E2E2E2E2E2E2E2E2E2E2E2E2E2E2E2E2E2E2E2E2E2E2E2E2E2E2E2E2E2E2E2E2E2E2E2E2E2E2E2E2
310
E2E2E2E2E2E2E2E2E2E2E2E2E2E2E2E2E2E2E2E2E2E2E2E2E2E2E2E2E2E2E2E2E2E2E2E2E22DE2E2E2E2E2E2E2E2E2E2E2E2E2E2E2E22DE2E2E2E2E2E2E2E2E2E2E2E2E2E2E2E2E2E2E2E2E2E2E2E2E2E2E2E2E2E2E2E2E2E2E2E2E2E2E2E2E2E2E2E2E2E2E2E2E2E2E2E2E2E2E2E2E2E2E2E2E2E2E2E2E2E2E2E2E2E2E2E2
310
E2E2E2E2E2E2E2E2E2E2E2E2E2E2E2E2E2E2E2E2E2E2E2E2E2E2E2E2E2E2E2E2E2E2E2E2E2E2E2E2E2E2E2E2E2E2E2E2E2E2E2E2E2E2E2E2E2E2E2E2E2E2E2E2E2E2E2E2E2E2E2E2E2E2E2E2E2E2E2E2E2E2E2E2E2E2E2E2E2E22DE2E2E2E2E2E2E2E2E2E2E2E2E2E2E2E22DE2E2E2E2E2E2E2E2E2E2E2E2E2E2E2E2E2E2E2
310
E2E2E2E2E2E2E2E2E2E2E2E2E2E2E2E2E2E2E2E2E2E2E2E2E2E2E2E2E2E2E2E2E2E2E2E2E2E2E2E2E2E2E2E2E2E2E2E2E2E2E2E2E2E2E2E2E2E2E2E2E2E2E2E2E2E2E2E2E2E2E2E2E2E2E2E2E2E2E2E2E2E2E2E2E2E2E2E2E2E2E2E2E2E2E2E2E2E2E2E2E2E2E2E2E2E2E2E2E2E2E2E2E2E2E2E2E2E2E2E2E2E2E2E2E2E2E2
310
E2E2E2E2E2E2E2E2E2E2E2E2E2E2E2E22DE2E2E2E2E2E2E2E2E2E2E2E2E2E2E2E22DE2E2E2E2E2E2E2E2E2E2E2E2E2E2E2E2E2E2E2E2E2E2E2E2E2E2E2E2E2E2E2E2E2E2E2E2E2E2E2E2E2E2E2E2E2E2E2E2E2E2E2E2E2E2E2E2E2E2E2E2E2E2E2E2E2E2E2E2E2E2E2E2E2E2E2E2E2E2E2E2E2E2E2E2E2E2E2E2E2E2E2E2E2
310
E2E2E2E2E2E2E2E2E2E2E2E2E2E2E2E2E2E2E2E2E2E2E2E2E2E2E2E2E2E2E2E2E2E2E2E2E2E2E2E2E2E2E2E2E2E2E2E2E2E2E2E2E2E2E2E2E2E2E2E2E2E2E2E2E2E2E2E2E22DE2E2E2E2E2E2E2E2E2E2E2E2E2E2E2E22DE2E2E2E2E2E2E2E2E2E2E2E2E2E2E2E2E2E2E2E2E2E2E2E2E2E2E2E2E2E2E2E2E2E2E2E2E2E2E2E2
310
E2E2E2E2E2E2E2E2E2E2E2E2E2E2E2E2E2E2E2E2E2E2E2E2E2E2E2E2E2E2E2E2E2E2E2E2E2E2E2E2E2E2E2E2E2E2E2E2E2E2E2E2E2E2E2E2E2E2E2E2E2E2E2E2E2E2E2E2E2E2E2E2E2E2E2E2E2E2E2E2E2E2E2E2E2E2E2E2E2E2E2E2E2E2E2E2E2E2E2E2E2E2E2E2E2E2E2E2E2E2E2E2E2E2E2E2E2E2E2E2E2E22DE2E2E2E2
310
E2E2E2E2E2E2E2E2E2E2E2E22DE2E2E2E2E2E2E2E2E2E2E2E2E2E2E2E2E2E2E2E2E2E2E2E2E2E2E2E2E2E2E2E2E2E2E2E2E2E2E2E2E2E2E2E2E2E2E2E2E2E2E2E2E2E2E2E2E2E2E2E2E2E2E2E2E2E2E2E2E2E2E2E2E2E2E2E2E2E2E2E2E2E2E2E2E2E2E2E2E2E2E2E2E2E2E2E2E2E2E2E2E2E2E2E2E2E2E2E2E2E2E2E2E2E2
310
E2E2E2E2E2E2E2E2E2E2E2E2E2E2E2E2E2E2E2E2E2E2E2E2E2E2E2E2E2E2E2E2E2E2E2E2E2E2E2E2E2E2E2E2E2E2E2E22DE2E2E2E2E2E2E2E2E2E2E2E2E2E2E2E22DE2E2E2E2E2E2E2E2E2E2E2E2E2E2E2E2E2E2E2E2E2E2E2E2E2E2E2E2E2E2E2E2E2E2E2E2E2E2E2E2E2E2E2E2E2E2E2E2E2E2E2E2E2E2E2E2E2E2E2E2E2
310
E2E2E2E2E2E2E2E2E2E2E2E2E2E2E2E2E2E2E2E2E2E2E2E2E2E2E2E2E2E2E2E2E2E2E2E2E2E2E2E2E2E2E2E2E2E2E2E2E2E2E2E2E2E2E2E2E2E2E2E2E2E2E2E2E2E2E2E2E2E2E2E2E2E2E2E2E2E2E2E2E2E2E2E2E2E2E2E2E2E2E2E2E2E2E2E2E2E2E2E2E22DE2E2E2E2E2E2E2E2E2E2E2E2E2E2E2E22DE2E2E2E2E2E2E2E2
310
E2E2E2E2E2E2E2E2E2E2E2E2E2E2E2E2E2E2E2E2E2E2E2E2E2E2E2E2E2E2E2E2E2E2E2E2E2E2E2E2E2E2E2E2E2E2E2E2E2E2E2E2E2E2E2E2E2E2E2E2E2E2E2E2E2E2E2E2E2E2E2E2E2E2E2E2E2E2E2E2E2E2E2E2E2E2E2E2E2E2E2E2E2E2E2E2E2E2E2E2E2E2E2E2E2E2E2E2E2E2E2E2E2E2E2E2E2E2E2E2E2E2E2E2E2E2E2
310
E2E2E2E2E2E2E2E2E2E2E2E2E2E2E2E2E2E2E2E2E2E2E2E2E2E2E22DE2E2E2E2E2E2E2E2E2E2E2E2E2E2E2E22DE2E2E2E2E2E2E2E2E2E2E2E2E2E2E2E2E2E2E2E2E2E2E2E2E2E2E2E2E2E2E2E2E2E2E2E2E2E2E2E2E2E2E2E2E2E2E2E2E2E2E2E2E2E2E2E2E2E2E2E2E2E2E2E2E2E2E2E2E2E2E2E2E2E2E2E2E2E2E2E2E2E2
310
E2E2E2E2E2E2E2E2E2E2E2E2E2E2E2E2E2E2E2E2E2E2E2E2E2E2E2E2E2E2E2E2E2E2E2E2E2E2E2E2E2E2E2E2E2E2E2E2E2E2E2E2E2E2E2E2E2E2E2E2E2E2E2E2E2E2E2E2E2E2E2E2E2E2E2E2E2E2E2E22DE2E2E2E2E2E2E2E2E2E2E2E2E2E2E2E22DE2E2E2E2E2E2E2E2E2E2E2E2E2E2E2E2E2E2E2E2E2E2E2E2E2E2E2E2E2
310
E2E2E2E2E2E2E2E2E2E2E2E2E2E2E2E2E2E2E2E2E2E2E2E2E2E2E2E2E2E2E2E2E2E2E2E2E2E2E2E2E2E2E2E2E2E2E2E2E2E2E2E2E2E2E2E2E2E2E2E2E2E2E2E2E2E2E2E2E2E2E2E2E2E2E2E2E2E2E2E2E2E2E2E2E2E2E2E2E2E2E2E2E2E2E2E2E2E2E2E2E2E2E2E2E2E2E2E2E2E2E2E2E2E2E2E2E2E2E2E2E2E2E2E2E2E2E2
310
E2E2E2E2E2E22DE2E2E2E2E2E2E2E2E2E2E2E2E2E2E2E22DE2E2E2E2E2E2E2E2E2E2E2E2E2E2E2E2E2E2E2E2E2E2E2E2E2E2E2E2E2E2E2E2E2E2E2E2E2E2E2E2E2E2E2E2E2E2E2E2E2E2E2E2E2E2E2E2E2E2E2E2E2E2E2E2E2E2E2E2E2E2E2E2E2E2E2E2E2E2E2E2E2E2E2E2E2E2E2E2E2E2E2E2E2E2E2E2E2E2E2E2E2E2E2
310
E2E2E2E2E2E2E2E2E2E2E2E2E2E2E2E2E2E2E2E2E2E2E2E2E2E2E2E2E2E2E2E2E2E2E2E2E2E2E2E2E2E2E2E2E2E2E2E2E2E2E2E2E2E2E2E2E2E2E22DE2E2E2E2E2E2E2E2E2E2E2E2E2E2E2E22DE2E2E2E2E2E2E2E2E2E2E2E2E2E2E2E2E2E2E2E2E2E2E2E2E2E2E2E2E2E2E2E2E2E2E2E2E2E2E2E2E2E2E2E2E2E2E2E2E2E2
310
E2E2E2E2E2E2E2E2E2E2E2E2E2E2E2E2E2E2E2E2E2E2E2E2E2E2E2E2E2E2E2E2E2E2E2E2E2E2E2E2E2E2E2E2E2E2E2E2E2E2E2E2E2E2E2E2E2E2E2E2E2E2E2E2E2E2E2E2E2E2E2E2E2E2E2E2E2E2E2E2E2E2E2E2E2E2E2E2E2E2E2E2E2E2E2E2E2E2E2E2E2E2E2E2E2E2E2E2E2E2E2E22DE2E2E2E2E2E2E2E2E2E2E2E2E2E2
310
E2E22DE2E2E2E2E2E2E2E2E2E2E2E2E2E2E2E2E2E2E2E2E2E2E2E2E2E2E2E2E2E2E2E2E2E2E2E2E2E2E2E2E2E2E2E2E2E2E2E2E2E2E2E2E2E2E2E2E2E2E2E2E2E2E2E2E2E2E2E2E2E2E2E2E2E2E2E2E2E2E2E2E2E2E2E2E2E2E2E2E2E2E2E2E2E2E2E2E2E2E2E2E2E2E2E2E2E2E2E2E2E2E2E2E2E2E2E2E2E2E2E2E2E2E2E2
310
E2E2E2E2E2E2E2E2E2E2E2E2E2E2E2E2E2E2E2E2E2E2E2E2E2E2E2E2E2E2E2E2E2E2E2E2E2E22DE2E2E2E2E2E2E2E2E2E2E2E2E2E2E2E22DE2E2E2E2E2E2E2E2E2E2E2E2E2E2E2E2E2E2E2E2E2E2E2E2E2E2E2E2E2E2E2E2E2E2E2E2E2E2E2E2E2E2E2E2E2E2E2E2E2E2E2E2E2E2E2E2E2E2E2E2E2E2E2E2E2E2E2E2E2E2E2
310
E2E2E2E2E2E2E2E2E2E2E2E2E2E2E2E2E2E2E2E2E2E2E2E2E2E2E2E2E2E2E2E2E2E2E2E2E2E2E2E2E2E2E2E2E2E2E2E2E2E2E2E2E2E2E2E2E2E2E2E2E2E2E2E2E2E2E2E2E2E2E2E2E2E2E2E2E2E2E2E2E2E2E2E2E2E2E2E2E2E2E22DE2E2E2E2E2E2E2E2E2E2E2E2E2E2E2E22DE2E2E2E2E2E2E2E2E2E2E2E2E2E2E2E2E2E2
310
E2E2E2E2E2E2E2E2E2E2E2E2E2E2E2E2E2E2E2E2E2E2E2E2E2E2E2E2E2E2E2E2E2E2E2E2E2E2E2E2E2E2E2E2E2E2E2E2E2E2E2E2E2E2E2E2E2E2E2E2E2E2E2E2E2E2E2E2E2E2E2E2E2E2E2E2E2E2E2E2E2E2E2E2E2E2E2E2E2E2E2E2E2E2E2E2E2E2E2E2E2E2E2E2E2E2E2E2E2E2E2E2E2E2E2E2E2E2E2E2E2E2E2E2E2E2E2
310
E2E2E2E2E2E2E2E2E2E2E2E2E2E2E2E2E22DE2E2E2E2E2E2E2E2E2E2E2E2E2E2E2E22DE2E2E2E2E2E2E2E2E2E2E2E2E2E2E2E2E2E2E2E2E2E2E2E2E2E2E2E2E2E2E2E2E2E2E2E2E2E2E2E2E2E2E2E2E2E2E2E2E2E2E2E2E2E2E2E2E2E2E2E2E2E2E2E2E2E2E2E2E2E2E2E2E2E2E2E2E2E2E2E2E2E2E2E2E2E2E2E2E2E2E2E2
310
E2E2E2E2E2E2E2E2E2E2E2E2E2E2E2E2E2E2E2E2E2E2E2E2E2E2E2E2E2E2E2E2E2E2E2E2E2E2E2E2E2E2E2E2E2E2E2E2E2E2E2E2E2E2E2E2E2E2E2E2E2E2E2E2E2E2E2E2E2E22DE2E2E2E2E2E2E2E2E2E2E2E2E2E2E2E22DE2E2E2E2E2E2E2E2E2E2E2E2E2E2E2E2E2E2E2E2E2E2E2E2E2E2E2E2E2E2E2E2E2E2E2E2E2E2E2
310
E2E2E2E2E2E2E2E2E2E2E2E2E2E2E2E2E2E2E2E2E2E2E2E2E2E2E2E2E2E2E2E2E2E2E2E2E2E2E2E2E2E2E2E2E2E2E2E2E2E2E2E2E2E2E2E2E2E2E2E2E2E2E2E2E2E2E2E2E2E2E2E2E2E2E2E2E2E2E2E2E2E2E2E2E2E2E2E2E2E2E2E2E2E2E2E2E2E2E2E2E2E2E2E2E2E2E2E2E2E2E2E2E2E2E2E2E2E2E2E2E2E2E22DE2E2E2
310
E2E2E2E2E2E2E2E2E2E2E2E2E22D2D2D2D2D2D2D2D2D2D2D2D2D2D2D2D2D2D2D2D2D2D2D2D2D2D2D2D2D2D2D2D2D2D2D2D2D2D2D2D2D2D2D2D2D2D2D2D2D2D2D2D2D2D2D2D2D2D2D2D2D2D2D2D2D2D2D2D2D2D2D2D2D2D2D2D2D2D2D2D2D2D2D2D2D2D2D2D2D2D2D2D2D2D2D2D2D2D2D2D2D2D2D2D2D2D2D2D2D2D2D2D2D2D
310
2D2D2D2D2D2D2D2D2D2D2D2D2D2D2D2D2D2D2D2D2D2D2D2D2D2D2D2D2D2D2D2D2D2D2D2D2D2D2D2D2D2D2D2D2D2D2D2D2D2DE2E2E2E2E2E2E2E2E2E2E2E2E2E2E2E2E2E2E2E2E2E2E2E2E2E2E2E2E2E2E2E2E2E2E2E2E2E2E2E2E2E2E2E2E2E2E2E2E2E2E2E2E2E2E2E2E2E2E2E2E2E2E2E2E2E2E2E2E2E2E2E2E2E2E2E2E2
310
E2E2E2E2E2E2E2E2E2E2E2E2E2E2E2E2E2E2E2E2E2E2E2E2E2E2E2E2E2E2E2E2E2E2E2E2E2E2E2E2E2E2E2E2E2E2E2E2E2E2E2E2E2E2E2E2E2E2E2E2E2E2E2E2E2E2E2E2E2E2E2E2E2E2E2E2E2E2E2E2E2E2E2E2E2E2E2E2E2E2E2E2E2E2E2E2E2E2E2E2E2E2E2E2E2E2E2E2E2E2E2E2E2E2E2E2E2E2E2E2E2E2E2E2E2E2E2
310
E2E2E2E2E2E2E2E2E2E2E2E2E2E2E2E2E2E2E2E2E2E2E2E2E2E2E2E2E2E2E2E2E2E2E2E2E2E2E2E2E2E2E2E2E2E2E2E2E2E2E2E2E2E2E2E2E2E2E2E2E2E2E2E2E2E2E2E2E2E2E2E2E2E2E2E2E2E2E2E2E2E2E2E2E2E2E2E2E2E2E2E2E2E2E2E2E2E2E2E2E2E2E2E2E2E2E2E2E2E2E2E2E2E2E2E2E2E2E2E2E2E2E2E2E2E2E2
310
E2E2E2E2E2E2E2E2E2E2E2E2E2E2E2E2E2E2E2E2E2E2E2E2E2E2E2E2E2E2E2E2E2E2E2E2E2E2E2E2E2E2E2E2E2E2E2E2E2E2E2E2E2E2E2E2E2E2E2E2E2E2E2E2E2E2E2E2E2E2E2E2E2E2E2E2E2E2E2E2E2E2E2E2E2E2E2E2E2E2E2E2E2E2E2E2E2E2E2E2E2E2E2E2E2E2E2E2E2E2E2E2E2E2E2E2E2E2E2E2E2E2E2E2E2E2E2
310
E2E2E2E2E2E2E2E2E2E2E2E2E2E2E2E2E2E2E2E2E2E2E2E2E2E2E2E2E2E2E2E2E2E2E2E2E2E2E2E2E2E2E2E2E2E2E2E2E2E2E2E2E2E2E2E2E2E2E2E2E2E2E2E2E2E2E2E2E2E2E2E2E2E2E2E2E2E2E2E2E2E2E2E2E2E2E2E2E2E2E2E2E2E2E2E2E2E2E2E2E2E2E2E2E2E2E2E2E2E2E2E2E2E2E2E2E2E2E2E2E2E2E2E2E2E2E2
310
E2E2E2E2E2E2E2E2E2E2E2E2E2E2E2E2E2E2E2E2E2E2E2E2E2E2E2E2E2E2E2E2E2E2E2E2E2E2E2E2E2E2E2E2E2E2E2E2E2E2E2E2E2E2E2E2E2E2E2E2E2E2E2E2E2E2E2E2E2E2E2E2E2E2E2E2E2E2E2E2E2E2E2E2E2E2E2E2E2E2E2E2E2E2E2E2E2E2E2E2E2E2E2E2E2E2E2E2E2E2E2E2E2E2E2E2E2E2E2E2E2E2E2E2E2E2E2
310
E2E2E2E2E2E2E2E2E2E2E2E2E2E2E2E2E2E2E2E2E2E2E2E2E2E2E2E2E2E2E2E2E2E2E2E2E2E2E2E2E2E2E2E2E2E2E2E2E2E2E2E2E2E2E2E2E2E2E2E2E2E2E2E2E2E2E2E2E2E2E2E2E2E2E2E2E2E2E2E2E2E2E2E2E2E2E2E2E2E2E2E2E2E2E2E2E2E2E2E2E2E2E2E2E2E2E2E2E2E2E2E2E2E2E2E2E2E2E2E2E2E2E2E2E2E2E2
310
E2E2E2E2E2E2E2E2E2E2E2E2E2E2E2E2E2E2E2E2E2E2E2E2E2E2E2E2E2E2E2E2E2E2E2E2E2E2E2E2E2E2E2E2E2E2E2E2E2E2E2E2E2E2E2E2E2E2E2E2E2E2E2E2E2E2E2E2E2E2E2E2E2E2E2E2E2E2E2E2E2E2E2E2E2E2E2E2E2E2E2E2E2E2E2E2E2E2E2E2E2E2E2E2E2E2E2E2E2E2E2E2E2E2E2E2E2E2E2E2E2E2E2E2E2E2E2
310
E2E2E2E2E2E2E2E2E2E2E2E2E2E2E2E2E2E2E2E2E2E2E2E2E2E2E2E2E2E2E2E2E2E2E2E2E2E2E2E2E2E2E2E2E2E2E2E2E2E2E2E2E2E2E2E2E2E2E2E2E2E2E2E2E2E2E2E2E2E2E2E2E2E2E2E2E2E2E2E2E2E2E2E2E2E2E2E2E2E2E2E2E2E2E2E2E2E2E2E2E2E2E2E2E2E2E2E2E2E2E2E2E2E2E2E2E2E2E2E2E2E2E2E2E2E2E2
310
E2E2E2E2E2E2E2E2E2E2E2E2E2E2E2E2E2E2E2E2E2E2E2E2E2E2E2E2E2E2E2E2E2E2E2E2E2E2E2E2E2E2E2E2E2E2E2E2E2E2E2E2E2E2E2E2E2E2E2E2E2E2E2E2E2E2E2E2E2E2E2E2E2E2E2E2E2E2E2E2E2E2E2E2E2E2E2E2E2E2E2E2E2E2E2E2E2E2E2E2E2E2E2E2E2E2E2E2E2E2E2E2E2E2E2E2E2E2E2E2E2E2E2E2E2E2E2
310
E2E2E2E2E2E2E2E2E2E2E2E2E2E2E2E2E2E2E2E2E2E2E2E2E2E2E2E2E2E2E2E2E2E2E2E2E2E2E2E2E2E2E2E2E2E2E2E2
  0
ENDSEC
  0
EOF
