  0
SECTION
  2
HEADER
  9
$ACADVER
  1
AC1015
  9
$ACADMAINTVER
 70
    20
  9
$DWGCODEPAGE
  3
ANSI_950
  9
$INSBASE
 10
0.0
 20
0.0
 30
0.0
  9
$EXTMIN
 10
1.000000000000000E+20
 20
1.000000000000000E+20
 30
1.000000000000000E+20
  9
$EXTMAX
 10
-1.000000000000000E+20
 20
-1.000000000000000E+20
 30
-1.000000000000000E+20
  9
$LIMMIN
 10
0.0
 20
0.0
  9
$LIMMAX
 10
420.0
 20
297.0
  9
$ORTHOMODE
 70
     1
  9
$REGENMODE
 70
     1
  9
$FILLMODE
 70
     1
  9
$QTEXTMODE
 70
     0
  9
$MIRRTEXT
 70
     1
  9
$LTSCALE
 40
1.0
  9
$ATTMODE
 70
     1
  9
$TEXTSIZE
 40
1.0
  9
$TRACEWID
 40
1.0
  9
$TEXTSTYLE
  7
STANDARD
  9
$CLAYER
  8
0
  9
$CELTYPE
  6
BYLAYER
  9
$CECOLOR
 62
   256
  9
$CELTSCALE
 40
1.0
  9
$DISPSILH
 70
     0
  9
$DIMSCALE
 40
0.8333333333333333
  9
$DIMASZ
 40
2.5
  9
$DIMEXO
 40
1.0
  9
$DIMDLI
 40
10.0
  9
$DIMRND
 40
0.0
  9
$DIMDLE
 40
0.0
  9
$DIMEXE
 40
1.0
  9
$DIMTP
 40
0.1
  9
$DIMTM
 40
0.1
  9
$DIMTXT
 40
3.5
  9
$DIMCEN
 40
0.0
  9
$DIMTSZ
 40
0.0
  9
$DIMTOL
 70
     0
  9
$DIMLIM
 70
     0
  9
$DIMTIH
 70
     0
  9
$DIMTOH
 70
     0
  9
$DIMSE1
 70
     0
  9
$DIMSE2
 70
     0
  9
$DIMTAD
 70
     1
  9
$DIMZIN
 70
     8
  9
$DIMBLK
  1

  9
$DIMASO
 70
     1
  9
$DIMSHO
 70
     1
  9
$DIMPOST
  1

  9
$DIMAPOST
  1
"
  9
$DIMALT
 70
     0
  9
$DIMALTD
 70
     2
  9
$DIMALTF
 40
0.0393701
  9
$DIMLFAC
 40
1.0
  9
$DIMTOFL
 70
     1
  9
$DIMTVP
 40
0.0
  9
$DIMTIX
 70
     0
  9
$DIMSOXD
 70
     0
  9
$DIMSAH
 70
     0
  9
$DIMBLK1
  1

  9
$DIMBLK2
  1

  9
$DIMSTYLE
  2
AM_ISO
  9
$DIMCLRD
 70
   256
  9
$DIMCLRE
 70
   256
  9
$DIMCLRT
 70
   256
  9
$DIMTFAC
 40
0.71
  9
$DIMGAP
 40
1.5
  9
$DIMJUST
 70
     0
  9
$DIMSD1
 70
     0
  9
$DIMSD2
 70
     0
  9
$DIMTOLJ
 70
     0
  9
$DIMTZIN
 70
     8
  9
$DIMALTZ
 70
     0
  9
$DIMALTTZ
 70
     0
  9
$DIMUPT
 70
     0
  9
$DIMDEC
 70
     2
  9
$DIMTDEC
 70
     8
  9
$DIMALTU
 70
     2
  9
$DIMALTTD
 70
     4
  9
$DIMTXSTY
  7
STANDARD
  9
$DIMAUNIT
 70
     0
  9
$DIMADEC
 70
     0
  9
$DIMALTRND
 40
0.0
  9
$DIMAZIN
 70
     2
  9
$DIMDSEP
 70
    46
  9
$DIMATFIT
 70
     3
  9
$DIMFRAC
 70
     0
  9
$DIMLDRBLK
  1

  9
$DIMLUNIT
 70
     2
  9
$DIMLWD
 70
    -1
  9
$DIMLWE
 70
    -1
  9
$DIMTMOVE
 70
     0
  9
$LUNITS
 70
     2
  9
$LUPREC
 70
     2
  9
$SKETCHINC
 40
1.0
  9
$FILLETRAD
 40
3.0
  9
$AUNITS
 70
     0
  9
$AUPREC
 70
     0
  9
$MENU
  1
.
  9
$ELEVATION
 40
0.0
  9
$PELEVATION
 40
0.0
  9
$THICKNESS
 40
0.0
  9
$LIMCHECK
 70
     0
  9
$CHAMFERA
 40
2.5
  9
$CHAMFERB
 40
2.5
  9
$CHAMFERC
 40
20.0
  9
$CHAMFERD
 40
0.0
  9
$SKPOLY
 70
     0
  9
$TDCREATE
 40
2455098.662536528
  9
$TDUCREATE
 40
2455098.329203195
  9
$TDUPDATE
 40
2455117.711193090
  9
$TDUUPDATE
 40
2455117.377859757
  9
$TDINDWG
 40
0.0465294444
  9
$TDUSRTIMER
 40
0.0465292708
  9
$USRTIMER
 70
     1
  9
$ANGBASE
 50
0.0
  9
$ANGDIR
 70
     0
  9
$PDMODE
 70
     0
  9
$PDSIZE
 40
0.0
  9
$PLINEWID
 40
0.0
  9
$SPLFRAME
 70
     0
  9
$SPLINETYPE
 70
     6
  9
$SPLINESEGS
 70
     8
  9
$HANDSEED
  5
755
  9
$SURFTAB1
 70
     6
  9
$SURFTAB2
 70
     6
  9
$SURFTYPE
 70
     6
  9
$SURFU
 70
     6
  9
$SURFV
 70
     6
  9
$UCSBASE
  2

  9
$UCSNAME
  2

  9
$UCSORG
 10
0.0
 20
0.0
 30
0.0
  9
$UCSXDIR
 10
1.0
 20
0.0
 30
0.0
  9
$UCSYDIR
 10
0.0
 20
1.0
 30
0.0
  9
$UCSORTHOREF
  2

  9
$UCSORTHOVIEW
 70
     0
  9
$UCSORGTOP
 10
0.0
 20
0.0
 30
0.0
  9
$UCSORGBOTTOM
 10
0.0
 20
0.0
 30
0.0
  9
$UCSORGLEFT
 10
0.0
 20
0.0
 30
0.0
  9
$UCSORGRIGHT
 10
0.0
 20
0.0
 30
0.0
  9
$UCSORGFRONT
 10
0.0
 20
0.0
 30
0.0
  9
$UCSORGBACK
 10
0.0
 20
0.0
 30
0.0
  9
$PUCSBASE
  2

  9
$PUCSNAME
  2

  9
$PUCSORG
 10
0.0
 20
0.0
 30
0.0
  9
$PUCSXDIR
 10
1.0
 20
0.0
 30
0.0
  9
$PUCSYDIR
 10
0.0
 20
1.0
 30
0.0
  9
$PUCSORTHOREF
  2

  9
$PUCSORTHOVIEW
 70
     0
  9
$PUCSORGTOP
 10
0.0
 20
0.0
 30
0.0
  9
$PUCSORGBOTTOM
 10
0.0
 20
0.0
 30
0.0
  9
$PUCSORGLEFT
 10
0.0
 20
0.0
 30
0.0
  9
$PUCSORGRIGHT
 10
0.0
 20
0.0
 30
0.0
  9
$PUCSORGFRONT
 10
0.0
 20
0.0
 30
0.0
  9
$PUCSORGBACK
 10
0.0
 20
0.0
 30
0.0
  9
$USERI1
 70
     0
  9
$USERI2
 70
     0
  9
$USERI3
 70
     0
  9
$USERI4
 70
     0
  9
$USERI5
 70
     0
  9
$USERR1
 40
0.0
  9
$USERR2
 40
0.0
  9
$USERR3
 40
0.0
  9
$USERR4
 40
0.0
  9
$USERR5
 40
0.0
  9
$WORLDVIEW
 70
     1
  9
$SHADEDGE
 70
     3
  9
$SHADEDIF
 70
    70
  9
$TILEMODE
 70
     0
  9
$MAXACTVP
 70
    48
  9
$PINSBASE
 10
0.0
 20
0.0
 30
0.0
  9
$PLIMCHECK
 70
     0
  9
$PEXTMIN
 10
18.06747087219401
 20
9.046422795230341
 30
-0.0077452633990447
  9
$PEXTMAX
 10
327.5679507095439
 20
222.6326391097878
 30
152.8769512494873
  9
$PLIMMIN
 10
-4.189224243164062
 20
-5.670902729034423
  9
$PLIMMAX
 10
345.7663218180339
 20
241.767426331838
  9
$UNITMODE
 70
     0
  9
$VISRETAIN
 70
     1
  9
$PLINEGEN
 70
     0
  9
$PSLTSCALE
 70
     1
  9
$TREEDEPTH
 70
  3020
  9
$CMLSTYLE
  2
STANDARD
  9
$CMLJUST
 70
     0
  9
$CMLSCALE
 40
1.0
  9
$PROXYGRAPHICS
 70
     1
  9
$MEASUREMENT
 70
     1
  9
$CELWEIGHT
370
    -1
  9
$ENDCAPS
280
     0
  9
$JOINSTYLE
280
     0
  9
$LWDISPLAY
290
     0
  9
$INSUNITS
 70
     4
  9
$HYPERLINKBASE
  1

  9
$STYLESHEET
  1

  9
$XEDIT
290
     1
  9
$CEPSNTYPE
380
     0
  9
$PSTYLEMODE
290
     1
  9
$FINGERPRINTGUID
  2
{86C78405-BAB2-418D-97B7-292CAD627C1A}
  9
$VERSIONGUID
  2
{35B933CB-6603-47AC-93C9-388CC316D6AD}
  9
$EXTNAMES
290
     1
  9
$PSVPSCALE
 40
0.0
  9
$OLESTARTUP
290
     0
  0
ENDSEC
  0
SECTION
  2
CLASSES
  0
CLASS
  1
DICTIONARYVAR
  2
AcDbDictionaryVar
  3
ObjectDBX Classes
 90
        0
280
     0
281
     0
  0
CLASS
  1
ACMESTATEMGR
  2
AcMeStateMgr
  3
AcMeServices
 90
        0
280
     0
281
     0
  0
CLASS
  1
ACMESCOPE
  2
AcMeScope
  3
AcMeServices
 90
        0
280
     0
281
     0
  0
CLASS
  1
ACMECOMMANDHISTORY
  2
AcMeCommandHistory
  3
AcMeServices
 90
        0
280
     0
281
     0
  0
CLASS
  1
ACRFINSADJUSTERMGR
  2
AcRfInsAdjusterMgr
  3
AcMeServices
 90
        0
280
     0
281
     0
  0
CLASS
  1
ACMEDRAWINGMAN
  2
AcMeDrawingMan
  3
AcMeServices
 90
        0
280
     0
281
     0
  0
CLASS
  1
AMATTR
  2
AcMeAttribute
  3
AcMeServices
 90
    32768
280
     0
281
     0
  0
CLASS
  1
ACMEBOMCOLUMN
  2
AcMeBOMColumn
  3
AcMeServices
 90
    32768
280
     0
281
     0
  0
CLASS
  1
ACMEBOMCONF
  2
AcMeBOMConf
  3
AcMeServices
 90
    32768
280
     0
281
     0
  0
CLASS
  1
ACMEBOMTABLE
  2
AcMeBOMTable
  3
AcMeServices
 90
    32768
280
     0
281
     0
  0
CLASS
  1
ACMEBOMENTRY
  2
AcMeBOMEntry
  3
AcMeServices
 90
    32768
280
     0
281
     0
  0
CLASS
  1
ACMEVIEW
  2
AcMeView
  3
AcMeServices
 90
        0
280
     0
281
     0
  0
CLASS
  1
ACGREFMASTER
  2
AcGrefMaster
  3
AcAttribServices
 90
        0
280
     0
281
     0
  0
CLASS
  1
AMIMASTER
  2
AmiMaster
  3
AmiServices
 90
        0
280
     0
281
     0
  0
CLASS
  1
ACASGREFMASTER
  2
AcAsGrefMaster
  3
AutoSurfResolverServices
 90
        0
280
     0
281
     0
  0
CLASS
  1
ADAPPL
  2
AcAdAppl
  3
DesignerServices
 90
        0
280
     0
281
     0
  0
CLASS
  1
DEPMGR
  2
AcAdDepMgr
  3
DesignerServices
 90
        0
280
     0
281
     0
  0
CLASS
  1
PARAMMGR
  2
AcAdParamMgr
  3
DesignerServices
 90
        0
280
     0
281
     0
  0
CLASS
  1
PARAMSCOPE
  2
AcAdParamScope
  3
DesignerServices
 90
        0
280
     0
281
     0
  0
CLASS
  1
ACIMSYSVARMAN
  2
AcImSysVarManager
  3
AcMeServices
 90
        0
280
     0
281
     0
  0
CLASS
  1
ACIMINTSYSVAR
  2
AcImIntSysVar
  3
AcMeServices
 90
        0
280
     0
281
     0
  0
CLASS
  1
ACIMREALSYSVAR
  2
AcImRealSysVar
  3
AcMeServices
 90
        0
280
     0
281
     0
  0
CLASS
  1
ACIMSTRSYSVAR
  2
AcImStrSysVar
  3
AcMeServices
 90
        0
280
     0
281
     0
  0
CLASS
  1
NAMEDAPPL
  2
AcAdNamedAppl
  3
DesignerServices
 90
        0
280
     0
281
     0
  0
CLASS
  1
ADHNTMPLT
  2
AdHoleNoteTemplateMgr
  3
DesignerServices
 90
    32768
280
     0
281
     0
  0
CLASS
  1
AM_HNTEMPLATE_MGR_NAME
  2
AdHoleNoteTemplateMgrName
  3
DesignerServices
 90
    32768
280
     0
281
     0
  0
CLASS
  1
ACADGREFMODULE
  2
AcAdGrefModule
  3
AdGrefServices
 90
        0
280
     0
281
     0
  0
CLASS
  1
AM_DRAWING_MGR
  2
AcDmDwgMgr
  3
AcMechDwgViewMgmt
 90
        0
280
     0
281
     0
  0
CLASS
  1
AM_DWG_DOCUMENT
  2
AcDmDwgDocument
  3
AcMechDwgViewMgmt
 90
        0
280
     0
281
     0
  0
CLASS
  1
AM_DWG_SHEET
  2
AcDmSheet
  3
AcMechDwgViewMgmt
 90
        0
280
     0
281
     0
  0
CLASS
  1
AM_VIEWDIMPARMAP
  2
AcDmViewDimParMap
  3
AcMechDwgViewMgmt
 90
        0
280
     0
281
     0
  0
CLASS
  1
AM_DWGMGR_NAME
  2
AcDmDwgMgrName
  3
AcMechDwgViewMgmt
 90
        0
280
     0
281
     0
  0
CLASS
  1
ACAMPROJECT
  2
AcAmProject
  3
DesignerAssemblies
 90
        0
280
     0
281
     0
  0
CLASS
  1
ACAMGRCOMPSET
  2
AcAmGrCompSet
  3
DesignerAssemblies
 90
    32768
280
     1
281
     0
  0
CLASS
  1
ACAMGRCOMPDEFSET
  2
AcAmGrCompDefSet
  3
DesignerAssemblies
 90
        0
280
     0
281
     0
  0
CLASS
  1
ACAMGRCOMPDEF
  2
AcAmGrCompDef
  3
DesignerAssemblies
 90
        0
280
     0
281
     0
  0
CLASS
  1
ACCMCONTEXT
  2
AcCmContext
  3
DesignerAssemblies
 90
        0
280
     0
281
     0
  0
CLASS
  1
ACAMCOMPDEF
  2
AcAmCompDef
  3
DesignerAssemblies
 90
        0
280
     0
281
     0
  0
CLASS
  1
ACAMCOMPDEFMGR
  2
AcAmCompDefMgr
  3
DesignerAssemblies
 90
        0
280
     0
281
     0
  0
CLASS
  1
AMCONTEXTMGR
  2
AcAmContextMgr
  3
DesignerAssemblies
 90
        0
280
     0
281
     0
  0
CLASS
  1
ACAMCONTEXTMODELER
  2
AcAmContextModeler
  3
DesignerAssemblies
 90
        0
280
     0
281
     0
  0
CLASS
  1
ACDMVIEWGEOM
  2
AcDmViewGeometry
  3
AcMechDwgViewMgmt
 90
    32768
280
     0
281
     1
  0
CLASS
  1
CBROWSERAPPOBJECT
  2
CBrowserAppObject
  3
McadcomServices
 90
        0
280
     0
281
     0
  0
CLASS
  1
IM_STATIC_MAN
  2
AcImStaticVarManager
  3
AcMeServices
 90
        0
280
     0
281
     0
  0
CLASS
  1
ASAPP
  2
AcAsAppObject
  3
AutoSurfServices
 90
        0
280
     0
281
     0
  0
CLASS
  1
ACIMDBLSTATICVAR
  2
AcImDblStaticVar
  3
AcMeServices
 90
        0
280
     0
281
     0
  0
CLASS
  1
ACIMSTRSTATICVAR
  2
AcImStrStaticVar
  3
AcMeServices
 90
        0
280
     0
281
     0
  0
CLASS
  1
ACIMINTSTATICVAR
  2
AcImIntStaticVar
  3
AcMeServices
 90
        0
280
     0
281
     0
  0
CLASS
  1
CATALOGSTATE
  2
AcAmCatalogState
  3
DesignerAssemblies
 90
        0
280
     0
281
     0
  0
CLASS
  1
DM_PLACEHOLDER
  2
AcDmSelsetPlaceholder
  3
AcMechDwgViewMgmt
 90
        0
280
     0
281
     0
  0
CLASS
  1
LAYER_INDEX
  2
AcDbLayerIndex
  3
ObjectDBX Classes
 90
        0
280
     0
281
     0
  0
CLASS
  1
IDBUFFER
  2
AcDbIdBuffer
  3
ObjectDBX Classes
 90
        0
280
     0
281
     0
  0
CLASS
  1
ACMSTANDARDJIS
  2
AcmStandardJIS
  3
"Amdt_StdImp|Product Description: AutoCAD Mechanical 2004 DX|Company: Autodesk"
 90
    32768
280
     0
281
     0
  0
CLASS
  1
ACMSTANDARDANSI
  2
AcmStandardANSI
  3
"Amdt_StdImp|Product Description: AutoCAD Mechanical 2004 DX|Company: Autodesk"
 90
    32768
280
     0
281
     0
  0
CLASS
  1
ACMSTANDARDBSI
  2
AcmStandardBSI
  3
"Amdt_StdImp|Product Description: AutoCAD Mechanical 2004 DX|Company: Autodesk"
 90
    32768
280
     0
281
     0
  0
CLASS
  1
ACMSTANDARDDIN
  2
AcmStandardDIN
  3
"Amdt_StdImp|Product Description: AutoCAD Mechanical 2004 DX|Company: Autodesk"
 90
    32768
280
     0
281
     0
  0
CLASS
  1
ACMSTANDARDISO
  2
AcmStandardISO
  3
"Amdt_StdImp|Product Description: AutoCAD Mechanical 2004 DX|Company: Autodesk"
 90
        0
280
     0
281
     0
  0
CLASS
  1
ACDBDICTIONARYWDFLT
  2
AcDbDictionaryWithDefault
  3
ObjectDBX Classes
 90
        0
280
     0
281
     0
  0
CLASS
  1
ACDBPLACEHOLDER
  2
AcDbPlaceHolder
  3
ObjectDBX Classes
 90
        0
280
     0
281
     0
  0
CLASS
  1
LAYOUT
  2
AcDbLayout
  3
ObjectDBX Classes
 90
        0
280
     0
281
     0
  0
CLASS
  1
ACME_DOCUMENT
  2
AcMeDbDoc
  3
AcMeServices
 90
        0
280
     0
281
     0
  0
CLASS
  1
AMGSETTINGSOBJ
  2
AmgSettingsObj
  3
"AcadM|Product Description: AutoCAD Mechanical 2000|Company: Autodesk"
 90
        0
280
     0
281
     0
  0
CLASS
  1
AMGOBJPROPCFG
  2
AmgObjPropCfg
  3
"AmgLay|Product Description: AutoCAD Mechanical 2000|Company: Autodesk"
 90
        1
280
     0
281
     0
  0
CLASS
  1
ACDBENTITYCACHE
  2
AcMeEntityCache
  3
AcMeServices
 90
        0
280
     0
281
     0
  0
CLASS
  1
GSMANAGER
  2
AcMeGSManager
  3
AcMeServices
 90
        0
280
     0
281
     0
  0
CLASS
  1
AMDTINTERNALREACTOR
  2
AmdtInternalReactor
  3
AcMeServices
 90
        0
280
     0
281
     0
  0
CLASS
  1
ACME_DATABASE
  2
AcMeDbDatabase
  3
AcMeServices
 90
        0
280
     0
281
     0
  0
CLASS
  1
ACGREFACADMASTER
  2
AcGrefacadMaster
  3
AcGrefServices
 90
        0
280
     0
281
     0
  0
CLASS
  1
AMDTMENUSTATEMGR
  2
AmdtMenuStateMgr
  3
McadcomServices
 90
        0
280
     0
281
     0
  0
CLASS
  1
AMDTMCOMMENUSTATE
  2
AmdtMcomMenuState
  3
McadcomServices
 90
        0
280
     0
281
     0
  0
CLASS
  1
MAPIADMODULE
  2
MApiAdModule
  3
MApiAdServices
 90
        0
280
     0
281
     0
  0
CLASS
  1
AMDTDMMENUSTATE
  2
AmdtDmMenuState
  3
AcMechDwgViewMgmt
 90
        0
280
     0
281
     0
  0
CLASS
  1
AMDTADMENUSTATE
  2
AmdtAdMenuState
  3
DesignerServices
 90
        0
280
     0
281
     0
  0
CLASS
  1
AMDTAMMENUSTATE
  2
AmdtAmMenuState
  3
DesignerAssemblies
 90
        0
280
     0
281
     0
  0
CLASS
  1
ACMDATADICTIONARY
  2
AcmDataDictionary
  3
"AcmSymBB|Product Description: AutoCAD Mechanical 2004 DX|Company: Autodesk"
 90
        0
280
     0
281
     0
  0
CLASS
  1
ACMDATAENTRYBLOCK
  2
AcmDataEntryBlock
  3
"AcmSymBB|Product Description: AutoCAD Mechanical 2004 DX|Company: Autodesk"
 90
        0
280
     0
281
     0
  0
CLASS
  1
ACMSURFSTANDARDJIS
  2
AcmSurfTextStdJIS
  3
"Amdt_StdImp|Product Description: AutoCAD Mechanical 2004 DX|Company: Autodesk"
 90
    32768
280
     0
281
     0
  0
CLASS
  1
ACMFCFSTANDARDJIS
  2
AcmFCFStdJIS
  3
"Amdt_StdImp|Product Description: AutoCAD Mechanical 2004 DX|Company: Autodesk"
 90
    32768
280
     0
281
     0
  0
CLASS
  1
ACMWELDSTANDARDJIS
  2
AcmWeldingStdJIS
  3
"Amdt_StdImp|Product Description: AutoCAD Mechanical 2004 DX|Company: Autodesk"
 90
    32768
280
     0
281
     0
  0
CLASS
  1
ACMIDSTANDARDJIS
  2
AcmIdStdJIS
  3
"Amdt_StdImp|Product Description: AutoCAD Mechanical 2004 DX|Company: Autodesk"
 90
    32768
280
     0
281
     0
  0
CLASS
  1
ACMDATUMSTANDARDJIS
  2
AcmDatumStdJIS
  3
"Amdt_StdImp|Product Description: AutoCAD Mechanical 2004 DX|Company: Autodesk"
 90
    32768
280
     0
281
     0
  0
CLASS
  1
ACMBOMSTANDARDJIS
  2
AcmBOMStdJIS
  3
"Amdt_StdImp|Product Description: AutoCAD Mechanical 2004 DX|Company: Autodesk"
 90
    32768
280
     0
281
     0
  0
CLASS
  1
ACMSURFSTANDARDANSI
  2
AcmSurfTextStdANSI
  3
"Amdt_StdImp|Product Description: AutoCAD Mechanical 2004 DX|Company: Autodesk"
 90
    32768
280
     0
281
     0
  0
CLASS
  1
ACMFCFSTANDARDANSI
  2
AcmFCFStdANSI
  3
"Amdt_StdImp|Product Description: AutoCAD Mechanical 2004 DX|Company: Autodesk"
 90
    32768
280
     0
281
     0
  0
CLASS
  1
ACMWELDSTANDARDANSI
  2
AcmWeldingStdANSI
  3
"Amdt_StdImp|Product Description: AutoCAD Mechanical 2004 DX|Company: Autodesk"
 90
    32768
280
     0
281
     0
  0
CLASS
  1
ACMIDSTANDARDANSI
  2
AcmIdStdANSI
  3
"Amdt_StdImp|Product Description: AutoCAD Mechanical 2004 DX|Company: Autodesk"
 90
    32768
280
     0
281
     0
  0
CLASS
  1
ACMDATUMSTANDARDANSI
  2
AcmDatumStdANSI
  3
"Amdt_StdImp|Product Description: AutoCAD Mechanical 2004 DX|Company: Autodesk"
 90
    32768
280
     0
281
     0
  0
CLASS
  1
ACMBOMSTANDARDANSI
  2
AcmBOMStdANSI
  3
"Amdt_StdImp|Product Description: AutoCAD Mechanical 2004 DX|Company: Autodesk"
 90
    32768
280
     0
281
     0
  0
CLASS
  1
ACMSURFSTANDARDBSI
  2
AcmSurfTextStdBSI
  3
"Amdt_StdImp|Product Description: AutoCAD Mechanical 2004 DX|Company: Autodesk"
 90
    32768
280
     0
281
     0
  0
CLASS
  1
ACMFCFSTANDARDBSI
  2
AcmFCFStdBSI
  3
"Amdt_StdImp|Product Description: AutoCAD Mechanical 2004 DX|Company: Autodesk"
 90
    32768
280
     0
281
     0
  0
CLASS
  1
ACMWELDSTANDARDBSI
  2
AcmWeldingStdBSI
  3
"Amdt_StdImp|Product Description: AutoCAD Mechanical 2004 DX|Company: Autodesk"
 90
    32768
280
     0
281
     0
  0
CLASS
  1
ACMIDSTANDARDBSI
  2
AcmIdStdBSI
  3
"Amdt_StdImp|Product Description: AutoCAD Mechanical 2004 DX|Company: Autodesk"
 90
    32768
280
     0
281
     0
  0
CLASS
  1
ACMDATUMSTANDARDBSI
  2
AcmDatumStdBSI
  3
"Amdt_StdImp|Product Description: AutoCAD Mechanical 2004 DX|Company: Autodesk"
 90
    32768
280
     0
281
     0
  0
CLASS
  1
ACMBOMSTANDARDBSI
  2
AcmBOMStdBSI
  3
"Amdt_StdImp|Product Description: AutoCAD Mechanical 2004 DX|Company: Autodesk"
 90
    32768
280
     0
281
     0
  0
CLASS
  1
AMDTEDGESTANDARDDIN
  2
AmdtEdgeStdDIN
  3
"Amdt_StdImp|Product Description: AutoCAD Mechanical 2004 DX|Company: Autodesk"
 90
    32768
280
     0
281
     0
  0
CLASS
  1
ACMSURFSTANDARDDIN
  2
AcmSurfTextStdDIN
  3
"Amdt_StdImp|Product Description: AutoCAD Mechanical 2004 DX|Company: Autodesk"
 90
    32768
280
     0
281
     0
  0
CLASS
  1
ACMFCFSTANDARDDIN
  2
AcmFCFStdDIN
  3
"Amdt_StdImp|Product Description: AutoCAD Mechanical 2004 DX|Company: Autodesk"
 90
    32768
280
     0
281
     0
  0
CLASS
  1
ACMWELDSTANDARDDIN
  2
AcmWeldingStdDIN
  3
"Amdt_StdImp|Product Description: AutoCAD Mechanical 2004 DX|Company: Autodesk"
 90
    32768
280
     0
281
     0
  0
CLASS
  1
ACMIDSTANDARDDIN
  2
AcmIdStdDIN
  3
"Amdt_StdImp|Product Description: AutoCAD Mechanical 2004 DX|Company: Autodesk"
 90
    32768
280
     0
281
     0
  0
CLASS
  1
ACMDATUMSTANDARDDIN
  2
AcmDatumStdDIN
  3
"Amdt_StdImp|Product Description: AutoCAD Mechanical 2004 DX|Company: Autodesk"
 90
    32768
280
     0
281
     0
  0
CLASS
  1
ACMBOMSTANDARDDIN
  2
AcmBOMStdDIN
  3
"Amdt_StdImp|Product Description: AutoCAD Mechanical 2004 DX|Company: Autodesk"
 90
    32768
280
     0
281
     0
  0
CLASS
  1
ACMSURFSTANDARDISO
  2
AcmSurfTextStdISO
  3
"Amdt_StdImp|Product Description: AutoCAD Mechanical 2004 DX|Company: Autodesk"
 90
        0
280
     0
281
     0
  0
CLASS
  1
ACMFCFSTANDARDISO
  2
AcmFCFStdISO
  3
"Amdt_StdImp|Product Description: AutoCAD Mechanical 2004 DX|Company: Autodesk"
 90
        0
280
     0
281
     0
  0
CLASS
  1
ACMWELDSTANDARDISO
  2
AcmWeldingStdISO
  3
"Amdt_StdImp|Product Description: AutoCAD Mechanical 2004 DX|Company: Autodesk"
 90
        0
280
     0
281
     0
  0
CLASS
  1
ACMIDSTANDARDISO
  2
AcmIdStdISO
  3
"Amdt_StdImp|Product Description: AutoCAD Mechanical 2004 DX|Company: Autodesk"
 90
        0
280
     0
281
     0
  0
CLASS
  1
ACMDATUMSTANDARDISO
  2
AcmDatumStdISO
  3
"Amdt_StdImp|Product Description: AutoCAD Mechanical 2004 DX|Company: Autodesk"
 90
        0
280
     0
281
     0
  0
CLASS
  1
ACMBOMSTANDARDISO
  2
AcmBOMStdISO
  3
"Amdt_StdImp|Product Description: AutoCAD Mechanical 2004 DX|Company: Autodesk"
 90
        0
280
     0
281
     0
  0
CLASS
  1
AMDTBROWSERDBTAB
  2
AmdtBrowserDbTab
  3
McadcomServices
 90
        0
280
     0
281
     0
  0
CLASS
  1
ACAMGFILTERDAT
  2
AcAmgFilterDat
  3
"AcadM|Product Description: AutoCAD Mechanical 2000|Company: Autodesk"
 90
    32768
280
     0
281
     0
  0
CLASS
  1
MAPIAMMOUDLE
  2
MApiAmModule
  3
MApiAmServices
 90
        0
280
     0
281
     0
  0
CLASS
  1
AMDTMAPISURFMOUDULE
  2
AmdtMApiSurfModule
  3
MApiSurfServices
 90
        0
280
     0
281
     0
  0
CLASS
  1
ACAMGLAYSTD
  2
AcAmgLayStd
  3
"AcAmgLayStd|Product Description: AutoCAD Mechanical 2000|Company: Autodesk"
 90
        0
280
     0
281
     0
  0
CLASS
  1
ACAMGDIMSTD
  2
AcAmgDimStd
  3
"AcAmgDimStd|Product Description: AutoCAD Mechanical 2000|Company: Autodesk"
 90
        0
280
     0
281
     0
  0
CLASS
  1
ACAMGTITLESTD
  2
AcAmgTitleStd
  3
"TITLEAPP"
 90
        0
280
     0
281
     0
  0
CLASS
  1
ACMDETAILSTANDARDJIS
  2
AmdtDetailSymStdJIS
  3
"Amdt_StdImp|Product Description: AutoCAD Mechanical 2004 DX|Company: Autodesk"
 90
    32768
280
     0
281
     0
  0
CLASS
  1
ACMSECTIONSTANDARDJIS
  2
AmdtSectionSymStdJIS
  3
"Amdt_StdImp|Product Description: AutoCAD Mechanical 2004 DX|Company: Autodesk"
 90
    32768
280
     0
281
     0
  0
CLASS
  1
ACMCENTERLINESTANDARDJIS
  2
AmdtCenterLineStdJIS
  3
"Amdt_StdImp|Product Description: AutoCAD Mechanical 2004 DX|Company: Autodesk"
 90
    32768
280
     0
281
     0
  0
CLASS
  1
ACMTHREADLINESTANDARDJIS
  2
AmdtThreadLineStdJIS
  3
"Amdt_StdImp|Product Description: AutoCAD Mechanical 2004 DX|Company: Autodesk"
 90
    32768
280
     0
281
     0
  0
CLASS
  1
ACMDETAILSTANDARDANSI
  2
AmdtDetailSymStdANSI
  3
"Amdt_StdImp|Product Description: AutoCAD Mechanical 2004 DX|Company: Autodesk"
 90
    32768
280
     0
281
     0
  0
CLASS
  1
ACMSECTIONSTANDARDANSI
  2
AmdtSectionSymStdANSI
  3
"Amdt_StdImp|Product Description: AutoCAD Mechanical 2004 DX|Company: Autodesk"
 90
    32768
280
     0
281
     0
  0
CLASS
  1
ACMCENTERLINESTANDARDANSI
  2
AmdtCenterLineStdANSI
  3
"Amdt_StdImp|Product Description: AutoCAD Mechanical 2004 DX|Company: Autodesk"
 90
    32768
280
     0
281
     0
  0
CLASS
  1
ACMTHREADLINESTANDARDANSI
  2
AmdtThreadLineStdANSI
  3
"Amdt_StdImp|Product Description: AutoCAD Mechanical 2004 DX|Company: Autodesk"
 90
    32768
280
     0
281
     0
  0
CLASS
  1
ACMDETAILSTANDARDBSI
  2
AmdtDetailSymStdBSI
  3
"Amdt_StdImp|Product Description: AutoCAD Mechanical 2004 DX|Company: Autodesk"
 90
    32768
280
     0
281
     0
  0
CLASS
  1
ACMSECTIONSTANDARDBSI
  2
AmdtSectionSymStdBSI
  3
"Amdt_StdImp|Product Description: AutoCAD Mechanical 2004 DX|Company: Autodesk"
 90
    32768
280
     0
281
     0
  0
CLASS
  1
ACMCENTERLINESTANDARDBSI
  2
AmdtCenterLineStdBSI
  3
"Amdt_StdImp|Product Description: AutoCAD Mechanical 2004 DX|Company: Autodesk"
 90
    32768
280
     0
281
     0
  0
CLASS
  1
ACMTHREADLINESTANDARDBSI
  2
AmdtThreadLineStdBSI
  3
"Amdt_StdImp|Product Description: AutoCAD Mechanical 2004 DX|Company: Autodesk"
 90
    32768
280
     0
281
     0
  0
CLASS
  1
ACMDETAILSTANDARDDIN
  2
AmdtDetailSymStdDIN
  3
"Amdt_StdImp|Product Description: AutoCAD Mechanical 2004 DX|Company: Autodesk"
 90
    32768
280
     0
281
     0
  0
CLASS
  1
ACMSECTIONSTANDARDDIN
  2
AmdtSectionSymStdDIN
  3
"Amdt_StdImp|Product Description: AutoCAD Mechanical 2004 DX|Company: Autodesk"
 90
    32768
280
     0
281
     0
  0
CLASS
  1
ACMCENTERLINESTANDARDDIN
  2
AmdtCenterLineStdDIN
  3
"Amdt_StdImp|Product Description: AutoCAD Mechanical 2004 DX|Company: Autodesk"
 90
    32768
280
     0
281
     0
  0
CLASS
  1
ACMTHREADLINESTANDARDDIN
  2
AmdtThreadLineStdDIN
  3
"Amdt_StdImp|Product Description: AutoCAD Mechanical 2004 DX|Company: Autodesk"
 90
    32768
280
     0
281
     0
  0
CLASS
  1
AMDTEDGESTANDARDISO
  2
AmdtEdgeStdISO
  3
"Amdt_StdImp|Product Description: AutoCAD Mechanical 2004 DX|Company: Autodesk"
 90
    32768
280
     0
281
     0
  0
CLASS
  1
ACMDETAILSTANDARDISO
  2
AmdtDetailSymStdISO
  3
"Amdt_StdImp|Product Description: AutoCAD Mechanical 2004 DX|Company: Autodesk"
 90
        0
280
     0
281
     0
  0
CLASS
  1
ACMSECTIONSTANDARDISO
  2
AmdtSectionSymStdISO
  3
"Amdt_StdImp|Product Description: AutoCAD Mechanical 2004 DX|Company: Autodesk"
 90
        0
280
     0
281
     0
  0
CLASS
  1
ACMCENTERLINESTANDARDISO
  2
AmdtCenterLineStdISO
  3
"Amdt_StdImp|Product Description: AutoCAD Mechanical 2004 DX|Company: Autodesk"
 90
        0
280
     0
281
     0
  0
CLASS
  1
ACMTHREADLINESTANDARDISO
  2
AmdtThreadLineStdISO
  3
"Amdt_StdImp|Product Description: AutoCAD Mechanical 2004 DX|Company: Autodesk"
 90
        0
280
     0
281
     0
  0
CLASS
  1
ACMNOTESTANDARDISO
  2
AmdtNoteStdISO
  3
"Amdt_StdImp|Product Description: AutoCAD Mechanical 2004 DX|Company: Autodesk"
 90
        0
280
     0
281
     0
  0
CLASS
  1
ACAMGHOLECHARTSTDISO
  2
AcAmgHoleChartStdISO
  3
ACMSYMBB_MODULE_NAME
 90
        0
280
     0
281
     0
  0
CLASS
  1
ACMNOTESTANDARDANSI
  2
AmdtNoteStdANSI
  3
"Amdt_StdImp|Product Description: AutoCAD Mechanical 2004 DX|Company: Autodesk"
 90
    32768
280
     0
281
     0
  0
CLASS
  1
AMDTNOTETEMPLATEDB
  2
AmdtNoteTemplateDB
  3
AMDT_STDIMP_MODULE_NAME
 90
        0
280
     0
281
     0
  0
CLASS
  1
ACAMGHOLECHARTSTDANSI
  2
AcAmgHoleChartStdANSI
  3
ACMSYMBB_MODULE_NAME
 90
    32768
280
     0
281
     0
  0
CLASS
  1
TABLESTYLE
  2
AcDbTableStyle
  3
ObjectDBX Classes
 90
     2047
280
     0
281
     0
  0
CLASS
  1
ACMBOM
  2
AcmBom
  3
"AcmSymBB|Product Description: AutoCAD Mechanical 2004 DX|Company: Autodesk"
 90
    32768
280
     0
281
     0
  0
CLASS
  1
AMDTFORMULAUPDATEDISPATCHER
  2
AmdtFormulaUpdateDispatcher
  3
AcMeServices
 90
    32768
280
     0
281
     0
  0
CLASS
  1
ACMPARTLIST
  2
AcmPartList
  3
"AcmSymBB|Product Description: AutoCAD Mechanical 2004 DX|Company: Autodesk"
 90
    33791
280
     0
281
     1
  0
CLASS
  1
VAACXREFPANELOBJECT
  2
VaAcXREFPanelObject
  3
VAAC_ADDIN
 90
    32768
280
     1
281
     0
  0
CLASS
  1
VAACIMAGEINVENTORY
  2
VaAcImageInventory
  3
VAAC_ADDIN
 90
    32768
280
     1
281
     0
  0
CLASS
  1
ADPART
  2
AcAdPart
  3
DesignerServices
 90
    32768
280
     0
281
     1
  0
CLASS
  1
ADBASE
  2
AcAdBase
  3
DesignerServices
 90
    32768
280
     0
281
     0
  0
CLASS
  1
BODYID
  2
AcAdBodyId
  3
DesignerServices
 90
    32768
280
     0
281
     0
  0
CLASS
  1
WORKPLANEDISPLAYMGR
  2
AcAdDisplayMgr
  3
DesignerServices
 90
    32768
280
     0
281
     0
  0
CLASS
  1
ACCMBODY
  2
AcCmBody
  3
DesignerAssemblies
 90
    32768
280
     0
281
     0
  0
CLASS
  1
ACAMCOMPENT
  2
AcAmCompEnt
  3
DesignerAssemblies
 90
    32768
280
     0
281
     1
  0
CLASS
  1
ACAMCOMPFEEDBACK
  2
AcAmCompFeedback
  3
DesignerAssemblies
 90
    32768
280
     0
281
     0
  0
CLASS
  1
ACAMCOMP
  2
AcAmComp
  3
DesignerAssemblies
 90
    32768
280
     0
281
     0
  0
CLASS
  1
ACAMCOMPENTCLONE
  2
AcAmCompEntClone
  3
DesignerAssemblies
 90
    32768
280
     0
281
     1
  0
CLASS
  1
ACAMCLONEREACTOR
  2
AcAmGrCompCloneReactor
  3
DesignerAssemblies
 90
    32768
280
     0
281
     0
  0
CLASS
  1
ASSURFACE
  2
AcAsSurfBody
  3
AutoSurfServices
 90
    32768
280
     0
281
     1
  0
CLASS
  1
ACAMCLONECHILDREACTOR
  2
AcAmGrCloneChildReactor
  3
DesignerAssemblies
 90
    32768
280
     0
281
     0
  0
CLASS
  1
ACAMVIEWREACTOR
  2
AcAmViewReactor
  3
DesignerAssemblies
 90
    32768
280
     0
281
     0
  0
CLASS
  1
AMVIEW
  2
AcAmView
  3
DesignerAssemblies
 90
    32768
280
     0
281
     0
  0
CLASS
  1
ACAMVIEWCONTEXT
  2
AcAmViewContext
  3
DesignerAssemblies
 90
    32768
280
     0
281
     0
  0
CLASS
  1
ACAMCOMPENTVIEW
  2
AcAmCompEntView
  3
DesignerAssemblies
 90
    32768
280
     0
281
     1
  0
CLASS
  1
ACAMCOMPVIEWREACTOR
  2
AcAmGrCompViewReactor
  3
DesignerAssemblies
 90
    32768
280
     0
281
     0
  0
CLASS
  1
ACAMVIEWENTITYFILTER
  2
AcAmViewEntityFilter
  3
DesignerAssemblies
 90
    32768
280
     0
281
     0
  0
CLASS
  1
FACEID
  2
AcAdFaceId
  3
DesignerServices
 90
    32768
280
     0
281
     0
  0
CLASS
  1
ACADPARTPLANARFACERES
  2
AcAdPartPlanarFaceRes
  3
AdGrefServices
 90
    32768
280
     0
281
     0
  0
CLASS
  1
ACRFINSADJ
  2
AcRfInsAdjuster
  3
AcMeServices
 90
    32768
280
     0
281
     0
  0
CLASS
  1
AM_GREF_PLANE
  2
AcDmGrefPlnDef
  3
AcMechDwgViewMgmt
 90
    32768
280
     0
281
     0
  0
CLASS
  1
AM_ABS_AXIS
  2
AcDmAbsAxisDef
  3
AcMechDwgViewMgmt
 90
    32768
280
     0
281
     0
  0
CLASS
  1
AM_BASE_VIEW_ORIENT
  2
AcDmBaseViewOr
  3
AcMechDwgViewMgmt
 90
    32768
280
     0
281
     0
  0
CLASS
  1
ACMELINEARARROW
  2
AcImLinearArrowDisplay
  3
AcMeServices
 90
    32768
280
     0
281
     1
  0
CLASS
  1
AM_DWG_VIEWPORT
  2
AcDmViewport
  3
AcMechDwgViewMgmt
 90
    32768
280
     0
281
     0
  0
CLASS
  1
AM_VIEW_DISPLAY
  2
AcDmDwgViewDisplay
  3
AcMechDwgViewMgmt
 90
    32768
280
     0
281
     0
  0
CLASS
  1
AM_CLDFLTS
  2
AcDmClDflts
  3
AcMechDwgViewMgmt
 90
    32768
280
     0
281
     0
  0
CLASS
  1
AM_BASE_VIEW
  2
AcDmBaseView
  3
AcMechDwgViewMgmt
 90
    32768
280
     0
281
     0
  0
CLASS
  1
ACMEPLINE
  2
AcImPlineDisplay
  3
AcMeServices
 90
    32768
280
     0
281
     1
  0
CLASS
  1
ACDMPARTVIEWDATA
  2
AcDmPartViewData
  3
AcMechDwgViewMgmt
 90
    32768
280
     0
281
     0
  0
CLASS
  1
ACDMDISPLAYATTRIBS
  2
AcDmDisplayAttribs
  3
AcMechDwgViewMgmt
 90
    32768
280
     0
281
     0
  0
CLASS
  1
ACDMBODYINSTANCEDATA
  2
AcDmBodyInstanceData
  3
AcMechDwgViewMgmt
 90
    32768
280
     0
281
     0
  0
CLASS
  1
ACDMVWEDLINE
  2
AcDmViewEdgeLine
  3
AcMechDwgViewMgmt
 90
    32768
280
     0
281
     1
  0
CLASS
  1
ACDMVWEDSPLINE
  2
AcDmViewEdgeSpline
  3
AcMechDwgViewMgmt
 90
    32768
280
     0
281
     1
  0
CLASS
  1
ACDMVWEDELLIPSE
  2
AcDmViewEdgeEllipse
  3
AcMechDwgViewMgmt
 90
    32768
280
     0
281
     1
  0
CLASS
  1
ACDMVWEDARC
  2
AcDmViewEdgeArc
  3
AcMechDwgViewMgmt
 90
    32768
280
     0
281
     1
  0
CLASS
  1
ACDMVWEDCIRC
  2
AcDmViewEdgeCircle
  3
AcMechDwgViewMgmt
 90
    32768
280
     0
281
     1
  0
CLASS
  1
AM_ORTHO_VIEW_ORIENT
  2
AcDmOrthoViewOr
  3
AcMechDwgViewMgmt
 90
    32768
280
     0
281
     0
  0
CLASS
  1
AM_ORTHO_VIEW
  2
AcDmOrthoView
  3
AcMechDwgViewMgmt
 90
    32768
280
     0
281
     0
  0
CLASS
  1
AMDTEDGESTANDARDISO13715
  2
AmdtEdgeStdISO13715
  3
"Amdt_StdImp|Product Description: AutoCAD Mechanical 2004 DX|Company: Autodesk"
 90
        0
280
     0
281
     0
  0
CLASS
  1
ACRFATTGENMGR
  2
AcRfAttGeneralMgr
  3
AcAttribServices
 90
    32768
280
     0
281
     0
  0
CLASS
  1
SORTENTSTABLE
  2
AcDbSortentsTable
  3
ObjectDBX Classes
 90
        0
280
     0
281
     0
  0
ENDSEC
  0
SECTION
  2
TABLES
  0
TABLE
  2
VPORT
  5
1E
330
0
100
AcDbSymbolTable
 70
     1
  0
VPORT
  5
1F
330
1E
100
AcDbSymbolTableRecord
100
AcDbViewportTableRecord
  2
*Active
 70
     0
 10
0.0
 20
0.0
 11
1.0
 21
1.0
 12
0.0
 22
0.0
 13
0.0
 23
0.0
 14
2.5
 24
2.5
 15
10.0
 25
10.0
 16
0.0
 26
0.0
 36
1.0
 17
0.0
 27
0.0
 37
0.0
 40
2.000000000000000E+20
 41
1.0
 42
50.0
 43
0.0
 44
0.0
 50
0.0
 51
0.0
 71
     0
 72
   100
 73
     1
 74
     1
 75
     0
 76
     0
 77
     0
 78
     0
281
     0
 65
     0
110
0.0
120
0.0
130
0.0
111
1.0
121
0.0
131
0.0
112
0.0
122
1.0
132
0.0
 79
     0
146
0.0
  0
ENDTAB
  0
TABLE
  2
LTYPE
  5
19
330
0
100
AcDbSymbolTable
 70
    16
  0
LTYPE
  5
1A
330
19
100
AcDbSymbolTableRecord
100
AcDbLinetypeTableRecord
  2
BYBLOCK
 70
     0
  3

 72
    65
 73
     0
 40
0.0
  0
LTYPE
  5
1B
330
19
100
AcDbSymbolTableRecord
100
AcDbLinetypeTableRecord
  2
BYLAYER
 70
     0
  3

 72
    65
 73
     0
 40
0.0
  0
LTYPE
  5
9
330
19
100
AcDbSymbolTableRecord
100
AcDbLinetypeTableRecord
  2
CONTINUOUS
 70
     0
  3
Solid line
 72
    65
 73
     0
 40
0.0
  0
LTYPE
  5
111
330
19
100
AcDbSymbolTableRecord
100
AcDbLinetypeTableRecord
  2
HIDDEN
 70
     0
  3
Hidden __ __ __ __ __ __ __ __ __ __ __ __ __ _
 72
    65
 73
     2
 40
9.524999999999998
 49
6.349999999999999
 74
     0
 49
-3.174999999999999
 74
     0
  0
LTYPE
  5
112
330
19
100
AcDbSymbolTableRecord
100
AcDbLinetypeTableRecord
  2
PHANTOM2
 70
     0
  3
Phantom (.5x) ___ _ _ ___ _ _ ___ _ _ ___ _ _
 72
    65
 73
     6
 40
31.75
 49
15.875
 74
     0
 49
-3.174999999999999
 74
     0
 49
3.174999999999999
 74
     0
 49
-3.174999999999999
 74
     0
 49
3.174999999999999
 74
     0
 49
-3.174999999999999
 74
     0
  0
LTYPE
  5
113
330
19
100
AcDbSymbolTableRecord
100
AcDbLinetypeTableRecord
  2
CENTER
 70
     0
  3
Center ____ _ ____ _ ____ _ ____ _ ____ _ ____
 72
    65
 73
     4
 40
50.8
 49
31.75
 74
     0
 49
-6.349999999999999
 74
     0
 49
6.349999999999999
 74
     0
 49
-6.349999999999999
 74
     0
  0
LTYPE
  5
147
330
19
100
AcDbSymbolTableRecord
100
AcDbLinetypeTableRecord
  2
AM_ISO02W050
 70
     0
  3
__ __ __ __ __ __ __ __ __ __ __ __ __ __ __
 72
    65
 73
     2
 40
7.5
 49
6.0
 74
     0
 49
-1.5
 74
     0
  0
LTYPE
  5
148
330
19
100
AcDbSymbolTableRecord
100
AcDbLinetypeTableRecord
  2
AM_ISO08W050
 70
     0
  3
____ . ____ . ____ . ____ . ____ . ____ . ____
 72
    65
 73
     4
 40
18.0
 49
12.0
 74
     0
 49
-1.5
 74
     0
 49
3.0
 74
     0
 49
-1.5
 74
     0
  0
LTYPE
  5
149
330
19
100
AcDbSymbolTableRecord
100
AcDbLinetypeTableRecord
  2
AM_ISO09W050
 70
     0
  3
_____ . . _____ . . _____ . . ____ .. ____
 72
    65
 73
     6
 40
22.5
 49
12.0
 74
     0
 49
-1.5
 74
     0
 49
3.0
 74
     0
 49
-1.5
 74
     0
 49
3.0
 74
     0
 49
-1.5
 74
     0
  0
LTYPE
  5
14A
330
19
100
AcDbSymbolTableRecord
100
AcDbLinetypeTableRecord
  2
Amconstr
 70
     0
  3
_______________________
 72
    65
 73
     2
 40
9999.0
 49
9999.0
 74
     0
 49
0.0
 74
     0
  0
LTYPE
  5
14B
330
19
100
AcDbSymbolTableRecord
100
AcDbLinetypeTableRecord
  2
AM_ISO08W050x2
 70
     0
  3
__ . __ . __ . __ . __ . __
 72
    65
 73
     4
 40
9.0
 49
6.0
 74
     0
 49
-0.75
 74
     0
 49
1.5
 74
     0
 49
-0.75
 74
     0
  0
LTYPE
  5
14C
330
19
100
AcDbSymbolTableRecord
100
AcDbLinetypeTableRecord
  2
AM_ISO02W050x2
 70
     0
  3
 _ _ _ _ _ _ _ _ _ _ _ _
 72
    65
 73
     2
 40
3.75
 49
3.0
 74
     0
 49
-0.75
 74
     0
  0
LTYPE
  5
14F
330
19
100
AcDbSymbolTableRecord
100
AcDbLinetypeTableRecord
  2
Amzigzag
 70
     0
  3
/\/-/\/-/\/-/\/-/\/-/\/
 72
    65
 73
     2
 40
11.0001
 49
0.0001
 74
     4
 75
   135
340
14E
 46
0.04
 50
0.0
 44
0.0
 45
0.0
 49
-11.0
 74
     0
  0
LTYPE
  5
15E
330
19
100
AcDbSymbolTableRecord
100
AcDbLinetypeTableRecord
  2
ACISOWELD
 70
     0
  3
_ _ _ _ _
 72
    65
 73
     2
 40
2.0
 49
2.0
 74
     0
 49
-1.0
 74
     0
  0
LTYPE
  5
15F
330
19
100
AcDbSymbolTableRecord
100
AcDbLinetypeTableRecord
  2
ACISOTGB
 70
     0
  3
__ . . __ . .
 72
    65
 73
     6
 40
9.0
 49
4.0
 74
     0
 49
-1.0
 74
     0
 49
1.0
 74
     0
 49
-1.0
 74
     0
 49
1.0
 74
     0
 49
-1.0
 74
     0
  0
LTYPE
  5
160
330
19
100
AcDbSymbolTableRecord
100
AcDbLinetypeTableRecord
  2
ACISOTGL
 70
     0
  3
_ _ _ _ _
 72
    65
 73
     2
 40
3.0
 49
2.0
 74
     0
 49
-1.0
 74
     0
  0
LTYPE
  5
6CB
330
19
100
AcDbSymbolTableRecord
100
AcDbLinetypeTableRecord
  2
ASULTYPE
 70
     0
  3
實線
 72
    65
 73
     2
 40
3.0
 49
2.5
 74
     0
 49
0.5
 74
     0
  0
LTYPE
  5
6CC
330
19
100
AcDbSymbolTableRecord
100
AcDbLinetypeTableRecord
  2
ASVLTYPE
 70
     0
  3
__ __ __ __ __ __ __ __ __ __ __ __ __ __ __ __ __ __ __ __ __
 72
    65
 73
     2
 40
0.75
 49
0.5
 74
     0
 49
-0.25
 74
     0
  0
ENDTAB
  0
TABLE
  2
LAYER
  5
13
102
{ACAD_XDICTIONARY
360
14
102
}
330
0
100
AcDbSymbolTable
 70
     7
  0
LAYER
  5
5
330
13
100
AcDbSymbolTableRecord
100
AcDbLayerTableRecord
  2
0
 70
     0
 62
     7
  6
CONTINUOUS
370
    -3
390
6
  0
LAYER
  5
3E
330
13
100
AcDbSymbolTableRecord
100
AcDbLayerTableRecord
  2
AM_VIS
 70
     0
 62
     7
  6
CONTINUOUS
370
    50
390
6
  0
LAYER
  5
177
330
13
100
AcDbSymbolTableRecord
100
AcDbLayerTableRecord
  2
LOGO
 70
     0
 62
     7
  6
CONTINUOUS
370
    -3
390
6
  0
LAYER
  5
27F
330
13
100
AcDbSymbolTableRecord
100
AcDbLayerTableRecord
  2
AM_7
 70
     0
 62
     1
  6
AM_ISO08W050x2
370
    25
390
6
  0
LAYER
  5
28A
330
13
100
AcDbSymbolTableRecord
100
AcDbLayerTableRecord
  2
HIDDEN
 70
     0
 62
     3
  6
AM_ISO02W050x2
370
    -3
390
6
1001
AcAecLayerStandard
1000

1000

  0
LAYER
  5
290
330
13
100
AcDbSymbolTableRecord
100
AcDbLayerTableRecord
  2
AM_5
 70
     0
 62
     5
  6
CONTINUOUS
370
    50
390
6
  0
LAYER
  5
29E
330
13
100
AcDbSymbolTableRecord
100
AcDbLayerTableRecord
  2
Defpoints
 70
     0
 62
     7
  6
CONTINUOUS
290
     0
370
    -3
390
6
  0
ENDTAB
  0
TABLE
  2
STYLE
  5
16
330
0
100
AcDbSymbolTable
 70
     5
  0
STYLE
  5
17
330
16
100
AcDbSymbolTableRecord
100
AcDbTextStyleTableRecord
  2
STANDARD
 70
     0
 40
0.0
 41
1.0
 50
0.0
 71
     0
 42
1.0
  3
ISOCP.SHX
  4
CHINESET.SHX
  0
STYLE
  5
14E
330
16
100
AcDbSymbolTableRecord
100
AcDbTextStyleTableRecord
  2

 70
     1
 40
0.0
 41
1.0
 50
0.0
 71
     0
 42
1.0
  3
ltypeshp.shx
  4

  0
STYLE
  5
150
330
16
100
AcDbSymbolTableRecord
100
AcDbTextStyleTableRecord
  2
ACISOTS
 70
     0
 40
1.0
 41
1.0
 50
0.0
 71
     0
 42
1.0
  3
isocp.shx
  4
chineset.shx
  0
STYLE
  5
15D
330
16
100
AcDbSymbolTableRecord
100
AcDbTextStyleTableRecord
  2
ACISOGDT
 70
     0
 40
0.0
 41
1.0
 50
0.0
 71
     0
 42
1.0
  3
amgdt.shx
  4

  0
STYLE
  5
178
330
16
100
AcDbSymbolTableRecord
100
AcDbTextStyleTableRecord
  2
CHINESET
 70
     0
 40
0.0
 41
1.0
 50
0.0
 71
     0
 42
1.0
  3
simplex
  4
CHINESET.SHX
  0
ENDTAB
  0
TABLE
  2
VIEW
  5
1C
330
0
100
AcDbSymbolTable
 70
     0
  0
ENDTAB
  0
TABLE
  2
UCS
  5
1D
330
0
100
AcDbSymbolTable
 70
     0
  0
ENDTAB
  0
TABLE
  2
APPID
  5
20
330
0
100
AcDbSymbolTable
 70
    25
  0
APPID
  5
21
330
20
100
AcDbSymbolTableRecord
100
AcDbRegAppTableRecord
  2
ACAD
 70
     0
  0
APPID
  5
E4
330
20
100
AcDbSymbolTableRecord
100
AcDbRegAppTableRecord
  2
MCAD_NO_VIS
 70
     0
  0
APPID
  5
E5
330
20
100
AcDbSymbolTableRecord
100
AcDbRegAppTableRecord
  2
ACAD_TEMP_GRAPHIC
 70
     0
  0
APPID
  5
115
330
20
100
AcDbSymbolTableRecord
100
AcDbRegAppTableRecord
  2
AD_DRAW
 70
     0
  0
APPID
  5
118
330
20
100
AcDbSymbolTableRecord
100
AcDbRegAppTableRecord
  2
ACATTRIBSERVICES
 70
     0
  0
APPID
  5
136
330
20
100
AcDbSymbolTableRecord
100
AcDbRegAppTableRecord
  2
DESIGNERASSEMBLIES
 70
     0
  0
APPID
  5
13C
330
20
100
AcDbSymbolTableRecord
100
AcDbRegAppTableRecord
  2
ACADM_DIM_EDIT
 70
     0
  0
APPID
  5
13D
330
20
100
AcDbSymbolTableRecord
100
AcDbRegAppTableRecord
  2
AMDT_DM_ADJ
 70
     0
  0
APPID
  5
17A
330
20
100
AcDbSymbolTableRecord
100
AcDbRegAppTableRecord
  2
ACAD_PSEXT
 70
     0
  0
APPID
  5
17B
330
20
100
AcDbSymbolTableRecord
100
AcDbRegAppTableRecord
  2
GENIUS_GENOBJ-N-CRS_13
 70
     0
  0
APPID
  5
17C
330
20
100
AcDbSymbolTableRecord
100
AcDbRegAppTableRecord
  2
GENIUS_GENOLIS_13
 70
     0
  0
APPID
  5
17D
330
20
100
AcDbSymbolTableRecord
100
AcDbRegAppTableRecord
  2
GENIUS_GENOENT_13
 70
     0
  0
APPID
  5
17E
330
20
100
AcDbSymbolTableRecord
100
AcDbRegAppTableRecord
  2
GENIUS_GENODEF_13
 70
     0
  0
APPID
  5
17F
330
20
100
AcDbSymbolTableRecord
100
AcDbRegAppTableRecord
  2
GENIUS_GENOREF_13
 70
     0
  0
APPID
  5
180
330
20
100
AcDbSymbolTableRecord
100
AcDbRegAppTableRecord
  2
GENIUS_GENREC_14
 70
     0
  0
APPID
  5
181
330
20
100
AcDbSymbolTableRecord
100
AcDbRegAppTableRecord
  2
GENIUS_GENOBJ-N-REC_13
 70
     0
  0
APPID
  5
281
330
20
100
AcDbSymbolTableRecord
100
AcDbRegAppTableRecord
  2
GENIUS_GENOBJ-N-CEN_13
 70
     0
  0
APPID
  5
282
330
20
100
AcDbSymbolTableRecord
100
AcDbRegAppTableRecord
  2
GENIUS_GENCEN_19
 70
     0
  0
APPID
  5
28B
330
20
100
AcDbSymbolTableRecord
100
AcDbRegAppTableRecord
  2
AcAecLayerStandard
 70
     0
  0
APPID
  5
3CB
330
20
100
AcDbSymbolTableRecord
100
AcDbRegAppTableRecord
  2
GENIUS_GENDIMSH_14
 70
     0
  0
APPID
  5
3F8
330
20
100
AcDbSymbolTableRecord
100
AcDbRegAppTableRecord
  2
GENIUS_GENDTOL_13
 70
     0
  0
APPID
  5
64E
330
20
100
AcDbSymbolTableRecord
100
AcDbRegAppTableRecord
  2
GENIUS_GENDIM_13
 70
     0
  0
APPID
  5
64F
330
20
100
AcDbSymbolTableRecord
100
AcDbRegAppTableRecord
  2
GENIUS_GE3DTOL_13
 70
     0
  0
APPID
  5
6CD
330
20
100
AcDbSymbolTableRecord
100
AcDbRegAppTableRecord
  2
ASURF_PCURVE_APPNAME
 70
     0
  0
APPID
  5
6D2
330
20
100
AcDbSymbolTableRecord
100
AcDbRegAppTableRecord
  2
AMG_3D2D_5.0
 70
     0
  0
ENDTAB
  0
TABLE
  2
DIMSTYLE
  5
22
330
0
100
AcDbSymbolTable
 70
     8
100
AcDbDimStyleTable
 71
     3
340
23
340
24
340
25
  0
DIMSTYLE
105
23
330
22
100
AcDbSymbolTableRecord
100
AcDbDimStyleTableRecord
  2
AM_ISO
 70
     0
  4
"
 41
2.5
 42
1.0
 43
10.0
 44
1.0
 47
0.1
 48
0.1
 73
     0
 74
     0
 77
     1
 78
     8
 79
     2
140
3.5
141
0.0
143
0.0393701
146
0.71
147
1.5
172
     1
176
   256
177
   256
178
   256
271
     2
272
     3
274
     4
283
     0
284
     8
340
17
371
    -1
372
    -1
  0
DIMSTYLE
105
24
330
22
100
AcDbSymbolTableRecord
100
AcDbDimStyleTableRecord
  2
AM_ISO$SF
 70
     0
  4
"
 41
2.5
 42
1.0
 43
10.0
 44
1.0
 47
0.1
 48
0.1
 73
     0
 74
     0
 75
     1
 76
     1
 77
     1
 78
     8
 79
     2
140
3.5
141
0.0
143
0.0393701
146
0.71
147
1.5
172
     1
176
   256
177
   256
178
   256
271
     2
272
     3
274
     4
283
     0
284
     8
340
17
371
    -1
372
    -1
  0
DIMSTYLE
105
25
330
22
100
AcDbSymbolTableRecord
100
AcDbDimStyleTableRecord
  2
AM_ISO$SH
 70
     0
  4
"
 41
2.5
 42
1.0
 43
10.0
 44
1.0
 47
0.1
 48
0.1
 73
     0
 74
     0
 75
     1
 76
     1
 77
     1
 78
     8
 79
     2
140
3.5
141
0.0
143
0.0393701
144
2.0
146
0.71
147
1.5
172
     1
173
     1
176
   256
177
   256
178
   256
271
     2
272
     3
274
     4
283
     0
284
     8
340
17
343
26
371
    -1
372
    -1
  0
DIMSTYLE
105
169
102
{ACAD_REACTORS
330
542
102
}
330
22
100
AcDbSymbolTableRecord
100
AcDbDimStyleTableRecord
  2
AM_ISO$3
 70
     0
  4
"
 41
2.5
 42
1.0
 43
10.0
 44
1.0
 47
0.1
 48
0.1
 73
     0
 77
     1
 78
     8
 79
     2
140
3.5
141
0.0
143
0.0393701
146
0.71
147
1.5
176
   256
177
   256
178
   256
271
     2
272
     3
274
     4
283
     0
284
     8
288
     1
289
     0
340
17
371
    -1
372
    -1
  0
DIMSTYLE
105
16A
102
{ACAD_REACTORS
330
3E2
330
3FF
102
}
330
22
100
AcDbSymbolTableRecord
100
AcDbDimStyleTableRecord
  2
AM_ISO$4
 70
     0
  4
"
 41
2.5
 42
1.0
 43
10.0
 44
1.0
 47
0.1
 48
0.1
 73
     0
 77
     1
 78
     8
 79
     2
140
3.5
141
0.0
143
0.0393701
146
0.71
147
1.5
176
   256
177
   256
178
   256
271
     2
272
     3
274
     4
283
     0
284
     8
288
     1
289
     0
340
17
371
    -1
372
    -1
  0
DIMSTYLE
105
16B
330
22
100
AcDbSymbolTableRecord
100
AcDbDimStyleTableRecord
  2
AM_ISO$6
 70
     0
  4
"
 41
2.5
 42
1.0
 43
10.0
 44
1.0
 47
0.1
 48
0.1
 73
     0
 74
     0
 78
     8
 79
     2
140
3.5
141
0.0
143
0.0393701
146
0.71
147
1.5
172
     1
176
   256
177
   256
178
   256
271
     2
272
     3
274
     4
283
     0
284
     8
340
17
371
    -1
372
    -1
  0
DIMSTYLE
105
16C
102
{ACAD_REACTORS
330
56A
102
}
330
22
100
AcDbSymbolTableRecord
100
AcDbDimStyleTableRecord
  2
AM_ISO$7
 70
     0
  4
"
 41
2.5
 42
1.0
 43
10.0
 44
1.0
 47
0.1
 48
0.1
 73
     0
 74
     0
 77
     1
 78
     8
 79
     2
140
3.5
141
0.0
143
0.0393701
146
0.71
147
1.5
172
     1
176
   256
177
   256
178
   256
271
     2
272
     3
274
     4
283
     0
284
     8
340
17
371
    -1
372
    -1
  0
DIMSTYLE
105
179
102
{ACAD_REACTORS
330
326
330
2BD
330
29D
330
396
330
3B5
330
3CC
330
427
330
446
330
4B7
330
4F3
330
513
102
}
330
22
100
AcDbSymbolTableRecord
100
AcDbDimStyleTableRecord
  2
AM_ISO$0
 70
     0
  4
"
 41
2.5
 42
1.0
 43
10.0
 44
1.0
 47
0.1
 48
0.1
 73
     0
 74
     0
 77
     1
 78
     8
 79
     2
140
3.5
141
0.0
143
0.0393701
146
0.71
147
1.5
172
     1
176
   256
177
   256
178
   256
271
     2
272
     3
274
     4
283
     0
284
     8
340
17
371
    -1
372
    -1
  0
ENDTAB
  0
TABLE
  2
BLOCK_RECORD
  5
1
330
0
100
AcDbSymbolTable
 70
    16
  0
BLOCK_RECORD
  5
2
102
{ACAD_XDICTIONARY
360
3
102
}
330
1
100
AcDbSymbolTableRecord
100
AcDbBlockTableRecord
  2
*MODEL_SPACE
340
B
  0
BLOCK_RECORD
  5
D
102
{ACAD_XDICTIONARY
360
536
102
}
330
1
100
AcDbSymbolTableRecord
100
AcDbBlockTableRecord
  2
*PAPER_SPACE
340
10
  0
BLOCK_RECORD
  5
26
330
1
100
AcDbSymbolTableRecord
100
AcDbBlockTableRecord
  2
GENAXEH
340
0
  0
BLOCK_RECORD
  5
29F
330
1
100
AcDbSymbolTableRecord
100
AcDbBlockTableRecord
  2
*D1
340
0
  0
BLOCK_RECORD
  5
2BE
330
1
100
AcDbSymbolTableRecord
100
AcDbBlockTableRecord
  2
*D2
340
0
  0
BLOCK_RECORD
  5
327
330
1
100
AcDbSymbolTableRecord
100
AcDbBlockTableRecord
  2
*D3
340
0
  0
BLOCK_RECORD
  5
397
330
1
100
AcDbSymbolTableRecord
100
AcDbBlockTableRecord
  2
*D4
340
0
  0
BLOCK_RECORD
  5
3B6
330
1
100
AcDbSymbolTableRecord
100
AcDbBlockTableRecord
  2
*D5
340
0
  0
BLOCK_RECORD
  5
3CD
330
1
100
AcDbSymbolTableRecord
100
AcDbBlockTableRecord
  2
*D6
340
0
  0
BLOCK_RECORD
  5
3E3
330
1
100
AcDbSymbolTableRecord
100
AcDbBlockTableRecord
  2
*D7
340
0
  0
BLOCK_RECORD
  5
400
330
1
100
AcDbSymbolTableRecord
100
AcDbBlockTableRecord
  2
*D8
340
0
  0
BLOCK_RECORD
  5
428
330
1
100
AcDbSymbolTableRecord
100
AcDbBlockTableRecord
  2
*D9
340
0
  0
BLOCK_RECORD
  5
447
330
1
100
AcDbSymbolTableRecord
100
AcDbBlockTableRecord
  2
*D10
340
0
  0
BLOCK_RECORD
  5
4B8
330
1
100
AcDbSymbolTableRecord
100
AcDbBlockTableRecord
  2
*D11
340
0
  0
BLOCK_RECORD
  5
4F4
330
1
100
AcDbSymbolTableRecord
100
AcDbBlockTableRecord
  2
*D12
340
0
  0
BLOCK_RECORD
  5
514
330
1
100
AcDbSymbolTableRecord
100
AcDbBlockTableRecord
  2
*D13
340
0
  0
BLOCK_RECORD
  5
543
330
1
100
AcDbSymbolTableRecord
100
AcDbBlockTableRecord
  2
*D14
340
0
  0
ENDTAB
  0
ENDSEC
  0
SECTION
  2
BLOCKS
  0
BLOCK
  5
4
330
2
100
AcDbEntity
  8
0
100
AcDbBlockBegin
  2
*MODEL_SPACE
 70
     0
 10
0.0
 20
0.0
 30
0.0
  3
*MODEL_SPACE
  1

  0
ENDBLK
  5
A
330
2
100
AcDbEntity
  8
0
100
AcDbBlockEnd
  0
BLOCK
  5
E
330
D
100
AcDbEntity
 67
     1
  8
0
100
AcDbBlockBegin
  2
*PAPER_SPACE
 70
     0
 10
0.0
 20
0.0
 30
0.0
  3
*PAPER_SPACE
  1

  0
ENDBLK
  5
F
330
D
100
AcDbEntity
 67
     1
  8
0
100
AcDbBlockEnd
  0
BLOCK
  5
27
330
26
100
AcDbEntity
  8
0
100
AcDbBlockBegin
  2
GENAXEH
 70
     0
 10
0.0
 20
0.0
 30
0.0
  3
GENAXEH
  1

  0
LINE
  5
28
330
26
100
AcDbEntity
  8
0
100
AcDbLine
 10
-1.0
 20
0.0
 30
0.0
 11
1.0
 21
0.0
 31
0.0
  0
ENDBLK
  5
29
330
26
100
AcDbEntity
  8
0
100
AcDbBlockEnd
  0
BLOCK
  5
2A9
330
29F
100
AcDbEntity
  8
0
100
AcDbBlockBegin
  2
*D1
 70
     1
 10
0.0
 20
0.0
 30
0.0
  3
*D1
  1

  0
LINE
  5
37B
330
29F
100
AcDbEntity
  8
AM_5
100
AcDbLine
 10
33.36474585166013
 20
94.56654163618138
 30
0.0
 11
33.36474585166013
 21
74.85795729781987
 31
0.0
  0
LINE
  5
37C
330
29F
100
AcDbEntity
  8
AM_5
100
AcDbLine
 10
98.36474585166014
 20
94.56654163618138
 30
0.0
 11
98.36474585166014
 21
74.85795729781987
 31
0.0
  0
LINE
  5
37D
330
29F
100
AcDbEntity
  8
AM_5
100
AcDbLine
 10
35.44807918499347
 20
75.69129063115319
 30
0.0
 11
96.2814125183268
 21
75.69129063115319
 31
0.0
  0
SOLID
  5
37E
330
29F
100
AcDbEntity
  8
AM_5
100
AcDbTrace
 10
35.44807918499347
 20
76.03851285337542
 30
0.0
 11
35.44807918499347
 21
75.34406840893097
 31
0.0
 12
33.36474585166013
 22
75.69129063115319
 32
0.0
 13
33.36474585166013
 23
75.69129063115319
 33
0.0
  0
SOLID
  5
37F
330
29F
100
AcDbEntity
  8
AM_5
100
AcDbTrace
 10
96.2814125183268
 20
76.03851285337542
 30
0.0
 11
96.2814125183268
 21
75.34406840893097
 31
0.0
 12
98.36474585166014
 22
75.69129063115319
 32
0.0
 13
98.36474585166014
 23
75.69129063115319
 33
0.0
  0
MTEXT
  5
380
330
29F
100
AcDbEntity
  8
AM_5
100
AcDbMText
 10
65.86474585166013
 20
78.39962396448652
 30
0.0
 40
2.916666666666666
 41
0.0
 71
     5
 72
     1
  1
{\Famgdt|c136;o}65
 73
     1
 44
1.0
1001
ACAD
1000
MTEXTBEGIN
1070
    73
1070
     1
1070
    44
1040
1.0
1070
    74
1070
     0
1000
MTEXTEND
  0
POINT
  5
381
330
29F
100
AcDbEntity
  8
Defpoints
 62
     0
100
AcDbPoint
 10
33.36474585166013
 20
95.39987496951471
 30
0.0
  0
POINT
  5
382
330
29F
100
AcDbEntity
  8
Defpoints
 62
     0
100
AcDbPoint
 10
98.36474585166014
 20
95.39987496951471
 30
0.0
  0
POINT
  5
383
330
29F
100
AcDbEntity
  8
Defpoints
 62
     0
100
AcDbPoint
 10
98.36474585166014
 20
75.69129063115319
 30
0.0
  0
ENDBLK
  5
2AA
330
29F
100
AcDbEntity
  8
0
100
AcDbBlockEnd
  0
BLOCK
  5
2C8
330
2BE
100
AcDbEntity
  8
0
100
AcDbBlockBegin
  2
*D2
 70
     1
 10
0.0
 20
0.0
 30
0.0
  3
*D2
  1

  0
LINE
  5
372
330
2BE
100
AcDbEntity
  8
AM_5
100
AcDbLine
 10
42.61474585166013
 20
93.29453350280145
 30
0.0
 11
42.61474585166013
 21
83.19129063115319
 31
0.0
  0
LINE
  5
373
330
2BE
100
AcDbEntity
  8
AM_5
100
AcDbLine
 10
89.11474585166013
 20
93.29453350280145
 30
0.0
 11
89.11474585166013
 21
83.19129063115319
 31
0.0
  0
LINE
  5
374
330
2BE
100
AcDbEntity
  8
AM_5
100
AcDbLine
 10
44.69807918499347
 20
84.02462396448653
 30
0.0
 11
87.03141251832681
 21
84.02462396448653
 31
0.0
  0
SOLID
  5
375
330
2BE
100
AcDbEntity
  8
AM_5
100
AcDbTrace
 10
44.69807918499347
 20
84.37184618670874
 30
0.0
 11
44.69807918499347
 21
83.6774017422643
 31
0.0
 12
42.61474585166013
 22
84.02462396448653
 32
0.0
 13
42.61474585166013
 23
84.02462396448653
 33
0.0
  0
SOLID
  5
376
330
2BE
100
AcDbEntity
  8
AM_5
100
AcDbTrace
 10
87.03141251832681
 20
84.37184618670874
 30
0.0
 11
87.03141251832681
 21
83.6774017422643
 31
0.0
 12
89.11474585166013
 22
84.02462396448653
 32
0.0
 13
89.11474585166013
 23
84.02462396448653
 33
0.0
  0
MTEXT
  5
377
330
2BE
100
AcDbEntity
  8
AM_5
100
AcDbMText
 10
65.86474585166013
 20
86.73295729781985
 30
0.0
 40
2.916666666666666
 41
0.0
 71
     5
 72
     1
  1
{\Famgdt|c136;o}46.5
 73
     1
 44
1.0
1001
ACAD
1000
MTEXTBEGIN
1070
    73
1070
     1
1070
    44
1040
1.0
1070
    74
1070
     0
1000
MTEXTEND
  0
POINT
  5
378
330
2BE
100
AcDbEntity
  8
Defpoints
 62
     0
100
AcDbPoint
 10
42.61474585166013
 20
94.12786683613479
 30
0.0
  0
POINT
  5
379
330
2BE
100
AcDbEntity
  8
Defpoints
 62
     0
100
AcDbPoint
 10
89.11474585166013
 20
94.12786683613479
 30
0.0
  0
POINT
  5
37A
330
2BE
100
AcDbEntity
  8
Defpoints
 62
     0
100
AcDbPoint
 10
89.11474585166013
 20
84.02462396448653
 30
0.0
  0
ENDBLK
  5
2C9
330
2BE
100
AcDbEntity
  8
0
100
AcDbBlockEnd
  0
BLOCK
  5
331
330
327
100
AcDbEntity
  8
0
100
AcDbBlockBegin
  2
*D3
 70
     1
 10
0.0
 20
0.0
 30
0.0
  3
*D3
  1

  0
LINE
  5
56C
330
327
100
AcDbEntity
  8
AM_5
100
AcDbLine
 10
254.9385318922556
 20
94.56654163618138
 30
0.0
 11
254.9385318922556
 21
74.85795729781999
 31
0.0
  0
LINE
  5
56D
330
327
100
AcDbEntity
  8
AM_5
100
AcDbLine
 10
319.9385318922556
 20
94.56654163618138
 30
0.0
 11
319.9385318922556
 21
74.85795729781999
 31
0.0
  0
LINE
  5
56E
330
327
100
AcDbEntity
  8
AM_5
100
AcDbLine
 10
257.0218652255889
 20
75.69129063115332
 30
0.0
 11
317.8551985589223
 21
75.69129063115332
 31
0.0
  0
SOLID
  5
56F
330
327
100
AcDbEntity
  8
AM_5
100
AcDbTrace
 10
257.0218652255889
 20
76.03851285337555
 30
0.0
 11
257.0218652255889
 21
75.34406840893109
 31
0.0
 12
254.9385318922556
 22
75.69129063115332
 32
0.0
 13
254.9385318922556
 23
75.69129063115332
 33
0.0
  0
SOLID
  5
570
330
327
100
AcDbEntity
  8
AM_5
100
AcDbTrace
 10
317.8551985589223
 20
76.03851285337555
 30
0.0
 11
317.8551985589223
 21
75.34406840893109
 31
0.0
 12
319.9385318922556
 22
75.69129063115332
 32
0.0
 13
319.9385318922556
 23
75.69129063115332
 33
0.0
  0
MTEXT
  5
571
330
327
100
AcDbEntity
  8
AM_5
100
AcDbMText
 10
287.4385318922556
 20
78.39962396448665
 30
0.0
 40
2.916666666666666
 41
0.0
 71
     5
 72
     1
  1
{\Famgdt|c136;o}65
 73
     1
 44
1.0
1001
ACAD
1000
MTEXTBEGIN
1070
    73
1070
     1
1070
    44
1040
1.0
1070
    74
1070
     0
1000
MTEXTEND
  0
POINT
  5
572
330
327
100
AcDbEntity
  8
Defpoints
 62
     0
100
AcDbPoint
 10
254.9385318922556
 20
95.39987496951471
 30
0.0
  0
POINT
  5
573
330
327
100
AcDbEntity
  8
Defpoints
 62
     0
100
AcDbPoint
 10
319.9385318922556
 20
95.39987496951471
 30
0.0
  0
POINT
  5
574
330
327
100
AcDbEntity
  8
Defpoints
 62
     0
100
AcDbPoint
 10
319.9385318922556
 20
75.69129063115332
 30
0.0
  0
ENDBLK
  5
332
330
327
100
AcDbEntity
  8
0
100
AcDbBlockEnd
  0
BLOCK
  5
3A1
330
397
100
AcDbEntity
  8
0
100
AcDbBlockBegin
  2
*D4
 70
     1
 10
0.0
 20
0.0
 30
0.0
  3
*D4
  1

  0
LINE
  5
47C
330
397
100
AcDbEntity
  8
AM_5
100
AcDbLine
 10
127.3344680464897
 20
106.9412906311532
 30
0.0
 11
127.3344680464897
 21
83.69129063115318
 31
0.0
  0
LINE
  5
47D
330
397
100
AcDbEntity
  8
AM_5
100
AcDbLine
 10
137.3344680464897
 20
93.6912906311532
 30
0.0
 11
137.3344680464897
 21
83.69129063115318
 31
0.0
  0
LINE
  5
47E
330
397
100
AcDbEntity
  8
AM_5
100
AcDbLine
 10
129.4178013798231
 20
84.5246239644865
 30
0.0
 11
135.2511347131563
 21
84.5246239644865
 31
0.0
  0
SOLID
  5
47F
330
397
100
AcDbEntity
  8
AM_5
100
AcDbTrace
 10
129.4178013798231
 20
84.87184618670873
 30
0.0
 11
129.4178013798231
 21
84.17740174226429
 31
0.0
 12
127.3344680464897
 22
84.5246239644865
 32
0.0
 13
127.3344680464897
 23
84.5246239644865
 33
0.0
  0
SOLID
  5
480
330
397
100
AcDbEntity
  8
AM_5
100
AcDbTrace
 10
135.2511347131563
 20
84.87184618670873
 30
0.0
 11
135.2511347131563
 21
84.17740174226429
 31
0.0
 12
137.3344680464897
 22
84.5246239644865
 32
0.0
 13
137.3344680464897
 23
84.5246239644865
 33
0.0
  0
MTEXT
  5
481
330
397
100
AcDbEntity
  8
AM_5
100
AcDbMText
 10
132.3344680464897
 20
87.23295729781984
 30
0.0
 40
2.916666666666666
 41
0.0
 71
     5
 72
     1
  1
10
 73
     1
 44
1.0
1001
ACAD
1000
MTEXTBEGIN
1070
    73
1070
     1
1070
    44
1040
1.0
1070
    74
1070
     0
1000
MTEXTEND
  0
POINT
  5
482
330
397
100
AcDbEntity
  8
Defpoints
 62
     0
100
AcDbPoint
 10
127.3344680464897
 20
107.7746239644866
 30
0.0
  0
POINT
  5
483
330
397
100
AcDbEntity
  8
Defpoints
 62
     0
100
AcDbPoint
 10
137.3344680464897
 20
94.52462396448652
 30
0.0
  0
POINT
  5
484
330
397
100
AcDbEntity
  8
Defpoints
 62
     0
100
AcDbPoint
 10
137.3344680464897
 20
84.5246239644865
 30
0.0
  0
ENDBLK
  5
3A2
330
397
100
AcDbEntity
  8
0
100
AcDbBlockEnd
  0
BLOCK
  5
3C0
330
3B6
100
AcDbEntity
  8
0
100
AcDbBlockBegin
  2
*D5
 70
     1
 10
0.0
 20
0.0
 30
0.0
  3
*D5
  1

  0
LINE
  5
485
330
3B6
100
AcDbEntity
  8
AM_5
100
AcDbLine
 10
137.3344680464897
 20
93.6912906311532
 30
0.0
 11
137.3344680464897
 21
83.69129063115329
 31
0.0
  0
LINE
  5
486
330
3B6
100
AcDbEntity
  8
AM_5
100
AcDbLine
 10
227.3344680464898
 20
93.69129063115325
 30
0.0
 11
227.3344680464898
 21
83.69129063115329
 31
0.0
  0
LINE
  5
487
330
3B6
100
AcDbEntity
  8
AM_5
100
AcDbLine
 10
139.417801379823
 20
84.52462396448661
 30
0.0
 11
225.2511347131564
 21
84.52462396448661
 31
0.0
  0
SOLID
  5
488
330
3B6
100
AcDbEntity
  8
AM_5
100
AcDbTrace
 10
139.417801379823
 20
84.87184618670884
 30
0.0
 11
139.417801379823
 21
84.17740174226437
 31
0.0
 12
137.3344680464897
 22
84.52462396448661
 32
0.0
 13
137.3344680464897
 23
84.52462396448661
 33
0.0
  0
SOLID
  5
489
330
3B6
100
AcDbEntity
  8
AM_5
100
AcDbTrace
 10
225.2511347131564
 20
84.87184618670884
 30
0.0
 11
225.2511347131564
 21
84.17740174226437
 31
0.0
 12
227.3344680464898
 22
84.52462396448661
 32
0.0
 13
227.3344680464898
 23
84.52462396448661
 33
0.0
  0
MTEXT
  5
48A
330
3B6
100
AcDbEntity
  8
AM_5
100
AcDbMText
 10
182.3344680464897
 20
87.23295729781993
 30
0.0
 40
2.916666666666666
 41
0.0
 71
     5
 72
     1
  1
90
 73
     1
 44
1.0
1001
ACAD
1000
MTEXTBEGIN
1070
    73
1070
     1
1070
    44
1040
1.0
1070
    74
1070
     0
1000
MTEXTEND
  0
POINT
  5
48B
330
3B6
100
AcDbEntity
  8
Defpoints
 62
     0
100
AcDbPoint
 10
137.3344680464897
 20
94.52462396448652
 30
0.0
  0
POINT
  5
48C
330
3B6
100
AcDbEntity
  8
Defpoints
 62
     0
100
AcDbPoint
 10
227.3344680464898
 20
94.52462396448657
 30
0.0
  0
POINT
  5
48D
330
3B6
100
AcDbEntity
  8
Defpoints
 62
     0
100
AcDbPoint
 10
227.3344680464898
 20
84.52462396448661
 30
0.0
  0
ENDBLK
  5
3C1
330
3B6
100
AcDbEntity
  8
0
100
AcDbBlockEnd
  0
BLOCK
  5
3D7
330
3CD
100
AcDbEntity
  8
0
100
AcDbBlockBegin
  2
*D6
 70
     1
 10
0.0
 20
0.0
 30
0.0
  3
*D6
  1

  0
LINE
  5
48E
330
3CD
100
AcDbEntity
  8
AM_5
100
AcDbLine
 10
127.3344680464897
 20
106.9412906311532
 30
0.0
 11
127.3344680464897
 21
75.35795729782015
 31
0.0
  0
LINE
  5
48F
330
3CD
100
AcDbEntity
  8
AM_5
100
AcDbLine
 10
227.3344680464898
 20
93.69129063115325
 30
0.0
 11
227.3344680464898
 21
75.35795729782015
 31
0.0
  0
LINE
  5
490
330
3CD
100
AcDbEntity
  8
AM_5
100
AcDbLine
 10
129.4178013798231
 20
76.19129063115348
 30
0.0
 11
225.2511347131564
 21
76.19129063115348
 31
0.0
  0
SOLID
  5
491
330
3CD
100
AcDbEntity
  8
AM_5
100
AcDbTrace
 10
129.4178013798231
 20
76.5385128533757
 30
0.0
 11
129.4178013798231
 21
75.84406840893125
 31
0.0
 12
127.3344680464897
 22
76.19129063115348
 32
0.0
 13
127.3344680464897
 23
76.19129063115348
 33
0.0
  0
SOLID
  5
492
330
3CD
100
AcDbEntity
  8
AM_5
100
AcDbTrace
 10
225.2511347131564
 20
76.5385128533757
 30
0.0
 11
225.2511347131564
 21
75.84406840893125
 31
0.0
 12
227.3344680464898
 22
76.19129063115348
 32
0.0
 13
227.3344680464898
 23
76.19129063115348
 33
0.0
  0
MTEXT
  5
493
330
3CD
100
AcDbEntity
  8
AM_5
100
AcDbMText
 10
177.3344680464897
 20
78.8996239644868
 30
0.0
 40
2.916666666666666
 41
0.0
 71
     5
 72
     1
  1
100
 73
     1
 44
1.0
1001
ACAD
1000
MTEXTBEGIN
1070
    73
1070
     1
1070
    44
1040
1.0
1070
    74
1070
     0
1000
MTEXTEND
  0
POINT
  5
494
330
3CD
100
AcDbEntity
  8
Defpoints
 62
     0
100
AcDbPoint
 10
127.3344680464897
 20
107.7746239644866
 30
0.0
  0
POINT
  5
495
330
3CD
100
AcDbEntity
  8
Defpoints
 62
     0
100
AcDbPoint
 10
227.3344680464898
 20
94.52462396448657
 30
0.0
  0
POINT
  5
496
330
3CD
100
AcDbEntity
  8
Defpoints
 62
     0
100
AcDbPoint
 10
227.3344680464898
 20
76.19129063115348
 30
0.0
  0
ENDBLK
  5
3D8
330
3CD
100
AcDbEntity
  8
0
100
AcDbBlockEnd
  0
BLOCK
  5
3EA
330
3E3
100
AcDbEntity
  8
0
100
AcDbBlockBegin
  2
*D7
 70
     1
 10
0.0
 20
0.0
 30
0.0
  3
*D7
  1

  0
LINE
  5
497
330
3E3
100
AcDbEntity
  8
AM_5
100
AcDbLine
 10
191.4225550515912
 20
153.279330041008
 30
0.0
 11
183.9672960386143
 21
164.7229994568777
 31
0.0
  0
LINE
  5
498
330
3E3
100
AcDbEntity
  8
AM_5
100
AcDbLine
 10
183.9672960386143
 20
164.7229994568777
 30
0.0
 11
175.5662806773324
 21
164.7229994568777
 31
0.0
  0
SOLID
  5
499
330
3E3
100
AcDbEntity
  8
AM_5
100
AcDbTrace
 10
191.7134851313735
 20
153.4688635744072
 30
0.0
 11
191.1316249718089
 21
153.0897965076087
 31
0.0
 12
192.5597562519868
 22
151.5337495623143
 32
0.0
 13
192.5597562519868
 23
151.5337495623143
 33
0.0
  0
MTEXT
  5
49A
330
3E3
100
AcDbEntity
  8
AM_5
100
AcDbMText
 10
179.1417883579733
 20
167.4365148181595
 30
0.0
 40
2.916666666666666
 41
0.0
 71
     5
 72
     1
  1
G1/8
 73
     1
 44
1.0
1001
ACAD
1000
MTEXTBEGIN
1070
    73
1070
     1
1070
    44
1040
1.0
1070
    74
1070
     0
1000
MTEXTEND
  0
POINT
  5
49B
330
3E3
100
AcDbEntity
  8
Defpoints
 62
     0
100
AcDbPoint
 10
192.5597562519868
 20
151.5337495623143
 30
0.0
  0
POINT
  5
49C
330
3E3
100
AcDbEntity
  8
Defpoints
 62
     0
100
AcDbPoint
 10
195.3344680464897
 20
147.2746239644866
 30
0.0
  0
ENDBLK
  5
3EB
330
3E3
100
AcDbEntity
  8
0
100
AcDbBlockEnd
  0
BLOCK
  5
407
330
400
100
AcDbEntity
  8
0
100
AcDbBlockBegin
  2
*D8
 70
     1
 10
0.0
 20
0.0
 30
0.0
  3
*D8
  1

  0
LINE
  5
421
330
400
100
AcDbEntity
  8
AM_5
100
AcDbLine
 10
45.35852350697392
 20
155.378280326421
 30
0.0
 11
49.33198391191073
 21
163.4933353615462
 31
0.0
  0
LINE
  5
422
330
400
100
AcDbEntity
  8
AM_5
100
AcDbLine
 10
49.33198391191073
 20
163.4933353615462
 30
0.0
 11
64.46548948933855
 21
163.4933353615462
 31
0.0
  0
SOLID
  5
423
330
400
100
AcDbEntity
  8
AM_5
100
AcDbTrace
 10
45.04667704668535
 20
155.5309730139028
 30
0.0
 11
45.67036996726248
 21
155.2255876389392
 31
0.0
 12
44.44236738208284
 22
153.5072015646896
 32
0.0
 13
44.44236738208284
 23
153.5072015646896
 33
0.0
  0
MTEXT
  5
424
330
400
100
AcDbEntity
  8
AM_5
100
AcDbMText
 10
57.52373670062467
 20
166.2019557683703
 30
0.0
 40
2.916666666666666
 41
0.0
 71
     5
 72
     1
  1
4-M8*12
 73
     1
 44
1.0
1001
ACAD
1000
MTEXTBEGIN
1070
    73
1070
     1
1070
    44
1040
1.0
1070
    74
1070
     0
1000
MTEXTEND
  0
POINT
  5
425
330
400
100
AcDbEntity
  8
Defpoints
 62
     0
100
AcDbPoint
 10
44.44236738208284
 20
153.5072015646896
 30
0.0
  0
POINT
  5
426
330
400
100
AcDbEntity
  8
Defpoints
 62
     0
100
AcDbPoint
 10
42.61474585166014
 20
149.7746239644867
 30
0.0
  0
ENDBLK
  5
408
330
400
100
AcDbEntity
  8
0
100
AcDbBlockEnd
  0
BLOCK
  5
432
330
428
100
AcDbEntity
  8
0
100
AcDbBlockBegin
  2
*D9
 70
     1
 10
0.0
 20
0.0
 30
0.0
  3
*D9
  1

  0
LINE
  5
49D
330
428
100
AcDbEntity
  8
AM_5
100
AcDbLine
 10
123.0011347131557
 20
116.5246239644865
 30
0.0
 11
115.5011337131563
 21
116.5246239644865
 31
0.0
  0
LINE
  5
49E
330
428
100
AcDbEntity
  8
AM_5
100
AcDbLine
 10
123.0011347131557
 20
136.5246239644865
 30
0.0
 11
115.5011337131563
 21
136.5246239644865
 31
0.0
  0
LINE
  5
49F
330
428
100
AcDbEntity
  8
AM_5
100
AcDbLine
 10
116.3344670464897
 20
118.6079572978199
 30
0.0
 11
116.3344670464897
 21
134.4412906311532
 31
0.0
  0
SOLID
  5
4A0
330
428
100
AcDbEntity
  8
AM_5
100
AcDbTrace
 10
115.9872448242674
 20
118.6079572978199
 30
0.0
 11
116.6816892687119
 21
118.6079572978199
 31
0.0
 12
116.3344670464897
 22
116.5246239644865
 32
0.0
 13
116.3344670464897
 23
116.5246239644865
 33
0.0
  0
SOLID
  5
4A1
330
428
100
AcDbEntity
  8
AM_5
100
AcDbTrace
 10
115.9872448242674
 20
134.4412906311532
 30
0.0
 11
116.6816892687119
 21
134.4412906311532
 31
0.0
 12
116.3344670464897
 22
136.5246239644865
 32
0.0
 13
116.3344670464897
 23
136.5246239644865
 33
0.0
  0
MTEXT
  5
4A2
330
428
100
AcDbEntity
  8
AM_5
100
AcDbMText
 10
113.6258466396655
 20
126.5246239644866
 30
0.0
 40
2.916666666666666
 41
0.0
 71
     5
 72
     1
  1
%%c20
 11
0.0000000000000001
 21
1.0
 31
0.0
 73
     1
 44
1.0
1001
ACAD
1000
MTEXTBEGIN
1070
    73
1070
     1
1070
    44
1040
1.0
1070
    74
1070
     0
1000
MTEXTEND
  0
POINT
  5
4A3
330
428
100
AcDbEntity
  8
Defpoints
 62
     0
100
AcDbPoint
 10
123.834468046489
 20
116.5246239644865
 30
0.0
  0
POINT
  5
4A4
330
428
100
AcDbEntity
  8
Defpoints
 62
     0
100
AcDbPoint
 10
123.834468046489
 20
136.5246239644865
 30
0.0
  0
POINT
  5
4A5
330
428
100
AcDbEntity
  8
Defpoints
 62
     0
100
AcDbPoint
 10
116.3344670464897
 20
136.5246239644865
 30
0.0
  0
ENDBLK
  5
433
330
428
100
AcDbEntity
  8
0
100
AcDbBlockEnd
  0
BLOCK
  5
451
330
447
100
AcDbEntity
  8
0
100
AcDbBlockBegin
  2
*D10
 70
     1
 10
0.0
 20
0.0
 30
0.0
  3
*D10
  1

  0
LINE
  5
4A6
330
447
100
AcDbEntity
  8
AM_5
100
AcDbLine
 10
127.0011347131564
 20
147.2746239644866
 30
0.0
 11
109.4142209449982
 21
147.2746239644866
 31
0.0
  0
LINE
  5
4A7
330
447
100
AcDbEntity
  8
AM_5
100
AcDbLine
 10
127.0011347131564
 20
107.2746239644866
 30
0.0
 11
109.4142209449982
 21
107.2746239644866
 31
0.0
  0
LINE
  5
4A8
330
447
100
AcDbEntity
  8
AM_5
100
AcDbLine
 10
110.2475542783315
 20
145.1912906311532
 30
0.0
 11
110.2475542783315
 21
109.3579572978199
 31
0.0
  0
SOLID
  5
4A9
330
447
100
AcDbEntity
  8
AM_5
100
AcDbTrace
 10
109.9003320561093
 20
145.1912906311532
 30
0.0
 11
110.5947765005538
 21
145.1912906311532
 31
0.0
 12
110.2475542783315
 22
147.2746239644866
 32
0.0
 13
110.2475542783315
 23
147.2746239644866
 33
0.0
  0
SOLID
  5
4AA
330
447
100
AcDbEntity
  8
AM_5
100
AcDbTrace
 10
109.9003320561093
 20
109.3579572978199
 30
0.0
 11
110.5947765005538
 21
109.3579572978199
 31
0.0
 12
110.2475542783315
 22
107.2746239644866
 32
0.0
 13
110.2475542783315
 23
107.2746239644866
 33
0.0
  0
MTEXT
  5
4AB
330
447
100
AcDbEntity
  8
AM_5
100
AcDbMText
 10
107.5392209449982
 20
127.3380477995391
 30
0.0
 40
2.916666666666666
 41
0.0
 71
     5
 72
     1
  1
%%c40
 11
0.0000000000000001
 21
1.0
 31
0.0
 73
     1
 44
1.0
1001
ACAD
1000
MTEXTBEGIN
1070
    73
1070
     1
1070
    44
1040
1.0
1070
    74
1070
     0
1000
MTEXTEND
  0
POINT
  5
4AC
330
447
100
AcDbEntity
  8
Defpoints
 62
     0
100
AcDbPoint
 10
127.8344680464897
 20
147.2746239644866
 30
0.0
  0
POINT
  5
4AD
330
447
100
AcDbEntity
  8
Defpoints
 62
     0
100
AcDbPoint
 10
127.8344680464897
 20
107.2746239644866
 30
0.0
  0
POINT
  5
4AE
330
447
100
AcDbEntity
  8
Defpoints
 62
     0
100
AcDbPoint
 10
110.2475542783315
 20
107.2746239644866
 30
0.0
  0
ENDBLK
  5
452
330
447
100
AcDbEntity
  8
0
100
AcDbBlockEnd
  0
BLOCK
  5
4C2
330
4B8
100
AcDbEntity
  8
0
100
AcDbBlockBegin
  2
*D11
 70
     1
 10
0.0
 20
0.0
 30
0.0
  3
*D11
  1

  0
LINE
  5
575
330
4B8
100
AcDbEntity
  8
AM_5
100
AcDbLine
 10
264.1885318922556
 20
93.29453350280143
 30
0.0
 11
264.1885318922556
 21
83.2945335028014
 31
0.0
  0
LINE
  5
576
330
4B8
100
AcDbEntity
  8
AM_5
100
AcDbLine
 10
310.6885318922556
 20
93.29453350280143
 30
0.0
 11
310.6885318922556
 21
83.2945335028014
 31
0.0
  0
LINE
  5
577
330
4B8
100
AcDbEntity
  8
AM_5
100
AcDbLine
 10
266.2718652255889
 20
84.12786683613473
 30
0.0
 11
308.6051985589223
 21
84.12786683613473
 31
0.0
  0
SOLID
  5
578
330
4B8
100
AcDbEntity
  8
AM_5
100
AcDbTrace
 10
266.2718652255889
 20
84.47508905835695
 30
0.0
 11
266.2718652255889
 21
83.7806446139125
 31
0.0
 12
264.1885318922556
 22
84.12786683613473
 32
0.0
 13
264.1885318922556
 23
84.12786683613473
 33
0.0
  0
SOLID
  5
579
330
4B8
100
AcDbEntity
  8
AM_5
100
AcDbTrace
 10
308.6051985589223
 20
84.47508905835695
 30
0.0
 11
308.6051985589223
 21
83.7806446139125
 31
0.0
 12
310.6885318922556
 22
84.12786683613473
 32
0.0
 13
310.6885318922556
 23
84.12786683613473
 33
0.0
  0
MTEXT
  5
57A
330
4B8
100
AcDbEntity
  8
AM_5
100
AcDbMText
 10
287.4385318922556
 20
86.83620016946806
 30
0.0
 40
2.916666666666666
 41
0.0
 71
     5
 72
     1
  1
{\Famgdt|c136;o}46.5
 73
     1
 44
1.0
1001
ACAD
1000
MTEXTBEGIN
1070
    73
1070
     1
1070
    44
1040
1.0
1070
    74
1070
     0
1000
MTEXTEND
  0
POINT
  5
57B
330
4B8
100
AcDbEntity
  8
Defpoints
 62
     0
100
AcDbPoint
 10
264.1885318922556
 20
94.12786683613475
 30
0.0
  0
POINT
  5
57C
330
4B8
100
AcDbEntity
  8
Defpoints
 62
     0
100
AcDbPoint
 10
310.6885318922556
 20
94.12786683613475
 30
0.0
  0
POINT
  5
57D
330
4B8
100
AcDbEntity
  8
Defpoints
 62
     0
100
AcDbPoint
 10
310.6885318922556
 20
84.12786683613473
 30
0.0
  0
ENDBLK
  5
4C3
330
4B8
100
AcDbEntity
  8
0
100
AcDbBlockEnd
  0
BLOCK
  5
4FE
330
4F4
100
AcDbEntity
  8
0
100
AcDbBlockBegin
  2
*D12
 70
     1
 10
0.0
 20
0.0
 30
0.0
  3
*D12
  1

  0
LINE
  5
529
330
4F4
100
AcDbEntity
  8
AM_5
100
AcDbLine
 10
228.1678013798231
 20
107.0246239644866
 30
0.0
 11
240.9054194302768
 21
107.0246239644866
 31
0.0
  0
LINE
  5
52A
330
4F4
100
AcDbEntity
  8
AM_5
100
AcDbLine
 10
228.1678013798231
 20
147.5246239644866
 30
0.0
 11
240.9054194302768
 21
147.5246239644866
 31
0.0
  0
LINE
  5
52B
330
4F4
100
AcDbEntity
  8
AM_5
100
AcDbLine
 10
240.0720860969434
 20
109.1079572978199
 30
0.0
 11
240.0720860969434
 21
145.4412906311532
 31
0.0
  0
SOLID
  5
52C
330
4F4
100
AcDbEntity
  8
AM_5
100
AcDbTrace
 10
239.7248638747212
 20
109.1079572978199
 30
0.0
 11
240.4193083191656
 21
109.1079572978199
 31
0.0
 12
240.0720860969434
 22
107.0246239644866
 32
0.0
 13
240.0720860969434
 23
107.0246239644866
 33
0.0
  0
SOLID
  5
52D
330
4F4
100
AcDbEntity
  8
AM_5
100
AcDbTrace
 10
239.7248638747212
 20
145.4412906311532
 30
0.0
 11
240.4193083191656
 21
145.4412906311532
 31
0.0
 12
240.0720860969434
 22
147.5246239644866
 32
0.0
 13
240.0720860969434
 23
147.5246239644866
 33
0.0
  0
MTEXT
  5
52E
330
4F4
100
AcDbEntity
  8
AM_5
100
AcDbMText
 10
237.3637527636101
 20
127.2746239644866
 30
0.0
 40
2.916666666666666
 41
0.0
 71
     5
 72
     1
  1
%%c40.5
 11
0.0000000000000001
 21
1.0
 31
0.0
 73
     1
 44
1.0
1001
ACAD
1000
MTEXTBEGIN
1070
    73
1070
     1
1070
    44
1040
1.0
1070
    74
1070
     0
1000
MTEXTEND
  0
POINT
  5
52F
330
4F4
100
AcDbEntity
  8
Defpoints
 62
     0
100
AcDbPoint
 10
227.3344680464898
 20
107.0246239644866
 30
0.0
  0
POINT
  5
530
330
4F4
100
AcDbEntity
  8
Defpoints
 62
     0
100
AcDbPoint
 10
227.3344680464898
 20
147.5246239644866
 30
0.0
  0
POINT
  5
531
330
4F4
100
AcDbEntity
  8
Defpoints
 62
     0
100
AcDbPoint
 10
240.0720860969434
 20
147.5246239644866
 30
0.0
  0
ENDBLK
  5
4FF
330
4F4
100
AcDbEntity
  8
0
100
AcDbBlockEnd
  0
BLOCK
  5
51E
330
514
100
AcDbEntity
  8
0
100
AcDbBlockBegin
  2
*D13
 70
     1
 10
0.0
 20
0.0
 30
0.0
  3
*D13
  1

  0
LINE
  5
539
330
514
100
AcDbEntity
  8
AM_5
100
AcDbLine
 10
198.3344680464898
 20
145.3579572978199
 30
0.0
 11
198.3344680464898
 21
168.9965423369326
 31
0.0
  0
LINE
  5
53A
330
514
100
AcDbEntity
  8
AM_5
100
AcDbLine
 10
227.3344680464898
 20
148.3579572978199
 30
0.0
 11
227.3344680464898
 21
168.9965423369326
 31
0.0
  0
LINE
  5
53B
330
514
100
AcDbEntity
  8
AM_5
100
AcDbLine
 10
200.4178013798231
 20
168.1632090035993
 30
0.0
 11
225.2511347131564
 21
168.1632090035993
 31
0.0
  0
SOLID
  5
53C
330
514
100
AcDbEntity
  8
AM_5
100
AcDbTrace
 10
200.4178013798231
 20
168.5104312258215
 30
0.0
 11
200.4178013798231
 21
167.8159867813771
 31
0.0
 12
198.3344680464898
 22
168.1632090035993
 32
0.0
 13
198.3344680464898
 23
168.1632090035993
 33
0.0
  0
SOLID
  5
53D
330
514
100
AcDbEntity
  8
AM_5
100
AcDbTrace
 10
225.2511347131564
 20
168.5104312258215
 30
0.0
 11
225.2511347131564
 21
167.8159867813771
 31
0.0
 12
227.3344680464898
 22
168.1632090035993
 32
0.0
 13
227.3344680464898
 23
168.1632090035993
 33
0.0
  0
MTEXT
  5
53E
330
514
100
AcDbEntity
  8
AM_5
100
AcDbMText
 10
212.8344680464898
 20
170.8718294104234
 30
0.0
 40
2.916666666666666
 41
0.0
 71
     5
 72
     1
  1
29
 73
     1
 44
1.0
1001
ACAD
1000
MTEXTBEGIN
1070
    73
1070
     1
1070
    44
1040
1.0
1070
    74
1070
     0
1000
MTEXTEND
  0
POINT
  5
53F
330
514
100
AcDbEntity
  8
Defpoints
 62
     0
100
AcDbPoint
 10
198.3344680464898
 20
144.5246239644865
 30
0.0
  0
POINT
  5
540
330
514
100
AcDbEntity
  8
Defpoints
 62
     0
100
AcDbPoint
 10
227.3344680464898
 20
147.5246239644866
 30
0.0
  0
POINT
  5
541
330
514
100
AcDbEntity
  8
Defpoints
 62
     0
100
AcDbPoint
 10
227.3344680464898
 20
168.1632090035993
 30
0.0
  0
ENDBLK
  5
51F
330
514
100
AcDbEntity
  8
0
100
AcDbBlockEnd
  0
BLOCK
  5
549
330
543
100
AcDbEntity
  8
0
100
AcDbBlockBegin
  2
*D14
 70
     1
 10
0.0
 20
0.0
 30
0.0
  3
*D14
  1

  0
LINE
  5
57E
330
543
100
AcDbEntity
  8
AM_5
100
AcDbLine
 10
266.0278452085995
 20
156.0957950824122
 30
0.0
 11
269.0203244274577
 21
166.3800533657371
 31
0.0
  0
LINE
  5
57F
330
543
100
AcDbEntity
  8
AM_5
100
AcDbLine
 10
269.0203244274577
 20
166.3800533657371
 30
0.0
 11
278.6458054078795
 21
166.3800533657371
 31
0.0
  0
SOLID
  5
580
330
543
100
AcDbEntity
  8
AM_5
100
AcDbTrace
 10
265.6944501074431
 20
156.1928052784219
 30
0.0
 11
266.3612403097559
 21
155.9987848864025
 31
0.0
 12
265.4457840325413
 22
154.0954244754737
 32
0.0
 13
265.4457840325413
 23
154.0954244754737
 33
0.0
  0
MTEXT
  5
581
330
543
100
AcDbEntity
  8
AM_5
100
AcDbMText
 10
274.4580649176685
 20
169.0883866990704
 30
0.0
 40
2.916666666666666
 41
0.0
 71
     5
 72
     1
  1
4-\U+22059
 73
     1
 44
1.0
1001
ACAD
1000
MTEXTBEGIN
1070
    73
1070
     1
1070
    44
1040
1.0
1070
    74
1070
     0
1000
MTEXTEND
  0
POINT
  5
582
330
543
100
AcDbEntity
  8
Defpoints
 62
     0
100
AcDbPoint
 10
265.4457840325413
 20
154.0954244754737
 30
0.0
  0
POINT
  5
583
330
543
100
AcDbEntity
  8
Defpoints
 62
     0
100
AcDbPoint
 10
262.93127975197
 20
145.4538234534993
 30
0.0
  0
ENDBLK
  5
54A
330
543
100
AcDbEntity
  8
0
100
AcDbBlockEnd
  0
ENDSEC
  0
SECTION
  2
ENTITIES
  0
LINE
  5
41
330
D
100
AcDbEntity
 67
     1
  8
AM_VIS
100
AcDbLine
 10
203.3344680464897
 20
95.39987496951471
 30
0.0
 11
203.3344680464897
 21
157.6493729594584
 31
0.0
  0
LINE
  5
42
330
D
100
AcDbEntity
 67
     1
  8
AM_VIS
100
AcDbLine
 10
137.8344680464897
 20
159.0246239644866
 30
0.0
 11
203.3344680464897
 21
159.0246239644866
 31
0.0
  0
LINE
  5
43
330
D
100
AcDbEntity
 67
     1
  8
AM_VIS
100
AcDbLine
 10
203.3344680464897
 20
157.6493729594584
 30
0.0
 11
137.8344680464896
 21
157.6493729594584
 31
0.0
  0
LINE
  5
44
330
D
100
AcDbEntity
 67
     1
  8
AM_VIS
100
AcDbLine
 10
137.8344680464896
 20
159.0246239644866
 30
0.0
 11
137.3344680464896
 21
158.5246239644866
 31
0.0
  0
ARC
  5
45
330
D
100
AcDbEntity
 67
     1
  8
AM_VIS
100
AcDbCircle
 10
105.3344680464897
 20
126.5246239644866
 30
0.0
 40
45.00000000000002
100
AcDbArc
 50
43.76174269267979
 51
44.67460956438355
  0
LINE
  5
46
330
D
100
AcDbEntity
 67
     1
  8
AM_VIS
100
AcDbLine
 10
137.8344680464897
 20
95.39987496951471
 30
0.0
 11
137.8344680464897
 21
157.6493729594584
 31
0.0
  0
ARC
  5
47
330
D
100
AcDbEntity
 67
     1
  8
AM_VIS
100
AcDbCircle
 10
105.3344680464897
 20
126.5246239644866
 30
0.0
 40
45.00000000000002
100
AcDbArc
 50
315.3253904356164
 51
316.2382573073201
  0
LINE
  5
48
330
D
100
AcDbEntity
 67
     1
  8
AM_VIS
100
AcDbLine
 10
137.8344680464897
 20
95.39987496951471
 30
0.0
 11
203.3344680464897
 21
95.39987496951471
 31
0.0
  0
LINE
  5
49
330
D
100
AcDbEntity
 67
     1
  8
AM_VIS
100
AcDbLine
 10
203.3344680464897
 20
94.02462396448653
 30
0.0
 11
137.8344680464896
 21
94.02462396448653
 31
0.0
  0
LINE
  5
4A
330
D
100
AcDbEntity
 67
     1
  8
AM_VIS
100
AcDbLine
 10
137.3344680464897
 20
94.52462396448652
 30
0.0
 11
137.8344680464897
 21
94.02462396448653
 31
0.0
  0
LINE
  5
4B
330
D
100
AcDbEntity
 67
     1
  8
AM_VIS
100
AcDbLine
 10
226.8344680464898
 20
94.02462396448653
 30
0.0
 11
219.3344680464897
 21
94.02462396448653
 31
0.0
  0
LINE
  5
4C
330
D
100
AcDbEntity
 67
     1
  8
AM_VIS
100
AcDbLine
 10
226.8344680464898
 20
94.02462396448658
 30
0.0
 11
227.3344680464898
 21
94.52462396448657
 31
0.0
  0
LINE
  5
4D
330
D
100
AcDbEntity
 67
     1
  8
AM_VIS
100
AcDbLine
 10
219.3344680464897
 20
159.0246239644866
 30
0.0
 11
226.8344680464898
 21
159.0246239644866
 31
0.0
  0
LINE
  5
4E
330
D
100
AcDbEntity
 67
     1
  8
AM_VIS
100
AcDbLine
 10
227.3344680464897
 20
158.5246239644866
 30
0.0
 11
226.8344680464898
 21
159.0246239644865
 31
0.0
  0
LINE
  5
4F
330
D
100
AcDbEntity
 67
     1
  8
AM_VIS
100
AcDbLine
 10
219.3344680464897
 20
95.39987496951471
 30
0.0
 11
226.8344680464898
 21
95.39987496951471
 31
0.0
  0
LINE
  5
50
330
D
100
AcDbEntity
 67
     1
  8
AM_VIS
100
AcDbLine
 10
219.3344680464897
 20
157.6493729594584
 30
0.0
 11
219.3344680464897
 21
95.39987496951471
 31
0.0
  0
LINE
  5
51
330
D
100
AcDbEntity
 67
     1
  8
AM_VIS
100
AcDbLine
 10
226.8344680464898
 20
157.6493729594584
 30
0.0
 11
219.3344680464897
 21
157.6493729594584
 31
0.0
  0
LINE
  5
52
330
D
100
AcDbEntity
 67
     1
  8
AM_VIS
100
AcDbLine
 10
226.8344680464898
 20
157.6493729594584
 30
0.0
 11
226.8344680464898
 21
95.39987496951471
 31
0.0
  0
ARC
  5
53
330
D
100
AcDbEntity
 67
     1
  8
AM_VIS
100
AcDbCircle
 10
259.3344680464903
 20
126.5246239644865
 30
0.0
 40
45.00000000000081
100
AcDbArc
 50
135.3253904356164
 51
136.2382573073202
  0
LINE
  5
54
330
D
100
AcDbEntity
 67
     1
  8
AM_VIS
100
AcDbLine
 10
227.3344680464898
 20
94.88603992537377
 30
0.0
 11
227.3344680464898
 21
158.1632080035993
 31
0.0
  0
ARC
  5
55
330
D
100
AcDbEntity
 67
     1
  8
AM_VIS
100
AcDbCircle
 10
259.3344680464903
 20
126.5246239644865
 30
0.0
 40
45.00000000000081
100
AcDbArc
 50
223.7617426926798
 51
224.6746095643835
  0
LINE
  5
56
330
D
100
AcDbEntity
 67
     1
  8
AM_VIS
100
AcDbLine
 10
137.3344680464897
 20
158.1632080035993
 30
0.0
 11
137.3344680464897
 21
94.88603992537383
 31
0.0
  0
ARC
  5
57
330
D
100
AcDbEntity
 67
     1
  8
AM_VIS
100
AcDbCircle
 10
218.9344680461476
 20
103.3746239641445
 30
0.0
 40
0.400000000342061
100
AcDbArc
 50
0.0000000489963176
 51
89.99999995100623
  0
ARC
  5
58
330
D
100
AcDbEntity
 67
     1
  8
AM_VIS
100
AcDbCircle
 10
218.9344680461477
 20
151.1746239648286
 30
0.0
 40
0.4000000003420042
100
AcDbArc
 50
270.0
 51
359.9999999020216
  0
LINE
  5
59
330
D
100
AcDbEntity
 67
     1
  8
AM_VIS
100
AcDbLine
 10
218.9344680464897
 20
150.7746239644865
 30
0.0
 11
203.7344680464897
 21
150.7746239644865
 31
0.0
  0
LINE
  5
5A
330
D
100
AcDbEntity
 67
     1
  8
AM_VIS
100
AcDbLine
 10
218.9344680464897
 20
103.7746239644866
 30
0.0
 11
203.7344680464897
 21
103.7746239644866
 31
0.0
  0
ARC
  5
5B
330
D
100
AcDbEntity
 67
     1
  8
AM_VIS
100
AcDbCircle
 10
203.7344680468318
 20
151.1746239648286
 30
0.0
 40
0.4000000003420503
100
AcDbArc
 50
180.0000000489937
 51
269.9999999510052
  0
ARC
  5
5C
330
D
100
AcDbEntity
 67
     1
  8
AM_VIS
100
AcDbCircle
 10
203.7344680468318
 20
103.3746239641445
 30
0.0
 40
0.4000000003420077
100
AcDbArc
 50
90.0
 51
179.9999999020216
  0
LINE
  5
5D
330
D
100
AcDbEntity
 67
     1
  8
AM_VIS
100
AcDbLine
 10
137.3344680464897
 20
147.2746239644866
 30
0.0
 11
127.8344680464897
 21
147.2746239644866
 31
0.0
  0
LINE
  5
5E
330
D
100
AcDbEntity
 67
     1
  8
AM_VIS
100
AcDbLine
 10
137.3344680464897
 20
107.2746239644866
 30
0.0
 11
127.8344680464897
 21
107.2746239644866
 31
0.0
  0
LINE
  5
5F
330
D
100
AcDbEntity
 67
     1
  8
AM_VIS
100
AcDbLine
 10
127.3344680464897
 20
107.7746239644866
 30
0.0
 11
127.8344680464897
 21
107.2746239644866
 31
0.0
  0
LINE
  5
60
330
D
100
AcDbEntity
 67
     1
  8
AM_VIS
100
AcDbLine
 10
127.3344680464897
 20
146.7746239644865
 30
0.0
 11
127.8344680464897
 21
147.2746239644866
 31
0.0
  0
CIRCLE
  5
61
330
D
100
AcDbEntity
 67
     1
  8
AM_VIS
100
AcDbCircle
 10
195.3344680464897
 20
147.2746239644866
 30
0.0
 40
4.283225000000001
  0
CIRCLE
  5
62
330
D
100
AcDbEntity
 67
     1
  8
AM_VIS
100
AcDbCircle
 10
169.3344680464897
 20
127.2746239644866
 30
0.0
 40
24.00000000000002
  0
ARC
  5
63
330
D
100
AcDbEntity
 67
     1
  8
AM_VIS
100
AcDbCircle
 10
195.3344680464897
 20
147.2746239644866
 30
0.0
 40
5.083225000000002
100
AcDbArc
 50
250.2782391670974
 51
200.2424845145141
  0
LINE
  5
64
330
D
100
AcDbEntity
 67
     1
  8
AM_VIS
100
AcDbLine
 10
203.3344680464897
 20
157.6493729594584
 30
0.0
 11
203.3344680464897
 21
159.0246239644866
 31
0.0
  0
LINE
  5
65
330
D
100
AcDbEntity
 67
     1
  8
AM_VIS
100
AcDbLine
 10
203.3344680464897
 20
94.02462396448658
 30
0.0
 11
203.3344680464897
 21
95.39987496951471
 31
0.0
  0
LINE
  5
66
330
D
100
AcDbEntity
 67
     1
  8
AM_VIS
100
AcDbLine
 10
227.3344680464898
 20
94.52462396448657
 30
0.0
 11
227.3344680464898
 21
94.88603992537377
 31
0.0
  0
LINE
  5
67
330
D
100
AcDbEntity
 67
     1
  8
AM_VIS
100
AcDbLine
 10
219.3344680464897
 20
95.39987496951471
 30
0.0
 11
219.3344680464897
 21
94.02462396448653
 31
0.0
  0
LINE
  5
68
330
D
100
AcDbEntity
 67
     1
  8
AM_VIS
100
AcDbLine
 10
219.3344680464897
 20
159.0246239644866
 30
0.0
 11
219.3344680464897
 21
157.6493729594584
 31
0.0
  0
LINE
  5
69
330
D
100
AcDbEntity
 67
     1
  8
AM_VIS
100
AcDbLine
 10
227.3344680464898
 20
158.1632080035993
 30
0.0
 11
227.3344680464898
 21
158.5246239644866
 31
0.0
  0
LINE
  5
6A
330
D
100
AcDbEntity
 67
     1
  8
AM_VIS
100
AcDbLine
 10
137.3344680464897
 20
158.5246239644866
 30
0.0
 11
137.3344680464897
 21
158.1632080035993
 31
0.0
  0
LINE
  5
6B
330
D
100
AcDbEntity
 67
     1
  8
AM_VIS
100
AcDbLine
 10
137.3344680464897
 20
94.88603992537377
 30
0.0
 11
137.3344680464897
 21
94.52462396448652
 31
0.0
  0
LINE
  5
6C
330
D
100
AcDbEntity
 67
     1
  8
AM_VIS
100
AcDbLine
 10
127.3344680464897
 20
107.7746239644866
 30
0.0
 11
127.3344680464897
 21
146.7746239644865
 31
0.0
  0
LINE
  5
6D
330
D
100
AcDbEntity
 67
     1
  8
AM_VIS
100
AcDbLine
 10
127.8344680464897
 20
147.2746239644866
 30
0.0
 11
127.8344680464897
 21
107.2746239644866
 31
0.0
  0
CIRCLE
  5
6E
330
D
100
AcDbEntity
 67
     1
  8
AM_VIS
100
AcDbCircle
 10
189.3344680464897
 20
127.2746239644866
 30
0.0
 40
3.200000000000002
  0
CIRCLE
  5
6F
330
D
100
AcDbEntity
 67
     1
  8
AM_VIS
100
AcDbCircle
 10
169.3344680464897
 20
127.2746239644866
 30
0.0
 40
24.00000000000002
  0
CIRCLE
  5
70
330
D
100
AcDbEntity
 67
     1
  8
AM_VIS
100
AcDbCircle
 10
149.3344680464897
 20
127.2746239644866
 30
0.0
 40
3.200000000000002
  0
LINE
  5
71
330
D
100
AcDbEntity
 67
     1
  8
AM_VIS
100
AcDbLine
 10
149.9124170061739
 20
126.2746239644865
 30
0.0
 11
150.4894680464897
 21
127.2746239644865
 31
0.0
  0
LINE
  5
72
330
D
100
AcDbEntity
 67
     1
  8
AM_VIS
100
AcDbLine
 10
150.4894680464897
 20
127.2746239644865
 30
0.0
 11
149.9124170061739
 21
128.2746239644865
 31
0.0
  0
LINE
  5
73
330
D
100
AcDbEntity
 67
     1
  8
AM_VIS
100
AcDbLine
 10
149.9124170061739
 20
128.2746239644865
 30
0.0
 11
148.7565190868055
 21
128.2746239644865
 31
0.0
  0
LINE
  5
74
330
D
100
AcDbEntity
 67
     1
  8
AM_VIS
100
AcDbLine
 10
148.7565190868055
 20
128.2746239644865
 30
0.0
 11
148.1794680464897
 21
127.2746239644865
 31
0.0
  0
LINE
  5
75
330
D
100
AcDbEntity
 67
     1
  8
AM_VIS
100
AcDbLine
 10
148.1794680464897
 20
127.2746239644865
 30
0.0
 11
148.7565190868055
 21
126.2746239644865
 31
0.0
  0
LINE
  5
76
330
D
100
AcDbEntity
 67
     1
  8
AM_VIS
100
AcDbLine
 10
148.7565190868055
 20
126.2746239644865
 30
0.0
 11
149.9124170061739
 21
126.2746239644865
 31
0.0
  0
CIRCLE
  5
77
330
D
100
AcDbEntity
 67
     1
  8
AM_VIS
100
AcDbCircle
 10
149.3344680464897
 20
127.2746239644865
 30
0.0
 40
2.849999999999995
  0
LINE
  5
78
330
D
100
AcDbEntity
 67
     1
  8
AM_VIS
100
AcDbLine
 10
189.9124170061739
 20
126.2746239644866
 30
0.0
 11
190.4894680464897
 21
127.2746239644866
 31
0.0
  0
LINE
  5
79
330
D
100
AcDbEntity
 67
     1
  8
AM_VIS
100
AcDbLine
 10
190.4894680464897
 20
127.2746239644866
 30
0.0
 11
189.9124170061739
 21
128.2746239644866
 31
0.0
  0
LINE
  5
7A
330
D
100
AcDbEntity
 67
     1
  8
AM_VIS
100
AcDbLine
 10
189.9124170061739
 20
128.2746239644866
 30
0.0
 11
188.7565190868055
 21
128.2746239644866
 31
0.0
  0
LINE
  5
7B
330
D
100
AcDbEntity
 67
     1
  8
AM_VIS
100
AcDbLine
 10
188.7565190868055
 20
128.2746239644866
 30
0.0
 11
188.1794680464897
 21
127.2746239644866
 31
0.0
  0
LINE
  5
7C
330
D
100
AcDbEntity
 67
     1
  8
AM_VIS
100
AcDbLine
 10
188.1794680464897
 20
127.2746239644866
 30
0.0
 11
188.7565190868055
 21
126.2746239644866
 31
0.0
  0
LINE
  5
7D
330
D
100
AcDbEntity
 67
     1
  8
AM_VIS
100
AcDbLine
 10
188.7565190868055
 20
126.2746239644866
 30
0.0
 11
189.9124170061739
 21
126.2746239644866
 31
0.0
  0
CIRCLE
  5
7E
330
D
100
AcDbEntity
 67
     1
  8
AM_VIS
100
AcDbCircle
 10
189.3344680464897
 20
127.2746239644866
 30
0.0
 40
2.849999999999995
  0
LINE
  5
7F
330
D
100
AcDbEntity
 67
     1
  8
AM_7
100
AcDbLine
 10
120.334468046489
 20
117.7985197844182
 30
0.0
 11
123.834468046489
 21
116.5246239644865
 31
0.0
  0
LINE
  5
80
330
D
100
AcDbEntity
 67
     1
  8
AM_7
100
AcDbLine
 10
120.334468046489
 20
135.2507281445548
 30
0.0
 11
123.834468046489
 21
136.5246239644866
 31
0.0
  0
LINE
  5
81
330
D
100
AcDbEntity
 67
     1
  8
AM_7
100
AcDbLine
 10
231.5056990710712
 20
136.5246239644865
 30
0.0
 11
123.834468046489
 21
136.5246239644865
 31
0.0
  0
LINE
  5
82
330
D
100
AcDbEntity
 67
     1
  8
AM_7
100
AcDbLine
 10
231.5056990710712
 20
116.5246239644865
 30
0.0
 11
123.834468046489
 21
116.5246239644865
 31
0.0
  0
LINE
  5
83
330
D
100
AcDbEntity
 67
     1
  8
AM_7
100
AcDbLine
 10
120.334468046489
 20
117.7985197844182
 30
0.0
 11
120.334468046489
 21
135.2507281445548
 31
0.0
  0
LINE
  5
84
330
D
100
AcDbEntity
 67
     1
  8
AM_7
100
AcDbLine
 10
123.834468046489
 20
136.5246239644865
 30
0.0
 11
123.834468046489
 21
116.5246239644865
 31
0.0
  0
LINE
  5
85
330
D
100
AcDbEntity
 67
     1
  8
AM_VIS
100
AcDbLine
 10
126.3344680464897
 20
115.5246239644867
 30
0.0
 11
127.3344680464897
 21
114.75002231764
 31
0.0
  0
LINE
  5
86
330
D
100
AcDbEntity
 67
     1
  8
AM_VIS
100
AcDbLine
 10
126.3344680464897
 20
137.5246239644864
 30
0.0
 11
127.3344680464897
 21
138.2992256113332
 31
0.0
  0
LINE
  5
87
330
D
100
AcDbEntity
 67
     1
  8
AM_VIS
100
AcDbLine
 10
126.3344680464897
 20
137.5246239644864
 30
0.0
 11
126.3344680464897
 21
115.5246239644867
 31
0.0
  0
LINE
  5
88
330
D
100
AcDbEntity
 67
     1
  8
AM_VIS
100
AcDbLine
 10
96.98949484663206
 20
159.0246239644866
 30
0.0
 11
34.73999685668832
 21
159.0246239644866
 31
0.0
  0
ARC
  5
89
330
D
100
AcDbEntity
 67
     1
  8
AM_VIS
100
AcDbCircle
 10
65.86474585166013
 20
126.5246239644866
 30
0.0
 40
45.00000000000002
100
AcDbArc
 50
45.32539043561636
 51
46.23825730732012
  0
ARC
  5
8A
330
D
100
AcDbEntity
 67
     1
  8
AM_VIS
100
AcDbCircle
 10
65.86474585166013
 20
126.5246239644866
 30
0.0
 40
45.00000000000002
100
AcDbArc
 50
43.76174269267979
 51
44.67460956438355
  0
LINE
  5
8B
330
D
100
AcDbEntity
 67
     1
  8
AM_VIS
100
AcDbLine
 10
98.36474585166014
 20
95.39987496951471
 30
0.0
 11
98.36474585166014
 21
157.6493729594584
 31
0.0
  0
ARC
  5
8C
330
D
100
AcDbEntity
 67
     1
  8
AM_VIS
100
AcDbCircle
 10
65.86474585166013
 20
126.5246239644866
 30
0.0
 40
45.00000000000002
100
AcDbArc
 50
315.3253904356164
 51
316.2382573073201
  0
ARC
  5
8D
330
D
100
AcDbEntity
 67
     1
  8
AM_VIS
100
AcDbCircle
 10
65.86474585166013
 20
126.5246239644866
 30
0.0
 40
45.00000000000002
100
AcDbArc
 50
313.7617426926798
 51
314.6746095643835
  0
LINE
  5
8E
330
D
100
AcDbEntity
 67
     1
  8
AM_VIS
100
AcDbLine
 10
34.73999685668832
 20
94.02462396448653
 30
0.0
 11
96.98949484663195
 21
94.02462396448653
 31
0.0
  0
ARC
  5
8F
330
D
100
AcDbEntity
 67
     1
  8
AM_VIS
100
AcDbCircle
 10
65.86474585166013
 20
126.5246239644866
 30
0.0
 40
45.00000000000002
100
AcDbArc
 50
225.3253904356165
 51
226.2382573073203
  0
LINE
  5
90
330
D
100
AcDbEntity
 67
     1
  8
AM_VIS
100
AcDbLine
 10
34.22616181254739
 20
158.5246239644866
 30
0.0
 11
97.50332989077293
 21
158.5246239644866
 31
0.0
  0
LINE
  5
91
330
D
100
AcDbEntity
 67
     1
  8
AM_VIS
100
AcDbLine
 10
97.86474585166018
 20
158.1632080035993
 30
0.0
 11
97.86474585166018
 21
94.88603992537383
 31
0.0
  0
LINE
  5
92
330
D
100
AcDbEntity
 67
     1
  8
AM_VIS
100
AcDbLine
 10
97.50332989077287
 20
94.52462396448652
 30
0.0
 11
34.22616181254745
 21
94.52462396448652
 31
0.0
  0
ARC
  5
93
330
D
100
AcDbEntity
 67
     1
  8
AM_VIS
100
AcDbCircle
 10
65.86474585166013
 20
126.5246239644866
 30
0.0
 40
45.00000000000002
100
AcDbArc
 50
133.7617426926798
 51
134.6746095643836
  0
LINE
  5
94
330
D
100
AcDbEntity
 67
     1
  8
AM_VIS
100
AcDbLine
 10
33.86474585166013
 20
94.88603992537383
 30
0.0
 11
33.86474585166013
 21
158.1632080035993
 31
0.0
  0
ARC
  5
95
330
D
100
AcDbEntity
 67
     1
  8
AM_VIS
100
AcDbCircle
 10
65.86474585166013
 20
126.5246239644866
 30
0.0
 40
45.00000000000002
100
AcDbArc
 50
223.7617426926798
 51
224.6746095643835
  0
LINE
  5
96
330
D
100
AcDbEntity
 67
     1
  8
AM_VIS
100
AcDbLine
 10
33.36474585166013
 20
157.6493729594584
 30
0.0
 11
33.36474585166013
 21
95.39987496951471
 31
0.0
  0
ARC
  5
97
330
D
100
AcDbEntity
 67
     1
  8
AM_VIS
100
AcDbCircle
 10
65.86474585166013
 20
126.5246239644866
 30
0.0
 40
45.00000000000002
100
AcDbArc
 50
135.3253904356164
 51
136.2382573073202
  0
CIRCLE
  5
98
330
D
100
AcDbEntity
 67
     1
  8
AM_VIS
100
AcDbCircle
 10
42.61474585166013
 20
103.2746239644866
 30
0.0
 40
3.455999999999999
  0
CIRCLE
  5
99
330
D
100
AcDbEntity
 67
     1
  8
AM_VIS
100
AcDbCircle
 10
89.11474585166013
 20
149.7746239644866
 30
0.0
 40
3.455999999999999
  0
CIRCLE
  5
9A
330
D
100
AcDbEntity
 67
     1
  8
AM_VIS
100
AcDbCircle
 10
42.61474585166013
 20
149.7746239644866
 30
0.0
 40
3.455999999999999
  0
CIRCLE
  5
9B
330
D
100
AcDbEntity
 67
     1
  8
AM_VIS
100
AcDbCircle
 10
89.11474585166013
 20
103.2746239644866
 30
0.0
 40
3.455999999999999
  0
ARC
  5
9C
330
D
100
AcDbEntity
 67
     1
  8
AM_VIS
100
AcDbCircle
 10
42.61474585166013
 20
103.2746239644866
 30
0.0
 40
4.155999999999998
100
AcDbArc
 50
251.1043797071526
 51
200.0734286904633
  0
ARC
  5
9D
330
D
100
AcDbEntity
 67
     1
  8
AM_VIS
100
AcDbCircle
 10
65.86474585166013
 20
126.5246239644866
 30
0.0
 40
45.0
100
AcDbArc
 50
44.67460956438352
 51
45.32539043561643
  0
ARC
  5
9E
330
D
100
AcDbEntity
 67
     1
  8
AM_VIS
100
AcDbCircle
 10
65.86474585166013
 20
126.5246239644866
 30
0.0
 40
45.0
100
AcDbArc
 50
314.6746095643835
 51
315.3253904356164
  0
ARC
  5
9F
330
D
100
AcDbEntity
 67
     1
  8
AM_VIS
100
AcDbCircle
 10
65.86474585166013
 20
126.5246239644866
 30
0.0
 40
45.0
100
AcDbArc
 50
224.6746095643835
 51
225.3253904356165
  0
ARC
  5
A0
330
D
100
AcDbEntity
 67
     1
  8
AM_VIS
100
AcDbCircle
 10
65.86474585166013
 20
126.5246239644866
 30
0.0
 40
45.0
100
AcDbArc
 50
134.6746095643836
 51
135.3253904356164
  0
CIRCLE
  5
A4
330
D
100
AcDbEntity
 67
     1
  8
AM_VIS
100
AcDbCircle
 10
65.86474585166013
 20
127.2746239644866
 30
0.0
 40
20.0
  0
CIRCLE
  5
A6
330
D
100
AcDbEntity
 67
     1
  8
AM_VIS
100
AcDbCircle
 10
65.86474585166019
 20
126.5246239644865
 30
0.0
 40
10.0
  0
LINE
  5
B0
330
D
100
AcDbEntity
 67
     1
  8
AM_VIS
100
AcDbLine
 10
256.3137828972838
 20
94.02462396448653
 30
0.0
 11
318.5632808872274
 21
94.02462396448653
 31
0.0
  0
ARC
  5
B1
330
D
100
AcDbEntity
 67
     1
  8
AM_VIS
100
AcDbCircle
 10
287.4385318922556
 20
126.5246239644865
 30
0.0
 40
44.99999999999999
100
AcDbArc
 50
225.3253904356164
 51
226.2382573073202
  0
LINE
  5
B2
330
D
100
AcDbEntity
 67
     1
  8
AM_VIS
100
AcDbLine
 10
319.0771159313683
 20
94.52462396448652
 30
0.0
 11
255.7999478531428
 21
94.52462396448652
 31
0.0
  0
ARC
  5
B3
330
D
100
AcDbEntity
 67
     1
  8
AM_VIS
100
AcDbCircle
 10
287.4385318922556
 20
126.5246239644865
 30
0.0
 40
44.99999999999999
100
AcDbArc
 50
313.7617426926798
 51
314.6746095643836
  0
LINE
  5
B4
330
D
100
AcDbEntity
 67
     1
  8
AM_VIS
100
AcDbLine
 10
319.9385318922556
 20
95.39987496951471
 30
0.0
 11
319.9385318922556
 21
157.6493729594584
 31
0.0
  0
ARC
  5
B5
330
D
100
AcDbEntity
 67
     1
  8
AM_VIS
100
AcDbCircle
 10
287.4385318922556
 20
126.5246239644865
 30
0.0
 40
45.0
100
AcDbArc
 50
315.3253904356164
 51
316.2382573073201
  0
LINE
  5
B6
330
D
100
AcDbEntity
 67
     1
  8
AM_VIS
100
AcDbLine
 10
319.4385318922556
 20
158.1632080035993
 30
0.0
 11
319.4385318922556
 21
94.88603992537383
 31
0.0
  0
ARC
  5
B7
330
D
100
AcDbEntity
 67
     1
  8
AM_VIS
100
AcDbCircle
 10
287.4385318922556
 20
126.5246239644865
 30
0.0
 40
45.0
100
AcDbArc
 50
43.76174269267981
 51
44.67460956438354
  0
LINE
  5
B8
330
D
100
AcDbEntity
 67
     1
  8
AM_VIS
100
AcDbLine
 10
318.5632808872274
 20
159.0246239644865
 30
0.0
 11
256.3137828972837
 21
159.0246239644865
 31
0.0
  0
ARC
  5
B9
330
D
100
AcDbEntity
 67
     1
  8
AM_VIS
100
AcDbCircle
 10
287.4385318922556
 20
126.5246239644865
 30
0.0
 40
45.0
100
AcDbArc
 50
45.32539043561644
 51
46.23825730732012
  0
LINE
  5
BA
330
D
100
AcDbEntity
 67
     1
  8
AM_VIS
100
AcDbLine
 10
255.7999478531428
 20
158.5246239644866
 30
0.0
 11
319.0771159313683
 21
158.5246239644866
 31
0.0
  0
ARC
  5
BB
330
D
100
AcDbEntity
 67
     1
  8
AM_VIS
100
AcDbCircle
 10
287.4385318922556
 20
126.5246239644865
 30
0.0
 40
45.0
100
AcDbArc
 50
133.7617426926798
 51
134.6746095643835
  0
LINE
  5
BC
330
D
100
AcDbEntity
 67
     1
  8
AM_VIS
100
AcDbLine
 10
254.9385318922556
 20
157.6493729594584
 30
0.0
 11
254.9385318922556
 21
95.39987496951471
 31
0.0
  0
ARC
  5
BD
330
D
100
AcDbEntity
 67
     1
  8
AM_VIS
100
AcDbCircle
 10
287.4385318922556
 20
126.5246239644865
 30
0.0
 40
45.0
100
AcDbArc
 50
135.3253904356164
 51
136.2382573073202
  0
LINE
  5
BE
330
D
100
AcDbEntity
 67
     1
  8
AM_VIS
100
AcDbLine
 10
255.4385318922556
 20
94.88603992537377
 30
0.0
 11
255.4385318922556
 21
158.1632080035993
 31
0.0
  0
ARC
  5
BF
330
D
100
AcDbEntity
 67
     1
  8
AM_VIS
100
AcDbCircle
 10
287.4385318922556
 20
126.5246239644865
 30
0.0
 40
45.0
100
AcDbArc
 50
223.7617426926798
 51
224.6746095643835
  0
CIRCLE
  5
C2
330
D
100
AcDbEntity
 67
     1
  8
AM_VIS
100
AcDbCircle
 10
310.6885318922556
 20
103.2746239644865
 30
0.0
 40
4.5
  0
CIRCLE
  5
C3
330
D
100
AcDbEntity
 67
     1
  8
AM_VIS
100
AcDbCircle
 10
264.1885318922556
 20
103.2746239644865
 30
0.0
 40
4.5
  0
CIRCLE
  5
C4
330
D
100
AcDbEntity
 67
     1
  8
AM_VIS
100
AcDbCircle
 10
310.6885318922556
 20
149.7746239644865
 30
0.0
 40
4.5
  0
CIRCLE
  5
C5
330
D
100
AcDbEntity
 67
     1
  8
AM_VIS
100
AcDbCircle
 10
264.1885318922556
 20
149.7746239644865
 30
0.0
 40
4.5
  0
ARC
  5
C7
330
D
100
AcDbEntity
 67
     1
  8
AM_VIS
100
AcDbCircle
 10
287.4385318922556
 20
126.5246239644865
 30
0.0
 40
45.0
100
AcDbArc
 50
224.6746095643836
 51
225.3253904356164
  0
ARC
  5
C8
330
D
100
AcDbEntity
 67
     1
  8
AM_VIS
100
AcDbCircle
 10
287.4385318922556
 20
126.5246239644865
 30
0.0
 40
45.0
100
AcDbArc
 50
314.6746095643836
 51
315.3253904356165
  0
ARC
  5
C9
330
D
100
AcDbEntity
 67
     1
  8
AM_VIS
100
AcDbCircle
 10
287.4385318922556
 20
126.5246239644865
 30
0.0
 40
45.0
100
AcDbArc
 50
44.67460956438353
 51
45.32539043561647
  0
ARC
  5
CA
330
D
100
AcDbEntity
 67
     1
  8
AM_VIS
100
AcDbCircle
 10
287.4385318922556
 20
126.5246239644865
 30
0.0
 40
45.0
100
AcDbArc
 50
134.6746095643835
 51
135.3253904356164
  0
CIRCLE
  5
CC
330
D
100
AcDbEntity
 67
     1
  8
AM_VIS
100
AcDbCircle
 10
287.4385318922556
 20
126.5246239644865
 30
0.0
 40
10.0
  0
VIEWPORT
  5
DD
102
{ACAD_XDICTIONARY
360
753
102
}
330
D
100
AcDbEntity
 67
     1
  8
0
100
AcDbViewport
 10
172.8177107908689
 20
115.8395309525091
 30
0.0
 40
311.4586385318814
 41
232.1961972581925
 68
     1
 69
     1
 12
172.8177107908689
 22
115.8395309525091
 13
0.0
 23
0.0
 14
1.0
 24
1.0
 15
0.0
 25
0.0
 16
0.0
 26
0.0
 36
1.0
 17
0.0
 27
0.0
 37
0.0
 42
50.0
 43
0.0
 44
0.0
 45
232.1961972581925
 50
0.0
 51
0.0
 72
  1000
 90
    32800
  1

281
     0
 71
     1
 74
     0
110
0.0
120
0.0
130
0.0
111
1.0
121
0.0
131
0.0
112
0.0
122
1.0
132
0.0
 79
     0
146
0.0
  0
TEXT
  5
1FB
330
D
100
AcDbEntity
 67
     1
  8
LOGO
 62
     7
100
AcDbText
 10
71.31375834217067
 20
26.53519065810065
 30
0.0
 40
4.665257495787077
  1
訂購代號:
  7
CHINESET
100
AcDbText
  0
TEXT
  5
1FC
330
D
100
AcDbEntity
 67
     1
  8
LOGO
 62
     7
100
AcDbText
 10
70.75576782560131
 20
22.15671292464852
 30
0.0
 40
3.110171663858052
  1
Order example:
 41
0.8
  7
CHINESET
100
AcDbText
  0
LINE
  5
1FD
330
D
100
AcDbEntity
 67
     1
  8
LOGO
 62
     4
100
AcDbLine
 10
118.59460499386
 20
10.99313234944685
 30
0.0
 11
103.0437466745699
 21
10.99313234944685
 31
0.0
  0
LINE
  5
1FE
330
D
100
AcDbEntity
 67
     1
  8
LOGO
 62
     4
100
AcDbLine
 10
118.59460499386
 20
19.54610442505644
 30
0.0
 11
103.0437466745699
 21
19.54610442505644
 31
0.0
  0
LINE
  5
1FF
330
D
100
AcDbEntity
 67
     1
  8
LOGO
 62
     4
100
AcDbLine
 10
119.1832846272456
 20
23.04504754689677
 30
0.0
 11
101.9330262273955
 21
23.04504754689677
 31
0.0
  0
LINE
  5
200
330
D
100
AcDbEntity
 67
     1
  8
LOGO
 62
     4
100
AcDbLine
 10
119.1832846272456
 20
30.04293379057744
 30
0.0
 11
101.9330262273955
 21
30.04293379057744
 31
0.0
  0
TEXT
  5
201
330
D
100
AcDbEntity
 67
     1
  8
LOGO
  6
Continuous
 62
     7
100
AcDbText
 10
105.3578624958927
 20
24.60013337882583
 30
0.0
 40
3.887714579822564
  1
MCB
  7
CHINESET
 72
     1
 11
110.8191758342149
 21
26.54399066873711
 31
0.0
100
AcDbText
 73
     2
  0
LINE
  5
202
330
D
100
AcDbEntity
 67
     1
  8
LOGO
 62
     4
100
AcDbLine
 10
101.9330262273955
 20
30.04293379057744
 30
0.0
 11
101.9330262273955
 21
23.04504754689677
 31
0.0
  0
LINE
  5
203
330
D
100
AcDbEntity
 67
     1
  8
LOGO
 62
     4
100
AcDbLine
 10
103.0437466745699
 20
19.54610442505644
 30
0.0
 11
103.0437466745699
 21
10.99313234944685
 31
0.0
  0
TEXT
  5
204
330
D
100
AcDbEntity
 67
     1
  8
LOGO
100
AcDbText
 10
108.1882253946651
 20
12.19122637580652
 30
0.0
 40
1.547617905617502
  1
Model
 72
     4
 11
110.8191758342149
 21
12.9369896393581
 31
0.0
100
AcDbText
  0
TEXT
  5
205
330
D
100
AcDbEntity
 67
     1
  8
LOGO
100
AcDbText
 10
107.7090041703568
 20
15.34920939439762
 30
0.0
 40
3.110171663858052
  1
型式
 72
     4
 11
110.8191758342149
 21
16.82470421918067
 31
0.0
100
AcDbText
  0
LINE
  5
206
330
D
100
AcDbEntity
 67
     1
  8
LOGO
 62
     4
100
AcDbLine
 10
110.8191758342149
 20
23.04504754689677
 30
0.0
 11
110.8191758342149
 21
19.54610442505644
 31
0.0
  0
LINE
  5
207
330
D
100
AcDbEntity
 67
     1
  8
LOGO
 62
     4
100
AcDbLine
 10
119.1832846272456
 20
30.04293379057744
 30
0.0
 11
119.1832846272456
 21
23.04504754689677
 31
0.0
  0
LINE
  5
208
330
D
100
AcDbEntity
 67
     1
  8
LOGO
 62
     4
100
AcDbLine
 10
118.5946049938602
 20
19.54610442505644
 30
0.0
 11
118.5946049938602
 21
10.99313234944685
 31
0.0
  0
LINE
  5
209
330
D
100
AcDbEntity
 67
     1
  8
LOGO
 62
     4
100
AcDbLine
 10
137.187656412641
 20
30.04293379057751
 30
0.0
 11
137.187656412641
 21
23.04504754689685
 31
0.0
  0
LINE
  5
20A
330
D
100
AcDbEntity
 67
     1
  8
LOGO
 62
     4
100
AcDbLine
 10
124.7038907561732
 20
30.04293379057744
 30
0.0
 11
124.7038907561732
 21
23.04504754689685
 31
0.0
  0
LINE
  5
20B
330
D
100
AcDbEntity
 67
     1
  8
LOGO
 62
     4
100
AcDbLine
 10
137.187656412641
 20
10.99313234944685
 30
0.0
 11
124.7038907561732
 21
10.99313234944685
 31
0.0
  0
LINE
  5
20C
330
D
100
AcDbEntity
 67
     1
  8
LOGO
 62
     4
100
AcDbLine
 10
137.187656412641
 20
23.04504754689685
 30
0.0
 11
124.7038907561732
 21
23.04504754689685
 31
0.0
  0
LINE
  5
20D
330
D
100
AcDbEntity
 67
     1
  8
LOGO
 62
     4
100
AcDbLine
 10
137.187656412641
 20
19.54610442505657
 30
0.0
 11
124.7038907561732
 21
19.54610442505657
 31
0.0
  0
LINE
  5
20E
330
D
100
AcDbEntity
 67
     1
  8
LOGO
 62
     4
100
AcDbLine
 10
124.7038907561732
 20
19.54610442505657
 30
0.0
 11
124.7038907561732
 21
10.99313234944685
 31
0.0
  0
TEXT
  5
20F
330
D
100
AcDbEntity
 67
     1
  8
LOGO
100
AcDbText
 10
128.7791085165425
 20
12.18721984876978
 30
0.0
 40
1.547617905617502
  1
Bore
 72
     4
 11
130.9457735844071
 21
12.9369896393581
 31
0.0
100
AcDbText
  0
TEXT
  5
210
330
D
100
AcDbEntity
 67
     1
  8
LOGO
100
AcDbText
 10
127.6412161915579
 20
15.26961838725165
 30
0.0
 40
3.110171663858052
  1
內徑
 72
     4
 11
130.9457735844071
 21
16.82470421918067
 31
0.0
100
AcDbText
  0
LINE
  5
211
330
D
100
AcDbEntity
 67
     1
  8
LOGO
 62
     4
100
AcDbLine
 10
130.9457734051177
 20
23.04504754689685
 30
0.0
 11
130.9457734051177
 21
19.54610442505657
 31
0.0
  0
LINE
  5
212
330
D
100
AcDbEntity
 67
     1
  8
LOGO
 62
     4
100
AcDbLine
 10
137.187656412641
 20
19.54610442505657
 30
0.0
 11
137.187656412641
 21
10.99313234944685
 31
0.0
  0
LINE
  5
213
330
D
100
AcDbEntity
 67
     1
  8
LOGO
 62
     4
100
AcDbLine
 10
137.187656412641
 20
30.04293379057751
 30
0.0
 11
124.7038907561732
 21
30.04293379057744
 31
0.0
  0
LINE
  5
214
330
D
100
AcDbEntity
 67
     1
  8
LOGO
  6
Continuous
 62
     7
100
AcDbLine
 10
120.403703185413
 20
26.51920304973462
 30
0.0
 11
123.4937144090994
 21
26.51920304973462
 31
0.0
  0
TEXT
  5
215
330
D
100
AcDbEntity
 67
     1
  8
LOGO
  6
Continuous
 62
     7
100
AcDbText
 10
128.1614295283315
 20
24.55604645051497
 30
0.0
 40
3.887714579822564
  1
50
  7
CHINESET
 72
     1
 11
131.3086270453307
 21
26.49990374042625
 31
0.0
100
AcDbText
 73
     2
  0
LINE
  5
216
330
D
100
AcDbEntity
 67
     1
  8
LOGO
 62
     4
100
AcDbLine
 10
69.40438768855926
 20
9.049275059535403
 30
0.0
 11
69.40438768855926
 21
32.37556253847137
 31
0.0
  0
TEXT
  5
217
330
D
100
AcDbEntity
 67
     1
  8
LOGO
  6
Continuous
100
AcDbText
 10
26.46546255102584
 20
13.63168903233512
 30
0.0
 40
3.498943121840338
  1
金器工業股份有限公司
  7
CHINESET
100
AcDbText
  0
TEXT
  5
218
330
D
100
AcDbEntity
 67
     1
  8
LOGO
  6
Continuous
100
AcDbText
 10
20.03859626796441
 20
10.13206039197064
 30
0.0
 40
2.332628747893558
  1
MINDMAN INDUSTRIAL CO., LTD.
 41
0.85
  7
CHINESET
100
AcDbText
  0
LINE
  5
219
330
D
100
AcDbEntity
 67
     1
  8
LOGO
 62
     4
100
AcDbLine
 10
69.40438768855926
 20
27.71030504268404
 30
0.0
 11
35.19249938611955
 21
27.71030504268404
 31
0.0
  0
LINE
  5
21A
330
D
100
AcDbEntity
 67
     1
  8
LOGO
 62
     4
100
AcDbLine
 10
69.40438768855926
 20
23.04504754689685
 30
0.0
 11
35.19249938611955
 21
23.04504754689685
 31
0.0
  0
LINE
  5
21B
330
D
100
AcDbEntity
 67
     1
  8
LOGO
 62
     4
100
AcDbLine
 10
69.40438768855926
 20
18.37979005110985
 30
0.0
 11
18.08655523490034
 21
18.37979005110985
 31
0.0
  0
LINE
  5
21C
330
D
100
AcDbEntity
 67
     1
  8
LOGO
 62
     4
100
AcDbLine
 10
35.19249938611955
 20
18.37979005110985
 30
0.0
 11
35.19249938611955
 21
32.37556253847137
 31
0.0
  0
TEXT
  5
21D
330
D
100
AcDbEntity
 67
     1
  8
LOGO
100
AcDbText
 10
58.57471026430526
 20
19.54610442505649
 30
0.0
 40
2.332628747893558
  1
mm
  7
CHINESET
 72
     1
 11
61.46272680931634
 21
20.71241879900327
 31
0.0
100
AcDbText
 73
     2
  0
TEXT
  5
21E
330
D
100
AcDbEntity
 67
     1
  8
LOGO
100
AcDbText
 10
57.35285711064673
 20
28.87661941663073
 30
0.0
 40
2.332628747893558
  1
1 : 1
  7
CHINESET
 72
     1
 11
61.46272680931634
 21
30.04293379057751
 31
0.0
100
AcDbText
 73
     2
  0
LINE
  5
21F
330
D
100
AcDbEntity
 67
     1
  8
LOGO
 62
     4
100
AcDbLine
 10
53.85352936926847
 20
18.37979005110985
 30
0.0
 11
53.85352936926847
 21
32.37556253847137
 31
0.0
  0
TEXT
  5
220
330
D
100
AcDbEntity
 67
     1
  8
LOGO
100
AcDbText
 10
37.11587675101274
 20
28.87776736384918
 30
152.876645355569
 40
2.332628747893558
  1
比例 Scale:
 41
0.9
  7
CHINESET
 72
     4
 11
44.52301437769437
 21
30.04293379057751
 31
152.876645355569
100
AcDbText
  0
TEXT
  5
221
330
D
100
AcDbEntity
 67
     1
  8
LOGO
100
AcDbText
 10
36.98154232758494
 20
24.24417407883774
 30
152.876645355569
 40
2.332628747893558
  1
投影  View:
 41
0.9
  7
CHINESET
 72
     4
 11
44.52301437769437
 21
25.37767629479045
 31
152.876645355569
100
AcDbText
  0
TEXT
  5
222
330
D
100
AcDbEntity
 67
     1
  8
LOGO
100
AcDbText
 10
37.20959844177631
 20
19.54610442505649
 30
152.876645355569
 40
2.332628747893558
  1
單位  Unit:
 41
0.9
  7
CHINESET
 72
     4
 11
44.52301437769437
 21
20.71241879900327
 31
152.876645355569
100
AcDbText
  0
SOLID
  5
223
330
D
100
AcDbEntity
 67
     1
  8
LOGO
 62
     5
100
AcDbTrace
 10
20.50669499668408
 20
22.25745332092622
 30
0.0
 11
21.51526245909474
 21
22.25745332092561
 31
0.0
 12
25.72342325053319
 22
31.8214551196496
 32
0.0
 13
26.73199071294425
 23
31.82145511964889
 33
0.0
  0
SOLID
  5
224
330
D
100
AcDbEntity
 67
     1
  8
LOGO
 62
     5
100
AcDbTrace
 10
21.9326007194037
 20
22.25745332092622
 30
0.0
 11
22.94116818181442
 21
22.25745332092622
 31
0.0
 12
26.73199071294425
 22
31.05633497575141
 32
0.0
 13
25.72342325053319
 23
27.35825428024501
 33
0.0
  0
SOLID
  5
225
330
D
100
AcDbEntity
 67
     1
  8
LOGO
 62
     2
100
AcDbTrace
 10
21.51526245909474
 20
22.25745332092561
 30
0.0
 11
21.9326007194037
 21
22.25745332092622
 31
0.0
 12
26.73199071294425
 22
31.82145511964889
 32
0.0
 13
27.14932897325275
 23
31.82145511964889
 33
0.0
  0
SOLID
  5
226
330
D
100
AcDbEntity
 67
     1
  8
LOGO
 62
     5
100
AcDbTrace
 10
18.88971402340115
 20
18.7796344850267
 30
0.0
 11
19.23749590699157
 21
18.7796344850267
 31
0.0
 12
20.21687676035907
 22
20.5185439029764
 32
0.0
 13
20.56465864394903
 23
20.5185439029764
 33
0.0
  0
SOLID
  5
227
330
D
100
AcDbEntity
 67
     1
  8
LOGO
 62
     5
100
AcDbTrace
 10
20.21687676035907
 20
20.5185439029764
 30
0.0
 11
20.56465864394903
 21
20.5185439029764
 31
0.0
 12
20.21687676035907
 22
18.7796344850267
 32
0.0
 13
20.56465864394903
 23
18.7796344850267
 33
0.0
  0
SOLID
  5
228
330
D
100
AcDbEntity
 67
     1
  8
LOGO
 62
     5
100
AcDbTrace
 10
20.21687676035907
 20
18.7796344850267
 30
0.0
 11
20.56465864394903
 21
18.7796344850267
 31
0.0
 12
21.54403949731824
 22
20.5185439029764
 32
0.0
 13
21.89182138090797
 23
20.5185439029764
 33
0.0
  0
SOLID
  5
229
330
D
100
AcDbEntity
 67
     1
  8
LOGO
 62
     5
100
AcDbTrace
 10
21.54403949731824
 20
20.5185439029764
 30
0.0
 11
21.89182138090797
 21
20.5185439029764
 31
0.0
 12
21.54403949731824
 22
18.7796344850267
 32
0.0
 13
21.89182138090797
 23
18.7796344850267
 33
0.0
  0
POLYLINE
  5
22A
330
D
100
AcDbEntity
 67
     1
  8
LOGO
 62
     5
100
AcDb2dPolyline
 66
     1
 10
0.0
 20
0.0
 30
0.0
 40
0.3483392263521047
 41
0.3483392263521047
  0
VERTEX
  5
22B
330
22A
100
AcDbEntity
 67
     1
  8
LOGO
 62
     5
100
AcDbVertex
100
AcDb2dVertex
 10
33.20156976186064
 20
19.8229801357962
 30
0.0
 42
1.0
  0
VERTEX
  5
22C
330
22A
100
AcDbEntity
 67
     1
  8
LOGO
 62
     5
100
AcDbVertex
100
AcDb2dVertex
 10
32.15655208280475
 20
19.8229801357962
 30
0.0
 42
1.0
  0
SEQEND
  5
22D
330
22A
100
AcDbEntity
 67
     1
  8
LOGO
 62
     5
  0
POLYLINE
  5
22E
330
D
100
AcDbEntity
 67
     1
  8
LOGO
 62
     5
100
AcDb2dPolyline
 66
     1
 10
0.0
 20
0.0
 30
0.0
 70
     1
  0
VERTEX
  5
22F
330
22E
100
AcDbEntity
 67
     1
  8
LOGO
 62
     5
100
AcDbVertex
100
AcDb2dVertex
 10
30.18664727539653
 20
19.64908919400146
 30
0.0
 42
1.000000057330635
  0
VERTEX
  5
230
330
22E
100
AcDbEntity
 67
     1
  8
LOGO
 62
     5
100
AcDbVertex
100
AcDb2dVertex
 10
31.22999292616583
 20
19.64908919400146
 30
0.0
 42
1.000000057330635
  0
SEQEND
  5
231
330
22E
100
AcDbEntity
 67
     1
  8
LOGO
 62
     5
  0
CIRCLE
  5
232
330
D
100
AcDbEntity
 67
     1
  8
LOGO
 62
     5
100
AcDbCircle
 10
30.70832010078181
 20
19.64908919400146
 30
0.0
 40
0.5216728253849121
  0
POLYLINE
  5
233
330
D
100
AcDbEntity
 67
     1
  8
LOGO
 62
     5
100
AcDb2dPolyline
 66
     1
 10
0.0
 20
0.0
 30
0.0
 70
     1
 40
0.3483392263521047
 41
0.3483392263521047
  0
VERTEX
  5
234
330
233
100
AcDbEntity
 67
     1
  8
LOGO
 62
     5
100
AcDbVertex
100
AcDb2dVertex
 10
30.01164164807728
 20
19.64908919400146
 30
0.0
 42
1.0
  0
VERTEX
  5
235
330
233
100
AcDbEntity
 67
     1
  8
LOGO
 62
     5
100
AcDbVertex
100
AcDb2dVertex
 10
31.40499855348571
 20
19.64908919400146
 30
0.0
 42
1.0
  0
SEQEND
  5
236
330
233
100
AcDbEntity
 67
     1
  8
LOGO
 62
     5
  0
LINE
  5
237
330
D
100
AcDbEntity
 67
     1
  8
LOGO
100
AcDbLine
 10
33.37462468951162
 20
18.7796344850267
 30
0.0
 11
33.37462468951162
 21
19.8229801357962
 31
0.0
  0
SOLID
  5
238
330
D
100
AcDbEntity
 67
     1
  8
LOGO
 62
     5
100
AcDbTrace
 10
31.22995814797901
 20
20.5185439029764
 30
0.0
 11
31.57774003156845
 21
20.5185439029764
 31
0.0
 12
31.22995814797901
 22
18.7796344850267
 32
0.0
 13
31.57774003156845
 23
18.7796344850267
 33
0.0
  0
SOLID
  5
239
330
D
100
AcDbEntity
 67
     1
  8
LOGO
 62
     5
100
AcDbTrace
 10
31.98349715515218
 20
18.7796344850267
 30
0.0
 11
32.33127903874225
 21
18.7796344850267
 31
0.0
 12
31.98349715515218
 22
20.5185439029764
 32
0.0
 13
32.33127903874225
 23
20.5185439029764
 33
0.0
  0
SOLID
  5
23A
330
D
100
AcDbEntity
 67
     1
  8
LOGO
 62
     5
100
AcDbTrace
 10
33.02684280592263
 20
19.8229801357962
 30
0.0
 11
33.37462468951162
 21
19.8229801357962
 31
0.0
 12
33.02684280592263
 22
18.7796344850267
 32
0.0
 13
33.37462468951162
 23
18.7796344850267
 33
0.0
  0
SOLID
  5
23B
330
D
100
AcDbEntity
 67
     1
  8
LOGO
 62
     5
100
AcDbTrace
 10
31.94871896679308
 20
31.05633497575141
 30
0.0
 11
30.94015150438264
 21
27.35825428024501
 31
0.0
 12
31.94871896679308
 22
22.25745332092561
 32
0.0
 13
30.94015150438264
 23
22.25745332092561
 33
0.0
  0
SOLID
  5
23C
330
D
100
AcDbEntity
 67
     1
  8
LOGO
 62
     5
100
AcDbTrace
 10
32.36605722710124
 20
22.25745332092561
 30
0.0
 11
33.37462468951162
 21
22.25745332092561
 31
0.0
 12
32.36605722710124
 22
31.82145511964889
 32
0.0
 13
33.37462468951162
 23
31.8214551196496
 33
0.0
  0
SOLID
  5
23D
330
D
100
AcDbEntity
 67
     1
  8
LOGO
 62
     2
100
AcDbTrace
 10
31.94871896679308
 20
31.8214551196496
 30
0.0
 11
32.36605722710124
 21
31.82145511964889
 31
0.0
 12
31.94871896679308
 22
22.25745332092561
 32
0.0
 13
32.36605722710124
 23
22.25745332092561
 33
0.0
  0
POLYLINE
  5
23E
330
D
100
AcDbEntity
 67
     1
  8
LOGO
 62
     5
100
AcDb2dPolyline
 66
     1
 10
0.0
 20
0.0
 30
0.0
 40
0.3483392263521047
 41
0.3483392263521047
  0
VERTEX
  5
23F
330
23E
100
AcDbEntity
 67
     1
  8
LOGO
 62
     5
100
AcDbVertex
100
AcDb2dVertex
 10
28.21667291161304
 20
19.8229801357962
 30
0.0
 42
1.0
  0
VERTEX
  5
240
330
23E
100
AcDbEntity
 67
     1
  8
LOGO
 62
     5
100
AcDbVertex
100
AcDb2dVertex
 10
27.17165523255602
 20
19.8229801357962
 30
0.0
 42
1.0
  0
SEQEND
  5
241
330
23E
100
AcDbEntity
 67
     1
  8
LOGO
 62
     5
  0
POLYLINE
  5
242
330
D
100
AcDbEntity
 67
     1
  8
LOGO
 62
     5
100
AcDb2dPolyline
 66
     1
 10
0.0
 20
0.0
 30
0.0
 40
0.3483392263521047
 41
0.3483392263521047
  0
VERTEX
  5
243
330
242
100
AcDbEntity
 67
     1
  8
LOGO
 62
     5
100
AcDbVertex
100
AcDb2dVertex
 10
29.26001856238242
 20
19.8229801357962
 30
0.0
 42
1.0
  0
VERTEX
  5
244
330
242
100
AcDbEntity
 67
     1
  8
LOGO
 62
     5
100
AcDbVertex
100
AcDb2dVertex
 10
28.21500088332596
 20
19.8229801357962
 30
0.0
 42
1.0
  0
SEQEND
  5
245
330
242
100
AcDbEntity
 67
     1
  8
LOGO
 62
     5
  0
POLYLINE
  5
246
330
D
100
AcDbEntity
 67
     1
  8
LOGO
 62
     5
100
AcDb2dPolyline
 66
     1
 10
0.0
 20
0.0
 30
0.0
 40
0.3483392263521047
 41
0.3483392263521047
  0
VERTEX
  5
247
330
246
100
AcDbEntity
 67
     1
  8
LOGO
 62
     5
100
AcDbVertex
100
AcDb2dVertex
 10
24.2751217121338
 20
19.8229801357962
 30
0.0
 42
1.0
  0
VERTEX
  5
248
330
246
100
AcDbEntity
 67
     1
  8
LOGO
 62
     5
100
AcDbVertex
100
AcDb2dVertex
 10
23.23010403307745
 20
19.8229801357962
 30
0.0
 42
1.0
  0
SEQEND
  5
249
330
246
100
AcDbEntity
 67
     1
  8
LOGO
 62
     5
  0
SOLID
  5
24A
330
D
100
AcDbEntity
 67
     1
  8
LOGO
 62
     5
100
AcDbTrace
 10
23.05704910542591
 20
20.5185439029764
 30
0.0
 11
23.40483098901529
 21
20.5185439029764
 31
0.0
 12
23.05704910542591
 22
18.7796344850267
 32
0.0
 13
23.40483098901529
 23
18.7796344850267
 33
0.0
  0
SOLID
  5
24B
330
D
100
AcDbEntity
 67
     1
  8
LOGO
 62
     5
100
AcDbTrace
 10
24.10039475619618
 20
19.8229801357962
 30
0.0
 11
24.44817663978677
 21
19.8229801357962
 31
0.0
 12
24.10039475619618
 22
18.7796344850267
 32
0.0
 13
24.44817663978677
 23
18.7796344850267
 33
0.0
  0
POLYLINE
  5
24C
330
D
100
AcDbEntity
 67
     1
  8
LOGO
 62
     5
100
AcDb2dPolyline
 66
     1
 10
0.0
 20
0.0
 30
0.0
 70
     1
 40
0.3483392263521047
 41
0.3483392263521047
  0
VERTEX
  5
24D
330
24C
100
AcDbEntity
 67
     1
  8
LOGO
 62
     5
100
AcDbVertex
100
AcDb2dVertex
 10
25.02674479782894
 20
19.64908919400146
 30
0.0
 42
1.0
  0
VERTEX
  5
24E
330
24C
100
AcDbEntity
 67
     1
  8
LOGO
 62
     5
100
AcDbVertex
100
AcDb2dVertex
 10
26.42010170323738
 20
19.64908919400146
 30
0.0
 42
1.0
  0
SEQEND
  5
24F
330
24C
100
AcDbEntity
 67
     1
  8
LOGO
 62
     5
  0
SOLID
  5
250
330
D
100
AcDbEntity
 67
     1
  8
LOGO
 62
     5
100
AcDbTrace
 10
26.24506129773033
 20
21.04021672836148
 30
0.0
 11
26.59284318132035
 21
21.04021672836148
 31
0.0
 12
26.24506129773033
 22
18.7796344850267
 32
0.0
 13
26.59284318132035
 23
18.7796344850267
 33
0.0
  0
SOLID
  5
251
330
D
100
AcDbEntity
 67
     1
  8
LOGO
 62
     5
100
AcDbTrace
 10
26.99860030490544
 20
20.5185439029764
 30
0.0
 11
27.34638218849489
 21
20.5185439029764
 31
0.0
 12
26.99860030490544
 22
18.7796344850267
 32
0.0
 13
27.34638218849489
 23
18.7796344850267
 33
0.0
  0
SOLID
  5
252
330
D
100
AcDbEntity
 67
     1
  8
LOGO
 62
     5
100
AcDbTrace
 10
28.04194595567429
 20
19.8229801357962
 30
0.0
 11
28.38972783926437
 21
19.8229801357962
 31
0.0
 12
28.04194595567429
 22
18.7796344850267
 32
0.0
 13
28.38972783926437
 23
18.7796344850267
 33
0.0
  0
SOLID
  5
253
330
D
100
AcDbEntity
 67
     1
  8
LOGO
 62
     5
100
AcDbTrace
 10
29.08529160644361
 20
19.8229801357962
 30
0.0
 11
29.43307349003425
 21
19.8229801357962
 31
0.0
 12
29.08529160644361
 22
18.77963448502632
 32
0.0
 13
29.43307349003425
 23
18.77963448502632
 33
0.0
  0
SOLID
  5
254
330
D
100
AcDbEntity
 67
     1
  8
LOGO
 62
     5
100
AcDbTrace
 10
22.3035100982512
 20
20.76199122148925
 30
0.0
 11
22.65129198184292
 21
20.76199122148925
 31
0.0
 12
22.3035100982512
 22
21.04021672836148
 32
0.0
 13
22.65129198184292
 23
21.04021672836148
 33
0.0
  0
SOLID
  5
255
330
D
100
AcDbEntity
 67
     1
  8
LOGO
 62
     5
100
AcDbTrace
 10
22.3035100982512
 20
20.5185439029764
 30
0.0
 11
22.65129198184292
 21
20.5185439029764
 31
0.0
 12
22.3035100982512
 22
18.77963448502632
 32
0.0
 13
22.65129198184292
 23
18.7796344850267
 33
0.0
  0
SOLID
  5
256
330
D
100
AcDbEntity
 67
     1
  8
LOGO
 62
     5
100
AcDbTrace
 10
25.72342325053319
 20
22.25745332092622
 30
0.0
 11
26.73199071294425
 21
22.25745332092622
 31
0.0
 12
25.72342325053319
 22
27.35825428024501
 32
0.0
 13
26.73199071294425
 23
31.05633497575141
 33
0.0
  0
SOLID
  5
257
330
D
100
AcDbEntity
 67
     1
  8
LOGO
 62
     5
100
AcDbTrace
 10
27.14932897325275
 20
31.82145511964889
 30
0.0
 11
28.15789643566347
 21
31.8214551196496
 31
0.0
 12
27.14932897325275
 22
23.02257346482342
 32
0.0
 13
28.15789643566347
 23
26.72065416033011
 33
0.0
  0
SOLID
  5
258
330
D
100
AcDbEntity
 67
     1
  8
LOGO
 62
     2
100
AcDbTrace
 10
26.73199071294425
 20
31.82145511964889
 30
0.0
 11
27.14932897325275
 21
31.82145511964889
 31
0.0
 12
26.73199071294425
 22
22.25745332092622
 32
0.0
 13
27.14932897325275
 23
22.25745332092622
 33
0.0
  0
SOLID
  5
259
330
D
100
AcDbEntity
 67
     1
  8
LOGO
 62
     5
100
AcDbTrace
 10
27.14932897325275
 20
23.02257346482342
 30
0.0
 11
28.15789643566347
 21
26.72065416033011
 31
0.0
 12
31.94871896679308
 22
31.8214551196496
 32
0.0
 13
30.94015150438264
 23
31.8214551196496
 33
0.0
  0
SOLID
  5
25A
330
D
100
AcDbEntity
 67
     1
  8
LOGO
 62
     5
100
AcDbTrace
 10
27.14932897325275
 20
22.25745332092622
 30
0.0
 11
28.15789643566347
 21
22.25745332092622
 31
0.0
 12
31.94871896679308
 22
31.05633497575141
 32
0.0
 13
30.94015150438264
 23
27.35825428024501
 33
0.0
  0
SOLID
  5
25B
330
D
100
AcDbEntity
 67
     1
  8
LOGO
 62
     2
100
AcDbTrace
 10
26.73199071294425
 20
22.25745332092622
 30
0.0
 11
27.14932897325275
 21
22.25745332092622
 31
0.0
 12
31.94871896679308
 22
31.8214551196496
 32
0.0
 13
32.36605722710124
 23
31.82145511964889
 33
0.0
  0
LWPOLYLINE
  5
25C
330
D
100
AcDbEntity
 67
     1
  8
LOGO
 62
     4
100
AcDbPolyline
 90
        4
 70
     1
 43
0.0
 10
18.08655523490128
 20
32.37556253847098
 10
327.546173694164
 20
32.37556253847091
 10
327.546173694164
 20
9.049275059535247
 10
18.08655523490128
 20
9.049275059535261
1001
GENIUS_GENREC_14
1002
{
1000
PYDIR
1011
18.08655523490128
1021
9.049275059535261
1031
0.0
1002
}
1002
{
1000
PXDIR
1011
327.546173694164
1021
32.37556253847091
1031
0.0
1002
}
1002
{
1000
PORI
1011
18.08655523490128
1021
32.37556253847098
1031
0.0
1002
}
1002
{
1000
PINS
1011
18.08655523490128
1021
32.37556253847098
1031
0.0
1002
}
1002
{
1000
PINS2
1011
327.546173694164
1021
9.049275059535247
1031
0.0
1002
}
1002
{
1000
C
1070
     1
1002
}
1001
GENIUS_GENOBJ-N-REC_13
1002
{
1000
OWNER
1000
GEN
1002
}
1001
GENIUS_GENODEF_13
1002
{
1000
HIER
1070
     0
1002
}
1002
{
1000
MANEDIT
1070
     0
1002
}
1002
{
1000
NOSEL
1070
     0
1002
}
1002
{
1000
BEHIND
1070
     0
1002
}
1002
{
1000
OTHER
1070
     0
1002
}
1002
{
1000
REACTOR
1002
}
  0
TEXT
  5
25D
330
D
100
AcDbEntity
 67
     1
  8
LOGO
100
AcDbText
 10
70.17411375375542
 20
10.29022434667675
 30
0.0
 40
2.332966553005305
  1
00909240
 41
0.7
  7
CHINESET
 72
     1
 11
76.16206123980237
 21
10.29022434667675
 31
0.0
100
AcDbText
  0
LINE
  5
25E
330
D
100
AcDbEntity
 67
     1
  8
LOGO
 62
     4
100
AcDbLine
 10
83.40218700658949
 20
13.71453255532312
 30
0.0
 11
83.40218700659113
 21
9.049275059535631
 31
0.0
  0
LINE
  5
25F
330
D
100
AcDbEntity
 67
     1
  8
LOGO
 62
     4
100
AcDbLine
 10
83.40218700658949
 20
13.71453255532312
 30
0.0
 11
69.40438768855926
 21
13.71453255532312
 31
0.0
  0
CIRCLE
  5
260
330
D
100
AcDbEntity
 67
     1
  8
LOGO
  6
Continuous
100
AcDbCircle
 10
58.17268325658552
 20
25.38266580475187
 30
0.0
 40
1.354379154918605
  0
CIRCLE
  5
261
330
D
100
AcDbEntity
 67
     1
  8
LOGO
  6
Continuous
100
AcDbCircle
 10
58.17268325658552
 20
25.38266580475187
 30
0.0
 40
0.7935462883792948
  0
LINE
  5
262
330
D
100
AcDbEntity
 67
     1
  8
LOGO
100
AcDbLine
 10
66.68375902160483
 20
24.02828664983312
 30
0.0
 11
66.68375902160483
 21
26.73704495967073
 31
0.0
  0
LINE
  5
263
330
D
100
AcDbEntity
 67
     1
  8
LOGO
100
AcDbLine
 10
62.43785811600776
 20
24.58911951637268
 30
0.0
 11
62.43785811600776
 21
26.17621209313146
 31
0.0
  0
LINE
  5
264
330
D
100
AcDbEntity
 67
     1
  8
LOGO
  6
Continuous
100
AcDbLine
 10
62.43785811600776
 20
26.17621209313146
 30
0.0
 11
66.68375902160483
 21
26.73704495967073
 31
0.0
  0
LINE
  5
265
330
D
100
AcDbEntity
 67
     1
  8
LOGO
  6
Continuous
100
AcDbLine
 10
62.43785811600776
 20
24.58911951637268
 30
0.0
 11
66.68375902160483
 21
24.02828664983312
 31
0.0
  0
LINE
  5
266
330
D
100
AcDbEntity
 67
     1
  8
LOGO
  6
AM_ISO08W050x2
 48
0.3
100
AcDbLine
 10
56.30565131129862
 20
25.38266580475187
 30
0.0
 11
60.03971520187093
 21
25.38266580475187
 31
0.0
1001
GENIUS_GENOREF_13
1005
26C
  0
LINE
  5
267
330
D
100
AcDbEntity
 67
     1
  8
LOGO
  6
AM_ISO08W050x2
 48
0.3
100
AcDbLine
 10
58.17268325658552
 20
23.51563385946596
 30
0.0
 11
58.17268325658552
 21
27.24969775003819
 31
0.0
1001
GENIUS_GENOREF_13
1005
26B
  0
LINE
  5
268
330
D
100
AcDbEntity
 67
     1
  8
LOGO
  6
CENTER
 48
0.5
100
AcDbLine
 10
62.09830405782373
 20
25.38266580475187
 30
0.0
 11
67.11130749810798
 21
25.38266580475187
 31
0.0
1001
GENIUS_GENOREF_13
1005
26A
  0
LWPOLYLINE
  5
269
330
D
100
AcDbEntity
 67
     1
  8
LOGO
 62
     4
100
AcDbPolyline
 90
        4
 70
     1
 43
0.0
 10
18.08655523490128
 20
222.6211988620381
 10
327.546173694164
 20
222.6211988620381
 10
327.546173694164
 20
32.37556253847091
 10
18.08655523490128
 20
32.37556253847091
  0
POINT
  5
26A
330
D
100
AcDbEntity
 67
     1
  8
0
 60
     1
100
AcDbPoint
 10
2318.94786148792
 20
-438.7884490354678
 30
0.0
1001
GENIUS_GENOBJ-N-CRS_13
1002
{
1000
OWNER
1000
GEN
1002
}
1001
GENIUS_GENOLIS_13
1002
{
1000
ENT
1005
0
1005
0
1005
0
1005
268
1002
}
1001
GENIUS_GENOENT_13
1002
{
1000
MYREF
1005
26A
1002
}
1002
{
1000
GRP
1005
0
1002
}
1001
GENIUS_GENODEF_13
1002
{
1000
HIER
1070
    10
1002
}
1002
{
1000
MANEDIT
1070
     1
1002
}
1002
{
1000
NOSEL
1070
     0
1002
}
1002
{
1000
BEHIND
1070
     0
1002
}
1002
{
1000
OTHER
1070
     0
1002
}
1002
{
1000
REACTOR
1002
}
  0
POINT
  5
26B
330
D
100
AcDbEntity
 67
     1
  8
0
 60
     1
100
AcDbPoint
 10
2307.623276265065
 20
-429.9128625568315
 30
0.0
1001
GENIUS_GENOBJ-N-CRS_13
1002
{
1000
OWNER
1000
GEN
1002
}
1001
GENIUS_GENOLIS_13
1002
{
1000
ENT
1005
0
1005
0
1005
0
1005
267
1002
}
1001
GENIUS_GENOENT_13
1002
{
1000
MYREF
1005
26B
1002
}
1002
{
1000
GRP
1005
0
1002
}
1001
GENIUS_GENODEF_13
1002
{
1000
HIER
1070
    10
1002
}
1002
{
1000
MANEDIT
1070
     1
1002
}
1002
{
1000
NOSEL
1070
     0
1002
}
1002
{
1000
BEHIND
1070
     0
1002
}
1002
{
1000
OTHER
1070
     0
1002
}
1002
{
1000
REACTOR
1002
}
  0
POINT
  5
26C
330
D
100
AcDbEntity
 67
     1
  8
0
 60
     1
100
AcDbPoint
 10
2313.981949962902
 20
-438.7884490354678
 30
0.0
1001
GENIUS_GENOBJ-N-CRS_13
1002
{
1000
OWNER
1000
GEN
1002
}
1001
GENIUS_GENOLIS_13
1002
{
1000
ENT
1005
0
1005
0
1005
0
1005
266
1002
}
1001
GENIUS_GENOENT_13
1002
{
1000
MYREF
1005
26C
1002
}
1002
{
1000
GRP
1005
0
1002
}
1001
GENIUS_GENODEF_13
1002
{
1000
HIER
1070
    10
1002
}
1002
{
1000
MANEDIT
1070
     1
1002
}
1002
{
1000
NOSEL
1070
     0
1002
}
1002
{
1000
BEHIND
1070
     0
1002
}
1002
{
1000
OTHER
1070
     0
1002
}
1002
{
1000
REACTOR
1002
}
  0
LINE
  5
280
330
D
100
AcDbEntity
 67
     1
  8
AM_7
100
AcDbLine
 10
117.9594496333854
 20
127.2746239644866
 30
0.0
 11
233.5843069992842
 21
127.2746239644866
 31
0.0
1001
GENIUS_GENODEF_13
1002
{
1000
HIER
1070
     0
1002
}
1002
{
1000
MANEDIT
1070
     0
1002
}
1002
{
1000
NOSEL
1070
     0
1002
}
1002
{
1000
BEHIND
1070
     0
1002
}
1002
{
1000
OTHER
1070
     0
1002
}
1002
{
1000
REACTOR
1002
}
1001
GENIUS_GENOBJ-N-CEN_13
1002
{
1000
OWNER
1000
GEN
1002
}
1001
GENIUS_GENCEN_19
1002
{
1040
4.5
1002
}
  0
LINE
  5
287
330
D
100
AcDbEntity
 67
     1
  8
AM_7
  6
AM_ISO08W050x2
100
AcDbLine
 10
202.8171669650611
 20
147.2746239644866
 30
0.0
 11
187.7577858718044
 21
147.2746239644866
 31
0.0
1001
GENIUS_GENOBJ-N-CEN_13
1002
{
1000
OWNER
1000
GEN
1002
}
1001
GENIUS_GENODEF_13
1002
{
1000
HIER
1070
     0
1002
}
1002
{
1000
MANEDIT
1070
     0
1002
}
1002
{
1000
NOSEL
1070
     0
1002
}
1002
{
1000
BEHIND
1070
     0
1002
}
1002
{
1000
OTHER
1070
     0
1002
}
1002
{
1000
REACTOR
1002
}
1001
GENIUS_GENCEN_19
1002
{
1040
4.5
1002
}
  0
LINE
  5
288
330
D
100
AcDbEntity
 67
     1
  8
AM_7
  6
AM_ISO08W050x2
100
AcDbLine
 10
195.3344680464897
 20
154.5896510543318
 30
0.0
 11
195.3344680464897
 21
138.1278668361348
 31
0.0
1001
GENIUS_GENOBJ-N-CEN_13
1002
{
1000
OWNER
1000
GEN
1002
}
1001
GENIUS_GENODEF_13
1002
{
1000
HIER
1070
     0
1002
}
1002
{
1000
MANEDIT
1070
     0
1002
}
1002
{
1000
NOSEL
1070
     0
1002
}
1002
{
1000
BEHIND
1070
     0
1002
}
1002
{
1000
OTHER
1070
     0
1002
}
1002
{
1000
REACTOR
1002
}
1001
GENIUS_GENCEN_19
1002
{
1040
4.5
1002
}
  0
LINE
  5
289
330
D
100
AcDbEntity
 67
     1
  8
AM_7
100
AcDbLine
 10
231.5056990710712
 20
136.5246239644865
 30
0.0
 11
231.5056990710711
 21
116.5246239644865
 31
0.0
  0
LINE
  5
291
330
D
100
AcDbEntity
 67
     1
  8
AM_7
  6
AM_ISO08W050x2
100
AcDbLine
 10
50.09744477023151
 20
149.7746239644866
 30
0.0
 11
35.03806367697484
 21
149.7746239644866
 31
0.0
1001
GENIUS_GENOBJ-N-CEN_13
1002
{
1000
OWNER
1000
GEN
1002
}
1001
GENIUS_GENODEF_13
1002
{
1000
HIER
1070
     0
1002
}
1002
{
1000
MANEDIT
1070
     0
1002
}
1002
{
1000
NOSEL
1070
     0
1002
}
1002
{
1000
BEHIND
1070
     0
1002
}
1002
{
1000
OTHER
1070
     0
1002
}
1002
{
1000
REACTOR
1002
}
1001
GENIUS_GENCEN_19
1002
{
1040
4.5
1002
}
  0
LINE
  5
292
330
D
100
AcDbEntity
 67
     1
  8
AM_7
  6
AM_ISO08W050x2
100
AcDbLine
 10
42.61474585166013
 20
157.0896510543318
 30
0.0
 11
42.61474585166013
 21
140.6278668361348
 31
0.0
1001
GENIUS_GENOBJ-N-CEN_13
1002
{
1000
OWNER
1000
GEN
1002
}
1001
GENIUS_GENODEF_13
1002
{
1000
HIER
1070
     0
1002
}
1002
{
1000
MANEDIT
1070
     0
1002
}
1002
{
1000
NOSEL
1070
     0
1002
}
1002
{
1000
BEHIND
1070
     0
1002
}
1002
{
1000
OTHER
1070
     0
1002
}
1002
{
1000
REACTOR
1002
}
1001
GENIUS_GENCEN_19
1002
{
1040
4.5
1002
}
  0
LINE
  5
293
330
D
100
AcDbEntity
 67
     1
  8
AM_7
  6
AM_ISO08W050x2
100
AcDbLine
 10
96.59744477023151
 20
149.7746239644866
 30
0.0
 11
81.53806367697484
 21
149.7746239644866
 31
0.0
1001
GENIUS_GENOBJ-N-CEN_13
1002
{
1000
OWNER
1000
GEN
1002
}
1001
GENIUS_GENODEF_13
1002
{
1000
HIER
1070
     0
1002
}
1002
{
1000
MANEDIT
1070
     0
1002
}
1002
{
1000
NOSEL
1070
     0
1002
}
1002
{
1000
BEHIND
1070
     0
1002
}
1002
{
1000
OTHER
1070
     0
1002
}
1002
{
1000
REACTOR
1002
}
1001
GENIUS_GENCEN_19
1002
{
1040
4.5
1002
}
  0
LINE
  5
294
330
D
100
AcDbEntity
 67
     1
  8
AM_7
  6
AM_ISO08W050x2
100
AcDbLine
 10
89.11474585166013
 20
157.0896510543318
 30
0.0
 11
89.11474585166013
 21
140.6278668361348
 31
0.0
1001
GENIUS_GENOBJ-N-CEN_13
1002
{
1000
OWNER
1000
GEN
1002
}
1001
GENIUS_GENODEF_13
1002
{
1000
HIER
1070
     0
1002
}
1002
{
1000
MANEDIT
1070
     0
1002
}
1002
{
1000
NOSEL
1070
     0
1002
}
1002
{
1000
BEHIND
1070
     0
1002
}
1002
{
1000
OTHER
1070
     0
1002
}
1002
{
1000
REACTOR
1002
}
1001
GENIUS_GENCEN_19
1002
{
1040
4.5
1002
}
  0
LINE
  5
295
330
D
100
AcDbEntity
 67
     1
  8
AM_7
  6
AM_ISO08W050x2
100
AcDbLine
 10
96.59744477023151
 20
103.2746239644866
 30
0.0
 11
81.53806367697484
 21
103.2746239644866
 31
0.0
1001
GENIUS_GENOBJ-N-CEN_13
1002
{
1000
OWNER
1000
GEN
1002
}
1001
GENIUS_GENODEF_13
1002
{
1000
HIER
1070
     0
1002
}
1002
{
1000
MANEDIT
1070
     0
1002
}
1002
{
1000
NOSEL
1070
     0
1002
}
1002
{
1000
BEHIND
1070
     0
1002
}
1002
{
1000
OTHER
1070
     0
1002
}
1002
{
1000
REACTOR
1002
}
1001
GENIUS_GENCEN_19
1002
{
1040
4.5
1002
}
  0
LINE
  5
296
330
D
100
AcDbEntity
 67
     1
  8
AM_7
  6
AM_ISO08W050x2
100
AcDbLine
 10
89.11474585166013
 20
110.5896510543318
 30
0.0
 11
89.11474585166013
 21
94.12786683613479
 31
0.0
1001
GENIUS_GENOBJ-N-CEN_13
1002
{
1000
OWNER
1000
GEN
1002
}
1001
GENIUS_GENODEF_13
1002
{
1000
HIER
1070
     0
1002
}
1002
{
1000
MANEDIT
1070
     0
1002
}
1002
{
1000
NOSEL
1070
     0
1002
}
1002
{
1000
BEHIND
1070
     0
1002
}
1002
{
1000
OTHER
1070
     0
1002
}
1002
{
1000
REACTOR
1002
}
1001
GENIUS_GENCEN_19
1002
{
1040
4.5
1002
}
  0
LINE
  5
297
330
D
100
AcDbEntity
 67
     1
  8
AM_7
  6
AM_ISO08W050x2
100
AcDbLine
 10
50.09744477023151
 20
103.2746239644866
 30
0.0
 11
35.03806367697484
 21
103.2746239644866
 31
0.0
1001
GENIUS_GENOBJ-N-CEN_13
1002
{
1000
OWNER
1000
GEN
1002
}
1001
GENIUS_GENODEF_13
1002
{
1000
HIER
1070
     0
1002
}
1002
{
1000
MANEDIT
1070
     0
1002
}
1002
{
1000
NOSEL
1070
     0
1002
}
1002
{
1000
BEHIND
1070
     0
1002
}
1002
{
1000
OTHER
1070
     0
1002
}
1002
{
1000
REACTOR
1002
}
1001
GENIUS_GENCEN_19
1002
{
1040
4.5
1002
}
  0
LINE
  5
298
330
D
100
AcDbEntity
 67
     1
  8
AM_7
  6
AM_ISO08W050x2
100
AcDbLine
 10
42.61474585166013
 20
110.5896510543318
 30
0.0
 11
42.61474585166013
 21
94.12786683613479
 31
0.0
1001
GENIUS_GENOBJ-N-CEN_13
1002
{
1000
OWNER
1000
GEN
1002
}
1001
GENIUS_GENODEF_13
1002
{
1000
HIER
1070
     0
1002
}
1002
{
1000
MANEDIT
1070
     0
1002
}
1002
{
1000
NOSEL
1070
     0
1002
}
1002
{
1000
BEHIND
1070
     0
1002
}
1002
{
1000
OTHER
1070
     0
1002
}
1002
{
1000
REACTOR
1002
}
1001
GENIUS_GENCEN_19
1002
{
1040
4.5
1002
}
  0
ARC
  5
299
330
D
100
AcDbEntity
 67
     1
  8
AM_VIS
100
AcDbCircle
 10
42.61474585166013
 20
149.7746239644866
 30
0.0
 40
4.155999999999998
100
AcDbArc
 50
251.1043797071526
 51
200.0734286904633
  0
ARC
  5
29A
330
D
100
AcDbEntity
 67
     1
  8
AM_VIS
100
AcDbCircle
 10
89.11474585166013
 20
149.7746239644866
 30
0.0
 40
4.155999999999998
100
AcDbArc
 50
251.1043797071526
 51
200.0734286904633
  0
ARC
  5
29B
330
D
100
AcDbEntity
 67
     1
  8
AM_VIS
100
AcDbCircle
 10
89.11474585166013
 20
103.2746239644866
 30
0.0
 40
4.155999999999998
100
AcDbArc
 50
251.1043797071526
 51
200.0734286904633
  0
DIMENSION
  5
29D
330
D
100
AcDbEntity
 67
     1
  8
AM_5
100
AcDbDimension
  2
*D1
 10
98.36474585166014
 20
75.69129063115319
 30
0.0
 11
65.86474585166013
 21
78.39962396448652
 31
0.0
 70
    32
  1
{\Famgdt;o}<>
 71
     5
 42
65.0
  3
AM_ISO$0
100
AcDbAlignedDimension
 13
33.36474585166013
 23
95.39987496951471
 33
0.0
 14
98.36474585166014
 24
95.39987496951471
 34
0.0
100
AcDbRotatedDimension
1001
ACAD
1000
DSTYLE
1002
{
1070
    40
1040
0.8333333333333333
1002
}
  0
DIMENSION
  5
2BD
330
D
100
AcDbEntity
 67
     1
  8
AM_5
100
AcDbDimension
  2
*D2
 10
89.11474585166013
 20
84.02462396448653
 30
0.0
 11
65.86474585166013
 21
86.73295729781985
 31
0.0
 70
    32
  1
{\Famgdt;o}<>
 71
     5
 42
46.5
  3
AM_ISO$0
100
AcDbAlignedDimension
 13
42.61474585166013
 23
94.12786683613479
 33
0.0
 14
89.11474585166013
 24
94.12786683613479
 34
0.0
100
AcDbRotatedDimension
1001
ACAD
1000
DSTYLE
1002
{
1070
    40
1040
0.8333333333333333
1002
}
  0
DIMENSION
  5
326
330
D
100
AcDbEntity
 67
     1
  8
AM_5
100
AcDbDimension
  2
*D3
 10
319.9385318922556
 20
75.69129063115332
 30
0.0
 11
287.4385318922556
 21
78.39962396448665
 31
0.0
 70
    32
  1
{\Famgdt;o}<>
 71
     5
 42
65.0
  3
AM_ISO$0
100
AcDbAlignedDimension
 13
254.9385318922556
 23
95.39987496951471
 33
0.0
 14
319.9385318922556
 24
95.39987496951471
 34
0.0
 50
0.0000000000001132
100
AcDbRotatedDimension
1001
ACAD
1000
DSTYLE
1002
{
1070
    40
1040
0.8333333333333333
1002
}
  0
DIMENSION
  5
396
330
D
100
AcDbEntity
 67
     1
  8
AM_5
100
AcDbDimension
  2
*D4
 10
137.3344680464897
 20
84.5246239644865
 30
0.0
 11
132.3344680464897
 21
87.23295729781984
 31
0.0
 70
    32
 71
     5
 42
9.999999999999943
  3
AM_ISO$0
100
AcDbAlignedDimension
 13
127.3344680464897
 23
107.7746239644866
 33
0.0
 14
137.3344680464897
 24
94.52462396448652
 34
0.0
 50
0.0000000000001132
100
AcDbRotatedDimension
1001
ACAD
1000
DSTYLE
1002
{
1070
    40
1040
0.8333333333333333
1070
   174
1070
     1
1002
}
  0
DIMENSION
  5
3B5
330
D
100
AcDbEntity
 67
     1
  8
AM_5
100
AcDbDimension
  2
*D5
 10
227.3344680464898
 20
84.52462396448661
 30
0.0
 11
182.3344680464897
 21
87.23295729781993
 31
0.0
 70
    32
 71
     5
 42
90.00000000000005
  3
AM_ISO$0
100
AcDbAlignedDimension
 13
137.3344680464897
 23
94.52462396448652
 33
0.0
 14
227.3344680464898
 24
94.52462396448657
 34
0.0
100
AcDbRotatedDimension
1001
ACAD
1000
DSTYLE
1002
{
1070
   174
1070
     1
1070
    40
1040
0.8333333333333333
1002
}
  0
DIMENSION
  5
3CC
330
D
100
AcDbEntity
 67
     1
  8
AM_5
100
AcDbDimension
  2
*D6
 10
227.3344680464898
 20
76.19129063115348
 30
0.0
 11
177.3344680464897
 21
78.8996239644868
 31
0.0
 70
    32
 71
     5
 42
100.0
  3
AM_ISO$0
100
AcDbAlignedDimension
 13
127.3344680464897
 23
107.7746239644866
 33
0.0
 14
227.3344680464898
 24
94.52462396448657
 34
0.0
 50
0.0000000000001132
100
AcDbRotatedDimension
1001
ACAD
1000
DSTYLE
1002
{
1070
    40
1040
0.8333333333333333
1002
}
  0
DIMENSION
  5
3E2
330
D
100
AcDbEntity
 67
     1
  8
AM_5
100
AcDbDimension
  2
*D7
 10
195.3344680464897
 20
147.2746239644866
 30
0.0
 11
179.1417883579733
 21
164.7229994568777
 31
0.0
 70
   164
  1
G1/8
 71
     5
 42
5.08322499999997
  3
AM_ISO$4
100
AcDbRadialDimension
 15
192.5597562519868
 25
151.5337495623143
 35
0.0
 40
0.0
1001
ACAD
1000
DSTYLE
1002
{
1070
    40
1040
0.8333333333333333
1002
}
  0
DIMENSION
  5
3FF
330
D
100
AcDbEntity
 67
     1
  8
AM_5
100
AcDbDimension
  2
*D8
 10
42.61474585166014
 20
149.7746239644867
 30
0.0
 11
57.52373670062467
 21
163.4933353615462
 31
0.0
 70
   164
  1
4-M8*12
 71
     5
 42
4.156000000000062
  3
AM_ISO$4
100
AcDbRadialDimension
 15
44.44236738208284
 25
153.5072015646896
 35
0.0
 40
0.0
1001
ACAD
1000
DSTYLE
1002
{
1070
    40
1040
0.8333333333333333
1002
}
  0
DIMENSION
  5
427
330
D
100
AcDbEntity
 67
     1
  8
AM_5
100
AcDbDimension
  2
*D9
 10
116.3344670464897
 20
136.5246239644865
 30
0.0
 11
113.6258466396655
 21
126.5246239644866
 31
0.0
 70
    32
  1
%%c<>
 71
     5
 42
19.99999999999997
  3
AM_ISO$0
100
AcDbAlignedDimension
 13
123.834468046489
 23
116.5246239644865
 33
0.0
 14
123.834468046489
 24
136.5246239644865
 34
0.0
 50
90.0
100
AcDbRotatedDimension
1001
ACAD
1000
DSTYLE
1002
{
1070
    40
1040
0.8333333333333333
1002
}
  0
DIMENSION
  5
446
330
D
100
AcDbEntity
 67
     1
  8
AM_5
100
AcDbDimension
  2
*D10
 10
110.2475542783315
 20
107.2746239644866
 30
0.0
 11
110.2475542783315
 21
127.3380477995391
 31
0.0
 70
   160
  1
%%c<>
 71
     5
 42
40.0
  3
AM_ISO$0
100
AcDbAlignedDimension
 13
127.8344680464897
 23
147.2746239644866
 33
0.0
 14
127.8344680464897
 24
107.2746239644866
 34
0.0
 50
90.0
100
AcDbRotatedDimension
1001
ACAD
1000
DSTYLE
1002
{
1070
    40
1040
0.8333333333333333
1002
}
  0
LINE
  5
478
330
D
100
AcDbEntity
 67
     1
  8
HIDDEN
100
AcDbLine
 10
227.3344680464898
 20
107.0246239644866
 30
0.0
 11
201.3344680464898
 21
107.0246239644866
 31
0.0
  0
LINE
  5
479
330
D
100
AcDbEntity
 67
     1
  8
HIDDEN
100
AcDbLine
 10
198.3344680464898
 20
110.0246239644866
 30
0.0
 11
198.3344680464898
 21
144.5246239644865
 31
0.0
  0
LINE
  5
47A
330
D
100
AcDbEntity
 67
     1
  8
HIDDEN
100
AcDbLine
 10
201.3344680464898
 20
147.5246239644866
 30
0.0
 11
227.3344680464898
 21
147.5246239644866
 31
0.0
  0
LINE
  5
4AF
330
D
100
AcDbEntity
 67
     1
  8
AM_7
  6
AM_ISO08W050x2
100
AcDbLine
 10
271.671230810827
 20
149.7746239644865
 30
0.0
 11
256.6118497175703
 21
149.7746239644865
 31
0.0
1001
GENIUS_GENOBJ-N-CEN_13
1002
{
1000
OWNER
1000
GEN
1002
}
1001
GENIUS_GENODEF_13
1002
{
1000
HIER
1070
     0
1002
}
1002
{
1000
MANEDIT
1070
     0
1002
}
1002
{
1000
NOSEL
1070
     0
1002
}
1002
{
1000
BEHIND
1070
     0
1002
}
1002
{
1000
OTHER
1070
     0
1002
}
1002
{
1000
REACTOR
1002
}
1001
GENIUS_GENCEN_19
1002
{
1040
4.5
1002
}
  0
LINE
  5
4B0
330
D
100
AcDbEntity
 67
     1
  8
AM_7
  6
AM_ISO08W050x2
100
AcDbLine
 10
264.1885318922556
 20
157.0896510543318
 30
0.0
 11
264.1885318922556
 21
140.6278668361348
 31
0.0
1001
GENIUS_GENOBJ-N-CEN_13
1002
{
1000
OWNER
1000
GEN
1002
}
1001
GENIUS_GENODEF_13
1002
{
1000
HIER
1070
     0
1002
}
1002
{
1000
MANEDIT
1070
     0
1002
}
1002
{
1000
NOSEL
1070
     0
1002
}
1002
{
1000
BEHIND
1070
     0
1002
}
1002
{
1000
OTHER
1070
     0
1002
}
1002
{
1000
REACTOR
1002
}
1001
GENIUS_GENCEN_19
1002
{
1040
4.5
1002
}
  0
LINE
  5
4B1
330
D
100
AcDbEntity
 67
     1
  8
AM_7
  6
AM_ISO08W050x2
100
AcDbLine
 10
318.171230810827
 20
149.7746239644865
 30
0.0
 11
303.1118497175703
 21
149.7746239644865
 31
0.0
1001
GENIUS_GENOBJ-N-CEN_13
1002
{
1000
OWNER
1000
GEN
1002
}
1001
GENIUS_GENODEF_13
1002
{
1000
HIER
1070
     0
1002
}
1002
{
1000
MANEDIT
1070
     0
1002
}
1002
{
1000
NOSEL
1070
     0
1002
}
1002
{
1000
BEHIND
1070
     0
1002
}
1002
{
1000
OTHER
1070
     0
1002
}
1002
{
1000
REACTOR
1002
}
1001
GENIUS_GENCEN_19
1002
{
1040
4.5
1002
}
  0
LINE
  5
4B2
330
D
100
AcDbEntity
 67
     1
  8
AM_7
  6
AM_ISO08W050x2
100
AcDbLine
 10
310.6885318922556
 20
157.0896510543318
 30
0.0
 11
310.6885318922556
 21
140.6278668361348
 31
0.0
1001
GENIUS_GENOBJ-N-CEN_13
1002
{
1000
OWNER
1000
GEN
1002
}
1001
GENIUS_GENODEF_13
1002
{
1000
HIER
1070
     0
1002
}
1002
{
1000
MANEDIT
1070
     0
1002
}
1002
{
1000
NOSEL
1070
     0
1002
}
1002
{
1000
BEHIND
1070
     0
1002
}
1002
{
1000
OTHER
1070
     0
1002
}
1002
{
1000
REACTOR
1002
}
1001
GENIUS_GENCEN_19
1002
{
1040
4.5
1002
}
  0
LINE
  5
4B3
330
D
100
AcDbEntity
 67
     1
  8
AM_7
  6
AM_ISO08W050x2
100
AcDbLine
 10
318.171230810827
 20
103.2746239644865
 30
0.0
 11
303.1118497175703
 21
103.2746239644865
 31
0.0
1001
GENIUS_GENOBJ-N-CEN_13
1002
{
1000
OWNER
1000
GEN
1002
}
1001
GENIUS_GENODEF_13
1002
{
1000
HIER
1070
     0
1002
}
1002
{
1000
MANEDIT
1070
     0
1002
}
1002
{
1000
NOSEL
1070
     0
1002
}
1002
{
1000
BEHIND
1070
     0
1002
}
1002
{
1000
OTHER
1070
     0
1002
}
1002
{
1000
REACTOR
1002
}
1001
GENIUS_GENCEN_19
1002
{
1040
4.5
1002
}
  0
LINE
  5
4B4
330
D
100
AcDbEntity
 67
     1
  8
AM_7
  6
AM_ISO08W050x2
100
AcDbLine
 10
310.6885318922556
 20
110.5896510543317
 30
0.0
 11
310.6885318922556
 21
94.12786683613475
 31
0.0
1001
GENIUS_GENOBJ-N-CEN_13
1002
{
1000
OWNER
1000
GEN
1002
}
1001
GENIUS_GENODEF_13
1002
{
1000
HIER
1070
     0
1002
}
1002
{
1000
MANEDIT
1070
     0
1002
}
1002
{
1000
NOSEL
1070
     0
1002
}
1002
{
1000
BEHIND
1070
     0
1002
}
1002
{
1000
OTHER
1070
     0
1002
}
1002
{
1000
REACTOR
1002
}
1001
GENIUS_GENCEN_19
1002
{
1040
4.5
1002
}
  0
LINE
  5
4B5
330
D
100
AcDbEntity
 67
     1
  8
AM_7
  6
AM_ISO08W050x2
100
AcDbLine
 10
271.671230810827
 20
103.2746239644865
 30
0.0
 11
256.6118497175703
 21
103.2746239644865
 31
0.0
1001
GENIUS_GENOBJ-N-CEN_13
1002
{
1000
OWNER
1000
GEN
1002
}
1001
GENIUS_GENODEF_13
1002
{
1000
HIER
1070
     0
1002
}
1002
{
1000
MANEDIT
1070
     0
1002
}
1002
{
1000
NOSEL
1070
     0
1002
}
1002
{
1000
BEHIND
1070
     0
1002
}
1002
{
1000
OTHER
1070
     0
1002
}
1002
{
1000
REACTOR
1002
}
1001
GENIUS_GENCEN_19
1002
{
1040
4.5
1002
}
  0
LINE
  5
4B6
330
D
100
AcDbEntity
 67
     1
  8
AM_7
  6
AM_ISO08W050x2
100
AcDbLine
 10
264.1885318922556
 20
110.5896510543317
 30
0.0
 11
264.1885318922556
 21
94.12786683613475
 31
0.0
1001
GENIUS_GENOBJ-N-CEN_13
1002
{
1000
OWNER
1000
GEN
1002
}
1001
GENIUS_GENODEF_13
1002
{
1000
HIER
1070
     0
1002
}
1002
{
1000
MANEDIT
1070
     0
1002
}
1002
{
1000
NOSEL
1070
     0
1002
}
1002
{
1000
BEHIND
1070
     0
1002
}
1002
{
1000
OTHER
1070
     0
1002
}
1002
{
1000
REACTOR
1002
}
1001
GENIUS_GENCEN_19
1002
{
1040
4.5
1002
}
  0
DIMENSION
  5
4B7
330
D
100
AcDbEntity
 67
     1
  8
AM_5
100
AcDbDimension
  2
*D11
 10
310.6885318922556
 20
84.12786683613473
 30
0.0
 11
287.4385318922556
 21
86.83620016946806
 31
0.0
 70
    32
  1
{\Famgdt;o}<>
 71
     5
 42
46.5
  3
AM_ISO$0
100
AcDbAlignedDimension
 13
264.1885318922556
 23
94.12786683613475
 33
0.0
 14
310.6885318922556
 24
94.12786683613475
 34
0.0
 50
0.0000000000001132
100
AcDbRotatedDimension
1001
ACAD
1000
DSTYLE
1002
{
1070
    40
1040
0.8333333333333333
1002
}
  0
DIMENSION
  5
4F3
330
D
100
AcDbEntity
 67
     1
  8
AM_5
100
AcDbDimension
  2
*D12
 10
240.0720860969434
 20
147.5246239644866
 30
0.0
 11
240.0720860969434
 21
127.2746239644866
 31
0.0
 70
   160
  1
%%c<>
 71
     5
 42
40.49999999999998
  3
AM_ISO$0
100
AcDbAlignedDimension
 13
227.3344680464898
 23
107.0246239644866
 33
0.0
 14
227.3344680464898
 24
147.5246239644866
 34
0.0
 50
90.00000000000003
100
AcDbRotatedDimension
1001
ACAD
1000
DSTYLE
1002
{
1070
    40
1040
0.8333333333333333
1002
}
  0
DIMENSION
  5
513
330
D
100
AcDbEntity
 67
     1
  8
AM_5
100
AcDbDimension
  2
*D13
 10
227.3344680464898
 20
168.1632090035993
 30
0.0
 11
212.8344680464898
 21
170.8718294104234
 31
0.0
 70
    32
 71
     5
 42
28.99999999999997
  3
AM_ISO$0
100
AcDbAlignedDimension
 13
198.3344680464898
 23
144.5246239644865
 33
0.0
 14
227.3344680464898
 24
147.5246239644866
 34
0.0
 50
0.0000000000000114
100
AcDbRotatedDimension
1001
ACAD
1000
DSTYLE
1002
{
1070
    40
1040
0.8333333333333333
1002
}
  0
ARC
  5
535
330
D
100
AcDbEntity
 67
     1
  8
HIDDEN
100
AcDbCircle
 10
201.3344680464898
 20
144.5246239644865
 30
0.0
 40
3.0
100
AcDbArc
 50
90.0
 51
180.0
  0
ARC
  5
538
330
D
100
AcDbEntity
 67
     1
  8
HIDDEN
100
AcDbCircle
 10
201.3344680464898
 20
110.0246239644866
 30
0.0
 40
3.0
100
AcDbArc
 50
179.9999999999999
 51
270.0
  0
DIMENSION
  5
542
330
D
100
AcDbEntity
 67
     1
  8
AM_5
100
AcDbDimension
  2
*D14
 10
262.93127975197
 20
145.4538234534993
 30
0.0
 11
274.4580649176685
 21
166.3800533657371
 31
0.0
 70
   163
  1
4-<>
 71
     5
 42
8.999999999999943
  3
AM_ISO$3
100
AcDbDiametricDimension
 15
265.4457840325413
 25
154.0954244754737
 35
0.0
 40
0.0
1001
ACAD
1000
DSTYLE
1002
{
1070
    40
1040
0.8333333333333333
1002
}
  0
LEADER
  5
56A
330
D
100
AcDbEntity
 67
     1
  8
AM_5
100
AcDbLeader
  3
AM_ISO$7
 73
     0
 74
     0
 75
     1
 40
3.645833333333333
 41
13.24051837270342
 76
     3
 10
229.1948604996882
 20
136.5246239644865
 30
0.0
 10
237.8150510469142
 20
167.8469958907534
 30
0.0
 10
239.8983843802475
 20
167.8469958907534
 30
0.0
340
56B
213
1.744925806129572
223
1.331297446842995
233
0.0
1001
ACAD
1000
DSTYLE
1002
{
1070
    40
1040
0.8333333333333333
1002
}
  0
MTEXT
  5
56B
102
{ACAD_REACTORS
330
56A
102
}
330
D
100
AcDbEntity
 67
     1
  8
AM_5
100
AcDbMText
 10
239.4034585741179
 20
167.7656984439104
 30
0.0
 40
2.916666666666666
 41
0.0
 71
     7
 72
     1
  1
Support
 73
     1
 44
1.0
1001
ACAD
1000
MTEXTBEGIN
1070
    73
1070
     1
1070
    44
1040
1.0
1070
    74
1070
     0
1000
MTEXTEND
  0
LINE
  5
615
330
D
100
AcDbEntity
 67
     1
  8
AM_7
  6
AM_ISO08W050x2
100
AcDbLine
 10
88.95926010326055
 20
126.5246239644865
 30
0.0
 11
42.86511421321352
 21
126.5246239644865
 31
0.0
1001
GENIUS_GENOREF_13
1005
617
  0
LINE
  5
616
330
D
100
AcDbEntity
 67
     1
  8
AM_7
  6
AM_ISO08W050x2
100
AcDbLine
 10
65.86474585166019
 20
149.1087923835154
 30
0.0
 11
65.86474585166019
 21
103.8489231011675
 31
0.0
1001
GENIUS_GENOREF_13
1005
617
  0
POINT
  5
617
330
D
100
AcDbEntity
 67
     1
  8
0
 60
     1
100
AcDbPoint
 10
-210.980256088736
 20
131.7960619694118
 30
0.0
1001
GENIUS_GENOLIS_13
1002
{
1000
ENT
1005
616
1005
615
1005
0
1005
0
1002
}
1001
GENIUS_GENOENT_13
1002
{
1000
MYREF
1005
617
1002
}
1002
{
1000
GRP
1005
0
1002
}
1001
GENIUS_GENOBJ-N-CRS_13
1002
{
1000
OWNER
1000
GEN
1002
}
1001
GENIUS_GENODEF_13
1002
{
1000
HIER
1070
    10
1002
}
1002
{
1000
MANEDIT
1070
     1
1002
}
1002
{
1000
NOSEL
1070
     0
1002
}
1002
{
1000
BEHIND
1070
     0
1002
}
1002
{
1000
OTHER
1070
     0
1002
}
1002
{
1000
REACTOR
1002
}
  0
LINE
  5
618
330
D
100
AcDbEntity
 67
     1
  8
AM_7
  6
AM_ISO08W050x2
100
AcDbLine
 10
310.5330461438559
 20
126.5246239644865
 30
0.0
 11
264.4389002538089
 21
126.5246239644865
 31
0.0
1001
GENIUS_GENOREF_13
1005
61A
  0
LINE
  5
619
330
D
100
AcDbEntity
 67
     1
  8
AM_7
  6
AM_ISO08W050x2
100
AcDbLine
 10
287.4385318922556
 20
149.1087923835154
 30
0.0
 11
287.4385318922556
 21
103.8489231011675
 31
0.0
1001
GENIUS_GENOREF_13
1005
61A
  0
POINT
  5
61A
330
D
100
AcDbEntity
 67
     1
  8
0
 60
     1
100
AcDbPoint
 10
10.59352995185941
 20
131.7960619694118
 30
0.0
1001
GENIUS_GENOLIS_13
1002
{
1000
ENT
1005
619
1005
618
1005
0
1005
0
1002
}
1001
GENIUS_GENOENT_13
1002
{
1000
MYREF
1005
61A
1002
}
1002
{
1000
GRP
1005
0
1002
}
1001
GENIUS_GENOBJ-N-CRS_13
1002
{
1000
OWNER
1000
GEN
1002
}
1001
GENIUS_GENODEF_13
1002
{
1000
HIER
1070
    10
1002
}
1002
{
1000
MANEDIT
1070
     1
1002
}
1002
{
1000
NOSEL
1070
     0
1002
}
1002
{
1000
BEHIND
1070
     0
1002
}
1002
{
1000
OTHER
1070
     0
1002
}
1002
{
1000
REACTOR
1002
}
  0
CIRCLE
  5
63C
330
D
100
AcDbEntity
 67
     1
  8
0
100
AcDbCircle
 10
287.4385318922556
 20
126.5246239644865
 30
0.0
 40
20.25
  0
ENDSEC
  0
SECTION
  2
OBJECTS
  0
DICTIONARY
  5
8
330
0
100
AcDbDictionary
281
     1
  3
ACAD_COLOR
350
38
  3
ACAD_GROUP
350
34
  3
ACAD_LAYOUT
350
C
  3
ACAD_MATERIAL
350
37
  3
ACAD_MLINESTYLE
350
35
  3
ACAD_PLOTSETTINGS
350
36
  3
ACAD_PLOTSTYLENAME
350
7
  3
ACAD_TABLESTYLE
350
39
  3
AcadDim
350
569
  3
ACDBHEADERROUNDTRIPXREC
350
74F
  3
AcDbVariableDictionary
350
D3
  3
AcmDictionary
350
137
  3
AMG
350
DF
  3
AMGSNAPSETTINGS
350
16F
  3
DWGPROPS
350
74E
  3
MAPISURF_MODULE
350
6D0
  0
DICTIONARY
  5
14
330
13
100
AcDbDictionary
280
     1
281
     1
  3
ACAD_LAYERFILTERS
360
28F
  3
ACAD_LAYERSTATES
360
15
  3
ACLYDICTIONARY
360
28E
  0
DICTIONARY
  5
3
330
2
100
AcDbDictionary
280
     1
281
     1
  3
ACAD_INDEX
360
723
  0
DICTIONARY
  5
536
330
D
100
AcDbDictionary
280
     1
281
     1
  3
ACAD_SORTENTS
360
537
  0
DICTIONARY
  5
753
330
DD
100
AcDbDictionary
280
     1
281
     1
  3
ACAD_XREC_ROUNDTRIP
360
754
  0
DICTIONARY
  5
38
102
{ACAD_REACTORS
330
8
102
}
330
8
100
AcDbDictionary
281
     1
  0
DICTIONARY
  5
34
102
{ACAD_REACTORS
330
8
102
}
330
8
100
AcDbDictionary
281
     1
  0
DICTIONARY
  5
C
102
{ACAD_REACTORS
330
8
102
}
330
8
100
AcDbDictionary
281
     1
  3
Model
350
B
  3
配置1
350
10
  0
DICTIONARY
  5
37
102
{ACAD_REACTORS
330
8
102
}
330
8
100
AcDbDictionary
281
     1
  0
DICTIONARY
  5
35
102
{ACAD_REACTORS
330
8
102
}
330
8
100
AcDbDictionary
281
     1
  3
STANDARD
350
3A
  0
DICTIONARY
  5
36
102
{ACAD_REACTORS
330
8
102
}
330
8
100
AcDbDictionary
281
     1
  0
ACDBDICTIONARYWDFLT
  5
7
102
{ACAD_REACTORS
330
8
102
}
330
8
100
AcDbDictionary
281
     1
  3
Normal
350
6
100
AcDbDictionaryWithDefault
340
6
  0
DICTIONARY
  5
39
102
{ACAD_REACTORS
330
8
102
}
330
8
100
AcDbDictionary
281
     1
  3
Standard
350
3B
  0
XRECORD
  5
569
102
{ACAD_REACTORS
330
8
102
}
330
8
100
AcDbXrecord
280
     1
 90
   990106
  3

 60
     0
 61
     0
 62
     1
 63
     3
 64
     1
 65
     0
 66
     0
 67
     3
 68
     0
 69
     0
 70
     0
 71
     0
 72
     0
 40
0.0
170
     2
340
56B
  0
DICTIONARY
  5
74F
102
{ACAD_REACTORS
330
8
102
}
330
8
100
AcDbDictionary
281
     1
  0
DICTIONARY
  5
D3
102
{ACAD_REACTORS
330
8
102
}
330
8
100
AcDbDictionary
281
     1
  3
CTABLESTYLE
350
D4
  3
DIMASSOC
350
D6
  3
HIDETEXT
350
D5
  3
INDEXCTL
350
74D
  3
PROJECTNAME
350
D7
  0
DICTIONARY
  5
137
102
{ACAD_REACTORS
330
8
102
}
330
8
100
AcDbDictionary
281
     1
  3
AcmStdDictionary
350
144
  3
AMDTSECTSYM_ARROWCOLOR
350
161
  0
DICTIONARY
  5
DF
102
{ACAD_REACTORS
330
8
102
}
330
8
100
AcDbDictionary
281
     1
  3
AcMgSettings
350
64C
  0
DICTIONARY
  5
16F
102
{ACAD_REACTORS
330
8
102
}
330
8
100
AcDbDictionary
281
     1
  0
XRECORD
  5
74E
102
{ACAD_REACTORS
330
8
102
}
330
8
100
AcDbXrecord
280
     1
  1
DWGPROPS COOKIE
  2

  3

  4

  6

  7

  8

  9

300
AmdtFileType=84
301
=
302
=
303
=
304
=
305
=
306
=
307
=
308
=
309
=
 40
0.0465290856481482
 41
2455098.662536528
 42
2455117.71119309
  1

 90
        1
  0
DICTIONARY
  5
28F
102
{ACAD_REACTORS
330
14
102
}
330
14
100
AcDbDictionary
281
     1
  0
DICTIONARY
  5
15
102
{ACAD_REACTORS
330
14
102
}
330
14
100
AcDbDictionary
281
     1
  0
DICTIONARY
  5
28E
102
{ACAD_REACTORS
330
14
102
}
330
14
100
AcDbDictionary
281
     1
1001
ACAD
1000
<All
  0
DICTIONARY
  5
723
102
{ACAD_REACTORS
330
3
102
}
330
3
100
AcDbDictionary
281
     1
  3
*A1
350
724
  0
SORTENTSTABLE
  5
537
102
{ACAD_REACTORS
330
536
102
}
330
536
100
AcDbSortentsTable
330
D
331
C4
  5
C4
331
7D
  5
7D
331
219
  5
219
331
258
  5
258
331
46
  5
46
331
CC
  5
CC
331
85
  5
85
331
221
  5
221
331
260
  5
260
331
4E
  5
4E
331
268
  5
268
331
8D
  5
8D
331
229
  5
229
331
396
  5
396
331
56
  5
56
331
95
  5
95
331
5E
  5
5E
331
4B3
  5
4B5
331
202
  5
202
331
9D
  5
9D
331
239
  5
239
331
280
  5
280
331
66
  5
66
331
20A
  5
20A
331
288
  5
288
331
6E
  5
6E
331
B5
  5
B5
331
212
  5
212
331
76
  5
76
331
4F3
  5
535
331
251
  5
251
331
BD
  5
BD
331
259
  5
259
331
7E
  5
7E
331
C5
  5
C5
331
21A
  5
21A
331
298
  5
298
331
47
  5
47
331
513
  5
538
331
222
  5
222
331
86
  5
86
331
261
  5
261
331
4F
  5
4F
331
22A
  5
22A
331
8E
  5
8E
331
269
  5
269
331
57
  5
57
331
DD
  5
DD
331
96
  5
96
331
1FB
  5
1FB
331
232
  5
232
331
5F
  5
5F
331
4B4
  5
4B6
331
9E
  5
9E
331
203
  5
203
331
23A
  5
23A
331
67
  5
67
331
242
  5
242
331
A6
  5
A6
331
20B
  5
20B
331
289
  5
289
331
6F
  5
6F
331
213
  5
213
331
B6
  5
B6
331
24A
  5
24A
331
291
  5
291
331
77
  5
77
331
252
  5
252
331
BE
  5
BE
331
21B
  5
21B
331
7F
  5
7F
331
25A
  5
25A
331
299
  5
299
331
48
  5
48
331
223
  5
223
331
87
  5
87
331
262
  5
262
331
50
  5
50
331
446
  5
446
331
8F
  5
8F
331
58
  5
58
331
1FC
  5
1FC
331
97
  5
97
331
233
  5
233
331
3FF
  5
3FF
331
4B5
  5
4B7
331
60
  5
60
331
204
  5
204
331
9F
  5
9F
331
23B
  5
23B
331
68
  5
68
331
20C
  5
20C
331
70
  5
70
331
292
  5
292
331
B7
  5
B7
331
214
  5
214
331
24B
  5
24B
331
427
  5
427
331
253
  5
253
331
BF
  5
BF
331
78
  5
78
331
41
  5
41
331
25B
  5
25B
331
80
  5
80
331
C7
  5
C7
331
21C
  5
21C
331
29A
  5
29A
331
49
  5
49
331
224
  5
224
331
88
  5
88
331
263
  5
263
331
51
  5
51
331
90
  5
90
331
59
  5
59
331
1FD
  5
1FD
331
4B6
  5
4F3
331
535
  5
4B0
331
98
  5
98
331
61
  5
61
331
A0
  5
A0
331
205
  5
205
331
23C
  5
23C
331
69
  5
69
331
20D
  5
20D
331
B0
  5
B0
331
71
  5
71
331
215
  5
215
331
B8
  5
B8
331
24C
  5
24C
331
293
  5
293
331
254
  5
254
331
79
  5
79
331
42
  5
42
331
29B
  5
29B
331
C8
  5
C8
331
81
  5
81
331
21D
  5
21D
331
25C
  5
25C
331
4A
  5
4A
331
225
  5
225
331
89
  5
89
331
264
  5
264
331
52
  5
52
331
91
  5
91
331
5A
  5
5A
331
478
  5
478
331
1FE
  5
1FE
331
4AF
  5
4B1
331
4B7
  5
513
331
99
  5
99
331
62
  5
62
331
206
  5
206
331
23D
  5
23D
331
6A
  5
6A
331
B1
  5
B1
331
20E
  5
20E
331
72
  5
72
331
294
  5
294
331
B9
  5
B9
331
216
  5
216
331
255
  5
255
331
7A
  5
7A
331
43
  5
43
331
21E
  5
21E
331
82
  5
82
331
C9
  5
C9
331
25D
  5
25D
331
4B
  5
4B
331
3E2
  5
3E2
331
226
  5
226
331
8A
  5
8A
331
265
  5
265
331
53
  5
53
331
22E
  5
22E
331
92
  5
92
331
5B
  5
5B
331
4B0
  5
4B2
331
479
  5
47A
331
1FF
  5
1FF
331
9A
  5
9A
331
63
  5
63
331
207
  5
207
331
23E
  5
23E
331
6B
  5
6B
331
20F
  5
20F
331
B2
  5
B2
331
246
  5
246
331
73
  5
73
331
217
  5
217
331
BA
  5
BA
331
295
  5
295
331
256
  5
256
331
C2
  5
C2
331
7B
  5
7B
331
44
  5
44
331
29D
  5
29D
331
CA
  5
CA
331
83
  5
83
331
21F
  5
21F
331
25E
  5
25E
331
4C
  5
4C
331
227
  5
227
331
8B
  5
8B
331
266
  5
266
331
54
  5
54
331
2BD
  5
2BD
331
93
  5
93
331
5C
  5
5C
331
47A
  5
4AF
331
237
  5
237
331
4B1
  5
4B3
331
200
  5
200
331
9B
  5
9B
331
64
  5
64
331
538
  5
479
331
208
  5
208
331
6C
  5
6C
331
3CC
  5
3CC
331
B3
  5
B3
331
210
  5
210
331
74
  5
74
331
296
  5
296
331
BB
  5
BB
331
257
  5
257
331
7C
  5
7C
331
C3
  5
C3
331
218
  5
218
331
45
  5
45
331
220
  5
220
331
84
  5
84
331
25F
  5
25F
331
4D
  5
4D
331
228
  5
228
331
8C
  5
8C
331
267
  5
267
331
55
  5
55
331
94
  5
94
331
5D
  5
5D
331
4B2
  5
4B4
331
3B5
  5
3B5
331
201
  5
201
331
9C
  5
9C
331
238
  5
238
331
65
  5
65
331
287
  5
287
331
A4
  5
A4
331
209
  5
209
331
326
  5
326
331
6D
  5
6D
331
211
  5
211
331
B4
  5
B4
331
75
  5
75
331
250
  5
250
331
BC
  5
BC
331
297
  5
297
  0
XRECORD
  5
754
102
{ACAD_REACTORS
330
753
102
}
330
753
100
AcDbXrecord
280
     1
102
SHADEPLOT
 70
     0
  0
LAYOUT
  5
B
102
{ACAD_XDICTIONARY
360
750
102
}
102
{ACAD_REACTORS
330
C
102
}
330
C
100
AcDbPlotSettings
  1

  2
\\NOVIBDC\HPLJ4-TPUB
  4

  6

 40
0.0
 41
0.0
 42
0.0
 43
0.0
 44
0.0
 45
0.0
 46
0.0
 47
0.0
 48
0.0
 49
0.0
140
0.0
141
0.0
142
1.0
143
1.0
 70
  1712
 72
     0
 73
     0
 74
     0
  7

 75
     0
147
1.0
148
0.0
149
0.0
100
AcDbLayout
  1
Model
 70
     1
 71
     0
 10
0.0
 20
0.0
 11
12.0
 21
9.0
 12
0.0
 22
0.0
 32
0.0
 14
0.0
 24
0.0
 34
0.0
 15
0.0
 25
0.0
 35
0.0
146
0.0
 13
0.0
 23
0.0
 33
0.0
 16
1.0
 26
0.0
 36
0.0
 17
0.0
 27
1.0
 37
0.0
 76
     0
330
2
  0
LAYOUT
  5
10
102
{ACAD_XDICTIONARY
360
11
102
}
102
{ACAD_REACTORS
330
C
102
}
330
C
100
AcDbPlotSettings
  1

  2
\\RDS1\iR3300影印機
  4
A3
  6

 40
6.805083274841308
 41
5.365738868713378
 42
7.228424072265625
 43
5.027069091796875
 44
296.9259948730469
 45
419.9466552734374
 46
0.0
 47
0.0
 48
0.0
 49
0.0
140
0.0
141
0.0
142
1.199999999999999
143
1.0
 70
   672
 72
     1
 73
     1
 74
     5
  7

 75
    16
147
1.0
148
0.0
149
0.0
100
AcDbLayout
  1
配置1
 70
     1
 71
     1
 10
-4.189224243164062
 20
-5.670902729034423
 11
345.7663218180339
 21
241.767426331838
 12
0.0
 22
0.0
 32
0.0
 14
18.06747087219401
 24
9.046422795230341
 34
-0.0077452633990447
 15
327.5679507095439
 25
222.6326391097878
 35
152.8769512494873
146
0.0
 13
0.0
 23
0.0
 33
0.0
 16
1.0
 26
0.0
 36
0.0
 17
0.0
 27
1.0
 37
0.0
 76
     0
330
D
331
DD
1001
ACAD_PSEXT
1000
\\RDS1\iR3300影印機
1000
Canon iR2200-3300 PCL5e
1000
\\RDS1
1000

1070
     0
  0
MLINESTYLE
  5
3A
102
{ACAD_REACTORS
330
35
102
}
330
35
100
AcDbMlineStyle
  2
STANDARD
 70
     0
  3

 62
     0
 51
90.0
 52
90.0
 71
     2
 49
0.5
 62
   256
  6
BYLAYER
 49
-0.5
 62
   256
  6
BYLAYER
  0
ACDBPLACEHOLDER
  5
6
102
{ACAD_REACTORS
330
7
102
}
330
7
  0
TABLESTYLE
  5
3B
102
{ACAD_REACTORS
330
39
102
}
330
39
100
AcDbTableStyle
  3
Standard
 70
     0
 71
     0
 40
1.5
 41
1.5
280
     0
281
     0
  7
STANDARD
140
4.5
170
     2
 62
     0
 63
     7
283
     0
274
    -2
284
     1
 64
     0
275
    -2
285
     1
 65
     0
276
    -2
286
     1
 66
     0
277
    -2
287
     1
 67
     0
278
    -2
288
     1
 68
     0
279
    -2
289
     1
 69
     0
  7
STANDARD
140
6.0
170
     5
 62
     0
 63
     7
283
     0
274
    -2
284
     1
 64
     0
275
    -2
285
     1
 65
     0
276
    -2
286
     1
 66
     0
277
    -2
287
     1
 67
     0
278
    -2
288
     1
 68
     0
279
    -2
289
     1
 69
     0
  7
STANDARD
140
4.5
170
     5
 62
     0
 63
     7
283
     0
274
    -2
284
     1
 64
     0
275
    -2
285
     1
 65
     0
276
    -2
286
     1
 66
     0
277
    -2
287
     1
 67
     0
278
    -2
288
     1
 68
     0
279
    -2
289
     1
 69
     0
  0
DICTIONARYVAR
  5
D4
102
{ACAD_REACTORS
330
D3
102
}
330
D3
100
DictionaryVariables
280
     0
  1
STANDARD
  0
DICTIONARYVAR
  5
D6
102
{ACAD_REACTORS
330
D3
102
}
330
D3
100
DictionaryVariables
280
     0
  1
1
  0
DICTIONARYVAR
  5
D5
102
{ACAD_REACTORS
330
D3
102
}
330
D3
100
DictionaryVariables
280
     0
  1
1
  0
DICTIONARYVAR
  5
74D
102
{ACAD_REACTORS
330
D3
102
}
330
D3
100
DictionaryVariables
280
     0
  1
1
  0
DICTIONARYVAR
  5
D7
102
{ACAD_REACTORS
330
D3
102
}
330
D3
100
DictionaryVariables
280
     0
  1

  0
DICTIONARY
  5
144
102
{ACAD_REACTORS
330
137
102
}
330
137
100
AcDbDictionary
281
     1
  0
XRECORD
  5
161
102
{ACAD_REACTORS
330
137
102
}
330
137
100
AcDbXrecord
280
     1
 90
-1023410169
  0
DICTIONARY
  5
64C
102
{ACAD_REACTORS
330
DF
102
}
330
DF
100
AcDbDictionary
281
     1
  3
DWGSETTINGS
350
64D
  3
TRANSSETTINGS
350
650
  0
LAYER_INDEX
  5
724
102
{ACAD_REACTORS
330
723
102
}
330
723
100
AcDbIndex
 40
2455117.71119309
100
AcDbLayerIndex
  8
0
360
725
 90
        0
  8
AM_VIS
360
726
 90
        0
  8
LOGO
360
727
 90
        0
  8
AM_7
360
728
 90
        0
  8
HIDDEN
360
729
 90
        0
  8
AM_5
360
72A
 90
        0
  8
Defpoints
360
72B
 90
        0
  0
DICTIONARY
  5
750
330
B
100
AcDbDictionary
280
     1
281
     1
  3
ACAD_XREC_ROUNDTRIP
360
751
  0
DICTIONARY
  5
11
330
10
100
AcDbDictionary
280
     1
281
     1
  3
ACAD_XREC_ROUNDTRIP
360
752
  3
ADSK_XREC_LAYOUTTHUMBNAIL
360
12
  0
IDBUFFER
  5
725
330
0
100
AcDbIdBuffer
  0
IDBUFFER
  5
726
330
0
100
AcDbIdBuffer
  0
IDBUFFER
  5
727
330
0
100
AcDbIdBuffer
  0
IDBUFFER
  5
728
330
0
100
AcDbIdBuffer
  0
IDBUFFER
  5
729
330
0
100
AcDbIdBuffer
  0
IDBUFFER
  5
72A
330
0
100
AcDbIdBuffer
  0
IDBUFFER
  5
72B
330
0
100
AcDbIdBuffer
  0
XRECORD
  5
751
102
{ACAD_REACTORS
330
750
102
}
330
750
100
AcDbXrecord
280
     1
102
SHADEPLOT
 70
     0
102
SHADEPLOTRESLEVEL
 70
     2
102
SHADEPLOTCUSTOMDPI
 70
   300
  0
XRECORD
  5
752
102
{ACAD_REACTORS
330
11
102
}
330
11
100
AcDbXrecord
280
     1
102
SHADEPLOT
 70
     0
102
SHADEPLOTRESLEVEL
 70
     2
102
SHADEPLOTCUSTOMDPI
 70
   300
  0
XRECORD
  5
12
102
{ACAD_REACTORS
330
11
102
}
330
11
100
AcDbXrecord
280
     1
310
28000000B40000007F00000001000800000000004C590000000000000000000000010000000000000000000000000000FFFFFF000000000000000000000000000000000000000000000000000000000000000000330000006600000099000000CC000000FF00000000330000333300006633000099330000CC330000FF3300
310
0000660000336600006666000099660000CC660000FF66000000990000339900006699000099990000CC990000FF99000000CC000033CC000066CC000099CC0000CCCC0000FFCC000000FF000033FF000066FF000099FF0000CCFF0000FFFF000000003300330033006600330099003300CC003300FF003300003333003333
310
33006633330099333300CC333300FF33330000663300336633006666330099663300CC663300FF66330000993300339933006699330099993300CC993300FF99330000CC330033CC330066CC330099CC3300CCCC3300FFCC330000FF330033FF330066FF330099FF3300CCFF3300FFFF330000006600330066006600660099
310
006600CC006600FF00660000336600333366006633660099336600CC336600FF33660000666600336666006666660099666600CC666600FF66660000996600339966006699660099996600CC996600FF99660000CC660033CC660066CC660099CC6600CCCC6600FFCC660000FF660033FF660066FF660099FF6600CCFF6600
310
FFFF660000009900330099006600990099009900CC009900FF00990000339900333399006633990099339900CC339900FF33990000669900336699006666990099669900CC669900FF66990000999900339999006699990099999900CC999900FF99990000CC990033CC990066CC990099CC9900CCCC9900FFCC990000FF99
310
0033FF990066FF990099FF9900CCFF9900FFFF99000000CC003300CC006600CC009900CC00CC00CC00FF00CC000033CC003333CC006633CC009933CC00CC33CC00FF33CC000066CC003366CC006666CC009966CC00CC66CC00FF66CC000099CC003399CC006699CC009999CC00CC99CC00FF99CC0000CCCC0033CCCC0066CC
310
CC0099CCCC00CCCCCC00FFCCCC0000FFCC0033FFCC0066FFCC0099FFCC00CCFFCC00FFFFCC000000FF003300FF006600FF009900FF00CC00FF00FF00FF000033FF003333FF006633FF009933FF00CC33FF00FF33FF000066FF003366FF006666FF009966FF00CC66FF00FF66FF000099FF003399FF006699FF009999FF00CC
310
99FF00FF99FF0000CCFF0033CCFF0066CCFF0099CCFF00CCCCFF00FFCCFF0000FFFF0033FFFF0066FFFF0099FFFF00CCFFFF00FFFFFF00000000000D0D0D001A1A1A00282828003535350043434300505050005D5D5D006B6B6B00787878008686860093939300A1A1A100AEAEAE00BBBBBB00C9C9C900D6D6D600E4E4E400
310
F1F1F100FFFFFF0000000000000000000000000000000000000000000000000000000000000000000000000000000000E2E2E2E2E2E2E2E2E2E2E2E2E2E2E2E2E2E2E2E2E2E2E2E2E2E2E2E2E2E2E2E2E2E2E2E2E2E2E2E2E2E2E2E2E2E2E2E2E2E2E2E2E2E2E2E2E2E2E2E2E2E2E2E2E2E2E2E2E2E2E2E2E2E2E2E2E2E2E2
310
E2E2E2E2E2E2E2E2E2E2E2E2E2E2E2E2E2E2E2E2E2E2E2E2E2E2E2E2E2E2E2E2E2E2E2E2E2E2E2E2E2E2E2E2E2E2E2E2E2E2E2E2E2E2E2E2E2E2E2E2E2E2E2E2E2E2E2E2E2E2E2E2E2E2E2E2E2E2E2E2E2E2E2E2E2E2E2E2E2E2E2E2E2E2E2E2E2E2E2E2E2E2E2E2E2E2E2E2E2E2E2E2E2E2E2E2E2E2E2E2E2E2E2E2E2E2E2
310
E2E2E2E2E2E2E2E2E2E2E2E2E2E2E2E2E2E2E2E2E2E2E2E2E2E2E2E2E2E2E2E2E2E2E2E2E2E2E2E2E2E2E2E2E2E2E2E2E2E2E2E2E2E2E2E2E2E2E2E2E2E2E2E2E2E2E2E2E2E2E2E2E2E2E2E2E2E2E2E2E2E2E2E2E2E2E2E2E2E2E2E2E2E2E2E2E2E2E2E2E2E2E2E2E2E2E2E2E2E2E2E2E2E2E2E2E2E2E2E2E2E2E2E2E2E2E2
310
E2E2E2E2E2E2E2E2E2E2E2E2E2E2E2E2E2E2E2E2E2E2E2E2E2E2E2E2E2E2E2E2E2E2E2E2E2E2E2E2E2E2E2E2E2E2E2E2E2E2E2E2E2E2E2E2E2E2E2E2E2E2E2E2E2E2E2E2E2E2E2E2E2E2E2E2E2E2E2E2E2E2E2E2E2E2E2E2E2E2E2E2E2E2E2E2E2E2E2E2E2E2E2E2E2E2E2E2E2E2E2E2E2E2E2E2E2E2E2E2E2E2E2E2E2E2E2
310
E2E2E2E2E2E2E2E2E2E2E2E2E2E2E2E2E2E2E2E2E2E2E2E2E2E2E2E2E2E2E2E2E2E2E2E2E2E2E2E2E2E2E2E2E2E2E2E2E2E2E2E2E2E2E2E2E2E2E2E2E2E2E2E2E2E2E2E2E2E2E2E2E2E2E2E2E2E2E2E2E2E2E2E2E2E2E2E2E2E2E2E2E2E2E2E2E2E2E2E2E2E2E2E2E2E2E2E2E2E2E2E2E2E2E2E2E2E2E2E2E2E2E2E2E2E2E2
310
E2E2E2E2E2E2E2E2E2E2E2E2E2E2E2E2E2E2E2E2E2E2E2E2E2E2E2E2E2E2E2E2E2E2E2E2E2E2E2E2E2E2E2E2E2E2E2E2E2E2E2E2E2E2E2E2E2E2E2E2E2E2E2E2E2E2E2E2E2E2E2E2E2E2E2E2E2E2E2E2E2E2E2E2E2E2E2E2E2E2E2E2E2E2E2E2E2E2E2E2E2E2E2E2E2E2E2E2E2E2E2E2E2E2E2E2E2E2E2E2E2E2E2E2E2E2E2
310
E2E2E2E2E2E2E2E2E2E2E2E2E2E2E2E2E2E2E2E2E2E2E2E2E2E2E2E2E2E2E2E2E2E2E2E2E2E2E2E2E2E2E2E2E2E2E2E2E2E2E2E2E2E2E2E2E2E2E2E2E2E2E2E2E2E2E2E2E2E2E2E2E2E2E2E2E2E2E2E2E2E2E2E2E2E2E2E2E2E2E2E2E2E2E2E2E2E2E2E2E2E2E2E2E2E2E2E2E2E2E2E2E2E2E2E2E2E2E2E2E2E2E2E2E2E2E2
310
E2E2E2E2E2E2E2E2E2E2E2E2E2E2E2E2E2E2E2E2E2E2E2E2E2E2E2E2E2E2E2E2E2E2E2E2E2E2E2E2E2E2E2E2E2E2E2E2E2E2E2E2E2E2E2E2E2E2E2E2E2E2E2E2E2E2E2E2E2E2E2E2E2E2E2E2E2E2E2E2E2E2E2E2E2E2E2E2E2E2E2E2E2E2E2E2E2E2E2E2E2E2E2E2E2E2E2E2E2E2E2E2E2E2E2E2E2E2E2E2E2E2E2E2E2E2E2
310
E2E2E2E2E2E2E2E2E2E2E2E2E2E2E2E2E2E2E2E2E2E2E2E2E2E2E2E2E2E2E2E2E2E2E2E2E2E2E2E2E2E2E2E2E2E2E2E2E2E2E2E2E2E2E2E2E2E2E2E2E2E2E2E2E2E2E2E2E2E2E2E2E2E2E2E2E2E2E2E2E2E2E2E2E2E2E2E2E2E2E2E2E2E2E2E2E2E2E2E2E2E2E2E2E2E2E2E2E2E2E2E2E2E2E2E2E2E2E2E2E2E2E2E2E2E2E2
310
E2E2E2E2E2E2E2E2E2E2E2E2E2E2E2E2E2E2E2E2E2E2E2E2E2E2E2E2E2E2E2E2E2E2E2E2E2E2E2E2E2E2E2E2E2E2E2E2E2E2E2E2E2E2E2E2E2E2E2E2E2E2E2E2E2E2E2E2E2E2E2E2E2E2E2E2E2E2E2E2E2E2E2E2E2E2E2E2E2E2E2E2E2E2E2E2E2E2E2E2E2E2E2E2E2E2E2E2E2E2E2E2E2E2E2E2E2E2E2E2E2E2E2E2E2E2E2
310
E2E2E2E2E2E2E2E2E2E2E2E2E2E2E2E2E2E2E2E2E2E2E2E2E2E2E2E2E2E2E2E2E2E2E2E2E2E2E2E2E2E2E2E2E2E2E2E2E2E2E2E2E2E2E2E2E2E2E2E2E2E2E2E2E2E2E2E2E2E2E2E2E2E2E2E2E2E2E2E2E2E2E2E2E2E2E2E2E2E2E2E2E2E2E2E2E2E2E2E2E2E2E2E2E2E2E2E2E2E2E2E2E2E2E2E2E2E2E2E2E2E2E2E2E2E2E2
310
E2E2E2E2E2E2E2E2E2E2E2E2E2E2E2E2E2E2E2E2E2E2E2E2E2E2E2E2E2E2E2E2E2E2E2E2E2E2E2E2E2E2E2E2E2E2E2E2E2E2E2E2E2E2E2E2E2E2E2E2E2E2E2E2E2E2E2E2E2E2E2E2E2E2E2E2E2E2E2E2E2E2E2E2E2E2E2E2E2E2E2E2E2E2E2E2E2E2E2E2E2E2E22D2D2D2D2D2D2D2D2D2D2D2D2D2D2D2D2D2D2D2D2D2D2D2D
310
2D2D2D2D2D2D2D2D2D2D2D2D2D2D2D2D2D2D2D2D2D2D2D2D2D2D2D2D2D2D2D2D2D2D2D2D2D2D2D2D2D2D2D2D2D2D2D2D2D2D2D2D2D2D2D2D2D2D2D2D2D2D2D2D2D2D2D2D2D2D2D2D2D2D2D2D2D2D2D2D2D2D2D2D2D2D2D2D2D2D2D2D2D2D2D2D2D2D2D2D2D2D2D2D2D2D2D2D2D2D2D2D2D2D2D2D2D2D2D2D2D2D2D2D2D2D2D
310
2D2D2D2D2D2DE2E2E2E2E2E2E2E2E2E2E2E2E2E2E2E2E2E2E2E2E2E2E22DF5F5F5F5F5F5F5F5F5F5F5F5F5F5F5F5F5F5F5F5F5F5F5F5F5F5F5F5F5F5F5F52DE2E2E2E2E2E2E2E2E22D2D2D2D2D2D2D2D2DE2E22D2D2D2D2D2D2DE2E2E2E2E2E2E2E2E2E2E2E2E2E2E2E2E2E2E2E2E2E2E2E2E2E2E2E2E2E2E2E2E2E2E2E2E2
310
E2E2E2E2E2E2E2E2E2E2E2E2E2E2E2E2E2E2E2E2E2E2E2E2E2E2E2E2E2E2E2E2E2E2E2E2E2E2E2E2E2E2E2E2E2E2E2E2E2E2E2E2E2E2E2E2E2E22DE2E2E2E2E2E2E2E2E2E2E2E2E2E2E2E2E2E2E2E2E2E2E22DF5F5F5F5F5F5F5F5F5F5F5F5F5F5F5F5E2F5F5F5E2F5F5F5E2F5F5F5F5F5F5F52DE2E2E2E2E2E2E2E2E22DE2
310
F5F5F5F5E2E22DE2E22DE2F5F5F5E22DE2E2E2E2E2E2E2E2E2E2E2E2E2E2E2E2E2E2E2E2E2E2E2E2E2E2E2E2E2E2E2E2E2E2E2E2E2E2E2E2E2E2E2E2E2E2E2E2E2E2E2E2E2E2E2E2E2E2E2E2E2E2E2E2E2E2E2E2E2E2E2E2E2E2E2E2E2E2E2E2E2E2E2E2E2E2E2E2E2E2E2E2E2E2E22DE2E2E2E2E2E2E2E2E2E2E2E2E2E2E2
310
E2E2E2E2E2E2E2E22DE2E2E2F5F5F5F5F5F5F5F5F5F5F5F5F5F5F5F5F5F5E2E2E2E22D2D2D2D2D2D2D2DE2E2E2E2E2E2E2E2E22DE2F5F5F5F5E2E22DE2E22DF5F5F5F5E22DE2E2E2E2E2E2E2E2E2E2E2E2E2E2E2E2E2E2E2E2E2E2E2E2E2E2E2E2E2E2E2E2E2E2E2E2E2E2E2E2E2E2E2E2E2E2E2E2E2E2E2E2E2E2E2E2E2E2
310
E2E2E2E2E2E2E2E2E2E2E2E2E2E2E2E2E2E2E2E2E2E2E2E2E2E2E2E2E2E2E2E2E2E2E2E2E22DE2E2E2E2E2E2E2E2E2E2E2E2E2E2E2E2E2E2E2E2E2E2E22DE2E2E2F5F5F5F5F5F5F5F5F5F5F5F5F5F5F5F5F5F5E2E2E2E22DE2E2E2E2E2E2E2E2E2E2E2E2E2E2E2E22DE2F5F5F5F5E2E22DE2E22DF5F5F5F5E22DE2E2E2E2E2
310
E2E2E2E2E2E2E2E2E2E2E2E2E2E2E2E2E2E2E2E2E2E2E2E2E2E2E2E2E2E2E2E2E2E2E2E2E2E2E2E2E2E2E2E2E2E2E2E2E2E2E2E2E2E2E2E2E2E2E2E2E2E2E2E2E2E2E2E2E2E2E2E2E2E2E2E2E2E2E2E2E2E2E2E2E2E2E2E2E2E22DE2E2E2E2E2E2E2E2E2E2E2E2E2E2E2E2E2E2E2E2E2E2E22D0F0F0F0F0F0F0F2D2D2D2D2D
310
2D2D2D2D2D2D2D2D2D2D2D2D2D2DE2E2E2E2E2E2E2E2E2E2E2E2E2E2E2E22DE2F5F5F5F5E2E22DE2E22DF5F5F5F5E22DE2E2E2E2E2E2E2E2E2E2E2E2E2E2E2E2E2E2E2E2E2E2E2E2E2E2E2E2E2E2E2E2E2E2E2E2E2E2E2E2E2E2E2E2E2E2E2E2E2E2E2E2E2E2E2E2E2E2E2E2E2E2E2E2E2E2E2E2E2E2E2E2E2E2E2E2E2E2E2
310
E2E2E2E2E2E2E2E2E2E2E2E2E2E2E2E22DE2E2E2E2E2E2E2E2E2E2E2E2E2E2E2E2E2E2E2E2E2E2E22D0F0F0F0F0F0F0F2DF5F5F5E2F5F5F5F5F52DE2F5F5F5F5E2E22DE2E2E2E2E2E2E2E2E2E2E2F5E2E2E2E22D2D2D2D2D2D2D2D2DE2E22D2D2D2D2D2D2DE2E2E2E2E2E2E2E2E2E2E2E2E2E2E2E2E2E2E2E2E2E2E2E2E2E2
310
E2E2E2E2E2E2E2E2E2E2E2E2E2E2E2E2E2E2E2E2E2E2E2E2E2E2E2E2E2E2E2E2E2E2E2E2E2E2E2E2E2E2E2E2E2E2E2E2E2E2E2E2E2E2E2E2E2E2E2E2E2E2E2E2E2E2E2E2E22DE2E2E2E2E2E2E2E2E2E2E2E2E2E2E2E2E2E2E2E2E2E2E22DDCDCE2DC0F0FDC2D2DF5F52DF5F52DF52D2D2D2D2D2D2D2D2D2DF5F5F5F5F5E2F5
310
F5F5F5F5F5F5F5E22D2D2D2D2D2D2D2D2D2DE2E22D2D2D2D2D2D2DE2E2E2E2E2E2E2E2E2E2E2E2E2E2E2E2E2E2E2E2E2E2E2E2E2E2E2E2E2E2E2E2E2E2E2E2E2E2E2E2E2E2E2E2E2E2E2E2E2E2E2E2E2E2E2E2E2E2E2E2E2E2E2E2E2E2E2E2E2E2E2E2E2E2E2E2E2E2E2E2E2E2E2E2E2E2E2E2E2E2E2E2E2E2E22DE2E2E2E2
310
E2E2E2E2E2E2E2E2E2E2E2E2E2E2E2E2E2E2E22DE2DC0FDCDC0FDC2DF5F5F5E2E2F5F5F5F52DF5F5F5F5F5F5F52DF5F5F5F5F5E2F5F5F5F5F5F5F5F5E22DE2F5F5F5F5F5F5E22DE2E22DF5F5F5F5F52DE2E2E2E2E2E2E2E2E2E2E2E2E2E2E2E2E2E2E2E2E2E2E2E2E2E2E2E2E2E2E2E2E2E2E2E2E2E2E2E2E2E2E2E2E2E2E2
310
E2E2E2E2E2E2E2E2E2E2E2E2E2E2E2E2E2E2E2E2E2E2E2E2E2E2E2E2E2E2E2E2E2E2E2E2E2E2E2E2E2E2E2E2E2E2E2E22DE2E2E2E2E2E2E2E2E2E2E2E2E2E2E2E2E2E2E2E2E2E2E22DE2DCDCDCDC0FDC2DF5F5F5E2F5F5F5F5F52DF5F5F5F5F5F5E22DF5F5F5F5F5F5F5F5F5F5E2E2E2E2E22DE2F5F5F5E2F5F5E22DF5F52D
310
E2F5F5E2F52DE2E2E2E2E2E2E2E2E2E2E2E2E2E2E2E2E2E2E2E2E2E2E2E2E2E2E2E2E2E2E2E2E2E2E2E2E2E2E2E2E2E2E2E2E2E2E2E2E2E2E2E2E2E2E2E2E2E2E2E2E2E2E2E2E2E2E2E2E2E2E2E2E2E2E2E2E2E2E2E2E2E2E2E2E2E2E2E2E2E2E2E2E2E2E22DE2E2E2E2E2E2E2E2E2E2E2E2E2E2E2E2E2E2E2E2E2E2E22DE2
310
E2DCDC0FDC0F2DF5F5F5F5F5F5F5F5F52D2DF52DF52DF52D2DF5F5F5F5F5F5F5F5F5F5E2E2E2E2E22DE2F5F5F5F5F5F5E22DE2E22DE2F5F5F5F52DE2E2E2E2E2E2E2E2E2E2E2E2E2E2E2E2E2E2E2E2E2E2E2E2E2E2E2E2E2E2E2E2E2E2E2E2E2E2E2E2E2E2E2E2E2E2E2E2E2E2E2E2E2E2E2E2E2E2E2E2E2E2E2E2E2E2E2E2
310
E2E2E2E2E2E2E2E2E2E2E2E2E2E2E2E2E2E2E2E2E2E2E2E2E2E2E22DE2E2E2E2E2E2E2E2E2E2E2E2E2E2E2E2E2E2E2E2E2E2E22DE2E2DCDC0FDC0F2DF5F5F5F5F5F5F5F5F52DE2F5E2F5F5F5E22DF5F5F5F5F5F5F5F5F5F5E2E2E2E2E22D2D2D2D2D2D2D2D2D2DE2E22D2D2D2D2D2D2DE2E2E2E2E2E2E2E2E2E2E2E2E2E2E2
310
E2E2E2E2E2E2E2E2E2E2E2E2E2E2E2E2E2E2E2E2E2E2E2E2E2E2E2E2E2E2E2E2E2E2E2E2E2E2E2E2E2E2E2E2E2E2E2E2E2E2E2E2E2E2E2E2E2E2E2E2E2E2E2E2E2E2E2E2E2E2E2E2E2E2E2E2E2E2E2E22DE2E2E2E2E2E2E2E2E2E2E2E2E2E2E2E2E2E2E2E2E2E2E22D2D2D2D2D2D2D2D2D2D2D2D2D2D2D2D2D2D2D2D2D2D2D
310
2D2D2D2D2D2D2D2D2D2D2D2D2D2D2D2D2D2D2D2D2D2D2D2D2D2D2D2D2D2D2D2D2D2D2D2D2D2D2D2D2D2D2D2D2D2D2D2D2D2D2D2D2D2D2D2D2D2D2D2D2D2D2D2D2D2D2D2D2D2D2D2D2D2D2D2D2D2D2D2D2D2D2D2D2D2D2D2D2D2D2D2D2D2D2D2D2D2D2D2D2D2D2D2D2D2D2D2D2D2D2D2D2D2D2D2D2D2D2D2D2D2D2D2D2D2D2D
310
2D2D2D2D2D2D2DE2E2E2E2E2E2E2E2E2E2E2E2E2E2E2E2E2E2E2E2E2E2E22DE2E2E2E2E2E2E2E2E2E2E2E2E2E2E2E2E2E2E2E2E2E2E2E2E2E2E2E2E2E2E2E2E2E2E2E2E2E2E2E2E2E2E2E2E2E2E2E2E2E2E2E2E2E2E2E2E2E2E2E2E2E2E2E2E2E2E2E2E2E2E2E2E2E2E2E2E2E2E2E2E2E2E2E2E2E2E2E2E2E2E2E2E2E2E2E2
310
E2E2E2E2E2E2E2E2E2E2E2E2E2E2E2E2E2E2E2E2E2E2E2E2E2E2E2E2E2E2E2E2E2E2E2E2E2E2E2E2E2E2E2E2E2E2E2E2E2E2E2E2E2E2E2E2E2E2E22DE2E2E2E2E2E2E2E2E2E2E2E2E2E2E2E2E2E2E2E2E2E2E22DE2E2E2E2E2E2E2E2E2E2E2E2E2E2E2E2E2E2E2E2E2E2E2E2E2E2E2E2E2E2E2E2E2E2E2E2E2E2E2E2E2E2E2
310
E2E2E2E2E2E2E2E2E2E2E2E2E2E2E2E2E2E2E2E2E2E2E2E2E2E2E2E2E2E2E2E2E2E2E2E2E2E2E2E2E2E2E2E2E2E2E2E2E2E2E2E2E2E2E2E2E2E2E2E2E2E2E2E2E2E2E2E2E2E2E2E2E2E2E2E2E2E2E2E2E2E2E2E2E2E2E2E2E2E2E2E2E2E2E2E2E2E2E2E2E2E2E2E2E2E2E2E2E2E2E2E22DE2E2E2E2E2E2E2E2E2E2E2E2E2E2
310
E2E2E2E2E2E2E2E2E22DE2E2E2E2E2E2E2E2E2E2E2E2E2E2E2E2E2E2E2E2E2E2E2E2E2E2E2E2E2E2E2E2E2E2E2E2E2E2E2E2E2E2E2E2E2E2E2E2E2E2E2E2E2E2E2E2E2E2E2E2E2E2E2E2E2E2E2E2E2E2E2E2E2E2E2E2E2E2E2E2E2E2E2E2E2E2E2E2E2E2E2E2E2E2E2E2E2E2E2E2E2E2E2E2E2E2E2E2E2E2E2E2E2E2E2E2E2
310
E2E2E2E2E2E2E2E2E2E2E2E2E2E2E2E2E2E2E2E2E2E2E2E2E2E2E2E2E2E2E2E2E2E2E2E2E2E22DE2E2E2E2E2E2E2E2E2E2E2E2E2E2E2E2E2E2E2E2E2E2E22DE2E2E2E2E2E2E2E2E2E2E2E2E2E2E2E2E2E2E2E2E2E2E2E2E2E2E2E2E2E2E2E2E2E2E2E2E2E2E2E2E2E2E2E2E2E2E2E2E2E2E2E2E2E2E2E2E2E2E2E2E2E2E2E2
310
E2E2E2E2E2E2E2E2E2E2E2E2E2E2E2E2E2E2E2E2E2E2E2E2E2E2E2E2E2E2E2E2E2E2E2E2E2E2E2E2E2E2E2E2E2E2E2E2E2E2E2E2E2E2E2E2E2E2E2E2E2E2E2E2E2E2E2E2E2E2E2E2E2E2E2E2E2E2E2E2E2E2E2E2E2E2E2E2E2E2E22DE2E2E2E2E2E2E2E2E2E2E2E2E2E2E2E2E2E2E2E2E2E2E22DE2E2E2E2E2E2E2E2E2E2E2
310
E2E2E2E2E2E2E2E2E2E2E2E2E2E2E2E2E2E2E2E2E2E2E2E2E2E2E2E2E2E2E2E2E2E2E2E2E2E2E2E2E2E2E2E2E2E2E2E2E2E2E2E2E2E2E2E2E2E2E2E2E2E2E2E2E2E2E2E2E2E2E2E2E2E2E2E2E2E2E2E2E2E2E2E2E2E2E2E2E2E2E2E2E2E2E2E2E2E2E2E2E2E2E2E2E2E2E2E2E2E2E2E2E2E2E2E2E2E2E2E2E2E2E2E2E2E2E2
310
E2E2E2E2E2E2E2E2E2E2E2E2E2E2E2E2E22DE2E2E2E2E2E2E2E2E2E2E2E2E2E2E2E2E2E2E2E2E2E2E22DE2E2E2E2E2E2E2E2E2E2E2E2E2E2E2E2E2E2E2E2E2E2E2E2E2E2E2E2E2E2E2E2E2E2E2E2E2E2E2E2E2E2E2E2E2E2E2E2E2E2E2E2E2E2E2E2E2E2E2E2E2E2E2E2E2E2E2E2E2E2E2E2E2E2E2E2E2E2E2E2E2E2E2E2E2
310
E2E2E2E2E2E2E2E2E2E2E2E2E2E2E2E2E2E2E2E2E2E2E2E2E2E2E2E2E2E2E2E2E2E2E2E2E2E2E2E2E2E2E2E2E2E2E2E2E2E2E2E2E2E2E2E2E2E2E2E2E2E2E2E2E2E2E2E2E2E22DE2E2E2E2E2E2E2E2E2E2E2E2E2E2E2E2E2E2E2E2E2E2E22DE2E2E2E2E2E2E2E2E2E2E2E2E2E2E2E2E2E2E2E2E2E2E2E2E2E2E2E2E2E2E2E2
310
E2E2E2E2E2E2E2E2E2E2E2E2E2E2E2E2E2E2E2E2E2E2E2E2E2E2E2E2E2E2E2E2E2E2E2E2E2E2E2E2E2E2E2E2E2E2E2E2E2E2E2E2E2E2E2E2E2E2E2E2E2E2E2E2E2E2E2E2E2E2E2E2E2E2E2E2E2E2E2E2E2E2E2E2E2E2E2E2E2E2E2E2E2E2E2E2E2E2E2E2E2E2E2E2E2E2E2E2E2E2E2E2E2E2E2E2E2E2E2E2E2E2E22DE2E2E2
310
E2E2E2E2E2E2E2E2E2E2E2E2E2E2E2E2E2E2E2E22DE2E2E2E2E2E2E2E2E2E2E2E2E2E2E2E2E2E2E2E2E2E2E2E2E2E2E2E2E2E2E2E2E2E2E2E2E2E2E2E2E2E2E2E2E2E2E2E2E2E2E2E2E2E2E2E2E2E2E2E2E2E2E2E2E2E2E2E2E2E2E2E2E2E2E2E2E2E2E2E2E2E2E2E2E2E2E2E2E2E2E2E2E2E2E2E2E2E2E2E2E2E2E2E2E2E2
310
E2E2E2E2E2E2E2E2E2E2E2E2E2E2E2E2E2E2E2E2E2E2E2E2E2E2E2E2E2E2E2E2E2E2E2E2E2E2E2E2E2E2E2E2E2E2E2E2E22DE2E2E2E2E2E2E2E2E2E2E2E2E2E2E2E2E2E2E2E2E2E2E22DE2E2E2E2E2E2E2E2E2E2E2E2E2E2E2E2E2E2E2E2E2E2E2E2E2E2E2E2E2E2E2E2E2E2E2E2E2E2E2E2E2E2E2E2E2E2E2E2E2E2E2E2E2
310
E2E2E2E2E2E2E2E2E2E2E2E2E2E2E2E2E2E2E2E2E2E2E2E2E2E2E2E2E2E2E2E2E2E2E2E2E2E2E2E2E2E2E2E2E2E2E2E2E2E2E2E2E2E2E2E2E2E2E2E2E2E2E2E2E2E2E2E2E2E2E2E2E2E2E2E2E2E2E2E2E2E2E2E2E2E2E2E2E2E2E2E2E2E2E2E2E2E2E2E2E2E22DE2E2E2E2E2E2E2E2E2E2E2E2E2E2E2E2E2E2E2E2E2E2E22D
310
E2E2E2E2E2E2E2E2E2E2E2E2E2E2E2E2E2E2E2E2E2E2E2E2E2E2E2E2E2E2E2E2E2E2E2E2E2E2E2E2E2E2E2E2E2E2E2E2E2E2E2E2E2E2E2E2E2E2E2E2E2E2E2E2E2E2E2E2E2E2E2E2E2E2E2E2E2E2E2E2E2E2E2E2E2E2E2E2E2E2E2E2E2E2E2E2E2E2E2E2E2E2E2E2E2E2E2E2E2E2E2E2E2E2E2E2E2E2E2E2E2E2E2E2E2E2E2
310
E2E2E2E2E2E2E2E2E2E2E2E2E2E2E2E2E2E2E2E2E2E2E2E2E2E2E2E22DE2E2E2E2E2E2E2E2E2E2E2E2E2E2E2E2E2E2E2E2E2E2E22DE2E2E2E2E2E2E2E2E2E2E2E2E2E2E2E2E2E2E2E2E2E2E2E2E2E2E2E2E2E2E2E2E2E2E2E2E2E2E2E2E2E2E2E2E2E2E2E2E2E2E2E2E2E2E2E2E2E2E2E2E2E2E2E2E2E2E2E2E2E2E2E2E2E2
310
E2E2E2E2E2E2E2E2E2E2E2E2E2E2E2E2E2E2E2E2E2E2E2E2E2E2E2E2E2E2E2E2E2E2E2E2E2E2E2E2E2E2E2E2E2E2E2E2E2E2E2E2E2E2E2E2E2E2E2E2E2E2E2E2E2E2E2E2E2E2E2E2E2E2E2E2E2E2E2E2E22DE2E2E2E2E2E2E2E2E2E2E2E2E2E2E2E2E2E2E2E2E2E2E22DE2E2E2E2E2E2E2E2E2E2E2E2E2E2E2E2E2E2E2E2E2
310
E2E2E2E2E2E2E2E2E2E2E2E2E2E2E2E2E2E2E2E2E2E2E2E2E2E2E2E2E2E2E2E2E2E2E2E2E2E2E2E2E2E2E2E2E2E2E2E2E2E2E2E2E2E2E2E2E2E2E2E2E2E2E2E2E2E2E2E2E2E2E2E2E2E2E2E2E2E2E2E2E2E2E2E2E2E2E2E2E2E2E2E2E2E2E2E2E2E2E2E2E2E2E2E2E2E2E2E2E2E2E2E2E2E2E2E2E2E2E2E2E2E2E2E2E2E2E2
310
E2E2E2E2E2E2E22DE2E2E2E2E2E2E2E2E2E2E2E2E2E2E2E2E2E2E2E2E2E2E22DE2E2E2E2E2E2E2E2E2E2E2E2E2E2E2E2E2E2E2E2E2E2E2E2E2E2E2E2E2E2E2E2E2E2E2E2E2E2E2E2E2E2E2E2E2E2E2E2E2E2E2E2E2E2E2E2E2E2E2E2E2E2E2E2E2E2E2E2E2E2E2E2E2E2E2E2E2E2E2E2E2E2E2E2E2E2E2E2E2E2E2E2E2E2E2
310
E2E2E2E2E2E2E2E2E2E2E2E2E2E2E2E2E2E2E2E2E2E2E2E2E2E2E2E2E2E2E2E2E2E2E2E2E2E2E2E2E2E2E2E2E2E2E2E2E2E2E2E2E2E2E2E2E2E2E2E22DE2E2E2E2E2E2E2E2E2E2E2E2E2E2E2E2E2E2E2E2E2E2E22DE2E2E2E2E2E2E2E2E2E2E2E2E2E2E2E2E2E2E2E2E2E2E2E2E2E2E2E2E2E2E2E2E2E2E2E2E2E2E2E2E2E2
310
E2E2E2E2E2E2E2E2E2E2E2E2E2E2E2E2E2E2E2E2E2E2E2E2E2E2E2E2E2E2E2E2E2E2E2E2E2E2E2E2E2E2E2E2E2E2E2E2E2E2E2E2E2E2E2E2E2E2E2E2E2E2E2E2E2E2E2E2E2E2E2E2E2E2E2E2E2E2E2E2E2E2E2E2E2E2E2E2E2E2E2E2E2E2E2E2E2E2E2E2E2E2E2E2E2E2E2E2E2E2E2E2E22DE2E2E2E2E2E2E2E2E2E2E2E2E2
310
E2E2E2E2E2E2E2E2E2E22DE2E2E2E2E2E2E2E2E2E2E2E2E2E2E2E2E2E2E2E2E2E2E2E2E2E2E2E2E2E2E2E2E2E2E2E2E2E2E2E2E2E2E2E2E2E2E2E2E2E2E2E2E2E2E2E2E2E2E2E2E2E2E2E2E2E2E2E2E2E2E2E2E2E2E2E2E2E2E2E2E2E2E2E2E2E2E2E2E2E2E2E2E2E2E2E2E2E2E2E2E2E2E2E2E2E2E2E2E2E2E2E2E2E2E2E2
310
E2E2E2E2E2E2E2E2E2E2E2E2E2E2E2E2E2E2E2E2E2E2E2E2E2E2E2E2E2E2E2E2E2E2E2E2E2E2E22DE2E2E2E2E2E2E2E2E2E2E2E2E2E2E2E2E2E2E2E2E2E2E22DE2E2E2E2E2E2E2E2E2E2E2E2E2E2E2E2E2E2E2E2E2E2E2E2E2E2E2E2E2E2E2E2E2E2E2E2E2E2E2E2E2E2E2E2E2E2E2E2E2E2E2E2E2E2E2E2E2E2E2E2E2E2E2
310
E2E2E2E2E2E2E2E2E2E2E2E2E2E2E2E2E2E2E2E2E2E2E2E2E2E2E2E2E2E2E2E2E2E2E2E2E2E2E2E2E2E2E2E2E2E2E2E2E2E2E2E2E2E2E2E2E2E2E2E2E2E2E2E2E2E2E2E2E2E2E2E2E2E2E2E2E2E2E2E2E2E2E2E2E2E2E2E2E2E2E2E22DE2E2E2E2E2E2E2E2E2E2E2E2E2E2E2E2E2E2E2E2E2E2E22DE2E2E2E2E2E2E2E2E2E2
310
E2E2E2E2E2E2E2E2E2E2E2E2E2E2E2E2E2E2E2E2E2E2E2E2E2E2E2E2E2E2E2E2E2E2E2E2E2E2E2E2E2E2E2E2E2E2E2E2E2E2E2E2E2E2E2E2E2E2E2E2E2E2E2E2E2E2E2E2E2E2E2E2E2E2E2E2E2E2E2E2E2E2E2E2E2E2E2E2E2E2E2E2E2E2E2E2E2E2E2E2E2E2E2E2E2E2E2E2E2E2E2E2E2E2E2E2E2E2E2E2E2E2E2E2E2E2E2
310
E2E2E2E2E2E2E2E2E2E2E2E2E2E2E2E2E2E22DE2E2E2E2E2E2E2E2E2E2E2E2E2E2E2E2E2E2E2E2E2E2E22DE2E2E2E2E2E2E2E2E2E2E2E2E2E2E2E2E2E2E2E2E2E2E2E2E2E2E2E2E2E2E2E2E2E2E2E2E2E2E2E2E2E2E2E2E2E2E2E2E2E2E2E2E2E2E2E2E2E2E2E2E2E2E2E2E2E2E2E2E2E2E2E2E2E2E2E2E2E2E2E2E2E2E2E2
310
E2E2E2E2E2E2E2E2E2E2E2E2E2E2E2E2E2E2E2E2E2E2E2E2E2E2E2E2E2E2E2E2E2E2E2E2E2E2E2E2E2E2E2E2E2E2E2E2E2E2E2E2E2E2E2E2E2E2E2E2E2E2E2E2E2E2E2E2E2E2E22DE2E2E2E2E2E2E2E2E2E2E2E2E2E2E2E2E2E2E2E2E2E2E22DE2E2E2E2E2E2E2E2E2E2E2E2E2E2E2E2E2E2E2E2E2E2E2E2E2E2E2E2E2E2E2
310
E2E2E2E2E2E2E2E2E2E2E2E2E2E2E2E2E2E2E2E2E2E2E2E2E2E2E2E2E2E2E2E2E2E2E2E2E2E2E2E2E2E2E2E2E2E2E2E2E2E2E2E2E2E2E2E2E2E2E2E2E2E2E2E2E2E2E2E2E2E2E2E2E2E2E2E2E2E2E2E2E2E2E2E2E2E2E2E2E2E2E2E2E2E2E2E2E2E2E2E2E2E2E2E2E2E2E2E2E2E2E2E2E2E2E2E2E2E2E2E2E2E2E2E22DE2E2
310
E2E2E2E2E2E2E2E2E2E2E2E2E2E2E2E2E2E2E2E2E22DE2E2E2E2E2E2E2E2E2E2E2E2E2E2E2E2E2E2E2E2E2E2E2E2E2E2E2E2E2E2E2E2E2E2E2E2E2E2E2E2E2E2E2E2E2E2E2E2E2E2E2E2E2E2E2E2E2E2E2E2E2E2E2E2E2E2E2E2E2E2E2E2E2E2E2E2E2E2E2E2E2E2E2E2E2E2E2E2E2E2E2E2E2E2E2E2E2E2E2E2E2E2E2E2E2
310
E2E2E2E2E2E2E2E2E2E2E2E2E2E2E2E2E2E2E2E2E2E2E2E2E2E2E2E2E2E2E2E2E2E2E2E2E2E2E2E2E2E2E2E2E2E2E2E2E2E22DE2E2E2E2E2E2E2E2E2E2E2E2E2E2E2E2E2E2E2E2E2E2E22DE2E2E2E2E2E2E2E2E2E2E2E2E2E2E2E2E2E2E2E2E2E2E2E2E2E2E2E2E2E2E2E2E2E2E2E2E2E2E2E2E2E2E2E2E2E2E2E2E2E2E2E2
310
E2E2E2E2E2E2E2E2E2E2E2E2E2E2E2E2E2E2E2E2E2E2E2E2E2E2E2E2E2E2E2E2E2E2E2E2E2E2E2E2E2E2E2E2E2E2E2E2E2E2E2E2E2E2E2E2E2E2E2E2E2E2E2E2E2E2E2E2E2E2E2E2E2E2E2E2E2E2E2E2E2E2E2E2E2E2E2E2E2E2E2E2E2E2E2E2E2E2E2E2E2E2E22DE2E2E2E2E2E2E2E2E2E2E2E2E2E2E2E2E2E2E2E2E2E2E2
310
2DE2E2E2E2E2E20F0F0F0F0F0F0F0F0F0F0F0F0F0F0F0F0F0F0F0F0F0F0F0F0F0F0F0F0F0F0F0F0F0FE2E2E2E2E2E2E2E2E2E2E2E2E2E20F0F0F0F0F0F0F0F0F0F0F0F0F0F0F0F0F0F0F0F0F0F0F0F0F0F0F0F0F0F0F0F0F0F0F0F0F0F0F0F0F0F0F0F0F0F0F0F0F0F0F0FE2E2E2E2E2E2E2E2E2E2E2E2E20F0F0F0F0F0F0F
310
0F0F0F0F0F0F0F0F0F0F0F0F0F0F0F0F0F0F0F0F0F0F0F0F0F0FE2E2E22DE2E2E2E2E2E2E2E2E2E2E2E2E2E2E2E2E2E2E2E2E2E2E22DE2E2E2E2E2E20FE2E2E2E2E2E2E2E2E2E2E2E2E2E20F0F0F0F0FE2E2E2E2E2E2E2E2E2E2E2E2E20FE2E2E2E2E2E2E2E2E2E2E2E2E2E20FE2E2E2E2E2E2E2E2E2E2E2E2E2E2E2E2E2E2
310
E2E2E2E2E20F0F0FE2E2E2E2E2E2E2E2E2E2E2E2E2E2E2E2E2E2E2E2E2E2E2E20FE2E2E2E2E2E2E2E2E2E2E2E2E20FE2E2E2E2E2E2E2E2E2E2E2E2E20F0F0F0F0FE2E2E2E2E2E2E2E2E2E2E2E2E20FE2E2E22DE2E2E2E2E2E2E2E2E2E2E2E2E2E2E2E2E2E2E2E2E2E2E22DE2E2E2E2E2E20FE2E2E2E2E2E2E2E2E2E2E2E2E2
310
E20F0F0F0F0FE2E2E2E2E2E2E2E2E2E2E2E2E20FE2E2E2E2E2E2E2E2E2E2E2E2E2E20FE2E2E2E2E2E2E2E2E2E2E2E2E2E2E2E2E2E2E2E2E2E2E20F0F0FE2E2E2E2E2E2E2E2E2E2E2E2E2E2E2E2E2E2E2E2E2E2E2E20FE2E2E2E2E2E2E2E2E2E2E2E2E20FE2E2E2E2E2E2E2E2E2E2E2E2E20F0F0F0F0FE2E2E2E2E2E2E2E2E2
310
E2E2E2E20FE2E2E22DE2E2E2E2E2E2E2E2E2E2E2E2E2E2E2E2E2E2E2E2E2E2E22DE2E2E2E2E2E20FE2E2E2E2E2E2E2E2E2E2E2E2E2E2E2E2E2E2E2E2E2E2E2E2E2E2E2E2E2E2E2E20FE2E2E2E2E2E2E2E2E2E2E2E2E2E20FE2E2E2E2E2E2E2E2E2E2E2E2E2E2E2E2E2E2E2E2E2E2E2E2E2E2E2E2E2E2E2E2E2E2E2E2E2E2E2
310
E2E2E2E2E2E2E2E2E2E2E20FE2E2E2E2E2E2E2E2E2E2E2E2E20FE2E2E2E2E2E2E2E2E2E2E2E2E2E2E2E2E2E2E2E2E2E2E2E2E2E2E2E2E2E2E20FE2E2E22DE2E2E2E2E2E2E2E2E2E2E2E2E2E2E2E2E2E2E2E2E2E2E22DE2E2E2E2E2E20FE2E2E2E20F0F0F0F0F0F0F0F0F0F0F0F0F0F0F0F0F0F0F0F0F0F0F0F0FE2E2E20FE2
310
E2E2E2E2E2E2E2E2E2E2E2E2E20F0F0F0F0F0F0F0F0F0F0F0F0F0F0F0F0F0F0F0F0F0F0F0F0F0F0F0F0F0F0F0F0F0F0F0F0F0F0F0F0F0F0F0F0F0F0F0F0F0F0F0FE2E2E2E2E2E2E2E2E2E2E2E2E20FE2E2E20F0F0F0F0F0F0F0F0F0F0F0F0F0F0F0F0F0F0F0F0F0F0F0F0FE2E2E20FE2E2E22DE2E2E2E2E2E2E2E2E2E2E2E2
310
E2E2E2E2E2E2E2E2E2E2E22DE2E2E2E2E2E20FE2E2E2E20FE2E2E2E2E2E2E2E20F0F0F0F0F0FE2E2E2E2E2E2E2E2E20FE2E2E20FE2E2E2E2E2E2E2E2E2E2E2E2E2E20F0F0F0F0F0F0FE2E2E2E2E2E2E2E2E2E2E2E2E2E2E2E2E2E2E2E20F0F0FE2E2E2E2E2E2E2E2E2E2E2E2E2E2E2E2E2E2E2E20F0FE2E2E2E2E2E2E2E2E2
310
E2E2E2E20FE2E2E20FE2E2E2E2E2E2E2E20F0F0F0F0F0F0FE2E2E2E2E2E2E2E20FE2E2E20FE2E2E22DE2E2E2E2E2E2E2E2E2E2E2E2E2E2E2E2E2E2E2E2E2E2E22DE2E2E2E2E2E20FE2E2E2E20FE2E2E2E2E2E2E2E20F0F0F0F0F0FE2E2E2E2E2E2E2E2E20FE2E2E20FE2E2E2E2E2E2E2E2E2E2E2E2E2E20FE20F0FE20FE2E2
310
E2E2E2E2E2E2E2E2E2E2E2E2E2E2E2E2E2E2E20F0F0FE2E2E2E2E2E2E2E2E2E2E2E2E2E2E2E2E2E2E2E2E20FE2E2E2E2E2E2E2E2E2E2E2E2E20FE2E2E20FE2E2E2E2E2E2E2E20F0F0F0F0F0FE2E2E2E2E2E2E2E2E20FE2E2E20FE2E2E22DE2E2E2E2E2E2E2E2E2E2E2E2E2E2E2E2E2E2E2E2E2E2E22DE2E2E2E2E2E20FE2E2
310
E2E20FE2E2E2E2E2E2E2E2E2E2E2E2E2E2E2E2E2E2E2E2E2E2E20FE2E2E20FE2E2E2E2E2E2E2E2E2E2E2E2E2E20FE20F0FE20FE2E2E2E2E2E2E2E2E2E2E2E2E2E2E2E2E2E2E2E2E20F0FE2E2E2E2E2E2E2E2E2E2E2E2E2E2E2E2E2E2E2E2E2E20FE2E2E2E2E2E2E2E2E2E2E2E2E20FE2E2E20FE2E2E2E2E2E2E2E2E2E2E2E2
310
E2E2E2E2E2E2E2E2E2E2E20FE2E2E20FE2E2E22DE2E2E2E2E2E2E2E2E2E2E2E2E2E2E2E2E2E2E2E2E2E2E22DE2E2E2E2E2E20FE2E2E2E20FE2E2E2E2E2E2E2E2E2E2E2E2E2E2E2E2E2E2E2E2E2E2E20FE2E2E20FE2E2E2E2E2E2E2E2E2E2E2E2E2E20FE2E2E2E20FE2E2E2E2E2E2E2E2E2E2E2E2E2E2E2E2E2E2E2E2E2E2E2
310
E2E2E2E2E2E2E2E2E2E2E2E2E2E2E2E2E2E2E2E2E2E20FE2E2E2E2E2E2E2E2E2E2E2E2E20FE2E2E20FE2E2E2E2E2E2E2E2E2E2E2E2E2E2E2E2E2E2E2E2E2E2E20FE2E2E20FE2E2E22DE2E2E2E2E2E2E2E2E2E2E2E2E2E2E2E2E2E2E2E2E2E2E22DE2E2E2E2E2E20FF5F5F5F50FF5F5F5F5F5F5F5F5F5F5F5F5F5F5F5F5F5F5
310
F5F5F5F5F50FF5F5F50FE2E2E2E2E2E2E2E2E2E2E2E2E2E20FE2E2E2E20FF5F5F5F5F5F5F5F5F5F5F5F5F5F5F5F5F5F5F5F5F5F5F5F5F5F5F5F5F5F5F5F5F5E2E2E2E2E2E2E2E2F5F5F5F50FE2E2E2E2E2E2E2E2E2E2E2E2E20FF5F5F50FF5F5F5F5F5F5F5F5F5F5F5F5F5F5F5F5F5F5F5F5F5F5F50FF5F5F50FE2E2E22DE2
310
E2E2E2E2E2E2E2E2E2E2E2E2E2E2E2E2E2E2E2E2E2E22DE2E2E2E2E2E20FF5F5F5F5BEF5F5F5F5F5F5F5F5F5F5F5F5F5F5F5F5F5F5F5F5F5F5F5BEF5F5F50FE2E2E2E2E2E2E2E2E2E2E2E2E2E20FE2E2E2E20FF5F5F5F5F5F5F5F5F5F5F5F5F5F5F5F5F5F5F5F5F5F5F5F5F5F5F5F5F5F5F5F5F5E2E2E2E2E2E2E2E2F5F5F5
310
F50FE2E2E2E2E2E2E2E2E2E2E2E2E20FF5F5F5BEF5F5F5F5F5F5F5F5F5F5F5F5F5F5F5F5F5F5F5F5F5F5F5BEF5F5F50FE2E2E22DE2E2E2E2E2E2E2E2E2E2E2E2E2E2E2E2E2E2E2E2E2E2E22DE2E2E2E2E2E2F5F5E2E2E2BEE2E2E2E2E2E2E2E2E2E2E2E2E2E2E2E2E2E2E2E2E2E2E2BEE2E2E2F5E2E2E2E2E2E2E2E2E2E2E2
310
E2E2E20FE2E2E2E2F5E2E2E2E2E2E2E2E2E2E2E2E2E2E2E2E2E2E2E2E2E2E2E2E2E2E2E2E2E2E2E2E2F5E2E2E2E2E2E2E2E2F5E2E2F5F5E2E2E2E2E2E2E2E2E2E2E2E2E2F5E2E2E2BEE2E2E2E2E2E2E2E2E2E2E2E2E2E2E2E2E2E2E2E2E2E2E2BEE2E2E2F5E2E2E22DE2E2E2E2E2E2E2E2E2E2E2E2E2E2E2E2E2E2E2E2E2E2
310
E22DE2E2E2E2E2E2F5F5E2E2F5BEF5E2E2E2E2E2E2E2E2E2E2E2E2E2E2E2E2E2E2E2E2E2F5F5F5E2E2F5E2E2E2E2E2E2E2E2E2E2E2E2E2E20FE2E2E2E2F5E2E2E2E2E2E2E2E2E2E2E2E2E2E2E2E2E2E2E2E2E2E2E2E2E2E2E2E2E2E2E2E2F5E2E2E2E2E2E2E2E2F5E2E2F5F5E2E2E2E2E2E2E2E2E2E2E2E2E2F5E2E2F5BEF5
310
F5E2E2E2E2E2E2E2E2E2E2E2E2E2E2E2E2E2E2E2F5F5BEF5E2E2F5E2E2E22DE2E2E2E2E2E2E2E2E2E2E2E2E2E2E2E2E2E2E2E2E2E2E22DE2E2E2E2E2E2F5F5E2F5F5BEF5F5E2E2E2E2E2E2E2E2E2E2E2E2E2E2E2E2E2E2E2F5F5BEF5F5E2F5E2E2E2E2E2E2E2E2E2E2E2E2E2E20FE2E2E2E2F5E2E2E2E2E2E2E2E2E2E2E2E2
310
E2E2E2E2E2E2E2E2E2E2E2E2E2E2E2E2E2E2E2E2F5E2E2E2E2E2E2E2E2F5E2E2F5F5E2E2E2E2E2E2E2E2E2E2E2E2E2F5E2F5E2BEE2F5E2E2E2E2E2E2E2E2E2E2E2E2E2E2E2E2E2E2E2F5E2BEE2F5E2F5E2E2E22DE2E2E2E2E2E2E2E2E2E2E2E2E2E2E2E2E2E2E2E2E2E2E22DE2E2E2E2E2E2F5BEBEBEBEBEBEBEBEBEE2E2E2
310
E2E2E2E2BEE2E2E2E2E2E2E2BEBEF5BEBEBEF5BEF5E2E2E2E2E2E2E2E2E2E2E2E2E2E20FE2E2E2E2F5E2E2E2E2E2E2E2E2E2E2E2E2F5F5F5F5F5F5F5E2E2E2E2E2E2E2E2E2E2E2E2E2F5F5F5F5F5F5F5F5F5F5E2E2F5F5E2E2E2E2E2E2E2E2E2E2E2E2E2BEBEBEBEBEBEBEBEBEE2E2E2E2E2E2E2BEE2E2E2E2E2E2E2BEBEBE
310
BEBEBEBEBEBEE2E2E22DE2E2E2E2E2E2E2E2E2E2E2E2E2E2E2E2E2E2E2E2E2E2E22DE2E2E2E2E2E2F5F5E2F5F5BEF5F5E2E2E2E2E2E2E2E2E2BEE2E2E2E2E2E2E2E2E2F5F5BEF5F5E2F5E2E2E2E2E2E2E2E2E2E2E2E2E2E20FE2E2E2E2F5E2E2E2E2E2E2E2E2E2E2F5F5E2E2E2E2E2E2E2F5F5E2E2E2E2E2E2E2E2E2E2E2F5
310
E2E2E2E2E2E2E2E2F5E2E2F5F5E2E2E2E2E2E2E2E2E2E2E2E2E2F5E2F5E2BEE2F5E2E2E2E2E2E2E2E2E2BEE2E2E2E2E2E2E2E2E2F5E2BEE2F5E2F5E2E2E22DE2E2E2E2E2E2E2E2E2E2E2E2E2E2E2E2E2E2E2E2E2E2E22DE2E2E2E2E2E2F5F5E2E2F5BEF5E2E2E2E2E2E2E2F5F5F5BEF5F5F5E2E2E2E2E2E2F5F5F5F5E2E2F5
310
E2E2E2E2E20F0F0F0F0F0F0F0F0F0FF5F5F5F5F5E2E2E2E2E2E2E2E2F5F5E2E2E2E2E2E2E2E2E2E2E2F5F5E2E2E2E2E2E2E2E228282828282828282828282828280F0F0F0F0F0F0FE2E2E2E2E2E2E2F5E2E2F5BEF5F5E2E2E2E2E2F5F5F5F5F5F5F5F5F5E2E2E2E2E2F5F5BEF5E2E2F5E2E2E22DE2E2E2E2E2E2E2E2E2E2E2
310
E2E2E2E2E2E2E2E2E2E2E2E22DE2E2E2E2E2E2F5F5E2E2E2BEE2E2E2E2E2E2F5F5E2E2E2BEE2E2E2F5F5E2E2E2E2E2E2BEE2E2E2F5E2E2E2E2E20F0FE2E2E2E2E2E2E2F5E2E2E2E2F5E2E2E2E2E2E2E2F5E2E2E2E2E2E2E2E2E2E2E2E2E2E2E2F5E2E2E2E2E2E228E2F5E2E2E2E2E2E2E2E2F5E2E2F5F5E2E2E2E2E20FE2E2
310
E2E2E2E2E2F5E2E2E2BEE2E2E2E2E2F5F5E2E2E2E2BEE2E2E2E2F5F5E2E2E2E2E2BEE2E2E2F5E2E2E22DE2E2E2E2E2E2E2E2E2E2E2E2E2E2E2E2E2E2E2E2E2E2E22DE2E2E2E2E2E2F5F5E2E2E2BEE2E2E2E2F5F5E2E2E2E2E2BEE2E2E2E2E2F5E2E2E2E2E2BEE2E2E2F5E2E2E2E2E20FE2E2E2E2E2E2E2E2F5E2E2E2E2F5E2
310
E2E2E2E2E2F5F5E2E2E2E2E2E2E2E2E2E2E2E2E2E2E2E2F5F5E2E2E2E228E2F5E2E2E2E2E2E2E2E2F5E2E2F5F5E2E2E2E2E20FE2E2E2E2E2E2E2F5E2E2E2BEE2E2E2E2E2F5E2E2E2E2E2BEE2E2E2E2E2E2F5E2E2E2E2BEE2E2E2F5E2E2E22DE2E2E2E2E2E2E2E2E2E2E2E2E2E2E2E2E2E2E2E2E2E2E22DE2E2E2E2E2E2F5F5
310
E2E2E2E2E2E2E2E2F5E2E2E2E2E2E2BEE2E2E2E2E2E2F5E2E2E2E2E2E2E2E2F5E2E2E2E2E20FE2E2E2E2E2E2E2E2F5E2E2E2E2F5E2E2E2E2E2F5E2E2E2E2E2E2E2E2E2E2E2E2E2E2E2E2E2E2E2F5E2E2E2E228E2F5E2E2E2E2E2E2E2E2F5E2E2F5F5E2E2E2E2E20FE2E2E2E2E2E2E2F5E2E2E2E2E2E2E2F5F5E2E2E2E2E2E2
310
BEE2E2E2E2E2E2F5F5E2E2E2E2E2E2E2F5E2E2E22DE2E2E2E2E2E2E2E2E2E2E2E2E2E2E2E2E2E2E2E2E2E2E22DE2E2E2E2E2E2F5F5E2E2E2E2E2E2E2F5E2E2E2E2E2E2E2BEE2E2E2E2E2E2E2F5E2E2E2E2E2E2E2F5E2E2E2E2E20FE2E2E2E2E2E2E2E2F5E2E2E2E2F5E2E2E2E2E2F5E2E2E2E2E2E2E2E2E2E2E2E2E2E2E2E2
310
E2E2E2E2F5E2E2E228E2F5E2E2E2E2E2E2E2E2F5E2E2F5F5E2E2E2E2E20FE2E2E2E2E2E2E2F5E2E2E2E2E2E2E2F5E2E2E2E2E2E2E2BEE2E2E2E2E2E2E2E2F5E2E2E2E2E2E2F5E2E2E22DE2E2E2E2E2E2E2E2E2E2E2E2E2E2E2E2E2E2E2E2E2E2E22DE2E2E2E2E2E2F5F5E2E2E2E2E2E2F5E2E2E2E2E2F5F5F5BEF5F5E2E2E2
310
E2E2F5F5E2E2E2E2E2E2F5E2E2E2E2E20FE2E20F0F0F0F0FBEF5BEBEBEBEBEBEBEBEBEBEBEBEBEBEBEBEBEBEBEBEBEBEBEBEBEBEBEBEBEBEBEBEBEBEBE28BEBEBEBEBEBEBEBEBEBEBEBEBEBEBEBEBEE2E2E20FE2E2E2E2E2E2E2F5E2E2E2E2E2E2F5E2E2E2E2E2F5F5F5BEF5F5F5E2E2E2E2E2F5E2E2E2E2E2E2F5E2E2E22D
310
E2E2E2E2E2E2E2E2E2E2E2E2E2E2E2E2E2E2E2E2E2E2E22DE2E2E2E2E2E2F5F5E2E2E2E2E2E2F5E2E2E2E2F5F5E2E2BEE2E2F5E2E2E2E2E2F5E2E2E2E2E2E2F5E2E2E2E2E20FE2E20F0FBEE2BEE2F5E2E2E2E2F5E2E2E2E2F5E2E2E2E2E2E2E2E2E2E2E2E2E2E2E2E2E2E2E2E2E2E2F5E2E228E2F5E2E2E2E2E2E2E2E2F5E2
310
E2F5F5E2BEE2E2E20FE2E2E2E2E2E2E2F5E2E2E2E2E2E2F5E2E2E2E2F5F5E2E2BEE2E2F5F5E2E2E2E2F5E2E2E2E2E2E2F5E2E2E22DE2E2E2E2E2E2E2E2E2E2E2E2E2E2E2E2E2E2E2E2E2E2E22DE2E2E2E2E2E2F5F5E2E2E2E2E2F5E2E2E2E2E2F5E2E2E2BEE2E2E2F5E2E2E2E2E2F5E2E2E2E2E2F5E2E2E2E2E20FE2E20FE2
310
BEE2BEE2F5E2E2E2E2F5E2E2E2E2F5E2E2E2E2E2E2E2E2E2E2E2E2E2E2E2E2E2E2E2E2E2E2F5E2E228E2F5E2E2E2E2E2E2E2E2F5E2E2F5F5E2BEE2E2E20FE2E2E2E2E2E2E2F5E2E2E2E2E2F5E2E2E2E2E2F5E2E2E2BEE2E2E2F5E2E2E2E2E2F5E2E2E2E2E2F5E2E2E22DE2E2E2E2E2E2E2E2E2E2E2E2E2E2E2E2E2E2E2E2E2
310
E2E22DE2E2E2E2E2E2F5F5E2E2E2E2E2F5E2E2E2E2F5E2E2E2E2BEE2E2E2E2F5E2E2E2E2F5E2E2E2E2E2F5E2E2E2E2E20FE20F0FE2BEE2BEE2F5E2E2E2E2F5E2E2E2F5E2E2E2E2E2E2E2E2E2E2E2E2E2E2E2E2E2E2E2E2E2E2E2F5E2E228E2F5E2E2E2E2E2E2E2E2F5E2E2F5F5E2BEE20F0F0FE2E2E2E2E2E2E2F5E2E2E2E2
310
E2F5E2E2E2E2F5E2E2E2E2BEE2E2E2E2F5E2E2E2E2F5E2E2E2E2E2F5E2E2E22DE2E2E2E2E2E2E2E2E2E2E2E2E2E2E2E2E2E2E2E2E2E2E22DE2E2E2E2E2E2F5F5E2E2E2E2E2F5E2E2E2E2F5E2E2E2E2BEE2E2E2E2F5E2E2E2E2F5E2E2E2E2E2F5E2E2E20F0F0F0F0F0FE2BEE2BEE2F5E2E2E2E2F5E2E2E2F5F5F5F5F5E2E2E2
310
E2E2E2E2E2E2E2E2E2E2E2E2E2F5F5F5F5E2E228E2F5E2E2E2E2E2E2E2E2F5E2E2F5F5E2BEE20F0F0FE2E2E2E2E2E2E2F5E2E2E2E2E2F5E2E2E2E2F5E2E2E2E2BEE2E2E2E2F5E2E2E2E2F5E2E2E2E2E2F5E2E2E22DE2E2E2E2E2E2E2E2E2E2E2E2E2E2E2E2E2E2E2E2E2E2E22DE2E2E2E2E2E2F5F5E2E2E2BEBEBEBEBEBEBE
310
BEBEBEBEBEBEBEBEBEBEBEBEBEBEBEBEBEBEE2E2E2F5E2E2E20F0F0F0F0F0FBEBEBEBEBEBEBEBEBEBEBEBEBEBEBEBEBEBEBEBEBEBEBEBEBEBEBEBEBEBEBEBEBEBEBEBEBEBEBEBEBE28BEBEBEBEBEBEBEBEBEBEBEBEBEBEBEBEBEBE0F0F0FE2E2E2E2E2E2E2F5E2E2E2BEBEF5BEBEBEBEBEBEBEBEBEBEBEBEBEBEBEBEBEBEBE
310
F5BEBEE2E2E2F5E2E2E22DE2E2E2E2E2E2E2E2E2E2E2E2E2E2E2E2E2E2E2E2E2E2E22DE2E2E2E2E2E2F5F5E2E2E2E2E2F5E2E2E2E2F5E2E2E2E2BEE2E2E2E2F5E2E2E2E2F5E2E2E2E2E2F5E2E2E20F0F0F0F0F0FE2BEE2BEE2F5E2E2E2E2F5E2E2E2F5F5F5F5F5E2E2E2E2E2E2E2E2E2E2E2E2E2E2E2E2F5F5F5F5E2E228E2
310
F5E2E2E2E2E2E2E2E2F5E2E2F5F5E2BEE20F0F0FE2E2E2E2E2E2E2F5E2E2E2E2E2F5E2E2E2E2F5E2E2E2E2BEE2E2E2E2F5E2E2E2E2F5E2E2E2E2E2F5E2E2E22DE2E2E2E2E2E2E2E2E2E2E2E2E2E2E2E2E2E2E2E2E2E2E22DE2E2E2E2E2E2F5F5E2E2E2E2E2F5E2E2E2E2F5F5E2E2E2BEE2E2E2F5F5E2E2E2E2F5E2E2E2E2E2
310
F5E2E2E20F0F0FE2E20FE2BEE2BEE2F5E2E2E2E2F5E2E2E2F5F5F5F5E2E2E2E2E2E2E2E2E2E2E2E2E2E2E2E2E2E2F5F5F5E2E228E2F5E2E2E2E2E2E2E2E2F5E2E2F5F5E2BEE20F0F0FE2E2E2E2E2E2E2F5E2E2E2E2E2F5E2E2E2E2F5F5E2E2E2BEE2E2E2F5F5E2E2E2E2F5E2E2E2E2E2F5E2E2E22DE2E2E2E2E2E2E2E2E2E2
310
E2E2E2E2E2E2E2E2E2E2E2E2E22DE2E2E2E2E2E2F5F5E2E2E2E2E2F5E2E2E2E2E2F5E2E2E2BEE2E2F5F5E2E2E2E2E2F5E2E2E2E2E2F5E2E2E2E2E20FE2E20FE2BEE2BEE2F5E2E2E2E2F5E2E2E2E2F5E2E2E2E2E2E2E2E2E2E2E2E2E2E2E2E2E2E2E2E2E2E2F5E2E228E2F5E2E2E2E2E2E2E2E2F5E2E2F5F5E2BEE2E2E20FE2
310
E2E2E2E2E2E2F5E2E2E2E2E2F5E2E2E2E2E2F5E2E2E2BEE2E2E2F5E2E2E2E2E2F5E2E2E2E2E2F5E2E2E22DE2E2E2E2E2E2E2E2E2E2E2E2E2E2E2E2E2E2E2E2E2E2E22DE2E2E2E2E2E2F5F5E2E2E2E2E2E2F5E2E2E2E2E2F5F5E2BEE2F5F5E2E2E2E2E2F5E2E2E2E2E2E2F5E2E2E2E2E20FE2E20F0FBEE2BEE2F5E2E2E2E2F5
310
E2E2E2E2F5E2E2E2E2E2E2E2E2E2E2E2E2E2E2E2E2E2E2E2E2E2E2F5E2E228E2F5E2E2E2E2E2E2E2E2F5E2E2F5F5E2BEE2E2E20FE2E2E2E2E2E2E2F5E2E2E2E2E2E2F5E2E2E2E2E2F5F5E2BEE2F5F5E2E2E2E2E2F5E2E2E2E2E2E2F5E2E2E22DE2E2E2E2E2E2E2E2E2E2E2E2E2E2E2E2E2E2E2E2E2E2E22DE2E2E2E2E2E2F5
310
F5E2E2E2E2E2E2F5E2E2E2E2E2E2E2F5BEF5E2E2E2E2E2E2E2F5E2E2E2E2E2E2F5E2E2E2E2E20FE2E20F0F0F0F0FBEF5BEBEBEBEBEBEBEBEBEBEBEBEBEBEBEBEBEBEBEBEBEBEBEBEBEBEBEBEBEBEBEBEBEBEBE28BEBEBEBEBEBEBEBEBEBEBEBEBEBEBE0FBEE2E2E20FE2E2E2E2E2E2E2F5E2E2E2E2E2E2F5E2E2E2E2E2E2E2
310
F5BEF5E2E2E2E2E2E2E2F5E2E2E2E2E2E2F5E2E2E22DE2E2E2E2E2E2E2E2E2E2E2E2E2E2E2E2E2E2E2E2E2E2E22DE2E2E2E2E2E2F5F5E2E2E2E2E2E2F5E2E2E2E2E2E2E2E2BEE2E2E2E2E2E2E2F5E2E2E2E2E2E2E2F5E2E2E2E2E20FE2E2E2E2E2E2E2E2F5E2E2E2E2F5E2E2E2E2E2F5E2E2E2E2E2E2E2E2E2E2E2E2E2E2E2
310
E2E2E2E2E2F5E2BEE228E2F5E2E2E2E2E2E2E2E2F5E2E2F5F50FE2E2E2E20FE2E2E2E2E2E2E2F5E2E2E2E2E2E2E2F5E2E2E2E2E2E2E2BEE2E2E2E2E2E2E2F5F5E2E2E2E2E2E2F5E2E2E22DE2E2E2E2E2E2E2E2E2E2E2E2E2E2E2E2E2E2E2E2E2E2E22DE2E2E2E2E2E2F5F5E2E2E2BEE2E2E2F5F5E2E2E2E2E2E2BEE2E2E2E2
310
E2E2F5F5E2E2E2BEE2E2E2F5E2E2E2E2E20FE2E2E2E2E2E2E2E2F5E2E2E2E2F5E2E2E2E2E2F5E2E2E2E2E2E2E2E2E2E2E2E2E2E2E2E2E2E2E2F5E2E2BEE228E2F5E2E2E2E2E2E2E2E2F5E2E2F5F50FE2E2E2E20FE2E2E2E2E2E2E2F5E2E2E2BEE2E2E2E2F5E2E2E2E2E2E2BEE2E2E2E2E2E2F5E2E2E2E2BEE2E2E2F5E2E2E2
310
2DE2E2E2E2E2E2E2E2E2E2E2E2E2E2E2E2E2E2E2E2E2E2E22DE2E2E2E2E2E2F5F5E2E2E2BEE2E2E2E2F5E2E2E2E2E2E2BEE2E2E2E2E2F5E2E2E2E2E2BEE2E2E2F5E2E2E2E2E20FE2E2E2E2E2E2E2E2F5E2E2E2E2F5E2E2E2E2E2E2F5E2E2E2E2E2E2E2E2E2E2E2E2E2E2E2E2E2E2F5E2E2BEF528E2F5E2E2E2E2E2E2E2E2F5
310
E2E2F5F5E20FE2E2E20FE2E2E2E2E2E2E2F5E2E2E2BEE2E2E2E2E2F5E2E2E2E2E2BEE2E2E2E2E2F5F5E2E2E2E2BEE2E2E2F5E2E2E22DE2E2E2E2E2E2E2E2E2E2E2E2E2E2E2E2E2E2E2E2E2E2E22DE2E2E2E2E2E2F5F5E2E2E2F5E2E2E2E2E2F5F5E2E2E2E2BEE2E2E2E2F5F5E2E2E2E2E2F5E2E2E2F5E2E2E2E2E20F0FE2E2
310
E2E2E2E2E2F5E2E2E2E2F5E2E2E2E2E2E2E2F5E2E2E2E2E2E2E2E2E2E2E2E2E2E2E2E2F5E2F5F5BEE20FF5F5E2E2E2E2E2E2E2E2F5E2E2F5F5E20FE2E2E20FE2E2E2E2E2E2E2F5E2E2F50FF5E2E2E2E2E2F5F5E2E2E2BEE2E2E2F5F5E2E2E2E2E2F5BEF5E2E2F5E2E2E22DE2E2E2E2E2E2E2E2E2E2E2E2E2E2E2E2E2E2E2E2
310
E2E2E22DE2E2E2E2E2E2F5F5E2E2F5F5F5F5E2E2E2E2E2F5F5F5F5BEF5F5F5F5E2E2E2E2E2F5F5F5F5E2E2F5E2E2E2E2E20F0F0F0F0F0F0F0F0F0FF5F5F5F5F5E2E2E2E2E2E2E2F5F5E2E2E2E2E2E2E2E2E2E2E2E2E2F5F5E2BEBEBE0FBE0F28282828282828282828282828280F0F0F0F0F0F0FE2E2E2E2E2E2E2F5E2F5F5
310
BEE2F5E2E2E2E2E2E2F5F5F5F5F5F5F5E2E2E2E2E2E2F5F5BEF5F5E2F5E2E2E22DE2E2E2E2E2E2E2E2E2E2E2E2E2E2E2E2E2E2E2E2E2E2E22DE2E2E2E2E2E2F5F5E2F5F5BEE2F5E2E2E2E2E2E2E2E2E2BEE2E2E2E2E2E2E2E2E2F5E2BEF5F5E2F5E2E2E2E2E2E2E2E2E2E2E2E2E2E2E2E2E2E2E2F5E2E2E2E2E2E2E2E2E2F5
310
F5E2E2E2E2E2E2E2E2E2F5F5E2E2E2E2F5E2BEE20FF5F5E2E2E2E2E2E2E2E2F5E2E2F50FE20FE2E2E2E2E2E2E2E2E2E2E2F5E2F5E2BEE2F5E2E2E2E2E2E2E2E2E2BEE2E2E2E2E2E2E2E2E2F5E2BEE2F5E2F5E2E2E22DE2E2E2E2E2E2E2E2E2E2E2E2E2E2E2E2E2E2E2E2E2E2E22DE2E2E2E2E2E2F5BEBEF5BE0FBEF5BEBEE2
310
E2E2E2E2E2E2E2E2E2E2E2E2E2E2BEBEF5BEBEBEF5BEF5E2E2E2E2E2E2E2E2E2E2E2E2E2E2E2E2E2E2E2F5E2E2E2E2E2E2E2E2E2E2E2F5F5F5F5F5F5F5F5F5E2E2E2E2E2E2F50FBEF50FF5F5F5F5F5F5F5F5F5F5F5E2E2F50FE2E20FE2E2E2E2E2E2E2E2E2E2BEBEBEBEBEBEBEBEBEE2E2E2E2E2E2E2E2E2E2E2E2E2E2E2BE
310
BEBEBEBEBEBEBEBEE2E2E22DE2E2E2E2E2E2E2E2E2E2E2E2E2E2E2E2E2E2E2E2E2E2E22DE2E2E2E2E2E2F5F5E2F5F5BE0FF5E2E2E2E2E2E2E2E2E2E2E2E2E2E2E2E2E2E2E2F5F5BEF5F5E2F5E2E2E2E2E2E2E2E2E2E2E2E2E2E2E2E2E2E2E2F5E2E2E2E2E2E2E2E2E2E2E2E2E2E2E2E2E2E2E2E2E2E2E2E2E2E20F0FBEF50F
310
E2F5E2E2E2E2E2E2E2E2F5E2E2F50FE2E20FE2E2E2E2E2E2E2E2E2E2F5E2F5F5BEE2F5E2E2E2E2E2E2E2E2E2E2E2E2E2E2E2E2E2E2E2F5F5BEF5F5E2F5E2E2E22DE2E2E2E2E2E2E2E2E2E2E2E2E2E2E2E2E2E2E2E2E2E2E22DE2E2E2E2E2E2F5F5E2E2F5F50F0FE2E2E2E2E2E2E2E2E2E2E2E2E2E2E2E2E2E2E2E2F5F5E2E2
310
E2F5E2E2E2E2E2E2E2E2E2E2E2E2E2E2E2E2E2E2E2F5E2E2E2E2E2E2E2E2E2E2E2E2E2E2E2E2E2E2E2E2E2E2E2E2E2E20FE2BEE20FE2F5E2E2E2E2E2E2E2E2F5E2E2F50FE2E20FE2E2E2E2E2E2E2E2E2E2F5E2E2F5BE0FE2E2E2E2E2E2E2E2E2E2E2E2E2E2E2E2E2E2E2E2E2F5BEF5E2E2F5E2E2E22DE2E2E2E2E2E2E2E2E2
310
E2E2E2E2E2E2E2E2E2E2E2E2E2E22DE2E2E2E2E2E2F5F5E2E2E2BE0F0FE2E2E2E2E2E2E2E2E2E2E2E2E2E2E2E2E2E2E2E2E2BEE2E2E2F5E2E2E2E2E2E2E2E2E2E2E2E2E2E2E2E2E2E2E2F5E2E2E2E2E2E2E2E2E2E2E2E2E2E2E2E2E2E2E2E2E2E2E2E2E20FE2E2E2E20FE2F5E2E2E2E2E2E2E2E2F5E2E2F50FE2E20FE2E2E2
310
E2E2E2E2E2E2E2F5E2E2E2BE0FE2E2E2E2E2E2E2E2E2E2E2E2E2E2E2E2E2E2E2E2E2E2BEE2E2E2F5E2E2E22DE2E2E2E2E2E2E2E2E2E2E2E2E2E2E2E2E2E2E2E2E2E2E22DE2E2E2E2E2E2F5F5F5F5F5F5F5F50FF5F5F5F5F5F5F5F5F5F5F5F5F5F5F5F5F5F5F5F5F5F5F5F5F5E2E2E2E2E2E2E2E2E2E2E2E2E2E2E2E2E2E2E2
310
F5F5F5F5F5F5F5F5F5F5F5F5F5F5F5F5F5F5F5F5F5F5F5F5F5F50FF5F5F5F50FF5F5E2E2E2E2E2E2E2E2F5F5F5F50FE2E2E20FE2E2E2E2E2E2E2E2E2F5F5F5F5F50FF5F5F5F5F5F5F5F5F5F5F5F5F5F5F5F5F5F5F5F5F5F5F5F5F5F5F5E2E2E22DE2E2E2E2E2E2E2E2E2E2E2E2E2E2E2E2E2E2E2E2E2E2E22DE2E2E2E2E2E2
310
E2E2E2E2E2E2E2E20FE2E2E2E2E2E2E2E2E2E2E2E2E2E2E2E2E2E2E2E2E2E2E2E2E2E2E2E2E2E2E2E2E2E2E2E2E2E2E2E2E2E2E2E2E2E2E2E2E2E2E2E2E2E2E2E2E2E2E2E2E2E2E2E2E2E2E2E2E20FE2E2E2E2E20FE2E2E2E2E2E2E2E2E2E2E2E2E2E20FE2E2E20FE2E2E2E2E2E2E2E2E2E2E2E2E2E2E20FE2E2E2E2E2E2E2
310
E2E2E2E2E2E2E2E2E2E2E2E2E2E2E2E2E2E2E2E2E2E22DE2E2E2E2E2E2E2E2E2E2E2E2E2E2E2E2E2E2E2E2E2E2E22DE2E2E2E2E2E2E2E2E2E2E2E2E2E2E20FE2E2E2E2E2E2E2E2E2E2E2E2E2E2E2E2E2E2E2E2E2E2E2E2E2E2E2E2E2E2E2E2E2E2E2E2E2E2E2E2E2E2E2E2E2E2E2E2E2E2E2E2E2E2E2E2E2E2E2E2E2E2E2E2
310
E2E2E2E20FE2E2E2E2E20FE2E2E2E2E2E2E2E2E2E2E2E2E2E20FE2E2E20FE2E2E2E2E2E2E2E2E2E2E2E2E2E2E20FE2E2E2E2E2E2E2E2E2E2E2E2E2E2E2E2E2E2E2E2E2E2E2E2E2E2E2E2E22DE2E2E2E2E2E2E2E2E2E2E2E2E2E2E2E2E2E2E2E2E2E2E22DE2E2E2E2E2E2E2E2E2E2E2E2E2E2E20F0F0F0F0F0F0F0FE2E2E2E2
310
E2E2E2E2E2E2E2E2E2E2E2E2E2E2E2E2E2E2E2E2E2E2E2E2E2E2E2E2E2E2E2E2E2E2E2E2E2E2E2E2E2E2E2E2E2E2E2E2E2E2E20F0F0F0F0F0FE2E2E2E2E2E20FE2E2E2E2E2E2E2E2E2E2E2E2E2E20FE2E2E20FE2E2E2E2E2E2E2E2E2E2E2E2E2E2E2E20FE2E2E2E2E2E2E2E2E2E2E2E2E2E2E2E2E2E2E2E2E2E2E2E2E2E2E2
310
E22DE2E2E2E2E2E2E2E2E2E2E2E2E2E2E2E2E2E2E2E2E2E2E22DE2E2E2E2E2E2E2E2E2E2E2E2E2E2E20F0F0F0F0F0F0F0FE2E2E2E2E2E2E2E2E2E2E2E2E2E2E2E2E2E2E2E2E2E2E2E2E2E2E2E2E2E2E2E2E2E2E2E2E2E2E2E2E2E2E2E2E2E2E2E2E2E2E2E2E2E2E20F0F0F0F0FE2E2E2E2E2E2E20FE2E2E2E2E2E2E2E2E2E2
310
E2E2E2E20FE2E2E2E20FE2E2E2E2E2E2E2E2E2E2E2E2E2E2E20F0F0F0F0F0FE2E2E2E2E2E2E2E2E2E2E2E2E2E2E2E2E2E2E2E2E2E2E22DE2E2E2E2E2E2E2E2E2E2E2E2E2E2E2E2E2E2E2E2E2E2E22DE2E2E2E2E2E2E2E2E2E2E2E2E2E2E20FE20F0F0FE20F0FE2E2E2E2E2E2E2E2E2E2E2E2E2E2E2E2E2E2E2E2E2E2E2E2E2
310
E2E2E2E2E2E2E2E2E2E2E2E2E2E2E2E2E2E2E2E2E2E2E2E2E2E2E2E2E2E20F0F0F0F0FE2E2E2E2E2E2E20F0F0F0F0F0F0F0F0F0F0F0F0F0F0F0FE2E2E2E20F0F0F0F0F0F0F0F0FE2E2E2E2E2E2E20F0F0F0F0FE2E2E2E2E2E2E2E2E2E2E2E2E2E2E2E2E2E2E2E2E2E2E2E22DE2E2E2E2E2E2E2E2E2E2E2E2E2E2E2E2E2E2E2
310
E2E2E2E22DE2E2E2E2E2E2E2E2E2E2E2E2E2E2E2E2E2E2E2E2E2E2E2E2E2E2E2E2E2E2E2E2E2E2E2E2E2E2E2E2E2E2E2E2E2E2E2E2E2E2E2E2E2E2E2E2E2E2E2E2E2E2E2E2E2E2E2E2E2E2E2E2E2E2E2E2E2E2E2E2E2E2E2E2E2E2E2E2E2E2E2E2E2E2E2E20F0F0FE2E2E2E2E2E2E2E2E2E2E2E20F0F0F0F0F0F0FE2E2E2E2
310
E2E2E2E2E20FE20F0FE2E2E2E2E2E2E2E2E2E2E2E2E2E2E2E2E2E2E2E2E2E2E2E22DE2E2E2E2E2E2E2E2E2E2E2E2E2E2E2E2E2E2E2E2E2E2E22DE2E2E2E2E2E2E2E2E2E2E2E2E2E2E2E2E2E2E2E2E2E2E2E2E2E2E2E2E2E2E2E2E2E2E2E2E2E2E2E2E2E2E2E2E2E2E2E2E2E2E2E2E2E2E2E2E2E2E2E2E2E2E2E2E2E2E2E2E2
310
E2E2E2E2E2E2E2E2E2E2E2E2E2E2E2E2E2E2E2E2E2E2E2E2E2E2E20F0F0FE2E2E2E2E2E2E2E2E2E2E2E2E2E2E2E2E2E2E2E2E2E2E2E2E2E2E2E2E2E2E2E2E2E2E2E2E2E2E2E2E2E2E2E2E2E2E2E2E2E2E2E2E2E2E2E22DE2E2E2E2E2E2E2E2E2E2E2E2E2E2E2E2E2E2E2E2E2E2E22DE2E2E2E2E2E2E2E2E2E2E2E2E2E2E2E2
310
E2E2E2E2E2E2E2E2E2E2E2E2E2E2E2E2E2E2E2E2E2E2E2E2E2E2E2E2E2E2E2E2E2E2E2E2E2E2E2E2E2E2E2E2E2E2E2E2E2E2E2E2E2E2E2E2E2E2E2E2E2E2E2E2E2E2E2E2E2E2E2E2E2E2E2E2E2E2E2E2E2E2E2E2E2E2E2E2E2E2E2E2E2E2E2E2E2E2E2E2E2E2E2E2E2E2E2E2E2E2E2E2E2E2E2E2E2E2E2E2E2E2E2E2E2E2E2
310
E2E2E2E2E2E2E2E2E2E2E2E22DE2E2E2E2E2E2E2E2E2E2E2E2E2E2E2E2E2E2E2E2E2E2E22DE2E2E2E2E2E2E2E2E2E2E2E2E2E2E2E2E2E2E2E2E2E2E2E2E2E2E2E2E2E2E2E2E2E2E2E2E2E2E2E2E2E2E2E2E2E2E2E2E2E2E2E2E2E2E2E2E2E2E2E2E2E2E2E2E2E2E2E2E2E2E2E2E2E2E2E2E2E2E2E2E2E2E2E2E2E2E2E2E2E2
310
E2E2E2E2E2E2E2E2E2E2E2E2E2E2E2E2E2E2E2E2E2E2E2E2E2E2E2E2E2E2E2E2E2E2E2E2E2E2E2E2E2E2E2E2E2E2E2E2E2E2E2E2E2E2E2E2E2E2E2E2E2E2E2E2E22DE2E2E2E2E2E2E2E2E2E2E2E2E2E2E2E2E2E2E2E2E2E2E22DE2E2E2E2E2E2E2E2E2E2E2E2E2E2E2E2E2E2E2E2E2E2E2E2E2E2E2E2E2E2E2E2E2E2E2E2E2
310
E2E2E2E2E2E2E2E2E2E2E2E2E2E2E2E2E2E2E2E2E2E2E2E2E2E2E2E2E2E2E2E2E2E2E2E2E2E2E2E2E2E2E2E2E2E2E2E2E2E2E2E2E2E2E2E2E2E2E2E2E2E2E2E2E2E2E2E2E2E2E2E2E2E2E2E2E2E2E2E2E2E2E2E2E2E2E2E2E2E2E2E2E2E2E2E2E2E2E2E2E2E2E2E2E2E2E2E2E2E2E2E2E2E2E2E2E2E22DE2E2E2E2E2E2E2E2
310
E2E2E2E2E2E2E2E2E2E2E2E2E2E2E22DE2E2E2E2E2E2E2E2E2E2E2E2E2E2E2E2E2E2E2E2E2E2E2E2E2E2E2E2E2E2E2E2E2E2E2E2E2E2E2E2E2E2E2E2E2E2E2E2E2E2E2E2E2E2E2E2E2E2E2E2E2E2E2E2E2E2E2E2E2E2E2E2E2E2E2E2E2E2E2E2E2E2E2E2E2E2E2E2E2E2E2E2E2E2E2E2E2E2E2E2E2E2E2E2E2E2E2E2E2E2E2
310
E2E2E2E2E2E2E2E2E2E2E2E2E2E2E2E2E2E2E2E2E2E2E2E2E2E2E2E2E2E2E2E2E2E2E2E2E2E2E2E2E2E2E2E22DE2E2E2E2E2E2E2E2E2E2E2E2E2E2E2E2E2E2E2E2E2E2E22DE2E2E2E2E2E2E2E2E2E2E2E2E2E2E2E2E2E2E2E2E2E2E2E2E2E2E2E2E2E2E2E2E2E2E2E2E2E2E2E2E2E2E2E2E2E2E2E2E2E2E2E2E2E2E2E2E2E2
310
E2E2E2E2E2E2E2E2E2E2E2E2E2E2E2E2E2E2E2E2E2E2E2E2E2E2E2E2E2E2E2E2E2E2E2E2E2E2E2E2E2E2E2E2E2E2E2E2E2E2E2E2E2E2E2E2E2E2E2E2E2E2E2E2E2E2E2E2E2E2E2E2E2E2E2E2E2E2E2E2E2E2E2E2E2E2E2E2E2E2E2E2E2E2E2E2E22DE2E2E2E2E2E2E2E2E2E2E2E2E2E2E2E2E2E2E2E2E2E2E22DE2E2E2E2E2
310
E2E2E2E2E2E2E2E2E2E2E2E2E2E2E2E2E2E2E2E2E2E2E2E2E2E2E2E2E2E2E2E2E2E2E2E2E2E2E2E2E2E2E2E2E2E2E2E2E2E2E2E2E2E2E2E2E2E2E2E2E2E2E2E2E2E2E2E2E2E2E2E2E2E2E2E2E2E2E2E2E2E2E2E2E2E2E2E2E2E2E2E2E2E2E2E2E2E2E2E2E2E2E2E2E2E2E2E2E2E2E2E2E2E2E2E2E2E2E2E2E2E2E2E2E2E2E2
310
E2E2E2E2E2E2E2E2E2E2E2E2E2E2E2E2E2E2E2E2E2E2E22DE2E2E2E2E2E2E2E2E2E2E2E2E2E2E2E2E2E2E2E2E2E2E22DE2E2E2E2E2E2E2E2E2E2E2E2E2E2E2E2E2E2E2E2E2E2E2E2E2E2E2E2E2E2E2E2E2E2E2E2E2E2E2E2E2E2E2E2E2E2E2E2E2E2E2E2E2E2E2E2E2E2E2E2E2E2E2E2E2E2E2E2E2E2E2E2E2E2E2E2E2E2E2
310
E2E2E2E2E2E2E2E2E2E2E2E2E2E2E2E2E2E2E2E2E2E2E2E2E2E2E2E2E2E2E2E2E2E2E2E2E2E2E2E2E2E2E2E2E2E2E2E2E2E2E2E2E2E2E2E2E2E2E2E2E2E2E2E2E2E2E2E2E2E2E2E2E2E2E2E22DE2E2E2E2E2E2E2E2E2E2E2E2E2E2E2E2E2E2E2E2E2E2E22DE2E2E2E2E2E2E2E2E2E2E2E2E2E2E2E2E2E2E2E2E2E2E2E2E2E2
310
E2E2E2E2E2E2E2E2E2E2E2E2E2E2E2E2E2E2E2E2E2E2E2E2E2E2E2E2E2E2E2E2E2E2E2E2E2E2E2E2E2E2E2E2E2E2E2E2E2E2E2E2E2E2E2E2E2E2E2E2E2E2E2E2E2E2E2E2E2E2E2E2E2E2E2E2E2E2E2E2E2E2E2E2E2E2E2E2E2E2E2E2E2E2E2E2E2E2E2E2E2E2E2E2E2E2E2E2E2E2E2E2E2E2E2E2E2E2E2E2E2E2E2E2E2E2E2
310
E2E22DE2E2E2E2E2E2E2E2E2E2E2E2E2E2E2E2E2E2E2E2E2E2E22DE2E2E2E2E2E2E2E2E2E2E2E2E2E2E2E2E2E2E2E2E2E2E2E2E2E2E2E2E2E2E2E2E2E2E2E2E2E2E2E2E2E2E2E2E2E2E2E2E2E2E2E2E2E2E2E2E2E2E2E2E2E2E2E2E2E2E2E2E2E2E2E2E2E2E2E2E2E2E2E2E2E2E2E2E2E2E2E2E2E2E2E2E2E2E2E2E2E2E2E2
310
E2E2E2E2E2E2E2E2E2E2E2E2E2E2E2E2E2E2E2E2E2E2E2E2E2E2E2E2E2E2E2E2E2E2E2E2E2E2E2E2E2E2E2E2E2E2E2E2E2E2E2E2E2E2E22DE2E2E2E2E2E2E2E2E2E2E2E2E2E2E2E2E2E2E2E2E2E2E22DE2E2E2E2E2E2E2E2E2E2E2E2E2E2E2E2E2E2E2E2E2E2E2E2E2E2E2E2E2E2E2E2E2E2E2E2E2E2E2E2E2E2E2E2E2E2E2
310
E2E2E2E2E2E2E2E2E2E2E2E2E2E2E2E2E2E2E2E2E2E2E2E2E2E2E2E2E2E2E2E2E2E2E2E2E2E2E2E2E2E2E2E2E2E2E2E2E2E2E2E2E2E2E2E2E2E2E2E2E2E2E2E2E2E2E2E2E2E2E2E2E2E2E2E2E2E2E2E2E2E2E2E2E2E2E2E2E2E2E2E2E2E2E2E2E2E2E2E2E2E2E2E2E2E2E2E22DE2E2E2E2E2E2E2E2E2E2E2E2E2E2E2E2E2E2
310
E2E2E2E2E22DE2E2E2E2E2E2E2E2E2E2E2E2E2E2E2E2E2E2E2E2E2E2E2E2E2E2E2E2E2E2E2E2E2E2E2E2E2E2E2E2E2E2E2E2E2E2E2E2E2E2E2E2E2E2E2E2E2E2E2E2E2E2E2E2E2E2E2E2E2E2E2E2E2E2E2E2E2E2E2E2E2E2E2E2E2E2E2E2E2E2E2E2E2E2E2E2E2E2E2E2E2E2E2E2E2E2E2E2E2E2E2E2E2E2E2E2E2E2E2E2E2
310
E2E2E2E2E2E2E2E2E2E2E2E2E2E2E2E2E2E2E2E2E2E2E2E2E2E2E2E2E2E2E2E2E2E22DE2E2E2E2E2E2E2E2E2E2E2E2E2E2E2E2E2E2E2E2E2E2E22DE2E2E2E2E2E2E2E2E2E2E2E2E2E2E2E2E2E2E2E2E2E2E2E2E2E2E2E2E2E2E2E2E2E2E2E2E2E2E2E2E2E2E2E2E2E2E2E2E2E2E2E2E2E2E2E2E2E2E2E2E2E2E2E2E2E2E2E2
310
E2E2E2E2E2E2E2E2E2E2E2E2E2E2E2E2E2E2E2E2E2E2E2E2E2E2E2E2E2E2E2E2E2E2E2E2E2E2E2E2E2E2E2E2E2E2E2E2E2E2E2E2E2E2E2E2E2E2E2E2E2E2E2E2E2E2E2E2E2E2E2E2E2E2E2E2E2E2E2E2E2E2E2E2E2E2E22DE2E2E2E2E2E2E2E2E2E2E2E2E2E2E2E2E2E2E2E2E2E2E22DE2E2E2E2E2E2E2E2E2E2E2E2E2E2E2
310
E2E2E2E2E2E2E2E2E2E2E2E2E2E2E2E2E2E2E2E2E2E2E2E2E2E2E2E2E2E2E2E2E2E2E2E2E2E2E2E2E2E2E2E2E2E2E2E2E2E2E2E2E2E2E2E2E2E2E2E2E2E2E2E2E2E2E2E2E2E2E2E2E2E2E2E2E2E2E2E2E2E2E2E2E2E2E2E2E2E2E2E2E2E2E2E2E2E2E2E2E2E2E2E2E2E2E2E2E2E2E2E2E2E2E2E2E2E2E2E2E2E2E2E2E2E2E2
310
E2E2E2E2E2E2E2E2E2E2E2E2E22DE2E2E2E2E2E2E2E2E2E2E2E2E2E2E2E2E2E2E2E2E2E2E22DE2E2E2E2E2E2E2E2E2E2E2E2E2E2E2E2E2E2E2E2E2E2E2E2E2E2E2E2E2E2E2E2E2E2E2E2E2E2E2E2E2E2E2E2E2E2E2E2E2E2E2E2E2E2E2E2E2E2E2E2E2E2E2E2E2E2E2E2E2E2E2E2E2E2E2E2E2E2E2E2E2E2E2E2E2E2E2E2E2
310
E2E2E2E2E2E2E2E2E2E2E2E2E2E2E2E2E2E2E2E2E2E2E2E2E2E2E2E2E2E2E2E2E2E2E2E2E2E2E2E2E2E2E2E2E2E2E2E2E2E2E2E2E2E2E2E2E2E2E2E2E2E2E2E2E2E22DE2E2E2E2E2E2E2E2E2E2E2E2E2E2E2E2E2E2E2E2E2E2E22DE2E2E2E2E2E2E2E2E2E2E2E2E2E2E2E2E2E2E2E2E2E2E2E2E2E2E2E2E2E2E2E2E2E2E2E2
310
E2E2E2E2E2E2E2E2E2E2E2E2E2E2E2E2E2E2E2E2E2E2E2E2E2E2E2E2E2E2E2E2E2E2E2E2E2E2E2E2E2E2E2E2E2E2E2E2E2E2E2E2E2E2E2E2E2E2E2E2E2E2E2E2E2E2E2E2E2E2E2E2E2E2E2E2E2E2E2E2E2E2E2E2E2E2E2E2E2E2E2E2E2E2E2E2E2E2E2E2E2E2E2E2E2E2E2E2E2E2E2E2E2E2E2E2E2E2E22DE2E2E2E2E2E2E2
310
E2E2E2E2E2E2E2E2E2E2E2E2E2E2E2E22DE2E2E2E2E2E2E2E2E2E2E2E2E2E2E2E2E2E2E2E2E2E2E2E2E2E2E2E2E2E2E2E2E2E2E2E2E2E2E2E2E2E2E2E2E2E2E2E2E2E2E2E2E2E2E2E2E2E2E2E2E2E2E2E2E2E2E2E2E2E2E2E2E2E2E2E2E2E2E2E2E2E2E2E2E2E2E2E2E2E2E2E2E2E2E2E2E2E2E2E2E2E2E2E2E2E2E2E2E2E2
310
E2E2E2E2E2E2E2E2E2E2E2E2E2E2E2E2E2E2E2E2E2E2E2E2E2E2E2E2E2E2E2E2E2E2E2E2E2E2E2E2E2E2E2E2E22DE2E2E2E2E2E2E2E2E2E2E2E2E2E2E2E2E2E2E2E2E2E2E22DE2E2E2E2E2E2E2E2E2E2E2E2E2E2E2E2E2E2E2E2E2E2E2E2E2E2E2E2E2E2E2E2E2E2E2E2E2E2E2E2E2E2E2E2E2E2E2E2E2E2E2E2E2E2E2E2E2
310
E2E2E2E2E2E2E2E2E2E2E2E2E2E2E2E2E2E2E2E2E2E2E2E2E2E2E2E2E2E2E2E2E2E2E2E2E2E2E2E2E2E2E2E2E2E2E2E2E2E2E2E2E2E2E2E2E2E2E2E2E2E2E2E2E2E2E2E2E2E2E2E2E2E2E2E2E2E2E2E2E2E2E2E2E2E2E2E2E2E2E2E2E2E2E2E2E2E22DE2E2E2E2E2E2E2E2E2E2E2E2E2E2E2E2E2E2E2E2E2E2E22DE2E2E2E2
310
E2E2E2E2E2E2E2E2E2E2E2E2E2E2E2E2E2E2E2E2E2E2E2E2E2E2E2E2E2E2E2E2E2E2E2E2E2E2E2E2E2E2E2E2E2E2E2E2E2E2E2E2E2E2E2E2E2E2E2E2E2E2E2E2E2E2E2E2E2E2E2E2E2E2E2E2E2E2E2E2E2E2E2E2E2E2E2E2E2E2E2E2E2E2E2E2E2E2E2E2E2E2E2E2E2E2E2E2E2E2E2E2E2E2E2E2E2E2E2E2E2E2E2E2E2E2E2
310
E2E2E2E2E2E2E2E2E2E2E2E2E2E2E2E2E2E2E2E2E2E2E2E22DE2E2E2E2E2E2E2E2E2E2E2E2E2E2E2E2E2E2E2E2E2E2E22DE2E2E2E2E2E2E2E2E2E2E2E2E2E2E2E2E2E2E2E2E2E2E2E2E2E2E2E2E2E2E2E2E2E2E2E2E2E2E2E2E2E2E2E2E2E2E2E2E2E2E2E2E2E2E2E2E2E2E2E2E2E2E2E2E2E2E2E2E2E2E2E2E2E2E2E2E2E2
310
E2E2E2E2E2E2E2E2E2E2E2E2E2E2E2E2E2E2E2E2E2E2E2E2E2E2E2E2E2E2E2E2E2E2E2E2E2E2E2E2E2E2E2E2E2E2E2E2E2E2E2E2E2E2E2E2E2E2E2E2E2E2E2E2E2E2E2E2E2E2E2E2E2E2E2E2E22DE2E2E2E2E2E2E2E2E2E2E2E2E2E2E2E2E2E2E2E2E2E2E22DE2E2E2E2E2E2E2E2E2E2E2E2E2E2E2E2E2E2E2E2E2E2E2E2E2
310
E2E2E2E2E2E2E2E2E2E2E2E2E2E2E2E2E2E2E2E2E2E2E2E2E2E2E2E2E2E2E2E2E2E2E2E2E2E2E2E2E2E2E2E2E2E2E2E2E2E2E2E2E2E2E2E2E2E2E2E2E2E2E2E2E2E2E2E2E2E2E2E2E2E2E2E2E2E2E2E2E2E2E2E2E2E2E2E2E2E2E2E2E2E2E2E2E2E2E2E2E2E2E2E2E2E2E2E2E2E2E2E2E2E2E2E2E2E2E2E2E2E2E2E2E2E2E2
310
E2E2E22DE2E2E2E2E2E2E2E2E2E2E2E2E2E2E2E2E2E2E2E2E2E2E22DE2E2E2E2E2E2E2E2E2E2E2E2E2E2E2E2E2E2E2E2E2E2E2E2E2E2E2E2E2E2E2E2E2E2E2E2E2E2E2E2E2E2E2E2E2E2E2E2E2E2E2E2E2E2E2E2E2E2E2E2E2E2E2E2E2E2E2E2E2E2E2E2E2E2E2E2E2E2E2E2E2E2E2E2E2E2E2E2E2E2E2E2E2E2E2E2E2E2E2
310
E2E2E2E2E2E2E2E2E2E2E2E2E2E2E2E2E2E2E2E2E2E2E2E2E2E2E2E2E2E2E2E2E2E2E2E2E2E2E2E2E2E2E2E2E2E2E2E2E2E2E2E2E2E2E2E22DE2E2E2E2E2E2E2E2E2E2E2E2E2E2E2E2E2E2E2E2E2E2E22DE2E2E2E2E2E2E2E2E2E2E2E2E2E2E2E2E2E2E2E2E2E2E2E2E2E2E2E2E2E2E2E2E2E2E2E2E2E2E2E2E2E2E2E2E2E2
310
E2E2E2E2E2E2E2E2E2E2E2E2E2E2E2E2E2E2E2E2E2E2E2E2E2E2E2E2E2E2E2E2E2E2E2E2E2E2E2E2E2E2E2E2E2E2E2E2E2E2E2E2E2E2E2E2E2E2E2E2E2E2E2E2E2E2E2E2E2E2E2E2E2E2E2E2E2E2E2E2E2E2E2E2E2E2E2E2E2E2E2E2E2E2E2E2E2E2E2E2E2E2E2E2E2E2E2E2E22DE2E2E2E2E2E2E2E2E2E2E2E2E2E2E2E2E2
310
E2E2E2E2E2E22DE2E2E2E2E2E2E2E2E2E2E2E2E2E2E2E2E2E2E2E2E2E2E2E2E2E2E2E2E2E2E2E2E2E2E2E2E2E2E2E2E2E2E2E2E2E2E2E2E2E2E2E2E2E2E2E2E2E2E2E2E2E2E2E2E2E2E2E2E2E2E2E2E2E2E2E2E2E2E2E2E2E2E2E2E2E2E2E2E2E2E2E2E2E2E2E2E2E2E2E2E2E2E2E2E2E2E2E2E2E2E2E2E2E2E2E2E2E2E2E2
310
E2E2E2E2E2E2E2E2E2E2E2E2E2E2E2E2E2E2E2E2E2E2E2E2E2E2E2E2E2E2E2E2E2E2E22DE2E2E2E2E2E2E2E2E2E2E2E2E2E2E2E2E2E2E2E2E2E2E22DE2E2E2E2E2E2E2E2E2E2E2E2E2E2E2E2E2E2E2E2E2E2E2E2E2E2E2E2E2E2E2E2E2E2E2E2E2E2E2E2E2E2E2E2E2E2E2E2E2E2E2E2E2E2E2E2E2E2E2E2E2E2E2E2E2E2E2
310
E2E2E2E2E2E2E2E2E2E2E2E2E2E2E2E2E2E2E2E2E2E2E2E2E2E2E2E2E2E2E2E2E2E2E2E2E2E2E2E2E2E2E2E2E2E2E2E2E2E2E2E2E2E2E2E2E2E2E2E2E2E2E2E2E2E2E2E2E2E2E2E2E2E2E2E2E2E2E2E2E2E2E2E2E2E2E2E22DE2E2E2E2E2E2E2E2E2E2E2E2E2E2E2E2E2E2E2E2E2E2E22DE2E2E2E2E2E2E2E2E2E2E2E2E2E2
310
E2E2E2E2E2E2E2E2E2E2E2E2E2E2E2E2E2E2E2E2E2E2E2E2E2E2E2E2E2E2E2E2E2E2E2E2E2E2E2E2E2E2E2E2E2E2E2E2E2E2E2E2E2E2E2E2E2E2E2E2E2E2E2E2E2E2E2E2E2E2E2E2E2E2E2E2E2E2E2E2E2E2E2E2E2E2E2E2E2E2E2E2E2E2E2E2E2E2E2E2E2E2E2E2E2E2E2E2E2E2E2E2E2E2E2E2E2E2E2E2E2E2E2E2E2E2E2
310
E2E2E2E2E2E2E2E2E2E2E2E2E2E22DE2E2E2E2E2E2E2E2E2E2E2E2E2E2E2E2E2E2E2E2E2E2E22D2D2D2D2D2D2D2D2D2D2D2D2D2D2D2D2D2D2D2D2D2D2D2D2D2D2D2D2D2D2D2D2D2D2D2D2D2D2D2D2D2D2D2D2D2D2D2D2D2D2D2D2D2D2D2D2D2D2D2D2D2D2D2D2D2D2D2D2D2D2D2D2D2D2D2D2D2D2D2D2D2D2D2D2D2D2D2D2D
310
2D2D2D2D2D2D2D2D2D2D2D2D2D2D2D2D2D2D2D2D2D2D2D2D2D2D2D2D2D2D2D2D2D2D2D2D2D2D2D2D2D2D2D2D2D2D2D2D2D2D2D2D2D2D2D2D2D2D2D2D2D2D2D2D2D2D2D2DE2E2E2E2E2E2E2E2E2E2E2E2E2E2E2E2E2E2E2E2E2E2E2E2E2E2E2E2E2E2E2E2E2E2E2E2E2E2E2E2E2E2E2E2E2E2E2E2E2E2E2E2E2E2E2E2E2E2E2
310
E2E2E2E2E2E2E2E2E2E2E2E2E2E2E2E2E2E2E2E2E2E2E2E2E2E2E2E2E2E2E2E2E2E2E2E2E2E2E2E2E2E2E2E2E2E2E2E2E2E2E2E2E2E2E2E2E2E2E2E2E2E2E2E2E2E2E2E2E2E2E2E2E2E2E2E2E2E2E2E2E2E2E2E2E2E2E2E2E2E2E2E2E2E2E2E2E2E2E2E2E2E2E2E2E2E2E2E2E2E2E2E2E2E2E2E2E2E2E2E2E2E2E2E2E2E2E2
310
E2E2E2E2E2E2E2E2E2E2E2E2E2E2E2E2E2E2E2E2E2E2E2E2E2E2E2E2E2E2E2E2E2E2E2E2E2E2E2E2E2E2E2E2E2E2E2E2E2E2E2E2E2E2E2E2E2E2E2E2E2E2E2E2E2E2E2E2E2E2E2E2E2E2E2E2E2E2E2E2E2E2E2E2E2E2E2E2E2E2E2E2E2E2E2E2E2E2E2E2E2E2E2E2E2E2E2E2E2E2E2E2E2E2E2E2E2E2E2E2E2E2E2E2E2E2E2
310
E2E2E2E2E2E2E2E2E2E2E2E2E2E2E2E2E2E2E2E2E2E2E2E2E2E2E2E2E2E2E2E2E2E2E2E2E2E2E2E2E2E2E2E2E2E2E2E2E2E2E2E2E2E2E2E2E2E2E2E2E2E2E2E2E2E2E2E2E2E2E2E2E2E2E2E2E2E2E2E2E2E2E2E2E2E2E2E2E2E2E2E2E2E2E2E2E2E2E2E2E2E2E2E2E2E2E2E2E2E2E2E2E2E2E2E2E2E2E2E2E2E2E2E2E2E2E2
310
E2E2E2E2E2E2E2E2E2E2E2E2E2E2E2E2E2E2E2E2E2E2E2E2E2E2E2E2E2E2E2E2E2E2E2E2E2E2E2E2E2E2E2E2E2E2E2E2E2E2E2E2E2E2E2E2E2E2E2E2E2E2E2E2E2E2E2E2E2E2E2E2E2E2E2E2E2E2E2E2E2E2E2E2E2E2E2E2E2E2E2E2E2E2E2E2E2E2E2E2E2E2E2E2E2E2E2E2E2E2E2E2E2E2E2E2E2E2E2E2E2E2E2E2E2E2E2
310
E2E2E2E2E2E2E2E2E2E2E2E2E2E2E2E2E2E2E2E2E2E2E2E2E2E2E2E2E2E2E2E2E2E2E2E2E2E2E2E2E2E2E2E2E2E2E2E2E2E2E2E2E2E2E2E2E2E2E2E2E2E2E2E2E2E2E2E2E2E2E2E2E2E2E2E2E2E2E2E2E2E2E2E2E2E2E2E2E2E2E2E2E2E2E2E2E2E2E2E2E2E2E2E2E2E2E2E2E2E2E2E2E2E2E2E2E2E2E2E2E2E2E2E2E2E2E2
310
E2E2E2E2E2E2E2E2E2E2E2E2E2E2E2E2E2E2E2E2E2E2E2E2E2E2E2E2E2E2E2E2E2E2E2E2E2E2E2E2E2E2E2E2E2E2E2E2E2E2E2E2E2E2E2E2E2E2E2E2E2E2E2E2E2E2E2E2E2E2E2E2E2E2E2E2E2E2E2E2E2E2E2E2E2E2E2E2E2E2E2E2E2E2E2E2E2E2E2E2E2E2E2E2E2E2E2E2E2E2E2E2E2E2E2E2E2E2E2E2E2E2E2E2E2E2E2
310
E2E2E2E2E2E2E2E2E2E2E2E2E2E2E2E2E2E2E2E2E2E2E2E2E2E2E2E2E2E2E2E2E2E2E2E2E2E2E2E2E2E2E2E2E2E2E2E2E2E2E2E2E2E2E2E2E2E2E2E2E2E2E2E2E2E2E2E2E2E2E2E2E2E2E2E2E2E2E2E2E2E2E2E2E2E2E2E2E2E2E2E2E2E2E2E2E2E2E2E2E2E2E2E2E2E2E2E2E2E2E2E2E2E2E2E2E2E2E2E2E2E2E2E2E2E2E2
310
E2E2E2E2E2E2E2E2E2E2E2E2E2E2E2E2E2E2E2E2E2E2E2E2E2E2E2E2E2E2E2E2E2E2E2E2E2E2E2E2E2E2E2E2E2E2E2E2E2E2E2E2E2E2E2E2E2E2E2E2E2E2E2E2E2E2E2E2E2E2E2E2E2E2E2E2E2E2E2E2E2E2E2E2E2E2E2E2E2E2E2E2E2E2E2E2E2E2E2E2E2E2E2E2E2E2E2E2E2E2E2E2E2E2E2E2E2E2E2E2E2E2E2E2E2E2E2
310
E2E2E2E2E2E2E2E2E2E2E2E2E2E2E2E2E2E2E2E2E2E2E2E2E2E2E2E2E2E2E2E2E2E2E2E2E2E2E2E2E2E2E2E2E2E2E2E2E2E2E2E2E2E2E2E2E2E2E2E2E2E2E2E2E2E2E2E2E2E2E2E2E2E2E2E2E2E2E2E2E2E2E2E2E2E2E2E2E2E2E2E2E2E2E2E2E2E2E2E2E2E2E2E2E2E2E2E2E2E2E2E2E2E2E2E2E2E2E2E2E2E2E2E2E2E2E2
310
E2E2E2E2E2E2E2E2E2E2E2E2E2E2E2E2E2E2E2E2E2E2E2E2E2E2E2E2E2E2E2E2E2E2E2E2E2E2E2E2E2E2E2E2E2E2E2E2E2E2E2E2E2E2E2E2E2E2E2E2E2E2E2E2E2E2E2E2E2E2E2E2E2E2E2E2E2E2E2E2E2E2E2E2E2E2E2E2E2E2E2E2E2E2E2E2E2E2E2E2E2E2E2E2E2E2E2E2E2E2E2E2E2E2E2E2E2E2E2E2E2E2E2E2E2E2E2
310
E2E2E2E2E2E2E2E2E2E2E2E2E2E2E2E2E2E2E2E2E2E2E2E2E2E2E2E2E2E2E2E2E2E2E2E2E2E2E2E2E2E2E2E2E2E2E2E2E2E2E2E2E2E2E2E2E2E2E2E2E2E2E2E2E2E2E2E2E2E2E2E2E2E2E2E2E2E2E2E2E2E2E2E2E2E2E2E2E2E2E2E2E2E2E2E2E2E2E2E2E2E2E2E2E2E2E2E2E2E2E2E2E2E2E2E2E2E2E2E2E2E2E2E2E2E2E2
310
E2E2E2E2E2E2E2E2E2E2E2E2E2E2E2E2E2E2E2E2E2E2E2E2E2E2E2E2E2E2E2E2E2E2E2E2E2E2E2E2E2E2E2E2E2E2E2E2E2E2E2E2E2E2E2E2E2E2E2E2E2E2E2E2E2E2E2E2E2E2E2E2E2E2E2E2E2E2E2E2E2E2E2E2E2E2E2E2E2E2E2E2E2E2E2E2E2E2E2E2E2E2E2E2E2E2E2E2E2E2E2E2E2E2E2E2E2E2E2E2E2E2E2E2E2E2E2
310
E2E2E2E2E2E2E2E2E2E2E2E2E2E2E2E2E2E2E2E2E2E2E2E2E2E2E2E2E2E2E2E2E2E2E2E2E2E2E2E2E2E2E2E2E2E2E2E2
  0
ENDSEC
  0
EOF
