  0
SECTION
  2
HEADER
  9
$ACADVER
  1
AC1015
  9
$ACADMAINTVER
 70
    20
  9
$DWGCODEPAGE
  3
ANSI_950
  9
$INSBASE
 10
0.0
 20
0.0
 30
0.0
  9
$EXTMIN
 10
1.000000000000000E+20
 20
1.000000000000000E+20
 30
1.000000000000000E+20
  9
$EXTMAX
 10
-1.000000000000000E+20
 20
-1.000000000000000E+20
 30
-1.000000000000000E+20
  9
$LIMMIN
 10
0.0
 20
0.0
  9
$LIMMAX
 10
420.0
 20
297.0
  9
$ORTHOMODE
 70
     0
  9
$REGENMODE
 70
     1
  9
$FILLMODE
 70
     1
  9
$QTEXTMODE
 70
     0
  9
$MIRRTEXT
 70
     1
  9
$LTSCALE
 40
1.0
  9
$ATTMODE
 70
     1
  9
$TEXTSIZE
 40
7.0
  9
$TRACEWID
 40
1.0
  9
$TEXTSTYLE
  7
STANDARD
  9
$CLAYER
  8
0
  9
$CELTYPE
  6
BYLAYER
  9
$CECOLOR
 62
   256
  9
$CELTSCALE
 40
1.0
  9
$DISPSILH
 70
     0
  9
$DIMSCALE
 40
1.0
  9
$DIMASZ
 40
3.5
  9
$DIMEXO
 40
1.0
  9
$DIMDLI
 40
8.0
  9
$DIMRND
 40
0.0
  9
$DIMDLE
 40
0.0
  9
$DIMEXE
 40
1.0
  9
$DIMTP
 40
0.1
  9
$DIMTM
 40
0.1
  9
$DIMTXT
 40
3.5
  9
$DIMCEN
 40
0.0
  9
$DIMTSZ
 40
0.0
  9
$DIMTOL
 70
     0
  9
$DIMLIM
 70
     0
  9
$DIMTIH
 70
     0
  9
$DIMTOH
 70
     0
  9
$DIMSE1
 70
     0
  9
$DIMSE2
 70
     0
  9
$DIMTAD
 70
     1
  9
$DIMZIN
 70
     8
  9
$DIMBLK
  1

  9
$DIMASO
 70
     1
  9
$DIMSHO
 70
     1
  9
$DIMPOST
  1

  9
$DIMAPOST
  1
"
  9
$DIMALT
 70
     0
  9
$DIMALTD
 70
     2
  9
$DIMALTF
 40
0.0393701
  9
$DIMLFAC
 40
1.0
  9
$DIMTOFL
 70
     1
  9
$DIMTVP
 40
0.0
  9
$DIMTIX
 70
     0
  9
$DIMSOXD
 70
     0
  9
$DIMSAH
 70
     0
  9
$DIMBLK1
  1

  9
$DIMBLK2
  1

  9
$DIMSTYLE
  2
AM_ISO
  9
$DIMCLRD
 70
   256
  9
$DIMCLRE
 70
   256
  9
$DIMCLRT
 70
   256
  9
$DIMTFAC
 40
0.71
  9
$DIMGAP
 40
1.0
  9
$DIMJUST
 70
     0
  9
$DIMSD1
 70
     0
  9
$DIMSD2
 70
     0
  9
$DIMTOLJ
 70
     0
  9
$DIMTZIN
 70
     8
  9
$DIMALTZ
 70
     8
  9
$DIMALTTZ
 70
     0
  9
$DIMUPT
 70
     0
  9
$DIMDEC
 70
     2
  9
$DIMTDEC
 70
     8
  9
$DIMALTU
 70
     2
  9
$DIMALTTD
 70
     2
  9
$DIMTXSTY
  7
STANDARD
  9
$DIMAUNIT
 70
     0
  9
$DIMADEC
 70
     0
  9
$DIMALTRND
 40
0.0
  9
$DIMAZIN
 70
     2
  9
$DIMDSEP
 70
    46
  9
$DIMATFIT
 70
     3
  9
$DIMFRAC
 70
     0
  9
$DIMLDRBLK
  1

  9
$DIMLUNIT
 70
     2
  9
$DIMLWD
 70
    -1
  9
$DIMLWE
 70
    -1
  9
$DIMTMOVE
 70
     0
  9
$LUNITS
 70
     2
  9
$LUPREC
 70
     2
  9
$SKETCHINC
 40
1.0
  9
$FILLETRAD
 40
2.5
  9
$AUNITS
 70
     0
  9
$AUPREC
 70
     0
  9
$MENU
  1
.
  9
$ELEVATION
 40
0.0
  9
$PELEVATION
 40
0.0
  9
$THICKNESS
 40
0.0
  9
$LIMCHECK
 70
     0
  9
$CHAMFERA
 40
2.5
  9
$CHAMFERB
 40
2.5
  9
$CHAMFERC
 40
20.0
  9
$CHAMFERD
 40
0.0
  9
$SKPOLY
 70
     0
  9
$TDCREATE
 40
2454887.696942431
  9
$TDUCREATE
 40
2454887.363609098
  9
$TDUPDATE
 40
2456639.644788044
  9
$TDUUPDATE
 40
2456639.311454710
  9
$TDINDWG
 40
0.1204316088
  9
$TDUSRTIMER
 40
0.1204314236
  9
$USRTIMER
 70
     1
  9
$ANGBASE
 50
0.0
  9
$ANGDIR
 70
     0
  9
$PDMODE
 70
     0
  9
$PDSIZE
 40
0.0
  9
$PLINEWID
 40
0.0
  9
$SPLFRAME
 70
     0
  9
$SPLINETYPE
 70
     6
  9
$SPLINESEGS
 70
     8
  9
$HANDSEED
  5
19BD
  9
$SURFTAB1
 70
     6
  9
$SURFTAB2
 70
     6
  9
$SURFTYPE
 70
     6
  9
$SURFU
 70
     6
  9
$SURFV
 70
     6
  9
$UCSBASE
  2

  9
$UCSNAME
  2

  9
$UCSORG
 10
0.0
 20
0.0
 30
0.0
  9
$UCSXDIR
 10
1.0
 20
0.0
 30
0.0
  9
$UCSYDIR
 10
0.0
 20
1.0
 30
0.0
  9
$UCSORTHOREF
  2

  9
$UCSORTHOVIEW
 70
     0
  9
$UCSORGTOP
 10
0.0
 20
0.0
 30
0.0
  9
$UCSORGBOTTOM
 10
0.0
 20
0.0
 30
0.0
  9
$UCSORGLEFT
 10
0.0
 20
0.0
 30
0.0
  9
$UCSORGRIGHT
 10
0.0
 20
0.0
 30
0.0
  9
$UCSORGFRONT
 10
0.0
 20
0.0
 30
0.0
  9
$UCSORGBACK
 10
0.0
 20
0.0
 30
0.0
  9
$PUCSBASE
  2

  9
$PUCSNAME
  2

  9
$PUCSORG
 10
0.0
 20
0.0
 30
0.0
  9
$PUCSXDIR
 10
1.0
 20
0.0
 30
0.0
  9
$PUCSYDIR
 10
0.0
 20
1.0
 30
0.0
  9
$PUCSORTHOREF
  2

  9
$PUCSORTHOVIEW
 70
     0
  9
$PUCSORGTOP
 10
0.0
 20
0.0
 30
0.0
  9
$PUCSORGBOTTOM
 10
0.0
 20
0.0
 30
0.0
  9
$PUCSORGLEFT
 10
0.0
 20
0.0
 30
0.0
  9
$PUCSORGRIGHT
 10
0.0
 20
0.0
 30
0.0
  9
$PUCSORGFRONT
 10
0.0
 20
0.0
 30
0.0
  9
$PUCSORGBACK
 10
0.0
 20
0.0
 30
0.0
  9
$USERI1
 70
     0
  9
$USERI2
 70
     0
  9
$USERI3
 70
     0
  9
$USERI4
 70
     0
  9
$USERI5
 70
     0
  9
$USERR1
 40
0.0
  9
$USERR2
 40
0.0
  9
$USERR3
 40
0.0
  9
$USERR4
 40
0.0
  9
$USERR5
 40
0.0
  9
$WORLDVIEW
 70
     1
  9
$SHADEDGE
 70
     3
  9
$SHADEDIF
 70
    70
  9
$TILEMODE
 70
     0
  9
$MAXACTVP
 70
    48
  9
$PINSBASE
 10
0.0
 20
0.0
 30
0.0
  9
$PLIMCHECK
 70
     0
  9
$PEXTMIN
 10
-3.488748441195639
 20
-47.14690153089777
 30
-0.0000000000000609
  9
$PEXTMAX
 10
817.2518731298634
 20
526.1610533086513
 30
449.4729872435057
  9
$PLIMMIN
 10
-26.12845693884162
 20
-67.0610375921796
  9
$PLIMMAX
 10
841.5860914790341
 20
546.5494724879293
  9
$UNITMODE
 70
     0
  9
$VISRETAIN
 70
     1
  9
$PLINEGEN
 70
     0
  9
$PSLTSCALE
 70
     1
  9
$TREEDEPTH
 70
  3020
  9
$CMLSTYLE
  2
STANDARD
  9
$CMLJUST
 70
     0
  9
$CMLSCALE
 40
1.0
  9
$PROXYGRAPHICS
 70
     1
  9
$MEASUREMENT
 70
     1
  9
$CELWEIGHT
370
    -1
  9
$ENDCAPS
280
     0
  9
$JOINSTYLE
280
     0
  9
$LWDISPLAY
290
     0
  9
$INSUNITS
 70
     4
  9
$HYPERLINKBASE
  1

  9
$STYLESHEET
  1

  9
$XEDIT
290
     1
  9
$CEPSNTYPE
380
     0
  9
$PSTYLEMODE
290
     1
  9
$FINGERPRINTGUID
  2
{5AD1059B-1B16-41CF-BC5F-F299EA68DA38}
  9
$VERSIONGUID
  2
{2EFAF91C-7939-4D82-BFED-619D7E16EB37}
  9
$EXTNAMES
290
     1
  9
$PSVPSCALE
 40
0.0
  9
$OLESTARTUP
290
     0
  0
ENDSEC
  0
SECTION
  2
CLASSES
  0
CLASS
  1
DICTIONARYVAR
  2
AcDbDictionaryVar
  3
ObjectDBX Classes
 90
        0
280
     0
281
     0
  0
CLASS
  1
ACMESTATEMGR
  2
AcMeStateMgr
  3
AcMeServices
 90
        0
280
     0
281
     0
  0
CLASS
  1
ACMESCOPE
  2
AcMeScope
  3
AcMeServices
 90
        0
280
     0
281
     0
  0
CLASS
  1
ACMECOMMANDHISTORY
  2
AcMeCommandHistory
  3
AcMeServices
 90
        0
280
     0
281
     0
  0
CLASS
  1
ACRFINSADJUSTERMGR
  2
AcRfInsAdjusterMgr
  3
AcMeServices
 90
        0
280
     0
281
     0
  0
CLASS
  1
ACMEDRAWINGMAN
  2
AcMeDrawingMan
  3
AcMeServices
 90
        0
280
     0
281
     0
  0
CLASS
  1
AMATTR
  2
AcMeAttribute
  3
AcMeServices
 90
    32768
280
     0
281
     0
  0
CLASS
  1
ACMEBOMCOLUMN
  2
AcMeBOMColumn
  3
AcMeServices
 90
    32768
280
     0
281
     0
  0
CLASS
  1
ACMEBOMCONF
  2
AcMeBOMConf
  3
AcMeServices
 90
    32768
280
     0
281
     0
  0
CLASS
  1
ACMEBOMTABLE
  2
AcMeBOMTable
  3
AcMeServices
 90
    32768
280
     0
281
     0
  0
CLASS
  1
ACMEBOMENTRY
  2
AcMeBOMEntry
  3
AcMeServices
 90
    32768
280
     0
281
     0
  0
CLASS
  1
ACMEVIEW
  2
AcMeView
  3
AcMeServices
 90
        0
280
     0
281
     0
  0
CLASS
  1
ACGREFMASTER
  2
AcGrefMaster
  3
AcAttribServices
 90
        0
280
     0
281
     0
  0
CLASS
  1
AMIMASTER
  2
AmiMaster
  3
AmiServices
 90
        0
280
     0
281
     0
  0
CLASS
  1
ACASGREFMASTER
  2
AcAsGrefMaster
  3
AutoSurfResolverServices
 90
        0
280
     0
281
     0
  0
CLASS
  1
ADAPPL
  2
AcAdAppl
  3
DesignerServices
 90
        0
280
     0
281
     0
  0
CLASS
  1
DEPMGR
  2
AcAdDepMgr
  3
DesignerServices
 90
        0
280
     0
281
     0
  0
CLASS
  1
PARAMMGR
  2
AcAdParamMgr
  3
DesignerServices
 90
        0
280
     0
281
     0
  0
CLASS
  1
PARAMSCOPE
  2
AcAdParamScope
  3
DesignerServices
 90
        0
280
     0
281
     0
  0
CLASS
  1
ACIMSYSVARMAN
  2
AcImSysVarManager
  3
AcMeServices
 90
        0
280
     0
281
     0
  0
CLASS
  1
ACIMINTSYSVAR
  2
AcImIntSysVar
  3
AcMeServices
 90
        0
280
     0
281
     0
  0
CLASS
  1
ACIMREALSYSVAR
  2
AcImRealSysVar
  3
AcMeServices
 90
        0
280
     0
281
     0
  0
CLASS
  1
ACIMSTRSYSVAR
  2
AcImStrSysVar
  3
AcMeServices
 90
        0
280
     0
281
     0
  0
CLASS
  1
NAMEDAPPL
  2
AcAdNamedAppl
  3
DesignerServices
 90
        0
280
     0
281
     0
  0
CLASS
  1
ADHNTMPLT
  2
AdHoleNoteTemplateMgr
  3
DesignerServices
 90
    32768
280
     0
281
     0
  0
CLASS
  1
AM_HNTEMPLATE_MGR_NAME
  2
AdHoleNoteTemplateMgrName
  3
DesignerServices
 90
    32768
280
     0
281
     0
  0
CLASS
  1
ACADGREFMODULE
  2
AcAdGrefModule
  3
AdGrefServices
 90
        0
280
     0
281
     0
  0
CLASS
  1
AM_DRAWING_MGR
  2
AcDmDwgMgr
  3
AcMechDwgViewMgmt
 90
        0
280
     0
281
     0
  0
CLASS
  1
AM_DWG_DOCUMENT
  2
AcDmDwgDocument
  3
AcMechDwgViewMgmt
 90
        0
280
     0
281
     0
  0
CLASS
  1
AM_DWG_SHEET
  2
AcDmSheet
  3
AcMechDwgViewMgmt
 90
        0
280
     0
281
     0
  0
CLASS
  1
AM_VIEWDIMPARMAP
  2
AcDmViewDimParMap
  3
AcMechDwgViewMgmt
 90
        0
280
     0
281
     0
  0
CLASS
  1
AM_DWGMGR_NAME
  2
AcDmDwgMgrName
  3
AcMechDwgViewMgmt
 90
        0
280
     0
281
     0
  0
CLASS
  1
ACAMPROJECT
  2
AcAmProject
  3
DesignerAssemblies
 90
        0
280
     0
281
     0
  0
CLASS
  1
ACAMGRCOMPSET
  2
AcAmGrCompSet
  3
DesignerAssemblies
 90
    32768
280
     1
281
     0
  0
CLASS
  1
ACAMGRCOMPDEFSET
  2
AcAmGrCompDefSet
  3
DesignerAssemblies
 90
        0
280
     0
281
     0
  0
CLASS
  1
ACAMGRCOMPDEF
  2
AcAmGrCompDef
  3
DesignerAssemblies
 90
        0
280
     0
281
     0
  0
CLASS
  1
ACCMCONTEXT
  2
AcCmContext
  3
DesignerAssemblies
 90
        0
280
     0
281
     0
  0
CLASS
  1
ACAMCOMPDEF
  2
AcAmCompDef
  3
DesignerAssemblies
 90
        0
280
     0
281
     0
  0
CLASS
  1
ACAMCOMPDEFMGR
  2
AcAmCompDefMgr
  3
DesignerAssemblies
 90
        0
280
     0
281
     0
  0
CLASS
  1
AMCONTEXTMGR
  2
AcAmContextMgr
  3
DesignerAssemblies
 90
        0
280
     0
281
     0
  0
CLASS
  1
ACAMCONTEXTMODELER
  2
AcAmContextModeler
  3
DesignerAssemblies
 90
        0
280
     0
281
     0
  0
CLASS
  1
ACDMVIEWGEOM
  2
AcDmViewGeometry
  3
AcMechDwgViewMgmt
 90
    32768
280
     0
281
     1
  0
CLASS
  1
CBROWSERAPPOBJECT
  2
CBrowserAppObject
  3
McadcomServices
 90
        0
280
     0
281
     0
  0
CLASS
  1
IM_STATIC_MAN
  2
AcImStaticVarManager
  3
AcMeServices
 90
        0
280
     0
281
     0
  0
CLASS
  1
ASAPP
  2
AcAsAppObject
  3
AutoSurfServices
 90
        0
280
     0
281
     0
  0
CLASS
  1
ACIMDBLSTATICVAR
  2
AcImDblStaticVar
  3
AcMeServices
 90
        0
280
     0
281
     0
  0
CLASS
  1
ACIMSTRSTATICVAR
  2
AcImStrStaticVar
  3
AcMeServices
 90
        0
280
     0
281
     0
  0
CLASS
  1
ACIMINTSTATICVAR
  2
AcImIntStaticVar
  3
AcMeServices
 90
        0
280
     0
281
     0
  0
CLASS
  1
CATALOGSTATE
  2
AcAmCatalogState
  3
DesignerAssemblies
 90
        0
280
     0
281
     0
  0
CLASS
  1
DM_PLACEHOLDER
  2
AcDmSelsetPlaceholder
  3
AcMechDwgViewMgmt
 90
        0
280
     0
281
     0
  0
CLASS
  1
LAYER_INDEX
  2
AcDbLayerIndex
  3
ObjectDBX Classes
 90
        0
280
     0
281
     0
  0
CLASS
  1
IDBUFFER
  2
AcDbIdBuffer
  3
ObjectDBX Classes
 90
        0
280
     0
281
     0
  0
CLASS
  1
ACMSTANDARDJIS
  2
AcmStandardJIS
  3
"Amdt_StdImp|Product Description: AutoCAD Mechanical 2004 DX|Company: Autodesk"
 90
    32768
280
     0
281
     0
  0
CLASS
  1
ACMSTANDARDANSI
  2
AcmStandardANSI
  3
"Amdt_StdImp|Product Description: AutoCAD Mechanical 2004 DX|Company: Autodesk"
 90
    32768
280
     0
281
     0
  0
CLASS
  1
ACMSTANDARDBSI
  2
AcmStandardBSI
  3
"Amdt_StdImp|Product Description: AutoCAD Mechanical 2004 DX|Company: Autodesk"
 90
    32768
280
     0
281
     0
  0
CLASS
  1
ACMSTANDARDDIN
  2
AcmStandardDIN
  3
"Amdt_StdImp|Product Description: AutoCAD Mechanical 2004 DX|Company: Autodesk"
 90
    32768
280
     0
281
     0
  0
CLASS
  1
ACMSTANDARDISO
  2
AcmStandardISO
  3
"Amdt_StdImp|Product Description: AutoCAD Mechanical 2004 DX|Company: Autodesk"
 90
        0
280
     0
281
     0
  0
CLASS
  1
ACDBDICTIONARYWDFLT
  2
AcDbDictionaryWithDefault
  3
ObjectDBX Classes
 90
        0
280
     0
281
     0
  0
CLASS
  1
ACDBPLACEHOLDER
  2
AcDbPlaceHolder
  3
ObjectDBX Classes
 90
        0
280
     0
281
     0
  0
CLASS
  1
LAYOUT
  2
AcDbLayout
  3
ObjectDBX Classes
 90
        0
280
     0
281
     0
  0
CLASS
  1
ACME_DOCUMENT
  2
AcMeDbDoc
  3
AcMeServices
 90
        0
280
     0
281
     0
  0
CLASS
  1
AMGSETTINGSOBJ
  2
AmgSettingsObj
  3
"AcadM|Product Description: AutoCAD Mechanical 2000|Company: Autodesk"
 90
        0
280
     0
281
     0
  0
CLASS
  1
AMGOBJPROPCFG
  2
AmgObjPropCfg
  3
"AmgLay|Product Description: AutoCAD Mechanical 2000|Company: Autodesk"
 90
        1
280
     0
281
     0
  0
CLASS
  1
ACDBENTITYCACHE
  2
AcMeEntityCache
  3
AcMeServices
 90
        0
280
     0
281
     0
  0
CLASS
  1
GSMANAGER
  2
AcMeGSManager
  3
AcMeServices
 90
        0
280
     0
281
     0
  0
CLASS
  1
AMDTINTERNALREACTOR
  2
AmdtInternalReactor
  3
AcMeServices
 90
        0
280
     0
281
     0
  0
CLASS
  1
ACME_DATABASE
  2
AcMeDbDatabase
  3
AcMeServices
 90
        0
280
     0
281
     0
  0
CLASS
  1
ACGREFACADMASTER
  2
AcGrefacadMaster
  3
AcGrefServices
 90
        0
280
     0
281
     0
  0
CLASS
  1
AMDTMENUSTATEMGR
  2
AmdtMenuStateMgr
  3
McadcomServices
 90
        0
280
     0
281
     0
  0
CLASS
  1
AMDTMCOMMENUSTATE
  2
AmdtMcomMenuState
  3
McadcomServices
 90
        0
280
     0
281
     0
  0
CLASS
  1
MAPIADMODULE
  2
MApiAdModule
  3
MApiAdServices
 90
        0
280
     0
281
     0
  0
CLASS
  1
AMDTDMMENUSTATE
  2
AmdtDmMenuState
  3
AcMechDwgViewMgmt
 90
        0
280
     0
281
     0
  0
CLASS
  1
AMDTADMENUSTATE
  2
AmdtAdMenuState
  3
DesignerServices
 90
        0
280
     0
281
     0
  0
CLASS
  1
AMDTAMMENUSTATE
  2
AmdtAmMenuState
  3
DesignerAssemblies
 90
        0
280
     0
281
     0
  0
CLASS
  1
ACMDATADICTIONARY
  2
AcmDataDictionary
  3
"AcmSymBB|Product Description: AutoCAD Mechanical 2004 DX|Company: Autodesk"
 90
        0
280
     0
281
     0
  0
CLASS
  1
ACMDATAENTRYBLOCK
  2
AcmDataEntryBlock
  3
"AcmSymBB|Product Description: AutoCAD Mechanical 2004 DX|Company: Autodesk"
 90
        0
280
     0
281
     0
  0
CLASS
  1
ACMSURFSTANDARDJIS
  2
AcmSurfTextStdJIS
  3
"Amdt_StdImp|Product Description: AutoCAD Mechanical 2004 DX|Company: Autodesk"
 90
    32768
280
     0
281
     0
  0
CLASS
  1
ACMFCFSTANDARDJIS
  2
AcmFCFStdJIS
  3
"Amdt_StdImp|Product Description: AutoCAD Mechanical 2004 DX|Company: Autodesk"
 90
    32768
280
     0
281
     0
  0
CLASS
  1
ACMWELDSTANDARDJIS
  2
AcmWeldingStdJIS
  3
"Amdt_StdImp|Product Description: AutoCAD Mechanical 2004 DX|Company: Autodesk"
 90
    32768
280
     0
281
     0
  0
CLASS
  1
ACMIDSTANDARDJIS
  2
AcmIdStdJIS
  3
"Amdt_StdImp|Product Description: AutoCAD Mechanical 2004 DX|Company: Autodesk"
 90
    32768
280
     0
281
     0
  0
CLASS
  1
ACMDATUMSTANDARDJIS
  2
AcmDatumStdJIS
  3
"Amdt_StdImp|Product Description: AutoCAD Mechanical 2004 DX|Company: Autodesk"
 90
    32768
280
     0
281
     0
  0
CLASS
  1
ACMBOMSTANDARDJIS
  2
AcmBOMStdJIS
  3
"Amdt_StdImp|Product Description: AutoCAD Mechanical 2004 DX|Company: Autodesk"
 90
    32768
280
     0
281
     0
  0
CLASS
  1
ACMSURFSTANDARDANSI
  2
AcmSurfTextStdANSI
  3
"Amdt_StdImp|Product Description: AutoCAD Mechanical 2004 DX|Company: Autodesk"
 90
    32768
280
     0
281
     0
  0
CLASS
  1
ACMFCFSTANDARDANSI
  2
AcmFCFStdANSI
  3
"Amdt_StdImp|Product Description: AutoCAD Mechanical 2004 DX|Company: Autodesk"
 90
    32768
280
     0
281
     0
  0
CLASS
  1
ACMWELDSTANDARDANSI
  2
AcmWeldingStdANSI
  3
"Amdt_StdImp|Product Description: AutoCAD Mechanical 2004 DX|Company: Autodesk"
 90
    32768
280
     0
281
     0
  0
CLASS
  1
ACMIDSTANDARDANSI
  2
AcmIdStdANSI
  3
"Amdt_StdImp|Product Description: AutoCAD Mechanical 2004 DX|Company: Autodesk"
 90
    32768
280
     0
281
     0
  0
CLASS
  1
ACMDATUMSTANDARDANSI
  2
AcmDatumStdANSI
  3
"Amdt_StdImp|Product Description: AutoCAD Mechanical 2004 DX|Company: Autodesk"
 90
    32768
280
     0
281
     0
  0
CLASS
  1
ACMBOMSTANDARDANSI
  2
AcmBOMStdANSI
  3
"Amdt_StdImp|Product Description: AutoCAD Mechanical 2004 DX|Company: Autodesk"
 90
    32768
280
     0
281
     0
  0
CLASS
  1
ACMSURFSTANDARDBSI
  2
AcmSurfTextStdBSI
  3
"Amdt_StdImp|Product Description: AutoCAD Mechanical 2004 DX|Company: Autodesk"
 90
    32768
280
     0
281
     0
  0
CLASS
  1
ACMFCFSTANDARDBSI
  2
AcmFCFStdBSI
  3
"Amdt_StdImp|Product Description: AutoCAD Mechanical 2004 DX|Company: Autodesk"
 90
    32768
280
     0
281
     0
  0
CLASS
  1
ACMWELDSTANDARDBSI
  2
AcmWeldingStdBSI
  3
"Amdt_StdImp|Product Description: AutoCAD Mechanical 2004 DX|Company: Autodesk"
 90
    32768
280
     0
281
     0
  0
CLASS
  1
ACMIDSTANDARDBSI
  2
AcmIdStdBSI
  3
"Amdt_StdImp|Product Description: AutoCAD Mechanical 2004 DX|Company: Autodesk"
 90
    32768
280
     0
281
     0
  0
CLASS
  1
ACMDATUMSTANDARDBSI
  2
AcmDatumStdBSI
  3
"Amdt_StdImp|Product Description: AutoCAD Mechanical 2004 DX|Company: Autodesk"
 90
    32768
280
     0
281
     0
  0
CLASS
  1
ACMBOMSTANDARDBSI
  2
AcmBOMStdBSI
  3
"Amdt_StdImp|Product Description: AutoCAD Mechanical 2004 DX|Company: Autodesk"
 90
    32768
280
     0
281
     0
  0
CLASS
  1
AMDTEDGESTANDARDDIN
  2
AmdtEdgeStdDIN
  3
"Amdt_StdImp|Product Description: AutoCAD Mechanical 2004 DX|Company: Autodesk"
 90
    32768
280
     0
281
     0
  0
CLASS
  1
ACMSURFSTANDARDDIN
  2
AcmSurfTextStdDIN
  3
"Amdt_StdImp|Product Description: AutoCAD Mechanical 2004 DX|Company: Autodesk"
 90
    32768
280
     0
281
     0
  0
CLASS
  1
ACMFCFSTANDARDDIN
  2
AcmFCFStdDIN
  3
"Amdt_StdImp|Product Description: AutoCAD Mechanical 2004 DX|Company: Autodesk"
 90
    32768
280
     0
281
     0
  0
CLASS
  1
ACMWELDSTANDARDDIN
  2
AcmWeldingStdDIN
  3
"Amdt_StdImp|Product Description: AutoCAD Mechanical 2004 DX|Company: Autodesk"
 90
    32768
280
     0
281
     0
  0
CLASS
  1
ACMIDSTANDARDDIN
  2
AcmIdStdDIN
  3
"Amdt_StdImp|Product Description: AutoCAD Mechanical 2004 DX|Company: Autodesk"
 90
    32768
280
     0
281
     0
  0
CLASS
  1
ACMDATUMSTANDARDDIN
  2
AcmDatumStdDIN
  3
"Amdt_StdImp|Product Description: AutoCAD Mechanical 2004 DX|Company: Autodesk"
 90
    32768
280
     0
281
     0
  0
CLASS
  1
ACMBOMSTANDARDDIN
  2
AcmBOMStdDIN
  3
"Amdt_StdImp|Product Description: AutoCAD Mechanical 2004 DX|Company: Autodesk"
 90
    32768
280
     0
281
     0
  0
CLASS
  1
ACMSURFSTANDARDISO
  2
AcmSurfTextStdISO
  3
"Amdt_StdImp|Product Description: AutoCAD Mechanical 2004 DX|Company: Autodesk"
 90
        0
280
     0
281
     0
  0
CLASS
  1
ACMFCFSTANDARDISO
  2
AcmFCFStdISO
  3
"Amdt_StdImp|Product Description: AutoCAD Mechanical 2004 DX|Company: Autodesk"
 90
        0
280
     0
281
     0
  0
CLASS
  1
ACMWELDSTANDARDISO
  2
AcmWeldingStdISO
  3
"Amdt_StdImp|Product Description: AutoCAD Mechanical 2004 DX|Company: Autodesk"
 90
        0
280
     0
281
     0
  0
CLASS
  1
ACMIDSTANDARDISO
  2
AcmIdStdISO
  3
"Amdt_StdImp|Product Description: AutoCAD Mechanical 2004 DX|Company: Autodesk"
 90
        0
280
     0
281
     0
  0
CLASS
  1
ACMDATUMSTANDARDISO
  2
AcmDatumStdISO
  3
"Amdt_StdImp|Product Description: AutoCAD Mechanical 2004 DX|Company: Autodesk"
 90
        0
280
     0
281
     0
  0
CLASS
  1
ACMBOMSTANDARDISO
  2
AcmBOMStdISO
  3
"Amdt_StdImp|Product Description: AutoCAD Mechanical 2004 DX|Company: Autodesk"
 90
        0
280
     0
281
     0
  0
CLASS
  1
AMDTBROWSERDBTAB
  2
AmdtBrowserDbTab
  3
McadcomServices
 90
        0
280
     0
281
     0
  0
CLASS
  1
ACAMGFILTERDAT
  2
AcAmgFilterDat
  3
"AcadM|Product Description: AutoCAD Mechanical 2000|Company: Autodesk"
 90
    32768
280
     0
281
     0
  0
CLASS
  1
MAPIAMMOUDLE
  2
MApiAmModule
  3
MApiAmServices
 90
        0
280
     0
281
     0
  0
CLASS
  1
AMDTMAPISURFMOUDULE
  2
AmdtMApiSurfModule
  3
MApiSurfServices
 90
        0
280
     0
281
     0
  0
CLASS
  1
ACAMGLAYSTD
  2
AcAmgLayStd
  3
"AcAmgLayStd|Product Description: AutoCAD Mechanical 2000|Company: Autodesk"
 90
        0
280
     0
281
     0
  0
CLASS
  1
ACAMGDIMSTD
  2
AcAmgDimStd
  3
"AcAmgDimStd|Product Description: AutoCAD Mechanical 2000|Company: Autodesk"
 90
        0
280
     0
281
     0
  0
CLASS
  1
ACAMGTITLESTD
  2
AcAmgTitleStd
  3
"TITLEAPP"
 90
        0
280
     0
281
     0
  0
CLASS
  1
ACMDETAILSTANDARDJIS
  2
AmdtDetailSymStdJIS
  3
"Amdt_StdImp|Product Description: AutoCAD Mechanical 2004 DX|Company: Autodesk"
 90
    32768
280
     0
281
     0
  0
CLASS
  1
ACMSECTIONSTANDARDJIS
  2
AmdtSectionSymStdJIS
  3
"Amdt_StdImp|Product Description: AutoCAD Mechanical 2004 DX|Company: Autodesk"
 90
    32768
280
     0
281
     0
  0
CLASS
  1
ACMCENTERLINESTANDARDJIS
  2
AmdtCenterLineStdJIS
  3
"Amdt_StdImp|Product Description: AutoCAD Mechanical 2004 DX|Company: Autodesk"
 90
    32768
280
     0
281
     0
  0
CLASS
  1
ACMTHREADLINESTANDARDJIS
  2
AmdtThreadLineStdJIS
  3
"Amdt_StdImp|Product Description: AutoCAD Mechanical 2004 DX|Company: Autodesk"
 90
    32768
280
     0
281
     0
  0
CLASS
  1
ACMDETAILSTANDARDANSI
  2
AmdtDetailSymStdANSI
  3
"Amdt_StdImp|Product Description: AutoCAD Mechanical 2004 DX|Company: Autodesk"
 90
    32768
280
     0
281
     0
  0
CLASS
  1
ACMSECTIONSTANDARDANSI
  2
AmdtSectionSymStdANSI
  3
"Amdt_StdImp|Product Description: AutoCAD Mechanical 2004 DX|Company: Autodesk"
 90
    32768
280
     0
281
     0
  0
CLASS
  1
ACMCENTERLINESTANDARDANSI
  2
AmdtCenterLineStdANSI
  3
"Amdt_StdImp|Product Description: AutoCAD Mechanical 2004 DX|Company: Autodesk"
 90
    32768
280
     0
281
     0
  0
CLASS
  1
ACMTHREADLINESTANDARDANSI
  2
AmdtThreadLineStdANSI
  3
"Amdt_StdImp|Product Description: AutoCAD Mechanical 2004 DX|Company: Autodesk"
 90
    32768
280
     0
281
     0
  0
CLASS
  1
ACMDETAILSTANDARDBSI
  2
AmdtDetailSymStdBSI
  3
"Amdt_StdImp|Product Description: AutoCAD Mechanical 2004 DX|Company: Autodesk"
 90
    32768
280
     0
281
     0
  0
CLASS
  1
ACMSECTIONSTANDARDBSI
  2
AmdtSectionSymStdBSI
  3
"Amdt_StdImp|Product Description: AutoCAD Mechanical 2004 DX|Company: Autodesk"
 90
    32768
280
     0
281
     0
  0
CLASS
  1
ACMCENTERLINESTANDARDBSI
  2
AmdtCenterLineStdBSI
  3
"Amdt_StdImp|Product Description: AutoCAD Mechanical 2004 DX|Company: Autodesk"
 90
    32768
280
     0
281
     0
  0
CLASS
  1
ACMTHREADLINESTANDARDBSI
  2
AmdtThreadLineStdBSI
  3
"Amdt_StdImp|Product Description: AutoCAD Mechanical 2004 DX|Company: Autodesk"
 90
    32768
280
     0
281
     0
  0
CLASS
  1
ACMDETAILSTANDARDDIN
  2
AmdtDetailSymStdDIN
  3
"Amdt_StdImp|Product Description: AutoCAD Mechanical 2004 DX|Company: Autodesk"
 90
    32768
280
     0
281
     0
  0
CLASS
  1
ACMSECTIONSTANDARDDIN
  2
AmdtSectionSymStdDIN
  3
"Amdt_StdImp|Product Description: AutoCAD Mechanical 2004 DX|Company: Autodesk"
 90
    32768
280
     0
281
     0
  0
CLASS
  1
ACMCENTERLINESTANDARDDIN
  2
AmdtCenterLineStdDIN
  3
"Amdt_StdImp|Product Description: AutoCAD Mechanical 2004 DX|Company: Autodesk"
 90
    32768
280
     0
281
     0
  0
CLASS
  1
ACMTHREADLINESTANDARDDIN
  2
AmdtThreadLineStdDIN
  3
"Amdt_StdImp|Product Description: AutoCAD Mechanical 2004 DX|Company: Autodesk"
 90
    32768
280
     0
281
     0
  0
CLASS
  1
AMDTEDGESTANDARDISO
  2
AmdtEdgeStdISO
  3
"Amdt_StdImp|Product Description: AutoCAD Mechanical 2004 DX|Company: Autodesk"
 90
    32768
280
     0
281
     0
  0
CLASS
  1
ACMDETAILSTANDARDISO
  2
AmdtDetailSymStdISO
  3
"Amdt_StdImp|Product Description: AutoCAD Mechanical 2004 DX|Company: Autodesk"
 90
        0
280
     0
281
     0
  0
CLASS
  1
ACMSECTIONSTANDARDISO
  2
AmdtSectionSymStdISO
  3
"Amdt_StdImp|Product Description: AutoCAD Mechanical 2004 DX|Company: Autodesk"
 90
        0
280
     0
281
     0
  0
CLASS
  1
ACMCENTERLINESTANDARDISO
  2
AmdtCenterLineStdISO
  3
"Amdt_StdImp|Product Description: AutoCAD Mechanical 2004 DX|Company: Autodesk"
 90
        0
280
     0
281
     0
  0
CLASS
  1
ACMTHREADLINESTANDARDISO
  2
AmdtThreadLineStdISO
  3
"Amdt_StdImp|Product Description: AutoCAD Mechanical 2004 DX|Company: Autodesk"
 90
        0
280
     0
281
     0
  0
CLASS
  1
ACMNOTESTANDARDISO
  2
AmdtNoteStdISO
  3
"Amdt_StdImp|Product Description: AutoCAD Mechanical 2004 DX|Company: Autodesk"
 90
        0
280
     0
281
     0
  0
CLASS
  1
ACAMGHOLECHARTSTDISO
  2
AcAmgHoleChartStdISO
  3
ACMSYMBB_MODULE_NAME
 90
        0
280
     0
281
     0
  0
CLASS
  1
ACMNOTESTANDARDANSI
  2
AmdtNoteStdANSI
  3
"Amdt_StdImp|Product Description: AutoCAD Mechanical 2004 DX|Company: Autodesk"
 90
    32768
280
     0
281
     0
  0
CLASS
  1
AMDTNOTETEMPLATEDB
  2
AmdtNoteTemplateDB
  3
AMDT_STDIMP_MODULE_NAME
 90
        0
280
     0
281
     0
  0
CLASS
  1
ACAMGHOLECHARTSTDANSI
  2
AcAmgHoleChartStdANSI
  3
ACMSYMBB_MODULE_NAME
 90
    32768
280
     0
281
     0
  0
CLASS
  1
TABLESTYLE
  2
AcDbTableStyle
  3
ObjectDBX Classes
 90
     2047
280
     0
281
     0
  0
CLASS
  1
ACMBOM
  2
AcmBom
  3
"AcmSymBB|Product Description: AutoCAD Mechanical 2004 DX|Company: Autodesk"
 90
    32768
280
     0
281
     0
  0
CLASS
  1
AMDTFORMULAUPDATEDISPATCHER
  2
AmdtFormulaUpdateDispatcher
  3
AcMeServices
 90
    32768
280
     0
281
     0
  0
CLASS
  1
ACMPARTLIST
  2
AcmPartList
  3
"AcmSymBB|Product Description: AutoCAD Mechanical 2004 DX|Company: Autodesk"
 90
    33791
280
     0
281
     1
  0
CLASS
  1
VAACXREFPANELOBJECT
  2
VaAcXREFPanelObject
  3
VAAC_ADDIN
 90
    32768
280
     1
281
     0
  0
CLASS
  1
VAACIMAGEINVENTORY
  2
VaAcImageInventory
  3
VAAC_ADDIN
 90
    32768
280
     1
281
     0
  0
CLASS
  1
ACAMEXTERNALCOMPDEF
  2
AcAmExternalCompDef
  3
DesignerAssemblies
 90
    32768
280
     0
281
     0
  0
CLASS
  1
ACCMBODY
  2
AcCmBody
  3
DesignerAssemblies
 90
    32768
280
     0
281
     0
  0
CLASS
  1
ACAMCOMPENT
  2
AcAmCompEnt
  3
DesignerAssemblies
 90
    32768
280
     0
281
     1
  0
CLASS
  1
ACAMCOMPFEEDBACK
  2
AcAmCompFeedback
  3
DesignerAssemblies
 90
    32768
280
     0
281
     0
  0
CLASS
  1
ACAMCOMP
  2
AcAmComp
  3
DesignerAssemblies
 90
    32768
280
     0
281
     0
  0
CLASS
  1
ACAMCOMPENTCLONE
  2
AcAmCompEntClone
  3
DesignerAssemblies
 90
    32768
280
     0
281
     1
  0
CLASS
  1
ACAMCLONEREACTOR
  2
AcAmGrCompCloneReactor
  3
DesignerAssemblies
 90
    32768
280
     0
281
     0
  0
CLASS
  1
ADPART
  2
AcAdPart
  3
DesignerServices
 90
    32768
280
     0
281
     1
  0
CLASS
  1
WORKPLANEDISPLAYMGR
  2
AcAdDisplayMgr
  3
DesignerServices
 90
    32768
280
     0
281
     0
  0
CLASS
  1
PARAM
  2
AcAdParam
  3
DesignerServices
 90
    32768
280
     0
281
     0
  0
CLASS
  1
ADDATUMAXISABS
  2
AcAdDatumAxisAbs
  3
DesignerServices
 90
    32768
280
     0
281
     0
  0
CLASS
  1
ADDATUMPLANEABS
  2
AcAdDatumPlaneAbs
  3
DesignerServices
 90
    32768
280
     0
281
     0
  0
CLASS
  1
ADBASE
  2
AcAdBase
  3
DesignerServices
 90
    32768
280
     0
281
     0
  0
CLASS
  1
ADDATUMORIENTEDPLANE
  2
AcAdDatumOrientedPlane
  3
DesignerServices
 90
    32768
280
     0
281
     0
  0
CLASS
  1
BODYID
  2
AcAdBodyId
  3
DesignerServices
 90
    32768
280
     0
281
     0
  0
CLASS
  1
ACADCONSGROUP
  2
AcAdConstraintGroup
  3
DesignerServices
 90
    32768
280
     0
281
     0
  0
CLASS
  1
ACADREFLINEACAD
  2
AcAdVirtualReferenceLine
  3
DesignerServices
 90
    32768
280
     0
281
     0
  0
CLASS
  1
ACADCONSLINE
  2
AcAdConstrainedLine
  3
DesignerServices
 90
    32768
280
     0
281
     0
  0
CLASS
  1
ACADLINEACAD
  2
AcAdVirtualBoundedLineAcad
  3
DesignerServices
 90
    32768
280
     0
281
     0
  0
CLASS
  1
ACADCONSPOINT
  2
AcAdConstrainedPoint
  3
DesignerServices
 90
    32768
280
     0
281
     0
  0
CLASS
  1
ADPCURCNS
  2
AcAdPointCurveConstr
  3
DesignerServices
 90
    32768
280
     0
281
     0
  0
CLASS
  1
ADHORCNS
  2
AcAdHorizontalConstr
  3
DesignerServices
 90
    32768
280
     0
281
     0
  0
CLASS
  1
ADVERCNS
  2
AcAdVerticalConstr
  3
DesignerServices
 90
    32768
280
     0
281
     0
  0
CLASS
  1
ACAD_FIXCONSTRAINT
  2
AcAdFixedConstraint
  3
DesignerServices
 90
    32768
280
     0
281
     0
  0
CLASS
  1
ADHDISTCNS
  2
AcAdHorizontalDistanceConstr
  3
DesignerServices
 90
    32768
280
     0
281
     0
  0
CLASS
  1
ADVDISTCNS
  2
AcAdVerticalDistanceConstr
  3
DesignerServices
 90
    32768
280
     0
281
     0
  0
CLASS
  1
ACADIMPPTACAD
  2
AcAdVirtualImplicitPoint
  3
DesignerServices
 90
    32768
280
     0
281
     0
  0
CLASS
  1
ADCLPROF2D
  2
AcAdClosedProfile2d
  3
DesignerServices
 90
    32768
280
     0
281
     0
  0
CLASS
  1
DEPEDGEFEATUREORDERING
  2
AcAdDepEdgeFeatureOrdering
  3
DesignerServices
 90
    32768
280
     0
281
     0
  0
CLASS
  1
ACADVOLFEATWITHTRIM
  2
AcAdVolFeatWithTrim
  3
DesignerServices
 90
    32768
280
     0
281
     0
  0
CLASS
  1
ADPLANEID
  2
AcAdPlaneId
  3
DesignerServices
 90
    32768
280
     0
281
     0
  0
CLASS
  1
EDGEID
  2
AcAdEdgeId
  3
DesignerServices
 90
    32768
280
     0
281
     0
  0
CLASS
  1
CNRREFID
  2
AcAdCornerId
  3
DesignerServices
 90
    32768
280
     0
281
     0
  0
CLASS
  1
STREFID
  2
AcAdStraightRefId
  3
DesignerServices
 90
    32768
280
     0
281
     0
  0
CLASS
  1
ADDATUMPLANEFACE
  2
AcAdDatumPlaneFace
  3
DesignerServices
 90
    32768
280
     0
281
     0
  0
CLASS
  1
DATUMPLANEDISPLAY
  2
AcAdDatumPlaneDisplay
  3
DesignerServices
 90
    32768
280
     0
281
     1
  0
CLASS
  1
ADDATUMPLANEOFFSET
  2
AcAdDatumPlaneOffset
  3
DesignerServices
 90
    32768
280
     0
281
     0
  0
CLASS
  1
ADACADANGCNS
  2
AcAdAcadAngleConstr
  3
DesignerServices
 90
    32768
280
     0
281
     0
  0
CLASS
  1
ACADLINEDEPID
  2
AcAdVirtualLineDepId
  3
DesignerServices
 90
    32768
280
     0
281
     0
  0
CLASS
  1
ADCOLNCNS
  2
AcAdColinearConstr
  3
DesignerServices
 90
    32768
280
     0
281
     0
  0
CLASS
  1
ACADPOINTDEPID
  2
AcAdVirtualPointDepId
  3
DesignerServices
 90
    32768
280
     0
281
     0
  0
CLASS
  1
ACADCIRCLEACAD
  2
AcAdVirtualCircleAcad
  3
DesignerServices
 90
    32768
280
     0
281
     0
  0
CLASS
  1
ACADCONSCIRCLE
  2
AcAdConstrainedCircle
  3
DesignerServices
 90
    32768
280
     0
281
     0
  0
CLASS
  1
ADCTRPTCNS
  2
AcAdCenterPointConstr
  3
DesignerServices
 90
    32768
280
     0
281
     0
  0
CLASS
  1
ADACADDIACNS
  2
AcAdAcadDiameterConstr
  3
DesignerServices
 90
    32768
280
     0
281
     0
  0
CLASS
  1
ACADARCACAD
  2
AcAdVirtualArcAcad
  3
DesignerServices
 90
    32768
280
     0
281
     0
  0
CLASS
  1
ADTANCNS
  2
AcAdTangentConstr
  3
DesignerServices
 90
    32768
280
     0
281
     0
  0
CLASS
  1
ADPARCNS
  2
AcAdParallelConstr
  3
DesignerServices
 90
    32768
280
     0
281
     0
  0
CLASS
  1
ADCONCCNS
  2
AcAdConcentricConstr
  3
DesignerServices
 90
    32768
280
     0
281
     0
  0
CLASS
  1
ADEQRADCNS
  2
AcAdEqualRadiusConstr
  3
DesignerServices
 90
    32768
280
     0
281
     0
  0
CLASS
  1
CIRREFID
  2
AcAdCircleRefId
  3
DesignerServices
 90
    32768
280
     0
281
     0
  0
CLASS
  1
ACADCIRCDEPID
  2
AcAdVirtualCircleDepId
  3
DesignerServices
 90
    32768
280
     0
281
     0
  0
CLASS
  1
ADFILLET
  2
AcAdFillet
  3
DesignerServices
 90
    32768
280
     0
281
     0
  0
CLASS
  1
ADSURFGEOMID
  2
AcAdSurfGeomId
  3
DesignerServices
 90
    32768
280
     0
281
     0
  0
CLASS
  1
DATUMAXISDISPLAY
  2
AcAdDatumAxisDisplay
  3
DesignerServices
 90
    32768
280
     0
281
     1
  0
CLASS
  1
ADDATUMAXISCENTER
  2
AcAdDatumAxisCenter
  3
DesignerServices
 90
    32768
280
     0
281
     0
  0
CLASS
  1
DEPEDGESECONDARYDEPID
  2
AcAdDepEdgeSecondaryDepId
  3
DesignerServices
 90
    32768
280
     0
281
     0
  0
CLASS
  1
ADDATUMPLANEAXISPLANE
  2
AcAdDatumPlaneAxisPlane
  3
DesignerServices
 90
    32768
280
     0
281
     0
  0
CLASS
  1
ACADBOUNDEDLINEDATUMID
  2
AcAdVirtualBoundedLineDatumId
  3
DesignerServices
 90
    32768
280
     0
281
     0
  0
CLASS
  1
OSTREFID
  2
AcAdOrientedStraightRefId
  3
DesignerServices
 90
    32768
280
     0
281
     0
  0
CLASS
  1
ADDATUMPOINT2EDGES
  2
AcAdDatumPoint2Edges
  3
DesignerServices
 90
    32768
280
     0
281
     0
  0
CLASS
  1
ADHOLEFEAT
  2
AcAdHoleFeat
  3
DesignerServices
 90
    32768
280
     0
281
     0
  0
CLASS
  1
DEPEDGEPATTERNFEATURE
  2
AcAdDepEdgePatternFeature
  3
DesignerServices
 90
    32768
280
     0
281
     0
  0
CLASS
  1
ACADPATTNFEAT
  2
AcAdPatternFeat
  3
DesignerServices
 90
    32768
280
     0
281
     0
  0
CLASS
  1
ADEQUALLENGTHCNS
  2
AcAdEqualLengthConstr
  3
DesignerServices
 90
    32768
280
     0
281
     0
  0
CLASS
  1
SORTENTSTABLE
  2
AcDbSortentsTable
  3
ObjectDBX Classes
 90
        0
280
     0
281
     0
  0
CLASS
  1
ACAMGROUNDEDBASECOMP
  2
AcAmGroundedBaseComp
  3
DesignerAssemblies
 90
    32768
280
     0
281
     0
  0
CLASS
  1
AMDTPERSON
  2
AmdtPerson
  3
AcAttribServices
 90
    32768
280
     0
281
     0
  0
CLASS
  1
ACRFMCADAPIATTHOLDER
  2
AcRfMCADAPIAttHolder
  3
AcAttribServices
 90
    32768
280
     0
281
     0
  0
CLASS
  1
AMDTORGANIZATION
  2
AmdtOrganization
  3
AcAttribServices
 90
    32768
280
     0
281
     0
  0
CLASS
  1
AMDTPERSONANDORGANIZATION
  2
AmdtPersonAndOrganization
  3
AcAttribServices
 90
    32768
280
     0
281
     0
  0
CLASS
  1
AMDTPROPERTYDEFINITION
  2
AmdtPropertyDefinition
  3
AcAttribServices
 90
    32768
280
     0
281
     0
  0
CLASS
  1
AMDTAPPROVALPERSONORGANIZATION
  2
AmdtApprovalPersonOrganization
  3
AcAttribServices
 90
    32768
280
     0
281
     0
  0
CLASS
  1
AMDTDATEANDTIME
  2
AmdtDateAndTime
  3
AcAttribServices
 90
    32768
280
     0
281
     0
  0
CLASS
  1
AMDTPRODUCTCATEGORY
  2
AmdtProductCategory
  3
AcAttribServices
 90
    32768
280
     0
281
     0
  0
CLASS
  1
AMDTPRODUCTCATEGORYRELATIONSHIP
  2
AmdtProductCategoryRelationship
  3
AcAttribServices
 90
    32768
280
     0
281
     0
  0
CLASS
  1
AMDTAPPROVAL
  2
AmdtApproval
  3
AcAttribServices
 90
    32768
280
     0
281
     0
  0
CLASS
  1
AMDTDATEANDTIMEASSIGNMENT
  2
AmdtDateAndTimeAssignment
  3
AcAttribServices
 90
    32768
280
     0
281
     0
  0
CLASS
  1
AMDTPERSONANDORGANIZATIONASSIGNMENT
  2
AmdtPersonAndOrganizationAssignment
  3
AcAttribServices
 90
    32768
280
     0
281
     0
  0
CLASS
  1
AMDTSECURITYCLASSIFICATION
  2
AmdtSecurityClassification
  3
AcAttribServices
 90
    32768
280
     0
281
     0
  0
CLASS
  1
AMDTPRODUCTDEFINITION
  2
AmdtProductDefinition
  3
AcAttribServices
 90
    32768
280
     0
281
     0
  0
CLASS
  1
AMDTPRODUCTDEFINITIONFORMATION
  2
AmdtProductDefinitionFormation
  3
AcAttribServices
 90
    32768
280
     0
281
     0
  0
CLASS
  1
AMDTPRODUCT
  2
AmdtProduct
  3
AcAttribServices
 90
    32768
280
     0
281
     0
  0
CLASS
  1
ACRFATTGENMGR
  2
AcRfAttGeneralMgr
  3
AcAttribServices
 90
        0
280
     0
281
     0
  0
CLASS
  1
ACRFOBJATTMGR
  2
AcRfObjAttGroupMgr
  3
AcAttribServices
 90
    32768
280
     0
281
     0
  0
CLASS
  1
ACADPARTCIRCEDGRES
  2
AcAdPartCircEdgRes
  3
AdGrefServices
 90
    32768
280
     0
281
     0
  0
CLASS
  1
ACRFINSADJ
  2
AcRfInsAdjuster
  3
AcMeServices
 90
    32768
280
     0
281
     0
  0
CLASS
  1
FACEID
  2
AcAdFaceId
  3
DesignerServices
 90
    32768
280
     0
281
     0
  0
CLASS
  1
ACADPARTPLANARFACERES
  2
AcAdPartPlanarFaceRes
  3
AdGrefServices
 90
    32768
280
     0
281
     0
  0
CLASS
  1
ACMELINEARARROW
  2
AcImLinearArrowDisplay
  3
AcMeServices
 90
    32768
280
     0
281
     1
  0
CLASS
  1
DEPEDGEPATTERNINSTANCE
  2
AcAdDepEdgePatternInstance
  3
DesignerServices
 90
    32768
280
     0
281
     0
  0
CLASS
  1
ACAMEXPR
  2
AcAmExpr
  3
DesignerAssemblies
 90
    32768
280
     0
281
     0
  0
CLASS
  1
ACCMINSERTPLPL
  2
AcCmInsertPlPl
  3
AcCmServices
 90
    32768
280
     0
281
     0
  0
CLASS
  1
ACCMCONSTREACTOR
  2
AcCmConstraintReactor
  3
DesignerAssemblies
 90
    32768
280
     0
281
     0
  0
CLASS
  1
ACADPARTCYLINDERFACERES
  2
AcAdPartCylinderFaceRes
  3
AdGrefServices
 90
    32768
280
     0
281
     0
  0
CLASS
  1
ACMEAXIS
  2
AcImAxisDisplay
  3
AcMeServices
 90
    32768
280
     0
281
     1
  0
CLASS
  1
ACCMANGVECVEC
  2
AcCmAngVecVec
  3
DesignerAssemblies
 90
    32768
280
     0
281
     0
  0
CLASS
  1
ACAMBLANKBODYCOMP
  2
AcAmBlankBodyComp
  3
DesignerAssemblies
 90
    32768
280
     0
281
     0
  0
CLASS
  1
ACAMTOOLBODYCOMP
  2
AcAmToolBodyComp
  3
DesignerAssemblies
 90
    32768
280
     0
281
     0
  0
CLASS
  1
ADPARAMETRICBOOLEAN
  2
AcAdParametricBoolean
  3
DesignerServices
 90
    32768
280
     0
281
     0
  0
CLASS
  1
DEPEDGEPARAMETRCBOOLORDERING
  2
AcAdDepEdgeParametricBooleanOrdering
  3
DesignerServices
 90
    32768
280
     0
281
     0
  0
CLASS
  1
AMACTIVEPARTSELECTFILTER
  2
AcDmActivePartViewEntFilter
  3
DesignerServices
 90
    32768
280
     0
281
     0
  0
CLASS
  1
AM_GREF_PLANE
  2
AcDmGrefPlnDef
  3
AcMechDwgViewMgmt
 90
    32768
280
     0
281
     0
  0
CLASS
  1
AM_ABS_AXIS
  2
AcDmAbsAxisDef
  3
AcMechDwgViewMgmt
 90
    32768
280
     0
281
     0
  0
CLASS
  1
AM_BASE_VIEW_ORIENT
  2
AcDmBaseViewOr
  3
AcMechDwgViewMgmt
 90
    32768
280
     0
281
     0
  0
CLASS
  1
AM_DWG_VIEWPORT
  2
AcDmViewport
  3
AcMechDwgViewMgmt
 90
    32768
280
     0
281
     0
  0
CLASS
  1
AM_VIEW_DISPLAY
  2
AcDmDwgViewDisplay
  3
AcMechDwgViewMgmt
 90
    32768
280
     0
281
     0
  0
CLASS
  1
AM_CLDFLTS
  2
AcDmClDflts
  3
AcMechDwgViewMgmt
 90
    32768
280
     0
281
     0
  0
CLASS
  1
AM_BASE_VIEW
  2
AcDmBaseView
  3
AcMechDwgViewMgmt
 90
    32768
280
     0
281
     0
  0
CLASS
  1
ACMEPLINE
  2
AcImPlineDisplay
  3
AcMeServices
 90
    32768
280
     0
281
     1
  0
CLASS
  1
ACDMPARTVIEWDATA
  2
AcDmPartViewData
  3
AcMechDwgViewMgmt
 90
    32768
280
     0
281
     0
  0
CLASS
  1
ACDMDISPLAYATTRIBS
  2
AcDmDisplayAttribs
  3
AcMechDwgViewMgmt
 90
    32768
280
     0
281
     0
  0
CLASS
  1
ACDMBODYINSTANCEDATA
  2
AcDmBodyInstanceData
  3
AcMechDwgViewMgmt
 90
    32768
280
     0
281
     0
  0
CLASS
  1
ACDMVWEDLINE
  2
AcDmViewEdgeLine
  3
AcMechDwgViewMgmt
 90
    32768
280
     0
281
     1
  0
CLASS
  1
ACDMVWEDELLIPSE
  2
AcDmViewEdgeEllipse
  3
AcMechDwgViewMgmt
 90
    32768
280
     0
281
     1
  0
CLASS
  1
ACDMVWEDSPLINE
  2
AcDmViewEdgeSpline
  3
AcMechDwgViewMgmt
 90
    32768
280
     0
281
     1
  0
CLASS
  1
ACDMVWEDCIRC
  2
AcDmViewEdgeCircle
  3
AcMechDwgViewMgmt
 90
    32768
280
     0
281
     1
  0
CLASS
  1
ACDMVWEDARC
  2
AcDmViewEdgeArc
  3
AcMechDwgViewMgmt
 90
    32768
280
     0
281
     1
  0
CLASS
  1
ACADPARTPOINTRES
  2
AcAdPartPointRes
  3
AdGrefServices
 90
    32768
280
     0
281
     0
  0
CLASS
  1
ACADPARTSKETCHPLANEAXISRES
  2
AcAdPartSketchPlaneAxisRes
  3
DesignerServices
 90
    32768
280
     0
281
     0
  0
CLASS
  1
AM_VIEWDIMPARALLEL
  2
AcDmViewDimParallel
  3
AcMechDwgViewMgmt
 90
    32768
280
     0
281
     0
  0
CLASS
  1
AMDTDMPARMAPDATA
  2
AmdtDmDimParMapData
  3
AcMechDwgViewMgmt
 90
    32768
280
     0
281
     0
  0
CLASS
  1
ACADSKETCHPOINTRES
  2
AcAdSketchPointRes
  3
DesignerServices
 90
    32768
280
     0
281
     0
  0
CLASS
  1
AM_VIEWDIMLINEAR
  2
AcDmViewDimLinear
  3
AcMechDwgViewMgmt
 90
    32768
280
     0
281
     0
  0
CLASS
  1
ACADSKETCHLINERES
  2
AcAdSketchLineRes
  3
DesignerServices
 90
    32768
280
     0
281
     0
  0
CLASS
  1
AM_VIEWDIMANGULAR
  2
AcDmViewDimAngular
  3
AcMechDwgViewMgmt
 90
    32768
280
     0
281
     0
  0
CLASS
  1
ACADSKETCHCIRCARCRES
  2
AcAdSketchCircArcRes
  3
DesignerServices
 90
    32768
280
     0
281
     0
  0
CLASS
  1
AM_VIEWDIMDIAMETER
  2
AcDmViewDimDiameter
  3
AcMechDwgViewMgmt
 90
    32768
280
     0
281
     0
  0
CLASS
  1
AM_ADLINCTRLINE
  2
AcAdLineCl
  3
DesignerServices
 90
    32768
280
     0
281
     0
  0
CLASS
  1
AM_ADCIRCTRLINE
  2
AcAdBullsEyeCl
  3
DesignerServices
 90
    32768
280
     0
281
     0
  0
CLASS
  1
ACDBLINERES
  2
AcDbLineRes
  3
AcGrefServices
 90
    32768
280
     0
281
     0
  0
CLASS
  1
ACRFDMINSADJ
  2
AcRfDMInsAdjuster
  3
AcMechDwgViewMgmt
 90
    32768
280
     0
281
     0
  0
CLASS
  1
AM_ORTHO_VIEW_ORIENT
  2
AcDmOrthoViewOr
  3
AcMechDwgViewMgmt
 90
    32768
280
     0
281
     0
  0
CLASS
  1
AM_ORTHO_VIEW
  2
AcDmOrthoView
  3
AcMechDwgViewMgmt
 90
    32768
280
     0
281
     0
  0
CLASS
  1
ACADPARTLINEDGRES
  2
AcAdPartLinEdgRes
  3
AdGrefServices
 90
    32768
280
     0
281
     0
  0
CLASS
  1
ACADPARTDATUMPOINTRES
  2
AcAdPartDatumPointRes
  3
AdGrefServices
 90
    32768
280
     0
281
     0
  0
CLASS
  1
AMDTEDGESTANDARDISO13715
  2
AmdtEdgeStdISO13715
  3
"Amdt_StdImp|Product Description: AutoCAD Mechanical 2004 DX|Company: Autodesk"
 90
        0
280
     0
281
     0
  0
ENDSEC
  0
SECTION
  2
TABLES
  0
TABLE
  2
VPORT
  5
1F
330
0
100
AcDbSymbolTable
 70
     1
  0
VPORT
  5
20
330
1F
100
AcDbSymbolTableRecord
100
AcDbViewportTableRecord
  2
*Active
 70
     0
 10
0.0
 20
0.0
 11
1.0
 21
1.0
 12
0.0
 22
0.0
 13
0.0
 23
0.0
 14
2.5
 24
2.5
 15
10.0
 25
10.0
 16
0.0
 26
0.0
 36
1.0
 17
0.0
 27
0.0
 37
0.0
 40
2.000000000000000E+20
 41
1.0
 42
50.0
 43
0.0
 44
0.0
 50
0.0
 51
0.0
 71
     0
 72
   100
 73
     1
 74
     1
 75
     0
 76
     0
 77
     0
 78
     0
281
     0
 65
     0
110
0.0
120
0.0
130
0.0
111
1.0
121
0.0
131
0.0
112
0.0
122
1.0
132
0.0
 79
     0
146
0.0
  0
ENDTAB
  0
TABLE
  2
LTYPE
  5
1A
330
0
100
AcDbSymbolTable
 70
    16
  0
LTYPE
  5
1B
330
1A
100
AcDbSymbolTableRecord
100
AcDbLinetypeTableRecord
  2
BYBLOCK
 70
     0
  3

 72
    65
 73
     0
 40
0.0
  0
LTYPE
  5
1C
330
1A
100
AcDbSymbolTableRecord
100
AcDbLinetypeTableRecord
  2
BYLAYER
 70
     0
  3

 72
    65
 73
     0
 40
0.0
  0
LTYPE
  5
9
330
1A
100
AcDbSymbolTableRecord
100
AcDbLinetypeTableRecord
  2
CONTINUOUS
 70
     0
  3
Solid line
 72
    65
 73
     0
 40
0.0
  0
LTYPE
  5
38
330
1A
100
AcDbSymbolTableRecord
100
AcDbLinetypeTableRecord
  2
AM_ISO08W050x2
 70
     0
  3
__ . __ . __ . __ . __ . __
 72
    65
 73
     4
 40
9.0
 49
6.0
 74
     0
 49
-0.75
 74
     0
 49
1.5
 74
     0
 49
-0.75
 74
     0
  0
LTYPE
  5
2B0
330
1A
100
AcDbSymbolTableRecord
100
AcDbLinetypeTableRecord
  2
HIDDEN
 70
     0
  3
Hidden __ __ __ __ __ __ __ __ __ __ __ __ __ _
 72
    65
 73
     2
 40
9.524999999999998
 49
6.349999999999999
 74
     0
 49
-3.174999999999999
 74
     0
  0
LTYPE
  5
2B1
330
1A
100
AcDbSymbolTableRecord
100
AcDbLinetypeTableRecord
  2
PHANTOM2
 70
     0
  3
Phantom (.5x) ___ _ _ ___ _ _ ___ _ _ ___ _ _
 72
    65
 73
     6
 40
31.75
 49
15.875
 74
     0
 49
-3.174999999999999
 74
     0
 49
3.174999999999999
 74
     0
 49
-3.174999999999999
 74
     0
 49
3.174999999999999
 74
     0
 49
-3.174999999999999
 74
     0
  0
LTYPE
  5
2B2
330
1A
100
AcDbSymbolTableRecord
100
AcDbLinetypeTableRecord
  2
CENTER
 70
     0
  3
Center ____ _ ____ _ ____ _ ____ _ ____ _ ____
 72
    65
 73
     4
 40
50.8
 49
31.75
 74
     0
 49
-6.349999999999999
 74
     0
 49
6.349999999999999
 74
     0
 49
-6.349999999999999
 74
     0
  0
LTYPE
  5
2E6
330
1A
100
AcDbSymbolTableRecord
100
AcDbLinetypeTableRecord
  2
AM_ISO02W050
 70
     0
  3
__ __ __ __ __ __ __ __ __ __ __ __ __ __ __
 72
    65
 73
     2
 40
7.5
 49
6.0
 74
     0
 49
-1.5
 74
     0
  0
LTYPE
  5
2E7
330
1A
100
AcDbSymbolTableRecord
100
AcDbLinetypeTableRecord
  2
AM_ISO08W050
 70
     0
  3
____ . ____ . ____ . ____ . ____ . ____ . ____
 72
    65
 73
     4
 40
18.0
 49
12.0
 74
     0
 49
-1.5
 74
     0
 49
3.0
 74
     0
 49
-1.5
 74
     0
  0
LTYPE
  5
2E8
330
1A
100
AcDbSymbolTableRecord
100
AcDbLinetypeTableRecord
  2
AM_ISO09W050
 70
     0
  3
_____ . . _____ . . _____ . . ____ .. ____
 72
    65
 73
     6
 40
22.5
 49
12.0
 74
     0
 49
-1.5
 74
     0
 49
3.0
 74
     0
 49
-1.5
 74
     0
 49
3.0
 74
     0
 49
-1.5
 74
     0
  0
LTYPE
  5
2E9
330
1A
100
AcDbSymbolTableRecord
100
AcDbLinetypeTableRecord
  2
Amconstr
 70
     0
  3
_______________________
 72
    65
 73
     2
 40
9999.0
 49
9999.0
 74
     0
 49
0.0
 74
     0
  0
LTYPE
  5
2EA
330
1A
100
AcDbSymbolTableRecord
100
AcDbLinetypeTableRecord
  2
AM_ISO02W050x2
 70
     0
  3
 _ _ _ _ _ _ _ _ _ _ _ _
 72
    65
 73
     2
 40
3.75
 49
3.0
 74
     0
 49
-0.75
 74
     0
  0
LTYPE
  5
2ED
330
1A
100
AcDbSymbolTableRecord
100
AcDbLinetypeTableRecord
  2
Amzigzag
 70
     0
  3
/\/-/\/-/\/-/\/-/\/-/\/
 72
    65
 73
     2
 40
11.0001
 49
0.0001
 74
     4
 75
   135
340
2EC
 46
0.04
 50
0.0
 44
0.0
 45
0.0
 49
-11.0
 74
     0
  0
LTYPE
  5
2FC
330
1A
100
AcDbSymbolTableRecord
100
AcDbLinetypeTableRecord
  2
ACISOWELD
 70
     0
  3
_ _ _ _ _
 72
    65
 73
     2
 40
2.0
 49
2.0
 74
     0
 49
-1.0
 74
     0
  0
LTYPE
  5
2FD
330
1A
100
AcDbSymbolTableRecord
100
AcDbLinetypeTableRecord
  2
ACISOTGB
 70
     0
  3
__ . . __ . .
 72
    65
 73
     6
 40
9.0
 49
4.0
 74
     0
 49
-1.0
 74
     0
 49
1.0
 74
     0
 49
-1.0
 74
     0
 49
1.0
 74
     0
 49
-1.0
 74
     0
  0
LTYPE
  5
2FE
330
1A
100
AcDbSymbolTableRecord
100
AcDbLinetypeTableRecord
  2
ACISOTGL
 70
     0
  3
_ _ _ _ _
 72
    65
 73
     2
 40
3.0
 49
2.0
 74
     0
 49
-1.0
 74
     0
  0
LTYPE
  5
1587
330
1A
100
AcDbSymbolTableRecord
100
AcDbLinetypeTableRecord
  2
ASULTYPE
 70
     0
  3
實線
 72
    65
 73
     2
 40
3.0
 49
2.5
 74
     0
 49
0.5
 74
     0
  0
LTYPE
  5
1588
330
1A
100
AcDbSymbolTableRecord
100
AcDbLinetypeTableRecord
  2
ASVLTYPE
 70
     0
  3
__ __ __ __ __ __ __ __ __ __ __ __ __ __ __ __ __ __ __ __ __
 72
    65
 73
     2
 40
0.75
 49
0.5
 74
     0
 49
-0.25
 74
     0
  0
ENDTAB
  0
TABLE
  2
LAYER
  5
14
102
{ACAD_XDICTIONARY
360
15
102
}
330
0
100
AcDbSymbolTable
 70
     9
  0
LAYER
  5
5
330
14
100
AcDbSymbolTableRecord
100
AcDbLayerTableRecord
  2
0
 70
     0
 62
     7
  6
CONTINUOUS
370
    -3
390
6
  0
LAYER
  5
7B
330
14
100
AcDbSymbolTableRecord
100
AcDbLayerTableRecord
  2
AM_VIS
 70
     0
 62
     7
  6
CONTINUOUS
370
    -3
390
6
  0
LAYER
  5
37
330
14
100
AcDbSymbolTableRecord
100
AcDbLayerTableRecord
  2
AM_7
 70
     0
 62
     1
  6
AM_ISO08W050
370
    -3
390
6
  0
LAYER
  5
315
330
14
100
AcDbSymbolTableRecord
100
AcDbLayerTableRecord
  2
LOGO
 70
     0
 62
     7
  6
CONTINUOUS
370
    -3
390
6
  0
LAYER
  5
46F
330
14
100
AcDbSymbolTableRecord
100
AcDbLayerTableRecord
  2
AM_5
 70
     0
 62
     5
  6
CONTINUOUS
370
    -3
390
6
  0
LAYER
  5
4B4
330
14
100
AcDbSymbolTableRecord
100
AcDbLayerTableRecord
  2
Defpoints
 70
     0
 62
     7
  6
CONTINUOUS
290
     0
370
    -3
390
6
  0
LAYER
  5
838
330
14
100
AcDbSymbolTableRecord
100
AcDbLayerTableRecord
  2
SL
 70
     0
 62
     2
  6
CONTINUOUS
370
    -3
390
6
1001
AcAecLayerStandard
1000

1000

  0
LAYER
  5
159A
330
14
100
AcDbSymbolTableRecord
100
AcDbLayerTableRecord
  2
CENTER
 70
     0
 62
     1
  6
CENTER
370
    -3
390
6
  0
LAYER
  5
159B
330
14
100
AcDbSymbolTableRecord
100
AcDbLayerTableRecord
  2
1
 70
     0
 62
     2
  6
CENTER
370
    -3
390
6
1001
AcAecLayerStandard
1000

1000

  0
ENDTAB
  0
TABLE
  2
STYLE
  5
17
330
0
100
AcDbSymbolTable
 70
     5
  0
STYLE
  5
18
330
17
100
AcDbSymbolTableRecord
100
AcDbTextStyleTableRecord
  2
STANDARD
 70
     0
 40
0.0
 41
1.0
 50
0.0
 71
     0
 42
7.0
  3
ISOCP.SHX
  4
CHINESET.SHX
  0
STYLE
  5
2EC
330
17
100
AcDbSymbolTableRecord
100
AcDbTextStyleTableRecord
  2

 70
     1
 40
0.0
 41
1.0
 50
0.0
 71
     0
 42
1.0
  3
ltypeshp.shx
  4

  0
STYLE
  5
2EE
330
17
100
AcDbSymbolTableRecord
100
AcDbTextStyleTableRecord
  2
ACISOTS
 70
     0
 40
1.0
 41
1.0
 50
0.0
 71
     0
 42
1.0
  3
isocp.shx
  4
chineset.shx
  0
STYLE
  5
2FB
330
17
100
AcDbSymbolTableRecord
100
AcDbTextStyleTableRecord
  2
ACISOGDT
 70
     0
 40
0.0
 41
1.0
 50
0.0
 71
     0
 42
1.0
  3
amgdt.shx
  4

  0
STYLE
  5
316
330
17
100
AcDbSymbolTableRecord
100
AcDbTextStyleTableRecord
  2
CHINESET
 70
     0
 40
0.0
 41
1.0
 50
0.0
 71
     0
 42
1.0
  3
simplex
  4
CHINESET.SHX
  0
ENDTAB
  0
TABLE
  2
VIEW
  5
1D
330
0
100
AcDbSymbolTable
 70
     2
  0
ENDTAB
  0
TABLE
  2
UCS
  5
1E
330
0
100
AcDbSymbolTable
 70
     0
  0
ENDTAB
  0
TABLE
  2
APPID
  5
21
330
0
100
AcDbSymbolTable
 70
    24
  0
APPID
  5
22
330
21
100
AcDbSymbolTableRecord
100
AcDbRegAppTableRecord
  2
ACAD
 70
     0
  0
APPID
  5
13
330
21
100
AcDbSymbolTableRecord
100
AcDbRegAppTableRecord
  2
ACAD_PSEXT
 70
     0
  0
APPID
  5
283
330
21
100
AcDbSymbolTableRecord
100
AcDbRegAppTableRecord
  2
MCAD_NO_VIS
 70
     0
  0
APPID
  5
284
330
21
100
AcDbSymbolTableRecord
100
AcDbRegAppTableRecord
  2
ACAD_TEMP_GRAPHIC
 70
     0
  0
APPID
  5
2B4
330
21
100
AcDbSymbolTableRecord
100
AcDbRegAppTableRecord
  2
AD_DRAW
 70
     0
  0
APPID
  5
2B7
330
21
100
AcDbSymbolTableRecord
100
AcDbRegAppTableRecord
  2
ACATTRIBSERVICES
 70
     0
  0
APPID
  5
2D5
330
21
100
AcDbSymbolTableRecord
100
AcDbRegAppTableRecord
  2
DESIGNERASSEMBLIES
 70
     0
  0
APPID
  5
2DB
330
21
100
AcDbSymbolTableRecord
100
AcDbRegAppTableRecord
  2
ACADM_DIM_EDIT
 70
     0
  0
APPID
  5
2DC
330
21
100
AcDbSymbolTableRecord
100
AcDbRegAppTableRecord
  2
AMDT_DM_ADJ
 70
     0
  0
APPID
  5
318
330
21
100
AcDbSymbolTableRecord
100
AcDbRegAppTableRecord
  2
GENIUS_GENOBJ-N-CRS_13
 70
     0
  0
APPID
  5
319
330
21
100
AcDbSymbolTableRecord
100
AcDbRegAppTableRecord
  2
GENIUS_GENOLIS_13
 70
     0
  0
APPID
  5
31A
330
21
100
AcDbSymbolTableRecord
100
AcDbRegAppTableRecord
  2
GENIUS_GENOENT_13
 70
     0
  0
APPID
  5
31B
330
21
100
AcDbSymbolTableRecord
100
AcDbRegAppTableRecord
  2
GENIUS_GENODEF_13
 70
     0
  0
APPID
  5
31C
330
21
100
AcDbSymbolTableRecord
100
AcDbRegAppTableRecord
  2
GENIUS_GENOREF_13
 70
     0
  0
APPID
  5
31D
330
21
100
AcDbSymbolTableRecord
100
AcDbRegAppTableRecord
  2
GENIUS_GENREC_14
 70
     0
  0
APPID
  5
31E
330
21
100
AcDbSymbolTableRecord
100
AcDbRegAppTableRecord
  2
GENIUS_GENOBJ-N-REC_13
 70
     0
  0
APPID
  5
54F
330
21
100
AcDbSymbolTableRecord
100
AcDbRegAppTableRecord
  2
ACAD_DSTYLE_DIMTEXT_FILL
 70
     0
  0
APPID
  5
839
330
21
100
AcDbSymbolTableRecord
100
AcDbRegAppTableRecord
  2
AcAecLayerStandard
 70
     0
  0
APPID
  5
87F
330
21
100
AcDbSymbolTableRecord
100
AcDbRegAppTableRecord
  2
GENIUS_GENDIMSH_14
 70
     0
  0
APPID
  5
10F5
330
21
100
AcDbSymbolTableRecord
100
AcDbRegAppTableRecord
  2
GENIUS_GENDIM_13
 70
     0
  0
APPID
  5
10F6
330
21
100
AcDbSymbolTableRecord
100
AcDbRegAppTableRecord
  2
GENIUS_GENDTOL_13
 70
     0
  0
APPID
  5
10F7
330
21
100
AcDbSymbolTableRecord
100
AcDbRegAppTableRecord
  2
GENIUS_GE3DTOL_13
 70
     0
  0
APPID
  5
1175
330
21
100
AcDbSymbolTableRecord
100
AcDbRegAppTableRecord
  2
ASURF_PCURVE_APPNAME
 70
     0
  0
APPID
  5
117A
330
21
100
AcDbSymbolTableRecord
100
AcDbRegAppTableRecord
  2
AMG_3D2D_5.0
 70
     0
  0
ENDTAB
  0
TABLE
  2
DIMSTYLE
  5
23
330
0
100
AcDbSymbolTable
 70
     8
100
AcDbDimStyleTable
 71
     3
340
24
340
25
340
26
  0
DIMSTYLE
105
24
102
{ACAD_REACTORS
330
7EC
102
}
330
23
100
AcDbSymbolTableRecord
100
AcDbDimStyleTableRecord
  2
AM_ISO
 70
     0
  4
"
 41
3.5
 42
1.0
 43
8.0
 44
1.0
 47
0.1
 48
0.1
 73
     0
 74
     0
 77
     1
 78
     8
 79
     2
140
3.5
141
0.0
143
0.0393701
146
0.71
147
1.0
172
     1
176
   256
177
   256
178
   256
271
     2
272
     2
283
     0
284
     8
285
     8
340
18
371
    -1
372
    -1
  0
DIMSTYLE
105
25
330
23
100
AcDbSymbolTableRecord
100
AcDbDimStyleTableRecord
  2
AM_ISO$SF
 70
     0
  4
"
 41
2.5
 42
1.0
 43
10.0
 44
1.0
 47
0.1
 48
0.1
 73
     0
 74
     0
 75
     1
 76
     1
 77
     1
 78
     8
 79
     2
140
3.5
141
0.0
143
0.0393701
146
0.71
147
1.0
172
     1
176
   256
177
   256
178
   256
271
     2
272
     2
283
     0
284
     8
340
18
371
    -1
372
    -1
  0
DIMSTYLE
105
26
330
23
100
AcDbSymbolTableRecord
100
AcDbDimStyleTableRecord
  2
AM_ISO$SH
 70
     0
  4
"
 41
2.5
 42
1.0
 43
10.0
 44
1.0
 47
0.1
 48
0.1
 73
     0
 74
     0
 75
     1
 76
     1
 77
     1
 78
     8
 79
     2
140
3.5
141
0.0
143
0.0393701
144
2.0
146
0.71
147
1.0
172
     1
173
     1
176
   256
177
   256
178
   256
271
     2
272
     2
283
     0
284
     8
340
18
343
27
371
    -1
372
    -1
  0
DIMSTYLE
105
307
330
23
100
AcDbSymbolTableRecord
100
AcDbDimStyleTableRecord
  2
AM_ISO$3
 70
     0
  4
"
 41
3.5
 42
1.0
 43
8.0
 44
1.0
 47
0.1
 48
0.1
 73
     0
 77
     1
 78
     8
 79
     2
140
3.5
141
0.0
143
0.0393701
146
0.71
147
1.0
176
   256
177
   256
178
   256
271
     2
272
     2
283
     0
284
     8
285
     8
288
     1
289
     0
340
18
371
    -1
372
    -1
  0
DIMSTYLE
105
308
330
23
100
AcDbSymbolTableRecord
100
AcDbDimStyleTableRecord
  2
AM_ISO$4
 70
     0
  4
"
 41
3.5
 42
1.0
 43
8.0
 44
1.0
 47
0.1
 48
0.1
 73
     0
 77
     1
 78
     8
 79
     2
140
3.5
141
0.0
143
0.0393701
146
0.71
147
1.0
176
   256
177
   256
178
   256
271
     2
272
     2
283
     0
284
     8
285
     8
288
     1
289
     0
340
18
371
    -1
372
    -1
  0
DIMSTYLE
105
309
330
23
100
AcDbSymbolTableRecord
100
AcDbDimStyleTableRecord
  2
AM_ISO$6
 70
     0
  4
"
 41
3.5
 42
1.0
 43
8.0
 44
1.0
 47
0.1
 48
0.1
 73
     0
 74
     0
 78
     8
 79
     2
140
3.5
141
0.0
143
0.0393701
146
0.71
147
1.0
172
     1
176
   256
177
   256
178
   256
271
     2
272
     2
283
     0
284
     8
285
     8
340
18
371
    -1
372
    -1
  0
DIMSTYLE
105
30A
102
{ACAD_REACTORS
330
900
330
81C
102
}
330
23
100
AcDbSymbolTableRecord
100
AcDbDimStyleTableRecord
  2
AM_ISO$7
 70
     0
  4
"
 41
3.5
 42
1.0
 43
8.0
 44
1.0
 47
0.1
 48
0.1
 73
     0
 74
     0
 77
     1
 78
     8
 79
     2
140
3.5
141
0.0
143
0.0393701
146
0.71
147
1.5
172
     1
176
   256
177
   256
178
   256
271
     2
272
     2
283
     0
284
     8
285
     8
340
18
371
    -1
372
    -1
  0
DIMSTYLE
105
317
102
{ACAD_REACTORS
330
7C4
330
657
330
511
330
6CB
330
69B
330
67C
330
84E
330
14FB
330
14DC
330
16A9
330
16C8
330
16E7
330
1706
330
1725
330
17ED
330
17EE
102
}
330
23
100
AcDbSymbolTableRecord
100
AcDbDimStyleTableRecord
  2
AM_ISO$0
 70
     0
  4
"
 40
4.0
 41
3.5
 42
1.0
 43
8.0
 44
1.0
 47
0.1
 48
0.1
 73
     0
 74
     0
 77
     1
 78
     8
 79
     2
140
7.0
141
0.0
143
0.0393701
146
0.71
147
1.0
172
     1
176
     5
177
     5
178
     5
179
     1
271
     2
272
     2
283
     0
284
     8
285
     8
340
18
371
    -1
372
    -1
  0
ENDTAB
  0
TABLE
  2
BLOCK_RECORD
  5
1
330
0
100
AcDbSymbolTable
 70
    22
  0
BLOCK_RECORD
  5
2
102
{ACAD_XDICTIONARY
360
3
102
}
330
1
100
AcDbSymbolTableRecord
100
AcDbBlockTableRecord
  2
*MODEL_SPACE
340
B
  0
BLOCK_RECORD
  5
D
102
{ACAD_XDICTIONARY
360
9D5
102
}
330
1
100
AcDbSymbolTableRecord
100
AcDbBlockTableRecord
  2
*PAPER_SPACE
340
10
  0
BLOCK_RECORD
  5
27
330
1
100
AcDbSymbolTableRecord
100
AcDbBlockTableRecord
  2
GENAXEH
340
0
  0
BLOCK_RECORD
  5
512
330
1
100
AcDbSymbolTableRecord
100
AcDbBlockTableRecord
  2
*D1
340
0
  0
BLOCK_RECORD
  5
658
330
1
100
AcDbSymbolTableRecord
100
AcDbBlockTableRecord
  2
*D2
340
0
  0
BLOCK_RECORD
  5
67D
330
1
100
AcDbSymbolTableRecord
100
AcDbBlockTableRecord
  2
*D3
340
0
  0
BLOCK_RECORD
  5
69C
330
1
100
AcDbSymbolTableRecord
100
AcDbBlockTableRecord
  2
*D4
340
0
  0
BLOCK_RECORD
  5
6CC
330
1
100
AcDbSymbolTableRecord
100
AcDbBlockTableRecord
  2
*D5
340
0
  0
BLOCK_RECORD
  5
7C5
330
1
100
AcDbSymbolTableRecord
100
AcDbBlockTableRecord
  2
*D6
340
0
  0
BLOCK_RECORD
  5
7ED
330
1
100
AcDbSymbolTableRecord
100
AcDbBlockTableRecord
  2
*D7
340
0
  0
BLOCK_RECORD
  5
82A
102
{ACAD_XDICTIONARY
360
82B
102
}
330
1
100
AcDbSymbolTableRecord
100
AcDbBlockTableRecord
  2
A$C453B67D5
340
0
102
{BLKREFS
331
845
102
}
  0
BLOCK_RECORD
  5
831
102
{ACAD_XDICTIONARY
360
832
102
}
330
1
100
AcDbSymbolTableRecord
100
AcDbBlockTableRecord
  2
A$C17481420
340
0
102
{BLKREFS
331
846
102
}
  0
BLOCK_RECORD
  5
84F
330
1
100
AcDbSymbolTableRecord
100
AcDbBlockTableRecord
  2
*D10
340
0
  0
BLOCK_RECORD
  5
14DD
330
1
100
AcDbSymbolTableRecord
100
AcDbBlockTableRecord
  2
*D12
340
0
  0
BLOCK_RECORD
  5
14FC
330
1
100
AcDbSymbolTableRecord
100
AcDbBlockTableRecord
  2
*D13
340
0
  0
BLOCK_RECORD
  5
1594
102
{ACAD_XDICTIONARY
360
1595
102
}
330
1
100
AcDbSymbolTableRecord
100
AcDbBlockTableRecord
  2
A$C6896536C
340
0
  0
BLOCK_RECORD
  5
16AA
330
1
100
AcDbSymbolTableRecord
100
AcDbBlockTableRecord
  2
*D15
340
0
  0
BLOCK_RECORD
  5
16C9
330
1
100
AcDbSymbolTableRecord
100
AcDbBlockTableRecord
  2
*D16
340
0
  0
BLOCK_RECORD
  5
16E8
330
1
100
AcDbSymbolTableRecord
100
AcDbBlockTableRecord
  2
*D17
340
0
  0
BLOCK_RECORD
  5
1707
330
1
100
AcDbSymbolTableRecord
100
AcDbBlockTableRecord
  2
*D18
340
0
  0
BLOCK_RECORD
  5
1726
330
1
100
AcDbSymbolTableRecord
100
AcDbBlockTableRecord
  2
*D19
340
0
  0
BLOCK_RECORD
  5
1818
330
1
100
AcDbSymbolTableRecord
100
AcDbBlockTableRecord
  2
*D20
340
0
  0
BLOCK_RECORD
  5
1824
330
1
100
AcDbSymbolTableRecord
100
AcDbBlockTableRecord
  2
*D21
340
0
  0
ENDTAB
  0
ENDSEC
  0
SECTION
  2
BLOCKS
  0
BLOCK
  5
4
330
2
100
AcDbEntity
  8
0
100
AcDbBlockBegin
  2
*MODEL_SPACE
 70
     0
 10
0.0
 20
0.0
 30
0.0
  3
*MODEL_SPACE
  1

  0
ENDBLK
  5
A
330
2
100
AcDbEntity
  8
0
100
AcDbBlockEnd
  0
BLOCK
  5
E
330
D
100
AcDbEntity
 67
     1
  8
0
100
AcDbBlockBegin
  2
*PAPER_SPACE
 70
     0
 10
0.0
 20
0.0
 30
0.0
  3
*PAPER_SPACE
  1

  0
ENDBLK
  5
F
330
D
100
AcDbEntity
 67
     1
  8
0
100
AcDbBlockEnd
  0
BLOCK
  5
28
330
27
100
AcDbEntity
  8
0
100
AcDbBlockBegin
  2
GENAXEH
 70
     0
 10
0.0
 20
0.0
 30
0.0
  3
GENAXEH
  1

  0
LINE
  5
29
330
27
100
AcDbEntity
  8
0
100
AcDbLine
 10
-1.0
 20
0.0
 30
0.0
 11
1.0
 21
0.0
 31
0.0
  0
ENDBLK
  5
2A
330
27
100
AcDbEntity
  8
0
100
AcDbBlockEnd
  0
BLOCK
  5
51C
330
512
100
AcDbEntity
  8
0
100
AcDbBlockBegin
  2
*D1
 70
     1
 10
0.0
 20
0.0
 30
0.0
  3
*D1
  1

  0
LINE
  5
190D
330
512
100
AcDbEntity
  8
AM_5
100
AcDbLine
 10
490.9723945150908
 20
166.8865737924188
 30
0.0
 11
490.9723945150908
 21
59.43986174030749
 31
0.0
  0
LINE
  5
190E
330
512
100
AcDbEntity
  8
AM_5
100
AcDbLine
 10
450.9723945150908
 20
164.8865737924188
 30
0.0
 11
450.9723945150908
 21
59.43986174030749
 31
0.0
  0
LINE
  5
190F
330
512
100
AcDbEntity
  8
AM_5
100
AcDbLine
 10
483.9723945150908
 20
61.4398617403075
 30
0.0
 11
457.9723945150909
 21
61.4398617403075
 31
0.0
  0
SOLID
  5
1910
330
512
100
AcDbEntity
  8
AM_5
100
AcDbTrace
 10
483.9723945150908
 20
62.60652840697416
 30
0.0
 11
483.9723945150908
 21
60.27319507364083
 31
0.0
 12
490.9723945150908
 22
61.4398617403075
 32
0.0
 13
490.9723945150908
 23
61.4398617403075
 33
0.0
  0
SOLID
  5
1911
330
512
100
AcDbEntity
  8
AM_5
100
AcDbTrace
 10
457.9723945150909
 20
62.60652840697416
 30
0.0
 11
457.9723945150909
 21
60.27319507364083
 31
0.0
 12
450.9723945150908
 22
61.4398617403075
 32
0.0
 13
450.9723945150908
 23
61.4398617403075
 33
0.0
  0
MTEXT
  5
1912
330
512
100
AcDbEntity
  8
AM_5
100
AcDbMText
 10
470.9723945150908
 20
66.93986174030749
 30
0.0
 40
7.0
 41
0.0
 71
     5
 72
     1
  1
40
 73
     1
 44
1.0
1001
ACAD
1000
MTEXTBEGIN
1070
    73
1070
     1
1070
    44
1040
1.0
1070
    74
1070
     0
1000
MTEXTEND
  0
POINT
  5
1913
330
512
100
AcDbEntity
  8
Defpoints
 62
     0
100
AcDbPoint
 10
490.9723945150908
 20
168.8865737924188
 30
0.0
  0
POINT
  5
1914
330
512
100
AcDbEntity
  8
Defpoints
 62
     0
100
AcDbPoint
 10
450.9723945150908
 20
166.8865737924188
 30
0.0
  0
POINT
  5
1915
330
512
100
AcDbEntity
  8
Defpoints
 62
     0
100
AcDbPoint
 10
450.9723945150908
 20
61.4398617403075
 30
0.0
  0
ENDBLK
  5
51D
330
512
100
AcDbEntity
  8
0
100
AcDbBlockEnd
  0
BLOCK
  5
664
330
658
100
AcDbEntity
  8
0
100
AcDbBlockBegin
  2
*D2
 70
     1
 10
0.0
 20
0.0
 30
0.0
  3
*D2
  1

  0
LINE
  5
1916
330
658
100
AcDbEntity
  8
AM_5
100
AcDbLine
 10
409.9723945150908
 20
149.3865737924188
 30
0.0
 11
409.9723945150908
 21
103.8829445902429
 31
0.0
  0
LINE
  5
1917
330
658
100
AcDbEntity
  8
AM_5
100
AcDbLine
 10
399.9723945150908
 20
118.3865737924188
 30
0.0
 11
399.9723945150908
 21
103.8829445902429
 31
0.0
  0
LINE
  5
1918
330
658
100
AcDbEntity
  8
AM_5
100
AcDbLine
 10
416.9723945150908
 20
105.8829445902429
 30
0.0
 11
423.9723945150908
 21
105.8829445902429
 31
0.0
  0
LINE
  5
1919
330
658
100
AcDbEntity
  8
AM_5
100
AcDbLine
 10
392.9723945150907
 20
105.8829445902429
 30
0.0
 11
375.6668827040671
 21
105.8829445902429
 31
0.0
  0
LINE
  5
191A
330
658
100
AcDbEntity
  8
AM_5
100
AcDbLine
 10
409.9723945150908
 20
105.8829445902429
 30
0.0
 11
399.9723945150908
 21
105.8829445902429
 31
0.0
  0
SOLID
  5
191B
330
658
100
AcDbEntity
  8
AM_5
100
AcDbTrace
 10
416.9723945150908
 20
107.0496112569095
 30
0.0
 11
416.9723945150908
 21
104.7162779235762
 31
0.0
 12
409.9723945150908
 22
105.8829445902429
 32
0.0
 13
409.9723945150908
 23
105.8829445902429
 33
0.0
  0
SOLID
  5
191C
330
658
100
AcDbEntity
  8
AM_5
100
AcDbTrace
 10
392.9723945150907
 20
107.0496112569095
 30
0.0
 11
392.9723945150907
 21
104.7162779235762
 31
0.0
 12
399.9723945150908
 22
105.8829445902429
 32
0.0
 13
399.9723945150908
 23
105.8829445902429
 33
0.0
  0
MTEXT
  5
191D
330
658
100
AcDbEntity
  8
AM_5
100
AcDbMText
 10
380.8196386095789
 20
111.3829445902429
 30
0.0
 40
7.0
 41
0.0
 71
     5
 72
     1
  1
10
 73
     1
 44
1.0
1001
ACAD
1000
MTEXTBEGIN
1070
    73
1070
     1
1070
    44
1040
1.0
1070
    74
1070
     0
1000
MTEXTEND
  0
POINT
  5
191E
330
658
100
AcDbEntity
  8
Defpoints
 62
     0
100
AcDbPoint
 10
409.9723945150908
 20
151.3865737924188
 30
0.0
  0
POINT
  5
191F
330
658
100
AcDbEntity
  8
Defpoints
 62
     0
100
AcDbPoint
 10
399.9723945150908
 20
120.3865737924188
 30
0.0
  0
POINT
  5
1920
330
658
100
AcDbEntity
  8
Defpoints
 62
     0
100
AcDbPoint
 10
399.9723945150908
 20
105.8829445902429
 30
0.0
  0
ENDBLK
  5
665
330
658
100
AcDbEntity
  8
0
100
AcDbBlockEnd
  0
BLOCK
  5
687
330
67D
100
AcDbEntity
  8
0
100
AcDbBlockBegin
  2
*D3
 70
     1
 10
0.0
 20
0.0
 30
0.0
  3
*D3
  1

  0
LINE
  5
1921
330
67D
100
AcDbEntity
  8
AM_5
100
AcDbLine
 10
289.9723945150908
 20
117.8865737924188
 30
0.0
 11
289.9723945150908
 21
82.81854656115113
 31
0.0
  0
LINE
  5
1922
330
67D
100
AcDbEntity
  8
AM_5
100
AcDbLine
 10
151.9723945150908
 20
117.8865737924188
 30
0.0
 11
151.9723945150908
 21
82.81854656115113
 31
0.0
  0
LINE
  5
1923
330
67D
100
AcDbEntity
  8
AM_5
100
AcDbLine
 10
282.9723945150909
 20
84.81854656115112
 30
0.0
 11
158.9723945150908
 21
84.81854656115112
 31
0.0
  0
SOLID
  5
1924
330
67D
100
AcDbEntity
  8
AM_5
100
AcDbTrace
 10
282.9723945150909
 20
85.98521322781779
 30
0.0
 11
282.9723945150909
 21
83.65187989448445
 31
0.0
 12
289.9723945150908
 22
84.81854656115112
 32
0.0
 13
289.9723945150908
 23
84.81854656115112
 33
0.0
  0
SOLID
  5
1925
330
67D
100
AcDbEntity
  8
AM_5
100
AcDbTrace
 10
158.9723945150908
 20
85.98521322781779
 30
0.0
 11
158.9723945150908
 21
83.65187989448445
 31
0.0
 12
151.9723945150908
 22
84.81854656115112
 32
0.0
 13
151.9723945150908
 23
84.81854656115112
 33
0.0
  0
MTEXT
  5
1926
330
67D
100
AcDbEntity
  8
AM_5
100
AcDbMText
 10
220.9723945150908
 20
90.31854656115113
 30
0.0
 40
7.0
 41
0.0
 71
     5
 72
     1
  1
138+Stroke
 73
     1
 44
1.0
1001
ACAD
1000
MTEXTBEGIN
1070
    73
1070
     1
1070
    44
1040
1.0
1070
    74
1070
     0
1000
MTEXTEND
  0
POINT
  5
1927
330
67D
100
AcDbEntity
  8
Defpoints
 62
     0
100
AcDbPoint
 10
289.9723945150908
 20
119.8865737924188
 30
0.0
  0
POINT
  5
1928
330
67D
100
AcDbEntity
  8
Defpoints
 62
     0
100
AcDbPoint
 10
151.9723945150908
 20
119.8865737924188
 30
0.0
  0
POINT
  5
1929
330
67D
100
AcDbEntity
  8
Defpoints
 62
     0
100
AcDbPoint
 10
151.9723945150908
 20
84.81854656115112
 30
0.0
  0
ENDBLK
  5
688
330
67D
100
AcDbEntity
  8
0
100
AcDbBlockEnd
  0
BLOCK
  5
6A8
330
69C
100
AcDbEntity
  8
0
100
AcDbBlockBegin
  2
*D4
 70
     1
 10
0.0
 20
0.0
 30
0.0
  3
*D4
  1

  0
LINE
  5
192A
330
69C
100
AcDbEntity
  8
AM_5
100
AcDbLine
 10
147.9723945150908
 20
148.8865737924188
 30
0.0
 11
147.9723945150908
 21
82.81854656115111
 31
0.0
  0
LINE
  5
192B
330
69C
100
AcDbEntity
  8
AM_5
100
AcDbLine
 10
151.9723945150908
 20
117.8865737924188
 30
0.0
 11
151.9723945150908
 21
82.81854656115111
 31
0.0
  0
LINE
  5
192C
330
69C
100
AcDbEntity
  8
AM_5
100
AcDbLine
 10
158.9723945150908
 20
84.8185465611511
 30
0.0
 11
165.9723945150908
 21
84.8185465611511
 31
0.0
  0
LINE
  5
192D
330
69C
100
AcDbEntity
  8
AM_5
100
AcDbLine
 10
140.9723945150908
 20
84.8185465611511
 30
0.0
 11
126.4723945150908
 21
84.8185465611511
 31
0.0
  0
LINE
  5
192E
330
69C
100
AcDbEntity
  8
AM_5
100
AcDbLine
 10
151.9723945150908
 20
84.8185465611511
 30
0.0
 11
147.9723945150908
 21
84.8185465611511
 31
0.0
  0
SOLID
  5
192F
330
69C
100
AcDbEntity
  8
AM_5
100
AcDbTrace
 10
158.9723945150908
 20
85.98521322781778
 30
0.0
 11
158.9723945150908
 21
83.65187989448443
 31
0.0
 12
151.9723945150908
 22
84.8185465611511
 32
0.0
 13
151.9723945150908
 23
84.8185465611511
 33
0.0
  0
SOLID
  5
1930
330
69C
100
AcDbEntity
  8
AM_5
100
AcDbTrace
 10
140.9723945150908
 20
85.98521322781778
 30
0.0
 11
140.9723945150908
 21
83.65187989448443
 31
0.0
 12
147.9723945150908
 22
84.8185465611511
 32
0.0
 13
147.9723945150908
 23
84.8185465611511
 33
0.0
  0
MTEXT
  5
1931
330
69C
100
AcDbEntity
  8
AM_5
100
AcDbMText
 10
130.2223945150908
 20
90.31854656115111
 30
0.0
 40
7.0
 41
0.0
 71
     5
 72
     1
  1
4
 73
     1
 44
1.0
1001
ACAD
1000
MTEXTBEGIN
1070
    73
1070
     1
1070
    44
1040
1.0
1070
    74
1070
     0
1000
MTEXTEND
  0
POINT
  5
1932
330
69C
100
AcDbEntity
  8
Defpoints
 62
     0
100
AcDbPoint
 10
147.9723945150908
 20
150.8865737924188
 30
0.0
  0
POINT
  5
1933
330
69C
100
AcDbEntity
  8
Defpoints
 62
     0
100
AcDbPoint
 10
151.9723945150908
 20
119.8865737924188
 30
0.0
  0
POINT
  5
1934
330
69C
100
AcDbEntity
  8
Defpoints
 62
     0
100
AcDbPoint
 10
151.9723945150908
 20
84.8185465611511
 30
0.0
  0
ENDBLK
  5
6A9
330
69C
100
AcDbEntity
  8
0
100
AcDbBlockEnd
  0
BLOCK
  5
6D6
330
6CC
100
AcDbEntity
  8
0
100
AcDbBlockBegin
  2
*D5
 70
     1
 10
0.0
 20
0.0
 30
0.0
  3
*D5
  1

  0
LINE
  5
1935
330
6CC
100
AcDbEntity
  8
AM_5
100
AcDbLine
 10
151.9723945150908
 20
117.8865737924188
 30
0.0
 11
151.9723945150908
 21
59.4398617403075
 31
0.0
  0
LINE
  5
1936
330
6CC
100
AcDbEntity
  8
AM_5
100
AcDbLine
 10
450.9723945150908
 20
164.8865737924188
 30
0.0
 11
450.9723945150908
 21
59.43986174030749
 31
0.0
  0
LINE
  5
1937
330
6CC
100
AcDbEntity
  8
AM_5
100
AcDbLine
 10
158.9723945150908
 20
61.4398617403075
 30
0.0
 11
443.9723945150908
 21
61.4398617403075
 31
0.0
  0
SOLID
  5
1938
330
6CC
100
AcDbEntity
  8
AM_5
100
AcDbTrace
 10
158.9723945150908
 20
62.60652840697416
 30
0.0
 11
158.9723945150908
 21
60.27319507364083
 31
0.0
 12
151.9723945150908
 22
61.4398617403075
 32
0.0
 13
151.9723945150908
 23
61.4398617403075
 33
0.0
  0
SOLID
  5
1939
330
6CC
100
AcDbEntity
  8
AM_5
100
AcDbTrace
 10
443.9723945150908
 20
62.60652840697416
 30
0.0
 11
443.9723945150908
 21
60.27319507364083
 31
0.0
 12
450.9723945150908
 22
61.4398617403075
 32
0.0
 13
450.9723945150908
 23
61.4398617403075
 33
0.0
  0
MTEXT
  5
193A
330
6CC
100
AcDbEntity
  8
AM_5
100
AcDbMText
 10
301.4723945150909
 20
66.94055071668545
 30
0.0
 40
7.0
 41
0.0
 71
     5
 72
     1
  1
299+Stroke
 73
     1
 44
1.0
1001
ACAD
1000
MTEXTBEGIN
1070
    73
1070
     1
1070
    44
1040
1.0
1070
    74
1070
     0
1000
MTEXTEND
  0
POINT
  5
193B
330
6CC
100
AcDbEntity
  8
Defpoints
 62
     0
100
AcDbPoint
 10
151.9723945150908
 20
119.8865737924188
 30
0.0
  0
POINT
  5
193C
330
6CC
100
AcDbEntity
  8
Defpoints
 62
     0
100
AcDbPoint
 10
450.9723945150908
 20
166.8865737924188
 30
0.0
  0
POINT
  5
193D
330
6CC
100
AcDbEntity
  8
Defpoints
 62
     0
100
AcDbPoint
 10
450.9723945150908
 20
61.4398617403075
 30
0.0
  0
ENDBLK
  5
6D7
330
6CC
100
AcDbEntity
  8
0
100
AcDbBlockEnd
  0
BLOCK
  5
7CF
330
7C5
100
AcDbEntity
  8
0
100
AcDbBlockBegin
  2
*D6
 70
     1
 10
0.0
 20
0.0
 30
0.0
  3
*D6
  1

  0
LINE
  5
193E
330
7C5
100
AcDbEntity
  8
AM_5
100
AcDbLine
 10
440.9723945150908
 20
189.8865737924188
 30
0.0
 11
513.0734219218802
 21
189.8865737924188
 31
0.0
  0
LINE
  5
193F
330
7C5
100
AcDbEntity
  8
AM_5
100
AcDbLine
 10
440.9723945150908
 20
164.8865737924188
 30
0.0
 11
513.0734219218802
 21
164.8865737924188
 31
0.0
  0
LINE
  5
1940
330
7C5
100
AcDbEntity
  8
AM_5
100
AcDbLine
 10
511.0734219218802
 20
182.8865737924188
 30
0.0
 11
511.0734219218802
 21
171.8865737924188
 31
0.0
  0
SOLID
  5
1941
330
7C5
100
AcDbEntity
  8
AM_5
100
AcDbTrace
 10
509.9067552552135
 20
182.8865737924188
 30
0.0
 11
512.2400885885468
 21
182.8865737924188
 31
0.0
 12
511.0734219218802
 22
189.8865737924188
 32
0.0
 13
511.0734219218802
 23
189.8865737924188
 33
0.0
  0
SOLID
  5
1942
330
7C5
100
AcDbEntity
  8
AM_5
100
AcDbTrace
 10
509.9067552552135
 20
171.8865737924188
 30
0.0
 11
512.2400885885468
 21
171.8865737924188
 31
0.0
 12
511.0734219218802
 22
164.8865737924188
 32
0.0
 13
511.0734219218802
 23
164.8865737924188
 33
0.0
  0
MTEXT
  5
1943
330
7C5
100
AcDbEntity
  8
AM_5
100
AcDbMText
 10
505.5727329455022
 20
177.3865737924189
 30
0.0
 40
7.0
 41
0.0
 71
     5
 72
     1
  1
%%c25
 11
0.0000000000000001
 21
1.0
 31
0.0
 73
     1
 44
1.0
1001
ACAD
1000
MTEXTBEGIN
1070
    73
1070
     1
1070
    44
1040
1.0
1070
    74
1070
     0
1000
MTEXTEND
  0
POINT
  5
1944
330
7C5
100
AcDbEntity
  8
Defpoints
 62
     0
100
AcDbPoint
 10
438.9723945150908
 20
189.8865737924188
 30
0.0
  0
POINT
  5
1945
330
7C5
100
AcDbEntity
  8
Defpoints
 62
     0
100
AcDbPoint
 10
438.9723945150908
 20
164.8865737924188
 30
0.0
  0
POINT
  5
1946
330
7C5
100
AcDbEntity
  8
Defpoints
 62
     0
100
AcDbPoint
 10
511.0734219218802
 20
164.8865737924188
 30
0.0
  0
ENDBLK
  5
7D0
330
7C5
100
AcDbEntity
  8
0
100
AcDbBlockEnd
  0
BLOCK
  5
7F7
330
7ED
100
AcDbEntity
  8
0
100
AcDbBlockBegin
  2
*D7
 70
     1
 10
0.0
 20
0.0
 30
0.0
  3
*D7
  1

  0
LINE
  5
1947
330
7ED
100
AcDbEntity
  8
AM_5
100
AcDbLine
 10
410.4723945150908
 20
204.8865737924189
 30
0.0
 11
529.0734219218803
 21
204.8865737924188
 31
0.0
  0
LINE
  5
1948
330
7ED
100
AcDbEntity
  8
AM_5
100
AcDbLine
 10
410.4723945150908
 20
149.8865737924188
 30
0.0
 11
529.0734219218803
 21
149.8865737924188
 31
0.0
  0
LINE
  5
1949
330
7ED
100
AcDbEntity
  8
AM_5
100
AcDbLine
 10
527.0734219218804
 20
197.8865737924188
 30
0.0
 11
527.0734219218804
 21
156.8865737924188
 31
0.0
  0
SOLID
  5
194A
330
7ED
100
AcDbEntity
  8
AM_5
100
AcDbTrace
 10
525.9067552552137
 20
197.8865737924188
 30
0.0
 11
528.2400885885469
 21
197.8865737924188
 31
0.0
 12
527.0734219218804
 22
204.8865737924188
 32
0.0
 13
527.0734219218804
 23
204.8865737924188
 33
0.0
  0
SOLID
  5
194B
330
7ED
100
AcDbEntity
  8
AM_5
100
AcDbTrace
 10
525.9067552552137
 20
156.8865737924188
 30
0.0
 11
528.2400885885469
 21
156.8865737924188
 31
0.0
 12
527.0734219218804
 22
149.8865737924188
 32
0.0
 13
527.0734219218804
 23
149.8865737924188
 33
0.0
  0
MTEXT
  5
194C
330
7ED
100
AcDbEntity
  8
AM_5
100
AcDbMText
 10
521.5734219218803
 20
177.3865737924189
 30
0.0
 40
7.0
 41
0.0
 71
     5
 72
     1
  1
%%c55
 11
0.0000000000000001
 21
1.0
 31
0.0
 73
     1
 44
1.0
1001
ACAD
1000
MTEXTBEGIN
1070
    73
1070
     1
1070
    44
1040
1.0
1070
    74
1070
     0
1000
MTEXTEND
  0
POINT
  5
194D
330
7ED
100
AcDbEntity
  8
Defpoints
 62
     0
100
AcDbPoint
 10
408.4723945150908
 20
204.8865737924189
 30
0.0
  0
POINT
  5
194E
330
7ED
100
AcDbEntity
  8
Defpoints
 62
     0
100
AcDbPoint
 10
408.4723945150908
 20
149.8865737924188
 30
0.0
  0
POINT
  5
194F
330
7ED
100
AcDbEntity
  8
Defpoints
 62
     0
100
AcDbPoint
 10
527.0734219218804
 20
149.8865737924188
 30
0.0
  0
ENDBLK
  5
7F8
330
7ED
100
AcDbEntity
  8
0
100
AcDbBlockEnd
  0
BLOCK
  5
82C
330
82A
100
AcDbEntity
  8
0
100
AcDbBlockBegin
  2
A$C453B67D5
 70
     0
 10
0.0
 20
0.0
 30
0.0
  3
A$C453B67D5
  1

  0
TEXT
  5
82D
330
82A
100
AcDbEntity
  8
0
 62
     4
100
AcDbText
 10
0.0000000042221018
 20
15.6750728935973
 30
0.0
 40
3.0
  1
0
 41
0.75
  7
CHINESET
100
AcDbText
  0
LINE
  5
82E
330
82A
100
AcDbEntity
  8
0
 62
     4
100
AcDbLine
 10
0.7831209408720952
 20
-0.0000001285146709
 30
0.0
 11
0.7831209408720952
 21
12.50658996549839
 31
0.0
  0
TEXT
  5
82F
330
82A
100
AcDbEntity
  8
0
 62
     4
100
AcDbText
 10
5.354910616106053
 20
16.42400857412451
 30
0.0
 40
3.0
  1
Stroke
 41
0.75
  7
CHINESET
100
AcDbText
  0
ENDBLK
  5
830
330
82A
100
AcDbEntity
  8
0
100
AcDbBlockEnd
  0
BLOCK
  5
833
330
831
100
AcDbEntity
  8
0
100
AcDbBlockBegin
  2
A$C17481420
 70
     0
 10
0.0
 20
0.0
 30
0.0
  3
A$C17481420
  1

  0
LINE
  5
834
330
831
100
AcDbEntity
  8
SL
100
AcDbLine
 10
14.92688374510175
 20
0.6911761177026392
 30
0.0
 11
5.249999590827769
 21
0.6911761177026392
 31
0.0
  0
TRACE
  5
835
330
831
100
AcDbEntity
  8
SL
370
    35
100
AcDbTrace
 10
5.249999590827769
 20
1.382351726952606
 30
0.0
 11
5.249999590827769
 21
0.000000508452672
 31
0.0
 12
-0.0000004091722303
 22
0.6911761177026392
 32
0.0
 13
-0.0000004091722303
 23
0.6911761177026392
 33
0.0
  0
MTEXT
  5
836
330
831
100
AcDbEntity
  8
SL
100
AcDbMText
 10
7.091092156233571
 20
2.131627989433411
 30
0.0
 40
3.674999999999999
 41
0.0
 71
     7
 72
     5
  1
SL
  7
ACISOTS
 73
     1
 44
1.0
1001
ACAD
1000
MTEXTBEGIN
1070
    73
1070
     1
1070
    44
1040
1.0
1070
    74
1070
     0
1000
MTEXTEND
  0
ENDBLK
  5
837
330
831
100
AcDbEntity
  8
0
100
AcDbBlockEnd
  0
BLOCK
  5
859
330
84F
100
AcDbEntity
  8
0
100
AcDbBlockBegin
  2
*D10
 70
     1
 10
0.0
 20
0.0
 30
0.0
  3
*D10
  1

  0
LINE
  5
1950
330
84F
100
AcDbEntity
  8
AM_5
100
AcDbLine
 10
146.9723945150908
 20
204.8865737924189
 30
0.0
 11
124.285323505341
 21
204.8865737924189
 31
0.0
  0
LINE
  5
1951
330
84F
100
AcDbEntity
  8
AM_5
100
AcDbLine
 10
146.9723945150908
 20
149.8865737924188
 30
0.0
 11
124.285323505341
 21
149.8865737924188
 31
0.0
  0
LINE
  5
1952
330
84F
100
AcDbEntity
  8
AM_5
100
AcDbLine
 10
126.285323505341
 20
197.8865737924188
 30
0.0
 11
126.285323505341
 21
156.8865737924188
 31
0.0
  0
SOLID
  5
1953
330
84F
100
AcDbEntity
  8
AM_5
100
AcDbTrace
 10
125.1186568386743
 20
197.8865737924188
 30
0.0
 11
127.4519901720077
 21
197.8865737924188
 31
0.0
 12
126.285323505341
 22
204.8865737924189
 32
0.0
 13
126.285323505341
 23
204.8865737924189
 33
0.0
  0
SOLID
  5
1954
330
84F
100
AcDbEntity
  8
AM_5
100
AcDbTrace
 10
125.1186568386743
 20
156.8865737924188
 30
0.0
 11
127.4519901720077
 21
156.8865737924188
 31
0.0
 12
126.285323505341
 22
149.8865737924188
 32
0.0
 13
126.285323505341
 23
149.8865737924188
 33
0.0
  0
MTEXT
  5
1955
330
84F
100
AcDbEntity
  8
AM_5
100
AcDbMText
 10
120.785323505341
 20
177.3865737924189
 30
0.0
 40
7.0
 41
0.0
 71
     5
 72
     1
  1
%%c55
 11
0.0000000000000001
 21
1.0
 31
0.0
 73
     1
 44
1.0
1001
ACAD
1000
MTEXTBEGIN
1070
    73
1070
     1
1070
    44
1040
1.0
1070
    74
1070
     0
1000
MTEXTEND
  0
POINT
  5
1956
330
84F
100
AcDbEntity
  8
Defpoints
 62
     0
100
AcDbPoint
 10
148.9723945150908
 20
204.8865737924189
 30
0.0
  0
POINT
  5
1957
330
84F
100
AcDbEntity
  8
Defpoints
 62
     0
100
AcDbPoint
 10
148.9723945150908
 20
149.8865737924188
 30
0.0
  0
POINT
  5
1958
330
84F
100
AcDbEntity
  8
Defpoints
 62
     0
100
AcDbPoint
 10
126.285323505341
 20
149.8865737924188
 30
0.0
  0
ENDBLK
  5
85A
330
84F
100
AcDbEntity
  8
0
100
AcDbBlockEnd
  0
BLOCK
  5
14E7
330
14DD
100
AcDbEntity
  8
0
100
AcDbBlockBegin
  2
*D12
 70
     1
 10
0.0
 20
0.0
 30
0.0
  3
*D12
  1

  0
LINE
  5
1959
330
14DD
100
AcDbEntity
  8
AM_5
100
AcDbLine
 10
289.9723945150908
 20
117.8865737924188
 30
0.0
 11
289.9723945150908
 21
82.81854656115157
 31
0.0
  0
LINE
  5
195A
330
14DD
100
AcDbEntity
  8
AM_5
100
AcDbLine
 10
399.9723945150908
 20
118.3865737924188
 30
0.0
 11
399.9723945150908
 21
82.81854656115157
 31
0.0
  0
LINE
  5
195B
330
14DD
100
AcDbEntity
  8
AM_5
100
AcDbLine
 10
296.9723945150909
 20
84.81854656115158
 30
0.0
 11
392.9723945150907
 21
84.81854656115158
 31
0.0
  0
SOLID
  5
195C
330
14DD
100
AcDbEntity
  8
AM_5
100
AcDbTrace
 10
296.9723945150909
 20
85.98521322781826
 30
0.0
 11
296.9723945150909
 21
83.65187989448491
 31
0.0
 12
289.9723945150908
 22
84.81854656115158
 32
0.0
 13
289.9723945150908
 23
84.81854656115158
 33
0.0
  0
SOLID
  5
195D
330
14DD
100
AcDbEntity
  8
AM_5
100
AcDbTrace
 10
392.9723945150907
 20
85.98521322781826
 30
0.0
 11
392.9723945150907
 21
83.65187989448491
 31
0.0
 12
399.9723945150908
 22
84.81854656115158
 32
0.0
 13
399.9723945150908
 23
84.81854656115158
 33
0.0
  0
MTEXT
  5
195E
330
14DD
100
AcDbEntity
  8
AM_5
100
AcDbMText
 10
344.9723945150908
 20
90.31854656115157
 30
0.0
 40
7.0
 41
0.0
 71
     5
 72
     1
  1
110
 73
     1
 44
1.0
1001
ACAD
1000
MTEXTBEGIN
1070
    73
1070
     1
1070
    44
1040
1.0
1070
    74
1070
     0
1000
MTEXTEND
  0
POINT
  5
195F
330
14DD
100
AcDbEntity
  8
Defpoints
 62
     0
100
AcDbPoint
 10
289.9723945150908
 20
119.8865737924188
 30
0.0
  0
POINT
  5
1960
330
14DD
100
AcDbEntity
  8
Defpoints
 62
     0
100
AcDbPoint
 10
399.9723945150908
 20
120.3865737924188
 30
0.0
  0
POINT
  5
1961
330
14DD
100
AcDbEntity
  8
Defpoints
 62
     0
100
AcDbPoint
 10
399.9723945150908
 20
84.81854656115158
 30
0.0
  0
ENDBLK
  5
14E8
330
14DD
100
AcDbEntity
  8
0
100
AcDbBlockEnd
  0
BLOCK
  5
1506
330
14FC
100
AcDbEntity
  8
0
100
AcDbBlockBegin
  2
*D13
 70
     1
 10
0.0
 20
0.0
 30
0.0
  3
*D13
  1

  0
LINE
  5
1962
330
14FC
100
AcDbEntity
  8
AM_5
100
AcDbLine
 10
399.9723945150908
 20
118.3865737924188
 30
0.0
 11
399.9723945150908
 21
82.81854656115175
 31
0.0
  0
LINE
  5
1963
330
14FC
100
AcDbEntity
  8
AM_5
100
AcDbLine
 10
450.9732134185511
 20
164.8865737924188
 30
0.0
 11
450.9732134185511
 21
82.81854656115175
 31
0.0
  0
LINE
  5
1964
330
14FC
100
AcDbEntity
  8
AM_5
100
AcDbLine
 10
406.9723945150907
 20
84.81854656115174
 30
0.0
 11
443.9732134185511
 21
84.81854656115174
 31
0.0
  0
SOLID
  5
1965
330
14FC
100
AcDbEntity
  8
AM_5
100
AcDbTrace
 10
406.9723945150907
 20
85.98521322781842
 30
0.0
 11
406.9723945150907
 21
83.65187989448507
 31
0.0
 12
399.9723945150908
 22
84.81854656115174
 32
0.0
 13
399.9723945150908
 23
84.81854656115174
 33
0.0
  0
SOLID
  5
1966
330
14FC
100
AcDbEntity
  8
AM_5
100
AcDbTrace
 10
443.9732134185511
 20
85.98521322781842
 30
0.0
 11
443.9732134185511
 21
83.65187989448507
 31
0.0
 12
450.9732134185511
 22
84.81854656115174
 32
0.0
 13
450.9732134185511
 23
84.81854656115174
 33
0.0
  0
MTEXT
  5
1967
330
14FC
100
AcDbEntity
  8
AM_5
100
AcDbMText
 10
425.4728039668209
 20
90.31854656115175
 30
0.0
 40
7.0
 41
0.0
 71
     5
 72
     1
  1
51
 73
     1
 44
1.0
1001
ACAD
1000
MTEXTBEGIN
1070
    73
1070
     1
1070
    44
1040
1.0
1070
    74
1070
     0
1000
MTEXTEND
  0
POINT
  5
1968
330
14FC
100
AcDbEntity
  8
Defpoints
 62
     0
100
AcDbPoint
 10
399.9723945150908
 20
120.3865737924188
 30
0.0
  0
POINT
  5
1969
330
14FC
100
AcDbEntity
  8
Defpoints
 62
     0
100
AcDbPoint
 10
450.9732134185511
 20
166.8865737924188
 30
0.0
  0
POINT
  5
196A
330
14FC
100
AcDbEntity
  8
Defpoints
 62
     0
100
AcDbPoint
 10
450.9732134185511
 20
84.81854656115174
 30
0.0
  0
ENDBLK
  5
1507
330
14FC
100
AcDbEntity
  8
0
100
AcDbBlockEnd
  0
BLOCK
  5
1596
330
1594
100
AcDbEntity
  8
0
100
AcDbBlockBegin
  2
A$C6896536C
 70
     0
 10
0.0
 20
0.0
 30
0.0
  3
A$C6896536C
  1

  0
LEADER
  5
1597
330
1594
100
AcDbEntity
  8
1
100
AcDbLeader
  3
AM_ISO$7
 76
     2
 10
0.0000000000009095
 20
1.166665247989385
 30
0.0
 10
14.8373054244048
 20
1.166665247989385
 30
0.0
1001
ACAD
1000
DSTYLE
1002
{
1070
    41
1040
3.5
1070
   147
1040
1.5
1070
    77
1070
     1
1070
    40
1040
2.0
1002
}
  0
MTEXT
  5
1598
330
1594
100
AcDbEntity
  8
1
100
AcDbMText
 10
5.488395901823423
 20
8.243041517246183
 30
0.0
 40
4.5
 41
10.70304085292628
 71
     1
 72
     5
  1
SL
  7
CHINESET
 73
     1
 44
1.0
1001
ACAD
1000
MTEXTBEGIN
1070
    73
1070
     1
1070
    44
1040
1.0
1070
    74
1070
     0
1000
MTEXTEND
  0
ENDBLK
  5
1599
330
1594
100
AcDbEntity
  8
0
100
AcDbBlockEnd
  0
BLOCK
  5
16B4
330
16AA
100
AcDbEntity
  8
0
100
AcDbBlockBegin
  2
*D15
 70
     1
 10
0.0
 20
0.0
 30
0.0
  3
*D15
  1

  0
LINE
  5
196B
330
16AA
100
AcDbEntity
  8
AM_5
 62
     5
100
AcDbLine
 10
156.9723945150908
 20
164.3865737924189
 30
0.0
 11
134.9723935150906
 21
164.3865737924189
 31
0.0
  0
LINE
  5
196C
330
16AA
100
AcDbEntity
  8
AM_5
 62
     5
100
AcDbLine
 10
144.0753816514011
 20
177.3865737924189
 30
0.0
 11
134.9723935150906
 21
177.3865737924189
 31
0.0
  0
LINE
  5
196D
330
16AA
100
AcDbEntity
  8
AM_5
 62
     5
100
AcDbLine
 10
135.9723935150906
 20
167.8865737924189
 30
0.0
 11
135.9723935150906
 21
173.8865737924189
 31
0.0
  0
SOLID
  5
196E
330
16AA
100
AcDbEntity
  8
AM_5
 62
     5
100
AcDbTrace
 10
135.3890601817572
 20
167.8865737924189
 30
0.0
 11
136.5557268484239
 21
167.8865737924189
 31
0.0
 12
135.9723935150906
 22
164.3865737924189
 32
0.0
 13
135.9723935150906
 23
164.3865737924189
 33
0.0
  0
SOLID
  5
196F
330
16AA
100
AcDbEntity
  8
AM_5
 62
     5
100
AcDbTrace
 10
135.3890601817572
 20
173.8865737924189
 30
0.0
 11
136.5557268484239
 21
173.8865737924189
 31
0.0
 12
135.9723935150906
 22
177.3865737924189
 32
0.0
 13
135.9723935150906
 23
177.3865737924189
 33
0.0
  0
MTEXT
  5
1970
330
16AA
100
AcDbEntity
  8
AM_5
 62
     5
100
AcDbMText
 10
131.4723935150905
 20
170.8865737924189
 30
0.0
 40
7.0
 41
0.0
 71
     5
 72
     1
  1
13
 11
0.0000000000000001
 21
1.0
 31
0.0
 73
     1
 44
1.0
1001
ACAD
1000
MTEXTBEGIN
1070
    73
1070
     1
1070
    44
1040
1.0
1070
    74
1070
     0
1000
MTEXTEND
  0
POINT
  5
1971
330
16AA
100
AcDbEntity
  8
Defpoints
 62
     0
100
AcDbPoint
 10
157.9723945150908
 20
164.3865737924189
 30
0.0
  0
POINT
  5
1972
330
16AA
100
AcDbEntity
  8
Defpoints
 62
     0
100
AcDbPoint
 10
145.0753816514011
 20
177.3865737924189
 30
0.0
  0
POINT
  5
1973
330
16AA
100
AcDbEntity
  8
Defpoints
 62
     0
100
AcDbPoint
 10
135.9723935150906
 20
177.3865737924189
 30
0.0
  0
ENDBLK
  5
16B5
330
16AA
100
AcDbEntity
  8
0
100
AcDbBlockEnd
  0
BLOCK
  5
16D3
330
16C9
100
AcDbEntity
  8
0
100
AcDbBlockBegin
  2
*D16
 70
     1
 10
0.0
 20
0.0
 30
0.0
  3
*D16
  1

  0
LINE
  5
1974
330
16C9
100
AcDbEntity
  8
AM_5
 62
     5
100
AcDbLine
 10
170.9723945150908
 20
178.3865737924189
 30
0.0
 11
170.9723945150908
 21
247.8865737924189
 31
0.0
  0
LINE
  5
1975
330
16C9
100
AcDbEntity
  8
AM_5
 62
     5
100
AcDbLine
 10
151.9723945150908
 20
235.8865737924189
 30
0.0
 11
151.9723945150908
 21
247.8865737924189
 31
0.0
  0
LINE
  5
1976
330
16C9
100
AcDbEntity
  8
AM_5
 62
     5
100
AcDbLine
 10
167.4723945150908
 20
246.8865737924189
 30
0.0
 11
155.4723945150908
 21
246.8865737924189
 31
0.0
  0
SOLID
  5
1977
330
16C9
100
AcDbEntity
  8
AM_5
 62
     5
100
AcDbTrace
 10
167.4723945150908
 20
247.4699071257522
 30
0.0
 11
167.4723945150908
 21
246.3032404590856
 31
0.0
 12
170.9723945150908
 22
246.8865737924189
 32
0.0
 13
170.9723945150908
 23
246.8865737924189
 33
0.0
  0
SOLID
  5
1978
330
16C9
100
AcDbEntity
  8
AM_5
 62
     5
100
AcDbTrace
 10
155.4723945150908
 20
247.4699071257522
 30
0.0
 11
155.4723945150908
 21
246.3032404590856
 31
0.0
 12
151.9723945150908
 22
246.8865737924189
 32
0.0
 13
151.9723945150908
 23
246.8865737924189
 33
0.0
  0
MTEXT
  5
1979
330
16C9
100
AcDbEntity
  8
AM_5
 62
     5
100
AcDbMText
 10
161.4723945150908
 20
251.3865737924189
 30
0.0
 40
7.0
 41
0.0
 71
     5
 72
     1
  1
19
 73
     1
 44
1.0
1001
ACAD
1000
MTEXTBEGIN
1070
    73
1070
     1
1070
    44
1040
1.0
1070
    74
1070
     0
1000
MTEXTEND
  0
POINT
  5
197A
330
16C9
100
AcDbEntity
  8
Defpoints
 62
     0
100
AcDbPoint
 10
170.9723945150908
 20
177.3865737924189
 30
0.0
  0
POINT
  5
197B
330
16C9
100
AcDbEntity
  8
Defpoints
 62
     0
100
AcDbPoint
 10
151.9723945150908
 20
234.8865737924189
 30
0.0
  0
POINT
  5
197C
330
16C9
100
AcDbEntity
  8
Defpoints
 62
     0
100
AcDbPoint
 10
151.9723945150908
 20
246.8865737924189
 30
0.0
  0
ENDBLK
  5
16D4
330
16C9
100
AcDbEntity
  8
0
100
AcDbBlockEnd
  0
BLOCK
  5
16F2
330
16E8
100
AcDbEntity
  8
0
100
AcDbBlockBegin
  2
*D17
 70
     1
 10
0.0
 20
0.0
 30
0.0
  3
*D17
  1

  0
LINE
  5
197D
330
16E8
100
AcDbEntity
  8
AM_5
 62
     5
100
AcDbLine
 10
151.9723945150908
 20
235.8865737924189
 30
0.0
 11
151.9723945150908
 21
264.6519246976995
 31
0.0
  0
LINE
  5
197E
330
16E8
100
AcDbEntity
  8
AM_5
 62
     5
100
AcDbLine
 10
188.9723945150908
 20
235.8865737924189
 30
0.0
 11
188.9723945150908
 21
264.6519246976995
 31
0.0
  0
LINE
  5
197F
330
16E8
100
AcDbEntity
  8
AM_5
 62
     5
100
AcDbLine
 10
155.4723945150908
 20
263.6519246976996
 30
0.0
 11
185.4723945150908
 21
263.6519246976996
 31
0.0
  0
SOLID
  5
1980
330
16E8
100
AcDbEntity
  8
AM_5
 62
     5
100
AcDbTrace
 10
155.4723945150908
 20
264.2352580310328
 30
0.0
 11
155.4723945150908
 21
263.0685913643662
 31
0.0
 12
151.9723945150908
 22
263.6519246976996
 32
0.0
 13
151.9723945150908
 23
263.6519246976996
 33
0.0
  0
SOLID
  5
1981
330
16E8
100
AcDbEntity
  8
AM_5
 62
     5
100
AcDbTrace
 10
185.4723945150908
 20
264.2352580310328
 30
0.0
 11
185.4723945150908
 21
263.0685913643662
 31
0.0
 12
188.9723945150908
 22
263.6519246976996
 32
0.0
 13
188.9723945150908
 23
263.6519246976996
 33
0.0
  0
MTEXT
  5
1982
330
16E8
100
AcDbEntity
  8
AM_5
 62
     5
100
AcDbMText
 10
170.4723945150908
 20
268.1519246976995
 30
0.0
 40
7.0
 41
0.0
 71
     5
 72
     1
  1
37
 73
     1
 44
1.0
1001
ACAD
1000
MTEXTBEGIN
1070
    73
1070
     1
1070
    44
1040
1.0
1070
    74
1070
     0
1000
MTEXTEND
  0
POINT
  5
1983
330
16E8
100
AcDbEntity
  8
Defpoints
 62
     0
100
AcDbPoint
 10
151.9723945150908
 20
234.8865737924189
 30
0.0
  0
POINT
  5
1984
330
16E8
100
AcDbEntity
  8
Defpoints
 62
     0
100
AcDbPoint
 10
188.9723945150908
 20
234.8865737924189
 30
0.0
  0
POINT
  5
1985
330
16E8
100
AcDbEntity
  8
Defpoints
 62
     0
100
AcDbPoint
 10
188.9723945150908
 20
263.6519246976996
 30
0.0
  0
ENDBLK
  5
16F3
330
16E8
100
AcDbEntity
  8
0
100
AcDbBlockEnd
  0
BLOCK
  5
1711
330
1707
100
AcDbEntity
  8
0
100
AcDbBlockBegin
  2
*D18
 70
     1
 10
0.0
 20
0.0
 30
0.0
  3
*D18
  1

  0
LINE
  5
1986
330
1707
100
AcDbEntity
  8
AM_5
 62
     5
100
AcDbLine
 10
270.9723945150908
 20
178.3865737924189
 30
0.0
 11
270.9723945150908
 21
247.8865737924187
 31
0.0
  0
LINE
  5
1987
330
1707
100
AcDbEntity
  8
AM_5
 62
     5
100
AcDbLine
 10
289.9723945150908
 20
235.8865737924189
 30
0.0
 11
289.9723945150908
 21
247.8865737924187
 31
0.0
  0
LINE
  5
1988
330
1707
100
AcDbEntity
  8
AM_5
 62
     5
100
AcDbLine
 10
274.4723945150909
 20
246.8865737924188
 30
0.0
 11
286.4723945150909
 21
246.8865737924188
 31
0.0
  0
SOLID
  5
1989
330
1707
100
AcDbEntity
  8
AM_5
 62
     5
100
AcDbTrace
 10
274.4723945150909
 20
247.4699071257521
 30
0.0
 11
274.4723945150909
 21
246.3032404590854
 31
0.0
 12
270.9723945150908
 22
246.8865737924188
 32
0.0
 13
270.9723945150908
 23
246.8865737924188
 33
0.0
  0
SOLID
  5
198A
330
1707
100
AcDbEntity
  8
AM_5
 62
     5
100
AcDbTrace
 10
286.4723945150909
 20
247.4699071257521
 30
0.0
 11
286.4723945150909
 21
246.3032404590854
 31
0.0
 12
289.9723945150908
 22
246.8865737924188
 32
0.0
 13
289.9723945150908
 23
246.8865737924188
 33
0.0
  0
MTEXT
  5
198B
330
1707
100
AcDbEntity
  8
AM_5
 62
     5
100
AcDbMText
 10
280.4723945150909
 20
251.3865737924187
 30
0.0
 40
7.0
 41
0.0
 71
     5
 72
     1
  1
19
 73
     1
 44
1.0
1001
ACAD
1000
MTEXTBEGIN
1070
    73
1070
     1
1070
    44
1040
1.0
1070
    74
1070
     0
1000
MTEXTEND
  0
POINT
  5
198C
330
1707
100
AcDbEntity
  8
Defpoints
 62
     0
100
AcDbPoint
 10
270.9723945150908
 20
177.3865737924189
 30
0.0
  0
POINT
  5
198D
330
1707
100
AcDbEntity
  8
Defpoints
 62
     0
100
AcDbPoint
 10
289.9723945150908
 20
234.8865737924189
 30
0.0
  0
POINT
  5
198E
330
1707
100
AcDbEntity
  8
Defpoints
 62
     0
100
AcDbPoint
 10
289.9723945150908
 20
246.8865737924188
 30
0.0
  0
ENDBLK
  5
1712
330
1707
100
AcDbEntity
  8
0
100
AcDbBlockEnd
  0
BLOCK
  5
1730
330
1726
100
AcDbEntity
  8
0
100
AcDbBlockBegin
  2
*D19
 70
     1
 10
0.0
 20
0.0
 30
0.0
  3
*D19
  1

  0
LINE
  5
198F
330
1726
100
AcDbEntity
  8
AM_5
 62
     5
100
AcDbLine
 10
252.9723945150909
 20
235.8865737924189
 30
0.0
 11
252.9723945150909
 21
264.6519246976994
 31
0.0
  0
LINE
  5
1990
330
1726
100
AcDbEntity
  8
AM_5
 62
     5
100
AcDbLine
 10
289.9723945150908
 20
235.3865737924189
 30
0.0
 11
289.9723945150908
 21
264.6519246976994
 31
0.0
  0
LINE
  5
1991
330
1726
100
AcDbEntity
  8
AM_5
 62
     5
100
AcDbLine
 10
256.4723945150908
 20
263.6519246976994
 30
0.0
 11
286.4723945150909
 21
263.6519246976994
 31
0.0
  0
SOLID
  5
1992
330
1726
100
AcDbEntity
  8
AM_5
 62
     5
100
AcDbTrace
 10
256.4723945150908
 20
264.2352580310328
 30
0.0
 11
256.4723945150908
 21
263.0685913643661
 31
0.0
 12
252.9723945150909
 22
263.6519246976994
 32
0.0
 13
252.9723945150909
 23
263.6519246976994
 33
0.0
  0
SOLID
  5
1993
330
1726
100
AcDbEntity
  8
AM_5
 62
     5
100
AcDbTrace
 10
286.4723945150909
 20
264.2352580310328
 30
0.0
 11
286.4723945150909
 21
263.0685913643661
 31
0.0
 12
289.9723945150908
 22
263.6519246976994
 32
0.0
 13
289.9723945150908
 23
263.6519246976994
 33
0.0
  0
MTEXT
  5
1994
330
1726
100
AcDbEntity
  8
AM_5
 62
     5
100
AcDbMText
 10
271.4723945150908
 20
268.1519246976994
 30
0.0
 40
7.0
 41
0.0
 71
     5
 72
     1
  1
37
 73
     1
 44
1.0
1001
ACAD
1000
MTEXTBEGIN
1070
    73
1070
     1
1070
    44
1040
1.0
1070
    74
1070
     0
1000
MTEXTEND
  0
POINT
  5
1995
330
1726
100
AcDbEntity
  8
Defpoints
 62
     0
100
AcDbPoint
 10
252.9723945150909
 20
234.8865737924189
 30
0.0
  0
POINT
  5
1996
330
1726
100
AcDbEntity
  8
Defpoints
 62
     0
100
AcDbPoint
 10
289.9723945150908
 20
234.3865737924188
 30
0.0
  0
POINT
  5
1997
330
1726
100
AcDbEntity
  8
Defpoints
 62
     0
100
AcDbPoint
 10
289.9723945150908
 20
263.6519246976994
 30
0.0
  0
ENDBLK
  5
1731
330
1726
100
AcDbEntity
  8
0
100
AcDbBlockEnd
  0
BLOCK
  5
1822
330
1818
100
AcDbEntity
  8
0
100
AcDbBlockBegin
  2
*D20
 70
     1
 10
0.0
 20
0.0
 30
0.0
  3
*D20
  1

  0
LINE
  5
1998
330
1818
100
AcDbEntity
  8
AM_5
100
AcDbLine
 10
680.6108688371689
 20
125.1179377256098
 30
0.0
 11
680.6108688371689
 21
90.61019501755556
 31
0.0
  0
LINE
  5
1999
330
1818
100
AcDbEntity
  8
AM_5
100
AcDbLine
 10
591.6108688371689
 20
125.1179377256098
 30
0.0
 11
591.6108688371689
 21
90.61019501755556
 31
0.0
  0
LINE
  5
199A
330
1818
100
AcDbEntity
  8
AM_5
100
AcDbLine
 10
673.6108688371689
 20
92.61019501755555
 30
0.0
 11
598.6108688371689
 21
92.61019501755555
 31
0.0
  0
SOLID
  5
199B
330
1818
100
AcDbEntity
  8
AM_5
100
AcDbTrace
 10
673.6108688371689
 20
93.77686168422222
 30
0.0
 11
673.6108688371689
 21
91.44352835088888
 31
0.0
 12
680.6108688371689
 22
92.61019501755555
 32
0.0
 13
680.6108688371689
 23
92.61019501755555
 33
0.0
  0
SOLID
  5
199C
330
1818
100
AcDbEntity
  8
AM_5
100
AcDbTrace
 10
598.6108688371689
 20
93.77686168422222
 30
0.0
 11
598.6108688371689
 21
91.44352835088888
 31
0.0
 12
591.6108688371689
 22
92.61019501755555
 32
0.0
 13
591.6108688371689
 23
92.61019501755555
 33
0.0
  0
MTEXT
  5
199D
330
1818
100
AcDbEntity
  8
AM_5
100
AcDbMText
 10
636.1108688371689
 20
98.11019501755556
 30
0.0
 40
7.0
 41
0.0
 71
     5
 72
     1
  1
{\Famgdt|c136;o}89
 73
     1
 44
1.0
1001
ACAD
1000
MTEXTBEGIN
1070
    73
1070
     1
1070
    44
1040
1.0
1070
    74
1070
     0
1000
MTEXTEND
  0
POINT
  5
199E
330
1818
100
AcDbEntity
  8
Defpoints
 62
     0
100
AcDbPoint
 10
680.6108688371689
 20
127.1179377256098
 30
0.0
  0
POINT
  5
199F
330
1818
100
AcDbEntity
  8
Defpoints
 62
     0
100
AcDbPoint
 10
591.6108688371689
 20
127.1179377256098
 30
0.0
  0
POINT
  5
19A0
330
1818
100
AcDbEntity
  8
Defpoints
 62
     0
100
AcDbPoint
 10
591.6108688371689
 20
92.61019501755555
 30
0.0
  0
ENDBLK
  5
1823
330
1818
100
AcDbEntity
  8
0
100
AcDbBlockEnd
  0
BLOCK
  5
182E
330
1824
100
AcDbEntity
  8
0
100
AcDbBlockBegin
  2
*D21
 70
     1
 10
0.0
 20
0.0
 30
0.0
  3
*D21
  1

  0
LINE
  5
19A1
330
1824
100
AcDbEntity
  8
AM_5
100
AcDbLine
 10
693.1108688371701
 20
128.1954729364327
 30
0.0
 11
693.1108688371701
 21
61.10986669885679
 31
0.0
  0
LINE
  5
19A2
330
1824
100
AcDbEntity
  8
AM_5
100
AcDbLine
 10
579.1108688371675
 20
128.1954729364328
 30
0.0
 11
579.1108688371675
 21
61.10986669885679
 31
0.0
  0
LINE
  5
19A3
330
1824
100
AcDbEntity
  8
AM_5
100
AcDbLine
 10
686.1108688371701
 20
63.10986669885679
 30
0.0
 11
586.1108688371675
 21
63.10986669885679
 31
0.0
  0
SOLID
  5
19A4
330
1824
100
AcDbEntity
  8
AM_5
100
AcDbTrace
 10
686.1108688371701
 20
64.27653336552346
 30
0.0
 11
686.1108688371701
 21
61.94320003219012
 31
0.0
 12
693.1108688371701
 22
63.10986669885679
 32
0.0
 13
693.1108688371701
 23
63.10986669885679
 33
0.0
  0
SOLID
  5
19A5
330
1824
100
AcDbEntity
  8
AM_5
100
AcDbTrace
 10
586.1108688371675
 20
64.27653336552346
 30
0.0
 11
586.1108688371675
 21
61.94320003219012
 31
0.0
 12
579.1108688371675
 22
63.10986669885679
 32
0.0
 13
579.1108688371675
 23
63.10986669885679
 33
0.0
  0
MTEXT
  5
19A6
330
1824
100
AcDbEntity
  8
AM_5
100
AcDbMText
 10
636.1108688371689
 20
68.60986669885679
 30
0.0
 40
7.0
 41
0.0
 71
     5
 72
     1
  1
{\Famgdt|c136;o}114
 73
     1
 44
1.0
1001
ACAD
1000
MTEXTBEGIN
1070
    73
1070
     1
1070
    44
1040
1.0
1070
    74
1070
     0
1000
MTEXTEND
  0
POINT
  5
19A7
330
1824
100
AcDbEntity
  8
Defpoints
 62
     0
100
AcDbPoint
 10
693.1108688371701
 20
130.1954729364327
 30
0.0
  0
POINT
  5
19A8
330
1824
100
AcDbEntity
  8
Defpoints
 62
     0
100
AcDbPoint
 10
579.1108688371675
 20
130.1954729364328
 30
0.0
  0
POINT
  5
19A9
330
1824
100
AcDbEntity
  8
Defpoints
 62
     0
100
AcDbPoint
 10
579.1108688371675
 20
63.10986669885679
 30
0.0
  0
ENDBLK
  5
182F
330
1824
100
AcDbEntity
  8
0
100
AcDbBlockEnd
  0
ENDSEC
  0
SECTION
  2
ENTITIES
  0
LINE
  5
36
330
D
100
AcDbEntity
 67
     1
  8
AM_7
100
AcDbLine
 10
145.0753816514011
 20
177.3865737924188
 30
0.0
 11
467.4723945150908
 21
177.3865737924188
 31
0.0
  0
LINE
  5
56
330
D
100
AcDbEntity
 67
     1
  8
AM_7
100
AcDbLine
 10
139.4431708713514
 20
397.0599477202601
 30
0.0
 11
467.4723945150908
 21
397.0599477202602
 31
0.0
  0
LINE
  5
85
330
D
100
AcDbEntity
 67
     1
  8
AM_VIS
100
AcDbLine
 10
438.9723945150908
 20
189.8865737924188
 30
0.0
 11
440.9723945150908
 21
187.8865737924188
 31
0.0
  0
LINE
  5
86
330
D
100
AcDbEntity
 67
     1
  8
AM_VIS
100
AcDbLine
 10
440.9723945150908
 20
187.8865737924188
 30
0.0
 11
450.9732134185512
 21
187.8865737924188
 31
0.0
  0
LINE
  5
88
330
D
100
AcDbEntity
 67
     1
  8
AM_VIS
100
AcDbLine
 10
440.9723945150908
 20
166.8865737924188
 30
0.0
 11
450.9732134185511
 21
166.8865737924188
 31
0.0
  0
ARC
  5
89
330
D
100
AcDbEntity
 67
     1
  8
AM_VIS
100
AcDbCircle
 10
451.4723945150907
 20
177.3865737924188
 30
0.0
 40
12.5
100
AcDbArc
 50
147.1401196211107
 51
212.8598803788894
  0
LINE
  5
8A
330
D
100
AcDbEntity
 67
     1
  8
AM_VIS
100
AcDbLine
 10
440.9723945150908
 20
166.8865737924188
 30
0.0
 11
438.9723945150908
 21
164.8865737924188
 31
0.0
  0
SPLINE
  5
8B
330
D
100
AcDbEntity
 67
     1
  8
AM_VIS
100
AcDbSpline
210
0.0
220
0.0
230
1.0
 70
     8
 71
     3
 72
    28
 73
    24
 74
     0
 42
0.0000000001
 43
0.0000000001
 40
-7.268772092096696
 40
-7.268772092096696
 40
-7.268772092096696
 40
-7.268772092096696
 40
-7.104190868575013
 40
-7.104190868575013
 40
-6.93960964505333
 40
-6.93960964505333
 40
-6.753169545530923
 40
-6.753169545530923
 40
-6.566729446008515
 40
-6.566729446008515
 40
-6.008021713289338
 40
-6.008021713289338
 40
-5.44931398057016
 40
-5.44931398057016
 40
-4.768149732998889
 40
-4.768149732998889
 40
-4.086985485427618
 40
-4.086985485427618
 40
-2.72465699028508
 40
-2.72465699028508
 40
-1.362328495142541
 40
-1.362328495142541
 40
0.0
 40
0.0
 40
0.0
 40
0.0
 10
448.9723945150908
 20
184.1689037755441
 30
0.0
 10
449.0272549229314
 20
184.1689037755441
 30
0.0
 10
449.0873082801615
 20
184.164450025885
 30
0.0
 10
449.2057977531722
 20
184.1453333424005
 30
0.0
 10
449.2642378305419
 20
184.1306949714847
 30
0.0
 10
449.3755582233413
 20
184.0946611901824
 30
0.0
 10
449.4386375646541
 20
184.0687387572919
 30
0.0
 10
449.5598006111355
 20
184.0069133442801
 30
0.0
 10
449.6179176143622
 20
183.9710756421159
 30
0.0
 10
449.8212203963062
 20
183.8283805119419
 30
0.0
 10
449.9634395751026
 20
183.6848311053132
 30
0.0
 10
450.206102438206
 20
183.3630033911608
 30
0.0
 10
450.3070381293545
 20
183.1850963592068
 30
0.0
 10
450.4836180178301
 20
182.8114271034349
 30
0.0
 10
450.561202811407
 20
182.5973179388833
 30
0.0
 10
450.6900624768326
 20
182.1563711589837
 30
0.0
 10
450.7411348040764
 20
181.9294743784484
 30
0.0
 10
450.8651725291583
 20
181.2345733561733
 30
0.0
 10
450.90906018773
 20
180.7526549972273
 30
0.0
 10
450.9599645904786
 20
179.7775375073308
 30
0.0
 10
450.9670793004841
 20
179.2849467389335
 30
0.0
 10
450.9732134185512
 20
178.3165191152178
 30
0.0
 10
450.9723945150908
 20
177.8406832907997
 30
0.0
 10
450.9723945150908
 20
177.3865737924188
 30
0.0
  0
SPLINE
  5
8C
330
D
100
AcDbEntity
 67
     1
  8
AM_VIS
100
AcDbSpline
210
0.0
220
0.0
230
1.0
 70
     8
 71
     3
 72
    28
 73
    24
 74
     0
 42
0.0000000001
 43
0.0000000001
 40
0.0
 40
0.0
 40
0.0
 40
0.0
 40
1.362328495142541
 40
1.362328495142541
 40
2.724656990285083
 40
2.724656990285083
 40
4.086985485427625
 40
4.086985485427625
 40
4.768149732998896
 40
4.768149732998896
 40
5.449313980570167
 40
5.449313980570167
 40
6.008021713289342
 40
6.008021713289342
 40
6.566729446008517
 40
6.566729446008517
 40
6.753169545530926
 40
6.753169545530926
 40
6.939609645053335
 40
6.939609645053335
 40
7.104190868575019
 40
7.104190868575019
 40
7.268772092096702
 40
7.268772092096702
 40
7.268772092096702
 40
7.268772092096702
 10
450.9723945150908
 20
177.3865737924188
 30
0.0
 10
450.9723945150908
 20
176.932464294038
 30
0.0
 10
450.9732134185512
 20
176.4566284696199
 30
0.0
 10
450.9670793004841
 20
175.4882008459042
 30
0.0
 10
450.9599645904786
 20
174.9956100775069
 30
0.0
 10
450.9090601877298
 20
174.0204925876104
 30
0.0
 10
450.8651725291583
 20
173.5385742286643
 30
0.0
 10
450.7411348040764
 20
172.8436732063893
 30
0.0
 10
450.6900624768326
 20
172.616776425854
 30
0.0
 10
450.561202811407
 20
172.1758296459543
 30
0.0
 10
450.4836180178301
 20
171.9617204814028
 30
0.0
 10
450.3070381293545
 20
171.5880512256308
 30
0.0
 10
450.206102438206
 20
171.4101441936768
 30
0.0
 10
449.9634395751026
 20
171.0883164795245
 30
0.0
 10
449.8212203963062
 20
170.9447670728957
 30
0.0
 10
449.6179176143622
 20
170.8020719427217
 30
0.0
 10
449.5598006111355
 20
170.7662342405576
 30
0.0
 10
449.4386375646541
 20
170.7044088275457
 30
0.0
 10
449.3755582233413
 20
170.6784863946552
 30
0.0
 10
449.2642378305419
 20
170.6424526133529
 30
0.0
 10
449.2057977531722
 20
170.6278142424372
 30
0.0
 10
449.0873082801615
 20
170.6086975589527
 30
0.0
 10
449.0272549229314
 20
170.6042438092935
 30
0.0
 10
448.9723945150908
 20
170.6042438092935
 30
0.0
  0
LINE
  5
8D
330
D
100
AcDbEntity
 67
     1
  8
AM_VIS
100
AcDbLine
 10
448.9723945150908
 20
170.6042438092935
 30
0.0
 11
440.9723945150908
 21
170.6042438092935
 31
0.0
  0
LINE
  5
8E
330
D
100
AcDbEntity
 67
     1
  8
AM_VIS
100
AcDbLine
 10
440.9723945150908
 20
170.6042438092935
 30
0.0
 11
440.9723945150908
 21
184.1689037755441
 31
0.0
  0
LINE
  5
8F
330
D
100
AcDbEntity
 67
     1
  8
AM_VIS
100
AcDbLine
 10
440.9723945150908
 20
184.1689037755441
 30
0.0
 11
448.9723945150908
 21
184.1689037755441
 31
0.0
  0
LINE
  5
90
330
D
100
AcDbEntity
 67
     1
  8
AM_VIS
100
AcDbLine
 10
479.6723945150908
 20
194.7070818681076
 30
0.0
 11
472.2723945150909
 21
194.7070818681076
 31
0.0
  0
LINE
  5
91
330
D
100
AcDbEntity
 67
     1
  8
AM_VIS
100
AcDbLine
 10
480.9723945150908
 20
189.6575801206883
 30
0.0
 11
480.9723945150908
 21
191.0963295776826
 31
0.0
  0
LINE
  5
9D
330
D
100
AcDbEntity
 67
     1
  8
AM_VIS
100
AcDbLine
 10
480.9723945150908
 20
163.676818007155
 30
0.0
 11
480.9723945150908
 21
165.1155674641494
 31
0.0
  0
LINE
  5
9E
330
D
100
AcDbEntity
 67
     1
  8
AM_VIS
100
AcDbLine
 10
479.6723945150908
 20
160.0660657167301
 30
0.0
 11
472.2723945150909
 21
160.0660657167301
 31
0.0
  0
LINE
  5
9F
330
D
100
AcDbEntity
 67
     1
  8
AM_VIS
100
AcDbLine
 10
479.6723945150908
 20
186.0468278302633
 30
0.0
 11
472.2723945150909
 21
186.0468278302633
 31
0.0
  0
LINE
  5
A0
330
D
100
AcDbEntity
 67
     1
  8
AM_VIS
100
AcDbLine
 10
480.9723945150908
 20
175.9478243354244
 30
0.0
 11
480.9723945150908
 21
178.8253232494132
 31
0.0
  0
LINE
  5
A1
330
D
100
AcDbEntity
 67
     1
  8
AM_VIS
100
AcDbLine
 10
479.6723945150908
 20
168.7263197545744
 30
0.0
 11
472.2723945150909
 21
168.7263197545744
 31
0.0
  0
LINE
  5
A2
330
D
100
AcDbEntity
 67
     1
  8
AM_VIS
100
AcDbLine
 10
470.9723945150908
 20
191.0963295776824
 30
0.0
 11
470.9723945150908
 21
189.6575801206884
 31
0.0
  0
LINE
  5
A3
330
D
100
AcDbEntity
 67
     1
  8
AM_VIS
100
AcDbLine
 10
470.9723945150908
 20
178.825323249413
 30
0.0
 11
470.9723945150908
 21
175.9478243354247
 31
0.0
  0
LINE
  5
A4
330
D
100
AcDbEntity
 67
     1
  8
AM_VIS
100
AcDbLine
 10
470.9723945150908
 20
165.1155674641493
 30
0.0
 11
470.9723945150908
 21
163.6768180071551
 31
0.0
  0
SPLINE
  5
A5
330
D
100
AcDbEntity
 67
     1
  8
AM_VIS
100
AcDbSpline
210
0.0
220
0.0
230
1.0
 70
    12
 71
     2
 72
     6
 73
     3
 74
     0
 42
0.0000000001
 43
0.0000000001
 40
0.0
 40
0.0
 40
0.0
 40
7.34951766450399
 40
7.34951766450399
 40
7.34951766450399
 10
480.9723945150908
 20
191.0963295776826
 30
0.0
 41
1.0
 10
480.7871906684886
 20
192.7761982903401
 30
0.0
 41
1.025822233035499
 10
479.6723945150908
 20
194.7070818681076
 30
0.0
 41
1.0
  0
SPLINE
  5
A6
330
D
100
AcDbEntity
 67
     1
  8
AM_VIS
100
AcDbSpline
210
0.0
220
0.0
230
1.0
 70
    12
 71
     2
 72
     6
 73
     3
 74
     0
 42
0.0000000001
 43
0.0000000001
 40
0.0
 40
0.0
 40
0.0
 40
7.349517664503991
 40
7.349517664503991
 40
7.349517664503991
 10
479.6723945150908
 20
186.0468278302633
 30
0.0
 41
1.0
 10
480.7871906684886
 20
187.9777114080308
 30
0.0
 41
1.025822233035528
 10
480.9723945150908
 20
189.6575801206883
 30
0.0
 41
1.0
  0
SPLINE
  5
A7
330
D
100
AcDbEntity
 67
     1
  8
AM_VIS
100
AcDbSpline
210
0.0
220
0.0
230
1.0
 70
    12
 71
     2
 72
     6
 73
     3
 74
     0
 42
0.0000000001
 43
0.0000000001
 40
0.0
 40
0.0
 40
0.0
 40
7.349517664503905
 40
7.349517664503905
 40
7.349517664503905
 10
480.9723945150908
 20
178.8253232494132
 30
0.0
 41
1.0
 10
480.7871906684889
 20
182.1850606747282
 30
0.0
 41
1.025822233035739
 10
479.6723945150908
 20
186.0468278302631
 30
0.0
 41
1.0
  0
SPLINE
  5
A8
330
D
100
AcDbEntity
 67
     1
  8
AM_VIS
100
AcDbSpline
210
0.0
220
0.0
230
1.0
 70
    12
 71
     2
 72
     6
 73
     3
 74
     0
 42
0.0000000001
 43
0.0000000001
 40
0.0
 40
0.0
 40
0.0
 40
7.349517664503905
 40
7.349517664503905
 40
7.349517664503905
 10
479.6723945150908
 20
168.7263197545745
 30
0.0
 41
1.0
 10
480.7871906684887
 20
172.5880869101094
 30
0.0
 41
1.025822233035726
 10
480.9723945150908
 20
175.9478243354244
 30
0.0
 41
1.0
  0
SPLINE
  5
A9
330
D
100
AcDbEntity
 67
     1
  8
AM_VIS
100
AcDbSpline
210
0.0
220
0.0
230
1.0
 70
    12
 71
     2
 72
     6
 73
     3
 74
     0
 42
0.0000000001
 43
0.0000000001
 40
0.0
 40
0.0
 40
0.0
 40
7.349517664503806
 40
7.349517664503806
 40
7.349517664503806
 10
480.9723945150908
 20
165.1155674641494
 30
0.0
 41
1.0
 10
480.7871906684887
 20
166.7954361768069
 30
0.0
 41
1.025822233035583
 10
479.6723945150908
 20
168.7263197545743
 30
0.0
 41
1.0
  0
SPLINE
  5
AA
330
D
100
AcDbEntity
 67
     1
  8
AM_VIS
100
AcDbSpline
210
0.0
220
0.0
230
1.0
 70
    12
 71
     2
 72
     6
 73
     3
 74
     0
 42
0.0000000001
 43
0.0000000001
 40
0.0
 40
0.0
 40
0.0
 40
7.349517664503812
 40
7.349517664503812
 40
7.349517664503812
 10
479.6723945150908
 20
160.0660657167301
 30
0.0
 41
1.0
 10
480.7871906684885
 20
161.9969492944975
 30
0.0
 41
1.025822233035607
 10
480.9723945150908
 20
163.676818007155
 30
0.0
 41
1.0
  0
SPLINE
  5
AB
330
D
100
AcDbEntity
 67
     1
  8
AM_VIS
100
AcDbSpline
210
0.0
220
0.0
230
1.0
 70
    12
 71
     2
 72
     6
 73
     3
 74
     0
 42
0.0000000001
 43
0.0000000001
 40
0.0
 40
0.0
 40
0.0
 40
7.349517664504014
 40
7.349517664504014
 40
7.349517664504014
 10
472.2723945150907
 20
194.7070818681075
 30
0.0
 41
1.0
 10
471.1575983616929
 20
192.77619829034
 30
0.0
 41
1.025822233035528
 10
470.9723945150908
 20
191.0963295776826
 30
0.0
 41
1.0
  0
SPLINE
  5
AC
330
D
100
AcDbEntity
 67
     1
  8
AM_VIS
100
AcDbSpline
210
0.0
220
0.0
230
1.0
 70
    12
 71
     2
 72
     6
 73
     3
 74
     0
 42
0.0000000001
 43
0.0000000001
 40
0.0
 40
0.0
 40
0.0
 40
7.349517664504023
 40
7.349517664504023
 40
7.349517664504023
 10
470.9723945150908
 20
189.6575801206883
 30
0.0
 41
1.0
 10
471.1575983616929
 20
187.9777114080308
 30
0.0
 41
1.025822233035613
 10
472.2723945150907
 20
186.0468278302633
 30
0.0
 41
1.0
  0
SPLINE
  5
AD
330
D
100
AcDbEntity
 67
     1
  8
AM_VIS
100
AcDbSpline
210
0.0
220
0.0
230
1.0
 70
    12
 71
     2
 72
     6
 73
     3
 74
     0
 42
0.0000000001
 43
0.0000000001
 40
0.0
 40
0.0
 40
0.0
 40
7.349517664503922
 40
7.349517664503922
 40
7.349517664503922
 10
472.2723945150907
 20
186.0468278302631
 30
0.0
 41
1.0
 10
471.1575983616929
 20
182.1850606747282
 30
0.0
 41
1.025822233035739
 10
470.9723945150908
 20
178.8253232494132
 30
0.0
 41
1.0
  0
SPLINE
  5
AE
330
D
100
AcDbEntity
 67
     1
  8
AM_VIS
100
AcDbSpline
210
0.0
220
0.0
230
1.0
 70
    12
 71
     2
 72
     6
 73
     3
 74
     0
 42
0.0000000001
 43
0.0000000001
 40
0.0
 40
0.0
 40
0.0
 40
7.349517664503926
 40
7.349517664503926
 40
7.349517664503926
 10
470.9723945150908
 20
175.9478243354245
 30
0.0
 41
1.0
 10
471.1575983616929
 20
172.5880869101095
 30
0.0
 41
1.025822233035726
 10
472.2723945150907
 20
168.7263197545745
 30
0.0
 41
1.0
  0
SPLINE
  5
AF
330
D
100
AcDbEntity
 67
     1
  8
AM_VIS
100
AcDbSpline
210
0.0
220
0.0
230
1.0
 70
    12
 71
     2
 72
     6
 73
     3
 74
     0
 42
0.0000000001
 43
0.0000000001
 40
0.0
 40
0.0
 40
0.0
 40
7.349517664503903
 40
7.349517664503903
 40
7.349517664503903
 10
472.2723945150907
 20
168.7263197545743
 30
0.0
 41
1.0
 10
471.1575983616928
 20
166.7954361768069
 30
0.0
 41
1.025822233035777
 10
470.9723945150908
 20
165.1155674641494
 30
0.0
 41
1.0
  0
SPLINE
  5
B0
330
D
100
AcDbEntity
 67
     1
  8
AM_VIS
100
AcDbSpline
210
0.0
220
0.0
230
1.0
 70
    12
 71
     2
 72
     6
 73
     3
 74
     0
 42
0.0000000001
 43
0.0000000001
 40
0.0
 40
0.0
 40
0.0
 40
7.349517664503909
 40
7.349517664503909
 40
7.349517664503909
 10
470.9723945150908
 20
163.6768180071551
 30
0.0
 41
1.0
 10
471.1575983616923
 20
161.9969492944976
 30
0.0
 41
1.025822233035752
 10
472.2723945150907
 20
160.0660657167301
 30
0.0
 41
1.0
  0
LINE
  5
E9
330
D
100
AcDbEntity
 67
     1
  8
AM_VIS
100
AcDbLine
 10
437.9723945150908
 20
164.8865737924188
 30
0.0
 11
438.9723945150908
 21
164.8865737924188
 31
0.0
  0
LINE
  5
EA
330
D
100
AcDbEntity
 67
     1
  8
AM_VIS
100
AcDbLine
 10
437.9723945150908
 20
189.8865737924188
 30
0.0
 11
438.9723945150908
 21
189.8865737924188
 31
0.0
  0
LINE
  5
EB
330
D
100
AcDbEntity
 67
     1
  8
AM_VIS
100
AcDbLine
 10
450.9723945150908
 20
167.3865737924188
 30
0.0
 11
470.9723945150908
 21
167.3865737924188
 31
0.0
  0
LINE
  5
EC
330
D
100
AcDbEntity
 67
     1
  8
AM_VIS
100
AcDbLine
 10
450.9723945150908
 20
187.3865737924188
 30
0.0
 11
470.9723945150908
 21
187.3865737924188
 31
0.0
  0
LINE
  5
ED
330
D
100
AcDbEntity
 67
     1
  8
AM_VIS
100
AcDbLine
 10
490.9723945150908
 20
185.8865737924188
 30
0.0
 11
489.4723945150908
 21
187.3865737924188
 31
0.0
  0
LINE
  5
EE
330
D
100
AcDbEntity
 67
     1
  8
AM_VIS
100
AcDbLine
 10
490.9723945150908
 20
168.8865737924188
 30
0.0
 11
489.4723945150908
 21
167.3865737924188
 31
0.0
  0
LINE
  5
EF
330
D
100
AcDbEntity
 67
     1
  8
AM_VIS
100
AcDbLine
 10
480.9723945150908
 20
167.3865737924188
 30
0.0
 11
489.4723945150908
 21
167.3865737924188
 31
0.0
  0
LINE
  5
F0
330
D
100
AcDbEntity
 67
     1
  8
AM_VIS
100
AcDbLine
 10
480.9723945150908
 20
187.3865737924188
 30
0.0
 11
489.4723945150908
 21
187.3865737924188
 31
0.0
  0
LINE
  5
F5
330
D
100
AcDbEntity
 67
     1
  8
AM_VIS
100
AcDbLine
 10
480.9723945150908
 20
192.4554158182681
 30
0.0
 11
479.6723945150908
 21
194.7070818681076
 31
0.0
  0
LINE
  5
F6
330
D
100
AcDbEntity
 67
     1
  8
AM_VIS
100
AcDbLine
 10
480.9723945150908
 20
162.3177317665696
 30
0.0
 11
479.6723945150908
 21
160.0660657167301
 31
0.0
  0
LINE
  5
F7
330
D
100
AcDbEntity
 67
     1
  8
AM_VIS
100
AcDbLine
 10
470.9723945150908
 20
192.4554158182681
 30
0.0
 11
472.2723945150907
 21
194.7070818681076
 31
0.0
  0
LINE
  5
F8
330
D
100
AcDbEntity
 67
     1
  8
AM_VIS
100
AcDbLine
 10
470.9723945150908
 20
162.3177317665696
 30
0.0
 11
472.2723945150907
 21
160.0660657167301
 31
0.0
  0
LINE
  5
109
330
D
100
AcDbEntity
 67
     1
  8
AM_VIS
100
AcDbLine
 10
450.9723945150908
 20
187.8865737924188
 30
0.0
 11
450.9723945150908
 21
177.3865737924188
 31
0.0
  0
LINE
  5
10A
330
D
100
AcDbEntity
 67
     1
  8
AM_VIS
100
AcDbLine
 10
450.9723945150908
 20
177.3865737924188
 30
0.0
 11
450.9723945150908
 21
166.8865737924188
 31
0.0
  0
LINE
  5
10B
330
D
100
AcDbEntity
 67
     1
  8
AM_VIS
100
AcDbLine
 10
490.9723945150908
 20
185.8865737924188
 30
0.0
 11
490.9723945150908
 21
168.8865737924188
 31
0.0
  0
LINE
  5
10C
330
D
100
AcDbEntity
 67
     1
  8
AM_VIS
100
AcDbLine
 10
489.4723945150908
 20
167.3865737924188
 30
0.0
 11
489.4723945150908
 21
187.3865737924188
 31
0.0
  0
LINE
  5
117
330
D
100
AcDbEntity
 67
     1
  8
AM_VIS
100
AcDbLine
 10
480.9723945150908
 20
191.0963295776826
 30
0.0
 11
480.9723945150908
 21
192.4554158182681
 31
0.0
  0
LINE
  5
118
330
D
100
AcDbEntity
 67
     1
  8
AM_VIS
100
AcDbLine
 10
480.9723945150908
 20
178.8253232494132
 30
0.0
 11
480.9723945150908
 21
189.6575801206883
 31
0.0
  0
LINE
  5
119
330
D
100
AcDbEntity
 67
     1
  8
AM_VIS
100
AcDbLine
 10
480.9723945150908
 20
165.1155674641495
 30
0.0
 11
480.9723945150908
 21
175.9478243354244
 31
0.0
  0
LINE
  5
11A
330
D
100
AcDbEntity
 67
     1
  8
AM_VIS
100
AcDbLine
 10
480.9723945150908
 20
162.3177317665696
 30
0.0
 11
480.9723945150908
 21
163.6768180071551
 31
0.0
  0
LINE
  5
11B
330
D
100
AcDbEntity
 67
     1
  8
AM_VIS
100
AcDbLine
 10
470.9723945150908
 20
192.4554158182681
 30
0.0
 11
470.9723945150908
 21
191.0963295776824
 31
0.0
  0
LINE
  5
11C
330
D
100
AcDbEntity
 67
     1
  8
AM_VIS
100
AcDbLine
 10
470.9723945150908
 20
189.6575801206884
 30
0.0
 11
470.9723945150908
 21
178.825323249413
 31
0.0
  0
LINE
  5
11D
330
D
100
AcDbEntity
 67
     1
  8
AM_VIS
100
AcDbLine
 10
470.9723945150908
 20
175.9478243354247
 30
0.0
 11
470.9723945150908
 21
165.1155674641493
 31
0.0
  0
LINE
  5
11E
330
D
100
AcDbEntity
 67
     1
  8
AM_VIS
100
AcDbLine
 10
470.9723945150908
 20
163.6768180071552
 30
0.0
 11
470.9723945150908
 21
162.3177317665696
 31
0.0
  0
LINE
  5
195
330
D
100
AcDbEntity
 67
     1
  8
AM_VIS
100
AcDbLine
 10
440.9723945150908
 20
403.8422777033854
 30
0.0
 11
448.9723945150908
 21
403.8422777033854
 31
0.0
  0
LINE
  5
196
330
D
100
AcDbEntity
 67
     1
  8
AM_VIS
100
AcDbLine
 10
448.9723945150908
 20
390.2776177371349
 30
0.0
 11
440.9723945150908
 21
390.2776177371349
 31
0.0
  0
LINE
  5
197
330
D
100
AcDbEntity
 67
     1
  8
AM_VIS
100
AcDbLine
 10
440.9723945150908
 20
390.2776177371349
 30
0.0
 11
440.9723945150908
 21
403.8422777033854
 31
0.0
  0
ARC
  5
198
330
D
100
AcDbEntity
 67
     1
  8
AM_VIS
100
AcDbCircle
 10
451.4723945150907
 20
397.0599477202602
 30
0.0
 40
12.5
100
AcDbArc
 50
147.1401196211107
 51
212.8598803788893
  0
SPLINE
  5
199
330
D
100
AcDbEntity
 67
     1
  8
AM_VIS
100
AcDbSpline
210
0.0
220
0.0
230
1.0
 70
     8
 71
     3
 72
    28
 73
    24
 74
     0
 42
0.0000000001
 43
0.0000000001
 40
0.0
 40
0.0
 40
0.0
 40
0.0
 40
1.362328495142541
 40
1.362328495142541
 40
2.724656990285083
 40
2.724656990285083
 40
4.086985485427625
 40
4.086985485427625
 40
4.768149732998896
 40
4.768149732998896
 40
5.449313980570167
 40
5.449313980570167
 40
6.008021713289342
 40
6.008021713289342
 40
6.566729446008517
 40
6.566729446008517
 40
6.753169545530926
 40
6.753169545530926
 40
6.939609645053335
 40
6.939609645053335
 40
7.104190868575019
 40
7.104190868575019
 40
7.268772092096702
 40
7.268772092096702
 40
7.268772092096702
 40
7.268772092096702
 10
450.9723945150908
 20
397.0599477202602
 30
0.0
 10
450.9723945150908
 20
396.6058382218794
 30
0.0
 10
450.9732134185512
 20
396.1300023974613
 30
0.0
 10
450.9670793004841
 20
395.1615747737455
 30
0.0
 10
450.9599645904786
 20
394.6689840053482
 30
0.0
 10
450.90906018773
 20
393.6938665154518
 30
0.0
 10
450.8651725291583
 20
393.2119481565057
 30
0.0
 10
450.7411348040764
 20
392.5170471342307
 30
0.0
 10
450.6900624768326
 20
392.2901503536954
 30
0.0
 10
450.561202811407
 20
391.8492035737957
 30
0.0
 10
450.4836180178301
 20
391.6350944092441
 30
0.0
 10
450.3070381293545
 20
391.2614251534721
 30
0.0
 10
450.206102438206
 20
391.0835181215182
 30
0.0
 10
449.9634395751026
 20
390.7616904073659
 30
0.0
 10
449.8212203963062
 20
390.6181410007371
 30
0.0
 10
449.6179176143622
 20
390.4754458705631
 30
0.0
 10
449.5598006111355
 20
390.4396081683989
 30
0.0
 10
449.4386375646541
 20
390.3777827553871
 30
0.0
 10
449.3755582233413
 20
390.3518603224966
 30
0.0
 10
449.2642378305419
 20
390.3158265411943
 30
0.0
 10
449.2057977531722
 20
390.3011881702786
 30
0.0
 10
449.0873082801615
 20
390.2820714867941
 30
0.0
 10
449.0272549229314
 20
390.2776177371349
 30
0.0
 10
448.9723945150908
 20
390.2776177371349
 30
0.0
  0
SPLINE
  5
19A
330
D
100
AcDbEntity
 67
     1
  8
AM_VIS
100
AcDbSpline
210
0.0
220
0.0
230
1.0
 70
     8
 71
     3
 72
    28
 73
    24
 74
     0
 42
0.0000000001
 43
0.0000000001
 40
-7.268772092096703
 40
-7.268772092096703
 40
-7.268772092096703
 40
-7.268772092096703
 40
-7.10419086857502
 40
-7.10419086857502
 40
-6.939609645053337
 40
-6.939609645053337
 40
-6.75316954553093
 40
-6.75316954553093
 40
-6.566729446008523
 40
-6.566729446008523
 40
-6.008021713289345
 40
-6.008021713289345
 40
-5.449313980570167
 40
-5.449313980570167
 40
-4.768149732998896
 40
-4.768149732998896
 40
-4.086985485427625
 40
-4.086985485427625
 40
-2.724656990285083
 40
-2.724656990285083
 40
-1.362328495142541
 40
-1.362328495142541
 40
0.0
 40
0.0
 40
0.0
 40
0.0
 10
448.9723945150908
 20
403.8422777033854
 30
0.0
 10
449.0272549229314
 20
403.8422777033854
 30
0.0
 10
449.0873082801615
 20
403.8378239537263
 30
0.0
 10
449.2057977531722
 20
403.8187072702418
 30
0.0
 10
449.2642378305419
 20
403.8040688993261
 30
0.0
 10
449.3755582233413
 20
403.7680351180238
 30
0.0
 10
449.4386375646541
 20
403.7421126851333
 30
0.0
 10
449.5598006111355
 20
403.6802872721215
 30
0.0
 10
449.6179176143622
 20
403.6444495699573
 30
0.0
 10
449.8212203963062
 20
403.5017544397833
 30
0.0
 10
449.9634395751026
 20
403.3582050331545
 30
0.0
 10
450.206102438206
 20
403.0363773190022
 30
0.0
 10
450.3070381293545
 20
402.8584702870482
 30
0.0
 10
450.4836180178301
 20
402.4848010312762
 30
0.0
 10
450.561202811407
 20
402.2706918667246
 30
0.0
 10
450.6900624768326
 20
401.829745086825
 30
0.0
 10
450.7411348040764
 20
401.6028483062897
 30
0.0
 10
450.8651725291583
 20
400.9079472840147
 30
0.0
 10
450.90906018773
 20
400.4260289250686
 30
0.0
 10
450.9599645904786
 20
399.4509114351722
 30
0.0
 10
450.9670793004841
 20
398.9583206667749
 30
0.0
 10
450.9732134185512
 20
397.9898930430591
 30
0.0
 10
450.9723945150908
 20
397.514057218641
 30
0.0
 10
450.9723945150908
 20
397.0599477202602
 30
0.0
  0
LINE
  5
19B
330
D
100
AcDbEntity
 67
     1
  8
AM_VIS
100
AcDbLine
 10
438.9723945150908
 20
409.5599477202601
 30
0.0
 11
440.9723945150908
 21
407.5599477202601
 31
0.0
  0
LINE
  5
19C
330
D
100
AcDbEntity
 67
     1
  8
AM_VIS
100
AcDbLine
 10
440.9723945150908
 20
386.5599477202602
 30
0.0
 11
438.9723945150908
 21
384.5599477202602
 31
0.0
  0
LINE
  5
19D
330
D
100
AcDbEntity
 67
     1
  8
AM_VIS
100
AcDbLine
 10
448.9723945150908
 20
407.5599477202602
 30
0.0
 11
450.9732134185511
 21
407.5599477202602
 31
0.0
  0
LINE
  5
19E
330
D
100
AcDbEntity
 67
     1
  8
AM_VIS
100
AcDbLine
 10
448.9723945150908
 20
407.5599477202602
 30
0.0
 11
440.9723945150908
 21
407.5599477202602
 31
0.0
  0
LINE
  5
19F
330
D
100
AcDbEntity
 67
     1
  8
AM_VIS
100
AcDbLine
 10
448.9723945150908
 20
386.5599477202602
 30
0.0
 11
450.9732134185512
 21
386.5599477202602
 31
0.0
  0
LINE
  5
1A0
330
D
100
AcDbEntity
 67
     1
  8
AM_VIS
100
AcDbLine
 10
440.9723945150908
 20
386.5599477202602
 30
0.0
 11
448.9723945150908
 21
386.5599477202602
 31
0.0
  0
LINE
  5
1A1
330
D
100
AcDbEntity
 67
     1
  8
AM_VIS
100
AcDbLine
 10
479.6723945150908
 20
412.0599477202602
 30
0.0
 11
472.2723945150909
 21
412.0599477202602
 31
0.0
  0
LINE
  5
1A2
330
D
100
AcDbEntity
 67
     1
  8
AM_VIS
100
AcDbLine
 10
479.6723945150908
 20
397.0599477202602
 30
0.0
 11
472.2723945150909
 21
397.0599477202602
 31
0.0
  0
LINE
  5
1A3
330
D
100
AcDbEntity
 67
     1
  8
AM_VIS
100
AcDbLine
 10
480.9723945150908
 20
388.3139541408222
 30
0.0
 11
480.9723945150908
 21
390.8059412996984
 31
0.0
  0
LINE
  5
1A4
330
D
100
AcDbEntity
 67
     1
  8
AM_VIS
100
AcDbLine
 10
480.9723945150908
 20
403.313954140822
 30
0.0
 11
480.9723945150908
 21
405.8059412996982
 31
0.0
  0
LINE
  5
1AE
330
D
100
AcDbEntity
 67
     1
  8
AM_VIS
100
AcDbLine
 10
479.6723945150908
 20
382.0599477202602
 30
0.0
 11
472.2723945150909
 21
382.0599477202602
 31
0.0
  0
LINE
  5
1AF
330
D
100
AcDbEntity
 67
     1
  8
AM_VIS
100
AcDbLine
 10
470.9723945150908
 20
390.8059412996982
 30
0.0
 11
470.9723945150908
 21
388.3139541408223
 31
0.0
  0
LINE
  5
1B0
330
D
100
AcDbEntity
 67
     1
  8
AM_VIS
100
AcDbLine
 10
470.9723945150908
 20
405.805941299698
 30
0.0
 11
470.9723945150908
 21
403.3139541408222
 31
0.0
  0
LINE
  5
1B1
330
D
100
AcDbEntity
 67
     1
  8
AM_VIS
100
AcDbLine
 10
479.6723945150908
 20
412.0599477202602
 30
0.0
 11
480.9723945150908
 21
412.0599477202602
 31
0.0
  0
SPLINE
  5
1B2
330
D
100
AcDbEntity
 67
     1
  8
AM_VIS
100
AcDbSpline
210
0.0
220
0.0
230
1.0
 70
    12
 71
     2
 72
     6
 73
     3
 74
     0
 42
0.0000000001
 43
0.0000000001
 40
0.0
 40
0.0
 40
0.0
 40
7.349517664503995
 40
7.349517664503995
 40
7.349517664503995
 10
480.9723945150908
 20
405.8059412996982
 30
0.0
 41
1.0
 10
480.7871906684885
 20
408.7155592600664
 30
0.0
 41
1.025822233035508
 10
479.6723945150908
 20
412.0599477202601
 30
0.0
 41
1.0
  0
SPLINE
  5
1B3
330
D
100
AcDbEntity
 67
     1
  8
AM_VIS
100
AcDbSpline
210
0.0
220
0.0
230
1.0
 70
    12
 71
     2
 72
     6
 73
     3
 74
     0
 42
0.0000000001
 43
0.0000000001
 40
0.0
 40
0.0
 40
0.0
 40
7.349517664503987
 40
7.349517664503987
 40
7.349517664503987
 10
479.6723945150908
 20
397.0599477202602
 30
0.0
 41
1.0
 10
480.7871906684887
 20
400.4043361804539
 30
0.0
 41
1.025822233035506
 10
480.9723945150908
 20
403.313954140822
 30
0.0
 41
1.0
  0
SPLINE
  5
1B4
330
D
100
AcDbEntity
 67
     1
  8
AM_VIS
100
AcDbSpline
210
0.0
220
0.0
230
1.0
 70
    12
 71
     2
 72
     6
 73
     3
 74
     0
 42
0.0000000001
 43
0.0000000001
 40
0.0
 40
0.0
 40
0.0
 40
7.34951766450399
 40
7.34951766450399
 40
7.34951766450399
 10
480.9723945150908
 20
390.8059412996984
 30
0.0
 41
1.0
 10
480.7871906684886
 20
393.7155592600665
 30
0.0
 41
1.025822233035499
 10
479.6723945150908
 20
397.0599477202602
 30
0.0
 41
1.0
  0
SPLINE
  5
1B5
330
D
100
AcDbEntity
 67
     1
  8
AM_VIS
100
AcDbSpline
210
0.0
220
0.0
230
1.0
 70
    12
 71
     2
 72
     6
 73
     3
 74
     0
 42
0.0000000001
 43
0.0000000001
 40
0.0
 40
0.0
 40
0.0
 40
7.349517664503991
 40
7.349517664503991
 40
7.349517664503991
 10
479.6723945150908
 20
382.0599477202603
 30
0.0
 41
1.0
 10
480.7871906684886
 20
385.404336180454
 30
0.0
 41
1.025822233035528
 10
480.9723945150908
 20
388.3139541408222
 30
0.0
 41
1.0
  0
LINE
  5
1B6
330
D
100
AcDbEntity
 67
     1
  8
AM_VIS
100
AcDbLine
 10
479.6723945150908
 20
382.0599477202602
 30
0.0
 11
480.9723945150908
 21
382.0599477202602
 31
0.0
  0
SPLINE
  5
1B7
330
D
100
AcDbEntity
 67
     1
  8
AM_VIS
100
AcDbSpline
210
0.0
220
0.0
230
1.0
 70
    12
 71
     2
 72
     6
 73
     3
 74
     0
 42
0.0000000001
 43
0.0000000001
 40
0.0
 40
0.0
 40
0.0
 40
7.34951766450405
 40
7.34951766450405
 40
7.34951766450405
 10
470.9723945150908
 20
403.3139541408221
 30
0.0
 41
1.0
 10
471.1575983616929
 20
400.4043361804539
 30
0.0
 41
1.025822233035662
 10
472.2723945150907
 20
397.0599477202603
 30
0.0
 41
1.0
  0
SPLINE
  5
1B8
330
D
100
AcDbEntity
 67
     1
  8
AM_VIS
100
AcDbSpline
210
0.0
220
0.0
230
1.0
 70
    12
 71
     2
 72
     6
 73
     3
 74
     0
 42
0.0000000001
 43
0.0000000001
 40
0.0
 40
0.0
 40
0.0
 40
7.349517664504014
 40
7.349517664504014
 40
7.349517664504014
 10
472.2723945150907
 20
397.0599477202601
 30
0.0
 41
1.0
 10
471.1575983616929
 20
393.7155592600665
 30
0.0
 41
1.025822233035528
 10
470.9723945150908
 20
390.8059412996983
 30
0.0
 41
1.0
  0
SPLINE
  5
1B9
330
D
100
AcDbEntity
 67
     1
  8
AM_VIS
100
AcDbSpline
210
0.0
220
0.0
230
1.0
 70
    12
 71
     2
 72
     6
 73
     3
 74
     0
 42
0.0000000001
 43
0.0000000001
 40
0.0
 40
0.0
 40
0.0
 40
7.349517664504051
 40
7.349517664504051
 40
7.349517664504051
 10
472.2723945150907
 20
412.0599477202601
 30
0.0
 41
1.0
 10
471.1575983616923
 20
408.7155592600663
 30
0.0
 41
1.025822233035845
 10
470.9723945150908
 20
405.8059412996981
 30
0.0
 41
1.0
  0
LINE
  5
1BA
330
D
100
AcDbEntity
 67
     1
  8
AM_VIS
100
AcDbLine
 10
470.9723945150908
 20
412.0599477202602
 30
0.0
 11
472.2723945150907
 21
412.0599477202602
 31
0.0
  0
SPLINE
  5
1BB
330
D
100
AcDbEntity
 67
     1
  8
AM_VIS
100
AcDbSpline
210
0.0
220
0.0
230
1.0
 70
    12
 71
     2
 72
     6
 73
     3
 74
     0
 42
0.0000000001
 43
0.0000000001
 40
0.0
 40
0.0
 40
0.0
 40
7.349517664504023
 40
7.349517664504023
 40
7.349517664504023
 10
470.9723945150908
 20
388.3139541408222
 30
0.0
 41
1.0
 10
471.1575983616929
 20
385.404336180454
 30
0.0
 41
1.025822233035613
 10
472.2723945150907
 20
382.0599477202603
 30
0.0
 41
1.0
  0
LINE
  5
1BC
330
D
100
AcDbEntity
 67
     1
  8
AM_VIS
100
AcDbLine
 10
470.9723945150908
 20
382.0599477202602
 30
0.0
 11
472.2723945150907
 21
382.0599477202602
 31
0.0
  0
LINE
  5
1E6
330
D
100
AcDbEntity
 67
     1
  8
AM_VIS
100
AcDbLine
 10
437.9723945150908
 20
384.5599477202602
 30
0.0
 11
438.9723945150908
 21
384.5599477202602
 31
0.0
  0
LINE
  5
1E7
330
D
100
AcDbEntity
 67
     1
  8
AM_VIS
100
AcDbLine
 10
437.9723945150908
 20
409.5599477202601
 30
0.0
 11
438.9723945150908
 21
409.5599477202601
 31
0.0
  0
LINE
  5
1E8
330
D
100
AcDbEntity
 67
     1
  8
AM_VIS
100
AcDbLine
 10
450.9723945150908
 20
387.0599477202602
 30
0.0
 11
470.9723945150908
 21
387.0599477202602
 31
0.0
  0
LINE
  5
1E9
330
D
100
AcDbEntity
 67
     1
  8
AM_VIS
100
AcDbLine
 10
450.9723945150908
 20
407.0599477202602
 30
0.0
 11
470.9723945150908
 21
407.0599477202602
 31
0.0
  0
LINE
  5
1EA
330
D
100
AcDbEntity
 67
     1
  8
AM_VIS
100
AcDbLine
 10
490.9723945150908
 20
405.5599477202601
 30
0.0
 11
489.4723945150908
 21
407.0599477202602
 31
0.0
  0
LINE
  5
1EB
330
D
100
AcDbEntity
 67
     1
  8
AM_VIS
100
AcDbLine
 10
490.9723945150908
 20
388.5599477202602
 30
0.0
 11
489.4723945150908
 21
387.0599477202602
 31
0.0
  0
LINE
  5
1EC
330
D
100
AcDbEntity
 67
     1
  8
AM_VIS
100
AcDbLine
 10
480.9723945150908
 20
387.0599477202602
 30
0.0
 11
489.4723945150908
 21
387.0599477202602
 31
0.0
  0
LINE
  5
1ED
330
D
100
AcDbEntity
 67
     1
  8
AM_VIS
100
AcDbLine
 10
480.9723945150908
 20
407.0599477202602
 30
0.0
 11
489.4723945150908
 21
407.0599477202602
 31
0.0
  0
LINE
  5
20D
330
D
100
AcDbEntity
 67
     1
  8
AM_VIS
100
AcDbLine
 10
450.9723945150908
 20
397.0599477202602
 30
0.0
 11
450.9723945150908
 21
386.5599477202602
 31
0.0
  0
LINE
  5
20E
330
D
100
AcDbEntity
 67
     1
  8
AM_VIS
100
AcDbLine
 10
450.9723945150908
 20
407.5599477202602
 30
0.0
 11
450.9723945150908
 21
397.0599477202602
 31
0.0
  0
LINE
  5
20F
330
D
100
AcDbEntity
 67
     1
  8
AM_VIS
100
AcDbLine
 10
490.9723945150908
 20
405.5599477202601
 30
0.0
 11
490.9723945150908
 21
388.5599477202602
 31
0.0
  0
LINE
  5
210
330
D
100
AcDbEntity
 67
     1
  8
AM_VIS
100
AcDbLine
 10
489.4723945150908
 20
387.0599477202602
 30
0.0
 11
489.4723945150908
 21
407.0599477202602
 31
0.0
  0
LINE
  5
217
330
D
100
AcDbEntity
 67
     1
  8
AM_VIS
100
AcDbLine
 10
480.9723945150908
 20
405.8059412996982
 30
0.0
 11
480.9723945150908
 21
412.0599477202601
 31
0.0
  0
LINE
  5
218
330
D
100
AcDbEntity
 67
     1
  8
AM_VIS
100
AcDbLine
 10
480.9723945150908
 20
390.8059412996984
 30
0.0
 11
480.9723945150908
 21
403.3139541408219
 31
0.0
  0
LINE
  5
219
330
D
100
AcDbEntity
 67
     1
  8
AM_VIS
100
AcDbLine
 10
480.9723945150908
 20
382.0599477202602
 30
0.0
 11
480.9723945150908
 21
388.3139541408222
 31
0.0
  0
LINE
  5
21A
330
D
100
AcDbEntity
 67
     1
  8
AM_VIS
100
AcDbLine
 10
470.9723945150908
 20
403.3139541408222
 30
0.0
 11
470.9723945150908
 21
390.8059412996982
 31
0.0
  0
LINE
  5
21B
330
D
100
AcDbEntity
 67
     1
  8
AM_VIS
100
AcDbLine
 10
470.9723945150908
 20
412.0599477202601
 30
0.0
 11
470.9723945150908
 21
405.805941299698
 31
0.0
  0
LINE
  5
21C
330
D
100
AcDbEntity
 67
     1
  8
AM_VIS
100
AcDbLine
 10
470.9723945150908
 20
388.3139541408223
 30
0.0
 11
470.9723945150908
 21
382.0599477202602
 31
0.0
  0
VIEWPORT
  5
27C
102
{ACAD_XDICTIONARY
360
19BB
102
}
330
D
100
AcDbEntity
 67
     1
  8
0
100
AcDbViewport
 10
489.8837199915492
 20
187.9464781617799
 30
0.0
 40
1145.710037339836
 41
963.7031474976627
 68
     1
 69
     1
 12
489.8837199915492
 22
187.9464781617799
 13
0.0
 23
0.0
 14
1.0
 24
1.0
 15
0.0
 25
0.0
 16
0.0
 26
0.0
 36
1.0
 17
0.0
 27
0.0
 37
0.0
 42
50.0
 43
0.0
 44
0.0
 45
963.7031474976627
 50
0.0
 51
0.0
 72
  1000
 90
    32800
  1

281
     0
 71
     1
 74
     0
110
0.0
120
0.0
130
0.0
111
1.0
121
0.0
131
0.0
112
0.0
122
1.0
132
0.0
 79
     0
146
0.0
  0
TEXT
  5
3CA
330
D
100
AcDbEntity
 67
     1
  8
LOGO
100
AcDbText
 10
520.9638213326031
 20
-37.32055234565113
 30
0.0
 40
4.55015507130957
  1
Accessory
 72
     4
 11
535.0806774413411
 21
-35.7166226830145
 31
0.0
100
AcDbText
  0
LINE
  5
3CB
330
D
100
AcDbEntity
 67
     1
  8
LOGO
 62
     4
100
AcDbLine
 10
541.9803528671591
 20
14.57660424766799
 30
0.0
 11
521.1633431627042
 21
14.57660424766799
 31
0.0
  0
LINE
  5
3CC
330
D
100
AcDbEntity
 67
     1
  8
LOGO
 62
     4
100
AcDbLine
 10
556.7502258998867
 20
-16.28514864161425
 30
0.0
 11
511.9223424069635
 21
-16.28514864161425
 31
0.0
  0
LINE
  5
3CD
330
D
100
AcDbEntity
 67
     1
  8
LOGO
 62
     4
100
AcDbLine
 10
541.9803528671591
 20
-5.997897678520573
 30
0.0
 11
521.1633431627042
 21
-5.997897678520573
 31
0.0
  0
LINE
  5
3CE
330
D
100
AcDbEntity
 67
     1
  8
LOGO
 62
     4
100
AcDbLine
 10
556.7502258998867
 20
-41.43176210695563
 30
0.0
 11
511.9223424069635
 21
-41.43176210695563
 31
0.0
  0
TEXT
  5
3CF
330
D
100
AcDbEntity
 67
     1
  8
LOGO
 62
     7
100
AcDbText
 10
153.0046775336968
 20
4.263480352450486
 30
0.0
 40
13.71633461745888
  1
訂購代號:
  7
CHINESET
100
AcDbText
  0
TEXT
  5
3D0
330
D
100
AcDbEntity
 67
     1
  8
LOGO
 62
     7
100
AcDbText
 10
151.3641282938008
 20
-8.609692406257252
 30
0.0
 40
9.14422307830592
  1
Order example:
 41
0.8
  7
CHINESET
100
AcDbText
  0
LINE
  5
3D1
330
D
100
AcDbEntity
 67
     1
  8
LOGO
 62
     4
100
AcDbLine
 10
292.0152068039401
 20
-41.43176210695563
 30
0.0
 11
246.294091412411
 21
-41.43176210695563
 31
0.0
  0
LINE
  5
3D2
330
D
100
AcDbEntity
 67
     1
  8
LOGO
 62
     4
100
AcDbLine
 10
292.0152068039401
 20
-16.28514864161457
 30
0.0
 11
246.294091412411
 21
-16.28514864161457
 31
0.0
  0
LINE
  5
3D3
330
D
100
AcDbEntity
 67
     1
  8
LOGO
 62
     4
100
AcDbLine
 10
302.8046411059756
 20
-5.997897678520573
 30
0.0
 11
236.1012525844039
 21
-5.997897678520573
 31
0.0
  0
LINE
  5
3D4
330
D
100
AcDbEntity
 67
     1
  8
LOGO
 62
     4
100
AcDbLine
 10
302.8046411059756
 20
14.57660424766799
 30
0.0
 11
236.1012525844039
 21
14.57660424766799
 31
0.0
  0
TEXT
  5
3D5
330
D
100
AcDbEntity
 67
     1
  8
LOGO
  6
Continuous
 62
     7
100
AcDbText
 10
239.2182045065788
 20
-1.425786139367323
 30
0.0
 40
11.4302788478824
  1
MCBQI2
  7
CHINESET
 72
     1
 11
269.1546491081756
 21
4.289353284573877
 31
0.0
100
AcDbText
 73
     2
  0
LINE
  5
3D6
330
D
100
AcDbEntity
 67
     1
  8
LOGO
 62
     4
100
AcDbLine
 10
236.1012525844039
 20
14.57660424766799
 30
0.0
 11
236.1012525844039
 21
-5.997897678520573
 31
0.0
  0
LINE
  5
3D7
330
D
100
AcDbEntity
 67
     1
  8
LOGO
 62
     4
100
AcDbLine
 10
246.294091412411
 20
-16.28514864161457
 30
0.0
 11
246.294091412411
 21
-41.43176210695563
 31
0.0
  0
TEXT
  5
3D8
330
D
100
AcDbEntity
 67
     1
  8
LOGO
100
AcDbText
 10
261.4193854869493
 20
-37.90924302123154
 30
0.0
 40
4.55015507130957
  1
Model
 72
     4
 11
269.1546491081756
 21
-35.71662268301463
 31
0.0
100
AcDbText
  0
TEXT
  5
3D9
330
D
100
AcDbEntity
 67
     1
  8
LOGO
100
AcDbText
 10
260.0104260298697
 20
-28.62444966558831
 30
0.0
 40
9.14422307830592
  1
型式
 72
     4
 11
269.1546491081756
 21
-24.28634383513216
 31
0.0
100
AcDbText
  0
LINE
  5
3DA
330
D
100
AcDbEntity
 67
     1
  8
LOGO
 62
     4
100
AcDbLine
 10
269.1546491081756
 20
-5.997897678520573
 30
0.0
 11
269.1546491081756
 21
-16.28514864161457
 31
0.0
  0
LINE
  5
3DB
330
D
100
AcDbEntity
 67
     1
  8
LOGO
 62
     4
100
AcDbLine
 10
302.8046411059756
 20
14.57660424766799
 30
0.0
 11
302.8046411059756
 21
-5.997897678520573
 31
0.0
  0
LINE
  5
3DC
330
D
100
AcDbEntity
 67
     1
  8
LOGO
 62
     4
100
AcDbLine
 10
363.1948710907622
 20
14.57660424766799
 30
0.0
 11
363.1948710907622
 21
-5.997897678520573
 31
0.0
  0
LINE
  5
3DD
330
D
100
AcDbEntity
 67
     1
  8
LOGO
 62
     4
100
AcDbLine
 10
317.9273218053213
 20
14.57660424766799
 30
0.0
 11
317.9273218053213
 21
-5.997897678520573
 31
0.0
  0
TEXT
  5
3DE
330
D
100
AcDbEntity
 67
     1
  8
LOGO
100
AcDbText
 10
322.2868942928938
 20
-37.2267197605351
 30
0.0
 40
4.55015507130957
  1
Acting type
 72
     4
 11
337.9849292889119
 21
-35.71662268301463
 31
0.0
100
AcDbText
  0
TEXT
  5
3DF
330
D
100
AcDbEntity
 67
     1
  8
LOGO
100
AcDbText
 10
319.7917354560324
 20
-28.62444966558831
 30
0.0
 40
9.14422307830592
  1
作動型式
 72
     4
 11
337.9849292889119
 21
-24.28634383513216
 31
0.0
100
AcDbText
  0
LINE
  5
3E0
330
D
100
AcDbEntity
 67
     1
  8
LOGO
 62
     4
100
AcDbLine
 10
363.1948710907622
 20
-5.997897678520573
 30
0.0
 11
317.9273218053213
 21
-5.997897678520573
 31
0.0
  0
LINE
  5
3E1
330
D
100
AcDbEntity
 67
     1
  8
LOGO
 62
     4
100
AcDbLine
 10
363.1948710907622
 20
-16.28514864161457
 30
0.0
 11
312.7749874870617
 21
-16.28514864161457
 31
0.0
  0
LINE
  5
3E2
330
D
100
AcDbEntity
 67
     1
  8
LOGO
 62
     4
100
AcDbLine
 10
363.1948710907622
 20
-41.43176210695563
 30
0.0
 11
312.7749874870617
 21
-41.43176210695563
 31
0.0
  0
LINE
  5
3E3
330
D
100
AcDbEntity
 67
     1
  8
LOGO
 62
     4
100
AcDbLine
 10
292.0152068039401
 20
-16.28514864161457
 30
0.0
 11
292.0152068039401
 21
-41.43176210695563
 31
0.0
  0
LINE
  5
3E4
330
D
100
AcDbEntity
 67
     1
  8
LOGO
 62
     4
100
AcDbLine
 10
312.7749874870617
 20
-16.28514864161457
 30
0.0
 11
312.7749874870617
 21
-41.43176210695563
 31
0.0
  0
LINE
  5
3E5
330
D
100
AcDbEntity
 67
     1
  8
LOGO
 62
     4
100
AcDbLine
 10
363.1948710907622
 20
-16.28514864161457
 30
0.0
 11
363.1948710907622
 21
-41.43176210695563
 31
0.0
  0
LINE
  5
3E6
330
D
100
AcDbEntity
 67
     1
  8
LOGO
 62
     4
100
AcDbLine
 10
337.9849292889119
 20
-5.997897678520573
 30
0.0
 11
337.9849292889119
 21
-16.28514864161457
 31
0.0
  0
LINE
  5
3E7
330
D
100
AcDbEntity
 67
     1
  8
LOGO
 62
     4
100
AcDbLine
 10
363.1948710907622
 20
14.57660424766799
 30
0.0
 11
317.9273218053213
 21
14.57660424766799
 31
0.0
  0
LINE
  5
3E8
330
D
100
AcDbEntity
 67
     1
  8
LOGO
  6
Continuous
 62
     7
100
AcDbLine
 10
306.3493185840719
 20
4.21647514721134
 30
0.0
 11
314.3692794598371
 21
4.21647514721134
 31
0.0
  0
TEXT
  5
3E9
330
D
100
AcDbEntity
 67
     1
  8
LOGO
  6
Continuous
 62
     7
100
AcDbText
 10
332.2697898649707
 20
-1.555406221756006
 30
0.0
 40
11.4302788478824
  1
11
  7
CHINESET
 72
     1
 11
337.9849292889119
 21
4.159733202185194
 31
0.0
100
AcDbText
 73
     2
  0
TEXT
  5
3EA
330
D
100
AcDbEntity
 67
     1
  8
LOGO
  6
Continuous
 62
     7
100
AcDbText
 10
443.2841531021489
 20
-3.787170305867212
 30
0.0
 40
11.4302788478824
  1
*
  7
CHINESET
 72
     1
 11
446.0056480659305
 21
1.927969118073988
 31
0.0
100
AcDbText
 73
     2
  0
TEXT
  5
3EB
330
D
100
AcDbEntity
 67
     1
  8
LOGO
100
AcDbText
 10
435.8092126831756
 20
-37.99170021866942
 30
0.0
 40
4.55015507130957
  1
Stroke
 72
     4
 11
445.0469231777512
 21
-35.71662268301463
 31
0.0
100
AcDbText
  0
LINE
  5
3EC
330
D
100
AcDbEntity
 67
     1
  8
LOGO
 62
     4
100
AcDbLine
 10
462.2457882689372
 20
14.57660424766799
 30
0.0
 11
432.2737583649402
 21
14.57660424766799
 31
0.0
  0
TEXT
  5
3ED
330
D
100
AcDbEntity
 67
     1
  8
LOGO
100
AcDbText
 10
435.9027000994453
 20
-28.85845537428512
 30
0.0
 40
9.14422307830592
  1
行程
 72
     4
 11
445.0469231777512
 21
-24.28634383513216
 31
0.0
100
AcDbText
  0
LINE
  5
3EE
330
D
100
AcDbEntity
 67
     1
  8
LOGO
 62
     4
100
AcDbLine
 10
461.8019038811846
 20
-41.43176210695563
 30
0.0
 11
428.2919424743163
 21
-41.43176210695563
 31
0.0
  0
LINE
  5
3EF
330
D
100
AcDbEntity
 67
     1
  8
LOGO
 62
     4
100
AcDbLine
 10
462.2457882689372
 20
-5.997897678520573
 30
0.0
 11
432.2737583649402
 21
-5.997897678520573
 31
0.0
  0
LINE
  5
3F0
330
D
100
AcDbEntity
 67
     1
  8
LOGO
 62
     4
100
AcDbLine
 10
461.8019038811846
 20
-16.28514864161457
 30
0.0
 11
428.2919424743163
 21
-16.28514864161457
 31
0.0
  0
LINE
  5
3F1
330
D
100
AcDbEntity
 67
     1
  8
LOGO
 62
     4
100
AcDbLine
 10
416.0860892209723
 20
14.57660424766821
 30
0.0
 11
416.0860892209723
 21
-5.997897678520075
 31
0.0
  0
LINE
  5
3F2
330
D
100
AcDbEntity
 67
     1
  8
LOGO
 62
     4
100
AcDbLine
 10
379.3825402347309
 20
14.57660424766799
 30
0.0
 11
379.3825402347309
 21
-5.997897678520075
 31
0.0
  0
LINE
  5
3F3
330
D
100
AcDbEntity
 67
     1
  8
LOGO
 62
     4
100
AcDbLine
 10
432.2737583649402
 20
14.57660424766799
 30
0.0
 11
432.2737583649402
 21
-5.997897678520573
 31
0.0
  0
LINE
  5
3F4
330
D
100
AcDbEntity
 67
     1
  8
LOGO
 62
     4
100
AcDbLine
 10
416.0860892209723
 20
-41.43176210695563
 30
0.0
 11
379.3825402347309
 21
-41.43176210695563
 31
0.0
  0
LINE
  5
3F5
330
D
100
AcDbEntity
 67
     1
  8
LOGO
 62
     4
100
AcDbLine
 10
416.0860892209723
 20
-5.997897678520075
 30
0.0
 11
379.3825402347309
 21
-5.997897678520075
 31
0.0
  0
LINE
  5
3F6
330
D
100
AcDbEntity
 67
     1
  8
LOGO
 62
     4
100
AcDbLine
 10
416.0860892209723
 20
-16.28514864161425
 30
0.0
 11
379.3825402347309
 21
-16.28514864161425
 31
0.0
  0
LINE
  5
3F7
330
D
100
AcDbEntity
 67
     1
  8
LOGO
 62
     4
100
AcDbLine
 10
379.3825402347309
 20
-16.28514864161425
 30
0.0
 11
379.3825402347309
 21
-41.43176210695563
 31
0.0
  0
TEXT
  5
3F8
330
D
100
AcDbEntity
 67
     1
  8
LOGO
100
AcDbText
 10
391.364097628018
 20
-37.92102262086552
 30
0.0
 40
4.55015507130957
  1
Bore
 72
     4
 11
397.7343147278514
 21
-35.71662268301463
 31
0.0
100
AcDbText
  0
TEXT
  5
3F9
330
D
100
AcDbEntity
 67
     1
  8
LOGO
100
AcDbText
 10
388.0185777071513
 20
-28.85845537428512
 30
0.0
 40
9.14422307830592
  1
內徑
 72
     4
 11
397.7343147278514
 21
-24.28634383513216
 31
0.0
100
AcDbText
  0
LINE
  5
3FA
330
D
100
AcDbEntity
 67
     1
  8
LOGO
 62
     4
100
AcDbLine
 10
397.7343142007224
 20
-5.997897678520075
 30
0.0
 11
397.7343142007224
 21
-16.28514864161425
 31
0.0
  0
LINE
  5
3FB
330
D
100
AcDbEntity
 67
     1
  8
LOGO
 62
     4
100
AcDbLine
 10
416.0860892209723
 20
-16.28514864161425
 30
0.0
 11
416.0860892209723
 21
-41.43176210695563
 31
0.0
  0
LINE
  5
3FC
330
D
100
AcDbEntity
 67
     1
  8
LOGO
 62
     4
100
AcDbLine
 10
428.2919424743163
 20
-16.28514864161457
 30
0.0
 11
428.2919424743163
 21
-41.43176210695563
 31
0.0
  0
LINE
  5
3FD
330
D
100
AcDbEntity
 67
     1
  8
LOGO
 62
     4
100
AcDbLine
 10
416.0860892209723
 20
14.57660424766821
 30
0.0
 11
379.3825402347309
 21
14.57660424766799
 31
0.0
  0
LINE
  5
3FE
330
D
100
AcDbEntity
 67
     1
  8
LOGO
  6
Continuous
 62
     7
100
AcDbLine
 10
366.7395485688587
 20
4.216475147211568
 30
0.0
 11
375.8244978892463
 21
4.216475147211568
 31
0.0
  0
TEXT
  5
3FF
330
D
100
AcDbEntity
 67
     1
  8
LOGO
  6
Continuous
 62
     7
100
AcDbText
 10
385.1936662291691
 20
-1.555406221755879
 30
0.0
 40
11.4302788478824
  1
100
  7
CHINESET
 72
     1
 11
398.8011410480767
 21
4.159733202185321
 31
0.0
100
AcDbText
 73
     2
  0
LINE
  5
400
330
D
100
AcDbEntity
 67
     1
  8
LOGO
  6
Continuous
 62
     7
100
AcDbLine
 10
419.6307666990683
 20
4.216475147211568
 30
0.0
 11
428.7157160194567
 21
4.216475147211568
 31
0.0
  0
TEXT
  5
401
330
D
100
AcDbEntity
 67
     1
  8
LOGO
  6
Continuous
 62
     7
100
AcDbText
 10
472.8390034434567
 20
-0.9315077581844573
 30
0.0
 40
11.4302788478824
  1
(M)
  7
CHINESET
 72
     1
 11
485.0857307804735
 21
4.783631665756743
 31
0.0
100
AcDbText
 73
     2
  0
LINE
  5
402
330
D
100
AcDbEntity
 67
     1
  8
LOGO
 62
     4
100
AcDbLine
 10
521.1633431627042
 20
14.57660424766799
 30
0.0
 11
521.1633431627042
 21
-5.997897678520573
 31
0.0
  0
LINE
  5
403
330
D
100
AcDbEntity
 67
     1
  8
LOGO
 62
     4
100
AcDbLine
 10
505.1520416044093
 20
14.57660424766799
 30
0.0
 11
505.1520416044093
 21
-5.997897678520573
 31
0.0
  0
LINE
  5
404
330
D
100
AcDbEntity
 67
     1
  8
LOGO
 62
     4
100
AcDbLine
 10
467.0031785650232
 20
14.57660424766799
 30
0.0
 11
467.0031785650232
 21
-5.997897678520573
 31
0.0
  0
LINE
  5
405
330
D
100
AcDbEntity
 67
     1
  8
LOGO
 62
     4
100
AcDbLine
 10
462.2457882689372
 20
14.57660424766799
 30
0.0
 11
462.2457882689372
 21
-5.997897678520573
 31
0.0
  0
LINE
  5
406
330
D
100
AcDbEntity
 67
     1
  8
LOGO
 62
     4
100
AcDbLine
 10
506.8876123091619
 20
-41.43176210695563
 30
0.0
 11
473.3776509022943
 21
-41.43176210695563
 31
0.0
  0
LINE
  5
407
330
D
100
AcDbEntity
 67
     1
  8
LOGO
 62
     4
100
AcDbLine
 10
506.8876123091619
 20
-16.28514864161457
 30
0.0
 11
473.3776509022943
 21
-16.28514864161457
 31
0.0
  0
TEXT
  5
408
330
D
100
AcDbEntity
 67
     1
  8
LOGO
100
AcDbText
 10
478.9847516810197
 20
-37.99170021866941
 30
0.0
 40
4.55015507130957
  1
MAGNET
 72
     4
 11
490.1326316057281
 21
-35.71662268301463
 31
0.0
100
AcDbText
  0
TEXT
  5
409
330
D
100
AcDbEntity
 67
     1
  8
LOGO
100
AcDbText
 10
476.4162969882693
 20
-28.76320305055277
 30
0.0
 40
9.14422307830592
  1
附磁石
 72
     4
 11
490.1326316057281
 21
-24.28634383513216
 31
0.0
100
AcDbText
  0
LINE
  5
40A
330
D
100
AcDbEntity
 67
     1
  8
LOGO
 62
     4
100
AcDbLine
 10
505.1520416044093
 20
-5.997897678520573
 30
0.0
 11
467.0031785650232
 21
-5.997897678520573
 31
0.0
  0
LINE
  5
40B
330
D
100
AcDbEntity
 67
     1
  8
LOGO
 62
     4
100
AcDbLine
 10
473.3776509022943
 20
-16.28514864161457
 30
0.0
 11
473.3776509022943
 21
-41.43176210695563
 31
0.0
  0
LINE
  5
40C
330
D
100
AcDbEntity
 67
     1
  8
LOGO
 62
     4
100
AcDbLine
 10
461.8019038811846
 20
-16.28514864161457
 30
0.0
 11
461.8019038811846
 21
-41.52658151388729
 31
0.0
  0
LINE
  5
40D
330
D
100
AcDbEntity
 67
     1
  8
LOGO
 62
     4
100
AcDbLine
 10
445.5310890326927
 20
-5.997897678520573
 30
0.0
 11
445.5310890326927
 21
-16.28514864161457
 31
0.0
  0
LINE
  5
40E
330
D
100
AcDbEntity
 67
     1
  8
LOGO
 62
     4
100
AcDbLine
 10
490.1326316057281
 20
-5.997897678520573
 30
0.0
 11
490.1326316057281
 21
-16.28514864161457
 31
0.0
  0
LINE
  5
40F
330
D
100
AcDbEntity
 67
     1
  8
LOGO
 62
     4
100
AcDbLine
 10
506.8876123091619
 20
-16.28514864161457
 30
0.0
 11
506.8876123091619
 21
-41.52658151388729
 31
0.0
  0
LINE
  5
410
330
D
100
AcDbEntity
 67
     1
  8
LOGO
 62
     4
100
AcDbLine
 10
511.9223424069635
 20
-16.28514864161425
 30
0.0
 11
511.9223424069635
 21
-41.43176210695563
 31
0.0
  0
LINE
  5
411
330
D
100
AcDbEntity
 67
     1
  8
LOGO
 62
     4
100
AcDbLine
 10
531.5718480149318
 20
-5.997897678520573
 30
0.0
 11
531.5718480149318
 21
-16.28514864161425
 31
0.0
  0
LINE
  5
412
330
D
100
AcDbEntity
 67
     1
  8
LOGO
 62
     4
100
AcDbLine
 10
505.1520416044093
 20
14.57660424766799
 30
0.0
 11
467.0031785650232
 21
14.57660424766799
 31
0.0
  0
LINE
  5
413
330
D
100
AcDbEntity
 67
     1
  8
LOGO
  6
Continuous
 62
     7
100
AcDbLine
 10
508.696719082505
 20
4.216475147211568
 30
0.0
 11
517.7816684028937
 21
4.216475147211568
 31
0.0
  0
TEXT
  5
414
330
D
100
AcDbEntity
 67
     1
  8
LOGO
  6
Continuous
 62
     7
100
AcDbText
 10
528.8588932047905
 20
-1.555406221756006
 30
0.0
 40
11.4302788478824
  1
?
  7
CHINESET
 72
     1
 11
531.8525376649501
 21
4.159733202185194
 31
0.0
100
AcDbText
 73
     2
  0
LINE
  5
415
330
D
100
AcDbEntity
 67
     1
  8
LOGO
 62
     4
100
AcDbLine
 10
541.9803528671591
 20
14.57660424766799
 30
0.0
 11
541.9803528671591
 21
-5.997897678520573
 31
0.0
  0
TEXT
  5
416
330
D
100
AcDbEntity
 67
     1
  8
LOGO
100
AcDbText
 10
526.4858348152373
 20
-28.85845537428487
 30
0.0
 40
9.14422307830592
  1
配件
 72
     4
 11
535.7253102172755
 21
-24.28634383513191
 31
0.0
100
AcDbText
  0
LINE
  5
417
330
D
100
AcDbEntity
 67
     1
  8
LOGO
 62
     4
100
AcDbLine
 10
556.7502258998867
 20
-16.28514864161425
 30
0.0
 11
556.7502258998867
 21
-41.43176210695563
 31
0.0
  0
LINE
  5
418
330
D
100
AcDbEntity
 67
     1
  8
LOGO
 62
     4
100
AcDbLine
 10
147.3909323508548
 20
-47.14690153089728
 30
0.0
 11
147.3909323508548
 21
21.43477155639864
 31
0.0
  0
TEXT
  5
419
330
D
100
AcDbEntity
 67
     1
  8
LOGO
  6
Continuous
100
AcDbText
 10
21.1460968123481
 20
-33.6741353516673
 30
0.0
 40
10.28725096309424
  1
金器工業股份有限公司
  7
CHINESET
100
AcDbText
  0
TEXT
  5
41A
330
D
100
AcDbEntity
 67
     1
  8
LOGO
  6
Continuous
100
AcDbText
 10
2.250452025380127
 20
-43.9634018093987
 30
0.0
 40
6.858167308729499
  1
MINDMAN INDUSTRIAL CO., LTD.
 41
0.85
  7
CHINESET
100
AcDbText
  0
LINE
  5
41B
330
D
100
AcDbEntity
 67
     1
  8
LOGO
 62
     4
100
AcDbLine
 10
147.3909323508548
 20
7.718436938939092
 30
0.0
 11
46.80447848948688
 21
7.718436938939092
 31
0.0
  0
LINE
  5
41C
330
D
100
AcDbEntity
 67
     1
  8
LOGO
 62
     4
100
AcDbLine
 10
147.3909323508548
 20
-5.997897678520075
 30
0.0
 11
46.80447848948688
 21
-5.997897678520075
 31
0.0
  0
LINE
  5
41D
330
D
100
AcDbEntity
 67
     1
  8
LOGO
 62
     4
100
AcDbLine
 10
147.3909323508548
 20
-19.71423229597881
 30
0.0
 11
-3.488748441195639
 21
-19.71423229597881
 31
0.0
  0
LINE
  5
41E
330
D
100
AcDbEntity
 67
     1
  8
LOGO
 62
     4
100
AcDbLine
 10
46.80447848948688
 20
-19.71423229597881
 30
0.0
 11
46.80447848948688
 21
21.43477155639864
 31
0.0
  0
TEXT
  5
41F
330
D
100
AcDbEntity
 67
     1
  8
LOGO
100
AcDbText
 10
115.5505720954244
 20
-16.28514864161456
 30
0.0
 40
6.858167308729499
  1
mm
  7
CHINESET
 72
     1
 11
124.0416363824229
 21
-12.85606498724981
 31
0.0
100
AcDbText
 73
     2
  0
TEXT
  5
420
330
D
100
AcDbEntity
 67
     1
  8
LOGO
100
AcDbText
 10
111.9581987432328
 20
11.14752059330346
 30
0.0
 40
6.858167308729499
  1
1 : 1
  7
CHINESET
 72
     1
 11
124.0416363824229
 21
14.57660424766821
 31
0.0
100
AcDbText
 73
     2
  0
LINE
  5
421
330
D
100
AcDbEntity
 67
     1
  8
LOGO
 62
     4
100
AcDbLine
 10
101.6698169593244
 20
-19.71423229597881
 30
0.0
 11
101.6698169593244
 21
21.43477155639864
 31
0.0
  0
TEXT
  5
422
330
D
100
AcDbEntity
 67
     1
  8
LOGO
100
AcDbText
 10
52.4594048373558
 20
11.15089567564043
 30
449.4729872435057
 40
6.858167308729499
  1
比例 Scale:
 41
0.9
  7
CHINESET
 72
     4
 11
74.23714772440622
 21
14.57660424766821
 31
449.4729872435057
100
AcDbText
  0
TEXT
  5
423
330
D
100
AcDbEntity
 67
     1
  8
LOGO
100
AcDbText
 10
52.06444788073699
 20
-2.472342920690111
 30
449.4729872435057
 40
6.858167308729499
  1
投影  View:
 41
0.9
  7
CHINESET
 72
     4
 11
74.23714772440622
 21
0.8602696302094869
 31
449.4729872435057
100
AcDbText
  0
TEXT
  5
424
330
D
100
AcDbEntity
 67
     1
  8
LOGO
100
AcDbText
 10
52.73495620243868
 20
-16.28514864161456
 30
449.4729872435057
 40
6.858167308729499
  1
單位  Unit:
 41
0.9
  7
CHINESET
 72
     4
 11
74.23714772440622
 21
-12.85606498724981
 31
449.4729872435057
100
AcDbText
  0
SOLID
  5
425
330
D
100
AcDbEntity
 67
     1
  8
LOGO
 62
     5
100
AcDbTrace
 10
3.626710206825237
 20
-8.313505328461701
 30
0.0
 11
6.592001792809014
 21
-8.313505328463577
 31
0.0
 12
18.96442530674448
 22
19.80563902139094
 32
0.0
 13
21.92971689272986
 23
19.80563902138873
 33
0.0
  0
SOLID
  5
426
330
D
100
AcDbEntity
 67
     1
  8
LOGO
 62
     5
100
AcDbTrace
 10
7.81901900080561
 20
-8.313505328461701
 30
0.0
 11
10.78431058679007
 21
-8.313505328461701
 31
0.0
 12
21.92971689272986
 22
17.55610747340175
 32
0.0
 13
18.96442530674448
 23
6.683371658125324
 33
0.0
  0
SOLID
  5
427
330
D
100
AcDbEntity
 67
     1
  8
LOGO
 62
     2
100
AcDbTrace
 10
6.592001792809014
 20
-8.313505328463577
 30
0.0
 11
7.81901900080561
 21
-8.313505328461701
 31
0.0
 12
21.92971689272986
 22
19.80563902138873
 32
0.0
 13
23.15673410072577
 23
19.80563902138873
 33
0.0
  0
SOLID
  5
428
330
D
100
AcDbEntity
 67
     1
  8
LOGO
 62
     5
100
AcDbTrace
 10
-1.127379384079858
 20
-18.53864872840836
 30
0.0
 11
-0.1048650440834535
 21
-18.53864872840836
 31
0.0
 12
2.774614923496301
 22
-13.42607702843522
 32
0.0
 13
3.797129263490887
 23
-13.42607702843522
 33
0.0
  0
SOLID
  5
429
330
D
100
AcDbEntity
 67
     1
  8
LOGO
 62
     5
100
AcDbTrace
 10
2.774614923496301
 20
-13.42607702843522
 30
0.0
 11
3.797129263490887
 21
-13.42607702843522
 31
0.0
 12
2.774614923496301
 22
-18.53864872840836
 32
0.0
 13
3.797129263490887
 23
-18.53864872840836
 33
0.0
  0
SOLID
  5
42A
330
D
100
AcDbEntity
 67
     1
  8
LOGO
 62
     5
100
AcDbTrace
 10
2.774614923496301
 20
-18.53864872840836
 30
0.0
 11
3.797129263490887
 21
-18.53864872840836
 31
0.0
 12
6.676609231076099
 22
-13.42607702843522
 32
0.0
 13
7.699123571069549
 23
-13.42607702843522
 33
0.0
  0
SOLID
  5
42B
330
D
100
AcDbEntity
 67
     1
  8
LOGO
 62
     5
100
AcDbTrace
 10
6.676609231076099
 20
-13.42607702843522
 30
0.0
 11
7.699123571069549
 21
-13.42607702843522
 31
0.0
 12
6.676609231076099
 22
-18.53864872840836
 32
0.0
 13
7.699123571069549
 23
-18.53864872840836
 33
0.0
  0
POLYLINE
  5
42C
330
D
100
AcDbEntity
 67
     1
  8
LOGO
 62
     5
100
AcDb2dPolyline
 66
     1
 10
0.0
 20
0.0
 30
0.0
 40
1.024152984770271
 41
1.024152984770271
  0
VERTEX
  5
42D
330
42C
100
AcDbEntity
 67
     1
  8
LOGO
 62
     5
100
AcDbVertex
100
AcDb2dVertex
 10
40.95094158379493
 20
-15.4711057084253
 30
0.0
 42
1.0
  0
VERTEX
  5
42E
330
42C
100
AcDbEntity
 67
     1
  8
LOGO
 62
     5
100
AcDbVertex
100
AcDb2dVertex
 10
37.87848262948501
 20
-15.4711057084253
 30
0.0
 42
1.0
  0
SEQEND
  5
42F
330
42C
100
AcDbEntity
 67
     1
  8
LOGO
 62
     5
  0
POLYLINE
  5
430
330
D
100
AcDbEntity
 67
     1
  8
LOGO
 62
     5
100
AcDb2dPolyline
 66
     1
 10
0.0
 20
0.0
 30
0.0
 70
     1
  0
VERTEX
  5
431
330
430
100
AcDbEntity
 67
     1
  8
LOGO
 62
     5
100
AcDbVertex
100
AcDb2dVertex
 10
32.08676083763271
 20
-15.98236287842214
 30
0.0
 42
1.000000057330635
  0
VERTEX
  5
432
330
430
100
AcDbEntity
 67
     1
  8
LOGO
 62
     5
100
AcDbVertex
100
AcDb2dVertex
 10
35.15430385761533
 20
-15.98236287842214
 30
0.0
 42
1.000000057330635
  0
SEQEND
  5
433
330
430
100
AcDbEntity
 67
     1
  8
LOGO
 62
     5
  0
CIRCLE
  5
434
330
D
100
AcDbEntity
 67
     1
  8
LOGO
 62
     5
100
AcDbCircle
 10
33.62053234762607
 20
-15.98236287842214
 30
0.0
 40
1.533771509991958
  0
POLYLINE
  5
435
330
D
100
AcDbEntity
 67
     1
  8
LOGO
 62
     5
100
AcDb2dPolyline
 66
     1
 10
0.0
 20
0.0
 30
0.0
 70
     1
 40
1.024152984770271
 41
1.024152984770271
  0
VERTEX
  5
436
330
435
100
AcDbEntity
 67
     1
  8
LOGO
 62
     5
100
AcDbVertex
100
AcDb2dVertex
 10
31.57222637808468
 20
-15.98236287842214
 30
0.0
 42
1.0
  0
VERTEX
  5
437
330
435
100
AcDbEntity
 67
     1
  8
LOGO
 62
     5
100
AcDbVertex
100
AcDb2dVertex
 10
35.66883831716586
 20
-15.98236287842214
 30
0.0
 42
1.0
  0
SEQEND
  5
438
330
435
100
AcDbEntity
 67
     1
  8
LOGO
 62
     5
  0
LINE
  5
439
330
D
100
AcDbEntity
 67
     1
  8
LOGO
100
AcDbLine
 10
41.4597407866263
 20
-18.53864872840836
 30
0.0
 11
41.4597407866263
 21
-15.4711057084253
 31
0.0
  0
SOLID
  5
43A
330
D
100
AcDbEntity
 67
     1
  8
LOGO
 62
     5
100
AcDbTrace
 10
35.15420160618532
 20
-13.42607702843522
 30
0.0
 11
36.17671594617878
 21
-13.42607702843522
 31
0.0
 12
35.15420160618532
 22
-18.53864872840836
 32
0.0
 13
36.17671594617878
 23
-18.53864872840836
 33
0.0
  0
SOLID
  5
43B
330
D
100
AcDbEntity
 67
     1
  8
LOGO
 62
     5
100
AcDbTrace
 10
37.36968342664909
 20
-18.53864872840836
 30
0.0
 11
38.39219776664368
 21
-18.53864872840836
 31
0.0
 12
37.36968342664909
 22
-13.42607702843522
 32
0.0
 13
38.39219776664368
 23
-13.42607702843522
 33
0.0
  0
SOLID
  5
43C
330
D
100
AcDbEntity
 67
     1
  8
LOGO
 62
     5
100
AcDbTrace
 10
40.43722644663421
 20
-15.4711057084253
 30
0.0
 11
41.4597407866263
 21
-15.4711057084253
 31
0.0
 12
40.43722644663421
 22
-18.53864872840836
 32
0.0
 13
41.4597407866263
 23
-18.53864872840836
 33
0.0
  0
SOLID
  5
43D
330
D
100
AcDbEntity
 67
     1
  8
LOGO
 62
     5
100
AcDbTrace
 10
37.26743199264843
 20
17.55610747340175
 30
0.0
 11
34.30214040666556
 21
6.683371658125324
 31
0.0
 12
37.26743199264843
 22
-8.313505328463577
 32
0.0
 13
34.30214040666556
 23
-8.313505328463577
 33
0.0
  0
SOLID
  5
43E
330
D
100
AcDbEntity
 67
     1
  8
LOGO
 62
     5
100
AcDbTrace
 10
38.49444920064343
 20
-8.313505328463577
 30
0.0
 11
41.4597407866263
 21
-8.313505328463577
 31
0.0
 12
38.49444920064343
 22
19.80563902138873
 32
0.0
 13
41.4597407866263
 23
19.80563902139094
 33
0.0
  0
SOLID
  5
43F
330
D
100
AcDbEntity
 67
     1
  8
LOGO
 62
     2
100
AcDbTrace
 10
37.26743199264843
 20
19.80563902139094
 30
0.0
 11
38.49444920064343
 21
19.80563902138873
 31
0.0
 12
37.26743199264843
 22
-8.313505328463577
 32
0.0
 13
38.49444920064343
 23
-8.313505328463577
 33
0.0
  0
POLYLINE
  5
440
330
D
100
AcDbEntity
 67
     1
  8
LOGO
 62
     5
100
AcDb2dPolyline
 66
     1
 10
0.0
 20
0.0
 30
0.0
 40
1.024152984770271
 41
1.024152984770271
  0
VERTEX
  5
441
330
440
100
AcDbEntity
 67
     1
  8
LOGO
 62
     5
100
AcDbVertex
100
AcDb2dVertex
 10
26.29483454291676
 20
-15.4711057084253
 30
0.0
 42
1.0
  0
VERTEX
  5
442
330
440
100
AcDbEntity
 67
     1
  8
LOGO
 62
     5
100
AcDbVertex
100
AcDb2dVertex
 10
23.22237558860388
 20
-15.4711057084253
 30
0.0
 42
1.0
  0
SEQEND
  5
443
330
440
100
AcDbEntity
 67
     1
  8
LOGO
 62
     5
  0
POLYLINE
  5
444
330
D
100
AcDbEntity
 67
     1
  8
LOGO
 62
     5
100
AcDb2dPolyline
 66
     1
 10
0.0
 20
0.0
 30
0.0
 40
1.024152984770271
 41
1.024152984770271
  0
VERTEX
  5
445
330
444
100
AcDbEntity
 67
     1
  8
LOGO
 62
     5
100
AcDbVertex
100
AcDb2dVertex
 10
29.36237756289893
 20
-15.4711057084253
 30
0.0
 42
1.0
  0
VERTEX
  5
446
330
444
100
AcDbEntity
 67
     1
  8
LOGO
 62
     5
100
AcDbVertex
100
AcDb2dVertex
 10
26.2899186085881
 20
-15.4711057084253
 30
0.0
 42
1.0
  0
SEQEND
  5
447
330
444
100
AcDbEntity
 67
     1
  8
LOGO
 62
     5
  0
POLYLINE
  5
448
330
D
100
AcDbEntity
 67
     1
  8
LOGO
 62
     5
100
AcDb2dPolyline
 66
     1
 10
0.0
 20
0.0
 30
0.0
 40
1.024152984770271
 41
1.024152984770271
  0
VERTEX
  5
449
330
448
100
AcDbEntity
 67
     1
  8
LOGO
 62
     5
100
AcDbVertex
100
AcDb2dVertex
 10
14.70627052201826
 20
-15.4711057084253
 30
0.0
 42
1.0
  0
VERTEX
  5
44A
330
448
100
AcDbEntity
 67
     1
  8
LOGO
 62
     5
100
AcDbVertex
100
AcDb2dVertex
 10
11.63381156770788
 20
-15.4711057084253
 30
0.0
 42
1.0
  0
SEQEND
  5
44B
330
448
100
AcDbEntity
 67
     1
  8
LOGO
 62
     5
  0
SOLID
  5
44C
330
D
100
AcDbEntity
 67
     1
  8
LOGO
 62
     5
100
AcDbTrace
 10
11.12501236487446
 20
-13.42607702843522
 30
0.0
 11
12.14752670486746
 21
-13.42607702843522
 31
0.0
 12
11.12501236487446
 22
-18.53864872840836
 32
0.0
 13
12.14752670486746
 23
-18.53864872840836
 33
0.0
  0
SOLID
  5
44D
330
D
100
AcDbEntity
 67
     1
  8
LOGO
 62
     5
100
AcDbTrace
 10
14.19255538485959
 20
-15.4711057084253
 30
0.0
 11
15.21506972485599
 21
-15.4711057084253
 31
0.0
 12
14.19255538485959
 22
-18.53864872840836
 32
0.0
 13
15.21506972485599
 23
-18.53864872840836
 33
0.0
  0
POLYLINE
  5
44E
330
D
100
AcDbEntity
 67
     1
  8
LOGO
 62
     5
100
AcDb2dPolyline
 66
     1
 10
0.0
 20
0.0
 30
0.0
 70
     1
 40
1.024152984770271
 41
1.024152984770271
  0
VERTEX
  5
44F
330
44E
100
AcDbEntity
 67
     1
  8
LOGO
 62
     5
100
AcDbVertex
100
AcDb2dVertex
 10
16.91611933720446
 20
-15.98236287842214
 30
0.0
 42
1.0
  0
VERTEX
  5
450
330
44E
100
AcDbEntity
 67
     1
  8
LOGO
 62
     5
100
AcDbVertex
100
AcDb2dVertex
 10
21.0127312762852
 20
-15.98236287842214
 30
0.0
 42
1.0
  0
SEQEND
  5
451
330
44E
100
AcDbEntity
 67
     1
  8
LOGO
 62
     5
  0
SOLID
  5
452
330
D
100
AcDbEntity
 67
     1
  8
LOGO
 62
     5
100
AcDbTrace
 10
20.49809456530466
 20
-11.89230551844272
 30
0.0
 11
21.5206089052997
 21
-11.89230551844272
 31
0.0
 12
20.49809456530466
 22
-18.53864872840836
 32
0.0
 13
21.5206089052997
 23
-18.53864872840836
 33
0.0
  0
SOLID
  5
453
330
D
100
AcDbEntity
 67
     1
  8
LOGO
 62
     5
100
AcDbTrace
 10
22.71357638577342
 20
-13.42607702843522
 30
0.0
 11
23.73609072576664
 21
-13.42607702843522
 31
0.0
 12
22.71357638577342
 22
-18.53864872840836
 32
0.0
 13
23.73609072576664
 23
-18.53864872840836
 33
0.0
  0
SOLID
  5
454
330
D
100
AcDbEntity
 67
     1
  8
LOGO
 62
     5
100
AcDbTrace
 10
25.78111940575423
 20
-15.4711057084253
 30
0.0
 11
26.80363374574972
 21
-15.4711057084253
 31
0.0
 12
25.78111940575423
 22
-18.53864872840836
 32
0.0
 13
26.80363374574972
 23
-18.53864872840836
 33
0.0
  0
SOLID
  5
455
330
D
100
AcDbEntity
 67
     1
  8
LOGO
 62
     5
100
AcDbTrace
 10
28.8486624257373
 20
-15.4711057084253
 30
0.0
 11
29.87117676573325
 21
-15.4711057084253
 31
0.0
 12
28.8486624257373
 22
-18.53864872840955
 32
0.0
 13
29.87117676573325
 23
-18.53864872840955
 33
0.0
  0
SOLID
  5
456
330
D
100
AcDbEntity
 67
     1
  8
LOGO
 62
     5
100
AcDbTrace
 10
8.909530544407061
 20
-12.71031699043925
 30
0.0
 11
9.93204488440665
 21
-12.71031699043925
 31
0.0
 12
8.909530544407061
 22
-11.89230551844272
 32
0.0
 13
9.93204488440665
 23
-11.89230551844272
 33
0.0
  0
SOLID
  5
457
330
D
100
AcDbEntity
 67
     1
  8
LOGO
 62
     5
100
AcDbTrace
 10
8.909530544407061
 20
-13.42607702843522
 30
0.0
 11
9.93204488440665
 21
-13.42607702843522
 31
0.0
 12
8.909530544407061
 22
-18.53864872840955
 32
0.0
 13
9.93204488440665
 23
-18.53864872840836
 33
0.0
  0
SOLID
  5
458
330
D
100
AcDbEntity
 67
     1
  8
LOGO
 62
     5
100
AcDbTrace
 10
18.96442530674448
 20
-8.313505328461701
 30
0.0
 11
21.92971689272986
 21
-8.313505328461701
 31
0.0
 12
18.96442530674448
 22
6.683371658125324
 32
0.0
 13
21.92971689272986
 23
17.55610747340175
 33
0.0
  0
SOLID
  5
459
330
D
100
AcDbEntity
 67
     1
  8
LOGO
 62
     5
100
AcDbTrace
 10
23.15673410072577
 20
19.80563902138873
 30
0.0
 11
26.12202568670909
 21
19.80563902139094
 31
0.0
 12
23.15673410072577
 22
-6.063973780475365
 32
0.0
 13
26.12202568670909
 23
4.808762034801745
 33
0.0
  0
SOLID
  5
45A
330
D
100
AcDbEntity
 67
     1
  8
LOGO
 62
     2
100
AcDbTrace
 10
21.92971689272986
 20
19.80563902138873
 30
0.0
 11
23.15673410072577
 21
19.80563902138873
 31
0.0
 12
21.92971689272986
 22
-8.313505328461701
 32
0.0
 13
23.15673410072577
 23
-8.313505328461701
 33
0.0
  0
SOLID
  5
45B
330
D
100
AcDbEntity
 67
     1
  8
LOGO
 62
     5
100
AcDbTrace
 10
23.15673410072577
 20
-6.063973780475365
 30
0.0
 11
26.12202568670909
 21
4.808762034801745
 31
0.0
 12
37.26743199264843
 22
19.80563902139094
 32
0.0
 13
34.30214040666556
 23
19.80563902139094
 33
0.0
  0
SOLID
  5
45C
330
D
100
AcDbEntity
 67
     1
  8
LOGO
 62
     5
100
AcDbTrace
 10
23.15673410072577
 20
-8.313505328461701
 30
0.0
 11
26.12202568670909
 21
-8.313505328461701
 31
0.0
 12
37.26743199264843
 22
17.55610747340175
 32
0.0
 13
34.30214040666556
 23
6.683371658125324
 33
0.0
  0
SOLID
  5
45D
330
D
100
AcDbEntity
 67
     1
  8
LOGO
 62
     2
100
AcDbTrace
 10
21.92971689272986
 20
-8.313505328461701
 30
0.0
 11
23.15673410072577
 21
-8.313505328461701
 31
0.0
 12
37.26743199264843
 22
19.80563902139094
 32
0.0
 13
38.49444920064343
 23
19.80563902138873
 33
0.0
  0
LWPOLYLINE
  5
45E
330
D
100
AcDbEntity
 67
     1
  8
LOGO
 62
     4
100
AcDbPolyline
 90
        4
 70
     1
 43
0.0
 10
-3.488748441192683
 20
21.43477155639744
 10
817.2518731298634
 20
21.43477155639744
 10
817.2518731298634
 20
-47.14690153089777
 10
-3.488748441192683
 20
-47.14690153089777
1001
GENIUS_GENREC_14
1002
{
1000
PYDIR
1011
-3.488748441192683
1021
-47.14690153089777
1031
0.0
1002
}
1002
{
1000
PXDIR
1011
817.2518731298634
1021
21.43477155639744
1031
0.0
1002
}
1002
{
1000
PORI
1011
-3.488748441192683
1021
21.43477155639744
1031
0.0
1002
}
1002
{
1000
PINS
1011
-3.488748441192683
1021
21.43477155639744
1031
0.0
1002
}
1002
{
1000
PINS2
1011
817.2518731298634
1021
-47.14690153089777
1031
0.0
1002
}
1002
{
1000
C
1070
     1
1002
}
1001
GENIUS_GENOBJ-N-REC_13
1002
{
1000
OWNER
1000
GEN
1002
}
1001
GENIUS_GENODEF_13
1002
{
1000
HIER
1070
     0
1002
}
1002
{
1000
MANEDIT
1070
     0
1002
}
1002
{
1000
NOSEL
1070
     0
1002
}
1002
{
1000
BEHIND
1070
     0
1002
}
1002
{
1000
OTHER
1070
     0
1002
}
1002
{
1000
REACTOR
1002
}
  0
TEXT
  5
45F
330
D
100
AcDbEntity
 67
     1
  8
LOGO
100
AcDbText
 10
150.568560511011
 20
-43.49838359140565
 30
0.0
 40
6.859160490338958
  1
1120724B
 41
0.7
  7
CHINESET
 72
     1
 11
167.2591843708358
 21
-43.49838359140565
 31
0.0
100
AcDbText
  0
LINE
  5
460
330
D
100
AcDbEntity
 67
     1
  8
LOGO
 62
     4
100
AcDbLine
 10
188.5458952928838
 20
-33.43056691343667
 30
0.0
 11
188.5458952928889
 21
-47.14690153089671
 31
0.0
  0
LINE
  5
461
330
D
100
AcDbEntity
 67
     1
  8
LOGO
 62
     4
100
AcDbLine
 10
188.5458952928838
 20
-33.43056691343667
 30
0.0
 11
147.3909323508548
 21
-33.43056691343667
 31
0.0
  0
CIRCLE
  5
462
330
D
100
AcDbEntity
 67
     1
  8
LOGO
  6
Continuous
100
AcDbCircle
 10
114.3685715374449
 20
0.8749393002694745
 30
0.0
 40
3.982013362510148
  0
CIRCLE
  5
463
330
D
100
AcDbEntity
 67
     1
  8
LOGO
  6
Continuous
100
AcDbCircle
 10
114.3685715374449
 20
0.8749393002694745
 30
0.0
 40
2.333107322732373
  0
LINE
  5
464
330
D
100
AcDbEntity
 67
     1
  8
LOGO
100
AcDbLine
 10
139.3920055607482
 20
-3.107074062240997
 30
0.0
 11
139.3920055607482
 21
4.856952662780344
 31
0.0
  0
LINE
  5
465
330
D
100
AcDbEntity
 67
     1
  8
LOGO
100
AcDbLine
 10
126.9086222477515
 20
-1.458168022462558
 30
0.0
 11
126.9086222477515
 21
3.208046623002559
 31
0.0
  0
LINE
  5
466
330
D
100
AcDbEntity
 67
     1
  8
LOGO
  6
Continuous
100
AcDbLine
 10
126.9086222477515
 20
3.208046623002559
 30
0.0
 11
139.3920055607482
 21
4.856952662780344
 31
0.0
  0
LINE
  5
467
330
D
100
AcDbEntity
 67
     1
  8
LOGO
  6
Continuous
100
AcDbLine
 10
126.9086222477515
 20
-1.458168022462558
 30
0.0
 11
139.3920055607482
 21
-3.107074062240997
 31
0.0
  0
LINE
  5
468
330
D
100
AcDbEntity
 67
     1
  8
LOGO
  6
AM_ISO08W050x2
 48
0.3
100
AcDbLine
 10
108.8793064912679
 20
0.8749393002694745
 30
0.0
 11
119.8578365836174
 21
0.8749393002694745
 31
0.0
1001
GENIUS_GENOREF_13
1005
46E
  0
LINE
  5
469
330
D
100
AcDbEntity
 67
     1
  8
LOGO
  6
AM_ISO08W050x2
 48
0.3
100
AcDbLine
 10
114.3685715374449
 20
-4.614325745904821
 30
0.0
 11
114.3685715374449
 21
6.364204346444935
 31
0.0
1001
GENIUS_GENOREF_13
1005
46D
  0
LINE
  5
46A
330
D
100
AcDbEntity
 67
     1
  8
LOGO
  6
CENTER
 48
0.5
100
AcDbLine
 10
125.9102985567283
 20
0.8749393002694745
 30
0.0
 11
140.6490418495698
 21
0.8749393002694745
 31
0.0
1001
GENIUS_GENOREF_13
1005
46C
  0
LWPOLYLINE
  5
46B
330
D
100
AcDbEntity
 67
     1
  8
LOGO
 62
     4
100
AcDbPolyline
 90
        4
 70
     1
 43
0.0
 10
817.2518731298634
 20
21.43477155639744
 10
-3.488748441191319
 20
21.43477155639744
 10
-3.488748441191319
 20
526.1610533086513
 10
817.2518731298634
 20
526.1610533086513
  0
POINT
  5
46C
330
D
100
AcDbEntity
 67
     1
  8
0
 60
     1
100
AcDbPoint
 10
5307.15652413339
 20
-474.4587593613455
 30
0.0
1001
GENIUS_GENOBJ-N-CRS_13
1002
{
1000
OWNER
1000
GEN
1002
}
1001
GENIUS_GENOLIS_13
1002
{
1000
ENT
1005
0
1005
0
1005
0
1005
46A
1002
}
1001
GENIUS_GENOENT_13
1002
{
1000
MYREF
1005
46C
1002
}
1002
{
1000
GRP
1005
0
1002
}
1001
GENIUS_GENODEF_13
1002
{
1000
HIER
1070
    10
1002
}
1002
{
1000
MANEDIT
1070
     1
1002
}
1002
{
1000
NOSEL
1070
     0
1002
}
1002
{
1000
BEHIND
1070
     0
1002
}
1002
{
1000
OTHER
1070
     0
1002
}
1002
{
1000
REACTOR
1002
}
  0
POINT
  5
46D
330
D
100
AcDbEntity
 67
     1
  8
0
 60
     1
100
AcDbPoint
 10
5295.831938910534
 20
-465.5831728827092
 30
0.0
1001
GENIUS_GENOBJ-N-CRS_13
1002
{
1000
OWNER
1000
GEN
1002
}
1001
GENIUS_GENOLIS_13
1002
{
1000
ENT
1005
0
1005
0
1005
0
1005
469
1002
}
1001
GENIUS_GENOENT_13
1002
{
1000
MYREF
1005
46D
1002
}
1002
{
1000
GRP
1005
0
1002
}
1001
GENIUS_GENODEF_13
1002
{
1000
HIER
1070
    10
1002
}
1002
{
1000
MANEDIT
1070
     1
1002
}
1002
{
1000
NOSEL
1070
     0
1002
}
1002
{
1000
BEHIND
1070
     0
1002
}
1002
{
1000
OTHER
1070
     0
1002
}
1002
{
1000
REACTOR
1002
}
  0
POINT
  5
46E
330
D
100
AcDbEntity
 67
     1
  8
0
 60
     1
100
AcDbPoint
 10
5302.190612608371
 20
-474.4587593613455
 30
0.0
1001
GENIUS_GENOBJ-N-CRS_13
1002
{
1000
OWNER
1000
GEN
1002
}
1001
GENIUS_GENOLIS_13
1002
{
1000
ENT
1005
0
1005
0
1005
0
1005
468
1002
}
1001
GENIUS_GENOENT_13
1002
{
1000
MYREF
1005
46E
1002
}
1002
{
1000
GRP
1005
0
1002
}
1001
GENIUS_GENODEF_13
1002
{
1000
HIER
1070
    10
1002
}
1002
{
1000
MANEDIT
1070
     1
1002
}
1002
{
1000
NOSEL
1070
     0
1002
}
1002
{
1000
BEHIND
1070
     0
1002
}
1002
{
1000
OTHER
1070
     0
1002
}
1002
{
1000
REACTOR
1002
}
  0
DIMENSION
  5
511
330
D
100
AcDbEntity
 67
     1
  8
AM_5
100
AcDbDimension
  2
*D1
 10
450.9723945150908
 20
61.4398617403075
 30
0.0
 11
470.9723945150908
 21
66.93986174030749
 31
0.0
 70
    32
 71
     5
 42
40.0
  3
AM_ISO$0
100
AcDbAlignedDimension
 13
490.9723945150908
 23
168.8865737924188
 33
0.0
 14
450.9723945150908
 24
166.8865737924188
 34
0.0
 50
0.0000000000001018
100
AcDbRotatedDimension
1001
ACAD
1000
DSTYLE
1002
{
1070
    40
1040
2.0
1070
   140
1040
3.5
1070
   176
1070
   256
1070
   177
1070
   256
1070
   178
1070
   256
1070
   179
1070
     0
1002
}
  0
DIMENSION
  5
657
330
D
100
AcDbEntity
 67
     1
  8
AM_5
100
AcDbDimension
  2
*D2
 10
399.9723945150908
 20
105.8829445902429
 30
0.0
 11
380.8196386095789
 21
105.8829445902429
 31
0.0
 70
   160
 71
     5
 42
10.00000000000011
  3
AM_ISO$0
100
AcDbAlignedDimension
 13
409.9723945150908
 23
151.3865737924188
 33
0.0
 14
399.9723945150908
 24
120.3865737924188
 34
0.0
 50
0.0000000000001132
100
AcDbRotatedDimension
1001
ACAD
1000
DSTYLE
1002
{
1070
    40
1040
2.0
1070
   140
1040
3.5
1070
   176
1070
   256
1070
   177
1070
   256
1070
   178
1070
   256
1070
   179
1070
     0
1002
}
  0
DIMENSION
  5
67C
330
D
100
AcDbEntity
 67
     1
  8
AM_5
100
AcDbDimension
  2
*D3
 10
151.9723945150908
 20
84.81854656115112
 30
0.0
 11
220.9723945150908
 21
90.31854656115113
 31
0.0
 70
    32
  1
<>+Stroke
 71
     5
 42
138.0
  3
AM_ISO$0
100
AcDbAlignedDimension
 13
289.9723945150908
 23
119.8865737924188
 33
0.0
 14
151.9723945150908
 24
119.8865737924188
 34
0.0
 50
0.0000000000001132
100
AcDbRotatedDimension
1001
ACAD
1000
DSTYLE
1002
{
1070
    40
1040
2.0
1070
   140
1040
3.5
1070
   174
1070
     1
1070
   176
1070
   256
1070
   177
1070
   256
1070
   178
1070
   256
1070
   179
1070
     0
1002
}
  0
DIMENSION
  5
69B
330
D
100
AcDbEntity
 67
     1
  8
AM_5
100
AcDbDimension
  2
*D4
 10
151.9723945150908
 20
84.8185465611511
 30
0.0
 11
130.2223945150908
 21
84.8185465611511
 31
0.0
 70
   160
 71
     5
 42
4.0
  3
AM_ISO$0
100
AcDbAlignedDimension
 13
147.9723945150908
 23
150.8865737924188
 33
0.0
 14
151.9723945150908
 24
119.8865737924188
 34
0.0
 50
0.0000000000001132
100
AcDbRotatedDimension
1001
ACAD
1000
DSTYLE
1002
{
1070
    40
1040
2.0
1070
   140
1040
3.5
1070
   176
1070
   256
1070
   177
1070
   256
1070
   178
1070
   256
1070
   179
1070
     0
1002
}
  0
DIMENSION
  5
6CB
330
D
100
AcDbEntity
 67
     1
  8
AM_5
100
AcDbDimension
  2
*D5
 10
450.9723945150908
 20
61.4398617403075
 30
0.0
 11
301.4723945150909
 21
66.94055071668545
 31
0.0
 70
    32
  1
<>+Stroke
 71
     5
 42
299.0
  3
AM_ISO$0
100
AcDbAlignedDimension
 13
151.9723945150908
 23
119.8865737924188
 33
0.0
 14
450.9723945150908
 24
166.8865737924188
 34
0.0
 50
0.0000000000001132
100
AcDbRotatedDimension
1001
ACAD
1000
DSTYLE
1002
{
1070
    40
1040
2.0
1070
   140
1040
3.5
1070
   176
1070
   256
1070
   177
1070
   256
1070
   178
1070
   256
1070
   179
1070
     0
1002
}
  0
DIMENSION
  5
7C4
330
D
100
AcDbEntity
 67
     1
  8
AM_5
100
AcDbDimension
  2
*D6
 10
511.0734219218802
 20
164.8865737924188
 30
0.0
 11
505.5727329455022
 21
177.3865737924189
 31
0.0
 70
    32
  1
%%c<>
 71
     5
 42
25.0
  3
AM_ISO$0
100
AcDbAlignedDimension
 13
438.9723945150908
 23
189.8865737924188
 33
0.0
 14
438.9723945150908
 24
164.8865737924188
 34
0.0
 50
90.0
100
AcDbRotatedDimension
1001
ACAD
1000
DSTYLE
1002
{
1070
    40
1040
2.0
1070
   140
1040
3.5
1070
   176
1070
   256
1070
   177
1070
   256
1070
   178
1070
   256
1070
   179
1070
     0
1002
}
  0
DIMENSION
  5
7EC
330
D
100
AcDbEntity
 67
     1
  8
AM_5
100
AcDbDimension
  2
*D7
 10
527.0734219218804
 20
149.8865737924188
 30
0.0
 11
521.5734219218803
 21
177.3865737924189
 31
0.0
 70
    32
  1
%%c<>
 71
     5
 42
55.0
  3
AM_ISO
100
AcDbAlignedDimension
 13
408.4723945150908
 23
204.8865737924189
 33
0.0
 14
408.4723945150908
 24
149.8865737924188
 34
0.0
 50
90.0
100
AcDbRotatedDimension
1001
ACAD
1000
DSTYLE
1002
{
1070
    40
1040
2.0
1002
}
  0
LEADER
  5
81C
330
D
100
AcDbEntity
 67
     1
  8
AM_5
100
AcDbLeader
  3
AM_ISO$7
 76
     3
 10
178.2506518032495
 20
156.8184187433091
 30
0.0
 10
197.3702714021274
 20
105.4086958194407
 30
0.0
 10
235.4627770705961
 20
105.4086958194407
 30
0.0
1001
ACAD
1000
DSTYLE
1002
{
1070
    40
1040
2.0
1070
   147
1040
1.0
1002
}
  0
TEXT
  5
81D
330
D
100
AcDbEntity
 67
     1
  8
AM_5
100
AcDbText
 10
199.4480490990991
 20
107.8322667011598
 30
0.0
 40
7.0
  1
2-G1/2
100
AcDbText
  0
LINE
  5
844
330
D
100
AcDbEntity
 67
     1
  8
SL
  6
ACISOTGB
100
AcDbLine
 10
221.5224557543197
 20
314.652039204637
 30
0.0
 11
221.5224557543197
 21
469.6468335609273
 31
0.0
  0
INSERT
  5
845
330
D
100
AcDbEntity
 67
     1
  8
0
100
AcDbBlockReference
  2
A$C453B67D5
 10
219.9953699196192
 20
474.4721992277026
 30
0.0
 41
1.95
 42
1.95
 43
1.95
  0
INSERT
  5
846
330
D
100
AcDbEntity
 67
     1
  8
0
100
AcDbBlockReference
  2
A$C17481420
 10
221.5224565522055
 20
466.4715066559052
 30
0.0
 41
1.95
 42
1.95
 43
1.95
  0
DIMENSION
  5
84E
330
D
100
AcDbEntity
 67
     1
  8
AM_5
100
AcDbDimension
  2
*D10
 10
126.285323505341
 20
149.8865737924188
 30
0.0
 11
126.285323505341
 21
177.3865737924189
 31
0.0
 70
   160
  1
%%c<>
 71
     5
 42
55.0
  3
AM_ISO$0
100
AcDbAlignedDimension
 13
148.9723945150908
 23
204.8865737924189
 33
0.0
 14
148.9723945150908
 24
149.8865737924188
 34
0.0
 50
90.0
100
AcDbRotatedDimension
1001
ACAD
1000
DSTYLE
1002
{
1070
    40
1040
2.0
1070
   140
1040
3.5
1070
   176
1070
   256
1070
   177
1070
   256
1070
   178
1070
   256
1070
   179
1070
     0
1002
}
  0
LEADER
  5
900
330
D
100
AcDbEntity
 67
     1
  8
AM_5
100
AcDbLeader
  3
AM_ISO$7
 76
     3
 10
486.4149023324339
 20
187.3865737924188
 30
0.0
 10
503.9158224112616
 20
223.6537154239929
 30
0.0
 10
540.0694703063927
 20
223.6537154239929
 30
0.0
  0
TEXT
  5
901
330
D
100
AcDbEntity
 67
     1
  8
AM_5
100
AcDbText
 10
505.2105538484538
 20
225.572633797155
 30
0.0
 40
7.0
  1
M20*1.5
100
AcDbText
  0
LINE
  5
133D
330
D
100
AcDbEntity
 67
     1
  8
AM_VIS
100
AcDbLine
 10
310.5775015978479
 20
132.9286420569933
 30
0.0
 11
305.3672874323347
 21
132.9286420569933
 31
0.0
  0
LINE
  5
133E
330
D
100
AcDbEntity
 67
     1
  8
AM_VIS
100
AcDbLine
 10
305.3672874323347
 20
132.8445055278443
 30
0.0
 11
310.5775015978479
 21
132.8445055278443
 31
0.0
  0
LINE
  5
133F
330
D
100
AcDbEntity
 67
     1
  8
AM_VIS
100
AcDbLine
 10
305.3672874323347
 20
124.3865737924188
 30
0.0
 11
310.5775015978479
 21
124.3865737924188
 31
0.0
  0
LINE
  5
1340
330
D
100
AcDbEntity
 67
     1
  8
AM_VIS
100
AcDbLine
 10
310.5775015978479
 20
124.4286420569933
 30
0.0
 11
305.3672874323347
 21
124.4286420569933
 31
0.0
  0
LINE
  5
1341
330
D
100
AcDbEntity
 67
     1
  8
AM_VIS
100
AcDbLine
 10
305.3672874323347
 20
141.3445055278442
 30
0.0
 11
310.5775015978479
 21
141.3445055278442
 31
0.0
  0
LINE
  5
1342
330
D
100
AcDbEntity
 67
     1
  8
AM_VIS
100
AcDbLine
 10
310.5775015978479
 20
141.3865737924188
 30
0.0
 11
305.3672874323347
 21
141.3865737924188
 31
0.0
  0
LINE
  5
1343
330
D
100
AcDbEntity
 67
     1
  8
AM_VIS
100
AcDbLine
 10
310.5775015978479
 20
221.9286420569933
 30
0.0
 11
305.3672874323347
 21
221.9286420569933
 31
0.0
  0
LINE
  5
1344
330
D
100
AcDbEntity
 67
     1
  8
AM_VIS
100
AcDbLine
 10
305.3672874323347
 20
221.8445055278444
 30
0.0
 11
310.5775015978479
 21
221.8445055278444
 31
0.0
  0
LINE
  5
1345
330
D
100
AcDbEntity
 67
     1
  8
AM_VIS
100
AcDbLine
 10
305.3672874323347
 20
213.3865737924188
 30
0.0
 11
310.5775015978479
 21
213.3865737924188
 31
0.0
  0
LINE
  5
1346
330
D
100
AcDbEntity
 67
     1
  8
AM_VIS
100
AcDbLine
 10
310.5775015978479
 20
213.4286420569935
 30
0.0
 11
305.3672874323347
 21
213.4286420569935
 31
0.0
  0
LINE
  5
1347
330
D
100
AcDbEntity
 67
     1
  8
AM_VIS
100
AcDbLine
 10
305.3672874323347
 20
230.3445055278443
 30
0.0
 11
310.5775015978479
 21
230.3445055278443
 31
0.0
  0
LINE
  5
1348
330
D
100
AcDbEntity
 67
     1
  8
AM_VIS
100
AcDbLine
 10
310.5775015978479
 20
230.3865737924188
 30
0.0
 11
305.3672874323347
 21
230.3865737924188
 31
0.0
  0
LINE
  5
1349
330
D
100
AcDbEntity
 67
     1
  8
AM_VIS
100
AcDbLine
 10
312.4723945150909
 20
216.8865737924189
 30
0.0
 11
311.4723945150909
 21
216.8865737924189
 31
0.0
  0
LINE
  5
134A
330
D
100
AcDbEntity
 67
     1
  8
AM_VIS
100
AcDbLine
 10
311.4723945150909
 20
226.8865737924189
 30
0.0
 11
312.4723945150909
 21
226.8865737924189
 31
0.0
  0
LINE
  5
134B
330
D
100
AcDbEntity
 67
     1
  8
AM_VIS
100
AcDbLine
 10
313.9723945150909
 20
218.3865737924189
 30
0.0
 11
312.4723945150909
 21
216.8865737924189
 31
0.0
  0
LINE
  5
134C
330
D
100
AcDbEntity
 67
     1
  8
AM_VIS
100
AcDbLine
 10
312.4723945150909
 20
226.8865737924189
 30
0.0
 11
313.9723945150909
 21
225.3865737924189
 31
0.0
  0
LINE
  5
134D
330
D
100
AcDbEntity
 67
     1
  8
AM_VIS
100
AcDbLine
 10
304.4723945150908
 20
212.0958169616115
 30
0.0
 11
301.9723945150909
 21
212.0958169616115
 31
0.0
  0
LINE
  5
134E
330
D
100
AcDbEntity
 67
     1
  8
AM_VIS
100
AcDbLine
 10
301.9723945150909
 20
231.6773306232262
 30
0.0
 11
304.4723945150908
 21
231.6773306232262
 31
0.0
  0
LINE
  5
134F
330
D
100
AcDbEntity
 67
     1
  8
AM_VIS
100
AcDbLine
 10
311.4723945150909
 20
213.6458169616108
 30
0.0
 11
311.3227204015725
 21
213.3865737924188
 31
0.0
  0
LINE
  5
1350
330
D
100
AcDbEntity
 67
     1
  8
AM_VIS
100
AcDbLine
 10
310.5775015978479
 20
213.3865737924188
 30
0.0
 11
311.3227204015725
 21
213.3865737924188
 31
0.0
  0
SPLINE
  5
1351
330
D
100
AcDbEntity
 67
     1
  8
AM_VIS
100
AcDbSpline
210
0.0
220
0.0
230
1.0
 70
    12
 71
     2
 72
     6
 73
     3
 74
     0
 42
0.0000000001
 43
0.0000000001
 40
0.0
 40
0.0
 40
0.0
 40
9.831433341161538
 40
9.831433341161538
 40
9.831433341161538
 10
310.5775015978479
 20
221.8445055278444
 30
0.0
 41
1.0
 10
311.9696938624724
 20
217.6365737924187
 30
0.0000000000002274
 41
1.151853744800849
 10
310.5775015978479
 20
213.4286420569935
 30
0.0
 41
1.0
  0
SPLINE
  5
1352
330
D
100
AcDbEntity
 67
     1
  8
AM_VIS
100
AcDbSpline
210
0.0
220
0.0
230
1.0
 70
    12
 71
     2
 72
     6
 73
     3
 74
     0
 42
0.0000000001
 43
0.0000000001
 40
0.0
 40
0.0
 40
0.0
 40
9.831433341161526
 40
9.831433341161526
 40
9.831433341161526
 10
310.5775015978479
 20
230.3445055278443
 30
0.0
 41
1.0
 10
311.9696938624724
 20
226.136573792419
 30
0.0000000000002274
 41
1.151853744800849
 10
310.5775015978479
 20
221.9286420569933
 30
0.0
 41
1.0
  0
LINE
  5
1353
330
D
100
AcDbEntity
 67
     1
  8
AM_VIS
100
AcDbLine
 10
310.5775015978479
 20
230.3865737924188
 30
0.0
 11
311.3227204015725
 21
230.3865737924188
 31
0.0
  0
LINE
  5
1354
330
D
100
AcDbEntity
 67
     1
  8
AM_VIS
100
AcDbLine
 10
311.3227204015725
 20
230.3865737924188
 30
0.0
 11
311.4723945150909
 21
230.1273306232269
 31
0.0
  0
LINE
  5
1355
330
D
100
AcDbEntity
 67
     1
  8
AM_VIS
100
AcDbLine
 10
304.6220686286094
 20
230.3865737924188
 30
0.0
 11
305.3672874323347
 21
230.3865737924188
 31
0.0
  0
SPLINE
  5
1356
330
D
100
AcDbEntity
 67
     1
  8
AM_VIS
100
AcDbSpline
210
0.0
220
0.0
230
1.0
 70
    12
 71
     2
 72
     6
 73
     3
 74
     0
 42
0.0000000001
 43
0.0000000001
 40
0.0
 40
0.0
 40
0.0
 40
9.831433341161755
 40
9.831433341161755
 40
9.831433341161755
 10
305.3672874323347
 20
221.9286420569933
 30
0.0
 41
1.0
 10
303.9750951677087
 20
226.1365737924188
 30
0.0
 41
1.151853744800896
 10
305.3672874323347
 20
230.3445055278443
 30
0.0
 41
1.0
  0
SPLINE
  5
1357
330
D
100
AcDbEntity
 67
     1
  8
AM_VIS
100
AcDbSpline
210
0.0
220
0.0
230
1.0
 70
    12
 71
     2
 72
     6
 73
     3
 74
     0
 42
0.0000000001
 43
0.0000000001
 40
0.0
 40
0.0
 40
0.0
 40
9.831433341161766
 40
9.831433341161766
 40
9.831433341161766
 10
305.3672874323347
 20
213.4286420569935
 30
0.0
 41
1.0
 10
303.9750951677085
 20
217.6365737924187
 30
0.0000000000002274
 41
1.151853744800849
 10
305.3672874323347
 20
221.8445055278444
 30
0.0
 41
1.0
  0
LINE
  5
1358
330
D
100
AcDbEntity
 67
     1
  8
AM_VIS
100
AcDbLine
 10
304.6220686286094
 20
213.3865737924188
 30
0.0
 11
305.3672874323347
 21
213.3865737924188
 31
0.0
  0
LINE
  5
1359
330
D
100
AcDbEntity
 67
     1
  8
AM_VIS
100
AcDbLine
 10
304.6220686286094
 20
213.3865737924188
 30
0.0
 11
304.4723945150908
 21
213.6458169616108
 31
0.0
  0
LINE
  5
135A
330
D
100
AcDbEntity
 67
     1
  8
AM_VIS
100
AcDbLine
 10
304.4723945150908
 20
230.1273306232269
 30
0.0
 11
304.6220686286094
 21
230.3865737924188
 31
0.0
  0
LINE
  5
135B
330
D
100
AcDbEntity
 67
     1
  8
AM_VIS
100
AcDbLine
 10
312.4723945150909
 20
127.8865737924188
 30
0.0
 11
311.4723945150909
 21
127.8865737924188
 31
0.0
  0
LINE
  5
135C
330
D
100
AcDbEntity
 67
     1
  8
AM_VIS
100
AcDbLine
 10
311.4723945150909
 20
137.8865737924188
 30
0.0
 11
312.4723945150909
 21
137.8865737924188
 31
0.0
  0
LINE
  5
135D
330
D
100
AcDbEntity
 67
     1
  8
AM_VIS
100
AcDbLine
 10
313.9723945150909
 20
129.3865737924188
 30
0.0
 11
312.4723945150909
 21
127.8865737924188
 31
0.0
  0
LINE
  5
135E
330
D
100
AcDbEntity
 67
     1
  8
AM_VIS
100
AcDbLine
 10
312.4723945150909
 20
137.8865737924188
 30
0.0
 11
313.9723945150909
 21
136.3865737924188
 31
0.0
  0
LINE
  5
135F
330
D
100
AcDbEntity
 67
     1
  8
AM_VIS
100
AcDbLine
 10
304.4723945150908
 20
123.0958169616115
 30
0.0
 11
301.9723945150909
 21
123.0958169616115
 31
0.0
  0
LINE
  5
1360
330
D
100
AcDbEntity
 67
     1
  8
AM_VIS
100
AcDbLine
 10
301.9723945150909
 20
142.6773306232262
 30
0.0
 11
304.4723945150908
 21
142.6773306232262
 31
0.0
  0
LINE
  5
1361
330
D
100
AcDbEntity
 67
     1
  8
AM_VIS
100
AcDbLine
 10
311.4723945150909
 20
124.6458169616107
 30
0.0
 11
311.3227204015725
 21
124.3865737924188
 31
0.0
  0
LINE
  5
1362
330
D
100
AcDbEntity
 67
     1
  8
AM_VIS
100
AcDbLine
 10
310.5775015978479
 20
124.3865737924188
 30
0.0
 11
311.3227204015725
 21
124.3865737924188
 31
0.0
  0
SPLINE
  5
1363
330
D
100
AcDbEntity
 67
     1
  8
AM_VIS
100
AcDbSpline
210
0.0
220
0.0
230
1.0
 70
    12
 71
     2
 72
     6
 73
     3
 74
     0
 42
0.0000000001
 43
0.0000000001
 40
0.0
 40
0.0
 40
0.0
 40
9.831433341161538
 40
9.831433341161538
 40
9.831433341161538
 10
310.5775015978479
 20
132.8445055278443
 30
0.0
 41
1.0
 10
311.9696938624724
 20
128.6365737924189
 30
0.0000000000002274
 41
1.151853744800849
 10
310.5775015978479
 20
124.4286420569933
 30
0.0
 41
1.0
  0
SPLINE
  5
1364
330
D
100
AcDbEntity
 67
     1
  8
AM_VIS
100
AcDbSpline
210
0.0
220
0.0
230
1.0
 70
    12
 71
     2
 72
     6
 73
     3
 74
     0
 42
0.0000000001
 43
0.0000000001
 40
0.0
 40
0.0
 40
0.0
 40
9.831433341161526
 40
9.831433341161526
 40
9.831433341161526
 10
310.5775015978479
 20
141.3445055278442
 30
0.0
 41
1.0
 10
311.9696938624724
 20
137.1365737924188
 30
0.0000000000002274
 41
1.151853744800849
 10
310.5775015978479
 20
132.9286420569933
 30
0.0
 41
1.0
  0
LINE
  5
1365
330
D
100
AcDbEntity
 67
     1
  8
AM_VIS
100
AcDbLine
 10
310.5775015978479
 20
141.3865737924188
 30
0.0
 11
311.3227204015725
 21
141.3865737924188
 31
0.0
  0
LINE
  5
1366
330
D
100
AcDbEntity
 67
     1
  8
AM_VIS
100
AcDbLine
 10
311.3227204015725
 20
141.3865737924188
 30
0.0
 11
311.4723945150909
 21
141.1273306232269
 31
0.0
  0
LINE
  5
1367
330
D
100
AcDbEntity
 67
     1
  8
AM_VIS
100
AcDbLine
 10
304.6220686286094
 20
141.3865737924188
 30
0.0
 11
305.3672874323347
 21
141.3865737924188
 31
0.0
  0
SPLINE
  5
1368
330
D
100
AcDbEntity
 67
     1
  8
AM_VIS
100
AcDbSpline
210
0.0
220
0.0
230
1.0
 70
    12
 71
     2
 72
     6
 73
     3
 74
     0
 42
0.0000000001
 43
0.0000000001
 40
0.0
 40
0.0
 40
0.0
 40
9.831433341161755
 40
9.831433341161755
 40
9.831433341161755
 10
305.3672874323347
 20
132.9286420569933
 30
0.0
 41
1.0
 10
303.9750951677087
 20
137.136573792419
 30
0.0
 41
1.151853744800896
 10
305.3672874323347
 20
141.3445055278442
 30
0.0
 41
1.0
  0
SPLINE
  5
1369
330
D
100
AcDbEntity
 67
     1
  8
AM_VIS
100
AcDbSpline
210
0.0
220
0.0
230
1.0
 70
    12
 71
     2
 72
     6
 73
     3
 74
     0
 42
0.0000000001
 43
0.0000000001
 40
0.0
 40
0.0
 40
0.0
 40
9.831433341161766
 40
9.831433341161766
 40
9.831433341161766
 10
305.3672874323347
 20
124.4286420569933
 30
0.0
 41
1.0
 10
303.9750951677084
 20
128.6365737924189
 30
0.0000000000002274
 41
1.151853744800849
 10
305.3672874323347
 20
132.8445055278443
 30
0.0
 41
1.0
  0
LINE
  5
136A
330
D
100
AcDbEntity
 67
     1
  8
AM_VIS
100
AcDbLine
 10
304.6220686286094
 20
124.3865737924188
 30
0.0
 11
305.3672874323347
 21
124.3865737924188
 31
0.0
  0
LINE
  5
136B
330
D
100
AcDbEntity
 67
     1
  8
AM_VIS
100
AcDbLine
 10
304.6220686286094
 20
124.3865737924188
 30
0.0
 11
304.4723945150908
 21
124.6458169616107
 31
0.0
  0
LINE
  5
136C
330
D
100
AcDbEntity
 67
     1
  8
AM_VIS
100
AcDbLine
 10
304.4723945150908
 20
141.1273306232269
 30
0.0
 11
304.6220686286094
 21
141.3865737924188
 31
0.0
  0
LINE
  5
1373
330
D
100
AcDbEntity
 67
     1
  8
AM_VIS
100
AcDbLine
 10
313.9723945150909
 20
225.3865737924189
 30
0.0
 11
313.9723945150909
 21
218.3865737924189
 31
0.0
  0
LINE
  5
1374
330
D
100
AcDbEntity
 67
     1
  8
AM_VIS
100
AcDbLine
 10
312.4723945150909
 20
226.8865737924189
 30
0.0
 11
312.4723945150909
 21
216.8865737924189
 31
0.0
  0
LINE
  5
1375
330
D
100
AcDbEntity
 67
     1
  8
AM_VIS
100
AcDbLine
 10
304.4723945150908
 20
231.6773306232262
 30
0.0
 11
304.4723945150908
 21
212.0958169616115
 31
0.0
  0
LINE
  5
1376
330
D
100
AcDbEntity
 67
     1
  8
AM_VIS
100
AcDbLine
 10
311.4723945150909
 20
230.1273306232269
 30
0.0
 11
311.4723945150909
 21
213.6458169616108
 31
0.0
  0
LINE
  5
1377
330
D
100
AcDbEntity
 67
     1
  8
AM_VIS
100
AcDbLine
 10
310.5775015978479
 20
213.4286420569935
 30
0.0
 11
310.5775015978479
 21
213.3865737924188
 31
0.0
  0
LINE
  5
1378
330
D
100
AcDbEntity
 67
     1
  8
AM_VIS
100
AcDbLine
 10
310.5775015978479
 20
221.9286420569933
 30
0.0
 11
310.5775015978479
 21
221.8445055278444
 31
0.0
  0
LINE
  5
1379
330
D
100
AcDbEntity
 67
     1
  8
AM_VIS
100
AcDbLine
 10
310.5775015978479
 20
230.3865737924188
 30
0.0
 11
310.5775015978479
 21
230.3445055278443
 31
0.0
  0
LINE
  5
137A
330
D
100
AcDbEntity
 67
     1
  8
AM_VIS
100
AcDbLine
 10
305.3672874323347
 20
230.3865737924188
 30
0.0
 11
305.3672874323347
 21
230.3445055278443
 31
0.0
  0
LINE
  5
137B
330
D
100
AcDbEntity
 67
     1
  8
AM_VIS
100
AcDbLine
 10
305.3672874323347
 20
221.9286420569933
 30
0.0
 11
305.3672874323347
 21
221.8445055278444
 31
0.0
  0
LINE
  5
137C
330
D
100
AcDbEntity
 67
     1
  8
AM_VIS
100
AcDbLine
 10
305.3672874323347
 20
213.4286420569935
 30
0.0
 11
305.3672874323347
 21
213.3865737924188
 31
0.0
  0
LINE
  5
137D
330
D
100
AcDbEntity
 67
     1
  8
AM_VIS
100
AcDbLine
 10
313.9723945150909
 20
136.3865737924188
 30
0.0
 11
313.9723945150909
 21
129.3865737924188
 31
0.0
  0
LINE
  5
137E
330
D
100
AcDbEntity
 67
     1
  8
AM_VIS
100
AcDbLine
 10
312.4723945150909
 20
137.8865737924188
 30
0.0
 11
312.4723945150909
 21
127.8865737924188
 31
0.0
  0
LINE
  5
137F
330
D
100
AcDbEntity
 67
     1
  8
AM_VIS
100
AcDbLine
 10
304.4723945150908
 20
142.6773306232262
 30
0.0
 11
304.4723945150908
 21
123.0958169616115
 31
0.0
  0
LINE
  5
1380
330
D
100
AcDbEntity
 67
     1
  8
AM_VIS
100
AcDbLine
 10
311.4723945150909
 20
141.1273306232269
 30
0.0
 11
311.4723945150909
 21
124.6458169616107
 31
0.0
  0
LINE
  5
1381
330
D
100
AcDbEntity
 67
     1
  8
AM_VIS
100
AcDbLine
 10
310.5775015978479
 20
124.4286420569934
 30
0.0
 11
310.5775015978479
 21
124.3865737924188
 31
0.0
  0
LINE
  5
1382
330
D
100
AcDbEntity
 67
     1
  8
AM_VIS
100
AcDbLine
 10
310.5775015978479
 20
132.9286420569933
 30
0.0
 11
310.5775015978479
 21
132.8445055278443
 31
0.0
  0
LINE
  5
1383
330
D
100
AcDbEntity
 67
     1
  8
AM_VIS
100
AcDbLine
 10
310.5775015978479
 20
141.3865737924188
 30
0.0
 11
310.5775015978479
 21
141.3445055278442
 31
0.0
  0
LINE
  5
1384
330
D
100
AcDbEntity
 67
     1
  8
AM_VIS
100
AcDbLine
 10
305.3672874323347
 20
141.3865737924188
 30
0.0
 11
305.3672874323347
 21
141.3445055278442
 31
0.0
  0
LINE
  5
1385
330
D
100
AcDbEntity
 67
     1
  8
AM_VIS
100
AcDbLine
 10
305.3672874323347
 20
132.9286420569933
 30
0.0
 11
305.3672874323347
 21
132.8445055278443
 31
0.0
  0
LINE
  5
1386
330
D
100
AcDbEntity
 67
     1
  8
AM_VIS
100
AcDbLine
 10
305.3672874323347
 20
124.4286420569934
 30
0.0
 11
305.3672874323347
 21
124.3865737924188
 31
0.0
  0
SPLINE
  5
1395
330
D
100
AcDbEntity
 67
     1
  8
AM_VIS
100
AcDbSpline
210
0.0
220
0.0
230
1.0
 70
    12
 71
     2
 72
     6
 73
     3
 74
     0
 42
0.0000000001
 43
0.0000000001
 40
0.0
 40
0.0
 40
0.0
 40
9.831433341161741
 40
9.831433341161741
 40
9.831433341161741
 10
305.3672874323343
 20
357.4917131322483
 30
0.0
 41
1.0
 10
303.975095167708
 20
359.9211636524278
 30
0.0000000000001137
 41
1.151853744800849
 10
305.3672874323343
 20
362.3506141726072
 30
0.0
 41
1.0
  0
SPLINE
  5
1396
330
D
100
AcDbEntity
 67
     1
  8
AM_VIS
100
AcDbSpline
210
-0.000000000000555
220
0.0000000000001109
230
1.0
 70
    12
 71
     2
 72
     6
 73
     3
 74
     0
 42
0.0000000001
 43
0.0000000001
 40
4.915716670580894
 40
4.915716670580894
 40
4.915716670580894
 40
9.831433341161789
 40
9.831433341161789
 40
9.831433341161789
 10
304.6220686286088
 20
352.55994772026
 30
0.0000000000001137
 41
1.075926872400436
 10
304.6220686286088
 20
354.8179548232513
 30
0.0000000000001137
 41
1.075926872400436
 10
305.3672874323343
 20
357.418848760619
 30
0.0
 41
1.0
  0
LINE
  5
1397
330
D
100
AcDbEntity
 67
     1
  8
AM_VIS
100
AcDbLine
 10
310.5775015978474
 20
342.7692812679128
 30
0.0
 11
305.3672874323343
 21
342.7692812679128
 31
0.0
  0
LINE
  5
1398
330
D
100
AcDbEntity
 67
     1
  8
AM_VIS
100
AcDbLine
 10
305.3672874323343
 20
362.3506141726072
 30
0.0
 11
310.5775015978474
 21
362.3506141726072
 31
0.0
  0
LINE
  5
1399
330
D
100
AcDbEntity
 67
     1
  8
AM_VIS
100
AcDbLine
 10
305.3672874323343
 20
357.418848760619
 30
0.0
 11
310.5775015978474
 21
357.418848760619
 31
0.0
  0
LINE
  5
139A
330
D
100
AcDbEntity
 67
     1
  8
AM_VIS
100
AcDbLine
 10
310.5775015978474
 20
357.4917131322483
 30
0.0
 11
305.3672874323343
 21
357.4917131322483
 31
0.0
  0
LINE
  5
139B
330
D
100
AcDbEntity
 67
     1
  8
AM_VIS
100
AcDbLine
 10
305.3672874323343
 20
347.6281823082717
 30
0.0
 11
310.5775015978474
 21
347.6281823082717
 31
0.0
  0
LINE
  5
139C
330
D
100
AcDbEntity
 67
     1
  8
AM_VIS
100
AcDbLine
 10
310.5775015978474
 20
347.7010466799012
 30
0.0
 11
305.3672874323343
 21
347.7010466799012
 31
0.0
  0
SPLINE
  5
139D
330
D
100
AcDbEntity
 67
     1
  8
AM_VIS
100
AcDbSpline
210
0.000000000000555
220
0.0000000000001109
230
1.0
 70
    12
 71
     2
 72
     6
 73
     3
 74
     0
 42
0.0000000001
 43
0.0000000001
 40
0.0
 40
0.0
 40
0.0
 40
4.915716670580776
 40
4.915716670580776
 40
4.915716670580776
 10
310.5775015978474
 20
357.418848760619
 30
0.0
 41
1.0
 10
311.3227204015719
 20
354.8179548232514
 30
0.0000000000001137
 41
1.075926872400424
 10
311.3227204015719
 20
352.5599477202601
 30
0.0000000000001137
 41
1.075926872400424
  0
SPLINE
  5
139E
330
D
100
AcDbEntity
 67
     1
  8
AM_VIS
100
AcDbSpline
210
0.0
220
0.0
230
1.0
 70
    12
 71
     2
 72
     6
 73
     3
 74
     0
 42
0.0000000001
 43
0.0000000001
 40
0.0
 40
0.0
 40
0.0
 40
9.831433341161726
 40
9.831433341161726
 40
9.831433341161726
 10
310.5775015978474
 20
362.3506141726074
 30
0.0
 41
1.0
 10
311.9696938624719
 20
359.9211636524278
 30
0.0
 41
1.151853744800867
 10
310.5775015978474
 20
357.4917131322483
 30
0.0
 41
1.0
  0
SPLINE
  5
139F
330
D
100
AcDbEntity
 67
     1
  8
AM_VIS
100
AcDbSpline
210
0.0
220
0.0
230
1.0
 70
    12
 71
     2
 72
     6
 73
     3
 74
     0
 42
0.0000000001
 43
0.0000000001
 40
0.0
 40
0.0
 40
0.0
 40
9.831433341161741
 40
9.831433341161741
 40
9.831433341161741
 10
305.3672874323343
 20
446.4917131322485
 30
0.0
 41
1.0
 10
303.975095167708
 20
448.9211636524278
 30
0.0000000000001137
 41
1.151853744800849
 10
305.3672874323343
 20
451.3506141726071
 30
0.0
 41
1.0
  0
SPLINE
  5
13A0
330
D
100
AcDbEntity
 67
     1
  8
AM_VIS
100
AcDbSpline
210
-0.000000000000555
220
0.0000000000001109
230
1.0
 70
    12
 71
     2
 72
     6
 73
     3
 74
     0
 42
0.0000000001
 43
0.0000000001
 40
4.915716670580895
 40
4.915716670580895
 40
4.915716670580895
 40
9.831433341161789
 40
9.831433341161789
 40
9.831433341161789
 10
304.6220686286088
 20
441.5599477202596
 30
0.0000000000001137
 41
1.075926872400436
 10
304.6220686286088
 20
443.8179548232512
 30
0.0000000000001137
 41
1.075926872400436
 10
305.3672874323343
 20
446.418848760619
 30
0.0
 41
1.0
  0
LINE
  5
13A1
330
D
100
AcDbEntity
 67
     1
  8
AM_VIS
100
AcDbLine
 10
310.5775015978474
 20
431.7692812679127
 30
0.0
 11
305.3672874323343
 21
431.7692812679127
 31
0.0
  0
LINE
  5
13A2
330
D
100
AcDbEntity
 67
     1
  8
AM_VIS
100
AcDbLine
 10
305.3672874323343
 20
451.3506141726071
 30
0.0
 11
310.5775015978474
 21
451.3506141726071
 31
0.0
  0
LINE
  5
13A3
330
D
100
AcDbEntity
 67
     1
  8
AM_VIS
100
AcDbLine
 10
305.3672874323343
 20
446.418848760619
 30
0.0
 11
310.5775015978474
 21
446.418848760619
 31
0.0
  0
LINE
  5
13A4
330
D
100
AcDbEntity
 67
     1
  8
AM_VIS
100
AcDbLine
 10
310.5775015978474
 20
446.4917131322485
 30
0.0
 11
305.3672874323343
 21
446.4917131322485
 31
0.0
  0
LINE
  5
13A5
330
D
100
AcDbEntity
 67
     1
  8
AM_VIS
100
AcDbLine
 10
305.3672874323343
 20
436.6281823082716
 30
0.0
 11
310.5775015978474
 21
436.6281823082716
 31
0.0
  0
LINE
  5
13A6
330
D
100
AcDbEntity
 67
     1
  8
AM_VIS
100
AcDbLine
 10
310.5775015978474
 20
436.7010466799012
 30
0.0
 11
305.3672874323343
 21
436.7010466799012
 31
0.0
  0
SPLINE
  5
13A7
330
D
100
AcDbEntity
 67
     1
  8
AM_VIS
100
AcDbSpline
210
0.000000000000555
220
0.0000000000001109
230
1.0
 70
    12
 71
     2
 72
     6
 73
     3
 74
     0
 42
0.0000000001
 43
0.0000000001
 40
0.0
 40
0.0
 40
0.0
 40
4.915716670580776
 40
4.915716670580776
 40
4.915716670580776
 10
310.5775015978474
 20
446.418848760619
 30
0.0
 41
1.0
 10
311.3227204015719
 20
443.8179548232514
 30
0.0000000000001137
 41
1.075926872400424
 10
311.3227204015719
 20
441.5599477202601
 30
0.0000000000001137
 41
1.075926872400424
  0
SPLINE
  5
13A8
330
D
100
AcDbEntity
 67
     1
  8
AM_VIS
100
AcDbSpline
210
0.0
220
0.0
230
1.0
 70
    12
 71
     2
 72
     6
 73
     3
 74
     0
 42
0.0000000001
 43
0.0000000001
 40
0.0
 40
0.0
 40
0.0
 40
9.831433341161512
 40
9.831433341161512
 40
9.831433341161512
 10
310.5775015978474
 20
451.3506141726071
 30
0.0
 41
1.0
 10
311.969693862472
 20
448.9211636524279
 30
0.0
 41
1.151853744800874
 10
310.5775015978474
 20
446.4917131322485
 30
0.0
 41
1.0
  0
SPLINE
  5
13A9
330
D
100
AcDbEntity
 67
     1
  8
AM_VIS
100
AcDbSpline
210
0.0
220
0.0
230
1.0
 70
    12
 71
     2
 72
     6
 73
     3
 74
     0
 42
0.0000000001
 43
0.0000000001
 40
0.0
 40
0.0
 40
0.0
 40
9.831433341161512
 40
9.831433341161512
 40
9.831433341161512
 10
310.5775015978474
 20
436.6281823082716
 30
0.0
 41
1.0
 10
311.969693862472
 20
434.1987317880922
 30
0.0
 41
1.151853744800874
 10
310.5775015978474
 20
431.7692812679127
 30
0.0
 41
1.0
  0
SPLINE
  5
13AA
330
D
100
AcDbEntity
 67
     1
  8
AM_VIS
100
AcDbSpline
210
0.000000000000555
220
-0.0000000000001109
230
1.0
 70
    12
 71
     2
 72
     6
 73
     3
 74
     0
 42
0.0000000001
 43
0.0000000001
 40
4.915716670580776
 40
4.915716670580776
 40
4.915716670580776
 40
9.831433341161552
 40
9.831433341161552
 40
9.831433341161552
 10
311.3227204015719
 20
441.5599477202601
 30
0.0000000000001137
 41
1.075926872400424
 10
311.3227204015719
 20
439.3019406172688
 30
0.0000000000001137
 41
1.075926872400424
 10
310.5775015978474
 20
436.7010466799012
 30
0.0
 41
1.0
  0
SPLINE
  5
13AB
330
D
100
AcDbEntity
 67
     1
  8
AM_VIS
100
AcDbSpline
210
-0.000000000000555
220
-0.0000000000001109
230
1.0
 70
    12
 71
     2
 72
     6
 73
     3
 74
     0
 42
0.0000000001
 43
0.0000000001
 40
0.0
 40
0.0
 40
0.0
 40
4.915716670580895
 40
4.915716670580895
 40
4.915716670580895
 10
305.3672874323343
 20
436.7010466799012
 30
0.0
 41
1.0
 10
304.6220686286088
 20
439.3019406172687
 30
0.0000000000001137
 41
1.075926872400436
 10
304.6220686286088
 20
441.5599477202596
 30
0.0000000000001137
 41
1.075926872400436
  0
SPLINE
  5
13AC
330
D
100
AcDbEntity
 67
     1
  8
AM_VIS
100
AcDbSpline
210
0.0
220
0.0
230
1.0
 70
    12
 71
     2
 72
     6
 73
     3
 74
     0
 42
0.0000000001
 43
0.0000000001
 40
0.0
 40
0.0
 40
0.0
 40
9.831433341161954
 40
9.831433341161954
 40
9.831433341161954
 10
305.3672874323343
 20
431.7692812679127
 30
0.0
 41
1.0
 10
303.9750951677082
 20
434.1987317880921
 30
0.0000000000001137
 41
1.151853744800868
 10
305.3672874323343
 20
436.6281823082719
 30
0.0
 41
1.0
  0
SPLINE
  5
13AD
330
D
100
AcDbEntity
 67
     1
  8
AM_VIS
100
AcDbSpline
210
0.0
220
0.0
230
1.0
 70
    12
 71
     2
 72
     6
 73
     3
 74
     0
 42
0.0000000001
 43
0.0000000001
 40
0.0
 40
0.0
 40
0.0
 40
9.831433341161526
 40
9.831433341161526
 40
9.831433341161526
 10
310.5775015978474
 20
347.6281823082717
 30
0.0
 41
1.0
 10
311.9696938624719
 20
345.1987317880922
 30
0.0000000000001137
 41
1.151853744800849
 10
310.5775015978474
 20
342.7692812679128
 30
0.0
 41
1.0
  0
SPLINE
  5
13AE
330
D
100
AcDbEntity
 67
     1
  8
AM_VIS
100
AcDbSpline
210
0.000000000000555
220
-0.0000000000001109
230
1.0
 70
    12
 71
     2
 72
     6
 73
     3
 74
     0
 42
0.0000000001
 43
0.0000000001
 40
4.915716670580776
 40
4.915716670580776
 40
4.915716670580776
 40
9.831433341161552
 40
9.831433341161552
 40
9.831433341161552
 10
311.3227204015719
 20
352.5599477202601
 30
0.0000000000001137
 41
1.075926872400424
 10
311.3227204015719
 20
350.3019406172685
 30
0.0000000000001137
 41
1.075926872400424
 10
310.5775015978474
 20
347.7010466799012
 30
0.0
 41
1.0
  0
SPLINE
  5
13AF
330
D
100
AcDbEntity
 67
     1
  8
AM_VIS
100
AcDbSpline
210
-0.000000000000555
220
-0.0000000000001109
230
1.0
 70
    12
 71
     2
 72
     6
 73
     3
 74
     0
 42
0.0000000001
 43
0.0000000001
 40
0.0
 40
0.0
 40
0.0
 40
4.915716670580894
 40
4.915716670580894
 40
4.915716670580894
 10
305.3672874323343
 20
347.7010466799012
 30
0.0
 41
1.0
 10
304.6220686286088
 20
350.3019406172685
 30
0.0000000000001137
 41
1.075926872400436
 10
304.6220686286088
 20
352.55994772026
 30
0.0000000000001137
 41
1.075926872400436
  0
SPLINE
  5
13B0
330
D
100
AcDbEntity
 67
     1
  8
AM_VIS
100
AcDbSpline
210
0.0
220
0.0
230
1.0
 70
    12
 71
     2
 72
     6
 73
     3
 74
     0
 42
0.0000000001
 43
0.0000000001
 40
0.0
 40
0.0
 40
0.0
 40
9.831433341161755
 40
9.831433341161755
 40
9.831433341161755
 10
305.3672874323343
 20
342.7692812679128
 30
0.0
 41
1.0
 10
303.9750951677082
 20
345.1987317880924
 30
-0.0000000000001137
 41
1.151853744800896
 10
305.3672874323343
 20
347.6281823082717
 30
0.0
 41
1.0
  0
LINE
  5
13B3
330
D
100
AcDbEntity
 67
     1
  8
AM_VIS
100
AcDbLine
 10
304.4723945150904
 20
360.8007045510682
 30
0.0
 11
305.3672874323343
 21
362.3507045510674
 31
0.0
  0
LINE
  5
13B4
330
D
100
AcDbEntity
 67
     1
  8
AM_VIS
100
AcDbLine
 10
305.3672874323343
 20
342.7691908894527
 30
0.0
 11
310.5775015978474
 21
342.7691908894527
 31
0.0
  0
LINE
  5
13B5
330
D
100
AcDbEntity
 67
     1
  8
AM_VIS
100
AcDbLine
 10
305.3672874323343
 20
362.3507045510674
 30
0.0
 11
310.5775015978474
 21
362.3507045510674
 31
0.0
  0
LINE
  5
13B6
330
D
100
AcDbEntity
 67
     1
  8
AM_VIS
100
AcDbLine
 10
310.5775015978474
 20
362.3507045510674
 30
0.0
 11
311.4723945150904
 21
360.8007045510682
 31
0.0
  0
LINE
  5
13B7
330
D
100
AcDbEntity
 67
     1
  8
AM_VIS
100
AcDbLine
 10
301.9723945150904
 20
362.3507045510674
 30
0.0
 11
304.4723945150904
 21
362.3507045510674
 31
0.0
  0
LINE
  5
13B8
330
D
100
AcDbEntity
 67
     1
  8
AM_VIS
100
AcDbLine
 10
312.4723945150904
 20
357.5599477202601
 30
0.0
 11
313.9723945150904
 21
356.0599477202601
 31
0.0
  0
LINE
  5
13B9
330
D
100
AcDbEntity
 67
     1
  8
AM_VIS
100
AcDbLine
 10
311.4723945150904
 20
357.5599477202601
 30
0.0
 11
312.4723945150904
 21
357.5599477202601
 31
0.0
  0
LINE
  5
13BA
330
D
100
AcDbEntity
 67
     1
  8
AM_VIS
100
AcDbLine
 10
304.4723945150904
 20
449.8007045510684
 30
0.0
 11
305.3672874323343
 21
451.3507045510674
 31
0.0
  0
LINE
  5
13BB
330
D
100
AcDbEntity
 67
     1
  8
AM_VIS
100
AcDbLine
 10
305.3672874323343
 20
431.7691908894527
 30
0.0
 11
310.5775015978474
 21
431.7691908894527
 31
0.0
  0
LINE
  5
13BC
330
D
100
AcDbEntity
 67
     1
  8
AM_VIS
100
AcDbLine
 10
305.3672874323343
 20
451.3507045510674
 30
0.0
 11
310.5775015978474
 21
451.3507045510674
 31
0.0
  0
LINE
  5
13BD
330
D
100
AcDbEntity
 67
     1
  8
AM_VIS
100
AcDbLine
 10
310.5775015978474
 20
451.3507045510676
 30
0.0
 11
311.4723945150904
 21
449.8007045510679
 31
0.0
  0
LINE
  5
13BE
330
D
100
AcDbEntity
 67
     1
  8
AM_VIS
100
AcDbLine
 10
301.9723945150904
 20
451.3507045510674
 30
0.0
 11
304.4723945150904
 21
451.3507045510674
 31
0.0
  0
LINE
  5
13BF
330
D
100
AcDbEntity
 67
     1
  8
AM_VIS
100
AcDbLine
 10
312.4723945150904
 20
446.5599477202601
 30
0.0
 11
313.9723945150904
 21
445.05994772026
 31
0.0
  0
LINE
  5
13C0
330
D
100
AcDbEntity
 67
     1
  8
AM_VIS
100
AcDbLine
 10
311.4723945150904
 20
446.5599477202601
 30
0.0
 11
312.4723945150904
 21
446.5599477202601
 31
0.0
  0
LINE
  5
13C1
330
D
100
AcDbEntity
 67
     1
  8
AM_VIS
100
AcDbLine
 10
311.4723945150904
 20
436.55994772026
 30
0.0
 11
312.4723945150904
 21
436.55994772026
 31
0.0
  0
LINE
  5
13C2
330
D
100
AcDbEntity
 67
     1
  8
AM_VIS
100
AcDbLine
 10
312.4723945150904
 20
436.55994772026
 30
0.0
 11
313.9723945150904
 21
438.0599477202601
 31
0.0
  0
LINE
  5
13C3
330
D
100
AcDbEntity
 67
     1
  8
AM_VIS
100
AcDbLine
 10
301.9723945150904
 20
431.7691908894527
 30
0.0
 11
304.4723945150904
 21
431.7691908894527
 31
0.0
  0
LINE
  5
13C4
330
D
100
AcDbEntity
 67
     1
  8
AM_VIS
100
AcDbLine
 10
310.5775015978474
 20
431.7691908894527
 30
0.0
 11
311.4723945150904
 21
433.3191908894519
 31
0.0
  0
LINE
  5
13C5
330
D
100
AcDbEntity
 67
     1
  8
AM_VIS
100
AcDbLine
 10
304.4723945150904
 20
433.3191908894519
 30
0.0
 11
305.3672874323343
 21
431.7691908894529
 31
0.0
  0
LINE
  5
13C6
330
D
100
AcDbEntity
 67
     1
  8
AM_VIS
100
AcDbLine
 10
311.4723945150904
 20
347.5599477202601
 30
0.0
 11
312.4723945150904
 21
347.5599477202601
 31
0.0
  0
LINE
  5
13C7
330
D
100
AcDbEntity
 67
     1
  8
AM_VIS
100
AcDbLine
 10
312.4723945150904
 20
347.5599477202601
 30
0.0
 11
313.9723945150904
 21
349.0599477202601
 31
0.0
  0
LINE
  5
13C8
330
D
100
AcDbEntity
 67
     1
  8
AM_VIS
100
AcDbLine
 10
301.9723945150904
 20
342.7691908894527
 30
0.0
 11
304.4723945150904
 21
342.7691908894527
 31
0.0
  0
LINE
  5
13C9
330
D
100
AcDbEntity
 67
     1
  8
AM_VIS
100
AcDbLine
 10
310.5775015978474
 20
342.7691908894525
 30
0.0
 11
311.4723945150904
 21
344.319190889452
 31
0.0
  0
LINE
  5
13CA
330
D
100
AcDbEntity
 67
     1
  8
AM_VIS
100
AcDbLine
 10
304.4723945150904
 20
344.3191908894522
 30
0.0
 11
305.3672874323341
 21
342.769190889453
 31
0.0
  0
LINE
  5
13CE
330
D
100
AcDbEntity
 67
     1
  8
AM_VIS
100
AcDbLine
 10
305.3672874323343
 20
362.3507045510674
 30
0.0
 11
305.3672874323343
 21
362.3506141726074
 31
0.0
  0
LINE
  5
13CF
330
D
100
AcDbEntity
 67
     1
  8
AM_VIS
100
AcDbLine
 10
305.3672874323343
 20
357.4917131322485
 30
0.0
 11
305.3672874323343
 21
357.418848760619
 31
0.0
  0
LINE
  5
13D0
330
D
100
AcDbEntity
 67
     1
  8
AM_VIS
100
AcDbLine
 10
310.5775015978474
 20
357.4917131322485
 30
0.0
 11
310.5775015978474
 21
357.418848760619
 31
0.0
  0
LINE
  5
13D1
330
D
100
AcDbEntity
 67
     1
  8
AM_VIS
100
AcDbLine
 10
310.5775015978474
 20
362.3507045510674
 30
0.0
 11
310.5775015978474
 21
362.3506141726074
 31
0.0
  0
LINE
  5
13D2
330
D
100
AcDbEntity
 67
     1
  8
AM_VIS
100
AcDbLine
 10
311.4723945150904
 20
360.8007045510682
 30
0.0
 11
311.4723945150904
 21
352.5599477202601
 31
0.0
  0
LINE
  5
13D3
330
D
100
AcDbEntity
 67
     1
  8
AM_VIS
100
AcDbLine
 10
313.9723945150904
 20
356.0599477202601
 30
0.0
 11
313.9723945150904
 21
352.5599477202601
 31
0.0
  0
LINE
  5
13D4
330
D
100
AcDbEntity
 67
     1
  8
AM_VIS
100
AcDbLine
 10
304.4723945150904
 20
362.3507045510674
 30
0.0
 11
304.4723945150904
 21
352.5599477202601
 31
0.0
  0
LINE
  5
13D5
330
D
100
AcDbEntity
 67
     1
  8
AM_VIS
100
AcDbLine
 10
312.4723945150904
 20
357.5599477202601
 30
0.0
 11
312.4723945150904
 21
352.5599477202601
 31
0.0
  0
LINE
  5
13D6
330
D
100
AcDbEntity
 67
     1
  8
AM_VIS
100
AcDbLine
 10
305.3672874323343
 20
451.3507045510674
 30
0.0
 11
305.3672874323343
 21
451.3506141726074
 31
0.0
  0
LINE
  5
13D7
330
D
100
AcDbEntity
 67
     1
  8
AM_VIS
100
AcDbLine
 10
305.3672874323343
 20
446.4917131322485
 30
0.0
 11
305.3672874323343
 21
446.418848760619
 31
0.0
  0
LINE
  5
13D8
330
D
100
AcDbEntity
 67
     1
  8
AM_VIS
100
AcDbLine
 10
310.5775015978474
 20
446.4917131322485
 30
0.0
 11
310.5775015978474
 21
446.418848760619
 31
0.0
  0
LINE
  5
13D9
330
D
100
AcDbEntity
 67
     1
  8
AM_VIS
100
AcDbLine
 10
310.5775015978474
 20
451.3507045510674
 30
0.0
 11
310.5775015978474
 21
451.3506141726074
 31
0.0
  0
LINE
  5
13DA
330
D
100
AcDbEntity
 67
     1
  8
AM_VIS
100
AcDbLine
 10
311.4723945150904
 20
449.8007045510681
 30
0.0
 11
311.4723945150904
 21
441.5599477202601
 31
0.0
  0
LINE
  5
13DB
330
D
100
AcDbEntity
 67
     1
  8
AM_VIS
100
AcDbLine
 10
313.9723945150904
 20
445.05994772026
 30
0.0
 11
313.9723945150904
 21
441.5599477202601
 31
0.0
  0
LINE
  5
13DC
330
D
100
AcDbEntity
 67
     1
  8
AM_VIS
100
AcDbLine
 10
304.4723945150904
 20
451.3507045510674
 30
0.0
 11
304.4723945150904
 21
441.5599477202601
 31
0.0
  0
LINE
  5
13DD
330
D
100
AcDbEntity
 67
     1
  8
AM_VIS
100
AcDbLine
 10
312.4723945150904
 20
446.5599477202601
 30
0.0
 11
312.4723945150904
 21
441.5599477202601
 31
0.0
  0
LINE
  5
13DE
330
D
100
AcDbEntity
 67
     1
  8
AM_VIS
100
AcDbLine
 10
313.9723945150904
 20
441.5599477202601
 30
0.0
 11
313.9723945150904
 21
438.0599477202601
 31
0.0
  0
LINE
  5
13DF
330
D
100
AcDbEntity
 67
     1
  8
AM_VIS
100
AcDbLine
 10
312.4723945150904
 20
441.5599477202601
 30
0.0
 11
312.4723945150904
 21
436.55994772026
 31
0.0
  0
LINE
  5
13E0
330
D
100
AcDbEntity
 67
     1
  8
AM_VIS
100
AcDbLine
 10
304.4723945150904
 20
441.5599477202601
 30
0.0
 11
304.4723945150904
 21
431.7691908894527
 31
0.0
  0
LINE
  5
13E1
330
D
100
AcDbEntity
 67
     1
  8
AM_VIS
100
AcDbLine
 10
311.4723945150904
 20
441.5599477202601
 30
0.0
 11
311.4723945150904
 21
433.3191908894519
 31
0.0
  0
LINE
  5
13E2
330
D
100
AcDbEntity
 67
     1
  8
AM_VIS
100
AcDbLine
 10
310.5775015978474
 20
431.7692812679127
 30
0.0
 11
310.5775015978474
 21
431.7691908894527
 31
0.0
  0
LINE
  5
13E3
330
D
100
AcDbEntity
 67
     1
  8
AM_VIS
100
AcDbLine
 10
310.5775015978474
 20
436.7010466799012
 30
0.0
 11
310.5775015978474
 21
436.6281823082716
 31
0.0
  0
LINE
  5
13E4
330
D
100
AcDbEntity
 67
     1
  8
AM_VIS
100
AcDbLine
 10
305.3672874323343
 20
436.7010466799012
 30
0.0
 11
305.3672874323343
 21
436.6281823082716
 31
0.0
  0
LINE
  5
13E5
330
D
100
AcDbEntity
 67
     1
  8
AM_VIS
100
AcDbLine
 10
305.3672874323343
 20
431.7692812679127
 30
0.0
 11
305.3672874323343
 21
431.7691908894527
 31
0.0
  0
LINE
  5
13E6
330
D
100
AcDbEntity
 67
     1
  8
AM_VIS
100
AcDbLine
 10
313.9723945150904
 20
352.5599477202601
 30
0.0
 11
313.9723945150904
 21
349.0599477202601
 31
0.0
  0
LINE
  5
13E7
330
D
100
AcDbEntity
 67
     1
  8
AM_VIS
100
AcDbLine
 10
312.4723945150904
 20
352.5599477202601
 30
0.0
 11
312.4723945150904
 21
347.5599477202601
 31
0.0
  0
LINE
  5
13E8
330
D
100
AcDbEntity
 67
     1
  8
AM_VIS
100
AcDbLine
 10
304.4723945150904
 20
352.5599477202601
 30
0.0
 11
304.4723945150904
 21
342.7691908894527
 31
0.0
  0
LINE
  5
13E9
330
D
100
AcDbEntity
 67
     1
  8
AM_VIS
100
AcDbLine
 10
311.4723945150904
 20
352.5599477202601
 30
0.0
 11
311.4723945150904
 21
344.319190889452
 31
0.0
  0
LINE
  5
13EA
330
D
100
AcDbEntity
 67
     1
  8
AM_VIS
100
AcDbLine
 10
310.5775015978474
 20
342.7692812679128
 30
0.0
 11
310.5775015978474
 21
342.7691908894527
 31
0.0
  0
LINE
  5
13EB
330
D
100
AcDbEntity
 67
     1
  8
AM_VIS
100
AcDbLine
 10
310.5775015978474
 20
347.7010466799012
 30
0.0
 11
310.5775015978474
 21
347.6281823082717
 31
0.0
  0
LINE
  5
13EC
330
D
100
AcDbEntity
 67
     1
  8
AM_VIS
100
AcDbLine
 10
305.3672874323343
 20
347.7010466799012
 30
0.0
 11
305.3672874323343
 21
347.6281823082717
 31
0.0
  0
LINE
  5
13ED
330
D
100
AcDbEntity
 67
     1
  8
AM_VIS
100
AcDbLine
 10
305.3672874323343
 20
342.7692812679128
 30
0.0
 11
305.3672874323343
 21
342.7691908894527
 31
0.0
  0
LINE
  5
13F0
330
D
100
AcDbEntity
 67
     1
  8
AM_VIS
100
AcDbLine
 10
399.9723945150908
 20
130.1954729364312
 30
0.0
 11
399.9723945150908
 21
224.5776746484065
 31
0.0
  0
LINE
  5
13F1
330
D
100
AcDbEntity
 67
     1
  8
AM_VIS
100
AcDbLine
 10
289.9723945150908
 20
234.3865737924188
 30
0.0
 11
301.9723945150909
 21
234.3865737924188
 31
0.0
  0
LINE
  5
13F2
330
D
100
AcDbEntity
 67
     1
  8
AM_VIS
100
AcDbLine
 10
301.9723945150909
 20
224.5776746484065
 30
0.0
 11
289.9723945150908
 21
224.5776746484065
 31
0.0
  0
LINE
  5
13F3
330
D
100
AcDbEntity
 67
     1
  8
AM_VIS
100
AcDbLine
 10
289.9723945150908
 20
130.1954729364312
 30
0.0
 11
301.9723945150909
 21
130.1954729364312
 31
0.0
  0
LINE
  5
13F4
330
D
100
AcDbEntity
 67
     1
  8
AM_VIS
100
AcDbLine
 10
301.9723945150909
 20
120.3865737924188
 30
0.0
 11
289.9723945150908
 21
120.3865737924188
 31
0.0
  0
LINE
  5
13F5
330
D
100
AcDbEntity
 67
     1
  8
AM_VIS
100
AcDbLine
 10
399.9723945150908
 20
224.5776746484065
 30
0.0
 11
321.9723945150909
 21
224.5776746484065
 31
0.0
  0
LINE
  5
13F6
330
D
100
AcDbEntity
 67
     1
  8
AM_VIS
100
AcDbLine
 10
321.9723945150909
 20
234.3865737924188
 30
0.0
 11
399.9723945150908
 21
234.3865737924188
 31
0.0
  0
LINE
  5
13F7
330
D
100
AcDbEntity
 67
     1
  8
AM_VIS
100
AcDbLine
 10
321.9723945150909
 20
130.1954729364312
 30
0.0
 11
399.9723945150908
 21
130.1954729364312
 31
0.0
  0
LINE
  5
13F8
330
D
100
AcDbEntity
 67
     1
  8
AM_VIS
100
AcDbLine
 10
399.9723945150908
 20
120.3865737924188
 30
0.0
 11
321.9723945150909
 21
120.3865737924188
 31
0.0
  0
LINE
  5
13F9
330
D
100
AcDbEntity
 67
     1
  8
AM_VIS
100
AcDbLine
 10
321.9723945150909
 20
224.5776746484065
 30
0.0
 11
321.9723945150909
 21
130.1954729364312
 31
0.0
  0
LINE
  5
13FA
330
D
100
AcDbEntity
 67
     1
  8
AM_VIS
100
AcDbLine
 10
301.9723945150909
 20
120.3865737924188
 30
0.0
 11
301.9723945150909
 21
234.386573792419
 31
0.0
  0
LINE
  5
13FB
330
D
100
AcDbEntity
 67
     1
  8
AM_VIS
100
AcDbLine
 10
408.4723945150908
 20
149.8865737924188
 30
0.0
 11
399.9723945150908
 21
149.8865737924188
 31
0.0
  0
LINE
  5
13FC
330
D
100
AcDbEntity
 67
     1
  8
AM_VIS
100
AcDbLine
 10
409.9723945150908
 20
151.3865737924188
 30
0.0
 11
408.4723945150908
 21
149.8865737924188
 31
0.0
  0
LINE
  5
13FD
330
D
100
AcDbEntity
 67
     1
  8
AM_VIS
100
AcDbLine
 10
321.9723945123945
 20
131.5866666799695
 30
0.0
 11
321.9723945123945
 21
131.5865737924189
 31
0.0
  0
LINE
  5
13FE
330
D
100
AcDbEntity
 67
     1
  8
AM_VIS
100
AcDbLine
 10
321.9723945150909
 20
132.3865737924188
 30
0.0
 11
313.9723945150909
 21
132.3865737924188
 31
0.0
  0
LINE
  5
13FF
330
D
100
AcDbEntity
 67
     1
  8
AM_VIS
100
AcDbLine
 10
321.9723945150909
 20
222.3865737924189
 30
0.0
 11
313.9723945150907
 21
222.3865737924189
 31
0.0
  0
LINE
  5
1400
330
D
100
AcDbEntity
 67
     1
  8
AM_VIS
100
AcDbLine
 10
409.9723945150908
 20
203.3865737924188
 30
0.0
 11
408.4723945150908
 21
204.8865737924189
 31
0.0
  0
LINE
  5
1401
330
D
100
AcDbEntity
 67
     1
  8
AM_VIS
100
AcDbLine
 10
408.4723945150908
 20
204.8865737924189
 30
0.0
 11
399.9723945150908
 21
204.8865737924189
 31
0.0
  0
LINE
  5
1402
330
D
100
AcDbEntity
 67
     1
  8
AM_VIS
100
AcDbLine
 10
409.9723945150908
 20
177.3865737924188
 30
0.0
 11
409.9723945150908
 21
151.3865737924188
 31
0.0
  0
LINE
  5
1403
330
D
100
AcDbEntity
 67
     1
  8
AM_VIS
100
AcDbLine
 10
408.4723945150908
 20
149.8865737924188
 30
0.0
 11
408.4723945150908
 21
177.3865737924188
 31
0.0
  0
ARC
  5
1404
330
D
100
AcDbEntity
 67
     1
  8
AM_VIS
100
AcDbCircle
 10
330.9723945150909
 20
140.3865737924188
 30
0.0
 40
5.722385000000002
100
AcDbArc
 50
0.0
 51
180.0
  0
ARC
  5
1405
330
D
100
AcDbEntity
 67
     1
  8
AM_VIS
100
AcDbCircle
 10
355.9723945150909
 20
177.3865737924188
 30
0.0
 40
32.0
100
AcDbArc
 50
0.0
 51
180.0
  0
LINE
  5
1408
330
D
100
AcDbEntity
 67
     1
  8
AM_VIS
100
AcDbLine
 10
399.9723945150908
 20
224.5776746484065
 30
0.0
 11
399.9723945150908
 21
234.3865737924188
 31
0.0
  0
LINE
  5
1409
330
D
100
AcDbEntity
 67
     1
  8
AM_VIS
100
AcDbLine
 10
399.9723945150908
 20
120.3865737924188
 30
0.0
 11
399.9723945150908
 21
130.1954729364312
 31
0.0
  0
LINE
  5
140A
330
D
100
AcDbEntity
 67
     1
  8
AM_VIS
100
AcDbLine
 10
321.9723945150909
 20
234.3865737924188
 30
0.0
 11
321.9723945150909
 21
224.5776746484065
 31
0.0
  0
LINE
  5
140B
330
D
100
AcDbEntity
 67
     1
  8
AM_VIS
100
AcDbLine
 10
321.9723945150909
 20
130.1954729364312
 30
0.0
 11
321.9723945150909
 21
120.3865737924188
 31
0.0
  0
ARC
  5
140C
330
D
100
AcDbEntity
 67
     1
  8
AM_VIS
100
AcDbCircle
 10
330.9723945150909
 20
140.3865737924188
 30
0.0
 40
5.722385000000002
100
AcDbArc
 50
180.0
 51
0.0
  0
ARC
  5
140D
330
D
100
AcDbEntity
 67
     1
  8
AM_VIS
100
AcDbCircle
 10
355.9723945150909
 20
177.3865737924188
 30
0.0
 40
32.0
100
AcDbArc
 50
180.0
 51
0.0
  0
LINE
  5
140E
330
D
100
AcDbEntity
 67
     1
  8
AM_VIS
100
AcDbLine
 10
409.9723945150908
 20
203.3865737924188
 30
0.0
 11
409.9723945150908
 21
177.3865737924188
 31
0.0
  0
LINE
  5
140F
330
D
100
AcDbEntity
 67
     1
  8
AM_VIS
100
AcDbLine
 10
408.4723945150908
 20
177.3865737924188
 30
0.0
 11
408.4723945150908
 21
204.8865737924189
 31
0.0
  0
LINE
  5
1410
330
D
100
AcDbEntity
 67
     1
  8
AM_VIS
100
AcDbLine
 10
434.9723945150908
 20
192.5558460010303
 30
0.0
 11
437.9723945150908
 21
190.6865737924189
 31
0.0
  0
LINE
  5
1411
330
D
100
AcDbEntity
 67
     1
  8
AM_VIS
100
AcDbLine
 10
434.9723945150908
 20
162.2173015838074
 30
0.0
 11
437.9723945150908
 21
164.0865737924188
 31
0.0
  0
LINE
  5
1412
330
D
100
AcDbEntity
 67
     1
  8
AM_VIS
100
AcDbLine
 10
437.9723945150908
 20
190.6865737924189
 30
0.0
 11
437.9723945150908
 21
164.0865737924188
 31
0.0
  0
ARC
  5
1413
330
D
100
AcDbEntity
 67
     1
  8
AM_VIS
100
AcDbCircle
 10
355.9723945150909
 20
177.3865737924188
 30
0.0
 40
32.0
100
AcDbArc
 50
0.0
 51
180.0
  0
ARC
  5
1414
330
D
100
AcDbEntity
 67
     1
  8
AM_VIS
100
AcDbCircle
 10
382.9723945150909
 20
177.3865737924188
 30
0.0
 40
4.3
100
AcDbArc
 50
180.0
 51
0.0
  0
ARC
  5
1415
330
D
100
AcDbEntity
 67
     1
  8
AM_VIS
100
AcDbCircle
 10
328.9723945150909
 20
177.3865737924188
 30
0.0
 40
4.3
100
AcDbArc
 50
180.0
 51
0.0
  0
ARC
  5
1416
330
D
100
AcDbEntity
 67
     1
  8
AM_VIS
100
AcDbCircle
 10
328.9723945150909
 20
177.3865737924188
 30
0.0
 40
4.3
100
AcDbArc
 50
0.0
 51
180.0
  0
ARC
  5
1417
330
D
100
AcDbEntity
 67
     1
  8
AM_VIS
100
AcDbCircle
 10
382.9723945150909
 20
177.3865737924188
 30
0.0
 40
4.3
100
AcDbArc
 50
0.0
 51
180.0
  0
ARC
  5
1418
330
D
100
AcDbEntity
 67
     1
  8
AM_VIS
100
AcDbCircle
 10
355.9723945150909
 20
177.3865737924188
 30
0.0
 40
32.0
100
AcDbArc
 50
180.0
 51
0.0
  0
LINE
  5
1419
330
D
100
AcDbEntity
 67
     1
  8
AM_VIS
100
AcDbLine
 10
330.2223945150909
 20
178.109009992024
 30
0.0
 11
328.9723945150909
 21
178.8303237924188
 31
0.0
  0
LINE
  5
141A
330
D
100
AcDbEntity
 67
     1
  8
AM_VIS
100
AcDbLine
 10
328.9723945150909
 20
178.8303237924188
 30
0.0
 11
327.7223945150908
 21
178.109009992024
 31
0.0
  0
LINE
  5
141B
330
D
100
AcDbEntity
 67
     1
  8
AM_VIS
100
AcDbLine
 10
327.7223945150908
 20
178.109009992024
 30
0.0
 11
327.7223945150908
 21
176.6641375928136
 31
0.0
  0
LINE
  5
141C
330
D
100
AcDbEntity
 67
     1
  8
AM_VIS
100
AcDbLine
 10
327.7223945150908
 20
176.6641375928136
 30
0.0
 11
328.9723945150909
 21
175.9428237924189
 31
0.0
  0
LINE
  5
141D
330
D
100
AcDbEntity
 67
     1
  8
AM_VIS
100
AcDbLine
 10
328.9723945150909
 20
175.9428237924189
 30
0.0
 11
330.2223945150909
 21
176.6641375928136
 31
0.0
  0
LINE
  5
141E
330
D
100
AcDbEntity
 67
     1
  8
AM_VIS
100
AcDbLine
 10
330.2223945150909
 20
176.6641375928136
 30
0.0
 11
330.2223945150909
 21
178.109009992024
 31
0.0
  0
ARC
  5
141F
330
D
100
AcDbEntity
 67
     1
  8
AM_VIS
100
AcDbCircle
 10
328.9723945150909
 20
177.3865737924188
 30
0.0
 40
3.819999999999993
100
AcDbArc
 50
0.0
 51
180.0
  0
ARC
  5
1420
330
D
100
AcDbEntity
 67
     1
  8
AM_VIS
100
AcDbCircle
 10
328.9723945150909
 20
177.3865737924188
 30
0.0
 40
3.819999999999993
100
AcDbArc
 50
180.0
 51
0.0
  0
LINE
  5
1421
330
D
100
AcDbEntity
 67
     1
  8
AM_VIS
100
AcDbLine
 10
381.7223945150908
 20
176.6641375928136
 30
0.0
 11
382.9723945150909
 21
175.9428237924189
 31
0.0
  0
LINE
  5
1422
330
D
100
AcDbEntity
 67
     1
  8
AM_VIS
100
AcDbLine
 10
382.9723945150909
 20
175.9428237924189
 30
0.0
 11
384.2223945150909
 21
176.6641375928136
 31
0.0
  0
LINE
  5
1423
330
D
100
AcDbEntity
 67
     1
  8
AM_VIS
100
AcDbLine
 10
384.2223945150909
 20
176.6641375928136
 30
0.0
 11
384.2223945150909
 21
178.109009992024
 31
0.0
  0
LINE
  5
1424
330
D
100
AcDbEntity
 67
     1
  8
AM_VIS
100
AcDbLine
 10
384.2223945150909
 20
178.109009992024
 30
0.0
 11
382.9723945150909
 21
178.8303237924188
 31
0.0
  0
LINE
  5
1425
330
D
100
AcDbEntity
 67
     1
  8
AM_VIS
100
AcDbLine
 10
382.9723945150909
 20
178.8303237924188
 30
0.0
 11
381.7223945150908
 21
178.109009992024
 31
0.0
  0
LINE
  5
1426
330
D
100
AcDbEntity
 67
     1
  8
AM_VIS
100
AcDbLine
 10
381.7223945150908
 20
178.109009992024
 30
0.0
 11
381.7223945150908
 21
176.6641375928136
 31
0.0
  0
ARC
  5
1427
330
D
100
AcDbEntity
 67
     1
  8
AM_VIS
100
AcDbCircle
 10
382.9723945150909
 20
177.3865737924188
 30
0.0
 40
3.819999999999993
100
AcDbArc
 50
180.0
 51
0.0
  0
ARC
  5
1428
330
D
100
AcDbEntity
 67
     1
  8
AM_VIS
100
AcDbCircle
 10
382.9723945150909
 20
177.3865737924188
 30
0.0
 40
3.819999999999993
100
AcDbArc
 50
0.0
 51
180.0
  0
LINE
  5
1429
330
D
100
AcDbEntity
 67
     1
  8
AM_VIS
100
AcDbLine
 10
346.491787310374
 20
357.6247564690498
 30
0.0
 11
346.696654721955
 21
357.5560570561231
 31
0.0
  0
LINE
  5
142A
330
D
100
AcDbEntity
 67
     1
  8
AM_VIS
100
AcDbLine
 10
346.491787310374
 20
413.4951389714704
 30
0.0
 11
346.696654721955
 21
413.5638383843971
 31
0.0
  0
LINE
  5
142C
330
D
100
AcDbEntity
 67
     1
  8
AM_VIS
100
AcDbLine
 10
399.9723945150908
 20
349.8688468642724
 30
0.0
 11
399.9723945150908
 21
444.2510485762477
 31
0.0
  0
LINE
  5
142D
330
D
100
AcDbEntity
 67
     1
  8
AM_VIS
100
AcDbLine
 10
289.9723945150908
 20
349.8688468642724
 30
0.0
 11
301.9723945150909
 21
349.8688468642724
 31
0.0
  0
LINE
  5
142E
330
D
100
AcDbEntity
 67
     1
  8
AM_VIS
100
AcDbLine
 10
301.9723945150909
 20
340.0599477202602
 30
0.0
 11
289.9723945150908
 21
340.0599477202602
 31
0.0
  0
LINE
  5
142F
330
D
100
AcDbEntity
 67
     1
  8
AM_VIS
100
AcDbLine
 10
321.9723945150909
 20
454.0599477202602
 30
0.0
 11
399.9723945150908
 21
454.0599477202602
 31
0.0
  0
LINE
  5
1430
330
D
100
AcDbEntity
 67
     1
  8
AM_VIS
100
AcDbLine
 10
399.9723945150908
 20
444.2510485762477
 30
0.0
 11
321.9723945150909
 21
444.2510485762477
 31
0.0
  0
LINE
  5
1431
330
D
100
AcDbEntity
 67
     1
  8
AM_VIS
100
AcDbLine
 10
289.9723945150908
 20
454.0599477202602
 30
0.0
 11
301.9723945150909
 21
454.0599477202602
 31
0.0
  0
LINE
  5
1432
330
D
100
AcDbEntity
 67
     1
  8
AM_VIS
100
AcDbLine
 10
301.9723945150909
 20
444.2510485762477
 30
0.0
 11
289.9723945150908
 21
444.2510485762477
 31
0.0
  0
LINE
  5
1433
330
D
100
AcDbEntity
 67
     1
  8
AM_VIS
100
AcDbLine
 10
399.9723945150908
 20
340.0599477202602
 30
0.0
 11
321.9723945150909
 21
340.0599477202602
 31
0.0
  0
LINE
  5
1434
330
D
100
AcDbEntity
 67
     1
  8
AM_VIS
100
AcDbLine
 10
321.9723945150909
 20
349.8688468642724
 30
0.0
 11
399.9723945150908
 21
349.8688468642724
 31
0.0
  0
LINE
  5
1435
330
D
100
AcDbEntity
 67
     1
  8
AM_VIS
100
AcDbLine
 10
321.9723945150909
 20
444.2510485762477
 30
0.0
 11
321.9723945150909
 21
349.8688468642724
 31
0.0
  0
LINE
  5
1436
330
D
100
AcDbEntity
 67
     1
  8
AM_VIS
100
AcDbLine
 10
301.972394515091
 20
340.0599477202602
 30
0.0
 11
301.9723945150909
 21
454.0599477202601
 31
0.0
  0
LINE
  5
1437
330
D
100
AcDbEntity
 67
     1
  8
AM_VIS
100
AcDbLine
 10
321.9723945150909
 20
442.0599477202602
 30
0.0
 11
313.9723945150904
 21
442.0599477202602
 31
0.0
  0
LINE
  5
1438
330
D
100
AcDbEntity
 67
     1
  8
AM_VIS
100
AcDbLine
 10
321.9723945150909
 20
352.0599477202602
 30
0.0
 11
313.9723945150904
 21
352.0599477202602
 31
0.0
  0
LINE
  5
1439
330
D
100
AcDbEntity
 67
     1
  8
AM_VIS
100
AcDbLine
 10
336.3581836917143
 20
407.5949193520784
 30
0.0
 11
336.5201128343243
 21
407.7379900284517
 31
0.0
  0
LINE
  5
143A
330
D
100
AcDbEntity
 67
     1
  8
AM_VIS
100
AcDbLine
 10
384.8623451316033
 20
379.5910286879414
 30
0.0
 11
384.9052834005743
 21
379.8027987772416
 31
0.0
  0
LINE
  5
143B
330
D
100
AcDbEntity
 67
     1
  8
AM_VIS
100
AcDbLine
 10
384.8623451316033
 20
391.5288667525788
 30
0.0
 11
384.9052834005743
 21
391.3170966632788
 31
0.0
  0
LINE
  5
143C
330
D
100
AcDbEntity
 67
     1
  8
AM_VIS
100
AcDbLine
 10
336.3581836917143
 20
363.5249760884417
 30
0.0
 11
336.5201128343244
 21
363.3819054120684
 31
0.0
  0
LINE
  5
143D
330
D
100
AcDbEntity
 67
     1
  8
AM_VIS
100
AcDbLine
 10
409.9723945150908
 20
423.0599477202601
 30
0.0
 11
408.4723945150908
 21
424.5599477202602
 31
0.0
  0
LINE
  5
143E
330
D
100
AcDbEntity
 67
     1
  8
AM_VIS
100
AcDbLine
 10
409.9723945150908
 20
371.0599477202602
 30
0.0
 11
408.4723945150908
 21
369.5599477202602
 31
0.0
  0
LINE
  5
143F
330
D
100
AcDbEntity
 67
     1
  8
AM_VIS
100
AcDbLine
 10
408.4723945150908
 20
424.5599477202602
 30
0.0
 11
399.9723945150908
 21
424.5599477202602
 31
0.0
  0
LINE
  5
1440
330
D
100
AcDbEntity
 67
     1
  8
AM_VIS
100
AcDbLine
 10
408.4723945150908
 20
369.5599477202602
 30
0.0
 11
399.9723945150908
 21
369.5599477202602
 31
0.0
  0
ARC
  5
1441
330
D
100
AcDbEntity
 67
     1
  8
AM_VIS
100
AcDbCircle
 10
341.2223945150909
 20
360.0121983086192
 30
0.0
 40
6.25
100
AcDbArc
 50
270.0
 51
336.0808774330139
  0
ARC
  5
1442
330
D
100
AcDbEntity
 67
     1
  8
AM_VIS
100
AcDbCircle
 10
355.9723945150909
 20
385.5599477202602
 30
0.0
 40
29.5
100
AcDbArc
 50
132.1617548660395
 51
227.8382451339605
  0
ARC
  5
1443
330
D
100
AcDbEntity
 67
     1
  8
AM_VIS
100
AcDbCircle
 10
355.9723945150909
 20
385.5599477202602
 30
0.0
 40
29.5
100
AcDbArc
 50
12.16175486604165
 51
107.8382451339644
  0
ARC
  5
1444
330
D
100
AcDbEntity
 67
     1
  8
AM_VIS
100
AcDbCircle
 10
355.9723945150909
 20
385.5599477202602
 30
0.0
 40
29.5
100
AcDbArc
 50
252.1617548660356
 51
347.8382451339584
  0
ARC
  5
1445
330
D
100
AcDbEntity
 67
     1
  8
AM_VIS
100
AcDbCircle
 10
385.4723945150908
 20
385.5599477202602
 30
0.0
 40
6.25
100
AcDbArc
 50
270.0
 51
90.0
  0
ARC
  5
1446
330
D
100
AcDbEntity
 67
     1
  8
AM_VIS
100
AcDbCircle
 10
341.2223945150909
 20
411.1076971319009
 30
0.0
 40
6.25
100
AcDbArc
 50
23.91912256698611
 51
90.0
  0
LINE
  5
1448
330
D
100
AcDbEntity
 67
     1
  8
AM_VIS
100
AcDbLine
 10
399.9723945150908
 20
444.2510485762477
 30
0.0
 11
399.9723945150908
 21
454.0599477202602
 31
0.0
  0
LINE
  5
144A
330
D
100
AcDbEntity
 67
     1
  8
AM_VIS
100
AcDbLine
 10
399.9723945150908
 20
340.0599477202602
 30
0.0
 11
399.9723945150908
 21
349.8688468642724
 31
0.0
  0
LINE
  5
144B
330
D
100
AcDbEntity
 67
     1
  8
AM_VIS
100
AcDbLine
 10
321.9723945150909
 20
349.8688468642724
 30
0.0
 11
321.9723945150909
 21
340.0599477202602
 31
0.0
  0
LINE
  5
144C
330
D
100
AcDbEntity
 67
     1
  8
AM_VIS
100
AcDbLine
 10
321.9723945150909
 20
454.0599477202602
 30
0.0
 11
321.9723945150909
 21
444.2510485762477
 31
0.0
  0
ARC
  5
144D
330
D
100
AcDbEntity
 67
     1
  8
AM_VIS
100
AcDbCircle
 10
341.2223945150909
 20
411.1076971319009
 30
0.0
 40
6.25
100
AcDbArc
 50
90.0
 51
216.0808774330188
  0
ARC
  5
144E
330
D
100
AcDbEntity
 67
     1
  8
AM_VIS
100
AcDbCircle
 10
385.4723945150908
 20
385.5599477202602
 30
0.0
 40
6.25
100
AcDbArc
 50
263.9191225669839
 51
270.0
  0
ARC
  5
144F
330
D
100
AcDbEntity
 67
     1
  8
AM_VIS
100
AcDbCircle
 10
385.4723945150908
 20
385.5599477202602
 30
0.0
 40
6.25
100
AcDbArc
 50
90.0
 51
96.08087743301604
  0
ARC
  5
1450
330
D
100
AcDbEntity
 67
     1
  8
AM_VIS
100
AcDbCircle
 10
341.2223945150909
 20
360.0121983086192
 30
0.0
 40
6.25
100
AcDbArc
 50
143.9191225669812
 51
270.0
  0
LINE
  5
1451
330
D
100
AcDbEntity
 67
     1
  8
AM_VIS
100
AcDbLine
 10
409.9723945150908
 20
423.0599477202601
 30
0.0
 11
409.9723945150908
 21
371.0599477202602
 31
0.0
  0
LINE
  5
1452
330
D
100
AcDbEntity
 67
     1
  8
AM_VIS
100
AcDbLine
 10
408.4723945150908
 20
369.5599477202602
 30
0.0
 11
408.4723945150908
 21
424.5599477202602
 31
0.0
  0
LINE
  5
1453
330
D
100
AcDbEntity
 67
     1
  8
AM_VIS
100
AcDbLine
 10
384.8623553310148
 20
379.5910274991853
 30
0.0
 11
384.9052942861341
 21
379.8027975956866
 31
0.0
  0
LINE
  5
1454
330
D
100
AcDbEntity
 67
     1
  8
AM_VIS
100
AcDbLine
 10
346.4917828915427
 20
413.4951489879508
 30
0.0
 11
346.6966506516393
 21
413.5638478120283
 31
0.0
  0
LINE
  5
1455
330
D
100
AcDbEntity
 67
     1
  8
AM_VIS
100
AcDbLine
 10
336.358177562304
 20
363.5249678496293
 30
0.0
 11
336.5201063692136
 21
363.3818965770082
 31
0.0
  0
ARC
  5
1456
330
D
100
AcDbEntity
 67
     1
  8
AM_VIS
100
AcDbCircle
 10
355.9723945150909
 20
385.5599477202602
 30
0.0
 40
29.5
100
AcDbArc
 50
251.6735592023262
 51
348.326440797672
  0
ARC
  5
1457
330
D
100
AcDbEntity
 67
     1
  8
AM_VIS
100
AcDbCircle
 10
385.4723945150908
 20
385.5599477202602
 30
0.0
 40
6.0
100
AcDbArc
 50
95.83677960116455
 51
264.1632203988355
  0
ARC
  5
1458
330
D
100
AcDbEntity
 67
     1
  8
AM_VIS
100
AcDbCircle
 10
355.9723945150909
 20
385.5599477202602
 30
0.0
 40
29.5
100
AcDbArc
 50
11.67355920232799
 51
108.3264407976738
  0
ARC
  5
1459
330
D
100
AcDbEntity
 67
     1
  8
AM_VIS
100
AcDbCircle
 10
341.2223945150909
 20
411.107697131901
 30
0.0
 40
6.0
100
AcDbArc
 50
215.8367796011595
 51
24.16322039883686
  0
ARC
  5
145A
330
D
100
AcDbEntity
 67
     1
  8
AM_VIS
100
AcDbCircle
 10
355.9723945150909
 20
385.5599477202602
 30
0.0
 40
29.5
100
AcDbArc
 50
131.6735592023286
 51
228.3264407976714
  0
ARC
  5
145B
330
D
100
AcDbEntity
 67
     1
  8
AM_VIS
100
AcDbCircle
 10
341.2223945150909
 20
360.0121983086192
 30
0.0
 40
6.0
100
AcDbArc
 50
335.8367796011631
 51
144.1632203988405
  0
LINE
  5
145C
330
D
100
AcDbEntity
 67
     1
  8
AM_VIS
100
AcDbLine
 10
343.2223945150909
 20
361.1680962279875
 30
0.0
 11
341.2223945150909
 21
362.3221983086192
 31
0.0
  0
LINE
  5
145D
330
D
100
AcDbEntity
 67
     1
  8
AM_VIS
100
AcDbLine
 10
341.2223945150909
 20
362.3221983086192
 30
0.0
 11
339.2223945150909
 21
361.1680962279875
 31
0.0
  0
LINE
  5
145E
330
D
100
AcDbEntity
 67
     1
  8
AM_VIS
100
AcDbLine
 10
339.2223945150909
 20
361.1680962279875
 30
0.0
 11
339.2223945150909
 21
358.8563003892508
 31
0.0
  0
LINE
  5
145F
330
D
100
AcDbEntity
 67
     1
  8
AM_VIS
100
AcDbLine
 10
339.2223945150909
 20
358.8563003892508
 30
0.0
 11
341.2223945150909
 21
357.7021983086191
 31
0.0
  0
LINE
  5
1460
330
D
100
AcDbEntity
 67
     1
  8
AM_VIS
100
AcDbLine
 10
341.2223945150909
 20
357.7021983086191
 30
0.0
 11
343.2223945150909
 21
358.8563003892508
 31
0.0
  0
LINE
  5
1461
330
D
100
AcDbEntity
 67
     1
  8
AM_VIS
100
AcDbLine
 10
343.2223945150909
 20
358.8563003892508
 30
0.0
 11
343.2223945150909
 21
361.1680962279875
 31
0.0
  0
ARC
  5
1462
330
D
100
AcDbEntity
 67
     1
  8
AM_VIS
100
AcDbCircle
 10
341.2223945150909
 20
360.0121983086192
 30
0.0
 40
5.784999999999998
100
AcDbArc
 50
0.0
 51
180.0
  0
ARC
  5
1463
330
D
100
AcDbEntity
 67
     1
  8
AM_VIS
100
AcDbCircle
 10
341.2223945150909
 20
360.0121983086192
 30
0.0
 40
5.784999999999998
100
AcDbArc
 50
180.0
 51
0.0
  0
LINE
  5
1464
330
D
100
AcDbEntity
 67
     1
  8
AM_VIS
100
AcDbLine
 10
387.4723945150909
 20
386.7158456396285
 30
0.0
 11
385.4723945150908
 21
387.8699477202601
 31
0.0
  0
LINE
  5
1465
330
D
100
AcDbEntity
 67
     1
  8
AM_VIS
100
AcDbLine
 10
385.4723945150908
 20
387.8699477202601
 30
0.0
 11
383.4723945150908
 21
386.7158456396285
 31
0.0
  0
LINE
  5
1466
330
D
100
AcDbEntity
 67
     1
  8
AM_VIS
100
AcDbLine
 10
383.4723945150908
 20
386.7158456396285
 30
0.0
 11
383.4723945150908
 21
384.4040498008918
 31
0.0
  0
LINE
  5
1467
330
D
100
AcDbEntity
 67
     1
  8
AM_VIS
100
AcDbLine
 10
383.4723945150908
 20
384.4040498008918
 30
0.0
 11
385.4723945150908
 21
383.2499477202601
 31
0.0
  0
LINE
  5
1468
330
D
100
AcDbEntity
 67
     1
  8
AM_VIS
100
AcDbLine
 10
385.4723945150908
 20
383.2499477202601
 30
0.0
 11
387.4723945150909
 21
384.4040498008918
 31
0.0
  0
LINE
  5
1469
330
D
100
AcDbEntity
 67
     1
  8
AM_VIS
100
AcDbLine
 10
387.4723945150909
 20
384.4040498008918
 30
0.0
 11
387.4723945150909
 21
386.7158456396285
 31
0.0
  0
ARC
  5
146A
330
D
100
AcDbEntity
 67
     1
  8
AM_VIS
100
AcDbCircle
 10
385.4723945150908
 20
385.5599477202602
 30
0.0
 40
5.784999999999998
100
AcDbArc
 50
0.0
 51
180.0
  0
ARC
  5
146B
330
D
100
AcDbEntity
 67
     1
  8
AM_VIS
100
AcDbCircle
 10
385.4723945150908
 20
385.5599477202602
 30
0.0
 40
5.784999999999998
100
AcDbArc
 50
180.0
 51
0.0
  0
LINE
  5
146C
330
D
100
AcDbEntity
 67
     1
  8
AM_VIS
100
AcDbLine
 10
343.2223945150909
 20
412.2635950512693
 30
0.0
 11
341.2223945150909
 21
413.417697131901
 31
0.0
  0
LINE
  5
146D
330
D
100
AcDbEntity
 67
     1
  8
AM_VIS
100
AcDbLine
 10
341.2223945150909
 20
413.417697131901
 30
0.0
 11
339.2223945150909
 21
412.2635950512693
 31
0.0
  0
LINE
  5
146E
330
D
100
AcDbEntity
 67
     1
  8
AM_VIS
100
AcDbLine
 10
339.2223945150909
 20
412.2635950512693
 30
0.0
 11
339.2223945150909
 21
409.9517992125327
 31
0.0
  0
LINE
  5
146F
330
D
100
AcDbEntity
 67
     1
  8
AM_VIS
100
AcDbLine
 10
339.2223945150909
 20
409.9517992125327
 30
0.0
 11
341.2223945150909
 21
408.797697131901
 31
0.0
  0
LINE
  5
1470
330
D
100
AcDbEntity
 67
     1
  8
AM_VIS
100
AcDbLine
 10
341.2223945150909
 20
408.797697131901
 30
0.0
 11
343.2223945150909
 21
409.9517992125327
 31
0.0
  0
LINE
  5
1471
330
D
100
AcDbEntity
 67
     1
  8
AM_VIS
100
AcDbLine
 10
343.2223945150909
 20
409.9517992125327
 30
0.0
 11
343.2223945150909
 21
412.2635950512693
 31
0.0
  0
ARC
  5
1472
330
D
100
AcDbEntity
 67
     1
  8
AM_VIS
100
AcDbCircle
 10
341.2223945150909
 20
411.1076971319009
 30
0.0
 40
5.784999999999998
100
AcDbArc
 50
0.0
 51
180.0
  0
ARC
  5
1473
330
D
100
AcDbEntity
 67
     1
  8
AM_VIS
100
AcDbCircle
 10
341.2223945150909
 20
411.1076971319009
 30
0.0
 40
5.784999999999998
100
AcDbArc
 50
180.0
 51
0.0
  0
LINE
  5
1474
330
D
100
AcDbEntity
 67
     1
  8
AM_VIS
100
AcDbLine
 10
437.9723945150908
 20
383.75994772026
 30
0.0
 11
434.9723945150908
 21
381.8906755116486
 31
0.0
  0
LINE
  5
1475
330
D
100
AcDbEntity
 67
     1
  8
AM_VIS
100
AcDbLine
 10
437.9723945150908
 20
410.3599477202601
 30
0.0
 11
434.9723945150908
 21
412.2292199288715
 31
0.0
  0
LINE
  5
1476
330
D
100
AcDbEntity
 67
     1
  8
AM_VIS
100
AcDbLine
 10
437.9723945150908
 20
397.0599477202602
 30
0.0
 11
437.9723945150908
 21
383.75994772026
 31
0.0
  0
LINE
  5
1477
330
D
100
AcDbEntity
 67
     1
  8
AM_VIS
100
AcDbLine
 10
437.9723945150908
 20
410.3599477202601
 30
0.0
 11
437.9723945150908
 21
397.0599477202602
 31
0.0
  0
LINE
  5
1478
330
D
100
AcDbEntity
 67
     1
  8
AM_VIS
100
AcDbLine
 10
332.7923945150909
 20
340.0599477202602
 30
0.0
 11
332.7923945150909
 21
339.80994772026
 31
0.0
  0
LINE
  5
1479
330
D
100
AcDbEntity
 67
     1
  8
AM_VIS
100
AcDbLine
 10
325.1523945150908
 20
340.0599477202602
 30
0.0
 11
325.1523945150908
 21
339.80994772026
 31
0.0
  0
LINE
  5
147A
330
D
100
AcDbEntity
 67
     1
  8
AM_VIS
100
AcDbLine
 10
332.7923945150909
 20
339.80994772026
 30
0.0
 11
325.1523945150908
 21
339.80994772026
 31
0.0
  0
LINE
  5
147B
330
D
100
AcDbEntity
 67
     1
  8
AM_VIS
100
AcDbLine
 10
379.1523945150908
 20
340.0599477202602
 30
0.0
 11
379.1523945150908
 21
339.80994772026
 31
0.0
  0
LINE
  5
147C
330
D
100
AcDbEntity
 67
     1
  8
AM_VIS
100
AcDbLine
 10
386.7923945150909
 20
340.0599477202602
 30
0.0
 11
386.7923945150909
 21
339.80994772026
 31
0.0
  0
LINE
  5
147D
330
D
100
AcDbEntity
 67
     1
  8
AM_VIS
100
AcDbLine
 10
386.7923945150909
 20
339.80994772026
 30
0.0
 11
379.1523945150908
 21
339.80994772026
 31
0.0
  0
LINE
  5
1497
330
D
100
AcDbEntity
 67
     1
  8
0
100
AcDbLine
 10
289.9723945150908
 20
340.0599477202602
 30
0.0
 11
289.9723945150908
 21
454.0599477202602
 31
0.0
  0
LINE
  5
1498
330
D
100
AcDbEntity
 67
     1
  8
0
100
AcDbLine
 10
289.9723945150908
 20
120.3865737924188
 30
0.0
 11
289.9723945150908
 21
234.3865737924188
 31
0.0
  0
DIMENSION
  5
14DC
330
D
100
AcDbEntity
 67
     1
  8
AM_5
100
AcDbDimension
  2
*D12
 10
399.9723945150908
 20
84.81854656115158
 30
0.0
 11
344.9723945150908
 21
90.31854656115157
 31
0.0
 70
    32
 71
     5
 42
109.9999999999999
  3
AM_ISO$0
100
AcDbAlignedDimension
 13
289.9723945150908
 23
119.8865737924188
 33
0.0
 14
399.9723945150908
 24
120.3865737924188
 34
0.0
100
AcDbRotatedDimension
1001
ACAD
1000
DSTYLE
1002
{
1070
    40
1040
2.0
1070
   140
1040
3.5
1070
   176
1070
   256
1070
   177
1070
   256
1070
   178
1070
   256
1070
   179
1070
     0
1002
}
  0
DIMENSION
  5
14FB
330
D
100
AcDbEntity
 67
     1
  8
AM_5
100
AcDbDimension
  2
*D13
 10
450.9732134185511
 20
84.81854656115174
 30
0.0
 11
425.4728039668209
 21
90.31854656115175
 31
0.0
 70
    32
 71
     5
 42
51.00081890346041
  3
AM_ISO$0
100
AcDbAlignedDimension
 13
399.9723945150908
 23
120.3865737924188
 33
0.0
 14
450.9732134185511
 24
166.8865737924188
 34
0.0
100
AcDbRotatedDimension
1001
ACAD
1000
DSTYLE
1002
{
1070
    40
1040
2.0
1070
   140
1040
3.5
1070
   176
1070
   256
1070
   177
1070
   256
1070
   178
1070
   256
1070
   179
1070
     0
1002
}
  0
LINE
  5
164E
330
D
100
AcDbEntity
 67
     1
  8
AM_VIS
100
AcDbLine
 10
252.9723945150909
 20
368.7099477202575
 30
0.0
 11
188.9723945150908
 21
368.7099477202575
 31
0.0
  0
LINE
  5
164F
330
D
100
AcDbEntity
 67
     1
  8
AM_VIS
100
AcDbLine
 10
252.9723945150909
 20
363.4099477202577
 30
0.0
 11
188.9723945150908
 21
363.4099477202577
 31
0.0
  0
LINE
  5
1650
330
D
100
AcDbEntity
 67
     1
  8
AM_VIS
100
AcDbLine
 10
252.9723945150909
 20
339.5599477202601
 30
0.0
 11
289.9723945150908
 21
339.5599477202601
 31
0.0
  0
LINE
  5
1651
330
D
100
AcDbEntity
 67
     1
  8
AM_VIS
100
AcDbLine
 10
252.9723945150909
 20
339.5599477202601
 30
0.0
 11
252.9723945150909
 21
352.5599477202601
 31
0.0
  0
LINE
  5
1652
330
D
100
AcDbEntity
 67
     1
  8
AM_VIS
100
AcDbLine
 10
289.9723945150908
 20
454.5599477202601
 30
0.0
 11
252.9723945150909
 21
454.5599477202601
 31
0.0
  0
LINE
  5
1653
330
D
100
AcDbEntity
 67
     1
  8
AM_VIS
100
AcDbLine
 10
252.9723945150909
 20
441.5599477202601
 30
0.0
 11
252.9723945150909
 21
454.5599477202601
 31
0.0
  0
LINE
  5
1654
330
D
100
AcDbEntity
 67
     1
  8
AM_VIS
100
AcDbLine
 10
252.9723945150909
 20
441.5599477202601
 30
0.0
 11
252.9723945150909
 21
352.5599477202601
 31
0.0
  0
LINE
  5
1655
330
D
100
AcDbEntity
 67
     1
  8
AM_VIS
100
AcDbLine
 10
289.9723945150908
 20
352.5599477202601
 30
0.0
 11
289.9723945150908
 21
339.5599477202601
 31
0.0
  0
LINE
  5
1656
330
D
100
AcDbEntity
 67
     1
  8
AM_VIS
100
AcDbLine
 10
289.9723945150908
 20
441.5599477202601
 30
0.0
 11
289.9723945150908
 21
352.5599477202601
 31
0.0
  0
LINE
  5
1657
330
D
100
AcDbEntity
 67
     1
  8
AM_VIS
100
AcDbLine
 10
289.9723945150908
 20
454.5599477202601
 30
0.0
 11
289.9723945150908
 21
441.5599477202601
 31
0.0
  0
LINE
  5
1658
330
D
100
AcDbEntity
 67
     1
  8
AM_VIS
100
AcDbLine
 10
188.9723945150908
 20
454.5599477202601
 30
0.0
 11
151.9723945150908
 21
454.5599477202601
 31
0.0
  0
LINE
  5
1659
330
D
100
AcDbEntity
 67
     1
  8
AM_VIS
100
AcDbLine
 10
188.9723945150908
 20
454.5599477202601
 30
0.0
 11
188.9723945150908
 21
441.5599477202601
 31
0.0
  0
LINE
  5
165A
330
D
100
AcDbEntity
 67
     1
  8
AM_VIS
100
AcDbLine
 10
188.9723945150908
 20
352.5599477202601
 30
0.0
 11
188.9723945150908
 21
441.5599477202601
 31
0.0
  0
LINE
  5
165B
330
D
100
AcDbEntity
 67
     1
  8
AM_VIS
100
AcDbLine
 10
188.9723945150908
 20
352.5599477202601
 30
0.0
 11
188.9723945150908
 21
339.5599477202601
 31
0.0
  0
LINE
  5
165C
330
D
100
AcDbEntity
 67
     1
  8
AM_VIS
100
AcDbLine
 10
151.9723945150908
 20
339.5599477202601
 30
0.0
 11
188.9723945150908
 21
339.5599477202601
 31
0.0
  0
LINE
  5
165D
330
D
100
AcDbEntity
 67
     1
  8
AM_VIS
100
AcDbLine
 10
151.9723945150908
 20
441.5599477202601
 30
0.0
 11
151.9723945150908
 21
454.5599477202601
 31
0.0
  0
LINE
  5
165E
330
D
100
AcDbEntity
 67
     1
  8
AM_VIS
100
AcDbLine
 10
151.9723945150908
 20
441.5599477202601
 30
0.0
 11
151.9723945150908
 21
352.5599477202601
 31
0.0
  0
LINE
  5
165F
330
D
100
AcDbEntity
 67
     1
  8
AM_VIS
100
AcDbLine
 10
151.9723945150908
 20
339.5599477202601
 30
0.0
 11
151.9723945150908
 21
352.5599477202601
 31
0.0
  0
LINE
  5
1660
330
D
100
AcDbEntity
 67
     1
  8
AM_VIS
100
AcDbLine
 10
147.9723945150908
 20
370.5599477202601
 30
0.0
 11
147.9723945150908
 21
423.55994772026
 31
0.0
  0
LINE
  5
1669
330
D
100
AcDbEntity
 67
     1
  8
AM_VIS
100
AcDbLine
 10
252.9723945150909
 20
450.5599477202589
 30
0.0
 11
188.9723945150908
 21
450.5599477202589
 31
0.0
  0
LINE
  5
166A
330
D
100
AcDbEntity
 67
     1
  8
AM_VIS
100
AcDbLine
 10
252.9723945150909
 20
343.5599477202583
 30
0.0
 11
188.9723945150908
 21
343.5599477202583
 31
0.0
  0
LINE
  5
166B
330
D
100
AcDbEntity
 67
     1
  8
AM_VIS
100
AcDbLine
 10
151.9723945150908
 20
424.5599477202601
 30
0.0
 11
148.9723945150908
 21
424.5599477202601
 31
0.0
  0
LINE
  5
166C
330
D
100
AcDbEntity
 67
     1
  8
AM_VIS
100
AcDbLine
 10
151.9723945150908
 20
369.5599477202601
 30
0.0
 11
148.9723945150908
 21
369.5599477202601
 31
0.0
  0
ARC
  5
166D
330
D
100
AcDbEntity
 67
     1
  8
AM_VIS
100
AcDbCircle
 10
148.9723945150908
 20
423.55994772026
 30
0.0
 40
1.0
100
AcDbArc
 50
90.0
 51
180.0
  0
ARC
  5
166E
330
D
100
AcDbEntity
 67
     1
  8
AM_VIS
100
AcDbCircle
 10
148.9723945150908
 20
370.5599477202601
 30
0.0
 40
1.0
100
AcDbArc
 50
180.0
 51
270.0
  0
LINE
  5
1677
330
D
100
AcDbEntity
 67
     1
  8
AM_VIS
100
AcDbLine
 10
252.9723945150909
 20
149.0365737924162
 30
0.0
 11
188.9723945150908
 21
149.0365737924162
 31
0.0
  0
LINE
  5
1678
330
D
100
AcDbEntity
 67
     1
  8
AM_VIS
100
AcDbLine
 10
252.9723945150909
 20
143.7365737924165
 30
0.0
 11
188.9723945150908
 21
143.7365737924165
 31
0.0
  0
LINE
  5
1679
330
D
100
AcDbEntity
 67
     1
  8
AM_VIS
100
AcDbLine
 10
252.9723945150909
 20
119.8865737924188
 30
0.0
 11
289.9723945150908
 21
119.8865737924188
 31
0.0
  0
LINE
  5
167A
330
D
100
AcDbEntity
 67
     1
  8
AM_VIS
100
AcDbLine
 10
252.9723945150909
 20
119.8865737924188
 30
0.0
 11
252.9723945150909
 21
132.8865737924188
 31
0.0
  0
LINE
  5
167B
330
D
100
AcDbEntity
 67
     1
  8
AM_VIS
100
AcDbLine
 10
289.9723945150908
 20
234.8865737924189
 30
0.0
 11
252.9723945150909
 21
234.8865737924189
 31
0.0
  0
LINE
  5
167C
330
D
100
AcDbEntity
 67
     1
  8
AM_VIS
100
AcDbLine
 10
252.9723945150909
 20
221.8865737924188
 30
0.0
 11
252.9723945150909
 21
234.8865737924189
 31
0.0
  0
LINE
  5
167D
330
D
100
AcDbEntity
 67
     1
  8
AM_VIS
100
AcDbLine
 10
252.9723945150909
 20
221.8865737924188
 30
0.0
 11
252.9723945150909
 21
132.8865737924188
 31
0.0
  0
LINE
  5
167E
330
D
100
AcDbEntity
 67
     1
  8
AM_VIS
100
AcDbLine
 10
289.9723945150908
 20
132.8865737924188
 30
0.0
 11
289.9723945150908
 21
119.8865737924188
 31
0.0
  0
LINE
  5
167F
330
D
100
AcDbEntity
 67
     1
  8
AM_VIS
100
AcDbLine
 10
289.9723945150908
 20
221.8865737924188
 30
0.0
 11
289.9723945150908
 21
132.8865737924188
 31
0.0
  0
LINE
  5
1680
330
D
100
AcDbEntity
 67
     1
  8
AM_VIS
100
AcDbLine
 10
289.9723945150908
 20
234.8865737924189
 30
0.0
 11
289.9723945150908
 21
221.8865737924188
 31
0.0
  0
LINE
  5
1681
330
D
100
AcDbEntity
 67
     1
  8
AM_VIS
100
AcDbLine
 10
188.9723945150908
 20
234.8865737924189
 30
0.0
 11
151.9723945150908
 21
234.8865737924189
 31
0.0
  0
LINE
  5
1682
330
D
100
AcDbEntity
 67
     1
  8
AM_VIS
100
AcDbLine
 10
188.9723945150908
 20
234.8865737924189
 30
0.0
 11
188.9723945150908
 21
221.8865737924188
 31
0.0
  0
LINE
  5
1683
330
D
100
AcDbEntity
 67
     1
  8
AM_VIS
100
AcDbLine
 10
188.9723945150908
 20
132.8865737924188
 30
0.0
 11
188.9723945150908
 21
221.8865737924188
 31
0.0
  0
LINE
  5
1684
330
D
100
AcDbEntity
 67
     1
  8
AM_VIS
100
AcDbLine
 10
188.9723945150908
 20
132.8865737924188
 30
0.0
 11
188.9723945150908
 21
119.8865737924188
 31
0.0
  0
LINE
  5
1685
330
D
100
AcDbEntity
 67
     1
  8
AM_VIS
100
AcDbLine
 10
151.9723945150908
 20
119.8865737924188
 30
0.0
 11
188.9723945150908
 21
119.8865737924188
 31
0.0
  0
LINE
  5
1686
330
D
100
AcDbEntity
 67
     1
  8
AM_VIS
100
AcDbLine
 10
151.9723945150908
 20
221.8865737924188
 30
0.0
 11
151.9723945150908
 21
234.8865737924189
 31
0.0
  0
LINE
  5
1687
330
D
100
AcDbEntity
 67
     1
  8
AM_VIS
100
AcDbLine
 10
151.9723945150908
 20
221.8865737924188
 30
0.0
 11
151.9723945150908
 21
132.8865737924188
 31
0.0
  0
LINE
  5
1688
330
D
100
AcDbEntity
 67
     1
  8
AM_VIS
100
AcDbLine
 10
151.9723945150908
 20
119.8865737924188
 30
0.0
 11
151.9723945150908
 21
132.8865737924188
 31
0.0
  0
LINE
  5
1689
330
D
100
AcDbEntity
 67
     1
  8
AM_VIS
100
AcDbLine
 10
147.9723945150908
 20
150.8865737924188
 30
0.0
 11
147.9723945150908
 21
203.8865737924189
 31
0.0
  0
CIRCLE
  5
168A
330
D
100
AcDbEntity
 67
     1
  8
AM_VIS
100
AcDbCircle
 10
270.9723945150908
 20
164.3865737924188
 30
0.0
 40
9.3
  0
CIRCLE
  5
168B
330
D
100
AcDbEntity
 67
     1
  8
AM_VIS
100
AcDbCircle
 10
270.9723945150908
 20
164.3865737924188
 30
0.0
 40
10.49999999999998
  0
CIRCLE
  5
168C
330
D
100
AcDbEntity
 67
     1
  8
AM_VIS
100
AcDbCircle
 10
170.9723945150908
 20
164.3865737924188
 30
0.0
 40
9.3
  0
CIRCLE
  5
168D
330
D
100
AcDbEntity
 67
     1
  8
AM_VIS
100
AcDbCircle
 10
170.9723945150908
 20
164.3865737924188
 30
0.0
 40
10.5
  0
CIRCLE
  5
168E
330
D
100
AcDbEntity
 67
     1
  8
AM_VIS
100
AcDbCircle
 10
263.9723945150909
 20
187.3865737924188
 30
0.0
 40
5.9
  0
CIRCLE
  5
168F
330
D
100
AcDbEntity
 67
     1
  8
AM_VIS
100
AcDbCircle
 10
263.9723945150909
 20
187.3865737924188
 30
0.0
 40
5.5
  0
CIRCLE
  5
1690
330
D
100
AcDbEntity
 67
     1
  8
AM_VIS
100
AcDbCircle
 10
177.9723945150908
 20
187.3865737924188
 30
0.0
 40
5.9
  0
CIRCLE
  5
1691
330
D
100
AcDbEntity
 67
     1
  8
AM_VIS
100
AcDbCircle
 10
177.9723945150908
 20
187.3865737924188
 30
0.0
 40
5.5
  0
LINE
  5
1692
330
D
100
AcDbEntity
 67
     1
  8
AM_VIS
100
AcDbLine
 10
252.9723945150909
 20
230.8865737924177
 30
0.0
 11
188.9723945150908
 21
230.8865737924177
 31
0.0
  0
LINE
  5
1693
330
D
100
AcDbEntity
 67
     1
  8
AM_VIS
100
AcDbLine
 10
252.9723945150909
 20
123.886573792417
 30
0.0
 11
188.9723945150908
 21
123.886573792417
 31
0.0
  0
LINE
  5
1694
330
D
100
AcDbEntity
 67
     1
  8
AM_VIS
100
AcDbLine
 10
151.9723945150908
 20
204.8865737924189
 30
0.0
 11
148.9723945150908
 21
204.8865737924189
 31
0.0
  0
LINE
  5
1695
330
D
100
AcDbEntity
 67
     1
  8
AM_VIS
100
AcDbLine
 10
151.9723945150908
 20
149.8865737924188
 30
0.0
 11
148.9723945150908
 21
149.8865737924188
 31
0.0
  0
ARC
  5
1696
330
D
100
AcDbEntity
 67
     1
  8
AM_VIS
100
AcDbCircle
 10
148.9723945150908
 20
203.8865737924189
 30
0.0
 40
1.0
100
AcDbArc
 50
90.0
 51
180.0
  0
ARC
  5
1697
330
D
100
AcDbEntity
 67
     1
  8
AM_VIS
100
AcDbCircle
 10
148.9723945150908
 20
150.8865737924188
 30
0.0
 40
1.0
100
AcDbArc
 50
180.0
 51
270.0
  0
LINE
  5
1698
330
D
100
AcDbEntity
 67
     1
  8
CENTER
  6
CENTER
100
AcDbLine
 10
270.9723945150908
 20
151.3865737924188
 30
0.0
 11
270.9723945150908
 21
177.3865737924188
 31
0.0
  0
LINE
  5
1699
330
D
100
AcDbEntity
 67
     1
  8
CENTER
  6
CENTER
100
AcDbLine
 10
283.9723945150908
 20
164.3865737924191
 30
0.0
 11
257.9723945150909
 21
164.3865737924188
 31
0.0
  0
LINE
  5
169A
330
D
100
AcDbEntity
 67
     1
  8
CENTER
  6
CENTER
100
AcDbLine
 10
170.9723945150908
 20
151.3865737924188
 30
0.0
 11
170.9723945150908
 21
177.3865737924188
 31
0.0
  0
LINE
  5
169B
330
D
100
AcDbEntity
 67
     1
  8
CENTER
  6
CENTER
100
AcDbLine
 10
183.9723945150908
 20
164.3865737924191
 30
0.0
 11
157.9723945150908
 21
164.3865737924188
 31
0.0
  0
LINE
  5
169C
330
D
100
AcDbEntity
 67
     1
  8
CENTER
  6
CENTER
100
AcDbLine
 10
263.9723945150909
 20
180.3865737924186
 30
0.0
 11
263.9723945150909
 21
194.3865737924186
 31
0.0
  0
LINE
  5
169D
330
D
100
AcDbEntity
 67
     1
  8
CENTER
  6
CENTER
100
AcDbLine
 10
256.9723945150908
 20
187.3865737924188
 30
0.0
 11
270.9723945150908
 21
187.3865737924188
 31
0.0
  0
LINE
  5
169E
330
D
100
AcDbEntity
 67
     1
  8
CENTER
  6
CENTER
100
AcDbLine
 10
177.9723945150908
 20
180.3865737924186
 30
0.0
 11
177.9723945150908
 21
194.3865737924186
 31
0.0
  0
LINE
  5
169F
330
D
100
AcDbEntity
 67
     1
  8
CENTER
  6
CENTER
100
AcDbLine
 10
170.9723945150908
 20
187.3865737924188
 30
0.0
 11
184.9723945150908
 21
187.3865737924188
 31
0.0
  0
DIMENSION
  5
16A9
330
D
100
AcDbEntity
 67
     1
  8
AM_5
100
AcDbDimension
  2
*D15
 10
135.9723935150906
 20
177.3865737924189
 30
0.0
 11
131.4723935150905
 21
170.8865737924189
 31
0.0
 70
    32
 71
     5
 42
13.0
  3
AM_ISO$0
100
AcDbAlignedDimension
 13
157.9723945150908
 23
164.3865737924189
 33
0.0
 14
145.0753816514011
 24
177.3865737924189
 34
0.0
 50
90.00000000000081
100
AcDbRotatedDimension
1001
ACAD
1000
DSTYLE
1002
{
1070
    40
1040
1.0
1070
   179
1070
     0
1070
   272
1070
     8
1002
}
  0
DIMENSION
  5
16C8
330
D
100
AcDbEntity
 67
     1
  8
AM_5
100
AcDbDimension
  2
*D16
 10
151.9723945150908
 20
246.8865737924189
 30
0.0
 11
161.4723945150908
 21
251.3865737924189
 31
0.0
 70
    32
 71
     5
 42
19.0
  3
AM_ISO$0
100
AcDbAlignedDimension
 13
170.9723945150908
 23
177.3865737924189
 33
0.0
 14
151.9723945150908
 24
234.8865737924189
 34
0.0
100
AcDbRotatedDimension
1001
ACAD
1000
DSTYLE
1002
{
1070
    40
1040
1.0
1070
   179
1070
     0
1070
   272
1070
     8
1002
}
  0
DIMENSION
  5
16E7
330
D
100
AcDbEntity
 67
     1
  8
AM_5
100
AcDbDimension
  2
*D17
 10
188.9723945150908
 20
263.6519246976996
 30
0.0
 11
170.4723945150908
 21
268.1519246976995
 31
0.0
 70
    32
 71
     5
 42
37.0
  3
AM_ISO$0
100
AcDbAlignedDimension
 13
151.9723945150908
 23
234.8865737924189
 33
0.0
 14
188.9723945150908
 24
234.8865737924189
 34
0.0
100
AcDbRotatedDimension
1001
ACAD
1000
DSTYLE
1002
{
1070
    40
1040
1.0
1070
   179
1070
     0
1070
   272
1070
     8
1002
}
  0
DIMENSION
  5
1706
330
D
100
AcDbEntity
 67
     1
  8
AM_5
100
AcDbDimension
  2
*D18
 10
289.9723945150908
 20
246.8865737924188
 30
0.0
 11
280.4723945150909
 21
251.3865737924187
 31
0.0
 70
    32
 71
     5
 42
19.0
  3
AM_ISO$0
100
AcDbAlignedDimension
 13
270.9723945150908
 23
177.3865737924189
 33
0.0
 14
289.9723945150908
 24
234.8865737924189
 34
0.0
100
AcDbRotatedDimension
1001
ACAD
1000
DSTYLE
1002
{
1070
    40
1040
1.0
1070
   179
1070
     0
1070
   272
1070
     8
1002
}
  0
DIMENSION
  5
1725
330
D
100
AcDbEntity
 67
     1
  8
AM_5
100
AcDbDimension
  2
*D19
 10
289.9723945150908
 20
263.6519246976994
 30
0.0
 11
271.4723945150908
 21
268.1519246976994
 31
0.0
 70
    32
 71
     5
 42
37.0
  3
AM_ISO$0
100
AcDbAlignedDimension
 13
252.9723945150909
 23
234.8865737924189
 33
0.0
 14
289.9723945150908
 24
234.3865737924188
 34
0.0
100
AcDbRotatedDimension
1001
ACAD
1000
DSTYLE
1002
{
1070
    40
1040
1.0
1070
   179
1070
     0
1070
   272
1070
     8
1002
}
  0
LINE
  5
17CF
330
D
100
AcDbEntity
 67
     1
  8
AM_VIS
100
AcDbLine
 10
651.110868837169
 20
181.6292144795381
 30
0.0
 11
651.110868837169
 21
173.1439331052995
 31
0.0
  0
LINE
  5
17D0
330
D
100
AcDbEntity
 67
     1
  8
AM_VIS
100
AcDbLine
 10
624.9366342229941
 20
188.2556345056258
 30
0.0
 11
632.2851034513438
 21
192.4982751927451
 31
0.0
  0
LINE
  5
17D1
330
D
100
AcDbEntity
 67
     1
  8
AM_VIS
100
AcDbLine
 10
639.9366342229941
 20
192.4982751927451
 30
0.0
 11
647.2851034513438
 21
188.2556345056258
 31
0.0
  0
LINE
  5
17D2
330
D
100
AcDbEntity
 67
     1
  8
AM_VIS
100
AcDbLine
 10
647.2851034513438
 20
166.5175130792118
 30
0.0
 11
639.9366342229941
 21
162.2748723920925
 31
0.0
  0
LINE
  5
17D3
330
D
100
AcDbEntity
 67
     1
  8
AM_VIS
100
AcDbLine
 10
632.2851034513438
 20
162.2748723920925
 30
0.0
 11
624.9366342229941
 21
166.5175130792118
 31
0.0
  0
LINE
  5
17D4
330
D
100
AcDbEntity
 67
     1
  8
AM_VIS
100
AcDbLine
 10
621.110868837169
 20
173.1439331052995
 30
0.0
 11
621.110868837169
 21
181.6292144795381
 31
0.0
  0
LINE
  5
17D5
330
D
100
AcDbEntity
 67
     1
  8
AM_VIS
100
AcDbLine
 10
651.110868837169
 20
186.0468278302633
 30
0.0
 11
651.110868837169
 21
181.6292144795381
 31
0.0
  0
LINE
  5
17D6
330
D
100
AcDbEntity
 67
     1
  8
AM_VIS
100
AcDbLine
 10
647.2851034513438
 20
188.2556345056258
 30
0.0
 11
651.110868837169
 21
186.0468278302633
 31
0.0
  0
LINE
  5
17D7
330
D
100
AcDbEntity
 67
     1
  8
AM_VIS
100
AcDbLine
 10
647.2851034513438
 20
166.5175130792121
 30
0.0
 11
651.110868837169
 21
168.7263197545745
 31
0.0
  0
LINE
  5
17D8
330
D
100
AcDbEntity
 67
     1
  8
AM_VIS
100
AcDbLine
 10
651.110868837169
 20
173.1439331052995
 30
0.0
 11
651.110868837169
 21
168.7263197545744
 31
0.0
  0
LINE
  5
17D9
330
D
100
AcDbEntity
 67
     1
  8
AM_VIS
100
AcDbLine
 10
636.1108688371689
 20
194.7070818681075
 30
0.0
 11
639.9366342229941
 21
192.4982751927451
 31
0.0
  0
LINE
  5
17DA
330
D
100
AcDbEntity
 67
     1
  8
AM_VIS
100
AcDbLine
 10
632.2851034513438
 20
192.4982751927451
 30
0.0
 11
636.1108688371689
 21
194.7070818681075
 31
0.0
  0
LINE
  5
17DB
330
D
100
AcDbEntity
 67
     1
  8
AM_VIS
100
AcDbLine
 10
621.110868837169
 20
186.0468278302633
 30
0.0
 11
624.9366342229941
 21
188.2556345056258
 31
0.0
  0
LINE
  5
17DC
330
D
100
AcDbEntity
 67
     1
  8
AM_VIS
100
AcDbLine
 10
621.110868837169
 20
186.0468278302633
 30
0.0
 11
621.110868837169
 21
181.6292144795381
 31
0.0
  0
LINE
  5
17DD
330
D
100
AcDbEntity
 67
     1
  8
AM_VIS
100
AcDbLine
 10
621.110868837169
 20
173.1439331052995
 30
0.0
 11
621.110868837169
 21
168.7263197545744
 31
0.0
  0
LINE
  5
17DE
330
D
100
AcDbEntity
 67
     1
  8
AM_VIS
100
AcDbLine
 10
621.110868837169
 20
168.7263197545744
 30
0.0
 11
624.9366342229941
 21
166.5175130792118
 31
0.0
  0
LINE
  5
17DF
330
D
100
AcDbEntity
 67
     1
  8
AM_VIS
100
AcDbLine
 10
632.2851034513438
 20
162.2748723920924
 30
0.0
 11
636.1108688371689
 21
160.0660657167299
 31
0.0
  0
LINE
  5
17E0
330
D
100
AcDbEntity
 67
     1
  8
AM_VIS
100
AcDbLine
 10
636.1108688371689
 20
160.0660657167299
 30
0.0
 11
639.9366342229941
 21
162.2748723920925
 31
0.0
  0
CIRCLE
  5
17E1
330
D
100
AcDbEntity
 67
     1
  8
AM_VIS
100
AcDbCircle
 10
636.1108688371689
 20
177.3865737924188
 30
0.0
 40
8.5
  0
CIRCLE
  5
17E2
330
D
100
AcDbEntity
 67
     1
  8
AM_VIS
100
AcDbCircle
 10
636.1108688371689
 20
177.3865737924188
 30
0.0
 40
10.0
  0
ARC
  5
17E3
330
D
100
AcDbEntity
 67
     1
  8
AM_VIS
100
AcDbCircle
 10
636.1108688371689
 20
177.3865737924188
 30
0.0
 40
15.58845726811991
100
AcDbArc
 50
15.79316904826619
 51
44.2068309517386
  0
ARC
  5
17E4
330
D
100
AcDbEntity
 67
     1
  8
AM_VIS
100
AcDbCircle
 10
636.1108688371689
 20
177.3865737924188
 30
0.0
 40
15.58845726811991
100
AcDbArc
 50
315.7931690482614
 51
344.2068309517338
  0
ARC
  5
17E5
330
D
100
AcDbEntity
 67
     1
  8
AM_VIS
100
AcDbCircle
 10
636.1108688371689
 20
177.3865737924188
 30
0.0
 40
15.58845726811991
100
AcDbArc
 50
75.793169048264
 51
104.206830951736
  0
ARC
  5
17E6
330
D
100
AcDbEntity
 67
     1
  8
AM_VIS
100
AcDbCircle
 10
636.1108688371689
 20
177.3865737924188
 30
0.0
 40
15.58845726811991
100
AcDbArc
 50
135.7931690482614
 51
164.2068309517338
  0
ARC
  5
17E7
330
D
100
AcDbEntity
 67
     1
  8
AM_VIS
100
AcDbCircle
 10
636.1108688371689
 20
177.3865737924188
 30
0.0
 40
15.58845726811991
100
AcDbArc
 50
195.7931690482661
 51
224.2068309517386
  0
ARC
  5
17E8
330
D
100
AcDbEntity
 67
     1
  8
AM_VIS
100
AcDbCircle
 10
636.1108688371689
 20
177.3865737924188
 30
0.0
 40
15.58845726811991
100
AcDbArc
 50
255.793169048264
 51
284.206830951736
  0
ARC
  5
17E9
330
D
100
AcDbEntity
 67
     1
  8
AM_VIS
100
AcDbCircle
 10
636.1108688371689
 20
177.3865737924188
 30
0.0
 40
27.5
100
AcDbArc
 50
270.0
 51
0.0
  0
ARC
  5
17EA
330
D
100
AcDbEntity
 67
     1
  8
AM_VIS
100
AcDbCircle
 10
636.1108688371689
 20
177.3865737924188
 30
0.0
 40
27.5
100
AcDbArc
 50
180.0
 51
270.0
  0
ARC
  5
17EB
330
D
100
AcDbEntity
 67
     1
  8
AM_VIS
100
AcDbCircle
 10
636.1108688371689
 20
177.3865737924188
 30
0.0
 40
27.5
100
AcDbArc
 50
0.0
 51
90.0
  0
ARC
  5
17EC
330
D
100
AcDbEntity
 67
     1
  8
AM_VIS
100
AcDbCircle
 10
636.1108688371689
 20
177.3865737924188
 30
0.0
 40
27.5
100
AcDbArc
 50
90.0
 51
180.0
  0
DIMENSION
  5
17ED
330
D
100
AcDbEntity
 67
     1
  8
AM_5
100
AcDbDimension
  2
*D20
 10
591.6108688371689
 20
92.61019501755555
 30
0.0
 11
636.1108688371689
 21
92.61019501755555
 31
0.0
 70
   160
  1
{\Famgdt;o}<>
 71
     5
 42
89.0
  3
AM_ISO$0
100
AcDbAlignedDimension
 13
680.6108688371689
 23
127.1179377256098
 33
0.0
 14
591.6108688371689
 24
127.1179377256098
 34
0.0
100
AcDbRotatedDimension
1001
ACAD
1000
DSTYLE
1002
{
1070
    40
1040
2.0
1070
   140
1040
3.5
1070
   176
1070
   256
1070
   177
1070
   256
1070
   178
1070
   256
1070
   179
1070
     0
1002
}
  0
DIMENSION
  5
17EE
330
D
100
AcDbEntity
 67
     1
  8
AM_5
100
AcDbDimension
  2
*D21
 10
579.1108688371675
 20
63.10986669885679
 30
0.0
 11
636.1108688371689
 21
63.10986669885679
 31
0.0
 70
   160
  1
{\Famgdt;o}<>
 71
     5
 42
114.0000000000026
  3
AM_ISO$0
100
AcDbAlignedDimension
 13
693.1108688371701
 23
130.1954729364327
 33
0.0
 14
579.1108688371675
 24
130.1954729364328
 34
0.0
100
AcDbRotatedDimension
1001
ACAD
1000
DSTYLE
1002
{
1070
    40
1040
2.0
1070
   140
1040
3.5
1070
   176
1070
   256
1070
   177
1070
   256
1070
   178
1070
   256
1070
   179
1070
     0
1002
}
  0
LEADER
  5
17EF
330
D
100
AcDbEntity
 67
     1
  8
0
100
AcDbLeader
  3
AM_ISO$7
 76
     3
 10
594.7108620236342
 20
225.8095882257172
 30
0.0
 10
613.9038431951457
 20
253.4712488953128
 30
0.0
 10
667.0383294982839
 20
253.4712488953128
 30
0.0
1001
ACAD
1000
DSTYLE
1002
{
1070
   147
1040
1.5
1070
    77
1070
     0
1070
    40
1040
2.898441249355006
1070
   176
1070
     5
1070
   177
1070
     5
1070
   178
1070
     5
1002
}
  0
TEXT
  5
17F0
330
D
100
AcDbEntity
 67
     1
  8
AM_5
100
AcDbText
 10
613.9200373821527
 20
255.2736963895672
 30
0.0
 40
8.5
  1
4-M10*16L
100
AcDbText
  0
LINE
  5
17F1
330
D
100
AcDbEntity
 67
     1
  8
AM_VIS
100
AcDbLine
 10
588.9197679811813
 20
234.3865737924188
 30
0.0
 11
683.3019696931565
 21
234.3865737924188
 31
0.0
  0
LINE
  5
17F2
330
D
100
AcDbEntity
 67
     1
  8
AM_VIS
100
AcDbLine
 10
683.3019696931565
 20
120.3865737924189
 30
0.0
 11
588.9197679811813
 21
120.3865737924189
 31
0.0
  0
LINE
  5
17F3
330
D
100
AcDbEntity
 67
     1
  8
AM_VIS
100
AcDbLine
 10
693.1108688371689
 20
224.5776746484066
 30
0.0
 11
693.1108688371689
 21
130.1954729364312
 31
0.0
  0
LINE
  5
17F4
330
D
100
AcDbEntity
 67
     1
  8
AM_VIS
100
AcDbLine
 10
579.1108688371689
 20
130.1954729364312
 30
0.0
 11
579.1108688371689
 21
224.5776746484066
 31
0.0
  0
ARC
  5
17F5
330
D
100
AcDbEntity
 67
     1
  8
AM_VIS
100
AcDbCircle
 10
680.6108688371689
 20
132.8865737924189
 30
0.0
 40
4.188101184000004
100
AcDbArc
 50
180.0
 51
0.0
  0
ARC
  5
17F6
330
D
100
AcDbEntity
 67
     1
  8
AM_VIS
100
AcDbCircle
 10
591.6108688371689
 20
132.8865737924189
 30
0.0
 40
4.188101184000004
100
AcDbArc
 50
180.0
 51
0.0
  0
ARC
  5
17F7
330
D
100
AcDbEntity
 67
     1
  8
AM_VIS
100
AcDbCircle
 10
591.6108688371689
 20
221.8865737924188
 30
0.0
 40
4.188101184000004
100
AcDbArc
 50
180.0
 51
0.0
  0
ARC
  5
17F8
330
D
100
AcDbEntity
 67
     1
  8
AM_VIS
100
AcDbCircle
 10
680.6108688371689
 20
221.8865737924188
 30
0.0
 40
4.188101184000004
100
AcDbArc
 50
180.0
 51
0.0
  0
ARC
  5
17F9
330
D
100
AcDbEntity
 67
     1
  8
AM_VIS
100
AcDbCircle
 10
636.1108688371689
 20
177.3865737924188
 30
0.0
 40
74.0
100
AcDbArc
 50
219.6218349072338
 51
230.3781650927587
  0
ARC
  5
17FA
330
D
100
AcDbEntity
 67
     1
  8
AM_VIS
100
AcDbCircle
 10
636.1108688371689
 20
177.3865737924188
 30
0.0
 40
74.0
100
AcDbArc
 50
309.6218349072413
 51
320.3781650927662
  0
ARC
  5
17FB
330
D
100
AcDbEntity
 67
     1
  8
AM_VIS
100
AcDbCircle
 10
636.1108688371689
 20
177.3865737924188
 30
0.0
 40
74.0
100
AcDbArc
 50
129.6218349072413
 51
140.3781650927662
  0
ARC
  5
17FC
330
D
100
AcDbEntity
 67
     1
  8
AM_VIS
100
AcDbCircle
 10
636.1108688371689
 20
177.3865737924188
 30
0.0
 40
74.0
100
AcDbArc
 50
39.62183490723382
 51
50.37816509275867
  0
ARC
  5
17FD
330
D
100
AcDbEntity
 67
     1
  8
AM_VIS
100
AcDbCircle
 10
680.6108688371689
 20
132.8865737924189
 30
0.0
 40
4.188101184000004
100
AcDbArc
 50
0.0
 51
180.0
  0
ARC
  5
17FE
330
D
100
AcDbEntity
 67
     1
  8
AM_VIS
100
AcDbCircle
 10
591.6108688371689
 20
132.8865737924189
 30
0.0
 40
4.188101184000004
100
AcDbArc
 50
0.0
 51
180.0
  0
ARC
  5
17FF
330
D
100
AcDbEntity
 67
     1
  8
AM_VIS
100
AcDbCircle
 10
591.6108688371689
 20
221.8865737924188
 30
0.0
 40
4.188101184000004
100
AcDbArc
 50
0.0
 51
180.0
  0
ARC
  5
1800
330
D
100
AcDbEntity
 67
     1
  8
AM_VIS
100
AcDbCircle
 10
680.6108688371689
 20
221.8865737924188
 30
0.0
 40
4.188101184000004
100
AcDbArc
 50
0.0
 51
180.0
  0
LINE
  5
1801
330
D
100
AcDbEntity
 67
     1
  8
AM_VIS
100
AcDbLine
 10
693.360868837169
 20
181.2065737924189
 30
0.0
 11
693.1108688371689
 21
181.2065737924189
 31
0.0
  0
LINE
  5
1802
330
D
100
AcDbEntity
 67
     1
  8
AM_VIS
100
AcDbLine
 10
693.360868837169
 20
173.5665737924188
 30
0.0
 11
693.1108688371689
 21
173.5665737924188
 31
0.0
  0
LINE
  5
1803
330
D
100
AcDbEntity
 67
     1
  8
AM_VIS
100
AcDbLine
 10
693.360868837169
 20
181.2065737924189
 30
0.0
 11
693.360868837169
 21
177.3865737924188
 31
0.0
  0
LINE
  5
1804
330
D
100
AcDbEntity
 67
     1
  8
AM_VIS
100
AcDbLine
 10
693.360868837169
 20
177.3865737924188
 30
0.0
 11
693.360868837169
 21
173.5665737924189
 31
0.0
  0
LINE
  5
1805
330
D
100
AcDbEntity
 67
     1
  8
AM_7
  6
AM_ISO08W050x2
100
AcDbLine
 10
598.2893785047942
 20
221.8865737924188
 30
0.0
 11
585.5911018737673
 21
221.8865737924188
 31
0.0
1001
GENIUS_GENOREF_13
1005
1817
  0
LINE
  5
1806
330
D
100
AcDbEntity
 67
     1
  8
AM_7
  6
AM_ISO08W050x2
100
AcDbLine
 10
591.6108688371689
 20
228.1671939434184
 30
0.0
 11
591.6108688371689
 21
216.1179377256098
 31
0.0
1001
GENIUS_GENOREF_13
1005
1817
  0
ARC
  5
1807
330
D
100
AcDbEntity
 67
     1
  8
0
100
AcDbCircle
 10
591.6108688371689
 20
221.8865737924188
 30
0.0
 40
4.616164977569667
100
AcDbArc
 50
252.6972430772638
 51
188.6871709135333
  0
LINE
  5
1808
330
D
100
AcDbEntity
 67
     1
  8
AM_7
  6
AM_ISO08W050x2
100
AcDbLine
 10
598.2893785047942
 20
132.8865737924189
 30
0.0
 11
585.5911018737673
 21
132.8865737924189
 31
0.0
1001
GENIUS_GENOREF_13
1005
1816
  0
LINE
  5
1809
330
D
100
AcDbEntity
 67
     1
  8
AM_7
  6
AM_ISO08W050x2
100
AcDbLine
 10
591.6108688371689
 20
139.1671939434184
 30
0.0
 11
591.6108688371689
 21
127.1179377256098
 31
0.0
1001
GENIUS_GENOREF_13
1005
1816
  0
ARC
  5
180A
330
D
100
AcDbEntity
 67
     1
  8
0
100
AcDbCircle
 10
591.6108688371689
 20
132.8865737924189
 30
0.0
 40
4.616164977569667
100
AcDbArc
 50
252.6972430772638
 51
188.6871709135333
  0
LINE
  5
180B
330
D
100
AcDbEntity
 67
     1
  8
AM_7
  6
AM_ISO08W050x2
100
AcDbLine
 10
687.2893785047941
 20
132.8865737924189
 30
0.0
 11
674.5911018737673
 21
132.8865737924189
 31
0.0
1001
GENIUS_GENOREF_13
1005
1815
  0
LINE
  5
180C
330
D
100
AcDbEntity
 67
     1
  8
AM_7
  6
AM_ISO08W050x2
100
AcDbLine
 10
680.6108688371689
 20
139.1671939434184
 30
0.0
 11
680.6108688371689
 21
127.1179377256098
 31
0.0
1001
GENIUS_GENOREF_13
1005
1815
  0
ARC
  5
180D
330
D
100
AcDbEntity
 67
     1
  8
0
100
AcDbCircle
 10
680.6108688371689
 20
132.8865737924189
 30
0.0
 40
4.616164977569667
100
AcDbArc
 50
252.6972430772638
 51
188.6871709135333
  0
LINE
  5
180E
330
D
100
AcDbEntity
 67
     1
  8
AM_7
  6
AM_ISO08W050x2
100
AcDbLine
 10
687.2893785047941
 20
221.8865737924188
 30
0.0
 11
674.5911018737673
 21
221.8865737924188
 31
0.0
1001
GENIUS_GENOREF_13
1005
1814
  0
LINE
  5
180F
330
D
100
AcDbEntity
 67
     1
  8
AM_7
  6
AM_ISO08W050x2
100
AcDbLine
 10
680.6108688371689
 20
228.1671939434184
 30
0.0
 11
680.6108688371689
 21
216.1179377256098
 31
0.0
1001
GENIUS_GENOREF_13
1005
1814
  0
ARC
  5
1810
330
D
100
AcDbEntity
 67
     1
  8
0
100
AcDbCircle
 10
680.6108688371689
 20
221.8865737924188
 30
0.0
 40
4.616164977569667
100
AcDbArc
 50
252.6972430772638
 51
188.6871709135333
  0
LINE
  5
1811
330
D
100
AcDbEntity
 67
     1
  8
AM_7
  6
AM_ISO08W050x2
100
AcDbLine
 10
667.0353589779002
 20
177.3865737924188
 30
0.0
 11
604.77357696039
 21
177.3865737924188
 31
0.0
1001
GENIUS_GENOREF_13
1005
1813
  0
LINE
  5
1812
330
D
100
AcDbEntity
 67
     1
  8
AM_7
  6
AM_ISO08W050x2
100
AcDbLine
 10
636.1108688371689
 20
208.4038768422141
 30
0.0
 11
636.1108688371689
 21
145.2742051702974
 31
0.0
1001
GENIUS_GENOREF_13
1005
1813
  0
POINT
  5
1813
330
D
100
AcDbEntity
 67
     1
  8
0
 60
     1
100
AcDbPoint
 10
399.2018638220963
 20
32.95362445221622
 30
0.0
1001
GENIUS_GENOLIS_13
1002
{
1000
ENT
1005
1812
1005
1811
1005
0
1005
0
1002
}
1001
GENIUS_GENOENT_13
1002
{
1000
MYREF
1005
1813
1002
}
1002
{
1000
GRP
1005
0
1002
}
1001
GENIUS_GENOBJ-N-CRS_13
1002
{
1000
OWNER
1000
GEN
1002
}
1001
GENIUS_GENODEF_13
1002
{
1000
HIER
1070
    10
1002
}
1002
{
1000
MANEDIT
1070
     1
1002
}
1002
{
1000
NOSEL
1070
     0
1002
}
1002
{
1000
BEHIND
1070
     0
1002
}
1002
{
1000
OTHER
1070
     0
1002
}
1002
{
1000
REACTOR
1002
}
  0
POINT
  5
1814
330
D
100
AcDbEntity
 67
     1
  8
0
 60
     1
100
AcDbPoint
 10
443.7018638220963
 20
77.45362445221624
 30
0.0
1001
GENIUS_GENOLIS_13
1002
{
1000
ENT
1005
180F
1005
180E
1005
0
1005
0
1002
}
1001
GENIUS_GENOENT_13
1002
{
1000
MYREF
1005
1814
1002
}
1002
{
1000
GRP
1005
0
1002
}
1001
GENIUS_GENOBJ-N-CRS_13
1002
{
1000
OWNER
1000
GEN
1002
}
1001
GENIUS_GENODEF_13
1002
{
1000
HIER
1070
    10
1002
}
1002
{
1000
MANEDIT
1070
     1
1002
}
1002
{
1000
NOSEL
1070
     0
1002
}
1002
{
1000
BEHIND
1070
     0
1002
}
1002
{
1000
OTHER
1070
     0
1002
}
1002
{
1000
REACTOR
1002
}
  0
POINT
  5
1815
330
D
100
AcDbEntity
 67
     1
  8
0
 60
     1
100
AcDbPoint
 10
443.7018638220963
 20
-11.54637554778372
 30
0.0
1001
GENIUS_GENOLIS_13
1002
{
1000
ENT
1005
180C
1005
180B
1005
0
1005
0
1002
}
1001
GENIUS_GENOENT_13
1002
{
1000
MYREF
1005
1815
1002
}
1002
{
1000
GRP
1005
0
1002
}
1001
GENIUS_GENOBJ-N-CRS_13
1002
{
1000
OWNER
1000
GEN
1002
}
1001
GENIUS_GENODEF_13
1002
{
1000
HIER
1070
    10
1002
}
1002
{
1000
MANEDIT
1070
     1
1002
}
1002
{
1000
NOSEL
1070
     0
1002
}
1002
{
1000
BEHIND
1070
     0
1002
}
1002
{
1000
OTHER
1070
     0
1002
}
1002
{
1000
REACTOR
1002
}
  0
POINT
  5
1816
330
D
100
AcDbEntity
 67
     1
  8
0
 60
     1
100
AcDbPoint
 10
354.7018638220963
 20
-11.54637554778372
 30
0.0
1001
GENIUS_GENOLIS_13
1002
{
1000
ENT
1005
1809
1005
1808
1005
0
1005
0
1002
}
1001
GENIUS_GENOENT_13
1002
{
1000
MYREF
1005
1816
1002
}
1002
{
1000
GRP
1005
0
1002
}
1001
GENIUS_GENOBJ-N-CRS_13
1002
{
1000
OWNER
1000
GEN
1002
}
1001
GENIUS_GENODEF_13
1002
{
1000
HIER
1070
    10
1002
}
1002
{
1000
MANEDIT
1070
     1
1002
}
1002
{
1000
NOSEL
1070
     0
1002
}
1002
{
1000
BEHIND
1070
     0
1002
}
1002
{
1000
OTHER
1070
     0
1002
}
1002
{
1000
REACTOR
1002
}
  0
POINT
  5
1817
330
D
100
AcDbEntity
 67
     1
  8
0
 60
     1
100
AcDbPoint
 10
354.7018638220963
 20
77.45362445221624
 30
0.0
1001
GENIUS_GENOLIS_13
1002
{
1000
ENT
1005
1806
1005
1805
1005
0
1005
0
1002
}
1001
GENIUS_GENOENT_13
1002
{
1000
MYREF
1005
1817
1002
}
1002
{
1000
GRP
1005
0
1002
}
1001
GENIUS_GENOBJ-N-CRS_13
1002
{
1000
OWNER
1000
GEN
1002
}
1001
GENIUS_GENODEF_13
1002
{
1000
HIER
1070
    10
1002
}
1002
{
1000
MANEDIT
1070
     1
1002
}
1002
{
1000
NOSEL
1070
     0
1002
}
1002
{
1000
BEHIND
1070
     0
1002
}
1002
{
1000
OTHER
1070
     0
1002
}
1002
{
1000
REACTOR
1002
}
  0
LEADER
  5
189A
330
D
100
AcDbEntity
 67
     1
  8
AM_5
100
AcDbLeader
  3
AM_ISO$7
 76
     3
 10
330.9723945150909
 20
134.6641887924188
 30
0.0
 10
328.225421354236
 20
101.9266381179027
 30
0.0
 10
305.2278919577247
 20
101.9266381179027
 30
0.0
1001
ACAD
1000
DSTYLE
1002
{
1070
    40
1040
2.0
1070
   147
1040
1.0
1002
}
  0
TEXT
  5
189B
330
D
100
AcDbEntity
 67
     1
  8
AM_5
100
AcDbText
 10
306.4052702612894
 20
103.461444390532
 30
0.0
 40
7.0
  1
G1/4
100
AcDbText
  0
LINE
  5
189E
330
D
100
AcDbEntity
 67
     1
  8
CENTER
  6
CENTER
100
AcDbLine
 10
330.9723945150909
 20
133.3865737924186
 30
0.0
 11
330.9723945150909
 21
147.3865737924186
 31
0.0
  0
LINE
  5
189F
330
D
100
AcDbEntity
 67
     1
  8
CENTER
  6
CENTER
100
AcDbLine
 10
323.9723945150909
 20
140.3865737924188
 30
0.0
 11
337.9723945150908
 21
140.3865737924188
 31
0.0
  0
LINE
  5
18D3
330
D
100
AcDbEntity
 67
     1
  8
0
100
AcDbLine
 10
434.9723945150908
 20
412.2292199288715
 30
0.0
 11
409.9723945150908
 21
412.2292199288715
 31
0.0
  0
LINE
  5
18D4
330
D
100
AcDbEntity
 67
     1
  8
0
100
AcDbLine
 10
434.9723945150907
 20
381.8906755116486
 30
0.0
 11
409.9723945150907
 21
381.8906755116486
 31
0.0
  0
LINE
  5
18D5
330
D
100
AcDbEntity
 67
     1
  8
0
100
AcDbLine
 10
434.9723945150908
 20
192.5558460010303
 30
0.0
 11
409.9723945150908
 21
192.5558460010303
 31
0.0
  0
LINE
  5
18D6
330
D
100
AcDbEntity
 67
     1
  8
0
100
AcDbLine
 10
434.9723945150907
 20
162.2173015838074
 30
0.0
 11
409.9723945150907
 21
162.2173015838074
 31
0.0
  0
ENDSEC
  0
SECTION
  2
OBJECTS
  0
DICTIONARY
  5
8
330
0
100
AcDbDictionary
281
     1
  3
ACAD_COLOR
350
31
  3
ACAD_GROUP
350
2D
  3
ACAD_LAYOUT
350
C
  3
ACAD_MATERIAL
350
30
  3
ACAD_MLINESTYLE
350
2E
  3
ACAD_PLOTSETTINGS
350
2F
  3
ACAD_PLOTSTYLENAME
350
7
  3
ACAD_TABLESTYLE
350
32
  3
AcadDim
350
819
  3
AcAsAppObject
350
112E
  3
ACASGREF_MASTER
350
1176
  3
ACDBHEADERROUNDTRIPXREC
350
19B7
  3
AcDbVariableDictionary
350
272
  3
AcmDictionary
350
2D6
  3
AD_GREF_MODULE
350
1177
  3
AD_MAPI_MODULE
350
1190
  3
AMG
350
27E
  3
AMGSNAPSETTINGS
350
30D
  3
DWGPROPS
350
19B6
  3
MAPISURF_MODULE
350
1178
  0
DICTIONARY
  5
15
330
14
100
AcDbDictionary
280
     1
281
     1
  3
ACAD_LAYERFILTERS
360
10E3
  3
ACAD_LAYERSTATES
360
16
  3
ACLYDICTIONARY
360
10E2
  0
DICTIONARY
  5
3
330
2
100
AcDbDictionary
280
     1
281
     1
  3
ACAD_INDEX
360
156B
  0
DICTIONARY
  5
9D5
330
D
100
AcDbDictionary
280
     1
281
     1
  3
ACAD_SORTENTS
360
9D6
  0
DICTIONARY
  5
82B
330
82A
100
AcDbDictionary
280
     1
281
     1
  0
DICTIONARY
  5
832
330
831
100
AcDbDictionary
280
     1
281
     1
  0
DICTIONARY
  5
1595
330
1594
100
AcDbDictionary
280
     1
281
     1
  0
DICTIONARY
  5
19BB
330
27C
100
AcDbDictionary
280
     1
281
     1
  3
ACAD_XREC_ROUNDTRIP
360
19BC
  0
DICTIONARY
  5
31
102
{ACAD_REACTORS
330
8
102
}
330
8
100
AcDbDictionary
281
     1
  0
DICTIONARY
  5
2D
102
{ACAD_REACTORS
330
8
102
}
330
8
100
AcDbDictionary
281
     1
  0
DICTIONARY
  5
C
102
{ACAD_REACTORS
330
8
102
}
330
8
100
AcDbDictionary
281
     1
  3
Model
350
B
  3
配置1
350
10
  0
DICTIONARY
  5
30
102
{ACAD_REACTORS
330
8
102
}
330
8
100
AcDbDictionary
281
     1
  0
DICTIONARY
  5
2E
102
{ACAD_REACTORS
330
8
102
}
330
8
100
AcDbDictionary
281
     1
  3
STANDARD
350
33
  0
DICTIONARY
  5
2F
102
{ACAD_REACTORS
330
8
102
}
330
8
100
AcDbDictionary
281
     1
  0
ACDBDICTIONARYWDFLT
  5
7
102
{ACAD_REACTORS
330
8
102
}
330
8
100
AcDbDictionary
281
     1
  3
Normal
350
6
100
AcDbDictionaryWithDefault
340
6
  0
DICTIONARY
  5
32
102
{ACAD_REACTORS
330
8
102
}
330
8
100
AcDbDictionary
281
     1
  3
Standard
350
34
  0
XRECORD
  5
819
102
{ACAD_REACTORS
330
8
102
}
330
8
100
AcDbXrecord
280
     1
 90
   990106
  3

 60
     0
 61
     0
 62
     1
 63
     3
 64
     0
 65
     0
 66
     0
 67
     3
 68
     1
 69
     0
 70
     0
 71
     0
 72
     0
 40
0.0
170
     0
  0
ACAD_PROXY_OBJECT
  5
112E
102
{ACAD_REACTORS
330
8
102
}
330
8
100
AcDbProxyObject
 90
      499
 91
      544
 95
  2555929
 70
     0
 93
       10
310
4071
 94
        0
1001
ACAD
1000
AcRTDxfName
1000
ASAPP
  0
ACAD_PROXY_OBJECT
  5
1176
102
{ACAD_REACTORS
330
8
102
}
330
8
100
AcDbProxyObject
 90
      499
 91
      514
 95
  2555929
 70
     0
 93
       34
310
010000407A
 94
        0
1001
ACAD
1000
AcRTDxfName
1000
ACASGREFMASTER
  0
DICTIONARY
  5
19B7
102
{ACAD_REACTORS
330
8
102
}
330
8
100
AcDbDictionary
281
     1
  0
DICTIONARY
  5
272
102
{ACAD_REACTORS
330
8
102
}
330
8
100
AcDbDictionary
281
     1
  3
CTABLESTYLE
350
273
  3
DIMASSOC
350
275
  3
HIDETEXT
350
274
  3
INDEXCTL
350
19B5
  3
PROJECTNAME
350
276
  0
DICTIONARY
  5
2D6
102
{ACAD_REACTORS
330
8
102
}
330
8
100
AcDbDictionary
281
     1
  3
AcmStdDictionary
350
2E3
  3
AMDTSECTSYM_ARROWCOLOR
350
2FF
  0
ACAD_PROXY_OBJECT
  5
1177
102
{ACAD_REACTORS
330
8
102
}
330
8
100
AcDbProxyObject
 90
      499
 91
      526
 95
  2555929
 70
     0
 93
      114
310
000000438080000000000000000031
 94
        0
1001
ACAD
1000
AcRTDxfName
1000
ACADGREFMODULE
  0
ACAD_PROXY_OBJECT
  5
1190
102
{ACAD_REACTORS
330
8
102
}
330
8
100
AcDbProxyObject
 90
      499
 91
      570
 95
  2555929
 70
     0
 93
       34
310
05000044C0
 94
        0
1001
ACAD
1000
AcRTDxfName
1000
MAPIADMODULE
  0
DICTIONARY
  5
27E
102
{ACAD_REACTORS
330
8
102
}
330
8
100
AcDbDictionary
281
     1
  0
DICTIONARY
  5
30D
102
{ACAD_REACTORS
330
8
102
}
330
8
100
AcDbDictionary
281
     1
  0
XRECORD
  5
19B6
102
{ACAD_REACTORS
330
8
102
}
330
8
100
AcDbXrecord
280
     1
  1
DWGPROPS COOKIE
  2

  3

  4

  6

  7

  8

  9

300
AmdtFileType=84
301
=
302
=
303
=
304
=
305
=
306
=
307
=
308
=
309
=
 40
0.1204314236111111
 41
2454887.696942431
 42
2456639.644788044
  1

 90
        1
  0
ACAD_PROXY_OBJECT
  5
1178
102
{ACAD_REACTORS
330
8
102
}
330
8
100
AcDbProxyObject
 90
      499
 91
      610
 95
  2555929
 70
     0
 93
        8
310
047E
 94
        0
1001
ACAD
1000
AcRTDxfName
1000
AMDTMAPISURFMOUDULE
  0
DICTIONARY
  5
10E3
102
{ACAD_REACTORS
330
15
102
}
330
15
100
AcDbDictionary
281
     1
  0
DICTIONARY
  5
16
102
{ACAD_REACTORS
330
15
102
}
330
15
100
AcDbDictionary
281
     1
  0
DICTIONARY
  5
10E2
102
{ACAD_REACTORS
330
15
102
}
330
15
100
AcDbDictionary
281
     1
1001
ACAD
1000
<All
  0
DICTIONARY
  5
156B
102
{ACAD_REACTORS
330
3
102
}
330
3
100
AcDbDictionary
281
     1
  3
*A1
350
156C
  0
SORTENTSTABLE
  5
9D6
102
{ACAD_REACTORS
330
9D5
102
}
330
9D5
100
AcDbSortentsTable
330
D
331
F8
  5
F8
331
41B
  5
41B
331
1B7
  5
1B7
331
3DC
  5
3DC
331
452
  5
452
331
45A
  5
45A
331
3E4
  5
3E4
331
423
  5
423
331
462
  5
462
331
118
  5
118
331
1E7
  5
1E7
331
3EC
  5
3EC
331
42B
  5
42B
331
3F4
  5
3F4
331
46A
  5
46A
331
91
  5
91
331
A1
  5
A1
331
900
  5
9D0
331
A9
  5
A9
331
198
  5
198
331
3FC
  5
3FC
331
20F
  5
20F
331
E9
  5
E9
331
1A0
  5
1A0
331
404
  5
404
331
43B
  5
43B
331
40C
  5
40C
331
217
  5
217
331
3CD
  5
3CD
331
414
  5
414
331
3D5
  5
3D5
331
8A
  5
8A
331
69B
  5
69B
331
1B0
  5
1B0
331
109
  5
109
331
1B8
  5
1B8
331
3DD
  5
3DD
331
41C
  5
41C
331
453
  5
453
331
45B
  5
45B
331
3E5
  5
3E5
331
424
  5
424
331
463
  5
463
331
119
  5
119
331
3ED
  5
3ED
331
42C
  5
42C
331
3F5
  5
3F5
331
46B
  5
46B
331
6CB
  5
6CB
331
A2
  5
A2
331
901
  5
A0B
331
AA
  5
AA
331
1E8
  5
1E8
331
199
  5
199
331
3FD
  5
3FD
331
434
  5
434
331
210
  5
210
331
EA
  5
EA
331
1A1
  5
1A1
331
405
  5
405
331
43C
  5
43C
331
218
  5
218
331
3CE
  5
3CE
331
40D
  5
40D
331
444
  5
444
331
3D6
  5
3D6
331
415
  5
415
331
44C
  5
44C
331
67C
  5
67C
331
8B
  5
8B
331
1B1
  5
1B1
331
10A
  5
10A
331
1B9
  5
1B9
331
3DE
  5
3DE
331
41D
  5
41D
331
454
  5
454
331
425
  5
425
331
3E6
  5
3E6
331
45C
  5
45C
331
464
  5
464
331
11A
  5
11A
331
3EE
  5
3EE
331
3F6
  5
3F6
331
A3
  5
A3
331
7C4
  5
7C4
331
AB
  5
AB
331
1E9
  5
1E9
331
435
  5
435
331
19A
  5
19A
331
3FE
  5
3FE
331
43D
  5
43D
331
EB
  5
EB
331
1A2
  5
1A2
331
406
  5
406
331
219
  5
219
331
3CF
  5
3CF
331
40E
  5
40E
331
44D
  5
44D
331
3D7
  5
3D7
331
416
  5
416
331
7EC
  5
7EC
331
8C
  5
8C
331
1B2
  5
1B2
331
455
  5
455
331
10B
  5
10B
331
1BA
  5
1BA
331
3DF
  5
3DF
331
41E
  5
41E
331
45D
  5
45D
331
426
  5
426
331
3E7
  5
3E7
331
465
  5
465
331
11B
  5
11B
331
3EF
  5
3EF
331
3F7
  5
3F7
331
81C
  5
81C
331
A4
  5
A4
331
AC
  5
AC
331
1EA
  5
1EA
331
19B
  5
19B
331
3FF
  5
3FF
331
43E
  5
43E
331
EC
  5
EC
331
1A3
  5
1A3
331
407
  5
407
331
40F
  5
40F
331
21A
  5
21A
331
3D0
  5
3D0
331
44E
  5
44E
331
417
  5
417
331
85
  5
85
331
844
  5
844
331
8D
  5
8D
331
1B3
  5
1B3
331
3D8
  5
3D8
331
456
  5
456
331
41F
  5
41F
331
10C
  5
10C
331
1BB
  5
1BB
331
3E0
  5
3E0
331
45E
  5
45E
331
3E8
  5
3E8
331
427
  5
427
331
3F0
  5
3F0
331
11C
  5
11C
331
466
  5
466
331
9D
  5
9D
331
81D
  5
81D
331
36
  5
36
331
A5
  5
A5
331
3F8
  5
3F8
331
AD
  5
AD
331
1EB
  5
1EB
331
400
  5
400
331
19C
  5
19C
331
1A4
  5
1A4
331
ED
  5
ED
331
408
  5
408
331
43F
  5
43F
331
410
  5
410
331
21B
  5
21B
331
F5
  5
F5
331
3D1
  5
3D1
331
56
  5
56
331
845
  5
845
331
86
  5
86
331
8E
  5
8E
331
418
  5
418
331
1B4
  5
1B4
331
3D9
  5
3D9
331
457
  5
457
331
1BC
  5
1BC
331
3E1
  5
3E1
331
420
  5
420
331
45F
  5
45F
331
3E9
  5
3E9
331
428
  5
428
331
3F1
  5
3F1
331
11D
  5
11D
331
467
  5
467
331
9E
  5
9E
331
A6
  5
A6
331
1EC
  5
1EC
331
195
  5
195
331
AE
  5
AE
331
3F9
  5
3F9
331
430
  5
430
331
19D
  5
19D
331
401
  5
401
331
409
  5
409
331
3CA
  5
3CA
331
EE
  5
EE
331
440
  5
440
331
411
  5
411
331
21C
  5
21C
331
F6
  5
F6
331
3D2
  5
3D2
331
448
  5
448
331
846
  5
846
331
84E
  5
901
331
8F
  5
8F
331
419
  5
419
331
1B5
  5
1B5
331
3DA
  5
3DA
331
458
  5
458
331
27C
  5
27C
331
3E2
  5
3E2
331
421
  5
421
331
657
  5
657
331
460
  5
460
331
3EA
  5
3EA
331
429
  5
429
331
11E
  5
11E
331
3F2
  5
3F2
331
468
  5
468
331
9F
  5
9F
331
A7
  5
A7
331
1ED
  5
1ED
331
AF
  5
AF
331
196
  5
196
331
3FA
  5
3FA
331
20D
  5
20D
331
19E
  5
19E
331
402
  5
402
331
439
  5
439
331
40A
  5
40A
331
EF
  5
EF
331
3CB
  5
3CB
331
412
  5
412
331
F7
  5
F7
331
1AE
  5
1AE
331
3D3
  5
3D3
331
88
  5
88
331
41A
  5
41A
331
1B6
  5
1B6
331
3DB
  5
3DB
331
459
  5
459
331
3E3
  5
3E3
331
422
  5
422
331
461
  5
461
331
117
  5
117
331
1E6
  5
1E6
331
3EB
  5
3EB
331
42A
  5
42A
331
3F3
  5
3F3
331
469
  5
469
331
90
  5
90
331
A0
  5
A0
331
A8
  5
A8
331
B0
  5
B0
331
197
  5
197
331
3FB
  5
3FB
331
511
  5
511
331
20E
  5
20E
331
19F
  5
19F
331
403
  5
403
331
43A
  5
43A
331
40B
  5
40B
331
F0
  5
F0
331
3CC
  5
3CC
331
413
  5
413
331
1AF
  5
1AF
331
3D4
  5
3D4
331
89
  5
89
  0
XRECORD
  5
19BC
102
{ACAD_REACTORS
330
19BB
102
}
330
19BB
100
AcDbXrecord
280
     1
102
SHADEPLOT
 70
     0
  0
LAYOUT
  5
B
102
{ACAD_XDICTIONARY
360
19B8
102
}
102
{ACAD_REACTORS
330
C
102
}
330
C
100
AcDbPlotSettings
  1

  2
\\NOVIBDC\HPLJ4-TPUB
  4

  6

 40
0.0
 41
0.0
 42
0.0
 43
0.0
 44
0.0
 45
0.0
 46
0.0
 47
0.0
 48
0.0
 49
0.0
140
0.0
141
0.0
142
1.0
143
1.0
 70
  1712
 72
     0
 73
     0
 74
     0
  7

 75
     0
147
1.0
148
0.0
149
0.0
100
AcDbLayout
  1
Model
 70
     1
 71
     0
 10
0.0
 20
0.0
 11
12.0
 21
9.0
 12
0.0
 22
0.0
 32
0.0
 14
0.0
 24
0.0
 34
0.0
 15
0.0
 25
0.0
 35
0.0
146
0.0
 13
0.0
 23
0.0
 33
0.0
 16
1.0
 26
0.0
 36
0.0
 17
0.0
 27
1.0
 37
0.0
 76
     0
330
2
  0
LAYOUT
  5
10
102
{ACAD_XDICTIONARY
360
11
102
}
102
{ACAD_REACTORS
330
C
102
}
330
C
100
AcDbPlotSettings
  1

  2
iR3300影印機 (暫時的).pc3
  4
A4
  6

 40
6.805083274841308
 41
5.619736671447753
 42
6.974411010742187
 43
5.027069091796875
 44
209.9733276367187
 45
296.9259948730469
 46
0.0
 47
2.697794050150037
 48
0.0
 49
0.0
140
0.0
141
0.0
142
1.0
143
2.922325978191549
 70
   692
 72
     1
 73
     1
 74
     1
  7
單色出圖.ctb
 75
     0
147
0.3421931733361379
148
3.553888701155756
149
47.17436595435401
100
AcDbLayout
  1
配置1
 70
     1
 71
     1
 10
-26.12845693884162
 20
-67.0610375921796
 11
841.5860914790341
 21
546.5494724879293
 12
0.0
 22
0.0
 32
0.0
 14
-3.488748441195639
 24
-47.14690153089777
 34
-0.0000000000000609
 15
817.2518731298634
 25
526.1610533086513
 35
449.4729872435057
146
0.0
 13
0.0
 23
0.0
 33
0.0
 16
1.0
 26
0.0
 36
0.0
 17
0.0
 27
1.0
 37
0.0
 76
     0
330
D
331
27C
1001
ACAD_PSEXT
1000
iR3300影印機 (暫時的).pc3
1000
Canon iR2200-3300 PCL5e
1000
\\RDs1
1000

1070
     0
  0
MLINESTYLE
  5
33
102
{ACAD_REACTORS
330
2E
102
}
330
2E
100
AcDbMlineStyle
  2
STANDARD
 70
     0
  3

 62
     0
 51
90.0
 52
90.0
 71
     2
 49
0.5
 62
   256
  6
BYLAYER
 49
-0.5
 62
   256
  6
BYLAYER
  0
ACDBPLACEHOLDER
  5
6
102
{ACAD_REACTORS
330
7
102
}
330
7
  0
TABLESTYLE
  5
34
102
{ACAD_REACTORS
330
32
102
}
330
32
100
AcDbTableStyle
  3
Standard
 70
     0
 71
     0
 40
1.5
 41
1.5
280
     0
281
     0
  7
STANDARD
140
4.5
170
     2
 62
     0
 63
     7
283
     0
274
    -2
284
     1
 64
     0
275
    -2
285
     1
 65
     0
276
    -2
286
     1
 66
     0
277
    -2
287
     1
 67
     0
278
    -2
288
     1
 68
     0
279
    -2
289
     1
 69
     0
  7
STANDARD
140
6.0
170
     5
 62
     0
 63
     7
283
     0
274
    -2
284
     1
 64
     0
275
    -2
285
     1
 65
     0
276
    -2
286
     1
 66
     0
277
    -2
287
     1
 67
     0
278
    -2
288
     1
 68
     0
279
    -2
289
     1
 69
     0
  7
STANDARD
140
4.5
170
     5
 62
     0
 63
     7
283
     0
274
    -2
284
     1
 64
     0
275
    -2
285
     1
 65
     0
276
    -2
286
     1
 66
     0
277
    -2
287
     1
 67
     0
278
    -2
288
     1
 68
     0
279
    -2
289
     1
 69
     0
  0
DICTIONARYVAR
  5
273
102
{ACAD_REACTORS
330
272
102
}
330
272
100
DictionaryVariables
280
     0
  1
STANDARD
  0
DICTIONARYVAR
  5
275
102
{ACAD_REACTORS
330
272
102
}
330
272
100
DictionaryVariables
280
     0
  1
1
  0
DICTIONARYVAR
  5
274
102
{ACAD_REACTORS
330
272
102
}
330
272
100
DictionaryVariables
280
     0
  1
1
  0
DICTIONARYVAR
  5
19B5
102
{ACAD_REACTORS
330
272
102
}
330
272
100
DictionaryVariables
280
     0
  1
1
  0
DICTIONARYVAR
  5
276
102
{ACAD_REACTORS
330
272
102
}
330
272
100
DictionaryVariables
280
     0
  1

  0
DICTIONARY
  5
2E3
102
{ACAD_REACTORS
330
2D6
102
}
330
2D6
100
AcDbDictionary
281
     1
  0
XRECORD
  5
2FF
102
{ACAD_REACTORS
330
2D6
102
}
330
2D6
100
AcDbXrecord
280
     1
 90
-1023410169
  0
LAYER_INDEX
  5
156C
102
{ACAD_REACTORS
330
156B
102
}
330
156B
100
AcDbIndex
 40
2456639.644788044
100
AcDbLayerIndex
  8
0
360
156D
 90
        0
  8
AM_VIS
360
156E
 90
        0
  8
AM_7
360
156F
 90
        0
  8
LOGO
360
1570
 90
        0
  8
AM_5
360
1571
 90
        0
  8
Defpoints
360
1572
 90
        0
  8
SL
360
1573
 90
        0
  8
CENTER
360
1744
 90
        0
  8
1
360
1745
 90
        0
  0
DICTIONARY
  5
19B8
330
B
100
AcDbDictionary
280
     1
281
     1
  3
ACAD_XREC_ROUNDTRIP
360
19B9
  0
DICTIONARY
  5
11
330
10
100
AcDbDictionary
280
     1
281
     1
  3
ACAD_XREC_ROUNDTRIP
360
19BA
  3
ADSK_XREC_LAYOUTTHUMBNAIL
360
12
  0
IDBUFFER
  5
156D
330
0
100
AcDbIdBuffer
  0
IDBUFFER
  5
156E
330
0
100
AcDbIdBuffer
  0
IDBUFFER
  5
156F
330
0
100
AcDbIdBuffer
  0
IDBUFFER
  5
1570
330
0
100
AcDbIdBuffer
  0
IDBUFFER
  5
1571
330
0
100
AcDbIdBuffer
  0
IDBUFFER
  5
1572
330
0
100
AcDbIdBuffer
  0
IDBUFFER
  5
1573
330
0
100
AcDbIdBuffer
  0
IDBUFFER
  5
1744
330
0
100
AcDbIdBuffer
  0
IDBUFFER
  5
1745
330
0
100
AcDbIdBuffer
  0
XRECORD
  5
19B9
102
{ACAD_REACTORS
330
19B8
102
}
330
19B8
100
AcDbXrecord
280
     1
102
SHADEPLOT
 70
     0
102
SHADEPLOTRESLEVEL
 70
     2
102
SHADEPLOTCUSTOMDPI
 70
   300
  0
XRECORD
  5
19BA
102
{ACAD_REACTORS
330
11
102
}
330
11
100
AcDbXrecord
280
     1
102
SHADEPLOT
 70
     0
102
SHADEPLOTRESLEVEL
 70
     2
102
SHADEPLOTCUSTOMDPI
 70
   300
  0
XRECORD
  5
12
102
{ACAD_REACTORS
330
11
102
}
330
11
100
AcDbXrecord
280
     1
310
28000000B40000007F00000001000800000000004C590000000000000000000000010000000000000000000000000000FFFFFF000000000000000000000000000000000000000000000000000000000000000000330000006600000099000000CC000000FF00000000330000333300006633000099330000CC330000FF3300
310
0000660000336600006666000099660000CC660000FF66000000990000339900006699000099990000CC990000FF99000000CC000033CC000066CC000099CC0000CCCC0000FFCC000000FF000033FF000066FF000099FF0000CCFF0000FFFF000000003300330033006600330099003300CC003300FF003300003333003333
310
33006633330099333300CC333300FF33330000663300336633006666330099663300CC663300FF66330000993300339933006699330099993300CC993300FF99330000CC330033CC330066CC330099CC3300CCCC3300FFCC330000FF330033FF330066FF330099FF3300CCFF3300FFFF330000006600330066006600660099
310
006600CC006600FF00660000336600333366006633660099336600CC336600FF33660000666600336666006666660099666600CC666600FF66660000996600339966006699660099996600CC996600FF99660000CC660033CC660066CC660099CC6600CCCC6600FFCC660000FF660033FF660066FF660099FF6600CCFF6600
310
FFFF660000009900330099006600990099009900CC009900FF00990000339900333399006633990099339900CC339900FF33990000669900336699006666990099669900CC669900FF66990000999900339999006699990099999900CC999900FF99990000CC990033CC990066CC990099CC9900CCCC9900FFCC990000FF99
310
0033FF990066FF990099FF9900CCFF9900FFFF99000000CC003300CC006600CC009900CC00CC00CC00FF00CC000033CC003333CC006633CC009933CC00CC33CC00FF33CC000066CC003366CC006666CC009966CC00CC66CC00FF66CC000099CC003399CC006699CC009999CC00CC99CC00FF99CC0000CCCC0033CCCC0066CC
310
CC0099CCCC00CCCCCC00FFCCCC0000FFCC0033FFCC0066FFCC0099FFCC00CCFFCC00FFFFCC000000FF003300FF006600FF009900FF00CC00FF00FF00FF000033FF003333FF006633FF009933FF00CC33FF00FF33FF000066FF003366FF006666FF009966FF00CC66FF00FF66FF000099FF003399FF006699FF009999FF00CC
310
99FF00FF99FF0000CCFF0033CCFF0066CCFF0099CCFF00CCCCFF00FFCCFF0000FFFF0033FFFF0066FFFF0099FFFF00CCFFFF00FFFFFF00000000000D0D0D001A1A1A00282828003535350043434300505050005D5D5D006B6B6B00787878008686860093939300A1A1A100AEAEAE00BBBBBB00C9C9C900D6D6D600E4E4E400
310
F1F1F100FFFFFF0000000000000000000000000000000000000000000000000000000000000000000000000000000000EFEFF5F5F5F5F5F5F5F5F5F5F5F5F5F5F5F5F5F5F5F5F5F5F5F5F5F5F5F5F5F5F5F5F5F5F5F5F5F5F5F5F5F5F5F5F5F5F5F5F5F5F5F5F5F5F5F5F5F5F5F5F5F5F5F5F5F5F5F5F5F5F5F5F5F5F5F5F5
310
F5F5F5F5F5F5F5F5F5F5F5F5F5F5F5F5F5F5F5F5F5F5F5F5F5F5F5F5F5F5F5F5F5F5F5F5F5F5F5F5F5F5F5F5F5F5F5F5F5F5F5F5F5F5F5F5F5F5F5F5F5F5F5F5F5F5F5F5F5F5F5F5F5F5F5F5F5F5F5F5F5F5F5F5F5F5F5F5F5F5F5F5F5F5F5F5F5F5F5F5F5F5F5F5F5F5F5F5F5F5F5F5F5F5F5F5F5F5F5F5F5F5F5F5F5F5F5
310
F5F5F5F5F5F5F5F5F5F5F5F5F5F5F5F5F5F5F5F5F5F5F5F5F5F5F5F5F5F5F5F5F5F5F5F5F5F5F5F5F5F5F5F5F5F5F5F5F5F5F5F5F5F5F5F5F5F5F5F5F5F5F5F5F5F5F5F5F5F5F5F5F5F5F5F5F5F5F5F5F5F5F5F5F5F5F5F5F5F5F5F5F5F5F5F5F5F5F5F5F5F5F5F5F5F5F5F5F5F5F5F5F5F5F5F5F5F5F5F5F5F5F5F5F5F5F5
310
F5F5F5F5F5F5F5F5F5F5F5F5F5F5F5F5F5F5F5F5F5F5F5F5F5F5F5F5E2E2E2E2E2E2E2E2E2E2E2E2E2E2E2E2E2E2E2E2E2E2E2E2E2E2E2E2E2E2E2E2E2E2E2E2E2E2E2E2E2E2E2E2E2E2E2E2E2E2E2E2E2E2E2E2E2E2E2E2E2E2E2E2E2E2E2E2E2E2E2E2E2E2E2E2E2E2E2E2E2E2E2E2E2E2E2E2E2E2E2E2E2E2E2E2E2E2E2
310
E2E2E2E2E2E2E2E2E2E2E2E2E2E2E2E2E2E2E2E2E2E2E2E2E2E2E2E2E2E2E2E2E2E2E2E2E2E2E2E2E2E2E2E2E2E2E2E2E2E2E2E2E2E2E2E2E2E2E2E2E2E2E2E2E2E2E2E2E2E2E2E2E2E2E2E2E2E2F5F5F5E2E2E2E2E2E2E2E2E2E2E2E2E2E2E2E2E2E2E2E2E2E2E2E2E2E2E2E2E2E2E2E2E2E2E2E2E2E2E2E2E2E2E2E2E2E2
310
E2E2E2E2E2E2E2E2E2E2E2E2E2E2E2E2E2E2E2E2E2E2E2E2E2E2E2E2E2E2E2E2E2E2E2E2E2E2E2E2E2E2E2E2E2E2E2E2E2E2E2E2E2E2E2E2E2E2E2E2E2E2E2E2E2E2E2E2E2E2E2E2E2E2E2E2E2E2E2E2E2E2E2E2E2E2E2E2E2E2E2E2E2E2E2E2E2E2E2E2E2E2E2E2E2E2E2E2E2E2E2E2E2E2E2E2E2E2E2E2E2E2E2E2E2E2E2
310
E2E2E2E2F5F5F5E2E2E2E2E2E2E2E2E2E2E2E2E2E2E2E2E2E2E2E2E2E2E2E2E2E2E2E2E2E2E2E2E2E2E2E2E2E2E2E2E2E2E2E2E2E2E2E2E2E2E2E2E2E2E2E2E2E2E2E2E2E2E2E2E2E2E2E2E2E2E2E2E2E2E2E2E2E2E2E2E2E2E2E2E2E2E2E2E2E2E2E2E2E2E2E2E2E2E2E2E2E2E2E2E2E2E2E2E2E2E2E2E2E2E2E2E2E2E2E2
310
E2E2E2E2E2E2E2E2E2E2E2E2E2E2E2E2E2E2E2E2E2E2E2E2E2E2E2E2E2E2E2E2E2E2E2E2E2E2E2E2E2E2E2E2E2E2E2E2E2E2E2E2E2E2E2E2E2F5F5F5E2E2F5F52D2D2D2D2D2D2D2D2D2D2D2D2D2D2D2D2D2D2D2D2D2D2D2D2D2D2D2D2D2D2D2DF5F5F5F5F5F5F52D2D2D2D2D2D2D2D2D2D2D2D2D2D2D2D2D2D2D2D2D2D2D2D
310
2D2D2D2D2D2D2D2D2D2D2D2D2D2D2D2D2D2D2D2D2D2D2D2D2D2D2D2D2D2D2D2D2D2D2D2D2D2D2D2D2D2D2D2D2D2D2D2D2D2D2D2D2D2D2D2D2D2D2D2D2D2D2D2D2D2D2D2D2D2D2D2D2D2D2D2D2D2D2D2D2D2D2D2D2D2D2D2D2D2D2D2D2D2D2D2D2D2D2D2D2D2D2D2D2D2DF5E2E2E2F5F5F5E2E2F5E22DF5F5F5F5F5F5F5F5F5
310
F5F5F5F5F5F5F5F5F5F5F5E2F5F5F5F5F5E2F5F5F52DF5F5F5F5F5F5F52DE2E2E2E2E2E2E2E2E2E2E22D2D2D2D2D2D2D2D2D2DE2E2E2E22D2D2D2D2D2D2D2D2D2D2DE2E22D2D2D2D2D2D2D2D2DE22D2D2D2D2D2D2D2DE22D2D2D2D2D2D2D2D2D2D2D2D2D2D2D2D2D2DE2E2E2E2E2E2E2E2E2E2E2E2E2E2E2E2E2E2E2E2E2E2
310
E2E2E2E2E2E2E2E2E2E2E2E2E2E2E2E2E2E2E2E2E2E2E2E2E2E2E2E2E2E2E22DF5E2E2E2F5F5F5E2E2F5E22DF5F5F5F5F5F5F5F5F5F5F5F5F5F5F5F5F5F5F5F5E2F5F5F5E2F5F5F5F5E22DF5F5F5F5F5F5F52DE2E2E2E2E2E2E2E2E2E2E22DE2E2F5F5F5F5E2E22DE2E2E2E22DE2F5F5F5F5F5F5F5E22DE2E22DE2E2F5F5F5
310
E2E22DE22DE2F5F5F5F5E22DE22DE2F5F5F5F5F52D2DE2F5F5F5F5F5F5F52DE2E2E2E2E2E2E2E2E2E2E2E2E2E2E2E2E2E2E2E2E2E2E2E2E2E2E2E2E2E2E2E2E2E2E2E2E2E2E2E2E2E2E2E2E2E2E2E2E2E2E2E2E22DF5E2E2E2F5F5F5E2E2F5E22DE2E2E2E2F5F5F5F5F5F5F5F5F5F5F5F5F5F5F5F5F5F5F5F5F5F5E2E2E2E2
310
2D2D2D2D2D2D2D2D2DE2E2E2E2E2E2E2E2E2E2E22DE2E2F5F5F5F5E2E22DE2E2E2E22DE2F5F5F5E2F5E2E2E22DE2E22DE2E2F5E2E2E2E22DE22DE2E2E2E2E2E22DE22DE2E2E2E2E2E22D2DE2E2F5E2E2E2E2E22DE2E2E2E2E2E2E2E2E2E2E2E2E2E2E2E2E2E2E2E2E2E2E2E2E2E2E2E2E2E2E2E2E2E2E2E2E2E2E2E2E2E2E2
310
E2E2E2E2E2E2E2E2E2E22DF5E2E2E2F5F5F5E2E2F5E22DE2E2E2E2F5F5F5F5F5F5F5F5F5F5F5F5F5F5F5F5F5F5F5F5F5F5E2E2E2E22DE2E2E2E2E2E2E2E2E2E2E2E2E2E2E2E2E2E2E22DE2E2F5F5F5F5E2E22DE2E2E2E22DF5F5F5F5F5F5F5F5E22DE2E22DE2F5F5F5F5F5E22DE22DE2F5F5F5F5E22DE22DF5F5F5F5F5F52D
310
2DE2E2F5F5F5F5F5E22DE2E2E2E2E2E2E2E2E2E2E2E2E2E2E2E2E2E2E2E2E2E2E2E2E2E2E2E2E2E2E2E2E2E2E2E2E2E2E2E2E2E2E2E2E2E2E2E2E2E2E2E2E22DF5E2E2E2F5F5F5E2E2F5E22D2D2D2D2D2D2D2D2D2D2D2D2D2D2D2D2D2D2D2D2D2D2D2D2D2D2D2D2D2D2D2DE2E2E2E2E2E2E2E2E2E2E2E2E2E2E2E2E2E2E22D
310
E2E2F5F5F5F5E2E22DE2E2E2E22DF5F5F5F5F5F5F5F5E22DE2E22DE2F5F5F5F5F5E22DE22DE2F5F5F5F5E22DE22DF5F5F5F5F5F52D2DE2E2F5F5F5F5F5E22DE2E2E2E2E2E2E2E2E2E2E2E2E2E2E2E2E2E2E2E2E2E2E2E2E2E2E2E2E2E2E2E2E2E2E2E2E2E2E2E2E2E2E2E2E2E2E2E2E2E2E2E2E22DF5E2E2E2F5F5F5E2E2F5
310
E22D0F0F0F0F0F0F0F0F0F2DE2F5F5F5E2F5F5F5F5F5E22DE2F5F5F5F5F5E2E22DE2E2E2E2E2E2E2E2E2E2E2E2E2E2E2E2E2E2E22D2D2D2D2D2D2D2D2D2DE2E2E2E22D2D2D2D2D2D2D2D2D2D2DE2E22D2D2D2D2D2D2D2D2DE22D2D2D2D2D2D2D2DE22D2D2D2D2D2D2D2D2D2D2D2D2D2D2D2D2D2DE2E2E2E2E2E2E2E2E2E2E2
310
E2E2E2E2E2E2E2E2E2E2E2E2E2E2E2E2E2E2E2E2E2E2E2E2E2E2E2E2E2E2E2E2E2E2E2E2E2E2E2E2E2E22DF5E2E2E2F5F5F5E2E2F5E22D0F0F0F0F0F0F0F0F0F2DE2F5F5F5E2F5F5F5F5F5E22DE2F5F5F5F5F5E2E22DE2E2E2E2E2E2E2E2E2E2E2E2E2F5E2E2E2E2E2E2E2E2E2E22DE2E2E2E2E2E2E2E2E2E2E2E2E22DE2E2
310
E2E2E2E2E2E2E2E2E22DE2E2E2E2E2E2E2E2E22DE2E2E2E2E2E2E2E22DE2E2E2E2E2E2E22DE2E2E2E2E2E2E2E2E2E2E2E2E2E2E2E2E2E2E2E2E2E2E2E2E2E2E2E2E2E2E2E2E2E2E2E2E2E2E2E2E2E2E2E2E2E2E2E2E2E2E2E2E2E2E2E2E2E22DF5E2E2E2F5F5F5E2E2E2E22DE2DC0FE2DCDCE2DCDC2D2D2D2D2D2D2D2D2D2D
310
2D2D2D2DF52D2D2D2D2D2D2DF5F5F5F5F5F5E2F5F5F5F5F5F5F5F5F5F52D2D2D2D2D2D2D2D2D2D2D2D2D2D2DE2E22D2D2D2D2D2D2D2D2D2DE2E22D2D2D2D2D2D2D2D2DE2E22D2D2D2D2D2D2D2D2D2D2D2D2D2D2D2DE2E22D2D2D2D2DE2E2E2E2E2E2E2E2E2E2E2E2E2E2E2E2E2E2E2E2E2E2E2E2E2E2E2E2E2E2E2E2E2E2E2
310
E2E2E2E2E2E2E2E2E2E2E2E2E2E2E2E2E2E2E2E2E22DE2E2E2E2F5F5F5E2E2E2E22DE2E2DC0FDCDCDCDCDC2DF5F5F5F5E2E2F5F5F5F5E22DF5F5F5E2F5F5F5E22DF5F5F5F5F5F5E2F5F5F5F5F5F5F5F5F5F52DF5F5F5F5F5F5F5F5F5F5F5F5F52DE2E22DE2E2F5E2F5E2E2E22DE2E22DE2F5E2F5E2F5F52DE2E22DE2E2E2E2
310
E22D2DF5F5F5F5F5F5E22DE2E22DE2F5E22DE2E2E2E2E2E2E2E2E2E2E2E2E2E2E2E2E2E2E2E2E2E2E2E2E2E2E2E2E2E2E2E2E2E2E2E2E2E2E2E2E2E2E2E2E2E2E2E2E2E2E2E2E2E2E2E22DE2E2E2E2F5F5F5E2E2E2E22DE2E2DCDCDCDCDCDCDC2DF5F5F5F5E2F5F5F5F5F5E22DF5F5F5F5F5F5F5E22DF5F5F5F5F5F5F5E2F5
310
F5F5F5E2E2F5E2E22DF5F5F5E2F5F5F5F5F5F5E2F5E2F5F5F52DE2E2F5E2F5E2E2E22DF5F52DE2F5F5E2F5F5F5F5F5F52DE2F5F5E2E22D2DF5E2F5F5F5F5E22DF5F52DE2F5F52DE2E2E2E2E2E2E2E2E2E2E2E2E2E2E2E2E2E2E2E2E2E2E2E2E2E2E2E2E2E2E2E2E2E2E2E2E2E2E2E2E2E2E2E2E2E2E2E2E2E2E2E2E2E2E2E2
310
2DE2E2E2E2F5F5F5E2E2E2E22DE2E2E2DCDCDCDCDCDC2D2D2D2D2D2D2D2D2D2D2D2D2D2DF52D2D2D2D2D2D2DF5F5F5F5F5F5F5E2F5F5F5F5E2E2E2E2E22DF5F5F5F5F5F5F5F5F5F5F5F5F52DE2E22DE2E2F5F5F5E2E2E22DE2E22DF5F5F5F5F5F5F52DE2E22DE2F5F5E2E22D2DF5F5F5E2F5F5E22DE2E22DE2F5F52DE2E2E2
310
E2E2E2E2E2E2E2E2E2E2E2E2E2E2E2E2E2E2E2E2E2E2E2E2E2E2E2E2E2E2E2E2E2E2E2E2E2E2E2E2E2E2E2E2E2E2E2E2E2E2E2E2E22DE2E2E2E2F5F5F5E2E2E2E22DE2E2E2DCDCDCDCDCDC2DE2F5F5F5F5F5F5F5F5F5E22DE2F5E2F5E2E2F5E22DF5F5F5F5F5F5F5F5F5F5F5F5E2E2E2E2E22D2D2D2D2D2D2D2D2D2D2D2D2D
310
2D2DE2E22D2D2D2D2D2D2D2D2D2DE2E22D2D2D2D2D2D2D2D2DE2E22D2D2D2D2D2D2D2D2D2D2D2D2D2D2D2DE2E22D2D2D2D2DE2E2E2E2E2E2E2E2E2E2E2E2E2E2E2E2E2E2E2E2E2E2E2E2E2E2E2E2E2E2E2E2E2E2E2E2E2E2E2E2E2E2E2E2E2E2E2E2E2E2E2E2E2E2E2E22DE2E2E2E2F5F5F5E2E2E2E22DE2E2E2E2DCDCE2DC
310
DC2DE2F5F5F5F5F5F5F5F5F5E22DE2F5E2F5E2F5F5E22DF5F5F5F5F5F5F5F5F5F5F5F5E2E2E2E2E2E2E2E2E2E2E2E2E2E2E2E2E2E2E2E2E2E2E2E2E2E2E2E2E2E2E2E2E2E2E2E2E2E2E2E2E2E2E2E2E2E2E2E2E2E2E2E2E2E2E2E2E2E2E2E2E2E2E2E2E2E2E2E2E2E2E2E2E2E2E2E2E2E2E2E2E2E2E2E2E2E2E2E2E2E2E2E2
310
E2E2E2E2E2E2E2E2E2E2E2E2E2E2E2E2E2E2E2E2E2E2E2E2E2E2E2E2E2E2E2E22DE2E2E2E2F5F5F5E2E2E2E22D2D2D2D2D2D2D2D2D2D2D2D2D2D2D2D2D2D2D2D2D2D2D2D2D2D2D2D2D2D2D2D2D2D2D2D2D2D2D2D2D2D2D2D2D2D2D2D2D2D2D2D2D2D2D2D2D2D2D2D2D2D2D2D2D2D2D2D2D2D2D2D2D2D2D2D2D2D2D2D2D2D2D
310
2D2D2D2D2D2D2D2D2D2D2D2D2D2D2D2D2D2D2D2D2D2D2D2D2D2D2D2D2D2D2D2D2D2D2D2D2D2D2D2D2D2D2D2D2D2D2D2D2D2D2D2D2D2D2D2D2D2D2D2D2D2D2D2D2D2D2D2D2D2D2D2D2D2D2D2D2D2D2D2D2D2D2D2D2D2DE2E2E2E2F5F5F5E2E2E2E22DE2E2E2E2E2E2E2E2E2E2E2E2E2E2E2E2E2E2E2E2E2E2E2E2E2E2E2E2E2
310
E2E2E2E2E2E2E2E2E2E2E2E2E2E2E2E2E2E2E2E2E2E2E2E2E2E2E2E2E2E2E2E2E2E2E2E2E2E2E2E2E2E2E2E2E2E2E2E2E2E2E2E2E2E2E2E2E2E2E2E2E2E2E2E2E2E2E2E2E2E2E2E2E2E2E2E2E2E2E2E2E2E2E2E2E2E2E2E2E2E2E2E2E2E2E2E2E2E2E2E2E2E2E2E2E2E2E2E2E2E2E2E2E2E2E2E2E2E2E2E2E2E2E2E2E2E2E2
310
E2E2E2E2E2E2E2E2E2E2E22DE2E2E2E2F5F5F5E2E2F5E22DE2E2E2E2E2E2E2E2E2E2E2E2E2E2E2E2E2E2E2E2E2E2E2E2E2E2E2E2E2E2E2E2E2E2E2E2E2E2E2E2E2E2E2E2E2E2E2E2E2E2E2E2E2E2E2E2E2E2E2E2E2E2E2E2E2E2E2E2E2E2E2E2E2E2E2E2E2E2E2E2E2E2E2E2E2E2E2E2E2E2E2E2E2E2E2E2E2E2E2E2E2E2E2
310
E2E2E2E2E2E2E2E2E2E2E2E2E2E2E2E2E2E2E2E2E2E2E2E2E2E2E2E2E2E2E2E2E2E2E2E2E2E2E2E2E2E2E2E2E2E2E2E2E2E2E2E2E2E2E2E2E2E2E2E2E2E2E2E22DF5E2E2E2F5F5F5E2E2F5E22DE2E2E2E2E2E2E2E2E2E2E2E2E2E2E2E2E2E2E2E2E2E2E2E2E2E2E2E2E2E2E2E2E2E2E2E2E2E2E2E2E2E2E2E2E2E2E2E2E2E2
310
E2E2E2E2E2E2E2E2E2E2E2E2E2E2E2E2E2E2E2E2E2E2E2E2E2E2E2E2E2E2E2E2E2E2E2E2E2E2E2E2E2E2E2E2E2E2E2E2E2E2E2E2E2E2E2E2E2E2E2E2E2E2E2E2E2E2E2E2E2E2E2E2E2E2E2E2E2E2E2E2E2E2E2E2E2E2E2E2E2E2E2E2E2E2E2E2E2E2E2E2E2E2E2E2E2E2E2E2E2E2E2E2E2E2E2E2E22DF5E2E2E2F5F5F5E2E2
310
F5E22DE2E2E2E2E2E2E2E2E2E2E2E2E2E2E2E2E2E2E2E2E2E2E2E2E2E2E2E2E2E2E2E2E2E2E2E2E2E2E2E2E2E2E2E2E2E2E2E2E2E2E2E2E2E2E2E2E2E2E2E2E2E2E2E2E2E2E2E2E2E2E2E2E2E2E2E2E2E2E2E2E2E2E2E2E2E2E2E2E2E2E2E2E2E2E2E2E2E2E2E2E2E2E2E2E2E2E2E2E2E2E2E2E2E2E2E2E2E2E2E2E2E2E2E2
310
E2E2E2E2E2E2E2E2E2E2E2E2E2E2E2E2E2E2E2E2E2E2E2E2E2E2E2E2E2E2E2E2E2E2E2E2E2E2E2E2E2E2E22DF5E2E2E2F5F5F5E2E2F5E22DE2E2E2E2E2E2E2E2E2E2E2E2E2E2E2E2E2E2E2E2E2E2E2E2E2E2E2E2E2E2E2E2E2E2E2E2E2E2E2E2E2E2E2E2E2E2E2E2E2E2E2E2E2E2E2E2E2E2E2E2E2E2E2E2E2E2E2E2E2E2E2
310
E2E2E2E2E2E2E2E2E2E2E2E2E2E2E2E2E2E2E2E2E2E2E2E2E2E2E2E2E2E2E2E2E2E2E2E2E2E2E2E2E2E2E2E2E2E2E2E2E2E2E2E2E2E2E2E2E2E2E2E2E2E2E2E2E2E2E2E2E2E2E2E2E2E2E2E2E2E2E2E2E2E2E2E2E2E2E2E2E2E2E2E2E2E2E2E22DF5E2E2E2F5F5F5E2E2F5E22DE2E2E2E2E2E2E2E2E2E2E2E2E2E2E2E2E2E2
310
E2E2E2E2E2E2E2E2E2E2E2E2E2E2E2E2E2E2E2E2E2E2E2E2E2E2E2E2E2E2E2E2E2E2E2E2E2E2E2E2E2E2E2E2E2E2E2E2E2E2E2E2E2E2E2E2E2E2E2E2E2E2E2E2E2E2E2E2E2E2E2E2E2E2E2E2E2E2E2E2E2E2E2E2E2E2E2E2E2E2E2E2E2E2E2E2E2E2E2E2E2E2E2E2E2E2E2E2E2E2E2E2E2E2E2E2E2E2E2E2E2E2E2E2E2E2E2
310
E2E2E2E2E2E2E2E2E2E2E2E2E2E2E2E2E2E2E2E2E2E22DF5E2E2E2F5F5F5E2E2F5E22DE2E2E2E2E2E2E2E2E2E2E2E2E2E2E2E2E2E2E2E2E2E2E2E2E2E2E2E2E2E2E2E2E2E2E2E2E2E2E2E2E2E2E2E2E2E2E2E2E2E2E2E2E2E2E2E2E2E2E2E2E2E2E2E2E2E2E2E2E2E2E2E2E2E2E2E2E2E2E2E2E2E2E2E2E2E2E2E2E2E2E2E2
310
E2E2E2E2E2E2E2E2E2E2E2E2E2E2E2E2E2E2E2E2E2E2E2E2E2E2E2E2E2E2E2E2E2E2E2E2E2E2E2E2E2E2E2E2E2E2E2E2E2E2E2E2E2E2E2E2E2E2E2E2E2E2E2E2E2E2E2E2E2E2E2E2E2E2E22DF5E2E2E2F5F5F5E2E2F5E22DE2E2E2E2E2E2E2E2E2E2E2E2E2E2E2E2E2E2E2E2E2E2E2E2E2E2E2E2E2E2E20F0F0F0F0F0F0F0F
310
0F0F0F0F0F0F0F0F0F0F0F0F0F0F0F0F0F0F0F0F0F0F0F0F0F0F0F0F0F0F0F0F0F0F0F0F0F0F0F0F0F0F0F0F0F0F0F0F0F0F0F0F0F0F0F0F0F0F0F0F0F0FE2E2E2E2E2E2E2E2E2E2E2E2E2E2E2E2E20F0F0F0F0F0F0F0F0F0F0F0F0F0F0F0F0F0F0F0F0F0F0F0FE2E2E2E2E2E2E2E2E2E2E2E2E2E2E2E2E2E2E2E2E2E2E2E2
310
E22DF5E2E2E2F5F5F5E2E2F5E22DE2E2E2E2E2E2E2E2E2E2E2E2E2E2E2E2E2E2E2E2E2E2E2E2E2E2E2E2E2E2E20FE2E2E2E2E2E2E2E2E2E2E2E2E2E2E2E2E2E2E2E2E2E2E2E2E20F0F0F0F0F0F0F0F0F0FE2E2E2E2E2E2E2E2E2E2E2E2E2E2E2E2E2E2E2E2E2E2E2E2E20FE2E20F0F0FE2E20FE2E2E2E2E2E2E2E2E2E2E2E2
310
E2E2E2E2E20F0FE2E2E2E2E2E2E2E20F0F0F0F0FE2E2E2E2E2E2E20F0FE2E2E2E2E2E2E2E2E2E2E2E2E2E2E2E2E2E2E2E2E2E2E2E2E22DF5E2E2E2F5F5F5E2E2F5E22DE2E2E2E2E2E2E2E2E2E2E2E2E2E2E2E2E2E2E2E2E2E2E2E2E2E2E2E2E2E2E20FE2E2E2E2E2E2E2E2E2E2E2E2E2E2E2E2E2E2E2E2E2E2E2E2E20F0F0F
310
E20F0FE20FE2E2E2E2E2E2E2E2E2E2E2E2E2E2E2E2E2E2E2E2E2E2E2E2E2E2E20FE2E20F0F0FE2E20FE2E2E2E2E2E2E2E2E2E2E2E2E2E2E2E2E20FE2E2E2E2E2E2E2E2E20F0F0F0FE2E2E2E2E2E2E2E2E20FE2E2E2E2E2E2E2E2E2E2E2E2E2E2E2E2E2E2E2E2E2E2E2E2E22DF5E2E2E2F5F5F5E2E2F5E22DE2E2E2E2E2E2E2
310
E2E2E2E2E2E2E2E2E2E2E2E2E2E2E2E2E2E2E2E2E2E2E2E20FE2E2E2E2E2E2E2E2E2E2E2E2E2E2E2E2E2E2E2E2E2E2E2E2E2E2E2E2E2E2E2E2E2E2E2E2E2E2E2E2E2E2E2E2E2E2E2E2E2E2E2E2E2E2E2E2E2E2E2E20FE2E2E2E2E2E2E20FE2E2E2E2E2E2E2E2E2E2E2E2E2E2E2E2E20FE2E2E2E2E2E2E2E2E2E2E2E2E2E2E2
310
E2E2E2E2E2E2E20FE2E2E2E2E2E2E2E2E2E2E2E2E2E2E2E2E2E2E2E2E2E2E2E2E22DF5E2E2E2F5F5F5E2E2F5E22DE2E2E2E2E2E2E2E2E2E2E2E2E2E2E2E2E2E2E2E2E2E2E2E2E2E2E2E2E2E20F0FE2E2E2E2E2E2E2E2E2E2E2E2E2E2E2E2E2E2E2E2E2E2E2E2E2E2E20FE2E2E2E2E2E2E2E2E2E2E2E2E2E2E2E2E2E2E2E2E2
310
0FE2E2E2E2E2E2E2E2E2E20FE2E2E2E2E2E2E20FE2E2E2E2E2E2E2E2E2E2E2E2E2E2E2E2E20FE2E2E2E2E2E2E2E2E2E2E2E2E2E2E2E2E2E2E2E2E2E20FE2E2E2E2E2E2E2E2E2E2E2E2E2E2E2E2E2E2E2E2E2E2E2E2E22DF5E2E2E2F5F5F5E2E2F5E22DE2E2E2E2E2E2E2E2E2E2E2E2E2E2E2E2E2E2E2E2E2E2E2E2E2E20F0F
310
0F0F0F0F0F0F0F0F0F0F0F0F0F0F0F0F0F0F0F0F0F0F0F0F0F0F0F0F0F0F0F0F0F0F0F0F0F0F0F0F0F0F0F0F0F0F0F0F0F0F0F0F0F0F0F0F0F0F0F0F0F0F0F0F0FE2E2E2E2E2E2E20FE2E2E2E2E2E2E2E2E2E2E2E2E2E2E2E2E20FE2E2E2E2E2E2E2E2E2E2E2E2E2E2E2E2E2E2E2E2E2E20FE2E2E2E2E2E2E2E2E2E2E2E2E2
310
E2E2E2E2E2E2E2E2E2E2E2E22DF5E2E2E2F5F5F5E2E2F5E22DE2E2E2E2E2E2E2E2E2E2E2E2E2E2E2E2E2E2E2E2E2E2E2E2E2E20F0FE2E20F0FE2E2E2E2E2E2E2E20F0F0F0F0F0F0F0F0F0FE2E2E2E2E2E2E2E2E20FE2E2E2E2E2E2E2E2E20F0F0FE2E2E2E2E2E2E2E2E20FE2E2E2E20F0FE2E2E2E20FE2E2E2E2E2E2E20FE2
310
E2E2E2E2E2E2E2E2E2E2E2E2E2E2E2E20FE2E20F0F0F0F0F0F0F0F0F0F0F0F0F0F0F0F0F0F0FE20FE2E2E2E2E2E2E2E2E2E2E2E2E2E2E2E2E2E2E2E2E2E2E2E2E22DF5E2E2E2F5F5F5E2E2F5E22DE2E2E2E2E2E2E2E2E2E2E2E2E2E2E2E2E2E2E2E2E2E2E2E2E2E20FE2E2E20F0FE2E2E2E2E2E2E2E2E20F0FE20F0FE2E20F
310
E2E2E2E2E2E2E2E2E2E20FE2E2E2E2E2E2E2E2E20F0F0FE2E2E2E2E2E2E2E2E20FE2E2E2E20F0FE2E2E2E20FE2E2E2E2E2E2E20FE2E2E2E2E2E2E2E2E2E2E2E2E2E2E2E2E20FE2E20F0FE2E2E2E2E20F0F0F0FE2E2E2E2E20F0F0FE20FE2E2E2E2E2E2E2E2E2E2E2E2E2E2E2E2E2E2E2E2E2E2E2E2E22DF5E2E2E2F5F5F5E2
310
E2F5E22DE2E2E2E2E2E2E2E2E2E2E2E2E2E2E2E2E2E2E2E2E2E2E2E2E2E2E2E2E2E20F0FE2E2E2E2E2E2E2E2E2E2E2E2E2E2E2E2E2E2E2E2E2E2E2E2E2E2E20FE2E20F0F0F0F0F0FE2E2E2E2E2E2E2E2E2E2E2E2E20FE2E2E2E2E2E2E2E2E2E20FE2E2E2E2E2E2E20FE2E2E2E2E2E2E2E2E2E2E2E2E2E2E2E2E20FE2E20FE2
310
E2E2E2E2E20F0F0F0FE2E2E2E2E2E2E20FE20FE2E2E2E2E2E2E2E2E2E2E2E2E2E2E2E2E2E2E2E2E2E2E2E2E22DF5E2E2E2F5F5F5E2E2E2E22DE2E2E2E2E2E2E2E2E2E2E2E2E2E2E2E2E2E2E2E2E2E2E2E2E2E2E2E2E2E20F0FE2E2E2E2E2E2E2E20F0F0F0F0F0F0F0F0FE2E2E2E2E2E2E2E2E2E20FE2E2E20F0F0F0F0FE2E2
310
E2E2E2E2E2E20F0F0F0F0F0F0F0F0F0F0FE2E2E2E2E20FE2E2E2E2E2E2E20FE2E2E2E2E2E2E2E2E2E2E2E2E2E2E2E2E20FE2E20FE2E2E2E2E2E2E2E2E2E2E2E2E2E2E2E2E20FE20FE2E2E2E2E2E2E2E2E2E2E2E2E2E2E2E2E2E2E2E2E2E2E2E2E22DE2E2E2E2F5F5F5E2E2E2E22DE2E2E2E2E2E2E2E2E2E2E2E2E2E2E2E2E2
310
E2E2E2E2E2E2E2E2E2E2E2E2E20F0FE2E2E2E2E2E2E2E20F0F0F0F0F0F0FE2E2E2E2E2E2E2E2E2E2E2E20FE2E2E20F0F0F0F0FE2E2E2E2E2E2E2E2E20F0FE2E20FE20FE2E2E2E2E2E2E2E20FE2E2E2E2E2E2E20FE2E2E2E2E2E2E2E2E2E2E2E2E2E2E2E2E20FE2E20FE2E2E2E2E2E2E2E2E2E2E2E2E2E2E2E2E20FE20FE2E2
310
E2E2E2E2E2E2E2E2E2E2E2E2E2E2E2E2E2E2E2E2E2E2E22DE2E2E2E2F5F5F5E2E2E2E22DE2E2E2E2E2E2E2E2E2E2E2E2E2E2E2E2E2E2E2E2E2E2E2E2E2E2E2E2E2E20F0FE2E2E2E2E2E2E20FE20FE20F0F0F0FE2E2E2E2E2E2E2E2E2E2E2E20FE2E2E2E2E2E2E20FE2E2E2E2E2E2E2E2E20F0FE2E20FE20FE2E2E2E2E2E2E2
310
E20FE2E2E2E2E2E2E20FE2E2E2E2E2E2E2E2E2E2E2E2E2E2E2E2E20FE2E20FE2E2E2E2E2E2E2E2E2E2E2E2E2E2E2E2E20FE20FE2E2E2E2E2E2E2E2E2E2E2E2E2E2E2E2E2E2E2E2E2E2E2E2E22DE2E2E2E2F5F5F5E2E2E2E22DE2E2E2E2E2E2E2E2E2E2E2E2E2E2E2E2E2E2E2E2E2E2E2E2E2E2E2E2E2E20FF5F5F5F5F5F5F5
310
F50FE2E2E2E2E2E2E2E2E2E2E2F5F5F5F5F5F5F5F5F5F5F5E2E2E2F5F50FF5F5F5F5F5F5F5F5F5F5F5F5F50FE20FE2E2E2E2E2E2E2E20FE2E2E2E2E2E2E20FE2E2E2E2E2E2E2E2E2E2E2E2E2E2E2E2E20FE2F5F5F5F5F5F5F5F5F5F5F5F5F5F5F5F5F5F5F5F5E20FE2E2E2E2E2E2E2E2E2E2E2E2E2E2E2E2E2E2E2E2E2E2E2
310
E2E22DE2E2E2E2F5F5F5E2E2E2E22DE2E2E2E2E2E2E2E2E2E2E2E2E2E2E2E2E2E2E2E2E2E2E2E2E2E2E2E2E2E20FF5E2E2E2E2E2E2F5F5F5F5F5F5F5F5F5F5F5F5F5F5E2E2E2E2E2E2E2F5E2F5F5F5E2F5E20FE2E2E2E2E2E2E2E2E2E2E2E2E2F5E20FE2E2E2E2E2E2E2E20FE2E2E2E2E2E2E20FE2E2E2E2E2E2E2E2E2E2E2
310
E2E2E2E2E2E20FF5E2BEE2E2E2E2E2E2E2E2E2E2E2E2E2E2E2E2E2BEF50FE2E2E2E2E2E2E2E2E2E2E2E2E2E2E2E2E2E2E2E2E2E2E2E2E22DE2E2E2E2F5F5F5E2E2E2E22DE2E2E2E2E2E2E2E2E2E2E2E2E2E2E2E2E2E2E2E2E2E2E2E2E2E2E2E2E2E20FF5E2E2E2E2E2E2F5E2E2E2E2E2E2E2E2E2E2E2E2F5E2E2E2E2E2E2E2
310
F5F5F5F5F5F5F5F50FF5F5F5F5F5F5F5F5F5F5F5F5F5F5E20FE2E2E2E2E2E2E2E20FE2E2E2E2E2E2E20FE2E2E2E2E2E2E2E2E2E2E2E2E2E2E2E2E2F5E2F5F5E2E2E2E2E2E2E2E2E2E2E2E2E2E2E2E2F5F5F5F5E2E2E2E2E2E2E2E2E2E2E2E2E2E2E2E2E2E2E2E2E2E2E2E2E22DE2E2E2E2F5F5F5E2E2E2E22DE2E2E2E2E2E2
310
E2E2E2E2E2E2E2E2E2E2E2E2E2E2E2E2E2E2E2E2E2E2E2E20FF5E2E2E2E2E2E2F5E2E2E2E2E2E2E2E2E2E2E2E2F5E2E2E2E2E2E2E2F5E2F5F5F5F5F5E2BEF5E2E2E2E2E2E2E2E2E2E2E2E2F5E20FE2E2E2E2E2E2E2E20FE2E2E2E2E2E2E20FE2E2E2E2E2E2E2E2E2E2E2E2E2E2E2E2E2F5BEF5F5BEE2E2E2E2E2E2E2E2E2E2
310
E2E2E2E2BEF5F5F5F5E2E2E2E2E2E2E2E2E2E2E2E2E2E2E2E2E2E2E2E2E2E2E2E2E22DE2E2E2E2F5F5F5E2E2E2E22DE2E2E2E2E2E2E2E2E2E2E2E2E2E2E2E2E2E2E2E2E2E2E2E2E2E2E2E2E2E20FF5E2E2E2E2E2E2F5E2E2E2E2E2E2E2E2E2E2E2E2F5E2E2E2E2E2E2E2F5E2F5F5F5F5F5BEBEBEBEE2E2E2E2E2E2E2E2E2E2
310
E2F5E20FE2E2E2E2E2E2E2E20FE2E2E2E2E2E2E20FE2E2E2E2E2E2E2E2E2E2E2E2E2E2E2E2E2F5E2F5F5E2E2E2E2E2E2E2E2E2E2E2E2E2E2E2E2E2F5E2F5E2E2E2E2E2E2E2E2E2E2E2E2E2E2E2E2E2E2E2E2E2E2E2E2E22DE2E2E2E2F5F5F5E2E2E2E22DE2E2E2E2E2E2E2E2E2E2E2E2E2E2E2E2E2E2E2E2E2E2E2E2E2E2E2
310
E2E2E20FF5E2E2E2E2E20FF5F5F5F5F5F5F5F5F5F5F5F5F5F5E2E2E2E2E2E2E2F5E2F5F5E2E2F5F5BEF5E2E2F5F5F5F5E2E2E2E2E2E2F5E20FE2E2E2E2E2E2E2E20FE2E2E2E2E2E2E20FE2E2E2E2E2E2E2E2E2E2E2E2E2E2E2E2E2F5E2E2E2E2E2E2E2E2E2E2E2BEE2E2E2E2E2E2E2E2E2E2F5E2E2E2E2E2E2E2E2E2E2E2E2
310
E2E2E2E2E2E2E2E2E2E2E2E2E22DE2E2E2E2F5F5F5E2E2F5E22DE2E2E2E2E2E2E2E2E2E2E2E2E2E2E2E2E2E2E2E2E2E2E2E2E20F0F0F0F0FF5F5E2E2E2BE0F0FF5F5F5F5F5F5F5F5F5F5F5F5F5F5E2E2E2BEE2E2E2F5E2F5E2E2E2F5E2BEE2F5F5E2E2E2E2F5F5E2E2E2E2F5F5F50F0F0F0F0F0F0F0F0F0F0F0F0F0F0F0F0F
310
0F0F0F0F0F0F0F0FE2E2E2E2E2E2E2E2E2F5E2E2E2E2E2E2E2E2E2F5F5BEF5E2E2E2E2E2E2E2E2E2F5E2E2E2E2E2E2E2E2E2E2E2E2E2E2E2E2E2E2E2E2E2E2E2E2E22DF5E2E2E2F5F5F5E2E2F5E22DE2E2E2E2E2E2E2E2E2E2E2E2E2E2E2E2E2E2E2E2E2E2E2E2E2E20FE2E2E2F5F5E2F5F5BEF50FF5E2E2E2E2E2E2E2E2E2
310
E2E2E2F5E2E2F5BEF5E2E2F5E2F5E2E2E2F5E2E2F5E2E2E2E2E2E2E2E2F5E2E2E2F5E2F5E2E2E2E2E2E2E2E20FE2E2E2E2E2E2E20FE2E2E2E2E2E20F0FE2E2E2E2E2E2E2E2E2F5E2E2E2E2E2E2E2F5F5E2E2BEE2F5F5E2E2E2E2E2E2E2F5E2E2E2E2E2E2E2E2E2E2E2E2E2E2E2E2E2E2E2E2E2E2E2E2E22DF5E2E2E2F5F5F5
310
E2E2F5E22DE2E2E2E2E2E2E2E2E2E2E2E2E2E2E2E2E2E2E2E2E2E2E2E2E20F0FE2E2E2F5F5E2F5E2BEF5F5F5E2E2E2E2E2E2E2E2E2E2E2E2F5E2F5F5BEF5F5E2F5E2F5E2E2E2F5E2F5E2E2E2E2E2E2E2E2E2E2F5E2E2F5E2F5E2E2E2E2E2E2E2E20FE2E2E2F5F5F5E20FE2E2E2E2E2E20F0FE2E2E2E2E2E2E2E2E2F5E2E2E2
310
E2E2E2F5F5E2E2E2BEE2E2E2F5E2E2E2E2E2E2F5E2E2E2E2E2E2E2E2E2E2E2E2E2E2E2E2E2E2E2E2E2E2E2E2E22DF5E2E2E2F5F5F5E2E2F5E22DE2E2E2E2E2E2E2E2E2E2E2E2E2E2E2E2E2E2E2E2E2E2E2E2E2E20F0F0F0F0F0F0FBEBEBEBEBEF5E2E2E2E2E2E2E2E2E2E2E2E2F5BEBEBEBEBEBEBEF5E2F5E2E2E2F5F5F5E2
310
E2E2E2E2E2E2E2E2E2F5F5E2F5E2F5F5F5F5F5F5F50F0F0F0F0F0F0F0F0F0F0F0F0F0F0F0FE20FE2E2E2E2E2E2E2E2E2E2F5E2E2E2E2E2E2F5E2E2E2F5BEE2E2E2F5E2E2E2E2E2E2F5E2E2E2E2E2E2E2E2E2E2E2E2E2E2E2E2E2E2E2E2E2E2E2E2E22DF5E2E2E2F5F5F5E2E2F5E22DE2E2E2E2E2E2E2E2E2E2E2E2E2E2E2E2
310
E2E2E2E2E2E2E2E20F0F0F0F0FE2F5F5E2F5E2BEF5F5F5E2E2E2E2E2E2E2E2E2E2E2E2F5E2F5F5BEE2F5E2F5E2F5E2E2E2F5F5E2E2E2E2E2E2E2E2E2E2E2E2F5E2F5E2F5E2E2E2E2E2F5F5F50FF5F5F5F5F5F5F50FE2E20F0FE20F0FE2E2E2E2E2E2E2E2E2E2F5E2E2E2E2E2F5E2E2F5F5F5BEF5F5F5E2F5E2E2E2E2E2F5E2
310
E2E2E2E2E2E2E2E2E2E2E2E2E2E2E2E2E2E2E2E2E2E2E2E22DF5E2E2E2F5F5F5E2E2F5E22DE2E2E2E2E2E2E2E2E2E2E2E2E2E2E2E2E2E2E2E2E2E2E2E20F0F0F0F0FE2F5F5E2F5F5BEF5E2F5E2E2E2E2E2E2E2E2E2E2E2E2F5E2E2F5BEF5F5E2F5E2F5E2E2E2F5F5F5F5E2E2E2E2E2E2E2E2F5F5F5E2F5E2F5E2E2E2E2E2F5
310
F5E2F5E2E2E2F5E2F5E2F5E20F0F0FE20F0FE2E2E2E2E2E2E2E2E2E2F5E2E2E2E2E2F5E2E2F5F5E2BEF5F5F5E2F5E2E2E2E2E2F5E2E2E2E2E2E2E2E2E2E2E2E2E2E2E2E2E2E2E2E2E2E2E2E2E22DF5E2E2E2F5F5F5E2E2F5E22DE2E2E2E2E2E2E2E2E2E2E2E2E2E2E2E2E2E2E2E2E2E2E2E20F0F0F0F0F0FF5F5BEBEBE0FBE
310
BEF5BEBEBEBEBEBEBEBEBEBEBEBEF5BEBEBE0FBEBEBEF5BEF5BEBEBEF5F5F5F5BEBEBEBEBEBEBEBEF5F5F5BEF5BEF5BEBEBEBEBEF5F5BEF5BEBEBEF5E2F5E2F5E20F0F0FE20F0FE2E2E2E2E2E2E2E2E2E2F5E2E2E2E2BEBEBEBEBEBEBEBEBEBEBEBEBEBEE2E2E2E2F5E2E2E2E2E2E2E2E2E2E2E2E2E2E2E2E2E2E2E2E2E2E2
310
E2E2E22DF5E2E2E2F5F5F5E2E2F5E22DE2E2E2E2E2E2E2E2E2E2E2E2E2E2E2E2E2E2E2E2E2E2E2E20F0F0FE2E2E2F5F5E2E2E20FBEF5F5E2E2E2E2E2E2E2E2E2E2E2E2F5F5F5BE0FE2E2E2F5E2F5E2E2E2F5F5F5E2E2E2E2E2E2E2E2E2E2F5F5E2F5E2F5E2E2E2E2E2F5F5F5F5E2E2E2F5E2F5E2F5E20F0F0FE20F0FE2E2E2
310
E2E2E2E2E2E2E2F5E2E2E2E2E2F5E2E2F5F5F5BEF5F5F5E2F5E2E2E2E2E2F5E2E2E2E2E2E2E2E2E2E2E2E2E2E2E2E2E2E2E2E2E2E2E2E2E22DF5E2E2E2F5F5F5E2E2F5E22DE2E2E2E2E2E2E2E2E2E2E2E2E2E2E2E2E2E2E2E2E2E2E2E2E2E20FE2E2E2F5F5E2E2E20FBEBEBEE2E2E2E2E2E2E2E2E2E2E2E2F5BEBEBE0FE2E2
310
E2F5E2F5E2E2E2F5F5E2E2E2E2E2E2E2E2E2E2E2E2F5E2F5E2F5E2E2E2E2E2F50F0F0F0F0F0F0F0F0F0F0F0F0F0F0F0FE20FE2E2E2E2E2E2E2E2E2E2F5E2E2E2E2E2F5E2E2F5E2F5BEE2F5F5E2F5E2E2E2E2E2F5E2E2E2E2E2E2E2E2E2E2E2E2E2E2E2E2E2E2E2E2E2E2E2E2E22DF5E2E2E2F5F5F5E2E2F5E22DE2E2E2E2E2
310
E2E2E2E2E2E2E2E2E2E2E2E2E2E2E2E2E2E2E2E2E20FE2E2E2F5F5E2E2E20FBEF5F5E2E2E2E2E2E2E2E2E2E2E2E2F5E2F5BE0FE2E2E2F5E2F5E2E2E2F5E2F5E2E2E2E2E2E2E2E2E2E2F5E2E2F5E2F5F5F5F5F5F5F5E2E2E2E2E2E2F5F5F5E20FE2E2E2E2E2E20FE2E2E2E2E2E2E2E2E2E2F5E2E2E2E2E2E2F5E2E2F5F5BEF5
310
E2E2F5E2E2E2E2E2E2F5E2E2E2E2E2E2E2E2E2E2E2E2E2E2E2E2E2E2E2E2E2E2E2E2E22DF5E2E2E2F5F5F5E2E2F5E22DE2E2E2E2E2E2E2E2E2E2E2E2E2E2E2E2E2E2E2E2E2E2E2E2E20F0FE2E2E2F5F5E2E2E20FE2E2F5E2E2E2E2E2E2E2E2E2E2E2E2F5E2E2E20FE2E2E2F5E2F5E2E2E2F5E2E2F5E2E2E2E2E2E2E2E2F5E2
310
E2E2F5E2F5E2E2E2E2E2E2E2E2E2E2E2E2E2E2E2E20FE2E2E2E2E2E20F0FE2E2E2E2E2E2E2E2E2F5E2E2E2E2E2E2E2F5E2E2E2BEE2E2F5F5E2E2E2E2E2E2F5E2E2E2E2E2E2E2E2E2E2E2E2E2E2E2E2E2E2E2E2E2E2E2E2E22DF5E2E2E2F5F5F5E2E2F5E22DE2E2E2E2E2E2E2E2E2E2E2E2E2E2E2E2E2E2E2E2E2E2E2E2E20F
310
0F0F0F0FF5F5E2E2E20FE2E2F5E2E2E2E2E2E2E2E2E2E2E2E2F5E2E2E20FE2E2E2F5E2F5E2E2E2F5E2E2F5F5E2E2E2E2E2E2F5F5E2E2E2F5F5F50F0F0F0F0F0F0F0F0F0F0F0F0F0F0F0F0F0F0F0F0F0F0F0F0FE2E2E2E2E2E2E2E2E2F5E2E2E2E2E2E2E2E2F5F5F5BEF5F5E2E2E2E2E2E2E2E2F5E2E2E2E2E2E2E2E2E2E2E2
310
E2E2E2E2E2E2E2E2E2E2E2E2E2E22DF5E2E2E2F5F5F5E2E2F5E22DE2E2E2E2E2E2E2E2E2E2E2E2E2E2E2E2E2E2E2E2E2E2E2E2E2E2E2E2E2E2E2F5E2E2E20FE2E2F5E2E2E2E2E2E2E2E2E2E2E2E2F5E2E2E20FE2E2E2F5E2F5E2E2E2F5E2E2E2F5F5F5F5F5F5F5E2E2E2E2E2F5E2E2E2E2E2E2E2E2E2E2E2E2E2E2E2E2E2E2
310
E20FE2E2E2E2E2E2E2E2E2E2E2E2E2E2E2E2F5E2E2E2E2E2E2E2E2E2E2E2BEE2E2E2E2E2E2E2E2E2E2F5E2E2E2E2E2E2E2E2E2E2E2E2E2E2E2E2E2E2E2E2E2E2E2E2E22DF5E2E2E2F5F5F5E2E2F5E22DE2E2E2E2E2E2E2E2E2E2E2E2E2E2E2E2E2E2E2E2E2E2E2E2E2E2E2E2E2E2E2F5E2E2E20FE2E2F5E2E2E2E2E2E2E2E2
310
E2E2E2E2F5E2E2E20FE2E2E2F5E2F5F5F5E2F5E2E2E2E2E2E2E2E2E2E2E2E2E2E2E2F5E2E2E2E2E2E2E2E2E2E2E2E2E2E2E2E2E2E2E2E20FE2E2E2E2E2E2E2E2E2E2E2E2E2E2E2F5E2E2E2E2E2E2E2E2E2E2E2E2E2E2E2E2E2E2E2E2E2E2F5E2E2E2E2E2E2E2E2E2E2E2E2E2E2E2E2E2E2E2E2E2E2E2E2E22DF5E2E2E2F5F5
310
F5E2E2F5E22DE2E2E2E2E2E2E2E2E2E2E2E2E2E2E2E2E2E2E2E2E2E2E2E2E2E2E2E2E2E2E2F5E2E2E20FE2E2F5E2E2E2E2E2E2E2E2E2E2E2E2F5E2E2E20FE2E2E2F5E2F5F5F5F5F5E2E2E2E2E2E2E2E2E2E2E2E2E2E2E2F5E2E2E2E2E2E2E2E2E2E2E2E2E2E2E2E2E2E2E2E20FE2E2E2E2E2E2E2E2E2E2E2E2E2E2E2F5E2F5
310
F5E2E2E2E2E2E2E2E2E2E2E2E2E2E2E2E2F5F5E2F5E2E2E2E2E2E2E2E2E2E2E2E2E2E2E2E2E2E2E2E2E2E2E2E2E22DF5E2E2E2F5F5F5E2E2E2E22DE2E2E2E2E2E2E2E2E2E2E2E2E2E2E2E2E2E2E2E2E2E2E2E2E2E2E2E2E2E2E2F5E2E2E20FE2E2F5E2E2E2E2E2E2E2E2E2E2E2E2F5E2E2E20FE2E2E2F5F5F5F5F5F5F5F5F5
310
F5F5F5F5F5F5F5F5F5F5F5F5F5F5E2E2E2E2E2E2E2E2E2E2E2E2E2E2E2E2E2E2E2E2E20F0F0F0F0F0F0F0FE2E2E2E2E2E2E2F5BEF5F5BEE2E2E2E2E2E2E2E2E2E2E2E2E2E2BEF5F5F5F5E2E2E2E2E2E2E2E2E2E2E2E2E2E2E2E2E2E2E2E2E2E2E2E2E22DE2E2E2E2F5F5F5E2E2E2E22DE2E2E2E2E2E2E2E2E2E2E2E2E2E2E2
310
E2E2E2E2E2E2E2E2E2E2E2E2E2E2E2E2F5E2E2E20FE2E2F5E2E2E2E2E2E2E2E2E2E2E2E2F5E2E2E20FE2E2E2F5E2F5F5F5F5F5E2E2E2E2E2E2E2E2E2E2E2E2E2E2E2F5E2E2E2E2E2E2E2E2E2E2E2E2E2E2E2E2E2E2E2E2E20F0F0F0F0F0F0FE2E2E2E2E2E2E2E2E2F5F5F5E2E2E2E2E2E2E2E2E2E2E2E2E2E2E2E2F5F5F5E2
310
E2E2E2E2E2E2E2E2E2E2E2E2E2E2E2E2E2E2E2E2E2E2E2E2E22DE2E2E2E2F5F5F5E2E2E2E22DE2E2E2E2E2E2E2E2E2E2E2E2E2E2E2E2E2E2E2E2E2E2E2E2E2E2E2E2E2E2E2F5E2E2E20FE2E2F5F5F5F5F5F5F5F5F5F5F5F5F5F5E2E2E20FE2E2E20FF5F5F5F5E2F5F5F5F5F5F5F5F5F5F5F5F5F5F5F5F5F5E2E2E2E2E2E2E2
310
E2E2E2E2E2E2E2E2E2E2E2E2E2E20F0F0F0F0F0F0FE2E2E2E2E2E2E2E2E2E2F5F5F5F5F5F5F5F5F5F5F5F5F5F5F5F5F5F5F5F5E2E2E2E2E2E2E2E2E2E2E2E2E2E2E2E2E2E2E2E2E2E2E2E2E2E2E22DE2E2E2E2F5F5F5E2E2E2E22DE2E2E2E2E2E2E2E2E2E2E2E2E2E2E2E2E2E2E2E2E2E2E2E2E2E2E2E2E2E2E20FF5F5F50F
310
F5F50FE2E2E2E2E2E2E2E2E2E2E2E20FF5F5F50FF5F5F50FE2E2E2E2E2E2E2E2E2E2E2E2E2E2E2E2E2E2E2E2E2E2E2E2E2E2E2E2E2E2E2E2E2E2E2E2E2E2E2E2E2E2E2E2E2E2E2E2E2E2E2E2E2E2E2E2E2E2E2E2E2E20F0FE2E2E2E2E2E2E2E2E2E2E2E2E2E2E2E2E2E2E2E2E2E2E2E2E2E2E2E2E2E2E2E2E2E2E2E2E2E2E2
310
E2E2E2E22DE2E2E2E2F5F5F5E2E2E2E22DE2E2E2E2E2E2E2E2E2E2E2E2E2E2E2E2E2E2E2E2E2E2E2E2E2E2E2E2E2E2E20FE2E2E20FE2E20FE2E2E2E2E2E2E2E2E2E2E2E20FE2E2E20FE2E2E20FE2E2E2E2E2E2E2E2E2E2E2E2E2E2E2E2E2E2E2E2E2E2E2E2E2E2E2E2E2E2E2E2E2E2E2E2E2E2E2E2E2E2E2E2E2E2E2E2E2E2
310
E2E2E2E2E2E2E2E2E2E2E2E2E2E20FE2E2E2E2E2E2E2E2E2E2E2E2E2E2E2E2E2E2E2E2E2E2E2E2E2E2E2E2E2E2E2E2E2E2E2E2E2E2E2E2E2E22DE2E2E2E2F5F5F5E2E2E2E22DE2E2E2E2E2E2E2E2E2E2E2E2E2E2E2E2E2E2E2E2E2E2E2E2E2E2E2E2E2E2E20F0F0F0F0FE2E20FE2E2E2E2E2E2E2E2E2E2E2E20FE2E2E20F0F
310
0F0F0FE2E2E2E2E2E2E2E2E2E2E2E2E2E2E2E2E2E2E2E2E2E2E2E2E2E2E2E2E2E2E2E2E2E2E2E2E2E2E2E2E2E2E2E2E2E2E2E2E2E2E2E2E2E2E2E2E2E2E2E2E2E2E2E20FE2E2E2E2E2E2E2E2E2E2E2E2E2E2E2E2E2E2E2E2E2E2E2E2E2E2E2E2E2E2E2E2E2E2E2E2E2E2E2E2E2E22DE2E2E2E2F5F5F5E2E2E2E22DE2E2E2E2
310
E2E2E2E2E2E2E2E2E2E2E2E2E2E2E2E2E2E2E2E2E2E2E2E2E2E2E20F0F0FE2E2E2E20FE2E2E2E2E2E2E2E2E2E2E2E20FE2E2E2E20F0F0F0FE2E2E2E2E2E2E2E2E2E2E2E2E2E2E2E2E2E2E2E2E2E2E2E2E2E2E2E2E2E2E2E2E2E2E2E2E2E2E2E2E2E2E2E2E2E2E2E2E2E2E2E2E2E2E2E2E2E2E2E2E2E2E2E2E20F0F0F0F0F0F
310
0F0F0F0F0F0FE2E2E2E2E2E2E2E2E2E2E2E2E2E2E2E2E2E2E2E2E2E2E2E2E2E2E2E2E2E22DE2E2E2E2F5F5F5E2E2E2E22DE2E2E2E2E2E2E2E2E2E2E2E2E2E2E2E2E2E2E2E2E2E2E2E2E2E2E2E2E2E2E20F0F0FE2E2E2E20FE2E2E2E2E2E2E2E2E2E2E2E20FE2E2E2E2E20FE20FE2E2E2E2E2E2E2E2E2E2E2E2E2E2E2E2E2E2
310
E2E2E2E2E2E2E2E2E2E2E2E2E2E2E2E2E2E2E2E2E2E2E2E2E2E2E2E2E2E2E2E2E2E2E2E2E2E2E2E2E2E2E2E2E2E2E20F0F0F0F0F0F0F0F0F0F0F0FE2E2E2E2E2E2E2E2E2E2E2E2E2E2E2E2E2E2E2E2E2E2E2E2E2E2E2E2E2E22DE2E2E2E2F5F5F5E2E2F5E22DE2E2E2E2E2E2E2E2E2E2E2E2E2E2E2E2E2E2E2E2E2E2E2E2E2
310
E2E2E2E2E2E20F0F0F0F0F0F0F0FE2E2E2E2E2E2E2E2E2E2E2E20F0F0F0F0F0F0F0F0FE2E2E2E2E2E2E2E2E2E2E2E2E2E2E2E2E2E2E2E2E2E2E2E2E2E2E2E2E2E2E2E2E2E2E2E2E2E2E2E2E2E2E2E2E2E2E2E2E2E2E2E2E2E2E2E2E2E2E2E2E2E2E2E2E2E20FE20F0F0F0F0F0F0F0FE2E2E2E2E2E2E2E2E2E2E2E2E2E2E2E2
310
E2E2E2E2E2E2E2E2E2E2E2E2E2E2E22DF5E2E2E2F5F5F5E2E2F5E22DE2E2E2E2E2E2E2E2E2E2E2E2E2E2E2E2E2E2E2E2E2E2E2E2E2E2E2E2E2E2E20F0FE20F0FE2E20FE2E2E2E2E2E2E2E2E2E2E2E20F0FE20F0F0FE20F0FE2E2E2E2E2E2E2E2E2E2E2E2E2E2E2E2E2E2E2E2E2E2E2E2E2E2E2E2E2E2E2E2E2E2E2E2E2E2E2
310
E2E2E2E2E2E2E2E2E2E2E2E2E2E2E2E2E2E2E2E2E2E2E2E2E2E2E2E2E2E2E2E2E2E2E2E2E2E2E2E2E2E2E2E2E2E2E2E2E2E2E2E2E2E2E2E2E2E2E2E2E2E2E2E2E2E2E2E22DF5E2E2E2F5F5F5E2E2F5E22DE2E2E2E2E2E2E2E2E2E2E2E2E2E2E2E2E2E2E2E2E2E2E2E2E2E2E2E2E2E2E2E2E2E20F0FE2E2E2E2E2E2E2E2E2E2
310
E2E2E2E2E2E2E2E20F0F0FE2E2E2E2E2E2E2E2E2E2E2E2E2E2E2E2E2E2E2E2E2E2E2E2E2E2E2E2E2E2E2E2E2E2E2E2E2E2E2E2E2E2E2E2E2E2E2E2E2E2E2E2E2E2E2E2E2E2E2E2E2E2E2E2E2E2E2E2E2E2E2E2E2E2E2E2E2E2E2E2E2E2E2E2E2E2E2E2E2E2E2E2E2E2E2E2E2E2E2E2E2E2E2E2E2E2E2E2E2E22DF5E2E2E2F5
310
F5F5E2E2F5E22DE2E2E2E2E2E2E2E2E2E2E2E2E2E2E2E2E2E2E2E2E2E2E2E2E2E2E2E2E2E2E2E2E2E2E2E2E2E2E2E2E2E2E2E2E2E2E2E2E2E2E2E2E2E2E2E2E2E2E2E2E2E2E2E2E2E2E2E2E2E2E2E2E2E2E2E2E2E2E2E2E2E2E2E2E2E2E2E2E2E2E2E2E2E2E2E2E2E2E2E2E2E2E2E2E2E2E2E2E2E2E2E2E2E2E2E2E2E2E2E2
310
E2E2E2E2E2E2E2E2E2E2E2E2E2E2E2E2E2E2E2E2E2E2E2E2E2E2E2E2E2E2E2E2E2E2E2E2E2E2E2E2E2E2E2E2E2E2E22DF5E2E2E2F5F5F5E2E2F5E22DE2E2E2E2E2E2E2E2E2E2E2E2E2E2E2E2E2E2E2E2E2E2E2E2E2E2E2E2E2E2E2E2E2E2E2E2E2E2E2E2E2E2E2E2E2E2E2E2E2E2E2E2E2E2E2E2E2E2E2E2E2E2E2E2E2E2E2
310
E2E2E2E2E2E2E2E2E2E2E2E2E2E2E2E2E2E2E2E2E2E2E2E2E2E2E2E2E2E2E2E2E2E2E2E2E2E2E2E2E2E2E2E2E2E2E2E2E2E2E2E2E2E2E2E2E2E2E2E2E2E2E2E2E2E2E2E2E2E2E2E2E2E2E2E2E2E2E2E2E2E2E2E2E2E2E2E2E2E2E2E2E2E2E2E2E2E2E2E22DF5E2E2E2F5F5F5E2E2F5E22DE2E2E2E2E2E2E2E2E2E2E2E2E2E2
310
E2E2E2E2E2E2E2E2E2E2E2E2E2E2E2E2E2E2E2E2E2E2E2E2E2E2E2E2E2E2E2E2E2E2E2E2E2E2E2E2E2E2E2E2E2E2E2E2E2E2E2E2E2E2E2E2E2E2E2E2E2E2E2E2E2E2E2E2E2E2E2E2E2E2E2E2E2E2E2E2E2E2E2E2E2E2E2E2E2E2E2E2E2E2E2E2E2E2E2E2E2E2E2E2E2E2E2E2E2E2E2E2E2E2E2E2E2E2E2E2E2E2E2E2E2E2E2
310
E2E2E2E2E2E2E2E2E2E2E2E2E2E2E2E2E2E2E2E2E2E2E2E2E2E22DF5E2E2E2F5F5F5E2E2F5E22DE2E2E2E2E2E2E2E2E2E2E2E2E2E2E2E2E2E2E2E2E2E2E2E2E2E2E2E2E2E2E2E2E2E2E2E2E2E2E2E2E2E2E2E2E2E2E2E2E2E2E2E2E2E2E2E2E2E2E2E2E2E2E2E2E2E2E2E2E2E2E2E2E2E2E2E2E2E2E2E2E2E2E2E2E2E2E2E2
310
E2E2E2E2E2E2E2E2E2E2E2E2E2E2E2E2E2E2E2E2E2E2E2E2E2E2E2E2E2E2E2E2E2E2E2E2E2E2E2E2E2E2E2E2E2E2E2E2E2E2E2E2E2E2E2E2E2E2E2E2E2E2E2E2E2E2E2E2E2E2E2E2E2E2E2E2E2E2E22DF5E2E2E2F5F5F5E2E2F5E22DE2E2E2E2E2E2E2E2E2E2E2E2E2E2E2E2E2E2E2E2E2E2E2E2E2E2E2E2E2E2E2E2E2E2E2
310
E2E2E2E2E2E2E2E2E2E2E2E2E2E2E2E2E2E2E2E2E2E2E2E2E2E2E2E2E2E2E2E2E2E2E2E2E2E2E2E2E2E2E2E2E2E2E2E2E2E2E2E2E2E2E2E2E2E2E2E2E2E2E2E2E2E2E2E2E2E2E2E2E2E2E2E2E2E2E2E2E2E2E2E2E2E2E2E2E2E2E2E2E2E2E2E2E2E2E2E2E2E2E2E2E2E2E2E2E2E2E2E2E2E2E2E2E2E2E2E2E2E2E2E2E2E2E2
310
E2E2E2E2E22DF5E2E2E2F5F5F5E2E2F5E22DE2E2E2E2E2E2E2E2E2E2E2E2E2E2E2E2E2E2E2E2E2E2E2E2E2E2E2E2E2E2E2E2E2E2E2E2E2E2E2E2E2E2E2E2E2E2E2E2E2E2E2E2E2E2E2E2E2E2E2E2E2E2E2E2E2E2E2E2E2E2E2E2E2E2E2E2E2E2E2E2E2E2E2E2E2E2E2E2E2E2E2E2E2E2E2E2E2E2E2E2E2E2E2E2E2E2E2E2E2
310
E2E2E2E2E2E2E2E2E2E2E2E2E2E2E2E2E2E2E2E2E2E2E2E2E2E2E2E2E2E2E2E2E2E2E2E2E2E2E2E2E2E2E2E2E2E2E2E2E2E2E2E2E2E2E2E2E2E22DF5E2E2E2F5F5F5E2E2F5E22DE2E2E2E2E2E2E2E2E2E2E2E2E2E2E2E2E2E2E2E2E2E2E2E2E2E2E2E2E2E2E2E2E2E2E2E2E2E2E2E2E2E2E2E2E2E2E2E2E2E2E2E2E2E2E2E2
310
E2E2E2E2E2E2E2E2E2E2E2E2E2E2E2E2E2E2E2E2E2E2E2E2E2E2E2E2E2E2E2E2E2E2E2E2E2E2E2E2E2E2E2E2E2E2E2E2E2E2E2E2E2E2E2E2E2E2E2E2E2E2E2E2E2E2E2E2E2E2E2E2E2E2E2E2E2E2E2E2E2E2E2E2E2E2E2E2E2E2E2E2E2E2E2E2E2E2E2E2E2E2E2E2E2E2E2E2E2E2E22DF5E2E2E2F5F5F5E2E2F5E22DE2E2E2
310
E2E2E2E2E2E2E2E2E2E2E2E2E2E2E2E2E2E2E2E2E2E2E2E2E2E2E2E2E2E2E2E2E2E2E2E2E2E2E2E2E2E2E2E2E2E2E2E2E2E2E2E2E2E2E2E2E2E2E2E2E2E2E2E2E2E2E2E2E2E2E2E2E2E2E2E2E2E2E2E2E2E2E2E2E2E2E2E2E2E2E2E2E2E2E2E2E2E2E2E2E2E2E2E2E2E2E2E2E2E2E2E2E2E2E2E2E2E2E2E2E2E2E2E2E2E2E2
310
E2E2E2E2E2E2E2E2E2E2E2E2E2E2E2E2E2E2E2E2E2E2E2E2E2E2E2E2E2E2E2E2E2E2E2E2E22DF5E2E2E2F5F5F5E2E2F5E22DE2E2E2E2E2E2E2E2E2E2E2E2E2E2E2E2E2E2E2E2E2E2E2E2E2E2E2E2E2E2E2E2E2E2E2E2E2E2E2E2E2E2E2E2E2DCE2E2E2E2E2E2E2E2E2E2E2E2E2E2E2E2E2E2E2E2E2E2E2E2E2E2E2E2E2E2E2
310
E2E2E2E2E2E2E2E2E2E2E2E2E2E2E2E2E2E2E2E2E2E2E2E2E2E2E2E2E2E2E2E2E2E2E2E2E2E2E2E2E2E2E2E2E2E2E2E2E2E2E2E2E2E2E2E2E2E2E2E2E2E2E2E2E2E2E2E2E2E2E2E2E2E2E2E2E2E2E2E2E2E2E2E2E2E2E2E2E2E22DF5E2E2E2F5F5F5E2E2F5E22DE2E2E2E2E2E2E2E2E2E2E2E2E2E2E2E2E2E2E2E2E2E2E2E2
310
E2E2E2E2E2E2E2E2E2E2E2E2E2E2E2E2E2E2E2E2E2DCE2E2E2E2E2E2E2E2E2E2E2E2E2E2E2E2E2E2E2E2E2E2E2E2E2E2E2E2E2E2E2E2E2E2E2E2E2E2E2E2E2E2E2E2E2E2E2E2E2E2E2E2E2E2E2E2E2E2E2E2E2E2E2E2E2E2E2E2E2E2E2E2E2E2E2E2E2E2E2E2E2E2E2E2E2E2E2E2E2E2E2E2E2E2E2E2E2E2E2E2E2E2E2E2E2
310
E2E2E2E2E2E2E2E2E2E2E2E2E2E2E2E22DF5E2E2E2F5F5F5E2E2F5E22DE2E2E2E2E2E2E2E2E2E2E2E2E2E2E2E2E2E2E2E2E2E2E2E2E2E2E2E2E2E2E2E2E2E2E2E2E2E2E2E2E2E2E2E2E2DCE2E2E2E2E2E2E2E2E2E2E2E2E2E2E2E2E2E2E2E2E2E2E2E2E2E2E2E2E2E2E2E2E2E2E2E2E2E2E2E2E2E2E2E2E2E2E2E2E2E2E2E2
310
E2E2E2E2E2E2E2E2E2E2E2E2E2E2E2E2E2E2E2E2E2E2E2E2E2E2E2E2E2E2E2E2E2E2E2E2E2E2E2E2E2E2E2E2E2E2E2E2E2E2E2E2E2E2E2E2E2E2E2E2E2E2E2E2E2E2E2E2E22DF5E2E2E2F5F5F5E2E2F5E22DE2E2E2E2E2E2E2E2E2E2E2E2E2E2E2E2E2E2E2E2E2E2E2E2E2E2E2E2E2E2E2E2E2E2E2E2E2E2E2E2E2E2E2E2E2
310
DCE2E2E2E2E2E2E2E2E2E2E2E2E2E2E2E2E2E2E2E2E2E2E2E2E2E2E2E2E2E2E2E2E2E2E2E2E2E2E2E2E2E2E2E2E2E2E2E2E2E2E2E2E2E2E2E2E2E2E2E2E2E2E2E2E2E2E2E2E2E2E2E2E2E2E2E2E2E2E2E2E2E2E2E2E2E2E2E2E2E2E2E2E2E2E2E2E2E2E2E2E2E2E2E2E2E2E2E2E2E2E2E2E2E2E2E2E2E2E2E2E22DF5E2E2E2
310
F5F5F5E2E2E2E22DE2E2E2E2E2E2E2E2E2E2E2E2E2E2E2E2E2E2E2E2E2E2E2E2E2E2E2E2E2E2E2E2E2E2E2E2E2E2E2E2E2E2E2E2E2DCE2E2E2E2E2E2E2E2E2E2E2E2E2E2E2E2E2E2E2E2E2E2E2E2E2E2E2E2E2E2E2E2E2E2E2E2E2E2E2E2E2E2E2E2E2E2E2E2E2E2E2E2E2E2E2E2E2E2E2E2E2E2E2E2E2E2E2E2E2E2E2E2E2
310
E2E2E2E2E2E2E2E2E2E2E2E2E2E2E2E2E2E2E2E2E2E2E2E2E2E2E2E2E2E2E2E2E2E2E2E2E2E2E2E2E2E2E2E2E2E2E2E22DE2E2E2E2F5F5F5E2E2E2E22DE2E2E2E2E2E2E2E2E2E2E2E2E2E2E2E2E2E2E2E2E2E2E2E2E2E2E2E2E2E2E2F5F5F5F5F5F5F5F5E2E2E2E2E2E2DCE2E2E2E2E2F5F5F5F5F5F5F5F5F5F5F5E2E2E2F5
310
F5F5F5F5F5F5F5F5F5F5F5F5F5F5F5F5E2E2E2E2E2E2E2E2E2E2E2E2E2E2E2E2E2E2E2E2E2E2E2E2E2E2E2E2E2E2E2E2E2E2E2E2E2E2E2E2E2E2E2E2E2E2E2E2E2E2E2E2E2E2E2E2E2E2E2E2E2E2E2E2E2E2E2E2E2E2E2E2E2E2E2E2E2E2E2E2E2E2E2E2E22DE2E2E2E2F5F5F5E2E2E2E22DE2E2E2E2E2E2E2E2E2E2E2E2E2
310
E2E2E2E2E2E2E2E2E2E2E2E2E2E2E2E2E2E2F5E2E2E2E2E2E2F5F5F5F5F5F5F5F5F5F5F5F5F5F5E2E2E2E2E2E2E2F5E2F5F5F5E2F5E2E2E2E2E2E2E2E2E2E2E2E2E2E2E2F5E2E2E2E2E2E2E2E2E2E2E2E2E2E2E2E2E2E2E2E2E2E2E2E2E2E2E2E2E2E2E2E2E2E2E2E2E2E2E2E2E2E2E2E2E2E2E2E2E2E2E2E2E2E2E2E2E2E2
310
E2E2E2E2E2E2E2E2E2E2E2E2E2E2E2E2E2E2E2E2E2E2E2E2E2E2E22DE2E2E2E2F5F5F5E2E2E2E22DE2E2E2E2E2E2E2E2E2E2E2E2E2E2E2E2E2E2E2E2E2E2E2E2E2E2E2E2E2E2E2F5E2E2E2E2E2E2F5E2E2E2E2E2E2DCE2E2E2E2E2F5E2E2E2E2E2E2E2F5F5F5F5F5F5F5F5F5F5F5F5F5F5F5F5F5F5F5F5F5F5F5E2E2E2E2E2
310
E2E2E2E2E2E2E2E2E2E2E2E2E2E2E2E2E2E2E2E2E2E2E2E2E2E2E2E2E2E2E2E2E2E2E2E2E2E2E2E2E2E2E2E2E2E2E2E2E2E2E2E2E2E2E2E2E2E2E2E2E2E2E2E2E2E2E2E2E2E2E2E2E2E2E2E2E2E2E2E22DE2E2E2E2F5F5F5E2E2E2E22DE2E2E2E2E2E2E2E2E2E2E2E2E2E2E2E2E2E2E2E2E2E2E2E2E2E2E2E2E2E2E2F5E2E2
310
E2E2E2E2F5E2E2E2E2E2E2DCE2E2E2E2E2F5E2E2E2E2E2E2E2F5E2F5F5F5F5F5E2E2F5F5F5F5F5F5E2E2E2E2E2E2E2F5E2E2E2E2E2E2E2E2E2E2E2E2E2E2E2E2E2E2E2E2E2E2E2E2E2E2E2E2E2E2E2E2E2E2E2E2E2E2E2E2E2E2E2E2E2E2E2E2E2E2E2E2E2E2E2E2E2E2E2E2E2E2E2E2E2E2E2E2E2E2E2E2E2E2E2E2E2E2E2
310
E2E2E2E2E2E22DE2E2E2E2F5F5F5E2E2E2E22DE2E2E2E2E2E2E2E2E2E2E2E2E2E2E2E2E2E2E2E2E2E2E2E2E2E2E2E2E2E2E2F5E2E2E2E2E2E2F5E2E2E2E2E2E2DCE2E2E2E2E2F5E2E2E2E2E2E2E2F5E2F5F5F5F5F5E2E2F5F5F5F5E2E2F5F5E2E2E2E2E2F5E2E2E2E2E2E2E2E2E2E2E2E2E2E2E2E2E2E2E2E2E2E2E2E2E2E2
310
E2E2E2E2E2E2E2E2E2E2E2E2E2E2E2E2E2E2E2E2E2E2E2E2E2E2E2E2E2E2E2E2E2E2E2E2E2E2E2E2E2E2E2E2E2E2E2E2E2E2E2E2E2E2E2E2E2E2E22DE2E2E2E2F5F5F5E2E2E2E22DE2E2E2E2E2E2E2E2E2E2E2E2E2E2E2E2E2E2E2E2E2E2E2E2E2E2E2E2E2E2E2F5E2E2E2E2E2E2F5F5F5F5F5F5F5F5F5F5F5F5F5F5E2E2E2
310
E2E2E2E2F5E2F5F5F5E2F5E2E2F5F5F5F5E2E2E2E2F5F5E2E2E2F5E2E2E2E2E2E2E2E2E2E2E2E2E2E2E2E2E2E2E2E2E2E2E2E2E2E2E2E2E2E2E2E2E2E2E2E2E2E2E2E2E2E2E2E2E2E2E2E2E2E2E2E2E2E2E2E2E2E2E2E2E2E2E2E2E2E2E2E2E2E2E2E2E2E2E2E2E2E2E2E2E2E2E2E2E22DE2E2E2E2F5F5F5E2E2E2E22DE2E2
310
E2E2E2E2E2E2E2E2E2E2E2E2E2E2E2E2E2E2E2E2E2E2E2E2E2E2E2E2F5F5E2E2E2E2E2E2F5F5F5F5F5F5F5F5F5F5F5F5F5F5E2E2E2E2E2E2E2F5E2F5E2E2E2F5E2F5E2E2E2E2E2E2E2E2E2F5F5E2E2F5F5F5E2E2E2E2E2E2E2E2E2E2E2E2E2E2E2E2E2E2E2E2E2E2E2E2E2E2E2E2E2E2E2E2E2E2E2E2E2E2E2E2E2E2E2E2E2
310
E2E2E2E2E2E2E2E2E2E2E2E2E2E2E2E2E2E2E2E2E2E2E2E2E2E2E2E2E2E2E2E2E2E2E2E2E2E22DE2E2E2E2F5F5F5E2E2E2E22DE2E2E2E2E2E2E2E2E2E2E2E2E2E2E2E2E2E2E2E2E2E2E2E2E2E2E2E2E2E2F5F5E2E2E2E2E2E2F5E2E2E2E2E2E2DCE2E2E2E2E2F5E2E2E2E2E2E2E2F5E2F5E2E2E2F5E2F5E2E2E2E2E2E2E2E2
310
E2E2F5E2E2F5E2F5E2E2E2E2E2E2E2E2E2E2E2E2E2E2E2E2E2E2E2E2E2E2E2E2E2E2E2E2E2E2E2E2E2E2E2E2E2E2E2E2E2E2E2E2E2E2E2E2E2E2E2E2E2E2E2E2E2E2E2E2E2E2E2E2E2E2E2E2E2E2E2E2E2E2E2E2E2E2E2E2E2E2E22DE2E2E2E2F5F5F5E2E2F5E22DE2E2E2E2E2E2E2E2E2E2E2E2E2E2E2E2E2E2E2E2E2E2E2
310
E2E2E2E2E2E2E2F5F5E2E2E2E2E2E2F5E2E2E2E2E2E2DCE2E2E2E2E2F5E2E2E2E2E2E2E2F5E2F5E2E2E2F5E2F5E2E2E2E2E2E2E2E2E2E2F5F5E2F5E2F5E2E2E2E2E2E2E2E2E2E2E2E2E2E2E2E2E2E2E2E2E2E2E2E2E2E2E2E2E2E2E2E2E2E2E2E2E2E2E2E2E2E2E2E2E2E2E2E2E2E2E2E2E2E2E2E2E2E2E2E2E2E2E2E2E2E2
310
E2E2E2E2E2E2E2E2E2E2E2E2E2E2E2E2E22DF5E2E2E2F5F5F5E2E2F5E22DE2E2E2E2E2E2E2E2E2E2E2E2E2E2E2E2E2E2E2E2E2E2E2E2E2E2E2E2E2E2F5F5E2E2E2E2E2E2F5E2E2E2E2E2E2DCE2E2E2E2E2F5E2E2E2E2E2E2E2F5E2F5E2E2E2F5F5E2E2E2E2E2E2E2E2E2E2F5F5F5F5F5E2F5F5F5F5F5F5F5E2E2E2E2E2E2F5
310
F5F5E2E2E2E2E2E2E2E2E2E2E2E2E2E2E2E2E2E2E2E2E2E2E2E2E2E2E2E2E2E2E2E2E2E2E2E2E2E2E2E2E2E2E2E2E2E2E2E2E2E2E2E2E2E2E2E2E2E2E2E2E2E2E2E2E2E2E2E22DF5E2E2E2F5F5F5E2E2F5E22DE2E2E2E2E2E2E2E2E2E2E2E2E2E2E2E2E2E2E2E2E2E2E2E2E2E2E2E2E2E2F5F5E2E2E2E2E2E2F5E2E2E2E2E2
310
E2DCE2E2E2E2E2F5E2E2E2E2E2E2E2F5E2F5E2E2E2F5F5E2E2E2E2E2E2E2E2E2E2F5F5F5F5F5E2F5E2E2E2E2E2F5F5F5F5F5F5F5F5E2F5F5F5E2E2E2E2E2E2E2E2E2E2E2E2E2E2E2E2E2E2E2E2E2E2E2E2E2E2E2E2E2E2E2E2E2E2E2E2E2E2E2E2E2E2E2E2E2E2E2E2E2E2E2E2E2E2E2E2E2E2E2E2E2E2E2E2E2E22DF5E2E2
310
E2F5F5F5E2E2F5E22DE2E2E2E2E2E2E2E2E2E2E2E2E2E2E2E2E2E2E2E2E2E2E2E2E2E2E2E2E2E2F5F5E2E2E2E2E2E2F5E2E2E2E2E2E2DCE2E2E2E2E2F5E2E2E2E2E2E2E2F5E2F5E2E2E2F5E2F5E2E2E2E2E2E2E2E2E2E2F5F5E2F5E2F5E2E2E2E2E2F5F5E2F5E2E2E2F5E2F5E2F5E2E2E2E2E2E2E2E2E2E2E2E2E2E2E2E2E2
310
E2E2E2E2E2E2E2E2E2E2E2E2E2E2E2E2E2E2E2E2E2E2E2E2E2E2E2E2E2E2E2E2E2E2E2E2E2E2E2E2E2E2E2E2E2E2E2E2E22DF5E2E2E2F5F5F5E2E2F5E22DE2E2E2E2E2E2E2E2E2E2E2E2E2E2E2E2E2E2E2E2E2E2E2E2E2E2E2E2BEBEF5F5BEBEBEBEBEBEF5BEBEBEBEBEBEDCBEBEBEBEBEF5BEBEBEBEBEBEBEF5BEF5BEBEBE
310
F5BEF5BEBEBEBEBEBEBEBEBEBEF5BEBEF5BEF5BEBEBEBEBEF5F5BEF5BEBEBEF5F5F5E2F5E2E2E2E2E2E2E2E2E2E2E2E2E2E2E2E2E2E2E2E2E2E2E2E2E2E2E2E2E2E2E2E2E2E2E2E2E2E2E2E2E2E2E2E2E2E2E2E2E2E2E2E2E2E2E2E2E2E2E2E2E2E2E2E2E2E22DF5E2E2E2F5F5F5E2E2F5E22DE2E2E2E2E2E2E2E2E2E2E2E2
310
E2E2E2E2E2E2E2E2E2E2E2E2E2E2E2E2E2E2F5F5E2E2E2E2E2E2F5E2E2E2E2E2E2DCE2E2E2E2E2F5E2E2E2E2E2E2E2F5E2F5E2E2E2F5E2F5F5F5F5E2E2E2E2E2E2F5F5E2E2F5E2F5E2E2E2E2E2F5F5F5F5E2E2E2F5E2F5E2F5E2E2E2E2E2E2E2E2E2E2E2E2E2E2E2E2E2E2E2E2E2E2E2E2E2E2E2E2E2E2E2E2E2E2E2E2E2E2
310
E2E2E2E2E2E2E2E2E2E2E2E2E2E2E2E2E2E2E2E2E2E2E2E2E2E2E2E22DF5E2E2E2F5F5F5E2E2F5E22DE2E2E2E2E2E2E2E2E2E2E2E2E2E2E2E2E2E2E2E2E2E2E2E2E2E2E2E2E2E2F5F5E2E2E2E2E2E2F5E2E2E2E2E2E2DCE2E2E2E2E2F5E2E2E2E2E2E2E2F5E2F5E2E2E2F5E2E2F5F5F5F5E2E2E2E2F5F5E2E2E2F5E2F5E2E2
310
E2E2E2F5F5F5F5F5F5F5F5E2F5F5F5E2E2E2E2E2E2E2E2E2E2E2E2E2E2E2E2E2E2E2E2E2E2E2E2E2E2E2E2E2E2E2E2E2E2E2E2E2E2E2E2E2E2E2E2E2E2E2E2E2E2E2E2E2E2E2E2E2E2E2E2E2E2E2E2E2E22DF5E2E2E2F5F5F5E2E2F5E22DE2E2E2E2E2E2E2E2E2E2E2E2E2E2E2E2E2E2E2E2E2E2E2E2E2E2E2E2E2E2F5F5E2
310
E2E2E2E2E2F5E2E2E2E2E2E2DCE2E2E2E2E2F5E2E2E2E2E2E2E2F5E2F5E2E2E2F5E2E2F5F5F5F5F5F5F5F5E2E2E2E2E2F5E2F5F5F5F5F5F5F5E2E2E2E2E2E2F5F5F5E2E2E2E2E2E2E2E2E2E2E2E2E2E2E2E2E2E2E2E2E2E2E2E2E2E2E2E2E2E2E2E2E2E2E2E2E2E2E2E2E2E2E2E2E2E2E2E2E2E2E2E2E2E2E2E2E2E2E2E2E2
310
E2E2E2E2E2E2E22DF5E2E2E2F5F5F5E2E2F5E22DE2E2E2E2E2E2E2E2E2E2E2E2E2E2E2E2E2E2E2E2E2E2E2E2E2E2E2E2E2E2F5F5E2E2E2E2E2E2F5E2E2E2E2E2E2DCE2E2E2E2E2F5E2E2E2E2E2E2E2F5E2F5E2E2E2F5E2E2E2F5F5E2E2E2E2E2E2E2E2E2E2F5E2F5E2E2E2E2E2E2E2E2E2E2E2E2E2E2E2E2E2E2E2E2E2E2E2
310
E2E2E2E2E2E2E2E2E2E2E2E2E2E2E2E2E2E2E2E2E2E2E2E2E2E2E2E2E2E2E2E2E2E2E2E2E2E2E2E2E2E2E2E2E2E2E2E2E2E2E2E2E2E2E2E2E2E2E2E22DF5E2E2E2F5F5F5E2E2F5E22DE2E2E2E2E2E2E2E2E2E2E2E2E2E2E2E2E2E2E2E2E2E2E2E2E2E2E2E2E2E2F5F5E2E2E2E2E2E2F5E2E2E2E2E2E2DCE2E2E2E2E2F5E2E2
310
E2E2E2E2E2F5E2F5E2E2E2F5E2E2E2E2E2E2E2E2E2E2E2E2E2E2E2F5F5F5E2E2E2E2E2E2E2E2E2E2E2E2E2E2E2E2E2E2E2E2E2E2E2E2E2E2E2E2E2E2E2E2E2E2E2E2E2E2E2E2E2E2E2E2E2E2E2E2E2E2E2E2E2E2E2E2E2E2E2E2E2E2E2E2E2E2E2E2E2E2E2E2E2E2E2E2E2E2E2E2E2E2E22DF5E2E2E2F5F5F5E2E2F5E22DE2
310
E2E2E2E2E2E2E2E2E2E2E2E2E2E2E2E2E2E2E2E2E2E2E2E2E2E2E2E2E2E2F5E2E2E2E2E2E2F5E2E2E2E2E2E2DCE2E2E2E2E2F5E2E2E2E2E2E2E2F5E2F5E2E2E2F5E2E2E2E2E2E2E2E2E2E2E2E2E2E2E2F5E2E2E2E2E2E2E2E2E2E2E2E2E2E2E2E2E2E2E2E2E2E2E2E2E2E2E2E2E2E2E2E2E2E2E2E2E2E2E2E2E2E2E2E2E2E2
310
E2E2E2E2E2E2E2E2E2E2E2E2E2E2E2E2E2E2E2E2E2E2E2E2E2E2E2E2E2E2E2E2E2E2E2E2E2E2E22DF5E2E2E2F5F5F5E2E2F5E22DE2E2E2E2E2E2E2E2E2E2E2E2E2E2E2E2E2E2E2E2E2E2E2E2E2E2E2E2E2E2E2F5E2E2E2E2E2E2F5E2E2E2E2E2E2DCE2E2E2E2E2F5E2E2E2E2E2E2E2F5E2F5F5F5E2F5E2E2E2E2E2E2E2E2E2
310
E2E2E2E2E2E2F5E2E2E2E2E2E2E2E2E2E2E2E2E2E2E2E2E2E2E2E2E2E2E2E2E2E2E2E2E2E2E2E2E2E2E2E2E2E2E2E2E2E2E2E2E2E2E2E2E2E2E2E2E2E2E2E2E2E2E2E2E2E2E2E2E2E2E2E2E2E2E2E2E2E2E2E2E2E2E2E2E2E2E2E2E22DF5E2E2E2F5F5F5E2E2F5E22DE2E2E2E2E2E2E2E2E2E2E2E2E2E2E2E2E2E2E2E2E2E2
310
E2E2E2E2E2E2E2E2E2F5E2E2E2E2E2E2F5E2E2E2E2E2E2DCE2E2E2E2E2F5E2E2E2E2E2E2E2F5E2F5F5F5F5F5E2E2E2E2E2E2E2E2E2E2E2E2E2E2E2F5E2E2E2E2E2E2E2E2E2E2E2E2E2E2E2E2E2E2E2E2E2E2E2E2E2E2E2E2E2E2E2E2E2E2E2E2E2E2E2E2E2E2E2E2E2E2E2E2E2E2E2E2E2E2E2E2E2E2E2E2E2E2E2E2E2E2E2
310
E2E2E2E2E2E2E2E2E2E2E2E2E2E2E2E2E2E22DF5E2E2E2F5F5F5E2E2F5E22DE2E2E2E2E2E2E2E2E2E2E2E2E2E2E2E2E2E2E2E2E2E2E2E2E2E2E2E2E2E2E2F5E2E2E2E2E2E2F5E2E2E2E2E2E2DCE2E2E2E2E2F5E2E2E2E2E2E2E2F5F5F5F5F5F5F5F5F5F5F5F5F5F5F5F5F5F5F5F5F5F5F5E2E2E2E2E2E2E2E2E2E2E2E2E2E2
310
E2E2E2E2E2E2E2E2E2E2E2E2E2E2E2E2E2E2E2E2E2E2E2E2E2E2E2E2E2E2E2E2E2E2E2E2E2E2E2E2E2E2E2E2E2E2E2E2E2E2E2E2E2E2E2E2E2E2E2E2E2E2E2E2E2E2E2E2E2E2E22DF5E2E2E2F5F5F5E2E2F5E22DE2E2E2E2E2E2E2E2E2E2E2E2E2E2E2E2E2E2E2E2E2E2E2E2E2E2E2E2E2E2E2F5E2E2E2E2E2E2F5E2E2E2E2
310
E2E2DCE2E2E2E2E2F5E2E2E2E2E2E2E2F5E2F5F5F5F5F5E2E2E2E2E2E2E2E2E2E2E2E2E2E2E2F5E2E2E2E2E2E2E2E2E2E2E2E2E2E2E2E2E2E2E2E2E2E2E2E2E2E2E2E2E2E2E2E2E2E2E2E2E2E2E2E2E2E2E2E2E2E2E2E2E2E2E2E2E2E2E2E2E2E2E2E2E2E2E2E2E2E2E2E2E2E2E2E2E2E2E2E2E2E2E2E2E2E2E2E2E22DF5E2
310
E2E2F5F5F5E2E2E2E22DE2E2E2E2E2E2E2E2E2E2E2E2E2E2E2E2E2E2E2E2E2E2E2E2E2E2E2E2E2E2E2F5F5F5F5F5F5F5F5F5F5F5F5F5F5F5F5F5F5F5F5F5F5F5F5F5F5F5F5F5F5F5F5F5E2F5F5F5F5F5F5F5F5F5F5F5F5F5F5F5F5F5E2E2E2E2E2E2E2E2E2E2E2E2E2E2E2E2E2E2E2E2E2E2E2E2E2E2E2E2E2E2E2E2E2E2E2
310
E2E2E2E2E2E2E2E2E2E2E2E2E2E2E2E2E2E2E2E2E2E2E2E2E2E2E2E2E2E2E2E2E2E2E2E2E2E2E2E2E2E2E2E2E2E2E2E2E2E22DE2E2E2E2F5F5F5E2E2E2E22DE2E2E2E2E2E2E2E2E2E2E2E2E2E2E2E2E2E2E2E2E2E2E2E2E2E2E2E2E2E2E2E2E2E2E2E2E2E2E2E2E2E2E2E2E2DCE2E2E2E2E2E2E2E2E2E2E2E2E2E2E2E2E2E2
310
E2E2E2E2E2E2E2E2E2E2E2E2E2E2E2E2E2E2E2E2E2E2E2E2E2E2E2E2E2E2E2E2E2E2E2E2E2E2E2E2E2E2E2E2E2E2E2E2E2E2E2E2E2E2E2E2E2E2E2E2E2E2E2E2E2E2E2E2E2E2E2E2E2E2E2E2E2E2E2E2E2E2E2E2E2E2E2E2E2E2E2E2E2E2E2E2E2E2E2E2E2E2E22DE2E2E2E2F5F5F5E2E2E2E22DE2E2E2E2E2E2E2E2E2E2E2
310
E2E2E2E2E2E2E2E2E2E2E2E2E2E2E2E2E2E2E2E2E2E2E2E2E2E2E2E2E2E2E2E2E2E2DCE2E2E2E2E2E2E2E2E2E2E2E2E2E2E2E2E2E2E2E2E2E2E2E2E2E2E2E2E2E2E2E2E2E2E2E2E2E2E2E2E2E2E2E2E2E2E2E2E2E2E2E2E2E2E2E2E2E2E2E2E2E2E2E2E2E2E2E2E2E2E2E2E2E2E2E2E2E2E2E2E2E2E2E2E2E2E2E2E2E2E2E2
310
E2E2E2E2E2E2E2E2E2E2E2E2E2E2E2E2E2E2E2E2E2E2E2E2E2E2E2E2E22DE2E2E2E2F5F5F5E2E2E2E22DE2E2E2E2E2E2E2E2E2E2E2E2E2E2E2E2E2E2E2E2E2E2E2E2E2E2E2E2E2E2E2E2E2E2E2E2E2E2E2E2E2E2E2E2E2DCDCDCDCDCDCDCE2E2E2E2E2E2E2E2E2E2E2E2E2E2E2E2E2E2E2E2E2E2E2E2E2E2E2E2E2E2E2E2E2
310
E2E2E2E2E2E2E2E2E2E2E2E2E2E2E2E2E2E2E2E2E2E2E2E2E2E2E2E2E2E2E2E2E2E2E2E2E2E2E2E2E2E2E2E2E2E2E2E2E2E2E2E2E2E2E2E2E2E2E2E2E2E2E2E2E2E2E2E2E2E2E2E2E2E2E2E2E2E2E2E2E2E22DE2E2E2E2F5F5F5E2E2E2E22DE2E2E2E2E2E2E2E2E2E2E2E2E2E2E2E2E2E2E2E2E2E2E2E2E2E2E2E2E2E2E2E2
310
E2E2E2E2E2E2E2E2E2E2E2E2E2DCE2E2DCDCDCE2E2E2E2E2E2E2E2E2E2E2E2E2E2E2E2E2E2E2E2E2E2E2E2E2E2E2E2E2E2E2E2E2E2E2E2E2E2E2E2E2E2E2E2E2E2E2E2E2E2E2E2E2E2E2E2E2E2E2E2E2E2E2E2E2E2E2E2E2E2E2E2E2E2E2E2E2E2E2E2E2E2E2E2E2E2E2E2E2E2E2E2E2E2E2E2E2E2E2E2E2E2E2E2E2E2E2E2
310
E2E2E2E2E2E2E2E22DE2E2E2E2F5F5F5E2E2E2E22DE2E2E2E2E2E2E2E2E2E2E2E2E2E2E2E2E2E2E2E2E2E2E2E2E2E2E2E2E2E2E2E2E2E2E2E2E2E2E2E2E2E2E2E2E22DE2E2DCDCE2E2E2E2E2E2E2E2E2E2E2E2E2E2E2E2E2E2E2E2E2E2E2E2E2E2E2E2E2E2E2E2E2E2E2E2E2E2E2E2E2E2E2E2E2E2E2E2E2E2E2E2E2E2E2E2
310
E2E2E2E2E2E2E2E2E2E2E2E2E2E2E2E2E2E2E2E2E2E2E2E2E2E2E2E2E2E2E2E2E2E2E2E2E2E2E2E2E2E2E2E2E2E2E2E2E2E2E2E2E2E2E2E2E2E2E2E2E22DE2E2E2E2F5F5F5E2E2E2E22DE2E2E2E2E2E2E2E2E2E2E2E2E2E2E2E2E2E2E2E2E2E2E2E2E2E2E2E2E2E2E2E2E2E2E2E2E2E2E2E2E2E2E2E2E22DE2E2E2E2E2E2E2
310
E2E2E2E2E2E2E2E2E2E2E2E2E2E2E2E2E2E2E2E2E2E2E2E2E2E2E2E2E2E2E2E2E2E2E2E2E2E2E2E2E2E2E2E2E2E2E2E2E2E2E2E2E2E2E2E2E2E2E2E2E2E2E2E2E2E2E2E2E2E2E2E2E2E2E2E2E2E2E2E2E2E2E2E2E2E2E2E2E2E2E2E2E2E2E2E2E2E2E2E2E2E2E2E2E2E2E2E2E2E2E2E2E2E22DE2E2E2E2F5F5F5E2E2E2E22D
310
E2E2E2E2E2E2E2E2E2E2E2E2E2E2E2E2E2E2E2E2E2E2E2E2E2E2E2E2E2E2E2E2E2E2E2E2E2E2E2E2E2E2E2E2E22DE2E2E2E2E2E2E2E2E2E2E2E2E2E2E2E2E2E2E2E2E2E2E2E2E2E2E2E2E2E2E2E2E2E2E2E2E2E2E2E2E2E2E2E2E2E2E2E2E2E2E2E2E2E2E2E2E2E2E2E2E2E2E2E2E2E2E2E2E2E2E2E2E2E2E2E2E2E2E2E2E2
310
E2E2E2E2E2E2E2E2E2E2E2E2E2E2E2E2E2E2E2E2E2E2E2E2E2E2E2E2E2E2E2E2E2E2E2E2E2E2E2E22DE2E2E2E2F5F5F5E2E2F5E22DE2E2E2E2E2E2E2E2E2E2E2E2E2E2E2E2E2E2E2E2E2E2E2E2E2E2E2E2E2E2E2E2E2E2E2E2E2E2E2E2E2E2E2E2E22DE2E2E2E2E2E2E2E2E2E2E2E2E2E2E2E2E2E2E2E2E2E2E2E2E2E2E2E2
310
E2E2E2E2E2E2E2E2E2E2E2E2E2E2E2E2E2E2E2E2E2E2E2E2E2E2E2E2E2E2E2E2E2E2E2E2E2E2E2E2E2E2E2E2E2E2E2E2E2E2E2E2E2E2E2E2E2E2E2E2E2E2E2E2E2E2E2E2E2E2E2E2E2E2E2E2E2E2E2E2E2E2E2E2E2E2E2E2E2E2E2E2E22DF5E2E2E2F5F5F5E2E2F5E22DE2E2E2E2E2E2E2E2E2E2E2E2E2E2E2E2E2E2E2E2E2
310
E2E2E2E2E2E2E2E2E2E2E2E2E2E2E2E2E2E2E2E2E2E2E2E22DE2E2E2E2E2E2E2E2E2E2E2E2E2E2E2E2E2E2E2E2E2E2E2E2E2E2E2E2E2E2E2E2E2E2E2E2E2E2E2E2E2E2E2E2E2E2E2E2E2E2E2E2E2E2E2E2E2E2E2E2E2E2E2E2E2E2E2E2E2E2E2E2E2E2E2E2E2E2E2E2E2E2E2E2E2E2E2E2E2E2E2E2E2E2E2E2E2E2E2E2E2E2
310
E2E2E2E2E2E2E2E2E2E2E2E2E2E2E2E2E2E2E22DF5E2E2E2F5F5F5E2E2F5E22DE2E2E2E2E2E2E2E2E2E2E2E2E2E2E2E2E2E2E2E2E2E2E2E2E2E2E2E2E2E2E2E2E2E2E2E2E2E2E2E2E2E2E2E2E22DE2E2E2E2E2E2E2E2E2E2E2E2E2E2E2E2E2E2E2E2E2E2E2E2E2E2E2E2E2E2E2E2E2E2E2E2E2E2E2E2E2E2E2E2E2E2E2E2E2
310
E2E2E2E2E2E2E2E2E2E2E2E2E2E2E2E2E2E2E2E2E2E2E2E2E2E2E2E2E2E2E2E2E2E2E2E2E2E2E2E2E2E2E2E2E2E2E2E2E2E2E2E2E2E2E2E2E2E2E2E2E2E2E2E2E2E2E2E2E2E2E2E22DF5E2E2E2F5F5F5E2E2F5E22DE2E2E2E2E2E2E2E2E2E2E2E2E2E2E2E2E2E2E2E2E2E2E2E2E2E2E2E2E2E2E2E2E2E2E2E2E2E2E2E2E2E2
310
E2E2E22DE22D2D2D2D2DE2E2E2E2E2E2E2E2E2E2E2E2E2E2E2E2E2E2E2E2E2E2E2E2E2E2E2E2E2E2E2E2E2E2E2E2E2E2E2E2E2E2E2E2E2E2E2E2E2E2E2E2E2E2E2E2E2E2E2E2E2E2E2E2E2E2E2E2E2E2E2E2E2E2E2E2E2E2E2E2E2E2E2E2E2E2E2E2E2E2E2E2E2E2E2E2E2E2E2E2E2E2E2E2E2E2E2E2E2E2E2E2E2E2E22DF5
310
E2E2E2F5F5F5E2E2F5E22DE2E2E2E2E2E2E2E2E2E2E2E2E2E2E2E2E2E2E2E2E2E2E2E2E2E2E2E2E2E2E2E2E2E2E2E2E2E2E2E2E2E2E2E2E22DE22D2D2D2D2DE2E2E2E2E2E2E2E2E2E2E2E2E2E2E2E2E2E2E2E2E2E2E2E2E2E2E2E2E2E2E2E2E2E2E2E2E2E2E2E2E2E2E2E2E2E2E2E2E2E2E2E2E2E2E2E2E2E2E2E2E2E2E2E2
310
E2E2E2E2E2E2E2E2E2E2E2E2E2E2E2E2E2E2E2E2E2E2E2E2E2E2E2E2E2E2E2E2E2E2E2E2E2E2E2E2E2E2E2E2E2E2E2E2E2E2E22DF5E2E2E2F5F5F5E2E2F5E22DE2E2E2E2E2E2E2E2E2E2E2E2E2E2E2E2E2E2E2E2E2E2E2E2E2E2E2E2E2E2E2E2E2E2E2E2E2E2E2E2E2E2E2E2E2E2E2E2E2E2E2E2E2E2E2E2E2E2E2E2E2E2E2
310
E2E2E2E2E2E2E2E2E2E2E2E2E2E2E2E2E2E2E2E2E2E2E2E2E2E2E2E2E2E2E2E2E2E2E2E2E2E2E2E2E2E2E2E2E2E2E2E2E2E2E2E2E2E2E2E2E2E2E2E2E2E2E2E2E2E2E2E2E2E2E2E2E2E2E2E2E2E2E2E2E2E2E2E2E2E2E2E2E2E2E2E2E2E2E2E2E2E2E2E2E2E2E2E22DF5E2E2E2F5F5F5E2E2F5E22DE2E2E2E2E2E2E2E2E2E2
310
E2E2E2E2E2E2E2E2E2E2E2E2E2E2E2E2E2E2E2E2E2E2E2E2E2E2E2E2E2E2E2E2E2E2E2E2E2E2E2E2E2E2E2E2E2E2E2E2E2E2E2E2E2E2E2E2E2E2E2E2E2E2E2E2E2E2E2E2E2E2E2E2E2E2E2E2E2E2E2E2E2E2E2E2E2E2E2E2E2E2E2E2E2E2E2E2E2E2E2E2E2E2E2E2E2E2E2E2E2E2E2E2E2E2E2E2E2E2E2E2E2E2E2E2E2E2E2
310
E2E2E2E2E2E2E2E2E2E2E2E2E2E2E2E2E2E2E2E2E2E2E2E2E2E2E2E2E2E22DF5E2E2E2F5F5F5E2E2F5F52D2D2D2D2D2D2D2D2D2D2D2D2D2D2D2D2D2D2D2D2D2D2D2D2D2D2D2D2D2D2D2D2D2D2D2D2D2D2D2D2D2D2D2D2D2D2D2D2D2D2D2D2D2D2D2D2D2D2D2D2D2D2D2D2D2D2D2D2D2D2D2D2D2D2D2D2D2D2D2D2D2D2D2D2D
310
2D2D2D2D2D2D2D2D2D2D2D2D2D2D2D2D2D2D2D2D2D2D2D2D2D2D2D2D2D2D2D2D2D2D2D2D2D2D2D2D2D2D2D2D2D2D2D2D2D2D2D2D2D2D2D2D2D2D2D2D2D2D2D2D2D2D2D2D2D2D2D2D2D2D2D2D2D2D2D2D2D2D2D2DF5E2E2E2F5F5F5E2E2E2E2E2E2E2E2E2E2E2E2E2E2E2E2E2E2E2E2E2E2E2E2E2E2E2E2E2E2E2E2E2E2E2E2
310
E2E2E2E2E2E2E2E2E2E2E2E2E2E2E2E2E2E2E2E2E2E2E2E2E2E2E2E2E2E2E2E2E2E2E2E2E2E2E2E2E2E2E2E2E2E2E2E2E2E2E2E2E2E2E2E2E2E2E2E2E2E2E2E2E2E2E2E2E2E2E2E2E2E2E2E2E2E2E2E2E2E2E2E2E2E2E2E2E2E2E2E2E2E2E2E2E2E2E2E2E2E2E2E2E2E2E2E2E2E2E2E2E2E2E2E2E2E2E2E2E2E2E2E2E2E2E2
310
E2E2E2E2E2E2E2E2E2E2E2E2E2E2F5F5F5E2E2E2E2E2E2E2E2E2E2E2E2E2E2E2E2E2E2E2E2E2E2E2E2E2E2E2E2E2E2E2E2E2E2E2E2E2E2E2E2E2E2E2E2E2E2E2E2E2E2E2E2E2E2E2E2E2E2E2E2E2E2E2E2E2E2E2E2E2E2E2E2E2E2E2E2E2E2E2E2E2E2E2E2E2E2E2E2E2E2E2E2E2E2E2E2E2E2E2E2E2E2E2E2E2E2E2E2E2E2
310
E2E2E2E2E2E2E2E2E2E2E2E2E2E2E2E2E2E2E2E2E2E2E2E2E2E2E2E2E2E2E2E2E2E2E2E2E2E2E2E2E2E2E2E2E2E2E2E2E2E2E2E2E2E2E2E2E2E2E2E2E2E2E2E2E2E2E2F5F5F5E2E2E2E2E2E2E2E2E2E2E2E2E2E2E2E2E2E2E2E2E2E2E2E2E2E2E2E2E2E2E2E2E2E2E2E2E2E2E2E2E2E2E2E2E2E2E2E2E2E2E2E2E2E2E2E2E2
310
E2E2E2E2E2E2E2E2E2E2E2E2E2E2E2E2E2E2E2E2E2E2E2E2E2E2E2E2E2E2E2E2E2E2E2E2E2E2E2E2E2E2E2E2E2E2E2E2E2E2E2E2E2E2E2E2E2E2E2E2E2E2E2E2E2E2E2E2E2E2E2E2E2E2E2E2E2E2E2E2E2E2E2E2E2E2E2E2E2E2E2E2E2E2E2E2E2E2E2E2E2E2E2E2E2E2E2E2E2E2E2E2E2E2E2E2E2E2E2E2F5EFF5F5F5F5F5
310
F5F5F5F5F5F5F5F5F5F5F5F5F5F5F5F5F5F5F5F5F5F5F5F5F5F5F5F5F5F5F5F5F5F5F5F5F5F5F5F5F5F5F5F5F5F5F5F5F5F5F5F5F5F5F5F5F5F5F5F5F5F5F5F5F5F5F5F5F5F5F5F5F5F5F5F5F5F5F5F5F5F5F5F5F5F5F5F5F5F5F5F5F5F5F5F5F5F5F5F5F5F5F5F5F5F5F5F5F5F5F5F5F5F5F5F5F5F5F5F5F5F5F5F5F5F5F5
310
F5F5F5F5F5F5F5F5F5F5F5F5F5F5F5F5F5F5F5F5F5F5F5F5F5F5F5F5F5F5F5F5F5F5F5F5F5F5F5F5F5F5F5F5F5F5F5EF
  0
ENDSEC
  0
EOF
