  0
SECTION
  2
HEADER
  9
$ACADVER
  1
AC1015
  9
$ACADMAINTVER
 70
    20
  9
$DWGCODEPAGE
  3
ANSI_950
  9
$INSBASE
 10
0.0
 20
0.0
 30
0.0
  9
$EXTMIN
 10
1.000000000000000E+20
 20
1.000000000000000E+20
 30
1.000000000000000E+20
  9
$EXTMAX
 10
-1.000000000000000E+20
 20
-1.000000000000000E+20
 30
-1.000000000000000E+20
  9
$LIMMIN
 10
0.0
 20
0.0
  9
$LIMMAX
 10
420.0
 20
297.0
  9
$ORTHOMODE
 70
     0
  9
$REGENMODE
 70
     1
  9
$FILLMODE
 70
     1
  9
$QTEXTMODE
 70
     0
  9
$MIRRTEXT
 70
     1
  9
$LTSCALE
 40
1.0
  9
$ATTMODE
 70
     1
  9
$TEXTSIZE
 40
1.0
  9
$TRACEWID
 40
1.0
  9
$TEXTSTYLE
  7
STANDARD
  9
$CLAYER
  8
0
  9
$CELTYPE
  6
BYLAYER
  9
$CECOLOR
 62
   256
  9
$CELTSCALE
 40
1.0
  9
$DISPSILH
 70
     0
  9
$DIMSCALE
 40
1.0
  9
$DIMASZ
 40
2.5
  9
$DIMEXO
 40
1.0
  9
$DIMDLI
 40
8.0
  9
$DIMRND
 40
0.0
  9
$DIMDLE
 40
0.0
  9
$DIMEXE
 40
1.0
  9
$DIMTP
 40
0.1
  9
$DIMTM
 40
0.1
  9
$DIMTXT
 40
3.5
  9
$DIMCEN
 40
0.0
  9
$DIMTSZ
 40
0.0
  9
$DIMTOL
 70
     0
  9
$DIMLIM
 70
     0
  9
$DIMTIH
 70
     0
  9
$DIMTOH
 70
     0
  9
$DIMSE1
 70
     0
  9
$DIMSE2
 70
     0
  9
$DIMTAD
 70
     1
  9
$DIMZIN
 70
     8
  9
$DIMBLK
  1

  9
$DIMASO
 70
     1
  9
$DIMSHO
 70
     1
  9
$DIMPOST
  1

  9
$DIMAPOST
  1
"
  9
$DIMALT
 70
     0
  9
$DIMALTD
 70
     2
  9
$DIMALTF
 40
0.0393701
  9
$DIMLFAC
 40
1.0
  9
$DIMTOFL
 70
     1
  9
$DIMTVP
 40
0.0
  9
$DIMTIX
 70
     0
  9
$DIMSOXD
 70
     0
  9
$DIMSAH
 70
     0
  9
$DIMBLK1
  1

  9
$DIMBLK2
  1

  9
$DIMSTYLE
  2
AM_ISO
  9
$DIMCLRD
 70
   256
  9
$DIMCLRE
 70
   256
  9
$DIMCLRT
 70
   256
  9
$DIMTFAC
 40
0.71
  9
$DIMGAP
 40
1.0
  9
$DIMJUST
 70
     0
  9
$DIMSD1
 70
     0
  9
$DIMSD2
 70
     0
  9
$DIMTOLJ
 70
     0
  9
$DIMTZIN
 70
     8
  9
$DIMALTZ
 70
     8
  9
$DIMALTTZ
 70
     0
  9
$DIMUPT
 70
     0
  9
$DIMDEC
 70
     2
  9
$DIMTDEC
 70
     8
  9
$DIMALTU
 70
     2
  9
$DIMALTTD
 70
     2
  9
$DIMTXSTY
  7
STANDARD
  9
$DIMAUNIT
 70
     0
  9
$DIMADEC
 70
     0
  9
$DIMALTRND
 40
0.0
  9
$DIMAZIN
 70
     2
  9
$DIMDSEP
 70
    46
  9
$DIMATFIT
 70
     3
  9
$DIMFRAC
 70
     0
  9
$DIMLDRBLK
  1

  9
$DIMLUNIT
 70
     2
  9
$DIMLWD
 70
    -1
  9
$DIMLWE
 70
    -1
  9
$DIMTMOVE
 70
     0
  9
$LUNITS
 70
     2
  9
$LUPREC
 70
     2
  9
$SKETCHINC
 40
1.0
  9
$FILLETRAD
 40
2.5
  9
$AUNITS
 70
     0
  9
$AUPREC
 70
     0
  9
$MENU
  1
.
  9
$ELEVATION
 40
0.0
  9
$PELEVATION
 40
0.0
  9
$THICKNESS
 40
0.0
  9
$LIMCHECK
 70
     0
  9
$CHAMFERA
 40
2.5
  9
$CHAMFERB
 40
2.5
  9
$CHAMFERC
 40
20.0
  9
$CHAMFERD
 40
0.0
  9
$SKPOLY
 70
     0
  9
$TDCREATE
 40
2454816.659313322
  9
$TDUCREATE
 40
2454816.325979989
  9
$TDUPDATE
 40
2456639.473996123
  9
$TDUUPDATE
 40
2456639.140662789
  9
$TDINDWG
 40
0.3776812384
  9
$TDUSRTIMER
 40
0.3776812384
  9
$USRTIMER
 70
     1
  9
$ANGBASE
 50
0.0
  9
$ANGDIR
 70
     0
  9
$PDMODE
 70
     0
  9
$PDSIZE
 40
0.0
  9
$PLINEWID
 40
0.0
  9
$SPLFRAME
 70
     0
  9
$SPLINETYPE
 70
     6
  9
$SPLINESEGS
 70
     8
  9
$HANDSEED
  5
31E5
  9
$SURFTAB1
 70
     6
  9
$SURFTAB2
 70
     6
  9
$SURFTYPE
 70
     6
  9
$SURFU
 70
     6
  9
$SURFV
 70
     6
  9
$UCSBASE
  2

  9
$UCSNAME
  2

  9
$UCSORG
 10
0.0
 20
0.0
 30
0.0
  9
$UCSXDIR
 10
1.0
 20
0.0
 30
0.0
  9
$UCSYDIR
 10
0.0
 20
1.0
 30
0.0
  9
$UCSORTHOREF
  2

  9
$UCSORTHOVIEW
 70
     0
  9
$UCSORGTOP
 10
0.0
 20
0.0
 30
0.0
  9
$UCSORGBOTTOM
 10
0.0
 20
0.0
 30
0.0
  9
$UCSORGLEFT
 10
0.0
 20
0.0
 30
0.0
  9
$UCSORGRIGHT
 10
0.0
 20
0.0
 30
0.0
  9
$UCSORGFRONT
 10
0.0
 20
0.0
 30
0.0
  9
$UCSORGBACK
 10
0.0
 20
0.0
 30
0.0
  9
$PUCSBASE
  2

  9
$PUCSNAME
  2

  9
$PUCSORG
 10
0.0
 20
0.0
 30
0.0
  9
$PUCSXDIR
 10
1.0
 20
0.0
 30
0.0
  9
$PUCSYDIR
 10
0.0
 20
1.0
 30
0.0
  9
$PUCSORTHOREF
  2

  9
$PUCSORTHOVIEW
 70
     0
  9
$PUCSORGTOP
 10
0.0
 20
0.0
 30
0.0
  9
$PUCSORGBOTTOM
 10
0.0
 20
0.0
 30
0.0
  9
$PUCSORGLEFT
 10
0.0
 20
0.0
 30
0.0
  9
$PUCSORGRIGHT
 10
0.0
 20
0.0
 30
0.0
  9
$PUCSORGFRONT
 10
0.0
 20
0.0
 30
0.0
  9
$PUCSORGBACK
 10
0.0
 20
0.0
 30
0.0
  9
$USERI1
 70
     0
  9
$USERI2
 70
     0
  9
$USERI3
 70
     0
  9
$USERI4
 70
     0
  9
$USERI5
 70
     0
  9
$USERR1
 40
0.0
  9
$USERR2
 40
0.0
  9
$USERR3
 40
0.0
  9
$USERR4
 40
0.0
  9
$USERR5
 40
0.0
  9
$WORLDVIEW
 70
     1
  9
$SHADEDGE
 70
     3
  9
$SHADEDIF
 70
    70
  9
$TILEMODE
 70
     0
  9
$MAXACTVP
 70
    48
  9
$PINSBASE
 10
0.0
 20
0.0
 30
0.0
  9
$PLIMCHECK
 70
     0
  9
$PEXTMIN
 10
45.35047466041407
 20
9.899051319220205
 30
0.0
  9
$PEXTMAX
 10
449.2959739058398
 20
285.4193022262087
 30
219.8019400672432
  9
$PLIMMIN
 10
-9.0
 20
-24.0
  9
$PLIMMAX
 10
495.0
 20
332.4
  9
$UNITMODE
 70
     0
  9
$VISRETAIN
 70
     1
  9
$PLINEGEN
 70
     0
  9
$PSLTSCALE
 70
     1
  9
$TREEDEPTH
 70
  3020
  9
$CMLSTYLE
  2
STANDARD
  9
$CMLJUST
 70
     0
  9
$CMLSCALE
 40
1.0
  9
$PROXYGRAPHICS
 70
     1
  9
$MEASUREMENT
 70
     1
  9
$CELWEIGHT
370
    -1
  9
$ENDCAPS
280
     0
  9
$JOINSTYLE
280
     0
  9
$LWDISPLAY
290
     0
  9
$INSUNITS
 70
     4
  9
$HYPERLINKBASE
  1

  9
$STYLESHEET
  1

  9
$XEDIT
290
     1
  9
$CEPSNTYPE
380
     0
  9
$PSTYLEMODE
290
     1
  9
$FINGERPRINTGUID
  2
{CAC0B594-D082-4A08-878C-C7C0726FFACF}
  9
$VERSIONGUID
  2
{90AC67B8-35AE-402D-ACDF-9728737471BE}
  9
$EXTNAMES
290
     1
  9
$PSVPSCALE
 40
0.0
  9
$OLESTARTUP
290
     0
  0
ENDSEC
  0
SECTION
  2
CLASSES
  0
CLASS
  1
DICTIONARYVAR
  2
AcDbDictionaryVar
  3
ObjectDBX Classes
 90
        0
280
     0
281
     0
  0
CLASS
  1
ACMESTATEMGR
  2
AcMeStateMgr
  3
AcMeServices
 90
        0
280
     0
281
     0
  0
CLASS
  1
ACMESCOPE
  2
AcMeScope
  3
AcMeServices
 90
        0
280
     0
281
     0
  0
CLASS
  1
ACMECOMMANDHISTORY
  2
AcMeCommandHistory
  3
AcMeServices
 90
        0
280
     0
281
     0
  0
CLASS
  1
ACRFINSADJUSTERMGR
  2
AcRfInsAdjusterMgr
  3
AcMeServices
 90
        0
280
     0
281
     0
  0
CLASS
  1
ACMEDRAWINGMAN
  2
AcMeDrawingMan
  3
AcMeServices
 90
        0
280
     0
281
     0
  0
CLASS
  1
AMATTR
  2
AcMeAttribute
  3
AcMeServices
 90
    32768
280
     0
281
     0
  0
CLASS
  1
ACMEBOMCOLUMN
  2
AcMeBOMColumn
  3
AcMeServices
 90
    32768
280
     0
281
     0
  0
CLASS
  1
ACMEBOMCONF
  2
AcMeBOMConf
  3
AcMeServices
 90
    32768
280
     0
281
     0
  0
CLASS
  1
ACMEBOMTABLE
  2
AcMeBOMTable
  3
AcMeServices
 90
    32768
280
     0
281
     0
  0
CLASS
  1
ACMEBOMENTRY
  2
AcMeBOMEntry
  3
AcMeServices
 90
    32768
280
     0
281
     0
  0
CLASS
  1
ACMEVIEW
  2
AcMeView
  3
AcMeServices
 90
        0
280
     0
281
     0
  0
CLASS
  1
ACGREFMASTER
  2
AcGrefMaster
  3
AcAttribServices
 90
        0
280
     0
281
     0
  0
CLASS
  1
AMIMASTER
  2
AmiMaster
  3
AmiServices
 90
        0
280
     0
281
     0
  0
CLASS
  1
ACASGREFMASTER
  2
AcAsGrefMaster
  3
AutoSurfResolverServices
 90
        0
280
     0
281
     0
  0
CLASS
  1
ADAPPL
  2
AcAdAppl
  3
DesignerServices
 90
        0
280
     0
281
     0
  0
CLASS
  1
DEPMGR
  2
AcAdDepMgr
  3
DesignerServices
 90
        0
280
     0
281
     0
  0
CLASS
  1
PARAMMGR
  2
AcAdParamMgr
  3
DesignerServices
 90
        0
280
     0
281
     0
  0
CLASS
  1
PARAMSCOPE
  2
AcAdParamScope
  3
DesignerServices
 90
        0
280
     0
281
     0
  0
CLASS
  1
ACIMSYSVARMAN
  2
AcImSysVarManager
  3
AcMeServices
 90
        0
280
     0
281
     0
  0
CLASS
  1
ACIMINTSYSVAR
  2
AcImIntSysVar
  3
AcMeServices
 90
        0
280
     0
281
     0
  0
CLASS
  1
ACIMREALSYSVAR
  2
AcImRealSysVar
  3
AcMeServices
 90
        0
280
     0
281
     0
  0
CLASS
  1
ACIMSTRSYSVAR
  2
AcImStrSysVar
  3
AcMeServices
 90
        0
280
     0
281
     0
  0
CLASS
  1
NAMEDAPPL
  2
AcAdNamedAppl
  3
DesignerServices
 90
        0
280
     0
281
     0
  0
CLASS
  1
ADHNTMPLT
  2
AdHoleNoteTemplateMgr
  3
DesignerServices
 90
    32768
280
     0
281
     0
  0
CLASS
  1
AM_HNTEMPLATE_MGR_NAME
  2
AdHoleNoteTemplateMgrName
  3
DesignerServices
 90
    32768
280
     0
281
     0
  0
CLASS
  1
ACADGREFMODULE
  2
AcAdGrefModule
  3
AdGrefServices
 90
        0
280
     0
281
     0
  0
CLASS
  1
AM_DRAWING_MGR
  2
AcDmDwgMgr
  3
AcMechDwgViewMgmt
 90
        0
280
     0
281
     0
  0
CLASS
  1
AM_DWG_DOCUMENT
  2
AcDmDwgDocument
  3
AcMechDwgViewMgmt
 90
        0
280
     0
281
     0
  0
CLASS
  1
AM_DWG_SHEET
  2
AcDmSheet
  3
AcMechDwgViewMgmt
 90
        0
280
     0
281
     0
  0
CLASS
  1
AM_VIEWDIMPARMAP
  2
AcDmViewDimParMap
  3
AcMechDwgViewMgmt
 90
        0
280
     0
281
     0
  0
CLASS
  1
AM_DWGMGR_NAME
  2
AcDmDwgMgrName
  3
AcMechDwgViewMgmt
 90
        0
280
     0
281
     0
  0
CLASS
  1
ACAMPROJECT
  2
AcAmProject
  3
DesignerAssemblies
 90
        0
280
     0
281
     0
  0
CLASS
  1
ACAMGRCOMPSET
  2
AcAmGrCompSet
  3
DesignerAssemblies
 90
    32768
280
     1
281
     0
  0
CLASS
  1
ACAMGRCOMPDEFSET
  2
AcAmGrCompDefSet
  3
DesignerAssemblies
 90
        0
280
     0
281
     0
  0
CLASS
  1
ACAMGRCOMPDEF
  2
AcAmGrCompDef
  3
DesignerAssemblies
 90
        0
280
     0
281
     0
  0
CLASS
  1
ACCMCONTEXT
  2
AcCmContext
  3
DesignerAssemblies
 90
        0
280
     0
281
     0
  0
CLASS
  1
ACAMCOMPDEF
  2
AcAmCompDef
  3
DesignerAssemblies
 90
        0
280
     0
281
     0
  0
CLASS
  1
ACAMCOMPDEFMGR
  2
AcAmCompDefMgr
  3
DesignerAssemblies
 90
        0
280
     0
281
     0
  0
CLASS
  1
AMCONTEXTMGR
  2
AcAmContextMgr
  3
DesignerAssemblies
 90
        0
280
     0
281
     0
  0
CLASS
  1
ACAMCONTEXTMODELER
  2
AcAmContextModeler
  3
DesignerAssemblies
 90
        0
280
     0
281
     0
  0
CLASS
  1
ACDMVIEWGEOM
  2
AcDmViewGeometry
  3
AcMechDwgViewMgmt
 90
    32768
280
     0
281
     1
  0
CLASS
  1
CBROWSERAPPOBJECT
  2
CBrowserAppObject
  3
McadcomServices
 90
        0
280
     0
281
     0
  0
CLASS
  1
IM_STATIC_MAN
  2
AcImStaticVarManager
  3
AcMeServices
 90
        0
280
     0
281
     0
  0
CLASS
  1
ASAPP
  2
AcAsAppObject
  3
AutoSurfServices
 90
        0
280
     0
281
     0
  0
CLASS
  1
ACIMDBLSTATICVAR
  2
AcImDblStaticVar
  3
AcMeServices
 90
        0
280
     0
281
     0
  0
CLASS
  1
ACIMSTRSTATICVAR
  2
AcImStrStaticVar
  3
AcMeServices
 90
        0
280
     0
281
     0
  0
CLASS
  1
ACIMINTSTATICVAR
  2
AcImIntStaticVar
  3
AcMeServices
 90
        0
280
     0
281
     0
  0
CLASS
  1
CATALOGSTATE
  2
AcAmCatalogState
  3
DesignerAssemblies
 90
        0
280
     0
281
     0
  0
CLASS
  1
DM_PLACEHOLDER
  2
AcDmSelsetPlaceholder
  3
AcMechDwgViewMgmt
 90
        0
280
     0
281
     0
  0
CLASS
  1
LAYER_INDEX
  2
AcDbLayerIndex
  3
ObjectDBX Classes
 90
        0
280
     0
281
     0
  0
CLASS
  1
IDBUFFER
  2
AcDbIdBuffer
  3
ObjectDBX Classes
 90
        0
280
     0
281
     0
  0
CLASS
  1
ACMSTANDARDJIS
  2
AcmStandardJIS
  3
"Amdt_StdImp|Product Description: AutoCAD Mechanical 2004 DX|Company: Autodesk"
 90
    32768
280
     0
281
     0
  0
CLASS
  1
ACMSTANDARDANSI
  2
AcmStandardANSI
  3
"Amdt_StdImp|Product Description: AutoCAD Mechanical 2004 DX|Company: Autodesk"
 90
        0
280
     0
281
     0
  0
CLASS
  1
ACMSTANDARDBSI
  2
AcmStandardBSI
  3
"Amdt_StdImp|Product Description: AutoCAD Mechanical 2004 DX|Company: Autodesk"
 90
    32768
280
     0
281
     0
  0
CLASS
  1
ACMSTANDARDDIN
  2
AcmStandardDIN
  3
"Amdt_StdImp|Product Description: AutoCAD Mechanical 2004 DX|Company: Autodesk"
 90
    32768
280
     0
281
     0
  0
CLASS
  1
ACMSTANDARDISO
  2
AcmStandardISO
  3
"Amdt_StdImp|Product Description: AutoCAD Mechanical 2004 DX|Company: Autodesk"
 90
        0
280
     0
281
     0
  0
CLASS
  1
ACDBDICTIONARYWDFLT
  2
AcDbDictionaryWithDefault
  3
ObjectDBX Classes
 90
        0
280
     0
281
     0
  0
CLASS
  1
ACDBPLACEHOLDER
  2
AcDbPlaceHolder
  3
ObjectDBX Classes
 90
        0
280
     0
281
     0
  0
CLASS
  1
LAYOUT
  2
AcDbLayout
  3
ObjectDBX Classes
 90
        0
280
     0
281
     0
  0
CLASS
  1
ACME_DOCUMENT
  2
AcMeDbDoc
  3
AcMeServices
 90
        0
280
     0
281
     0
  0
CLASS
  1
AMGSETTINGSOBJ
  2
AmgSettingsObj
  3
"AcadM|Product Description: AutoCAD Mechanical 2000|Company: Autodesk"
 90
        0
280
     0
281
     0
  0
CLASS
  1
AMGOBJPROPCFG
  2
AmgObjPropCfg
  3
"AmgLay|Product Description: AutoCAD Mechanical 2000|Company: Autodesk"
 90
        1
280
     0
281
     0
  0
CLASS
  1
ACDBENTITYCACHE
  2
AcMeEntityCache
  3
AcMeServices
 90
        0
280
     0
281
     0
  0
CLASS
  1
GSMANAGER
  2
AcMeGSManager
  3
AcMeServices
 90
        0
280
     0
281
     0
  0
CLASS
  1
AMDTINTERNALREACTOR
  2
AmdtInternalReactor
  3
AcMeServices
 90
        0
280
     0
281
     0
  0
CLASS
  1
ACME_DATABASE
  2
AcMeDbDatabase
  3
AcMeServices
 90
        0
280
     0
281
     0
  0
CLASS
  1
ACGREFACADMASTER
  2
AcGrefacadMaster
  3
AcGrefServices
 90
        0
280
     0
281
     0
  0
CLASS
  1
AMDTMENUSTATEMGR
  2
AmdtMenuStateMgr
  3
McadcomServices
 90
        0
280
     0
281
     0
  0
CLASS
  1
AMDTMCOMMENUSTATE
  2
AmdtMcomMenuState
  3
McadcomServices
 90
        0
280
     0
281
     0
  0
CLASS
  1
MAPIADMODULE
  2
MApiAdModule
  3
MApiAdServices
 90
        0
280
     0
281
     0
  0
CLASS
  1
AMDTDMMENUSTATE
  2
AmdtDmMenuState
  3
AcMechDwgViewMgmt
 90
        0
280
     0
281
     0
  0
CLASS
  1
AMDTADMENUSTATE
  2
AmdtAdMenuState
  3
DesignerServices
 90
        0
280
     0
281
     0
  0
CLASS
  1
AMDTAMMENUSTATE
  2
AmdtAmMenuState
  3
DesignerAssemblies
 90
        0
280
     0
281
     0
  0
CLASS
  1
ACMDATADICTIONARY
  2
AcmDataDictionary
  3
"AcmSymBB|Product Description: AutoCAD Mechanical 2004 DX|Company: Autodesk"
 90
        0
280
     0
281
     0
  0
CLASS
  1
ACMDATAENTRYBLOCK
  2
AcmDataEntryBlock
  3
"AcmSymBB|Product Description: AutoCAD Mechanical 2004 DX|Company: Autodesk"
 90
        0
280
     0
281
     0
  0
CLASS
  1
ACMSURFSTANDARDJIS
  2
AcmSurfTextStdJIS
  3
"Amdt_StdImp|Product Description: AutoCAD Mechanical 2004 DX|Company: Autodesk"
 90
    32768
280
     0
281
     0
  0
CLASS
  1
ACMFCFSTANDARDJIS
  2
AcmFCFStdJIS
  3
"Amdt_StdImp|Product Description: AutoCAD Mechanical 2004 DX|Company: Autodesk"
 90
    32768
280
     0
281
     0
  0
CLASS
  1
ACMWELDSTANDARDJIS
  2
AcmWeldingStdJIS
  3
"Amdt_StdImp|Product Description: AutoCAD Mechanical 2004 DX|Company: Autodesk"
 90
    32768
280
     0
281
     0
  0
CLASS
  1
ACMIDSTANDARDJIS
  2
AcmIdStdJIS
  3
"Amdt_StdImp|Product Description: AutoCAD Mechanical 2004 DX|Company: Autodesk"
 90
    32768
280
     0
281
     0
  0
CLASS
  1
ACMDATUMSTANDARDJIS
  2
AcmDatumStdJIS
  3
"Amdt_StdImp|Product Description: AutoCAD Mechanical 2004 DX|Company: Autodesk"
 90
    32768
280
     0
281
     0
  0
CLASS
  1
ACMBOMSTANDARDJIS
  2
AcmBOMStdJIS
  3
"Amdt_StdImp|Product Description: AutoCAD Mechanical 2004 DX|Company: Autodesk"
 90
    32768
280
     0
281
     0
  0
CLASS
  1
ACMSURFSTANDARDANSI
  2
AcmSurfTextStdANSI
  3
"Amdt_StdImp|Product Description: AutoCAD Mechanical 2004 DX|Company: Autodesk"
 90
        0
280
     0
281
     0
  0
CLASS
  1
ACMFCFSTANDARDANSI
  2
AcmFCFStdANSI
  3
"Amdt_StdImp|Product Description: AutoCAD Mechanical 2004 DX|Company: Autodesk"
 90
        0
280
     0
281
     0
  0
CLASS
  1
ACMWELDSTANDARDANSI
  2
AcmWeldingStdANSI
  3
"Amdt_StdImp|Product Description: AutoCAD Mechanical 2004 DX|Company: Autodesk"
 90
        0
280
     0
281
     0
  0
CLASS
  1
ACMIDSTANDARDANSI
  2
AcmIdStdANSI
  3
"Amdt_StdImp|Product Description: AutoCAD Mechanical 2004 DX|Company: Autodesk"
 90
        0
280
     0
281
     0
  0
CLASS
  1
ACMDATUMSTANDARDANSI
  2
AcmDatumStdANSI
  3
"Amdt_StdImp|Product Description: AutoCAD Mechanical 2004 DX|Company: Autodesk"
 90
        0
280
     0
281
     0
  0
CLASS
  1
ACMBOMSTANDARDANSI
  2
AcmBOMStdANSI
  3
"Amdt_StdImp|Product Description: AutoCAD Mechanical 2004 DX|Company: Autodesk"
 90
        0
280
     0
281
     0
  0
CLASS
  1
ACMSURFSTANDARDBSI
  2
AcmSurfTextStdBSI
  3
"Amdt_StdImp|Product Description: AutoCAD Mechanical 2004 DX|Company: Autodesk"
 90
    32768
280
     0
281
     0
  0
CLASS
  1
ACMFCFSTANDARDBSI
  2
AcmFCFStdBSI
  3
"Amdt_StdImp|Product Description: AutoCAD Mechanical 2004 DX|Company: Autodesk"
 90
    32768
280
     0
281
     0
  0
CLASS
  1
ACMWELDSTANDARDBSI
  2
AcmWeldingStdBSI
  3
"Amdt_StdImp|Product Description: AutoCAD Mechanical 2004 DX|Company: Autodesk"
 90
    32768
280
     0
281
     0
  0
CLASS
  1
ACMIDSTANDARDBSI
  2
AcmIdStdBSI
  3
"Amdt_StdImp|Product Description: AutoCAD Mechanical 2004 DX|Company: Autodesk"
 90
    32768
280
     0
281
     0
  0
CLASS
  1
ACMDATUMSTANDARDBSI
  2
AcmDatumStdBSI
  3
"Amdt_StdImp|Product Description: AutoCAD Mechanical 2004 DX|Company: Autodesk"
 90
    32768
280
     0
281
     0
  0
CLASS
  1
ACMBOMSTANDARDBSI
  2
AcmBOMStdBSI
  3
"Amdt_StdImp|Product Description: AutoCAD Mechanical 2004 DX|Company: Autodesk"
 90
    32768
280
     0
281
     0
  0
CLASS
  1
AMDTEDGESTANDARDDIN
  2
AmdtEdgeStdDIN
  3
"Amdt_StdImp|Product Description: AutoCAD Mechanical 2004 DX|Company: Autodesk"
 90
    32768
280
     0
281
     0
  0
CLASS
  1
ACMSURFSTANDARDDIN
  2
AcmSurfTextStdDIN
  3
"Amdt_StdImp|Product Description: AutoCAD Mechanical 2004 DX|Company: Autodesk"
 90
    32768
280
     0
281
     0
  0
CLASS
  1
ACMFCFSTANDARDDIN
  2
AcmFCFStdDIN
  3
"Amdt_StdImp|Product Description: AutoCAD Mechanical 2004 DX|Company: Autodesk"
 90
    32768
280
     0
281
     0
  0
CLASS
  1
ACMWELDSTANDARDDIN
  2
AcmWeldingStdDIN
  3
"Amdt_StdImp|Product Description: AutoCAD Mechanical 2004 DX|Company: Autodesk"
 90
    32768
280
     0
281
     0
  0
CLASS
  1
ACMIDSTANDARDDIN
  2
AcmIdStdDIN
  3
"Amdt_StdImp|Product Description: AutoCAD Mechanical 2004 DX|Company: Autodesk"
 90
    32768
280
     0
281
     0
  0
CLASS
  1
ACMDATUMSTANDARDDIN
  2
AcmDatumStdDIN
  3
"Amdt_StdImp|Product Description: AutoCAD Mechanical 2004 DX|Company: Autodesk"
 90
    32768
280
     0
281
     0
  0
CLASS
  1
ACMBOMSTANDARDDIN
  2
AcmBOMStdDIN
  3
"Amdt_StdImp|Product Description: AutoCAD Mechanical 2004 DX|Company: Autodesk"
 90
    32768
280
     0
281
     0
  0
CLASS
  1
ACMSURFSTANDARDISO
  2
AcmSurfTextStdISO
  3
"Amdt_StdImp|Product Description: AutoCAD Mechanical 2004 DX|Company: Autodesk"
 90
        0
280
     0
281
     0
  0
CLASS
  1
ACMFCFSTANDARDISO
  2
AcmFCFStdISO
  3
"Amdt_StdImp|Product Description: AutoCAD Mechanical 2004 DX|Company: Autodesk"
 90
        0
280
     0
281
     0
  0
CLASS
  1
ACMWELDSTANDARDISO
  2
AcmWeldingStdISO
  3
"Amdt_StdImp|Product Description: AutoCAD Mechanical 2004 DX|Company: Autodesk"
 90
        0
280
     0
281
     0
  0
CLASS
  1
ACMIDSTANDARDISO
  2
AcmIdStdISO
  3
"Amdt_StdImp|Product Description: AutoCAD Mechanical 2004 DX|Company: Autodesk"
 90
        0
280
     0
281
     0
  0
CLASS
  1
ACMDATUMSTANDARDISO
  2
AcmDatumStdISO
  3
"Amdt_StdImp|Product Description: AutoCAD Mechanical 2004 DX|Company: Autodesk"
 90
        0
280
     0
281
     0
  0
CLASS
  1
ACMBOMSTANDARDISO
  2
AcmBOMStdISO
  3
"Amdt_StdImp|Product Description: AutoCAD Mechanical 2004 DX|Company: Autodesk"
 90
        0
280
     0
281
     0
  0
CLASS
  1
AMDTBROWSERDBTAB
  2
AmdtBrowserDbTab
  3
McadcomServices
 90
        0
280
     0
281
     0
  0
CLASS
  1
ACAMGFILTERDAT
  2
AcAmgFilterDat
  3
"AcadM|Product Description: AutoCAD Mechanical 2000|Company: Autodesk"
 90
    32768
280
     0
281
     0
  0
CLASS
  1
MAPIAMMOUDLE
  2
MApiAmModule
  3
MApiAmServices
 90
        0
280
     0
281
     0
  0
CLASS
  1
AMDTMAPISURFMOUDULE
  2
AmdtMApiSurfModule
  3
MApiSurfServices
 90
        0
280
     0
281
     0
  0
CLASS
  1
ACAMGLAYSTD
  2
AcAmgLayStd
  3
"AcAmgLayStd|Product Description: AutoCAD Mechanical 2000|Company: Autodesk"
 90
        0
280
     0
281
     0
  0
CLASS
  1
ACAMGDIMSTD
  2
AcAmgDimStd
  3
"AcAmgDimStd|Product Description: AutoCAD Mechanical 2000|Company: Autodesk"
 90
        0
280
     0
281
     0
  0
CLASS
  1
ACAMGTITLESTD
  2
AcAmgTitleStd
  3
"TITLEAPP"
 90
        0
280
     0
281
     0
  0
CLASS
  1
ACMDETAILSTANDARDJIS
  2
AmdtDetailSymStdJIS
  3
"Amdt_StdImp|Product Description: AutoCAD Mechanical 2004 DX|Company: Autodesk"
 90
    32768
280
     0
281
     0
  0
CLASS
  1
ACMSECTIONSTANDARDJIS
  2
AmdtSectionSymStdJIS
  3
"Amdt_StdImp|Product Description: AutoCAD Mechanical 2004 DX|Company: Autodesk"
 90
    32768
280
     0
281
     0
  0
CLASS
  1
ACMCENTERLINESTANDARDJIS
  2
AmdtCenterLineStdJIS
  3
"Amdt_StdImp|Product Description: AutoCAD Mechanical 2004 DX|Company: Autodesk"
 90
    32768
280
     0
281
     0
  0
CLASS
  1
ACMTHREADLINESTANDARDJIS
  2
AmdtThreadLineStdJIS
  3
"Amdt_StdImp|Product Description: AutoCAD Mechanical 2004 DX|Company: Autodesk"
 90
    32768
280
     0
281
     0
  0
CLASS
  1
ACMDETAILSTANDARDANSI
  2
AmdtDetailSymStdANSI
  3
"Amdt_StdImp|Product Description: AutoCAD Mechanical 2004 DX|Company: Autodesk"
 90
        0
280
     0
281
     0
  0
CLASS
  1
ACMSECTIONSTANDARDANSI
  2
AmdtSectionSymStdANSI
  3
"Amdt_StdImp|Product Description: AutoCAD Mechanical 2004 DX|Company: Autodesk"
 90
        0
280
     0
281
     0
  0
CLASS
  1
ACMCENTERLINESTANDARDANSI
  2
AmdtCenterLineStdANSI
  3
"Amdt_StdImp|Product Description: AutoCAD Mechanical 2004 DX|Company: Autodesk"
 90
        0
280
     0
281
     0
  0
CLASS
  1
ACMTHREADLINESTANDARDANSI
  2
AmdtThreadLineStdANSI
  3
"Amdt_StdImp|Product Description: AutoCAD Mechanical 2004 DX|Company: Autodesk"
 90
        0
280
     0
281
     0
  0
CLASS
  1
ACMDETAILSTANDARDBSI
  2
AmdtDetailSymStdBSI
  3
"Amdt_StdImp|Product Description: AutoCAD Mechanical 2004 DX|Company: Autodesk"
 90
    32768
280
     0
281
     0
  0
CLASS
  1
ACMSECTIONSTANDARDBSI
  2
AmdtSectionSymStdBSI
  3
"Amdt_StdImp|Product Description: AutoCAD Mechanical 2004 DX|Company: Autodesk"
 90
    32768
280
     0
281
     0
  0
CLASS
  1
ACMCENTERLINESTANDARDBSI
  2
AmdtCenterLineStdBSI
  3
"Amdt_StdImp|Product Description: AutoCAD Mechanical 2004 DX|Company: Autodesk"
 90
    32768
280
     0
281
     0
  0
CLASS
  1
ACMTHREADLINESTANDARDBSI
  2
AmdtThreadLineStdBSI
  3
"Amdt_StdImp|Product Description: AutoCAD Mechanical 2004 DX|Company: Autodesk"
 90
    32768
280
     0
281
     0
  0
CLASS
  1
ACMDETAILSTANDARDDIN
  2
AmdtDetailSymStdDIN
  3
"Amdt_StdImp|Product Description: AutoCAD Mechanical 2004 DX|Company: Autodesk"
 90
    32768
280
     0
281
     0
  0
CLASS
  1
ACMSECTIONSTANDARDDIN
  2
AmdtSectionSymStdDIN
  3
"Amdt_StdImp|Product Description: AutoCAD Mechanical 2004 DX|Company: Autodesk"
 90
    32768
280
     0
281
     0
  0
CLASS
  1
ACMCENTERLINESTANDARDDIN
  2
AmdtCenterLineStdDIN
  3
"Amdt_StdImp|Product Description: AutoCAD Mechanical 2004 DX|Company: Autodesk"
 90
    32768
280
     0
281
     0
  0
CLASS
  1
ACMTHREADLINESTANDARDDIN
  2
AmdtThreadLineStdDIN
  3
"Amdt_StdImp|Product Description: AutoCAD Mechanical 2004 DX|Company: Autodesk"
 90
    32768
280
     0
281
     0
  0
CLASS
  1
AMDTEDGESTANDARDISO
  2
AmdtEdgeStdISO
  3
"Amdt_StdImp|Product Description: AutoCAD Mechanical 2004 DX|Company: Autodesk"
 90
    32768
280
     0
281
     0
  0
CLASS
  1
ACMDETAILSTANDARDISO
  2
AmdtDetailSymStdISO
  3
"Amdt_StdImp|Product Description: AutoCAD Mechanical 2004 DX|Company: Autodesk"
 90
        0
280
     0
281
     0
  0
CLASS
  1
ACMSECTIONSTANDARDISO
  2
AmdtSectionSymStdISO
  3
"Amdt_StdImp|Product Description: AutoCAD Mechanical 2004 DX|Company: Autodesk"
 90
        0
280
     0
281
     0
  0
CLASS
  1
ACMCENTERLINESTANDARDISO
  2
AmdtCenterLineStdISO
  3
"Amdt_StdImp|Product Description: AutoCAD Mechanical 2004 DX|Company: Autodesk"
 90
        0
280
     0
281
     0
  0
CLASS
  1
ACMTHREADLINESTANDARDISO
  2
AmdtThreadLineStdISO
  3
"Amdt_StdImp|Product Description: AutoCAD Mechanical 2004 DX|Company: Autodesk"
 90
        0
280
     0
281
     0
  0
CLASS
  1
ACMNOTESTANDARDISO
  2
AmdtNoteStdISO
  3
"Amdt_StdImp|Product Description: AutoCAD Mechanical 2004 DX|Company: Autodesk"
 90
        0
280
     0
281
     0
  0
CLASS
  1
ACAMGHOLECHARTSTDISO
  2
AcAmgHoleChartStdISO
  3
ACMSYMBB_MODULE_NAME
 90
        0
280
     0
281
     0
  0
CLASS
  1
ACMNOTESTANDARDANSI
  2
AmdtNoteStdANSI
  3
"Amdt_StdImp|Product Description: AutoCAD Mechanical 2004 DX|Company: Autodesk"
 90
        0
280
     0
281
     0
  0
CLASS
  1
AMDTNOTETEMPLATEDB
  2
AmdtNoteTemplateDB
  3
AMDT_STDIMP_MODULE_NAME
 90
        0
280
     0
281
     0
  0
CLASS
  1
ACAMGHOLECHARTSTDANSI
  2
AcAmgHoleChartStdANSI
  3
ACMSYMBB_MODULE_NAME
 90
        0
280
     0
281
     0
  0
CLASS
  1
TABLESTYLE
  2
AcDbTableStyle
  3
ObjectDBX Classes
 90
     2047
280
     0
281
     0
  0
CLASS
  1
ACMBOM
  2
AcmBom
  3
"AcmSymBB|Product Description: AutoCAD Mechanical 2004 DX|Company: Autodesk"
 90
    32768
280
     0
281
     0
  0
CLASS
  1
AMDTFORMULAUPDATEDISPATCHER
  2
AmdtFormulaUpdateDispatcher
  3
AcMeServices
 90
    32768
280
     0
281
     0
  0
CLASS
  1
ACMPARTLIST
  2
AcmPartList
  3
"AcmSymBB|Product Description: AutoCAD Mechanical 2004 DX|Company: Autodesk"
 90
    33791
280
     0
281
     1
  0
CLASS
  1
VAACXREFPANELOBJECT
  2
VaAcXREFPanelObject
  3
VAAC_ADDIN
 90
    32768
280
     1
281
     0
  0
CLASS
  1
VAACIMAGEINVENTORY
  2
VaAcImageInventory
  3
VAAC_ADDIN
 90
    32768
280
     1
281
     0
  0
CLASS
  1
ACAMEXTERNALCOMPDEF
  2
AcAmExternalCompDef
  3
DesignerAssemblies
 90
    32768
280
     0
281
     0
  0
CLASS
  1
ACCMBODY
  2
AcCmBody
  3
DesignerAssemblies
 90
    32768
280
     0
281
     0
  0
CLASS
  1
ACAMCOMPENT
  2
AcAmCompEnt
  3
DesignerAssemblies
 90
    32768
280
     0
281
     1
  0
CLASS
  1
ACAMCOMPFEEDBACK
  2
AcAmCompFeedback
  3
DesignerAssemblies
 90
    32768
280
     0
281
     0
  0
CLASS
  1
ACAMCOMP
  2
AcAmComp
  3
DesignerAssemblies
 90
    32768
280
     0
281
     0
  0
CLASS
  1
ACAMCOMPENTCLONE
  2
AcAmCompEntClone
  3
DesignerAssemblies
 90
    32768
280
     0
281
     1
  0
CLASS
  1
ACAMCLONEREACTOR
  2
AcAmGrCompCloneReactor
  3
DesignerAssemblies
 90
    32768
280
     0
281
     0
  0
CLASS
  1
ACAMXREFCONTEXTMODELER
  2
AcAmXrefContextModeler
  3
DesignerAssemblies
 90
    32768
280
     0
281
     0
  0
CLASS
  1
ADPART
  2
AcAdPart
  3
DesignerServices
 90
    32768
280
     0
281
     1
  0
CLASS
  1
WORKPLANEDISPLAYMGR
  2
AcAdDisplayMgr
  3
DesignerServices
 90
    32768
280
     0
281
     0
  0
CLASS
  1
ADBASE
  2
AcAdBase
  3
DesignerServices
 90
    32768
280
     0
281
     0
  0
CLASS
  1
ADDATUMPLANEABS
  2
AcAdDatumPlaneAbs
  3
DesignerServices
 90
    32768
280
     0
281
     0
  0
CLASS
  1
ADDATUMAXISABS
  2
AcAdDatumAxisAbs
  3
DesignerServices
 90
    32768
280
     0
281
     0
  0
CLASS
  1
PARAM
  2
AcAdParam
  3
DesignerServices
 90
    32768
280
     0
281
     0
  0
CLASS
  1
BODYID
  2
AcAdBodyId
  3
DesignerServices
 90
    32768
280
     0
281
     0
  0
CLASS
  1
ADDATUMORIENTEDPLANE
  2
AcAdDatumOrientedPlane
  3
DesignerServices
 90
    32768
280
     0
281
     0
  0
CLASS
  1
ACADCONSGROUP
  2
AcAdConstraintGroup
  3
DesignerServices
 90
    32768
280
     0
281
     0
  0
CLASS
  1
ACADREFLINEACAD
  2
AcAdVirtualReferenceLine
  3
DesignerServices
 90
    32768
280
     0
281
     0
  0
CLASS
  1
ACADCONSLINE
  2
AcAdConstrainedLine
  3
DesignerServices
 90
    32768
280
     0
281
     0
  0
CLASS
  1
ACADLINEACAD
  2
AcAdVirtualBoundedLineAcad
  3
DesignerServices
 90
    32768
280
     0
281
     0
  0
CLASS
  1
ACADCONSPOINT
  2
AcAdConstrainedPoint
  3
DesignerServices
 90
    32768
280
     0
281
     0
  0
CLASS
  1
ADPCURCNS
  2
AcAdPointCurveConstr
  3
DesignerServices
 90
    32768
280
     0
281
     0
  0
CLASS
  1
ADHORCNS
  2
AcAdHorizontalConstr
  3
DesignerServices
 90
    32768
280
     0
281
     0
  0
CLASS
  1
ADVERCNS
  2
AcAdVerticalConstr
  3
DesignerServices
 90
    32768
280
     0
281
     0
  0
CLASS
  1
ACAD_FIXCONSTRAINT
  2
AcAdFixedConstraint
  3
DesignerServices
 90
    32768
280
     0
281
     0
  0
CLASS
  1
ADHDISTCNS
  2
AcAdHorizontalDistanceConstr
  3
DesignerServices
 90
    32768
280
     0
281
     0
  0
CLASS
  1
ADVDISTCNS
  2
AcAdVerticalDistanceConstr
  3
DesignerServices
 90
    32768
280
     0
281
     0
  0
CLASS
  1
ACADIMPPTACAD
  2
AcAdVirtualImplicitPoint
  3
DesignerServices
 90
    32768
280
     0
281
     0
  0
CLASS
  1
ADCLPROF2D
  2
AcAdClosedProfile2d
  3
DesignerServices
 90
    32768
280
     0
281
     0
  0
CLASS
  1
DEPEDGEFEATUREORDERING
  2
AcAdDepEdgeFeatureOrdering
  3
DesignerServices
 90
    32768
280
     0
281
     0
  0
CLASS
  1
ACADVOLFEATWITHTRIM
  2
AcAdVolFeatWithTrim
  3
DesignerServices
 90
    32768
280
     0
281
     0
  0
CLASS
  1
ADPLANEID
  2
AcAdPlaneId
  3
DesignerServices
 90
    32768
280
     0
281
     0
  0
CLASS
  1
EDGEID
  2
AcAdEdgeId
  3
DesignerServices
 90
    32768
280
     0
281
     0
  0
CLASS
  1
CNRREFID
  2
AcAdCornerId
  3
DesignerServices
 90
    32768
280
     0
281
     0
  0
CLASS
  1
STREFID
  2
AcAdStraightRefId
  3
DesignerServices
 90
    32768
280
     0
281
     0
  0
CLASS
  1
ADDATUMPLANEFACE
  2
AcAdDatumPlaneFace
  3
DesignerServices
 90
    32768
280
     0
281
     0
  0
CLASS
  1
DATUMPLANEDISPLAY
  2
AcAdDatumPlaneDisplay
  3
DesignerServices
 90
    32768
280
     0
281
     1
  0
CLASS
  1
ADDATUMPLANEOFFSET
  2
AcAdDatumPlaneOffset
  3
DesignerServices
 90
    32768
280
     0
281
     0
  0
CLASS
  1
ADACADANGCNS
  2
AcAdAcadAngleConstr
  3
DesignerServices
 90
    32768
280
     0
281
     0
  0
CLASS
  1
ACADLINEDEPID
  2
AcAdVirtualLineDepId
  3
DesignerServices
 90
    32768
280
     0
281
     0
  0
CLASS
  1
ADCOLNCNS
  2
AcAdColinearConstr
  3
DesignerServices
 90
    32768
280
     0
281
     0
  0
CLASS
  1
ACADPOINTDEPID
  2
AcAdVirtualPointDepId
  3
DesignerServices
 90
    32768
280
     0
281
     0
  0
CLASS
  1
ACADCIRCLEACAD
  2
AcAdVirtualCircleAcad
  3
DesignerServices
 90
    32768
280
     0
281
     0
  0
CLASS
  1
ACADCONSCIRCLE
  2
AcAdConstrainedCircle
  3
DesignerServices
 90
    32768
280
     0
281
     0
  0
CLASS
  1
ADCTRPTCNS
  2
AcAdCenterPointConstr
  3
DesignerServices
 90
    32768
280
     0
281
     0
  0
CLASS
  1
ADACADDIACNS
  2
AcAdAcadDiameterConstr
  3
DesignerServices
 90
    32768
280
     0
281
     0
  0
CLASS
  1
ACADARCACAD
  2
AcAdVirtualArcAcad
  3
DesignerServices
 90
    32768
280
     0
281
     0
  0
CLASS
  1
ADTANCNS
  2
AcAdTangentConstr
  3
DesignerServices
 90
    32768
280
     0
281
     0
  0
CLASS
  1
ADPARCNS
  2
AcAdParallelConstr
  3
DesignerServices
 90
    32768
280
     0
281
     0
  0
CLASS
  1
ADCONCCNS
  2
AcAdConcentricConstr
  3
DesignerServices
 90
    32768
280
     0
281
     0
  0
CLASS
  1
ADEQRADCNS
  2
AcAdEqualRadiusConstr
  3
DesignerServices
 90
    32768
280
     0
281
     0
  0
CLASS
  1
ADACADRADCNS
  2
AcAdAcadRadiusConstr
  3
DesignerServices
 90
    32768
280
     0
281
     0
  0
CLASS
  1
CIRREFID
  2
AcAdCircleRefId
  3
DesignerServices
 90
    32768
280
     0
281
     0
  0
CLASS
  1
ACADCIRCDEPID
  2
AcAdVirtualCircleDepId
  3
DesignerServices
 90
    32768
280
     0
281
     0
  0
CLASS
  1
ADFILLET
  2
AcAdFillet
  3
DesignerServices
 90
    32768
280
     0
281
     0
  0
CLASS
  1
ADSURFGEOMID
  2
AcAdSurfGeomId
  3
DesignerServices
 90
    32768
280
     0
281
     0
  0
CLASS
  1
DATUMAXISDISPLAY
  2
AcAdDatumAxisDisplay
  3
DesignerServices
 90
    32768
280
     0
281
     1
  0
CLASS
  1
ADDATUMAXISCENTER
  2
AcAdDatumAxisCenter
  3
DesignerServices
 90
    32768
280
     0
281
     0
  0
CLASS
  1
DEPEDGESECONDARYDEPID
  2
AcAdDepEdgeSecondaryDepId
  3
DesignerServices
 90
    32768
280
     0
281
     0
  0
CLASS
  1
ADDATUMPOINTAXISPLANE
  2
AcAdDatumPointAxisPlane
  3
DesignerServices
 90
    32768
280
     0
281
     0
  0
CLASS
  1
ADHOLEFEAT
  2
AcAdHoleFeat
  3
DesignerServices
 90
    32768
280
     0
281
     0
  0
CLASS
  1
ADDATUMPLANEAXISPLANE
  2
AcAdDatumPlaneAxisPlane
  3
DesignerServices
 90
    32768
280
     0
281
     0
  0
CLASS
  1
ACADBOUNDEDLINEDATUMID
  2
AcAdVirtualBoundedLineDatumId
  3
DesignerServices
 90
    32768
280
     0
281
     0
  0
CLASS
  1
OSTREFID
  2
AcAdOrientedStraightRefId
  3
DesignerServices
 90
    32768
280
     0
281
     0
  0
CLASS
  1
ADDATUMPOINT2EDGES
  2
AcAdDatumPoint2Edges
  3
DesignerServices
 90
    32768
280
     0
281
     0
  0
CLASS
  1
DEPEDGEPATTERNFEATURE
  2
AcAdDepEdgePatternFeature
  3
DesignerServices
 90
    32768
280
     0
281
     0
  0
CLASS
  1
ACADPATTNFEAT
  2
AcAdPatternFeat
  3
DesignerServices
 90
    32768
280
     0
281
     0
  0
CLASS
  1
SORTENTSTABLE
  2
AcDbSortentsTable
  3
ObjectDBX Classes
 90
        0
280
     0
281
     0
  0
CLASS
  1
ACAMGROUNDEDBASECOMP
  2
AcAmGroundedBaseComp
  3
DesignerAssemblies
 90
    32768
280
     0
281
     0
  0
CLASS
  1
ADPROJCNS
  2
AcAdProjectionConstr
  3
DesignerServices
 90
    32768
280
     0
281
     0
  0
CLASS
  1
ADPDISTCNS
  2
AcAdParallelDistanceConstr
  3
DesignerServices
 90
    32768
280
     0
281
     0
  0
CLASS
  1
DEPEDGEPATTERNINSTANCE
  2
AcAdDepEdgePatternInstance
  3
DesignerServices
 90
    32768
280
     0
281
     0
  0
CLASS
  1
ADPCOICNS
  2
AcAdPointCoincidenceConstr
  3
DesignerServices
 90
    32768
280
     0
281
     0
  0
CLASS
  1
ACADPARTLINEDGRES
  2
AcAdPartLinEdgRes
  3
AdGrefServices
 90
    32768
280
     0
281
     0
  0
CLASS
  1
ACRFINSADJ
  2
AcRfInsAdjuster
  3
AcMeServices
 90
    32768
280
     0
281
     0
  0
CLASS
  1
ACMEAXIS
  2
AcImAxisDisplay
  3
AcMeServices
 90
    32768
280
     0
281
     1
  0
CLASS
  1
FACEID
  2
AcAdFaceId
  3
DesignerServices
 90
    32768
280
     0
281
     0
  0
CLASS
  1
ACADPARTPLANARFACERES
  2
AcAdPartPlanarFaceRes
  3
AdGrefServices
 90
    32768
280
     0
281
     0
  0
CLASS
  1
ACMELINEARARROW
  2
AcImLinearArrowDisplay
  3
AcMeServices
 90
    32768
280
     0
281
     1
  0
CLASS
  1
ACADPARTCIRCEDGRES
  2
AcAdPartCircEdgRes
  3
AdGrefServices
 90
    32768
280
     0
281
     0
  0
CLASS
  1
ACADPARTCYLINDERFACERES
  2
AcAdPartCylinderFaceRes
  3
AdGrefServices
 90
    32768
280
     0
281
     0
  0
CLASS
  1
ACAMEXPR
  2
AcAmExpr
  3
DesignerAssemblies
 90
    32768
280
     0
281
     0
  0
CLASS
  1
ACCMDISTPLPL
  2
AcCmDistPlPl
  3
DesignerAssemblies
 90
    32768
280
     0
281
     0
  0
CLASS
  1
ACCMCONSTREACTOR
  2
AcCmConstraintReactor
  3
DesignerAssemblies
 90
    32768
280
     0
281
     0
  0
CLASS
  1
ACCMDISTLNLN
  2
AcCmDistLnLn
  3
DesignerAssemblies
 90
    32768
280
     0
281
     0
  0
CLASS
  1
ACCMANGVECVEC
  2
AcCmAngVecVec
  3
DesignerAssemblies
 90
    32768
280
     0
281
     0
  0
CLASS
  1
ACAMBLANKBODYCOMP
  2
AcAmBlankBodyComp
  3
DesignerAssemblies
 90
    32768
280
     0
281
     0
  0
CLASS
  1
ACAMTOOLBODYCOMP
  2
AcAmToolBodyComp
  3
DesignerAssemblies
 90
    32768
280
     0
281
     0
  0
CLASS
  1
ADPARAMETRICBOOLEAN
  2
AcAdParametricBoolean
  3
DesignerServices
 90
    32768
280
     0
281
     0
  0
CLASS
  1
DEPEDGEPARAMETRCBOOLORDERING
  2
AcAdDepEdgeParametricBooleanOrdering
  3
DesignerServices
 90
    32768
280
     0
281
     0
  0
CLASS
  1
AMACTIVEPARTSELECTFILTER
  2
AcDmActivePartViewEntFilter
  3
DesignerServices
 90
    32768
280
     0
281
     0
  0
CLASS
  1
AM_GREF_PLANE
  2
AcDmGrefPlnDef
  3
AcMechDwgViewMgmt
 90
    32768
280
     0
281
     0
  0
CLASS
  1
AM_ABS_AXIS
  2
AcDmAbsAxisDef
  3
AcMechDwgViewMgmt
 90
    32768
280
     0
281
     0
  0
CLASS
  1
AM_BASE_VIEW_ORIENT
  2
AcDmBaseViewOr
  3
AcMechDwgViewMgmt
 90
    32768
280
     0
281
     0
  0
CLASS
  1
AM_DWG_VIEWPORT
  2
AcDmViewport
  3
AcMechDwgViewMgmt
 90
    32768
280
     0
281
     0
  0
CLASS
  1
AM_VIEW_DISPLAY
  2
AcDmDwgViewDisplay
  3
AcMechDwgViewMgmt
 90
    32768
280
     0
281
     0
  0
CLASS
  1
AM_CLDFLTS
  2
AcDmClDflts
  3
AcMechDwgViewMgmt
 90
    32768
280
     0
281
     0
  0
CLASS
  1
AM_BASE_VIEW
  2
AcDmBaseView
  3
AcMechDwgViewMgmt
 90
    32768
280
     0
281
     0
  0
CLASS
  1
ACMEPLINE
  2
AcImPlineDisplay
  3
AcMeServices
 90
    32768
280
     0
281
     1
  0
CLASS
  1
ACDMPARTVIEWDATA
  2
AcDmPartViewData
  3
AcMechDwgViewMgmt
 90
    32768
280
     0
281
     0
  0
CLASS
  1
ACDMDISPLAYATTRIBS
  2
AcDmDisplayAttribs
  3
AcMechDwgViewMgmt
 90
    32768
280
     0
281
     0
  0
CLASS
  1
ACDMBODYINSTANCEDATA
  2
AcDmBodyInstanceData
  3
AcMechDwgViewMgmt
 90
    32768
280
     0
281
     0
  0
CLASS
  1
ACDMVWEDLINE
  2
AcDmViewEdgeLine
  3
AcMechDwgViewMgmt
 90
    32768
280
     0
281
     1
  0
CLASS
  1
ACDMVWEDELLIPSE
  2
AcDmViewEdgeEllipse
  3
AcMechDwgViewMgmt
 90
    32768
280
     0
281
     1
  0
CLASS
  1
ACDMVWEDSPLINE
  2
AcDmViewEdgeSpline
  3
AcMechDwgViewMgmt
 90
    32768
280
     0
281
     1
  0
CLASS
  1
ACDMVWEDARC
  2
AcDmViewEdgeArc
  3
AcMechDwgViewMgmt
 90
    32768
280
     0
281
     1
  0
CLASS
  1
ACDMVWEDCIRC
  2
AcDmViewEdgeCircle
  3
AcMechDwgViewMgmt
 90
    32768
280
     0
281
     1
  0
CLASS
  1
ACADPARTPOINTRES
  2
AcAdPartPointRes
  3
AdGrefServices
 90
    32768
280
     0
281
     0
  0
CLASS
  1
ACADPARTSKETCHPLANEAXISRES
  2
AcAdPartSketchPlaneAxisRes
  3
DesignerServices
 90
    32768
280
     0
281
     0
  0
CLASS
  1
AM_VIEWDIMPARALLEL
  2
AcDmViewDimParallel
  3
AcMechDwgViewMgmt
 90
    32768
280
     0
281
     0
  0
CLASS
  1
AMDTDMPARMAPDATA
  2
AmdtDmDimParMapData
  3
AcMechDwgViewMgmt
 90
    32768
280
     0
281
     0
  0
CLASS
  1
ACADPARTPBPOINTRES
  2
AcAdPartPBPointRes
  3
AdGrefServices
 90
    32768
280
     0
281
     0
  0
CLASS
  1
ACADSKETCHPOINTRES
  2
AcAdSketchPointRes
  3
DesignerServices
 90
    32768
280
     0
281
     0
  0
CLASS
  1
AM_VIEWDIMLINEAR
  2
AcDmViewDimLinear
  3
AcMechDwgViewMgmt
 90
    32768
280
     0
281
     0
  0
CLASS
  1
ACADSKETCHCIRCARCRES
  2
AcAdSketchCircArcRes
  3
DesignerServices
 90
    32768
280
     0
281
     0
  0
CLASS
  1
AM_VIEWDIMDIAMETER
  2
AcDmViewDimDiameter
  3
AcMechDwgViewMgmt
 90
    32768
280
     0
281
     0
  0
CLASS
  1
ACADSKETCHLINERES
  2
AcAdSketchLineRes
  3
DesignerServices
 90
    32768
280
     0
281
     0
  0
CLASS
  1
AM_VIEWDIMANGULAR
  2
AcDmViewDimAngular
  3
AcMechDwgViewMgmt
 90
    32768
280
     0
281
     0
  0
CLASS
  1
AM_ADLINCTRLINE
  2
AcAdLineCl
  3
DesignerServices
 90
    32768
280
     0
281
     0
  0
CLASS
  1
AM_ADCIRCTRLINE
  2
AcAdBullsEyeCl
  3
DesignerServices
 90
    32768
280
     0
281
     0
  0
CLASS
  1
ACDBLINERES
  2
AcDbLineRes
  3
AcGrefServices
 90
    32768
280
     0
281
     0
  0
CLASS
  1
ACRFDMINSADJ
  2
AcRfDMInsAdjuster
  3
AcMechDwgViewMgmt
 90
    32768
280
     0
281
     0
  0
CLASS
  1
AM_ORTHO_VIEW_ORIENT
  2
AcDmOrthoViewOr
  3
AcMechDwgViewMgmt
 90
    32768
280
     0
281
     0
  0
CLASS
  1
AM_ORTHO_VIEW
  2
AcDmOrthoView
  3
AcMechDwgViewMgmt
 90
    32768
280
     0
281
     0
  0
CLASS
  1
AMDT_RADIAL_DIM
  2
AmdtRadialDimension
  3
AcMeServices
 90
    32768
280
     0
281
     1
  0
CLASS
  1
AM_VIEWDIMRADIUS
  2
AcDmViewDimRadius
  3
AcMechDwgViewMgmt
 90
    32768
280
     0
281
     0
  0
CLASS
  1
ACADPARTDATUMPOINTRES
  2
AcAdPartDatumPointRes
  3
AdGrefServices
 90
    32768
280
     0
281
     0
  0
CLASS
  1
AMDTEDGESTANDARDISO13715
  2
AmdtEdgeStdISO13715
  3
"Amdt_StdImp|Product Description: AutoCAD Mechanical 2004 DX|Company: Autodesk"
 90
        0
280
     0
281
     0
  0
CLASS
  1
DIMASSOC
  2
AcDbDimAssoc
  3
"AcDbDimAssoc|Product Desc:     AcDim ARX App For Dimension|Company:          Autodesk, Inc.|WEB Address:      www.autodesk.com"
 90
    32768
280
     0
281
     0
  0
CLASS
  1
MATERIAL
  2
AcDbMaterial
  3
ObjectDBX Classes
 90
        0
280
     0
281
     0
  0
CLASS
  1
ACRFATTGENMGR
  2
AcRfAttGeneralMgr
  3
AcAttribServices
 90
        0
280
     0
281
     0
  0
ENDSEC
  0
SECTION
  2
TABLES
  0
TABLE
  2
VPORT
  5
1F
330
0
100
AcDbSymbolTable
 70
     1
  0
VPORT
  5
20
330
1F
100
AcDbSymbolTableRecord
100
AcDbViewportTableRecord
  2
*Active
 70
     0
 10
0.0
 20
0.0
 11
1.0
 21
1.0
 12
0.0
 22
0.0
 13
0.0
 23
0.0
 14
2.5
 24
2.5
 15
10.0
 25
10.0
 16
0.0
 26
0.0
 36
1.0
 17
0.0
 27
0.0
 37
0.0
 40
2.000000000000000E+20
 41
1.0
 42
50.0
 43
0.0
 44
0.0
 50
0.0
 51
0.0
 71
     0
 72
   100
 73
     1
 74
     1
 75
     0
 76
     0
 77
     0
 78
     0
281
     0
 65
     1
110
0.0
120
0.0
130
0.0
111
1.0
121
0.0
131
0.0
112
0.0
122
1.0
132
0.0
 79
     0
146
0.0
  0
ENDTAB
  0
TABLE
  2
LTYPE
  5
1A
330
0
100
AcDbSymbolTable
 70
    21
  0
LTYPE
  5
1B
330
1A
100
AcDbSymbolTableRecord
100
AcDbLinetypeTableRecord
  2
BYBLOCK
 70
     0
  3

 72
    65
 73
     0
 40
0.0
  0
LTYPE
  5
1C
330
1A
100
AcDbSymbolTableRecord
100
AcDbLinetypeTableRecord
  2
BYLAYER
 70
     0
  3

 72
    65
 73
     0
 40
0.0
  0
LTYPE
  5
9
330
1A
100
AcDbSymbolTableRecord
100
AcDbLinetypeTableRecord
  2
CONTINUOUS
 70
     0
  3
Solid line
 72
    65
 73
     0
 40
0.0
  0
LTYPE
  5
38
330
1A
100
AcDbSymbolTableRecord
100
AcDbLinetypeTableRecord
  2
AM_ISO08W050x2
 70
     0
  3
__ . __ . __ . __ . __ . __
 72
    65
 73
     4
 40
9.0
 49
6.0
 74
     0
 49
-0.75
 74
     0
 49
1.5
 74
     0
 49
-0.75
 74
     0
  0
LTYPE
  5
264
330
1A
100
AcDbSymbolTableRecord
100
AcDbLinetypeTableRecord
  2
HIDDEN
 70
     0
  3
Hidden __ __ __ __ __ __ __ __ __ __ __ __ __ _
 72
    65
 73
     2
 40
9.524999999999998
 49
6.349999999999999
 74
     0
 49
-3.174999999999999
 74
     0
  0
LTYPE
  5
265
330
1A
100
AcDbSymbolTableRecord
100
AcDbLinetypeTableRecord
  2
PHANTOM2
 70
     0
  3
Phantom (.5x) ___ _ _ ___ _ _ ___ _ _ ___ _ _
 72
    65
 73
     6
 40
31.75
 49
15.875
 74
     0
 49
-3.174999999999999
 74
     0
 49
3.174999999999999
 74
     0
 49
-3.174999999999999
 74
     0
 49
3.174999999999999
 74
     0
 49
-3.174999999999999
 74
     0
  0
LTYPE
  5
266
330
1A
100
AcDbSymbolTableRecord
100
AcDbLinetypeTableRecord
  2
CENTER
 70
     0
  3
Center ____ _ ____ _ ____ _ ____ _ ____ _ ____
 72
    65
 73
     4
 40
50.8
 49
31.75
 74
     0
 49
-6.349999999999999
 74
     0
 49
6.349999999999999
 74
     0
 49
-6.349999999999999
 74
     0
  0
LTYPE
  5
29A
330
1A
100
AcDbSymbolTableRecord
100
AcDbLinetypeTableRecord
  2
AM_ISO02W050
 70
     0
  3
__ __ __ __ __ __ __ __ __ __ __ __ __ __ __
 72
    65
 73
     2
 40
7.5
 49
6.0
 74
     0
 49
-1.5
 74
     0
  0
LTYPE
  5
29B
330
1A
100
AcDbSymbolTableRecord
100
AcDbLinetypeTableRecord
  2
AM_ISO08W050
 70
     0
  3
____ . ____ . ____ . ____ . ____ . ____ . ____
 72
    65
 73
     4
 40
18.0
 49
12.0
 74
     0
 49
-1.5
 74
     0
 49
3.0
 74
     0
 49
-1.5
 74
     0
  0
LTYPE
  5
29C
330
1A
100
AcDbSymbolTableRecord
100
AcDbLinetypeTableRecord
  2
AM_ISO09W050
 70
     0
  3
_____ . . _____ . . _____ . . ____ .. ____
 72
    65
 73
     6
 40
22.5
 49
12.0
 74
     0
 49
-1.5
 74
     0
 49
3.0
 74
     0
 49
-1.5
 74
     0
 49
3.0
 74
     0
 49
-1.5
 74
     0
  0
LTYPE
  5
29D
330
1A
100
AcDbSymbolTableRecord
100
AcDbLinetypeTableRecord
  2
Amconstr
 70
     0
  3
_______________________
 72
    65
 73
     2
 40
9999.0
 49
9999.0
 74
     0
 49
0.0
 74
     0
  0
LTYPE
  5
29E
330
1A
100
AcDbSymbolTableRecord
100
AcDbLinetypeTableRecord
  2
AM_ISO02W050x2
 70
     0
  3
 _ _ _ _ _ _ _ _ _ _ _ _
 72
    65
 73
     2
 40
3.75
 49
3.0
 74
     0
 49
-0.75
 74
     0
  0
LTYPE
  5
2A1
330
1A
100
AcDbSymbolTableRecord
100
AcDbLinetypeTableRecord
  2
Amzigzag
 70
     0
  3
/\/-/\/-/\/-/\/-/\/-/\/
 72
    65
 73
     2
 40
11.0001
 49
0.0001
 74
     4
 75
   135
340
2A0
 46
0.04
 50
0.0
 44
0.0
 45
0.0
 49
-11.0
 74
     0
  0
LTYPE
  5
2B0
330
1A
100
AcDbSymbolTableRecord
100
AcDbLinetypeTableRecord
  2
ACISOWELD
 70
     0
  3
_ _ _ _ _
 72
    65
 73
     2
 40
2.0
 49
2.0
 74
     0
 49
-1.0
 74
     0
  0
LTYPE
  5
2B1
330
1A
100
AcDbSymbolTableRecord
100
AcDbLinetypeTableRecord
  2
ACISOTGB
 70
     0
  3
__ . . __ . .
 72
    65
 73
     6
 40
9.0
 49
4.0
 74
     0
 49
-1.0
 74
     0
 49
1.0
 74
     0
 49
-1.0
 74
     0
 49
1.0
 74
     0
 49
-1.0
 74
     0
  0
LTYPE
  5
2B2
330
1A
100
AcDbSymbolTableRecord
100
AcDbLinetypeTableRecord
  2
ACISOTGL
 70
     0
  3
_ _ _ _ _
 72
    65
 73
     2
 40
3.0
 49
2.0
 74
     0
 49
-1.0
 74
     0
  0
LTYPE
  5
29A8
330
1A
100
AcDbSymbolTableRecord
100
AcDbLinetypeTableRecord
  2
ASULTYPE
 70
     0
  3
實線
 72
    65
 73
     2
 40
3.0
 49
2.5
 74
     0
 49
0.5
 74
     0
  0
LTYPE
  5
29A9
330
1A
100
AcDbSymbolTableRecord
100
AcDbLinetypeTableRecord
  2
ASVLTYPE
 70
     0
  3
__ __ __ __ __ __ __ __ __ __ __ __ __ __ __ __ __ __ __ __ __
 72
    65
 73
     2
 40
0.75
 49
0.5
 74
     0
 49
-0.25
 74
     0
  0
LTYPE
  5
2DBA
330
1A
100
AcDbSymbolTableRecord
100
AcDbLinetypeTableRecord
  2
CENTER2
 70
     0
  3
Center (.5x) ___ _ ___ _ ___ _ ___ _ ___ _ ___
 72
    65
 73
     4
 40
1.125
 49
0.75
 74
     0
 49
-0.125
 74
     0
 49
0.125
 74
     0
 49
-0.125
 74
     0
  0
LTYPE
  5
2DBB
330
1A
100
AcDbSymbolTableRecord
100
AcDbLinetypeTableRecord
  2
HIDDEN2
 70
     0
  3
Hidden (.5x) _ _ _ _ _ _ _ _ _ _ _ _ _ _ _ _ _
 72
    65
 73
     2
 40
0.1875
 49
0.125
 74
     0
 49
-0.0625
 74
     0
  0
LTYPE
  5
2DBC
330
1A
100
AcDbSymbolTableRecord
100
AcDbLinetypeTableRecord
  2
Amzigzag2
 70
     0
  3
/\/-/\/-/\/-/\/-/\/-/\/
 72
    65
 73
     2
 40
0.4401
 49
0.0001
 74
     4
 75
   135
340
2A0
 46
0.0016
 50
0.0
 44
0.0
 45
0.0
 49
-0.4400000000000001
 74
     0
  0
LTYPE
  5
2DBD
330
1A
100
AcDbSymbolTableRecord
100
AcDbLinetypeTableRecord
  2
ACANSTGB
 70
     0
  3
__ . . __ . .
 72
    65
 73
     6
 40
0.35433070866
 49
0.15748031496
 74
     0
 49
-0.03937007874
 74
     0
 49
0.03937007874
 74
     0
 49
-0.03937007874
 74
     0
 49
0.03937007874
 74
     0
 49
-0.03937007874
 74
     0
  0
LTYPE
  5
2DBE
330
1A
100
AcDbSymbolTableRecord
100
AcDbLinetypeTableRecord
  2
ACANSTGL
 70
     0
  3
_ _ _ _ _
 72
    65
 73
     2
 40
0.11811023622
 49
0.07874015748
 74
     0
 49
-0.03937007874
 74
     0
  0
ENDTAB
  0
TABLE
  2
LAYER
  5
14
102
{ACAD_XDICTIONARY
360
15
102
}
330
0
100
AcDbSymbolTable
 70
    14
  0
LAYER
  5
5
330
14
100
AcDbSymbolTableRecord
100
AcDbLayerTableRecord
  2
0
 70
     0
 62
     7
  6
CONTINUOUS
370
    -3
390
6
  0
LAYER
  5
8D
330
14
100
AcDbSymbolTableRecord
100
AcDbLayerTableRecord
  2
AM_VIS
 70
     0
 62
     7
  6
CONTINUOUS
370
    50
390
6
  0
LAYER
  5
37
330
14
100
AcDbSymbolTableRecord
100
AcDbLayerTableRecord
  2
AM_7
 70
     0
 62
     1
  6
AM_ISO08W050x2
370
    25
390
6
  0
LAYER
  5
2D6
330
14
100
AcDbSymbolTableRecord
100
AcDbLayerTableRecord
  2
LOGO
 70
     0
 62
     7
  6
CONTINUOUS
370
    -3
390
6
  0
LAYER
  5
2D7
330
14
100
AcDbSymbolTableRecord
100
AcDbLayerTableRecord
  2
Defpoints
 70
     0
 62
     7
  6
CONTINUOUS
290
     0
370
    -3
390
6
  0
LAYER
  5
2D8
330
14
100
AcDbSymbolTableRecord
100
AcDbLayerTableRecord
  2
AM_5
 70
     0
 62
     5
  6
CONTINUOUS
370
    50
390
6
  0
LAYER
  5
11BE
330
14
100
AcDbSymbolTableRecord
100
AcDbLayerTableRecord
  2
1
 70
     0
 62
     3
  6
CONTINUOUS
370
    -3
390
6
1001
AcAecLayerStandard
1000

1000

  0
LAYER
  5
134F
102
{ACAD_XDICTIONARY
360
1350
102
}
330
14
100
AcDbSymbolTableRecord
100
AcDbLayerTableRecord
  2
BOR
 70
     0
 62
     7
  6
CONTINUOUS
370
    -3
390
6
  0
LAYER
  5
1AAA
330
14
100
AcDbSymbolTableRecord
100
AcDbLayerTableRecord
  2
SL
 70
     0
 62
     2
  6
CONTINUOUS
370
    -3
390
6
1001
AcAecLayerStandard
1000

1000

  0
LAYER
  5
29B5
330
14
100
AcDbSymbolTableRecord
100
AcDbLayerTableRecord
  2
CENTER
 70
     0
 62
     1
  6
CENTER
370
    -3
390
6
  0
LAYER
  5
29B6
330
14
100
AcDbSymbolTableRecord
100
AcDbLayerTableRecord
  2
AM_4
 70
     0
 62
     3
  6
CONTINUOUS
370
    25
390
6
  0
LAYER
  5
2DBF
330
14
100
AcDbSymbolTableRecord
100
AcDbLayerTableRecord
  2
HIDDEN
 70
     0
 62
     3
  6
HIDDEN
370
    -3
390
6
  0
LAYER
  5
2DC0
330
14
100
AcDbSymbolTableRecord
100
AcDbLayerTableRecord
  2
CEN
 70
     0
 62
     1
  6
CENTER
370
    -3
390
6
  0
LAYER
  5
2DC1
330
14
100
AcDbSymbolTableRecord
100
AcDbLayerTableRecord
  2
HID
 70
     0
 62
     3
  6
ASVLTYPE
370
    -3
390
6
  0
ENDTAB
  0
TABLE
  2
STYLE
  5
17
330
0
100
AcDbSymbolTable
 70
     8
  0
STYLE
  5
18
330
17
100
AcDbSymbolTableRecord
100
AcDbTextStyleTableRecord
  2
STANDARD
 70
     0
 40
0.0
 41
1.0
 50
0.0
 71
     0
 42
1.0
  3
ISOCP.SHX
  4
CHINESET.SHX
  0
STYLE
  5
2A0
330
17
100
AcDbSymbolTableRecord
100
AcDbTextStyleTableRecord
  2

 70
     1
 40
0.0
 41
1.0
 50
0.0
 71
     0
 42
1.0
  3
ltypeshp.shx
  4

  0
STYLE
  5
2A2
330
17
100
AcDbSymbolTableRecord
100
AcDbTextStyleTableRecord
  2
ACISOTS
 70
     0
 40
1.0
 41
1.0
 50
0.0
 71
     0
 42
1.0
  3
isocp.shx
  4
chineset.shx
  0
STYLE
  5
2AF
330
17
100
AcDbSymbolTableRecord
100
AcDbTextStyleTableRecord
  2
ACISOGDT
 70
     0
 40
0.0
 41
1.0
 50
0.0
 71
     0
 42
1.0
  3
amgdt.shx
  4

  0
STYLE
  5
2D9
330
17
100
AcDbSymbolTableRecord
100
AcDbTextStyleTableRecord
  2
CHINESET
 70
     0
 40
0.0
 41
1.0
 50
0.0
 71
     0
 42
1.0
  3
simplex
  4
CHINESET.SHX
  0
STYLE
  5
2DC2
330
17
100
AcDbSymbolTableRecord
100
AcDbTextStyleTableRecord
  2
ROMANS1
 70
     0
 40
0.0
 41
1.0
 50
0.0
 71
     0
 42
3.0
  3
romans.shx
  4
LMP.shx
  0
STYLE
  5
2DC3
330
17
100
AcDbSymbolTableRecord
100
AcDbTextStyleTableRecord
  2
ACANSTS
 70
     0
 40
1.0
 41
1.0
 50
0.0
 71
     0
 42
3.0
  3
romans.shx
  4
chineset.shx
  0
STYLE
  5
2DC4
330
17
100
AcDbSymbolTableRecord
100
AcDbTextStyleTableRecord
  2
ACANSGDT
 70
     0
 40
0.0
 41
1.0
 50
0.0
 71
     0
 42
3.0
  3
amgdtans.shx
  4

  0
ENDTAB
  0
TABLE
  2
VIEW
  5
1D
330
0
100
AcDbSymbolTable
 70
     1
  0
ENDTAB
  0
TABLE
  2
UCS
  5
1E
330
0
100
AcDbSymbolTable
 70
     0
  0
ENDTAB
  0
TABLE
  2
APPID
  5
21
330
0
100
AcDbSymbolTable
 70
    26
  0
APPID
  5
22
330
21
100
AcDbSymbolTableRecord
100
AcDbRegAppTableRecord
  2
ACAD
 70
     0
  0
APPID
  5
13
330
21
100
AcDbSymbolTableRecord
100
AcDbRegAppTableRecord
  2
ACAD_PSEXT
 70
     0
  0
APPID
  5
237
330
21
100
AcDbSymbolTableRecord
100
AcDbRegAppTableRecord
  2
MCAD_NO_VIS
 70
     0
  0
APPID
  5
238
330
21
100
AcDbSymbolTableRecord
100
AcDbRegAppTableRecord
  2
ACAD_TEMP_GRAPHIC
 70
     0
  0
APPID
  5
268
330
21
100
AcDbSymbolTableRecord
100
AcDbRegAppTableRecord
  2
AD_DRAW
 70
     0
  0
APPID
  5
26B
330
21
100
AcDbSymbolTableRecord
100
AcDbRegAppTableRecord
  2
ACATTRIBSERVICES
 70
     0
  0
APPID
  5
289
330
21
100
AcDbSymbolTableRecord
100
AcDbRegAppTableRecord
  2
DESIGNERASSEMBLIES
 70
     0
  0
APPID
  5
28F
330
21
100
AcDbSymbolTableRecord
100
AcDbRegAppTableRecord
  2
ACADM_DIM_EDIT
 70
     0
  0
APPID
  5
290
330
21
100
AcDbSymbolTableRecord
100
AcDbRegAppTableRecord
  2
AMDT_DM_ADJ
 70
     0
  0
APPID
  5
2DB
330
21
100
AcDbSymbolTableRecord
100
AcDbRegAppTableRecord
  2
GENIUS_GENOBJ-N-CRS_13
 70
     0
  0
APPID
  5
2DC
330
21
100
AcDbSymbolTableRecord
100
AcDbRegAppTableRecord
  2
GENIUS_GENOLIS_13
 70
     0
  0
APPID
  5
2DD
330
21
100
AcDbSymbolTableRecord
100
AcDbRegAppTableRecord
  2
GENIUS_GENOENT_13
 70
     0
  0
APPID
  5
2DE
330
21
100
AcDbSymbolTableRecord
100
AcDbRegAppTableRecord
  2
GENIUS_GENODEF_13
 70
     0
  0
APPID
  5
2DF
330
21
100
AcDbSymbolTableRecord
100
AcDbRegAppTableRecord
  2
GENIUS_GENOREF_13
 70
     0
  0
APPID
  5
2E0
330
21
100
AcDbSymbolTableRecord
100
AcDbRegAppTableRecord
  2
GENIUS_GENREC_14
 70
     0
  0
APPID
  5
2E1
330
21
100
AcDbSymbolTableRecord
100
AcDbRegAppTableRecord
  2
GENIUS_GENOBJ-N-REC_13
 70
     0
  0
APPID
  5
DE2
330
21
100
AcDbSymbolTableRecord
100
AcDbRegAppTableRecord
  2
ACAD_DSTYLE_DIMTEXT_FILL
 70
     0
  0
APPID
  5
E2A
330
21
100
AcDbSymbolTableRecord
100
AcDbRegAppTableRecord
  2
GENIUS_GENDIMSH_14
 70
     0
  0
APPID
  5
F24
330
21
100
AcDbSymbolTableRecord
100
AcDbRegAppTableRecord
  2
GENIUS_GENDTOL_13
 70
     0
  0
APPID
  5
11BF
330
21
100
AcDbSymbolTableRecord
100
AcDbRegAppTableRecord
  2
AcAecLayerStandard
 70
     0
  0
APPID
  5
23F1
330
21
100
AcDbSymbolTableRecord
100
AcDbRegAppTableRecord
  2
GENIUS_GENDIM_13
 70
     0
  0
APPID
  5
23F2
330
21
100
AcDbSymbolTableRecord
100
AcDbRegAppTableRecord
  2
GENIUS_GE3DTOL_13
 70
     0
  0
APPID
  5
2470
330
21
100
AcDbSymbolTableRecord
100
AcDbRegAppTableRecord
  2
ASURF_PCURVE_APPNAME
 70
     0
  0
APPID
  5
2475
330
21
100
AcDbSymbolTableRecord
100
AcDbRegAppTableRecord
  2
AMG_3D2D_5.0
 70
     0
  0
APPID
  5
24D0
330
21
100
AcDbSymbolTableRecord
100
AcDbRegAppTableRecord
  2
GENIUS_GENOBJ-N-CEN_13
 70
     0
  0
APPID
  5
24D1
330
21
100
AcDbSymbolTableRecord
100
AcDbRegAppTableRecord
  2
GENIUS_GENCEN_19
 70
     0
  0
ENDTAB
  0
TABLE
  2
DIMSTYLE
  5
23
330
0
100
AcDbSymbolTable
 70
    16
100
AcDbDimStyleTable
 71
     3
340
24
340
25
340
26
  0
DIMSTYLE
105
24
330
23
100
AcDbSymbolTableRecord
100
AcDbDimStyleTableRecord
  2
AM_ISO
 70
     0
  4
"
 41
2.5
 42
1.0
 43
8.0
 44
1.0
 47
0.1
 48
0.1
 73
     0
 74
     0
 77
     1
 78
     8
 79
     2
140
3.5
141
0.0
143
0.0393701
146
0.71
147
1.0
172
     1
176
   256
177
   256
178
   256
271
     2
272
     2
283
     0
284
     8
285
     8
340
18
371
    -1
372
    -1
  0
DIMSTYLE
105
25
330
23
100
AcDbSymbolTableRecord
100
AcDbDimStyleTableRecord
  2
AM_ISO$SF
 70
     0
  4
"
 41
2.5
 42
1.0
 43
10.0
 44
1.0
 47
0.1
 48
0.1
 73
     0
 74
     0
 75
     1
 76
     1
 77
     1
 78
     8
 79
     2
140
3.5
141
0.0
143
0.0393701
146
0.71
147
1.0
172
     1
176
   256
177
   256
178
   256
271
     2
272
     2
283
     0
284
     8
340
18
371
    -1
372
    -1
  0
DIMSTYLE
105
26
330
23
100
AcDbSymbolTableRecord
100
AcDbDimStyleTableRecord
  2
AM_ISO$SH
 70
     0
  4
"
 41
2.5
 42
1.0
 43
10.0
 44
1.0
 47
0.1
 48
0.1
 73
     0
 74
     0
 75
     1
 76
     1
 77
     1
 78
     8
 79
     2
140
3.5
141
0.0
143
0.0393701
144
2.0
146
0.71
147
1.0
172
     1
173
     1
176
   256
177
   256
178
   256
271
     2
272
     2
283
     0
284
     8
340
18
343
27
371
    -1
372
    -1
  0
DIMSTYLE
105
2BB
102
{ACAD_REACTORS
330
1209
102
}
330
23
100
AcDbSymbolTableRecord
100
AcDbDimStyleTableRecord
  2
AM_ISO$3
 70
     0
  4
"
 41
2.5
 42
1.0
 43
8.0
 44
1.0
 47
0.1
 48
0.1
 73
     0
 77
     1
 78
     8
 79
     2
140
3.5
141
0.0
143
0.0393701
146
0.71
147
1.0
176
   256
177
   256
178
   256
271
     2
272
     2
283
     0
284
     8
285
     8
288
     1
289
     0
340
18
371
    -1
372
    -1
  0
DIMSTYLE
105
2BC
102
{ACAD_REACTORS
330
26AA
102
}
330
23
100
AcDbSymbolTableRecord
100
AcDbDimStyleTableRecord
  2
AM_ISO$4
 70
     0
  4
"
 41
2.5
 42
1.0
 43
8.0
 44
1.0
 47
0.1
 48
0.1
 73
     0
 77
     1
 78
     8
 79
     2
140
3.5
141
0.0
143
0.0393701
146
0.71
147
1.0
176
   256
177
   256
178
   256
271
     2
272
     2
283
     0
284
     8
285
     8
288
     1
289
     0
340
18
371
    -1
372
    -1
  0
DIMSTYLE
105
2BD
330
23
100
AcDbSymbolTableRecord
100
AcDbDimStyleTableRecord
  2
AM_ISO$6
 70
     0
  4
"
 41
2.5
 42
1.0
 43
8.0
 44
1.0
 47
0.1
 48
0.1
 73
     0
 74
     0
 78
     8
 79
     2
140
3.5
141
0.0
143
0.0393701
146
0.71
147
1.0
172
     1
176
   256
177
   256
178
   256
271
     2
272
     2
283
     0
284
     8
285
     8
340
18
371
    -1
372
    -1
  0
DIMSTYLE
105
2BE
102
{ACAD_REACTORS
330
11BB
102
}
330
23
100
AcDbSymbolTableRecord
100
AcDbDimStyleTableRecord
  2
AM_ISO$7
 70
     0
  4
"
 41
2.5
 42
1.0
 43
8.0
 44
1.0
 47
0.1
 48
0.1
 73
     0
 74
     0
 77
     1
 78
     8
 79
     2
140
5.0
141
0.0
143
0.0393701
146
0.71
147
1.5
172
     1
176
   256
177
   256
178
   256
271
     2
272
     2
283
     0
284
     8
285
     8
340
18
371
    -1
372
    -1
  0
DIMSTYLE
105
2DA
102
{ACAD_REACTORS
330
DC8
330
DEB
330
E14
330
E2B
330
E4C
330
E62
330
E81
330
1174
330
1193
330
11EA
330
2B68
330
2B7E
330
2B94
330
2B4E
330
2B38
330
2F70
330
2F71
102
}
330
23
100
AcDbSymbolTableRecord
100
AcDbDimStyleTableRecord
  2
AM_ISO$0
 70
     0
  4
"
 40
2.0
 41
3.0
 42
1.0
 43
10.0
 44
1.0
 47
0.1
 48
0.1
 73
     0
 74
     0
 77
     1
 78
     8
 79
     2
140
3.5
141
0.0
143
0.0393701
146
0.71
147
1.0
172
     1
176
   256
177
   256
178
   256
271
     2
272
     2
283
     0
284
     8
285
     8
340
18
371
    -1
372
    -1
  0
DIMSTYLE
105
1356
330
23
100
AcDbSymbolTableRecord
100
AcDbDimStyleTableRecord
  2
STANDARD
 70
     0
340
18
  0
DIMSTYLE
105
2DC5
330
23
100
AcDbSymbolTableRecord
100
AcDbDimStyleTableRecord
  2
AM_ANSI
 70
     0
  4
mm
 41
0.1
 42
0.05
 43
0.5
 44
0.1
 47
0.1
 48
0.1
 78
     7
 79
     2
140
0.12
141
0.0
146
0.71
147
0.06
176
   256
177
   256
178
     2
274
     4
284
     7
340
18
371
    -1
372
    -1
  0
DIMSTYLE
105
2DC6
330
23
100
AcDbSymbolTableRecord
100
AcDbDimStyleTableRecord
  2
AM_ANSI$3
 70
     0
  4
mm
 41
0.1
 42
0.05
 43
0.5
 44
0.1
 47
0.1
 48
0.1
 78
     7
 79
     2
140
0.12
141
0.0
146
0.71
147
0.06
176
   256
177
   256
178
     2
274
     4
284
     7
288
     1
289
     0
340
18
371
    -1
372
    -1
  0
DIMSTYLE
105
2DC7
330
23
100
AcDbSymbolTableRecord
100
AcDbDimStyleTableRecord
  2
AM_ANSI$4
 70
     0
  4
mm
 41
0.1
 42
0.05
 43
0.5
 44
0.1
 47
0.1
 48
0.1
 78
     7
 79
     2
140
0.12
141
0.0
146
0.71
147
0.06
176
   256
177
   256
178
     2
274
     4
284
     7
288
     1
289
     0
340
18
371
    -1
372
    -1
  0
DIMSTYLE
105
2DC8
330
23
100
AcDbSymbolTableRecord
100
AcDbDimStyleTableRecord
  2
AM_ANSI$7
 70
     0
  4
mm
 41
0.1
 42
0.05
 43
0.5
 44
0.1
 47
0.1
 48
0.1
 78
     7
 79
     2
140
0.24
141
0.0
146
0.71
147
0.06
176
   256
177
   256
178
     2
274
     4
284
     7
340
18
371
    -1
372
    -1
  0
DIMSTYLE
105
2DC9
330
23
100
AcDbSymbolTableRecord
100
AcDbDimStyleTableRecord
  2
AM_ANSI$SF
 70
     0
  4
mm
 41
0.1
 42
0.05
 43
0.5
 44
0.1
 47
0.1
 48
0.1
 75
     1
 76
     1
 78
     7
 79
     2
140
0.12
141
0.0
146
0.71
147
0.06
176
   256
177
   256
178
     2
274
     4
284
     7
340
18
371
    -1
372
    -1
  0
DIMSTYLE
105
2DCA
330
23
100
AcDbSymbolTableRecord
100
AcDbDimStyleTableRecord
  2
AM_ANSI$SH
 70
     0
  4
mm
 41
0.1
 42
0.05
 43
0.5
 44
0.1
 47
0.1
 48
0.1
 75
     1
 76
     1
 78
     7
 79
     2
140
0.12
141
0.0
146
0.71
147
0.06
173
     1
176
   256
177
   256
178
     2
274
     4
284
     7
340
18
341
27
343
27
371
    -1
372
    -1
  0
DIMSTYLE
105
2DCB
330
23
100
AcDbSymbolTableRecord
100
AcDbDimStyleTableRecord
  2
STANDARD$0
 70
     0
 40
0.0
 41
3.0
 42
2.0
 43
2.0
 44
2.0
 47
0.15
 48
-0.1
 73
     0
 77
     1
 78
     8
 79
     2
140
3.0
141
-1.0
145
0.9
147
1.0
176
     5
177
     5
178
     5
271
     2
272
     2
279
     1
284
     8
285
     8
286
     8
340
18
  0
ENDTAB
  0
TABLE
  2
BLOCK_RECORD
  5
1
330
0
100
AcDbSymbolTable
 70
    27
  0
BLOCK_RECORD
  5
2
102
{ACAD_XDICTIONARY
360
3
102
}
330
1
100
AcDbSymbolTableRecord
100
AcDbBlockTableRecord
  2
*MODEL_SPACE
340
B
  0
BLOCK_RECORD
  5
D
102
{ACAD_XDICTIONARY
360
1AC0
102
}
330
1
100
AcDbSymbolTableRecord
100
AcDbBlockTableRecord
  2
*PAPER_SPACE
340
10
  0
BLOCK_RECORD
  5
27
330
1
100
AcDbSymbolTableRecord
100
AcDbBlockTableRecord
  2
GENAXEH
340
0
  0
BLOCK_RECORD
  5
DC9
330
1
100
AcDbSymbolTableRecord
100
AcDbBlockTableRecord
  2
*D1
340
0
  0
BLOCK_RECORD
  5
DEC
330
1
100
AcDbSymbolTableRecord
100
AcDbBlockTableRecord
  2
*D2
340
0
  0
BLOCK_RECORD
  5
E15
330
1
100
AcDbSymbolTableRecord
100
AcDbBlockTableRecord
  2
*D3
340
0
  0
BLOCK_RECORD
  5
E2C
330
1
100
AcDbSymbolTableRecord
100
AcDbBlockTableRecord
  2
*D4
340
0
  0
BLOCK_RECORD
  5
E4D
330
1
100
AcDbSymbolTableRecord
100
AcDbBlockTableRecord
  2
*D5
340
0
  0
BLOCK_RECORD
  5
E63
330
1
100
AcDbSymbolTableRecord
100
AcDbBlockTableRecord
  2
*D6
340
0
  0
BLOCK_RECORD
  5
E82
330
1
100
AcDbSymbolTableRecord
100
AcDbBlockTableRecord
  2
*D7
340
0
  0
BLOCK_RECORD
  5
1175
330
1
100
AcDbSymbolTableRecord
100
AcDbBlockTableRecord
  2
*D8
340
0
  0
BLOCK_RECORD
  5
1194
330
1
100
AcDbSymbolTableRecord
100
AcDbBlockTableRecord
  2
*D9
340
0
  0
BLOCK_RECORD
  5
11EB
330
1
100
AcDbSymbolTableRecord
100
AcDbBlockTableRecord
  2
*D10
340
0
  0
BLOCK_RECORD
  5
120A
330
1
100
AcDbSymbolTableRecord
100
AcDbBlockTableRecord
  2
*D11
340
0
  0
BLOCK_RECORD
  5
1B1E
102
{ACAD_XDICTIONARY
360
1B22
102
}
330
1
100
AcDbSymbolTableRecord
100
AcDbBlockTableRecord
  2
A$C453B67D5
340
0
102
{BLKREFS
331
1B25
102
}
  0
BLOCK_RECORD
  5
1B27
102
{ACAD_XDICTIONARY
360
1B2B
102
}
330
1
100
AcDbSymbolTableRecord
100
AcDbBlockTableRecord
  2
A$C17481420
340
0
102
{BLKREFS
331
1B2E
102
}
  0
BLOCK_RECORD
  5
27AA
330
1
100
AcDbSymbolTableRecord
100
AcDbBlockTableRecord
  2
*D15
340
0
  0
BLOCK_RECORD
  5
28E0
330
1
100
AcDbSymbolTableRecord
100
AcDbBlockTableRecord
  2
*D16
340
0
  0
BLOCK_RECORD
  5
2B39
330
1
100
AcDbSymbolTableRecord
100
AcDbBlockTableRecord
  2
*D17
340
0
  0
BLOCK_RECORD
  5
2B4F
330
1
100
AcDbSymbolTableRecord
100
AcDbBlockTableRecord
  2
*D18
340
0
  0
BLOCK_RECORD
  5
2B69
330
1
100
AcDbSymbolTableRecord
100
AcDbBlockTableRecord
  2
*D19
340
0
  0
BLOCK_RECORD
  5
2B7F
330
1
100
AcDbSymbolTableRecord
100
AcDbBlockTableRecord
  2
*D20
340
0
  0
BLOCK_RECORD
  5
2B95
330
1
100
AcDbSymbolTableRecord
100
AcDbBlockTableRecord
  2
*D21
340
0
  0
BLOCK_RECORD
  5
2D56
102
{ACAD_XDICTIONARY
360
2D57
102
}
330
1
100
AcDbSymbolTableRecord
100
AcDbBlockTableRecord
  2
A$C6896536C
340
0
  0
BLOCK_RECORD
  5
2DCC
102
{ACAD_XDICTIONARY
360
2DCD
102
}
330
1
100
AcDbSymbolTableRecord
100
AcDbBlockTableRecord
  2
MCBQV2-63
340
0
  0
BLOCK_RECORD
  5
2F72
330
1
100
AcDbSymbolTableRecord
100
AcDbBlockTableRecord
  2
*D25
340
0
  0
BLOCK_RECORD
  5
2F7E
330
1
100
AcDbSymbolTableRecord
100
AcDbBlockTableRecord
  2
*D26
340
0
  0
ENDTAB
  0
ENDSEC
  0
SECTION
  2
BLOCKS
  0
BLOCK
  5
4
330
2
100
AcDbEntity
  8
0
100
AcDbBlockBegin
  2
*MODEL_SPACE
 70
     0
 10
0.0
 20
0.0
 30
0.0
  3
*MODEL_SPACE
  1

  0
ENDBLK
  5
A
330
2
100
AcDbEntity
  8
0
100
AcDbBlockEnd
  0
BLOCK
  5
E
330
D
100
AcDbEntity
 67
     1
  8
0
100
AcDbBlockBegin
  2
*PAPER_SPACE
 70
     0
 10
0.0
 20
0.0
 30
0.0
  3
*PAPER_SPACE
  1

  0
ENDBLK
  5
F
330
D
100
AcDbEntity
 67
     1
  8
0
100
AcDbBlockEnd
  0
BLOCK
  5
28
330
27
100
AcDbEntity
  8
0
100
AcDbBlockBegin
  2
GENAXEH
 70
     0
 10
0.0
 20
0.0
 30
0.0
  3
GENAXEH
  1

  0
LINE
  5
29
330
27
100
AcDbEntity
  8
0
100
AcDbLine
 10
-1.0
 20
0.0
 30
0.0
 11
1.0
 21
0.0
 31
0.0
  0
ENDBLK
  5
2A
330
27
100
AcDbEntity
  8
0
100
AcDbBlockEnd
  0
BLOCK
  5
DD5
330
DC9
100
AcDbEntity
  8
0
100
AcDbBlockBegin
  2
*D1
 70
     1
 10
0.0
 20
0.0
 30
0.0
  3
*D1
  1

  0
LINE
  5
30E2
330
DC9
100
AcDbEntity
  8
AM_5
100
AcDbLine
 10
111.79410208126
 20
113.214426629946
 30
0.0
 11
111.79410208126
 21
75.71442662994605
 31
0.0
  0
LINE
  5
30E3
330
DC9
100
AcDbEntity
  8
AM_5
100
AcDbLine
 10
115.79410208126
 20
103.714426629946
 30
0.0
 11
115.79410208126
 21
75.71442662994605
 31
0.0
  0
LINE
  5
30E4
330
DC9
100
AcDbEntity
  8
AM_5
100
AcDbLine
 10
118.79410208126
 20
76.71442662994604
 30
0.0
 11
121.79410208126
 21
76.71442662994604
 31
0.0
  0
LINE
  5
30E5
330
DC9
100
AcDbEntity
  8
AM_5
100
AcDbLine
 10
108.79410208126
 20
76.71442662994604
 30
0.0
 11
102.04410208126
 21
76.71442662994604
 31
0.0
  0
LINE
  5
30E6
330
DC9
100
AcDbEntity
  8
AM_5
100
AcDbLine
 10
115.79410208126
 20
76.71442662994604
 30
0.0
 11
111.79410208126
 21
76.71442662994604
 31
0.0
  0
SOLID
  5
30E7
330
DC9
100
AcDbEntity
  8
AM_5
100
AcDbTrace
 10
118.79410208126
 20
77.21442662994604
 30
0.0
 11
118.79410208126
 21
76.21442662994605
 31
0.0
 12
115.79410208126
 22
76.71442662994604
 32
0.0
 13
115.79410208126
 23
76.71442662994604
 33
0.0
  0
SOLID
  5
30E8
330
DC9
100
AcDbEntity
  8
AM_5
100
AcDbTrace
 10
108.79410208126
 20
77.21442662994604
 30
0.0
 11
108.79410208126
 21
76.21442662994605
 31
0.0
 12
111.79410208126
 22
76.71442662994604
 32
0.0
 13
111.79410208126
 23
76.71442662994604
 33
0.0
  0
MTEXT
  5
30E9
330
DC9
100
AcDbEntity
  8
AM_5
100
AcDbMText
 10
103.91910208126
 20
79.46442662994605
 30
0.0
 40
3.5
 41
0.0
 71
     5
 72
     1
  1
4
 73
     1
 44
1.0
1001
ACAD
1000
MTEXTBEGIN
1070
    73
1070
     1
1070
    44
1040
1.0
1070
    74
1070
     0
1000
MTEXTEND
  0
POINT
  5
30EA
330
DC9
100
AcDbEntity
  8
Defpoints
 62
     0
100
AcDbPoint
 10
111.79410208126
 20
114.214426629946
 30
0.0
  0
POINT
  5
30EB
330
DC9
100
AcDbEntity
  8
Defpoints
 62
     0
100
AcDbPoint
 10
115.79410208126
 20
104.714426629946
 30
0.0
  0
POINT
  5
30EC
330
DC9
100
AcDbEntity
  8
Defpoints
 62
     0
100
AcDbPoint
 10
115.79410208126
 20
76.71442662994604
 30
0.0
  0
ENDBLK
  5
DD6
330
DC9
100
AcDbEntity
  8
0
100
AcDbBlockEnd
  0
BLOCK
  5
DF6
330
DEC
100
AcDbEntity
  8
0
100
AcDbBlockBegin
  2
*D2
 70
     1
 10
0.0
 20
0.0
 30
0.0
  3
*D2
  1

  0
LINE
  5
30ED
330
DEC
100
AcDbEntity
  8
AM_5
100
AcDbLine
 10
115.79410208126
 20
103.714426629946
 30
0.0
 11
115.79410208126
 21
83.71442662994605
 31
0.0
  0
LINE
  5
30EE
330
DEC
100
AcDbEntity
  8
AM_5
100
AcDbLine
 10
209.7941020812601
 20
103.714426629946
 30
0.0
 11
209.7941020812601
 21
83.71442662994605
 31
0.0
  0
LINE
  5
30EF
330
DEC
100
AcDbEntity
  8
AM_5
100
AcDbLine
 10
118.79410208126
 20
84.71442662994604
 30
0.0
 11
206.7941020812601
 21
84.71442662994604
 31
0.0
  0
SOLID
  5
30F0
330
DEC
100
AcDbEntity
  8
AM_5
100
AcDbTrace
 10
118.79410208126
 20
85.21442662994605
 30
0.0
 11
118.79410208126
 21
84.21442662994605
 31
0.0
 12
115.79410208126
 22
84.71442662994604
 32
0.0
 13
115.79410208126
 23
84.71442662994604
 33
0.0
  0
SOLID
  5
30F1
330
DEC
100
AcDbEntity
  8
AM_5
100
AcDbTrace
 10
206.7941020812601
 20
85.21442662994605
 30
0.0
 11
206.7941020812601
 21
84.21442662994605
 31
0.0
 12
209.7941020812601
 22
84.71442662994604
 32
0.0
 13
209.7941020812601
 23
84.71442662994604
 33
0.0
  0
MTEXT
  5
30F2
330
DEC
100
AcDbEntity
  8
AM_5
100
AcDbMText
 10
162.79410208126
 20
87.46442662994605
 30
0.0
 40
3.5
 41
0.0
 71
     5
 72
     1
  1
94+Stroke
 73
     1
 44
1.0
1001
ACAD
1000
MTEXTBEGIN
1070
    73
1070
     1
1070
    44
1040
1.0
1070
    74
1070
     0
1000
MTEXTEND
  0
POINT
  5
30F3
330
DEC
100
AcDbEntity
  8
Defpoints
 62
     0
100
AcDbPoint
 10
115.79410208126
 20
104.714426629946
 30
0.0
  0
POINT
  5
30F4
330
DEC
100
AcDbEntity
  8
Defpoints
 62
     0
100
AcDbPoint
 10
209.7941020812601
 20
104.714426629946
 30
0.0
  0
POINT
  5
30F5
330
DEC
100
AcDbEntity
  8
Defpoints
 62
     0
100
AcDbPoint
 10
209.7941020812601
 20
84.71442662994604
 30
0.0
  0
ENDBLK
  5
DF7
330
DEC
100
AcDbEntity
  8
0
100
AcDbBlockEnd
  0
BLOCK
  5
E1F
330
E15
100
AcDbEntity
  8
0
100
AcDbBlockBegin
  2
*D3
 70
     1
 10
0.0
 20
0.0
 30
0.0
  3
*D3
  1

  0
LINE
  5
30F6
330
E15
100
AcDbEntity
  8
AM_5
100
AcDbLine
 10
209.7941020812601
 20
103.714426629946
 30
0.0
 11
209.7941020812601
 21
83.71442662994605
 31
0.0
  0
LINE
  5
30F7
330
E15
100
AcDbEntity
  8
AM_5
100
AcDbLine
 10
269.79410208126
 20
104.214426629946
 30
0.0
 11
269.79410208126
 21
83.71442662994605
 31
0.0
  0
LINE
  5
30F8
330
E15
100
AcDbEntity
  8
AM_5
100
AcDbLine
 10
212.7941020812601
 20
84.71442662994604
 30
0.0
 11
266.79410208126
 21
84.71442662994604
 31
0.0
  0
SOLID
  5
30F9
330
E15
100
AcDbEntity
  8
AM_5
100
AcDbTrace
 10
212.7941020812601
 20
85.21442662994605
 30
0.0
 11
212.7941020812601
 21
84.21442662994605
 31
0.0
 12
209.7941020812601
 22
84.71442662994604
 32
0.0
 13
209.7941020812601
 23
84.71442662994604
 33
0.0
  0
SOLID
  5
30FA
330
E15
100
AcDbEntity
  8
AM_5
100
AcDbTrace
 10
266.79410208126
 20
85.21442662994605
 30
0.0
 11
266.79410208126
 21
84.21442662994605
 31
0.0
 12
269.79410208126
 22
84.71442662994604
 32
0.0
 13
269.79410208126
 23
84.71442662994604
 33
0.0
  0
MTEXT
  5
30FB
330
E15
100
AcDbEntity
  8
AM_5
100
AcDbMText
 10
239.79410208126
 20
87.46442662994605
 30
0.0
 40
3.5
 41
0.0
 71
     5
 72
     1
  1
60
 73
     1
 44
1.0
1001
ACAD
1000
MTEXTBEGIN
1070
    73
1070
     1
1070
    44
1040
1.0
1070
    74
1070
     0
1000
MTEXTEND
  0
POINT
  5
30FC
330
E15
100
AcDbEntity
  8
Defpoints
 62
     0
100
AcDbPoint
 10
209.7941020812601
 20
104.714426629946
 30
0.0
  0
POINT
  5
30FD
330
E15
100
AcDbEntity
  8
Defpoints
 62
     0
100
AcDbPoint
 10
269.79410208126
 20
105.214426629946
 30
0.0
  0
POINT
  5
30FE
330
E15
100
AcDbEntity
  8
Defpoints
 62
     0
100
AcDbPoint
 10
269.79410208126
 20
84.71442662994604
 30
0.0
  0
ENDBLK
  5
E20
330
E15
100
AcDbEntity
  8
0
100
AcDbBlockEnd
  0
BLOCK
  5
E36
330
E2C
100
AcDbEntity
  8
0
100
AcDbBlockBegin
  2
*D4
 70
     1
 10
0.0
 20
0.0
 30
0.0
  3
*D4
  1

  0
LINE
  5
30FF
330
E2C
100
AcDbEntity
  8
AM_5
100
AcDbLine
 10
269.79410208126
 20
104.214426629946
 30
0.0
 11
269.79410208126
 21
92.21442662994604
 31
0.0
  0
LINE
  5
3100
330
E2C
100
AcDbEntity
  8
AM_5
100
AcDbLine
 10
277.2941020812599
 20
112.964426629946
 30
0.0
 11
277.2941020812599
 21
92.21442662994604
 31
0.0
  0
LINE
  5
3101
330
E2C
100
AcDbEntity
  8
AM_5
100
AcDbLine
 10
280.29410208126
 20
93.21442662994604
 30
0.0
 11
283.2941020812599
 21
93.21442662994604
 31
0.0
  0
LINE
  5
3102
330
E2C
100
AcDbEntity
  8
AM_5
100
AcDbLine
 10
266.79410208126
 20
93.21442662994604
 30
0.0
 11
256.7491273344294
 21
93.21442662994604
 31
0.0
  0
LINE
  5
3103
330
E2C
100
AcDbEntity
  8
AM_5
100
AcDbLine
 10
277.2941020812599
 20
93.21442662994604
 30
0.0
 11
269.79410208126
 21
93.21442662994604
 31
0.0
  0
SOLID
  5
3104
330
E2C
100
AcDbEntity
  8
AM_5
100
AcDbTrace
 10
280.29410208126
 20
93.71442662994605
 30
0.0
 11
280.29410208126
 21
92.71442662994605
 31
0.0
 12
277.2941020812599
 22
93.21442662994604
 32
0.0
 13
277.2941020812599
 23
93.21442662994604
 33
0.0
  0
SOLID
  5
3105
330
E2C
100
AcDbEntity
  8
AM_5
100
AcDbTrace
 10
266.79410208126
 20
93.71442662994605
 30
0.0
 11
266.79410208126
 21
92.71442662994605
 31
0.0
 12
269.79410208126
 22
93.21442662994604
 32
0.0
 13
269.79410208126
 23
93.21442662994604
 33
0.0
  0
MTEXT
  5
3106
330
E2C
100
AcDbEntity
  8
AM_5
100
AcDbMText
 10
260.2716147078447
 20
95.96442662994604
 30
0.0
 40
3.5
 41
0.0
 71
     5
 72
     1
  1
7.5
 73
     1
 44
1.0
1001
ACAD
1000
MTEXTBEGIN
1070
    73
1070
     1
1070
    44
1040
1.0
1070
    74
1070
     0
1000
MTEXTEND
  0
POINT
  5
3107
330
E2C
100
AcDbEntity
  8
Defpoints
 62
     0
100
AcDbPoint
 10
269.79410208126
 20
105.214426629946
 30
0.0
  0
POINT
  5
3108
330
E2C
100
AcDbEntity
  8
Defpoints
 62
     0
100
AcDbPoint
 10
277.2941020812599
 20
113.964426629946
 30
0.0
  0
POINT
  5
3109
330
E2C
100
AcDbEntity
  8
Defpoints
 62
     0
100
AcDbPoint
 10
277.2941020812599
 20
93.21442662994604
 30
0.0
  0
ENDBLK
  5
E37
330
E2C
100
AcDbEntity
  8
0
100
AcDbBlockEnd
  0
BLOCK
  5
E57
330
E4D
100
AcDbEntity
  8
0
100
AcDbBlockBegin
  2
*D5
 70
     1
 10
0.0
 20
0.0
 30
0.0
  3
*D5
  1

  0
LINE
  5
310A
330
E4D
100
AcDbEntity
  8
AM_5
100
AcDbLine
 10
269.79410208126
 20
104.214426629946
 30
0.0
 11
269.79410208126
 21
83.71442662994605
 31
0.0
  0
LINE
  5
310B
330
E4D
100
AcDbEntity
  8
AM_5
100
AcDbLine
 10
295.7945149982153
 20
122.214426629946
 30
0.0
 11
295.7945149982153
 21
83.71442662994605
 31
0.0
  0
LINE
  5
310C
330
E4D
100
AcDbEntity
  8
AM_5
100
AcDbLine
 10
272.79410208126
 20
84.71442662994604
 30
0.0
 11
292.7945149982154
 21
84.71442662994604
 31
0.0
  0
SOLID
  5
310D
330
E4D
100
AcDbEntity
  8
AM_5
100
AcDbTrace
 10
272.79410208126
 20
85.21442662994605
 30
0.0
 11
272.79410208126
 21
84.21442662994605
 31
0.0
 12
269.79410208126
 22
84.71442662994604
 32
0.0
 13
269.79410208126
 23
84.71442662994604
 33
0.0
  0
SOLID
  5
310E
330
E4D
100
AcDbEntity
  8
AM_5
100
AcDbTrace
 10
292.7945149982154
 20
85.21442662994605
 30
0.0
 11
292.7945149982154
 21
84.21442662994605
 31
0.0
 12
295.7945149982153
 22
84.71442662994604
 32
0.0
 13
295.7945149982153
 23
84.71442662994604
 33
0.0
  0
MTEXT
  5
310F
330
E4D
100
AcDbEntity
  8
AM_5
100
AcDbMText
 10
282.7943085397377
 20
87.46477111813502
 30
0.0
 40
3.5
 41
0.0
 71
     5
 72
     1
  1
26
 73
     1
 44
1.0
1001
ACAD
1000
MTEXTBEGIN
1070
    73
1070
     1
1070
    44
1040
1.0
1070
    74
1070
     0
1000
MTEXTEND
  0
POINT
  5
3110
330
E4D
100
AcDbEntity
  8
Defpoints
 62
     0
100
AcDbPoint
 10
269.79410208126
 20
105.214426629946
 30
0.0
  0
POINT
  5
3111
330
E4D
100
AcDbEntity
  8
Defpoints
 62
     0
100
AcDbPoint
 10
295.7945149982153
 20
123.214426629946
 30
0.0
  0
POINT
  5
3112
330
E4D
100
AcDbEntity
  8
Defpoints
 62
     0
100
AcDbPoint
 10
295.7945149982153
 20
84.71442662994604
 30
0.0
  0
ENDBLK
  5
E58
330
E4D
100
AcDbEntity
  8
0
100
AcDbBlockEnd
  0
BLOCK
  5
E6D
330
E63
100
AcDbEntity
  8
0
100
AcDbBlockBegin
  2
*D6
 70
     1
 10
0.0
 20
0.0
 30
0.0
  3
*D6
  1

  0
LINE
  5
3113
330
E63
100
AcDbEntity
  8
AM_5
100
AcDbLine
 10
317.79410208126
 20
123.214426629946
 30
0.0
 11
317.79410208126
 21
75.71442662994605
 31
0.0
  0
LINE
  5
3114
330
E63
100
AcDbEntity
  8
AM_5
100
AcDbLine
 10
295.7945149982153
 20
121.214426629946
 30
0.0
 11
295.7945149982153
 21
75.71442662994605
 31
0.0
  0
LINE
  5
3115
330
E63
100
AcDbEntity
  8
AM_5
100
AcDbLine
 10
314.7941020812599
 20
76.71442662994604
 30
0.0
 11
298.7945149982153
 21
76.71442662994604
 31
0.0
  0
SOLID
  5
3116
330
E63
100
AcDbEntity
  8
AM_5
100
AcDbTrace
 10
314.7941020812599
 20
77.21442662994604
 30
0.0
 11
314.7941020812599
 21
76.21442662994605
 31
0.0
 12
317.79410208126
 22
76.71442662994604
 32
0.0
 13
317.79410208126
 23
76.71442662994604
 33
0.0
  0
SOLID
  5
3117
330
E63
100
AcDbEntity
  8
AM_5
100
AcDbTrace
 10
298.7945149982153
 20
77.21442662994604
 30
0.0
 11
298.7945149982153
 21
76.21442662994605
 31
0.0
 12
295.7945149982153
 22
76.71442662994604
 32
0.0
 13
295.7945149982153
 23
76.71442662994604
 33
0.0
  0
MTEXT
  5
3118
330
E63
100
AcDbEntity
  8
AM_5
100
AcDbMText
 10
306.7943085397376
 20
79.46477111813502
 30
0.0
 40
3.5
 41
0.0
 71
     5
 72
     1
  1
22
 73
     1
 44
1.0
1001
ACAD
1000
MTEXTBEGIN
1070
    73
1070
     1
1070
    44
1040
1.0
1070
    74
1070
     0
1000
MTEXTEND
  0
POINT
  5
3119
330
E63
100
AcDbEntity
  8
Defpoints
 62
     0
100
AcDbPoint
 10
317.79410208126
 20
124.214426629946
 30
0.0
  0
POINT
  5
311A
330
E63
100
AcDbEntity
  8
Defpoints
 62
     0
100
AcDbPoint
 10
295.7945149982153
 20
122.214426629946
 30
0.0
  0
POINT
  5
311B
330
E63
100
AcDbEntity
  8
Defpoints
 62
     0
100
AcDbPoint
 10
295.7945149982153
 20
76.71442662994604
 30
0.0
  0
ENDBLK
  5
E6E
330
E63
100
AcDbEntity
  8
0
100
AcDbBlockEnd
  0
BLOCK
  5
E8C
330
E82
100
AcDbEntity
  8
0
100
AcDbBlockBegin
  2
*D7
 70
     1
 10
0.0
 20
0.0
 30
0.0
  3
*D7
  1

  0
LINE
  5
311C
330
E82
100
AcDbEntity
  8
AM_5
100
AcDbLine
 10
115.79410208126
 20
103.714426629946
 30
0.0
 11
115.79410208126
 21
75.71442662994605
 31
0.0
  0
LINE
  5
311D
330
E82
100
AcDbEntity
  8
AM_5
100
AcDbLine
 10
295.7945149982153
 20
121.214426629946
 30
0.0
 11
295.7945149982153
 21
75.71442662994605
 31
0.0
  0
LINE
  5
311E
330
E82
100
AcDbEntity
  8
AM_5
100
AcDbLine
 10
118.79410208126
 20
76.71442662994604
 30
0.0
 11
292.7945149982154
 21
76.71442662994604
 31
0.0
  0
SOLID
  5
311F
330
E82
100
AcDbEntity
  8
AM_5
100
AcDbTrace
 10
118.79410208126
 20
77.21442662994604
 30
0.0
 11
118.79410208126
 21
76.21442662994605
 31
0.0
 12
115.79410208126
 22
76.71442662994604
 32
0.0
 13
115.79410208126
 23
76.71442662994604
 33
0.0
  0
SOLID
  5
3120
330
E82
100
AcDbEntity
  8
AM_5
100
AcDbTrace
 10
292.7945149982154
 20
77.21442662994604
 30
0.0
 11
292.7945149982154
 21
76.21442662994605
 31
0.0
 12
295.7945149982153
 22
76.71442662994604
 32
0.0
 13
295.7945149982153
 23
76.71442662994604
 33
0.0
  0
MTEXT
  5
3121
330
E82
100
AcDbEntity
  8
AM_5
100
AcDbMText
 10
205.7943085397377
 20
79.46442662994605
 30
0.0
 40
3.5
 41
0.0
 71
     5
 72
     1
  1
180+Stroke
 73
     1
 44
1.0
1001
ACAD
1000
MTEXTBEGIN
1070
    73
1070
     1
1070
    44
1040
1.0
1070
    74
1070
     0
1000
MTEXTEND
  0
POINT
  5
3122
330
E82
100
AcDbEntity
  8
Defpoints
 62
     0
100
AcDbPoint
 10
115.79410208126
 20
104.714426629946
 30
0.0
  0
POINT
  5
3123
330
E82
100
AcDbEntity
  8
Defpoints
 62
     0
100
AcDbPoint
 10
295.7945149982153
 20
122.214426629946
 30
0.0
  0
POINT
  5
3124
330
E82
100
AcDbEntity
  8
Defpoints
 62
     0
100
AcDbPoint
 10
295.7945149982153
 20
76.71442662994604
 30
0.0
  0
ENDBLK
  5
E8D
330
E82
100
AcDbEntity
  8
0
100
AcDbBlockEnd
  0
BLOCK
  5
117F
330
1175
100
AcDbEntity
  8
0
100
AcDbBlockBegin
  2
*D8
 70
     1
 10
0.0
 20
0.0
 30
0.0
  3
*D8
  1

  0
LINE
  5
3125
330
1175
100
AcDbEntity
  8
AM_5
100
AcDbLine
 10
277.5441020812599
 20
143.214426629946
 30
0.0
 11
334.7404443171047
 21
143.214426629946
 31
0.0
  0
LINE
  5
3126
330
1175
100
AcDbEntity
  8
AM_5
100
AcDbLine
 10
277.5441020812599
 20
113.214426629946
 30
0.0
 11
334.7404443171046
 21
113.214426629946
 31
0.0
  0
LINE
  5
3127
330
1175
100
AcDbEntity
  8
AM_5
100
AcDbLine
 10
333.7404443171047
 20
140.214426629946
 30
0.0
 11
333.7404443171046
 21
116.214426629946
 31
0.0
  0
SOLID
  5
3128
330
1175
100
AcDbEntity
  8
AM_5
100
AcDbTrace
 10
333.2404443171047
 20
140.214426629946
 30
0.0
 11
334.2404443171047
 21
140.214426629946
 31
0.0
 12
333.7404443171047
 22
143.214426629946
 32
0.0
 13
333.7404443171047
 23
143.214426629946
 33
0.0
  0
SOLID
  5
3129
330
1175
100
AcDbEntity
  8
AM_5
100
AcDbTrace
 10
333.2404443171046
 20
116.214426629946
 30
0.0
 11
334.2404443171046
 21
116.214426629946
 31
0.0
 12
333.7404443171046
 22
113.214426629946
 32
0.0
 13
333.7404443171046
 23
113.214426629946
 33
0.0
  0
MTEXT
  5
312A
330
1175
100
AcDbEntity
  8
AM_5
100
AcDbMText
 10
330.9904443171046
 20
128.2144266299461
 30
0.0
 40
3.5
 41
0.0
 71
     5
 72
     1
  1
%%c30
 11
0.0000000000000001
 21
1.0
 31
0.0
 73
     1
 44
1.0
1001
ACAD
1000
MTEXTBEGIN
1070
    73
1070
     1
1070
    44
1040
1.0
1070
    74
1070
     0
1000
MTEXTEND
  0
POINT
  5
312B
330
1175
100
AcDbEntity
  8
Defpoints
 62
     0
100
AcDbPoint
 10
276.54410208126
 20
143.214426629946
 30
0.0
  0
POINT
  5
312C
330
1175
100
AcDbEntity
  8
Defpoints
 62
     0
100
AcDbPoint
 10
276.54410208126
 20
113.214426629946
 30
0.0
  0
POINT
  5
312D
330
1175
100
AcDbEntity
  8
Defpoints
 62
     0
100
AcDbPoint
 10
333.7404443171046
 20
113.214426629946
 30
0.0
  0
ENDBLK
  5
1180
330
1175
100
AcDbEntity
  8
0
100
AcDbBlockEnd
  0
BLOCK
  5
119E
330
1194
100
AcDbEntity
  8
0
100
AcDbBlockBegin
  2
*D9
 70
     1
 10
0.0
 20
0.0
 30
0.0
  3
*D9
  1

  0
LINE
  5
312E
330
1194
100
AcDbEntity
  8
AM_5
100
AcDbLine
 10
289.7941020812599
 20
134.214426629946
 30
0.0
 11
326.8192721515363
 21
134.214426629946
 31
0.0
  0
LINE
  5
312F
330
1194
100
AcDbEntity
  8
AM_5
100
AcDbLine
 10
289.7941020812599
 20
122.214426629946
 30
0.0
 11
326.8192721515362
 21
122.214426629946
 31
0.0
  0
LINE
  5
3130
330
1194
100
AcDbEntity
  8
AM_5
100
AcDbLine
 10
325.8192721515363
 20
131.214426629946
 30
0.0
 11
325.8192721515363
 21
125.214426629946
 31
0.0
  0
SOLID
  5
3131
330
1194
100
AcDbEntity
  8
AM_5
100
AcDbTrace
 10
325.3192721515363
 20
131.214426629946
 30
0.0
 11
326.3192721515363
 21
131.214426629946
 31
0.0
 12
325.8192721515363
 22
134.214426629946
 32
0.0
 13
325.8192721515363
 23
134.214426629946
 33
0.0
  0
SOLID
  5
3132
330
1194
100
AcDbEntity
  8
AM_5
100
AcDbTrace
 10
325.3192721515363
 20
125.214426629946
 30
0.0
 11
326.3192721515363
 21
125.214426629946
 31
0.0
 12
325.8192721515363
 22
122.214426629946
 32
0.0
 13
325.8192721515363
 23
122.214426629946
 33
0.0
  0
MTEXT
  5
3133
330
1194
100
AcDbEntity
  8
AM_5
100
AcDbMText
 10
323.0689276633473
 20
128.2144266299461
 30
0.0
 40
3.5
 41
0.0
 71
     5
 72
     1
  1
%%c12
 11
0.0000000000000001
 21
1.0
 31
0.0
 73
     1
 44
1.0
1001
ACAD
1000
MTEXTBEGIN
1070
    73
1070
     1
1070
    44
1040
1.0
1070
    74
1070
     0
1000
MTEXTEND
  0
POINT
  5
3134
330
1194
100
AcDbEntity
  8
Defpoints
 62
     0
100
AcDbPoint
 10
288.79410208126
 20
134.214426629946
 30
0.0
  0
POINT
  5
3135
330
1194
100
AcDbEntity
  8
Defpoints
 62
     0
100
AcDbPoint
 10
288.79410208126
 20
122.214426629946
 30
0.0
  0
POINT
  5
3136
330
1194
100
AcDbEntity
  8
Defpoints
 62
     0
100
AcDbPoint
 10
325.8192721515363
 20
122.214426629946
 30
0.0
  0
ENDBLK
  5
119F
330
1194
100
AcDbEntity
  8
0
100
AcDbBlockEnd
  0
BLOCK
  5
11F5
330
11EB
100
AcDbEntity
  8
0
100
AcDbBlockBegin
  2
*D10
 70
     1
 10
0.0
 20
0.0
 30
0.0
  3
*D10
  1

  0
LINE
  5
3137
330
11EB
100
AcDbEntity
  8
AM_5
100
AcDbLine
 10
111.79410208126
 20
143.214426629946
 30
0.0
 11
98.3372253178023
 21
143.214426629946
 31
0.0
  0
LINE
  5
3138
330
11EB
100
AcDbEntity
  8
AM_5
100
AcDbLine
 10
111.79410208126
 20
113.214426629946
 30
0.0
 11
98.3372253178023
 21
113.214426629946
 31
0.0
  0
LINE
  5
3139
330
11EB
100
AcDbEntity
  8
AM_5
100
AcDbLine
 10
99.3372253178023
 20
140.214426629946
 30
0.0
 11
99.3372253178023
 21
116.214426629946
 31
0.0
  0
SOLID
  5
313A
330
11EB
100
AcDbEntity
  8
AM_5
100
AcDbTrace
 10
98.83722531780229
 20
140.214426629946
 30
0.0
 11
99.8372253178023
 21
140.214426629946
 31
0.0
 12
99.3372253178023
 22
143.214426629946
 32
0.0
 13
99.3372253178023
 23
143.214426629946
 33
0.0
  0
SOLID
  5
313B
330
11EB
100
AcDbEntity
  8
AM_5
100
AcDbTrace
 10
98.83722531780229
 20
116.214426629946
 30
0.0
 11
99.8372253178023
 21
116.214426629946
 31
0.0
 12
99.3372253178023
 22
113.214426629946
 32
0.0
 13
99.3372253178023
 23
113.214426629946
 33
0.0
  0
MTEXT
  5
313C
330
11EB
100
AcDbEntity
  8
AM_5
100
AcDbMText
 10
96.58722531780227
 20
128.2144266299461
 30
0.0
 40
3.5
 41
0.0
 71
     5
 72
     1
  1
%%c30
 11
0.0000000000000001
 21
1.0
 31
0.0
 73
     1
 44
1.0
1001
ACAD
1000
MTEXTBEGIN
1070
    73
1070
     1
1070
    44
1040
1.0
1070
    74
1070
     0
1000
MTEXTEND
  0
POINT
  5
313D
330
11EB
100
AcDbEntity
  8
Defpoints
 62
     0
100
AcDbPoint
 10
112.79410208126
 20
143.214426629946
 30
0.0
  0
POINT
  5
313E
330
11EB
100
AcDbEntity
  8
Defpoints
 62
     0
100
AcDbPoint
 10
112.79410208126
 20
113.214426629946
 30
0.0
  0
POINT
  5
313F
330
11EB
100
AcDbEntity
  8
Defpoints
 62
     0
100
AcDbPoint
 10
99.3372253178023
 20
113.214426629946
 30
0.0
  0
ENDBLK
  5
11F6
330
11EB
100
AcDbEntity
  8
0
100
AcDbBlockEnd
  0
BLOCK
  5
1213
330
120A
100
AcDbEntity
  8
0
100
AcDbBlockBegin
  2
*D11
 70
     1
 10
0.0
 20
0.0
 30
0.0
  3
*D11
  1

  0
LINE
  5
3140
330
120A
100
AcDbEntity
  8
AM_5
100
AcDbLine
 10
140.0099296239114
 20
117.8525312174169
 30
0.0
 11
145.3346281453353
 21
95.41786258924332
 31
0.0
  0
LINE
  5
3141
330
120A
100
AcDbEntity
  8
AM_5
100
AcDbLine
 10
145.3346281453353
 20
95.41786258924332
 30
0.0
 11
159.7235060980912
 21
95.41786258924334
 31
0.0
  0
SOLID
  5
3142
330
120A
100
AcDbEntity
  8
AM_5
100
AcDbTrace
 10
140.4153342112071
 20
117.9487509228348
 30
0.0
 11
139.6045250366157
 21
117.756311511999
 31
0.0
 12
139.4326113914038
 22
120.2849587411911
 32
0.0
 13
139.4326113914038
 23
120.2849587411911
 33
0.0
  0
MTEXT
  5
3143
330
120A
100
AcDbEntity
  8
AM_5
100
AcDbMText
 10
153.0290671217133
 20
98.17408102278157
 30
0.0
 40
3.5
 41
0.0
 71
     5
 72
     1
  1
2-G1/8
 73
     1
 44
1.0
1001
ACAD
1000
MTEXTBEGIN
1070
    73
1070
     1
1070
    44
1040
1.0
1070
    74
1070
     0
1000
MTEXTEND
  0
POINT
  5
3144
330
120A
100
AcDbEntity
  8
Defpoints
 62
     0
100
AcDbPoint
 10
139.4326113914038
 20
120.2849587411911
 30
0.0
  0
POINT
  5
3145
330
120A
100
AcDbEntity
  8
Defpoints
 62
     0
100
AcDbPoint
 10
137.2388021078748
 20
129.5281833315332
 30
0.0
  0
ENDBLK
  5
1214
330
120A
100
AcDbEntity
  8
0
100
AcDbBlockEnd
  0
BLOCK
  5
1B23
330
1B1E
100
AcDbEntity
  8
0
100
AcDbBlockBegin
  2
A$C453B67D5
 70
     0
 10
0.0
 20
0.0
 30
0.0
  3
A$C453B67D5
  1

  0
TEXT
  5
1B1F
330
1B1E
100
AcDbEntity
  8
0
 62
     4
100
AcDbText
 10
0.0000000042221018
 20
15.6750728935973
 30
0.0
 40
3.0
  1
0
 41
0.75
  7
CHINESET
100
AcDbText
  0
LINE
  5
1B20
330
1B1E
100
AcDbEntity
  8
0
 62
     4
100
AcDbLine
 10
0.7831209408720952
 20
-0.0000001285146709
 30
0.0
 11
0.7831209408720952
 21
12.50658996549839
 31
0.0
  0
TEXT
  5
1B21
330
1B1E
100
AcDbEntity
  8
0
 62
     4
100
AcDbText
 10
5.354910616106053
 20
16.42400857412451
 30
0.0
 40
3.0
  1
Stroke
 41
0.75
  7
CHINESET
100
AcDbText
  0
ENDBLK
  5
1B24
330
1B1E
100
AcDbEntity
  8
0
100
AcDbBlockEnd
  0
BLOCK
  5
1B2C
330
1B27
100
AcDbEntity
  8
0
100
AcDbBlockBegin
  2
A$C17481420
 70
     0
 10
0.0
 20
0.0
 30
0.0
  3
A$C17481420
  1

  0
LINE
  5
1B28
330
1B27
100
AcDbEntity
  8
SL
100
AcDbLine
 10
14.92688374510175
 20
0.6911761177026392
 30
0.0
 11
5.249999590827769
 21
0.6911761177026392
 31
0.0
  0
TRACE
  5
1B29
330
1B27
100
AcDbEntity
  8
SL
370
    35
100
AcDbTrace
 10
5.249999590827769
 20
1.382351726952606
 30
0.0
 11
5.249999590827769
 21
0.000000508452672
 31
0.0
 12
-0.0000004091722303
 22
0.6911761177026392
 32
0.0
 13
-0.0000004091722303
 23
0.6911761177026392
 33
0.0
  0
MTEXT
  5
1B2A
330
1B27
100
AcDbEntity
  8
SL
100
AcDbMText
 10
7.091092156233571
 20
2.131627989433411
 30
0.0
 40
3.674999999999999
 41
0.0
 71
     7
 72
     5
  1
SL
  7
ACISOTS
 73
     1
 44
1.0
1001
ACAD
1000
MTEXTBEGIN
1070
    73
1070
     1
1070
    44
1040
1.0
1070
    74
1070
     0
1000
MTEXTEND
  0
ENDBLK
  5
1B2D
330
1B27
100
AcDbEntity
  8
0
100
AcDbBlockEnd
  0
BLOCK
  5
27B1
330
27AA
100
AcDbEntity
  8
0
100
AcDbBlockBegin
  2
*D15
 70
     1
 10
0.0
 20
0.0
 30
0.0
  3
*D15
  1

  0
LINE
  5
3146
330
27AA
100
AcDbEntity
  8
AM_5
100
AcDbLine
 10
234.4132270849927
 20
106.7532649632212
 30
0.0
 11
231.1346148022142
 21
96.04266477179299
 31
0.0
  0
LINE
  5
3147
330
27AA
100
AcDbEntity
  8
AM_5
100
AcDbLine
 10
231.1346148022142
 20
96.04266477179299
 30
0.0
 11
221.553396368676
 21
96.04266477179297
 31
0.0
  0
SOLID
  5
3148
330
27AA
100
AcDbEntity
  8
AM_5
100
AcDbTrace
 10
234.0148089493055
 20
106.8752243837951
 30
0.0
 11
234.8116452206797
 21
106.6313055426473
 31
0.0
 12
235.1449836084361
 22
109.1437737773439
 32
0.0
 13
235.1449836084361
 23
109.1437737773439
 33
0.0
  0
MTEXT
  5
3149
330
27AA
100
AcDbEntity
  8
AM_5
100
AcDbMText
 10
225.8440055854451
 20
98.79888320533122
 30
0.0
 40
3.5
 41
0.0
 71
     5
 72
     1
  1
G1/8
 73
     1
 44
1.0
1001
ACAD
1000
MTEXTBEGIN
1070
    73
1070
     1
1070
    44
1040
1.0
1070
    74
1070
     0
1000
MTEXTEND
  0
POINT
  5
314A
330
27AA
100
AcDbEntity
  8
Defpoints
 62
     0
100
AcDbPoint
 10
235.1449836084361
 20
109.1437737773439
 30
0.0
  0
POINT
  5
314B
330
27AA
100
AcDbEntity
  8
Defpoints
 62
     0
100
AcDbPoint
 10
236.54410208126
 20
113.7144266299461
 30
0.0
  0
ENDBLK
  5
27B2
330
27AA
100
AcDbEntity
  8
0
100
AcDbBlockEnd
  0
BLOCK
  5
28EA
330
28E0
100
AcDbEntity
  8
0
100
AcDbBlockBegin
  2
*D16
 70
     1
 10
0.0
 20
0.0
 30
0.0
  3
*D16
  1

  0
LINE
  5
31CC
330
28E0
100
AcDbEntity
  8
AM_5
100
AcDbLine
 10
309.79410208126
 20
218.0548709840706
 30
0.0
 11
341.8393776998438
 21
218.0548709840706
 31
0.0
  0
LINE
  5
31CD
330
28E0
100
AcDbEntity
  8
AM_5
100
AcDbLine
 10
309.79410208126
 20
208.0548709840706
 30
0.0
 11
341.8393776998438
 21
208.0548709840706
 31
0.0
  0
LINE
  5
31CE
330
28E0
100
AcDbEntity
  8
AM_5
100
AcDbLine
 10
340.8393776998439
 20
215.0548709840705
 30
0.0
 11
340.8393776998439
 21
211.0548709840706
 31
0.0
  0
SOLID
  5
31CF
330
28E0
100
AcDbEntity
  8
AM_5
100
AcDbTrace
 10
340.3393776998438
 20
215.0548709840705
 30
0.0
 11
341.3393776998439
 21
215.0548709840705
 31
0.0
 12
340.8393776998439
 22
218.0548709840706
 32
0.0
 13
340.8393776998439
 23
218.0548709840706
 33
0.0
  0
SOLID
  5
31D0
330
28E0
100
AcDbEntity
  8
AM_5
100
AcDbTrace
 10
340.3393776998438
 20
211.0548709840706
 30
0.0
 11
341.3393776998439
 21
211.0548709840706
 31
0.0
 12
340.8393776998439
 22
208.0548709840706
 32
0.0
 13
340.8393776998439
 23
208.0548709840706
 33
0.0
  0
MTEXT
  5
31D1
330
28E0
100
AcDbEntity
  8
AM_5
100
AcDbMText
 10
338.0893776998438
 20
213.0548709840706
 30
0.0
 40
3.5
 41
0.0
 71
     5
 72
     1
  1
10
 11
0.0000000000000001
 21
1.0
 31
0.0
 73
     1
 44
1.0
1001
ACAD
1000
MTEXTBEGIN
1070
    73
1070
     1
1070
    44
1040
1.0
1070
    74
1070
     0
1000
MTEXTEND
  0
POINT
  5
31D2
330
28E0
100
AcDbEntity
  8
Defpoints
 62
     0
100
AcDbPoint
 10
308.7941020812599
 20
218.0548709840706
 30
0.0
  0
POINT
  5
31D3
330
28E0
100
AcDbEntity
  8
Defpoints
 62
     0
100
AcDbPoint
 10
308.7941020812599
 20
208.0548709840706
 30
0.0
  0
POINT
  5
31D4
330
28E0
100
AcDbEntity
  8
Defpoints
 62
     0
100
AcDbPoint
 10
340.8393776998439
 20
208.0548709840706
 30
0.0
  0
ENDBLK
  5
28EB
330
28E0
100
AcDbEntity
  8
0
100
AcDbBlockEnd
  0
BLOCK
  5
2B43
330
2B39
100
AcDbEntity
  8
0
100
AcDbBlockBegin
  2
*D17
 70
     1
 10
0.0
 20
0.0
 30
0.0
  3
*D17
  1

  0
LINE
  5
3155
330
2B39
100
AcDbEntity
  8
AM_5
100
AcDbLine
 10
135.7941020812605
 20
131.2144266299459
 30
0.0
 11
135.7941020812605
 21
164.7144266299459
 31
0.0
  0
LINE
  5
3156
330
2B39
100
AcDbEntity
  8
AM_5
100
AcDbLine
 10
115.79410208126
 20
152.7144266299459
 30
0.0
 11
115.79410208126
 21
164.7144266299459
 31
0.0
  0
LINE
  5
3157
330
2B39
100
AcDbEntity
  8
AM_5
100
AcDbLine
 10
132.7941020812605
 20
163.7144266299459
 30
0.0
 11
118.79410208126
 21
163.7144266299459
 31
0.0
  0
SOLID
  5
3158
330
2B39
100
AcDbEntity
  8
AM_5
100
AcDbTrace
 10
132.7941020812605
 20
164.2144266299459
 30
0.0
 11
132.7941020812605
 21
163.2144266299459
 31
0.0
 12
135.7941020812605
 22
163.7144266299459
 32
0.0
 13
135.7941020812605
 23
163.7144266299459
 33
0.0
  0
SOLID
  5
3159
330
2B39
100
AcDbEntity
  8
AM_5
100
AcDbTrace
 10
118.79410208126
 20
164.2144266299459
 30
0.0
 11
118.79410208126
 21
163.2144266299459
 31
0.0
 12
115.79410208126
 22
163.7144266299459
 32
0.0
 13
115.79410208126
 23
163.7144266299459
 33
0.0
  0
MTEXT
  5
315A
330
2B39
100
AcDbEntity
  8
AM_5
100
AcDbMText
 10
125.7941020812603
 20
166.4647711181349
 30
0.0
 40
3.5
 41
0.0
 71
     5
 72
     1
  1
20
 73
     1
 44
1.0
1001
ACAD
1000
MTEXTBEGIN
1070
    73
1070
     1
1070
    44
1040
1.0
1070
    74
1070
     0
1000
MTEXTEND
  0
POINT
  5
315B
330
2B39
100
AcDbEntity
  8
Defpoints
 62
     0
100
AcDbPoint
 10
135.7941020812605
 20
130.2144266299459
 30
0.0
  0
POINT
  5
315C
330
2B39
100
AcDbEntity
  8
Defpoints
 62
     0
100
AcDbPoint
 10
115.79410208126
 20
151.7144266299459
 30
0.0
  0
POINT
  5
315D
330
2B39
100
AcDbEntity
  8
Defpoints
 62
     0
100
AcDbPoint
 10
115.79410208126
 20
163.7144266299459
 30
0.0
  0
ENDBLK
  5
2B44
330
2B39
100
AcDbEntity
  8
0
100
AcDbBlockEnd
  0
BLOCK
  5
2B5B
330
2B4F
100
AcDbEntity
  8
0
100
AcDbBlockBegin
  2
*D18
 70
     1
 10
0.0
 20
0.0
 30
0.0
  3
*D18
  1

  0
LINE
  5
315E
330
2B4F
100
AcDbEntity
  8
AM_5
100
AcDbLine
 10
107.614369910455
 20
128.2144266299461
 30
0.0
 11
106.7760398876538
 21
128.2144266299461
 31
0.0
  0
LINE
  5
315F
330
2B4F
100
AcDbEntity
  8
AM_5
100
AcDbLine
 10
128.2941020812605
 20
123.7144266299459
 30
0.0
 11
106.7760398876538
 21
123.7144266299459
 31
0.0
  0
LINE
  5
3160
330
2B4F
100
AcDbEntity
  8
AM_5
100
AcDbLine
 10
107.7760398876538
 20
131.214426629946
 30
0.0
 11
107.7760398876538
 21
134.214426629946
 31
0.0
  0
LINE
  5
3161
330
2B4F
100
AcDbEntity
  8
AM_5
100
AcDbLine
 10
107.7760398876538
 20
120.7144266299459
 30
0.0
 11
107.7760398876538
 21
117.7144266299459
 31
0.0
  0
LINE
  5
3162
330
2B4F
100
AcDbEntity
  8
AM_5
100
AcDbLine
 10
107.7760398876538
 20
128.2144266299461
 30
0.0
 11
107.7760398876538
 21
123.7144266299459
 31
0.0
  0
SOLID
  5
3163
330
2B4F
100
AcDbEntity
  8
AM_5
100
AcDbTrace
 10
107.2760398876538
 20
131.214426629946
 30
0.0
 11
108.2760398876538
 21
131.214426629946
 31
0.0
 12
107.7760398876538
 22
128.2144266299461
 32
0.0
 13
107.7760398876538
 23
128.2144266299461
 33
0.0
  0
SOLID
  5
3164
330
2B4F
100
AcDbEntity
  8
AM_5
100
AcDbTrace
 10
107.2760398876538
 20
120.7144266299459
 30
0.0
 11
108.2760398876538
 21
120.7144266299459
 31
0.0
 12
107.7760398876538
 22
123.7144266299459
 32
0.0
 13
107.7760398876538
 23
123.7144266299459
 33
0.0
  0
MTEXT
  5
3165
330
2B4F
100
AcDbEntity
  8
AM_5
100
AcDbMText
 10
105.0260398876537
 20
125.964426629946
 30
0.0
 40
3.5
 41
0.0
 71
     5
 72
     1
  1
4.5
 11
0.0000000000000001
 21
1.0
 31
0.0
 73
     1
 44
1.0
1001
ACAD
1000
MTEXTBEGIN
1070
    73
1070
     1
1070
    44
1040
1.0
1070
    74
1070
     0
1000
MTEXTEND
  0
POINT
  5
3166
330
2B4F
100
AcDbEntity
  8
Defpoints
 62
     0
100
AcDbPoint
 10
108.614369910455
 20
128.2144266299461
 30
0.0
  0
POINT
  5
3167
330
2B4F
100
AcDbEntity
  8
Defpoints
 62
     0
100
AcDbPoint
 10
129.2941020812605
 20
123.7144266299459
 30
0.0
  0
POINT
  5
3168
330
2B4F
100
AcDbEntity
  8
Defpoints
 62
     0
100
AcDbPoint
 10
107.7760398876538
 20
123.7144266299459
 30
0.0
  0
ENDBLK
  5
2B5C
330
2B4F
100
AcDbEntity
  8
0
100
AcDbBlockEnd
  0
BLOCK
  5
2B73
330
2B69
100
AcDbEntity
  8
0
100
AcDbBlockBegin
  2
*D19
 70
     1
 10
0.0
 20
0.0
 30
0.0
  3
*D19
  1

  0
LINE
  5
3169
330
2B69
100
AcDbEntity
  8
AM_5
100
AcDbLine
 10
115.79410208126
 20
152.7144266299459
 30
0.0
 11
115.79410208126
 21
174.7144266299459
 31
0.0
  0
LINE
  5
316A
330
2B69
100
AcDbEntity
  8
AM_5
100
AcDbLine
 10
146.29410208126
 20
152.7144266299459
 30
0.0
 11
146.29410208126
 21
174.7144266299459
 31
0.0
  0
LINE
  5
316B
330
2B69
100
AcDbEntity
  8
AM_5
100
AcDbLine
 10
118.79410208126
 20
173.7144266299459
 30
0.0
 11
143.29410208126
 21
173.7144266299459
 31
0.0
  0
SOLID
  5
316C
330
2B69
100
AcDbEntity
  8
AM_5
100
AcDbTrace
 10
118.79410208126
 20
174.2144266299459
 30
0.0
 11
118.79410208126
 21
173.2144266299459
 31
0.0
 12
115.79410208126
 22
173.7144266299459
 32
0.0
 13
115.79410208126
 23
173.7144266299459
 33
0.0
  0
SOLID
  5
316D
330
2B69
100
AcDbEntity
  8
AM_5
100
AcDbTrace
 10
143.29410208126
 20
174.2144266299459
 30
0.0
 11
143.29410208126
 21
173.2144266299459
 31
0.0
 12
146.29410208126
 22
173.7144266299459
 32
0.0
 13
146.29410208126
 23
173.7144266299459
 33
0.0
  0
MTEXT
  5
316E
330
2B69
100
AcDbEntity
  8
AM_5
100
AcDbMText
 10
131.04410208126
 20
176.4644266299459
 30
0.0
 40
3.5
 41
0.0
 71
     5
 72
     1
  1
30.5
 73
     1
 44
1.0
1001
ACAD
1000
MTEXTBEGIN
1070
    73
1070
     1
1070
    44
1040
1.0
1070
    74
1070
     0
1000
MTEXTEND
  0
POINT
  5
316F
330
2B69
100
AcDbEntity
  8
Defpoints
 62
     0
100
AcDbPoint
 10
115.79410208126
 20
151.7144266299459
 30
0.0
  0
POINT
  5
3170
330
2B69
100
AcDbEntity
  8
Defpoints
 62
     0
100
AcDbPoint
 10
146.29410208126
 20
151.7144266299459
 30
0.0
  0
POINT
  5
3171
330
2B69
100
AcDbEntity
  8
Defpoints
 62
     0
100
AcDbPoint
 10
146.29410208126
 20
173.7144266299459
 30
0.0
  0
ENDBLK
  5
2B74
330
2B69
100
AcDbEntity
  8
0
100
AcDbBlockEnd
  0
BLOCK
  5
2B89
330
2B7F
100
AcDbEntity
  8
0
100
AcDbBlockBegin
  2
*D20
 70
     1
 10
0.0
 20
0.0
 30
0.0
  3
*D20
  1

  0
LINE
  5
3172
330
2B7F
100
AcDbEntity
  8
AM_5
100
AcDbLine
 10
189.7941020812605
 20
131.2144266299461
 30
0.0
 11
189.7941020812605
 21
164.7144266299458
 31
0.0
  0
LINE
  5
3173
330
2B7F
100
AcDbEntity
  8
AM_5
100
AcDbLine
 10
209.7941020812601
 20
152.7144266299459
 30
0.0
 11
209.7941020812601
 21
164.7144266299458
 31
0.0
  0
LINE
  5
3174
330
2B7F
100
AcDbEntity
  8
AM_5
100
AcDbLine
 10
192.7941020812605
 20
163.7144266299458
 30
0.0
 11
206.7941020812601
 21
163.7144266299458
 31
0.0
  0
SOLID
  5
3175
330
2B7F
100
AcDbEntity
  8
AM_5
100
AcDbTrace
 10
192.7941020812605
 20
164.2144266299458
 30
0.0
 11
192.7941020812605
 21
163.2144266299458
 31
0.0
 12
189.7941020812605
 22
163.7144266299458
 32
0.0
 13
189.7941020812605
 23
163.7144266299458
 33
0.0
  0
SOLID
  5
3176
330
2B7F
100
AcDbEntity
  8
AM_5
100
AcDbTrace
 10
206.7941020812601
 20
164.2144266299458
 30
0.0
 11
206.7941020812601
 21
163.2144266299458
 31
0.0
 12
209.7941020812601
 22
163.7144266299458
 32
0.0
 13
209.7941020812601
 23
163.7144266299458
 33
0.0
  0
MTEXT
  5
3177
330
2B7F
100
AcDbEntity
  8
AM_5
100
AcDbMText
 10
199.7941020812603
 20
166.4647711181347
 30
0.0
 40
3.5
 41
0.0
 71
     5
 72
     1
  1
20
 73
     1
 44
1.0
1001
ACAD
1000
MTEXTBEGIN
1070
    73
1070
     1
1070
    44
1040
1.0
1070
    74
1070
     0
1000
MTEXTEND
  0
POINT
  5
3178
330
2B7F
100
AcDbEntity
  8
Defpoints
 62
     0
100
AcDbPoint
 10
189.7941020812605
 20
130.2144266299461
 30
0.0
  0
POINT
  5
3179
330
2B7F
100
AcDbEntity
  8
Defpoints
 62
     0
100
AcDbPoint
 10
209.7941020812601
 20
151.7144266299459
 30
0.0
  0
POINT
  5
317A
330
2B7F
100
AcDbEntity
  8
Defpoints
 62
     0
100
AcDbPoint
 10
209.7941020812601
 20
163.7144266299458
 30
0.0
  0
ENDBLK
  5
2B8A
330
2B7F
100
AcDbEntity
  8
0
100
AcDbBlockEnd
  0
BLOCK
  5
2B9F
330
2B95
100
AcDbEntity
  8
0
100
AcDbBlockBegin
  2
*D21
 70
     1
 10
0.0
 20
0.0
 30
0.0
  3
*D21
  1

  0
LINE
  5
317B
330
2B95
100
AcDbEntity
  8
AM_5
100
AcDbLine
 10
179.29410208126
 20
152.7144266299459
 30
0.0
 11
179.29410208126
 21
174.7144266299458
 31
0.0
  0
LINE
  5
317C
330
2B95
100
AcDbEntity
  8
AM_5
100
AcDbLine
 10
209.7941020812601
 20
152.7144266299459
 30
0.0
 11
209.7941020812601
 21
174.7144266299458
 31
0.0
  0
LINE
  5
317D
330
2B95
100
AcDbEntity
  8
AM_5
100
AcDbLine
 10
182.29410208126
 20
173.7144266299458
 30
0.0
 11
206.7941020812601
 21
173.7144266299458
 31
0.0
  0
SOLID
  5
317E
330
2B95
100
AcDbEntity
  8
AM_5
100
AcDbTrace
 10
182.29410208126
 20
174.2144266299458
 30
0.0
 11
182.29410208126
 21
173.2144266299458
 31
0.0
 12
179.29410208126
 22
173.7144266299458
 32
0.0
 13
179.29410208126
 23
173.7144266299458
 33
0.0
  0
SOLID
  5
317F
330
2B95
100
AcDbEntity
  8
AM_5
100
AcDbTrace
 10
206.7941020812601
 20
174.2144266299458
 30
0.0
 11
206.7941020812601
 21
173.2144266299458
 31
0.0
 12
209.7941020812601
 22
173.7144266299458
 32
0.0
 13
209.7941020812601
 23
173.7144266299458
 33
0.0
  0
MTEXT
  5
3180
330
2B95
100
AcDbEntity
  8
AM_5
100
AcDbMText
 10
194.54410208126
 20
176.4644266299458
 30
0.0
 40
3.5
 41
0.0
 71
     5
 72
     1
  1
30.5
 73
     1
 44
1.0
1001
ACAD
1000
MTEXTBEGIN
1070
    73
1070
     1
1070
    44
1040
1.0
1070
    74
1070
     0
1000
MTEXTEND
  0
POINT
  5
3181
330
2B95
100
AcDbEntity
  8
Defpoints
 62
     0
100
AcDbPoint
 10
179.29410208126
 20
151.7144266299459
 30
0.0
  0
POINT
  5
3182
330
2B95
100
AcDbEntity
  8
Defpoints
 62
     0
100
AcDbPoint
 10
209.7941020812601
 20
151.7144266299459
 30
0.0
  0
POINT
  5
3183
330
2B95
100
AcDbEntity
  8
Defpoints
 62
     0
100
AcDbPoint
 10
209.7941020812601
 20
173.7144266299458
 30
0.0
  0
ENDBLK
  5
2BA0
330
2B95
100
AcDbEntity
  8
0
100
AcDbBlockEnd
  0
BLOCK
  5
2D58
330
2D56
100
AcDbEntity
  8
0
100
AcDbBlockBegin
  2
A$C6896536C
 70
     0
 10
0.0
 20
0.0
 30
0.0
  3
A$C6896536C
  1

  0
LEADER
  5
2D59
330
2D56
100
AcDbEntity
  8
1
100
AcDbLeader
  3
AM_ISO$7
 76
     2
 10
0.0000000000009095
 20
1.166665247989385
 30
0.0
 10
14.8373054244048
 20
1.166665247989385
 30
0.0
1001
ACAD
1000
DSTYLE
1002
{
1070
    41
1040
3.5
1070
   147
1040
1.5
1070
    77
1070
     1
1070
    40
1040
2.0
1002
}
  0
MTEXT
  5
2D5A
330
2D56
100
AcDbEntity
  8
1
100
AcDbMText
 10
5.488395901823423
 20
8.243041517246183
 30
0.0
 40
4.5
 41
10.70304085292628
 71
     1
 72
     5
  1
SL
  7
CHINESET
 73
     1
 44
1.0
1001
ACAD
1000
MTEXTBEGIN
1070
    73
1070
     1
1070
    44
1040
1.0
1070
    74
1070
     0
1000
MTEXTEND
  0
ENDBLK
  5
2D5B
330
2D56
100
AcDbEntity
  8
0
100
AcDbBlockEnd
  0
BLOCK
  5
2DCE
330
2DCC
100
AcDbEntity
  8
0
100
AcDbBlockBegin
  2
MCBQV2-63
 70
     0
 10
0.0
 20
0.0
 30
0.0
  3
MCBQV2-63
  1

  0
ENDBLK
  5
2DCF
330
2DCC
100
AcDbEntity
  8
0
100
AcDbBlockEnd
  0
BLOCK
  5
2F7C
330
2F72
100
AcDbEntity
  8
0
100
AcDbBlockBegin
  2
*D25
 70
     1
 10
0.0
 20
0.0
 30
0.0
  3
*D25
  1

  0
LINE
  5
3184
330
2F72
100
AcDbEntity
  8
AM_5
100
AcDbLine
 10
400.8406158801368
 20
105.7434839073374
 30
0.0
 11
400.8406158801368
 21
93.42767453565238
 31
0.0
  0
LINE
  5
3185
330
2F72
100
AcDbEntity
  8
AM_5
100
AcDbLine
 10
368.3406158801368
 20
105.7434839073374
 30
0.0
 11
368.3406158801368
 21
93.42767453565238
 31
0.0
  0
LINE
  5
3186
330
2F72
100
AcDbEntity
  8
AM_5
100
AcDbLine
 10
397.8406158801369
 20
94.42767453565238
 30
0.0
 11
371.3406158801368
 21
94.42767453565238
 31
0.0
  0
SOLID
  5
3187
330
2F72
100
AcDbEntity
  8
AM_5
100
AcDbTrace
 10
397.8406158801369
 20
94.92767453565239
 30
0.0
 11
397.8406158801369
 21
93.92767453565239
 31
0.0
 12
400.8406158801368
 22
94.42767453565238
 32
0.0
 13
400.8406158801368
 23
94.42767453565238
 33
0.0
  0
SOLID
  5
3188
330
2F72
100
AcDbEntity
  8
AM_5
100
AcDbTrace
 10
371.3406158801368
 20
94.92767453565239
 30
0.0
 11
371.3406158801368
 21
93.92767453565239
 31
0.0
 12
368.3406158801368
 22
94.42767453565238
 32
0.0
 13
368.3406158801368
 23
94.42767453565238
 33
0.0
  0
MTEXT
  5
3189
330
2F72
100
AcDbEntity
  8
AM_5
100
AcDbMText
 10
384.5906158801369
 20
97.17801902384136
 30
0.0
 40
3.5
 41
0.0
 71
     5
 72
     1
  1
{\Famgdt|c136;o}32.5
 73
     1
 44
1.0
1001
ACAD
1000
MTEXTBEGIN
1070
    73
1070
     1
1070
    44
1040
1.0
1070
    74
1070
     0
1000
MTEXTEND
  0
POINT
  5
318A
330
2F72
100
AcDbEntity
  8
Defpoints
 62
     0
100
AcDbPoint
 10
400.8406158801368
 20
106.7434839073374
 30
0.0
  0
POINT
  5
318B
330
2F72
100
AcDbEntity
  8
Defpoints
 62
     0
100
AcDbPoint
 10
368.3406158801368
 20
106.7434839073374
 30
0.0
  0
POINT
  5
318C
330
2F72
100
AcDbEntity
  8
Defpoints
 62
     0
100
AcDbPoint
 10
368.3406158801368
 20
94.42767453565238
 30
0.0
  0
ENDBLK
  5
2F7D
330
2F72
100
AcDbEntity
  8
0
100
AcDbBlockEnd
  0
BLOCK
  5
2F88
330
2F7E
100
AcDbEntity
  8
0
100
AcDbBlockBegin
  2
*D26
 70
     1
 10
0.0
 20
0.0
 30
0.0
  3
*D26
  1

  0
LINE
  5
318D
330
2F7E
100
AcDbEntity
  8
AM_5
100
AcDbLine
 10
408.0905775060362
 20
105.4945223799923
 30
0.0
 11
408.0905775060362
 21
84.37637441783545
 31
0.0
  0
LINE
  5
318E
330
2F7E
100
AcDbEntity
  8
AM_5
100
AcDbLine
 10
361.0906158801368
 20
105.4946200009726
 30
0.0
 11
361.0906158801368
 21
84.37637441783545
 31
0.0
  0
LINE
  5
318F
330
2F7E
100
AcDbEntity
  8
AM_5
100
AcDbLine
 10
405.0905775060361
 20
85.37637441783545
 30
0.0
 11
364.0906158801367
 21
85.37637441783545
 31
0.0
  0
SOLID
  5
3190
330
2F7E
100
AcDbEntity
  8
AM_5
100
AcDbTrace
 10
405.0905775060361
 20
85.87637441783545
 30
0.0
 11
405.0905775060361
 21
84.87637441783546
 31
0.0
 12
408.0905775060362
 22
85.37637441783545
 32
0.0
 13
408.0905775060362
 23
85.37637441783545
 33
0.0
  0
SOLID
  5
3191
330
2F7E
100
AcDbEntity
  8
AM_5
100
AcDbTrace
 10
364.0906158801367
 20
85.87637441783545
 30
0.0
 11
364.0906158801367
 21
84.87637441783546
 31
0.0
 12
361.0906158801368
 22
85.37637441783545
 32
0.0
 13
361.0906158801368
 23
85.37637441783545
 33
0.0
  0
MTEXT
  5
3192
330
2F7E
100
AcDbEntity
  8
AM_5
100
AcDbMText
 10
384.5905966930865
 20
88.12637441783545
 30
0.0
 40
3.5
 41
0.0
 71
     5
 72
     1
  1
{\Famgdt|c136;o}47
 73
     1
 44
1.0
1001
ACAD
1000
MTEXTBEGIN
1070
    73
1070
     1
1070
    44
1040
1.0
1070
    74
1070
     0
1000
MTEXTEND
  0
POINT
  5
3193
330
2F7E
100
AcDbEntity
  8
Defpoints
 62
     0
100
AcDbPoint
 10
408.0905775060362
 20
106.4945223799923
 30
0.0
  0
POINT
  5
3194
330
2F7E
100
AcDbEntity
  8
Defpoints
 62
     0
100
AcDbPoint
 10
361.0906158801368
 20
106.4946200009726
 30
0.0
  0
POINT
  5
3195
330
2F7E
100
AcDbEntity
  8
Defpoints
 62
     0
100
AcDbPoint
 10
361.0906158801368
 20
85.37637441783545
 30
0.0
  0
ENDBLK
  5
2F89
330
2F7E
100
AcDbEntity
  8
0
100
AcDbBlockEnd
  0
ENDSEC
  0
SECTION
  2
ENTITIES
  0
LINE
  5
36
330
D
100
AcDbEntity
 67
     1
  8
AM_7
100
AcDbLine
 10
108.614369910455
 20
128.2144266299461
 30
0.0
 11
319.79410208126
 21
128.214426629946
 31
0.0
  0
LINE
  5
5C
330
D
100
AcDbEntity
 67
     1
  8
AM_7
100
AcDbLine
 10
108.614369910455
 20
213.0548709840706
 30
0.0
 11
319.79410208126
 21
213.0548709840705
 31
0.0
  0
LINE
  5
95
330
D
100
AcDbEntity
 67
     1
  8
AM_VIS
100
AcDbLine
 10
294.7941020812599
 20
133.214426629946
 30
0.0
 11
289.7941020812599
 21
133.214426629946
 31
0.0
  0
LINE
  5
96
330
D
100
AcDbEntity
 67
     1
  8
AM_VIS
100
AcDbLine
 10
288.79410208126
 20
134.214426629946
 30
0.0
 11
289.7941020812599
 21
133.214426629946
 31
0.0
  0
LINE
  5
97
330
D
100
AcDbEntity
 67
     1
  8
AM_VIS
100
AcDbLine
 10
294.7941020812599
 20
133.214426629946
 30
0.0
 11
295.7945149982153
 21
133.214426629946
 31
0.0
  0
LINE
  5
98
330
D
100
AcDbEntity
 67
     1
  8
AM_VIS
100
AcDbLine
 10
289.7941020812599
 20
123.214426629946
 30
0.0
 11
294.7941020812599
 21
123.214426629946
 31
0.0
  0
LINE
  5
99
330
D
100
AcDbEntity
 67
     1
  8
AM_VIS
100
AcDbLine
 10
294.7941020812599
 20
123.214426629946
 30
0.0
 11
295.7945149982153
 21
123.214426629946
 31
0.0
  0
ARC
  5
9A
330
D
100
AcDbEntity
 67
     1
  8
AM_VIS
100
AcDbCircle
 10
294.7941020812599
 20
128.214426629946
 30
0.0
 40
6.0
100
AcDbArc
 50
146.4426902380791
 51
213.5573097619209
  0
LINE
  5
9B
330
D
100
AcDbEntity
 67
     1
  8
AM_VIS
100
AcDbLine
 10
289.7941020812599
 20
123.214426629946
 30
0.0
 11
288.79410208126
 21
122.214426629946
 31
0.0
  0
SPLINE
  5
9C
330
D
100
AcDbEntity
 67
     1
  8
AM_VIS
100
AcDbSpline
210
0.0
220
0.0
230
1.0
 70
     8
 71
     3
 72
    26
 73
    22
 74
     0
 42
0.0000000001
 43
0.0000000001
 40
-3.568232552546151
 40
-3.568232552546151
 40
-3.568232552546151
 40
-3.568232552546151
 40
-3.485548094357994
 40
-3.485548094357994
 40
-3.402863636169836
 40
-3.402863636169836
 40
-3.309689847899093
 40
-3.309689847899093
 40
-3.216516059628348
 40
-3.216516059628348
 40
-2.94129219601351
 40
-2.94129219601351
 40
-2.666068332398671
 40
-2.666068332398671
 40
-1.999551249299003
 40
-1.999551249299003
 40
-1.333034166199336
 40
-1.333034166199336
 40
-0.6665170830996683
 40
-0.6665170830996683
 40
0.0
 40
0.0
 40
0.0
 40
0.0
 10
294.7941020812599
 20
131.5310514203014
 30
0.0
 10
294.8216635673227
 20
131.5310514203014
 30
0.0
 10
294.8518380891089
 20
131.5288449865781
 30
0.0
 10
294.9113947266714
 20
131.5193659016574
 30
0.0
 10
294.9407786842043
 20
131.5121048257515
 30
0.0
 10
294.9966179044288
 20
131.4942661779135
 30
0.0
 10
295.0282085282626
 20
131.4814677169698
 30
0.0
 10
295.088943521799
 20
131.4509174590688
 30
0.0
 10
295.118103460781
 20
131.4331966242183
 30
0.0
 10
295.2190861646523
 20
131.3633243028947
 30
0.0
 10
295.2898544726466
 20
131.2932573114574
 30
0.0
 10
295.4108722087454
 20
131.135811973717
 30
0.0
 10
295.4613666759911
 20
131.0486221244273
 30
0.0
 10
295.5976957642426
 20
130.7658569238364
 30
0.0
 10
295.6573176159251
 20
130.5486828181287
 30
0.0
 10
295.7401356161047
 20
130.0962104952644
 30
0.0
 10
295.7622090811717
 20
129.8607075079935
 30
0.0
 10
295.787821850066
 20
129.3840014616472
 30
0.0
 10
295.7914188138365
 20
129.1430980106094
 30
0.0
 10
295.7945149982153
 20
128.6693964860972
 30
0.0
 10
295.7941020812599
 20
128.4365989909793
 30
0.0
 10
295.7941020812599
 20
128.214426629946
 30
0.0
  0
SPLINE
  5
9D
330
D
100
AcDbEntity
 67
     1
  8
AM_VIS
100
AcDbSpline
210
0.0
220
0.0
230
1.0
 70
     8
 71
     3
 72
    26
 73
    22
 74
     0
 42
0.0000000001
 43
0.0000000001
 40
0.0
 40
0.0
 40
0.0
 40
0.0
 40
0.6665170830996678
 40
0.6665170830996678
 40
1.333034166199335
 40
1.333034166199335
 40
1.999551249299003
 40
1.999551249299003
 40
2.66606833239867
 40
2.66606833239867
 40
2.941292196013509
 40
2.941292196013509
 40
3.216516059628347
 40
3.216516059628347
 40
3.309689847899091
 40
3.309689847899091
 40
3.402863636169835
 40
3.402863636169835
 40
3.485548094357992
 40
3.485548094357992
 40
3.568232552546148
 40
3.568232552546148
 40
3.568232552546148
 40
3.568232552546148
 10
295.7941020812599
 20
128.214426629946
 30
0.0
 10
295.7941020812599
 20
127.9922542689128
 30
0.0
 10
295.7945149982153
 20
127.7594567737949
 30
0.0
 10
295.7914188138365
 20
127.2857552492827
 30
0.0
 10
295.787821850066
 20
127.0448517982448
 30
0.0
 10
295.7622090811717
 20
126.5681457518985
 30
0.0
 10
295.7401356161047
 20
126.3326427646276
 30
0.0
 10
295.6573176159251
 20
125.8801704417634
 30
0.0
 10
295.5976957642426
 20
125.6629963360557
 30
0.0
 10
295.4613666759911
 20
125.3802311354648
 30
0.0
 10
295.4108722087454
 20
125.293041286175
 30
0.0
 10
295.2898544726466
 20
125.1355959484345
 30
0.0
 10
295.2190861646523
 20
125.0655289569973
 30
0.0
 10
295.118103460781
 20
124.9956566356737
 30
0.0
 10
295.088943521799
 20
124.9779358008233
 30
0.0
 10
295.0282085282626
 20
124.9473855429222
 30
0.0
 10
294.9966179044287
 20
124.9345870819784
 30
0.0
 10
294.9407786842043
 20
124.9167484341406
 30
0.0
 10
294.9113947266714
 20
124.9094873582346
 30
0.0
 10
294.8518380891089
 20
124.9000082733139
 30
0.0
 10
294.8216635673227
 20
124.8978018395906
 30
0.0
 10
294.7941020812599
 20
124.8978018395906
 30
0.0
  0
LINE
  5
9E
330
D
100
AcDbEntity
 67
     1
  8
AM_VIS
100
AcDbLine
 10
294.7941020812599
 20
124.8978018395906
 30
0.0
 11
289.7941020812599
 21
124.8978018395906
 31
0.0
  0
LINE
  5
9F
330
D
100
AcDbEntity
 67
     1
  8
AM_VIS
100
AcDbLine
 10
289.7941020812599
 20
124.8978018395906
 30
0.0
 11
289.7941020812599
 21
131.5310514203014
 31
0.0
  0
LINE
  5
A0
330
D
100
AcDbEntity
 67
     1
  8
AM_VIS
100
AcDbLine
 10
289.7941020812599
 20
131.5310514203014
 30
0.0
 11
294.7941020812599
 21
131.5310514203014
 31
0.0
  0
LINE
  5
AA
330
D
100
AcDbEntity
 67
     1
  8
AM_VIS
100
AcDbLine
 10
307.361983875685
 20
118.3994720537224
 30
0.0
 11
303.2262202868349
 21
118.3994720537224
 31
0.0
  0
LINE
  5
AB
330
D
100
AcDbEntity
 67
     1
  8
AM_VIS
100
AcDbLine
 10
307.79410208126
 20
123.3069493418342
 30
0.0
 11
302.7941020812599
 21
123.3069493418342
 31
0.0
  0
LINE
  5
AC
330
D
100
AcDbEntity
 67
     1
  8
AM_VIS
100
AcDbLine
 10
307.79410208126
 20
133.1219039180579
 30
0.0
 11
302.7941020812599
 21
133.1219039180579
 31
0.0
  0
LINE
  5
AD
330
D
100
AcDbEntity
 67
     1
  8
AM_VIS
100
AcDbLine
 10
307.3619838756849
 20
138.0293812061696
 30
0.0
 11
303.2262202868349
 21
138.0293812061697
 31
0.0
  0
LINE
  5
AE
330
D
100
AcDbEntity
 67
     1
  8
AM_VIS
100
AcDbLine
 10
307.7941020812598
 20
119.7407330747925
 30
0.0
 11
307.79410208126
 21
123.3069493418342
 31
0.0
  0
LINE
  5
AF
330
D
100
AcDbEntity
 67
     1
  8
AM_VIS
100
AcDbLine
 10
307.79410208126
 20
123.3069493418342
 30
0.0
 11
307.79410208126
 21
133.1219039180579
 31
0.0
  0
LINE
  5
B0
330
D
100
AcDbEntity
 67
     1
  8
AM_VIS
100
AcDbLine
 10
307.79410208126
 20
133.1219039180579
 30
0.0
 11
307.79410208126
 21
136.6881201850996
 31
0.0
  0
LINE
  5
B1
330
D
100
AcDbEntity
 67
     1
  8
AM_VIS
100
AcDbLine
 10
302.7941020812599
 20
136.6881201850996
 30
0.0
 11
302.7941020812599
 21
133.1219039180579
 31
0.0
  0
LINE
  5
B2
330
D
100
AcDbEntity
 67
     1
  8
AM_VIS
100
AcDbLine
 10
302.7941020812599
 20
133.1219039180579
 30
0.0
 11
302.7941020812599
 21
123.3069493418342
 31
0.0
  0
LINE
  5
B3
330
D
100
AcDbEntity
 67
     1
  8
AM_VIS
100
AcDbLine
 10
302.7941020812599
 20
123.3069493418342
 30
0.0
 11
302.7941020812598
 21
119.7407330747923
 31
0.0
  0
LINE
  5
E7
330
D
100
AcDbEntity
 67
     1
  8
AM_VIS
100
AcDbLine
 10
286.79410208126
 20
122.214426629946
 30
0.0
 11
288.79410208126
 21
122.214426629946
 31
0.0
  0
LINE
  5
E8
330
D
100
AcDbEntity
 67
     1
  8
AM_VIS
100
AcDbLine
 10
286.79410208126
 20
134.214426629946
 30
0.0
 11
288.79410208126
 21
134.214426629946
 31
0.0
  0
LINE
  5
EF
330
D
100
AcDbEntity
 67
     1
  8
AM_VIS
100
AcDbLine
 10
295.7941020812599
 20
123.214426629946
 30
0.0
 11
302.7941020812599
 21
123.214426629946
 31
0.0
  0
LINE
  5
F0
330
D
100
AcDbEntity
 67
     1
  8
AM_VIS
100
AcDbLine
 10
295.7941020812599
 20
133.214426629946
 30
0.0
 11
302.7941020812599
 21
133.214426629946
 31
0.0
  0
LINE
  5
F1
330
D
100
AcDbEntity
 67
     1
  8
AM_VIS
100
AcDbLine
 10
317.79410208126
 20
132.214426629946
 30
0.0
 11
316.7941020812599
 21
133.214426629946
 31
0.0
  0
LINE
  5
F2
330
D
100
AcDbEntity
 67
     1
  8
AM_VIS
100
AcDbLine
 10
317.79410208126
 20
124.214426629946
 30
0.0
 11
316.7941020812599
 21
123.214426629946
 31
0.0
  0
LINE
  5
F3
330
D
100
AcDbEntity
 67
     1
  8
AM_VIS
100
AcDbLine
 10
307.79410208126
 20
123.214426629946
 30
0.0
 11
316.7941020812599
 21
123.214426629946
 31
0.0
  0
LINE
  5
F4
330
D
100
AcDbEntity
 67
     1
  8
AM_VIS
100
AcDbLine
 10
307.79410208126
 20
133.214426629946
 30
0.0
 11
316.7941020812599
 21
133.214426629946
 31
0.0
  0
LINE
  5
127
330
D
100
AcDbEntity
 67
     1
  8
AM_VIS
100
AcDbLine
 10
295.7941020812599
 20
128.214426629946
 30
0.0
 11
295.7941020812599
 21
123.214426629946
 31
0.0
  0
LINE
  5
128
330
D
100
AcDbEntity
 67
     1
  8
AM_VIS
100
AcDbLine
 10
295.7941020812599
 20
133.214426629946
 30
0.0
 11
295.7941020812599
 21
128.214426629946
 31
0.0
  0
LINE
  5
129
330
D
100
AcDbEntity
 67
     1
  8
AM_VIS
100
AcDbLine
 10
317.79410208126
 20
132.214426629946
 30
0.0
 11
317.79410208126
 21
124.214426629946
 31
0.0
  0
LINE
  5
12A
330
D
100
AcDbEntity
 67
     1
  8
AM_VIS
100
AcDbLine
 10
316.7941020812599
 20
123.214426629946
 30
0.0
 11
316.7941020812599
 21
133.214426629946
 31
0.0
  0
LINE
  5
150
330
D
100
AcDbEntity
 67
     1
  8
AM_VIS
100
AcDbLine
 10
289.7941020812599
 20
216.3714957744259
 30
0.0
 11
294.7941020812599
 21
216.3714957744259
 31
0.0
  0
LINE
  5
151
330
D
100
AcDbEntity
 67
     1
  8
AM_VIS
100
AcDbLine
 10
294.7941020812599
 20
209.7382461937151
 30
0.0
 11
289.7941020812599
 21
209.7382461937151
 31
0.0
  0
LINE
  5
152
330
D
100
AcDbEntity
 67
     1
  8
AM_VIS
100
AcDbLine
 10
289.7941020812599
 20
209.7382461937151
 30
0.0
 11
289.7941020812599
 21
216.3714957744259
 31
0.0
  0
ARC
  5
153
330
D
100
AcDbEntity
 67
     1
  8
AM_VIS
100
AcDbCircle
 10
294.7941020812599
 20
213.0548709840706
 30
0.0
 40
6.0
100
AcDbArc
 50
146.4426902380791
 51
213.5573097619209
  0
SPLINE
  5
154
330
D
100
AcDbEntity
 67
     1
  8
AM_VIS
100
AcDbSpline
210
0.0
220
0.0
230
1.0
 70
     8
 71
     3
 72
    26
 73
    22
 74
     0
 42
0.0000000001
 43
0.0000000001
 40
0.0
 40
0.0
 40
0.0
 40
0.0
 40
0.6665170830996679
 40
0.6665170830996679
 40
1.333034166199335
 40
1.333034166199335
 40
1.999551249299003
 40
1.999551249299003
 40
2.666068332398671
 40
2.666068332398671
 40
2.941292196013509
 40
2.941292196013509
 40
3.216516059628347
 40
3.216516059628347
 40
3.309689847899091
 40
3.309689847899091
 40
3.402863636169835
 40
3.402863636169835
 40
3.485548094357992
 40
3.485548094357992
 40
3.568232552546148
 40
3.568232552546148
 40
3.568232552546148
 40
3.568232552546148
 10
295.7941020812599
 20
213.0548709840706
 30
0.0
 10
295.7941020812599
 20
212.8326986230373
 30
0.0
 10
295.7945149982153
 20
212.5999011279195
 30
0.0
 10
295.7914188138365
 20
212.1261996034071
 30
0.0
 10
295.787821850066
 20
211.8852961523693
 30
0.0
 10
295.7622090811717
 20
211.408590106023
 30
0.0
 10
295.7401356161047
 20
211.173087118752
 30
0.0
 10
295.6573176159251
 20
210.7206147958879
 30
0.0
 10
295.5976957642426
 20
210.5034406901801
 30
0.0
 10
295.4613666759911
 20
210.2206754895892
 30
0.0
 10
295.4108722087454
 20
210.1334856402996
 30
0.0
 10
295.2898544726466
 20
209.9760403025591
 30
0.0
 10
295.2190861646523
 20
209.9059733111219
 30
0.0
 10
295.118103460781
 20
209.8361009897983
 30
0.0
 10
295.088943521799
 20
209.8183801549477
 30
0.0
 10
295.0282085282626
 20
209.7878298970467
 30
0.0
 10
294.9966179044288
 20
209.775031436103
 30
0.0
 10
294.9407786842043
 20
209.7571927882651
 30
0.0
 10
294.9113947266714
 20
209.7499317123592
 30
0.0
 10
294.8518380891089
 20
209.7404526274385
 30
0.0
 10
294.8216635673227
 20
209.7382461937151
 30
0.0
 10
294.7941020812599
 20
209.7382461937151
 30
0.0
  0
SPLINE
  5
155
330
D
100
AcDbEntity
 67
     1
  8
AM_VIS
100
AcDbSpline
210
0.0
220
0.0
230
1.0
 70
     8
 71
     3
 72
    26
 73
    22
 74
     0
 42
0.0000000001
 43
0.0000000001
 40
-3.568232552546151
 40
-3.568232552546151
 40
-3.568232552546151
 40
-3.568232552546151
 40
-3.485548094357993
 40
-3.485548094357993
 40
-3.402863636169836
 40
-3.402863636169836
 40
-3.309689847899091
 40
-3.309689847899091
 40
-3.216516059628348
 40
-3.216516059628348
 40
-2.94129219601351
 40
-2.94129219601351
 40
-2.666068332398671
 40
-2.666068332398671
 40
-1.999551249299003
 40
-1.999551249299003
 40
-1.333034166199334
 40
-1.333034166199334
 40
-0.6665170830996683
 40
-0.6665170830996683
 40
0.0
 40
0.0
 40
0.0
 40
0.0
 10
294.7941020812599
 20
216.3714957744259
 30
0.0
 10
294.8216635673227
 20
216.3714957744259
 30
0.0
 10
294.8518380891089
 20
216.3692893407027
 30
0.0
 10
294.9113947266714
 20
216.359810255782
 30
0.0
 10
294.9407786842043
 20
216.3525491798761
 30
0.0
 10
294.9966179044288
 20
216.334710532038
 30
0.0
 10
295.0282085282626
 20
216.3219120710945
 30
0.0
 10
295.088943521799
 20
216.2913618131932
 30
0.0
 10
295.118103460781
 20
216.2736409783428
 30
0.0
 10
295.2190861646523
 20
216.2037686570192
 30
0.0
 10
295.2898544726466
 20
216.1337016655819
 30
0.0
 10
295.4108722087454
 20
215.9762563278415
 30
0.0
 10
295.4613666759911
 20
215.8890664785519
 30
0.0
 10
295.5976957642426
 20
215.6063012779608
 30
0.0
 10
295.6573176159251
 20
215.3891271722531
 30
0.0
 10
295.7401356161047
 20
214.9366548493889
 30
0.0
 10
295.7622090811717
 20
214.7011518621181
 30
0.0
 10
295.787821850066
 20
214.2244458157717
 30
0.0
 10
295.7914188138365
 20
213.9835423647339
 30
0.0
 10
295.7945149982153
 20
213.5098408402217
 30
0.0
 10
295.7941020812599
 20
213.2770433451037
 30
0.0
 10
295.7941020812599
 20
213.0548709840706
 30
0.0
  0
LINE
  5
156
330
D
100
AcDbEntity
 67
     1
  8
AM_VIS
100
AcDbLine
 10
288.79410208126
 20
219.0548709840706
 30
0.0
 11
289.7941020812599
 21
218.0548709840706
 31
0.0
  0
LINE
  5
157
330
D
100
AcDbEntity
 67
     1
  8
AM_VIS
100
AcDbLine
 10
289.7941020812599
 20
208.0548709840706
 30
0.0
 11
288.79410208126
 21
207.0548709840706
 31
0.0
  0
LINE
  5
158
330
D
100
AcDbEntity
 67
     1
  8
AM_VIS
100
AcDbLine
 10
294.7941020812599
 20
218.0548709840706
 30
0.0
 11
295.7945149982153
 21
218.0548709840706
 31
0.0
  0
LINE
  5
159
330
D
100
AcDbEntity
 67
     1
  8
AM_VIS
100
AcDbLine
 10
294.7941020812599
 20
218.0548709840706
 30
0.0
 11
289.7941020812599
 21
218.0548709840706
 31
0.0
  0
LINE
  5
15A
330
D
100
AcDbEntity
 67
     1
  8
AM_VIS
100
AcDbLine
 10
294.7941020812599
 20
208.0548709840706
 30
0.0
 11
295.7945149982153
 21
208.0548709840706
 31
0.0
  0
LINE
  5
15B
330
D
100
AcDbEntity
 67
     1
  8
AM_VIS
100
AcDbLine
 10
289.7941020812599
 20
208.0548709840706
 30
0.0
 11
294.7941020812599
 21
208.0548709840706
 31
0.0
  0
LINE
  5
163
330
D
100
AcDbEntity
 67
     1
  8
AM_VIS
100
AcDbLine
 10
307.79410208126
 20
204.5548709840706
 30
0.0
 11
302.7941020812599
 21
204.5548709840706
 31
0.0
  0
LINE
  5
164
330
D
100
AcDbEntity
 67
     1
  8
AM_VIS
100
AcDbLine
 10
307.79410208126
 20
221.5548709840706
 30
0.0
 11
302.7941020812599
 21
221.5548709840706
 31
0.0
  0
LINE
  5
165
330
D
100
AcDbEntity
 67
     1
  8
AM_VIS
100
AcDbLine
 10
307.79410208126
 20
213.0548709840706
 30
0.0
 11
302.7941020812599
 21
213.0548709840706
 31
0.0
  0
LINE
  5
166
330
D
100
AcDbEntity
 67
     1
  8
AM_VIS
100
AcDbLine
 10
307.79410208126
 20
204.5548709840706
 30
0.0
 11
307.79410208126
 21
213.0548709840706
 31
0.0
  0
LINE
  5
167
330
D
100
AcDbEntity
 67
     1
  8
AM_VIS
100
AcDbLine
 10
307.79410208126
 20
213.0548709840706
 30
0.0
 11
307.79410208126
 21
221.5548709840706
 31
0.0
  0
LINE
  5
168
330
D
100
AcDbEntity
 67
     1
  8
AM_VIS
100
AcDbLine
 10
302.7941020812599
 20
213.0548709840706
 30
0.0
 11
302.7941020812599
 21
204.5548709840706
 31
0.0
  0
LINE
  5
169
330
D
100
AcDbEntity
 67
     1
  8
AM_VIS
100
AcDbLine
 10
302.7941020812599
 20
221.5548709840706
 30
0.0
 11
302.7941020812599
 21
213.0548709840706
 31
0.0
  0
LINE
  5
1A5
330
D
100
AcDbEntity
 67
     1
  8
AM_VIS
100
AcDbLine
 10
286.79410208126
 20
207.0548709840706
 30
0.0
 11
288.79410208126
 21
207.0548709840706
 31
0.0
  0
LINE
  5
1A6
330
D
100
AcDbEntity
 67
     1
  8
AM_VIS
100
AcDbLine
 10
286.7941020812601
 20
219.0548709840706
 30
0.0
 11
288.79410208126
 21
219.0548709840706
 31
0.0
  0
LINE
  5
1AD
330
D
100
AcDbEntity
 67
     1
  8
AM_VIS
100
AcDbLine
 10
295.7941020812599
 20
208.0548709840706
 30
0.0
 11
302.7941020812599
 21
208.0548709840706
 31
0.0
  0
LINE
  5
1AE
330
D
100
AcDbEntity
 67
     1
  8
AM_VIS
100
AcDbLine
 10
295.7941020812599
 20
218.0548709840706
 30
0.0
 11
302.7941020812599
 21
218.0548709840706
 31
0.0
  0
LINE
  5
1AF
330
D
100
AcDbEntity
 67
     1
  8
AM_VIS
100
AcDbLine
 10
317.79410208126
 20
217.0548709840706
 30
0.0
 11
316.7941020812599
 21
218.0548709840706
 31
0.0
  0
LINE
  5
1B0
330
D
100
AcDbEntity
 67
     1
  8
AM_VIS
100
AcDbLine
 10
317.79410208126
 20
209.0548709840706
 30
0.0
 11
316.7941020812599
 21
208.0548709840706
 31
0.0
  0
LINE
  5
1B1
330
D
100
AcDbEntity
 67
     1
  8
AM_VIS
100
AcDbLine
 10
307.79410208126
 20
208.0548709840706
 30
0.0
 11
316.7941020812599
 21
208.0548709840706
 31
0.0
  0
LINE
  5
1B2
330
D
100
AcDbEntity
 67
     1
  8
AM_VIS
100
AcDbLine
 10
307.79410208126
 20
218.0548709840706
 30
0.0
 11
316.7941020812599
 21
218.0548709840706
 31
0.0
  0
LINE
  5
1CC
330
D
100
AcDbEntity
 67
     1
  8
AM_VIS
100
AcDbLine
 10
295.7941020812599
 20
213.0548709840706
 30
0.0
 11
295.7941020812599
 21
208.0548709840706
 31
0.0
  0
LINE
  5
1CD
330
D
100
AcDbEntity
 67
     1
  8
AM_VIS
100
AcDbLine
 10
295.7941020812599
 20
218.0548709840706
 30
0.0
 11
295.7941020812599
 21
213.0548709840706
 31
0.0
  0
LINE
  5
1CE
330
D
100
AcDbEntity
 67
     1
  8
AM_VIS
100
AcDbLine
 10
317.79410208126
 20
217.0548709840706
 30
0.0
 11
317.79410208126
 21
209.0548709840706
 31
0.0
  0
LINE
  5
1CF
330
D
100
AcDbEntity
 67
     1
  8
AM_VIS
100
AcDbLine
 10
316.7941020812599
 20
208.0548709840706
 30
0.0
 11
316.7941020812599
 21
218.0548709840706
 31
0.0
  0
VIEWPORT
  5
230
102
{ACAD_XDICTIONARY
360
31E3
102
}
330
D
100
AcDbEntity
 67
     1
  8
0
100
AcDbViewport
 10
276.3150946143377
 20
146.326663535536
 30
0.0
 40
403.6670999563379
 41
339.5407582117466
 68
     1
 69
     1
 12
276.3150946143377
 22
146.326663535536
 13
0.0
 23
0.0
 14
1.0
 24
1.0
 15
0.0
 25
0.0
 16
0.0
 26
0.0
 36
1.0
 17
0.0
 27
0.0
 37
0.0
 42
50.0
 43
0.0
 44
0.0
 45
339.5407582117466
 50
0.0
 51
0.0
 72
  1000
 90
    32800
  1

281
     0
 71
     1
 74
     0
110
0.0
120
0.0
130
0.0
111
1.0
121
0.0
131
0.0
112
0.0
122
1.0
132
0.0
 79
     0
146
0.0
  0
LINE
  5
86E
330
D
100
AcDbEntity
 67
     1
  8
0
 62
     4
100
AcDbLine
 10
45.35047466041544
 20
43.43696177317648
 30
0.0
 11
45.35047466041544
 21
285.4193022262087
 31
0.0
  0
LINE
  5
86F
330
D
100
AcDbEntity
 67
     1
  8
0
 62
     4
100
AcDbLine
 10
449.2959739058388
 20
285.4193022262086
 30
0.0
 11
449.2959739058398
 21
43.43696177317648
 31
0.0
  0
LINE
  5
CA9
330
D
100
AcDbEntity
 67
     1
  8
0
 62
     4
100
AcDbLine
 10
45.35047466041544
 20
285.4193022262087
 30
0.0
 11
449.2959739058388
 21
285.4193022262087
 31
0.0
  0
TEXT
  5
D12
330
D
100
AcDbEntity
 67
     1
  8
LOGO
100
AcDbText
 10
301.819040249831
 20
14.70434702328724
 30
0.0
 40
2.225123512792591
  1
Accessory
 72
     4
 11
308.72248594827
 21
15.48870306154663
 31
0.0
100
AcDbText
  0
LINE
  5
D13
330
D
100
AcDbEntity
 67
     1
  8
LOGO
 62
     4
100
AcDbLine
 10
312.0965753540201
 20
40.0831707277809
 30
0.0
 11
301.9166107080937
 21
40.0831707277809
 31
0.0
  0
LINE
  5
D14
330
D
100
AcDbEntity
 67
     1
  8
LOGO
 62
     4
100
AcDbLine
 10
319.3193603472849
 20
24.99111102350088
 30
0.0
 11
297.3975629523397
 21
24.99111102350088
 31
0.0
  0
LINE
  5
D15
330
D
100
AcDbEntity
 67
     1
  8
LOGO
 62
     4
100
AcDbLine
 10
312.0965753540201
 20
30.02179759159401
 30
0.0
 11
301.9166107080937
 21
30.02179759159401
 31
0.0
  0
LINE
  5
D16
330
D
100
AcDbEntity
 67
     1
  8
LOGO
 62
     4
100
AcDbLine
 10
319.3193603472849
 20
12.69387719038363
 30
0.0
 11
297.3975629523397
 21
12.69387719038363
 31
0.0
  0
TEXT
  5
D17
330
D
100
AcDbEntity
 67
     1
  8
LOGO
 62
     7
100
AcDbText
 10
121.879119569648
 20
35.03983174043799
 30
0.0
 40
6.707582090791176
  1
訂購代號:
  7
CHINESET
100
AcDbText
  0
TEXT
  5
D18
330
D
100
AcDbEntity
 67
     1
  8
LOGO
 62
     7
100
AcDbText
 10
121.076855771958
 20
28.74457389961074
 30
0.0
 40
4.471721393860784
  1
Order example:
 41
0.8
  7
CHINESET
100
AcDbText
  0
LINE
  5
D19
330
D
100
AcDbEntity
 67
     1
  8
LOGO
 62
     4
100
AcDbLine
 10
189.85825266674
 20
12.69387719038363
 30
0.0
 11
167.4996456974361
 21
12.69387719038363
 31
0.0
  0
LINE
  5
D1A
330
D
100
AcDbEntity
 67
     1
  8
LOGO
 62
     4
100
AcDbLine
 10
189.85825266674
 20
24.99111102350068
 30
0.0
 11
167.4996456974361
 21
24.99111102350068
 31
0.0
  0
LINE
  5
D1B
330
D
100
AcDbEntity
 67
     1
  8
LOGO
 62
     4
100
AcDbLine
 10
195.1345176684688
 20
30.02179759159401
 30
0.0
 11
162.515128690244
 21
30.02179759159401
 31
0.0
  0
LINE
  5
D1C
330
D
100
AcDbEntity
 67
     1
  8
LOGO
 62
     4
100
AcDbLine
 10
195.1345176684688
 20
40.0831707277809
 30
0.0
 11
162.515128690244
 21
40.0831707277809
 31
0.0
  0
TEXT
  5
D1D
330
D
100
AcDbEntity
 67
     1
  8
LOGO
  6
Continuous
 62
     7
100
AcDbText
 10
164.0393850950438
 20
32.25765828852458
 30
0.0
 40
5.589651742325981
  1
MCBQI2
  7
CHINESET
 72
     1
 11
178.678949182088
 21
35.05248415968757
 31
0.0
100
AcDbText
 73
     2
  0
LINE
  5
D1E
330
D
100
AcDbEntity
 67
     1
  8
LOGO
 62
     4
100
AcDbLine
 10
162.515128690244
 20
40.0831707277809
 30
0.0
 11
162.515128690244
 21
30.02179759159401
 31
0.0
  0
LINE
  5
D1F
330
D
100
AcDbEntity
 67
     1
  8
LOGO
 62
     4
100
AcDbLine
 10
167.4996456974361
 20
24.99111102350068
 30
0.0
 11
167.4996456974361
 21
12.69387719038363
 31
0.0
  0
TEXT
  5
D20
330
D
100
AcDbEntity
 67
     1
  8
LOGO
100
AcDbText
 10
174.8962392103406
 20
14.41646464489198
 30
0.0
 40
2.225123512792591
  1
Model
 72
     4
 11
178.678949182088
 21
15.48870306154654
 31
0.0
100
AcDbText
  0
TEXT
  5
D21
330
D
100
AcDbEntity
 67
     1
  8
LOGO
100
AcDbText
 10
174.2072277882273
 20
18.95692792213937
 30
0.0
 40
4.471721393860784
  1
型式
 72
     4
 11
178.678949182088
 21
21.07835480387254
 31
0.0
100
AcDbText
  0
LINE
  5
D22
330
D
100
AcDbEntity
 67
     1
  8
LOGO
 62
     4
100
AcDbLine
 10
178.678949182088
 20
30.02179759159401
 30
0.0
 11
178.678949182088
 21
24.99111102350068
 31
0.0
  0
LINE
  5
D23
330
D
100
AcDbEntity
 67
     1
  8
LOGO
 62
     4
100
AcDbLine
 10
195.1345176684688
 20
40.0831707277809
 30
0.0
 11
195.1345176684688
 21
30.02179759159401
 31
0.0
  0
LINE
  5
D24
330
D
100
AcDbEntity
 67
     1
  8
LOGO
 62
     4
100
AcDbLine
 10
224.6666365910502
 20
40.0831707277809
 30
0.0
 11
224.6666365910502
 21
30.02179759159401
 31
0.0
  0
LINE
  5
D25
330
D
100
AcDbEntity
 67
     1
  8
LOGO
 62
     4
100
AcDbLine
 10
202.5298331847999
 20
40.0831707277809
 30
0.0
 11
202.5298331847999
 21
30.02179759159401
 31
0.0
  0
TEXT
  5
D26
330
D
100
AcDbEntity
 67
     1
  8
LOGO
100
AcDbText
 10
204.6617577227103
 20
14.75023317181087
 30
0.0
 40
2.225123512792591
  1
Acting type
 72
     4
 11
212.3384338418448
 21
15.48870306154654
 31
0.0
100
AcDbText
  0
TEXT
  5
D27
330
D
100
AcDbEntity
 67
     1
  8
LOGO
100
AcDbText
 10
203.4415714853093
 20
18.95692792213937
 30
0.0
 40
4.471721393860784
  1
作動型式
 72
     4
 11
212.3384338418448
 21
21.07835480387254
 31
0.0
100
AcDbText
  0
LINE
  5
D28
330
D
100
AcDbEntity
 67
     1
  8
LOGO
 62
     4
100
AcDbLine
 10
224.6666365910502
 20
30.02179759159401
 30
0.0
 11
202.5298331847999
 21
30.02179759159401
 31
0.0
  0
LINE
  5
D29
330
D
100
AcDbEntity
 67
     1
  8
LOGO
 62
     4
100
AcDbLine
 10
224.6666365910502
 20
24.99111102350068
 30
0.0
 11
200.0102310926392
 21
24.99111102350068
 31
0.0
  0
LINE
  5
D2A
330
D
100
AcDbEntity
 67
     1
  8
LOGO
 62
     4
100
AcDbLine
 10
224.6666365910502
 20
12.69387719038363
 30
0.0
 11
200.0102310926392
 21
12.69387719038363
 31
0.0
  0
LINE
  5
D2B
330
D
100
AcDbEntity
 67
     1
  8
LOGO
 62
     4
100
AcDbLine
 10
189.8582526667401
 20
24.99111102350068
 30
0.0
 11
189.8582526667401
 21
12.69387719038363
 31
0.0
  0
LINE
  5
D2C
330
D
100
AcDbEntity
 67
     1
  8
LOGO
 62
     4
100
AcDbLine
 10
200.0102310926392
 20
24.99111102350068
 30
0.0
 11
200.0102310926392
 21
12.69387719038363
 31
0.0
  0
LINE
  5
D2D
330
D
100
AcDbEntity
 67
     1
  8
LOGO
 62
     4
100
AcDbLine
 10
224.6666365910502
 20
24.99111102350068
 30
0.0
 11
224.6666365910502
 21
12.69387719038363
 31
0.0
  0
LINE
  5
D2E
330
D
100
AcDbEntity
 67
     1
  8
LOGO
 62
     4
100
AcDbLine
 10
212.3384338418448
 20
30.02179759159401
 30
0.0
 11
212.3384338418448
 21
24.99111102350068
 31
0.0
  0
LINE
  5
D2F
330
D
100
AcDbEntity
 67
     1
  8
LOGO
 62
     4
100
AcDbLine
 10
224.6666365910502
 20
40.0831707277809
 30
0.0
 11
202.5298331847999
 21
40.0831707277809
 31
0.0
  0
LINE
  5
D30
330
D
100
AcDbEntity
 67
     1
  8
LOGO
  6
Continuous
 62
     7
100
AcDbLine
 10
196.8679410525444
 20
35.0168451859663
 30
0.0
 11
200.7898740936542
 21
35.0168451859663
 31
0.0
  0
TEXT
  5
D31
330
D
100
AcDbEntity
 67
     1
  8
LOGO
  6
Continuous
 62
     7
100
AcDbText
 10
209.5436079706818
 20
32.19427128554702
 30
0.0
 40
5.589651742325981
  1
11
  7
CHINESET
 72
     1
 11
212.3384338418448
 21
34.98909715671002
 31
0.0
100
AcDbText
 73
     2
  0
TEXT
  5
D32
330
D
100
AcDbEntity
 67
     1
  8
LOGO
  6
Continuous
 62
     7
100
AcDbText
 10
263.8320148547243
 20
31.10289073681058
 30
0.0
 40
5.589651742325981
  1
*
  7
CHINESET
 72
     1
 11
265.1628843171828
 21
33.89771660797356
 31
0.0
100
AcDbText
 73
     2
  0
TEXT
  5
D33
330
D
100
AcDbEntity
 67
     1
  8
LOGO
100
AcDbText
 10
260.1766085175076
 20
14.37614130515025
 30
0.0
 40
2.225123512792591
  1
Stroke
 72
     4
 11
264.6940472649161
 21
15.48870306154654
 31
0.0
100
AcDbText
  0
LINE
  5
D34
330
D
100
AcDbEntity
 67
     1
  8
LOGO
 62
     4
100
AcDbLine
 10
273.1046615204721
 20
40.0831707277809
 30
0.0
 11
258.4476954566075
 21
40.0831707277809
 31
0.0
  0
TEXT
  5
D35
330
D
100
AcDbEntity
 67
     1
  8
LOGO
100
AcDbText
 10
260.2223258710554
 20
18.84249410694215
 30
0.0
 40
4.471721393860784
  1
行程
 72
     4
 11
264.6940472649161
 21
21.07835480387254
 31
0.0
100
AcDbText
  0
LINE
  5
D36
330
D
100
AcDbEntity
 67
     1
  8
LOGO
 62
     4
100
AcDbLine
 10
272.8875925255322
 20
12.69387719038363
 30
0.0
 11
256.5005020042999
 21
12.69387719038363
 31
0.0
  0
LINE
  5
D37
330
D
100
AcDbEntity
 67
     1
  8
LOGO
 62
     4
100
AcDbLine
 10
273.1046615204721
 20
30.02179759159401
 30
0.0
 11
258.4476954566075
 21
30.02179759159401
 31
0.0
  0
LINE
  5
D38
330
D
100
AcDbEntity
 67
     1
  8
LOGO
 62
     4
100
AcDbLine
 10
272.8875925255322
 20
24.99111102350068
 30
0.0
 11
256.5005020042999
 21
24.99111102350068
 31
0.0
  0
LINE
  5
D39
330
D
100
AcDbEntity
 67
     1
  8
LOGO
 62
     4
100
AcDbLine
 10
250.5315777276389
 20
40.083170727781
 30
0.0
 11
250.5315777276389
 21
30.02179759159421
 31
0.0
  0
LINE
  5
D3A
330
D
100
AcDbEntity
 67
     1
  8
LOGO
 62
     4
100
AcDbLine
 10
232.5827543200191
 20
40.0831707277809
 30
0.0
 11
232.5827543200191
 21
30.02179759159421
 31
0.0
  0
LINE
  5
D3B
330
D
100
AcDbEntity
 67
     1
  8
LOGO
 62
     4
100
AcDbLine
 10
258.4476954566077
 20
40.0831707277809
 30
0.0
 11
258.4476954566075
 21
30.02179759159401
 31
0.0
  0
LINE
  5
D3C
330
D
100
AcDbEntity
 67
     1
  8
LOGO
 62
     4
100
AcDbLine
 10
250.5315777276389
 20
12.69387719038363
 30
0.0
 11
232.5827543200191
 21
12.69387719038363
 31
0.0
  0
LINE
  5
D3D
330
D
100
AcDbEntity
 67
     1
  8
LOGO
 62
     4
100
AcDbLine
 10
250.5315777276389
 20
30.02179759159421
 30
0.0
 11
232.5827543200191
 21
30.02179759159421
 31
0.0
  0
LINE
  5
D3E
330
D
100
AcDbEntity
 67
     1
  8
LOGO
 62
     4
100
AcDbLine
 10
250.5315777276389
 20
24.99111102350088
 30
0.0
 11
232.5827543200191
 21
24.99111102350088
 31
0.0
  0
LINE
  5
D3F
330
D
100
AcDbEntity
 67
     1
  8
LOGO
 62
     4
100
AcDbLine
 10
232.5827543200191
 20
24.99111102350088
 30
0.0
 11
232.5827543200191
 21
12.69387719038363
 31
0.0
  0
TEXT
  5
D40
330
D
100
AcDbEntity
 67
     1
  8
LOGO
100
AcDbText
 10
238.4419931059194
 20
14.41070416778602
 30
0.0
 40
2.225123512792591
  1
Bore
 72
     4
 11
241.557166023829
 21
15.48870306154654
 31
0.0
100
AcDbText
  0
TEXT
  5
D41
330
D
100
AcDbEntity
 67
     1
  8
LOGO
100
AcDbText
 10
236.8059620428519
 20
18.84249410694215
 30
0.0
 40
4.471721393860784
  1
內徑
 72
     4
 11
241.557166023829
 21
21.07835480387254
 31
0.0
100
AcDbText
  0
LINE
  5
D42
330
D
100
AcDbEntity
 67
     1
  8
LOGO
 62
     4
100
AcDbLine
 10
241.5571657660515
 20
30.02179759159421
 30
0.0
 11
241.5571657660515
 21
24.99111102350088
 31
0.0
  0
LINE
  5
D43
330
D
100
AcDbEntity
 67
     1
  8
LOGO
 62
     4
100
AcDbLine
 10
250.5315777276389
 20
24.99111102350088
 30
0.0
 11
250.5315777276389
 21
12.69387719038363
 31
0.0
  0
LINE
  5
D44
330
D
100
AcDbEntity
 67
     1
  8
LOGO
 62
     4
100
AcDbLine
 10
256.5005020042999
 20
24.99111102350068
 30
0.0
 11
256.5005020042999
 21
12.69387719038363
 31
0.0
  0
LINE
  5
D45
330
D
100
AcDbEntity
 67
     1
  8
LOGO
 62
     4
100
AcDbLine
 10
250.5315777276389
 20
40.083170727781
 30
0.0
 11
232.5827543200191
 21
40.0831707277809
 31
0.0
  0
LINE
  5
D46
330
D
100
AcDbEntity
 67
     1
  8
LOGO
  6
Continuous
 62
     7
100
AcDbLine
 10
226.4000599751258
 20
35.01684518596642
 30
0.0
 11
230.8427952288732
 21
35.01684518596642
 31
0.0
  0
TEXT
  5
D47
330
D
100
AcDbEntity
 67
     1
  8
LOGO
  6
Continuous
 62
     7
100
AcDbText
 10
237.5539108247325
 20
32.19427128554711
 30
0.0
 40
5.589651742325981
  1
32
  7
CHINESET
 72
     1
 11
242.0788669970916
 21
34.9890971567101
 31
0.0
100
AcDbText
 73
     2
  0
LINE
  5
D48
330
D
100
AcDbEntity
 67
     1
  8
LOGO
  6
Continuous
 62
     7
100
AcDbLine
 10
252.2650011117145
 20
35.01684518596642
 30
0.0
 11
256.707736365462
 21
35.01684518596642
 31
0.0
  0
TEXT
  5
D49
330
D
100
AcDbEntity
 67
     1
  8
LOGO
  6
Continuous
 62
     7
100
AcDbText
 10
278.2849711564052
 20
32.49937102811223
 30
0.0
 40
5.589651742325981
  1
(M)
  7
CHINESET
 72
     1
 11
284.2738837374688
 21
35.29419689927522
 31
0.0
100
AcDbText
 73
     2
  0
LINE
  5
D4A
330
D
100
AcDbEntity
 67
     1
  8
LOGO
 62
     4
100
AcDbLine
 10
301.9166107080937
 20
40.0831707277809
 30
0.0
 11
301.9166107080937
 21
30.02179759159401
 31
0.0
  0
LINE
  5
D4B
330
D
100
AcDbEntity
 67
     1
  8
LOGO
 62
     4
100
AcDbLine
 10
294.0867405147857
 20
40.0831707277809
 30
0.0
 11
294.0867405147857
 21
30.02179759159401
 31
0.0
  0
LINE
  5
D4C
330
D
100
AcDbEntity
 67
     1
  8
LOGO
 62
     4
100
AcDbLine
 10
275.4311275071149
 20
40.0831707277809
 30
0.0
 11
275.4311275071149
 21
30.02179759159401
 31
0.0
  0
LINE
  5
D4D
330
D
100
AcDbEntity
 67
     1
  8
LOGO
 62
     4
100
AcDbLine
 10
273.1046615204721
 20
40.0831707277809
 30
0.0
 11
273.1046615204721
 21
30.02179759159401
 31
0.0
  0
LINE
  5
D4E
330
D
100
AcDbEntity
 67
     1
  8
LOGO
 62
     4
100
AcDbLine
 10
294.9354718487155
 20
12.69387719038363
 30
0.0
 11
278.5483813274833
 21
12.69387719038363
 31
0.0
  0
LINE
  5
D4F
330
D
100
AcDbEntity
 67
     1
  8
LOGO
 62
     4
100
AcDbLine
 10
294.9354718487155
 20
24.99111102350068
 30
0.0
 11
278.5483813274833
 21
24.99111102350068
 31
0.0
  0
TEXT
  5
D50
330
D
100
AcDbEntity
 67
     1
  8
LOGO
100
AcDbText
 10
281.2903739817576
 20
14.37614130515025
 30
0.0
 40
2.225123512792591
  1
MAGNET
 72
     4
 11
286.7419265880995
 21
15.48870306154654
 31
0.0
100
AcDbText
  0
TEXT
  5
D51
330
D
100
AcDbEntity
 67
     1
  8
LOGO
100
AcDbText
 10
280.0343444973083
 20
18.8890745381282
 30
0.0
 40
4.471721393860784
  1
附磁石
 72
     4
 11
286.7419265880995
 21
21.07835480387254
 31
0.0
100
AcDbText
  0
LINE
  5
D52
330
D
100
AcDbEntity
 67
     1
  8
LOGO
 62
     4
100
AcDbLine
 10
294.0867405147857
 20
30.02179759159401
 30
0.0
 11
275.4311275071149
 21
30.02179759159401
 31
0.0
  0
LINE
  5
D53
330
D
100
AcDbEntity
 67
     1
  8
LOGO
 62
     4
100
AcDbLine
 10
278.5483813274833
 20
24.99111102350068
 30
0.0
 11
278.5483813274833
 21
12.69387719038363
 31
0.0
  0
LINE
  5
D54
330
D
100
AcDbEntity
 67
     1
  8
LOGO
 62
     4
100
AcDbLine
 10
272.8875925255322
 20
24.99111102350068
 30
0.0
 11
272.8875925255322
 21
12.64750846480703
 31
0.0
  0
LINE
  5
D55
330
D
100
AcDbEntity
 67
     1
  8
LOGO
 62
     4
100
AcDbLine
 10
264.9308147620758
 20
30.02179759159401
 30
0.0
 11
264.9308147620758
 21
24.99111102350068
 31
0.0
  0
LINE
  5
D56
330
D
100
AcDbEntity
 67
     1
  8
LOGO
 62
     4
100
AcDbLine
 10
286.7419265880995
 20
30.02179759159401
 30
0.0
 11
286.7419265880995
 21
24.99111102350068
 31
0.0
  0
LINE
  5
D57
330
D
100
AcDbEntity
 67
     1
  8
LOGO
 62
     4
100
AcDbLine
 10
294.9354718487155
 20
24.99111102350068
 30
0.0
 11
294.9354718487155
 21
12.64750846480703
 31
0.0
  0
LINE
  5
D58
330
D
100
AcDbEntity
 67
     1
  8
LOGO
 62
     4
100
AcDbLine
 10
297.3975629523397
 20
24.99111102350088
 30
0.0
 11
297.3975629523397
 21
12.69387719038363
 31
0.0
  0
LINE
  5
D59
330
D
100
AcDbEntity
 67
     1
  8
LOGO
 62
     4
100
AcDbLine
 10
307.0065930310569
 20
30.02179759159401
 30
0.0
 11
307.0065930310569
 21
24.99111102350088
 31
0.0
  0
LINE
  5
D5A
330
D
100
AcDbEntity
 67
     1
  8
LOGO
 62
     4
100
AcDbLine
 10
294.0867405147857
 20
40.0831707277809
 30
0.0
 11
275.4311275071149
 21
40.0831707277809
 31
0.0
  0
LINE
  5
D5B
330
D
100
AcDbEntity
 67
     1
  8
LOGO
  6
Continuous
 62
     7
100
AcDbLine
 10
295.8201638988612
 20
35.01684518596642
 30
0.0
 11
300.262899152609
 21
35.01684518596642
 31
0.0
  0
TEXT
  5
D5C
330
D
100
AcDbEntity
 67
     1
  8
LOGO
  6
Continuous
 62
     7
100
AcDbText
 10
305.6798998870688
 20
32.19427128554702
 30
0.0
 40
5.589651742325981
  1
?
  7
CHINESET
 72
     1
 11
307.1438562957732
 21
34.98909715671002
 31
0.0
100
AcDbText
 73
     2
  0
LINE
  5
D5D
330
D
100
AcDbEntity
 67
     1
  8
LOGO
 62
     4
100
AcDbLine
 10
312.0965753540201
 20
40.0831707277809
 30
0.0
 11
312.0965753540201
 21
30.02179759159401
 31
0.0
  0
TEXT
  5
D5E
330
D
100
AcDbEntity
 67
     1
  8
LOGO
100
AcDbText
 10
304.5194233896588
 20
18.84249410694226
 30
0.0
 40
4.471721393860784
  1
配件
 72
     4
 11
309.0377252147056
 21
21.07835480387266
 31
0.0
100
AcDbText
  0
LINE
  5
D5F
330
D
100
AcDbEntity
 67
     1
  8
LOGO
 62
     4
100
AcDbLine
 10
319.3193603472849
 20
24.99111102350088
 30
0.0
 11
319.3193603472849
 21
12.69387719038363
 31
0.0
  0
LINE
  5
D60
330
D
100
AcDbEntity
 67
     1
  8
LOGO
 62
     4
100
AcDbLine
 10
119.1338776591184
 20
9.899051319220433
 30
0.0
 11
119.1338776591184
 21
43.43696177317707
 31
0.0
  0
TEXT
  5
D61
330
D
100
AcDbEntity
 67
     1
  8
LOGO
  6
Continuous
100
AcDbText
 10
57.39744285130075
 20
16.48752321478011
 30
0.0
 40
5.030686568093425
  1
金器工業股份有限公司
  7
CHINESET
100
AcDbText
  0
TEXT
  5
D62
330
D
100
AcDbEntity
 67
     1
  8
LOGO
  6
Continuous
100
AcDbText
 10
48.15706689796889
 20
11.45585102654041
 30
0.0
 40
3.353791045395617
  1
MINDMAN INDUSTRIAL CO., LTD.
 41
0.85
  7
CHINESET
100
AcDbText
  0
LINE
  5
D63
330
D
100
AcDbEntity
 67
     1
  8
LOGO
 62
     4
100
AcDbLine
 10
119.1338776591184
 20
36.72937968238557
 30
0.0
 11
69.94494232664829
 21
36.72937968238557
 31
0.0
  0
LINE
  5
D64
330
D
100
AcDbEntity
 67
     1
  8
LOGO
 62
     4
100
AcDbLine
 10
119.1338776591184
 20
30.02179759159421
 30
0.0
 11
69.94494232664829
 21
30.02179759159421
 31
0.0
  0
LINE
  5
D65
330
D
100
AcDbEntity
 67
     1
  8
LOGO
 62
     4
100
AcDbLine
 10
119.1338776591184
 20
23.3142155008031
 30
0.0
 11
45.35047466041407
 21
23.3142155008031
 31
0.0
  0
LINE
  5
D66
330
D
100
AcDbEntity
 67
     1
  8
LOGO
 62
     4
100
AcDbLine
 10
69.94494232664829
 20
23.3142155008031
 30
0.0
 11
69.94494232664829
 21
43.43696177317707
 31
0.0
  0
TEXT
  5
D67
330
D
100
AcDbEntity
 67
     1
  8
LOGO
100
AcDbText
 10
103.5632579440074
 20
24.99111102350073
 30
0.0
 40
3.353791045395617
  1
mm
  7
CHINESET
 72
     1
 11
107.7155706668782
 21
26.66800654619854
 31
0.0
100
AcDbText
 73
     2
  0
TEXT
  5
D68
330
D
100
AcDbEntity
 67
     1
  8
LOGO
100
AcDbText
 10
101.8065102535621
 20
38.4062752050832
 30
0.0
 40
3.353791045395617
  1
1 : 1
  7
CHINESET
 72
     1
 11
107.7155706668782
 21
40.083170727781
 31
0.0
100
AcDbText
 73
     2
  0
LINE
  5
D69
330
D
100
AcDbEntity
 67
     1
  8
LOGO
 62
     4
100
AcDbLine
 10
96.7752706898139
 20
23.3142155008031
 30
0.0
 11
96.7752706898139
 21
43.43696177317707
 31
0.0
  0
TEXT
  5
D6A
330
D
100
AcDbEntity
 67
     1
  8
LOGO
100
AcDbText
 10
72.71032271095528
 20
38.40792569280239
 30
219.8019400672432
 40
3.353791045395617
  1
比例 Scale:
 41
0.9
  7
CHINESET
 72
     4
 11
83.36010650823164
 21
40.083170727781
 31
219.8019400672432
100
AcDbText
  0
TEXT
  5
D6B
330
D
100
AcDbEntity
 67
     1
  8
LOGO
100
AcDbText
 10
72.51718028021598
 20
31.7458695549323
 30
219.8019400672432
 40
3.353791045395617
  1
投影  View:
 41
0.9
  7
CHINESET
 72
     4
 11
83.36010650823164
 21
33.37558863698991
 31
219.8019400672432
100
AcDbText
  0
TEXT
  5
D6C
330
D
100
AcDbEntity
 67
     1
  8
LOGO
100
AcDbText
 10
72.84507324402921
 20
24.99111102350073
 30
219.8019400672432
 40
3.353791045395617
  1
單位  Unit:
 41
0.9
  7
CHINESET
 72
     4
 11
83.36010650823164
 21
26.66800654619854
 31
219.8019400672432
100
AcDbText
  0
SOLID
  5
D6D
330
D
100
AcDbEntity
 67
     1
  8
LOGO
 62
     5
100
AcDbTrace
 10
48.83008669426454
 20
28.88941573920948
 30
0.0
 11
50.28017793881645
 21
28.88941573920858
 31
0.0
 12
56.33055864884397
 22
42.64028098927193
 32
0.0
 13
57.78064989339634
 23
42.64028098927082
 33
0.0
  0
SOLID
  5
D6E
330
D
100
AcDbEntity
 67
     1
  8
LOGO
 62
     5
100
AcDbTrace
 10
50.88021569518423
 20
28.88941573920948
 30
0.0
 11
52.33030693973614
 21
28.88941573920948
 31
0.0
 12
57.78064989339634
 22
41.54021176926642
 32
0.0
 13
56.33055864884397
 23
36.22321053924224
 33
0.0
  0
SOLID
  5
D6F
330
D
100
AcDbEntity
 67
     1
  8
LOGO
 62
     2
100
AcDbTrace
 10
50.28017793881645
 20
28.88941573920858
 30
0.0
 11
50.88021569518423
 21
28.88941573920948
 31
0.0
 12
57.78064989339634
 22
42.64028098927082
 32
0.0
 13
58.38068764976378
 23
42.64028098927082
 33
0.0
  0
SOLID
  5
D70
330
D
100
AcDbEntity
 67
     1
  8
LOGO
 62
     5
100
AcDbTrace
 10
46.50523482331499
 20
23.88910110282302
 30
0.0
 11
47.00526628695434
 21
23.88910110282302
 31
0.0
 12
48.41339380789907
 22
26.38925842101619
 32
0.0
 13
48.91342527153756
 23
26.38925842101619
 33
0.0
  0
SOLID
  5
D71
330
D
100
AcDbEntity
 67
     1
  8
LOGO
 62
     5
100
AcDbTrace
 10
48.41339380789907
 20
26.38925842101619
 30
0.0
 11
48.91342527153756
 21
26.38925842101619
 31
0.0
 12
48.41339380789907
 22
23.88910110282302
 32
0.0
 13
48.91342527153756
 23
23.88910110282302
 33
0.0
  0
SOLID
  5
D72
330
D
100
AcDbEntity
 67
     1
  8
LOGO
 62
     5
100
AcDbTrace
 10
48.41339380789907
 20
23.88910110282302
 30
0.0
 11
48.91342527153756
 21
23.88910110282302
 31
0.0
 12
50.32155279248491
 22
26.38925842101619
 32
0.0
 13
50.821584256123
 23
26.38925842101619
 33
0.0
  0
SOLID
  5
D73
330
D
100
AcDbEntity
 67
     1
  8
LOGO
 62
     5
100
AcDbTrace
 10
50.32155279248491
 20
26.38925842101619
 30
0.0
 11
50.821584256123
 21
26.38925842101619
 31
0.0
 12
50.32155279248491
 22
23.88910110282302
 32
0.0
 13
50.821584256123
 23
23.88910110282302
 33
0.0
  0
POLYLINE
  5
D74
330
D
100
AcDbEntity
 67
     1
  8
LOGO
 62
     5
100
AcDb2dPolyline
 66
     1
 10
0.0
 20
0.0
 30
0.0
 40
0.500832796112412
 41
0.500832796112412
  0
VERTEX
  5
D75
330
D74
100
AcDbEntity
 67
     1
  8
LOGO
 62
     5
100
AcDbVertex
100
AcDb2dVertex
 10
67.08243711578609
 20
25.3891954937385
 30
0.0
 42
1.0
  0
VERTEX
  5
D76
330
D74
100
AcDbEntity
 67
     1
  8
LOGO
 62
     5
100
AcDbVertex
100
AcDb2dVertex
 10
65.57993872744941
 20
25.3891954937385
 30
0.0
 42
1.0
  0
SEQEND
  5
D77
330
D74
100
AcDbEntity
 67
     1
  8
LOGO
 62
     5
  0
POLYLINE
  5
D78
330
D
100
AcDbEntity
 67
     1
  8
LOGO
 62
     5
100
AcDb2dPolyline
 66
     1
 10
0.0
 20
0.0
 30
0.0
 70
     1
  0
VERTEX
  5
D79
330
D78
100
AcDbEntity
 67
     1
  8
LOGO
 62
     5
100
AcDbVertex
100
AcDb2dVertex
 10
62.74766243430429
 20
25.13917976191945
 30
0.0
 42
1.000000057330635
  0
VERTEX
  5
D7A
330
D78
100
AcDbEntity
 67
     1
  8
LOGO
 62
     5
100
AcDbVertex
100
AcDb2dVertex
 10
64.24775682521953
 20
25.13917976191945
 30
0.0
 42
1.000000057330635
  0
SEQEND
  5
D7B
330
D78
100
AcDbEntity
 67
     1
  8
LOGO
 62
     5
  0
CIRCLE
  5
D7C
330
D
100
AcDbEntity
 67
     1
  8
LOGO
 62
     5
100
AcDbCircle
 10
63.49770962976288
 20
25.13917976191945
 30
0.0
 40
0.7500471954579482
  0
POLYLINE
  5
D7D
330
D
100
AcDbEntity
 67
     1
  8
LOGO
 62
     5
100
AcDb2dPolyline
 66
     1
 10
0.0
 20
0.0
 30
0.0
 70
     1
 40
0.500832796112412
 41
0.500832796112412
  0
VERTEX
  5
D7E
330
D7D
100
AcDbEntity
 67
     1
  8
LOGO
 62
     5
100
AcDbVertex
100
AcDb2dVertex
 10
62.49604403753756
 20
25.13917976191945
 30
0.0
 42
1.0
  0
VERTEX
  5
D7F
330
D7D
100
AcDbEntity
 67
     1
  8
LOGO
 62
     5
100
AcDbVertex
100
AcDb2dVertex
 10
64.49937522198741
 20
25.13917976191945
 30
0.0
 42
1.0
  0
SEQEND
  5
D80
330
D7D
100
AcDbEntity
 67
     1
  8
LOGO
 62
     5
  0
LINE
  5
D81
330
D
100
AcDbEntity
 67
     1
  8
LOGO
100
AcDbLine
 10
67.33125084889355
 20
23.88910110282302
 30
0.0
 11
67.33125084889355
 21
25.3891954937385
 31
0.0
  0
SOLID
  5
D82
330
D
100
AcDbEntity
 67
     1
  8
LOGO
 62
     5
100
AcDbTrace
 10
64.24770682207531
 20
26.38925842101619
 30
0.0
 11
64.74773828571335
 21
26.38925842101619
 31
0.0
 12
64.24770682207531
 22
23.88910110282302
 32
0.0
 13
64.74773828571335
 23
23.88910110282302
 33
0.0
  0
SOLID
  5
D83
330
D
100
AcDbEntity
 67
     1
  8
LOGO
 62
     5
100
AcDbTrace
 10
65.33112499433968
 20
23.88910110282302
 30
0.0
 11
65.83115645797841
 21
23.88910110282302
 31
0.0
 12
65.33112499433968
 22
26.38925842101619
 32
0.0
 13
65.83115645797841
 23
26.38925842101619
 33
0.0
  0
SOLID
  5
D84
330
D
100
AcDbEntity
 67
     1
  8
LOGO
 62
     5
100
AcDbTrace
 10
66.83121938525641
 20
25.3891954937385
 30
0.0
 11
67.33125084889355
 21
25.3891954937385
 31
0.0
 12
66.83121938525641
 22
23.88910110282302
 32
0.0
 13
67.33125084889355
 23
23.88910110282302
 33
0.0
  0
SOLID
  5
D85
330
D
100
AcDbEntity
 67
     1
  8
LOGO
 62
     5
100
AcDbTrace
 10
65.28112184797556
 20
41.54021176926642
 30
0.0
 11
63.83103060342404
 21
36.22321053924224
 31
0.0
 12
65.28112184797556
 22
28.88941573920858
 32
0.0
 13
63.83103060342404
 23
28.88941573920858
 33
0.0
  0
SOLID
  5
D86
330
D
100
AcDbEntity
 67
     1
  8
LOGO
 62
     5
100
AcDbTrace
 10
65.88115960434237
 20
28.88941573920858
 30
0.0
 11
67.33125084889355
 21
28.88941573920858
 31
0.0
 12
65.88115960434237
 22
42.64028098927082
 32
0.0
 13
67.33125084889355
 23
42.64028098927193
 33
0.0
  0
SOLID
  5
D87
330
D
100
AcDbEntity
 67
     1
  8
LOGO
 62
     2
100
AcDbTrace
 10
65.28112184797556
 20
42.64028098927193
 30
0.0
 11
65.88115960434237
 21
42.64028098927082
 31
0.0
 12
65.28112184797556
 22
28.88941573920858
 32
0.0
 13
65.88115960434237
 23
28.88941573920858
 33
0.0
  0
POLYLINE
  5
D88
330
D
100
AcDbEntity
 67
     1
  8
LOGO
 62
     5
100
AcDb2dPolyline
 66
     1
 10
0.0
 20
0.0
 30
0.0
 40
0.500832796112412
 41
0.500832796112412
  0
VERTEX
  5
D89
330
D88
100
AcDbEntity
 67
     1
  8
LOGO
 62
     5
100
AcDbVertex
100
AcDb2dVertex
 10
59.91528613486889
 20
25.3891954937385
 30
0.0
 42
1.0
  0
VERTEX
  5
D8A
330
D88
100
AcDbEntity
 67
     1
  8
LOGO
 62
     5
100
AcDbVertex
100
AcDb2dVertex
 10
58.41278774653051
 20
25.3891954937385
 30
0.0
 42
1.0
  0
SEQEND
  5
D8B
330
D88
100
AcDbEntity
 67
     1
  8
LOGO
 62
     5
  0
POLYLINE
  5
D8C
330
D
100
AcDbEntity
 67
     1
  8
LOGO
 62
     5
100
AcDb2dPolyline
 66
     1
 10
0.0
 20
0.0
 30
0.0
 40
0.500832796112412
 41
0.500832796112412
  0
VERTEX
  5
D8D
330
D8C
100
AcDbEntity
 67
     1
  8
LOGO
 62
     5
100
AcDbVertex
100
AcDb2dVertex
 10
61.41538052578392
 20
25.3891954937385
 30
0.0
 42
1.0
  0
VERTEX
  5
D8E
330
D8C
100
AcDbEntity
 67
     1
  8
LOGO
 62
     5
100
AcDbVertex
100
AcDb2dVertex
 10
59.91288213744667
 20
25.3891954937385
 30
0.0
 42
1.0
  0
SEQEND
  5
D8F
330
D8C
100
AcDbEntity
 67
     1
  8
LOGO
 62
     5
  0
POLYLINE
  5
D90
330
D
100
AcDbEntity
 67
     1
  8
LOGO
 62
     5
100
AcDb2dPolyline
 66
     1
 10
0.0
 20
0.0
 30
0.0
 40
0.500832796112412
 41
0.500832796112412
  0
VERTEX
  5
D91
330
D90
100
AcDbEntity
 67
     1
  8
LOGO
 62
     5
100
AcDbVertex
100
AcDb2dVertex
 10
54.24822954486512
 20
25.3891954937385
 30
0.0
 42
1.0
  0
VERTEX
  5
D92
330
D90
100
AcDbEntity
 67
     1
  8
LOGO
 62
     5
100
AcDbVertex
100
AcDb2dVertex
 10
52.74573115652794
 20
25.3891954937385
 30
0.0
 42
1.0
  0
SEQEND
  5
D93
330
D90
100
AcDbEntity
 67
     1
  8
LOGO
 62
     5
  0
SOLID
  5
D94
330
D
100
AcDbEntity
 67
     1
  8
LOGO
 62
     5
100
AcDbTrace
 10
52.49691742341958
 20
26.38925842101619
 30
0.0
 11
52.99694888705733
 21
26.38925842101619
 31
0.0
 12
52.49691742341958
 22
23.88910110282302
 32
0.0
 13
52.99694888705733
 23
23.88910110282302
 33
0.0
  0
SOLID
  5
D95
330
D
100
AcDbEntity
 67
     1
  8
LOGO
 62
     5
100
AcDbTrace
 10
53.99701181433607
 20
25.3891954937385
 30
0.0
 11
54.4970432779757
 21
25.3891954937385
 31
0.0
 12
53.99701181433607
 22
23.88910110282302
 32
0.0
 13
54.4970432779757
 23
23.88910110282302
 33
0.0
  0
POLYLINE
  5
D96
330
D
100
AcDbEntity
 67
     1
  8
LOGO
 62
     5
100
AcDb2dPolyline
 66
     1
 10
0.0
 20
0.0
 30
0.0
 70
     1
 40
0.500832796112412
 41
0.500832796112412
  0
VERTEX
  5
D97
330
D96
100
AcDbEntity
 67
     1
  8
LOGO
 62
     5
100
AcDbVertex
100
AcDb2dVertex
 10
55.32889305661928
 20
25.13917976191945
 30
0.0
 42
1.0
  0
VERTEX
  5
D98
330
D96
100
AcDbEntity
 67
     1
  8
LOGO
 62
     5
100
AcDbVertex
100
AcDb2dVertex
 10
57.3322242410689
 20
25.13917976191945
 30
0.0
 42
1.0
  0
SEQEND
  5
D99
330
D96
100
AcDbEntity
 67
     1
  8
LOGO
 62
     5
  0
SOLID
  5
D9A
330
D
100
AcDbEntity
 67
     1
  8
LOGO
 62
     5
100
AcDbTrace
 10
57.08055584115664
 20
27.13930561647436
 30
0.0
 11
57.58058730479536
 21
27.13930561647436
 31
0.0
 12
57.08055584115664
 22
23.88910110282302
 32
0.0
 13
57.58058730479536
 23
23.88910110282302
 33
0.0
  0
SOLID
  5
D9B
330
D
100
AcDbEntity
 67
     1
  8
LOGO
 62
     5
100
AcDbTrace
 10
58.16397401342351
 20
26.38925842101619
 30
0.0
 11
58.66400547706138
 21
26.38925842101619
 31
0.0
 12
58.16397401342351
 22
23.88910110282302
 32
0.0
 13
58.66400547706138
 23
23.88910110282302
 33
0.0
  0
SOLID
  5
D9C
330
D
100
AcDbEntity
 67
     1
  8
LOGO
 62
     5
100
AcDbTrace
 10
59.66406840433797
 20
25.3891954937385
 30
0.0
 11
60.16409986797686
 21
25.3891954937385
 31
0.0
 12
59.66406840433797
 22
23.88910110282302
 32
0.0
 13
60.16409986797686
 23
23.88910110282302
 33
0.0
  0
SOLID
  5
D9D
330
D
100
AcDbEntity
 67
     1
  8
LOGO
 62
     5
100
AcDbTrace
 10
61.16416279525322
 20
25.3891954937385
 30
0.0
 11
61.66419425889273
 21
25.3891954937385
 31
0.0
 12
61.16416279525322
 22
23.88910110282242
 32
0.0
 13
61.66419425889273
 23
23.88910110282242
 33
0.0
  0
SOLID
  5
D9E
330
D
100
AcDbEntity
 67
     1
  8
LOGO
 62
     5
100
AcDbTrace
 10
51.41349925115332
 20
26.73928044556305
 30
0.0
 11
51.91353071479426
 21
26.73928044556305
 31
0.0
 12
51.41349925115332
 22
27.13930561647436
 32
0.0
 13
51.91353071479426
 23
27.13930561647436
 33
0.0
  0
SOLID
  5
D9F
330
D
100
AcDbEntity
 67
     1
  8
LOGO
 62
     5
100
AcDbTrace
 10
51.41349925115332
 20
26.38925842101619
 30
0.0
 11
51.91353071479426
 21
26.38925842101619
 31
0.0
 12
51.41349925115332
 22
23.88910110282242
 32
0.0
 13
51.91353071479426
 23
23.88910110282302
 33
0.0
  0
SOLID
  5
DA0
330
D
100
AcDbEntity
 67
     1
  8
LOGO
 62
     5
100
AcDbTrace
 10
56.33055864884397
 20
28.88941573920948
 30
0.0
 11
57.78064989339634
 21
28.88941573920948
 31
0.0
 12
56.33055864884397
 22
36.22321053924224
 32
0.0
 13
57.78064989339634
 23
41.54021176926642
 33
0.0
  0
SOLID
  5
DA1
330
D
100
AcDbEntity
 67
     1
  8
LOGO
 62
     5
100
AcDbTrace
 10
58.38068764976378
 20
42.64028098927082
 30
0.0
 11
59.83077889431559
 21
42.64028098927193
 31
0.0
 12
58.38068764976378
 22
29.98948495921357
 32
0.0
 13
59.83077889431559
 23
35.30648618923806
 33
0.0
  0
SOLID
  5
DA2
330
D
100
AcDbEntity
 67
     1
  8
LOGO
 62
     2
100
AcDbTrace
 10
57.78064989339634
 20
42.64028098927082
 30
0.0
 11
58.38068764976378
 21
42.64028098927082
 31
0.0
 12
57.78064989339634
 22
28.88941573920948
 32
0.0
 13
58.38068764976378
 23
28.88941573920948
 33
0.0
  0
SOLID
  5
DA3
330
D
100
AcDbEntity
 67
     1
  8
LOGO
 62
     5
100
AcDbTrace
 10
58.38068764976378
 20
29.98948495921357
 30
0.0
 11
59.83077889431559
 21
35.30648618923806
 31
0.0
 12
65.28112184797556
 22
42.64028098927193
 32
0.0
 13
63.83103060342404
 23
42.64028098927193
 33
0.0
  0
SOLID
  5
DA4
330
D
100
AcDbEntity
 67
     1
  8
LOGO
 62
     5
100
AcDbTrace
 10
58.38068764976378
 20
28.88941573920948
 30
0.0
 11
59.83077889431559
 21
28.88941573920948
 31
0.0
 12
65.28112184797556
 22
41.54021176926642
 32
0.0
 13
63.83103060342404
 23
36.22321053924224
 33
0.0
  0
SOLID
  5
DA5
330
D
100
AcDbEntity
 67
     1
  8
LOGO
 62
     2
100
AcDbTrace
 10
57.78064989339634
 20
28.88941573920948
 30
0.0
 11
58.38068764976378
 21
28.88941573920948
 31
0.0
 12
65.28112184797556
 22
42.64028098927193
 32
0.0
 13
65.88115960434237
 23
42.64028098927082
 33
0.0
  0
LWPOLYLINE
  5
DA6
330
D
100
AcDbEntity
 67
     1
  8
LOGO
 62
     4
100
AcDbPolyline
 90
        4
 70
     1
 43
0.0
 10
45.35047466041541
 20
43.43696177317648
 10
449.2959739058396
 20
43.43696177317648
 10
449.2959739058396
 20
9.899051319220205
 10
45.35047466041541
 20
9.899051319220205
1001
GENIUS_GENREC_14
1002
{
1000
PYDIR
1011
45.35047466041541
1021
9.899051319220205
1031
0.0
1002
}
1002
{
1000
PXDIR
1011
449.2959739058396
1021
43.43696177317648
1031
0.0
1002
}
1002
{
1000
PORI
1011
45.35047466041541
1021
43.43696177317648
1031
0.0
1002
}
1002
{
1000
PINS
1011
45.35047466041541
1021
43.43696177317648
1031
0.0
1002
}
1002
{
1000
PINS2
1011
449.2959739058396
1021
9.899051319220205
1031
0.0
1002
}
1002
{
1000
C
1070
     1
1002
}
1001
GENIUS_GENOBJ-N-REC_13
1002
{
1000
OWNER
1000
GEN
1002
}
1001
GENIUS_GENODEF_13
1002
{
1000
HIER
1070
     0
1002
}
1002
{
1000
MANEDIT
1070
     0
1002
}
1002
{
1000
NOSEL
1070
     0
1002
}
1002
{
1000
BEHIND
1070
     0
1002
}
1002
{
1000
OTHER
1070
     0
1002
}
1002
{
1000
REACTOR
1002
}
  0
TEXT
  5
DA7
330
D
100
AcDbEntity
 67
     1
  8
LOGO
100
AcDbText
 10
120.6878060468909
 20
11.68325491816983
 30
0.0
 40
3.354276732524307
  1
1120724B
 41
0.7
  7
CHINESET
 72
     1
 11
128.8498794293667
 21
11.68325491816983
 31
0.0
100
AcDbText
  0
LINE
  5
DA8
330
D
100
AcDbEntity
 67
     1
  8
LOGO
 62
     4
100
AcDbLine
 10
139.259538054262
 20
16.60663341001248
 30
0.0
 11
139.2595380542644
 21
9.899051319220717
 31
0.0
  0
LINE
  5
DA9
330
D
100
AcDbEntity
 67
     1
  8
LOGO
 62
     4
100
AcDbLine
 10
139.259538054262
 20
16.60663341001248
 30
0.0
 11
119.1338776591184
 21
16.60663341001248
 31
0.0
  0
CIRCLE
  5
DAA
330
D
100
AcDbEntity
 67
     1
  8
LOGO
  6
Continuous
100
AcDbCircle
 10
102.9852342959173
 20
33.38276242057833
 30
0.0
 40
1.947290020299353
  0
CIRCLE
  5
DAB
330
D
100
AcDbEntity
 67
     1
  8
LOGO
  6
Continuous
100
AcDbCircle
 10
102.9852342959173
 20
33.38276242057833
 30
0.0
 40
1.140939568063168
  0
LINE
  5
DAC
330
D
100
AcDbEntity
 67
     1
  8
LOGO
100
AcDbLine
 10
115.2222307374564
 20
31.4354724002788
 30
0.0
 11
115.2222307374564
 21
35.33005244087807
 31
0.0
  0
LINE
  5
DAD
330
D
100
AcDbEntity
 67
     1
  8
LOGO
100
AcDbLine
 10
109.1175883035982
 20
32.24182285251533
 30
0.0
 11
109.1175883035982
 21
34.52370198864185
 31
0.0
  0
LINE
  5
DAE
330
D
100
AcDbEntity
 67
     1
  8
LOGO
  6
Continuous
100
AcDbLine
 10
109.1175883035982
 20
34.52370198864185
 30
0.0
 11
115.2222307374564
 21
35.33005244087807
 31
0.0
  0
LINE
  5
DAF
330
D
100
AcDbEntity
 67
     1
  8
LOGO
  6
Continuous
100
AcDbLine
 10
109.1175883035982
 20
32.24182285251533
 30
0.0
 11
115.2222307374564
 21
31.4354724002788
 31
0.0
  0
LINE
  5
DB0
330
D
100
AcDbEntity
 67
     1
  8
LOGO
  6
AM_ISO08W050x2
 48
0.3
100
AcDbLine
 10
100.3008658445615
 20
33.38276242057833
 30
0.0
 11
105.6696027472707
 21
33.38276242057833
 31
0.0
1001
GENIUS_GENOREF_13
1005
DBB
  0
LINE
  5
DB1
330
D
100
AcDbEntity
 67
     1
  8
LOGO
  6
AM_ISO08W050x2
 48
0.3
100
AcDbLine
 10
102.9852342959173
 20
30.6983939692241
 30
0.0
 11
102.9852342959173
 21
36.06713087193316
 31
0.0
1001
GENIUS_GENOREF_13
1005
DBA
  0
LINE
  5
DB2
330
D
100
AcDbEntity
 67
     1
  8
LOGO
  6
CENTER
 48
0.5
100
AcDbLine
 10
108.6293865866325
 20
33.38276242057833
 30
0.0
 11
115.8369484687986
 21
33.38276242057833
 31
0.0
1001
GENIUS_GENOREF_13
1005
DB9
  0
LINE
  5
DB3
330
D
100
AcDbEntity
 67
     1
  8
0
 62
     4
100
AcDbLine
 10
45.35047466041544
 20
43.43696177317648
 30
0.0
 11
449.2959739058388
 21
43.43696177317648
 31
0.0
  0
POINT
  5
DB9
330
D
100
AcDbEntity
 67
     1
  8
0
 60
     1
100
AcDbPoint
 10
2113.309964340805
 20
-560.586859288516
 30
0.0
1001
GENIUS_GENOBJ-N-CRS_13
1002
{
1000
OWNER
1000
GEN
1002
}
1001
GENIUS_GENOLIS_13
1002
{
1000
ENT
1005
0
1005
0
1005
0
1005
DB2
1002
}
1001
GENIUS_GENOENT_13
1002
{
1000
MYREF
1005
DB9
1002
}
1002
{
1000
GRP
1005
0
1002
}
1001
GENIUS_GENODEF_13
1002
{
1000
HIER
1070
    10
1002
}
1002
{
1000
MANEDIT
1070
     1
1002
}
1002
{
1000
NOSEL
1070
     0
1002
}
1002
{
1000
BEHIND
1070
     0
1002
}
1002
{
1000
OTHER
1070
     0
1002
}
1002
{
1000
REACTOR
1002
}
  0
POINT
  5
DBA
330
D
100
AcDbEntity
 67
     1
  8
0
 60
     1
100
AcDbPoint
 10
2101.98537911795
 20
-551.7112728098798
 30
0.0
1001
GENIUS_GENOBJ-N-CRS_13
1002
{
1000
OWNER
1000
GEN
1002
}
1001
GENIUS_GENOLIS_13
1002
{
1000
ENT
1005
0
1005
0
1005
0
1005
DB1
1002
}
1001
GENIUS_GENOENT_13
1002
{
1000
MYREF
1005
DBA
1002
}
1002
{
1000
GRP
1005
0
1002
}
1001
GENIUS_GENODEF_13
1002
{
1000
HIER
1070
    10
1002
}
1002
{
1000
MANEDIT
1070
     1
1002
}
1002
{
1000
NOSEL
1070
     0
1002
}
1002
{
1000
BEHIND
1070
     0
1002
}
1002
{
1000
OTHER
1070
     0
1002
}
1002
{
1000
REACTOR
1002
}
  0
POINT
  5
DBB
330
D
100
AcDbEntity
 67
     1
  8
0
 60
     1
100
AcDbPoint
 10
2108.344052815787
 20
-560.586859288516
 30
0.0
1001
GENIUS_GENOBJ-N-CRS_13
1002
{
1000
OWNER
1000
GEN
1002
}
1001
GENIUS_GENOLIS_13
1002
{
1000
ENT
1005
0
1005
0
1005
0
1005
DB0
1002
}
1001
GENIUS_GENOENT_13
1002
{
1000
MYREF
1005
DBB
1002
}
1002
{
1000
GRP
1005
0
1002
}
1001
GENIUS_GENODEF_13
1002
{
1000
HIER
1070
    10
1002
}
1002
{
1000
MANEDIT
1070
     1
1002
}
1002
{
1000
NOSEL
1070
     0
1002
}
1002
{
1000
BEHIND
1070
     0
1002
}
1002
{
1000
OTHER
1070
     0
1002
}
1002
{
1000
REACTOR
1002
}
  0
DIMENSION
  5
DC8
330
D
100
AcDbEntity
 67
     1
  8
AM_5
100
AcDbDimension
  2
*D1
 10
115.79410208126
 20
76.71442662994604
 30
0.0
 11
103.91910208126
 21
76.71442662994604
 31
0.0
 70
   160
 71
     5
 42
4.0
  3
AM_ISO$0
100
AcDbAlignedDimension
 13
111.79410208126
 23
114.214426629946
 33
0.0
 14
115.79410208126
 24
104.714426629946
 34
0.0
100
AcDbRotatedDimension
1001
ACAD
1000
DSTYLE
1002
{
1070
    40
1040
1.0
1070
   144
1040
1.0
1070
   272
1070
     8
1002
}
  0
DIMENSION
  5
DEB
330
D
100
AcDbEntity
 67
     1
  8
AM_5
100
AcDbDimension
  2
*D2
 10
209.7941020812601
 20
84.71442662994604
 30
0.0
 11
162.79410208126
 21
87.46442662994605
 31
0.0
 70
    32
  1
94+Stroke
 71
     5
 42
94.0
  3
AM_ISO$0
100
AcDbAlignedDimension
 13
115.79410208126
 23
104.714426629946
 33
0.0
 14
209.7941020812601
 24
104.714426629946
 34
0.0
100
AcDbRotatedDimension
1001
ACAD
1000
DSTYLE
1002
{
1070
    40
1040
1.0
1070
   174
1070
     1
1070
   272
1070
     8
1002
}
  0
DIMENSION
  5
E14
330
D
100
AcDbEntity
 67
     1
  8
AM_5
100
AcDbDimension
  2
*D3
 10
269.79410208126
 20
84.71442662994604
 30
0.0
 11
239.79410208126
 21
87.46442662994605
 31
0.0
 70
    32
 71
     5
 42
59.99999999999994
  3
AM_ISO$0
100
AcDbAlignedDimension
 13
209.7941020812601
 23
104.714426629946
 33
0.0
 14
269.79410208126
 24
105.214426629946
 34
0.0
100
AcDbRotatedDimension
1001
ACAD
1000
DSTYLE
1002
{
1070
   174
1070
     1
1070
    40
1040
1.0
1070
   144
1040
1.0
1070
   272
1070
     8
1002
}
  0
DIMENSION
  5
E2B
330
D
100
AcDbEntity
 67
     1
  8
AM_5
100
AcDbDimension
  2
*D4
 10
277.2941020812599
 20
93.21442662994604
 30
0.0
 11
260.2716147078447
 21
93.21442662994604
 31
0.0
 70
   160
 71
     5
 42
7.499999999999943
  3
AM_ISO$0
100
AcDbAlignedDimension
 13
269.79410208126
 23
105.214426629946
 33
0.0
 14
277.2941020812599
 24
113.964426629946
 34
0.0
100
AcDbRotatedDimension
1001
ACAD
1000
DSTYLE
1002
{
1070
   174
1070
     1
1070
    40
1040
1.0
1070
   144
1040
1.0
1070
   272
1070
     8
1002
}
  0
DIMENSION
  5
E4C
330
D
100
AcDbEntity
 67
     1
  8
AM_5
100
AcDbDimension
  2
*D5
 10
295.7945149982153
 20
84.71442662994604
 30
0.0
 11
282.7943085397377
 21
87.46477111813502
 31
0.0
 70
    32
 71
     5
 42
26.00041291695533
  3
AM_ISO$0
100
AcDbAlignedDimension
 13
269.79410208126
 23
105.214426629946
 33
0.0
 14
295.7945149982153
 24
123.214426629946
 34
0.0
100
AcDbRotatedDimension
1001
ACAD
1000
DSTYLE
1002
{
1070
   174
1070
     1
1070
    40
1040
1.0
1070
   144
1040
1.0
1070
   272
1070
     8
1002
}
  0
DIMENSION
  5
E62
330
D
100
AcDbEntity
 67
     1
  8
AM_5
100
AcDbDimension
  2
*D6
 10
295.7945149982153
 20
76.71442662994604
 30
0.0
 11
306.7943085397376
 21
79.46477111813502
 31
0.0
 70
    32
 71
     5
 42
21.99958708304462
  3
AM_ISO$0
100
AcDbAlignedDimension
 13
317.79410208126
 23
124.214426629946
 33
0.0
 14
295.7945149982153
 24
122.214426629946
 34
0.0
100
AcDbRotatedDimension
1001
ACAD
1000
DSTYLE
1002
{
1070
    40
1040
1.0
1070
   174
1070
     1
1070
   272
1070
     8
1002
}
  0
DIMENSION
  5
E81
330
D
100
AcDbEntity
 67
     1
  8
AM_5
100
AcDbDimension
  2
*D7
 10
295.7945149982153
 20
76.71442662994604
 30
0.0
 11
205.7943085397377
 21
79.46442662994605
 31
0.0
 70
    32
  1
<>+Stroke
 71
     5
 42
180.0004129169552
  3
AM_ISO$0
100
AcDbAlignedDimension
 13
115.79410208126
 23
104.714426629946
 33
0.0
 14
295.7945149982153
 24
122.214426629946
 34
0.0
100
AcDbRotatedDimension
1001
ACAD
1000
DSTYLE
1002
{
1070
   174
1070
     1
1070
    40
1040
1.0
1070
   144
1040
1.0
1070
   272
1070
     8
1002
}
  0
DIMENSION
  5
1174
330
D
100
AcDbEntity
 67
     1
  8
AM_5
100
AcDbDimension
  2
*D8
 10
333.7404443171046
 20
113.214426629946
 30
0.0
 11
330.9904443171046
 21
128.2144266299461
 31
0.0
 70
    32
  1
%%c<>
 71
     5
 42
30.0
  3
AM_ISO$0
100
AcDbAlignedDimension
 13
276.54410208126
 23
143.214426629946
 33
0.0
 14
276.54410208126
 24
113.214426629946
 34
0.0
 50
90.0
100
AcDbRotatedDimension
1001
ACAD
1000
DSTYLE
1002
{
1070
    40
1040
1.0
1070
   144
1040
1.0
1070
   272
1070
     8
1002
}
  0
DIMENSION
  5
1193
330
D
100
AcDbEntity
 67
     1
  8
AM_5
100
AcDbDimension
  2
*D9
 10
325.8192721515363
 20
122.214426629946
 30
0.0
 11
323.0689276633473
 21
128.2144266299461
 31
0.0
 70
    32
  1
%%c<>
 71
     5
 42
11.99999999999998
  3
AM_ISO$0
100
AcDbAlignedDimension
 13
288.79410208126
 23
134.214426629946
 33
0.0
 14
288.79410208126
 24
122.214426629946
 34
0.0
 50
90.0
100
AcDbRotatedDimension
1001
ACAD
1000
DSTYLE
1002
{
1070
    40
1040
1.0
1070
   144
1040
1.0
1070
   272
1070
     8
1002
}
  0
LINE
  5
11B2
330
D
100
AcDbEntity
 67
     1
  8
0
100
AcDbLine
 10
302.7941020812599
 20
136.6881201850995
 30
0.0
 11
303.2262202868349
 21
138.0293812061697
 31
0.0
  0
LINE
  5
11B3
330
D
100
AcDbEntity
 67
     1
  8
0
100
AcDbLine
 10
307.79410208126
 20
136.6881201850995
 30
0.0
 11
307.361983875685
 21
138.0293812061697
 31
0.0
  0
LINE
  5
11B4
330
D
100
AcDbEntity
 67
     1
  8
AM_VIS
100
AcDbLine
 10
307.3619838756849
 20
118.3994720537224
 30
0.0
 11
303.2262202868349
 21
118.3994720537224
 31
0.0
  0
LINE
  5
11B5
330
D
100
AcDbEntity
 67
     1
  8
0
100
AcDbLine
 10
302.7941020812599
 20
119.7407330747925
 30
0.0
 11
303.2262202868349
 21
118.3994720537224
 31
0.0
  0
LINE
  5
11B6
330
D
100
AcDbEntity
 67
     1
  8
0
100
AcDbLine
 10
307.79410208126
 20
119.7407330747925
 30
0.0
 11
307.361983875685
 21
118.3994720537224
 31
0.0
  0
LEADER
  5
11BB
330
D
100
AcDbEntity
 67
     1
  8
AM_5
100
AcDbLeader
  3
AM_ISO$7
 73
     0
 74
     0
 75
     1
 40
3.500688976377952
 41
16.59497474683059
 76
     3
 10
310.7116171388403
 20
133.214426629946
 30
0.0
 10
318.1837771103856
 20
148.1368451340245
 30
0.0
 10
321.1837771103856
 20
148.1368451340245
 30
0.0
340
11BC
213
1.540869635161357
223
0.617387818559962
233
0.0
1001
ACAD
1000
DSTYLE
1002
{
1070
    41
1040
3.0
1070
    43
1040
10.0
1070
   140
1040
3.5
1070
   147
1040
1.0
1070
   272
1070
     8
1002
}
  0
MTEXT
  5
11BC
102
{ACAD_REACTORS
330
11BB
102
}
330
D
100
AcDbEntity
 67
     1
  8
AM_5
100
AcDbMText
 10
320.6429074752243
 20
152.0201462918425
 30
0.0
 40
3.5
 41
0.0
 71
     1
 72
     1
  1
M10*1.25
 73
     1
 44
1.0
1001
ACAD
1000
MTEXTBEGIN
1070
    73
1070
     1
1070
    44
1040
1.0
1070
    74
1070
     0
1000
MTEXTEND
  0
DIMENSION
  5
11EA
330
D
100
AcDbEntity
 67
     1
  8
AM_5
100
AcDbDimension
  2
*D10
 10
99.3372253178023
 20
113.214426629946
 30
0.0
 11
99.33722531780228
 21
128.2144266299461
 31
0.0
 70
   160
  1
%%c<>
 71
     5
 42
30.0
  3
AM_ISO$0
100
AcDbAlignedDimension
 13
112.79410208126
 23
143.214426629946
 33
0.0
 14
112.79410208126
 24
113.214426629946
 34
0.0
 50
90.0
100
AcDbRotatedDimension
1001
ACAD
1000
DSTYLE
1002
{
1070
    40
1040
1.0
1070
   144
1040
1.0
1070
   272
1070
     8
1002
}
  0
DIMENSION
  5
1209
330
D
100
AcDbEntity
 67
     1
  8
AM_5
100
AcDbDimension
  2
*D11
 10
137.2388021078748
 20
129.5281833315332
 30
0.0
 11
153.0290671217133
 21
95.41786258924332
 31
0.0
 70
   163
  1
2-G1/8
 71
     5
 42
9.500000000000127
  3
AM_ISO$3
100
AcDbDiametricDimension
 15
139.4326113914038
 25
120.2849587411911
 35
0.0
 40
0.0
1001
ACAD
1000
DSTYLE
1002
{
1070
    40
1040
1.0
1070
   144
1040
1.0
1070
   272
1070
     8
1002
}
  0
LINE
  5
1AB4
330
D
100
AcDbEntity
 67
     1
  8
SL
  6
ACISOTGB
100
AcDbLine
 10
167.4996518847458
 20
189.759523134944
 30
0.0
 11
167.4996518847458
 21
241.9858941682504
 31
0.0
  0
INSERT
  5
1B25
330
D
100
AcDbEntity
 67
     1
  8
0
100
AcDbBlockReference
  2
A$C453B67D5
 10
166.7165309438737
 20
244.4604406640326
 30
0.0
  0
INSERT
  5
1B2E
330
D
100
AcDbEntity
 67
     1
  8
0
100
AcDbBlockReference
  2
A$C17481420
 10
167.499652293918
 20
240.3575213964442
 30
0.0
  0
LINE
  5
2641
330
D
100
AcDbEntity
 67
     1
  8
AM_VIS
100
AcDbLine
 10
210.29410208126
 20
104.714426629946
 30
0.0
 11
209.79410208126
 21
105.214426629946
 31
0.0
  0
LINE
  5
2642
330
D
100
AcDbEntity
 67
     1
  8
AM_VIS
100
AcDbLine
 10
210.29410208126
 20
151.714426629946
 30
0.0
 11
209.79410208126
 21
151.214426629946
 31
0.0
  0
LINE
  5
2643
330
D
100
AcDbEntity
 67
     1
  8
AM_VIS
100
AcDbLine
 10
210.2940514866448
 20
149.9343619573145
 30
0.0
 11
209.7940512649098
 21
149.7377991424032
 31
0.0
  0
LINE
  5
2644
330
D
100
AcDbEntity
 67
     1
  8
AM_VIS
100
AcDbLine
 10
210.2940637071594
 20
106.4945223799923
 30
0.0
 11
209.7940579194129
 21
106.6910710353199
 31
0.0
  0
LINE
  5
2645
330
D
100
AcDbEntity
 67
     1
  8
AM_VIS
100
AcDbLine
 10
209.79410208126
 20
149.7376698799769
 30
0.0
 11
209.79410208126
 21
106.6911833799151
 31
0.0
  0
LINE
  5
2646
330
D
100
AcDbEntity
 67
     1
  8
AM_VIS
100
AcDbLine
 10
210.29410208126
 20
151.714426629946
 30
0.0
 11
215.29410208126
 21
151.714426629946
 31
0.0
  0
LINE
  5
2647
330
D
100
AcDbEntity
 67
     1
  8
AM_VIS
100
AcDbLine
 10
210.29410208126
 20
106.4946200009725
 30
0.0
 11
210.29410208126
 21
149.9342332589194
 31
0.0
  0
LINE
  5
2648
330
D
100
AcDbEntity
 67
     1
  8
AM_VIS
100
AcDbLine
 10
215.29410208126
 20
149.9342332589194
 30
0.0
 11
210.29410208126
 21
149.9342332589194
 31
0.0
  0
LINE
  5
2649
330
D
100
AcDbEntity
 67
     1
  8
AM_VIS
100
AcDbLine
 10
215.29410208126
 20
104.714426629946
 30
0.0
 11
210.29410208126
 21
104.714426629946
 31
0.0
  0
LINE
  5
264A
330
D
100
AcDbEntity
 67
     1
  8
AM_VIS
100
AcDbLine
 10
210.29410208126
 20
106.4946200009725
 30
0.0
 11
215.29410208126
 21
106.4946200009725
 31
0.0
  0
LINE
  5
264B
330
D
100
AcDbEntity
 67
     1
  8
AM_VIS
100
AcDbLine
 10
215.79410208126
 20
105.214426629946
 30
0.0
 11
215.29410208126
 21
104.714426629946
 31
0.0
  0
LINE
  5
264C
330
D
100
AcDbEntity
 67
     1
  8
AM_VIS
100
AcDbLine
 10
215.7941528976102
 20
106.6910541174888
 30
0.0
 11
215.2941526758752
 21
106.4944913025775
 31
0.0
  0
LINE
  5
264D
330
D
100
AcDbEntity
 67
     1
  8
AM_VIS
100
AcDbLine
 10
215.29410208126
 20
149.9342332589194
 30
0.0
 11
215.29410208126
 21
106.4946200009725
 31
0.0
  0
LINE
  5
264E
330
D
100
AcDbEntity
 67
     1
  8
AM_VIS
100
AcDbLine
 10
215.7941020812601
 20
105.214426629946
 30
0.0
 11
215.79410208126
 21
149.7376698799769
 31
0.0
  0
LINE
  5
264F
330
D
100
AcDbEntity
 67
     1
  8
AM_VIS
100
AcDbLine
 10
215.7941528976102
 20
149.7377991424032
 30
0.0
 11
215.2941526758752
 21
149.9343619573145
 31
0.0
  0
LINE
  5
2650
330
D
100
AcDbEntity
 67
     1
  8
AM_VIS
100
AcDbLine
 10
215.79410208126
 20
151.214426629946
 30
0.0
 11
215.29410208126
 21
151.714426629946
 31
0.0
  0
LINE
  5
2651
330
D
100
AcDbEntity
 67
     1
  8
AM_VIS
100
AcDbLine
 10
230.29410208126
 20
151.714426629946
 30
0.0
 11
269.29410208126
 21
151.714426629946
 31
0.0
  0
LINE
  5
2652
330
D
100
AcDbEntity
 67
     1
  8
AM_VIS
100
AcDbLine
 10
230.29410208126
 20
151.714426629946
 30
0.0
 11
229.79410208126
 21
151.214426629946
 31
0.0
  0
LINE
  5
2653
330
D
100
AcDbEntity
 67
     1
  8
AM_VIS
100
AcDbLine
 10
230.2940514866449
 20
149.9343619573145
 30
0.0
 11
229.7940512649098
 21
149.7377991424032
 31
0.0
  0
LINE
  5
2654
330
D
100
AcDbEntity
 67
     1
  8
AM_VIS
100
AcDbLine
 10
230.2940637071594
 20
106.4945223799923
 30
0.0
 11
229.7940579194129
 21
106.6910710353199
 31
0.0
  0
LINE
  5
2655
330
D
100
AcDbEntity
 67
     1
  8
AM_VIS
100
AcDbLine
 10
229.79410208126
 20
149.7376698799769
 30
0.0
 11
229.79410208126
 21
106.6911833799151
 31
0.0
  0
LINE
  5
2656
330
D
100
AcDbEntity
 67
     1
  8
AM_VIS
100
AcDbLine
 10
230.29410208126
 20
104.714426629946
 30
0.0
 11
229.79410208126
 21
105.214426629946
 31
0.0
  0
LINE
  5
2657
330
D
100
AcDbEntity
 67
     1
  8
AM_VIS
100
AcDbLine
 10
230.29410208126
 20
106.4946200009725
 30
0.0
 11
230.29410208126
 21
149.9342332589194
 31
0.0
  0
LINE
  5
2658
330
D
100
AcDbEntity
 67
     1
  8
AM_VIS
100
AcDbLine
 10
269.29410208126
 20
149.9342332589194
 30
0.0
 11
230.2941020812601
 21
149.9342332589194
 31
0.0
  0
LINE
  5
2659
330
D
100
AcDbEntity
 67
     1
  8
AM_VIS
100
AcDbLine
 10
230.29410208126
 20
106.4946200009725
 30
0.0
 11
269.29410208126
 21
106.4946200009724
 31
0.0
  0
LINE
  5
265A
330
D
100
AcDbEntity
 67
     1
  8
AM_VIS
100
AcDbLine
 10
269.29410208126
 20
104.714426629946
 30
0.0
 11
230.2941020812601
 21
104.714426629946
 31
0.0
  0
LINE
  5
265B
330
D
100
AcDbEntity
 67
     1
  8
AM_VIS
100
AcDbLine
 10
269.79410208126
 20
105.214426629946
 30
0.0
 11
269.29410208126
 21
104.714426629946
 31
0.0
  0
LINE
  5
265C
330
D
100
AcDbEntity
 67
     1
  8
AM_VIS
100
AcDbLine
 10
269.7941528976103
 20
106.6910541174888
 30
0.0
 11
269.2941526758752
 21
106.4944913025774
 31
0.0
  0
LINE
  5
265D
330
D
100
AcDbEntity
 67
     1
  8
AM_VIS
100
AcDbLine
 10
269.29410208126
 20
149.9342332589194
 30
0.0
 11
269.29410208126
 21
106.4946200009724
 31
0.0
  0
LINE
  5
265E
330
D
100
AcDbEntity
 67
     1
  8
AM_VIS
100
AcDbLine
 10
269.7941462431071
 20
149.7377822245721
 30
0.0
 11
269.2941404553607
 21
149.9343308798998
 31
0.0
  0
LINE
  5
265F
330
D
100
AcDbEntity
 67
     1
  8
AM_VIS
100
AcDbLine
 10
269.79410208126
 20
106.6911833799151
 30
0.0
 11
269.79410208126
 21
149.7376698799769
 31
0.0
  0
LINE
  5
2660
330
D
100
AcDbEntity
 67
     1
  8
AM_VIS
100
AcDbLine
 10
269.79410208126
 20
151.214426629946
 30
0.0
 11
269.29410208126
 21
151.714426629946
 31
0.0
  0
LINE
  5
2661
330
D
100
AcDbEntity
 67
     1
  8
AM_VIS
100
AcDbLine
 10
229.39410208126
 20
111.214426629946
 30
0.0
 11
223.7941020812596
 21
111.214426629946
 31
0.0
  0
LINE
  5
2662
330
D
100
AcDbEntity
 67
     1
  8
AM_VIS
100
AcDbLine
 10
229.39410208126
 20
145.214426629946
 30
0.0
 11
223.7941020812596
 21
145.214426629946
 31
0.0
  0
LINE
  5
2663
330
D
100
AcDbEntity
 67
     1
  8
AM_VIS
100
AcDbLine
 10
277.2941020812599
 20
142.464426629946
 30
0.0
 11
276.54410208126
 21
143.214426629946
 31
0.0
  0
LINE
  5
2664
330
D
100
AcDbEntity
 67
     1
  8
AM_VIS
100
AcDbLine
 10
277.2941020812599
 20
113.964426629946
 30
0.0
 11
276.54410208126
 21
113.214426629946
 31
0.0
  0
LINE
  5
2665
330
D
100
AcDbEntity
 67
     1
  8
AM_VIS
100
AcDbLine
 10
276.54410208126
 20
113.214426629946
 30
0.0
 11
269.79410208126
 21
113.214426629946
 31
0.0
  0
LINE
  5
2666
330
D
100
AcDbEntity
 67
     1
  8
AM_VIS
100
AcDbLine
 10
276.54410208126
 20
143.214426629946
 30
0.0
 11
269.79410208126
 21
143.214426629946
 31
0.0
  0
ARC
  5
2667
330
D
100
AcDbEntity
 67
     1
  8
AM_VIS
100
AcDbCircle
 10
229.394102080918
 20
145.6144266302881
 30
0.0
 40
0.4000000003420397
100
AcDbArc
 50
270.0
 51
359.9999999020035
  0
ARC
  5
2668
330
D
100
AcDbEntity
 67
     1
  8
AM_VIS
100
AcDbCircle
 10
229.3941020809178
 20
110.8144266296037
 30
0.0
 40
0.4000000003422244
100
AcDbArc
 50
0.0000000490226781
 51
89.99999995098383
  0
LINE
  5
2669
330
D
100
AcDbEntity
 67
     1
  8
AM_VIS
100
AcDbLine
 10
209.79410208126
 20
149.7376698799769
 30
0.0
 11
209.79410208126
 21
151.214426629946
 31
0.0
  0
LINE
  5
266A
330
D
100
AcDbEntity
 67
     1
  8
AM_VIS
100
AcDbLine
 10
209.79410208126
 20
105.214426629946
 30
0.0
 11
209.79410208126
 21
106.6911833799151
 31
0.0
  0
LINE
  5
266B
330
D
100
AcDbEntity
 67
     1
  8
AM_VIS
100
AcDbLine
 10
210.29410208126
 20
151.714426629946
 30
0.0
 11
210.29410208126
 21
149.9342332589194
 31
0.0
  0
LINE
  5
266C
330
D
100
AcDbEntity
 67
     1
  8
AM_VIS
100
AcDbLine
 10
210.29410208126
 20
106.4946200009726
 30
0.0
 11
210.29410208126
 21
104.714426629946
 31
0.0
  0
LINE
  5
266D
330
D
100
AcDbEntity
 67
     1
  8
AM_VIS
100
AcDbLine
 10
215.29410208126
 20
104.714426629946
 30
0.0
 11
215.29410208126
 21
106.4946200009726
 31
0.0
  0
LINE
  5
266E
330
D
100
AcDbEntity
 67
     1
  8
AM_VIS
100
AcDbLine
 10
215.79410208126
 20
151.214426629946
 30
0.0
 11
215.79410208126
 21
149.7376698799769
 31
0.0
  0
LINE
  5
266F
330
D
100
AcDbEntity
 67
     1
  8
AM_VIS
100
AcDbLine
 10
215.29410208126
 20
149.9342332589194
 30
0.0
 11
215.29410208126
 21
151.714426629946
 31
0.0
  0
LINE
  5
2670
330
D
100
AcDbEntity
 67
     1
  8
AM_VIS
100
AcDbLine
 10
229.79410208126
 20
105.214426629946
 30
0.0
 11
229.79410208126
 21
106.6911833799151
 31
0.0
  0
LINE
  5
2671
330
D
100
AcDbEntity
 67
     1
  8
AM_VIS
100
AcDbLine
 10
229.79410208126
 20
149.7376698799769
 30
0.0
 11
229.79410208126
 21
151.214426629946
 31
0.0
  0
LINE
  5
2672
330
D
100
AcDbEntity
 67
     1
  8
AM_VIS
100
AcDbLine
 10
230.29410208126
 20
151.714426629946
 30
0.0
 11
230.29410208126
 21
149.9342332589194
 31
0.0
  0
ARC
  5
2673
330
D
100
AcDbEntity
 67
     1
  8
AM_VIS
100
AcDbCircle
 10
250.04410208126
 20
128.214426629946
 30
0.0
 40
13.5
100
AcDbArc
 50
190.9397884812658
 51
349.0602115187342
  0
ARC
  5
2674
330
D
100
AcDbEntity
 67
     1
  8
AM_VIS
100
AcDbCircle
 10
265.0441020812601
 20
128.214426629946
 30
0.0
 40
3.1
100
AcDbArc
 50
235.7357318537753
 51
124.2642681462247
  0
ARC
  5
2675
330
D
100
AcDbEntity
 67
     1
  8
AM_VIS
100
AcDbCircle
 10
250.04410208126
 20
128.214426629946
 30
0.0
 40
13.5
100
AcDbArc
 50
10.939788481269
 51
169.060211518731
  0
ARC
  5
2676
330
D
100
AcDbEntity
 67
     1
  8
AM_VIS
100
AcDbCircle
 10
235.04410208126
 20
128.214426629946
 30
0.0
 40
3.1
100
AcDbArc
 50
55.73573185377529
 51
304.2642681462247
  0
LINE
  5
2677
330
D
100
AcDbEntity
 67
     1
  8
AM_VIS
100
AcDbLine
 10
230.29410208126
 20
106.4946200009726
 30
0.0
 11
230.29410208126
 21
104.714426629946
 31
0.0
  0
LINE
  5
2678
330
D
100
AcDbEntity
 67
     1
  8
AM_VIS
100
AcDbLine
 10
269.79410208126
 20
151.214426629946
 30
0.0
 11
269.79410208126
 21
149.7376698799769
 31
0.0
  0
LINE
  5
2679
330
D
100
AcDbEntity
 67
     1
  8
AM_VIS
100
AcDbLine
 10
269.29410208126
 20
149.9342332589194
 30
0.0
 11
269.29410208126
 21
151.714426629946
 31
0.0
  0
LINE
  5
267A
330
D
100
AcDbEntity
 67
     1
  8
AM_VIS
100
AcDbLine
 10
269.79410208126
 20
106.6911833799151
 30
0.0
 11
269.79410208126
 21
105.214426629946
 31
0.0
  0
LINE
  5
267B
330
D
100
AcDbEntity
 67
     1
  8
AM_VIS
100
AcDbLine
 10
269.29410208126
 20
104.714426629946
 30
0.0
 11
269.29410208126
 21
106.4946200009725
 31
0.0
  0
LINE
  5
267C
330
D
100
AcDbEntity
 67
     1
  8
AM_VIS
100
AcDbLine
 10
276.54410208126
 20
113.214426629946
 30
0.0
 11
276.54410208126
 21
143.214426629946
 31
0.0
  0
LINE
  5
267D
330
D
100
AcDbEntity
 67
     1
  8
AM_VIS
100
AcDbLine
 10
277.2941020812599
 20
142.464426629946
 30
0.0
 11
277.2941020812599
 21
113.964426629946
 31
0.0
  0
LINE
  5
267E
330
D
100
AcDbEntity
 67
     1
  8
AM_VIS
100
AcDbLine
 10
263.3685077306641
 20
126.0347328070714
 30
0.0
 11
263.2792724069407
 21
125.5458069084848
 31
0.0
  0
LINE
  5
267F
330
D
100
AcDbEntity
 67
     1
  8
AM_VIS
100
AcDbLine
 10
263.3685077306641
 20
130.3941204528205
 30
0.0
 11
263.2792724069407
 21
130.8830463514072
 31
0.0
  0
LINE
  5
2680
330
D
100
AcDbEntity
 67
     1
  8
AM_VIS
100
AcDbLine
 10
236.8089317555793
 20
130.8830463514071
 30
0.0
 11
236.7196964318559
 21
130.3941204528206
 31
0.0
  0
LINE
  5
2681
330
D
100
AcDbEntity
 67
     1
  8
AM_VIS
100
AcDbLine
 10
236.8089317555793
 20
125.5458069084848
 30
0.0
 11
236.7196964318559
 21
126.0347328070713
 31
0.0
  0
ARC
  5
2682
330
D
100
AcDbEntity
 67
     1
  8
AM_VIS
100
AcDbCircle
 10
250.04410208126
 20
128.214426629946
 30
0.0
 40
13.5
100
AcDbArc
 50
191.3998752616259
 51
348.600124738374
  0
ARC
  5
2683
330
D
100
AcDbEntity
 67
     1
  8
AM_VIS
100
AcDbCircle
 10
265.04410208126
 20
128.214426629946
 30
0.0
 40
3.199999999999999
100
AcDbArc
 50
123.5028983033302
 51
236.4971016966698
  0
ARC
  5
2684
330
D
100
AcDbEntity
 67
     1
  8
AM_VIS
100
AcDbCircle
 10
250.04410208126
 20
128.214426629946
 30
0.0
 40
13.5
100
AcDbArc
 50
11.39987526162591
 51
168.6001247383741
  0
ARC
  5
2685
330
D
100
AcDbEntity
 67
     1
  8
AM_VIS
100
AcDbCircle
 10
235.04410208126
 20
128.2144266299459
 30
0.0
 40
3.200000000000002
100
AcDbArc
 50
303.5028983033302
 51
56.49710169666978
  0
LINE
  5
2686
330
D
100
AcDbEntity
 67
     1
  8
AM_VIS
100
AcDbLine
 10
286.79410208126
 20
135.2144266299458
 30
0.0
 11
285.2941020812602
 21
136.3763291002158
 31
0.0
  0
LINE
  5
2687
330
D
100
AcDbEntity
 67
     1
  8
AM_VIS
100
AcDbLine
 10
286.79410208126
 20
121.2144266299463
 30
0.0
 11
285.2941020812602
 21
120.0525241596763
 31
0.0
  0
LINE
  5
2688
330
D
100
AcDbEntity
 67
     1
  8
AM_VIS
100
AcDbLine
 10
286.79410208126
 20
135.2144266299458
 30
0.0
 11
286.79410208126
 21
128.214426629946
 31
0.0
  0
LINE
  5
2689
330
D
100
AcDbEntity
 67
     1
  8
AM_VIS
100
AcDbLine
 10
286.79410208126
 20
128.214426629946
 30
0.0
 11
286.79410208126
 21
121.2144266299463
 31
0.0
  0
LINE
  5
268A
330
D
100
AcDbEntity
 67
     1
  8
AM_VIS
100
AcDbLine
 10
265.41410208126
 20
126.614426629946
 30
0.0
 11
264.67410208126
 21
126.614426629946
 31
0.0
  0
LINE
  5
268B
330
D
100
AcDbEntity
 67
     1
  8
AM_VIS
100
AcDbLine
 10
264.67410208126
 20
126.614426629946
 30
0.0
 11
264.67410208126
 21
127.8444266299459
 31
0.0
  0
LINE
  5
268C
330
D
100
AcDbEntity
 67
     1
  8
AM_VIS
100
AcDbLine
 10
264.67410208126
 20
128.5844266299459
 30
0.0
 11
264.67410208126
 21
129.8144266299459
 31
0.0
  0
LINE
  5
268D
330
D
100
AcDbEntity
 67
     1
  8
AM_VIS
100
AcDbLine
 10
264.67410208126
 20
129.8144266299459
 30
0.0
 11
265.41410208126
 21
129.8144266299459
 31
0.0
  0
LINE
  5
268E
330
D
100
AcDbEntity
 67
     1
  8
AM_VIS
100
AcDbLine
 10
263.44410208126
 20
127.8444266299459
 30
0.0
 11
263.44410208126
 21
128.5844266299459
 31
0.0
  0
LINE
  5
268F
330
D
100
AcDbEntity
 67
     1
  8
AM_VIS
100
AcDbLine
 10
266.64410208126
 20
128.5844266299458
 30
0.0
 11
266.64410208126
 21
127.8444266299458
 31
0.0
  0
LINE
  5
2690
330
D
100
AcDbEntity
 67
     1
  8
AM_VIS
100
AcDbLine
 10
263.44410208126
 20
128.5844266299459
 30
0.0
 11
264.67410208126
 21
128.5844266299459
 31
0.0
  0
LINE
  5
2691
330
D
100
AcDbEntity
 67
     1
  8
AM_VIS
100
AcDbLine
 10
265.41410208126
 20
128.5844266299459
 30
0.0
 11
266.64410208126
 21
128.5844266299459
 31
0.0
  0
LINE
  5
2692
330
D
100
AcDbEntity
 67
     1
  8
AM_VIS
100
AcDbLine
 10
265.4141020812601
 20
129.8144266299459
 30
0.0
 11
265.41410208126
 21
128.5844266299459
 31
0.0
  0
LINE
  5
2693
330
D
100
AcDbEntity
 67
     1
  8
AM_VIS
100
AcDbLine
 10
265.41410208126
 20
127.8444266299459
 30
0.0
 11
265.41410208126
 21
126.614426629946
 31
0.0
  0
LINE
  5
2694
330
D
100
AcDbEntity
 67
     1
  8
AM_VIS
100
AcDbLine
 10
266.64410208126
 20
127.8444266299459
 30
0.0
 11
265.41410208126
 21
127.8444266299459
 31
0.0
  0
LINE
  5
2695
330
D
100
AcDbEntity
 67
     1
  8
AM_VIS
100
AcDbLine
 10
264.67410208126
 20
127.8444266299459
 30
0.0
 11
263.44410208126
 21
127.8444266299459
 31
0.0
  0
ARC
  5
2696
330
D
100
AcDbEntity
 67
     1
  8
AM_VIS
100
AcDbCircle
 10
265.04410208126
 20
128.214426629946
 30
0.0
 40
2.75
100
AcDbArc
 50
270.0
 51
90.0
  0
ARC
  5
2697
330
D
100
AcDbEntity
 67
     1
  8
AM_VIS
100
AcDbCircle
 10
265.04410208126
 20
128.214426629946
 30
0.0
 40
2.75
100
AcDbArc
 50
90.0
 51
270.0
  0
ARC
  5
2698
330
D
100
AcDbEntity
 67
     1
  8
AM_VIS
100
AcDbCircle
 10
235.04410208126
 20
128.214426629946
 30
0.0
 40
2.75
100
AcDbArc
 50
0.0
 51
180.0
  0
ARC
  5
2699
330
D
100
AcDbEntity
 67
     1
  8
AM_VIS
100
AcDbCircle
 10
235.04410208126
 20
128.214426629946
 30
0.0
 40
2.75
100
AcDbArc
 50
180.0
 51
0.0
  0
LINE
  5
269A
330
D
100
AcDbEntity
 67
     1
  8
AM_VIS
100
AcDbLine
 10
235.41410208126
 20
126.6144266299461
 30
0.0
 11
234.67410208126
 21
126.6144266299461
 31
0.0
  0
LINE
  5
269B
330
D
100
AcDbEntity
 67
     1
  8
AM_VIS
100
AcDbLine
 10
234.67410208126
 20
126.6144266299461
 30
0.0
 11
234.67410208126
 21
127.8444266299459
 31
0.0
  0
LINE
  5
269C
330
D
100
AcDbEntity
 67
     1
  8
AM_VIS
100
AcDbLine
 10
234.67410208126
 20
128.5844266299459
 30
0.0
 11
234.67410208126
 21
129.814426629946
 31
0.0
  0
LINE
  5
269D
330
D
100
AcDbEntity
 67
     1
  8
AM_VIS
100
AcDbLine
 10
234.67410208126
 20
129.814426629946
 30
0.0
 11
235.41410208126
 21
129.814426629946
 31
0.0
  0
LINE
  5
269E
330
D
100
AcDbEntity
 67
     1
  8
AM_VIS
100
AcDbLine
 10
233.44410208126
 20
127.8444266299459
 30
0.0
 11
233.44410208126
 21
128.5844266299459
 31
0.0
  0
LINE
  5
269F
330
D
100
AcDbEntity
 67
     1
  8
AM_VIS
100
AcDbLine
 10
236.64410208126
 20
128.5844266299459
 30
0.0
 11
236.64410208126
 21
127.8444266299459
 31
0.0
  0
LINE
  5
26A0
330
D
100
AcDbEntity
 67
     1
  8
AM_VIS
100
AcDbLine
 10
233.44410208126
 20
128.5844266299459
 30
0.0
 11
234.67410208126
 21
128.5844266299459
 31
0.0
  0
LINE
  5
26A1
330
D
100
AcDbEntity
 67
     1
  8
AM_VIS
100
AcDbLine
 10
235.41410208126
 20
128.5844266299459
 30
0.0
 11
236.64410208126
 21
128.5844266299459
 31
0.0
  0
LINE
  5
26A2
330
D
100
AcDbEntity
 67
     1
  8
AM_VIS
100
AcDbLine
 10
235.4141020812601
 20
129.814426629946
 30
0.0
 11
235.41410208126
 21
128.5844266299459
 31
0.0
  0
LINE
  5
26A3
330
D
100
AcDbEntity
 67
     1
  8
AM_VIS
100
AcDbLine
 10
235.41410208126
 20
127.8444266299459
 30
0.0
 11
235.41410208126
 21
126.6144266299461
 31
0.0
  0
LINE
  5
26A4
330
D
100
AcDbEntity
 67
     1
  8
AM_VIS
100
AcDbLine
 10
236.64410208126
 20
127.8444266299459
 30
0.0
 11
235.41410208126
 21
127.8444266299459
 31
0.0
  0
LINE
  5
26A5
330
D
100
AcDbEntity
 67
     1
  8
AM_VIS
100
AcDbLine
 10
234.67410208126
 20
127.8444266299459
 30
0.0
 11
233.44410208126
 21
127.8444266299459
 31
0.0
  0
LINE
  5
26A6
330
D
100
AcDbEntity
 67
     1
  8
AM_7
  6
AM_ISO08W050x2
100
AcDbLine
 10
241.8453859011896
 20
113.714426629946
 30
0.0
 11
231.586503152476
 21
113.714426629946
 31
0.0
1001
GENIUS_GENODEF_13
1002
{
1000
HIER
1070
     0
1002
}
1002
{
1000
MANEDIT
1070
     0
1002
}
1002
{
1000
NOSEL
1070
     0
1002
}
1002
{
1000
BEHIND
1070
     0
1002
}
1002
{
1000
OTHER
1070
     0
1002
}
1002
{
1000
REACTOR
1002
}
1001
GENIUS_GENOBJ-N-CEN_13
1002
{
1000
OWNER
1000
GEN
1002
}
1001
GENIUS_GENCEN_19
1002
{
1040
2.0
1002
}
  0
LINE
  5
26A7
330
D
100
AcDbEntity
 67
     1
  8
AM_7
  6
AM_ISO08W050x2
100
AcDbLine
 10
236.54410208126
 20
108.4956843069376
 30
0.0
 11
236.54410208126
 21
119.4574636248155
 31
0.0
1001
GENIUS_GENODEF_13
1002
{
1000
HIER
1070
     0
1002
}
1002
{
1000
MANEDIT
1070
     0
1002
}
1002
{
1000
NOSEL
1070
     0
1002
}
1002
{
1000
BEHIND
1070
     0
1002
}
1002
{
1000
OTHER
1070
     0
1002
}
1002
{
1000
REACTOR
1002
}
1001
GENIUS_GENOBJ-N-CEN_13
1002
{
1000
OWNER
1000
GEN
1002
}
1001
GENIUS_GENCEN_19
1002
{
1040
2.0
1002
}
  0
CIRCLE
  5
26A8
330
D
100
AcDbEntity
 67
     1
  8
0
100
AcDbCircle
 10
236.54410208126
 20
113.714426629946
 30
0.0
 40
4.28
  0
ARC
  5
26A9
330
D
100
AcDbEntity
 67
     1
  8
0
100
AcDbCircle
 10
236.54410208126
 20
113.714426629946
 30
0.0
 40
4.78
100
AcDbArc
 50
69.05559506408825
 51
23.54283690374031
  0
DIMENSION
  5
26AA
330
D
100
AcDbEntity
 67
     1
  8
AM_5
100
AcDbDimension
  2
*D15
 10
236.54410208126
 20
113.7144266299461
 30
0.0
 11
225.8440055854451
 21
96.04266477179299
 31
0.0
 70
   164
  1
G1/8
 71
     5
 42
4.779999999999773
  3
AM_ISO$4
100
AcDbRadialDimension
 15
235.1449836084361
 25
109.1437737773439
 35
0.0
 40
0.0
1001
ACAD
1000
DSTYLE
1002
{
1070
   272
1070
     8
1002
}
  0
LINE
  5
26AC
330
D
100
AcDbEntity
 67
     1
  8
AM_VIS
100
AcDbLine
 10
217.7406840686454
 20
106.1909239380498
 30
0.0
 11
221.8475200938742
 21
106.1909239380498
 31
0.0
  0
LINE
  5
26AD
330
D
100
AcDbEntity
 67
     1
  8
AM_VIS
100
AcDbLine
 10
217.7406840686454
 20
117.7379293218424
 30
0.0
 11
221.8475200938742
 21
117.7379293218424
 31
0.0
  0
LINE
  5
26AE
330
D
100
AcDbEntity
 67
     1
  8
AM_VIS
100
AcDbLine
 10
217.7406840686454
 20
109.077675283998
 30
0.0
 11
221.8475200938742
 21
109.077675283998
 31
0.0
  0
LINE
  5
26AF
330
D
100
AcDbEntity
 67
     1
  8
AM_VIS
100
AcDbLine
 10
217.7406840686454
 20
114.8511779758943
 30
0.0
 11
221.8475200938742
 21
114.8511779758943
 31
0.0
  0
SPLINE
  5
26B0
330
D
100
AcDbEntity
 67
     1
  8
AM_VIS
100
AcDbSpline
210
0.0
220
0.0
230
1.0
 70
    12
 71
     2
 72
     6
 73
     3
 74
     0
 42
0.0000000001
 43
0.0000000001
 40
2.928548593876817
 40
2.928548593876817
 40
2.928548593876817
 40
5.857097187753637
 40
5.857097187753637
 40
5.857097187753637
 10
222.29410208126
 20
116.2945536488684
 30
0.0
 41
1.0
 10
222.2941020812601
 20
115.6246806677905
 30
0.0
 41
1.037954849302058
 10
221.8475200938742
 20
114.8511779758941
 30
0.0
 41
1.0
  0
SPLINE
  5
26B1
330
D
100
AcDbEntity
 67
     1
  8
AM_VIS
100
AcDbSpline
210
0.0
220
0.0
230
1.0
 70
    12
 71
     2
 72
     6
 73
     3
 74
     0
 42
0.0000000001
 43
0.0000000001
 40
0.0
 40
0.0
 40
0.0
 40
2.92854859387685
 40
2.92854859387685
 40
2.92854859387685
 10
221.8475200938742
 20
114.8511779758947
 30
0.0
 41
1.0
 10
222.2941020812603
 20
113.3041725921019
 30
0.0
 41
1.037954849302216
 10
222.29410208126
 20
111.9644266299461
 30
0.0
 41
1.0
  0
SPLINE
  5
26B2
330
D
100
AcDbEntity
 67
     1
  8
AM_VIS
100
AcDbSpline
210
0.0
220
0.0
230
1.0
 70
    12
 71
     2
 72
     6
 73
     3
 74
     0
 42
0.0000000001
 43
0.0000000001
 40
2.92854859387673
 40
2.92854859387673
 40
2.92854859387673
 40
5.857097187753462
 40
5.857097187753462
 40
5.857097187753462
 10
217.29410208126
 20
107.6342996110239
 30
0.0
 41
1.0
 10
217.29410208126
 20
108.3041725921023
 30
0.0
 41
1.037954849302108
 10
217.7406840686454
 20
109.0776752839982
 30
0.0
 41
1.0
  0
SPLINE
  5
26B3
330
D
100
AcDbEntity
 67
     1
  8
AM_VIS
100
AcDbSpline
210
0.0
220
0.0
230
1.0
 70
    12
 71
     2
 72
     6
 73
     3
 74
     0
 42
0.0000000001
 43
0.0000000001
 40
0.0
 40
0.0
 40
0.0
 40
2.928548593876763
 40
2.928548593876763
 40
2.928548593876763
 10
217.7406840686454
 20
109.0776752839975
 30
0.0
 41
1.0
 10
217.294102081259
 20
110.6246806677899
 30
0.0
 41
1.037954849302106
 10
217.29410208126
 20
111.9644266299461
 30
0.0
 41
1.0
  0
SPLINE
  5
26B4
330
D
100
AcDbEntity
 67
     1
  8
AM_VIS
100
AcDbSpline
210
0.0
220
0.0
230
1.0
 70
    12
 71
     2
 72
     6
 73
     3
 74
     0
 42
0.0000000001
 43
0.0000000001
 40
0.0
 40
0.0
 40
0.0
 40
2.928548593876736
 40
2.928548593876736
 40
2.928548593876736
 10
217.7406840686454
 20
114.8511779758941
 30
0.0
 41
1.0
 10
217.2941020812595
 20
115.6246806677905
 30
0.0
 41
1.037954849302077
 10
217.29410208126
 20
116.2945536488684
 30
0.0
 41
1.0
  0
SPLINE
  5
26B5
330
D
100
AcDbEntity
 67
     1
  8
AM_VIS
100
AcDbSpline
210
0.0
220
0.0
230
1.0
 70
    12
 71
     2
 72
     6
 73
     3
 74
     0
 42
0.0000000001
 43
0.0000000001
 40
2.928548593876763
 40
2.928548593876763
 40
2.928548593876763
 40
5.857097187753529
 40
5.857097187753529
 40
5.857097187753529
 10
217.29410208126
 20
111.9644266299461
 30
0.0
 41
1.0
 10
217.2941020812595
 20
113.3041725921018
 30
0.0
 41
1.037954849302093
 10
217.7406840686454
 20
114.8511779758947
 30
0.0
 41
1.0
  0
SPLINE
  5
26B6
330
D
100
AcDbEntity
 67
     1
  8
AM_VIS
100
AcDbSpline
210
0.0
220
0.0
230
1.0
 70
    12
 71
     2
 72
     6
 73
     3
 74
     0
 42
0.0000000001
 43
0.0000000001
 40
0.0
 40
0.0
 40
0.0
 40
2.92854859387673
 40
2.92854859387673
 40
2.92854859387673
 10
217.7406840686454
 20
106.1909239380496
 30
0.0
 41
1.0
 10
217.29410208126
 20
106.9644266299462
 30
0.0
 41
1.037954849302091
 10
217.29410208126
 20
107.6342996110239
 30
0.0
 41
1.0
  0
SPLINE
  5
26B7
330
D
100
AcDbEntity
 67
     1
  8
AM_VIS
100
AcDbSpline
210
0.0
220
0.0
230
1.0
 70
    12
 71
     2
 72
     6
 73
     3
 74
     0
 42
0.0000000001
 43
0.0000000001
 40
2.928548593876736
 40
2.928548593876736
 40
2.928548593876736
 40
5.85709718775347
 40
5.85709718775347
 40
5.85709718775347
 10
217.29410208126
 20
116.2945536488684
 30
0.0
 41
1.0
 10
217.2941020812602
 20
116.9644266299467
 30
0.0
 41
1.037954849302076
 10
217.7406840686454
 20
117.7379293218427
 30
0.0
 41
1.0
  0
SPLINE
  5
26B8
330
D
100
AcDbEntity
 67
     1
  8
AM_VIS
100
AcDbSpline
210
0.0
220
0.0
230
1.0
 70
    12
 71
     2
 72
     6
 73
     3
 74
     0
 42
0.0000000001
 43
0.0000000001
 40
0.0
 40
0.0
 40
0.0
 40
2.928548593876812
 40
2.928548593876812
 40
2.928548593876812
 10
221.8475200938742
 20
109.0776752839982
 30
0.0
 41
1.0
 10
222.2941020812605
 20
108.304172592102
 30
0.0
 41
1.037954849302052
 10
222.29410208126
 20
107.6342996110239
 30
0.0
 41
1.0
  0
SPLINE
  5
26B9
330
D
100
AcDbEntity
 67
     1
  8
AM_VIS
100
AcDbSpline
210
0.0
220
0.0
230
1.0
 70
    12
 71
     2
 72
     6
 73
     3
 74
     0
 42
0.0000000001
 43
0.0000000001
 40
2.92854859387685
 40
2.92854859387685
 40
2.92854859387685
 40
5.857097187753698
 40
5.857097187753698
 40
5.857097187753698
 10
222.29410208126
 20
111.9644266299461
 30
0.0
 41
1.0
 10
222.29410208126
 20
110.6246806677903
 30
0.0
 41
1.037954849302184
 10
221.8475200938742
 20
109.0776752839975
 30
0.0
 41
1.0
  0
SPLINE
  5
26BA
330
D
100
AcDbEntity
 67
     1
  8
AM_VIS
100
AcDbSpline
210
0.0
220
0.0
230
1.0
 70
    12
 71
     2
 72
     6
 73
     3
 74
     0
 42
0.0000000001
 43
0.0000000001
 40
2.928548593876812
 40
2.928548593876812
 40
2.928548593876812
 40
5.857097187753627
 40
5.857097187753627
 40
5.857097187753627
 10
222.29410208126
 20
107.6342996110239
 30
0.0
 41
1.0
 10
222.2941020812609
 20
106.9644266299466
 30
0.0
 41
1.037954849302069
 10
221.8475200938742
 20
106.1909239380496
 30
0.0
 41
1.0
  0
SPLINE
  5
26BB
330
D
100
AcDbEntity
 67
     1
  8
AM_VIS
100
AcDbSpline
210
0.0
220
0.0
230
1.0
 70
    12
 71
     2
 72
     6
 73
     3
 74
     0
 42
0.0000000001
 43
0.0000000001
 40
0.0
 40
0.0
 40
0.0
 40
2.928548593876817
 40
2.928548593876817
 40
2.928548593876817
 10
221.8475200938742
 20
117.7379293218427
 30
0.0
 41
1.0
 10
222.2941020812601
 20
116.9644266299463
 30
0.0
 41
1.037954849302031
 10
222.29410208126
 20
116.2945536488684
 30
0.0
 41
1.0
  0
LINE
  5
26BC
330
D
100
AcDbEntity
 67
     1
  8
AM_VIS
100
AcDbLine
 10
217.7406840686454
 20
138.6909239380498
 30
0.0
 11
221.8475200938742
 21
138.6909239380498
 31
0.0
  0
LINE
  5
26BD
330
D
100
AcDbEntity
 67
     1
  8
AM_VIS
100
AcDbLine
 10
217.7406840686454
 20
150.2379293218424
 30
0.0
 11
221.8475200938742
 21
150.2379293218424
 31
0.0
  0
LINE
  5
26BE
330
D
100
AcDbEntity
 67
     1
  8
AM_VIS
100
AcDbLine
 10
217.7406840686454
 20
141.577675283998
 30
0.0
 11
221.8475200938742
 21
141.577675283998
 31
0.0
  0
LINE
  5
26BF
330
D
100
AcDbEntity
 67
     1
  8
AM_VIS
100
AcDbLine
 10
217.7406840686454
 20
147.3511779758943
 30
0.0
 11
221.8475200938742
 21
147.3511779758943
 31
0.0
  0
SPLINE
  5
26C0
330
D
100
AcDbEntity
 67
     1
  8
AM_VIS
100
AcDbSpline
210
0.0
220
0.0
230
1.0
 70
    12
 71
     2
 72
     6
 73
     3
 74
     0
 42
0.0000000001
 43
0.0000000001
 40
2.928548593876814
 40
2.928548593876814
 40
2.928548593876814
 40
5.857097187753627
 40
5.857097187753627
 40
5.857097187753627
 10
222.29410208126
 20
148.7945536488683
 30
0.0
 41
1.0
 10
222.2941020812605
 20
148.1246806677906
 30
0.0
 41
1.037954849302052
 10
221.8475200938742
 20
147.3511779758941
 30
0.0
 41
1.0
  0
SPLINE
  5
26C1
330
D
100
AcDbEntity
 67
     1
  8
AM_VIS
100
AcDbSpline
210
0.0
220
0.0
230
1.0
 70
    12
 71
     2
 72
     6
 73
     3
 74
     0
 42
0.0000000001
 43
0.0000000001
 40
0.0
 40
0.0
 40
0.0
 40
2.928548593876848
 40
2.928548593876848
 40
2.928548593876848
 10
221.8475200938742
 20
147.3511779758947
 30
0.0
 41
1.0
 10
222.29410208126
 20
145.8041725921018
 30
0.0
 41
1.037954849302184
 10
222.29410208126
 20
144.4644266299461
 30
0.0
 41
1.0
  0
SPLINE
  5
26C2
330
D
100
AcDbEntity
 67
     1
  8
AM_VIS
100
AcDbSpline
210
0.0
220
0.0
230
1.0
 70
    12
 71
     2
 72
     6
 73
     3
 74
     0
 42
0.0000000001
 43
0.0000000001
 40
2.928548593876732
 40
2.928548593876732
 40
2.928548593876732
 40
5.857097187753469
 40
5.857097187753469
 40
5.857097187753469
 10
217.29410208126
 20
140.1342996110239
 30
0.0
 41
1.0
 10
217.2941020812595
 20
140.8041725921018
 30
0.0
 41
1.037954849302077
 10
217.7406840686454
 20
141.5776752839982
 30
0.0
 41
1.0
  0
SPLINE
  5
26C3
330
D
100
AcDbEntity
 67
     1
  8
AM_VIS
100
AcDbSpline
210
0.0
220
0.0
230
1.0
 70
    12
 71
     2
 72
     6
 73
     3
 74
     0
 42
0.0000000001
 43
0.0000000001
 40
0.0
 40
0.0
 40
0.0
 40
2.928548593876765
 40
2.928548593876765
 40
2.928548593876765
 10
217.7406840686454
 20
141.5776752839975
 30
0.0
 41
1.0
 10
217.2941020812595
 20
143.1246806677903
 30
0.0
 41
1.037954849302093
 10
217.29410208126
 20
144.4644266299461
 30
0.0
 41
1.0
  0
SPLINE
  5
26C4
330
D
100
AcDbEntity
 67
     1
  8
AM_VIS
100
AcDbSpline
210
0.0
220
0.0
230
1.0
 70
    12
 71
     2
 72
     6
 73
     3
 74
     0
 42
0.0000000001
 43
0.0000000001
 40
0.0
 40
0.0
 40
0.0
 40
2.928548593876731
 40
2.928548593876731
 40
2.928548593876731
 10
217.7406840686454
 20
147.3511779758941
 30
0.0
 41
1.0
 10
217.29410208126
 20
148.1246806677904
 30
0.0
 41
1.037954849302108
 10
217.29410208126
 20
148.7945536488683
 30
0.0
 41
1.0
  0
SPLINE
  5
26C5
330
D
100
AcDbEntity
 67
     1
  8
AM_VIS
100
AcDbSpline
210
0.0
220
0.0
230
1.0
 70
    12
 71
     2
 72
     6
 73
     3
 74
     0
 42
0.0000000001
 43
0.0000000001
 40
2.928548593876765
 40
2.928548593876765
 40
2.928548593876765
 40
5.857097187753529
 40
5.857097187753529
 40
5.857097187753529
 10
217.29410208126
 20
144.4644266299461
 30
0.0
 41
1.0
 10
217.294102081259
 20
145.8041725921018
 30
0.0
 41
1.037954849302106
 10
217.7406840686454
 20
147.3511779758947
 30
0.0
 41
1.0
  0
SPLINE
  5
26C6
330
D
100
AcDbEntity
 67
     1
  8
AM_VIS
100
AcDbSpline
210
0.0
220
0.0
230
1.0
 70
    12
 71
     2
 72
     6
 73
     3
 74
     0
 42
0.0000000001
 43
0.0000000001
 40
0.0
 40
0.0
 40
0.0
 40
2.928548593876732
 40
2.928548593876732
 40
2.928548593876732
 10
217.7406840686454
 20
138.6909239380496
 30
0.0
 41
1.0
 10
217.2941020812602
 20
139.4644266299463
 30
0.0
 41
1.037954849302076
 10
217.29410208126
 20
140.1342996110239
 30
0.0
 41
1.0
  0
SPLINE
  5
26C7
330
D
100
AcDbEntity
 67
     1
  8
AM_VIS
100
AcDbSpline
210
0.0
220
0.0
230
1.0
 70
    12
 71
     2
 72
     6
 73
     3
 74
     0
 42
0.0000000001
 43
0.0000000001
 40
2.928548593876731
 40
2.928548593876731
 40
2.928548593876731
 40
5.857097187753462
 40
5.857097187753462
 40
5.857097187753462
 10
217.29410208126
 20
148.7945536488683
 30
0.0
 41
1.0
 10
217.29410208126
 20
149.4644266299463
 30
0.0
 41
1.037954849302091
 10
217.7406840686454
 20
150.2379293218426
 30
0.0
 41
1.0
  0
SPLINE
  5
26C8
330
D
100
AcDbEntity
 67
     1
  8
AM_VIS
100
AcDbSpline
210
0.0
220
0.0
230
1.0
 70
    12
 71
     2
 72
     6
 73
     3
 74
     0
 42
0.0000000001
 43
0.0000000001
 40
0.0
 40
0.0
 40
0.0
 40
2.928548593876821
 40
2.928548593876821
 40
2.928548593876821
 10
221.8475200938742
 20
141.5776752839982
 30
0.0
 41
1.0
 10
222.2941020812605
 20
140.8041725921019
 30
0.0
 41
1.037954849302052
 10
222.29410208126
 20
140.1342996110239
 30
0.0
 41
1.0
  0
SPLINE
  5
26C9
330
D
100
AcDbEntity
 67
     1
  8
AM_VIS
100
AcDbSpline
210
0.0
220
0.0
230
1.0
 70
    12
 71
     2
 72
     6
 73
     3
 74
     0
 42
0.0000000001
 43
0.0000000001
 40
2.928548593876848
 40
2.928548593876848
 40
2.928548593876848
 40
5.857097187753698
 40
5.857097187753698
 40
5.857097187753698
 10
222.29410208126
 20
144.4644266299461
 30
0.0
 41
1.0
 10
222.2941020812603
 20
143.1246806677903
 30
0.0
 41
1.037954849302216
 10
221.8475200938742
 20
141.5776752839975
 30
0.0
 41
1.0
  0
SPLINE
  5
26CA
330
D
100
AcDbEntity
 67
     1
  8
AM_VIS
100
AcDbSpline
210
0.0
220
0.0
230
1.0
 70
    12
 71
     2
 72
     6
 73
     3
 74
     0
 42
0.0000000001
 43
0.0000000001
 40
2.928548593876821
 40
2.928548593876821
 40
2.928548593876821
 40
5.857097187753637
 40
5.857097187753637
 40
5.857097187753637
 10
222.29410208126
 20
140.1342996110239
 30
0.0
 41
1.0
 10
222.2941020812601
 20
139.464426629946
 30
0.0
 41
1.037954849302031
 10
221.8475200938742
 20
138.6909239380496
 30
0.0
 41
1.0
  0
SPLINE
  5
26CB
330
D
100
AcDbEntity
 67
     1
  8
AM_VIS
100
AcDbSpline
210
0.0
220
0.0
230
1.0
 70
    12
 71
     2
 72
     6
 73
     3
 74
     0
 42
0.0000000001
 43
0.0000000001
 40
0.0
 40
0.0
 40
0.0
 40
2.928548593876814
 40
2.928548593876814
 40
2.928548593876814
 10
221.8475200938742
 20
150.2379293218426
 30
0.0
 41
1.0
 10
222.2941020812609
 20
149.4644266299472
 30
0.0
 41
1.037954849302069
 10
222.29410208126
 20
148.7945536488683
 30
0.0
 41
1.0
  0
LINE
  5
26CC
330
D
100
AcDbEntity
 67
     1
  8
AM_VIS
100
AcDbLine
 10
217.29410208126
 20
106.9644266299459
 30
0.0
 11
217.7406840686454
 21
106.1909239380496
 31
0.0
  0
LINE
  5
26CD
330
D
100
AcDbEntity
 67
     1
  8
AM_VIS
100
AcDbLine
 10
217.29410208126
 20
116.9644266299464
 30
0.0
 11
217.7406840686454
 21
117.7379293218427
 31
0.0
  0
LINE
  5
26CE
330
D
100
AcDbEntity
 67
     1
  8
AM_VIS
100
AcDbLine
 10
222.29410208126
 20
106.9644266299459
 30
0.0
 11
221.8475200938742
 21
106.1909239380496
 31
0.0
  0
LINE
  5
26CF
330
D
100
AcDbEntity
 67
     1
  8
AM_VIS
100
AcDbLine
 10
222.29410208126
 20
116.9644266299464
 30
0.0
 11
221.8475200938742
 21
117.7379293218427
 31
0.0
  0
LINE
  5
26D0
330
D
100
AcDbEntity
 67
     1
  8
AM_VIS
100
AcDbLine
 10
215.79410208126
 20
106.7144266299459
 30
0.0
 11
217.29410208126
 21
106.7144266299459
 31
0.0
  0
LINE
  5
26D1
330
D
100
AcDbEntity
 67
     1
  8
AM_VIS
100
AcDbLine
 10
215.79410208126
 20
117.2144266299464
 30
0.0
 11
217.29410208126
 21
117.2144266299464
 31
0.0
  0
LINE
  5
26D2
330
D
100
AcDbEntity
 67
     1
  8
AM_VIS
100
AcDbLine
 10
223.7941020812595
 20
113.9644266299464
 30
0.0
 11
222.7941020812596
 21
114.9644266299464
 31
0.0
  0
LINE
  5
26D3
330
D
100
AcDbEntity
 67
     1
  8
AM_VIS
100
AcDbLine
 10
223.7941020812595
 20
109.9644266299459
 30
0.0
 11
222.7941020812596
 21
108.9644266299459
 31
0.0
  0
LINE
  5
26D4
330
D
100
AcDbEntity
 67
     1
  8
AM_VIS
100
AcDbLine
 10
222.29410208126
 20
108.9644266299459
 30
0.0
 11
222.7941020812596
 21
108.9644266299459
 31
0.0
  0
LINE
  5
26D5
330
D
100
AcDbEntity
 67
     1
  8
AM_VIS
100
AcDbLine
 10
222.29410208126
 20
114.9644266299464
 30
0.0
 11
222.7941020812596
 21
114.9644266299464
 31
0.0
  0
LINE
  5
26D6
330
D
100
AcDbEntity
 67
     1
  8
AM_VIS
100
AcDbLine
 10
217.29410208126
 20
139.4644266299459
 30
0.0
 11
217.7406840686454
 21
138.6909239380496
 31
0.0
  0
LINE
  5
26D7
330
D
100
AcDbEntity
 67
     1
  8
AM_VIS
100
AcDbLine
 10
217.29410208126
 20
149.4644266299464
 30
0.0
 11
217.7406840686454
 21
150.2379293218426
 31
0.0
  0
LINE
  5
26D8
330
D
100
AcDbEntity
 67
     1
  8
AM_VIS
100
AcDbLine
 10
222.29410208126
 20
139.4644266299459
 30
0.0
 11
221.8475200938742
 21
138.6909239380496
 31
0.0
  0
LINE
  5
26D9
330
D
100
AcDbEntity
 67
     1
  8
AM_VIS
100
AcDbLine
 10
222.29410208126
 20
149.4644266299464
 30
0.0
 11
221.8475200938742
 21
150.2379293218426
 31
0.0
  0
LINE
  5
26DA
330
D
100
AcDbEntity
 67
     1
  8
AM_VIS
100
AcDbLine
 10
215.79410208126
 20
139.2144266299459
 30
0.0
 11
217.29410208126
 21
139.2144266299459
 31
0.0
  0
LINE
  5
26DB
330
D
100
AcDbEntity
 67
     1
  8
AM_VIS
100
AcDbLine
 10
215.79410208126
 20
149.7144266299464
 30
0.0
 11
217.29410208126
 21
149.7144266299464
 31
0.0
  0
LINE
  5
26DC
330
D
100
AcDbEntity
 67
     1
  8
AM_VIS
100
AcDbLine
 10
223.7941020812595
 20
146.4644266299464
 30
0.0
 11
222.7941020812596
 21
147.4644266299464
 31
0.0
  0
LINE
  5
26DD
330
D
100
AcDbEntity
 67
     1
  8
AM_VIS
100
AcDbLine
 10
223.7941020812595
 20
142.4644266299459
 30
0.0
 11
222.7941020812596
 21
141.4644266299459
 31
0.0
  0
LINE
  5
26DE
330
D
100
AcDbEntity
 67
     1
  8
AM_VIS
100
AcDbLine
 10
222.29410208126
 20
141.4644266299459
 30
0.0
 11
222.7941020812596
 21
141.4644266299459
 31
0.0
  0
LINE
  5
26DF
330
D
100
AcDbEntity
 67
     1
  8
AM_VIS
100
AcDbLine
 10
222.29410208126
 20
147.4644266299464
 30
0.0
 11
222.7941020812596
 21
147.4644266299464
 31
0.0
  0
LINE
  5
26E2
330
D
100
AcDbEntity
 67
     1
  8
AM_VIS
100
AcDbLine
 10
222.29410208126
 20
116.2945536488686
 30
0.0
 11
222.29410208126
 21
111.9644266299461
 31
0.0
  0
LINE
  5
26E3
330
D
100
AcDbEntity
 67
     1
  8
AM_VIS
100
AcDbLine
 10
222.29410208126
 20
111.9644266299461
 30
0.0
 11
222.29410208126
 21
107.6342996110237
 31
0.0
  0
LINE
  5
26E4
330
D
100
AcDbEntity
 67
     1
  8
AM_VIS
100
AcDbLine
 10
222.29410208126
 20
107.6342996110237
 30
0.0
 11
222.29410208126
 21
106.9644266299459
 31
0.0
  0
LINE
  5
26E5
330
D
100
AcDbEntity
 67
     1
  8
AM_VIS
100
AcDbLine
 10
222.29410208126
 20
116.9644266299464
 30
0.0
 11
222.29410208126
 21
116.2945536488686
 31
0.0
  0
LINE
  5
26E6
330
D
100
AcDbEntity
 67
     1
  8
AM_VIS
100
AcDbLine
 10
223.7941020812595
 20
109.9644266299459
 30
0.0
 11
223.7941020812595
 21
113.9644266299464
 31
0.0
  0
LINE
  5
26E7
330
D
100
AcDbEntity
 67
     1
  8
AM_VIS
100
AcDbLine
 10
217.29410208126
 20
106.7144266299459
 30
0.0
 11
217.29410208126
 21
117.2144266299464
 31
0.0
  0
LINE
  5
26E8
330
D
100
AcDbEntity
 67
     1
  8
AM_VIS
100
AcDbLine
 10
222.7941020812596
 20
108.9644266299459
 30
0.0
 11
222.7941020812596
 21
114.9644266299464
 31
0.0
  0
LINE
  5
26E9
330
D
100
AcDbEntity
 67
     1
  8
AM_VIS
100
AcDbLine
 10
222.29410208126
 20
148.7945536488686
 30
0.0
 11
222.29410208126
 21
144.4644266299461
 31
0.0
  0
LINE
  5
26EA
330
D
100
AcDbEntity
 67
     1
  8
AM_VIS
100
AcDbLine
 10
222.29410208126
 20
144.4644266299461
 30
0.0
 11
222.29410208126
 21
140.1342996110237
 31
0.0
  0
LINE
  5
26EB
330
D
100
AcDbEntity
 67
     1
  8
AM_VIS
100
AcDbLine
 10
222.29410208126
 20
140.1342996110237
 30
0.0
 11
222.29410208126
 21
139.4644266299459
 31
0.0
  0
LINE
  5
26EC
330
D
100
AcDbEntity
 67
     1
  8
AM_VIS
100
AcDbLine
 10
222.29410208126
 20
149.4644266299464
 30
0.0
 11
222.29410208126
 21
148.7945536488686
 31
0.0
  0
LINE
  5
26ED
330
D
100
AcDbEntity
 67
     1
  8
AM_VIS
100
AcDbLine
 10
223.7941020812595
 20
142.4644266299459
 30
0.0
 11
223.7941020812595
 21
146.4644266299464
 31
0.0
  0
LINE
  5
26EE
330
D
100
AcDbEntity
 67
     1
  8
AM_VIS
100
AcDbLine
 10
217.29410208126
 20
139.2144266299459
 30
0.0
 11
217.29410208126
 21
149.7144266299464
 31
0.0
  0
LINE
  5
26EF
330
D
100
AcDbEntity
 67
     1
  8
AM_VIS
100
AcDbLine
 10
222.7941020812596
 20
141.4644266299459
 30
0.0
 11
222.7941020812596
 21
147.4644266299464
 31
0.0
  0
LINE
  5
26F1
330
D
100
AcDbEntity
 67
     1
  8
AM_VIS
100
AcDbLine
 10
217.7406840686454
 20
201.8048709840706
 30
0.0
 11
221.8475200938742
 21
201.8048709840706
 31
0.0
  0
LINE
  5
26F2
330
D
100
AcDbEntity
 67
     1
  8
AM_VIS
100
AcDbLine
 10
217.7406840686454
 20
196.8048709840706
 30
0.0
 11
221.8475200938742
 21
196.8048709840706
 31
0.0
  0
LINE
  5
26F3
330
D
100
AcDbEntity
 67
     1
  8
AM_VIS
100
AcDbLine
 10
217.7406840686454
 20
191.8048709840706
 30
0.0
 11
221.8475200938742
 21
191.8048709840706
 31
0.0
  0
SPLINE
  5
26F4
330
D
100
AcDbEntity
 67
     1
  8
AM_VIS
100
AcDbSpline
210
0.0
220
0.0
230
1.0
 70
    12
 71
     2
 72
     6
 73
     3
 74
     0
 42
0.0000000001
 43
0.0000000001
 40
2.928548593876814
 40
2.928548593876814
 40
2.928548593876814
 40
5.857097187753627
 40
5.857097187753627
 40
5.857097187753627
 10
222.29410208126
 20
194.3048709840706
 30
0.0
 41
1.0
 10
222.2941020812602
 20
193.1446169462262
 30
0.0
 41
1.037954849302052
 10
221.8475200938742
 20
191.8048709840701
 30
0.0
 41
1.0
  0
LINE
  5
26F5
330
D
100
AcDbEntity
 67
     1
  8
AM_VIS
100
AcDbLine
 10
221.8475200938742
 20
191.8048709840705
 30
0.0
 11
222.2941020812601
 21
191.8048709840705
 31
0.0
  0
SPLINE
  5
26F6
330
D
100
AcDbEntity
 67
     1
  8
AM_VIS
100
AcDbSpline
210
0.0
220
0.0
230
1.0
 70
    12
 71
     2
 72
     6
 73
     3
 74
     0
 42
0.0000000001
 43
0.0000000001
 40
0.0
 40
0.0
 40
0.0
 40
2.928548593876731
 40
2.928548593876731
 40
2.928548593876731
 10
217.7406840686454
 20
191.8048709840701
 30
0.0
 41
1.0
 10
217.29410208126
 20
193.144616946226
 30
0.0
 41
1.037954849302108
 10
217.29410208126
 20
194.3048709840706
 30
0.0
 41
1.0
  0
LINE
  5
26F7
330
D
100
AcDbEntity
 67
     1
  8
AM_VIS
100
AcDbLine
 10
217.2941020812599
 20
191.8048709840705
 30
0.0
 11
217.7406840686454
 21
191.8048709840705
 31
0.0
  0
SPLINE
  5
26F8
330
D
100
AcDbEntity
 67
     1
  8
AM_VIS
100
AcDbSpline
210
0.0
220
0.0
230
1.0
 70
    12
 71
     2
 72
     6
 73
     3
 74
     0
 42
0.0000000001
 43
0.0000000001
 40
0.0
 40
0.0
 40
0.0
 40
2.92854859387673
 40
2.92854859387673
 40
2.92854859387673
 10
217.7406840686454
 20
196.8048709840702
 30
0.0
 41
1.0
 10
217.29410208126
 20
198.144616946226
 30
0.0
 41
1.037954849302091
 10
217.29410208126
 20
199.3048709840706
 30
0.0
 41
1.0
  0
SPLINE
  5
26F9
330
D
100
AcDbEntity
 67
     1
  8
AM_VIS
100
AcDbSpline
210
0.0
220
0.0
230
1.0
 70
    12
 71
     2
 72
     6
 73
     3
 74
     0
 42
0.0000000001
 43
0.0000000001
 40
2.928548593876731
 40
2.928548593876731
 40
2.928548593876731
 40
5.857097187753462
 40
5.857097187753462
 40
5.857097187753462
 10
217.29410208126
 20
194.3048709840706
 30
0.0
 41
1.0
 10
217.29410208126
 20
195.4651250219151
 30
0.0
 41
1.037954849302091
 10
217.7406840686454
 20
196.8048709840709
 30
0.0
 41
1.0
  0
LINE
  5
26FA
330
D
100
AcDbEntity
 67
     1
  8
AM_VIS
100
AcDbLine
 10
217.2941020812599
 20
201.8048709840706
 30
0.0
 11
217.7406840686454
 21
201.8048709840706
 31
0.0
  0
SPLINE
  5
26FB
330
D
100
AcDbEntity
 67
     1
  8
AM_VIS
100
AcDbSpline
210
0.0
220
0.0
230
1.0
 70
    12
 71
     2
 72
     6
 73
     3
 74
     0
 42
0.0000000001
 43
0.0000000001
 40
2.92854859387673
 40
2.92854859387673
 40
2.92854859387673
 40
5.857097187753461
 40
5.857097187753461
 40
5.857097187753461
 10
217.29410208126
 20
199.3048709840706
 30
0.0
 41
1.0
 10
217.2941020812598
 20
200.4651250219148
 30
0.0
 41
1.037954849302079
 10
217.7406840686454
 20
201.804870984071
 30
0.0
 41
1.0
  0
SPLINE
  5
26FC
330
D
100
AcDbEntity
 67
     1
  8
AM_VIS
100
AcDbSpline
210
0.0
220
0.0
230
1.0
 70
    12
 71
     2
 72
     6
 73
     3
 74
     0
 42
0.0000000001
 43
0.0000000001
 40
2.928548593876814
 40
2.928548593876814
 40
2.928548593876814
 40
5.857097187753629
 40
5.857097187753629
 40
5.857097187753629
 10
222.29410208126
 20
199.3048709840706
 30
0.0
 41
1.0
 10
222.2941020812609
 20
198.1446169462272
 30
0.0
 41
1.037954849302069
 10
221.8475200938742
 20
196.8048709840702
 30
0.0
 41
1.0
  0
SPLINE
  5
26FD
330
D
100
AcDbEntity
 67
     1
  8
AM_VIS
100
AcDbSpline
210
0.0
220
0.0
230
1.0
 70
    12
 71
     2
 72
     6
 73
     3
 74
     0
 42
0.0000000001
 43
0.0000000001
 40
0.0
 40
0.0
 40
0.0
 40
2.928548593876814
 40
2.928548593876814
 40
2.928548593876814
 10
221.8475200938742
 20
196.8048709840709
 30
0.0
 41
1.0
 10
222.2941020812609
 20
195.4651250219153
 30
0.0
 41
1.037954849302069
 10
222.29410208126
 20
194.3048709840706
 30
0.0
 41
1.0
  0
LINE
  5
26FE
330
D
100
AcDbEntity
 67
     1
  8
AM_VIS
100
AcDbLine
 10
221.8475200938742
 20
201.8048709840706
 30
0.0
 11
222.2941020812601
 21
201.8048709840706
 31
0.0
  0
SPLINE
  5
26FF
330
D
100
AcDbEntity
 67
     1
  8
AM_VIS
100
AcDbSpline
210
0.0
220
0.0
230
1.0
 70
    12
 71
     2
 72
     6
 73
     3
 74
     0
 42
0.0000000001
 43
0.0000000001
 40
0.0
 40
0.0
 40
0.0
 40
2.928548593876814
 40
2.928548593876814
 40
2.928548593876814
 10
221.8475200938742
 20
201.804870984071
 30
0.0
 41
1.0
 10
222.2941020812601
 20
200.465125021915
 30
0.0
 41
1.037954849302064
 10
222.29410208126
 20
199.3048709840706
 30
0.0
 41
1.0
  0
LINE
  5
2700
330
D
100
AcDbEntity
 67
     1
  8
AM_VIS
100
AcDbLine
 10
217.7406840686454
 20
234.3048709840705
 30
0.0
 11
221.8475200938742
 21
234.3048709840705
 31
0.0
  0
LINE
  5
2701
330
D
100
AcDbEntity
 67
     1
  8
AM_VIS
100
AcDbLine
 10
217.7406840686454
 20
229.3048709840705
 30
0.0
 11
221.8475200938742
 21
229.3048709840705
 31
0.0
  0
LINE
  5
2702
330
D
100
AcDbEntity
 67
     1
  8
AM_VIS
100
AcDbLine
 10
217.7406840686454
 20
224.3048709840705
 30
0.0
 11
221.8475200938742
 21
224.3048709840705
 31
0.0
  0
SPLINE
  5
2703
330
D
100
AcDbEntity
 67
     1
  8
AM_VIS
100
AcDbSpline
210
0.0
220
0.0
230
1.0
 70
    12
 71
     2
 72
     6
 73
     3
 74
     0
 42
0.0000000001
 43
0.0000000001
 40
2.928548593876809
 40
2.928548593876809
 40
2.928548593876809
 40
5.857097187753616
 40
5.857097187753616
 40
5.857097187753616
 10
222.29410208126
 20
226.8048709840705
 30
0.0
 41
1.0
 10
222.2941020812607
 20
225.6446169462261
 30
0.0
 41
1.037954849302177
 10
221.8475200938742
 20
224.30487098407
 30
0.0
 41
1.0
  0
LINE
  5
2704
330
D
100
AcDbEntity
 67
     1
  8
AM_VIS
100
AcDbLine
 10
221.8475200938742
 20
224.3048709840705
 30
0.0
 11
222.2941020812601
 21
224.3048709840705
 31
0.0
  0
SPLINE
  5
2705
330
D
100
AcDbEntity
 67
     1
  8
AM_VIS
100
AcDbSpline
210
0.0
220
0.0
230
1.0
 70
    12
 71
     2
 72
     6
 73
     3
 74
     0
 42
0.0000000001
 43
0.0000000001
 40
0.0
 40
0.0
 40
0.0
 40
2.928548593876723
 40
2.928548593876723
 40
2.928548593876723
 10
217.7406840686454
 20
224.30487098407
 30
0.0
 41
1.0
 10
217.2941020812594
 20
225.6446169462254
 30
0.0
 41
1.037954849302209
 10
217.29410208126
 20
226.8048709840705
 30
0.0
 41
1.0
  0
LINE
  5
2706
330
D
100
AcDbEntity
 67
     1
  8
AM_VIS
100
AcDbLine
 10
217.2941020812599
 20
224.3048709840705
 30
0.0
 11
217.7406840686454
 21
224.3048709840705
 31
0.0
  0
SPLINE
  5
2707
330
D
100
AcDbEntity
 67
     1
  8
AM_VIS
100
AcDbSpline
210
0.0
220
0.0
230
1.0
 70
    12
 71
     2
 72
     6
 73
     3
 74
     0
 42
0.0000000001
 43
0.0000000001
 40
0.0
 40
0.0
 40
0.0
 40
2.928548593876741
 40
2.928548593876741
 40
2.928548593876741
 10
217.7406840686454
 20
229.3048709840702
 30
0.0
 41
1.0
 10
217.2941020812608
 20
230.6446169462266
 30
0.0
 41
1.037954849302092
 10
217.29410208126
 20
231.8048709840705
 30
0.0
 41
1.0
  0
SPLINE
  5
2708
330
D
100
AcDbEntity
 67
     1
  8
AM_VIS
100
AcDbSpline
210
0.0
220
0.0
230
1.0
 70
    12
 71
     2
 72
     6
 73
     3
 74
     0
 42
0.0000000001
 43
0.0000000001
 40
2.928548593876723
 40
2.928548593876723
 40
2.928548593876723
 40
5.857097187753447
 40
5.857097187753447
 40
5.857097187753447
 10
217.29410208126
 20
226.8048709840705
 30
0.0
 41
1.0
 10
217.2941020812602
 20
227.9651250219154
 30
0.0
 41
1.037954849302193
 10
217.7406840686454
 20
229.3048709840709
 30
0.0
 41
1.0
  0
LINE
  5
2709
330
D
100
AcDbEntity
 67
     1
  8
AM_VIS
100
AcDbLine
 10
217.2941020812599
 20
234.3048709840705
 30
0.0
 11
217.7406840686454
 21
234.3048709840705
 31
0.0
  0
SPLINE
  5
270A
330
D
100
AcDbEntity
 67
     1
  8
AM_VIS
100
AcDbSpline
210
0.0
220
0.0
230
1.0
 70
    12
 71
     2
 72
     6
 73
     3
 74
     0
 42
0.0000000001
 43
0.0000000001
 40
2.928548593876741
 40
2.928548593876741
 40
2.928548593876741
 40
5.857097187753481
 40
5.857097187753481
 40
5.857097187753481
 10
217.29410208126
 20
231.8048709840705
 30
0.0
 41
1.0
 10
217.2941020812608
 20
232.9651250219156
 30
0.0
 41
1.037954849302092
 10
217.7406840686454
 20
234.3048709840709
 30
0.0
 41
1.0
  0
SPLINE
  5
270B
330
D
100
AcDbEntity
 67
     1
  8
AM_VIS
100
AcDbSpline
210
0.0
220
0.0
230
1.0
 70
    12
 71
     2
 72
     6
 73
     3
 74
     0
 42
0.0000000001
 43
0.0000000001
 40
2.928548593876823
 40
2.928548593876823
 40
2.928548593876823
 40
5.857097187753648
 40
5.857097187753648
 40
5.857097187753648
 10
222.29410208126
 20
231.8048709840705
 30
0.0
 41
1.0
 10
222.2941020812602
 20
230.6446169462261
 30
0.0
 41
1.037954849302052
 10
221.8475200938742
 20
229.3048709840702
 30
0.0
 41
1.0
  0
SPLINE
  5
270C
330
D
100
AcDbEntity
 67
     1
  8
AM_VIS
100
AcDbSpline
210
0.0
220
0.0
230
1.0
 70
    12
 71
     2
 72
     6
 73
     3
 74
     0
 42
0.0000000001
 43
0.0000000001
 40
0.0
 40
0.0
 40
0.0
 40
2.928548593876809
 40
2.928548593876809
 40
2.928548593876809
 10
221.8475200938742
 20
229.3048709840709
 30
0.0
 41
1.0
 10
222.2941020812603
 20
227.9651250219151
 30
0.0
 41
1.037954849302183
 10
222.29410208126
 20
226.8048709840705
 30
0.0
 41
1.0
  0
LINE
  5
270D
330
D
100
AcDbEntity
 67
     1
  8
AM_VIS
100
AcDbLine
 10
221.8475200938742
 20
234.3048709840705
 30
0.0
 11
222.2941020812601
 21
234.3048709840705
 31
0.0
  0
SPLINE
  5
270E
330
D
100
AcDbEntity
 67
     1
  8
AM_VIS
100
AcDbSpline
210
0.0
220
0.0
230
1.0
 70
    12
 71
     2
 72
     6
 73
     3
 74
     0
 42
0.0000000001
 43
0.0000000001
 40
0.0
 40
0.0
 40
0.0
 40
2.928548593876823
 40
2.928548593876823
 40
2.928548593876823
 10
221.8475200938742
 20
234.3048709840709
 30
0.0
 41
1.0
 10
222.2941020812602
 20
232.9651250219155
 30
0.0
 41
1.037954849302052
 10
222.29410208126
 20
231.8048709840705
 30
0.0
 41
1.0
  0
LINE
  5
270F
330
D
100
AcDbEntity
 67
     1
  8
AM_VIS
100
AcDbLine
 10
215.79410208126
 20
191.5548709840702
 30
0.0
 11
217.29410208126
 21
191.5548709840703
 31
0.0
  0
LINE
  5
2710
330
D
100
AcDbEntity
 67
     1
  8
AM_VIS
100
AcDbLine
 10
215.79410208126
 20
202.0548709840707
 30
0.0
 11
217.29410208126
 21
202.0548709840708
 31
0.0
  0
LINE
  5
2711
330
D
100
AcDbEntity
 67
     1
  8
AM_VIS
100
AcDbLine
 10
223.7941020812595
 20
198.8048709840708
 30
0.0
 11
222.7941020812596
 21
199.8048709840708
 31
0.0
  0
LINE
  5
2712
330
D
100
AcDbEntity
 67
     1
  8
AM_VIS
100
AcDbLine
 10
223.7941020812595
 20
194.8048709840703
 30
0.0
 11
222.7941020812596
 21
193.8048709840703
 31
0.0
  0
LINE
  5
2713
330
D
100
AcDbEntity
 67
     1
  8
AM_VIS
100
AcDbLine
 10
222.29410208126
 20
193.8048709840703
 30
0.0
 11
222.7941020812596
 21
193.8048709840703
 31
0.0
  0
LINE
  5
2714
330
D
100
AcDbEntity
 67
     1
  8
AM_VIS
100
AcDbLine
 10
222.29410208126
 20
199.8048709840708
 30
0.0
 11
222.7941020812596
 21
199.8048709840708
 31
0.0
  0
LINE
  5
2715
330
D
100
AcDbEntity
 67
     1
  8
AM_VIS
100
AcDbLine
 10
215.79410208126
 20
224.0548709840703
 30
0.0
 11
217.29410208126
 21
224.0548709840705
 31
0.0
  0
LINE
  5
2716
330
D
100
AcDbEntity
 67
     1
  8
AM_VIS
100
AcDbLine
 10
215.79410208126
 20
234.5548709840709
 30
0.0
 11
217.29410208126
 21
234.5548709840709
 31
0.0
  0
LINE
  5
2717
330
D
100
AcDbEntity
 67
     1
  8
AM_VIS
100
AcDbLine
 10
223.7941020812595
 20
231.3048709840709
 30
0.0
 11
222.7941020812596
 21
232.3048709840709
 31
0.0
  0
LINE
  5
2718
330
D
100
AcDbEntity
 67
     1
  8
AM_VIS
100
AcDbLine
 10
223.7941020812595
 20
227.3048709840705
 30
0.0
 11
222.7941020812596
 21
226.3048709840705
 31
0.0
  0
LINE
  5
2719
330
D
100
AcDbEntity
 67
     1
  8
AM_VIS
100
AcDbLine
 10
222.29410208126
 20
226.3048709840705
 30
0.0
 11
222.7941020812596
 21
226.3048709840705
 31
0.0
  0
LINE
  5
271A
330
D
100
AcDbEntity
 67
     1
  8
AM_VIS
100
AcDbLine
 10
222.29410208126
 20
232.3048709840709
 30
0.0
 11
222.7941020812596
 21
232.3048709840709
 31
0.0
  0
LINE
  5
271C
330
D
100
AcDbEntity
 67
     1
  8
AM_VIS
100
AcDbLine
 10
222.29410208126
 20
194.3048709840704
 30
0.0
 11
222.29410208126
 21
191.8048709840704
 31
0.0
  0
LINE
  5
271D
330
D
100
AcDbEntity
 67
     1
  8
AM_VIS
100
AcDbLine
 10
222.29410208126
 20
199.3048709840707
 30
0.0
 11
222.29410208126
 21
194.3048709840704
 31
0.0
  0
LINE
  5
271E
330
D
100
AcDbEntity
 67
     1
  8
AM_VIS
100
AcDbLine
 10
222.29410208126
 20
201.8048709840708
 30
0.0
 11
222.29410208126
 21
199.3048709840707
 31
0.0
  0
LINE
  5
271F
330
D
100
AcDbEntity
 67
     1
  8
AM_VIS
100
AcDbLine
 10
223.7941020812595
 20
194.8048709840703
 30
0.0
 11
223.7941020812595
 21
198.8048709840708
 31
0.0
  0
LINE
  5
2720
330
D
100
AcDbEntity
 67
     1
  8
AM_VIS
100
AcDbLine
 10
217.29410208126
 20
191.5548709840703
 30
0.0
 11
217.29410208126
 21
202.0548709840708
 31
0.0
  0
LINE
  5
2721
330
D
100
AcDbEntity
 67
     1
  8
AM_VIS
100
AcDbLine
 10
222.7941020812596
 20
193.8048709840703
 30
0.0
 11
222.7941020812596
 21
199.8048709840708
 31
0.0
  0
LINE
  5
2722
330
D
100
AcDbEntity
 67
     1
  8
AM_VIS
100
AcDbLine
 10
222.29410208126
 20
226.8048709840705
 30
0.0
 11
222.29410208126
 21
224.3048709840705
 31
0.0
  0
LINE
  5
2723
330
D
100
AcDbEntity
 67
     1
  8
AM_VIS
100
AcDbLine
 10
222.29410208126
 20
231.8048709840707
 30
0.0
 11
222.29410208126
 21
226.8048709840705
 31
0.0
  0
LINE
  5
2724
330
D
100
AcDbEntity
 67
     1
  8
AM_VIS
100
AcDbLine
 10
222.29410208126
 20
234.3048709840709
 30
0.0
 11
222.29410208126
 21
231.8048709840707
 31
0.0
  0
LINE
  5
2725
330
D
100
AcDbEntity
 67
     1
  8
AM_VIS
100
AcDbLine
 10
223.7941020812595
 20
227.3048709840705
 30
0.0
 11
223.7941020812595
 21
231.3048709840709
 31
0.0
  0
LINE
  5
2726
330
D
100
AcDbEntity
 67
     1
  8
AM_VIS
100
AcDbLine
 10
217.29410208126
 20
224.0548709840705
 30
0.0
 11
217.29410208126
 21
234.5548709840709
 31
0.0
  0
LINE
  5
2727
330
D
100
AcDbEntity
 67
     1
  8
AM_VIS
100
AcDbLine
 10
222.7941020812596
 20
226.3048709840705
 30
0.0
 11
222.7941020812596
 21
232.3048709840709
 31
0.0
  0
LINE
  5
272A
330
D
100
AcDbEntity
 67
     1
  8
AM_VIS
100
AcDbLine
 10
262.1842506612103
 20
209.0332281558365
 30
0.0
 11
262.2193465385667
 21
208.8863260609647
 31
0.0
  0
LINE
  5
272B
330
D
100
AcDbEntity
 67
     1
  8
AM_VIS
100
AcDbLine
 10
246.4085918800194
 20
218.0146695172882
 30
0.0
 11
246.5533607634179
 21
218.0577266464334
 31
0.0
  0
LINE
  5
272C
330
D
100
AcDbEntity
 67
     1
  8
AM_VIS
100
AcDbLine
 10
241.394694818617
 20
215.0793694745431
 30
0.0
 11
241.5043678279699
 21
215.1832144406711
 31
0.0
  0
LINE
  5
272D
330
D
100
AcDbEntity
 67
     1
  8
AM_VIS
100
AcDbLine
 10
262.1842506612103
 20
203.0765138123047
 30
0.0
 11
262.2193465385667
 21
203.2234159071764
 31
0.0
  0
LINE
  5
272E
330
D
100
AcDbEntity
 67
     1
  8
AM_VIS
100
AcDbLine
 10
241.394694818617
 20
197.0303724935978
 30
0.0
 11
241.5043678279704
 21
196.9265275274705
 31
0.0
  0
LINE
  5
272F
330
D
100
AcDbEntity
 67
     1
  8
AM_VIS
100
AcDbLine
 10
246.4085918800196
 20
194.0950724508528
 30
0.0
 11
246.5533607634181
 21
194.0520153217077
 31
0.0
  0
LINE
  5
2730
330
D
100
AcDbEntity
 67
     1
  8
AM_VIS
100
AcDbLine
 10
210.29410208126
 20
236.5548709840706
 30
0.0
 11
215.29410208126
 21
236.5548709840706
 31
0.0
  0
LINE
  5
2731
330
D
100
AcDbEntity
 67
     1
  8
AM_VIS
100
AcDbLine
 10
209.79410208126
 20
236.0548709840706
 30
0.0
 11
210.29410208126
 21
236.5548709840706
 31
0.0
  0
LINE
  5
2732
330
D
100
AcDbEntity
 67
     1
  8
AM_VIS
100
AcDbLine
 10
209.7940512649098
 20
234.5782434965278
 30
0.0
 11
210.2940514866448
 21
234.7748063114391
 31
0.0
  0
LINE
  5
2733
330
D
100
AcDbEntity
 67
     1
  8
AM_VIS
100
AcDbLine
 10
209.794057919413
 20
191.5315153894444
 30
0.0
 11
210.2940637071594
 21
191.3349667341168
 31
0.0
  0
LINE
  5
2734
330
D
100
AcDbEntity
 67
     1
  8
AM_VIS
100
AcDbLine
 10
209.79410208126
 20
234.5781142341015
 30
0.0
 11
209.79410208126
 21
191.5316277340397
 31
0.0
  0
LINE
  5
2735
330
D
100
AcDbEntity
 67
     1
  8
AM_VIS
100
AcDbLine
 10
209.79410208126
 20
190.0548709840706
 30
0.0
 11
210.29410208126
 21
189.5548709840706
 31
0.0
  0
LINE
  5
2736
330
D
100
AcDbEntity
 67
     1
  8
AM_VIS
100
AcDbLine
 10
210.29410208126
 20
191.3350643550971
 30
0.0
 11
210.29410208126
 21
234.774677613044
 31
0.0
  0
LINE
  5
2737
330
D
100
AcDbEntity
 67
     1
  8
AM_VIS
100
AcDbLine
 10
215.29410208126
 20
234.774677613044
 30
0.0
 11
210.29410208126
 21
234.774677613044
 31
0.0
  0
LINE
  5
2738
330
D
100
AcDbEntity
 67
     1
  8
AM_VIS
100
AcDbLine
 10
210.29410208126
 20
191.3350643550971
 30
0.0
 11
215.29410208126
 21
191.3350643550971
 31
0.0
  0
LINE
  5
2739
330
D
100
AcDbEntity
 67
     1
  8
AM_VIS
100
AcDbLine
 10
215.29410208126
 20
189.5548709840706
 30
0.0
 11
210.29410208126
 21
189.5548709840706
 31
0.0
  0
LINE
  5
273A
330
D
100
AcDbEntity
 67
     1
  8
AM_VIS
100
AcDbLine
 10
215.2941020812599
 20
236.5548709840706
 30
0.0
 11
215.79410208126
 21
236.0548709840706
 31
0.0
  0
LINE
  5
273B
330
D
100
AcDbEntity
 67
     1
  8
AM_VIS
100
AcDbLine
 10
215.29410208126
 20
189.5548709840706
 30
0.0
 11
215.79410208126
 21
190.0548709840706
 31
0.0
  0
LINE
  5
273C
330
D
100
AcDbEntity
 67
     1
  8
AM_VIS
100
AcDbLine
 10
215.2941526758752
 20
191.334935656702
 30
0.0
 11
215.7941528976102
 21
191.5314984716134
 31
0.0
  0
LINE
  5
273D
330
D
100
AcDbEntity
 67
     1
  8
AM_VIS
100
AcDbLine
 10
215.29410208126
 20
234.774677613044
 30
0.0
 11
215.29410208126
 21
191.3350643550971
 31
0.0
  0
LINE
  5
273E
330
D
100
AcDbEntity
 67
     1
  8
AM_VIS
100
AcDbLine
 10
215.2941526758752
 20
234.7748063114391
 30
0.0
 11
215.7941528976102
 21
234.5782434965278
 31
0.0
  0
LINE
  5
273F
330
D
100
AcDbEntity
 67
     1
  8
AM_VIS
100
AcDbLine
 10
215.79410208126
 20
191.5316277340397
 30
0.0
 11
215.79410208126
 21
234.5781142341015
 31
0.0
  0
LINE
  5
2740
330
D
100
AcDbEntity
 67
     1
  8
AM_VIS
100
AcDbLine
 10
230.29410208126
 20
191.3350643550971
 30
0.0
 11
269.2941020812601
 21
191.3350643550971
 31
0.0
  0
LINE
  5
2741
330
D
100
AcDbEntity
 67
     1
  8
AM_VIS
100
AcDbLine
 10
269.2941020812601
 20
234.774677613044
 30
0.0
 11
230.2941020812601
 21
234.774677613044
 31
0.0
  0
LINE
  5
2742
330
D
100
AcDbEntity
 67
     1
  8
AM_VIS
100
AcDbLine
 10
230.29410208126
 20
236.5548709840706
 30
0.0
 11
269.2941020812601
 21
236.5548709840706
 31
0.0
  0
LINE
  5
2743
330
D
100
AcDbEntity
 67
     1
  8
AM_VIS
100
AcDbLine
 10
229.7941020812599
 20
236.0548709840706
 30
0.0
 11
230.29410208126
 21
236.5548709840706
 31
0.0
  0
LINE
  5
2744
330
D
100
AcDbEntity
 67
     1
  8
AM_VIS
100
AcDbLine
 10
229.7940512649098
 20
234.5782434965278
 30
0.0
 11
230.2940514866449
 21
234.7748063114391
 31
0.0
  0
LINE
  5
2745
330
D
100
AcDbEntity
 67
     1
  8
AM_VIS
100
AcDbLine
 10
230.29410208126
 20
191.3350643550971
 30
0.0
 11
230.29410208126
 21
234.774677613044
 31
0.0
  0
LINE
  5
2746
330
D
100
AcDbEntity
 67
     1
  8
AM_VIS
100
AcDbLine
 10
229.7941020812599
 20
234.5781142341015
 30
0.0
 11
229.7941020812599
 21
191.5316277340397
 31
0.0
  0
LINE
  5
2747
330
D
100
AcDbEntity
 67
     1
  8
AM_VIS
100
AcDbLine
 10
229.7940512649098
 20
191.5314984716134
 30
0.0
 11
230.2940514866449
 21
191.334935656702
 31
0.0
  0
LINE
  5
2748
330
D
100
AcDbEntity
 67
     1
  8
AM_VIS
100
AcDbLine
 10
229.7941020812599
 20
190.0548709840706
 30
0.0
 11
230.29410208126
 21
189.5548709840706
 31
0.0
  0
LINE
  5
2749
330
D
100
AcDbEntity
 67
     1
  8
AM_VIS
100
AcDbLine
 10
269.2941020812601
 20
189.5548709840706
 30
0.0
 11
230.2941020812601
 21
189.5548709840706
 31
0.0
  0
LINE
  5
274A
330
D
100
AcDbEntity
 67
     1
  8
AM_VIS
100
AcDbLine
 10
269.2941020812599
 20
236.5548709840706
 30
0.0
 11
269.7941020812601
 21
236.0548709840706
 31
0.0
  0
LINE
  5
274B
330
D
100
AcDbEntity
 67
     1
  8
AM_VIS
100
AcDbLine
 10
269.2941020812601
 20
189.5548709840706
 30
0.0
 11
269.7941020812601
 21
190.0548709840706
 31
0.0
  0
LINE
  5
274C
330
D
100
AcDbEntity
 67
     1
  8
AM_VIS
100
AcDbLine
 10
269.2941526758752
 20
191.3349356567021
 30
0.0
 11
269.7941528976102
 21
191.5314984716134
 31
0.0
  0
LINE
  5
274D
330
D
100
AcDbEntity
 67
     1
  8
AM_VIS
100
AcDbLine
 10
269.2941020812601
 20
234.774677613044
 30
0.0
 11
269.2941020812601
 21
191.3350643550971
 31
0.0
  0
LINE
  5
274E
330
D
100
AcDbEntity
 67
     1
  8
AM_VIS
100
AcDbLine
 10
269.2941404553606
 20
234.7747752340243
 30
0.0
 11
269.794146243107
 21
234.5782265786967
 31
0.0
  0
LINE
  5
274F
330
D
100
AcDbEntity
 67
     1
  8
AM_VIS
100
AcDbLine
 10
269.7941020812601
 20
191.5316277340397
 30
0.0
 11
269.7941020812601
 21
234.5781142341015
 31
0.0
  0
ARC
  5
2750
330
D
100
AcDbEntity
 67
     1
  8
AM_VIS
100
AcDbCircle
 10
238.2941020812601
 20
198.0548709840706
 30
0.0
 40
0.9999999999999323
100
AcDbArc
 50
315.6287299241921
 51
44.37127008817098
  0
ARC
  5
2751
330
D
100
AcDbEntity
 67
     1
  8
AM_VIS
100
AcDbCircle
 10
238.2940014150595
 20
198.05477031787
 30
0.0
 40
1.000100671266793
100
AcDbArc
 50
0.0057671678925739
 51
89.99423283219861
  0
ARC
  5
2752
330
D
100
AcDbEntity
 67
     1
  8
AM_VIS
100
AcDbCircle
 10
238.2941020812599
 20
198.0548709840706
 30
0.0
 40
1.0
100
AcDbArc
 50
90.0
 51
270.0
  0
ARC
  5
2753
330
D
100
AcDbEntity
 67
     1
  8
AM_VIS
100
AcDbCircle
 10
238.2940014150595
 20
198.054971650271
 30
0.0
 40
1.000100671266781
100
AcDbArc
 50
270.0057671678469
 51
359.994232832153
  0
LINE
  5
2754
330
D
100
AcDbEntity
 67
     1
  8
AM_VIS
100
AcDbLine
 10
276.5441020812601
 20
198.0548709840706
 30
0.0
 11
269.7941020812601
 21
198.0548709840706
 31
0.0
  0
LINE
  5
2755
330
D
100
AcDbEntity
 67
     1
  8
AM_VIS
100
AcDbLine
 10
277.2941020812601
 20
227.3048709840706
 30
0.0
 11
276.5441020812601
 21
228.0548709840706
 31
0.0
  0
LINE
  5
2756
330
D
100
AcDbEntity
 67
     1
  8
AM_VIS
100
AcDbLine
 10
229.39410208126
 20
196.0548709840706
 30
0.0
 11
223.7941020812595
 21
196.0548709840707
 31
0.0
  0
LINE
  5
2757
330
D
100
AcDbEntity
 67
     1
  8
AM_VIS
100
AcDbLine
 10
229.7941020804817
 20
195.6549062732274
 30
0.0
 11
229.7941020804817
 21
195.6548709840705
 31
0.0
  0
LINE
  5
2758
330
D
100
AcDbEntity
 67
     1
  8
AM_VIS
100
AcDbLine
 10
229.7941020804817
 20
230.4548709840706
 30
0.0
 11
229.7941020804817
 21
230.4548356949136
 31
0.0
  0
LINE
  5
2759
330
D
100
AcDbEntity
 67
     1
  8
AM_VIS
100
AcDbLine
 10
229.7941020804817
 20
195.6549062732274
 30
0.0
 11
229.7941020804817
 21
195.6548709840705
 31
0.0
  0
LINE
  5
275A
330
D
100
AcDbEntity
 67
     1
  8
AM_VIS
100
AcDbLine
 10
229.7941020804817
 20
230.4548709840706
 30
0.0
 11
229.7941020804817
 21
230.4548356949136
 31
0.0
  0
LINE
  5
275B
330
D
100
AcDbEntity
 67
     1
  8
AM_VIS
100
AcDbLine
 10
229.39410208126
 20
230.0548709840706
 30
0.0
 11
223.7941020812596
 21
230.0548709840707
 31
0.0
  0
LINE
  5
275C
330
D
100
AcDbEntity
 67
     1
  8
AM_VIS
100
AcDbLine
 10
277.2941020812601
 20
198.8048709840706
 30
0.0
 11
276.5441020812601
 21
198.0548709840706
 31
0.0
  0
LINE
  5
275D
330
D
100
AcDbEntity
 67
     1
  8
AM_VIS
100
AcDbLine
 10
276.5441020812601
 20
228.0548709840706
 30
0.0
 11
269.7941020812601
 21
228.0548709840706
 31
0.0
  0
LINE
  5
275E
330
D
100
AcDbEntity
 67
     1
  8
AM_VIS
100
AcDbLine
 10
277.2941020812601
 20
227.3048709840706
 30
0.0
 11
277.2941020812601
 21
213.0548709840705
 31
0.0
  0
LINE
  5
275F
330
D
100
AcDbEntity
 67
     1
  8
AM_VIS
100
AcDbLine
 10
209.79410208126
 20
190.0548709840706
 30
0.0
 11
209.79410208126
 21
191.5316277340397
 31
0.0
  0
LINE
  5
2760
330
D
100
AcDbEntity
 67
     1
  8
AM_VIS
100
AcDbLine
 10
209.79410208126
 20
234.5781142341015
 30
0.0
 11
209.79410208126
 21
236.0548709840706
 31
0.0
  0
LINE
  5
2761
330
D
100
AcDbEntity
 67
     1
  8
AM_VIS
100
AcDbLine
 10
210.29410208126
 20
236.5548709840706
 30
0.0
 11
210.29410208126
 21
234.774677613044
 31
0.0
  0
LINE
  5
2762
330
D
100
AcDbEntity
 67
     1
  8
AM_VIS
100
AcDbLine
 10
210.29410208126
 20
191.3350643550971
 30
0.0
 11
210.29410208126
 21
189.5548709840706
 31
0.0
  0
LINE
  5
2763
330
D
100
AcDbEntity
 67
     1
  8
AM_VIS
100
AcDbLine
 10
215.79410208126
 20
236.0548709840706
 30
0.0
 11
215.79410208126
 21
234.5781142341015
 31
0.0
  0
LINE
  5
2764
330
D
100
AcDbEntity
 67
     1
  8
AM_VIS
100
AcDbLine
 10
215.29410208126
 20
234.774677613044
 30
0.0
 11
215.29410208126
 21
236.5548709840706
 31
0.0
  0
LINE
  5
2765
330
D
100
AcDbEntity
 67
     1
  8
AM_VIS
100
AcDbLine
 10
215.79410208126
 20
191.5316277340397
 30
0.0
 11
215.79410208126
 21
190.0548709840706
 31
0.0
  0
LINE
  5
2766
330
D
100
AcDbEntity
 67
     1
  8
AM_VIS
100
AcDbLine
 10
215.29410208126
 20
189.5548709840706
 30
0.0
 11
215.29410208126
 21
191.3350643550971
 31
0.0
  0
ARC
  5
2767
330
D
100
AcDbEntity
 67
     1
  8
AM_VIS
100
AcDbCircle
 10
238.2941020812599
 20
198.0548709840706
 30
0.0
 40
1.0
100
AcDbArc
 50
90.0
 51
270.0
  0
ARC
  5
2768
330
D
100
AcDbEntity
 67
     1
  8
AM_VIS
100
AcDbCircle
 10
250.0441020812601
 20
206.0548709840706
 30
0.0
 40
12.5
100
AcDbArc
 50
253.7842051586931
 51
346.2157948413091
  0
ARC
  5
2769
330
D
100
AcDbEntity
 67
     1
  8
AM_VIS
100
AcDbCircle
 10
262.54410208126
 20
206.0548709840706
 30
0.0
 40
3.0
100
AcDbArc
 50
263.1078974206535
 51
96.89210257934647
  0
ARC
  5
276A
330
D
100
AcDbEntity
 67
     1
  8
AM_VIS
100
AcDbCircle
 10
250.0441020812601
 20
206.0548709840706
 30
0.0
 40
12.5
100
AcDbArc
 50
13.78420515869091
 51
106.2157948413068
  0
ARC
  5
276B
330
D
100
AcDbEntity
 67
     1
  8
AM_VIS
100
AcDbCircle
 10
243.79410208126
 20
216.880188531376
 30
0.0
 40
3.0
100
AcDbArc
 50
23.10789742065205
 51
216.892102579345
  0
ARC
  5
276C
330
D
100
AcDbEntity
 67
     1
  8
AM_VIS
100
AcDbCircle
 10
250.0441020812601
 20
206.0548709840706
 30
0.0
 40
12.5
100
AcDbArc
 50
133.7842051586912
 51
226.215794841311
  0
ARC
  5
276D
330
D
100
AcDbEntity
 67
     1
  8
AM_VIS
100
AcDbCircle
 10
243.7941020812601
 20
195.229553436765
 30
0.0
 40
3.0
100
AcDbArc
 50
143.107897420655
 51
336.8921025793479
  0
LINE
  5
276E
330
D
100
AcDbEntity
 67
     1
  8
AM_VIS
100
AcDbLine
 10
229.7941020812599
 20
234.5781142341015
 30
0.0
 11
229.7941020812599
 21
236.0548709840706
 31
0.0
  0
LINE
  5
276F
330
D
100
AcDbEntity
 67
     1
  8
AM_VIS
100
AcDbLine
 10
230.29410208126
 20
236.5548709840706
 30
0.0
 11
230.29410208126
 21
234.774677613044
 31
0.0
  0
LINE
  5
2770
330
D
100
AcDbEntity
 67
     1
  8
AM_VIS
100
AcDbLine
 10
229.7941020812599
 20
190.0548709840706
 30
0.0
 11
229.7941020812599
 21
191.5316277340397
 31
0.0
  0
LINE
  5
2771
330
D
100
AcDbEntity
 67
     1
  8
AM_VIS
100
AcDbLine
 10
230.29410208126
 20
191.3350643550971
 30
0.0
 11
230.29410208126
 21
189.5548709840706
 31
0.0
  0
LINE
  5
2772
330
D
100
AcDbEntity
 67
     1
  8
AM_VIS
100
AcDbLine
 10
269.7941020812601
 20
236.0548709840706
 30
0.0
 11
269.7941020812601
 21
234.5781142341015
 31
0.0
  0
LINE
  5
2773
330
D
100
AcDbEntity
 67
     1
  8
AM_VIS
100
AcDbLine
 10
269.2941020812601
 20
234.774677613044
 30
0.0
 11
269.2941020812601
 21
236.5548709840706
 31
0.0
  0
LINE
  5
2774
330
D
100
AcDbEntity
 67
     1
  8
AM_VIS
100
AcDbLine
 10
269.7941020812601
 20
191.5316277340397
 30
0.0
 11
269.7941020812601
 21
190.0548709840706
 31
0.0
  0
LINE
  5
2775
330
D
100
AcDbEntity
 67
     1
  8
AM_VIS
100
AcDbLine
 10
269.2941020812599
 20
189.5548709840706
 30
0.0
 11
269.2941020812599
 21
191.3350643550971
 31
0.0
  0
ARC
  5
2776
330
D
100
AcDbEntity
 67
     1
  8
AM_VIS
100
AcDbCircle
 10
229.39410208126
 20
195.6548709840705
 30
0.0
 40
0.3999999999999986
100
AcDbArc
 50
0.0
 51
90.0
  0
ARC
  5
2777
330
D
100
AcDbEntity
 67
     1
  8
AM_VIS
100
AcDbCircle
 10
229.39410208126
 20
230.4548709840706
 30
0.0
 40
0.3999999999999986
100
AcDbArc
 50
270.0
 51
0.0
  0
ARC
  5
2778
330
D
100
AcDbEntity
 67
     1
  8
AM_VIS
100
AcDbCircle
 10
238.2941020812599
 20
198.0548709840706
 30
0.0
 40
1.0
100
AcDbArc
 50
270.0
 51
90.0
  0
LINE
  5
2779
330
D
100
AcDbEntity
 67
     1
  8
AM_VIS
100
AcDbLine
 10
276.5441020812601
 20
198.0548709840706
 30
0.0
 11
276.5441020812601
 21
213.0548709840706
 31
0.0
  0
LINE
  5
277A
330
D
100
AcDbEntity
 67
     1
  8
AM_VIS
100
AcDbLine
 10
277.2941020812601
 20
213.0548709840705
 30
0.0
 11
277.2941020812601
 21
198.8048709840706
 31
0.0
  0
LINE
  5
277B
330
D
100
AcDbEntity
 67
     1
  8
AM_VIS
100
AcDbLine
 10
276.5441020812601
 20
213.0548709840707
 30
0.0
 11
276.5441020812601
 21
228.0548709840706
 31
0.0
  0
LINE
  5
277C
330
D
100
AcDbEntity
 67
     1
  8
AM_VIS
100
AcDbLine
 10
241.3946949695041
 20
197.0303726549124
 30
0.0
 11
241.5043671713263
 21
196.926526616733
 31
0.0
  0
LINE
  5
277D
330
D
100
AcDbEntity
 67
     1
  8
AM_VIS
100
AcDbLine
 10
241.3939368868073
 20
197.0311773404692
 30
0.0
 11
241.5197480980765
 21
197.1876367598211
 31
0.0
  0
LINE
  5
277E
330
D
100
AcDbEntity
 67
     1
  8
AM_VIS
100
AcDbLine
 10
246.554436719801
 20
194.0517613673429
 30
0.0
 11
246.6270289788862
 21
194.2389467692958
 31
0.0
  0
LINE
  5
277F
330
D
100
AcDbEntity
 67
     1
  8
AM_VIS
100
AcDbLine
 10
246.4085914196201
 20
194.0950714268143
 30
0.0
 11
246.5533608276766
 21
194.0520155330371
 31
0.0
  0
LINE
  5
2780
330
D
100
AcDbEntity
 67
     1
  8
AM_VIS
100
AcDbLine
 10
261.9855291723585
 20
203.1061809959074
 30
0.0
 11
262.1839326098133
 21
203.0754550005434
 31
0.0
  0
LINE
  5
2781
330
D
100
AcDbEntity
 67
     1
  8
AM_VIS
100
AcDbLine
 10
262.1842504470479
 20
203.076513862091
 30
0.0
 11
262.2193476505032
 21
203.223415794393
 31
0.0
  0
LINE
  5
2782
330
D
100
AcDbEntity
 67
     1
  8
AM_VIS
100
AcDbLine
 10
261.9855291716334
 20
209.0035609782138
 30
0.0
 11
262.1839326144849
 21
209.0342869387043
 31
0.0
  0
LINE
  5
2783
330
D
100
AcDbEntity
 67
     1
  8
AM_VIS
100
AcDbLine
 10
262.184250447048
 20
209.0332281060502
 30
0.0
 11
262.2193476505032
 21
208.8863261737482
 31
0.0
  0
LINE
  5
2784
330
D
100
AcDbEntity
 67
     1
  8
AM_VIS
100
AcDbLine
 10
246.5544367471593
 20
218.0579806111992
 30
0.0
 11
246.6270289733448
 21
217.8707951964833
 31
0.0
  0
LINE
  5
2785
330
D
100
AcDbEntity
 67
     1
  8
AM_VIS
100
AcDbLine
 10
241.393936909494
 20
215.0785646461644
 30
0.0
 11
241.5197480932601
 21
214.922105204702
 31
0.0
  0
LINE
  5
2786
330
D
100
AcDbEntity
 67
     1
  8
AM_VIS
100
AcDbLine
 10
246.4085914205767
 20
218.0146705391875
 30
0.0
 11
246.5533608275426
 21
218.0577264355449
 31
0.0
  0
LINE
  5
2787
330
D
100
AcDbEntity
 67
     1
  8
AM_VIS
100
AcDbLine
 10
241.3946949691893
 20
215.0793693135653
 30
0.0
 11
241.5043671727005
 21
215.1832153495099
 31
0.0
  0
ARC
  5
2788
330
D
100
AcDbEntity
 67
     1
  8
AM_VIS
100
AcDbCircle
 10
250.04410208126
 20
206.0548709840706
 30
0.0
 40
12.3
100
AcDbArc
 50
133.8653009701626
 51
226.1346990298374
  0
ARC
  5
2789
330
D
100
AcDbEntity
 67
     1
  8
AM_VIS
100
AcDbCircle
 10
243.79410208126
 20
195.229553436765
 30
0.0
 40
3.0
100
AcDbArc
 50
340.7272153688705
 51
139.2727846311328
  0
ARC
  5
278A
330
D
100
AcDbEntity
 67
     1
  8
AM_VIS
100
AcDbCircle
 10
250.04410208126
 20
206.0548709840706
 30
0.0
 40
12.3
100
AcDbArc
 50
253.8653009701651
 51
346.1346990298332
  0
ARC
  5
278B
330
D
100
AcDbEntity
 67
     1
  8
AM_VIS
100
AcDbCircle
 10
262.54410208126
 20
206.0548709840706
 30
0.0
 40
3.0
100
AcDbArc
 50
100.7272153688681
 51
259.2727846311319
  0
ARC
  5
278C
330
D
100
AcDbEntity
 67
     1
  8
AM_VIS
100
AcDbCircle
 10
250.04410208126
 20
206.0548709840706
 30
0.0
 40
12.3
100
AcDbArc
 50
13.86530097016674
 51
106.1346990298349
  0
ARC
  5
278D
330
D
100
AcDbEntity
 67
     1
  8
AM_VIS
100
AcDbCircle
 10
243.79410208126
 20
216.880188531376
 30
0.0
 40
3.000000000000001
100
AcDbArc
 50
220.7272153688672
 51
19.27278463112952
  0
LINE
  5
278E
330
D
100
AcDbEntity
 67
     1
  8
AM_VIS
100
AcDbLine
 10
285.29410208126
 20
221.2167734543403
 30
0.0
 11
286.7941020812601
 21
220.0548709840703
 31
0.0
  0
LINE
  5
278F
330
D
100
AcDbEntity
 67
     1
  8
AM_VIS
100
AcDbLine
 10
285.29410208126
 20
204.8929685138007
 30
0.0
 11
286.7941020812601
 21
206.0548709840708
 31
0.0
  0
LINE
  5
2790
330
D
100
AcDbEntity
 67
     1
  8
AM_VIS
100
AcDbLine
 10
286.7941020812601
 20
220.0548709840703
 30
0.0
 11
286.7941020812601
 21
206.0548709840708
 31
0.0
  0
LINE
  5
2791
330
D
100
AcDbEntity
 67
     1
  8
AM_VIS
100
AcDbLine
 10
215.7948507353118
 20
191.8035742772154
 30
0.0
 11
215.79410208126
 21
191.8048709840706
 31
0.0
  0
LINE
  5
2792
330
D
100
AcDbEntity
 67
     1
  8
AM_VIS
100
AcDbLine
 10
243.2161531215758
 20
217.880188531376
 30
0.0
 11
242.63910208126
 21
216.880188531376
 31
0.0
  0
LINE
  5
2793
330
D
100
AcDbEntity
 67
     1
  8
AM_VIS
100
AcDbLine
 10
242.63910208126
 20
216.880188531376
 30
0.0
 11
243.2161531215758
 21
215.880188531376
 31
0.0
  0
LINE
  5
2794
330
D
100
AcDbEntity
 67
     1
  8
AM_VIS
100
AcDbLine
 10
243.2161531215758
 20
215.880188531376
 30
0.0
 11
244.3720510409441
 21
215.880188531376
 31
0.0
  0
LINE
  5
2795
330
D
100
AcDbEntity
 67
     1
  8
AM_VIS
100
AcDbLine
 10
244.3720510409441
 20
215.880188531376
 30
0.0
 11
244.9491020812599
 21
216.880188531376
 31
0.0
  0
LINE
  5
2796
330
D
100
AcDbEntity
 67
     1
  8
AM_VIS
100
AcDbLine
 10
244.9491020812599
 20
216.880188531376
 30
0.0
 11
244.3720510409441
 21
217.880188531376
 31
0.0
  0
LINE
  5
2797
330
D
100
AcDbEntity
 67
     1
  8
AM_VIS
100
AcDbLine
 10
244.3720510409441
 20
217.880188531376
 30
0.0
 11
243.2161531215758
 21
217.880188531376
 31
0.0
  0
ARC
  5
2798
330
D
100
AcDbEntity
 67
     1
  8
AM_VIS
100
AcDbCircle
 10
243.79410208126
 20
216.880188531376
 30
0.0
 40
2.849999999999995
100
AcDbArc
 50
90.0
 51
270.0
  0
ARC
  5
2799
330
D
100
AcDbEntity
 67
     1
  8
AM_VIS
100
AcDbCircle
 10
243.79410208126
 20
216.880188531376
 30
0.0
 40
2.849999999999995
100
AcDbArc
 50
270.0
 51
90.0
  0
LINE
  5
279A
330
D
100
AcDbEntity
 67
     1
  8
AM_VIS
100
AcDbLine
 10
243.2161531215759
 20
196.229553436765
 30
0.0
 11
242.6391020812601
 21
195.229553436765
 31
0.0
  0
LINE
  5
279B
330
D
100
AcDbEntity
 67
     1
  8
AM_VIS
100
AcDbLine
 10
242.6391020812601
 20
195.229553436765
 30
0.0
 11
243.2161531215759
 21
194.229553436765
 31
0.0
  0
LINE
  5
279C
330
D
100
AcDbEntity
 67
     1
  8
AM_VIS
100
AcDbLine
 10
243.2161531215759
 20
194.229553436765
 30
0.0
 11
244.3720510409443
 21
194.229553436765
 31
0.0
  0
LINE
  5
279D
330
D
100
AcDbEntity
 67
     1
  8
AM_VIS
100
AcDbLine
 10
244.3720510409443
 20
194.229553436765
 30
0.0
 11
244.9491020812601
 21
195.229553436765
 31
0.0
  0
LINE
  5
279E
330
D
100
AcDbEntity
 67
     1
  8
AM_VIS
100
AcDbLine
 10
244.9491020812601
 20
195.229553436765
 30
0.0
 11
244.3720510409443
 21
196.229553436765
 31
0.0
  0
LINE
  5
279F
330
D
100
AcDbEntity
 67
     1
  8
AM_VIS
100
AcDbLine
 10
244.3720510409443
 20
196.229553436765
 30
0.0
 11
243.2161531215759
 21
196.229553436765
 31
0.0
  0
ARC
  5
27A0
330
D
100
AcDbEntity
 67
     1
  8
AM_VIS
100
AcDbCircle
 10
243.7941020812601
 20
195.229553436765
 30
0.0
 40
2.849999999999995
100
AcDbArc
 50
90.0
 51
270.0
  0
ARC
  5
27A1
330
D
100
AcDbEntity
 67
     1
  8
AM_VIS
100
AcDbCircle
 10
243.7941020812601
 20
195.229553436765
 30
0.0
 40
2.849999999999995
100
AcDbArc
 50
270.0
 51
90.0
  0
LINE
  5
27A2
330
D
100
AcDbEntity
 67
     1
  8
AM_VIS
100
AcDbLine
 10
261.9661531215758
 20
207.0548709840706
 30
0.0
 11
261.38910208126
 21
206.0548709840706
 31
0.0
  0
LINE
  5
27A3
330
D
100
AcDbEntity
 67
     1
  8
AM_VIS
100
AcDbLine
 10
261.38910208126
 20
206.0548709840706
 30
0.0
 11
261.9661531215758
 21
205.0548709840706
 31
0.0
  0
LINE
  5
27A4
330
D
100
AcDbEntity
 67
     1
  8
AM_VIS
100
AcDbLine
 10
261.9661531215758
 20
205.0548709840706
 30
0.0
 11
263.1220510409442
 21
205.0548709840706
 31
0.0
  0
LINE
  5
27A5
330
D
100
AcDbEntity
 67
     1
  8
AM_VIS
100
AcDbLine
 10
263.1220510409442
 20
205.0548709840706
 30
0.0
 11
263.6991020812601
 21
206.0548709840706
 31
0.0
  0
LINE
  5
27A6
330
D
100
AcDbEntity
 67
     1
  8
AM_VIS
100
AcDbLine
 10
263.6991020812601
 20
206.0548709840706
 30
0.0
 11
263.1220510409442
 21
207.0548709840706
 31
0.0
  0
LINE
  5
27A7
330
D
100
AcDbEntity
 67
     1
  8
AM_VIS
100
AcDbLine
 10
263.1220510409442
 20
207.0548709840706
 30
0.0
 11
261.9661531215758
 21
207.0548709840706
 31
0.0
  0
ARC
  5
27A8
330
D
100
AcDbEntity
 67
     1
  8
AM_VIS
100
AcDbCircle
 10
262.54410208126
 20
206.0548709840706
 30
0.0
 40
2.849999999999995
100
AcDbArc
 50
90.0
 51
270.0
  0
ARC
  5
27A9
330
D
100
AcDbEntity
 67
     1
  8
AM_VIS
100
AcDbCircle
 10
262.54410208126
 20
206.0548709840706
 30
0.0
 40
2.849999999999995
100
AcDbArc
 50
270.0
 51
90.0
  0
ARC
  5
2A16
330
D
100
AcDbEntity
 67
     1
  8
AM_4
100
AcDbCircle
 10
189.7941020812605
 20
208.5548709840705
 30
0.0
 40
4.849999999999999
100
AcDbArc
 50
169.9999999999957
 51
100.0000000000051
  0
ARC
  5
2A17
330
D
100
AcDbEntity
 67
     1
  8
AM_4
100
AcDbCircle
 10
135.7941020812605
 20
208.5548709840705
 30
0.0
 40
4.849999999999999
100
AcDbArc
 50
169.9999999999957
 51
100.0000000000051
  0
LINE
  5
2A24
330
D
100
AcDbEntity
 67
     1
  8
AM_VIS
100
AcDbLine
 10
179.29410208126
 20
189.5548709840705
 30
0.0
 11
209.7941020812601
 21
189.5548709840705
 31
0.0
  0
LINE
  5
2A25
330
D
100
AcDbEntity
 67
     1
  8
AM_VIS
100
AcDbLine
 10
209.7941020812601
 20
236.5548709840705
 30
0.0
 11
179.29410208126
 21
236.5548709840705
 31
0.0
  0
LINE
  5
2A26
330
D
100
AcDbEntity
 67
     1
  8
AM_VIS
100
AcDbLine
 10
179.29410208126
 20
229.3548709840707
 30
0.0
 11
179.29410208126
 21
196.7548709840708
 31
0.0
  0
LINE
  5
2A27
330
D
100
AcDbEntity
 67
     1
  8
AM_VIS
100
AcDbLine
 10
209.7941020812601
 20
229.3548709840707
 30
0.0
 11
209.7941020812601
 21
196.7548709840708
 31
0.0
  0
LINE
  5
2A28
330
D
100
AcDbEntity
 67
     1
  8
AM_VIS
100
AcDbLine
 10
146.29410208126
 20
236.5548709840705
 30
0.0
 11
115.79410208126
 21
236.5548709840705
 31
0.0
  0
LINE
  5
2A29
330
D
100
AcDbEntity
 67
     1
  8
AM_VIS
100
AcDbLine
 10
146.29410208126
 20
196.7548709840708
 30
0.0
 11
146.29410208126
 21
229.3548709840707
 31
0.0
  0
LINE
  5
2A2A
330
D
100
AcDbEntity
 67
     1
  8
AM_VIS
100
AcDbLine
 10
115.79410208126
 20
189.5548709840705
 30
0.0
 11
146.29410208126
 21
189.5548709840705
 31
0.0
  0
LINE
  5
2A2B
330
D
100
AcDbEntity
 67
     1
  8
AM_VIS
100
AcDbLine
 10
115.79410208126
 20
229.3548709840707
 30
0.0
 11
115.79410208126
 21
196.7548709840708
 31
0.0
  0
LINE
  5
2A36
330
D
100
AcDbEntity
 67
     1
  8
AM_VIS
100
AcDbLine
 10
179.29410208126
 20
234.8048709840705
 30
0.0
 11
146.29410208126
 21
234.8048709840705
 31
0.0
  0
LINE
  5
2A37
330
D
100
AcDbEntity
 67
     1
  8
AM_VIS
100
AcDbLine
 10
179.29410208126
 20
207.7513735287621
 30
0.0
 11
146.29410208126
 21
207.7513735287621
 31
0.0
  0
LINE
  5
2A38
330
D
100
AcDbEntity
 67
     1
  8
AM_VIS
100
AcDbLine
 10
179.29410208126
 20
202.536667820526
 30
0.0
 11
146.29410208126
 21
202.536667820526
 31
0.0
  0
LINE
  5
2A39
330
D
100
AcDbEntity
 67
     1
  8
AM_VIS
100
AcDbLine
 10
179.29410208126
 20
191.30487098407
 30
0.0
 11
146.29410208126
 21
191.30487098407
 31
0.0
  0
LINE
  5
2A42
330
D
100
AcDbEntity
 67
     1
  8
AM_VIS
100
AcDbLine
 10
115.79410208126
 20
228.0548709840705
 30
0.0
 11
112.3941020812604
 21
228.0548709840705
 31
0.0
  0
LINE
  5
2A43
330
D
100
AcDbEntity
 67
     1
  8
AM_VIS
100
AcDbLine
 10
115.79410208126
 20
198.0548709840705
 30
0.0
 11
112.3941020812604
 21
198.0548709840705
 31
0.0
  0
LINE
  5
2A4A
330
D
100
AcDbEntity
 67
     1
  8
AM_VIS
100
AcDbLine
 10
179.29410208126
 20
189.5548709840705
 30
0.0
 11
179.29410208126
 21
196.7548709840708
 31
0.0
  0
LINE
  5
2A4B
330
D
100
AcDbEntity
 67
     1
  8
AM_VIS
100
AcDbLine
 10
179.29410208126
 20
229.3548709840707
 30
0.0
 11
179.29410208126
 21
236.5548709840705
 31
0.0
  0
LINE
  5
2A4F
330
D
100
AcDbEntity
 67
     1
  8
AM_VIS
100
AcDbLine
 10
209.7941020812601
 20
196.7548709840708
 30
0.0
 11
209.7941020812601
 21
189.5548709840705
 31
0.0
  0
LINE
  5
2A50
330
D
100
AcDbEntity
 67
     1
  8
AM_VIS
100
AcDbLine
 10
209.7941020812601
 20
236.5548709840705
 30
0.0
 11
209.7941020812601
 21
229.3548709840707
 31
0.0
  0
LINE
  5
2A51
330
D
100
AcDbEntity
 67
     1
  8
AM_VIS
100
AcDbLine
 10
146.29410208126
 20
236.5548709840705
 30
0.0
 11
146.29410208126
 21
229.3548709840707
 31
0.0
  0
LINE
  5
2A52
330
D
100
AcDbEntity
 67
     1
  8
AM_VIS
100
AcDbLine
 10
146.29410208126
 20
196.7548709840708
 30
0.0
 11
146.29410208126
 21
189.5548709840705
 31
0.0
  0
LINE
  5
2A53
330
D
100
AcDbEntity
 67
     1
  8
AM_VIS
100
AcDbLine
 10
115.79410208126
 20
229.3548709840707
 30
0.0
 11
115.79410208126
 21
236.5548709840705
 31
0.0
  0
LINE
  5
2A54
330
D
100
AcDbEntity
 67
     1
  8
AM_VIS
100
AcDbLine
 10
115.79410208126
 20
189.5548709840705
 30
0.0
 11
115.79410208126
 21
196.7548709840708
 31
0.0
  0
LINE
  5
2A55
330
D
100
AcDbEntity
 67
     1
  8
AM_VIS
100
AcDbLine
 10
111.79410208126
 20
198.6548709840708
 30
0.0
 11
111.79410208126
 21
227.4548709840706
 31
0.0
  0
CIRCLE
  5
2A5A
330
D
100
AcDbEntity
 67
     1
  8
AM_VIS
100
AcDbCircle
 10
189.7941020812605
 20
208.5548709840705
 30
0.0
 40
4.25
  0
CIRCLE
  5
2A5B
330
D
100
AcDbEntity
 67
     1
  8
AM_VIS
100
AcDbCircle
 10
189.7941020812605
 20
208.5548709840705
 30
0.0
 40
4.999999999999995
  0
CIRCLE
  5
2A5C
330
D
100
AcDbEntity
 67
     1
  8
AM_VIS
100
AcDbCircle
 10
135.7941020812605
 20
208.5548709840705
 30
0.0
 40
4.25
  0
CIRCLE
  5
2A5D
330
D
100
AcDbEntity
 67
     1
  8
AM_VIS
100
AcDbCircle
 10
135.7941020812605
 20
208.5548709840705
 30
0.0
 40
5.0
  0
CIRCLE
  5
2A5E
330
D
100
AcDbEntity
 67
     1
  8
AM_VIS
100
AcDbCircle
 10
194.7941020812605
 20
218.5548709840705
 30
0.0
 40
3.949999999999999
  0
CIRCLE
  5
2A5F
330
D
100
AcDbEntity
 67
     1
  8
AM_VIS
100
AcDbCircle
 10
194.7941020812605
 20
218.5548709840705
 30
0.0
 40
3.5
  0
CIRCLE
  5
2A60
330
D
100
AcDbEntity
 67
     1
  8
AM_VIS
100
AcDbCircle
 10
130.7941020812605
 20
218.5548709840705
 30
0.0
 40
3.949999999999999
  0
CIRCLE
  5
2A61
330
D
100
AcDbEntity
 67
     1
  8
AM_VIS
100
AcDbCircle
 10
130.7941020812605
 20
218.5548709840705
 30
0.0
 40
3.5
  0
ARC
  5
2A64
330
D
100
AcDbEntity
 67
     1
  8
AM_VIS
100
AcDbCircle
 10
112.3941020812604
 20
227.4548709840706
 30
0.0
 40
0.6
100
AcDbArc
 50
90.0
 51
180.0
  0
ARC
  5
2A65
330
D
100
AcDbEntity
 67
     1
  8
AM_VIS
100
AcDbCircle
 10
112.3941020812604
 20
198.6548709840708
 30
0.0
 40
0.6
100
AcDbArc
 50
180.0
 51
270.0
  0
LINE
  5
2A66
330
D
100
AcDbEntity
 67
     1
  8
CENTER
  6
CENTER
100
AcDbLine
 10
129.2941020812605
 20
208.5548709840705
 30
0.0
 11
142.2941020812605
 21
208.5548709840705
 31
0.0
  0
LINE
  5
2A67
330
D
100
AcDbEntity
 67
     1
  8
CENTER
  6
CENTER
100
AcDbLine
 10
135.7941020812605
 20
215.0548709840705
 30
0.0
 11
135.7941020812605
 21
202.0548709840703
 31
0.0
  0
LINE
  5
2A68
330
D
100
AcDbEntity
 67
     1
  8
CENTER
  6
CENTER
100
AcDbLine
 10
124.2941020812605
 20
218.5548709840705
 30
0.0
 11
137.2941020812605
 21
218.5548709840705
 31
0.0
  0
LINE
  5
2A69
330
D
100
AcDbEntity
 67
     1
  8
CENTER
  6
CENTER
100
AcDbLine
 10
130.7941020812605
 20
225.0548709840705
 30
0.0
 11
130.7941020812605
 21
212.0548709840703
 31
0.0
  0
LINE
  5
2A6A
330
D
100
AcDbEntity
 67
     1
  8
CENTER
  6
CENTER
100
AcDbLine
 10
183.2941020812605
 20
208.5548709840707
 30
0.0
 11
196.2941020812605
 21
208.5548709840707
 31
0.0
  0
LINE
  5
2A6B
330
D
100
AcDbEntity
 67
     1
  8
CENTER
  6
CENTER
100
AcDbLine
 10
189.7941020812605
 20
215.0548709840707
 30
0.0
 11
189.7941020812605
 21
202.0548709840705
 31
0.0
  0
LINE
  5
2A6C
330
D
100
AcDbEntity
 67
     1
  8
CENTER
  6
CENTER
100
AcDbLine
 10
188.2941020812605
 20
218.5548709840707
 30
0.0
 11
201.2941020812605
 21
218.5548709840707
 31
0.0
  0
LINE
  5
2A6D
330
D
100
AcDbEntity
 67
     1
  8
CENTER
  6
CENTER
100
AcDbLine
 10
194.7941020812605
 20
225.0548709840707
 30
0.0
 11
194.7941020812605
 21
212.0548709840705
 31
0.0
  0
ARC
  5
2A6E
330
D
100
AcDbEntity
 67
     1
  8
AM_4
100
AcDbCircle
 10
189.7941020812605
 20
123.7144266299459
 30
0.0
 40
4.849999999999999
100
AcDbArc
 50
169.9999999999957
 51
100.0000000000051
  0
ARC
  5
2A6F
330
D
100
AcDbEntity
 67
     1
  8
AM_4
100
AcDbCircle
 10
135.7941020812605
 20
123.7144266299459
 30
0.0
 40
4.849999999999999
100
AcDbArc
 50
169.9999999999957
 51
100.0000000000051
  0
LINE
  5
2A70
330
D
100
AcDbEntity
 67
     1
  8
AM_VIS
100
AcDbLine
 10
179.29410208126
 20
104.7144266299459
 30
0.0
 11
209.7941020812601
 21
104.7144266299459
 31
0.0
  0
LINE
  5
2A71
330
D
100
AcDbEntity
 67
     1
  8
AM_VIS
100
AcDbLine
 10
209.7941020812601
 20
151.7144266299459
 30
0.0
 11
179.29410208126
 21
151.7144266299459
 31
0.0
  0
LINE
  5
2A72
330
D
100
AcDbEntity
 67
     1
  8
AM_VIS
100
AcDbLine
 10
179.29410208126
 20
144.5144266299461
 30
0.0
 11
179.29410208126
 21
111.9144266299462
 31
0.0
  0
LINE
  5
2A73
330
D
100
AcDbEntity
 67
     1
  8
AM_VIS
100
AcDbLine
 10
146.29410208126
 20
151.7144266299459
 30
0.0
 11
115.79410208126
 21
151.7144266299459
 31
0.0
  0
LINE
  5
2A74
330
D
100
AcDbEntity
 67
     1
  8
AM_VIS
100
AcDbLine
 10
146.29410208126
 20
111.9144266299462
 30
0.0
 11
146.29410208126
 21
144.5144266299461
 31
0.0
  0
LINE
  5
2A75
330
D
100
AcDbEntity
 67
     1
  8
AM_VIS
100
AcDbLine
 10
115.79410208126
 20
104.7144266299459
 30
0.0
 11
146.29410208126
 21
104.7144266299459
 31
0.0
  0
LINE
  5
2A76
330
D
100
AcDbEntity
 67
     1
  8
AM_VIS
100
AcDbLine
 10
115.79410208126
 20
144.5144266299461
 30
0.0
 11
115.79410208126
 21
111.9144266299462
 31
0.0
  0
LINE
  5
2A77
330
D
100
AcDbEntity
 67
     1
  8
AM_VIS
100
AcDbLine
 10
179.29410208126
 20
149.9644266299459
 30
0.0
 11
146.29410208126
 21
149.9644266299459
 31
0.0
  0
LINE
  5
2A78
330
D
100
AcDbEntity
 67
     1
  8
AM_VIS
100
AcDbLine
 10
179.29410208126
 20
122.9109291746375
 30
0.0
 11
146.29410208126
 21
122.9109291746375
 31
0.0
  0
LINE
  5
2A79
330
D
100
AcDbEntity
 67
     1
  8
AM_VIS
100
AcDbLine
 10
179.29410208126
 20
117.6962234664014
 30
0.0
 11
146.29410208126
 21
117.6962234664014
 31
0.0
  0
LINE
  5
2A7A
330
D
100
AcDbEntity
 67
     1
  8
AM_VIS
100
AcDbLine
 10
179.29410208126
 20
106.4644266299455
 30
0.0
 11
146.29410208126
 21
106.4644266299455
 31
0.0
  0
LINE
  5
2A7B
330
D
100
AcDbEntity
 67
     1
  8
AM_VIS
100
AcDbLine
 10
115.79410208126
 20
143.2144266299459
 30
0.0
 11
112.3941020812604
 21
143.2144266299459
 31
0.0
  0
LINE
  5
2A7C
330
D
100
AcDbEntity
 67
     1
  8
AM_VIS
100
AcDbLine
 10
115.79410208126
 20
113.2144266299459
 30
0.0
 11
112.3941020812604
 21
113.2144266299459
 31
0.0
  0
LINE
  5
2A7D
330
D
100
AcDbEntity
 67
     1
  8
AM_VIS
100
AcDbLine
 10
179.29410208126
 20
104.7144266299459
 30
0.0
 11
179.29410208126
 21
111.9144266299462
 31
0.0
  0
LINE
  5
2A7E
330
D
100
AcDbEntity
 67
     1
  8
AM_VIS
100
AcDbLine
 10
179.29410208126
 20
144.5144266299461
 30
0.0
 11
179.29410208126
 21
151.7144266299459
 31
0.0
  0
LINE
  5
2A7F
330
D
100
AcDbEntity
 67
     1
  8
AM_VIS
100
AcDbLine
 10
209.7941020812601
 20
111.9144266299462
 30
0.0
 11
209.7941020812601
 21
104.7144266299459
 31
0.0
  0
LINE
  5
2A80
330
D
100
AcDbEntity
 67
     1
  8
AM_VIS
100
AcDbLine
 10
209.7941020812601
 20
151.7144266299459
 30
0.0
 11
209.7941020812601
 21
144.5144266299461
 31
0.0
  0
LINE
  5
2A81
330
D
100
AcDbEntity
 67
     1
  8
AM_VIS
100
AcDbLine
 10
146.29410208126
 20
151.7144266299459
 30
0.0
 11
146.29410208126
 21
144.5144266299461
 31
0.0
  0
LINE
  5
2A82
330
D
100
AcDbEntity
 67
     1
  8
AM_VIS
100
AcDbLine
 10
146.29410208126
 20
111.9144266299462
 30
0.0
 11
146.29410208126
 21
104.7144266299459
 31
0.0
  0
LINE
  5
2A83
330
D
100
AcDbEntity
 67
     1
  8
AM_VIS
100
AcDbLine
 10
115.79410208126
 20
144.5144266299461
 30
0.0
 11
115.79410208126
 21
151.7144266299459
 31
0.0
  0
LINE
  5
2A84
330
D
100
AcDbEntity
 67
     1
  8
AM_VIS
100
AcDbLine
 10
115.79410208126
 20
104.7144266299459
 30
0.0
 11
115.79410208126
 21
111.9144266299462
 31
0.0
  0
LINE
  5
2A85
330
D
100
AcDbEntity
 67
     1
  8
AM_VIS
100
AcDbLine
 10
111.79410208126
 20
113.8144266299463
 30
0.0
 11
111.79410208126
 21
142.614426629946
 31
0.0
  0
CIRCLE
  5
2A86
330
D
100
AcDbEntity
 67
     1
  8
AM_VIS
100
AcDbCircle
 10
189.7941020812605
 20
123.7144266299459
 30
0.0
 40
4.25
  0
CIRCLE
  5
2A87
330
D
100
AcDbEntity
 67
     1
  8
AM_VIS
100
AcDbCircle
 10
189.7941020812605
 20
123.7144266299459
 30
0.0
 40
4.999999999999995
  0
CIRCLE
  5
2A88
330
D
100
AcDbEntity
 67
     1
  8
AM_VIS
100
AcDbCircle
 10
135.7941020812605
 20
123.7144266299459
 30
0.0
 40
4.25
  0
CIRCLE
  5
2A89
330
D
100
AcDbEntity
 67
     1
  8
AM_VIS
100
AcDbCircle
 10
135.7941020812605
 20
123.7144266299459
 30
0.0
 40
5.0
  0
CIRCLE
  5
2A8A
330
D
100
AcDbEntity
 67
     1
  8
AM_VIS
100
AcDbCircle
 10
194.7941020812605
 20
133.7144266299459
 30
0.0
 40
3.949999999999999
  0
CIRCLE
  5
2A8B
330
D
100
AcDbEntity
 67
     1
  8
AM_VIS
100
AcDbCircle
 10
194.7941020812605
 20
133.7144266299459
 30
0.0
 40
3.5
  0
CIRCLE
  5
2A8C
330
D
100
AcDbEntity
 67
     1
  8
AM_VIS
100
AcDbCircle
 10
130.7941020812605
 20
133.7144266299459
 30
0.0
 40
3.949999999999999
  0
CIRCLE
  5
2A8D
330
D
100
AcDbEntity
 67
     1
  8
AM_VIS
100
AcDbCircle
 10
130.7941020812605
 20
133.7144266299459
 30
0.0
 40
3.5
  0
ARC
  5
2A8E
330
D
100
AcDbEntity
 67
     1
  8
AM_VIS
100
AcDbCircle
 10
112.3941020812604
 20
142.614426629946
 30
0.0
 40
0.6
100
AcDbArc
 50
90.0
 51
180.0
  0
ARC
  5
2A8F
330
D
100
AcDbEntity
 67
     1
  8
AM_VIS
100
AcDbCircle
 10
112.3941020812604
 20
113.8144266299463
 30
0.0
 40
0.6
100
AcDbArc
 50
180.0
 51
270.0
  0
LINE
  5
2A90
330
D
100
AcDbEntity
 67
     1
  8
CENTER
  6
CENTER
100
AcDbLine
 10
129.2941020812605
 20
123.7144266299459
 30
0.0
 11
142.2941020812605
 21
123.7144266299459
 31
0.0
  0
LINE
  5
2A91
330
D
100
AcDbEntity
 67
     1
  8
CENTER
  6
CENTER
100
AcDbLine
 10
135.7941020812605
 20
130.2144266299459
 30
0.0
 11
135.7941020812605
 21
117.2144266299457
 31
0.0
  0
LINE
  5
2A92
330
D
100
AcDbEntity
 67
     1
  8
CENTER
  6
CENTER
100
AcDbLine
 10
124.2941020812605
 20
133.7144266299459
 30
0.0
 11
137.2941020812605
 21
133.7144266299459
 31
0.0
  0
LINE
  5
2A93
330
D
100
AcDbEntity
 67
     1
  8
CENTER
  6
CENTER
100
AcDbLine
 10
130.7941020812605
 20
140.2144266299459
 30
0.0
 11
130.7941020812605
 21
127.2144266299457
 31
0.0
  0
LINE
  5
2A94
330
D
100
AcDbEntity
 67
     1
  8
CENTER
  6
CENTER
100
AcDbLine
 10
183.2941020812605
 20
123.7144266299462
 30
0.0
 11
196.2941020812605
 21
123.7144266299462
 31
0.0
  0
LINE
  5
2A95
330
D
100
AcDbEntity
 67
     1
  8
CENTER
  6
CENTER
100
AcDbLine
 10
189.7941020812605
 20
130.2144266299461
 30
0.0
 11
189.7941020812605
 21
117.2144266299459
 31
0.0
  0
LINE
  5
2A96
330
D
100
AcDbEntity
 67
     1
  8
CENTER
  6
CENTER
100
AcDbLine
 10
188.2941020812605
 20
133.7144266299461
 30
0.0
 11
201.2941020812605
 21
133.7144266299461
 31
0.0
  0
LINE
  5
2A97
330
D
100
AcDbEntity
 67
     1
  8
CENTER
  6
CENTER
100
AcDbLine
 10
194.7941020812605
 20
140.2144266299461
 30
0.0
 11
194.7941020812605
 21
127.2144266299459
 31
0.0
  0
DIMENSION
  5
2B38
330
D
100
AcDbEntity
 67
     1
  8
AM_5
100
AcDbDimension
  2
*D17
 10
115.79410208126
 20
163.7144266299459
 30
0.0
 11
125.7941020812603
 21
166.4647711181349
 31
0.0
 70
    32
 71
     5
 42
20.00000000000046
  3
AM_ISO$0
100
AcDbAlignedDimension
 13
135.7941020812605
 23
130.2144266299459
 33
0.0
 14
115.79410208126
 24
151.7144266299459
 34
0.0
100
AcDbRotatedDimension
1001
ACAD
1000
DSTYLE
1002
{
1070
    40
1040
1.0
1070
   272
1070
     8
1002
}
  0
DIMENSION
  5
2B4E
330
D
100
AcDbEntity
 67
     1
  8
AM_5
100
AcDbDimension
  2
*D18
 10
107.7760398876538
 20
123.7144266299459
 30
0.0
 11
107.7760398876538
 21
125.964426629946
 31
0.0
 70
   160
 71
     5
 42
4.500000000000113
  3
AM_ISO$0
100
AcDbAlignedDimension
 13
108.614369910455
 23
128.2144266299461
 33
0.0
 14
129.2941020812605
 24
123.7144266299459
 34
0.0
 50
90.0
100
AcDbRotatedDimension
1001
ACAD
1000
DSTYLE
1002
{
1070
    40
1040
1.0
1070
   272
1070
     8
1002
}
  0
DIMENSION
  5
2B68
330
D
100
AcDbEntity
 67
     1
  8
AM_5
100
AcDbDimension
  2
*D19
 10
146.29410208126
 20
173.7144266299459
 30
0.0
 11
131.04410208126
 21
176.4644266299459
 31
0.0
 70
    32
 71
     5
 42
30.5
  3
AM_ISO$0
100
AcDbAlignedDimension
 13
115.79410208126
 23
151.7144266299459
 33
0.0
 14
146.29410208126
 24
151.7144266299459
 34
0.0
100
AcDbRotatedDimension
1001
ACAD
1000
DSTYLE
1002
{
1070
    40
1040
1.0
1070
   144
1040
1.0
1070
   272
1070
     8
1002
}
  0
DIMENSION
  5
2B7E
330
D
100
AcDbEntity
 67
     1
  8
AM_5
100
AcDbDimension
  2
*D20
 10
209.7941020812601
 20
163.7144266299458
 30
0.0
 11
199.7941020812603
 21
166.4647711181347
 31
0.0
 70
    32
 71
     5
 42
19.99999999999954
  3
AM_ISO$0
100
AcDbAlignedDimension
 13
189.7941020812605
 23
130.2144266299461
 33
0.0
 14
209.7941020812601
 24
151.7144266299459
 34
0.0
100
AcDbRotatedDimension
1001
ACAD
1000
DSTYLE
1002
{
1070
    40
1040
1.0
1070
   144
1040
1.0
1070
   272
1070
     8
1002
}
  0
DIMENSION
  5
2B94
330
D
100
AcDbEntity
 67
     1
  8
AM_5
100
AcDbDimension
  2
*D21
 10
209.7941020812601
 20
173.7144266299458
 30
0.0
 11
194.54410208126
 21
176.4644266299458
 31
0.0
 70
    32
 71
     5
 42
30.5
  3
AM_ISO$0
100
AcDbAlignedDimension
 13
179.29410208126
 23
151.7144266299459
 33
0.0
 14
209.7941020812601
 24
151.7144266299459
 34
0.0
100
AcDbRotatedDimension
1001
ACAD
1000
DSTYLE
1002
{
1070
    40
1040
1.0
1070
   144
1040
1.0
1070
   272
1070
     8
1002
}
  0
LINE
  5
2F34
330
D
100
AcDbEntity
 67
     1
  8
AM_7
100
AcDbLine
 10
384.590615880137
 20
128.2144266299459
 30
0.0
 11
384.590615880137
 21
128.2144266299459
 31
0.0
  0
LINE
  5
2F35
330
D
100
AcDbEntity
 67
     1
  8
AM_7
100
AcDbLine
 10
384.590615880137
 20
128.2144266299459
 30
0.0
 11
384.590615880137
 21
128.2144266299459
 31
0.0
  0
LINE
  5
2F36
330
D
100
AcDbEntity
 67
     1
  8
AM_7
100
AcDbLine
 10
376.590615880137
 20
128.2144266299459
 30
0.0
 11
384.590615880137
 21
128.2144266299459
 31
0.0
  0
LINE
  5
2F37
330
D
100
AcDbEntity
 67
     1
  8
AM_7
100
AcDbLine
 10
384.590615880137
 20
128.2144266299459
 30
0.0
 11
392.590615880137
 21
128.2144266299459
 31
0.0
  0
LINE
  5
2F38
330
D
100
AcDbEntity
 67
     1
  8
AM_7
100
AcDbLine
 10
384.590615880137
 20
120.2144266299459
 30
0.0
 11
384.590615880137
 21
128.2144266299459
 31
0.0
  0
LINE
  5
2F39
330
D
100
AcDbEntity
 67
     1
  8
AM_7
100
AcDbLine
 10
384.590615880137
 20
128.2144266299459
 30
0.0
 11
384.590615880137
 21
136.2144266299459
 31
0.0
  0
LINE
  5
2F3A
330
D
100
AcDbEntity
 67
     1
  8
AM_VIS
100
AcDbLine
 10
393.090615880137
 20
123.3069493418341
 30
0.0
 11
384.590615880137
 21
118.3994720537223
 31
0.0
  0
LINE
  5
2F3B
330
D
100
AcDbEntity
 67
     1
  8
AM_VIS
100
AcDbLine
 10
384.590615880137
 20
118.3994720537223
 30
0.0
 11
376.090615880137
 21
123.3069493418341
 31
0.0
  0
LINE
  5
2F3C
330
D
100
AcDbEntity
 67
     1
  8
AM_VIS
100
AcDbLine
 10
376.090615880137
 20
123.3069493418341
 30
0.0
 11
376.090615880137
 21
133.1219039180578
 31
0.0
  0
LINE
  5
2F3D
330
D
100
AcDbEntity
 67
     1
  8
AM_VIS
100
AcDbLine
 10
376.090615880137
 20
133.1219039180578
 30
0.0
 11
384.590615880137
 21
138.0293812061695
 31
0.0
  0
LINE
  5
2F3E
330
D
100
AcDbEntity
 67
     1
  8
AM_VIS
100
AcDbLine
 10
384.590615880137
 20
138.0293812061695
 30
0.0
 11
393.090615880137
 21
133.1219039180578
 31
0.0
  0
LINE
  5
2F3F
330
D
100
AcDbEntity
 67
     1
  8
AM_VIS
100
AcDbLine
 10
393.090615880137
 20
133.1219039180578
 30
0.0
 11
393.090615880137
 21
123.3069493418341
 31
0.0
  0
CIRCLE
  5
2F40
330
D
100
AcDbEntity
 67
     1
  8
AM_VIS
100
AcDbCircle
 10
384.590615880137
 20
128.2144266299459
 30
0.0
 40
4.0
  0
CIRCLE
  5
2F41
330
D
100
AcDbEntity
 67
     1
  8
AM_VIS
100
AcDbCircle
 10
384.590615880137
 20
128.2144266299459
 30
0.0
 40
5.0
  0
CIRCLE
  5
2F42
330
D
100
AcDbEntity
 67
     1
  8
AM_VIS
100
AcDbCircle
 10
384.5906158801369
 20
128.214426629946
 30
0.0
 40
15.0
  0
LINE
  5
2F43
330
D
100
AcDbEntity
 67
     1
  8
AM_VIS
100
AcDbLine
 10
361.090666474752
 20
106.4944913025775
 30
0.0
 11
361.590666696487
 21
106.6910541174888
 31
0.0
  0
LINE
  5
2F44
330
D
100
AcDbEntity
 67
     1
  8
AM_VIS
100
AcDbLine
 10
361.0906158801368
 20
149.9342332589195
 30
0.0
 11
361.0906158801368
 21
106.4946200009725
 31
0.0
  0
LINE
  5
2F45
330
D
100
AcDbEntity
 67
     1
  8
AM_VIS
100
AcDbLine
 10
361.5906158801368
 20
106.6911833799151
 30
0.0
 11
361.5906158801368
 21
149.737669879977
 31
0.0
  0
LINE
  5
2F46
330
D
100
AcDbEntity
 67
     1
  8
AM_VIS
100
AcDbLine
 10
361.090666474752
 20
149.9343619573146
 30
0.0
 11
361.590666696487
 21
149.7377991424032
 31
0.0
  0
LINE
  5
2F47
330
D
100
AcDbEntity
 67
     1
  8
AM_VIS
100
AcDbLine
 10
362.8706805527683
 20
151.7143760353308
 30
0.0
 11
363.0672433676796
 21
151.2143758135958
 31
0.0
  0
LINE
  5
2F48
330
D
100
AcDbEntity
 67
     1
  8
AM_VIS
100
AcDbLine
 10
406.3104225091103
 20
151.714426629946
 30
0.0
 11
362.8708092511633
 21
151.714426629946
 31
0.0
  0
LINE
  5
2F49
330
D
100
AcDbEntity
 67
     1
  8
AM_VIS
100
AcDbLine
 10
363.0673726301059
 20
151.214426629946
 30
0.0
 11
406.1138591301677
 21
151.214426629946
 31
0.0
  0
LINE
  5
2F4A
330
D
100
AcDbEntity
 67
     1
  8
AM_VIS
100
AcDbLine
 10
406.113988392594
 20
151.2143758135958
 30
0.0
 11
406.3105512075053
 21
151.7143760353308
 31
0.0
  0
LINE
  5
2F4B
330
D
100
AcDbEntity
 67
     1
  8
AM_VIS
100
AcDbLine
 10
407.5905650637865
 20
149.7377991424032
 30
0.0
 11
408.0905652855216
 21
149.9343619573146
 31
0.0
  0
LINE
  5
2F4C
330
D
100
AcDbEntity
 67
     1
  8
AM_VIS
100
AcDbLine
 10
408.0906158801368
 20
106.4946200009726
 30
0.0
 11
408.0906158801368
 21
149.9342332589195
 31
0.0
  0
LINE
  5
2F4D
330
D
100
AcDbEntity
 67
     1
  8
AM_VIS
100
AcDbLine
 10
407.5905717182897
 20
106.6910710353199
 30
0.0
 11
408.0905775060362
 21
106.4945223799923
 31
0.0
  0
LINE
  5
2F4E
330
D
100
AcDbEntity
 67
     1
  8
AM_VIS
100
AcDbLine
 10
407.5906158801368
 20
149.7376698799769
 30
0.0
 11
407.5906158801368
 21
106.6911833799151
 31
0.0
  0
LINE
  5
2F4F
330
D
100
AcDbEntity
 67
     1
  8
AM_VIS
100
AcDbLine
 10
406.1139883925939
 20
105.2144774462962
 30
0.0
 11
406.3105512075053
 21
104.7144772245612
 31
0.0
  0
LINE
  5
2F50
330
D
100
AcDbEntity
 67
     1
  8
AM_VIS
100
AcDbLine
 10
362.8708092511633
 20
104.714426629946
 30
0.0
 11
406.3104225091103
 21
104.714426629946
 31
0.0
  0
LINE
  5
2F51
330
D
100
AcDbEntity
 67
     1
  8
AM_VIS
100
AcDbLine
 10
362.8707116301831
 20
104.7144650040466
 30
0.0
 11
363.0672602855107
 21
105.2144707917931
 31
0.0
  0
LINE
  5
2F52
330
D
100
AcDbEntity
 67
     1
  8
AM_VIS
100
AcDbLine
 10
406.1138591301677
 20
105.214426629946
 30
0.0
 11
363.0673726301059
 21
105.214426629946
 31
0.0
  0
ARC
  5
2F53
330
D
100
AcDbEntity
 67
     1
  8
AM_VIS
100
AcDbCircle
 10
384.5906158801368
 20
128.214426629946
 30
0.0
 40
31.5
100
AcDbArc
 50
223.1002973870071
 51
226.8997026129929
  0
ARC
  5
2F54
330
D
100
AcDbEntity
 67
     1
  8
AM_VIS
100
AcDbCircle
 10
384.5906158801368
 20
128.214426629946
 30
0.0
 40
32.0
100
AcDbArc
 50
222.7455692246567
 51
227.2544307753444
  0
ARC
  5
2F55
330
D
100
AcDbEntity
 67
     1
  8
AM_VIS
100
AcDbCircle
 10
384.5906158801368
 20
128.214426629946
 30
0.0
 40
31.5
100
AcDbArc
 50
133.1002973870071
 51
136.8997026129928
  0
ARC
  5
2F56
330
D
100
AcDbEntity
 67
     1
  8
AM_VIS
100
AcDbCircle
 10
384.5906158801368
 20
128.214426629946
 30
0.0
 40
32.0
100
AcDbArc
 50
132.7455692246555
 51
137.2544307753432
  0
ARC
  5
2F57
330
D
100
AcDbEntity
 67
     1
  8
AM_VIS
100
AcDbCircle
 10
384.5906158801368
 20
128.214426629946
 30
0.0
 40
31.5
100
AcDbArc
 50
313.1002973870071
 51
316.8997026129929
  0
ARC
  5
2F58
330
D
100
AcDbEntity
 67
     1
  8
AM_VIS
100
AcDbCircle
 10
384.5906158801368
 20
128.214426629946
 30
0.0
 40
32.0
100
AcDbArc
 50
312.7455692246555
 51
317.2544307753433
  0
ARC
  5
2F59
330
D
100
AcDbEntity
 67
     1
  8
AM_VIS
100
AcDbCircle
 10
384.5906158801368
 20
128.214426629946
 30
0.0
 40
31.5
100
AcDbArc
 50
43.10029738700712
 51
46.89970261299286
  0
ARC
  5
2F5A
330
D
100
AcDbEntity
 67
     1
  8
AM_VIS
100
AcDbCircle
 10
384.5906158801368
 20
128.214426629946
 30
0.0
 40
32.0
100
AcDbArc
 50
42.74556922465671
 51
47.25443077534444
  0
LINE
  5
2F5B
330
D
100
AcDbEntity
 67
     1
  8
AM_7
  6
AM_ISO08W050x2
100
AcDbLine
 10
363.5212669529281
 20
144.464426629946
 30
0.0
 11
372.8475239972132
 21
144.464426629946
 31
0.0
1001
GENIUS_GENODEF_13
1002
{
1000
HIER
1070
     0
1002
}
1002
{
1000
MANEDIT
1070
     0
1002
}
1002
{
1000
NOSEL
1070
     0
1002
}
1002
{
1000
BEHIND
1070
     0
1002
}
1002
{
1000
OTHER
1070
     0
1002
}
1002
{
1000
REACTOR
1002
}
1001
GENIUS_GENOBJ-N-CEN_13
1002
{
1000
OWNER
1000
GEN
1002
}
1001
GENIUS_GENCEN_19
1002
{
1040
2.0
1002
}
  0
LINE
  5
2F5C
330
D
100
AcDbEntity
 67
     1
  8
AM_7
  6
AM_ISO08W050x2
100
AcDbLine
 10
368.3406158801368
 20
149.208737832681
 30
0.0
 11
368.3406158801368
 21
139.2434839073374
 31
0.0
1001
GENIUS_GENODEF_13
1002
{
1000
HIER
1070
     0
1002
}
1002
{
1000
MANEDIT
1070
     0
1002
}
1002
{
1000
NOSEL
1070
     0
1002
}
1002
{
1000
BEHIND
1070
     0
1002
}
1002
{
1000
OTHER
1070
     0
1002
}
1002
{
1000
REACTOR
1002
}
1001
GENIUS_GENOBJ-N-CEN_13
1002
{
1000
OWNER
1000
GEN
1002
}
1001
GENIUS_GENCEN_19
1002
{
1040
2.0
1002
}
  0
CIRCLE
  5
2F5D
330
D
100
AcDbEntity
 67
     1
  8
0
100
AcDbCircle
 10
368.3406158801368
 20
144.464426629946
 30
0.0
 40
2.459999999999999
  0
ARC
  5
2F5E
330
D
100
AcDbEntity
 67
     1
  8
1
 48
3.0
100
AcDbCircle
 10
368.3406158801368
 20
144.464426629946
 30
0.0
 40
2.959999999999999
100
AcDbArc
 50
246.7282868526579
 51
197.2542989092314
  0
LINE
  5
2F5F
330
D
100
AcDbEntity
 67
     1
  8
AM_7
  6
AM_ISO08W050x2
100
AcDbLine
 10
396.0212669529281
 20
144.464426629946
 30
0.0
 11
405.3475239972132
 21
144.464426629946
 31
0.0
1001
GENIUS_GENODEF_13
1002
{
1000
HIER
1070
     0
1002
}
1002
{
1000
MANEDIT
1070
     0
1002
}
1002
{
1000
NOSEL
1070
     0
1002
}
1002
{
1000
BEHIND
1070
     0
1002
}
1002
{
1000
OTHER
1070
     0
1002
}
1002
{
1000
REACTOR
1002
}
1001
GENIUS_GENOBJ-N-CEN_13
1002
{
1000
OWNER
1000
GEN
1002
}
1001
GENIUS_GENCEN_19
1002
{
1040
2.0
1002
}
  0
LINE
  5
2F60
330
D
100
AcDbEntity
 67
     1
  8
AM_7
  6
AM_ISO08W050x2
100
AcDbLine
 10
400.8406158801368
 20
149.208737832681
 30
0.0
 11
400.8406158801368
 21
139.2434839073374
 31
0.0
1001
GENIUS_GENODEF_13
1002
{
1000
HIER
1070
     0
1002
}
1002
{
1000
MANEDIT
1070
     0
1002
}
1002
{
1000
NOSEL
1070
     0
1002
}
1002
{
1000
BEHIND
1070
     0
1002
}
1002
{
1000
OTHER
1070
     0
1002
}
1002
{
1000
REACTOR
1002
}
1001
GENIUS_GENOBJ-N-CEN_13
1002
{
1000
OWNER
1000
GEN
1002
}
1001
GENIUS_GENCEN_19
1002
{
1040
2.0
1002
}
  0
LINE
  5
2F61
330
D
100
AcDbEntity
 67
     1
  8
AM_7
  6
AM_ISO08W050x2
100
AcDbLine
 10
368.0476238006122
 20
128.214426629946
 30
0.0
 11
401.5264255168045
 21
128.214426629946
 31
0.0
1001
GENIUS_GENODEF_13
1002
{
1000
HIER
1070
     0
1002
}
1002
{
1000
MANEDIT
1070
     0
1002
}
1002
{
1000
NOSEL
1070
     0
1002
}
1002
{
1000
BEHIND
1070
     0
1002
}
1002
{
1000
OTHER
1070
     0
1002
}
1002
{
1000
REACTOR
1002
}
1001
GENIUS_GENOBJ-N-CEN_13
1002
{
1000
OWNER
1000
GEN
1002
}
1001
GENIUS_GENCEN_19
1002
{
1040
2.0
1002
}
  0
LINE
  5
2F62
330
D
100
AcDbEntity
 67
     1
  8
AM_7
  6
AM_ISO08W050x2
100
AcDbLine
 10
384.5906158801369
 20
144.7893280857284
 30
0.0
 11
384.5906158801369
 21
111.5198685670327
 31
0.0
1001
GENIUS_GENODEF_13
1002
{
1000
HIER
1070
     0
1002
}
1002
{
1000
MANEDIT
1070
     0
1002
}
1002
{
1000
NOSEL
1070
     0
1002
}
1002
{
1000
BEHIND
1070
     0
1002
}
1002
{
1000
OTHER
1070
     0
1002
}
1002
{
1000
REACTOR
1002
}
1001
GENIUS_GENOBJ-N-CEN_13
1002
{
1000
OWNER
1000
GEN
1002
}
1001
GENIUS_GENCEN_19
1002
{
1040
2.0
1002
}
  0
LINE
  5
2F63
330
D
100
AcDbEntity
 67
     1
  8
AM_7
  6
AM_ISO08W050x2
100
AcDbLine
 10
396.0212669529281
 20
111.964426629946
 30
0.0
 11
405.3475239972132
 21
111.964426629946
 31
0.0
1001
GENIUS_GENODEF_13
1002
{
1000
HIER
1070
     0
1002
}
1002
{
1000
MANEDIT
1070
     0
1002
}
1002
{
1000
NOSEL
1070
     0
1002
}
1002
{
1000
BEHIND
1070
     0
1002
}
1002
{
1000
OTHER
1070
     0
1002
}
1002
{
1000
REACTOR
1002
}
1001
GENIUS_GENOBJ-N-CEN_13
1002
{
1000
OWNER
1000
GEN
1002
}
1001
GENIUS_GENCEN_19
1002
{
1040
2.0
1002
}
  0
LINE
  5
2F64
330
D
100
AcDbEntity
 67
     1
  8
AM_7
  6
AM_ISO08W050x2
100
AcDbLine
 10
400.8406158801368
 20
116.708737832681
 30
0.0
 11
400.8406158801368
 21
106.7434839073374
 31
0.0
1001
GENIUS_GENODEF_13
1002
{
1000
HIER
1070
     0
1002
}
1002
{
1000
MANEDIT
1070
     0
1002
}
1002
{
1000
NOSEL
1070
     0
1002
}
1002
{
1000
BEHIND
1070
     0
1002
}
1002
{
1000
OTHER
1070
     0
1002
}
1002
{
1000
REACTOR
1002
}
1001
GENIUS_GENOBJ-N-CEN_13
1002
{
1000
OWNER
1000
GEN
1002
}
1001
GENIUS_GENCEN_19
1002
{
1040
2.0
1002
}
  0
LINE
  5
2F65
330
D
100
AcDbEntity
 67
     1
  8
AM_7
  6
AM_ISO08W050x2
100
AcDbLine
 10
363.5212669529281
 20
111.964426629946
 30
0.0
 11
372.8475239972132
 21
111.964426629946
 31
0.0
1001
GENIUS_GENODEF_13
1002
{
1000
HIER
1070
     0
1002
}
1002
{
1000
MANEDIT
1070
     0
1002
}
1002
{
1000
NOSEL
1070
     0
1002
}
1002
{
1000
BEHIND
1070
     0
1002
}
1002
{
1000
OTHER
1070
     0
1002
}
1002
{
1000
REACTOR
1002
}
1001
GENIUS_GENOBJ-N-CEN_13
1002
{
1000
OWNER
1000
GEN
1002
}
1001
GENIUS_GENCEN_19
1002
{
1040
2.0
1002
}
  0
LINE
  5
2F66
330
D
100
AcDbEntity
 67
     1
  8
AM_7
  6
AM_ISO08W050x2
100
AcDbLine
 10
368.3406158801368
 20
116.708737832681
 30
0.0
 11
368.3406158801368
 21
106.7434839073374
 31
0.0
1001
GENIUS_GENODEF_13
1002
{
1000
HIER
1070
     0
1002
}
1002
{
1000
MANEDIT
1070
     0
1002
}
1002
{
1000
NOSEL
1070
     0
1002
}
1002
{
1000
BEHIND
1070
     0
1002
}
1002
{
1000
OTHER
1070
     0
1002
}
1002
{
1000
REACTOR
1002
}
1001
GENIUS_GENOBJ-N-CEN_13
1002
{
1000
OWNER
1000
GEN
1002
}
1001
GENIUS_GENCEN_19
1002
{
1040
2.0
1002
}
  0
CIRCLE
  5
2F67
330
D
100
AcDbEntity
 67
     1
  8
0
100
AcDbCircle
 10
368.3406158801368
 20
111.964426629946
 30
0.0
 40
2.459999999999999
  0
ARC
  5
2F68
330
D
100
AcDbEntity
 67
     1
  8
1
 48
3.0
100
AcDbCircle
 10
368.3406158801368
 20
111.964426629946
 30
0.0
 40
2.959999999999999
100
AcDbArc
 50
246.7282868526579
 51
197.2542989092314
  0
CIRCLE
  5
2F69
330
D
100
AcDbEntity
 67
     1
  8
0
100
AcDbCircle
 10
400.8406158801368
 20
111.964426629946
 30
0.0
 40
2.459999999999999
  0
ARC
  5
2F6A
330
D
100
AcDbEntity
 67
     1
  8
1
 48
3.0
100
AcDbCircle
 10
400.8406158801368
 20
111.964426629946
 30
0.0
 40
2.959999999999999
100
AcDbArc
 50
246.7282868526579
 51
197.2542989092314
  0
CIRCLE
  5
2F6B
330
D
100
AcDbEntity
 67
     1
  8
0
100
AcDbCircle
 10
400.8406158801368
 20
144.464426629946
 30
0.0
 40
2.459999999999999
  0
ARC
  5
2F6C
330
D
100
AcDbEntity
 67
     1
  8
1
 48
3.0
100
AcDbCircle
 10
400.8406158801368
 20
144.464426629946
 30
0.0
 40
2.959999999999999
100
AcDbArc
 50
246.7282868526579
 51
197.2542989092314
  0
MTEXT
  5
2F6D
330
D
100
AcDbEntity
 67
     1
  8
AM_5
100
AcDbMText
 10
375.8993975727168
 20
167.3536805803187
 30
0.0
 40
3.5
 41
0.0
 71
     1
 72
     1
  1
4-M6*12L
 73
     1
 44
1.0
1001
ACAD
1000
MTEXTBEGIN
1070
    73
1070
     1
1070
    44
1040
1.0
1070
    74
1070
     0
1000
MTEXTEND
  0
LEADER
  5
2F6E
330
D
100
AcDbEntity
 67
     1
  8
AM_5
100
AcDbLeader
  3
AM_ISO$7
 74
     0
 40
3.500688976377952
 41
16.59497474683059
 76
     2
 10
368.3406158801368
 20
147.424426629946
 30
0.0
 10
377.8423093620225
 20
163.1608222881473
 30
0.0
213
1.006844152200642
223
0.509873630025993
233
0.0
1001
ACAD
1000
DSTYLE
1002
{
1070
    41
1040
3.0
1070
    43
1040
10.0
1070
   140
1040
3.5
1070
   147
1040
1.0
1070
   272
1070
     8
1002
}
  0
DIMENSION
  5
2F70
330
D
100
AcDbEntity
 67
     1
  8
AM_5
100
AcDbDimension
  2
*D25
 10
368.3406158801368
 20
94.42767453565238
 30
0.0
 11
384.5906158801369
 21
94.42767453565238
 31
0.0
 70
   160
  1
{\Famgdt;o}<>
 71
     5
 42
32.50000000000006
  3
AM_ISO$0
100
AcDbAlignedDimension
 13
400.8406158801368
 23
106.7434839073374
 33
0.0
 14
368.3406158801368
 24
106.7434839073374
 34
0.0
100
AcDbRotatedDimension
1001
ACAD
1000
DSTYLE
1002
{
1070
    40
1040
1.0
1070
   272
1070
     8
1002
}
  0
DIMENSION
  5
2F71
330
D
100
AcDbEntity
 67
     1
  8
AM_5
100
AcDbDimension
  2
*D26
 10
361.0906158801368
 20
85.37637441783545
 30
0.0
 11
384.5905966930865
 21
85.37637441783545
 31
0.0
 70
   160
  1
{\Famgdt;o}<>
 71
     5
 42
46.99996162589946
  3
AM_ISO$0
100
AcDbAlignedDimension
 13
408.0905775060362
 23
106.4945223799923
 33
0.0
 14
361.0906158801368
 24
106.4946200009726
 34
0.0
100
AcDbRotatedDimension
1001
ACAD
1000
DSTYLE
1002
{
1070
    40
1040
1.0
1070
   272
1070
     8
1002
}
  0
LINE
  5
2FF6
330
D
100
AcDbEntity
 67
     1
  8
0
100
AcDbLine
 10
285.2941020812603
 20
221.2167734543402
 30
0.0
 11
277.2941020812601
 21
221.2167734543402
 31
0.0
  0
LINE
  5
2FF7
330
D
100
AcDbEntity
 67
     1
  8
0
100
AcDbLine
 10
285.2941020812603
 20
204.8929685138007
 30
0.0
 11
277.2941020812601
 21
204.8929685138007
 31
0.0
  0
LINE
  5
31D5
330
D
100
AcDbEntity
 67
     1
  8
0
100
AcDbLine
 10
285.2941020812602
 20
136.3763291002158
 30
0.0
 11
277.2941020812599
 21
136.3763291002158
 31
0.0
  0
LINE
  5
31D6
330
D
100
AcDbEntity
 67
     1
  8
0
100
AcDbLine
 10
285.2941020812602
 20
120.0525241596763
 30
0.0
 11
277.2941020812599
 21
120.0525241596763
 31
0.0
  0
ENDSEC
  0
SECTION
  2
OBJECTS
  0
DICTIONARY
  5
8
330
0
100
AcDbDictionary
281
     1
  3
ACAD_COLOR
350
31
  3
ACAD_GROUP
350
2D
  3
ACAD_LAYOUT
350
C
  3
ACAD_MATERIAL
350
30
  3
ACAD_MLINESTYLE
350
2E
  3
ACAD_PLOTSETTINGS
350
2F
  3
ACAD_PLOTSTYLENAME
350
7
  3
ACAD_TABLESTYLE
350
32
  3
AcAsAppObject
350
2429
  3
ACASGREF_MASTER
350
2471
  3
ACDBHEADERROUNDTRIPXREC
350
31DF
  3
AcDbVariableDictionary
350
226
  3
AcmDictionary
350
28A
  3
AD_GREF_MODULE
350
2472
  3
AD_MAPI_MODULE
350
248B
  3
AMG
350
232
  3
AMGSNAPSETTINGS
350
2C1
  3
DWGPROPS
350
31DE
  3
MAPISURF_MODULE
350
2473
  0
DICTIONARY
  5
15
330
14
100
AcDbDictionary
280
     1
281
     1
  3
ACAD_LAYERFILTERS
360
2264
  3
ACAD_LAYERSTATES
360
16
  3
ACLYDICTIONARY
360
2263
  3
AMLAYER_GROUPCOLORS
360
13C8
  0
DICTIONARY
  5
1350
330
134F
100
AcDbDictionary
280
     1
281
     1
  3
ACAD_XREC_ROUNDTRIP
360
1351
  0
DICTIONARY
  5
3
330
2
100
AcDbDictionary
280
     1
281
     1
  3
ACAD_INDEX
360
2900
  0
DICTIONARY
  5
1AC0
330
D
100
AcDbDictionary
280
     1
281
     1
  3
ACAD_SORTENTS
360
1AC1
  0
DICTIONARY
  5
1B22
330
1B1E
100
AcDbDictionary
280
     1
281
     1
  0
DICTIONARY
  5
1B2B
330
1B27
100
AcDbDictionary
280
     1
281
     1
  0
DICTIONARY
  5
2D57
330
2D56
100
AcDbDictionary
280
     1
281
     1
  0
DICTIONARY
  5
2DCD
330
2DCC
100
AcDbDictionary
280
     1
281
     1
  0
DICTIONARY
  5
31E3
330
230
100
AcDbDictionary
280
     1
281
     1
  3
ACAD_XREC_ROUNDTRIP
360
31E4
  0
DICTIONARY
  5
31
102
{ACAD_REACTORS
330
8
102
}
330
8
100
AcDbDictionary
281
     1
  0
DICTIONARY
  5
2D
102
{ACAD_REACTORS
330
8
102
}
330
8
100
AcDbDictionary
281
     1
  0
DICTIONARY
  5
C
102
{ACAD_REACTORS
330
8
102
}
330
8
100
AcDbDictionary
281
     1
  3
Model
350
B
  3
配置1
350
10
  0
DICTIONARY
  5
30
102
{ACAD_REACTORS
330
8
102
}
330
8
100
AcDbDictionary
281
     1
  3
Global
350
135C
  0
DICTIONARY
  5
2E
102
{ACAD_REACTORS
330
8
102
}
330
8
100
AcDbDictionary
281
     1
  3
STANDARD
350
33
  0
DICTIONARY
  5
2F
102
{ACAD_REACTORS
330
8
102
}
330
8
100
AcDbDictionary
281
     1
  0
ACDBDICTIONARYWDFLT
  5
7
102
{ACAD_REACTORS
330
8
102
}
330
8
100
AcDbDictionary
281
     1
  3
Normal
350
6
100
AcDbDictionaryWithDefault
340
6
  0
DICTIONARY
  5
32
102
{ACAD_REACTORS
330
8
102
}
330
8
100
AcDbDictionary
281
     1
  3
Standard
350
34
  0
ACAD_PROXY_OBJECT
  5
2429
102
{ACAD_REACTORS
330
8
102
}
330
8
100
AcDbProxyObject
 90
      499
 91
      544
 95
  2555929
 70
     0
 93
       10
310
4040
 94
        0
1001
ACAD
1000
AcRTDxfName
1000
ASAPP
  0
ACAD_PROXY_OBJECT
  5
2471
102
{ACAD_REACTORS
330
8
102
}
330
8
100
AcDbProxyObject
 90
      499
 91
      514
 95
  2555929
 70
     0
 93
       34
310
0100004071
 94
        0
1001
ACAD
1000
AcRTDxfName
1000
ACASGREFMASTER
  0
DICTIONARY
  5
31DF
102
{ACAD_REACTORS
330
8
102
}
330
8
100
AcDbDictionary
281
     1
  0
DICTIONARY
  5
226
102
{ACAD_REACTORS
330
8
102
}
330
8
100
AcDbDictionary
281
     1
  3
CTABLESTYLE
350
227
  3
DIMASSOC
350
229
  3
HIDETEXT
350
228
  3
INDEXCTL
350
31DD
  3
PROJECTNAME
350
22A
  0
DICTIONARY
  5
28A
102
{ACAD_REACTORS
330
8
102
}
330
8
100
AcDbDictionary
281
     1
  3
AcmStdDictionary
350
297
  3
AMDTSECTSYM_ARROWCOLOR
350
2B3
  0
ACAD_PROXY_OBJECT
  5
2472
102
{ACAD_REACTORS
330
8
102
}
330
8
100
AcDbProxyObject
 90
      499
 91
      526
 95
  2555929
 70
     0
 93
      114
310
000000438080000000000000000000
 94
        0
1001
ACAD
1000
AcRTDxfName
1000
ACADGREFMODULE
  0
ACAD_PROXY_OBJECT
  5
248B
102
{ACAD_REACTORS
330
8
102
}
330
8
100
AcDbProxyObject
 90
      499
 91
      570
 95
  2555929
 70
     0
 93
       34
310
05000044C0
 94
        0
1001
ACAD
1000
AcRTDxfName
1000
MAPIADMODULE
  0
DICTIONARY
  5
232
102
{ACAD_REACTORS
330
8
102
}
330
8
100
AcDbDictionary
281
     1
  0
DICTIONARY
  5
2C1
102
{ACAD_REACTORS
330
8
102
}
330
8
100
AcDbDictionary
281
     1
  0
XRECORD
  5
31DE
102
{ACAD_REACTORS
330
8
102
}
330
8
100
AcDbXrecord
280
     1
  1
DWGPROPS COOKIE
  2

  3

  4

  6

  7

  8

  9

300
AmdtFileType=84
301
=
302
=
303
=
304
=
305
=
306
=
307
=
308
=
309
=
 40
0.377681238425926
 41
2454816.659313322
 42
2456639.473996123
  1

 90
        1
  0
ACAD_PROXY_OBJECT
  5
2473
102
{ACAD_REACTORS
330
8
102
}
330
8
100
AcDbProxyObject
 90
      499
 91
      610
 95
  2555929
 70
     0
 93
        8
310
047E
 94
        0
1001
ACAD
1000
AcRTDxfName
1000
AMDTMAPISURFMOUDULE
  0
DICTIONARY
  5
2264
102
{ACAD_REACTORS
330
15
102
}
330
15
100
AcDbDictionary
281
     1
  0
DICTIONARY
  5
16
102
{ACAD_REACTORS
330
15
102
}
330
15
100
AcDbDictionary
281
     1
  0
DICTIONARY
  5
2263
102
{ACAD_REACTORS
330
15
102
}
330
15
100
AcDbDictionary
281
     1
1001
ACAD
1000
<All
  0
DICTIONARY
  5
13C8
102
{ACAD_REACTORS
330
15
102
}
330
15
100
AcDbDictionary
280
     1
281
     1
  0
XRECORD
  5
1351
102
{ACAD_REACTORS
330
1350
102
}
330
1350
100
AcDbXrecord
280
     1
102
MATERIAL
340
135C
  0
DICTIONARY
  5
2900
102
{ACAD_REACTORS
330
3
102
}
330
3
100
AcDbDictionary
281
     1
  3
*A1
350
2901
  0
SORTENTSTABLE
  5
1AC1
102
{ACAD_REACTORS
330
1AC0
102
}
330
1AC0
100
AcDbSortentsTable
330
D
331
11EA
  5
11EA
331
E4C
  5
E4C
331
AD
  5
AD
331
36
  5
36
331
128
  5
128
331
D63
  5
D63
331
150
  5
150
331
1CF
  5
1CF
331
D24
  5
D24
331
D9A
  5
D9A
331
D6B
  5
D6B
331
158
  5
158
331
D2C
  5
D2C
331
DA2
  5
DA2
331
D73
  5
D73
331
D34
  5
D34
331
DAA
  5
DAA
331
DB2
  5
DB2
331
D3C
  5
D3C
331
1193
  5
1193
331
96
  5
96
331
11B3
  5
11B3
331
9E
  5
9E
331
11BB
  5
11BB
331
168
  5
168
331
D44
  5
D44
331
D83
  5
D83
331
F1
  5
F1
331
D4C
  5
D4C
331
1B0
  5
1B0
331
D15
  5
D15
331
D54
  5
D54
331
D1D
  5
D1D
331
D5C
  5
D5C
331
1174
  5
1174
331
AE
  5
AE
331
129
  5
129
331
D64
  5
D64
331
151
  5
151
331
D25
  5
D25
331
D9B
  5
D9B
331
DA3
  5
DA3
331
159
  5
159
331
D2D
  5
D2D
331
D6C
  5
D6C
331
D74
  5
D74
331
D35
  5
D35
331
DAB
  5
DAB
331
DB3
  5
DB3
331
D3D
  5
D3D
331
97
  5
97
331
11B4
  5
11B4
331
9F
  5
9F
331
11BC
  5
11BC
331
169
  5
169
331
230
  5
230
331
D7C
  5
D7C
331
86E
  5
86E
331
D45
  5
D45
331
D84
  5
D84
331
F2
  5
F2
331
D4D
  5
D4D
331
D8C
  5
D8C
331
1B1
  5
1B1
331
D16
  5
D16
331
D55
  5
D55
331
D94
  5
D94
331
D1E
  5
D1E
331
D5D
  5
D5D
331
AF
  5
AF
331
12A
  5
12A
331
DEB
  5
DEB
331
D65
  5
D65
331
152
  5
152
331
D26
  5
D26
331
D9C
  5
D9C
331
D6D
  5
D6D
331
15A
  5
15A
331
D2E
  5
D2E
331
DA4
  5
DA4
331
DAC
  5
DAC
331
D36
  5
D36
331
D3E
  5
D3E
331
98
  5
98
331
11B5
  5
11B5
331
D46
  5
D46
331
86F
  5
86F
331
D7D
  5
D7D
331
D85
  5
D85
331
D4E
  5
D4E
331
F3
  5
F3
331
D17
  5
D17
331
1B2
  5
1B2
331
D56
  5
D56
331
D95
  5
D95
331
D1F
  5
D1F
331
D5E
  5
D5E
331
A0
  5
A0
331
B0
  5
B0
331
1AB4
  5
1AB4
331
D66
  5
D66
331
D27
  5
D27
331
153
  5
153
331
D9D
  5
D9D
331
D6E
  5
D6E
331
D2F
  5
D2F
331
15B
  5
15B
331
DA5
  5
DA5
331
E14
  5
E14
331
DAD
  5
DAD
331
D37
  5
D37
331
163
  5
163
331
D3F
  5
D3F
331
99
  5
99
331
11B6
  5
11B6
331
D47
  5
D47
331
D86
  5
D86
331
F4
  5
F4
331
D4F
  5
D4F
331
D18
  5
D18
331
D57
  5
D57
331
D96
  5
D96
331
D5F
  5
D5F
331
B1
  5
B1
331
D20
  5
D20
331
D67
  5
D67
331
154
  5
154
331
D28
  5
D28
331
D9E
  5
D9E
331
D6F
  5
D6F
331
D30
  5
D30
331
DA6
  5
DA6
331
DAE
  5
DAE
331
164
  5
164
331
D38
  5
D38
331
9A
  5
9A
331
D40
  5
D40
331
CA9
  5
CA9
331
D48
  5
D48
331
D87
  5
D87
331
D50
  5
D50
331
D19
  5
D19
331
D58
  5
D58
331
AA
  5
AA
331
B2
  5
B2
331
D60
  5
D60
331
1CC
  5
1CC
331
D21
  5
D21
331
D68
  5
D68
331
155
  5
155
331
D29
  5
D29
331
D9F
  5
D9F
331
D70
  5
D70
331
D31
  5
D31
331
DA7
  5
DA7
331
DAF
  5
DAF
331
165
  5
165
331
D39
  5
D39
331
E81
  5
E81
331
9B
  5
9B
331
D78
  5
D78
331
D41
  5
D41
331
1A5
  5
1A5
331
D49
  5
D49
331
D88
  5
D88
331
1AD
  5
1AD
331
D12
  5
D12
331
D51
  5
D51
331
D90
  5
D90
331
D1A
  5
D1A
331
D59
  5
D59
331
AB
  5
AB
331
B3
  5
B3
331
E62
  5
E62
331
D61
  5
D61
331
1CD
  5
1CD
331
D22
  5
D22
331
D69
  5
D69
331
156
  5
156
331
D2A
  5
D2A
331
DA0
  5
DA0
331
D71
  5
D71
331
D32
  5
D32
331
DA8
  5
DA8
331
DB0
  5
DB0
331
166
  5
166
331
D3A
  5
D3A
331
5C
  5
5C
331
9C
  5
9C
331
E2B
  5
E2B
331
E7
  5
E7
331
D42
  5
D42
331
D81
  5
D81
331
1A6
  5
1A6
331
EF
  5
EF
331
D4A
  5
D4A
331
DC8
  5
DC8
331
1AE
  5
1AE
331
D13
  5
D13
331
D52
  5
D52
331
127
  5
127
331
D1B
  5
D1B
331
D5A
  5
D5A
331
AC
  5
AC
331
1209
  5
1209
331
D62
  5
D62
331
1CE
  5
1CE
331
D23
  5
D23
331
D6A
  5
D6A
331
157
  5
157
331
D2B
  5
D2B
331
DA1
  5
DA1
331
D72
  5
D72
331
D33
  5
D33
331
DA9
  5
DA9
331
DB1
  5
DB1
331
167
  5
167
331
D3B
  5
D3B
331
95
  5
95
331
9D
  5
9D
331
11B2
  5
11B2
331
E8
  5
E8
331
D43
  5
D43
331
D82
  5
D82
331
F0
  5
F0
331
D4B
  5
D4B
331
1AF
  5
1AF
331
D14
  5
D14
331
D53
  5
D53
331
D1C
  5
D1C
331
D5B
  5
D5B
  0
XRECORD
  5
31E4
102
{ACAD_REACTORS
330
31E3
102
}
330
31E3
100
AcDbXrecord
280
     1
102
SHADEPLOT
 70
     0
  0
LAYOUT
  5
B
102
{ACAD_XDICTIONARY
360
31E0
102
}
102
{ACAD_REACTORS
330
C
102
}
330
C
100
AcDbPlotSettings
  1

  2
\\NOVIBDC\HPLJ4-TPUB
  4

  6

 40
0.0
 41
0.0
 42
0.0
 43
0.0
 44
0.0
 45
0.0
 46
0.0
 47
0.0
 48
0.0
 49
0.0
140
0.0
141
0.0
142
1.0
143
1.0
 70
  1712
 72
     0
 73
     0
 74
     0
  7

 75
     0
147
1.0
148
0.0
149
0.0
100
AcDbLayout
  1
Model
 70
     1
 71
     0
 10
0.0
 20
0.0
 11
12.0
 21
9.0
 12
0.0
 22
0.0
 32
0.0
 14
0.0
 24
0.0
 34
0.0
 15
0.0
 25
0.0
 35
0.0
146
0.0
 13
0.0
 23
0.0
 33
0.0
 16
1.0
 26
0.0
 36
0.0
 17
0.0
 27
1.0
 37
0.0
 76
     0
330
2
  0
LAYOUT
  5
10
102
{ACAD_XDICTIONARY
360
11
102
}
102
{ACAD_REACTORS
330
C
102
}
330
C
100
AcDbPlotSettings
  1

  2
none_device
  4
ISO_A3_(420.00_x_297.00_MM)
  6

 40
7.5
 41
20.0
 42
7.5
 43
20.0
 44
420.0
 45
297.0
 46
0.0
 47
0.0
 48
0.0
 49
0.0
140
0.0
141
0.0
142
1.0
143
1.199999999999999
 70
   672
 72
     1
 73
     0
 74
     5
  7

 75
    16
147
1.0
148
0.0
149
0.0
100
AcDbLayout
  1
配置1
 70
     1
 71
     1
 10
-9.0
 20
-24.0
 11
495.0
 21
332.4
 12
0.0
 22
0.0
 32
0.0
 14
45.35047466041407
 24
9.899051319220205
 34
0.0
 15
449.2959739058398
 25
285.4193022262087
 35
219.8019400672432
146
0.0
 13
0.0
 23
0.0
 33
0.0
 16
1.0
 26
0.0
 36
0.0
 17
0.0
 27
1.0
 37
0.0
 76
     0
330
D
331
230
1001
ACAD_PSEXT
1000
無
1000
無
1000
不適用
1000
除非另選一新建的繪圖機規劃名稱，否則配置將不會出圖。
1070
     0
  0
MATERIAL
  5
135C
102
{ACAD_XDICTIONARY
360
135D
102
}
102
{ACAD_REACTORS
330
30
102
}
330
30
100
AcDbMaterial
  1
Global
  0
MLINESTYLE
  5
33
102
{ACAD_REACTORS
330
2E
102
}
330
2E
100
AcDbMlineStyle
  2
STANDARD
 70
     0
  3

 62
     0
 51
90.0
 52
90.0
 71
     2
 49
0.5
 62
   256
  6
BYLAYER
 49
-0.5
 62
   256
  6
BYLAYER
  0
ACDBPLACEHOLDER
  5
6
102
{ACAD_REACTORS
330
7
102
}
330
7
  0
TABLESTYLE
  5
34
102
{ACAD_REACTORS
330
32
102
}
330
32
100
AcDbTableStyle
  3
Standard
 70
     0
 71
     0
 40
1.5
 41
1.5
280
     0
281
     0
  7
STANDARD
140
4.5
170
     2
 62
     0
 63
     7
283
     0
274
    -2
284
     1
 64
     0
275
    -2
285
     1
 65
     0
276
    -2
286
     1
 66
     0
277
    -2
287
     1
 67
     0
278
    -2
288
     1
 68
     0
279
    -2
289
     1
 69
     0
  7
STANDARD
140
6.0
170
     5
 62
     0
 63
     7
283
     0
274
    -2
284
     1
 64
     0
275
    -2
285
     1
 65
     0
276
    -2
286
     1
 66
     0
277
    -2
287
     1
 67
     0
278
    -2
288
     1
 68
     0
279
    -2
289
     1
 69
     0
  7
STANDARD
140
4.5
170
     5
 62
     0
 63
     7
283
     0
274
    -2
284
     1
 64
     0
275
    -2
285
     1
 65
     0
276
    -2
286
     1
 66
     0
277
    -2
287
     1
 67
     0
278
    -2
288
     1
 68
     0
279
    -2
289
     1
 69
     0
  0
DICTIONARYVAR
  5
227
102
{ACAD_REACTORS
330
226
102
}
330
226
100
DictionaryVariables
280
     0
  1
STANDARD
  0
DICTIONARYVAR
  5
229
102
{ACAD_REACTORS
330
226
102
}
330
226
100
DictionaryVariables
280
     0
  1
1
  0
DICTIONARYVAR
  5
228
102
{ACAD_REACTORS
330
226
102
}
330
226
100
DictionaryVariables
280
     0
  1
1
  0
DICTIONARYVAR
  5
31DD
102
{ACAD_REACTORS
330
226
102
}
330
226
100
DictionaryVariables
280
     0
  1
1
  0
DICTIONARYVAR
  5
22A
102
{ACAD_REACTORS
330
226
102
}
330
226
100
DictionaryVariables
280
     0
  1

  0
DICTIONARY
  5
297
102
{ACAD_REACTORS
330
28A
102
}
330
28A
100
AcDbDictionary
281
     1
  0
XRECORD
  5
2B3
102
{ACAD_REACTORS
330
28A
102
}
330
28A
100
AcDbXrecord
280
     1
 90
-1023410169
  0
LAYER_INDEX
  5
2901
102
{ACAD_REACTORS
330
2900
102
}
330
2900
100
AcDbIndex
 40
2456639.473996123
100
AcDbLayerIndex
  8
0
360
2902
 90
        0
  8
AM_VIS
360
2903
 90
        0
  8
AM_7
360
2904
 90
        0
  8
LOGO
360
2905
 90
        0
  8
Defpoints
360
2906
 90
        0
  8
AM_5
360
2907
 90
        0
  8
1
360
2908
 90
        0
  8
BOR
360
2909
 90
        0
  8
SL
360
290A
 90
        0
  8
CENTER
360
2BD2
 90
        0
  8
AM_4
360
2BD3
 90
        0
  8
HIDDEN
360
2DEC
 90
        0
  8
CEN
360
2DED
 90
        0
  8
HID
360
2DEE
 90
        0
  0
DICTIONARY
  5
31E0
330
B
100
AcDbDictionary
280
     1
281
     1
  3
ACAD_XREC_ROUNDTRIP
360
31E1
  0
DICTIONARY
  5
11
330
10
100
AcDbDictionary
280
     1
281
     1
  3
ACAD_XREC_ROUNDTRIP
360
31E2
  3
ADSK_XREC_LAYOUTTHUMBNAIL
360
12
  0
DICTIONARY
  5
135D
330
135C
100
AcDbDictionary
280
     1
281
     1
  3
ACAD_XREC_ROUNDTRIP
360
135E
  0
IDBUFFER
  5
2902
330
0
100
AcDbIdBuffer
  0
IDBUFFER
  5
2903
330
0
100
AcDbIdBuffer
  0
IDBUFFER
  5
2904
330
0
100
AcDbIdBuffer
  0
IDBUFFER
  5
2905
330
0
100
AcDbIdBuffer
  0
IDBUFFER
  5
2906
330
0
100
AcDbIdBuffer
  0
IDBUFFER
  5
2907
330
0
100
AcDbIdBuffer
  0
IDBUFFER
  5
2908
330
0
100
AcDbIdBuffer
  0
IDBUFFER
  5
2909
330
0
100
AcDbIdBuffer
  0
IDBUFFER
  5
290A
330
0
100
AcDbIdBuffer
  0
IDBUFFER
  5
2BD2
330
0
100
AcDbIdBuffer
  0
IDBUFFER
  5
2BD3
330
0
100
AcDbIdBuffer
  0
IDBUFFER
  5
2DEC
330
0
100
AcDbIdBuffer
  0
IDBUFFER
  5
2DED
330
0
100
AcDbIdBuffer
  0
IDBUFFER
  5
2DEE
330
0
100
AcDbIdBuffer
  0
XRECORD
  5
31E1
102
{ACAD_REACTORS
330
31E0
102
}
330
31E0
100
AcDbXrecord
280
     1
102
SHADEPLOT
 70
     0
102
SHADEPLOTRESLEVEL
 70
     2
102
SHADEPLOTCUSTOMDPI
 70
   300
  0
XRECORD
  5
31E2
102
{ACAD_REACTORS
330
11
102
}
330
11
100
AcDbXrecord
280
     1
102
SHADEPLOT
 70
     0
102
SHADEPLOTRESLEVEL
 70
     2
102
SHADEPLOTCUSTOMDPI
 70
   300
  0
XRECORD
  5
12
102
{ACAD_REACTORS
330
11
102
}
330
11
100
AcDbXrecord
280
     1
310
28000000B40000007F00000001000800000000004C590000000000000000000000010000000000000000000000000000FFFFFF000000000000000000000000000000000000000000000000000000000000000000330000006600000099000000CC000000FF00000000330000333300006633000099330000CC330000FF3300
310
0000660000336600006666000099660000CC660000FF66000000990000339900006699000099990000CC990000FF99000000CC000033CC000066CC000099CC0000CCCC0000FFCC000000FF000033FF000066FF000099FF0000CCFF0000FFFF000000003300330033006600330099003300CC003300FF003300003333003333
310
33006633330099333300CC333300FF33330000663300336633006666330099663300CC663300FF66330000993300339933006699330099993300CC993300FF99330000CC330033CC330066CC330099CC3300CCCC3300FFCC330000FF330033FF330066FF330099FF3300CCFF3300FFFF330000006600330066006600660099
310
006600CC006600FF00660000336600333366006633660099336600CC336600FF33660000666600336666006666660099666600CC666600FF66660000996600339966006699660099996600CC996600FF99660000CC660033CC660066CC660099CC6600CCCC6600FFCC660000FF660033FF660066FF660099FF6600CCFF6600
310
FFFF660000009900330099006600990099009900CC009900FF00990000339900333399006633990099339900CC339900FF33990000669900336699006666990099669900CC669900FF66990000999900339999006699990099999900CC999900FF99990000CC990033CC990066CC990099CC9900CCCC9900FFCC990000FF99
310
0033FF990066FF990099FF9900CCFF9900FFFF99000000CC003300CC006600CC009900CC00CC00CC00FF00CC000033CC003333CC006633CC009933CC00CC33CC00FF33CC000066CC003366CC006666CC009966CC00CC66CC00FF66CC000099CC003399CC006699CC009999CC00CC99CC00FF99CC0000CCCC0033CCCC0066CC
310
CC0099CCCC00CCCCCC00FFCCCC0000FFCC0033FFCC0066FFCC0099FFCC00CCFFCC00FFFFCC000000FF003300FF006600FF009900FF00CC00FF00FF00FF000033FF003333FF006633FF009933FF00CC33FF00FF33FF000066FF003366FF006666FF009966FF00CC66FF00FF66FF000099FF003399FF006699FF009999FF00CC
310
99FF00FF99FF0000CCFF0033CCFF0066CCFF0099CCFF00CCCCFF00FFCCFF0000FFFF0033FFFF0066FFFF0099FFFF00CCFFFF00FFFFFF00000000000D0D0D001A1A1A00282828003535350043434300505050005D5D5D006B6B6B00787878008686860093939300A1A1A100AEAEAE00BBBBBB00C9C9C900D6D6D600E4E4E400
310
F1F1F100FFFFFF0000000000000000000000000000000000000000000000000000000000000000000000000000000000EFEFF5F5F5F5F5F5F5F5F5F5F5F5F5F5F5F5F5F5F5F5F5F5F5F5F5F5F5F5F5F5F5F5F5F5F5F5F5F5F5F5F5F5F5F5F5F5F5F5F5F5F5F5F5F5F5F5F5F5F5F5F5F5F5F5F5F5F5F5F5F5F5F5F5F5F5F5F5
310
F5F5F5F5F5F5F5F5F5F5F5F5F5F5F5F5F5F5F5F5F5F5F5F5F5F5F5F5F5F5F5F5F5F5F5F5F5F5F5F5F5F5F5F5F5F5F5F5F5F5F5F5F5F5F5F5F5F5F5F5F5F5F5F5F5F5F5F5F5F5F5F5F5F5F5F5F5F5F5F5F5F5F5F5F5F5F5F5F5F5F5F5F5F5F5F5F5F5F5F5F5F5F5F5F5F5F5F5F5F5F5F5F5F5F5F5F5F5F5F5F5F5F5F5F5F5F5
310
F5F5F5F5F5F5F5F5F5F5F5F5F5F5F5F5F5F5F5F5F5F5F5F5F5F5F5F5F5F5F5F5F5F5F5F5F5F5F5F5F5F5F5F5F5F5F5F5F5F5F5F5F5F5F5F5F5F5F5F5F5F5F5F5F5F5F5F5F5F5F5F5F5F5F5F5F5F5F5F5F5F5F5F5F5F5F5F5F5F5F5F5F5F5F5F5F5F5F5F5F5F5F5F5F5F5F5F5F5F5F5F5F5F5F5F5F5F5F5F5F5F5F5F5F5F5F5
310
F5F5F5F5F5F5F5F5F5F5F5F5F5F5F5F5F5F5F5F5F5F5F5F5F5F5F5F5E2E2E2E2E2E2E2E2E2E2E2E2E2E2E2E2E2E2E2E2E2E2E2E2E2E2E2E2E2E2E2E2E2E2E2E2E2E2E2E2E2E2E2E2E2E2E2E2E2E2E2E2E2E2E2E2E2E2E2E2E2E2E2E2E2E2E2E2E2E2E2E2E2E2E2E2E2E2E2E2E2E2E2E2E2E2E2E2E2E2E2E2E2E2E2E2E2E2E2
310
E2E2E2E2E2E2E2E2E2E2E2E2E2E2E2E2E2E2E2E2E2E2E2E2E2E2E2E2E2E2E2E2E2E2E2E2E2E2E2E2E2E2E2E2E2E2E2E2E2E2E2E2E2E2E2E2E2E2E2E2E2E2E2E2E2E2E2E2E2E2E2E2E2E2E2E2E2E2F5F5F5E2E2E2E2E2E2E2E2E2E2E2E2E2E2E2E2E2E2E2E2E2E2E2E2E2E2E2E2E2E2E2E2E2E2E2E2E2E2E2E2E2E2E2E2E2E2
310
E2E2E2E2E2E2E2E2E2E2E2E2E2E2E2E2E2E2E2E2E2E2E2E2E2E2E2E2E2E2E2E2E2E2E2E2E2E2E2E2E2E2E2E2E2E2E2E2E2E2E2E2E2E2E2E2E2E2E2E2E2E2E2E2E2E2E2E2E2E2E2E2E2E2E2E2E2E2E2E2E2E2E2E2E2E2E2E2E2E2E2E2E2E2E2E2E2E2E2E2E2E2E2E2E2E2E2E2E2E2E2E2E2E2E2E2E2E2E2E2E2E2E2E2E2E2E2
310
E2E2E2E2F5F5F5E2E2E2E2E2E2E2E2E2E2E2E2E2E2E2E2E2E2E2E2E2E2E2E2E2E2E2E2E2E2E2E2E2E2E2E2E2E2E2E2E2E2E2E2E2E2E2E2E2E2E2E2E2E2E2E2E2E2E2E2E2E2E2E2E2E2E2E2E2E2E2E2E2E2E2E2E2E2E2E2E2E2E2E2E2E2E2E2E2E2E2E2E2E2E2E2E2E2E2E2E2E2E2E2E2E2E2E2E2E2E2E2E2E2E2E2E2E2E2E2
310
E2E2E2E2E2E2E2E2E2E2E2E2E2E2E2E2E2E2E2E2E2E2E2E2E2E2E2E2E2E2E2E2E2E2E2E2E2E2E2E2E2E2E2E2E2E2E2E2E2E2E2E2E2E2E2E2E2F5F5F5E2E2E2E2E2E2E2E2E2E2E2E2E2E2E2E2E2E2E2E2E2E2E2E2E2E2E2E2E2E2E2E2E2E2E2E2E2E2E2E2E2E2E2E2E2E2E2E2E2E2E2E2E2E2E2E2E2E2E2E2E2E2E2E2E2E2E2
310
E2E2E2E2E2E2E2E2E2E2E2E2E2E2E2E2E2E2E2E2E2E2E2E2E2E2E2E2E2E2E2E2E2E2E2E2E2E2E2E2E2E2E2E2E2E2E2E2E2E2E2E2E2E2E2E2E2E2E2E2E2E2E2E2E2E2E2E2E2E2E2E2E2E2E2E2E2E2E2E2E2E2E2E2E2E2E2E2E2E2E2E2E2E2E2E2E2E2E2E2E2E2E2E2E2E2E2E2E2E2F5F5F5E2E2E2E2E2E2E2E2E2E2E2E2E2E2
310
E2E2E2E2E2E2E2E2E2E2E2E2E2E2E2E2E2E2E2E2E2E2E2E2E2E2E2E2E2E2E2E2E2E2E2E2E2E2E2E2E2E2E2E2E2E2E2E2E2E2E2E2E2E2E2E2E2E2E2E2E2E2E2E2E2E2E2E2E2E2E2E2E2E2E2E2E2E2E2E2E2E2E2E2E2E2E2E2E2E2E2E2E2E2E2E2E2E2E2E2E2E2E2E2E2E2E2E2E2E2E2E2E2E2E2E2E2E2E2E2E2E2E2E2E2E2E2
310
E2E2E2E2E2E2E2E2E2E2E2E2E2E2E2E2E2E2E2E2E2E2E2E2E2E2E2E2E2E2E2E2E2E2E2E2F5F5F5E2E2E2E2E2E2E2E2E2E2E2E2E2E2E2E2E2E2E2E2E2E2E2E2E2E2E2E2E2E2E2E2E2E2E2E2E2E2E2E2E2E2E2E2E2E2E2E2E2E2E2E2E2E2E2E2E2E2E2E2E2E2E2E2E2E2E2E2E2E2E2E2E2E2E2E2E2E2E2E2E2E2E2E2E2E2E2E2
310
E2E2E2E2E2E2E2E2E2E2E2E2E2E2E2E2E2E2E2E2E2E2E2E2E2E2E2E2E2E2E2E2E2E2E2E2E2E2E2E2E2E2E2E2E2E2E2E2E2E2E2E2E2E2E2E2E2E2E2E2E2E2E2E2E2E2E2E2E2E2E2E2E2E2E2E2E2E2E2E2E2E2E2E2E2E2E2E2E2F5F5F5E2E2E2E2E2E2E2E2E2E2E2E2E2E2E2E2E2E2E2E2E2E2E2E2E2E2E2E2E2E2E2E2E2E2E2
310
E2E2E2E2E2E2E2E2E2E2E2E2E2E2E2E2E2E2E2E2E2E2E2E2E2E2E2E2E2E2E2E2E2E2E2E2E2E2E2E2E2E2E2E2E2E2E2E2E2E2E2E2E2E2E2E2E2E2E2E2E2E2E2E2E2E2E2E2E2E2E2E2E2E2E2E2E2E2E2E2E2E2E2E2E2E2E2E2E2E2E2E2E2E2E2E2E2E2E2E2E2E2E2E2E2E2E2E2E2E2E2E2E2E2E2E2E2E2E2E2E2E2E2E2E2E2E2
310
E2E2E2E2E2E2E2E2E2E2E2E2E2E2E2F5F5F5E2E2E2F5F5F5F5F5F5F5F5E2E2E2E2E2E2E2E2E2F5F5F5F5F5F5F5F5F5F5F5F5F5F5F5F5E2E2E2E2E2E2E2E2F5F5F5F5F5F5F5F5F5F5F5F5F5F5F5F5E2E2E2E2E2E2E2E2E2F5F5F5F5F5F5F5F5F5F5F5F5F5F5F5E2E2E2E2E2E2E2E2E2F5F5F5F5F5F5F5F5F5F5F5F5F5F5F5E2
310
E2E2E2E2E2E2E2E2F5F5F5F5F5F5F5F5F5F5F5F5F5F5F5F5E2E2E2E2E2E2E2E2F5F5F5F5F5F5F5F5F5F5F5F5F5F5F5F5E2E2E2E2E2E2E2E2E2F5F5F5F5F5F5F5F5E2E2E2F5F5F5E2E2E2F5E2E2E2E2E2E2E2E2E2E2E2E2E2E2E2E2E2E2E2E2E2E2E2E2E2E2E2E2E2E2E2E2E2E2E2E2E2E2E2E2E2E2E2E2E2E2E2E2E2E2E2E2
310
E2E2E2E2E2E2E2E2E2E2E2E2E2E2E2E2E2E2E2E2E2E2E2E2E2E2E2E2E2E2E2E2E2E2E2E2E2E2E2E2E2E2E2E2E2E2E2E2E2E2E2E2E2E2E2E2E2E2E2E2E2E2E2E2E2E2E2E2E2E2E2E2E2E2E2E2E2E2E2E2E2E2E2E2E2E2E2E2E2E2E2E2E2E2E2E2E2E2E2E2E2E2E2E2E2E2E2E2E2E2E2E2E2E2E2E2E2F5E2E2E2F5F5F5E2E2E2
310
F5E2E2E2E2E2E2E2E2E2E2E2E2E2E2E2E2E2E2E2E2E2E2E2E2E2E2E2E2E2E2E2E2E2E2E2E2E2E2E2E2E2E2E2E2E2E2E2E2E2E2E2E2E2E2E2E2E2E2E2E2E2E2E2E2E2E2E2E2E2E2E2E2E2E2E2E2E2E2E2E2E2E2E2E2E2E2E2E2E2E2E2E2E2E2E2E2E2E2E2E2E2E2E2E2E2E2E2E2E2E2E2E2E2E2E2E2E2E2E2E2E2E2E2E2E2E2
310
E2E2E2E2E2E2E2E2E2E2E2E2E2E2E2E2E2E2E2E2E2E2E2E2E2E2E2E2E2E2E2E2E2E2E2E2E2E2E2E2E2E2E2F5E2E2E2F5F5F5E2E2E2F5E2E2E2E2E2E2E2E2E2E2E2E2E2E2E2E2E2E2E2E2E2E2E2E2E2E2E2E2E2E2E2E2E2E2E2E2E2E2E2E2E2E2E2E2E2E2E2E2E2E2E2E2E2E2E2E2E2E2E2E2E2E2E2E2E2E2E2E2E2E2E2E2E2
310
E2E2E2E2E2E2E2E2E2E2E2E2E2E2E2E2E2E2E2E2E2E2E2E2E2E2E2E2E2E2E2E2E2E2E2E2E2E2E2E2E2E2E2E2E2E2E2E2E2E2E2E2E2E2E2E2E2E2E2E2E2E2E2E2E2E2E2E2E2E2E2E2E2E2E2E2E2E2E2E2E2E2E2E2E2E2E2E2E2E2E2E2E2E2E2E2F5E2E2E2F5F5F5E2E2E2F5E2E2E2E2E2E2E2E2E2E2E2E2E2E2E22D2D2D2D2D
310
2D2D2D2D2D2D2D2D2D2D2D2D2D2D2D2D2D2D2D2D2DF5F5F5F5F5F5F52D2D2D2D2D2D2D2D2D2D2D2D2D2D2D2D2D2D2D2D2D2D2D2D2D2D2D2D2D2D2D2D2D2D2D2D2D2D2D2D2D2D2D2D2D2D2D2D2D2D2D2D2D2D2D2D2D2D2D2D2D2D2D2D2D2D2D2D2D2D2D2D2D2D2D2D2D2D2D2D2D2D2D2D2D2D2D2D2D2D2D2D2D2D2D2D2D2D2D
310
2D2D2D2D2D2D2D2D2D2DE2E2E2E2E2E2E2E2E2E2E2E2F5E2E2E2F5F5F5E2E2E2F5E2E2E2E2E2E2E2E2E2E2E2E2E2E2E22DF5F5F5F5F5F5F5F5F5F5F5F5F5F5F5F5E2F5F5E2E2F5F5F52DF5F5F5F5F5F5F52DE2E2E2E2E2E2E2E22D2D2DF5F5F5F52D2DE2E2E22D2D2D2D2D2D2D2D2D2DE22D2D2DF5F52D2D2DE22D2D2D2D2D
310
2D2D2D2DF5F5F5F52D2D2D2D2D2D2D2D2D2DE2E2E2E2E2E2E2E2E2E2E2E2E2E2E2E2E2E2E2E2E2E2E2E2E2E2E2E2E2E2E2E2E2E2E2E2E2E2E2E2E2E2E2E22DE2E2E2E2E2E2E2E2E2E2E2E2F5E2E2E2F5F5F5E2E2E2F5E2E2E2E2E2E2E2E2E2E2E2E2E2E2E22DE2E2E2F5F5F5F5F5F5F5F5F5F5F5F5F5F5F5F5F5F5E2E2E22D
310
2D2D2D2D2D2D2D2DE2E2E2E2E2E2E2E22DE2E2F5F5F5F5E22DE2E2E22DE2F5F5F5F5F5F5E22DE22DE2E2F5F5E2E22DE22DF5F5F5F5E22D2DE2F5F5F5F52D2DE2F5F5F5F5F5E22DE2E2E2E2E2E2E2E2E2E2E2E2E2E2E2E2E2E2E2E2E2E2E2E2E2E2E2E2E2E2E2E2E2E2E2E2E2E2E2E2E2E2E2E22DE2E2E2E2E2E2E2E2E2E2E2
310
E2F5E2E2E2F5F5F5E2E2E2F5E2E2E2E2E2E2E2E2E2E2E2E2E2E2E22DE2E2E2F5F5F5F5F5F5F5F5F5F5F5F5F5F5F5F5F5F5E2E2E22DE2E2E2E2E2E2E2E2E2E2E2E2E2E2E2E22DE2E2F5F5F5F5E22DE2E2E22DF5F5F5F5F5F5F5E22DE22DE2F5F5F5F5E22DE22DF5F5F5F5E22D2DF5F5F5F5F52D2DE2E2F5F5F5F5E22DE2E2E2
310
E2E2E2E2E2E2E2E2E2E2E2E2E2E2E2E2E2E2E2E2E2E2E2E2E2E2E2E2E2E2E2E2E2E2E2E2E2E2E2E2E22DE2E2E2E2E2E2E2E2E2E2E2E2F5E2E2E2F5F5F5E2E2E2F5E2E2E2E2E2E2E2E2E2E2E2E2E2E2E22D2D2D2D2D2D2D2D2D2D2D2D2D2D2D2D2D2D2D2D2D2D2D2D2D2DE2E2E2E2E2E2E2E2E2E2E2E2E2E2E2E22DE2E2F5F5
310
F5F5E22DE2E2E22DF5F5F5F5F5F5F5E22DE22DE2F5F5F5F5E22DE22DF5F5F5F5E22D2DF5F5F5F5F52D2DE2E2F5F5F5F5E22DE2E2E2E2E2E2E2E2E2E2E2E2E2E2E2E2E2E2E2E2E2E2E2E2E2E2E2E2E2E2E2E2E2E2E2E2E2E2E2E2E2E2E2E22DE2E2E2E2E2E2E2E2E2E2E2E2F5E2E2E2F5F5F5E2E2E2E2E2E2E2E2E2E2E2E2E2
310
E2E2E2E2E2E22D0F0F0F0F0F0F0F2DF5F5F5E2F5F5F5F5F52DE2F5F5F5F5E22DE2E2E2E2E2E2E2E2E2E2E2E2E2E2E2E22D2D2D2D2D2D2D2D2DE2E2E22D2D2D2D2D2D2D2D2D2DE22D2D2D2D2D2D2D2DE22D2D2D2D2D2D2D2D2D2D2D2D2D2D2D2D2D2D2D2D2D2D2DE2E2E2E2E2E2E2E2E2E2E2E2E2E2E2E2E2E2E2E2E2E2E2E2
310
E2E2E2E2E2E2E2E2E2E2E2E2E2E2E2E2E2E2E2E22DE2E2E2E2E2E2E2E2E2E2E2E2E2E2E2E2F5F5F5E2E2E2E2E2E2E2E2E2E2E2E2E2E2E2E2E2E2E22DDC0F0FDC0F0FDC2DF5F5F5E2F5F5F5F5F52DE2F5F5F5F5E22DF5F5F5F5F5E2F5F5F5F5F5F5F5F5F5E2E2E2E2E22DE2E2E2E2E2E2E2E2E2E2E22DE2E2E2E2E2E2E2E2E2
310
2DE2E2E2E2E2E2E2E22DE2E2E2E2E2E22DE2E2E2E2E2E22DE2E2E2E2E2E2E2E2E2E2E2E2E2E2E2E2E2E2E2E2E2E2E2E2E2E2E2E2E2E2E2E2E2E2E2E2E2E2E2E2E2E2E2E2E2E2E2E2E22DE2E2E2E2E2E2E2E2E2E2E2E2E2E2E2E2F5F5F5E2E2E2E2E2E2E2E2E2E2E2E2E2E2E2E2E2E2E22D0FDC0F0FDC0FDC2DF5F5F52D2DF5
310
F5F5F52DF5F52DF5F5F52DF5F5F5F5F5F5F5F5F5F5F5F5F5F5F52DF5F5F5F52D2DF5F5F5F52DE2E22D2D2DF5F52D2D2D2DE22D2D2DF5F5F52D2DE22D2D2D2D2D2D2D2D2D2D2D2D2D2DE2E22DF52D2DE2E2E2E2E2E2E2E2E2E2E2E2E2E2E2E2E2E2E2E2E2E2E2E2E2E2E2E2E2E2E2E2E2E2E2E2E2E2E2E2E2E2E2E2E2E2E22D
310
E2E2E2E2E2E2E2E2E2E2E2E2E2E2E2E2F5F5F5E2E2E2E2E2E2E2E2E2E2E2E2E2E2E2E2E2E2E22DE2DC0FDCDC0FDC2DF5F5F5E2E2F5F5F5F52DF5F5F5F5F5F52DF5F5E2F5E2E2E2E2E2E2F5E2E2F5E22DF5F5F5F5E2F5F5F5E2F52DF5F52DE2E2F5F5E2E2E2F5F5F5E2F5F5E2F5E2F5F5F5E2F5F5E2E22DF5E2F5F5E2F52DF5
310
F52DF5F52DE2E2E2E2E2E2E2E2E2E2E2E2E2E2E2E2E2E2E2E2E2E2E2E2E2E2E2E2E2E2E2E2E2E2E2E2E2E2E2E2E2E2E2E2E2E2E22DE2E2E2E2E2E2E2E2E2E2E2E2E2E2E2E2F5F5F5E2E2E2E2E2E2E2E2E2E2E2E2E2E2E2E2E2E2E22DE20F0FDC0FDCDC2D2D2D2D2DF5F52D2D2D2D2DF52D2DF5F52DE2F5F5F5F5F5F5F5F5F5
310
F5E2E2E2E22DE2F5F5F5F5F5F5F5F5F52DE2E22DE2F5F5F5E2E2E22DE22DE2F5F5F5F5E22DE22DE2F5F5E2E22DF5F5F5F5F5F52DE2E22DF5F52DE2E2E2E2E2E2E2E2E2E2E2E2E2E2E2E2E2E2E2E2E2E2E2E2E2E2E2E2E2E2E2E2E2E2E2E2E2E2E2E2E2E2E2E2E2E2E22DE2E2E2E2E2E2E2E2E2E2E2E2E2E2E2E2F5F5F5E2E2
310
E2E2E2E2E2E2E2E2E2E2E2E2E2E2E2E2E22DE2E2DCDC0FDC0F2DF5F5F5F5F5F5F5F5F52DE2F5F5E2E2F52DF5F5F5F5F5F5F5F5F5F5F5E2E2E2E22D2D2D2D2D2D2D2D2D2D2D2DE2E22D2D2D2D2D2D2D2D2DE22D2D2D2D2D2D2D2DE22D2D2D2D2D2D2D2D2D2D2D2D2D2DE2E22D2D2D2DE2E2E2E2E2E2E2E2E2E2E2E2E2E2E2E2
310
E2E2E2E2E2E2E2E2E2E2E2E2E2E2E2E2E2E2E2E2E2E2E2E2E2E2E2E2E2E2E22DE2E2E2E2E2E2E2E2E2E2E2E2E2E2E2E2F5F5F5E2E2E2E2E2E2E2E2E2E2E2E2E2E2E2E2E2E2E22D2D2D2D2D2D2D2D2D2D2D2D2D2D2D2D2D2D2D2D2D2D2D2D2D2D2D2D2D2D2D2D2D2D2D2D2D2D2D2D2D2D2D2D2D2D2D2D2D2D2D2D2D2D2D2D2D
310
2D2D2D2D2D2D2D2D2D2D2D2D2D2D2D2D2D2D2D2D2D2D2D2D2D2D2D2D2D2D2D2D2D2D2D2D2D2D2D2D2D2D2D2D2D2D2D2D2D2D2D2D2D2D2D2D2D2D2D2D2D2D2D2D2D2D2D2D2D2D2D2D2D2D2D2D2D2D2D2D2D2D2D2D2DE2E2E2E2E2E2E2E2E2E2E2E2E2E2E2E2F5F5F5E2E2E2E2E2E2E2E2E2E2E2E2E2E2E2E2E2E2E22DE2E2E2
310
E2E2E2E2E2E2E2E2E2E2E2E2E2E2E2E2E2E2E2E2E2E2E2E2E2E2E2E2E2E2E2E2E2E2E2E2E2E2E2E2E2E2E2E2E2E2E2E2E2E2E2E2E2E2E2E2E2E2E2E2E2E2E2E2E2E2E2E2E2E2E2E2E2E2E2E2E2E2E2E2E2E2E2E2E2E2E2E2E2E2E2E2E2E2E2E2E2E2E2E2E2E2E2E2E2E2E2E2E2E2E2E2E2E2E2E2E2E2E2E2E2E2E2E2E2E2E2
310
E2E2E2E2E2E2E2E2E2E22DE2E2E2E2E2E2E2E2E2E2E2E2E2E2E2E2F5F5F5E2E2E2E2E2E2E2E2E2E2E2E2E2E2E2E2E2E2E22DE2E2E2E2E2E2E2E2E2E2E2E2E2E2E2E2E2E2E2E2E2E2E2E2E2E2E2E2E2E2E2E2E2E2E2E2E2E2E2E2E2E2E2E2E2E2E2E2E2E2E2E2E2E2E2E2E2E2E2E2E2E2E2E2E2E2E2E2E2E2E2E2E2E2E2E2E2
310
E2E2E2E2E2E2E2E2E2E2E2E2E2E2E2E2E2E2E2E2E2E2E2E2E2E2E2E2E2E2E2E2E2E2E2E2E2E2E2E2E2E2E2E2E2E2E2E2E2E2E2E2E2E2E2E2E2E2E2E2E2E2E22DE2E2E2E2E2E2E2E2E2E2E2E2E2E2E2E2F5F5F5E2E2E2E2E2E2E2E2E2E2E2E2E2E2E2E2E2E2E22DE2E2E2E2E2E2E2E2E2E2E2E2E2E2E2E2E2E2E2E2E2E2E2E2
310
E2E2E2E2E2E2E2E2E2E2E2E2E2E2E2E2E2E2E2E2E2E2E2E2E2E2E2E2E2E2E2E2E2E2E2E2E2E2E2E2E2E2E2E2E2E2E2E2E2E2E2E2E2E2E2E2E2E2E2E2E2E2E2E2E2E2E2E2E2E2E2E2E2E2E2E2E2E2E2E2E2E2E2E2E2E2E2E2E2E2E2E2E2E2E2E2E2E2E2E2E2E2E2E2E2E2E2E2E2E2E2E2E2E2E2E22DE2E2E2E2E2E2E2E2E2E2
310
E2E2E2E2E2E2F5F5F5E2E2E2F5E2E2E2E2E2E2E2E2E2E2E2E2E2E2E22DE2E2E2E2E2E2E2E2E2E2E2E2E2E2E2E2E2E2E2E2E2E2E2E2E2E2E2E2E2E2E2E2E2E2E2E2E2E2E2E2E2E2E2E2E2E2E2E2E2E2E2E2E2E2E2E2E2E2E2E2E2E2E2E2E2E2E2E2E2E2E2E2E2E2E2E2E2E2E2E2E2E2E2E2E2E2E2E2E2E2E2E2E2E2E2E2E2E2
310
E2E2E2E2E2E2E2E2E2E2E2E2E2E2E2E2E2E2E2E2E2E2E2E2E2E2E2E2E2E2E2E2E2E2E2E2E2E2E2E2E2E22DE2E2E2E2E2E2E2E2E2E2E2E2F5E2E2E2F5F5F5E2E2E2F5E2E2E2E2E2E2E2E2E2E2E2E2E2E2E22DE2E2E2E2E2E2E2E2E2E2E2E2E2E2E2E2E2E2E2E2E2E2E2E2E2E2E2E2E2E2E2E2E2E2E2E2E2E2E2E2E2E2E2E2E2
310
E2E2E2E2E2E2E2E2E2E2E2E2E2E2E2E2E2E2E2E2E2E2E2E2E2E2E2E2E2E2E2E2E2E2E2E2E2E2E2E2E2E2E2E2E2E2E2E2E2E2E2E2E2E2E2E2E2E2E2E2E2E2E2E2E2E2E2E2E2E2E2E2E2E2E2E2E2E2E2E2E2E2E2E2E2E2E2E2E2E2E2E2E2E2E22DE2E2E2E2E2E2E2E2E2E2E2E2F5E2E2E2F5F5F5E2E2E2F5E2E2E2E2E2E2E2E2
310
E2E2E2E2E2E2E22DE2E2E2E2E2E2E2E2E2E2E2E2E2E2E2E2E2E2E2E2E2E2E2E2E2E2E2E2E2E2E2E2E2E2E2E2E2E2E2E2E2E2E2E2E2E2E2E2E2E2E2E2E2E2E2E2E2E2E2E2E2E2E2E2E2E2E2E2E2E2E2E2E2E2E2E2E2E2E2E2E2E2E2E2E2E2E2E2E2E2E2E2E2E2E2E2E2E2E2E2E2E2E2E2E2E2E2E2E2E2E2E2E2E2E2E2E2E2E2
310
E2E2E2E2E2E2E2E2E2E2E2E2E2E2E2E2E2E2E2E2E22DE2E2E2E2E2E2E2E2E2E2E2E2F5E2E2E2F5F5F5E2E2E2F5E2E2E2E2E2E2E2E2E2E2E2E2E2E2E22DE2E2E2E2E2E2E2E2E2E2E2E2E2E2E2E2E2E2E2E2E2E2E2E2E2E2E2E2E2E2E2E2E2E2E2E2E2E2E2E2E2E2E2E2E2E2E2E2E2E2E2E2E2E2E2E2E2E2E2E2E2E2E2E2E2E2
310
E2E2E2E2E2E2E2E2E2E2E2E2E2E2E2E2E2E2E2E2E2E2E2E2E2E2E2E2E2E2E2E2E2E2E2E2E2E2E2E2E2E2E2E2E2E2E2E2E2E2E2E2E2E2E2E2E2E2E2E2E2E2E2E2E2E2E2E2E2E2E2E2E2E22DE2E2E2E2E2E2E2E2E2E2E2E2F5E2E2E2F5F5F5E2E2E2F5E2E2E2E2E2E2E2E2E2E2E2E2E2E2E22DE2E2E2E2E2E2E2E2E2E2E2E2E2
310
E2E2E2E2E2E2E2E2E2E2E2E2E2E2E2E2E2E2E2E2E2E2E2E2E2E2E2E2E2E2E2E2E2E2E2E2E2E2E2E2E2E2E2E2E2E2E2E2E2E2E2E2E2E2E2E2E2E2E2E2E2E2E2E2E2E2E2E2E2E2E2E2E2E2E2E2E2E2E2E2E2E2E2E2E2E2E2E2E2E2E2E2E2E2E2E2E2E2E2E2E2E2E2E2E2E2E2E2E2E2E2E2E2E2E2E2E2E2E2E2E2E2E2E2E2E2E2
310
2DE2E2E2E2E2E2E2E2E2E2E2E2F5E2E2E2F5F5F5E2E2E2F5E2E2E2E2E2E2E2E2E2E2E2E2E2E2E22DE2E2E2E2E2E2E2E2E2E2E2E2E2E2E2E2E2E2E2E2E2E2E2E2E2E2E2E2E2E2E2E2E2E2E2E2E2E2E2E2E2E2E2E2E2E2E2E2E2E2E2E2E2E2E2E2E2E2E2E2E2E2E2E2E2E2E2E2E2E2E2E2E2E2E2E2E2E2E2E2E2E2E2E2E2E2E2
310
E2E2E2E2E2E2E2E2E2E2E2E2E2E2E2E2E2E2E2E2E2E2E2E2E2E2E2E2E2E2E2E2E2E2E2E2E2E2E2E2E2E2E2E2E2E2E2E2E2E2E2E2E22DE2E2E2E2E2E2E2E2E2E2E2E2F5E2E2E2F5F5F5E2E2E2F5E2E2E2E2E2E2E2E2E2E2E2E2E2E2E22DE2E2E2E2E2E2E2E2E2E2E2E2E2E2E2E2E2E2E2E2E2E2E2E2E2E2E2E2E2E2E2E2E2E2
310
E2E2E2E2E2E2E2E2E2E2E2E2E2E2E2E2E2E2E2E2E2E2E2E2E2E2E2E2E2E2E2E2E2E2E2E2E2E2E2E2E2E2E2E2E2E2E2E2E2E2E2E2E2E2E2E2E2E2E2E2E2E2E2E2E2E2E2E2E2E2E2E2E2E2E2E2E2E2E2E2E2E2E2E2E2E2E2E2E2E2E2E2E2E2E2E2E2E2E2E2E2E2E2E2E2E22DE2E2E2E2E2E2E2E2E2E2E2E2F5E2E2E2F5F5F5E2
310
E2E2F5E2E2E2E2E2E2E2E2E2E2E2E2E2E2E22DE2E2E2E2E2E2E2E2E2E2E2E2E2E2E2E2E2E2E2E2E2E2E2E2E2E2E2E2E2E2E2E2E2E2E2E2E2E2E2E2E2E2E2E2E2E2E2E2E2E2E2E2E2E2E2E2E2E2E2E2E2E2E2E2E2E2E2E2E2E2E2E2E2E2E2E2E2E2E2E2E2E2E2E2E2E2E2E2E2E2E2E2E2E2E2E2E2E2E2E2E2E2E2E2E2E2E2E2
310
E2E2E2E2E2E2E2E2E2E2E2E2E2E2E2E2E2E2E2E2E2E2E2E2E2E2E2E2E2E2E2E22DE2E2E2E2E2E2E2E2E2E2E2E2F5E2E2E2F5F5F5E2E2E2F5E2E2E2E2E2E2E2E2E2E2E2E2E2E2E22DE2E2E2E2E2E2E2E2E2E2E2E2E2E2E2E2E2E20F0F0F0F0F0F0F0F0F0F0F0F0F0F0F0F0F0F0F0F0F0F0F0F0F0F0F0F0F0F0F0F0F0F0F0F0F
310
0F0F0F0F0F0F0F0F0F0F0F0F0F0F0F0F0F0F0F0F0F0F0F0F0F0F0F0F0F0F0F0F0F0F0F0F0F0F0F0FE2E2E2E2E2E2E2E2E2E2E2E2E2E2E2E2E2E2E2E2E2E2E2E2E2E2E2E2E2E2E2E2E2E2E2E2E2E2E2E2E2E2E2E2E22DE2E2E2E2E2E2E2E2E2E2E2E2F5E2E2E2F5F5F5E2E2E2F5E2E2E2E2E2E2E2E2E2E2E2E2E2E2E22DE2E2
310
E2E2E2E2E2E2E2E2E2E2E2E2E2E2E2E2E20FE2E20F0FE2E2E2E2E2E2E2E2E2E2E2E2E2E2E2E2E2E2E2E2E2E2E2E2E2E2E20F0F0F0F0F0F0F0F0FE2E2E2E2E2E2E2E2E2E2E2E2E2E2E2E2E2E2E2E2E2E2E2E2E2E2E20FE2E20F0FE2E20FE2E2E2E2E2E2E2E2E2E2E2E2E2E2E2E2E2E2E2E2E2E2E2E2E2E2E2E2E2E2E2E2E2E2
310
E2E2E2E2E2E2E2E2E2E2E22DE2E2E2E2E2E2E2E2E2E2E2E2F5E2E2E2F5F5F5E2E2E2F5E2E2E2E2E2E2E2E2E2E2E2E2E2E2E22DE2E2E2E2E2E2E2E2E2E2E2E2E2E2E2E2E2E2E20FE2E20F0FE2E2E2E2E2E2E2E2E2E2E2E2E2E2E2E2E2E2E2E2E2E2E2E2E2E2E20F0F0F0F0FE2E20FE2E2E2E2E2E2E2E2E2E2E2E2E2E2E2E2E2
310
E2E2E2E2E2E2E2E2E2E2E20FE2E20F0FE2E20FE2E2E2E2E2E2E2E2E2E2E2E2E2E2E2E2E2E2E2E2E2E2E2E2E2E2E2E2E2E2E2E2E2E2E2E2E2E2E2E2E2E2E2E2E22DE2E2E2E2E2E2E2E2E2E2E2E2F5E2E2E2F5F5F5E2E2E2F5E2E2E2E2E2E2E2E2E2E2E2E2E2E2E22DE2E2E2E2E2E2E2E2E2E2E2E2E2E2E2E2E2E2E2E2E2E20F
310
0F0F0F0F0F0F0F0F0F0F0F0F0F0F0F0F0F0F0F0F0F0F0F0F0F0F0F0F0F0F0F0F0F0F0F0F0F0F0F0F0F0F0F0F0F0F0F0F0F0F0F0F0F0F0F0F0F0F0F0F0F0F0F0F0FE2E2E2E2E2E20FE2E2E2E2E2E2E2E2E2E2E2E2E2E20F0F0F0F0F0F0F0F0F0F0F0F0F0F0F0F0F0FE2E2E2E2E2E2E2E2E2E2E2E2E22DE2E2E2E2E2E2E2E2E2
310
E2E2E2F5E2E2E2F5F5F5E2E2E2F5E2E2E2E2E2E2E2E2E2E2E2E2E2E2E22DE2E2E2E2E2E2E2E2E2E2E2E2E2E2E2E2E2E2E2E2E2E20F0FE2E2E2E2E2E2E2E2E2E2E2E20F0F0F0F0F0F0F0F0FE2E2E2E2E2E2E2E2E2E2E20FE2E2E2E2E2E2E2E2E20F0F0FE2E2E2E2E2E2E2E20FE2E2E20F0F0FE2E2E20FE2E2E2E2E2E20FE2E2
310
E2E2E2E2E2E2E2E2E2E2E2E20FE2E2E2E2E2E20F0F0F0FE2E2E2E2E2E20FE2E2E2E2E2E2E2E2E2E2E2E2E22DE2E2E2E2E2E2E2E2E2E2E2E2F5E2E2E2F5F5F5E2E2E2F5E2E2E2E2E2E2E2E2E2E2E2E2E2E2E22DE2E2E2E2E2E2E2E2E2E2E2E2E2E2E2E2E2E2E2E2E2E20F0FE2E2E2E2E2E2E2E2E2E2E2E20F0FE20F0FE20FE2
310
E2E2E2E2E2E2E2E2E2E2E2E20FE2E2E2E2E2E2E2E2E2E20FE2E2E2E2E2E2E2E2E20FE2E2E2E20F0FE2E2E20FE2E2E2E2E2E20FE2E2E2E2E2E2E2E2E2E2E2E2E2E20FE2E2E2E2E2E20F0F0F0FE2E2E2E2E2E20FE2E2E2E2E2E2E2E2E2E2E2E2E22DE2E2E2E2E2E2E2E2E2E2E2E2F5E2E2E2F5F5F5E2E2E2F5E2E2E2E2E2E2E2
310
E2E2E2E2E2E2E2E22DE2E2E2E2E2E2E2E2E2E2E2E2E2E2E2E2E2E2E2E2E2E20F0FE2E2E2E2E2E2E2E2E2E2E2E2E2E2E2E2E2E2E2E2E2E2E2E2E2E2E2E2E2E2E2E20FE2E2E2E2E2E2E2E2E2E2E2E2E2E2E2E20F0F0F0F0F0F0F0F0F0FE2E2E2E20FE2E2E2E2E2E20FE2E2E2E2E2E2E2E2E2E2E2E2E2E20FE2E20F0F0F0F0F0F
310
0F0F0F0F0F0FE2E20FE2E2E2E2E2E2E2E2E2E2E2E2E22DE2E2E2E2E2E2E2E2E2E2E2E2F5E2E2E2F5F5F5E2E2E2F5E2E2E2E2E2E2E2E2E2E2E2E2E2E2E22DE2E2E2E2E2E2E2E2E2E2E2E2E2E2E2E2E2E2E2E2E2E20F0FE2E2E2E2E2E2E2E2E2E20F0F0F0F0F0FE2E2E2E2E2E2E2E2E2E2E2E2E2E2E2E20FE2E2E20F0F0F0F0F
310
E2E2E2E2E2E2E2E20F0F0FE20FE2E20FE2E2E2E2E2E20FE2E2E2E2E2E20FE2E2E2E2E2E2E2E2E2E2E2E2E2E20FE2E20F0FE2E20F0F0F0F0FE20F0FE2E20FE2E2E2E2E2E2E2E2E2E2E2E2E22DE2E2E2E2E2E2E2E2E2E2E2E2F5E2E2E2F5F5F5E2E2E2F5E2E2E2E2E2E2E2E2E2E2E2E2E2E2E22DE2E2E2E2E2E2E2E2E2E2E2E2
310
E2E2E2E2E2E2E2E2E2E20F0FE2E2E2E2E2E2E2E2E2E20F0F0F0F0F0FE2E2E2E2E2E2E2E2E2E2E2E2E2E2E2E20FE2E2E2E20F0F0F0FE2E2E2E2E2E2E2E20F0F0FE20FE2E20FE2E2E2E2E2E20FE2E2E2E2E2E20FE2E2E2E2E2E2E2E2E2E2E2E2E2E20FE2E20FE2E2E20F0F0F0F0FE2E20FE2E20FE2E2E2E2E2E2E2E2E2E2E2E2
310
E22DE2E2E2E2E2E2E2E2E2E2E2E2F5E2E2E2F5F5F5E2E2E2E2E2E2E2E2E2E2E2E2E2E2E2E2E2E2E22DE2E2E2E2E2E2E2E2E2E2E2E2E2E2E2E2E2E2E2E2E2E20F0FE2E2E2E2E2E2E2E2E2E20FE2E2E2E2E2E2E2E2E2E2E2E2E2E2E2E2E2E2E2E2E20FE2E2E2E20F0F0FE20FE2E2E2E2E2E2E2E2E2E2E20FE2E20FE2E2E2E2E2
310
E20FE2E2E2E2E2E20FE2E2E2E2E2E2E2E2E2E2E2E2E2E20FE2E20FE2E2E2E2E2E2E2E2E2E20FE2E20FE2E2E2E2E2E2E2E2E2E2E2E2E22DE2E2E2E2E2E2E2E2E2E2E2E2E2E2E2E2F5F5F5E2E2E2E2E2E2E2E2E2E2E2E2E2E2E2E2E2E2E22DE2E2E2E2E2E2E2E2E2E2E2E2E2E2E2E2E2E2E2E2E2E20FF5F5F5F5F5F5F5F5F5F5
310
F5F5E2E2E2E2E2E2E2E2E2E2E2F5F5F5F5F5F5F5F5F5F5F5F5F5E2E2E2E2F5F50FF5F5F5F5F5F5F5F5F5F5F5F5E2E20FE2E2E2E2E2E20FE2E2E2E2E2E20FE2E2E2E2E2E2E2E2E2E2E2E2E2E20FF5F50FF5F5F5F5F5F5F5F5F5F50FF5F50FE2E2E2E2E2E2E2E2E2E2E2E2E22DE2E2E2E2E2E2E2E2E2E2E2E2E2E2E2E2F5F5F5
310
E2E2E2E2E2E2E2E2E2E2E2E2E2E2E2E2E2E2E22DE2E2E2E2E2E2E2E2E2E2E2E2E2E2E2E2E2E2E2E2E2E20FF5E2E2E2E2E2E2E2E2E20FF5F5F5F5F5F5F5F5F5F5F5F5F5E2E2E2E2E2E2E2E2E2F5F5F5F5F5F5E2F5F50FBEF5F5F5F5F5F5F5F5F5F5F5E2E20FE2E2E2E2E2E20FE2E2E2E2E2E20FE2E2E2E2E2E2E2E2E2E2E2E2
310
E2E20FF5E20FE2E2E2E2E2E2E2E2E2E20FE2E20FE2E2E2E2E2E2E2E2E2E2E2E2E22DE2E2E2E2E2E2E2E2E2E2E2E2E2E2E2E2F5F5F5E2E2E2E2E2E2E2E2E2E2E2E2E2E2E2E2E2E2E22DE2E2E2E2E2E2E2E2E2E2E2E2E2E2E2E2E2E2E2E2E2E20FF5E2E2E2E2E2E2E2E2E20FF5E2E2E2E2E2E2E2E2E2E2E2F5E2E2E2E2E2E2E2
310
E2E2F5F5F5F5F5F5F5F5F50FF5F5E2E2E2E2E2E2E2E2E2F5E2E20FE2E2E2E2E2E20FE2E2E2E2E2E20FE2E2E2E2E2E2E2E2E2E2E2E2E2E2F5F5282828E2E2E2E2BEE2E2E2282828E2F5E2E2E2E2E2E2E2E2E2E2E2E2E22DE2E2E2E2E2E2E2E2E2E2E2E2E2E2E2E2F5F5F5E2E2E2E2E2E2E2E2E2E2E2E2E2E2E2E2E2E2E22DE2
310
E2E2E2E2E2E2E2E2E2E2E2E2E2E2E2E20F0F0F0F0FF5F5E2E2E2E2E2E2E2E2E20FF5E2E2E2E2E2E2E2E2E2E2E2F5E2E2E2E2E2E2E2E2E2F5F5F5F5E2F5E2F5F5BE0FF5BEE2E2E2E2E2E2E2E2F5F5F5F50F0F0F0F0F0F0F0F0F0F0F0F0F0F0F0F0F0F0F0FE2E2E2E2E2E2E2E2F5BE28F528BEE2F5F5BEF5F5E228282828F5E2
310
E2E2E2E2E2E2E2E2E2E2E2E22DE2E2E2E2E2E2E2E2E2E2E2E2E2E2E2E2F5F5F5E2E2E2E2E2E2E2E2E2E2E2E2E2E2E2E2E2E2E22DE2E2E2E2E2E2E2E2E2E2E2E2E2E2E2E2E20F0FE2E2E2F5F5E2E2E2E2E2E2BEE20FE2F5E2E2E2E2E2E2E2E2E2E2E2F5E2E2BEE2E2E2E2E2E2F5F5F5F5F5F5E2F5F5F5BEF5F5F5F5F5F5F5E2
310
E2E2F5E2E2F5E2E2E2E2E2E20FE2E2E2E2E2E20FE2E2E2E2E20FE2E2E2E2E2E2E2E2F5F5E228E2F5F5F5E2BEE2F5F5E22828E2F5E2E2E2E2E2E2E2E2E2E2E2E2E22DE2E2E2E2E2E2E2E2E2E2E2E2E2E2E2E2F5F5F5E2E2E2E2E2E2E2E2E2E2E2E2E2E2E2E2E2E2E22DE2E2E2E2E2E2E2E2E2E2E2E2E2E2E2E2E2E20FE20FE2
310
F5F5E2E2E2E2E2F5BEF50FE2F5F5F5F5F5F5F5F5F5F5F5F5F5E2F5BEF5E2E2E2E2E2F5F5F5F5F5F5E2F5F5F5F5F5F5E2E2E2E2F5F5E2E2F5E2E2F5F5F5F5E2E2E20FE2F5F5F5E2E20FE2E2E2E2E20FE2E2E2E2E2E2E2E2F5F5E2E2F5F5E2E2E2BEE2E2F5F5E2E2E2F5E2E2E2E2E2E2E2E2E2E2E2E2E22DE2E2E2E2E2E2E2E2
310
E2E2E2E2E2E2E2E2F5F5F5E2E2E2E2E2E2E2E2E2E2E2E2E2E2E2E2E2E2E22DE2E2E2E2E2E2E2E2E2E2E2E2E2E2E2E2E2E20FE20F0FF5F5E2E2E2E2E2F5BEF5F5E2F5F5F5F5F5F5F5F5F5F5F5F5F5E2F5BEF5F5E2E2E2E2F5F5F5E2E2E2E2F5F5E2F5E2E2E2E2E2E2E2F5F5E2F5E2E2F5E2E2F50F0F0F0F0F0F0F0F0F0F0F0F
310
0F0FE2E20FE2E2E2E2E2E2E2E2F5F5E2E2F5E2E2F5F5BEF5F5E2F5F5E2E2F5E2E2E2E2E2E2E2E2E2E2E2E2E22DE2E2E2E2E2E2E2E2E2E2E2E2E2E2E2E2F5F5F5E2E2E2E2E2E2E2E2E2E2E2E2E2E2E2E2E2E2E22DE2E2E2E2E2E2E2E2E2E2E2E2E2E2E2E20F0F0F0F0F0F0F0F0F0F0F0F0FBEBEBEBEBEF5E2E2E2E2E2E2E2E2
310
E2E2E2F5BEBEBEBEBEBEE2E2E2F5F5F5E2E2E2E2F5F5F5F5E2E2E2E2E2E2E2E2F5F5F5E2E2F5E2E2F5F5F5F50FF5F5F5F5F5F50FE20F0FE20F0FE2E2E2E2E2E2E2E2F5F5E2E2F5E2F5F5F5BEF5E2F5E2F5E2E2F5E2E2E2E2E2E2E2E2E2E2E2E2E22DE2E2E2E2E2E2E2E2E2E2E2E2E2E2E2E2F5F5F5E2E2E2E2E2E2E2E2E2E2
310
E2E2E2E2E2E2E2E2E22DE2E2E2E2E2E2E2E2E2E2E2E2E2E2E2E20F0F0F0F0F0FF5F5BEBEBEBEBEBEBEF5F5BEF5BEBEBEBEBEBEBEBEBEBEBEF5BEF5BEF5BEBEBEBEBEF5F5F5BEBEBEBEF5F5F5F5BEBEBEBEBEBEBEBEF5F5F5BEBEF5BEBEF5F5BEBEF5BEF5BEF5BEBEF5BE0F0F0F0F0FE2E2E2E2E2E2E2E2F5F5E2BEBEBEBEBE
310
BEBEBEBEBEBEBEBEE2F5E2E2E2E2E2E2E2E2E2E2E2E2E22DE2E2E2E2E2E2E2E2E2E2E2E2E2E2E2E2F5F5F5E2E2E2F5E2E2E2E2E2E2E2E2E2E2E2E2E2E2E22DE2E2E2E2E2E2E2E2E2E2E2E2E2E2E2E20F0F0FE20F0FF5F5E2E2E2F5F5BE0F0FE2E2F5E2E2E2E2E2E2E2E2E2E2E2F5E2E20FF5BEF5E2E2E2F5F5F5E2E2E2E2F5
310
F5F5F5E2E2E2E2E2E2E2E2F5F5F5E2E2F5E2E2F5F5E2F5F5E2F5E2F5E2E2F5E20F0F0F0F0FE2E2E2E2E2E2E2E2F5F5E2E2F5E2F5F5F5BEF5E2F5E2F5E2E2F5E2E2E2E2E2E2E2E2E2E2E2E2E22DE2E2E2E2E2E2E2E2E2E2E2E2F5E2E2E2F5F5F5E2E2E2F5E2E2E2E2E2E2E2E2E2E2E2E2E2E2E22DE2E2E2E2E2E2E2E2E2E2E2
310
E2E2E2E2E20F0F0FE20FE2F5F5E2E2BEBEBEBE0FBEE2E2F5E2E2E2E2E2E2E2E2E2E2E2F5E2E20FBEBEBEBEE2E2F5F5F5E2E2E2E2F5F5E2F5E2E2E2E2E2E2E2E2F5E2F5E2E2F5E2E2F50F0F0F0F0F0F0F0F0F0F0F0F0F0FE20F0FE2E2E2E2E2E2E2E2F5F5E2E2F5E2F5E2F5BEF5E2F5E2F5E2E2F5E2E2E2E2E2E2E2E2E2E2E2
310
E2E22DE2E2E2E2E2E2E2E2E2E2E2E2F5E2E2E2F5F5F5E2E2E2F5E2E2E2E2E2E2E2E2E2E2E2E2E2E2E22DE2E2E2E2E2E2E2E2E2E2E2E2E2E2E2E2E2E20FE2E2E2F5F5E2E2E2F5F5BE0FE2E2E2F5E2E2E2E2E2E2E2E2E2E2E2F5E2E20FF5BEF5E2E2E2F5F5F5E2E2E2E2F5F5E2F5F5E2E2E2E2E2E2F5F5E2F5E2E2F5F5F5F5E2
310
E2E2E2E2F5E2F50FE2E2E2E2E2E2E20FE2E2E2E2E2E2E2E2F5F5E2E2F5E2E2F5F5BEF5F5E2F5F5E2E2F5E2E2E2E2E2E2E2E2E2E2E2E2E22DE2E2E2E2E2E2E2E2E2E2E2E2F5E2E2E2F5F5F5E2E2E2F5E2E2E2E2E2E2E2E2E2E2E2E2E2E2E22DE2E2E2E2E2E2E2E2E2E2E2E2E2E2E2E2E2E20FE2E2E2F5F5E2E2E2E2F5BE0FE2
310
E2E2F5E2E2E2E2E2E2E2E2E2E2E2F5E2E20FF5BEF5E2E2E2F5F5F5F5F5F5E2F5F5E2E2F5F5E2E2E2E2F5F5E2E2F5E2E2F5E2E2E2E2E2E2E2E2F5F5F5E20FE2E2E2E2E2E20FE2E2E2E2E2E2E2E2F5F5E2BEE2F5E2E2E2BEE2E2F5F5BEE2E2F5E2E2E2E2E2E2E2E2E2E2E2E2E22DE2E2E2E2E2E2E2E2E2E2E2E2F5E2E2E2F5F5
310
F5E2E2E2F5E2E2E2E2E2E2E2E2E2E2E2E2E2E2E22DE2E2E2E2E2E2E2E2E2E2E2E2E2E2E2E2E20F0FE2E2E2F5F5E2E2E2E2E2BE0FE2E2E2F5E2E2E2E2E2E2E2E2E2E2E2F5E2E20FE2BEE2E2E2E2F5F5F5F5F5F5E2F5F5E2E2E2F5F5F5F5F5F5E2E2E2F5E2E2F5E2E2E2E2E2E2E2E2E2E2E2E20FE2E2E2E2E2E20FE2E2E2E2E2
310
E2E2E2F5F5F52828E2F5F5E2BEF5F5F5E22828E2F5E2E2E2E2E2E2E2E2E2E2E2E2E22DE2E2E2E2E2E2E2E2E2E2E2E2F5E2E2E2F5F5F5E2E2E2F5E2E2E2E2E2E2E2E2E2E2E2E2E2E2E22DE2E2E2E2E2E2E2E2E2E2E2E2E2E2E2E2E20F0F0F0F0FF5F5E2E2E2E2E2E20FE2E2E2F5E2E2E2E2E2E2E2E2E2E2E2F5E2E20FE2E2E2
310
E2E2E2F5F5F5F5E2F5F5F5F5E2E2E2E2E2E2E2E2E2E2E2E2F5F5F5F50F0F0F0F0F0F0F0F0F0F0F0F0F0F0F0F0F0F0F0FE2E2E2E2E2E2E2E2F5BE28BE28BEE2E2F5BEF5E2E228F52828F5E2E2E2E2E2E2E2E2E2E2E2E2E22DE2E2E2E2E2E2E2E2E2E2E2E2F5E2E2E2F5F5F5E2E2E2F5E2E2E2E2E2E2E2E2E2E2E2E2E2E2E22D
310
E2E2E2E2E2E2E2E2E2E2E2E2E2E2E2E2E2E2E2E2E2E2E2F5E2E2E2E2E2E20FE2E2E2F5E2E2E2E2E2E2E2E2E2E2E2F5E2E20FE2E2E2E2E2E2F5F5F5F5F5F5E2F5F5E2E2E2E2E2E2E2E2E2E2E2E2F5E2E2E2E2E2E2E2E2E2E2E2E2E2E2E2E20F0F0F0F0F0F0F0F0FE2E2E2E2E2E2F5F5280F28E2E2E2E2E2E2E2E2E22828E2F5
310
E2E2E2E2E2E2E2E2E2E2E2E2E22DE2E2E2E2E2E2E2E2E2E2E2E2F5E2E2E2F5F5F5E2E2E2F5E2E2E2E2E2E2E2E2E2E2E2E2E2E2E22DE2E2E2E2E2E2E2E2E2E2E2E2E2E2E2E2E2E2E2E2E2E2E2F5E2E2E2E2E2E20FE2E2E2F5F5F5F5F5F5F5F5F5F5F5F5F5E2E20FE2E2E2E2E2E2F5F5F5F5F5F5E2F5F5F5F5F5F5F5F5F5F5F5
310
F5F5F5F5E2E2E2E2E2E2E2E2E2E2E2E2E2E2E2E2E20F0F0F0F0F0F0FE2E2E2E2E2E2E2F5F5F50F0FF5F5F5F5F5F5F5F5F5BEF5F5F5E2E2E2E2E2E2E2E2E2E2E2E2E22DE2E2E2E2E2E2E2E2E2E2E2E2F5E2E2E2F5F5F5E2E2E2F5E2E2E2E2E2E2E2E2E2E2E2E2E2E2E22DE2E2E2E2E2E2E2E2E2E2E2E2E2E2E2E2E2E2E2E2E2
310
E2E20FF5F5F5F5F5F50FF5F5F50FE2E2E2E2E2E2E2E2E2E2E20FF5F50FF5F5F5F5F5F50FF5F5E2E2E2E2E2F5F5F5F5F5F5F5F5F5F5F5F5F5F5E2E2E2E2E2E2E2E2E2E2E2E2E2E2E2E2E20F0F0FE20F0F0FE2E2E2E2E2E2E2E2F5F5F50FF5F5F5F5F5F5F5F5F5F5F5F5E2E2E2E2E2E2E2E2E2E2E2E2E2E22DE2E2E2E2E2E2E2
310
E2E2E2E2E2F5E2E2E2F5F5F5E2E2E2F5E2E2E2E2E2E2E2E2E2E2E2E2E2E2E22DE2E2E2E2E2E2E2E2E2E2E2E2E2E2E2E2E2E2E2E2E2E2E20FE2E2E2E2E2E20FE2E2E20FE2E2E2E2E2E2E2E2E2E2E20FE2E20FE2E2E2E2E2E20FE2E2E2E2E2E2E2E2E2E2E2E2E2E2E2E2E2E2E2E2E2E2E2E2E2E2E2E2E2E2E2E2E2E2E2E2E2E2
310
E2E2E2E2E2E2E2E2E2E2E2E2E2E2E2E2E2E2E20FE2E2E2E2E2E2E2E2E2E2E2E2E2E2E2E2E2E2E2E2E2E2E2E2E22DE2E2E2E2E2E2E2E2E2E2E2E2F5E2E2E2F5F5F5E2E2E2F5E2E2E2E2E2E2E2E2E2E2E2E2E2E2E22DE2E2E2E2E2E2E2E2E2E2E2E2E2E2E2E2E2E2E2E2E2E2E20FE2E2E2E2E2E20FE2E2E20FE2E2E2E2E2E2E2
310
E2E2E2E20FE2E20FE2E2E2E2E2E20FE2E2E2E2E2E2E2E2E2E2E2E2E2E2E2E2E2E2E2E2E2E2E2E2E2E2E2E2E2E2E2E2E2E2E2E2E2E2E2E2E2E2E2E2E2E2E2E2E2E2E2E2E2E2E2E2E20FE2E2E2E2E2E2E2E2E2E2E2E2E2E2E2E2E2E2E2E2E2E2E2E2E22DE2E2E2E2E2E2E2E2E2E2E2E2F5E2E2E2F5F5F5E2E2E2F5E2E2E2E2E2
310
E2E2E2E2E2E2E2E2E2E22DE2E2E2E2E2E2E2E2E2E2E2E2E2E2E2E2E2E2E2E2E2E2E20FE2E2E2E2E2E20FE2E2E20FE2E2E2E2E2E2E2E2E2E2E20FE2E20FE2E2E2E2E2E20FE2E2E2E2E2E2E2E2E2E2E2E2E2E2E2E2E2E2E2E2E2E2E2E2E2E2E2E2E2E2E2E2E2E2E2E2E2E2E2E2E2E2E2E2E2E2E2E2E2E2E2E2E2E2E2E2E2E20F
310
E2E2E2E2E2E2E2E2E2E2E2E2E2E2E2E2E2E2E2E2E2E2E2E22DE2E2E2E2E2E2E2E2E2E2E2E2F5E2E2E2F5F5F5E2E2E2F5E2E2E2E2E2E2E2E2E2E2E2E2E2E2E22DE2E2E2E2E2E2E2E2E2E2E2E2E2E2E2E2E2E2E2E2E2E2E20F0F0F0F0F0F0F0FE2E2E20FE2E2E2E2E2E2E2E2E2E2E20FE2E20F0F0F0F0F0F0F0FE2E2E2E2E2E2
310
E2E2E2E2E2E2E2E2E2E2E2E2E2E2E2E2E2E2E2E2E2E2E2E2E2E2E2E2E2E2E2E2E2E2E2E2E2E2E2E2E2E2E2E2E2E2E2E2E2E2E2E20F0F0F0F0F0F0FE2E2E2E2E2E2E2E2E2E2E2E2E2E2E2E2E2E22DE2E2E2E2E2E2E2E2E2E2E2E2F5E2E2E2F5F5F5E2E2E2F5E2E2E2E2E2E2E2E2E2E2E2E2E2E2E22DE2E2E2E2E2E2E2E2E2E2
310
E2E2E2E2E2E2E2E2E2E2E2E2E20FE2E20F0F0FE2E2E2E2E20FE2E2E2E2E2E2E2E2E2E2E20FE2E2E2E2E20F0F0FE20FE2E2E2E2E2E2E2E2E2E2E2E2E2E2E2E2E2E2E2E2E2E2E2E2E2E2E2E2E2E2E2E2E2E2E2E2E2E2E2E2E2E2E2E2E2E2E2E2E2E2E2E2E2E2E2E2E2E20FE20F0F0F0F0FE2E2E2E2E2E2E2E2E2E2E2E2E2E2E2
310
E2E2E22DE2E2E2E2E2E2E2E2E2E2E2E2F5E2E2E2F5F5F5E2E2E2F5E2E2E2E2E2E2E2E2E2E2E2E2E2E2E22DE2E2E2E2E2E2E2E2E2E2E2E2E2E2E2E2E2E2E2E2E2E2E20FE2E2E2E2E2E2E2E2E2E20FE2E2E2E2E2E2E2E2E2E2E20FE2E2E2E2E2E2E2E2E20FE2E2E2E2E2E2E2E2E2E2E2E2E2E2E2E2E2E2E2E2E2E2E2E2E2E2E2
310
E2E2E2E2E2E2E2E2E2E2E2E2E2E2E2E2E2E2E2E2E2E2E2E2E2E2E2E2E2E2E2E2E2E2E2E2E2E2E2E2E2E2E2E2E2E2E2E2E2E2E2E2E2E2E2E22DE2E2E2E2E2E2E2E2E2E2E2E2F5E2E2E2F5F5F5E2E2E2F5E2E2E2E2E2E2E2E2E2E2E2E2E2E2E22DE2E2E2E2E2E2E2E2E2E2E2E2E2E2E2E2E2E2E2E2E2E2E20F0F0F0F0F0F0F0F
310
0F0F0F0FE2E2E2E2E2E2E2E2E2E2E20F0F0F0F0F0F0F0F0F0F0FE2E2E2E2E2E2E2E2E2E2E2E2E2E2E2E2E2E2E2E2E2E2E2E2E2E2E2E2E2E2E2E2E2E2E2E2E2E2E2E2E2E2E2E2E2E2E2E2E2E2E2E2E2E2E2E2E2E2E2E2E2E2E2E2E2E2E2E2E2E2E2E2E2E2E2E2E2E2E2E2E2E2E22DE2E2E2E2E2E2E2E2E2E2E2E2F5E2E2E2F5
310
F5F5E2E2E2F5E2E2E2E2E2E2E2E2E2E2E2E2E2E2E22DE2E2E2E2E2E2E2E2E2E2E2E2E2E2E2E2E2E2E2E2E2E2E20F0FE2E20F0F0F0FE2E20F0FE2E2E2E2E2E2E2E2E2E2E20F0FE2E20F0F0FE2E20F0FE2E2E2E2E2E2E2E2E2E2E2E2E2E2E2E2E2E2E2E2E2E2E2E2E2E2E2E2E2E2E2E2E2E2E2E2E2E2E2E2E2E2E2E2E2E2E2E2
310
E2E2E2E2E2E2E2E2E2E2E2E2E2E2E2E2E2E2E2E2E2E2E2E2E2E2E2E2E2E2E2E2E2E2E22DE2E2E2E2E2E2E2E2E2E2E2E2F5E2E2E2F5F5F5E2E2E2F5E2E2E2E2E2E2E2E2E2E2E2E2E2E2E22DE2E2E2E2E2E2E2E2E2E2E2E2E2E2E2E2E2E2E2E2E2E2E2E2E2E2E20F0F0F0FE2E2E2E2E2E2E2E2E2E2E2E2E2E2E2E2E2E2E20F0F
310
0FE2E2E2E2E2E2E2E2E2E2E2E2E2E2E2E2E2E2E2E2E2E2E2E2E2E2E2E2E2E2E2E2E2E2E2E2E2E2E2E2E2E2E2E2E2E2E2E2E2E2E2E2E2E2E2E2E2E2E2E2E2E2E2E2E2E2E2E2E2E2E2E2E2E2E2E2E2E2E2E2E2E2E2E2E2E2E22DE2E2E2E2E2E2E2E2E2E2E2E2F5E2E2E2F5F5F5E2E2E2E2E2E2E2E2E2E2E2E2E2E2E2E2E2E2E2
310
2DE2E2E2E2E2E2E2E2E2E2E2E2E2E2E2E2E2E2E2E2E2E2E2E2E2E2E2E2E2E2E2E2E2E2E2E2E2E2E2E2E2E2E2E2E2E2E2E2E2E2E2E2E2E2E2E2E2E2E2E2E2E2E2E2E2E2E2E2E2E2E2E2E2E2E2E2E2E2E2E2E2E2E2E2E2E2E2E2E2E2E2E2E2E2E2E2E2E2E2E2E2E2E2E2E2E2E2E2E2E2E2E2E2E2E2E2E2E2E2E2E2E2E2E2E2E2
310
E2E2E2E2E2E2E2E2E2E2E2E2E2E22DE2E2E2E2E2E2E2E2E2E2E2E2E2E2E2E2F5F5F5E2E2E2E2E2E2E2E2E2E2E2E2E2E2E2E2E2E2E22DE2E2E2E2E2E2E2E2E2E2E2E2E2E2E2E2E2E2E2E2E2E2E2E2E2E2E2E2E2E2E2E2E2E2E2E2E2E2E2E2E2E2E2E2E2E2E2E2E2E2E2E2E2E2E2E2E2E2E2E2E2E2E2E2E2E2E2E2E2E2E2E2E2
310
E2E2E2E2E2E2E2E2E2E2E2E2E2E2E2E2E2E2E2E2E2E2E2E2E2E2E2E2E2E2E2E2E2E2E2E2E2E2E2E2E2E2E2E2E2E2E2E2E2E2E2E2E2E2E2E2E2E2E2E2E2E2E2E2E2E2E22DE2E2E2E2E2E2E2E2E2E2E2E2E2E2E2E2F5F5F5E2E2E2E2E2E2E2E2E2E2E2E2E2E2E2E2E2E2E22DE2E2E2E2E2E2E2E2E2E2E2E2E2E2E2E2E2E2E2E2
310
E2E2E2E2E2E2E2E2E2E2E2E2E2E2E2E2E2E2E2E2E2E2E2E2E2E2E2E2E2E2E2E2E2E2E2E2E2E2E2E2E2E2E2E2E2E2E2E2E2E2E2E2E2E2E2E2E2E2E2E2E2E2E2E2E2E2E2E2E2E2E2E2E2E2E2E2E2E2E2E2E2E2E2E2E2E2E2E2E2E2E2E2E2E2E2E2E2E2E2E2E2E2E2E2E2E2E2E2E2E2E2E2E2E2E2E2E2E2E2E22DE2E2E2E2E2E2
310
E2E2E2E2E2E2E2E2E2E2F5F5F5E2E2E2E2E2E2E2E2E2E2E2E2E2E2E2E2E2E2E22DE2E2E2E2E2E2E2E2E2E2E2E2E2E2E2E2E2E2E2E2E2E2E2F5F5F5F5F5F5F5F5F5F5F5F5E2E2E2E2E2E2DCE2E2E2E2F5F5F5F5F5F5F5F5F5F5F5F5F5E2E2E2E2F5F5F5F5F5F5F5F5F5F5F5F5F5F5F5E2E2E2E2E2E2E2E2E2E2E2E2E2E2E2E2
310
E2E2E2E2E2E2E2E2E2E2E2E2E2E2E2E2E2E2E2E2E2E2E2E2E2E2E2E2E2E2E2E2E2E2E2E2E2E2E2E2E2E2E2E2E2E22DE2E2E2E2E2E2E2E2E2E2E2E2E2E2E2E2F5F5F5E2E2E2E2E2E2E2E2E2E2E2E2E2E2E2E2E2E2E22DE2E2E2E2E2E2E2E2E2E2E2E2E2E2E2E2E2E2E2E2E2E2E2F5E2E2E2E2E2E2E2E2E2E2F5F5F5F5F5F5F5
310
F5F5F5F5F5F5E2E2E2E2E2E2E2E2E2F5F5F5F5F5F5E2F5F5F5F5F5F5F5F5F5F5F5F5F5F5F5E2E2E2E2E2E2E2E2E2E2E2E2E2E2E2E2E2E2E2E2E2E2E2E2E2E2E2E2E2E2E2E2E2E2E2E2E2E2E2E2E2E2E2E2E2E2E2E2E2E2E2E2E2E2E2E2E2E2E2E2E2E22DE2E2E2E2E2E2E2E2E2E2E2E2E2E2E2E2F5F5F5E2E2E2E2E2E2E2E2
310
E2E2E2E2E2E2E2E2E2E2E22DE2E2E2E2E2E2E2E2E2E2E2E2E2E2E2E2E2E2E2E2E2E2E2F5E2E2E2E2E2E2E2E2E2E2F5E2E2E2E2E2E2DCE2E2E2E2F5E2E2E2E2E2E2E2E2E2F5F5F5F5E2F5F5F5F5E2E2F5F5F5F5F5F5F5E2E2E2F5E2E2E2E2E2E2E2E2E2E2E2E2E2E2E2E2E2E2E2E2E2E2E2E2E2E2E2E2E2E2E2E2E2E2E2E2E2
310
E2E2E2E2E2E2E2E2E2E2E2E2E2E2E2E2E2E2E2E2E2E2E2E2E22DE2E2E2E2E2E2E2E2E2E2E2E2E2E2E2E2F5F5F5E2E2E2E2E2E2E2E2E2E2E2E2E2E2E2E2E2E2E22DE2E2E2E2E2E2E2E2E2E2E2E2E2E2E2E2E2E2E2E2E2E2F5F5E2E2E2E2E2E2E2E2E2E2F5E2E2E2E2E2E2DCE2E2E2E2F5E2E2E2E2E2E2E2E2E2F5F5F5F5F5F5
310
E2F5F5E2F5F5F5F5E2E2E2F5F5E2E2F5F5F5F5E2E2E2E2E2E2E2E2E2E2E2E2E2E2E2E2E2E2E2E2E2E2E2E2E2E2E2E2E2E2E2E2E2E2E2E2E2E2E2E2E2E2E2E2E2E2E2E2E2E2E2E2E2E2E2E2E2E2E22DE2E2E2E2E2E2E2E2E2E2E2E2E2E2E2E2F5F5F5E2E2E2E2E2E2E2E2E2E2E2E2E2E2E2E2E2E2E22DE2E2E2E2E2E2E2E2E2
310
E2E2E2E2E2E2E2E2E2E2E2E2E2F5F5E2E2E2E2E2E2BEE2E2E2F5E2E2E2E2E2E2DCE2E2E2E2F5E2E2BEE2E2E2E2E2E2F5F5F5F5F5F5E2F5F5E2F5F5E2E2E2E2E2E2F5F5E2F5E2E2F5E2E2E2E2E2E2E2E2E2E2E2E2E2E2E2E2E2E2E2E2E2E2E2E2E2E2E2E2E2E2E2E2E2E2E2E2E2E2E2E2E2E2E2E2E2E2E2E2E2E2E2E2E2E2E2
310
E2E2E2E22DE2E2E2E2E2E2E2E2E2E2E2E2E2E2E2E2F5F5F5E2E2E2E2E2E2E2E2E2E2E2E2E2E2E2E2E2E2E22DE2E2E2E2E2E2E2E2E2E2E2E2E2E2E2E2E2E2E2E2E2E2F5F5E2E2E2E2E2F5BEF5E2E2F5F5F5F5F5F5F5F5F5F5F5F5F5E2F5BEF5E2E2E2E2E2F5F5F5E2E2E2E2F5F5E2F5E2E2E2E2E2E2E2F5F5F5F5E2E2F5F5F5
310
F5E2E2E2E2E2F5F5F5E2E2E2E2E2E2E2E2E2E2E2E2E2E2E2E2E2E2E2E2E2E2E2E2E2E2E2E2E2E2E2E2E2E2E2E2E2E2E2E2E2E2E2E2E2E2E2E22DE2E2E2E2E2E2E2E2E2E2E2E2E2E2E2E2F5F5F5E2E2E2E2E2E2E2E2E2E2E2E2E2E2E2E2E2E2E22DE2E2E2E2E2E2E2E2E2E2E2E2E2E2E2E2E2E2E2E2E2E2F5F5E2E2E2E2E2F5
310
BEF5F5E2F5F5F5F5F5F5F5F5F5F5F5F5F5E2F5BEF5F5E2E2E2E2F5F5F5E2E2E2E2F5F5E2F5E2E2E2E2E2E2E2F5F5F5F5E2E2F5E2E2F5F5F5F5F5F5F5E2F5F5F5F5E2E2E2E2E2E2E2E2E2E2E2E2E2E2E2E2E2E2E2E2E2E2E2E2E2E2E2E2E2E2E2E2E2E2E2E2E2E2E2E2E2E2E2E2E22DE2E2E2E2E2E2E2E2E2E2E2E2E2E2E2E2
310
F5F5F5E2E2E2F5E2E2E2E2E2E2E2E2E2E2E2E2E2E2E22DE2E2E2E2E2E2E2E2E2E2E2E2E2E2E2E2E2E2E2E2E2E2F5F5E2E2E2E2BEBEBEBEBEBEF5E2E2E2E2E2E2DCE2E2E2E2F5BEBEBEBEBEBEE2E2E2F5F5F5E2E2E2E2F5F5E2F5E2E2E2E2E2E2E2F5F5F5F5E2E2F5E2E2F5F5F5F5F5E2F5E2F5E2E2F5E2E2E2E2E2E2E2E2E2
310
E2E2E2E2E2E2E2E2E2E2E2E2E2E2E2E2E2E2E2E2E2E2E2E2E2E2E2E2E2E2E2E2E2E2E2E22DE2E2E2E2E2E2E2E2E2E2E2E2F5E2E2E2F5F5F5E2E2E2F5E2E2E2E2E2E2E2E2E2E2E2E2E2E2E22DE2E2E2E2E2E2E2E2E2E2E2E2E2E2E2E2E2E2E2E2E2BEF5F5BEBEBEBEBEBEBEF5F5BEF5BEBEBEBEBEBEDCBEBEBEBEF5BEF5BEF5
310
BEBEBEBEBEF5F5F5BEBEBEBEF5F5BEF5F5BEBEBEBEBEBEF5BEBEF5BEBEF5BEBEF5F5BEBEF5BEF5F5F5BEBEF5BEE2E2E2E2E2E2E2E2E2E2E2E2E2E2E2E2E2E2E2E2E2E2E2E2E2E2E2E2E2E2E2E2E2E2E2E2E2E2E2E2E2E2E2E22DE2E2E2E2E2E2E2E2E2E2E2E2F5E2E2E2F5F5F5E2E2E2F5E2E2E2E2E2E2E2E2E2E2E2E2E2E2
310
E22DE2E2E2E2E2E2E2E2E2E2E2E2E2E2E2E2E2E2E2E2E2E2F5F5E2E2E2F5F5BEBEE2E2E2F5E2E2E2E2E2E2DCE2E2E2E2F5E2E2BEF5BEF5E2E2E2F5F5F5E2E2E2E2F5F5E2E2F5F5F5E2E2E2F5F5E2E2F5E2E2F5E2E2F5F5F5F5F5E2F5E2F5E2E2F5E2E2E2E2E2E2E2E2E2E2E2E2E2E2E2E2E2E2E2E2E2E2E2E2E2E2E2E2E2E2
310
E2E2E2E2E2E2E2E2E2E2E2E2E2E2E22DE2E2E2E2E2E2E2E2E2E2E2E2F5E2E2E2F5F5F5E2E2E2F5E2E2E2E2E2E2E2E2E2E2E2E2E2E2E22DE2E2E2E2E2E2E2E2E2E2E2E2E2E2E2E2E2E2E2E2E2E2F5F5E2E2BEBEBEBEBEBEE2E2F5E2E2E2E2E2E2DCE2E2E2E2F5E2E2BEBEBEBEBEE2E2F5F5F5E2E2E2E2F5F5E2E2F5F5F5F5F5
310
F5E2E2E2E2F5E2E2F5E2E2F5F5F5F5F5F5F5E2F5F5F5F5E2E2E2E2E2E2E2E2E2E2E2E2E2E2E2E2E2E2E2E2E2E2E2E2E2E2E2E2E2E2E2E2E2E2E2E2E2E2E2E2E2E2E2E2E22DE2E2E2E2E2E2E2E2E2E2E2E2F5E2E2E2F5F5F5E2E2E2F5E2E2E2E2E2E2E2E2E2E2E2E2E2E2E22DE2E2E2E2E2E2E2E2E2E2E2E2E2E2E2E2E2E2E2
310
E2E2E2F5F5E2E2E2F5F5BEF5E2E2E2F5E2E2E2E2E2E2DCE2E2E2E2F5E2E2E2F5BEF5E2E2E2F5F5F5E2E2E2E2F5F5E2E2E2F5F5E2E2E2E2E2E2E2F5E2E2F5F5F5F5E2E2E2E2E2F5F5F5E2E2E2E2E2E2E2E2E2E2E2E2E2E2E2E2E2E2E2E2E2E2E2E2E2E2E2E2E2E2E2E2E2E2E2E2E2E2E2E2E2E2E2E2E2E2E2E22DE2E2E2E2E2
310
E2E2E2E2E2E2E2F5E2E2E2F5F5F5E2E2E2F5E2E2E2E2E2E2E2E2E2E2E2E2E2E2E22DE2E2E2E2E2E2E2E2E2E2E2E2E2E2E2E2E2E2E2E2E2E2F5F5E2E2E2E2F5BEE2E2E2E2F5E2E2E2E2E2E2DCE2E2E2E2F5E2E2E2E2BEE2E2E2E2F5F5F5F5F5F5E2F5F5E2E2E2E2E2E2E2E2E2E2E2E2F5E2E2F5E2E2E2E2E2E2E2E2E2E2E2E2
310
E2E2E2E2E2E2E2E2E2E2E2E2E2E2E2E2E2E2E2E2E2E2E2E2E2E2E2E2E2E2E2E2E2E2E2E2E2E2E2E2E2E2E2E2E2E2E22DE2E2E2E2E2E2E2E2E2E2E2E2F5E2E2E2F5F5F5E2E2E2F5E2E2E2E2E2E2E2E2E2E2E2E2E2E2E22DE2E2E2E2E2E2E2E2E2E2E2E2E2E2E2E2E2E2E2E2E2E2F5F5E2E2E2E2E2E2E2E2E2E2F5E2E2E2E2E2
310
E2DCE2E2E2E2F5E2E2E2E2E2E2E2E2E2F5F5F5F5E2F5E2F5F5E2E2E2E2E2E2E2E2E2E2E2E2F5E2E2F5E2E2E2E2E2E2E2E2E2E2E2E2E2E2E2E2E2E2E2E2E2E2E2E2E2E2E2E2E2E2E2E2E2E2E2E2E2E2E2E2E2E2E2E2E2E2E2E2E2E2E2E2E2E2E2E2E2E2E22DE2E2E2E2E2E2E2E2E2E2E2E2F5E2E2E2F5F5F5E2E2E2F5E2E2E2
310
E2E2E2E2E2E2E2E2E2E2E2E22DE2E2E2E2E2E2E2E2E2E2E2E2E2E2E2E2E2E2E2E2E2E2F5F5E2E2E2E2E2E2E2E2E2E2F5E2E2E2E2E2E2DCE2E2E2E2F5E2E2E2E2E2E2E2E2E2F5F5F5F5F5F5F5F5F5E2E2E2E2E2E2E2E2E2E2E2E2F5F5F5F5E2E2E2E2E2E2E2E2E2E2E2E2E2E2E2E2E2E2E2E2E2E2E2E2E2E2E2E2E2E2E2E2E2
310
E2E2E2E2E2E2E2E2E2E2E2E2E2E2E2E2E2E2E2E2E2E2E2E2E2E22DE2E2E2E2E2E2E2E2E2E2E2E2F5E2E2E2F5F5F5E2E2E2F5E2E2E2E2E2E2E2E2E2E2E2E2E2E2E22DE2E2E2E2E2E2E2E2E2E2E2E2E2E2E2E2E2E2E2E2E2E2E2F5E2E2E2E2E2E2E2E2E2E2F5E2E2E2E2E2E2DCE2E2E2E2F5E2E2E2E2E2E2E2E2E2F5F5F5F5E2
310
F5E2F5F5E2E2E2E2E2E2E2E2E2E2E2E2F5E2E2E2E2E2E2E2E2E2E2E2E2E2E2E2E2E2E2E2E2E2E2E2E2E2E2E2E2E2E2E2E2E2E2E2E2E2E2E2E2E2E2E2E2E2E2E2E2E2E2E2E2E2E2E2E2E2E2E2E2E2E22DE2E2E2E2E2E2E2E2E2E2E2E2F5E2E2E2F5F5F5E2E2E2F5E2E2E2E2E2E2E2E2E2E2E2E2E2E2E22DE2E2E2E2E2E2E2E2
310
E2E2E2E2E2E2E2E2E2E2E2E2E2E2E2F5E2E2E2E2E2E2E2E2E2E2F5F5F5F5F5F5F5F5F5F5F5F5F5E2E2E2E2E2E2E2E2E2F5F5F5F5F5F5E2F5F5F5F5F5F5F5F5F5F5F5F5F5F5F5E2E2E2E2E2E2E2E2E2E2E2E2E2E2E2E2E2E2E2E2E2E2E2E2E2E2E2E2E2E2E2E2E2E2E2E2E2E2E2E2E2E2E2E2E2E2E2E2E2E2E2E2E2E2E2E2E2
310
E2E2E2E2E22DE2E2E2E2E2E2E2E2E2E2E2E2F5E2E2E2F5F5F5E2E2E2F5E2E2E2E2E2E2E2E2E2E2E2E2E2E2E22DE2E2E2E2E2E2E2E2E2E2E2E2E2E2E2E2E2E2E2E2E2E2E2F5F5F5F5F5F5F5F5F5F5F5F5E2E2E2E2E2E2DCE2E2E2E2F5F5F5F5F5F5F5F5F5F5F5F5F5E2E2E2E2E2F5F5F5F5F5F5F5F5F5F5F5F5F5F5E2E2E2E2
310
E2E2E2E2E2E2E2E2E2E2E2E2E2E2E2E2E2E2E2E2E2E2E2E2E2E2E2E2E2E2E2E2E2E2E2E2E2E2E2E2E2E2E2E2E2E2E2E2E2E2E2E2E2E2E2E2E2E22DE2E2E2E2E2E2E2E2E2E2E2E2F5E2E2E2F5F5F5E2E2E2F5E2E2E2E2E2E2E2E2E2E2E2E2E2E2E22DE2E2E2E2E2E2E2E2E2E2E2E2E2E2E2E2E2E2E2E2E2E2E2E2E2E2E2E2E2
310
E2E2E2E2E2E2E2E2E2E2E2E2DCDCDCDCDCDCDCE2E2E2E2E2E2E2E2E2E2E2E2E2E2E2E2E2E2E2E2E2E2E2E2E2E2E2E2E2E2E2E2E2E2E2E2E2E2E2E2E2E2E2E2E2E2E2E2E2E2E2E2E2E2E2E2E2E2E2E2E2E2E2E2E2E2E2E2E2E2E2E2E2E2E2E2E2E2E2E2E2E2E2E2E2E2E2E2E2E2E2E22DE2E2E2E2E2E2E2E2E2E2E2E2F5E2E2
310
E2F5F5F5E2E2E2F5E2E2E2E2E2E2E2E2E2E2E2E2E2E2E22DE2E2E2E2E2E2E2E2E2E2E2E2E2E2E2E2E2E2E2E2E2E2E2E2E2E2E2E2E2E2E2E2E2E2E2E2E2E2E2E2E22DE2E2DCDCDCE2E2E2E2E2E2E2E2E2E2E2E2E2E2E2E2E2E2E2E2E2E2E2E2E2E2E2E2E2E2E2E2E2E2E2E2E2E2E2E2E2E2E2E2E2E2E2E2E2E2E2E2E2E2E2E2
310
E2E2E2E2E2E2E2E2E2E2E2E2E2E2E2E2E2E2E2E2E2E2E2E2E2E2E2E2E2E2E2E2E2E2E2E2E22DE2E2E2E2E2E2E2E2E2E2E2E2F5E2E2E2F5F5F5E2E2E2F5E2E2E2E2E2E2E2E2E2E2E2E2E2E2E22DE2E2E2E2E2E2E2E2E2E2E2E2E2E2E2E2E2E2E2E2E2E2E2E2E2E2E2E2E2E2E2E2E2E2E2E2E2E2E2E2E22DE2E2DCDCE2E2E2E2
310
E2E2E2E2E2E2E2E2E2E2E2E2E2E2E2E2E2E2E2E2E2E2E2E2E2E2E2E2E2E2E2E2E2E2E2E2E2E2E2E2E2E2E2E2E2E2E2E2E2E2E2E2E2E2E2E2E2E2E2E2E2E2E2E2E2E2E2E2E2E2E2E2E2E2E2E2E2E2E2E2E2E2E2E2E2E2E2E2E2E22DE2E2E2E2E2E2E2E2E2E2E2E2F5E2E2E2F5F5F5E2E2E2F5E2E2E2E2E2E2E2E2E2E2E2E2E2
310
E2E22DE2E2E2E2E2E2E2E2E2E2E2E2E2E2E2E2E2E2E2E2E2E2E2E2E2E2E2E2E2E2E2E2E2E2E2E2E2E2E2E2E22DE2E2E2E2E2E2E2E2E2E2E2E2E2E2E2E2E2E2E2E2E2E2E2E2E2E2E2E2E2E2E2E2E2E2E2E2E2E2E2E2E2E2E2E2E2E2E2E2E2E2E2E2E2E2E2E2E2E2E2E2E2E2E2E2E2E2E2E2E2E2E2E2E2E2E2E2E2E2E2E2E2E2
310
E2E2E2E2E2E2E2E2E2E2E2E2E2E2E2E22DE2E2E2E2E2E2E2E2E2E2E2E2F5E2E2E2F5F5F5E2E2E2F5E2E2E2E2E2E2E2E2E2E2E2E2E2E2E22DE2E2E2E2E2E2E2E2E2E2E2E2E2E2E2E2E2E2E2E2E2E2E2E2E2E2E2E2E2E2E2E2E2E2E2E2E2E2E2E2E22DE2E2E2E2E2E2E2E2E2E2E2E2E2E2E2E2E2E2E2E2E2E2E2E2E2E2E2E2E2
310
E2E2E2E2E2E2E2E2E2E2E2E2E2E2E2E2E2E2E2E2E2E2E2E2E2E2E2E2E2E2E2E2E2E2E2E2E2E2E2E2E2E2E2E2E2E2E2E2E2E2E2E2E2E2E2E2E2E2E2E2E2E2E2E2E2E2E2E2E22DE2E2E2E2E2E2E2E2E2E2E2E2F5E2E2E2F5F5F5E2E2E2F5E2E2E2E2E2E2E2E2E2E2E2E2E2E2E22DE2E2E2E2E2E2E2E2E2E2E2E2E2E2E2E2E2E2
310
E2E2E2E2E2E2E2E2E2E2E2E2E2E2E2E2E2E2E2E2E2E2E22DE2E2E2E2E2E2E2E2E2E2E2E2E2E2E2E2E2E2E2E2E2E2E2E2E2E2E2E2E2E2E2E2E2E2E2E2E2E2E2E2E2E2E2E2E2E2E2E2E2E2E2E2E2E2E2E2E2E2E2E2E2E2E2E2E2E2E2E2E2E2E2E2E2E2E2E2E2E2E2E2E2E2E2E2E2E2E2E2E2E2E2E2E2E2E2E2E2E22DE2E2E2E2
310
E2E2E2E2E2E2E2E2F5E2E2E2F5F5F5E2E2E2E2E2E2E2E2E2E2E2E2E2E2E2E2E2E2E22DE2E2E2E2E2E2E2E2E2E2E2E2E2E2E2E2E2E2E2E2E2E2E2E2E2E2E2E2E2E2E2E2E2E2E2E2E2E2E2E2E22DE2E2E2E2E2E2E2E2E2E2E2E2E2E2E2E2E2E2E2E2E2E2E2E2E2E2E2E2E2E2E2E2E2E2E2E2E2E2E2E2E2E2E2E2E2E2E2E2E2E2
310
E2E2E2E2E2E2E2E2E2E2E2E2E2E2E2E2E2E2E2E2E2E2E2E2E2E2E2E2E2E2E2E2E2E2E2E2E2E2E2E2E2E2E2E2E2E2E2E22DE2E2E2E2E2E2E2E2E2E2E2E2E2E2E2E2F5F5F5E2E2E2E2E2E2E2E2E2E2E2E2E2E2E2E2E2E2E22DE2E2E2E2E2E2E2E2E2E2E2E2E2E2E2E2E2E2E2E2E2E2E2E2E2E2E2E2E2E2E2E2E2E2E2E2E2E2E2
310
E2E22D2D2D2D2D2D2DE2E2E2E2E2E2E2E2E2E2E2E2E2E2E2E2E2E2E2E2E2E2E2E2E2E2E2E2E2E2E2E2E2E2E2E2E2E2E2E2E2E2E2E2E2E2E2E2E2E2E2E2E2E2E2E2E2E2E2E2E2E2E2E2E2E2E2E2E2E2E2E2E2E2E2E2E2E2E2E2E2E2E2E2E2E2E2E2E2E2E2E22DE2E2E2E2E2E2E2E2E2E2E2E2E2E2E2E2F5F5F5E2E2E2E2E2E2
310
E2E2E2E2E2E2E2E2E2E2E2E2E22DE2E2E2E2E2E2E2E2E2E2E2E2E2E2E2E2E2E2E2E2E2E2E2E2E2E2E2E2E2E2E2E2E2E2E2E2E2E2E2E2E22D2D2D2D2D2D2DE2E2E2E2E2E2E2E2E2E2E2E2E2E2E2E2E2E2E2E2E2E2E2E2E2E2E2E2E2E2E2E2E2E2E2E2E2E2E2E2E2E2E2E2E2E2E2E2E2E2E2E2E2E2E2E2E2E2E2E2E2E2E2E2E2
310
E2E2E2E2E2E2E2E2E2E2E2E2E2E2E2E2E2E2E2E2E2E2E2E2E2E2E22DE2E2E2E2E2E2E2E2E2E2E2E2E2E2E2E2F5F5F5E2E2E2E2E2E2E2E2E2E2E2E2E2E2E2E2E2E2E22DE2E2E2E2E2E2E2E2E2E2E2E2E2E2E2E2E2E2E2E2E2E2E2E2E2E2E2E2E2E2E2E2E2E2E2E2E2E2E2E2E2E2E2E2E2E2E2E2E2E2E2E2E2E2E2E2E2E2E2E2
310
E2E2E2E2E2E2E2E2E2E2E2E2E2E2E2E2E2E2E2E2E2E2E2E2E2E2E2E2E2E2E2E2E2E2E2E2E2E2E2E2E2E2E2E2E2E2E2E2E2E2E2E2E2E2E2E2E2E2E2E2E2E2E2E2E2E2E2E2E2E2E2E2E2E2E2E2E2E2E2E22DE2E2E2E2E2E2E2E2E2E2E2E2E2E2E2E2F5F5F5E2E2E2E2E2E2E2E2E2E2E2E2E2E2E2E2E2E2E22DE2E2E2E2E2E2E2
310
E2E2E2E2E2E2E2E2E2E2E2E2E2E2E2E2E2E2E2E2E2E2E2E2E2E2E2E2E2E2E2E2E2E2E2E2E2E2E2E2E2E2E2E2E2E2E2E2E2E2E2E2E2E2E2E2E2E2E2E2E2E2E2E2E2E2E2E2E2E2E2E2E2E2E2E2E2E2E2E2E2E2E2E2E2E2E2E2E2E2E2E2E2E2E2E2E2E2E2E2E2E2E2E2E2E2E2E2E2E2E2E2E2E2E2E2E2E2E2E2E2E2E2E2E2E2E2
310
E2E2E2E2E2E22DE2E2E2E2E2E2E2E2E2E2E2E2E2E2E2E2F5F5F5E2E2E2E2E2E2E2E2E2E2E2E2E2E2E2E2E2E2E22DE2E2E2E2E2E2E2E2E2E2E2E2E2E2E2E2E2E2E2E2E2E2E2E2E2E2E2E2E2E2E2E2E2E2E2E2E2E2E2E2E2E2E2E2E2E2E2E2E2E2E2E2E2E2E2E2E2E2E2E2E2E2E2E2E2E2E2E2E2E2E2E2E2E2E2E2E2E2E2E2E2
310
E2E2E2E2E2E2E2E2E2E2E2E2E2E2E2E2E2E2E2E2E2E2E2E2E2E2E2E2E2E2E2E2E2E2E2E2E2E2E2E2E2E2E2E2E2E2E2E2E2E2E2E2E2E2E2E2E2E2E22DE2E2E2E2E2E2E2E2E2E2E2E2E2E2E2E2F5F5F5E2E2E2E2E2E2E2E2E2E2E2E2E2E2E2E2E2E2E22DE2E2E2E2E2E2E2E2E2E2E2E2E2E2E2E2E2E2E2E2E2E2E2E2E2E2E2E2
310
E2E2E2E2E2E2E2E2E2E2E2E2E2E2E2E2E2E2E2E2E2E2E2E2E2E2E2E2E2E2E2E2E2E2E2E2E2E2E2E2E2E2E2E2E2E2E2E2E2E2E2E2E2E2E2E2E2E2E2E2E2E2E2E2E2E2E2E2E2E2E2E2E2E2E2E2E2E2E2E2E2E2E2E2E2E2E2E2E2E2E2E2E2E2E2E2E2E2E2E2E2E2E2E2E2E2E2E2E2E2E2E22DE2E2E2E2E2E2E2E2E2E2E2E2E2E2
310
E2E2F5F5F5E2E2E2E2E2E2E2E2E2E2E2E2E2E2E2E2E2E2E22DE2E2E2E2E2E2E2E2E2E2E2E2E2E2E2E2E2E2E2E2E2E2E2E2E2E2E2E2E2E2E2E2E2E2E2E2E2E2E2E2E2E2E2E2E2E2E2E2E2E2E2E2E2E2E2E2E2E2E2E2E2E2E2E2E2E2E2E2E2E2E2E2E2E2E2E2E2E2E2E2E2E2E2E2E2E2E2E2E2E2E2E2E2E2E2E2E2E2E2E2E2E2
310
E2E2E2E2E2E2E2E2E2E2E2E2E2E2E2E2E2E2E2E2E2E2E2E2E2E2E2E2E2E2E2E2E2E2E2E2E2E22DE2E2E2E2E2E2E2E2E2E2E2E2E2E2E2E2F5F5F5E2E2E2E2E2E2E2E2E2E2E2E2E2E2E2E2E2E2E22DE2E2E2E2E2E2E2E2E2E2E2E2E2E2E2E2E2E2E2E2E2E2E2E2E2E2E2E2E2E2E2E2E2E2E2E2E2E2E2E2E2E2E2E2E2E2E2E2E2
310
E2E2E2E2E2E2E2E2E2E2E2E2E2E2E2E2E2E2E2E2E2E2E2E2E2E2E2E2E2E2E2E2E2E2E2E2E2E2E2E2E2E2E2E2E2E2E2E2E2E2E2E2E2E2E2E2E2E2E2E2E2E2E2E2E2E2E2E2E2E2E2E2E2E2E2E2E2E2E2E2E2E2E2E2E2E2E2E2E2E2E22DE2E2E2E2E2E2E2E2E2E2E2E2E2E2E2E2F5F5F5E2E2E2E2E2E2E2E2E2E2E2E2E2E2E2E2
310
E2E2E22DE2E2E2E2E2E2E2E2E2E2E2E2E2E2E2E2E2E2E2E2E2E2E2E2E2E2E2E2E2E2E2E2E2E2E2E2E2E2E2E2E2E2E2E2E2E2E2E2E2E2E2E2E2E2E2E2E2E2E2E2E2E2E2E2E2E2E2E2E2E2E2E2E2E2E2E2E2E2E2E2E2E2E2E2E2E2E2E2E2E2E2E2E2E2E2E2E2E2E2E2E2E2E2E2E2E2E2E2E2E2E2E2E2E2E2E2E2E2E2E2E2E2E2
310
E2E2E2E2E2E2E2E2E2E2E2E2E2E2E2E2E22DE2E2E2E2E2E2E2E2E2E2E2E2E2E2E2E2F5F5F5E2E2E2F5E2E2E2E2E2E2E2E2E2E2E2E2E2E2E22D2D2D2D2D2D2D2D2D2D2D2D2D2D2D2D2D2D2D2D2D2D2D2D2D2D2D2D2D2D2D2D2D2D2D2D2D2D2D2D2D2D2D2D2D2D2D2D2D2D2D2D2D2D2D2D2D2D2D2D2D2D2D2D2D2D2D2D2D2D2D
310
2D2D2D2D2D2D2D2D2D2D2D2D2D2D2D2D2D2D2D2D2D2D2D2D2D2D2D2D2D2D2D2D2D2D2D2D2D2D2D2D2D2D2D2D2D2D2D2D2D2D2D2D2D2D2D2D2D2D2D2D2D2D2D2D2D2D2D2D2D2D2DE2E2E2E2E2E2E2E2E2E2E2E2F5E2E2E2F5F5F5E2E2E2F5E2E2E2E2E2E2E2E2E2E2E2E2E2E2E2E2E2E2E2E2E2E2E2E2E2E2E2E2E2E2E2E2E2
310
E2E2E2E2E2E2E2E2E2E2E2E2E2E2E2E2E2E2E2E2E2E2E2E2E2E2E2E2E2E2E2E2E2E2E2E2E2E2E2E2E2E2E2E2E2E2E2E2E2E2E2E2E2E2E2E2E2E2E2E2E2E2E2E2E2E2E2E2E2E2E2E2E2E2E2E2E2E2E2E2E2E2E2E2E2E2E2E2E2E2E2E2E2E2E2E2E2E2E2E2E2E2E2E2E2E2E2E2E2E2E2E2E2E2E2E2E2E2E2E2E2E2E2E2E2E2E2
310
E2E2E2E2E2E2E2E2E2F5E2E2E2F5F5F5E2E2E2F5E2E2E2E2E2E2E2E2E2E2E2E2E2E2E2E2E2E2E2E2E2E2E2E2E2E2E2E2E2E2E2E2E2E2E2E2E2E2E2E2E2E2E2E2E2E2E2E2E2E2E2E2E2E2E2E2E2E2E2E2E2E2E2E2E2E2E2E2E2E2E2E2E2E2E2E2E2E2E2E2E2E2E2E2E2E2E2E2E2E2E2E2E2E2E2E2E2E2E2E2E2E2E2E2E2E2E2
310
E2E2E2E2E2E2E2E2E2E2E2E2E2E2E2E2E2E2E2E2E2E2E2E2E2E2E2E2E2E2E2E2E2E2E2E2E2E2E2E2E2E2E2E2E2E2E2E2E2E2E2E2E2E2E2E2E2E2E2E2E2E2F5E2E2E2F5F5F5E2E2E2F5E2E2E2E2E2E2E2E2E2E2E2E2E2E2E2E2E2E2E2E2E2E2E2E2E2E2E2E2E2E2E2E2E2E2E2E2E2E2E2E2E2E2E2E2E2E2E2E2E2E2E2E2E2E2
310
E2E2E2E2E2E2E2E2E2E2E2E2E2E2E2E2E2E2E2E2E2E2E2E2E2E2E2E2E2E2E2E2E2E2E2E2E2E2E2E2E2E2E2E2E2E2E2E2E2E2E2E2E2E2E2E2E2E2E2E2E2E2E2E2E2E2E2E2E2E2E2E2E2E2E2E2E2E2E2E2E2E2E2E2E2E2E2E2E2E2E2E2E2E2E2E2E2E2E2E2E2E2E2E2E2E2E2E2E2E2E2E2E2E2E2F5E2E2E2F5F5F5E2E2E2F5E2
310
E2E2E2E2E2E2E2E2E2E2E2E2E2E2E2E2E2E2E2E2E2E2E2E2E2E2E2E2E2E2E2E2E2E2E2E2E2E2E2E2E2E2E2E2E2E2E2E2E2E2E2E2E2E2E2E2E2E2E2E2E2E2E2E2E2E2E2E2E2E2E2E2E2E2E2E2E2E2E2E2E2E2E2E2E2E2E2E2E2E2E2E2E2E2E2E2E2E2E2E2E2E2E2E2E2E2E2E2E2E2E2E2E2E2E2E2E2E2E2E2E2E2E2E2E2E2E2
310
E2E2E2E2E2E2E2E2E2E2E2E2E2E2E2E2E2E2E2E2E2E2E2E2E2E2E2E2E2E2E2E2E2E2E2E2E2E2E2E2E2F5E2E2E2F5F5F5E2E2E2F5E2E2E2E2E2E2E2E2E2E2E2E2E2E2E2E2E2E2E2E2E2E2E2E2E2E2E2E2E2E2E2E2E2E2E2E2E2E2E2E2E2E2E2E2E2E2E2E2E2E2E2E2E2E2E2E2E2E2E2E2E2E2E2E2E2E2E2E2E2E2E2E2E2E2E2
310
E2E2E2E2E2E2E2E2E2E2E2E2E2E2E2E2E2E2E2E2E2E2E2E2E2E2E2E2E2E2E2E2E2E2E2E2E2E2E2E2E2E2E2E2E2E2E2E2E2E2E2E2E2E2E2E2E2E2E2E2E2E2E2E2E2E2E2E2E2E2E2E2E2E2E2E2E2E2E2E2E2E2E2E2E2E2E2E2E2E2E2E2E2E2F5E2E2E2F5F5F5E2E2E2F5E2E2E2E2E2E2E2E2E2E2E2E2E2E2E2E2E2E2E2E2E2E2
310
E2E2E2E2E2E2E2E2E2E2E2E2E2E2E2E2E2E2E2E2E2E2E2E2E2E2E2E2E2E2E2E2E2E2E2E2E2E2E2E2E2E2E2E2E2E2E2E2E2E2E2E2E2E2E2E2E2E2E2E2E2E2E2E2E2E2E2E2E2E2E2E2E2E2E2E2E2E2E2E2E2E2E2E2E2E2E2E2E2E2E2E2E2E2E2E2E2E2E2E2E2E2E2E2E2E2E2E2E2E2E2E2E2E2E2E2E2E2E2E2E2E2E2E2E2E2E2
310
E2E2E2E2E2E2E2E2E2E2E2E2E2E2E2E2E2E2E2E2F5E2E2E2F5F5F5E2E2E2F5E2E2E2E2E2E2E2E2E2E2E2E2E2E2E2E2E2E2E2E2E2E2E2E2E2E2E2E2E2E2E2E2E2E2E2E2E2E2E2E2E2E2E2E2E2E2E2E2E2E2E2E2E2E2E2E2E2E2E2E2E2E2E2E2E2E2E2E2E2E2E2E2E2E2E2E2E2E2E2E2E2E2E2E2E2E2E2E2E2E2E2E2E2E2E2E2
310
E2E2E2E2E2E2E2E2E2E2E2E2E2E2E2E2E2E2E2E2E2E2E2E2E2E2E2E2E2E2E2E2E2E2E2E2E2E2E2E2E2E2E2E2E2E2E2E2E2E2E2E2E2E2E2E2E2E2E2E2E2E2E2E2E2E2E2E2E2E2E2E2E2F5E2E2E2F5F5F5E2E2E2F5F5F5F5F5F5F5F5E2E2E2E2E2E2E2E2E2F5F5F5F5F5F5F5F5F5F5F5F5F5F5F5F5E2E2E2E2E2E2E2E2F5F5F5
310
F5F5F5F5F5F5F5F5F5F5F5F5F5E2E2E2E2E2E2E2E2E2F5F5F5F5F5F5F5F5F5F5F5F5F5F5F5E2E2E2E2E2E2E2E2E2F5F5F5F5F5F5F5F5F5F5F5F5F5F5F5E2E2E2E2E2E2E2E2E2F5F5F5F5F5F5F5F5F5F5F5F5F5F5F5F5E2E2E2E2E2E2E2E2F5F5F5F5F5F5F5F5F5F5F5F5F5F5F5F5E2E2E2E2E2E2E2E2E2F5F5F5F5F5F5F5F5
310
E2E2E2F5F5F5E2E2E2E2E2E2E2E2E2E2E2E2E2E2E2E2E2E2E2E2E2E2E2E2E2E2E2E2E2E2E2E2E2E2E2E2E2E2E2E2E2E2E2E2E2E2E2E2E2E2E2E2E2E2E2E2E2E2E2E2E2E2E2E2E2E2E2E2E2E2E2E2E2E2E2E2E2E2E2E2E2E2E2E2E2E2E2E2E2E2E2E2E2E2E2E2E2E2E2E2E2E2E2E2E2E2E2E2E2E2E2E2E2E2E2E2E2E2E2E2E2
310
E2E2E2E2E2E2E2E2E2E2E2E2E2E2E2E2E2E2E2E2E2E2E2E2E2E2E2E2E2E2E2E2E2E2E2E2E2E2E2E2E2E2E2E2E2E2E2E2E2E2E2E2E2E2E2E2F5F5F5E2E2E2E2E2E2E2E2E2E2E2E2E2E2E2E2E2E2E2E2E2E2E2E2E2E2E2E2E2E2E2E2E2E2E2E2E2E2E2E2E2E2E2E2E2E2E2E2E2E2E2E2E2E2E2E2E2E2E2E2E2E2E2E2E2E2E2E2
310
E2E2E2E2E2E2E2E2E2E2E2E2E2E2E2E2E2E2E2E2E2E2E2E2E2E2E2E2E2E2E2E2E2E2E2E2E2E2E2E2E2E2E2E2E2E2E2E2E2E2E2E2E2E2E2E2E2E2E2E2E2E2E2E2E2E2E2E2E2E2E2E2E2E2E2E2E2E2E2E2E2E2E2E2E2E2E2E2E2E2E2E2E2E2E2E2E2E2E2E2E2E2E2E2E2E2E2E2E2F5F5F5E2E2E2E2E2E2E2E2E2E2E2E2E2E2E2
310
E2E2E2E2E2E2E2E2E2E2E2E2E2E2E2E2E2E2E2E2E2E2E2E2E2E2E2E2E2E2E2E2E2E2E2E2E2E2E2E2E2E2E2E2E2E2E2E2E2E2E2E2E2E2E2E2E2E2E2E2E2E2E2E2E2E2E2E2E2E2E2E2E2E2E2E2E2E2E2E2E2E2E2E2E2E2E2E2E2E2E2E2E2E2E2E2E2E2E2E2E2E2E2E2E2E2E2E2E2E2E2E2E2E2E2E2E2E2E2E2E2E2E2E2E2E2E2
310
E2E2E2E2E2E2E2E2E2E2E2E2E2E2E2E2E2E2E2E2E2E2E2E2E2E2E2E2E2E2E2E2E2E2E2F5F5F5E2E2E2E2E2E2E2E2E2E2E2E2E2E2E2E2E2E2E2E2E2E2E2E2E2E2E2E2E2E2E2E2E2E2E2E2E2E2E2E2E2E2E2E2E2E2E2E2E2E2E2E2E2E2E2E2E2E2E2E2E2E2E2E2E2E2E2E2E2E2E2E2E2E2E2E2E2E2E2E2E2E2E2E2E2E2E2E2E2
310
E2E2E2E2E2E2E2E2E2E2E2E2E2E2E2E2E2E2E2E2E2E2E2E2E2E2E2E2E2E2E2E2E2E2E2E2E2E2E2E2E2E2E2E2E2E2E2E2E2E2E2E2E2E2E2E2E2E2E2E2E2E2E2E2E2E2E2E2E2E2E2E2E2E2E2E2E2E2E2E2E2E2E2E2E2E2E2E2F5F5F5E2E2E2E2E2E2E2E2E2E2E2E2E2E2E2E2E2E2E2E2E2E2E2E2E2E2E2E2E2E2E2E2E2E2E2E2
310
E2E2E2E2E2E2E2E2E2E2E2E2E2E2E2E2E2E2E2E2E2E2E2E2E2E2E2E2E2E2E2E2E2E2E2E2E2E2E2E2E2E2E2E2E2E2E2E2E2E2E2E2E2E2E2E2E2E2E2E2E2E2E2E2E2E2E2E2E2E2E2E2E2E2E2E2E2E2E2E2E2E2E2E2E2E2E2E2E2E2E2E2E2E2E2E2E2E2E2E2E2E2E2E2E2E2E2E2E2E2E2E2E2E2E2E2E2E2E2E2E2E2E2E2E2E2E2
310
E2E2E2E2E2E2E2E2E2E2E2E2E2E2F5F5F5E2E2E2E2E2E2E2E2E2E2E2E2E2E2E2E2E2E2E2E2E2E2E2E2E2E2E2E2E2E2E2E2E2E2E2E2E2E2E2E2E2E2E2E2E2E2E2E2E2E2E2E2E2E2E2E2E2E2E2E2E2E2E2E2E2E2E2E2E2E2E2E2E2E2E2E2E2E2E2E2E2E2E2E2E2E2E2E2E2E2E2E2E2E2E2E2E2E2E2E2E2E2E2E2E2E2E2E2E2E2
310
E2E2E2E2E2E2E2E2E2E2E2E2E2E2E2E2E2E2E2E2E2E2E2E2E2E2E2E2E2E2E2E2E2E2E2E2E2E2E2E2E2E2E2E2E2E2E2E2E2E2E2E2E2E2E2E2E2E2E2E2E2E2E2E2E2E2E2F5F5F5E2E2E2E2E2E2E2E2E2E2E2E2E2E2E2E2E2E2E2E2E2E2E2E2E2E2E2E2E2E2E2E2E2E2E2E2E2E2E2E2E2E2E2E2E2E2E2E2E2E2E2E2E2E2E2E2E2
310
E2E2E2E2E2E2E2E2E2E2E2E2E2E2E2E2E2E2E2E2E2E2E2E2E2E2E2E2E2E2E2E2E2E2E2E2E2E2E2E2E2E2E2E2E2E2E2E2E2E2E2E2E2E2E2E2E2E2E2E2E2E2E2E2E2E2E2E2E2E2E2E2E2E2E2E2E2E2E2E2E2E2E2E2E2E2E2E2E2E2E2E2E2E2E2E2E2E2E2E2E2E2E2E2E2E2E2E2E2E2E2E2E2E2E2E2E2E2E2E2F5EFF5F5F5F5F5
310
F5F5F5F5F5F5F5F5F5F5F5F5F5F5F5F5F5F5F5F5F5F5F5F5F5F5F5F5F5F5F5F5F5F5F5F5F5F5F5F5F5F5F5F5F5F5F5F5F5F5F5F5F5F5F5F5F5F5F5F5F5F5F5F5F5F5F5F5F5F5F5F5F5F5F5F5F5F5F5F5F5F5F5F5F5F5F5F5F5F5F5F5F5F5F5F5F5F5F5F5F5F5F5F5F5F5F5F5F5F5F5F5F5F5F5F5F5F5F5F5F5F5F5F5F5F5F5
310
F5F5F5F5F5F5F5F5F5F5F5F5F5F5F5F5F5F5F5F5F5F5F5F5F5F5F5F5F5F5F5F5F5F5F5F5F5F5F5F5F5F5F5F5F5F5F5EF
  0
XRECORD
  5
135E
102
{ACAD_REACTORS
330
135D
102
}
330
135D
100
AcDbXrecord
280
     1
102
MATERIAL
148
0.0
149
0.0
149
0.0
 93
        0
 94
       63
282
     0
 72
     1
 77
     1
171
     1
175
     1
179
     1
273
     0
  0
ENDSEC
  0
EOF
