  0
SECTION
  2
HEADER
  9
$ACADVER
  1
AC1015
  9
$ACADMAINTVER
 70
    20
  9
$DWGCODEPAGE
  3
ANSI_950
  9
$INSBASE
 10
0.0
 20
0.0
 30
0.0
  9
$EXTMIN
 10
1.000000000000000E+20
 20
1.000000000000000E+20
 30
1.000000000000000E+20
  9
$EXTMAX
 10
-1.000000000000000E+20
 20
-1.000000000000000E+20
 30
-1.000000000000000E+20
  9
$LIMMIN
 10
0.0
 20
0.0
  9
$LIMMAX
 10
420.0
 20
297.0
  9
$ORTHOMODE
 70
     0
  9
$REGENMODE
 70
     1
  9
$FILLMODE
 70
     1
  9
$QTEXTMODE
 70
     0
  9
$MIRRTEXT
 70
     1
  9
$LTSCALE
 40
1.0
  9
$ATTMODE
 70
     1
  9
$TEXTSIZE
 40
1.0
  9
$TRACEWID
 40
1.0
  9
$TEXTSTYLE
  7
STANDARD
  9
$CLAYER
  8
0
  9
$CELTYPE
  6
BYLAYER
  9
$CECOLOR
 62
   256
  9
$CELTSCALE
 40
1.0
  9
$DISPSILH
 70
     0
  9
$DIMSCALE
 40
1.0
  9
$DIMASZ
 40
2.5
  9
$DIMEXO
 40
1.0
  9
$DIMDLI
 40
8.0
  9
$DIMRND
 40
0.0
  9
$DIMDLE
 40
0.0
  9
$DIMEXE
 40
1.0
  9
$DIMTP
 40
0.1
  9
$DIMTM
 40
0.1
  9
$DIMTXT
 40
3.5
  9
$DIMCEN
 40
0.0
  9
$DIMTSZ
 40
0.0
  9
$DIMTOL
 70
     0
  9
$DIMLIM
 70
     0
  9
$DIMTIH
 70
     0
  9
$DIMTOH
 70
     0
  9
$DIMSE1
 70
     0
  9
$DIMSE2
 70
     0
  9
$DIMTAD
 70
     1
  9
$DIMZIN
 70
     8
  9
$DIMBLK
  1

  9
$DIMASO
 70
     1
  9
$DIMSHO
 70
     1
  9
$DIMPOST
  1

  9
$DIMAPOST
  1
"
  9
$DIMALT
 70
     0
  9
$DIMALTD
 70
     2
  9
$DIMALTF
 40
0.0393701
  9
$DIMLFAC
 40
1.0
  9
$DIMTOFL
 70
     1
  9
$DIMTVP
 40
0.0
  9
$DIMTIX
 70
     0
  9
$DIMSOXD
 70
     0
  9
$DIMSAH
 70
     0
  9
$DIMBLK1
  1

  9
$DIMBLK2
  1

  9
$DIMSTYLE
  2
AM_ISO
  9
$DIMCLRD
 70
   256
  9
$DIMCLRE
 70
   256
  9
$DIMCLRT
 70
   256
  9
$DIMTFAC
 40
0.71
  9
$DIMGAP
 40
1.0
  9
$DIMJUST
 70
     0
  9
$DIMSD1
 70
     0
  9
$DIMSD2
 70
     0
  9
$DIMTOLJ
 70
     0
  9
$DIMTZIN
 70
     8
  9
$DIMALTZ
 70
     8
  9
$DIMALTTZ
 70
     0
  9
$DIMUPT
 70
     0
  9
$DIMDEC
 70
     1
  9
$DIMTDEC
 70
     8
  9
$DIMALTU
 70
     2
  9
$DIMALTTD
 70
     2
  9
$DIMTXSTY
  7
STANDARD
  9
$DIMAUNIT
 70
     0
  9
$DIMADEC
 70
     0
  9
$DIMALTRND
 40
0.0
  9
$DIMAZIN
 70
     2
  9
$DIMDSEP
 70
    46
  9
$DIMATFIT
 70
     3
  9
$DIMFRAC
 70
     0
  9
$DIMLDRBLK
  1

  9
$DIMLUNIT
 70
     2
  9
$DIMLWD
 70
    -1
  9
$DIMLWE
 70
    -1
  9
$DIMTMOVE
 70
     0
  9
$LUNITS
 70
     2
  9
$LUPREC
 70
     2
  9
$SKETCHINC
 40
1.0
  9
$FILLETRAD
 40
7.5
  9
$AUNITS
 70
     0
  9
$AUPREC
 70
     0
  9
$MENU
  1
.
  9
$ELEVATION
 40
0.0
  9
$PELEVATION
 40
0.0
  9
$THICKNESS
 40
0.0
  9
$LIMCHECK
 70
     0
  9
$CHAMFERA
 40
2.5
  9
$CHAMFERB
 40
2.5
  9
$CHAMFERC
 40
20.0
  9
$CHAMFERD
 40
0.0
  9
$SKPOLY
 70
     0
  9
$TDCREATE
 40
2454887.677932685
  9
$TDUCREATE
 40
2454887.344599352
  9
$TDUPDATE
 40
2456639.476115267
  9
$TDUUPDATE
 40
2456639.142781933
  9
$TDINDWG
 40
0.2385562500
  9
$TDUSRTIMER
 40
0.2385562500
  9
$USRTIMER
 70
     1
  9
$ANGBASE
 50
0.0
  9
$ANGDIR
 70
     0
  9
$PDMODE
 70
     0
  9
$PDSIZE
 40
0.0
  9
$PLINEWID
 40
0.0
  9
$SPLFRAME
 70
     0
  9
$SPLINETYPE
 70
     6
  9
$SPLINESEGS
 70
     8
  9
$HANDSEED
  5
1693
  9
$SURFTAB1
 70
     6
  9
$SURFTAB2
 70
     6
  9
$SURFTYPE
 70
     6
  9
$SURFU
 70
     6
  9
$SURFV
 70
     6
  9
$UCSBASE
  2

  9
$UCSNAME
  2

  9
$UCSORG
 10
0.0
 20
0.0
 30
0.0
  9
$UCSXDIR
 10
1.0
 20
0.0
 30
0.0
  9
$UCSYDIR
 10
0.0
 20
1.0
 30
0.0
  9
$UCSORTHOREF
  2

  9
$UCSORTHOVIEW
 70
     0
  9
$UCSORGTOP
 10
0.0
 20
0.0
 30
0.0
  9
$UCSORGBOTTOM
 10
0.0
 20
0.0
 30
0.0
  9
$UCSORGLEFT
 10
0.0
 20
0.0
 30
0.0
  9
$UCSORGRIGHT
 10
0.0
 20
0.0
 30
0.0
  9
$UCSORGFRONT
 10
0.0
 20
0.0
 30
0.0
  9
$UCSORGBACK
 10
0.0
 20
0.0
 30
0.0
  9
$PUCSBASE
  2

  9
$PUCSNAME
  2

  9
$PUCSORG
 10
0.0
 20
0.0
 30
0.0
  9
$PUCSXDIR
 10
1.0
 20
0.0
 30
0.0
  9
$PUCSYDIR
 10
0.0
 20
1.0
 30
0.0
  9
$PUCSORTHOREF
  2

  9
$PUCSORTHOVIEW
 70
     0
  9
$PUCSORGTOP
 10
0.0
 20
0.0
 30
0.0
  9
$PUCSORGBOTTOM
 10
0.0
 20
0.0
 30
0.0
  9
$PUCSORGLEFT
 10
0.0
 20
0.0
 30
0.0
  9
$PUCSORGRIGHT
 10
0.0
 20
0.0
 30
0.0
  9
$PUCSORGFRONT
 10
0.0
 20
0.0
 30
0.0
  9
$PUCSORGBACK
 10
0.0
 20
0.0
 30
0.0
  9
$USERI1
 70
     0
  9
$USERI2
 70
     0
  9
$USERI3
 70
     0
  9
$USERI4
 70
     0
  9
$USERI5
 70
     0
  9
$USERR1
 40
0.0
  9
$USERR2
 40
0.0
  9
$USERR3
 40
0.0
  9
$USERR4
 40
0.0
  9
$USERR5
 40
0.0
  9
$WORLDVIEW
 70
     1
  9
$SHADEDGE
 70
     3
  9
$SHADEDIF
 70
    70
  9
$TILEMODE
 70
     0
  9
$MAXACTVP
 70
    48
  9
$PINSBASE
 10
0.0
 20
0.0
 30
0.0
  9
$PLIMCHECK
 70
     0
  9
$PEXTMIN
 10
3.931144543983464
 20
1.137289084254689
 30
-0.0067073111196692
  9
$PEXTMAX
 10
405.3205867576114
 20
281.5215846081877
 30
219.8086484018954
  9
$PLIMMIN
 10
-5.027069091796875
 20
-6.805083274841308
  9
$PLIMMAX
 10
414.9195861816406
 20
290.1209115982056
  9
$UNITMODE
 70
     0
  9
$VISRETAIN
 70
     1
  9
$PLINEGEN
 70
     0
  9
$PSLTSCALE
 70
     1
  9
$TREEDEPTH
 70
  3020
  9
$CMLSTYLE
  2
STANDARD
  9
$CMLJUST
 70
     0
  9
$CMLSCALE
 40
1.0
  9
$PROXYGRAPHICS
 70
     1
  9
$MEASUREMENT
 70
     1
  9
$CELWEIGHT
370
    -1
  9
$ENDCAPS
280
     0
  9
$JOINSTYLE
280
     0
  9
$LWDISPLAY
290
     0
  9
$INSUNITS
 70
     4
  9
$HYPERLINKBASE
  1

  9
$STYLESHEET
  1

  9
$XEDIT
290
     1
  9
$CEPSNTYPE
380
     0
  9
$PSTYLEMODE
290
     1
  9
$FINGERPRINTGUID
  2
{FB3871BB-EDDD-4BFF-B35A-0FC8E6448917}
  9
$VERSIONGUID
  2
{FD652FA4-3DA4-4159-948F-C7CA82A761D7}
  9
$EXTNAMES
290
     1
  9
$PSVPSCALE
 40
0.0
  9
$OLESTARTUP
290
     0
  0
ENDSEC
  0
SECTION
  2
CLASSES
  0
CLASS
  1
DICTIONARYVAR
  2
AcDbDictionaryVar
  3
ObjectDBX Classes
 90
        0
280
     0
281
     0
  0
CLASS
  1
ACMESTATEMGR
  2
AcMeStateMgr
  3
AcMeServices
 90
        0
280
     0
281
     0
  0
CLASS
  1
ACMESCOPE
  2
AcMeScope
  3
AcMeServices
 90
        0
280
     0
281
     0
  0
CLASS
  1
ACMECOMMANDHISTORY
  2
AcMeCommandHistory
  3
AcMeServices
 90
        0
280
     0
281
     0
  0
CLASS
  1
ACRFINSADJUSTERMGR
  2
AcRfInsAdjusterMgr
  3
AcMeServices
 90
        0
280
     0
281
     0
  0
CLASS
  1
ACMEDRAWINGMAN
  2
AcMeDrawingMan
  3
AcMeServices
 90
        0
280
     0
281
     0
  0
CLASS
  1
AMATTR
  2
AcMeAttribute
  3
AcMeServices
 90
    32768
280
     0
281
     0
  0
CLASS
  1
ACMEBOMCOLUMN
  2
AcMeBOMColumn
  3
AcMeServices
 90
    32768
280
     0
281
     0
  0
CLASS
  1
ACMEBOMCONF
  2
AcMeBOMConf
  3
AcMeServices
 90
    32768
280
     0
281
     0
  0
CLASS
  1
ACMEBOMTABLE
  2
AcMeBOMTable
  3
AcMeServices
 90
    32768
280
     0
281
     0
  0
CLASS
  1
ACMEBOMENTRY
  2
AcMeBOMEntry
  3
AcMeServices
 90
    32768
280
     0
281
     0
  0
CLASS
  1
ACMEVIEW
  2
AcMeView
  3
AcMeServices
 90
        0
280
     0
281
     0
  0
CLASS
  1
ACGREFMASTER
  2
AcGrefMaster
  3
AcAttribServices
 90
        0
280
     0
281
     0
  0
CLASS
  1
AMIMASTER
  2
AmiMaster
  3
AmiServices
 90
        0
280
     0
281
     0
  0
CLASS
  1
ACASGREFMASTER
  2
AcAsGrefMaster
  3
AutoSurfResolverServices
 90
        0
280
     0
281
     0
  0
CLASS
  1
ADAPPL
  2
AcAdAppl
  3
DesignerServices
 90
        0
280
     0
281
     0
  0
CLASS
  1
DEPMGR
  2
AcAdDepMgr
  3
DesignerServices
 90
        0
280
     0
281
     0
  0
CLASS
  1
PARAMMGR
  2
AcAdParamMgr
  3
DesignerServices
 90
        0
280
     0
281
     0
  0
CLASS
  1
PARAMSCOPE
  2
AcAdParamScope
  3
DesignerServices
 90
        0
280
     0
281
     0
  0
CLASS
  1
ACIMSYSVARMAN
  2
AcImSysVarManager
  3
AcMeServices
 90
        0
280
     0
281
     0
  0
CLASS
  1
ACIMINTSYSVAR
  2
AcImIntSysVar
  3
AcMeServices
 90
        0
280
     0
281
     0
  0
CLASS
  1
ACIMREALSYSVAR
  2
AcImRealSysVar
  3
AcMeServices
 90
        0
280
     0
281
     0
  0
CLASS
  1
ACIMSTRSYSVAR
  2
AcImStrSysVar
  3
AcMeServices
 90
        0
280
     0
281
     0
  0
CLASS
  1
NAMEDAPPL
  2
AcAdNamedAppl
  3
DesignerServices
 90
        0
280
     0
281
     0
  0
CLASS
  1
ADHNTMPLT
  2
AdHoleNoteTemplateMgr
  3
DesignerServices
 90
    32768
280
     0
281
     0
  0
CLASS
  1
AM_HNTEMPLATE_MGR_NAME
  2
AdHoleNoteTemplateMgrName
  3
DesignerServices
 90
    32768
280
     0
281
     0
  0
CLASS
  1
ACADGREFMODULE
  2
AcAdGrefModule
  3
AdGrefServices
 90
        0
280
     0
281
     0
  0
CLASS
  1
AM_DRAWING_MGR
  2
AcDmDwgMgr
  3
AcMechDwgViewMgmt
 90
        0
280
     0
281
     0
  0
CLASS
  1
AM_DWG_DOCUMENT
  2
AcDmDwgDocument
  3
AcMechDwgViewMgmt
 90
        0
280
     0
281
     0
  0
CLASS
  1
AM_DWG_SHEET
  2
AcDmSheet
  3
AcMechDwgViewMgmt
 90
        0
280
     0
281
     0
  0
CLASS
  1
AM_VIEWDIMPARMAP
  2
AcDmViewDimParMap
  3
AcMechDwgViewMgmt
 90
        0
280
     0
281
     0
  0
CLASS
  1
AM_DWGMGR_NAME
  2
AcDmDwgMgrName
  3
AcMechDwgViewMgmt
 90
        0
280
     0
281
     0
  0
CLASS
  1
ACAMPROJECT
  2
AcAmProject
  3
DesignerAssemblies
 90
        0
280
     0
281
     0
  0
CLASS
  1
ACAMGRCOMPSET
  2
AcAmGrCompSet
  3
DesignerAssemblies
 90
    32768
280
     1
281
     0
  0
CLASS
  1
ACAMGRCOMPDEFSET
  2
AcAmGrCompDefSet
  3
DesignerAssemblies
 90
        0
280
     0
281
     0
  0
CLASS
  1
ACAMGRCOMPDEF
  2
AcAmGrCompDef
  3
DesignerAssemblies
 90
        0
280
     0
281
     0
  0
CLASS
  1
ACCMCONTEXT
  2
AcCmContext
  3
DesignerAssemblies
 90
        0
280
     0
281
     0
  0
CLASS
  1
ACAMCOMPDEF
  2
AcAmCompDef
  3
DesignerAssemblies
 90
        0
280
     0
281
     0
  0
CLASS
  1
ACAMCOMPDEFMGR
  2
AcAmCompDefMgr
  3
DesignerAssemblies
 90
        0
280
     0
281
     0
  0
CLASS
  1
AMCONTEXTMGR
  2
AcAmContextMgr
  3
DesignerAssemblies
 90
        0
280
     0
281
     0
  0
CLASS
  1
ACAMCONTEXTMODELER
  2
AcAmContextModeler
  3
DesignerAssemblies
 90
        0
280
     0
281
     0
  0
CLASS
  1
ACDMVIEWGEOM
  2
AcDmViewGeometry
  3
AcMechDwgViewMgmt
 90
    32768
280
     0
281
     1
  0
CLASS
  1
CBROWSERAPPOBJECT
  2
CBrowserAppObject
  3
McadcomServices
 90
        0
280
     0
281
     0
  0
CLASS
  1
IM_STATIC_MAN
  2
AcImStaticVarManager
  3
AcMeServices
 90
        0
280
     0
281
     0
  0
CLASS
  1
ASAPP
  2
AcAsAppObject
  3
AutoSurfServices
 90
        0
280
     0
281
     0
  0
CLASS
  1
ACIMDBLSTATICVAR
  2
AcImDblStaticVar
  3
AcMeServices
 90
        0
280
     0
281
     0
  0
CLASS
  1
ACIMSTRSTATICVAR
  2
AcImStrStaticVar
  3
AcMeServices
 90
        0
280
     0
281
     0
  0
CLASS
  1
ACIMINTSTATICVAR
  2
AcImIntStaticVar
  3
AcMeServices
 90
        0
280
     0
281
     0
  0
CLASS
  1
CATALOGSTATE
  2
AcAmCatalogState
  3
DesignerAssemblies
 90
        0
280
     0
281
     0
  0
CLASS
  1
DM_PLACEHOLDER
  2
AcDmSelsetPlaceholder
  3
AcMechDwgViewMgmt
 90
        0
280
     0
281
     0
  0
CLASS
  1
LAYER_INDEX
  2
AcDbLayerIndex
  3
ObjectDBX Classes
 90
        0
280
     0
281
     0
  0
CLASS
  1
IDBUFFER
  2
AcDbIdBuffer
  3
ObjectDBX Classes
 90
        0
280
     0
281
     0
  0
CLASS
  1
ACMSTANDARDJIS
  2
AcmStandardJIS
  3
"Amdt_StdImp|Product Description: AutoCAD Mechanical 2004 DX|Company: Autodesk"
 90
    32768
280
     0
281
     0
  0
CLASS
  1
ACMSTANDARDANSI
  2
AcmStandardANSI
  3
"Amdt_StdImp|Product Description: AutoCAD Mechanical 2004 DX|Company: Autodesk"
 90
        0
280
     0
281
     0
  0
CLASS
  1
ACMSTANDARDBSI
  2
AcmStandardBSI
  3
"Amdt_StdImp|Product Description: AutoCAD Mechanical 2004 DX|Company: Autodesk"
 90
    32768
280
     0
281
     0
  0
CLASS
  1
ACMSTANDARDDIN
  2
AcmStandardDIN
  3
"Amdt_StdImp|Product Description: AutoCAD Mechanical 2004 DX|Company: Autodesk"
 90
    32768
280
     0
281
     0
  0
CLASS
  1
ACMSTANDARDISO
  2
AcmStandardISO
  3
"Amdt_StdImp|Product Description: AutoCAD Mechanical 2004 DX|Company: Autodesk"
 90
        0
280
     0
281
     0
  0
CLASS
  1
ACDBDICTIONARYWDFLT
  2
AcDbDictionaryWithDefault
  3
ObjectDBX Classes
 90
        0
280
     0
281
     0
  0
CLASS
  1
ACDBPLACEHOLDER
  2
AcDbPlaceHolder
  3
ObjectDBX Classes
 90
        0
280
     0
281
     0
  0
CLASS
  1
LAYOUT
  2
AcDbLayout
  3
ObjectDBX Classes
 90
        0
280
     0
281
     0
  0
CLASS
  1
ACME_DOCUMENT
  2
AcMeDbDoc
  3
AcMeServices
 90
        0
280
     0
281
     0
  0
CLASS
  1
AMGSETTINGSOBJ
  2
AmgSettingsObj
  3
"AcadM|Product Description: AutoCAD Mechanical 2000|Company: Autodesk"
 90
        0
280
     0
281
     0
  0
CLASS
  1
AMGOBJPROPCFG
  2
AmgObjPropCfg
  3
"AmgLay|Product Description: AutoCAD Mechanical 2000|Company: Autodesk"
 90
        1
280
     0
281
     0
  0
CLASS
  1
ACDBENTITYCACHE
  2
AcMeEntityCache
  3
AcMeServices
 90
        0
280
     0
281
     0
  0
CLASS
  1
GSMANAGER
  2
AcMeGSManager
  3
AcMeServices
 90
        0
280
     0
281
     0
  0
CLASS
  1
AMDTINTERNALREACTOR
  2
AmdtInternalReactor
  3
AcMeServices
 90
        0
280
     0
281
     0
  0
CLASS
  1
ACME_DATABASE
  2
AcMeDbDatabase
  3
AcMeServices
 90
        0
280
     0
281
     0
  0
CLASS
  1
ACGREFACADMASTER
  2
AcGrefacadMaster
  3
AcGrefServices
 90
        0
280
     0
281
     0
  0
CLASS
  1
AMDTMENUSTATEMGR
  2
AmdtMenuStateMgr
  3
McadcomServices
 90
        0
280
     0
281
     0
  0
CLASS
  1
AMDTMCOMMENUSTATE
  2
AmdtMcomMenuState
  3
McadcomServices
 90
        0
280
     0
281
     0
  0
CLASS
  1
MAPIADMODULE
  2
MApiAdModule
  3
MApiAdServices
 90
        0
280
     0
281
     0
  0
CLASS
  1
AMDTDMMENUSTATE
  2
AmdtDmMenuState
  3
AcMechDwgViewMgmt
 90
        0
280
     0
281
     0
  0
CLASS
  1
AMDTADMENUSTATE
  2
AmdtAdMenuState
  3
DesignerServices
 90
        0
280
     0
281
     0
  0
CLASS
  1
AMDTAMMENUSTATE
  2
AmdtAmMenuState
  3
DesignerAssemblies
 90
        0
280
     0
281
     0
  0
CLASS
  1
ACMDATADICTIONARY
  2
AcmDataDictionary
  3
"AcmSymBB|Product Description: AutoCAD Mechanical 2004 DX|Company: Autodesk"
 90
        0
280
     0
281
     0
  0
CLASS
  1
ACMDATAENTRYBLOCK
  2
AcmDataEntryBlock
  3
"AcmSymBB|Product Description: AutoCAD Mechanical 2004 DX|Company: Autodesk"
 90
        0
280
     0
281
     0
  0
CLASS
  1
ACMSURFSTANDARDJIS
  2
AcmSurfTextStdJIS
  3
"Amdt_StdImp|Product Description: AutoCAD Mechanical 2004 DX|Company: Autodesk"
 90
    32768
280
     0
281
     0
  0
CLASS
  1
ACMFCFSTANDARDJIS
  2
AcmFCFStdJIS
  3
"Amdt_StdImp|Product Description: AutoCAD Mechanical 2004 DX|Company: Autodesk"
 90
    32768
280
     0
281
     0
  0
CLASS
  1
ACMWELDSTANDARDJIS
  2
AcmWeldingStdJIS
  3
"Amdt_StdImp|Product Description: AutoCAD Mechanical 2004 DX|Company: Autodesk"
 90
    32768
280
     0
281
     0
  0
CLASS
  1
ACMIDSTANDARDJIS
  2
AcmIdStdJIS
  3
"Amdt_StdImp|Product Description: AutoCAD Mechanical 2004 DX|Company: Autodesk"
 90
    32768
280
     0
281
     0
  0
CLASS
  1
ACMDATUMSTANDARDJIS
  2
AcmDatumStdJIS
  3
"Amdt_StdImp|Product Description: AutoCAD Mechanical 2004 DX|Company: Autodesk"
 90
    32768
280
     0
281
     0
  0
CLASS
  1
ACMBOMSTANDARDJIS
  2
AcmBOMStdJIS
  3
"Amdt_StdImp|Product Description: AutoCAD Mechanical 2004 DX|Company: Autodesk"
 90
    32768
280
     0
281
     0
  0
CLASS
  1
ACMSURFSTANDARDANSI
  2
AcmSurfTextStdANSI
  3
"Amdt_StdImp|Product Description: AutoCAD Mechanical 2004 DX|Company: Autodesk"
 90
        0
280
     0
281
     0
  0
CLASS
  1
ACMFCFSTANDARDANSI
  2
AcmFCFStdANSI
  3
"Amdt_StdImp|Product Description: AutoCAD Mechanical 2004 DX|Company: Autodesk"
 90
        0
280
     0
281
     0
  0
CLASS
  1
ACMWELDSTANDARDANSI
  2
AcmWeldingStdANSI
  3
"Amdt_StdImp|Product Description: AutoCAD Mechanical 2004 DX|Company: Autodesk"
 90
        0
280
     0
281
     0
  0
CLASS
  1
ACMIDSTANDARDANSI
  2
AcmIdStdANSI
  3
"Amdt_StdImp|Product Description: AutoCAD Mechanical 2004 DX|Company: Autodesk"
 90
        0
280
     0
281
     0
  0
CLASS
  1
ACMDATUMSTANDARDANSI
  2
AcmDatumStdANSI
  3
"Amdt_StdImp|Product Description: AutoCAD Mechanical 2004 DX|Company: Autodesk"
 90
        0
280
     0
281
     0
  0
CLASS
  1
ACMBOMSTANDARDANSI
  2
AcmBOMStdANSI
  3
"Amdt_StdImp|Product Description: AutoCAD Mechanical 2004 DX|Company: Autodesk"
 90
        0
280
     0
281
     0
  0
CLASS
  1
ACMSURFSTANDARDBSI
  2
AcmSurfTextStdBSI
  3
"Amdt_StdImp|Product Description: AutoCAD Mechanical 2004 DX|Company: Autodesk"
 90
    32768
280
     0
281
     0
  0
CLASS
  1
ACMFCFSTANDARDBSI
  2
AcmFCFStdBSI
  3
"Amdt_StdImp|Product Description: AutoCAD Mechanical 2004 DX|Company: Autodesk"
 90
    32768
280
     0
281
     0
  0
CLASS
  1
ACMWELDSTANDARDBSI
  2
AcmWeldingStdBSI
  3
"Amdt_StdImp|Product Description: AutoCAD Mechanical 2004 DX|Company: Autodesk"
 90
    32768
280
     0
281
     0
  0
CLASS
  1
ACMIDSTANDARDBSI
  2
AcmIdStdBSI
  3
"Amdt_StdImp|Product Description: AutoCAD Mechanical 2004 DX|Company: Autodesk"
 90
    32768
280
     0
281
     0
  0
CLASS
  1
ACMDATUMSTANDARDBSI
  2
AcmDatumStdBSI
  3
"Amdt_StdImp|Product Description: AutoCAD Mechanical 2004 DX|Company: Autodesk"
 90
    32768
280
     0
281
     0
  0
CLASS
  1
ACMBOMSTANDARDBSI
  2
AcmBOMStdBSI
  3
"Amdt_StdImp|Product Description: AutoCAD Mechanical 2004 DX|Company: Autodesk"
 90
    32768
280
     0
281
     0
  0
CLASS
  1
AMDTEDGESTANDARDDIN
  2
AmdtEdgeStdDIN
  3
"Amdt_StdImp|Product Description: AutoCAD Mechanical 2004 DX|Company: Autodesk"
 90
    32768
280
     0
281
     0
  0
CLASS
  1
ACMSURFSTANDARDDIN
  2
AcmSurfTextStdDIN
  3
"Amdt_StdImp|Product Description: AutoCAD Mechanical 2004 DX|Company: Autodesk"
 90
    32768
280
     0
281
     0
  0
CLASS
  1
ACMFCFSTANDARDDIN
  2
AcmFCFStdDIN
  3
"Amdt_StdImp|Product Description: AutoCAD Mechanical 2004 DX|Company: Autodesk"
 90
    32768
280
     0
281
     0
  0
CLASS
  1
ACMWELDSTANDARDDIN
  2
AcmWeldingStdDIN
  3
"Amdt_StdImp|Product Description: AutoCAD Mechanical 2004 DX|Company: Autodesk"
 90
    32768
280
     0
281
     0
  0
CLASS
  1
ACMIDSTANDARDDIN
  2
AcmIdStdDIN
  3
"Amdt_StdImp|Product Description: AutoCAD Mechanical 2004 DX|Company: Autodesk"
 90
    32768
280
     0
281
     0
  0
CLASS
  1
ACMDATUMSTANDARDDIN
  2
AcmDatumStdDIN
  3
"Amdt_StdImp|Product Description: AutoCAD Mechanical 2004 DX|Company: Autodesk"
 90
    32768
280
     0
281
     0
  0
CLASS
  1
ACMBOMSTANDARDDIN
  2
AcmBOMStdDIN
  3
"Amdt_StdImp|Product Description: AutoCAD Mechanical 2004 DX|Company: Autodesk"
 90
    32768
280
     0
281
     0
  0
CLASS
  1
ACMSURFSTANDARDISO
  2
AcmSurfTextStdISO
  3
"Amdt_StdImp|Product Description: AutoCAD Mechanical 2004 DX|Company: Autodesk"
 90
        0
280
     0
281
     0
  0
CLASS
  1
ACMFCFSTANDARDISO
  2
AcmFCFStdISO
  3
"Amdt_StdImp|Product Description: AutoCAD Mechanical 2004 DX|Company: Autodesk"
 90
        0
280
     0
281
     0
  0
CLASS
  1
ACMWELDSTANDARDISO
  2
AcmWeldingStdISO
  3
"Amdt_StdImp|Product Description: AutoCAD Mechanical 2004 DX|Company: Autodesk"
 90
        0
280
     0
281
     0
  0
CLASS
  1
ACMIDSTANDARDISO
  2
AcmIdStdISO
  3
"Amdt_StdImp|Product Description: AutoCAD Mechanical 2004 DX|Company: Autodesk"
 90
        0
280
     0
281
     0
  0
CLASS
  1
ACMDATUMSTANDARDISO
  2
AcmDatumStdISO
  3
"Amdt_StdImp|Product Description: AutoCAD Mechanical 2004 DX|Company: Autodesk"
 90
        0
280
     0
281
     0
  0
CLASS
  1
ACMBOMSTANDARDISO
  2
AcmBOMStdISO
  3
"Amdt_StdImp|Product Description: AutoCAD Mechanical 2004 DX|Company: Autodesk"
 90
        0
280
     0
281
     0
  0
CLASS
  1
AMDTBROWSERDBTAB
  2
AmdtBrowserDbTab
  3
McadcomServices
 90
        0
280
     0
281
     0
  0
CLASS
  1
ACAMGFILTERDAT
  2
AcAmgFilterDat
  3
"AcadM|Product Description: AutoCAD Mechanical 2000|Company: Autodesk"
 90
    32768
280
     0
281
     0
  0
CLASS
  1
MAPIAMMOUDLE
  2
MApiAmModule
  3
MApiAmServices
 90
        0
280
     0
281
     0
  0
CLASS
  1
AMDTMAPISURFMOUDULE
  2
AmdtMApiSurfModule
  3
MApiSurfServices
 90
        0
280
     0
281
     0
  0
CLASS
  1
ACAMGLAYSTD
  2
AcAmgLayStd
  3
"AcAmgLayStd|Product Description: AutoCAD Mechanical 2000|Company: Autodesk"
 90
        0
280
     0
281
     0
  0
CLASS
  1
ACAMGDIMSTD
  2
AcAmgDimStd
  3
"AcAmgDimStd|Product Description: AutoCAD Mechanical 2000|Company: Autodesk"
 90
        0
280
     0
281
     0
  0
CLASS
  1
ACAMGTITLESTD
  2
AcAmgTitleStd
  3
"TITLEAPP"
 90
        0
280
     0
281
     0
  0
CLASS
  1
ACMDETAILSTANDARDJIS
  2
AmdtDetailSymStdJIS
  3
"Amdt_StdImp|Product Description: AutoCAD Mechanical 2004 DX|Company: Autodesk"
 90
    32768
280
     0
281
     0
  0
CLASS
  1
ACMSECTIONSTANDARDJIS
  2
AmdtSectionSymStdJIS
  3
"Amdt_StdImp|Product Description: AutoCAD Mechanical 2004 DX|Company: Autodesk"
 90
    32768
280
     0
281
     0
  0
CLASS
  1
ACMCENTERLINESTANDARDJIS
  2
AmdtCenterLineStdJIS
  3
"Amdt_StdImp|Product Description: AutoCAD Mechanical 2004 DX|Company: Autodesk"
 90
    32768
280
     0
281
     0
  0
CLASS
  1
ACMTHREADLINESTANDARDJIS
  2
AmdtThreadLineStdJIS
  3
"Amdt_StdImp|Product Description: AutoCAD Mechanical 2004 DX|Company: Autodesk"
 90
    32768
280
     0
281
     0
  0
CLASS
  1
ACMDETAILSTANDARDANSI
  2
AmdtDetailSymStdANSI
  3
"Amdt_StdImp|Product Description: AutoCAD Mechanical 2004 DX|Company: Autodesk"
 90
        0
280
     0
281
     0
  0
CLASS
  1
ACMSECTIONSTANDARDANSI
  2
AmdtSectionSymStdANSI
  3
"Amdt_StdImp|Product Description: AutoCAD Mechanical 2004 DX|Company: Autodesk"
 90
        0
280
     0
281
     0
  0
CLASS
  1
ACMCENTERLINESTANDARDANSI
  2
AmdtCenterLineStdANSI
  3
"Amdt_StdImp|Product Description: AutoCAD Mechanical 2004 DX|Company: Autodesk"
 90
        0
280
     0
281
     0
  0
CLASS
  1
ACMTHREADLINESTANDARDANSI
  2
AmdtThreadLineStdANSI
  3
"Amdt_StdImp|Product Description: AutoCAD Mechanical 2004 DX|Company: Autodesk"
 90
        0
280
     0
281
     0
  0
CLASS
  1
ACMDETAILSTANDARDBSI
  2
AmdtDetailSymStdBSI
  3
"Amdt_StdImp|Product Description: AutoCAD Mechanical 2004 DX|Company: Autodesk"
 90
    32768
280
     0
281
     0
  0
CLASS
  1
ACMSECTIONSTANDARDBSI
  2
AmdtSectionSymStdBSI
  3
"Amdt_StdImp|Product Description: AutoCAD Mechanical 2004 DX|Company: Autodesk"
 90
    32768
280
     0
281
     0
  0
CLASS
  1
ACMCENTERLINESTANDARDBSI
  2
AmdtCenterLineStdBSI
  3
"Amdt_StdImp|Product Description: AutoCAD Mechanical 2004 DX|Company: Autodesk"
 90
    32768
280
     0
281
     0
  0
CLASS
  1
ACMTHREADLINESTANDARDBSI
  2
AmdtThreadLineStdBSI
  3
"Amdt_StdImp|Product Description: AutoCAD Mechanical 2004 DX|Company: Autodesk"
 90
    32768
280
     0
281
     0
  0
CLASS
  1
ACMDETAILSTANDARDDIN
  2
AmdtDetailSymStdDIN
  3
"Amdt_StdImp|Product Description: AutoCAD Mechanical 2004 DX|Company: Autodesk"
 90
    32768
280
     0
281
     0
  0
CLASS
  1
ACMSECTIONSTANDARDDIN
  2
AmdtSectionSymStdDIN
  3
"Amdt_StdImp|Product Description: AutoCAD Mechanical 2004 DX|Company: Autodesk"
 90
    32768
280
     0
281
     0
  0
CLASS
  1
ACMCENTERLINESTANDARDDIN
  2
AmdtCenterLineStdDIN
  3
"Amdt_StdImp|Product Description: AutoCAD Mechanical 2004 DX|Company: Autodesk"
 90
    32768
280
     0
281
     0
  0
CLASS
  1
ACMTHREADLINESTANDARDDIN
  2
AmdtThreadLineStdDIN
  3
"Amdt_StdImp|Product Description: AutoCAD Mechanical 2004 DX|Company: Autodesk"
 90
    32768
280
     0
281
     0
  0
CLASS
  1
AMDTEDGESTANDARDISO
  2
AmdtEdgeStdISO
  3
"Amdt_StdImp|Product Description: AutoCAD Mechanical 2004 DX|Company: Autodesk"
 90
    32768
280
     0
281
     0
  0
CLASS
  1
ACMDETAILSTANDARDISO
  2
AmdtDetailSymStdISO
  3
"Amdt_StdImp|Product Description: AutoCAD Mechanical 2004 DX|Company: Autodesk"
 90
        0
280
     0
281
     0
  0
CLASS
  1
ACMSECTIONSTANDARDISO
  2
AmdtSectionSymStdISO
  3
"Amdt_StdImp|Product Description: AutoCAD Mechanical 2004 DX|Company: Autodesk"
 90
        0
280
     0
281
     0
  0
CLASS
  1
ACMCENTERLINESTANDARDISO
  2
AmdtCenterLineStdISO
  3
"Amdt_StdImp|Product Description: AutoCAD Mechanical 2004 DX|Company: Autodesk"
 90
        0
280
     0
281
     0
  0
CLASS
  1
ACMTHREADLINESTANDARDISO
  2
AmdtThreadLineStdISO
  3
"Amdt_StdImp|Product Description: AutoCAD Mechanical 2004 DX|Company: Autodesk"
 90
        0
280
     0
281
     0
  0
CLASS
  1
ACMNOTESTANDARDISO
  2
AmdtNoteStdISO
  3
"Amdt_StdImp|Product Description: AutoCAD Mechanical 2004 DX|Company: Autodesk"
 90
        0
280
     0
281
     0
  0
CLASS
  1
ACAMGHOLECHARTSTDISO
  2
AcAmgHoleChartStdISO
  3
ACMSYMBB_MODULE_NAME
 90
        0
280
     0
281
     0
  0
CLASS
  1
ACMNOTESTANDARDANSI
  2
AmdtNoteStdANSI
  3
"Amdt_StdImp|Product Description: AutoCAD Mechanical 2004 DX|Company: Autodesk"
 90
        0
280
     0
281
     0
  0
CLASS
  1
AMDTNOTETEMPLATEDB
  2
AmdtNoteTemplateDB
  3
AMDT_STDIMP_MODULE_NAME
 90
        0
280
     0
281
     0
  0
CLASS
  1
ACAMGHOLECHARTSTDANSI
  2
AcAmgHoleChartStdANSI
  3
ACMSYMBB_MODULE_NAME
 90
        0
280
     0
281
     0
  0
CLASS
  1
TABLESTYLE
  2
AcDbTableStyle
  3
ObjectDBX Classes
 90
     2047
280
     0
281
     0
  0
CLASS
  1
ACMBOM
  2
AcmBom
  3
"AcmSymBB|Product Description: AutoCAD Mechanical 2004 DX|Company: Autodesk"
 90
    32768
280
     0
281
     0
  0
CLASS
  1
AMDTFORMULAUPDATEDISPATCHER
  2
AmdtFormulaUpdateDispatcher
  3
AcMeServices
 90
    32768
280
     0
281
     0
  0
CLASS
  1
ACMPARTLIST
  2
AcmPartList
  3
"AcmSymBB|Product Description: AutoCAD Mechanical 2004 DX|Company: Autodesk"
 90
    33791
280
     0
281
     1
  0
CLASS
  1
VAACXREFPANELOBJECT
  2
VaAcXREFPanelObject
  3
VAAC_ADDIN
 90
    32768
280
     1
281
     0
  0
CLASS
  1
VAACIMAGEINVENTORY
  2
VaAcImageInventory
  3
VAAC_ADDIN
 90
    32768
280
     1
281
     0
  0
CLASS
  1
ACAMEXTERNALCOMPDEF
  2
AcAmExternalCompDef
  3
DesignerAssemblies
 90
    32768
280
     0
281
     0
  0
CLASS
  1
ACCMBODY
  2
AcCmBody
  3
DesignerAssemblies
 90
    32768
280
     0
281
     0
  0
CLASS
  1
ACAMCOMPENT
  2
AcAmCompEnt
  3
DesignerAssemblies
 90
    32768
280
     0
281
     1
  0
CLASS
  1
ACAMCOMPFEEDBACK
  2
AcAmCompFeedback
  3
DesignerAssemblies
 90
    32768
280
     0
281
     0
  0
CLASS
  1
ACAMCOMP
  2
AcAmComp
  3
DesignerAssemblies
 90
    32768
280
     0
281
     0
  0
CLASS
  1
ACAMCOMPENTCLONE
  2
AcAmCompEntClone
  3
DesignerAssemblies
 90
    32768
280
     0
281
     1
  0
CLASS
  1
ACAMCLONEREACTOR
  2
AcAmGrCompCloneReactor
  3
DesignerAssemblies
 90
    32768
280
     0
281
     0
  0
CLASS
  1
ADPART
  2
AcAdPart
  3
DesignerServices
 90
    32768
280
     0
281
     1
  0
CLASS
  1
WORKPLANEDISPLAYMGR
  2
AcAdDisplayMgr
  3
DesignerServices
 90
    32768
280
     0
281
     0
  0
CLASS
  1
PARAM
  2
AcAdParam
  3
DesignerServices
 90
    32768
280
     0
281
     0
  0
CLASS
  1
ADDATUMAXISABS
  2
AcAdDatumAxisAbs
  3
DesignerServices
 90
    32768
280
     0
281
     0
  0
CLASS
  1
ADDATUMPLANEABS
  2
AcAdDatumPlaneAbs
  3
DesignerServices
 90
    32768
280
     0
281
     0
  0
CLASS
  1
ADBASE
  2
AcAdBase
  3
DesignerServices
 90
    32768
280
     0
281
     0
  0
CLASS
  1
ADDATUMORIENTEDPLANE
  2
AcAdDatumOrientedPlane
  3
DesignerServices
 90
    32768
280
     0
281
     0
  0
CLASS
  1
BODYID
  2
AcAdBodyId
  3
DesignerServices
 90
    32768
280
     0
281
     0
  0
CLASS
  1
ACADCONSGROUP
  2
AcAdConstraintGroup
  3
DesignerServices
 90
    32768
280
     0
281
     0
  0
CLASS
  1
ACADREFLINEACAD
  2
AcAdVirtualReferenceLine
  3
DesignerServices
 90
    32768
280
     0
281
     0
  0
CLASS
  1
ACADCONSLINE
  2
AcAdConstrainedLine
  3
DesignerServices
 90
    32768
280
     0
281
     0
  0
CLASS
  1
ACADLINEACAD
  2
AcAdVirtualBoundedLineAcad
  3
DesignerServices
 90
    32768
280
     0
281
     0
  0
CLASS
  1
ACADCONSPOINT
  2
AcAdConstrainedPoint
  3
DesignerServices
 90
    32768
280
     0
281
     0
  0
CLASS
  1
ADPCURCNS
  2
AcAdPointCurveConstr
  3
DesignerServices
 90
    32768
280
     0
281
     0
  0
CLASS
  1
ADHORCNS
  2
AcAdHorizontalConstr
  3
DesignerServices
 90
    32768
280
     0
281
     0
  0
CLASS
  1
ADVERCNS
  2
AcAdVerticalConstr
  3
DesignerServices
 90
    32768
280
     0
281
     0
  0
CLASS
  1
ACAD_FIXCONSTRAINT
  2
AcAdFixedConstraint
  3
DesignerServices
 90
    32768
280
     0
281
     0
  0
CLASS
  1
ADHDISTCNS
  2
AcAdHorizontalDistanceConstr
  3
DesignerServices
 90
    32768
280
     0
281
     0
  0
CLASS
  1
ADVDISTCNS
  2
AcAdVerticalDistanceConstr
  3
DesignerServices
 90
    32768
280
     0
281
     0
  0
CLASS
  1
ACADIMPPTACAD
  2
AcAdVirtualImplicitPoint
  3
DesignerServices
 90
    32768
280
     0
281
     0
  0
CLASS
  1
ADCLPROF2D
  2
AcAdClosedProfile2d
  3
DesignerServices
 90
    32768
280
     0
281
     0
  0
CLASS
  1
DEPEDGEFEATUREORDERING
  2
AcAdDepEdgeFeatureOrdering
  3
DesignerServices
 90
    32768
280
     0
281
     0
  0
CLASS
  1
ACADVOLFEATWITHTRIM
  2
AcAdVolFeatWithTrim
  3
DesignerServices
 90
    32768
280
     0
281
     0
  0
CLASS
  1
ADPLANEID
  2
AcAdPlaneId
  3
DesignerServices
 90
    32768
280
     0
281
     0
  0
CLASS
  1
EDGEID
  2
AcAdEdgeId
  3
DesignerServices
 90
    32768
280
     0
281
     0
  0
CLASS
  1
CNRREFID
  2
AcAdCornerId
  3
DesignerServices
 90
    32768
280
     0
281
     0
  0
CLASS
  1
STREFID
  2
AcAdStraightRefId
  3
DesignerServices
 90
    32768
280
     0
281
     0
  0
CLASS
  1
ADDATUMPLANEFACE
  2
AcAdDatumPlaneFace
  3
DesignerServices
 90
    32768
280
     0
281
     0
  0
CLASS
  1
DATUMPLANEDISPLAY
  2
AcAdDatumPlaneDisplay
  3
DesignerServices
 90
    32768
280
     0
281
     1
  0
CLASS
  1
ADDATUMPLANEOFFSET
  2
AcAdDatumPlaneOffset
  3
DesignerServices
 90
    32768
280
     0
281
     0
  0
CLASS
  1
ADACADANGCNS
  2
AcAdAcadAngleConstr
  3
DesignerServices
 90
    32768
280
     0
281
     0
  0
CLASS
  1
ACADLINEDEPID
  2
AcAdVirtualLineDepId
  3
DesignerServices
 90
    32768
280
     0
281
     0
  0
CLASS
  1
ADCOLNCNS
  2
AcAdColinearConstr
  3
DesignerServices
 90
    32768
280
     0
281
     0
  0
CLASS
  1
ACADPOINTDEPID
  2
AcAdVirtualPointDepId
  3
DesignerServices
 90
    32768
280
     0
281
     0
  0
CLASS
  1
ACADCIRCLEACAD
  2
AcAdVirtualCircleAcad
  3
DesignerServices
 90
    32768
280
     0
281
     0
  0
CLASS
  1
ACADCONSCIRCLE
  2
AcAdConstrainedCircle
  3
DesignerServices
 90
    32768
280
     0
281
     0
  0
CLASS
  1
ADCTRPTCNS
  2
AcAdCenterPointConstr
  3
DesignerServices
 90
    32768
280
     0
281
     0
  0
CLASS
  1
ADACADDIACNS
  2
AcAdAcadDiameterConstr
  3
DesignerServices
 90
    32768
280
     0
281
     0
  0
CLASS
  1
ACADARCACAD
  2
AcAdVirtualArcAcad
  3
DesignerServices
 90
    32768
280
     0
281
     0
  0
CLASS
  1
ADTANCNS
  2
AcAdTangentConstr
  3
DesignerServices
 90
    32768
280
     0
281
     0
  0
CLASS
  1
ADPARCNS
  2
AcAdParallelConstr
  3
DesignerServices
 90
    32768
280
     0
281
     0
  0
CLASS
  1
ADCONCCNS
  2
AcAdConcentricConstr
  3
DesignerServices
 90
    32768
280
     0
281
     0
  0
CLASS
  1
ADEQRADCNS
  2
AcAdEqualRadiusConstr
  3
DesignerServices
 90
    32768
280
     0
281
     0
  0
CLASS
  1
CIRREFID
  2
AcAdCircleRefId
  3
DesignerServices
 90
    32768
280
     0
281
     0
  0
CLASS
  1
ACADCIRCDEPID
  2
AcAdVirtualCircleDepId
  3
DesignerServices
 90
    32768
280
     0
281
     0
  0
CLASS
  1
ADFILLET
  2
AcAdFillet
  3
DesignerServices
 90
    32768
280
     0
281
     0
  0
CLASS
  1
ADSURFGEOMID
  2
AcAdSurfGeomId
  3
DesignerServices
 90
    32768
280
     0
281
     0
  0
CLASS
  1
DATUMAXISDISPLAY
  2
AcAdDatumAxisDisplay
  3
DesignerServices
 90
    32768
280
     0
281
     1
  0
CLASS
  1
ADDATUMAXISCENTER
  2
AcAdDatumAxisCenter
  3
DesignerServices
 90
    32768
280
     0
281
     0
  0
CLASS
  1
DEPEDGESECONDARYDEPID
  2
AcAdDepEdgeSecondaryDepId
  3
DesignerServices
 90
    32768
280
     0
281
     0
  0
CLASS
  1
ADDATUMPOINTAXISPLANE
  2
AcAdDatumPointAxisPlane
  3
DesignerServices
 90
    32768
280
     0
281
     0
  0
CLASS
  1
ADHOLEFEAT
  2
AcAdHoleFeat
  3
DesignerServices
 90
    32768
280
     0
281
     0
  0
CLASS
  1
ADDATUMPLANEAXISPLANE
  2
AcAdDatumPlaneAxisPlane
  3
DesignerServices
 90
    32768
280
     0
281
     0
  0
CLASS
  1
ACADBOUNDEDLINEDATUMID
  2
AcAdVirtualBoundedLineDatumId
  3
DesignerServices
 90
    32768
280
     0
281
     0
  0
CLASS
  1
OSTREFID
  2
AcAdOrientedStraightRefId
  3
DesignerServices
 90
    32768
280
     0
281
     0
  0
CLASS
  1
ADDATUMPOINT2EDGES
  2
AcAdDatumPoint2Edges
  3
DesignerServices
 90
    32768
280
     0
281
     0
  0
CLASS
  1
DEPEDGEPATTERNFEATURE
  2
AcAdDepEdgePatternFeature
  3
DesignerServices
 90
    32768
280
     0
281
     0
  0
CLASS
  1
ACADPATTNFEAT
  2
AcAdPatternFeat
  3
DesignerServices
 90
    32768
280
     0
281
     0
  0
CLASS
  1
ADEQUALLENGTHCNS
  2
AcAdEqualLengthConstr
  3
DesignerServices
 90
    32768
280
     0
281
     0
  0
CLASS
  1
SORTENTSTABLE
  2
AcDbSortentsTable
  3
ObjectDBX Classes
 90
        0
280
     0
281
     0
  0
CLASS
  1
ACAMGROUNDEDBASECOMP
  2
AcAmGroundedBaseComp
  3
DesignerAssemblies
 90
    32768
280
     0
281
     0
  0
CLASS
  1
AMDTPERSON
  2
AmdtPerson
  3
AcAttribServices
 90
    32768
280
     0
281
     0
  0
CLASS
  1
ACRFMCADAPIATTHOLDER
  2
AcRfMCADAPIAttHolder
  3
AcAttribServices
 90
    32768
280
     0
281
     0
  0
CLASS
  1
AMDTORGANIZATION
  2
AmdtOrganization
  3
AcAttribServices
 90
    32768
280
     0
281
     0
  0
CLASS
  1
AMDTPERSONANDORGANIZATION
  2
AmdtPersonAndOrganization
  3
AcAttribServices
 90
    32768
280
     0
281
     0
  0
CLASS
  1
AMDTPROPERTYDEFINITION
  2
AmdtPropertyDefinition
  3
AcAttribServices
 90
    32768
280
     0
281
     0
  0
CLASS
  1
AMDTAPPROVALPERSONORGANIZATION
  2
AmdtApprovalPersonOrganization
  3
AcAttribServices
 90
    32768
280
     0
281
     0
  0
CLASS
  1
AMDTDATEANDTIME
  2
AmdtDateAndTime
  3
AcAttribServices
 90
    32768
280
     0
281
     0
  0
CLASS
  1
AMDTPRODUCTCATEGORY
  2
AmdtProductCategory
  3
AcAttribServices
 90
    32768
280
     0
281
     0
  0
CLASS
  1
AMDTPRODUCTCATEGORYRELATIONSHIP
  2
AmdtProductCategoryRelationship
  3
AcAttribServices
 90
    32768
280
     0
281
     0
  0
CLASS
  1
AMDTAPPROVAL
  2
AmdtApproval
  3
AcAttribServices
 90
    32768
280
     0
281
     0
  0
CLASS
  1
AMDTDATEANDTIMEASSIGNMENT
  2
AmdtDateAndTimeAssignment
  3
AcAttribServices
 90
    32768
280
     0
281
     0
  0
CLASS
  1
AMDTPERSONANDORGANIZATIONASSIGNMENT
  2
AmdtPersonAndOrganizationAssignment
  3
AcAttribServices
 90
    32768
280
     0
281
     0
  0
CLASS
  1
AMDTSECURITYCLASSIFICATION
  2
AmdtSecurityClassification
  3
AcAttribServices
 90
    32768
280
     0
281
     0
  0
CLASS
  1
AMDTPRODUCTDEFINITION
  2
AmdtProductDefinition
  3
AcAttribServices
 90
    32768
280
     0
281
     0
  0
CLASS
  1
AMDTPRODUCTDEFINITIONFORMATION
  2
AmdtProductDefinitionFormation
  3
AcAttribServices
 90
    32768
280
     0
281
     0
  0
CLASS
  1
AMDTPRODUCT
  2
AmdtProduct
  3
AcAttribServices
 90
    32768
280
     0
281
     0
  0
CLASS
  1
ACRFATTGENMGR
  2
AcRfAttGeneralMgr
  3
AcAttribServices
 90
        0
280
     0
281
     0
  0
CLASS
  1
ACRFOBJATTMGR
  2
AcRfObjAttGroupMgr
  3
AcAttribServices
 90
    32768
280
     0
281
     0
  0
CLASS
  1
ACADPARTCIRCEDGRES
  2
AcAdPartCircEdgRes
  3
AdGrefServices
 90
    32768
280
     0
281
     0
  0
CLASS
  1
ACRFINSADJ
  2
AcRfInsAdjuster
  3
AcMeServices
 90
    32768
280
     0
281
     0
  0
CLASS
  1
FACEID
  2
AcAdFaceId
  3
DesignerServices
 90
    32768
280
     0
281
     0
  0
CLASS
  1
ACADPARTPLANARFACERES
  2
AcAdPartPlanarFaceRes
  3
AdGrefServices
 90
    32768
280
     0
281
     0
  0
CLASS
  1
ACMELINEARARROW
  2
AcImLinearArrowDisplay
  3
AcMeServices
 90
    32768
280
     0
281
     1
  0
CLASS
  1
DEPEDGEPATTERNINSTANCE
  2
AcAdDepEdgePatternInstance
  3
DesignerServices
 90
    32768
280
     0
281
     0
  0
CLASS
  1
ACAMEXPR
  2
AcAmExpr
  3
DesignerAssemblies
 90
    32768
280
     0
281
     0
  0
CLASS
  1
ACCMINSERTPLPL
  2
AcCmInsertPlPl
  3
AcCmServices
 90
    32768
280
     0
281
     0
  0
CLASS
  1
ACCMCONSTREACTOR
  2
AcCmConstraintReactor
  3
DesignerAssemblies
 90
    32768
280
     0
281
     0
  0
CLASS
  1
ACADPARTCYLINDERFACERES
  2
AcAdPartCylinderFaceRes
  3
AdGrefServices
 90
    32768
280
     0
281
     0
  0
CLASS
  1
ACMEAXIS
  2
AcImAxisDisplay
  3
AcMeServices
 90
    32768
280
     0
281
     1
  0
CLASS
  1
ACCMANGVECVEC
  2
AcCmAngVecVec
  3
DesignerAssemblies
 90
    32768
280
     0
281
     0
  0
CLASS
  1
ACAMBLANKBODYCOMP
  2
AcAmBlankBodyComp
  3
DesignerAssemblies
 90
    32768
280
     0
281
     0
  0
CLASS
  1
ACAMTOOLBODYCOMP
  2
AcAmToolBodyComp
  3
DesignerAssemblies
 90
    32768
280
     0
281
     0
  0
CLASS
  1
ADPARAMETRICBOOLEAN
  2
AcAdParametricBoolean
  3
DesignerServices
 90
    32768
280
     0
281
     0
  0
CLASS
  1
DEPEDGEPARAMETRCBOOLORDERING
  2
AcAdDepEdgeParametricBooleanOrdering
  3
DesignerServices
 90
    32768
280
     0
281
     0
  0
CLASS
  1
AMACTIVEPARTSELECTFILTER
  2
AcDmActivePartViewEntFilter
  3
DesignerServices
 90
    32768
280
     0
281
     0
  0
CLASS
  1
AM_GREF_PLANE
  2
AcDmGrefPlnDef
  3
AcMechDwgViewMgmt
 90
    32768
280
     0
281
     0
  0
CLASS
  1
AM_ABS_AXIS
  2
AcDmAbsAxisDef
  3
AcMechDwgViewMgmt
 90
    32768
280
     0
281
     0
  0
CLASS
  1
AM_BASE_VIEW_ORIENT
  2
AcDmBaseViewOr
  3
AcMechDwgViewMgmt
 90
    32768
280
     0
281
     0
  0
CLASS
  1
AM_DWG_VIEWPORT
  2
AcDmViewport
  3
AcMechDwgViewMgmt
 90
    32768
280
     0
281
     0
  0
CLASS
  1
AM_VIEW_DISPLAY
  2
AcDmDwgViewDisplay
  3
AcMechDwgViewMgmt
 90
    32768
280
     0
281
     0
  0
CLASS
  1
AM_CLDFLTS
  2
AcDmClDflts
  3
AcMechDwgViewMgmt
 90
    32768
280
     0
281
     0
  0
CLASS
  1
AM_BASE_VIEW
  2
AcDmBaseView
  3
AcMechDwgViewMgmt
 90
    32768
280
     0
281
     0
  0
CLASS
  1
ACMEPLINE
  2
AcImPlineDisplay
  3
AcMeServices
 90
    32768
280
     0
281
     1
  0
CLASS
  1
ACDMPARTVIEWDATA
  2
AcDmPartViewData
  3
AcMechDwgViewMgmt
 90
    32768
280
     0
281
     0
  0
CLASS
  1
ACDMDISPLAYATTRIBS
  2
AcDmDisplayAttribs
  3
AcMechDwgViewMgmt
 90
    32768
280
     0
281
     0
  0
CLASS
  1
ACDMBODYINSTANCEDATA
  2
AcDmBodyInstanceData
  3
AcMechDwgViewMgmt
 90
    32768
280
     0
281
     0
  0
CLASS
  1
ACDMVWEDLINE
  2
AcDmViewEdgeLine
  3
AcMechDwgViewMgmt
 90
    32768
280
     0
281
     1
  0
CLASS
  1
ACDMVWEDELLIPSE
  2
AcDmViewEdgeEllipse
  3
AcMechDwgViewMgmt
 90
    32768
280
     0
281
     1
  0
CLASS
  1
ACDMVWEDSPLINE
  2
AcDmViewEdgeSpline
  3
AcMechDwgViewMgmt
 90
    32768
280
     0
281
     1
  0
CLASS
  1
ACDMVWEDARC
  2
AcDmViewEdgeArc
  3
AcMechDwgViewMgmt
 90
    32768
280
     0
281
     1
  0
CLASS
  1
ACADPARTPOINTRES
  2
AcAdPartPointRes
  3
AdGrefServices
 90
    32768
280
     0
281
     0
  0
CLASS
  1
ACADPARTSKETCHPLANEAXISRES
  2
AcAdPartSketchPlaneAxisRes
  3
DesignerServices
 90
    32768
280
     0
281
     0
  0
CLASS
  1
AM_VIEWDIMPARALLEL
  2
AcDmViewDimParallel
  3
AcMechDwgViewMgmt
 90
    32768
280
     0
281
     0
  0
CLASS
  1
AMDTDMPARMAPDATA
  2
AmdtDmDimParMapData
  3
AcMechDwgViewMgmt
 90
    32768
280
     0
281
     0
  0
CLASS
  1
AM_ADLINCTRLINE
  2
AcAdLineCl
  3
DesignerServices
 90
    32768
280
     0
281
     0
  0
CLASS
  1
AM_ORTHO_VIEW_ORIENT
  2
AcDmOrthoViewOr
  3
AcMechDwgViewMgmt
 90
    32768
280
     0
281
     0
  0
CLASS
  1
AM_ORTHO_VIEW
  2
AcDmOrthoView
  3
AcMechDwgViewMgmt
 90
    32768
280
     0
281
     0
  0
CLASS
  1
ACDMVWEDCIRC
  2
AcDmViewEdgeCircle
  3
AcMechDwgViewMgmt
 90
    32768
280
     0
281
     1
  0
CLASS
  1
ACADSKETCHPOINTRES
  2
AcAdSketchPointRes
  3
DesignerServices
 90
    32768
280
     0
281
     0
  0
CLASS
  1
AM_VIEWDIMLINEAR
  2
AcDmViewDimLinear
  3
AcMechDwgViewMgmt
 90
    32768
280
     0
281
     0
  0
CLASS
  1
ACADSKETCHLINERES
  2
AcAdSketchLineRes
  3
DesignerServices
 90
    32768
280
     0
281
     0
  0
CLASS
  1
AM_VIEWDIMANGULAR
  2
AcDmViewDimAngular
  3
AcMechDwgViewMgmt
 90
    32768
280
     0
281
     0
  0
CLASS
  1
ACADSKETCHCIRCARCRES
  2
AcAdSketchCircArcRes
  3
DesignerServices
 90
    32768
280
     0
281
     0
  0
CLASS
  1
AM_VIEWDIMDIAMETER
  2
AcDmViewDimDiameter
  3
AcMechDwgViewMgmt
 90
    32768
280
     0
281
     0
  0
CLASS
  1
AM_ADCIRCTRLINE
  2
AcAdBullsEyeCl
  3
DesignerServices
 90
    32768
280
     0
281
     0
  0
CLASS
  1
ACDBLINERES
  2
AcDbLineRes
  3
AcGrefServices
 90
    32768
280
     0
281
     0
  0
CLASS
  1
ACRFDMINSADJ
  2
AcRfDMInsAdjuster
  3
AcMechDwgViewMgmt
 90
    32768
280
     0
281
     0
  0
CLASS
  1
ACADPARTLINEDGRES
  2
AcAdPartLinEdgRes
  3
AdGrefServices
 90
    32768
280
     0
281
     0
  0
CLASS
  1
ACADPARTDATUMPOINTRES
  2
AcAdPartDatumPointRes
  3
AdGrefServices
 90
    32768
280
     0
281
     0
  0
CLASS
  1
AMDTEDGESTANDARDISO13715
  2
AmdtEdgeStdISO13715
  3
"Amdt_StdImp|Product Description: AutoCAD Mechanical 2004 DX|Company: Autodesk"
 90
        0
280
     0
281
     0
  0
CLASS
  1
MATERIAL
  2
AcDbMaterial
  3
ObjectDBX Classes
 90
        0
280
     0
281
     0
  0
ENDSEC
  0
SECTION
  2
TABLES
  0
TABLE
  2
VPORT
  5
1F
330
0
100
AcDbSymbolTable
 70
     1
  0
VPORT
  5
20
330
1F
100
AcDbSymbolTableRecord
100
AcDbViewportTableRecord
  2
*Active
 70
     0
 10
0.0
 20
0.0
 11
1.0
 21
1.0
 12
0.0
 22
0.0
 13
0.0
 23
0.0
 14
2.5
 24
2.5
 15
10.0
 25
10.0
 16
0.0
 26
0.0
 36
1.0
 17
0.0
 27
0.0
 37
0.0
 40
2.000000000000000E+20
 41
1.0
 42
50.0
 43
0.0
 44
0.0
 50
0.0
 51
0.0
 71
     0
 72
   100
 73
     1
 74
     1
 75
     0
 76
     0
 77
     0
 78
     0
281
     0
 65
     0
110
0.0
120
0.0
130
0.0
111
1.0
121
0.0
131
0.0
112
0.0
122
1.0
132
0.0
 79
     0
146
0.0
  0
ENDTAB
  0
TABLE
  2
LTYPE
  5
1A
330
0
100
AcDbSymbolTable
 70
    21
  0
LTYPE
  5
1B
330
1A
100
AcDbSymbolTableRecord
100
AcDbLinetypeTableRecord
  2
BYBLOCK
 70
     0
  3

 72
    65
 73
     0
 40
0.0
  0
LTYPE
  5
1C
330
1A
100
AcDbSymbolTableRecord
100
AcDbLinetypeTableRecord
  2
BYLAYER
 70
     0
  3

 72
    65
 73
     0
 40
0.0
  0
LTYPE
  5
9
330
1A
100
AcDbSymbolTableRecord
100
AcDbLinetypeTableRecord
  2
CONTINUOUS
 70
     0
  3
Solid line
 72
    65
 73
     0
 40
0.0
  0
LTYPE
  5
38
330
1A
100
AcDbSymbolTableRecord
100
AcDbLinetypeTableRecord
  2
AM_ISO08W050x2
 70
     0
  3
__ . __ . __ . __ . __ . __
 72
    65
 73
     4
 40
9.0
 49
6.0
 74
     0
 49
-0.75
 74
     0
 49
1.5
 74
     0
 49
-0.75
 74
     0
  0
LTYPE
  5
2A7
330
1A
100
AcDbSymbolTableRecord
100
AcDbLinetypeTableRecord
  2
HIDDEN
 70
     0
  3
Hidden __ __ __ __ __ __ __ __ __ __ __ __ __ _
 72
    65
 73
     2
 40
9.524999999999998
 49
6.349999999999999
 74
     0
 49
-3.174999999999999
 74
     0
  0
LTYPE
  5
2A8
330
1A
100
AcDbSymbolTableRecord
100
AcDbLinetypeTableRecord
  2
PHANTOM2
 70
     0
  3
Phantom (.5x) ___ _ _ ___ _ _ ___ _ _ ___ _ _
 72
    65
 73
     6
 40
31.75
 49
15.875
 74
     0
 49
-3.174999999999999
 74
     0
 49
3.174999999999999
 74
     0
 49
-3.174999999999999
 74
     0
 49
3.174999999999999
 74
     0
 49
-3.174999999999999
 74
     0
  0
LTYPE
  5
2A9
330
1A
100
AcDbSymbolTableRecord
100
AcDbLinetypeTableRecord
  2
CENTER
 70
     0
  3
Center ____ _ ____ _ ____ _ ____ _ ____ _ ____
 72
    65
 73
     4
 40
50.8
 49
31.75
 74
     0
 49
-6.349999999999999
 74
     0
 49
6.349999999999999
 74
     0
 49
-6.349999999999999
 74
     0
  0
LTYPE
  5
2DD
330
1A
100
AcDbSymbolTableRecord
100
AcDbLinetypeTableRecord
  2
AM_ISO02W050
 70
     0
  3
__ __ __ __ __ __ __ __ __ __ __ __ __ __ __
 72
    65
 73
     2
 40
7.5
 49
6.0
 74
     0
 49
-1.5
 74
     0
  0
LTYPE
  5
2DE
330
1A
100
AcDbSymbolTableRecord
100
AcDbLinetypeTableRecord
  2
AM_ISO08W050
 70
     0
  3
____ . ____ . ____ . ____ . ____ . ____ . ____
 72
    65
 73
     4
 40
18.0
 49
12.0
 74
     0
 49
-1.5
 74
     0
 49
3.0
 74
     0
 49
-1.5
 74
     0
  0
LTYPE
  5
2DF
330
1A
100
AcDbSymbolTableRecord
100
AcDbLinetypeTableRecord
  2
AM_ISO09W050
 70
     0
  3
_____ . . _____ . . _____ . . ____ .. ____
 72
    65
 73
     6
 40
22.5
 49
12.0
 74
     0
 49
-1.5
 74
     0
 49
3.0
 74
     0
 49
-1.5
 74
     0
 49
3.0
 74
     0
 49
-1.5
 74
     0
  0
LTYPE
  5
2E0
330
1A
100
AcDbSymbolTableRecord
100
AcDbLinetypeTableRecord
  2
Amconstr
 70
     0
  3
_______________________
 72
    65
 73
     2
 40
9999.0
 49
9999.0
 74
     0
 49
0.0
 74
     0
  0
LTYPE
  5
2E1
330
1A
100
AcDbSymbolTableRecord
100
AcDbLinetypeTableRecord
  2
AM_ISO02W050x2
 70
     0
  3
 _ _ _ _ _ _ _ _ _ _ _ _
 72
    65
 73
     2
 40
3.75
 49
3.0
 74
     0
 49
-0.75
 74
     0
  0
LTYPE
  5
2E4
330
1A
100
AcDbSymbolTableRecord
100
AcDbLinetypeTableRecord
  2
Amzigzag
 70
     0
  3
/\/-/\/-/\/-/\/-/\/-/\/
 72
    65
 73
     2
 40
11.0001
 49
0.0001
 74
     4
 75
   135
340
2E3
 46
0.04
 50
0.0
 44
0.0
 45
0.0
 49
-11.0
 74
     0
  0
LTYPE
  5
2F3
330
1A
100
AcDbSymbolTableRecord
100
AcDbLinetypeTableRecord
  2
ACISOWELD
 70
     0
  3
_ _ _ _ _
 72
    65
 73
     2
 40
2.0
 49
2.0
 74
     0
 49
-1.0
 74
     0
  0
LTYPE
  5
2F4
330
1A
100
AcDbSymbolTableRecord
100
AcDbLinetypeTableRecord
  2
ACISOTGB
 70
     0
  3
__ . . __ . .
 72
    65
 73
     6
 40
9.0
 49
4.0
 74
     0
 49
-1.0
 74
     0
 49
1.0
 74
     0
 49
-1.0
 74
     0
 49
1.0
 74
     0
 49
-1.0
 74
     0
  0
LTYPE
  5
2F5
330
1A
100
AcDbSymbolTableRecord
100
AcDbLinetypeTableRecord
  2
ACISOTGL
 70
     0
  3
_ _ _ _ _
 72
    65
 73
     2
 40
3.0
 49
2.0
 74
     0
 49
-1.0
 74
     0
  0
LTYPE
  5
ED5
330
1A
100
AcDbSymbolTableRecord
100
AcDbLinetypeTableRecord
  2
ASULTYPE
 70
     0
  3
實線
 72
    65
 73
     2
 40
3.0
 49
2.5
 74
     0
 49
0.5
 74
     0
  0
LTYPE
  5
ED6
330
1A
100
AcDbSymbolTableRecord
100
AcDbLinetypeTableRecord
  2
ASVLTYPE
 70
     0
  3
__ __ __ __ __ __ __ __ __ __ __ __ __ __ __ __ __ __ __ __ __
 72
    65
 73
     2
 40
0.75
 49
0.5
 74
     0
 49
-0.25
 74
     0
  0
LTYPE
  5
12A9
330
1A
100
AcDbSymbolTableRecord
100
AcDbLinetypeTableRecord
  2
CENTER2
 70
     0
  3
Center (.5x) ___ _ ___ _ ___ _ ___ _ ___ _ ___
 72
    65
 73
     4
 40
1.125
 49
0.75
 74
     0
 49
-0.125
 74
     0
 49
0.125
 74
     0
 49
-0.125
 74
     0
  0
LTYPE
  5
12AA
330
1A
100
AcDbSymbolTableRecord
100
AcDbLinetypeTableRecord
  2
HIDDEN2
 70
     0
  3
Hidden (.5x) _ _ _ _ _ _ _ _ _ _ _ _ _ _ _ _ _
 72
    65
 73
     2
 40
0.1875
 49
0.125
 74
     0
 49
-0.0625
 74
     0
  0
LTYPE
  5
12AB
330
1A
100
AcDbSymbolTableRecord
100
AcDbLinetypeTableRecord
  2
Amzigzag2
 70
     0
  3
/\/-/\/-/\/-/\/-/\/-/\/
 72
    65
 73
     2
 40
0.4401
 49
0.0001
 74
     4
 75
   135
340
2E3
 46
0.0016
 50
0.0
 44
0.0
 45
0.0
 49
-0.4400000000000001
 74
     0
  0
LTYPE
  5
12AC
330
1A
100
AcDbSymbolTableRecord
100
AcDbLinetypeTableRecord
  2
ACANSTGB
 70
     0
  3
__ . . __ . .
 72
    65
 73
     6
 40
0.35433070866
 49
0.15748031496
 74
     0
 49
-0.03937007874
 74
     0
 49
0.03937007874
 74
     0
 49
-0.03937007874
 74
     0
 49
0.03937007874
 74
     0
 49
-0.03937007874
 74
     0
  0
LTYPE
  5
12AD
330
1A
100
AcDbSymbolTableRecord
100
AcDbLinetypeTableRecord
  2
ACANSTGL
 70
     0
  3
_ _ _ _ _
 72
    65
 73
     2
 40
0.11811023622
 49
0.07874015748
 74
     0
 49
-0.03937007874
 74
     0
  0
ENDTAB
  0
TABLE
  2
LAYER
  5
14
102
{ACAD_XDICTIONARY
360
15
102
}
330
0
100
AcDbSymbolTable
 70
    13
  0
LAYER
  5
5
330
14
100
AcDbSymbolTableRecord
100
AcDbLayerTableRecord
  2
0
 70
     0
 62
     7
  6
CONTINUOUS
370
    -3
390
6
  0
LAYER
  5
81
330
14
100
AcDbSymbolTableRecord
100
AcDbLayerTableRecord
  2
AM_VIS
 70
     0
 62
     7
  6
CONTINUOUS
370
    -3
390
6
  0
LAYER
  5
37
330
14
100
AcDbSymbolTableRecord
100
AcDbLayerTableRecord
  2
AM_7
 70
     0
 62
     1
  6
AM_ISO08W050x2
370
    -3
390
6
  0
LAYER
  5
31D
330
14
100
AcDbSymbolTableRecord
100
AcDbLayerTableRecord
  2
LOGO
 70
     0
 62
     7
  6
CONTINUOUS
370
    -3
390
6
  0
LAYER
  5
47A
330
14
100
AcDbSymbolTableRecord
100
AcDbLayerTableRecord
  2
AM_5
 70
     0
 62
     5
  6
CONTINUOUS
370
    -3
390
6
  0
LAYER
  5
47C
330
14
100
AcDbSymbolTableRecord
100
AcDbLayerTableRecord
  2
Defpoints
 70
     0
 62
     7
  6
CONTINUOUS
290
     0
370
    -3
390
6
  0
LAYER
  5
831
330
14
100
AcDbSymbolTableRecord
100
AcDbLayerTableRecord
  2
SL
 70
     0
 62
     2
  6
CONTINUOUS
370
    -3
390
6
1001
AcAecLayerStandard
1000

1000

  0
LAYER
  5
EE8
330
14
100
AcDbSymbolTableRecord
100
AcDbLayerTableRecord
  2
AM_4
 70
     0
 62
     3
  6
CONTINUOUS
370
    25
390
6
  0
LAYER
  5
EE9
330
14
100
AcDbSymbolTableRecord
100
AcDbLayerTableRecord
  2
CENTER
 70
     0
 62
     1
  6
CENTER
370
    -3
390
6
  0
LAYER
  5
EEA
330
14
100
AcDbSymbolTableRecord
100
AcDbLayerTableRecord
  2
1
 70
     0
 62
     3
  6
CENTER
370
    -3
390
6
1001
AcAecLayerStandard
1000

1000

  0
LAYER
  5
12AE
102
{ACAD_XDICTIONARY
360
12AF
102
}
330
14
100
AcDbSymbolTableRecord
100
AcDbLayerTableRecord
  2
BOR
 70
     0
 62
     7
  6
CONTINUOUS
370
    -3
390
6
  0
LAYER
  5
12B1
330
14
100
AcDbSymbolTableRecord
100
AcDbLayerTableRecord
  2
HIDDEN
 70
     0
 62
     3
  6
AM_ISO02W050x2
370
    -3
390
6
  0
LAYER
  5
12B2
330
14
100
AcDbSymbolTableRecord
100
AcDbLayerTableRecord
  2
HID
 70
     0
 62
     3
  6
ACANSTGL
370
    -3
390
6
  0
ENDTAB
  0
TABLE
  2
STYLE
  5
17
330
0
100
AcDbSymbolTable
 70
     8
  0
STYLE
  5
18
330
17
100
AcDbSymbolTableRecord
100
AcDbTextStyleTableRecord
  2
STANDARD
 70
     0
 40
0.0
 41
1.0
 50
0.0
 71
     0
 42
1.0
  3
ISOCP.SHX
  4
CHINESET.SHX
  0
STYLE
  5
2E3
330
17
100
AcDbSymbolTableRecord
100
AcDbTextStyleTableRecord
  2

 70
     1
 40
0.0
 41
1.0
 50
0.0
 71
     0
 42
1.0
  3
ltypeshp.shx
  4

  0
STYLE
  5
2E5
330
17
100
AcDbSymbolTableRecord
100
AcDbTextStyleTableRecord
  2
ACISOTS
 70
     0
 40
1.0
 41
1.0
 50
0.0
 71
     0
 42
1.0
  3
isocp.shx
  4
chineset.shx
  0
STYLE
  5
2F2
330
17
100
AcDbSymbolTableRecord
100
AcDbTextStyleTableRecord
  2
ACISOGDT
 70
     0
 40
0.0
 41
1.0
 50
0.0
 71
     0
 42
1.0
  3
amgdt.shx
  4

  0
STYLE
  5
31E
330
17
100
AcDbSymbolTableRecord
100
AcDbTextStyleTableRecord
  2
CHINESET
 70
     0
 40
0.0
 41
1.0
 50
0.0
 71
     0
 42
1.0
  3
simplex
  4
CHINESET.SHX
  0
STYLE
  5
12B3
330
17
100
AcDbSymbolTableRecord
100
AcDbTextStyleTableRecord
  2
ACANSTS
 70
     0
 40
1.0
 41
1.0
 50
0.0
 71
     0
 42
4.0
  3
romans.shx
  4
chineset.shx
  0
STYLE
  5
12B4
330
17
100
AcDbSymbolTableRecord
100
AcDbTextStyleTableRecord
  2
ACANSGDT
 70
     0
 40
0.0
 41
1.0
 50
0.0
 71
     0
 42
4.0
  3
amgdtans.shx
  4

  0
ENDTAB
  0
TABLE
  2
VIEW
  5
1D
330
0
100
AcDbSymbolTable
 70
     1
  0
ENDTAB
  0
TABLE
  2
UCS
  5
1E
330
0
100
AcDbSymbolTable
 70
     0
  0
ENDTAB
  0
TABLE
  2
APPID
  5
21
330
0
100
AcDbSymbolTable
 70
    26
  0
APPID
  5
22
330
21
100
AcDbSymbolTableRecord
100
AcDbRegAppTableRecord
  2
ACAD
 70
     0
  0
APPID
  5
13
330
21
100
AcDbSymbolTableRecord
100
AcDbRegAppTableRecord
  2
ACAD_PSEXT
 70
     0
  0
APPID
  5
27A
330
21
100
AcDbSymbolTableRecord
100
AcDbRegAppTableRecord
  2
MCAD_NO_VIS
 70
     0
  0
APPID
  5
27B
330
21
100
AcDbSymbolTableRecord
100
AcDbRegAppTableRecord
  2
ACAD_TEMP_GRAPHIC
 70
     0
  0
APPID
  5
2AB
330
21
100
AcDbSymbolTableRecord
100
AcDbRegAppTableRecord
  2
AD_DRAW
 70
     0
  0
APPID
  5
2AE
330
21
100
AcDbSymbolTableRecord
100
AcDbRegAppTableRecord
  2
ACATTRIBSERVICES
 70
     0
  0
APPID
  5
2CC
330
21
100
AcDbSymbolTableRecord
100
AcDbRegAppTableRecord
  2
DESIGNERASSEMBLIES
 70
     0
  0
APPID
  5
2D2
330
21
100
AcDbSymbolTableRecord
100
AcDbRegAppTableRecord
  2
ACADM_DIM_EDIT
 70
     0
  0
APPID
  5
2D3
330
21
100
AcDbSymbolTableRecord
100
AcDbRegAppTableRecord
  2
AMDT_DM_ADJ
 70
     0
  0
APPID
  5
320
330
21
100
AcDbSymbolTableRecord
100
AcDbRegAppTableRecord
  2
GENIUS_GENOBJ-N-CRS_13
 70
     0
  0
APPID
  5
321
330
21
100
AcDbSymbolTableRecord
100
AcDbRegAppTableRecord
  2
GENIUS_GENOLIS_13
 70
     0
  0
APPID
  5
322
330
21
100
AcDbSymbolTableRecord
100
AcDbRegAppTableRecord
  2
GENIUS_GENOENT_13
 70
     0
  0
APPID
  5
323
330
21
100
AcDbSymbolTableRecord
100
AcDbRegAppTableRecord
  2
GENIUS_GENODEF_13
 70
     0
  0
APPID
  5
324
330
21
100
AcDbSymbolTableRecord
100
AcDbRegAppTableRecord
  2
GENIUS_GENOREF_13
 70
     0
  0
APPID
  5
325
330
21
100
AcDbSymbolTableRecord
100
AcDbRegAppTableRecord
  2
GENIUS_GENREC_14
 70
     0
  0
APPID
  5
326
330
21
100
AcDbSymbolTableRecord
100
AcDbRegAppTableRecord
  2
GENIUS_GENOBJ-N-REC_13
 70
     0
  0
APPID
  5
492
330
21
100
AcDbSymbolTableRecord
100
AcDbRegAppTableRecord
  2
ACAD_DSTYLE_DIMTEXT_FILL
 70
     0
  0
APPID
  5
564
330
21
100
AcDbSymbolTableRecord
100
AcDbRegAppTableRecord
  2
GENIUS_GENDIMSH_14
 70
     0
  0
APPID
  5
653
330
21
100
AcDbSymbolTableRecord
100
AcDbRegAppTableRecord
  2
GENIUS_GENDTOL_13
 70
     0
  0
APPID
  5
832
330
21
100
AcDbSymbolTableRecord
100
AcDbRegAppTableRecord
  2
AcAecLayerStandard
 70
     0
  0
APPID
  5
A9D
330
21
100
AcDbSymbolTableRecord
100
AcDbRegAppTableRecord
  2
GENIUS_GENDIM_13
 70
     0
  0
APPID
  5
A9E
330
21
100
AcDbSymbolTableRecord
100
AcDbRegAppTableRecord
  2
GENIUS_GE3DTOL_13
 70
     0
  0
APPID
  5
B1C
330
21
100
AcDbSymbolTableRecord
100
AcDbRegAppTableRecord
  2
ASURF_PCURVE_APPNAME
 70
     0
  0
APPID
  5
B21
330
21
100
AcDbSymbolTableRecord
100
AcDbRegAppTableRecord
  2
AMG_3D2D_5.0
 70
     0
  0
APPID
  5
12BC
330
21
100
AcDbSymbolTableRecord
100
AcDbRegAppTableRecord
  2
GENIUS_GENOBJ-N-CEN_13
 70
     0
  0
APPID
  5
12BD
330
21
100
AcDbSymbolTableRecord
100
AcDbRegAppTableRecord
  2
GENIUS_GENCEN_19
 70
     0
  0
ENDTAB
  0
TABLE
  2
DIMSTYLE
  5
23
330
0
100
AcDbSymbolTable
 70
    17
100
AcDbDimStyleTable
 71
     3
340
24
340
25
340
26
  0
DIMSTYLE
105
24
330
23
100
AcDbSymbolTableRecord
100
AcDbDimStyleTableRecord
  2
AM_ISO
 70
     0
  4
"
 41
2.5
 42
1.0
 43
8.0
 44
1.0
 47
0.1
 48
0.1
 73
     0
 74
     0
 77
     1
 78
     8
 79
     2
140
3.5
141
0.0
143
0.0393701
146
0.71
147
1.0
172
     1
176
   256
177
   256
178
   256
271
     2
272
     2
283
     0
284
     8
285
     8
340
18
371
    -1
372
    -1
  0
DIMSTYLE
105
25
330
23
100
AcDbSymbolTableRecord
100
AcDbDimStyleTableRecord
  2
AM_ISO$SF
 70
     0
  4
"
 41
2.5
 42
1.0
 43
10.0
 44
1.0
 47
0.1
 48
0.1
 73
     0
 74
     0
 75
     1
 76
     1
 77
     1
 78
     8
 79
     2
140
3.5
141
0.0
143
0.0393701
146
0.71
147
1.0
172
     1
176
   256
177
   256
178
   256
271
     2
272
     2
283
     0
284
     8
340
18
371
    -1
372
    -1
  0
DIMSTYLE
105
26
330
23
100
AcDbSymbolTableRecord
100
AcDbDimStyleTableRecord
  2
AM_ISO$SH
 70
     0
  4
"
 41
2.5
 42
1.0
 43
10.0
 44
1.0
 47
0.1
 48
0.1
 73
     0
 74
     0
 75
     1
 76
     1
 77
     1
 78
     8
 79
     2
140
3.5
141
0.0
143
0.0393701
144
2.0
146
0.71
147
1.0
172
     1
173
     1
176
   256
177
   256
178
   256
271
     2
272
     2
283
     0
284
     8
340
18
343
27
371
    -1
372
    -1
  0
DIMSTYLE
105
2FE
102
{ACAD_REACTORS
330
63E
330
1453
102
}
330
23
100
AcDbSymbolTableRecord
100
AcDbDimStyleTableRecord
  2
AM_ISO$3
 70
     0
  4
"
 41
2.5
 42
1.0
 43
8.0
 44
1.0
 47
0.1
 48
0.1
 73
     0
 77
     1
 78
     8
 79
     2
140
3.5
141
0.0
143
0.0393701
146
0.71
147
1.0
176
   256
177
   256
178
   256
271
     2
272
     2
283
     0
284
     8
285
     8
288
     1
289
     0
340
18
371
    -1
372
    -1
  0
DIMSTYLE
105
2FF
330
23
100
AcDbSymbolTableRecord
100
AcDbDimStyleTableRecord
  2
AM_ISO$4
 70
     0
  4
"
 41
2.5
 42
1.0
 43
8.0
 44
1.0
 47
0.1
 48
0.1
 73
     0
 77
     1
 78
     8
 79
     2
140
3.5
141
0.0
143
0.0393701
146
0.71
147
1.0
176
   256
177
   256
178
   256
271
     2
272
     2
283
     0
284
     8
285
     8
288
     1
289
     0
340
18
371
    -1
372
    -1
  0
DIMSTYLE
105
300
330
23
100
AcDbSymbolTableRecord
100
AcDbDimStyleTableRecord
  2
AM_ISO$6
 70
     0
  4
"
 41
2.5
 42
1.0
 43
8.0
 44
1.0
 47
0.1
 48
0.1
 73
     0
 74
     0
 78
     8
 79
     2
140
3.5
141
0.0
143
0.0393701
146
0.71
147
1.0
172
     1
176
   256
177
   256
178
   256
271
     2
272
     2
283
     0
284
     8
285
     8
340
18
371
    -1
372
    -1
  0
DIMSTYLE
105
301
102
{ACAD_REACTORS
330
820
102
}
330
23
100
AcDbSymbolTableRecord
100
AcDbDimStyleTableRecord
  2
AM_ISO$7
 70
     0
  4
"
 41
2.5
 42
1.0
 43
8.0
 44
1.0
 47
0.1
 48
0.1
 73
     0
 74
     0
 77
     1
 78
     8
 79
     2
140
5.0
141
0.0
143
0.0393701
146
0.71
147
1.5
172
     1
176
   256
177
   256
178
   256
271
     2
272
     2
283
     0
284
     8
285
     8
340
18
371
    -1
372
    -1
  0
DIMSTYLE
105
31F
102
{ACAD_REACTORS
330
501
330
529
330
54E
330
565
330
57B
330
591
330
5A7
330
5BD
330
9B7
330
9D6
330
1019
330
102F
330
1045
330
105B
330
109F
330
1368
330
1369
102
}
330
23
100
AcDbSymbolTableRecord
100
AcDbDimStyleTableRecord
  2
AM_ISO$0
 70
     0
  4
"
 40
2.0
 41
3.0
 42
1.0
 43
10.0
 44
1.0
 47
0.1
 48
0.1
 73
     0
 74
     0
 77
     1
 78
     8
 79
     2
140
3.5
141
0.0
143
0.0393701
146
0.71
147
1.0
172
     1
176
   256
177
   256
178
   256
271
     2
272
     2
283
     0
284
     8
285
     8
340
18
371
    -1
372
    -1
  0
DIMSTYLE
105
EEB
330
23
100
AcDbSymbolTableRecord
100
AcDbDimStyleTableRecord
  2
STANDARD
 70
     0
271
     2
272
     2
279
     2
340
18
  0
DIMSTYLE
105
12B5
330
23
100
AcDbSymbolTableRecord
100
AcDbDimStyleTableRecord
  2
AM_ANSI
 70
     0
  4
mm
 41
0.1
 42
0.05
 43
0.5
 44
0.1
 47
0.1
 48
0.1
 78
     7
 79
     2
140
0.12
141
0.0
146
0.71
147
0.06
176
   256
177
   256
178
     2
274
     4
284
     7
340
18
371
    -1
372
    -1
  0
DIMSTYLE
105
12B6
330
23
100
AcDbSymbolTableRecord
100
AcDbDimStyleTableRecord
  2
AM_ANSI$3
 70
     0
  4
mm
 41
0.1
 42
0.05
 43
0.5
 44
0.1
 47
0.1
 48
0.1
 78
     7
 79
     2
140
0.12
141
0.0
146
0.71
147
0.06
176
   256
177
   256
178
     2
274
     4
284
     7
288
     1
289
     0
340
18
371
    -1
372
    -1
  0
DIMSTYLE
105
12B7
330
23
100
AcDbSymbolTableRecord
100
AcDbDimStyleTableRecord
  2
AM_ANSI$4
 70
     0
  4
mm
 41
0.1
 42
0.05
 43
0.5
 44
0.1
 47
0.1
 48
0.1
 78
     7
 79
     2
140
0.12
141
0.0
146
0.71
147
0.06
176
   256
177
   256
178
     2
274
     4
284
     7
288
     1
289
     0
340
18
371
    -1
372
    -1
  0
DIMSTYLE
105
12B8
330
23
100
AcDbSymbolTableRecord
100
AcDbDimStyleTableRecord
  2
AM_ANSI$7
 70
     0
  4
mm
 41
0.1
 42
0.05
 43
0.5
 44
0.1
 47
0.1
 48
0.1
 78
     7
 79
     2
140
0.24
141
0.0
146
0.71
147
0.06
176
   256
177
   256
178
     2
274
     4
284
     7
340
18
371
    -1
372
    -1
  0
DIMSTYLE
105
12B9
330
23
100
AcDbSymbolTableRecord
100
AcDbDimStyleTableRecord
  2
AM_ANSI$SF
 70
     0
  4
mm
 41
0.1
 42
0.05
 43
0.5
 44
0.1
 47
0.1
 48
0.1
 75
     1
 76
     1
 78
     7
 79
     2
140
0.12
141
0.0
146
0.71
147
0.06
176
   256
177
   256
178
     2
274
     4
284
     7
340
18
371
    -1
372
    -1
  0
DIMSTYLE
105
12BA
330
23
100
AcDbSymbolTableRecord
100
AcDbDimStyleTableRecord
  2
AM_ANSI$SH
 70
     0
  4
mm
 41
0.1
 42
0.05
 43
0.5
 44
0.1
 47
0.1
 48
0.1
 75
     1
 76
     1
 78
     7
 79
     2
140
0.12
141
0.0
146
0.71
147
0.06
173
     1
176
   256
177
   256
178
     2
274
     4
284
     7
340
18
341
27
343
27
371
    -1
372
    -1
  0
DIMSTYLE
105
12BB
330
23
100
AcDbSymbolTableRecord
100
AcDbDimStyleTableRecord
  2
STANDARD$0
 70
     0
 41
3.0
 42
2.0
 43
8.0
 44
2.0
 73
     0
 74
     0
 77
     1
 78
     8
140
3.0
141
-1.0
146
0.6
147
1.5
176
   256
177
   256
178
   256
271
     2
272
     2
279
     2
284
     8
285
     8
286
     8
340
18
  0
ENDTAB
  0
TABLE
  2
BLOCK_RECORD
  5
1
330
0
100
AcDbSymbolTable
 70
    28
  0
BLOCK_RECORD
  5
2
102
{ACAD_XDICTIONARY
360
3
102
}
330
1
100
AcDbSymbolTableRecord
100
AcDbBlockTableRecord
  2
*MODEL_SPACE
340
B
  0
BLOCK_RECORD
  5
D
102
{ACAD_XDICTIONARY
360
EAB
102
}
330
1
100
AcDbSymbolTableRecord
100
AcDbBlockTableRecord
  2
*PAPER_SPACE
340
10
  0
BLOCK_RECORD
  5
27
330
1
100
AcDbSymbolTableRecord
100
AcDbBlockTableRecord
  2
GENAXEH
340
0
  0
BLOCK_RECORD
  5
502
330
1
100
AcDbSymbolTableRecord
100
AcDbBlockTableRecord
  2
*D1
340
0
  0
BLOCK_RECORD
  5
52A
330
1
100
AcDbSymbolTableRecord
100
AcDbBlockTableRecord
  2
*D2
340
0
  0
BLOCK_RECORD
  5
54F
330
1
100
AcDbSymbolTableRecord
100
AcDbBlockTableRecord
  2
*D3
340
0
  0
BLOCK_RECORD
  5
566
330
1
100
AcDbSymbolTableRecord
100
AcDbBlockTableRecord
  2
*D4
340
0
  0
BLOCK_RECORD
  5
57C
330
1
100
AcDbSymbolTableRecord
100
AcDbBlockTableRecord
  2
*D5
340
0
  0
BLOCK_RECORD
  5
592
330
1
100
AcDbSymbolTableRecord
100
AcDbBlockTableRecord
  2
*D6
340
0
  0
BLOCK_RECORD
  5
5A8
330
1
100
AcDbSymbolTableRecord
100
AcDbBlockTableRecord
  2
*D7
340
0
  0
BLOCK_RECORD
  5
5BE
330
1
100
AcDbSymbolTableRecord
100
AcDbBlockTableRecord
  2
*D8
340
0
  0
BLOCK_RECORD
  5
63F
330
1
100
AcDbSymbolTableRecord
100
AcDbBlockTableRecord
  2
*D9
340
0
  0
BLOCK_RECORD
  5
823
102
{ACAD_XDICTIONARY
360
824
102
}
330
1
100
AcDbSymbolTableRecord
100
AcDbBlockTableRecord
  2
A$C453B67D5
340
0
102
{BLKREFS
331
83C
102
}
  0
BLOCK_RECORD
  5
82A
102
{ACAD_XDICTIONARY
360
82B
102
}
330
1
100
AcDbSymbolTableRecord
100
AcDbBlockTableRecord
  2
A$C17481420
340
0
102
{BLKREFS
331
83D
102
}
  0
BLOCK_RECORD
  5
9B8
330
1
100
AcDbSymbolTableRecord
100
AcDbBlockTableRecord
  2
*D12
340
0
  0
BLOCK_RECORD
  5
9D7
330
1
100
AcDbSymbolTableRecord
100
AcDbBlockTableRecord
  2
*D13
340
0
  0
BLOCK_RECORD
  5
EE2
102
{ACAD_XDICTIONARY
360
EE3
102
}
330
1
100
AcDbSymbolTableRecord
100
AcDbBlockTableRecord
  2
A$C6896536C
340
0
  0
BLOCK_RECORD
  5
101A
330
1
100
AcDbSymbolTableRecord
100
AcDbBlockTableRecord
  2
*D16
340
0
  0
BLOCK_RECORD
  5
1030
330
1
100
AcDbSymbolTableRecord
100
AcDbBlockTableRecord
  2
*D17
340
0
  0
BLOCK_RECORD
  5
1046
330
1
100
AcDbSymbolTableRecord
100
AcDbBlockTableRecord
  2
*D18
340
0
  0
BLOCK_RECORD
  5
105C
330
1
100
AcDbSymbolTableRecord
100
AcDbBlockTableRecord
  2
*D19
340
0
  0
BLOCK_RECORD
  5
10A0
330
1
100
AcDbSymbolTableRecord
100
AcDbBlockTableRecord
  2
*D20
340
0
  0
BLOCK_RECORD
  5
11D3
102
{ACAD_XDICTIONARY
360
11D4
102
}
330
1
100
AcDbSymbolTableRecord
100
AcDbBlockTableRecord
  2
MCBQV-40
340
0
  0
BLOCK_RECORD
  5
12C1
102
{ACAD_XDICTIONARY
360
12C2
102
}
330
1
100
AcDbSymbolTableRecord
100
AcDbBlockTableRecord
  2
MCBQV2-40
340
0
  0
BLOCK_RECORD
  5
136A
330
1
100
AcDbSymbolTableRecord
100
AcDbBlockTableRecord
  2
*D24
340
0
  0
BLOCK_RECORD
  5
1376
330
1
100
AcDbSymbolTableRecord
100
AcDbBlockTableRecord
  2
*D25
340
0
  0
BLOCK_RECORD
  5
1454
330
1
100
AcDbSymbolTableRecord
100
AcDbBlockTableRecord
  2
*D26
340
0
  0
ENDTAB
  0
ENDSEC
  0
SECTION
  2
BLOCKS
  0
BLOCK
  5
4
330
2
100
AcDbEntity
  8
0
100
AcDbBlockBegin
  2
*MODEL_SPACE
 70
     0
 10
0.0
 20
0.0
 30
0.0
  3
*MODEL_SPACE
  1

  0
ENDBLK
  5
A
330
2
100
AcDbEntity
  8
0
100
AcDbBlockEnd
  0
BLOCK
  5
E
330
D
100
AcDbEntity
 67
     1
  8
0
100
AcDbBlockBegin
  2
*PAPER_SPACE
 70
     0
 10
0.0
 20
0.0
 30
0.0
  3
*PAPER_SPACE
  1

  0
ENDBLK
  5
F
330
D
100
AcDbEntity
 67
     1
  8
0
100
AcDbBlockEnd
  0
BLOCK
  5
28
330
27
100
AcDbEntity
  8
0
100
AcDbBlockBegin
  2
GENAXEH
 70
     0
 10
0.0
 20
0.0
 30
0.0
  3
GENAXEH
  1

  0
LINE
  5
29
330
27
100
AcDbEntity
  8
0
100
AcDbLine
 10
-1.0
 20
0.0
 30
0.0
 11
1.0
 21
0.0
 31
0.0
  0
ENDBLK
  5
2A
330
27
100
AcDbEntity
  8
0
100
AcDbBlockEnd
  0
BLOCK
  5
50C
330
502
100
AcDbEntity
  8
0
100
AcDbBlockBegin
  2
*D1
 70
     1
 10
0.0
 20
0.0
 30
0.0
  3
*D1
  1

  0
LINE
  5
15A7
330
502
100
AcDbEntity
  8
AM_5
100
AcDbLine
 10
40.82293556078684
 20
135.3454907407613
 30
0.0
 11
27.07698140012988
 21
135.3454907407613
 31
0.0
  0
LINE
  5
15A8
330
502
100
AcDbEntity
  8
AM_5
100
AcDbLine
 10
41.3229355607873
 20
100.3454907407611
 30
0.0
 11
27.07698140012987
 21
100.3454907407611
 31
0.0
  0
LINE
  5
15A9
330
502
100
AcDbEntity
  8
AM_5
100
AcDbLine
 10
28.07698140012988
 20
132.3454907407613
 30
0.0
 11
28.07698140012987
 21
103.3454907407611
 31
0.0
  0
SOLID
  5
15AA
330
502
100
AcDbEntity
  8
AM_5
100
AcDbTrace
 10
27.57698140012987
 20
132.3454907407613
 30
0.0
 11
28.57698140012987
 21
132.3454907407613
 31
0.0
 12
28.07698140012988
 22
135.3454907407613
 32
0.0
 13
28.07698140012988
 23
135.3454907407613
 33
0.0
  0
SOLID
  5
15AB
330
502
100
AcDbEntity
  8
AM_5
100
AcDbTrace
 10
27.57698140012987
 20
103.3454907407611
 30
0.0
 11
28.57698140012987
 21
103.3454907407611
 31
0.0
 12
28.07698140012987
 22
100.3454907407611
 32
0.0
 13
28.07698140012987
 23
100.3454907407611
 33
0.0
  0
MTEXT
  5
15AC
330
502
100
AcDbEntity
  8
AM_5
100
AcDbMText
 10
25.32698140012985
 20
117.8454907407613
 30
0.0
 40
3.5
 41
0.0
 71
     5
 72
     1
  1
%%c35
 11
0.0000000000000001
 21
1.0
 31
0.0
 73
     1
 44
1.0
1001
ACAD
1000
MTEXTBEGIN
1070
    73
1070
     1
1070
    44
1040
1.0
1070
    74
1070
     0
1000
MTEXTEND
  0
POINT
  5
15AD
330
502
100
AcDbEntity
  8
Defpoints
 62
     0
100
AcDbPoint
 10
41.82293556078684
 20
135.3454907407613
 30
0.0
  0
POINT
  5
15AE
330
502
100
AcDbEntity
  8
Defpoints
 62
     0
100
AcDbPoint
 10
42.3229355607873
 20
100.3454907407611
 30
0.0
  0
POINT
  5
15AF
330
502
100
AcDbEntity
  8
Defpoints
 62
     0
100
AcDbPoint
 10
28.07698140012987
 20
100.3454907407611
 30
0.0
  0
ENDBLK
  5
50D
330
502
100
AcDbEntity
  8
0
100
AcDbBlockEnd
  0
BLOCK
  5
536
330
52A
100
AcDbEntity
  8
0
100
AcDbBlockBegin
  2
*D2
 70
     1
 10
0.0
 20
0.0
 30
0.0
  3
*D2
  1

  0
LINE
  5
159C
330
52A
100
AcDbEntity
  8
AM_5
100
AcDbLine
 10
40.8229355607873
 20
100.8454907407624
 30
0.0
 11
40.8229355607873
 21
62.34549074076074
 31
0.0
  0
LINE
  5
159D
330
52A
100
AcDbEntity
  8
AM_5
100
AcDbLine
 10
44.82293556078684
 20
89.34549074076132
 30
0.0
 11
44.82293556078684
 21
62.34549074076074
 31
0.0
  0
LINE
  5
159E
330
52A
100
AcDbEntity
  8
AM_5
100
AcDbLine
 10
37.8229355607873
 20
63.34549074076074
 30
0.0
 11
34.8229355607873
 21
63.34549074076074
 31
0.0
  0
LINE
  5
159F
330
52A
100
AcDbEntity
  8
AM_5
100
AcDbLine
 10
47.82293556078684
 20
63.34549074076074
 30
0.0
 11
50.82293556078685
 21
63.34549074076074
 31
0.0
  0
LINE
  5
15A0
330
52A
100
AcDbEntity
  8
AM_5
100
AcDbLine
 10
40.8229355607873
 20
63.34549074076074
 30
0.0
 11
44.82293556078684
 21
63.34549074076074
 31
0.0
  0
SOLID
  5
15A1
330
52A
100
AcDbEntity
  8
AM_5
100
AcDbTrace
 10
37.8229355607873
 20
63.84549074076073
 30
0.0
 11
37.8229355607873
 21
62.84549074076074
 31
0.0
 12
40.8229355607873
 22
63.34549074076074
 32
0.0
 13
40.8229355607873
 23
63.34549074076074
 33
0.0
  0
SOLID
  5
15A2
330
52A
100
AcDbEntity
  8
AM_5
100
AcDbTrace
 10
47.82293556078684
 20
63.84549074076073
 30
0.0
 11
47.82293556078684
 21
62.84549074076074
 31
0.0
 12
44.82293556078684
 22
63.34549074076074
 32
0.0
 13
44.82293556078684
 23
63.34549074076074
 33
0.0
  0
MTEXT
  5
15A3
330
52A
100
AcDbEntity
  8
AM_5
100
AcDbMText
 10
42.82293556078707
 20
66.09549074076074
 30
0.0
 40
3.5
 41
0.0
 71
     5
 72
     1
  1
4
 73
     1
 44
1.0
1001
ACAD
1000
MTEXTBEGIN
1070
    73
1070
     1
1070
    44
1040
1.0
1070
    74
1070
     0
1000
MTEXTEND
  0
POINT
  5
15A4
330
52A
100
AcDbEntity
  8
Defpoints
 62
     0
100
AcDbPoint
 10
40.8229355607873
 20
101.8454907407624
 30
0.0
  0
POINT
  5
15A5
330
52A
100
AcDbEntity
  8
Defpoints
 62
     0
100
AcDbPoint
 10
44.82293556078684
 20
90.34549074076132
 30
0.0
  0
POINT
  5
15A6
330
52A
100
AcDbEntity
  8
Defpoints
 62
     0
100
AcDbPoint
 10
44.82293556078684
 20
63.34549074076074
 30
0.0
  0
ENDBLK
  5
537
330
52A
100
AcDbEntity
  8
0
100
AcDbBlockEnd
  0
BLOCK
  5
559
330
54F
100
AcDbEntity
  8
0
100
AcDbBlockBegin
  2
*D3
 70
     1
 10
0.0
 20
0.0
 30
0.0
  3
*D3
  1

  0
LINE
  5
1539
330
54F
100
AcDbEntity
  8
AM_5
100
AcDbLine
 10
44.8229355607873
 20
83.83243238901036
 30
0.0
 11
44.8229355607873
 21
70.34549074076108
 31
0.0
  0
LINE
  5
153A
330
54F
100
AcDbEntity
  8
AM_5
100
AcDbLine
 10
149.8229355607868
 20
79.34549074076119
 30
0.0
 11
149.8229355607868
 21
70.34549074076108
 31
0.0
  0
LINE
  5
153B
330
54F
100
AcDbEntity
  8
AM_5
100
AcDbLine
 10
47.82293556078729
 20
71.34549074076108
 30
0.0
 11
146.8229355607868
 21
71.34549074076108
 31
0.0
  0
SOLID
  5
153C
330
54F
100
AcDbEntity
  8
AM_5
100
AcDbTrace
 10
47.82293556078729
 20
71.84549074076108
 30
0.0
 11
47.82293556078729
 21
70.84549074076107
 31
0.0
 12
44.8229355607873
 22
71.34549074076108
 32
0.0
 13
44.8229355607873
 23
71.34549074076108
 33
0.0
  0
SOLID
  5
153D
330
54F
100
AcDbEntity
  8
AM_5
100
AcDbTrace
 10
146.8229355607868
 20
71.84549074076108
 30
0.0
 11
146.8229355607868
 21
70.84549074076107
 31
0.0
 12
149.8229355607868
 22
71.34549074076108
 32
0.0
 13
149.8229355607868
 23
71.34549074076108
 33
0.0
  0
MTEXT
  5
153E
330
54F
100
AcDbEntity
  8
AM_5
100
AcDbMText
 10
97.32293556078708
 20
74.09549074076108
 30
0.0
 40
3.5
 41
0.0
 71
     5
 72
     1
  1
105+Stroke
 73
     1
 44
1.0
1001
ACAD
1000
MTEXTBEGIN
1070
    73
1070
     1
1070
    44
1040
1.0
1070
    74
1070
     0
1000
MTEXTEND
  0
POINT
  5
153F
330
54F
100
AcDbEntity
  8
Defpoints
 62
     0
100
AcDbPoint
 10
44.8229355607873
 20
84.83243238901037
 30
0.0
  0
POINT
  5
1540
330
54F
100
AcDbEntity
  8
Defpoints
 62
     0
100
AcDbPoint
 10
149.8229355607868
 20
80.34549074076119
 30
0.0
  0
POINT
  5
1541
330
54F
100
AcDbEntity
  8
Defpoints
 62
     0
100
AcDbPoint
 10
149.8229355607868
 20
71.34549074076108
 30
0.0
  0
ENDBLK
  5
55A
330
54F
100
AcDbEntity
  8
0
100
AcDbBlockEnd
  0
BLOCK
  5
570
330
566
100
AcDbEntity
  8
0
100
AcDbBlockBegin
  2
*D4
 70
     1
 10
0.0
 20
0.0
 30
0.0
  3
*D4
  1

  0
LINE
  5
1542
330
566
100
AcDbEntity
  8
AM_5
100
AcDbLine
 10
149.8229355607868
 20
89.34549074076132
 30
0.0
 11
149.8229355607868
 21
70.34549074076108
 31
0.0
  0
LINE
  5
1543
330
566
100
AcDbEntity
  8
AM_5
100
AcDbLine
 10
219.822935560787
 20
90.3454907407613
 30
0.0
 11
219.822935560787
 21
70.34549074076108
 31
0.0
  0
LINE
  5
1544
330
566
100
AcDbEntity
  8
AM_5
100
AcDbLine
 10
152.8229355607868
 20
71.34549074076108
 30
0.0
 11
216.822935560787
 21
71.34549074076108
 31
0.0
  0
SOLID
  5
1545
330
566
100
AcDbEntity
  8
AM_5
100
AcDbTrace
 10
152.8229355607868
 20
71.84549074076108
 30
0.0
 11
152.8229355607868
 21
70.84549074076107
 31
0.0
 12
149.8229355607868
 22
71.34549074076108
 32
0.0
 13
149.8229355607868
 23
71.34549074076108
 33
0.0
  0
SOLID
  5
1546
330
566
100
AcDbEntity
  8
AM_5
100
AcDbTrace
 10
216.822935560787
 20
71.84549074076108
 30
0.0
 11
216.822935560787
 21
70.84549074076107
 31
0.0
 12
219.822935560787
 22
71.34549074076108
 32
0.0
 13
219.822935560787
 23
71.34549074076108
 33
0.0
  0
MTEXT
  5
1547
330
566
100
AcDbEntity
  8
AM_5
100
AcDbMText
 10
184.8229355607869
 20
74.09549074076108
 30
0.0
 40
3.5
 41
0.0
 71
     5
 72
     1
  1
70
 73
     1
 44
1.0
1001
ACAD
1000
MTEXTBEGIN
1070
    73
1070
     1
1070
    44
1040
1.0
1070
    74
1070
     0
1000
MTEXTEND
  0
POINT
  5
1548
330
566
100
AcDbEntity
  8
Defpoints
 62
     0
100
AcDbPoint
 10
149.8229355607868
 20
90.34549074076132
 30
0.0
  0
POINT
  5
1549
330
566
100
AcDbEntity
  8
Defpoints
 62
     0
100
AcDbPoint
 10
219.822935560787
 20
91.34549074076131
 30
0.0
  0
POINT
  5
154A
330
566
100
AcDbEntity
  8
Defpoints
 62
     0
100
AcDbPoint
 10
219.822935560787
 20
71.34549074076108
 30
0.0
  0
ENDBLK
  5
571
330
566
100
AcDbEntity
  8
0
100
AcDbBlockEnd
  0
BLOCK
  5
586
330
57C
100
AcDbEntity
  8
0
100
AcDbBlockBegin
  2
*D5
 70
     1
 10
0.0
 20
0.0
 30
0.0
  3
*D5
  1

  0
LINE
  5
161D
330
57C
100
AcDbEntity
  8
AM_5
100
AcDbLine
 10
219.822935560787
 20
90.3454907407613
 30
0.0
 11
219.822935560787
 21
70.34549074076108
 31
0.0
  0
LINE
  5
161E
330
57C
100
AcDbEntity
  8
AM_5
100
AcDbLine
 10
249.8229355607868
 20
110.8454907407613
 30
0.0
 11
249.8229355607868
 21
70.34549074076108
 31
0.0
  0
LINE
  5
161F
330
57C
100
AcDbEntity
  8
AM_5
100
AcDbLine
 10
222.822935560787
 20
71.34549074076108
 30
0.0
 11
246.8229355607868
 21
71.34549074076108
 31
0.0
  0
SOLID
  5
1620
330
57C
100
AcDbEntity
  8
AM_5
100
AcDbTrace
 10
222.822935560787
 20
71.84549074076108
 30
0.0
 11
222.822935560787
 21
70.84549074076107
 31
0.0
 12
219.822935560787
 22
71.34549074076108
 32
0.0
 13
219.822935560787
 23
71.34549074076108
 33
0.0
  0
SOLID
  5
1621
330
57C
100
AcDbEntity
  8
AM_5
100
AcDbTrace
 10
246.8229355607868
 20
71.84549074076108
 30
0.0
 11
246.8229355607868
 21
70.84549074076107
 31
0.0
 12
249.8229355607868
 22
71.34549074076108
 32
0.0
 13
249.8229355607868
 23
71.34549074076108
 33
0.0
  0
MTEXT
  5
1622
330
57C
100
AcDbEntity
  8
AM_5
100
AcDbMText
 10
234.8229355607869
 20
74.09549074076108
 30
0.0
 40
3.5
 41
0.0
 71
     5
 72
     1
  1
30
 73
     1
 44
1.0
1001
ACAD
1000
MTEXTBEGIN
1070
    73
1070
     1
1070
    44
1040
1.0
1070
    74
1070
     0
1000
MTEXTEND
  0
POINT
  5
1623
330
57C
100
AcDbEntity
  8
Defpoints
 62
     0
100
AcDbPoint
 10
219.822935560787
 20
91.34549074076131
 30
0.0
  0
POINT
  5
1624
330
57C
100
AcDbEntity
  8
Defpoints
 62
     0
100
AcDbPoint
 10
249.8229355607868
 20
111.8454907407613
 30
0.0
  0
POINT
  5
1625
330
57C
100
AcDbEntity
  8
Defpoints
 62
     0
100
AcDbPoint
 10
249.8229355607868
 20
71.34549074076108
 30
0.0
  0
ENDBLK
  5
587
330
57C
100
AcDbEntity
  8
0
100
AcDbBlockEnd
  0
BLOCK
  5
59C
330
592
100
AcDbEntity
  8
0
100
AcDbBlockBegin
  2
*D6
 70
     1
 10
0.0
 20
0.0
 30
0.0
  3
*D6
  1

  0
LINE
  5
1602
330
592
100
AcDbEntity
  8
AM_5
100
AcDbLine
 10
249.8229355607868
 20
110.7756684072911
 30
0.0
 11
249.8229355607868
 21
62.275668407291
 31
0.0
  0
LINE
  5
1603
330
592
100
AcDbEntity
  8
AM_5
100
AcDbLine
 10
273.8229355607868
 20
112.2756684072911
 30
0.0
 11
273.8229355607868
 21
62.275668407291
 31
0.0
  0
LINE
  5
1604
330
592
100
AcDbEntity
  8
AM_5
100
AcDbLine
 10
252.8229355607868
 20
63.27566840729101
 30
0.0
 11
270.8229355607869
 21
63.27566840729101
 31
0.0
  0
SOLID
  5
1605
330
592
100
AcDbEntity
  8
AM_5
100
AcDbTrace
 10
252.8229355607868
 20
63.77566840729101
 30
0.0
 11
252.8229355607868
 21
62.775668407291
 31
0.0
 12
249.8229355607868
 22
63.27566840729101
 32
0.0
 13
249.8229355607868
 23
63.27566840729101
 33
0.0
  0
SOLID
  5
1606
330
592
100
AcDbEntity
  8
AM_5
100
AcDbTrace
 10
270.8229355607869
 20
63.77566840729101
 30
0.0
 11
270.8229355607869
 21
62.775668407291
 31
0.0
 12
273.8229355607868
 22
63.27566840729101
 32
0.0
 13
273.8229355607868
 23
63.27566840729101
 33
0.0
  0
MTEXT
  5
1607
330
592
100
AcDbEntity
  8
AM_5
100
AcDbMText
 10
261.8229355607868
 20
66.02601289547997
 30
0.0
 40
3.5
 41
0.0
 71
     5
 72
     1
  1
24
 73
     1
 44
1.0
1001
ACAD
1000
MTEXTBEGIN
1070
    73
1070
     1
1070
    44
1040
1.0
1070
    74
1070
     0
1000
MTEXTEND
  0
POINT
  5
1608
330
592
100
AcDbEntity
  8
Defpoints
 62
     0
100
AcDbPoint
 10
249.8229355607868
 20
111.7756684072911
 30
0.0
  0
POINT
  5
1609
330
592
100
AcDbEntity
  8
Defpoints
 62
     0
100
AcDbPoint
 10
273.8229355607868
 20
113.2756684072911
 30
0.0
  0
POINT
  5
160A
330
592
100
AcDbEntity
  8
Defpoints
 62
     0
100
AcDbPoint
 10
273.8229355607868
 20
63.27566840729101
 30
0.0
  0
ENDBLK
  5
59D
330
592
100
AcDbEntity
  8
0
100
AcDbBlockEnd
  0
BLOCK
  5
5B2
330
5A8
100
AcDbEntity
  8
0
100
AcDbBlockBegin
  2
*D7
 70
     1
 10
0.0
 20
0.0
 30
0.0
  3
*D7
  1

  0
LINE
  5
1626
330
5A8
100
AcDbEntity
  8
AM_5
100
AcDbLine
 10
44.8229355607873
 20
89.34549074076132
 30
0.0
 11
44.8229355607873
 21
62.27566840729095
 31
0.0
  0
LINE
  5
1627
330
5A8
100
AcDbEntity
  8
AM_5
100
AcDbLine
 10
249.8229355607868
 20
110.8454907407613
 30
0.0
 11
249.8229355607868
 21
62.27566840729095
 31
0.0
  0
LINE
  5
1628
330
5A8
100
AcDbEntity
  8
AM_5
100
AcDbLine
 10
47.82293556078729
 20
63.27566840729095
 30
0.0
 11
246.8229355607868
 21
63.27566840729095
 31
0.0
  0
SOLID
  5
1629
330
5A8
100
AcDbEntity
  8
AM_5
100
AcDbTrace
 10
47.82293556078729
 20
63.77566840729095
 30
0.0
 11
47.82293556078729
 21
62.77566840729095
 31
0.0
 12
44.8229355607873
 22
63.27566840729095
 32
0.0
 13
44.8229355607873
 23
63.27566840729095
 33
0.0
  0
SOLID
  5
162A
330
5A8
100
AcDbEntity
  8
AM_5
100
AcDbTrace
 10
246.8229355607868
 20
63.77566840729095
 30
0.0
 11
246.8229355607868
 21
62.77566840729095
 31
0.0
 12
249.8229355607868
 22
63.27566840729095
 32
0.0
 13
249.8229355607868
 23
63.27566840729095
 33
0.0
  0
MTEXT
  5
162B
330
5A8
100
AcDbEntity
  8
AM_5
100
AcDbMText
 10
147.3229355607871
 20
66.02601289547992
 30
0.0
 40
3.5
 41
0.0
 71
     5
 72
     1
  1
205+Stroke
 73
     1
 44
1.0
1001
ACAD
1000
MTEXTBEGIN
1070
    73
1070
     1
1070
    44
1040
1.0
1070
    74
1070
     0
1000
MTEXTEND
  0
POINT
  5
162C
330
5A8
100
AcDbEntity
  8
Defpoints
 62
     0
100
AcDbPoint
 10
44.8229355607873
 20
90.34549074076132
 30
0.0
  0
POINT
  5
162D
330
5A8
100
AcDbEntity
  8
Defpoints
 62
     0
100
AcDbPoint
 10
249.8229355607868
 20
111.8454907407613
 30
0.0
  0
POINT
  5
162E
330
5A8
100
AcDbEntity
  8
Defpoints
 62
     0
100
AcDbPoint
 10
249.8229355607868
 20
63.27566840729095
 30
0.0
  0
ENDBLK
  5
5B3
330
5A8
100
AcDbEntity
  8
0
100
AcDbBlockEnd
  0
BLOCK
  5
5C8
330
5BE
100
AcDbEntity
  8
0
100
AcDbBlockBegin
  2
*D8
 70
     1
 10
0.0
 20
0.0
 30
0.0
  3
*D8
  1

  0
LINE
  5
1163
330
5BE
100
AcDbEntity
  8
AM_5
100
AcDbLine
 10
219.822935560787
 20
90.3454907407613
 30
0.0
 11
219.822935560787
 21
78.34549074076111
 31
0.0
  0
LINE
  5
1164
330
5BE
100
AcDbEntity
  8
AM_5
100
AcDbLine
 10
229.8229355607869
 20
100.3954907407612
 30
0.0
 11
229.8229355607869
 21
78.34549074076111
 31
0.0
  0
LINE
  5
1165
330
5BE
100
AcDbEntity
  8
AM_5
100
AcDbLine
 10
222.822935560787
 20
79.34549074076111
 30
0.0
 11
226.8229355607868
 21
79.34549074076111
 31
0.0
  0
SOLID
  5
1166
330
5BE
100
AcDbEntity
  8
AM_5
100
AcDbTrace
 10
222.822935560787
 20
79.8454907407611
 30
0.0
 11
222.822935560787
 21
78.84549074076111
 31
0.0
 12
219.822935560787
 22
79.34549074076111
 32
0.0
 13
219.822935560787
 23
79.34549074076111
 33
0.0
  0
SOLID
  5
1167
330
5BE
100
AcDbEntity
  8
AM_5
100
AcDbTrace
 10
226.8229355607868
 20
79.8454907407611
 30
0.0
 11
226.8229355607868
 21
78.84549074076111
 31
0.0
 12
229.8229355607869
 22
79.34549074076111
 32
0.0
 13
229.8229355607869
 23
79.34549074076111
 33
0.0
  0
MTEXT
  5
1168
330
5BE
100
AcDbEntity
  8
AM_5
100
AcDbMText
 10
224.8229355607869
 20
82.09549074076111
 30
0.0
 40
3.5
 41
0.0
 71
     5
 72
     1
  1
10
 73
     1
 44
1.0
1001
ACAD
1000
MTEXTBEGIN
1070
    73
1070
     1
1070
    44
1040
1.0
1070
    74
1070
     0
1000
MTEXTEND
  0
POINT
  5
1169
330
5BE
100
AcDbEntity
  8
Defpoints
 62
     0
100
AcDbPoint
 10
219.822935560787
 20
91.34549074076131
 30
0.0
  0
POINT
  5
116A
330
5BE
100
AcDbEntity
  8
Defpoints
 62
     0
100
AcDbPoint
 10
229.8229355607869
 20
101.3954907407612
 30
0.0
  0
POINT
  5
116B
330
5BE
100
AcDbEntity
  8
Defpoints
 62
     0
100
AcDbPoint
 10
229.8229355607869
 20
79.34549074076111
 30
0.0
  0
ENDBLK
  5
5C9
330
5BE
100
AcDbEntity
  8
0
100
AcDbBlockEnd
  0
BLOCK
  5
645
330
63F
100
AcDbEntity
  8
0
100
AcDbBlockBegin
  2
*D9
 70
     1
 10
0.0
 20
0.0
 30
0.0
  3
*D9
  1

  0
LINE
  5
116C
330
63F
100
AcDbEntity
  8
AM_5
100
AcDbLine
 10
62.4134439105795
 20
104.8615179842548
 30
0.0
 11
68.70753571202508
 21
83.03338943347538
 31
0.0
  0
LINE
  5
116D
330
63F
100
AcDbEntity
  8
AM_5
100
AcDbLine
 10
68.70753571202508
 20
83.03338943347538
 30
0.0
 11
83.44641366478098
 21
83.03338943347538
 31
0.0
  0
SOLID
  5
116E
330
63F
100
AcDbEntity
  8
AM_5
100
AcDbTrace
 10
62.81379920275894
 20
104.9769595328195
 30
0.0
 11
62.01308861840004
 21
104.74607643569
 31
0.0
 12
61.72079461919111
 22
107.2636497373314
 32
0.0
 13
61.72079461919111
 23
107.2636497373314
 33
0.0
  0
MTEXT
  5
116F
330
63F
100
AcDbEntity
  8
AM_5
100
AcDbMText
 10
76.57697468840301
 20
85.78960786701363
 30
0.0
 40
3.5
 41
0.0
 71
     5
 72
     1
  1
2-G1/4
 73
     1
 44
1.0
1001
ACAD
1000
MTEXTBEGIN
1070
    73
1070
     1
1070
    44
1040
1.0
1070
    74
1070
     0
1000
MTEXTEND
  0
POINT
  5
1170
330
63F
100
AcDbEntity
  8
Defpoints
 62
     0
100
AcDbPoint
 10
61.72079461919111
 20
107.2636497373314
 30
0.0
  0
POINT
  5
1171
330
63F
100
AcDbEntity
  8
Defpoints
 62
     0
100
AcDbPoint
 10
57.92507650238279
 20
120.4273317441914
 30
0.0
  0
ENDBLK
  5
646
330
63F
100
AcDbEntity
  8
0
100
AcDbBlockEnd
  0
BLOCK
  5
825
330
823
100
AcDbEntity
  8
0
100
AcDbBlockBegin
  2
A$C453B67D5
 70
     0
 10
0.0
 20
0.0
 30
0.0
  3
A$C453B67D5
  1

  0
TEXT
  5
826
330
823
100
AcDbEntity
  8
0
 62
     4
100
AcDbText
 10
0.0000000042221018
 20
15.6750728935973
 30
0.0
 40
3.0
  1
0
 41
0.75
  7
CHINESET
100
AcDbText
  0
LINE
  5
827
330
823
100
AcDbEntity
  8
0
 62
     4
100
AcDbLine
 10
0.7831209408720952
 20
-0.0000001285146709
 30
0.0
 11
0.7831209408720952
 21
12.50658996549839
 31
0.0
  0
TEXT
  5
828
330
823
100
AcDbEntity
  8
0
 62
     4
100
AcDbText
 10
5.354910616106053
 20
16.42400857412451
 30
0.0
 40
3.0
  1
Stroke
 41
0.75
  7
CHINESET
100
AcDbText
  0
ENDBLK
  5
829
330
823
100
AcDbEntity
  8
0
100
AcDbBlockEnd
  0
BLOCK
  5
82C
330
82A
100
AcDbEntity
  8
0
100
AcDbBlockBegin
  2
A$C17481420
 70
     0
 10
0.0
 20
0.0
 30
0.0
  3
A$C17481420
  1

  0
LINE
  5
82D
330
82A
100
AcDbEntity
  8
SL
100
AcDbLine
 10
14.92688374510175
 20
0.6911761177026392
 30
0.0
 11
5.249999590827769
 21
0.6911761177026392
 31
0.0
  0
TRACE
  5
82E
330
82A
100
AcDbEntity
  8
SL
370
    35
100
AcDbTrace
 10
5.249999590827769
 20
1.382351726952606
 30
0.0
 11
5.249999590827769
 21
0.000000508452672
 31
0.0
 12
-0.0000004091722303
 22
0.6911761177026392
 32
0.0
 13
-0.0000004091722303
 23
0.6911761177026392
 33
0.0
  0
MTEXT
  5
82F
330
82A
100
AcDbEntity
  8
SL
100
AcDbMText
 10
7.091092156233571
 20
2.131627989433411
 30
0.0
 40
3.674999999999999
 41
0.0
 71
     7
 72
     5
  1
SL
  7
ACISOTS
 73
     1
 44
1.0
1001
ACAD
1000
MTEXTBEGIN
1070
    73
1070
     1
1070
    44
1040
1.0
1070
    74
1070
     0
1000
MTEXTEND
  0
ENDBLK
  5
830
330
82A
100
AcDbEntity
  8
0
100
AcDbBlockEnd
  0
BLOCK
  5
9C2
330
9B8
100
AcDbEntity
  8
0
100
AcDbBlockBegin
  2
*D12
 70
     1
 10
0.0
 20
0.0
 30
0.0
  3
*D12
  1

  0
LINE
  5
15D3
330
9B8
100
AcDbEntity
  8
AM_5
100
AcDbLine
 10
242.8229355607868
 20
125.8454907407613
 30
0.0
 11
281.1800560026134
 21
125.8454907407613
 31
0.0
  0
LINE
  5
15D4
330
9B8
100
AcDbEntity
  8
AM_5
100
AcDbLine
 10
242.8229355607868
 20
109.8454907407613
 30
0.0
 11
281.1800560026134
 21
109.8454907407613
 31
0.0
  0
LINE
  5
15D5
330
9B8
100
AcDbEntity
  8
AM_5
100
AcDbLine
 10
280.1800560026133
 20
122.8454907407613
 30
0.0
 11
280.1800560026133
 21
112.8454907407613
 31
0.0
  0
SOLID
  5
15D6
330
9B8
100
AcDbEntity
  8
AM_5
100
AcDbTrace
 10
279.6800560026134
 20
122.8454907407613
 30
0.0
 11
280.6800560026133
 21
122.8454907407613
 31
0.0
 12
280.1800560026133
 22
125.8454907407613
 32
0.0
 13
280.1800560026133
 23
125.8454907407613
 33
0.0
  0
SOLID
  5
15D7
330
9B8
100
AcDbEntity
  8
AM_5
100
AcDbTrace
 10
279.6800560026134
 20
112.8454907407613
 30
0.0
 11
280.6800560026133
 21
112.8454907407613
 31
0.0
 12
280.1800560026133
 22
109.8454907407613
 32
0.0
 13
280.1800560026133
 23
109.8454907407613
 33
0.0
  0
MTEXT
  5
15D8
330
9B8
100
AcDbEntity
  8
AM_5
100
AcDbMText
 10
277.4300560026134
 20
117.8454907407613
 30
0.0
 40
3.5
 41
0.0
 71
     5
 72
     1
  1
%%c16
 11
0.0000000000000001
 21
1.0
 31
0.0
 73
     1
 44
1.0
1001
ACAD
1000
MTEXTBEGIN
1070
    73
1070
     1
1070
    44
1040
1.0
1070
    74
1070
     0
1000
MTEXTEND
  0
POINT
  5
15D9
330
9B8
100
AcDbEntity
  8
Defpoints
 62
     0
100
AcDbPoint
 10
241.8229355607869
 20
125.8454907407613
 30
0.0
  0
POINT
  5
15DA
330
9B8
100
AcDbEntity
  8
Defpoints
 62
     0
100
AcDbPoint
 10
241.8229355607869
 20
109.8454907407613
 30
0.0
  0
POINT
  5
15DB
330
9B8
100
AcDbEntity
  8
Defpoints
 62
     0
100
AcDbPoint
 10
280.1800560026133
 20
109.8454907407613
 30
0.0
  0
ENDBLK
  5
9C3
330
9B8
100
AcDbEntity
  8
0
100
AcDbBlockEnd
  0
BLOCK
  5
9E1
330
9D7
100
AcDbEntity
  8
0
100
AcDbBlockBegin
  2
*D13
 70
     1
 10
0.0
 20
0.0
 30
0.0
  3
*D13
  1

  0
LINE
  5
1638
330
9D7
100
AcDbEntity
  8
AM_5
100
AcDbLine
 10
229.8229355607869
 20
135.2954907407613
 30
0.0
 11
287.5546861116633
 21
135.2954907407613
 31
0.0
  0
LINE
  5
1639
330
9D7
100
AcDbEntity
  8
AM_5
100
AcDbLine
 10
229.8229355607869
 20
100.3954907407612
 30
0.0
 11
287.5546861116632
 21
100.3954907407612
 31
0.0
  0
LINE
  5
163A
330
9D7
100
AcDbEntity
  8
AM_5
100
AcDbLine
 10
286.5546861116633
 20
132.2954907407613
 30
0.0
 11
286.5546861116632
 21
103.3954907407612
 31
0.0
  0
SOLID
  5
163B
330
9D7
100
AcDbEntity
  8
AM_5
100
AcDbTrace
 10
286.0546861116633
 20
132.2954907407613
 30
0.0
 11
287.0546861116633
 21
132.2954907407613
 31
0.0
 12
286.5546861116633
 22
135.2954907407613
 32
0.0
 13
286.5546861116633
 23
135.2954907407613
 33
0.0
  0
SOLID
  5
163C
330
9D7
100
AcDbEntity
  8
AM_5
100
AcDbTrace
 10
286.0546861116632
 20
103.3954907407612
 30
0.0
 11
287.0546861116632
 21
103.3954907407612
 31
0.0
 12
286.5546861116632
 22
100.3954907407612
 32
0.0
 13
286.5546861116632
 23
100.3954907407612
 33
0.0
  0
MTEXT
  5
163D
330
9D7
100
AcDbEntity
  8
AM_5
100
AcDbMText
 10
283.8046861116632
 20
117.8454907407613
 30
0.0
 40
3.5
 41
0.0
 71
     5
 72
     1
  1
%%c34.9
 11
0.0000000000000001
 21
1.0
 31
0.0
 73
     1
 44
1.0
1001
ACAD
1000
MTEXTBEGIN
1070
    73
1070
     1
1070
    44
1040
1.0
1070
    74
1070
     0
1000
MTEXTEND
  0
POINT
  5
163E
330
9D7
100
AcDbEntity
  8
Defpoints
 62
     0
100
AcDbPoint
 10
228.8229355607868
 20
135.2954907407613
 30
0.0
  0
POINT
  5
163F
330
9D7
100
AcDbEntity
  8
Defpoints
 62
     0
100
AcDbPoint
 10
228.8229355607868
 20
100.3954907407612
 30
0.0
  0
POINT
  5
1640
330
9D7
100
AcDbEntity
  8
Defpoints
 62
     0
100
AcDbPoint
 10
286.5546861116632
 20
100.3954907407612
 30
0.0
  0
ENDBLK
  5
9E2
330
9D7
100
AcDbEntity
  8
0
100
AcDbBlockEnd
  0
BLOCK
  5
EE4
330
EE2
100
AcDbEntity
  8
0
100
AcDbBlockBegin
  2
A$C6896536C
 70
     0
 10
0.0
 20
0.0
 30
0.0
  3
A$C6896536C
  1

  0
LEADER
  5
EE5
330
EE2
100
AcDbEntity
  8
1
100
AcDbLeader
  3
AM_ISO$7
 76
     2
 10
0.0000000000009095
 20
1.166665247989385
 30
0.0
 10
14.8373054244048
 20
1.166665247989385
 30
0.0
1001
ACAD
1000
DSTYLE
1002
{
1070
    41
1040
3.5
1070
   147
1040
1.5
1070
    77
1070
     1
1070
    40
1040
2.0
1002
}
  0
MTEXT
  5
EE6
330
EE2
100
AcDbEntity
  8
1
100
AcDbMText
 10
5.488395901823423
 20
8.243041517246183
 30
0.0
 40
4.5
 41
10.70304085292628
 71
     1
 72
     5
  1
SL
  7
CHINESET
 73
     1
 44
1.0
1001
ACAD
1000
MTEXTBEGIN
1070
    73
1070
     1
1070
    44
1040
1.0
1070
    74
1070
     0
1000
MTEXTEND
  0
ENDBLK
  5
EE7
330
EE2
100
AcDbEntity
  8
0
100
AcDbBlockEnd
  0
BLOCK
  5
1024
330
101A
100
AcDbEntity
  8
0
100
AcDbBlockBegin
  2
*D16
 70
     1
 10
0.0
 20
0.0
 30
0.0
  3
*D16
  1

  0
LINE
  5
158A
330
101A
100
AcDbEntity
  8
AM_5
100
AcDbLine
 10
59.3229355607873
 20
121.0454907407609
 30
0.0
 11
59.3229355607873
 21
151.0415933083988
 31
0.0
  0
LINE
  5
158B
330
101A
100
AcDbEntity
  8
AM_5
100
AcDbLine
 10
44.8229355607873
 20
146.3454907407613
 30
0.0
 11
44.8229355607873
 21
151.0415933083988
 31
0.0
  0
LINE
  5
158C
330
101A
100
AcDbEntity
  8
AM_5
100
AcDbLine
 10
56.3229355607873
 20
150.0415933083989
 30
0.0
 11
47.82293556078729
 21
150.0415933083989
 31
0.0
  0
SOLID
  5
158D
330
101A
100
AcDbEntity
  8
AM_5
100
AcDbTrace
 10
56.3229355607873
 20
150.5415933083989
 30
0.0
 11
56.3229355607873
 21
149.5415933083989
 31
0.0
 12
59.3229355607873
 22
150.0415933083989
 32
0.0
 13
59.3229355607873
 23
150.0415933083989
 33
0.0
  0
SOLID
  5
158E
330
101A
100
AcDbEntity
  8
AM_5
100
AcDbTrace
 10
47.82293556078729
 20
150.5415933083989
 30
0.0
 11
47.82293556078729
 21
149.5415933083989
 31
0.0
 12
44.8229355607873
 22
150.0415933083989
 32
0.0
 13
44.8229355607873
 23
150.0415933083989
 33
0.0
  0
MTEXT
  5
158F
330
101A
100
AcDbEntity
  8
AM_5
100
AcDbMText
 10
52.0729355607873
 20
152.7915933083989
 30
0.0
 40
3.5
 41
0.0
 71
     5
 72
     1
  1
14.5
 73
     1
 44
1.0
1001
ACAD
1000
MTEXTBEGIN
1070
    73
1070
     1
1070
    44
1040
1.0
1070
    74
1070
     0
1000
MTEXTEND
  0
POINT
  5
1590
330
101A
100
AcDbEntity
  8
Defpoints
 62
     0
100
AcDbPoint
 10
59.3229355607873
 20
120.0454907407609
 30
0.0
  0
POINT
  5
1591
330
101A
100
AcDbEntity
  8
Defpoints
 62
     0
100
AcDbPoint
 10
44.8229355607873
 20
145.3454907407613
 30
0.0
  0
POINT
  5
1592
330
101A
100
AcDbEntity
  8
Defpoints
 62
     0
100
AcDbPoint
 10
44.8229355607873
 20
150.0415933083989
 30
0.0
  0
ENDBLK
  5
1025
330
101A
100
AcDbEntity
  8
0
100
AcDbBlockEnd
  0
BLOCK
  5
103A
330
1030
100
AcDbEntity
  8
0
100
AcDbBlockBegin
  2
*D17
 70
     1
 10
0.0
 20
0.0
 30
0.0
  3
*D17
  1

  0
LINE
  5
1593
330
1030
100
AcDbEntity
  8
AM_5
100
AcDbLine
 10
44.8229355607873
 20
146.3454907407613
 30
0.0
 11
44.8229355607873
 21
161.0415933083988
 31
0.0
  0
LINE
  5
1594
330
1030
100
AcDbEntity
  8
AM_5
100
AcDbLine
 10
78.8229355607873
 20
146.3454907407613
 30
0.0
 11
78.8229355607873
 21
161.0415933083988
 31
0.0
  0
LINE
  5
1595
330
1030
100
AcDbEntity
  8
AM_5
100
AcDbLine
 10
47.82293556078729
 20
160.0415933083988
 30
0.0
 11
75.8229355607873
 21
160.0415933083988
 31
0.0
  0
SOLID
  5
1596
330
1030
100
AcDbEntity
  8
AM_5
100
AcDbTrace
 10
47.82293556078729
 20
160.5415933083988
 30
0.0
 11
47.82293556078729
 21
159.5415933083988
 31
0.0
 12
44.8229355607873
 22
160.0415933083988
 32
0.0
 13
44.8229355607873
 23
160.0415933083988
 33
0.0
  0
SOLID
  5
1597
330
1030
100
AcDbEntity
  8
AM_5
100
AcDbTrace
 10
75.8229355607873
 20
160.5415933083988
 30
0.0
 11
75.8229355607873
 21
159.5415933083988
 31
0.0
 12
78.8229355607873
 22
160.0415933083988
 32
0.0
 13
78.8229355607873
 23
160.0415933083988
 33
0.0
  0
MTEXT
  5
1598
330
1030
100
AcDbEntity
  8
AM_5
100
AcDbMText
 10
61.8229355607873
 20
162.7915933083988
 30
0.0
 40
3.5
 41
0.0
 71
     5
 72
     1
  1
34
 73
     1
 44
1.0
1001
ACAD
1000
MTEXTBEGIN
1070
    73
1070
     1
1070
    44
1040
1.0
1070
    74
1070
     0
1000
MTEXTEND
  0
POINT
  5
1599
330
1030
100
AcDbEntity
  8
Defpoints
 62
     0
100
AcDbPoint
 10
44.8229355607873
 20
145.3454907407613
 30
0.0
  0
POINT
  5
159A
330
1030
100
AcDbEntity
  8
Defpoints
 62
     0
100
AcDbPoint
 10
78.8229355607873
 20
145.3454907407613
 30
0.0
  0
POINT
  5
159B
330
1030
100
AcDbEntity
  8
Defpoints
 62
     0
100
AcDbPoint
 10
78.8229355607873
 20
160.0415933083988
 30
0.0
  0
ENDBLK
  5
103B
330
1030
100
AcDbEntity
  8
0
100
AcDbBlockEnd
  0
BLOCK
  5
1050
330
1046
100
AcDbEntity
  8
0
100
AcDbBlockBegin
  2
*D18
 70
     1
 10
0.0
 20
0.0
 30
0.0
  3
*D18
  1

  0
LINE
  5
155D
330
1046
100
AcDbEntity
  8
AM_5
100
AcDbLine
 10
135.3229355607873
 20
121.1303831172929
 30
0.0
 11
135.3229355607873
 21
151.0415933083987
 31
0.0
  0
LINE
  5
155E
330
1046
100
AcDbEntity
  8
AM_5
100
AcDbLine
 10
149.8229355607868
 20
146.3454907407613
 30
0.0
 11
149.8229355607868
 21
151.0415933083987
 31
0.0
  0
LINE
  5
155F
330
1046
100
AcDbEntity
  8
AM_5
100
AcDbLine
 10
138.3229355607873
 20
150.0415933083987
 30
0.0
 11
146.8229355607868
 21
150.0415933083987
 31
0.0
  0
SOLID
  5
1560
330
1046
100
AcDbEntity
  8
AM_5
100
AcDbTrace
 10
138.3229355607873
 20
150.5415933083988
 30
0.0
 11
138.3229355607873
 21
149.5415933083988
 31
0.0
 12
135.3229355607873
 22
150.0415933083987
 32
0.0
 13
135.3229355607873
 23
150.0415933083987
 33
0.0
  0
SOLID
  5
1561
330
1046
100
AcDbEntity
  8
AM_5
100
AcDbTrace
 10
146.8229355607868
 20
150.5415933083988
 30
0.0
 11
146.8229355607868
 21
149.5415933083988
 31
0.0
 12
149.8229355607868
 22
150.0415933083987
 32
0.0
 13
149.8229355607868
 23
150.0415933083987
 33
0.0
  0
MTEXT
  5
1562
330
1046
100
AcDbEntity
  8
AM_5
100
AcDbMText
 10
142.572935560787
 20
152.7915933083987
 30
0.0
 40
3.5
 41
0.0
 71
     5
 72
     1
  1
14.5
 73
     1
 44
1.0
1001
ACAD
1000
MTEXTBEGIN
1070
    73
1070
     1
1070
    44
1040
1.0
1070
    74
1070
     0
1000
MTEXTEND
  0
POINT
  5
1563
330
1046
100
AcDbEntity
  8
Defpoints
 62
     0
100
AcDbPoint
 10
135.3229355607873
 20
120.1303831172929
 30
0.0
  0
POINT
  5
1564
330
1046
100
AcDbEntity
  8
Defpoints
 62
     0
100
AcDbPoint
 10
149.8229355607868
 20
145.3454907407613
 30
0.0
  0
POINT
  5
1565
330
1046
100
AcDbEntity
  8
Defpoints
 62
     0
100
AcDbPoint
 10
149.8229355607868
 20
150.0415933083987
 30
0.0
  0
ENDBLK
  5
1051
330
1046
100
AcDbEntity
  8
0
100
AcDbBlockEnd
  0
BLOCK
  5
1066
330
105C
100
AcDbEntity
  8
0
100
AcDbBlockBegin
  2
*D19
 70
     1
 10
0.0
 20
0.0
 30
0.0
  3
*D19
  1

  0
LINE
  5
156F
330
105C
100
AcDbEntity
  8
AM_5
100
AcDbLine
 10
115.8229355607868
 20
146.3454907407613
 30
0.0
 11
115.8229355607868
 21
161.0415933083988
 31
0.0
  0
LINE
  5
1570
330
105C
100
AcDbEntity
  8
AM_5
100
AcDbLine
 10
149.8229355607868
 20
148.0990974892636
 30
0.0
 11
149.8229355607868
 21
161.0415933083988
 31
0.0
  0
LINE
  5
1571
330
105C
100
AcDbEntity
  8
AM_5
100
AcDbLine
 10
118.8229355607868
 20
160.0415933083987
 30
0.0
 11
146.8229355607868
 21
160.0415933083987
 31
0.0
  0
SOLID
  5
1572
330
105C
100
AcDbEntity
  8
AM_5
100
AcDbTrace
 10
118.8229355607868
 20
160.5415933083987
 30
0.0
 11
118.8229355607868
 21
159.5415933083988
 31
0.0
 12
115.8229355607868
 22
160.0415933083987
 32
0.0
 13
115.8229355607868
 23
160.0415933083987
 33
0.0
  0
SOLID
  5
1573
330
105C
100
AcDbEntity
  8
AM_5
100
AcDbTrace
 10
146.8229355607868
 20
160.5415933083987
 30
0.0
 11
146.8229355607868
 21
159.5415933083988
 31
0.0
 12
149.8229355607868
 22
160.0415933083987
 32
0.0
 13
149.8229355607868
 23
160.0415933083987
 33
0.0
  0
MTEXT
  5
1574
330
105C
100
AcDbEntity
  8
AM_5
100
AcDbMText
 10
132.8229355607868
 20
162.7915933083988
 30
0.0
 40
3.5
 41
0.0
 71
     5
 72
     1
  1
34
 73
     1
 44
1.0
1001
ACAD
1000
MTEXTBEGIN
1070
    73
1070
     1
1070
    44
1040
1.0
1070
    74
1070
     0
1000
MTEXTEND
  0
POINT
  5
1575
330
105C
100
AcDbEntity
  8
Defpoints
 62
     0
100
AcDbPoint
 10
115.8229355607868
 20
145.3454907407613
 30
0.0
  0
POINT
  5
1576
330
105C
100
AcDbEntity
  8
Defpoints
 62
     0
100
AcDbPoint
 10
149.8229355607868
 20
147.0990974892636
 30
0.0
  0
POINT
  5
1577
330
105C
100
AcDbEntity
  8
Defpoints
 62
     0
100
AcDbPoint
 10
149.8229355607868
 20
160.0415933083987
 30
0.0
  0
ENDBLK
  5
1067
330
105C
100
AcDbEntity
  8
0
100
AcDbBlockEnd
  0
BLOCK
  5
10AC
330
10A0
100
AcDbEntity
  8
0
100
AcDbBlockBegin
  2
*D20
 70
     1
 10
0.0
 20
0.0
 30
0.0
  3
*D20
  1

  0
LINE
  5
11A8
330
10A0
100
AcDbEntity
  8
AM_5
100
AcDbLine
 10
51.06824394804085
 20
112.5454907407611
 30
0.0
 11
33.89293919493732
 21
112.5454907407611
 31
0.0
  0
LINE
  5
11A9
330
10A0
100
AcDbEntity
  8
AM_5
100
AcDbLine
 10
37.58345270730388
 20
117.8454907407613
 30
0.0
 11
33.89293919493732
 21
117.8454907407613
 31
0.0
  0
LINE
  5
11AA
330
10A0
100
AcDbEntity
  8
AM_5
100
AcDbLine
 10
34.89293919493731
 20
109.5454907407611
 30
0.0
 11
34.89293919493731
 21
106.5454907407611
 31
0.0
  0
LINE
  5
11AB
330
10A0
100
AcDbEntity
  8
AM_5
100
AcDbLine
 10
34.89293919493732
 20
120.8454907407613
 30
0.0
 11
34.89293919493732
 21
123.8454907407613
 31
0.0
  0
LINE
  5
11AC
330
10A0
100
AcDbEntity
  8
AM_5
100
AcDbLine
 10
34.89293919493732
 20
112.5454907407611
 30
0.0
 11
34.89293919493732
 21
117.8454907407613
 31
0.0
  0
SOLID
  5
11AD
330
10A0
100
AcDbEntity
  8
AM_5
100
AcDbTrace
 10
34.39293919493731
 20
109.5454907407611
 30
0.0
 11
35.39293919493732
 21
109.5454907407611
 31
0.0
 12
34.89293919493732
 22
112.5454907407611
 32
0.0
 13
34.89293919493732
 23
112.5454907407611
 33
0.0
  0
SOLID
  5
11AE
330
10A0
100
AcDbEntity
  8
AM_5
100
AcDbTrace
 10
34.39293919493732
 20
120.8454907407613
 30
0.0
 11
35.39293919493732
 21
120.8454907407613
 31
0.0
 12
34.89293919493732
 22
117.8454907407613
 32
0.0
 13
34.89293919493732
 23
117.8454907407613
 33
0.0
  0
MTEXT
  5
11AF
330
10A0
100
AcDbEntity
  8
AM_5
100
AcDbMText
 10
32.1429391949373
 20
115.1954907407612
 30
0.0
 40
3.5
 41
0.0
 71
     5
 72
     1
  1
5.3
 11
0.0000000000000001
 21
1.0
 31
0.0
 73
     1
 44
1.0
1001
ACAD
1000
MTEXTBEGIN
1070
    73
1070
     1
1070
    44
1040
1.0
1070
    74
1070
     0
1000
MTEXTEND
  0
POINT
  5
11B0
330
10A0
100
AcDbEntity
  8
Defpoints
 62
     0
100
AcDbPoint
 10
52.06824394804084
 20
112.5454907407611
 30
0.0
  0
POINT
  5
11B1
330
10A0
100
AcDbEntity
  8
Defpoints
 62
     0
100
AcDbPoint
 10
38.58345270730388
 20
117.8454907407613
 30
0.0
  0
POINT
  5
11B2
330
10A0
100
AcDbEntity
  8
Defpoints
 62
     0
100
AcDbPoint
 10
34.89293919493732
 20
117.8454907407613
 30
0.0
  0
ENDBLK
  5
10AD
330
10A0
100
AcDbEntity
  8
0
100
AcDbBlockEnd
  0
BLOCK
  5
11D5
330
11D3
100
AcDbEntity
  8
0
100
AcDbBlockBegin
  2
MCBQV-40
 70
     0
 10
0.0
 20
0.0
 30
0.0
  3
MCBQV-40
  1

  0
ENDBLK
  5
11D6
330
11D3
100
AcDbEntity
  8
0
100
AcDbBlockEnd
  0
BLOCK
  5
12C3
330
12C1
100
AcDbEntity
  8
0
100
AcDbBlockBegin
  2
MCBQV2-40
 70
     0
 10
0.0
 20
0.0
 30
0.0
  3
MCBQV2-40
  1

  0
ENDBLK
  5
12C4
330
12C1
100
AcDbEntity
  8
0
100
AcDbBlockEnd
  0
BLOCK
  5
1374
330
136A
100
AcDbEntity
  8
0
100
AcDbBlockBegin
  2
*D24
 70
     1
 10
0.0
 20
0.0
 30
0.0
  3
*D24
  1

  0
LINE
  5
15E5
330
136A
100
AcDbEntity
  8
AM_5
100
AcDbLine
 10
370.744267998559
 20
92.28434255913144
 30
0.0
 11
370.744267998559
 21
68.26421849447362
 31
0.0
  0
LINE
  5
15E6
330
136A
100
AcDbEntity
  8
AM_5
100
AcDbLine
 10
316.7442679985579
 20
92.28434255913175
 30
0.0
 11
316.7442679985579
 21
68.26421849447362
 31
0.0
  0
LINE
  5
15E7
330
136A
100
AcDbEntity
  8
AM_5
100
AcDbLine
 10
367.744267998559
 20
69.26421849447362
 30
0.0
 11
319.7442679985579
 21
69.26421849447362
 31
0.0
  0
SOLID
  5
15E8
330
136A
100
AcDbEntity
  8
AM_5
100
AcDbTrace
 10
367.744267998559
 20
69.76421849447362
 30
0.0
 11
367.744267998559
 21
68.76421849447362
 31
0.0
 12
370.744267998559
 22
69.26421849447362
 32
0.0
 13
370.744267998559
 23
69.26421849447362
 33
0.0
  0
SOLID
  5
15E9
330
136A
100
AcDbEntity
  8
AM_5
100
AcDbTrace
 10
319.7442679985579
 20
69.76421849447362
 30
0.0
 11
319.7442679985579
 21
68.76421849447362
 31
0.0
 12
316.7442679985579
 22
69.26421849447362
 32
0.0
 13
316.7442679985579
 23
69.26421849447362
 33
0.0
  0
MTEXT
  5
15EA
330
136A
100
AcDbEntity
  8
AM_5
100
AcDbMText
 10
343.6140890614837
 20
72.01421849447362
 30
0.0
 40
3.5
 41
0.0
 71
     5
 72
     1
  1
{\Famgdt|c136;o}54
 73
     1
 44
1.0
1001
ACAD
1000
MTEXTBEGIN
1070
    73
1070
     1
1070
    44
1040
1.0
1070
    74
1070
     0
1000
MTEXTEND
  0
POINT
  5
15EB
330
136A
100
AcDbEntity
  8
Defpoints
 62
     0
100
AcDbPoint
 10
370.744267998559
 20
93.28434255913144
 30
0.0
  0
POINT
  5
15EC
330
136A
100
AcDbEntity
  8
Defpoints
 62
     0
100
AcDbPoint
 10
316.7442679985579
 20
93.28434255913174
 30
0.0
  0
POINT
  5
15ED
330
136A
100
AcDbEntity
  8
Defpoints
 62
     0
100
AcDbPoint
 10
316.7442679985579
 20
69.26421849447362
 30
0.0
  0
ENDBLK
  5
1375
330
136A
100
AcDbEntity
  8
0
100
AcDbBlockEnd
  0
BLOCK
  5
1380
330
1376
100
AcDbEntity
  8
0
100
AcDbBlockBegin
  2
*D25
 70
     1
 10
0.0
 20
0.0
 30
0.0
  3
*D25
  1

  0
LINE
  5
15EE
330
1376
100
AcDbEntity
  8
AM_5
100
AcDbLine
 10
362.7442679985586
 20
92.62454801815271
 30
0.0
 11
362.7442679985586
 21
79.41772777236494
 31
0.0
  0
LINE
  5
15EF
330
1376
100
AcDbEntity
  8
AM_5
100
AcDbLine
 10
324.7442679985586
 20
92.62454801815271
 30
0.0
 11
324.7442679985586
 21
79.41772777236494
 31
0.0
  0
LINE
  5
15F0
330
1376
100
AcDbEntity
  8
AM_5
100
AcDbLine
 10
359.7442679985586
 20
80.41772777236493
 30
0.0
 11
327.7442679985586
 21
80.41772777236493
 31
0.0
  0
SOLID
  5
15F1
330
1376
100
AcDbEntity
  8
AM_5
100
AcDbTrace
 10
359.7442679985586
 20
80.91772777236494
 30
0.0
 11
359.7442679985586
 21
79.91772777236494
 31
0.0
 12
362.7442679985586
 22
80.41772777236493
 32
0.0
 13
362.7442679985586
 23
80.41772777236493
 33
0.0
  0
SOLID
  5
15F2
330
1376
100
AcDbEntity
  8
AM_5
100
AcDbTrace
 10
327.7442679985586
 20
80.91772777236494
 30
0.0
 11
327.7442679985586
 21
79.91772777236494
 31
0.0
 12
324.7442679985586
 22
80.41772777236493
 32
0.0
 13
324.7442679985586
 23
80.41772777236493
 33
0.0
  0
MTEXT
  5
15F3
330
1376
100
AcDbEntity
  8
AM_5
100
AcDbMText
 10
343.7442679985586
 20
83.16772777236494
 30
0.0
 40
3.5
 41
0.0
 71
     5
 72
     1
  1
{\Famgdt|c136;o}38
 73
     1
 44
1.0
1001
ACAD
1000
MTEXTBEGIN
1070
    73
1070
     1
1070
    44
1040
1.0
1070
    74
1070
     0
1000
MTEXTEND
  0
POINT
  5
15F4
330
1376
100
AcDbEntity
  8
Defpoints
 62
     0
100
AcDbPoint
 10
362.7442679985586
 20
93.62454801815273
 30
0.0
  0
POINT
  5
15F5
330
1376
100
AcDbEntity
  8
Defpoints
 62
     0
100
AcDbPoint
 10
324.7442679985586
 20
93.62454801815273
 30
0.0
  0
POINT
  5
15F6
330
1376
100
AcDbEntity
  8
Defpoints
 62
     0
100
AcDbPoint
 10
324.7442679985586
 20
80.41772777236493
 30
0.0
  0
ENDBLK
  5
1381
330
1376
100
AcDbEntity
  8
0
100
AcDbBlockEnd
  0
BLOCK
  5
145B
330
1454
100
AcDbEntity
  8
0
100
AcDbBlockBegin
  2
*D26
 70
     1
 10
0.0
 20
0.0
 30
0.0
  3
*D26
  1

  0
LINE
  5
149B
330
1454
100
AcDbEntity
  8
AM_5
100
AcDbLine
 10
173.5893187496283
 20
93.42499580194768
 30
0.0
 11
170.2274583911415
 21
79.42192594299339
 31
0.0
  0
LINE
  5
149C
330
1454
100
AcDbEntity
  8
AM_5
100
AcDbLine
 10
170.2274583911415
 20
79.42192594299339
 30
0.0
 11
160.6462399576033
 21
79.42192594299339
 31
0.0
  0
SOLID
  5
149D
330
1454
100
AcDbEntity
  8
AM_5
100
AcDbTrace
 10
173.1841647522351
 20
93.5222652704741
 30
0.0
 11
173.9944727470216
 21
93.32772633342129
 31
0.0
 12
174.1729355607868
 22
95.85591978630693
 32
0.0
 13
174.1729355607868
 23
95.85591978630693
 33
0.0
  0
MTEXT
  5
149E
330
1454
100
AcDbEntity
  8
AM_5
100
AcDbMText
 10
164.9368491743724
 20
82.17814437653162
 30
0.0
 40
3.5
 41
0.0
 71
     5
 72
     1
  1
G1/8
 73
     1
 44
1.0
1001
ACAD
1000
MTEXTBEGIN
1070
    73
1070
     1
1070
    44
1040
1.0
1070
    74
1070
     0
1000
MTEXTEND
  0
POINT
  5
149F
330
1454
100
AcDbEntity
  8
Defpoints
 62
     0
100
AcDbPoint
 10
174.1729355607868
 20
95.85591978630693
 30
0.0
  0
POINT
  5
14A0
330
1454
100
AcDbEntity
  8
Defpoints
 62
     0
100
AcDbPoint
 10
177.3711556859352
 20
109.1773832205958
 30
0.0
  0
ENDBLK
  5
145C
330
1454
100
AcDbEntity
  8
0
100
AcDbBlockEnd
  0
ENDSEC
  0
SECTION
  2
ENTITIES
  0
LINE
  5
36
330
D
100
AcDbEntity
 67
     1
  8
AM_7
100
AcDbLine
 10
38.58345270730388
 20
117.8454907407613
 30
0.0
 11
275.0867032595963
 21
117.8454907407613
 31
0.0
  0
LINE
  5
56
330
D
100
AcDbEntity
 67
     1
  8
AM_7
100
AcDbLine
 10
34.51478478079935
 20
215.4755849395633
 30
0.0
 11
275.0867032595963
 21
215.4755849395633
 31
0.0
  0
LINE
  5
87
330
D
100
AcDbEntity
 67
     1
  8
AM_VIS
100
AcDbLine
 10
247.8229355607869
 20
124.3454907407613
 30
0.0
 11
243.3229355607868
 21
124.3454907407613
 31
0.0
  0
LINE
  5
88
330
D
100
AcDbEntity
 67
     1
  8
AM_VIS
100
AcDbLine
 10
241.8229355607869
 20
125.8454907407613
 30
0.0
 11
243.3229355607868
 21
124.3454907407613
 31
0.0
  0
LINE
  5
89
330
D
100
AcDbEntity
 67
     1
  8
AM_VIS
100
AcDbLine
 10
247.8229355607869
 20
124.3454907407613
 30
0.0
 11
249.7594272338905
 21
124.3454907407613
 31
0.0
  0
LINE
  5
8A
330
D
100
AcDbEntity
 67
     1
  8
AM_VIS
100
AcDbLine
 10
243.3229355607868
 20
111.3454907407613
 30
0.0
 11
247.8229355607869
 21
111.3454907407613
 31
0.0
  0
LINE
  5
8B
330
D
100
AcDbEntity
 67
     1
  8
AM_VIS
100
AcDbLine
 10
247.8229355607869
 20
111.3454907407613
 30
0.0
 11
249.7594272338905
 21
111.3454907407613
 31
0.0
  0
ARC
  5
8C
330
D
100
AcDbEntity
 67
     1
  8
AM_VIS
100
AcDbCircle
 10
249.8229355607868
 20
117.8454907407613
 30
0.0
 40
8.0
100
AcDbArc
 50
144.3409123038612
 51
215.6590876961389
  0
LINE
  5
8D
330
D
100
AcDbEntity
 67
     1
  8
AM_VIS
100
AcDbLine
 10
243.3229355607868
 20
111.3454907407613
 30
0.0
 11
241.8229355607869
 21
109.8454907407613
 31
0.0
  0
SPLINE
  5
8E
330
D
100
AcDbEntity
 67
     1
  8
AM_VIS
100
AcDbSpline
210
0.0
220
0.0
230
1.0
 70
     8
 71
     3
 72
    43
 73
    39
 74
     0
 42
0.0000000001
 43
0.0000000001
 40
-5.218797328620272
 40
-5.218797328620272
 40
-5.218797328620272
 40
-5.218797328620272
 40
-4.977488545879173
 40
-4.977488545879173
 40
-4.736179763138075
 40
-4.736179763138075
 40
-4.440795989521806
 40
-4.440795989521806
 40
-4.145412215905537
 40
-4.145412215905537
 40
-3.703121762554019
 40
-3.703121762554019
 40
-3.260831309202504
 40
-3.260831309202504
 40
-1.63041565460125
 40
-1.63041565460125
 40
-0.8152078273006253
 40
-0.8152078273006253
 40
0.0
 40
0.0
 40
0.0
 40
0.815207827300626
 40
0.815207827300626
 40
1.630415654601252
 40
1.630415654601252
 40
3.260831309202504
 40
3.260831309202504
 40
3.70312176255402
 40
3.70312176255402
 40
4.145412215905535
 40
4.145412215905535
 40
4.440795989521804
 40
4.440795989521804
 40
4.736179763138073
 40
4.736179763138073
 40
4.977488545879172
 40
4.977488545879172
 40
5.218797328620271
 40
5.218797328620271
 40
5.218797328620271
 40
5.218797328620271
 10
247.8229355607869
 20
122.5091802673057
 30
0.0
 10
247.9033718217006
 20
122.5091802673057
 30
0.0
 10
247.9910424405931
 20
122.5002587976699
 30
0.0
 10
248.1621362509648
 20
122.4625847483839
 30
0.0
 10
248.2455743188334
 20
122.4338997605034
 30
0.0
 10
248.4089506813425
 20
122.3610129551063
 30
0.0
 10
248.5020354739406
 20
122.3066869109581
 30
0.0
 10
248.6746445533923
 20
122.1790834740352
 30
0.0
 10
248.7542912518541
 20
122.1059717504871
 30
0.0
 10
248.9226812109937
 20
121.9267863529914
 30
0.0
 10
249.0194334107705
 20
121.7977014386869
 30
0.0
 10
249.1865612142151
 20
121.5226502592165
 30
0.0
 10
249.2572740231201
 20
121.376889029737
 30
0.0
 10
249.5216004415044
 20
120.7385496467508
 30
0.0
 10
249.6278232878102
 20
120.1609697098836
 30
0.0
 10
249.7159913122447
 20
119.2797722261387
 30
0.0
 10
249.7335284404994
 20
118.9836117194165
 30
0.0
 10
249.755236204802
 20
118.402338567064
 30
0.0
 10
249.7594272338905
 20
118.1172266831948
 30
0.0
 10
249.7594272338905
 20
117.8454907407613
 30
0.0
 10
249.7594272338905
 20
117.5737547983277
 30
0.0
 10
249.755236204802
 20
117.2886429144586
 30
0.0
 10
249.7335284404994
 20
116.707369762106
 30
0.0
 10
249.7159913122447
 20
116.4112092553839
 30
0.0
 10
249.6278232878102
 20
115.530011771639
 30
0.0
 10
249.5216004415044
 20
114.9524318347718
 30
0.0
 10
249.2572740231201
 20
114.3140924517855
 30
0.0
 10
249.1865612142151
 20
114.168331222306
 30
0.0
 10
249.0194334107705
 20
113.8932800428356
 30
0.0
 10
248.9226812109937
 20
113.7641951285311
 30
0.0
 10
248.7542912518541
 20
113.5850097310354
 30
0.0
 10
248.6746445533923
 20
113.5118980074873
 30
0.0
 10
248.5020354739406
 20
113.3842945705645
 30
0.0
 10
248.4089506813425
 20
113.3299685264163
 30
0.0
 10
248.2455743188334
 20
113.2570817210192
 30
0.0
 10
248.1621362509648
 20
113.2283967331386
 30
0.0
 10
247.9910424405931
 20
113.1907226838527
 30
0.0
 10
247.9033718217006
 20
113.1818012142169
 30
0.0
 10
247.8229355607869
 20
113.1818012142169
 30
0.0
  0
LINE
  5
8F
330
D
100
AcDbEntity
 67
     1
  8
AM_VIS
100
AcDbLine
 10
247.8229355607869
 20
113.1818012142169
 30
0.0
 11
243.3229355607868
 21
113.1818012142169
 31
0.0
  0
LINE
  5
90
330
D
100
AcDbEntity
 67
     1
  8
AM_VIS
100
AcDbLine
 10
243.3229355607868
 20
113.1818012142169
 30
0.0
 11
243.3229355607868
 21
122.5091802673057
 31
0.0
  0
LINE
  5
91
330
D
100
AcDbEntity
 67
     1
  8
AM_VIS
100
AcDbLine
 10
243.3229355607868
 20
122.5091802673057
 30
0.0
 11
247.8229355607869
 21
122.5091802673057
 31
0.0
  0
LINE
  5
92
330
D
100
AcDbEntity
 67
     1
  8
AM_VIS
100
AcDbLine
 10
263.0229355607868
 20
128.8151458553642
 30
0.0
 11
258.6229355607868
 21
128.8151458553642
 31
0.0
  0
LINE
  5
93
330
D
100
AcDbEntity
 67
     1
  8
AM_VIS
100
AcDbLine
 10
263.8229355607868
 20
125.4396180796058
 30
0.0
 11
263.8229355607868
 21
126.705846073821
 31
0.0
  0
LINE
  5
9B
330
D
100
AcDbEntity
 67
     1
  8
AM_VIS
100
AcDbLine
 10
263.8229355607868
 20
108.9851354077015
 30
0.0
 11
263.8229355607868
 21
110.2513634019168
 31
0.0
  0
LINE
  5
9C
330
D
100
AcDbEntity
 67
     1
  8
AM_VIS
100
AcDbLine
 10
263.0229355607868
 20
106.8758356261583
 30
0.0
 11
258.6229355607869
 21
106.8758356261583
 31
0.0
  0
LINE
  5
9D
330
D
100
AcDbEntity
 67
     1
  8
AM_VIS
100
AcDbLine
 10
263.0229355607868
 20
123.3303182980627
 30
0.0
 11
258.6229355607869
 21
123.3303182980627
 31
0.0
  0
LINE
  5
9E
330
D
100
AcDbEntity
 67
     1
  8
AM_VIS
100
AcDbLine
 10
263.8229355607868
 20
116.5792627465462
 30
0.0
 11
263.8229355607868
 21
119.1117187349764
 31
0.0
  0
LINE
  5
9F
330
D
100
AcDbEntity
 67
     1
  8
AM_VIS
100
AcDbLine
 10
263.0229355607868
 20
112.3606631834599
 30
0.0
 11
258.6229355607869
 21
112.3606631834599
 31
0.0
  0
LINE
  5
A0
330
D
100
AcDbEntity
 67
     1
  8
AM_VIS
100
AcDbLine
 10
257.8229355607868
 20
126.7058460738209
 30
0.0
 11
257.8229355607868
 21
125.4396180796059
 31
0.0
  0
LINE
  5
A1
330
D
100
AcDbEntity
 67
     1
  8
AM_VIS
100
AcDbLine
 10
257.8229355607868
 20
119.1117187349762
 30
0.0
 11
257.8229355607868
 21
116.5792627465464
 31
0.0
  0
LINE
  5
A2
330
D
100
AcDbEntity
 67
     1
  8
AM_VIS
100
AcDbLine
 10
257.8229355607868
 20
110.2513634019167
 30
0.0
 11
257.8229355607868
 21
108.9851354077016
 31
0.0
  0
SPLINE
  5
A3
330
D
100
AcDbEntity
 67
     1
  8
AM_VIS
100
AcDbSpline
210
0.0
220
0.0
230
1.0
 70
    12
 71
     2
 72
     6
 73
     3
 74
     0
 42
0.0000000001
 43
0.0000000001
 40
0.0
 40
0.0
 40
0.0
 40
4.299501304067125
 40
4.299501304067125
 40
4.299501304067125
 10
263.8229355607868
 20
126.705846073821
 30
0.0
 41
1.0
 10
263.6728875590126
 20
127.6893959719564
 30
0.0000000000000004
 41
1.021753126876552
 10
263.0229355607868
 20
128.8151458553642
 30
0.0
 41
1.0
  0
SPLINE
  5
A4
330
D
100
AcDbEntity
 67
     1
  8
AM_VIS
100
AcDbSpline
210
0.0
220
0.0
230
1.0
 70
    12
 71
     2
 72
     6
 73
     3
 74
     0
 42
0.0000000001
 43
0.0000000001
 40
0.0
 40
0.0
 40
0.0
 40
4.299501304067122
 40
4.299501304067122
 40
4.299501304067122
 10
263.0229355607868
 20
123.3303182980626
 30
0.0
 41
1.0
 10
263.6728875590125
 20
124.4560681814705
 30
0.0
 41
1.02175312687655
 10
263.8229355607868
 20
125.4396180796058
 30
0.0
 41
1.0
  0
SPLINE
  5
A5
330
D
100
AcDbEntity
 67
     1
  8
AM_VIS
100
AcDbSpline
210
0.0
220
0.0
230
1.0
 70
    12
 71
     2
 72
     6
 73
     3
 74
     0
 42
0.0000000001
 43
0.0000000001
 40
0.0
 40
0.0
 40
0.0
 40
4.299501304067229
 40
4.299501304067229
 40
4.299501304067229
 10
263.8229355607868
 20
119.1117187349764
 30
0.0
 41
1.0
 10
263.6728875590129
 20
121.0788185312472
 30
0.0000000000000004
 41
1.021753126876449
 10
263.0229355607868
 20
123.3303182980628
 30
0.0
 41
1.0
  0
SPLINE
  5
A6
330
D
100
AcDbEntity
 67
     1
  8
AM_VIS
100
AcDbSpline
210
0.0
220
0.0
230
1.0
 70
    12
 71
     2
 72
     6
 73
     3
 74
     0
 42
0.0000000001
 43
0.0000000001
 40
0.0
 40
0.0
 40
0.0
 40
4.299501304067229
 40
4.299501304067229
 40
4.299501304067229
 10
263.0229355607868
 20
112.3606631834598
 30
0.0
 41
1.0
 10
263.6728875590126
 20
114.6121629502755
 30
0.0
 41
1.021753126876448
 10
263.8229355607868
 20
116.5792627465462
 30
0.0
 41
1.0
  0
SPLINE
  5
A7
330
D
100
AcDbEntity
 67
     1
  8
AM_VIS
100
AcDbSpline
210
0.0
220
0.0
230
1.0
 70
    12
 71
     2
 72
     6
 73
     3
 74
     0
 42
0.0000000001
 43
0.0000000001
 40
0.0
 40
0.0
 40
0.0
 40
4.299501304067124
 40
4.299501304067124
 40
4.299501304067124
 10
263.8229355607868
 20
110.2513634019168
 30
0.0
 41
1.0
 10
263.6728875590125
 20
111.234913300052
 30
-0.0000000000000004
 41
1.021753126876553
 10
263.0229355607868
 20
112.3606631834599
 30
0.0
 41
1.0
  0
SPLINE
  5
A8
330
D
100
AcDbEntity
 67
     1
  8
AM_VIS
100
AcDbSpline
210
0.0
220
0.0
230
1.0
 70
    12
 71
     2
 72
     6
 73
     3
 74
     0
 42
0.0000000001
 43
0.0000000001
 40
0.0
 40
0.0
 40
0.0
 40
4.299501304067129
 40
4.299501304067129
 40
4.299501304067129
 10
263.0229355607868
 20
106.8758356261584
 30
0.0
 41
1.0
 10
263.6728875590128
 20
108.0015855095662
 30
0.0
 41
1.021753126876533
 10
263.8229355607868
 20
108.9851354077015
 30
0.0
 41
1.0
  0
SPLINE
  5
A9
330
D
100
AcDbEntity
 67
     1
  8
AM_VIS
100
AcDbSpline
210
0.0
220
0.0
230
1.0
 70
    12
 71
     2
 72
     6
 73
     3
 74
     0
 42
0.0000000001
 43
0.0000000001
 40
0.0
 40
0.0
 40
0.0
 40
4.29950130406733
 40
4.29950130406733
 40
4.29950130406733
 10
258.6229355607869
 20
128.8151458553642
 30
0.0
 41
1.0
 10
257.9729835625616
 20
127.6893959719563
 30
0.0
 41
1.021753126876528
 10
257.8229355607868
 20
126.7058460738209
 30
0.0
 41
1.0
  0
SPLINE
  5
AA
330
D
100
AcDbEntity
 67
     1
  8
AM_VIS
100
AcDbSpline
210
0.0
220
0.0
230
1.0
 70
    12
 71
     2
 72
     6
 73
     3
 74
     0
 42
0.0000000001
 43
0.0000000001
 40
0.0
 40
0.0
 40
0.0
 40
4.29950130406733
 40
4.29950130406733
 40
4.29950130406733
 10
257.8229355607868
 20
125.4396180796059
 30
0.0
 41
1.0
 10
257.9729835625611
 20
124.4560681814706
 30
0.0
 41
1.021753126876521
 10
258.6229355607869
 20
123.3303182980627
 30
0.0
 41
1.0
  0
SPLINE
  5
AB
330
D
100
AcDbEntity
 67
     1
  8
AM_VIS
100
AcDbSpline
210
0.0
220
0.0
230
1.0
 70
    12
 71
     2
 72
     6
 73
     3
 74
     0
 42
0.0000000001
 43
0.0000000001
 40
0.0
 40
0.0
 40
0.0
 40
4.299501304067414
 40
4.299501304067414
 40
4.299501304067414
 10
258.6229355607869
 20
123.3303182980627
 30
0.0
 41
1.0
 10
257.9729835625611
 20
121.0788185312469
 30
0.0
 41
1.021753126876436
 10
257.8229355607868
 20
119.1117187349762
 30
0.0
 41
1.0
  0
SPLINE
  5
AC
330
D
100
AcDbEntity
 67
     1
  8
AM_VIS
100
AcDbSpline
210
0.0
220
0.0
230
1.0
 70
    12
 71
     2
 72
     6
 73
     3
 74
     0
 42
0.0000000001
 43
0.0000000001
 40
0.0
 40
0.0
 40
0.0
 40
4.299501304067414
 40
4.299501304067414
 40
4.299501304067414
 10
257.8229355607868
 20
116.5792627465464
 30
0.0
 41
1.0
 10
257.9729835625611
 20
114.6121629502757
 30
0.0
 41
1.021753126876439
 10
258.6229355607869
 20
112.3606631834598
 30
0.0
 41
1.0
  0
SPLINE
  5
AD
330
D
100
AcDbEntity
 67
     1
  8
AM_VIS
100
AcDbSpline
210
0.0
220
0.0
230
1.0
 70
    12
 71
     2
 72
     6
 73
     3
 74
     0
 42
0.0000000001
 43
0.0000000001
 40
0.0
 40
0.0
 40
0.0
 40
4.29950130406733
 40
4.29950130406733
 40
4.29950130406733
 10
258.6229355607869
 20
112.3606631834599
 30
0.0
 41
1.0
 10
257.9729835625609
 20
111.2349133000517
 30
0.0
 41
1.02175312687653
 10
257.8229355607868
 20
110.2513634019166
 30
0.0
 41
1.0
  0
SPLINE
  5
AE
330
D
100
AcDbEntity
 67
     1
  8
AM_VIS
100
AcDbSpline
210
0.0
220
0.0
230
1.0
 70
    12
 71
     2
 72
     6
 73
     3
 74
     0
 42
0.0000000001
 43
0.0000000001
 40
0.0
 40
0.0
 40
0.0
 40
4.299501304067331
 40
4.299501304067331
 40
4.299501304067331
 10
257.8229355607868
 20
108.9851354077016
 30
0.0
 41
1.0
 10
257.9729835625611
 20
108.0015855095663
 30
0.0
 41
1.021753126876537
 10
258.6229355607869
 20
106.8758356261584
 30
0.0
 41
1.0
  0
LINE
  5
B0
330
D
100
AcDbEntity
 67
     1
  8
AM_VIS
100
AcDbLine
 10
149.8229355607868
 20
98.84549074076108
 30
0.0
 11
149.8229355607868
 21
98.59549074076131
 31
0.0
  0
LINE
  5
E4
330
D
100
AcDbEntity
 67
     1
  8
AM_VIS
100
AcDbLine
 10
241.8229355607869
 20
109.8454907407613
 30
0.0
 11
241.8229355607869
 21
109.8454907407613
 31
0.0
  0
LINE
  5
E5
330
D
100
AcDbEntity
 67
     1
  8
AM_VIS
100
AcDbLine
 10
241.8229355607869
 20
125.8454907407613
 30
0.0
 11
241.8229355607869
 21
125.8454907407613
 31
0.0
  0
LINE
  5
E6
330
D
100
AcDbEntity
 67
     1
  8
AM_VIS
100
AcDbLine
 10
249.8229355607868
 20
111.8454907407613
 30
0.0
 11
257.8229355607868
 21
111.8454907407613
 31
0.0
  0
LINE
  5
E7
330
D
100
AcDbEntity
 67
     1
  8
AM_VIS
100
AcDbLine
 10
249.8229355607868
 20
123.8454907407613
 30
0.0
 11
257.8229355607868
 21
123.8454907407613
 31
0.0
  0
LINE
  5
F0
330
D
100
AcDbEntity
 67
     1
  8
AM_VIS
100
AcDbLine
 10
263.8229355607868
 20
111.8454907407613
 30
0.0
 11
272.3229355607868
 21
111.8454907407613
 31
0.0
  0
LINE
  5
F1
330
D
100
AcDbEntity
 67
     1
  8
AM_VIS
100
AcDbLine
 10
263.8229355607868
 20
123.8454907407613
 30
0.0
 11
272.3229355607868
 21
123.8454907407613
 31
0.0
  0
LINE
  5
F2
330
D
100
AcDbEntity
 67
     1
  8
AM_VIS
100
AcDbLine
 10
273.8229355607868
 20
122.3454907407613
 30
0.0
 11
272.3229355607868
 21
123.8454907407613
 31
0.0
  0
LINE
  5
F3
330
D
100
AcDbEntity
 67
     1
  8
AM_VIS
100
AcDbLine
 10
273.8229355607868
 20
113.3454907407613
 30
0.0
 11
272.3229355607868
 21
111.8454907407613
 31
0.0
  0
LINE
  5
F4
330
D
100
AcDbEntity
 67
     1
  8
AM_VIS
100
AcDbLine
 10
263.8229355607868
 20
127.4295052093091
 30
0.0
 11
263.0229355607868
 21
128.8151458553642
 31
0.0
  0
LINE
  5
F5
330
D
100
AcDbEntity
 67
     1
  8
AM_VIS
100
AcDbLine
 10
263.8229355607868
 20
108.2614762722135
 30
0.0
 11
263.0229355607868
 21
106.8758356261584
 31
0.0
  0
LINE
  5
F6
330
D
100
AcDbEntity
 67
     1
  8
AM_VIS
100
AcDbLine
 10
257.8229355607868
 20
127.4295052093091
 30
0.0
 11
258.6229355607869
 21
128.8151458553642
 31
0.0
  0
LINE
  5
F7
330
D
100
AcDbEntity
 67
     1
  8
AM_VIS
100
AcDbLine
 10
257.8229355607868
 20
108.2614762722135
 30
0.0
 11
258.6229355607869
 21
106.8758356261584
 31
0.0
  0
LINE
  5
107
330
D
100
AcDbEntity
 67
     1
  8
AM_VIS
100
AcDbLine
 10
249.8229355607868
 20
123.8454907407613
 30
0.0
 11
249.8229355607868
 21
111.8454907407613
 31
0.0
  0
LINE
  5
117
330
D
100
AcDbEntity
 67
     1
  8
AM_VIS
100
AcDbLine
 10
272.3229355607868
 20
111.8454907407613
 30
0.0
 11
272.3229355607868
 21
123.8454907407613
 31
0.0
  0
LINE
  5
118
330
D
100
AcDbEntity
 67
     1
  8
AM_VIS
100
AcDbLine
 10
273.8229355607868
 20
122.3454907407613
 30
0.0
 11
273.8229355607868
 21
113.3454907407613
 31
0.0
  0
LINE
  5
119
330
D
100
AcDbEntity
 67
     1
  8
AM_VIS
100
AcDbLine
 10
263.8229355607868
 20
126.705846073821
 30
0.0
 11
263.8229355607868
 21
127.4295052093091
 31
0.0
  0
LINE
  5
11A
330
D
100
AcDbEntity
 67
     1
  8
AM_VIS
100
AcDbLine
 10
263.8229355607868
 20
119.1117187349764
 30
0.0
 11
263.8229355607868
 21
125.4396180796058
 31
0.0
  0
LINE
  5
11B
330
D
100
AcDbEntity
 67
     1
  8
AM_VIS
100
AcDbLine
 10
263.8229355607868
 20
110.2513634019168
 30
0.0
 11
263.8229355607868
 21
116.5792627465462
 31
0.0
  0
LINE
  5
11C
330
D
100
AcDbEntity
 67
     1
  8
AM_VIS
100
AcDbLine
 10
263.8229355607868
 20
108.2614762722135
 30
0.0
 11
263.8229355607868
 21
108.9851354077015
 31
0.0
  0
LINE
  5
11D
330
D
100
AcDbEntity
 67
     1
  8
AM_VIS
100
AcDbLine
 10
257.8229355607868
 20
127.4295052093091
 30
0.0
 11
257.8229355607868
 21
126.7058460738209
 31
0.0
  0
LINE
  5
11E
330
D
100
AcDbEntity
 67
     1
  8
AM_VIS
100
AcDbLine
 10
257.8229355607868
 20
125.4396180796059
 30
0.0
 11
257.8229355607868
 21
119.1117187349762
 31
0.0
  0
LINE
  5
11F
330
D
100
AcDbEntity
 67
     1
  8
AM_VIS
100
AcDbLine
 10
257.8229355607868
 20
116.5792627465464
 30
0.0
 11
257.8229355607868
 21
110.2513634019167
 31
0.0
  0
LINE
  5
120
330
D
100
AcDbEntity
 67
     1
  8
AM_VIS
100
AcDbLine
 10
257.8229355607868
 20
108.9851354077016
 30
0.0
 11
257.8229355607868
 21
108.2614762722135
 31
0.0
  0
LINE
  5
122
330
D
100
AcDbEntity
 67
     1
  8
AM_VIS
100
AcDbLine
 10
149.8229355607868
 20
144.3454907407613
 30
0.0
 11
149.8229355607868
 21
91.34549074076131
 31
0.0
  0
ARC
  5
143
330
D
100
AcDbEntity
 67
     1
  8
AM_VIS
100
AcDbCircle
 10
247.8229355607869
 20
111.8454907407613
 30
0.0
 40
2.0
100
AcDbArc
 50
345.5224878140705
 51
0.0
  0
ARC
  5
144
330
D
100
AcDbEntity
 67
     1
  8
AM_VIS
100
AcDbCircle
 10
247.8229355607869
 20
123.8454907407613
 30
0.0
 40
2.0
100
AcDbArc
 50
0.0000000000000127
 51
14.47751218592954
  0
LINE
  5
14D
330
D
100
AcDbEntity
 67
     1
  8
AM_VIS
100
AcDbLine
 10
243.3229355607868
 20
220.1392744661077
 30
0.0
 11
247.8229355607869
 21
220.1392744661077
 31
0.0
  0
LINE
  5
14E
330
D
100
AcDbEntity
 67
     1
  8
AM_VIS
100
AcDbLine
 10
247.8229355607869
 20
210.8118954130189
 30
0.0
 11
243.3229355607868
 21
210.8118954130189
 31
0.0
  0
LINE
  5
14F
330
D
100
AcDbEntity
 67
     1
  8
AM_VIS
100
AcDbLine
 10
243.3229355607868
 20
210.8118954130189
 30
0.0
 11
243.3229355607868
 21
220.1392744661077
 31
0.0
  0
ARC
  5
150
330
D
100
AcDbEntity
 67
     1
  8
AM_VIS
100
AcDbCircle
 10
249.8229355607868
 20
215.4755849395633
 30
0.0
 40
8.0
100
AcDbArc
 50
144.3409123038612
 51
215.6590876961388
  0
SPLINE
  5
151
330
D
100
AcDbEntity
 67
     1
  8
AM_VIS
100
AcDbSpline
210
0.0
220
0.0
230
1.0
 70
     8
 71
     3
 72
    43
 73
    39
 74
     0
 42
0.0000000001
 43
0.0000000001
 40
-5.218797328620269
 40
-5.218797328620269
 40
-5.218797328620269
 40
-5.218797328620269
 40
-4.97748854587917
 40
-4.97748854587917
 40
-4.736179763138071
 40
-4.736179763138071
 40
-4.440795989521802
 40
-4.440795989521802
 40
-4.145412215905533
 40
-4.145412215905533
 40
-3.703121762554019
 40
-3.703121762554019
 40
-3.260831309202501
 40
-3.260831309202501
 40
-1.63041565460125
 40
-1.63041565460125
 40
-0.8152078273006253
 40
-0.8152078273006253
 40
0.0
 40
0.0
 40
0.0
 40
0.8152078273006255
 40
0.8152078273006255
 40
1.63041565460125
 40
1.63041565460125
 40
3.260831309202501
 40
3.260831309202501
 40
3.703121762554018
 40
3.703121762554018
 40
4.145412215905534
 40
4.145412215905534
 40
4.440795989521804
 40
4.440795989521804
 40
4.736179763138073
 40
4.736179763138073
 40
4.977488545879172
 40
4.977488545879172
 40
5.218797328620271
 40
5.218797328620271
 40
5.218797328620271
 40
5.218797328620271
 10
247.8229355607869
 20
220.1392744661077
 30
0.0
 10
247.9033718217006
 20
220.1392744661077
 30
0.0
 10
247.9910424405931
 20
220.1303529964719
 30
0.0
 10
248.1621362509648
 20
220.092678947186
 30
0.0
 10
248.2455743188334
 20
220.0639939593054
 30
0.0
 10
248.4089506813425
 20
219.9911071539083
 30
0.0
 10
248.5020354739406
 20
219.9367811097601
 30
0.0
 10
248.6746445533923
 20
219.8091776728372
 30
0.0
 10
248.7542912518541
 20
219.7360659492891
 30
0.0
 10
248.9226812109937
 20
219.5568805517934
 30
0.0
 10
249.0194334107705
 20
219.4277956374889
 30
0.0
 10
249.1865612142151
 20
219.1527444580186
 30
0.0
 10
249.2572740231201
 20
219.0069832285391
 30
0.0
 10
249.5216004415044
 20
218.3686438455528
 30
0.0
 10
249.6278232878102
 20
217.7910639086856
 30
0.0
 10
249.7159913122447
 20
216.9098664249407
 30
0.0
 10
249.7335284404994
 20
216.6137059182186
 30
0.0
 10
249.755236204802
 20
216.032432765866
 30
0.0
 10
249.7594272338905
 20
215.7473208819969
 30
0.0
 10
249.7594272338905
 20
215.4755849395633
 30
0.0
 10
249.7594272338905
 20
215.2038489971297
 30
0.0
 10
249.755236204802
 20
214.9187371132606
 30
0.0
 10
249.7335284404994
 20
214.337463960908
 30
0.0
 10
249.7159913122447
 20
214.0413034541859
 30
0.0
 10
249.6278232878102
 20
213.160105970441
 30
0.0
 10
249.5216004415044
 20
212.5825260335738
 30
0.0
 10
249.2572740231201
 20
211.9441866505876
 30
0.0
 10
249.1865612142151
 20
211.798425421108
 30
0.0
 10
249.0194334107705
 20
211.5233742416377
 30
0.0
 10
248.9226812109937
 20
211.3942893273332
 30
0.0
 10
248.7542912518541
 20
211.2151039298375
 30
0.0
 10
248.6746445533923
 20
211.1419922062894
 30
0.0
 10
248.5020354739406
 20
211.0143887693665
 30
0.0
 10
248.4089506813425
 20
210.9600627252183
 30
0.0
 10
248.2455743188334
 20
210.8871759198212
 30
0.0
 10
248.1621362509648
 20
210.8584909319406
 30
0.0
 10
247.9910424405931
 20
210.8208168826547
 30
0.0
 10
247.9033718217006
 20
210.8118954130189
 30
0.0
 10
247.8229355607869
 20
210.8118954130189
 30
0.0
  0
LINE
  5
152
330
D
100
AcDbEntity
 67
     1
  8
AM_VIS
100
AcDbLine
 10
241.8229355607869
 20
223.4755849395633
 30
0.0
 11
243.3229355607868
 21
221.9755849395633
 31
0.0
  0
LINE
  5
153
330
D
100
AcDbEntity
 67
     1
  8
AM_VIS
100
AcDbLine
 10
243.3229355607868
 20
208.9755849395633
 30
0.0
 11
241.8229355607869
 21
207.4755849395633
 31
0.0
  0
LINE
  5
154
330
D
100
AcDbEntity
 67
     1
  8
AM_VIS
100
AcDbLine
 10
247.8229355607869
 20
221.9755849395633
 30
0.0
 11
249.7594272338905
 21
221.9755849395633
 31
0.0
  0
LINE
  5
155
330
D
100
AcDbEntity
 67
     1
  8
AM_VIS
100
AcDbLine
 10
247.8229355607869
 20
221.9755849395633
 30
0.0
 11
243.3229355607868
 21
221.9755849395633
 31
0.0
  0
LINE
  5
156
330
D
100
AcDbEntity
 67
     1
  8
AM_VIS
100
AcDbLine
 10
247.8229355607869
 20
208.9755849395633
 30
0.0
 11
249.7594272338905
 21
208.9755849395633
 31
0.0
  0
LINE
  5
157
330
D
100
AcDbEntity
 67
     1
  8
AM_VIS
100
AcDbLine
 10
243.3229355607868
 20
208.9755849395633
 30
0.0
 11
247.8229355607869
 21
208.9755849395633
 31
0.0
  0
LINE
  5
158
330
D
100
AcDbEntity
 67
     1
  8
AM_VIS
100
AcDbLine
 10
263.0229355607868
 20
224.9755849395633
 30
0.0
 11
258.6229355607869
 21
224.9755849395633
 31
0.0
  0
LINE
  5
159
330
D
100
AcDbEntity
 67
     1
  8
AM_VIS
100
AcDbLine
 10
263.0229355607868
 20
215.4755849395633
 30
0.0
 11
258.6229355607868
 21
215.4755849395633
 31
0.0
  0
LINE
  5
15A
330
D
100
AcDbEntity
 67
     1
  8
AM_VIS
100
AcDbLine
 10
263.8229355607868
 20
209.6289993295899
 30
0.0
 11
263.8229355607868
 21
211.8221705495367
 31
0.0
  0
LINE
  5
15B
330
D
100
AcDbEntity
 67
     1
  8
AM_VIS
100
AcDbLine
 10
263.8229355607868
 20
219.1289993295899
 30
0.0
 11
263.8229355607868
 21
221.3221705495369
 31
0.0
  0
LINE
  5
164
330
D
100
AcDbEntity
 67
     1
  8
AM_VIS
100
AcDbLine
 10
263.0229355607868
 20
205.9755849395633
 30
0.0
 11
258.6229355607869
 21
205.9755849395633
 31
0.0
  0
LINE
  5
165
330
D
100
AcDbEntity
 67
     1
  8
AM_VIS
100
AcDbLine
 10
257.8229355607868
 20
211.8221705495365
 30
0.0
 11
257.8229355607868
 21
209.6289993295901
 31
0.0
  0
LINE
  5
166
330
D
100
AcDbEntity
 67
     1
  8
AM_VIS
100
AcDbLine
 10
257.8229355607868
 20
221.3221705495366
 30
0.0
 11
257.8229355607868
 21
219.12899932959
 31
0.0
  0
LINE
  5
167
330
D
100
AcDbEntity
 67
     1
  8
AM_VIS
100
AcDbLine
 10
263.0229355607868
 20
224.9755849395633
 30
0.0
 11
263.8229355607868
 21
224.9755849395633
 31
0.0
  0
SPLINE
  5
168
330
D
100
AcDbEntity
 67
     1
  8
AM_VIS
100
AcDbSpline
210
0.0
220
0.0
230
1.0
 70
    12
 71
     2
 72
     6
 73
     3
 74
     0
 42
0.0000000001
 43
0.0000000001
 40
0.0
 40
0.0
 40
0.0
 40
4.299501304067074
 40
4.299501304067074
 40
4.299501304067074
 10
263.8229355607868
 20
221.3221705495369
 30
0.0
 41
1.0
 10
263.6728875590123
 20
223.0257289448861
 30
0.0
 41
1.021753126876522
 10
263.0229355607868
 20
224.9755849395634
 30
0.0
 41
1.0
  0
SPLINE
  5
169
330
D
100
AcDbEntity
 67
     1
  8
AM_VIS
100
AcDbSpline
210
0.0
220
0.0
230
1.0
 70
    12
 71
     2
 72
     6
 73
     3
 74
     0
 42
0.0000000001
 43
0.0000000001
 40
0.0
 40
0.0
 40
0.0
 40
4.299501304067078
 40
4.299501304067078
 40
4.299501304067078
 10
263.0229355607868
 20
215.4755849395633
 30
0.0
 41
1.0
 10
263.6728875590126
 20
217.4254409342404
 30
0.0
 41
1.021753126876532
 10
263.8229355607868
 20
219.1289993295899
 30
0.0
 41
1.0
  0
SPLINE
  5
16A
330
D
100
AcDbEntity
 67
     1
  8
AM_VIS
100
AcDbSpline
210
0.0
220
0.0
230
1.0
 70
    12
 71
     2
 72
     6
 73
     3
 74
     0
 42
0.0000000001
 43
0.0000000001
 40
0.0
 40
0.0
 40
0.0
 40
4.299501304067125
 40
4.299501304067125
 40
4.299501304067125
 10
263.8229355607868
 20
211.8221705495367
 30
0.0
 41
1.0
 10
263.6728875590126
 20
213.5257289448864
 30
-0.0000000000000004
 41
1.021753126876552
 10
263.0229355607868
 20
215.4755849395633
 30
0.0
 41
1.0
  0
SPLINE
  5
16B
330
D
100
AcDbEntity
 67
     1
  8
AM_VIS
100
AcDbSpline
210
0.0
220
0.0
230
1.0
 70
    12
 71
     2
 72
     6
 73
     3
 74
     0
 42
0.0000000001
 43
0.0000000001
 40
0.0
 40
0.0
 40
0.0
 40
4.299501304067122
 40
4.299501304067122
 40
4.299501304067122
 10
263.0229355607868
 20
205.9755849395632
 30
0.0
 41
1.0
 10
263.6728875590125
 20
207.9254409342403
 30
0.0
 41
1.02175312687655
 10
263.8229355607868
 20
209.6289993295899
 30
0.0
 41
1.0
  0
LINE
  5
16C
330
D
100
AcDbEntity
 67
     1
  8
AM_VIS
100
AcDbLine
 10
263.0229355607868
 20
205.9755849395633
 30
0.0
 11
263.8229355607868
 21
205.9755849395633
 31
0.0
  0
SPLINE
  5
16D
330
D
100
AcDbEntity
 67
     1
  8
AM_VIS
100
AcDbSpline
210
0.0
220
0.0
230
1.0
 70
    12
 71
     2
 72
     6
 73
     3
 74
     0
 42
0.0000000001
 43
0.0000000001
 40
0.0
 40
0.0
 40
0.0
 40
4.299501304067275
 40
4.299501304067275
 40
4.299501304067275
 10
257.8229355607868
 20
219.1289993295901
 30
0.0
 41
1.0
 10
257.9729835625607
 20
217.4254409342406
 30
0.0
 41
1.021753126876337
 10
258.6229355607869
 20
215.4755849395633
 30
0.0
 41
1.0
  0
SPLINE
  5
16E
330
D
100
AcDbEntity
 67
     1
  8
AM_VIS
100
AcDbSpline
210
0.0
220
0.0
230
1.0
 70
    12
 71
     2
 72
     6
 73
     3
 74
     0
 42
0.0000000001
 43
0.0000000001
 40
0.0
 40
0.0
 40
0.0
 40
4.29950130406733
 40
4.29950130406733
 40
4.29950130406733
 10
258.6229355607869
 20
215.4755849395633
 30
0.0
 41
1.0
 10
257.9729835625615
 20
213.5257289448864
 30
0.0
 41
1.021753126876528
 10
257.8229355607868
 20
211.8221705495364
 30
0.0
 41
1.0
  0
SPLINE
  5
16F
330
D
100
AcDbEntity
 67
     1
  8
AM_VIS
100
AcDbSpline
210
0.0
220
0.0
230
1.0
 70
    12
 71
     2
 72
     6
 73
     3
 74
     0
 42
0.0000000001
 43
0.0000000001
 40
0.0
 40
0.0
 40
0.0
 40
4.299501304067275
 40
4.299501304067275
 40
4.299501304067275
 10
258.6229355607869
 20
224.9755849395634
 30
0.0
 41
1.0
 10
257.9729835625611
 20
223.0257289448867
 30
0.0
 41
1.021753126876338
 10
257.8229355607868
 20
221.3221705495366
 30
0.0
 41
1.0
  0
LINE
  5
170
330
D
100
AcDbEntity
 67
     1
  8
AM_VIS
100
AcDbLine
 10
257.8229355607868
 20
224.9755849395633
 30
0.0
 11
258.6229355607869
 21
224.9755849395633
 31
0.0
  0
SPLINE
  5
171
330
D
100
AcDbEntity
 67
     1
  8
AM_VIS
100
AcDbSpline
210
0.0
220
0.0
230
1.0
 70
    12
 71
     2
 72
     6
 73
     3
 74
     0
 42
0.0000000001
 43
0.0000000001
 40
0.0
 40
0.0
 40
0.0
 40
4.29950130406733
 40
4.29950130406733
 40
4.29950130406733
 10
257.8229355607868
 20
209.6289993295901
 30
0.0
 41
1.0
 10
257.9729835625611
 20
207.9254409342405
 30
0.0
 41
1.021753126876521
 10
258.6229355607869
 20
205.9755849395633
 30
0.0
 41
1.0
  0
LINE
  5
172
330
D
100
AcDbEntity
 67
     1
  8
AM_VIS
100
AcDbLine
 10
257.8229355607868
 20
205.9755849395633
 30
0.0
 11
258.6229355607869
 21
205.9755849395633
 31
0.0
  0
LINE
  5
173
330
D
100
AcDbEntity
 67
     1
  8
AM_VIS
100
AcDbLine
 10
149.8229355607868
 20
196.4755849395633
 30
0.0
 11
149.8229355607868
 21
196.2255849395633
 31
0.0
  0
LINE
  5
19F
330
D
100
AcDbEntity
 67
     1
  8
AM_VIS
100
AcDbLine
 10
241.8229355607869
 20
207.4755849395633
 30
0.0
 11
241.8229355607869
 21
207.4755849395633
 31
0.0
  0
LINE
  5
1A0
330
D
100
AcDbEntity
 67
     1
  8
AM_VIS
100
AcDbLine
 10
241.8229355607869
 20
223.4755849395633
 30
0.0
 11
241.8229355607869
 21
223.4755849395633
 31
0.0
  0
LINE
  5
1A1
330
D
100
AcDbEntity
 67
     1
  8
AM_VIS
100
AcDbLine
 10
249.8229355607868
 20
209.4755849395633
 30
0.0
 11
257.8229355607868
 21
209.4755849395633
 31
0.0
  0
LINE
  5
1A2
330
D
100
AcDbEntity
 67
     1
  8
AM_VIS
100
AcDbLine
 10
249.8229355607868
 20
221.4755849395633
 30
0.0
 11
257.8229355607868
 21
221.4755849395633
 31
0.0
  0
LINE
  5
1AB
330
D
100
AcDbEntity
 67
     1
  8
AM_VIS
100
AcDbLine
 10
263.8229355607868
 20
209.4755849395633
 30
0.0
 11
272.3229355607868
 21
209.4755849395633
 31
0.0
  0
LINE
  5
1AC
330
D
100
AcDbEntity
 67
     1
  8
AM_VIS
100
AcDbLine
 10
263.8229355607868
 20
221.4755849395633
 30
0.0
 11
272.3229355607868
 21
221.4755849395633
 31
0.0
  0
LINE
  5
1AD
330
D
100
AcDbEntity
 67
     1
  8
AM_VIS
100
AcDbLine
 10
273.8229355607868
 20
219.9755849395633
 30
0.0
 11
272.3229355607868
 21
221.4755849395633
 31
0.0
  0
LINE
  5
1AE
330
D
100
AcDbEntity
 67
     1
  8
AM_VIS
100
AcDbLine
 10
273.8229355607868
 20
210.9755849395633
 30
0.0
 11
272.3229355607868
 21
209.4755849395633
 31
0.0
  0
LINE
  5
1C7
330
D
100
AcDbEntity
 67
     1
  8
AM_VIS
100
AcDbLine
 10
249.8229355607868
 20
221.4755849395633
 30
0.0
 11
249.8229355607868
 21
209.4755849395633
 31
0.0
  0
LINE
  5
1CF
330
D
100
AcDbEntity
 67
     1
  8
AM_VIS
100
AcDbLine
 10
272.3229355607868
 20
209.4755849395633
 30
0.0
 11
272.3229355607868
 21
221.4755849395633
 31
0.0
  0
LINE
  5
1D0
330
D
100
AcDbEntity
 67
     1
  8
AM_VIS
100
AcDbLine
 10
273.8229355607868
 20
219.9755849395633
 30
0.0
 11
273.8229355607868
 21
210.9755849395633
 31
0.0
  0
LINE
  5
1D1
330
D
100
AcDbEntity
 67
     1
  8
AM_VIS
100
AcDbLine
 10
263.8229355607868
 20
221.3221705495369
 30
0.0
 11
263.8229355607868
 21
224.9755849395633
 31
0.0
  0
LINE
  5
1D2
330
D
100
AcDbEntity
 67
     1
  8
AM_VIS
100
AcDbLine
 10
263.8229355607868
 20
211.8221705495367
 30
0.0
 11
263.8229355607868
 21
219.1289993295899
 31
0.0
  0
LINE
  5
1D3
330
D
100
AcDbEntity
 67
     1
  8
AM_VIS
100
AcDbLine
 10
263.8229355607868
 20
205.9755849395633
 30
0.0
 11
263.8229355607868
 21
209.6289993295899
 31
0.0
  0
LINE
  5
1D4
330
D
100
AcDbEntity
 67
     1
  8
AM_VIS
100
AcDbLine
 10
257.8229355607868
 20
219.12899932959
 30
0.0
 11
257.8229355607868
 21
211.8221705495365
 31
0.0
  0
LINE
  5
1D5
330
D
100
AcDbEntity
 67
     1
  8
AM_VIS
100
AcDbLine
 10
257.8229355607868
 20
224.9755849395633
 30
0.0
 11
257.8229355607868
 21
221.3221705495366
 31
0.0
  0
LINE
  5
1D6
330
D
100
AcDbEntity
 67
     1
  8
AM_VIS
100
AcDbLine
 10
257.8229355607868
 20
209.6289993295901
 30
0.0
 11
257.8229355607868
 21
205.9755849395633
 31
0.0
  0
LINE
  5
1D7
330
D
100
AcDbEntity
 67
     1
  8
AM_VIS
100
AcDbLine
 10
149.8229355607868
 20
241.9755849395634
 30
0.0
 11
149.8229355607868
 21
188.9755849395633
 31
0.0
  0
ARC
  5
1FA
330
D
100
AcDbEntity
 67
     1
  8
AM_VIS
100
AcDbCircle
 10
247.8229355607869
 20
209.4755849395633
 30
0.0
 40
2.0
100
AcDbArc
 50
345.5224878140704
 51
0.0
  0
ARC
  5
1FB
330
D
100
AcDbEntity
 67
     1
  8
AM_VIS
100
AcDbCircle
 10
247.8229355607869
 20
221.4755849395633
 30
0.0
 40
2.0
100
AcDbArc
 50
0.0
 51
14.47751218592951
  0
VIEWPORT
  5
273
102
{ACAD_XDICTIONARY
360
1691
102
}
330
D
100
AcDbEntity
 67
     1
  8
0
100
AcDbViewport
 10
264.3226708001717
 20
126.0789879690097
 30
0.0
 40
538.3634742850128
 41
452.8393378405505
 68
     1
 69
     1
 12
264.3226708001717
 22
126.0789879690097
 13
0.0
 23
0.0
 14
1.0
 24
1.0
 15
0.0
 25
0.0
 16
0.0
 26
0.0
 36
1.0
 17
0.0
 27
0.0
 37
0.0
 42
50.0
 43
0.0
 44
0.0
 45
452.8393378405505
 50
0.0
 51
0.0
 72
  1000
 90
    32800
  1

281
     0
 71
     1
 74
     0
110
0.0
120
0.0
130
0.0
111
1.0
121
0.0
131
0.0
112
0.0
122
1.0
132
0.0
 79
     0
146
0.0
  0
TEXT
  5
3D4
330
D
100
AcDbEntity
 67
     1
  8
LOGO
100
AcDbText
 10
260.4238187967584
 20
5.958215730198262
 30
0.0
 40
2.225123512792591
  1
Accessory
 72
     4
 11
267.3272644951974
 21
6.742571768457651
 31
0.0
100
AcDbText
  0
LINE
  5
3D5
330
D
100
AcDbEntity
 67
     1
  8
LOGO
 62
     4
100
AcDbLine
 10
270.7013539009474
 20
31.33703943469192
 30
0.0
 11
260.5213892550211
 21
31.33703943469192
 31
0.0
  0
LINE
  5
3D6
330
D
100
AcDbEntity
 67
     1
  8
LOGO
 62
     4
100
AcDbLine
 10
277.9241388942123
 20
16.2449797304119
 30
0.0
 11
256.002341499267
 21
16.2449797304119
 31
0.0
  0
LINE
  5
3D7
330
D
100
AcDbEntity
 67
     1
  8
LOGO
 62
     4
100
AcDbLine
 10
270.7013539009474
 20
21.27566629850503
 30
0.0
 11
260.5213892550211
 21
21.27566629850503
 31
0.0
  0
LINE
  5
3D8
330
D
100
AcDbEntity
 67
     1
  8
LOGO
 62
     4
100
AcDbLine
 10
277.9241388942123
 20
3.947745897294652
 30
0.0
 11
256.002341499267
 21
3.947745897294652
 31
0.0
  0
TEXT
  5
3D9
330
D
100
AcDbEntity
 67
     1
  8
LOGO
 62
     7
100
AcDbText
 10
80.48389811657534
 20
26.29370044734901
 30
0.0
 40
6.707582090791176
  1
訂購代號:
  7
CHINESET
100
AcDbText
  0
TEXT
  5
3DA
330
D
100
AcDbEntity
 67
     1
  8
LOGO
 62
     7
100
AcDbText
 10
79.68163431888536
 20
19.99844260652173
 30
0.0
 40
4.471721393860784
  1
Order example:
 41
0.8
  7
CHINESET
100
AcDbText
  0
LINE
  5
3DB
330
D
100
AcDbEntity
 67
     1
  8
LOGO
 62
     4
100
AcDbLine
 10
148.4630312136673
 20
3.947745897294652
 30
0.0
 11
126.1044242443634
 21
3.947745897294652
 31
0.0
  0
LINE
  5
3DC
330
D
100
AcDbEntity
 67
     1
  8
LOGO
 62
     4
100
AcDbLine
 10
148.4630312136673
 20
16.24497973041173
 30
0.0
 11
126.1044242443634
 21
16.24497973041173
 31
0.0
  0
LINE
  5
3DD
330
D
100
AcDbEntity
 67
     1
  8
LOGO
 62
     4
100
AcDbLine
 10
153.7392962153963
 20
21.27566629850503
 30
0.0
 11
121.1199072371714
 21
21.27566629850503
 31
0.0
  0
LINE
  5
3DE
330
D
100
AcDbEntity
 67
     1
  8
LOGO
 62
     4
100
AcDbLine
 10
153.7392962153963
 20
31.33703943469192
 30
0.0
 11
121.1199072371714
 21
31.33703943469192
 31
0.0
  0
TEXT
  5
3DF
330
D
100
AcDbEntity
 67
     1
  8
LOGO
  6
Continuous
 62
     7
100
AcDbText
 10
122.6441636419712
 20
23.51152699543557
 30
0.0
 40
5.589651742325981
  1
MCBQI2
  7
CHINESET
 72
     1
 11
137.2837277290155
 21
26.30635286659856
 31
0.0
100
AcDbText
 73
     2
  0
LINE
  5
3E0
330
D
100
AcDbEntity
 67
     1
  8
LOGO
 62
     4
100
AcDbLine
 10
121.1199072371714
 20
31.33703943469192
 30
0.0
 11
121.1199072371714
 21
21.27566629850503
 31
0.0
  0
LINE
  5
3E1
330
D
100
AcDbEntity
 67
     1
  8
LOGO
 62
     4
100
AcDbLine
 10
126.1044242443634
 20
16.24497973041173
 30
0.0
 11
126.1044242443634
 21
3.947745897294652
 31
0.0
  0
TEXT
  5
3E2
330
D
100
AcDbEntity
 67
     1
  8
LOGO
100
AcDbText
 10
133.5010177572681
 20
5.670333351803006
 30
0.0
 40
2.225123512792591
  1
Model
 72
     4
 11
137.2837277290155
 21
6.742571768457565
 31
0.0
100
AcDbText
  0
TEXT
  5
3E3
330
D
100
AcDbEntity
 67
     1
  8
LOGO
100
AcDbText
 10
132.8120063351547
 20
10.21079662905042
 30
0.0
 40
4.471721393860784
  1
型式
 72
     4
 11
137.2837277290155
 21
12.33222351078359
 31
0.0
100
AcDbText
  0
LINE
  5
3E4
330
D
100
AcDbEntity
 67
     1
  8
LOGO
 62
     4
100
AcDbLine
 10
137.2837277290155
 20
21.27566629850503
 30
0.0
 11
137.2837277290155
 21
16.24497973041173
 31
0.0
  0
LINE
  5
3E5
330
D
100
AcDbEntity
 67
     1
  8
LOGO
 62
     4
100
AcDbLine
 10
153.7392962153963
 20
31.33703943469192
 30
0.0
 11
153.7392962153963
 21
21.27566629850503
 31
0.0
  0
LINE
  5
3E6
330
D
100
AcDbEntity
 67
     1
  8
LOGO
 62
     4
100
AcDbLine
 10
183.2714151379775
 20
31.33703943469192
 30
0.0
 11
183.2714151379775
 21
21.27566629850503
 31
0.0
  0
LINE
  5
3E7
330
D
100
AcDbEntity
 67
     1
  8
LOGO
 62
     4
100
AcDbLine
 10
161.1346117317273
 20
31.33703943469192
 30
0.0
 11
161.1346117317273
 21
21.27566629850503
 31
0.0
  0
TEXT
  5
3E8
330
D
100
AcDbEntity
 67
     1
  8
LOGO
100
AcDbText
 10
163.2665362696377
 20
6.004101878721893
 30
0.0
 40
2.225123512792591
  1
Acting type
 72
     4
 11
170.9432123887721
 21
6.742571768457565
 31
0.0
100
AcDbText
  0
TEXT
  5
3E9
330
D
100
AcDbEntity
 67
     1
  8
LOGO
100
AcDbText
 10
162.0463500322366
 20
10.21079662905042
 30
0.0
 40
4.471721393860784
  1
作動型式
 72
     4
 11
170.9432123887721
 21
12.33222351078359
 31
0.0
100
AcDbText
  0
LINE
  5
3EA
330
D
100
AcDbEntity
 67
     1
  8
LOGO
 62
     4
100
AcDbLine
 10
183.2714151379775
 20
21.27566629850503
 30
0.0
 11
161.1346117317273
 21
21.27566629850503
 31
0.0
  0
LINE
  5
3EB
330
D
100
AcDbEntity
 67
     1
  8
LOGO
 62
     4
100
AcDbLine
 10
183.2714151379775
 20
16.24497973041173
 30
0.0
 11
158.6150096395665
 21
16.24497973041173
 31
0.0
  0
LINE
  5
3EC
330
D
100
AcDbEntity
 67
     1
  8
LOGO
 62
     4
100
AcDbLine
 10
183.2714151379775
 20
3.947745897294652
 30
0.0
 11
158.6150096395665
 21
3.947745897294652
 31
0.0
  0
LINE
  5
3ED
330
D
100
AcDbEntity
 67
     1
  8
LOGO
 62
     4
100
AcDbLine
 10
148.4630312136675
 20
16.24497973041173
 30
0.0
 11
148.4630312136675
 21
3.947745897294652
 31
0.0
  0
LINE
  5
3EE
330
D
100
AcDbEntity
 67
     1
  8
LOGO
 62
     4
100
AcDbLine
 10
158.6150096395665
 20
16.24497973041173
 30
0.0
 11
158.6150096395665
 21
3.947745897294652
 31
0.0
  0
LINE
  5
3EF
330
D
100
AcDbEntity
 67
     1
  8
LOGO
 62
     4
100
AcDbLine
 10
183.2714151379775
 20
16.24497973041173
 30
0.0
 11
183.2714151379775
 21
3.947745897294652
 31
0.0
  0
LINE
  5
3F0
330
D
100
AcDbEntity
 67
     1
  8
LOGO
 62
     4
100
AcDbLine
 10
170.9432123887721
 20
21.27566629850503
 30
0.0
 11
170.9432123887721
 21
16.24497973041173
 31
0.0
  0
LINE
  5
3F1
330
D
100
AcDbEntity
 67
     1
  8
LOGO
 62
     4
100
AcDbLine
 10
183.2714151379775
 20
31.33703943469192
 30
0.0
 11
161.1346117317273
 21
31.33703943469192
 31
0.0
  0
LINE
  5
3F2
330
D
100
AcDbEntity
 67
     1
  8
LOGO
  6
Continuous
 62
     7
100
AcDbLine
 10
155.4727195994718
 20
26.27071389287733
 30
0.0
 11
159.3946526405816
 21
26.27071389287733
 31
0.0
  0
TEXT
  5
3F3
330
D
100
AcDbEntity
 67
     1
  8
LOGO
  6
Continuous
 62
     7
100
AcDbText
 10
168.1483865176091
 20
23.44813999245808
 30
0.0
 40
5.589651742325981
  1
11
  7
CHINESET
 72
     1
 11
170.9432123887721
 21
26.24296586362107
 31
0.0
100
AcDbText
 73
     2
  0
TEXT
  5
3F4
330
D
100
AcDbEntity
 67
     1
  8
LOGO
  6
Continuous
 62
     7
100
AcDbText
 10
222.4367934016517
 20
22.35675944372159
 30
0.0
 40
5.589651742325981
  1
*
  7
CHINESET
 72
     1
 11
223.7676628641102
 21
25.15158531488459
 31
0.0
100
AcDbText
 73
     2
  0
TEXT
  5
3F5
330
D
100
AcDbEntity
 67
     1
  8
LOGO
100
AcDbText
 10
218.781387064435
 20
5.63001001206127
 30
0.0
 40
2.225123512792591
  1
Stroke
 72
     4
 11
223.2988258118435
 21
6.742571768457565
 31
0.0
100
AcDbText
  0
LINE
  5
3F6
330
D
100
AcDbEntity
 67
     1
  8
LOGO
 62
     4
100
AcDbLine
 10
231.7094400673994
 20
31.33703943469192
 30
0.0
 11
217.0524740035349
 21
31.33703943469192
 31
0.0
  0
TEXT
  5
3F7
330
D
100
AcDbEntity
 67
     1
  8
LOGO
100
AcDbText
 10
218.8271044179827
 20
10.0963628138532
 30
0.0
 40
4.471721393860784
  1
行程
 72
     4
 11
223.2988258118435
 21
12.33222351078359
 31
0.0
100
AcDbText
  0
LINE
  5
3F8
330
D
100
AcDbEntity
 67
     1
  8
LOGO
 62
     4
100
AcDbLine
 10
231.4923710724595
 20
3.947745897294652
 30
0.0
 11
215.1052805512272
 21
3.947745897294652
 31
0.0
  0
LINE
  5
3F9
330
D
100
AcDbEntity
 67
     1
  8
LOGO
 62
     4
100
AcDbLine
 10
231.7094400673994
 20
21.27566629850503
 30
0.0
 11
217.0524740035349
 21
21.27566629850503
 31
0.0
  0
LINE
  5
3FA
330
D
100
AcDbEntity
 67
     1
  8
LOGO
 62
     4
100
AcDbLine
 10
231.4923710724595
 20
16.24497973041173
 30
0.0
 11
215.1052805512272
 21
16.24497973041173
 31
0.0
  0
LINE
  5
3FB
330
D
100
AcDbEntity
 67
     1
  8
LOGO
 62
     4
100
AcDbLine
 10
209.1363562745662
 20
31.33703943469203
 30
0.0
 11
209.1363562745662
 21
21.27566629850526
 31
0.0
  0
LINE
  5
3FC
330
D
100
AcDbEntity
 67
     1
  8
LOGO
 62
     4
100
AcDbLine
 10
191.1875328669465
 20
31.33703943469192
 30
0.0
 11
191.1875328669465
 21
21.27566629850526
 31
0.0
  0
LINE
  5
3FD
330
D
100
AcDbEntity
 67
     1
  8
LOGO
 62
     4
100
AcDbLine
 10
217.0524740035351
 20
31.33703943469192
 30
0.0
 11
217.0524740035349
 21
21.27566629850503
 31
0.0
  0
LINE
  5
3FE
330
D
100
AcDbEntity
 67
     1
  8
LOGO
 62
     4
100
AcDbLine
 10
209.1363562745662
 20
3.947745897294652
 30
0.0
 11
191.1875328669465
 21
3.947745897294652
 31
0.0
  0
LINE
  5
3FF
330
D
100
AcDbEntity
 67
     1
  8
LOGO
 62
     4
100
AcDbLine
 10
209.1363562745662
 20
21.27566629850526
 30
0.0
 11
191.1875328669465
 21
21.27566629850526
 31
0.0
  0
LINE
  5
400
330
D
100
AcDbEntity
 67
     1
  8
LOGO
 62
     4
100
AcDbLine
 10
209.1363562745662
 20
16.2449797304119
 30
0.0
 11
191.1875328669465
 21
16.2449797304119
 31
0.0
  0
LINE
  5
401
330
D
100
AcDbEntity
 67
     1
  8
LOGO
 62
     4
100
AcDbLine
 10
191.1875328669465
 20
16.2449797304119
 30
0.0
 11
191.1875328669465
 21
3.947745897294652
 31
0.0
  0
TEXT
  5
402
330
D
100
AcDbEntity
 67
     1
  8
LOGO
100
AcDbText
 10
197.0467716528466
 20
5.664572874697042
 30
0.0
 40
2.225123512792591
  1
Bore
 72
     4
 11
200.1619445707563
 21
6.742571768457565
 31
0.0
100
AcDbText
  0
TEXT
  5
403
330
D
100
AcDbEntity
 67
     1
  8
LOGO
100
AcDbText
 10
195.4107405897792
 20
10.0963628138532
 30
0.0
 40
4.471721393860784
  1
內徑
 72
     4
 11
200.1619445707563
 21
12.33222351078359
 31
0.0
100
AcDbText
  0
LINE
  5
404
330
D
100
AcDbEntity
 67
     1
  8
LOGO
 62
     4
100
AcDbLine
 10
200.1619443129789
 20
21.27566629850526
 30
0.0
 11
200.1619443129789
 21
16.2449797304119
 31
0.0
  0
LINE
  5
405
330
D
100
AcDbEntity
 67
     1
  8
LOGO
 62
     4
100
AcDbLine
 10
209.1363562745662
 20
16.2449797304119
 30
0.0
 11
209.1363562745662
 21
3.947745897294652
 31
0.0
  0
LINE
  5
406
330
D
100
AcDbEntity
 67
     1
  8
LOGO
 62
     4
100
AcDbLine
 10
215.1052805512272
 20
16.24497973041173
 30
0.0
 11
215.1052805512272
 21
3.947745897294652
 31
0.0
  0
LINE
  5
407
330
D
100
AcDbEntity
 67
     1
  8
LOGO
 62
     4
100
AcDbLine
 10
209.1363562745662
 20
31.33703943469203
 30
0.0
 11
191.1875328669465
 21
31.33703943469192
 31
0.0
  0
LINE
  5
408
330
D
100
AcDbEntity
 67
     1
  8
LOGO
  6
Continuous
 62
     7
100
AcDbLine
 10
185.0048385220532
 20
26.27071389287744
 30
0.0
 11
189.4475737758006
 21
26.27071389287744
 31
0.0
  0
TEXT
  5
409
330
D
100
AcDbEntity
 67
     1
  8
LOGO
  6
Continuous
 62
     7
100
AcDbText
 10
196.1586893716598
 20
23.44813999245813
 30
0.0
 40
5.589651742325981
  1
40
  7
CHINESET
 72
     1
 11
200.683645544019
 21
26.24296586362112
 31
0.0
100
AcDbText
 73
     2
  0
LINE
  5
40A
330
D
100
AcDbEntity
 67
     1
  8
LOGO
  6
Continuous
 62
     7
100
AcDbLine
 10
210.8697796586418
 20
26.27071389287744
 30
0.0
 11
215.3125149123894
 21
26.27071389287744
 31
0.0
  0
TEXT
  5
40B
330
D
100
AcDbEntity
 67
     1
  8
LOGO
  6
Continuous
 62
     7
100
AcDbText
 10
236.8897497033326
 20
23.75323973502325
 30
0.0
 40
5.589651742325981
  1
(M)
  7
CHINESET
 72
     1
 11
242.8786622843961
 21
26.54806560618624
 31
0.0
100
AcDbText
 73
     2
  0
LINE
  5
40C
330
D
100
AcDbEntity
 67
     1
  8
LOGO
 62
     4
100
AcDbLine
 10
260.5213892550211
 20
31.33703943469192
 30
0.0
 11
260.5213892550211
 21
21.27566629850503
 31
0.0
  0
LINE
  5
40D
330
D
100
AcDbEntity
 67
     1
  8
LOGO
 62
     4
100
AcDbLine
 10
252.6915190617131
 20
31.33703943469192
 30
0.0
 11
252.6915190617131
 21
21.27566629850503
 31
0.0
  0
LINE
  5
40E
330
D
100
AcDbEntity
 67
     1
  8
LOGO
 62
     4
100
AcDbLine
 10
234.0359060540422
 20
31.33703943469192
 30
0.0
 11
234.0359060540422
 21
21.27566629850503
 31
0.0
  0
LINE
  5
40F
330
D
100
AcDbEntity
 67
     1
  8
LOGO
 62
     4
100
AcDbLine
 10
231.7094400673994
 20
31.33703943469192
 30
0.0
 11
231.7094400673994
 21
21.27566629850503
 31
0.0
  0
LINE
  5
410
330
D
100
AcDbEntity
 67
     1
  8
LOGO
 62
     4
100
AcDbLine
 10
253.5402503956428
 20
3.947745897294652
 30
0.0
 11
237.1531598744107
 21
3.947745897294652
 31
0.0
  0
LINE
  5
411
330
D
100
AcDbEntity
 67
     1
  8
LOGO
 62
     4
100
AcDbLine
 10
253.5402503956428
 20
16.24497973041173
 30
0.0
 11
237.1531598744107
 21
16.24497973041173
 31
0.0
  0
TEXT
  5
412
330
D
100
AcDbEntity
 67
     1
  8
LOGO
100
AcDbText
 10
239.8951525286849
 20
5.630010012061271
 30
0.0
 40
2.225123512792591
  1
MAGNET
 72
     4
 11
245.3467051350268
 21
6.742571768457565
 31
0.0
100
AcDbText
  0
TEXT
  5
413
330
D
100
AcDbEntity
 67
     1
  8
LOGO
100
AcDbText
 10
238.6391230442356
 20
10.14294324503925
 30
0.0
 40
4.471721393860784
  1
附磁石
 72
     4
 11
245.3467051350268
 21
12.33222351078359
 31
0.0
100
AcDbText
  0
LINE
  5
414
330
D
100
AcDbEntity
 67
     1
  8
LOGO
 62
     4
100
AcDbLine
 10
252.6915190617131
 20
21.27566629850503
 30
0.0
 11
234.0359060540422
 21
21.27566629850503
 31
0.0
  0
LINE
  5
415
330
D
100
AcDbEntity
 67
     1
  8
LOGO
 62
     4
100
AcDbLine
 10
237.1531598744107
 20
16.24497973041173
 30
0.0
 11
237.1531598744107
 21
3.947745897294652
 31
0.0
  0
LINE
  5
416
330
D
100
AcDbEntity
 67
     1
  8
LOGO
 62
     4
100
AcDbLine
 10
231.4923710724595
 20
16.24497973041173
 30
0.0
 11
231.4923710724595
 21
3.901377171718053
 31
0.0
  0
LINE
  5
417
330
D
100
AcDbEntity
 67
     1
  8
LOGO
 62
     4
100
AcDbLine
 10
223.5355933090032
 20
21.27566629850503
 30
0.0
 11
223.5355933090032
 21
16.24497973041173
 31
0.0
  0
LINE
  5
418
330
D
100
AcDbEntity
 67
     1
  8
LOGO
 62
     4
100
AcDbLine
 10
245.3467051350268
 20
21.27566629850503
 30
0.0
 11
245.3467051350268
 21
16.24497973041173
 31
0.0
  0
LINE
  5
419
330
D
100
AcDbEntity
 67
     1
  8
LOGO
 62
     4
100
AcDbLine
 10
253.5402503956428
 20
16.24497973041173
 30
0.0
 11
253.5402503956428
 21
3.901377171718053
 31
0.0
  0
LINE
  5
41A
330
D
100
AcDbEntity
 67
     1
  8
LOGO
 62
     4
100
AcDbLine
 10
256.002341499267
 20
16.2449797304119
 30
0.0
 11
256.002341499267
 21
3.947745897294652
 31
0.0
  0
LINE
  5
41B
330
D
100
AcDbEntity
 67
     1
  8
LOGO
 62
     4
100
AcDbLine
 10
265.6113715779843
 20
21.27566629850503
 30
0.0
 11
265.6113715779843
 21
16.2449797304119
 31
0.0
  0
LINE
  5
41C
330
D
100
AcDbEntity
 67
     1
  8
LOGO
 62
     4
100
AcDbLine
 10
252.6915190617131
 20
31.33703943469192
 30
0.0
 11
234.0359060540422
 21
31.33703943469192
 31
0.0
  0
LINE
  5
41D
330
D
100
AcDbEntity
 67
     1
  8
LOGO
  6
Continuous
 62
     7
100
AcDbLine
 10
254.4249424457887
 20
26.27071389287744
 30
0.0
 11
258.8676776995363
 21
26.27071389287744
 31
0.0
  0
TEXT
  5
41E
330
D
100
AcDbEntity
 67
     1
  8
LOGO
  6
Continuous
 62
     7
100
AcDbText
 10
264.2846784339961
 20
23.44813999245808
 30
0.0
 40
5.589651742325981
  1
?
  7
CHINESET
 72
     1
 11
265.7486348427005
 21
26.24296586362107
 31
0.0
100
AcDbText
 73
     2
  0
LINE
  5
41F
330
D
100
AcDbEntity
 67
     1
  8
LOGO
 62
     4
100
AcDbLine
 10
270.7013539009474
 20
31.33703943469192
 30
0.0
 11
270.7013539009474
 21
21.27566629850503
 31
0.0
  0
TEXT
  5
420
330
D
100
AcDbEntity
 67
     1
  8
LOGO
100
AcDbText
 10
263.1242019365861
 20
10.09636281385331
 30
0.0
 40
4.471721393860784
  1
配件
 72
     4
 11
267.642503761633
 21
12.3322235107837
 31
0.0
100
AcDbText
  0
LINE
  5
421
330
D
100
AcDbEntity
 67
     1
  8
LOGO
 62
     4
100
AcDbLine
 10
277.9241388942123
 20
16.2449797304119
 30
0.0
 11
277.9241388942123
 21
3.947745897294652
 31
0.0
  0
LINE
  5
422
330
D
100
AcDbEntity
 67
     1
  8
LOGO
 62
     4
100
AcDbLine
 10
77.73865620604579
 20
1.152920026131454
 30
0.0
 11
77.73865620604579
 21
34.6908304800881
 31
0.0
  0
TEXT
  5
423
330
D
100
AcDbEntity
 67
     1
  8
LOGO
  6
Continuous
100
AcDbText
 10
16.00222139822813
 20
7.74139192169116
 30
0.0
 40
5.030686568093425
  1
金器工業股份有限公司
  7
CHINESET
100
AcDbText
  0
TEXT
  5
424
330
D
100
AcDbEntity
 67
     1
  8
LOGO
  6
Continuous
100
AcDbText
 10
6.761845444896266
 20
2.709719733451436
 30
0.0
 40
3.353791045395617
  1
MINDMAN INDUSTRIAL CO., LTD.
 41
0.85
  7
CHINESET
100
AcDbText
  0
LINE
  5
425
330
D
100
AcDbEntity
 67
     1
  8
LOGO
 62
     4
100
AcDbLine
 10
77.73865620604579
 20
27.98324838929659
 30
0.0
 11
28.54972087357566
 21
27.98324838929659
 31
0.0
  0
LINE
  5
426
330
D
100
AcDbEntity
 67
     1
  8
LOGO
 62
     4
100
AcDbLine
 10
77.73865620604579
 20
21.27566629850526
 30
0.0
 11
28.54972087357566
 21
21.27566629850526
 31
0.0
  0
LINE
  5
427
330
D
100
AcDbEntity
 67
     1
  8
LOGO
 62
     4
100
AcDbLine
 10
77.73865620604579
 20
14.56808420771415
 30
0.0
 11
3.955253207341456
 21
14.56808420771415
 31
0.0
  0
LINE
  5
428
330
D
100
AcDbEntity
 67
     1
  8
LOGO
 62
     4
100
AcDbLine
 10
28.54972087357566
 20
14.56808420771415
 30
0.0
 11
28.54972087357566
 21
34.6908304800881
 31
0.0
  0
TEXT
  5
429
330
D
100
AcDbEntity
 67
     1
  8
LOGO
100
AcDbText
 10
62.16803649093481
 20
16.24497973041172
 30
0.0
 40
3.353791045395617
  1
mm
  7
CHINESET
 72
     1
 11
66.32034921380557
 21
17.92187525310953
 31
0.0
100
AcDbText
 73
     2
  0
TEXT
  5
42A
330
D
100
AcDbEntity
 67
     1
  8
LOGO
100
AcDbText
 10
60.41128880048948
 20
29.66014391199422
 30
0.0
 40
3.353791045395617
  1
1 : 1
  7
CHINESET
 72
     1
 11
66.32034921380557
 21
31.33703943469203
 31
0.0
100
AcDbText
 73
     2
  0
LINE
  5
42B
330
D
100
AcDbEntity
 67
     1
  8
LOGO
 62
     4
100
AcDbLine
 10
55.38004923674134
 20
14.56808420771415
 30
0.0
 11
55.38004923674134
 21
34.6908304800881
 31
0.0
  0
TEXT
  5
42C
330
D
100
AcDbEntity
 67
     1
  8
LOGO
100
AcDbText
 10
31.31510125788266
 20
29.66179439971341
 30
219.8019400672432
 40
3.353791045395617
  1
比例 Scale:
 41
0.9
  7
CHINESET
 72
     4
 11
41.96488505515901
 21
31.33703943469203
 31
219.8019400672432
100
AcDbText
  0
TEXT
  5
42D
330
D
100
AcDbEntity
 67
     1
  8
LOGO
100
AcDbText
 10
31.12195882714336
 20
22.99973826184332
 30
219.8019400672432
 40
3.353791045395617
  1
投影  View:
 41
0.9
  7
CHINESET
 72
     4
 11
41.96488505515901
 21
24.62945734390093
 31
219.8019400672432
100
AcDbText
  0
TEXT
  5
42E
330
D
100
AcDbEntity
 67
     1
  8
LOGO
100
AcDbText
 10
31.44985179095659
 20
16.24497973041172
 30
219.8019400672432
 40
3.353791045395617
  1
單位  Unit:
 41
0.9
  7
CHINESET
 72
     4
 11
41.96488505515901
 21
17.92187525310953
 31
219.8019400672432
100
AcDbText
  0
SOLID
  5
42F
330
D
100
AcDbEntity
 67
     1
  8
LOGO
 62
     5
100
AcDbTrace
 10
7.434865241191914
 20
20.14328444612051
 30
0.0
 11
8.884956485743828
 21
20.1432844461196
 31
0.0
 12
14.93533719577135
 22
33.89414969618292
 32
0.0
 13
16.38542844032372
 23
33.89414969618184
 33
0.0
  0
SOLID
  5
430
330
D
100
AcDbEntity
 67
     1
  8
LOGO
 62
     5
100
AcDbTrace
 10
9.484994242111611
 20
20.14328444612051
 30
0.0
 11
10.93508548666352
 21
20.14328444612051
 31
0.0
 12
16.38542844032372
 22
32.79408047617744
 32
0.0
 13
14.93533719577135
 23
27.47707924615327
 33
0.0
  0
SOLID
  5
431
330
D
100
AcDbEntity
 67
     1
  8
LOGO
 62
     2
100
AcDbTrace
 10
8.884956485743828
 20
20.1432844461196
 30
0.0
 11
9.484994242111611
 21
20.14328444612051
 31
0.0
 12
16.38542844032372
 22
33.89414969618184
 32
0.0
 13
16.98546619669116
 23
33.89414969618184
 33
0.0
  0
SOLID
  5
432
330
D
100
AcDbEntity
 67
     1
  8
LOGO
 62
     5
100
AcDbTrace
 10
5.110013370242313
 20
15.14296980973404
 30
0.0
 11
5.610044833881715
 21
15.14296980973404
 31
0.0
 12
7.018172354826447
 22
17.64312712792718
 32
0.0
 13
7.51820381846494
 23
17.64312712792718
 33
0.0
  0
SOLID
  5
433
330
D
100
AcDbEntity
 67
     1
  8
LOGO
 62
     5
100
AcDbTrace
 10
7.018172354826447
 20
17.64312712792718
 30
0.0
 11
7.51820381846494
 21
17.64312712792718
 31
0.0
 12
7.018172354826447
 22
15.14296980973404
 32
0.0
 13
7.51820381846494
 23
15.14296980973404
 33
0.0
  0
SOLID
  5
434
330
D
100
AcDbEntity
 67
     1
  8
LOGO
 62
     5
100
AcDbTrace
 10
7.018172354826447
 20
15.14296980973404
 30
0.0
 11
7.51820381846494
 21
15.14296980973404
 31
0.0
 12
8.926331339412286
 22
17.64312712792718
 32
0.0
 13
9.426362803050324
 23
17.64312712792718
 33
0.0
  0
SOLID
  5
435
330
D
100
AcDbEntity
 67
     1
  8
LOGO
 62
     5
100
AcDbTrace
 10
8.926331339412286
 20
17.64312712792718
 30
0.0
 11
9.426362803050324
 21
17.64312712792718
 31
0.0
 12
8.926331339412286
 22
15.14296980973404
 32
0.0
 13
9.426362803050324
 23
15.14296980973404
 33
0.0
  0
POLYLINE
  5
436
330
D
100
AcDbEntity
 67
     1
  8
LOGO
 62
     5
100
AcDb2dPolyline
 66
     1
 10
0.0
 20
0.0
 30
0.0
 40
0.500832796112412
 41
0.500832796112412
  0
VERTEX
  5
437
330
436
100
AcDbEntity
 67
     1
  8
LOGO
 62
     5
100
AcDbVertex
100
AcDb2dVertex
 10
25.68721566271347
 20
16.64306420064952
 30
0.0
 42
1.0
  0
VERTEX
  5
438
330
436
100
AcDbEntity
 67
     1
  8
LOGO
 62
     5
100
AcDbVertex
100
AcDb2dVertex
 10
24.1847172743768
 20
16.64306420064952
 30
0.0
 42
1.0
  0
SEQEND
  5
439
330
436
100
AcDbEntity
 67
     1
  8
LOGO
 62
     5
  0
POLYLINE
  5
43A
330
D
100
AcDbEntity
 67
     1
  8
LOGO
 62
     5
100
AcDb2dPolyline
 66
     1
 10
0.0
 20
0.0
 30
0.0
 70
     1
  0
VERTEX
  5
43B
330
43A
100
AcDbEntity
 67
     1
  8
LOGO
 62
     5
100
AcDbVertex
100
AcDb2dVertex
 10
21.35244098123167
 20
16.39304846883044
 30
0.0
 42
1.000000057330635
  0
VERTEX
  5
43C
330
43A
100
AcDbEntity
 67
     1
  8
LOGO
 62
     5
100
AcDbVertex
100
AcDb2dVertex
 10
22.85253537214692
 20
16.39304846883044
 30
0.0
 42
1.000000057330635
  0
SEQEND
  5
43D
330
43A
100
AcDbEntity
 67
     1
  8
LOGO
 62
     5
  0
CIRCLE
  5
43E
330
D
100
AcDbEntity
 67
     1
  8
LOGO
 62
     5
100
AcDbCircle
 10
22.10248817669026
 20
16.39304846883044
 30
0.0
 40
0.7500471954579482
  0
POLYLINE
  5
43F
330
D
100
AcDbEntity
 67
     1
  8
LOGO
 62
     5
100
AcDb2dPolyline
 66
     1
 10
0.0
 20
0.0
 30
0.0
 70
     1
 40
0.500832796112412
 41
0.500832796112412
  0
VERTEX
  5
440
330
43F
100
AcDbEntity
 67
     1
  8
LOGO
 62
     5
100
AcDbVertex
100
AcDb2dVertex
 10
21.10082258446494
 20
16.39304846883044
 30
0.0
 42
1.0
  0
VERTEX
  5
441
330
43F
100
AcDbEntity
 67
     1
  8
LOGO
 62
     5
100
AcDbVertex
100
AcDb2dVertex
 10
23.10415376891478
 20
16.39304846883044
 30
0.0
 42
1.0
  0
SEQEND
  5
442
330
43F
100
AcDbEntity
 67
     1
  8
LOGO
 62
     5
  0
LINE
  5
443
330
D
100
AcDbEntity
 67
     1
  8
LOGO
100
AcDbLine
 10
25.93602939582093
 20
15.14296980973404
 30
0.0
 11
25.93602939582093
 21
16.64306420064952
 31
0.0
  0
SOLID
  5
444
330
D
100
AcDbEntity
 67
     1
  8
LOGO
 62
     5
100
AcDbTrace
 10
22.85248536900269
 20
17.64312712792718
 30
0.0
 11
23.35251683264073
 21
17.64312712792718
 31
0.0
 12
22.85248536900269
 22
15.14296980973404
 32
0.0
 13
23.35251683264073
 23
15.14296980973404
 33
0.0
  0
SOLID
  5
445
330
D
100
AcDbEntity
 67
     1
  8
LOGO
 62
     5
100
AcDbTrace
 10
23.93590354126707
 20
15.14296980973404
 30
0.0
 11
24.43593500490579
 21
15.14296980973404
 31
0.0
 12
23.93590354126707
 22
17.64312712792718
 32
0.0
 13
24.43593500490579
 23
17.64312712792718
 33
0.0
  0
SOLID
  5
446
330
D
100
AcDbEntity
 67
     1
  8
LOGO
 62
     5
100
AcDbTrace
 10
25.4359979321838
 20
16.64306420064952
 30
0.0
 11
25.93602939582093
 21
16.64306420064952
 31
0.0
 12
25.4359979321838
 22
15.14296980973404
 32
0.0
 13
25.93602939582093
 23
15.14296980973404
 33
0.0
  0
SOLID
  5
447
330
D
100
AcDbEntity
 67
     1
  8
LOGO
 62
     5
100
AcDbTrace
 10
23.88590039490293
 20
32.79408047617744
 30
0.0
 11
22.43580915035136
 21
27.47707924615327
 31
0.0
 12
23.88590039490293
 22
20.1432844461196
 32
0.0
 13
22.43580915035136
 23
20.1432844461196
 33
0.0
  0
SOLID
  5
448
330
D
100
AcDbEntity
 67
     1
  8
LOGO
 62
     5
100
AcDbTrace
 10
24.48593815126969
 20
20.1432844461196
 30
0.0
 11
25.93602939582093
 21
20.1432844461196
 31
0.0
 12
24.48593815126969
 22
33.89414969618184
 32
0.0
 13
25.93602939582093
 23
33.89414969618292
 33
0.0
  0
SOLID
  5
449
330
D
100
AcDbEntity
 67
     1
  8
LOGO
 62
     2
100
AcDbTrace
 10
23.88590039490293
 20
33.89414969618292
 30
0.0
 11
24.48593815126969
 21
33.89414969618184
 31
0.0
 12
23.88590039490293
 22
20.1432844461196
 32
0.0
 13
24.48593815126969
 23
20.1432844461196
 33
0.0
  0
POLYLINE
  5
44A
330
D
100
AcDbEntity
 67
     1
  8
LOGO
 62
     5
100
AcDb2dPolyline
 66
     1
 10
0.0
 20
0.0
 30
0.0
 40
0.500832796112412
 41
0.500832796112412
  0
VERTEX
  5
44B
330
44A
100
AcDbEntity
 67
     1
  8
LOGO
 62
     5
100
AcDbVertex
100
AcDb2dVertex
 10
18.52006468179627
 20
16.64306420064952
 30
0.0
 42
1.0
  0
VERTEX
  5
44C
330
44A
100
AcDbEntity
 67
     1
  8
LOGO
 62
     5
100
AcDbVertex
100
AcDb2dVertex
 10
17.01756629345789
 20
16.64306420064952
 30
0.0
 42
1.0
  0
SEQEND
  5
44D
330
44A
100
AcDbEntity
 67
     1
  8
LOGO
 62
     5
  0
POLYLINE
  5
44E
330
D
100
AcDbEntity
 67
     1
  8
LOGO
 62
     5
100
AcDb2dPolyline
 66
     1
 10
0.0
 20
0.0
 30
0.0
 40
0.500832796112412
 41
0.500832796112412
  0
VERTEX
  5
44F
330
44E
100
AcDbEntity
 67
     1
  8
LOGO
 62
     5
100
AcDbVertex
100
AcDb2dVertex
 10
20.02015907271129
 20
16.64306420064952
 30
0.0
 42
1.0
  0
VERTEX
  5
450
330
44E
100
AcDbEntity
 67
     1
  8
LOGO
 62
     5
100
AcDbVertex
100
AcDb2dVertex
 10
18.51766068437405
 20
16.64306420064952
 30
0.0
 42
1.0
  0
SEQEND
  5
451
330
44E
100
AcDbEntity
 67
     1
  8
LOGO
 62
     5
  0
POLYLINE
  5
452
330
D
100
AcDbEntity
 67
     1
  8
LOGO
 62
     5
100
AcDb2dPolyline
 66
     1
 10
0.0
 20
0.0
 30
0.0
 40
0.500832796112412
 41
0.500832796112412
  0
VERTEX
  5
453
330
452
100
AcDbEntity
 67
     1
  8
LOGO
 62
     5
100
AcDbVertex
100
AcDb2dVertex
 10
12.8530080917925
 20
16.64306420064952
 30
0.0
 42
1.0
  0
VERTEX
  5
454
330
452
100
AcDbEntity
 67
     1
  8
LOGO
 62
     5
100
AcDbVertex
100
AcDb2dVertex
 10
11.35050970345537
 20
16.64306420064952
 30
0.0
 42
1.0
  0
SEQEND
  5
455
330
452
100
AcDbEntity
 67
     1
  8
LOGO
 62
     5
  0
SOLID
  5
456
330
D
100
AcDbEntity
 67
     1
  8
LOGO
 62
     5
100
AcDbTrace
 10
11.10169597034701
 20
17.64312712792718
 30
0.0
 11
11.6017274339847
 21
17.64312712792718
 31
0.0
 12
11.10169597034701
 22
15.14296980973404
 32
0.0
 13
11.6017274339847
 23
15.14296980973404
 33
0.0
  0
SOLID
  5
457
330
D
100
AcDbEntity
 67
     1
  8
LOGO
 62
     5
100
AcDbTrace
 10
12.60179036126351
 20
16.64306420064952
 30
0.0
 11
13.10182182490303
 21
16.64306420064952
 31
0.0
 12
12.60179036126351
 22
15.14296980973404
 32
0.0
 13
13.10182182490303
 23
15.14296980973404
 33
0.0
  0
POLYLINE
  5
458
330
D
100
AcDbEntity
 67
     1
  8
LOGO
 62
     5
100
AcDb2dPolyline
 66
     1
 10
0.0
 20
0.0
 30
0.0
 70
     1
 40
0.500832796112412
 41
0.500832796112412
  0
VERTEX
  5
459
330
458
100
AcDbEntity
 67
     1
  8
LOGO
 62
     5
100
AcDbVertex
100
AcDb2dVertex
 10
13.9336716035466
 20
16.39304846883044
 30
0.0
 42
1.0
  0
VERTEX
  5
45A
330
458
100
AcDbEntity
 67
     1
  8
LOGO
 62
     5
100
AcDbVertex
100
AcDb2dVertex
 10
15.93700278799633
 20
16.39304846883044
 30
0.0
 42
1.0
  0
SEQEND
  5
45B
330
458
100
AcDbEntity
 67
     1
  8
LOGO
 62
     5
  0
SOLID
  5
45C
330
D
100
AcDbEntity
 67
     1
  8
LOGO
 62
     5
100
AcDbTrace
 10
15.68533438808401
 20
18.39317432338538
 30
0.0
 11
16.18536585172273
 21
18.39317432338538
 31
0.0
 12
15.68533438808401
 22
15.14296980973404
 32
0.0
 13
16.18536585172273
 23
15.14296980973404
 33
0.0
  0
SOLID
  5
45D
330
D
100
AcDbEntity
 67
     1
  8
LOGO
 62
     5
100
AcDbTrace
 10
16.76875256035089
 20
17.64312712792718
 30
0.0
 11
17.2687840239887
 21
17.64312712792718
 31
0.0
 12
16.76875256035089
 22
15.14296980973404
 32
0.0
 13
17.2687840239887
 23
15.14296980973404
 33
0.0
  0
SOLID
  5
45E
330
D
100
AcDbEntity
 67
     1
  8
LOGO
 62
     5
100
AcDbTrace
 10
18.26884695126534
 20
16.64306420064952
 30
0.0
 11
18.76887841490429
 21
16.64306420064952
 31
0.0
 12
18.26884695126534
 22
15.14296980973404
 32
0.0
 13
18.76887841490429
 23
15.14296980973404
 33
0.0
  0
SOLID
  5
45F
330
D
100
AcDbEntity
 67
     1
  8
LOGO
 62
     5
100
AcDbTrace
 10
19.7689413421806
 20
16.64306420064952
 30
0.0
 11
20.26897280582011
 21
16.64306420064952
 31
0.0
 12
19.7689413421806
 22
15.14296980973347
 32
0.0
 13
20.26897280582011
 23
15.14296980973347
 33
0.0
  0
SOLID
  5
460
330
D
100
AcDbEntity
 67
     1
  8
LOGO
 62
     5
100
AcDbTrace
 10
10.0182777980807
 20
17.99314915247407
 30
0.0
 11
10.51830926172169
 21
17.99314915247407
 31
0.0
 12
10.0182777980807
 22
18.39317432338538
 32
0.0
 13
10.51830926172169
 23
18.39317432338538
 33
0.0
  0
SOLID
  5
461
330
D
100
AcDbEntity
 67
     1
  8
LOGO
 62
     5
100
AcDbTrace
 10
10.0182777980807
 20
17.64312712792718
 30
0.0
 11
10.51830926172169
 21
17.64312712792718
 31
0.0
 12
10.0182777980807
 22
15.14296980973347
 32
0.0
 13
10.51830926172169
 23
15.14296980973404
 33
0.0
  0
SOLID
  5
462
330
D
100
AcDbEntity
 67
     1
  8
LOGO
 62
     5
100
AcDbTrace
 10
14.93533719577135
 20
20.14328444612051
 30
0.0
 11
16.38542844032372
 21
20.14328444612051
 31
0.0
 12
14.93533719577135
 22
27.47707924615327
 32
0.0
 13
16.38542844032372
 23
32.79408047617744
 33
0.0
  0
SOLID
  5
463
330
D
100
AcDbEntity
 67
     1
  8
LOGO
 62
     5
100
AcDbTrace
 10
16.98546619669116
 20
33.89414969618184
 30
0.0
 11
18.43555744124296
 21
33.89414969618292
 31
0.0
 12
16.98546619669116
 22
21.24335366612456
 32
0.0
 13
18.43555744124296
 23
26.56035489614908
 33
0.0
  0
SOLID
  5
464
330
D
100
AcDbEntity
 67
     1
  8
LOGO
 62
     2
100
AcDbTrace
 10
16.38542844032372
 20
33.89414969618184
 30
0.0
 11
16.98546619669116
 21
33.89414969618184
 31
0.0
 12
16.38542844032372
 22
20.14328444612051
 32
0.0
 13
16.98546619669116
 23
20.14328444612051
 33
0.0
  0
SOLID
  5
465
330
D
100
AcDbEntity
 67
     1
  8
LOGO
 62
     5
100
AcDbTrace
 10
16.98546619669116
 20
21.24335366612456
 30
0.0
 11
18.43555744124296
 21
26.56035489614908
 31
0.0
 12
23.88590039490293
 22
33.89414969618292
 32
0.0
 13
22.43580915035136
 23
33.89414969618292
 33
0.0
  0
SOLID
  5
466
330
D
100
AcDbEntity
 67
     1
  8
LOGO
 62
     5
100
AcDbTrace
 10
16.98546619669116
 20
20.14328444612051
 30
0.0
 11
18.43555744124296
 21
20.14328444612051
 31
0.0
 12
23.88590039490293
 22
32.79408047617744
 32
0.0
 13
22.43580915035136
 23
27.47707924615327
 33
0.0
  0
SOLID
  5
467
330
D
100
AcDbEntity
 67
     1
  8
LOGO
 62
     2
100
AcDbTrace
 10
16.38542844032372
 20
20.14328444612051
 30
0.0
 11
16.98546619669116
 21
20.14328444612051
 31
0.0
 12
23.88590039490293
 22
33.89414969618292
 32
0.0
 13
24.48593815126969
 23
33.89414969618184
 33
0.0
  0
LWPOLYLINE
  5
468
330
D
100
AcDbEntity
 67
     1
  8
LOGO
 62
     4
100
AcDbPolyline
 90
        4
 70
     1
 43
0.0
 10
3.955253207342821
 20
34.6908304800875
 10
405.3150368500911
 20
34.6908304800875
 10
405.3150368500911
 20
1.152920026131226
 10
3.955253207342821
 20
1.152920026131226
1001
GENIUS_GENREC_14
1002
{
1000
PYDIR
1011
3.955253207342821
1021
1.152920026131226
1031
0.0
1002
}
1002
{
1000
PXDIR
1011
405.3150368500911
1021
34.6908304800875
1031
0.0
1002
}
1002
{
1000
PORI
1011
3.955253207342821
1021
34.6908304800875
1031
0.0
1002
}
1002
{
1000
PINS
1011
3.955253207342821
1021
34.6908304800875
1031
0.0
1002
}
1002
{
1000
PINS2
1011
405.3150368500911
1021
1.152920026131226
1031
0.0
1002
}
1002
{
1000
C
1070
     1
1002
}
1001
GENIUS_GENOBJ-N-REC_13
1002
{
1000
OWNER
1000
GEN
1002
}
1001
GENIUS_GENODEF_13
1002
{
1000
HIER
1070
     0
1002
}
1002
{
1000
MANEDIT
1070
     0
1002
}
1002
{
1000
NOSEL
1070
     0
1002
}
1002
{
1000
BEHIND
1070
     0
1002
}
1002
{
1000
OTHER
1070
     0
1002
}
1002
{
1000
REACTOR
1002
}
  0
TEXT
  5
469
330
D
100
AcDbEntity
 67
     1
  8
LOGO
100
AcDbText
 10
79.29258459381831
 20
2.937123625080857
 30
0.0
 40
3.354276732524307
  1
1120724B
 41
0.7
  7
CHINESET
 72
     1
 11
87.45465797629412
 21
2.937123625080857
 31
0.0
100
AcDbText
  0
LINE
  5
46A
330
D
100
AcDbEntity
 67
     1
  8
LOGO
 62
     4
100
AcDbLine
 10
97.86431660118934
 20
7.860502116923498
 30
0.0
 11
97.86431660119184
 21
1.152920026131738
 31
0.0
  0
LINE
  5
46B
330
D
100
AcDbEntity
 67
     1
  8
LOGO
 62
     4
100
AcDbLine
 10
97.86431660118934
 20
7.860502116923498
 30
0.0
 11
77.73865620604579
 21
7.860502116923498
 31
0.0
  0
CIRCLE
  5
46C
330
D
100
AcDbEntity
 67
     1
  8
LOGO
  6
Continuous
100
AcDbCircle
 10
61.59001284284466
 20
24.63663112748935
 30
0.0
 40
1.947290020299353
  0
CIRCLE
  5
46D
330
D
100
AcDbEntity
 67
     1
  8
LOGO
  6
Continuous
100
AcDbCircle
 10
61.59001284284466
 20
24.63663112748935
 30
0.0
 40
1.140939568063168
  0
LINE
  5
46E
330
D
100
AcDbEntity
 67
     1
  8
LOGO
100
AcDbLine
 10
73.82700928438385
 20
22.68934110718982
 30
0.0
 11
73.82700928438385
 21
26.58392114778906
 31
0.0
  0
LINE
  5
46F
330
D
100
AcDbEntity
 67
     1
  8
LOGO
100
AcDbLine
 10
67.72236685052553
 20
23.49569155942635
 30
0.0
 11
67.72236685052553
 21
25.77757069555287
 31
0.0
  0
LINE
  5
470
330
D
100
AcDbEntity
 67
     1
  8
LOGO
  6
Continuous
100
AcDbLine
 10
67.72236685052553
 20
25.77757069555287
 30
0.0
 11
73.82700928438385
 21
26.58392114778906
 31
0.0
  0
LINE
  5
471
330
D
100
AcDbEntity
 67
     1
  8
LOGO
  6
Continuous
100
AcDbLine
 10
67.72236685052553
 20
23.49569155942635
 30
0.0
 11
73.82700928438385
 21
22.68934110718982
 31
0.0
  0
LINE
  5
472
330
D
100
AcDbEntity
 67
     1
  8
LOGO
  6
AM_ISO08W050x2
 48
0.3
100
AcDbLine
 10
58.90564439148898
 20
24.63663112748935
 30
0.0
 11
64.27438129419806
 21
24.63663112748935
 31
0.0
1001
GENIUS_GENOREF_13
1005
478
  0
LINE
  5
473
330
D
100
AcDbEntity
 67
     1
  8
LOGO
  6
AM_ISO08W050x2
 48
0.3
100
AcDbLine
 10
61.59001284284466
 20
21.95226267613509
 30
0.0
 11
61.59001284284466
 21
27.32099957884418
 31
0.0
1001
GENIUS_GENOREF_13
1005
477
  0
LINE
  5
474
330
D
100
AcDbEntity
 67
     1
  8
LOGO
  6
CENTER
 48
0.5
100
AcDbLine
 10
67.23416513355982
 20
24.63663112748935
 30
0.0
 11
74.44172701572597
 21
24.63663112748935
 31
0.0
1001
GENIUS_GENOREF_13
1005
476
  0
POINT
  5
476
330
D
100
AcDbEntity
 67
     1
  8
0
 60
     1
100
AcDbPoint
 10
2742.404056680777
 20
-485.5041841453754
 30
0.0
1001
GENIUS_GENOBJ-N-CRS_13
1002
{
1000
OWNER
1000
GEN
1002
}
1001
GENIUS_GENOLIS_13
1002
{
1000
ENT
1005
0
1005
0
1005
0
1005
474
1002
}
1001
GENIUS_GENOENT_13
1002
{
1000
MYREF
1005
476
1002
}
1002
{
1000
GRP
1005
0
1002
}
1001
GENIUS_GENODEF_13
1002
{
1000
HIER
1070
    10
1002
}
1002
{
1000
MANEDIT
1070
     1
1002
}
1002
{
1000
NOSEL
1070
     0
1002
}
1002
{
1000
BEHIND
1070
     0
1002
}
1002
{
1000
OTHER
1070
     0
1002
}
1002
{
1000
REACTOR
1002
}
  0
POINT
  5
477
330
D
100
AcDbEntity
 67
     1
  8
0
 60
     1
100
AcDbPoint
 10
2731.079471457923
 20
-476.6285976667392
 30
0.0
1001
GENIUS_GENOBJ-N-CRS_13
1002
{
1000
OWNER
1000
GEN
1002
}
1001
GENIUS_GENOLIS_13
1002
{
1000
ENT
1005
0
1005
0
1005
0
1005
473
1002
}
1001
GENIUS_GENOENT_13
1002
{
1000
MYREF
1005
477
1002
}
1002
{
1000
GRP
1005
0
1002
}
1001
GENIUS_GENODEF_13
1002
{
1000
HIER
1070
    10
1002
}
1002
{
1000
MANEDIT
1070
     1
1002
}
1002
{
1000
NOSEL
1070
     0
1002
}
1002
{
1000
BEHIND
1070
     0
1002
}
1002
{
1000
OTHER
1070
     0
1002
}
1002
{
1000
REACTOR
1002
}
  0
POINT
  5
478
330
D
100
AcDbEntity
 67
     1
  8
0
 60
     1
100
AcDbPoint
 10
2737.438145155759
 20
-485.5041841453754
 30
0.0
1001
GENIUS_GENOBJ-N-CRS_13
1002
{
1000
OWNER
1000
GEN
1002
}
1001
GENIUS_GENOLIS_13
1002
{
1000
ENT
1005
0
1005
0
1005
0
1005
472
1002
}
1001
GENIUS_GENOENT_13
1002
{
1000
MYREF
1005
478
1002
}
1002
{
1000
GRP
1005
0
1002
}
1001
GENIUS_GENODEF_13
1002
{
1000
HIER
1070
    10
1002
}
1002
{
1000
MANEDIT
1070
     1
1002
}
1002
{
1000
NOSEL
1070
     0
1002
}
1002
{
1000
BEHIND
1070
     0
1002
}
1002
{
1000
OTHER
1070
     0
1002
}
1002
{
1000
REACTOR
1002
}
  0
LWPOLYLINE
  5
479
330
D
100
AcDbEntity
 67
     1
  8
LOGO
 62
     4
100
AcDbPolyline
 90
        4
 70
     1
 43
0.0
 10
405.3150368500911
 20
34.6908304800875
 10
3.955253207343503
 20
34.6908304800875
 10
3.955253207343503
 20
281.5128177421804
 10
405.3150368500911
 20
281.5128177421804
  0
DIMENSION
  5
501
330
D
100
AcDbEntity
 67
     1
  8
AM_5
100
AcDbDimension
  2
*D1
 10
28.07698140012987
 20
100.3454907407611
 30
0.0
 11
28.07698140012985
 21
117.8454907407613
 31
0.0
 70
   160
  1
%%c<>
 71
     5
 42
35.0000000000002
  3
AM_ISO$0
100
AcDbAlignedDimension
 13
41.82293556078684
 23
135.3454907407613
 33
0.0
 14
42.3229355607873
 24
100.3454907407611
 34
0.0
 50
90.0
100
AcDbRotatedDimension
1001
ACAD
1000
DSTYLE
1002
{
1070
    40
1040
1.0
1070
   144
1040
1.0
1002
}
  0
DIMENSION
  5
529
330
D
100
AcDbEntity
 67
     1
  8
AM_5
100
AcDbDimension
  2
*D2
 10
44.82293556078684
 20
63.34549074076074
 30
0.0
 11
42.82293556078707
 21
66.09549074076074
 31
0.0
 70
    32
 71
     5
 42
3.999999999999545
  3
AM_ISO$0
100
AcDbAlignedDimension
 13
40.8229355607873
 23
101.8454907407624
 33
0.0
 14
44.82293556078684
 24
90.34549074076132
 34
0.0
100
AcDbRotatedDimension
1001
ACAD
1000
DSTYLE
1002
{
1070
    40
1040
1.0
1070
   174
1070
     1
1002
}
  0
DIMENSION
  5
54E
330
D
100
AcDbEntity
 67
     1
  8
AM_5
100
AcDbDimension
  2
*D3
 10
149.8229355607868
 20
71.34549074076108
 30
0.0
 11
97.32293556078708
 21
74.09549074076108
 31
0.0
 70
    32
  1
<>+Stroke
 71
     5
 42
104.9999999999995
  3
AM_ISO$0
100
AcDbAlignedDimension
 13
44.8229355607873
 23
84.83243238901037
 33
0.0
 14
149.8229355607868
 24
80.34549074076119
 34
0.0
100
AcDbRotatedDimension
1001
ACAD
1000
DSTYLE
1002
{
1070
   174
1070
     1
1070
    40
1040
1.0
1070
   144
1040
1.0
1002
}
  0
DIMENSION
  5
565
330
D
100
AcDbEntity
 67
     1
  8
AM_5
100
AcDbDimension
  2
*D4
 10
219.822935560787
 20
71.34549074076108
 30
0.0
 11
184.8229355607869
 21
74.09549074076108
 31
0.0
 70
    32
 71
     5
 42
70.00000000000011
  3
AM_ISO$0
100
AcDbAlignedDimension
 13
149.8229355607868
 23
90.34549074076132
 33
0.0
 14
219.822935560787
 24
91.34549074076131
 34
0.0
100
AcDbRotatedDimension
1001
ACAD
1000
DSTYLE
1002
{
1070
   174
1070
     1
1070
    40
1040
1.0
1070
   144
1040
1.0
1002
}
  0
DIMENSION
  5
57B
330
D
100
AcDbEntity
 67
     1
  8
AM_5
100
AcDbDimension
  2
*D5
 10
249.8229355607868
 20
71.34549074076108
 30
0.0
 11
234.8229355607869
 21
74.09549074076108
 31
0.0
 70
    32
 71
     5
 42
29.99999999999989
  3
AM_ISO$0
100
AcDbAlignedDimension
 13
219.822935560787
 23
91.34549074076131
 33
0.0
 14
249.8229355607868
 24
111.8454907407613
 34
0.0
100
AcDbRotatedDimension
1001
ACAD
1000
DSTYLE
1002
{
1070
   174
1070
     1
1070
    40
1040
1.0
1070
   144
1040
1.0
1002
}
  0
DIMENSION
  5
591
330
D
100
AcDbEntity
 67
     1
  8
AM_5
100
AcDbDimension
  2
*D6
 10
273.8229355607868
 20
63.27566840729101
 30
0.0
 11
261.8229355607868
 21
66.02601289547997
 31
0.0
 70
    32
 71
     5
 42
24.0
  3
AM_ISO$0
100
AcDbAlignedDimension
 13
249.8229355607868
 23
111.7756684072911
 33
0.0
 14
273.8229355607868
 24
113.2756684072911
 34
0.0
100
AcDbRotatedDimension
1001
ACAD
1000
DSTYLE
1002
{
1070
   174
1070
     1
1070
    40
1040
1.0
1070
   144
1040
1.0
1002
}
  0
DIMENSION
  5
5A7
330
D
100
AcDbEntity
 67
     1
  8
AM_5
100
AcDbDimension
  2
*D7
 10
249.8229355607868
 20
63.27566840729095
 30
0.0
 11
147.3229355607871
 21
66.02601289547992
 31
0.0
 70
    32
  1
<>+Stroke
 71
     5
 42
204.9999999999995
  3
AM_ISO$0
100
AcDbAlignedDimension
 13
44.8229355607873
 23
90.34549074076132
 33
0.0
 14
249.8229355607868
 24
111.8454907407613
 34
0.0
100
AcDbRotatedDimension
1001
ACAD
1000
DSTYLE
1002
{
1070
    40
1040
1.0
1070
   144
1040
1.0
1002
}
  0
DIMENSION
  5
5BD
330
D
100
AcDbEntity
 67
     1
  8
AM_5
100
AcDbDimension
  2
*D8
 10
229.8229355607869
 20
79.34549074076111
 30
0.0
 11
224.8229355607869
 21
82.09549074076111
 31
0.0
 70
    32
 71
     5
 42
9.999999999999886
  3
AM_ISO$0
100
AcDbAlignedDimension
 13
219.822935560787
 23
91.34549074076131
 33
0.0
 14
229.8229355607869
 24
101.3954907407612
 34
0.0
100
AcDbRotatedDimension
1001
ACAD
1000
DSTYLE
1002
{
1070
    40
1040
1.0
1070
   144
1040
1.0
1002
}
  0
DIMENSION
  5
63E
330
D
100
AcDbEntity
 67
     1
  8
AM_5
100
AcDbDimension
  2
*D9
 10
57.92507650238279
 20
120.4273317441914
 30
0.0
 11
76.57697468840301
 21
83.03338943347538
 31
0.0
 70
   163
  1
2-G1/4
 71
     5
 42
13.69999999999989
  3
AM_ISO$3
100
AcDbDiametricDimension
 15
61.72079461919111
 25
107.2636497373314
 35
0.0
 40
0.0
1001
ACAD
1000
DSTYLE
1002
{
1070
    40
1040
1.0
1070
   144
1040
1.0
1002
}
  0
LEADER
  5
820
330
D
100
AcDbEntity
 67
     1
  8
AM_5
100
AcDbLeader
  3
AM_ISO$7
 73
     0
 74
     0
 75
     1
 40
3.500688976377953
 41
16.59497474683059
 76
     3
 10
253.8229355607868
 20
123.8454907407613
 30
0.0
 10
261.2168209498181
 20
145.4136783361814
 30
0.0
 10
264.2168209498182
 20
145.4136783361814
 30
0.0
340
821
213
2.04534921225013
223
0.7997636189857076
233
0.0
1001
ACAD
1000
DSTYLE
1002
{
1070
    41
1040
3.0
1070
    43
1040
10.0
1070
   140
1040
3.5
1070
   147
1040
1.0
1070
   174
1070
     1
1002
}
  0
MTEXT
  5
821
102
{ACAD_REACTORS
330
820
102
}
330
D
100
AcDbEntity
 67
     1
  8
AM_5
100
AcDbMText
 10
263.171471737568
 20
145.6139147171957
 30
0.0
 40
3.5
 41
0.0
 71
     7
 72
     1
  1
M12*1.25
 73
     1
 44
1.0
1001
ACAD
1000
MTEXTBEGIN
1070
    73
1070
     1
1070
    44
1040
1.0
1070
    74
1070
     0
1000
MTEXTEND
  0
INSERT
  5
83C
330
D
100
AcDbEntity
 67
     1
  8
0
100
AcDbBlockReference
  2
A$C453B67D5
 10
103.1494127158996
 20
251.8700923533485
 30
0.0
  0
INSERT
  5
83D
330
D
100
AcDbEntity
 67
     1
  8
0
100
AcDbBlockReference
  2
A$C17481420
 10
103.9325340659439
 20
247.7671730857601
 30
0.0
  0
DIMENSION
  5
9B7
330
D
100
AcDbEntity
 67
     1
  8
AM_5
100
AcDbDimension
  2
*D12
 10
280.1800560026133
 20
109.8454907407613
 30
0.0
 11
280.1800560026133
 21
117.8454907407613
 31
0.0
 70
   160
  1
%%c<>
 71
     5
 42
16.0
  3
AM_ISO$0
100
AcDbAlignedDimension
 13
241.8229355607869
 23
125.8454907407613
 33
0.0
 14
241.8229355607869
 24
109.8454907407613
 34
0.0
 50
90.0
100
AcDbRotatedDimension
1001
ACAD
1000
DSTYLE
1002
{
1070
    40
1040
1.0
1070
   144
1040
1.0
1002
}
  0
DIMENSION
  5
9D6
330
D
100
AcDbEntity
 67
     1
  8
AM_5
100
AcDbDimension
  2
*D13
 10
286.5546861116632
 20
100.3954907407612
 30
0.0
 11
286.5546861116632
 21
117.8454907407613
 31
0.0
 70
   160
  1
%%c<>
 71
     5
 42
34.90000000000009
  3
AM_ISO$0
100
AcDbAlignedDimension
 13
228.8229355607868
 23
135.2954907407613
 33
0.0
 14
228.8229355607868
 24
100.3954907407612
 34
0.0
 50
90.0
100
AcDbRotatedDimension
1001
ACAD
1000
DSTYLE
1002
{
1070
    40
1040
1.0
1070
   144
1040
1.0
1002
}
  0
LINE
  5
CB0
330
D
100
AcDbEntity
 67
     1
  8
AM_VIS
100
AcDbLine
 10
162.3229355607868
 20
133.8454907407613
 30
0.0
 11
162.8229355607863
 21
133.8454907407611
 31
0.0
  0
LINE
  5
CB1
330
D
100
AcDbEntity
 67
     1
  8
AM_VIS
100
AcDbLine
 10
162.8229355607863
 20
139.8454907407615
 30
0.0
 11
162.3229355607868
 21
139.8454907407613
 31
0.0
  0
LINE
  5
CB2
330
D
100
AcDbEntity
 67
     1
  8
AM_VIS
100
AcDbLine
 10
162.8229355607863
 20
133.8454907407611
 30
0.0
 11
163.8229355607863
 21
134.8454907407611
 31
0.0
  0
LINE
  5
CB3
330
D
100
AcDbEntity
 67
     1
  8
AM_VIS
100
AcDbLine
 10
163.8229355607863
 20
138.8454907407615
 30
0.0
 11
162.8229355607863
 21
139.8454907407615
 31
0.0
  0
LINE
  5
CB4
330
D
100
AcDbEntity
 67
     1
  8
AM_VIS
100
AcDbLine
 10
155.8229355607868
 20
131.5954907407611
 30
0.0
 11
157.3229355607868
 21
131.5954907407611
 31
0.0
  0
LINE
  5
CB5
330
D
100
AcDbEntity
 67
     1
  8
AM_VIS
100
AcDbLine
 10
157.3229355607868
 20
142.0954907407615
 30
0.0
 11
155.8229355607868
 21
142.0954907407615
 31
0.0
  0
LINE
  5
CB6
330
D
100
AcDbEntity
 67
     1
  8
AM_VIS
100
AcDbLine
 10
157.3229355607866
 20
141.8454907407613
 30
0.0
 11
157.7695175481721
 21
141.8454907407613
 31
0.0
  0
LINE
  5
CB7
330
D
100
AcDbEntity
 67
     1
  8
AM_VIS
100
AcDbLine
 10
161.876353573401
 20
141.8454907407613
 30
0.0
 11
162.3229355607868
 21
141.8454907407613
 31
0.0
  0
LINE
  5
CB8
330
D
100
AcDbEntity
 67
     1
  8
AM_VIS
100
AcDbLine
 10
157.3229355607866
 20
131.8454907407613
 30
0.0
 11
157.7695175481721
 21
131.8454907407613
 31
0.0
  0
LINE
  5
CB9
330
D
100
AcDbEntity
 67
     1
  8
AM_VIS
100
AcDbLine
 10
161.876353573401
 20
131.8454907407613
 30
0.0
 11
162.3229355607868
 21
131.8454907407613
 31
0.0
  0
SPLINE
  5
CBA
330
D
100
AcDbEntity
 67
     1
  8
AM_VIS
100
AcDbSpline
210
0.0
220
0.0
230
1.0
 70
    12
 71
     2
 72
     6
 73
     3
 74
     0
 42
0.0000000001
 43
0.0000000001
 40
2.928548593876816
 40
2.928548593876816
 40
2.928548593876816
 40
5.857097187753632
 40
5.857097187753632
 40
5.857097187753632
 10
162.3229355607868
 20
139.3454907407613
 30
0.0
 41
1.0
 10
162.3229355607869
 20
138.1852367029168
 30
0.0
 41
1.037954849302059
 10
161.876353573401
 20
136.8454907407608
 30
0.0
 41
1.0
  0
SPLINE
  5
CBB
330
D
100
AcDbEntity
 67
     1
  8
AM_VIS
100
AcDbSpline
210
0.0
220
0.0
230
1.0
 70
    12
 71
     2
 72
     6
 73
     3
 74
     0
 42
0.0000000001
 43
0.0000000001
 40
0.0
 40
0.0
 40
0.0
 40
2.928548593876729
 40
2.928548593876729
 40
2.928548593876729
 10
157.7695175481721
 20
136.8454907407608
 30
0.0
 41
1.0
 10
157.3229355607867
 20
138.1852367029168
 30
0.0
 41
1.037954849302091
 10
157.3229355607868
 20
139.3454907407613
 30
0.0
 41
1.0
  0
SPLINE
  5
CBC
330
D
100
AcDbEntity
 67
     1
  8
AM_VIS
100
AcDbSpline
210
0.0
220
0.0
230
1.0
 70
    12
 71
     2
 72
     6
 73
     3
 74
     0
 42
0.0000000001
 43
0.0000000001
 40
2.928548593876729
 40
2.928548593876729
 40
2.928548593876729
 40
5.85709718775346
 40
5.85709718775346
 40
5.85709718775346
 10
157.3229355607868
 20
139.3454907407613
 30
0.0
 41
1.0
 10
157.3229355607867
 20
140.505744778606
 30
0.0
 41
1.037954849302091
 10
157.7695175481721
 20
141.8454907407617
 30
0.0
 41
1.0
  0
LINE
  5
CBD
330
D
100
AcDbEntity
 67
     1
  8
AM_VIS
100
AcDbLine
 10
157.7695175481721
 20
141.8454907407613
 30
0.0
 11
161.876353573401
 21
141.8454907407613
 31
0.0
  0
SPLINE
  5
CBE
330
D
100
AcDbEntity
 67
     1
  8
AM_VIS
100
AcDbSpline
210
0.0
220
0.0
230
1.0
 70
    12
 71
     2
 72
     6
 73
     3
 74
     0
 42
0.0000000001
 43
0.0000000001
 40
0.0
 40
0.0
 40
0.0
 40
2.928548593876816
 40
2.928548593876816
 40
2.928548593876816
 10
161.876353573401
 20
141.8454907407617
 30
0.0
 41
1.0
 10
162.3229355607869
 20
140.505744778606
 30
0.0
 41
1.037954849302031
 10
162.3229355607868
 20
139.3454907407613
 30
0.0
 41
1.0
  0
SPLINE
  5
CBF
330
D
100
AcDbEntity
 67
     1
  8
AM_VIS
100
AcDbSpline
210
0.0
220
0.0
230
1.0
 70
    12
 71
     2
 72
     6
 73
     3
 74
     0
 42
0.0000000001
 43
0.0000000001
 40
2.928548593876816
 40
2.928548593876816
 40
2.928548593876816
 40
5.85709718775363
 40
5.85709718775363
 40
5.85709718775363
 10
162.3229355607868
 20
134.3454907407613
 30
0.0
 41
1.0
 10
162.3229355607869
 20
133.1852367029166
 30
0.0
 41
1.037954849302031
 10
161.876353573401
 20
131.8454907407608
 30
0.0
 41
1.0
  0
LINE
  5
CC0
330
D
100
AcDbEntity
 67
     1
  8
AM_VIS
100
AcDbLine
 10
157.7695175481721
 20
131.8454907407608
 30
0.0
 11
161.876353573401
 21
131.8454907407608
 31
0.0
  0
SPLINE
  5
CC1
330
D
100
AcDbEntity
 67
     1
  8
AM_VIS
100
AcDbSpline
210
0.0
220
0.0
230
1.0
 70
    12
 71
     2
 72
     6
 73
     3
 74
     0
 42
0.0000000001
 43
0.0000000001
 40
0.0
 40
0.0
 40
0.0
 40
2.928548593876732
 40
2.928548593876732
 40
2.928548593876732
 10
157.7695175481721
 20
131.8454907407608
 30
0.0
 41
1.0
 10
157.3229355607866
 20
133.1852367029166
 30
0.0
 41
1.037954849302097
 10
157.3229355607868
 20
134.3454907407613
 30
0.0
 41
1.0
  0
SPLINE
  5
CC2
330
D
100
AcDbEntity
 67
     1
  8
AM_VIS
100
AcDbSpline
210
0.0
220
0.0
230
1.0
 70
    12
 71
     2
 72
     6
 73
     3
 74
     0
 42
0.0000000001
 43
0.0000000001
 40
2.928548593876732
 40
2.928548593876732
 40
2.928548593876732
 40
5.857097187753462
 40
5.857097187753462
 40
5.857097187753462
 10
157.3229355607868
 20
134.3454907407613
 30
0.0
 41
1.0
 10
157.3229355607867
 20
135.5057447786057
 30
0.0
 41
1.037954849302091
 10
157.7695175481721
 20
136.8454907407617
 30
0.0
 41
1.0
  0
LINE
  5
CC3
330
D
100
AcDbEntity
 67
     1
  8
AM_VIS
100
AcDbLine
 10
157.7695175481721
 20
136.8454907407608
 30
0.0
 11
161.876353573401
 21
136.8454907407608
 31
0.0
  0
SPLINE
  5
CC4
330
D
100
AcDbEntity
 67
     1
  8
AM_VIS
100
AcDbSpline
210
0.0
220
0.0
230
1.0
 70
    12
 71
     2
 72
     6
 73
     3
 74
     0
 42
0.0000000001
 43
0.0000000001
 40
0.0
 40
0.0
 40
0.0
 40
2.928548593876816
 40
2.928548593876816
 40
2.928548593876816
 10
161.876353573401
 20
136.8454907407617
 30
0.0
 41
1.0
 10
162.3229355607869
 20
135.5057447786057
 30
0.0
 41
1.037954849302059
 10
162.3229355607868
 20
134.3454907407613
 30
0.0
 41
1.0
  0
LINE
  5
CC5
330
D
100
AcDbEntity
 67
     1
  8
AM_VIS
100
AcDbLine
 10
162.3229355607868
 20
95.8454907407613
 30
0.0
 11
162.8229355607863
 21
95.84549074076107
 31
0.0
  0
LINE
  5
CC6
330
D
100
AcDbEntity
 67
     1
  8
AM_VIS
100
AcDbLine
 10
162.8229355607863
 20
101.8454907407615
 30
0.0
 11
162.3229355607868
 21
101.8454907407613
 31
0.0
  0
LINE
  5
CC7
330
D
100
AcDbEntity
 67
     1
  8
AM_VIS
100
AcDbLine
 10
162.8229355607863
 20
95.84549074076107
 30
0.0
 11
163.8229355607863
 21
96.84549074076109
 31
0.0
  0
LINE
  5
CC8
330
D
100
AcDbEntity
 67
     1
  8
AM_VIS
100
AcDbLine
 10
163.8229355607863
 20
100.8454907407615
 30
0.0
 11
162.8229355607863
 21
101.8454907407615
 31
0.0
  0
LINE
  5
CC9
330
D
100
AcDbEntity
 67
     1
  8
AM_VIS
100
AcDbLine
 10
155.8229355607868
 20
93.59549074076108
 30
0.0
 11
157.3229355607868
 21
93.59549074076108
 31
0.0
  0
LINE
  5
CCA
330
D
100
AcDbEntity
 67
     1
  8
AM_VIS
100
AcDbLine
 10
157.3229355607868
 20
104.0954907407615
 30
0.0
 11
155.8229355607868
 21
104.0954907407615
 31
0.0
  0
LINE
  5
CCB
330
D
100
AcDbEntity
 67
     1
  8
AM_VIS
100
AcDbLine
 10
157.3229355607866
 20
103.8454907407613
 30
0.0
 11
157.7695175481721
 21
103.8454907407613
 31
0.0
  0
LINE
  5
CCC
330
D
100
AcDbEntity
 67
     1
  8
AM_VIS
100
AcDbLine
 10
161.876353573401
 20
103.8454907407613
 30
0.0
 11
162.3229355607868
 21
103.8454907407613
 31
0.0
  0
LINE
  5
CCD
330
D
100
AcDbEntity
 67
     1
  8
AM_VIS
100
AcDbLine
 10
157.3229355607866
 20
93.84549074076131
 30
0.0
 11
157.7695175481721
 21
93.84549074076131
 31
0.0
  0
LINE
  5
CCE
330
D
100
AcDbEntity
 67
     1
  8
AM_VIS
100
AcDbLine
 10
161.876353573401
 20
93.84549074076131
 30
0.0
 11
162.3229355607868
 21
93.84549074076131
 31
0.0
  0
SPLINE
  5
CCF
330
D
100
AcDbEntity
 67
     1
  8
AM_VIS
100
AcDbSpline
210
0.0
220
0.0
230
1.0
 70
    12
 71
     2
 72
     6
 73
     3
 74
     0
 42
0.0000000001
 43
0.0000000001
 40
2.928548593876816
 40
2.928548593876816
 40
2.928548593876816
 40
5.857097187753632
 40
5.857097187753632
 40
5.857097187753632
 10
162.3229355607868
 20
101.3454907407613
 30
0.0
 41
1.0
 10
162.3229355607869
 20
100.1852367029169
 30
0.0
 41
1.037954849302059
 10
161.876353573401
 20
98.84549074076085
 30
0.0
 41
1.0
  0
SPLINE
  5
CD0
330
D
100
AcDbEntity
 67
     1
  8
AM_VIS
100
AcDbSpline
210
0.0
220
0.0
230
1.0
 70
    12
 71
     2
 72
     6
 73
     3
 74
     0
 42
0.0000000001
 43
0.0000000001
 40
0.0
 40
0.0
 40
0.0
 40
2.928548593876729
 40
2.928548593876729
 40
2.928548593876729
 10
157.7695175481721
 20
98.84549074076085
 30
0.0
 41
1.0
 10
157.3229355607867
 20
100.1852367029169
 30
0.0
 41
1.037954849302091
 10
157.3229355607868
 20
101.3454907407613
 30
0.0
 41
1.0
  0
SPLINE
  5
CD1
330
D
100
AcDbEntity
 67
     1
  8
AM_VIS
100
AcDbSpline
210
0.0
220
0.0
230
1.0
 70
    12
 71
     2
 72
     6
 73
     3
 74
     0
 42
0.0000000001
 43
0.0000000001
 40
2.928548593876729
 40
2.928548593876729
 40
2.928548593876729
 40
5.857097187753462
 40
5.857097187753462
 40
5.857097187753462
 10
157.3229355607868
 20
101.3454907407613
 30
0.0
 41
1.0
 10
157.3229355607866
 20
102.5057447786057
 30
0.0
 41
1.037954849302102
 10
157.7695175481721
 20
103.8454907407617
 30
0.0
 41
1.0
  0
LINE
  5
CD2
330
D
100
AcDbEntity
 67
     1
  8
AM_VIS
100
AcDbLine
 10
157.7695175481721
 20
103.8454907407613
 30
0.0
 11
161.876353573401
 21
103.8454907407613
 31
0.0
  0
SPLINE
  5
CD3
330
D
100
AcDbEntity
 67
     1
  8
AM_VIS
100
AcDbSpline
210
0.0
220
0.0
230
1.0
 70
    12
 71
     2
 72
     6
 73
     3
 74
     0
 42
0.0000000001
 43
0.0000000001
 40
0.0
 40
0.0
 40
0.0
 40
2.928548593876816
 40
2.928548593876816
 40
2.928548593876816
 10
161.876353573401
 20
103.8454907407617
 30
0.0
 41
1.0
 10
162.3229355607869
 20
102.5057447786059
 30
0.0
 41
1.037954849302042
 10
162.3229355607868
 20
101.3454907407613
 30
0.0
 41
1.0
  0
SPLINE
  5
CD4
330
D
100
AcDbEntity
 67
     1
  8
AM_VIS
100
AcDbSpline
210
0.0
220
0.0
230
1.0
 70
    12
 71
     2
 72
     6
 73
     3
 74
     0
 42
0.0000000001
 43
0.0000000001
 40
2.928548593876816
 40
2.928548593876816
 40
2.928548593876816
 40
5.857097187753629
 40
5.857097187753629
 40
5.857097187753629
 10
162.3229355607868
 20
96.34549074076131
 30
0.0
 41
1.0
 10
162.3229355607871
 20
95.18523670291671
 30
0.0
 41
1.037954849302007
 10
161.876353573401
 20
93.84549074076085
 30
0.0
 41
1.0
  0
LINE
  5
CD5
330
D
100
AcDbEntity
 67
     1
  8
AM_VIS
100
AcDbLine
 10
157.7695175481721
 20
93.84549074076085
 30
0.0
 11
161.876353573401
 21
93.84549074076085
 31
0.0
  0
SPLINE
  5
CD6
330
D
100
AcDbEntity
 67
     1
  8
AM_VIS
100
AcDbSpline
210
0.0
220
0.0
230
1.0
 70
    12
 71
     2
 72
     6
 73
     3
 74
     0
 42
0.0000000001
 43
0.0000000001
 40
0.0
 40
0.0
 40
0.0
 40
2.928548593876732
 40
2.928548593876732
 40
2.928548593876732
 10
157.7695175481721
 20
93.84549074076085
 30
0.0
 41
1.0
 10
157.3229355607867
 20
95.18523670291665
 30
0.0
 41
1.037954849302091
 10
157.3229355607868
 20
96.34549074076131
 30
0.0
 41
1.0
  0
SPLINE
  5
CD7
330
D
100
AcDbEntity
 67
     1
  8
AM_VIS
100
AcDbSpline
210
0.0
220
0.0
230
1.0
 70
    12
 71
     2
 72
     6
 73
     3
 74
     0
 42
0.0000000001
 43
0.0000000001
 40
2.928548593876732
 40
2.928548593876732
 40
2.928548593876732
 40
5.857097187753462
 40
5.857097187753462
 40
5.857097187753462
 10
157.3229355607868
 20
96.34549074076131
 30
0.0
 41
1.0
 10
157.3229355607867
 20
97.50574477860574
 30
0.0
 41
1.037954849302091
 10
157.7695175481721
 20
98.84549074076176
 30
0.0
 41
1.0
  0
LINE
  5
CD8
330
D
100
AcDbEntity
 67
     1
  8
AM_VIS
100
AcDbLine
 10
157.7695175481721
 20
98.84549074076085
 30
0.0
 11
161.876353573401
 21
98.84549074076085
 31
0.0
  0
SPLINE
  5
CD9
330
D
100
AcDbEntity
 67
     1
  8
AM_VIS
100
AcDbSpline
210
0.0
220
0.0
230
1.0
 70
    12
 71
     2
 72
     6
 73
     3
 74
     0
 42
0.0000000001
 43
0.0000000001
 40
0.0
 40
0.0
 40
0.0
 40
2.928548593876816
 40
2.928548593876816
 40
2.928548593876816
 10
161.876353573401
 20
98.84549074076176
 30
0.0
 41
1.0
 10
162.3229355607869
 20
97.50574477860567
 30
0.0
 41
1.037954849302059
 10
162.3229355607868
 20
96.34549074076131
 30
0.0
 41
1.0
  0
LINE
  5
CDF
330
D
100
AcDbEntity
 67
     1
  8
AM_VIS
100
AcDbLine
 10
241.8229355607869
 20
109.8454907407612
 30
0.0
 11
241.8229355607869
 21
109.8454907407613
 31
0.0
  0
LINE
  5
CE0
330
D
100
AcDbEntity
 67
     1
  8
AM_VIS
100
AcDbLine
 10
241.8229355607869
 20
125.8454907407612
 30
0.0
 11
241.8229355607869
 21
125.8454907407613
 31
0.0
  0
LINE
  5
CE1
330
D
100
AcDbEntity
 67
     1
  8
AM_VIS
100
AcDbLine
 10
162.8229355607863
 20
133.8454907407611
 30
0.0
 11
162.8229355607863
 21
139.8454907407615
 31
0.0
  0
LINE
  5
CE2
330
D
100
AcDbEntity
 67
     1
  8
AM_VIS
100
AcDbLine
 10
157.3229355607868
 20
131.5954907407611
 30
0.0
 11
157.3229355607868
 21
142.0954907407615
 31
0.0
  0
LINE
  5
CE3
330
D
100
AcDbEntity
 67
     1
  8
AM_VIS
100
AcDbLine
 10
163.8229355607863
 20
134.8454907407611
 30
0.0
 11
163.8229355607863
 21
138.8454907407615
 31
0.0
  0
LINE
  5
CE4
330
D
100
AcDbEntity
 67
     1
  8
AM_VIS
100
AcDbLine
 10
162.3229355607868
 20
134.3454907407613
 30
0.0
 11
162.3229355607868
 21
131.8454907407611
 31
0.0
  0
LINE
  5
CE5
330
D
100
AcDbEntity
 67
     1
  8
AM_VIS
100
AcDbLine
 10
162.3229355607868
 20
139.3454907407613
 30
0.0
 11
162.3229355607868
 21
134.3454907407613
 31
0.0
  0
LINE
  5
CE6
330
D
100
AcDbEntity
 67
     1
  8
AM_VIS
100
AcDbLine
 10
162.3229355607868
 20
141.8454907407615
 30
0.0
 11
162.3229355607868
 21
139.3454907407613
 31
0.0
  0
LINE
  5
CE7
330
D
100
AcDbEntity
 67
     1
  8
AM_VIS
100
AcDbLine
 10
162.8229355607863
 20
95.84549074076107
 30
0.0
 11
162.8229355607863
 21
101.8454907407615
 31
0.0
  0
LINE
  5
CE8
330
D
100
AcDbEntity
 67
     1
  8
AM_VIS
100
AcDbLine
 10
157.3229355607868
 20
93.59549074076108
 30
0.0
 11
157.3229355607868
 21
104.0954907407615
 31
0.0
  0
LINE
  5
CE9
330
D
100
AcDbEntity
 67
     1
  8
AM_VIS
100
AcDbLine
 10
163.8229355607863
 20
96.84549074076109
 30
0.0
 11
163.8229355607863
 21
100.8454907407615
 31
0.0
  0
LINE
  5
CEA
330
D
100
AcDbEntity
 67
     1
  8
AM_VIS
100
AcDbLine
 10
162.3229355607868
 20
96.34549074076131
 30
0.0
 11
162.3229355607868
 21
93.84549074076108
 31
0.0
  0
LINE
  5
CEB
330
D
100
AcDbEntity
 67
     1
  8
AM_VIS
100
AcDbLine
 10
162.3229355607868
 20
101.3454907407613
 30
0.0
 11
162.3229355607868
 21
96.34549074076131
 31
0.0
  0
LINE
  5
CEC
330
D
100
AcDbEntity
 67
     1
  8
AM_VIS
100
AcDbLine
 10
162.3229355607868
 20
103.8454907407615
 30
0.0
 11
162.3229355607868
 21
101.3454907407613
 31
0.0
  0
LINE
  5
CED
330
D
100
AcDbEntity
 67
     1
  8
AM_VIS
100
AcDbLine
 10
149.8229355607868
 20
144.3454907407613
 30
0.0
 11
149.8229355607868
 21
91.34549074076131
 31
0.0
  0
SPLINE
  5
CF0
330
D
100
AcDbEntity
 67
     1
  8
AM_VIS
100
AcDbSpline
210
-0.0000000000000869
220
-0.0000000000000175
230
1.0
 70
    12
 71
     2
 72
     6
 73
     3
 74
     0
 42
0.0000000001
 43
0.0000000001
 40
0.0
 40
0.0
 40
0.0
 40
2.928548593876764
 40
2.928548593876764
 40
2.928548593876764
 10
157.7695175481722
 20
231.5888335936146
 30
0.0
 41
1.0
 10
157.3229355607866
 20
233.1358389774073
 30
0.0000000000002274
 41
1.037954849302093
 10
157.3229355607868
 20
234.4755849395633
 30
0.0
 41
1.0
  0
SPLINE
  5
CF1
330
D
100
AcDbEntity
 67
     1
  8
AM_VIS
100
AcDbSpline
210
0.0
220
0.0
230
1.0
 70
    12
 71
     2
 72
     6
 73
     3
 74
     0
 42
0.0000000001
 43
0.0000000001
 40
2.928548593876764
 40
2.928548593876764
 40
2.928548593876764
 40
5.857097187753528
 40
5.857097187753528
 40
5.857097187753528
 10
157.3229355607868
 20
234.4755849395633
 30
0.0
 41
1.0
 10
157.3229355607868
 20
235.8153309017194
 30
0.0
 41
1.037954849302106
 10
157.7695175481722
 20
237.3623362855119
 30
0.0
 41
1.0
  0
SPLINE
  5
CF2
330
D
100
AcDbEntity
 67
     1
  8
AM_VIS
100
AcDbSpline
210
0.0
220
0.0
230
1.0
 70
    12
 71
     2
 72
     6
 73
     3
 74
     0
 42
0.0000000001
 43
0.0000000001
 40
0.0
 40
0.0
 40
0.0
 40
2.928548593876848
 40
2.928548593876848
 40
2.928548593876848
 10
161.876353573401
 20
237.3623362855119
 30
0.0
 41
1.0
 10
162.3229355607868
 20
235.8153309017186
 30
0.0
 41
1.037954849302197
 10
162.3229355607868
 20
234.4755849395633
 30
0.0
 41
1.0
  0
SPLINE
  5
CF3
330
D
100
AcDbEntity
 67
     1
  8
AM_VIS
100
AcDbSpline
210
0.0
220
0.0
230
1.0
 70
    12
 71
     2
 72
     6
 73
     3
 74
     0
 42
0.0000000001
 43
0.0000000001
 40
2.928548593876848
 40
2.928548593876848
 40
2.928548593876848
 40
5.857097187753698
 40
5.857097187753698
 40
5.857097187753698
 10
162.3229355607868
 20
234.4755849395633
 30
0.0
 41
1.0
 10
162.3229355607869
 20
233.1358389774079
 30
0.0
 41
1.03795484930221
 10
161.876353573401
 20
231.5888335936146
 30
0.0
 41
1.0
  0
LINE
  5
CF4
330
D
100
AcDbEntity
 67
     1
  8
AM_VIS
100
AcDbLine
 10
157.7695175481722
 20
237.3623362855112
 30
0.0
 11
161.8763535734011
 21
237.3623362855112
 31
0.0
  0
SPLINE
  5
CF5
330
D
100
AcDbEntity
 67
     1
  8
AM_VIS
100
AcDbSpline
210
0.0
220
0.0
230
1.0
 70
    12
 71
     2
 72
     6
 73
     3
 74
     0
 42
0.0000000001
 43
0.0000000001
 40
0.0
 40
0.0
 40
0.0
 40
2.928548593876729
 40
2.928548593876729
 40
2.928548593876729
 10
157.7695175481722
 20
237.3623362855112
 30
0.0
 41
1.0
 10
157.3229355607867
 20
238.1358389774077
 30
0.0
 41
1.037954849302091
 10
157.3229355607868
 20
238.8057119584856
 30
0.0
 41
1.0
  0
SPLINE
  5
CF6
330
D
100
AcDbEntity
 67
     1
  8
AM_VIS
100
AcDbSpline
210
0.0
220
0.0
230
1.0
 70
    12
 71
     2
 72
     6
 73
     3
 74
     0
 42
0.0000000001
 43
0.0000000001
 40
2.928548593876729
 40
2.928548593876729
 40
2.928548593876729
 40
5.85709718775346
 40
5.85709718775346
 40
5.85709718775346
 10
157.3229355607868
 20
238.8057119584856
 30
0.0
 41
1.0
 10
157.3229355607867
 20
239.4755849395635
 30
0.0
 41
1.037954849302091
 10
157.7695175481722
 20
240.2490876314598
 30
0.0
 41
1.0
  0
SPLINE
  5
CF7
330
D
100
AcDbEntity
 67
     1
  8
AM_VIS
100
AcDbSpline
210
0.0
220
0.0
230
1.0
 70
    12
 71
     2
 72
     6
 73
     3
 74
     0
 42
0.0000000001
 43
0.0000000001
 40
0.0
 40
0.0
 40
0.0
 40
2.928548593876816
 40
2.928548593876816
 40
2.928548593876816
 10
161.876353573401
 20
240.2490876314598
 30
0.0
 41
1.0
 10
162.3229355607869
 20
239.4755849395633
 30
0.0
 41
1.037954849302059
 10
162.3229355607868
 20
238.8057119584856
 30
0.0
 41
1.0
  0
SPLINE
  5
CF8
330
D
100
AcDbEntity
 67
     1
  8
AM_VIS
100
AcDbSpline
210
0.0
220
0.0
230
1.0
 70
    12
 71
     2
 72
     6
 73
     3
 74
     0
 42
0.0000000001
 43
0.0000000001
 40
2.928548593876816
 40
2.928548593876816
 40
2.928548593876816
 40
5.857097187753629
 40
5.857097187753629
 40
5.857097187753629
 10
162.3229355607868
 20
238.8057119584856
 30
0.0
 41
1.0
 10
162.322935560787
 20
238.135838977408
 30
0.0
 41
1.037954849302069
 10
161.876353573401
 20
237.3623362855112
 30
0.0
 41
1.0
  0
LINE
  5
CF9
330
D
100
AcDbEntity
 67
     1
  8
AM_VIS
100
AcDbLine
 10
157.7695175481722
 20
240.2490876314598
 30
0.0
 11
161.8763535734011
 21
240.2490876314598
 31
0.0
  0
SPLINE
  5
CFA
330
D
100
AcDbEntity
 67
     1
  8
AM_VIS
100
AcDbSpline
210
-0.0000000000000869
220
0.000000000000035
230
1.0
 70
    12
 71
     2
 72
     6
 73
     3
 74
     0
 42
0.0000000001
 43
0.0000000001
 40
2.928548593876817
 40
2.928548593876817
 40
2.928548593876817
 40
5.85709718775363
 40
5.85709718775363
 40
5.85709718775363
 10
162.3229355607868
 20
230.1454579206411
 30
0.0
 41
1.0
 10
162.3229355607872
 20
229.4755849395638
 30
-0.0000000000002274
 41
1.037954849302052
 10
161.876353573401
 20
228.7020822476668
 30
0.0
 41
1.0
  0
SPLINE
  5
CFB
330
D
100
AcDbEntity
 67
     1
  8
AM_VIS
100
AcDbSpline
210
0.0
220
0.0
230
1.0
 70
    12
 71
     2
 72
     6
 73
     3
 74
     0
 42
0.0000000001
 43
0.0000000001
 40
0.0
 40
0.0
 40
0.0
 40
2.928548593876735
 40
2.928548593876735
 40
2.928548593876735
 10
157.7695175481722
 20
228.7020822476668
 30
0.0
 41
1.0
 10
157.3229355607867
 20
229.4755849395637
 30
0.0
 41
1.03795484930206
 10
157.3229355607868
 20
230.1454579206411
 30
0.0
 41
1.0
  0
SPLINE
  5
CFC
330
D
100
AcDbEntity
 67
     1
  8
AM_VIS
100
AcDbSpline
210
0.0
220
0.0
230
1.0
 70
    12
 71
     2
 72
     6
 73
     3
 74
     0
 42
0.0000000001
 43
0.0000000001
 40
2.928548593876735
 40
2.928548593876735
 40
2.928548593876735
 40
5.857097187753468
 40
5.857097187753468
 40
5.857097187753468
 10
157.3229355607868
 20
230.1454579206411
 30
0.0
 41
1.0
 10
157.3229355607866
 20
230.815330901719
 30
0.0
 41
1.037954849302084
 10
157.7695175481722
 20
231.5888335936154
 30
0.0
 41
1.0
  0
LINE
  5
CFD
330
D
100
AcDbEntity
 67
     1
  8
AM_VIS
100
AcDbLine
 10
157.7695175481722
 20
231.5888335936146
 30
0.0
 11
161.8763535734011
 21
231.5888335936146
 31
0.0
  0
SPLINE
  5
CFE
330
D
100
AcDbEntity
 67
     1
  8
AM_VIS
100
AcDbSpline
210
0.0
220
0.0
230
1.0
 70
    12
 71
     2
 72
     6
 73
     3
 74
     0
 42
0.0000000001
 43
0.0000000001
 40
0.0
 40
0.0
 40
0.0
 40
2.928548593876817
 40
2.928548593876817
 40
2.928548593876817
 10
161.876353573401
 20
231.5888335936154
 30
0.0
 41
1.0
 10
162.3229355607869
 20
230.8153309017188
 30
0.0
 41
1.037954849302024
 10
162.3229355607868
 20
230.1454579206411
 30
0.0
 41
1.0
  0
LINE
  5
CFF
330
D
100
AcDbEntity
 67
     1
  8
AM_VIS
100
AcDbLine
 10
157.7695175481721
 20
228.7020822476668
 30
0.0
 11
161.876353573401
 21
228.7020822476668
 31
0.0
  0
SPLINE
  5
D00
330
D
100
AcDbEntity
 67
     1
  8
AM_VIS
100
AcDbSpline
210
-0.0000000000000869
220
-0.0000000000000175
230
1.0
 70
    12
 71
     2
 72
     6
 73
     3
 74
     0
 42
0.0000000001
 43
0.0000000001
 40
0.0
 40
0.0
 40
0.0
 40
2.928548593876764
 40
2.928548593876764
 40
2.928548593876764
 10
157.7695175481722
 20
193.5888335936146
 30
0.0
 41
1.0
 10
157.3229355607867
 20
195.1358389774073
 30
0.0000000000002274
 41
1.037954849302093
 10
157.3229355607868
 20
196.4755849395633
 30
0.0
 41
1.0
  0
SPLINE
  5
D01
330
D
100
AcDbEntity
 67
     1
  8
AM_VIS
100
AcDbSpline
210
0.0
220
0.0
230
1.0
 70
    12
 71
     2
 72
     6
 73
     3
 74
     0
 42
0.0000000001
 43
0.0000000001
 40
2.928548593876764
 40
2.928548593876764
 40
2.928548593876764
 40
5.857097187753528
 40
5.857097187753528
 40
5.857097187753528
 10
157.3229355607868
 20
196.4755849395633
 30
0.0
 41
1.0
 10
157.3229355607868
 20
197.8153309017193
 30
0.0
 41
1.037954849302106
 10
157.7695175481722
 20
199.3623362855119
 30
0.0
 41
1.0
  0
SPLINE
  5
D02
330
D
100
AcDbEntity
 67
     1
  8
AM_VIS
100
AcDbSpline
210
0.0
220
0.0
230
1.0
 70
    12
 71
     2
 72
     6
 73
     3
 74
     0
 42
0.0000000001
 43
0.0000000001
 40
0.0
 40
0.0
 40
0.0
 40
2.928548593876848
 40
2.928548593876848
 40
2.928548593876848
 10
161.8763535734011
 20
199.3623362855119
 30
0.0
 41
1.0
 10
162.3229355607868
 20
197.8153309017185
 30
0.0
 41
1.037954849302197
 10
162.3229355607869
 20
196.4755849395633
 30
0.0
 41
1.0
  0
SPLINE
  5
D03
330
D
100
AcDbEntity
 67
     1
  8
AM_VIS
100
AcDbSpline
210
0.0
220
0.0
230
1.0
 70
    12
 71
     2
 72
     6
 73
     3
 74
     0
 42
0.0000000001
 43
0.0000000001
 40
2.928548593876848
 40
2.928548593876848
 40
2.928548593876848
 40
5.857097187753698
 40
5.857097187753698
 40
5.857097187753698
 10
162.3229355607869
 20
196.4755849395633
 30
0.0
 41
1.0
 10
162.3229355607869
 20
195.1358389774074
 30
0.0
 41
1.03795484930221
 10
161.8763535734011
 20
193.5888335936146
 30
0.0
 41
1.0
  0
LINE
  5
D04
330
D
100
AcDbEntity
 67
     1
  8
AM_VIS
100
AcDbLine
 10
157.7695175481722
 20
199.3623362855111
 30
0.0
 11
161.8763535734011
 21
199.3623362855111
 31
0.0
  0
SPLINE
  5
D05
330
D
100
AcDbEntity
 67
     1
  8
AM_VIS
100
AcDbSpline
210
0.0
220
0.0
230
1.0
 70
    12
 71
     2
 72
     6
 73
     3
 74
     0
 42
0.0000000001
 43
0.0000000001
 40
0.0
 40
0.0
 40
0.0
 40
2.928548593876729
 40
2.928548593876729
 40
2.928548593876729
 10
157.7695175481722
 20
199.3623362855111
 30
0.0
 41
1.0
 10
157.3229355607867
 20
200.1358389774078
 30
0.0
 41
1.037954849302074
 10
157.3229355607868
 20
200.8057119584854
 30
0.0
 41
1.0
  0
SPLINE
  5
D06
330
D
100
AcDbEntity
 67
     1
  8
AM_VIS
100
AcDbSpline
210
-0.0000000000000869
220
0.000000000000035
230
-1.0
 70
    12
 71
     2
 72
     6
 73
     3
 74
     0
 42
0.0000000001
 43
0.0000000001
 40
2.928548593876729
 40
2.928548593876729
 40
2.928548593876729
 40
5.857097187753459
 40
5.857097187753459
 40
5.857097187753459
 10
157.3229355607868
 20
200.8057119584854
 30
0.0
 41
1.0
 10
157.3229355607867
 20
201.4755849395638
 30
-0.0000000000002274
 41
1.037954849302199
 10
157.7695175481722
 20
202.2490876314599
 30
0.0
 41
1.0
  0
SPLINE
  5
D07
330
D
100
AcDbEntity
 67
     1
  8
AM_VIS
100
AcDbSpline
210
0.0
220
0.0
230
1.0
 70
    12
 71
     2
 72
     6
 73
     3
 74
     0
 42
0.0000000001
 43
0.0000000001
 40
0.0
 40
0.0
 40
0.0
 40
2.928548593876818
 40
2.928548593876818
 40
2.928548593876818
 10
161.876353573401
 20
202.2490876314599
 30
0.0
 41
1.0
 10
162.322935560787
 20
201.4755849395633
 30
0.0
 41
1.03795484930207
 10
162.3229355607868
 20
200.8057119584854
 30
0.0
 41
1.0
  0
SPLINE
  5
D08
330
D
100
AcDbEntity
 67
     1
  8
AM_VIS
100
AcDbSpline
210
0.0000000000000869
220
-0.000000000000035
230
1.0
 70
    12
 71
     2
 72
     6
 73
     3
 74
     0
 42
0.0000000001
 43
0.0000000001
 40
2.928548593876818
 40
2.928548593876818
 40
2.928548593876818
 40
5.857097187753638
 40
5.857097187753638
 40
5.857097187753638
 10
162.3229355607868
 20
200.8057119584854
 30
0.0
 41
1.0
 10
162.3229355607869
 20
200.1358389774072
 30
0.0000000000002274
 41
1.037954849302016
 10
161.8763535734011
 20
199.3623362855111
 30
0.0
 41
1.0
  0
LINE
  5
D09
330
D
100
AcDbEntity
 67
     1
  8
AM_VIS
100
AcDbLine
 10
157.7695175481722
 20
202.2490876314599
 30
0.0
 11
161.8763535734011
 21
202.2490876314599
 31
0.0
  0
SPLINE
  5
D0A
330
D
100
AcDbEntity
 67
     1
  8
AM_VIS
100
AcDbSpline
210
0.0
220
0.0
230
1.0
 70
    12
 71
     2
 72
     6
 73
     3
 74
     0
 42
0.0000000001
 43
0.0000000001
 40
2.928548593876816
 40
2.928548593876816
 40
2.928548593876816
 40
5.857097187753632
 40
5.857097187753632
 40
5.857097187753632
 10
162.3229355607868
 20
192.1454579206411
 30
0.0
 41
1.0
 10
162.3229355607869
 20
191.4755849395629
 30
0.0
 41
1.037954849302059
 10
161.8763535734011
 20
190.7020822476668
 30
0.0
 41
1.0
  0
SPLINE
  5
D0B
330
D
100
AcDbEntity
 67
     1
  8
AM_VIS
100
AcDbSpline
210
0.0
220
0.0
230
1.0
 70
    12
 71
     2
 72
     6
 73
     3
 74
     0
 42
0.0000000001
 43
0.0000000001
 40
0.0
 40
0.0
 40
0.0
 40
2.928548593876729
 40
2.928548593876729
 40
2.928548593876729
 10
157.7695175481722
 20
190.7020822476668
 30
0.0
 41
1.0
 10
157.3229355607867
 20
191.4755849395632
 30
0.0
 41
1.037954849302091
 10
157.3229355607868
 20
192.1454579206411
 30
0.0
 41
1.0
  0
SPLINE
  5
D0C
330
D
100
AcDbEntity
 67
     1
  8
AM_VIS
100
AcDbSpline
210
0.0
220
0.0
230
1.0
 70
    12
 71
     2
 72
     6
 73
     3
 74
     0
 42
0.0000000001
 43
0.0000000001
 40
2.928548593876729
 40
2.928548593876729
 40
2.928548593876729
 40
5.85709718775346
 40
5.85709718775346
 40
5.85709718775346
 10
157.3229355607868
 20
192.1454579206411
 30
0.0
 41
1.0
 10
157.3229355607867
 20
192.815330901719
 30
0.0
 41
1.037954849302091
 10
157.7695175481722
 20
193.5888335936154
 30
0.0
 41
1.0
  0
LINE
  5
D0D
330
D
100
AcDbEntity
 67
     1
  8
AM_VIS
100
AcDbLine
 10
157.7695175481722
 20
193.5888335936146
 30
0.0
 11
161.8763535734011
 21
193.5888335936146
 31
0.0
  0
SPLINE
  5
D0E
330
D
100
AcDbEntity
 67
     1
  8
AM_VIS
100
AcDbSpline
210
0.0
220
0.0
230
1.0
 70
    12
 71
     2
 72
     6
 73
     3
 74
     0
 42
0.0000000001
 43
0.0000000001
 40
0.0
 40
0.0
 40
0.0
 40
2.928548593876816
 40
2.928548593876816
 40
2.928548593876816
 10
161.8763535734011
 20
193.5888335936154
 30
0.0
 41
1.0
 10
162.322935560787
 20
192.815330901719
 30
0.0
 41
1.037954849302031
 10
162.3229355607868
 20
192.1454579206411
 30
0.0
 41
1.0
  0
LINE
  5
D0F
330
D
100
AcDbEntity
 67
     1
  8
AM_VIS
100
AcDbLine
 10
157.7695175481722
 20
190.7020822476668
 30
0.0
 11
161.876353573401
 21
190.7020822476668
 31
0.0
  0
LINE
  5
D15
330
D
100
AcDbEntity
 67
     1
  8
AM_VIS
100
AcDbLine
 10
157.3229355607868
 20
201.7255849395636
 30
0.0
 11
155.8229355607868
 21
201.7255849395636
 31
0.0
  0
LINE
  5
D16
330
D
100
AcDbEntity
 67
     1
  8
AM_VIS
100
AcDbLine
 10
162.8229355607863
 20
199.4755849395635
 30
0.0
 11
163.8229355607863
 21
198.4755849395637
 31
0.0
  0
LINE
  5
D17
330
D
100
AcDbEntity
 67
     1
  8
AM_VIS
100
AcDbLine
 10
162.8229355607864
 20
199.4755849395635
 30
0.0
 11
162.3229355607869
 21
199.4755849395635
 31
0.0
  0
LINE
  5
D18
330
D
100
AcDbEntity
 67
     1
  8
AM_VIS
100
AcDbLine
 10
157.3229355607868
 20
239.7255849395635
 30
0.0
 11
155.8229355607868
 21
239.7255849395635
 31
0.0
  0
LINE
  5
D19
330
D
100
AcDbEntity
 67
     1
  8
AM_VIS
100
AcDbLine
 10
162.8229355607864
 20
237.4755849395635
 30
0.0
 11
163.8229355607864
 21
236.4755849395636
 31
0.0
  0
LINE
  5
D1A
330
D
100
AcDbEntity
 67
     1
  8
AM_VIS
100
AcDbLine
 10
162.8229355607864
 20
237.4755849395635
 30
0.0
 11
162.3229355607869
 21
237.4755849395635
 31
0.0
  0
LINE
  5
D1B
330
D
100
AcDbEntity
 67
     1
  8
AM_VIS
100
AcDbLine
 10
162.8229355607864
 20
231.4755849395631
 30
0.0
 11
162.3229355607869
 21
231.4755849395631
 31
0.0
  0
LINE
  5
D1C
330
D
100
AcDbEntity
 67
     1
  8
AM_VIS
100
AcDbLine
 10
162.8229355607864
 20
231.4755849395632
 30
0.0
 11
163.8229355607864
 21
232.4755849395631
 31
0.0
  0
LINE
  5
D1D
330
D
100
AcDbEntity
 67
     1
  8
AM_VIS
100
AcDbLine
 10
157.3229355607868
 20
229.2255849395631
 30
0.0
 11
155.8229355607868
 21
229.2255849395631
 31
0.0
  0
LINE
  5
D1E
330
D
100
AcDbEntity
 67
     1
  8
AM_VIS
100
AcDbLine
 10
161.876353573401
 20
240.24908763146
 30
0.0
 11
162.3229355607868
 21
239.4755849395636
 31
0.0
  0
LINE
  5
D1F
330
D
100
AcDbEntity
 67
     1
  8
AM_VIS
100
AcDbLine
 10
161.876353573401
 20
228.7020822476668
 30
0.0
 11
162.3229355607868
 21
229.475584939563
 31
0.0
  0
LINE
  5
D20
330
D
100
AcDbEntity
 67
     1
  8
AM_VIS
100
AcDbLine
 10
157.3229355607868
 20
239.4755849395636
 30
0.0
 11
157.7695175481722
 21
240.2490876314598
 31
0.0
  0
LINE
  5
D21
330
D
100
AcDbEntity
 67
     1
  8
AM_VIS
100
AcDbLine
 10
157.3229355607868
 20
229.475584939563
 30
0.0
 11
157.7695175481722
 21
228.7020822476668
 31
0.0
  0
LINE
  5
D22
330
D
100
AcDbEntity
 67
     1
  8
AM_VIS
100
AcDbLine
 10
162.8229355607864
 20
193.4755849395631
 30
0.0
 11
162.3229355607869
 21
193.4755849395631
 31
0.0
  0
LINE
  5
D23
330
D
100
AcDbEntity
 67
     1
  8
AM_VIS
100
AcDbLine
 10
162.8229355607864
 20
193.4755849395631
 30
0.0
 11
163.8229355607864
 21
194.4755849395631
 31
0.0
  0
LINE
  5
D24
330
D
100
AcDbEntity
 67
     1
  8
AM_VIS
100
AcDbLine
 10
157.3229355607868
 20
191.2255849395631
 30
0.0
 11
155.8229355607868
 21
191.2255849395631
 31
0.0
  0
LINE
  5
D25
330
D
100
AcDbEntity
 67
     1
  8
AM_VIS
100
AcDbLine
 10
161.876353573401
 20
202.2490876314599
 30
0.0
 11
162.3229355607868
 21
201.4755849395633
 31
0.0
  0
LINE
  5
D26
330
D
100
AcDbEntity
 67
     1
  8
AM_VIS
100
AcDbLine
 10
161.8763535734011
 20
190.7020822476669
 30
0.0
 11
162.3229355607869
 21
191.4755849395631
 31
0.0
  0
LINE
  5
D27
330
D
100
AcDbEntity
 67
     1
  8
AM_VIS
100
AcDbLine
 10
157.3229355607868
 20
201.4755849395634
 30
0.0
 11
157.7695175481722
 21
202.2490876314599
 31
0.0
  0
LINE
  5
D28
330
D
100
AcDbEntity
 67
     1
  8
AM_VIS
100
AcDbLine
 10
157.3229355607868
 20
191.4755849395629
 30
0.0
 11
157.7695175481722
 21
190.7020822476667
 31
0.0
  0
LINE
  5
D29
330
D
100
AcDbEntity
 67
     1
  8
AM_VIS
100
AcDbLine
 10
241.8229355607869
 20
207.4755849395633
 30
0.0
 11
241.8229355607869
 21
207.4755849395633
 31
0.0
  0
LINE
  5
D2A
330
D
100
AcDbEntity
 67
     1
  8
AM_VIS
100
AcDbLine
 10
241.8229355607869
 20
223.4755849395633
 30
0.0
 11
241.8229355607869
 21
223.4755849395633
 31
0.0
  0
LINE
  5
D2B
330
D
100
AcDbEntity
 67
     1
  8
AM_VIS
100
AcDbLine
 10
162.8229355607864
 20
196.4755849395634
 30
0.0
 11
162.8229355607864
 21
199.4755849395635
 31
0.0
  0
LINE
  5
D2C
330
D
100
AcDbEntity
 67
     1
  8
AM_VIS
100
AcDbLine
 10
162.8229355607864
 20
234.4755849395634
 30
0.0
 11
162.8229355607864
 21
237.4755849395635
 31
0.0
  0
LINE
  5
D2D
330
D
100
AcDbEntity
 67
     1
  8
AM_VIS
100
AcDbLine
 10
157.3229355607868
 20
234.4755849395633
 30
0.0
 11
157.3229355607868
 21
239.7255849395635
 31
0.0
  0
LINE
  5
D2E
330
D
100
AcDbEntity
 67
     1
  8
AM_VIS
100
AcDbLine
 10
162.8229355607864
 20
231.4755849395631
 30
0.0
 11
162.8229355607864
 21
234.4755849395634
 31
0.0
  0
LINE
  5
D2F
330
D
100
AcDbEntity
 67
     1
  8
AM_VIS
100
AcDbLine
 10
157.3229355607868
 20
229.2255849395631
 30
0.0
 11
157.3229355607868
 21
234.4755849395633
 31
0.0
  0
LINE
  5
D30
330
D
100
AcDbEntity
 67
     1
  8
AM_VIS
100
AcDbLine
 10
163.8229355607864
 20
234.4755849395634
 30
0.0
 11
163.8229355607864
 21
236.4755849395636
 31
0.0
  0
LINE
  5
D31
330
D
100
AcDbEntity
 67
     1
  8
AM_VIS
100
AcDbLine
 10
163.8229355607864
 20
232.4755849395631
 30
0.0
 11
163.8229355607864
 21
234.4755849395634
 31
0.0
  0
LINE
  5
D32
330
D
100
AcDbEntity
 67
     1
  8
AM_VIS
100
AcDbLine
 10
162.3229355607868
 20
230.1454579206409
 30
0.0
 11
162.3229355607868
 21
229.4755849395631
 31
0.0
  0
LINE
  5
D33
330
D
100
AcDbEntity
 67
     1
  8
AM_VIS
100
AcDbLine
 10
162.3229355607868
 20
234.4755849395633
 30
0.0
 11
162.3229355607868
 21
230.1454579206409
 31
0.0
  0
LINE
  5
D34
330
D
100
AcDbEntity
 67
     1
  8
AM_VIS
100
AcDbLine
 10
162.3229355607868
 20
238.8057119584858
 30
0.0
 11
162.3229355607868
 21
234.4755849395633
 31
0.0
  0
LINE
  5
D35
330
D
100
AcDbEntity
 67
     1
  8
AM_VIS
100
AcDbLine
 10
162.3229355607868
 20
239.4755849395636
 30
0.0
 11
162.3229355607868
 21
238.8057119584858
 31
0.0
  0
LINE
  5
D36
330
D
100
AcDbEntity
 67
     1
  8
AM_VIS
100
AcDbLine
 10
157.3229355607868
 20
196.4755849395633
 30
0.0
 11
157.3229355607868
 21
201.7255849395636
 31
0.0
  0
LINE
  5
D37
330
D
100
AcDbEntity
 67
     1
  8
AM_VIS
100
AcDbLine
 10
162.8229355607864
 20
193.4755849395631
 30
0.0
 11
162.8229355607864
 21
196.4755849395634
 31
0.0
  0
LINE
  5
D38
330
D
100
AcDbEntity
 67
     1
  8
AM_VIS
100
AcDbLine
 10
157.3229355607868
 20
191.2255849395631
 30
0.0
 11
157.3229355607868
 21
196.4755849395633
 31
0.0
  0
LINE
  5
D39
330
D
100
AcDbEntity
 67
     1
  8
AM_VIS
100
AcDbLine
 10
163.8229355607864
 20
196.4755849395634
 30
0.0
 11
163.8229355607864
 21
198.4755849395635
 31
0.0
  0
LINE
  5
D3A
330
D
100
AcDbEntity
 67
     1
  8
AM_VIS
100
AcDbLine
 10
163.8229355607864
 20
194.4755849395631
 30
0.0
 11
163.8229355607864
 21
196.4755849395634
 31
0.0
  0
LINE
  5
D3B
330
D
100
AcDbEntity
 67
     1
  8
AM_VIS
100
AcDbLine
 10
162.3229355607869
 20
192.145457920641
 30
0.0
 11
162.3229355607869
 21
191.4755849395631
 31
0.0
  0
LINE
  5
D3C
330
D
100
AcDbEntity
 67
     1
  8
AM_VIS
100
AcDbLine
 10
162.3229355607869
 20
196.4755849395633
 30
0.0
 11
162.3229355607869
 21
192.1454579206409
 31
0.0
  0
LINE
  5
D3D
330
D
100
AcDbEntity
 67
     1
  8
AM_VIS
100
AcDbLine
 10
162.3229355607868
 20
200.8057119584857
 30
0.0
 11
162.3229355607868
 21
196.4755849395633
 31
0.0
  0
LINE
  5
D3E
330
D
100
AcDbEntity
 67
     1
  8
AM_VIS
100
AcDbLine
 10
162.3229355607868
 20
201.4755849395636
 30
0.0
 11
162.3229355607868
 21
200.8057119584857
 31
0.0
  0
LINE
  5
D40
330
D
100
AcDbEntity
 67
     1
  8
AM_VIS
100
AcDbLine
 10
178.3570291002358
 20
98.19597168792292
 30
0.0
 11
178.3417586800772
 21
99.07081347289659
 31
0.0
  0
LINE
  5
D41
330
D
100
AcDbEntity
 67
     1
  8
AM_VIS
100
AcDbLine
 10
178.3417586800772
 20
99.07081347289659
 30
0.0
 11
179.1070291002358
 21
99.4950097935996
 31
0.0
  0
LINE
  5
D42
330
D
100
AcDbEntity
 67
     1
  8
AM_VIS
100
AcDbLine
 10
170.3229355607868
 20
144.8454907407613
 30
0.0
 11
219.3229355607869
 21
144.8454907407613
 31
0.0
  0
LINE
  5
D43
330
D
100
AcDbEntity
 67
     1
  8
AM_VIS
100
AcDbLine
 10
219.3229355607869
 20
142.4066389223915
 30
0.0
 11
170.3229355607868
 21
142.4066389223915
 31
0.0
  0
LINE
  5
D44
330
D
100
AcDbEntity
 67
     1
  8
AM_VIS
100
AcDbLine
 10
219.8229355607868
 20
144.3454907407613
 30
0.0
 11
219.3229355607869
 21
144.8454907407613
 31
0.0
  0
LINE
  5
D45
330
D
100
AcDbEntity
 67
     1
  8
AM_VIS
100
AcDbLine
 10
219.8229355607868
 20
92.74568994473908
 30
0.0
 11
219.8229355607868
 21
142.9452915367835
 31
0.0
  0
LINE
  5
D46
330
D
100
AcDbEntity
 67
     1
  8
AM_VIS
100
AcDbLine
 10
219.3229355607869
 20
142.4066389223915
 30
0.0
 11
219.3229355607869
 21
93.284342559131
 31
0.0
  0
ARC
  5
D47
330
D
100
AcDbEntity
 67
     1
  8
AM_VIS
100
AcDbCircle
 10
246.3229355607869
 20
117.8454907407613
 30
0.0
 40
36.50000000000002
100
AcDbArc
 50
136.5543824007903
 51
137.7080825370871
  0
LINE
  5
D48
330
D
100
AcDbEntity
 67
     1
  8
AM_VIS
100
AcDbLine
 10
155.3229355607868
 20
142.4066389223915
 30
0.0
 11
155.3229355607868
 21
93.284342559131
 31
0.0
  0
LINE
  5
D49
330
D
100
AcDbEntity
 67
     1
  8
AM_VIS
100
AcDbLine
 10
150.3229355607868
 20
93.284342559131
 30
0.0
 11
150.3229355607868
 21
142.4066389223915
 31
0.0
  0
ARC
  5
D4A
330
D
100
AcDbEntity
 67
     1
  8
AM_VIS
100
AcDbCircle
 10
123.3229355607868
 20
117.8454907407613
 30
0.0
 40
36.50000000000002
100
AcDbArc
 50
316.5543824007903
 51
317.7080825370871
  0
LINE
  5
D4B
330
D
100
AcDbEntity
 67
     1
  8
AM_VIS
100
AcDbLine
 10
150.3229355607868
 20
93.284342559131
 30
0.0
 11
155.3229355607868
 21
93.284342559131
 31
0.0
  0
ARC
  5
D4C
330
D
100
AcDbEntity
 67
     1
  8
AM_VIS
100
AcDbCircle
 10
182.3229355607868
 20
117.8454907407613
 30
0.0
 40
36.50000000000002
100
AcDbArc
 50
222.2919174629129
 51
223.4456175992097
  0
LINE
  5
D4D
330
D
100
AcDbEntity
 67
     1
  8
AM_VIS
100
AcDbLine
 10
155.3229355607869
 20
90.8454907407613
 30
0.0
 11
155.8229355607869
 21
91.34549074076131
 31
0.0
  0
LINE
  5
D4E
330
D
100
AcDbEntity
 67
     1
  8
AM_VIS
100
AcDbLine
 10
155.3229355607868
 20
90.8454907407613
 30
0.0
 11
150.3229355607868
 21
90.8454907407613
 31
0.0
  0
LINE
  5
D4F
330
D
100
AcDbEntity
 67
     1
  8
AM_VIS
100
AcDbLine
 10
149.8229355607868
 20
91.34549074076131
 30
0.0
 11
150.3229355607868
 21
90.8454907407613
 31
0.0
  0
LINE
  5
D50
330
D
100
AcDbEntity
 67
     1
  8
AM_VIS
100
AcDbLine
 10
150.3229355607868
 20
144.8454907407613
 30
0.0
 11
155.3229355607868
 21
144.8454907407613
 31
0.0
  0
ARC
  5
D51
330
D
100
AcDbEntity
 67
     1
  8
AM_VIS
100
AcDbCircle
 10
182.3229355607868
 20
117.8454907407613
 30
0.0
 40
36.50000000000002
100
AcDbArc
 50
136.5543824007903
 51
137.7080825370871
  0
LINE
  5
D52
330
D
100
AcDbEntity
 67
     1
  8
AM_VIS
100
AcDbLine
 10
155.3229355607868
 20
142.4066389223915
 30
0.0
 11
150.3229355607868
 21
142.4066389223915
 31
0.0
  0
ARC
  5
D53
330
D
100
AcDbEntity
 67
     1
  8
AM_VIS
100
AcDbCircle
 10
123.3229355607868
 20
117.8454907407613
 30
0.0
 40
36.50000000000002
100
AcDbArc
 50
42.29191746291291
 51
43.44561759920968
  0
LINE
  5
D54
330
D
100
AcDbEntity
 67
     1
  8
AM_VIS
100
AcDbLine
 10
155.8229355607868
 20
144.3454907407613
 30
0.0
 11
155.3229355607868
 21
144.8454907407613
 31
0.0
  0
LINE
  5
D55
330
D
100
AcDbEntity
 67
     1
  8
AM_VIS
100
AcDbLine
 10
149.8229355607868
 20
142.9452915367835
 30
0.0
 11
149.8229355607868
 21
92.74568994473908
 31
0.0
  0
LINE
  5
D56
330
D
100
AcDbEntity
 67
     1
  8
AM_VIS
100
AcDbLine
 10
150.3229355607869
 20
144.8454907407613
 30
0.0
 11
149.8229355607868
 21
144.3454907407613
 31
0.0
  0
LINE
  5
D57
330
D
100
AcDbEntity
 67
     1
  8
AM_VIS
100
AcDbLine
 10
155.8229355607868
 20
92.74568994473908
 30
0.0
 11
155.8229355607868
 21
142.9452915367835
 31
0.0
  0
LINE
  5
D58
330
D
100
AcDbEntity
 67
     1
  8
AM_VIS
100
AcDbLine
 10
170.3229355607868
 20
144.8454907407613
 30
0.0
 11
169.8229355607868
 21
144.3454907407613
 31
0.0
  0
ARC
  5
D59
330
D
100
AcDbEntity
 67
     1
  8
AM_VIS
100
AcDbCircle
 10
143.3229355607868
 20
117.8454907407613
 30
0.0
 40
36.50000000000002
100
AcDbArc
 50
42.29191746291291
 51
43.44561759920968
  0
LINE
  5
D5A
330
D
100
AcDbEntity
 67
     1
  8
AM_VIS
100
AcDbLine
 10
170.3229355607868
 20
93.284342559131
 30
0.0
 11
170.3229355607868
 21
142.4066389223915
 31
0.0
  0
ARC
  5
D5B
330
D
100
AcDbEntity
 67
     1
  8
AM_VIS
100
AcDbCircle
 10
143.3229355607868
 20
117.8454907407613
 30
0.0
 40
36.50000000000002
100
AcDbArc
 50
316.5543824007903
 51
317.7080825370871
  0
LINE
  5
D5C
330
D
100
AcDbEntity
 67
     1
  8
AM_VIS
100
AcDbLine
 10
170.3229355607868
 20
93.284342559131
 30
0.0
 11
219.3229355607869
 21
93.284342559131
 31
0.0
  0
ARC
  5
D5D
330
D
100
AcDbEntity
 67
     1
  8
AM_VIS
100
AcDbCircle
 10
246.3229355607869
 20
117.8454907407613
 30
0.0
 40
36.50000000000002
100
AcDbArc
 50
222.2919174629129
 51
223.4456175992097
  0
LINE
  5
D5E
330
D
100
AcDbEntity
 67
     1
  8
AM_VIS
100
AcDbLine
 10
219.3229355607869
 20
90.8454907407613
 30
0.0
 11
219.822935560787
 21
91.34549074076131
 31
0.0
  0
LINE
  5
D5F
330
D
100
AcDbEntity
 67
     1
  8
AM_VIS
100
AcDbLine
 10
219.3229355607869
 20
90.8454907407613
 30
0.0
 11
170.3229355607868
 21
90.8454907407613
 31
0.0
  0
LINE
  5
D60
330
D
100
AcDbEntity
 67
     1
  8
AM_VIS
100
AcDbLine
 10
169.8229355607868
 20
142.9452915367835
 30
0.0
 11
169.8229355607868
 21
92.74568994473908
 31
0.0
  0
LINE
  5
D61
330
D
100
AcDbEntity
 67
     1
  8
AM_VIS
100
AcDbLine
 10
169.8229355607868
 20
91.34549074076131
 30
0.0
 11
170.3229355607868
 21
90.8454907407613
 31
0.0
  0
LINE
  5
D62
330
D
100
AcDbEntity
 67
     1
  8
AM_VIS
100
AcDbLine
 10
169.0229355607869
 20
96.94549074076133
 30
0.0
 11
163.8229355607863
 21
96.94549074076133
 31
0.0
  0
LINE
  5
D63
330
D
100
AcDbEntity
 67
     1
  8
AM_VIS
100
AcDbLine
 10
169.0229355607869
 20
138.7454907407613
 30
0.0
 11
163.8229355607863
 21
138.7454907407613
 31
0.0
  0
LINE
  5
D64
330
D
100
AcDbEntity
 67
     1
  8
AM_VIS
100
AcDbLine
 10
228.8229355607868
 20
100.3954907407612
 30
0.0
 11
220.6229355607869
 21
100.3954907407612
 31
0.0
  0
LINE
  5
D65
330
D
100
AcDbEntity
 67
     1
  8
AM_VIS
100
AcDbLine
 10
228.8229355607868
 20
135.2954907407613
 30
0.0
 11
220.6229355607869
 21
135.2954907407613
 31
0.0
  0
LINE
  5
D66
330
D
100
AcDbEntity
 67
     1
  8
AM_VIS
100
AcDbLine
 10
229.8229355607869
 20
134.2954907407613
 30
0.0
 11
228.8229355607868
 21
135.2954907407613
 31
0.0
  0
LINE
  5
D67
330
D
100
AcDbEntity
 67
     1
  8
AM_VIS
100
AcDbLine
 10
229.8229355607869
 20
101.3954907407612
 30
0.0
 11
228.8229355607868
 21
100.3954907407612
 31
0.0
  0
LINE
  5
D68
330
D
100
AcDbEntity
 67
     1
  8
AM_VIS
100
AcDbLine
 10
180.4916158283534
 20
96.96356746583546
 30
0.0
 11
178.3570291002358
 21
98.19597168792292
 31
0.0
  0
LINE
  5
D69
330
D
100
AcDbEntity
 67
     1
  8
AM_VIS
100
AcDbLine
 10
179.1070291002358
 20
99.4950097935996
 30
0.0
 11
181.2913960548508
 21
98.23386494434362
 31
0.0
  0
LINE
  5
D6A
330
D
100
AcDbEntity
 67
     1
  8
AM_VIS
100
AcDbLine
 10
176.4729355607869
 20
104.0435279488651
 30
0.0
 11
176.4729355607869
 21
95.64745353265744
 31
0.0
  0
LINE
  5
D6B
330
D
100
AcDbEntity
 67
     1
  8
AM_VIS
100
AcDbLine
 10
174.1729355607868
 20
96.9431612624586
 30
0.0
 11
174.1729355607868
 21
102.7478202190641
 31
0.0
  0
LINE
  5
D6C
330
D
100
AcDbEntity
 67
     1
  8
AM_VIS
100
AcDbLine
 10
219.822935561215
 20
136.0954907407613
 30
0.0
 11
219.822935561215
 21
136.0954537277089
 31
0.0
  0
LINE
  5
D6D
330
D
100
AcDbEntity
 67
     1
  8
AM_VIS
100
AcDbLine
 10
219.822935561215
 20
99.59552775381371
 30
0.0
 11
219.822935561215
 21
99.5954907407613
 31
0.0
  0
LINE
  5
D6E
330
D
100
AcDbEntity
 67
     1
  8
AM_VIS
100
AcDbLine
 10
169.8229355601815
 20
96.14553475080185
 30
0.0
 11
169.8229355601815
 21
96.14549074076126
 31
0.0
  0
ARC
  5
D6F
330
D
100
AcDbEntity
 67
     1
  8
AM_VIS
100
AcDbCircle
 10
169.0229355601026
 20
139.5454907414455
 30
0.0
 40
0.8000000006842107
100
AcDbArc
 50
270.0
 51
359.9999999019937
  0
LINE
  5
D70
330
D
100
AcDbEntity
 67
     1
  8
AM_VIS
100
AcDbLine
 10
169.8229355601815
 20
96.14553475080185
 30
0.0
 11
169.8229355601815
 21
96.14549074076126
 31
0.0
  0
ARC
  5
D71
330
D
100
AcDbEntity
 67
     1
  8
AM_VIS
100
AcDbCircle
 10
169.0229355601026
 20
139.5454907414455
 30
0.0
 40
0.8000000006842107
100
AcDbArc
 50
270.0
 51
359.9999999019937
  0
LINE
  5
D72
330
D
100
AcDbEntity
 67
     1
  8
AM_VIS
100
AcDbLine
 10
219.822935561215
 20
136.0954907407613
 30
0.0
 11
219.822935561215
 21
136.0954537277089
 31
0.0
  0
LINE
  5
D73
330
D
100
AcDbEntity
 67
     1
  8
AM_VIS
100
AcDbLine
 10
219.822935561215
 20
99.59552775381371
 30
0.0
 11
219.822935561215
 21
99.5954907407613
 31
0.0
  0
ARC
  5
D74
330
D
100
AcDbEntity
 67
     1
  8
AM_VIS
100
AcDbCircle
 10
177.3229355607868
 20
99.84549074076131
 30
0.0
 40
5.083225000000001
100
AcDbArc
 50
180.0
 51
0.0
  0
LINE
  5
D75
330
D
100
AcDbEntity
 67
     1
  8
AM_VIS
100
AcDbLine
 10
219.8229355607868
 20
142.9452915367835
 30
0.0
 11
219.8229355607868
 21
144.3454907407613
 31
0.0
  0
LINE
  5
D76
330
D
100
AcDbEntity
 67
     1
  8
AM_VIS
100
AcDbLine
 10
149.8229355607868
 20
144.3454907407613
 30
0.0
 11
149.8229355607868
 21
142.9452915367835
 31
0.0
  0
LINE
  5
D77
330
D
100
AcDbEntity
 67
     1
  8
AM_VIS
100
AcDbLine
 10
149.8229355607868
 20
92.74568994473908
 30
0.0
 11
149.8229355607868
 21
91.34549074076131
 31
0.0
  0
LINE
  5
D78
330
D
100
AcDbEntity
 67
     1
  8
AM_VIS
100
AcDbLine
 10
155.8229355607868
 20
91.34549074076131
 30
0.0
 11
155.8229355607868
 21
92.74568994473908
 31
0.0
  0
LINE
  5
D79
330
D
100
AcDbEntity
 67
     1
  8
AM_VIS
100
AcDbLine
 10
155.8229355607868
 20
142.9452915367835
 30
0.0
 11
155.8229355607868
 21
144.3454907407613
 31
0.0
  0
LINE
  5
D7A
330
D
100
AcDbEntity
 67
     1
  8
AM_VIS
100
AcDbLine
 10
219.8229355607868
 20
91.34549074076131
 30
0.0
 11
219.8229355607868
 21
92.74568994473908
 31
0.0
  0
LINE
  5
D7B
330
D
100
AcDbEntity
 67
     1
  8
AM_VIS
100
AcDbLine
 10
169.8229355607868
 20
144.3454907407613
 30
0.0
 11
169.8229355607868
 21
142.9452915367835
 31
0.0
  0
LINE
  5
D7C
330
D
100
AcDbEntity
 67
     1
  8
AM_VIS
100
AcDbLine
 10
169.8229355607868
 20
92.74568994473908
 30
0.0
 11
169.8229355607868
 21
91.34549074076131
 31
0.0
  0
ARC
  5
D7D
330
D
100
AcDbEntity
 67
     1
  8
AM_VIS
100
AcDbCircle
 10
169.0229355607869
 20
96.14549074076126
 30
0.0
 40
0.8000000000000007
100
AcDbArc
 50
0.0
 51
90.0
  0
ARC
  5
D7E
330
D
100
AcDbEntity
 67
     1
  8
AM_VIS
100
AcDbCircle
 10
169.0229355607869
 20
139.5454907407613
 30
0.0
 40
0.8000000000000007
100
AcDbArc
 50
270.0
 51
0.0
  0
ARC
  5
D7F
330
D
100
AcDbEntity
 67
     1
  8
AM_VIS
100
AcDbCircle
 10
220.6229355607869
 20
99.5954907407613
 30
0.0
 40
0.8000000000000007
100
AcDbArc
 50
90.0
 51
180.0
  0
ARC
  5
D80
330
D
100
AcDbEntity
 67
     1
  8
AM_VIS
100
AcDbCircle
 10
220.6229355607869
 20
136.0954907407613
 30
0.0
 40
0.8000000000000007
100
AcDbArc
 50
180.0
 51
270.0
  0
LINE
  5
D81
330
D
100
AcDbEntity
 67
     1
  8
AM_VIS
100
AcDbLine
 10
228.8229355607868
 20
100.3954907407612
 30
0.0
 11
228.8229355607868
 21
135.2954907407613
 31
0.0
  0
LINE
  5
D82
330
D
100
AcDbEntity
 67
     1
  8
AM_VIS
100
AcDbLine
 10
229.8229355607869
 20
134.2954907407613
 30
0.0
 11
229.8229355607869
 21
101.3954907407612
 31
0.0
  0
LINE
  5
D83
330
D
100
AcDbEntity
 67
     1
  8
AM_VIS
100
AcDbLine
 10
179.1070291002358
 20
99.4950097935996
 30
0.0
 11
178.3570291002358
 21
98.19597168792279
 31
0.0
  0
ARC
  5
D84
330
D
100
AcDbEntity
 67
     1
  8
AM_VIS
100
AcDbCircle
 10
177.3229355607868
 20
99.84549074076131
 30
0.0
 40
4.283225000000001
100
AcDbArc
 50
180.0
 51
0.0
  0
ARC
  5
D85
330
D
100
AcDbEntity
 67
     1
  8
AM_VIS
100
AcDbCircle
 10
177.3229355607868
 20
99.84549074076131
 30
0.0
 40
4.283225000000001
100
AcDbArc
 50
0.0
 51
180.0
  0
ARC
  5
D86
330
D
100
AcDbEntity
 67
     1
  8
AM_VIS
100
AcDbCircle
 10
177.3229355607868
 20
99.84549074076131
 30
0.0
 40
5.083225000000001
100
AcDbArc
 50
0.0
 51
180.0
  0
LINE
  5
D87
330
D
100
AcDbEntity
 67
     1
  8
AM_VIS
100
AcDbLine
 10
241.8229355607869
 20
126.8454907407613
 30
0.0
 11
239.8229355607869
 21
127.7868765257649
 31
0.0
  0
LINE
  5
D88
330
D
100
AcDbEntity
 67
     1
  8
AM_VIS
100
AcDbLine
 10
241.8229355607869
 20
108.8454907407613
 30
0.0
 11
239.8229355607869
 21
107.9041049557577
 31
0.0
  0
LINE
  5
D89
330
D
100
AcDbEntity
 67
     1
  8
AM_VIS
100
AcDbLine
 10
241.8229355607869
 20
117.8454907407613
 30
0.0
 11
241.8229355607869
 21
126.8454907407613
 31
0.0
  0
LINE
  5
D8A
330
D
100
AcDbEntity
 67
     1
  8
AM_VIS
100
AcDbLine
 10
241.8229355607869
 20
108.8454907407613
 30
0.0
 11
241.8229355607869
 21
117.8454907407613
 31
0.0
  0
LINE
  5
D8B
330
D
100
AcDbEntity
 67
     1
  8
AM_VIS
100
AcDbLine
 10
170.3229355607868
 20
190.9144367579331
 30
0.0
 11
219.3229355607869
 21
190.9144367579331
 31
0.0
  0
LINE
  5
D8C
330
D
100
AcDbEntity
 67
     1
  8
AM_VIS
100
AcDbLine
 10
219.3229355607869
 20
188.4755849395633
 30
0.0
 11
170.3229355607868
 21
188.4755849395633
 31
0.0
  0
ARC
  5
D8D
330
D
100
AcDbEntity
 67
     1
  8
AM_VIS
100
AcDbCircle
 10
246.3229355607869
 20
215.4755849395634
 30
0.0
 40
36.50000000000003
100
AcDbArc
 50
222.2919174629129
 51
223.4456175992097
  0
LINE
  5
D8E
330
D
100
AcDbEntity
 67
     1
  8
AM_VIS
100
AcDbLine
 10
219.3229355607869
 20
240.0367331211936
 30
0.0
 11
219.3229355607869
 21
190.9144367579331
 31
0.0
  0
LINE
  5
D8F
330
D
100
AcDbEntity
 67
     1
  8
AM_VIS
100
AcDbLine
 10
219.8229355607868
 20
190.3757841435411
 30
0.0
 11
219.8229355607868
 21
240.5753857355856
 31
0.0
  0
LINE
  5
D90
330
D
100
AcDbEntity
 67
     1
  8
AM_VIS
100
AcDbLine
 10
219.3229355607869
 20
188.4755849395633
 30
0.0
 11
219.8229355607868
 21
188.9755849395633
 31
0.0
  0
LINE
  5
D91
330
D
100
AcDbEntity
 67
     1
  8
AM_VIS
100
AcDbLine
 10
150.3229355607868
 20
190.9144367579331
 30
0.0
 11
155.3229355607868
 21
190.9144367579331
 31
0.0
  0
LINE
  5
D92
330
D
100
AcDbEntity
 67
     1
  8
AM_VIS
100
AcDbLine
 10
155.3229355607868
 20
188.4755849395633
 30
0.0
 11
155.8229355607868
 21
188.9755849395633
 31
0.0
  0
LINE
  5
D93
330
D
100
AcDbEntity
 67
     1
  8
AM_VIS
100
AcDbLine
 10
155.3229355607868
 20
188.4755849395633
 30
0.0
 11
150.3229355607868
 21
188.4755849395633
 31
0.0
  0
LINE
  5
D94
330
D
100
AcDbEntity
 67
     1
  8
AM_VIS
100
AcDbLine
 10
149.8229355607869
 20
188.9755849395633
 30
0.0
 11
150.3229355607869
 21
188.4755849395633
 31
0.0
  0
ARC
  5
D95
330
D
100
AcDbEntity
 67
     1
  8
AM_VIS
100
AcDbCircle
 10
182.3229355607868
 20
215.4755849395634
 30
0.0
 40
36.50000000000002
100
AcDbArc
 50
222.2919174629129
 51
223.4456175992097
  0
LINE
  5
D96
330
D
100
AcDbEntity
 67
     1
  8
AM_VIS
100
AcDbLine
 10
155.3229355607868
 20
240.0367331211936
 30
0.0
 11
155.3229355607868
 21
190.9144367579331
 31
0.0
  0
LINE
  5
D97
330
D
100
AcDbEntity
 67
     1
  8
AM_VIS
100
AcDbLine
 10
150.3229355607868
 20
190.9144367579331
 30
0.0
 11
150.3229355607868
 21
240.0367331211936
 31
0.0
  0
ARC
  5
D98
330
D
100
AcDbEntity
 67
     1
  8
AM_VIS
100
AcDbCircle
 10
123.3229355607868
 20
215.4755849395634
 30
0.0
 40
36.50000000000002
100
AcDbArc
 50
316.5543824007903
 51
317.7080825370871
  0
LINE
  5
D99
330
D
100
AcDbEntity
 67
     1
  8
AM_VIS
100
AcDbLine
 10
149.8229355607868
 20
240.5753857355856
 30
0.0
 11
149.8229355607868
 21
190.3757841435411
 31
0.0
  0
LINE
  5
D9A
330
D
100
AcDbEntity
 67
     1
  8
AM_VIS
100
AcDbLine
 10
155.8229355607868
 20
190.3757841435411
 30
0.0
 11
155.8229355607868
 21
240.5753857355856
 31
0.0
  0
LINE
  5
D9B
330
D
100
AcDbEntity
 67
     1
  8
AM_VIS
100
AcDbLine
 10
155.8229355607868
 20
241.9755849395633
 30
0.0
 11
155.3229355607868
 21
242.4755849395634
 31
0.0
  0
ARC
  5
D9C
330
D
100
AcDbEntity
 67
     1
  8
AM_VIS
100
AcDbCircle
 10
182.3229355607868
 20
215.4755849395634
 30
0.0
 40
36.50000000000002
100
AcDbArc
 50
136.5543824007903
 51
137.7080825370871
  0
LINE
  5
D9D
330
D
100
AcDbEntity
 67
     1
  8
AM_VIS
100
AcDbLine
 10
155.3229355607868
 20
240.0367331211936
 30
0.0
 11
150.3229355607868
 21
240.0367331211936
 31
0.0
  0
ARC
  5
D9E
330
D
100
AcDbEntity
 67
     1
  8
AM_VIS
100
AcDbCircle
 10
123.3229355607868
 20
215.4755849395634
 30
0.0
 40
36.50000000000002
100
AcDbArc
 50
42.29191746291291
 51
43.44561759920968
  0
LINE
  5
D9F
330
D
100
AcDbEntity
 67
     1
  8
AM_VIS
100
AcDbLine
 10
150.3229355607868
 20
242.4755849395634
 30
0.0
 11
155.3229355607868
 21
242.4755849395634
 31
0.0
  0
LINE
  5
DA0
330
D
100
AcDbEntity
 67
     1
  8
AM_VIS
100
AcDbLine
 10
150.3229355607869
 20
242.4755849395634
 30
0.0
 11
149.8229355607868
 21
241.9755849395633
 31
0.0
  0
LINE
  5
DA1
330
D
100
AcDbEntity
 67
     1
  8
AM_VIS
100
AcDbLine
 10
170.3229355607868
 20
190.9144367579331
 30
0.0
 11
170.3229355607868
 21
240.0367331211936
 31
0.0
  0
ARC
  5
DA2
330
D
100
AcDbEntity
 67
     1
  8
AM_VIS
100
AcDbCircle
 10
143.3229355607868
 20
215.4755849395634
 30
0.0
 40
36.50000000000002
100
AcDbArc
 50
316.5543824007903
 51
317.7080825370871
  0
LINE
  5
DA3
330
D
100
AcDbEntity
 67
     1
  8
AM_VIS
100
AcDbLine
 10
170.3229355607868
 20
242.4755849395634
 30
0.0
 11
219.3229355607869
 21
242.4755849395634
 31
0.0
  0
LINE
  5
DA4
330
D
100
AcDbEntity
 67
     1
  8
AM_VIS
100
AcDbLine
 10
219.8229355607868
 20
241.9755849395633
 30
0.0
 11
219.3229355607869
 21
242.4755849395634
 31
0.0
  0
ARC
  5
DA5
330
D
100
AcDbEntity
 67
     1
  8
AM_VIS
100
AcDbCircle
 10
246.3229355607869
 20
215.4755849395634
 30
0.0
 40
36.50000000000003
100
AcDbArc
 50
136.5543824007903
 51
137.7080825370871
  0
LINE
  5
DA6
330
D
100
AcDbEntity
 67
     1
  8
AM_VIS
100
AcDbLine
 10
219.3229355607869
 20
240.0367331211936
 30
0.0
 11
170.3229355607868
 21
240.0367331211936
 31
0.0
  0
ARC
  5
DA7
330
D
100
AcDbEntity
 67
     1
  8
AM_VIS
100
AcDbCircle
 10
143.3229355607868
 20
215.4755849395634
 30
0.0
 40
36.50000000000002
100
AcDbArc
 50
42.29191746291291
 51
43.44561759920968
  0
LINE
  5
DA8
330
D
100
AcDbEntity
 67
     1
  8
AM_VIS
100
AcDbLine
 10
170.3229355607869
 20
242.4755849395634
 30
0.0
 11
169.8229355607868
 21
241.9755849395633
 31
0.0
  0
LINE
  5
DA9
330
D
100
AcDbEntity
 67
     1
  8
AM_VIS
100
AcDbLine
 10
169.8229355607869
 20
188.9755849395633
 30
0.0
 11
170.3229355607869
 21
188.4755849395633
 31
0.0
  0
LINE
  5
DAA
330
D
100
AcDbEntity
 67
     1
  8
AM_VIS
100
AcDbLine
 10
169.8229355607868
 20
240.5753857355856
 30
0.0
 11
169.8229355607868
 21
190.3757841435411
 31
0.0
  0
LINE
  5
DAB
330
D
100
AcDbEntity
 67
     1
  8
AM_VIS
100
AcDbLine
 10
229.8229355607869
 20
231.9255849395634
 30
0.0
 11
228.8229355607868
 21
232.9255849395634
 31
0.0
  0
LINE
  5
DAC
330
D
100
AcDbEntity
 67
     1
  8
AM_VIS
100
AcDbLine
 10
228.8229355607868
 20
198.0255849395632
 30
0.0
 11
220.6229355607869
 21
198.0255849395632
 31
0.0
  0
ARC
  5
DAD
330
D
100
AcDbEntity
 67
     1
  8
AM_VIS
100
AcDbCircle
 10
220.622935561471
 20
197.2255849388793
 30
0.0
 40
0.8000000006841005
100
AcDbArc
 50
90.0
 51
179.9999999020132
  0
LINE
  5
DAE
330
D
100
AcDbEntity
 67
     1
  8
AM_VIS
100
AcDbLine
 10
169.0229355607869
 20
194.5755849395633
 30
0.0
 11
163.8229355607864
 21
194.5755849395632
 31
0.0
  0
ARC
  5
DAF
330
D
100
AcDbEntity
 67
     1
  8
AM_VIS
100
AcDbCircle
 10
169.0229355601028
 20
193.7755849388793
 30
0.0
 40
0.8000000006840295
100
AcDbArc
 50
0.0000000489901092
 51
89.9999999510099
  0
ARC
  5
DB0
330
D
100
AcDbEntity
 67
     1
  8
AM_VIS
100
AcDbCircle
 10
169.0229355601027
 20
237.1755849402475
 30
0.0
 40
0.8000000006841787
100
AcDbArc
 50
270.0000000489999
 51
359.9999999509969
  0
LINE
  5
DB1
330
D
100
AcDbEntity
 67
     1
  8
AM_VIS
100
AcDbLine
 10
169.0229355607869
 20
236.3755849395634
 30
0.0
 11
163.8229355607864
 21
236.3755849395633
 31
0.0
  0
ARC
  5
DB2
330
D
100
AcDbEntity
 67
     1
  8
AM_VIS
100
AcDbCircle
 10
220.6229355614707
 20
233.7255849402473
 30
0.0
 40
0.8000000006838945
100
AcDbArc
 50
180.0000000489836
 51
269.9999999510197
  0
LINE
  5
DB3
330
D
100
AcDbEntity
 67
     1
  8
AM_VIS
100
AcDbLine
 10
228.8229355607868
 20
232.9255849395634
 30
0.0
 11
220.6229355607869
 21
232.9255849395634
 31
0.0
  0
LINE
  5
DB4
330
D
100
AcDbEntity
 67
     1
  8
AM_VIS
100
AcDbLine
 10
229.8229355607869
 20
199.0255849395633
 30
0.0
 11
228.8229355607868
 21
198.0255849395632
 31
0.0
  0
ARC
  5
DB5
330
D
100
AcDbEntity
 67
     1
  8
AM_VIS
100
AcDbCircle
 10
185.5729355607868
 20
226.4970549095754
 30
0.0
 40
3.25
100
AcDbArc
 50
16.1367722897329
 51
223.8632277102635
  0
ARC
  5
DB6
330
D
100
AcDbEntity
 67
     1
  8
AM_VIS
100
AcDbCircle
 10
185.572935560787
 20
194.4541149695512
 30
0.0
 40
3.25
100
AcDbArc
 50
136.1367722897364
 51
343.8632277102671
  0
ARC
  5
DB7
330
D
100
AcDbEntity
 67
     1
  8
AM_VIS
100
AcDbCircle
 10
213.3229355607868
 20
210.4755849395633
 30
0.0
 40
3.25
100
AcDbArc
 50
256.1367722897356
 51
103.8632277102644
  0
LINE
  5
DB8
330
D
100
AcDbEntity
 67
     1
  8
AM_VIS
100
AcDbLine
 10
229.8229355607869
 20
231.9255849395634
 30
0.0
 11
229.8229355607869
 21
215.4755849395632
 31
0.0
  0
LINE
  5
DB9
330
D
100
AcDbEntity
 67
     1
  8
AM_VIS
100
AcDbLine
 10
219.8229355607868
 20
188.9755849395633
 30
0.0
 11
219.8229355607868
 21
190.3757841435411
 31
0.0
  0
LINE
  5
DBA
330
D
100
AcDbEntity
 67
     1
  8
AM_VIS
100
AcDbLine
 10
149.8229355607868
 20
190.3757841435411
 30
0.0
 11
149.8229355607868
 21
188.9755849395633
 31
0.0
  0
LINE
  5
DBB
330
D
100
AcDbEntity
 67
     1
  8
AM_VIS
100
AcDbLine
 10
155.8229355607868
 20
188.9755849395633
 30
0.0
 11
155.8229355607868
 21
190.3757841435411
 31
0.0
  0
LINE
  5
DBC
330
D
100
AcDbEntity
 67
     1
  8
AM_VIS
100
AcDbLine
 10
155.8229355607868
 20
240.5753857355856
 30
0.0
 11
155.8229355607868
 21
241.9755849395633
 31
0.0
  0
LINE
  5
DBD
330
D
100
AcDbEntity
 67
     1
  8
AM_VIS
100
AcDbLine
 10
149.8229355607868
 20
241.9755849395633
 30
0.0
 11
149.8229355607868
 21
240.5753857355856
 31
0.0
  0
LINE
  5
DBE
330
D
100
AcDbEntity
 67
     1
  8
AM_VIS
100
AcDbLine
 10
219.8229355607868
 20
240.5753857355856
 30
0.0
 11
219.8229355607868
 21
241.9755849395633
 31
0.0
  0
LINE
  5
DBF
330
D
100
AcDbEntity
 67
     1
  8
AM_VIS
100
AcDbLine
 10
169.8229355607868
 20
241.9755849395633
 30
0.0
 11
169.8229355607868
 21
240.5753857355856
 31
0.0
  0
LINE
  5
DC0
330
D
100
AcDbEntity
 67
     1
  8
AM_VIS
100
AcDbLine
 10
169.8229355607868
 20
190.3757841435411
 30
0.0
 11
169.8229355607868
 21
188.9755849395633
 31
0.0
  0
LINE
  5
DC1
330
D
100
AcDbEntity
 67
     1
  8
AM_VIS
100
AcDbLine
 10
228.8229355607868
 20
215.4755849395634
 30
0.0
 11
228.8229355607868
 21
232.9255849395634
 31
0.0
  0
LINE
  5
DC2
330
D
100
AcDbEntity
 67
     1
  8
AM_VIS
100
AcDbLine
 10
228.8229355607868
 20
198.0255849395632
 30
0.0
 11
228.8229355607868
 21
215.4755849395634
 31
0.0
  0
LINE
  5
DC3
330
D
100
AcDbEntity
 67
     1
  8
AM_VIS
100
AcDbLine
 10
229.8229355607869
 20
215.4755849395632
 30
0.0
 11
229.8229355607869
 21
199.0255849395633
 31
0.0
  0
ARC
  5
DC4
330
D
100
AcDbEntity
 67
     1
  8
AM_VIS
100
AcDbCircle
 10
213.3229355607868
 20
210.4755849395633
 30
0.0
 40
3.199999999999993
100
AcDbArc
 50
103.9234312930031
 51
256.0765687069969
  0
ARC
  5
DC5
330
D
100
AcDbEntity
 67
     1
  8
AM_VIS
100
AcDbCircle
 10
185.5729355607868
 20
226.4970549095754
 30
0.0
 40
3.199999999999994
100
AcDbArc
 50
223.9234312930004
 51
16.07656870699924
  0
ARC
  5
DC6
330
D
100
AcDbEntity
 67
     1
  8
AM_VIS
100
AcDbCircle
 10
185.572935560787
 20
194.4541149695512
 30
0.0
 40
3.199999999999994
100
AcDbArc
 50
343.9234312930008
 51
136.0765687069996
  0
LINE
  5
DC7
330
D
100
AcDbEntity
 67
     1
  8
AM_VIS
100
AcDbLine
 10
186.1508845204712
 20
193.4541149695512
 30
0.0
 11
186.727935560787
 21
194.4541149695512
 31
0.0
  0
LINE
  5
DC8
330
D
100
AcDbEntity
 67
     1
  8
AM_VIS
100
AcDbLine
 10
186.727935560787
 20
194.4541149695512
 30
0.0
 11
186.1508845204712
 21
195.4541149695512
 31
0.0
  0
LINE
  5
DC9
330
D
100
AcDbEntity
 67
     1
  8
AM_VIS
100
AcDbLine
 10
186.1508845204712
 20
195.4541149695512
 30
0.0
 11
184.9949866011028
 21
195.4541149695512
 31
0.0
  0
LINE
  5
DCA
330
D
100
AcDbEntity
 67
     1
  8
AM_VIS
100
AcDbLine
 10
184.9949866011028
 20
195.4541149695512
 30
0.0
 11
184.417935560787
 21
194.4541149695512
 31
0.0
  0
LINE
  5
DCB
330
D
100
AcDbEntity
 67
     1
  8
AM_VIS
100
AcDbLine
 10
184.417935560787
 20
194.4541149695512
 30
0.0
 11
184.9949866011028
 21
193.4541149695512
 31
0.0
  0
LINE
  5
DCC
330
D
100
AcDbEntity
 67
     1
  8
AM_VIS
100
AcDbLine
 10
184.9949866011028
 20
193.4541149695512
 30
0.0
 11
186.1508845204712
 21
193.4541149695512
 31
0.0
  0
ARC
  5
DCD
330
D
100
AcDbEntity
 67
     1
  8
AM_VIS
100
AcDbCircle
 10
185.572935560787
 20
194.4541149695512
 30
0.0
 40
2.849999999999995
100
AcDbArc
 50
270.0
 51
90.0
  0
ARC
  5
DCE
330
D
100
AcDbEntity
 67
     1
  8
AM_VIS
100
AcDbCircle
 10
185.572935560787
 20
194.4541149695512
 30
0.0
 40
2.849999999999995
100
AcDbArc
 50
90.0
 51
270.0
  0
LINE
  5
DCF
330
D
100
AcDbEntity
 67
     1
  8
AM_VIS
100
AcDbLine
 10
186.150884520471
 20
225.4970549095754
 30
0.0
 11
186.7279355607868
 21
226.4970549095754
 31
0.0
  0
LINE
  5
DD0
330
D
100
AcDbEntity
 67
     1
  8
AM_VIS
100
AcDbLine
 10
186.7279355607868
 20
226.4970549095754
 30
0.0
 11
186.150884520471
 21
227.4970549095754
 31
0.0
  0
LINE
  5
DD1
330
D
100
AcDbEntity
 67
     1
  8
AM_VIS
100
AcDbLine
 10
186.150884520471
 20
227.4970549095754
 30
0.0
 11
184.9949866011026
 21
227.4970549095754
 31
0.0
  0
LINE
  5
DD2
330
D
100
AcDbEntity
 67
     1
  8
AM_VIS
100
AcDbLine
 10
184.9949866011026
 20
227.4970549095754
 30
0.0
 11
184.4179355607868
 21
226.4970549095754
 31
0.0
  0
LINE
  5
DD3
330
D
100
AcDbEntity
 67
     1
  8
AM_VIS
100
AcDbLine
 10
184.4179355607868
 20
226.4970549095754
 30
0.0
 11
184.9949866011026
 21
225.4970549095754
 31
0.0
  0
LINE
  5
DD4
330
D
100
AcDbEntity
 67
     1
  8
AM_VIS
100
AcDbLine
 10
184.9949866011026
 20
225.4970549095754
 30
0.0
 11
186.150884520471
 21
225.4970549095754
 31
0.0
  0
ARC
  5
DD5
330
D
100
AcDbEntity
 67
     1
  8
AM_VIS
100
AcDbCircle
 10
185.5729355607868
 20
226.4970549095754
 30
0.0
 40
2.849999999999995
100
AcDbArc
 50
270.0
 51
90.0
  0
ARC
  5
DD6
330
D
100
AcDbEntity
 67
     1
  8
AM_VIS
100
AcDbCircle
 10
185.5729355607868
 20
226.4970549095754
 30
0.0
 40
2.849999999999995
100
AcDbArc
 50
90.0
 51
270.0
  0
LINE
  5
DD7
330
D
100
AcDbEntity
 67
     1
  8
AM_VIS
100
AcDbLine
 10
213.9008845204711
 20
209.4755849395633
 30
0.0
 11
214.477935560787
 21
210.4755849395633
 31
0.0
  0
LINE
  5
DD8
330
D
100
AcDbEntity
 67
     1
  8
AM_VIS
100
AcDbLine
 10
214.477935560787
 20
210.4755849395633
 30
0.0
 11
213.9008845204711
 21
211.4755849395633
 31
0.0
  0
LINE
  5
DD9
330
D
100
AcDbEntity
 67
     1
  8
AM_VIS
100
AcDbLine
 10
213.9008845204711
 20
211.4755849395633
 30
0.0
 11
212.7449866011027
 21
211.4755849395633
 31
0.0
  0
LINE
  5
DDA
330
D
100
AcDbEntity
 67
     1
  8
AM_VIS
100
AcDbLine
 10
212.7449866011027
 20
211.4755849395633
 30
0.0
 11
212.1679355607869
 21
210.4755849395633
 31
0.0
  0
LINE
  5
DDB
330
D
100
AcDbEntity
 67
     1
  8
AM_VIS
100
AcDbLine
 10
212.1679355607869
 20
210.4755849395633
 30
0.0
 11
212.7449866011027
 21
209.4755849395633
 31
0.0
  0
LINE
  5
DDC
330
D
100
AcDbEntity
 67
     1
  8
AM_VIS
100
AcDbLine
 10
212.7449866011027
 20
209.4755849395633
 30
0.0
 11
213.9008845204711
 21
209.4755849395633
 31
0.0
  0
ARC
  5
DDD
330
D
100
AcDbEntity
 67
     1
  8
AM_VIS
100
AcDbCircle
 10
213.3229355607868
 20
210.4755849395633
 30
0.0
 40
2.849999999999995
100
AcDbArc
 50
270.0
 51
90.0
  0
ARC
  5
DDE
330
D
100
AcDbEntity
 67
     1
  8
AM_VIS
100
AcDbCircle
 10
213.3229355607868
 20
210.4755849395633
 30
0.0
 40
2.849999999999995
100
AcDbArc
 50
90.0
 51
270.0
  0
LINE
  5
DDF
330
D
100
AcDbEntity
 67
     1
  8
AM_VIS
100
AcDbLine
 10
241.8229355607869
 20
206.4755849395633
 30
0.0
 11
239.8229355607869
 21
205.5341991545597
 31
0.0
  0
LINE
  5
DE0
330
D
100
AcDbEntity
 67
     1
  8
AM_VIS
100
AcDbLine
 10
241.8229355607869
 20
224.4755849395633
 30
0.0
 11
239.8229355607869
 21
225.4169707245669
 31
0.0
  0
LINE
  5
DE1
330
D
100
AcDbEntity
 67
     1
  8
AM_VIS
100
AcDbLine
 10
241.8229355607869
 20
206.4755849395633
 30
0.0
 11
241.8229355607869
 21
224.4755849395633
 31
0.0
  0
CIRCLE
  5
DE2
330
D
100
AcDbEntity
 67
     1
  8
0
100
AcDbCircle
 10
194.8229355607868
 20
117.8454907407613
 30
0.0
 40
19.0
  0
LINE
  5
DE3
330
D
100
AcDbEntity
 67
     1
  8
AM_VIS
100
AcDbLine
 10
149.8229355607868
 20
241.9755849395633
 30
0.0
 11
149.8229355607868
 21
188.9755849395633
 31
0.0
  0
ARC
  5
DE4
330
D
100
AcDbEntity
 67
     1
  8
0
100
AcDbCircle
 10
194.8229355607868
 20
210.4755849395633
 30
0.0
 40
17.99999999999998
100
AcDbArc
 50
129.9363670721399
 51
229.9041128557887
  0
ARC
  5
DE5
330
D
100
AcDbEntity
 67
     1
  8
0
100
AcDbCircle
 10
194.8229355607868
 20
210.4755849395633
 30
0.0
 40
17.99999999999998
100
AcDbArc
 50
250.0958871442121
 51
350.0636329278592
  0
ARC
  5
DE6
330
D
100
AcDbEntity
 67
     1
  8
0
100
AcDbCircle
 10
194.8229355607868
 20
210.4755849395633
 30
0.0
 40
17.99999999999998
100
AcDbArc
 50
9.936367072140841
 51
110.063632927861
  0
ARC
  5
FC6
330
D
100
AcDbEntity
 67
     1
  8
AM_4
100
AcDbCircle
 10
135.3229355607873
 20
210.1755849395629
 30
0.0
 40
6.549999999999999
100
AcDbArc
 50
169.9999999999957
 51
100.0000000000051
  0
ARC
  5
FC7
330
D
100
AcDbEntity
 67
     1
  8
AM_4
100
AcDbCircle
 10
59.3229355607873
 20
210.1755849395629
 30
0.0
 40
6.549999999999999
100
AcDbArc
 50
169.9999999999957
 51
100.0000000000051
  0
LINE
  5
FC8
330
D
100
AcDbEntity
 67
     1
  8
AM_VIS
100
AcDbLine
 10
115.8229355607868
 20
187.9755849395633
 30
0.0
 11
149.8229355607868
 21
187.9755849395633
 31
0.0
  0
LINE
  5
FC9
330
D
100
AcDbEntity
 67
     1
  8
AM_VIS
100
AcDbLine
 10
149.8229355607868
 20
242.9755849395633
 30
0.0
 11
115.8229355607868
 21
242.9755849395633
 31
0.0
  0
LINE
  5
FCA
330
D
100
AcDbEntity
 67
     1
  8
AM_VIS
100
AcDbLine
 10
115.8229355607868
 20
233.4755849395633
 30
0.0
 11
115.8229355607868
 21
197.4755849395633
 31
0.0
  0
LINE
  5
FCB
330
D
100
AcDbEntity
 67
     1
  8
AM_VIS
100
AcDbLine
 10
149.8229355607868
 20
233.4755849395633
 30
0.0
 11
149.8229355607868
 21
197.4755849395633
 31
0.0
  0
LINE
  5
FCC
330
D
100
AcDbEntity
 67
     1
  8
AM_VIS
100
AcDbLine
 10
78.8229355607873
 20
242.9755849395633
 30
0.0
 11
44.8229355607873
 21
242.9755849395633
 31
0.0
  0
LINE
  5
FCD
330
D
100
AcDbEntity
 67
     1
  8
AM_VIS
100
AcDbLine
 10
78.8229355607873
 20
197.4755849395633
 30
0.0
 11
78.8229355607873
 21
233.4755849395633
 31
0.0
  0
LINE
  5
FCE
330
D
100
AcDbEntity
 67
     1
  8
AM_VIS
100
AcDbLine
 10
44.8229355607873
 20
187.9755849395633
 30
0.0
 11
78.8229355607873
 21
187.9755849395633
 31
0.0
  0
LINE
  5
FCF
330
D
100
AcDbEntity
 67
     1
  8
AM_VIS
100
AcDbLine
 10
44.8229355607873
 20
233.4755849395633
 30
0.0
 11
44.8229355607873
 21
197.4755849395633
 31
0.0
  0
LINE
  5
FD0
330
D
100
AcDbEntity
 67
     1
  8
AM_VIS
100
AcDbLine
 10
115.8229355607868
 20
189.9755849395615
 30
0.0
 11
78.8229355607873
 21
189.9755849395615
 31
0.0
  0
LINE
  5
FD1
330
D
100
AcDbEntity
 67
     1
  8
AM_VIS
100
AcDbLine
 10
115.8229355607868
 20
240.9755849394878
 30
0.0
 11
78.8229355607873
 21
240.9755849394878
 31
0.0
  0
LINE
  5
FD2
330
D
100
AcDbEntity
 67
     1
  8
AM_VIS
100
AcDbLine
 10
44.8229355607873
 20
232.9755849395633
 30
0.0
 11
42.3229355607873
 21
232.9755849395633
 31
0.0
  0
LINE
  5
FD3
330
D
100
AcDbEntity
 67
     1
  8
AM_VIS
100
AcDbLine
 10
44.8229355607873
 20
197.9755849395633
 30
0.0
 11
42.3229355607873
 21
197.9755849395633
 31
0.0
  0
LINE
  5
FD4
330
D
100
AcDbEntity
 67
     1
  8
AM_VIS
100
AcDbLine
 10
115.8229355607868
 20
187.9755849395633
 30
0.0
 11
115.8229355607868
 21
197.4755849395633
 31
0.0
  0
LINE
  5
FD5
330
D
100
AcDbEntity
 67
     1
  8
AM_VIS
100
AcDbLine
 10
115.8229355607868
 20
233.4755849395633
 30
0.0
 11
115.8229355607868
 21
242.9755849395633
 31
0.0
  0
LINE
  5
FD6
330
D
100
AcDbEntity
 67
     1
  8
AM_VIS
100
AcDbLine
 10
149.8229355607868
 20
197.4755849395633
 30
0.0
 11
149.8229355607868
 21
187.9755849395633
 31
0.0
  0
LINE
  5
FD7
330
D
100
AcDbEntity
 67
     1
  8
AM_VIS
100
AcDbLine
 10
149.8229355607868
 20
242.9755849395633
 30
0.0
 11
149.8229355607868
 21
233.4755849395633
 31
0.0
  0
LINE
  5
FD8
330
D
100
AcDbEntity
 67
     1
  8
AM_VIS
100
AcDbLine
 10
78.8229355607873
 20
242.9755849395633
 30
0.0
 11
78.8229355607873
 21
233.4755849395633
 31
0.0
  0
LINE
  5
FD9
330
D
100
AcDbEntity
 67
     1
  8
AM_VIS
100
AcDbLine
 10
78.8229355607873
 20
197.4755849395633
 30
0.0
 11
78.8229355607873
 21
187.9755849395633
 31
0.0
  0
LINE
  5
FDA
330
D
100
AcDbEntity
 67
     1
  8
AM_VIS
100
AcDbLine
 10
44.8229355607873
 20
233.4755849395633
 30
0.0
 11
44.8229355607873
 21
242.9755849395633
 31
0.0
  0
LINE
  5
FDB
330
D
100
AcDbEntity
 67
     1
  8
AM_VIS
100
AcDbLine
 10
44.8229355607873
 20
187.9755849395633
 30
0.0
 11
44.8229355607873
 21
197.4755849395633
 31
0.0
  0
LINE
  5
FDC
330
D
100
AcDbEntity
 67
     1
  8
AM_VIS
100
AcDbLine
 10
40.8229355607873
 20
199.4755849395633
 30
0.0
 11
40.8229355607873
 21
231.4755849395633
 31
0.0
  0
CIRCLE
  5
FDD
330
D
100
AcDbEntity
 67
     1
  8
AM_VIS
100
AcDbCircle
 10
135.3229355607873
 20
210.1755849395629
 30
0.0
 40
5.7
  0
CIRCLE
  5
FDE
330
D
100
AcDbEntity
 67
     1
  8
AM_VIS
100
AcDbCircle
 10
135.3229355607873
 20
210.1755849395629
 30
0.0
 40
6.499999999999992
  0
CIRCLE
  5
FDF
330
D
100
AcDbEntity
 67
     1
  8
AM_VIS
100
AcDbCircle
 10
59.3229355607873
 20
210.1755849395629
 30
0.0
 40
5.7
  0
CIRCLE
  5
FE0
330
D
100
AcDbEntity
 67
     1
  8
AM_VIS
100
AcDbCircle
 10
59.3229355607873
 20
210.1755849395629
 30
0.0
 40
6.499999999999998
  0
CIRCLE
  5
FE1
330
D
100
AcDbEntity
 67
     1
  8
AM_VIS
100
AcDbCircle
 10
125.4229355607872
 20
222.2755849395628
 30
0.0
 40
3.949999999999999
  0
CIRCLE
  5
FE2
330
D
100
AcDbEntity
 67
     1
  8
AM_VIS
100
AcDbCircle
 10
125.4229355607872
 20
222.2755849395628
 30
0.0
 40
3.5
  0
CIRCLE
  5
FE3
330
D
100
AcDbEntity
 67
     1
  8
AM_VIS
100
AcDbCircle
 10
69.22293556078694
 20
222.2755849395628
 30
0.0
 40
3.949999999999999
  0
CIRCLE
  5
FE4
330
D
100
AcDbEntity
 67
     1
  8
AM_VIS
100
AcDbCircle
 10
69.22293556078694
 20
222.2755849395628
 30
0.0
 40
3.5
  0
ARC
  5
FE5
330
D
100
AcDbEntity
 67
     1
  8
AM_VIS
100
AcDbCircle
 10
42.3229355607873
 20
231.4755849395631
 30
0.0
 40
1.5
100
AcDbArc
 50
90.0
 51
180.0
  0
ARC
  5
FE6
330
D
100
AcDbEntity
 67
     1
  8
AM_VIS
100
AcDbCircle
 10
42.3229355607873
 20
199.475584939563
 30
0.0
 40
1.5
100
AcDbArc
 50
180.0
 51
270.0
  0
LINE
  5
FE7
330
D
100
AcDbEntity
 67
     1
  8
CENTER
  6
CENTER
100
AcDbLine
 10
52.8229355607873
 20
210.1755849395631
 30
0.0
 11
65.8229355607873
 21
210.1755849395631
 31
0.0
  0
LINE
  5
FE8
330
D
100
AcDbEntity
 67
     1
  8
CENTER
  6
CENTER
100
AcDbLine
 10
59.3229355607873
 20
216.6755849395631
 30
0.0
 11
59.3229355607873
 21
203.6755849395629
 31
0.0
  0
LINE
  5
FE9
330
D
100
AcDbEntity
 67
     1
  8
CENTER
  6
CENTER
100
AcDbLine
 10
62.72293556078693
 20
222.275584939563
 30
0.0
 11
75.72293556078694
 21
222.275584939563
 31
0.0
  0
LINE
  5
FEA
330
D
100
AcDbEntity
 67
     1
  8
CENTER
  6
CENTER
100
AcDbLine
 10
69.22293556078694
 20
228.775584939563
 30
0.0
 11
69.22293556078694
 21
215.7755849395628
 31
0.0
  0
LINE
  5
FEB
330
D
100
AcDbEntity
 67
     1
  8
CENTER
  6
CENTER
100
AcDbLine
 10
127.4413195899437
 20
210.1755849395631
 30
0.0
 11
142.8823900094012
 21
210.1755849395631
 31
0.0
  0
LINE
  5
FEC
330
D
100
AcDbEntity
 67
     1
  8
CENTER
  6
CENTER
100
AcDbLine
 10
135.3229355607873
 20
217.7604773160949
 30
0.0
 11
135.3229355607873
 21
202.239465005088
 31
0.0
  0
LINE
  5
FED
330
D
100
AcDbEntity
 67
     1
  8
CENTER
  6
CENTER
100
AcDbLine
 10
118.9229355607872
 20
222.275584939563
 30
0.0
 11
131.9229355607872
 21
222.275584939563
 31
0.0
  0
LINE
  5
FEE
330
D
100
AcDbEntity
 67
     1
  8
CENTER
  6
CENTER
100
AcDbLine
 10
125.4229355607872
 20
228.775584939563
 30
0.0
 11
125.4229355607872
 21
215.7755849395628
 31
0.0
  0
ARC
  5
FEF
330
D
100
AcDbEntity
 67
     1
  8
AM_4
100
AcDbCircle
 10
135.3229355607873
 20
112.5454907407609
 30
0.0
 40
6.549999999999999
100
AcDbArc
 50
169.9999999999957
 51
100.0000000000051
  0
ARC
  5
FF0
330
D
100
AcDbEntity
 67
     1
  8
AM_4
100
AcDbCircle
 10
59.3229355607873
 20
112.5454907407609
 30
0.0
 40
6.549999999999999
100
AcDbArc
 50
169.9999999999957
 51
100.0000000000051
  0
LINE
  5
FF1
330
D
100
AcDbEntity
 67
     1
  8
AM_VIS
100
AcDbLine
 10
115.8229355607868
 20
90.34549074076132
 30
0.0
 11
149.8229355607868
 21
90.34549074076132
 31
0.0
  0
LINE
  5
FF2
330
D
100
AcDbEntity
 67
     1
  8
AM_VIS
100
AcDbLine
 10
149.8229355607868
 20
145.3454907407613
 30
0.0
 11
115.8229355607868
 21
145.3454907407613
 31
0.0
  0
LINE
  5
FF3
330
D
100
AcDbEntity
 67
     1
  8
AM_VIS
100
AcDbLine
 10
115.8229355607868
 20
135.8454907407613
 30
0.0
 11
115.8229355607868
 21
99.84549074076133
 31
0.0
  0
LINE
  5
FF4
330
D
100
AcDbEntity
 67
     1
  8
AM_VIS
100
AcDbLine
 10
149.8229355607868
 20
135.8454907407613
 30
0.0
 11
149.8229355607868
 21
99.84549074076133
 31
0.0
  0
LINE
  5
FF5
330
D
100
AcDbEntity
 67
     1
  8
AM_VIS
100
AcDbLine
 10
78.8229355607873
 20
145.3454907407613
 30
0.0
 11
44.8229355607873
 21
145.3454907407613
 31
0.0
  0
LINE
  5
FF6
330
D
100
AcDbEntity
 67
     1
  8
AM_VIS
100
AcDbLine
 10
78.8229355607873
 20
99.84549074076133
 30
0.0
 11
78.8229355607873
 21
135.8454907407613
 31
0.0
  0
LINE
  5
FF7
330
D
100
AcDbEntity
 67
     1
  8
AM_VIS
100
AcDbLine
 10
44.8229355607873
 20
90.34549074076132
 30
0.0
 11
78.8229355607873
 21
90.34549074076132
 31
0.0
  0
LINE
  5
FF8
330
D
100
AcDbEntity
 67
     1
  8
AM_VIS
100
AcDbLine
 10
44.8229355607873
 20
135.8454907407613
 30
0.0
 11
44.8229355607873
 21
99.84549074076133
 31
0.0
  0
LINE
  5
FF9
330
D
100
AcDbEntity
 67
     1
  8
AM_VIS
100
AcDbLine
 10
115.8229355607868
 20
92.3454907407595
 30
0.0
 11
78.8229355607873
 21
92.3454907407595
 31
0.0
  0
LINE
  5
FFA
330
D
100
AcDbEntity
 67
     1
  8
AM_VIS
100
AcDbLine
 10
115.8229355607868
 20
143.3454907406858
 30
0.0
 11
78.8229355607873
 21
143.3454907406858
 31
0.0
  0
LINE
  5
FFB
330
D
100
AcDbEntity
 67
     1
  8
AM_VIS
100
AcDbLine
 10
44.8229355607873
 20
135.3454907407613
 30
0.0
 11
42.3229355607873
 21
135.3454907407613
 31
0.0
  0
LINE
  5
FFC
330
D
100
AcDbEntity
 67
     1
  8
AM_VIS
100
AcDbLine
 10
44.8229355607873
 20
100.3454907407613
 30
0.0
 11
42.3229355607873
 21
100.3454907407613
 31
0.0
  0
LINE
  5
FFD
330
D
100
AcDbEntity
 67
     1
  8
AM_VIS
100
AcDbLine
 10
115.8229355607868
 20
90.34549074076132
 30
0.0
 11
115.8229355607868
 21
99.84549074076133
 31
0.0
  0
LINE
  5
FFE
330
D
100
AcDbEntity
 67
     1
  8
AM_VIS
100
AcDbLine
 10
115.8229355607868
 20
135.8454907407613
 30
0.0
 11
115.8229355607868
 21
145.3454907407613
 31
0.0
  0
LINE
  5
FFF
330
D
100
AcDbEntity
 67
     1
  8
AM_VIS
100
AcDbLine
 10
149.8229355607868
 20
99.84549074076133
 30
0.0
 11
149.8229355607868
 21
90.34549074076132
 31
0.0
  0
LINE
  5
1000
330
D
100
AcDbEntity
 67
     1
  8
AM_VIS
100
AcDbLine
 10
149.8229355607868
 20
145.3454907407613
 30
0.0
 11
149.8229355607868
 21
135.8454907407613
 31
0.0
  0
LINE
  5
1001
330
D
100
AcDbEntity
 67
     1
  8
AM_VIS
100
AcDbLine
 10
78.8229355607873
 20
145.3454907407613
 30
0.0
 11
78.8229355607873
 21
135.8454907407613
 31
0.0
  0
LINE
  5
1002
330
D
100
AcDbEntity
 67
     1
  8
AM_VIS
100
AcDbLine
 10
78.8229355607873
 20
99.84549074076133
 30
0.0
 11
78.8229355607873
 21
90.34549074076132
 31
0.0
  0
LINE
  5
1003
330
D
100
AcDbEntity
 67
     1
  8
AM_VIS
100
AcDbLine
 10
44.8229355607873
 20
135.8454907407613
 30
0.0
 11
44.8229355607873
 21
145.3454907407613
 31
0.0
  0
LINE
  5
1004
330
D
100
AcDbEntity
 67
     1
  8
AM_VIS
100
AcDbLine
 10
44.8229355607873
 20
90.34549074076132
 30
0.0
 11
44.8229355607873
 21
99.84549074076133
 31
0.0
  0
LINE
  5
1005
330
D
100
AcDbEntity
 67
     1
  8
AM_VIS
100
AcDbLine
 10
40.8229355607873
 20
101.8454907407613
 30
0.0
 11
40.8229355607873
 21
133.8454907407613
 31
0.0
  0
CIRCLE
  5
1006
330
D
100
AcDbEntity
 67
     1
  8
AM_VIS
100
AcDbCircle
 10
135.3229355607873
 20
112.5454907407609
 30
0.0
 40
5.7
  0
CIRCLE
  5
1007
330
D
100
AcDbEntity
 67
     1
  8
AM_VIS
100
AcDbCircle
 10
135.3229355607873
 20
112.5454907407609
 30
0.0
 40
6.499999999999992
  0
CIRCLE
  5
1008
330
D
100
AcDbEntity
 67
     1
  8
AM_VIS
100
AcDbCircle
 10
59.3229355607873
 20
112.5454907407609
 30
0.0
 40
5.7
  0
CIRCLE
  5
1009
330
D
100
AcDbEntity
 67
     1
  8
AM_VIS
100
AcDbCircle
 10
59.3229355607873
 20
112.5454907407609
 30
0.0
 40
6.499999999999998
  0
CIRCLE
  5
100A
330
D
100
AcDbEntity
 67
     1
  8
AM_VIS
100
AcDbCircle
 10
125.4229355607872
 20
124.6454907407608
 30
0.0
 40
3.949999999999999
  0
CIRCLE
  5
100B
330
D
100
AcDbEntity
 67
     1
  8
AM_VIS
100
AcDbCircle
 10
125.4229355607872
 20
124.6454907407608
 30
0.0
 40
3.5
  0
CIRCLE
  5
100C
330
D
100
AcDbEntity
 67
     1
  8
AM_VIS
100
AcDbCircle
 10
69.22293556078694
 20
124.6454907407608
 30
0.0
 40
3.949999999999999
  0
CIRCLE
  5
100D
330
D
100
AcDbEntity
 67
     1
  8
AM_VIS
100
AcDbCircle
 10
69.22293556078694
 20
124.6454907407608
 30
0.0
 40
3.5
  0
ARC
  5
100E
330
D
100
AcDbEntity
 67
     1
  8
AM_VIS
100
AcDbCircle
 10
42.3229355607873
 20
133.8454907407611
 30
0.0
 40
1.5
100
AcDbArc
 50
90.0
 51
180.0
  0
ARC
  5
100F
330
D
100
AcDbEntity
 67
     1
  8
AM_VIS
100
AcDbCircle
 10
42.3229355607873
 20
101.8454907407611
 30
0.0
 40
1.5
100
AcDbArc
 50
180.0
 51
270.0
  0
LINE
  5
1010
330
D
100
AcDbEntity
 67
     1
  8
CENTER
  6
CENTER
100
AcDbLine
 10
52.06824394804084
 20
112.5454907407611
 30
0.0
 11
66.64186923094963
 21
112.5454907407611
 31
0.0
  0
LINE
  5
1011
330
D
100
AcDbEntity
 67
     1
  8
CENTER
  6
CENTER
100
AcDbLine
 10
59.3229355607873
 20
120.0454907407609
 30
0.0
 11
59.3229355607873
 21
104.8965919106683
 31
0.0
  0
LINE
  5
1012
330
D
100
AcDbEntity
 67
     1
  8
CENTER
  6
CENTER
100
AcDbLine
 10
62.72293556078693
 20
124.645490740761
 30
0.0
 11
75.72293556078694
 21
124.645490740761
 31
0.0
  0
LINE
  5
1013
330
D
100
AcDbEntity
 67
     1
  8
CENTER
  6
CENTER
100
AcDbLine
 10
69.22293556078694
 20
131.145490740761
 30
0.0
 11
69.22293556078694
 21
118.1454907407608
 31
0.0
  0
LINE
  5
1014
330
D
100
AcDbEntity
 67
     1
  8
CENTER
  6
CENTER
100
AcDbLine
 10
127.4413195899437
 20
112.5454907407611
 30
0.0
 11
142.8823900094012
 21
112.5454907407611
 31
0.0
  0
LINE
  5
1015
330
D
100
AcDbEntity
 67
     1
  8
CENTER
  6
CENTER
100
AcDbLine
 10
135.3229355607873
 20
120.1303831172929
 30
0.0
 11
135.3229355607873
 21
104.609370806286
 31
0.0
  0
LINE
  5
1016
330
D
100
AcDbEntity
 67
     1
  8
CENTER
  6
CENTER
100
AcDbLine
 10
118.9229355607872
 20
124.645490740761
 30
0.0
 11
131.9229355607872
 21
124.645490740761
 31
0.0
  0
LINE
  5
1017
330
D
100
AcDbEntity
 67
     1
  8
CENTER
  6
CENTER
100
AcDbLine
 10
125.4229355607872
 20
131.145490740761
 30
0.0
 11
125.4229355607872
 21
118.1454907407608
 31
0.0
  0
LINE
  5
1018
330
D
100
AcDbEntity
 67
     1
  8
SL
  6
ACISOTGB
100
AcDbLine
 10
103.9325336567717
 20
184.8383949406338
 30
0.0
 11
103.9325336567717
 21
251.8700922248338
 31
0.0
  0
DIMENSION
  5
1019
330
D
100
AcDbEntity
 67
     1
  8
AM_5
100
AcDbDimension
  2
*D16
 10
44.8229355607873
 20
150.0415933083989
 30
0.0
 11
52.0729355607873
 21
152.7915933083989
 31
0.0
 70
    32
 71
     5
 42
14.5
  3
AM_ISO$0
100
AcDbAlignedDimension
 13
59.3229355607873
 23
120.0454907407609
 33
0.0
 14
44.8229355607873
 24
145.3454907407613
 34
0.0
100
AcDbRotatedDimension
1001
ACAD
1000
DSTYLE
1002
{
1070
    40
1040
1.0
1070
   144
1040
1.0
1070
   272
1070
     8
1002
}
  0
DIMENSION
  5
102F
330
D
100
AcDbEntity
 67
     1
  8
AM_5
100
AcDbDimension
  2
*D17
 10
78.8229355607873
 20
160.0415933083988
 30
0.0
 11
61.8229355607873
 21
162.7915933083988
 31
0.0
 70
    32
 71
     5
 42
34.0
  3
AM_ISO$0
100
AcDbAlignedDimension
 13
44.8229355607873
 23
145.3454907407613
 33
0.0
 14
78.8229355607873
 24
145.3454907407613
 34
0.0
100
AcDbRotatedDimension
1001
ACAD
1000
DSTYLE
1002
{
1070
    40
1040
1.0
1070
   144
1040
1.0
1070
   272
1070
     8
1002
}
  0
DIMENSION
  5
1045
330
D
100
AcDbEntity
 67
     1
  8
AM_5
100
AcDbDimension
  2
*D18
 10
149.8229355607868
 20
150.0415933083987
 30
0.0
 11
142.572935560787
 21
152.7915933083987
 31
0.0
 70
    32
 71
     5
 42
14.49999999999954
  3
AM_ISO$0
100
AcDbAlignedDimension
 13
135.3229355607873
 23
120.1303831172929
 33
0.0
 14
149.8229355607868
 24
145.3454907407613
 34
0.0
100
AcDbRotatedDimension
1001
ACAD
1000
DSTYLE
1002
{
1070
    40
1040
1.0
1070
   144
1040
1.0
1070
   272
1070
     8
1002
}
  0
DIMENSION
  5
105B
330
D
100
AcDbEntity
 67
     1
  8
AM_5
100
AcDbDimension
  2
*D19
 10
149.8229355607868
 20
160.0415933083987
 30
0.0
 11
132.8229355607868
 21
162.7915933083988
 31
0.0
 70
    32
 71
     5
 42
34.00000000000002
  3
AM_ISO$0
100
AcDbAlignedDimension
 13
115.8229355607868
 23
145.3454907407613
 33
0.0
 14
149.8229355607868
 24
147.0990974892636
 34
0.0
100
AcDbRotatedDimension
1001
ACAD
1000
DSTYLE
1002
{
1070
    40
1040
1.0
1070
   144
1040
1.0
1070
   272
1070
     8
1002
}
  0
DIMENSION
  5
109F
330
D
100
AcDbEntity
 67
     1
  8
AM_5
100
AcDbDimension
  2
*D20
 10
34.89293919493732
 20
117.8454907407613
 30
0.0
 11
34.8929391949373
 21
115.1954907407612
 31
0.0
 70
   160
 71
     5
 42
5.300000000000167
  3
AM_ISO$0
100
AcDbAlignedDimension
 13
52.06824394804084
 23
112.5454907407611
 33
0.0
 14
38.58345270730388
 24
117.8454907407613
 34
0.0
 50
90.0
100
AcDbRotatedDimension
1001
ACAD
1000
DSTYLE
1002
{
1070
    40
1040
1.0
1002
}
  0
LINE
  5
1334
330
D
100
AcDbEntity
 67
     1
  8
AM_VIS
100
AcDbLine
 10
343.7442679985586
 20
128.8151458553643
 30
0.0
 11
353.2442679985586
 21
123.3303182980626
 31
0.0
  0
LINE
  5
1335
330
D
100
AcDbEntity
 67
     1
  8
AM_VIS
100
AcDbLine
 10
334.2442679985586
 20
123.3303182980626
 30
0.0
 11
343.7442679985586
 21
128.8151458553643
 31
0.0
  0
LINE
  5
1336
330
D
100
AcDbEntity
 67
     1
  8
AM_VIS
100
AcDbLine
 10
334.2442679985586
 20
112.36066318346
 30
0.0
 11
334.2442679985586
 21
123.3303182980626
 31
0.0
  0
LINE
  5
1337
330
D
100
AcDbEntity
 67
     1
  8
AM_VIS
100
AcDbLine
 10
343.7442679985587
 20
106.8758356261582
 30
0.0
 11
334.2442679985586
 21
112.36066318346
 31
0.0
  0
LINE
  5
1338
330
D
100
AcDbEntity
 67
     1
  8
AM_VIS
100
AcDbLine
 10
353.2442679985586
 20
112.3606631834598
 30
0.0
 11
343.7442679985587
 21
106.8758356261585
 31
0.0
  0
LINE
  5
1339
330
D
100
AcDbEntity
 67
     1
  8
AM_VIS
100
AcDbLine
 10
353.2442679985586
 20
123.3303182980628
 30
0.0
 11
353.2442679985586
 21
112.3606631834598
 31
0.0
  0
ARC
  5
133A
330
D
100
AcDbEntity
 67
     1
  8
AM_VIS
100
AcDbCircle
 10
343.7442679985586
 20
117.8454907407613
 30
0.0
 40
17.5
100
AcDbArc
 50
90.0
 51
180.0
  0
ARC
  5
133B
330
D
100
AcDbEntity
 67
     1
  8
AM_VIS
100
AcDbCircle
 10
343.7442679985586
 20
117.8454907407613
 30
0.0
 40
17.5
100
AcDbArc
 50
0.0
 51
90.0
  0
ARC
  5
133C
330
D
100
AcDbEntity
 67
     1
  8
AM_VIS
100
AcDbCircle
 10
343.7442679985586
 20
117.8454907407613
 30
0.0
 40
17.5
100
AcDbArc
 50
180.0
 51
270.0
  0
ARC
  5
133D
330
D
100
AcDbEntity
 67
     1
  8
AM_VIS
100
AcDbCircle
 10
343.7442679985586
 20
117.8454907407613
 30
0.0
 40
17.5
100
AcDbArc
 50
270.0
 51
0.0
  0
CIRCLE
  5
133E
330
D
100
AcDbEntity
 67
     1
  8
AM_VIS
100
AcDbCircle
 10
343.7442679985586
 20
117.8454907407613
 30
0.0
 40
6.0
  0
CIRCLE
  5
133F
330
D
100
AcDbEntity
 67
     1
  8
AM_VIS
100
AcDbCircle
 10
343.7442679985586
 20
117.8454907407613
 30
0.0
 40
4.5
  0
LINE
  5
1340
330
D
100
AcDbEntity
 67
     1
  8
AM_VIS
100
AcDbLine
 10
316.7442679985586
 20
142.4066389223916
 30
0.0
 11
316.7442679985586
 21
93.28434255913107
 31
0.0
  0
ARC
  5
1341
330
D
100
AcDbEntity
 67
     1
  8
AM_VIS
100
AcDbCircle
 10
343.7442679985586
 20
117.8454907407613
 30
0.0
 40
36.50000000000002
100
AcDbArc
 50
136.5543824007937
 51
137.7080825370911
  0
ARC
  5
1342
330
D
100
AcDbEntity
 67
     1
  8
AM_VIS
100
AcDbCircle
 10
343.7442679985586
 20
117.8454907407613
 30
0.0
 40
36.50000000000003
100
AcDbArc
 50
312.2919174629124
 51
313.4456175992022
  0
LINE
  5
1343
330
D
100
AcDbEntity
 67
     1
  8
AM_VIS
100
AcDbLine
 10
319.1831198169284
 20
90.8454907407613
 30
0.0
 11
368.3054161801889
 21
90.8454907407613
 31
0.0
  0
ARC
  5
1344
330
D
100
AcDbEntity
 67
     1
  8
AM_VIS
100
AcDbCircle
 10
343.7442679985586
 20
117.8454907407613
 30
0.0
 40
36.50000000000002
100
AcDbArc
 50
132.2919174629123
 51
133.4456175992022
  0
LINE
  5
1345
330
D
100
AcDbEntity
 67
     1
  8
AM_VIS
100
AcDbLine
 10
368.3054161801889
 20
144.8454907407613
 30
0.0
 11
319.1831198169283
 21
144.8454907407613
 31
0.0
  0
LINE
  5
1346
330
D
100
AcDbEntity
 67
     1
  8
AM_VIS
100
AcDbLine
 10
368.8440687945808
 20
91.34549074076131
 30
0.0
 11
318.6444672025364
 21
91.34549074076131
 31
0.0
  0
LINE
  5
1347
330
D
100
AcDbEntity
 67
     1
  8
AM_VIS
100
AcDbLine
 10
317.2442679985586
 20
92.74568994473908
 30
0.0
 11
317.2442679985586
 21
142.9452915367836
 31
0.0
  0
LINE
  5
1348
330
D
100
AcDbEntity
 67
     1
  8
AM_VIS
100
AcDbLine
 10
318.6444672025364
 20
144.3454907407613
 30
0.0
 11
368.844068794581
 21
144.3454907407613
 31
0.0
  0
LINE
  5
1349
330
D
100
AcDbEntity
 67
     1
  8
AM_VIS
100
AcDbLine
 10
370.2442679985586
 20
142.9452915367836
 30
0.0
 11
370.2442679985586
 21
92.74568994473908
 31
0.0
  0
LINE
  5
134A
330
D
100
AcDbEntity
 67
     1
  8
AM_VIS
100
AcDbLine
 10
370.7442679985586
 20
93.28434255913107
 30
0.0
 11
370.7442679985586
 21
142.4066389223916
 31
0.0
  0
ARC
  5
134B
330
D
100
AcDbEntity
 67
     1
  8
AM_VIS
100
AcDbCircle
 10
343.7442679985586
 20
117.8454907407613
 30
0.0
 40
36.50000000000002
100
AcDbArc
 50
316.5543824007937
 51
317.7080825370911
  0
ARC
  5
134C
330
D
100
AcDbEntity
 67
     1
  8
AM_VIS
100
AcDbCircle
 10
343.7442679985586
 20
117.8454907407613
 30
0.0
 40
36.50000000000002
100
AcDbArc
 50
222.2919174629089
 51
223.4456175992062
  0
ARC
  5
134D
330
D
100
AcDbEntity
 67
     1
  8
AM_VIS
100
AcDbCircle
 10
343.7442679985586
 20
117.8454907407613
 30
0.0
 40
36.50000000000003
100
AcDbArc
 50
226.5543824007978
 51
227.7080825370876
  0
ARC
  5
134E
330
D
100
AcDbEntity
 67
     1
  8
AM_VIS
100
AcDbCircle
 10
343.7442679985586
 20
117.8454907407613
 30
0.0
 40
36.50000000000002
100
AcDbArc
 50
42.2919174629089
 51
43.44561759920625
  0
ARC
  5
134F
330
D
100
AcDbEntity
 67
     1
  8
AM_VIS
100
AcDbCircle
 10
343.7442679985586
 20
117.8454907407613
 30
0.0
 40
36.50000000000002
100
AcDbArc
 50
46.55438240078914
 51
47.70808253708764
  0
ARC
  5
1350
330
D
100
AcDbEntity
 67
     1
  8
1
 48
3.0
100
AcDbCircle
 10
362.7442679985586
 20
136.8454907407613
 30
0.0
 40
3.058734122500002
100
AcDbArc
 50
270.0
 51
220.1414327047291
  0
ARC
  5
1351
330
D
100
AcDbEntity
 67
     1
  8
AM_VIS
100
AcDbCircle
 10
343.7442679985586
 20
117.8454907407613
 30
0.0
 40
36.5
100
AcDbArc
 50
313.4456175992022
 51
316.5543824007937
  0
ARC
  5
1352
330
D
100
AcDbEntity
 67
     1
  8
AM_VIS
100
AcDbCircle
 10
343.7442679985586
 20
117.8454907407613
 30
0.0
 40
36.5
100
AcDbArc
 50
133.4456175992022
 51
136.5543824007937
  0
ARC
  5
1353
330
D
100
AcDbEntity
 67
     1
  8
AM_VIS
100
AcDbCircle
 10
343.7442679985586
 20
117.8454907407613
 30
0.0
 40
36.5
100
AcDbArc
 50
223.4456175992062
 51
226.5543824007978
  0
ARC
  5
1354
330
D
100
AcDbEntity
 67
     1
  8
AM_VIS
100
AcDbCircle
 10
343.7442679985586
 20
117.8454907407613
 30
0.0
 40
36.5
100
AcDbArc
 50
43.44561759920625
 51
46.55438240079778
  0
LINE
  5
1355
330
D
100
AcDbEntity
 67
     1
  8
AM_7
  6
AM_ISO08W050x2
100
AcDbLine
 10
357.9249190713498
 20
136.8454907407613
 30
0.0
 11
367.2511761156351
 21
136.8454907407613
 31
0.0
1001
GENIUS_GENODEF_13
1002
{
1000
HIER
1070
     0
1002
}
1002
{
1000
MANEDIT
1070
     0
1002
}
1002
{
1000
NOSEL
1070
     0
1002
}
1002
{
1000
BEHIND
1070
     0
1002
}
1002
{
1000
OTHER
1070
     0
1002
}
1002
{
1000
REACTOR
1002
}
1001
GENIUS_GENOBJ-N-CEN_13
1002
{
1000
OWNER
1000
GEN
1002
}
1001
GENIUS_GENCEN_19
1002
{
1040
2.0
1002
}
  0
LINE
  5
1356
330
D
100
AcDbEntity
 67
     1
  8
AM_7
  6
AM_ISO08W050x2
100
AcDbLine
 10
362.7442679985586
 20
141.5898019434962
 30
0.0
 11
362.7442679985586
 21
131.6245480181527
 31
0.0
1001
GENIUS_GENODEF_13
1002
{
1000
HIER
1070
     0
1002
}
1002
{
1000
MANEDIT
1070
     0
1002
}
1002
{
1000
NOSEL
1070
     0
1002
}
1002
{
1000
BEHIND
1070
     0
1002
}
1002
{
1000
OTHER
1070
     0
1002
}
1002
{
1000
REACTOR
1002
}
1001
GENIUS_GENOBJ-N-CEN_13
1002
{
1000
OWNER
1000
GEN
1002
}
1001
GENIUS_GENCEN_19
1002
{
1040
2.0
1002
}
  0
CIRCLE
  5
1357
330
D
100
AcDbEntity
 67
     1
  8
0
100
AcDbCircle
 10
362.7442679985586
 20
136.8454907407613
 30
0.0
 40
2.459999999999999
  0
ARC
  5
1358
330
D
100
AcDbEntity
 67
     1
  8
1
 48
3.0
100
AcDbCircle
 10
324.7442679985586
 20
136.8454907407613
 30
0.0
 40
3.058734122500002
100
AcDbArc
 50
270.0
 51
220.1414327047291
  0
LINE
  5
1359
330
D
100
AcDbEntity
 67
     1
  8
AM_7
  6
AM_ISO08W050x2
100
AcDbLine
 10
319.9249190713498
 20
136.8454907407613
 30
0.0
 11
329.251176115635
 21
136.8454907407613
 31
0.0
1001
GENIUS_GENODEF_13
1002
{
1000
HIER
1070
     0
1002
}
1002
{
1000
MANEDIT
1070
     0
1002
}
1002
{
1000
NOSEL
1070
     0
1002
}
1002
{
1000
BEHIND
1070
     0
1002
}
1002
{
1000
OTHER
1070
     0
1002
}
1002
{
1000
REACTOR
1002
}
1001
GENIUS_GENOBJ-N-CEN_13
1002
{
1000
OWNER
1000
GEN
1002
}
1001
GENIUS_GENCEN_19
1002
{
1040
2.0
1002
}
  0
LINE
  5
135A
330
D
100
AcDbEntity
 67
     1
  8
AM_7
  6
AM_ISO08W050x2
100
AcDbLine
 10
324.7442679985586
 20
141.5898019434962
 30
0.0
 11
324.7442679985586
 21
131.6245480181527
 31
0.0
1001
GENIUS_GENODEF_13
1002
{
1000
HIER
1070
     0
1002
}
1002
{
1000
MANEDIT
1070
     0
1002
}
1002
{
1000
NOSEL
1070
     0
1002
}
1002
{
1000
BEHIND
1070
     0
1002
}
1002
{
1000
OTHER
1070
     0
1002
}
1002
{
1000
REACTOR
1002
}
1001
GENIUS_GENOBJ-N-CEN_13
1002
{
1000
OWNER
1000
GEN
1002
}
1001
GENIUS_GENCEN_19
1002
{
1040
2.0
1002
}
  0
CIRCLE
  5
135B
330
D
100
AcDbEntity
 67
     1
  8
0
100
AcDbCircle
 10
324.7442679985586
 20
136.8454907407613
 30
0.0
 40
2.459999999999999
  0
ARC
  5
135C
330
D
100
AcDbEntity
 67
     1
  8
1
 48
3.0
100
AcDbCircle
 10
324.7442679985586
 20
98.84549074076131
 30
0.0
 40
3.058734122500002
100
AcDbArc
 50
270.0
 51
220.1414327047291
  0
LINE
  5
135D
330
D
100
AcDbEntity
 67
     1
  8
AM_7
  6
AM_ISO08W050x2
100
AcDbLine
 10
319.9249190713498
 20
98.84549074076131
 30
0.0
 11
329.251176115635
 21
98.84549074076131
 31
0.0
1001
GENIUS_GENODEF_13
1002
{
1000
HIER
1070
     0
1002
}
1002
{
1000
MANEDIT
1070
     0
1002
}
1002
{
1000
NOSEL
1070
     0
1002
}
1002
{
1000
BEHIND
1070
     0
1002
}
1002
{
1000
OTHER
1070
     0
1002
}
1002
{
1000
REACTOR
1002
}
1001
GENIUS_GENOBJ-N-CEN_13
1002
{
1000
OWNER
1000
GEN
1002
}
1001
GENIUS_GENCEN_19
1002
{
1040
2.0
1002
}
  0
LINE
  5
135E
330
D
100
AcDbEntity
 67
     1
  8
AM_7
  6
AM_ISO08W050x2
100
AcDbLine
 10
324.7442679985586
 20
103.5898019434962
 30
0.0
 11
324.7442679985586
 21
93.62454801815273
 31
0.0
1001
GENIUS_GENODEF_13
1002
{
1000
HIER
1070
     0
1002
}
1002
{
1000
MANEDIT
1070
     0
1002
}
1002
{
1000
NOSEL
1070
     0
1002
}
1002
{
1000
BEHIND
1070
     0
1002
}
1002
{
1000
OTHER
1070
     0
1002
}
1002
{
1000
REACTOR
1002
}
1001
GENIUS_GENOBJ-N-CEN_13
1002
{
1000
OWNER
1000
GEN
1002
}
1001
GENIUS_GENCEN_19
1002
{
1040
2.0
1002
}
  0
CIRCLE
  5
135F
330
D
100
AcDbEntity
 67
     1
  8
0
100
AcDbCircle
 10
324.7442679985586
 20
98.84549074076131
 30
0.0
 40
2.459999999999999
  0
ARC
  5
1360
330
D
100
AcDbEntity
 67
     1
  8
1
 48
3.0
100
AcDbCircle
 10
362.7442679985586
 20
98.84549074076131
 30
0.0
 40
3.058734122500002
100
AcDbArc
 50
270.0
 51
220.1414327047291
  0
LINE
  5
1361
330
D
100
AcDbEntity
 67
     1
  8
AM_7
  6
AM_ISO08W050x2
100
AcDbLine
 10
357.9249190713498
 20
98.84549074076131
 30
0.0
 11
367.2511761156351
 21
98.84549074076131
 31
0.0
1001
GENIUS_GENODEF_13
1002
{
1000
HIER
1070
     0
1002
}
1002
{
1000
MANEDIT
1070
     0
1002
}
1002
{
1000
NOSEL
1070
     0
1002
}
1002
{
1000
BEHIND
1070
     0
1002
}
1002
{
1000
OTHER
1070
     0
1002
}
1002
{
1000
REACTOR
1002
}
1001
GENIUS_GENOBJ-N-CEN_13
1002
{
1000
OWNER
1000
GEN
1002
}
1001
GENIUS_GENCEN_19
1002
{
1040
2.0
1002
}
  0
LINE
  5
1362
330
D
100
AcDbEntity
 67
     1
  8
AM_7
  6
AM_ISO08W050x2
100
AcDbLine
 10
362.7442679985586
 20
103.5898019434962
 30
0.0
 11
362.7442679985586
 21
93.62454801815273
 31
0.0
1001
GENIUS_GENODEF_13
1002
{
1000
HIER
1070
     0
1002
}
1002
{
1000
MANEDIT
1070
     0
1002
}
1002
{
1000
NOSEL
1070
     0
1002
}
1002
{
1000
BEHIND
1070
     0
1002
}
1002
{
1000
OTHER
1070
     0
1002
}
1002
{
1000
REACTOR
1002
}
1001
GENIUS_GENOBJ-N-CEN_13
1002
{
1000
OWNER
1000
GEN
1002
}
1001
GENIUS_GENCEN_19
1002
{
1040
2.0
1002
}
  0
CIRCLE
  5
1363
330
D
100
AcDbEntity
 67
     1
  8
0
100
AcDbCircle
 10
362.7442679985586
 20
98.84549074076131
 30
0.0
 40
2.459999999999999
  0
LINE
  5
1364
330
D
100
AcDbEntity
 67
     1
  8
AM_7
  6
AM_ISO08W050x2
100
AcDbLine
 10
324.6591128663504
 20
117.8454907407613
 30
0.0
 11
363.3018570634097
 21
117.8454907407613
 31
0.0
1001
GENIUS_GENODEF_13
1002
{
1000
HIER
1070
     0
1002
}
1002
{
1000
MANEDIT
1070
     0
1002
}
1002
{
1000
NOSEL
1070
     0
1002
}
1002
{
1000
BEHIND
1070
     0
1002
}
1002
{
1000
OTHER
1070
     0
1002
}
1002
{
1000
REACTOR
1002
}
1001
GENIUS_GENOBJ-N-CEN_13
1002
{
1000
OWNER
1000
GEN
1002
}
1001
GENIUS_GENCEN_19
1002
{
1040
2.0
1002
}
  0
LINE
  5
1365
330
D
100
AcDbEntity
 67
     1
  8
AM_7
  6
AM_ISO08W050x2
100
AcDbLine
 10
343.7442679985586
 20
137.6656797843562
 30
0.0
 11
343.7442679985586
 21
97.9619284171742
 31
0.0
1001
GENIUS_GENODEF_13
1002
{
1000
HIER
1070
     0
1002
}
1002
{
1000
MANEDIT
1070
     0
1002
}
1002
{
1000
NOSEL
1070
     0
1002
}
1002
{
1000
BEHIND
1070
     0
1002
}
1002
{
1000
OTHER
1070
     0
1002
}
1002
{
1000
REACTOR
1002
}
1001
GENIUS_GENOBJ-N-CEN_13
1002
{
1000
OWNER
1000
GEN
1002
}
1001
GENIUS_GENCEN_19
1002
{
1040
2.0
1002
}
  0
MTEXT
  5
1366
330
D
100
AcDbEntity
 67
     1
  8
AM_5
100
AcDbMText
 10
334.1532013257586
 20
155.4318684233772
 30
0.0
 40
3.5
 41
0.0
 71
     7
 72
     1
  1
4-M6*12L
 73
     1
 44
1.0
1001
ACAD
1000
MTEXTBEGIN
1070
    73
1070
     1
1070
    44
1040
1.0
1070
    74
1070
     0
1000
MTEXTEND
  0
LEADER
  5
1367
330
D
100
AcDbEntity
 67
     1
  8
AM_5
100
AcDbLeader
  3
AM_ISO$7
 76
     3
 10
325.6711274893823
 20
139.7604154252799
 30
0.0
 10
331.1264007436788
 20
153.1589091887858
 30
0.0
 10
354.0749167107447
 20
153.1589091887858
 30
0.0
1001
ACAD
1000
DSTYLE
1002
{
1070
    40
1040
1.5
1070
   140
1040
3.0
1070
   147
1040
1.0
1002
}
  0
DIMENSION
  5
1368
330
D
100
AcDbEntity
 67
     1
  8
AM_5
100
AcDbDimension
  2
*D24
 10
316.7442679985579
 20
69.26421849447362
 30
0.0
 11
343.6140890614837
 21
69.26421849447362
 31
0.0
 70
   160
  1
{\Famgdt;o}<>
 71
     5
 42
54.00000000000108
  3
AM_ISO$0
100
AcDbAlignedDimension
 13
370.744267998559
 23
93.28434255913144
 33
0.0
 14
316.7442679985579
 24
93.28434255913174
 34
0.0
100
AcDbRotatedDimension
1001
ACAD
1000
DSTYLE
1002
{
1070
    40
1040
1.0
1070
   174
1070
     1
1002
}
  0
DIMENSION
  5
1369
330
D
100
AcDbEntity
 67
     1
  8
AM_5
100
AcDbDimension
  2
*D25
 10
324.7442679985586
 20
80.41772777236493
 30
0.0
 11
343.7442679985586
 21
80.41772777236493
 31
0.0
 70
   160
  1
{\Famgdt;o}<>
 71
     5
 42
38.0
  3
AM_ISO$0
100
AcDbAlignedDimension
 13
362.7442679985586
 23
93.62454801815273
 33
0.0
 14
324.7442679985586
 24
93.62454801815273
 34
0.0
100
AcDbRotatedDimension
1001
ACAD
1000
DSTYLE
1002
{
1070
    40
1040
1.0
1070
   174
1070
     1
1002
}
  0
DIMENSION
  5
1453
330
D
100
AcDbEntity
 67
     1
  8
AM_5
100
AcDbDimension
  2
*D26
 10
177.3711556859352
 20
109.1773832205958
 30
0.0
 11
164.9368491743724
 21
79.42192594299338
 31
0.0
 70
   163
  1
G1/8
 71
     5
 42
13.69999999999996
  3
AM_ISO$3
100
AcDbDiametricDimension
 15
174.1729355607868
 25
95.85591978630693
 35
0.0
 40
0.0
  0
LINE
  5
15F7
330
D
100
AcDbEntity
 67
     1
  8
0
100
AcDbLine
 10
239.8229355607869
 20
107.9041049557577
 30
0.0
 11
229.8229355607869
 21
107.9041049557577
 31
0.0
  0
LINE
  5
15F8
330
D
100
AcDbEntity
 67
     1
  8
0
100
AcDbLine
 10
239.8229355607869
 20
127.7868765257649
 30
0.0
 11
229.8229355607869
 21
127.7868765257649
 31
0.0
  0
LINE
  5
1664
330
D
100
AcDbEntity
 67
     1
  8
0
100
AcDbLine
 10
239.8229355607869
 20
205.5341991545596
 30
0.0
 11
229.8229355607869
 21
205.5341991545596
 31
0.0
  0
LINE
  5
1665
330
D
100
AcDbEntity
 67
     1
  8
0
100
AcDbLine
 10
239.8229355607869
 20
225.4169707245668
 30
0.0
 11
229.8229355607869
 21
225.4169707245668
 31
0.0
  0
ENDSEC
  0
SECTION
  2
OBJECTS
  0
DICTIONARY
  5
8
330
0
100
AcDbDictionary
281
     1
  3
ACAD_COLOR
350
31
  3
ACAD_GROUP
350
2D
  3
ACAD_LAYOUT
350
C
  3
ACAD_MATERIAL
350
30
  3
ACAD_MLINESTYLE
350
2E
  3
ACAD_PLOTSETTINGS
350
2F
  3
ACAD_PLOTSTYLENAME
350
7
  3
ACAD_TABLESTYLE
350
32
  3
AcadDim
350
81F
  3
AcAsAppObject
350
AD5
  3
ACASGREF_MASTER
350
B1D
  3
ACDBHEADERROUNDTRIPXREC
350
168D
  3
AcDbVariableDictionary
350
269
  3
AcmDictionary
350
2CD
  3
AD_GREF_MODULE
350
B1E
  3
AD_MAPI_MODULE
350
B37
  3
AMG
350
275
  3
AMGSNAPSETTINGS
350
315
  3
DWGPROPS
350
168C
  3
MAPISURF_MODULE
350
B1F
  0
DICTIONARY
  5
15
330
14
100
AcDbDictionary
280
     1
281
     1
  3
ACAD_LAYERFILTERS
360
13A7
  3
ACAD_LAYERSTATES
360
16
  3
ACLYDICTIONARY
360
13A6
  0
DICTIONARY
  5
12AF
330
12AE
100
AcDbDictionary
280
     1
281
     1
  3
ACAD_XREC_ROUNDTRIP
360
12B0
  0
DICTIONARY
  5
3
330
2
100
AcDbDictionary
280
     1
281
     1
  3
ACAD_INDEX
360
E1D
  0
DICTIONARY
  5
EAB
330
D
100
AcDbDictionary
280
     1
281
     1
  3
ACAD_SORTENTS
360
EAC
  0
DICTIONARY
  5
824
330
823
100
AcDbDictionary
280
     1
281
     1
  0
DICTIONARY
  5
82B
330
82A
100
AcDbDictionary
280
     1
281
     1
  0
DICTIONARY
  5
EE3
330
EE2
100
AcDbDictionary
280
     1
281
     1
  0
DICTIONARY
  5
11D4
330
11D3
100
AcDbDictionary
280
     1
281
     1
  0
DICTIONARY
  5
12C2
330
12C1
100
AcDbDictionary
280
     1
281
     1
  0
DICTIONARY
  5
1691
330
273
100
AcDbDictionary
280
     1
281
     1
  3
ACAD_XREC_ROUNDTRIP
360
1692
  0
DICTIONARY
  5
31
102
{ACAD_REACTORS
330
8
102
}
330
8
100
AcDbDictionary
281
     1
  0
DICTIONARY
  5
2D
102
{ACAD_REACTORS
330
8
102
}
330
8
100
AcDbDictionary
281
     1
  0
DICTIONARY
  5
C
102
{ACAD_REACTORS
330
8
102
}
330
8
100
AcDbDictionary
281
     1
  3
Model
350
B
  3
配置1
350
10
  0
DICTIONARY
  5
30
102
{ACAD_REACTORS
330
8
102
}
330
8
100
AcDbDictionary
281
     1
  3
Global
350
12BE
  0
DICTIONARY
  5
2E
102
{ACAD_REACTORS
330
8
102
}
330
8
100
AcDbDictionary
281
     1
  3
STANDARD
350
33
  0
DICTIONARY
  5
2F
102
{ACAD_REACTORS
330
8
102
}
330
8
100
AcDbDictionary
281
     1
  0
ACDBDICTIONARYWDFLT
  5
7
102
{ACAD_REACTORS
330
8
102
}
330
8
100
AcDbDictionary
281
     1
  3
Normal
350
6
100
AcDbDictionaryWithDefault
340
6
  0
DICTIONARY
  5
32
102
{ACAD_REACTORS
330
8
102
}
330
8
100
AcDbDictionary
281
     1
  3
Standard
350
34
  0
XRECORD
  5
81F
102
{ACAD_REACTORS
330
8
102
}
330
8
100
AcDbXrecord
280
     1
 90
   990106
  3

 60
     0
 61
     0
 62
     4
 63
     4
 64
     1
 65
     0
 66
     0
 67
     3
 68
     0
 69
     0
 70
     0
 71
     0
 72
     0
 40
0.0
170
     2
340
821
  0
ACAD_PROXY_OBJECT
  5
AD5
102
{ACAD_REACTORS
330
8
102
}
330
8
100
AcDbProxyObject
 90
      499
 91
      544
 95
  2555929
 70
     0
 93
       10
310
4040
 94
        0
1001
ACAD
1000
AcRTDxfName
1000
ASAPP
  0
ACAD_PROXY_OBJECT
  5
B1D
102
{ACAD_REACTORS
330
8
102
}
330
8
100
AcDbProxyObject
 90
      499
 91
      514
 95
  2555929
 70
     0
 93
       34
310
0100004040
 94
        0
1001
ACAD
1000
AcRTDxfName
1000
ACASGREFMASTER
  0
DICTIONARY
  5
168D
102
{ACAD_REACTORS
330
8
102
}
330
8
100
AcDbDictionary
281
     1
  0
DICTIONARY
  5
269
102
{ACAD_REACTORS
330
8
102
}
330
8
100
AcDbDictionary
281
     1
  3
CTABLESTYLE
350
26A
  3
DIMASSOC
350
26C
  3
HIDETEXT
350
26B
  3
INDEXCTL
350
168B
  3
PROJECTNAME
350
26D
  0
DICTIONARY
  5
2CD
102
{ACAD_REACTORS
330
8
102
}
330
8
100
AcDbDictionary
281
     1
  3
AcmStdDictionary
350
2DA
  3
AMDTSECTSYM_ARROWCOLOR
350
2F6
  0
ACAD_PROXY_OBJECT
  5
B1E
102
{ACAD_REACTORS
330
8
102
}
330
8
100
AcDbProxyObject
 90
      499
 91
      526
 95
  2555929
 70
     0
 93
      114
310
000000438080000000000000000033
 94
        0
1001
ACAD
1000
AcRTDxfName
1000
ACADGREFMODULE
  0
ACAD_PROXY_OBJECT
  5
B37
102
{ACAD_REACTORS
330
8
102
}
330
8
100
AcDbProxyObject
 90
      499
 91
      570
 95
  2555929
 70
     0
 93
       34
310
05000044C0
 94
        0
1001
ACAD
1000
AcRTDxfName
1000
MAPIADMODULE
  0
DICTIONARY
  5
275
102
{ACAD_REACTORS
330
8
102
}
330
8
100
AcDbDictionary
281
     1
  0
DICTIONARY
  5
315
102
{ACAD_REACTORS
330
8
102
}
330
8
100
AcDbDictionary
281
     1
  0
XRECORD
  5
168C
102
{ACAD_REACTORS
330
8
102
}
330
8
100
AcDbXrecord
280
     1
  1
DWGPROPS COOKIE
  2

  3

  4

  6

  7

  8

  9

300
AmdtFileType=84
301
=
302
=
303
=
304
=
305
=
306
=
307
=
308
=
309
=
 40
0.23855625
 41
2454887.677932685
 42
2456639.476115267
  1

 90
        1
  0
ACAD_PROXY_OBJECT
  5
B1F
102
{ACAD_REACTORS
330
8
102
}
330
8
100
AcDbProxyObject
 90
      499
 91
      610
 95
  2555929
 70
     0
 93
        8
310
047E
 94
        0
1001
ACAD
1000
AcRTDxfName
1000
AMDTMAPISURFMOUDULE
  0
DICTIONARY
  5
13A7
102
{ACAD_REACTORS
330
15
102
}
330
15
100
AcDbDictionary
281
     1
  0
DICTIONARY
  5
16
102
{ACAD_REACTORS
330
15
102
}
330
15
100
AcDbDictionary
281
     1
  0
DICTIONARY
  5
13A6
102
{ACAD_REACTORS
330
15
102
}
330
15
100
AcDbDictionary
281
     1
1001
ACAD
1000
<All
  0
XRECORD
  5
12B0
102
{ACAD_REACTORS
330
12AF
102
}
330
12AF
100
AcDbXrecord
280
     1
102
MATERIAL
340
12BE
  0
DICTIONARY
  5
E1D
102
{ACAD_REACTORS
330
3
102
}
330
3
100
AcDbDictionary
281
     1
  3
*A1
350
E1E
  0
SORTENTSTABLE
  5
EAC
102
{ACAD_REACTORS
330
EAB
102
}
330
EAB
100
AcDbSortentsTable
330
D
331
1D4
  5
1D4
331
16D
  5
16D
331
401
  5
402
331
9F
  5
9F
331
11E
  5
11E
331
409
  5
40A
331
A7
  5
A7
331
448
  5
449
331
411
  5
412
331
3DA
  5
3DB
331
DBB
  5
DBC
331
D45
  5
D46
331
CCF
  5
CD0
331
D0E
  5
D0F
331
D84
  5
D85
331
D4D
  5
D4E
331
CD7
  5
CD8
331
D16
  5
D17
331
D8C
  5
D8D
331
DC3
  5
DC4
331
DCB
  5
DCC
331
D55
  5
D56
331
CDF
  5
CE0
331
D1E
  5
D1F
331
D94
  5
D95
331
DD3
  5
DD4
331
D5D
  5
D5E
331
CE7
  5
CE8
331
D26
  5
D27
331
D9C
  5
D9D
331
529
  5
54E
331
419
  5
41A
331
14E
  5
14E
331
3E2
  5
3E3
331
458
  5
45C
331
421
  5
422
331
1AD
  5
1AD
331
E7
  5
E7
331
156
  5
156
331
3EA
  5
3EB
331
460
  5
461
331
88
  5
88
331
429
  5
42A
331
F7
  5
F7
331
3F2
  5
3F3
331
468
  5
469
331
90
  5
90
331
431
  5
432
331
107
  5
107
331
166
  5
166
331
3FA
  5
3FB
331
470
  5
471
331
DDB
  5
DDC
331
D65
  5
D66
331
D2E
  5
D2F
331
DA4
  5
DA5
331
DE3
  5
DE4
331
D6D
  5
D6E
331
CF7
  5
CF8
331
D36
  5
D37
331
DAC
  5
DAD
331
D75
  5
D76
331
CFF
  5
D00
331
D3E
  5
D40
331
DB4
  5
DB5
331
D7D
  5
D7E
331
D07
  5
D08
331
9D6
  5
CB0
331
CB2
  5
CB3
331
CBA
  5
CBB
331
CC2
  5
CC3
331
1D5
  5
1D5
331
117
  5
117
331
16E
  5
16E
331
402
  5
403
331
A0
  5
A0
331
11F
  5
11F
331
40A
  5
40B
331
A8
  5
A8
331
449
  5
44A
331
412
  5
413
331
3DB
  5
3DC
331
CC8
  5
CC9
331
DBC
  5
DBD
331
D46
  5
D47
331
D0F
  5
D15
331
CD0
  5
CD1
331
D85
  5
D86
331
D8D
  5
D8E
331
D4E
  5
D4F
331
CD8
  5
CD9
331
D17
  5
D18
331
DC4
  5
DC5
331
DCC
  5
DCD
331
D56
  5
D57
331
CE0
  5
CE1
331
D1F
  5
D20
331
D95
  5
D96
331
DD4
  5
DD5
331
D5E
  5
D5F
331
D27
  5
D28
331
D9D
  5
D9E
331
591
  5
5A7
331
9B7
  5
9D6
331
B0
  5
B0
331
41A
  5
41B
331
14F
  5
14F
331
3E3
  5
3E4
331
422
  5
423
331
1AE
  5
1AE
331
F0
  5
F0
331
157
  5
157
331
3EB
  5
3EC
331
461
  5
462
331
89
  5
89
331
42A
  5
42B
331
3F3
  5
3F4
331
469
  5
46A
331
91
  5
91
331
432
  5
433
331
167
  5
167
331
3FB
  5
3FC
331
471
  5
472
331
CE8
  5
CE9
331
DDC
  5
DDD
331
CF0
  5
CF1
331
D2F
  5
D30
331
D66
  5
D67
331
DA5
  5
DA6
331
DE4
  5
DE5
331
CF8
  5
CF9
331
D37
  5
D38
331
D6E
  5
D6F
331
DAD
  5
DAE
331
D00
  5
D01
331
D76
  5
D77
331
DB5
  5
DB6
331
D7E
  5
D7F
331
CB3
  5
CB4
331
820
  5
821
331
CBB
  5
CBC
331
CC3
  5
CC4
331
1D6
  5
1D6
331
118
  5
118
331
16F
  5
16F
331
403
  5
404
331
43A
  5
43E
331
479
  5
47B
331
A1
  5
A1
331
120
  5
120
331
40B
  5
40C
331
A9
  5
A9
331
19F
  5
19F
331
3D4
  5
3D5
331
413
  5
414
331
44A
  5
44E
331
501
  5
529
331
3DC
  5
3DD
331
452
  5
456
331
CC9
  5
CCA
331
D08
  5
D09
331
DBD
  5
DBE
331
CD1
  5
CD2
331
D47
  5
D48
331
D86
  5
D87
331
CD9
  5
CDF
331
D18
  5
D19
331
D4F
  5
D50
331
D8E
  5
D8F
331
DC5
  5
DC6
331
DCD
  5
DCE
331
CE1
  5
CE2
331
D20
  5
D21
331
D57
  5
D58
331
D96
  5
D97
331
DD5
  5
DD6
331
D5F
  5
D60
331
D9E
  5
D9F
331
150
  5
150
331
3E4
  5
3E5
331
41B
  5
41C
331
423
  5
424
331
F1
  5
F1
331
158
  5
158
331
3EC
  5
3ED
331
462
  5
463
331
8A
  5
8A
331
1C7
  5
1C7
331
3F4
  5
3F5
331
42B
  5
42C
331
46A
  5
46B
331
92
  5
92
331
1CF
  5
1CF
331
3FC
  5
3FD
331
433
  5
434
331
472
  5
473
331
CE9
  5
CEA
331
D28
  5
D29
331
DDD
  5
DDE
331
CF1
  5
CF2
331
D30
  5
D31
331
D67
  5
D68
331
DA6
  5
DA7
331
DE5
  5
DE6
331
CF9
  5
CFA
331
D38
  5
D39
331
D6F
  5
D70
331
DAE
  5
DAF
331
D77
  5
D78
331
D01
  5
D02
331
DB6
  5
DB7
331
D7F
  5
D80
331
821
  5
83B
331
CB4
  5
CB5
331
CBC
  5
CBD
331
57B
  5
591
331
CC4
  5
CC5
331
168
  5
168
331
1D7
  5
1D7
331
119
  5
119
331
170
  5
170
331
404
  5
405
331
A2
  5
A2
331
40C
  5
40D
331
443
  5
444
331
AA
  5
AA
331
3D5
  5
3D6
331
414
  5
415
331
3DD
  5
3DE
331
CCA
  5
CCB
331
D09
  5
D0A
331
D40
  5
D41
331
DBE
  5
DBF
331
CD2
  5
CD3
331
D48
  5
D49
331
D87
  5
D88
331
D19
  5
D1A
331
D50
  5
D51
331
D8F
  5
D90
331
DC6
  5
DC7
331
DCE
  5
DCF
331
CE2
  5
CE3
331
D21
  5
D22
331
D58
  5
D59
331
D97
  5
D98
331
DD6
  5
DD7
331
D9F
  5
DA0
331
1A0
  5
1A0
331
151
  5
151
331
3E5
  5
3E6
331
41C
  5
41D
331
F2
  5
F2
331
159
  5
159
331
3ED
  5
3EE
331
424
  5
425
331
463
  5
464
331
8B
  5
8B
331
3F5
  5
3F6
331
42C
  5
42D
331
46B
  5
46C
331
93
  5
93
331
3FD
  5
3FE
331
434
  5
435
331
473
  5
474
331
D60
  5
D61
331
CEA
  5
CEB
331
D29
  5
D2A
331
DDE
  5
DDF
331
DA7
  5
DA8
331
D68
  5
D69
331
CF2
  5
CF3
331
D31
  5
D32
331
DE6
  5
EA7
331
CFA
  5
CFB
331
D39
  5
D3A
331
D70
  5
D71
331
DAF
  5
DB0
331
D78
  5
D79
331
D02
  5
D03
331
DB7
  5
DB8
331
CB5
  5
CB6
331
CBD
  5
CBE
331
CC5
  5
CC6
331
1D0
  5
1D0
331
169
  5
169
331
9B
  5
9B
331
405
  5
406
331
11A
  5
11A
331
171
  5
171
331
A3
  5
A3
331
122
  5
122
331
40D
  5
40E
331
444
  5
445
331
AB
  5
AB
331
3D6
  5
3D7
331
415
  5
416
331
3DE
  5
3DF
331
CCB
  5
CCC
331
D0A
  5
D0B
331
D41
  5
D42
331
D80
  5
D81
331
DBF
  5
DC0
331
CD3
  5
CD4
331
D49
  5
D4A
331
D88
  5
D89
331
DC7
  5
DC8
331
D1A
  5
D1B
331
D51
  5
D52
331
D90
  5
D91
331
DCF
  5
DD0
331
CE3
  5
CE4
331
D22
  5
D23
331
D59
  5
D5A
331
D98
  5
D99
331
DD7
  5
DD8
331
1A1
  5
1A1
331
152
  5
152
331
3E6
  5
3E7
331
41D
  5
41E
331
45C
  5
45D
331
F3
  5
F3
331
15A
  5
15A
331
3EE
  5
3EF
331
425
  5
426
331
464
  5
465
331
8C
  5
8C
331
3F6
  5
3F7
331
42D
  5
42E
331
46C
  5
46D
331
3FE
  5
3FF
331
435
  5
436
331
474
  5
479
331
CEB
  5
CEC
331
D2A
  5
D2B
331
D61
  5
D62
331
DA0
  5
DA1
331
DDF
  5
DE0
331
CF3
  5
CF4
331
D32
  5
D33
331
D69
  5
D6A
331
DA8
  5
DA9
331
CFB
  5
CFC
331
D3A
  5
D3B
331
D71
  5
D72
331
DB0
  5
DB1
331
D03
  5
D04
331
D79
  5
D7A
331
CB6
  5
CB7
331
565
  5
57B
331
CBE
  5
CBF
331
CC6
  5
CC7
331
1D1
  5
1D1
331
16A
  5
16A
331
9C
  5
9C
331
406
  5
407
331
11B
  5
11B
331
172
  5
172
331
A4
  5
A4
331
40E
  5
40F
331
445
  5
446
331
AC
  5
AC
331
143
  5
143
331
3D7
  5
3D8
331
416
  5
417
331
3DF
  5
3E0
331
DB8
  5
DB9
331
CCC
  5
CCD
331
D0B
  5
D0C
331
D42
  5
D43
331
D81
  5
D82
331
DC0
  5
DC1
331
CD4
  5
CD5
331
D4A
  5
D4B
331
D89
  5
D8A
331
DC8
  5
DC9
331
D1B
  5
D1C
331
D52
  5
D53
331
D91
  5
D92
331
DD0
  5
DD1
331
CE4
  5
CE5
331
D23
  5
D24
331
D5A
  5
D5B
331
D99
  5
D9A
331
54E
  5
565
331
1A2
  5
1A2
331
E4
  5
E4
331
153
  5
153
331
3E7
  5
3E8
331
41E
  5
41F
331
45D
  5
45E
331
F4
  5
F4
331
15B
  5
15B
331
3EF
  5
3F0
331
426
  5
427
331
465
  5
466
331
8D
  5
8D
331
3F7
  5
3F8
331
42E
  5
42F
331
46D
  5
46E
331
3FF
  5
400
331
436
  5
43A
331
DD8
  5
DD9
331
CEC
  5
CED
331
D2B
  5
D2C
331
D62
  5
D63
331
DA1
  5
DA2
331
DE0
  5
DE1
331
CF4
  5
CF5
331
D33
  5
D34
331
D6A
  5
D6B
331
DA9
  5
DAA
331
CFC
  5
CFD
331
D3B
  5
D3C
331
D72
  5
D73
331
DB1
  5
DB2
331
D04
  5
D05
331
D7A
  5
D7B
331
CB7
  5
CB8
331
CBF
  5
CC0
331
5BD
  5
63E
331
CC7
  5
CC8
331
1D2
  5
1D2
331
16B
  5
16B
331
9D
  5
9D
331
43E
  5
43F
331
1FA
  5
1FA
331
11C
  5
11C
331
173
  5
173
331
407
  5
408
331
A5
  5
A5
331
446
  5
447
331
40F
  5
410
331
36
  5
36
331
AD
  5
AD
331
44E
  5
452
331
417
  5
418
331
144
  5
144
331
3D8
  5
3D9
331
456
  5
457
331
DB9
  5
DBA
331
D43
  5
D44
331
CCD
  5
CCE
331
D0C
  5
D0D
331
D82
  5
D83
331
CD5
  5
CD6
331
D4B
  5
D4C
331
D8A
  5
D8B
331
DC1
  5
DC2
331
DC9
  5
DCA
331
D1C
  5
D1D
331
D53
  5
D54
331
D92
  5
D93
331
DD1
  5
DD2
331
CE5
  5
CE6
331
D24
  5
D25
331
D5B
  5
D5C
331
D9A
  5
D9B
331
83C
  5
83D
331
3E0
  5
3E1
331
56
  5
56
331
45E
  5
45F
331
41F
  5
420
331
1AB
  5
1AB
331
E5
  5
E5
331
154
  5
154
331
3E8
  5
3E9
331
427
  5
428
331
F5
  5
F5
331
3F0
  5
3F1
331
466
  5
467
331
8E
  5
8E
331
42F
  5
430
331
164
  5
164
331
3F8
  5
3F9
331
46E
  5
46F
331
DD9
  5
DDA
331
CED
  5
CF0
331
D2C
  5
D2D
331
D63
  5
D64
331
DA2
  5
DA3
331
DE1
  5
DE2
331
CF5
  5
CF6
331
D34
  5
D35
331
D6B
  5
D6C
331
DAA
  5
DAB
331
DB2
  5
DB3
331
D3C
  5
D3D
331
CFD
  5
CFE
331
D73
  5
D74
331
D05
  5
D06
331
D7B
  5
D7C
331
CB0
  5
CB1
331
CB8
  5
CB9
331
CC0
  5
CC1
331
1D3
  5
1D3
331
16C
  5
16C
331
400
  5
401
331
9E
  5
9E
331
43F
  5
443
331
11D
  5
11D
331
1FB
  5
1FB
331
408
  5
409
331
A6
  5
A6
331
447
  5
448
331
410
  5
411
331
AE
  5
AE
331
3D9
  5
3DA
331
273
  5
3D4
331
457
  5
458
331
DBA
  5
DBB
331
D44
  5
D45
331
CCE
  5
CCF
331
D0D
  5
D0E
331
D83
  5
D84
331
D8B
  5
D8C
331
D15
  5
D16
331
CD6
  5
CD7
331
D4C
  5
D4D
331
DC2
  5
DC3
331
DCA
  5
DCB
331
D1D
  5
D1E
331
D54
  5
D55
331
D93
  5
D94
331
DD2
  5
DD3
331
CE6
  5
CE7
331
D25
  5
D26
331
D5C
  5
D5D
331
D9B
  5
D9C
331
83D
  5
83E
331
63E
  5
660
331
5A7
  5
5BD
331
418
  5
419
331
14D
  5
14D
331
3E1
  5
3E2
331
45F
  5
460
331
420
  5
421
331
1AC
  5
1AC
331
E6
  5
E6
331
155
  5
155
331
3E9
  5
3EA
331
87
  5
87
331
467
  5
468
331
428
  5
429
331
F6
  5
F6
331
3F1
  5
3F2
331
8F
  5
8F
331
430
  5
431
331
165
  5
165
331
3F9
  5
3FA
331
46F
  5
470
331
DDA
  5
DDB
331
D2D
  5
D2E
331
D64
  5
D65
331
DA3
  5
DA4
331
DE2
  5
DE3
331
CF6
  5
CF7
331
D35
  5
D36
331
D6C
  5
D6D
331
DAB
  5
DAC
331
CFE
  5
CFF
331
D3D
  5
D3E
331
D74
  5
D75
331
DB3
  5
DB4
331
D06
  5
D07
331
D7C
  5
D7D
331
CB1
  5
CB2
331
CB9
  5
CBA
331
CC1
  5
CC2
  0
XRECORD
  5
1692
102
{ACAD_REACTORS
330
1691
102
}
330
1691
100
AcDbXrecord
280
     1
102
SHADEPLOT
 70
     0
  0
LAYOUT
  5
B
102
{ACAD_XDICTIONARY
360
168E
102
}
102
{ACAD_REACTORS
330
C
102
}
330
C
100
AcDbPlotSettings
  1

  2
\\NOVIBDC\HPLJ4-TPUB
  4

  6

 40
0.0
 41
0.0
 42
0.0
 43
0.0
 44
0.0
 45
0.0
 46
0.0
 47
0.0
 48
0.0
 49
0.0
140
0.0
141
0.0
142
1.0
143
1.0
 70
  1712
 72
     0
 73
     0
 74
     0
  7

 75
     0
147
1.0
148
0.0
149
0.0
100
AcDbLayout
  1
Model
 70
     1
 71
     0
 10
0.0
 20
0.0
 11
12.0
 21
9.0
 12
0.0
 22
0.0
 32
0.0
 14
0.0
 24
0.0
 34
0.0
 15
0.0
 25
0.0
 35
0.0
146
0.0
 13
0.0
 23
0.0
 33
0.0
 16
1.0
 26
0.0
 36
0.0
 17
0.0
 27
1.0
 37
0.0
 76
     0
330
2
  0
LAYOUT
  5
10
102
{ACAD_XDICTIONARY
360
11
102
}
102
{ACAD_REACTORS
330
C
102
}
330
C
100
AcDbPlotSettings
  1

  2
\\RDS1\iR3300影印機
  4
A3
  6

 40
6.805083274841308
 41
5.365738868713378
 42
7.228424072265625
 43
5.027069091796875
 44
296.9259948730469
 45
419.9466552734374
 46
0.0
 47
0.0
 48
0.0
 49
0.0
140
0.0
141
0.0
142
1.0
143
1.0
 70
   688
 72
     1
 73
     1
 74
     5
  7

 75
    16
147
1.0
148
0.0
149
0.0
100
AcDbLayout
  1
配置1
 70
     1
 71
     1
 10
-5.027069091796875
 20
-6.805083274841308
 11
414.9195861816406
 21
290.1209115982056
 12
0.0
 22
0.0
 32
0.0
 14
3.931144543983464
 24
1.137289084254689
 34
-0.0067073111196692
 15
405.3205867576114
 25
281.5215846081877
 35
219.8086484018954
146
0.0
 13
0.0
 23
0.0
 33
0.0
 16
1.0
 26
0.0
 36
0.0
 17
0.0
 27
1.0
 37
0.0
 76
     0
330
D
331
273
1001
ACAD_PSEXT
1000
\\RDS1\iR3300影印機
1000
Canon iR2200-3300 PCL5e
1000
\\RDS1
1000

1070
     0
  0
MATERIAL
  5
12BE
102
{ACAD_XDICTIONARY
360
12BF
102
}
102
{ACAD_REACTORS
330
30
102
}
330
30
100
AcDbMaterial
  1
Global
  0
MLINESTYLE
  5
33
102
{ACAD_REACTORS
330
2E
102
}
330
2E
100
AcDbMlineStyle
  2
STANDARD
 70
     0
  3

 62
     0
 51
90.0
 52
90.0
 71
     2
 49
0.5
 62
   256
  6
BYLAYER
 49
-0.5
 62
   256
  6
BYLAYER
  0
ACDBPLACEHOLDER
  5
6
102
{ACAD_REACTORS
330
7
102
}
330
7
  0
TABLESTYLE
  5
34
102
{ACAD_REACTORS
330
32
102
}
330
32
100
AcDbTableStyle
  3
Standard
 70
     0
 71
     0
 40
1.5
 41
1.5
280
     0
281
     0
  7
STANDARD
140
4.5
170
     2
 62
     0
 63
     7
283
     0
274
    -2
284
     1
 64
     0
275
    -2
285
     1
 65
     0
276
    -2
286
     1
 66
     0
277
    -2
287
     1
 67
     0
278
    -2
288
     1
 68
     0
279
    -2
289
     1
 69
     0
  7
STANDARD
140
6.0
170
     5
 62
     0
 63
     7
283
     0
274
    -2
284
     1
 64
     0
275
    -2
285
     1
 65
     0
276
    -2
286
     1
 66
     0
277
    -2
287
     1
 67
     0
278
    -2
288
     1
 68
     0
279
    -2
289
     1
 69
     0
  7
STANDARD
140
4.5
170
     5
 62
     0
 63
     7
283
     0
274
    -2
284
     1
 64
     0
275
    -2
285
     1
 65
     0
276
    -2
286
     1
 66
     0
277
    -2
287
     1
 67
     0
278
    -2
288
     1
 68
     0
279
    -2
289
     1
 69
     0
  0
DICTIONARYVAR
  5
26A
102
{ACAD_REACTORS
330
269
102
}
330
269
100
DictionaryVariables
280
     0
  1
STANDARD
  0
DICTIONARYVAR
  5
26C
102
{ACAD_REACTORS
330
269
102
}
330
269
100
DictionaryVariables
280
     0
  1
1
  0
DICTIONARYVAR
  5
26B
102
{ACAD_REACTORS
330
269
102
}
330
269
100
DictionaryVariables
280
     0
  1
1
  0
DICTIONARYVAR
  5
168B
102
{ACAD_REACTORS
330
269
102
}
330
269
100
DictionaryVariables
280
     0
  1
1
  0
DICTIONARYVAR
  5
26D
102
{ACAD_REACTORS
330
269
102
}
330
269
100
DictionaryVariables
280
     0
  1

  0
DICTIONARY
  5
2DA
102
{ACAD_REACTORS
330
2CD
102
}
330
2CD
100
AcDbDictionary
281
     1
  0
XRECORD
  5
2F6
102
{ACAD_REACTORS
330
2CD
102
}
330
2CD
100
AcDbXrecord
280
     1
 90
-1023410169
  0
LAYER_INDEX
  5
E1E
102
{ACAD_REACTORS
330
E1D
102
}
330
E1D
100
AcDbIndex
 40
2456639.476115267
100
AcDbLayerIndex
  8
0
360
167E
 90
        0
  8
AM_VIS
360
167F
 90
        0
  8
AM_7
360
1680
 90
        0
  8
LOGO
360
1681
 90
        0
  8
AM_5
360
1682
 90
        0
  8
Defpoints
360
1683
 90
        0
  8
SL
360
1684
 90
        0
  8
AM_4
360
1685
 90
        0
  8
CENTER
360
1686
 90
        0
  8
1
360
1687
 90
        0
  8
BOR
360
1688
 90
        0
  8
HIDDEN
360
1689
 90
        0
  8
HID
360
168A
 90
        0
  0
DICTIONARY
  5
168E
330
B
100
AcDbDictionary
280
     1
281
     1
  3
ACAD_XREC_ROUNDTRIP
360
168F
  0
DICTIONARY
  5
11
330
10
100
AcDbDictionary
280
     1
281
     1
  3
ACAD_XREC_ROUNDTRIP
360
1690
  3
ADSK_XREC_LAYOUTTHUMBNAIL
360
12
  0
DICTIONARY
  5
12BF
330
12BE
100
AcDbDictionary
280
     1
281
     1
  3
ACAD_XREC_ROUNDTRIP
360
12C0
  0
IDBUFFER
  5
167E
330
0
100
AcDbIdBuffer
  0
IDBUFFER
  5
167F
330
0
100
AcDbIdBuffer
  0
IDBUFFER
  5
1680
330
0
100
AcDbIdBuffer
  0
IDBUFFER
  5
1681
330
0
100
AcDbIdBuffer
  0
IDBUFFER
  5
1682
330
0
100
AcDbIdBuffer
  0
IDBUFFER
  5
1683
330
0
100
AcDbIdBuffer
  0
IDBUFFER
  5
1684
330
0
100
AcDbIdBuffer
  0
IDBUFFER
  5
1685
330
0
100
AcDbIdBuffer
  0
IDBUFFER
  5
1686
330
0
100
AcDbIdBuffer
  0
IDBUFFER
  5
1687
330
0
100
AcDbIdBuffer
  0
IDBUFFER
  5
1688
330
0
100
AcDbIdBuffer
  0
IDBUFFER
  5
1689
330
0
100
AcDbIdBuffer
  0
IDBUFFER
  5
168A
330
0
100
AcDbIdBuffer
  0
XRECORD
  5
168F
102
{ACAD_REACTORS
330
168E
102
}
330
168E
100
AcDbXrecord
280
     1
102
SHADEPLOT
 70
     0
102
SHADEPLOTRESLEVEL
 70
     2
102
SHADEPLOTCUSTOMDPI
 70
   300
  0
XRECORD
  5
1690
102
{ACAD_REACTORS
330
11
102
}
330
11
100
AcDbXrecord
280
     1
102
SHADEPLOT
 70
     0
102
SHADEPLOTRESLEVEL
 70
     2
102
SHADEPLOTCUSTOMDPI
 70
   300
  0
XRECORD
  5
12
102
{ACAD_REACTORS
330
11
102
}
330
11
100
AcDbXrecord
280
     1
310
28000000B40000007E000000010008000000000098580000000000000000000000010000000000000000000000000000FFFFFF000000000000000000000000000000000000000000000000000000000000000000330000006600000099000000CC000000FF00000000330000333300006633000099330000CC330000FF3300
310
0000660000336600006666000099660000CC660000FF66000000990000339900006699000099990000CC990000FF99000000CC000033CC000066CC000099CC0000CCCC0000FFCC000000FF000033FF000066FF000099FF0000CCFF0000FFFF000000003300330033006600330099003300CC003300FF003300003333003333
310
33006633330099333300CC333300FF33330000663300336633006666330099663300CC663300FF66330000993300339933006699330099993300CC993300FF99330000CC330033CC330066CC330099CC3300CCCC3300FFCC330000FF330033FF330066FF330099FF3300CCFF3300FFFF330000006600330066006600660099
310
006600CC006600FF00660000336600333366006633660099336600CC336600FF33660000666600336666006666660099666600CC666600FF66660000996600339966006699660099996600CC996600FF99660000CC660033CC660066CC660099CC6600CCCC6600FFCC660000FF660033FF660066FF660099FF6600CCFF6600
310
FFFF660000009900330099006600990099009900CC009900FF00990000339900333399006633990099339900CC339900FF33990000669900336699006666990099669900CC669900FF66990000999900339999006699990099999900CC999900FF99990000CC990033CC990066CC990099CC9900CCCC9900FFCC990000FF99
310
0033FF990066FF990099FF9900CCFF9900FFFF99000000CC003300CC006600CC009900CC00CC00CC00FF00CC000033CC003333CC006633CC009933CC00CC33CC00FF33CC000066CC003366CC006666CC009966CC00CC66CC00FF66CC000099CC003399CC006699CC009999CC00CC99CC00FF99CC0000CCCC0033CCCC0066CC
310
CC0099CCCC00CCCCCC00FFCCCC0000FFCC0033FFCC0066FFCC0099FFCC00CCFFCC00FFFFCC000000FF003300FF006600FF009900FF00CC00FF00FF00FF000033FF003333FF006633FF009933FF00CC33FF00FF33FF000066FF003366FF006666FF009966FF00CC66FF00FF66FF000099FF003399FF006699FF009999FF00CC
310
99FF00FF99FF0000CCFF0033CCFF0066CCFF0099CCFF00CCCCFF00FFCCFF0000FFFF0033FFFF0066FFFF0099FFFF00CCFFFF00FFFFFF00000000000D0D0D001A1A1A00282828003535350043434300505050005D5D5D006B6B6B00787878008686860093939300A1A1A100AEAEAE00BBBBBB00C9C9C900D6D6D600E4E4E400
310
F1F1F100FFFFFF0000000000000000000000000000000000000000000000000000000000000000000000000000000000EFEFF5F5F5F5F5F5F5F5F5F5F5F5F5F5F5F5F5F5F5F5F5F5F5F5F5F5F5F5F5F5F5F5F5F5F5F5F5F5F5F5F5F5F5F5F5F5F5F5F5F5F5F5F5F5F5F5F5F5F5F5F5F5F5F5F5F5F5F5F5F5F5F5F5F5F5F5F5
310
F5F5F5F5F5F5F5F5F5F5F5F5F5F5F5F5F5F5F5F5F5F5F5F5F5F5F5F5F5F5F5F5F5F5F5F5F5F5F5F5F5F5F5F5F5F5F5F5F5F5F5F5F5F5F5F5F5F5F5F5F5F5F5F5F5F5F5F5F5F5F5F5F5F5F5F5F5F5F5F5F5F5F5F5F5F5F5F5F5F5F5F5F5F5F5F5F5F5F5F5EFF5F5F5F5F5F5F5F5F5F5F5F5F5F5F5F5F5F5F5F5F5F5F5F5F5F5
310
F5F5F5F5F5F5F5F5F5F5F5F5F5F5F5F5F5F5F5F5F5F5F5F5F5F5F5F5F5F5F5F5F5F5F5F5F5F5F5F5F5F5F5F5F5F5F5F5F5F5F5F5F5F5F5F5F5F5F5F5F5F5F5F5F5F5F5F5F5F5F5F5F5F5F5F5F5F5F5F5F5F5F5F5F5F5F5F5F5F5F5F5F5F5F5F5F5F5F5F5F5F5F5F5F5F5F5F5F5F5F5F5F5F5F5F5F5F5F5F5F5F5F5F5F5F5F5
310
F5F5F5F5F5F5F5F5F5F5F5F5F5F5F5F5F5F5F5F5F5F5F5F5F5F5EFF5E2E2E2E2E2E2E2E2E2E2E2E2E2E2E2E2E2E2E2E2E2E2E2E2E2E2E2E2E2E2E2E2E2E2E2E2E2E2E2E2E2E2E2E2E2E2E2E2E2E2E2E2E2E2E2E2E2E2E2E2E2E2E2E2E2E2E2E2E2E2E2E2E2E2E2E2E2E2E2E2E2E2E2E2E2E2E2E2E2E2E2E2E2E2E2E2E2E2E2
310
E2E2E2E2E2E2E2E2E2E2E2E2E2E2E2E2E2E2E2E2E2E2E2E2E2E2E2E2E2E2E2E2E2E2E2E2E2E2E2E2E2E2E2E2E2E2E2E2E2E2E2E2E2E2E2E2E2E2E2E2E2E2E2E2E2E2E2E2E2E2E2E2E2E2E2E2E2F5F5EFF5E2E2F5F5F5F5F5F5F5F5E2E2E2E2E2E2E2E2E2F5F5F5F5F5F5F5F5F5F5F5F5F5F5F5F5E2E2E2E2E2E2E2E2E2F5F5
310
F5F5F5F5F5F5F5F5F5F5F5F5F5E2E2E2E2E2E2E2E2E2F5F5F5F5F5F5F5F5F5F5F5F5F5F5F5F5E2E2E2E2E2E2E2E2F5F5F5F5F5F5F5F5F5F5F5F5F5F5F5F5E2E2E2E2E2E2E2E2E2F5F5F5F5F5F5F5F5F5F5F5F5F5F5F5E2E2E2E2E2E2E2E2E2F5F5F5F5F5F5F5F5F5F5F5F5F5F5F5F5E2E2E2E2E2E2E2E2E2F5F5F5F5F5F5F5
310
F5E2E2F5F5EFF5E2E2F52D2D2D2D2D2D2D2D2D2D2D2D2D2D2D2D2D2D2D2D2D2D2D2D2D2D2D2D2D2D2D2D2D2D2D2D2D2D2D2D2D2D2D2D2D2D2D2D2D2D2D2D2D2D2D2D2D2D2D2D2D2D2D2D2D2D2D2D2D2D2D2D2D2D2D2D2D2D2D2D2D2D2D2D2D2D2D2D2D2D2D2D2D2D2D2D2D2D2D2D2D2D2D2D2D2D2D2D2D2D2D2D2D2D2D2D2D
310
2D2D2D2D2D2D2D2D2D2D2D2D2D2D2D2D2D2D2D2D2D2D2D2D2D2D2D2D2D2D2D2D2D2D2D2D2D2D2D2D2D2D2D2D2D2D2D2D2D2D2D2D2DF5E2E2F5F5EFF5E2E2F52DF5F5F5F5F5F5F5F5F5E2F5F5F5F5F5F5F5F5F5F5E2F5F5F5F5E2F5F5F5F52DF5F5F5F5F5F5F5F52DE2E2E2E2E2E2E2E2E2E22D2D2D2D2D2D2D2D2D2D2DE2E2
310
E22D2D2D2D2D2D2D2D2D2D2DE2E2E22D2D2D2D2D2D2D2DE2E22D2D2D2D2D2D2D2DE22D2D2D2D2D2D2D2D2D2D2D2D2D2D2D2D2D2DE2E2E2E2E2E2E2E2E2E2E2E2E2E2E2E2E2E2E2E2E2E2E2E2E2E2E2E2E2E2E2E2E2E2E2E2E2E2E2E2E2E2E2E2E2E2E2E2E2E2E2E2E22DF5E2E2F5F5EFF5E2E2F52DF5F5F5F5F5F5F5F5F5E2
310
F5F5F5F5F5F5F5F5F5F5E2F5F5F5E2E2F5F5F5E22DF5F5F5F5F5F5F5F52DE2E2E2E2E2E2E2E2E2E22DE2E2E2F5F5F5F5E2E22DE2E2E22DE2F5F5F5F5F5F5F5E22DE2E2E22DE2F5F5F5F5E22DE2E22DF5F5F5F5F5E22DE22DF5F5F5F5F5E22D2DE2F5F5F5F5F5F5E22DE2E2E2E2E2E2E2E2E2E2E2E2E2E2E2E2E2E2E2E2E2E2
310
E2E2E2E2E2E2E2E2E2E2E2E2E2E2E2E2E2E2E2E2E2E2E2E2E2E2E2E2E2E2E22DF5E2E2F5F5EFF5E2E2F52DE2E2E2E2F5F5F5F5F5F5F5F5F5F5F5F5F5F5F5F5F5F5F5F5F5F5E2E2E2E22D2D2D2D2D2D2D2D2D2DE2E2E2E2E2E2E2E2E2E22DE2E2E2F5E2F5E2E2E22DE2E2E22DE2F5F5F5F5F5F5F5E22DE2E2E22DE2F5F5E2E2
310
E22DE2E22DF5F5E2F5E2E22DE22DF5F5F5F5F5F52D2DE2F5F5F5F5F5F5E22DE2E2E2E2E2E2E2E2E2E2E2E2E2E2E2E2E2E2E2E2E2E2E2E2E2E2E2E2E2E2E2E2E2E2E2E2E2E2E2E2E2E2E2E2E2E2E2E2E2E2E2E2E22DF5E2E2F5F5EFF5E2E2F52DE2E2E2E2F5F5F5F5F5F5E2F5F5F5F5F5F5F5F5F5F5F5F5F5F5F5E2E2E2E22D
310
E2E2E2E2E2E2E2E2E2E2E2E2E2E2E2E2E2E2E22DE2E2F5F5F5F5F5E2E22DE2E2E22DE2F5F5F5F5F5F5F5F52DE2E2E22DE2F5F5F5F5E22DE2E22DF5F5F5F5F5E22DE22DF5F5F5F5F5F52D2DE2E2F5F5F5F5F5E22DE2E2E2E2E2E2E2E2E2E2E2E2E2E2E2E2E2E2E2E2E2E2E2E2E2E2E2E2E2E2E2E2E2E2E2E2E2E2E2E2E2E2E2
310
E2E2E2E2E2E2E2E2E2E22DF5E2E2F5F5EFF5E2E2F52DE2E2E2E2E2F5E2F5F5F5F5F5F5F5F5F5F5E2F5F5F5F5F5F5F5F5E2E2E2E22DE2E2E2E2E2E2E2E2E2E2E2E2E2E2E2E2E2E2E22DE2E2F5F5F5F5F5E2E22DE2E2E22DE2F5F5F5F5F5F5F5F52DE2E2E22DE2F5F5F5F5E22DE2E22DF5F5F5F5F5E22DE22DF5F5F5F5F5F52D
310
2DE2E2F5F5F5F5F5E22DE2E2E2E2E2E2E2E2E2E2E2E2E2E2E2E2E2E2E2E2E2E2E2E2E2E2E2E2E2E2E2E2E2E2E2E2E2E2E2E2E2E2E2E2E2E2E2E2E2E2E2E2E22DF5E2E2F5F5EFF5E2E2F52D0F0F0F0F0F0F0F0F0F2D2DF5F5F52D2DF5F5F5F52D2D2D2DF5F5F5F52D2D2DE2E2E2E2E2E2E2E2E2E2E2E2E2E2E2E2E2E2E22D2D
310
2D2D2D2DF5F52D2D2DE2E2E22D2D2D2D2D2D2D2D2D2D2DE2E2E22D2DF52DF52D2D2DE2E22D2D2D2D2D2D2D2DE22DF5F52D2D2D2D2D2D2D2D2D2DF52D2D2D2DE2E2E2E2E2E2E2E2E2E2E2E2E2E2E2E2E2E2E2E2E2E2E2E2E2E2E2E2E2E2E2E2E2E2E2E2E2E2E2E2E2E2E2E2E2E2E2E2E2E2E2E2E22DF5E2E2F5F5EFF5E2E2E2
310
2D0F0F0F0F0F0F0F0F0FE22DF5F5F5E2E2F5F5F5F5E22DE2E2F5F5F5F5E2E22DE2E2E2E2E2E2E2E2E2E2E2E2E2F5E2E2E2E2E2E2E2E2E2E22DE2E2E2E2E2E2E2E2E2E2E2E2E22DE2E2E2E2E2E2E2E2E2E2E22DE2E2E2E2E2E2E2E2E22DE2E2E2E2E2E2E2E22DE2E2E2E2E2E2E2E22DE2E2E2E2E2E2E2E2E2E2E2E2E2E2E2E2
310
E2E2E2E2E2E2E2E2E2E2E2E2E2E2E2E2E2E2E2E2E2E2E2E2E2E2E2E2E2E2E2E2E2E2E2E2E2E2E2E2E2E22DE2E2E2F5F5EFF5E2E2E22DE2DCDCE2DCDCE20FDCE22DF5F5F52D2DF52DF5F52D2D2D2D2D2D2D2D2D2D2DF5F5F5F5F5F5E2F5F5F5F5F5F5F5F5F5F52D2D2D2D2D2D2D2D2D2D2D2D2D2D2DE2E22D2D2D2D2D2D2D2D
310
2D2DE2E2E22D2D2D2D2D2D2D2DE2E2E22D2D2D2D2D2D2D2D2D2D2D2D2D2D2D2DE2E22D2D2D2D2DE2E2E2E2E2E2E2E2E2E2E2E2E2E2E2E2E2E2E2E2E2E2E2E2E2E2E2E2E2E2E2E2E2E2E2E2E2E2E2E2E2E2E2E2E2E2E2E2E2E2E2E2E2E2E2E22DE2E2E2F5F5EFF5E2E2E22DE2E2DCDCDCDCDC0FDCE22DF5F5F5E2E2F5F5F5F5
310
F52DE2F5F5E2F5F5F5E22DF5F5F5F5F5F5F5F5F5F5F5F5F5F5F5F5F52DF5F5F5F5F5F5F5E2F5F5F5F5F52DE2E22DE2E2E2F5F5E2E2E22DE2E2E22DE2E2F5F5F5E22DE2E2E22DE2E2E2E2E22D2DF5F5F5F5F5F5E22DE2E22DE2F5E22DE2E2E2E2E2E2E2E2E2E2E2E2E2E2E2E2E2E2E2E2E2E2E2E2E2E2E2E2E2E2E2E2E2E2E2
310
E2E2E2E2E2E2E2E2E2E2E2E2E2E2E2E2E2E2E2E2E22DE2E2E2F5F5EFF5E2E2E22DE2E2DCDCDCDCDC0FDCE22DF5F5F5E2E2F5F5F5F5F52DF5F5F5E2F5F5F5F52DF5F5E2F5E2E2E2E2E2E2E2E2F5E2E2F5E22DF5F5F5F5F5F5F5F5F5F5F5E2F52DF5F52DE2E2E2F5F5E2E2E22DF5F5F52DE2F5F5F5F5F52DF5F5F52DE2F5F5E2
310
E22D2DF5F5F5F5E2F5E2F5F5F52DE2F5E22DE2E2E2E2E2E2E2E2E2E2E2E2E2E2E2E2E2E2E2E2E2E2E2E2E2E2E2E2E2E2E2E2E2E2E2E2E2E2E2E2E2E2E2E2E2E2E2E2E2E2E2E2E2E2E2E22DE2E2E2F5F5EFF5E2E2E22DE2E2E2DCDC0FDCDCDCE22D2D2D2D2DF5F5F52D2D2D2D2DF5F52D2DF5F52D2DE2F5F5F5F5F5F5F5F5F5
310
F5F5F5E2E2E2E22DF5E2F5F5F5F5F5F5F5F5F5F5F52DE2E22DE2E2F5F5F5E2E2E22DE2E2E22DE2E2F5F5F5F52DE2E2E22DE2F5F5E2E22D2DF5F5E2F5E2F5E22DE2E22DF5F5F52DE2E2E2E2E2E2E2E2E2E2E2E2E2E2E2E2E2E2E2E2E2E2E2E2E2E2E2E2E2E2E2E2E2E2E2E2E2E2E2E2E2E2E2E2E2E2E2E2E2E2E2E2E2E2E2E2
310
2DE2E2E2F5F5EFF5E2E2E22DE2E2E2DCDCDC0FDC0FE22DF5F5F5F5F5F5F5F5F5E22DE2F5E2F5E2E2F5E22DE2F5F5F5F5F5F5F5F5F5F5F5F5E2E2E2E22DF5E2F5F5F5F5F5E2F5F5F5F5F52DE2E22DE2E2E2F5F5E2E2E22DE2E2E22DE2E2F5F5F5E22DE2E2E22DE2E2E2E2E22D2DF5F5E2F5F5F5E22DE2E22DE2F5F52DE2E2E2
310
E2E2E2E2E2E2E2E2E2E2E2E2E2E2E2E2E2E2E2E2E2E2E2E2E2E2E2E2E2E2E2E2E2E2E2E2E2E2E2E2E2E2E2E2E2E2E2E2E2E2E2E2E22DE2E2E2F5F5EFF5E2E2E22DE2E2E2E2DCDC0FDCDCE22DF5F5F5F5F5F5F5F5F5E22DE2F5E2F5E2F5F5E22DF5F5F5F5F5F5F5F5F5F5F5F5E2E2E2E2E22D2D2D2D2D2D2D2D2D2D2D2D2D2D
310
2DE2E22D2D2D2D2D2D2D2D2D2DE2E2E22D2D2D2D2D2D2D2DE2E2E22D2D2D2D2D2D2D2D2D2D2D2D2D2D2D2DE2E22D2D2D2D2DE2E2E2E2E2E2E2E2E2E2E2E2E2E2E2E2E2E2E2E2E2E2E2E2E2E2E2E2E2E2E2E2E2E2E2E2E2E2E2E2E2E2E2E2E2E2E2E2E2E2E2E2E2E2E2E22DE2E2E2F5F5EFF5E2E2E22D2D2D2D2D2D2D2D2D2D
310
2D2D2D2D2D2D2D2D2D2D2D2D2D2D2D2D2D2D2D2D2D2D2D2D2D2D2D2D2D2D2D2D2D2D2D2D2D2D2D2D2D2D2D2D2D2D2D2D2D2D2D2D2D2D2D2D2D2D2D2D2D2D2D2D2D2D2D2D2D2D2D2D2D2D2D2D2D2D2D2D2D2D2D2D2D2D2D2D2D2D2D2D2D2D2D2D2D2D2D2D2D2D2D2D2D2D2D2D2D2D2D2D2D2D2D2D2D2D2D2D2D2D2D2D2D2D2D
310
2D2D2D2D2D2D2D2D2D2D2D2D2D2D2D2D2D2D2D2D2D2D2D2D2D2D2D2D2D2D2D2D2DE2E2E2F5F5EFF5E2E2E22DE2E2E2E2E2E2E2E2E2E2E2E2E2E2E2E2E2E2E2E2E2E2E2E2E2E2E2E2E2E2E2E2E2E2E2E2E2E2E2E2E2E2E2E2E2E2E2E2E2E2E2E2E2E2E2E2E2E2E2E2E2E2E2E2E2E2E2E2E2E2E2E2E2E2E2E2E2E2E2E2E2E2E2
310
E2E2E2E2E2E2E2E2E2E2E2E2E2E2E2E2E2E2E2E2E2E2E2E2E2E2E2E2E2E2E2E2E2E2E2E2E2E2E2E2E2E2E2E2E2E2E2E2E2E2E2E2E2E2E2E2E2E2E2E2E2E2E2E2E2E2E2E2E2E2E2E2E2E2E2E2E2E2E2E2E2E2E2E2E22DE2E2E2F5F5EFF5E2E2F52DE2E2E2E2E2E2E2E2E2E2E2E2E2E2E2E2E2E2E2E2E2E2E2E2E2E2E2E2E2E2
310
E2E2E2E2E2E2E2E2E2E2E2E2E2E2E2E2E2E2E2E2E2E2E2E2E2E2E2E2E2E2E2E2E2E2E2E2E2E2E2E2E2E2E2E2E2E2E2E2E2E2E2E2E2E2E2E2E2E2E2E2E2E2E2E2E2E2E2E2E2E2E2E2E2E2E2E2E2E2E2E2E2E2E2E2E2E2E2E2E2E2E2E2E2E2E2E2E2E2E2E2E2E2E2E2E2E2E2E2E2E2E2E2E2E2E2E2E2E2E2E2E2E2E2E2E2E2E2
310
E2E2E2E2E2E2E2E2E2E2E22DF5E2E2F5F5EFF5E2E2F52DE2E2E2E2E2E2E2E2E2E2E2E2E2E2E2E2E2E2E2E2E2E2E2E2E2E2E2E2E2E2E2E2E2E2E2E2E2E2E2E2E2E2E2E2E2E2E2E2E2E2E2E2E2E2E2E2E2E2E2E2E2E2E2E2E2E2E2E2E2E2E2E2E2E2E2E2E2E2E2E2E2E2E2E2E2E2E2E2E2E2E2E2E2E2E2E2E2E2E2E2E2E2E2E2
310
E2E2E2E2E2E2E2E2E2E2E2E2E2E2E2E2E2E2E2E2E2E2E2E2E2E2E2E2E2E2E2E2E2E2E2E2E2E2E2E2E2E2E2E2E2E2E2E2E2E2E2E2E2E2E2E2E2E2E2E2E2E2E2E22DF5E2E2F5F5EFF5E2E2F52DE2E2E2E2E2E2E2E2E2E2E2E2E2E2E2E2E2E2E2E2E2E2E2E2E2E2E2E2E2E2E2E2E2E2E2E2E2E2E2E2E2E2E2E2E2E2E2E2E2E2E2
310
E2E2E2E2E2E2E2E2E2E2E2E2E2E2E2E2E2E2E2E2E2E2E2E2E2E2E2E2E2E2E2E2E2E2E2E2E2E2E2E2E2E2E2E2E2E2E2E2E2E2E2E2E2E2E2E2E2E2E2E2E2E2E2E2E2E2E2E2E2E2E2E2E2E2E2E2E2E2E2E2E2E2E2E2E2E2E2E2E2E2E2E2E2E2E2E2E2E2E2E2E2E2E2E2E2E2E2E2E2E2E2E2E2E2E2E2E22DF5E2E2F5F5EFF5E2E2
310
F52DE2E2E2E2E2E2E2E2E2E2E2E2E2E2E2E2E2E2E2E2E2E2E2E2E2E2E2E2E2E2E2E2E2E2E2E2E2E2E2E2E2E2E2E2E2E2E2E2E2E2E2E2E2E2E2E2E2E2E2E2E2E2E2E2E2E2E2E2E2E2E2E2E2E2E2E2E2E2E2E2E2E2E2E2E2E2E2E2E2E2E2E2E2E2E2E2E2E2E2E2E2E2E2E2E2E2E2E2E2E2E2E2E2E2E2E2E2E2E2E2E2E2E2E2E2
310
E2E2E2E2E2E2E2E2E2E2E2E2E2E2E2E2E2E2E2E2E2E2E2E2E2E2E2E2E2E2E2E2E2E2E2E2E2E2E2E2E2E2E22DF5E2E2F5F5EFF5E2E2F52DE2E2E2E2E2E2E2E2E2E2E2E2E2E2E2E2E2E2E2E2E2E2E2E2E2E2E2E2E2E2E2E2E2E2E2E2E2E2E2E2E2E2E2E2E2E2E2E2E2E2E2E2E2E2E2E2E2E2E2E2E2E2E2E2E2E2E2E2E2E2E2E2
310
E2E2E2E2E2E2E2E2E2E2E2E2E2E2E2E2E2E2E2E2E2E2E2E2E2E2E2E2E2E2E2E2E2E2E2E2E2E2E2E2E2E2E2E2E2E2E2E2E2E2E2E2E2E2E2E2E2E2E2E2E2E2E2E2E2E2E2E2E2E2E2E2E2E2E2E2E2E2E2E2E2E2E2E2E2E2E2E2E2E2E2E2E2E2E2E22DF5E2E2F5F5EFF5E2E2F52DE2E2E2E2E2E2E2E2E2E2E2E2E2E2E2E2E2E2E2
310
E2E2E2E2E2E2E2E2E2E2E2E2E2E2E2E2E2E2E2E2E2E2E2E2E2E2E2E2E2E2E2E2E2E2E2E2E2E2E2E2E2E2E2E2E2E2E2E2E2E2E2E2E2E2E2E2E2E2E2E2E2E2E2E2E2E2E2E2E2E2E2E2E2E2E2E2E2E2E2E2E2E2E2E2E2E2E2E2E2E2E2E2E2E2E2E2E2E2E2E2E2E2E2E2E2E2E2E2E2E2E2E2E2E2E2E2E2E2E2E2E2E2E2E2E2E2E2
310
E2E2E2E2E2E2E2E2E2E2E2E2E2E2E2E2E2E2E2E2E2E22DF5E2E2F5F5EFF5E2E2F52DE2E2E2E2E2E2E2E2E2E2E2E2E2E2E2E2E2E2E2E2E2E2E2E2E2E2E2E2E2E2E2E2E2E2E2E2E2E2E2E2E2E2E2E2E2E2E2E2E2E2E2E2E2E2E2E2E2E2E2E2E2E2E2E2E2E2E2E2E2E2E2E2E2E2E2E2E2E2E2E2E2E2E2E2E2E2E2E2E2E2E2E2E2
310
E2E2E2E2E2E2E2E2E2E2E2E2E2E2E2E2E2E2E2E2E2E2E2E2E2E2E2E2E2E2E2E2E2E2E2E2E2E2E2E2E2E2E2E2E2E2E2E2E2E2E2E2E2E2E2E2E2E2E2E2E2E2E2E2E2E2E2E2E2E2E2E2E2E2E22DF5E2E2F5F5EFF5E2E2F52DE2E2E2E2E2E2E2E2E2E2E2E2E2E2E2E2E2E2E2E2E2E2E2E2E2E2E2E2E2E2E2E2E2E2E2E2E2E2E2E2
310
E2E2E2E2E2E2E2E2E2E2E2E2E2E2E2E2E2E2E2E2E2E2E2E2E2E2E2E2E2E2E2E2E2E2E2E2E2E2E2E2E2E2E2E2E2E2E2E2E2E2E2E2E2E2E2E2E2E2E2E2E2E2E2E2E2E2E2E2E2E2E2E2E2E2E2E2E2E2E2E2E2E2E2E2E2E2E2E2E2E2E2E2E2E2E2E2E2E2E2E2E2E2E2E2E2E2E2E2E2E2E2E2E2E2E2E2E2E2E2E2E2E2E2E2E2E2E2
310
E22DF5E2E2F5F5EFF5E2E2F52DE2E2E2E2E2E2E2E2E2E2E2E2E2E2E2E2E2E2E2E2E2E2E2E2E2E2E2E2E2E2E2E2E2E2E2E2E2E2E2E2E2E2E2E2E2E2E2E2E2E2E2E2E2E2E2E2E2E2E2E2E2E2E2E2E2E2E2E2E2E2E2E2E2E2E2E2E2E2E2E2E2E2E2E2E2E2E2E2E2E2E2E2E2E2E2E2E2E2E2E2E2E2E2E2E2E2E2E2E2E2E2E2E2E2
310
E2E2E2E2E2E2E2E2E2E2E2E2E2E2E2E2E2E2E2E2E2E2E2E2E2E2E2E2E2E2E2E2E2E2E2E2E2E2E2E2E2E2E2E2E2E2E2E2E2E2E2E2E2E22DF5E2E2F5F5EFF5E2E2F52DE2E2E2E2E2E2E2E2E2E2E2E2E2E2E2E2E2E2E2E2E2E2E2E2E2E2E2E2E2E2E2E2E2E2E2E2E2E2E2E2E2E2E2E2E2E2E2E2E2E2E2E2E2E2E2E2E2E2E2E2E2
310
E2E2E2E2E2E2E2E2E2E2E2E2E2E2E2E2E2E2E2E2E2E2E2E2E2E2E2E2E2E2E2E2E2E2E2E2E2E2E2E2E2E2E2E2E2E2E2E2E2E2E2E2E2E2E2E2E2E2E2E2E2E2E2E2E2E2E2E2E2E2E2E2E2E2E2E2E2E2E2E2E2E2E2E2E2E2E2E2E2E2E2E2E2E2E2E2E2E2E2E2E2E2E2E2E2E2E22DF5E2E2F5F5EFF5E2E2F52DE2E2E2E2E2E2E2E2
310
E2E2E2E20F0F0F0F0F0F0F0F0F0F0F0F0F0F0F0F0F0F0F0F0F0F0F0F0F0F0F0F0F0F0F0F0F0F0F0F0F0F0F0F0F0F0F0F0F0F0F0F0F0F0F0F0F0F0F0F0F0F0F0F0F0F0F0F0F0F0F0F0F0F0F0F0F0F0F0F0F0F0F0F0F0F0F0F0F0F0F0F0F0F0F0F0F0F0F0F0F0F0F0F0FE2E2E2E2E2E2E2E2E2E2E2E2E2E2E2E2E2E2E2E2E2E2
310
E2E2E2E2E2E2E2E2E2E2E2E2E2E2E2E2E2E2E2E2E2E2E2E2E2E2E2E2E2E2E2E2E22DF5E2E2F5F5EFF5E2E2F52DE2E2E2E2E2E2E2E2E2E2E2E2E2E2E20F0FE2E2E2E2E2E2E2E2E2E2E2E2E2E2E2E2E2E2E2E2E2E2E2E2E2E2E2E2E2E2E2E2E2E2E2E2E2E20F0F0F0F0F0F0F0F0F0FE2E2E2E2E2E2E2E2E2E2E2E2E2E2E2E2E2
310
E2E2E2E2E2E2E2E2E2E2E2E2E2E2E2E2E2E2E2E20FE2E2E20F0F0FE2E2E20FE2E2E2E2E2E2E2E2E2E2E2E2E2E2E2E2E2E2E2E2E2E2E2E2E2E2E2E2E2E2E2E2E2E2E2E2E2E2E2E2E2E2E2E2E2E2E2E2E2E2E2E2E2E2E22DF5E2E2F5F5EFF5E2E2F52DE2E2E2E2E2E2E2E2E2E2E2E2E2E2E20F0FE2E2E2E2E2E2E2E2E2E2E2E2
310
E2E2E2E2E2E2E2E2E2E2E2E2E2E2E2E2E2E2E2E2E2E2E2E2E2E20F0F0FE20F0FE2E20FE2E2E2E2E2E2E2E2E2E2E2E2E2E2E2E2E2E2E2E2E2E2E2E2E2E2E2E2E2E2E2E2E2E2E2E2E2E20FE2E2E20F0F0FE2E2E20FE2E2E2E2E2E2E2E2E2E2E2E2E2E2E2E2E20FE20FE2E2E2E2E2E2E2E2E2E2E2E2E2E2E2E2E2E2E20F0FE2E2
310
E2E2E2E2E2E2E2E2E2E2E2E22DF5E2E2F5F5EFF5E2E2F52DE2E2E2E2E2E2E2E2E2E2E2E2E2E2E20F0F0F0F0F0F0F0F0F0F0F0F0F0F0F0F0F0F0F0F0F0F0F0F0F0F0F0F0F0F0F0F0F0F0F0F0F0F0F0F0F0F0F0F0F0F0F0F0F0F0F0F0F0F0F0F0F0F0F0F0F0F0F0F0F0F0F0F0F0F0F0F0F0F0F0F0F0F0F0F0F0F0F0F0F0F0F0F
310
E2E2E2E2E2E2E2E2E20FE2E2E2E2E2E2E2E2E2E2E2E2E2E2E2E2E20F0F0F0F0F0F0F0F0F0F0F0F0F0F0F0F0F0F0F0F0F0F0F0FE2E2E2E2E2E2E2E2E2E2E2E2E2E22DF5E2E2F5F5EFF5E2E2F52DE2E2E2E2E2E2E2E2E2E2E2E2E2E2E20F0F0F0FE2E2E2E2E2E2E2E2E2E2E2E2E2E2E20F0F0F0F0F0F0F0F0F0FE2E2E2E2E2E2
310
E2E2E2E2E2E2E2E2E20F0F0F0FE2E2E2E2E2E2E2E2E2E2E2E20F0FE2E2E2E2E2E2E2E2E2E2E20F0F0F0FE2E2E20F0F0FE2E2E20F0FE2E2E2E2E2E2E2E2E20FE2E2E2E2E2E2E2E2E2E2E2E2E2E2E2E2E20FE2E2E2E2E2E2E2E2E20F0F0F0FE2E2E2E2E2E2E2E2E20FE2E2E2E2E2E2E2E2E2E2E2E2E2E22DF5E2E2F5F5EFF5E2
310
E2E22DE2E2E2E2E2E2E2E2E2E2E2E2E2E2E20F0FE2E2E2E2E2E2E2E2E2E2E2E2E2E2E2E2E20F0F0F0F0F0F0F0F0F0FE2E2E2E2E2E2E2E2E2E2E2E2E2E2E2E20FE2E2E2E2E2E2E2E2E2E2E2E2E20F0F0FE2E2E2E2E2E2E2E2E2E2E2E2E20FE2E2E2E20F0F0FE2E2E2E20FE2E2E2E2E2E2E2E2E20FE2E2E2E2E2E2E2E2E2E2E2
310
E2E2E2E2E2E20FE2E2E2E2E2E2E2E2E2E2E2E2E2E2E2E2E2E2E2E2E2E20FE2E2E2E2E2E2E2E2E2E2E2E2E2E22DE2E2E2F5F5EFF5E2E2E22DE2E2E2E2E2E2E2E2E2E2E2E2E2E2E20F0FE2E2E2E2E2E2E2E2E2E2E2E2E2E2E2E2E2E2E2E2E2E2E2E2E2E2E2E2E2E2E2E2E2E2E2E2E2E2E2E2E2E2E20FE2E2E2E2E2E2E2E2E2E2
310
E2E2E2E2E2E2E2E2E2E2E2E2E2E2E2E2E2E2E20FE2E2E20FE2E2E2E2E2E2E20FE2E2E2E2E2E2E2E2E20FE2E2E2E2E2E2E2E2E2E2E2E2E2E2E2E2E20FE2E2E2E2E2E2E2E2E2E2E2E2E2E2E2E2E2E2E2E2E2E20FE2E2E2E2E2E2E2E2E2E2E2E2E2E22DE2E2E2F5F5EFF5E2E2E22DE2E2E2E2E2E2E2E2E2E2E2E2E2E2E20F0FE2
310
E2E2E2E2E2E2E2E2E2E2E2E2E2E2E2E2E2E2E2E2E2E2E2E2E2E2E2E2E2E2E2E2E2E2E2E2E2E2E2E2E2E20FE2E2E2E20F0F0F0F0FE2E2E2E2E2E2E2E2E2E2E2E2E2E2E2E2E2E2E2E20F0F0F0F0FE2E2E2E2E2E2E20FE2E2E2E2E2E2E2E2E20FE2E2E2E2E2E2E2E2E2E2E2E2E2E2E2E2E20FE2E2E20F0F0F0F0F0F0F0F0F0F0F
310
0F0F0F0F0F0FE2E20FE2E2E2E2E2E2E2E2E2E2E2E2E2E22DE2E2E2F5F5EFF5E2E2E22DE2E2E2E2E2E2E2E2E2E2E2E2E2E2E20F0FE2E2E2E2E2E2E2E2E20F0F0F0F0F0F0F0FE2E2E2E2E2E2E2E2E2E2E2E2E2E2E2E2E2E2E2E2E2E2E2E2E2E20FE2E2E2E20F0F0F0F0FE2E2E2E2E2E2E2E2E2E2E2E2E2E2E2E2E2E2E2E20F0F
310
0FE20FE2E2E2E2E2E2E20FE2E2E2E2E2E2E2E2E20FE2E2E2E2E2E2E2E2E2E2E2E2E2E2E2E2E20FE2E2E20FE2E2E2E2E20F0F0F0FE2E2E2E2E2E20FE2E20FE2E2E2E2E2E2E2E2E2E2E2E2E2E22DE2E2E2F5F5EFF5E2E2E22DE2E2E2E2E2E2E2E2E2E2E2E2E2E2E20F0FE2E2E2E2E2E2E2E2E20F0F0F0F0F0F0F0FE2E2E2E2E2
310
E2E2E2E2E2E2E2E2E2E2E2E2E2E2E2E2E2E2E2E2E20FE2E2E2E20F0F0F0F0FE2E2E2E2E2E2E2E2E2E2E2E2E2E2E2E2E2E2E2E20F0F0FE20FE2E2E2E2E2E2E20FE2E2E2E2E2E2E2E2E20FE2E2E2E2E2E2E2E2E2E2E2E2E2E2E2E2E20FE2E2E20FE2E2E2E2E20F0F0F0FE2E2E2E2E2E20FE2E20FE2E2E2E2E2E2E2E2E2E2E2E2
310
E2E22DE2E2E2F5F5EFF5E2E2E22DE2E2E2E2E2E2E2E2E2E2E2E2E2E2E20F0FE2E2E2E2E2E2E2E2E20F0FE20F0F0F0FE2E2E2E2E2E2E2E2E2E2E2E2E2E2E2E2E2E2E2E2E2E2E2E2E2E2E20FE2E2E2E2E2E2E2E20FE2E2E2E2E2E2E2E2E2E2E2E2E2E2E2E2E2E2E2E20FE2E2E20FE2E2E2E2E2E2E20FE2E2E2E2E2E2E2E2E20F
310
E2E2E2E2E2E2E2E2E2E2E2E2E2E2E2E2E20FE2E2E20FE2E2E2E2E2E2E2E2E2E2E2E2E2E2E20FE2E20FE2E2E2E2E2E2E2E2E2E2E2E2E2E22DE2E2E2F5F5EFF5E2E2E22DE2E2E2E2E2E2E2E2E2E2E2E2E2E2E20FF5F5F5F5F5F5F5F5F5F5F5F5F5F5F5F5E2E2E2E2E2E2E2E2E2E2E2E2E2E2F5F5F5F5F5F5F5F5F5F5F5F5F5F5
310
F5E2E2E2E2E2E2E2E2E20FE2E2E2E2E2E2E2E2E2E2E2E2E2E2E2E2E2E2E20FE2E2E20FE2E2E2E2E2E2E20FE2E2E2E2E2E2E2E2E20FE2E2E2E2E2E2E2E2E2E2E2E2E2E2E2E2E20FE2E2E20FE2E2E2E2E2E2E2E2E2E2E2E2E2E2E20FE2E20FE2E2E2E2E2E2E2E2E2E2E2E2E2E22DE2E2E2F5F5EFF5E2E2E22DE2E2E2E2E2E2E2
310
E2E2E2E2E2E2E2E20FF5E2E2E2E2E2E2E2E20FE2E2E2E2E2F5F5F5F5F5F5F5F5F5F5F5F5F5F5F5F5E2E2E2E2E2E2E2E2E2E2E2E2E2F5F5F5F5E2E2E2E2E2F50FF5F5F5F5F5F5F5F5F5F5F5F5F5F5F5F5F5F5F5F5E2E2E20FE2E2E2E2E2E2E20FE2E2E2E2E2E2E2E2E20FE2E2E2E2E2E2E2E2E2E2E2E2E2E2E2E2E20FF5F5F5
310
0FF5F5F5F5F5F5F5F5F5F5F5F5F5F5F50FF5F50FE2E2E2E2E2E2E2E2E2E2E2E2E2E22DE2E2E2F5F5EFF5E2E2F52DE2E2E2E2E2E2E2E2E2E2E2E2E2E2E20FF5E2E2E2E2E2E2E2E20FE2E2E2E2E2F5E2E2E2E2E2E2E2E2E2E2E2E2E2E2F5E2E2E2E2E2E2E2E2E2E2E2E2E2F5F5F5F5F5F5F5E2E2F50F0FF5F5F5F5F5F5F5F5F5
310
F5F5F5F5F5F5F5F5F5F5E2E2E20FE2E2E2E2E2E2E20FE2E2E2E2E2E2E2E2E20FE2E2E2E2E2E2E2E2E2E2E2E2E2E2E2E2E20FF5E2E20FE2E2E2E2E2E2E2E2E2E2E2E2E2E2E20FE2E20FE2E2E2E2E2E2E2E2E2E2E2E2E2E22DF5E2E2F5F5EFF5E2E2F52DE2E2E2E2E2E2E2E2E2E2E2E2E2E2E20FF5E2E2E2E2E2E2E2E20FE2E2
310
E2E2E2F5E2E2E2E2E2E2E2E2E2E2E2E2E2E2F5E2E2E2E2E2E2E2E2E2E2E2E2E2F5F5E2F5F5E2F5F5F5F5F50FF5F5F5E2E2E2E2E2E2E2E2E2E2E2E2E2E2E2F5E2E2E20FE2E2E2E2E2E2E20FE2E2E2E2E2E2E2E2E20FE2E2E2E2E2E2E2E2E2E2E2E2E2E2E2E2E2F5F5E2F5F5F5E2E2E2E2E2E2E2E2E2E2E2E2E2F5F5F5E2F5E2
310
E2E2E2E2E2E2E2E2E2E2E2E2E22DF5E2E2F5F5EFF5E2E2F52DE2E2E2E2E2E2E2E2E2E2E2E2E2E2E20FF5E2E2E2E2E2E2E2E20FE2E2E2E2E2F5E2E2E2E2E2E2E2E2E2E2E2E2E2E2F5E2E2E2E2E2E2E2E2E2E2E2E2E2F5F5E2F5F5F5F5E2E2F5F5F5F5F5F5E2E2F5F5F5F5F5F5E2E2E2E2E2E2E2F5E2E2E20FE2E2E2E2E2E2E2
310
0FE2E2E2E2E2E2E2E2E20FE2E2E2E2E2E2E2E2E2E2E2E2E2E2E2E2E2F5F5BEF5BEF5BEE2E2E2E2E2BEE2E2E2E2E2BEF5BEF5BEF5E2E2E2E2E2E2E2E2E2E2E2E2E2E22DF5E2E2F5F5EFF5E2E2F52DE2E2E2E2E2E2E2E2E20F0F0F0F0F0FF5F5E2E2E2E2E2E2E20FE2E2E2E2E2E2F5E2E2E2E2E2E2E2E2E2E2E2E2E2E2F5E2E2
310
E2E2E2E2E2E2E2E2E2E2E2F5F5E2F5F5E2F5E2E2F5F5F5F5E2F5F5F5E2E2E2E2E2F5F5E2E2E2E2E2E2F5F5F5F5F50F0F0F0F0F0F0F0F0F0F0F0F0F0F0F0F0F0F0F0F0F0F0F0FE2E2E2E2E2E2E2E2E2E2E2F5F5E2F5F5F5E2E2E2F5F5F5BEF5F5F5E2E2E2F5F5F5E2F5E2E2E2E2E2E2E2E2E2E2E2E2E2E22DF5E2E2F5F5EFF5
310
E2E2F52DE2E2E2E2E2E2E2E2E20F0FE2E2E2E2F5F5E2E2E2E2E2E2E20FE2E2E2E2E2E2F5E2E2E2E2E2E2E2E2E2E2E2E2E2E2F5E2E2E2E2E2E2E2BEE2E2E2E2E2F5F5E2F5F5F5F5E2E2F5F5F5F5F5F5F5E2E2E2E2E2E2E2E2F5F5E2E2E2E2F5E2E2E2F5E2E2E2E2E2E2E20FE2E2E2E2E2E2E2E2E20FE2E2E2E2E20FE2E2E2E2
310
E2E2E2E2E2E2E2F5F5E2E2BEE2E2F5F5E2E2E2BEE2E2E2F5E2E2E2BEE2E2F5E2E2E2E2E2E2E2E2E2E2E2E2E2E22DF5E2E2F5F5EFF5E2E2F52DE2E2E2E2E2E2E2E2E20FE2E20FE2E2F5F5E2E2E2E2F5BEF5F5E2E2E2E2E2E2F5E2E2E2E2E2E2E2E2E2E2E2E2E2E2F5E2E2E2E2E2E2F5BEF5F5E2E2E2F5F5E2F5E2E2E2E2E2F5
310
E2F5F5F5E2E2E2E2E2E2E2E2E2E2E2F5F5E2E2E2F5E2E2E2F5E2E2E2E2E2E2E20FE2E2E2F5F5F5E2E2E20FE2E2E2E2E20FE2E2E2E2E2E2E2E2E2E2E2F5F5E2E2E2E2F5F5E2E2E2E2BEE2E2E2E2F5E2E2E2E2E2F5E2E2E2E2E2E2E2E2E2E2E2E2E2E22DF5E2E2F5F5EFF5E2E2F52DE2E2E2E2E2E2E2E2E20FE2E20FE2E2F5F5
310
E2E2E2F5F5BEF5F5F5E2E2E2E2E2F5E2E2E2E2E2E2E2E2E2E2E2E2E2E2F5E2E2E2E2E2F5F5BEF5F5F5E2E2F5F5E2F5E2E2E2E2E2F5E2E20FE2E2E2E2E2E2E2E2E2E2E2E2E2F5E2E2E2F5E2E2E2F5F5F5F5F5F5E2E20FE2E2E2F5E2F5E2E2E20FE2E2E2E2E20FE2E2E2E2E2E2E2E2E2E2E2F5F5E2E2E2E2F5E2E2E2E2F5BEF5
310
F5E2E2E2F5E2E2E2E2F5E2E2E2E2E2E2E2E2E2E2E2E2E2E22DF5E2E2F5F5EFF5E2E2F52DE2E2E2E2E2E2E2E2E20FE2E20FE2E2F5F5E2E2E2F5E2BEE2E2F5E2E2E2E2E2F5E2E2E2E2E2E2E2E2E2E2E2E2E2E2F5E2E2E2E2E2F5E2BEE2E2F5E2E2F5F5E2F5E2E2E2E2E2F5E2E2F5E2E2E2E2E2E2E2E2E2E2E2E2E2E2F5E2E2F5
310
E2E2E2F5E2E2E2E2F50F0F0F0F0F0F0F0F0F0F0F0F0F0F0F0FE2E20FE2E2E2E2E2E2E2E2E2E2E2F5F5E2E2E2F5E2E2E2F5F5E2BEE2E2F5E2E2F5E2E2E2E2F5E2E2E2E2E2E2E2E2E2E2E2E2E2E22DF5E2E2F5F5EFF5E2E2F52DE2E2E2E2E2E2E2E20F0F0F0F0F0F0F0F0F0F0F0FBEBEBEBEBEBEE2E2E2E2E2F5E2E2E2E2E2E2
310
E2E2E2E2E2E2E2E2F5E2E2E2E2BEBEBEBEBEBEBEE2E2F5F5E2F5E2E2E2E2E2F5E2F5F5E2E2E2E2E2E2E2E2E2E2E2E2E2E2F5E2E2F5E2E2E2F5E2E2E2E2F5F5F5F5E2E2E2F5F5F5E2E2E20FE2E20F0F0F0FE2E2E2E2E2E2E2E2E2E2E2F5F5E2E2E2F5E2E2F5E2F5F5BEF5F5E2F5E2E2F5E2E2E2F5E2E2E2E2E2E2E2E2E2E2E2
310
E2E2E22DF5E2E2F5F5EFF5E2E2F52DE2E2E2E2E2E2E20F0F0F0F0F0FE2E2F5F5E2E2E2F5F5BEE2F5F5E2E2E2E2E2F5E2E2E2E2E2E2E2E2E2E2E2E2E2E2F5E2E2E2E2E2F5F5BEE2F5F5E2E2F5F5E2F5E2E2E2E2E2F5E2F5E2E2E2E2E2E2E2E2E2E2E2E2E2E2E2F5E2E2F5E2E2E2F5E2E2E2E2F5F5E2F5E2E2E2F5E2F5E2E2E2
310
F50F0F0F0F0F0FE2E2E2E2E2E2E2E2E2E2E2F5F5E2E2F5E2E2E2F5F5F5F5BEF5F5E2F5E2E2F5E2E2E2F5E2E2E2E2E2E2E2E2E2E2E2E2E2E22DF5E2E2F5F5EFF5E2E2F52DE2E2E2E2E2E2E20F0F0F0F0F0F0F0FF5F5BEBEBEF5F5BEF5F5F5BEBEBEBEBEF5BEBEBEBEBEBEBEBEBEBEBEBEBEBEF5BEBEBEBEBEF5F5BEF5F5BEBE
310
BEF5F5BEF5BEBEBEBEBEF5BEF5BEBEBEBEBEBEBEBEBEBEBEBEBEBEBEF5BEBEF5BEBEBEF5BEBEBEBEF5F5BEF5BEBEBEF5BEF5BEBEBEF50F0F0F0F0F0FE2E2E2E2E2E2E2E2E2E2E2F5F5E2E2BEBEBEBEBEBEBEBEBEBEBEBEBEBEBEBEBEE2E2F5E2E2E2E2E2E2E2E2E2E2E2E2E2E22DF5E2E2F5F5EFF5E2E2F52DE2E2E2E2E2E2
310
E20F0F0FE2E20FE2E2F5F5E2E2E2E2E20FE2E2E2F5BEE2E2E2F5E2E2E2E2E2E2E2E2E2E2E2E2E2E2F5E2E2F5BEF5E2E20FE2E2E2E2E2F5F5E2F5E2E2E2E2E2F5E2F5E2E2E2E2E2E2E2E2E2E2E2E2E2E2E2F5E2E2F5E2E2E2F5E2E2E2E2F5F5E2F5E2E2E2F5E2F5E2E2E2F50F0F0FE20F0FE2E2E2E2E2E2E2E2E2E2E2F5F5E2
310
E2F5E2E2E2F5F5F5F5BEF5F5E2F5E2E2F5E2E2E2F5E2E2E2E2E2E2E2E2E2E2E2E2E2E22DF5E2E2F5F5EFF5E2E2F52DE2E2E2E2E2E2E2E2E20FE2E20FE2E2F5F5E2E2E2E2E20FE2E2F5F5BEF5E2E2F5E2E2E2E2E2E2E2E2E2E2E2E2E2E2F5E2E2F5BEF5F5E20FE2E2E2E2E2F5F5E2F5E2E2E2E2E2F5E2F5F5E2E2E2E2E2E2E2
310
E2E2E2E2E2E2E2F5E2E2F5E2E2E2F5E2E2E2E2F5F5F5F5E2E2E2F5F5F5E2E2E2F5E2E20F0F0F0FE2E2E2E2E2E2E2E2E2E2E2F5F5E2E2E2F5E2E2F5E2F5F5BEF5F5E2F5E2E2F5E2E2E2F5E2E2E2E2E2E2E2E2E2E2E2E2E2E22DF5E2E2F5F5EFF5E2E2F52DE2E2E2E2E2E2E2E2E20FE2E20FE2E2F5F5E2E2E2E2E20FE2BEBEBE
310
BEBEBEE2F5E2E2E2E2E2E2E2E2E2E2E2E2E2E2F5BEBEBEBEBEBEBE0FE2E2E2E2E2F5F5E2F5E2E2E2E2E2F5E2E2F5E2E2E2E2E2E2E2E2E2E2E2E2E2E2F5E2E2F5E2E2E2F5E2E2E2E2F50F0F0F0F0F0F0F0F0F0F0F0F0F0F0F0FE2E20FE2E2E2E2E2E2E2E2E2E2E2F5F5E2E2E2F5E2E2E2F5E2E2BEE2F5F5E2E2F5E2E2E2E2F5
310
E2E2E2E2E2E2E2E2E2E2E2E2E2E22DF5E2E2F5F5EFF5E2E2F52DE2E2E2E2E2E2E2E2E20FE2E2E2E2E2F5F5E2E2E2E2E20FE2E2F5F5BEF5E2E2F5E2E2E2E2E2E2E2E2E2E2E2E2E2E2F5E2E2F5BEF5F5E20FE2E2E2E2E2F5F5E2F5E2E2E2E2E2F5E2E2F5E2E2E2E2E2E2E2E2E2E2E2E2E2F5E2E2E2F5E2E2E2F5F5F5F5F5F5E2
310
E2E2E20F0FF5E2F5E2E2E2E2E2E2E2E2E20FE2E2E2E2E2E2E2E2E2E2E2F5F5E2E2E2E2F5E2E2E2F5F5BEF5E2E2E2E2F5E2E2E2E2F5E2E2E2E2E2E2E2E2E2E2E2E2E2E22DF5E2E2F5F5EFF5E2E2F52DE2E2E2E2E2E2E2E2E20FE2E2E2E2E2F5F5E2E2E2E2E20FE2E2E2E2BEE2E2E2F5E2E2E2E2E2E2E2E2E2E2E2E2E2E2F5E2
310
E2E2BEE2E2E20FE2E2E2E2E2F5F5E2F5E2E2E2E2E2F5E2E2E2F5E2E2E2E2E2E2E2E2E2E2E2F5F5E2E2E2F5E2E2E2F5E2E2E2E2E2E2E2E2E20FE2F5F5F5E2E2E2E2E2E2E2E2E20FE2E2E2E2E2E2E2E2E2E2E2F5F5E2E2E2E2F5F5E2E2E2E2BEE2E2E2E2F5E2E2E2E2E2F5E2E2E2E2E2E2E2E2E2E2E2E2E2E22DF5E2E2F5F5EF
310
F5E2E2E22DE2E2E2E2E2E2E2E2E20F0FE2E2E2E2F5F5E2E2E2E2E20FE2E2E2E2BEE2E2E2F5E2E2E2E2E2E2E2E2E2E2E2E2E2E2F5E2E2E2BEE2E2E20FE2E2E2E2E2F5F5E2F5F5F5F5E2E2F5E2E2E2E2F5F5E2E2E2E2E2E2E2E2F5F5E2E2E2E2F5E2E2E2F5E2E2E2E2E2E2E2E2E2E20FE2E2E2E2E2E2E2E2E2E2E2E20FE2E2E2
310
E2E2E2E2E2E2E2E2F5F5E2E2BEE2E2F5F5E2E2E2BEE2E2E2F5E2E2E2BEE2E2F5E2E2E2E2E2E2E2E2E2E2E2E2E2E22DE2E2E2F5F5EFF5E2E2E22DE2E2E2E2E2E2E2E2E20F0F0F0F0F0FF5F5E2E2E2E2E20FE2E2E2E2E2E2E2E2F5E2E2E2E2E2E2E2E2E2E2E2E2E2E2F5E2E2E2E2E2E2E20FE2E2E2E2E2F5F5E2F5F5E2F5E2E2
310
F5E2E2E2E2E2F5F5E2E2E2E2E2F5F5E2E2E2E2E2E2F5F5F5F5F50F0F0F0F0F0F0F0F0F0F0F0F0F0F0F0F0F0F0F0F0F0F0F0FE2E2E2E2E2E2E2E2E2E2E2F5F5E2F5F5F5E2E2E2F5F5F5BEF5F5F5E2E2E2F5F5F5E2F5E2E2E2E2E2E2E2E2E2E2E2E2E2E22DE2E2E2F5F5EFF5E2E2E22DE2E2E2E2E2E2E2E2E2E2E2E2E2E2E2E2
310
F5E2E2E2E2E20FE2E2E2E2E2E2E2E2F5E2E2E2E2E2E2E2E2E2E2E2E2E2E2F5E2E2E2E2E2E2E20FE2E2E2E2E2F5F5E2F5F5F5F5E2E2F5E2E2E2E2E2E2E2F5F5F5F5F5F5E2E2E2E2E2E2E2F5E2E2E2E2E2E2E2E2E2E2E2E2E2E2E20FE2E2E2E2E2E2E2E2E2E2E2E2E2E2E2E2E2E2E2E2E2E2E2F5F5BEF5BEF5BEE2E2E2E2E2BE
310
E2E2E2E2E2BEF5BEF5BEF5E2E2E2E2E2E2E2E2E2E2E2E2E2E22DE2E2E2F5F5EFF5E2E2E22DE2E2E2E2E2E2E2E2E2E2E2E2E2E2E2E2F5E2E2E2E2E20FE2E2E2E2E2E2E2E2F5E2E2E2E2E2E2E2E2E2E2E2E2E2E2F5E2E2E2E2E2E2E20FE2E2E2E2E2F5F5E2F5F5E2F5F5F5F5E2E2E2E2E2E2E2E2E2E2E2E2E2E2E2E2E2E2E2E2
310
F5E2E2E2E2E2E2E2E2E2E2E2E2E2E2E20FE2E2E2E2E2E2E2E2E2E2E2E2E2E2E2E2E2E2E2E2E2E2E2F5F5E2F50FF5E2E2E2E2E2E2E2E2E2E2E2E2E2F5F5F5E2F5E2E2E2E2E2E2E2E2E2E2E2E2E2E22DE2E2E2F5F5EFF5E2E2E22DE2E2E2E2E2E2E2E2E2E2E2E2E2E2E2E2F5E2E2E2E2E20FE2E2E2E2E2E2E2E2F5E2E2E2E2E2
310
E2E2E2E2E2E2E2E2E2F5E2E2E2E2E2E2E20FE2E2E2E2E2F5F5F5F5F5F5F5E2E2F5F5F5F5F5F5F5F5F5F5F5F5F5F5F5F5F5F5F5F5F5F5E2E2E2E2E2E2E2E2E2E2E2E2E2E2E20FE2E2E2E2E2E2E2E2E2E2E2E2E2E2E2E2E2E2E2E2E2E2E2F5F5E2E20F0FE2E2E2E2E2E2E2E2E2E2E2E2E2E2BEE2E2F5E2E2E2E2E2E2E2E2E2E2
310
E2E2E2E22DE2E2E2F5F5EFF5E2E2E22DE2E2E2E2E2E2E2E2E2E2E2E2E2E2E2E2F5E2E2E2E2E20FE2E2E2E2E2E2E2E2F5F5F5F5F5F5F5F5F5F5F5F5F5F5F5F5E2E2E2E2E2E2E20FE2E2E2E2E2F5F5F5F5E2E2E2E2E2F5F5F5F5F5F5F5F5F5F5F5F5F5F5F5F5F5F5F5F5F5F5E2E2E2E2E2E2E2E2E2E2E2E2E2E2E2E20FE2E2E2
310
E2E2E2E2E2E2E2E2E2E2E2E2E2E2E2E2E2E2E2E2F5F5F50F0FF5F5F5F5F5F5F5F5F5F5F5F5F5F5F5F5F5F5E2E2E2E2E2E2E2E2E2E2E2E2E2E22DE2E2E2F5F5EFF5E2E2E22DE2E2E2E2E2E2E2E2E2E2E2E2E2E2E2E20FF5F5F5F5F50FF5F5F5F5F5F5F5F50FE2E2E2E2E2E2E2E2E2E2E2E2E2E20FF5F5F5F5F5F5F50FF5F5F5
310
F5F50FE2E2E2E2E2E2E2E2E2E2E2E2E2E2E2E2E2E2E2E2E2E2E2E2E2E2E2E2E2E2E2E2E2E2E2E2E2E2E2E2E2E2E2E2E2E20F0F0F0F0F0F0F0F0F0FE2E2E2E2E2E2E2E2E2E2E2E2E2E2E2E2E2E20FE2E2E2E2E2E2E2E2E2E2E2E2E2E2E2E2E2E2E2E2E2E2E2E2E2E2E2E2E2E2E2E22DE2E2E2F5F5EFF5E2E2E22DE2E2E2E2E2
310
E2E2E2E2E2E2E2E2E2E2E20FE20FE2E20F0FE2E2E2E2E2E2E2E20FE2E2E2E2E2E2E2E2E2E2E2E2E2E20FE2E2E2E2E2E2E20FE20FE2E20F0FE2E2E2E2E2E2E2E2E2E2E2E2E2E2E2E2E2E2E2E2E2E2E2E2E2E2E2E2E2E2E2E2E2E2E2E2E2E2E2E2E2E2E2E2E2E2E20F0F0F0F0F0F0F0FE2E2E2E2E2E2E2E2E2E2E2E2E2E2E2E2
310
E2E2E2E20FE2E2E2E2E2E2E2E2E2E2E2E2E2E2E2E2E2E2E2E2E2E2E2E2E2E2E2E2E2E2E22DE2E2E2F5F5EFF5E2E2F52DE2E2E2E2E2E2E2E2E2E2E2E2E2E2E2E20F0F0F0F0F0F0FE2E2E2E2E2E2E2E20FE2E2E2E2E2E2E2E2E2E2E2E2E2E20FE2E2E2E2E2E2E20F0F0F0F0F0F0FE2E2E2E2E2E2E2E2E2E2E2E2E2E2E2E2E2E2
310
E2E2E2E2E2E2E2E2E2E2E2E2E2E2E2E2E2E2E2E2E2E2E2E2E2E2E2E2E2E2E2E2E2E2E2E2E2E2E2E2E2E2E2E2E2E2E2E2E2E2E2E2E2E2E2E2E20FE2E2E2E2E2E2E2E2E2E2E2E2E2E2E2E2E2E2E2E2E2E2E2E2E2E2E2E2E2E2E22DF5E2E2F5F5EFF5E2E2F52DE2E2E2E2E2E2E2E2E2E2E2E2E2E2E2E20FE20F0F0F0FE2E2E2E2
310
E2E2E2E2E20FE2E2E2E2E2E2E2E2E2E2E2E2E2E20FE2E2E2E2E2E2E2E2E20F0F0F0F0FE2E2E2E2E2E2E2E2E2E2E2E2E2E2E2E2E2E2E2E2E2E2E2E2E2E2E2E2E2E2E2E2E2E2E2E2E2E2E2E2E2E2E2E2E2E2E2E2E2E2E2E2E2E2E2E2E2E2E2E2E2E2E2E2E2E2E2E2E2E2E2E2E2E2E20F0F0F0F0F0F0F0F0F0F0FE2E2E2E2E2E2
310
E2E2E2E2E2E2E2E2E2E2E2E2E2E2E22DF5E2E2F5F5EFF5E2E2F52DE2E2E2E2E2E2E2E2E2E2E2E2E2E2E2E20FE2E2E2E2E2E2E2E2E2E2E2E2E2E20FE2E2E2E2E2E2E2E2E2E2E2E2E2E20FE2E2E2E2E2E2E2E2E2E2E2E2E20FE2E2E2E2E2E2E2E2E2E2E2E2E2E2E2E2E2E2E2E2E2E2E2E2E2E2E2E2E2E2E2E2E2E2E2E2E2E2E2
310
E2E2E2E2E2E2E2E2E2E2E2E2E2E2E2E2E2E2E2E2E2E2E2E2E2E2E2E2E2E2E2E2E2E2E2E2E2E20F0F0F0F0F0F0F0F0FE2E2E2E2E2E2E2E2E2E2E2E2E2E2E2E2E2E2E2E2E22DF5E2E2F5F5EFF5E2E2F52DE2E2E2E2E2E2E2E2E2E2E2E2E2E2E2E20FE2E2E2E2E2E2E2E2E2E2E2E2E2E20FE2E2E2E2E2E2E2E2E2E2E2E2E2E20F
310
E2E2E2E2E2E2E2E2E2E2E2E2E20FE2E2E2E2E2E2E2E2E2E2E2E2E2E2E2E2E2E2E2E2E2E2E2E2E2E2E2E2E2E2E2E2E2E2E2E2E2E2E2E2E2E2E2E2E2E2E2E2E2E2E2E2E2E2E2E2E2E2E2E2E2E2E2E2E2E2E2E2E2E2E2E2E2E2E2E2E20FE20F0F0F0F0F0FE2E2E2E2E2E2E2E2E2E2E2E2E2E2E2E2E2E2E2E2E2E22DF5E2E2F5F5
310
EFF5E2E2F52DE2E2E2E2E2E2E2E2E2E2E2E2E2E2E2E20F0F0F0F0F0F0F0F0F0F0F0F0F0F0F0FE2E2E2E2E2E2E2E2E2E2E2E2E2E20F0F0F0F0F0F0F0F0F0F0F0F0F0F0FE2E2E2E2E2E2E2E2E2E2E2E2E2E2E2E2E2E2E2E2E2E2E2E2E2E2E2E2E2E2E2E2E2E2E2E2E2E2E2E2E2E2E2E2E2E2E2E2E2E2E2E2E2E2E2E2E2E2E2E2
310
E2E2E2E2E2E2E2E2E2E2E2E2E2E2E2E2E2E2E2E2E2E2E2E2E2E2E2E2E2E2E2E2E2E2E2E2E2E2E2E2E2E2E2E2E2E2E22DF5E2E2F5F5EFF5E2E2F52DE2E2E2E2E2E2E2E2E2E2E2E2E2E2E2E2E2E2E2E2E2E2E20F0FE2E2E2E2E2E2E2E2E2E2E2E2E2E2E2E2E2E2E2E2E2E2E2E2E2E2E2E20F0FE2E2E2E2E2E2E2E2E2E2E2E2E2
310
E2E2E2E2E2E2E2E2E2E2E2E2E2E2E2E2E2E2E2E2E2E2E2E2E2E2E2E2E2E2E2E2E2E2E2E2E2E2E2E2E2E2E2E2E2E2E2E2E2E2E2E2E2E2E2E2E2E2E2E2E2E2E2E2E2E2E2E2E2E2E2E2E2E2E2E2E2E2E2E2E2E2E2E2E2E2E2E2E2E2E2E2E2E2E2E2E2E2E2E22DF5E2E2F5F5EFF5E2E2F52DE2E2E2E2E2E2E2E2E2E2E2E2E2E2E2
310
E2E2E2E2E2E2E2E20F0FE2E2E2E2E2E2E2E2E2E2E2E2E2E2E2E2E2E2E2E2E2E2E2E2E2E2E20F0F0FE2E2E2E2E2E2E2E2E2E2E2E2E2E2E2E2E2E2E2E2E2E2E2E2E2E2E2E2E2E2E2E2E2E2E2E2E2E2E2E2E2E2E2E2E2E2E2E2E2E2E2E2E2E2E2E2E2E2E2E2E2E2E2E2E2E2E2E2E2E2E2E2E2E2E2E2E2E2E2E2E2E2E2E2E2E2E2
310
E2E2E2E2E2E2E2E2E2E2E2E2E2E2E2E2E2E2E2E2E2E2E2E2E2E22DF5E2E2F5F5EFF5E2E2F52DE2E2E2E2E2E2E2E2E2E2E2E2E2E2E2E2E2E2E2E2E2E2E2E2E2E2E2E2E2E2E2E2E2E2E2E2E2E2E2E2E2E2E2E2E2E2E2E2E2E2E2E2E2E2E2E2E2E2E2E2E2E2E2E2E2E2E2E2E2E2E2E2E2E2E2E2E2E2E2E2E2E2E2E2E2E2E2E2E2
310
E2E2E2E2E2E2E2E2E2E2E2E2E2E2E2E2E2E2E2E2E2E2E2E2E2E2E2E2E2E2E2E2E2E2E2E2E2E2E2E2E2E2E2E2E2E2E2E2E2E2E2E2E2E2E2E2E2E2E2E2E2E2E2E2E2E2E2E2E2E2E2E2E2E2E2E2E2E2E22DF5E2E2F5F5EFF5E2E2F52DE2E2E2E2E2E2E2E2E2E2E2E2E2E2E2E2E2E2E2E2E2E2E2E2E2E2E2E2E2E2E2E2E2E2E2E2
310
E2E2E2E2E2E2E2E2E2E2E2E2E2E2E2E2E2E2E2E2E2E2E2E2E2E2E2E2E2E2E2E2E2E2E2E2E2E2E2E2E2E2E2E2E2E2E2E2E2E2E2E2E2E2E2E2E2E2E2E2E2E2E2E2E2E2E2E2E2E2E2E2E2E2E2E2E2E2E2E2E2E2E2E2E2E2E2E2E2E2E2E2E2E2E2E2E2E2E2E2E2E2E2E2E2E2E2E2E2E2E2E2E2E2E2E2E2E2E2E2E2E2E2E2E2E2E2
310
E2E2E2E2E22DF5E2E2F5F5EFF5E2E2F52DE2E2E2E2E2E2E2E2E2E2E2E2E2E2E2E2E2E2E2E2E2E2E2E2E2E2E2E2E2E2E2E2E2E2E2E2E2E2E2E2E2E2E2E2E2E2E2E2E2E2E2E2E2E2E2E2E2E2E2E2E2E2E2E2E2E2E2E2E2E2E2E2E2E2E2E2E2E2E2E2E2E2E2E2E2E2E2E2E2E2E2E2E2E2E2E2E2E2E2E2E2E2E2E2E2E2E2E2E2E2
310
E2E2E2E2E2E2E2E2E2E2E2E2E2E2E2E2E2E2E2E2E2E2E2E2E2E2E2E2E2E2E2E2E2E2E2E2E2E2E2E2E2E2E2E2E2E2E2E2E2E2E2E2E2E2E2E2E2E22DF5E2E2F5F5EFF5E2E2F52DE2E2E2E2E2E2E2E2E2E2E2E2E2E2E2E2E2E2E2E2E2E2E2E2E2E2E2E2E2E2E2E2E2E2E2E2E2E2E2E2E2E2E2E2E2E2E2E2E2E2E2E2E2E2E2E2E2
310
E2E2E2E2E2E2E2E2E2E2E2E2E2E2E2E2E2E2E2E2E2E2E2E2E2E2E2E2E2E2E2E2E2E2E2E2E2E2E2E2E2E2E2E2E2E2E2E2E2E2E2E2E2E2E2E2E2E2E2E2E2E2E2E2E2E2E2E2E2E2E2E2E2E2E2E2E2E2E2E2E2E2E2E2E2E2E2E2E2E2E2E2E2E2E2E2E2E2E2E2E2E2E2E2E2E2E2E2E2E2E22DF5E2E2F5F5EFF5E2E2F52DE2E2E2E2
310
E2E2E2E2E2E2E2E2E2E2E2E2E2E2E2E2E2E2E2E2E2E2E2E2E2E2E2E2E2E2E2E2E2E2E2E2E2E2E2E2E2E2E2E2E2E2E2E2E2E2E2E2E2E2E2E2E2E2E2E2E2E2E2E2E2E2E2E2E2E2E2E2E2E2E2E2E2E2E2E2E2E2E2E2E2E2E2E2E2E2E2E2E2E2E2E2E2E2E2E2E2E2E2E2E2E2E2E2E2E2E2E2E2E2E2E2E2E2E2E2E2E2E2E2E2E2E2
310
E2E2E2E2E2E2E2E2E2E2E2E2E2E2E2E2E2E2E2E2E2E2E2E2E2E2E2E2E2E2E2E2E2E2E2E2E22DF5E2E2F5F5EFF5E2E2F52DE2E2E2E2E2E2E2E2E2E2E2E2E2E2E2E2E2E2E2E2E2E2E2E2E2E2E2E2E2E2E2E2E2E2E2E2E2E2E2E2E2E2E2E2E2E2E2E2E2E2E2E2E2E2E2E2E2E2E2E2E2E2E2E2E2E2E2E2E2E2E2E2E2E2E2E2E2E2
310
E2E2E2E2E2E2E2E2E2E2E2E2E2E2E2E2E2E2E2E2E2E2E2E2E2E2E2E2E2E2E2E2E2E2E2E2E2E2E2E2E2E2E2E2E2E2E2E2E2E2E2E2E2E2E2E2E2E2E2E2E2E2E2E2E2E2E2E2E2E2E2E2E2E2E2E2E2E2E2E2E2E2E2E2E2E2E2E2E2E22DF5E2E2F5F5EFF5E2E2F52DE2E2E2E2E2E2E2E2E2E2E2E2E2E2E2E2E2E2E2E2E2E2E2E2E2
310
E2E2E2E2E2E2E2E2E2E2E2E2E2E2E2E2E2E2E2E2E2E2E2E2E2E2E2E2E2E2E2E2E2E2E2E2E2E2E2E2E2E2E2E2E2E2E2E2E2E2E2E2E2E2E2E2E2E2E2E2E2E2E2E2E2E2E2E2E2E2E2E2E2E2E2E2E2E2E2E2E2E2E2E2E2E2E2E2E2E2E2E2E2E2E2E2E2E2E2E2E2E2E2E2E2E2E2E2E2E2E2E2E2E2E2E2E2E2E2E2E2E2E2E2E2E2E2
310
E2E2E2E2E2E2E2E2E2E2E2E2E2E2E2E22DF5E2E2F5F5EFF5E2E2F52DE2E2E2E2E2E2E2E2E2E2E2E2E2E2E2E2E2E2E2E2E2E2E2E2E2E2E2E2E2E2E2E2E2E2E2E2E2E2E2E2E2DCE2E2E2E2E2E2E2E2E2E2E2E2E2E2E2E2E2E2E2E2E2E2E2E2E2E2E2E2E2E2E2E2E2E2E2E2E2E2E2E2E2E2E2E2E2E2E2E2E2E2E2E2E2E2E2E2E2
310
E2E2E2E2E2E2E2E2E2E2E2E2E2E2E2E2E2E2E2E2E2E2E2E2E2E2E2E2E2E2E2E2E2E2E2E2E2E2E2E2E2E2E2E2E2E2E2E2E2E2E2E2E2E2E2E2E2E2E2E2E2E2E2E2E2E2E2E2E22DF5E2E2F5F5EFF5E2E2F52DE2E2E2E2E2E2E2E2E2E2E2E2E2E2E2E2F5F5F5F5F5F5F5F5F5F5F5F5F5F5F5F5E2E2E2E2E2E2E2E2E2DCE2E2E2E2
310
F5F5F5F5F5F5F5F5F5F5F5F5F5F5F5E2E2E2E2E2E2E2E2E2E2E2E2E2E2E2E2E2E2E2E2E2E2E2E2E2E2E2E2E2E2E2E2E2E2E2E2E2E2E2E2E2E2E2E2E2E2E2E2E2E2E2E2E2E2E2E2E2E2E2E2E2E2E2E2E2E2E2E2E2E2E2E2E2E2E2E2E2E2E2E2E2E2E2E2E2E2E2E2E2E2E2E2E2E2E2E2E2E2E2E2E2E2E2E2E2E2E22DF5E2E2F5
310
F5EFF5E2E2E22DE2E2E2E2E2E2E2E2E2E2E2E2E2E2E2E2F5E2E2E2E2E2E2E2E2E2E2E2E2E2E2F5F5F5F5F5F5F5F5F5F5DCF5F5F5F5F5E2E2E2E2E2E2E2E2E2E2E2E2E2F5F5F5F5E2E2E2E2E2F5F5F5F5F5F5F5F5F5F5F5F5F5F5F5F5F5F5F5F5F5F5E2E2E2E2E2E2E2E2E2E2E2E2E2E2E2E2E2E2E2E2E2E2E2E2E2E2E2E2E2
310
E2E2E2E2E2E2E2E2E2E2E2E2E2E2E2E2E2E2E2E2E2E2E2E2E2E2E2E2E2E2E2E2E2E2E2E2E2E2E2E2E2E2E2E2E2E2E2E22DE2E2E2F5F5EFF5E2E2E22DE2E2E2E2E2E2E2E2E2E2E2E2E2E2E2E2F5E2E2E2E2E2E2E2E2E2E2E2E2E2E2F5E2E2E2E2E2E2E2E2E2DCE2E2E2E2F5E2E2E2E2E2E2E2E2E2E2E2E2E2F5F5F5F5F5F5F5
310
E2E2F5F5F5F5F5F5F5F5F5F5F5F5F5F5F5F5F5F5F5F5F5F5E2E2E2E2E2E2E2E2E2E2E2E2E2E2E2E2E2E2E2E2E2E2E2E2E2E2E2E2E2E2E2E2E2E2E2E2E2E2E2E2E2E2E2E2E2E2E2E2E2E2E2E2E2E2E2E2E2E2E2E2E2E2E2E2E2E2E2E2E2E2E2E2E2E2E2E2E22DE2E2E2F5F5EFF5E2E2E22DE2E2E2E2E2E2E2E2E2E2E2E2E2E2
310
E2E2F5E2E2E2E2E2E2E2E2E2E2E2E2E2E2F5E2E2E2E2E2E2E2E2E2DCE2E2E2E2F5E2E2E2E2E2E2E2E2E2E2E2E2E2F5F5E2F5F5F5F5F5F5F5E2E2E2E2F5F5F5F5E2E2E2F5F5F5E2E2E2E2E2E2F5E2E2E2E2E2E2E2E2E2E2E2E2E2E2E2E2E2E2E2E2E2E2E2E2E2E2E2E2E2E2E2E2E2E2E2E2E2E2E2E2E2E2E2E2E2E2E2E2E2E2
310
E2E2E2E2E2E2E2E2E2E2E2E2E2E2E2E2E2E2E2E2E2E2E2E2E2E2E22DE2E2E2F5F5EFF5E2E2E22DE2E2E2E2E2E2E2E2E2E2E2E2E2E2E2E2F5E2E2E2E2E2E2E2E2E2E2E2E2E2E2F5E2E2E2E2E2E2E2E2E2DCE2E2E2E2F5E2E2E2E2E2E2E2E2E2E2E2E2E2F5F5E2F5F5E2F5E2E2F5E2E2E2E2F5F5F5F5E2E2E2E2E2E2F5E2E2E2
310
E2E2F5E2E2E2E2E2E2E2E2E2E2E2E2E2E2E2E2E2E2E2E2E2E2E2E2E2E2E2E2E2E2E2E2E2E2E2E2E2E2E2E2E2E2E2E2E2E2E2E2E2E2E2E2E2E2E2E2E2E2E2E2E2E2E2E2E2E2E2E2E2E2E2E2E2E2E2E2E22DE2E2E2F5F5EFF5E2E2E22DE2E2E2E2E2E2E2E2E2E2E2E2E2E2E2F5F5E2E2E2E2E2E2E2E2E2E2E2E2E2E2F5E2E2E2
310
E2E2E2E2E2E2DCE2E2E2E2F5E2E2E2E2E2E2E2E2E2E2E2E2E2F5F5E2F5F5F5F5E2E2F5E2E2E2F5F5F5F5E2E2E2E2E2E2E2E2F5E2E2E2E2F5F5F5F5F5E2E2E2E2E2E2E2E2E2E2E2E2E2E2E2E2E2E2E2E2E2E2E2E2E2E2E2E2E2E2E2E2E2E2E2E2E2E2E2E2E2E2E2E2E2E2E2E2E2E2E2E2E2E2E2E2E2E2E2E2E2E2E2E2E2E2E2
310
E2E2E2E2E2E22DE2E2E2F5F5EFF5E2E2E22DE2E2E2E2E2E2E2E2E2E2E2E2E2E2E2F5F5E2E2E2E2E2E2E2E2E2E2E2E2E2E2F5E2E2E2E2E2E2E2E2E2DCE2E2E2E2F5E2E2E2E2E2E2E2BEE2E2E2E2E2F5F5E2F5F5F5F5E2E2F5E2E2E2F5E2E2E2E2E2E2E2E2E2E2E2F5F5E2E2E2F5E2E2E2F5E2E2E2E2E2E2E2E2E2E2E2E2E2E2
310
E2E2E2E2E2E2E2E2E2E2E2E2E2E2E2E2E2E2E2E2E2E2E2E2E2E2E2E2E2E2E2E2E2E2E2E2E2E2E2E2E2E2E2E2E2E2E2E2E2E2E2E2E2E2E2E2E2E2E22DE2E2E2F5F5EFF5E2E2E22DE2E2E2E2E2E2E2E2E2E2E2E2E2E2E2F5F5E2E2E2E2F5BEF5F5E2E2E2E2E2E2F5E2E2E2E2E2E2E2E2E2DCE2E2E2E2F5E2E2E2E2E2E2F5BEF5
310
F5E2E2E2F5F5E2F5E2E2E2E2E2F5E2E2F5E2E2E2E2E2E2E2E2E2E2E2E2E2F5E2E2E2F5E2E2E2F5E2E2E2E2E2E2E2E2E2E2E2E2E2E2E2E2E2E2E2E2E2E2E2E2E2E2E2E2E2E2E2E2E2E2E2E2E2E2E2E2E2E2E2E2E2E2E2E2E2E2E2E2E2E2E2E2E2E2E2E2E2E2E2E2E2E2E2E2E2E2E2E2E22DE2E2E2F5F5EFF5E2E2E22DE2E2E2
310
E2E2E2E2E2E2E2E2E2E2E2E2F5F5E2E2E2F5F5BEF5F5F5E2E2E2E2E2F5E2E2E2E2E2E2E2E2E2DCE2E2E2E2F5E2E2E2E2E2F5F5BEF5F5F5E2E2F5F5E2F5E2E2E2E2E2F5E2E2F5E2E2E2E2E2E2E2E2E2E2E2E2E2E2F5E2E2F5E2E2E2F5F5F5F5F5F5E2E2E2E2E2E2F5F5F5E2E2E2E2E2E2E2E2E2E2E2E2E2E2E2E2E2E2E2E2E2
310
E2E2E2E2E2E2E2E2E2E2E2E2E2E2E2E2E2E2E2E2E2E2E2E2E2E2E2E2E2E2E2E2E2E2E2E2E2E22DE2E2E2F5F5EFF5E2E2F52DE2E2E2E2E2E2E2E2E2E2E2E2E2E2E2F5F5E2E2E2F5E2BEE2E2F5E2E2E2E2E2F5E2E2E2E2E2E2E2E2E2DCE2E2E2E2F5E2E2E2E2E2F5E2BEE2E2F5E2E2F5F5E2F5E2E2E2E2E2F5E2E2F5E2E2E2E2
310
E2E2E2E2E2E2E2E2E2F5F5F5E2F5E2E2E2F5E2E2E2E2F5F5F5F5E2E2E2F5E2F5E2E2E2E2E2E2E2E2E2E2E2E2E2E2E2E2E2E2E2E2E2E2E2E2E2E2E2E2E2E2E2E2E2E2E2E2E2E2E2E2E2E2E2E2E2E2E2E2E2E2E2E2E2E2E2E2E2E2E22DF5E2E2F5F5EFF5E2E2F52DE2E2E2E2E2E2E2E2E2E2E2E2E2E2E2F5F5E2E2E2BEBEBEBE
310
BEBEE2E2E2E2E2F5E2E2E2E2E2E2E2E2E2DCE2E2E2E2F5E2E2E2E2BEBEBEBEBEBEBEE2E2F5F5E2F5E2E2E2E2E2F5E2E2F5E2E2E2E2E2E2E2E2E2E2E2E2E2F5F5F5E2F5E2E2E2F5E2E2E2E2F5F5F5F5F5F5F5F5E2F5F5F5F5F5E2E2E2E2E2E2E2E2E2E2E2E2E2E2E2E2E2E2E2E2E2E2E2E2E2E2E2E2E2E2E2E2E2E2E2E2E2E2
310
E2E2E2E2E2E2E2E2E2E2E2E2E2E2E2E2E22DF5E2E2F5F5EFF5E2E2F52DE2E2E2E2E2E2E2E2E2E2E2E2E2E2E2F5F5E2E2E2F5E2BEE2F5F5E2E2E2E2E2F5E2E2E2E2E2E2E2E2E2DCE2E2E2E2F5E2E2E2E2E2F5E2BEE2F5F5E2E2F5F5E2F5E2E2E2E2E2F5E2E2F5E2E2E2E2E2E2E2E2E2E2E2E2E2F5F5F5E2F5E2E2E2F5E2E2E2
310
E2F5F5E2F5E2E2E2F5E2F5E2E2E2F5E2E2E2E2E2E2E2E2E2E2E2E2E2E2E2E2E2E2E2E2E2E2E2E2E2E2E2E2E2E2E2E2E2E2E2E2E2E2E2E2E2E2E2E2E2E2E2E2E2E2E2E2E2E2E22DF5E2E2F5F5EFF5E2E2F52DE2E2E2E2E2E2E2E2E2E2E2E2BEBEBEF5F5BEBEBEF5F5BEF5F5F5BEBEBEBEBEF5BEBEBEBEBEBEBEBEBEDCBEBEBE
310
BEF5BEBEBEBEBEF5F5BEF5F5BEBEBEF5F5BEF5BEBEBEBEBEF5BEBEF5BEBEBEBEBEBEBEBEBEBEBEBEBEBEF5BEBEF5BEBEBEF5BEBEBEBEF5F5BEF5BEBEBEF5F5F5BEBEBEF5BEE2E2E2E2E2E2E2E2E2E2E2E2E2E2E2E2E2E2E2E2E2E2E2E2E2E2E2E2E2E2E2E2E2E2E2E2E2E2E2E2E2E2E2E2E2E2E2E2E2E2E2E2E2E22DF5E2E2
310
F5F5EFF5E2E2F52DE2E2E2E2E2E2E2E2E2E2E2E2E2E2E2F5F5E2E2E2E2E2BEF5E2E2F5BEE2E2E2F5E2E2E2E2E2E2E2E2E2DCE2E2E2E2F5E2E2F5BEF5E2E2BEF5E2E2E2E2F5F5E2F5E2E2E2E2E2F5E2E2F5E2E2E2E2E2E2E2E2E2E2E2E2E2F5E2E2E2F5E2E2E2F5E2E2E2E2F5F5E2F5E2E2E2F5E2F5E2E2E2F5E2E2E2E2E2E2
310
E2E2E2E2E2E2E2E2E2E2E2E2E2E2E2E2E2E2E2E2E2E2E2E2E2E2E2E2E2E2E2E2E2E2E2E2E2E2E2E2E2E2E2E2E2E2E2E2E22DF5E2E2F5F5EFF5E2E2F52DE2E2E2E2E2E2E2E2E2E2E2E2E2E2E2F5F5E2E2E2E2E2E2E2E2F5F5BEF5E2E2F5E2E2E2E2E2E2E2E2E2DCE2E2E2E2F5E2E2F5BEF5F5E2E2E2E2E2E2E2F5F5E2F5E2E2
310
E2E2E2F5E2E2E2F5E2E2E2E2E2E2E2E2E2E2E2F5F5E2E2E2F5E2E2E2F5E2E2E2E2F5F5F5F5E2E2E2F5E2F5E2E2E2F5E2E2E2E2E2E2E2E2E2E2E2E2E2E2E2E2E2E2E2E2E2E2E2E2E2E2E2E2E2E2E2E2E2E2E2E2E2E2E2E2E2E2E2E2E2E2E2E2E2E2E2E2E2E2E22DF5E2E2F5F5EFF5E2E2F52DE2E2E2E2E2E2E2E2E2E2E2E2E2
310
E2E2F5F5E2E2E2E2E2E2E2BEBEBEBEBEBEE2F5E2E2E2E2E2E2E2E2E2DCE2E2E2E2F5BEBEBEBEBEBEBEE2E2E2E2E2E2F5F5E2F5E2E2E2E2E2F5E2E2E2F5F5F5F5E2E2E2E2E2E2E2E2F5E2E2E2E2F5E2E2E2F5E2E2E2E2F5F5F5F5F5F5F5F5E2F5F5F5F5F5E2E2E2E2E2E2E2E2E2E2E2E2E2E2E2E2E2E2E2E2E2E2E2E2E2E2E2
310
E2E2E2E2E2E2E2E2E2E2E2E2E2E2E2E2E2E2E2E2E2E2E2E2E2E2E2E22DF5E2E2F5F5EFF5E2E2F52DE2E2E2E2E2E2E2E2E2E2E2E2E2E2E2F5F5E2E2E2E2E2E2E2E2F5F5BEF5E2E2F5E2E2E2E2E2E2E2E2E2DCE2E2E2E2F5E2E2F5BEF5F5E2E2E2E2E2E2E2F5F5E2F5E2E2E2E2E2F5E2E2E2E2F5F5F5F5E2E2E2E2E2F5F5E2E2
310
E2E2E2F5E2E2E2F5F5F5F5F5F5E2E2E2E2E2E2F5F5F5E2E2E2E2E2E2E2E2E2E2E2E2E2E2E2E2E2E2E2E2E2E2E2E2E2E2E2E2E2E2E2E2E2E2E2E2E2E2E2E2E2E2E2E2E2E2E2E2E2E2E2E2E2E2E2E2E2E2E22DF5E2E2F5F5EFF5E2E2F52DE2E2E2E2E2E2E2E2E2E2E2E2E2E2E2F5F5E2E2E2E2E2E2E2E2E2F5BEE2E2E2F5E2E2
310
E2E2E2E2E2E2E2DCE2E2E2E2F5E2E2E2BEF5E2E2E2E2E2E2E2E2F5F5E2F5E2E2E2E2E2F5E2E2E2E2F5F5F5F5F5E2F5F5F5E2E2E2E2E2E2E2F5E2E2E2F5E2E2E2E2E2E2E2E2E2E2E2E2E2E2E2E2E2E2E2E2E2E2E2E2E2E2E2E2E2E2E2E2E2E2E2E2E2E2E2E2E2E2E2E2E2E2E2E2E2E2E2E2E2E2E2E2E2E2E2E2E2E2E2E2E2E2
310
E2E2E2E2E2E2E22DF5E2E2F5F5EFF5E2E2F52DE2E2E2E2E2E2E2E2E2E2E2E2E2E2E2F5F5E2E2E2E2E2E2E2E2E2E2BEE2E2E2F5E2E2E2E2E2E2E2E2E2DCE2E2E2E2F5E2E2E2BEE2E2E2E2E2E2E2E2E2F5F5E2F5F5F5F5E2E2F5E2E2E2E2F5F5F5E2E2F5E2E2E2E2E2E2E2E2E2E2F5E2E2E2F5E2E2E2E2E2E2E2E2E2E2E2E2E2
310
E2E2E2E2E2E2E2E2E2E2E2E2E2E2E2E2E2E2E2E2E2E2E2E2E2E2E2E2E2E2E2E2E2E2E2E2E2E2E2E2E2E2E2E2E2E2E2E2E2E2E2E2E2E2E2E2E2E2E2E22DF5E2E2F5F5EFF5E2E2F52DE2E2E2E2E2E2E2E2E2E2E2E2E2E2E2F5F5E2E2E2E2E2E2E2E2E2E2E2E2E2E2F5E2E2E2E2E2E2E2E2E2DCE2E2E2E2F5E2E2E2E2E2E2E2E2
310
E2E2E2E2E2F5F5E2F5F5F5F5E2E2F5E2E2E2E2E2E2E2E2E2E2E2E2E2E2E2E2E2E2E2E2F5F5F5F5F5E2E2E2E2E2E2E2E2E2E2E2E2E2E2E2E2E2E2E2E2E2E2E2E2E2E2E2E2E2E2E2E2E2E2E2E2E2E2E2E2E2E2E2E2E2E2E2E2E2E2E2E2E2E2E2E2E2E2E2E2E2E2E2E2E2E2E2E2E2E2E2E2E22DF5E2E2F5F5EFF5E2E2F52DE2E2
310
E2E2E2E2E2E2E2E2E2E2E2E2E2E2F5E2E2E2E2E2E2E2E2E2E2E2E2E2E2F5E2E2E2E2E2E2E2E2E2DCE2E2E2E2F5E2E2E2E2E2E2E2E2E2E2E2E2E2F5F5E2F5F5E2F5E2E2F5E2E2E2E2E2E2E2E2E2E2E2E2E2E2E2E2E2E2E2E2F5E2E2E2E2E2E2E2E2E2E2E2E2E2E2E2E2E2E2E2E2E2E2E2E2E2E2E2E2E2E2E2E2E2E2E2E2E2E2
310
E2E2E2E2E2E2E2E2E2E2E2E2E2E2E2E2E2E2E2E2E2E2E2E2E2E2E2E2E2E2E2E2E2E2E2E2E2E2E22DF5E2E2F5F5EFF5E2E2F52DE2E2E2E2E2E2E2E2E2E2E2E2E2E2E2E2F5E2E2E2E2E2E2E2E2E2E2E2E2E2E2F5E2E2E2E2E2E2E2E2E2DCE2E2E2E2F5E2E2E2E2E2E2E2E2E2E2E2E2E2F5F5E2F5F5F5F5F5F5F5E2E2E2E2E2E2
310
E2E2E2E2E2E2E2E2E2E2E2E2E2E2F5E2E2E2E2E2E2E2E2E2E2E2E2E2E2E2E2E2E2E2E2E2E2E2E2E2E2E2E2E2E2E2E2E2E2E2E2E2E2E2E2E2E2E2E2E2E2E2E2E2E2E2E2E2E2E2E2E2E2E2E2E2E2E2E2E2E2E2E2E2E2E2E2E2E2E2E2E22DF5E2E2F5F5EFF5E2E2F52DE2E2E2E2E2E2E2E2E2E2E2E2E2E2E2E2F5E2E2E2E2E2E2
310
E2E2E2E2E2E2E2E2F5E2E2E2E2E2E2E2E2E2DCE2E2E2E2F5E2E2E2E2E2E2E2E2E2E2E2E2E2F5F5F5F5F5F5F5E2E2F5F5F5F5F5F5F5F5F5F5F5F5F5F5F5F5F5F5F5F5F5F5E2E2E2E2E2E2E2E2E2E2E2E2E2E2E2E2E2E2E2E2E2E2E2E2E2E2E2E2E2E2E2E2E2E2E2E2E2E2E2E2E2E2E2E2E2E2E2E2E2E2E2E2E2E2E2E2E2E2E2
310
E2E2E2E2E2E2E2E2E2E2E2E2E2E2E2E2E2E22DF5E2E2F5F5EFF5E2E2F52DE2E2E2E2E2E2E2E2E2E2E2E2E2E2E2E2F5E2E2E2E2E2E2E2E2E2E2E2E2E2E2F5F5F5F5F5F5F5F5F5F5DCF5F5F5F5F5E2E2E2E2E2E2E2E2E2E2E2E2E2F5F5F5F5E2E2E2E2E2F5F5F5F5F5F5F5F5F5F5F5F5F5F5F5F5F5F5F5F5F5F5E2E2E2E2E2E2
310
E2E2E2E2E2E2E2E2E2E2E2E2E2E2E2E2E2E2E2E2E2E2E2E2E2E2E2E2E2E2E2E2E2E2E2E2E2E2E2E2E2E2E2E2E2E2E2E2E2E2E2E2E2E2E2E2E2E2E2E2E2E2E2E2E2E2E2E2E2E2E22DF5E2E2F5F5EFF5E2E2E22DE2E2E2E2E2E2E2E2E2E2E2E2E2E2E2E2F5F5F5F5F5F5F5F5F5F5F5F5F5F5F5F5E2E2E2E2E2E2E2E2E2DCE2E2
310
E2E2F5F5F5F5F5F5F5F5F5F5F5F5F5F5F5E2E2E2E2E2E2E2E2E2E2E2E2E2E2E2E2E2E2E2E2E2E2E2E2E2E2E2E2E2E2E2E2E2E2E2E2E2E2E2E2E2E2E2E2E2E2E2E2E2E2E2E2E2E2E2E2E2E2E2E2E2E2E2E2E2E2E2E2E2E2E2E2E2E2E2E2E2E2E2E2E2E2E2E2E2E2E2E2E2E2E2E2E2E2E2E2E2E2E2E2E2E2E2E2E2E2E22DE2E2
310
E2F5F5EFF5E2E2E22DE2E2E2E2E2E2E2E2E2E2E2E2E2E2E2E2E2E2E2E2E2E2E2E2E2E2E2E2E2E2E2E2E2E2E2E2E2E2E2E2E2DCE2E2E2E2E2E2E2E2E2E2E2E2E2E2E2E2E2E2E2E2E2E2E2E2E2E2E2E2E2E2E2E2E2E2E2E2E2E2E2E2E2E2E2E2E2E2E2E2E2E2E2E2E2E2E2E2E2E2E2E2E2E2E2E2E2E2E2E2E2E2E2E2E2E2E2E2
310
E2E2E2E2E2E2E2E2E2E2E2E2E2E2E2E2E2E2E2E2E2E2E2E2E2E2E2E2E2E2E2E2E2E2E2E2E2E2E2E2E2E2E2E2E2E2E2E2E2E22DE2E2E2F5F5EFF5E2E2E22DE2E2E2E2E2E2E2E2E2E2E2E2E2E2E2E2E2E2E2E2E2E2E2E2E2E2E2E2E2E2E2E2E2E2E2E2E2E2E2E2E2DCDCDCDCDCDCDCE2E2E2E2E2E2E2E2E2E2E2E2E2E2E2E2E2
310
E2E2E2E2E2E2E2E2E2E2E2E2E2E2E2E2E2E2E2E2E2E2E2E2E2E2E2E2E2E2E2E2E2E2E2E2E2E2E2E2E2E2E2E2E2E2E2E2E2E2E2E2E2E2E2E2E2E2E2E2E2E2E2E2E2E2E2E2E2E2E2E2E2E2E2E2E2E2E2E2E2E2E2E2E2E2E2E2E2E2E2E2E2E2E2E2E2E2E2E2E2E2E22DE2E2E2F5F5EFF5E2E2E22DE2E2E2E2E2E2E2E2E2E2E2E2
310
E2E2E2E2E2E2E2E2E2E2E2E2E2E2E2E2E2E2E2E2E2E2E2E2E2E2E2E2E2DCE2E2DCDCDCE2E2E2E2E2E2E2E2E2E2E2E2E2E2E2E2E2E2E2E2E2E2E2E2E2E2E2E2E2E2E2E2E2E2E2E2E2E2E2E2E2E2E2E2E2E2E2E2E2E2E2E2E2E2E2E2E2E2E2E2E2E2E2E2E2E2E2E2E2E2E2E2E2E2E2E2E2E2E2E2E2E2E2E2E2E2E2E2E2E2E2E2
310
E2E2E2E2E2E2E2E2E2E2E2E2E2E2E2E2E2E2E2E2E2E2E2E2E2E2E2E2E22DE2E2E2F5F5EFF5E2E2E22DE2E2E2E2E2E2E2E2E2E2E2E2E2E2E2E2E2E2E2E2E2E2E2E2E2E2E2E2E2E2E2E2E2E2E2E2E2E2E2E2E22DE2E2DCDCE2E2E2E2E2E2E2E2E2E2E2E2E2E2E2E2E2E2E2E2E2E2E2E2E2E2E2E2E2E2E2E2E2E2E2E2E2E2E2E2
310
E2E2E2E2E2E2E2E2E2E2E2E2E2E2E2E2E2E2E2E2E2E2E2E2E2E2E2E2E2E2E2E2E2E2E2E2E2E2E2E2E2E2E2E2E2E2E2E2E2E2E2E2E2E2E2E2E2E2E2E2E2E2E2E2E2E2E2E2E2E2E2E2E2E2E2E2E2E2E2E2E2E22DE2E2E2F5F5EFF5E2E2E22DE2E2E2E2E2E2E2E2E2E2E2E2E2E2E2E2E2E2E2E2E2E2E2E2E2E2E2E2E2E2E2E2E2
310
E2E2E2E2E2E2E2E22DE2E2E2E2E2E2E2E2E2E2E2E2E2E2E2E2E2E2E2E2E2E2E2E2E2E2E2E2E2E2E2E2E2E2E2E2E2E2E2E2E2E2E2E2E2E2E2E2E2E2E2E2E2E2E2E2E2E2E2E2E2E2E2E2E2E2E2E2E2E2E2E2E2E2E2E2E2E2E2E2E2E2E2E2E2E2E2E2E2E2E2E2E2E2E2E2E2E2E2E2E2E2E2E2E2E2E2E2E2E2E2E2E2E2E2E2E2E2
310
E2E2E2E2E2E2E2E22DE2E2E2F5F5EFF5E2E2E22DE2E2E2E2E2E2E2E2E2E2E2E2E2E2E2E2E2E2E2E2E2E2E2E2E2E2E2E2E2E2E2E2E2E2E2E2E2E2E2E2E22DE2E2E2E2E2E2E2E2E2E2E2E2E2E2E2E2E2E2E2E2E2E2E2E2E2E2E2E2E2E2E2E2E2E2E2E2E2E2E2E2E2E2E2E2E2E2E2E2E2E2E2E2E2E2E2E2E2E2E2E2E2E2E2E2E2
310
E2E2E2E2E2E2E2E2E2E2E2E2E2E2E2E2E2E2E2E2E2E2E2E2E2E2E2E2E2E2E2E2E2E2E2E2E2E2E2E2E2E2E2E2E2E2E2E2E2E2E2E2E2E2E2E2E2E2E2E2E22DE2E2E2F5F5EFF5E2E2E22DE2E2E2E2E2E2E2E2E2E2E2E2E2E2E2E2E2E2E2E2E2E2E2E2E2E2E2E2E2E2E2E2E2E2E2E2E2E2E2E2E22DE2E2E2E2E2E2E2E2E2E2E2E2
310
E2E2E2E2E2E2E2E2E2E2E2E2E2E2E2E2E2E2E2E2E2E2E2E2E2E2E2E2E2E2E2E2E2E2E2E2E2E2E2E2E2E2E2E2E2E2E2E2E2E2E2E2E2E2E2E2E2E2E2E2E2E2E2E2E2E2E2E2E2E2E2E2E2E2E2E2E2E2E2E2E2E2E2E2E2E2E2E2E2E2E2E2E2E2E2E2E2E2E2E2E2E2E2E2E2E2E2E2E2E2E2E2E2E22DE2E2E2F5F5EFF5E2E2E22DE2
310
E2E2E2E2E2E2E2E2E2E2E2E2E2E2E2E2E2E2E2E2E2E2E2E2E2E2E2E2E2E2E2E2E2E2E2E2E2E2E2E22DE2E2E2E2E2E2E2E2E2E2E2E2E2E2E2E2E2E2E2E2E2E2E2E2E2E2E2E2E2E2E2E2E2E2E2E2E2E2E2E2E2E2E2E2E2E2E2E2E2E2E2E2E2E2E2E2E2E2E2E2E2E2E2E2E2E2E2E2E2E2E2E2E2E2E2E2E2E2E2E2E2E2E2E2E2E2
310
E2E2E2E2E2E2E2E2E2E2E2E2E2E2E2E2E2E2E2E2E2E2E2E2E2E2E2E2E2E2E2E2E2E2E2E2E2E2E2E22DE2E2E2F5F5EFF5E2E2F52DE2E2E2E2E2E2E2E2E2E2E2E2E2E2E2E2E2E2E2E2E2E2E2E2E2E2E2E2E2E2E2E2E2E2E2E2E2E2E2E2E22DE2E2E2E2E2E2E2E2E2E2E2E2E2E2E2E2E2E2E2E2E2E2E2E2E2E2E2E2E2E2E2E2E2
310
E2E2E2E2E2E2E2E2E2E2E2E2E2E2E2E2E2E2E2E2E2E2E2E2E2E2E2E2E2E2E2E2E2E2E2E2E2E2E2E2E2E2E2E2E2E2E2E2E2E2E2E2E2E2E2E2E2E2E2E2E2E2E2E2E2E2E2E2E2E2E2E2E2E2E2E2E2E2E2E2E2E2E2E2E2E2E2E2E2E2E2E2E22DF5E2E2F5F5EFF5E2E2F52DE2E2E2E2E2E2E2E2E2E2E2E2E2E2E2E2E2E2E2E2E2E2
310
E2E2E2E2E2E2E2E2E2E2E2E2E2E2E2E2E2E2E22DE22D2D2D2D2DE2E2E2E2E2E2E2E2E2E2E2E2E2E2E2E2E2E2E2E2E2E2E2E2E2E2E2E2E2E2E2E2E2E2E2E2E2E2E2E2E2E2E2E2E2E2E2E2E2E2E2E2E2E2E2E2E2E2E2E2E2E2E2E2E2E2E2E2E2E2E2E2E2E2E2E2E2E2E2E2E2E2E2E2E2E2E2E2E2E2E2E2E2E2E2E2E2E2E2E2E2
310
E2E2E2E2E2E2E2E2E2E2E2E2E2E2E2E2E2E2E22DF5E2E2F5F5EFF5E2E2F52DE2E2E2E2E2E2E2E2E2E2E2E2E2E2E2E2E2E2E2E2E2E2E2E2E2E2E2E2E2E2E2E2E2E2E2E2E2E2E2E2E22DE22D2D2D2D2DE2E2E2E2E2E2E2E2E2E2E2E2E2E2E2E2E2E2E2E2E2E2E2E2E2E2E2E2E2E2E2E2E2E2E2E2E2E2E2E2E2E2E2E2E2E2E2E2
310
E2E2E2E2E2E2E2E2E2E2E2E2E2E2E2E2E2E2E2E2E2E2E2E2E2E2E2E2E2E2E2E2E2E2E2E2E2E2E2E2E2E2E2E2E2E2E2E2E2E2E2E2E2E2E2E2E2E2E2E2E2E2E2E2E2E2E2E2E2E2E2E22DF5E2E2F5F5EFF5E2E2F52DE2E2E2E2E2E2E2E2E2E2E2E2E2E2E2E2E2E2E2E2E2E2E2E2E2E2E2E2E2E2E2E2E2E2E2E2E2E2E2E2E2E2E2
310
2D2DE22DE2E2E2E2E2E2E2E2E2E2E2E2E2E2E2E2E2E2E2E2E2E2E2E2E2E2E2E2E2E2E2E2E2E2E2E2E2E2E2E2E2E2E2E2E2E2E2E2E2E2E2E2E2E2E2E2E2E2E2E2E2E2E2E2E2E2E2E2E2E2E2E2E2E2E2E2E2E2E2E2E2E2E2E2E2E2E2E2E2E2E2E2E2E2E2E2E2E2E2E2E2E2E2E2E2E2E2E2E2E2E2E2E2E2E2E2E2E2E2E2E22DF5
310
E2E2F5F5EFF5E2E2F52DE2E2E2E2E2E2E2E2E2E2E2E2E2E2E2E2E2E2E2E2E2E2E2E2E2E2E2E2E2E2E2E2E2E2E2E2E2E2E2E2E2E2E2E2E2E2E2E2E2E2E2E2E2E2E2E2E2E2E2E2E2E2E2E2E2E2E2E2E2E2E2E2E2E2E2E2E2E2E2E2E2E2E2E2E2E2E2E2E2E2E2E2E2E2E2E2E2E2E2E2E2E2E2E2E2E2E2E2E2E2E2E2E2E2E2E2E2
310
E2E2E2E2E2E2E2E2E2E2E2E2E2E2E2E2E2E2E2E2E2E2E2E2E2E2E2E2E2E2E2E2E2E2E2E2E2E2E2E2E2E2E2E2E2E2E2E2E2E2E22DF5E2E2F5F5EFF5E2E2F52DE2E2E2E2E2E2E2E2E2E2E2E2E2E2E2E2E2E2E2E2E2E2E2E2E2E2E2E2E2E2E2E2E2E2E2E2E2E2E2E2E2E2E2E2E2E2E2E2E2E2E2E2E2E2E2E2E2E2E2E2E2E2E2E2
310
E2E2E2E2E2E2E2E2E2E2E2E2E2E2E2E2E2E2E2E2E2E2E2E2E2E2E2E2E2E2E2E2E2E2E2E2E2E2E2E2E2E2E2E2E2E2E2E2E2E2E2E2E2E2E2E2E2E2E2E2E2E2E2E2E2E2E2E2E2E2E2E2E2E2E2E2E2E2E2E2E2E2E2E2E2E2E2E2E2E2E2E2E2E2E2E2E2E2E2E2E2E2E2E22DF5E2E2F5F5EFF5E2E2F52DE2E2E2E2E2E2E2E2E2E2E2
310
E2E2E2E2E2E2E2E2E2E2E2E2E2E2E2E2E2E2E2E2E2E2E2E2E2E2E2E2E2E2E2E2E2E2E2E2E2E2E2E2E2E2E2E2E2E2E2E2E2E2E2E2E2E2E2E2E2E2E2E2E2E2E2E2E2E2E2E2E2E2E2E2E2E2E2E2E2E2E2E2E2E2E2E2E2E2E2E2E2E2E2E2E2E2E2E2E2E2E2E2E2E2E2E2E2E2E2E2E2E2E2E2E2E2E2E2E2E2E2E2E2E2E2E2E2E2E2
310
E2E2E2E2E2E2E2E2E2E2E2E2E2E2E2E2E2E2E2E2E2E2E2E2E2E2E2E2E2E22DF5E2E2F5F5EFF5E2E2F52D2D2D2D2D2D2D2D2D2D2D2D2D2D2D2D2D2D2D2D2D2D2D2D2D2D2D2D2D2D2D2D2D2D2D2D2D2D2D2D2D2D2D2D2D2D2D2D2D2D2D2D2D2D2D2D2D2D2D2D2D2D2D2D2D2D2D2D2D2D2D2D2D2D2D2D2D2D2D2D2D2D2D2D2D2D
310
2D2D2D2D2D2D2D2D2D2D2D2D2D2D2D2D2D2D2D2D2D2D2D2D2D2D2D2D2D2D2D2D2D2D2D2D2D2D2D2D2D2D2D2D2D2D2D2D2D2D2D2D2D2D2D2D2D2D2D2D2D2D2D2D2D2D2D2D2D2D2D2D2D2D2D2D2D2D2D2D2D2D2D2DF5E2E2F5F5EFF5E2E2E2E2E2E2E2E2E2E2E2E2E2E2E2E2E2E2E2E2E2E2E2E2E2E2E2E2E2E2E2E2E2E2E2E2
310
E2E2E2E2E2E2E2E2E2E2E2E2E2E2E2E2E2E2E2E2E2E2E2E2E2E2E2E2E2E2E2E2E2E2E2E2E2E2E2E2E2E2E2E2E2E2E2E2E2E2E2E2E2E2E2E2E2E2E2E2E2E2E2E2E2E2E2E2E2E2E2E2E2E2E2E2E2E2E2E2E2E2E2E2E2E2E2E2E2E2E2E2E2E2E2E2E2E2E2E2E2E2E2E2E2E2E2E2E2E2E2E2E2E2E2E2E2E2E2E2E2E2E2E2E2E2E2
310
E2E2E2E2E2E2E2E2E2E2E2E2E2F5F5EFF5E2E2E2E2E2E2E2E2E2E2E2E2E2E2E2E2E2E2E2E2E2E2E2E2E2E2E2E2E2E2E2E2E2E2E2E2E2E2E2E2E2E2E2E2E2E2E2E2E2E2E2E2E2E2E2E2E2E2E2E2E2E2E2E2E2E2E2E2E2E2E2E2E2E2E2E2E2E2E2E2E2E2E2E2E2E2E2E2E2E2E2E2E2E2E2E2E2E2E2E2E2E2E2E2E2E2E2E2E2E2
310
E2E2E2E2E2E2E2E2E2E2E2E2E2E2E2E2E2E2E2E2E2E2E2E2E2E2E2E2E2E2E2E2E2E2E2E2E2E2E2E2E2E2E2E2E2E2E2E2E2E2E2E2E2E2E2E2E2E2E2E2E2E2E2E2E2E2F5EFEFF5F5F5F5F5F5F5F5F5F5F5F5F5F5F5F5F5F5F5F5F5F5F5F5F5F5F5F5F5F5F5F5F5F5F5F5F5F5F5F5F5F5F5F5F5F5F5F5F5F5F5F5F5F5F5F5F5F5
310
F5F5F5F5F5F5F5F5F5F5F5F5F5F5F5F5F5F5F5F5F5F5F5F5F5F5F5F5F5F5F5F5F5F5F5F5F5F5F5F5F5F5F5F5F5F5F5F5F5F5F5F5F5F5F5F5F5F5F5F5F5F5F5F5F5F5F5F5F5F5F5F5F5F5F5F5F5F5F5F5F5F5F5F5F5F5F5F5F5F5F5F5F5F5F5F5F5F5F5F5F5F5F5F5F5F5F5F5F5F5F5F5F5F5F5F5F5F5F5F5EFEF
  0
XRECORD
  5
12C0
102
{ACAD_REACTORS
330
12BF
102
}
330
12BF
100
AcDbXrecord
280
     1
102
MATERIAL
148
0.0
149
0.0
149
0.0
 93
        0
 94
       63
282
     0
 72
     1
 77
     1
171
     1
175
     1
179
     1
273
     0
  0
ENDSEC
  0
EOF
