  0
SECTION
  2
HEADER
  9
$ACADVER
  1
AC1015
  9
$ACADMAINTVER
 70
    20
  9
$DWGCODEPAGE
  3
ANSI_950
  9
$INSBASE
 10
0.0
 20
0.0
 30
0.0
  9
$EXTMIN
 10
1.000000000000000E+20
 20
1.000000000000000E+20
 30
1.000000000000000E+20
  9
$EXTMAX
 10
-1.000000000000000E+20
 20
-1.000000000000000E+20
 30
-1.000000000000000E+20
  9
$LIMMIN
 10
0.0
 20
0.0
  9
$LIMMAX
 10
420.0
 20
297.0
  9
$ORTHOMODE
 70
     0
  9
$REGENMODE
 70
     1
  9
$FILLMODE
 70
     1
  9
$QTEXTMODE
 70
     0
  9
$MIRRTEXT
 70
     1
  9
$LTSCALE
 40
1.0
  9
$ATTMODE
 70
     1
  9
$TEXTSIZE
 40
3.5
  9
$TRACEWID
 40
1.0
  9
$TEXTSTYLE
  7
STANDARD
  9
$CLAYER
  8
0
  9
$CELTYPE
  6
BYLAYER
  9
$CECOLOR
 62
   256
  9
$CELTSCALE
 40
1.0
  9
$DISPSILH
 70
     0
  9
$DIMSCALE
 40
1.0
  9
$DIMASZ
 40
3.5
  9
$DIMEXO
 40
1.0
  9
$DIMDLI
 40
8.0
  9
$DIMRND
 40
0.0
  9
$DIMDLE
 40
0.0
  9
$DIMEXE
 40
1.0
  9
$DIMTP
 40
0.1
  9
$DIMTM
 40
0.1
  9
$DIMTXT
 40
3.5
  9
$DIMCEN
 40
0.0
  9
$DIMTSZ
 40
0.0
  9
$DIMTOL
 70
     0
  9
$DIMLIM
 70
     0
  9
$DIMTIH
 70
     0
  9
$DIMTOH
 70
     0
  9
$DIMSE1
 70
     0
  9
$DIMSE2
 70
     0
  9
$DIMTAD
 70
     1
  9
$DIMZIN
 70
     8
  9
$DIMBLK
  1

  9
$DIMASO
 70
     1
  9
$DIMSHO
 70
     1
  9
$DIMPOST
  1

  9
$DIMAPOST
  1
"
  9
$DIMALT
 70
     0
  9
$DIMALTD
 70
     2
  9
$DIMALTF
 40
0.0393701
  9
$DIMLFAC
 40
1.0
  9
$DIMTOFL
 70
     1
  9
$DIMTVP
 40
0.0
  9
$DIMTIX
 70
     0
  9
$DIMSOXD
 70
     0
  9
$DIMSAH
 70
     0
  9
$DIMBLK1
  1

  9
$DIMBLK2
  1

  9
$DIMSTYLE
  2
AM_ISO
  9
$DIMCLRD
 70
   256
  9
$DIMCLRE
 70
   256
  9
$DIMCLRT
 70
   256
  9
$DIMTFAC
 40
0.71
  9
$DIMGAP
 40
1.0
  9
$DIMJUST
 70
     0
  9
$DIMSD1
 70
     0
  9
$DIMSD2
 70
     0
  9
$DIMTOLJ
 70
     0
  9
$DIMTZIN
 70
     8
  9
$DIMALTZ
 70
     8
  9
$DIMALTTZ
 70
     0
  9
$DIMUPT
 70
     0
  9
$DIMDEC
 70
     2
  9
$DIMTDEC
 70
     8
  9
$DIMALTU
 70
     2
  9
$DIMALTTD
 70
     2
  9
$DIMTXSTY
  7
STANDARD
  9
$DIMAUNIT
 70
     0
  9
$DIMADEC
 70
     0
  9
$DIMALTRND
 40
0.0
  9
$DIMAZIN
 70
     2
  9
$DIMDSEP
 70
    46
  9
$DIMATFIT
 70
     3
  9
$DIMFRAC
 70
     0
  9
$DIMLDRBLK
  1

  9
$DIMLUNIT
 70
     2
  9
$DIMLWD
 70
    -1
  9
$DIMLWE
 70
    -1
  9
$DIMTMOVE
 70
     0
  9
$LUNITS
 70
     2
  9
$LUPREC
 70
     2
  9
$SKETCHINC
 40
1.0
  9
$FILLETRAD
 40
2.5
  9
$AUNITS
 70
     0
  9
$AUPREC
 70
     0
  9
$MENU
  1
.
  9
$ELEVATION
 40
0.0
  9
$PELEVATION
 40
0.0
  9
$THICKNESS
 40
0.0
  9
$LIMCHECK
 70
     0
  9
$CHAMFERA
 40
2.5
  9
$CHAMFERB
 40
2.5
  9
$CHAMFERC
 40
20.0
  9
$CHAMFERD
 40
0.0
  9
$SKPOLY
 70
     0
  9
$TDCREATE
 40
2454887.677864873
  9
$TDUCREATE
 40
2454887.344531540
  9
$TDUPDATE
 40
2456639.471505533
  9
$TDUUPDATE
 40
2456639.138172199
  9
$TDINDWG
 40
0.3432553704
  9
$TDUSRTIMER
 40
0.3432553704
  9
$USRTIMER
 70
     1
  9
$ANGBASE
 50
0.0
  9
$ANGDIR
 70
     0
  9
$PDMODE
 70
     0
  9
$PDSIZE
 40
0.0
  9
$PLINEWID
 40
0.0
  9
$SPLFRAME
 70
     0
  9
$SPLINETYPE
 70
     6
  9
$SPLINESEGS
 70
     8
  9
$HANDSEED
  5
1B8D
  9
$SURFTAB1
 70
     6
  9
$SURFTAB2
 70
     6
  9
$SURFTYPE
 70
     6
  9
$SURFU
 70
     6
  9
$SURFV
 70
     6
  9
$UCSBASE
  2

  9
$UCSNAME
  2

  9
$UCSORG
 10
0.0
 20
0.0
 30
0.0
  9
$UCSXDIR
 10
1.0
 20
0.0
 30
0.0
  9
$UCSYDIR
 10
0.0
 20
1.0
 30
0.0
  9
$UCSORTHOREF
  2

  9
$UCSORTHOVIEW
 70
     0
  9
$UCSORGTOP
 10
0.0
 20
0.0
 30
0.0
  9
$UCSORGBOTTOM
 10
0.0
 20
0.0
 30
0.0
  9
$UCSORGLEFT
 10
0.0
 20
0.0
 30
0.0
  9
$UCSORGRIGHT
 10
0.0
 20
0.0
 30
0.0
  9
$UCSORGFRONT
 10
0.0
 20
0.0
 30
0.0
  9
$UCSORGBACK
 10
0.0
 20
0.0
 30
0.0
  9
$PUCSBASE
  2

  9
$PUCSNAME
  2

  9
$PUCSORG
 10
0.0
 20
0.0
 30
0.0
  9
$PUCSXDIR
 10
1.0
 20
0.0
 30
0.0
  9
$PUCSYDIR
 10
0.0
 20
1.0
 30
0.0
  9
$PUCSORTHOREF
  2

  9
$PUCSORTHOVIEW
 70
     0
  9
$PUCSORGTOP
 10
0.0
 20
0.0
 30
0.0
  9
$PUCSORGBOTTOM
 10
0.0
 20
0.0
 30
0.0
  9
$PUCSORGLEFT
 10
0.0
 20
0.0
 30
0.0
  9
$PUCSORGRIGHT
 10
0.0
 20
0.0
 30
0.0
  9
$PUCSORGFRONT
 10
0.0
 20
0.0
 30
0.0
  9
$PUCSORGBACK
 10
0.0
 20
0.0
 30
0.0
  9
$USERI1
 70
     0
  9
$USERI2
 70
     0
  9
$USERI3
 70
     0
  9
$USERI4
 70
     0
  9
$USERI5
 70
     0
  9
$USERR1
 40
0.0
  9
$USERR2
 40
0.0
  9
$USERR3
 40
0.0
  9
$USERR4
 40
0.0
  9
$USERR5
 40
0.0
  9
$WORLDVIEW
 70
     1
  9
$SHADEDGE
 70
     3
  9
$SHADEDIF
 70
    70
  9
$TILEMODE
 70
     0
  9
$MAXACTVP
 70
    48
  9
$PINSBASE
 10
0.0
 20
0.0
 30
0.0
  9
$PLIMCHECK
 70
     0
  9
$PEXTMIN
 10
28.4314160608721
 20
-15.69295065893902
 30
0.0
  9
$PEXTMAX
 10
550.1991347964467
 20
348.774916371925
 30
285.7425220874162
  9
$PLIMMIN
 10
14.06136962568069
 20
-28.34693836201341
  9
$PLIMMAX
 10
565.7035353677051
 20
361.7507398662042
  9
$UNITMODE
 70
     0
  9
$VISRETAIN
 70
     1
  9
$PLINEGEN
 70
     0
  9
$PSLTSCALE
 70
     1
  9
$TREEDEPTH
 70
  3020
  9
$CMLSTYLE
  2
STANDARD
  9
$CMLJUST
 70
     0
  9
$CMLSCALE
 40
1.0
  9
$PROXYGRAPHICS
 70
     1
  9
$MEASUREMENT
 70
     1
  9
$CELWEIGHT
370
    -1
  9
$ENDCAPS
280
     0
  9
$JOINSTYLE
280
     0
  9
$LWDISPLAY
290
     0
  9
$INSUNITS
 70
     4
  9
$HYPERLINKBASE
  1

  9
$STYLESHEET
  1

  9
$XEDIT
290
     1
  9
$CEPSNTYPE
380
     0
  9
$PSTYLEMODE
290
     1
  9
$FINGERPRINTGUID
  2
{03574417-9B09-48FF-BB66-C5E711BBF8F2}
  9
$VERSIONGUID
  2
{C583AB55-A896-4077-B2CD-F67373BADB6F}
  9
$EXTNAMES
290
     1
  9
$PSVPSCALE
 40
0.0
  9
$OLESTARTUP
290
     0
  0
ENDSEC
  0
SECTION
  2
CLASSES
  0
CLASS
  1
DICTIONARYVAR
  2
AcDbDictionaryVar
  3
ObjectDBX Classes
 90
        0
280
     0
281
     0
  0
CLASS
  1
ACMESTATEMGR
  2
AcMeStateMgr
  3
AcMeServices
 90
        0
280
     0
281
     0
  0
CLASS
  1
ACMESCOPE
  2
AcMeScope
  3
AcMeServices
 90
        0
280
     0
281
     0
  0
CLASS
  1
ACMECOMMANDHISTORY
  2
AcMeCommandHistory
  3
AcMeServices
 90
        0
280
     0
281
     0
  0
CLASS
  1
ACRFINSADJUSTERMGR
  2
AcRfInsAdjusterMgr
  3
AcMeServices
 90
        0
280
     0
281
     0
  0
CLASS
  1
ACMEDRAWINGMAN
  2
AcMeDrawingMan
  3
AcMeServices
 90
        0
280
     0
281
     0
  0
CLASS
  1
AMATTR
  2
AcMeAttribute
  3
AcMeServices
 90
    32768
280
     0
281
     0
  0
CLASS
  1
ACMEBOMCOLUMN
  2
AcMeBOMColumn
  3
AcMeServices
 90
    32768
280
     0
281
     0
  0
CLASS
  1
ACMEBOMCONF
  2
AcMeBOMConf
  3
AcMeServices
 90
    32768
280
     0
281
     0
  0
CLASS
  1
ACMEBOMTABLE
  2
AcMeBOMTable
  3
AcMeServices
 90
    32768
280
     0
281
     0
  0
CLASS
  1
ACMEBOMENTRY
  2
AcMeBOMEntry
  3
AcMeServices
 90
    32768
280
     0
281
     0
  0
CLASS
  1
ACMEVIEW
  2
AcMeView
  3
AcMeServices
 90
        0
280
     0
281
     0
  0
CLASS
  1
ACGREFMASTER
  2
AcGrefMaster
  3
AcAttribServices
 90
        0
280
     0
281
     0
  0
CLASS
  1
AMIMASTER
  2
AmiMaster
  3
AmiServices
 90
        0
280
     0
281
     0
  0
CLASS
  1
ACASGREFMASTER
  2
AcAsGrefMaster
  3
AutoSurfResolverServices
 90
        0
280
     0
281
     0
  0
CLASS
  1
ADAPPL
  2
AcAdAppl
  3
DesignerServices
 90
        0
280
     0
281
     0
  0
CLASS
  1
DEPMGR
  2
AcAdDepMgr
  3
DesignerServices
 90
        0
280
     0
281
     0
  0
CLASS
  1
PARAMMGR
  2
AcAdParamMgr
  3
DesignerServices
 90
        0
280
     0
281
     0
  0
CLASS
  1
PARAMSCOPE
  2
AcAdParamScope
  3
DesignerServices
 90
        0
280
     0
281
     0
  0
CLASS
  1
ACIMSYSVARMAN
  2
AcImSysVarManager
  3
AcMeServices
 90
        0
280
     0
281
     0
  0
CLASS
  1
ACIMINTSYSVAR
  2
AcImIntSysVar
  3
AcMeServices
 90
        0
280
     0
281
     0
  0
CLASS
  1
ACIMREALSYSVAR
  2
AcImRealSysVar
  3
AcMeServices
 90
        0
280
     0
281
     0
  0
CLASS
  1
ACIMSTRSYSVAR
  2
AcImStrSysVar
  3
AcMeServices
 90
        0
280
     0
281
     0
  0
CLASS
  1
NAMEDAPPL
  2
AcAdNamedAppl
  3
DesignerServices
 90
        0
280
     0
281
     0
  0
CLASS
  1
ADHNTMPLT
  2
AdHoleNoteTemplateMgr
  3
DesignerServices
 90
    32768
280
     0
281
     0
  0
CLASS
  1
AM_HNTEMPLATE_MGR_NAME
  2
AdHoleNoteTemplateMgrName
  3
DesignerServices
 90
    32768
280
     0
281
     0
  0
CLASS
  1
ACADGREFMODULE
  2
AcAdGrefModule
  3
AdGrefServices
 90
        0
280
     0
281
     0
  0
CLASS
  1
AM_DRAWING_MGR
  2
AcDmDwgMgr
  3
AcMechDwgViewMgmt
 90
        0
280
     0
281
     0
  0
CLASS
  1
AM_DWG_DOCUMENT
  2
AcDmDwgDocument
  3
AcMechDwgViewMgmt
 90
        0
280
     0
281
     0
  0
CLASS
  1
AM_DWG_SHEET
  2
AcDmSheet
  3
AcMechDwgViewMgmt
 90
        0
280
     0
281
     0
  0
CLASS
  1
AM_VIEWDIMPARMAP
  2
AcDmViewDimParMap
  3
AcMechDwgViewMgmt
 90
        0
280
     0
281
     0
  0
CLASS
  1
AM_DWGMGR_NAME
  2
AcDmDwgMgrName
  3
AcMechDwgViewMgmt
 90
        0
280
     0
281
     0
  0
CLASS
  1
ACAMPROJECT
  2
AcAmProject
  3
DesignerAssemblies
 90
        0
280
     0
281
     0
  0
CLASS
  1
ACAMGRCOMPSET
  2
AcAmGrCompSet
  3
DesignerAssemblies
 90
    32768
280
     1
281
     0
  0
CLASS
  1
ACAMGRCOMPDEFSET
  2
AcAmGrCompDefSet
  3
DesignerAssemblies
 90
        0
280
     0
281
     0
  0
CLASS
  1
ACAMGRCOMPDEF
  2
AcAmGrCompDef
  3
DesignerAssemblies
 90
        0
280
     0
281
     0
  0
CLASS
  1
ACCMCONTEXT
  2
AcCmContext
  3
DesignerAssemblies
 90
        0
280
     0
281
     0
  0
CLASS
  1
ACAMCOMPDEF
  2
AcAmCompDef
  3
DesignerAssemblies
 90
        0
280
     0
281
     0
  0
CLASS
  1
ACAMCOMPDEFMGR
  2
AcAmCompDefMgr
  3
DesignerAssemblies
 90
        0
280
     0
281
     0
  0
CLASS
  1
AMCONTEXTMGR
  2
AcAmContextMgr
  3
DesignerAssemblies
 90
        0
280
     0
281
     0
  0
CLASS
  1
ACAMCONTEXTMODELER
  2
AcAmContextModeler
  3
DesignerAssemblies
 90
        0
280
     0
281
     0
  0
CLASS
  1
ACDMVIEWGEOM
  2
AcDmViewGeometry
  3
AcMechDwgViewMgmt
 90
    32768
280
     0
281
     1
  0
CLASS
  1
CBROWSERAPPOBJECT
  2
CBrowserAppObject
  3
McadcomServices
 90
        0
280
     0
281
     0
  0
CLASS
  1
IM_STATIC_MAN
  2
AcImStaticVarManager
  3
AcMeServices
 90
        0
280
     0
281
     0
  0
CLASS
  1
ASAPP
  2
AcAsAppObject
  3
AutoSurfServices
 90
        0
280
     0
281
     0
  0
CLASS
  1
ACIMDBLSTATICVAR
  2
AcImDblStaticVar
  3
AcMeServices
 90
        0
280
     0
281
     0
  0
CLASS
  1
ACIMSTRSTATICVAR
  2
AcImStrStaticVar
  3
AcMeServices
 90
        0
280
     0
281
     0
  0
CLASS
  1
ACIMINTSTATICVAR
  2
AcImIntStaticVar
  3
AcMeServices
 90
        0
280
     0
281
     0
  0
CLASS
  1
CATALOGSTATE
  2
AcAmCatalogState
  3
DesignerAssemblies
 90
        0
280
     0
281
     0
  0
CLASS
  1
DM_PLACEHOLDER
  2
AcDmSelsetPlaceholder
  3
AcMechDwgViewMgmt
 90
        0
280
     0
281
     0
  0
CLASS
  1
LAYER_INDEX
  2
AcDbLayerIndex
  3
ObjectDBX Classes
 90
        0
280
     0
281
     0
  0
CLASS
  1
IDBUFFER
  2
AcDbIdBuffer
  3
ObjectDBX Classes
 90
        0
280
     0
281
     0
  0
CLASS
  1
ACMSTANDARDJIS
  2
AcmStandardJIS
  3
"Amdt_StdImp|Product Description: AutoCAD Mechanical 2004 DX|Company: Autodesk"
 90
    32768
280
     0
281
     0
  0
CLASS
  1
ACMSTANDARDANSI
  2
AcmStandardANSI
  3
"Amdt_StdImp|Product Description: AutoCAD Mechanical 2004 DX|Company: Autodesk"
 90
        0
280
     0
281
     0
  0
CLASS
  1
ACMSTANDARDBSI
  2
AcmStandardBSI
  3
"Amdt_StdImp|Product Description: AutoCAD Mechanical 2004 DX|Company: Autodesk"
 90
    32768
280
     0
281
     0
  0
CLASS
  1
ACMSTANDARDDIN
  2
AcmStandardDIN
  3
"Amdt_StdImp|Product Description: AutoCAD Mechanical 2004 DX|Company: Autodesk"
 90
    32768
280
     0
281
     0
  0
CLASS
  1
ACMSTANDARDISO
  2
AcmStandardISO
  3
"Amdt_StdImp|Product Description: AutoCAD Mechanical 2004 DX|Company: Autodesk"
 90
        0
280
     0
281
     0
  0
CLASS
  1
ACDBDICTIONARYWDFLT
  2
AcDbDictionaryWithDefault
  3
ObjectDBX Classes
 90
        0
280
     0
281
     0
  0
CLASS
  1
ACDBPLACEHOLDER
  2
AcDbPlaceHolder
  3
ObjectDBX Classes
 90
        0
280
     0
281
     0
  0
CLASS
  1
LAYOUT
  2
AcDbLayout
  3
ObjectDBX Classes
 90
        0
280
     0
281
     0
  0
CLASS
  1
ACME_DOCUMENT
  2
AcMeDbDoc
  3
AcMeServices
 90
        0
280
     0
281
     0
  0
CLASS
  1
AMGSETTINGSOBJ
  2
AmgSettingsObj
  3
"AcadM|Product Description: AutoCAD Mechanical 2000|Company: Autodesk"
 90
        0
280
     0
281
     0
  0
CLASS
  1
AMGOBJPROPCFG
  2
AmgObjPropCfg
  3
"AmgLay|Product Description: AutoCAD Mechanical 2000|Company: Autodesk"
 90
        1
280
     0
281
     0
  0
CLASS
  1
ACDBENTITYCACHE
  2
AcMeEntityCache
  3
AcMeServices
 90
        0
280
     0
281
     0
  0
CLASS
  1
GSMANAGER
  2
AcMeGSManager
  3
AcMeServices
 90
        0
280
     0
281
     0
  0
CLASS
  1
AMDTINTERNALREACTOR
  2
AmdtInternalReactor
  3
AcMeServices
 90
        0
280
     0
281
     0
  0
CLASS
  1
ACME_DATABASE
  2
AcMeDbDatabase
  3
AcMeServices
 90
        0
280
     0
281
     0
  0
CLASS
  1
ACGREFACADMASTER
  2
AcGrefacadMaster
  3
AcGrefServices
 90
        0
280
     0
281
     0
  0
CLASS
  1
AMDTMENUSTATEMGR
  2
AmdtMenuStateMgr
  3
McadcomServices
 90
        0
280
     0
281
     0
  0
CLASS
  1
AMDTMCOMMENUSTATE
  2
AmdtMcomMenuState
  3
McadcomServices
 90
        0
280
     0
281
     0
  0
CLASS
  1
MAPIADMODULE
  2
MApiAdModule
  3
MApiAdServices
 90
        0
280
     0
281
     0
  0
CLASS
  1
AMDTDMMENUSTATE
  2
AmdtDmMenuState
  3
AcMechDwgViewMgmt
 90
        0
280
     0
281
     0
  0
CLASS
  1
AMDTADMENUSTATE
  2
AmdtAdMenuState
  3
DesignerServices
 90
        0
280
     0
281
     0
  0
CLASS
  1
AMDTAMMENUSTATE
  2
AmdtAmMenuState
  3
DesignerAssemblies
 90
        0
280
     0
281
     0
  0
CLASS
  1
ACMDATADICTIONARY
  2
AcmDataDictionary
  3
"AcmSymBB|Product Description: AutoCAD Mechanical 2004 DX|Company: Autodesk"
 90
        0
280
     0
281
     0
  0
CLASS
  1
ACMDATAENTRYBLOCK
  2
AcmDataEntryBlock
  3
"AcmSymBB|Product Description: AutoCAD Mechanical 2004 DX|Company: Autodesk"
 90
        0
280
     0
281
     0
  0
CLASS
  1
ACMSURFSTANDARDJIS
  2
AcmSurfTextStdJIS
  3
"Amdt_StdImp|Product Description: AutoCAD Mechanical 2004 DX|Company: Autodesk"
 90
    32768
280
     0
281
     0
  0
CLASS
  1
ACMFCFSTANDARDJIS
  2
AcmFCFStdJIS
  3
"Amdt_StdImp|Product Description: AutoCAD Mechanical 2004 DX|Company: Autodesk"
 90
    32768
280
     0
281
     0
  0
CLASS
  1
ACMWELDSTANDARDJIS
  2
AcmWeldingStdJIS
  3
"Amdt_StdImp|Product Description: AutoCAD Mechanical 2004 DX|Company: Autodesk"
 90
    32768
280
     0
281
     0
  0
CLASS
  1
ACMIDSTANDARDJIS
  2
AcmIdStdJIS
  3
"Amdt_StdImp|Product Description: AutoCAD Mechanical 2004 DX|Company: Autodesk"
 90
    32768
280
     0
281
     0
  0
CLASS
  1
ACMDATUMSTANDARDJIS
  2
AcmDatumStdJIS
  3
"Amdt_StdImp|Product Description: AutoCAD Mechanical 2004 DX|Company: Autodesk"
 90
    32768
280
     0
281
     0
  0
CLASS
  1
ACMBOMSTANDARDJIS
  2
AcmBOMStdJIS
  3
"Amdt_StdImp|Product Description: AutoCAD Mechanical 2004 DX|Company: Autodesk"
 90
    32768
280
     0
281
     0
  0
CLASS
  1
ACMSURFSTANDARDANSI
  2
AcmSurfTextStdANSI
  3
"Amdt_StdImp|Product Description: AutoCAD Mechanical 2004 DX|Company: Autodesk"
 90
        0
280
     0
281
     0
  0
CLASS
  1
ACMFCFSTANDARDANSI
  2
AcmFCFStdANSI
  3
"Amdt_StdImp|Product Description: AutoCAD Mechanical 2004 DX|Company: Autodesk"
 90
        0
280
     0
281
     0
  0
CLASS
  1
ACMWELDSTANDARDANSI
  2
AcmWeldingStdANSI
  3
"Amdt_StdImp|Product Description: AutoCAD Mechanical 2004 DX|Company: Autodesk"
 90
        0
280
     0
281
     0
  0
CLASS
  1
ACMIDSTANDARDANSI
  2
AcmIdStdANSI
  3
"Amdt_StdImp|Product Description: AutoCAD Mechanical 2004 DX|Company: Autodesk"
 90
        0
280
     0
281
     0
  0
CLASS
  1
ACMDATUMSTANDARDANSI
  2
AcmDatumStdANSI
  3
"Amdt_StdImp|Product Description: AutoCAD Mechanical 2004 DX|Company: Autodesk"
 90
        0
280
     0
281
     0
  0
CLASS
  1
ACMBOMSTANDARDANSI
  2
AcmBOMStdANSI
  3
"Amdt_StdImp|Product Description: AutoCAD Mechanical 2004 DX|Company: Autodesk"
 90
        0
280
     0
281
     0
  0
CLASS
  1
ACMSURFSTANDARDBSI
  2
AcmSurfTextStdBSI
  3
"Amdt_StdImp|Product Description: AutoCAD Mechanical 2004 DX|Company: Autodesk"
 90
    32768
280
     0
281
     0
  0
CLASS
  1
ACMFCFSTANDARDBSI
  2
AcmFCFStdBSI
  3
"Amdt_StdImp|Product Description: AutoCAD Mechanical 2004 DX|Company: Autodesk"
 90
    32768
280
     0
281
     0
  0
CLASS
  1
ACMWELDSTANDARDBSI
  2
AcmWeldingStdBSI
  3
"Amdt_StdImp|Product Description: AutoCAD Mechanical 2004 DX|Company: Autodesk"
 90
    32768
280
     0
281
     0
  0
CLASS
  1
ACMIDSTANDARDBSI
  2
AcmIdStdBSI
  3
"Amdt_StdImp|Product Description: AutoCAD Mechanical 2004 DX|Company: Autodesk"
 90
    32768
280
     0
281
     0
  0
CLASS
  1
ACMDATUMSTANDARDBSI
  2
AcmDatumStdBSI
  3
"Amdt_StdImp|Product Description: AutoCAD Mechanical 2004 DX|Company: Autodesk"
 90
    32768
280
     0
281
     0
  0
CLASS
  1
ACMBOMSTANDARDBSI
  2
AcmBOMStdBSI
  3
"Amdt_StdImp|Product Description: AutoCAD Mechanical 2004 DX|Company: Autodesk"
 90
    32768
280
     0
281
     0
  0
CLASS
  1
AMDTEDGESTANDARDDIN
  2
AmdtEdgeStdDIN
  3
"Amdt_StdImp|Product Description: AutoCAD Mechanical 2004 DX|Company: Autodesk"
 90
    32768
280
     0
281
     0
  0
CLASS
  1
ACMSURFSTANDARDDIN
  2
AcmSurfTextStdDIN
  3
"Amdt_StdImp|Product Description: AutoCAD Mechanical 2004 DX|Company: Autodesk"
 90
    32768
280
     0
281
     0
  0
CLASS
  1
ACMFCFSTANDARDDIN
  2
AcmFCFStdDIN
  3
"Amdt_StdImp|Product Description: AutoCAD Mechanical 2004 DX|Company: Autodesk"
 90
    32768
280
     0
281
     0
  0
CLASS
  1
ACMWELDSTANDARDDIN
  2
AcmWeldingStdDIN
  3
"Amdt_StdImp|Product Description: AutoCAD Mechanical 2004 DX|Company: Autodesk"
 90
    32768
280
     0
281
     0
  0
CLASS
  1
ACMIDSTANDARDDIN
  2
AcmIdStdDIN
  3
"Amdt_StdImp|Product Description: AutoCAD Mechanical 2004 DX|Company: Autodesk"
 90
    32768
280
     0
281
     0
  0
CLASS
  1
ACMDATUMSTANDARDDIN
  2
AcmDatumStdDIN
  3
"Amdt_StdImp|Product Description: AutoCAD Mechanical 2004 DX|Company: Autodesk"
 90
    32768
280
     0
281
     0
  0
CLASS
  1
ACMBOMSTANDARDDIN
  2
AcmBOMStdDIN
  3
"Amdt_StdImp|Product Description: AutoCAD Mechanical 2004 DX|Company: Autodesk"
 90
    32768
280
     0
281
     0
  0
CLASS
  1
ACMSURFSTANDARDISO
  2
AcmSurfTextStdISO
  3
"Amdt_StdImp|Product Description: AutoCAD Mechanical 2004 DX|Company: Autodesk"
 90
        0
280
     0
281
     0
  0
CLASS
  1
ACMFCFSTANDARDISO
  2
AcmFCFStdISO
  3
"Amdt_StdImp|Product Description: AutoCAD Mechanical 2004 DX|Company: Autodesk"
 90
        0
280
     0
281
     0
  0
CLASS
  1
ACMWELDSTANDARDISO
  2
AcmWeldingStdISO
  3
"Amdt_StdImp|Product Description: AutoCAD Mechanical 2004 DX|Company: Autodesk"
 90
        0
280
     0
281
     0
  0
CLASS
  1
ACMIDSTANDARDISO
  2
AcmIdStdISO
  3
"Amdt_StdImp|Product Description: AutoCAD Mechanical 2004 DX|Company: Autodesk"
 90
        0
280
     0
281
     0
  0
CLASS
  1
ACMDATUMSTANDARDISO
  2
AcmDatumStdISO
  3
"Amdt_StdImp|Product Description: AutoCAD Mechanical 2004 DX|Company: Autodesk"
 90
        0
280
     0
281
     0
  0
CLASS
  1
ACMBOMSTANDARDISO
  2
AcmBOMStdISO
  3
"Amdt_StdImp|Product Description: AutoCAD Mechanical 2004 DX|Company: Autodesk"
 90
        0
280
     0
281
     0
  0
CLASS
  1
AMDTBROWSERDBTAB
  2
AmdtBrowserDbTab
  3
McadcomServices
 90
        0
280
     0
281
     0
  0
CLASS
  1
ACAMGFILTERDAT
  2
AcAmgFilterDat
  3
"AcadM|Product Description: AutoCAD Mechanical 2000|Company: Autodesk"
 90
    32768
280
     0
281
     0
  0
CLASS
  1
MAPIAMMOUDLE
  2
MApiAmModule
  3
MApiAmServices
 90
        0
280
     0
281
     0
  0
CLASS
  1
AMDTMAPISURFMOUDULE
  2
AmdtMApiSurfModule
  3
MApiSurfServices
 90
        0
280
     0
281
     0
  0
CLASS
  1
ACAMGLAYSTD
  2
AcAmgLayStd
  3
"AcAmgLayStd|Product Description: AutoCAD Mechanical 2000|Company: Autodesk"
 90
        0
280
     0
281
     0
  0
CLASS
  1
ACAMGDIMSTD
  2
AcAmgDimStd
  3
"AcAmgDimStd|Product Description: AutoCAD Mechanical 2000|Company: Autodesk"
 90
        0
280
     0
281
     0
  0
CLASS
  1
ACAMGTITLESTD
  2
AcAmgTitleStd
  3
"TITLEAPP"
 90
        0
280
     0
281
     0
  0
CLASS
  1
ACMDETAILSTANDARDJIS
  2
AmdtDetailSymStdJIS
  3
"Amdt_StdImp|Product Description: AutoCAD Mechanical 2004 DX|Company: Autodesk"
 90
    32768
280
     0
281
     0
  0
CLASS
  1
ACMSECTIONSTANDARDJIS
  2
AmdtSectionSymStdJIS
  3
"Amdt_StdImp|Product Description: AutoCAD Mechanical 2004 DX|Company: Autodesk"
 90
    32768
280
     0
281
     0
  0
CLASS
  1
ACMCENTERLINESTANDARDJIS
  2
AmdtCenterLineStdJIS
  3
"Amdt_StdImp|Product Description: AutoCAD Mechanical 2004 DX|Company: Autodesk"
 90
    32768
280
     0
281
     0
  0
CLASS
  1
ACMTHREADLINESTANDARDJIS
  2
AmdtThreadLineStdJIS
  3
"Amdt_StdImp|Product Description: AutoCAD Mechanical 2004 DX|Company: Autodesk"
 90
    32768
280
     0
281
     0
  0
CLASS
  1
ACMDETAILSTANDARDANSI
  2
AmdtDetailSymStdANSI
  3
"Amdt_StdImp|Product Description: AutoCAD Mechanical 2004 DX|Company: Autodesk"
 90
        0
280
     0
281
     0
  0
CLASS
  1
ACMSECTIONSTANDARDANSI
  2
AmdtSectionSymStdANSI
  3
"Amdt_StdImp|Product Description: AutoCAD Mechanical 2004 DX|Company: Autodesk"
 90
        0
280
     0
281
     0
  0
CLASS
  1
ACMCENTERLINESTANDARDANSI
  2
AmdtCenterLineStdANSI
  3
"Amdt_StdImp|Product Description: AutoCAD Mechanical 2004 DX|Company: Autodesk"
 90
        0
280
     0
281
     0
  0
CLASS
  1
ACMTHREADLINESTANDARDANSI
  2
AmdtThreadLineStdANSI
  3
"Amdt_StdImp|Product Description: AutoCAD Mechanical 2004 DX|Company: Autodesk"
 90
        0
280
     0
281
     0
  0
CLASS
  1
ACMDETAILSTANDARDBSI
  2
AmdtDetailSymStdBSI
  3
"Amdt_StdImp|Product Description: AutoCAD Mechanical 2004 DX|Company: Autodesk"
 90
    32768
280
     0
281
     0
  0
CLASS
  1
ACMSECTIONSTANDARDBSI
  2
AmdtSectionSymStdBSI
  3
"Amdt_StdImp|Product Description: AutoCAD Mechanical 2004 DX|Company: Autodesk"
 90
    32768
280
     0
281
     0
  0
CLASS
  1
ACMCENTERLINESTANDARDBSI
  2
AmdtCenterLineStdBSI
  3
"Amdt_StdImp|Product Description: AutoCAD Mechanical 2004 DX|Company: Autodesk"
 90
    32768
280
     0
281
     0
  0
CLASS
  1
ACMTHREADLINESTANDARDBSI
  2
AmdtThreadLineStdBSI
  3
"Amdt_StdImp|Product Description: AutoCAD Mechanical 2004 DX|Company: Autodesk"
 90
    32768
280
     0
281
     0
  0
CLASS
  1
ACMDETAILSTANDARDDIN
  2
AmdtDetailSymStdDIN
  3
"Amdt_StdImp|Product Description: AutoCAD Mechanical 2004 DX|Company: Autodesk"
 90
    32768
280
     0
281
     0
  0
CLASS
  1
ACMSECTIONSTANDARDDIN
  2
AmdtSectionSymStdDIN
  3
"Amdt_StdImp|Product Description: AutoCAD Mechanical 2004 DX|Company: Autodesk"
 90
    32768
280
     0
281
     0
  0
CLASS
  1
ACMCENTERLINESTANDARDDIN
  2
AmdtCenterLineStdDIN
  3
"Amdt_StdImp|Product Description: AutoCAD Mechanical 2004 DX|Company: Autodesk"
 90
    32768
280
     0
281
     0
  0
CLASS
  1
ACMTHREADLINESTANDARDDIN
  2
AmdtThreadLineStdDIN
  3
"Amdt_StdImp|Product Description: AutoCAD Mechanical 2004 DX|Company: Autodesk"
 90
    32768
280
     0
281
     0
  0
CLASS
  1
AMDTEDGESTANDARDISO
  2
AmdtEdgeStdISO
  3
"Amdt_StdImp|Product Description: AutoCAD Mechanical 2004 DX|Company: Autodesk"
 90
    32768
280
     0
281
     0
  0
CLASS
  1
ACMDETAILSTANDARDISO
  2
AmdtDetailSymStdISO
  3
"Amdt_StdImp|Product Description: AutoCAD Mechanical 2004 DX|Company: Autodesk"
 90
        0
280
     0
281
     0
  0
CLASS
  1
ACMSECTIONSTANDARDISO
  2
AmdtSectionSymStdISO
  3
"Amdt_StdImp|Product Description: AutoCAD Mechanical 2004 DX|Company: Autodesk"
 90
        0
280
     0
281
     0
  0
CLASS
  1
ACMCENTERLINESTANDARDISO
  2
AmdtCenterLineStdISO
  3
"Amdt_StdImp|Product Description: AutoCAD Mechanical 2004 DX|Company: Autodesk"
 90
        0
280
     0
281
     0
  0
CLASS
  1
ACMTHREADLINESTANDARDISO
  2
AmdtThreadLineStdISO
  3
"Amdt_StdImp|Product Description: AutoCAD Mechanical 2004 DX|Company: Autodesk"
 90
        0
280
     0
281
     0
  0
CLASS
  1
ACMNOTESTANDARDISO
  2
AmdtNoteStdISO
  3
"Amdt_StdImp|Product Description: AutoCAD Mechanical 2004 DX|Company: Autodesk"
 90
        0
280
     0
281
     0
  0
CLASS
  1
ACAMGHOLECHARTSTDISO
  2
AcAmgHoleChartStdISO
  3
ACMSYMBB_MODULE_NAME
 90
        0
280
     0
281
     0
  0
CLASS
  1
ACMNOTESTANDARDANSI
  2
AmdtNoteStdANSI
  3
"Amdt_StdImp|Product Description: AutoCAD Mechanical 2004 DX|Company: Autodesk"
 90
        0
280
     0
281
     0
  0
CLASS
  1
AMDTNOTETEMPLATEDB
  2
AmdtNoteTemplateDB
  3
AMDT_STDIMP_MODULE_NAME
 90
        0
280
     0
281
     0
  0
CLASS
  1
ACAMGHOLECHARTSTDANSI
  2
AcAmgHoleChartStdANSI
  3
ACMSYMBB_MODULE_NAME
 90
        0
280
     0
281
     0
  0
CLASS
  1
TABLESTYLE
  2
AcDbTableStyle
  3
ObjectDBX Classes
 90
     2047
280
     0
281
     0
  0
CLASS
  1
ACMBOM
  2
AcmBom
  3
"AcmSymBB|Product Description: AutoCAD Mechanical 2004 DX|Company: Autodesk"
 90
    32768
280
     0
281
     0
  0
CLASS
  1
AMDTFORMULAUPDATEDISPATCHER
  2
AmdtFormulaUpdateDispatcher
  3
AcMeServices
 90
    32768
280
     0
281
     0
  0
CLASS
  1
ACMPARTLIST
  2
AcmPartList
  3
"AcmSymBB|Product Description: AutoCAD Mechanical 2004 DX|Company: Autodesk"
 90
    33791
280
     0
281
     1
  0
CLASS
  1
VAACXREFPANELOBJECT
  2
VaAcXREFPanelObject
  3
VAAC_ADDIN
 90
    32768
280
     1
281
     0
  0
CLASS
  1
VAACIMAGEINVENTORY
  2
VaAcImageInventory
  3
VAAC_ADDIN
 90
    32768
280
     1
281
     0
  0
CLASS
  1
ACAMEXTERNALCOMPDEF
  2
AcAmExternalCompDef
  3
DesignerAssemblies
 90
    32768
280
     0
281
     0
  0
CLASS
  1
ACCMBODY
  2
AcCmBody
  3
DesignerAssemblies
 90
    32768
280
     0
281
     0
  0
CLASS
  1
ACAMCOMPENT
  2
AcAmCompEnt
  3
DesignerAssemblies
 90
    32768
280
     0
281
     1
  0
CLASS
  1
ACAMCOMPFEEDBACK
  2
AcAmCompFeedback
  3
DesignerAssemblies
 90
    32768
280
     0
281
     0
  0
CLASS
  1
ACAMCOMP
  2
AcAmComp
  3
DesignerAssemblies
 90
    32768
280
     0
281
     0
  0
CLASS
  1
ACAMCOMPENTCLONE
  2
AcAmCompEntClone
  3
DesignerAssemblies
 90
    32768
280
     0
281
     1
  0
CLASS
  1
ACAMCLONEREACTOR
  2
AcAmGrCompCloneReactor
  3
DesignerAssemblies
 90
    32768
280
     0
281
     0
  0
CLASS
  1
ADPART
  2
AcAdPart
  3
DesignerServices
 90
    32768
280
     0
281
     1
  0
CLASS
  1
WORKPLANEDISPLAYMGR
  2
AcAdDisplayMgr
  3
DesignerServices
 90
    32768
280
     0
281
     0
  0
CLASS
  1
PARAM
  2
AcAdParam
  3
DesignerServices
 90
    32768
280
     0
281
     0
  0
CLASS
  1
ADDATUMAXISABS
  2
AcAdDatumAxisAbs
  3
DesignerServices
 90
    32768
280
     0
281
     0
  0
CLASS
  1
ADDATUMPLANEABS
  2
AcAdDatumPlaneAbs
  3
DesignerServices
 90
    32768
280
     0
281
     0
  0
CLASS
  1
ADBASE
  2
AcAdBase
  3
DesignerServices
 90
    32768
280
     0
281
     0
  0
CLASS
  1
ADDATUMORIENTEDPLANE
  2
AcAdDatumOrientedPlane
  3
DesignerServices
 90
    32768
280
     0
281
     0
  0
CLASS
  1
BODYID
  2
AcAdBodyId
  3
DesignerServices
 90
    32768
280
     0
281
     0
  0
CLASS
  1
ACADCONSGROUP
  2
AcAdConstraintGroup
  3
DesignerServices
 90
    32768
280
     0
281
     0
  0
CLASS
  1
ACADREFLINEACAD
  2
AcAdVirtualReferenceLine
  3
DesignerServices
 90
    32768
280
     0
281
     0
  0
CLASS
  1
ACADCONSLINE
  2
AcAdConstrainedLine
  3
DesignerServices
 90
    32768
280
     0
281
     0
  0
CLASS
  1
ACADLINEACAD
  2
AcAdVirtualBoundedLineAcad
  3
DesignerServices
 90
    32768
280
     0
281
     0
  0
CLASS
  1
ACADCONSPOINT
  2
AcAdConstrainedPoint
  3
DesignerServices
 90
    32768
280
     0
281
     0
  0
CLASS
  1
ADPCURCNS
  2
AcAdPointCurveConstr
  3
DesignerServices
 90
    32768
280
     0
281
     0
  0
CLASS
  1
ADHORCNS
  2
AcAdHorizontalConstr
  3
DesignerServices
 90
    32768
280
     0
281
     0
  0
CLASS
  1
ADVERCNS
  2
AcAdVerticalConstr
  3
DesignerServices
 90
    32768
280
     0
281
     0
  0
CLASS
  1
ACAD_FIXCONSTRAINT
  2
AcAdFixedConstraint
  3
DesignerServices
 90
    32768
280
     0
281
     0
  0
CLASS
  1
ADHDISTCNS
  2
AcAdHorizontalDistanceConstr
  3
DesignerServices
 90
    32768
280
     0
281
     0
  0
CLASS
  1
ADVDISTCNS
  2
AcAdVerticalDistanceConstr
  3
DesignerServices
 90
    32768
280
     0
281
     0
  0
CLASS
  1
ACADIMPPTACAD
  2
AcAdVirtualImplicitPoint
  3
DesignerServices
 90
    32768
280
     0
281
     0
  0
CLASS
  1
ADCLPROF2D
  2
AcAdClosedProfile2d
  3
DesignerServices
 90
    32768
280
     0
281
     0
  0
CLASS
  1
DEPEDGEFEATUREORDERING
  2
AcAdDepEdgeFeatureOrdering
  3
DesignerServices
 90
    32768
280
     0
281
     0
  0
CLASS
  1
ACADVOLFEATWITHTRIM
  2
AcAdVolFeatWithTrim
  3
DesignerServices
 90
    32768
280
     0
281
     0
  0
CLASS
  1
ADPLANEID
  2
AcAdPlaneId
  3
DesignerServices
 90
    32768
280
     0
281
     0
  0
CLASS
  1
EDGEID
  2
AcAdEdgeId
  3
DesignerServices
 90
    32768
280
     0
281
     0
  0
CLASS
  1
CNRREFID
  2
AcAdCornerId
  3
DesignerServices
 90
    32768
280
     0
281
     0
  0
CLASS
  1
STREFID
  2
AcAdStraightRefId
  3
DesignerServices
 90
    32768
280
     0
281
     0
  0
CLASS
  1
ADDATUMPLANEFACE
  2
AcAdDatumPlaneFace
  3
DesignerServices
 90
    32768
280
     0
281
     0
  0
CLASS
  1
DATUMPLANEDISPLAY
  2
AcAdDatumPlaneDisplay
  3
DesignerServices
 90
    32768
280
     0
281
     1
  0
CLASS
  1
ADDATUMPLANEOFFSET
  2
AcAdDatumPlaneOffset
  3
DesignerServices
 90
    32768
280
     0
281
     0
  0
CLASS
  1
ADACADANGCNS
  2
AcAdAcadAngleConstr
  3
DesignerServices
 90
    32768
280
     0
281
     0
  0
CLASS
  1
ACADLINEDEPID
  2
AcAdVirtualLineDepId
  3
DesignerServices
 90
    32768
280
     0
281
     0
  0
CLASS
  1
ADCOLNCNS
  2
AcAdColinearConstr
  3
DesignerServices
 90
    32768
280
     0
281
     0
  0
CLASS
  1
ACADPOINTDEPID
  2
AcAdVirtualPointDepId
  3
DesignerServices
 90
    32768
280
     0
281
     0
  0
CLASS
  1
ACADCIRCLEACAD
  2
AcAdVirtualCircleAcad
  3
DesignerServices
 90
    32768
280
     0
281
     0
  0
CLASS
  1
ACADCONSCIRCLE
  2
AcAdConstrainedCircle
  3
DesignerServices
 90
    32768
280
     0
281
     0
  0
CLASS
  1
ADCTRPTCNS
  2
AcAdCenterPointConstr
  3
DesignerServices
 90
    32768
280
     0
281
     0
  0
CLASS
  1
ADACADDIACNS
  2
AcAdAcadDiameterConstr
  3
DesignerServices
 90
    32768
280
     0
281
     0
  0
CLASS
  1
ACADARCACAD
  2
AcAdVirtualArcAcad
  3
DesignerServices
 90
    32768
280
     0
281
     0
  0
CLASS
  1
ADTANCNS
  2
AcAdTangentConstr
  3
DesignerServices
 90
    32768
280
     0
281
     0
  0
CLASS
  1
ADPARCNS
  2
AcAdParallelConstr
  3
DesignerServices
 90
    32768
280
     0
281
     0
  0
CLASS
  1
ADCONCCNS
  2
AcAdConcentricConstr
  3
DesignerServices
 90
    32768
280
     0
281
     0
  0
CLASS
  1
ADEQRADCNS
  2
AcAdEqualRadiusConstr
  3
DesignerServices
 90
    32768
280
     0
281
     0
  0
CLASS
  1
CIRREFID
  2
AcAdCircleRefId
  3
DesignerServices
 90
    32768
280
     0
281
     0
  0
CLASS
  1
ACADCIRCDEPID
  2
AcAdVirtualCircleDepId
  3
DesignerServices
 90
    32768
280
     0
281
     0
  0
CLASS
  1
ADFILLET
  2
AcAdFillet
  3
DesignerServices
 90
    32768
280
     0
281
     0
  0
CLASS
  1
ADSURFGEOMID
  2
AcAdSurfGeomId
  3
DesignerServices
 90
    32768
280
     0
281
     0
  0
CLASS
  1
DATUMAXISDISPLAY
  2
AcAdDatumAxisDisplay
  3
DesignerServices
 90
    32768
280
     0
281
     1
  0
CLASS
  1
ADDATUMAXISCENTER
  2
AcAdDatumAxisCenter
  3
DesignerServices
 90
    32768
280
     0
281
     0
  0
CLASS
  1
DEPEDGESECONDARYDEPID
  2
AcAdDepEdgeSecondaryDepId
  3
DesignerServices
 90
    32768
280
     0
281
     0
  0
CLASS
  1
ADDATUMPLANEAXISPLANE
  2
AcAdDatumPlaneAxisPlane
  3
DesignerServices
 90
    32768
280
     0
281
     0
  0
CLASS
  1
ACADBOUNDEDLINEDATUMID
  2
AcAdVirtualBoundedLineDatumId
  3
DesignerServices
 90
    32768
280
     0
281
     0
  0
CLASS
  1
OSTREFID
  2
AcAdOrientedStraightRefId
  3
DesignerServices
 90
    32768
280
     0
281
     0
  0
CLASS
  1
ADDATUMPOINT2EDGES
  2
AcAdDatumPoint2Edges
  3
DesignerServices
 90
    32768
280
     0
281
     0
  0
CLASS
  1
ADHOLEFEAT
  2
AcAdHoleFeat
  3
DesignerServices
 90
    32768
280
     0
281
     0
  0
CLASS
  1
DEPEDGEPATTERNFEATURE
  2
AcAdDepEdgePatternFeature
  3
DesignerServices
 90
    32768
280
     0
281
     0
  0
CLASS
  1
ACADPATTNFEAT
  2
AcAdPatternFeat
  3
DesignerServices
 90
    32768
280
     0
281
     0
  0
CLASS
  1
ADEQUALLENGTHCNS
  2
AcAdEqualLengthConstr
  3
DesignerServices
 90
    32768
280
     0
281
     0
  0
CLASS
  1
SORTENTSTABLE
  2
AcDbSortentsTable
  3
ObjectDBX Classes
 90
    32768
280
     0
281
     0
  0
CLASS
  1
ACAMGROUNDEDBASECOMP
  2
AcAmGroundedBaseComp
  3
DesignerAssemblies
 90
    32768
280
     0
281
     0
  0
CLASS
  1
AMDTPERSON
  2
AmdtPerson
  3
AcAttribServices
 90
    32768
280
     0
281
     0
  0
CLASS
  1
ACRFMCADAPIATTHOLDER
  2
AcRfMCADAPIAttHolder
  3
AcAttribServices
 90
    32768
280
     0
281
     0
  0
CLASS
  1
AMDTORGANIZATION
  2
AmdtOrganization
  3
AcAttribServices
 90
    32768
280
     0
281
     0
  0
CLASS
  1
AMDTPERSONANDORGANIZATION
  2
AmdtPersonAndOrganization
  3
AcAttribServices
 90
    32768
280
     0
281
     0
  0
CLASS
  1
AMDTPROPERTYDEFINITION
  2
AmdtPropertyDefinition
  3
AcAttribServices
 90
    32768
280
     0
281
     0
  0
CLASS
  1
AMDTAPPROVALPERSONORGANIZATION
  2
AmdtApprovalPersonOrganization
  3
AcAttribServices
 90
    32768
280
     0
281
     0
  0
CLASS
  1
AMDTDATEANDTIME
  2
AmdtDateAndTime
  3
AcAttribServices
 90
    32768
280
     0
281
     0
  0
CLASS
  1
AMDTPRODUCTCATEGORY
  2
AmdtProductCategory
  3
AcAttribServices
 90
    32768
280
     0
281
     0
  0
CLASS
  1
AMDTPRODUCTCATEGORYRELATIONSHIP
  2
AmdtProductCategoryRelationship
  3
AcAttribServices
 90
    32768
280
     0
281
     0
  0
CLASS
  1
AMDTAPPROVAL
  2
AmdtApproval
  3
AcAttribServices
 90
    32768
280
     0
281
     0
  0
CLASS
  1
AMDTDATEANDTIMEASSIGNMENT
  2
AmdtDateAndTimeAssignment
  3
AcAttribServices
 90
    32768
280
     0
281
     0
  0
CLASS
  1
AMDTPERSONANDORGANIZATIONASSIGNMENT
  2
AmdtPersonAndOrganizationAssignment
  3
AcAttribServices
 90
    32768
280
     0
281
     0
  0
CLASS
  1
AMDTSECURITYCLASSIFICATION
  2
AmdtSecurityClassification
  3
AcAttribServices
 90
    32768
280
     0
281
     0
  0
CLASS
  1
AMDTPRODUCTDEFINITION
  2
AmdtProductDefinition
  3
AcAttribServices
 90
    32768
280
     0
281
     0
  0
CLASS
  1
AMDTPRODUCTDEFINITIONFORMATION
  2
AmdtProductDefinitionFormation
  3
AcAttribServices
 90
    32768
280
     0
281
     0
  0
CLASS
  1
AMDTPRODUCT
  2
AmdtProduct
  3
AcAttribServices
 90
    32768
280
     0
281
     0
  0
CLASS
  1
ACRFATTGENMGR
  2
AcRfAttGeneralMgr
  3
AcAttribServices
 90
        0
280
     0
281
     0
  0
CLASS
  1
ACRFOBJATTMGR
  2
AcRfObjAttGroupMgr
  3
AcAttribServices
 90
    32768
280
     0
281
     0
  0
CLASS
  1
ACADPARTCIRCEDGRES
  2
AcAdPartCircEdgRes
  3
AdGrefServices
 90
    32768
280
     0
281
     0
  0
CLASS
  1
ACRFINSADJ
  2
AcRfInsAdjuster
  3
AcMeServices
 90
    32768
280
     0
281
     0
  0
CLASS
  1
FACEID
  2
AcAdFaceId
  3
DesignerServices
 90
    32768
280
     0
281
     0
  0
CLASS
  1
ACADPARTPLANARFACERES
  2
AcAdPartPlanarFaceRes
  3
AdGrefServices
 90
    32768
280
     0
281
     0
  0
CLASS
  1
ACMELINEARARROW
  2
AcImLinearArrowDisplay
  3
AcMeServices
 90
    32768
280
     0
281
     1
  0
CLASS
  1
DEPEDGEPATTERNINSTANCE
  2
AcAdDepEdgePatternInstance
  3
DesignerServices
 90
    32768
280
     0
281
     0
  0
CLASS
  1
ACAMEXPR
  2
AcAmExpr
  3
DesignerAssemblies
 90
    32768
280
     0
281
     0
  0
CLASS
  1
ACCMINSERTPLPL
  2
AcCmInsertPlPl
  3
AcCmServices
 90
    32768
280
     0
281
     0
  0
CLASS
  1
ACCMCONSTREACTOR
  2
AcCmConstraintReactor
  3
DesignerAssemblies
 90
    32768
280
     0
281
     0
  0
CLASS
  1
ACADPARTCYLINDERFACERES
  2
AcAdPartCylinderFaceRes
  3
AdGrefServices
 90
    32768
280
     0
281
     0
  0
CLASS
  1
ACMEAXIS
  2
AcImAxisDisplay
  3
AcMeServices
 90
    32768
280
     0
281
     1
  0
CLASS
  1
ACCMANGVECVEC
  2
AcCmAngVecVec
  3
DesignerAssemblies
 90
    32768
280
     0
281
     0
  0
CLASS
  1
ACAMBLANKBODYCOMP
  2
AcAmBlankBodyComp
  3
DesignerAssemblies
 90
    32768
280
     0
281
     0
  0
CLASS
  1
ACAMTOOLBODYCOMP
  2
AcAmToolBodyComp
  3
DesignerAssemblies
 90
    32768
280
     0
281
     0
  0
CLASS
  1
ADPARAMETRICBOOLEAN
  2
AcAdParametricBoolean
  3
DesignerServices
 90
    32768
280
     0
281
     0
  0
CLASS
  1
DEPEDGEPARAMETRCBOOLORDERING
  2
AcAdDepEdgeParametricBooleanOrdering
  3
DesignerServices
 90
    32768
280
     0
281
     0
  0
CLASS
  1
AMACTIVEPARTSELECTFILTER
  2
AcDmActivePartViewEntFilter
  3
DesignerServices
 90
    32768
280
     0
281
     0
  0
CLASS
  1
AM_GREF_PLANE
  2
AcDmGrefPlnDef
  3
AcMechDwgViewMgmt
 90
    32768
280
     0
281
     0
  0
CLASS
  1
AM_ABS_AXIS
  2
AcDmAbsAxisDef
  3
AcMechDwgViewMgmt
 90
    32768
280
     0
281
     0
  0
CLASS
  1
AM_BASE_VIEW_ORIENT
  2
AcDmBaseViewOr
  3
AcMechDwgViewMgmt
 90
    32768
280
     0
281
     0
  0
CLASS
  1
AM_DWG_VIEWPORT
  2
AcDmViewport
  3
AcMechDwgViewMgmt
 90
    32768
280
     0
281
     0
  0
CLASS
  1
AM_VIEW_DISPLAY
  2
AcDmDwgViewDisplay
  3
AcMechDwgViewMgmt
 90
    32768
280
     0
281
     0
  0
CLASS
  1
AM_CLDFLTS
  2
AcDmClDflts
  3
AcMechDwgViewMgmt
 90
    32768
280
     0
281
     0
  0
CLASS
  1
AM_BASE_VIEW
  2
AcDmBaseView
  3
AcMechDwgViewMgmt
 90
    32768
280
     0
281
     0
  0
CLASS
  1
ACMEPLINE
  2
AcImPlineDisplay
  3
AcMeServices
 90
    32768
280
     0
281
     1
  0
CLASS
  1
ACDMPARTVIEWDATA
  2
AcDmPartViewData
  3
AcMechDwgViewMgmt
 90
    32768
280
     0
281
     0
  0
CLASS
  1
ACDMDISPLAYATTRIBS
  2
AcDmDisplayAttribs
  3
AcMechDwgViewMgmt
 90
    32768
280
     0
281
     0
  0
CLASS
  1
ACDMBODYINSTANCEDATA
  2
AcDmBodyInstanceData
  3
AcMechDwgViewMgmt
 90
    32768
280
     0
281
     0
  0
CLASS
  1
ACDMVWEDLINE
  2
AcDmViewEdgeLine
  3
AcMechDwgViewMgmt
 90
    32768
280
     0
281
     1
  0
CLASS
  1
ACDMVWEDELLIPSE
  2
AcDmViewEdgeEllipse
  3
AcMechDwgViewMgmt
 90
    32768
280
     0
281
     1
  0
CLASS
  1
ACDMVWEDSPLINE
  2
AcDmViewEdgeSpline
  3
AcMechDwgViewMgmt
 90
    32768
280
     0
281
     1
  0
CLASS
  1
ACDMVWEDCIRC
  2
AcDmViewEdgeCircle
  3
AcMechDwgViewMgmt
 90
    32768
280
     0
281
     1
  0
CLASS
  1
ACDMVWEDARC
  2
AcDmViewEdgeArc
  3
AcMechDwgViewMgmt
 90
    32768
280
     0
281
     1
  0
CLASS
  1
ACADPARTPOINTRES
  2
AcAdPartPointRes
  3
AdGrefServices
 90
    32768
280
     0
281
     0
  0
CLASS
  1
ACADPARTSKETCHPLANEAXISRES
  2
AcAdPartSketchPlaneAxisRes
  3
DesignerServices
 90
    32768
280
     0
281
     0
  0
CLASS
  1
AM_VIEWDIMPARALLEL
  2
AcDmViewDimParallel
  3
AcMechDwgViewMgmt
 90
    32768
280
     0
281
     0
  0
CLASS
  1
AMDTDMPARMAPDATA
  2
AmdtDmDimParMapData
  3
AcMechDwgViewMgmt
 90
    32768
280
     0
281
     0
  0
CLASS
  1
ACADSKETCHPOINTRES
  2
AcAdSketchPointRes
  3
DesignerServices
 90
    32768
280
     0
281
     0
  0
CLASS
  1
AM_VIEWDIMLINEAR
  2
AcDmViewDimLinear
  3
AcMechDwgViewMgmt
 90
    32768
280
     0
281
     0
  0
CLASS
  1
ACADSKETCHLINERES
  2
AcAdSketchLineRes
  3
DesignerServices
 90
    32768
280
     0
281
     0
  0
CLASS
  1
AM_VIEWDIMANGULAR
  2
AcDmViewDimAngular
  3
AcMechDwgViewMgmt
 90
    32768
280
     0
281
     0
  0
CLASS
  1
ACADSKETCHCIRCARCRES
  2
AcAdSketchCircArcRes
  3
DesignerServices
 90
    32768
280
     0
281
     0
  0
CLASS
  1
AM_VIEWDIMDIAMETER
  2
AcDmViewDimDiameter
  3
AcMechDwgViewMgmt
 90
    32768
280
     0
281
     0
  0
CLASS
  1
AM_ADLINCTRLINE
  2
AcAdLineCl
  3
DesignerServices
 90
    32768
280
     0
281
     0
  0
CLASS
  1
AM_ADCIRCTRLINE
  2
AcAdBullsEyeCl
  3
DesignerServices
 90
    32768
280
     0
281
     0
  0
CLASS
  1
ACDBLINERES
  2
AcDbLineRes
  3
AcGrefServices
 90
    32768
280
     0
281
     0
  0
CLASS
  1
ACRFDMINSADJ
  2
AcRfDMInsAdjuster
  3
AcMechDwgViewMgmt
 90
    32768
280
     0
281
     0
  0
CLASS
  1
AM_ORTHO_VIEW_ORIENT
  2
AcDmOrthoViewOr
  3
AcMechDwgViewMgmt
 90
    32768
280
     0
281
     0
  0
CLASS
  1
AM_ORTHO_VIEW
  2
AcDmOrthoView
  3
AcMechDwgViewMgmt
 90
    32768
280
     0
281
     0
  0
CLASS
  1
ACADPARTLINEDGRES
  2
AcAdPartLinEdgRes
  3
AdGrefServices
 90
    32768
280
     0
281
     0
  0
CLASS
  1
ACADPARTDATUMPOINTRES
  2
AcAdPartDatumPointRes
  3
AdGrefServices
 90
    32768
280
     0
281
     0
  0
CLASS
  1
AMDTEDGESTANDARDISO13715
  2
AmdtEdgeStdISO13715
  3
"Amdt_StdImp|Product Description: AutoCAD Mechanical 2004 DX|Company: Autodesk"
 90
        0
280
     0
281
     0
  0
ENDSEC
  0
SECTION
  2
TABLES
  0
TABLE
  2
VPORT
  5
1F
330
0
100
AcDbSymbolTable
 70
     1
  0
VPORT
  5
20
330
1F
100
AcDbSymbolTableRecord
100
AcDbViewportTableRecord
  2
*Active
 70
     0
 10
0.0
 20
0.0
 11
1.0
 21
1.0
 12
0.0
 22
0.0
 13
0.0
 23
0.0
 14
2.5
 24
2.5
 15
10.0
 25
10.0
 16
0.0
 26
0.0
 36
1.0
 17
0.0
 27
0.0
 37
0.0
 40
2.000000000000000E+20
 41
1.0
 42
50.0
 43
0.0
 44
0.0
 50
0.0
 51
0.0
 71
     0
 72
   100
 73
     1
 74
     1
 75
     0
 76
     0
 77
     0
 78
     0
281
     0
 65
     0
110
0.0
120
0.0
130
0.0
111
1.0
121
0.0
131
0.0
112
0.0
122
1.0
132
0.0
 79
     0
146
0.0
  0
ENDTAB
  0
TABLE
  2
LTYPE
  5
1A
330
0
100
AcDbSymbolTable
 70
    21
  0
LTYPE
  5
1B
330
1A
100
AcDbSymbolTableRecord
100
AcDbLinetypeTableRecord
  2
BYBLOCK
 70
     0
  3

 72
    65
 73
     0
 40
0.0
  0
LTYPE
  5
1C
330
1A
100
AcDbSymbolTableRecord
100
AcDbLinetypeTableRecord
  2
BYLAYER
 70
     0
  3

 72
    65
 73
     0
 40
0.0
  0
LTYPE
  5
9
330
1A
100
AcDbSymbolTableRecord
100
AcDbLinetypeTableRecord
  2
CONTINUOUS
 70
     0
  3
Solid line
 72
    65
 73
     0
 40
0.0
  0
LTYPE
  5
38
330
1A
100
AcDbSymbolTableRecord
100
AcDbLinetypeTableRecord
  2
AM_ISO08W050x2
 70
     0
  3
__ . __ . __ . __ . __ . __
 72
    65
 73
     4
 40
9.0
 49
6.0
 74
     0
 49
-0.75
 74
     0
 49
1.5
 74
     0
 49
-0.75
 74
     0
  0
LTYPE
  5
281
330
1A
100
AcDbSymbolTableRecord
100
AcDbLinetypeTableRecord
  2
HIDDEN
 70
     0
  3
Hidden __ __ __ __ __ __ __ __ __ __ __ __ __ _
 72
    65
 73
     2
 40
9.524999999999998
 49
6.349999999999999
 74
     0
 49
-3.174999999999999
 74
     0
  0
LTYPE
  5
282
330
1A
100
AcDbSymbolTableRecord
100
AcDbLinetypeTableRecord
  2
PHANTOM2
 70
     0
  3
Phantom (.5x) ___ _ _ ___ _ _ ___ _ _ ___ _ _
 72
    65
 73
     6
 40
31.75
 49
15.875
 74
     0
 49
-3.174999999999999
 74
     0
 49
3.174999999999999
 74
     0
 49
-3.174999999999999
 74
     0
 49
3.174999999999999
 74
     0
 49
-3.174999999999999
 74
     0
  0
LTYPE
  5
283
330
1A
100
AcDbSymbolTableRecord
100
AcDbLinetypeTableRecord
  2
CENTER
 70
     0
  3
Center ____ _ ____ _ ____ _ ____ _ ____ _ ____
 72
    65
 73
     4
 40
50.8
 49
31.75
 74
     0
 49
-6.349999999999999
 74
     0
 49
6.349999999999999
 74
     0
 49
-6.349999999999999
 74
     0
  0
LTYPE
  5
2B7
330
1A
100
AcDbSymbolTableRecord
100
AcDbLinetypeTableRecord
  2
AM_ISO02W050
 70
     0
  3
__ __ __ __ __ __ __ __ __ __ __ __ __ __ __
 72
    65
 73
     2
 40
7.5
 49
6.0
 74
     0
 49
-1.5
 74
     0
  0
LTYPE
  5
2B8
330
1A
100
AcDbSymbolTableRecord
100
AcDbLinetypeTableRecord
  2
AM_ISO08W050
 70
     0
  3
____ . ____ . ____ . ____ . ____ . ____ . ____
 72
    65
 73
     4
 40
18.0
 49
12.0
 74
     0
 49
-1.5
 74
     0
 49
3.0
 74
     0
 49
-1.5
 74
     0
  0
LTYPE
  5
2B9
330
1A
100
AcDbSymbolTableRecord
100
AcDbLinetypeTableRecord
  2
AM_ISO09W050
 70
     0
  3
_____ . . _____ . . _____ . . ____ .. ____
 72
    65
 73
     6
 40
22.5
 49
12.0
 74
     0
 49
-1.5
 74
     0
 49
3.0
 74
     0
 49
-1.5
 74
     0
 49
3.0
 74
     0
 49
-1.5
 74
     0
  0
LTYPE
  5
2BA
330
1A
100
AcDbSymbolTableRecord
100
AcDbLinetypeTableRecord
  2
Amconstr
 70
     0
  3
_______________________
 72
    65
 73
     2
 40
9999.0
 49
9999.0
 74
     0
 49
0.0
 74
     0
  0
LTYPE
  5
2BB
330
1A
100
AcDbSymbolTableRecord
100
AcDbLinetypeTableRecord
  2
AM_ISO02W050x2
 70
     0
  3
 _ _ _ _ _ _ _ _ _ _ _ _
 72
    65
 73
     2
 40
3.75
 49
3.0
 74
     0
 49
-0.75
 74
     0
  0
LTYPE
  5
2BE
330
1A
100
AcDbSymbolTableRecord
100
AcDbLinetypeTableRecord
  2
Amzigzag
 70
     0
  3
/\/-/\/-/\/-/\/-/\/-/\/
 72
    65
 73
     2
 40
11.0001
 49
0.0001
 74
     4
 75
   135
340
2BD
 46
0.04
 50
0.0
 44
0.0
 45
0.0
 49
-11.0
 74
     0
  0
LTYPE
  5
2CD
330
1A
100
AcDbSymbolTableRecord
100
AcDbLinetypeTableRecord
  2
ACISOWELD
 70
     0
  3
_ _ _ _ _
 72
    65
 73
     2
 40
2.0
 49
2.0
 74
     0
 49
-1.0
 74
     0
  0
LTYPE
  5
2CE
330
1A
100
AcDbSymbolTableRecord
100
AcDbLinetypeTableRecord
  2
ACISOTGB
 70
     0
  3
__ . . __ . .
 72
    65
 73
     6
 40
9.0
 49
4.0
 74
     0
 49
-1.0
 74
     0
 49
1.0
 74
     0
 49
-1.0
 74
     0
 49
1.0
 74
     0
 49
-1.0
 74
     0
  0
LTYPE
  5
2CF
330
1A
100
AcDbSymbolTableRecord
100
AcDbLinetypeTableRecord
  2
ACISOTGL
 70
     0
  3
_ _ _ _ _
 72
    65
 73
     2
 40
3.0
 49
2.0
 74
     0
 49
-1.0
 74
     0
  0
LTYPE
  5
1659
330
1A
100
AcDbSymbolTableRecord
100
AcDbLinetypeTableRecord
  2
ASULTYPE
 70
     0
  3
實線
 72
    65
 73
     2
 40
3.0
 49
2.5
 74
     0
 49
0.5
 74
     0
  0
LTYPE
  5
165A
330
1A
100
AcDbSymbolTableRecord
100
AcDbLinetypeTableRecord
  2
ASVLTYPE
 70
     0
  3
__ __ __ __ __ __ __ __ __ __ __ __ __ __ __ __ __ __ __ __ __
 72
    65
 73
     2
 40
0.75
 49
0.5
 74
     0
 49
-0.25
 74
     0
  0
LTYPE
  5
1986
330
1A
100
AcDbSymbolTableRecord
100
AcDbLinetypeTableRecord
  2
CENTER2
 70
     0
  3
Center (.5x) ___ _ ___ _ ___ _ ___ _ ___ _ ___
 72
    65
 73
     4
 40
1.125
 49
0.75
 74
     0
 49
-0.125
 74
     0
 49
0.125
 74
     0
 49
-0.125
 74
     0
  0
LTYPE
  5
1987
330
1A
100
AcDbSymbolTableRecord
100
AcDbLinetypeTableRecord
  2
HIDDEN2
 70
     0
  3
Hidden (.5x) _ _ _ _ _ _ _ _ _ _ _ _ _ _ _ _ _
 72
    65
 73
     2
 40
0.1875
 49
0.125
 74
     0
 49
-0.0625
 74
     0
  0
LTYPE
  5
1988
330
1A
100
AcDbSymbolTableRecord
100
AcDbLinetypeTableRecord
  2
Amzigzag2
 70
     0
  3
/\/-/\/-/\/-/\/-/\/-/\/
 72
    65
 73
     2
 40
0.4401
 49
0.0001
 74
     4
 75
   135
340
2BD
 46
0.0016
 50
0.0
 44
0.0
 45
0.0
 49
-0.4400000000000001
 74
     0
  0
LTYPE
  5
1989
330
1A
100
AcDbSymbolTableRecord
100
AcDbLinetypeTableRecord
  2
ACANSTGB
 70
     0
  3
__ . . __ . .
 72
    65
 73
     6
 40
0.35433070866
 49
0.15748031496
 74
     0
 49
-0.03937007874
 74
     0
 49
0.03937007874
 74
     0
 49
-0.03937007874
 74
     0
 49
0.03937007874
 74
     0
 49
-0.03937007874
 74
     0
  0
LTYPE
  5
198A
330
1A
100
AcDbSymbolTableRecord
100
AcDbLinetypeTableRecord
  2
ACANSTGL
 70
     0
  3
_ _ _ _ _
 72
    65
 73
     2
 40
0.11811023622
 49
0.07874015748
 74
     0
 49
-0.03937007874
 74
     0
  0
ENDTAB
  0
TABLE
  2
LAYER
  5
14
102
{ACAD_XDICTIONARY
360
15
102
}
330
0
100
AcDbSymbolTable
 70
    13
  0
LAYER
  5
5
330
14
100
AcDbSymbolTableRecord
100
AcDbLayerTableRecord
  2
0
 70
     0
 62
     7
  6
CONTINUOUS
370
    -3
390
6
  0
LAYER
  5
81
330
14
100
AcDbSymbolTableRecord
100
AcDbLayerTableRecord
  2
AM_VIS
 70
     0
 62
     7
  6
CONTINUOUS
370
    -3
390
6
  0
LAYER
  5
37
330
14
100
AcDbSymbolTableRecord
100
AcDbLayerTableRecord
  2
AM_7
 70
     0
 62
     1
  6
AM_ISO08W050x2
370
    -3
390
6
  0
LAYER
  5
2E6
330
14
100
AcDbSymbolTableRecord
100
AcDbLayerTableRecord
  2
LOGO
 70
     0
 62
     7
  6
CONTINUOUS
370
    -3
390
6
  0
LAYER
  5
440
330
14
100
AcDbSymbolTableRecord
100
AcDbLayerTableRecord
  2
AM_5
 70
     0
 62
     5
  6
CONTINUOUS
370
    -3
390
6
  0
LAYER
  5
442
330
14
100
AcDbSymbolTableRecord
100
AcDbLayerTableRecord
  2
Defpoints
 70
     0
 62
     7
  6
CONTINUOUS
290
     0
370
    -3
390
6
  0
LAYER
  5
636
330
14
100
AcDbSymbolTableRecord
100
AcDbLayerTableRecord
  2
SL
 70
     0
 62
     2
  6
CONTINUOUS
370
    -3
390
6
1001
AcAecLayerStandard
1000

1000

  0
LAYER
  5
166C
330
14
100
AcDbSymbolTableRecord
100
AcDbLayerTableRecord
  2
CEN
 70
     0
 62
     1
  6
CENTER
370
    -3
390
6
  0
LAYER
  5
166D
330
14
100
AcDbSymbolTableRecord
100
AcDbLayerTableRecord
  2
1
 70
     0
 62
     3
  6
CENTER
370
    -3
390
6
1001
AcAecLayerStandard
1000

1000

  0
LAYER
  5
198B
330
14
100
AcDbSymbolTableRecord
100
AcDbLayerTableRecord
  2
AM_4
 70
     0
 62
     3
  6
CONTINUOUS
370
    25
390
6
  0
LAYER
  5
198C
330
14
100
AcDbSymbolTableRecord
100
AcDbLayerTableRecord
  2
HIDDEN
 70
     0
 62
     3
  6
AM_ISO08W050x2
370
    -3
390
6
  0
LAYER
  5
198D
330
14
100
AcDbSymbolTableRecord
100
AcDbLayerTableRecord
  2
CENTER
 70
     0
 62
     1
  6
CENTER
370
    -3
390
6
  0
LAYER
  5
198E
330
14
100
AcDbSymbolTableRecord
100
AcDbLayerTableRecord
  2
AM_HID
 70
     0
 62
     7
  6
AM_ISO02W050
370
    25
390
6
  0
ENDTAB
  0
TABLE
  2
STYLE
  5
17
330
0
100
AcDbSymbolTable
 70
     8
  0
STYLE
  5
18
330
17
100
AcDbSymbolTableRecord
100
AcDbTextStyleTableRecord
  2
STANDARD
 70
     0
 40
0.0
 41
1.0
 50
0.0
 71
     0
 42
3.5
  3
ISOCP.SHX
  4
CHINESET.SHX
  0
STYLE
  5
2BD
330
17
100
AcDbSymbolTableRecord
100
AcDbTextStyleTableRecord
  2

 70
     1
 40
0.0
 41
1.0
 50
0.0
 71
     0
 42
1.0
  3
ltypeshp.shx
  4

  0
STYLE
  5
2BF
330
17
100
AcDbSymbolTableRecord
100
AcDbTextStyleTableRecord
  2
ACISOTS
 70
     0
 40
1.0
 41
1.0
 50
0.0
 71
     0
 42
1.0
  3
isocp.shx
  4
chineset.shx
  0
STYLE
  5
2CC
330
17
100
AcDbSymbolTableRecord
100
AcDbTextStyleTableRecord
  2
ACISOGDT
 70
     0
 40
0.0
 41
1.0
 50
0.0
 71
     0
 42
1.0
  3
amgdt.shx
  4

  0
STYLE
  5
2E7
330
17
100
AcDbSymbolTableRecord
100
AcDbTextStyleTableRecord
  2
CHINESET
 70
     0
 40
0.0
 41
1.0
 50
0.0
 71
     0
 42
1.0
  3
simplex
  4
CHINESET.SHX
  0
STYLE
  5
198F
330
17
100
AcDbSymbolTableRecord
100
AcDbTextStyleTableRecord
  2
ROMANS1
 70
     0
 40
0.0
 41
1.0
 50
0.0
 71
     0
 42
3.0
  3
romans.shx
  4
LMP.shx
  0
STYLE
  5
1990
330
17
100
AcDbSymbolTableRecord
100
AcDbTextStyleTableRecord
  2
ACANSTS
 70
     0
 40
1.0
 41
1.0
 50
0.0
 71
     0
 42
3.0
  3
romans.shx
  4
chineset.shx
  0
STYLE
  5
1991
330
17
100
AcDbSymbolTableRecord
100
AcDbTextStyleTableRecord
  2
ACANSGDT
 70
     0
 40
0.0
 41
1.0
 50
0.0
 71
     0
 42
3.0
  3
amgdtans.shx
  4

  0
ENDTAB
  0
TABLE
  2
VIEW
  5
1D
330
0
100
AcDbSymbolTable
 70
     1
  0
ENDTAB
  0
TABLE
  2
UCS
  5
1E
330
0
100
AcDbSymbolTable
 70
     0
  0
ENDTAB
  0
TABLE
  2
APPID
  5
21
330
0
100
AcDbSymbolTable
 70
    26
  0
APPID
  5
22
330
21
100
AcDbSymbolTableRecord
100
AcDbRegAppTableRecord
  2
ACAD
 70
     0
  0
APPID
  5
13
330
21
100
AcDbSymbolTableRecord
100
AcDbRegAppTableRecord
  2
ACAD_PSEXT
 70
     0
  0
APPID
  5
254
330
21
100
AcDbSymbolTableRecord
100
AcDbRegAppTableRecord
  2
MCAD_NO_VIS
 70
     0
  0
APPID
  5
255
330
21
100
AcDbSymbolTableRecord
100
AcDbRegAppTableRecord
  2
ACAD_TEMP_GRAPHIC
 70
     0
  0
APPID
  5
285
330
21
100
AcDbSymbolTableRecord
100
AcDbRegAppTableRecord
  2
AD_DRAW
 70
     0
  0
APPID
  5
288
330
21
100
AcDbSymbolTableRecord
100
AcDbRegAppTableRecord
  2
ACATTRIBSERVICES
 70
     0
  0
APPID
  5
2A6
330
21
100
AcDbSymbolTableRecord
100
AcDbRegAppTableRecord
  2
DESIGNERASSEMBLIES
 70
     0
  0
APPID
  5
2AC
330
21
100
AcDbSymbolTableRecord
100
AcDbRegAppTableRecord
  2
ACADM_DIM_EDIT
 70
     0
  0
APPID
  5
2AD
330
21
100
AcDbSymbolTableRecord
100
AcDbRegAppTableRecord
  2
AMDT_DM_ADJ
 70
     0
  0
APPID
  5
2E9
330
21
100
AcDbSymbolTableRecord
100
AcDbRegAppTableRecord
  2
GENIUS_GENOBJ-N-CRS_13
 70
     0
  0
APPID
  5
2EA
330
21
100
AcDbSymbolTableRecord
100
AcDbRegAppTableRecord
  2
GENIUS_GENOLIS_13
 70
     0
  0
APPID
  5
2EB
330
21
100
AcDbSymbolTableRecord
100
AcDbRegAppTableRecord
  2
GENIUS_GENOENT_13
 70
     0
  0
APPID
  5
2EC
330
21
100
AcDbSymbolTableRecord
100
AcDbRegAppTableRecord
  2
GENIUS_GENODEF_13
 70
     0
  0
APPID
  5
2ED
330
21
100
AcDbSymbolTableRecord
100
AcDbRegAppTableRecord
  2
GENIUS_GENOREF_13
 70
     0
  0
APPID
  5
2EE
330
21
100
AcDbSymbolTableRecord
100
AcDbRegAppTableRecord
  2
GENIUS_GENREC_14
 70
     0
  0
APPID
  5
2EF
330
21
100
AcDbSymbolTableRecord
100
AcDbRegAppTableRecord
  2
GENIUS_GENOBJ-N-REC_13
 70
     0
  0
APPID
  5
48E
330
21
100
AcDbSymbolTableRecord
100
AcDbRegAppTableRecord
  2
ACAD_DSTYLE_DIMTEXT_FILL
 70
     0
  0
APPID
  5
637
330
21
100
AcDbSymbolTableRecord
100
AcDbRegAppTableRecord
  2
AcAecLayerStandard
 70
     0
  0
APPID
  5
EF9
330
21
100
AcDbSymbolTableRecord
100
AcDbRegAppTableRecord
  2
GENIUS_GENDTOL_13
 70
     0
  0
APPID
  5
123F
330
21
100
AcDbSymbolTableRecord
100
AcDbRegAppTableRecord
  2
GENIUS_GENDIM_13
 70
     0
  0
APPID
  5
1240
330
21
100
AcDbSymbolTableRecord
100
AcDbRegAppTableRecord
  2
GENIUS_GE3DTOL_13
 70
     0
  0
APPID
  5
12BE
330
21
100
AcDbSymbolTableRecord
100
AcDbRegAppTableRecord
  2
ASURF_PCURVE_APPNAME
 70
     0
  0
APPID
  5
12C3
330
21
100
AcDbSymbolTableRecord
100
AcDbRegAppTableRecord
  2
AMG_3D2D_5.0
 70
     0
  0
APPID
  5
1999
330
21
100
AcDbSymbolTableRecord
100
AcDbRegAppTableRecord
  2
GENIUS_GENDIMSH_14
 70
     0
  0
APPID
  5
199A
330
21
100
AcDbSymbolTableRecord
100
AcDbRegAppTableRecord
  2
GENIUS_GENOBJ-N-CEN_13
 70
     0
  0
APPID
  5
199B
330
21
100
AcDbSymbolTableRecord
100
AcDbRegAppTableRecord
  2
GENIUS_GENCEN_19
 70
     0
  0
ENDTAB
  0
TABLE
  2
DIMSTYLE
  5
23
330
0
100
AcDbSymbolTable
 70
    15
100
AcDbDimStyleTable
 71
     3
340
24
340
25
340
26
  0
DIMSTYLE
105
24
330
23
100
AcDbSymbolTableRecord
100
AcDbDimStyleTableRecord
  2
AM_ISO
 70
     0
  4
"
 41
3.5
 42
1.0
 43
8.0
 44
1.0
 47
0.1
 48
0.1
 73
     0
 74
     0
 77
     1
 78
     8
 79
     2
140
3.5
141
0.0
143
0.0393701
146
0.71
147
1.0
172
     1
176
   256
177
   256
178
   256
271
     2
272
     2
283
     0
284
     8
285
     8
340
18
371
    -1
372
    -1
  0
DIMSTYLE
105
25
330
23
100
AcDbSymbolTableRecord
100
AcDbDimStyleTableRecord
  2
AM_ISO$SF
 70
     0
  4
"
 41
2.5
 42
1.0
 43
10.0
 44
1.0
 47
0.1
 48
0.1
 73
     0
 74
     0
 75
     1
 76
     1
 77
     1
 78
     8
 79
     2
140
3.5
141
0.0
143
0.0393701
146
0.71
147
1.0
172
     1
176
   256
177
   256
178
   256
271
     2
272
     2
283
     0
284
     8
340
18
371
    -1
372
    -1
  0
DIMSTYLE
105
26
330
23
100
AcDbSymbolTableRecord
100
AcDbDimStyleTableRecord
  2
AM_ISO$SH
 70
     0
  4
"
 41
2.5
 42
1.0
 43
10.0
 44
1.0
 47
0.1
 48
0.1
 73
     0
 74
     0
 75
     1
 76
     1
 77
     1
 78
     8
 79
     2
140
3.5
141
0.0
143
0.0393701
144
2.0
146
0.71
147
1.0
172
     1
173
     1
176
   256
177
   256
178
   256
271
     2
272
     2
283
     0
284
     8
340
18
343
27
371
    -1
372
    -1
  0
DIMSTYLE
105
2D8
102
{ACAD_REACTORS
330
15B2
102
}
330
23
100
AcDbSymbolTableRecord
100
AcDbDimStyleTableRecord
  2
AM_ISO$3
 70
     0
  4
"
 41
3.5
 42
1.0
 43
8.0
 44
1.0
 47
0.1
 48
0.1
 73
     0
 77
     1
 78
     8
 79
     2
140
3.5
141
0.0
143
0.0393701
146
0.71
147
1.0
176
   256
177
   256
178
   256
271
     2
272
     2
283
     0
284
     8
285
     8
288
     1
289
     0
340
18
371
    -1
372
    -1
  0
DIMSTYLE
105
2D9
102
{ACAD_REACTORS
330
1172
102
}
330
23
100
AcDbSymbolTableRecord
100
AcDbDimStyleTableRecord
  2
AM_ISO$4
 70
     0
  4
"
 41
3.5
 42
1.0
 43
8.0
 44
1.0
 47
0.1
 48
0.1
 73
     0
 77
     1
 78
     8
 79
     2
140
3.5
141
0.0
143
0.0393701
146
0.71
147
1.0
176
   256
177
   256
178
   256
271
     2
272
     2
283
     0
284
     8
285
     8
288
     1
289
     0
340
18
371
    -1
372
    -1
  0
DIMSTYLE
105
2DA
330
23
100
AcDbSymbolTableRecord
100
AcDbDimStyleTableRecord
  2
AM_ISO$6
 70
     0
  4
"
 41
3.5
 42
1.0
 43
8.0
 44
1.0
 47
0.1
 48
0.1
 73
     0
 74
     0
 78
     8
 79
     2
140
3.5
141
0.0
143
0.0393701
146
0.71
147
1.0
172
     1
176
   256
177
   256
178
   256
271
     2
272
     2
283
     0
284
     8
285
     8
340
18
371
    -1
372
    -1
  0
DIMSTYLE
105
2DB
102
{ACAD_REACTORS
330
CF7
102
}
330
23
100
AcDbSymbolTableRecord
100
AcDbDimStyleTableRecord
  2
AM_ISO$7
 70
     0
  4
"
 41
3.5
 42
1.0
 43
8.0
 44
1.0
 47
0.1
 48
0.1
 73
     0
 74
     0
 77
     1
 78
     8
 79
     2
140
5.0
141
0.0
143
0.0393701
146
0.71
147
1.5
172
     1
176
   256
177
   256
178
   256
271
     2
272
     2
283
     0
284
     8
285
     8
340
18
371
    -1
372
    -1
  0
DIMSTYLE
105
2E8
102
{ACAD_REACTORS
330
CF3
330
CF2
330
CF1
330
CEF
330
CF0
330
CEE
330
CED
330
CEC
330
D06
330
CEB
330
179A
330
1A23
330
1A24
102
}
330
23
100
AcDbSymbolTableRecord
100
AcDbDimStyleTableRecord
  2
AM_ISO$0
 70
     0
  4
"
 41
3.5
 42
1.0
 43
8.0
 44
1.0
 47
0.1
 48
0.1
 73
     0
 74
     0
 77
     1
 78
     8
 79
     2
140
3.5
141
0.0
143
0.0393701
146
0.71
147
1.0
172
     1
176
   256
177
   256
178
   256
271
     2
272
     2
283
     0
284
     8
285
     8
340
18
371
    -1
372
    -1
  0
DIMSTYLE
105
1992
330
23
100
AcDbSymbolTableRecord
100
AcDbDimStyleTableRecord
  2
STANDARD
 70
     0
 40
0.0
 41
3.0
 42
2.0
 43
8.0
 44
2.0
 47
0.15
 48
-0.1
 73
     0
 74
     0
 77
     1
 78
     8
140
3.0
141
1.0
145
0.9
147
1.0
271
     2
272
     2
279
     2
284
     8
285
     8
286
     8
340
18
  0
DIMSTYLE
105
1993
330
23
100
AcDbSymbolTableRecord
100
AcDbDimStyleTableRecord
  2
AM_ANSI
 70
     0
  4
mm
 41
0.1
 42
0.05
 43
0.5
 44
0.1
 47
0.1
 48
0.1
 78
     7
 79
     2
140
0.12
141
0.0
146
0.71
147
0.06
176
   256
177
   256
178
     2
274
     4
284
     7
340
18
371
    -1
372
    -1
  0
DIMSTYLE
105
1994
330
23
100
AcDbSymbolTableRecord
100
AcDbDimStyleTableRecord
  2
AM_ANSI$3
 70
     0
  4
mm
 41
0.1
 42
0.05
 43
0.5
 44
0.1
 47
0.1
 48
0.1
 78
     7
 79
     2
140
0.12
141
0.0
146
0.71
147
0.06
176
   256
177
   256
178
     2
274
     4
284
     7
288
     1
289
     0
340
18
371
    -1
372
    -1
  0
DIMSTYLE
105
1995
330
23
100
AcDbSymbolTableRecord
100
AcDbDimStyleTableRecord
  2
AM_ANSI$4
 70
     0
  4
mm
 41
0.1
 42
0.05
 43
0.5
 44
0.1
 47
0.1
 48
0.1
 78
     7
 79
     2
140
0.12
141
0.0
146
0.71
147
0.06
176
   256
177
   256
178
     2
274
     4
284
     7
288
     1
289
     0
340
18
371
    -1
372
    -1
  0
DIMSTYLE
105
1996
330
23
100
AcDbSymbolTableRecord
100
AcDbDimStyleTableRecord
  2
AM_ANSI$7
 70
     0
  4
mm
 41
0.1
 42
0.05
 43
0.5
 44
0.1
 47
0.1
 48
0.1
 78
     7
 79
     2
140
0.24
141
0.0
146
0.71
147
0.06
176
   256
177
   256
178
     2
274
     4
284
     7
340
18
371
    -1
372
    -1
  0
DIMSTYLE
105
1997
330
23
100
AcDbSymbolTableRecord
100
AcDbDimStyleTableRecord
  2
AM_ANSI$SF
 70
     0
  4
mm
 41
0.1
 42
0.05
 43
0.5
 44
0.1
 47
0.1
 48
0.1
 75
     1
 76
     1
 78
     7
 79
     2
140
0.12
141
0.0
146
0.71
147
0.06
176
   256
177
   256
178
     2
274
     4
284
     7
340
18
371
    -1
372
    -1
  0
DIMSTYLE
105
1998
330
23
100
AcDbSymbolTableRecord
100
AcDbDimStyleTableRecord
  2
AM_ANSI$SH
 70
     0
  4
mm
 41
0.1
 42
0.05
 43
0.5
 44
0.1
 47
0.1
 48
0.1
 75
     1
 76
     1
 78
     7
 79
     2
140
0.12
141
0.0
146
0.71
147
0.06
173
     1
176
   256
177
   256
178
     2
274
     4
284
     7
340
18
341
27
343
27
371
    -1
372
    -1
  0
ENDTAB
  0
TABLE
  2
BLOCK_RECORD
  5
1
330
0
100
AcDbSymbolTable
 70
    22
  0
BLOCK_RECORD
  5
2
102
{ACAD_XDICTIONARY
360
3
102
}
330
1
100
AcDbSymbolTableRecord
100
AcDbBlockTableRecord
  2
*MODEL_SPACE
340
B
  0
BLOCK_RECORD
  5
D
330
1
100
AcDbSymbolTableRecord
100
AcDbBlockTableRecord
  2
*PAPER_SPACE
340
10
  0
BLOCK_RECORD
  5
27
330
1
100
AcDbSymbolTableRecord
100
AcDbBlockTableRecord
  2
GENAXEH
340
0
  0
BLOCK_RECORD
  5
628
102
{ACAD_XDICTIONARY
360
629
102
}
330
1
100
AcDbSymbolTableRecord
100
AcDbBlockTableRecord
  2
A$C453B67D5
340
0
102
{BLKREFS
331
CFB
102
}
  0
BLOCK_RECORD
  5
62F
102
{ACAD_XDICTIONARY
360
630
102
}
330
1
100
AcDbSymbolTableRecord
100
AcDbBlockTableRecord
  2
A$C17481420
340
0
102
{BLKREFS
331
CFC
102
}
  0
BLOCK_RECORD
  5
D1F
330
1
100
AcDbSymbolTableRecord
100
AcDbBlockTableRecord
  2
*D3
340
0
  0
BLOCK_RECORD
  5
D2B
330
1
100
AcDbSymbolTableRecord
100
AcDbBlockTableRecord
  2
*D4
340
0
  0
BLOCK_RECORD
  5
D37
330
1
100
AcDbSymbolTableRecord
100
AcDbBlockTableRecord
  2
*D5
340
0
  0
BLOCK_RECORD
  5
D43
330
1
100
AcDbSymbolTableRecord
100
AcDbBlockTableRecord
  2
*D6
340
0
  0
BLOCK_RECORD
  5
D4F
330
1
100
AcDbSymbolTableRecord
100
AcDbBlockTableRecord
  2
*D7
340
0
  0
BLOCK_RECORD
  5
D5B
330
1
100
AcDbSymbolTableRecord
100
AcDbBlockTableRecord
  2
*D8
340
0
  0
BLOCK_RECORD
  5
D67
330
1
100
AcDbSymbolTableRecord
100
AcDbBlockTableRecord
  2
*D9
340
0
  0
BLOCK_RECORD
  5
D75
330
1
100
AcDbSymbolTableRecord
100
AcDbBlockTableRecord
  2
*D10
340
0
  0
BLOCK_RECORD
  5
D81
330
1
100
AcDbSymbolTableRecord
100
AcDbBlockTableRecord
  2
*D11
340
0
  0
BLOCK_RECORD
  5
DA5
330
1
100
AcDbSymbolTableRecord
100
AcDbBlockTableRecord
  2
*D12
340
0
  0
BLOCK_RECORD
  5
1173
330
1
100
AcDbSymbolTableRecord
100
AcDbBlockTableRecord
  2
*D13
340
0
  0
BLOCK_RECORD
  5
15B3
330
1
100
AcDbSymbolTableRecord
100
AcDbBlockTableRecord
  2
*D15
340
0
  0
BLOCK_RECORD
  5
1666
102
{ACAD_XDICTIONARY
360
1667
102
}
330
1
100
AcDbSymbolTableRecord
100
AcDbBlockTableRecord
  2
A$C6896536C
340
0
  0
BLOCK_RECORD
  5
179B
330
1
100
AcDbSymbolTableRecord
100
AcDbBlockTableRecord
  2
*D17
340
0
  0
BLOCK_RECORD
  5
199C
102
{ACAD_XDICTIONARY
360
199D
102
}
330
1
100
AcDbSymbolTableRecord
100
AcDbBlockTableRecord
  2
MCBQV2-50
340
0
  0
BLOCK_RECORD
  5
1A6C
330
1
100
AcDbSymbolTableRecord
100
AcDbBlockTableRecord
  2
*D20
340
0
  0
BLOCK_RECORD
  5
1A78
330
1
100
AcDbSymbolTableRecord
100
AcDbBlockTableRecord
  2
*D21
340
0
  0
ENDTAB
  0
ENDSEC
  0
SECTION
  2
BLOCKS
  0
BLOCK
  5
4
330
2
100
AcDbEntity
  8
0
100
AcDbBlockBegin
  2
*MODEL_SPACE
 70
     0
 10
0.0
 20
0.0
 30
0.0
  3
*MODEL_SPACE
  1

  0
ENDBLK
  5
A
330
2
100
AcDbEntity
  8
0
100
AcDbBlockEnd
  0
BLOCK
  5
E
330
D
100
AcDbEntity
 67
     1
  8
0
100
AcDbBlockBegin
  2
*PAPER_SPACE
 70
     0
 10
0.0
 20
0.0
 30
0.0
  3
*PAPER_SPACE
  1

  0
ENDBLK
  5
F
330
D
100
AcDbEntity
 67
     1
  8
0
100
AcDbBlockEnd
  0
BLOCK
  5
28
330
27
100
AcDbEntity
  8
0
100
AcDbBlockBegin
  2
GENAXEH
 70
     0
 10
0.0
 20
0.0
 30
0.0
  3
GENAXEH
  1

  0
LINE
  5
29
330
27
100
AcDbEntity
  8
0
100
AcDbLine
 10
-1.0
 20
0.0
 30
0.0
 11
1.0
 21
0.0
 31
0.0
  0
ENDBLK
  5
2A
330
27
100
AcDbEntity
  8
0
100
AcDbBlockEnd
  0
BLOCK
  5
62A
330
628
100
AcDbEntity
  8
0
100
AcDbBlockBegin
  2
A$C453B67D5
 70
     0
 10
0.0
 20
0.0
 30
0.0
  3
A$C453B67D5
  1

  0
TEXT
  5
62B
330
628
100
AcDbEntity
  8
0
 62
     4
100
AcDbText
 10
0.0000000042221018
 20
15.6750728935973
 30
0.0
 40
3.0
  1
0
 41
0.75
  7
CHINESET
100
AcDbText
  0
LINE
  5
62C
330
628
100
AcDbEntity
  8
0
 62
     4
100
AcDbLine
 10
0.7831209408720952
 20
-0.0000001285146709
 30
0.0
 11
0.7831209408720952
 21
12.50658996549839
 31
0.0
  0
TEXT
  5
62D
330
628
100
AcDbEntity
  8
0
 62
     4
100
AcDbText
 10
5.354910616106053
 20
16.42400857412451
 30
0.0
 40
3.0
  1
Stroke
 41
0.75
  7
CHINESET
100
AcDbText
  0
ENDBLK
  5
62E
330
628
100
AcDbEntity
  8
0
100
AcDbBlockEnd
  0
BLOCK
  5
631
330
62F
100
AcDbEntity
  8
0
100
AcDbBlockBegin
  2
A$C17481420
 70
     0
 10
0.0
 20
0.0
 30
0.0
  3
A$C17481420
  1

  0
LINE
  5
632
330
62F
100
AcDbEntity
  8
SL
100
AcDbLine
 10
14.92688374510175
 20
0.6911761177026392
 30
0.0
 11
5.249999590827769
 21
0.6911761177026392
 31
0.0
  0
TRACE
  5
633
330
62F
100
AcDbEntity
  8
SL
370
    35
100
AcDbTrace
 10
5.249999590827769
 20
1.382351726952606
 30
0.0
 11
5.249999590827769
 21
0.000000508452672
 31
0.0
 12
-0.0000004091722303
 22
0.6911761177026392
 32
0.0
 13
-0.0000004091722303
 23
0.6911761177026392
 33
0.0
  0
MTEXT
  5
634
330
62F
100
AcDbEntity
  8
SL
100
AcDbMText
 10
7.091092156233571
 20
2.131627989433411
 30
0.0
 40
3.674999999999999
 41
0.0
 71
     7
 72
     5
  1
SL
  7
ACISOTS
 73
     1
 44
1.0
1001
ACAD
1000
MTEXTBEGIN
1070
    73
1070
     1
1070
    44
1040
1.0
1070
    74
1070
     0
1000
MTEXTEND
  0
ENDBLK
  5
635
330
62F
100
AcDbEntity
  8
0
100
AcDbBlockEnd
  0
BLOCK
  5
D29
330
D1F
100
AcDbEntity
  8
0
100
AcDbBlockBegin
  2
*D3
 70
     1
 10
0.0
 20
0.0
 30
0.0
  3
*D3
  1

  0
LINE
  5
1B65
330
D1F
100
AcDbEntity
  8
AM_5
100
AcDbLine
 10
309.2050199019457
 20
156.1492561210979
 30
0.0
 11
392.5746655600204
 21
156.1492561210978
 31
0.0
  0
LINE
  5
1B66
330
D1F
100
AcDbEntity
  8
AM_5
100
AcDbLine
 10
309.2050199019457
 20
116.1492561210979
 30
0.0
 11
392.5746655600203
 21
116.1492561210978
 31
0.0
  0
LINE
  5
1B67
330
D1F
100
AcDbEntity
  8
AM_5
100
AcDbLine
 10
391.5746655600204
 20
152.6492561210979
 30
0.0
 11
391.5746655600203
 21
119.6492561210979
 31
0.0
  0
SOLID
  5
1B68
330
D1F
100
AcDbEntity
  8
AM_5
100
AcDbTrace
 10
390.9913322266871
 20
152.6492561210979
 30
0.0
 11
392.1579988933537
 21
152.6492561210979
 31
0.0
 12
391.5746655600204
 22
156.1492561210978
 32
0.0
 13
391.5746655600204
 23
156.1492561210978
 33
0.0
  0
SOLID
  5
1B69
330
D1F
100
AcDbEntity
  8
AM_5
100
AcDbTrace
 10
390.991332226687
 20
119.6492561210979
 30
0.0
 11
392.1579988933536
 21
119.6492561210979
 31
0.0
 12
391.5746655600203
 22
116.1492561210978
 32
0.0
 13
391.5746655600203
 23
116.1492561210978
 33
0.0
  0
MTEXT
  5
1B6A
330
D1F
100
AcDbEntity
  8
AM_5
100
AcDbMText
 10
388.8246655600203
 20
136.1492561210979
 30
0.0
 40
3.5
 41
0.0
 71
     5
 72
     1
  1
%%c40
 11
0.0000000000000001
 21
1.0
 31
0.0
 73
     1
 44
1.0
1001
ACAD
1000
MTEXTBEGIN
1070
    73
1070
     1
1070
    44
1040
1.0
1070
    74
1070
     0
1000
MTEXTEND
  0
POINT
  5
1B6B
330
D1F
100
AcDbEntity
  8
Defpoints
 62
     0
100
AcDbPoint
 10
308.2050199019457
 20
156.1492561210979
 30
0.0
  0
POINT
  5
1B6C
330
D1F
100
AcDbEntity
  8
Defpoints
 62
     0
100
AcDbPoint
 10
308.2050199019457
 20
116.1492561210979
 30
0.0
  0
POINT
  5
1B6D
330
D1F
100
AcDbEntity
  8
Defpoints
 62
     0
100
AcDbPoint
 10
391.5746655600203
 20
116.1492561210978
 30
0.0
  0
ENDBLK
  5
D2A
330
D1F
100
AcDbEntity
  8
0
100
AcDbBlockEnd
  0
BLOCK
  5
D35
330
D2B
100
AcDbEntity
  8
0
100
AcDbBlockBegin
  2
*D4
 70
     1
 10
0.0
 20
0.0
 30
0.0
  3
*D4
  1

  0
LINE
  5
1837
330
D2B
100
AcDbEntity
  8
AM_5
100
AcDbLine
 10
298.7050199019457
 20
103.8992561210979
 30
0.0
 11
298.7050199019457
 21
89.49870260660338
 31
0.0
  0
LINE
  5
1838
330
D2B
100
AcDbEntity
  8
AM_5
100
AcDbLine
 10
308.7050199019456
 20
115.6492561210979
 30
0.0
 11
308.7050199019456
 21
89.49870260660338
 31
0.0
  0
LINE
  5
1839
330
D2B
100
AcDbEntity
  8
AM_5
100
AcDbLine
 10
302.2050199019457
 20
90.49870260660339
 30
0.0
 11
305.2050199019457
 21
90.49870260660339
 31
0.0
  0
SOLID
  5
183A
330
D2B
100
AcDbEntity
  8
AM_5
100
AcDbTrace
 10
302.2050199019457
 20
91.08203593993671
 30
0.0
 11
302.2050199019457
 21
89.91536927327006
 31
0.0
 12
298.7050199019457
 22
90.49870260660339
 32
0.0
 13
298.7050199019457
 23
90.49870260660339
 33
0.0
  0
SOLID
  5
183B
330
D2B
100
AcDbEntity
  8
AM_5
100
AcDbTrace
 10
305.2050199019457
 20
91.08203593993671
 30
0.0
 11
305.2050199019457
 21
89.91536927327006
 31
0.0
 12
308.7050199019456
 22
90.49870260660339
 32
0.0
 13
308.7050199019456
 23
90.49870260660339
 33
0.0
  0
MTEXT
  5
183C
330
D2B
100
AcDbEntity
  8
AM_5
100
AcDbMText
 10
303.7050199019457
 20
93.24870260660338
 30
0.0
 40
3.5
 41
0.0
 71
     5
 72
     1
  1
10
 73
     1
 44
1.0
1001
ACAD
1000
MTEXTBEGIN
1070
    73
1070
     1
1070
    44
1040
1.0
1070
    74
1070
     0
1000
MTEXTEND
  0
POINT
  5
183D
330
D2B
100
AcDbEntity
  8
Defpoints
 62
     0
100
AcDbPoint
 10
298.7050199019457
 20
104.8992561210979
 30
0.0
  0
POINT
  5
183E
330
D2B
100
AcDbEntity
  8
Defpoints
 62
     0
100
AcDbPoint
 10
308.7050199019456
 20
116.6492561210979
 30
0.0
  0
POINT
  5
183F
330
D2B
100
AcDbEntity
  8
Defpoints
 62
     0
100
AcDbPoint
 10
308.7050199019456
 20
90.49870260660339
 30
0.0
  0
ENDBLK
  5
D36
330
D2B
100
AcDbEntity
  8
0
100
AcDbBlockEnd
  0
BLOCK
  5
D41
330
D37
100
AcDbEntity
  8
0
100
AcDbBlockBegin
  2
*D5
 70
     1
 10
0.0
 20
0.0
 30
0.0
  3
*D5
  1

  0
LINE
  5
1B51
330
D37
100
AcDbEntity
  8
AM_5
100
AcDbLine
 10
335.7058814831142
 20
127.8992561210979
 30
0.0
 11
335.7058814831142
 21
81.25155341804299
 31
0.0
  0
LINE
  5
1B52
330
D37
100
AcDbEntity
  8
AM_5
100
AcDbLine
 10
298.7050199019454
 20
103.3992561210979
 30
0.0
 11
298.7050199019454
 21
81.25155341804299
 31
0.0
  0
LINE
  5
1B53
330
D37
100
AcDbEntity
  8
AM_5
100
AcDbLine
 10
332.2058814831142
 20
82.25155341804299
 30
0.0
 11
302.2050199019454
 21
82.25155341804299
 31
0.0
  0
SOLID
  5
1B54
330
D37
100
AcDbEntity
  8
AM_5
100
AcDbTrace
 10
332.2058814831142
 20
82.83488675137631
 30
0.0
 11
332.2058814831142
 21
81.66822008470965
 31
0.0
 12
335.7058814831142
 22
82.25155341804299
 32
0.0
 13
335.7058814831142
 23
82.25155341804299
 33
0.0
  0
SOLID
  5
1B55
330
D37
100
AcDbEntity
  8
AM_5
100
AcDbTrace
 10
302.2050199019454
 20
82.83488675137631
 30
0.0
 11
302.2050199019454
 21
81.66822008470965
 31
0.0
 12
298.7050199019454
 22
82.25155341804299
 32
0.0
 13
298.7050199019454
 23
82.25155341804299
 33
0.0
  0
MTEXT
  5
1B56
330
D37
100
AcDbEntity
  8
AM_5
100
AcDbMText
 10
317.2054506925298
 20
85.00155341804299
 30
0.0
 40
3.5
 41
0.0
 71
     5
 72
     1
  1
37
 73
     1
 44
1.0
1001
ACAD
1000
MTEXTBEGIN
1070
    73
1070
     1
1070
    44
1040
1.0
1070
    74
1070
     0
1000
MTEXTEND
  0
POINT
  5
1B57
330
D37
100
AcDbEntity
  8
Defpoints
 62
     0
100
AcDbPoint
 10
335.7058814831142
 20
128.8992561210979
 30
0.0
  0
POINT
  5
1B58
330
D37
100
AcDbEntity
  8
Defpoints
 62
     0
100
AcDbPoint
 10
298.7050199019454
 20
104.3992561210979
 30
0.0
  0
POINT
  5
1B59
330
D37
100
AcDbEntity
  8
Defpoints
 62
     0
100
AcDbPoint
 10
298.7050199019454
 20
82.25155341804299
 30
0.0
  0
ENDBLK
  5
D42
330
D37
100
AcDbEntity
  8
0
100
AcDbBlockEnd
  0
BLOCK
  5
D4D
330
D43
100
AcDbEntity
  8
0
100
AcDbBlockBegin
  2
*D6
 70
     1
 10
0.0
 20
0.0
 30
0.0
  3
*D6
  1

  0
LINE
  5
1B36
330
D43
100
AcDbEntity
  8
AM_5
100
AcDbLine
 10
335.7050199019457
 20
128.8992561210979
 30
0.0
 11
335.7050199019457
 21
71.10181251732467
 31
0.0
  0
LINE
  5
1B37
330
D43
100
AcDbEntity
  8
AM_5
100
AcDbLine
 10
367.7050199019457
 20
130.3992561210979
 30
0.0
 11
367.7050199019457
 21
71.10181251732467
 31
0.0
  0
LINE
  5
1B38
330
D43
100
AcDbEntity
  8
AM_5
100
AcDbLine
 10
339.2050199019457
 20
72.10181251732468
 30
0.0
 11
364.2050199019457
 21
72.10181251732468
 31
0.0
  0
SOLID
  5
1B39
330
D43
100
AcDbEntity
  8
AM_5
100
AcDbTrace
 10
339.2050199019457
 20
72.685145850658
 30
0.0
 11
339.2050199019457
 21
71.51847918399134
 31
0.0
 12
335.7050199019457
 22
72.10181251732468
 32
0.0
 13
335.7050199019457
 23
72.10181251732468
 33
0.0
  0
SOLID
  5
1B3A
330
D43
100
AcDbEntity
  8
AM_5
100
AcDbTrace
 10
364.2050199019457
 20
72.685145850658
 30
0.0
 11
364.2050199019457
 21
71.51847918399134
 31
0.0
 12
367.7050199019457
 22
72.10181251732468
 32
0.0
 13
367.7050199019457
 23
72.10181251732468
 33
0.0
  0
MTEXT
  5
1B3B
330
D43
100
AcDbEntity
  8
AM_5
100
AcDbMText
 10
351.7050199019457
 20
74.85215700551364
 30
0.0
 40
3.5
 41
0.0
 71
     5
 72
     1
  1
32
 73
     1
 44
1.0
1001
ACAD
1000
MTEXTBEGIN
1070
    73
1070
     1
1070
    44
1040
1.0
1070
    74
1070
     0
1000
MTEXTEND
  0
POINT
  5
1B3C
330
D43
100
AcDbEntity
  8
Defpoints
 62
     0
100
AcDbPoint
 10
335.7050199019457
 20
129.8992561210979
 30
0.0
  0
POINT
  5
1B3D
330
D43
100
AcDbEntity
  8
Defpoints
 62
     0
100
AcDbPoint
 10
367.7050199019457
 20
131.3992561210979
 30
0.0
  0
POINT
  5
1B3E
330
D43
100
AcDbEntity
  8
Defpoints
 62
     0
100
AcDbPoint
 10
367.7050199019457
 20
72.10181251732468
 30
0.0
  0
ENDBLK
  5
D4E
330
D43
100
AcDbEntity
  8
0
100
AcDbBlockEnd
  0
BLOCK
  5
D59
330
D4F
100
AcDbEntity
  8
0
100
AcDbBlockBegin
  2
*D7
 70
     1
 10
0.0
 20
0.0
 30
0.0
  3
*D7
  1

  0
LINE
  5
1852
330
D4F
100
AcDbEntity
  8
AM_5
100
AcDbLine
 10
208.7050199019456
 20
103.3992561210979
 30
0.0
 11
208.7050199019456
 21
81.25155341804299
 31
0.0
  0
LINE
  5
1853
330
D4F
100
AcDbEntity
  8
AM_5
100
AcDbLine
 10
298.7050199019454
 20
103.3992561210979
 30
0.0
 11
298.7050199019454
 21
81.25155341804299
 31
0.0
  0
LINE
  5
1854
330
D4F
100
AcDbEntity
  8
AM_5
100
AcDbLine
 10
212.2050199019457
 20
82.25155341804299
 30
0.0
 11
295.2050199019454
 21
82.25155341804299
 31
0.0
  0
SOLID
  5
1855
330
D4F
100
AcDbEntity
  8
AM_5
100
AcDbTrace
 10
212.2050199019457
 20
82.83488675137631
 30
0.0
 11
212.2050199019457
 21
81.66822008470965
 31
0.0
 12
208.7050199019456
 22
82.25155341804299
 32
0.0
 13
208.7050199019456
 23
82.25155341804299
 33
0.0
  0
SOLID
  5
1856
330
D4F
100
AcDbEntity
  8
AM_5
100
AcDbTrace
 10
295.2050199019454
 20
82.83488675137631
 30
0.0
 11
295.2050199019454
 21
81.66822008470965
 31
0.0
 12
298.7050199019454
 22
82.25155341804299
 32
0.0
 13
298.7050199019454
 23
82.25155341804299
 33
0.0
  0
MTEXT
  5
1857
330
D4F
100
AcDbEntity
  8
AM_5
100
AcDbMText
 10
253.7050199019455
 20
85.00155341804299
 30
0.0
 40
3.5
 41
0.0
 71
     5
 72
     1
  1
90
 73
     1
 44
1.0
1001
ACAD
1000
MTEXTBEGIN
1070
    73
1070
     1
1070
    44
1040
1.0
1070
    74
1070
     0
1000
MTEXTEND
  0
POINT
  5
1858
330
D4F
100
AcDbEntity
  8
Defpoints
 62
     0
100
AcDbPoint
 10
208.7050199019456
 20
104.3992561210979
 30
0.0
  0
POINT
  5
1859
330
D4F
100
AcDbEntity
  8
Defpoints
 62
     0
100
AcDbPoint
 10
298.7050199019454
 20
104.3992561210979
 30
0.0
  0
POINT
  5
185A
330
D4F
100
AcDbEntity
  8
Defpoints
 62
     0
100
AcDbPoint
 10
298.7050199019454
 20
82.25155341804299
 30
0.0
  0
ENDBLK
  5
D5A
330
D4F
100
AcDbEntity
  8
0
100
AcDbBlockEnd
  0
BLOCK
  5
D65
330
D5B
100
AcDbEntity
  8
0
100
AcDbBlockBegin
  2
*D8
 70
     1
 10
0.0
 20
0.0
 30
0.0
  3
*D8
  1

  0
LINE
  5
1B48
330
D5B
100
AcDbEntity
  8
AM_5
100
AcDbLine
 10
335.7050199019457
 20
127.8992561210979
 30
0.0
 11
335.7050199019457
 21
71.10181251732467
 31
0.0
  0
LINE
  5
1B49
330
D5B
100
AcDbEntity
  8
AM_5
100
AcDbLine
 10
102.7050199019456
 20
103.3992561210979
 30
0.0
 11
102.7050199019456
 21
71.10181251732467
 31
0.0
  0
LINE
  5
1B4A
330
D5B
100
AcDbEntity
  8
AM_5
100
AcDbLine
 10
332.2050199019457
 20
72.10181251732468
 30
0.0
 11
106.2050199019456
 21
72.10181251732468
 31
0.0
  0
SOLID
  5
1B4B
330
D5B
100
AcDbEntity
  8
AM_5
100
AcDbTrace
 10
332.2050199019457
 20
72.685145850658
 30
0.0
 11
332.2050199019457
 21
71.51847918399134
 31
0.0
 12
335.7050199019457
 22
72.10181251732468
 32
0.0
 13
335.7050199019457
 23
72.10181251732468
 33
0.0
  0
SOLID
  5
1B4C
330
D5B
100
AcDbEntity
  8
AM_5
100
AcDbTrace
 10
106.2050199019456
 20
72.685145850658
 30
0.0
 11
106.2050199019456
 21
71.51847918399134
 31
0.0
 12
102.7050199019456
 22
72.10181251732468
 32
0.0
 13
102.7050199019456
 23
72.10181251732468
 33
0.0
  0
MTEXT
  5
1B4D
330
D5B
100
AcDbEntity
  8
AM_5
100
AcDbMText
 10
219.2050199019456
 20
74.85215700551364
 30
0.0
 40
3.5
 41
0.0
 71
     5
 72
     1
  1
233+Store
 73
     1
 44
1.0
1001
ACAD
1000
MTEXTBEGIN
1070
    73
1070
     1
1070
    44
1040
1.0
1070
    74
1070
     0
1000
MTEXTEND
  0
POINT
  5
1B4E
330
D5B
100
AcDbEntity
  8
Defpoints
 62
     0
100
AcDbPoint
 10
335.7050199019457
 20
128.8992561210979
 30
0.0
  0
POINT
  5
1B4F
330
D5B
100
AcDbEntity
  8
Defpoints
 62
     0
100
AcDbPoint
 10
102.7050199019456
 20
104.3992561210979
 30
0.0
  0
POINT
  5
1B50
330
D5B
100
AcDbEntity
  8
Defpoints
 62
     0
100
AcDbPoint
 10
102.7050199019456
 20
72.10181251732468
 30
0.0
  0
ENDBLK
  5
D66
330
D5B
100
AcDbEntity
  8
0
100
AcDbBlockEnd
  0
BLOCK
  5
D73
330
D67
100
AcDbEntity
  8
0
100
AcDbBlockBegin
  2
*D9
 70
     1
 10
0.0
 20
0.0
 30
0.0
  3
*D9
  1

  0
LINE
  5
1864
330
D67
100
AcDbEntity
  8
AM_5
100
AcDbLine
 10
98.70501990194563
 20
116.8992561210979
 30
0.0
 11
98.70501990194563
 21
81.25155341804282
 31
0.0
  0
LINE
  5
1865
330
D67
100
AcDbEntity
  8
AM_5
100
AcDbLine
 10
102.7050199019456
 20
115.8992561210979
 30
0.0
 11
102.7050199019456
 21
81.25155341804282
 31
0.0
  0
LINE
  5
1866
330
D67
100
AcDbEntity
  8
AM_5
100
AcDbLine
 10
95.20501990194564
 20
82.25155341804281
 30
0.0
 11
91.70501990194564
 21
82.25155341804281
 31
0.0
  0
LINE
  5
1867
330
D67
100
AcDbEntity
  8
AM_5
100
AcDbLine
 10
106.2050199019456
 20
82.25155341804281
 30
0.0
 11
109.7050199019456
 21
82.25155341804281
 31
0.0
  0
LINE
  5
1868
330
D67
100
AcDbEntity
  8
AM_5
100
AcDbLine
 10
98.70501990194563
 20
82.25155341804281
 30
0.0
 11
102.7050199019456
 21
82.25155341804281
 31
0.0
  0
SOLID
  5
1869
330
D67
100
AcDbEntity
  8
AM_5
100
AcDbTrace
 10
95.20501990194564
 20
82.83488675137615
 30
0.0
 11
95.20501990194564
 21
81.66822008470949
 31
0.0
 12
98.70501990194563
 22
82.25155341804281
 32
0.0
 13
98.70501990194563
 23
82.25155341804281
 33
0.0
  0
SOLID
  5
186A
330
D67
100
AcDbEntity
  8
AM_5
100
AcDbTrace
 10
106.2050199019456
 20
82.83488675137615
 30
0.0
 11
106.2050199019456
 21
81.66822008470949
 31
0.0
 12
102.7050199019456
 22
82.25155341804281
 32
0.0
 13
102.7050199019456
 23
82.25155341804281
 33
0.0
  0
MTEXT
  5
186B
330
D67
100
AcDbEntity
  8
AM_5
100
AcDbMText
 10
100.7050199019456
 20
85.00155341804282
 30
0.0
 40
3.5
 41
0.0
 71
     5
 72
     1
  1
4
 73
     1
 44
1.0
1001
ACAD
1000
MTEXTBEGIN
1070
    73
1070
     1
1070
    44
1040
1.0
1070
    74
1070
     0
1000
MTEXTEND
  0
POINT
  5
186C
330
D67
100
AcDbEntity
  8
Defpoints
 62
     0
100
AcDbPoint
 10
98.70501990194563
 20
117.8992561210979
 30
0.0
  0
POINT
  5
186D
330
D67
100
AcDbEntity
  8
Defpoints
 62
     0
100
AcDbPoint
 10
102.7050199019456
 20
116.8992561210979
 30
0.0
  0
POINT
  5
186E
330
D67
100
AcDbEntity
  8
Defpoints
 62
     0
100
AcDbPoint
 10
102.7050199019456
 20
82.25155341804281
 30
0.0
  0
ENDBLK
  5
D74
330
D67
100
AcDbEntity
  8
0
100
AcDbBlockEnd
  0
BLOCK
  5
D7F
330
D75
100
AcDbEntity
  8
0
100
AcDbBlockBegin
  2
*D10
 70
     1
 10
0.0
 20
0.0
 30
0.0
  3
*D10
  1

  0
LINE
  5
186F
330
D75
100
AcDbEntity
  8
AM_5
100
AcDbLine
 10
102.7050199019456
 20
103.3992561210979
 30
0.0
 11
102.7050199019456
 21
81.25155341804282
 31
0.0
  0
LINE
  5
1870
330
D75
100
AcDbEntity
  8
AM_5
100
AcDbLine
 10
208.7050199019456
 20
103.3992561210979
 30
0.0
 11
208.7050199019456
 21
81.25155341804282
 31
0.0
  0
LINE
  5
1871
330
D75
100
AcDbEntity
  8
AM_5
100
AcDbLine
 10
106.2050199019456
 20
82.25155341804281
 30
0.0
 11
205.2050199019457
 21
82.25155341804281
 31
0.0
  0
SOLID
  5
1872
330
D75
100
AcDbEntity
  8
AM_5
100
AcDbTrace
 10
106.2050199019456
 20
82.83488675137615
 30
0.0
 11
106.2050199019456
 21
81.66822008470949
 31
0.0
 12
102.7050199019456
 22
82.25155341804281
 32
0.0
 13
102.7050199019456
 23
82.25155341804281
 33
0.0
  0
SOLID
  5
1873
330
D75
100
AcDbEntity
  8
AM_5
100
AcDbTrace
 10
205.2050199019457
 20
82.83488675137615
 30
0.0
 11
205.2050199019457
 21
81.66822008470949
 31
0.0
 12
208.7050199019456
 22
82.25155341804281
 32
0.0
 13
208.7050199019456
 23
82.25155341804281
 33
0.0
  0
MTEXT
  5
1874
330
D75
100
AcDbEntity
  8
AM_5
100
AcDbMText
 10
155.7050199019457
 20
85.00155341804282
 30
0.0
 40
3.5
 41
0.0
 71
     5
 72
     1
  1
106+Store
 73
     1
 44
1.0
1001
ACAD
1000
MTEXTBEGIN
1070
    73
1070
     1
1070
    44
1040
1.0
1070
    74
1070
     0
1000
MTEXTEND
  0
POINT
  5
1875
330
D75
100
AcDbEntity
  8
Defpoints
 62
     0
100
AcDbPoint
 10
102.7050199019456
 20
104.3992561210979
 30
0.0
  0
POINT
  5
1876
330
D75
100
AcDbEntity
  8
Defpoints
 62
     0
100
AcDbPoint
 10
208.7050199019456
 20
104.3992561210979
 30
0.0
  0
POINT
  5
1877
330
D75
100
AcDbEntity
  8
Defpoints
 62
     0
100
AcDbPoint
 10
208.7050199019456
 20
82.25155341804281
 30
0.0
  0
ENDBLK
  5
D80
330
D75
100
AcDbEntity
  8
0
100
AcDbBlockEnd
  0
BLOCK
  5
D8B
330
D81
100
AcDbEntity
  8
0
100
AcDbBlockBegin
  2
*D11
 70
     1
 10
0.0
 20
0.0
 30
0.0
  3
*D11
  1

  0
LINE
  5
1878
330
D81
100
AcDbEntity
  8
AM_5
100
AcDbLine
 10
98.70501990194563
 20
156.8992561210979
 30
0.0
 11
76.05744733521671
 21
156.8992561210979
 31
0.0
  0
LINE
  5
1879
330
D81
100
AcDbEntity
  8
AM_5
100
AcDbLine
 10
98.70501990194563
 20
116.8992561210979
 30
0.0
 11
76.05744733521671
 21
116.8992561210979
 31
0.0
  0
LINE
  5
187A
330
D81
100
AcDbEntity
  8
AM_5
100
AcDbLine
 10
77.05744733521671
 20
153.3992561210979
 30
0.0
 11
77.05744733521671
 21
120.3992561210979
 31
0.0
  0
SOLID
  5
187B
330
D81
100
AcDbEntity
  8
AM_5
100
AcDbTrace
 10
76.47411400188338
 20
153.3992561210979
 30
0.0
 11
77.64078066855003
 21
153.3992561210979
 31
0.0
 12
77.05744733521671
 22
156.8992561210979
 32
0.0
 13
77.05744733521671
 23
156.8992561210979
 33
0.0
  0
SOLID
  5
187C
330
D81
100
AcDbEntity
  8
AM_5
100
AcDbTrace
 10
76.47411400188338
 20
120.3992561210979
 30
0.0
 11
77.64078066855003
 21
120.3992561210979
 31
0.0
 12
77.05744733521671
 22
116.8992561210979
 32
0.0
 13
77.05744733521671
 23
116.8992561210979
 33
0.0
  0
MTEXT
  5
187D
330
D81
100
AcDbEntity
  8
AM_5
100
AcDbMText
 10
74.30744733521669
 20
136.8992561210979
 30
0.0
 40
3.5
 41
0.0
 71
     5
 72
     1
  1
%%c40
 11
0.0000000000000001
 21
1.0
 31
0.0
 73
     1
 44
1.0
1001
ACAD
1000
MTEXTBEGIN
1070
    73
1070
     1
1070
    44
1040
1.0
1070
    74
1070
     0
1000
MTEXTEND
  0
POINT
  5
187E
330
D81
100
AcDbEntity
  8
Defpoints
 62
     0
100
AcDbPoint
 10
99.70501990194563
 20
156.8992561210979
 30
0.0
  0
POINT
  5
187F
330
D81
100
AcDbEntity
  8
Defpoints
 62
     0
100
AcDbPoint
 10
99.70501990194563
 20
116.8992561210979
 30
0.0
  0
POINT
  5
1880
330
D81
100
AcDbEntity
  8
Defpoints
 62
     0
100
AcDbPoint
 10
77.05744733521671
 20
116.8992561210979
 30
0.0
  0
ENDBLK
  5
D8C
330
D81
100
AcDbEntity
  8
0
100
AcDbBlockEnd
  0
BLOCK
  5
DAF
330
DA5
100
AcDbEntity
  8
0
100
AcDbBlockBegin
  2
*D12
 70
     1
 10
0.0
 20
0.0
 30
0.0
  3
*D12
  1

  0
LINE
  5
1B1B
330
DA5
100
AcDbEntity
  8
AM_5
100
AcDbLine
 10
326.7050199019457
 20
146.8992561210979
 30
0.0
 11
380.7313926434572
 21
146.8992561210979
 31
0.0
  0
LINE
  5
1B1C
330
DA5
100
AcDbEntity
  8
AM_5
100
AcDbLine
 10
326.7050199019457
 20
126.8992561210979
 30
0.0
 11
380.7313926434572
 21
126.8992561210978
 31
0.0
  0
LINE
  5
1B1D
330
DA5
100
AcDbEntity
  8
AM_5
100
AcDbLine
 10
379.7313926434572
 20
143.3992561210979
 30
0.0
 11
379.7313926434572
 21
130.3992561210978
 31
0.0
  0
SOLID
  5
1B1E
330
DA5
100
AcDbEntity
  8
AM_5
100
AcDbTrace
 10
379.1480593101239
 20
143.3992561210979
 30
0.0
 11
380.3147259767905
 21
143.3992561210979
 31
0.0
 12
379.7313926434572
 22
146.8992561210979
 32
0.0
 13
379.7313926434572
 23
146.8992561210979
 33
0.0
  0
SOLID
  5
1B1F
330
DA5
100
AcDbEntity
  8
AM_5
100
AcDbTrace
 10
379.1480593101239
 20
130.3992561210978
 30
0.0
 11
380.3147259767905
 21
130.3992561210978
 31
0.0
 12
379.7313926434572
 22
126.8992561210978
 32
0.0
 13
379.7313926434572
 23
126.8992561210978
 33
0.0
  0
MTEXT
  5
1B20
330
DA5
100
AcDbEntity
  8
AM_5
100
AcDbMText
 10
376.9810481552682
 20
136.8992561210979
 30
0.0
 40
3.5
 41
0.0
 71
     5
 72
     1
  1
%%c20
 11
0.0000000000000001
 21
1.0
 31
0.0
 73
     1
 44
1.0
1001
ACAD
1000
MTEXTBEGIN
1070
    73
1070
     1
1070
    44
1040
1.0
1070
    74
1070
     0
1000
MTEXTEND
  0
POINT
  5
1B21
330
DA5
100
AcDbEntity
  8
Defpoints
 62
     0
100
AcDbPoint
 10
325.7050199019456
 20
146.8992561210979
 30
0.0
  0
POINT
  5
1B22
330
DA5
100
AcDbEntity
  8
Defpoints
 62
     0
100
AcDbPoint
 10
325.7050199019456
 20
126.8992561210979
 30
0.0
  0
POINT
  5
1B23
330
DA5
100
AcDbEntity
  8
Defpoints
 62
     0
100
AcDbPoint
 10
379.7313926434572
 20
126.8992561210978
 30
0.0
  0
ENDBLK
  5
DB0
330
DA5
100
AcDbEntity
  8
0
100
AcDbBlockEnd
  0
BLOCK
  5
117A
330
1173
100
AcDbEntity
  8
0
100
AcDbBlockBegin
  2
*D13
 70
     1
 10
0.0
 20
0.0
 30
0.0
  3
*D13
  1

  0
LINE
  5
1890
330
1173
100
AcDbEntity
  8
AM_5
100
AcDbLine
 10
120.6842096063821
 20
123.0917626235227
 30
0.0
 11
128.9739762063015
 21
95.80184822027016
 31
0.0
  0
LINE
  5
1891
330
1173
100
AcDbEntity
  8
AM_5
100
AcDbLine
 10
128.9739762063015
 20
95.80184822027016
 30
0.0
 11
143.7128541590574
 21
95.80184822027016
 31
0.0
  0
SOLID
  5
1892
330
1173
100
AcDbEntity
  8
AM_5
100
AcDbTrace
 10
121.2423596428295
 20
123.261310005076
 30
0.0
 11
120.1260595699347
 21
122.9222152419694
 31
0.0
 12
119.6669253170623
 22
126.4406628422068
 32
0.0
 13
119.6669253170623
 23
126.4406628422068
 33
0.0
  0
MTEXT
  5
1893
330
1173
100
AcDbEntity
  8
AM_5
100
AcDbMText
 10
136.8434151826794
 20
98.55806665380839
 30
0.0
 40
3.5
 41
0.0
 71
     5
 72
     1
  1
2-G1/4
 73
     1
 44
1.0
1001
ACAD
1000
MTEXTBEGIN
1070
    73
1070
     1
1070
    44
1040
1.0
1070
    74
1070
     0
1000
MTEXTEND
  0
POINT
  5
1894
330
1173
100
AcDbEntity
  8
Defpoints
 62
     0
100
AcDbPoint
 10
119.6669253170623
 20
126.4406628422068
 30
0.0
  0
POINT
  5
1895
330
1173
100
AcDbEntity
  8
Defpoints
 62
     0
100
AcDbPoint
 10
117.7050199019455
 20
132.8992561210978
 30
0.0
  0
ENDBLK
  5
117B
330
1173
100
AcDbEntity
  8
0
100
AcDbBlockEnd
  0
BLOCK
  5
15B9
330
15B3
100
AcDbEntity
  8
0
100
AcDbBlockBegin
  2
*D15
 70
     1
 10
0.0
 20
0.0
 30
0.0
  3
*D15
  1

  0
LINE
  5
1896
330
15B3
100
AcDbEntity
  8
AM_5
100
AcDbLine
 10
244.1525801772129
 20
108.2888439468527
 30
0.0
 11
251.8609580579739
 21
90.71379884255236
 31
0.0
  0
LINE
  5
1897
330
15B3
100
AcDbEntity
  8
AM_5
100
AcDbLine
 10
251.8609580579739
 20
90.71379884255236
 30
0.0
 11
261.4421764915122
 21
90.71379884255236
 31
0.0
  0
SOLID
  5
1898
330
15B3
100
AcDbEntity
  8
AM_5
100
AcDbTrace
 10
244.6867896887865
 20
108.5231471169594
 30
0.0
 11
243.6183706656393
 21
108.054540776746
 31
0.0
 12
242.7467611565726
 22
111.4941010162944
 32
0.0
 13
242.7467611565726
 23
111.4941010162944
 33
0.0
  0
MTEXT
  5
1899
330
15B3
100
AcDbEntity
  8
AM_5
100
AcDbMText
 10
257.151567274743
 20
93.47001727609061
 30
0.0
 40
3.5
 41
0.0
 71
     5
 72
     1
  1
G1/8
 73
     1
 44
1.0
1001
ACAD
1000
MTEXTBEGIN
1070
    73
1070
     1
1070
    44
1040
1.0
1070
    74
1070
     0
1000
MTEXTEND
  0
POINT
  5
189A
330
15B3
100
AcDbEntity
  8
Defpoints
 62
     0
100
AcDbPoint
 10
242.7467611565726
 20
111.4941010162944
 30
0.0
  0
POINT
  5
189B
330
15B3
100
AcDbEntity
  8
Defpoints
 62
     0
100
AcDbPoint
 10
238.6632786473186
 20
120.8044112259016
 30
0.0
  0
ENDBLK
  5
15BA
330
15B3
100
AcDbEntity
  8
0
100
AcDbBlockEnd
  0
BLOCK
  5
1668
330
1666
100
AcDbEntity
  8
0
100
AcDbBlockBegin
  2
A$C6896536C
 70
     0
 10
0.0
 20
0.0
 30
0.0
  3
A$C6896536C
  1

  0
LEADER
  5
1669
330
1666
100
AcDbEntity
  8
1
100
AcDbLeader
  3
AM_ISO$7
 76
     2
 10
0.0000000000009095
 20
1.166665247989385
 30
0.0
 10
14.8373054244048
 20
1.166665247989385
 30
0.0
1001
ACAD
1000
DSTYLE
1002
{
1070
    41
1040
3.5
1070
   147
1040
1.5
1070
    77
1070
     1
1070
    40
1040
2.0
1002
}
  0
MTEXT
  5
166A
330
1666
100
AcDbEntity
  8
1
100
AcDbMText
 10
5.488395901823423
 20
8.243041517246183
 30
0.0
 40
4.5
 41
10.70304085292628
 71
     1
 72
     5
  1
SL
  7
CHINESET
 73
     1
 44
1.0
1001
ACAD
1000
MTEXTBEGIN
1070
    73
1070
     1
1070
    44
1040
1.0
1070
    74
1070
     0
1000
MTEXTEND
  0
ENDBLK
  5
166B
330
1666
100
AcDbEntity
  8
0
100
AcDbBlockEnd
  0
BLOCK
  5
17A7
330
179B
100
AcDbEntity
  8
0
100
AcDbBlockBegin
  2
*D17
 70
     1
 10
0.0
 20
0.0
 30
0.0
  3
*D17
  1

  0
LINE
  5
189C
330
179B
100
AcDbEntity
  8
AM_5
100
AcDbLine
 10
91.63297617258399
 20
136.8992561210979
 30
0.0
 11
85.70501890194563
 21
136.8992561210979
 31
0.0
  0
LINE
  5
189D
330
179B
100
AcDbEntity
  8
AM_5
100
AcDbLine
 10
108.4050199019455
 20
128.3992561210979
 30
0.0
 11
85.70501890194563
 21
128.3992561210979
 31
0.0
  0
LINE
  5
189E
330
179B
100
AcDbEntity
  8
AM_5
100
AcDbLine
 10
86.70501890194563
 20
140.3992561210979
 30
0.0
 11
86.70501890194563
 21
143.8992561210979
 31
0.0
  0
LINE
  5
189F
330
179B
100
AcDbEntity
  8
AM_5
100
AcDbLine
 10
86.70501890194563
 20
124.8992561210979
 30
0.0
 11
86.70501890194563
 21
121.3992561210979
 31
0.0
  0
LINE
  5
18A0
330
179B
100
AcDbEntity
  8
AM_5
100
AcDbLine
 10
86.70501890194563
 20
136.8992561210979
 30
0.0
 11
86.70501890194563
 21
128.3992561210979
 31
0.0
  0
SOLID
  5
18A1
330
179B
100
AcDbEntity
  8
AM_5
100
AcDbTrace
 10
86.12168556861231
 20
140.3992561210979
 30
0.0
 11
87.28835223527896
 21
140.3992561210979
 31
0.0
 12
86.70501890194563
 22
136.8992561210979
 32
0.0
 13
86.70501890194563
 23
136.8992561210979
 33
0.0
  0
SOLID
  5
18A2
330
179B
100
AcDbEntity
  8
AM_5
100
AcDbTrace
 10
86.12168556861231
 20
124.8992561210979
 30
0.0
 11
87.28835223527896
 21
124.8992561210979
 31
0.0
 12
86.70501890194563
 22
128.3992561210979
 32
0.0
 13
86.70501890194563
 23
128.3992561210979
 33
0.0
  0
MTEXT
  5
18A3
330
179B
100
AcDbEntity
  8
AM_5
100
AcDbMText
 10
83.95501890194562
 20
132.6492561210979
 30
0.0
 40
3.5
 41
0.0
 71
     5
 72
     1
  1
8.5
 11
0.0000000000000001
 21
1.0
 31
0.0
 73
     1
 44
1.0
1001
ACAD
1000
MTEXTBEGIN
1070
    73
1070
     1
1070
    44
1040
1.0
1070
    74
1070
     0
1000
MTEXTEND
  0
POINT
  5
18A4
330
179B
100
AcDbEntity
  8
Defpoints
 62
     0
100
AcDbPoint
 10
92.632976172584
 20
136.8992561210979
 30
0.0
  0
POINT
  5
18A5
330
179B
100
AcDbEntity
  8
Defpoints
 62
     0
100
AcDbPoint
 10
109.4050199019455
 20
128.3992561210979
 30
0.0
  0
POINT
  5
18A6
330
179B
100
AcDbEntity
  8
Defpoints
 62
     0
100
AcDbPoint
 10
86.70501890194563
 20
128.3992561210979
 30
0.0
  0
ENDBLK
  5
17A8
330
179B
100
AcDbEntity
  8
0
100
AcDbBlockEnd
  0
BLOCK
  5
199E
330
199C
100
AcDbEntity
  8
0
100
AcDbBlockBegin
  2
MCBQV2-50
 70
     0
 10
0.0
 20
0.0
 30
0.0
  3
MCBQV2-50
  1

  0
ENDBLK
  5
199F
330
199C
100
AcDbEntity
  8
0
100
AcDbBlockEnd
  0
BLOCK
  5
1A76
330
1A6C
100
AcDbEntity
  8
0
100
AcDbBlockBegin
  2
*D20
 70
     1
 10
0.0
 20
0.0
 30
0.0
  3
*D20
  1

  0
LINE
  5
1B24
330
1A6C
100
AcDbEntity
  8
AM_5
100
AcDbLine
 10
436.8700549772329
 20
103.5024989927461
 30
0.0
 11
436.8700549772329
 21
81.10626995113142
 31
0.0
  0
LINE
  5
1B25
330
1A6C
100
AcDbEntity
  8
AM_5
100
AcDbLine
 10
483.3700549772329
 20
103.5024989927461
 30
0.0
 11
483.3700549772329
 21
81.10626995113142
 31
0.0
  0
LINE
  5
1B26
330
1A6C
100
AcDbEntity
  8
AM_5
100
AcDbLine
 10
440.3700549772329
 20
82.10626995113143
 30
0.0
 11
479.8700549772329
 21
82.10626995113143
 31
0.0
  0
SOLID
  5
1B27
330
1A6C
100
AcDbEntity
  8
AM_5
100
AcDbTrace
 10
440.3700549772329
 20
82.68960328446475
 30
0.0
 11
440.3700549772329
 21
81.52293661779809
 31
0.0
 12
436.8700549772329
 22
82.10626995113143
 32
0.0
 13
436.8700549772329
 23
82.10626995113143
 33
0.0
  0
SOLID
  5
1B28
330
1A6C
100
AcDbEntity
  8
AM_5
100
AcDbTrace
 10
479.8700549772329
 20
82.68960328446475
 30
0.0
 11
479.8700549772329
 21
81.52293661779809
 31
0.0
 12
483.3700549772329
 22
82.10626995113143
 32
0.0
 13
483.3700549772329
 23
82.10626995113143
 33
0.0
  0
MTEXT
  5
1B29
330
1A6C
100
AcDbEntity
  8
AM_5
100
AcDbMText
 10
460.1200549772329
 20
84.85626995113142
 30
0.0
 40
3.5
 41
0.0
 71
     5
 72
     1
  1
{\Famgdt|c136;o}46.5
 73
     1
 44
1.0
1001
ACAD
1000
MTEXTBEGIN
1070
    73
1070
     1
1070
    44
1040
1.0
1070
    74
1070
     0
1000
MTEXTEND
  0
POINT
  5
1B2A
330
1A6C
100
AcDbEntity
  8
Defpoints
 62
     0
100
AcDbPoint
 10
436.8700549772329
 20
104.5024989927461
 30
0.0
  0
POINT
  5
1B2B
330
1A6C
100
AcDbEntity
  8
Defpoints
 62
     0
100
AcDbPoint
 10
483.3700549772329
 20
104.5024989927461
 30
0.0
  0
POINT
  5
1B2C
330
1A6C
100
AcDbEntity
  8
Defpoints
 62
     0
100
AcDbPoint
 10
483.3700549772329
 20
82.10626995113143
 30
0.0
  0
ENDBLK
  5
1A77
330
1A6C
100
AcDbEntity
  8
0
100
AcDbBlockEnd
  0
BLOCK
  5
1A82
330
1A78
100
AcDbEntity
  8
0
100
AcDbBlockBegin
  2
*D21
 70
     1
 10
0.0
 20
0.0
 30
0.0
  3
*D21
  1

  0
LINE
  5
1B2D
330
1A78
100
AcDbEntity
  8
AM_5
100
AcDbLine
 10
427.6200549772329
 20
104.774507126126
 30
0.0
 11
427.6200549772329
 21
66.24427917115423
 31
0.0
  0
LINE
  5
1B2E
330
1A78
100
AcDbEntity
  8
AM_5
100
AcDbLine
 10
492.6200549772329
 20
104.774507126126
 30
0.0
 11
492.6200549772329
 21
66.24427917115423
 31
0.0
  0
LINE
  5
1B2F
330
1A78
100
AcDbEntity
  8
AM_5
100
AcDbLine
 10
431.1200549772329
 20
67.24427917115423
 30
0.0
 11
489.1200549772329
 21
67.24427917115423
 31
0.0
  0
SOLID
  5
1B30
330
1A78
100
AcDbEntity
  8
AM_5
100
AcDbTrace
 10
431.1200549772329
 20
67.82761250448756
 30
0.0
 11
431.1200549772329
 21
66.6609458378209
 31
0.0
 12
427.6200549772329
 22
67.24427917115423
 32
0.0
 13
427.6200549772329
 23
67.24427917115423
 33
0.0
  0
SOLID
  5
1B31
330
1A78
100
AcDbEntity
  8
AM_5
100
AcDbTrace
 10
489.1200549772329
 20
67.82761250448756
 30
0.0
 11
489.1200549772329
 21
66.6609458378209
 31
0.0
 12
492.6200549772329
 22
67.24427917115423
 32
0.0
 13
492.6200549772329
 23
67.24427917115423
 33
0.0
  0
MTEXT
  5
1B32
330
1A78
100
AcDbEntity
  8
AM_5
100
AcDbMText
 10
460.1200549772329
 20
69.99427917115423
 30
0.0
 40
3.5
 41
0.0
 71
     5
 72
     1
  1
{\Famgdt|c136;o}65
 73
     1
 44
1.0
1001
ACAD
1000
MTEXTBEGIN
1070
    73
1070
     1
1070
    44
1040
1.0
1070
    74
1070
     0
1000
MTEXTEND
  0
POINT
  5
1B33
330
1A78
100
AcDbEntity
  8
Defpoints
 62
     0
100
AcDbPoint
 10
427.6200549772329
 20
105.774507126126
 30
0.0
  0
POINT
  5
1B34
330
1A78
100
AcDbEntity
  8
Defpoints
 62
     0
100
AcDbPoint
 10
492.6200549772329
 20
105.774507126126
 30
0.0
  0
POINT
  5
1B35
330
1A78
100
AcDbEntity
  8
Defpoints
 62
     0
100
AcDbPoint
 10
492.6200549772329
 20
67.24427917115423
 30
0.0
  0
ENDBLK
  5
1A83
330
1A78
100
AcDbEntity
  8
0
100
AcDbBlockEnd
  0
ENDSEC
  0
SECTION
  2
ENTITIES
  0
VIEWPORT
  5
24D
102
{ACAD_XDICTIONARY
360
1B8B
102
}
330
D
100
AcDbEntity
 67
     1
  8
0
100
AcDbViewport
 10
258.2557520860971
 20
175.3831948975278
 30
0.0
 40
468.0149912647671
 41
393.6663775811585
 68
     1
 69
     1
 12
258.2557520860971
 22
175.3831948975278
 13
0.0
 23
0.0
 14
1.0
 24
1.0
 15
0.0
 25
0.0
 16
0.0
 26
0.0
 36
1.0
 17
0.0
 27
0.0
 37
0.0
 42
50.0
 43
0.0
 44
0.0
 45
393.6663775811585
 50
0.0
 51
0.0
 72
  1000
 90
    32800
  1

281
     0
 71
     1
 74
     0
110
0.0
120
0.0
130
0.0
111
1.0
121
0.0
131
0.0
112
0.0
122
1.0
132
0.0
 79
     0
146
0.0
  0
TEXT
  5
39B
330
D
100
AcDbEntity
 67
     1
  8
LOGO
100
AcDbText
 10
361.840551327114
 20
-9.44606624365188
 30
0.0
 40
2.892660566630368
  1
Accessory
 72
     4
 11
370.8150307350848
 21
-8.426403393914675
 31
0.0
100
AcDbText
  0
LINE
  5
39C
330
D
100
AcDbEntity
 67
     1
  8
LOGO
 62
     4
100
AcDbLine
 10
375.2013469625599
 20
23.54640457218987
 30
0.0
 11
361.9673929228556
 21
23.54640457218987
 31
0.0
  0
LINE
  5
39D
330
D
100
AcDbEntity
 67
     1
  8
LOGO
 62
     4
100
AcDbLine
 10
384.5909674538043
 20
3.926726956625849
 30
0.0
 11
356.0926308403753
 21
3.926726956625849
 31
0.0
  0
LINE
  5
39E
330
D
100
AcDbEntity
 67
     1
  8
LOGO
 62
     4
100
AcDbLine
 10
375.2013469625599
 20
10.46661949514691
 30
0.0
 11
361.9673929228556
 21
10.46661949514691
 31
0.0
  0
LINE
  5
39F
330
D
100
AcDbEntity
 67
     1
  8
LOGO
 62
     4
100
AcDbLine
 10
384.5909674538043
 20
-12.05967702642657
 30
0.0
 11
356.0926308403753
 21
-12.05967702642657
 31
0.0
  0
TEXT
  5
3A0
330
D
100
AcDbEntity
 67
     1
  8
LOGO
 62
     7
100
AcDbText
 10
127.9186544428761
 20
16.99006388864409
 30
0.0
 40
8.71985671802853
  1
訂購代號:
  7
CHINESET
100
AcDbText
  0
TEXT
  5
3A1
330
D
100
AcDbEntity
 67
     1
  8
LOGO
 62
     7
100
AcDbText
 10
126.8757115058791
 20
8.806228695568634
 30
0.0
 40
5.81323781201902
  1
Order example:
 41
0.8
  7
CHINESET
100
AcDbText
  0
LINE
  5
3A2
330
D
100
AcDbEntity
 67
     1
  8
LOGO
 62
     4
100
AcDbLine
 10
216.2915274690957
 20
-12.05967702642657
 30
0.0
 11
187.2253384090007
 21
-12.05967702642657
 31
0.0
  0
LINE
  5
3A3
330
D
100
AcDbEntity
 67
     1
  8
LOGO
 62
     4
100
AcDbLine
 10
216.2915274690957
 20
3.926726956625628
 30
0.0
 11
187.2253384090007
 21
3.926726956625628
 31
0.0
  0
LINE
  5
3A4
330
D
100
AcDbEntity
 67
     1
  8
LOGO
 62
     4
100
AcDbLine
 10
223.1506719713434
 20
10.46661949514691
 30
0.0
 11
180.745466299651
 21
10.46661949514691
 31
0.0
  0
LINE
  5
3A5
330
D
100
AcDbEntity
 67
     1
  8
LOGO
 62
     4
100
AcDbLine
 10
223.1506719713434
 20
23.54640457218987
 30
0.0
 11
180.745466299651
 21
23.54640457218987
 31
0.0
  0
TEXT
  5
3A6
330
D
100
AcDbEntity
 67
     1
  8
LOGO
  6
Continuous
 62
     7
100
AcDbText
 10
182.7269996258909
 20
13.37323840115662
 30
0.0
 40
7.266547265023775
  1
MCBQI2
  7
CHINESET
 72
     1
 11
201.7584329390484
 21
17.00651203366851
 31
0.0
100
AcDbText
 73
     2
  0
LINE
  5
3A7
330
D
100
AcDbEntity
 67
     1
  8
LOGO
 62
     4
100
AcDbLine
 10
180.745466299651
 20
23.54640457218987
 30
0.0
 11
180.745466299651
 21
10.46661949514691
 31
0.0
  0
LINE
  5
3A8
330
D
100
AcDbEntity
 67
     1
  8
LOGO
 62
     4
100
AcDbLine
 10
187.2253384090007
 20
3.926726956625628
 30
0.0
 11
187.2253384090007
 21
-12.05967702642657
 31
0.0
  0
TEXT
  5
3A9
330
D
100
AcDbEntity
 67
     1
  8
LOGO
100
AcDbText
 10
196.8409099757767
 20
-9.82031333556571
 30
0.0
 40
2.892660566630368
  1
Model
 72
     4
 11
201.7584329390484
 21
-8.426403393914782
 31
0.0
100
AcDbText
  0
TEXT
  5
3AA
330
D
100
AcDbEntity
 67
     1
  8
LOGO
100
AcDbText
 10
195.9451951270293
 20
-3.917711075144067
 30
0.0
 40
5.81323781201902
  1
型式
 72
     4
 11
201.7584329390484
 21
-1.15985612889095
 31
0.0
100
AcDbText
  0
LINE
  5
3AB
330
D
100
AcDbEntity
 67
     1
  8
LOGO
 62
     4
100
AcDbLine
 10
201.7584329390484
 20
10.46661949514691
 30
0.0
 11
201.7584329390484
 21
3.926726956625628
 31
0.0
  0
LINE
  5
3AC
330
D
100
AcDbEntity
 67
     1
  8
LOGO
 62
     4
100
AcDbLine
 10
223.1506719713434
 20
23.54640457218987
 30
0.0
 11
223.1506719713434
 21
10.46661949514691
 31
0.0
  0
LINE
  5
3AD
330
D
100
AcDbEntity
 67
     1
  8
LOGO
 62
     4
100
AcDbLine
 10
261.5424265706991
 20
23.54640457218987
 30
0.0
 11
261.5424265706991
 21
10.46661949514691
 31
0.0
  0
LINE
  5
3AE
330
D
100
AcDbEntity
 67
     1
  8
LOGO
 62
     4
100
AcDbLine
 10
232.7645821425738
 20
23.54640457218987
 30
0.0
 11
232.7645821425738
 21
10.46661949514691
 31
0.0
  0
TEXT
  5
3AF
330
D
100
AcDbEntity
 67
     1
  8
LOGO
100
AcDbText
 10
235.5360840418573
 20
-9.386414250571155
 30
0.0
 40
2.892660566630368
  1
Acting type
 72
     4
 11
245.5157629967321
 21
-8.426403393914782
 31
0.0
100
AcDbText
  0
TEXT
  5
3B0
330
D
100
AcDbEntity
 67
     1
  8
LOGO
100
AcDbText
 10
233.9498419332359
 20
-3.917711075144065
 30
0.0
 40
5.81323781201902
  1
作動型式
 72
     4
 11
245.5157629967321
 21
-1.15985612889095
 31
0.0
100
AcDbText
  0
LINE
  5
3B1
330
D
100
AcDbEntity
 67
     1
  8
LOGO
 62
     4
100
AcDbLine
 10
261.5424265706991
 20
10.46661949514691
 30
0.0
 11
232.7645821425738
 21
10.46661949514691
 31
0.0
  0
LINE
  5
3B2
330
D
100
AcDbEntity
 67
     1
  8
LOGO
 62
     4
100
AcDbLine
 10
261.5424265706991
 20
3.926726956625628
 30
0.0
 11
229.4890994227647
 21
3.926726956625628
 31
0.0
  0
LINE
  5
3B3
330
D
100
AcDbEntity
 67
     1
  8
LOGO
 62
     4
100
AcDbLine
 10
261.5424265706991
 20
-12.05967702642657
 30
0.0
 11
229.4890994227647
 21
-12.05967702642657
 31
0.0
  0
LINE
  5
3B4
330
D
100
AcDbEntity
 67
     1
  8
LOGO
 62
     4
100
AcDbLine
 10
216.2915274690959
 20
3.926726956625628
 30
0.0
 11
216.2915274690959
 21
-12.05967702642657
 31
0.0
  0
LINE
  5
3B5
330
D
100
AcDbEntity
 67
     1
  8
LOGO
 62
     4
100
AcDbLine
 10
229.4890994227647
 20
3.926726956625628
 30
0.0
 11
229.4890994227647
 21
-12.05967702642657
 31
0.0
  0
LINE
  5
3B6
330
D
100
AcDbEntity
 67
     1
  8
LOGO
 62
     4
100
AcDbLine
 10
261.5424265706991
 20
3.926726956625628
 30
0.0
 11
261.5424265706991
 21
-12.05967702642657
 31
0.0
  0
LINE
  5
3B7
330
D
100
AcDbEntity
 67
     1
  8
LOGO
 62
     4
100
AcDbLine
 10
245.5157629967321
 20
10.46661949514691
 30
0.0
 11
245.5157629967321
 21
3.926726956625628
 31
0.0
  0
LINE
  5
3B8
330
D
100
AcDbEntity
 67
     1
  8
LOGO
 62
     4
100
AcDbLine
 10
261.5424265706991
 20
23.54640457218987
 30
0.0
 11
232.7645821425738
 21
23.54640457218987
 31
0.0
  0
LINE
  5
3B9
330
D
100
AcDbEntity
 67
     1
  8
LOGO
  6
Continuous
 62
     7
100
AcDbLine
 10
225.4041223706415
 20
16.9601813678309
 30
0.0
 11
230.5026353240843
 21
16.9601813678309
 31
0.0
  0
TEXT
  5
3BA
330
D
100
AcDbEntity
 67
     1
  8
LOGO
  6
Continuous
 62
     7
100
AcDbText
 10
241.8824893642202
 20
13.29083529728588
 30
0.0
 40
7.266547265023775
  1
11
  7
CHINESET
 72
     1
 11
245.5157629967321
 21
16.92410892979777
 31
0.0
100
AcDbText
 73
     2
  0
TEXT
  5
3BB
330
D
100
AcDbEntity
 67
     1
  8
LOGO
  6
Continuous
 62
     7
100
AcDbText
 10
312.4574183134753
 20
11.87204058392845
 30
0.0
 40
7.266547265023775
  1
*
  7
CHINESET
 72
     1
 11
314.1875486146714
 21
15.50531421644034
 31
0.0
100
AcDbText
 73
     2
  0
TEXT
  5
3BC
330
D
100
AcDbEntity
 67
     1
  8
LOGO
100
AcDbText
 10
307.7053900750937
 20
-9.872733677229966
 30
0.0
 40
2.892660566630368
  1
Stroke
 72
     4
 11
313.5780604467247
 21
-8.426403393914782
 31
0.0
100
AcDbText
  0
LINE
  5
3BD
330
D
100
AcDbEntity
 67
     1
  8
LOGO
 62
     4
100
AcDbLine
 10
324.5118589789474
 20
23.54640457218987
 30
0.0
 11
305.4578030959236
 21
23.54640457218987
 31
0.0
  0
TEXT
  5
3BE
330
D
100
AcDbEntity
 67
     1
  8
LOGO
100
AcDbText
 10
307.7648226347057
 20
-4.06647503490046
 30
0.0
 40
5.81323781201902
  1
行程
 72
     4
 11
313.5780604467247
 21
-1.15985612889095
 31
0.0
100
AcDbText
  0
LINE
  5
3BF
330
D
100
AcDbEntity
 67
     1
  8
LOGO
 62
     4
100
AcDbLine
 10
324.2296692855255
 20
-12.05967702642657
 30
0.0
 11
302.9264516079236
 21
-12.05967702642657
 31
0.0
  0
LINE
  5
3C0
330
D
100
AcDbEntity
 67
     1
  8
LOGO
 62
     4
100
AcDbLine
 10
324.5118589789474
 20
10.46661949514691
 30
0.0
 11
305.4578030959236
 21
10.46661949514691
 31
0.0
  0
LINE
  5
3C1
330
D
100
AcDbEntity
 67
     1
  8
LOGO
 62
     4
100
AcDbLine
 10
324.2296692855255
 20
3.926726956625628
 30
0.0
 11
302.9264516079236
 21
3.926726956625628
 31
0.0
  0
LINE
  5
3C2
330
D
100
AcDbEntity
 67
     1
  8
LOGO
 62
     4
100
AcDbLine
 10
295.1668500482642
 20
23.54640457219002
 30
0.0
 11
295.1668500482642
 21
10.46661949514721
 31
0.0
  0
LINE
  5
3C3
330
D
100
AcDbEntity
 67
     1
  8
LOGO
 62
     4
100
AcDbLine
 10
271.8333796183586
 20
23.54640457218987
 30
0.0
 11
271.8333796183586
 21
10.46661949514721
 31
0.0
  0
LINE
  5
3C4
330
D
100
AcDbEntity
 67
     1
  8
LOGO
 62
     4
100
AcDbLine
 10
305.4578030959238
 20
23.54640457218987
 30
0.0
 11
305.4578030959236
 21
10.46661949514691
 31
0.0
  0
LINE
  5
3C5
330
D
100
AcDbEntity
 67
     1
  8
LOGO
 62
     4
100
AcDbLine
 10
295.1668500482642
 20
-12.05967702642657
 30
0.0
 11
271.8333796183586
 21
-12.05967702642657
 31
0.0
  0
LINE
  5
3C6
330
D
100
AcDbEntity
 67
     1
  8
LOGO
 62
     4
100
AcDbLine
 10
295.1668500482642
 20
10.46661949514721
 30
0.0
 11
271.8333796183586
 21
10.46661949514721
 31
0.0
  0
LINE
  5
3C7
330
D
100
AcDbEntity
 67
     1
  8
LOGO
 62
     4
100
AcDbLine
 10
295.1668500482642
 20
3.926726956625849
 30
0.0
 11
271.8333796183586
 21
3.926726956625849
 31
0.0
  0
LINE
  5
3C8
330
D
100
AcDbEntity
 67
     1
  8
LOGO
 62
     4
100
AcDbLine
 10
271.8333796183586
 20
3.926726956625849
 30
0.0
 11
271.8333796183586
 21
-12.05967702642657
 31
0.0
  0
TEXT
  5
3C9
330
D
100
AcDbEntity
 67
     1
  8
LOGO
100
AcDbText
 10
279.4503900400289
 20
-9.827801955803462
 30
0.0
 40
2.892660566630368
  1
Bore
 72
     4
 11
283.5001148333114
 21
-8.426403393914782
 31
0.0
100
AcDbText
  0
TEXT
  5
3CA
330
D
100
AcDbEntity
 67
     1
  8
LOGO
100
AcDbText
 10
277.3235496580412
 20
-4.066475034900459
 30
0.0
 40
5.81323781201902
  1
內徑
 72
     4
 11
283.5001148333114
 21
-1.15985612889095
 31
0.0
100
AcDbText
  0
LINE
  5
3CB
330
D
100
AcDbEntity
 67
     1
  8
LOGO
 62
     4
100
AcDbLine
 10
283.5001144982008
 20
10.46661949514721
 30
0.0
 11
283.5001144982008
 21
3.926726956625849
 31
0.0
  0
LINE
  5
3CC
330
D
100
AcDbEntity
 67
     1
  8
LOGO
 62
     4
100
AcDbLine
 10
295.1668500482642
 20
3.926726956625849
 30
0.0
 11
295.1668500482642
 21
-12.05967702642657
 31
0.0
  0
LINE
  5
3CD
330
D
100
AcDbEntity
 67
     1
  8
LOGO
 62
     4
100
AcDbLine
 10
302.9264516079236
 20
3.926726956625628
 30
0.0
 11
302.9264516079236
 21
-12.05967702642657
 31
0.0
  0
LINE
  5
3CE
330
D
100
AcDbEntity
 67
     1
  8
LOGO
 62
     4
100
AcDbLine
 10
295.1668500482642
 20
23.54640457219002
 30
0.0
 11
271.8333796183586
 21
23.54640457218987
 31
0.0
  0
LINE
  5
3CF
330
D
100
AcDbEntity
 67
     1
  8
LOGO
  6
Continuous
 62
     7
100
AcDbLine
 10
263.7958769699974
 20
16.96018136783105
 30
0.0
 11
269.571432799869
 21
16.96018136783105
 31
0.0
  0
TEXT
  5
3D0
330
D
100
AcDbEntity
 67
     1
  8
LOGO
  6
Continuous
 62
     7
100
AcDbText
 10
278.295883074486
 20
13.29083529728595
 30
0.0
 40
7.266547265023775
  1
50
  7
CHINESET
 72
     1
 11
284.1783260985528
 21
16.92410892979784
 31
0.0
100
AcDbText
 73
     2
  0
LINE
  5
3D1
330
D
100
AcDbEntity
 67
     1
  8
LOGO
  6
Continuous
 62
     7
100
AcDbLine
 10
297.4203004475626
 20
16.96018136783105
 30
0.0
 11
303.1958562774343
 21
16.96018136783105
 31
0.0
  0
TEXT
  5
3D2
330
D
100
AcDbEntity
 67
     1
  8
LOGO
  6
Continuous
 62
     7
100
AcDbText
 10
331.2462615056605
 20
13.68746496262061
 30
0.0
 40
7.266547265023775
  1
(M)
  7
CHINESET
 72
     1
 11
339.0318478610432
 21
17.32073859513249
 31
0.0
100
AcDbText
 73
     2
  0
LINE
  5
3D3
330
D
100
AcDbEntity
 67
     1
  8
LOGO
 62
     4
100
AcDbLine
 10
361.9673929228556
 20
23.54640457218987
 30
0.0
 11
361.9673929228556
 21
10.46661949514691
 31
0.0
  0
LINE
  5
3D4
330
D
100
AcDbEntity
 67
     1
  8
LOGO
 62
     4
100
AcDbLine
 10
351.7885616715552
 20
23.54640457218987
 30
0.0
 11
351.7885616715552
 21
10.46661949514691
 31
0.0
  0
LINE
  5
3D5
330
D
100
AcDbEntity
 67
     1
  8
LOGO
 62
     4
100
AcDbLine
 10
327.5362647615832
 20
23.54640457218987
 30
0.0
 11
327.5362647615832
 21
10.46661949514691
 31
0.0
  0
LINE
  5
3D6
330
D
100
AcDbEntity
 67
     1
  8
LOGO
 62
     4
100
AcDbLine
 10
324.5118589789474
 20
23.54640457218987
 30
0.0
 11
324.5118589789474
 21
10.46661949514691
 31
0.0
  0
LINE
  5
3D7
330
D
100
AcDbEntity
 67
     1
  8
LOGO
 62
     4
100
AcDbLine
 10
352.8919124056639
 20
-12.05967702642657
 30
0.0
 11
331.5886947280621
 21
-12.05967702642657
 31
0.0
  0
LINE
  5
3D8
330
D
100
AcDbEntity
 67
     1
  8
LOGO
 62
     4
100
AcDbLine
 10
352.8919124056639
 20
3.926726956625628
 30
0.0
 11
331.5886947280621
 21
3.926726956625628
 31
0.0
  0
TEXT
  5
3D9
330
D
100
AcDbEntity
 67
     1
  8
LOGO
100
AcDbText
 10
335.1532851786187
 20
-9.872733677229964
 30
0.0
 40
2.892660566630368
  1
MAGNET
 72
     4
 11
342.2403035668631
 21
-8.426403393914782
 31
0.0
100
AcDbText
  0
TEXT
  5
3DA
330
D
100
AcDbEntity
 67
     1
  8
LOGO
100
AcDbText
 10
333.5204468488345
 20
-4.005920474358596
 30
0.0
 40
5.81323781201902
  1
附磁石
 72
     4
 11
342.2403035668631
 21
-1.15985612889095
 31
0.0
100
AcDbText
  0
LINE
  5
3DB
330
D
100
AcDbEntity
 67
     1
  8
LOGO
 62
     4
100
AcDbLine
 10
351.7885616715552
 20
10.46661949514691
 30
0.0
 11
327.5362647615832
 21
10.46661949514691
 31
0.0
  0
LINE
  5
3DC
330
D
100
AcDbEntity
 67
     1
  8
LOGO
 62
     4
100
AcDbLine
 10
331.5886947280621
 20
3.926726956625628
 30
0.0
 11
331.5886947280621
 21
-12.05967702642657
 31
0.0
  0
LINE
  5
3DD
330
D
100
AcDbEntity
 67
     1
  8
LOGO
 62
     4
100
AcDbLine
 10
324.2296692855255
 20
3.926726956625628
 30
0.0
 11
324.2296692855255
 21
-12.11995636967614
 31
0.0
  0
LINE
  5
3DE
330
D
100
AcDbEntity
 67
     1
  8
LOGO
 62
     4
100
AcDbLine
 10
313.8858581930324
 20
10.46661949514691
 30
0.0
 11
313.8858581930324
 21
3.926726956625628
 31
0.0
  0
LINE
  5
3DF
330
D
100
AcDbEntity
 67
     1
  8
LOGO
 62
     4
100
AcDbLine
 10
342.2403035668631
 20
10.46661949514691
 30
0.0
 11
342.2403035668631
 21
3.926726956625628
 31
0.0
  0
LINE
  5
3E0
330
D
100
AcDbEntity
 67
     1
  8
LOGO
 62
     4
100
AcDbLine
 10
352.8919124056639
 20
3.926726956625628
 30
0.0
 11
352.8919124056639
 21
-12.11995636967614
 31
0.0
  0
LINE
  5
3E1
330
D
100
AcDbEntity
 67
     1
  8
LOGO
 62
     4
100
AcDbLine
 10
356.0926308403753
 20
3.926726956625849
 30
0.0
 11
356.0926308403753
 21
-12.05967702642657
 31
0.0
  0
LINE
  5
3E2
330
D
100
AcDbEntity
 67
     1
  8
LOGO
 62
     4
100
AcDbLine
 10
368.5843699427078
 20
10.46661949514691
 30
0.0
 11
368.5843699427078
 21
3.926726956625849
 31
0.0
  0
LINE
  5
3E3
330
D
100
AcDbEntity
 67
     1
  8
LOGO
 62
     4
100
AcDbLine
 10
351.7885616715552
 20
23.54640457218987
 30
0.0
 11
327.5362647615832
 21
23.54640457218987
 31
0.0
  0
LINE
  5
3E4
330
D
100
AcDbEntity
 67
     1
  8
LOGO
  6
Continuous
 62
     7
100
AcDbLine
 10
354.0420120708535
 20
16.96018136783105
 30
0.0
 11
359.8175679007254
 21
16.96018136783105
 31
0.0
  0
TEXT
  5
3E5
330
D
100
AcDbEntity
 67
     1
  8
LOGO
  6
Continuous
 62
     7
100
AcDbText
 10
366.8596688555232
 20
13.29083529728588
 30
0.0
 40
7.266547265023775
  1
?
  7
CHINESET
 72
     1
 11
368.7628121868389
 21
16.92410892979777
 31
0.0
100
AcDbText
 73
     2
  0
LINE
  5
3E6
330
D
100
AcDbEntity
 67
     1
  8
LOGO
 62
     4
100
AcDbLine
 10
375.2013469625599
 20
23.54640457218987
 30
0.0
 11
375.2013469625599
 21
10.46661949514691
 31
0.0
  0
TEXT
  5
3E7
330
D
100
AcDbEntity
 67
     1
  8
LOGO
100
AcDbText
 10
365.3510494088901
 20
-4.066475034900309
 30
0.0
 40
5.81323781201902
  1
配件
 72
     4
 11
371.224841781451
 21
-1.159856128890801
 31
0.0
100
AcDbText
  0
LINE
  5
3E8
330
D
100
AcDbEntity
 67
     1
  8
LOGO
 62
     4
100
AcDbLine
 10
384.5909674538043
 20
3.926726956625849
 30
0.0
 11
384.5909674538043
 21
-12.05967702642657
 31
0.0
  0
LINE
  5
3E9
330
D
100
AcDbEntity
 67
     1
  8
LOGO
 62
     4
100
AcDbLine
 10
124.3498399591877
 20
-15.69295065893873
 30
0.0
 11
124.3498399591877
 21
27.90633293120491
 31
0.0
  0
TEXT
  5
3EA
330
D
100
AcDbEntity
 67
     1
  8
LOGO
  6
Continuous
100
AcDbText
 10
44.09247470902471
 20
-7.127937194711108
 30
0.0
 40
6.539892538521454
  1
金器工業股份有限公司
  7
CHINESET
100
AcDbText
  0
TEXT
  5
3EB
330
D
100
AcDbEntity
 67
     1
  8
LOGO
  6
Continuous
100
AcDbText
 10
32.07998596969332
 20
-13.66911103942274
 30
0.0
 40
4.359928359014302
  1
MINDMAN INDUSTRIAL CO., LTD.
 41
0.85
  7
CHINESET
100
AcDbText
  0
LINE
  5
3EC
330
D
100
AcDbEntity
 67
     1
  8
LOGO
 62
     4
100
AcDbLine
 10
124.3498399591877
 20
19.18647621317595
 30
0.0
 11
60.40422402697652
 21
19.18647621317595
 31
0.0
  0
LINE
  5
3ED
330
D
100
AcDbEntity
 67
     1
  8
LOGO
 62
     4
100
AcDbLine
 10
124.3498399591877
 20
10.46661949514721
 30
0.0
 11
60.40422402697652
 21
10.46661949514721
 31
0.0
  0
LINE
  5
3EE
330
D
100
AcDbEntity
 67
     1
  8
LOGO
 62
     4
100
AcDbLine
 10
124.3498399591877
 20
1.746762777118775
 30
0.0
 11
28.4314160608721
 21
1.746762777118775
 31
0.0
  0
LINE
  5
3EF
330
D
100
AcDbEntity
 67
     1
  8
LOGO
 62
     4
100
AcDbLine
 10
60.40422402697652
 20
1.746762777118775
 30
0.0
 11
60.40422402697652
 21
27.90633293120491
 31
0.0
  0
TEXT
  5
3F0
330
D
100
AcDbEntity
 67
     1
  8
LOGO
100
AcDbText
 10
104.1080343295434
 20
3.926726956625622
 30
0.0
 40
4.359928359014302
  1
mm
  7
CHINESET
 72
     1
 11
109.5060408692754
 21
6.106691136132774
 31
0.0
100
AcDbText
 73
     2
  0
TEXT
  5
3F1
330
D
100
AcDbEntity
 67
     1
  8
LOGO
100
AcDbText
 10
101.8242623319645
 20
21.36644039268287
 30
0.0
 40
4.359928359014302
  1
1 : 1
  7
CHINESET
 72
     1
 11
109.5060408692754
 21
23.54640457219002
 31
0.0
100
AcDbText
 73
     2
  0
LINE
  5
3F2
330
D
100
AcDbEntity
 67
     1
  8
LOGO
 62
     4
100
AcDbLine
 10
95.28365089909199
 20
1.746762777118775
 30
0.0
 11
95.28365089909199
 21
27.90633293120491
 31
0.0
  0
TEXT
  5
3F3
330
D
100
AcDbEntity
 67
     1
  8
LOGO
100
AcDbText
 10
63.99921852657562
 20
21.36858602671781
 30
285.7425220874162
 40
4.359928359014302
  1
比例 Scale:
 41
0.9
  7
CHINESET
 72
     4
 11
77.84393746303488
 21
23.54640457219002
 31
285.7425220874162
100
AcDbText
  0
TEXT
  5
3F4
330
D
100
AcDbEntity
 67
     1
  8
LOGO
100
AcDbText
 10
63.74813336661453
 20
12.70791304748669
 30
285.7425220874162
 40
4.359928359014302
  1
投影  View:
 41
0.9
  7
CHINESET
 72
     4
 11
77.84393746303488
 21
14.82654785416158
 31
285.7425220874162
100
AcDbText
  0
TEXT
  5
3F5
330
D
100
AcDbEntity
 67
     1
  8
LOGO
100
AcDbText
 10
64.17439421957173
 20
3.926726956625621
 30
285.7425220874162
 40
4.359928359014302
  1
單位  Unit:
 41
0.9
  7
CHINESET
 72
     4
 11
77.84393746303488
 21
6.106691136132774
 31
285.7425220874162
100
AcDbText
  0
SOLID
  5
3F6
330
D
100
AcDbEntity
 67
     1
  8
LOGO
 62
     5
100
AcDbTrace
 10
32.9549117048777
 20
8.994523087047035
 30
0.0
 11
34.84003032279515
 21
8.994523087045848
 31
0.0
 12
42.70552524583092
 22
26.87064791212818
 32
0.0
 13
44.59064386374905
 23
26.87064791212678
 33
0.0
  0
SOLID
  5
3F7
330
D
100
AcDbEntity
 67
     1
  8
LOGO
 62
     5
100
AcDbTrace
 10
35.62007940607327
 20
8.994523087047035
 30
0.0
 11
37.50519802399078
 21
8.994523087047035
 31
0.0
 12
44.59064386374905
 22
25.44055792612105
 32
0.0
 13
42.70552524583092
 23
18.52845632708963
 33
0.0
  0
SOLID
  5
3F8
330
D
100
AcDbEntity
 67
     1
  8
LOGO
 62
     2
100
AcDbTrace
 10
34.84003032279515
 20
8.994523087045848
 30
0.0
 11
35.62007940607327
 21
8.994523087047035
 31
0.0
 12
44.59064386374905
 22
26.87064791212678
 32
0.0
 13
45.37069294702667
 23
26.87064791212678
 33
0.0
  0
SOLID
  5
3F9
330
D
100
AcDbEntity
 67
     1
  8
LOGO
 62
     5
100
AcDbTrace
 10
29.93260427264317
 20
2.494114059744632
 30
0.0
 11
30.58264517537441
 21
2.494114059744632
 31
0.0
 12
32.41321095260258
 22
5.744318573395723
 32
0.0
 13
33.06325185533263
 23
5.744318573395723
 33
0.0
  0
SOLID
  5
3FA
330
D
100
AcDbEntity
 67
     1
  8
LOGO
 62
     5
100
AcDbTrace
 10
32.41321095260258
 20
5.744318573395723
 30
0.0
 11
33.06325185533263
 21
5.744318573395723
 31
0.0
 12
32.41321095260258
 22
2.494114059744632
 32
0.0
 13
33.06325185533263
 23
2.494114059744632
 33
0.0
  0
SOLID
  5
3FB
330
D
100
AcDbEntity
 67
     1
  8
LOGO
 62
     5
100
AcDbTrace
 10
32.41321095260258
 20
2.494114059744632
 30
0.0
 11
33.06325185533263
 21
2.494114059744632
 31
0.0
 12
34.89381763256415
 22
5.744318573395723
 32
0.0
 13
35.54385853529363
 23
5.744318573395723
 33
0.0
  0
SOLID
  5
3FC
330
D
100
AcDbEntity
 67
     1
  8
LOGO
 62
     5
100
AcDbTrace
 10
34.89381763256415
 20
5.744318573395723
 30
0.0
 11
35.54385853529363
 21
5.744318573395723
 31
0.0
 12
34.89381763256415
 22
2.494114059744632
 32
0.0
 13
35.54385853529363
 23
2.494114059744632
 33
0.0
  0
POLYLINE
  5
3FD
330
D
100
AcDbEntity
 67
     1
  8
LOGO
 62
     5
100
AcDb2dPolyline
 66
     1
 10
0.0
 20
0.0
 30
0.0
 40
0.6510826349461355
 41
0.6510826349461355
  0
VERTEX
  5
3FE
330
3FD
100
AcDbEntity
 67
     1
  8
LOGO
 62
     5
100
AcDbVertex
100
AcDb2dVertex
 10
56.68296725285575
 20
4.444236767934754
 30
0.0
 42
1.0
  0
VERTEX
  5
3FF
330
3FD
100
AcDbEntity
 67
     1
  8
LOGO
 62
     5
100
AcDbVertex
100
AcDb2dVertex
 10
54.72971934801808
 20
4.444236767934754
 30
0.0
 42
1.0
  0
SEQEND
  5
400
330
3FD
100
AcDbEntity
 67
     1
  8
LOGO
 62
     5
  0
POLYLINE
  5
401
330
D
100
AcDbEntity
 67
     1
  8
LOGO
 62
     5
100
AcDb2dPolyline
 66
     1
 10
0.0
 20
0.0
 30
0.0
 70
     1
  0
VERTEX
  5
402
330
401
100
AcDbEntity
 67
     1
  8
LOGO
 62
     5
100
AcDbVertex
100
AcDb2dVertex
 10
51.04776016692937
 20
4.119216316569961
 30
0.0
 42
1.000000057330635
  0
VERTEX
  5
403
330
401
100
AcDbEntity
 67
     1
  8
LOGO
 62
     5
100
AcDbVertex
100
AcDb2dVertex
 10
52.99788287511922
 20
4.119216316569961
 30
0.0
 42
1.000000057330635
  0
SEQEND
  5
404
330
401
100
AcDbEntity
 67
     1
  8
LOGO
 62
     5
  0
CIRCLE
  5
405
330
D
100
AcDbEntity
 67
     1
  8
LOGO
 62
     5
100
AcDbCircle
 10
52.02282152102554
 20
4.119216316569961
 30
0.0
 40
0.9750613540953326
  0
POLYLINE
  5
406
330
D
100
AcDbEntity
 67
     1
  8
LOGO
 62
     5
100
AcDb2dPolyline
 66
     1
 10
0.0
 20
0.0
 30
0.0
 70
     1
 40
0.6510826349461355
 41
0.6510826349461355
  0
VERTEX
  5
407
330
406
100
AcDbEntity
 67
     1
  8
LOGO
 62
     5
100
AcDbVertex
100
AcDb2dVertex
 10
50.7206562511326
 20
4.119216316569961
 30
0.0
 42
1.0
  0
VERTEX
  5
408
330
406
100
AcDbEntity
 67
     1
  8
LOGO
 62
     5
100
AcDbVertex
100
AcDb2dVertex
 10
53.32498679091736
 20
4.119216316569961
 30
0.0
 42
1.0
  0
SEQEND
  5
409
330
406
100
AcDbEntity
 67
     1
  8
LOGO
 62
     5
  0
LINE
  5
40A
330
D
100
AcDbEntity
 67
     1
  8
LOGO
100
AcDbLine
 10
57.00642510589535
 20
2.494114059744632
 30
0.0
 11
57.00642510589535
 21
4.444236767934754
 31
0.0
  0
SOLID
  5
40B
330
D
100
AcDbEntity
 67
     1
  8
LOGO
 62
     5
100
AcDbTrace
 10
52.99781787103166
 20
5.744318573395723
 30
0.0
 11
53.64785877376118
 21
5.744318573395723
 31
0.0
 12
52.99781787103166
 22
2.494114059744632
 32
0.0
 13
53.64785877376118
 23
2.494114059744632
 33
0.0
  0
SOLID
  5
40C
330
D
100
AcDbEntity
 67
     1
  8
LOGO
 62
     5
100
AcDbTrace
 10
54.40626149497541
 20
2.494114059744632
 30
0.0
 11
55.05630239770574
 21
2.494114059744632
 31
0.0
 12
54.40626149497541
 22
5.744318573395723
 32
0.0
 13
55.05630239770574
 23
5.744318573395723
 33
0.0
  0
SOLID
  5
40D
330
D
100
AcDbEntity
 67
     1
  8
LOGO
 62
     5
100
AcDbTrace
 10
56.35638420316718
 20
4.444236767934754
 30
0.0
 11
57.00642510589535
 21
4.444236767934754
 31
0.0
 12
56.35638420316718
 22
2.494114059744632
 32
0.0
 13
57.00642510589535
 23
2.494114059744632
 33
0.0
  0
SOLID
  5
40E
330
D
100
AcDbEntity
 67
     1
  8
LOGO
 62
     5
100
AcDbTrace
 10
54.34125740470199
 20
25.44055792612105
 30
0.0
 11
52.45613878678501
 21
18.52845632708963
 31
0.0
 12
54.34125740470199
 22
8.994523087045848
 32
0.0
 13
52.45613878678501
 23
8.994523087045848
 33
0.0
  0
SOLID
  5
40F
330
D
100
AcDbEntity
 67
     1
  8
LOGO
 62
     5
100
AcDbTrace
 10
55.12130648797882
 20
8.994523087045848
 30
0.0
 11
57.00642510589535
 21
8.994523087045848
 31
0.0
 12
55.12130648797882
 22
26.87064791212678
 32
0.0
 13
57.00642510589535
 23
26.87064791212818
 33
0.0
  0
SOLID
  5
410
330
D
100
AcDbEntity
 67
     1
  8
LOGO
 62
     2
100
AcDbTrace
 10
54.34125740470199
 20
26.87064791212818
 30
0.0
 11
55.12130648797882
 21
26.87064791212678
 31
0.0
 12
54.34125740470199
 22
8.994523087045848
 32
0.0
 13
55.12130648797882
 23
8.994523087045848
 33
0.0
  0
POLYLINE
  5
411
330
D
100
AcDbEntity
 67
     1
  8
LOGO
 62
     5
100
AcDb2dPolyline
 66
     1
 10
0.0
 20
0.0
 30
0.0
 40
0.6510826349461355
 41
0.6510826349461355
  0
VERTEX
  5
412
330
411
100
AcDbEntity
 67
     1
  8
LOGO
 62
     5
100
AcDbVertex
100
AcDb2dVertex
 10
47.36567097766328
 20
4.444236767934754
 30
0.0
 42
1.0
  0
VERTEX
  5
413
330
411
100
AcDbEntity
 67
     1
  8
LOGO
 62
     5
100
AcDbVertex
100
AcDb2dVertex
 10
45.41242307282345
 20
4.444236767934754
 30
0.0
 42
1.0
  0
SEQEND
  5
414
330
411
100
AcDbEntity
 67
     1
  8
LOGO
 62
     5
  0
POLYLINE
  5
415
330
D
100
AcDbEntity
 67
     1
  8
LOGO
 62
     5
100
AcDb2dPolyline
 66
     1
 10
0.0
 20
0.0
 30
0.0
 40
0.6510826349461355
 41
0.6510826349461355
  0
VERTEX
  5
416
330
415
100
AcDbEntity
 67
     1
  8
LOGO
 62
     5
100
AcDbVertex
100
AcDb2dVertex
 10
49.31579368585289
 20
4.444236767934754
 30
0.0
 42
1.0
  0
VERTEX
  5
417
330
415
100
AcDbEntity
 67
     1
  8
LOGO
 62
     5
100
AcDbVertex
100
AcDb2dVertex
 10
47.36254578101443
 20
4.444236767934754
 30
0.0
 42
1.0
  0
SEQEND
  5
418
330
415
100
AcDbEntity
 67
     1
  8
LOGO
 62
     5
  0
POLYLINE
  5
419
330
D
100
AcDbEntity
 67
     1
  8
LOGO
 62
     5
100
AcDb2dPolyline
 66
     1
 10
0.0
 20
0.0
 30
0.0
 40
0.6510826349461355
 41
0.6510826349461355
  0
VERTEX
  5
41A
330
419
100
AcDbEntity
 67
     1
  8
LOGO
 62
     5
100
AcDbVertex
100
AcDb2dVertex
 10
39.99849741065844
 20
4.444236767934754
 30
0.0
 42
1.0
  0
VERTEX
  5
41B
330
419
100
AcDbEntity
 67
     1
  8
LOGO
 62
     5
100
AcDbVertex
100
AcDb2dVertex
 10
38.04524950582015
 20
4.444236767934754
 30
0.0
 42
1.0
  0
SEQEND
  5
41C
330
419
100
AcDbEntity
 67
     1
  8
LOGO
 62
     5
  0
SOLID
  5
41D
330
D
100
AcDbEntity
 67
     1
  8
LOGO
 62
     5
100
AcDbTrace
 10
37.7217916527793
 20
5.744318573395723
 30
0.0
 11
38.37183255550832
 21
5.744318573395723
 31
0.0
 12
37.7217916527793
 22
2.494114059744632
 32
0.0
 13
38.37183255550832
 23
2.494114059744632
 33
0.0
  0
SOLID
  5
41E
330
D
100
AcDbEntity
 67
     1
  8
LOGO
 62
     5
100
AcDbTrace
 10
39.67191436097073
 20
4.444236767934754
 30
0.0
 11
40.32195526370208
 21
4.444236767934754
 31
0.0
 12
39.67191436097073
 22
2.494114059744632
 32
0.0
 13
40.32195526370208
 23
2.494114059744632
 33
0.0
  0
POLYLINE
  5
41F
330
D
100
AcDbEntity
 67
     1
  8
LOGO
 62
     5
100
AcDb2dPolyline
 66
     1
 10
0.0
 20
0.0
 30
0.0
 70
     1
 40
0.6510826349461355
 41
0.6510826349461355
  0
VERTEX
  5
420
330
41F
100
AcDbEntity
 67
     1
  8
LOGO
 62
     5
100
AcDbVertex
100
AcDb2dVertex
 10
41.40335997593877
 20
4.119216316569961
 30
0.0
 42
1.0
  0
VERTEX
  5
421
330
41F
100
AcDbEntity
 67
     1
  8
LOGO
 62
     5
100
AcDbVertex
100
AcDb2dVertex
 10
44.00769051572342
 20
4.119216316569961
 30
0.0
 42
1.0
  0
SEQEND
  5
422
330
41F
100
AcDbEntity
 67
     1
  8
LOGO
 62
     5
  0
SOLID
  5
423
330
D
100
AcDbEntity
 67
     1
  8
LOGO
 62
     5
100
AcDbTrace
 10
43.68052159583737
 20
6.719379927491374
 30
0.0
 11
44.3305624985677
 21
6.719379927491374
 31
0.0
 12
43.68052159583737
 22
2.494114059744632
 32
0.0
 13
44.3305624985677
 23
2.494114059744632
 33
0.0
  0
SOLID
  5
424
330
D
100
AcDbEntity
 67
     1
  8
LOGO
 62
     5
100
AcDbTrace
 10
45.08896521978431
 20
5.744318573395723
 30
0.0
 11
45.7390061225135
 21
5.744318573395723
 31
0.0
 12
45.08896521978431
 22
2.494114059744632
 32
0.0
 13
45.7390061225135
 23
2.494114059744632
 33
0.0
  0
SOLID
  5
425
330
D
100
AcDbEntity
 67
     1
  8
LOGO
 62
     5
100
AcDbTrace
 10
47.03908792797313
 20
4.444236767934754
 30
0.0
 11
47.68912883070379
 21
4.444236767934754
 31
0.0
 12
47.03908792797313
 22
2.494114059744632
 32
0.0
 13
47.68912883070379
 23
2.494114059744632
 33
0.0
  0
SOLID
  5
426
330
D
100
AcDbEntity
 67
     1
  8
LOGO
 62
     5
100
AcDbTrace
 10
48.98921063616296
 20
4.444236767934754
 30
0.0
 11
49.63925153889431
 21
4.444236767934754
 31
0.0
 12
48.98921063616296
 22
2.494114059743893
 32
0.0
 13
49.63925153889431
 23
2.494114059743893
 33
0.0
  0
SOLID
  5
427
330
D
100
AcDbEntity
 67
     1
  8
LOGO
 62
     5
100
AcDbTrace
 10
36.31334802883311
 20
6.199347205306679
 30
0.0
 11
36.96338893156639
 21
6.199347205306679
 31
0.0
 12
36.31334802883311
 22
6.719379927491374
 32
0.0
 13
36.96338893156639
 23
6.719379927491374
 33
0.0
  0
SOLID
  5
428
330
D
100
AcDbEntity
 67
     1
  8
LOGO
 62
     5
100
AcDbTrace
 10
36.31334802883311
 20
5.744318573395723
 30
0.0
 11
36.96338893156639
 21
5.744318573395723
 31
0.0
 12
36.31334802883311
 22
2.494114059743893
 32
0.0
 13
36.96338893156639
 23
2.494114059744632
 33
0.0
  0
SOLID
  5
429
330
D
100
AcDbEntity
 67
     1
  8
LOGO
 62
     5
100
AcDbTrace
 10
42.70552524583092
 20
8.994523087047035
 30
0.0
 11
44.59064386374905
 21
8.994523087047035
 31
0.0
 12
42.70552524583092
 22
18.52845632708963
 32
0.0
 13
44.59064386374905
 23
25.44055792612105
 33
0.0
  0
SOLID
  5
42A
330
D
100
AcDbEntity
 67
     1
  8
LOGO
 62
     5
100
AcDbTrace
 10
45.37069294702667
 20
26.87064791212678
 30
0.0
 11
47.25581156494399
 21
26.87064791212818
 31
0.0
 12
45.37069294702667
 22
10.42461307305231
 32
0.0
 13
47.25581156494399
 23
17.33671467208418
 33
0.0
  0
SOLID
  5
42B
330
D
100
AcDbEntity
 67
     1
  8
LOGO
 62
     2
100
AcDbTrace
 10
44.59064386374905
 20
26.87064791212678
 30
0.0
 11
45.37069294702667
 21
26.87064791212678
 31
0.0
 12
44.59064386374905
 22
8.994523087047035
 32
0.0
 13
45.37069294702667
 23
8.994523087047035
 33
0.0
  0
SOLID
  5
42C
330
D
100
AcDbEntity
 67
     1
  8
LOGO
 62
     5
100
AcDbTrace
 10
45.37069294702667
 20
10.42461307305231
 30
0.0
 11
47.25581156494399
 21
17.33671467208418
 31
0.0
 12
54.34125740470199
 22
26.87064791212818
 32
0.0
 13
52.45613878678501
 23
26.87064791212818
 33
0.0
  0
SOLID
  5
42D
330
D
100
AcDbEntity
 67
     1
  8
LOGO
 62
     5
100
AcDbTrace
 10
45.37069294702667
 20
8.994523087047035
 30
0.0
 11
47.25581156494399
 21
8.994523087047035
 31
0.0
 12
54.34125740470199
 22
25.44055792612105
 32
0.0
 13
52.45613878678501
 23
18.52845632708963
 33
0.0
  0
SOLID
  5
42E
330
D
100
AcDbEntity
 67
     1
  8
LOGO
 62
     2
100
AcDbTrace
 10
44.59064386374905
 20
8.994523087047035
 30
0.0
 11
45.37069294702667
 21
8.994523087047035
 31
0.0
 12
54.34125740470199
 22
26.87064791212818
 32
0.0
 13
55.12130648797882
 23
26.87064791212678
 33
0.0
  0
LWPOLYLINE
  5
42F
330
D
100
AcDbEntity
 67
     1
  8
LOGO
 62
     4
100
AcDbPolyline
 90
        4
 70
     1
 43
0.0
 10
28.43141606087386
 20
27.90633293120413
 10
550.1991347964467
 20
27.90633293120413
 10
550.1991347964467
 20
-15.69295065893902
 10
28.43141606087386
 20
-15.69295065893902
1001
GENIUS_GENREC_14
1002
{
1000
PYDIR
1011
28.43141606087386
1021
-15.69295065893902
1031
0.0
1002
}
1002
{
1000
PXDIR
1011
550.1991347964467
1021
27.90633293120413
1031
0.0
1002
}
1002
{
1000
PORI
1011
28.43141606087386
1021
27.90633293120413
1031
0.0
1002
}
1002
{
1000
PINS
1011
28.43141606087386
1021
27.90633293120413
1031
0.0
1002
}
1002
{
1000
PINS2
1011
550.1991347964467
1021
-15.69295065893902
1031
0.0
1002
}
1002
{
1000
C
1070
     1
1002
}
1001
GENIUS_GENOBJ-N-REC_13
1002
{
1000
OWNER
1000
GEN
1002
}
1001
GENIUS_GENODEF_13
1002
{
1000
HIER
1070
     0
1002
}
1002
{
1000
MANEDIT
1070
     0
1002
}
1002
{
1000
NOSEL
1070
     0
1002
}
1002
{
1000
BEHIND
1070
     0
1002
}
1002
{
1000
OTHER
1070
     0
1002
}
1002
{
1000
REACTOR
1002
}
  0
TEXT
  5
430
330
D
100
AcDbEntity
 67
     1
  8
LOGO
100
AcDbText
 10
126.3699468632919
 20
-13.37348598030451
 30
0.0
 40
4.3605597522816
  1
1120724B
 41
0.7
  7
CHINESET
 72
     1
 11
136.9806422605105
 21
-13.37348598030451
 31
0.0
100
AcDbText
  0
LINE
  5
431
330
D
100
AcDbEntity
 67
     1
  8
LOGO
 62
     4
100
AcDbLine
 10
150.5131984728743
 20
-6.973093940909073
 30
0.0
 11
150.5131984728775
 21
-15.69295065893836
 31
0.0
  0
LINE
  5
432
330
D
100
AcDbEntity
 67
     1
  8
LOGO
 62
     4
100
AcDbLine
 10
150.5131984728743
 20
-6.973093940909073
 30
0.0
 11
124.3498399591877
 21
-6.973093940909073
 31
0.0
  0
CIRCLE
  5
433
330
D
100
AcDbEntity
 67
     1
  8
LOGO
  6
Continuous
100
AcDbCircle
 10
103.3566035870262
 20
14.83587377282654
 30
0.0
 40
2.531477026389159
  0
CIRCLE
  5
434
330
D
100
AcDbEntity
 67
     1
  8
LOGO
  6
Continuous
100
AcDbCircle
 10
103.3566035870262
 20
14.83587377282654
 30
0.0
 40
1.483221438482118
  0
LINE
  5
435
330
D
100
AcDbEntity
 67
     1
  8
LOGO
100
AcDbLine
 10
119.2646989610272
 20
12.30439674643715
 30
0.0
 11
119.2646989610272
 21
17.36735079921615
 31
0.0
  0
LINE
  5
436
330
D
100
AcDbEntity
 67
     1
  8
LOGO
100
AcDbLine
 10
111.3286637970113
 20
13.35265233434463
 30
0.0
 11
111.3286637970113
 21
16.31909521130911
 31
0.0
  0
LINE
  5
437
330
D
100
AcDbEntity
 67
     1
  8
LOGO
  6
Continuous
100
AcDbLine
 10
111.3286637970113
 20
16.31909521130911
 30
0.0
 11
119.2646989610272
 21
17.36735079921615
 31
0.0
  0
LINE
  5
438
330
D
100
AcDbEntity
 67
     1
  8
LOGO
  6
Continuous
100
AcDbLine
 10
111.3286637970113
 20
13.35265233434463
 30
0.0
 11
119.2646989610272
 21
12.30439674643715
 31
0.0
  0
LINE
  5
439
330
D
100
AcDbEntity
 67
     1
  8
LOGO
  6
AM_ISO08W050x2
 48
0.3
100
AcDbLine
 10
99.86692460026382
 20
14.83587377282654
 30
0.0
 11
106.8462825737856
 21
14.83587377282654
 31
0.0
1001
GENIUS_GENOREF_13
1005
43D
  0
LINE
  5
43A
330
D
100
AcDbEntity
 67
     1
  8
LOGO
  6
AM_ISO08W050x2
 48
0.3
100
AcDbLine
 10
103.3566035870262
 20
11.346194786066
 30
0.0
 11
103.3566035870262
 21
18.32555275958781
 31
0.0
1001
GENIUS_GENOREF_13
1005
43F
  0
LINE
  5
43B
330
D
100
AcDbEntity
 67
     1
  8
LOGO
  6
CENTER
 48
0.5
100
AcDbLine
 10
110.694001564956
 20
14.83587377282654
 30
0.0
 11
120.0638320117719
 21
14.83587377282654
 31
0.0
1001
GENIUS_GENOREF_13
1005
43E
  0
LWPOLYLINE
  5
43C
330
D
100
AcDbEntity
 67
     1
  8
LOGO
 62
     4
100
AcDbPolyline
 90
        4
 70
     1
 43
0.0
 10
550.1991347964467
 20
27.90633293120413
 10
28.43141606087477
 20
27.90633293120413
 10
28.43141606087477
 20
348.774916371925
 10
550.1991347964467
 20
348.774916371925
  0
POINT
  5
43D
330
D
100
AcDbEntity
 67
     1
  8
0
 60
     1
100
AcDbPoint
 10
3329.677818185577
 20
-458.4050410869478
 30
0.0
1001
GENIUS_GENOBJ-N-CRS_13
1002
{
1000
OWNER
1000
GEN
1002
}
1001
GENIUS_GENOLIS_13
1002
{
1000
ENT
1005
0
1005
0
1005
0
1005
439
1002
}
1001
GENIUS_GENOENT_13
1002
{
1000
MYREF
1005
43D
1002
}
1002
{
1000
GRP
1005
0
1002
}
1001
GENIUS_GENODEF_13
1002
{
1000
HIER
1070
    10
1002
}
1002
{
1000
MANEDIT
1070
     1
1002
}
1002
{
1000
NOSEL
1070
     0
1002
}
1002
{
1000
BEHIND
1070
     0
1002
}
1002
{
1000
OTHER
1070
     0
1002
}
1002
{
1000
REACTOR
1002
}
  0
POINT
  5
43E
330
D
100
AcDbEntity
 67
     1
  8
0
 60
     1
100
AcDbPoint
 10
3334.643729710595
 20
-458.4050410869478
 30
0.0
1001
GENIUS_GENOBJ-N-CRS_13
1002
{
1000
OWNER
1000
GEN
1002
}
1001
GENIUS_GENOLIS_13
1002
{
1000
ENT
1005
0
1005
0
1005
0
1005
43B
1002
}
1001
GENIUS_GENOENT_13
1002
{
1000
MYREF
1005
43E
1002
}
1002
{
1000
GRP
1005
0
1002
}
1001
GENIUS_GENODEF_13
1002
{
1000
HIER
1070
    10
1002
}
1002
{
1000
MANEDIT
1070
     1
1002
}
1002
{
1000
NOSEL
1070
     0
1002
}
1002
{
1000
BEHIND
1070
     0
1002
}
1002
{
1000
OTHER
1070
     0
1002
}
1002
{
1000
REACTOR
1002
}
  0
POINT
  5
43F
330
D
100
AcDbEntity
 67
     1
  8
0
 60
     1
100
AcDbPoint
 10
3323.319144487741
 20
-449.5294546083115
 30
0.0
1001
GENIUS_GENOBJ-N-CRS_13
1002
{
1000
OWNER
1000
GEN
1002
}
1001
GENIUS_GENOLIS_13
1002
{
1000
ENT
1005
0
1005
0
1005
0
1005
43A
1002
}
1001
GENIUS_GENOENT_13
1002
{
1000
MYREF
1005
43F
1002
}
1002
{
1000
GRP
1005
0
1002
}
1001
GENIUS_GENODEF_13
1002
{
1000
HIER
1070
    10
1002
}
1002
{
1000
MANEDIT
1070
     1
1002
}
1002
{
1000
NOSEL
1070
     0
1002
}
1002
{
1000
BEHIND
1070
     0
1002
}
1002
{
1000
OTHER
1070
     0
1002
}
1002
{
1000
REACTOR
1002
}
  0
LINE
  5
AE9
330
D
100
AcDbEntity
 67
     1
  8
AM_7
100
AcDbLine
 10
92.632976172584
 20
136.8992561210979
 30
0.0
 11
369.9727458021209
 21
136.8992561210979
 31
0.0
  0
LINE
  5
B05
330
D
100
AcDbEntity
 67
     1
  8
AM_7
100
AcDbLine
 10
92.632976172584
 20
239.6532114350413
 30
0.0
 11
369.972745802121
 21
239.6532114350411
 31
0.0
  0
LINE
  5
B37
330
D
100
AcDbEntity
 67
     1
  8
AM_VIS
100
AcDbLine
 10
333.7050199019456
 20
144.8992561210979
 30
0.0
 11
327.7050199019456
 21
144.8992561210979
 31
0.0
  0
LINE
  5
B38
330
D
100
AcDbEntity
 67
     1
  8
AM_VIS
100
AcDbLine
 10
325.7050199019456
 20
146.8992561210979
 30
0.0
 11
327.7050199019456
 21
144.8992561210979
 31
0.0
  0
LINE
  5
B39
330
D
100
AcDbEntity
 67
     1
  8
AM_VIS
100
AcDbLine
 10
333.7050199019456
 20
144.8992561210979
 30
0.0
 11
335.7058814831142
 21
144.8992561210979
 31
0.0
  0
LINE
  5
B3A
330
D
100
AcDbEntity
 67
     1
  8
AM_VIS
100
AcDbLine
 10
327.7050199019456
 20
128.8992561210979
 30
0.0
 11
333.7050199019456
 21
128.8992561210979
 31
0.0
  0
LINE
  5
B3B
330
D
100
AcDbEntity
 67
     1
  8
AM_VIS
100
AcDbLine
 10
333.7050199019456
 20
128.8992561210979
 30
0.0
 11
335.7058814831142
 21
128.8992561210979
 31
0.0
  0
ARC
  5
B3C
330
D
100
AcDbEntity
 67
     1
  8
AM_VIS
100
AcDbCircle
 10
335.7050199019456
 20
136.8992561210979
 30
0.0
 40
10.0
100
AcDbArc
 50
143.1301023541555
 51
216.8698976458445
  0
LINE
  5
B3D
330
D
100
AcDbEntity
 67
     1
  8
AM_VIS
100
AcDbLine
 10
327.7050199019456
 20
128.8992561210979
 30
0.0
 11
325.7050199019456
 21
126.8992561210979
 31
0.0
  0
SPLINE
  5
B3E
330
D
100
AcDbEntity
 67
     1
  8
AM_VIS
100
AcDbSpline
210
0.0
220
0.0
230
1.0
 70
     8
 71
     3
 72
    28
 73
    24
 74
     0
 42
0.0000000001
 43
0.0000000001
 40
-6.57538614496261
 40
-6.57538614496261
 40
-6.57538614496261
 40
-6.57538614496261
 40
-6.406608927416609
 40
-6.406608927416609
 40
-6.237831709870608
 40
-6.237831709870608
 40
-6.051820960373657
 40
-6.051820960373657
 40
-5.865810210876709
 40
-5.865810210876709
 40
-5.349589823042119
 40
-5.349589823042119
 40
-4.833369435207533
 40
-4.833369435207533
 40
-4.22919825580659
 40
-4.22919825580659
 40
-3.62502707640565
 40
-3.62502707640565
 40
-2.416684717603768
 40
-2.416684717603768
 40
-1.208342358801882
 40
-1.208342358801882
 40
0.0
 40
0.0
 40
0.0
 40
0.0
 10
333.7050199019456
 20
142.8992561210979
 30
0.0
 10
333.761278974461
 20
142.8992561210979
 30
0.0
 10
333.8229065828653
 20
142.8950244260761
 30
0.0
 10
333.9447161578369
 20
142.8767766818765
 30
0.0
 10
334.004900740643
 20
142.8627781012101
 30
0.0
 10
334.1181378921083
 20
142.8286694035401
 30
0.0
 10
334.1817611812893
 20
142.8044773277765
 30
0.0
 10
334.3045586169947
 20
142.7465266166554
 30
0.0
 10
334.3637553960685
 20
142.7128159517598
 30
0.0
 10
334.5600876564542
 20
142.5853573039888
 30
0.0
 10
334.6985328063985
 20
142.4594285025301
 30
0.0
 10
334.9377630028492
 20
142.173602217283
 30
0.0
 10
335.0389927186023
 20
142.0140772059833
 30
0.0
 10
335.2131451871371
 20
141.6837044328145
 30
0.0
 10
335.2894530933486
 20
141.4972426599679
 30
0.0
 10
335.4171197920343
 20
141.1121463284932
 30
0.0
 10
335.4683265482866
 20
140.9134613836436
 30
0.0
 10
335.5934677400873
 20
140.3036773489243
 30
0.0
 10
335.6389211111603
 20
139.8790824720671
 30
0.0
 10
335.6917816786624
 20
139.0179958627889
 30
0.0
 10
335.6993872127614
 20
138.5820480224219
 30
0.0
 10
335.7058814831142
 20
137.7240675906717
 30
0.0
 10
335.7050199019457
 20
137.3020369073651
 30
0.0
 10
335.7050199019457
 20
136.8992561210979
 30
0.0
  0
SPLINE
  5
B3F
330
D
100
AcDbEntity
 67
     1
  8
AM_VIS
100
AcDbSpline
210
0.0
220
0.0
230
1.0
 70
     8
 71
     3
 72
    28
 73
    24
 74
     0
 42
0.0000000001
 43
0.0000000001
 40
0.0
 40
0.0
 40
0.0
 40
0.0
 40
1.208342358801883
 40
1.208342358801883
 40
2.416684717603766
 40
2.416684717603766
 40
3.62502707640565
 40
3.62502707640565
 40
4.229198255806592
 40
4.229198255806592
 40
4.833369435207533
 40
4.833369435207533
 40
5.349589823042122
 40
5.349589823042122
 40
5.865810210876711
 40
5.865810210876711
 40
6.05182096037366
 40
6.05182096037366
 40
6.237831709870611
 40
6.237831709870611
 40
6.406608927416612
 40
6.406608927416612
 40
6.575386144962613
 40
6.575386144962613
 40
6.575386144962613
 40
6.575386144962613
 10
335.7050199019457
 20
136.8992561210979
 30
0.0
 10
335.7050199019457
 20
136.4964753348306
 30
0.0
 10
335.7058814831142
 20
136.074444651524
 30
0.0
 10
335.6993872127614
 20
135.2164642197738
 30
0.0
 10
335.6917816786624
 20
134.7805163794068
 30
0.0
 10
335.6389211111604
 20
133.9194297701286
 30
0.0
 10
335.5934677400873
 20
133.4948348932715
 30
0.0
 10
335.4683265482866
 20
132.8850508585522
 30
0.0
 10
335.4171197920343
 20
132.6863659137025
 30
0.0
 10
335.2894530933486
 20
132.3012695822278
 30
0.0
 10
335.2131451871371
 20
132.1148078093812
 30
0.0
 10
335.0389927186023
 20
131.7844350362124
 30
0.0
 10
334.9377630028492
 20
131.6249100249127
 30
0.0
 10
334.6985328063985
 20
131.3390837396655
 30
0.0
 10
334.5600876564542
 20
131.2131549382069
 30
0.0
 10
334.3637553960685
 20
131.0856962904359
 30
0.0
 10
334.3045586169947
 20
131.0519856255403
 30
0.0
 10
334.1817611812893
 20
130.9940349144192
 30
0.0
 10
334.1181378921083
 20
130.9698428386556
 30
0.0
 10
334.004900740643
 20
130.9357341409856
 30
0.0
 10
333.9447161578369
 20
130.9217355603193
 30
0.0
 10
333.8229065828653
 20
130.9034878161196
 30
0.0
 10
333.761278974461
 20
130.8992561210978
 30
0.0
 10
333.7050199019456
 20
130.8992561210978
 30
0.0
  0
LINE
  5
B40
330
D
100
AcDbEntity
 67
     1
  8
AM_VIS
100
AcDbLine
 10
333.7050199019456
 20
130.8992561210978
 30
0.0
 11
327.7050199019456
 21
130.8992561210978
 31
0.0
  0
LINE
  5
B41
330
D
100
AcDbEntity
 67
     1
  8
AM_VIS
100
AcDbLine
 10
327.7050199019456
 20
130.8992561210978
 30
0.0
 11
327.7050199019456
 21
142.8992561210979
 31
0.0
  0
LINE
  5
B42
330
D
100
AcDbEntity
 67
     1
  8
AM_VIS
100
AcDbLine
 10
327.7050199019456
 20
142.8992561210979
 30
0.0
 11
333.7050199019456
 21
142.8992561210979
 31
0.0
  0
LINE
  5
B43
330
D
100
AcDbEntity
 67
     1
  8
AM_VIS
100
AcDbLine
 10
356.5050199019456
 20
143.8274593513733
 30
0.0
 11
350.9050199019456
 21
143.8274593513733
 31
0.0
  0
LINE
  5
B44
330
D
100
AcDbEntity
 67
     1
  8
AM_VIS
100
AcDbLine
 10
356.5050199019456
 20
150.7556625816489
 30
0.0
 11
350.9050199019456
 21
150.7556625816489
 31
0.0
  0
LINE
  5
B51
330
D
100
AcDbEntity
 67
     1
  8
AM_VIS
100
AcDbLine
 10
356.5050199019456
 20
129.9710528908224
 30
0.0
 11
350.9050199019456
 21
129.9710528908224
 31
0.0
  0
LINE
  5
B52
330
D
100
AcDbEntity
 67
     1
  8
AM_VIS
100
AcDbLine
 10
356.5050199019456
 20
123.0428496605468
 30
0.0
 11
350.9050199019456
 21
123.0428496605468
 31
0.0
  0
SPLINE
  5
B53
330
D
100
AcDbEntity
 67
     1
  8
AM_VIS
100
AcDbSpline
210
0.0
220
0.0
230
1.0
 70
    12
 71
     2
 72
     6
 73
     3
 74
     0
 42
0.0000000001
 43
0.0000000001
 40
0.0
 40
0.0
 40
0.0
 40
14.02123365693548
 40
14.02123365693548
 40
14.02123365693548
 10
356.5050199019456
 20
123.0428496605467
 30
0.0
 41
1.0
 10
358.5050199019457
 20
126.5069512756846
 30
0.0
 41
1.154700538379263
 10
356.5050199019456
 20
129.9710528908225
 30
0.0
 41
1.0
  0
SPLINE
  5
B54
330
D
100
AcDbEntity
 67
     1
  8
AM_VIS
100
AcDbSpline
210
0.0
220
0.0
230
1.0
 70
    12
 71
     2
 72
     6
 73
     3
 74
     0
 42
0.0000000001
 43
0.0000000001
 40
0.0
 40
0.0
 40
0.0
 40
14.02123365693546
 40
14.02123365693546
 40
14.02123365693546
 10
356.5050199019456
 20
129.9710528908221
 30
0.0
 41
1.0
 10
358.5050199019457
 20
136.8992561210979
 30
0.0
 41
1.154700538379263
 10
356.5050199019456
 20
143.8274593513736
 30
0.0
 41
1.0
  0
SPLINE
  5
B55
330
D
100
AcDbEntity
 67
     1
  8
AM_VIS
100
AcDbSpline
210
0.0
220
0.0
230
1.0
 70
    12
 71
     2
 72
     6
 73
     3
 74
     0
 42
0.0000000001
 43
0.0000000001
 40
0.0
 40
0.0
 40
0.0
 40
14.02123365693546
 40
14.02123365693546
 40
14.02123365693546
 10
356.5050199019456
 20
143.8274593513732
 30
0.0
 41
1.0
 10
358.5050199019457
 20
147.2915609665111
 30
0.0
 41
1.154700538379263
 10
356.5050199019456
 20
150.755662581649
 30
0.0
 41
1.0
  0
SPLINE
  5
B56
330
D
100
AcDbEntity
 67
     1
  8
AM_VIS
100
AcDbSpline
210
0.0
220
0.0
230
1.0
 70
    12
 71
     2
 72
     6
 73
     3
 74
     0
 42
0.0000000001
 43
0.0000000001
 40
0.0
 40
0.0
 40
0.0
 40
14.0212336569354
 40
14.0212336569354
 40
14.0212336569354
 10
350.9050199019456
 20
150.755662581649
 30
0.0
 41
1.0
 10
348.9050199019455
 20
147.2915609665111
 30
0.0
 41
1.154700538379263
 10
350.9050199019456
 20
143.8274593513732
 30
0.0
 41
1.0
  0
SPLINE
  5
B57
330
D
100
AcDbEntity
 67
     1
  8
AM_VIS
100
AcDbSpline
210
0.0
220
0.0
230
1.0
 70
    12
 71
     2
 72
     6
 73
     3
 74
     0
 42
0.0000000001
 43
0.0000000001
 40
0.0
 40
0.0
 40
0.0
 40
14.02123365693541
 40
14.02123365693541
 40
14.02123365693541
 10
350.9050199019456
 20
143.8274593513736
 30
0.0
 41
1.0
 10
348.9050199019455
 20
136.8992561210979
 30
0.0
 41
1.154700538379263
 10
350.9050199019456
 20
129.9710528908222
 30
0.0
 41
1.0
  0
SPLINE
  5
B58
330
D
100
AcDbEntity
 67
     1
  8
AM_VIS
100
AcDbSpline
210
0.0
220
0.0
230
1.0
 70
    12
 71
     2
 72
     6
 73
     3
 74
     0
 42
0.0000000001
 43
0.0000000001
 40
0.0
 40
0.0
 40
0.0
 40
14.02123365693543
 40
14.02123365693543
 40
14.02123365693543
 10
350.9050199019456
 20
129.9710528908225
 30
0.0
 41
1.0
 10
348.9050199019455
 20
126.5069512756846
 30
0.0
 41
1.154700538379263
 10
350.9050199019456
 20
123.0428496605467
 30
0.0
 41
1.0
  0
LINE
  5
B59
330
D
100
AcDbEntity
 67
     1
  8
AM_VIS
100
AcDbLine
 10
208.7050199019456
 20
113.6492561210979
 30
0.0
 11
208.7050199019456
 21
111.6492561210979
 31
0.0
  0
LINE
  5
B82
330
D
100
AcDbEntity
 67
     1
  8
AM_VIS
100
AcDbLine
 10
324.7050199019458
 20
126.8992561210979
 30
0.0
 11
325.7050199019456
 21
126.8992561210979
 31
0.0
  0
LINE
  5
B83
330
D
100
AcDbEntity
 67
     1
  8
AM_VIS
100
AcDbLine
 10
324.7050199019458
 20
146.8992561210979
 30
0.0
 11
325.7050199019456
 21
146.8992561210979
 31
0.0
  0
LINE
  5
B84
330
D
100
AcDbEntity
 67
     1
  8
AM_VIS
100
AcDbLine
 10
335.7050199019457
 20
128.8992561210979
 30
0.0
 11
349.7050199019457
 21
128.8992561210979
 31
0.0
  0
LINE
  5
B85
330
D
100
AcDbEntity
 67
     1
  8
AM_VIS
100
AcDbLine
 10
335.7050199019457
 20
144.8992561210979
 30
0.0
 11
349.7050199019457
 21
144.8992561210979
 31
0.0
  0
LINE
  5
B86
330
D
100
AcDbEntity
 67
     1
  8
AM_VIS
100
AcDbLine
 10
367.7050199019457
 20
143.3992561210979
 30
0.0
 11
366.2050199019457
 21
144.8992561210979
 31
0.0
  0
LINE
  5
B87
330
D
100
AcDbEntity
 67
     1
  8
AM_VIS
100
AcDbLine
 10
367.7050199019457
 20
130.3992561210979
 30
0.0
 11
366.2050199019457
 21
128.8992561210979
 31
0.0
  0
LINE
  5
B88
330
D
100
AcDbEntity
 67
     1
  8
AM_VIS
100
AcDbLine
 10
357.7050199019457
 20
128.8992561210979
 30
0.0
 11
366.2050199019457
 21
128.8992561210979
 31
0.0
  0
LINE
  5
B89
330
D
100
AcDbEntity
 67
     1
  8
AM_VIS
100
AcDbLine
 10
357.7050199019457
 20
144.8992561210979
 30
0.0
 11
366.2050199019457
 21
144.8992561210979
 31
0.0
  0
LINE
  5
B8F
330
D
100
AcDbEntity
 67
     1
  8
AM_VIS
100
AcDbLine
 10
357.7050199019457
 20
148.6772016125663
 30
0.0
 11
356.5050199019457
 21
150.7556625816489
 31
0.0
  0
LINE
  5
B90
330
D
100
AcDbEntity
 67
     1
  8
AM_VIS
100
AcDbLine
 10
357.7050199019457
 20
125.1213106296294
 30
0.0
 11
356.5050199019457
 21
123.0428496605468
 31
0.0
  0
LINE
  5
B91
330
D
100
AcDbEntity
 67
     1
  8
AM_VIS
100
AcDbLine
 10
349.7050199019457
 20
125.1213106296294
 30
0.0
 11
350.9050199019457
 21
123.0428496605468
 31
0.0
  0
LINE
  5
B92
330
D
100
AcDbEntity
 67
     1
  8
AM_VIS
100
AcDbLine
 10
349.7050199019457
 20
148.6772016125663
 30
0.0
 11
350.9050199019457
 21
150.7556625816489
 31
0.0
  0
LINE
  5
BB6
330
D
100
AcDbEntity
 67
     1
  8
AM_VIS
100
AcDbLine
 10
335.7050199019457
 20
136.8992561210979
 30
0.0
 11
335.7050199019457
 21
128.8992561210979
 31
0.0
  0
LINE
  5
BB7
330
D
100
AcDbEntity
 67
     1
  8
AM_VIS
100
AcDbLine
 10
335.7050199019457
 20
144.8992561210979
 30
0.0
 11
335.7050199019457
 21
136.8992561210979
 31
0.0
  0
LINE
  5
BB8
330
D
100
AcDbEntity
 67
     1
  8
AM_VIS
100
AcDbLine
 10
367.7050199019457
 20
143.3992561210979
 30
0.0
 11
367.7050199019457
 21
130.3992561210979
 31
0.0
  0
LINE
  5
BB9
330
D
100
AcDbEntity
 67
     1
  8
AM_VIS
100
AcDbLine
 10
366.2050199019457
 20
128.8992561210979
 30
0.0
 11
366.2050199019457
 21
144.8992561210979
 31
0.0
  0
LINE
  5
BC9
330
D
100
AcDbEntity
 67
     1
  8
AM_VIS
100
AcDbLine
 10
357.7050199019457
 20
125.1213106296294
 30
0.0
 11
357.7050199019457
 21
148.6772016125663
 31
0.0
  0
LINE
  5
BCA
330
D
100
AcDbEntity
 67
     1
  8
AM_VIS
100
AcDbLine
 10
349.7050199019457
 20
148.6772016125663
 30
0.0
 11
349.7050199019457
 21
125.1213106296294
 31
0.0
  0
LINE
  5
BCB
330
D
100
AcDbEntity
 67
     1
  8
AM_VIS
100
AcDbLine
 10
208.7050199019456
 20
168.8992561210979
 30
0.0
 11
208.7050199019457
 21
104.8992561210979
 31
0.0
  0
LINE
  5
BF2
330
D
100
AcDbEntity
 67
     1
  8
AM_VIS
100
AcDbLine
 10
298.7050199019454
 20
113.6492561210979
 30
0.0
 11
298.7050199019454
 21
107.1085183951223
 31
0.0
  0
LINE
  5
BFD
330
D
100
AcDbEntity
 67
     1
  8
AM_VIS
100
AcDbLine
 10
208.7050199019456
 20
216.4032114350411
 30
0.0
 11
208.7050199019456
 21
214.4032114350411
 31
0.0
  0
LINE
  5
C00
330
D
100
AcDbEntity
 67
     1
  8
AM_VIS
100
AcDbLine
 10
327.7050199019456
 20
245.6532114350411
 30
0.0
 11
333.7050199019456
 21
245.6532114350411
 31
0.0
  0
LINE
  5
C01
330
D
100
AcDbEntity
 67
     1
  8
AM_VIS
100
AcDbLine
 10
333.7050199019456
 20
233.653211435041
 30
0.0
 11
327.7050199019456
 21
233.653211435041
 31
0.0
  0
LINE
  5
C02
330
D
100
AcDbEntity
 67
     1
  8
AM_VIS
100
AcDbLine
 10
327.7050199019456
 20
233.653211435041
 30
0.0
 11
327.7050199019456
 21
245.6532114350411
 31
0.0
  0
ARC
  5
C03
330
D
100
AcDbEntity
 67
     1
  8
AM_VIS
100
AcDbCircle
 10
335.7050199019456
 20
239.6532114350411
 30
0.0
 40
10.0
100
AcDbArc
 50
143.1301023541555
 51
216.8698976458445
  0
SPLINE
  5
C04
330
D
100
AcDbEntity
 67
     1
  8
AM_VIS
100
AcDbSpline
210
0.0
220
0.0
230
1.0
 70
     8
 71
     3
 72
    28
 73
    24
 74
     0
 42
0.0000000001
 43
0.0000000001
 40
0.0
 40
0.0
 40
0.0
 40
0.0
 40
1.208342358801883
 40
1.208342358801883
 40
2.416684717603766
 40
2.416684717603766
 40
3.625027076405649
 40
3.625027076405649
 40
4.22919825580659
 40
4.22919825580659
 40
4.833369435207532
 40
4.833369435207532
 40
5.349589823042119
 40
5.349589823042119
 40
5.865810210876707
 40
5.865810210876707
 40
6.051820960373658
 40
6.051820960373658
 40
6.237831709870608
 40
6.237831709870608
 40
6.406608927416609
 40
6.406608927416609
 40
6.57538614496261
 40
6.57538614496261
 40
6.57538614496261
 40
6.57538614496261
 10
335.7050199019457
 20
239.6532114350411
 30
0.0
 10
335.7050199019457
 20
239.2504306487738
 30
0.0
 10
335.7058814831142
 20
238.8283999654671
 30
0.0
 10
335.6993872127614
 20
237.970419533717
 30
0.0
 10
335.6917816786624
 20
237.53447169335
 30
0.0
 10
335.6389211111603
 20
236.6733850840718
 30
0.0
 10
335.5934677400873
 20
236.2487902072146
 30
0.0
 10
335.4683265482866
 20
235.6390061724953
 30
0.0
 10
335.4171197920343
 20
235.4403212276457
 30
0.0
 10
335.2894530933486
 20
235.055224896171
 30
0.0
 10
335.2131451871371
 20
234.8687631233244
 30
0.0
 10
335.0389927186023
 20
234.5383903501556
 30
0.0
 10
334.9377630028492
 20
234.3788653388559
 30
0.0
 10
334.6985328063985
 20
234.0930390536088
 30
0.0
 10
334.5600876564542
 20
233.9671102521501
 30
0.0
 10
334.3637553960685
 20
233.839651604379
 30
0.0
 10
334.3045586169947
 20
233.8059409394835
 30
0.0
 10
334.1817611812893
 20
233.7479902283623
 30
0.0
 10
334.1181378921083
 20
233.7237981525988
 30
0.0
 10
334.004900740643
 20
233.6896894549287
 30
0.0
 10
333.9447161578369
 20
233.6756908742624
 30
0.0
 10
333.8229065828653
 20
233.6574431300628
 30
0.0
 10
333.761278974461
 20
233.653211435041
 30
0.0
 10
333.7050199019456
 20
233.653211435041
 30
0.0
  0
SPLINE
  5
C05
330
D
100
AcDbEntity
 67
     1
  8
AM_VIS
100
AcDbSpline
210
0.0
220
0.0
230
1.0
 70
     8
 71
     3
 72
    28
 73
    24
 74
     0
 42
0.0000000001
 43
0.0000000001
 40
-6.575386144962614
 40
-6.575386144962614
 40
-6.575386144962614
 40
-6.575386144962614
 40
-6.406608927416613
 40
-6.406608927416613
 40
-6.237831709870611
 40
-6.237831709870611
 40
-6.05182096037366
 40
-6.05182096037366
 40
-5.865810210876713
 40
-5.865810210876713
 40
-5.349589823042123
 40
-5.349589823042123
 40
-4.833369435207536
 40
-4.833369435207536
 40
-4.229198255806593
 40
-4.229198255806593
 40
-3.62502707640565
 40
-3.62502707640565
 40
-2.416684717603768
 40
-2.416684717603768
 40
-1.208342358801886
 40
-1.208342358801886
 40
0.0
 40
0.0
 40
0.0
 40
0.0
 10
333.7050199019456
 20
245.6532114350411
 30
0.0
 10
333.761278974461
 20
245.6532114350411
 30
0.0
 10
333.8229065828653
 20
245.6489797400192
 30
0.0
 10
333.9447161578369
 20
245.6307319958197
 30
0.0
 10
334.004900740643
 20
245.6167334151533
 30
0.0
 10
334.1181378921083
 20
245.5826247174833
 30
0.0
 10
334.1817611812893
 20
245.5584326417198
 30
0.0
 10
334.3045586169947
 20
245.5004819305986
 30
0.0
 10
334.3637553960685
 20
245.466771265703
 30
0.0
 10
334.5600876564542
 20
245.339312617932
 30
0.0
 10
334.6985328063985
 20
245.2133838164733
 30
0.0
 10
334.9377630028492
 20
244.9275575312261
 30
0.0
 10
335.0389927186023
 20
244.7680325199265
 30
0.0
 10
335.2131451871371
 20
244.4376597467577
 30
0.0
 10
335.2894530933486
 20
244.2511979739111
 30
0.0
 10
335.4171197920343
 20
243.8661016424364
 30
0.0
 10
335.4683265482866
 20
243.6674166975868
 30
0.0
 10
335.5934677400873
 20
243.0576326628674
 30
0.0
 10
335.6389211111603
 20
242.6330377860102
 30
0.0
 10
335.6917816786624
 20
241.7719511767321
 30
0.0
 10
335.6993872127614
 20
241.3360033363651
 30
0.0
 10
335.7058814831142
 20
240.4780229046149
 30
0.0
 10
335.7050199019457
 20
240.0559922213084
 30
0.0
 10
335.7050199019457
 20
239.6532114350411
 30
0.0
  0
LINE
  5
C06
330
D
100
AcDbEntity
 67
     1
  8
AM_VIS
100
AcDbLine
 10
325.7050199019456
 20
249.6532114350411
 30
0.0
 11
327.7050199019456
 21
247.6532114350411
 31
0.0
  0
LINE
  5
C07
330
D
100
AcDbEntity
 67
     1
  8
AM_VIS
100
AcDbLine
 10
327.7050199019456
 20
231.653211435041
 30
0.0
 11
325.7050199019456
 21
229.653211435041
 31
0.0
  0
LINE
  5
C08
330
D
100
AcDbEntity
 67
     1
  8
AM_VIS
100
AcDbLine
 10
333.7050199019456
 20
247.6532114350411
 30
0.0
 11
335.7058814831142
 21
247.6532114350411
 31
0.0
  0
LINE
  5
C09
330
D
100
AcDbEntity
 67
     1
  8
AM_VIS
100
AcDbLine
 10
333.7050199019456
 20
247.6532114350411
 30
0.0
 11
327.7050199019456
 21
247.6532114350411
 31
0.0
  0
LINE
  5
C0A
330
D
100
AcDbEntity
 67
     1
  8
AM_VIS
100
AcDbLine
 10
333.7050199019456
 20
231.653211435041
 30
0.0
 11
335.7058814831142
 21
231.653211435041
 31
0.0
  0
LINE
  5
C0B
330
D
100
AcDbEntity
 67
     1
  8
AM_VIS
100
AcDbLine
 10
327.7050199019456
 20
231.653211435041
 30
0.0
 11
333.7050199019456
 21
231.653211435041
 31
0.0
  0
LINE
  5
C0C
330
D
100
AcDbEntity
 67
     1
  8
AM_VIS
100
AcDbLine
 10
356.5050199019456
 20
227.653211435041
 30
0.0
 11
350.9050199019456
 21
227.653211435041
 31
0.0
  0
LINE
  5
C0D
330
D
100
AcDbEntity
 67
     1
  8
AM_VIS
100
AcDbLine
 10
356.5050199019456
 20
239.6532114350411
 30
0.0
 11
350.9050199019456
 21
239.6532114350411
 31
0.0
  0
LINE
  5
C18
330
D
100
AcDbEntity
 67
     1
  8
AM_VIS
100
AcDbLine
 10
356.5050199019456
 20
251.6532114350411
 30
0.0
 11
350.9050199019456
 21
251.6532114350411
 31
0.0
  0
LINE
  5
C19
330
D
100
AcDbEntity
 67
     1
  8
AM_VIS
100
AcDbLine
 10
356.5050199019456
 20
251.6532114350411
 30
0.0
 11
357.5768166716701
 21
251.6532114350411
 31
0.0
  0
LINE
  5
C1A
330
D
100
AcDbEntity
 67
     1
  8
AM_VIS
100
AcDbLine
 10
356.5050199019456
 20
227.653211435041
 30
0.0
 11
357.5768166716701
 21
227.653211435041
 31
0.0
  0
SPLINE
  5
C1B
330
D
100
AcDbEntity
 67
     1
  8
AM_VIS
100
AcDbSpline
210
0.0
220
0.0
230
1.0
 70
    12
 71
     2
 72
     6
 73
     3
 74
     0
 42
0.0000000001
 43
0.0000000001
 40
0.0
 40
0.0
 40
0.0
 40
14.02123365693546
 40
14.02123365693546
 40
14.02123365693546
 10
356.5050199019456
 20
227.6532114350408
 30
0.0
 41
1.0
 10
358.5050199019457
 20
233.653211435041
 30
0.0
 41
1.154700538379263
 10
356.5050199019456
 20
239.6532114350411
 30
0.0
 41
1.0
  0
SPLINE
  5
C1C
330
D
100
AcDbEntity
 67
     1
  8
AM_VIS
100
AcDbSpline
210
0.0
220
0.0
230
1.0
 70
    12
 71
     2
 72
     6
 73
     3
 74
     0
 42
0.0000000001
 43
0.0000000001
 40
0.0
 40
0.0
 40
0.0
 40
14.02123365693545
 40
14.02123365693545
 40
14.02123365693545
 10
356.5050199019456
 20
239.6532114350409
 30
0.0
 41
1.0
 10
358.5050199019457
 20
245.6532114350411
 30
0.0
 41
1.154700538379263
 10
356.5050199019456
 20
251.6532114350413
 30
0.0
 41
1.0
  0
SPLINE
  5
C1D
330
D
100
AcDbEntity
 67
     1
  8
AM_VIS
100
AcDbSpline
210
0.0
220
0.0
230
1.0
 70
    12
 71
     2
 72
     6
 73
     3
 74
     0
 42
0.0000000001
 43
0.0000000001
 40
0.0
 40
0.0
 40
0.0
 40
14.0212336569354
 40
14.0212336569354
 40
14.0212336569354
 10
350.9050199019456
 20
239.6532114350411
 30
0.0
 41
1.0
 10
348.9050199019455
 20
233.653211435041
 30
0.0
 41
1.154700538379263
 10
350.9050199019456
 20
227.6532114350409
 30
0.0
 41
1.0
  0
LINE
  5
C1E
330
D
100
AcDbEntity
 67
     1
  8
AM_VIS
100
AcDbLine
 10
349.8332231322211
 20
227.653211435041
 30
0.0
 11
350.9050199019456
 21
227.653211435041
 31
0.0
  0
LINE
  5
C1F
330
D
100
AcDbEntity
 67
     1
  8
AM_VIS
100
AcDbLine
 10
349.8332231322211
 20
251.6532114350411
 30
0.0
 11
350.9050199019456
 21
251.6532114350411
 31
0.0
  0
SPLINE
  5
C20
330
D
100
AcDbEntity
 67
     1
  8
AM_VIS
100
AcDbSpline
210
0.0
220
0.0
230
1.0
 70
    12
 71
     2
 72
     6
 73
     3
 74
     0
 42
0.0000000001
 43
0.0000000001
 40
0.0
 40
0.0
 40
0.0
 40
14.02123365693541
 40
14.02123365693541
 40
14.02123365693541
 10
350.9050199019456
 20
251.6532114350412
 30
0.0
 41
1.0
 10
348.9050199019455
 20
245.6532114350411
 30
0.0
 41
1.154700538379263
 10
350.9050199019456
 20
239.653211435041
 30
0.0
 41
1.0
  0
LINE
  5
C56
330
D
100
AcDbEntity
 67
     1
  8
AM_VIS
100
AcDbLine
 10
324.7050199019458
 20
229.6532114350411
 30
0.0
 11
325.7050199019456
 21
229.653211435041
 31
0.0
  0
LINE
  5
C57
330
D
100
AcDbEntity
 67
     1
  8
AM_VIS
100
AcDbLine
 10
324.7050199019458
 20
249.6532114350411
 30
0.0
 11
325.7050199019456
 21
249.6532114350411
 31
0.0
  0
LINE
  5
C58
330
D
100
AcDbEntity
 67
     1
  8
AM_VIS
100
AcDbLine
 10
335.7050199019457
 20
231.653211435041
 30
0.0
 11
349.7050199019457
 21
231.653211435041
 31
0.0
  0
LINE
  5
C59
330
D
100
AcDbEntity
 67
     1
  8
AM_VIS
100
AcDbLine
 10
335.7050199019457
 20
247.6532114350411
 30
0.0
 11
349.7050199019457
 21
247.6532114350411
 31
0.0
  0
LINE
  5
C5A
330
D
100
AcDbEntity
 67
     1
  8
AM_VIS
100
AcDbLine
 10
367.7050199019457
 20
246.153211435041
 30
0.0
 11
366.2050199019457
 21
247.6532114350411
 31
0.0
  0
LINE
  5
C5B
330
D
100
AcDbEntity
 67
     1
  8
AM_VIS
100
AcDbLine
 10
367.7050199019457
 20
233.1532114350411
 30
0.0
 11
366.2050199019457
 21
231.653211435041
 31
0.0
  0
LINE
  5
C5C
330
D
100
AcDbEntity
 67
     1
  8
AM_VIS
100
AcDbLine
 10
357.7050199019457
 20
231.653211435041
 30
0.0
 11
366.2050199019457
 21
231.653211435041
 31
0.0
  0
LINE
  5
C5D
330
D
100
AcDbEntity
 67
     1
  8
AM_VIS
100
AcDbLine
 10
357.7050199019457
 20
247.6532114350411
 30
0.0
 11
366.2050199019457
 21
247.6532114350411
 31
0.0
  0
LINE
  5
C63
330
D
100
AcDbEntity
 67
     1
  8
AM_VIS
100
AcDbLine
 10
357.7050199019457
 20
251.4311569265095
 30
0.0
 11
357.5768166716702
 21
251.6532114350411
 31
0.0
  0
LINE
  5
C64
330
D
100
AcDbEntity
 67
     1
  8
AM_VIS
100
AcDbLine
 10
357.7050199019457
 20
227.8752659435726
 30
0.0
 11
357.5768166716702
 21
227.653211435041
 31
0.0
  0
LINE
  5
C65
330
D
100
AcDbEntity
 67
     1
  8
AM_VIS
100
AcDbLine
 10
349.7050199019457
 20
227.8752659435726
 30
0.0
 11
349.8332231322211
 21
227.653211435041
 31
0.0
  0
LINE
  5
C66
330
D
100
AcDbEntity
 67
     1
  8
AM_VIS
100
AcDbLine
 10
349.7050199019457
 20
251.4311569265095
 30
0.0
 11
349.8332231322211
 21
251.6532114350411
 31
0.0
  0
LINE
  5
C6B
330
D
100
AcDbEntity
 67
     1
  8
AM_VIS
100
AcDbLine
 10
335.7050199019457
 20
239.6532114350411
 30
0.0
 11
335.7050199019457
 21
231.653211435041
 31
0.0
  0
LINE
  5
C6C
330
D
100
AcDbEntity
 67
     1
  8
AM_VIS
100
AcDbLine
 10
335.7050199019457
 20
247.6532114350411
 30
0.0
 11
335.7050199019457
 21
239.6532114350411
 31
0.0
  0
LINE
  5
C6D
330
D
100
AcDbEntity
 67
     1
  8
AM_VIS
100
AcDbLine
 10
367.7050199019457
 20
246.153211435041
 30
0.0
 11
367.7050199019457
 21
233.1532114350411
 31
0.0
  0
LINE
  5
C6E
330
D
100
AcDbEntity
 67
     1
  8
AM_VIS
100
AcDbLine
 10
366.2050199019457
 20
231.653211435041
 30
0.0
 11
366.2050199019457
 21
247.6532114350411
 31
0.0
  0
LINE
  5
C76
330
D
100
AcDbEntity
 67
     1
  8
AM_VIS
100
AcDbLine
 10
357.7050199019457
 20
227.8752659435726
 30
0.0
 11
357.7050199019457
 21
251.4311569265095
 31
0.0
  0
LINE
  5
C77
330
D
100
AcDbEntity
 67
     1
  8
AM_VIS
100
AcDbLine
 10
349.7050199019457
 20
251.4311569265095
 30
0.0
 11
349.7050199019457
 21
227.8752659435726
 31
0.0
  0
DIMENSION
  5
CEB
330
D
100
AcDbEntity
 67
     1
  8
AM_5
100
AcDbDimension
  2
*D3
 10
391.5746655600203
 20
116.1492561210978
 30
0.0
 11
388.8246655600203
 21
136.1492561210979
 31
0.0
 70
    32
  1
%%c<>
 71
     5
 42
39.99999999999999
  3
AM_ISO$0
100
AcDbAlignedDimension
 13
308.2050199019457
 23
156.1492561210979
 33
0.0
 14
308.2050199019457
 24
116.1492561210979
 34
0.0
 50
90.0
100
AcDbRotatedDimension
  0
DIMENSION
  5
CEC
330
D
100
AcDbEntity
 67
     1
  8
AM_5
100
AcDbDimension
  2
*D4
 10
308.7050199019456
 20
90.49870260660339
 30
0.0
 11
303.7050199019457
 21
93.24870260660338
 31
0.0
 70
    32
 71
     5
 42
9.999999999999943
  3
AM_ISO$0
100
AcDbAlignedDimension
 13
298.7050199019457
 23
104.8992561210979
 33
0.0
 14
308.7050199019456
 24
116.6492561210979
 34
0.0
100
AcDbRotatedDimension
  0
DIMENSION
  5
CED
330
D
100
AcDbEntity
 67
     1
  8
AM_5
100
AcDbDimension
  2
*D5
 10
298.7050199019454
 20
82.25155341804299
 30
0.0
 11
317.2054506925298
 21
85.00155341804299
 31
0.0
 70
    32
 71
     5
 42
37.00086158116881
  3
AM_ISO$0
100
AcDbAlignedDimension
 13
335.7058814831142
 23
128.8992561210979
 33
0.0
 14
298.7050199019454
 24
104.3992561210979
 34
0.0
100
AcDbRotatedDimension
  0
DIMENSION
  5
CEE
330
D
100
AcDbEntity
 67
     1
  8
AM_5
100
AcDbDimension
  2
*D6
 10
367.7050199019457
 20
72.10181251732468
 30
0.0
 11
351.7050199019457
 21
74.85215700551364
 31
0.0
 70
    32
 71
     5
 42
32.0
  3
AM_ISO$0
100
AcDbAlignedDimension
 13
335.7050199019457
 23
129.8992561210979
 33
0.0
 14
367.7050199019457
 24
131.3992561210979
 34
0.0
100
AcDbRotatedDimension
  0
DIMENSION
  5
CEF
330
D
100
AcDbEntity
 67
     1
  8
AM_5
100
AcDbDimension
  2
*D7
 10
298.7050199019454
 20
82.25155341804299
 30
0.0
 11
253.7050199019455
 21
85.00155341804299
 31
0.0
 70
    32
 71
     5
 42
89.99999999999976
  3
AM_ISO$0
100
AcDbAlignedDimension
 13
208.7050199019456
 23
104.3992561210979
 33
0.0
 14
298.7050199019454
 24
104.3992561210979
 34
0.0
100
AcDbRotatedDimension
  0
DIMENSION
  5
CF0
330
D
100
AcDbEntity
 67
     1
  8
AM_5
100
AcDbDimension
  2
*D8
 10
102.7050199019456
 20
72.10181251732468
 30
0.0
 11
219.2050199019456
 21
74.85215700551364
 31
0.0
 70
    32
  1
<>+Store
 71
     5
 42
233.0
  3
AM_ISO$0
100
AcDbAlignedDimension
 13
335.7050199019457
 23
128.8992561210979
 33
0.0
 14
102.7050199019456
 24
104.3992561210979
 34
0.0
100
AcDbRotatedDimension
  0
DIMENSION
  5
CF1
330
D
100
AcDbEntity
 67
     1
  8
AM_5
100
AcDbDimension
  2
*D9
 10
102.7050199019456
 20
82.25155341804281
 30
0.0
 11
100.7050199019456
 21
82.25155341804281
 31
0.0
 70
   160
 71
     5
 42
4.0
  3
AM_ISO$0
100
AcDbAlignedDimension
 13
98.70501990194563
 23
117.8992561210979
 33
0.0
 14
102.7050199019456
 24
116.8992561210979
 34
0.0
100
AcDbRotatedDimension
  0
DIMENSION
  5
CF2
330
D
100
AcDbEntity
 67
     1
  8
AM_5
100
AcDbDimension
  2
*D10
 10
208.7050199019456
 20
82.25155341804281
 30
0.0
 11
155.7050199019457
 21
85.00155341804282
 31
0.0
 70
    32
  1
<>+Store
 71
     5
 42
106.0
  3
AM_ISO$0
100
AcDbAlignedDimension
 13
102.7050199019456
 23
104.3992561210979
 33
0.0
 14
208.7050199019456
 24
104.3992561210979
 34
0.0
100
AcDbRotatedDimension
  0
DIMENSION
  5
CF3
330
D
100
AcDbEntity
 67
     1
  8
AM_5
100
AcDbDimension
  2
*D11
 10
77.05744733521671
 20
116.8992561210979
 30
0.0
 11
77.05744733521669
 21
136.8992561210979
 31
0.0
 70
   160
  1
%%c<>
 71
     5
 42
40.0
  3
AM_ISO$0
100
AcDbAlignedDimension
 13
99.70501990194563
 23
156.8992561210979
 33
0.0
 14
99.70501990194563
 24
116.8992561210979
 34
0.0
 50
90.0
100
AcDbRotatedDimension
  0
TEXT
  5
CF6
330
D
100
AcDbEntity
 67
     1
  8
AM_5
100
AcDbText
 10
367.5149137881279
 20
164.6094143231237
 30
0.0
 40
3.5
  1
M16*1.5
  7
CHINESET
100
AcDbText
  0
LEADER
  5
CF7
330
D
100
AcDbEntity
 67
     1
  8
AM_5
100
AcDbLeader
  3
AM_ISO$7
 76
     3
 10
361.9550199019457
 20
144.8992561210979
 30
0.0
 10
367.6900568641986
 20
162.8695240355157
 30
0.0
 10
387.3118402115376
 20
162.8695240355157
 30
0.0
1001
ACAD
1000
DSTYLE
1002
{
1070
   140
1040
3.5
1070
   147
1040
1.0
1002
}
  0
TEXT
  5
CF9
330
D
100
AcDbEntity
 67
     1
  8
0
 62
     5
100
AcDbText
 10
485.3631779233169
 20
185.5541034134779
 30
0.0
 40
3.0
  1

  7
CHINESET
100
AcDbText
  0
LINE
  5
CFA
330
D
100
AcDbEntity
 67
     1
  8
SL
  6
ACISOTGB
100
AcDbLine
 10
158.4289253204893
 20
206.7379056613309
 30
0.0
 11
158.4289253204893
 21
286.745176052339
 31
0.0
  0
INSERT
  5
CFB
330
D
100
AcDbEntity
 67
     1
  8
0
100
AcDbBlockReference
  2
A$C453B67D5
 10
157.6458043796173
 20
289.2197225481212
 30
0.0
  0
INSERT
  5
CFC
330
D
100
AcDbEntity
 67
     1
  8
0
100
AcDbBlockReference
  2
A$C17481420
 10
158.4289257296616
 20
285.1168032805329
 30
0.0
  0
TEXT
  5
D00
330
D
100
AcDbEntity
 67
     1
  8
0
 62
     5
100
AcDbText
 10
76.99843758613133
 20
188.0083980052471
 30
0.0
 40
3.0
  1

  7
CHINESET
100
AcDbText
  0
TEXT
  5
D03
330
D
100
AcDbEntity
 67
     1
  8
0
 62
     5
100
AcDbText
 10
329.1481120575193
 20
97.6902089019917
 30
0.0
 40
3.0
  1

  7
CHINESET
100
AcDbText
  0
TEXT
  5
D05
330
D
100
AcDbEntity
 67
     1
  8
0
 62
     5
100
AcDbText
 10
207.5843937342206
 20
94.6210888161371
 30
0.0
 40
3.0
  1

  7
CHINESET
100
AcDbText
  0
DIMENSION
  5
D06
330
D
100
AcDbEntity
 67
     1
  8
AM_5
100
AcDbDimension
  2
*D12
 10
379.7313926434572
 20
126.8992561210978
 30
0.0
 11
376.9810481552682
 21
136.8992561210979
 31
0.0
 70
    32
  1
%%c<>
 71
     5
 42
20.00000000000001
  3
AM_ISO$0
100
AcDbAlignedDimension
 13
325.7050199019456
 23
146.8992561210979
 33
0.0
 14
325.7050199019456
 24
126.8992561210979
 34
0.0
 50
90.0
100
AcDbRotatedDimension
  0
DIMENSION
  5
1172
330
D
100
AcDbEntity
 67
     1
  8
AM_5
100
AcDbDimension
  2
*D13
 10
117.7050199019455
 20
132.8992561210978
 30
0.0
 11
136.8434151826794
 21
95.80184822027016
 31
0.0
 70
   164
  1
2-G1/4
 71
     5
 42
6.749999999999985
  3
AM_ISO$4
100
AcDbRadialDimension
 15
119.6669253170623
 25
126.4406628422068
 35
0.0
 40
0.0
1001
ACAD
1000
DSTYLE
1002
{
1070
    40
1040
1.0
1070
   144
1040
1.0
1002
}
  0
LINE
  5
1464
330
D
100
AcDbEntity
 67
     1
  8
AM_VIS
100
AcDbLine
 10
232.7050199019457
 20
168.0240051160698
 30
0.0
 11
232.7050199019457
 21
105.7745071261261
 31
0.0
  0
LINE
  5
1465
330
D
100
AcDbEntity
 67
     1
  8
AM_VIS
100
AcDbLine
 10
298.2050199019457
 20
104.3992561210979
 30
0.0
 11
232.7050199019457
 21
104.3992561210979
 31
0.0
  0
LINE
  5
1466
330
D
100
AcDbEntity
 67
     1
  8
AM_VIS
100
AcDbLine
 10
232.7050199019457
 20
105.7745071261261
 30
0.0
 11
298.2050199019457
 21
105.7745071261261
 31
0.0
  0
LINE
  5
1467
330
D
100
AcDbEntity
 67
     1
  8
AM_VIS
100
AcDbLine
 10
298.2050199019458
 20
104.399256121098
 30
0.0
 11
298.7050199019458
 21
104.899256121098
 31
0.0
  0
ARC
  5
1468
330
D
100
AcDbEntity
 67
     1
  8
AM_VIS
100
AcDbCircle
 10
330.7050199019457
 20
136.8992561210979
 30
0.0
 40
45.00000000000002
100
AcDbArc
 50
223.7617426926796
 51
224.6746095643833
  0
LINE
  5
1469
330
D
100
AcDbEntity
 67
     1
  8
AM_VIS
100
AcDbLine
 10
298.2050199019457
 20
168.0240051160697
 30
0.0
 11
298.2050199019457
 21
105.7745071261261
 31
0.0
  0
ARC
  5
146A
330
D
100
AcDbEntity
 67
     1
  8
AM_VIS
100
AcDbCircle
 10
330.7050199019457
 20
136.8992561210979
 30
0.0
 40
45.00000000000002
100
AcDbArc
 50
135.3253904356167
 51
136.2382573073204
  0
LINE
  5
146B
330
D
100
AcDbEntity
 67
     1
  8
AM_VIS
100
AcDbLine
 10
298.2050199019457
 20
168.0240051160697
 30
0.0
 11
232.7050199019457
 21
168.0240051160697
 31
0.0
  0
LINE
  5
146C
330
D
100
AcDbEntity
 67
     1
  8
AM_VIS
100
AcDbLine
 10
232.7050199019457
 20
169.399256121098
 30
0.0
 11
298.2050199019457
 21
169.399256121098
 31
0.0
  0
LINE
  5
146D
330
D
100
AcDbEntity
 67
     1
  8
AM_VIS
100
AcDbLine
 10
298.7050199019457
 20
168.899256121098
 30
0.0
 11
298.2050199019457
 21
169.399256121098
 31
0.0
  0
LINE
  5
146E
330
D
100
AcDbEntity
 67
     1
  8
AM_VIS
100
AcDbLine
 10
209.2050199019456
 20
169.399256121098
 30
0.0
 11
216.7050199019457
 21
169.399256121098
 31
0.0
  0
LINE
  5
146F
330
D
100
AcDbEntity
 67
     1
  8
AM_VIS
100
AcDbLine
 10
209.2050199019456
 20
169.399256121098
 30
0.0
 11
208.7050199019456
 21
168.8992561210979
 31
0.0
  0
LINE
  5
1470
330
D
100
AcDbEntity
 67
     1
  8
AM_VIS
100
AcDbLine
 10
216.7050199019457
 20
104.3992561210979
 30
0.0
 11
209.2050199019456
 21
104.3992561210979
 31
0.0
  0
LINE
  5
1471
330
D
100
AcDbEntity
 67
     1
  8
AM_VIS
100
AcDbLine
 10
208.7050199019457
 20
104.8992561210979
 30
0.0
 11
209.2050199019456
 21
104.399256121098
 31
0.0
  0
LINE
  5
1472
330
D
100
AcDbEntity
 67
     1
  8
AM_VIS
100
AcDbLine
 10
216.7050199019457
 20
168.0240051160698
 30
0.0
 11
209.2050199019456
 21
168.0240051160698
 31
0.0
  0
LINE
  5
1473
330
D
100
AcDbEntity
 67
     1
  8
AM_VIS
100
AcDbLine
 10
216.7050199019457
 20
105.7745071261261
 30
0.0
 11
216.7050199019457
 21
168.0240051160698
 31
0.0
  0
LINE
  5
1474
330
D
100
AcDbEntity
 67
     1
  8
AM_VIS
100
AcDbLine
 10
209.2050199019456
 20
105.7745071261261
 30
0.0
 11
216.7050199019457
 21
105.7745071261261
 31
0.0
  0
LINE
  5
1475
330
D
100
AcDbEntity
 67
     1
  8
AM_VIS
100
AcDbLine
 10
209.2050199019456
 20
105.7745071261261
 30
0.0
 11
209.2050199019456
 21
168.0240051160697
 31
0.0
  0
ARC
  5
1476
330
D
100
AcDbEntity
 67
     1
  8
AM_VIS
100
AcDbCircle
 10
176.7050199019451
 20
136.899256121098
 30
0.0
 40
45.00000000000081
100
AcDbArc
 50
315.3253904356167
 51
316.2382573073204
  0
LINE
  5
1477
330
D
100
AcDbEntity
 67
     1
  8
AM_VIS
100
AcDbLine
 10
208.7050199019456
 20
168.5378401602106
 30
0.0
 11
208.7050199019456
 21
105.2606720819851
 31
0.0
  0
ARC
  5
1478
330
D
100
AcDbEntity
 67
     1
  8
AM_VIS
100
AcDbCircle
 10
176.7050199019451
 20
136.899256121098
 30
0.0
 40
45.00000000000081
100
AcDbArc
 50
43.76174269267958
 51
44.6746095643833
  0
LINE
  5
1479
330
D
100
AcDbEntity
 67
     1
  8
AM_VIS
100
AcDbLine
 10
298.7050199019457
 20
105.2606720819851
 30
0.0
 11
298.7050199019457
 21
168.5378401602106
 31
0.0
  0
LINE
  5
147A
330
D
100
AcDbEntity
 67
     1
  8
AM_VIS
100
AcDbLine
 10
226.7050199019457
 20
112.6492561210979
 30
0.0
 11
232.3050199019457
 21
112.649256121098
 31
0.0
  0
LINE
  5
147B
330
D
100
AcDbEntity
 67
     1
  8
AM_VIS
100
AcDbLine
 10
226.7050199019457
 20
159.649256121098
 30
0.0
 11
232.3050199019457
 21
159.649256121098
 31
0.0
  0
ARC
  5
147C
330
D
100
AcDbEntity
 67
     1
  8
AM_VIS
100
AcDbCircle
 10
232.3050199016037
 20
112.2492561207559
 30
0.0
 40
0.4000000003420503
100
AcDbArc
 50
0.0000000489933661
 51
89.99999995100337
  0
ARC
  5
147D
330
D
100
AcDbEntity
 67
     1
  8
AM_VIS
100
AcDbCircle
 10
232.3050199016037
 20
160.0492561214399
 30
0.0
 40
0.4000000003420077
100
AcDbArc
 50
270.0
 51
359.9999999020198
  0
LINE
  5
147E
330
D
100
AcDbEntity
 67
     1
  8
AM_VIS
100
AcDbLine
 10
298.7050199019457
 20
116.1492561210979
 30
0.0
 11
308.2050199019457
 21
116.1492561210979
 31
0.0
  0
LINE
  5
147F
330
D
100
AcDbEntity
 67
     1
  8
AM_VIS
100
AcDbLine
 10
298.7050199019457
 20
156.1492561210979
 30
0.0
 11
308.2050199019457
 21
156.1492561210979
 31
0.0
  0
LINE
  5
1480
330
D
100
AcDbEntity
 67
     1
  8
AM_VIS
100
AcDbLine
 10
308.7050199019456
 20
155.6492561210979
 30
0.0
 11
308.2050199019457
 21
156.1492561210979
 31
0.0
  0
LINE
  5
1481
330
D
100
AcDbEntity
 67
     1
  8
AM_VIS
100
AcDbLine
 10
308.7050199019456
 20
116.6492561210979
 30
0.0
 11
308.2050199019457
 21
116.1492561210979
 31
0.0
  0
CIRCLE
  5
1482
330
D
100
AcDbEntity
 67
     1
  8
AM_VIS
100
AcDbCircle
 10
240.7050199019457
 20
116.1492561210979
 30
0.0
 40
4.283225000000001
  0
CIRCLE
  5
1483
330
D
100
AcDbEntity
 67
     1
  8
AM_VIS
100
AcDbCircle
 10
266.7050199019457
 20
136.1492561210979
 30
0.0
 40
24.00000000000002
  0
CIRCLE
  5
1484
330
D
100
AcDbEntity
 67
     1
  8
AM_VIS
100
AcDbCircle
 10
240.7050199019457
 20
116.1492561210979
 30
0.0
 40
5.083225000000002
  0
LINE
  5
1485
330
D
100
AcDbEntity
 67
     1
  8
AM_VIS
100
AcDbLine
 10
232.7050199019457
 20
105.7745071261261
 30
0.0
 11
232.7050199019457
 21
104.3992561210979
 31
0.0
  0
LINE
  5
1486
330
D
100
AcDbEntity
 67
     1
  8
AM_VIS
100
AcDbLine
 10
232.7050199019457
 20
169.3992561210979
 30
0.0
 11
232.7050199019457
 21
168.0240051160697
 31
0.0
  0
LINE
  5
1487
330
D
100
AcDbEntity
 67
     1
  8
AM_VIS
100
AcDbLine
 10
208.7050199019456
 20
168.8992561210979
 30
0.0
 11
208.7050199019456
 21
168.5378401602106
 31
0.0
  0
LINE
  5
1488
330
D
100
AcDbEntity
 67
     1
  8
AM_VIS
100
AcDbLine
 10
216.7050199019457
 20
168.0240051160698
 30
0.0
 11
216.7050199019457
 21
169.399256121098
 31
0.0
  0
LINE
  5
1489
330
D
100
AcDbEntity
 67
     1
  8
AM_VIS
100
AcDbLine
 10
216.7050199019457
 20
104.3992561210979
 30
0.0
 11
216.7050199019457
 21
105.7745071261261
 31
0.0
  0
LINE
  5
148A
330
D
100
AcDbEntity
 67
     1
  8
AM_VIS
100
AcDbLine
 10
208.7050199019456
 20
105.2606720819851
 30
0.0
 11
208.7050199019456
 21
104.8992561210979
 31
0.0
  0
LINE
  5
148B
330
D
100
AcDbEntity
 67
     1
  8
AM_VIS
100
AcDbLine
 10
298.7050199019457
 20
104.8992561210979
 30
0.0
 11
298.7050199019457
 21
105.2606720819851
 31
0.0
  0
LINE
  5
148C
330
D
100
AcDbEntity
 67
     1
  8
AM_VIS
100
AcDbLine
 10
298.7050199019457
 20
168.5378401602106
 30
0.0
 11
298.7050199019457
 21
168.899256121098
 31
0.0
  0
LINE
  5
148D
330
D
100
AcDbEntity
 67
     1
  8
AM_VIS
100
AcDbLine
 10
308.7050199019456
 20
155.6492561210979
 30
0.0
 11
308.7050199019456
 21
116.6492561210979
 31
0.0
  0
LINE
  5
148E
330
D
100
AcDbEntity
 67
     1
  8
AM_VIS
100
AcDbLine
 10
308.2050199019457
 20
116.1492561210979
 30
0.0
 11
308.2050199019457
 21
156.1492561210979
 31
0.0
  0
CIRCLE
  5
148F
330
D
100
AcDbEntity
 67
     1
  8
AM_VIS
100
AcDbCircle
 10
246.7050199019457
 20
136.1492561210979
 30
0.0
 40
3.200000000000002
  0
CIRCLE
  5
1490
330
D
100
AcDbEntity
 67
     1
  8
AM_VIS
100
AcDbCircle
 10
266.7050199019457
 20
136.1492561210979
 30
0.0
 40
24.00000000000002
  0
CIRCLE
  5
1491
330
D
100
AcDbEntity
 67
     1
  8
AM_VIS
100
AcDbCircle
 10
286.7050199019457
 20
136.149256121098
 30
0.0
 40
3.200000000000002
  0
LINE
  5
1492
330
D
100
AcDbEntity
 67
     1
  8
AM_VIS
100
AcDbLine
 10
286.1270709422615
 20
137.149256121098
 30
0.0
 11
285.5500199019457
 21
136.149256121098
 31
0.0
  0
LINE
  5
1493
330
D
100
AcDbEntity
 67
     1
  8
AM_VIS
100
AcDbLine
 10
285.5500199019457
 20
136.149256121098
 30
0.0
 11
286.1270709422615
 21
135.149256121098
 31
0.0
  0
LINE
  5
1494
330
D
100
AcDbEntity
 67
     1
  8
AM_VIS
100
AcDbLine
 10
286.1270709422615
 20
135.149256121098
 30
0.0
 11
287.2829688616299
 21
135.149256121098
 31
0.0
  0
LINE
  5
1495
330
D
100
AcDbEntity
 67
     1
  8
AM_VIS
100
AcDbLine
 10
287.2829688616299
 20
135.149256121098
 30
0.0
 11
287.8600199019457
 21
136.149256121098
 31
0.0
  0
LINE
  5
1496
330
D
100
AcDbEntity
 67
     1
  8
AM_VIS
100
AcDbLine
 10
287.8600199019457
 20
136.149256121098
 30
0.0
 11
287.2829688616299
 21
137.149256121098
 31
0.0
  0
LINE
  5
1497
330
D
100
AcDbEntity
 67
     1
  8
AM_VIS
100
AcDbLine
 10
287.2829688616299
 20
137.149256121098
 30
0.0
 11
286.1270709422615
 21
137.149256121098
 31
0.0
  0
CIRCLE
  5
1498
330
D
100
AcDbEntity
 67
     1
  8
AM_VIS
100
AcDbCircle
 10
286.7050199019457
 20
136.149256121098
 30
0.0
 40
2.849999999999995
  0
LINE
  5
1499
330
D
100
AcDbEntity
 67
     1
  8
AM_VIS
100
AcDbLine
 10
246.1270709422615
 20
137.1492561210979
 30
0.0
 11
245.5500199019456
 21
136.1492561210979
 31
0.0
  0
LINE
  5
149A
330
D
100
AcDbEntity
 67
     1
  8
AM_VIS
100
AcDbLine
 10
245.5500199019456
 20
136.1492561210979
 30
0.0
 11
246.1270709422615
 21
135.1492561210979
 31
0.0
  0
LINE
  5
149B
330
D
100
AcDbEntity
 67
     1
  8
AM_VIS
100
AcDbLine
 10
246.1270709422615
 20
135.1492561210979
 30
0.0
 11
247.2829688616299
 21
135.1492561210979
 31
0.0
  0
LINE
  5
149C
330
D
100
AcDbEntity
 67
     1
  8
AM_VIS
100
AcDbLine
 10
247.2829688616299
 20
135.1492561210979
 30
0.0
 11
247.8600199019457
 21
136.1492561210979
 31
0.0
  0
LINE
  5
149D
330
D
100
AcDbEntity
 67
     1
  8
AM_VIS
100
AcDbLine
 10
247.8600199019457
 20
136.1492561210979
 30
0.0
 11
247.2829688616299
 21
137.1492561210979
 31
0.0
  0
LINE
  5
149E
330
D
100
AcDbEntity
 67
     1
  8
AM_VIS
100
AcDbLine
 10
247.2829688616299
 20
137.1492561210979
 30
0.0
 11
246.1270709422615
 21
137.1492561210979
 31
0.0
  0
CIRCLE
  5
149F
330
D
100
AcDbEntity
 67
     1
  8
AM_VIS
100
AcDbCircle
 10
246.7050199019457
 20
136.1492561210979
 30
0.0
 40
2.849999999999995
  0
LINE
  5
14A0
330
D
100
AcDbEntity
 67
     1
  8
AM_VIS
100
AcDbLine
 10
324.7050199019457
 20
147.8992561210977
 30
0.0
 11
323.7050199019457
 21
148.6738577679446
 31
0.0
  0
LINE
  5
14A1
330
D
100
AcDbEntity
 67
     1
  8
AM_VIS
100
AcDbLine
 10
324.7050199019457
 20
125.899256121098
 30
0.0
 11
323.7050199019457
 21
125.1246544742513
 31
0.0
  0
LINE
  5
14A2
330
D
100
AcDbEntity
 67
     1
  8
AM_VIS
100
AcDbLine
 10
324.7050199019457
 20
125.899256121098
 30
0.0
 11
324.7050199019457
 21
147.8992561210977
 31
0.0
  0
LINE
  5
14A3
330
D
100
AcDbEntity
 67
     1
  8
AM_VIS
100
AcDbLine
 10
263.168485753353
 20
256.9913317502314
 30
0.0
 11
263.3475584001672
 21
257.0173211830488
 31
0.0
  0
LINE
  5
14A4
330
D
100
AcDbEntity
 67
     1
  8
AM_VIS
100
AcDbLine
 10
254.0017093270092
 20
253.6157103062125
 30
0.0
 11
254.1555926178425
 21
253.7109069253964
 31
0.0
  0
LINE
  5
14A5
330
D
100
AcDbEntity
 67
     1
  8
AM_VIS
100
AcDbLine
 10
232.7050199019457
 20
270.7779604300128
 30
0.0
 11
232.7050199019457
 21
208.5284624400691
 31
0.0
  0
LINE
  5
14A6
330
D
100
AcDbEntity
 67
     1
  8
AM_VIS
100
AcDbLine
 10
298.2050199019457
 20
270.7779604300128
 30
0.0
 11
232.7050199019457
 21
270.7779604300128
 31
0.0
  0
LINE
  5
14A7
330
D
100
AcDbEntity
 67
     1
  8
AM_VIS
100
AcDbLine
 10
232.7050199019457
 20
272.153211435041
 30
0.0
 11
298.2050199019457
 21
272.153211435041
 31
0.0
  0
LINE
  5
14A8
330
D
100
AcDbEntity
 67
     1
  8
AM_VIS
100
AcDbLine
 10
298.2050199019457
 20
207.153211435041
 30
0.0
 11
298.7050199019457
 21
207.6532114350409
 31
0.0
  0
LINE
  5
14A9
330
D
100
AcDbEntity
 67
     1
  8
AM_VIS
100
AcDbLine
 10
298.2050199019457
 20
207.153211435041
 30
0.0
 11
232.7050199019457
 21
207.153211435041
 31
0.0
  0
LINE
  5
14AA
330
D
100
AcDbEntity
 67
     1
  8
AM_VIS
100
AcDbLine
 10
232.7050199019457
 20
208.5284624400691
 30
0.0
 11
298.2050199019457
 21
208.5284624400691
 31
0.0
  0
ARC
  5
14AB
330
D
100
AcDbEntity
 67
     1
  8
AM_VIS
100
AcDbCircle
 10
330.7050199019457
 20
239.6532114350411
 30
0.0
 40
45.00000000000002
100
AcDbArc
 50
223.7617426926796
 51
224.6746095643833
  0
LINE
  5
14AC
330
D
100
AcDbEntity
 67
     1
  8
AM_VIS
100
AcDbLine
 10
298.2050199019457
 20
270.7779604300128
 30
0.0
 11
298.2050199019457
 21
208.5284624400692
 31
0.0
  0
ARC
  5
14AD
330
D
100
AcDbEntity
 67
     1
  8
AM_VIS
100
AcDbCircle
 10
330.7050199019457
 20
239.6532114350411
 30
0.0
 40
45.00000000000002
100
AcDbArc
 50
135.3253904356167
 51
136.2382573073204
  0
LINE
  5
14AE
330
D
100
AcDbEntity
 67
     1
  8
AM_VIS
100
AcDbLine
 10
216.7050199019457
 20
208.5284624400691
 30
0.0
 11
216.7050199019457
 21
270.7779604300128
 31
0.0
  0
LINE
  5
14AF
330
D
100
AcDbEntity
 67
     1
  8
AM_VIS
100
AcDbLine
 10
209.2050199019456
 20
208.5284624400692
 30
0.0
 11
216.7050199019457
 21
208.5284624400692
 31
0.0
  0
LINE
  5
14B0
330
D
100
AcDbEntity
 67
     1
  8
AM_VIS
100
AcDbLine
 10
209.2050199019456
 20
208.5284624400692
 30
0.0
 11
209.2050199019456
 21
270.7779604300128
 31
0.0
  0
ARC
  5
14B1
330
D
100
AcDbEntity
 67
     1
  8
AM_VIS
100
AcDbCircle
 10
176.7050199019451
 20
239.6532114350409
 30
0.0
 40
45.00000000000079
100
AcDbArc
 50
315.3253904356167
 51
316.2382573073204
  0
LINE
  5
14B2
330
D
100
AcDbEntity
 67
     1
  8
AM_VIS
100
AcDbLine
 10
208.7050199019456
 20
271.2917954741538
 30
0.0
 11
208.7050199019456
 21
208.0146273959283
 31
0.0
  0
LINE
  5
14B3
330
D
100
AcDbEntity
 67
     1
  8
AM_VIS
100
AcDbLine
 10
216.7050199019457
 20
270.7779604300128
 30
0.0
 11
209.2050199019456
 21
270.7779604300128
 31
0.0
  0
ARC
  5
14B4
330
D
100
AcDbEntity
 67
     1
  8
AM_VIS
100
AcDbCircle
 10
176.7050199019451
 20
239.6532114350409
 30
0.0
 40
45.00000000000079
100
AcDbArc
 50
43.76174269267958
 51
44.6746095643833
  0
LINE
  5
14B5
330
D
100
AcDbEntity
 67
     1
  8
AM_VIS
100
AcDbLine
 10
209.2050199019456
 20
272.153211435041
 30
0.0
 11
216.7050199019457
 21
272.153211435041
 31
0.0
  0
LINE
  5
14B6
330
D
100
AcDbEntity
 67
     1
  8
AM_VIS
100
AcDbLine
 10
209.2050199019456
 20
272.1532114350409
 30
0.0
 11
208.7050199019456
 21
271.6532114350409
 31
0.0
  0
LINE
  5
14B7
330
D
100
AcDbEntity
 67
     1
  8
AM_VIS
100
AcDbLine
 10
216.7050199019457
 20
207.1532114350409
 30
0.0
 11
209.2050199019456
 21
207.1532114350409
 31
0.0
  0
LINE
  5
14B8
330
D
100
AcDbEntity
 67
     1
  8
AM_VIS
100
AcDbLine
 10
208.7050199019456
 20
207.6532114350409
 30
0.0
 11
209.2050199019456
 21
207.1532114350409
 31
0.0
  0
LINE
  5
14B9
330
D
100
AcDbEntity
 67
     1
  8
AM_VIS
100
AcDbLine
 10
298.7050199019457
 20
208.0146273959283
 30
0.0
 11
298.7050199019457
 21
271.2917954741538
 31
0.0
  0
LINE
  5
14BA
330
D
100
AcDbEntity
 67
     1
  8
AM_VIS
100
AcDbLine
 10
298.7050199019457
 20
271.6532114350409
 30
0.0
 11
298.2050199019457
 21
272.1532114350409
 31
0.0
  0
LINE
  5
14BB
330
D
100
AcDbEntity
 67
     1
  8
AM_VIS
100
AcDbLine
 10
226.7050199019457
 20
216.1532114350411
 30
0.0
 11
232.3050199019457
 21
216.1532114350411
 31
0.0
  0
LINE
  5
14BC
330
D
100
AcDbEntity
 67
     1
  8
AM_VIS
100
AcDbLine
 10
226.7050199019457
 20
263.153211435041
 30
0.0
 11
232.3050199019457
 21
263.153211435041
 31
0.0
  0
ARC
  5
14BD
330
D
100
AcDbEntity
 67
     1
  8
AM_VIS
100
AcDbCircle
 10
232.3050199016037
 20
215.753211434699
 30
0.0
 40
0.4000000003420326
100
AcDbArc
 50
0.0000000489901092
 51
89.9999999510099
  0
ARC
  5
14BE
330
D
100
AcDbEntity
 67
     1
  8
AM_VIS
100
AcDbCircle
 10
232.3050199016037
 20
263.553211435383
 30
0.0
 40
0.4000000003420255
100
AcDbArc
 50
270.0
 51
359.9999999020165
  0
LINE
  5
14BF
330
D
100
AcDbEntity
 67
     1
  8
AM_VIS
100
AcDbLine
 10
298.7050199019457
 20
219.653211435041
 30
0.0
 11
308.2050199019457
 21
219.653211435041
 31
0.0
  0
LINE
  5
14C0
330
D
100
AcDbEntity
 67
     1
  8
AM_VIS
100
AcDbLine
 10
298.7050199019457
 20
259.653211435041
 30
0.0
 11
308.2050199019457
 21
259.653211435041
 31
0.0
  0
LINE
  5
14C1
330
D
100
AcDbEntity
 67
     1
  8
AM_VIS
100
AcDbLine
 10
308.7050199019456
 20
259.153211435041
 30
0.0
 11
308.2050199019457
 21
259.653211435041
 31
0.0
  0
LINE
  5
14C2
330
D
100
AcDbEntity
 67
     1
  8
AM_VIS
100
AcDbLine
 10
308.7050199019456
 20
220.1532114350409
 30
0.0
 11
308.2050199019457
 21
219.6532114350409
 31
0.0
  0
ARC
  5
14C3
330
D
100
AcDbEntity
 67
     1
  8
AM_VIS
100
AcDbCircle
 10
266.7050199019457
 20
233.253211435041
 30
0.0
 40
24.00000000000002
100
AcDbArc
 50
356.568738217005
 51
98.04168640774557
  0
ARC
  5
14C4
330
D
100
AcDbEntity
 67
     1
  8
AM_VIS
100
AcDbCircle
 10
258.4965364619456
 20
255.805834334041
 30
0.0
 40
5.0
100
AcDbArc
 50
14.02084320182612
 51
205.9791567987739
  0
ARC
  5
14C5
330
D
100
AcDbEntity
 67
     1
  8
AM_VIS
100
AcDbCircle
 10
266.7050199019457
 20
233.253211435041
 30
0.0
 40
24.00000000000002
100
AcDbArc
 50
121.9583135928567
 51
223.4312617835942
  0
ARC
  5
14C6
330
D
100
AcDbEntity
 67
     1
  8
AM_VIS
100
AcDbCircle
 10
266.7050199019457
 20
233.253211435041
 30
0.0
 40
24.00000000000002
100
AcDbArc
 50
236.5687382170039
 51
343.4312617835972
  0
ARC
  5
14C7
330
D
100
AcDbEntity
 67
     1
  8
AM_VIS
100
AcDbCircle
 10
251.278117269441
 20
214.8681447999571
 30
0.0
 40
2.75
100
AcDbArc
 50
136.7156308879392
 51
323.2843691126606
  0
ARC
  5
14C8
330
D
100
AcDbEntity
 67
     1
  8
AM_VIS
100
AcDbCircle
 10
290.3404059744503
 20
229.0856551711249
 30
0.0
 40
2.750000000000001
100
AcDbArc
 50
256.7156308879378
 51
83.28436911266134
  0
LINE
  5
14C9
330
D
100
AcDbEntity
 67
     1
  8
AM_VIS
100
AcDbLine
 10
232.7050199019457
 20
272.153211435041
 30
0.0
 11
232.7050199019457
 21
270.7779604300128
 31
0.0
  0
LINE
  5
14CA
330
D
100
AcDbEntity
 67
     1
  8
AM_VIS
100
AcDbLine
 10
232.7050199019457
 20
208.5284624400691
 30
0.0
 11
232.7050199019457
 21
207.1532114350409
 31
0.0
  0
LINE
  5
14CB
330
D
100
AcDbEntity
 67
     1
  8
AM_VIS
100
AcDbLine
 10
208.7050199019456
 20
208.0146273959283
 30
0.0
 11
208.7050199019456
 21
207.653211435041
 31
0.0
  0
LINE
  5
14CC
330
D
100
AcDbEntity
 67
     1
  8
AM_VIS
100
AcDbLine
 10
216.7050199019457
 20
207.153211435041
 30
0.0
 11
216.7050199019457
 21
208.5284624400692
 31
0.0
  0
LINE
  5
14CD
330
D
100
AcDbEntity
 67
     1
  8
AM_VIS
100
AcDbLine
 10
216.7050199019457
 20
270.7779604300128
 30
0.0
 11
216.7050199019457
 21
272.153211435041
 31
0.0
  0
LINE
  5
14CE
330
D
100
AcDbEntity
 67
     1
  8
AM_VIS
100
AcDbLine
 10
208.7050199019456
 20
271.653211435041
 30
0.0
 11
208.7050199019456
 21
271.2917954741538
 31
0.0
  0
LINE
  5
14CF
330
D
100
AcDbEntity
 67
     1
  8
AM_VIS
100
AcDbLine
 10
298.7050199019457
 20
207.653211435041
 30
0.0
 11
298.7050199019457
 21
208.0146273959283
 31
0.0
  0
LINE
  5
14D0
330
D
100
AcDbEntity
 67
     1
  8
AM_VIS
100
AcDbLine
 10
298.7050199019457
 20
271.2917954741538
 30
0.0
 11
298.7050199019457
 21
271.653211435041
 31
0.0
  0
LINE
  5
14D1
330
D
100
AcDbEntity
 67
     1
  8
AM_VIS
100
AcDbLine
 10
308.7050199019456
 20
259.153211435041
 30
0.0
 11
308.7050199019456
 21
220.153211435041
 31
0.0
  0
LINE
  5
14D2
330
D
100
AcDbEntity
 67
     1
  8
AM_VIS
100
AcDbLine
 10
308.2050199019457
 20
219.653211435041
 30
0.0
 11
308.2050199019457
 21
259.653211435041
 31
0.0
  0
LINE
  5
14D3
330
D
100
AcDbEntity
 67
     1
  8
AM_VIS
100
AcDbLine
 10
288.964073392692
 20
224.278803513743
 30
0.0
 11
289.0311022083511
 21
224.4468796911921
 31
0.0
  0
LINE
  5
14D4
330
D
100
AcDbEntity
 67
     1
  8
AM_VIS
100
AcDbLine
 10
290.6911164965824
 20
234.0733516694137
 30
0.0
 11
290.6966175404351
 21
233.8924865209367
 31
0.0
  0
LINE
  5
14D5
330
D
100
AcDbEntity
 67
     1
  8
AM_VIS
100
AcDbLine
 10
263.1684857530695
 20
256.9913317512948
 30
0.0
 11
263.3475584003408
 21
257.0173211828729
 31
0.0
  0
LINE
  5
14D6
330
D
100
AcDbEntity
 67
     1
  8
AM_VIS
100
AcDbLine
 10
254.0017093269948
 20
253.6157103064375
 30
0.0
 11
254.1555926183088
 21
253.7109069243998
 31
0.0
  0
LINE
  5
14D7
330
D
100
AcDbEntity
 67
     1
  8
AM_VIS
100
AcDbLine
 10
247.8034279128042
 20
218.4635096085069
 30
0.0
 11
247.9154717444165
 21
218.3214228626361
 31
0.0
  0
LINE
  5
14D8
330
D
100
AcDbEntity
 67
     1
  8
AM_VIS
100
AcDbLine
 10
255.2628495470932
 20
212.1562408597865
 30
0.0
 11
255.4222338822598
 21
212.0705723292718
 31
0.0
  0
ARC
  5
14D9
330
D
100
AcDbEntity
 67
     1
  8
AM_VIS
100
AcDbCircle
 10
266.7050199019457
 20
233.253211435041
 30
0.0
 40
24.00000000000002
100
AcDbArc
 50
241.9583135926023
 51
338.0416864073977
  0
ARC
  5
14DA
330
D
100
AcDbEntity
 67
     1
  8
AM_VIS
100
AcDbCircle
 10
290.3404059742387
 20
229.0856551710346
 30
0.0
 40
5.0
100
AcDbArc
 50
85.97915679630141
 51
254.0208432036986
  0
ARC
  5
14DB
330
D
100
AcDbEntity
 67
     1
  8
AM_VIS
100
AcDbCircle
 10
266.7050199019457
 20
233.253211435041
 30
0.0
 40
24.00000000000002
100
AcDbArc
 50
121.9583135926019
 51
218.0416864073947
  0
ARC
  5
14DC
330
D
100
AcDbEntity
 67
     1
  8
AM_VIS
100
AcDbCircle
 10
266.7050199019457
 20
233.253211435041
 30
0.0
 40
24.00000000000002
100
AcDbArc
 50
1.958313592600991
 51
98.04168640739689
  0
ARC
  5
14DD
330
D
100
AcDbEntity
 67
     1
  8
AM_VIS
100
AcDbCircle
 10
258.4965364621296
 20
255.8058343339028
 30
0.0
 40
5.0
100
AcDbArc
 50
205.9791567963035
 51
14.02084320369979
  0
ARC
  5
14DE
330
D
100
AcDbEntity
 67
     1
  8
AM_VIS
100
AcDbCircle
 10
251.2781172694687
 20
214.8681448001855
 30
0.0
 40
4.999999999999998
100
AcDbArc
 50
325.9791567962992
 51
134.0208432036959
  0
LINE
  5
14DF
330
D
100
AcDbEntity
 67
     1
  8
AM_VIS
100
AcDbLine
 10
252.1450407089673
 20
213.3681447999571
 30
0.0
 11
253.010617269441
 21
214.8681447999571
 31
0.0
  0
LINE
  5
14E0
330
D
100
AcDbEntity
 67
     1
  8
AM_VIS
100
AcDbLine
 10
253.010617269441
 20
214.8681447999571
 30
0.0
 11
252.1450407089673
 21
216.3681447999571
 31
0.0
  0
LINE
  5
14E1
330
D
100
AcDbEntity
 67
     1
  8
AM_VIS
100
AcDbLine
 10
252.1450407089673
 20
216.3681447999571
 30
0.0
 11
250.4111938299148
 21
216.3681447999571
 31
0.0
  0
LINE
  5
14E2
330
D
100
AcDbEntity
 67
     1
  8
AM_VIS
100
AcDbLine
 10
250.4111938299148
 20
216.3681447999571
 30
0.0
 11
249.545617269441
 21
214.8681447999571
 31
0.0
  0
LINE
  5
14E3
330
D
100
AcDbEntity
 67
     1
  8
AM_VIS
100
AcDbLine
 10
249.545617269441
 20
214.8681447999571
 30
0.0
 11
250.4111938299148
 21
213.3681447999571
 31
0.0
  0
LINE
  5
14E4
330
D
100
AcDbEntity
 67
     1
  8
AM_VIS
100
AcDbLine
 10
250.4111938299148
 20
213.3681447999571
 30
0.0
 11
252.1450407089673
 21
213.3681447999571
 31
0.0
  0
CIRCLE
  5
14E5
330
D
100
AcDbEntity
 67
     1
  8
AM_VIS
100
AcDbCircle
 10
251.278117269441
 20
214.8681447999571
 30
0.0
 40
4.819999999999994
  0
LINE
  5
14E6
330
D
100
AcDbEntity
 67
     1
  8
AM_VIS
100
AcDbLine
 10
259.3634599014719
 20
254.3058343340411
 30
0.0
 11
260.2290364619457
 21
255.805834334041
 31
0.0
  0
LINE
  5
14E7
330
D
100
AcDbEntity
 67
     1
  8
AM_VIS
100
AcDbLine
 10
260.2290364619457
 20
255.805834334041
 30
0.0
 11
259.3634599014719
 21
257.305834334041
 31
0.0
  0
LINE
  5
14E8
330
D
100
AcDbEntity
 67
     1
  8
AM_VIS
100
AcDbLine
 10
259.3634599014719
 20
257.305834334041
 30
0.0
 11
257.6296130224195
 21
257.305834334041
 31
0.0
  0
LINE
  5
14E9
330
D
100
AcDbEntity
 67
     1
  8
AM_VIS
100
AcDbLine
 10
257.6296130224195
 20
257.305834334041
 30
0.0
 11
256.7640364619456
 21
255.805834334041
 31
0.0
  0
LINE
  5
14EA
330
D
100
AcDbEntity
 67
     1
  8
AM_VIS
100
AcDbLine
 10
256.7640364619456
 20
255.805834334041
 30
0.0
 11
257.6296130224195
 21
254.3058343340411
 31
0.0
  0
LINE
  5
14EB
330
D
100
AcDbEntity
 67
     1
  8
AM_VIS
100
AcDbLine
 10
257.6296130224195
 20
254.3058343340411
 30
0.0
 11
259.3634599014719
 21
254.3058343340411
 31
0.0
  0
CIRCLE
  5
14EC
330
D
100
AcDbEntity
 67
     1
  8
AM_VIS
100
AcDbCircle
 10
258.4965364619456
 20
255.805834334041
 30
0.0
 40
4.819999999999994
  0
LINE
  5
14ED
330
D
100
AcDbEntity
 67
     1
  8
AM_VIS
100
AcDbLine
 10
291.2073294139765
 20
227.5856551711249
 30
0.0
 11
292.0729059744503
 21
229.0856551711249
 31
0.0
  0
LINE
  5
14EE
330
D
100
AcDbEntity
 67
     1
  8
AM_VIS
100
AcDbLine
 10
292.0729059744504
 20
229.0856551711249
 30
0.0
 11
291.2073294139765
 21
230.5856551711249
 31
0.0
  0
LINE
  5
14EF
330
D
100
AcDbEntity
 67
     1
  8
AM_VIS
100
AcDbLine
 10
291.2073294139765
 20
230.5856551711249
 30
0.0
 11
289.4734825349241
 21
230.5856551711249
 31
0.0
  0
LINE
  5
14F0
330
D
100
AcDbEntity
 67
     1
  8
AM_VIS
100
AcDbLine
 10
289.4734825349241
 20
230.5856551711249
 30
0.0
 11
288.6079059744504
 21
229.0856551711249
 31
0.0
  0
LINE
  5
14F1
330
D
100
AcDbEntity
 67
     1
  8
AM_VIS
100
AcDbLine
 10
288.6079059744503
 20
229.0856551711249
 30
0.0
 11
289.4734825349241
 21
227.5856551711249
 31
0.0
  0
LINE
  5
14F2
330
D
100
AcDbEntity
 67
     1
  8
AM_VIS
100
AcDbLine
 10
289.4734825349241
 20
227.5856551711249
 30
0.0
 11
291.2073294139766
 21
227.5856551711249
 31
0.0
  0
CIRCLE
  5
14F3
330
D
100
AcDbEntity
 67
     1
  8
AM_VIS
100
AcDbCircle
 10
290.3404059744503
 20
229.0856551711249
 30
0.0
 40
4.819999999999994
  0
LINE
  5
14F4
330
D
100
AcDbEntity
 67
     1
  8
AM_VIS
100
AcDbLine
 10
324.7050199019457
 20
250.6532114350408
 30
0.0
 11
323.7050199019457
 21
251.4278130818875
 31
0.0
  0
LINE
  5
14F5
330
D
100
AcDbEntity
 67
     1
  8
AM_VIS
100
AcDbLine
 10
324.7050199019457
 20
228.6532114350411
 30
0.0
 11
323.7050199019457
 21
227.8786097881944
 31
0.0
  0
LINE
  5
14F6
330
D
100
AcDbEntity
 67
     1
  8
AM_VIS
100
AcDbLine
 10
324.7050199019457
 20
228.6532114350411
 30
0.0
 11
324.7050199019457
 21
250.6532114350408
 31
0.0
  0
SPLINE
  5
14F9
330
D
100
AcDbEntity
 67
     1
  8
AM_VIS
100
AcDbSpline
210
0.0
220
0.0
230
1.0
 70
    12
 71
     2
 72
     6
 73
     3
 74
     0
 42
0.0000000001
 43
0.0000000001
 40
0.0
 40
0.0
 40
0.0
 40
3.807113172039058
 40
3.807113172039058
 40
3.807113172039058
 10
219.2855764855464
 20
156.3964793713655
 30
0.0
 41
1.0
 10
218.7050199019458
 20
158.4075863702959
 30
0.0
 41
1.037954849301998
 10
218.7050199019457
 20
160.149256121098
 30
0.0
 41
1.0
  0
SPLINE
  5
14FA
330
D
100
AcDbEntity
 67
     1
  8
AM_VIS
100
AcDbSpline
210
0.0
220
0.0
230
1.0
 70
    12
 71
     2
 72
     6
 73
     3
 74
     0
 42
0.0000000001
 43
0.0000000001
 40
3.807113172039058
 40
3.807113172039058
 40
3.807113172039058
 40
7.614226344078116
 40
7.614226344078116
 40
7.614226344078116
 10
218.7050199019457
 20
160.149256121098
 30
0.0
 41
1.0
 10
218.7050199019458
 20
161.8909258719004
 30
0.0
 41
1.037954849301998
 10
219.2855764855464
 20
163.9020328708305
 30
0.0
 41
1.0
  0
SPLINE
  5
14FB
330
D
100
AcDbEntity
 67
     1
  8
AM_VIS
100
AcDbSpline
210
0.0000000000000668
220
0.0000000000000135
230
1.0
 70
    12
 71
     2
 72
     6
 73
     3
 74
     0
 42
0.0000000001
 43
0.0000000001
 40
0.0
 40
0.0
 40
0.0
 40
3.807113172039017
 40
3.807113172039017
 40
3.807113172039017
 10
224.6244633183449
 20
163.9020328708305
 30
0.0
 41
1.0
 10
225.2050199019453
 20
161.8909258719003
 30
0.0000000000002274
 41
1.037954849301946
 10
225.2050199019457
 20
160.149256121098
 30
0.0
 41
1.0
  0
SPLINE
  5
14FC
330
D
100
AcDbEntity
 67
     1
  8
AM_VIS
100
AcDbSpline
210
0.0000000000000668
220
-0.0000000000000135
230
1.0
 70
    12
 71
     2
 72
     6
 73
     3
 74
     0
 42
0.0000000001
 43
0.0000000001
 40
3.807113172039017
 40
3.807113172039017
 40
3.807113172039017
 40
7.614226344078034
 40
7.614226344078034
 40
7.614226344078034
 10
225.2050199019457
 20
160.149256121098
 30
0.0
 41
1.0
 10
225.2050199019453
 20
158.4075863702961
 30
0.0000000000002274
 41
1.037954849301946
 10
224.6244633183449
 20
156.3964793713654
 30
0.0
 41
1.0
  0
LINE
  5
14FD
330
D
100
AcDbEntity
 67
     1
  8
AM_VIS
100
AcDbLine
 10
219.2855764855464
 20
163.9020328708304
 30
0.0
 11
224.6244633183448
 21
163.9020328708304
 31
0.0
  0
SPLINE
  5
14FE
330
D
100
AcDbEntity
 67
     1
  8
AM_VIS
100
AcDbSpline
210
0.0
220
0.0
230
1.0
 70
    12
 71
     2
 72
     6
 73
     3
 74
     0
 42
0.0000000001
 43
0.0000000001
 40
0.0
 40
0.0
 40
0.0
 40
3.807113172039157
 40
3.807113172039157
 40
3.807113172039157
 10
219.2855764855464
 20
163.9020328708304
 30
0.0
 41
1.0
 10
218.7050199019453
 20
164.9075863702954
 30
0.0
 41
1.037954849302101
 10
218.7050199019457
 20
165.7784212456968
 30
0.0
 41
1.0
  0
SPLINE
  5
14FF
330
D
100
AcDbEntity
 67
     1
  8
AM_VIS
100
AcDbSpline
210
0.0
220
0.0
230
1.0
 70
    12
 71
     2
 72
     6
 73
     3
 74
     0
 42
0.0000000001
 43
0.0000000001
 40
3.807113172039157
 40
3.807113172039157
 40
3.807113172039157
 40
7.614226344078324
 40
7.614226344078324
 40
7.614226344078324
 10
218.7050199019457
 20
165.7784212456968
 30
0.0
 41
1.0
 10
218.7050199019454
 20
166.6492561210979
 30
0.0
 41
1.037954849302084
 10
219.2855764855464
 20
167.6548096205631
 30
0.0
 41
1.0
  0
SPLINE
  5
1500
330
D
100
AcDbEntity
 67
     1
  8
AM_VIS
100
AcDbSpline
210
0.0
220
0.0
230
1.0
 70
    12
 71
     2
 72
     6
 73
     3
 74
     0
 42
0.0000000001
 43
0.0000000001
 40
0.0
 40
0.0
 40
0.0
 40
3.807113172039119
 40
3.807113172039119
 40
3.807113172039119
 10
224.6244633183449
 20
167.6548096205631
 30
0.0
 41
1.0
 10
225.2050199019453
 20
166.6492561210979
 30
0.0
 41
1.037954849302022
 10
225.2050199019457
 20
165.7784212456968
 30
0.0
 41
1.0
  0
SPLINE
  5
1501
330
D
100
AcDbEntity
 67
     1
  8
AM_VIS
100
AcDbSpline
210
0.0
220
0.0
230
1.0
 70
    12
 71
     2
 72
     6
 73
     3
 74
     0
 42
0.0000000001
 43
0.0000000001
 40
3.807113172039119
 40
3.807113172039119
 40
3.807113172039119
 40
7.614226344078234
 40
7.614226344078234
 40
7.614226344078234
 10
225.2050199019457
 20
165.7784212456968
 30
0.0
 41
1.0
 10
225.2050199019458
 20
164.9075863702959
 30
0.0
 41
1.037954849302013
 10
224.6244633183449
 20
163.9020328708304
 30
0.0
 41
1.0
  0
LINE
  5
1502
330
D
100
AcDbEntity
 67
     1
  8
AM_VIS
100
AcDbLine
 10
219.2855764855464
 20
167.6548096205631
 30
0.0
 11
224.6244633183448
 21
167.6548096205631
 31
0.0
  0
SPLINE
  5
1503
330
D
100
AcDbEntity
 67
     1
  8
AM_VIS
100
AcDbSpline
210
0.0
220
0.0
230
1.0
 70
    12
 71
     2
 72
     6
 73
     3
 74
     0
 42
0.0000000001
 43
0.0000000001
 40
3.807113172038938
 40
3.807113172038938
 40
3.807113172038938
 40
7.614226344077872
 40
7.614226344077872
 40
7.614226344077872
 10
225.2050199019457
 20
154.5200909964991
 30
0.0
 41
1.0
 10
225.2050199019453
 20
153.649256121098
 30
0.0
 41
1.037954849302124
 10
224.6244633183449
 20
152.6437026216329
 30
0.0
 41
1.0
  0
SPLINE
  5
1504
330
D
100
AcDbEntity
 67
     1
  8
AM_VIS
100
AcDbSpline
210
0.0
220
0.0
230
1.0
 70
    12
 71
     2
 72
     6
 73
     3
 74
     0
 42
0.0000000001
 43
0.0000000001
 40
0.0
 40
0.0
 40
0.0
 40
3.807113172038992
 40
3.807113172038992
 40
3.807113172038992
 10
219.2855764855464
 20
152.6437026216329
 30
0.0
 41
1.0
 10
218.7050199019457
 20
153.649256121098
 30
0.0
 41
1.037954849302097
 10
218.7050199019457
 20
154.5200909964991
 30
0.0
 41
1.0
  0
SPLINE
  5
1505
330
D
100
AcDbEntity
 67
     1
  8
AM_VIS
100
AcDbSpline
210
0.0
220
0.0
230
1.0
 70
    12
 71
     2
 72
     6
 73
     3
 74
     0
 42
0.0000000001
 43
0.0000000001
 40
3.807113172038992
 40
3.807113172038992
 40
3.807113172038992
 40
7.614226344077978
 40
7.614226344077978
 40
7.614226344077978
 10
218.7050199019457
 20
154.5200909964991
 30
0.0
 41
1.0
 10
218.7050199019457
 20
155.3909258719002
 30
0.0
 41
1.037954849302113
 10
219.2855764855464
 20
156.3964793713653
 30
0.0
 41
1.0
  0
LINE
  5
1506
330
D
100
AcDbEntity
 67
     1
  8
AM_VIS
100
AcDbLine
 10
219.2855764855464
 20
156.3964793713654
 30
0.0
 11
224.6244633183448
 21
156.3964793713654
 31
0.0
  0
SPLINE
  5
1507
330
D
100
AcDbEntity
 67
     1
  8
AM_VIS
100
AcDbSpline
210
0.0
220
0.0
230
1.0
 70
    12
 71
     2
 72
     6
 73
     3
 74
     0
 42
0.0000000001
 43
0.0000000001
 40
0.0
 40
0.0
 40
0.0
 40
3.807113172038938
 40
3.807113172038938
 40
3.807113172038938
 10
224.6244633183449
 20
156.3964793713653
 30
0.0
 41
1.0
 10
225.2050199019453
 20
155.3909258719002
 30
0.0
 41
1.037954849302022
 10
225.2050199019457
 20
154.5200909964991
 30
0.0
 41
1.0
  0
LINE
  5
1508
330
D
100
AcDbEntity
 67
     1
  8
AM_VIS
100
AcDbLine
 10
219.2855764855464
 20
152.6437026216329
 30
0.0
 11
224.6244633183448
 21
152.6437026216329
 31
0.0
  0
SPLINE
  5
1509
330
D
100
AcDbEntity
 67
     1
  8
AM_VIS
100
AcDbSpline
210
0.0
220
0.0
230
1.0
 70
    12
 71
     2
 72
     6
 73
     3
 74
     0
 42
0.0000000001
 43
0.0000000001
 40
0.0
 40
0.0
 40
0.0
 40
3.807113172039058
 40
3.807113172039058
 40
3.807113172039058
 10
219.2855764855464
 20
109.8964793713654
 30
0.0
 41
1.0
 10
218.7050199019458
 20
111.9075863702954
 30
0.0
 41
1.037954849301998
 10
218.7050199019457
 20
113.649256121098
 30
0.0
 41
1.0
  0
SPLINE
  5
150A
330
D
100
AcDbEntity
 67
     1
  8
AM_VIS
100
AcDbSpline
210
0.0
220
0.0
230
1.0
 70
    12
 71
     2
 72
     6
 73
     3
 74
     0
 42
0.0000000001
 43
0.0000000001
 40
3.807113172039058
 40
3.807113172039058
 40
3.807113172039058
 40
7.614226344078116
 40
7.614226344078116
 40
7.614226344078116
 10
218.7050199019457
 20
113.649256121098
 30
0.0
 41
1.0
 10
218.7050199019458
 20
115.3909258719003
 30
0.0
 41
1.037954849301998
 10
219.2855764855464
 20
117.4020328708305
 30
0.0
 41
1.0
  0
SPLINE
  5
150B
330
D
100
AcDbEntity
 67
     1
  8
AM_VIS
100
AcDbSpline
210
0.0000000000000668
220
0.0000000000000135
230
1.0
 70
    12
 71
     2
 72
     6
 73
     3
 74
     0
 42
0.0000000001
 43
0.0000000001
 40
0.0
 40
0.0
 40
0.0
 40
3.807113172039017
 40
3.807113172039017
 40
3.807113172039017
 10
224.6244633183449
 20
117.4020328708305
 30
0.0
 41
1.0
 10
225.2050199019453
 20
115.3909258719003
 30
0.0000000000002274
 41
1.037954849301946
 10
225.2050199019457
 20
113.649256121098
 30
0.0
 41
1.0
  0
SPLINE
  5
150C
330
D
100
AcDbEntity
 67
     1
  8
AM_VIS
100
AcDbSpline
210
0.0000000000000668
220
-0.0000000000000135
230
1.0
 70
    12
 71
     2
 72
     6
 73
     3
 74
     0
 42
0.0000000001
 43
0.0000000001
 40
3.807113172039017
 40
3.807113172039017
 40
3.807113172039017
 40
7.614226344078034
 40
7.614226344078034
 40
7.614226344078034
 10
225.2050199019457
 20
113.649256121098
 30
0.0
 41
1.0
 10
225.2050199019453
 20
111.9075863702958
 30
0.0000000000002274
 41
1.037954849301946
 10
224.6244633183449
 20
109.8964793713654
 30
0.0
 41
1.0
  0
LINE
  5
150D
330
D
100
AcDbEntity
 67
     1
  8
AM_VIS
100
AcDbLine
 10
219.2855764855464
 20
117.4020328708304
 30
0.0
 11
224.6244633183448
 21
117.4020328708304
 31
0.0
  0
SPLINE
  5
150E
330
D
100
AcDbEntity
 67
     1
  8
AM_VIS
100
AcDbSpline
210
0.0
220
0.0
230
1.0
 70
    12
 71
     2
 72
     6
 73
     3
 74
     0
 42
0.0000000001
 43
0.0000000001
 40
0.0
 40
0.0
 40
0.0
 40
3.807113172039157
 40
3.807113172039157
 40
3.807113172039157
 10
219.2855764855464
 20
117.4020328708304
 30
0.0
 41
1.0
 10
218.7050199019453
 20
118.4075863702957
 30
0.0
 41
1.037954849302101
 10
218.7050199019457
 20
119.2784212456968
 30
0.0
 41
1.0
  0
SPLINE
  5
150F
330
D
100
AcDbEntity
 67
     1
  8
AM_VIS
100
AcDbSpline
210
0.0
220
0.0
230
1.0
 70
    12
 71
     2
 72
     6
 73
     3
 74
     0
 42
0.0000000001
 43
0.0000000001
 40
3.807113172039157
 40
3.807113172039157
 40
3.807113172039157
 40
7.614226344078324
 40
7.614226344078324
 40
7.614226344078324
 10
218.7050199019457
 20
119.2784212456968
 30
0.0
 41
1.0
 10
218.7050199019454
 20
120.1492561210979
 30
0.0
 41
1.037954849302084
 10
219.2855764855464
 20
121.1548096205631
 30
0.0
 41
1.0
  0
SPLINE
  5
1510
330
D
100
AcDbEntity
 67
     1
  8
AM_VIS
100
AcDbSpline
210
0.0
220
0.0
230
1.0
 70
    12
 71
     2
 72
     6
 73
     3
 74
     0
 42
0.0000000001
 43
0.0000000001
 40
0.0
 40
0.0
 40
0.0
 40
3.807113172039119
 40
3.807113172039119
 40
3.807113172039119
 10
224.6244633183449
 20
121.1548096205631
 30
0.0
 41
1.0
 10
225.2050199019453
 20
120.149256121098
 30
0.0
 41
1.037954849302022
 10
225.2050199019457
 20
119.2784212456968
 30
0.0
 41
1.0
  0
SPLINE
  5
1511
330
D
100
AcDbEntity
 67
     1
  8
AM_VIS
100
AcDbSpline
210
0.0
220
0.0
230
1.0
 70
    12
 71
     2
 72
     6
 73
     3
 74
     0
 42
0.0000000001
 43
0.0000000001
 40
3.807113172039119
 40
3.807113172039119
 40
3.807113172039119
 40
7.614226344078234
 40
7.614226344078234
 40
7.614226344078234
 10
225.2050199019457
 20
119.2784212456968
 30
0.0
 41
1.0
 10
225.2050199019458
 20
118.4075863702956
 30
0.0
 41
1.037954849302013
 10
224.6244633183449
 20
117.4020328708304
 30
0.0
 41
1.0
  0
LINE
  5
1512
330
D
100
AcDbEntity
 67
     1
  8
AM_VIS
100
AcDbLine
 10
219.2855764855464
 20
121.1548096205631
 30
0.0
 11
224.6244633183448
 21
121.1548096205631
 31
0.0
  0
SPLINE
  5
1513
330
D
100
AcDbEntity
 67
     1
  8
AM_VIS
100
AcDbSpline
210
0.0
220
0.0
230
1.0
 70
    12
 71
     2
 72
     6
 73
     3
 74
     0
 42
0.0000000001
 43
0.0000000001
 40
3.807113172038938
 40
3.807113172038938
 40
3.807113172038938
 40
7.614226344077872
 40
7.614226344077872
 40
7.614226344077872
 10
225.2050199019457
 20
108.0200909964991
 30
0.0
 41
1.0
 10
225.2050199019453
 20
107.1492561210978
 30
0.0
 41
1.037954849302124
 10
224.6244633183449
 20
106.1437026216329
 30
0.0
 41
1.0
  0
SPLINE
  5
1514
330
D
100
AcDbEntity
 67
     1
  8
AM_VIS
100
AcDbSpline
210
0.0
220
0.0
230
1.0
 70
    12
 71
     2
 72
     6
 73
     3
 74
     0
 42
0.0000000001
 43
0.0000000001
 40
0.0
 40
0.0
 40
0.0
 40
3.80711317203899
 40
3.80711317203899
 40
3.80711317203899
 10
219.2855764855464
 20
106.1437026216329
 30
0.0
 41
1.0
 10
218.7050199019457
 20
107.149256121098
 30
0.0
 41
1.037954849302102
 10
218.7050199019457
 20
108.0200909964991
 30
0.0
 41
1.0
  0
SPLINE
  5
1515
330
D
100
AcDbEntity
 67
     1
  8
AM_VIS
100
AcDbSpline
210
0.0
220
0.0
230
1.0
 70
    12
 71
     2
 72
     6
 73
     3
 74
     0
 42
0.0000000001
 43
0.0000000001
 40
3.80711317203899
 40
3.80711317203899
 40
3.80711317203899
 40
7.614226344077977
 40
7.614226344077977
 40
7.614226344077977
 10
218.7050199019457
 20
108.0200909964991
 30
0.0
 41
1.0
 10
218.7050199019457
 20
108.8909258719002
 30
0.0
 41
1.037954849302113
 10
219.2855764855464
 20
109.8964793713653
 30
0.0
 41
1.0
  0
LINE
  5
1516
330
D
100
AcDbEntity
 67
     1
  8
AM_VIS
100
AcDbLine
 10
219.2855764855464
 20
109.8964793713654
 30
0.0
 11
224.6244633183448
 21
109.8964793713654
 31
0.0
  0
SPLINE
  5
1517
330
D
100
AcDbEntity
 67
     1
  8
AM_VIS
100
AcDbSpline
210
0.0
220
0.0
230
1.0
 70
    12
 71
     2
 72
     6
 73
     3
 74
     0
 42
0.0000000001
 43
0.0000000001
 40
0.0
 40
0.0
 40
0.0
 40
3.807113172038938
 40
3.807113172038938
 40
3.807113172038938
 10
224.6244633183449
 20
109.8964793713653
 30
0.0
 41
1.0
 10
225.2050199019453
 20
108.8909258719001
 30
0.0
 41
1.037954849302022
 10
225.2050199019457
 20
108.0200909964991
 30
0.0
 41
1.0
  0
LINE
  5
1518
330
D
100
AcDbEntity
 67
     1
  8
AM_VIS
100
AcDbLine
 10
219.2855764855464
 20
106.1437026216329
 30
0.0
 11
224.6244633183448
 21
106.1437026216329
 31
0.0
  0
LINE
  5
1524
330
D
100
AcDbEntity
 67
     1
  8
AM_VIS
100
AcDbLine
 10
225.7050199019456
 20
109.6492561210979
 30
0.0
 11
226.7050199019457
 21
110.649256121098
 31
0.0
  0
LINE
  5
1525
330
D
100
AcDbEntity
 67
     1
  8
AM_VIS
100
AcDbLine
 10
216.7050199019457
 20
107.149256121098
 30
0.0
 11
218.7050199019457
 21
107.149256121098
 31
0.0
  0
LINE
  5
1526
330
D
100
AcDbEntity
 67
     1
  8
AM_VIS
100
AcDbLine
 10
225.2050199019457
 20
109.649256121098
 30
0.0
 11
225.7050199019456
 21
109.649256121098
 31
0.0
  0
LINE
  5
1527
330
D
100
AcDbEntity
 67
     1
  8
AM_VIS
100
AcDbLine
 10
225.7050199019456
 20
156.149256121098
 30
0.0
 11
226.7050199019457
 21
157.149256121098
 31
0.0
  0
LINE
  5
1528
330
D
100
AcDbEntity
 67
     1
  8
AM_VIS
100
AcDbLine
 10
216.7050199019457
 20
153.649256121098
 30
0.0
 11
218.7050199019457
 21
153.649256121098
 31
0.0
  0
LINE
  5
1529
330
D
100
AcDbEntity
 67
     1
  8
AM_VIS
100
AcDbLine
 10
225.2050199019457
 20
156.149256121098
 30
0.0
 11
225.7050199019456
 21
156.149256121098
 31
0.0
  0
LINE
  5
152A
330
D
100
AcDbEntity
 67
     1
  8
AM_VIS
100
AcDbLine
 10
225.2050199019457
 20
164.149256121098
 30
0.0
 11
225.7050199019456
 21
164.149256121098
 31
0.0
  0
LINE
  5
152B
330
D
100
AcDbEntity
 67
     1
  8
AM_VIS
100
AcDbLine
 10
216.7050199019457
 20
166.649256121098
 30
0.0
 11
218.7050199019457
 21
166.649256121098
 31
0.0
  0
LINE
  5
152C
330
D
100
AcDbEntity
 67
     1
  8
AM_VIS
100
AcDbLine
 10
225.7050199019456
 20
164.149256121098
 30
0.0
 11
226.7050199019457
 21
163.1492561210979
 31
0.0
  0
LINE
  5
152D
330
D
100
AcDbEntity
 67
     1
  8
AM_VIS
100
AcDbLine
 10
224.6244633183449
 20
167.6548096205631
 30
0.0
 11
225.2050199019457
 21
166.6492561210974
 31
0.0
  0
LINE
  5
152E
330
D
100
AcDbEntity
 67
     1
  8
AM_VIS
100
AcDbLine
 10
224.6244633183449
 20
152.6437026216329
 30
0.0
 11
225.2050199019457
 21
153.6492561210984
 31
0.0
  0
LINE
  5
152F
330
D
100
AcDbEntity
 67
     1
  8
AM_VIS
100
AcDbLine
 10
218.7050199019456
 20
166.649256121098
 30
0.0
 11
219.2855764855465
 21
167.6548096205632
 31
0.0
  0
LINE
  5
1530
330
D
100
AcDbEntity
 67
     1
  8
AM_VIS
100
AcDbLine
 10
218.7050199019456
 20
153.649256121098
 30
0.0
 11
219.2855764855464
 21
152.6437026216329
 31
0.0
  0
LINE
  5
1531
330
D
100
AcDbEntity
 67
     1
  8
AM_VIS
100
AcDbLine
 10
225.2050199019457
 20
117.649256121098
 30
0.0
 11
225.7050199019456
 21
117.649256121098
 31
0.0
  0
LINE
  5
1532
330
D
100
AcDbEntity
 67
     1
  8
AM_VIS
100
AcDbLine
 10
216.7050199019457
 20
120.149256121098
 30
0.0
 11
218.7050199019457
 21
120.149256121098
 31
0.0
  0
LINE
  5
1533
330
D
100
AcDbEntity
 67
     1
  8
AM_VIS
100
AcDbLine
 10
225.7050199019456
 20
117.649256121098
 30
0.0
 11
226.7050199019457
 21
116.649256121098
 31
0.0
  0
LINE
  5
1534
330
D
100
AcDbEntity
 67
     1
  8
AM_VIS
100
AcDbLine
 10
224.6244633183449
 20
121.1548096205631
 30
0.0
 11
225.2050199019457
 21
120.1492561210975
 31
0.0
  0
LINE
  5
1535
330
D
100
AcDbEntity
 67
     1
  8
AM_VIS
100
AcDbLine
 10
224.6244633183448
 20
106.1437026216327
 30
0.0
 11
225.2050199019456
 21
107.1492561210984
 31
0.0
  0
LINE
  5
1536
330
D
100
AcDbEntity
 67
     1
  8
AM_VIS
100
AcDbLine
 10
218.7050199019457
 20
120.149256121098
 30
0.0
 11
219.2855764855465
 21
121.1548096205631
 31
0.0
  0
LINE
  5
1537
330
D
100
AcDbEntity
 67
     1
  8
AM_VIS
100
AcDbLine
 10
218.7050199019456
 20
107.149256121098
 30
0.0
 11
219.2855764855464
 21
106.1437026216329
 31
0.0
  0
LINE
  5
153A
330
D
100
AcDbEntity
 67
     1
  8
AM_VIS
100
AcDbLine
 10
225.7050199019456
 20
113.649256121098
 30
0.0
 11
225.7050199019456
 21
109.649256121098
 31
0.0
  0
LINE
  5
153B
330
D
100
AcDbEntity
 67
     1
  8
AM_VIS
100
AcDbLine
 10
225.7050199019456
 20
160.149256121098
 30
0.0
 11
225.7050199019456
 21
156.149256121098
 31
0.0
  0
LINE
  5
153C
330
D
100
AcDbEntity
 67
     1
  8
AM_VIS
100
AcDbLine
 10
225.7050199019456
 20
164.149256121098
 30
0.0
 11
225.7050199019456
 21
160.149256121098
 31
0.0
  0
LINE
  5
153D
330
D
100
AcDbEntity
 67
     1
  8
AM_VIS
100
AcDbLine
 10
226.7050199019457
 20
160.149256121098
 30
0.0
 11
226.7050199019457
 21
157.149256121098
 31
0.0
  0
LINE
  5
153E
330
D
100
AcDbEntity
 67
     1
  8
AM_VIS
100
AcDbLine
 10
226.7050199019457
 20
163.149256121098
 30
0.0
 11
226.7050199019457
 21
160.149256121098
 31
0.0
  0
LINE
  5
153F
330
D
100
AcDbEntity
 67
     1
  8
AM_VIS
100
AcDbLine
 10
218.7050199019457
 20
165.7784212456968
 30
0.0
 11
218.7050199019457
 21
166.649256121098
 31
0.0
  0
LINE
  5
1540
330
D
100
AcDbEntity
 67
     1
  8
AM_VIS
100
AcDbLine
 10
218.7050199019457
 20
153.649256121098
 30
0.0
 11
218.7050199019457
 21
154.5200909964991
 31
0.0
  0
LINE
  5
1541
330
D
100
AcDbEntity
 67
     1
  8
AM_VIS
100
AcDbLine
 10
218.7050199019457
 20
160.149256121098
 30
0.0
 11
218.7050199019457
 21
165.7784212456968
 31
0.0
  0
LINE
  5
1542
330
D
100
AcDbEntity
 67
     1
  8
AM_VIS
100
AcDbLine
 10
218.7050199019457
 20
154.5200909964991
 30
0.0
 11
218.7050199019457
 21
160.149256121098
 31
0.0
  0
LINE
  5
1543
330
D
100
AcDbEntity
 67
     1
  8
AM_VIS
100
AcDbLine
 10
225.2050199019457
 20
154.5200909964995
 30
0.0
 11
225.2050199019457
 21
153.6492561210984
 31
0.0
  0
LINE
  5
1544
330
D
100
AcDbEntity
 67
     1
  8
AM_VIS
100
AcDbLine
 10
225.2050199019457
 20
160.149256121098
 30
0.0
 11
225.2050199019457
 21
154.5200909964995
 31
0.0
  0
LINE
  5
1545
330
D
100
AcDbEntity
 67
     1
  8
AM_VIS
100
AcDbLine
 10
225.2050199019457
 20
165.7784212456964
 30
0.0
 11
225.2050199019457
 21
160.149256121098
 31
0.0
  0
LINE
  5
1546
330
D
100
AcDbEntity
 67
     1
  8
AM_VIS
100
AcDbLine
 10
225.2050199019457
 20
166.6492561210975
 30
0.0
 11
225.2050199019457
 21
165.7784212456963
 31
0.0
  0
LINE
  5
1547
330
D
100
AcDbEntity
 67
     1
  8
AM_VIS
100
AcDbLine
 10
225.7050199019456
 20
117.649256121098
 30
0.0
 11
225.7050199019456
 21
113.649256121098
 31
0.0
  0
LINE
  5
1548
330
D
100
AcDbEntity
 67
     1
  8
AM_VIS
100
AcDbLine
 10
226.7050199019457
 20
113.649256121098
 30
0.0
 11
226.7050199019457
 21
110.649256121098
 31
0.0
  0
LINE
  5
1549
330
D
100
AcDbEntity
 67
     1
  8
AM_VIS
100
AcDbLine
 10
226.7050199019457
 20
116.649256121098
 30
0.0
 11
226.7050199019457
 21
113.649256121098
 31
0.0
  0
LINE
  5
154A
330
D
100
AcDbEntity
 67
     1
  8
AM_VIS
100
AcDbLine
 10
218.7050199019457
 20
119.2784212456968
 30
0.0
 11
218.7050199019457
 21
120.149256121098
 31
0.0
  0
LINE
  5
154B
330
D
100
AcDbEntity
 67
     1
  8
AM_VIS
100
AcDbLine
 10
218.7050199019457
 20
107.149256121098
 30
0.0
 11
218.7050199019457
 21
108.0200909964991
 31
0.0
  0
LINE
  5
154C
330
D
100
AcDbEntity
 67
     1
  8
AM_VIS
100
AcDbLine
 10
218.7050199019457
 20
113.649256121098
 30
0.0
 11
218.7050199019457
 21
119.2784212456968
 31
0.0
  0
LINE
  5
154D
330
D
100
AcDbEntity
 67
     1
  8
AM_VIS
100
AcDbLine
 10
218.7050199019457
 20
108.0200909964991
 30
0.0
 11
218.7050199019457
 21
113.649256121098
 31
0.0
  0
LINE
  5
154E
330
D
100
AcDbEntity
 67
     1
  8
AM_VIS
100
AcDbLine
 10
225.2050199019457
 20
108.0200909964995
 30
0.0
 11
225.2050199019457
 21
107.1492561210984
 31
0.0
  0
LINE
  5
154F
330
D
100
AcDbEntity
 67
     1
  8
AM_VIS
100
AcDbLine
 10
225.2050199019457
 20
113.649256121098
 30
0.0
 11
225.2050199019457
 21
108.0200909964995
 31
0.0
  0
LINE
  5
1550
330
D
100
AcDbEntity
 67
     1
  8
AM_VIS
100
AcDbLine
 10
225.2050199019457
 20
119.2784212456964
 30
0.0
 11
225.2050199019457
 21
113.649256121098
 31
0.0
  0
LINE
  5
1551
330
D
100
AcDbEntity
 67
     1
  8
AM_VIS
100
AcDbLine
 10
225.2050199019457
 20
120.1492561210975
 30
0.0
 11
225.2050199019457
 21
119.2784212456963
 31
0.0
  0
LINE
  5
1553
330
D
100
AcDbEntity
 67
     1
  8
AM_VIS
100
AcDbLine
 10
225.7050199019456
 20
220.4032114350414
 30
0.0
 11
225.2050199019457
 21
220.4032114350414
 31
0.0
  0
LINE
  5
1554
330
D
100
AcDbEntity
 67
     1
  8
AM_VIS
100
AcDbLine
 10
225.2050199019457
 20
212.4032114350414
 30
0.0
 11
225.7050199019456
 21
212.4032114350414
 31
0.0
  0
LINE
  5
1555
330
D
100
AcDbEntity
 67
     1
  8
AM_VIS
100
AcDbLine
 10
218.7050199019457
 20
222.9032114350414
 30
0.0
 11
216.7050199019457
 21
222.9032114350414
 31
0.0
  0
LINE
  5
1556
330
D
100
AcDbEntity
 67
     1
  8
AM_VIS
100
AcDbLine
 10
216.7050199019457
 20
209.9032114350414
 30
0.0
 11
218.7050199019457
 21
209.9032114350414
 31
0.0
  0
LINE
  5
1557
330
D
100
AcDbEntity
 67
     1
  8
AM_VIS
100
AcDbLine
 10
226.7050199019457
 20
219.4032114350414
 30
0.0
 11
225.7050199019456
 21
220.4032114350414
 31
0.0
  0
LINE
  5
1558
330
D
100
AcDbEntity
 67
     1
  8
AM_VIS
100
AcDbLine
 10
225.7050199019456
 20
212.4032114350414
 30
0.0
 11
226.7050199019457
 21
213.4032114350414
 31
0.0
  0
LINE
  5
1559
330
D
100
AcDbEntity
 67
     1
  8
AM_VIS
100
AcDbLine
 10
218.7050199019457
 20
209.9032114350414
 30
0.0
 11
219.2855764855464
 21
209.9032114350414
 31
0.0
  0
LINE
  5
155A
330
D
100
AcDbEntity
 67
     1
  8
AM_VIS
100
AcDbLine
 10
224.6244633183449
 20
209.9032114350414
 30
0.0
 11
225.2050199019457
 21
209.9032114350414
 31
0.0
  0
LINE
  5
155B
330
D
100
AcDbEntity
 67
     1
  8
AM_VIS
100
AcDbLine
 10
219.2855764855464
 20
209.9032114350412
 30
0.0
 11
224.6244633183448
 21
209.9032114350412
 31
0.0
  0
SPLINE
  5
155C
330
D
100
AcDbEntity
 67
     1
  8
AM_VIS
100
AcDbSpline
210
-0.0000000000000334
220
-0.0000000000000078
230
1.0
 70
    12
 71
     2
 72
     6
 73
     3
 74
     0
 42
0.0000000001
 43
0.0000000001
 40
0.0
 40
0.0
 40
0.0
 40
3.807113172039157
 40
3.807113172039157
 40
3.807113172039157
 10
219.2855764855464
 20
209.9032114350412
 30
0.0
 41
1.0
 10
218.7050199019453
 20
211.6448811858435
 30
0.0000000000001137
 41
1.037954849302101
 10
218.7050199019457
 20
213.1532114350412
 30
0.0
 41
1.0
  0
SPLINE
  5
155D
330
D
100
AcDbEntity
 67
     1
  8
AM_VIS
100
AcDbSpline
210
0.0
220
0.0
230
1.0
 70
    12
 71
     2
 72
     6
 73
     3
 74
     0
 42
0.0000000001
 43
0.0000000001
 40
3.807113172039157
 40
3.807113172039157
 40
3.807113172039157
 40
7.614226344078324
 40
7.614226344078324
 40
7.614226344078324
 10
218.7050199019457
 20
213.1532114350412
 30
0.0
 41
1.0
 10
218.7050199019455
 20
214.6615416842387
 30
0.0
 41
1.037954849302084
 10
219.2855764855464
 20
216.4032114350411
 30
0.0
 41
1.0
  0
SPLINE
  5
155E
330
D
100
AcDbEntity
 67
     1
  8
AM_VIS
100
AcDbSpline
210
0.0
220
0.0
230
1.0
 70
    12
 71
     2
 72
     6
 73
     3
 74
     0
 42
0.0000000001
 43
0.0000000001
 40
0.0
 40
0.0
 40
0.0
 40
3.807113172039119
 40
3.807113172039119
 40
3.807113172039119
 10
224.6244633183449
 20
216.4032114350411
 30
0.0
 41
1.0
 10
225.2050199019453
 20
214.6615416842387
 30
0.0
 41
1.037954849302022
 10
225.2050199019457
 20
213.1532114350412
 30
0.0
 41
1.0
  0
SPLINE
  5
155F
330
D
100
AcDbEntity
 67
     1
  8
AM_VIS
100
AcDbSpline
210
0.0
220
0.0
230
1.0
 70
    12
 71
     2
 72
     6
 73
     3
 74
     0
 42
0.0000000001
 43
0.0000000001
 40
3.807113172039119
 40
3.807113172039119
 40
3.807113172039119
 40
7.614226344078234
 40
7.614226344078234
 40
7.614226344078234
 10
225.2050199019457
 20
213.1532114350412
 30
0.0
 41
1.0
 10
225.2050199019456
 20
211.6448811858439
 30
0.0
 41
1.037954849302013
 10
224.6244633183449
 20
209.9032114350412
 30
0.0
 41
1.0
  0
LINE
  5
1560
330
D
100
AcDbEntity
 67
     1
  8
AM_VIS
100
AcDbLine
 10
219.2855764855464
 20
216.4032114350411
 30
0.0
 11
224.6244633183448
 21
216.4032114350411
 31
0.0
  0
SPLINE
  5
1561
330
D
100
AcDbEntity
 67
     1
  8
AM_VIS
100
AcDbSpline
210
-0.0000000000000334
220
-0.0000000000000078
230
1.0
 70
    12
 71
     2
 72
     6
 73
     3
 74
     0
 42
0.0000000001
 43
0.0000000001
 40
0.0
 40
0.0
 40
0.0
 40
3.80711317203916
 40
3.80711317203916
 40
3.80711317203916
 10
219.2855764855464
 20
216.4032114350414
 30
0.0
 41
1.0
 10
218.7050199019453
 20
218.1448811858431
 30
0.0000000000001137
 41
1.037954849302101
 10
218.7050199019457
 20
219.6532114350414
 30
0.0
 41
1.0
  0
SPLINE
  5
1562
330
D
100
AcDbEntity
 67
     1
  8
AM_VIS
100
AcDbSpline
210
0.0
220
0.0
230
1.0
 70
    12
 71
     2
 72
     6
 73
     3
 74
     0
 42
0.0000000001
 43
0.0000000001
 40
3.80711317203916
 40
3.80711317203916
 40
3.80711317203916
 40
7.614226344078314
 40
7.614226344078314
 40
7.614226344078314
 10
218.7050199019457
 20
219.6532114350414
 30
0.0
 41
1.0
 10
218.7050199019456
 20
221.161541684239
 30
0.0
 41
1.037954849302096
 10
219.2855764855464
 20
222.9032114350414
 30
0.0
 41
1.0
  0
SPLINE
  5
1563
330
D
100
AcDbEntity
 67
     1
  8
AM_VIS
100
AcDbSpline
210
0.0
220
0.0
230
1.0
 70
    12
 71
     2
 72
     6
 73
     3
 74
     0
 42
0.0000000001
 43
0.0000000001
 40
0.0
 40
0.0
 40
0.0
 40
3.807113172039111
 40
3.807113172039111
 40
3.807113172039111
 10
224.6244633183449
 20
222.9032114350414
 30
0.0
 41
1.0
 10
225.2050199019454
 20
221.1615416842388
 30
0.0
 41
1.037954849301991
 10
225.2050199019457
 20
219.6532114350414
 30
0.0
 41
1.0
  0
SPLINE
  5
1564
330
D
100
AcDbEntity
 67
     1
  8
AM_VIS
100
AcDbSpline
210
0.0
220
0.0
230
1.0
 70
    12
 71
     2
 72
     6
 73
     3
 74
     0
 42
0.0000000001
 43
0.0000000001
 40
3.807113172039111
 40
3.807113172039111
 40
3.807113172039111
 40
7.614226344078229
 40
7.614226344078229
 40
7.614226344078229
 10
225.2050199019457
 20
219.6532114350414
 30
0.0
 41
1.0
 10
225.2050199019454
 20
218.1448811858436
 30
0.0
 41
1.037954849302008
 10
224.6244633183449
 20
216.4032114350414
 30
0.0
 41
1.0
  0
LINE
  5
1565
330
D
100
AcDbEntity
 67
     1
  8
AM_VIS
100
AcDbLine
 10
224.6244633183449
 20
222.9032114350414
 30
0.0
 11
225.2050199019457
 21
222.9032114350414
 31
0.0
  0
LINE
  5
1566
330
D
100
AcDbEntity
 67
     1
  8
AM_VIS
100
AcDbLine
 10
219.2855764855464
 20
222.9032114350414
 30
0.0
 11
224.6244633183448
 21
222.9032114350414
 31
0.0
  0
LINE
  5
1567
330
D
100
AcDbEntity
 67
     1
  8
AM_VIS
100
AcDbLine
 10
218.7050199019457
 20
222.9032114350416
 30
0.0
 11
219.2855764855465
 21
222.9032114350416
 31
0.0
  0
LINE
  5
1568
330
D
100
AcDbEntity
 67
     1
  8
AM_VIS
100
AcDbLine
 10
225.7050199019456
 20
266.9032114350414
 30
0.0
 11
225.2050199019457
 21
266.9032114350414
 31
0.0
  0
LINE
  5
1569
330
D
100
AcDbEntity
 67
     1
  8
AM_VIS
100
AcDbLine
 10
225.2050199019457
 20
258.9032114350414
 30
0.0
 11
225.7050199019456
 21
258.9032114350414
 31
0.0
  0
LINE
  5
156A
330
D
100
AcDbEntity
 67
     1
  8
AM_VIS
100
AcDbLine
 10
218.7050199019457
 20
269.4032114350414
 30
0.0
 11
216.7050199019457
 21
269.4032114350414
 31
0.0
  0
LINE
  5
156B
330
D
100
AcDbEntity
 67
     1
  8
AM_VIS
100
AcDbLine
 10
216.7050199019457
 20
256.4032114350414
 30
0.0
 11
218.7050199019457
 21
256.4032114350414
 31
0.0
  0
LINE
  5
156C
330
D
100
AcDbEntity
 67
     1
  8
AM_VIS
100
AcDbLine
 10
226.7050199019457
 20
265.9032114350414
 30
0.0
 11
225.7050199019456
 21
266.9032114350414
 31
0.0
  0
LINE
  5
156D
330
D
100
AcDbEntity
 67
     1
  8
AM_VIS
100
AcDbLine
 10
225.7050199019456
 20
258.9032114350414
 30
0.0
 11
226.7050199019457
 21
259.9032114350414
 31
0.0
  0
LINE
  5
156E
330
D
100
AcDbEntity
 67
     1
  8
AM_VIS
100
AcDbLine
 10
218.7050199019457
 20
256.4032114350414
 30
0.0
 11
219.2855764855465
 21
256.4032114350414
 31
0.0
  0
LINE
  5
156F
330
D
100
AcDbEntity
 67
     1
  8
AM_VIS
100
AcDbLine
 10
224.6244633183449
 20
256.4032114350416
 30
0.0
 11
225.2050199019457
 21
256.4032114350416
 31
0.0
  0
LINE
  5
1570
330
D
100
AcDbEntity
 67
     1
  8
AM_VIS
100
AcDbLine
 10
219.2855764855464
 20
256.4032114350411
 30
0.0
 11
224.6244633183448
 21
256.4032114350411
 31
0.0
  0
SPLINE
  5
1571
330
D
100
AcDbEntity
 67
     1
  8
AM_VIS
100
AcDbSpline
210
-0.0000000000000334
220
-0.0000000000000078
230
1.0
 70
    12
 71
     2
 72
     6
 73
     3
 74
     0
 42
0.0000000001
 43
0.0000000001
 40
0.0
 40
0.0
 40
0.0
 40
3.807113172039157
 40
3.807113172039157
 40
3.807113172039157
 10
219.2855764855464
 20
256.4032114350411
 30
0.0
 41
1.0
 10
218.7050199019453
 20
258.1448811858432
 30
0.0000000000001137
 41
1.037954849302101
 10
218.7050199019457
 20
259.6532114350412
 30
0.0
 41
1.0
  0
SPLINE
  5
1572
330
D
100
AcDbEntity
 67
     1
  8
AM_VIS
100
AcDbSpline
210
0.0
220
0.0
230
1.0
 70
    12
 71
     2
 72
     6
 73
     3
 74
     0
 42
0.0000000001
 43
0.0000000001
 40
3.807113172039157
 40
3.807113172039157
 40
3.807113172039157
 40
7.614226344078324
 40
7.614226344078324
 40
7.614226344078324
 10
218.7050199019457
 20
259.6532114350412
 30
0.0
 41
1.0
 10
218.7050199019455
 20
261.1615416842389
 30
0.0
 41
1.037954849302084
 10
219.2855764855464
 20
262.9032114350414
 30
0.0
 41
1.0
  0
SPLINE
  5
1573
330
D
100
AcDbEntity
 67
     1
  8
AM_VIS
100
AcDbSpline
210
0.0
220
0.0
230
1.0
 70
    12
 71
     2
 72
     6
 73
     3
 74
     0
 42
0.0000000001
 43
0.0000000001
 40
0.0
 40
0.0
 40
0.0
 40
3.807113172039119
 40
3.807113172039119
 40
3.807113172039119
 10
224.6244633183449
 20
262.9032114350414
 30
0.0
 41
1.0
 10
225.2050199019453
 20
261.1615416842389
 30
0.0
 41
1.037954849302022
 10
225.2050199019457
 20
259.6532114350412
 30
0.0
 41
1.0
  0
SPLINE
  5
1574
330
D
100
AcDbEntity
 67
     1
  8
AM_VIS
100
AcDbSpline
210
0.0
220
0.0
230
1.0
 70
    12
 71
     2
 72
     6
 73
     3
 74
     0
 42
0.0000000001
 43
0.0000000001
 40
3.807113172039119
 40
3.807113172039119
 40
3.807113172039119
 40
7.614226344078234
 40
7.614226344078234
 40
7.614226344078234
 10
225.2050199019457
 20
259.6532114350412
 30
0.0
 41
1.0
 10
225.2050199019456
 20
258.1448811858438
 30
0.0
 41
1.037954849302013
 10
224.6244633183449
 20
256.4032114350411
 30
0.0
 41
1.0
  0
LINE
  5
1575
330
D
100
AcDbEntity
 67
     1
  8
AM_VIS
100
AcDbLine
 10
219.2855764855464
 20
262.9032114350414
 30
0.0
 11
224.6244633183448
 21
262.9032114350414
 31
0.0
  0
SPLINE
  5
1576
330
D
100
AcDbEntity
 67
     1
  8
AM_VIS
100
AcDbSpline
210
0.0000000000000334
220
0.0000000000000078
230
-1.0
 70
    12
 71
     2
 72
     6
 73
     3
 74
     0
 42
0.0000000001
 43
0.0000000001
 40
0.0
 40
0.0
 40
0.0
 40
3.80711317203916
 40
3.80711317203916
 40
3.80711317203916
 10
219.2855764855464
 20
262.9032114350414
 30
0.0
 41
1.0
 10
218.7050199019453
 20
264.6448811858435
 30
0.0000000000001137
 41
1.037954849302101
 10
218.7050199019457
 20
266.1532114350414
 30
0.0
 41
1.0
  0
SPLINE
  5
1577
330
D
100
AcDbEntity
 67
     1
  8
AM_VIS
100
AcDbSpline
210
0.0
220
0.0
230
1.0
 70
    12
 71
     2
 72
     6
 73
     3
 74
     0
 42
0.0000000001
 43
0.0000000001
 40
3.80711317203916
 40
3.80711317203916
 40
3.80711317203916
 40
7.614226344078314
 40
7.614226344078314
 40
7.614226344078314
 10
218.7050199019457
 20
266.1532114350414
 30
0.0
 41
1.0
 10
218.7050199019456
 20
267.6615416842389
 30
0.0
 41
1.037954849302096
 10
219.2855764855464
 20
269.4032114350414
 30
0.0
 41
1.0
  0
SPLINE
  5
1578
330
D
100
AcDbEntity
 67
     1
  8
AM_VIS
100
AcDbSpline
210
0.0
220
0.0
230
1.0
 70
    12
 71
     2
 72
     6
 73
     3
 74
     0
 42
0.0000000001
 43
0.0000000001
 40
0.0
 40
0.0
 40
0.0
 40
3.807113172039111
 40
3.807113172039111
 40
3.807113172039111
 10
224.6244633183449
 20
269.4032114350414
 30
0.0
 41
1.0
 10
225.2050199019454
 20
267.6615416842389
 30
0.0
 41
1.037954849301991
 10
225.2050199019457
 20
266.1532114350414
 30
0.0
 41
1.0
  0
SPLINE
  5
1579
330
D
100
AcDbEntity
 67
     1
  8
AM_VIS
100
AcDbSpline
210
0.0
220
0.0
230
1.0
 70
    12
 71
     2
 72
     6
 73
     3
 74
     0
 42
0.0000000001
 43
0.0000000001
 40
3.807113172039111
 40
3.807113172039111
 40
3.807113172039111
 40
7.614226344078229
 40
7.614226344078229
 40
7.614226344078229
 10
225.2050199019457
 20
266.1532114350414
 30
0.0
 41
1.0
 10
225.2050199019454
 20
264.6448811858436
 30
0.0
 41
1.037954849302008
 10
224.6244633183449
 20
262.9032114350414
 30
0.0
 41
1.0
  0
LINE
  5
157A
330
D
100
AcDbEntity
 67
     1
  8
AM_VIS
100
AcDbLine
 10
224.6244633183449
 20
269.4032114350414
 30
0.0
 11
225.2050199019457
 21
269.4032114350414
 31
0.0
  0
LINE
  5
157B
330
D
100
AcDbEntity
 67
     1
  8
AM_VIS
100
AcDbLine
 10
219.2855764855464
 20
269.4032114350414
 30
0.0
 11
224.6244633183448
 21
269.4032114350414
 31
0.0
  0
LINE
  5
157C
330
D
100
AcDbEntity
 67
     1
  8
AM_VIS
100
AcDbLine
 10
218.7050199019457
 20
269.4032114350414
 30
0.0
 11
219.2855764855464
 21
269.4032114350414
 31
0.0
  0
LINE
  5
1585
330
D
100
AcDbEntity
 67
     1
  8
AM_VIS
100
AcDbLine
 10
225.7050199019456
 20
220.4032114350414
 30
0.0
 11
225.7050199019456
 21
212.4032114350414
 31
0.0
  0
LINE
  5
1586
330
D
100
AcDbEntity
 67
     1
  8
AM_VIS
100
AcDbLine
 10
226.7050199019457
 20
219.4032114350414
 30
0.0
 11
226.7050199019457
 21
213.4032114350414
 31
0.0
  0
LINE
  5
1587
330
D
100
AcDbEntity
 67
     1
  8
AM_VIS
100
AcDbLine
 10
218.7050199019457
 20
219.6532114350414
 30
0.0
 11
218.7050199019457
 21
222.9032114350414
 31
0.0
  0
LINE
  5
1588
330
D
100
AcDbEntity
 67
     1
  8
AM_VIS
100
AcDbLine
 10
218.7050199019457
 20
213.1532114350414
 30
0.0
 11
218.7050199019457
 21
219.6532114350414
 31
0.0
  0
LINE
  5
1589
330
D
100
AcDbEntity
 67
     1
  8
AM_VIS
100
AcDbLine
 10
218.7050199019457
 20
209.9032114350414
 30
0.0
 11
218.7050199019457
 21
213.1532114350414
 31
0.0
  0
LINE
  5
158A
330
D
100
AcDbEntity
 67
     1
  8
AM_VIS
100
AcDbLine
 10
225.2050199019457
 20
213.1532114350416
 30
0.0
 11
225.2050199019457
 21
209.9032114350418
 31
0.0
  0
LINE
  5
158B
330
D
100
AcDbEntity
 67
     1
  8
AM_VIS
100
AcDbLine
 10
225.2050199019457
 20
219.6532114350412
 30
0.0
 11
225.2050199019457
 21
213.1532114350416
 31
0.0
  0
LINE
  5
158C
330
D
100
AcDbEntity
 67
     1
  8
AM_VIS
100
AcDbLine
 10
225.2050199019457
 20
222.9032114350409
 30
0.0
 11
225.2050199019457
 21
219.6532114350412
 31
0.0
  0
LINE
  5
158D
330
D
100
AcDbEntity
 67
     1
  8
AM_VIS
100
AcDbLine
 10
225.7050199019456
 20
266.9032114350414
 30
0.0
 11
225.7050199019456
 21
258.9032114350414
 31
0.0
  0
LINE
  5
158E
330
D
100
AcDbEntity
 67
     1
  8
AM_VIS
100
AcDbLine
 10
226.7050199019457
 20
265.9032114350414
 30
0.0
 11
226.7050199019457
 21
259.9032114350414
 31
0.0
  0
LINE
  5
158F
330
D
100
AcDbEntity
 67
     1
  8
AM_VIS
100
AcDbLine
 10
218.7050199019457
 20
266.1532114350414
 30
0.0
 11
218.7050199019457
 21
269.4032114350414
 31
0.0
  0
LINE
  5
1590
330
D
100
AcDbEntity
 67
     1
  8
AM_VIS
100
AcDbLine
 10
218.7050199019457
 20
259.6532114350414
 30
0.0
 11
218.7050199019457
 21
266.1532114350414
 31
0.0
  0
LINE
  5
1591
330
D
100
AcDbEntity
 67
     1
  8
AM_VIS
100
AcDbLine
 10
218.7050199019457
 20
256.4032114350414
 30
0.0
 11
218.7050199019457
 21
259.6532114350414
 31
0.0
  0
LINE
  5
1592
330
D
100
AcDbEntity
 67
     1
  8
AM_VIS
100
AcDbLine
 10
225.2050199019457
 20
259.6532114350416
 30
0.0
 11
225.2050199019457
 21
256.4032114350419
 31
0.0
  0
LINE
  5
1593
330
D
100
AcDbEntity
 67
     1
  8
AM_VIS
100
AcDbLine
 10
225.2050199019457
 20
266.1532114350412
 30
0.0
 11
225.2050199019457
 21
259.6532114350416
 31
0.0
  0
LINE
  5
1594
330
D
100
AcDbEntity
 67
     1
  8
AM_VIS
100
AcDbLine
 10
225.2050199019457
 20
269.403211435041
 30
0.0
 11
225.2050199019457
 21
266.1532114350412
 31
0.0
  0
DIMENSION
  5
15B2
330
D
100
AcDbEntity
 67
     1
  8
AM_5
100
AcDbDimension
  2
*D15
 10
238.6632786473186
 20
120.8044112259016
 30
0.0
 11
257.151567274743
 21
90.71379884255238
 31
0.0
 70
   163
  1
G1/8
 71
     5
 42
10.16644999999994
  3
AM_ISO$3
100
AcDbDiametricDimension
 15
242.7467611565726
 25
111.4941010162944
 35
0.0
 40
0.0
1001
ACAD
1000
DSTYLE
1002
{
1070
   272
1070
     8
1002
}
  0
LINE
  5
15E9
330
D
100
AcDbEntity
 67
     1
  8
AM_7
100
AcDbLine
 10
240.7050199019457
 20
116.1492561210979
 30
0.0
 11
240.7050199019457
 21
116.1492561210979
 31
0.0
  0
LINE
  5
15EA
330
D
100
AcDbEntity
 67
     1
  8
AM_7
100
AcDbLine
 10
240.7050199019457
 20
116.1492561210979
 30
0.0
 11
240.7050199019457
 21
116.1492561210979
 31
0.0
  0
LINE
  5
15EB
330
D
100
AcDbEntity
 67
     1
  8
AM_7
100
AcDbLine
 10
232.7050199019457
 20
116.1492561210979
 30
0.0
 11
240.7050199019457
 21
116.1492561210979
 31
0.0
  0
LINE
  5
15EC
330
D
100
AcDbEntity
 67
     1
  8
AM_7
100
AcDbLine
 10
240.7050199019457
 20
116.1492561210979
 30
0.0
 11
248.7050199019456
 21
116.1492561210979
 31
0.0
  0
LINE
  5
15ED
330
D
100
AcDbEntity
 67
     1
  8
AM_7
100
AcDbLine
 10
240.7050199019457
 20
108.1492561210979
 30
0.0
 11
240.7050199019457
 21
116.1492561210979
 31
0.0
  0
LINE
  5
15EE
330
D
100
AcDbEntity
 67
     1
  8
AM_7
100
AcDbLine
 10
240.7050199019457
 20
116.1492561210979
 30
0.0
 11
240.7050199019457
 21
124.1492561210979
 31
0.0
  0
ARC
  5
172F
330
D
100
AcDbEntity
 67
     1
  8
AM_VIS
100
AcDbCircle
 10
100.2050199019456
 20
221.1532114350411
 30
0.0
 40
1.5
100
AcDbArc
 50
180.0
 51
270.0
  0
ARC
  5
1730
330
D
100
AcDbEntity
 67
     1
  8
AM_VIS
100
AcDbCircle
 10
100.2050199019456
 20
258.1532114350411
 30
0.0
 40
1.5
100
AcDbArc
 50
90.0
 51
180.0
  0
LINE
  5
1731
330
D
100
AcDbEntity
 67
     1
  8
AM_VIS
100
AcDbLine
 10
98.70501990194567
 20
221.1532114350413
 30
0.0
 11
98.70501990194567
 21
258.1532114350413
 31
0.0
  0
CIRCLE
  5
1732
330
D
100
AcDbEntity
 67
     1
  8
AM_VIS
100
AcDbCircle
 10
121.7050199019456
 20
245.6532114350411
 30
0.0
 40
3.5
  0
CIRCLE
  5
1733
330
D
100
AcDbEntity
 67
     1
  8
AM_VIS
100
AcDbCircle
 10
121.7050199019456
 20
245.6532114350411
 30
0.0
 40
3.949999999999999
  0
CIRCLE
  5
1734
330
D
100
AcDbEntity
 67
     1
  8
AM_VIS
100
AcDbCircle
 10
189.7050199019456
 20
245.6532114350411
 30
0.0
 40
3.5
  0
CIRCLE
  5
1735
330
D
100
AcDbEntity
 67
     1
  8
AM_VIS
100
AcDbCircle
 10
189.7050199019456
 20
245.6532114350411
 30
0.0
 40
3.949999999999999
  0
CIRCLE
  5
1736
330
D
100
AcDbEntity
 67
     1
  8
AM_VIS
100
AcDbCircle
 10
118.7050199019456
 20
231.1532114350411
 30
0.0
 40
6.500000000000004
  0
CIRCLE
  5
1737
330
D
100
AcDbEntity
 67
     1
  8
AM_VIS
100
AcDbCircle
 10
118.7050199019456
 20
231.1532114350411
 30
0.0
 40
5.7
  0
CIRCLE
  5
1738
330
D
100
AcDbEntity
 67
     1
  8
AM_VIS
100
AcDbCircle
 10
192.7050199019456
 20
231.1532114350411
 30
0.0
 40
6.499999999999994
  0
CIRCLE
  5
1739
330
D
100
AcDbEntity
 67
     1
  8
AM_VIS
100
AcDbCircle
 10
192.7050199019456
 20
231.1532114350411
 30
0.0
 40
5.7
  0
LINE
  5
173A
330
D
100
AcDbEntity
 67
     1
  8
AM_VIS
100
AcDbLine
 10
102.7050199019456
 20
207.1532114350413
 30
0.0
 11
102.7050199019456
 21
214.4032114350413
 31
0.0
  0
LINE
  5
173B
330
D
100
AcDbEntity
 67
     1
  8
AM_VIS
100
AcDbLine
 10
102.7050199019456
 20
264.9032114350413
 30
0.0
 11
102.7050199019456
 21
272.1532114350413
 31
0.0
  0
LINE
  5
173C
330
D
100
AcDbEntity
 67
     1
  8
AM_VIS
100
AcDbLine
 10
133.7050199019456
 20
214.4032114350413
 30
0.0
 11
133.7050199019456
 21
207.1532114350413
 31
0.0
  0
LINE
  5
173D
330
D
100
AcDbEntity
 67
     1
  8
AM_VIS
100
AcDbLine
 10
133.7050199019456
 20
272.1532114350413
 30
0.0
 11
133.7050199019456
 21
264.9032114350413
 31
0.0
  0
LINE
  5
173E
330
D
100
AcDbEntity
 67
     1
  8
AM_VIS
100
AcDbLine
 10
208.7050199019456
 20
272.1532114350413
 30
0.0
 11
208.7050199019456
 21
262.8532114350411
 31
0.0
  0
LINE
  5
173F
330
D
100
AcDbEntity
 67
     1
  8
AM_VIS
100
AcDbLine
 10
208.7050199019456
 20
216.453211435041
 30
0.0
 11
208.7050199019456
 21
207.1532114350413
 31
0.0
  0
LINE
  5
1740
330
D
100
AcDbEntity
 67
     1
  8
AM_VIS
100
AcDbLine
 10
177.7050199019456
 20
262.8532114350411
 30
0.0
 11
177.7050199019456
 21
272.1532114350413
 31
0.0
  0
LINE
  5
1741
330
D
100
AcDbEntity
 67
     1
  8
AM_VIS
100
AcDbLine
 10
177.7050199019456
 20
207.1532114350413
 30
0.0
 11
177.7050199019456
 21
216.453211435041
 31
0.0
  0
LINE
  5
1742
330
D
100
AcDbEntity
 67
     1
  8
AM_VIS
100
AcDbLine
 10
102.7050199019456
 20
219.6532114350413
 30
0.0
 11
100.2050199019456
 21
219.6532114350413
 31
0.0
  0
LINE
  5
1743
330
D
100
AcDbEntity
 67
     1
  8
AM_VIS
100
AcDbLine
 10
102.7050199019456
 20
259.6532114350413
 30
0.0
 11
100.2050199019456
 21
259.6532114350413
 31
0.0
  0
LINE
  5
1744
330
D
100
AcDbEntity
 67
     1
  8
AM_VIS
100
AcDbLine
 10
177.7050199019456
 20
209.6532114350412
 30
0.0
 11
133.7050199019456
 21
209.6532114350412
 31
0.0
  0
LINE
  5
1745
330
D
100
AcDbEntity
 67
     1
  8
AM_VIS
100
AcDbLine
 10
102.7050199019456
 20
264.9032114350413
 30
0.0
 11
102.7050199019456
 21
214.4032114350413
 31
0.0
  0
LINE
  5
1746
330
D
100
AcDbEntity
 67
     1
  8
AM_VIS
100
AcDbLine
 10
102.7050199019456
 20
207.1532114350413
 30
0.0
 11
133.7050199019456
 21
207.1532114350413
 31
0.0
  0
LINE
  5
1747
330
D
100
AcDbEntity
 67
     1
  8
AM_VIS
100
AcDbLine
 10
133.7050199019456
 20
214.4032114350413
 30
0.0
 11
133.7050199019456
 21
264.9032114350413
 31
0.0
  0
LINE
  5
1748
330
D
100
AcDbEntity
 67
     1
  8
AM_VIS
100
AcDbLine
 10
133.7050199019456
 20
272.1532114350413
 30
0.0
 11
102.7050199019456
 21
272.1532114350413
 31
0.0
  0
LINE
  5
1749
330
D
100
AcDbEntity
 67
     1
  8
AM_VIS
100
AcDbLine
 10
208.7050199019456
 20
262.8532114350411
 30
0.0
 11
208.7050199019456
 21
216.453211435041
 31
0.0
  0
LINE
  5
174A
330
D
100
AcDbEntity
 67
     1
  8
AM_VIS
100
AcDbLine
 10
177.7050199019456
 20
262.8532114350411
 30
0.0
 11
177.7050199019456
 21
216.453211435041
 31
0.0
  0
LINE
  5
174B
330
D
100
AcDbEntity
 67
     1
  8
AM_VIS
100
AcDbLine
 10
208.7050199019456
 20
272.1532114350413
 30
0.0
 11
177.7050199019456
 21
272.1532114350413
 31
0.0
  0
LINE
  5
174C
330
D
100
AcDbEntity
 67
     1
  8
AM_VIS
100
AcDbLine
 10
177.7050199019456
 20
207.1532114350413
 30
0.0
 11
208.7050199019456
 21
207.1532114350413
 31
0.0
  0
LINE
  5
174D
330
D
100
AcDbEntity
 67
     1
  8
AM_VIS
100
AcDbLine
 10
177.7050199019456
 20
225.203211435041
 30
0.0
 11
133.7050199019456
 21
225.203211435041
 31
0.0
  0
LINE
  5
174E
330
D
100
AcDbEntity
 67
     1
  8
AM_VIS
100
AcDbLine
 10
177.7050199019456
 20
230.5032114350412
 30
0.0
 11
133.7050199019456
 21
230.5032114350412
 31
0.0
  0
LINE
  5
174F
330
D
100
AcDbEntity
 67
     1
  8
AM_VIS
100
AcDbLine
 10
177.7050199019456
 20
269.6532114350413
 30
0.0
 11
133.7050199019456
 21
269.6532114350413
 31
0.0
  0
LINE
  5
1750
330
D
100
AcDbEntity
 67
     1
  8
CEN
100
AcDbLine
 10
189.7050199019456
 20
250.653211435041
 30
0.0
 11
189.7050199019456
 21
240.653211435041
 31
0.0
  0
LINE
  5
1751
330
D
100
AcDbEntity
 67
     1
  8
CEN
100
AcDbLine
 10
184.7050199019456
 20
245.6532114350411
 30
0.0
 11
194.7050199019456
 21
245.6532114350411
 31
0.0
  0
LINE
  5
1752
330
D
100
AcDbEntity
 67
     1
  8
CEN
100
AcDbLine
 10
121.7050199019456
 20
250.6532114350411
 30
0.0
 11
121.7050199019456
 21
240.6532114350411
 31
0.0
  0
LINE
  5
1753
330
D
100
AcDbEntity
 67
     1
  8
CEN
100
AcDbLine
 10
116.7050199019456
 20
245.6532114350411
 30
0.0
 11
126.7050199019456
 21
245.6532114350411
 31
0.0
  0
LINE
  5
1754
330
D
100
AcDbEntity
 67
     1
  8
AM_7
100
AcDbLine
 10
119.4550199019456
 20
231.1532114350411
 30
0.0
 11
117.9550199019456
 21
231.1532114350411
 31
0.0
  0
LINE
  5
1755
330
D
100
AcDbEntity
 67
     1
  8
AM_7
100
AcDbLine
 10
118.7050199019456
 20
231.9032114350411
 30
0.0
 11
118.7050199019456
 21
230.4032114350411
 31
0.0
  0
LINE
  5
1756
330
D
100
AcDbEntity
 67
     1
  8
AM_7
100
AcDbLine
 10
128.0050199019454
 20
231.1532114350411
 30
0.0
 11
120.2550199019454
 21
231.1532114350411
 31
0.0
  0
LINE
  5
1757
330
D
100
AcDbEntity
 67
     1
  8
AM_7
100
AcDbLine
 10
117.1550199019455
 20
231.1532114350411
 30
0.0
 11
109.4050199019455
 21
231.1532114350411
 31
0.0
  0
LINE
  5
1758
330
D
100
AcDbEntity
 67
     1
  8
AM_7
100
AcDbLine
 10
118.7050199019456
 20
240.453211435041
 30
0.0
 11
118.7050199019456
 21
232.703211435041
 31
0.0
  0
LINE
  5
1759
330
D
100
AcDbEntity
 67
     1
  8
AM_7
100
AcDbLine
 10
118.7050199019456
 20
229.6032114350411
 30
0.0
 11
118.7050199019456
 21
221.8532114350411
 31
0.0
  0
LINE
  5
175A
330
D
100
AcDbEntity
 67
     1
  8
AM_7
100
AcDbLine
 10
193.4550199019456
 20
231.1532114350411
 30
0.0
 11
191.9550199019456
 21
231.1532114350411
 31
0.0
  0
LINE
  5
175B
330
D
100
AcDbEntity
 67
     1
  8
AM_7
100
AcDbLine
 10
192.7050199019456
 20
231.903211435041
 30
0.0
 11
192.7050199019456
 21
230.403211435041
 31
0.0
  0
LINE
  5
175C
330
D
100
AcDbEntity
 67
     1
  8
AM_7
100
AcDbLine
 10
202.0050199019454
 20
231.1532114350411
 30
0.0
 11
194.2550199019454
 21
231.1532114350411
 31
0.0
  0
LINE
  5
175D
330
D
100
AcDbEntity
 67
     1
  8
AM_7
100
AcDbLine
 10
191.1550199019455
 20
231.1532114350411
 30
0.0
 11
183.4050199019455
 21
231.1532114350411
 31
0.0
  0
LINE
  5
175E
330
D
100
AcDbEntity
 67
     1
  8
AM_7
100
AcDbLine
 10
192.7050199019456
 20
240.453211435041
 30
0.0
 11
192.7050199019456
 21
232.703211435041
 31
0.0
  0
LINE
  5
175F
330
D
100
AcDbEntity
 67
     1
  8
AM_7
100
AcDbLine
 10
192.7050199019456
 20
229.6032114350411
 30
0.0
 11
192.7050199019456
 21
221.8532114350411
 31
0.0
  0
ARC
  5
1760
330
D
100
AcDbEntity
 67
     1
  8
AM_VIS
100
AcDbCircle
 10
100.2050199019456
 20
118.3992561210979
 30
0.0
 40
1.5
100
AcDbArc
 50
180.0
 51
270.0
  0
ARC
  5
1761
330
D
100
AcDbEntity
 67
     1
  8
AM_VIS
100
AcDbCircle
 10
100.2050199019456
 20
155.3992561210979
 30
0.0
 40
1.5
100
AcDbArc
 50
90.0
 51
180.0
  0
LINE
  5
1762
330
D
100
AcDbEntity
 67
     1
  8
AM_VIS
100
AcDbLine
 10
98.70501990194567
 20
118.3992561210982
 30
0.0
 11
98.70501990194567
 21
155.3992561210981
 31
0.0
  0
CIRCLE
  5
1763
330
D
100
AcDbEntity
 67
     1
  8
AM_VIS
100
AcDbCircle
 10
121.7050199019456
 20
142.8992561210979
 30
0.0
 40
3.5
  0
CIRCLE
  5
1764
330
D
100
AcDbEntity
 67
     1
  8
AM_VIS
100
AcDbCircle
 10
121.7050199019456
 20
142.8992561210979
 30
0.0
 40
3.949999999999999
  0
CIRCLE
  5
1765
330
D
100
AcDbEntity
 67
     1
  8
AM_VIS
100
AcDbCircle
 10
189.7050199019456
 20
142.8992561210979
 30
0.0
 40
3.5
  0
CIRCLE
  5
1766
330
D
100
AcDbEntity
 67
     1
  8
AM_VIS
100
AcDbCircle
 10
189.7050199019456
 20
142.8992561210979
 30
0.0
 40
3.949999999999999
  0
CIRCLE
  5
1767
330
D
100
AcDbEntity
 67
     1
  8
AM_VIS
100
AcDbCircle
 10
118.7050199019456
 20
128.3992561210979
 30
0.0
 40
6.500000000000004
  0
CIRCLE
  5
1768
330
D
100
AcDbEntity
 67
     1
  8
AM_VIS
100
AcDbCircle
 10
118.7050199019456
 20
128.3992561210979
 30
0.0
 40
5.7
  0
CIRCLE
  5
1769
330
D
100
AcDbEntity
 67
     1
  8
AM_VIS
100
AcDbCircle
 10
192.7050199019456
 20
128.3992561210979
 30
0.0
 40
6.499999999999994
  0
CIRCLE
  5
176A
330
D
100
AcDbEntity
 67
     1
  8
AM_VIS
100
AcDbCircle
 10
192.7050199019456
 20
128.3992561210979
 30
0.0
 40
5.7
  0
LINE
  5
176B
330
D
100
AcDbEntity
 67
     1
  8
AM_VIS
100
AcDbLine
 10
102.7050199019456
 20
104.3992561210981
 30
0.0
 11
102.7050199019456
 21
111.6492561210981
 31
0.0
  0
LINE
  5
176C
330
D
100
AcDbEntity
 67
     1
  8
AM_VIS
100
AcDbLine
 10
102.7050199019456
 20
162.1492561210982
 30
0.0
 11
102.7050199019456
 21
169.3992561210982
 31
0.0
  0
LINE
  5
176D
330
D
100
AcDbEntity
 67
     1
  8
AM_VIS
100
AcDbLine
 10
133.7050199019456
 20
111.6492561210981
 30
0.0
 11
133.7050199019456
 21
104.3992561210981
 31
0.0
  0
LINE
  5
176E
330
D
100
AcDbEntity
 67
     1
  8
AM_VIS
100
AcDbLine
 10
133.7050199019456
 20
169.3992561210982
 30
0.0
 11
133.7050199019456
 21
162.1492561210982
 31
0.0
  0
LINE
  5
176F
330
D
100
AcDbEntity
 67
     1
  8
AM_VIS
100
AcDbLine
 10
208.7050199019456
 20
169.3992561210981
 30
0.0
 11
208.7050199019456
 21
160.0992561210979
 31
0.0
  0
LINE
  5
1770
330
D
100
AcDbEntity
 67
     1
  8
AM_VIS
100
AcDbLine
 10
208.7050199019456
 20
113.6992561210979
 30
0.0
 11
208.7050199019456
 21
104.3992561210981
 31
0.0
  0
LINE
  5
1771
330
D
100
AcDbEntity
 67
     1
  8
AM_VIS
100
AcDbLine
 10
177.7050199019456
 20
160.099256121098
 30
0.0
 11
177.7050199019456
 21
169.3992561210982
 31
0.0
  0
LINE
  5
1772
330
D
100
AcDbEntity
 67
     1
  8
AM_VIS
100
AcDbLine
 10
177.7050199019456
 20
104.3992561210981
 30
0.0
 11
177.7050199019456
 21
113.6992561210979
 31
0.0
  0
LINE
  5
1773
330
D
100
AcDbEntity
 67
     1
  8
AM_VIS
100
AcDbLine
 10
102.7050199019456
 20
116.8992561210981
 30
0.0
 11
100.2050199019456
 21
116.8992561210981
 31
0.0
  0
LINE
  5
1774
330
D
100
AcDbEntity
 67
     1
  8
AM_VIS
100
AcDbLine
 10
102.7050199019456
 20
156.8992561210982
 30
0.0
 11
100.2050199019456
 21
156.8992561210982
 31
0.0
  0
LINE
  5
1775
330
D
100
AcDbEntity
 67
     1
  8
AM_VIS
100
AcDbLine
 10
177.7050199019456
 20
106.8992561210981
 30
0.0
 11
133.7050199019456
 21
106.8992561210981
 31
0.0
  0
LINE
  5
1776
330
D
100
AcDbEntity
 67
     1
  8
AM_VIS
100
AcDbLine
 10
102.7050199019456
 20
162.1492561210982
 30
0.0
 11
102.7050199019456
 21
111.6492561210981
 31
0.0
  0
LINE
  5
1777
330
D
100
AcDbEntity
 67
     1
  8
AM_VIS
100
AcDbLine
 10
102.7050199019456
 20
104.3992561210981
 30
0.0
 11
133.7050199019456
 21
104.3992561210981
 31
0.0
  0
LINE
  5
1778
330
D
100
AcDbEntity
 67
     1
  8
AM_VIS
100
AcDbLine
 10
133.7050199019456
 20
111.6492561210981
 30
0.0
 11
133.7050199019456
 21
162.1492561210982
 31
0.0
  0
LINE
  5
1779
330
D
100
AcDbEntity
 67
     1
  8
AM_VIS
100
AcDbLine
 10
133.7050199019456
 20
169.3992561210982
 30
0.0
 11
102.7050199019456
 21
169.3992561210982
 31
0.0
  0
LINE
  5
177A
330
D
100
AcDbEntity
 67
     1
  8
AM_VIS
100
AcDbLine
 10
208.7050199019456
 20
160.0992561210979
 30
0.0
 11
208.7050199019456
 21
113.6992561210979
 31
0.0
  0
LINE
  5
177B
330
D
100
AcDbEntity
 67
     1
  8
AM_VIS
100
AcDbLine
 10
177.7050199019456
 20
160.099256121098
 30
0.0
 11
177.7050199019456
 21
113.6992561210979
 31
0.0
  0
LINE
  5
177C
330
D
100
AcDbEntity
 67
     1
  8
AM_VIS
100
AcDbLine
 10
208.7050199019456
 20
169.3992561210981
 30
0.0
 11
177.7050199019456
 21
169.3992561210982
 31
0.0
  0
LINE
  5
177D
330
D
100
AcDbEntity
 67
     1
  8
AM_VIS
100
AcDbLine
 10
177.7050199019456
 20
104.3992561210981
 30
0.0
 11
208.7050199019456
 21
104.3992561210981
 31
0.0
  0
LINE
  5
177E
330
D
100
AcDbEntity
 67
     1
  8
AM_VIS
100
AcDbLine
 10
177.7050199019456
 20
122.4492561210978
 30
0.0
 11
133.7050199019456
 21
122.4492561210978
 31
0.0
  0
LINE
  5
177F
330
D
100
AcDbEntity
 67
     1
  8
AM_VIS
100
AcDbLine
 10
177.7050199019456
 20
127.749256121098
 30
0.0
 11
133.7050199019456
 21
127.749256121098
 31
0.0
  0
LINE
  5
1780
330
D
100
AcDbEntity
 67
     1
  8
AM_VIS
100
AcDbLine
 10
177.7050199019456
 20
166.8992561210981
 30
0.0
 11
133.7050199019456
 21
166.8992561210981
 31
0.0
  0
LINE
  5
1781
330
D
100
AcDbEntity
 67
     1
  8
CEN
100
AcDbLine
 10
189.7050199019456
 20
147.8992561210979
 30
0.0
 11
189.7050199019456
 21
137.8992561210979
 31
0.0
  0
LINE
  5
1782
330
D
100
AcDbEntity
 67
     1
  8
CEN
100
AcDbLine
 10
184.7050199019456
 20
142.8992561210979
 30
0.0
 11
194.7050199019456
 21
142.8992561210979
 31
0.0
  0
LINE
  5
1783
330
D
100
AcDbEntity
 67
     1
  8
CEN
100
AcDbLine
 10
121.7050199019456
 20
147.8992561210979
 30
0.0
 11
121.7050199019456
 21
137.8992561210979
 31
0.0
  0
LINE
  5
1784
330
D
100
AcDbEntity
 67
     1
  8
CEN
100
AcDbLine
 10
116.7050199019456
 20
142.8992561210979
 30
0.0
 11
126.7050199019456
 21
142.8992561210979
 31
0.0
  0
LINE
  5
1785
330
D
100
AcDbEntity
 67
     1
  8
AM_7
100
AcDbLine
 10
119.4550199019456
 20
128.3992561210979
 30
0.0
 11
117.9550199019456
 21
128.3992561210979
 31
0.0
  0
LINE
  5
1786
330
D
100
AcDbEntity
 67
     1
  8
AM_7
100
AcDbLine
 10
118.7050199019456
 20
129.1492561210979
 30
0.0
 11
118.7050199019456
 21
127.6492561210979
 31
0.0
  0
LINE
  5
1787
330
D
100
AcDbEntity
 67
     1
  8
AM_7
100
AcDbLine
 10
128.0050199019454
 20
128.3992561210979
 30
0.0
 11
120.2550199019454
 21
128.3992561210979
 31
0.0
  0
LINE
  5
1788
330
D
100
AcDbEntity
 67
     1
  8
AM_7
100
AcDbLine
 10
117.1550199019455
 20
128.3992561210979
 30
0.0
 11
109.4050199019455
 21
128.3992561210979
 31
0.0
  0
LINE
  5
1789
330
D
100
AcDbEntity
 67
     1
  8
AM_7
100
AcDbLine
 10
118.7050199019456
 20
137.6992561210979
 30
0.0
 11
118.7050199019456
 21
129.9492561210979
 31
0.0
  0
LINE
  5
178A
330
D
100
AcDbEntity
 67
     1
  8
AM_7
100
AcDbLine
 10
118.7050199019456
 20
126.849256121098
 30
0.0
 11
118.7050199019456
 21
119.099256121098
 31
0.0
  0
LINE
  5
178B
330
D
100
AcDbEntity
 67
     1
  8
AM_7
100
AcDbLine
 10
193.4550199019456
 20
128.3992561210979
 30
0.0
 11
191.9550199019456
 21
128.3992561210979
 31
0.0
  0
LINE
  5
178C
330
D
100
AcDbEntity
 67
     1
  8
AM_7
100
AcDbLine
 10
192.7050199019456
 20
129.1492561210979
 30
0.0
 11
192.7050199019456
 21
127.6492561210979
 31
0.0
  0
LINE
  5
178D
330
D
100
AcDbEntity
 67
     1
  8
AM_7
100
AcDbLine
 10
202.0050199019454
 20
128.3992561210979
 30
0.0
 11
194.2550199019454
 21
128.3992561210979
 31
0.0
  0
LINE
  5
178E
330
D
100
AcDbEntity
 67
     1
  8
AM_7
100
AcDbLine
 10
191.1550199019455
 20
128.3992561210979
 30
0.0
 11
183.4050199019455
 21
128.3992561210979
 31
0.0
  0
LINE
  5
178F
330
D
100
AcDbEntity
 67
     1
  8
AM_7
100
AcDbLine
 10
192.7050199019456
 20
137.6992561210979
 30
0.0
 11
192.7050199019456
 21
129.9492561210978
 31
0.0
  0
LINE
  5
1790
330
D
100
AcDbEntity
 67
     1
  8
AM_7
100
AcDbLine
 10
192.7050199019456
 20
126.8492561210979
 30
0.0
 11
192.7050199019456
 21
119.0992561210979
 31
0.0
  0
DIMENSION
  5
179A
330
D
100
AcDbEntity
 67
     1
  8
AM_5
100
AcDbDimension
  2
*D17
 10
86.70501890194563
 20
128.3992561210979
 30
0.0
 11
83.95501890194562
 21
132.6492561210979
 31
0.0
 70
    32
 71
     5
 42
8.499999999999971
  3
AM_ISO$0
100
AcDbAlignedDimension
 13
92.632976172584
 23
136.8992561210979
 33
0.0
 14
109.4050199019455
 24
128.3992561210979
 34
0.0
 50
90.0
100
AcDbRotatedDimension
1001
ACAD
1000
DSTYLE
1002
{
1070
    40
1040
1.0
1070
   144
1040
1.0
1070
   272
1070
     8
1002
}
  0
DIMENSION
  5
1A23
330
D
100
AcDbEntity
 67
     1
  8
AM_5
100
AcDbDimension
  2
*D20
 10
483.3700549772329
 20
82.10626995113143
 30
0.0
 11
460.1200549772329
 21
84.85626995113142
 31
0.0
 70
    32
  1
{\Famgdt;o}<>
 71
     5
 42
46.5
  3
AM_ISO$0
100
AcDbAlignedDimension
 13
436.8700549772329
 23
104.5024989927461
 33
0.0
 14
483.3700549772329
 24
104.5024989927461
 34
0.0
100
AcDbRotatedDimension
  0
DIMENSION
  5
1A24
330
D
100
AcDbEntity
 67
     1
  8
AM_5
100
AcDbDimension
  2
*D21
 10
492.6200549772329
 20
67.24427917115423
 30
0.0
 11
460.1200549772329
 21
69.99427917115423
 31
0.0
 70
    32
  1
{\Famgdt;o}<>
 71
     5
 42
65.0
  3
AM_ISO$0
100
AcDbAlignedDimension
 13
427.6200549772329
 23
105.774507126126
 33
0.0
 14
492.6200549772329
 24
105.774507126126
 34
0.0
100
AcDbRotatedDimension
  0
LEADER
  5
1A25
330
D
100
AcDbEntity
 67
     1
  8
AM_5
100
AcDbLeader
  3
AM_ISO$7
 76
     3
 10
439.7666802550152
 20
163.0971810721859
 30
0.0
 10
450.9907330766496
 20
183.0228400940427
 30
0.0
 10
479.0867843865553
 20
183.0228400940427
 30
0.0
1001
ACAD
1000
DSTYLE
1002
{
1070
    40
1040
1.5
1070
   140
1040
3.5
1070
   147
1040
1.0
1002
}
  0
TEXT
  5
1A26
330
D
100
AcDbEntity
 67
     1
  8
AM_5
100
AcDbText
 10
451.5559694939081
 20
184.0231519735553
 30
0.0
 40
3.5
  1
4-M8*14L
  7
CHINESET
100
AcDbText
  0
LINE
  5
1A27
330
D
100
AcDbEntity
 67
     1
  8
AM_VIS
100
AcDbLine
 10
491.2448039722049
 20
169.3992561210979
 30
0.0
 11
428.9953059822611
 21
169.3992561210979
 31
0.0
  0
ARC
  5
1A28
330
D
100
AcDbEntity
 67
     1
  8
AM_VIS
100
AcDbCircle
 10
460.1200549772329
 20
136.8992561210979
 30
0.0
 40
45.00000000000002
100
AcDbArc
 50
45.32539043561266
 51
46.23825730731985
  0
ARC
  5
1A29
330
D
100
AcDbEntity
 67
     1
  8
AM_VIS
100
AcDbCircle
 10
460.1200549772329
 20
136.8992561210979
 30
0.0
 40
45.00000000000002
100
AcDbArc
 50
43.7617426926836
 51
44.6746095643833
  0
LINE
  5
1A2A
330
D
100
AcDbEntity
 67
     1
  8
AM_VIS
100
AcDbLine
 10
492.6200549772329
 20
105.774507126126
 30
0.0
 11
492.6200549772329
 21
168.0240051160697
 31
0.0
  0
ARC
  5
1A2B
330
D
100
AcDbEntity
 67
     1
  8
AM_VIS
100
AcDbCircle
 10
460.1200549772329
 20
136.8992561210979
 30
0.0
 40
45.00000000000002
100
AcDbArc
 50
315.3253904356167
 51
316.2382573073164
  0
ARC
  5
1A2C
330
D
100
AcDbEntity
 67
     1
  8
AM_VIS
100
AcDbCircle
 10
460.1200549772329
 20
136.8992561210979
 30
0.0
 40
45.00000000000002
100
AcDbArc
 50
313.7617426926756
 51
314.6746095643873
  0
LINE
  5
1A2D
330
D
100
AcDbEntity
 67
     1
  8
AM_VIS
100
AcDbLine
 10
428.9953059822611
 20
104.3992561210978
 30
0.0
 11
491.2448039722047
 21
104.3992561210978
 31
0.0
  0
ARC
  5
1A2E
330
D
100
AcDbEntity
 67
     1
  8
AM_VIS
100
AcDbCircle
 10
460.1200549772329
 20
136.8992561210979
 30
0.0
 40
45.00000000000002
100
AcDbArc
 50
225.3253904356127
 51
226.2382573073244
  0
LINE
  5
1A2F
330
D
100
AcDbEntity
 67
     1
  8
AM_VIS
100
AcDbLine
 10
428.4814709381201
 20
168.8992561210979
 30
0.0
 11
491.7586390163457
 21
168.8992561210979
 31
0.0
  0
LINE
  5
1A30
330
D
100
AcDbEntity
 67
     1
  8
AM_VIS
100
AcDbLine
 10
492.1200549772329
 20
168.5378401602106
 30
0.0
 11
492.1200549772329
 21
105.2606720819851
 31
0.0
  0
LINE
  5
1A31
330
D
100
AcDbEntity
 67
     1
  8
AM_VIS
100
AcDbLine
 10
491.7586390163457
 20
104.8992561210978
 30
0.0
 11
428.4814709381203
 21
104.8992561210978
 31
0.0
  0
ARC
  5
1A32
330
D
100
AcDbEntity
 67
     1
  8
AM_VIS
100
AcDbCircle
 10
460.1200549772329
 20
136.8992561210979
 30
0.0
 40
45.00000000000002
100
AcDbArc
 50
133.7617426926755
 51
134.6746095643873
  0
LINE
  5
1A33
330
D
100
AcDbEntity
 67
     1
  8
AM_VIS
100
AcDbLine
 10
428.1200549772329
 20
105.2606720819851
 30
0.0
 11
428.1200549772329
 21
168.5378401602106
 31
0.0
  0
ARC
  5
1A34
330
D
100
AcDbEntity
 67
     1
  8
AM_VIS
100
AcDbCircle
 10
460.1200549772329
 20
136.8992561210979
 30
0.0
 40
45.00000000000002
100
AcDbArc
 50
223.7617426926836
 51
224.6746095643833
  0
LINE
  5
1A35
330
D
100
AcDbEntity
 67
     1
  8
AM_VIS
100
AcDbLine
 10
427.6200549772329
 20
168.0240051160697
 30
0.0
 11
427.6200549772329
 21
105.774507126126
 31
0.0
  0
ARC
  5
1A36
330
D
100
AcDbEntity
 67
     1
  8
AM_VIS
100
AcDbCircle
 10
460.1200549772329
 20
136.8992561210979
 30
0.0
 40
45.00000000000002
100
AcDbArc
 50
135.3253904356167
 51
136.2382573073164
  0
CIRCLE
  5
1A37
330
D
100
AcDbEntity
 67
     1
  8
AM_VIS
100
AcDbCircle
 10
436.8700549772329
 20
113.6492561210979
 30
0.0
 40
3.455999999999999
  0
CIRCLE
  5
1A38
330
D
100
AcDbEntity
 67
     1
  8
AM_VIS
100
AcDbCircle
 10
483.3700549772329
 20
160.1492561210979
 30
0.0
 40
3.455999999999999
  0
CIRCLE
  5
1A39
330
D
100
AcDbEntity
 67
     1
  8
AM_VIS
100
AcDbCircle
 10
436.8700549772329
 20
160.1492561210979
 30
0.0
 40
3.455999999999999
  0
CIRCLE
  5
1A3A
330
D
100
AcDbEntity
 67
     1
  8
AM_VIS
100
AcDbCircle
 10
483.3700549772329
 20
113.6492561210979
 30
0.0
 40
3.455999999999999
  0
ARC
  5
1A3B
330
D
100
AcDbEntity
 67
     1
  8
1
 48
3.0
100
AcDbCircle
 10
436.8700549772329
 20
113.6492561210979
 30
0.0
 40
4.155999999999998
100
AcDbArc
 50
251.1043797071503
 51
200.0734286904636
  0
ARC
  5
1A3C
330
D
100
AcDbEntity
 67
     1
  8
AM_VIS
100
AcDbCircle
 10
460.1200549772329
 20
136.8992561210979
 30
0.0
 40
45.0
100
AcDbArc
 50
44.6746095643833
 51
45.32539043561266
  0
ARC
  5
1A3D
330
D
100
AcDbEntity
 67
     1
  8
AM_VIS
100
AcDbCircle
 10
460.1200549772329
 20
136.8992561210979
 30
0.0
 40
45.0
100
AcDbArc
 50
314.6746095643873
 51
315.3253904356167
  0
ARC
  5
1A3E
330
D
100
AcDbEntity
 67
     1
  8
AM_VIS
100
AcDbCircle
 10
460.1200549772329
 20
136.8992561210979
 30
0.0
 40
45.0
100
AcDbArc
 50
224.6746095643833
 51
225.3253904356127
  0
ARC
  5
1A3F
330
D
100
AcDbEntity
 67
     1
  8
AM_VIS
100
AcDbCircle
 10
460.1200549772329
 20
136.8992561210979
 30
0.0
 40
45.0
100
AcDbArc
 50
134.6746095643873
 51
135.3253904356167
  0
LINE
  5
1A40
330
D
100
AcDbEntity
 67
     1
  8
AM_7
  6
AM_ISO08W050x2
100
AcDbLine
 10
444.3527538958043
 20
160.1492561210979
 30
0.0
 11
429.2933728025476
 21
160.1492561210979
 31
0.0
1001
GENIUS_GENOBJ-N-CEN_13
1002
{
1000
OWNER
1000
GEN
1002
}
1001
GENIUS_GENODEF_13
1002
{
1000
HIER
1070
     0
1002
}
1002
{
1000
MANEDIT
1070
     0
1002
}
1002
{
1000
NOSEL
1070
     0
1002
}
1002
{
1000
BEHIND
1070
     0
1002
}
1002
{
1000
OTHER
1070
     0
1002
}
1002
{
1000
REACTOR
1002
}
1001
GENIUS_GENCEN_19
1002
{
1040
4.5
1002
}
  0
LINE
  5
1A41
330
D
100
AcDbEntity
 67
     1
  8
AM_7
  6
AM_ISO08W050x2
100
AcDbLine
 10
436.8700549772329
 20
167.4642832109431
 30
0.0
 11
436.8700549772329
 21
151.0024989927461
 31
0.0
1001
GENIUS_GENOBJ-N-CEN_13
1002
{
1000
OWNER
1000
GEN
1002
}
1001
GENIUS_GENODEF_13
1002
{
1000
HIER
1070
     0
1002
}
1002
{
1000
MANEDIT
1070
     0
1002
}
1002
{
1000
NOSEL
1070
     0
1002
}
1002
{
1000
BEHIND
1070
     0
1002
}
1002
{
1000
OTHER
1070
     0
1002
}
1002
{
1000
REACTOR
1002
}
1001
GENIUS_GENCEN_19
1002
{
1040
4.5
1002
}
  0
LINE
  5
1A42
330
D
100
AcDbEntity
 67
     1
  8
AM_7
  6
AM_ISO08W050x2
100
AcDbLine
 10
490.8527538958042
 20
160.1492561210979
 30
0.0
 11
475.7933728025476
 21
160.1492561210979
 31
0.0
1001
GENIUS_GENOBJ-N-CEN_13
1002
{
1000
OWNER
1000
GEN
1002
}
1001
GENIUS_GENODEF_13
1002
{
1000
HIER
1070
     0
1002
}
1002
{
1000
MANEDIT
1070
     0
1002
}
1002
{
1000
NOSEL
1070
     0
1002
}
1002
{
1000
BEHIND
1070
     0
1002
}
1002
{
1000
OTHER
1070
     0
1002
}
1002
{
1000
REACTOR
1002
}
1001
GENIUS_GENCEN_19
1002
{
1040
4.5
1002
}
  0
LINE
  5
1A43
330
D
100
AcDbEntity
 67
     1
  8
AM_7
  6
AM_ISO08W050x2
100
AcDbLine
 10
483.3700549772329
 20
167.4642832109431
 30
0.0
 11
483.3700549772329
 21
151.0024989927461
 31
0.0
1001
GENIUS_GENOBJ-N-CEN_13
1002
{
1000
OWNER
1000
GEN
1002
}
1001
GENIUS_GENODEF_13
1002
{
1000
HIER
1070
     0
1002
}
1002
{
1000
MANEDIT
1070
     0
1002
}
1002
{
1000
NOSEL
1070
     0
1002
}
1002
{
1000
BEHIND
1070
     0
1002
}
1002
{
1000
OTHER
1070
     0
1002
}
1002
{
1000
REACTOR
1002
}
1001
GENIUS_GENCEN_19
1002
{
1040
4.5
1002
}
  0
LINE
  5
1A44
330
D
100
AcDbEntity
 67
     1
  8
AM_7
  6
AM_ISO08W050x2
100
AcDbLine
 10
490.8527538958042
 20
113.6492561210979
 30
0.0
 11
475.7933728025476
 21
113.6492561210979
 31
0.0
1001
GENIUS_GENOBJ-N-CEN_13
1002
{
1000
OWNER
1000
GEN
1002
}
1001
GENIUS_GENODEF_13
1002
{
1000
HIER
1070
     0
1002
}
1002
{
1000
MANEDIT
1070
     0
1002
}
1002
{
1000
NOSEL
1070
     0
1002
}
1002
{
1000
BEHIND
1070
     0
1002
}
1002
{
1000
OTHER
1070
     0
1002
}
1002
{
1000
REACTOR
1002
}
1001
GENIUS_GENCEN_19
1002
{
1040
4.5
1002
}
  0
LINE
  5
1A45
330
D
100
AcDbEntity
 67
     1
  8
AM_7
  6
AM_ISO08W050x2
100
AcDbLine
 10
483.3700549772329
 20
120.9642832109431
 30
0.0
 11
483.3700549772329
 21
104.5024989927461
 31
0.0
1001
GENIUS_GENOBJ-N-CEN_13
1002
{
1000
OWNER
1000
GEN
1002
}
1001
GENIUS_GENODEF_13
1002
{
1000
HIER
1070
     0
1002
}
1002
{
1000
MANEDIT
1070
     0
1002
}
1002
{
1000
NOSEL
1070
     0
1002
}
1002
{
1000
BEHIND
1070
     0
1002
}
1002
{
1000
OTHER
1070
     0
1002
}
1002
{
1000
REACTOR
1002
}
1001
GENIUS_GENCEN_19
1002
{
1040
4.5
1002
}
  0
LINE
  5
1A46
330
D
100
AcDbEntity
 67
     1
  8
AM_7
  6
AM_ISO08W050x2
100
AcDbLine
 10
444.3527538958043
 20
113.6492561210979
 30
0.0
 11
429.2933728025476
 21
113.6492561210979
 31
0.0
1001
GENIUS_GENOBJ-N-CEN_13
1002
{
1000
OWNER
1000
GEN
1002
}
1001
GENIUS_GENODEF_13
1002
{
1000
HIER
1070
     0
1002
}
1002
{
1000
MANEDIT
1070
     0
1002
}
1002
{
1000
NOSEL
1070
     0
1002
}
1002
{
1000
BEHIND
1070
     0
1002
}
1002
{
1000
OTHER
1070
     0
1002
}
1002
{
1000
REACTOR
1002
}
1001
GENIUS_GENCEN_19
1002
{
1040
4.5
1002
}
  0
LINE
  5
1A47
330
D
100
AcDbEntity
 67
     1
  8
AM_7
  6
AM_ISO08W050x2
100
AcDbLine
 10
436.8700549772329
 20
120.9642832109431
 30
0.0
 11
436.8700549772329
 21
104.5024989927461
 31
0.0
1001
GENIUS_GENOBJ-N-CEN_13
1002
{
1000
OWNER
1000
GEN
1002
}
1001
GENIUS_GENODEF_13
1002
{
1000
HIER
1070
     0
1002
}
1002
{
1000
MANEDIT
1070
     0
1002
}
1002
{
1000
NOSEL
1070
     0
1002
}
1002
{
1000
BEHIND
1070
     0
1002
}
1002
{
1000
OTHER
1070
     0
1002
}
1002
{
1000
REACTOR
1002
}
1001
GENIUS_GENCEN_19
1002
{
1040
4.5
1002
}
  0
ARC
  5
1A48
330
D
100
AcDbEntity
 67
     1
  8
1
 48
3.0
100
AcDbCircle
 10
436.8700549772329
 20
160.1492561210979
 30
0.0
 40
4.155999999999998
100
AcDbArc
 50
251.1043797071503
 51
200.0734286904636
  0
ARC
  5
1A49
330
D
100
AcDbEntity
 67
     1
  8
1
 48
3.0
100
AcDbCircle
 10
483.3700549772329
 20
160.1492561210979
 30
0.0
 40
4.155999999999998
100
AcDbArc
 50
251.1043797071503
 51
200.0734286904636
  0
ARC
  5
1A4A
330
D
100
AcDbEntity
 67
     1
  8
1
 48
3.0
100
AcDbCircle
 10
483.3700549772329
 20
113.6492561210979
 30
0.0
 40
4.155999999999998
100
AcDbArc
 50
251.1043797071503
 51
200.0734286904636
  0
LINE
  5
1A4B
330
D
100
AcDbEntity
 67
     1
  8
AM_7
  6
AM_ISO08W050x2
100
AcDbLine
 10
483.2145692288333
 20
136.8992561210979
 30
0.0
 11
437.1204233387864
 21
136.8992561210979
 31
0.0
1001
GENIUS_GENOREF_13
1005
1A6B
  0
LINE
  5
1A4C
330
D
100
AcDbEntity
 67
     1
  8
AM_7
  6
AM_ISO08W050x2
100
AcDbLine
 10
460.1200549772329
 20
159.4834245401268
 30
0.0
 11
460.1200549772329
 21
114.2235552577789
 31
0.0
1001
GENIUS_GENOREF_13
1005
1A6B
  0
LINE
  5
1A4D
330
D
100
AcDbEntity
 67
     1
  8
AM_VIS
100
AcDbLine
 10
448.1674962838098
 20
143.8274593513735
 30
0.0
 11
448.1674962838098
 21
138.6313069286674
 31
0.0
  0
LINE
  5
1A4E
330
D
100
AcDbEntity
 67
     1
  8
AM_VIS
100
AcDbLine
 10
448.1674962838098
 20
135.1672053135283
 30
0.0
 11
448.1674962838098
 21
129.9710528908223
 31
0.0
  0
LINE
  5
1A4F
330
D
100
AcDbEntity
 67
     1
  8
AM_VIS
100
AcDbLine
 10
448.1674962838098
 20
135.1672053135286
 30
0.0
 11
448.1674962838098
 21
138.6313069286672
 31
0.0
  0
LINE
  5
1A50
330
D
100
AcDbEntity
 67
     1
  8
AM_VIS
100
AcDbLine
 10
448.1674962838098
 20
129.9710528908224
 30
0.0
 11
452.6674962838094
 21
127.3729766794692
 31
0.0
  0
LINE
  5
1A51
330
D
100
AcDbEntity
 67
     1
  8
AM_VIS
100
AcDbLine
 10
455.66749628381
 20
125.6409258719001
 30
0.0
 11
452.6674962838097
 21
127.3729766794691
 31
0.0
  0
LINE
  5
1A52
330
D
100
AcDbEntity
 67
     1
  8
AM_VIS
100
AcDbLine
 10
455.6674962838103
 20
125.6409258719001
 30
0.0
 11
460.1674962838099
 21
123.0428496605469
 31
0.0
  0
LINE
  5
1A53
330
D
100
AcDbEntity
 67
     1
  8
AM_VIS
100
AcDbLine
 10
460.1674962838099
 20
123.0428496605468
 30
0.0
 11
464.6674962838094
 21
125.6409258719
 31
0.0
  0
LINE
  5
1A54
330
D
100
AcDbEntity
 67
     1
  8
AM_VIS
100
AcDbLine
 10
467.6674962838101
 20
127.3729766794691
 30
0.0
 11
464.6674962838097
 21
125.6409258719001
 31
0.0
  0
LINE
  5
1A55
330
D
100
AcDbEntity
 67
     1
  8
AM_VIS
100
AcDbLine
 10
467.6674962838103
 20
127.3729766794694
 30
0.0
 11
472.1674962838099
 21
129.9710528908225
 31
0.0
  0
LINE
  5
1A56
330
D
100
AcDbEntity
 67
     1
  8
AM_VIS
100
AcDbLine
 10
472.1674962838099
 20
135.1672053135285
 30
0.0
 11
472.1674962838099
 21
129.9710528908223
 31
0.0
  0
LINE
  5
1A57
330
D
100
AcDbEntity
 67
     1
  8
AM_VIS
100
AcDbLine
 10
472.1674962838099
 20
138.631306928667
 30
0.0
 11
472.1674962838099
 21
135.1672053135287
 31
0.0
  0
LINE
  5
1A58
330
D
100
AcDbEntity
 67
     1
  8
AM_VIS
100
AcDbLine
 10
472.1674962838099
 20
143.8274593513735
 30
0.0
 11
472.1674962838099
 21
138.6313069286673
 31
0.0
  0
LINE
  5
1A59
330
D
100
AcDbEntity
 67
     1
  8
AM_VIS
100
AcDbLine
 10
467.6674962838103
 20
146.4255355627264
 30
0.0
 11
472.1674962838099
 21
143.8274593513733
 31
0.0
  0
LINE
  5
1A5A
330
D
100
AcDbEntity
 67
     1
  8
AM_VIS
100
AcDbLine
 10
464.6674962838097
 20
148.1575863702958
 30
0.0
 11
467.6674962838101
 21
146.4255355627265
 31
0.0
  0
LINE
  5
1A5B
330
D
100
AcDbEntity
 67
     1
  8
AM_VIS
100
AcDbLine
 10
460.1674962838099
 20
150.7556625816489
 30
0.0
 11
464.6674962838094
 21
148.1575863702959
 31
0.0
  0
LINE
  5
1A5C
330
D
100
AcDbEntity
 67
     1
  8
AM_VIS
100
AcDbLine
 10
455.6674962838106
 20
148.1575863702958
 30
0.0
 11
460.1674962838099
 21
150.7556625816488
 31
0.0
  0
LINE
  5
1A5D
330
D
100
AcDbEntity
 67
     1
  8
AM_VIS
100
AcDbLine
 10
452.6674962838094
 20
146.4255355627265
 30
0.0
 11
455.6674962838103
 21
148.1575863702958
 31
0.0
  0
LINE
  5
1A5E
330
D
100
AcDbEntity
 67
     1
  8
AM_VIS
100
AcDbLine
 10
448.1674962838098
 20
143.8274593513733
 30
0.0
 11
452.6674962838092
 21
146.4255355627264
 31
0.0
  0
ARC
  5
1A5F
330
D
100
AcDbEntity
 67
     1
  8
AM_VIS
100
AcDbCircle
 10
460.1674962838099
 20
136.8992561210979
 30
0.0
 40
20.0
100
AcDbArc
 50
90.0
 51
180.0
  0
ARC
  5
1A60
330
D
100
AcDbEntity
 67
     1
  8
AM_VIS
100
AcDbCircle
 10
460.1674962838099
 20
136.8992561210979
 30
0.0
 40
20.0
100
AcDbArc
 50
0.0
 51
90.0
  0
ARC
  5
1A61
330
D
100
AcDbEntity
 67
     1
  8
AM_VIS
100
AcDbCircle
 10
460.1674962838099
 20
136.8992561210979
 30
0.0
 40
20.0
100
AcDbArc
 50
180.0
 51
270.0
  0
ARC
  5
1A62
330
D
100
AcDbEntity
 67
     1
  8
AM_VIS
100
AcDbCircle
 10
460.1674962838099
 20
136.8992561210979
 30
0.0
 40
20.0
100
AcDbArc
 50
270.0
 51
0.0
  0
ARC
  5
1A63
330
D
100
AcDbEntity
 67
     1
  8
AM_VIS
100
AcDbCircle
 10
460.1674962838099
 20
136.8992561210979
 30
0.0
 40
12.12435565298212
100
AcDbArc
 50
128.2132107017393
 51
171.7867892982606
  0
ARC
  5
1A64
330
D
100
AcDbEntity
 67
     1
  8
AM_VIS
100
AcDbCircle
 10
460.1674962838099
 20
136.8992561210979
 30
0.0
 40
12.12435565298212
100
AcDbArc
 50
68.21321070174156
 51
111.7867892982584
  0
ARC
  5
1A65
330
D
100
AcDbEntity
 67
     1
  8
AM_VIS
100
AcDbCircle
 10
460.1674962838099
 20
136.8992561210979
 30
0.0
 40
12.12435565298212
100
AcDbArc
 50
8.213210701739415
 51
51.78678929826067
  0
ARC
  5
1A66
330
D
100
AcDbEntity
 67
     1
  8
AM_VIS
100
AcDbCircle
 10
460.1674962838099
 20
136.8992561210979
 30
0.0
 40
12.12435565298212
100
AcDbArc
 50
308.2132107017393
 51
351.7867892982605
  0
ARC
  5
1A67
330
D
100
AcDbEntity
 67
     1
  8
AM_VIS
100
AcDbCircle
 10
460.1674962838099
 20
136.8992561210979
 30
0.0
 40
12.12435565298212
100
AcDbArc
 50
248.2132107017382
 51
291.7867892982617
  0
ARC
  5
1A68
330
D
100
AcDbEntity
 67
     1
  8
AM_VIS
100
AcDbCircle
 10
460.1674962838099
 20
136.8992561210979
 30
0.0
 40
12.12435565298212
100
AcDbArc
 50
188.2132107017394
 51
231.7867892982607
  0
CIRCLE
  5
1A69
330
D
100
AcDbEntity
 67
     1
  8
AM_VIS
100
AcDbCircle
 10
460.1674962838099
 20
136.8992561210979
 30
0.0
 40
8.0
  0
CIRCLE
  5
1A6A
330
D
100
AcDbEntity
 67
     1
  8
AM_VIS
100
AcDbCircle
 10
460.1674962838099
 20
136.8992561210979
 30
0.0
 40
6.0
  0
POINT
  5
1A6B
330
D
100
AcDbEntity
 67
     1
  8
0
 60
     1
100
AcDbPoint
 10
376.9507636878536
 20
159.0609238126882
 30
0.0
1001
GENIUS_GENOLIS_13
1002
{
1000
ENT
1005
1A4C
1005
1A4B
1005
0
1005
0
1002
}
1001
GENIUS_GENOENT_13
1002
{
1000
MYREF
1005
1A6B
1002
}
1002
{
1000
GRP
1005
0
1002
}
1001
GENIUS_GENOBJ-N-CRS_13
1002
{
1000
OWNER
1000
GEN
1002
}
1001
GENIUS_GENODEF_13
1002
{
1000
HIER
1070
    10
1002
}
1002
{
1000
MANEDIT
1070
     1
1002
}
1002
{
1000
NOSEL
1070
     0
1002
}
1002
{
1000
BEHIND
1070
     0
1002
}
1002
{
1000
OTHER
1070
     0
1002
}
1002
{
1000
REACTOR
1002
}
  0
LINE
  5
1B5A
330
D
100
AcDbEntity
 67
     1
  8
0
100
AcDbLine
 10
323.7050199019457
 20
125.1246544742513
 30
0.0
 11
308.7050199019456
 21
125.1246544742513
 31
0.0
  0
LINE
  5
1B5B
330
D
100
AcDbEntity
 67
     1
  8
0
100
AcDbLine
 10
323.7050199019457
 20
148.6738577679446
 30
0.0
 11
308.7050199019456
 21
148.6738577679446
 31
0.0
  0
LINE
  5
1B7D
330
D
100
AcDbEntity
 67
     1
  8
0
100
AcDbLine
 10
323.7050199019457
 20
227.8786097881944
 30
0.0
 11
308.7050199019456
 21
227.8786097881944
 31
0.0
  0
LINE
  5
1B7E
330
D
100
AcDbEntity
 67
     1
  8
0
100
AcDbLine
 10
323.7050199019457
 20
251.4278130818877
 30
0.0
 11
308.7050199019456
 21
251.4278130818877
 31
0.0
  0
ENDSEC
  0
SECTION
  2
OBJECTS
  0
DICTIONARY
  5
8
330
0
100
AcDbDictionary
281
     1
  3
ACAD_COLOR
350
31
  3
ACAD_GROUP
350
2D
  3
ACAD_LAYOUT
350
C
  3
ACAD_MATERIAL
350
30
  3
ACAD_MLINESTYLE
350
2E
  3
ACAD_PLOTSETTINGS
350
2F
  3
ACAD_PLOTSTYLENAME
350
7
  3
ACAD_TABLESTYLE
350
32
  3
AcadDim
350
707
  3
AcAsAppObject
350
1277
  3
ACASGREF_MASTER
350
12BF
  3
ACDBHEADERROUNDTRIPXREC
350
1B87
  3
AcDbVariableDictionary
350
243
  3
AcmDictionary
350
2A7
  3
AD_GREF_MODULE
350
12C0
  3
AD_MAPI_MODULE
350
12D9
  3
AMG
350
24F
  3
AMGSNAPSETTINGS
350
2DE
  3
DWGPROPS
350
1B86
  3
MAPISURF_MODULE
350
12C1
  0
DICTIONARY
  5
15
330
14
100
AcDbDictionary
280
     1
281
     1
  3
ACAD_LAYERFILTERS
360
1AA9
  3
ACAD_LAYERSTATES
360
16
  3
ACLYDICTIONARY
360
1AA8
  0
DICTIONARY
  5
3
330
2
100
AcDbDictionary
280
     1
281
     1
  3
ACAD_INDEX
360
1B6E
  0
DICTIONARY
  5
629
330
628
100
AcDbDictionary
280
     1
281
     1
  0
DICTIONARY
  5
630
330
62F
100
AcDbDictionary
280
     1
281
     1
  0
DICTIONARY
  5
1667
330
1666
100
AcDbDictionary
280
     1
281
     1
  0
DICTIONARY
  5
199D
330
199C
100
AcDbDictionary
280
     1
281
     1
  0
DICTIONARY
  5
1B8B
330
24D
100
AcDbDictionary
280
     1
281
     1
  3
ACAD_XREC_ROUNDTRIP
360
1B8C
  0
DICTIONARY
  5
31
102
{ACAD_REACTORS
330
8
102
}
330
8
100
AcDbDictionary
281
     1
  0
DICTIONARY
  5
2D
102
{ACAD_REACTORS
330
8
102
}
330
8
100
AcDbDictionary
281
     1
  0
DICTIONARY
  5
C
102
{ACAD_REACTORS
330
8
102
}
330
8
100
AcDbDictionary
281
     1
  3
Model
350
B
  3
配置1
350
10
  0
DICTIONARY
  5
30
102
{ACAD_REACTORS
330
8
102
}
330
8
100
AcDbDictionary
281
     1
  0
DICTIONARY
  5
2E
102
{ACAD_REACTORS
330
8
102
}
330
8
100
AcDbDictionary
281
     1
  3
STANDARD
350
33
  0
DICTIONARY
  5
2F
102
{ACAD_REACTORS
330
8
102
}
330
8
100
AcDbDictionary
281
     1
  0
ACDBDICTIONARYWDFLT
  5
7
102
{ACAD_REACTORS
330
8
102
}
330
8
100
AcDbDictionary
281
     1
  3
Normal
350
6
100
AcDbDictionaryWithDefault
340
6
  0
DICTIONARY
  5
32
102
{ACAD_REACTORS
330
8
102
}
330
8
100
AcDbDictionary
281
     1
  3
Standard
350
34
  0
XRECORD
  5
707
102
{ACAD_REACTORS
330
8
102
}
330
8
100
AcDbXrecord
280
     1
 90
   990106
  3

 60
     0
 61
     0
 62
     1
 63
     3
 64
     0
 65
     0
 66
     0
 67
     3
 68
     1
 69
     0
 70
     0
 71
     0
 72
     0
 40
0.0
170
     0
  0
ACAD_PROXY_OBJECT
  5
1277
102
{ACAD_REACTORS
330
8
102
}
330
8
100
AcDbProxyObject
 90
      499
 91
      544
 95
  2555929
 70
     0
 93
       10
310
4040
 94
        0
1001
ACAD
1000
AcRTDxfName
1000
ASAPP
  0
ACAD_PROXY_OBJECT
  5
12BF
102
{ACAD_REACTORS
330
8
102
}
330
8
100
AcDbProxyObject
 90
      499
 91
      514
 95
  2555929
 70
     0
 93
       34
310
0100004071
 94
        0
1001
ACAD
1000
AcRTDxfName
1000
ACASGREFMASTER
  0
DICTIONARY
  5
1B87
102
{ACAD_REACTORS
330
8
102
}
330
8
100
AcDbDictionary
281
     1
  0
DICTIONARY
  5
243
102
{ACAD_REACTORS
330
8
102
}
330
8
100
AcDbDictionary
281
     1
  3
CTABLESTYLE
350
244
  3
DIMASSOC
350
246
  3
HIDETEXT
350
245
  3
INDEXCTL
350
1B85
  3
PROJECTNAME
350
247
  0
DICTIONARY
  5
2A7
102
{ACAD_REACTORS
330
8
102
}
330
8
100
AcDbDictionary
281
     1
  3
AcmStdDictionary
350
2B4
  3
AMDTSECTSYM_ARROWCOLOR
350
2D0
  0
ACAD_PROXY_OBJECT
  5
12C0
102
{ACAD_REACTORS
330
8
102
}
330
8
100
AcDbProxyObject
 90
      499
 91
      526
 95
  2555929
 70
     0
 93
      114
310
000000438080000000000000000000
 94
        0
1001
ACAD
1000
AcRTDxfName
1000
ACADGREFMODULE
  0
ACAD_PROXY_OBJECT
  5
12D9
102
{ACAD_REACTORS
330
8
102
}
330
8
100
AcDbProxyObject
 90
      499
 91
      570
 95
  2555929
 70
     0
 93
       34
310
05000044C0
 94
        0
1001
ACAD
1000
AcRTDxfName
1000
MAPIADMODULE
  0
DICTIONARY
  5
24F
102
{ACAD_REACTORS
330
8
102
}
330
8
100
AcDbDictionary
281
     1
  0
DICTIONARY
  5
2DE
102
{ACAD_REACTORS
330
8
102
}
330
8
100
AcDbDictionary
281
     1
  0
XRECORD
  5
1B86
102
{ACAD_REACTORS
330
8
102
}
330
8
100
AcDbXrecord
280
     1
  1
DWGPROPS COOKIE
  2

  3

  4

  6

  7

  8

  9

300
AmdtFileType=84
301
=
302
=
303
=
304
=
305
=
306
=
307
=
308
=
309
=
 40
0.3432553703703704
 41
2454887.677864873
 42
2456639.471505533
  1

 90
        1
  0
ACAD_PROXY_OBJECT
  5
12C1
102
{ACAD_REACTORS
330
8
102
}
330
8
100
AcDbProxyObject
 90
      499
 91
      610
 95
  2555929
 70
     0
 93
        8
310
047E
 94
        0
1001
ACAD
1000
AcRTDxfName
1000
AMDTMAPISURFMOUDULE
  0
DICTIONARY
  5
1AA9
102
{ACAD_REACTORS
330
15
102
}
330
15
100
AcDbDictionary
281
     1
  0
DICTIONARY
  5
16
102
{ACAD_REACTORS
330
15
102
}
330
15
100
AcDbDictionary
281
     1
  0
DICTIONARY
  5
1AA8
102
{ACAD_REACTORS
330
15
102
}
330
15
100
AcDbDictionary
281
     1
1001
ACAD
1000
<All
  0
DICTIONARY
  5
1B6E
102
{ACAD_REACTORS
330
3
102
}
330
3
100
AcDbDictionary
281
     1
  3
*A1
350
1B6F
  0
XRECORD
  5
1B8C
102
{ACAD_REACTORS
330
1B8B
102
}
330
1B8B
100
AcDbXrecord
280
     1
102
SHADEPLOT
 70
     0
  0
LAYOUT
  5
B
102
{ACAD_XDICTIONARY
360
1B88
102
}
102
{ACAD_REACTORS
330
C
102
}
330
C
100
AcDbPlotSettings
  1

  2
\\NOVIBDC\HPLJ4-TPUB
  4

  6

 40
0.0
 41
0.0
 42
0.0
 43
0.0
 44
0.0
 45
0.0
 46
0.0
 47
0.0
 48
0.0
 49
0.0
140
0.0
141
0.0
142
1.0
143
1.0
 70
  1712
 72
     0
 73
     0
 74
     0
  7

 75
     0
147
1.0
148
0.0
149
0.0
100
AcDbLayout
  1
Model
 70
     1
 71
     0
 10
0.0
 20
0.0
 11
12.0
 21
9.0
 12
0.0
 22
0.0
 32
0.0
 14
0.0
 24
0.0
 34
0.0
 15
0.0
 25
0.0
 35
0.0
146
0.0
 13
0.0
 23
0.0
 33
0.0
 16
1.0
 26
0.0
 36
0.0
 17
0.0
 27
1.0
 37
0.0
 76
     0
330
2
  0
LAYOUT
  5
10
102
{ACAD_XDICTIONARY
360
11
102
}
102
{ACAD_REACTORS
330
C
102
}
330
C
100
AcDbPlotSettings
  1

  2
\\RDs1\iR3300影印機
  4
A4
  6

 40
6.805083274841308
 41
5.619736671447753
 42
6.974411010742187
 43
5.027069091796875
 44
209.9733276367187
 45
296.9259948730469
 46
0.0000000000000142
 47
2.702264887102018
 48
0.0
 49
0.0
140
0.0
141
0.0
142
1.0
143
1.857843958653346
 70
   692
 72
     1
 73
     1
 74
     1
  7

 75
     0
147
0.5382583372205531
148
-28.42126606279203
149
15.70415551171652
100
AcDbLayout
  1
配置1
 70
     1
 71
     1
 10
14.06136962568069
 20
-28.34693836201341
 11
565.7035353677051
 21
361.7507398662042
 12
0.0
 22
0.0
 32
0.0
 14
28.4314160608721
 24
-15.69295065893902
 34
0.0
 15
550.1991347964467
 25
348.774916371925
 35
285.7425220874162
146
0.0
 13
0.0
 23
0.0
 33
0.0
 16
1.0
 26
0.0
 36
0.0
 17
0.0
 27
1.0
 37
0.0
 76
     0
330
D
331
24D
1001
ACAD_PSEXT
1000
\\RDs1\iR3300影印機
1000
Canon iR2200-3300 PCL5e
1000
\\RDs1
1000

1070
     0
  0
MLINESTYLE
  5
33
102
{ACAD_REACTORS
330
2E
102
}
330
2E
100
AcDbMlineStyle
  2
STANDARD
 70
     0
  3

 62
     0
 51
90.0
 52
90.0
 71
     2
 49
0.5
 62
   256
  6
BYLAYER
 49
-0.5
 62
   256
  6
BYLAYER
  0
ACDBPLACEHOLDER
  5
6
102
{ACAD_REACTORS
330
7
102
}
330
7
  0
TABLESTYLE
  5
34
102
{ACAD_REACTORS
330
32
102
}
330
32
100
AcDbTableStyle
  3
Standard
 70
     0
 71
     0
 40
1.5
 41
1.5
280
     0
281
     0
  7
STANDARD
140
4.5
170
     2
 62
     0
 63
     7
283
     0
274
    -2
284
     1
 64
     0
275
    -2
285
     1
 65
     0
276
    -2
286
     1
 66
     0
277
    -2
287
     1
 67
     0
278
    -2
288
     1
 68
     0
279
    -2
289
     1
 69
     0
  7
STANDARD
140
6.0
170
     5
 62
     0
 63
     7
283
     0
274
    -2
284
     1
 64
     0
275
    -2
285
     1
 65
     0
276
    -2
286
     1
 66
     0
277
    -2
287
     1
 67
     0
278
    -2
288
     1
 68
     0
279
    -2
289
     1
 69
     0
  7
STANDARD
140
4.5
170
     5
 62
     0
 63
     7
283
     0
274
    -2
284
     1
 64
     0
275
    -2
285
     1
 65
     0
276
    -2
286
     1
 66
     0
277
    -2
287
     1
 67
     0
278
    -2
288
     1
 68
     0
279
    -2
289
     1
 69
     0
  0
DICTIONARYVAR
  5
244
102
{ACAD_REACTORS
330
243
102
}
330
243
100
DictionaryVariables
280
     0
  1
STANDARD
  0
DICTIONARYVAR
  5
246
102
{ACAD_REACTORS
330
243
102
}
330
243
100
DictionaryVariables
280
     0
  1
1
  0
DICTIONARYVAR
  5
245
102
{ACAD_REACTORS
330
243
102
}
330
243
100
DictionaryVariables
280
     0
  1
1
  0
DICTIONARYVAR
  5
1B85
102
{ACAD_REACTORS
330
243
102
}
330
243
100
DictionaryVariables
280
     0
  1
1
  0
DICTIONARYVAR
  5
247
102
{ACAD_REACTORS
330
243
102
}
330
243
100
DictionaryVariables
280
     0
  1

  0
DICTIONARY
  5
2B4
102
{ACAD_REACTORS
330
2A7
102
}
330
2A7
100
AcDbDictionary
281
     1
  0
XRECORD
  5
2D0
102
{ACAD_REACTORS
330
2A7
102
}
330
2A7
100
AcDbXrecord
280
     1
 90
-1023410169
  0
LAYER_INDEX
  5
1B6F
102
{ACAD_REACTORS
330
1B6E
102
}
330
1B6E
100
AcDbIndex
 40
2456639.471505533
100
AcDbLayerIndex
  8
0
360
1B70
 90
        0
  8
AM_VIS
360
1B71
 90
        0
  8
AM_7
360
1B72
 90
        0
  8
LOGO
360
1B73
 90
        0
  8
AM_5
360
1B74
 90
        0
  8
Defpoints
360
1B75
 90
        0
  8
SL
360
1B76
 90
        0
  8
CEN
360
1B77
 90
        0
  8
1
360
1B78
 90
        0
  8
AM_4
360
1B79
 90
        0
  8
HIDDEN
360
1B7A
 90
        0
  8
CENTER
360
1B7B
 90
        0
  8
AM_HID
360
1B7C
 90
        0
  0
DICTIONARY
  5
1B88
330
B
100
AcDbDictionary
280
     1
281
     1
  3
ACAD_XREC_ROUNDTRIP
360
1B89
  0
DICTIONARY
  5
11
330
10
100
AcDbDictionary
280
     1
281
     1
  3
ACAD_XREC_ROUNDTRIP
360
1B8A
  3
ADSK_XREC_LAYOUTTHUMBNAIL
360
12
  0
IDBUFFER
  5
1B70
330
0
100
AcDbIdBuffer
  0
IDBUFFER
  5
1B71
330
0
100
AcDbIdBuffer
  0
IDBUFFER
  5
1B72
330
0
100
AcDbIdBuffer
  0
IDBUFFER
  5
1B73
330
0
100
AcDbIdBuffer
  0
IDBUFFER
  5
1B74
330
0
100
AcDbIdBuffer
  0
IDBUFFER
  5
1B75
330
0
100
AcDbIdBuffer
  0
IDBUFFER
  5
1B76
330
0
100
AcDbIdBuffer
  0
IDBUFFER
  5
1B77
330
0
100
AcDbIdBuffer
  0
IDBUFFER
  5
1B78
330
0
100
AcDbIdBuffer
  0
IDBUFFER
  5
1B79
330
0
100
AcDbIdBuffer
  0
IDBUFFER
  5
1B7A
330
0
100
AcDbIdBuffer
  0
IDBUFFER
  5
1B7B
330
0
100
AcDbIdBuffer
  0
IDBUFFER
  5
1B7C
330
0
100
AcDbIdBuffer
  0
XRECORD
  5
1B89
102
{ACAD_REACTORS
330
1B88
102
}
330
1B88
100
AcDbXrecord
280
     1
102
SHADEPLOT
 70
     0
102
SHADEPLOTRESLEVEL
 70
     2
102
SHADEPLOTCUSTOMDPI
 70
   300
  0
XRECORD
  5
1B8A
102
{ACAD_REACTORS
330
11
102
}
330
11
100
AcDbXrecord
280
     1
102
SHADEPLOT
 70
     0
102
SHADEPLOTRESLEVEL
 70
     2
102
SHADEPLOTCUSTOMDPI
 70
   300
  0
XRECORD
  5
12
102
{ACAD_REACTORS
330
11
102
}
330
11
100
AcDbXrecord
280
     1
310
28000000B40000007F00000001000800000000004C590000000000000000000000010000000000000000000000000000FFFFFF000000000000000000000000000000000000000000000000000000000000000000330000006600000099000000CC000000FF00000000330000333300006633000099330000CC330000FF3300
310
0000660000336600006666000099660000CC660000FF66000000990000339900006699000099990000CC990000FF99000000CC000033CC000066CC000099CC0000CCCC0000FFCC000000FF000033FF000066FF000099FF0000CCFF0000FFFF000000003300330033006600330099003300CC003300FF003300003333003333
310
33006633330099333300CC333300FF33330000663300336633006666330099663300CC663300FF66330000993300339933006699330099993300CC993300FF99330000CC330033CC330066CC330099CC3300CCCC3300FFCC330000FF330033FF330066FF330099FF3300CCFF3300FFFF330000006600330066006600660099
310
006600CC006600FF00660000336600333366006633660099336600CC336600FF33660000666600336666006666660099666600CC666600FF66660000996600339966006699660099996600CC996600FF99660000CC660033CC660066CC660099CC6600CCCC6600FFCC660000FF660033FF660066FF660099FF6600CCFF6600
310
FFFF660000009900330099006600990099009900CC009900FF00990000339900333399006633990099339900CC339900FF33990000669900336699006666990099669900CC669900FF66990000999900339999006699990099999900CC999900FF99990000CC990033CC990066CC990099CC9900CCCC9900FFCC990000FF99
310
0033FF990066FF990099FF9900CCFF9900FFFF99000000CC003300CC006600CC009900CC00CC00CC00FF00CC000033CC003333CC006633CC009933CC00CC33CC00FF33CC000066CC003366CC006666CC009966CC00CC66CC00FF66CC000099CC003399CC006699CC009999CC00CC99CC00FF99CC0000CCCC0033CCCC0066CC
310
CC0099CCCC00CCCCCC00FFCCCC0000FFCC0033FFCC0066FFCC0099FFCC00CCFFCC00FFFFCC000000FF003300FF006600FF009900FF00CC00FF00FF00FF000033FF003333FF006633FF009933FF00CC33FF00FF33FF000066FF003366FF006666FF009966FF00CC66FF00FF66FF000099FF003399FF006699FF009999FF00CC
310
99FF00FF99FF0000CCFF0033CCFF0066CCFF0099CCFF00CCCCFF00FFCCFF0000FFFF0033FFFF0066FFFF0099FFFF00CCFFFF00FFFFFF00000000000D0D0D001A1A1A00282828003535350043434300505050005D5D5D006B6B6B00787878008686860093939300A1A1A100AEAEAE00BBBBBB00C9C9C900D6D6D600E4E4E400
310
F1F1F100FFFFFF0000000000000000000000000000000000000000000000000000000000000000000000000000000000EFEFF5F5F5F5F5F5F5F5F5F5F5F5F5F5F5F5F5F5F5F5F5F5F5F5F5F5F5F5F5F5F5F5F5F5F5F5F5F5F5F5F5F5F5F5F5F5F5F5F5F5F5F5F5F5F5F5F5F5F5F5F5F5F5F5F5F5F5F5F5F5F5F5F5F5F5F5F5
310
F5F5F5F5F5F5F5F5F5F5F5F5F5F5F5F5F5F5F5F5F5F5F5F5F5F5F5F5F5F5F5F5F5F5F5F5F5F5F5F5F5F5F5F5F5F5F5F5F5F5F5F5F5F5F5F5F5F5F5F5F5F5F5F5F5F5F5F5F5F5F5F5F5F5F5F5F5F5F5F5F5F5F5F5F5F5F5F5F5F5F5F5F5F5F5F5F5F5F5F5F5F5F5F5F5F5F5F5F5F5F5F5F5F5F5F5F5F5F5F5F5F5F5F5F5F5F5
310
F5F5F5F5F5F5F5F5F5F5F5F5F5F5F5F5F5F5F5F5F5F5F5F5F5F5F5F5F5F5F5F5F5F5F5F5F5F5F5F5F5F5F5F5F5F5F5F5F5F5F5F5F5F5F5F5F5F5F5F5F5F5F5F5F5F5F5F5F5F5F5F5F5F5F5F5F5F5F5F5F5F5F5F5F5F5F5F5F5F5F5F5F5F5F5F5F5F5F5F5F5F5F5F5F5F5F5F5F5F5F5F5F5F5F5F5F5F5F5F5F5F5F5F5F5F5F5
310
F5F5F5F5F5F5F5F5F5F5F5F5F5F5F5F5F5F5F5F5F5F5F5F5F5F5F5F5E2E2E2E2E2E2E2E2E2E2E2E2E2E2E2E2E2E2E2E2E2E2E2E2E2E2E2E2E2E2E2E2E2E2E2E2E2E2E2E2E2E2E2E2E2E2E2E2E2E2E2E2E2E2E2E2E2E2E2E2E2E2E2E2E2E2E2E2E2E2E2E2E2E2E2E2E2E2E2E2E2E2E2E2E2E2E2E2E2E2E2E2E2E2E2E2E2E2E2
310
E2E2E2E2E2E2E2E2E2E2E2E2E2E2E2E2E2E2E2E2E2E2E2E2E2E2E2E2E2E2E2E2E2E2E2E2E2E2E2E2E2E2E2E2E2E2E2E2E2E2E2E2E2E2E2E2E2E2E2E2E2E2E2E2E2E2E2E2E2E2E2E2E2E2E2E2E2E2F5F5F5E2E2E2E2E2E2E2E2E2E2E2E2E2E2E2E2E2E2E2E2E2E2E2E2E2E2E2E2E2E2E2E2E2E2E2E2E2E2E2E2E2E2E2E2E2E2
310
E2E2E2E2E2E2E2E2E2E2E2E2E2E2E2E2E2E2E2E2E2E2E2E2E2E2E2E2E2E2E2E2E2E2E2E2E2E2E2E2E2E2E2E2E2E2E2E2E2E2E2E2E2E2E2E2E2E2E2E2E2E2E2E2E2E2E2E2E2E2E2E2E2E2E2E2E2E2E2E2E2E2E2E2E2E2E2E2E2E2E2E2E2E2E2E2E2E2E2E2E2E2E2E2E2E2E2E2E2E2E2E2E2E2E2E2E2E2E2E2E2E2E2E2E2E2E2
310
E2E2E2E2F5F5F5E2E2E2E2E2E2E2E2E2E2E2E2E2E2E2E2E2E2E2E2E2E2E2E2E2E2E2E2E2E2E2E2E2E2E2E2E2E2E2E2E2E2E2E2E2E2E2E2E2E2E2E2E2E2E2E2E2E2E2E2E2E2E2E2E2E2E2E2E2E2E2E2E2E2E2E2E2E2E2E2E2E2E2E2E2E2E2E2E2E2E2E2E2E2E2E2E2E2E2E2E2E2E2E2E2E2E2E2E2E2E2E2E2E2E2E2E2E2E2E2
310
E2E2E2E2E2E2E2E2E2E2E2E2E2E2E2E2E2E2E2E2E2E2E2E2E2E2E2E2E2E2E2E2E2E2E2E2E2E2E2E2E2E2E2E2E2E2E2E2E2E2E2E2E2E2E2E2E2F5F5F5E2E2F5F52D2D2D2D2D2D2D2D2D2D2D2D2D2D2D2D2D2D2D2D2D2D2D2D2D2D2D2D2D2D2D2DF5F5F5F5F5F5F52D2D2D2D2D2D2D2D2D2D2D2D2D2D2D2D2D2D2D2D2D2D2D2D
310
2D2D2D2D2D2D2D2D2D2D2D2D2D2D2D2D2D2D2D2D2D2D2D2D2D2D2D2D2D2D2D2D2D2D2D2D2D2D2D2D2D2D2D2D2D2D2D2D2D2D2D2D2D2D2D2D2D2D2D2D2D2D2D2D2D2D2D2D2D2D2D2D2D2D2D2D2D2D2D2D2D2D2D2D2D2D2D2D2D2D2D2D2D2D2D2D2D2D2D2D2D2D2D2D2D2DF5E2E2E2F5F5F5E2E2F5E22DF5F5F5F5F5F5F5F5F5
310
F5F5F5F5F5F5F5F5F5F5F5E2F5F5F5F5F5E2F5F5F52DF5F5F5F5F5F5F52DE2E2E2E2E2E2E2E2E2E2E22D2D2D2D2D2D2D2D2D2DE2E2E2E22D2D2D2D2D2D2D2D2D2D2DE2E22D2D2D2D2D2D2D2D2DE22D2D2D2D2D2D2D2DE22D2D2D2D2D2D2D2D2D2D2D2D2D2D2D2D2D2DE2E2E2E2E2E2E2E2E2E2E2E2E2E2E2E2E2E2E2E2E2E2
310
E2E2E2E2E2E2E2E2E2E2E2E2E2E2E2E2E2E2E2E2E2E2E2E2E2E2E2E2E2E2E22DF5E2E2E2F5F5F5E2E2F5E22DF5F5F5F5F5F5F5F5F5F5F5F5F5F5F5F5F5F5F5F5E2F5F5F5E2F5F5F5F5E22DF5F5F5F5F5F5F52DE2E2E2E2E2E2E2E2E2E2E22DE2E2F5F5F5F5E2E22DE2E2E2E22DE2F5F5F5F5F5F5F5E22DE2E22DE2E2F5F5F5
310
E2E22DE22DE2F5F5F5F5E22DE22DE2F5F5F5F5F52D2DE2F5F5F5F5F5F5F52DE2E2E2E2E2E2E2E2E2E2E2E2E2E2E2E2E2E2E2E2E2E2E2E2E2E2E2E2E2E2E2E2E2E2E2E2E2E2E2E2E2E2E2E2E2E2E2E2E2E2E2E2E22DF5E2E2E2F5F5F5E2E2F5E22DE2E2E2E2F5F5F5F5F5F5F5F5F5F5F5F5F5F5F5F5F5F5F5F5F5F5E2E2E2E2
310
2D2D2D2D2D2D2D2D2DE2E2E2E2E2E2E2E2E2E2E22DE2E2F5F5F5F5E2E22DE2E2E2E22DE2F5F5F5E2F5E2E2E22DE2E22DE2E2F5E2E2E2E22DE22DE2E2E2E2E2E22DE22DE2E2E2E2E2E22D2DE2E2F5E2E2E2E2E22DE2E2E2E2E2E2E2E2E2E2E2E2E2E2E2E2E2E2E2E2E2E2E2E2E2E2E2E2E2E2E2E2E2E2E2E2E2E2E2E2E2E2E2
310
E2E2E2E2E2E2E2E2E2E22DF5E2E2E2F5F5F5E2E2F5E22DE2E2E2E2F5F5F5F5F5F5F5F5F5F5F5F5F5F5F5F5F5F5F5F5F5F5E2E2E2E22DE2E2E2E2E2E2E2E2E2E2E2E2E2E2E2E2E2E2E22DE2E2F5F5F5F5E2E22DE2E2E2E22DF5F5F5F5F5F5F5F5E22DE2E22DE2F5F5F5F5F5E22DE22DE2F5F5F5F5E22DE22DF5F5F5F5F5F52D
310
2DE2E2F5F5F5F5F5E22DE2E2E2E2E2E2E2E2E2E2E2E2E2E2E2E2E2E2E2E2E2E2E2E2E2E2E2E2E2E2E2E2E2E2E2E2E2E2E2E2E2E2E2E2E2E2E2E2E2E2E2E2E22DF5E2E2E2F5F5F5E2E2F5E22D2D2D2D2D2D2D2D2D2D2D2D2D2D2D2D2D2D2D2D2D2D2D2D2D2D2D2D2D2D2D2DE2E2E2E2E2E2E2E2E2E2E2E2E2E2E2E2E2E2E22D
310
E2E2F5F5F5F5E2E22DE2E2E2E22DF5F5F5F5F5F5F5F5E22DE2E22DE2F5F5F5F5F5E22DE22DE2F5F5F5F5E22DE22DF5F5F5F5F5F52D2DE2E2F5F5F5F5F5E22DE2E2E2E2E2E2E2E2E2E2E2E2E2E2E2E2E2E2E2E2E2E2E2E2E2E2E2E2E2E2E2E2E2E2E2E2E2E2E2E2E2E2E2E2E2E2E2E2E2E2E2E2E22DF5E2E2E2F5F5F5E2E2F5
310
E22D0F0F0F0F0F0F0F0F0F2DE2F5F5F5E2F5F5F5F5F5E22DE2F5F5F5F5F5E2E22DE2E2E2E2E2E2E2E2E2E2E2E2E2E2E2E2E2E2E22D2D2D2D2D2D2D2D2D2DE2E2E2E22D2D2D2D2D2D2D2D2D2D2DE2E22D2D2D2D2D2D2D2D2DE22D2D2D2D2D2D2D2DE22D2D2D2D2D2D2D2D2D2D2D2D2D2D2D2D2D2DE2E2E2E2E2E2E2E2E2E2E2
310
E2E2E2E2E2E2E2E2E2E2E2E2E2E2E2E2E2E2E2E2E2E2E2E2E2E2E2E2E2E2E2E2E2E2E2E2E2E2E2E2E2E22DF5E2E2E2F5F5F5E2E2F5E22D0F0F0F0F0F0F0F0F0F2DE2F5F5F5E2F5F5F5F5F5E22DE2F5F5F5F5F5E2E22DE2E2E2E2E2E2E2E2E2E2E2E2E2F5E2E2E2E2E2E2E2E2E2E22DE2E2E2E2E2E2E2E2E2E2E2E2E22DE2E2
310
E2E2E2E2E2E2E2E2E22DE2E2E2E2E2E2E2E2E22DE2E2E2E2E2E2E2E22DE2E2E2E2E2E2E22DE2E2E2E2E2E2E2E2E2E2E2E2E2E2E2E2E2E2E2E2E2E2E2E2E2E2E2E2E2E2E2E2E2E2E2E2E2E2E2E2E2E2E2E2E2E2E2E2E2E2E2E2E2E2E2E2E2E22DF5E2E2E2F5F5F5E2E2E2E22DE2DC0FE2DC0FE2DCDC2D2D2D2D2D2D2D2D2D2D
310
2D2D2D2DF52D2D2D2D2D2D2DF5F5F5F5F5F5E2F5F5F5F5F5F5F5F5F5F52D2D2D2D2D2D2D2D2D2D2D2D2D2D2DE2E22D2D2D2D2D2D2D2D2D2DE2E22D2D2D2D2D2D2D2D2DE2E22D2D2D2D2D2D2D2D2D2D2D2D2D2D2D2DE2E22D2D2D2D2DE2E2E2E2E2E2E2E2E2E2E2E2E2E2E2E2E2E2E2E2E2E2E2E2E2E2E2E2E2E2E2E2E2E2E2
310
E2E2E2E2E2E2E2E2E2E2E2E2E2E2E2E2E2E2E2E2E22DE2E2E2E2F5F5F5E2E2E2E22DE2E2DC0FDCDC0FDCDC2DF5F5F5F5E2E2F5F5F5F5E22DF5F5F5E2F5F5F5E22DF5F5F5F5F5F5E2F5F5F5F5F5F5F5F5F5F52DF5F5F5F5F5F5F5F5F5F5F5F5F52DE2E22DE2E2F5E2F5E2E2E22DE2E22DE2F5F5F5F5F5E22DE2E22DE2E2E2E2
310
E22D2DF5F5F5F5F5F5E22DE2E22DE2F5E22DE2E2E2E2E2E2E2E2E2E2E2E2E2E2E2E2E2E2E2E2E2E2E2E2E2E2E2E2E2E2E2E2E2E2E2E2E2E2E2E2E2E2E2E2E2E2E2E2E2E2E2E2E2E2E2E22DE2E2E2E2F5F5F5E2E2E2E22DE2E2DC0FDCDCDCDCDC2DF5F5F5F5E2F5F5F5F5F5E22DF5F5F5F5F5F5F5E22DF5F5F5F5F5F5F5E2F5
310
F5F5F5E2E2F5E2E22DF5F5F5E2F5F5F5F5F5F5E2F5E2F5F5F52DE2E2F5E2F5E2E2E22DF5F52DE2F5E2F5F5F5E2F5F5F52DE2F5F5E2E22D2DF5E2F5F5F5F5E22DF5F52DE2F5E22DE2E2E2E2E2E2E2E2E2E2E2E2E2E2E2E2E2E2E2E2E2E2E2E2E2E2E2E2E2E2E2E2E2E2E2E2E2E2E2E2E2E2E2E2E2E2E2E2E2E2E2E2E2E2E2E2
310
2DE2E2E2E2F5F5F5E2E2E2E22DE2E2E2DCDC0FDC0FDC2D2D2D2D2D2D2D2D2D2D2D2D2D2DF52D2D2D2D2D2D2DF5F5F5F5F5F5F5E2F5F5F5F5E2E2E2E2E22DF5F5F5F5F5F5F5F5F5F5F5F5F52DE2E22DE2E2F5F5F5E2E2E22DE2E22DE2E2F5F5F5F5E22DE2E22DE2F5F5E2E22D2DF5F5F5E2F5F5E22DE2E22DE2F5F52DE2E2E2
310
E2E2E2E2E2E2E2E2E2E2E2E2E2E2E2E2E2E2E2E2E2E2E2E2E2E2E2E2E2E2E2E2E2E2E2E2E2E2E2E2E2E2E2E2E2E2E2E2E2E2E2E2E22DE2E2E2E2F5F5F5E2E2E2E22DE2E2E2DCDC0FDCDCDC2DE2F5F5F5F5F5F5F5F5F5E22DE2F5E2F5E2E2F5E22DF5F5F5F5F5F5F5F5F5F5F5F5E2E2E2E2E22D2D2D2D2D2D2D2D2D2D2D2D2D
310
2D2DE2E22D2D2D2D2D2D2D2D2D2DE2E22D2D2D2D2D2D2D2D2DE2E22D2D2D2D2D2D2D2D2D2D2D2D2D2D2D2DE2E22D2D2D2D2DE2E2E2E2E2E2E2E2E2E2E2E2E2E2E2E2E2E2E2E2E2E2E2E2E2E2E2E2E2E2E2E2E2E2E2E2E2E2E2E2E2E2E2E2E2E2E2E2E2E2E2E2E2E2E2E22DE2E2E2E2F5F5F5E2E2E2E22DE2E2E2E2DC0FE2DC
310
DC2DE2F5F5F5F5F5F5F5F5F5E22DE2F5E2F5E2F5F5E22DF5F5F5F5F5F5F5F5F5F5F5F5E2E2E2E2E2E2E2E2E2E2E2E2E2E2E2E2E2E2E2E2E2E2E2E2E2E2E2E2E2E2E2E2E2E2E2E2E2E2E2E2E2E2E2E2E2E2E2E2E2E2E2E2E2E2E2E2E2E2E2E2E2E2E2E2E2E2E2E2E2E2E2E2E2E2E2E2E2E2E2E2E2E2E2E2E2E2E2E2E2E2E2E2
310
E2E2E2E2E2E2E2E2E2E2E2E2E2E2E2E2E2E2E2E2E2E2E2E2E2E2E2E2E2E2E2E22DE2E2E2E2F5F5F5E2E2E2E22D2D2D2D2D2D2D2D2D2D2D2D2D2D2D2D2D2D2D2D2D2D2D2D2D2D2D2D2D2D2D2D2D2D2D2D2D2D2D2D2D2D2D2D2D2D2D2D2D2D2D2D2D2D2D2D2D2D2D2D2D2D2D2D2D2D2D2D2D2D2D2D2D2D2D2D2D2D2D2D2D2D2D
310
2D2D2D2D2D2D2D2D2D2D2D2D2D2D2D2D2D2D2D2D2D2D2D2D2D2D2D2D2D2D2D2D2D2D2D2D2D2D2D2D2D2D2D2D2D2D2D2D2D2D2D2D2D2D2D2D2D2D2D2D2D2D2D2D2D2D2D2D2D2D2D2D2D2D2D2D2D2D2D2D2D2D2D2D2D2DE2E2E2E2F5F5F5E2E2E2E22DE2E2E2E2E2E2E2E2E2E2E2E2E2E2E2E2E2E2E2E2E2E2E2E2E2E2E2E2E2
310
E2E2E2E2E2E2E2E2E2E2E2E2E2E2E2E2E2E2E2E2E2E2E2E2E2E2E2E2E2E2E2E2E2E2E2E2E2E2E2E2E2E2E2E2E2E2E2E2E2E2E2E2E2E2E2E2E2E2E2E2E2E2E2E2E2E2E2E2E2E2E2E2E2E2E2E2E2E2E2E2E2E2E2E2E2E2E2E2E2E2E2E2E2E2E2E2E2E2E2E2E2E2E2E2E2E2E2E2E2E2E2E2E2E2E2E2E2E2E2E2E2E2E2E2E2E2E2
310
E2E2E2E2E2E2E2E2E2E2E22DE2E2E2E2F5F5F5E2E2F5E22DE2E2E2E2E2E2E2E2E2E2E2E2E2E2E2E2E2E2E2E2E2E2E2E2E2E2E2E2E2E2E2E2E2E2E2E2E2E2E2E2E2E2E2E2E2E2E2E2E2E2E2E2E2E2E2E2E2E2E2E2E2E2E2E2E2E2E2E2E2E2E2E2E2E2E2E2E2E2E2E2E2E2E2E2E2E2E2E2E2E2E2E2E2E2E2E2E2E2E2E2E2E2E2
310
E2E2E2E2E2E2E2E2E2E2E2E2E2E2E2E2E2E2E2E2E2E2E2E2E2E2E2E2E2E2E2E2E2E2E2E2E2E2E2E2E2E2E2E2E2E2E2E2E2E2E2E2E2E2E2E2E2E2E2E2E2E2E2E22DF5E2E2E2F5F5F5E2E2F5E22DE2E2E2E2E2E2E2E2E2E2E2E2E2E2E2E2E2E2E2E2E2E2E2E2E2E2E2E2E2E2E2E2E2E2E2E2E2E2E2E2E2E2E2E2E2E2E2E2E2E2
310
E2E2E2E2E2E2E2E2E2E2E2E2E2E2E2E2E2E2E2E2E2E2E2E2E2E2E2E2E2E2E2E2E2E2E2E2E2E2E2E2E2E2E2E2E2E2E2E2E2E2E2E2E2E2E2E2E2E2E2E2E2E2E2E2E2E2E2E2E2E2E2E2E2E2E2E2E2E2E2E2E2E2E2E2E2E2E2E2E2E2E2E2E2E2E2E2E2E2E2E2E2E2E2E2E2E2E2E2E2E2E2E2E2E2E2E2E22DF5E2E2E2F5F5F5E2E2
310
F5E22DE2E2E2E2E2E2E2E2E2E2E2E2E2E2E2E2E2E2E2E2E2E2E2E2E2E2E2E2E2E2E2E2E2E2E2E2E2E2E2E2E2E2E2E2E2E2E2E2E2E2E2E2E2E2E2E2E2E2E2E2E2E2E2E2E2E2E2E2E2E2E2E2E2E2E2E2E2E2E2E2E2E2E2E2E2E2E2E2E2E2E2E2E2E2E2E2E2E2E2E2E2E2E2E2E2E2E2E2E2E2E2E2E2E2E2E2E2E2E2E2E2E2E2E2
310
E2E2E2E2E2E2E2E2E2E2E2E2E2E2E2E2E2E2E2E2E2E2E2E2E2E2E2E2E2E2E2E2E2E2E2E2E2E2E2E2E2E2E22DF5E2E2E2F5F5F5E2E2F5E22DE2E2E2E2E2E2E2E2E2E2E2E2E2E2E2E2E2E2E2E2E2E2E2E2E2E2E2E2E2E2E2E2E2E2E2E2E2E2E2E2E2E2E2E2E2E2E2E2E2E2E2E2E2E2E2E2E2E2E2E2E2E2E2E2E2E2E2E2E2E2E2
310
E2E2E2E2E2E2E2E2E2E2E2E2E2E2E2E2E2E2E2E2E2E2E2E2E2E2E2E2E2E2E2E2E2E2E2E2E2E2E2E2E2E2E2E2E2E2E2E2E2E2E2E2E2E2E2E2E2E2E2E2E2E2E2E2E2E2E2E2E2E2E2E2E2E2E2E2E2E2E2E2E2E2E2E2E2E2E2E2E2E2E2E2E2E2E2E22DF5E2E2E2F5F5F5E2E2F5E22DE2E2E2E2E2E2E2E2E2E2E2E2E2E2E2E2E2E2
310
E2E2E2E2E2E2E2E2E2E2E2E2E2E2E2E2E2E2E2E2E2E2E2E2E2E2E2E2E2E2E2E2E2E2E2E2E2E2E2E2E2E2E2E2E2E2E2E2E2E2E2E2E2E2E2E2E2E2E2E2E2E2E2E2E2E2E2E2E2E2E2E2E2E2E2E2E2E2E2E2E2E2E2E2E2E2E2E2E2E2E2E2E2E2E2E2E2E2E2E2E2E2E2E2E2E2E2E2E2E2E2E2E2E2E2E2E2E2E2E2E2E2E2E2E2E2E2
310
E2E2E2E2E2E2E2E2E2E2E2E2E2E2E2E2E2E2E2E2E2E22DF5E2E2E2F5F5F5E2E2F5E22DE2E2E2E2E2E2E2E2E2E2E2E2E2E2E2E2E2E2E2E2E2E2E2E2E2E2E2E2E2E2E2E2E2E2E2E2E2E2E2E2E2E2E2E2E2E2E2E2E2E2E2E2E2E2E2E2E2E2E2E2E2E2E2E2E2E2E2E2E2E2E2E2E2E2E2E2E2E2E2E2E2E2E2E2E2E2E2E2E2E2E2E2
310
E2E2E2E2E2E2E2E2E2E2E2E2E2E2E2E2E2E2E2E2E2E2E2E2E2E2E2E2E2E2E2E2E2E2E2E2E2E2E2E2E2E2E2E2E2E2E2E2E2E2E2E2E2E2E2E2E2E2E2E2E2E2E2E2E2E2E2E2E2E2E2E2E2E2E22DF5E2E2E2F5F5F5E2E2F5E22DE2E2E2E2E2E2E2E2E2E2E2E2E2E2E2E2E2E2E2E2E2E2E2E2E2E2E2E2E2E2E2E2E2E2E2E2E2E2E2
310
E2E2E2E2E2E2E2E2E2E2E2E2E2E2E2E2E2E2E2E2E2E2E2E2E2E2E2E2E2E2E2E2E2E2E2E2E2E2E2E2E2E2E2E2E2E2E2E2E2E2E2E2E2E2E2E2E2E2E2E2E2E2E2E2E2E2E2E2E2E2E2E2E2E2E2E2E2E2E2E2E2E2E2E2E2E2E2E2E2E2E2E2E2E2E2E2E2E2E2E2E2E2E2E2E2E2E2E2E2E2E2E2E2E2E2E2E2E2E2E2E2E2E2E2E2E2E2
310
E22DF5E2E2E2F5F5F5E2E2F5E22DE2E2E2E2E2E2E2E2E2E2E2E2E2E2E2E2E2E2E2E2E2E2E2E2E2E2E2E2E2E2E2E2E2E2E2E2E2E2E2E2E2E2E2E2E2E2E2E2E2E2E2E2E2E2E2E2E2E2E2E2E2E2E2E2E2E2E2E2E2E2E2E2E2E2E2E2E2E2E2E2E2E2E2E2E2E2E2E2E2E2E2E2E2E2E2E2E2E2E2E2E2E2E2E2E2E2E2E2E2E2E2E2E2
310
E2E2E2E2E2E2E2E2E2E2E2E2E2E2E2E2E2E2E2E2E2E2E2E2E2E2E2E2E2E2E2E2E2E2E2E2E2E2E2E2E2E2E2E2E2E2E2E2E2E2E2E2E2E22DF5E2E2E2F5F5F5E2E2F5E22DE2E2E2E2E2E2E2E2E2E2E2E2E2E2E2E2E2E2E2E2E2E2E2E2E2E2E2E2E2E2E2E2E2E2E2E2E2E2E2E2E2E2E2E2E2E2E2E2E2E2E2E2E2E2E2E2E2E2E2E2
310
E2E2E2E2E2E2E2E2E2E2E2E2E2E2E2E2E2E2E2E2E2E2E2E2E2E2E2E2E2E2E2E2E2E2E2E2E2E2E2E2E2E2E2E2E2E2E2E2E2E2E2E2E2E2E2E2E2E2E2E2E2E2E2E2E2E2E2E2E2E2E2E2E2E2E2E2E2E2E2E2E2E2E2E2E2E2E2E2E2E2E2E2E2E2E2E2E2E2E2E2E2E2E2E2E2E2E22DF5E2E2E2F5F5F5E2E2F5E22DE2E2E2E2E2E2E2
310
E2E2E2E2E2E2E2E2E2E2E2E2E2E2E2E2E2E2E2E2E2E2E2E2E2E2E2E2E2E2E2E2E2E2E2E2E2E2E2E2E2E2E2E2E2E2E2E2E2E2E2E2E2E2E2E2E2E2E2E2E2E2E2E2E2E2E2E2E2E2E2E2E2E2E2E2E2E2E2E2E2E2E2E2E2E2E2E2E2E2E2E2E2E2E2E2E2E2E2E2E2E2E2E2E2E2E2E2E2E2E2E2E2E2E2E2E2E2E2E2E2E2E2E2E2E2E2
310
E2E2E2E2E2E2E2E2E2E2E2E2E2E2E2E2E2E2E2E2E2E2E2E2E2E2E2E2E2E2E2E2E22DF5E2E2E2F5F5F5E2E2F5E22DE2E2E2E2E2E2E2E2E2E2E2E2E2E2E2E2E2E2E2E2E2E2E2E2E2E2E2E2E2E2E2E2E2E2E2E2E2E2E2E2E2E2E2E2E2E2E2E2E2E2E2E2E2E2E2E2E2E2E2E2E2E2E2E2E2E2E2E2E2E2E2E2E2E2E2E2E2E2E2E2E2
310
E2E2E2E2E2E2E2E2E2E2E2E2E2E2E2E2E2E2E2E2E2E2E2E2E2E2E2E2E2E2E2E2E2E2E2E2E2E2E2E2E2E2E2E2E2E20F0F0F0F0F0F0F0F0F0F0F0F0F0F0F0F0F0F0F0F0F0FE2E2E2E2E2E2E2E2E2E2E2E2E2E2E2E2E2E22DF5E2E2E2F5F5F5E2E2F5E22DE2E2E2E2E2E2E2E2E2E2E2E2E2E2E2E2E2E2E2E2E2E2E2E2E2E2E2E2
310
E2E2E2E2E2E2E2E2E2E2E2E2E2E2E2E2E2E2E2E2E2E2E2E2E2E2E2E2E2E2E2E2E2E2E2E2E2E2E2E2E2E2E2E2E2E2E2E2E2E2E2E2E2E2E2E2E2E2E2E2E2E2E2E2E2E2E2E2E2E2E2E2E2E2E2E2E2E2E2E2E2E2E2E2E2E2E2E2E2E2E2E2E2E2E2E2E2E2E20F0FE2E2E2E2E2E2E20F0F0F0FE2E2E2E2E2E2E20F0FE2E2E2E2E2E2
310
E2E2E2E2E2E2E2E2E2E2E2E22DF5E2E2E2F5F5F5E2E2F5E22DE2E2E2E2E2E2E2E2E2E2E2E2E2E2E2E2E2E2E2E2E2E2E20F0F0F0F0F0F0F0F0F0F0F0F0F0F0F0F0F0F0F0F0F0F0F0F0F0F0F0F0F0F0F0F0F0F0F0F0F0F0F0F0F0F0F0F0F0F0F0F0F0F0F0F0F0F0F0F0F0F0F0F0F0F0F0F0F0F0F0F0F0F0F0F0F0F0F0F0F0F0F
310
0F0F0F0F0F0F0FE2E2E2E2E2E2E2E2E2E2E2E2E2E2E2E2E2E20FE2E2E2E2E2E2E2E20F0F0F0FE2E2E2E2E2E2E2E20FE2E2E2E2E2E2E2E2E2E2E2E2E2E2E2E2E2E22DF5E2E2E2F5F5F5E2E2F5E22DE2E2E2E2E2E2E2E2E2E2E2E2E2E2E2E2E2E2E2E2E2E2E20FE2E2E2E2E2E2E2E2E2E2E2E2E2E2E2E2E2E2E2E2E2E2E2E2E2
310
E2E2E2E2E2E2E2E20F0F0F0F0F0F0F0FE2E2E2E2E2E2E2E2E2E2E2E2E2E2E2E2E2E2E2E2E2E2E2E2E2E2E2E2E2E2E2E2E20FE2E2E20F0FE2E2E2E20FE2E2E2E2E2E2E2E2E2E2E2E2E2E2E2E2E2E20FE2E2E2E2E2E2E2E2E2E2E2E2E2E2E2E2E2E2E2E20FE2E2E2E2E2E2E2E2E2E2E2E2E2E2E2E2E2E22DF5E2E2E2F5F5F5E2
310
E2F5E22DE2E2E2E2E2E2E2E2E2E2E2E2E2E2E2E2E2E2E2E2E2E2E20FE2E2E2E2E2E2E2E2E2E2E2E2E2E2E2E2E2E2E2E2E2E2E2E2E2E2E2E2E2E2E2E2E2E2E2E2E2E2E2E2E2E2E2E2E2E2E2E2E2E2E2E2E2E2E2E2E2E2E2E2E2E2E2E2E2E2E2E2E2E2E2E2E2E20FE2E2E2E2E2E2E2E2E20FE2E2E2E2E2E2E2E2E2E2E2E2E2E2
310
E2E2E2E20FE2E2E2E2E2E2E2E2E2E2E2E2E2E2E2E2E2E2E2E20FE2E2E2E2E2E2E2E2E2E2E2E2E2E2E2E2E2E22DF5E2E2E2F5F5F5E2E2E2E22DE2E2E2E2E2E2E2E2E2E2E2E2E2E2E2E2E2E2E20F0F0F0F0F0F0F0F0F0F0F0F0F0F0F0F0F0F0F0F0F0F0F0F0F0F0F0F0F0F0F0F0F0F0F0F0F0F0F0F0F0F0F0F0F0F0F0F0F0F0F
310
0F0F0F0F0F0F0F0F0F0F0F0F0F0F0F0F0F0F0F0F0F0F0F0F0F0F0F0F0FE2E2E2E2E2E2E2E2E20FE2E2E2E2E2E2E2E2E2E2E2E2E2E2E2E2E2E20FE2E20F0F0F0F0F0F0F0F0F0F0F0F0F0F0F0FE2E20FE2E2E2E2E2E2E2E2E2E2E2E2E2E2E2E2E2E22DE2E2E2E2F5F5F5E2E2E2E22DE2E2E2E2E2E2E2E2E2E2E2E2E2E2E2E2E2
310
E2E2E2E2E20F0FE2E2E2E2E2E2E2E2E2E2E2E2E20F0F0F0F0F0F0FE2E2E2E2E2E2E2E2E2E2E2E2E20FE2E2E2E2E2E2E2E2E2E2E2E2E20F0FE2E2E2E2E2E2E2E2E2E2E2E2E20FE2E2E2E20F0FE2E2E2E2E20FE2E2E2E2E2E2E2E2E20FE2E2E2E2E2E2E2E2E2E2E2E2E2E2E2E2E2E20FE2E20FE2E2E2E2E20F0F0F0F0FE2E2E2
310
E20FE2E20FE2E2E2E2E2E2E2E2E2E2E2E2E2E2E2E2E2E22DE2E2E2E2F5F5F5E2E2E2E22DE2E2E2E2E2E2E2E2E2E2E2E2E2E2E2E2E2E2E2E2E2E20F0FE2E2E2E2E2E2E2E2E2E2E2E2E20F0FE20F0FE2E2E2E2E2E2E2E2E2E2E2E2E2E2E20FE2E2E2E2E2E2E2E2E2E2E2E2E20F0FE2E2E2E2E2E2E2E2E2E2E2E2E20FE2E2E2E2
310
0F0FE2E2E2E2E20FE2E2E2E2E2E2E2E2E20FE2E2E2E2E2E2E2E2E2E2E2E2E2E2E2E2E2E20FE2E20FE2E2E2E2E20F0F0F0F0FE2E2E2E20FE2E20FE2E2E2E2E2E2E2E2E2E2E2E2E2E2E2E2E2E22DE2E2E2E2F5F5F5E2E2E2E22DE2E2E2E2E2E2E2E2E2E2E2E2E2E2E2E2E2E2E2E2E2E20F0FE2E2E2E2E2E2E2E2E2E2E2E2E2E2
310
E2E2E2E2E2E2E2E2E2E2E2E2E2E2E2E2E2E2E20FE2E2E2E2E2E2E2E2E2E2E2E2E20F0F0F0FE2E2E2E2E2E2E2E2E2E2E20F0F0F0FE2E2E2E2E2E2E2E20FE2E2E2E2E2E2E2E2E20FE2E2E2E2E2E2E2E2E2E2E2E2E2E2E2E2E2E20FE2E20FE2E2E2E2E2E2E2E2E2E2E2E2E2E20FE2E20FE2E2E2E2E2E2E2E2E2E2E2E2E2E2E2E2
310
E2E22DE2E2E2E2F5F5F5E2E2E2E22DE2E2E2E2E2E2E2E2E2E2E2E2E2E2E2E2E2E2E2E2E2E20F0FE2E2E2E2E2E2E2E2E2E2E2E2E2E2E2E2E2E2E2E2E2E2E2E2E2E2E2E2E2E2E2E2E20FE2E2E2E2E2E2E2E2E2E2E2E2E20F0F0F0FE2E2E2E2E2E2E2E2E2E2E20F0F0F0FE2E2E2E2E2E2E2E20FE2E2E2E2E2E2E2E2E20FE2E2E2
310
E2E2E2E2E2E2E2E2E2E2E2E2E2E2E20FE2E20FE2E2E2E2E2E2E2E2E2E2E2E2E2E20FE2E20FE2E2E2E2E2E2E2E2E2E2E2E2E2E2E2E2E2E22DE2E2E2E2F5F5F5E2E2E2E22DE2E2E2E2E2E2E2E2E2E2E2E2E2E2E2E2E2E2E2E2E2E20F0FE2E2E2E2E2E2E20F0F0F0F0F0FE2E2E2E2E2E2E2E2E2E2E2E2E2E2E2E2E2E2E2E20FE2
310
E2E2E2E2E2E2E2E2E2E2E20FE2E2E2E2E2E2E2E2E2E2E2E2E2E2E20FE2E20FE2E2E2E2E2E2E2E20FE2E2E2E2E2E2E2E2E20FE2E2E2E2E2E2E2E2E2E2E2E2E2E2E2E2E2E20FE2E20FE2E2E2E2E2E2E2E2E2E2E2E2E2E20FE2E20FE2E2E2E2E2E2E2E2E2E2E2E2E2E2E2E2E2E22DE2E2E2E2F5F5F5E2E2E2E22DE2E2E2E2E2E2
310
E2E2E2E2E2E2E2E2E2E2E2E2E2E2E2E20F0FE2E2E2E2E2E2E20F0F0F0F0F0FE2E2E2E2E2E2E2E2E2E2E2E2E2E2E2E2E2E2E2E20FE2E2E2E2E2E2E2E2E2E2E2E20FE2E2E2E2E2E2E2E2E2E2E2E2E2E2E20FE2E20FE2E2E2E2E2E2E2E20FE2E2E2E2E2E2E2E2E20FE2E2E2E2E2E2E2E2E2E2E2E2E2E2E2E2E2E20FE2E20FE2E2
310
E2E2E2E2E2E2E2E2E2E2E2E20FE2E20FE2E2E2E2E2E2E2E2E2E2E2E2E2E2E2E2E2E22DE2E2E2E2F5F5F5E2E2E2E22DE2E2E2E2E2E2E2E2E2E2E2E2E2E2E2E2E2E2E2E2E2E20F0FF5F5F5F5F5F5F5F5F5F5E2E2E2E2E2E2E2E2E2E2E2E2E2F5F5F5F5F5F5F5F5F5F5F5F5F5F5E2E2E2E2F5F5F5F50FF5F5F5F5F5F5F5F5F5F5
310
F5F5F5F5F5F50FE2E20FE2E2E2E2E2E2E2E20FE2E2E2E2E2E2E2E2E20FE2E2E2E2E2E2E2E2E2E2E2E2E2E2E2E2E2E20FF5F50FF5F5F5F5F5F5F5F5F5F5F5F5F5F50FF5F50FE2E2E2E2E2E2E2E2E2E2E2E2E2E2E2E2E2E22DE2E2E2E2F5F5F5E2E2E2E22DE2E2E2E2E2E2E2E2E2E2E2E2E2E2E2E2E2E2E2E2E2E20FF5E2E2E2
310
E2E2E20FE2E2F5F5F5F5F5F5F5F5F5F5F5F5F5F5F5E2E2E2E2E2E2E2E2E2F5F5F5F5F5F5E2E2F5F5F5F50FF5F5F5F5F5F5F5F5F5F5F5F5F5F5F5F5F5E2E20FE2E2E2E2E2E2E2E20FE2E2E2E2E2E2E2E2E20FE2E2E2E2E2E2E2E2E2E2E2E2E2E2E2E2E2E20FF5F5BEF5F5F5F5F5F5F5F5F5F5F5F5F5F5BEF5F50FE2E2E2E2E2
310
E2E2E2E2E2E2E2E2E2E2E2E2E22DE2E2E2E2F5F5F5E2E2F5E22DE2E2E2E2E2E2E2E2E2E2E2E2E2E2E2E2E2E2E2E2E2E20FF5E2E2E2E2E2E20FE2E2F5E2E2E2E2E2E2E2E2E2E2E2E2E2F5E2E2E2E2E2E2E2E2E2F5E2E2F5F5F5F5E2F5E2BE0FE2E2E2E2E2E2E2E2E2E2E2E2E2E2E2E2E2F5E2E20FE2E2E2E2E2E2E2E20FE2E2
310
E2E2E2E2E2E2E20FE2E2E2E2E2E2E2E2E2E2E2E2E2E2E2E2E2E2F5E2E2BE28E2E2E2E2E2E2E2E2E2E2E2E2E22828E2F5E2E2E2E2E2E2E2E2E2E2E2E2E2E2E2E2E2E22DF5E2E2E2F5F5F5E2E2F5E22DE2E2E2E2E2E2E2E2E2E2E2E2E2E2E2E2E2E2E2E2E2E20FF5E2E2E2E2E2E20FE2E2F5E2E2E2E2E2E2E2E2E2E2E2E2E2F5
310
E2E2E2E2E2E2E2E2E2F5E2E2F5E2F5F5F5F5F5BE0FE2E2E2E2F5F5F5F5F5F5E2E2E2E2E2E2E2F5E2E20FE2E2E2E2E2E2E2E20FE2E2E2E2E2E2E2E2E20FE2E2E2E2E2E2E2E2E2E2E2E2E2E2E2E2E2E2F5BEBEBEBEBEBEE2E2E2E2E2E2E2E2E2BE28BE28BEBEE2E2E2E2E2E2E2E2E2E2E2E2E2E2E2E2E2E22DF5E2E2E2F5F5F5
310
E2E2F5E22DE2E2E2E2E2E2E2E2E2E2E2E2E2E20F0F0F0F0F0F0F0FF5F5E2E2E2E2E2E20FE2E2F5E2E2E2E2E2E2E2E2E2E2E2E2E2F5E2E2E2E2E2E2E2E2E2F5E2E2F5E2F5F5E2BEBEBEBEBEBEF5F5E2E2E2E2E2E2F5F5E2E2E2E2E2F5F5F50F0F0F0F0F0F0F0F0F0F0F0F0F0F0F0F0F0F0F0F0F0F0F0F0F0F0F0FE2E2E2E2E2
310
E2E2E2E2E2F5E228BE2828E2E2E2E2F5F5E2E2E2E2E228BE28E2F5E2E2E2E2E2E2E2E2E2E2E2E2E2E2E2E2E2E22DF5E2E2E2F5F5F5E2E2F5E22DE2E2E2E2E2E2E2E2E2E2E2E2E2E2E20FE2E2E2E2E2E2F5F5E2E2E2E2BE0FE2E2E2F5E2E2E2E2E2E2E2E2E2E2E2E2E2F5E2E2E2E2BEE2E2E2E2F5E2E2F5F5F5E2E2F5F5BEF5
310
F5F5F5E2E2E2E2E2E2E2E2F5F5E2E2E2E2F5E2E2F5E2E2E2E2E2E2E2E20FE2E2E2E2E2E2E2E2E20FE2E2E2E2E2E20F0FE2E2E2E2E2E2E2E2E2E2F5E228BE28E2E2F5F5F5F5BEF5F5F5E2E2282828E2F5E2E2E2E2E2E2E2E2E2E2E2E2E2E2E2E2E2E22DF5E2E2E2F5F5F5E2E2F5E22DE2E2E2E2E2E2E2E2E2E2E2E2E2E20F0F
310
E2E20FE2E2E2F5F5E2E2E2F5BEF5E2E2E2F5F5F5F5F5F5F5F5F5F5F5F5F5F5F5E2E2E2F5BEF5E2E2E2F5E2E2F5F5F5E2E2F5E2BEF5E2F5E2E2E2E2E2E2E2E2E2E2E2F5E2E2E2F5E2E2F5E2E2E2E2E2E2E2E20FE2E2E2E2F5F5E2E2E20FE2E2E2E2E2E2E20FE2E2E2E2E2E2E2E2E2E2F5E2E2BEE2E2F5F5E2E2E2F5E2E2F5F5
310
E2E2BEE2E2F5E2E2E2E2E2E2E2E2E2E2E2E2E2E2E2E2E2E22DF5E2E2E2F5F5F5E2E2F5E22DE2E2E2E2E2E2E2E2E2E2E2E2E2E2E20FE2E20FE2E2E2F5F5E2E2F5F5BEF5F5E2E2F5E2E2E2E2E2E2E2E2E2E2E2E2E2F5E2E2F5F5BEF5F5E2E2F5E2E2F5E2E2E2E2F5E2BEE2F5E2E2E2E2E2E2E2E2E2E2E2E2F5F5E2E2F5E2E2F5
310
F5F5F5F5F5E2E2E20FE2E2E2F5F5F5F5E2E20FE2E2E2E2E2E2E20FE2E2E2E2E2E2E2E2E2E2F5E2E2E2E2F5F5E2E2F5F5F5F5E2E2F5F5E2E2E2E2F5E2E2E2E2E2E2E2E2E2E2E2E2E2E2E2E2E2E22DF5E2E2E2F5F5F5E2E2F5E22DE2E2E2E2E2E2E2E2E2E2E2E2E2E2E20FE20F0F0F0F0F0F0F0F0FBEBEBEBEBEBEE2F5F5F5F5
310
F5F5F5F5F5F5F5F5F5F5F5E2BEBEBEBEBEBEBEE2F5E2E2F5E2E2E2E2F5E2E2F5E2E2E2E2E2E2E2E2E2E2E2E2E2E2F5E2E2F5E2E2F5E2E2E2E2F50F0F0F0F0F0F0F0F0F0F0F0F0F0F0F0F0F0FE2E2E20FE2E2E2E2E2E2E2E2E2E2F5E2E2E2E2F5E2E2F5E2F5F5F5F5F5E2F5F5E2E2E2F5E2E2E2E2E2E2E2E2E2E2E2E2E2E2E2
310
E2E2E22DF5E2E2E2F5F5F5E2E2F5E22DE2E2E2E2E2E2E2E2E2E2E2E2E2E2E20F0F0F0FE2E2E2F5F5E2E2F5F5BEF5F5E2E2F5E2E2E2E2E2E2E2E2E2E2E2E2E2F5E2E2F5E2BEF5F5E2E2F5E2E2F5E2E2E2E2F5E2E2F5E2E2E2E2E2E2E2E2E2E2E2E2E2E2F5E2E2F5E2E2F5E2E2E2E2F5F5F5F50FE2E2E2F5F5F5F5E2E20FE2E2
310
E20FE2E20F0FE2E2E2E2E2E2E2E2E2E2F5E2E2E2F5F5E2F5F5F5F5F5F5F5F5F5E2F5E2E2E2F5E2E2E2E2E2E2E2E2E2E2E2E2E2E2E2E2E2E22DF5E2E2E2F5F5F5E2E2F5E22DE2E2E2E2E2E2E2E2E2E2E2E2E20F0F0F0F0F0FE2E2E2F5F5E2E2E2F5BEF5E2E2E2F5E2E2E2E2E2E2E2E2E2E2E2E2E2F5E2E2F5F5BEF5E2E2E2F5
310
E2E2F5E2E2E2E2F5E2E2F5F5F5E2E2E2E2E2E2E2E2E2E2F5F5F5E2E2F5E2E2F5E2E2E2E2F5F5E2E2F5E2E2E2F5E2E2F5E2E2F5E20F0F0FE20F0F0FE2E2E2E2E2E2E2E2E2E2F5E2E2E2F5E2E2F5F5F5E2BEF5F5F5F5E2F5E2E2E2F5E2E2E2E2E2E2E2E2E2E2E2E2E2E2E2E2E2E22DF5E2E2E2F5F5F5E2E2F5E22DE2E2E2E2E2
310
E2E2E2E2E2E2E2E20F0F0FE20F0F0FBEBEBEBEBEBEBEBEBEBEBEBEBEBEBEBEBEBEBEBEBEBEBEBEBEBEBEBEBEBEBEBEBEBEBEBEBEBEBEBEBEBEBEBEBEBEBEBEBEBEBEBEBEBEBEBEBEBEBEBEBEBEBEBEBEBEBEBEBEBEBEBEBEBEBEBEBEBEBEBEBEBEBEBEBEBEBEBEBEBE0F0F0FE20F0F0FE2E2E2E2E2E2E2E2E2E2F5E2E2BEF5
310
BEBEF5F5F5BEBEBEF5BEF5BEF5BEE2E2F5E2E2E2E2E2E2E2E2E2E2E2E2E2E2E2E2E2E22DF5E2E2E2F5F5F5E2E2F5E22DE2E2E2E2E2E2E2E2E2E2E2E2E20F0F0FE2E20FE2E2E2F5F5E2E2E2E2F5BEF5E2E2F5E2E2E2E2E2E2E2E2E2E2E2E2E2F5E2E2F5BEF5E2E2E2E2F5E2E2F5E2E2E2E2F5E2E2F5F5E2E2E2E2E2E2E2E2E2
310
E2E2E2F5F5E2E2F5E2E2F5E2E2E2E2F5F5E2E2F5E2E2E2F5E2E2F5E2E2F5E20F0F0FE20F0F0FE2E2E2E2E2E2E2E2E2E2F5E2E2E2F5E2E2F5F5F5F5BEF5F5F5F5E2F5E2E2E2F5E2E2E2E2E2E2E2E2E2E2E2E2E2E2E2E2E2E22DF5E2E2E2F5F5F5E2E2F5E22DE2E2E2E2E2E2E2E2E2E2E2E2E2E2E20FE2E20FE2E2E2F5F5E2E2
310
E2BEBEBEBEBEE2F5E2E2E2E2E2E2E2E2E2E2E2E2E2F5E2BEBEBEBEE2E2E2E2F5E2E2F5E2E2E2E2F5E2E2F5E2E2E2E2E2E2E2E2E2E2E2E2E2E2F5E2E2F5E2E2F5E2E2E2E2F5F5F5F5F5F5F5F5F5F5F5F50FF5F5E2E2E20FE2E2E20FE2E2E2E2E2E2E2E2E2E2F5E2E2E2F5F5E2F5F5F5F5F5F5F5F5F5E2F5E2E2E2F5E2E2E2E2
310
E2E2E2E2E2E2E2E2E2E2E2E2E2E22DF5E2E2E2F5F5F5E2E2F5E22DE2E2E2E2E2E2E2E2E2E2E2E2E2E2E20FE2E2E2E2E2E2F5F5E2E2E2E2F5BEF5E2E2F5E2E2E2E2E2E2E2E2E2E2E2E2E2F5E2E2F5BEF5E2E2E2E2F5E2E2F5E2E2E2E2F5E2E2E2F5E2E2E2E2E2E2E2E2E2E2E2E2E2F5E2E2F5E2E2F5E2E2E2E2F50F0F0F0F0F
310
0F0F0F0F0F0F0F0F0F0F0F0F0FE2E2E20FE2E2E2E2E2E2E2E2E2E2F5E2E2E2E2F5E2E2F5E2E2BEE2F5F5E2F5E2E2E2E2F5E2E2E2E2E2E2E2E2E2E2E2E2E2E2E2E2E2E22DF5E2E2E2F5F5F5E2E2F5E22DE2E2E2E2E2E2E2E2E2E2E2E2E2E2E20FE2E2E2E2E2E2F5F5E2E2E2E2E2E2E2E2E2F5E2E2E2E2E2E2E2E2E2E2E2E2E2
310
F5E2E2E2E2E2E2E2E2E2F5E2E2F5E2E2E2E2F5E2E2E2F5F5E2E2E2E2E2E2E2E2E2E2E2F5E2E2E2F5E2E2F5F5F5F5F5F5E2E2E2E2E2E2E2F5F5F5F50FE2E2E2E2E2E2E2E2E20FE2E2E2E2E2E2E2E2E2E2F5E2E2BEE2F5F5E2E2F5F5F5F5E2E2F5F5E2BEE2E2F5E2E2E2E2E2E2E2E2E2E2E2E2E2E2E2E2E2E22DF5E2E2E2F5F5
310
F5E2E2F5E22DE2E2E2E2E2E2E2E2E2E2E2E2E2E20F0FE2E2E2E2E2E2F5F5E2E2E2E2E2E2E2E2E2F5E2E2E2E2E2E2E2E2E2E2E2E2E2F5E2E2E2E2E2E2E2E2E2F5E2E2F5F5F5E2E2F5E2E2E2E2F5E2E2E2E2E2E2E2E2E2E2F5E2E2E2E2F5E2E2F5E2E2E2E2E2E2E2E2E2E2E2E2E2E2E2E2E20FE2E2E2E2E2E2E20F0FE2E2E2E2
310
E2E2E2E2E2E2F5E2E2BEE2E2F5F5E2E2E2BEE2E2F5F5E2E2BEE2E2F5E2E2E2E2E2E2E2E2E2E2E2E2E2E2E2E2E2E22DF5E2E2E2F5F5F5E2E2E2E22DE2E2E2E2E2E2E2E2E2E2E2E2E2E20F0F0F0F0F0F0F0FF5F5E2E2E2E2E2E2E2E2E2F5E2E2E2E2E2E2E2E2E2E2E2E2E2F5E2E2E2E2E2E2E2E2E2F5E2E2F5F5F5F5E2F5E2E2
310
E2E2E2F5E2E2E2E2E2E2E2E2F5E2E2E2E2E2F5F5F50F0F0F0F0F0F0F0F0F0F0F0F0F0F0F0F0F0F0F0F0F0F0F0F0F0F0F0FE2E2E2E2E2E2E2E2E2E2F5E2E22828E2E2E2F5F5F5F5F5F5F5E2E2F52828E2F5E2E2E2E2E2E2E2E2E2E2E2E2E2E2E2E2E2E22DE2E2E2E2F5F5F5E2E2E2E22DE2E2E2E2E2E2E2E2E2E2E2E2E2E2E2
310
E2E2E2E2E2E2E2E2F5E2E2E2E2E2E2E2E2E2F5E2E2E2E2E2E2E2E2E2E2E2E2E2F5E2E2E2E2E2E2E2E2E2F5E2E2F5E2F5F5F5F5E2E2E2E2E2E2F5F5F5F5F5F5F5F5E2E2E2E2E2E2F5E2E2E2E2E2E2E2E2E2E2E2E2E2E2E2E2E2E2E2E2E20FE2E2E2E2E2E2E2E2E2E2E2E2E2E2E2E2E2E2F5BE28BE2828BEE2E2E2E2BEE2E2E2
310
E2BE28BE28BEBEE2E2E2E2E2E2E2E2E2E2E2E2E2E2E2E2E2E22DE2E2E2E2F5F5F5E2E2E2E22DE2E2E2E2E2E2E2E2E2E2E2E2E2E2E2E2E2E2E2E2E2E2E2F5E2E2E2E2E2E2E2E2E2F5E2E2E2E2E2E2E2E2E2E2E2E2E2F5E2E2E2E2E2E2E2E2E2F5E2E2F5E2F5F5E2F5E2E2E2E2E2E2E2E2E2E2E2E2E2E2E2E2E2E2E2E2F5E2E2
310
E2E2E2E2E2E2E2E2E2E2E2E2E2E2E2E2E2E2E20F0F0F0F0F0F0FE2E2E2E2E2E2E2E2E2E2E2E2F5E228BE2828E2E2E2E2E2E2E2E2E2E2E228BE28E2F5E2E2E2E2E2E2E2E2E2E2E2E2E2E2E2E2E2E22DE2E2E2E2F5F5F5E2E2E2E22DE2E2E2E2E2E2E2E2E2E2E2E2E2E2E2E2E2E2E2E2E2E2E2F5E2E2E2E2E2E2E2E2E2F5E2E2
310
E2E2E2E2E2E2E2E2E2E2E2F5E2E2E2E2E2E2E2E2E2F5E2E2F5F5F5E2E2F5E2E2E2E2E2E2E2E2E2E2E2E2E2E2E2E2E2E2E2E2F5E2E2E2E2E2E2E2E2E2E2E2E2E2E2E2E2E2E2E2E2E20F0F0F0F0F0F0FE2E2E2E2E2E2E2E2E2E2E2E2F5E22828280FE2E2E2E2E2E2E2E2E2E2E2282828E2F5E2E2E2E2E2E2E2E2E2E2E2E2E2E2
310
E2E2E2E22DE2E2E2E2F5F5F5E2E2E2E22DE2E2E2E2E2E2E2E2E2E2E2E2E2E2E2E2E2E2E2E2E2E2E2F5F5F5F5F5F5F5F5F5F5F5F5F5F5F5F5F5F5F5F5F5F5F5F5F5F5F5F5F5F5F5F5F5F5F5F5F5F5F5F5E2E2F5F5F5F5F5F5F5F5F5F5F5F5F5F5F5F5F5F5F5F5F5F5E2E2E2E2E2E2E2E2E2E2E2E2E2E2E2E2E2E2E2E2E20F0F
310
0F0F0F0F0FE2E2E2E2E2E2E2E2E2E2E2E2F5F5F5BEF5F5F5F5F5F5F5F5F5F5F5F5F5F5BEF5F5F5E2E2E2E2E2E2E2E2E2E2E2E2E2E2E2E2E2E22DE2E2E2E2F5F5F5E2E2E2E22DE2E2E2E2E2E2E2E2E2E2E2E2E2E2E2E2E2E2E2E2E2E2E2E2E2E2E2E2E2E2E2E2E2E2E2E2E2E2E2E2E2E2E2E2E2E2E2E2E2E2E2E2E2E2E2E2E2
310
E2E2E2E2E2E2E2E2E2E2E2E2E2E2E2E2E2E2E2E2E2E2E2E2E2E2E2E2E2E2E2E2E2E2E2E2E2E2E2E2E2E2E2E2E2E2E2E2E2E2E2E2E2E2E2E2E2E2E2E2E2E2E2E2E2E2E2E2E2E2E2E2E2E2E2E20FE2E2E2E2E2E2E2E2E2E2E2E2E2E2E2E2E2E2E2E2E2E2E2E2E2E2E2E2E2E2E2E2E22DE2E2E2E2F5F5F5E2E2E2E22DE2E2E2E2
310
E2E2E2E2E2E2E2E2E2E2E2E2E2E2E2E2E2E2E2E2E2E2E2E2E2E2E2E2E2E2E2E2E2E2E2E2E2E2E2E2E2E2E2E2E2E2E2E2E2E2E2E2E2E2E2E2E2E2E2E2E2E2E2E2E2E2E2E2E2E2E2E2E2E2E2E2E2E2E2E2E2E2E2E2E2E2E2E2E2E2E2E2E2E2E2E2E2E2E2E2E2E2E2E2E2E2E2E2E2E2E2E2E2E2E2E2E2E2E2E2E2E2E2E2E2E2E2
310
E2E20FE2E2E2E2E2E2E2E2E2E2E2E2E2E2E2E2E2E2E2E2E2E2E2E2E2E2E2E2E2E2E2E2E22DE2E2E2E2F5F5F5E2E2E2E22DE2E2E2E2E2E2E2E2E2E2E2E2E2E2E2E2E2E2E2E2E2E2E2E2E2E2E2E2E2E2E2E2E2E2E2E2E2E2E2E2E2E2E2E2E2E2E2E2E2E2E2E2E2E2E2E2E2E2E2E2E2E2E2E2E2E2E2E2E2E2E2E2E2E2E2E2E2E2
310
E2E2E2E2E2E2E2E2E2E2E2E2E2E2E2E2E2E2E2E2E2E2E2E2E2E2E2E2E2E2E2E2E2E2E2E2E2E2E2E2E2E2E2E2E2E2E2E2E2E2E2E2E2E2E2E20FE2E2E2E2E2E2E2E2E2E2E2E2E2E2E2E2E2E2E2E2E2E2E2E2E2E2E2E2E2E2E2E22DE2E2E2E2F5F5F5E2E2F5E22DE2E2E2E2E2E2E2E2E2E2E2E2E2E2E2E2E2E2E2E2E2E2E2E2E2
310
E2E2E2E2E2E2E2E2E2E2E2E2E2E2E2E2E2E2E2E2E2E2E2E2E2E2E2E2E2E2E2E2E2E2E2E2E2E2E2E2E2E2E2E2E2E2E2E2E2E2E2E2E2E2E2E2E2E2E2E2E2E2E2E2E2E2E2E2E2E2E2E2E2E2E2E2E2E2E2E2E2E2E2E2E2E2E2E2E2E2E2E2E2E2E2E2E2E2E2E2E2E2E2E2E2E2E2E2E20FE2E2E2E2E2E2E2E2E2E2E2E2E2E2E2E2E2
310
E2E2E2E2E2E2E2E2E2E2E2E2E2E2E22DF5E2E2E2F5F5F5E2E2F5E22DE2E2E2E2E2E2E2E2E2E2E2E2E2E2E2E2E2E2E2E2E2E2E2E2E2E2E2E2E2E2E2E2E2E2E2E2E2E2E2E2E2E2E2E2E2E2E2E2E2E2E2E2E2E2E2E2E2E2E2E2E2E2E2E2E2E2E2E2E2E2E2E2E2E2E2E2E2E2E2E2E2E2E2E2E2E2E2E2E2E2E2E2E2E2E2E2E2E2E2
310
E2E2E2E2E2E2E2E2E2E2E2E2E2E2E2E2E2E2E2E2E2E2E2E2E2E2E2E2E2E2E2E2E2E2E2E20F0F0F0F0F0F0F0F0F0FE2E2E2E2E2E2E2E2E2E2E2E2E2E2E2E2E2E2E2E2E2E22DF5E2E2E2F5F5F5E2E2F5E22DE2E2E2E2E2E2E2E2E2E2E2E2E2E2E2E2E2E2E2E2E2E2E2E2E2E2E2E2E2E2E2E2E2E2E2E2E2E2E2E2E2E2E2E2E2E2
310
E2E2E2E2E2E2E2E2E2E2E2E2E2E2E2E2E2E2E2E2E2E2E2E2E2E2E2E2E2E2E2E2E2E2E2E2E2E2E2E2E2E2E2E2E2E2E2E2E2E2E2E2E2E2E2E2E2E2E2E2E2E2E2E2E2E2E2E2E2E2E2E2E2E2E2E2E2E2E2E2E2E2E2E2E2E2E2E2E20F0F0F0F0F0F0F0F0FE2E2E2E2E2E2E2E2E2E2E2E2E2E2E2E2E2E2E2E2E2E2E22DF5E2E2E2F5
310
F5F5E2E2F5E22DE2E2E2E2E2E2E2E2E2E2E2E2E2E2E2E2E2E2E2E2E2E2E2E2E2E2E2E2E2E2E2E2E2E2E2E2E2E2E2E2E2E2E2E2E2E2E2E2E2E2E2E2E2E2E2E2E2E2E2E2E2E2E2E2E2E2E2E2E2E2E2E2E2E2E2E2E2E2E2E2E2E2E2E2E2E2E2E2E2E2E2E2E2E2E2E2E2E2E2E2E2E2E2E2E2E2E2E2E2E2E2E2E2E2E2E2E2E2E2E2
310
E2E2E2E2E2E2E2E2E2E2E2E2E2E2E2E2E2E2E2E2E2E2E2E2E2E2E2E2E2E2E2E2E2E2E2E2E2E2E2E2E2E2E2E2E2E2E22DF5E2E2E2F5F5F5E2E2F5E22DE2E2E2E2E2E2E2E2E2E2E2E2E2E2E2E2E2E2E2E2E2E2E2E2E2E2E2E2E2E2E2E2E2E2E2E2E2E2E2E2E2E2E2E2E2E2E2E2E2E2E2E2E2E2E2E2E2E2E2E2E2E2E2E2E2E2E2
310
E2E2E2E2E2E2E2E2E2E2E2E2E2E2E2E2E2E2E2E2E2E2E2E2E2E2E2E2E2E2E2E2E2E2E2E2E2E2E2E2E2E2E2E2E2E2E2E2E2E2E2E2E2E2E2E2E2E2E2E2E2E2E2E2E2E2E2E2E2E2E2E2E2E2E2E2E2E2E2E2E2E2E2E2E2E2E2E2E2E2E2E2E2E2E2E2E2E2E2E22DF5E2E2E2F5F5F5E2E2F5E22DE2E2E2E2E2E2E2E2E2E2E2E2E2E2
310
E2E2E2E2E2E2E2E2E2E2E2E2E2E2E2E2E2E2E2E2E2E2E2E2E2E2E2E2E2E2E2E2E2E2E2E2E2E2E2E2E2E2E2E2E2E2E2E2E2E2E2E2E2E2E2E2E2E2E2E2E2E2E2E2E2E2E2E2E2E2E2E2E2E2E2E2E2E2E2E2E2E2E2E2E2E2E2E2E2E2E2E2E2E2E2E2E2E2E2E2E2E2E2E2E2E2E2E2E2E2E2E2E2E2E2E2E2E2E2E2E2E2E2E2E2E2E2
310
E2E2E2E2E2E2E2E2E2E2E2E2E2E2E2E2E2E2E2E2E2E2E2E2E2E22DF5E2E2E2F5F5F5E2E2F5E22DE2E2E2E2E2E2E2E2E2E2E2E2E2E2E2E2E2E2E2E2E2E2E2E2E2E2E2E2E2E2E2E2E2E2E2E2E2E2E2E2E2E2E2E2E2E2E2E2E2E2E2E2E2E2E2E2E2E2E2E2E2E2E2E2E2E2E2E2E2E2E2E2E2E2E2E2E2E2E2E2E2E2E2E2E2E2E2E2
310
E2E2E2E2E2E2E2E2E2E2E2E2E2E2E2E2E2E2E2E2E2E2E2E2E2E2E2E2E2E2E2E2E2E2E2E2E2E2E2E2E2E2E2E2E2E2E2E2E2E2E2E2E2E2E2E2E2E2E2E2E2E2E2E2E2E2E2E2E2E2E2E2E2E2E2E2E2E2E22DF5E2E2E2F5F5F5E2E2F5E22DE2E2E2E2E2E2E2E2E2E2E2E2E2E2E2E2E2E2E2E2E2E2E2E2E2E2E2E2E2E2E2E2E2E2E2
310
E2E2E2E2E2E2E2E2E2E2E2E2E2E2E2E2E2E2E2E2E2E2E2E2E2E2E2E2E2E2E2E2E2E2E2E2E2E2E2E2E2E2E2E2E2E2E2E2E2E2E2E2E2E2E2E2E2E2E2E2E2E2E2E2E2E2E2E2E2E2E2E2E2E2E2E2E2E2E2E2E2E2E2E2E2E2E2E2E2E2E2E2E2E2E2E2E2E2E2E2E2E2E2E2E2E2E2E2E2E2E2E2E2E2E2E2E2E2E2E2E2E2E2E2E2E2E2
310
E2E2E2E2E22DF5E2E2E2F5F5F5E2E2F5E22DE2E2E2E2E2E2E2E2E2E2E2E2E2E2E2E2E2E2E2E2E2E2E2E2E2E2E2E2E2E2E2E2E2E2E2E2E2E2E2E2E2DCE2E2E2E2E2E2E2E2E2E2E2E2E2E2E2E2E2E2E2E2E2E2E2E2E2E2E2E2E2E2E2E2E2E2E2E2E2E2E2E2E2E2E2E2E2E2E2E2E2E2E2E2E2E2E2E2E2E2E2E2E2E2E2E2E2E2E2
310
E2E2E2E2E2E2E2E2E2E2E2E2E2E2E2E2E2E2E2E2E2E2E2E2E2E2E2E2E2E2E2E2E2E2E2E2E2E2E2E2E2E2E2E2E2E2E2E2E2E2E2E2E2E2E2E2E2E22DF5E2E2E2F5F5F5E2E2F5E22DE2E2E2E2E2E2E2E2E2E2E2E2E2E2E2E2E2E2E2E2E2E2E2F5F5F5F5F5F5F5F5F5F5F5F5F5F5F5F5F5F5F5F5F5F5F5F5F5F5F5F5F5F5F5F5F5
310
F5F5F5F5F5F5F5E2E2F5F5F5F5F5F5F5F5F5F5F5F5F5F5F5F5F5F5F5F5F5F5E2E2E2E2E2E2E2E2E2E2E2E2E2E2E2E2E2E2E2E2E2E2E2E2E2E2E2E2E2E2E2E2E2E2E2E2E2E2E2E2E2E2E2E2E2E2E2E2E2E2E2E2E2E2E2E2E2E2E2E2E2E2E2E2E2E2E2E2E2E2E2E2E2E2E2E2E2E2E2E22DF5E2E2E2F5F5F5E2E2F5E22DE2E2E2
310
E2E2E2E2E2E2E2E2E2E2E2E2E2E2E2E2E2E2E2E2F5E2E2E2E2E2E2E2E2E2F5E2E2E2E2E2E2E2DCE2E2E2E2E2F5E2E2E2E2E2E2E2E2E2F5E2E2F5E2F5E2E2F5E2E2E2F5F5F5F5F5E2E2E2E2F5F5E2E2E2E2E2E2F5E2E2E2E2E2E2E2E2E2E2E2E2E2E2E2E2E2E2E2E2E2E2E2E2E2E2E2E2E2E2E2E2E2E2E2E2E2E2E2E2E2E2E2
310
E2E2E2E2E2E2E2E2E2E2E2E2E2E2E2E2E2E2E2E2E2E2E2E2E2E2E2E2E2E2E2E2E2E2E2E2E22DF5E2E2E2F5F5F5E2E2F5E22DE2E2E2E2E2E2E2E2E2E2E2E2E2E2E2E2E2E2E2E2E2E2E2F5E2E2E2E2E2E2E2E2E2F5E2E2E2E2E2E2E2DCE2E2E2E2E2F5E2E2E2E2E2E2E2E2E2F5E2E2F5E2F5F5F5F5E2E2E2F5F5F5F5E2E2E2E2
310
E2E2E2F5F5E2E2E2E2F5E2E2E2E2E2E2E2E2E2E2E2E2E2E2E2E2E2E2E2E2E2E2E2E2E2E2E2E2E2E2E2E2E2E2E2E2E2E2E2E2E2E2E2E2E2E2E2E2E2E2E2E2E2E2E2E2E2E2E2E2E2E2E2E2E2E2E2E2E2E2E2E2E2E2E2E2E2E2E2E22DF5E2E2E2F5F5F5E2E2F5E22DE2E2E2E2E2E2E2E2E2E2E2E2E2E2E2E2E2E2E2E2E2E2E2F5
310
E2E2E2E2E2E2E2E2E2F5E2E2E2E2E2E2E2DCE2E2E2E2E2F5E2E2E2E2E2E2E2E2E2F5E2E2F5F5F5F5E2F5E2E2E2F5F5F5F5E2E2E2E2E2E2E2E2F5F5E2E2E2F5E2E2E2E2E2E2E2E2E2E2E2E2E2E2E2E2E2E2E2E2E2E2E2E2E2E2E2E2E2E2E2E2E2E2E2E2E2E2E2E2E2E2E2E2E2E2E2E2E2E2E2E2E2E2E2E2E2E2E2E2E2E2E2E2
310
E2E2E2E2E2E2E2E2E2E2E2E2E2E2E2E22DF5E2E2E2F5F5F5E2E2F5E22DE2E2E2E2E2E2E2E2E2E2E2E2E2E2E2E2E2E2E2E2E2E2F5F5E2E2E2E2BEE2E2E2E2F5E2E2E2E2E2E2E2DCE2E2E2E2E2F5E2E2E2E2BEE2E2E2E2F5E2E2F5E2F5E2E2F5E2E2E2F5F5F5E2E2E2E2E2E2E2E2E2E2F5E2E2E2F5F5F5F5E2E2E2E2E2E2E2E2
310
E2E2E2E2E2E2E2E2E2E2E2E2E2E2E2E2E2E2E2E2E2E2E2E2E2E2E2E2E2E2E2E2E2E2E2E2E2E2E2E2E2E2E2E2E2E2E2E2E2E2E2E2E2E2E2E2E2E2E2E2E2E2E2E2E2E2E2E2E22DF5E2E2E2F5F5F5E2E2F5E22DE2E2E2E2E2E2E2E2E2E2E2E2E2E2E2E2E2E2E2E2E2E2F5F5E2E2E2F5BEF5E2E2E2F5F5F5F5F5F5F5F5F5F5F5F5
310
F5F5F5E2E2E2F5BEF5E2E2E2F5E2E2F5F5F5E2E2F5E2E2F5F5E2E2E2E2E2E2E2E2E2E2E2E2F5F5F5E2F5E2E2F5E2E2E2E2E2E2E2E2E2E2E2E2E2E2E2E2E2E2E2E2E2E2E2E2E2E2E2E2E2E2E2E2E2E2E2E2E2E2E2E2E2E2E2E2E2E2E2E2E2E2E2E2E2E2E2E2E2E2E2E2E2E2E2E2E2E2E2E2E2E2E2E2E2E2E2E2E22DF5E2E2E2
310
F5F5F5E2E2E2E22DE2E2E2E2E2E2E2E2E2E2E2E2E2E2E2E2E2E2E2E2E2E2F5F5E2E2F5F5BEF5F5E2E2F5E2E2E2E2E2E2E2DCE2E2E2E2E2F5E2E2F5F5BEF5F5E2E2F5E2E2F5E2E2E2E2F5E2E2F5E2E2E2E2E2E2E2E2E2E2E2E2E2F5F5F5F5F5E2E2F5F5F5F5F5F5E2E2E2E2E2E2E2F5F5F5F5E2E2E2E2E2E2E2E2E2E2E2E2E2
310
E2E2E2E2E2E2E2E2E2E2E2E2E2E2E2E2E2E2E2E2E2E2E2E2E2E2E2E2E2E2E2E2E2E2E2E2E2E2E2E2E2E2E2E2E2E2E2E22DE2E2E2E2F5F5F5E2E2E2E22DE2E2E2E2E2E2E2E2E2E2E2E2E2E2E2E2E2E2E2E2E2E2F5F5E2BEBEBEBEBEBEBEE2F5F5F5F5F5F5F5F5F5F5F5F5F5F5F5E2BEBEBEBEBEBEBEE2F5E2E2F5E2E2E2E2F5
310
E2E2F5E2E2E2E2E2E2E2E2E2E2E2E2E2F5F5F5F5F5E2E2F5E2E2E2E2F5F5F5F5F5F5F5F5F5E2E2F5F5F5F5E2E2E2E2E2E2E2E2E2E2E2E2E2E2E2E2E2E2E2E2E2E2E2E2E2E2E2E2E2E2E2E2E2E2E2E2E2E2E2E2E2E2E2E2E2E2E2E2E2E2E2E2E2E2E2E2E2E22DE2E2E2E2F5F5F5E2E2E2E22DE2E2E2E2E2E2E2E2E2E2E2E2E2
310
E2E2E2E2E2E2E2E2E2F5F5E2E2F5F5BEF5F5E2E2F5E2E2E2E2E2E2E2DCE2E2E2E2E2F5E2E2F5E2BEF5F5E2E2F5E2E2F5E2E2E2E2F5E2E2F5E2E2E2E2E2E2E2E2E2E2E2E2E2F5F5F5E2F5E2E2F5E2E2E2E2F5F5F5F5F5E2E2E2F5E2E2F5E2E2F5E2E2E2E2E2E2E2E2E2E2E2E2E2E2E2E2E2E2E2E2E2E2E2E2E2E2E2E2E2E2E2
310
E2E2E2E2E2E2E2E2E2E2E2E2E2E2E2E2E2E2E2E2E2E2E2E2E2E2E22DE2E2E2E2F5F5F5E2E2E2E22DE2E2E2E2E2E2E2E2E2E2E2E2E2E2E2E2E2E2E2E2E2E2F5F5E2E2F5F5BEF5F5E2E2F5E2E2E2E2E2E2E2DCE2E2E2E2E2F5E2E2F5F5BEF5E2E2E2F5E2E2F5E2E2E2E2F5E2E2F5E2E2E2E2E2E2E2E2E2E2E2E2E2E2F5E2E2F5
310
E2E2F5E2E2E2E2F5F5E2E2F5E2E2E2F5E2E2F5E2E2F5E2E2E2E2E2E2E2E2E2E2E2E2E2E2E2E2E2E2E2E2E2E2E2E2E2E2E2E2E2E2E2E2E2E2E2E2E2E2E2E2E2E2E2E2E2E2E2E2E2E2E2E2E2E2E2E2E2E22DE2E2E2E2F5F5F5E2E2E2E22DE2E2E2E2E2E2E2E2E2E2E2E2E2E2E2E2E2E2E2E2BEBEBEBEBEBEBEBEBEBEBEBEBEBE
310
BEBEBEBEBEBEBEBEBEBEBEBEBEBEBEBEBEBEBEBEBEBEBEBEBEBEBEBEBEBEBEBEBEBEBEBEBEBEBEBEBEBEBEBEBEBEBEBEBEBEBEBEBEBEBEBEBEBEBEBEBEBEBEBEBEBEBEBEBEBEBEBEBEBEBEBEE2E2E2E2E2E2E2E2E2E2E2E2E2E2E2E2E2E2E2E2E2E2E2E2E2E2E2E2E2E2E2E2E2E2E2E2E2E2E2E2E2E2E2E2E2E2E2E2E2E2E2
310
E2E2E2E2E2E22DE2E2E2E2F5F5F5E2E2E2E22DE2E2E2E2E2E2E2E2E2E2E2E2E2E2E2E2E2E2E2E2E2E2F5F5E2E2E2E2F5BEF5E2E2F5E2E2E2E2E2E2E2DCE2E2E2E2E2F5E2E2F5BEF5E2E2E2E2F5E2E2F5E2E2E2E2F5E2E2F5F5E2E2E2E2E2E2E2E2E2E2E2E2E2F5E2E2F5E2E2F5E2E2E2E2F5F5E2E2F5E2E2E2F5E2E2F5E2E2
310
F5E2E2E2E2E2E2E2E2E2E2E2E2E2E2E2E2E2E2E2E2E2E2E2E2E2E2E2E2E2E2E2E2E2E2E2E2E2E2E2E2E2E2E2E2E2E2E2E2E2E2E2E2E2E2E2E2E2E22DE2E2E2E2F5F5F5E2E2E2E22DE2E2E2E2E2E2E2E2E2E2E2E2E2E2E2E2E2E2E2E2E2E2F5F5E2E2E2BEBEBEBEBEE2F5E2E2E2E2E2E2E2DCE2E2E2E2E2F5E2BEBEBEBEE2E2
310
E2E2F5E2E2F5E2E2E2E2F5E2E2E2F5E2E2E2E2E2E2E2E2E2E2E2E2F5E2E2E2F5E2E2F5E2E2E2E2F5F5F5F5F5E2E2E2F5E2E2F5E2E2F5E2E2E2E2E2E2E2E2E2E2E2E2E2E2E2E2E2E2E2E2E2E2E2E2E2E2E2E2E2E2E2E2E2E2E2E2E2E2E2E2E2E2E2E2E2E2E2E2E2E2E2E2E2E2E2E2E2E22DE2E2E2E2F5F5F5E2E2E2E22DE2E2
310
E2E2E2E2E2E2E2E2E2E2E2E2E2E2E2E2E2E2E2E2F5F5E2E2E2E2F5BEF5E2E2F5E2E2E2E2E2E2E2DCE2E2E2E2E2F5E2E2F5BEF5E2E2E2E2F5E2E2F5E2E2E2E2F5E2E2E2E2F5E2E2E2E2E2E2E2E2E2E2F5E2E2E2E2F5E2E2F5E2E2E2E2F5F5F5F5F5F5F5F5F5E2E2F5F5F5F5E2E2E2E2E2E2E2E2E2E2E2E2E2E2E2E2E2E2E2E2
310
E2E2E2E2E2E2E2E2E2E2E2E2E2E2E2E2E2E2E2E2E2E2E2E2E2E2E2E2E2E2E2E2E2E2E2E2E2E22DE2E2E2E2F5F5F5E2E2E2E22DE2E2E2E2E2E2E2E2E2E2E2E2E2E2E2E2E2E2E2E2E2E2F5F5E2E2E2E2E2BEE2E2E2F5E2E2E2E2E2E2E2DCE2E2E2E2E2F5E2E2E2BEE2E2E2E2E2F5E2E2F5E2E2E2E2F5E2E2E2E2E2F5F5F5F5E2
310
E2E2E2E2F5F5E2E2E2E2F5E2E2F5F5F5F5F5F5E2E2E2E2E2E2E2F5F5F5F5E2E2E2E2E2E2E2E2E2E2E2E2E2E2E2E2E2E2E2E2E2E2E2E2E2E2E2E2E2E2E2E2E2E2E2E2E2E2E2E2E2E2E2E2E2E2E2E2E2E2E2E2E2E2E2E2E2E2E2E2E22DE2E2E2E2F5F5F5E2E2F5E22DE2E2E2E2E2E2E2E2E2E2E2E2E2E2E2E2E2E2E2E2E2E2F5
310
F5E2E2E2E2E2E2E2E2E2F5E2E2E2E2E2E2E2DCE2E2E2E2E2F5E2E2E2E2E2E2E2E2E2F5E2E2F5F5F5E2E2F5E2E2E2E2E2F5F5F5F5F5E2E2F5F5E2E2E2E2E2E2F5E2E2F5E2E2E2E2E2E2E2E2E2E2E2E2E2E2E2E2E2E2E2E2E2E2E2E2E2E2E2E2E2E2E2E2E2E2E2E2E2E2E2E2E2E2E2E2E2E2E2E2E2E2E2E2E2E2E2E2E2E2E2E2
310
E2E2E2E2E2E2E2E2E2E2E2E2E2E2E2E2E22DF5E2E2E2F5F5F5E2E2F5E22DE2E2E2E2E2E2E2E2E2E2E2E2E2E2E2E2E2E2E2E2E2E2F5F5E2E2E2E2E2E2E2E2E2F5E2E2E2E2E2E2E2DCE2E2E2E2E2F5E2E2E2E2E2E2E2E2E2F5E2E2F5E2F5E2E2F5E2E2E2E2E2F5F5F5F5F5F5F5E2E2E2E2E2E2E2E2F5F5F5F5E2E2E2E2E2E2E2
310
E2E2E2E2E2E2E2E2E2E2E2E2E2E2E2E2E2E2E2E2E2E2E2E2E2E2E2E2E2E2E2E2E2E2E2E2E2E2E2E2E2E2E2E2E2E2E2E2E2E2E2E2E2E2E2E2E2E2E2E2E2E2E2E2E2E2E2E2E2E22DF5E2E2E2F5F5F5E2E2F5E22DE2E2E2E2E2E2E2E2E2E2E2E2E2E2E2E2E2E2E2E2E2E2E2F5E2E2E2E2E2E2E2E2E2F5E2E2E2E2E2E2E2DCE2E2
310
E2E2E2F5E2E2E2E2E2E2E2E2E2F5E2E2F5F5F5F5E2F5E2E2E2E2E2E2F5F5F5E2E2E2E2E2E2E2E2E2E2E2F5E2E2E2E2E2E2E2E2E2E2E2E2E2E2E2E2E2E2E2E2E2E2E2E2E2E2E2E2E2E2E2E2E2E2E2E2E2E2E2E2E2E2E2E2E2E2E2E2E2E2E2E2E2E2E2E2E2E2E2E2E2E2E2E2E2E2E2E2E2E2E2E2E2E2E2E2E2E2E2E22DF5E2E2
310
E2F5F5F5E2E2F5E22DE2E2E2E2E2E2E2E2E2E2E2E2E2E2E2E2E2E2E2E2E2E2E2F5E2E2E2E2E2E2E2E2E2F5E2E2E2E2E2E2E2DCE2E2E2E2E2F5E2E2E2E2E2E2E2E2E2F5E2E2F5E2F5F5F5F5E2E2E2E2E2E2E2E2E2E2E2E2E2E2E2E2E2E2E2E2F5E2E2E2E2E2E2E2E2E2E2E2E2E2E2E2E2E2E2E2E2E2E2E2E2E2E2E2E2E2E2E2
310
E2E2E2E2E2E2E2E2E2E2E2E2E2E2E2E2E2E2E2E2E2E2E2E2E2E2E2E2E2E2E2E2E2E2E2E2E2E2E2E2E2E2E2E2E2E2E2E2E22DF5E2E2E2F5F5F5E2E2F5E22DE2E2E2E2E2E2E2E2E2E2E2E2E2E2E2E2E2E2E2E2E2E2E2F5E2E2E2E2E2E2E2E2E2F5E2E2E2E2E2E2E2DCE2E2E2E2E2F5E2E2E2E2E2E2E2E2E2F5E2E2F5E2F5E2E2
310
F5E2E2E2E2E2E2E2E2E2E2E2E2E2E2E2E2E2E2E2E2F5E2E2E2E2E2E2E2E2E2E2E2E2E2E2E2E2E2E2E2E2E2E2E2E2E2E2E2E2E2E2E2E2E2E2E2E2E2E2E2E2E2E2E2E2E2E2E2E2E2E2E2E2E2E2E2E2E2E2E2E2E2E2E2E2E2E2E2E2E2E2E2E2E2E2E2E2E2E2E2E22DF5E2E2E2F5F5F5E2E2F5E22DE2E2E2E2E2E2E2E2E2E2E2E2
310
E2E2E2E2E2E2E2E2E2E2E2F5F5F5F5F5F5F5F5F5F5F5F5F5F5F5F5F5F5F5F5F5F5F5F5F5F5F5F5F5F5F5F5F5F5F5F5F5F5F5F5E2E2F5F5F5F5F5F5F5F5F5F5F5F5F5F5F5F5F5F5F5F5F5F5E2E2E2E2E2E2E2E2E2E2E2E2E2E2E2E2E2E2E2E2E2E2E2E2E2E2E2E2E2E2E2E2E2E2E2E2E2E2E2E2E2E2E2E2E2E2E2E2E2E2E2E2
310
E2E2E2E2E2E2E2E2E2E2E2E2E2E2E2E2E2E2E2E2E2E2E2E2E2E2E2E22DF5E2E2E2F5F5F5E2E2F5E22DE2E2E2E2E2E2E2E2E2E2E2E2E2E2E2E2E2E2E2E2E2E2E2E2E2E2E2E2E2E2E2E2E2E2E2E2E2E2E2E2E2DCE2E2E2E2E2E2E2E2E2E2E2E2E2E2E2E2E2E2E2E2E2E2E2E2E2E2E2E2E2E2E2E2E2E2E2E2E2E2E2E2E2E2E2E2
310
E2E2E2E2E2E2E2E2E2E2E2E2E2E2E2E2E2E2E2E2E2E2E2E2E2E2E2E2E2E2E2E2E2E2E2E2E2E2E2E2E2E2E2E2E2E2E2E2E2E2E2E2E2E2E2E2E2E2E2E2E2E2E2E2E2E2E2E2E2E2E2E2E2E2E2E2E2E2E2E2E22DF5E2E2E2F5F5F5E2E2F5E22DE2E2E2E2E2E2E2E2E2E2E2E2E2E2E2E2E2E2E2E2E2E2E2E2E2E2E2E2E2E2E2E2E2
310
E2E2E2E2E2E2E2E2DCE2E2E2E2E2E2E2E2E2E2E2E2E2E2E2E2E2E2E2E2E2E2E2E2E2E2E2E2E2E2E2E2E2E2E2E2E2E2E2E2E2E2E2E2E2E2E2E2E2E2E2E2E2E2E2E2E2E2E2E2E2E2E2E2E2E2E2E2E2E2E2E2E2E2E2E2E2E2E2E2E2E2E2E2E2E2E2E2E2E2E2E2E2E2E2E2E2E2E2E2E2E2E2E2E2E2E2E2E2E2E2E2E2E2E2E2E2E2
310
E2E2E2E2E2E2E22DF5E2E2E2F5F5F5E2E2F5E22DE2E2E2E2E2E2E2E2E2E2E2E2E2E2E2E2E2E2E2E2E2E2E2E2E2E2E2E2E2E2E2E2E2E2E2E2E2E2E2E2E2DCE2E2E2E2E2E2E2E2E2E2E2E2E2E2E2E2E2E2E2E2E2E2E2E2E2E2E2E2E2E2E2E2E2E2E2E2E2E2E2E2E2E2E2E2E2E2E2E2E2E2E2E2E2E2E2E2E2E2E2E2E2E2E2E2E2
310
E2E2E2E2E2E2E2E2E2E2E2E2E2E2E2E2E2E2E2E2E2E2E2E2E2E2E2E2E2E2E2E2E2E2E2E2E2E2E2E2E2E2E2E2E2E2E2E2E2E2E2E2E2E2E2E2E2E2E2E22DF5E2E2E2F5F5F5E2E2F5E22DE2E2E2E2E2E2E2E2E2E2E2E2E2E2E2E2E2E2E2E2E2E2E2E2E2E2E2E2E2E2E2E2E2E2E2E2E2E2E2E2E2DCE2E2E2E2E2E2E2E2E2E2E2E2
310
E2E2E2E2E2E2E2E2E2E2E2E2E2E2E2E2E2E2E2E2E2E2E2E2E2E2E2E2E2E2E2E2E2E2E2E2E2E2E2E2E2E2E2E2E2E2E2E2E2E2E2E2E2E2E2E2E2E2E2E2E2E2E2E2E2E2E2E2E2E2E2E2E2E2E2E2E2E2E2E2E2E2E2E2E2E2E2E2E2E2E2E2E2E2E2E2E2E2E2E2E2E2E2E2E2E2E2E2E2E2E2E2E22DF5E2E2E2F5F5F5E2E2F5E22DE2
310
E2E2E2E2E2E2E2E2E2E2E2E2E2E2E2E2E2E2E2E2E2E2E2E2E2E2E2E2E2E2E2E2E2E2E2E2E2E2E2E2DCDCDCDCDCDCE2E2E2E2E2E2E2E2E2E2E2E2E2E2E2E2E2E2E2E2E2E2E2E2E2E2E2E2E2E2E2E2E2E2E2E2E2E2E2E2E2E2E2E2E2E2E2E2E2E2E2E2E2E2E2E2E2E2E2E2E2E2E2E2E2E2E2E2E2E2E2E2E2E2E2E2E2E2E2E2E2
310
E2E2E2E2E2E2E2E2E2E2E2E2E2E2E2E2E2E2E2E2E2E2E2E2E2E2E2E2E2E2E2E2E2E2E2E2E2E2E22DF5E2E2E2F5F5F5E2E2F5E22DE2E2E2E2E2E2E2E2E2E2E2E2E2E2E2E2E2E2E2E2E2E2E2E2E2E2E2E2E2E2E2E2E2E2E2E2E2E2E2E2E22DE2DCDCE2E2E2E2E2E2E2E2E2E2E2E2E2E2E2E2E2E2E2E2E2E2E2E2E2E2E2E2E2E2
310
E2E2E2E2E2E2E2E2E2E2E2E2E2E2E2E2E2E2E2E2E2E2E2E2E2E2E2E2E2E2E2E2E2E2E2E2E2E2E2E2E2E2E2E2E2E2E2E2E2E2E2E2E2E2E2E2E2E2E2E2E2E2E2E2E2E2E2E2E2E2E2E2E2E2E2E2E2E2E2E2E2E2E2E2E2E2E2E2E2E2E2E22DF5E2E2E2F5F5F5E2E2F5E22DE2E2E2E2E2E2E2E2E2E2E2E2E2E2E2E2E2E2E2E2E2E2
310
E2E2E2E2E2E2E2E2E2E2E2E2E2E2E2E2E2E2E22DE2E2E2E2E2E2E2E2E2E2E2E2E2E2E2E2E2E2E2E2E2E2E2E2E2E2E2E2E2E2E2E2E2E2E2E2E2E2E2E2E2E2E2E2E2E2E2E2E2E2E2E2E2E2E2E2E2E2E2E2E2E2E2E2E2E2E2E2E2E2E2E2E2E2E2E2E2E2E2E2E2E2E2E2E2E2E2E2E2E2E2E2E2E2E2E2E2E2E2E2E2E2E2E2E2E2E2
310
E2E2E2E2E2E2E2E2E2E2E2E2E2E2E2E2E2E22DF5E2E2E2F5F5F5E2E2F5E22DE2E2E2E2E2E2E2E2E2E2E2E2E2E2E2E2E2E2E2E2E2E2E2E2E2E2E2E2E2E2E2E2E2E2E2E2E2E2E2E2E22DE2E2E2E2E2E2E2E2E2E2E2E2E2E2E2E2E2E2E2E2E2E2E2E2E2E2E2E2E2E2E2E2E2E2E2E2E2E2E2E2E2E2E2E2E2E2E2E2E2E2E2E2E2E2
310
E2E2E2E2E2E2E2E2E2E2E2E2E2E2E2E2E2E2E2E2E2E2E2E2E2E2E2E2E2E2E2E2E2E2E2E2E2E2E2E2E2E2E2E2E2E2E2E2E2E2E2E2E2E2E2E2E2E2E2E2E2E2E2E2E2E2E2E2E2E2E22DF5E2E2E2F5F5F5E2E2F5E22DE2E2E2E2E2E2E2E2E2E2E2E2E2E2E2E2E2E2E2E2E2E2E2E2E2E2E2E2E2E2E2E2E2E2E2E2E2E2E2E2E22DE2
310
E2E2E2E2E2E2E2E2E2E2E2E2E2E2E2E2E2E2E2E2E2E2E2E2E2E2E2E2E2E2E2E2E2E2E2E2E2E2E2E2E2E2E2E2E2E2E2E2E2E2E2E2E2E2E2E2E2E2E2E2E2E2E2E2E2E2E2E2E2E2E2E2E2E2E2E2E2E2E2E2E2E2E2E2E2E2E2E2E2E2E2E2E2E2E2E2E2E2E2E2E2E2E2E2E2E2E2E2E2E2E2E2E2E2E2E2E2E2E2E2E2E2E2E22DF5E2
310
E2E2F5F5F5E2E2E2E22DE2E2E2E2E2E2E2E2E2E2E2E2E2E2E2E2E2E2E2E2E2E2E2E2E2E2E2E2E2E2E2E2E2E2E2E2E2E2E2E2E22DE2E2E2E2E2E2E2E2E2E2E2E2E2E2E2E2E2E2E2E2E2E2E2E2E2E2E2E2E2E2E2E2E2E2E2E2E2E2E2E2E2E2E2E2E2E2E2E2E2E2E2E2E2E2E2E2E2E2E2E2E2E2E2E2E2E2E2E2E2E2E2E2E2E2E2
310
E2E2E2E2E2E2E2E2E2E2E2E2E2E2E2E2E2E2E2E2E2E2E2E2E2E2E2E2E2E2E2E2E2E2E2E2E2E2E2E2E2E2E2E2E2E2E2E2E2E22DE2E2E2E2F5F5F5E2E2E2E22DE2E2E2E2E2E2E2E2E2E2E2E2E2E2E2E2E2E2E2E2E2E2E2E2E2E2E2E2E2E2E2E2E2E2E2E2E2E2E2E2E22D2D2D2D2D2DE2E2E2E2E2E2E2E2E2E2E2E2E2E2E2E2E2
310
E2E2E2E2E2E2E2E2E2E2E2E2E2E2E2E2E2E2E2E2E2E2E2E2E2E2E2E2E2E2E2E2E2E2E2E2E2E2E2E2E2E2E2E2E2E2E2E2E2E2E2E2E2E2E2E2E2E2E2E2E2E2E2E2E2E2E2E2E2E2E2E2E2E2E2E2E2E2E2E2E2E2E2E2E2E2E2E2E2E2E2E2E2E2E2E2E2E2E2E2E2E2E22DE2E2E2E2F5F5F5E2E2E2E22DE2E2E2E2E2E2E2E2E2E2E2
310
E2E2E2E2E2E2E2E2E2E2E2E2E2E2E2E2E2E2E2E2E2E2E2E2E2E2E2E2E2E22D2D2D2D2D2DE2E2E2E2E2E2E2E2E2E2E2E2E2E2E2E2E2E2E2E2E2E2E2E2E2E2E2E2E2E2E2E2E2E2E2E2E2E2E2E2E2E2E2E2E2E2E2E2E2E2E2E2E2E2E2E2E2E2E2E2E2E2E2E2E2E2E2E2E2E2E2E2E2E2E2E2E2E2E2E2E2E2E2E2E2E2E2E2E2E2E2
310
E2E2E2E2E2E2E2E2E2E2E2E2E2E2E2E2E2E2E2E2E2E2E2E2E2E2E2E2E22DE2E2E2E2F5F5F5E2E2E2E22DE2E2E2E2E2E2E2E2E2E2E2E2E2E2E2E2E2E2E2E2E2E2E2E2E2E2E2E2E2E2E2E2E2E2E2E2E2E2E2E2E2E2E2E2E2E2E2E2E2E2E2E2E2E2E2E2E2E2E2E2E2E2E2E2E2E2E2E2E2E2E2E2E2E2E2E2E2E2E2E2E2E2E2E2E2
310
E2E2E2E2E2E2E2E2E2E2E2E2E2E2E2E2E2E2E2E2E2E2E2E2E2E2E2E2E2E2E2E2E2E2E2E2E2E2E2E2E2E2E2E2E2E2E2E2E2E2E2E2E2E2E2E2E2E2E2E2E2E2E2E2E2E2E2E2E2E2E2E2E2E2E2E2E2E2E2E2E2E22DE2E2E2E2F5F5F5E2E2E2E22DE2E2E2E2E2E2E2E2E2E2E2E2E2E2E2E2E2E2E2E2E2E2E2E2E2E2E2E2E2E2E2E2
310
E2E2E2E2E2E2E2E2E2E2E2E2E2E2E2E2E2E2E2E2E2E2E2E2E2E2E2E2E2E2E2E2E2E2E2E2E2E2E2E2E2E2E2E2E2E2E2E2E2E2E2E2E2E2E2E2E2E2E2E2E2E2E2E2E2E2E2E2E2E2E2E2E2E2E2E2E2E2E2E2E2E2E2E2E2E2E2E2E2E2E2E2E2E2E2E2E2E2E2E2E2E2E2E2E2E2E2E2E2E2E2E2E2E2E2E2E2E2E2E2E2E2E2E2E2E2E2
310
E2E2E2E2E2E2E2E22DE2E2E2E2F5F5F5E2E2E2E22DE2E2E2E2E2E2E2E2E2E2E2E2E2E2E2E2E2E2E2E2E2E2E2E2E2E2E2E2E2E2E2E2E2E2E2E2E2E2E2E2E2E2E2E2E2E2E2E2E2E2E2E2E2E2E2E2E2E2E2E2E2E2E2E2E2E2E2E2E2E2E2E2E2E2E2E2E2E2E2E2E2E2E2E2E2E2E2E2E2E2E2E2E2E2E2E2E2E2E2E2E2E2E2E2E2E2
310
E2E2E2E2E2E2E2E2E2E2E2E2E2E2E2E2E2E2E2E2E2E2E2E2E2E2E2E2E2E2E2E2E2E2E2E2E2E2E2E2E2E2E2E2E2E2E2E2E2E2E2E2E2E2E2E2E2E2E2E2E22DE2E2E2E2F5F5F5E2E2E2E22DE2E2E2E2E2E2E2E2E2E2E2E2E2E2E2E2E2E2E2E2E2E2E2E2E2E2E2E2E2E2E2E2E2E2E2E2E2E2E2E2E2E2E2E2E2E2E2E2E2E2E2E2E2
310
E2E2E2E2E2E2E2E2E2E2E2E2E2E2E2E2E2E2E2E2E2E2E2E2E2E2E2E2E2E2E2E2E2E2E2E2E2E2E2E2E2E2E2E2E2E2E2E2E2E2E2E2E2E2E2E2E2E2E2E2E2E2E2E2E2E2E2E2E2E2E2E2E2E2E2E2E2E2E2E2E2E2E2E2E2E2E2E2E2E2E2E2E2E2E2E2E2E2E2E2E2E2E2E2E2E2E2E2E2E2E2E2E2E22DE2E2E2E2F5F5F5E2E2E2E22D
310
E2E2E2E2E2E2E2E2E2E2E2E2E2E2E2E2E2E2E2E2E2E2E2E2E2E2E2E2E2E2E2E2E2E2E2E2E2E2E2E2E2E2E2E2E2E2E2E2E2E2E2E2E2E2E2E2E2E2E2E2E2E2E2E2E2E2E2E2E2E2E2E2E2E2E2E2E2E2E2E2E2E2E2E2E2E2E2E2E2E2E2E2E2E2E2E2E2E2E2E2E2E2E2E2E2E2E2E2E2E2E2E2E2E2E2E2E2E2E2E2E2E2E2E2E2E2E2
310
E2E2E2E2E2E2E2E2E2E2E2E2E2E2E2E2E2E2E2E2E2E2E2E2E2E2E2E2E2E2E2E2E2E2E2E2E2E2E2E22DE2E2E2E2F5F5F5E2E2F5E22DE2E2E2E2E2E2E2E2E2E2E2E2E2E2E2E2E2E2E2E2E2E2E2E2E2E2E2E2E2E2E2E2E2E2E2E2E2E2E2E2E2E2E2E2E2E2E2E2E2E2E2E2E2E2E2E2E2E2E2E2E2E2E2E2E2E2E2E2E2E2E2E2E2E2
310
E2E2E2E2E2E2E2E2E2E2E2E2E2E2E2E2E2E2E2E2E2E2E2E2E2E2E2E2E2E2E2E2E2E2E2E2E2E2E2E2E2E2E2E2E2E2E2E2E2E2E2E2E2E2E2E2E2E2E2E2E2E2E2E2E2E2E2E2E2E2E2E2E2E2E2E2E2E2E2E2E2E2E2E2E2E2E2E2E2E2E2E2E22DF5E2E2E2F5F5F5E2E2F5E22DE2E2E2E2E2E2E2E2E2E2E2E2E2E2E2E2E2E2E2E2E2
310
E2E2E2E2E2E2E2E2E2E2E2E2E2E2E2E2E2E2E2E2E2E2E2E2E2E2E2E2E2E2E2E2E2E2E2E2E2E2E2E2E2E2E2E2E2E2E2E2E2E2E2E2E2E2E2E2E2E2E2E2E2E2E2E2E2E2E2E2E2E2E2E2E2E2E2E2E2E2E2E2E2E2E2E2E2E2E2E2E2E2E2E2E2E2E2E2E2E2E2E2E2E2E2E2E2E2E2E2E2E2E2E2E2E2E2E2E2E2E2E2E2E2E2E2E2E2E2
310
E2E2E2E2E2E2E2E2E2E2E2E2E2E2E2E2E2E2E22DF5E2E2E2F5F5F5E2E2F5E22DE2E2E2E2E2E2E2E2E2E2E2E2E2E2E2E2E2E2E2E2E2E2E2E2E2E2E2E2E2E2E2E2E2E2E2E2E2E2E2E2E2E2E2E2E2E2E2E2E2E2E2E2E2E2E2E2E2E2E2E2E2E2E2E2E2E2E2E2E2E2E2E2E2E2E2E2E2E2E2E2E2E2E2E2E2E2E2E2E2E2E2E2E2E2E2
310
E2E2E2E2E2E2E2E2E2E2E2E2E2E2E2E2E2E2E2E2E2E2E2E2E2E2E2E2E2E2E2E2E2E2E2E2E2E2E2E2E2E2E2E2E2E2E2E2E2E2E2E2E2E2E2E2E2E2E2E2E2E2E2E2E2E2E2E2E2E2E2E22DF5E2E2E2F5F5F5E2E2F5E22DE2E2E2E2E2E2E2E2E2E2E2E2E2E2E2E2E2E2E2E2E2E2E2E2E2E2E2E2E2E2E2E2E2E2E2E2E2E2E2E2E2E2
310
E2E2E2E2E2E2E2E2E2E2E2E2E2E2E2E2E2E2E2E2E2E2E2E2E2E2E2E2E2E2E2E2E2E2E2E2E2E2E2E2E2E2E2E2E2E2E2E2E2E2E2E2E2E2E2E2E2E2E2E2E2E2E2E2E2E2E2E2E2E2E2E2E2E2E2E2E2E2E2E2E2E2E2E2E2E2E2E2E2E2E2E2E2E2E2E2E2E2E2E2E2E2E2E2E2E2E2E2E2E2E2E2E2E2E2E2E2E2E2E2E2E2E2E2E22DF5
310
E2E2E2F5F5F5E2E2F5E22DE2E2E2E2E2E2E2E2E2E2E2E2E2E2E2E2E2E2E2E2E2E2E2E2E2E2E2E2E2E2E2E2E2E2E2E2E2E2E2E2E2E2E2E2E2E2E2E2E2E2E2E2E2E2E2E2E2E2E2E2E2E2E2E2E2E2E2E2E2E2E2E2E2E2E2E2E2E2E2E2E2E2E2E2E2E2E2E2E2E2E2E2E2E2E2E2E2E2E2E2E2E2E2E2E2E2E2E2E2E2E2E2E2E2E2E2
310
E2E2E2E2E2E2E2E2E2E2E2E2E2E2E2E2E2E2E2E2E2E2E2E2E2E2E2E2E2E2E2E2E2E2E2E2E2E2E2E2E2E2E2E2E2E2E2E2E2E2E22DF5E2E2E2F5F5F5E2E2F5E22DE2E2E2E2E2E2E2E2E2E2E2E2E2E2E2E2E2E2E2E2E2E2E2E2E2E2E2E2E2E2E2E2E2E2E2E2E2E2E2E2E2E2E2E2E2E2E2E2E2E2E2E2E2E2E2E2E2E2E2E2E2E2E2
310
E2E2E2E2E2E2E2E2E2E2E2E2E2E2E2E2E2E2E2E2E2E2E2E2E2E2E2E2E2E2E2E2E2E2E2E2E2E2E2E2E2E2E2E2E2E2E2E2E2E2E2E2E2E2E2E2E2E2E2E2E2E2E2E2E2E2E2E2E2E2E2E2E2E2E2E2E2E2E2E2E2E2E2E2E2E2E2E2E2E2E2E2E2E2E2E2E2E2E2E2E2E2E2E22DF5E2E2E2F5F5F5E2E2F5E22DE2E2E2E2E2E2E2E2E2E2
310
E2E2E2E2E2E2E2E2E2E2E2E2E2E2E2E2E2E2E2E2E2E2E2E2E2E2E2E2E2E2E2E2E2E2E2E2E2E2E2E2E2E2E2E2E2E2E2E2E2E2E2E2E2E2E2E2E2E2E2E2E2E2E2E2E2E2E2E2E2E2E2E2E2E2E2E2E2E2E2E2E2E2E2E2E2E2E2E2E2E2E2E2E2E2E2E2E2E2E2E2E2E2E2E2E2E2E2E2E2E2E2E2E2E2E2E2E2E2E2E2E2E2E2E2E2E2E2
310
E2E2E2E2E2E2E2E2E2E2E2E2E2E2E2E2E2E2E2E2E2E2E2E2E2E2E2E2E2E22DF5E2E2E2F5F5F5E2E2F5F52D2D2D2D2D2D2D2D2D2D2D2D2D2D2D2D2D2D2D2D2D2D2D2D2D2D2D2D2D2D2D2D2D2D2D2D2D2D2D2D2D2D2D2D2D2D2D2D2D2D2D2D2D2D2D2D2D2D2D2D2D2D2D2D2D2D2D2D2D2D2D2D2D2D2D2D2D2D2D2D2D2D2D2D2D
310
2D2D2D2D2D2D2D2D2D2D2D2D2D2D2D2D2D2D2D2D2D2D2D2D2D2D2D2D2D2D2D2D2D2D2D2D2D2D2D2D2D2D2D2D2D2D2D2D2D2D2D2D2D2D2D2D2D2D2D2D2D2D2D2D2D2D2D2D2D2D2D2D2D2D2D2D2D2D2D2D2D2D2D2DF5E2E2E2F5F5F5E2E2E2E2E2E2E2E2E2E2E2E2E2E2E2E2E2E2E2E2E2E2E2E2E2E2E2E2E2E2E2E2E2E2E2E2
310
E2E2E2E2E2E2E2E2E2E2E2E2E2E2E2E2E2E2E2E2E2E2E2E2E2E2E2E2E2E2E2E2E2E2E2E2E2E2E2E2E2E2E2E2E2E2E2E2E2E2E2E2E2E2E2E2E2E2E2E2E2E2E2E2E2E2E2E2E2E2E2E2E2E2E2E2E2E2E2E2E2E2E2E2E2E2E2E2E2E2E2E2E2E2E2E2E2E2E2E2E2E2E2E2E2E2E2E2E2E2E2E2E2E2E2E2E2E2E2E2E2E2E2E2E2E2E2
310
E2E2E2E2E2E2E2E2E2E2E2E2E2E2F5F5F5E2E2E2E2E2E2E2E2E2E2E2E2E2E2E2E2E2E2E2E2E2E2E2E2E2E2E2E2E2E2E2E2E2E2E2E2E2E2E2E2E2E2E2E2E2E2E2E2E2E2E2E2E2E2E2E2E2E2E2E2E2E2E2E2E2E2E2E2E2E2E2E2E2E2E2E2E2E2E2E2E2E2E2E2E2E2E2E2E2E2E2E2E2E2E2E2E2E2E2E2E2E2E2E2E2E2E2E2E2E2
310
E2E2E2E2E2E2E2E2E2E2E2E2E2E2E2E2E2E2E2E2E2E2E2E2E2E2E2E2E2E2E2E2E2E2E2E2E2E2E2E2E2E2E2E2E2E2E2E2E2E2E2E2E2E2E2E2E2E2E2E2E2E2E2E2E2E2E2F5F5F5E2E2E2E2E2E2E2E2E2E2E2E2E2E2E2E2E2E2E2E2E2E2E2E2E2E2E2E2E2E2E2E2E2E2E2E2E2E2E2E2E2E2E2E2E2E2E2E2E2E2E2E2E2E2E2E2E2
310
E2E2E2E2E2E2E2E2E2E2E2E2E2E2E2E2E2E2E2E2E2E2E2E2E2E2E2E2E2E2E2E2E2E2E2E2E2E2E2E2E2E2E2E2E2E2E2E2E2E2E2E2E2E2E2E2E2E2E2E2E2E2E2E2E2E2E2E2E2E2E2E2E2E2E2E2E2E2E2E2E2E2E2E2E2E2E2E2E2E2E2E2E2E2E2E2E2E2E2E2E2E2E2E2E2E2E2E2E2E2E2E2E2E2E2E2E2E2E2E2F5EFF5F5F5F5F5
310
F5F5F5F5F5F5F5F5F5F5F5F5F5F5F5F5F5F5F5F5F5F5F5F5F5F5F5F5F5F5F5F5F5F5F5F5F5F5F5F5F5F5F5F5F5F5F5F5F5F5F5F5F5F5F5F5F5F5F5F5F5F5F5F5F5F5F5F5F5F5F5F5F5F5F5F5F5F5F5F5F5F5F5F5F5F5F5F5F5F5F5F5F5F5F5F5F5F5F5F5F5F5F5F5F5F5F5F5F5F5F5F5F5F5F5F5F5F5F5F5F5F5F5F5F5F5F5
310
F5F5F5F5F5F5F5F5F5F5F5F5F5F5F5F5F5F5F5F5F5F5F5F5F5F5F5F5F5F5F5F5F5F5F5F5F5F5F5F5F5F5F5F5F5F5F5EF
  0
ENDSEC
  0
EOF
