  0
SECTION
  2
HEADER
  9
$ACADVER
  1
AC1015
  9
$ACADMAINTVER
 70
    20
  9
$DWGCODEPAGE
  3
ANSI_950
  9
$INSBASE
 10
0.0
 20
0.0
 30
0.0
  9
$EXTMIN
 10
1.000000000000000E+20
 20
1.000000000000000E+20
 30
1.000000000000000E+20
  9
$EXTMAX
 10
-1.000000000000000E+20
 20
-1.000000000000000E+20
 30
-1.000000000000000E+20
  9
$LIMMIN
 10
0.0
 20
0.0
  9
$LIMMAX
 10
420.0
 20
297.0
  9
$ORTHOMODE
 70
     0
  9
$REGENMODE
 70
     1
  9
$FILLMODE
 70
     1
  9
$QTEXTMODE
 70
     0
  9
$MIRRTEXT
 70
     1
  9
$LTSCALE
 40
1.0
  9
$ATTMODE
 70
     1
  9
$TEXTSIZE
 40
3.5
  9
$TRACEWID
 40
1.0
  9
$TEXTSTYLE
  7
STANDARD
  9
$CLAYER
  8
0
  9
$CELTYPE
  6
BYLAYER
  9
$CECOLOR
 62
   256
  9
$CELTSCALE
 40
1.0
  9
$DISPSILH
 70
     0
  9
$DIMSCALE
 40
1.0
  9
$DIMASZ
 40
3.5
  9
$DIMEXO
 40
1.0
  9
$DIMDLI
 40
8.0
  9
$DIMRND
 40
0.0
  9
$DIMDLE
 40
0.0
  9
$DIMEXE
 40
1.0
  9
$DIMTP
 40
0.1
  9
$DIMTM
 40
0.1
  9
$DIMTXT
 40
3.5
  9
$DIMCEN
 40
0.0
  9
$DIMTSZ
 40
0.0
  9
$DIMTOL
 70
     0
  9
$DIMLIM
 70
     0
  9
$DIMTIH
 70
     0
  9
$DIMTOH
 70
     0
  9
$DIMSE1
 70
     0
  9
$DIMSE2
 70
     0
  9
$DIMTAD
 70
     1
  9
$DIMZIN
 70
     8
  9
$DIMBLK
  1

  9
$DIMASO
 70
     1
  9
$DIMSHO
 70
     1
  9
$DIMPOST
  1

  9
$DIMAPOST
  1
"
  9
$DIMALT
 70
     0
  9
$DIMALTD
 70
     2
  9
$DIMALTF
 40
0.0393701
  9
$DIMLFAC
 40
1.0
  9
$DIMTOFL
 70
     1
  9
$DIMTVP
 40
0.0
  9
$DIMTIX
 70
     0
  9
$DIMSOXD
 70
     0
  9
$DIMSAH
 70
     0
  9
$DIMBLK1
  1

  9
$DIMBLK2
  1

  9
$DIMSTYLE
  2
AM_ISO
  9
$DIMCLRD
 70
   256
  9
$DIMCLRE
 70
   256
  9
$DIMCLRT
 70
   256
  9
$DIMTFAC
 40
0.71
  9
$DIMGAP
 40
1.0
  9
$DIMJUST
 70
     0
  9
$DIMSD1
 70
     0
  9
$DIMSD2
 70
     0
  9
$DIMTOLJ
 70
     0
  9
$DIMTZIN
 70
     8
  9
$DIMALTZ
 70
     8
  9
$DIMALTTZ
 70
     0
  9
$DIMUPT
 70
     0
  9
$DIMDEC
 70
     2
  9
$DIMTDEC
 70
     8
  9
$DIMALTU
 70
     2
  9
$DIMALTTD
 70
     2
  9
$DIMTXSTY
  7
STANDARD
  9
$DIMAUNIT
 70
     0
  9
$DIMADEC
 70
     0
  9
$DIMALTRND
 40
0.0
  9
$DIMAZIN
 70
     2
  9
$DIMDSEP
 70
    46
  9
$DIMATFIT
 70
     3
  9
$DIMFRAC
 70
     0
  9
$DIMLDRBLK
  1

  9
$DIMLUNIT
 70
     2
  9
$DIMLWD
 70
    -1
  9
$DIMLWE
 70
    -1
  9
$DIMTMOVE
 70
     0
  9
$LUNITS
 70
     2
  9
$LUPREC
 70
     2
  9
$SKETCHINC
 40
1.0
  9
$FILLETRAD
 40
2.5
  9
$AUNITS
 70
     0
  9
$AUPREC
 70
     0
  9
$MENU
  1
.
  9
$ELEVATION
 40
0.0
  9
$PELEVATION
 40
0.0
  9
$THICKNESS
 40
0.0
  9
$LIMCHECK
 70
     0
  9
$CHAMFERA
 40
2.5
  9
$CHAMFERB
 40
2.5
  9
$CHAMFERC
 40
20.0
  9
$CHAMFERD
 40
0.0
  9
$SKPOLY
 70
     0
  9
$TDCREATE
 40
2454887.677864873
  9
$TDUCREATE
 40
2454887.344531540
  9
$TDUPDATE
 40
2456639.625792998
  9
$TDUUPDATE
 40
2456639.292459664
  9
$TDINDWG
 40
0.4259716551
  9
$TDUSRTIMER
 40
0.4259716551
  9
$USRTIMER
 70
     1
  9
$ANGBASE
 50
0.0
  9
$ANGDIR
 70
     0
  9
$PDMODE
 70
     0
  9
$PDSIZE
 40
0.0
  9
$PLINEWID
 40
0.0
  9
$SPLFRAME
 70
     0
  9
$SPLINETYPE
 70
     6
  9
$SPLINESEGS
 70
     8
  9
$HANDSEED
  5
21CE
  9
$SURFTAB1
 70
     6
  9
$SURFTAB2
 70
     6
  9
$SURFTYPE
 70
     6
  9
$SURFU
 70
     6
  9
$SURFV
 70
     6
  9
$UCSBASE
  2

  9
$UCSNAME
  2

  9
$UCSORG
 10
0.0
 20
0.0
 30
0.0
  9
$UCSXDIR
 10
1.0
 20
0.0
 30
0.0
  9
$UCSYDIR
 10
0.0
 20
1.0
 30
0.0
  9
$UCSORTHOREF
  2

  9
$UCSORTHOVIEW
 70
     0
  9
$UCSORGTOP
 10
0.0
 20
0.0
 30
0.0
  9
$UCSORGBOTTOM
 10
0.0
 20
0.0
 30
0.0
  9
$UCSORGLEFT
 10
0.0
 20
0.0
 30
0.0
  9
$UCSORGRIGHT
 10
0.0
 20
0.0
 30
0.0
  9
$UCSORGFRONT
 10
0.0
 20
0.0
 30
0.0
  9
$UCSORGBACK
 10
0.0
 20
0.0
 30
0.0
  9
$PUCSBASE
  2

  9
$PUCSNAME
  2

  9
$PUCSORG
 10
0.0
 20
0.0
 30
0.0
  9
$PUCSXDIR
 10
1.0
 20
0.0
 30
0.0
  9
$PUCSYDIR
 10
0.0
 20
1.0
 30
0.0
  9
$PUCSORTHOREF
  2

  9
$PUCSORTHOVIEW
 70
     0
  9
$PUCSORGTOP
 10
0.0
 20
0.0
 30
0.0
  9
$PUCSORGBOTTOM
 10
0.0
 20
0.0
 30
0.0
  9
$PUCSORGLEFT
 10
0.0
 20
0.0
 30
0.0
  9
$PUCSORGRIGHT
 10
0.0
 20
0.0
 30
0.0
  9
$PUCSORGFRONT
 10
0.0
 20
0.0
 30
0.0
  9
$PUCSORGBACK
 10
0.0
 20
0.0
 30
0.0
  9
$USERI1
 70
     0
  9
$USERI2
 70
     0
  9
$USERI3
 70
     0
  9
$USERI4
 70
     0
  9
$USERI5
 70
     0
  9
$USERR1
 40
0.0
  9
$USERR2
 40
0.0
  9
$USERR3
 40
0.0
  9
$USERR4
 40
0.0
  9
$USERR5
 40
0.0
  9
$WORLDVIEW
 70
     1
  9
$SHADEDGE
 70
     3
  9
$SHADEDIF
 70
    70
  9
$TILEMODE
 70
     0
  9
$MAXACTVP
 70
    48
  9
$PINSBASE
 10
0.0
 20
0.0
 30
0.0
  9
$PLIMCHECK
 70
     0
  9
$PEXTMIN
 10
28.4314160608721
 20
-15.69295065893902
 30
-0.0000000000000579
  9
$PEXTMAX
 10
550.1991347964467
 20
348.774916371925
 30
285.7425220874162
  9
$PLIMMIN
 10
14.06136962568069
 20
-28.34693836201341
  9
$PLIMMAX
 10
565.7035353677051
 20
361.7507398662042
  9
$UNITMODE
 70
     0
  9
$VISRETAIN
 70
     1
  9
$PLINEGEN
 70
     0
  9
$PSLTSCALE
 70
     1
  9
$TREEDEPTH
 70
  3020
  9
$CMLSTYLE
  2
STANDARD
  9
$CMLJUST
 70
     0
  9
$CMLSCALE
 40
1.0
  9
$PROXYGRAPHICS
 70
     1
  9
$MEASUREMENT
 70
     1
  9
$CELWEIGHT
370
    -1
  9
$ENDCAPS
280
     0
  9
$JOINSTYLE
280
     0
  9
$LWDISPLAY
290
     0
  9
$INSUNITS
 70
     4
  9
$HYPERLINKBASE
  1

  9
$STYLESHEET
  1

  9
$XEDIT
290
     1
  9
$CEPSNTYPE
380
     0
  9
$PSTYLEMODE
290
     1
  9
$FINGERPRINTGUID
  2
{03574417-9B09-48FF-BB66-C5E711BBF8F2}
  9
$VERSIONGUID
  2
{FE893EF0-321A-4E1D-9CEA-F4587EEBC98F}
  9
$EXTNAMES
290
     1
  9
$PSVPSCALE
 40
0.0
  9
$OLESTARTUP
290
     0
  0
ENDSEC
  0
SECTION
  2
CLASSES
  0
CLASS
  1
DICTIONARYVAR
  2
AcDbDictionaryVar
  3
ObjectDBX Classes
 90
        0
280
     0
281
     0
  0
CLASS
  1
ACMESTATEMGR
  2
AcMeStateMgr
  3
AcMeServices
 90
        0
280
     0
281
     0
  0
CLASS
  1
ACMESCOPE
  2
AcMeScope
  3
AcMeServices
 90
        0
280
     0
281
     0
  0
CLASS
  1
ACMECOMMANDHISTORY
  2
AcMeCommandHistory
  3
AcMeServices
 90
        0
280
     0
281
     0
  0
CLASS
  1
ACRFINSADJUSTERMGR
  2
AcRfInsAdjusterMgr
  3
AcMeServices
 90
        0
280
     0
281
     0
  0
CLASS
  1
ACMEDRAWINGMAN
  2
AcMeDrawingMan
  3
AcMeServices
 90
        0
280
     0
281
     0
  0
CLASS
  1
AMATTR
  2
AcMeAttribute
  3
AcMeServices
 90
    32768
280
     0
281
     0
  0
CLASS
  1
ACMEBOMCOLUMN
  2
AcMeBOMColumn
  3
AcMeServices
 90
    32768
280
     0
281
     0
  0
CLASS
  1
ACMEBOMCONF
  2
AcMeBOMConf
  3
AcMeServices
 90
    32768
280
     0
281
     0
  0
CLASS
  1
ACMEBOMTABLE
  2
AcMeBOMTable
  3
AcMeServices
 90
    32768
280
     0
281
     0
  0
CLASS
  1
ACMEBOMENTRY
  2
AcMeBOMEntry
  3
AcMeServices
 90
    32768
280
     0
281
     0
  0
CLASS
  1
ACMEVIEW
  2
AcMeView
  3
AcMeServices
 90
        0
280
     0
281
     0
  0
CLASS
  1
ACGREFMASTER
  2
AcGrefMaster
  3
AcAttribServices
 90
        0
280
     0
281
     0
  0
CLASS
  1
AMIMASTER
  2
AmiMaster
  3
AmiServices
 90
        0
280
     0
281
     0
  0
CLASS
  1
ACASGREFMASTER
  2
AcAsGrefMaster
  3
AutoSurfResolverServices
 90
        0
280
     0
281
     0
  0
CLASS
  1
ADAPPL
  2
AcAdAppl
  3
DesignerServices
 90
        0
280
     0
281
     0
  0
CLASS
  1
DEPMGR
  2
AcAdDepMgr
  3
DesignerServices
 90
        0
280
     0
281
     0
  0
CLASS
  1
PARAMMGR
  2
AcAdParamMgr
  3
DesignerServices
 90
        0
280
     0
281
     0
  0
CLASS
  1
PARAMSCOPE
  2
AcAdParamScope
  3
DesignerServices
 90
        0
280
     0
281
     0
  0
CLASS
  1
ACIMSYSVARMAN
  2
AcImSysVarManager
  3
AcMeServices
 90
        0
280
     0
281
     0
  0
CLASS
  1
ACIMINTSYSVAR
  2
AcImIntSysVar
  3
AcMeServices
 90
        0
280
     0
281
     0
  0
CLASS
  1
ACIMREALSYSVAR
  2
AcImRealSysVar
  3
AcMeServices
 90
        0
280
     0
281
     0
  0
CLASS
  1
ACIMSTRSYSVAR
  2
AcImStrSysVar
  3
AcMeServices
 90
        0
280
     0
281
     0
  0
CLASS
  1
NAMEDAPPL
  2
AcAdNamedAppl
  3
DesignerServices
 90
        0
280
     0
281
     0
  0
CLASS
  1
ADHNTMPLT
  2
AdHoleNoteTemplateMgr
  3
DesignerServices
 90
    32768
280
     0
281
     0
  0
CLASS
  1
AM_HNTEMPLATE_MGR_NAME
  2
AdHoleNoteTemplateMgrName
  3
DesignerServices
 90
    32768
280
     0
281
     0
  0
CLASS
  1
ACADGREFMODULE
  2
AcAdGrefModule
  3
AdGrefServices
 90
        0
280
     0
281
     0
  0
CLASS
  1
AM_DRAWING_MGR
  2
AcDmDwgMgr
  3
AcMechDwgViewMgmt
 90
        0
280
     0
281
     0
  0
CLASS
  1
AM_DWG_DOCUMENT
  2
AcDmDwgDocument
  3
AcMechDwgViewMgmt
 90
        0
280
     0
281
     0
  0
CLASS
  1
AM_DWG_SHEET
  2
AcDmSheet
  3
AcMechDwgViewMgmt
 90
        0
280
     0
281
     0
  0
CLASS
  1
AM_VIEWDIMPARMAP
  2
AcDmViewDimParMap
  3
AcMechDwgViewMgmt
 90
        0
280
     0
281
     0
  0
CLASS
  1
AM_DWGMGR_NAME
  2
AcDmDwgMgrName
  3
AcMechDwgViewMgmt
 90
        0
280
     0
281
     0
  0
CLASS
  1
ACAMPROJECT
  2
AcAmProject
  3
DesignerAssemblies
 90
        0
280
     0
281
     0
  0
CLASS
  1
ACAMGRCOMPSET
  2
AcAmGrCompSet
  3
DesignerAssemblies
 90
    32768
280
     1
281
     0
  0
CLASS
  1
ACAMGRCOMPDEFSET
  2
AcAmGrCompDefSet
  3
DesignerAssemblies
 90
        0
280
     0
281
     0
  0
CLASS
  1
ACAMGRCOMPDEF
  2
AcAmGrCompDef
  3
DesignerAssemblies
 90
        0
280
     0
281
     0
  0
CLASS
  1
ACCMCONTEXT
  2
AcCmContext
  3
DesignerAssemblies
 90
        0
280
     0
281
     0
  0
CLASS
  1
ACAMCOMPDEF
  2
AcAmCompDef
  3
DesignerAssemblies
 90
        0
280
     0
281
     0
  0
CLASS
  1
ACAMCOMPDEFMGR
  2
AcAmCompDefMgr
  3
DesignerAssemblies
 90
        0
280
     0
281
     0
  0
CLASS
  1
AMCONTEXTMGR
  2
AcAmContextMgr
  3
DesignerAssemblies
 90
        0
280
     0
281
     0
  0
CLASS
  1
ACAMCONTEXTMODELER
  2
AcAmContextModeler
  3
DesignerAssemblies
 90
        0
280
     0
281
     0
  0
CLASS
  1
ACDMVIEWGEOM
  2
AcDmViewGeometry
  3
AcMechDwgViewMgmt
 90
    32768
280
     0
281
     1
  0
CLASS
  1
CBROWSERAPPOBJECT
  2
CBrowserAppObject
  3
McadcomServices
 90
        0
280
     0
281
     0
  0
CLASS
  1
IM_STATIC_MAN
  2
AcImStaticVarManager
  3
AcMeServices
 90
        0
280
     0
281
     0
  0
CLASS
  1
ASAPP
  2
AcAsAppObject
  3
AutoSurfServices
 90
        0
280
     0
281
     0
  0
CLASS
  1
ACIMDBLSTATICVAR
  2
AcImDblStaticVar
  3
AcMeServices
 90
        0
280
     0
281
     0
  0
CLASS
  1
ACIMSTRSTATICVAR
  2
AcImStrStaticVar
  3
AcMeServices
 90
        0
280
     0
281
     0
  0
CLASS
  1
ACIMINTSTATICVAR
  2
AcImIntStaticVar
  3
AcMeServices
 90
        0
280
     0
281
     0
  0
CLASS
  1
CATALOGSTATE
  2
AcAmCatalogState
  3
DesignerAssemblies
 90
        0
280
     0
281
     0
  0
CLASS
  1
DM_PLACEHOLDER
  2
AcDmSelsetPlaceholder
  3
AcMechDwgViewMgmt
 90
        0
280
     0
281
     0
  0
CLASS
  1
LAYER_INDEX
  2
AcDbLayerIndex
  3
ObjectDBX Classes
 90
        0
280
     0
281
     0
  0
CLASS
  1
IDBUFFER
  2
AcDbIdBuffer
  3
ObjectDBX Classes
 90
        0
280
     0
281
     0
  0
CLASS
  1
ACMSTANDARDJIS
  2
AcmStandardJIS
  3
"Amdt_StdImp|Product Description: AutoCAD Mechanical 2004 DX|Company: Autodesk"
 90
    32768
280
     0
281
     0
  0
CLASS
  1
ACMSTANDARDANSI
  2
AcmStandardANSI
  3
"Amdt_StdImp|Product Description: AutoCAD Mechanical 2004 DX|Company: Autodesk"
 90
    32768
280
     0
281
     0
  0
CLASS
  1
ACMSTANDARDBSI
  2
AcmStandardBSI
  3
"Amdt_StdImp|Product Description: AutoCAD Mechanical 2004 DX|Company: Autodesk"
 90
    32768
280
     0
281
     0
  0
CLASS
  1
ACMSTANDARDDIN
  2
AcmStandardDIN
  3
"Amdt_StdImp|Product Description: AutoCAD Mechanical 2004 DX|Company: Autodesk"
 90
    32768
280
     0
281
     0
  0
CLASS
  1
ACMSTANDARDISO
  2
AcmStandardISO
  3
"Amdt_StdImp|Product Description: AutoCAD Mechanical 2004 DX|Company: Autodesk"
 90
        0
280
     0
281
     0
  0
CLASS
  1
ACDBDICTIONARYWDFLT
  2
AcDbDictionaryWithDefault
  3
ObjectDBX Classes
 90
        0
280
     0
281
     0
  0
CLASS
  1
ACDBPLACEHOLDER
  2
AcDbPlaceHolder
  3
ObjectDBX Classes
 90
        0
280
     0
281
     0
  0
CLASS
  1
LAYOUT
  2
AcDbLayout
  3
ObjectDBX Classes
 90
        0
280
     0
281
     0
  0
CLASS
  1
ACME_DOCUMENT
  2
AcMeDbDoc
  3
AcMeServices
 90
        0
280
     0
281
     0
  0
CLASS
  1
AMGSETTINGSOBJ
  2
AmgSettingsObj
  3
"AcadM|Product Description: AutoCAD Mechanical 2000|Company: Autodesk"
 90
        0
280
     0
281
     0
  0
CLASS
  1
AMGOBJPROPCFG
  2
AmgObjPropCfg
  3
"AmgLay|Product Description: AutoCAD Mechanical 2000|Company: Autodesk"
 90
        1
280
     0
281
     0
  0
CLASS
  1
ACDBENTITYCACHE
  2
AcMeEntityCache
  3
AcMeServices
 90
        0
280
     0
281
     0
  0
CLASS
  1
GSMANAGER
  2
AcMeGSManager
  3
AcMeServices
 90
        0
280
     0
281
     0
  0
CLASS
  1
AMDTINTERNALREACTOR
  2
AmdtInternalReactor
  3
AcMeServices
 90
        0
280
     0
281
     0
  0
CLASS
  1
ACME_DATABASE
  2
AcMeDbDatabase
  3
AcMeServices
 90
        0
280
     0
281
     0
  0
CLASS
  1
ACGREFACADMASTER
  2
AcGrefacadMaster
  3
AcGrefServices
 90
        0
280
     0
281
     0
  0
CLASS
  1
AMDTMENUSTATEMGR
  2
AmdtMenuStateMgr
  3
McadcomServices
 90
        0
280
     0
281
     0
  0
CLASS
  1
AMDTMCOMMENUSTATE
  2
AmdtMcomMenuState
  3
McadcomServices
 90
        0
280
     0
281
     0
  0
CLASS
  1
MAPIADMODULE
  2
MApiAdModule
  3
MApiAdServices
 90
        0
280
     0
281
     0
  0
CLASS
  1
AMDTDMMENUSTATE
  2
AmdtDmMenuState
  3
AcMechDwgViewMgmt
 90
        0
280
     0
281
     0
  0
CLASS
  1
AMDTADMENUSTATE
  2
AmdtAdMenuState
  3
DesignerServices
 90
        0
280
     0
281
     0
  0
CLASS
  1
AMDTAMMENUSTATE
  2
AmdtAmMenuState
  3
DesignerAssemblies
 90
        0
280
     0
281
     0
  0
CLASS
  1
ACMDATADICTIONARY
  2
AcmDataDictionary
  3
"AcmSymBB|Product Description: AutoCAD Mechanical 2004 DX|Company: Autodesk"
 90
        0
280
     0
281
     0
  0
CLASS
  1
ACMDATAENTRYBLOCK
  2
AcmDataEntryBlock
  3
"AcmSymBB|Product Description: AutoCAD Mechanical 2004 DX|Company: Autodesk"
 90
        0
280
     0
281
     0
  0
CLASS
  1
ACMSURFSTANDARDJIS
  2
AcmSurfTextStdJIS
  3
"Amdt_StdImp|Product Description: AutoCAD Mechanical 2004 DX|Company: Autodesk"
 90
    32768
280
     0
281
     0
  0
CLASS
  1
ACMFCFSTANDARDJIS
  2
AcmFCFStdJIS
  3
"Amdt_StdImp|Product Description: AutoCAD Mechanical 2004 DX|Company: Autodesk"
 90
    32768
280
     0
281
     0
  0
CLASS
  1
ACMWELDSTANDARDJIS
  2
AcmWeldingStdJIS
  3
"Amdt_StdImp|Product Description: AutoCAD Mechanical 2004 DX|Company: Autodesk"
 90
    32768
280
     0
281
     0
  0
CLASS
  1
ACMIDSTANDARDJIS
  2
AcmIdStdJIS
  3
"Amdt_StdImp|Product Description: AutoCAD Mechanical 2004 DX|Company: Autodesk"
 90
    32768
280
     0
281
     0
  0
CLASS
  1
ACMDATUMSTANDARDJIS
  2
AcmDatumStdJIS
  3
"Amdt_StdImp|Product Description: AutoCAD Mechanical 2004 DX|Company: Autodesk"
 90
    32768
280
     0
281
     0
  0
CLASS
  1
ACMBOMSTANDARDJIS
  2
AcmBOMStdJIS
  3
"Amdt_StdImp|Product Description: AutoCAD Mechanical 2004 DX|Company: Autodesk"
 90
    32768
280
     0
281
     0
  0
CLASS
  1
ACMSURFSTANDARDANSI
  2
AcmSurfTextStdANSI
  3
"Amdt_StdImp|Product Description: AutoCAD Mechanical 2004 DX|Company: Autodesk"
 90
    32768
280
     0
281
     0
  0
CLASS
  1
ACMFCFSTANDARDANSI
  2
AcmFCFStdANSI
  3
"Amdt_StdImp|Product Description: AutoCAD Mechanical 2004 DX|Company: Autodesk"
 90
    32768
280
     0
281
     0
  0
CLASS
  1
ACMWELDSTANDARDANSI
  2
AcmWeldingStdANSI
  3
"Amdt_StdImp|Product Description: AutoCAD Mechanical 2004 DX|Company: Autodesk"
 90
    32768
280
     0
281
     0
  0
CLASS
  1
ACMIDSTANDARDANSI
  2
AcmIdStdANSI
  3
"Amdt_StdImp|Product Description: AutoCAD Mechanical 2004 DX|Company: Autodesk"
 90
    32768
280
     0
281
     0
  0
CLASS
  1
ACMDATUMSTANDARDANSI
  2
AcmDatumStdANSI
  3
"Amdt_StdImp|Product Description: AutoCAD Mechanical 2004 DX|Company: Autodesk"
 90
    32768
280
     0
281
     0
  0
CLASS
  1
ACMBOMSTANDARDANSI
  2
AcmBOMStdANSI
  3
"Amdt_StdImp|Product Description: AutoCAD Mechanical 2004 DX|Company: Autodesk"
 90
    32768
280
     0
281
     0
  0
CLASS
  1
ACMSURFSTANDARDBSI
  2
AcmSurfTextStdBSI
  3
"Amdt_StdImp|Product Description: AutoCAD Mechanical 2004 DX|Company: Autodesk"
 90
    32768
280
     0
281
     0
  0
CLASS
  1
ACMFCFSTANDARDBSI
  2
AcmFCFStdBSI
  3
"Amdt_StdImp|Product Description: AutoCAD Mechanical 2004 DX|Company: Autodesk"
 90
    32768
280
     0
281
     0
  0
CLASS
  1
ACMWELDSTANDARDBSI
  2
AcmWeldingStdBSI
  3
"Amdt_StdImp|Product Description: AutoCAD Mechanical 2004 DX|Company: Autodesk"
 90
    32768
280
     0
281
     0
  0
CLASS
  1
ACMIDSTANDARDBSI
  2
AcmIdStdBSI
  3
"Amdt_StdImp|Product Description: AutoCAD Mechanical 2004 DX|Company: Autodesk"
 90
    32768
280
     0
281
     0
  0
CLASS
  1
ACMDATUMSTANDARDBSI
  2
AcmDatumStdBSI
  3
"Amdt_StdImp|Product Description: AutoCAD Mechanical 2004 DX|Company: Autodesk"
 90
    32768
280
     0
281
     0
  0
CLASS
  1
ACMBOMSTANDARDBSI
  2
AcmBOMStdBSI
  3
"Amdt_StdImp|Product Description: AutoCAD Mechanical 2004 DX|Company: Autodesk"
 90
    32768
280
     0
281
     0
  0
CLASS
  1
AMDTEDGESTANDARDDIN
  2
AmdtEdgeStdDIN
  3
"Amdt_StdImp|Product Description: AutoCAD Mechanical 2004 DX|Company: Autodesk"
 90
    32768
280
     0
281
     0
  0
CLASS
  1
ACMSURFSTANDARDDIN
  2
AcmSurfTextStdDIN
  3
"Amdt_StdImp|Product Description: AutoCAD Mechanical 2004 DX|Company: Autodesk"
 90
    32768
280
     0
281
     0
  0
CLASS
  1
ACMFCFSTANDARDDIN
  2
AcmFCFStdDIN
  3
"Amdt_StdImp|Product Description: AutoCAD Mechanical 2004 DX|Company: Autodesk"
 90
    32768
280
     0
281
     0
  0
CLASS
  1
ACMWELDSTANDARDDIN
  2
AcmWeldingStdDIN
  3
"Amdt_StdImp|Product Description: AutoCAD Mechanical 2004 DX|Company: Autodesk"
 90
    32768
280
     0
281
     0
  0
CLASS
  1
ACMIDSTANDARDDIN
  2
AcmIdStdDIN
  3
"Amdt_StdImp|Product Description: AutoCAD Mechanical 2004 DX|Company: Autodesk"
 90
    32768
280
     0
281
     0
  0
CLASS
  1
ACMDATUMSTANDARDDIN
  2
AcmDatumStdDIN
  3
"Amdt_StdImp|Product Description: AutoCAD Mechanical 2004 DX|Company: Autodesk"
 90
    32768
280
     0
281
     0
  0
CLASS
  1
ACMBOMSTANDARDDIN
  2
AcmBOMStdDIN
  3
"Amdt_StdImp|Product Description: AutoCAD Mechanical 2004 DX|Company: Autodesk"
 90
    32768
280
     0
281
     0
  0
CLASS
  1
ACMSURFSTANDARDISO
  2
AcmSurfTextStdISO
  3
"Amdt_StdImp|Product Description: AutoCAD Mechanical 2004 DX|Company: Autodesk"
 90
        0
280
     0
281
     0
  0
CLASS
  1
ACMFCFSTANDARDISO
  2
AcmFCFStdISO
  3
"Amdt_StdImp|Product Description: AutoCAD Mechanical 2004 DX|Company: Autodesk"
 90
        0
280
     0
281
     0
  0
CLASS
  1
ACMWELDSTANDARDISO
  2
AcmWeldingStdISO
  3
"Amdt_StdImp|Product Description: AutoCAD Mechanical 2004 DX|Company: Autodesk"
 90
        0
280
     0
281
     0
  0
CLASS
  1
ACMIDSTANDARDISO
  2
AcmIdStdISO
  3
"Amdt_StdImp|Product Description: AutoCAD Mechanical 2004 DX|Company: Autodesk"
 90
        0
280
     0
281
     0
  0
CLASS
  1
ACMDATUMSTANDARDISO
  2
AcmDatumStdISO
  3
"Amdt_StdImp|Product Description: AutoCAD Mechanical 2004 DX|Company: Autodesk"
 90
        0
280
     0
281
     0
  0
CLASS
  1
ACMBOMSTANDARDISO
  2
AcmBOMStdISO
  3
"Amdt_StdImp|Product Description: AutoCAD Mechanical 2004 DX|Company: Autodesk"
 90
        0
280
     0
281
     0
  0
CLASS
  1
AMDTBROWSERDBTAB
  2
AmdtBrowserDbTab
  3
McadcomServices
 90
        0
280
     0
281
     0
  0
CLASS
  1
ACAMGFILTERDAT
  2
AcAmgFilterDat
  3
"AcadM|Product Description: AutoCAD Mechanical 2000|Company: Autodesk"
 90
    32768
280
     0
281
     0
  0
CLASS
  1
MAPIAMMOUDLE
  2
MApiAmModule
  3
MApiAmServices
 90
        0
280
     0
281
     0
  0
CLASS
  1
AMDTMAPISURFMOUDULE
  2
AmdtMApiSurfModule
  3
MApiSurfServices
 90
        0
280
     0
281
     0
  0
CLASS
  1
ACAMGLAYSTD
  2
AcAmgLayStd
  3
"AcAmgLayStd|Product Description: AutoCAD Mechanical 2000|Company: Autodesk"
 90
        0
280
     0
281
     0
  0
CLASS
  1
ACAMGDIMSTD
  2
AcAmgDimStd
  3
"AcAmgDimStd|Product Description: AutoCAD Mechanical 2000|Company: Autodesk"
 90
        0
280
     0
281
     0
  0
CLASS
  1
ACAMGTITLESTD
  2
AcAmgTitleStd
  3
"TITLEAPP"
 90
        0
280
     0
281
     0
  0
CLASS
  1
ACMDETAILSTANDARDJIS
  2
AmdtDetailSymStdJIS
  3
"Amdt_StdImp|Product Description: AutoCAD Mechanical 2004 DX|Company: Autodesk"
 90
    32768
280
     0
281
     0
  0
CLASS
  1
ACMSECTIONSTANDARDJIS
  2
AmdtSectionSymStdJIS
  3
"Amdt_StdImp|Product Description: AutoCAD Mechanical 2004 DX|Company: Autodesk"
 90
    32768
280
     0
281
     0
  0
CLASS
  1
ACMCENTERLINESTANDARDJIS
  2
AmdtCenterLineStdJIS
  3
"Amdt_StdImp|Product Description: AutoCAD Mechanical 2004 DX|Company: Autodesk"
 90
    32768
280
     0
281
     0
  0
CLASS
  1
ACMTHREADLINESTANDARDJIS
  2
AmdtThreadLineStdJIS
  3
"Amdt_StdImp|Product Description: AutoCAD Mechanical 2004 DX|Company: Autodesk"
 90
    32768
280
     0
281
     0
  0
CLASS
  1
ACMDETAILSTANDARDANSI
  2
AmdtDetailSymStdANSI
  3
"Amdt_StdImp|Product Description: AutoCAD Mechanical 2004 DX|Company: Autodesk"
 90
    32768
280
     0
281
     0
  0
CLASS
  1
ACMSECTIONSTANDARDANSI
  2
AmdtSectionSymStdANSI
  3
"Amdt_StdImp|Product Description: AutoCAD Mechanical 2004 DX|Company: Autodesk"
 90
    32768
280
     0
281
     0
  0
CLASS
  1
ACMCENTERLINESTANDARDANSI
  2
AmdtCenterLineStdANSI
  3
"Amdt_StdImp|Product Description: AutoCAD Mechanical 2004 DX|Company: Autodesk"
 90
    32768
280
     0
281
     0
  0
CLASS
  1
ACMTHREADLINESTANDARDANSI
  2
AmdtThreadLineStdANSI
  3
"Amdt_StdImp|Product Description: AutoCAD Mechanical 2004 DX|Company: Autodesk"
 90
    32768
280
     0
281
     0
  0
CLASS
  1
ACMDETAILSTANDARDBSI
  2
AmdtDetailSymStdBSI
  3
"Amdt_StdImp|Product Description: AutoCAD Mechanical 2004 DX|Company: Autodesk"
 90
    32768
280
     0
281
     0
  0
CLASS
  1
ACMSECTIONSTANDARDBSI
  2
AmdtSectionSymStdBSI
  3
"Amdt_StdImp|Product Description: AutoCAD Mechanical 2004 DX|Company: Autodesk"
 90
    32768
280
     0
281
     0
  0
CLASS
  1
ACMCENTERLINESTANDARDBSI
  2
AmdtCenterLineStdBSI
  3
"Amdt_StdImp|Product Description: AutoCAD Mechanical 2004 DX|Company: Autodesk"
 90
    32768
280
     0
281
     0
  0
CLASS
  1
ACMTHREADLINESTANDARDBSI
  2
AmdtThreadLineStdBSI
  3
"Amdt_StdImp|Product Description: AutoCAD Mechanical 2004 DX|Company: Autodesk"
 90
    32768
280
     0
281
     0
  0
CLASS
  1
ACMDETAILSTANDARDDIN
  2
AmdtDetailSymStdDIN
  3
"Amdt_StdImp|Product Description: AutoCAD Mechanical 2004 DX|Company: Autodesk"
 90
    32768
280
     0
281
     0
  0
CLASS
  1
ACMSECTIONSTANDARDDIN
  2
AmdtSectionSymStdDIN
  3
"Amdt_StdImp|Product Description: AutoCAD Mechanical 2004 DX|Company: Autodesk"
 90
    32768
280
     0
281
     0
  0
CLASS
  1
ACMCENTERLINESTANDARDDIN
  2
AmdtCenterLineStdDIN
  3
"Amdt_StdImp|Product Description: AutoCAD Mechanical 2004 DX|Company: Autodesk"
 90
    32768
280
     0
281
     0
  0
CLASS
  1
ACMTHREADLINESTANDARDDIN
  2
AmdtThreadLineStdDIN
  3
"Amdt_StdImp|Product Description: AutoCAD Mechanical 2004 DX|Company: Autodesk"
 90
    32768
280
     0
281
     0
  0
CLASS
  1
AMDTEDGESTANDARDISO
  2
AmdtEdgeStdISO
  3
"Amdt_StdImp|Product Description: AutoCAD Mechanical 2004 DX|Company: Autodesk"
 90
    32768
280
     0
281
     0
  0
CLASS
  1
ACMDETAILSTANDARDISO
  2
AmdtDetailSymStdISO
  3
"Amdt_StdImp|Product Description: AutoCAD Mechanical 2004 DX|Company: Autodesk"
 90
        0
280
     0
281
     0
  0
CLASS
  1
ACMSECTIONSTANDARDISO
  2
AmdtSectionSymStdISO
  3
"Amdt_StdImp|Product Description: AutoCAD Mechanical 2004 DX|Company: Autodesk"
 90
        0
280
     0
281
     0
  0
CLASS
  1
ACMCENTERLINESTANDARDISO
  2
AmdtCenterLineStdISO
  3
"Amdt_StdImp|Product Description: AutoCAD Mechanical 2004 DX|Company: Autodesk"
 90
        0
280
     0
281
     0
  0
CLASS
  1
ACMTHREADLINESTANDARDISO
  2
AmdtThreadLineStdISO
  3
"Amdt_StdImp|Product Description: AutoCAD Mechanical 2004 DX|Company: Autodesk"
 90
        0
280
     0
281
     0
  0
CLASS
  1
ACMNOTESTANDARDISO
  2
AmdtNoteStdISO
  3
"Amdt_StdImp|Product Description: AutoCAD Mechanical 2004 DX|Company: Autodesk"
 90
        0
280
     0
281
     0
  0
CLASS
  1
ACAMGHOLECHARTSTDISO
  2
AcAmgHoleChartStdISO
  3
ACMSYMBB_MODULE_NAME
 90
        0
280
     0
281
     0
  0
CLASS
  1
ACMNOTESTANDARDANSI
  2
AmdtNoteStdANSI
  3
"Amdt_StdImp|Product Description: AutoCAD Mechanical 2004 DX|Company: Autodesk"
 90
    32768
280
     0
281
     0
  0
CLASS
  1
AMDTNOTETEMPLATEDB
  2
AmdtNoteTemplateDB
  3
AMDT_STDIMP_MODULE_NAME
 90
        0
280
     0
281
     0
  0
CLASS
  1
ACAMGHOLECHARTSTDANSI
  2
AcAmgHoleChartStdANSI
  3
ACMSYMBB_MODULE_NAME
 90
    32768
280
     0
281
     0
  0
CLASS
  1
TABLESTYLE
  2
AcDbTableStyle
  3
ObjectDBX Classes
 90
     2047
280
     0
281
     0
  0
CLASS
  1
ACMBOM
  2
AcmBom
  3
"AcmSymBB|Product Description: AutoCAD Mechanical 2004 DX|Company: Autodesk"
 90
    32768
280
     0
281
     0
  0
CLASS
  1
AMDTFORMULAUPDATEDISPATCHER
  2
AmdtFormulaUpdateDispatcher
  3
AcMeServices
 90
    32768
280
     0
281
     0
  0
CLASS
  1
ACMPARTLIST
  2
AcmPartList
  3
"AcmSymBB|Product Description: AutoCAD Mechanical 2004 DX|Company: Autodesk"
 90
    33791
280
     0
281
     1
  0
CLASS
  1
VAACXREFPANELOBJECT
  2
VaAcXREFPanelObject
  3
VAAC_ADDIN
 90
    32768
280
     1
281
     0
  0
CLASS
  1
VAACIMAGEINVENTORY
  2
VaAcImageInventory
  3
VAAC_ADDIN
 90
    32768
280
     1
281
     0
  0
CLASS
  1
ACAMEXTERNALCOMPDEF
  2
AcAmExternalCompDef
  3
DesignerAssemblies
 90
    32768
280
     0
281
     0
  0
CLASS
  1
ACCMBODY
  2
AcCmBody
  3
DesignerAssemblies
 90
    32768
280
     0
281
     0
  0
CLASS
  1
ACAMCOMPENT
  2
AcAmCompEnt
  3
DesignerAssemblies
 90
    32768
280
     0
281
     1
  0
CLASS
  1
ACAMCOMPFEEDBACK
  2
AcAmCompFeedback
  3
DesignerAssemblies
 90
    32768
280
     0
281
     0
  0
CLASS
  1
ACAMCOMP
  2
AcAmComp
  3
DesignerAssemblies
 90
    32768
280
     0
281
     0
  0
CLASS
  1
ACAMCOMPENTCLONE
  2
AcAmCompEntClone
  3
DesignerAssemblies
 90
    32768
280
     0
281
     1
  0
CLASS
  1
ACAMCLONEREACTOR
  2
AcAmGrCompCloneReactor
  3
DesignerAssemblies
 90
    32768
280
     0
281
     0
  0
CLASS
  1
ADPART
  2
AcAdPart
  3
DesignerServices
 90
    32768
280
     0
281
     1
  0
CLASS
  1
WORKPLANEDISPLAYMGR
  2
AcAdDisplayMgr
  3
DesignerServices
 90
    32768
280
     0
281
     0
  0
CLASS
  1
PARAM
  2
AcAdParam
  3
DesignerServices
 90
    32768
280
     0
281
     0
  0
CLASS
  1
ADDATUMAXISABS
  2
AcAdDatumAxisAbs
  3
DesignerServices
 90
    32768
280
     0
281
     0
  0
CLASS
  1
ADDATUMPLANEABS
  2
AcAdDatumPlaneAbs
  3
DesignerServices
 90
    32768
280
     0
281
     0
  0
CLASS
  1
ADBASE
  2
AcAdBase
  3
DesignerServices
 90
    32768
280
     0
281
     0
  0
CLASS
  1
ADDATUMORIENTEDPLANE
  2
AcAdDatumOrientedPlane
  3
DesignerServices
 90
    32768
280
     0
281
     0
  0
CLASS
  1
BODYID
  2
AcAdBodyId
  3
DesignerServices
 90
    32768
280
     0
281
     0
  0
CLASS
  1
ACADCONSGROUP
  2
AcAdConstraintGroup
  3
DesignerServices
 90
    32768
280
     0
281
     0
  0
CLASS
  1
ACADREFLINEACAD
  2
AcAdVirtualReferenceLine
  3
DesignerServices
 90
    32768
280
     0
281
     0
  0
CLASS
  1
ACADCONSLINE
  2
AcAdConstrainedLine
  3
DesignerServices
 90
    32768
280
     0
281
     0
  0
CLASS
  1
ACADLINEACAD
  2
AcAdVirtualBoundedLineAcad
  3
DesignerServices
 90
    32768
280
     0
281
     0
  0
CLASS
  1
ACADCONSPOINT
  2
AcAdConstrainedPoint
  3
DesignerServices
 90
    32768
280
     0
281
     0
  0
CLASS
  1
ADPCURCNS
  2
AcAdPointCurveConstr
  3
DesignerServices
 90
    32768
280
     0
281
     0
  0
CLASS
  1
ADHORCNS
  2
AcAdHorizontalConstr
  3
DesignerServices
 90
    32768
280
     0
281
     0
  0
CLASS
  1
ADVERCNS
  2
AcAdVerticalConstr
  3
DesignerServices
 90
    32768
280
     0
281
     0
  0
CLASS
  1
ACAD_FIXCONSTRAINT
  2
AcAdFixedConstraint
  3
DesignerServices
 90
    32768
280
     0
281
     0
  0
CLASS
  1
ADHDISTCNS
  2
AcAdHorizontalDistanceConstr
  3
DesignerServices
 90
    32768
280
     0
281
     0
  0
CLASS
  1
ADVDISTCNS
  2
AcAdVerticalDistanceConstr
  3
DesignerServices
 90
    32768
280
     0
281
     0
  0
CLASS
  1
ACADIMPPTACAD
  2
AcAdVirtualImplicitPoint
  3
DesignerServices
 90
    32768
280
     0
281
     0
  0
CLASS
  1
ADCLPROF2D
  2
AcAdClosedProfile2d
  3
DesignerServices
 90
    32768
280
     0
281
     0
  0
CLASS
  1
DEPEDGEFEATUREORDERING
  2
AcAdDepEdgeFeatureOrdering
  3
DesignerServices
 90
    32768
280
     0
281
     0
  0
CLASS
  1
ACADVOLFEATWITHTRIM
  2
AcAdVolFeatWithTrim
  3
DesignerServices
 90
    32768
280
     0
281
     0
  0
CLASS
  1
ADPLANEID
  2
AcAdPlaneId
  3
DesignerServices
 90
    32768
280
     0
281
     0
  0
CLASS
  1
EDGEID
  2
AcAdEdgeId
  3
DesignerServices
 90
    32768
280
     0
281
     0
  0
CLASS
  1
CNRREFID
  2
AcAdCornerId
  3
DesignerServices
 90
    32768
280
     0
281
     0
  0
CLASS
  1
STREFID
  2
AcAdStraightRefId
  3
DesignerServices
 90
    32768
280
     0
281
     0
  0
CLASS
  1
ADDATUMPLANEFACE
  2
AcAdDatumPlaneFace
  3
DesignerServices
 90
    32768
280
     0
281
     0
  0
CLASS
  1
DATUMPLANEDISPLAY
  2
AcAdDatumPlaneDisplay
  3
DesignerServices
 90
    32768
280
     0
281
     1
  0
CLASS
  1
ADDATUMPLANEOFFSET
  2
AcAdDatumPlaneOffset
  3
DesignerServices
 90
    32768
280
     0
281
     0
  0
CLASS
  1
ADACADANGCNS
  2
AcAdAcadAngleConstr
  3
DesignerServices
 90
    32768
280
     0
281
     0
  0
CLASS
  1
ACADLINEDEPID
  2
AcAdVirtualLineDepId
  3
DesignerServices
 90
    32768
280
     0
281
     0
  0
CLASS
  1
ADCOLNCNS
  2
AcAdColinearConstr
  3
DesignerServices
 90
    32768
280
     0
281
     0
  0
CLASS
  1
ACADPOINTDEPID
  2
AcAdVirtualPointDepId
  3
DesignerServices
 90
    32768
280
     0
281
     0
  0
CLASS
  1
ACADCIRCLEACAD
  2
AcAdVirtualCircleAcad
  3
DesignerServices
 90
    32768
280
     0
281
     0
  0
CLASS
  1
ACADCONSCIRCLE
  2
AcAdConstrainedCircle
  3
DesignerServices
 90
    32768
280
     0
281
     0
  0
CLASS
  1
ADCTRPTCNS
  2
AcAdCenterPointConstr
  3
DesignerServices
 90
    32768
280
     0
281
     0
  0
CLASS
  1
ADACADDIACNS
  2
AcAdAcadDiameterConstr
  3
DesignerServices
 90
    32768
280
     0
281
     0
  0
CLASS
  1
ACADARCACAD
  2
AcAdVirtualArcAcad
  3
DesignerServices
 90
    32768
280
     0
281
     0
  0
CLASS
  1
ADTANCNS
  2
AcAdTangentConstr
  3
DesignerServices
 90
    32768
280
     0
281
     0
  0
CLASS
  1
ADPARCNS
  2
AcAdParallelConstr
  3
DesignerServices
 90
    32768
280
     0
281
     0
  0
CLASS
  1
ADCONCCNS
  2
AcAdConcentricConstr
  3
DesignerServices
 90
    32768
280
     0
281
     0
  0
CLASS
  1
ADEQRADCNS
  2
AcAdEqualRadiusConstr
  3
DesignerServices
 90
    32768
280
     0
281
     0
  0
CLASS
  1
CIRREFID
  2
AcAdCircleRefId
  3
DesignerServices
 90
    32768
280
     0
281
     0
  0
CLASS
  1
ACADCIRCDEPID
  2
AcAdVirtualCircleDepId
  3
DesignerServices
 90
    32768
280
     0
281
     0
  0
CLASS
  1
ADFILLET
  2
AcAdFillet
  3
DesignerServices
 90
    32768
280
     0
281
     0
  0
CLASS
  1
ADSURFGEOMID
  2
AcAdSurfGeomId
  3
DesignerServices
 90
    32768
280
     0
281
     0
  0
CLASS
  1
DATUMAXISDISPLAY
  2
AcAdDatumAxisDisplay
  3
DesignerServices
 90
    32768
280
     0
281
     1
  0
CLASS
  1
ADDATUMAXISCENTER
  2
AcAdDatumAxisCenter
  3
DesignerServices
 90
    32768
280
     0
281
     0
  0
CLASS
  1
DEPEDGESECONDARYDEPID
  2
AcAdDepEdgeSecondaryDepId
  3
DesignerServices
 90
    32768
280
     0
281
     0
  0
CLASS
  1
ADDATUMPLANEAXISPLANE
  2
AcAdDatumPlaneAxisPlane
  3
DesignerServices
 90
    32768
280
     0
281
     0
  0
CLASS
  1
ACADBOUNDEDLINEDATUMID
  2
AcAdVirtualBoundedLineDatumId
  3
DesignerServices
 90
    32768
280
     0
281
     0
  0
CLASS
  1
OSTREFID
  2
AcAdOrientedStraightRefId
  3
DesignerServices
 90
    32768
280
     0
281
     0
  0
CLASS
  1
ADDATUMPOINT2EDGES
  2
AcAdDatumPoint2Edges
  3
DesignerServices
 90
    32768
280
     0
281
     0
  0
CLASS
  1
ADHOLEFEAT
  2
AcAdHoleFeat
  3
DesignerServices
 90
    32768
280
     0
281
     0
  0
CLASS
  1
DEPEDGEPATTERNFEATURE
  2
AcAdDepEdgePatternFeature
  3
DesignerServices
 90
    32768
280
     0
281
     0
  0
CLASS
  1
ACADPATTNFEAT
  2
AcAdPatternFeat
  3
DesignerServices
 90
    32768
280
     0
281
     0
  0
CLASS
  1
ADEQUALLENGTHCNS
  2
AcAdEqualLengthConstr
  3
DesignerServices
 90
    32768
280
     0
281
     0
  0
CLASS
  1
SORTENTSTABLE
  2
AcDbSortentsTable
  3
ObjectDBX Classes
 90
    32768
280
     0
281
     0
  0
CLASS
  1
ACAMGROUNDEDBASECOMP
  2
AcAmGroundedBaseComp
  3
DesignerAssemblies
 90
    32768
280
     0
281
     0
  0
CLASS
  1
AMDTPERSON
  2
AmdtPerson
  3
AcAttribServices
 90
    32768
280
     0
281
     0
  0
CLASS
  1
ACRFMCADAPIATTHOLDER
  2
AcRfMCADAPIAttHolder
  3
AcAttribServices
 90
    32768
280
     0
281
     0
  0
CLASS
  1
AMDTORGANIZATION
  2
AmdtOrganization
  3
AcAttribServices
 90
    32768
280
     0
281
     0
  0
CLASS
  1
AMDTPERSONANDORGANIZATION
  2
AmdtPersonAndOrganization
  3
AcAttribServices
 90
    32768
280
     0
281
     0
  0
CLASS
  1
AMDTPROPERTYDEFINITION
  2
AmdtPropertyDefinition
  3
AcAttribServices
 90
    32768
280
     0
281
     0
  0
CLASS
  1
AMDTAPPROVALPERSONORGANIZATION
  2
AmdtApprovalPersonOrganization
  3
AcAttribServices
 90
    32768
280
     0
281
     0
  0
CLASS
  1
AMDTDATEANDTIME
  2
AmdtDateAndTime
  3
AcAttribServices
 90
    32768
280
     0
281
     0
  0
CLASS
  1
AMDTPRODUCTCATEGORY
  2
AmdtProductCategory
  3
AcAttribServices
 90
    32768
280
     0
281
     0
  0
CLASS
  1
AMDTPRODUCTCATEGORYRELATIONSHIP
  2
AmdtProductCategoryRelationship
  3
AcAttribServices
 90
    32768
280
     0
281
     0
  0
CLASS
  1
AMDTAPPROVAL
  2
AmdtApproval
  3
AcAttribServices
 90
    32768
280
     0
281
     0
  0
CLASS
  1
AMDTDATEANDTIMEASSIGNMENT
  2
AmdtDateAndTimeAssignment
  3
AcAttribServices
 90
    32768
280
     0
281
     0
  0
CLASS
  1
AMDTPERSONANDORGANIZATIONASSIGNMENT
  2
AmdtPersonAndOrganizationAssignment
  3
AcAttribServices
 90
    32768
280
     0
281
     0
  0
CLASS
  1
AMDTSECURITYCLASSIFICATION
  2
AmdtSecurityClassification
  3
AcAttribServices
 90
    32768
280
     0
281
     0
  0
CLASS
  1
AMDTPRODUCTDEFINITION
  2
AmdtProductDefinition
  3
AcAttribServices
 90
    32768
280
     0
281
     0
  0
CLASS
  1
AMDTPRODUCTDEFINITIONFORMATION
  2
AmdtProductDefinitionFormation
  3
AcAttribServices
 90
    32768
280
     0
281
     0
  0
CLASS
  1
AMDTPRODUCT
  2
AmdtProduct
  3
AcAttribServices
 90
    32768
280
     0
281
     0
  0
CLASS
  1
ACRFATTGENMGR
  2
AcRfAttGeneralMgr
  3
AcAttribServices
 90
        0
280
     0
281
     0
  0
CLASS
  1
ACRFOBJATTMGR
  2
AcRfObjAttGroupMgr
  3
AcAttribServices
 90
    32768
280
     0
281
     0
  0
CLASS
  1
ACADPARTCIRCEDGRES
  2
AcAdPartCircEdgRes
  3
AdGrefServices
 90
    32768
280
     0
281
     0
  0
CLASS
  1
ACRFINSADJ
  2
AcRfInsAdjuster
  3
AcMeServices
 90
    32768
280
     0
281
     0
  0
CLASS
  1
FACEID
  2
AcAdFaceId
  3
DesignerServices
 90
    32768
280
     0
281
     0
  0
CLASS
  1
ACADPARTPLANARFACERES
  2
AcAdPartPlanarFaceRes
  3
AdGrefServices
 90
    32768
280
     0
281
     0
  0
CLASS
  1
ACMELINEARARROW
  2
AcImLinearArrowDisplay
  3
AcMeServices
 90
    32768
280
     0
281
     1
  0
CLASS
  1
DEPEDGEPATTERNINSTANCE
  2
AcAdDepEdgePatternInstance
  3
DesignerServices
 90
    32768
280
     0
281
     0
  0
CLASS
  1
ACAMEXPR
  2
AcAmExpr
  3
DesignerAssemblies
 90
    32768
280
     0
281
     0
  0
CLASS
  1
ACCMINSERTPLPL
  2
AcCmInsertPlPl
  3
AcCmServices
 90
    32768
280
     0
281
     0
  0
CLASS
  1
ACCMCONSTREACTOR
  2
AcCmConstraintReactor
  3
DesignerAssemblies
 90
    32768
280
     0
281
     0
  0
CLASS
  1
ACADPARTCYLINDERFACERES
  2
AcAdPartCylinderFaceRes
  3
AdGrefServices
 90
    32768
280
     0
281
     0
  0
CLASS
  1
ACMEAXIS
  2
AcImAxisDisplay
  3
AcMeServices
 90
    32768
280
     0
281
     1
  0
CLASS
  1
ACCMANGVECVEC
  2
AcCmAngVecVec
  3
DesignerAssemblies
 90
    32768
280
     0
281
     0
  0
CLASS
  1
ACAMBLANKBODYCOMP
  2
AcAmBlankBodyComp
  3
DesignerAssemblies
 90
    32768
280
     0
281
     0
  0
CLASS
  1
ACAMTOOLBODYCOMP
  2
AcAmToolBodyComp
  3
DesignerAssemblies
 90
    32768
280
     0
281
     0
  0
CLASS
  1
ADPARAMETRICBOOLEAN
  2
AcAdParametricBoolean
  3
DesignerServices
 90
    32768
280
     0
281
     0
  0
CLASS
  1
DEPEDGEPARAMETRCBOOLORDERING
  2
AcAdDepEdgeParametricBooleanOrdering
  3
DesignerServices
 90
    32768
280
     0
281
     0
  0
CLASS
  1
AMACTIVEPARTSELECTFILTER
  2
AcDmActivePartViewEntFilter
  3
DesignerServices
 90
    32768
280
     0
281
     0
  0
CLASS
  1
AM_GREF_PLANE
  2
AcDmGrefPlnDef
  3
AcMechDwgViewMgmt
 90
    32768
280
     0
281
     0
  0
CLASS
  1
AM_ABS_AXIS
  2
AcDmAbsAxisDef
  3
AcMechDwgViewMgmt
 90
    32768
280
     0
281
     0
  0
CLASS
  1
AM_BASE_VIEW_ORIENT
  2
AcDmBaseViewOr
  3
AcMechDwgViewMgmt
 90
    32768
280
     0
281
     0
  0
CLASS
  1
AM_DWG_VIEWPORT
  2
AcDmViewport
  3
AcMechDwgViewMgmt
 90
    32768
280
     0
281
     0
  0
CLASS
  1
AM_VIEW_DISPLAY
  2
AcDmDwgViewDisplay
  3
AcMechDwgViewMgmt
 90
    32768
280
     0
281
     0
  0
CLASS
  1
AM_CLDFLTS
  2
AcDmClDflts
  3
AcMechDwgViewMgmt
 90
    32768
280
     0
281
     0
  0
CLASS
  1
AM_BASE_VIEW
  2
AcDmBaseView
  3
AcMechDwgViewMgmt
 90
    32768
280
     0
281
     0
  0
CLASS
  1
ACMEPLINE
  2
AcImPlineDisplay
  3
AcMeServices
 90
    32768
280
     0
281
     1
  0
CLASS
  1
ACDMPARTVIEWDATA
  2
AcDmPartViewData
  3
AcMechDwgViewMgmt
 90
    32768
280
     0
281
     0
  0
CLASS
  1
ACDMDISPLAYATTRIBS
  2
AcDmDisplayAttribs
  3
AcMechDwgViewMgmt
 90
    32768
280
     0
281
     0
  0
CLASS
  1
ACDMBODYINSTANCEDATA
  2
AcDmBodyInstanceData
  3
AcMechDwgViewMgmt
 90
    32768
280
     0
281
     0
  0
CLASS
  1
ACDMVWEDLINE
  2
AcDmViewEdgeLine
  3
AcMechDwgViewMgmt
 90
    32768
280
     0
281
     1
  0
CLASS
  1
ACDMVWEDELLIPSE
  2
AcDmViewEdgeEllipse
  3
AcMechDwgViewMgmt
 90
    32768
280
     0
281
     1
  0
CLASS
  1
ACDMVWEDSPLINE
  2
AcDmViewEdgeSpline
  3
AcMechDwgViewMgmt
 90
    32768
280
     0
281
     1
  0
CLASS
  1
ACDMVWEDCIRC
  2
AcDmViewEdgeCircle
  3
AcMechDwgViewMgmt
 90
    32768
280
     0
281
     1
  0
CLASS
  1
ACDMVWEDARC
  2
AcDmViewEdgeArc
  3
AcMechDwgViewMgmt
 90
    32768
280
     0
281
     1
  0
CLASS
  1
ACADPARTPOINTRES
  2
AcAdPartPointRes
  3
AdGrefServices
 90
    32768
280
     0
281
     0
  0
CLASS
  1
ACADPARTSKETCHPLANEAXISRES
  2
AcAdPartSketchPlaneAxisRes
  3
DesignerServices
 90
    32768
280
     0
281
     0
  0
CLASS
  1
AM_VIEWDIMPARALLEL
  2
AcDmViewDimParallel
  3
AcMechDwgViewMgmt
 90
    32768
280
     0
281
     0
  0
CLASS
  1
AMDTDMPARMAPDATA
  2
AmdtDmDimParMapData
  3
AcMechDwgViewMgmt
 90
    32768
280
     0
281
     0
  0
CLASS
  1
ACADSKETCHPOINTRES
  2
AcAdSketchPointRes
  3
DesignerServices
 90
    32768
280
     0
281
     0
  0
CLASS
  1
AM_VIEWDIMLINEAR
  2
AcDmViewDimLinear
  3
AcMechDwgViewMgmt
 90
    32768
280
     0
281
     0
  0
CLASS
  1
ACADSKETCHLINERES
  2
AcAdSketchLineRes
  3
DesignerServices
 90
    32768
280
     0
281
     0
  0
CLASS
  1
AM_VIEWDIMANGULAR
  2
AcDmViewDimAngular
  3
AcMechDwgViewMgmt
 90
    32768
280
     0
281
     0
  0
CLASS
  1
ACADSKETCHCIRCARCRES
  2
AcAdSketchCircArcRes
  3
DesignerServices
 90
    32768
280
     0
281
     0
  0
CLASS
  1
AM_VIEWDIMDIAMETER
  2
AcDmViewDimDiameter
  3
AcMechDwgViewMgmt
 90
    32768
280
     0
281
     0
  0
CLASS
  1
AM_ADLINCTRLINE
  2
AcAdLineCl
  3
DesignerServices
 90
    32768
280
     0
281
     0
  0
CLASS
  1
AM_ADCIRCTRLINE
  2
AcAdBullsEyeCl
  3
DesignerServices
 90
    32768
280
     0
281
     0
  0
CLASS
  1
ACDBLINERES
  2
AcDbLineRes
  3
AcGrefServices
 90
    32768
280
     0
281
     0
  0
CLASS
  1
ACRFDMINSADJ
  2
AcRfDMInsAdjuster
  3
AcMechDwgViewMgmt
 90
    32768
280
     0
281
     0
  0
CLASS
  1
AM_ORTHO_VIEW_ORIENT
  2
AcDmOrthoViewOr
  3
AcMechDwgViewMgmt
 90
    32768
280
     0
281
     0
  0
CLASS
  1
AM_ORTHO_VIEW
  2
AcDmOrthoView
  3
AcMechDwgViewMgmt
 90
    32768
280
     0
281
     0
  0
CLASS
  1
ACADPARTLINEDGRES
  2
AcAdPartLinEdgRes
  3
AdGrefServices
 90
    32768
280
     0
281
     0
  0
CLASS
  1
ACADPARTDATUMPOINTRES
  2
AcAdPartDatumPointRes
  3
AdGrefServices
 90
    32768
280
     0
281
     0
  0
CLASS
  1
AMDTEDGESTANDARDISO13715
  2
AmdtEdgeStdISO13715
  3
"Amdt_StdImp|Product Description: AutoCAD Mechanical 2004 DX|Company: Autodesk"
 90
        0
280
     0
281
     0
  0
ENDSEC
  0
SECTION
  2
TABLES
  0
TABLE
  2
VPORT
  5
1F
330
0
100
AcDbSymbolTable
 70
     1
  0
VPORT
  5
20
330
1F
100
AcDbSymbolTableRecord
100
AcDbViewportTableRecord
  2
*Active
 70
     0
 10
0.0
 20
0.0
 11
1.0
 21
1.0
 12
0.0
 22
0.0
 13
0.0
 23
0.0
 14
2.5
 24
2.5
 15
10.0
 25
10.0
 16
0.0
 26
0.0
 36
1.0
 17
0.0
 27
0.0
 37
0.0
 40
2.000000000000000E+20
 41
1.0
 42
50.0
 43
0.0
 44
0.0
 50
0.0
 51
0.0
 71
     0
 72
   100
 73
     1
 74
     1
 75
     0
 76
     0
 77
     0
 78
     0
281
     0
 65
     0
110
0.0
120
0.0
130
0.0
111
1.0
121
0.0
131
0.0
112
0.0
122
1.0
132
0.0
 79
     0
146
0.0
  0
ENDTAB
  0
TABLE
  2
LTYPE
  5
1A
330
0
100
AcDbSymbolTable
 70
    16
  0
LTYPE
  5
1B
330
1A
100
AcDbSymbolTableRecord
100
AcDbLinetypeTableRecord
  2
BYBLOCK
 70
     0
  3

 72
    65
 73
     0
 40
0.0
  0
LTYPE
  5
1C
330
1A
100
AcDbSymbolTableRecord
100
AcDbLinetypeTableRecord
  2
BYLAYER
 70
     0
  3

 72
    65
 73
     0
 40
0.0
  0
LTYPE
  5
9
330
1A
100
AcDbSymbolTableRecord
100
AcDbLinetypeTableRecord
  2
CONTINUOUS
 70
     0
  3
Solid line
 72
    65
 73
     0
 40
0.0
  0
LTYPE
  5
38
330
1A
100
AcDbSymbolTableRecord
100
AcDbLinetypeTableRecord
  2
AM_ISO08W050x2
 70
     0
  3
__ . __ . __ . __ . __ . __
 72
    65
 73
     4
 40
9.0
 49
6.0
 74
     0
 49
-0.75
 74
     0
 49
1.5
 74
     0
 49
-0.75
 74
     0
  0
LTYPE
  5
281
330
1A
100
AcDbSymbolTableRecord
100
AcDbLinetypeTableRecord
  2
HIDDEN
 70
     0
  3
Hidden __ __ __ __ __ __ __ __ __ __ __ __ __ _
 72
    65
 73
     2
 40
9.524999999999998
 49
6.349999999999999
 74
     0
 49
-3.174999999999999
 74
     0
  0
LTYPE
  5
282
330
1A
100
AcDbSymbolTableRecord
100
AcDbLinetypeTableRecord
  2
PHANTOM2
 70
     0
  3
Phantom (.5x) ___ _ _ ___ _ _ ___ _ _ ___ _ _
 72
    65
 73
     6
 40
31.75
 49
15.875
 74
     0
 49
-3.174999999999999
 74
     0
 49
3.174999999999999
 74
     0
 49
-3.174999999999999
 74
     0
 49
3.174999999999999
 74
     0
 49
-3.174999999999999
 74
     0
  0
LTYPE
  5
283
330
1A
100
AcDbSymbolTableRecord
100
AcDbLinetypeTableRecord
  2
CENTER
 70
     0
  3
Center ____ _ ____ _ ____ _ ____ _ ____ _ ____
 72
    65
 73
     4
 40
50.8
 49
31.75
 74
     0
 49
-6.349999999999999
 74
     0
 49
6.349999999999999
 74
     0
 49
-6.349999999999999
 74
     0
  0
LTYPE
  5
2B7
330
1A
100
AcDbSymbolTableRecord
100
AcDbLinetypeTableRecord
  2
AM_ISO02W050
 70
     0
  3
__ __ __ __ __ __ __ __ __ __ __ __ __ __ __
 72
    65
 73
     2
 40
7.5
 49
6.0
 74
     0
 49
-1.5
 74
     0
  0
LTYPE
  5
2B8
330
1A
100
AcDbSymbolTableRecord
100
AcDbLinetypeTableRecord
  2
AM_ISO08W050
 70
     0
  3
____ . ____ . ____ . ____ . ____ . ____ . ____
 72
    65
 73
     4
 40
18.0
 49
12.0
 74
     0
 49
-1.5
 74
     0
 49
3.0
 74
     0
 49
-1.5
 74
     0
  0
LTYPE
  5
2B9
330
1A
100
AcDbSymbolTableRecord
100
AcDbLinetypeTableRecord
  2
AM_ISO09W050
 70
     0
  3
_____ . . _____ . . _____ . . ____ .. ____
 72
    65
 73
     6
 40
22.5
 49
12.0
 74
     0
 49
-1.5
 74
     0
 49
3.0
 74
     0
 49
-1.5
 74
     0
 49
3.0
 74
     0
 49
-1.5
 74
     0
  0
LTYPE
  5
2BA
330
1A
100
AcDbSymbolTableRecord
100
AcDbLinetypeTableRecord
  2
Amconstr
 70
     0
  3
_______________________
 72
    65
 73
     2
 40
9999.0
 49
9999.0
 74
     0
 49
0.0
 74
     0
  0
LTYPE
  5
2BB
330
1A
100
AcDbSymbolTableRecord
100
AcDbLinetypeTableRecord
  2
AM_ISO02W050x2
 70
     0
  3
 _ _ _ _ _ _ _ _ _ _ _ _
 72
    65
 73
     2
 40
3.75
 49
3.0
 74
     0
 49
-0.75
 74
     0
  0
LTYPE
  5
2BE
330
1A
100
AcDbSymbolTableRecord
100
AcDbLinetypeTableRecord
  2
Amzigzag
 70
     0
  3
/\/-/\/-/\/-/\/-/\/-/\/
 72
    65
 73
     2
 40
11.0001
 49
0.0001
 74
     4
 75
   135
340
2BD
 46
0.04
 50
0.0
 44
0.0
 45
0.0
 49
-11.0
 74
     0
  0
LTYPE
  5
2CD
330
1A
100
AcDbSymbolTableRecord
100
AcDbLinetypeTableRecord
  2
ACISOWELD
 70
     0
  3
_ _ _ _ _
 72
    65
 73
     2
 40
2.0
 49
2.0
 74
     0
 49
-1.0
 74
     0
  0
LTYPE
  5
2CE
330
1A
100
AcDbSymbolTableRecord
100
AcDbLinetypeTableRecord
  2
ACISOTGB
 70
     0
  3
__ . . __ . .
 72
    65
 73
     6
 40
9.0
 49
4.0
 74
     0
 49
-1.0
 74
     0
 49
1.0
 74
     0
 49
-1.0
 74
     0
 49
1.0
 74
     0
 49
-1.0
 74
     0
  0
LTYPE
  5
2CF
330
1A
100
AcDbSymbolTableRecord
100
AcDbLinetypeTableRecord
  2
ACISOTGL
 70
     0
  3
_ _ _ _ _
 72
    65
 73
     2
 40
3.0
 49
2.0
 74
     0
 49
-1.0
 74
     0
  0
LTYPE
  5
1659
330
1A
100
AcDbSymbolTableRecord
100
AcDbLinetypeTableRecord
  2
ASULTYPE
 70
     0
  3
實線
 72
    65
 73
     2
 40
3.0
 49
2.5
 74
     0
 49
0.5
 74
     0
  0
LTYPE
  5
165A
330
1A
100
AcDbSymbolTableRecord
100
AcDbLinetypeTableRecord
  2
ASVLTYPE
 70
     0
  3
__ __ __ __ __ __ __ __ __ __ __ __ __ __ __ __ __ __ __ __ __
 72
    65
 73
     2
 40
0.75
 49
0.5
 74
     0
 49
-0.25
 74
     0
  0
ENDTAB
  0
TABLE
  2
LAYER
  5
14
102
{ACAD_XDICTIONARY
360
15
102
}
330
0
100
AcDbSymbolTable
 70
    10
  0
LAYER
  5
5
330
14
100
AcDbSymbolTableRecord
100
AcDbLayerTableRecord
  2
0
 70
     0
 62
     7
  6
CONTINUOUS
370
    -3
390
6
  0
LAYER
  5
81
330
14
100
AcDbSymbolTableRecord
100
AcDbLayerTableRecord
  2
AM_VIS
 70
     0
 62
     7
  6
CONTINUOUS
370
    -3
390
6
  0
LAYER
  5
37
330
14
100
AcDbSymbolTableRecord
100
AcDbLayerTableRecord
  2
AM_7
 70
     0
 62
     1
  6
AM_ISO08W050x2
370
    -3
390
6
  0
LAYER
  5
2E6
330
14
100
AcDbSymbolTableRecord
100
AcDbLayerTableRecord
  2
LOGO
 70
     0
 62
     7
  6
CONTINUOUS
370
    -3
390
6
  0
LAYER
  5
440
330
14
100
AcDbSymbolTableRecord
100
AcDbLayerTableRecord
  2
AM_5
 70
     0
 62
     5
  6
CONTINUOUS
370
    -3
390
6
  0
LAYER
  5
442
330
14
100
AcDbSymbolTableRecord
100
AcDbLayerTableRecord
  2
Defpoints
 70
     0
 62
     7
  6
CONTINUOUS
290
     0
370
    -3
390
6
  0
LAYER
  5
636
330
14
100
AcDbSymbolTableRecord
100
AcDbLayerTableRecord
  2
SL
 70
     0
 62
     2
  6
CONTINUOUS
370
    -3
390
6
1001
AcAecLayerStandard
1000

1000

  0
LAYER
  5
166C
330
14
100
AcDbSymbolTableRecord
100
AcDbLayerTableRecord
  2
CEN
 70
     0
 62
     1
  6
CENTER
370
    -3
390
6
  0
LAYER
  5
166D
330
14
100
AcDbSymbolTableRecord
100
AcDbLayerTableRecord
  2
1
 70
     0
 62
     2
  6
CENTER
370
    -3
390
6
1001
AcAecLayerStandard
1000

1000

  0
LAYER
  5
2033
330
14
100
AcDbSymbolTableRecord
100
AcDbLayerTableRecord
  2
HIDDEN
 70
     0
 62
     3
  6
HIDDEN
370
    -3
390
6
  0
ENDTAB
  0
TABLE
  2
STYLE
  5
17
330
0
100
AcDbSymbolTable
 70
     5
  0
STYLE
  5
18
330
17
100
AcDbSymbolTableRecord
100
AcDbTextStyleTableRecord
  2
STANDARD
 70
     0
 40
0.0
 41
1.0
 50
0.0
 71
     0
 42
3.5
  3
ISOCP.SHX
  4
CHINESET.SHX
  0
STYLE
  5
2BD
330
17
100
AcDbSymbolTableRecord
100
AcDbTextStyleTableRecord
  2

 70
     1
 40
0.0
 41
1.0
 50
0.0
 71
     0
 42
1.0
  3
ltypeshp.shx
  4

  0
STYLE
  5
2BF
330
17
100
AcDbSymbolTableRecord
100
AcDbTextStyleTableRecord
  2
ACISOTS
 70
     0
 40
1.0
 41
1.0
 50
0.0
 71
     0
 42
1.0
  3
isocp.shx
  4
chineset.shx
  0
STYLE
  5
2CC
330
17
100
AcDbSymbolTableRecord
100
AcDbTextStyleTableRecord
  2
ACISOGDT
 70
     0
 40
0.0
 41
1.0
 50
0.0
 71
     0
 42
1.0
  3
amgdt.shx
  4

  0
STYLE
  5
2E7
330
17
100
AcDbSymbolTableRecord
100
AcDbTextStyleTableRecord
  2
CHINESET
 70
     0
 40
0.0
 41
1.0
 50
0.0
 71
     0
 42
1.0
  3
simplex
  4
CHINESET.SHX
  0
ENDTAB
  0
TABLE
  2
VIEW
  5
1D
330
0
100
AcDbSymbolTable
 70
     1
  0
ENDTAB
  0
TABLE
  2
UCS
  5
1E
330
0
100
AcDbSymbolTable
 70
     0
  0
ENDTAB
  0
TABLE
  2
APPID
  5
21
330
0
100
AcDbSymbolTable
 70
    23
  0
APPID
  5
22
330
21
100
AcDbSymbolTableRecord
100
AcDbRegAppTableRecord
  2
ACAD
 70
     0
  0
APPID
  5
13
330
21
100
AcDbSymbolTableRecord
100
AcDbRegAppTableRecord
  2
ACAD_PSEXT
 70
     0
  0
APPID
  5
254
330
21
100
AcDbSymbolTableRecord
100
AcDbRegAppTableRecord
  2
MCAD_NO_VIS
 70
     0
  0
APPID
  5
255
330
21
100
AcDbSymbolTableRecord
100
AcDbRegAppTableRecord
  2
ACAD_TEMP_GRAPHIC
 70
     0
  0
APPID
  5
285
330
21
100
AcDbSymbolTableRecord
100
AcDbRegAppTableRecord
  2
AD_DRAW
 70
     0
  0
APPID
  5
288
330
21
100
AcDbSymbolTableRecord
100
AcDbRegAppTableRecord
  2
ACATTRIBSERVICES
 70
     0
  0
APPID
  5
2A6
330
21
100
AcDbSymbolTableRecord
100
AcDbRegAppTableRecord
  2
DESIGNERASSEMBLIES
 70
     0
  0
APPID
  5
2AC
330
21
100
AcDbSymbolTableRecord
100
AcDbRegAppTableRecord
  2
ACADM_DIM_EDIT
 70
     0
  0
APPID
  5
2AD
330
21
100
AcDbSymbolTableRecord
100
AcDbRegAppTableRecord
  2
AMDT_DM_ADJ
 70
     0
  0
APPID
  5
2E9
330
21
100
AcDbSymbolTableRecord
100
AcDbRegAppTableRecord
  2
GENIUS_GENOBJ-N-CRS_13
 70
     0
  0
APPID
  5
2EA
330
21
100
AcDbSymbolTableRecord
100
AcDbRegAppTableRecord
  2
GENIUS_GENOLIS_13
 70
     0
  0
APPID
  5
2EB
330
21
100
AcDbSymbolTableRecord
100
AcDbRegAppTableRecord
  2
GENIUS_GENOENT_13
 70
     0
  0
APPID
  5
2EC
330
21
100
AcDbSymbolTableRecord
100
AcDbRegAppTableRecord
  2
GENIUS_GENODEF_13
 70
     0
  0
APPID
  5
2ED
330
21
100
AcDbSymbolTableRecord
100
AcDbRegAppTableRecord
  2
GENIUS_GENOREF_13
 70
     0
  0
APPID
  5
2EE
330
21
100
AcDbSymbolTableRecord
100
AcDbRegAppTableRecord
  2
GENIUS_GENREC_14
 70
     0
  0
APPID
  5
2EF
330
21
100
AcDbSymbolTableRecord
100
AcDbRegAppTableRecord
  2
GENIUS_GENOBJ-N-REC_13
 70
     0
  0
APPID
  5
48E
330
21
100
AcDbSymbolTableRecord
100
AcDbRegAppTableRecord
  2
ACAD_DSTYLE_DIMTEXT_FILL
 70
     0
  0
APPID
  5
637
330
21
100
AcDbSymbolTableRecord
100
AcDbRegAppTableRecord
  2
AcAecLayerStandard
 70
     0
  0
APPID
  5
EF9
330
21
100
AcDbSymbolTableRecord
100
AcDbRegAppTableRecord
  2
GENIUS_GENDTOL_13
 70
     0
  0
APPID
  5
123F
330
21
100
AcDbSymbolTableRecord
100
AcDbRegAppTableRecord
  2
GENIUS_GENDIM_13
 70
     0
  0
APPID
  5
1240
330
21
100
AcDbSymbolTableRecord
100
AcDbRegAppTableRecord
  2
GENIUS_GE3DTOL_13
 70
     0
  0
APPID
  5
12BE
330
21
100
AcDbSymbolTableRecord
100
AcDbRegAppTableRecord
  2
ASURF_PCURVE_APPNAME
 70
     0
  0
APPID
  5
12C3
330
21
100
AcDbSymbolTableRecord
100
AcDbRegAppTableRecord
  2
AMG_3D2D_5.0
 70
     0
  0
ENDTAB
  0
TABLE
  2
DIMSTYLE
  5
23
330
0
100
AcDbSymbolTable
 70
     9
100
AcDbDimStyleTable
 71
     3
340
24
340
25
340
26
  0
DIMSTYLE
105
24
102
{ACAD_REACTORS
330
1BAE
102
}
330
23
100
AcDbSymbolTableRecord
100
AcDbDimStyleTableRecord
  2
AM_ISO
 70
     0
  4
"
 41
3.5
 42
1.0
 43
8.0
 44
1.0
 47
0.1
 48
0.1
 73
     0
 74
     0
 77
     1
 78
     8
 79
     2
140
3.5
141
0.0
143
0.0393701
146
0.71
147
1.0
172
     1
176
   256
177
   256
178
   256
271
     2
272
     2
283
     0
284
     8
285
     8
340
18
371
    -1
372
    -1
  0
DIMSTYLE
105
25
330
23
100
AcDbSymbolTableRecord
100
AcDbDimStyleTableRecord
  2
AM_ISO$SF
 70
     0
  4
"
 41
2.5
 42
1.0
 43
10.0
 44
1.0
 47
0.1
 48
0.1
 73
     0
 74
     0
 75
     1
 76
     1
 77
     1
 78
     8
 79
     2
140
3.5
141
0.0
143
0.0393701
146
0.71
147
1.0
172
     1
176
   256
177
   256
178
   256
271
     2
272
     2
283
     0
284
     8
340
18
371
    -1
372
    -1
  0
DIMSTYLE
105
26
330
23
100
AcDbSymbolTableRecord
100
AcDbDimStyleTableRecord
  2
AM_ISO$SH
 70
     0
  4
"
 41
2.5
 42
1.0
 43
10.0
 44
1.0
 47
0.1
 48
0.1
 73
     0
 74
     0
 75
     1
 76
     1
 77
     1
 78
     8
 79
     2
140
3.5
141
0.0
143
0.0393701
144
2.0
146
0.71
147
1.0
172
     1
173
     1
176
   256
177
   256
178
   256
271
     2
272
     2
283
     0
284
     8
340
18
343
27
371
    -1
372
    -1
  0
DIMSTYLE
105
2D8
330
23
100
AcDbSymbolTableRecord
100
AcDbDimStyleTableRecord
  2
AM_ISO$3
 70
     0
  4
"
 41
3.5
 42
1.0
 43
8.0
 44
1.0
 47
0.1
 48
0.1
 73
     0
 77
     1
 78
     8
 79
     2
140
3.5
141
0.0
143
0.0393701
146
0.71
147
1.0
176
   256
177
   256
178
   256
271
     2
272
     2
283
     0
284
     8
285
     8
288
     1
289
     0
340
18
371
    -1
372
    -1
  0
DIMSTYLE
105
2D9
102
{ACAD_REACTORS
330
1CCF
102
}
330
23
100
AcDbSymbolTableRecord
100
AcDbDimStyleTableRecord
  2
AM_ISO$4
 70
     0
  4
"
 41
3.5
 42
1.0
 43
8.0
 44
1.0
 47
0.1
 48
0.1
 73
     0
 77
     1
 78
     8
 79
     2
140
3.5
141
0.0
143
0.0393701
146
0.71
147
1.0
176
   256
177
   256
178
   256
271
     2
272
     2
283
     0
284
     8
285
     8
288
     1
289
     0
340
18
371
    -1
372
    -1
  0
DIMSTYLE
105
2DA
330
23
100
AcDbSymbolTableRecord
100
AcDbDimStyleTableRecord
  2
AM_ISO$6
 70
     0
  4
"
 41
3.5
 42
1.0
 43
8.0
 44
1.0
 47
0.1
 48
0.1
 73
     0
 74
     0
 78
     8
 79
     2
140
3.5
141
0.0
143
0.0393701
146
0.71
147
1.0
172
     1
176
   256
177
   256
178
   256
271
     2
272
     2
283
     0
284
     8
285
     8
340
18
371
    -1
372
    -1
  0
DIMSTYLE
105
2DB
330
23
100
AcDbSymbolTableRecord
100
AcDbDimStyleTableRecord
  2
AM_ISO$7
 70
     0
  4
"
 41
3.5
 42
1.0
 43
8.0
 44
1.0
 47
0.1
 48
0.1
 73
     0
 74
     0
 77
     1
 78
     8
 79
     2
140
5.0
141
0.0
143
0.0393701
146
0.71
147
1.5
172
     1
176
   256
177
   256
178
   256
271
     2
272
     2
283
     0
284
     8
285
     8
340
18
371
    -1
372
    -1
  0
DIMSTYLE
105
2E8
102
{ACAD_REACTORS
330
1B9E
330
1B9F
330
1BA0
330
1BA1
330
1BA2
330
1BA3
330
1BA9
330
1BAC
330
1BAD
330
1ED3
330
1EED
330
1F03
330
1F19
330
1F2F
330
209D
330
209C
102
}
330
23
100
AcDbSymbolTableRecord
100
AcDbDimStyleTableRecord
  2
AM_ISO$0
 70
     0
  4
"
 41
3.5
 42
1.0
 43
8.0
 44
1.0
 47
0.1
 48
0.1
 73
     0
 74
     0
 77
     1
 78
     8
 79
     2
140
3.5
141
0.0
143
0.0393701
146
0.71
147
1.0
172
     1
176
   256
177
   256
178
   256
271
     2
272
     2
283
     0
284
     8
285
     8
340
18
371
    -1
372
    -1
  0
DIMSTYLE
105
188C
330
23
100
AcDbSymbolTableRecord
100
AcDbDimStyleTableRecord
  2
STANDARD
 70
     0
 41
3.0
 42
1.5
 43
8.0
 44
2.0
 47
0.15
 48
-0.1
 73
     0
 74
     0
 77
     1
 78
     8
140
3.0
141
0.0
145
0.9
147
1.0
176
   256
177
   256
178
   256
271
     2
272
     2
279
     2
284
     8
285
     8
286
     8
340
2E7
371
    -1
372
    -1
  0
ENDTAB
  0
TABLE
  2
BLOCK_RECORD
  5
1
330
0
100
AcDbSymbolTable
 70
    23
  0
BLOCK_RECORD
  5
2
102
{ACAD_XDICTIONARY
360
3
102
}
330
1
100
AcDbSymbolTableRecord
100
AcDbBlockTableRecord
  2
*MODEL_SPACE
340
B
  0
BLOCK_RECORD
  5
D
330
1
100
AcDbSymbolTableRecord
100
AcDbBlockTableRecord
  2
*PAPER_SPACE
340
10
  0
BLOCK_RECORD
  5
27
330
1
100
AcDbSymbolTableRecord
100
AcDbBlockTableRecord
  2
GENAXEH
340
0
  0
BLOCK_RECORD
  5
628
102
{ACAD_XDICTIONARY
360
629
102
}
330
1
100
AcDbSymbolTableRecord
100
AcDbBlockTableRecord
  2
A$C453B67D5
340
0
102
{BLKREFS
331
1BA7
102
}
  0
BLOCK_RECORD
  5
62F
102
{ACAD_XDICTIONARY
360
630
102
}
330
1
100
AcDbSymbolTableRecord
100
AcDbBlockTableRecord
  2
A$C17481420
340
0
102
{BLKREFS
331
1BA8
102
}
  0
BLOCK_RECORD
  5
1666
102
{ACAD_XDICTIONARY
360
1667
102
}
330
1
100
AcDbSymbolTableRecord
100
AcDbBlockTableRecord
  2
A$C6896536C
340
0
  0
BLOCK_RECORD
  5
1D14
330
1
100
AcDbSymbolTableRecord
100
AcDbBlockTableRecord
  2
*D5
340
0
  0
BLOCK_RECORD
  5
1D35
330
1
100
AcDbSymbolTableRecord
100
AcDbBlockTableRecord
  2
*D6
340
0
  0
BLOCK_RECORD
  5
1D41
330
1
100
AcDbSymbolTableRecord
100
AcDbBlockTableRecord
  2
*D7
340
0
  0
BLOCK_RECORD
  5
1D4D
330
1
100
AcDbSymbolTableRecord
100
AcDbBlockTableRecord
  2
*D8
340
0
  0
BLOCK_RECORD
  5
1D59
330
1
100
AcDbSymbolTableRecord
100
AcDbBlockTableRecord
  2
*D9
340
0
  0
BLOCK_RECORD
  5
1D65
330
1
100
AcDbSymbolTableRecord
100
AcDbBlockTableRecord
  2
*D10
340
0
  0
BLOCK_RECORD
  5
1D73
330
1
100
AcDbSymbolTableRecord
100
AcDbBlockTableRecord
  2
*D11
340
0
  0
BLOCK_RECORD
  5
1D97
330
1
100
AcDbSymbolTableRecord
100
AcDbBlockTableRecord
  2
*D12
340
0
  0
BLOCK_RECORD
  5
1DA3
330
1
100
AcDbSymbolTableRecord
100
AcDbBlockTableRecord
  2
*D13
340
0
  0
BLOCK_RECORD
  5
1DAF
330
1
100
AcDbSymbolTableRecord
100
AcDbBlockTableRecord
  2
*D14
340
0
  0
BLOCK_RECORD
  5
1DBB
330
1
100
AcDbSymbolTableRecord
100
AcDbBlockTableRecord
  2
*D15
340
0
  0
BLOCK_RECORD
  5
1ED4
330
1
100
AcDbSymbolTableRecord
100
AcDbBlockTableRecord
  2
*D16
340
0
  0
BLOCK_RECORD
  5
1EEE
330
1
100
AcDbSymbolTableRecord
100
AcDbBlockTableRecord
  2
*D17
340
0
  0
BLOCK_RECORD
  5
1F04
330
1
100
AcDbSymbolTableRecord
100
AcDbBlockTableRecord
  2
*D18
340
0
  0
BLOCK_RECORD
  5
1F1A
330
1
100
AcDbSymbolTableRecord
100
AcDbBlockTableRecord
  2
*D19
340
0
  0
BLOCK_RECORD
  5
1F30
330
1
100
AcDbSymbolTableRecord
100
AcDbBlockTableRecord
  2
*D20
340
0
  0
BLOCK_RECORD
  5
20C3
330
1
100
AcDbSymbolTableRecord
100
AcDbBlockTableRecord
  2
*D21
340
0
  0
BLOCK_RECORD
  5
20CF
330
1
100
AcDbSymbolTableRecord
100
AcDbBlockTableRecord
  2
*D22
340
0
  0
ENDTAB
  0
ENDSEC
  0
SECTION
  2
BLOCKS
  0
BLOCK
  5
4
330
2
100
AcDbEntity
  8
0
100
AcDbBlockBegin
  2
*MODEL_SPACE
 70
     0
 10
0.0
 20
0.0
 30
0.0
  3
*MODEL_SPACE
  1

  0
ENDBLK
  5
A
330
2
100
AcDbEntity
  8
0
100
AcDbBlockEnd
  0
BLOCK
  5
E
330
D
100
AcDbEntity
 67
     1
  8
0
100
AcDbBlockBegin
  2
*PAPER_SPACE
 70
     0
 10
0.0
 20
0.0
 30
0.0
  3
*PAPER_SPACE
  1

  0
ENDBLK
  5
F
330
D
100
AcDbEntity
 67
     1
  8
0
100
AcDbBlockEnd
  0
BLOCK
  5
28
330
27
100
AcDbEntity
  8
0
100
AcDbBlockBegin
  2
GENAXEH
 70
     0
 10
0.0
 20
0.0
 30
0.0
  3
GENAXEH
  1

  0
LINE
  5
29
330
27
100
AcDbEntity
  8
0
100
AcDbLine
 10
-1.0
 20
0.0
 30
0.0
 11
1.0
 21
0.0
 31
0.0
  0
ENDBLK
  5
2A
330
27
100
AcDbEntity
  8
0
100
AcDbBlockEnd
  0
BLOCK
  5
62A
330
628
100
AcDbEntity
  8
0
100
AcDbBlockBegin
  2
A$C453B67D5
 70
     0
 10
0.0
 20
0.0
 30
0.0
  3
A$C453B67D5
  1

  0
TEXT
  5
62B
330
628
100
AcDbEntity
  8
0
 62
     4
100
AcDbText
 10
0.0000000042221018
 20
15.6750728935973
 30
0.0
 40
3.0
  1
0
 41
0.75
  7
CHINESET
100
AcDbText
  0
LINE
  5
62C
330
628
100
AcDbEntity
  8
0
 62
     4
100
AcDbLine
 10
0.7831209408720952
 20
-0.0000001285146709
 30
0.0
 11
0.7831209408720952
 21
12.50658996549839
 31
0.0
  0
TEXT
  5
62D
330
628
100
AcDbEntity
  8
0
 62
     4
100
AcDbText
 10
5.354910616106053
 20
16.42400857412451
 30
0.0
 40
3.0
  1
Stroke
 41
0.75
  7
CHINESET
100
AcDbText
  0
ENDBLK
  5
62E
330
628
100
AcDbEntity
  8
0
100
AcDbBlockEnd
  0
BLOCK
  5
631
330
62F
100
AcDbEntity
  8
0
100
AcDbBlockBegin
  2
A$C17481420
 70
     0
 10
0.0
 20
0.0
 30
0.0
  3
A$C17481420
  1

  0
LINE
  5
632
330
62F
100
AcDbEntity
  8
SL
100
AcDbLine
 10
14.92688374510175
 20
0.6911761177026392
 30
0.0
 11
5.249999590827769
 21
0.6911761177026392
 31
0.0
  0
TRACE
  5
633
330
62F
100
AcDbEntity
  8
SL
370
    35
100
AcDbTrace
 10
5.249999590827769
 20
1.382351726952606
 30
0.0
 11
5.249999590827769
 21
0.000000508452672
 31
0.0
 12
-0.0000004091722303
 22
0.6911761177026392
 32
0.0
 13
-0.0000004091722303
 23
0.6911761177026392
 33
0.0
  0
MTEXT
  5
634
330
62F
100
AcDbEntity
  8
SL
100
AcDbMText
 10
7.091092156233571
 20
2.131627989433411
 30
0.0
 40
3.674999999999999
 41
0.0
 71
     7
 72
     5
  1
SL
  7
ACISOTS
 73
     1
 44
1.0
1001
ACAD
1000
MTEXTBEGIN
1070
    73
1070
     1
1070
    44
1040
1.0
1070
    74
1070
     0
1000
MTEXTEND
  0
ENDBLK
  5
635
330
62F
100
AcDbEntity
  8
0
100
AcDbBlockEnd
  0
BLOCK
  5
1668
330
1666
100
AcDbEntity
  8
0
100
AcDbBlockBegin
  2
A$C6896536C
 70
     0
 10
0.0
 20
0.0
 30
0.0
  3
A$C6896536C
  1

  0
LEADER
  5
1669
330
1666
100
AcDbEntity
  8
1
100
AcDbLeader
  3
AM_ISO$7
 76
     2
 10
0.0000000000009095
 20
1.166665247989385
 30
0.0
 10
14.8373054244048
 20
1.166665247989385
 30
0.0
1001
ACAD
1000
DSTYLE
1002
{
1070
    41
1040
3.5
1070
   147
1040
1.5
1070
    77
1070
     1
1070
    40
1040
2.0
1002
}
  0
MTEXT
  5
166A
330
1666
100
AcDbEntity
  8
1
100
AcDbMText
 10
5.488395901823423
 20
8.243041517246183
 30
0.0
 40
4.5
 41
10.70304085292628
 71
     1
 72
     5
  1
SL
  7
CHINESET
 73
     1
 44
1.0
1001
ACAD
1000
MTEXTBEGIN
1070
    73
1070
     1
1070
    44
1040
1.0
1070
    74
1070
     0
1000
MTEXTEND
  0
ENDBLK
  5
166B
330
1666
100
AcDbEntity
  8
0
100
AcDbBlockEnd
  0
BLOCK
  5
1D1B
330
1D14
100
AcDbEntity
  8
0
100
AcDbBlockBegin
  2
*D5
 70
     1
 10
0.0
 20
0.0
 30
0.0
  3
*D5
  1

  0
LINE
  5
2156
330
1D14
100
AcDbEntity
  8
AM_5
100
AcDbLine
 10
253.8732893400545
 20
109.1033657277165
 30
0.0
 11
259.2515488014217
 21
92.18245884439394
 31
0.0
  0
LINE
  5
2157
330
1D14
100
AcDbEntity
  8
AM_5
100
AcDbLine
 10
259.2515488014217
 20
92.18245884439394
 30
0.0
 11
268.8327672349599
 21
92.18245884439394
 31
0.0
  0
SOLID
  5
2158
330
1D14
100
AcDbEntity
  8
AM_5
100
AcDbTrace
 10
254.4292164662568
 20
109.2800654960531
 30
0.0
 11
253.3173622138521
 21
108.9266659593799
 31
0.0
 12
252.8130907300349
 22
112.4389284849304
 32
0.0
 13
252.8130907300349
 23
112.4389284849304
 33
0.0
  0
MTEXT
  5
2159
330
1D14
100
AcDbEntity
  8
AM_5
100
AcDbMText
 10
264.5421580181907
 20
94.93867727793219
 30
0.0
 40
3.5
 41
0.0
 71
     5
 72
     1
  1
G1/8
 73
     1
 44
1.0
1001
ACAD
1000
MTEXTBEGIN
1070
    73
1070
     1
1070
    44
1040
1.0
1070
    74
1070
     0
1000
MTEXTEND
  0
POINT
  5
215A
330
1D14
100
AcDbEntity
  8
Defpoints
 62
     0
100
AcDbPoint
 10
252.8130907300349
 20
112.4389284849304
 30
0.0
  0
POINT
  5
215B
330
1D14
100
AcDbEntity
  8
Defpoints
 62
     0
100
AcDbPoint
 10
251.3338940564883
 20
117.0927294692436
 30
0.0
  0
ENDBLK
  5
1D1C
330
1D14
100
AcDbEntity
  8
0
100
AcDbBlockEnd
  0
BLOCK
  5
1D3F
330
1D35
100
AcDbEntity
  8
0
100
AcDbBlockBegin
  2
*D6
 70
     1
 10
0.0
 20
0.0
 30
0.0
  3
*D6
  1

  0
LINE
  5
21A5
330
1D35
100
AcDbEntity
  8
AM_5
100
AcDbLine
 10
347.3338940564884
 20
128.0927294692436
 30
0.0
 11
347.3338940564884
 21
58.5803051250949
 31
0.0
  0
LINE
  5
21A6
330
1D35
100
AcDbEntity
  8
AM_5
100
AcDbLine
 10
379.3338940564884
 20
129.5927294692436
 30
0.0
 11
379.3338940564884
 21
58.5803051250949
 31
0.0
  0
LINE
  5
21A7
330
1D35
100
AcDbEntity
  8
AM_5
100
AcDbLine
 10
350.8338940564883
 20
59.58030512509489
 30
0.0
 11
375.8338940564883
 21
59.58030512509489
 31
0.0
  0
SOLID
  5
21A8
330
1D35
100
AcDbEntity
  8
AM_5
100
AcDbTrace
 10
350.8338940564883
 20
60.16363845842823
 30
0.0
 11
350.8338940564883
 21
58.99697179176156
 31
0.0
 12
347.3338940564884
 22
59.58030512509489
 32
0.0
 13
347.3338940564884
 23
59.58030512509489
 33
0.0
  0
SOLID
  5
21A9
330
1D35
100
AcDbEntity
  8
AM_5
100
AcDbTrace
 10
375.8338940564883
 20
60.16363845842823
 30
0.0
 11
375.8338940564883
 21
58.99697179176156
 31
0.0
 12
379.3338940564884
 22
59.58030512509489
 32
0.0
 13
379.3338940564884
 23
59.58030512509489
 33
0.0
  0
MTEXT
  5
21AA
330
1D35
100
AcDbEntity
  8
AM_5
100
AcDbMText
 10
363.3338940564883
 20
62.33064961328388
 30
0.0
 40
3.5
 41
0.0
 71
     5
 72
     1
  1
32
 73
     1
 44
1.0
1001
ACAD
1000
MTEXTBEGIN
1070
    73
1070
     1
1070
    44
1040
1.0
1070
    74
1070
     0
1000
MTEXTEND
  0
POINT
  5
21AB
330
1D35
100
AcDbEntity
  8
Defpoints
 62
     0
100
AcDbPoint
 10
347.3338940564884
 20
129.0927294692436
 30
0.0
  0
POINT
  5
21AC
330
1D35
100
AcDbEntity
  8
Defpoints
 62
     0
100
AcDbPoint
 10
379.3338940564884
 20
130.5927294692436
 30
0.0
  0
POINT
  5
21AD
330
1D35
100
AcDbEntity
  8
Defpoints
 62
     0
100
AcDbPoint
 10
379.3338940564884
 20
59.58030512509489
 30
0.0
  0
ENDBLK
  5
1D40
330
1D35
100
AcDbEntity
  8
0
100
AcDbBlockEnd
  0
BLOCK
  5
1D4B
330
1D41
100
AcDbEntity
  8
0
100
AcDbBlockBegin
  2
*D7
 70
     1
 10
0.0
 20
0.0
 30
0.0
  3
*D7
  1

  0
LINE
  5
21AE
330
1D41
100
AcDbEntity
  8
AM_5
100
AcDbLine
 10
347.334755637657
 20
128.0927294692436
 30
0.0
 11
347.334755637657
 21
72.29186159546967
 31
0.0
  0
LINE
  5
21AF
330
1D41
100
AcDbEntity
  8
AM_5
100
AcDbLine
 10
310.3338940564884
 20
98.59272946924367
 30
0.0
 11
310.3338940564884
 21
72.29186159546967
 31
0.0
  0
LINE
  5
21B0
330
1D41
100
AcDbEntity
  8
AM_5
100
AcDbLine
 10
343.8347556376569
 20
73.29186159546967
 30
0.0
 11
313.8338940564884
 21
73.29186159546967
 31
0.0
  0
SOLID
  5
21B1
330
1D41
100
AcDbEntity
  8
AM_5
100
AcDbTrace
 10
343.8347556376569
 20
73.875194928803
 30
0.0
 11
343.8347556376569
 21
72.70852826213634
 31
0.0
 12
347.334755637657
 22
73.29186159546967
 32
0.0
 13
347.334755637657
 23
73.29186159546967
 33
0.0
  0
SOLID
  5
21B2
330
1D41
100
AcDbEntity
  8
AM_5
100
AcDbTrace
 10
313.8338940564884
 20
73.875194928803
 30
0.0
 11
313.8338940564884
 21
72.70852826213634
 31
0.0
 12
310.3338940564884
 22
73.29186159546967
 32
0.0
 13
310.3338940564884
 23
73.29186159546967
 33
0.0
  0
MTEXT
  5
21B3
330
1D41
100
AcDbEntity
  8
AM_5
100
AcDbMText
 10
328.8343248470726
 20
76.04186159546967
 30
0.0
 40
3.5
 41
0.0
 71
     5
 72
     1
  1
37
 73
     1
 44
1.0
1001
ACAD
1000
MTEXTBEGIN
1070
    73
1070
     1
1070
    44
1040
1.0
1070
    74
1070
     0
1000
MTEXTEND
  0
POINT
  5
21B4
330
1D41
100
AcDbEntity
  8
Defpoints
 62
     0
100
AcDbPoint
 10
347.334755637657
 20
129.0927294692436
 30
0.0
  0
POINT
  5
21B5
330
1D41
100
AcDbEntity
  8
Defpoints
 62
     0
100
AcDbPoint
 10
310.3338940564884
 20
99.59272946924366
 30
0.0
  0
POINT
  5
21B6
330
1D41
100
AcDbEntity
  8
Defpoints
 62
     0
100
AcDbPoint
 10
310.3338940564884
 20
73.29186159546967
 30
0.0
  0
ENDBLK
  5
1D4C
330
1D41
100
AcDbEntity
  8
0
100
AcDbBlockEnd
  0
BLOCK
  5
1D57
330
1D4D
100
AcDbEntity
  8
0
100
AcDbBlockBegin
  2
*D8
 70
     1
 10
0.0
 20
0.0
 30
0.0
  3
*D8
  1

  0
LINE
  5
217D
330
1D4D
100
AcDbEntity
  8
AM_5
100
AcDbLine
 10
338.3338940564883
 20
147.0927294692437
 30
0.0
 11
396.0978849222511
 21
147.0927294692437
 31
0.0
  0
LINE
  5
217E
330
1D4D
100
AcDbEntity
  8
AM_5
100
AcDbLine
 10
338.3338940564883
 20
127.0927294692436
 30
0.0
 11
396.0978849222511
 21
127.0927294692436
 31
0.0
  0
LINE
  5
217F
330
1D4D
100
AcDbEntity
  8
AM_5
100
AcDbLine
 10
395.0978849222511
 20
143.5927294692436
 30
0.0
 11
395.0978849222511
 21
130.5927294692436
 31
0.0
  0
SOLID
  5
2180
330
1D4D
100
AcDbEntity
  8
AM_5
100
AcDbTrace
 10
394.5145515889178
 20
143.5927294692436
 30
0.0
 11
395.6812182555844
 21
143.5927294692436
 31
0.0
 12
395.0978849222511
 22
147.0927294692437
 32
0.0
 13
395.0978849222511
 23
147.0927294692437
 33
0.0
  0
SOLID
  5
2181
330
1D4D
100
AcDbEntity
  8
AM_5
100
AcDbTrace
 10
394.5145515889178
 20
130.5927294692436
 30
0.0
 11
395.6812182555844
 21
130.5927294692436
 31
0.0
 12
395.0978849222511
 22
127.0927294692436
 32
0.0
 13
395.0978849222511
 23
127.0927294692436
 33
0.0
  0
MTEXT
  5
2182
330
1D4D
100
AcDbEntity
  8
AM_5
100
AcDbMText
 10
392.3475404340621
 20
137.0927294692437
 30
0.0
 40
3.5
 41
0.0
 71
     5
 72
     1
  1
%%c20
 11
0.0000000000000001
 21
1.0
 31
0.0
 73
     1
 44
1.0
1001
ACAD
1000
MTEXTBEGIN
1070
    73
1070
     1
1070
    44
1040
1.0
1070
    74
1070
     0
1000
MTEXTEND
  0
POINT
  5
2183
330
1D4D
100
AcDbEntity
  8
Defpoints
 62
     0
100
AcDbPoint
 10
337.3338940564884
 20
147.0927294692437
 30
0.0
  0
POINT
  5
2184
330
1D4D
100
AcDbEntity
  8
Defpoints
 62
     0
100
AcDbPoint
 10
337.3338940564884
 20
127.0927294692436
 30
0.0
  0
POINT
  5
2185
330
1D4D
100
AcDbEntity
  8
Defpoints
 62
     0
100
AcDbPoint
 10
395.0978849222511
 20
127.0927294692436
 30
0.0
  0
ENDBLK
  5
1D58
330
1D4D
100
AcDbEntity
  8
0
100
AcDbBlockEnd
  0
BLOCK
  5
1D63
330
1D59
100
AcDbEntity
  8
0
100
AcDbBlockBegin
  2
*D9
 70
     1
 10
0.0
 20
0.0
 30
0.0
  3
*D9
  1

  0
LINE
  5
219C
330
1D59
100
AcDbEntity
  8
AM_5
100
AcDbLine
 10
319.8338940564884
 20
159.5927294692437
 30
0.0
 11
404.097884922251
 21
159.5927294692436
 31
0.0
  0
LINE
  5
219D
330
1D59
100
AcDbEntity
  8
AM_5
100
AcDbLine
 10
319.8338940564884
 20
114.5927294692436
 30
0.0
 11
404.097884922251
 21
114.5927294692436
 31
0.0
  0
LINE
  5
219E
330
1D59
100
AcDbEntity
  8
AM_5
100
AcDbLine
 10
403.0978849222511
 20
156.0927294692436
 30
0.0
 11
403.0978849222511
 21
118.0927294692436
 31
0.0
  0
SOLID
  5
219F
330
1D59
100
AcDbEntity
  8
AM_5
100
AcDbTrace
 10
402.5145515889177
 20
156.0927294692436
 30
0.0
 11
403.6812182555844
 21
156.0927294692436
 31
0.0
 12
403.0978849222511
 22
159.5927294692436
 32
0.0
 13
403.0978849222511
 23
159.5927294692436
 33
0.0
  0
SOLID
  5
21A0
330
1D59
100
AcDbEntity
  8
AM_5
100
AcDbTrace
 10
402.5145515889177
 20
118.0927294692436
 30
0.0
 11
403.6812182555843
 21
118.0927294692436
 31
0.0
 12
403.0978849222511
 22
114.5927294692436
 32
0.0
 13
403.0978849222511
 23
114.5927294692436
 33
0.0
  0
MTEXT
  5
21A1
330
1D59
100
AcDbEntity
  8
AM_5
100
AcDbMText
 10
400.347884922251
 20
137.0927294692437
 30
0.0
 40
3.5
 41
0.0
 71
     5
 72
     1
  1
%%c45
 11
0.0000000000000001
 21
1.0
 31
0.0
 73
     1
 44
1.0
1001
ACAD
1000
MTEXTBEGIN
1070
    73
1070
     1
1070
    44
1040
1.0
1070
    74
1070
     0
1000
MTEXTEND
  0
POINT
  5
21A2
330
1D59
100
AcDbEntity
  8
Defpoints
 62
     0
100
AcDbPoint
 10
318.8338940564884
 20
159.5927294692437
 30
0.0
  0
POINT
  5
21A3
330
1D59
100
AcDbEntity
  8
Defpoints
 62
     0
100
AcDbPoint
 10
318.8338940564884
 20
114.5927294692436
 30
0.0
  0
POINT
  5
21A4
330
1D59
100
AcDbEntity
  8
Defpoints
 62
     0
100
AcDbPoint
 10
403.0978849222511
 20
114.5927294692436
 30
0.0
  0
ENDBLK
  5
1D64
330
1D59
100
AcDbEntity
  8
0
100
AcDbBlockEnd
  0
BLOCK
  5
1D71
330
1D65
100
AcDbEntity
  8
0
100
AcDbBlockBegin
  2
*D10
 70
     1
 10
0.0
 20
0.0
 30
0.0
  3
*D10
  1

  0
LINE
  5
1FAD
330
1D65
100
AcDbEntity
  8
AM_5
100
AcDbLine
 10
95.33389405648836
 20
114.5927294692436
 30
0.0
 11
95.33389405648836
 21
72.29186159546924
 31
0.0
  0
LINE
  5
1FAE
330
1D65
100
AcDbEntity
  8
AM_5
100
AcDbLine
 10
99.33389405648837
 20
97.09272946924372
 30
0.0
 11
99.33389405648837
 21
72.29186159546924
 31
0.0
  0
LINE
  5
1FAF
330
1D65
100
AcDbEntity
  8
AM_5
100
AcDbLine
 10
91.83389405648837
 20
73.29186159546924
 30
0.0
 11
88.33389405648835
 21
73.29186159546924
 31
0.0
  0
LINE
  5
1FB0
330
1D65
100
AcDbEntity
  8
AM_5
100
AcDbLine
 10
102.8338940564883
 20
73.29186159546924
 30
0.0
 11
106.3338940564883
 21
73.29186159546924
 31
0.0
  0
LINE
  5
1FB1
330
1D65
100
AcDbEntity
  8
AM_5
100
AcDbLine
 10
95.33389405648836
 20
73.29186159546924
 30
0.0
 11
99.33389405648837
 21
73.29186159546924
 31
0.0
  0
SOLID
  5
1FB2
330
1D65
100
AcDbEntity
  8
AM_5
100
AcDbTrace
 10
91.83389405648837
 20
73.87519492880257
 30
0.0
 11
91.83389405648837
 21
72.70852826213591
 31
0.0
 12
95.33389405648836
 22
73.29186159546924
 32
0.0
 13
95.33389405648836
 23
73.29186159546924
 33
0.0
  0
SOLID
  5
1FB3
330
1D65
100
AcDbEntity
  8
AM_5
100
AcDbTrace
 10
102.8338940564883
 20
73.87519492880257
 30
0.0
 11
102.8338940564883
 21
72.70852826213591
 31
0.0
 12
99.33389405648837
 22
73.29186159546924
 32
0.0
 13
99.33389405648837
 23
73.29186159546924
 33
0.0
  0
MTEXT
  5
1FB4
330
1D65
100
AcDbEntity
  8
AM_5
100
AcDbMText
 10
97.33389405648836
 20
76.04186159546924
 30
0.0
 40
3.5
 41
0.0
 71
     5
 72
     1
  1
4
 73
     1
 44
1.0
1001
ACAD
1000
MTEXTBEGIN
1070
    73
1070
     1
1070
    44
1040
1.0
1070
    74
1070
     0
1000
MTEXTEND
  0
POINT
  5
1FB5
330
1D65
100
AcDbEntity
  8
Defpoints
 62
     0
100
AcDbPoint
 10
95.33389405648836
 20
115.5927294692436
 30
0.0
  0
POINT
  5
1FB6
330
1D65
100
AcDbEntity
  8
Defpoints
 62
     0
100
AcDbPoint
 10
99.33389405648837
 20
98.09272946924373
 30
0.0
  0
POINT
  5
1FB7
330
1D65
100
AcDbEntity
  8
Defpoints
 62
     0
100
AcDbPoint
 10
99.33389405648837
 20
73.29186159546924
 30
0.0
  0
ENDBLK
  5
1D72
330
1D65
100
AcDbEntity
  8
0
100
AcDbBlockEnd
  0
BLOCK
  5
1D7D
330
1D73
100
AcDbEntity
  8
0
100
AcDbBlockBegin
  2
*D11
 70
     1
 10
0.0
 20
0.0
 30
0.0
  3
*D11
  1

  0
LINE
  5
1FB8
330
1D73
100
AcDbEntity
  8
AM_5
100
AcDbLine
 10
95.33389405648836
 20
159.5927294692437
 30
0.0
 11
75.4241683109674
 21
159.5927294692437
 31
0.0
  0
LINE
  5
1FB9
330
1D73
100
AcDbEntity
  8
AM_5
100
AcDbLine
 10
95.33389405648836
 20
114.5927294692437
 30
0.0
 11
75.4241683109674
 21
114.5927294692437
 31
0.0
  0
LINE
  5
1FBA
330
1D73
100
AcDbEntity
  8
AM_5
100
AcDbLine
 10
76.4241683109674
 20
156.0927294692436
 30
0.0
 11
76.4241683109674
 21
118.0927294692436
 31
0.0
  0
SOLID
  5
1FBB
330
1D73
100
AcDbEntity
  8
AM_5
100
AcDbTrace
 10
75.84083497763407
 20
156.0927294692436
 30
0.0
 11
77.00750164430073
 21
156.0927294692436
 31
0.0
 12
76.4241683109674
 22
159.5927294692437
 32
0.0
 13
76.4241683109674
 23
159.5927294692437
 33
0.0
  0
SOLID
  5
1FBC
330
1D73
100
AcDbEntity
  8
AM_5
100
AcDbTrace
 10
75.84083497763407
 20
118.0927294692436
 30
0.0
 11
77.00750164430073
 21
118.0927294692436
 31
0.0
 12
76.4241683109674
 22
114.5927294692437
 32
0.0
 13
76.4241683109674
 23
114.5927294692437
 33
0.0
  0
MTEXT
  5
1FBD
330
1D73
100
AcDbEntity
  8
AM_5
100
AcDbMText
 10
73.67416831096739
 20
137.0927294692437
 30
0.0
 40
3.5
 41
0.0
 71
     5
 72
     1
  1
%%c45
 11
0.0000000000000001
 21
1.0
 31
0.0
 73
     1
 44
1.0
1001
ACAD
1000
MTEXTBEGIN
1070
    73
1070
     1
1070
    44
1040
1.0
1070
    74
1070
     0
1000
MTEXTEND
  0
POINT
  5
1FBE
330
1D73
100
AcDbEntity
  8
Defpoints
 62
     0
100
AcDbPoint
 10
96.33389405648836
 20
159.5927294692437
 30
0.0
  0
POINT
  5
1FBF
330
1D73
100
AcDbEntity
  8
Defpoints
 62
     0
100
AcDbPoint
 10
96.33389405648836
 20
114.5927294692436
 30
0.0
  0
POINT
  5
1FC0
330
1D73
100
AcDbEntity
  8
Defpoints
 62
     0
100
AcDbPoint
 10
76.4241683109674
 20
114.5927294692437
 30
0.0
  0
ENDBLK
  5
1D7E
330
1D73
100
AcDbEntity
  8
0
100
AcDbBlockEnd
  0
BLOCK
  5
1DA1
330
1D97
100
AcDbEntity
  8
0
100
AcDbBlockBegin
  2
*D12
 70
     1
 10
0.0
 20
0.0
 30
0.0
  3
*D12
  1

  0
LINE
  5
1FC1
330
1D97
100
AcDbEntity
  8
AM_5
100
AcDbLine
 10
320.3338940564884
 20
115.0927294692436
 30
0.0
 11
320.3338940564884
 21
87.46165947037892
 31
0.0
  0
LINE
  5
1FC2
330
1D97
100
AcDbEntity
  8
AM_5
100
AcDbLine
 10
310.3338940564884
 20
98.59272946924367
 30
0.0
 11
310.3338940564884
 21
87.46165947037892
 31
0.0
  0
LINE
  5
1FC3
330
1D97
100
AcDbEntity
  8
AM_5
100
AcDbLine
 10
316.8338940564884
 20
88.46165947037892
 30
0.0
 11
313.8338940564884
 21
88.46165947037892
 31
0.0
  0
SOLID
  5
1FC4
330
1D97
100
AcDbEntity
  8
AM_5
100
AcDbTrace
 10
316.8338940564884
 20
89.04499280371224
 30
0.0
 11
316.8338940564884
 21
87.87832613704559
 31
0.0
 12
320.3338940564884
 22
88.46165947037892
 32
0.0
 13
320.3338940564884
 23
88.46165947037892
 33
0.0
  0
SOLID
  5
1FC5
330
1D97
100
AcDbEntity
  8
AM_5
100
AcDbTrace
 10
313.8338940564884
 20
89.04499280371224
 30
0.0
 11
313.8338940564884
 21
87.87832613704559
 31
0.0
 12
310.3338940564884
 22
88.46165947037892
 32
0.0
 13
310.3338940564884
 23
88.46165947037892
 33
0.0
  0
MTEXT
  5
1FC6
330
1D97
100
AcDbEntity
  8
AM_5
100
AcDbMText
 10
315.3338940564883
 20
91.21165947037892
 30
0.0
 40
3.5
 41
0.0
 71
     5
 72
     1
  1
10
 73
     1
 44
1.0
1001
ACAD
1000
MTEXTBEGIN
1070
    73
1070
     1
1070
    44
1040
1.0
1070
    74
1070
     0
1000
MTEXTEND
  0
POINT
  5
1FC7
330
1D97
100
AcDbEntity
  8
Defpoints
 62
     0
100
AcDbPoint
 10
320.3338940564884
 20
116.0927294692436
 30
0.0
  0
POINT
  5
1FC8
330
1D97
100
AcDbEntity
  8
Defpoints
 62
     0
100
AcDbPoint
 10
310.3338940564884
 20
99.59272946924366
 30
0.0
  0
POINT
  5
1FC9
330
1D97
100
AcDbEntity
  8
Defpoints
 62
     0
100
AcDbPoint
 10
310.3338940564884
 20
88.46165947037892
 30
0.0
  0
ENDBLK
  5
1DA2
330
1D97
100
AcDbEntity
  8
0
100
AcDbBlockEnd
  0
BLOCK
  5
1DAD
330
1DA3
100
AcDbEntity
  8
0
100
AcDbBlockBegin
  2
*D13
 70
     1
 10
0.0
 20
0.0
 30
0.0
  3
*D13
  1

  0
LINE
  5
1FCA
330
1DA3
100
AcDbEntity
  8
AM_5
100
AcDbLine
 10
310.3338940564884
 20
98.59272946924367
 30
0.0
 11
310.3338940564884
 21
72.2918615954695
 31
0.0
  0
LINE
  5
1FCB
330
1DA3
100
AcDbEntity
  8
AM_5
100
AcDbLine
 10
220.3338940564884
 20
98.59272946924367
 30
0.0
 11
220.3338940564884
 21
72.2918615954695
 31
0.0
  0
LINE
  5
1FCC
330
1DA3
100
AcDbEntity
  8
AM_5
100
AcDbLine
 10
306.8338940564883
 20
73.29186159546949
 30
0.0
 11
223.8338940564883
 21
73.29186159546949
 31
0.0
  0
SOLID
  5
1FCD
330
1DA3
100
AcDbEntity
  8
AM_5
100
AcDbTrace
 10
306.8338940564883
 20
73.87519492880283
 30
0.0
 11
306.8338940564883
 21
72.70852826213617
 31
0.0
 12
310.3338940564884
 22
73.29186159546949
 32
0.0
 13
310.3338940564884
 23
73.29186159546949
 33
0.0
  0
SOLID
  5
1FCE
330
1DA3
100
AcDbEntity
  8
AM_5
100
AcDbTrace
 10
223.8338940564883
 20
73.87519492880283
 30
0.0
 11
223.8338940564883
 21
72.70852826213617
 31
0.0
 12
220.3338940564884
 22
73.29186159546949
 32
0.0
 13
220.3338940564884
 23
73.29186159546949
 33
0.0
  0
MTEXT
  5
1FCF
330
1DA3
100
AcDbEntity
  8
AM_5
100
AcDbMText
 10
265.3338940564883
 20
76.0418615954695
 30
0.0
 40
3.5
 41
0.0
 71
     5
 72
     1
  1
90
 73
     1
 44
1.0
1001
ACAD
1000
MTEXTBEGIN
1070
    73
1070
     1
1070
    44
1040
1.0
1070
    74
1070
     0
1000
MTEXTEND
  0
POINT
  5
1FD0
330
1DA3
100
AcDbEntity
  8
Defpoints
 62
     0
100
AcDbPoint
 10
310.3338940564884
 20
99.59272946924366
 30
0.0
  0
POINT
  5
1FD1
330
1DA3
100
AcDbEntity
  8
Defpoints
 62
     0
100
AcDbPoint
 10
220.3338940564884
 20
99.59272946924366
 30
0.0
  0
POINT
  5
1FD2
330
1DA3
100
AcDbEntity
  8
Defpoints
 62
     0
100
AcDbPoint
 10
220.3338940564884
 20
73.29186159546949
 30
0.0
  0
ENDBLK
  5
1DAE
330
1DA3
100
AcDbEntity
  8
0
100
AcDbBlockEnd
  0
BLOCK
  5
1DB9
330
1DAF
100
AcDbEntity
  8
0
100
AcDbBlockBegin
  2
*D14
 70
     1
 10
0.0
 20
0.0
 30
0.0
  3
*D14
  1

  0
LINE
  5
1FD3
330
1DAF
100
AcDbEntity
  8
AM_5
100
AcDbLine
 10
220.3338940564884
 20
98.59272946924367
 30
0.0
 11
220.3338940564884
 21
72.29186159546924
 31
0.0
  0
LINE
  5
1FD4
330
1DAF
100
AcDbEntity
  8
AM_5
100
AcDbLine
 10
99.33389405648837
 20
90.8405339342959
 30
0.0
 11
99.33389405648837
 21
72.29186159546924
 31
0.0
  0
LINE
  5
1FD5
330
1DAF
100
AcDbEntity
  8
AM_5
100
AcDbLine
 10
216.8338940564884
 20
73.29186159546924
 30
0.0
 11
102.8338940564883
 21
73.29186159546924
 31
0.0
  0
SOLID
  5
1FD6
330
1DAF
100
AcDbEntity
  8
AM_5
100
AcDbTrace
 10
216.8338940564884
 20
73.87519492880257
 30
0.0
 11
216.8338940564884
 21
72.70852826213591
 31
0.0
 12
220.3338940564884
 22
73.29186159546924
 32
0.0
 13
220.3338940564884
 23
73.29186159546924
 33
0.0
  0
SOLID
  5
1FD7
330
1DAF
100
AcDbEntity
  8
AM_5
100
AcDbTrace
 10
102.8338940564883
 20
73.87519492880257
 30
0.0
 11
102.8338940564883
 21
72.70852826213591
 31
0.0
 12
99.33389405648837
 22
73.29186159546924
 32
0.0
 13
99.33389405648837
 23
73.29186159546924
 33
0.0
  0
MTEXT
  5
1FD8
330
1DAF
100
AcDbEntity
  8
AM_5
100
AcDbMText
 10
159.8338940564883
 20
76.04220608365821
 30
0.0
 40
3.5
 41
0.0
 71
     5
 72
     1
  1
121+Storke
 73
     1
 44
1.0
1001
ACAD
1000
MTEXTBEGIN
1070
    73
1070
     1
1070
    44
1040
1.0
1070
    74
1070
     0
1000
MTEXTEND
  0
POINT
  5
1FD9
330
1DAF
100
AcDbEntity
  8
Defpoints
 62
     0
100
AcDbPoint
 10
220.3338940564884
 20
99.59272946924366
 30
0.0
  0
POINT
  5
1FDA
330
1DAF
100
AcDbEntity
  8
Defpoints
 62
     0
100
AcDbPoint
 10
99.33389405648837
 20
91.84053393429591
 30
0.0
  0
POINT
  5
1FDB
330
1DAF
100
AcDbEntity
  8
Defpoints
 62
     0
100
AcDbPoint
 10
99.33389405648837
 20
73.29186159546924
 30
0.0
  0
ENDBLK
  5
1DBA
330
1DAF
100
AcDbEntity
  8
0
100
AcDbBlockEnd
  0
BLOCK
  5
1DC5
330
1DBB
100
AcDbEntity
  8
0
100
AcDbBlockBegin
  2
*D15
 70
     1
 10
0.0
 20
0.0
 30
0.0
  3
*D15
  1

  0
LINE
  5
21B7
330
1DBB
100
AcDbEntity
  8
AM_5
100
AcDbLine
 10
99.33389405648837
 20
83.49229553235648
 30
0.0
 11
99.33389405648837
 21
58.58030512509484
 31
0.0
  0
LINE
  5
21B8
330
1DBB
100
AcDbEntity
  8
AM_5
100
AcDbLine
 10
347.334755637657
 20
128.0927294692436
 30
0.0
 11
347.334755637657
 21
58.58030512509484
 31
0.0
  0
LINE
  5
21B9
330
1DBB
100
AcDbEntity
  8
AM_5
100
AcDbLine
 10
102.8338940564883
 20
59.58030512509484
 30
0.0
 11
343.8347556376569
 21
59.58030512509484
 31
0.0
  0
SOLID
  5
21BA
330
1DBB
100
AcDbEntity
  8
AM_5
100
AcDbTrace
 10
102.8338940564883
 20
60.16363845842818
 30
0.0
 11
102.8338940564883
 21
58.9969717917615
 31
0.0
 12
99.33389405648837
 22
59.58030512509484
 32
0.0
 13
99.33389405648837
 23
59.58030512509484
 33
0.0
  0
SOLID
  5
21BB
330
1DBB
100
AcDbEntity
  8
AM_5
100
AcDbTrace
 10
343.8347556376569
 20
60.16363845842818
 30
0.0
 11
343.8347556376569
 21
58.9969717917615
 31
0.0
 12
347.334755637657
 22
59.58030512509484
 32
0.0
 13
347.334755637657
 23
59.58030512509484
 33
0.0
  0
MTEXT
  5
21BC
330
1DBB
100
AcDbEntity
  8
AM_5
100
AcDbMText
 10
223.3343248470727
 20
62.33064961328381
 30
0.0
 40
3.5
 41
0.0
 71
     5
 72
     1
  1
248+Storke
 73
     1
 44
1.0
1001
ACAD
1000
MTEXTBEGIN
1070
    73
1070
     1
1070
    44
1040
1.0
1070
    74
1070
     0
1000
MTEXTEND
  0
POINT
  5
21BD
330
1DBB
100
AcDbEntity
  8
Defpoints
 62
     0
100
AcDbPoint
 10
99.33389405648837
 20
84.49229553235648
 30
0.0
  0
POINT
  5
21BE
330
1DBB
100
AcDbEntity
  8
Defpoints
 62
     0
100
AcDbPoint
 10
347.334755637657
 20
129.0927294692436
 30
0.0
  0
POINT
  5
21BF
330
1DBB
100
AcDbEntity
  8
Defpoints
 62
     0
100
AcDbPoint
 10
347.334755637657
 20
59.58030512509484
 30
0.0
  0
ENDBLK
  5
1DC6
330
1DBB
100
AcDbEntity
  8
0
100
AcDbBlockEnd
  0
BLOCK
  5
1EE0
330
1ED4
100
AcDbEntity
  8
0
100
AcDbBlockBegin
  2
*D16
 70
     1
 10
0.0
 20
0.0
 30
0.0
  3
*D16
  1

  0
LINE
  5
1FEB
330
1ED4
100
AcDbEntity
  8
AM_5
100
AcDbLine
 10
92.00461843342646
 20
137.0927294692437
 30
0.0
 11
87.87546077117212
 21
137.0927294692437
 31
0.0
  0
LINE
  5
1FEC
330
1ED4
100
AcDbEntity
  8
AM_5
100
AcDbLine
 10
101.8338940564883
 20
129.0927294692441
 30
0.0
 11
87.87546077117212
 21
129.0927294692441
 31
0.0
  0
LINE
  5
1FED
330
1ED4
100
AcDbEntity
  8
AM_5
100
AcDbLine
 10
88.87546077117212
 20
140.5927294692437
 30
0.0
 11
88.87546077117212
 21
144.0927294692437
 31
0.0
  0
LINE
  5
1FEE
330
1ED4
100
AcDbEntity
  8
AM_5
100
AcDbLine
 10
88.87546077117212
 20
125.5927294692442
 30
0.0
 11
88.87546077117212
 21
122.0927294692442
 31
0.0
  0
LINE
  5
1FEF
330
1ED4
100
AcDbEntity
  8
AM_5
100
AcDbLine
 10
88.87546077117212
 20
137.0927294692437
 30
0.0
 11
88.87546077117212
 21
129.0927294692441
 31
0.0
  0
SOLID
  5
1FF0
330
1ED4
100
AcDbEntity
  8
AM_5
100
AcDbTrace
 10
88.2921274378388
 20
140.5927294692437
 30
0.0
 11
89.45879410450546
 21
140.5927294692437
 31
0.0
 12
88.87546077117212
 22
137.0927294692437
 32
0.0
 13
88.87546077117212
 23
137.0927294692437
 33
0.0
  0
SOLID
  5
1FF1
330
1ED4
100
AcDbEntity
  8
AM_5
100
AcDbTrace
 10
88.2921274378388
 20
125.5927294692442
 30
0.0
 11
89.45879410450546
 21
125.5927294692442
 31
0.0
 12
88.87546077117212
 22
129.0927294692441
 32
0.0
 13
88.87546077117212
 23
129.0927294692441
 33
0.0
  0
MTEXT
  5
1FF2
330
1ED4
100
AcDbEntity
  8
AM_5
100
AcDbMText
 10
86.12546077117212
 20
133.0927294692439
 30
0.0
 40
3.5
 41
0.0
 71
     5
 72
     1
  1
8
 11
0.0000000000000001
 21
1.0
 31
0.0
 73
     1
 44
1.0
1001
ACAD
1000
MTEXTBEGIN
1070
    73
1070
     1
1070
    44
1040
1.0
1070
    74
1070
     0
1000
MTEXTEND
  0
POINT
  5
1FF3
330
1ED4
100
AcDbEntity
  8
Defpoints
 62
     0
100
AcDbPoint
 10
93.00461843342645
 20
137.0927294692437
 30
0.0
  0
POINT
  5
1FF4
330
1ED4
100
AcDbEntity
  8
Defpoints
 62
     0
100
AcDbPoint
 10
102.8338940564883
 20
129.0927294692441
 30
0.0
  0
POINT
  5
1FF5
330
1ED4
100
AcDbEntity
  8
Defpoints
 62
     0
100
AcDbPoint
 10
88.87546077117212
 20
129.0927294692441
 30
0.0
  0
ENDBLK
  5
1EE1
330
1ED4
100
AcDbEntity
  8
0
100
AcDbBlockEnd
  0
BLOCK
  5
1EF8
330
1EEE
100
AcDbEntity
  8
0
100
AcDbBlockBegin
  2
*D17
 70
     1
 10
0.0
 20
0.0
 30
0.0
  3
*D17
  1

  0
LINE
  5
1FF6
330
1EEE
100
AcDbEntity
  8
AM_5
100
AcDbLine
 10
115.3338940564879
 20
142.5927294692441
 30
0.0
 11
115.3338940564879
 21
189.0927294692437
 31
0.0
  0
LINE
  5
1FF7
330
1EEE
100
AcDbEntity
  8
AM_5
100
AcDbLine
 10
99.33389405648837
 20
177.0927294692437
 30
0.0
 11
99.33389405648837
 21
189.0927294692437
 31
0.0
  0
LINE
  5
1FF8
330
1EEE
100
AcDbEntity
  8
AM_5
100
AcDbLine
 10
111.8338940564879
 20
188.0927294692437
 30
0.0
 11
102.8338940564883
 21
188.0927294692437
 31
0.0
  0
SOLID
  5
1FF9
330
1EEE
100
AcDbEntity
  8
AM_5
100
AcDbTrace
 10
111.8338940564879
 20
188.676062802577
 30
0.0
 11
111.8338940564879
 21
187.5093961359104
 31
0.0
 12
115.3338940564879
 22
188.0927294692437
 32
0.0
 13
115.3338940564879
 23
188.0927294692437
 33
0.0
  0
SOLID
  5
1FFA
330
1EEE
100
AcDbEntity
  8
AM_5
100
AcDbTrace
 10
102.8338940564883
 20
188.676062802577
 30
0.0
 11
102.8338940564883
 21
187.5093961359104
 31
0.0
 12
99.33389405648837
 22
188.0927294692437
 32
0.0
 13
99.33389405648837
 23
188.0927294692437
 33
0.0
  0
MTEXT
  5
1FFB
330
1EEE
100
AcDbEntity
  8
AM_5
100
AcDbMText
 10
107.3338940564881
 20
190.8427294692437
 30
0.0
 40
3.5
 41
0.0
 71
     5
 72
     1
  1
16
 73
     1
 44
1.0
1001
ACAD
1000
MTEXTBEGIN
1070
    73
1070
     1
1070
    44
1040
1.0
1070
    74
1070
     0
1000
MTEXTEND
  0
POINT
  5
1FFC
330
1EEE
100
AcDbEntity
  8
Defpoints
 62
     0
100
AcDbPoint
 10
115.3338940564879
 20
141.5927294692441
 30
0.0
  0
POINT
  5
1FFD
330
1EEE
100
AcDbEntity
  8
Defpoints
 62
     0
100
AcDbPoint
 10
99.33389405648837
 20
176.0927294692437
 30
0.0
  0
POINT
  5
1FFE
330
1EEE
100
AcDbEntity
  8
Defpoints
 62
     0
100
AcDbPoint
 10
99.33389405648837
 20
188.0927294692437
 30
0.0
  0
ENDBLK
  5
1EF9
330
1EEE
100
AcDbEntity
  8
0
100
AcDbBlockEnd
  0
BLOCK
  5
1F0E
330
1F04
100
AcDbEntity
  8
0
100
AcDbBlockBegin
  2
*D18
 70
     1
 10
0.0
 20
0.0
 30
0.0
  3
*D18
  1

  0
LINE
  5
1FFF
330
1F04
100
AcDbEntity
  8
AM_5
100
AcDbLine
 10
99.33389405648837
 20
177.0927294692437
 30
0.0
 11
99.33389405648837
 21
198.4492707721999
 31
0.0
  0
LINE
  5
2000
330
1F04
100
AcDbEntity
  8
AM_5
100
AcDbLine
 10
132.3338940564883
 20
177.0927294692437
 30
0.0
 11
132.3338940564883
 21
198.4492707721999
 31
0.0
  0
LINE
  5
2001
330
1F04
100
AcDbEntity
  8
AM_5
100
AcDbLine
 10
102.8338940564883
 20
197.4492707721999
 30
0.0
 11
128.8338940564883
 21
197.4492707721999
 31
0.0
  0
SOLID
  5
2002
330
1F04
100
AcDbEntity
  8
AM_5
100
AcDbTrace
 10
102.8338940564883
 20
198.0326041055332
 30
0.0
 11
102.8338940564883
 21
196.8659374388665
 31
0.0
 12
99.33389405648837
 22
197.4492707721999
 32
0.0
 13
99.33389405648837
 23
197.4492707721999
 33
0.0
  0
SOLID
  5
2003
330
1F04
100
AcDbEntity
  8
AM_5
100
AcDbTrace
 10
128.8338940564883
 20
198.0326041055332
 30
0.0
 11
128.8338940564883
 21
196.8659374388665
 31
0.0
 12
132.3338940564883
 22
197.4492707721999
 32
0.0
 13
132.3338940564883
 23
197.4492707721999
 33
0.0
  0
MTEXT
  5
2004
330
1F04
100
AcDbEntity
  8
AM_5
100
AcDbMText
 10
115.8338940564883
 20
200.1992707721999
 30
0.0
 40
3.5
 41
0.0
 71
     5
 72
     1
  1
33
 73
     1
 44
1.0
1001
ACAD
1000
MTEXTBEGIN
1070
    73
1070
     1
1070
    44
1040
1.0
1070
    74
1070
     0
1000
MTEXTEND
  0
POINT
  5
2005
330
1F04
100
AcDbEntity
  8
Defpoints
 62
     0
100
AcDbPoint
 10
99.33389405648837
 20
176.0927294692437
 30
0.0
  0
POINT
  5
2006
330
1F04
100
AcDbEntity
  8
Defpoints
 62
     0
100
AcDbPoint
 10
132.3338940564883
 20
176.0927294692437
 30
0.0
  0
POINT
  5
2007
330
1F04
100
AcDbEntity
  8
Defpoints
 62
     0
100
AcDbPoint
 10
132.3338940564883
 20
197.4492707721999
 30
0.0
  0
ENDBLK
  5
1F0F
330
1F04
100
AcDbEntity
  8
0
100
AcDbBlockEnd
  0
BLOCK
  5
1F24
330
1F1A
100
AcDbEntity
  8
0
100
AcDbBlockBegin
  2
*D19
 70
     1
 10
0.0
 20
0.0
 30
0.0
  3
*D19
  1

  0
LINE
  5
2008
330
1F1A
100
AcDbEntity
  8
AM_5
100
AcDbLine
 10
204.3338940564879
 20
142.5927294692437
 30
0.0
 11
204.3338940564879
 21
190.4492707721997
 31
0.0
  0
LINE
  5
2009
330
1F1A
100
AcDbEntity
  8
AM_5
100
AcDbLine
 10
220.3338940564884
 20
177.0927294692437
 30
0.0
 11
220.3338940564884
 21
190.4492707721997
 31
0.0
  0
LINE
  5
200A
330
1F1A
100
AcDbEntity
  8
AM_5
100
AcDbLine
 10
207.8338940564879
 20
189.4492707721998
 30
0.0
 11
216.8338940564884
 21
189.4492707721998
 31
0.0
  0
SOLID
  5
200B
330
1F1A
100
AcDbEntity
  8
AM_5
100
AcDbTrace
 10
207.8338940564879
 20
190.0326041055331
 30
0.0
 11
207.8338940564879
 21
188.8659374388664
 31
0.0
 12
204.3338940564879
 22
189.4492707721998
 32
0.0
 13
204.3338940564879
 23
189.4492707721998
 33
0.0
  0
SOLID
  5
200C
330
1F1A
100
AcDbEntity
  8
AM_5
100
AcDbTrace
 10
216.8338940564884
 20
190.0326041055331
 30
0.0
 11
216.8338940564884
 21
188.8659374388664
 31
0.0
 12
220.3338940564884
 22
189.4492707721998
 32
0.0
 13
220.3338940564884
 23
189.4492707721998
 33
0.0
  0
MTEXT
  5
200D
330
1F1A
100
AcDbEntity
  8
AM_5
100
AcDbMText
 10
212.3338940564881
 20
192.1992707721997
 30
0.0
 40
3.5
 41
0.0
 71
     5
 72
     1
  1
16
 73
     1
 44
1.0
1001
ACAD
1000
MTEXTBEGIN
1070
    73
1070
     1
1070
    44
1040
1.0
1070
    74
1070
     0
1000
MTEXTEND
  0
POINT
  5
200E
330
1F1A
100
AcDbEntity
  8
Defpoints
 62
     0
100
AcDbPoint
 10
204.3338940564879
 20
141.5927294692437
 30
0.0
  0
POINT
  5
200F
330
1F1A
100
AcDbEntity
  8
Defpoints
 62
     0
100
AcDbPoint
 10
220.3338940564884
 20
176.0927294692437
 30
0.0
  0
POINT
  5
2010
330
1F1A
100
AcDbEntity
  8
Defpoints
 62
     0
100
AcDbPoint
 10
220.3338940564884
 20
189.4492707721998
 30
0.0
  0
ENDBLK
  5
1F25
330
1F1A
100
AcDbEntity
  8
0
100
AcDbBlockEnd
  0
BLOCK
  5
1F3A
330
1F30
100
AcDbEntity
  8
0
100
AcDbBlockBegin
  2
*D20
 70
     1
 10
0.0
 20
0.0
 30
0.0
  3
*D20
  1

  0
LINE
  5
2011
330
1F30
100
AcDbEntity
  8
AM_5
100
AcDbLine
 10
187.3338940564883
 20
177.0927294692437
 30
0.0
 11
187.3338940564883
 21
198.4492707721999
 31
0.0
  0
LINE
  5
2012
330
1F30
100
AcDbEntity
  8
AM_5
100
AcDbLine
 10
220.3338940564884
 20
177.0927294692437
 30
0.0
 11
220.3338940564884
 21
198.4492707721999
 31
0.0
  0
LINE
  5
2013
330
1F30
100
AcDbEntity
  8
AM_5
100
AcDbLine
 10
190.8338940564883
 20
197.4492707721999
 30
0.0
 11
216.8338940564884
 21
197.4492707721999
 31
0.0
  0
SOLID
  5
2014
330
1F30
100
AcDbEntity
  8
AM_5
100
AcDbTrace
 10
190.8338940564883
 20
198.0326041055332
 30
0.0
 11
190.8338940564883
 21
196.8659374388666
 31
0.0
 12
187.3338940564883
 22
197.4492707721999
 32
0.0
 13
187.3338940564883
 23
197.4492707721999
 33
0.0
  0
SOLID
  5
2015
330
1F30
100
AcDbEntity
  8
AM_5
100
AcDbTrace
 10
216.8338940564884
 20
198.0326041055332
 30
0.0
 11
216.8338940564884
 21
196.8659374388666
 31
0.0
 12
220.3338940564884
 22
197.4492707721999
 32
0.0
 13
220.3338940564884
 23
197.4492707721999
 33
0.0
  0
MTEXT
  5
2016
330
1F30
100
AcDbEntity
  8
AM_5
100
AcDbMText
 10
203.8338940564884
 20
200.1992707721999
 30
0.0
 40
3.5
 41
0.0
 71
     5
 72
     1
  1
33
 73
     1
 44
1.0
1001
ACAD
1000
MTEXTBEGIN
1070
    73
1070
     1
1070
    44
1040
1.0
1070
    74
1070
     0
1000
MTEXTEND
  0
POINT
  5
2017
330
1F30
100
AcDbEntity
  8
Defpoints
 62
     0
100
AcDbPoint
 10
187.3338940564883
 20
176.0927294692437
 30
0.0
  0
POINT
  5
2018
330
1F30
100
AcDbEntity
  8
Defpoints
 62
     0
100
AcDbPoint
 10
220.3338940564884
 20
176.0927294692437
 30
0.0
  0
POINT
  5
2019
330
1F30
100
AcDbEntity
  8
Defpoints
 62
     0
100
AcDbPoint
 10
220.3338940564884
 20
197.4492707721999
 30
0.0
  0
ENDBLK
  5
1F3B
330
1F30
100
AcDbEntity
  8
0
100
AcDbBlockEnd
  0
BLOCK
  5
20CD
330
20C3
100
AcDbEntity
  8
0
100
AcDbBlockBegin
  2
*D21
 70
     1
 10
0.0
 20
0.0
 30
0.0
  3
*D21
  1

  0
LINE
  5
212B
330
20C3
100
AcDbEntity
  8
AM_5
100
AcDbLine
 10
446.862809236863
 20
102.0740934024345
 30
0.0
 11
446.862809236863
 21
76.29778364859217
 31
0.0
  0
LINE
  5
212C
330
20C3
100
AcDbEntity
  8
AM_5
100
AcDbLine
 10
503.362809236863
 20
102.0740934024345
 30
0.0
 11
503.362809236863
 21
76.29778364859217
 31
0.0
  0
LINE
  5
212D
330
20C3
100
AcDbEntity
  8
AM_5
100
AcDbLine
 10
450.362809236863
 20
77.29778364859217
 30
0.0
 11
499.862809236863
 21
77.29778364859217
 31
0.0
  0
SOLID
  5
212E
330
20C3
100
AcDbEntity
  8
AM_5
100
AcDbTrace
 10
450.362809236863
 20
77.8811169819255
 30
0.0
 11
450.362809236863
 21
76.71445031525884
 31
0.0
 12
446.862809236863
 22
77.29778364859217
 32
0.0
 13
446.862809236863
 23
77.29778364859217
 33
0.0
  0
SOLID
  5
212F
330
20C3
100
AcDbEntity
  8
AM_5
100
AcDbTrace
 10
499.862809236863
 20
77.8811169819255
 30
0.0
 11
499.862809236863
 21
76.71445031525884
 31
0.0
 12
503.362809236863
 22
77.29778364859217
 32
0.0
 13
503.362809236863
 23
77.29778364859217
 33
0.0
  0
MTEXT
  5
2130
330
20C3
100
AcDbEntity
  8
AM_5
100
AcDbMText
 10
475.112809236863
 20
80.04778364859218
 30
0.0
 40
3.5
 41
0.0
 71
     5
 72
     1
  1
{\Famgdt|c136;o}56.5
 73
     1
 44
1.0
1001
ACAD
1000
MTEXTBEGIN
1070
    73
1070
     1
1070
    44
1040
1.0
1070
    74
1070
     0
1000
MTEXTEND
  0
POINT
  5
2131
330
20C3
100
AcDbEntity
  8
Defpoints
 62
     0
100
AcDbPoint
 10
446.862809236863
 20
103.0740934024345
 30
0.0
  0
POINT
  5
2132
330
20C3
100
AcDbEntity
  8
Defpoints
 62
     0
100
AcDbPoint
 10
503.362809236863
 20
103.0740934024345
 30
0.0
  0
POINT
  5
2133
330
20C3
100
AcDbEntity
  8
Defpoints
 62
     0
100
AcDbPoint
 10
503.362809236863
 20
77.29778364859217
 30
0.0
  0
ENDBLK
  5
20CE
330
20C3
100
AcDbEntity
  8
0
100
AcDbBlockEnd
  0
BLOCK
  5
20D9
330
20CF
100
AcDbEntity
  8
0
100
AcDbBlockBegin
  2
*D22
 70
     1
 10
0.0
 20
0.0
 30
0.0
  3
*D22
  1

  0
LINE
  5
2122
330
20CF
100
AcDbEntity
  8
AM_5
100
AcDbLine
 10
512.612809236863
 20
103.8427294692436
 30
0.0
 11
512.612809236863
 21
61.9860487317882
 31
0.0
  0
LINE
  5
2123
330
20CF
100
AcDbEntity
  8
AM_5
100
AcDbLine
 10
437.612809236863
 20
103.0208380809362
 30
0.0
 11
437.612809236863
 21
61.9860487317882
 31
0.0
  0
LINE
  5
2124
330
20CF
100
AcDbEntity
  8
AM_5
100
AcDbLine
 10
509.1128092368631
 20
62.9860487317882
 30
0.0
 11
441.112809236863
 21
62.9860487317882
 31
0.0
  0
SOLID
  5
2125
330
20CF
100
AcDbEntity
  8
AM_5
100
AcDbTrace
 10
509.1128092368631
 20
63.56938206512154
 30
0.0
 11
509.1128092368631
 21
62.40271539845487
 31
0.0
 12
512.612809236863
 22
62.9860487317882
 32
0.0
 13
512.612809236863
 23
62.9860487317882
 33
0.0
  0
SOLID
  5
2126
330
20CF
100
AcDbEntity
  8
AM_5
100
AcDbTrace
 10
441.112809236863
 20
63.56938206512154
 30
0.0
 11
441.112809236863
 21
62.40271539845487
 31
0.0
 12
437.612809236863
 22
62.9860487317882
 32
0.0
 13
437.612809236863
 23
62.9860487317882
 33
0.0
  0
MTEXT
  5
2127
330
20CF
100
AcDbEntity
  8
AM_5
100
AcDbMText
 10
475.112809236863
 20
65.7360487317882
 30
0.0
 40
3.5
 41
0.0
 71
     5
 72
     1
  1
{\Famgdt|c136;o}75
 73
     1
 44
1.0
1001
ACAD
1000
MTEXTBEGIN
1070
    73
1070
     1
1070
    44
1040
1.0
1070
    74
1070
     0
1000
MTEXTEND
  0
POINT
  5
2128
330
20CF
100
AcDbEntity
  8
Defpoints
 62
     0
100
AcDbPoint
 10
512.612809236863
 20
104.8427294692436
 30
0.0
  0
POINT
  5
2129
330
20CF
100
AcDbEntity
  8
Defpoints
 62
     0
100
AcDbPoint
 10
437.612809236863
 20
104.0208380809362
 30
0.0
  0
POINT
  5
212A
330
20CF
100
AcDbEntity
  8
Defpoints
 62
     0
100
AcDbPoint
 10
437.612809236863
 20
62.9860487317882
 30
0.0
  0
ENDBLK
  5
20DA
330
20CF
100
AcDbEntity
  8
0
100
AcDbBlockEnd
  0
ENDSEC
  0
SECTION
  2
ENTITIES
  0
VIEWPORT
  5
24D
102
{ACAD_XDICTIONARY
360
21CC
102
}
330
D
100
AcDbEntity
 67
     1
  8
0
100
AcDbViewport
 10
328.9149721845744
 20
169.4671057940767
 30
0.0
 40
726.2409820028429
 41
610.8707241693974
 68
     1
 69
     1
 12
328.9149721845744
 22
169.4671057940767
 13
0.0
 23
0.0
 14
1.0
 24
1.0
 15
0.0
 25
0.0
 16
0.0
 26
0.0
 36
1.0
 17
0.0
 27
0.0
 37
0.0
 42
50.0
 43
0.0
 44
0.0
 45
610.8707241693974
 50
0.0
 51
0.0
 72
  1000
 90
    32800
  1

281
     0
 71
     1
 74
     0
110
0.0
120
0.0
130
0.0
111
1.0
121
0.0
131
0.0
112
0.0
122
1.0
132
0.0
 79
     0
146
0.0
  0
TEXT
  5
39B
330
D
100
AcDbEntity
 67
     1
  8
LOGO
100
AcDbText
 10
361.840551327114
 20
-9.44606624365188
 30
0.0
 40
2.892660566630368
  1
Accessory
 72
     4
 11
370.8150307350848
 21
-8.426403393914675
 31
0.0
100
AcDbText
  0
LINE
  5
39C
330
D
100
AcDbEntity
 67
     1
  8
LOGO
 62
     4
100
AcDbLine
 10
375.2013469625599
 20
23.54640457218987
 30
0.0
 11
361.9673929228556
 21
23.54640457218987
 31
0.0
  0
LINE
  5
39D
330
D
100
AcDbEntity
 67
     1
  8
LOGO
 62
     4
100
AcDbLine
 10
384.5909674538043
 20
3.926726956625849
 30
0.0
 11
356.0926308403753
 21
3.926726956625849
 31
0.0
  0
LINE
  5
39E
330
D
100
AcDbEntity
 67
     1
  8
LOGO
 62
     4
100
AcDbLine
 10
375.2013469625599
 20
10.46661949514691
 30
0.0
 11
361.9673929228556
 21
10.46661949514691
 31
0.0
  0
LINE
  5
39F
330
D
100
AcDbEntity
 67
     1
  8
LOGO
 62
     4
100
AcDbLine
 10
384.5909674538043
 20
-12.05967702642657
 30
0.0
 11
356.0926308403753
 21
-12.05967702642657
 31
0.0
  0
TEXT
  5
3A0
330
D
100
AcDbEntity
 67
     1
  8
LOGO
 62
     7
100
AcDbText
 10
127.9186544428761
 20
16.99006388864409
 30
0.0
 40
8.71985671802853
  1
訂購代號:
  7
CHINESET
100
AcDbText
  0
TEXT
  5
3A1
330
D
100
AcDbEntity
 67
     1
  8
LOGO
 62
     7
100
AcDbText
 10
126.8757115058791
 20
8.806228695568634
 30
0.0
 40
5.81323781201902
  1
Order example:
 41
0.8
  7
CHINESET
100
AcDbText
  0
LINE
  5
3A2
330
D
100
AcDbEntity
 67
     1
  8
LOGO
 62
     4
100
AcDbLine
 10
216.2915274690957
 20
-12.05967702642657
 30
0.0
 11
187.2253384090007
 21
-12.05967702642657
 31
0.0
  0
LINE
  5
3A3
330
D
100
AcDbEntity
 67
     1
  8
LOGO
 62
     4
100
AcDbLine
 10
216.2915274690957
 20
3.926726956625628
 30
0.0
 11
187.2253384090007
 21
3.926726956625628
 31
0.0
  0
LINE
  5
3A4
330
D
100
AcDbEntity
 67
     1
  8
LOGO
 62
     4
100
AcDbLine
 10
223.1506719713434
 20
10.46661949514691
 30
0.0
 11
180.745466299651
 21
10.46661949514691
 31
0.0
  0
LINE
  5
3A5
330
D
100
AcDbEntity
 67
     1
  8
LOGO
 62
     4
100
AcDbLine
 10
223.1506719713434
 20
23.54640457218987
 30
0.0
 11
180.745466299651
 21
23.54640457218987
 31
0.0
  0
TEXT
  5
3A6
330
D
100
AcDbEntity
 67
     1
  8
LOGO
  6
Continuous
 62
     7
100
AcDbText
 10
182.7269996258909
 20
13.37323840115662
 30
0.0
 40
7.266547265023775
  1
MCBQI2
  7
CHINESET
 72
     1
 11
201.7584329390484
 21
17.00651203366851
 31
0.0
100
AcDbText
 73
     2
  0
LINE
  5
3A7
330
D
100
AcDbEntity
 67
     1
  8
LOGO
 62
     4
100
AcDbLine
 10
180.745466299651
 20
23.54640457218987
 30
0.0
 11
180.745466299651
 21
10.46661949514691
 31
0.0
  0
LINE
  5
3A8
330
D
100
AcDbEntity
 67
     1
  8
LOGO
 62
     4
100
AcDbLine
 10
187.2253384090007
 20
3.926726956625628
 30
0.0
 11
187.2253384090007
 21
-12.05967702642657
 31
0.0
  0
TEXT
  5
3A9
330
D
100
AcDbEntity
 67
     1
  8
LOGO
100
AcDbText
 10
196.8409099757767
 20
-9.82031333556571
 30
0.0
 40
2.892660566630368
  1
Model
 72
     4
 11
201.7584329390484
 21
-8.426403393914782
 31
0.0
100
AcDbText
  0
TEXT
  5
3AA
330
D
100
AcDbEntity
 67
     1
  8
LOGO
100
AcDbText
 10
195.9451951270293
 20
-3.917711075144067
 30
0.0
 40
5.81323781201902
  1
型式
 72
     4
 11
201.7584329390484
 21
-1.15985612889095
 31
0.0
100
AcDbText
  0
LINE
  5
3AB
330
D
100
AcDbEntity
 67
     1
  8
LOGO
 62
     4
100
AcDbLine
 10
201.7584329390484
 20
10.46661949514691
 30
0.0
 11
201.7584329390484
 21
3.926726956625628
 31
0.0
  0
LINE
  5
3AC
330
D
100
AcDbEntity
 67
     1
  8
LOGO
 62
     4
100
AcDbLine
 10
223.1506719713434
 20
23.54640457218987
 30
0.0
 11
223.1506719713434
 21
10.46661949514691
 31
0.0
  0
LINE
  5
3AD
330
D
100
AcDbEntity
 67
     1
  8
LOGO
 62
     4
100
AcDbLine
 10
261.5424265706991
 20
23.54640457218987
 30
0.0
 11
261.5424265706991
 21
10.46661949514691
 31
0.0
  0
LINE
  5
3AE
330
D
100
AcDbEntity
 67
     1
  8
LOGO
 62
     4
100
AcDbLine
 10
232.7645821425738
 20
23.54640457218987
 30
0.0
 11
232.7645821425738
 21
10.46661949514691
 31
0.0
  0
TEXT
  5
3AF
330
D
100
AcDbEntity
 67
     1
  8
LOGO
100
AcDbText
 10
235.5360840418573
 20
-9.386414250571155
 30
0.0
 40
2.892660566630368
  1
Acting type
 72
     4
 11
245.5157629967321
 21
-8.426403393914782
 31
0.0
100
AcDbText
  0
TEXT
  5
3B0
330
D
100
AcDbEntity
 67
     1
  8
LOGO
100
AcDbText
 10
233.9498419332359
 20
-3.917711075144065
 30
0.0
 40
5.81323781201902
  1
作動型式
 72
     4
 11
245.5157629967321
 21
-1.15985612889095
 31
0.0
100
AcDbText
  0
LINE
  5
3B1
330
D
100
AcDbEntity
 67
     1
  8
LOGO
 62
     4
100
AcDbLine
 10
261.5424265706991
 20
10.46661949514691
 30
0.0
 11
232.7645821425738
 21
10.46661949514691
 31
0.0
  0
LINE
  5
3B2
330
D
100
AcDbEntity
 67
     1
  8
LOGO
 62
     4
100
AcDbLine
 10
261.5424265706991
 20
3.926726956625628
 30
0.0
 11
229.4890994227647
 21
3.926726956625628
 31
0.0
  0
LINE
  5
3B3
330
D
100
AcDbEntity
 67
     1
  8
LOGO
 62
     4
100
AcDbLine
 10
261.5424265706991
 20
-12.05967702642657
 30
0.0
 11
229.4890994227647
 21
-12.05967702642657
 31
0.0
  0
LINE
  5
3B4
330
D
100
AcDbEntity
 67
     1
  8
LOGO
 62
     4
100
AcDbLine
 10
216.2915274690959
 20
3.926726956625628
 30
0.0
 11
216.2915274690959
 21
-12.05967702642657
 31
0.0
  0
LINE
  5
3B5
330
D
100
AcDbEntity
 67
     1
  8
LOGO
 62
     4
100
AcDbLine
 10
229.4890994227647
 20
3.926726956625628
 30
0.0
 11
229.4890994227647
 21
-12.05967702642657
 31
0.0
  0
LINE
  5
3B6
330
D
100
AcDbEntity
 67
     1
  8
LOGO
 62
     4
100
AcDbLine
 10
261.5424265706991
 20
3.926726956625628
 30
0.0
 11
261.5424265706991
 21
-12.05967702642657
 31
0.0
  0
LINE
  5
3B7
330
D
100
AcDbEntity
 67
     1
  8
LOGO
 62
     4
100
AcDbLine
 10
245.5157629967321
 20
10.46661949514691
 30
0.0
 11
245.5157629967321
 21
3.926726956625628
 31
0.0
  0
LINE
  5
3B8
330
D
100
AcDbEntity
 67
     1
  8
LOGO
 62
     4
100
AcDbLine
 10
261.5424265706991
 20
23.54640457218987
 30
0.0
 11
232.7645821425738
 21
23.54640457218987
 31
0.0
  0
LINE
  5
3B9
330
D
100
AcDbEntity
 67
     1
  8
LOGO
  6
Continuous
 62
     7
100
AcDbLine
 10
225.4041223706415
 20
16.9601813678309
 30
0.0
 11
230.5026353240843
 21
16.9601813678309
 31
0.0
  0
TEXT
  5
3BA
330
D
100
AcDbEntity
 67
     1
  8
LOGO
  6
Continuous
 62
     7
100
AcDbText
 10
241.8824893642202
 20
13.29083529728588
 30
0.0
 40
7.266547265023775
  1
11
  7
CHINESET
 72
     1
 11
245.5157629967321
 21
16.92410892979777
 31
0.0
100
AcDbText
 73
     2
  0
TEXT
  5
3BB
330
D
100
AcDbEntity
 67
     1
  8
LOGO
  6
Continuous
 62
     7
100
AcDbText
 10
312.4574183134753
 20
11.87204058392845
 30
0.0
 40
7.266547265023775
  1
*
  7
CHINESET
 72
     1
 11
314.1875486146714
 21
15.50531421644034
 31
0.0
100
AcDbText
 73
     2
  0
TEXT
  5
3BC
330
D
100
AcDbEntity
 67
     1
  8
LOGO
100
AcDbText
 10
307.7053900750937
 20
-9.872733677229966
 30
0.0
 40
2.892660566630368
  1
Stroke
 72
     4
 11
313.5780604467247
 21
-8.426403393914782
 31
0.0
100
AcDbText
  0
LINE
  5
3BD
330
D
100
AcDbEntity
 67
     1
  8
LOGO
 62
     4
100
AcDbLine
 10
324.5118589789474
 20
23.54640457218987
 30
0.0
 11
305.4578030959236
 21
23.54640457218987
 31
0.0
  0
TEXT
  5
3BE
330
D
100
AcDbEntity
 67
     1
  8
LOGO
100
AcDbText
 10
307.7648226347057
 20
-4.06647503490046
 30
0.0
 40
5.81323781201902
  1
行程
 72
     4
 11
313.5780604467247
 21
-1.15985612889095
 31
0.0
100
AcDbText
  0
LINE
  5
3BF
330
D
100
AcDbEntity
 67
     1
  8
LOGO
 62
     4
100
AcDbLine
 10
324.2296692855255
 20
-12.05967702642657
 30
0.0
 11
302.9264516079236
 21
-12.05967702642657
 31
0.0
  0
LINE
  5
3C0
330
D
100
AcDbEntity
 67
     1
  8
LOGO
 62
     4
100
AcDbLine
 10
324.5118589789474
 20
10.46661949514691
 30
0.0
 11
305.4578030959236
 21
10.46661949514691
 31
0.0
  0
LINE
  5
3C1
330
D
100
AcDbEntity
 67
     1
  8
LOGO
 62
     4
100
AcDbLine
 10
324.2296692855255
 20
3.926726956625628
 30
0.0
 11
302.9264516079236
 21
3.926726956625628
 31
0.0
  0
LINE
  5
3C2
330
D
100
AcDbEntity
 67
     1
  8
LOGO
 62
     4
100
AcDbLine
 10
295.1668500482642
 20
23.54640457219002
 30
0.0
 11
295.1668500482642
 21
10.46661949514721
 31
0.0
  0
LINE
  5
3C3
330
D
100
AcDbEntity
 67
     1
  8
LOGO
 62
     4
100
AcDbLine
 10
271.8333796183586
 20
23.54640457218987
 30
0.0
 11
271.8333796183586
 21
10.46661949514721
 31
0.0
  0
LINE
  5
3C4
330
D
100
AcDbEntity
 67
     1
  8
LOGO
 62
     4
100
AcDbLine
 10
305.4578030959238
 20
23.54640457218987
 30
0.0
 11
305.4578030959236
 21
10.46661949514691
 31
0.0
  0
LINE
  5
3C5
330
D
100
AcDbEntity
 67
     1
  8
LOGO
 62
     4
100
AcDbLine
 10
295.1668500482642
 20
-12.05967702642657
 30
0.0
 11
271.8333796183586
 21
-12.05967702642657
 31
0.0
  0
LINE
  5
3C6
330
D
100
AcDbEntity
 67
     1
  8
LOGO
 62
     4
100
AcDbLine
 10
295.1668500482642
 20
10.46661949514721
 30
0.0
 11
271.8333796183586
 21
10.46661949514721
 31
0.0
  0
LINE
  5
3C7
330
D
100
AcDbEntity
 67
     1
  8
LOGO
 62
     4
100
AcDbLine
 10
295.1668500482642
 20
3.926726956625849
 30
0.0
 11
271.8333796183586
 21
3.926726956625849
 31
0.0
  0
LINE
  5
3C8
330
D
100
AcDbEntity
 67
     1
  8
LOGO
 62
     4
100
AcDbLine
 10
271.8333796183586
 20
3.926726956625849
 30
0.0
 11
271.8333796183586
 21
-12.05967702642657
 31
0.0
  0
TEXT
  5
3C9
330
D
100
AcDbEntity
 67
     1
  8
LOGO
100
AcDbText
 10
279.4503900400289
 20
-9.827801955803462
 30
0.0
 40
2.892660566630368
  1
Bore
 72
     4
 11
283.5001148333114
 21
-8.426403393914782
 31
0.0
100
AcDbText
  0
TEXT
  5
3CA
330
D
100
AcDbEntity
 67
     1
  8
LOGO
100
AcDbText
 10
277.3235496580412
 20
-4.066475034900459
 30
0.0
 40
5.81323781201902
  1
內徑
 72
     4
 11
283.5001148333114
 21
-1.15985612889095
 31
0.0
100
AcDbText
  0
LINE
  5
3CB
330
D
100
AcDbEntity
 67
     1
  8
LOGO
 62
     4
100
AcDbLine
 10
283.5001144982008
 20
10.46661949514721
 30
0.0
 11
283.5001144982008
 21
3.926726956625849
 31
0.0
  0
LINE
  5
3CC
330
D
100
AcDbEntity
 67
     1
  8
LOGO
 62
     4
100
AcDbLine
 10
295.1668500482642
 20
3.926726956625849
 30
0.0
 11
295.1668500482642
 21
-12.05967702642657
 31
0.0
  0
LINE
  5
3CD
330
D
100
AcDbEntity
 67
     1
  8
LOGO
 62
     4
100
AcDbLine
 10
302.9264516079236
 20
3.926726956625628
 30
0.0
 11
302.9264516079236
 21
-12.05967702642657
 31
0.0
  0
LINE
  5
3CE
330
D
100
AcDbEntity
 67
     1
  8
LOGO
 62
     4
100
AcDbLine
 10
295.1668500482642
 20
23.54640457219002
 30
0.0
 11
271.8333796183586
 21
23.54640457218987
 31
0.0
  0
LINE
  5
3CF
330
D
100
AcDbEntity
 67
     1
  8
LOGO
  6
Continuous
 62
     7
100
AcDbLine
 10
263.7958769699974
 20
16.96018136783105
 30
0.0
 11
269.571432799869
 21
16.96018136783105
 31
0.0
  0
TEXT
  5
3D0
330
D
100
AcDbEntity
 67
     1
  8
LOGO
  6
Continuous
 62
     7
100
AcDbText
 10
278.295883074486
 20
13.29083529728595
 30
0.0
 40
7.266547265023775
  1
63
  7
CHINESET
 72
     1
 11
284.1783260985528
 21
16.92410892979784
 31
0.0
100
AcDbText
 73
     2
  0
LINE
  5
3D1
330
D
100
AcDbEntity
 67
     1
  8
LOGO
  6
Continuous
 62
     7
100
AcDbLine
 10
297.4203004475626
 20
16.96018136783105
 30
0.0
 11
303.1958562774343
 21
16.96018136783105
 31
0.0
  0
TEXT
  5
3D2
330
D
100
AcDbEntity
 67
     1
  8
LOGO
  6
Continuous
 62
     7
100
AcDbText
 10
331.2462615056605
 20
13.68746496262061
 30
0.0
 40
7.266547265023775
  1
(M)
  7
CHINESET
 72
     1
 11
339.0318478610432
 21
17.32073859513249
 31
0.0
100
AcDbText
 73
     2
  0
LINE
  5
3D3
330
D
100
AcDbEntity
 67
     1
  8
LOGO
 62
     4
100
AcDbLine
 10
361.9673929228556
 20
23.54640457218987
 30
0.0
 11
361.9673929228556
 21
10.46661949514691
 31
0.0
  0
LINE
  5
3D4
330
D
100
AcDbEntity
 67
     1
  8
LOGO
 62
     4
100
AcDbLine
 10
351.7885616715552
 20
23.54640457218987
 30
0.0
 11
351.7885616715552
 21
10.46661949514691
 31
0.0
  0
LINE
  5
3D5
330
D
100
AcDbEntity
 67
     1
  8
LOGO
 62
     4
100
AcDbLine
 10
327.5362647615832
 20
23.54640457218987
 30
0.0
 11
327.5362647615832
 21
10.46661949514691
 31
0.0
  0
LINE
  5
3D6
330
D
100
AcDbEntity
 67
     1
  8
LOGO
 62
     4
100
AcDbLine
 10
324.5118589789474
 20
23.54640457218987
 30
0.0
 11
324.5118589789474
 21
10.46661949514691
 31
0.0
  0
LINE
  5
3D7
330
D
100
AcDbEntity
 67
     1
  8
LOGO
 62
     4
100
AcDbLine
 10
352.8919124056639
 20
-12.05967702642657
 30
0.0
 11
331.5886947280621
 21
-12.05967702642657
 31
0.0
  0
LINE
  5
3D8
330
D
100
AcDbEntity
 67
     1
  8
LOGO
 62
     4
100
AcDbLine
 10
352.8919124056639
 20
3.926726956625628
 30
0.0
 11
331.5886947280621
 21
3.926726956625628
 31
0.0
  0
TEXT
  5
3D9
330
D
100
AcDbEntity
 67
     1
  8
LOGO
100
AcDbText
 10
335.1532851786187
 20
-9.872733677229964
 30
0.0
 40
2.892660566630368
  1
MAGNET
 72
     4
 11
342.2403035668631
 21
-8.426403393914782
 31
0.0
100
AcDbText
  0
TEXT
  5
3DA
330
D
100
AcDbEntity
 67
     1
  8
LOGO
100
AcDbText
 10
333.5204468488345
 20
-4.005920474358596
 30
0.0
 40
5.81323781201902
  1
附磁石
 72
     4
 11
342.2403035668631
 21
-1.15985612889095
 31
0.0
100
AcDbText
  0
LINE
  5
3DB
330
D
100
AcDbEntity
 67
     1
  8
LOGO
 62
     4
100
AcDbLine
 10
351.7885616715552
 20
10.46661949514691
 30
0.0
 11
327.5362647615832
 21
10.46661949514691
 31
0.0
  0
LINE
  5
3DC
330
D
100
AcDbEntity
 67
     1
  8
LOGO
 62
     4
100
AcDbLine
 10
331.5886947280621
 20
3.926726956625628
 30
0.0
 11
331.5886947280621
 21
-12.05967702642657
 31
0.0
  0
LINE
  5
3DD
330
D
100
AcDbEntity
 67
     1
  8
LOGO
 62
     4
100
AcDbLine
 10
324.2296692855255
 20
3.926726956625628
 30
0.0
 11
324.2296692855255
 21
-12.11995636967614
 31
0.0
  0
LINE
  5
3DE
330
D
100
AcDbEntity
 67
     1
  8
LOGO
 62
     4
100
AcDbLine
 10
313.8858581930324
 20
10.46661949514691
 30
0.0
 11
313.8858581930324
 21
3.926726956625628
 31
0.0
  0
LINE
  5
3DF
330
D
100
AcDbEntity
 67
     1
  8
LOGO
 62
     4
100
AcDbLine
 10
342.2403035668631
 20
10.46661949514691
 30
0.0
 11
342.2403035668631
 21
3.926726956625628
 31
0.0
  0
LINE
  5
3E0
330
D
100
AcDbEntity
 67
     1
  8
LOGO
 62
     4
100
AcDbLine
 10
352.8919124056639
 20
3.926726956625628
 30
0.0
 11
352.8919124056639
 21
-12.11995636967614
 31
0.0
  0
LINE
  5
3E1
330
D
100
AcDbEntity
 67
     1
  8
LOGO
 62
     4
100
AcDbLine
 10
356.0926308403753
 20
3.926726956625849
 30
0.0
 11
356.0926308403753
 21
-12.05967702642657
 31
0.0
  0
LINE
  5
3E2
330
D
100
AcDbEntity
 67
     1
  8
LOGO
 62
     4
100
AcDbLine
 10
368.5843699427078
 20
10.46661949514691
 30
0.0
 11
368.5843699427078
 21
3.926726956625849
 31
0.0
  0
LINE
  5
3E3
330
D
100
AcDbEntity
 67
     1
  8
LOGO
 62
     4
100
AcDbLine
 10
351.7885616715552
 20
23.54640457218987
 30
0.0
 11
327.5362647615832
 21
23.54640457218987
 31
0.0
  0
LINE
  5
3E4
330
D
100
AcDbEntity
 67
     1
  8
LOGO
  6
Continuous
 62
     7
100
AcDbLine
 10
354.0420120708535
 20
16.96018136783105
 30
0.0
 11
359.8175679007254
 21
16.96018136783105
 31
0.0
  0
TEXT
  5
3E5
330
D
100
AcDbEntity
 67
     1
  8
LOGO
  6
Continuous
 62
     7
100
AcDbText
 10
366.8596688555232
 20
13.29083529728588
 30
0.0
 40
7.266547265023775
  1
?
  7
CHINESET
 72
     1
 11
368.7628121868389
 21
16.92410892979777
 31
0.0
100
AcDbText
 73
     2
  0
LINE
  5
3E6
330
D
100
AcDbEntity
 67
     1
  8
LOGO
 62
     4
100
AcDbLine
 10
375.2013469625599
 20
23.54640457218987
 30
0.0
 11
375.2013469625599
 21
10.46661949514691
 31
0.0
  0
TEXT
  5
3E7
330
D
100
AcDbEntity
 67
     1
  8
LOGO
100
AcDbText
 10
365.3510494088901
 20
-4.066475034900309
 30
0.0
 40
5.81323781201902
  1
配件
 72
     4
 11
371.224841781451
 21
-1.159856128890801
 31
0.0
100
AcDbText
  0
LINE
  5
3E8
330
D
100
AcDbEntity
 67
     1
  8
LOGO
 62
     4
100
AcDbLine
 10
384.5909674538043
 20
3.926726956625849
 30
0.0
 11
384.5909674538043
 21
-12.05967702642657
 31
0.0
  0
LINE
  5
3E9
330
D
100
AcDbEntity
 67
     1
  8
LOGO
 62
     4
100
AcDbLine
 10
124.3498399591877
 20
-15.69295065893873
 30
0.0
 11
124.3498399591877
 21
27.90633293120491
 31
0.0
  0
TEXT
  5
3EA
330
D
100
AcDbEntity
 67
     1
  8
LOGO
  6
Continuous
100
AcDbText
 10
44.09247470902471
 20
-7.127937194711108
 30
0.0
 40
6.539892538521454
  1
金器工業股份有限公司
  7
CHINESET
100
AcDbText
  0
TEXT
  5
3EB
330
D
100
AcDbEntity
 67
     1
  8
LOGO
  6
Continuous
100
AcDbText
 10
32.07998596969332
 20
-13.66911103942274
 30
0.0
 40
4.359928359014302
  1
MINDMAN INDUSTRIAL CO., LTD.
 41
0.85
  7
CHINESET
100
AcDbText
  0
LINE
  5
3EC
330
D
100
AcDbEntity
 67
     1
  8
LOGO
 62
     4
100
AcDbLine
 10
124.3498399591877
 20
19.18647621317595
 30
0.0
 11
60.40422402697652
 21
19.18647621317595
 31
0.0
  0
LINE
  5
3ED
330
D
100
AcDbEntity
 67
     1
  8
LOGO
 62
     4
100
AcDbLine
 10
124.3498399591877
 20
10.46661949514721
 30
0.0
 11
60.40422402697652
 21
10.46661949514721
 31
0.0
  0
LINE
  5
3EE
330
D
100
AcDbEntity
 67
     1
  8
LOGO
 62
     4
100
AcDbLine
 10
124.3498399591877
 20
1.746762777118775
 30
0.0
 11
28.4314160608721
 21
1.746762777118775
 31
0.0
  0
LINE
  5
3EF
330
D
100
AcDbEntity
 67
     1
  8
LOGO
 62
     4
100
AcDbLine
 10
60.40422402697652
 20
1.746762777118775
 30
0.0
 11
60.40422402697652
 21
27.90633293120491
 31
0.0
  0
TEXT
  5
3F0
330
D
100
AcDbEntity
 67
     1
  8
LOGO
100
AcDbText
 10
104.1080343295434
 20
3.926726956625622
 30
0.0
 40
4.359928359014302
  1
mm
  7
CHINESET
 72
     1
 11
109.5060408692754
 21
6.106691136132774
 31
0.0
100
AcDbText
 73
     2
  0
TEXT
  5
3F1
330
D
100
AcDbEntity
 67
     1
  8
LOGO
100
AcDbText
 10
101.8242623319645
 20
21.36644039268287
 30
0.0
 40
4.359928359014302
  1
1 : 1
  7
CHINESET
 72
     1
 11
109.5060408692754
 21
23.54640457219002
 31
0.0
100
AcDbText
 73
     2
  0
LINE
  5
3F2
330
D
100
AcDbEntity
 67
     1
  8
LOGO
 62
     4
100
AcDbLine
 10
95.28365089909199
 20
1.746762777118775
 30
0.0
 11
95.28365089909199
 21
27.90633293120491
 31
0.0
  0
TEXT
  5
3F3
330
D
100
AcDbEntity
 67
     1
  8
LOGO
100
AcDbText
 10
63.99921852657562
 20
21.36858602671781
 30
285.7425220874162
 40
4.359928359014302
  1
比例 Scale:
 41
0.9
  7
CHINESET
 72
     4
 11
77.84393746303488
 21
23.54640457219002
 31
285.7425220874162
100
AcDbText
  0
TEXT
  5
3F4
330
D
100
AcDbEntity
 67
     1
  8
LOGO
100
AcDbText
 10
63.74813336661453
 20
12.70791304748669
 30
285.7425220874162
 40
4.359928359014302
  1
投影  View:
 41
0.9
  7
CHINESET
 72
     4
 11
77.84393746303488
 21
14.82654785416158
 31
285.7425220874162
100
AcDbText
  0
TEXT
  5
3F5
330
D
100
AcDbEntity
 67
     1
  8
LOGO
100
AcDbText
 10
64.17439421957173
 20
3.926726956625621
 30
285.7425220874162
 40
4.359928359014302
  1
單位  Unit:
 41
0.9
  7
CHINESET
 72
     4
 11
77.84393746303488
 21
6.106691136132774
 31
285.7425220874162
100
AcDbText
  0
SOLID
  5
3F6
330
D
100
AcDbEntity
 67
     1
  8
LOGO
 62
     5
100
AcDbTrace
 10
32.9549117048777
 20
8.994523087047035
 30
0.0
 11
34.84003032279515
 21
8.994523087045848
 31
0.0
 12
42.70552524583092
 22
26.87064791212818
 32
0.0
 13
44.59064386374905
 23
26.87064791212678
 33
0.0
  0
SOLID
  5
3F7
330
D
100
AcDbEntity
 67
     1
  8
LOGO
 62
     5
100
AcDbTrace
 10
35.62007940607327
 20
8.994523087047035
 30
0.0
 11
37.50519802399078
 21
8.994523087047035
 31
0.0
 12
44.59064386374905
 22
25.44055792612105
 32
0.0
 13
42.70552524583092
 23
18.52845632708963
 33
0.0
  0
SOLID
  5
3F8
330
D
100
AcDbEntity
 67
     1
  8
LOGO
 62
     2
100
AcDbTrace
 10
34.84003032279515
 20
8.994523087045848
 30
0.0
 11
35.62007940607327
 21
8.994523087047035
 31
0.0
 12
44.59064386374905
 22
26.87064791212678
 32
0.0
 13
45.37069294702667
 23
26.87064791212678
 33
0.0
  0
SOLID
  5
3F9
330
D
100
AcDbEntity
 67
     1
  8
LOGO
 62
     5
100
AcDbTrace
 10
29.93260427264317
 20
2.494114059744632
 30
0.0
 11
30.58264517537441
 21
2.494114059744632
 31
0.0
 12
32.41321095260258
 22
5.744318573395723
 32
0.0
 13
33.06325185533263
 23
5.744318573395723
 33
0.0
  0
SOLID
  5
3FA
330
D
100
AcDbEntity
 67
     1
  8
LOGO
 62
     5
100
AcDbTrace
 10
32.41321095260258
 20
5.744318573395723
 30
0.0
 11
33.06325185533263
 21
5.744318573395723
 31
0.0
 12
32.41321095260258
 22
2.494114059744632
 32
0.0
 13
33.06325185533263
 23
2.494114059744632
 33
0.0
  0
SOLID
  5
3FB
330
D
100
AcDbEntity
 67
     1
  8
LOGO
 62
     5
100
AcDbTrace
 10
32.41321095260258
 20
2.494114059744632
 30
0.0
 11
33.06325185533263
 21
2.494114059744632
 31
0.0
 12
34.89381763256415
 22
5.744318573395723
 32
0.0
 13
35.54385853529363
 23
5.744318573395723
 33
0.0
  0
SOLID
  5
3FC
330
D
100
AcDbEntity
 67
     1
  8
LOGO
 62
     5
100
AcDbTrace
 10
34.89381763256415
 20
5.744318573395723
 30
0.0
 11
35.54385853529363
 21
5.744318573395723
 31
0.0
 12
34.89381763256415
 22
2.494114059744632
 32
0.0
 13
35.54385853529363
 23
2.494114059744632
 33
0.0
  0
POLYLINE
  5
3FD
330
D
100
AcDbEntity
 67
     1
  8
LOGO
 62
     5
100
AcDb2dPolyline
 66
     1
 10
0.0
 20
0.0
 30
0.0
 40
0.6510826349461355
 41
0.6510826349461355
  0
VERTEX
  5
3FE
330
3FD
100
AcDbEntity
 67
     1
  8
LOGO
 62
     5
100
AcDbVertex
100
AcDb2dVertex
 10
56.68296725285575
 20
4.444236767934754
 30
0.0
 42
1.0
  0
VERTEX
  5
3FF
330
3FD
100
AcDbEntity
 67
     1
  8
LOGO
 62
     5
100
AcDbVertex
100
AcDb2dVertex
 10
54.72971934801808
 20
4.444236767934754
 30
0.0
 42
1.0
  0
SEQEND
  5
400
330
3FD
100
AcDbEntity
 67
     1
  8
LOGO
 62
     5
  0
POLYLINE
  5
401
330
D
100
AcDbEntity
 67
     1
  8
LOGO
 62
     5
100
AcDb2dPolyline
 66
     1
 10
0.0
 20
0.0
 30
0.0
 70
     1
  0
VERTEX
  5
402
330
401
100
AcDbEntity
 67
     1
  8
LOGO
 62
     5
100
AcDbVertex
100
AcDb2dVertex
 10
51.04776016692937
 20
4.119216316569961
 30
0.0
 42
1.000000057330635
  0
VERTEX
  5
403
330
401
100
AcDbEntity
 67
     1
  8
LOGO
 62
     5
100
AcDbVertex
100
AcDb2dVertex
 10
52.99788287511922
 20
4.119216316569961
 30
0.0
 42
1.000000057330635
  0
SEQEND
  5
404
330
401
100
AcDbEntity
 67
     1
  8
LOGO
 62
     5
  0
CIRCLE
  5
405
330
D
100
AcDbEntity
 67
     1
  8
LOGO
 62
     5
100
AcDbCircle
 10
52.02282152102554
 20
4.119216316569961
 30
0.0
 40
0.9750613540953326
  0
POLYLINE
  5
406
330
D
100
AcDbEntity
 67
     1
  8
LOGO
 62
     5
100
AcDb2dPolyline
 66
     1
 10
0.0
 20
0.0
 30
0.0
 70
     1
 40
0.6510826349461355
 41
0.6510826349461355
  0
VERTEX
  5
407
330
406
100
AcDbEntity
 67
     1
  8
LOGO
 62
     5
100
AcDbVertex
100
AcDb2dVertex
 10
50.7206562511326
 20
4.119216316569961
 30
0.0
 42
1.0
  0
VERTEX
  5
408
330
406
100
AcDbEntity
 67
     1
  8
LOGO
 62
     5
100
AcDbVertex
100
AcDb2dVertex
 10
53.32498679091736
 20
4.119216316569961
 30
0.0
 42
1.0
  0
SEQEND
  5
409
330
406
100
AcDbEntity
 67
     1
  8
LOGO
 62
     5
  0
LINE
  5
40A
330
D
100
AcDbEntity
 67
     1
  8
LOGO
100
AcDbLine
 10
57.00642510589535
 20
2.494114059744632
 30
0.0
 11
57.00642510589535
 21
4.444236767934754
 31
0.0
  0
SOLID
  5
40B
330
D
100
AcDbEntity
 67
     1
  8
LOGO
 62
     5
100
AcDbTrace
 10
52.99781787103166
 20
5.744318573395723
 30
0.0
 11
53.64785877376118
 21
5.744318573395723
 31
0.0
 12
52.99781787103166
 22
2.494114059744632
 32
0.0
 13
53.64785877376118
 23
2.494114059744632
 33
0.0
  0
SOLID
  5
40C
330
D
100
AcDbEntity
 67
     1
  8
LOGO
 62
     5
100
AcDbTrace
 10
54.40626149497541
 20
2.494114059744632
 30
0.0
 11
55.05630239770574
 21
2.494114059744632
 31
0.0
 12
54.40626149497541
 22
5.744318573395723
 32
0.0
 13
55.05630239770574
 23
5.744318573395723
 33
0.0
  0
SOLID
  5
40D
330
D
100
AcDbEntity
 67
     1
  8
LOGO
 62
     5
100
AcDbTrace
 10
56.35638420316718
 20
4.444236767934754
 30
0.0
 11
57.00642510589535
 21
4.444236767934754
 31
0.0
 12
56.35638420316718
 22
2.494114059744632
 32
0.0
 13
57.00642510589535
 23
2.494114059744632
 33
0.0
  0
SOLID
  5
40E
330
D
100
AcDbEntity
 67
     1
  8
LOGO
 62
     5
100
AcDbTrace
 10
54.34125740470199
 20
25.44055792612105
 30
0.0
 11
52.45613878678501
 21
18.52845632708963
 31
0.0
 12
54.34125740470199
 22
8.994523087045848
 32
0.0
 13
52.45613878678501
 23
8.994523087045848
 33
0.0
  0
SOLID
  5
40F
330
D
100
AcDbEntity
 67
     1
  8
LOGO
 62
     5
100
AcDbTrace
 10
55.12130648797882
 20
8.994523087045848
 30
0.0
 11
57.00642510589535
 21
8.994523087045848
 31
0.0
 12
55.12130648797882
 22
26.87064791212678
 32
0.0
 13
57.00642510589535
 23
26.87064791212818
 33
0.0
  0
SOLID
  5
410
330
D
100
AcDbEntity
 67
     1
  8
LOGO
 62
     2
100
AcDbTrace
 10
54.34125740470199
 20
26.87064791212818
 30
0.0
 11
55.12130648797882
 21
26.87064791212678
 31
0.0
 12
54.34125740470199
 22
8.994523087045848
 32
0.0
 13
55.12130648797882
 23
8.994523087045848
 33
0.0
  0
POLYLINE
  5
411
330
D
100
AcDbEntity
 67
     1
  8
LOGO
 62
     5
100
AcDb2dPolyline
 66
     1
 10
0.0
 20
0.0
 30
0.0
 40
0.6510826349461355
 41
0.6510826349461355
  0
VERTEX
  5
412
330
411
100
AcDbEntity
 67
     1
  8
LOGO
 62
     5
100
AcDbVertex
100
AcDb2dVertex
 10
47.36567097766328
 20
4.444236767934754
 30
0.0
 42
1.0
  0
VERTEX
  5
413
330
411
100
AcDbEntity
 67
     1
  8
LOGO
 62
     5
100
AcDbVertex
100
AcDb2dVertex
 10
45.41242307282345
 20
4.444236767934754
 30
0.0
 42
1.0
  0
SEQEND
  5
414
330
411
100
AcDbEntity
 67
     1
  8
LOGO
 62
     5
  0
POLYLINE
  5
415
330
D
100
AcDbEntity
 67
     1
  8
LOGO
 62
     5
100
AcDb2dPolyline
 66
     1
 10
0.0
 20
0.0
 30
0.0
 40
0.6510826349461355
 41
0.6510826349461355
  0
VERTEX
  5
416
330
415
100
AcDbEntity
 67
     1
  8
LOGO
 62
     5
100
AcDbVertex
100
AcDb2dVertex
 10
49.31579368585289
 20
4.444236767934754
 30
0.0
 42
1.0
  0
VERTEX
  5
417
330
415
100
AcDbEntity
 67
     1
  8
LOGO
 62
     5
100
AcDbVertex
100
AcDb2dVertex
 10
47.36254578101443
 20
4.444236767934754
 30
0.0
 42
1.0
  0
SEQEND
  5
418
330
415
100
AcDbEntity
 67
     1
  8
LOGO
 62
     5
  0
POLYLINE
  5
419
330
D
100
AcDbEntity
 67
     1
  8
LOGO
 62
     5
100
AcDb2dPolyline
 66
     1
 10
0.0
 20
0.0
 30
0.0
 40
0.6510826349461355
 41
0.6510826349461355
  0
VERTEX
  5
41A
330
419
100
AcDbEntity
 67
     1
  8
LOGO
 62
     5
100
AcDbVertex
100
AcDb2dVertex
 10
39.99849741065844
 20
4.444236767934754
 30
0.0
 42
1.0
  0
VERTEX
  5
41B
330
419
100
AcDbEntity
 67
     1
  8
LOGO
 62
     5
100
AcDbVertex
100
AcDb2dVertex
 10
38.04524950582015
 20
4.444236767934754
 30
0.0
 42
1.0
  0
SEQEND
  5
41C
330
419
100
AcDbEntity
 67
     1
  8
LOGO
 62
     5
  0
SOLID
  5
41D
330
D
100
AcDbEntity
 67
     1
  8
LOGO
 62
     5
100
AcDbTrace
 10
37.7217916527793
 20
5.744318573395723
 30
0.0
 11
38.37183255550832
 21
5.744318573395723
 31
0.0
 12
37.7217916527793
 22
2.494114059744632
 32
0.0
 13
38.37183255550832
 23
2.494114059744632
 33
0.0
  0
SOLID
  5
41E
330
D
100
AcDbEntity
 67
     1
  8
LOGO
 62
     5
100
AcDbTrace
 10
39.67191436097073
 20
4.444236767934754
 30
0.0
 11
40.32195526370208
 21
4.444236767934754
 31
0.0
 12
39.67191436097073
 22
2.494114059744632
 32
0.0
 13
40.32195526370208
 23
2.494114059744632
 33
0.0
  0
POLYLINE
  5
41F
330
D
100
AcDbEntity
 67
     1
  8
LOGO
 62
     5
100
AcDb2dPolyline
 66
     1
 10
0.0
 20
0.0
 30
0.0
 70
     1
 40
0.6510826349461355
 41
0.6510826349461355
  0
VERTEX
  5
420
330
41F
100
AcDbEntity
 67
     1
  8
LOGO
 62
     5
100
AcDbVertex
100
AcDb2dVertex
 10
41.40335997593877
 20
4.119216316569961
 30
0.0
 42
1.0
  0
VERTEX
  5
421
330
41F
100
AcDbEntity
 67
     1
  8
LOGO
 62
     5
100
AcDbVertex
100
AcDb2dVertex
 10
44.00769051572342
 20
4.119216316569961
 30
0.0
 42
1.0
  0
SEQEND
  5
422
330
41F
100
AcDbEntity
 67
     1
  8
LOGO
 62
     5
  0
SOLID
  5
423
330
D
100
AcDbEntity
 67
     1
  8
LOGO
 62
     5
100
AcDbTrace
 10
43.68052159583737
 20
6.719379927491374
 30
0.0
 11
44.3305624985677
 21
6.719379927491374
 31
0.0
 12
43.68052159583737
 22
2.494114059744632
 32
0.0
 13
44.3305624985677
 23
2.494114059744632
 33
0.0
  0
SOLID
  5
424
330
D
100
AcDbEntity
 67
     1
  8
LOGO
 62
     5
100
AcDbTrace
 10
45.08896521978431
 20
5.744318573395723
 30
0.0
 11
45.7390061225135
 21
5.744318573395723
 31
0.0
 12
45.08896521978431
 22
2.494114059744632
 32
0.0
 13
45.7390061225135
 23
2.494114059744632
 33
0.0
  0
SOLID
  5
425
330
D
100
AcDbEntity
 67
     1
  8
LOGO
 62
     5
100
AcDbTrace
 10
47.03908792797313
 20
4.444236767934754
 30
0.0
 11
47.68912883070379
 21
4.444236767934754
 31
0.0
 12
47.03908792797313
 22
2.494114059744632
 32
0.0
 13
47.68912883070379
 23
2.494114059744632
 33
0.0
  0
SOLID
  5
426
330
D
100
AcDbEntity
 67
     1
  8
LOGO
 62
     5
100
AcDbTrace
 10
48.98921063616296
 20
4.444236767934754
 30
0.0
 11
49.63925153889431
 21
4.444236767934754
 31
0.0
 12
48.98921063616296
 22
2.494114059743893
 32
0.0
 13
49.63925153889431
 23
2.494114059743893
 33
0.0
  0
SOLID
  5
427
330
D
100
AcDbEntity
 67
     1
  8
LOGO
 62
     5
100
AcDbTrace
 10
36.31334802883311
 20
6.199347205306679
 30
0.0
 11
36.96338893156639
 21
6.199347205306679
 31
0.0
 12
36.31334802883311
 22
6.719379927491374
 32
0.0
 13
36.96338893156639
 23
6.719379927491374
 33
0.0
  0
SOLID
  5
428
330
D
100
AcDbEntity
 67
     1
  8
LOGO
 62
     5
100
AcDbTrace
 10
36.31334802883311
 20
5.744318573395723
 30
0.0
 11
36.96338893156639
 21
5.744318573395723
 31
0.0
 12
36.31334802883311
 22
2.494114059743893
 32
0.0
 13
36.96338893156639
 23
2.494114059744632
 33
0.0
  0
SOLID
  5
429
330
D
100
AcDbEntity
 67
     1
  8
LOGO
 62
     5
100
AcDbTrace
 10
42.70552524583092
 20
8.994523087047035
 30
0.0
 11
44.59064386374905
 21
8.994523087047035
 31
0.0
 12
42.70552524583092
 22
18.52845632708963
 32
0.0
 13
44.59064386374905
 23
25.44055792612105
 33
0.0
  0
SOLID
  5
42A
330
D
100
AcDbEntity
 67
     1
  8
LOGO
 62
     5
100
AcDbTrace
 10
45.37069294702667
 20
26.87064791212678
 30
0.0
 11
47.25581156494399
 21
26.87064791212818
 31
0.0
 12
45.37069294702667
 22
10.42461307305231
 32
0.0
 13
47.25581156494399
 23
17.33671467208418
 33
0.0
  0
SOLID
  5
42B
330
D
100
AcDbEntity
 67
     1
  8
LOGO
 62
     2
100
AcDbTrace
 10
44.59064386374905
 20
26.87064791212678
 30
0.0
 11
45.37069294702667
 21
26.87064791212678
 31
0.0
 12
44.59064386374905
 22
8.994523087047035
 32
0.0
 13
45.37069294702667
 23
8.994523087047035
 33
0.0
  0
SOLID
  5
42C
330
D
100
AcDbEntity
 67
     1
  8
LOGO
 62
     5
100
AcDbTrace
 10
45.37069294702667
 20
10.42461307305231
 30
0.0
 11
47.25581156494399
 21
17.33671467208418
 31
0.0
 12
54.34125740470199
 22
26.87064791212818
 32
0.0
 13
52.45613878678501
 23
26.87064791212818
 33
0.0
  0
SOLID
  5
42D
330
D
100
AcDbEntity
 67
     1
  8
LOGO
 62
     5
100
AcDbTrace
 10
45.37069294702667
 20
8.994523087047035
 30
0.0
 11
47.25581156494399
 21
8.994523087047035
 31
0.0
 12
54.34125740470199
 22
25.44055792612105
 32
0.0
 13
52.45613878678501
 23
18.52845632708963
 33
0.0
  0
SOLID
  5
42E
330
D
100
AcDbEntity
 67
     1
  8
LOGO
 62
     2
100
AcDbTrace
 10
44.59064386374905
 20
8.994523087047035
 30
0.0
 11
45.37069294702667
 21
8.994523087047035
 31
0.0
 12
54.34125740470199
 22
26.87064791212818
 32
0.0
 13
55.12130648797882
 23
26.87064791212678
 33
0.0
  0
LWPOLYLINE
  5
42F
330
D
100
AcDbEntity
 67
     1
  8
LOGO
 62
     4
100
AcDbPolyline
 90
        4
 70
     1
 43
0.0
 10
28.43141606087386
 20
27.90633293120413
 10
550.1991347964467
 20
27.90633293120413
 10
550.1991347964467
 20
-15.69295065893902
 10
28.43141606087386
 20
-15.69295065893902
1001
GENIUS_GENREC_14
1002
{
1000
PYDIR
1011
28.43141606087386
1021
-15.69295065893902
1031
0.0
1002
}
1002
{
1000
PXDIR
1011
550.1991347964467
1021
27.90633293120413
1031
0.0
1002
}
1002
{
1000
PORI
1011
28.43141606087386
1021
27.90633293120413
1031
0.0
1002
}
1002
{
1000
PINS
1011
28.43141606087386
1021
27.90633293120413
1031
0.0
1002
}
1002
{
1000
PINS2
1011
550.1991347964467
1021
-15.69295065893902
1031
0.0
1002
}
1002
{
1000
C
1070
     1
1002
}
1001
GENIUS_GENOBJ-N-REC_13
1002
{
1000
OWNER
1000
GEN
1002
}
1001
GENIUS_GENODEF_13
1002
{
1000
HIER
1070
     0
1002
}
1002
{
1000
MANEDIT
1070
     0
1002
}
1002
{
1000
NOSEL
1070
     0
1002
}
1002
{
1000
BEHIND
1070
     0
1002
}
1002
{
1000
OTHER
1070
     0
1002
}
1002
{
1000
REACTOR
1002
}
  0
TEXT
  5
430
330
D
100
AcDbEntity
 67
     1
  8
LOGO
100
AcDbText
 10
126.3699468632919
 20
-13.37348598030451
 30
0.0
 40
4.3605597522816
  1
1120724B
 41
0.7
  7
CHINESET
 72
     1
 11
136.9806422605105
 21
-13.37348598030451
 31
0.0
100
AcDbText
  0
LINE
  5
431
330
D
100
AcDbEntity
 67
     1
  8
LOGO
 62
     4
100
AcDbLine
 10
150.5131984728743
 20
-6.973093940909073
 30
0.0
 11
150.5131984728775
 21
-15.69295065893836
 31
0.0
  0
LINE
  5
432
330
D
100
AcDbEntity
 67
     1
  8
LOGO
 62
     4
100
AcDbLine
 10
150.5131984728743
 20
-6.973093940909073
 30
0.0
 11
124.3498399591877
 21
-6.973093940909073
 31
0.0
  0
CIRCLE
  5
433
330
D
100
AcDbEntity
 67
     1
  8
LOGO
  6
Continuous
100
AcDbCircle
 10
103.3566035870262
 20
14.83587377282654
 30
0.0
 40
2.531477026389159
  0
CIRCLE
  5
434
330
D
100
AcDbEntity
 67
     1
  8
LOGO
  6
Continuous
100
AcDbCircle
 10
103.3566035870262
 20
14.83587377282654
 30
0.0
 40
1.483221438482118
  0
LINE
  5
435
330
D
100
AcDbEntity
 67
     1
  8
LOGO
100
AcDbLine
 10
119.2646989610272
 20
12.30439674643715
 30
0.0
 11
119.2646989610272
 21
17.36735079921615
 31
0.0
  0
LINE
  5
436
330
D
100
AcDbEntity
 67
     1
  8
LOGO
100
AcDbLine
 10
111.3286637970113
 20
13.35265233434463
 30
0.0
 11
111.3286637970113
 21
16.31909521130911
 31
0.0
  0
LINE
  5
437
330
D
100
AcDbEntity
 67
     1
  8
LOGO
  6
Continuous
100
AcDbLine
 10
111.3286637970113
 20
16.31909521130911
 30
0.0
 11
119.2646989610272
 21
17.36735079921615
 31
0.0
  0
LINE
  5
438
330
D
100
AcDbEntity
 67
     1
  8
LOGO
  6
Continuous
100
AcDbLine
 10
111.3286637970113
 20
13.35265233434463
 30
0.0
 11
119.2646989610272
 21
12.30439674643715
 31
0.0
  0
LINE
  5
439
330
D
100
AcDbEntity
 67
     1
  8
LOGO
  6
AM_ISO08W050x2
 48
0.3
100
AcDbLine
 10
99.86692460026382
 20
14.83587377282654
 30
0.0
 11
106.8462825737856
 21
14.83587377282654
 31
0.0
1001
GENIUS_GENOREF_13
1005
43D
  0
LINE
  5
43A
330
D
100
AcDbEntity
 67
     1
  8
LOGO
  6
AM_ISO08W050x2
 48
0.3
100
AcDbLine
 10
103.3566035870262
 20
11.346194786066
 30
0.0
 11
103.3566035870262
 21
18.32555275958781
 31
0.0
1001
GENIUS_GENOREF_13
1005
43F
  0
LINE
  5
43B
330
D
100
AcDbEntity
 67
     1
  8
LOGO
  6
CENTER
 48
0.5
100
AcDbLine
 10
110.694001564956
 20
14.83587377282654
 30
0.0
 11
120.0638320117719
 21
14.83587377282654
 31
0.0
1001
GENIUS_GENOREF_13
1005
43E
  0
LWPOLYLINE
  5
43C
330
D
100
AcDbEntity
 67
     1
  8
LOGO
 62
     4
100
AcDbPolyline
 90
        4
 70
     1
 43
0.0
 10
550.1991347964467
 20
27.90633293120413
 10
28.43141606087477
 20
27.90633293120413
 10
28.43141606087477
 20
348.774916371925
 10
550.1991347964467
 20
348.774916371925
  0
POINT
  5
43D
330
D
100
AcDbEntity
 67
     1
  8
0
 60
     1
100
AcDbPoint
 10
3329.677818185577
 20
-458.4050410869478
 30
0.0
1001
GENIUS_GENOBJ-N-CRS_13
1002
{
1000
OWNER
1000
GEN
1002
}
1001
GENIUS_GENOLIS_13
1002
{
1000
ENT
1005
0
1005
0
1005
0
1005
439
1002
}
1001
GENIUS_GENOENT_13
1002
{
1000
MYREF
1005
43D
1002
}
1002
{
1000
GRP
1005
0
1002
}
1001
GENIUS_GENODEF_13
1002
{
1000
HIER
1070
    10
1002
}
1002
{
1000
MANEDIT
1070
     1
1002
}
1002
{
1000
NOSEL
1070
     0
1002
}
1002
{
1000
BEHIND
1070
     0
1002
}
1002
{
1000
OTHER
1070
     0
1002
}
1002
{
1000
REACTOR
1002
}
  0
POINT
  5
43E
330
D
100
AcDbEntity
 67
     1
  8
0
 60
     1
100
AcDbPoint
 10
3334.643729710595
 20
-458.4050410869478
 30
0.0
1001
GENIUS_GENOBJ-N-CRS_13
1002
{
1000
OWNER
1000
GEN
1002
}
1001
GENIUS_GENOLIS_13
1002
{
1000
ENT
1005
0
1005
0
1005
0
1005
43B
1002
}
1001
GENIUS_GENOENT_13
1002
{
1000
MYREF
1005
43E
1002
}
1002
{
1000
GRP
1005
0
1002
}
1001
GENIUS_GENODEF_13
1002
{
1000
HIER
1070
    10
1002
}
1002
{
1000
MANEDIT
1070
     1
1002
}
1002
{
1000
NOSEL
1070
     0
1002
}
1002
{
1000
BEHIND
1070
     0
1002
}
1002
{
1000
OTHER
1070
     0
1002
}
1002
{
1000
REACTOR
1002
}
  0
POINT
  5
43F
330
D
100
AcDbEntity
 67
     1
  8
0
 60
     1
100
AcDbPoint
 10
3323.319144487741
 20
-449.5294546083115
 30
0.0
1001
GENIUS_GENOBJ-N-CRS_13
1002
{
1000
OWNER
1000
GEN
1002
}
1001
GENIUS_GENOLIS_13
1002
{
1000
ENT
1005
0
1005
0
1005
0
1005
43A
1002
}
1001
GENIUS_GENOENT_13
1002
{
1000
MYREF
1005
43F
1002
}
1002
{
1000
GRP
1005
0
1002
}
1001
GENIUS_GENODEF_13
1002
{
1000
HIER
1070
    10
1002
}
1002
{
1000
MANEDIT
1070
     1
1002
}
1002
{
1000
NOSEL
1070
     0
1002
}
1002
{
1000
BEHIND
1070
     0
1002
}
1002
{
1000
OTHER
1070
     0
1002
}
1002
{
1000
REACTOR
1002
}
  0
TEXT
  5
CF9
330
D
100
AcDbEntity
 67
     1
  8
0
 62
     5
100
AcDbText
 10
485.3631779233169
 20
185.5541034134779
 30
0.0
 40
3.0
  1

  7
CHINESET
100
AcDbText
  0
TEXT
  5
D00
330
D
100
AcDbEntity
 67
     1
  8
0
 62
     5
100
AcDbText
 10
76.99843758613133
 20
188.0083980052471
 30
0.0
 40
3.0
  1

  7
CHINESET
100
AcDbText
  0
TEXT
  5
D03
330
D
100
AcDbEntity
 67
     1
  8
0
 62
     5
100
AcDbText
 10
329.1481120575193
 20
97.6902089019917
 30
0.0
 40
3.0
  1

  7
CHINESET
100
AcDbText
  0
TEXT
  5
D05
330
D
100
AcDbEntity
 67
     1
  8
0
 62
     5
100
AcDbText
 10
207.5843937342206
 20
94.6210888161371
 30
0.0
 40
3.0
  1

  7
CHINESET
100
AcDbText
  0
LINE
  5
1AD3
330
D
100
AcDbEntity
 67
     1
  8
AM_7
100
AcDbLine
 10
93.00461843342645
 20
137.0927294692437
 30
0.0
 11
383.7032054006959
 21
137.0927294692436
 31
0.0
  0
LINE
  5
1AD4
330
D
100
AcDbEntity
 67
     1
  8
AM_7
100
AcDbLine
 10
92.00461843342646
 20
261.1054883361852
 30
0.0
 11
383.7032054006959
 21
261.1054883361852
 31
0.0
  0
LINE
  5
1AF9
330
D
100
AcDbEntity
 67
     1
  8
AM_VIS
100
AcDbLine
 10
345.3338940564884
 20
145.0927294692436
 30
0.0
 11
339.3338940564884
 21
145.0927294692436
 31
0.0
  0
LINE
  5
1AFA
330
D
100
AcDbEntity
 67
     1
  8
AM_VIS
100
AcDbLine
 10
337.3338940564884
 20
147.0927294692437
 30
0.0
 11
339.3338940564884
 21
145.0927294692436
 31
0.0
  0
LINE
  5
1AFB
330
D
100
AcDbEntity
 67
     1
  8
AM_VIS
100
AcDbLine
 10
345.3338940564884
 20
145.0927294692436
 30
0.0
 11
347.334755637657
 21
145.0927294692436
 31
0.0
  0
LINE
  5
1AFC
330
D
100
AcDbEntity
 67
     1
  8
AM_VIS
100
AcDbLine
 10
339.3338940564884
 20
129.0927294692436
 30
0.0
 11
345.3338940564884
 21
129.0927294692436
 31
0.0
  0
LINE
  5
1AFD
330
D
100
AcDbEntity
 67
     1
  8
AM_VIS
100
AcDbLine
 10
345.3338940564884
 20
129.0927294692436
 30
0.0
 11
347.334755637657
 21
129.0927294692436
 31
0.0
  0
ARC
  5
1AFE
330
D
100
AcDbEntity
 67
     1
  8
AM_VIS
100
AcDbCircle
 10
347.3338940564884
 20
137.0927294692436
 30
0.0
 40
9.999999999999998
100
AcDbArc
 50
143.1301023541546
 51
216.869897645846
  0
LINE
  5
1AFF
330
D
100
AcDbEntity
 67
     1
  8
AM_VIS
100
AcDbLine
 10
339.3338940564884
 20
129.0927294692436
 30
0.0
 11
337.3338940564884
 21
127.0927294692436
 31
0.0
  0
SPLINE
  5
1B00
330
D
100
AcDbEntity
 67
     1
  8
AM_VIS
100
AcDbSpline
210
0.0
220
0.0
230
1.0
 70
     8
 71
     3
 72
    28
 73
    24
 74
     0
 42
0.0000000001
 43
0.0000000001
 40
-6.57538614496261
 40
-6.57538614496261
 40
-6.57538614496261
 40
-6.57538614496261
 40
-6.406608927416609
 40
-6.406608927416609
 40
-6.237831709870608
 40
-6.237831709870608
 40
-6.05182096037366
 40
-6.05182096037366
 40
-5.865810210876709
 40
-5.865810210876709
 40
-5.349589823042119
 40
-5.349589823042119
 40
-4.833369435207529
 40
-4.833369435207529
 40
-4.229198255806586
 40
-4.229198255806586
 40
-3.625027076405647
 40
-3.625027076405647
 40
-2.416684717603764
 40
-2.416684717603764
 40
-1.208342358801882
 40
-1.208342358801882
 40
0.0
 40
0.0
 40
0.0
 40
0.0
 10
345.3338940564884
 20
143.0927294692437
 30
0.0
 10
345.3901531290037
 20
143.0927294692437
 30
0.0
 10
345.451780737408
 20
143.0884977742219
 30
0.0
 10
345.5735903123797
 20
143.0702500300222
 30
0.0
 10
345.6337748951857
 20
143.0562514493559
 30
0.0
 10
345.747012046651
 20
143.0221427516859
 30
0.0
 10
345.8106353358321
 20
142.9979506759224
 30
0.0
 10
345.9334327715374
 20
142.9399999648012
 30
0.0
 10
345.9926295506114
 20
142.9062892999056
 30
0.0
 10
346.188961810997
 20
142.7788306521346
 30
0.0
 10
346.3274069609412
 20
142.6529018506759
 30
0.0
 10
346.5666371573919
 20
142.3670755654288
 30
0.0
 10
346.6678668731451
 20
142.2075505541291
 30
0.0
 10
346.8420193416798
 20
141.8771777809603
 30
0.0
 10
346.9183272478913
 20
141.6907160081137
 30
0.0
 10
347.045993946577
 20
141.305619676639
 30
0.0
 10
347.0972007028292
 20
141.1069347317894
 30
0.0
 10
347.2223418946301
 20
140.49715069707
 30
0.0
 10
347.2677952657031
 20
140.0725558202128
 30
0.0
 10
347.3206558332051
 20
139.2114692109347
 30
0.0
 10
347.3282613673041
 20
138.7755213705677
 30
0.0
 10
347.334755637657
 20
137.9175409388175
 30
0.0
 10
347.3338940564884
 20
137.4955102555109
 30
0.0
 10
347.3338940564884
 20
137.0927294692436
 30
0.0
  0
SPLINE
  5
1B01
330
D
100
AcDbEntity
 67
     1
  8
AM_VIS
100
AcDbSpline
210
0.0
220
0.0
230
1.0
 70
     8
 71
     3
 72
    28
 73
    24
 74
     0
 42
0.0000000001
 43
0.0000000001
 40
0.0
 40
0.0
 40
0.0
 40
0.0
 40
1.208342358801882
 40
1.208342358801882
 40
2.416684717603765
 40
2.416684717603765
 40
3.625027076405648
 40
3.625027076405648
 40
4.229198255806589
 40
4.229198255806589
 40
4.83336943520753
 40
4.83336943520753
 40
5.349589823042119
 40
5.349589823042119
 40
5.865810210876708
 40
5.865810210876708
 40
6.051820960373659
 40
6.051820960373659
 40
6.237831709870609
 40
6.237831709870609
 40
6.40660892741661
 40
6.40660892741661
 40
6.575386144962611
 40
6.575386144962611
 40
6.575386144962611
 40
6.575386144962611
 10
347.3338940564884
 20
137.0927294692436
 30
0.0
 10
347.3338940564884
 20
136.6899486829763
 30
0.0
 10
347.334755637657
 20
136.2679179996697
 30
0.0
 10
347.3282613673041
 20
135.4099375679196
 30
0.0
 10
347.3206558332051
 20
134.9739897275526
 30
0.0
 10
347.2677952657031
 20
134.1129031182744
 30
0.0
 10
347.2223418946301
 20
133.6883082414173
 30
0.0
 10
347.0972007028292
 20
133.0785242066979
 30
0.0
 10
347.045993946577
 20
132.8798392618482
 30
0.0
 10
346.9183272478913
 20
132.4947429303736
 30
0.0
 10
346.8420193416798
 20
132.308281157527
 30
0.0
 10
346.6678668731451
 20
131.9779083843582
 30
0.0
 10
346.5666371573919
 20
131.8183833730585
 30
0.0
 10
346.3274069609412
 20
131.5325570878113
 30
0.0
 10
346.188961810997
 20
131.4066282863527
 30
0.0
 10
345.9926295506114
 20
131.2791696385816
 30
0.0
 10
345.9334327715374
 20
131.2454589736861
 30
0.0
 10
345.8106353358321
 20
131.1875082625649
 30
0.0
 10
345.747012046651
 20
131.1633161868014
 30
0.0
 10
345.6337748951857
 20
131.1292074891313
 30
0.0
 10
345.5735903123797
 20
131.115208908465
 30
0.0
 10
345.451780737408
 20
131.0969611642654
 30
0.0
 10
345.3901531290037
 20
131.0927294692436
 30
0.0
 10
345.3338940564884
 20
131.0927294692436
 30
0.0
  0
LINE
  5
1B02
330
D
100
AcDbEntity
 67
     1
  8
AM_VIS
100
AcDbLine
 10
345.3338940564884
 20
131.0927294692436
 30
0.0
 11
339.3338940564884
 21
131.0927294692436
 31
0.0
  0
LINE
  5
1B03
330
D
100
AcDbEntity
 67
     1
  8
AM_VIS
100
AcDbLine
 10
339.3338940564884
 20
131.0927294692436
 30
0.0
 11
339.3338940564884
 21
143.0927294692437
 31
0.0
  0
LINE
  5
1B04
330
D
100
AcDbEntity
 67
     1
  8
AM_VIS
100
AcDbLine
 10
339.3338940564884
 20
143.0927294692437
 30
0.0
 11
345.3338940564884
 21
143.0927294692437
 31
0.0
  0
LINE
  5
1B05
330
D
100
AcDbEntity
 67
     1
  8
AM_VIS
100
AcDbLine
 10
368.1338940564883
 20
144.0209326995191
 30
0.0
 11
362.5338940564884
 21
144.0209326995191
 31
0.0
  0
LINE
  5
1B06
330
D
100
AcDbEntity
 67
     1
  8
AM_VIS
100
AcDbLine
 10
368.1338940564883
 20
150.9491359297947
 30
0.0
 11
362.5338940564884
 21
150.9491359297947
 31
0.0
  0
LINE
  5
1B07
330
D
100
AcDbEntity
 67
     1
  8
AM_VIS
100
AcDbLine
 10
368.1338940564883
 20
130.1645262389682
 30
0.0
 11
362.5338940564884
 21
130.1645262389682
 31
0.0
  0
LINE
  5
1B08
330
D
100
AcDbEntity
 67
     1
  8
AM_VIS
100
AcDbLine
 10
368.1338940564883
 20
123.2363230086926
 30
0.0
 11
362.5338940564884
 21
123.2363230086926
 31
0.0
  0
SPLINE
  5
1B09
330
D
100
AcDbEntity
 67
     1
  8
AM_VIS
100
AcDbSpline
210
0.0
220
0.0
230
1.0
 70
    12
 71
     2
 72
     6
 73
     3
 74
     0
 42
0.0000000001
 43
0.0000000001
 40
0.0
 40
0.0
 40
0.0
 40
14.02123365693556
 40
14.02123365693556
 40
14.02123365693556
 10
368.1338940564883
 20
123.2363230086925
 30
0.0
 41
1.0
 10
370.1338940564885
 20
126.7004246238304
 30
-0.0000000000000018
 41
1.154700538379228
 10
368.1338940564883
 20
130.1645262389683
 30
0.0
 41
1.0
  0
SPLINE
  5
1B0A
330
D
100
AcDbEntity
 67
     1
  8
AM_VIS
100
AcDbSpline
210
0.0
220
0.0
230
1.0
 70
    12
 71
     2
 72
     6
 73
     3
 74
     0
 42
0.0000000001
 43
0.0000000001
 40
0.0
 40
0.0
 40
0.0
 40
14.02123365693555
 40
14.02123365693555
 40
14.02123365693555
 10
368.1338940564883
 20
130.1645262389679
 30
0.0
 41
1.0
 10
370.1338940564885
 20
137.0927294692436
 30
-0.0000000000000018
 41
1.154700538379228
 10
368.1338940564883
 20
144.0209326995194
 30
0.0
 41
1.0
  0
SPLINE
  5
1B0B
330
D
100
AcDbEntity
 67
     1
  8
AM_VIS
100
AcDbSpline
210
0.0
220
0.0
230
1.0
 70
    12
 71
     2
 72
     6
 73
     3
 74
     0
 42
0.0000000001
 43
0.0000000001
 40
0.0
 40
0.0
 40
0.0
 40
14.02123365693556
 40
14.02123365693556
 40
14.02123365693556
 10
368.1338940564883
 20
144.020932699519
 30
0.0
 41
1.0
 10
370.1338940564885
 20
147.4850343146568
 30
-0.0000000000000018
 41
1.154700538379228
 10
368.1338940564883
 20
150.9491359297948
 30
0.0
 41
1.0
  0
SPLINE
  5
1B0C
330
D
100
AcDbEntity
 67
     1
  8
AM_VIS
100
AcDbSpline
210
0.0
220
0.0
230
1.0
 70
    12
 71
     2
 72
     6
 73
     3
 74
     0
 42
0.0000000001
 43
0.0000000001
 40
0.0
 40
0.0
 40
0.0
 40
14.02123365693553
 40
14.02123365693553
 40
14.02123365693553
 10
362.5338940564884
 20
150.9491359297948
 30
0.0
 41
1.0
 10
360.5338940564882
 20
147.4850343146569
 30
0.0000000000000018
 41
1.154700538379263
 10
362.5338940564884
 20
144.020932699519
 30
0.0
 41
1.0
  0
SPLINE
  5
1B0D
330
D
100
AcDbEntity
 67
     1
  8
AM_VIS
100
AcDbSpline
210
0.0
220
0.0
230
1.0
 70
    12
 71
     2
 72
     6
 73
     3
 74
     0
 42
0.0000000001
 43
0.0000000001
 40
0.0
 40
0.0
 40
0.0
 40
14.02123365693554
 40
14.02123365693554
 40
14.02123365693554
 10
362.5338940564884
 20
144.0209326995194
 30
0.0
 41
1.0
 10
360.5338940564882
 20
137.0927294692436
 30
0.0000000000000018
 41
1.154700538379263
 10
362.5338940564884
 20
130.1645262389679
 30
0.0
 41
1.0
  0
SPLINE
  5
1B0E
330
D
100
AcDbEntity
 67
     1
  8
AM_VIS
100
AcDbSpline
210
0.0
220
0.0
230
1.0
 70
    12
 71
     2
 72
     6
 73
     3
 74
     0
 42
0.0000000001
 43
0.0000000001
 40
0.0
 40
0.0
 40
0.0
 40
14.02123365693555
 40
14.02123365693555
 40
14.02123365693555
 10
362.5338940564884
 20
130.1645262389683
 30
0.0
 41
1.0
 10
360.5338940564882
 20
126.7004246238304
 30
0.0000000000000018
 41
1.154700538379263
 10
362.5338940564884
 20
123.2363230086925
 30
0.0
 41
1.0
  0
LINE
  5
1B0F
330
D
100
AcDbEntity
 67
     1
  8
AM_VIS
100
AcDbLine
 10
220.3338940564884
 20
174.5927294692436
 30
0.0
 11
220.3338940564884
 21
99.59272946924366
 31
0.0
  0
LINE
  5
1B10
330
D
100
AcDbEntity
 67
     1
  8
AM_VIS
100
AcDbLine
 10
336.3338940564883
 20
127.0927294692436
 30
0.0
 11
337.3338940564884
 21
127.0927294692436
 31
0.0
  0
LINE
  5
1B11
330
D
100
AcDbEntity
 67
     1
  8
AM_VIS
100
AcDbLine
 10
336.3338940564883
 20
147.0927294692437
 30
0.0
 11
337.3338940564884
 21
147.0927294692437
 31
0.0
  0
LINE
  5
1B12
330
D
100
AcDbEntity
 67
     1
  8
AM_VIS
100
AcDbLine
 10
347.3338940564884
 20
129.0927294692436
 30
0.0
 11
361.3338940564883
 21
129.0927294692436
 31
0.0
  0
LINE
  5
1B13
330
D
100
AcDbEntity
 67
     1
  8
AM_VIS
100
AcDbLine
 10
347.3338940564884
 20
145.0927294692436
 30
0.0
 11
361.3338940564883
 21
145.0927294692436
 31
0.0
  0
LINE
  5
1B14
330
D
100
AcDbEntity
 67
     1
  8
AM_VIS
100
AcDbLine
 10
379.3338940564884
 20
143.5927294692436
 30
0.0
 11
377.8338940564883
 21
145.0927294692436
 31
0.0
  0
LINE
  5
1B15
330
D
100
AcDbEntity
 67
     1
  8
AM_VIS
100
AcDbLine
 10
379.3338940564884
 20
130.5927294692436
 30
0.0
 11
377.8338940564883
 21
129.0927294692436
 31
0.0
  0
LINE
  5
1B16
330
D
100
AcDbEntity
 67
     1
  8
AM_VIS
100
AcDbLine
 10
369.3338940564883
 20
129.0927294692436
 30
0.0
 11
377.8338940564883
 21
129.0927294692436
 31
0.0
  0
LINE
  5
1B17
330
D
100
AcDbEntity
 67
     1
  8
AM_VIS
100
AcDbLine
 10
369.3338940564883
 20
145.0927294692436
 30
0.0
 11
377.8338940564883
 21
145.0927294692436
 31
0.0
  0
LINE
  5
1B18
330
D
100
AcDbEntity
 67
     1
  8
AM_VIS
100
AcDbLine
 10
369.3338940564883
 20
148.8706749607121
 30
0.0
 11
368.1338940564883
 21
150.9491359297947
 31
0.0
  0
LINE
  5
1B19
330
D
100
AcDbEntity
 67
     1
  8
AM_VIS
100
AcDbLine
 10
369.3338940564883
 20
125.3147839777752
 30
0.0
 11
368.1338940564883
 21
123.2363230086926
 31
0.0
  0
LINE
  5
1B1A
330
D
100
AcDbEntity
 67
     1
  8
AM_VIS
100
AcDbLine
 10
361.3338940564883
 20
125.3147839777752
 30
0.0
 11
362.5338940564884
 21
123.2363230086926
 31
0.0
  0
LINE
  5
1B1B
330
D
100
AcDbEntity
 67
     1
  8
AM_VIS
100
AcDbLine
 10
361.3338940564883
 20
148.8706749607121
 30
0.0
 11
362.5338940564884
 21
150.9491359297947
 31
0.0
  0
LINE
  5
1B1C
330
D
100
AcDbEntity
 67
     1
  8
AM_VIS
100
AcDbLine
 10
347.3338940564884
 20
137.0927294692436
 30
0.0
 11
347.3338940564884
 21
129.0927294692436
 31
0.0
  0
LINE
  5
1B1D
330
D
100
AcDbEntity
 67
     1
  8
AM_VIS
100
AcDbLine
 10
347.3338940564884
 20
145.0927294692436
 30
0.0
 11
347.3338940564884
 21
137.0927294692436
 31
0.0
  0
LINE
  5
1B1E
330
D
100
AcDbEntity
 67
     1
  8
AM_VIS
100
AcDbLine
 10
379.3338940564884
 20
143.5927294692436
 30
0.0
 11
379.3338940564884
 21
130.5927294692436
 31
0.0
  0
LINE
  5
1B1F
330
D
100
AcDbEntity
 67
     1
  8
AM_VIS
100
AcDbLine
 10
377.8338940564883
 20
129.0927294692436
 30
0.0
 11
377.8338940564883
 21
145.0927294692436
 31
0.0
  0
LINE
  5
1B20
330
D
100
AcDbEntity
 67
     1
  8
AM_VIS
100
AcDbLine
 10
369.3338940564883
 20
125.3147839777752
 30
0.0
 11
369.3338940564883
 21
148.8706749607121
 31
0.0
  0
LINE
  5
1B21
330
D
100
AcDbEntity
 67
     1
  8
AM_VIS
100
AcDbLine
 10
361.3338940564883
 20
148.8706749607121
 30
0.0
 11
361.3338940564883
 21
125.3147839777752
 31
0.0
  0
LINE
  5
1B22
330
D
100
AcDbEntity
 67
     1
  8
AM_VIS
100
AcDbLine
 10
339.3338940564884
 20
267.1054883361853
 30
0.0
 11
345.3338940564884
 21
267.1054883361853
 31
0.0
  0
LINE
  5
1B23
330
D
100
AcDbEntity
 67
     1
  8
AM_VIS
100
AcDbLine
 10
345.3338940564884
 20
255.1054883361853
 30
0.0
 11
339.3338940564884
 21
255.1054883361853
 31
0.0
  0
LINE
  5
1B24
330
D
100
AcDbEntity
 67
     1
  8
AM_VIS
100
AcDbLine
 10
339.3338940564884
 20
255.1054883361853
 30
0.0
 11
339.3338940564884
 21
267.1054883361853
 31
0.0
  0
ARC
  5
1B25
330
D
100
AcDbEntity
 67
     1
  8
AM_VIS
100
AcDbCircle
 10
347.3338940564884
 20
261.1054883361853
 30
0.0
 40
9.999999999999998
100
AcDbArc
 50
143.1301023541546
 51
216.8698976458453
  0
SPLINE
  5
1B26
330
D
100
AcDbEntity
 67
     1
  8
AM_VIS
100
AcDbSpline
210
0.0
220
0.0
230
1.0
 70
     8
 71
     3
 72
    28
 73
    24
 74
     0
 42
0.0000000001
 43
0.0000000001
 40
0.0
 40
0.0
 40
0.0
 40
0.0
 40
1.208342358801883
 40
1.208342358801883
 40
2.416684717603766
 40
2.416684717603766
 40
3.625027076405649
 40
3.625027076405649
 40
4.22919825580659
 40
4.22919825580659
 40
4.833369435207532
 40
4.833369435207532
 40
5.349589823042119
 40
5.349589823042119
 40
5.865810210876707
 40
5.865810210876707
 40
6.051820960373658
 40
6.051820960373658
 40
6.237831709870608
 40
6.237831709870608
 40
6.406608927416609
 40
6.406608927416609
 40
6.57538614496261
 40
6.57538614496261
 40
6.57538614496261
 40
6.57538614496261
 10
347.3338940564884
 20
261.1054883361853
 30
0.0
 10
347.3338940564884
 20
260.702707549918
 30
0.0
 10
347.334755637657
 20
260.2806768666114
 30
0.0
 10
347.3282613673041
 20
259.4226964348611
 30
0.0
 10
347.3206558332051
 20
258.9867485944942
 30
0.0
 10
347.2677952657031
 20
258.125661985216
 30
0.0
 10
347.2223418946301
 20
257.7010671083589
 30
0.0
 10
347.0972007028294
 20
257.0912830736395
 30
0.0
 10
347.045993946577
 20
256.8925981287899
 30
0.0
 10
346.9183272478913
 20
256.5075017973152
 30
0.0
 10
346.8420193416798
 20
256.3210400244686
 30
0.0
 10
346.6678668731451
 20
255.9906672512998
 30
0.0
 10
346.5666371573919
 20
255.8311422400001
 30
0.0
 10
346.3274069609412
 20
255.5453159547529
 30
0.0
 10
346.188961810997
 20
255.4193871532943
 30
0.0
 10
345.9926295506114
 20
255.2919285055233
 30
0.0
 10
345.9334327715374
 20
255.2582178406278
 30
0.0
 10
345.8106353358321
 20
255.2002671295066
 30
0.0
 10
345.747012046651
 20
255.176075053743
 30
0.0
 10
345.6337748951857
 20
255.141966356073
 30
0.0
 10
345.5735903123797
 20
255.1279677754067
 30
0.0
 10
345.451780737408
 20
255.109720031207
 30
0.0
 10
345.3901531290037
 20
255.1054883361853
 30
0.0
 10
345.3338940564884
 20
255.1054883361853
 30
0.0
  0
SPLINE
  5
1B27
330
D
100
AcDbEntity
 67
     1
  8
AM_VIS
100
AcDbSpline
210
0.0
220
0.0
230
1.0
 70
     8
 71
     3
 72
    28
 73
    24
 74
     0
 42
0.0000000001
 43
0.0000000001
 40
-6.575386144962617
 40
-6.575386144962617
 40
-6.575386144962617
 40
-6.575386144962617
 40
-6.406608927416616
 40
-6.406608927416616
 40
-6.237831709870615
 40
-6.237831709870615
 40
-6.051820960373664
 40
-6.051820960373664
 40
-5.865810210876713
 40
-5.865810210876713
 40
-5.349589823042123
 40
-5.349589823042123
 40
-4.833369435207536
 40
-4.833369435207536
 40
-4.229198255806593
 40
-4.229198255806593
 40
-3.62502707640565
 40
-3.62502707640565
 40
-2.416684717603768
 40
-2.416684717603768
 40
-1.208342358801886
 40
-1.208342358801886
 40
0.0
 40
0.0
 40
0.0
 40
0.0
 10
345.3338940564884
 20
267.1054883361853
 30
0.0
 10
345.3901531290037
 20
267.1054883361853
 30
0.0
 10
345.451780737408
 20
267.1012566411635
 30
0.0
 10
345.5735903123797
 20
267.0830088969638
 30
0.0
 10
345.6337748951857
 20
267.0690103162975
 30
0.0
 10
345.747012046651
 20
267.0349016186274
 30
0.0
 10
345.8106353358321
 20
267.0107095428639
 30
0.0
 10
345.9334327715374
 20
266.9527588317428
 30
0.0
 10
345.9926295506114
 20
266.9190481668472
 30
0.0
 10
346.188961810997
 20
266.7915895190761
 30
0.0
 10
346.3274069609413
 20
266.6656607176175
 30
0.0
 10
346.5666371573919
 20
266.3798344323704
 30
0.0
 10
346.6678668731451
 20
266.2203094210707
 30
0.0
 10
346.8420193416798
 20
265.8899366479019
 30
0.0
 10
346.9183272478913
 20
265.7034748750553
 30
0.0
 10
347.045993946577
 20
265.3183785435806
 30
0.0
 10
347.0972007028292
 20
265.119693598731
 30
0.0
 10
347.2223418946301
 20
264.5099095640116
 30
0.0
 10
347.2677952657031
 20
264.0853146871545
 30
0.0
 10
347.3206558332051
 20
263.2242280778763
 30
0.0
 10
347.3282613673041
 20
262.7882802375093
 30
0.0
 10
347.334755637657
 20
261.9302998057591
 30
0.0
 10
347.3338940564884
 20
261.5082691224525
 30
0.0
 10
347.3338940564884
 20
261.1054883361853
 30
0.0
  0
LINE
  5
1B28
330
D
100
AcDbEntity
 67
     1
  8
AM_VIS
100
AcDbLine
 10
337.3338940564884
 20
271.1054883361853
 30
0.0
 11
339.3338940564884
 21
269.1054883361853
 31
0.0
  0
LINE
  5
1B29
330
D
100
AcDbEntity
 67
     1
  8
AM_VIS
100
AcDbLine
 10
339.3338940564884
 20
253.1054883361853
 30
0.0
 11
337.3338940564884
 21
251.1054883361853
 31
0.0
  0
LINE
  5
1B2A
330
D
100
AcDbEntity
 67
     1
  8
AM_VIS
100
AcDbLine
 10
345.3338940564884
 20
269.1054883361853
 30
0.0
 11
347.334755637657
 21
269.1054883361853
 31
0.0
  0
LINE
  5
1B2B
330
D
100
AcDbEntity
 67
     1
  8
AM_VIS
100
AcDbLine
 10
345.3338940564884
 20
269.1054883361853
 30
0.0
 11
339.3338940564884
 21
269.1054883361853
 31
0.0
  0
LINE
  5
1B2C
330
D
100
AcDbEntity
 67
     1
  8
AM_VIS
100
AcDbLine
 10
345.3338940564884
 20
253.1054883361853
 30
0.0
 11
347.334755637657
 21
253.1054883361853
 31
0.0
  0
LINE
  5
1B2D
330
D
100
AcDbEntity
 67
     1
  8
AM_VIS
100
AcDbLine
 10
339.3338940564884
 20
253.1054883361853
 30
0.0
 11
345.3338940564884
 21
253.1054883361853
 31
0.0
  0
LINE
  5
1B2E
330
D
100
AcDbEntity
 67
     1
  8
AM_VIS
100
AcDbLine
 10
368.1338940564883
 20
249.1054883361853
 30
0.0
 11
362.5338940564884
 21
249.1054883361853
 31
0.0
  0
LINE
  5
1B2F
330
D
100
AcDbEntity
 67
     1
  8
AM_VIS
100
AcDbLine
 10
368.1338940564883
 20
261.1054883361853
 30
0.0
 11
362.5338940564884
 21
261.1054883361853
 31
0.0
  0
LINE
  5
1B30
330
D
100
AcDbEntity
 67
     1
  8
AM_VIS
100
AcDbLine
 10
368.1338940564883
 20
273.1054883361853
 30
0.0
 11
362.5338940564884
 21
273.1054883361853
 31
0.0
  0
LINE
  5
1B31
330
D
100
AcDbEntity
 67
     1
  8
AM_VIS
100
AcDbLine
 10
368.1338940564883
 20
273.1054883361853
 30
0.0
 11
369.2056908262129
 21
273.1054883361853
 31
0.0
  0
LINE
  5
1B32
330
D
100
AcDbEntity
 67
     1
  8
AM_VIS
100
AcDbLine
 10
368.1338940564883
 20
249.1054883361853
 30
0.0
 11
369.2056908262129
 21
249.1054883361853
 31
0.0
  0
SPLINE
  5
1B33
330
D
100
AcDbEntity
 67
     1
  8
AM_VIS
100
AcDbSpline
210
0.0
220
0.0
230
1.0
 70
    12
 71
     2
 72
     6
 73
     3
 74
     0
 42
0.0000000001
 43
0.0000000001
 40
0.0
 40
0.0
 40
0.0
 40
14.02123365693556
 40
14.02123365693556
 40
14.02123365693556
 10
368.1338940564883
 20
249.105488336185
 30
0.0
 41
1.0
 10
370.1338940564885
 20
255.1054883361851
 30
0.0000000000000018
 41
1.154700538379228
 10
368.1338940564883
 20
261.1054883361854
 30
0.0
 41
1.0
  0
SPLINE
  5
1B34
330
D
100
AcDbEntity
 67
     1
  8
AM_VIS
100
AcDbSpline
210
0.0
220
0.0
230
1.0
 70
    12
 71
     2
 72
     6
 73
     3
 74
     0
 42
0.0000000001
 43
0.0000000001
 40
0.0
 40
0.0
 40
0.0
 40
14.02123365693556
 40
14.02123365693556
 40
14.02123365693556
 10
368.1338940564883
 20
261.1054883361851
 30
0.0
 41
1.0
 10
370.1338940564885
 20
267.1054883361853
 30
0.0000000000000018
 41
1.154700538379228
 10
368.1338940564883
 20
273.1054883361855
 30
0.0
 41
1.0
  0
SPLINE
  5
1B35
330
D
100
AcDbEntity
 67
     1
  8
AM_VIS
100
AcDbSpline
210
0.0
220
0.0
230
1.0
 70
    12
 71
     2
 72
     6
 73
     3
 74
     0
 42
0.0000000001
 43
0.0000000001
 40
0.0
 40
0.0
 40
0.0
 40
14.02123365693553
 40
14.02123365693553
 40
14.02123365693553
 10
362.5338940564884
 20
261.1054883361854
 30
0.0
 41
1.0
 10
360.5338940564882
 20
255.1054883361852
 30
0.0
 41
1.154700538379263
 10
362.5338940564884
 20
249.105488336185
 30
0.0
 41
1.0
  0
LINE
  5
1B36
330
D
100
AcDbEntity
 67
     1
  8
AM_VIS
100
AcDbLine
 10
361.4620972867637
 20
249.1054883361853
 30
0.0
 11
362.5338940564882
 21
249.1054883361853
 31
0.0
  0
LINE
  5
1B37
330
D
100
AcDbEntity
 67
     1
  8
AM_VIS
100
AcDbLine
 10
361.4620972867637
 20
273.1054883361853
 30
0.0
 11
362.5338940564882
 21
273.1054883361853
 31
0.0
  0
SPLINE
  5
1B38
330
D
100
AcDbEntity
 67
     1
  8
AM_VIS
100
AcDbSpline
210
0.0
220
0.0
230
1.0
 70
    12
 71
     2
 72
     6
 73
     3
 74
     0
 42
0.0000000001
 43
0.0000000001
 40
0.0
 40
0.0
 40
0.0
 40
14.02123365693552
 40
14.02123365693552
 40
14.02123365693552
 10
362.5338940564884
 20
273.1054883361855
 30
0.0
 41
1.0
 10
360.5338940564882
 20
267.1054883361853
 30
0.0
 41
1.154700538379263
 10
362.5338940564884
 20
261.1054883361851
 30
0.0
 41
1.0
  0
LINE
  5
1B39
330
D
100
AcDbEntity
 67
     1
  8
AM_VIS
100
AcDbLine
 10
336.3338940564883
 20
251.1054883361853
 30
0.0
 11
337.3338940564884
 21
251.1054883361853
 31
0.0
  0
LINE
  5
1B3A
330
D
100
AcDbEntity
 67
     1
  8
AM_VIS
100
AcDbLine
 10
336.3338940564883
 20
271.1054883361853
 30
0.0
 11
337.3338940564884
 21
271.1054883361853
 31
0.0
  0
LINE
  5
1B3B
330
D
100
AcDbEntity
 67
     1
  8
AM_VIS
100
AcDbLine
 10
347.3338940564884
 20
253.1054883361853
 30
0.0
 11
361.3338940564883
 21
253.1054883361853
 31
0.0
  0
LINE
  5
1B3C
330
D
100
AcDbEntity
 67
     1
  8
AM_VIS
100
AcDbLine
 10
347.3338940564884
 20
269.1054883361853
 30
0.0
 11
361.3338940564883
 21
269.1054883361853
 31
0.0
  0
LINE
  5
1B3D
330
D
100
AcDbEntity
 67
     1
  8
AM_VIS
100
AcDbLine
 10
379.3338940564884
 20
267.6054883361853
 30
0.0
 11
377.8338940564883
 21
269.1054883361853
 31
0.0
  0
LINE
  5
1B3E
330
D
100
AcDbEntity
 67
     1
  8
AM_VIS
100
AcDbLine
 10
379.3338940564884
 20
254.6054883361853
 30
0.0
 11
377.8338940564883
 21
253.1054883361853
 31
0.0
  0
LINE
  5
1B3F
330
D
100
AcDbEntity
 67
     1
  8
AM_VIS
100
AcDbLine
 10
369.3338940564883
 20
253.1054883361853
 30
0.0
 11
377.8338940564883
 21
253.1054883361853
 31
0.0
  0
LINE
  5
1B40
330
D
100
AcDbEntity
 67
     1
  8
AM_VIS
100
AcDbLine
 10
369.3338940564883
 20
269.1054883361853
 30
0.0
 11
377.8338940564883
 21
269.1054883361853
 31
0.0
  0
LINE
  5
1B41
330
D
100
AcDbEntity
 67
     1
  8
AM_VIS
100
AcDbLine
 10
369.3338940564883
 20
272.8834338276537
 30
0.0
 11
369.2056908262129
 21
273.1054883361853
 31
0.0
  0
LINE
  5
1B42
330
D
100
AcDbEntity
 67
     1
  8
AM_VIS
100
AcDbLine
 10
369.3338940564883
 20
249.3275428447168
 30
0.0
 11
369.2056908262129
 21
249.1054883361853
 31
0.0
  0
LINE
  5
1B43
330
D
100
AcDbEntity
 67
     1
  8
AM_VIS
100
AcDbLine
 10
361.3338940564883
 20
249.3275428447168
 30
0.0
 11
361.4620972867637
 21
249.1054883361853
 31
0.0
  0
LINE
  5
1B44
330
D
100
AcDbEntity
 67
     1
  8
AM_VIS
100
AcDbLine
 10
361.3338940564883
 20
272.8834338276537
 30
0.0
 11
361.4620972867637
 21
273.1054883361853
 31
0.0
  0
LINE
  5
1B45
330
D
100
AcDbEntity
 67
     1
  8
AM_VIS
100
AcDbLine
 10
347.3338940564884
 20
261.1054883361853
 30
0.0
 11
347.3338940564884
 21
253.1054883361853
 31
0.0
  0
LINE
  5
1B46
330
D
100
AcDbEntity
 67
     1
  8
AM_VIS
100
AcDbLine
 10
347.3338940564884
 20
269.1054883361853
 30
0.0
 11
347.3338940564884
 21
261.1054883361853
 31
0.0
  0
LINE
  5
1B47
330
D
100
AcDbEntity
 67
     1
  8
AM_VIS
100
AcDbLine
 10
379.3338940564884
 20
267.6054883361853
 30
0.0
 11
379.3338940564884
 21
254.6054883361853
 31
0.0
  0
LINE
  5
1B48
330
D
100
AcDbEntity
 67
     1
  8
AM_VIS
100
AcDbLine
 10
377.8338940564883
 20
253.1054883361853
 30
0.0
 11
377.8338940564883
 21
269.1054883361853
 31
0.0
  0
LINE
  5
1B49
330
D
100
AcDbEntity
 67
     1
  8
AM_VIS
100
AcDbLine
 10
369.3338940564883
 20
249.3275428447168
 30
0.0
 11
369.3338940564883
 21
272.8834338276537
 31
0.0
  0
LINE
  5
1B4A
330
D
100
AcDbEntity
 67
     1
  8
AM_VIS
100
AcDbLine
 10
361.3338940564883
 20
272.8834338276537
 30
0.0
 11
361.3338940564883
 21
249.3275428447168
 31
0.0
  0
LINE
  5
1B4B
330
D
100
AcDbEntity
 67
     1
  8
AM_VIS
100
AcDbLine
 10
220.3338940564884
 20
298.6054883361853
 30
0.0
 11
220.3338940564884
 21
223.6054883361853
 31
0.0
  0
DIMENSION
  5
1B9E
330
D
100
AcDbEntity
 67
     1
  8
AM_5
100
AcDbDimension
  2
*D6
 10
379.3338940564884
 20
59.58030512509489
 30
0.0
 11
363.3338940564883
 21
62.33064961328388
 31
0.0
 70
    32
 71
     5
 42
32.0
  3
AM_ISO$0
100
AcDbAlignedDimension
 13
347.3338940564884
 23
129.0927294692436
 33
0.0
 14
379.3338940564884
 24
130.5927294692436
 34
0.0
100
AcDbRotatedDimension
  0
DIMENSION
  5
1B9F
330
D
100
AcDbEntity
 67
     1
  8
AM_5
100
AcDbDimension
  2
*D7
 10
310.3338940564884
 20
73.29186159546967
 30
0.0
 11
328.8343248470726
 21
76.04186159546967
 31
0.0
 70
    32
 71
     5
 42
37.00086158116858
  3
AM_ISO$0
100
AcDbAlignedDimension
 13
347.334755637657
 23
129.0927294692436
 33
0.0
 14
310.3338940564884
 24
99.59272946924366
 34
0.0
100
AcDbRotatedDimension
  0
DIMENSION
  5
1BA0
330
D
100
AcDbEntity
 67
     1
  8
AM_5
100
AcDbDimension
  2
*D8
 10
395.0978849222511
 20
127.0927294692436
 30
0.0
 11
392.3475404340621
 21
137.0927294692437
 31
0.0
 70
    32
  1
%%c<>
 71
     5
 42
20.00000000000001
  3
AM_ISO$0
100
AcDbAlignedDimension
 13
337.3338940564884
 23
147.0927294692437
 33
0.0
 14
337.3338940564884
 24
127.0927294692436
 34
0.0
 50
90.0
100
AcDbRotatedDimension
  0
DIMENSION
  5
1BA1
330
D
100
AcDbEntity
 67
     1
  8
AM_5
100
AcDbDimension
  2
*D9
 10
403.0978849222511
 20
114.5927294692436
 30
0.0
 11
400.347884922251
 21
137.0927294692437
 31
0.0
 70
    32
  1
%%c<>
 71
     5
 42
44.99999999999999
  3
AM_ISO$0
100
AcDbAlignedDimension
 13
318.8338940564884
 23
159.5927294692437
 33
0.0
 14
318.8338940564884
 24
114.5927294692436
 34
0.0
 50
90.0
100
AcDbRotatedDimension
  0
DIMENSION
  5
1BA2
330
D
100
AcDbEntity
 67
     1
  8
AM_5
100
AcDbDimension
  2
*D10
 10
99.33389405648837
 20
73.29186159546924
 30
0.0
 11
97.33389405648836
 21
76.04186159546924
 31
0.0
 70
    32
 71
     5
 42
4.0
  3
AM_ISO$0
100
AcDbAlignedDimension
 13
95.33389405648836
 23
115.5927294692436
 33
0.0
 14
99.33389405648837
 24
98.09272946924373
 34
0.0
100
AcDbRotatedDimension
1001
ACAD
1000
DSTYLE
1002
{
1070
    40
1040
1.0
1070
   144
1040
1.0
1070
   272
1070
     8
1002
}
  0
DIMENSION
  5
1BA3
330
D
100
AcDbEntity
 67
     1
  8
AM_5
100
AcDbDimension
  2
*D11
 10
76.4241683109674
 20
114.5927294692437
 30
0.0
 11
76.42416831096738
 21
137.0927294692437
 31
0.0
 70
   160
  1
%%c<>
 71
     5
 42
45.0
  3
AM_ISO$0
100
AcDbAlignedDimension
 13
96.33389405648836
 23
159.5927294692437
 33
0.0
 14
96.33389405648836
 24
114.5927294692436
 34
0.0
 50
90.0
100
AcDbRotatedDimension
  0
LINE
  5
1BA6
330
D
100
AcDbEntity
 67
     1
  8
SL
  6
ACISOTGB
100
AcDbLine
 10
163.995223656648
 20
220.30517358709
 30
0.0
 11
163.995223656648
 21
307.6766223699498
 31
0.0
  0
INSERT
  5
1BA7
330
D
100
AcDbEntity
 67
     1
  8
0
100
AcDbBlockReference
  2
A$C453B67D5
 10
163.2121027157759
 20
310.151168865732
 30
0.0
  0
INSERT
  5
1BA8
330
D
100
AcDbEntity
 67
     1
  8
0
100
AcDbBlockReference
  2
A$C17481420
 10
163.9952240658202
 20
306.0482495981436
 30
0.0
  0
DIMENSION
  5
1BA9
330
D
100
AcDbEntity
 67
     1
  8
AM_5
100
AcDbDimension
  2
*D12
 10
310.3338940564884
 20
88.46165947037892
 30
0.0
 11
315.3338940564883
 21
91.21165947037892
 31
0.0
 70
    32
 71
     5
 42
10.0
  3
AM_ISO$0
100
AcDbAlignedDimension
 13
320.3338940564884
 23
116.0927294692436
 33
0.0
 14
310.3338940564884
 24
99.59272946924366
 34
0.0
100
AcDbRotatedDimension
  0
LEADER
  5
1BAA
330
D
100
AcDbEntity
 67
     1
  8
AM_5
100
AcDbLeader
  3
AM_ISO$7
 76
     3
 10
373.6657006537778
 20
145.0927294692436
 30
0.0
 10
386.7827916906918
 20
166.6516400146372
 30
0.0
 10
403.676341108714
 20
166.6516400146372
 30
0.0
1001
ACAD
1000
DSTYLE
1002
{
1070
   147
1040
1.0
1002
}
  0
TEXT
  5
1BAB
330
D
100
AcDbEntity
 67
     1
  8
AM_5
100
AcDbText
 10
387.1261569885285
 20
167.6815236856445
 30
0.0
 40
3.500000000000003
  1
M16*1.5
100
AcDbText
  0
DIMENSION
  5
1BAC
330
D
100
AcDbEntity
 67
     1
  8
AM_5
100
AcDbDimension
  2
*D13
 10
220.3338940564884
 20
73.29186159546949
 30
0.0
 11
265.3338940564883
 21
76.0418615954695
 31
0.0
 70
    32
 71
     5
 42
90.0
  3
AM_ISO$0
100
AcDbAlignedDimension
 13
310.3338940564884
 23
99.59272946924366
 33
0.0
 14
220.3338940564884
 24
99.59272946924366
 34
0.0
100
AcDbRotatedDimension
  0
DIMENSION
  5
1BAD
330
D
100
AcDbEntity
 67
     1
  8
AM_5
100
AcDbDimension
  2
*D14
 10
99.33389405648837
 20
73.29186159546924
 30
0.0
 11
159.8338940564883
 21
76.04220608365821
 31
0.0
 70
    32
  1
<>+Storke
 71
     5
 42
121.0
  3
AM_ISO$0
100
AcDbAlignedDimension
 13
220.3338940564884
 23
99.59272946924366
 33
0.0
 14
99.33389405648837
 24
91.84053393429591
 34
0.0
100
AcDbRotatedDimension
  0
DIMENSION
  5
1BAE
330
D
100
AcDbEntity
 67
     1
  8
AM_5
100
AcDbDimension
  2
*D15
 10
347.334755637657
 20
59.58030512509484
 30
0.0
 11
223.3343248470727
 21
62.33064961328381
 31
0.0
 70
    32
  1
<>+Storke
 71
     5
 42
248.0008615811686
  3
AM_ISO
100
AcDbAlignedDimension
 13
99.33389405648837
 23
84.49229553235648
 33
0.0
 14
347.334755637657
 24
129.0927294692436
 34
0.0
100
AcDbRotatedDimension
  0
TEXT
  5
1BB4
330
D
100
AcDbEntity
 67
     1
  8
AM_5
100
AcDbText
 10
131.3933931913626
 20
89.04169477295775
 30
0.0
 40
3.500000000000003
  1
2-G3/8
100
AcDbText
  0
LEADER
  5
1BB5
330
D
100
AcDbEntity
 67
     1
  8
AM_5
100
AcDbLeader
  3
AM_ISO$7
 76
     3
 10
120.1255534767726
 20
122.5927294692436
 30
0.0
 10
130.4438175130875
 20
88.33173841519842
 30
0.0
 10
147.7527683595873
 20
88.33173841519842
 30
0.0
1001
ACAD
1000
DSTYLE
1002
{
1070
   140
1040
3.5
1070
   147
1040
1.0
1070
   272
1070
     8
1002
}
  0
SPLINE
  5
1BBA
330
D
100
AcDbEntity
 67
     1
  8
AM_VIS
100
AcDbSpline
210
0.0
220
0.0
230
1.0
 70
    12
 71
     2
 72
     6
 73
     3
 74
     0
 42
0.0000000001
 43
0.0000000001
 40
0.0
 40
0.0
 40
0.0
 40
3.807113172039068
 40
3.807113172039068
 40
3.807113172039068
 10
230.9144506400892
 20
161.5899527195111
 30
0.0
 41
1.0
 10
230.3338940564884
 20
163.6010597184416
 30
0.0
 41
1.037954849301874
 10
230.3338940564884
 20
165.3427294692436
 30
0.0
 41
1.0
  0
SPLINE
  5
1BBB
330
D
100
AcDbEntity
 67
     1
  8
AM_VIS
100
AcDbSpline
210
0.0
220
0.0
230
1.0
 70
    12
 71
     2
 72
     6
 73
     3
 74
     0
 42
0.0000000001
 43
0.0000000001
 40
3.807113172039068
 40
3.807113172039068
 40
3.807113172039068
 40
7.614226344078137
 40
7.614226344078137
 40
7.614226344078137
 10
230.3338940564884
 20
165.3427294692436
 30
0.0
 41
1.0
 10
230.3338940564884
 20
167.084399220046
 30
0.0
 41
1.037954849301874
 10
230.9144506400892
 20
169.0955062189762
 30
0.0
 41
1.0
  0
SPLINE
  5
1BBC
330
D
100
AcDbEntity
 67
     1
  8
AM_VIS
100
AcDbSpline
210
0.0
220
0.0
230
1.0
 70
    12
 71
     2
 72
     6
 73
     3
 74
     0
 42
0.0000000001
 43
0.0000000001
 40
0.0
 40
0.0
 40
0.0
 40
3.807113172039014
 40
3.807113172039014
 40
3.807113172039014
 10
236.2533374728875
 20
169.0955062189762
 30
0.0
 41
1.0
 10
236.8338940564882
 20
167.084399220046
 30
0.0
 41
1.037954849301927
 10
236.8338940564884
 20
165.3427294692436
 30
0.0
 41
1.0
  0
SPLINE
  5
1BBD
330
D
100
AcDbEntity
 67
     1
  8
AM_VIS
100
AcDbSpline
210
0.0
220
0.0
230
1.0
 70
    12
 71
     2
 72
     6
 73
     3
 74
     0
 42
0.0000000001
 43
0.0000000001
 40
3.807113172039014
 40
3.807113172039014
 40
3.807113172039014
 40
7.614226344078024
 40
7.614226344078024
 40
7.614226344078024
 10
236.8338940564884
 20
165.3427294692436
 30
0.0
 41
1.0
 10
236.8338940564882
 20
163.6010597184414
 30
0.0
 41
1.037954849301927
 10
236.2533374728875
 20
161.5899527195111
 30
0.0
 41
1.0
  0
LINE
  5
1BBE
330
D
100
AcDbEntity
 67
     1
  8
AM_VIS
100
AcDbLine
 10
230.9144506400892
 20
169.0955062189761
 30
0.0
 11
236.2533374728875
 21
169.0955062189761
 31
0.0
  0
SPLINE
  5
1BBF
330
D
100
AcDbEntity
 67
     1
  8
AM_VIS
100
AcDbSpline
210
0.0
220
0.0
230
1.0
 70
    12
 71
     2
 72
     6
 73
     3
 74
     0
 42
0.0000000001
 43
0.0000000001
 40
0.0
 40
0.0
 40
0.0
 40
3.807113172039172
 40
3.807113172039172
 40
3.807113172039172
 10
230.9144506400892
 20
169.0955062189761
 30
0.0
 41
1.0
 10
230.3338940564884
 20
170.1010597184413
 30
0.0
 41
1.037954849301907
 10
230.3338940564884
 20
170.9718945938424
 30
0.0
 41
1.0
  0
SPLINE
  5
1BC0
330
D
100
AcDbEntity
 67
     1
  8
AM_VIS
100
AcDbSpline
210
0.0
220
0.0
230
1.0
 70
    12
 71
     2
 72
     6
 73
     3
 74
     0
 42
0.0000000001
 43
0.0000000001
 40
3.807113172039172
 40
3.807113172039172
 40
3.807113172039172
 40
7.614226344078348
 40
7.614226344078348
 40
7.614226344078348
 10
230.3338940564884
 20
170.9718945938424
 30
0.0
 41
1.0
 10
230.3338940564876
 20
171.8427294692433
 30
0.0
 41
1.037954849301812
 10
230.9144506400892
 20
172.8482829687088
 30
0.0
 41
1.0
  0
SPLINE
  5
1BC1
330
D
100
AcDbEntity
 67
     1
  8
AM_VIS
100
AcDbSpline
210
0.0
220
0.0
230
1.0
 70
    12
 71
     2
 72
     6
 73
     3
 74
     0
 42
0.0000000001
 43
0.0000000001
 40
0.0
 40
0.0
 40
0.0
 40
3.807113172039123
 40
3.807113172039123
 40
3.807113172039123
 10
236.2533374728875
 20
172.8482829687088
 30
0.0
 41
1.0
 10
236.8338940564882
 20
171.8427294692435
 30
0.0
 41
1.037954849302031
 10
236.8338940564884
 20
170.9718945938424
 30
0.0
 41
1.0
  0
SPLINE
  5
1BC2
330
D
100
AcDbEntity
 67
     1
  8
AM_VIS
100
AcDbSpline
210
0.0
220
0.0
230
1.0
 70
    12
 71
     2
 72
     6
 73
     3
 74
     0
 42
0.0000000001
 43
0.0000000001
 40
3.807113172039123
 40
3.807113172039123
 40
3.807113172039123
 40
7.614226344078239
 40
7.614226344078239
 40
7.614226344078239
 10
236.8338940564884
 20
170.9718945938424
 30
0.0
 41
1.0
 10
236.8338940564882
 20
170.1010597184412
 30
0.0
 41
1.037954849302031
 10
236.2533374728875
 20
169.0955062189761
 30
0.0
 41
1.0
  0
LINE
  5
1BC3
330
D
100
AcDbEntity
 67
     1
  8
AM_VIS
100
AcDbLine
 10
230.9144506400892
 20
172.8482829687088
 30
0.0
 11
236.2533374728875
 21
172.8482829687088
 31
0.0
  0
SPLINE
  5
1BC4
330
D
100
AcDbEntity
 67
     1
  8
AM_VIS
100
AcDbSpline
210
0.0
220
0.0
230
1.0
 70
    12
 71
     2
 72
     6
 73
     3
 74
     0
 42
0.0000000001
 43
0.0000000001
 40
3.807113172038935
 40
3.807113172038935
 40
3.807113172038935
 40
7.614226344077872
 40
7.614226344077872
 40
7.614226344077872
 10
236.8338940564884
 20
159.7135643446447
 30
0.0
 41
1.0
 10
236.8338940564882
 20
158.8427294692436
 30
0.0
 41
1.037954849302012
 10
236.2533374728875
 20
157.8371759697785
 30
0.0
 41
1.0
  0
SPLINE
  5
1BC5
330
D
100
AcDbEntity
 67
     1
  8
AM_VIS
100
AcDbSpline
210
0.0
220
0.0
230
1.0
 70
    12
 71
     2
 72
     6
 73
     3
 74
     0
 42
0.0000000001
 43
0.0000000001
 40
0.0
 40
0.0
 40
0.0
 40
3.80711317203899
 40
3.80711317203899
 40
3.80711317203899
 10
230.9144506400892
 20
157.8371759697785
 30
0.0
 41
1.0
 10
230.3338940564884
 20
158.8427294692436
 30
0.0
 41
1.037954849302102
 10
230.3338940564884
 20
159.7135643446447
 30
0.0
 41
1.0
  0
SPLINE
  5
1BC6
330
D
100
AcDbEntity
 67
     1
  8
AM_VIS
100
AcDbSpline
210
0.0
220
0.0
230
1.0
 70
    12
 71
     2
 72
     6
 73
     3
 74
     0
 42
0.0000000001
 43
0.0000000001
 40
3.80711317203899
 40
3.80711317203899
 40
3.80711317203899
 40
7.614226344077981
 40
7.614226344077981
 40
7.614226344077981
 10
230.3338940564884
 20
159.7135643446447
 30
0.0
 41
1.0
 10
230.3338940564884
 20
160.5843992200459
 30
0.0
 41
1.037954849302119
 10
230.9144506400892
 20
161.5899527195109
 30
0.0
 41
1.0
  0
LINE
  5
1BC7
330
D
100
AcDbEntity
 67
     1
  8
AM_VIS
100
AcDbLine
 10
230.9144506400892
 20
161.5899527195111
 30
0.0
 11
236.2533374728875
 21
161.5899527195111
 31
0.0
  0
SPLINE
  5
1BC8
330
D
100
AcDbEntity
 67
     1
  8
AM_VIS
100
AcDbSpline
210
0.0000000000000668
220
0.0000000000000269
230
1.0
 70
    12
 71
     2
 72
     6
 73
     3
 74
     0
 42
0.0000000001
 43
0.0000000001
 40
0.0
 40
0.0
 40
0.0
 40
3.807113172038935
 40
3.807113172038935
 40
3.807113172038935
 10
236.2533374728875
 20
161.5899527195109
 30
0.0
 41
1.0
 10
236.8338940564877
 20
160.584399220046
 30
0.0000000000002274
 41
1.037954849302047
 10
236.8338940564884
 20
159.7135643446447
 30
0.0
 41
1.0
  0
LINE
  5
1BC9
330
D
100
AcDbEntity
 67
     1
  8
AM_VIS
100
AcDbLine
 10
230.9144506400892
 20
157.8371759697785
 30
0.0
 11
236.2533374728875
 21
157.8371759697785
 31
0.0
  0
SPLINE
  5
1BCA
330
D
100
AcDbEntity
 67
     1
  8
AM_VIS
100
AcDbSpline
210
0.0
220
0.0
230
1.0
 70
    12
 71
     2
 72
     6
 73
     3
 74
     0
 42
0.0000000001
 43
0.0000000001
 40
0.0
 40
0.0
 40
0.0
 40
3.807113172039068
 40
3.807113172039068
 40
3.807113172039068
 10
230.9144506400892
 20
105.089952719511
 30
0.0
 41
1.0
 10
230.3338940564884
 20
107.1010597184412
 30
0.0
 41
1.037954849301874
 10
230.3338940564884
 20
108.8427294692436
 30
0.0
 41
1.0
  0
SPLINE
  5
1BCB
330
D
100
AcDbEntity
 67
     1
  8
AM_VIS
100
AcDbSpline
210
0.0
220
0.0
230
1.0
 70
    12
 71
     2
 72
     6
 73
     3
 74
     0
 42
0.0000000001
 43
0.0000000001
 40
3.807113172039068
 40
3.807113172039068
 40
3.807113172039068
 40
7.614226344078137
 40
7.614226344078137
 40
7.614226344078137
 10
230.3338940564884
 20
108.8427294692436
 30
0.0
 41
1.0
 10
230.3338940564884
 20
110.5843992200459
 30
0.0
 41
1.037954849301874
 10
230.9144506400892
 20
112.5955062189762
 30
0.0
 41
1.0
  0
SPLINE
  5
1BCC
330
D
100
AcDbEntity
 67
     1
  8
AM_VIS
100
AcDbSpline
210
0.0
220
0.0
230
1.0
 70
    12
 71
     2
 72
     6
 73
     3
 74
     0
 42
0.0000000001
 43
0.0000000001
 40
0.0
 40
0.0
 40
0.0
 40
3.807113172039009
 40
3.807113172039009
 40
3.807113172039009
 10
236.2533374728875
 20
112.5955062189762
 30
0.0
 41
1.0
 10
236.8338940564882
 20
110.5843992200458
 30
0.0
 41
1.037954849301927
 10
236.8338940564884
 20
108.8427294692436
 30
0.0
 41
1.0
  0
SPLINE
  5
1BCD
330
D
100
AcDbEntity
 67
     1
  8
AM_VIS
100
AcDbSpline
210
0.0
220
0.0
230
1.0
 70
    12
 71
     2
 72
     6
 73
     3
 74
     0
 42
0.0000000001
 43
0.0000000001
 40
3.807113172039009
 40
3.807113172039009
 40
3.807113172039009
 40
7.614226344078024
 40
7.614226344078024
 40
7.614226344078024
 10
236.8338940564884
 20
108.8427294692436
 30
0.0
 41
1.0
 10
236.8338940564882
 20
107.101059718441
 30
0.0
 41
1.037954849301927
 10
236.2533374728875
 20
105.0899527195112
 30
0.0
 41
1.0
  0
LINE
  5
1BCE
330
D
100
AcDbEntity
 67
     1
  8
AM_VIS
100
AcDbLine
 10
230.9144506400892
 20
112.5955062189761
 30
0.0
 11
236.2533374728875
 21
112.5955062189761
 31
0.0
  0
SPLINE
  5
1BCF
330
D
100
AcDbEntity
 67
     1
  8
AM_VIS
100
AcDbSpline
210
0.0
220
0.0
230
1.0
 70
    12
 71
     2
 72
     6
 73
     3
 74
     0
 42
0.0000000001
 43
0.0000000001
 40
0.0
 40
0.0
 40
0.0
 40
3.807113172039154
 40
3.807113172039154
 40
3.807113172039154
 10
230.9144506400892
 20
112.5955062189761
 30
0.0
 41
1.0
 10
230.3338940564884
 20
113.6010597184413
 30
0.0
 41
1.037954849302113
 10
230.3338940564884
 20
114.4718945938424
 30
0.0
 41
1.0
  0
SPLINE
  5
1BD0
330
D
100
AcDbEntity
 67
     1
  8
AM_VIS
100
AcDbSpline
210
-0.0000000000000668
220
0.0000000000000269
230
1.0
 70
    12
 71
     2
 72
     6
 73
     3
 74
     0
 42
0.0000000001
 43
0.0000000001
 40
3.807113172039154
 40
3.807113172039154
 40
3.807113172039154
 40
7.614226344078319
 40
7.614226344078319
 40
7.614226344078319
 10
230.3338940564884
 20
114.4718945938424
 30
0.0
 41
1.0
 10
230.3338940564881
 20
115.3427294692435
 30
0.0000000000002274
 41
1.037954849302084
 10
230.9144506400892
 20
116.3482829687088
 30
0.0
 41
1.0
  0
SPLINE
  5
1BD1
330
D
100
AcDbEntity
 67
     1
  8
AM_VIS
100
AcDbSpline
210
0.0
220
0.0
230
1.0
 70
    12
 71
     2
 72
     6
 73
     3
 74
     0
 42
0.0000000001
 43
0.0000000001
 40
0.0
 40
0.0
 40
0.0
 40
3.807113172039119
 40
3.807113172039119
 40
3.807113172039119
 10
236.2533374728875
 20
116.3482829687088
 30
0.0
 41
1.0
 10
236.8338940564879
 20
115.3427294692436
 30
0.0
 41
1.037954849302022
 10
236.8338940564884
 20
114.4718945938424
 30
0.0
 41
1.0
  0
SPLINE
  5
1BD2
330
D
100
AcDbEntity
 67
     1
  8
AM_VIS
100
AcDbSpline
210
0.0
220
0.0
230
1.0
 70
    12
 71
     2
 72
     6
 73
     3
 74
     0
 42
0.0000000001
 43
0.0000000001
 40
3.807113172039119
 40
3.807113172039119
 40
3.807113172039119
 40
7.61422634407823
 40
7.61422634407823
 40
7.61422634407823
 10
236.8338940564884
 20
114.4718945938424
 30
0.0
 41
1.0
 10
236.8338940564882
 20
113.6010597184412
 30
0.0
 41
1.037954849302043
 10
236.2533374728875
 20
112.5955062189761
 30
0.0
 41
1.0
  0
LINE
  5
1BD3
330
D
100
AcDbEntity
 67
     1
  8
AM_VIS
100
AcDbLine
 10
230.9144506400892
 20
116.3482829687088
 30
0.0
 11
236.2533374728875
 21
116.3482829687088
 31
0.0
  0
SPLINE
  5
1BD4
330
D
100
AcDbEntity
 67
     1
  8
AM_VIS
100
AcDbSpline
210
0.0
220
0.0
230
1.0
 70
    12
 71
     2
 72
     6
 73
     3
 74
     0
 42
0.0000000001
 43
0.0000000001
 40
3.807113172038951
 40
3.807113172038951
 40
3.807113172038951
 40
7.614226344077905
 40
7.614226344077905
 40
7.614226344077905
 10
236.8338940564884
 20
103.2135643446446
 30
0.0
 41
1.0
 10
236.833894056488
 20
102.3427294692432
 30
0.0
 41
1.037954849302009
 10
236.2533374728875
 20
101.3371759697785
 30
0.0
 41
1.0
  0
SPLINE
  5
1BD5
330
D
100
AcDbEntity
 67
     1
  8
AM_VIS
100
AcDbSpline
210
0.0
220
0.0
230
1.0
 70
    12
 71
     2
 72
     6
 73
     3
 74
     0
 42
0.0000000001
 43
0.0000000001
 40
0.0
 40
0.0
 40
0.0
 40
3.807113172038993
 40
3.807113172038993
 40
3.807113172038993
 10
230.9144506400892
 20
101.3371759697785
 30
0.0
 41
1.0
 10
230.3338940564884
 20
102.3427294692436
 30
0.0
 41
1.037954849302097
 10
230.3338940564884
 20
103.2135643446446
 30
0.0
 41
1.0
  0
SPLINE
  5
1BD6
330
D
100
AcDbEntity
 67
     1
  8
AM_VIS
100
AcDbSpline
210
0.0
220
0.0
230
1.0
 70
    12
 71
     2
 72
     6
 73
     3
 74
     0
 42
0.0000000001
 43
0.0000000001
 40
3.807113172038993
 40
3.807113172038993
 40
3.807113172038993
 40
7.614226344077998
 40
7.614226344077998
 40
7.614226344077998
 10
230.3338940564884
 20
103.2135643446446
 30
0.0
 41
1.0
 10
230.3338940564877
 20
104.0843992200455
 30
0.0
 41
1.037954849302107
 10
230.9144506400892
 20
105.089952719511
 30
0.0
 41
1.0
  0
LINE
  5
1BD7
330
D
100
AcDbEntity
 67
     1
  8
AM_VIS
100
AcDbLine
 10
230.9144506400892
 20
105.0899527195112
 30
0.0
 11
236.2533374728875
 21
105.0899527195112
 31
0.0
  0
SPLINE
  5
1BD8
330
D
100
AcDbEntity
 67
     1
  8
AM_VIS
100
AcDbSpline
210
0.0000000000000668
220
0.0000000000000269
230
1.0
 70
    12
 71
     2
 72
     6
 73
     3
 74
     0
 42
0.0000000001
 43
0.0000000001
 40
0.0
 40
0.0
 40
0.0
 40
3.807113172038951
 40
3.807113172038951
 40
3.807113172038951
 10
236.2533374728875
 20
105.089952719511
 30
0.0
 41
1.0
 10
236.8338940564872
 20
104.0843992200461
 30
0.0000000000002274
 41
1.037954849302053
 10
236.8338940564884
 20
103.2135643446446
 30
0.0
 41
1.0
  0
LINE
  5
1BD9
330
D
100
AcDbEntity
 67
     1
  8
AM_VIS
100
AcDbLine
 10
230.9144506400892
 20
101.3371759697785
 30
0.0
 11
236.2533374728875
 21
101.3371759697785
 31
0.0
  0
LINE
  5
1BDA
330
D
100
AcDbEntity
 67
     1
  8
AM_VIS
100
AcDbLine
 10
220.3338940564884
 20
174.5927294692436
 30
0.0
 11
220.3338940564884
 21
99.59272946924366
 31
0.0
  0
LINE
  5
1BDB
330
D
100
AcDbEntity
 67
     1
  8
AM_VIS
100
AcDbLine
 10
237.3338940564884
 20
104.8427294692436
 30
0.0
 11
238.3338940564883
 21
105.8427294692436
 31
0.0
  0
LINE
  5
1BDC
330
D
100
AcDbEntity
 67
     1
  8
AM_VIS
100
AcDbLine
 10
228.3338940564884
 20
102.3427294692436
 30
0.0
 11
230.3338940564884
 21
102.3427294692436
 31
0.0
  0
LINE
  5
1BDD
330
D
100
AcDbEntity
 67
     1
  8
AM_VIS
100
AcDbLine
 10
236.8338940564884
 20
104.8427294692436
 30
0.0
 11
237.3338940564884
 21
104.8427294692436
 31
0.0
  0
LINE
  5
1BDE
330
D
100
AcDbEntity
 67
     1
  8
AM_VIS
100
AcDbLine
 10
237.3338940564884
 20
161.3427294692436
 30
0.0
 11
238.3338940564883
 21
162.3427294692436
 31
0.0
  0
LINE
  5
1BDF
330
D
100
AcDbEntity
 67
     1
  8
AM_VIS
100
AcDbLine
 10
228.3338940564884
 20
158.8427294692436
 30
0.0
 11
230.3338940564884
 21
158.8427294692436
 31
0.0
  0
LINE
  5
1BE0
330
D
100
AcDbEntity
 67
     1
  8
AM_VIS
100
AcDbLine
 10
236.8338940564884
 20
161.3427294692436
 30
0.0
 11
237.3338940564884
 21
161.3427294692436
 31
0.0
  0
LINE
  5
1BE1
330
D
100
AcDbEntity
 67
     1
  8
AM_VIS
100
AcDbLine
 10
236.8338940564884
 20
169.3427294692436
 30
0.0
 11
237.3338940564884
 21
169.3427294692436
 31
0.0
  0
LINE
  5
1BE2
330
D
100
AcDbEntity
 67
     1
  8
AM_VIS
100
AcDbLine
 10
228.3338940564884
 20
171.8427294692436
 30
0.0
 11
230.3338940564884
 21
171.8427294692436
 31
0.0
  0
LINE
  5
1BE3
330
D
100
AcDbEntity
 67
     1
  8
AM_VIS
100
AcDbLine
 10
237.3338940564884
 20
169.3427294692436
 30
0.0
 11
238.3338940564883
 21
168.3427294692436
 31
0.0
  0
LINE
  5
1BE4
330
D
100
AcDbEntity
 67
     1
  8
AM_VIS
100
AcDbLine
 10
236.2533374728875
 20
172.8482829687088
 30
0.0
 11
236.8338940564884
 21
171.8427294692431
 31
0.0
  0
LINE
  5
1BE5
330
D
100
AcDbEntity
 67
     1
  8
AM_VIS
100
AcDbLine
 10
236.2533374728875
 20
157.8371759697784
 30
0.0
 11
236.8338940564884
 21
158.8427294692441
 31
0.0
  0
LINE
  5
1BE6
330
D
100
AcDbEntity
 67
     1
  8
AM_VIS
100
AcDbLine
 10
230.3338940564884
 20
171.8427294692436
 30
0.0
 11
230.9144506400892
 21
172.8482829687088
 31
0.0
  0
LINE
  5
1BE7
330
D
100
AcDbEntity
 67
     1
  8
AM_VIS
100
AcDbLine
 10
230.3338940564884
 20
158.8427294692436
 30
0.0
 11
230.9144506400892
 21
157.8371759697785
 31
0.0
  0
LINE
  5
1BE8
330
D
100
AcDbEntity
 67
     1
  8
AM_VIS
100
AcDbLine
 10
236.8338940564884
 20
112.8427294692436
 30
0.0
 11
237.3338940564884
 21
112.8427294692436
 31
0.0
  0
LINE
  5
1BE9
330
D
100
AcDbEntity
 67
     1
  8
AM_VIS
100
AcDbLine
 10
228.3338940564884
 20
115.3427294692436
 30
0.0
 11
230.3338940564884
 21
115.3427294692436
 31
0.0
  0
LINE
  5
1BEA
330
D
100
AcDbEntity
 67
     1
  8
AM_VIS
100
AcDbLine
 10
237.3338940564884
 20
112.8427294692436
 30
0.0
 11
238.3338940564883
 21
111.8427294692436
 31
0.0
  0
LINE
  5
1BEB
330
D
100
AcDbEntity
 67
     1
  8
AM_VIS
100
AcDbLine
 10
236.2533374728875
 20
116.3482829687088
 30
0.0
 11
236.8338940564884
 21
115.3427294692432
 31
0.0
  0
LINE
  5
1BEC
330
D
100
AcDbEntity
 67
     1
  8
AM_VIS
100
AcDbLine
 10
236.2533374728875
 20
101.3371759697785
 30
0.0
 11
236.8338940564884
 21
102.3427294692441
 31
0.0
  0
LINE
  5
1BED
330
D
100
AcDbEntity
 67
     1
  8
AM_VIS
100
AcDbLine
 10
230.3338940564884
 20
115.3427294692436
 30
0.0
 11
230.9144506400892
 21
116.3482829687088
 31
0.0
  0
LINE
  5
1BEE
330
D
100
AcDbEntity
 67
     1
  8
AM_VIS
100
AcDbLine
 10
230.3338940564884
 20
102.3427294692436
 30
0.0
 11
230.9144506400892
 21
101.3371759697785
 31
0.0
  0
LINE
  5
1BEF
330
D
100
AcDbEntity
 67
     1
  8
AM_VIS
100
AcDbLine
 10
237.3338940564884
 20
108.8427294692436
 30
0.0
 11
237.3338940564884
 21
104.8427294692436
 31
0.0
  0
LINE
  5
1BF0
330
D
100
AcDbEntity
 67
     1
  8
AM_VIS
100
AcDbLine
 10
237.3338940564884
 20
165.3427294692436
 30
0.0
 11
237.3338940564884
 21
161.3427294692436
 31
0.0
  0
LINE
  5
1BF1
330
D
100
AcDbEntity
 67
     1
  8
AM_VIS
100
AcDbLine
 10
237.3338940564884
 20
169.3427294692436
 30
0.0
 11
237.3338940564884
 21
165.3427294692436
 31
0.0
  0
LINE
  5
1BF2
330
D
100
AcDbEntity
 67
     1
  8
AM_VIS
100
AcDbLine
 10
238.3338940564883
 20
165.3427294692436
 30
0.0
 11
238.3338940564883
 21
162.3427294692436
 31
0.0
  0
LINE
  5
1BF3
330
D
100
AcDbEntity
 67
     1
  8
AM_VIS
100
AcDbLine
 10
238.3338940564883
 20
168.3427294692436
 30
0.0
 11
238.3338940564883
 21
165.3427294692436
 31
0.0
  0
LINE
  5
1BF4
330
D
100
AcDbEntity
 67
     1
  8
AM_VIS
100
AcDbLine
 10
230.3338940564884
 20
170.9718945938424
 30
0.0
 11
230.3338940564884
 21
171.8427294692436
 31
0.0
  0
LINE
  5
1BF5
330
D
100
AcDbEntity
 67
     1
  8
AM_VIS
100
AcDbLine
 10
230.3338940564884
 20
158.8427294692436
 30
0.0
 11
230.3338940564884
 21
159.7135643446447
 31
0.0
  0
LINE
  5
1BF6
330
D
100
AcDbEntity
 67
     1
  8
AM_VIS
100
AcDbLine
 10
230.3338940564884
 20
165.3427294692436
 30
0.0
 11
230.3338940564884
 21
170.9718945938424
 31
0.0
  0
LINE
  5
1BF7
330
D
100
AcDbEntity
 67
     1
  8
AM_VIS
100
AcDbLine
 10
230.3338940564884
 20
159.7135643446447
 30
0.0
 11
230.3338940564884
 21
165.3427294692436
 31
0.0
  0
LINE
  5
1BF8
330
D
100
AcDbEntity
 67
     1
  8
AM_VIS
100
AcDbLine
 10
236.8338940564884
 20
159.7135643446452
 30
0.0
 11
236.8338940564884
 21
158.8427294692441
 31
0.0
  0
LINE
  5
1BF9
330
D
100
AcDbEntity
 67
     1
  8
AM_VIS
100
AcDbLine
 10
236.8338940564884
 20
165.3427294692436
 30
0.0
 11
236.8338940564884
 21
159.7135643446452
 31
0.0
  0
LINE
  5
1BFA
330
D
100
AcDbEntity
 67
     1
  8
AM_VIS
100
AcDbLine
 10
236.8338940564884
 20
170.9718945938421
 30
0.0
 11
236.8338940564884
 21
165.3427294692436
 31
0.0
  0
LINE
  5
1BFB
330
D
100
AcDbEntity
 67
     1
  8
AM_VIS
100
AcDbLine
 10
236.8338940564884
 20
171.8427294692432
 30
0.0
 11
236.8338940564884
 21
170.9718945938421
 31
0.0
  0
LINE
  5
1BFC
330
D
100
AcDbEntity
 67
     1
  8
AM_VIS
100
AcDbLine
 10
237.3338940564884
 20
112.8427294692436
 30
0.0
 11
237.3338940564884
 21
108.8427294692436
 31
0.0
  0
LINE
  5
1BFD
330
D
100
AcDbEntity
 67
     1
  8
AM_VIS
100
AcDbLine
 10
238.3338940564883
 20
108.8427294692436
 30
0.0
 11
238.3338940564883
 21
105.8427294692436
 31
0.0
  0
LINE
  5
1BFE
330
D
100
AcDbEntity
 67
     1
  8
AM_VIS
100
AcDbLine
 10
238.3338940564883
 20
111.8427294692436
 30
0.0
 11
238.3338940564883
 21
108.8427294692436
 31
0.0
  0
LINE
  5
1BFF
330
D
100
AcDbEntity
 67
     1
  8
AM_VIS
100
AcDbLine
 10
230.3338940564884
 20
114.4718945938424
 30
0.0
 11
230.3338940564884
 21
115.3427294692436
 31
0.0
  0
LINE
  5
1C00
330
D
100
AcDbEntity
 67
     1
  8
AM_VIS
100
AcDbLine
 10
230.3338940564884
 20
102.3427294692436
 30
0.0
 11
230.3338940564884
 21
103.2135643446449
 31
0.0
  0
LINE
  5
1C01
330
D
100
AcDbEntity
 67
     1
  8
AM_VIS
100
AcDbLine
 10
230.3338940564884
 20
108.8427294692436
 30
0.0
 11
230.3338940564884
 21
114.4718945938424
 31
0.0
  0
LINE
  5
1C02
330
D
100
AcDbEntity
 67
     1
  8
AM_VIS
100
AcDbLine
 10
230.3338940564884
 20
103.2135643446449
 30
0.0
 11
230.3338940564884
 21
108.8427294692436
 31
0.0
  0
LINE
  5
1C03
330
D
100
AcDbEntity
 67
     1
  8
AM_VIS
100
AcDbLine
 10
236.8338940564884
 20
103.2135643446451
 30
0.0
 11
236.8338940564884
 21
102.3427294692441
 31
0.0
  0
LINE
  5
1C04
330
D
100
AcDbEntity
 67
     1
  8
AM_VIS
100
AcDbLine
 10
236.8338940564884
 20
108.8427294692436
 30
0.0
 11
236.8338940564884
 21
103.2135643446451
 31
0.0
  0
LINE
  5
1C05
330
D
100
AcDbEntity
 67
     1
  8
AM_VIS
100
AcDbLine
 10
236.8338940564884
 20
114.4718945938421
 30
0.0
 11
236.8338940564884
 21
108.8427294692436
 31
0.0
  0
LINE
  5
1C06
330
D
100
AcDbEntity
 67
     1
  8
AM_VIS
100
AcDbLine
 10
236.8338940564884
 20
115.3427294692432
 30
0.0
 11
236.8338940564884
 21
114.4718945938421
 31
0.0
  0
LINE
  5
1C07
330
D
100
AcDbEntity
 67
     1
  8
AM_VIS
100
AcDbLine
 10
237.3338940564884
 20
293.3554883361852
 30
0.0
 11
236.8338940564884
 21
293.3554883361852
 31
0.0
  0
LINE
  5
1C08
330
D
100
AcDbEntity
 67
     1
  8
AM_VIS
100
AcDbLine
 10
236.8338940564884
 20
285.3554883361852
 30
0.0
 11
237.3338940564884
 21
285.3554883361852
 31
0.0
  0
LINE
  5
1C09
330
D
100
AcDbEntity
 67
     1
  8
AM_VIS
100
AcDbLine
 10
230.3338940564884
 20
295.8554883361852
 30
0.0
 11
228.3338940564884
 21
295.8554883361852
 31
0.0
  0
LINE
  5
1C0A
330
D
100
AcDbEntity
 67
     1
  8
AM_VIS
100
AcDbLine
 10
228.3338940564884
 20
282.8554883361853
 30
0.0
 11
230.3338940564884
 21
282.8554883361853
 31
0.0
  0
LINE
  5
1C0B
330
D
100
AcDbEntity
 67
     1
  8
AM_VIS
100
AcDbLine
 10
238.3338940564883
 20
292.3554883361853
 30
0.0
 11
237.3338940564884
 21
293.3554883361852
 31
0.0
  0
LINE
  5
1C0C
330
D
100
AcDbEntity
 67
     1
  8
AM_VIS
100
AcDbLine
 10
237.3338940564884
 20
285.3554883361852
 30
0.0
 11
238.3338940564883
 21
286.3554883361853
 31
0.0
  0
LINE
  5
1C0D
330
D
100
AcDbEntity
 67
     1
  8
AM_VIS
100
AcDbLine
 10
230.3338940564884
 20
282.8554883361853
 30
0.0
 11
230.9144506400892
 21
282.8554883361853
 31
0.0
  0
LINE
  5
1C0E
330
D
100
AcDbEntity
 67
     1
  8
AM_VIS
100
AcDbLine
 10
236.2533374728875
 20
282.8554883361855
 30
0.0
 11
236.8338940564884
 21
282.8554883361855
 31
0.0
  0
LINE
  5
1C0F
330
D
100
AcDbEntity
 67
     1
  8
AM_VIS
100
AcDbLine
 10
230.9144506400892
 20
282.8554883361853
 30
0.0
 11
236.2533374728875
 21
282.8554883361853
 31
0.0
  0
SPLINE
  5
1C10
330
D
100
AcDbEntity
 67
     1
  8
AM_VIS
100
AcDbSpline
210
0.0
220
0.0
230
1.0
 70
    12
 71
     2
 72
     6
 73
     3
 74
     0
 42
0.0000000001
 43
0.0000000001
 40
0.0
 40
0.0
 40
0.0
 40
3.807113172039175
 40
3.807113172039175
 40
3.807113172039175
 10
230.9144506400892
 20
282.8554883361853
 30
0.0
 41
1.0
 10
230.3338940564882
 20
284.5971580869875
 30
0.0
 41
1.037954849301805
 10
230.3338940564884
 20
286.1054883361853
 30
0.0
 41
1.0
  0
SPLINE
  5
1C11
330
D
100
AcDbEntity
 67
     1
  8
AM_VIS
100
AcDbSpline
210
-0.0000000000000334
220
0.0000000000000078
230
1.0
 70
    12
 71
     2
 72
     6
 73
     3
 74
     0
 42
0.0000000001
 43
0.0000000001
 40
3.807113172039175
 40
3.807113172039175
 40
3.807113172039175
 40
7.614226344078351
 40
7.614226344078351
 40
7.614226344078351
 10
230.3338940564884
 20
286.1054883361853
 30
0.0
 41
1.0
 10
230.3338940564876
 20
287.6138185853825
 30
0.0000000000001137
 41
1.037954849301812
 10
230.9144506400892
 20
289.3554883361852
 30
0.0
 41
1.0
  0
SPLINE
  5
1C12
330
D
100
AcDbEntity
 67
     1
  8
AM_VIS
100
AcDbSpline
210
0.0
220
0.0
230
1.0
 70
    12
 71
     2
 72
     6
 73
     3
 74
     0
 42
0.0000000001
 43
0.0000000001
 40
0.0
 40
0.0
 40
0.0
 40
3.807113172039123
 40
3.807113172039123
 40
3.807113172039123
 10
236.2533374728875
 20
289.3554883361852
 30
0.0
 41
1.0
 10
236.8338940564882
 20
287.6138185853831
 30
0.0
 41
1.037954849302031
 10
236.8338940564884
 20
286.1054883361853
 30
0.0
 41
1.0
  0
SPLINE
  5
1C13
330
D
100
AcDbEntity
 67
     1
  8
AM_VIS
100
AcDbSpline
210
-0.0000000000000334
220
0.0000000000000078
230
1.0
 70
    12
 71
     2
 72
     6
 73
     3
 74
     0
 42
0.0000000001
 43
0.0000000001
 40
3.807113172039123
 40
3.807113172039123
 40
3.807113172039123
 40
7.614226344078241
 40
7.614226344078241
 40
7.614226344078241
 10
236.8338940564884
 20
286.1054883361853
 30
0.0
 41
1.0
 10
236.8338940564885
 20
284.5971580869875
 30
-0.0000000000001137
 41
1.037954849302004
 10
236.2533374728875
 20
282.8554883361853
 30
0.0
 41
1.0
  0
LINE
  5
1C14
330
D
100
AcDbEntity
 67
     1
  8
AM_VIS
100
AcDbLine
 10
230.9144506400892
 20
289.3554883361852
 30
0.0
 11
236.2533374728875
 21
289.3554883361852
 31
0.0
  0
SPLINE
  5
1C15
330
D
100
AcDbEntity
 67
     1
  8
AM_VIS
100
AcDbSpline
210
-0.0000000000000334
220
-0.0000000000000078
230
1.0
 70
    12
 71
     2
 72
     6
 73
     3
 74
     0
 42
0.0000000001
 43
0.0000000001
 40
0.0
 40
0.0
 40
0.0
 40
3.807113172039169
 40
3.807113172039169
 40
3.807113172039169
 10
230.9144506400892
 20
289.3554883361852
 30
0.0
 41
1.0
 10
230.3338940564884
 20
291.0971580869877
 30
0.0000000000001137
 41
1.037954849301896
 10
230.3338940564884
 20
292.6054883361853
 30
0.0
 41
1.0
  0
SPLINE
  5
1C16
330
D
100
AcDbEntity
 67
     1
  8
AM_VIS
100
AcDbSpline
210
0.0
220
0.0
230
1.0
 70
    12
 71
     2
 72
     6
 73
     3
 74
     0
 42
0.0000000001
 43
0.0000000001
 40
3.807113172039169
 40
3.807113172039169
 40
3.807113172039169
 40
7.614226344078343
 40
7.614226344078343
 40
7.614226344078343
 10
230.3338940564884
 20
292.6054883361853
 30
0.0
 41
1.0
 10
230.3338940564884
 20
294.113818585383
 30
0.0
 41
1.037954849301907
 10
230.9144506400892
 20
295.8554883361852
 30
0.0
 41
1.0
  0
SPLINE
  5
1C17
330
D
100
AcDbEntity
 67
     1
  8
AM_VIS
100
AcDbSpline
210
0.0
220
0.0
230
1.0
 70
    12
 71
     2
 72
     6
 73
     3
 74
     0
 42
0.0000000001
 43
0.0000000001
 40
0.0
 40
0.0
 40
0.0
 40
3.80711317203912
 40
3.80711317203912
 40
3.80711317203912
 10
236.2533374728875
 20
295.8554883361852
 30
0.0
 41
1.0
 10
236.8338940564879
 20
294.113818585383
 30
0.0
 41
1.037954849302039
 10
236.8338940564884
 20
292.6054883361853
 30
0.0
 41
1.0
  0
SPLINE
  5
1C18
330
D
100
AcDbEntity
 67
     1
  8
AM_VIS
100
AcDbSpline
210
0.0
220
0.0
230
1.0
 70
    12
 71
     2
 72
     6
 73
     3
 74
     0
 42
0.0000000001
 43
0.0000000001
 40
3.80711317203912
 40
3.80711317203912
 40
3.80711317203912
 40
7.614226344078247
 40
7.614226344078247
 40
7.614226344078247
 10
236.8338940564884
 20
292.6054883361853
 30
0.0
 41
1.0
 10
236.8338940564882
 20
291.0971580869877
 30
0.0
 41
1.037954849302031
 10
236.2533374728875
 20
289.3554883361852
 30
0.0
 41
1.0
  0
LINE
  5
1C19
330
D
100
AcDbEntity
 67
     1
  8
AM_VIS
100
AcDbLine
 10
236.2533374728875
 20
295.8554883361852
 30
0.0
 11
236.8338940564884
 21
295.8554883361852
 31
0.0
  0
LINE
  5
1C1A
330
D
100
AcDbEntity
 67
     1
  8
AM_VIS
100
AcDbLine
 10
230.9144506400892
 20
295.8554883361852
 30
0.0
 11
236.2533374728875
 21
295.8554883361852
 31
0.0
  0
LINE
  5
1C1B
330
D
100
AcDbEntity
 67
     1
  8
AM_VIS
100
AcDbLine
 10
230.3338940564884
 20
295.8554883361855
 30
0.0
 11
230.9144506400892
 21
295.8554883361855
 31
0.0
  0
LINE
  5
1C1C
330
D
100
AcDbEntity
 67
     1
  8
AM_VIS
100
AcDbLine
 10
237.3338940564884
 20
236.8554883361853
 30
0.0
 11
236.8338940564884
 21
236.8554883361853
 31
0.0
  0
LINE
  5
1C1D
330
D
100
AcDbEntity
 67
     1
  8
AM_VIS
100
AcDbLine
 10
236.8338940564884
 20
228.8554883361852
 30
0.0
 11
237.3338940564884
 21
228.8554883361852
 31
0.0
  0
LINE
  5
1C1E
330
D
100
AcDbEntity
 67
     1
  8
AM_VIS
100
AcDbLine
 10
230.3338940564884
 20
239.3554883361852
 30
0.0
 11
228.3338940564884
 21
239.3554883361852
 31
0.0
  0
LINE
  5
1C1F
330
D
100
AcDbEntity
 67
     1
  8
AM_VIS
100
AcDbLine
 10
228.3338940564884
 20
226.3554883361853
 30
0.0
 11
230.3338940564884
 21
226.3554883361853
 31
0.0
  0
LINE
  5
1C20
330
D
100
AcDbEntity
 67
     1
  8
AM_VIS
100
AcDbLine
 10
238.3338940564883
 20
235.8554883361853
 30
0.0
 11
237.3338940564884
 21
236.8554883361853
 31
0.0
  0
LINE
  5
1C21
330
D
100
AcDbEntity
 67
     1
  8
AM_VIS
100
AcDbLine
 10
237.3338940564884
 20
228.8554883361852
 30
0.0
 11
238.3338940564883
 21
229.8554883361853
 31
0.0
  0
LINE
  5
1C22
330
D
100
AcDbEntity
 67
     1
  8
AM_VIS
100
AcDbLine
 10
230.3338940564884
 20
226.3554883361853
 30
0.0
 11
230.9144506400892
 21
226.3554883361853
 31
0.0
  0
LINE
  5
1C23
330
D
100
AcDbEntity
 67
     1
  8
AM_VIS
100
AcDbLine
 10
236.2533374728875
 20
226.3554883361855
 30
0.0
 11
236.8338940564884
 21
226.3554883361855
 31
0.0
  0
LINE
  5
1C24
330
D
100
AcDbEntity
 67
     1
  8
AM_VIS
100
AcDbLine
 10
230.9144506400892
 20
226.3554883361853
 30
0.0
 11
236.2533374728875
 21
226.3554883361853
 31
0.0
  0
SPLINE
  5
1C25
330
D
100
AcDbEntity
 67
     1
  8
AM_VIS
100
AcDbSpline
210
0.0
220
0.0
230
1.0
 70
    12
 71
     2
 72
     6
 73
     3
 74
     0
 42
0.0000000001
 43
0.0000000001
 40
0.0
 40
0.0
 40
0.0
 40
3.807113172039172
 40
3.807113172039172
 40
3.807113172039172
 10
230.9144506400892
 20
226.3554883361853
 30
0.0
 41
1.0
 10
230.3338940564884
 20
228.0971580869874
 30
0.0
 41
1.037954849301907
 10
230.3338940564884
 20
229.6054883361853
 30
0.0
 41
1.0
  0
SPLINE
  5
1C26
330
D
100
AcDbEntity
 67
     1
  8
AM_VIS
100
AcDbSpline
210
0.0000000000000334
220
-0.0000000000000078
230
-1.0
 70
    12
 71
     2
 72
     6
 73
     3
 74
     0
 42
0.0000000001
 43
0.0000000001
 40
3.807113172039172
 40
3.807113172039172
 40
3.807113172039172
 40
7.614226344078348
 40
7.614226344078348
 40
7.614226344078348
 10
230.3338940564884
 20
229.6054883361853
 30
0.0
 41
1.0
 10
230.3338940564876
 20
231.1138185853821
 30
0.0000000000001137
 41
1.037954849301812
 10
230.9144506400892
 20
232.8554883361853
 30
0.0
 41
1.0
  0
SPLINE
  5
1C27
330
D
100
AcDbEntity
 67
     1
  8
AM_VIS
100
AcDbSpline
210
0.0
220
0.0
230
1.0
 70
    12
 71
     2
 72
     6
 73
     3
 74
     0
 42
0.0000000001
 43
0.0000000001
 40
0.0
 40
0.0
 40
0.0
 40
3.807113172039123
 40
3.807113172039123
 40
3.807113172039123
 10
236.2533374728875
 20
232.8554883361853
 30
0.0
 41
1.0
 10
236.8338940564882
 20
231.1138185853828
 30
0.0
 41
1.037954849302031
 10
236.8338940564884
 20
229.6054883361853
 30
0.0
 41
1.0
  0
SPLINE
  5
1C28
330
D
100
AcDbEntity
 67
     1
  8
AM_VIS
100
AcDbSpline
210
0.0
220
0.0
230
1.0
 70
    12
 71
     2
 72
     6
 73
     3
 74
     0
 42
0.0000000001
 43
0.0000000001
 40
3.807113172039123
 40
3.807113172039123
 40
3.807113172039123
 40
7.614226344078239
 40
7.614226344078239
 40
7.614226344078239
 10
236.8338940564884
 20
229.6054883361853
 30
0.0
 41
1.0
 10
236.8338940564882
 20
228.0971580869874
 30
0.0
 41
1.037954849302031
 10
236.2533374728875
 20
226.3554883361853
 30
0.0
 41
1.0
  0
LINE
  5
1C29
330
D
100
AcDbEntity
 67
     1
  8
AM_VIS
100
AcDbLine
 10
230.9144506400892
 20
232.8554883361853
 30
0.0
 11
236.2533374728875
 21
232.8554883361853
 31
0.0
  0
SPLINE
  5
1C2A
330
D
100
AcDbEntity
 67
     1
  8
AM_VIS
100
AcDbSpline
210
-0.0000000000000334
220
-0.0000000000000078
230
1.0
 70
    12
 71
     2
 72
     6
 73
     3
 74
     0
 42
0.0000000001
 43
0.0000000001
 40
0.0
 40
0.0
 40
0.0
 40
3.807113172039175
 40
3.807113172039175
 40
3.807113172039175
 10
230.9144506400892
 20
232.8554883361853
 30
0.0
 41
1.0
 10
230.3338940564876
 20
234.597158086987
 30
0.0000000000001137
 41
1.037954849301812
 10
230.3338940564884
 20
236.1054883361853
 30
0.0
 41
1.0
  0
SPLINE
  5
1C2B
330
D
100
AcDbEntity
 67
     1
  8
AM_VIS
100
AcDbSpline
210
0.0
220
0.0
230
1.0
 70
    12
 71
     2
 72
     6
 73
     3
 74
     0
 42
0.0000000001
 43
0.0000000001
 40
3.807113172039175
 40
3.807113172039175
 40
3.807113172039175
 40
7.614226344078348
 40
7.614226344078348
 40
7.614226344078348
 10
230.3338940564884
 20
236.1054883361853
 30
0.0
 41
1.0
 10
230.3338940564884
 20
237.6138185853831
 30
0.0
 41
1.037954849301898
 10
230.9144506400892
 20
239.3554883361852
 30
0.0
 41
1.0
  0
SPLINE
  5
1C2C
330
D
100
AcDbEntity
 67
     1
  8
AM_VIS
100
AcDbSpline
210
0.0
220
0.0
230
1.0
 70
    12
 71
     2
 72
     6
 73
     3
 74
     0
 42
0.0000000001
 43
0.0000000001
 40
0.0
 40
0.0
 40
0.0
 40
3.80711317203912
 40
3.80711317203912
 40
3.80711317203912
 10
236.2533374728875
 20
239.3554883361852
 30
0.0
 41
1.0
 10
236.8338940564882
 20
237.6138185853831
 30
0.0
 41
1.037954849302031
 10
236.8338940564884
 20
236.1054883361853
 30
0.0
 41
1.0
  0
SPLINE
  5
1C2D
330
D
100
AcDbEntity
 67
     1
  8
AM_VIS
100
AcDbSpline
210
0.0
220
0.0
230
1.0
 70
    12
 71
     2
 72
     6
 73
     3
 74
     0
 42
0.0000000001
 43
0.0000000001
 40
3.80711317203912
 40
3.80711317203912
 40
3.80711317203912
 40
7.614226344078246
 40
7.614226344078246
 40
7.614226344078246
 10
236.8338940564884
 20
236.1054883361853
 30
0.0
 41
1.0
 10
236.8338940564882
 20
234.5971580869877
 30
0.0
 41
1.037954849302031
 10
236.2533374728875
 20
232.8554883361853
 30
0.0
 41
1.0
  0
LINE
  5
1C2E
330
D
100
AcDbEntity
 67
     1
  8
AM_VIS
100
AcDbLine
 10
236.2533374728875
 20
239.3554883361852
 30
0.0
 11
236.8338940564884
 21
239.3554883361852
 31
0.0
  0
LINE
  5
1C2F
330
D
100
AcDbEntity
 67
     1
  8
AM_VIS
100
AcDbLine
 10
230.9144506400892
 20
239.3554883361852
 30
0.0
 11
236.2533374728875
 21
239.3554883361852
 31
0.0
  0
LINE
  5
1C30
330
D
100
AcDbEntity
 67
     1
  8
AM_VIS
100
AcDbLine
 10
230.3338940564884
 20
239.3554883361852
 30
0.0
 11
230.9144506400892
 21
239.3554883361852
 31
0.0
  0
LINE
  5
1C31
330
D
100
AcDbEntity
 67
     1
  8
AM_VIS
100
AcDbLine
 10
237.3338940564884
 20
293.3554883361852
 30
0.0
 11
237.3338940564884
 21
285.3554883361852
 31
0.0
  0
LINE
  5
1C32
330
D
100
AcDbEntity
 67
     1
  8
AM_VIS
100
AcDbLine
 10
238.3338940564883
 20
292.3554883361853
 30
0.0
 11
238.3338940564883
 21
286.3554883361853
 31
0.0
  0
LINE
  5
1C33
330
D
100
AcDbEntity
 67
     1
  8
AM_VIS
100
AcDbLine
 10
230.3338940564884
 20
292.6054883361853
 30
0.0
 11
230.3338940564884
 21
295.8554883361852
 31
0.0
  0
LINE
  5
1C34
330
D
100
AcDbEntity
 67
     1
  8
AM_VIS
100
AcDbLine
 10
230.3338940564884
 20
286.1054883361853
 30
0.0
 11
230.3338940564884
 21
292.6054883361853
 31
0.0
  0
LINE
  5
1C35
330
D
100
AcDbEntity
 67
     1
  8
AM_VIS
100
AcDbLine
 10
230.3338940564884
 20
282.8554883361853
 30
0.0
 11
230.3338940564884
 21
286.1054883361853
 31
0.0
  0
LINE
  5
1C36
330
D
100
AcDbEntity
 67
     1
  8
AM_VIS
100
AcDbLine
 10
236.8338940564884
 20
286.1054883361855
 30
0.0
 11
236.8338940564884
 21
282.8554883361857
 31
0.0
  0
LINE
  5
1C37
330
D
100
AcDbEntity
 67
     1
  8
AM_VIS
100
AcDbLine
 10
236.8338940564884
 20
292.605488336185
 30
0.0
 11
236.8338940564884
 21
286.1054883361855
 31
0.0
  0
LINE
  5
1C38
330
D
100
AcDbEntity
 67
     1
  8
AM_VIS
100
AcDbLine
 10
236.8338940564884
 20
295.8554883361848
 30
0.0
 11
236.8338940564884
 21
292.605488336185
 31
0.0
  0
LINE
  5
1C39
330
D
100
AcDbEntity
 67
     1
  8
AM_VIS
100
AcDbLine
 10
237.3338940564884
 20
236.8554883361853
 30
0.0
 11
237.3338940564884
 21
228.8554883361852
 31
0.0
  0
LINE
  5
1C3A
330
D
100
AcDbEntity
 67
     1
  8
AM_VIS
100
AcDbLine
 10
238.3338940564883
 20
235.8554883361853
 30
0.0
 11
238.3338940564883
 21
229.8554883361853
 31
0.0
  0
LINE
  5
1C3B
330
D
100
AcDbEntity
 67
     1
  8
AM_VIS
100
AcDbLine
 10
230.3338940564884
 20
236.1054883361853
 30
0.0
 11
230.3338940564884
 21
239.3554883361852
 31
0.0
  0
LINE
  5
1C3C
330
D
100
AcDbEntity
 67
     1
  8
AM_VIS
100
AcDbLine
 10
230.3338940564884
 20
229.6054883361853
 30
0.0
 11
230.3338940564884
 21
236.1054883361853
 31
0.0
  0
LINE
  5
1C3D
330
D
100
AcDbEntity
 67
     1
  8
AM_VIS
100
AcDbLine
 10
230.3338940564884
 20
226.3554883361853
 30
0.0
 11
230.3338940564884
 21
229.6054883361853
 31
0.0
  0
LINE
  5
1C3E
330
D
100
AcDbEntity
 67
     1
  8
AM_VIS
100
AcDbLine
 10
236.8338940564884
 20
229.6054883361855
 30
0.0
 11
236.8338940564884
 21
226.3554883361857
 31
0.0
  0
LINE
  5
1C3F
330
D
100
AcDbEntity
 67
     1
  8
AM_VIS
100
AcDbLine
 10
236.8338940564884
 20
236.105488336185
 30
0.0
 11
236.8338940564884
 21
229.6054883361855
 31
0.0
  0
LINE
  5
1C40
330
D
100
AcDbEntity
 67
     1
  8
AM_VIS
100
AcDbLine
 10
236.8338940564884
 20
239.3554883361848
 30
0.0
 11
236.8338940564884
 21
236.105488336185
 31
0.0
  0
LINE
  5
1C41
330
D
100
AcDbEntity
 67
     1
  8
AM_VIS
100
AcDbLine
 10
220.3338940564884
 20
298.6054883361853
 30
0.0
 11
220.3338940564884
 21
223.6054883361853
 31
0.0
  0
LINE
  5
1C42
330
D
100
AcDbEntity
 67
     1
  8
AM_VIS
100
AcDbLine
 10
220.3338940564884
 20
104.0208380809362
 30
0.0
 11
220.3338940564884
 21
170.1646208575511
 31
0.0
  0
LINE
  5
1C43
330
D
100
AcDbEntity
 67
     1
  8
AM_VIS
100
AcDbLine
 10
244.3338940564883
 20
170.1646208575511
 30
0.0
 11
244.3338940564883
 21
104.0208380809362
 31
0.0
  0
LINE
  5
1C44
330
D
100
AcDbEntity
 67
     1
  8
AM_VIS
100
AcDbLine
 10
228.3338940564884
 20
99.59272946924361
 30
0.0
 11
228.3338940564884
 21
174.5927294692436
 31
0.0
  0
LINE
  5
1C45
330
D
100
AcDbEntity
 67
     1
  8
AM_VIS
100
AcDbLine
 10
310.3338940564884
 20
104.0208380809362
 30
0.0
 11
310.3338940564884
 21
170.1646208575511
 31
0.0
  0
LINE
  5
1C46
330
D
100
AcDbEntity
 67
     1
  8
AM_VIS
100
AcDbLine
 10
310.3338940564884
 20
99.59272946924366
 30
0.0
 11
244.3338940564883
 21
99.59272946924366
 31
0.0
  0
LINE
  5
1C47
330
D
100
AcDbEntity
 67
     1
  8
AM_VIS
100
AcDbLine
 10
244.3338940564883
 20
104.0208380809362
 30
0.0
 11
310.3338940564884
 21
104.0208380809362
 31
0.0
  0
LINE
  5
1C48
330
D
100
AcDbEntity
 67
     1
  8
AM_VIS
100
AcDbLine
 10
310.3338940564884
 20
170.1646208575511
 30
0.0
 11
244.3338940564883
 21
170.1646208575511
 31
0.0
  0
LINE
  5
1C49
330
D
100
AcDbEntity
 67
     1
  8
AM_VIS
100
AcDbLine
 10
244.3338940564883
 20
174.5927294692436
 30
0.0
 11
310.3338940564884
 21
174.5927294692436
 31
0.0
  0
LINE
  5
1C4A
330
D
100
AcDbEntity
 67
     1
  8
AM_VIS
100
AcDbLine
 10
220.3338940564884
 20
104.0208380809362
 30
0.0
 11
228.3338940564884
 21
104.0208380809362
 31
0.0
  0
LINE
  5
1C4B
330
D
100
AcDbEntity
 67
     1
  8
AM_VIS
100
AcDbLine
 10
228.3338940564884
 20
99.59272946924366
 30
0.0
 11
220.3338940564884
 21
99.59272946924366
 31
0.0
  0
LINE
  5
1C4C
330
D
100
AcDbEntity
 67
     1
  8
AM_VIS
100
AcDbLine
 10
220.3338940564884
 20
174.5927294692436
 30
0.0
 11
228.3338940564884
 21
174.5927294692436
 31
0.0
  0
LINE
  5
1C4D
330
D
100
AcDbEntity
 67
     1
  8
AM_VIS
100
AcDbLine
 10
228.3338940564884
 20
170.1646208575511
 30
0.0
 11
220.3338940564884
 21
170.1646208575511
 31
0.0
  0
LINE
  5
1C4E
330
D
100
AcDbEntity
 67
     1
  8
AM_VIS
100
AcDbLine
 10
320.3338940564884
 20
158.0927294692436
 30
0.0
 11
318.8338940564884
 21
159.5927294692437
 31
0.0
  0
LINE
  5
1C4F
330
D
100
AcDbEntity
 67
     1
  8
AM_VIS
100
AcDbLine
 10
320.3338940564884
 20
116.0927294692436
 30
0.0
 11
318.8338940564884
 21
114.5927294692436
 31
0.0
  0
LINE
  5
1C50
330
D
100
AcDbEntity
 67
     1
  8
AM_VIS
100
AcDbLine
 10
318.8338940564884
 20
114.5927294692436
 30
0.0
 11
310.3338940564884
 21
114.5927294692436
 31
0.0
  0
LINE
  5
1C51
330
D
100
AcDbEntity
 67
     1
  8
AM_VIS
100
AcDbLine
 10
318.8338940564884
 20
159.5927294692437
 30
0.0
 11
310.3338940564884
 21
159.5927294692437
 31
0.0
  0
ARC
  5
1C52
330
D
100
AcDbEntity
 67
     1
  8
AM_VIS
100
AcDbCircle
 10
251.3249754789135
 20
117.0955211276635
 30
0.0
 40
4.292500571360893
100
AcDbArc
 50
335.6237834329586
 51
349.6142955559237
  0
ARC
  5
1C53
330
D
100
AcDbEntity
 67
     1
  8
AM_VIS
100
AcDbCircle
 10
251.3111919446886
 20
117.0947896266324
 30
0.0
 40
4.305927604637736
100
AcDbArc
 50
349.6569331406517
 51
359.9725870120393
  0
ARC
  5
1C54
330
D
100
AcDbEntity
 67
     1
  8
AM_VIS
100
AcDbCircle
 10
278.3338940564884
 20
137.0927294692436
 30
0.0
 40
24.0
100
AcDbArc
 50
0.0
 51
180.0
  0
ARC
  5
1C55
330
D
100
AcDbEntity
 67
     1
  8
AM_VIS
100
AcDbCircle
 10
251.3338940564884
 20
117.0927294692436
 30
0.0
 40
4.883225000000001
100
AcDbArc
 50
180.0
 51
0.0
  0
LINE
  5
1C56
330
D
100
AcDbEntity
 67
     1
  8
AM_VIS
100
AcDbLine
 10
310.3338940564884
 20
99.59272946924366
 30
0.0
 11
310.3338940564884
 21
104.0208380809363
 31
0.0
  0
LINE
  5
1C57
330
D
100
AcDbEntity
 67
     1
  8
AM_VIS
100
AcDbLine
 10
244.3338940564883
 20
104.0208380809362
 30
0.0
 11
244.3338940564883
 21
99.59272946924366
 31
0.0
  0
LINE
  5
1C58
330
D
100
AcDbEntity
 67
     1
  8
AM_VIS
100
AcDbLine
 10
310.3338940564884
 20
170.1646208575511
 30
0.0
 11
310.3338940564884
 21
174.5927294692436
 31
0.0
  0
LINE
  5
1C59
330
D
100
AcDbEntity
 67
     1
  8
AM_VIS
100
AcDbLine
 10
244.3338940564883
 20
174.5927294692436
 30
0.0
 11
244.3338940564883
 21
170.1646208575511
 31
0.0
  0
LINE
  5
1C5A
330
D
100
AcDbEntity
 67
     1
  8
AM_VIS
100
AcDbLine
 10
220.3338940564884
 20
104.0208380809362
 30
0.0
 11
220.3338940564884
 21
99.59272946924366
 31
0.0
  0
LINE
  5
1C5B
330
D
100
AcDbEntity
 67
     1
  8
AM_VIS
100
AcDbLine
 10
220.3338940564884
 20
174.5927294692436
 30
0.0
 11
220.3338940564884
 21
170.1646208575511
 31
0.0
  0
LINE
  5
1C5C
330
D
100
AcDbEntity
 67
     1
  8
AM_VIS
100
AcDbLine
 10
318.8338940564884
 20
114.5927294692436
 30
0.0
 11
318.8338940564884
 21
159.5927294692437
 31
0.0
  0
LINE
  5
1C5D
330
D
100
AcDbEntity
 67
     1
  8
AM_VIS
100
AcDbLine
 10
320.3338940564884
 20
158.0927294692436
 30
0.0
 11
320.3338940564884
 21
116.0927294692436
 31
0.0
  0
ARC
  5
1C5E
330
D
100
AcDbEntity
 67
     1
  8
AM_VIS
100
AcDbCircle
 10
251.3338940564884
 20
117.0927294692436
 30
0.0
 40
4.883225000000001
100
AcDbArc
 50
0.0
 51
180.0
  0
ARC
  5
1C5F
330
D
100
AcDbEntity
 67
     1
  8
AM_VIS
100
AcDbCircle
 10
251.3338940564884
 20
117.0927294692436
 30
0.0
 40
4.283225000000001
100
AcDbArc
 50
180.0
 51
0.0
  0
ARC
  5
1C60
330
D
100
AcDbEntity
 67
     1
  8
AM_VIS
100
AcDbCircle
 10
251.3338940564884
 20
117.0927294692436
 30
0.0
 40
4.283225000000001
100
AcDbArc
 50
0.0
 51
180.0
  0
ARC
  5
1C61
330
D
100
AcDbEntity
 67
     1
  8
AM_VIS
100
AcDbCircle
 10
278.3338940564884
 20
137.0927294692436
 30
0.0
 40
24.0
100
AcDbArc
 50
180.0
 51
0.0
  0
ARC
  5
1C62
330
D
100
AcDbEntity
 67
     1
  8
AM_VIS
100
AcDbCircle
 10
258.3338940564884
 20
137.0927294692436
 30
0.0
 40
3.199999999999999
100
AcDbArc
 50
180.0
 51
0.0
  0
ARC
  5
1C63
330
D
100
AcDbEntity
 67
     1
  8
AM_VIS
100
AcDbCircle
 10
278.3338940564884
 20
137.0927294692436
 30
0.0
 40
24.0
100
AcDbArc
 50
270.0
 51
90.0
  0
ARC
  5
1C64
330
D
100
AcDbEntity
 67
     1
  8
AM_VIS
100
AcDbCircle
 10
298.3338940564884
 20
137.0927294692436
 30
0.0
 40
3.199999999999999
100
AcDbArc
 50
180.0
 51
0.0
  0
ARC
  5
1C65
330
D
100
AcDbEntity
 67
     1
  8
AM_VIS
100
AcDbCircle
 10
298.3338940564884
 20
137.0927294692436
 30
0.0
 40
3.199999999999999
100
AcDbArc
 50
0.0
 51
180.0
  0
ARC
  5
1C66
330
D
100
AcDbEntity
 67
     1
  8
AM_VIS
100
AcDbCircle
 10
258.3338940564884
 20
137.0927294692436
 30
0.0
 40
3.199999999999999
100
AcDbArc
 50
0.0
 51
180.0
  0
ARC
  5
1C67
330
D
100
AcDbEntity
 67
     1
  8
AM_VIS
100
AcDbCircle
 10
278.3338940564884
 20
137.0927294692436
 30
0.0
 40
24.0
100
AcDbArc
 50
90.0
 51
270.0
  0
LINE
  5
1C68
330
D
100
AcDbEntity
 67
     1
  8
AM_VIS
100
AcDbLine
 10
336.3338940564883
 20
126.0927294692438
 30
0.0
 11
335.3338940564884
 21
125.3181278223971
 31
0.0
  0
LINE
  5
1C69
330
D
100
AcDbEntity
 67
     1
  8
AM_VIS
100
AcDbLine
 10
336.3338940564883
 20
148.0927294692435
 30
0.0
 11
335.3338940564884
 21
148.8673311160902
 31
0.0
  0
LINE
  5
1C6A
330
D
100
AcDbEntity
 67
     1
  8
AM_VIS
100
AcDbLine
 10
336.3338940564883
 20
137.0927294692436
 30
0.0
 11
336.3338940564883
 21
126.0927294692438
 31
0.0
  0
LINE
  5
1C6B
330
D
100
AcDbEntity
 67
     1
  8
AM_VIS
100
AcDbLine
 10
336.3338940564883
 20
148.0927294692436
 30
0.0
 11
336.3338940564883
 21
137.0927294692436
 31
0.0
  0
LINE
  5
1C6C
330
D
100
AcDbEntity
 67
     1
  8
AM_VIS
100
AcDbLine
 10
258.9118430161725
 20
136.0927294692436
 30
0.0
 11
259.4888940564883
 21
137.0927294692436
 31
0.0
  0
LINE
  5
1C6D
330
D
100
AcDbEntity
 67
     1
  8
AM_VIS
100
AcDbLine
 10
259.4888940564883
 20
137.0927294692436
 30
0.0
 11
258.9118430161725
 21
138.0927294692436
 31
0.0
  0
LINE
  5
1C6E
330
D
100
AcDbEntity
 67
     1
  8
AM_VIS
100
AcDbLine
 10
258.9118430161725
 20
138.0927294692436
 30
0.0
 11
257.7559450968042
 21
138.0927294692436
 31
0.0
  0
LINE
  5
1C6F
330
D
100
AcDbEntity
 67
     1
  8
AM_VIS
100
AcDbLine
 10
257.7559450968042
 20
138.0927294692436
 30
0.0
 11
257.1788940564884
 21
137.0927294692436
 31
0.0
  0
LINE
  5
1C70
330
D
100
AcDbEntity
 67
     1
  8
AM_VIS
100
AcDbLine
 10
257.1788940564884
 20
137.0927294692436
 30
0.0
 11
257.7559450968042
 21
136.0927294692436
 31
0.0
  0
LINE
  5
1C71
330
D
100
AcDbEntity
 67
     1
  8
AM_VIS
100
AcDbLine
 10
257.7559450968042
 20
136.0927294692436
 30
0.0
 11
258.9118430161725
 21
136.0927294692436
 31
0.0
  0
ARC
  5
1C72
330
D
100
AcDbEntity
 67
     1
  8
AM_VIS
100
AcDbCircle
 10
258.3338940564884
 20
137.0927294692436
 30
0.0
 40
2.849999999999995
100
AcDbArc
 50
270.0
 51
90.0
  0
ARC
  5
1C73
330
D
100
AcDbEntity
 67
     1
  8
AM_VIS
100
AcDbCircle
 10
258.3338940564884
 20
137.0927294692436
 30
0.0
 40
2.849999999999995
100
AcDbArc
 50
90.0
 51
270.0
  0
LINE
  5
1C74
330
D
100
AcDbEntity
 67
     1
  8
AM_VIS
100
AcDbLine
 10
298.9118430161725
 20
136.0927294692436
 30
0.0
 11
299.4888940564883
 21
137.0927294692436
 31
0.0
  0
LINE
  5
1C75
330
D
100
AcDbEntity
 67
     1
  8
AM_VIS
100
AcDbLine
 10
299.4888940564883
 20
137.0927294692436
 30
0.0
 11
298.9118430161725
 21
138.0927294692436
 31
0.0
  0
LINE
  5
1C76
330
D
100
AcDbEntity
 67
     1
  8
AM_VIS
100
AcDbLine
 10
298.9118430161725
 20
138.0927294692436
 30
0.0
 11
297.7559450968042
 21
138.0927294692436
 31
0.0
  0
LINE
  5
1C77
330
D
100
AcDbEntity
 67
     1
  8
AM_VIS
100
AcDbLine
 10
297.7559450968042
 20
138.0927294692436
 30
0.0
 11
297.1788940564884
 21
137.0927294692436
 31
0.0
  0
LINE
  5
1C78
330
D
100
AcDbEntity
 67
     1
  8
AM_VIS
100
AcDbLine
 10
297.1788940564884
 20
137.0927294692436
 30
0.0
 11
297.7559450968042
 21
136.0927294692436
 31
0.0
  0
LINE
  5
1C79
330
D
100
AcDbEntity
 67
     1
  8
AM_VIS
100
AcDbLine
 10
297.7559450968042
 20
136.0927294692436
 30
0.0
 11
298.9118430161725
 21
136.0927294692436
 31
0.0
  0
ARC
  5
1C7A
330
D
100
AcDbEntity
 67
     1
  8
AM_VIS
100
AcDbCircle
 10
298.3338940564884
 20
137.0927294692436
 30
0.0
 40
2.849999999999995
100
AcDbArc
 50
270.0
 51
90.0
  0
ARC
  5
1C7B
330
D
100
AcDbEntity
 67
     1
  8
AM_VIS
100
AcDbCircle
 10
298.3338940564884
 20
137.0927294692436
 30
0.0
 40
2.849999999999995
100
AcDbArc
 50
90.0
 51
270.0
  0
LINE
  5
1C7C
330
D
100
AcDbEntity
 67
     1
  8
AM_VIS
100
AcDbLine
 10
270.7290073659386
 20
278.868858513292
 30
0.0
 11
270.9008454303917
 21
278.9255512592412
 31
0.0
  0
LINE
  5
1C7D
330
D
100
AcDbEntity
 67
     1
  8
AM_VIS
100
AcDbLine
 10
262.2876641622109
 20
238.2582479368925
 30
0.0
 11
262.4226805526397
 21
238.1377781807136
 31
0.0
  0
LINE
  5
1C7E
330
D
100
AcDbEntity
 67
     1
  8
AM_VIS
100
AcDbLine
 10
301.8131725766066
 20
251.1326658124742
 30
0.0
 11
301.8499942522045
 21
251.3098283144336
 31
0.0
  0
LINE
  5
1C7F
330
D
100
AcDbEntity
 67
     1
  8
AM_VIS
100
AcDbLine
 10
228.3338940564884
 20
228.0335969478778
 30
0.0
 11
228.3338940564884
 21
294.1773797244926
 31
0.0
  0
LINE
  5
1C80
330
D
100
AcDbEntity
 67
     1
  8
AM_VIS
100
AcDbLine
 10
220.3338940564884
 20
228.0335969478778
 30
0.0
 11
220.3338940564884
 21
294.1773797244926
 31
0.0
  0
LINE
  5
1C81
330
D
100
AcDbEntity
 67
     1
  8
AM_VIS
100
AcDbLine
 10
244.3338940564883
 20
294.1773797244926
 30
0.0
 11
244.3338940564883
 21
228.0335969478778
 31
0.0
  0
LINE
  5
1C82
330
D
100
AcDbEntity
 67
     1
  8
AM_VIS
100
AcDbLine
 10
310.3338940564884
 20
228.0335969478778
 30
0.0
 11
310.3338940564884
 21
294.1773797244926
 31
0.0
  0
LINE
  5
1C83
330
D
100
AcDbEntity
 67
     1
  8
AM_VIS
100
AcDbLine
 10
310.3338940564884
 20
294.1773797244926
 30
0.0
 11
244.3338940564883
 21
294.1773797244926
 31
0.0
  0
LINE
  5
1C84
330
D
100
AcDbEntity
 67
     1
  8
AM_VIS
100
AcDbLine
 10
244.3338940564883
 20
298.6054883361853
 30
0.0
 11
310.3338940564884
 21
298.6054883361853
 31
0.0
  0
LINE
  5
1C85
330
D
100
AcDbEntity
 67
     1
  8
AM_VIS
100
AcDbLine
 10
220.3338940564884
 20
298.6054883361853
 30
0.0
 11
228.3338940564884
 21
298.6054883361853
 31
0.0
  0
LINE
  5
1C86
330
D
100
AcDbEntity
 67
     1
  8
AM_VIS
100
AcDbLine
 10
228.3338940564884
 20
294.1773797244926
 30
0.0
 11
220.3338940564884
 21
294.1773797244926
 31
0.0
  0
LINE
  5
1C87
330
D
100
AcDbEntity
 67
     1
  8
AM_VIS
100
AcDbLine
 10
310.3338940564884
 20
223.6054883361853
 30
0.0
 11
244.3338940564883
 21
223.6054883361853
 31
0.0
  0
LINE
  5
1C88
330
D
100
AcDbEntity
 67
     1
  8
AM_VIS
100
AcDbLine
 10
244.3338940564883
 20
228.0335969478778
 30
0.0
 11
310.3338940564884
 21
228.0335969478778
 31
0.0
  0
LINE
  5
1C89
330
D
100
AcDbEntity
 67
     1
  8
AM_VIS
100
AcDbLine
 10
220.3338940564884
 20
228.0335969478778
 30
0.0
 11
228.3338940564884
 21
228.0335969478778
 31
0.0
  0
LINE
  5
1C8A
330
D
100
AcDbEntity
 67
     1
  8
AM_VIS
100
AcDbLine
 10
228.3338940564884
 20
223.6054883361853
 30
0.0
 11
220.3338940564884
 21
223.6054883361853
 31
0.0
  0
LINE
  5
1C8B
330
D
100
AcDbEntity
 67
     1
  8
AM_VIS
100
AcDbLine
 10
301.8131725766066
 20
261.0783108598962
 30
0.0
 11
301.8499942522045
 21
260.901148357937
 31
0.0
  0
LINE
  5
1C8C
330
D
100
AcDbEntity
 67
     1
  8
AM_VIS
100
AcDbLine
 10
270.7290073659387
 20
233.3421181590785
 30
0.0
 11
270.9008454303917
 21
233.2854254131293
 31
0.0
  0
LINE
  5
1C8D
330
D
100
AcDbEntity
 67
     1
  8
AM_VIS
100
AcDbLine
 10
262.2876641622109
 20
273.9527287354779
 30
0.0
 11
262.4226805526397
 21
274.0731984916569
 31
0.0
  0
LINE
  5
1C8E
330
D
100
AcDbEntity
 67
     1
  8
AM_VIS
100
AcDbLine
 10
318.8338940564884
 20
238.6054883361853
 30
0.0
 11
310.3338940564884
 21
238.6054883361853
 31
0.0
  0
LINE
  5
1C8F
330
D
100
AcDbEntity
 67
     1
  8
AM_VIS
100
AcDbLine
 10
320.3338940564884
 20
282.1054883361853
 30
0.0
 11
318.8338940564884
 21
283.6054883361853
 31
0.0
  0
LINE
  5
1C90
330
D
100
AcDbEntity
 67
     1
  8
AM_VIS
100
AcDbLine
 10
320.3338940564884
 20
240.1054883361853
 30
0.0
 11
318.8338940564884
 21
238.6054883361853
 31
0.0
  0
LINE
  5
1C91
330
D
100
AcDbEntity
 67
     1
  8
AM_VIS
100
AcDbLine
 10
318.8338940564884
 20
283.6054883361853
 30
0.0
 11
310.3338940564884
 21
283.6054883361853
 31
0.0
  0
LINE
  5
1C92
330
D
100
AcDbEntity
 67
     1
  8
AM_VIS
100
AcDbLine
 10
320.3338940564884
 20
282.1054883361853
 30
0.0
 11
320.3338940564884
 21
261.1054883361853
 31
0.0
  0
ARC
  5
1C93
330
D
100
AcDbEntity
 67
     1
  8
AM_VIS
100
AcDbCircle
 10
278.3338940564884
 20
256.1054883361852
 30
0.0
 40
24.0
100
AcDbArc
 50
131.9583135925997
 51
228.0416864074002
  0
ARC
  5
1C94
330
D
100
AcDbEntity
 67
     1
  8
AM_VIS
100
AcDbCircle
 10
266.3338940564884
 20
235.3208786453587
 30
0.0
 40
5.0
100
AcDbArc
 50
144.0208432037024
 51
335.9791567963012
  0
ARC
  5
1C95
330
D
100
AcDbEntity
 67
     1
  8
AM_VIS
100
AcDbCircle
 10
278.3338940564884
 20
256.1054883361852
 30
0.0
 40
24.0
100
AcDbArc
 50
251.958313592602
 51
348.0416864073962
  0
ARC
  5
1C96
330
D
100
AcDbEntity
 67
     1
  8
AM_VIS
100
AcDbCircle
 10
302.3338940564884
 20
256.1054883361852
 30
0.0
 40
5.0
100
AcDbArc
 50
264.0208432037009
 51
95.97915679629911
  0
ARC
  5
1C97
330
D
100
AcDbEntity
 67
     1
  8
AM_VIS
100
AcDbCircle
 10
278.3338940564884
 20
256.1054883361852
 30
0.0
 40
24.0
100
AcDbArc
 50
11.95831359260376
 51
108.041686407398
  0
ARC
  5
1C98
330
D
100
AcDbEntity
 67
     1
  8
AM_VIS
100
AcDbCircle
 10
266.3338940564884
 20
276.8900980270118
 30
0.0
 40
4.999999999999999
100
AcDbArc
 50
24.0208432036988
 51
215.9791567962975
  0
LINE
  5
1C99
330
D
100
AcDbEntity
 67
     1
  8
AM_VIS
100
AcDbLine
 10
310.3338940564884
 20
294.1773797244926
 30
0.0
 11
310.3338940564884
 21
298.6054883361853
 31
0.0
  0
LINE
  5
1C9A
330
D
100
AcDbEntity
 67
     1
  8
AM_VIS
100
AcDbLine
 10
244.3338940564883
 20
298.6054883361853
 30
0.0
 11
244.3338940564883
 21
294.1773797244926
 31
0.0
  0
LINE
  5
1C9B
330
D
100
AcDbEntity
 67
     1
  8
AM_VIS
100
AcDbLine
 10
228.3338940564884
 20
294.1773797244926
 30
0.0
 11
228.3338940564884
 21
298.6054883361853
 31
0.0
  0
LINE
  5
1C9C
330
D
100
AcDbEntity
 67
     1
  8
AM_VIS
100
AcDbLine
 10
220.3338940564884
 20
298.6054883361853
 30
0.0
 11
220.3338940564884
 21
294.1773797244926
 31
0.0
  0
LINE
  5
1C9D
330
D
100
AcDbEntity
 67
     1
  8
AM_VIS
100
AcDbLine
 10
310.3338940564884
 20
223.6054883361853
 30
0.0
 11
310.3338940564884
 21
228.0335969478778
 31
0.0
  0
LINE
  5
1C9E
330
D
100
AcDbEntity
 67
     1
  8
AM_VIS
100
AcDbLine
 10
244.3338940564883
 20
228.0335969478778
 30
0.0
 11
244.3338940564883
 21
223.6054883361853
 31
0.0
  0
LINE
  5
1C9F
330
D
100
AcDbEntity
 67
     1
  8
AM_VIS
100
AcDbLine
 10
228.3338940564884
 20
223.6054883361853
 30
0.0
 11
228.3338940564884
 21
228.0335969478778
 31
0.0
  0
LINE
  5
1CA0
330
D
100
AcDbEntity
 67
     1
  8
AM_VIS
100
AcDbLine
 10
220.3338940564884
 20
228.0335969478778
 30
0.0
 11
220.3338940564884
 21
223.6054883361853
 31
0.0
  0
LINE
  5
1CA1
330
D
100
AcDbEntity
 67
     1
  8
AM_VIS
100
AcDbLine
 10
318.8338940564884
 20
238.6054883361853
 30
0.0
 11
318.8338940564884
 21
261.1054883361853
 31
0.0
  0
LINE
  5
1CA2
330
D
100
AcDbEntity
 67
     1
  8
AM_VIS
100
AcDbLine
 10
320.3338940564884
 20
261.1054883361853
 30
0.0
 11
320.3338940564884
 21
240.1054883361853
 31
0.0
  0
LINE
  5
1CA3
330
D
100
AcDbEntity
 67
     1
  8
AM_VIS
100
AcDbLine
 10
318.8338940564884
 20
261.1054883361853
 30
0.0
 11
318.8338940564884
 21
283.6054883361853
 31
0.0
  0
LINE
  5
1CA4
330
D
100
AcDbEntity
 67
     1
  8
AM_VIS
100
AcDbLine
 10
301.8131725766066
 20
251.1326658124742
 30
0.0
 11
301.8499942522044
 21
251.3098283144336
 31
0.0
  0
LINE
  5
1CA5
330
D
100
AcDbEntity
 67
     1
  8
AM_VIS
100
AcDbLine
 10
301.8131725766066
 20
261.0783108598961
 30
0.0
 11
301.8499942522045
 21
260.9011483579369
 31
0.0
  0
LINE
  5
1CA6
330
D
100
AcDbEntity
 67
     1
  8
AM_VIS
100
AcDbLine
 10
270.7290073659386
 20
278.868858513292
 30
0.0
 11
270.9008454303916
 21
278.9255512592411
 31
0.0
  0
LINE
  5
1CA7
330
D
100
AcDbEntity
 67
     1
  8
AM_VIS
100
AcDbLine
 10
262.2876641622108
 20
273.9527287354778
 30
0.0
 11
262.4226805526397
 21
274.0731984916569
 31
0.0
  0
LINE
  5
1CA8
330
D
100
AcDbEntity
 67
     1
  8
AM_VIS
100
AcDbLine
 10
262.2876641622111
 20
238.2582479368924
 30
0.0
 11
262.4226805526398
 21
238.1377781807137
 31
0.0
  0
LINE
  5
1CA9
330
D
100
AcDbEntity
 67
     1
  8
AM_VIS
100
AcDbLine
 10
270.7290073659387
 20
233.3421181590785
 30
0.0
 11
270.9008454303919
 21
233.2854254131293
 31
0.0
  0
ARC
  5
1CAA
330
D
100
AcDbEntity
 67
     1
  8
AM_VIS
100
AcDbCircle
 10
278.3338940564884
 20
256.1054883361852
 30
0.0
 40
24.0
100
AcDbArc
 50
251.958313592602
 51
348.0416864073962
  0
ARC
  5
1CAB
330
D
100
AcDbEntity
 67
     1
  8
AM_VIS
100
AcDbCircle
 10
302.3338940564884
 20
256.1054883361852
 30
0.0
 40
5.0
100
AcDbArc
 50
95.97915679629911
 51
264.0208432037009
  0
ARC
  5
1CAC
330
D
100
AcDbEntity
 67
     1
  8
AM_VIS
100
AcDbCircle
 10
278.3338940564884
 20
256.1054883361852
 30
0.0
 40
24.0
100
AcDbArc
 50
11.95831359260376
 51
108.041686407398
  0
ARC
  5
1CAD
330
D
100
AcDbEntity
 67
     1
  8
AM_VIS
100
AcDbCircle
 10
266.3338940564882
 20
276.8900980270117
 30
0.0
 40
5.000000000000002
100
AcDbArc
 50
215.9791567962975
 51
24.0208432036988
  0
ARC
  5
1CAE
330
D
100
AcDbEntity
 67
     1
  8
AM_VIS
100
AcDbCircle
 10
278.3338940564884
 20
256.1054883361852
 30
0.0
 40
24.0
100
AcDbArc
 50
131.9583135925997
 51
228.0416864074002
  0
ARC
  5
1CAF
330
D
100
AcDbEntity
 67
     1
  8
AM_VIS
100
AcDbCircle
 10
266.3338940564886
 20
235.3208786453585
 30
0.0
 40
5.0
100
AcDbArc
 50
335.9791567963012
 51
144.0208432037024
  0
LINE
  5
1CB0
330
D
100
AcDbEntity
 67
     1
  8
AM_VIS
100
AcDbLine
 10
335.3338940564884
 20
249.3308866893387
 30
0.0
 11
336.3338940564883
 21
250.1054883361852
 31
0.0
  0
LINE
  5
1CB1
330
D
100
AcDbEntity
 67
     1
  8
AM_VIS
100
AcDbLine
 10
335.3338940564884
 20
272.8800899830318
 30
0.0
 11
336.3338940564883
 21
272.1054883361851
 31
0.0
  0
LINE
  5
1CB2
330
D
100
AcDbEntity
 67
     1
  8
AM_VIS
100
AcDbLine
 10
336.3338940564883
 20
272.1054883361851
 30
0.0
 11
336.3338940564883
 21
250.1054883361852
 31
0.0
  0
LINE
  5
1CB3
330
D
100
AcDbEntity
 67
     1
  8
AM_VIS
100
AcDbLine
 10
267.2008174960147
 20
233.8208786453587
 30
0.0
 11
268.0663940564884
 21
235.3208786453587
 31
0.0
  0
LINE
  5
1CB4
330
D
100
AcDbEntity
 67
     1
  8
AM_VIS
100
AcDbLine
 10
268.0663940564884
 20
235.3208786453587
 30
0.0
 11
267.2008174960147
 21
236.8208786453587
 31
0.0
  0
LINE
  5
1CB5
330
D
100
AcDbEntity
 67
     1
  8
AM_VIS
100
AcDbLine
 10
267.2008174960147
 20
236.8208786453587
 30
0.0
 11
265.4669706169622
 21
236.8208786453587
 31
0.0
  0
LINE
  5
1CB6
330
D
100
AcDbEntity
 67
     1
  8
AM_VIS
100
AcDbLine
 10
265.4669706169622
 20
236.8208786453587
 30
0.0
 11
264.6013940564884
 21
235.3208786453587
 31
0.0
  0
LINE
  5
1CB7
330
D
100
AcDbEntity
 67
     1
  8
AM_VIS
100
AcDbLine
 10
264.6013940564884
 20
235.3208786453587
 30
0.0
 11
265.4669706169622
 21
233.8208786453587
 31
0.0
  0
LINE
  5
1CB8
330
D
100
AcDbEntity
 67
     1
  8
AM_VIS
100
AcDbLine
 10
265.4669706169622
 20
233.8208786453587
 30
0.0
 11
267.2008174960147
 21
233.8208786453587
 31
0.0
  0
ARC
  5
1CB9
330
D
100
AcDbEntity
 67
     1
  8
AM_VIS
100
AcDbCircle
 10
266.3338940564884
 20
235.3208786453587
 30
0.0
 40
4.819999999999994
100
AcDbArc
 50
270.0
 51
90.0
  0
ARC
  5
1CBA
330
D
100
AcDbEntity
 67
     1
  8
AM_VIS
100
AcDbCircle
 10
266.3338940564884
 20
235.3208786453587
 30
0.0
 40
4.819999999999994
100
AcDbArc
 50
90.0
 51
270.0
  0
LINE
  5
1CBB
330
D
100
AcDbEntity
 67
     1
  8
AM_VIS
100
AcDbLine
 10
303.2008174960147
 20
254.6054883361853
 30
0.0
 11
304.0663940564884
 21
256.1054883361852
 31
0.0
  0
LINE
  5
1CBC
330
D
100
AcDbEntity
 67
     1
  8
AM_VIS
100
AcDbLine
 10
304.0663940564884
 20
256.1054883361852
 30
0.0
 11
303.2008174960147
 21
257.6054883361853
 31
0.0
  0
LINE
  5
1CBD
330
D
100
AcDbEntity
 67
     1
  8
AM_VIS
100
AcDbLine
 10
303.2008174960147
 20
257.6054883361853
 30
0.0
 11
301.4669706169621
 21
257.6054883361853
 31
0.0
  0
LINE
  5
1CBE
330
D
100
AcDbEntity
 67
     1
  8
AM_VIS
100
AcDbLine
 10
301.4669706169621
 20
257.6054883361853
 30
0.0
 11
300.6013940564884
 21
256.1054883361852
 31
0.0
  0
LINE
  5
1CBF
330
D
100
AcDbEntity
 67
     1
  8
AM_VIS
100
AcDbLine
 10
300.6013940564884
 20
256.1054883361852
 30
0.0
 11
301.4669706169621
 21
254.6054883361853
 31
0.0
  0
LINE
  5
1CC0
330
D
100
AcDbEntity
 67
     1
  8
AM_VIS
100
AcDbLine
 10
301.4669706169621
 20
254.6054883361853
 30
0.0
 11
303.2008174960147
 21
254.6054883361853
 31
0.0
  0
ARC
  5
1CC1
330
D
100
AcDbEntity
 67
     1
  8
AM_VIS
100
AcDbCircle
 10
302.3338940564884
 20
256.1054883361852
 30
0.0
 40
4.819999999999994
100
AcDbArc
 50
270.0
 51
90.0
  0
ARC
  5
1CC2
330
D
100
AcDbEntity
 67
     1
  8
AM_VIS
100
AcDbCircle
 10
302.3338940564884
 20
256.1054883361852
 30
0.0
 40
4.819999999999994
100
AcDbArc
 50
90.0
 51
270.0
  0
LINE
  5
1CC3
330
D
100
AcDbEntity
 67
     1
  8
AM_VIS
100
AcDbLine
 10
267.2008174960147
 20
275.3900980270118
 30
0.0
 11
268.0663940564884
 21
276.8900980270118
 31
0.0
  0
LINE
  5
1CC4
330
D
100
AcDbEntity
 67
     1
  8
AM_VIS
100
AcDbLine
 10
268.0663940564884
 20
276.8900980270118
 30
0.0
 11
267.2008174960147
 21
278.3900980270118
 31
0.0
  0
LINE
  5
1CC5
330
D
100
AcDbEntity
 67
     1
  8
AM_VIS
100
AcDbLine
 10
267.2008174960147
 20
278.3900980270118
 30
0.0
 11
265.4669706169622
 21
278.3900980270118
 31
0.0
  0
LINE
  5
1CC6
330
D
100
AcDbEntity
 67
     1
  8
AM_VIS
100
AcDbLine
 10
265.4669706169622
 20
278.3900980270118
 30
0.0
 11
264.6013940564884
 21
276.8900980270118
 31
0.0
  0
LINE
  5
1CC7
330
D
100
AcDbEntity
 67
     1
  8
AM_VIS
100
AcDbLine
 10
264.6013940564884
 20
276.8900980270118
 30
0.0
 11
265.4669706169622
 21
275.3900980270118
 31
0.0
  0
LINE
  5
1CC8
330
D
100
AcDbEntity
 67
     1
  8
AM_VIS
100
AcDbLine
 10
265.4669706169622
 20
275.3900980270118
 30
0.0
 11
267.2008174960146
 21
275.3900980270118
 31
0.0
  0
ARC
  5
1CC9
330
D
100
AcDbEntity
 67
     1
  8
AM_VIS
100
AcDbCircle
 10
266.3338940564884
 20
276.8900980270118
 30
0.0
 40
4.819999999999994
100
AcDbArc
 50
270.0
 51
90.0
  0
ARC
  5
1CCA
330
D
100
AcDbEntity
 67
     1
  8
AM_VIS
100
AcDbCircle
 10
266.3338940564884
 20
276.8900980270118
 30
0.0
 40
4.819999999999994
100
AcDbArc
 50
90.0
 51
270.0
  0
LINE
  5
1CCB
330
D
100
AcDbEntity
 67
     1
  8
0
100
AcDbLine
 10
244.3338940564883
 20
168.0927294692437
 30
0.0
 11
238.3338940564883
 21
168.0927294692437
 31
0.0
  0
LINE
  5
1CCC
330
D
100
AcDbEntity
 67
     1
  8
0
100
AcDbLine
 10
244.3338940564883
 20
106.0927294692436
 30
0.0
 11
238.3338940564883
 21
106.0927294692436
 31
0.0
  0
LINE
  5
1CCD
330
D
100
AcDbEntity
 67
     1
  8
0
100
AcDbLine
 10
244.3338940564883
 20
292.1054883361853
 30
0.0
 11
238.3338940564883
 21
292.1054883361853
 31
0.0
  0
LINE
  5
1CCE
330
D
100
AcDbEntity
 67
     1
  8
0
100
AcDbLine
 10
244.3338940564883
 20
230.1054883361853
 30
0.0
 11
238.3338940564883
 21
230.1054883361853
 31
0.0
  0
DIMENSION
  5
1CCF
330
D
100
AcDbEntity
 67
     1
  8
AM_5
100
AcDbDimension
  2
*D5
 10
251.3338940564883
 20
117.0927294692436
 30
0.0
 11
264.5421580181907
 21
92.18245884439395
 31
0.0
 70
   164
  1
G1/8
 71
     5
 42
5.859870000000079
  3
AM_ISO$4
100
AcDbRadialDimension
 15
252.8130907300349
 25
112.4389284849304
 35
0.0
 40
0.0
1001
ACAD
1000
DSTYLE
1002
{
1070
    40
1040
1.0
1070
   144
1040
1.199999999999999
1070
   272
1070
     8
1002
}
  0
LINE
  5
1CD0
330
D
100
AcDbEntity
 67
     1
  8
AM_7
100
AcDbLine
 10
251.3338940564884
 20
117.0927294692436
 30
0.0
 11
251.3338940564884
 21
117.0927294692436
 31
0.0
  0
LINE
  5
1CD1
330
D
100
AcDbEntity
 67
     1
  8
AM_7
100
AcDbLine
 10
251.3338940564884
 20
117.0927294692436
 30
0.0
 11
251.3338940564884
 21
117.0927294692436
 31
0.0
  0
LINE
  5
1CD2
330
D
100
AcDbEntity
 67
     1
  8
AM_7
100
AcDbLine
 10
243.3338940564884
 20
117.0927294692436
 30
0.0
 11
251.3338940564884
 21
117.0927294692436
 31
0.0
  0
LINE
  5
1CD3
330
D
100
AcDbEntity
 67
     1
  8
AM_7
100
AcDbLine
 10
251.3338940564884
 20
117.0927294692436
 30
0.0
 11
259.3338940564883
 21
117.0927294692436
 31
0.0
  0
LINE
  5
1CD4
330
D
100
AcDbEntity
 67
     1
  8
AM_7
100
AcDbLine
 10
251.3338940564884
 20
109.0927294692436
 30
0.0
 11
251.3338940564884
 21
117.0927294692436
 31
0.0
  0
LINE
  5
1CD5
330
D
100
AcDbEntity
 67
     1
  8
AM_7
100
AcDbLine
 10
251.3338940564884
 20
117.0927294692436
 30
0.0
 11
251.3338940564884
 21
125.0927294692436
 31
0.0
  0
ARC
  5
1CD6
330
D
100
AcDbEntity
 67
     1
  8
AM_VIS
100
AcDbCircle
 10
95.93389405648872
 20
239.2054883361861
 30
0.0
 40
0.6
100
AcDbArc
 50
180.0
 51
270.0
  0
ARC
  5
1CD7
330
D
100
AcDbEntity
 67
     1
  8
AM_VIS
100
AcDbCircle
 10
95.93389405648872
 20
283.0054883361863
 30
0.0
 40
0.6
100
AcDbArc
 50
90.0
 51
180.0
  0
LINE
  5
1CD8
330
D
100
AcDbEntity
 67
     1
  8
AM_VIS
100
AcDbLine
 10
95.33389405648836
 20
239.2054883361856
 30
0.0
 11
95.33389405648836
 21
283.0054883361858
 31
0.0
  0
LINE
  5
1CD9
330
D
100
AcDbEntity
 67
     1
  8
AM_VIS
100
AcDbLine
 10
132.3338940564883
 20
300.1054883361853
 30
0.0
 11
132.3338940564883
 21
292.8554883361853
 31
0.0
  0
LINE
  5
1CDA
330
D
100
AcDbEntity
 67
     1
  8
AM_VIS
100
AcDbLine
 10
132.3338940564883
 20
229.3554883361853
 30
0.0
 11
132.3338940564883
 21
222.1054883361853
 31
0.0
  0
LINE
  5
1CDB
330
D
100
AcDbEntity
 67
     1
  8
AM_VIS
100
AcDbLine
 10
99.33389405648837
 20
222.1054883361853
 30
0.0
 11
99.33389405648837
 21
229.3554883361853
 31
0.0
  0
LINE
  5
1CDC
330
D
100
AcDbEntity
 67
     1
  8
AM_VIS
100
AcDbLine
 10
99.33389405648837
 20
292.8554883361853
 30
0.0
 11
99.33389405648837
 21
300.1054883361853
 31
0.0
  0
LINE
  5
1CDD
330
D
100
AcDbEntity
 67
     1
  8
AM_VIS
100
AcDbLine
 10
187.3338940564883
 20
222.1054883361853
 30
0.0
 11
187.3338940564883
 21
229.3554883361853
 31
0.0
  0
LINE
  5
1CDE
330
D
100
AcDbEntity
 67
     1
  8
AM_VIS
100
AcDbLine
 10
187.3338940564883
 20
292.8554883361853
 30
0.0
 11
187.3338940564883
 21
300.1054883361853
 31
0.0
  0
LINE
  5
1CDF
330
D
100
AcDbEntity
 67
     1
  8
AM_VIS
100
AcDbLine
 10
220.3338940564884
 20
229.3554883361853
 30
0.0
 11
220.3338940564884
 21
222.1054883361853
 31
0.0
  0
LINE
  5
1CE0
330
D
100
AcDbEntity
 67
     1
  8
AM_VIS
100
AcDbLine
 10
220.3338940564884
 20
300.1054883361853
 30
0.0
 11
220.3338940564884
 21
292.8554883361853
 31
0.0
  0
LINE
  5
1CE1
330
D
100
AcDbEntity
 67
     1
  8
AM_VIS
100
AcDbLine
 10
99.33389405648837
 20
238.6054883361853
 30
0.0
 11
95.93389405648826
 21
238.6054883361853
 31
0.0
  0
LINE
  5
1CE2
330
D
100
AcDbEntity
 67
     1
  8
AM_VIS
100
AcDbLine
 10
99.33389405648837
 20
283.6054883361853
 30
0.0
 11
95.93389405648826
 21
283.6054883361853
 31
0.0
  0
LINE
  5
1CE3
330
D
100
AcDbEntity
 67
     1
  8
AM_VIS
100
AcDbLine
 10
187.3338940564883
 20
298.305488336186
 30
0.0
 11
132.3338940564883
 21
298.305488336186
 31
0.0
  0
LINE
  5
1CE4
330
D
100
AcDbEntity
 67
     1
  8
AM_VIS
100
AcDbLine
 10
187.3338940564883
 20
226.9054883361854
 30
0.0
 11
132.3338940564883
 21
226.9054883361854
 31
0.0
  0
LINE
  5
1CE5
330
D
100
AcDbEntity
 67
     1
  8
AM_VIS
100
AcDbLine
 10
132.3338940564883
 20
229.3554883361853
 30
0.0
 11
132.3338940564883
 21
292.8554883361853
 31
0.0
  0
LINE
  5
1CE6
330
D
100
AcDbEntity
 67
     1
  8
AM_VIS
100
AcDbLine
 10
99.33389405648837
 20
222.1054883361853
 30
0.0
 11
132.3338940564883
 21
222.1054883361853
 31
0.0
  0
LINE
  5
1CE7
330
D
100
AcDbEntity
 67
     1
  8
AM_VIS
100
AcDbLine
 10
99.33389405648837
 20
292.8554883361853
 30
0.0
 11
99.33389405648837
 21
229.3554883361853
 31
0.0
  0
LINE
  5
1CE8
330
D
100
AcDbEntity
 67
     1
  8
AM_VIS
100
AcDbLine
 10
132.3338940564883
 20
300.1054883361853
 30
0.0
 11
99.33389405648837
 21
300.1054883361853
 31
0.0
  0
LINE
  5
1CE9
330
D
100
AcDbEntity
 67
     1
  8
AM_VIS
100
AcDbLine
 10
187.3338940564883
 20
292.8554883361853
 30
0.0
 11
187.3338940564883
 21
229.3554883361853
 31
0.0
  0
LINE
  5
1CEA
330
D
100
AcDbEntity
 67
     1
  8
AM_VIS
100
AcDbLine
 10
220.3338940564884
 20
300.1054883361853
 30
0.0
 11
187.3338940564883
 21
300.1054883361853
 31
0.0
  0
LINE
  5
1CEB
330
D
100
AcDbEntity
 67
     1
  8
AM_VIS
100
AcDbLine
 10
187.3338940564883
 20
222.1054883361853
 30
0.0
 11
220.3338940564884
 21
222.1054883361853
 31
0.0
  0
LINE
  5
1CEC
330
D
100
AcDbEntity
 67
     1
  8
AM_VIS
100
AcDbLine
 10
220.3338940564884
 20
292.8554883361853
 30
0.0
 11
220.3338940564884
 21
229.3554883361853
 31
0.0
  0
ARC
  5
1CED
330
D
100
AcDbEntity
 67
     1
  8
AM_VIS
100
AcDbCircle
 10
95.93389405648872
 20
115.1927294692445
 30
0.0
 40
0.6
100
AcDbArc
 50
180.0
 51
270.0
  0
ARC
  5
1CEE
330
D
100
AcDbEntity
 67
     1
  8
AM_VIS
100
AcDbCircle
 10
95.93389405648872
 20
158.9927294692447
 30
0.0
 40
0.6
100
AcDbArc
 50
90.0
 51
180.0
  0
CIRCLE
  5
1CEF
330
D
100
AcDbEntity
 67
     1
  8
AM_VIS
100
AcDbCircle
 10
119.3338940564883
 20
148.0927294692442
 30
0.0
 40
5.5
  0
CIRCLE
  5
1CF0
330
D
100
AcDbEntity
 67
     1
  8
AM_VIS
100
AcDbCircle
 10
119.3338940564883
 20
148.0927294692442
 30
0.0
 40
5.9
  0
CIRCLE
  5
1CF1
330
D
100
AcDbEntity
 67
     1
  8
AM_VIS
100
AcDbCircle
 10
115.3338940564883
 20
129.0927294692441
 30
0.0
 40
9.0
  0
CIRCLE
  5
1CF2
330
D
100
AcDbEntity
 67
     1
  8
AM_VIS
100
AcDbCircle
 10
115.3338940564883
 20
129.0927294692441
 30
0.0
 40
7.474999999999998
  0
LINE
  5
1CF3
330
D
100
AcDbEntity
 67
     1
  8
AM_VIS
100
AcDbLine
 10
95.33389405648836
 20
115.1927294692441
 30
0.0
 11
95.33389405648836
 21
158.9927294692443
 31
0.0
  0
LINE
  5
1CF4
330
D
100
AcDbEntity
 67
     1
  8
AM_VIS
100
AcDbLine
 10
132.3338940564883
 20
176.0927294692437
 30
0.0
 11
132.3338940564883
 21
168.8427294692437
 31
0.0
  0
LINE
  5
1CF5
330
D
100
AcDbEntity
 67
     1
  8
AM_VIS
100
AcDbLine
 10
132.3338940564883
 20
105.3427294692437
 30
0.0
 11
132.3338940564883
 21
98.0927294692437
 31
0.0
  0
LINE
  5
1CF6
330
D
100
AcDbEntity
 67
     1
  8
AM_VIS
100
AcDbLine
 10
99.33389405648837
 20
98.09272946924373
 30
0.0
 11
99.33389405648837
 21
105.3427294692437
 31
0.0
  0
LINE
  5
1CF7
330
D
100
AcDbEntity
 67
     1
  8
AM_VIS
100
AcDbLine
 10
99.33389405648837
 20
168.8427294692437
 30
0.0
 11
99.33389405648837
 21
176.0927294692437
 31
0.0
  0
LINE
  5
1CF8
330
D
100
AcDbEntity
 67
     1
  8
AM_VIS
100
AcDbLine
 10
187.3338940564883
 20
98.0927294692437
 30
0.0
 11
187.3338940564883
 21
105.3427294692437
 31
0.0
  0
LINE
  5
1CF9
330
D
100
AcDbEntity
 67
     1
  8
AM_VIS
100
AcDbLine
 10
187.3338940564883
 20
168.8427294692437
 30
0.0
 11
187.3338940564883
 21
176.0927294692437
 31
0.0
  0
CIRCLE
  5
1CFA
330
D
100
AcDbEntity
 67
     1
  8
AM_VIS
100
AcDbCircle
 10
200.3338940564884
 20
148.0927294692439
 30
0.0
 40
5.5
  0
CIRCLE
  5
1CFB
330
D
100
AcDbEntity
 67
     1
  8
AM_VIS
100
AcDbCircle
 10
200.3338940564884
 20
148.0927294692439
 30
0.0
 40
5.9
  0
CIRCLE
  5
1CFC
330
D
100
AcDbEntity
 67
     1
  8
AM_VIS
100
AcDbCircle
 10
204.3338940564884
 20
129.0927294692439
 30
0.0
 40
8.999999999999989
  0
CIRCLE
  5
1CFD
330
D
100
AcDbEntity
 67
     1
  8
AM_VIS
100
AcDbCircle
 10
204.3338940564884
 20
129.0927294692439
 30
0.0
 40
7.474999999999998
  0
LINE
  5
1CFE
330
D
100
AcDbEntity
 67
     1
  8
AM_VIS
100
AcDbLine
 10
220.3338940564884
 20
105.3427294692437
 30
0.0
 11
220.3338940564884
 21
98.0927294692437
 31
0.0
  0
LINE
  5
1CFF
330
D
100
AcDbEntity
 67
     1
  8
AM_VIS
100
AcDbLine
 10
220.3338940564884
 20
176.0927294692437
 30
0.0
 11
220.3338940564884
 21
168.8427294692437
 31
0.0
  0
LINE
  5
1D00
330
D
100
AcDbEntity
 67
     1
  8
AM_VIS
100
AcDbLine
 10
99.33389405648837
 20
114.5927294692437
 30
0.0
 11
95.93389405648826
 21
114.5927294692437
 31
0.0
  0
LINE
  5
1D01
330
D
100
AcDbEntity
 67
     1
  8
AM_VIS
100
AcDbLine
 10
99.33389405648837
 20
159.5927294692437
 30
0.0
 11
95.93389405648826
 21
159.5927294692437
 31
0.0
  0
LINE
  5
1D02
330
D
100
AcDbEntity
 67
     1
  8
AM_VIS
100
AcDbLine
 10
187.3338940564883
 20
174.2927294692444
 30
0.0
 11
132.3338940564883
 21
174.2927294692444
 31
0.0
  0
LINE
  5
1D03
330
D
100
AcDbEntity
 67
     1
  8
AM_VIS
100
AcDbLine
 10
187.3338940564883
 20
102.8927294692439
 30
0.0
 11
132.3338940564883
 21
102.8927294692439
 31
0.0
  0
LINE
  5
1D04
330
D
100
AcDbEntity
 67
     1
  8
AM_VIS
100
AcDbLine
 10
132.3338940564883
 20
105.3427294692437
 30
0.0
 11
132.3338940564883
 21
168.8427294692437
 31
0.0
  0
LINE
  5
1D05
330
D
100
AcDbEntity
 67
     1
  8
AM_VIS
100
AcDbLine
 10
99.33389405648837
 20
98.09272946924373
 30
0.0
 11
132.3338940564883
 21
98.0927294692437
 31
0.0
  0
LINE
  5
1D06
330
D
100
AcDbEntity
 67
     1
  8
AM_VIS
100
AcDbLine
 10
99.33389405648837
 20
168.8427294692437
 30
0.0
 11
99.33389405648837
 21
105.3427294692437
 31
0.0
  0
LINE
  5
1D07
330
D
100
AcDbEntity
 67
     1
  8
AM_VIS
100
AcDbLine
 10
132.3338940564883
 20
176.0927294692437
 30
0.0
 11
99.33389405648837
 21
176.0927294692437
 31
0.0
  0
LINE
  5
1D08
330
D
100
AcDbEntity
 67
     1
  8
AM_VIS
100
AcDbLine
 10
187.3338940564883
 20
168.8427294692437
 30
0.0
 11
187.3338940564883
 21
105.3427294692437
 31
0.0
  0
LINE
  5
1D09
330
D
100
AcDbEntity
 67
     1
  8
AM_VIS
100
AcDbLine
 10
220.3338940564884
 20
176.0927294692437
 30
0.0
 11
187.3338940564883
 21
176.0927294692437
 31
0.0
  0
LINE
  5
1D0A
330
D
100
AcDbEntity
 67
     1
  8
AM_VIS
100
AcDbLine
 10
187.3338940564883
 20
98.0927294692437
 30
0.0
 11
220.3338940564884
 21
98.0927294692437
 31
0.0
  0
LINE
  5
1D0B
330
D
100
AcDbEntity
 67
     1
  8
AM_VIS
100
AcDbLine
 10
220.3338940564884
 20
168.8427294692437
 30
0.0
 11
220.3338940564884
 21
105.3427294692437
 31
0.0
  0
LINE
  5
1D0C
330
D
100
AcDbEntity
 67
     1
  8
CEN
  6
CENTER
100
AcDbLine
 10
207.8338940564884
 20
148.0927294692437
 30
0.0
 11
192.8338940564883
 21
148.0927294692437
 31
0.0
  0
LINE
  5
1D0D
330
D
100
AcDbEntity
 67
     1
  8
CEN
  6
CENTER
100
AcDbLine
 10
200.3338940564884
 20
140.5927294692437
 30
0.0
 11
200.3338940564884
 21
155.5927294692437
 31
0.0
  0
LINE
  5
1D0E
330
D
100
AcDbEntity
 67
     1
  8
CEN
  6
CENTER
100
AcDbLine
 10
126.8338940564883
 20
148.0927294692441
 30
0.0
 11
111.8338940564883
 21
148.0927294692442
 31
0.0
  0
LINE
  5
1D0F
330
D
100
AcDbEntity
 67
     1
  8
CEN
  6
CENTER
100
AcDbLine
 10
119.3338940564883
 20
140.5927294692441
 30
0.0
 11
119.3338940564883
 21
155.5927294692442
 31
0.0
  0
LINE
  5
1D10
330
D
100
AcDbEntity
 67
     1
  8
CEN
  6
CENTER
100
AcDbLine
 10
204.3338940564879
 20
141.5927294692437
 30
0.0
 11
204.3338940564884
 21
116.5927294692437
 31
0.0
  0
LINE
  5
1D11
330
D
100
AcDbEntity
 67
     1
  8
CEN
  6
CENTER
100
AcDbLine
 10
191.8338940564883
 20
129.0927294692437
 30
0.0
 11
216.8338940564884
 21
129.0927294692437
 31
0.0
  0
LINE
  5
1D12
330
D
100
AcDbEntity
 67
     1
  8
CEN
  6
CENTER
100
AcDbLine
 10
115.3338940564879
 20
141.5927294692441
 30
0.0
 11
115.3338940564883
 21
116.5927294692441
 31
0.0
  0
LINE
  5
1D13
330
D
100
AcDbEntity
 67
     1
  8
CEN
  6
CENTER
100
AcDbLine
 10
102.8338940564883
 20
129.0927294692441
 30
0.0
 11
127.8338940564883
 21
129.0927294692441
 31
0.0
  0
DIMENSION
  5
1ED3
330
D
100
AcDbEntity
 67
     1
  8
AM_5
100
AcDbDimension
  2
*D16
 10
88.87546077117212
 20
129.0927294692441
 30
0.0
 11
86.12546077117212
 21
133.0927294692439
 31
0.0
 70
    32
 71
     5
 42
7.999999999999516
  3
AM_ISO$0
100
AcDbAlignedDimension
 13
93.00461843342645
 23
137.0927294692437
 33
0.0
 14
102.8338940564883
 24
129.0927294692441
 34
0.0
 50
90.0
100
AcDbRotatedDimension
1001
ACAD
1000
DSTYLE
1002
{
1070
    40
1040
1.0
1070
   144
1040
1.0
1070
   272
1070
     8
1002
}
  0
DIMENSION
  5
1EED
330
D
100
AcDbEntity
 67
     1
  8
AM_5
100
AcDbDimension
  2
*D17
 10
99.33389405648837
 20
188.0927294692437
 30
0.0
 11
107.3338940564881
 21
190.8427294692437
 31
0.0
 70
    32
 71
     5
 42
15.99999999999954
  3
AM_ISO$0
100
AcDbAlignedDimension
 13
115.3338940564879
 23
141.5927294692441
 33
0.0
 14
99.33389405648837
 24
176.0927294692437
 34
0.0
100
AcDbRotatedDimension
1001
ACAD
1000
DSTYLE
1002
{
1070
    40
1040
1.0
1070
   144
1040
1.0
1070
   272
1070
     8
1002
}
  0
DIMENSION
  5
1F03
330
D
100
AcDbEntity
 67
     1
  8
AM_5
100
AcDbDimension
  2
*D18
 10
132.3338940564883
 20
197.4492707721999
 30
0.0
 11
115.8338940564883
 21
200.1992707721999
 31
0.0
 70
    32
 71
     5
 42
33.0
  3
AM_ISO$0
100
AcDbAlignedDimension
 13
99.33389405648837
 23
176.0927294692437
 33
0.0
 14
132.3338940564883
 24
176.0927294692437
 34
0.0
 50
0.0000000000000114
100
AcDbRotatedDimension
1001
ACAD
1000
DSTYLE
1002
{
1070
    40
1040
1.0
1070
   144
1040
1.0
1070
   272
1070
     8
1002
}
  0
DIMENSION
  5
1F19
330
D
100
AcDbEntity
 67
     1
  8
AM_5
100
AcDbDimension
  2
*D19
 10
220.3338940564884
 20
189.4492707721998
 30
0.0
 11
212.3338940564881
 21
192.1992707721997
 31
0.0
 70
    32
 71
     5
 42
16.00000000000045
  3
AM_ISO$0
100
AcDbAlignedDimension
 13
204.3338940564879
 23
141.5927294692437
 33
0.0
 14
220.3338940564884
 24
176.0927294692437
 34
0.0
100
AcDbRotatedDimension
1001
ACAD
1000
DSTYLE
1002
{
1070
    40
1040
1.0
1070
   144
1040
1.0
1070
   272
1070
     8
1002
}
  0
DIMENSION
  5
1F2F
330
D
100
AcDbEntity
 67
     1
  8
AM_5
100
AcDbDimension
  2
*D20
 10
220.3338940564884
 20
197.4492707721999
 30
0.0
 11
203.8338940564884
 21
200.1992707721999
 31
0.0
 70
    32
 71
     5
 42
33.0
  3
AM_ISO$0
100
AcDbAlignedDimension
 13
187.3338940564883
 23
176.0927294692437
 33
0.0
 14
220.3338940564884
 24
176.0927294692437
 34
0.0
 50
0.0000000000000114
100
AcDbRotatedDimension
1001
ACAD
1000
DSTYLE
1002
{
1070
    40
1040
1.0
1070
   144
1040
1.0
1070
   272
1070
     8
1002
}
  0
LINE
  5
207E
330
D
100
AcDbEntity
 67
     1
  8
AM_VIS
100
AcDbLine
 10
463.112809236863
 20
144.0209326995192
 30
0.0
 11
463.112809236863
 21
138.8247802768128
 31
0.0
  0
LINE
  5
207F
330
D
100
AcDbEntity
 67
     1
  8
AM_VIS
100
AcDbLine
 10
463.112809236863
 20
135.3606786616745
 30
0.0
 11
463.112809236863
 21
130.1645262389681
 31
0.0
  0
LINE
  5
2080
330
D
100
AcDbEntity
 67
     1
  8
AM_VIS
100
AcDbLine
 10
463.112809236863
 20
130.1645262389683
 30
0.0
 11
467.6128092368625
 21
127.566450027615
 31
0.0
  0
LINE
  5
2081
330
D
100
AcDbEntity
 67
     1
  8
AM_VIS
100
AcDbLine
 10
470.6128092368632
 20
125.8343992200457
 30
0.0
 11
475.112809236863
 21
123.2363230086926
 31
0.0
  0
LINE
  5
2082
330
D
100
AcDbEntity
 67
     1
  8
AM_VIS
100
AcDbLine
 10
475.112809236863
 20
123.2363230086926
 30
0.0
 11
479.6128092368627
 21
125.8343992200457
 31
0.0
  0
LINE
  5
2083
330
D
100
AcDbEntity
 67
     1
  8
AM_VIS
100
AcDbLine
 10
482.6128092368635
 20
127.566450027615
 30
0.0
 11
487.112809236863
 21
130.1645262389683
 31
0.0
  0
LINE
  5
2084
330
D
100
AcDbEntity
 67
     1
  8
AM_VIS
100
AcDbLine
 10
482.6128092368635
 20
127.566450027615
 30
0.0
 11
479.6128092368627
 21
125.8343992200457
 31
0.0
  0
LINE
  5
2085
330
D
100
AcDbEntity
 67
     1
  8
AM_VIS
100
AcDbLine
 10
470.6128092368632
 20
125.8343992200457
 30
0.0
 11
467.6128092368625
 21
127.566450027615
 31
0.0
  0
LINE
  5
2086
330
D
100
AcDbEntity
 67
     1
  8
AM_VIS
100
AcDbLine
 10
463.112809236863
 20
135.3606786616745
 30
0.0
 11
463.112809236863
 21
138.8247802768128
 31
0.0
  0
LINE
  5
2087
330
D
100
AcDbEntity
 67
     1
  8
AM_VIS
100
AcDbLine
 10
482.6128092368632
 20
146.6190089108723
 30
0.0
 11
487.112809236863
 21
144.020932699519
 31
0.0
  0
LINE
  5
2088
330
D
100
AcDbEntity
 67
     1
  8
AM_VIS
100
AcDbLine
 10
479.6128092368627
 20
148.3510597184414
 30
0.0
 11
482.6128092368632
 21
146.6190089108723
 31
0.0
  0
LINE
  5
2089
330
D
100
AcDbEntity
 67
     1
  8
AM_VIS
100
AcDbLine
 10
475.112809236863
 20
150.9491359297947
 30
0.0
 11
479.6128092368627
 21
148.3510597184414
 31
0.0
  0
LINE
  5
208A
330
D
100
AcDbEntity
 67
     1
  8
AM_VIS
100
AcDbLine
 10
470.6128092368632
 20
148.3510597184414
 30
0.0
 11
475.112809236863
 21
150.9491359297947
 31
0.0
  0
LINE
  5
208B
330
D
100
AcDbEntity
 67
     1
  8
AM_VIS
100
AcDbLine
 10
467.6128092368627
 20
146.6190089108723
 30
0.0
 11
470.6128092368632
 21
148.3510597184414
 31
0.0
  0
LINE
  5
208C
330
D
100
AcDbEntity
 67
     1
  8
AM_VIS
100
AcDbLine
 10
463.112809236863
 20
144.020932699519
 30
0.0
 11
467.6128092368627
 21
146.6190089108723
 31
0.0
  0
LINE
  5
208D
330
D
100
AcDbEntity
 67
     1
  8
AM_VIS
100
AcDbLine
 10
487.1128092368627
 20
135.3606786616745
 30
0.0
 11
487.1128092368627
 21
130.1645262389681
 31
0.0
  0
LINE
  5
208E
330
D
100
AcDbEntity
 67
     1
  8
AM_VIS
100
AcDbLine
 10
487.112809236863
 20
138.8247802768128
 30
0.0
 11
487.112809236863
 21
135.3606786616745
 31
0.0
  0
LINE
  5
208F
330
D
100
AcDbEntity
 67
     1
  8
AM_VIS
100
AcDbLine
 10
487.112809236863
 20
144.0209326995192
 30
0.0
 11
487.112809236863
 21
138.8247802768128
 31
0.0
  0
ARC
  5
2090
330
D
100
AcDbEntity
 67
     1
  8
AM_VIS
100
AcDbCircle
 10
475.112809236863
 20
137.0927294692436
 30
0.0
 40
22.5
100
AcDbArc
 50
90.0
 51
180.0
  0
ARC
  5
2091
330
D
100
AcDbEntity
 67
     1
  8
AM_VIS
100
AcDbCircle
 10
475.112809236863
 20
137.0927294692436
 30
0.0
 40
22.5
100
AcDbArc
 50
0.0
 51
90.0
  0
ARC
  5
2092
330
D
100
AcDbEntity
 67
     1
  8
AM_VIS
100
AcDbCircle
 10
475.112809236863
 20
137.0927294692436
 30
0.0
 40
22.5
100
AcDbArc
 50
180.0
 51
270.0
  0
ARC
  5
2093
330
D
100
AcDbEntity
 67
     1
  8
AM_VIS
100
AcDbCircle
 10
475.112809236863
 20
137.0927294692436
 30
0.0
 40
22.5
100
AcDbArc
 50
270.0
 51
0.0
  0
ARC
  5
2094
330
D
100
AcDbEntity
 67
     1
  8
AM_VIS
100
AcDbCircle
 10
475.112809236863
 20
137.0927294692436
 30
0.0
 40
12.12435565298219
100
AcDbArc
 50
308.2132107017398
 51
351.7867892982605
  0
ARC
  5
2095
330
D
100
AcDbEntity
 67
     1
  8
AM_VIS
100
AcDbCircle
 10
475.112809236863
 20
137.0927294692436
 30
0.0
 40
12.12435565298219
100
AcDbArc
 50
248.2132107017382
 51
291.7867892982617
  0
ARC
  5
2096
330
D
100
AcDbEntity
 67
     1
  8
AM_VIS
100
AcDbCircle
 10
475.112809236863
 20
137.0927294692436
 30
0.0
 40
12.12435565298219
100
AcDbArc
 50
188.2132107017394
 51
231.7867892982602
  0
ARC
  5
2097
330
D
100
AcDbEntity
 67
     1
  8
AM_VIS
100
AcDbCircle
 10
475.112809236863
 20
137.0927294692436
 30
0.0
 40
12.12435565298219
100
AcDbArc
 50
128.2132107017393
 51
171.7867892982606
  0
ARC
  5
2098
330
D
100
AcDbEntity
 67
     1
  8
AM_VIS
100
AcDbCircle
 10
475.112809236863
 20
137.0927294692436
 30
0.0
 40
12.12435565298219
100
AcDbArc
 50
68.21321070173823
 51
111.7867892982618
  0
ARC
  5
2099
330
D
100
AcDbEntity
 67
     1
  8
AM_VIS
100
AcDbCircle
 10
475.112809236863
 20
137.0927294692436
 30
0.0
 40
12.12435565298219
100
AcDbArc
 50
8.213210701739415
 51
51.78678929826016
  0
CIRCLE
  5
209A
330
D
100
AcDbEntity
 67
     1
  8
AM_VIS
100
AcDbCircle
 10
475.112809236863
 20
137.0927294692436
 30
0.0
 40
8.0
  0
CIRCLE
  5
209B
330
D
100
AcDbEntity
 67
     1
  8
AM_VIS
100
AcDbCircle
 10
475.112809236863
 20
137.0927294692436
 30
0.0
 40
6.5
  0
DIMENSION
  5
209C
330
D
100
AcDbEntity
 67
     1
  8
AM_5
100
AcDbDimension
  2
*D21
 10
503.362809236863
 20
77.29778364859217
 30
0.0
 11
475.112809236863
 21
80.04778364859218
 31
0.0
 70
    32
  1
{\Famgdt;o}<>
 71
     5
 42
56.5
  3
AM_ISO$0
100
AcDbAlignedDimension
 13
446.862809236863
 23
103.0740934024345
 33
0.0
 14
503.362809236863
 24
103.0740934024345
 34
0.0
100
AcDbRotatedDimension
  0
DIMENSION
  5
209D
330
D
100
AcDbEntity
 67
     1
  8
AM_5
100
AcDbDimension
  2
*D22
 10
437.612809236863
 20
62.9860487317882
 30
0.0
 11
475.112809236863
 21
65.7360487317882
 31
0.0
 70
    32
  1
{\Famgdt;o}<>
 71
     5
 42
75.0
  3
AM_ISO$0
100
AcDbAlignedDimension
 13
512.612809236863
 23
104.8427294692436
 33
0.0
 14
437.612809236863
 24
104.0208380809362
 34
0.0
100
AcDbRotatedDimension
  0
LEADER
  5
209E
330
D
100
AcDbEntity
 67
     1
  8
AM_5
100
AcDbLeader
  3
AM_ISO$7
 76
     3
 10
448.6498222891555
 20
168.9213583059542
 30
0.0
 10
456.7685275386137
 20
191.2687683027132
 30
0.0
 10
479.8921305938756
 20
191.2687683027132
 30
0.0
1001
ACAD
1000
DSTYLE
1002
{
1070
    40
1040
2.0
1070
   140
1040
3.5
1070
   147
1040
1.0
1002
}
  0
TEXT
  5
209F
330
D
100
AcDbEntity
 67
     1
  8
AM_5
100
AcDbText
 10
456.6272554277319
 20
192.5361113217548
 30
0.0
 40
3.500000000000003
  1
4-M8*14L
100
AcDbText
  0
LINE
  5
20A0
330
D
100
AcDbEntity
 67
     1
  8
AM_VIS
100
AcDbLine
 10
437.612809236863
 20
104.0208380809362
 30
0.0
 11
437.612809236863
 21
170.164620857551
 31
0.0
  0
LINE
  5
20A1
330
D
100
AcDbEntity
 67
     1
  8
AM_VIS
100
AcDbLine
 10
442.0409178485556
 20
174.5927294692436
 30
0.0
 11
508.1847006251704
 21
174.5927294692436
 31
0.0
  0
LINE
  5
20A2
330
D
100
AcDbEntity
 67
     1
  8
AM_VIS
100
AcDbLine
 10
512.612809236863
 20
170.164620857551
 30
0.0
 11
512.612809236863
 21
104.0208380809362
 31
0.0
  0
LINE
  5
20A3
330
D
100
AcDbEntity
 67
     1
  8
AM_VIS
100
AcDbLine
 10
508.1847006251704
 20
99.59272946924366
 30
0.0
 11
442.0409178485556
 21
99.59272946924366
 31
0.0
  0
ARC
  5
20A4
330
D
100
AcDbEntity
 67
     1
  8
AM_VIS
100
AcDbCircle
 10
446.862809236863
 20
165.3427294692436
 30
0.0
 40
3.324999999999998
100
AcDbArc
 50
90.0
 51
270.0
  0
ARC
  5
20A5
330
D
100
AcDbEntity
 67
     1
  8
AM_VIS
100
AcDbCircle
 10
446.862809236863
 20
108.8427294692436
 30
0.0
 40
3.324999999999998
100
AcDbArc
 50
90.0
 51
270.0
  0
ARC
  5
20A6
330
D
100
AcDbEntity
 67
     1
  8
AM_VIS
100
AcDbCircle
 10
503.362809236863
 20
165.3427294692436
 30
0.0
 40
3.324999999999998
100
AcDbArc
 50
90.0
 51
270.0
  0
ARC
  5
20A7
330
D
100
AcDbEntity
 67
     1
  8
AM_VIS
100
AcDbCircle
 10
503.362809236863
 20
108.8427294692436
 30
0.0
 40
3.324999999999998
100
AcDbArc
 50
90.0
 51
270.0
  0
ARC
  5
20A8
330
D
100
AcDbEntity
 67
     1
  8
AM_VIS
100
AcDbCircle
 10
475.112809236863
 20
137.0927294692436
 30
0.0
 40
50.0
100
AcDbArc
 50
221.4096221092709
 51
228.5903778907308
  0
ARC
  5
20A9
330
D
100
AcDbEntity
 67
     1
  8
AM_VIS
100
AcDbCircle
 10
475.112809236863
 20
137.0927294692436
 30
0.0
 40
50.0
100
AcDbArc
 50
131.4096221092692
 51
138.590377890729
  0
ARC
  5
20AA
330
D
100
AcDbEntity
 67
     1
  8
AM_VIS
100
AcDbCircle
 10
475.112809236863
 20
137.0927294692436
 30
0.0
 40
50.0
100
AcDbArc
 50
41.40962210927096
 51
48.5903778907308
  0
ARC
  5
20AB
330
D
100
AcDbEntity
 67
     1
  8
AM_VIS
100
AcDbCircle
 10
475.112809236863
 20
137.0927294692436
 30
0.0
 40
50.0
100
AcDbArc
 50
311.4096221092692
 51
318.590377890729
  0
ARC
  5
20AC
330
D
100
AcDbEntity
 67
     1
  8
AM_VIS
100
AcDbCircle
 10
446.862809236863
 20
165.3427294692436
 30
0.0
 40
3.324999999999998
100
AcDbArc
 50
270.0
 51
90.0
  0
ARC
  5
20AD
330
D
100
AcDbEntity
 67
     1
  8
AM_VIS
100
AcDbCircle
 10
446.862809236863
 20
108.8427294692436
 30
0.0
 40
3.324999999999998
100
AcDbArc
 50
270.0
 51
90.0
  0
ARC
  5
20AE
330
D
100
AcDbEntity
 67
     1
  8
AM_VIS
100
AcDbCircle
 10
503.362809236863
 20
165.3427294692436
 30
0.0
 40
3.324999999999998
100
AcDbArc
 50
270.0
 51
90.0
  0
ARC
  5
20AF
330
D
100
AcDbEntity
 67
     1
  8
AM_VIS
100
AcDbCircle
 10
503.362809236863
 20
108.8427294692436
 30
0.0
 40
3.324999999999998
100
AcDbArc
 50
270.0
 51
90.0
  0
ARC
  5
20B0
330
D
100
AcDbEntity
 67
     1
  8
HIDDEN
  6
Continuous
100
AcDbCircle
 10
446.862809236863
 20
165.3427294692436
 30
0.0
 40
3.76054995695506
100
AcDbArc
 50
255.7523822464588
 51
187.7342815029711
  0
ARC
  5
20B1
330
D
100
AcDbEntity
 67
     1
  8
HIDDEN
  6
Continuous
100
AcDbCircle
 10
503.362809236863
 20
165.3427294692436
 30
0.0
 40
3.76054995695506
100
AcDbArc
 50
255.7523822464588
 51
187.7342815029711
  0
ARC
  5
20B2
330
D
100
AcDbEntity
 67
     1
  8
HIDDEN
  6
Continuous
100
AcDbCircle
 10
503.362809236863
 20
108.8427294692436
 30
0.0
 40
3.76054995695506
100
AcDbArc
 50
255.7523822464588
 51
187.7342815029711
  0
ARC
  5
20B3
330
D
100
AcDbEntity
 67
     1
  8
HIDDEN
  6
Continuous
100
AcDbCircle
 10
446.862809236863
 20
108.8427294692436
 30
0.0
 40
3.76054995695506
100
AcDbArc
 50
255.7523822464588
 51
187.7342815029711
  0
LINE
  5
20B4
330
D
100
AcDbEntity
 67
     1
  8
AM_7
  6
AM_ISO08W050x2
100
AcDbLine
 10
453.5413189044882
 20
165.3427294692436
 30
0.0
 11
440.8430422734614
 21
165.3427294692436
 31
0.0
1001
GENIUS_GENOREF_13
1005
20C2
  0
LINE
  5
20B5
330
D
100
AcDbEntity
 67
     1
  8
AM_7
  6
AM_ISO08W050x2
100
AcDbLine
 10
446.862809236863
 20
171.6233496202432
 30
0.0
 11
446.862809236863
 21
159.5740934024345
 31
0.0
1001
GENIUS_GENOREF_13
1005
20C2
  0
LINE
  5
20B6
330
D
100
AcDbEntity
 67
     1
  8
AM_7
  6
AM_ISO08W050x2
100
AcDbLine
 10
510.0413189044882
 20
165.3427294692436
 30
0.0
 11
497.3430422734614
 21
165.3427294692436
 31
0.0
1001
GENIUS_GENOREF_13
1005
20C1
  0
LINE
  5
20B7
330
D
100
AcDbEntity
 67
     1
  8
AM_7
  6
AM_ISO08W050x2
100
AcDbLine
 10
503.362809236863
 20
171.6233496202432
 30
0.0
 11
503.362809236863
 21
159.5740934024345
 31
0.0
1001
GENIUS_GENOREF_13
1005
20C1
  0
LINE
  5
20B8
330
D
100
AcDbEntity
 67
     1
  8
AM_7
  6
AM_ISO08W050x2
100
AcDbLine
 10
510.0413189044882
 20
108.8427294692436
 30
0.0
 11
497.3430422734614
 21
108.8427294692436
 31
0.0
1001
GENIUS_GENOREF_13
1005
20C0
  0
LINE
  5
20B9
330
D
100
AcDbEntity
 67
     1
  8
AM_7
  6
AM_ISO08W050x2
100
AcDbLine
 10
503.362809236863
 20
115.1233496202432
 30
0.0
 11
503.362809236863
 21
103.0740934024345
 31
0.0
1001
GENIUS_GENOREF_13
1005
20C0
  0
LINE
  5
20BA
330
D
100
AcDbEntity
 67
     1
  8
AM_7
  6
AM_ISO08W050x2
100
AcDbLine
 10
453.5413189044882
 20
108.8427294692436
 30
0.0
 11
440.8430422734614
 21
108.8427294692436
 31
0.0
1001
GENIUS_GENOREF_13
1005
20BF
  0
LINE
  5
20BB
330
D
100
AcDbEntity
 67
     1
  8
AM_7
  6
AM_ISO08W050x2
100
AcDbLine
 10
446.862809236863
 20
115.1233496202432
 30
0.0
 11
446.862809236863
 21
103.0740934024345
 31
0.0
1001
GENIUS_GENOREF_13
1005
20BF
  0
LINE
  5
20BC
330
D
100
AcDbEntity
 67
     1
  8
AM_7
  6
AM_ISO08W050x2
100
AcDbLine
 10
500.7733806275301
 20
137.0927294692436
 30
0.0
 11
449.5576629719223
 21
137.0927294692436
 31
0.0
1001
GENIUS_GENOREF_13
1005
20BE
  0
LINE
  5
20BD
330
D
100
AcDbEntity
 67
     1
  8
AM_7
  6
AM_ISO08W050x2
100
AcDbLine
 10
475.112809236863
 20
162.1862499348313
 30
0.0
 11
475.112809236863
 21
111.8975062877781
 31
0.0
1001
GENIUS_GENOREF_13
1005
20BE
  0
POINT
  5
20BE
330
D
100
AcDbEntity
 67
     1
  8
0
 60
     1
100
AcDbPoint
 10
224.1440290522778
 20
305.3713566704359
 30
0.0
1001
GENIUS_GENOLIS_13
1002
{
1000
ENT
1005
20BD
1005
20BC
1005
0
1005
0
1002
}
1001
GENIUS_GENOENT_13
1002
{
1000
MYREF
1005
20BE
1002
}
1002
{
1000
GRP
1005
0
1002
}
1001
GENIUS_GENOBJ-N-CRS_13
1002
{
1000
OWNER
1000
GEN
1002
}
1001
GENIUS_GENODEF_13
1002
{
1000
HIER
1070
    10
1002
}
1002
{
1000
MANEDIT
1070
     1
1002
}
1002
{
1000
NOSEL
1070
     0
1002
}
1002
{
1000
BEHIND
1070
     0
1002
}
1002
{
1000
OTHER
1070
     0
1002
}
1002
{
1000
REACTOR
1002
}
  0
POINT
  5
20BF
330
D
100
AcDbEntity
 67
     1
  8
0
 60
     1
100
AcDbPoint
 10
149.4153421479868
 20
146.3048187070542
 30
0.0
1001
GENIUS_GENOLIS_13
1002
{
1000
ENT
1005
20BB
1005
20BA
1005
0
1005
0
1002
}
1001
GENIUS_GENOENT_13
1002
{
1000
MYREF
1005
20BF
1002
}
1002
{
1000
GRP
1005
0
1002
}
1001
GENIUS_GENOBJ-N-CRS_13
1002
{
1000
OWNER
1000
GEN
1002
}
1001
GENIUS_GENODEF_13
1002
{
1000
HIER
1070
    10
1002
}
1002
{
1000
MANEDIT
1070
     1
1002
}
1002
{
1000
NOSEL
1070
     0
1002
}
1002
{
1000
BEHIND
1070
     0
1002
}
1002
{
1000
OTHER
1070
     0
1002
}
1002
{
1000
REACTOR
1002
}
  0
POINT
  5
20C0
330
D
100
AcDbEntity
 67
     1
  8
0
 60
     1
100
AcDbPoint
 10
205.9153421479869
 20
146.3048187070542
 30
0.0
1001
GENIUS_GENOLIS_13
1002
{
1000
ENT
1005
20B9
1005
20B8
1005
0
1005
0
1002
}
1001
GENIUS_GENOENT_13
1002
{
1000
MYREF
1005
20C0
1002
}
1002
{
1000
GRP
1005
0
1002
}
1001
GENIUS_GENOBJ-N-CRS_13
1002
{
1000
OWNER
1000
GEN
1002
}
1001
GENIUS_GENODEF_13
1002
{
1000
HIER
1070
    10
1002
}
1002
{
1000
MANEDIT
1070
     1
1002
}
1002
{
1000
NOSEL
1070
     0
1002
}
1002
{
1000
BEHIND
1070
     0
1002
}
1002
{
1000
OTHER
1070
     0
1002
}
1002
{
1000
REACTOR
1002
}
  0
POINT
  5
20C1
330
D
100
AcDbEntity
 67
     1
  8
0
 60
     1
100
AcDbPoint
 10
205.9153421479869
 20
202.8048187070542
 30
0.0
1001
GENIUS_GENOLIS_13
1002
{
1000
ENT
1005
20B7
1005
20B6
1005
0
1005
0
1002
}
1001
GENIUS_GENOENT_13
1002
{
1000
MYREF
1005
20C1
1002
}
1002
{
1000
GRP
1005
0
1002
}
1001
GENIUS_GENOBJ-N-CRS_13
1002
{
1000
OWNER
1000
GEN
1002
}
1001
GENIUS_GENODEF_13
1002
{
1000
HIER
1070
    10
1002
}
1002
{
1000
MANEDIT
1070
     1
1002
}
1002
{
1000
NOSEL
1070
     0
1002
}
1002
{
1000
BEHIND
1070
     0
1002
}
1002
{
1000
OTHER
1070
     0
1002
}
1002
{
1000
REACTOR
1002
}
  0
POINT
  5
20C2
330
D
100
AcDbEntity
 67
     1
  8
0
 60
     1
100
AcDbPoint
 10
149.4153421479868
 20
202.8048187070542
 30
0.0
1001
GENIUS_GENOLIS_13
1002
{
1000
ENT
1005
20B5
1005
20B4
1005
0
1005
0
1002
}
1001
GENIUS_GENOENT_13
1002
{
1000
MYREF
1005
20C2
1002
}
1002
{
1000
GRP
1005
0
1002
}
1001
GENIUS_GENOBJ-N-CRS_13
1002
{
1000
OWNER
1000
GEN
1002
}
1001
GENIUS_GENODEF_13
1002
{
1000
HIER
1070
    10
1002
}
1002
{
1000
MANEDIT
1070
     1
1002
}
1002
{
1000
NOSEL
1070
     0
1002
}
1002
{
1000
BEHIND
1070
     0
1002
}
1002
{
1000
OTHER
1070
     0
1002
}
1002
{
1000
REACTOR
1002
}
  0
LINE
  5
218F
330
D
100
AcDbEntity
 67
     1
  8
0
100
AcDbLine
 10
335.3338940564884
 20
272.8800899830318
 30
0.0
 11
320.3338940564884
 21
272.8800899830318
 31
0.0
  0
LINE
  5
2190
330
D
100
AcDbEntity
 67
     1
  8
0
100
AcDbLine
 10
335.3338940564884
 20
249.3308866893387
 30
0.0
 11
320.3338940564884
 21
249.3308866893387
 31
0.0
  0
LINE
  5
2191
330
D
100
AcDbEntity
 67
     1
  8
0
100
AcDbLine
 10
335.3338940564884
 20
148.8673311160902
 30
0.0
 11
320.3338940564884
 21
148.8673311160902
 31
0.0
  0
LINE
  5
2192
330
D
100
AcDbEntity
 67
     1
  8
0
100
AcDbLine
 10
335.3338940564884
 20
125.3181278223971
 30
0.0
 11
320.3338940564884
 21
125.3181278223971
 31
0.0
  0
ENDSEC
  0
SECTION
  2
OBJECTS
  0
DICTIONARY
  5
8
330
0
100
AcDbDictionary
281
     1
  3
ACAD_COLOR
350
31
  3
ACAD_GROUP
350
2D
  3
ACAD_LAYOUT
350
C
  3
ACAD_MATERIAL
350
30
  3
ACAD_MLINESTYLE
350
2E
  3
ACAD_PLOTSETTINGS
350
2F
  3
ACAD_PLOTSTYLENAME
350
7
  3
ACAD_TABLESTYLE
350
32
  3
AcadDim
350
707
  3
AcAsAppObject
350
1277
  3
ACASGREF_MASTER
350
12BF
  3
ACDBHEADERROUNDTRIPXREC
350
21C8
  3
AcDbVariableDictionary
350
243
  3
AcmDictionary
350
2A7
  3
AD_GREF_MODULE
350
12C0
  3
AD_MAPI_MODULE
350
12D9
  3
AMG
350
24F
  3
AMGSNAPSETTINGS
350
2DE
  3
DWGPROPS
350
21C7
  3
MAPISURF_MODULE
350
12C1
  0
DICTIONARY
  5
15
330
14
100
AcDbDictionary
280
     1
281
     1
  3
ACAD_LAYERFILTERS
360
11AF
  3
ACAD_LAYERSTATES
360
16
  3
ACLYDICTIONARY
360
11AE
  0
DICTIONARY
  5
3
330
2
100
AcDbDictionary
280
     1
281
     1
  3
ACAD_INDEX
360
163D
  0
DICTIONARY
  5
629
330
628
100
AcDbDictionary
280
     1
281
     1
  0
DICTIONARY
  5
630
330
62F
100
AcDbDictionary
280
     1
281
     1
  0
DICTIONARY
  5
1667
330
1666
100
AcDbDictionary
280
     1
281
     1
  0
DICTIONARY
  5
21CC
330
24D
100
AcDbDictionary
280
     1
281
     1
  3
ACAD_XREC_ROUNDTRIP
360
21CD
  0
DICTIONARY
  5
31
102
{ACAD_REACTORS
330
8
102
}
330
8
100
AcDbDictionary
281
     1
  0
DICTIONARY
  5
2D
102
{ACAD_REACTORS
330
8
102
}
330
8
100
AcDbDictionary
281
     1
  0
DICTIONARY
  5
C
102
{ACAD_REACTORS
330
8
102
}
330
8
100
AcDbDictionary
281
     1
  3
Model
350
B
  3
配置1
350
10
  0
DICTIONARY
  5
30
102
{ACAD_REACTORS
330
8
102
}
330
8
100
AcDbDictionary
281
     1
  0
DICTIONARY
  5
2E
102
{ACAD_REACTORS
330
8
102
}
330
8
100
AcDbDictionary
281
     1
  3
STANDARD
350
33
  0
DICTIONARY
  5
2F
102
{ACAD_REACTORS
330
8
102
}
330
8
100
AcDbDictionary
281
     1
  0
ACDBDICTIONARYWDFLT
  5
7
102
{ACAD_REACTORS
330
8
102
}
330
8
100
AcDbDictionary
281
     1
  3
Normal
350
6
100
AcDbDictionaryWithDefault
340
6
  0
DICTIONARY
  5
32
102
{ACAD_REACTORS
330
8
102
}
330
8
100
AcDbDictionary
281
     1
  3
Standard
350
34
  0
XRECORD
  5
707
102
{ACAD_REACTORS
330
8
102
}
330
8
100
AcDbXrecord
280
     1
 90
   990106
  3

 60
     0
 61
     0
 62
     1
 63
     3
 64
     0
 65
     0
 66
     0
 67
     3
 68
     1
 69
     0
 70
     0
 71
     0
 72
     0
 40
0.0
170
     0
  0
ACAD_PROXY_OBJECT
  5
1277
102
{ACAD_REACTORS
330
8
102
}
330
8
100
AcDbProxyObject
 90
      499
 91
      544
 95
  2555929
 70
     0
 93
       10
310
4040
 94
        0
1001
ACAD
1000
AcRTDxfName
1000
ASAPP
  0
ACAD_PROXY_OBJECT
  5
12BF
102
{ACAD_REACTORS
330
8
102
}
330
8
100
AcDbProxyObject
 90
      499
 91
      514
 95
  2555929
 70
     0
 93
       34
310
0100004040
 94
        0
1001
ACAD
1000
AcRTDxfName
1000
ACASGREFMASTER
  0
DICTIONARY
  5
21C8
102
{ACAD_REACTORS
330
8
102
}
330
8
100
AcDbDictionary
281
     1
  0
DICTIONARY
  5
243
102
{ACAD_REACTORS
330
8
102
}
330
8
100
AcDbDictionary
281
     1
  3
CTABLESTYLE
350
244
  3
DIMASSOC
350
246
  3
HIDETEXT
350
245
  3
INDEXCTL
350
21C6
  3
PROJECTNAME
350
247
  0
DICTIONARY
  5
2A7
102
{ACAD_REACTORS
330
8
102
}
330
8
100
AcDbDictionary
281
     1
  3
AcmStdDictionary
350
2B4
  3
AMDTSECTSYM_ARROWCOLOR
350
2D0
  0
ACAD_PROXY_OBJECT
  5
12C0
102
{ACAD_REACTORS
330
8
102
}
330
8
100
AcDbProxyObject
 90
      499
 91
      526
 95
  2555929
 70
     0
 93
      114
310
000000438080000000000000000031
 94
        0
1001
ACAD
1000
AcRTDxfName
1000
ACADGREFMODULE
  0
ACAD_PROXY_OBJECT
  5
12D9
102
{ACAD_REACTORS
330
8
102
}
330
8
100
AcDbProxyObject
 90
      499
 91
      570
 95
  2555929
 70
     0
 93
       34
310
05000044C0
 94
        0
1001
ACAD
1000
AcRTDxfName
1000
MAPIADMODULE
  0
DICTIONARY
  5
24F
102
{ACAD_REACTORS
330
8
102
}
330
8
100
AcDbDictionary
281
     1
  0
DICTIONARY
  5
2DE
102
{ACAD_REACTORS
330
8
102
}
330
8
100
AcDbDictionary
281
     1
  0
XRECORD
  5
21C7
102
{ACAD_REACTORS
330
8
102
}
330
8
100
AcDbXrecord
280
     1
  1
DWGPROPS COOKIE
  2

  3

  4

  6

  7

  8

  9

300
AmdtFileType=84
301
=
302
=
303
=
304
=
305
=
306
=
307
=
308
=
309
=
 40
0.4259711111111112
 41
2454887.677864873
 42
2456639.625792998
  1

 90
        1
  0
ACAD_PROXY_OBJECT
  5
12C1
102
{ACAD_REACTORS
330
8
102
}
330
8
100
AcDbProxyObject
 90
      499
 91
      610
 95
  2555929
 70
     0
 93
        8
310
047E
 94
        0
1001
ACAD
1000
AcRTDxfName
1000
AMDTMAPISURFMOUDULE
  0
DICTIONARY
  5
11AF
102
{ACAD_REACTORS
330
15
102
}
330
15
100
AcDbDictionary
281
     1
  0
DICTIONARY
  5
16
102
{ACAD_REACTORS
330
15
102
}
330
15
100
AcDbDictionary
281
     1
  0
DICTIONARY
  5
11AE
102
{ACAD_REACTORS
330
15
102
}
330
15
100
AcDbDictionary
281
     1
1001
ACAD
1000
<All
  0
DICTIONARY
  5
163D
102
{ACAD_REACTORS
330
3
102
}
330
3
100
AcDbDictionary
281
     1
  3
*A1
350
163E
  0
XRECORD
  5
21CD
102
{ACAD_REACTORS
330
21CC
102
}
330
21CC
100
AcDbXrecord
280
     1
102
SHADEPLOT
 70
     0
  0
LAYOUT
  5
B
102
{ACAD_XDICTIONARY
360
21C9
102
}
102
{ACAD_REACTORS
330
C
102
}
330
C
100
AcDbPlotSettings
  1

  2
\\NOVIBDC\HPLJ4-TPUB
  4

  6

 40
0.0
 41
0.0
 42
0.0
 43
0.0
 44
0.0
 45
0.0
 46
0.0
 47
0.0
 48
0.0
 49
0.0
140
0.0
141
0.0
142
1.0
143
1.0
 70
  1712
 72
     0
 73
     0
 74
     0
  7

 75
     0
147
1.0
148
0.0
149
0.0
100
AcDbLayout
  1
Model
 70
     1
 71
     0
 10
0.0
 20
0.0
 11
12.0
 21
9.0
 12
0.0
 22
0.0
 32
0.0
 14
0.0
 24
0.0
 34
0.0
 15
0.0
 25
0.0
 35
0.0
146
0.0
 13
0.0
 23
0.0
 33
0.0
 16
1.0
 26
0.0
 36
0.0
 17
0.0
 27
1.0
 37
0.0
 76
     0
330
2
  0
LAYOUT
  5
10
102
{ACAD_XDICTIONARY
360
11
102
}
102
{ACAD_REACTORS
330
C
102
}
330
C
100
AcDbPlotSettings
  1

  2
\\RDs1\iR3300影印機
  4
A4
  6

 40
6.805083274841308
 41
5.619736671447753
 42
6.974411010742187
 43
5.027069091796875
 44
209.9733276367187
 45
296.9259948730469
 46
0.0000000000000142
 47
2.702264887102018
 48
0.0
 49
0.0
140
0.0
141
0.0
142
1.0
143
1.857843958653346
 70
   692
 72
     1
 73
     1
 74
     1
  7

 75
     0
147
0.5382583372205531
148
-28.42126606279203
149
15.70415551171652
100
AcDbLayout
  1
配置1
 70
     1
 71
     1
 10
14.06136962568069
 20
-28.34693836201341
 11
565.7035353677051
 21
361.7507398662042
 12
0.0
 22
0.0
 32
0.0
 14
28.4314160608721
 24
-15.69295065893902
 34
-0.0000000000000579
 15
550.1991347964467
 25
348.774916371925
 35
285.7425220874162
146
0.0
 13
0.0
 23
0.0
 33
0.0
 16
1.0
 26
0.0
 36
0.0
 17
0.0
 27
1.0
 37
0.0
 76
     0
330
D
331
24D
1001
ACAD_PSEXT
1000
\\RDs1\iR3300影印機
1000
Canon iR2200-3300 PCL5e
1000
\\RDs1
1000

1070
     0
  0
MLINESTYLE
  5
33
102
{ACAD_REACTORS
330
2E
102
}
330
2E
100
AcDbMlineStyle
  2
STANDARD
 70
     0
  3

 62
     0
 51
90.0
 52
90.0
 71
     2
 49
0.5
 62
   256
  6
BYLAYER
 49
-0.5
 62
   256
  6
BYLAYER
  0
ACDBPLACEHOLDER
  5
6
102
{ACAD_REACTORS
330
7
102
}
330
7
  0
TABLESTYLE
  5
34
102
{ACAD_REACTORS
330
32
102
}
330
32
100
AcDbTableStyle
  3
Standard
 70
     0
 71
     0
 40
1.5
 41
1.5
280
     0
281
     0
  7
STANDARD
140
4.5
170
     2
 62
     0
 63
     7
283
     0
274
    -2
284
     1
 64
     0
275
    -2
285
     1
 65
     0
276
    -2
286
     1
 66
     0
277
    -2
287
     1
 67
     0
278
    -2
288
     1
 68
     0
279
    -2
289
     1
 69
     0
  7
STANDARD
140
6.0
170
     5
 62
     0
 63
     7
283
     0
274
    -2
284
     1
 64
     0
275
    -2
285
     1
 65
     0
276
    -2
286
     1
 66
     0
277
    -2
287
     1
 67
     0
278
    -2
288
     1
 68
     0
279
    -2
289
     1
 69
     0
  7
STANDARD
140
4.5
170
     5
 62
     0
 63
     7
283
     0
274
    -2
284
     1
 64
     0
275
    -2
285
     1
 65
     0
276
    -2
286
     1
 66
     0
277
    -2
287
     1
 67
     0
278
    -2
288
     1
 68
     0
279
    -2
289
     1
 69
     0
  0
DICTIONARYVAR
  5
244
102
{ACAD_REACTORS
330
243
102
}
330
243
100
DictionaryVariables
280
     0
  1
STANDARD
  0
DICTIONARYVAR
  5
246
102
{ACAD_REACTORS
330
243
102
}
330
243
100
DictionaryVariables
280
     0
  1
1
  0
DICTIONARYVAR
  5
245
102
{ACAD_REACTORS
330
243
102
}
330
243
100
DictionaryVariables
280
     0
  1
1
  0
DICTIONARYVAR
  5
21C6
102
{ACAD_REACTORS
330
243
102
}
330
243
100
DictionaryVariables
280
     0
  1
1
  0
DICTIONARYVAR
  5
247
102
{ACAD_REACTORS
330
243
102
}
330
243
100
DictionaryVariables
280
     0
  1

  0
DICTIONARY
  5
2B4
102
{ACAD_REACTORS
330
2A7
102
}
330
2A7
100
AcDbDictionary
281
     1
  0
XRECORD
  5
2D0
102
{ACAD_REACTORS
330
2A7
102
}
330
2A7
100
AcDbXrecord
280
     1
 90
-1023410169
  0
LAYER_INDEX
  5
163E
102
{ACAD_REACTORS
330
163D
102
}
330
163D
100
AcDbIndex
 40
2456639.625792998
100
AcDbLayerIndex
  8
0
360
163F
 90
        0
  8
AM_VIS
360
1640
 90
        0
  8
AM_7
360
1641
 90
        0
  8
LOGO
360
1642
 90
        0
  8
AM_5
360
1643
 90
        0
  8
Defpoints
360
1644
 90
        0
  8
SL
360
1645
 90
        0
  8
CEN
360
17B4
 90
        0
  8
1
360
17B5
 90
        0
  8
HIDDEN
360
20FF
 90
        0
  0
DICTIONARY
  5
21C9
330
B
100
AcDbDictionary
280
     1
281
     1
  3
ACAD_XREC_ROUNDTRIP
360
21CA
  0
DICTIONARY
  5
11
330
10
100
AcDbDictionary
280
     1
281
     1
  3
ACAD_XREC_ROUNDTRIP
360
21CB
  3
ADSK_XREC_LAYOUTTHUMBNAIL
360
12
  0
IDBUFFER
  5
163F
330
0
100
AcDbIdBuffer
  0
IDBUFFER
  5
1640
330
0
100
AcDbIdBuffer
  0
IDBUFFER
  5
1641
330
0
100
AcDbIdBuffer
  0
IDBUFFER
  5
1642
330
0
100
AcDbIdBuffer
  0
IDBUFFER
  5
1643
330
0
100
AcDbIdBuffer
  0
IDBUFFER
  5
1644
330
0
100
AcDbIdBuffer
  0
IDBUFFER
  5
1645
330
0
100
AcDbIdBuffer
  0
IDBUFFER
  5
17B4
330
0
100
AcDbIdBuffer
  0
IDBUFFER
  5
17B5
330
0
100
AcDbIdBuffer
  0
IDBUFFER
  5
20FF
330
0
100
AcDbIdBuffer
  0
XRECORD
  5
21CA
102
{ACAD_REACTORS
330
21C9
102
}
330
21C9
100
AcDbXrecord
280
     1
102
SHADEPLOT
 70
     0
102
SHADEPLOTRESLEVEL
 70
     2
102
SHADEPLOTCUSTOMDPI
 70
   300
  0
XRECORD
  5
21CB
102
{ACAD_REACTORS
330
11
102
}
330
11
100
AcDbXrecord
280
     1
102
SHADEPLOT
 70
     0
102
SHADEPLOTRESLEVEL
 70
     2
102
SHADEPLOTCUSTOMDPI
 70
   300
  0
XRECORD
  5
12
102
{ACAD_REACTORS
330
11
102
}
330
11
100
AcDbXrecord
280
     1
310
28000000B40000007F00000001000800000000004C590000000000000000000000010000000000000000000000000000FFFFFF000000000000000000000000000000000000000000000000000000000000000000330000006600000099000000CC000000FF00000000330000333300006633000099330000CC330000FF3300
310
0000660000336600006666000099660000CC660000FF66000000990000339900006699000099990000CC990000FF99000000CC000033CC000066CC000099CC0000CCCC0000FFCC000000FF000033FF000066FF000099FF0000CCFF0000FFFF000000003300330033006600330099003300CC003300FF003300003333003333
310
33006633330099333300CC333300FF33330000663300336633006666330099663300CC663300FF66330000993300339933006699330099993300CC993300FF99330000CC330033CC330066CC330099CC3300CCCC3300FFCC330000FF330033FF330066FF330099FF3300CCFF3300FFFF330000006600330066006600660099
310
006600CC006600FF00660000336600333366006633660099336600CC336600FF33660000666600336666006666660099666600CC666600FF66660000996600339966006699660099996600CC996600FF99660000CC660033CC660066CC660099CC6600CCCC6600FFCC660000FF660033FF660066FF660099FF6600CCFF6600
310
FFFF660000009900330099006600990099009900CC009900FF00990000339900333399006633990099339900CC339900FF33990000669900336699006666990099669900CC669900FF66990000999900339999006699990099999900CC999900FF99990000CC990033CC990066CC990099CC9900CCCC9900FFCC990000FF99
310
0033FF990066FF990099FF9900CCFF9900FFFF99000000CC003300CC006600CC009900CC00CC00CC00FF00CC000033CC003333CC006633CC009933CC00CC33CC00FF33CC000066CC003366CC006666CC009966CC00CC66CC00FF66CC000099CC003399CC006699CC009999CC00CC99CC00FF99CC0000CCCC0033CCCC0066CC
310
CC0099CCCC00CCCCCC00FFCCCC0000FFCC0033FFCC0066FFCC0099FFCC00CCFFCC00FFFFCC000000FF003300FF006600FF009900FF00CC00FF00FF00FF000033FF003333FF006633FF009933FF00CC33FF00FF33FF000066FF003366FF006666FF009966FF00CC66FF00FF66FF000099FF003399FF006699FF009999FF00CC
310
99FF00FF99FF0000CCFF0033CCFF0066CCFF0099CCFF00CCCCFF00FFCCFF0000FFFF0033FFFF0066FFFF0099FFFF00CCFFFF00FFFFFF00000000000D0D0D001A1A1A00282828003535350043434300505050005D5D5D006B6B6B00787878008686860093939300A1A1A100AEAEAE00BBBBBB00C9C9C900D6D6D600E4E4E400
310
F1F1F100FFFFFF0000000000000000000000000000000000000000000000000000000000000000000000000000000000EFEFF5F5F5F5F5F5F5F5F5F5F5F5F5F5F5F5F5F5F5F5F5F5F5F5F5F5F5F5F5F5F5F5F5F5F5F5F5F5F5F5F5F5F5F5F5F5F5F5F5F5F5F5F5F5F5F5F5F5F5F5F5F5F5F5F5F5F5F5F5F5F5F5F5F5F5F5F5
310
F5F5F5F5F5F5F5F5F5F5F5F5F5F5F5F5F5F5F5F5F5F5F5F5F5F5F5F5F5F5F5F5F5F5F5F5F5F5F5F5F5F5F5F5F5F5F5F5F5F5F5F5F5F5F5F5F5F5F5F5F5F5F5F5F5F5F5F5F5F5F5F5F5F5F5F5F5F5F5F5F5F5F5F5F5F5F5F5F5F5F5F5F5F5F5F5F5F5F5F5F5F5F5F5F5F5F5F5F5F5F5F5F5F5F5F5F5F5F5F5F5F5F5F5F5F5F5
310
F5F5F5F5F5F5F5F5F5F5F5F5F5F5F5F5F5F5F5F5F5F5F5F5F5F5F5F5F5F5F5F5F5F5F5F5F5F5F5F5F5F5F5F5F5F5F5F5F5F5F5F5F5F5F5F5F5F5F5F5F5F5F5F5F5F5F5F5F5F5F5F5F5F5F5F5F5F5F5F5F5F5F5F5F5F5F5F5F5F5F5F5F5F5F5F5F5F5F5F5F5F5F5F5F5F5F5F5F5F5F5F5F5F5F5F5F5F5F5F5F5F5F5F5F5F5F5
310
F5F5F5F5F5F5F5F5F5F5F5F5F5F5F5F5F5F5F5F5F5F5F5F5F5F5F5F5E2E2E2E2E2E2E2E2E2E2E2E2E2E2E2E2E2E2E2E2E2E2E2E2E2E2E2E2E2E2E2E2E2E2E2E2E2E2E2E2E2E2E2E2E2E2E2E2E2E2E2E2E2E2E2E2E2E2E2E2E2E2E2E2E2E2E2E2E2E2E2E2E2E2E2E2E2E2E2E2E2E2E2E2E2E2E2E2E2E2E2E2E2E2E2E2E2E2E2
310
E2E2E2E2E2E2E2E2E2E2E2E2E2E2E2E2E2E2E2E2E2E2E2E2E2E2E2E2E2E2E2E2E2E2E2E2E2E2E2E2E2E2E2E2E2E2E2E2E2E2E2E2E2E2E2E2E2E2E2E2E2E2E2E2E2E2E2E2E2E2E2E2E2E2E2E2E2E2F5F5F5E2E2E2E2E2E2E2E2E2E2E2E2E2E2E2E2E2E2E2E2E2E2E2E2E2E2E2E2E2E2E2E2E2E2E2E2E2E2E2E2E2E2E2E2E2E2
310
E2E2E2E2E2E2E2E2E2E2E2E2E2E2E2E2E2E2E2E2E2E2E2E2E2E2E2E2E2E2E2E2E2E2E2E2E2E2E2E2E2E2E2E2E2E2E2E2E2E2E2E2E2E2E2E2E2E2E2E2E2E2E2E2E2E2E2E2E2E2E2E2E2E2E2E2E2E2E2E2E2E2E2E2E2E2E2E2E2E2E2E2E2E2E2E2E2E2E2E2E2E2E2E2E2E2E2E2E2E2E2E2E2E2E2E2E2E2E2E2E2E2E2E2E2E2E2
310
E2E2E2E2F5F5F5E2E2E2E2E2E2E2E2E2E2E2E2E2E2E2E2E2E2E2E2E2E2E2E2E2E2E2E2E2E2E2E2E2E2E2E2E2E2E2E2E2E2E2E2E2E2E2E2E2E2E2E2E2E2E2E2E2E2E2E2E2E2E2E2E2E2E2E2E2E2E2E2E2E2E2E2E2E2E2E2E2E2E2E2E2E2E2E2E2E2E2E2E2E2E2E2E2E2E2E2E2E2E2E2E2E2E2E2E2E2E2E2E2E2E2E2E2E2E2E2
310
E2E2E2E2E2E2E2E2E2E2E2E2E2E2E2E2E2E2E2E2E2E2E2E2E2E2E2E2E2E2E2E2E2E2E2E2E2E2E2E2E2E2E2E2E2E2E2E2E2E2E2E2E2E2E2E2E2F5F5F5E2E2F5F52D2D2D2D2D2D2D2D2D2D2D2D2D2D2D2D2D2D2D2D2D2D2D2D2D2D2D2D2D2D2D2DF5F5F5F5F5F5F52D2D2D2D2D2D2D2D2D2D2D2D2D2D2D2D2D2D2D2D2D2D2D2D
310
2D2D2D2D2D2D2D2D2D2D2D2D2D2D2D2D2D2D2D2D2D2D2D2D2D2D2D2D2D2D2D2D2D2D2D2D2D2D2D2D2D2D2D2D2D2D2D2D2D2D2D2D2D2D2D2D2D2D2D2D2D2D2D2D2D2D2D2D2D2D2D2D2D2D2D2D2D2D2D2D2D2D2D2D2D2D2D2D2D2D2D2D2D2D2D2D2D2D2D2D2D2D2D2D2D2DF5E2E2E2F5F5F5E2E2F5E22DF5F5F5F5F5F5F5F5F5
310
F5F5F5F5F5F5F5F5F5F5F5E2F5F5F5F5F5E2F5F5F52DF5F5F5F5F5F5F52DE2E2E2E2E2E2E2E2E2E2E22D2D2D2D2D2D2D2D2D2DE2E2E2E22D2D2D2D2D2D2D2D2D2D2DE2E22D2D2D2D2D2D2D2D2DE22D2D2D2D2D2D2D2DE22D2D2D2D2D2D2D2D2D2D2D2D2D2D2D2D2D2DE2E2E2E2E2E2E2E2E2E2E2E2E2E2E2E2E2E2E2E2E2E2
310
E2E2E2E2E2E2E2E2E2E2E2E2E2E2E2E2E2E2E2E2E2E2E2E2E2E2E2E2E2E2E22DF5E2E2E2F5F5F5E2E2F5E22DF5F5F5F5F5F5F5F5F5F5F5F5F5F5F5F5F5F5F5F5E2F5F5F5E2F5F5F5F5E22DF5F5F5F5F5F5F52DE2E2E2E2E2E2E2E2E2E2E22DE2E2F5F5F5F5E2E22DE2E2E2E22DE2F5F5F5F5F5F5F5E22DE2E22DE2E2F5F5F5
310
E2E22DE22DE2F5F5F5F5E22DE22DE2F5F5F5F5F52D2DE2F5F5F5F5F5F5F52DE2E2E2E2E2E2E2E2E2E2E2E2E2E2E2E2E2E2E2E2E2E2E2E2E2E2E2E2E2E2E2E2E2E2E2E2E2E2E2E2E2E2E2E2E2E2E2E2E2E2E2E2E22DF5E2E2E2F5F5F5E2E2F5E22DE2E2E2E2F5F5F5F5F5F5F5F5F5F5F5F5F5F5F5F5F5F5F5F5F5F5E2E2E2E2
310
2D2D2D2D2D2D2D2D2DE2E2E2E2E2E2E2E2E2E2E22DE2E2F5F5F5F5E2E22DE2E2E2E22DE2F5F5F5E2F5E2E2E22DE2E22DE2E2F5E2E2E2E22DE22DE2E2E2E2E2E22DE22DE2E2E2E2E2E22D2DE2E2F5E2E2E2E2E22DE2E2E2E2E2E2E2E2E2E2E2E2E2E2E2E2E2E2E2E2E2E2E2E2E2E2E2E2E2E2E2E2E2E2E2E2E2E2E2E2E2E2E2
310
E2E2E2E2E2E2E2E2E2E22DF5E2E2E2F5F5F5E2E2F5E22DE2E2E2E2F5F5F5F5F5F5F5F5F5F5F5F5F5F5F5F5F5F5F5F5F5F5E2E2E2E22DE2E2E2E2E2E2E2E2E2E2E2E2E2E2E2E2E2E2E22DE2E2F5F5F5F5E2E22DE2E2E2E22DF5F5F5F5F5F5F5F5E22DE2E22DE2F5F5F5F5F5E22DE22DE2F5F5F5F5E22DE22DF5F5F5F5F5F52D
310
2DE2E2F5F5F5F5F5E22DE2E2E2E2E2E2E2E2E2E2E2E2E2E2E2E2E2E2E2E2E2E2E2E2E2E2E2E2E2E2E2E2E2E2E2E2E2E2E2E2E2E2E2E2E2E2E2E2E2E2E2E2E22DF5E2E2E2F5F5F5E2E2F5E22D2D2D2D2D2D2D2D2D2D2D2D2D2D2D2D2D2D2D2D2D2D2D2D2D2D2D2D2D2D2D2DE2E2E2E2E2E2E2E2E2E2E2E2E2E2E2E2E2E2E22D
310
E2E2F5F5F5F5E2E22DE2E2E2E22DF5F5F5F5F5F5F5F5E22DE2E22DE2F5F5F5F5F5E22DE22DE2F5F5F5F5E22DE22DF5F5F5F5F5F52D2DE2E2F5F5F5F5F5E22DE2E2E2E2E2E2E2E2E2E2E2E2E2E2E2E2E2E2E2E2E2E2E2E2E2E2E2E2E2E2E2E2E2E2E2E2E2E2E2E2E2E2E2E2E2E2E2E2E2E2E2E2E22DF5E2E2E2F5F5F5E2E2F5
310
E22D0F0F0F0F0F0F0F0F0F2DE2F5F5F5E2F5F5F5F5F5E22DE2F5F5F5F5F5E2E22DE2E2E2E2E2E2E2E2E2E2E2E2E2E2E2E2E2E2E22D2D2D2D2D2D2D2D2D2DE2E2E2E22D2D2D2D2D2D2D2D2D2D2DE2E22D2D2D2D2D2D2D2D2DE22D2D2D2D2D2D2D2DE22D2D2D2D2D2D2D2D2D2D2D2D2D2D2D2D2D2DE2E2E2E2E2E2E2E2E2E2E2
310
E2E2E2E2E2E2E2E2E2E2E2E2E2E2E2E2E2E2E2E2E2E2E2E2E2E2E2E2E2E2E2E2E2E2E2E2E2E2E2E2E2E22DF5E2E2E2F5F5F5E2E2F5E22D0F0F0F0F0F0F0F0F0F2DE2F5F5F5E2F5F5F5F5F5E22DE2F5F5F5F5F5E2E22DE2E2E2E2E2E2E2E2E2E2E2E2E2F5E2E2E2E2E2E2E2E2E2E22DE2E2E2E2E2E2E2E2E2E2E2E2E22DE2E2
310
E2E2E2E2E2E2E2E2E22DE2E2E2E2E2E2E2E2E22DE2E2E2E2E2E2E2E22DE2E2E2E2E2E2E22DE2E2E2E2E2E2E2E2E2E2E2E2E2E2E2E2E2E2E2E2E2E2E2E2E2E2E2E2E2E2E2E2E2E2E2E2E2E2E2E2E2E2E2E2E2E2E2E2E2E2E2E2E2E2E2E2E2E22DF5E2E2E2F5F5F5E2E2E2E22DE2DC0FE2DC0FE2DCDC2D2D2D2D2D2D2D2D2D2D
310
2D2D2D2DF52D2D2D2D2D2D2DF5F5F5F5F5F5E2F5F5F5F5F5F5F5F5F5F52D2D2D2D2D2D2D2D2D2D2D2D2D2D2DE2E22D2D2D2D2D2D2D2D2D2DE2E22D2D2D2D2D2D2D2D2DE2E22D2D2D2D2D2D2D2D2D2D2D2D2D2D2D2DE2E22D2D2D2D2DE2E2E2E2E2E2E2E2E2E2E2E2E2E2E2E2E2E2E2E2E2E2E2E2E2E2E2E2E2E2E2E2E2E2E2
310
E2E2E2E2E2E2E2E2E2E2E2E2E2E2E2E2E2E2E2E2E22DE2E2E2E2F5F5F5E2E2E2E22DE2E2DC0FDCDC0FDCDC2DF5F5F5F5E2E2F5F5F5F5E22DF5F5F5E2F5F5F5E22DF5F5F5F5F5F5E2F5F5F5F5F5F5F5F5F5F52DF5F5F5F5F5F5F5F5F5F5F5F5F52DE2E22DE2E2F5E2F5E2E2E22DE2E22DE2F5F5F5F5F5E22DE2E22DE2E2E2E2
310
E22D2DF5F5F5F5F5F5E22DE2E22DE2F5E22DE2E2E2E2E2E2E2E2E2E2E2E2E2E2E2E2E2E2E2E2E2E2E2E2E2E2E2E2E2E2E2E2E2E2E2E2E2E2E2E2E2E2E2E2E2E2E2E2E2E2E2E2E2E2E2E22DE2E2E2E2F5F5F5E2E2E2E22DE2E2DC0FDCDCDCDCDC2DF5F5F5F5E2F5F5F5F5F5E22DF5F5F5F5F5F5F5E22DF5F5F5F5F5F5F5E2F5
310
F5F5F5E2E2F5E2E22DF5F5F5E2F5F5F5F5F5F5E2F5E2F5F5F52DE2E2F5E2F5E2E2E22DF5F52DE2F5F5F5F5F5E2F5F5F52DE2F5F5E2E22D2DF5E2F5F5F5F5E22DF5F52DE2F5E22DE2E2E2E2E2E2E2E2E2E2E2E2E2E2E2E2E2E2E2E2E2E2E2E2E2E2E2E2E2E2E2E2E2E2E2E2E2E2E2E2E2E2E2E2E2E2E2E2E2E2E2E2E2E2E2E2
310
2DE2E2E2E2F5F5F5E2E2E2E22DE2E2E2DCDC0FDC0FDC2D2D2D2D2D2D2D2D2D2D2D2D2D2DF52D2D2D2D2D2D2DF5F5F5F5F5F5F5F5F5F5F5F5E2E2E2E2E22DF5F5F5F5F5F5F5F5F5F5F5F5F52DE2E22DE2E2F5F5F5E2E2E22DE2E22DE2F5F5F5F5F5E22DE2E22DE2F5F5E2E22D2DF5F5F5E2F5F5E22DE2E22DE2F5F52DE2E2E2
310
E2E2E2E2E2E2E2E2E2E2E2E2E2E2E2E2E2E2E2E2E2E2E2E2E2E2E2E2E2E2E2E2E2E2E2E2E2E2E2E2E2E2E2E2E2E2E2E2E2E2E2E2E22DE2E2E2E2F5F5F5E2E2E2E22DE2E2E2DCDC0FDCDCDC2DE2F5F5F5F5F5F5F5F5F5E22DE2F5E2F5E2E2F5E22DF5F5F5F5F5F5F5F5F5F5F5F5E2E2E2E2E22D2D2D2D2D2D2D2D2D2D2D2D2D
310
2D2DE2E22D2D2D2D2D2D2D2D2D2DE2E22D2D2D2D2D2D2D2D2DE2E22D2D2D2D2D2D2D2D2D2D2D2D2D2D2D2DE2E22D2D2D2D2DE2E2E2E2E2E2E2E2E2E2E2E2E2E2E2E2E2E2E2E2E2E2E2E2E2E2E2E2E2E2E2E2E2E2E2E2E2E2E2E2E2E2E2E2E2E2E2E2E2E2E2E2E2E2E2E22DE2E2E2E2F5F5F5E2E2E2E22DE2E2E2E2DC0FE2DC
310
DC2DE2F5F5F5F5F5F5F5F5F5E22DE2F5E2F5E2F5F5E22DF5F5F5F5F5F5F5F5F5F5F5F5E2E2E2E2E2E2E2E2E2E2E2E2E2E2E2E2E2E2E2E2E2E2E2E2E2E2E2E2E2E2E2E2E2E2E2E2E2E2E2E2E2E2E2E2E2E2E2E2E2E2E2E2E2E2E2E2E2E2E2E2E2E2E2E2E2E2E2E2E2E2E2E2E2E2E2E2E2E2E2E2E2E2E2E2E2E2E2E2E2E2E2E2
310
E2E2E2E2E2E2E2E2E2E2E2E2E2E2E2E2E2E2E2E2E2E2E2E2E2E2E2E2E2E2E2E22DE2E2E2E2F5F5F5E2E2E2E22D2D2D2D2D2D2D2D2D2D2D2D2D2D2D2D2D2D2D2D2D2D2D2D2D2D2D2D2D2D2D2D2D2D2D2D2D2D2D2D2D2D2D2D2D2D2D2D2D2D2D2D2D2D2D2D2D2D2D2D2D2D2D2D2D2D2D2D2D2D2D2D2D2D2D2D2D2D2D2D2D2D2D
310
2D2D2D2D2D2D2D2D2D2D2D2D2D2D2D2D2D2D2D2D2D2D2D2D2D2D2D2D2D2D2D2D2D2D2D2D2D2D2D2D2D2D2D2D2D2D2D2D2D2D2D2D2D2D2D2D2D2D2D2D2D2D2D2D2D2D2D2D2D2D2D2D2D2D2D2D2D2D2D2D2D2D2D2D2D2DE2E2E2E2F5F5F5E2E2E2E22DE2E2E2E2E2E2E2E2E2E2E2E2E2E2E2E2E2E2E2E2E2E2E2E2E2E2E2E2E2
310
E2E2E2E2E2E2E2E2E2E2E2E2E2E2E2E2E2E2E2E2E2E2E2E2E2E2E2E2E2E2E2E2E2E2E2E2E2E2E2E2E2E2E2E2E2E2E2E2E2E2E2E2E2E2E2E2E2E2E2E2E2E2E2E2E2E2E2E2E2E2E2E2E2E2E2E2E2E2E2E2E2E2E2E2E2E2E2E2E2E2E2E2E2E2E2E2E2E2E2E2E2E2E2E2E2E2E2E2E2E2E2E2E2E2E2E2E2E2E2E2E2E2E2E2E2E2E2
310
E2E2E2E2E2E2E2E2E2E2E22DE2E2E2E2F5F5F5E2E2F5E22DE2E2E2E2E2E2E2E2E2E2E2E2E2E2E2E2E2E2E2E2E2E2E2E2E2E2E2E2E2E2E2E2E2E2E2E2E2E2E2E2E2E2E2E2E2E2E2E2E2E2E2E2E2E2E2E2E2E2E2E2E2E2E2E2E2E2E2E2E2E2E2E2E2E2E2E2E2E2E2E2E2E2E2E2E2E2E2E2E2E2E2E2E2E2E2E2E2E2E2E2E2E2E2
310
E2E2E2E2E2E2E2E2E2E2E2E2E2E2E2E2E2E2E2E2E2E2E2E2E2E2E2E2E2E2E2E2E2E2E2E2E2E2E2E2E2E2E2E2E2E2E2E2E2E2E2E2E2E2E2E2E2E2E2E2E2E2E2E22DF5E2E2E2F5F5F5E2E2F5E22DE2E2E2E2E2E2E2E2E2E2E2E2E2E2E2E2E2E2E2E2E2E2E2E2E2E2E2E2E2E2E2E2E2E2E2E2E2E2E2E2E2E2E2E2E2E2E2E2E2E2
310
E2E2E2E2E2E2E2E2E2E2E2E2E2E2E2E2E2E2E2E2E2E2E2E2E2E2E2E2E2E2E2E2E2E2E2E2E2E2E2E2E2E2E2E2E2E2E2E2E2E2E2E2E2E2E2E2E2E2E2E2E2E2E2E2E2E2E2E2E2E2E2E2E2E2E2E2E2E2E2E2E2E2E2E2E2E2E2E2E2E2E2E2E2E2E2E2E2E2E2E2E2E2E2E2E2E2E2E2E2E2E2E2E2E2E2E2E22DF5E2E2E2F5F5F5E2E2
310
F5E22DE2E2E2E2E2E2E2E2E2E2E2E2E2E2E2E2E2E2E2E2E2E2E2E2E2E2E2E2E2E2E2E2E2E2E2E2E2E2E2E2E2E2E2E2E2E2E2E2E2E2E2E2E2E2E2E2E2E2E2E2E2E2E2E2E2E2E2E2E2E2E2E2E2E2E2E2E2E2E2E2E2E2E2E2E2E2E2E2E2E2E2E2E2E2E2E2E2E2E2E2E2E2E2E2E2E2E2E2E2E2E2E2E2E2E2E2E2E2E2E2E2E2E2E2
310
E2E2E2E2E2E2E2E2E2E2E2E2E2E2E2E2E2E2E2E2E2E2E2E2E2E2E2E2E2E2E2E2E2E2E2E2E2E2E2E2E2E2E22DF5E2E2E2F5F5F5E2E2F5E22DE2E2E2E2E2E2E2E2E2E2E2E2E2E2E2E2E2E2E2E2E2E2E2E2E2E2E2E2E2E2E2E2E2E2E2E2E2E2E2E2E2E2E2E2E2E2E2E2E2E2E2E2E2E2E2E2E2E2E2E2E2E2E2E2E2E2E2E2E2E2E2
310
E2E2E2E2E2E2E2E2E2E2E2E2E2E2E2E2E2E2E2E2E2E2E2E2E2E2E2E2E2E2E2E2E2E2E2E2E2E2E2E2E2E2E2E2E2E2E2E2E2E2E2E2E2E2E2E2E2E2E2E2E2E2E2E2E2E2E2E2E2E2E2E2E2E2E2E2E2E2E2E2E2E2E2E2E2E2E2E2E2E2E2E2E2E2E2E22DF5E2E2E2F5F5F5E2E2F5E22DE2E2E2E2E2E2E2E2E2E2E2E2E2E2E2E2E2E2
310
E2E2E2E2E2E2E2E2E2E2E2E2E2E2E2E2E2E2E2E2E2E2E2E2E2E2E2E2E2E2E2E2E2E2E2E2E2E2E2E2E2E2E2E2E2E2E2E2E2E2E2E2E2E2E2E2E2E2E2E2E2E2E2E2E2E2E2E2E2E2E2E2E2E2E2E2E2E2E2E2E2E2E2E2E2E2E2E2E2E2E2E2E2E2E2E2E2E2E2E2E2E2E2E2E2E2E2E2E2E2E2E2E2E2E2E2E2E2E2E2E2E2E2E2E2E2E2
310
E2E2E2E2E2E2E2E2E2E2E2E2E2E2E2E2E2E2E2E2E2E22DF5E2E2E2F5F5F5E2E2F5E22DE2E2E2E2E2E2E2E2E2E2E2E2E2E2E2E2E2E2E2E2E2E2E2E2E2E2E2E2E2E2E2E2E2E2E2E2E2E2E2E2E2E2E2E2E2E2E2E2E2E2E2E2E2E2E2E2E2E2E2E2E2E2E2E2E2E2E2E2E2E2E2E2E2E2E2E2E2E2E2E2E2E2E2E2E2E2E2E2E2E2E2E2
310
E2E2E2E2E2E2E2E2E2E2E2E2E2E2E2E2E2E2E2E2E2E2E2E2E2E2E2E2E2E2E2E2E2E2E2E2E2E2E2E2E2E2E2E2E2E2E2E2E2E2E2E2E2E2E2E2E2E2E2E2E2E2E2E2E2E2E2E2E2E2E2E2E2E2E22DF5E2E2E2F5F5F5E2E2F5E22DE2E2E2E2E2E2E2E2E2E2E2E2E2E2E2E2E2E2E2E2E2E2E2E2E2E2E2E2E2E2E2E2E2E2E2E2E2E2E2
310
E2E2E2E2E2E2E2E2E2E2E2E2E2E2E2E2E2E2E2E2E2E2E2E2E2E2E2E2E2E2E2E2E2E2E2E2E2E2E2E2E2E2E2E2E2E2E2E2E2E2E2E2E2E2E2E2E2E2E2E2E2E2E2E2E2E2E2E2E2E2E2E2E2E2E2E2E2E2E2E2E2E2E2E2E2E2E2E2E2E2E2E2E2E2E2E2E2E2E2E2E2E2E2E2E2E2E2E2E2E2E2E2E2E2E2E2E2E2E2E2E2E2E2E2E2E2E2
310
E22DF5E2E2E2F5F5F5E2E2F5E22DE2E2E2E2E2E2E2E2E2E2E2E2E2E2E2E2E2E2E2E2E2E2E2E2E2E2E2E2E2E2E2E2E2E2E2E2E2E2E2E2E2E2E2E2E2E2E2E2E2E2E2E2E2E2E2E2E2E2E2E2E2E2E2E2E2E2E2E2E2E2E2E2E2E2E2E2E2E2E2E2E2E2E2E2E2E2E2E2E2E2E2E2E2E2E2E2E2E2E2E2E2E2E2E2E2E2E2E2E2E2E2E2E2
310
E2E2E2E2E2E2E2E2E2E2E2E2E2E2E2E2E2E2E2E2E2E2E2E2E2E2E2E2E2E2E2E2E2E2E2E2E2E2E2E2E2E2E2E2E2E2E2E2E2E2E2E2E2E22DF5E2E2E2F5F5F5E2E2F5E22DE2E2E2E2E2E2E2E2E2E2E2E2E2E2E2E2E2E2E2E2E2E20F0F0F0F0F0F0F0F0F0F0F0F0F0F0F0F0F0F0F0F0F0F0F0F0F0F0F0F0F0F0F0F0F0F0F0F0F0F
310
0F0F0F0F0F0F0F0F0F0F0F0F0F0F0F0F0F0F0F0F0F0F0F0F0F0F0F0F0F0F0F0F0F0F0F0F0F0F0F0F0F0F0F0F0F0F0F0F0F0F0F0F0FE2E2E2E2E2E2E2E2E2E2E2E2E2E2E2E2E2E2E2E2E2E2E2E2E2E2E2E2E2E2E2E2E2E2E2E2E2E2E2E2E2E2E2E2E2E2E2E2E2E2E2E2E2E22DF5E2E2E2F5F5F5E2E2F5E22DE2E2E2E2E2E2E2
310
E2E2E2E2E2E2E2E2E2E2E2E2E2E2E20FE2E2E2E2E2E2E2E2E2E2E2E2E2E2E2E2E2E2E2E2E2E2E2E2E2E2E2E2E2E2E2E2E2E2E20F0F0F0F0F0F0F0FE2E2E2E2E2E2E2E2E2E2E2E2E2E2E2E2E2E2E2E2E2E2E2E2E2E2E2E2E2E2E2E2E2E2E20FE2E2E2E20F0FE2E2E2E20FE2E2E2E2E2E2E2E2E2E2E2E2E2E2E2E2E20F0F0F0F
310
0F0F0F0F0F0F0F0F0F0F0F0F0F0F0F0F0F0F0F0F0F0FE2E2E2E2E2E2E2E2E2E2E22DF5E2E2E2F5F5F5E2E2F5E22DE2E2E2E2E2E2E2E2E2E2E2E2E2E2E2E2E2E2E2E2E2E20FE2E2E2E2E2E2E2E2E2E2E2E2E2E2E2E2E2E2E2E2E2E2E2E2E2E2E2E2E2E2E2E2E2E2E2E2E2E2E2E2E2E2E2E2E2E2E2E2E2E2E2E2E2E2E2E2E2E2
310
E2E2E2E2E2E2E2E2E2E2E2E2E2E2E2E2E2E2E2E20FE2E2E2E2E2E2E2E2E2E20FE2E2E2E2E2E2E2E2E2E2E2E2E2E2E2E2E20FE2E2E2E2E2E2E2E2E2E20F0F0F0FE2E2E2E2E2E2E2E2E2E20FE2E2E2E2E2E2E2E2E2E2E22DF5E2E2E2F5F5F5E2E2F5E22DE2E2E2E2E2E2E2E2E2E2E2E2E2E2E2E2E2E2E2E2E2E20FE2E2E2E2E2
310
E2E2E2E2E2E2E2E2E2E2E2E2E2E2E2E2E2E2E2E2E2E2E2E2E2E2E2E2E2E2E2E2E2E2E2E2E2E2E2E2E2E2E2E2E2E2E2E2E2E2E2E2E2E2E2E2E2E2E2E2E2E2E2E2E2E2E2E2E2E2E2E2E20FE2E2E2E2E2E2E2E2E2E20FE2E2E2E2E2E2E2E2E2E2E2E2E2E2E2E2E20FE2E2E2E2E2E2E2E2E2E20F0FE2E2E2E2E2E2E2E2E2E2E2E2
310
0FE2E2E2E2E2E2E2E2E2E2E22DF5E2E2E2F5F5F5E2E2F5E22DE2E2E2E2E2E2E2E2E2E2E2E2E2E2E2E2E2E20F0F0F0F0F0F0F0F0F0F0F0F0F0F0F0F0F0F0F0F0F0F0F0F0F0F0F0F0F0F0F0F0F0F0F0F0F0F0F0F0F0F0F0F0F0F0F0F0F0F0F0F0F0F0F0F0F0F0F0F0F0F0F0F0F0F0F0F0F0F0F0F0F0F0F0F0F0F0F0F0F0F0F0F
310
E2E2E2E2E2E2E2E2E2E20FE2E2E2E2E2E2E2E2E2E2E2E2E2E2E2E2E20FE2E2E2E2E2E2E2E2E2E2E2E2E2E2E2E2E2E2E2E2E2E2E2E20FE2E2E2E2E2E2E2E2E2E2E22DF5E2E2E2F5F5F5E2E2F5E22DE2E2E2E2E2E2E2E2E2E2E2E2E2E2E2E2E2E2E20F0F0F0F0FE2E2E2E2E2E2E2E2E2E2E2E2E2E20F0F0F0F0F0F0F0FE2E2E2
310
E2E2E2E2E2E2E2E2E2E2E20F0F0FE2E2E2E2E2E2E2E2E2E2E2E20F0FE2E2E2E2E2E2E2E2E2E2E20F0F0F0FE2E2E20F0FE2E2E20F0FE2E2E2E2E2E2E2E2E2E20FE2E2E2E2E2E2E2E2E2E2E2E2E2E2E2E2E20FE2E20FE2E2E2E2E2E2E2E2E2E2E2E2E2E2E2E2E2E20FE2E20FE2E2E2E2E2E2E2E2E2E2E22DF5E2E2E2F5F5F5E2
310
E2F5E22DE2E2E2E2E2E2E2E2E2E2E2E2E2E2E2E2E2E2E2E2E20F0FE2E2E2E2E2E2E2E2E2E2E2E2E2E2E20F0F0F0FE20FE2E2E2E2E2E2E2E2E2E2E2E2E2E2E2E2E20FE2E2E2E2E2E2E2E2E2E2E2E2E20F0FE2E2E2E2E2E2E2E2E2E2E2E2E20FE2E2E2E20F0FE2E2E2E20FE2E2E2E2E2E2E2E2E2E20FE2E2E2E2E2E2E2E2E2E2
310
E2E2E2E2E2E2E20FE2E20F0F0F0F0F0F0F0F0F0F0F0F0F0F0F0F0F0F0F0FE2E20FE2E2E2E2E2E2E2E2E2E2E22DF5E2E2E2F5F5F5E2E2E2E22DE2E2E2E2E2E2E2E2E2E2E2E2E2E2E2E2E2E2E2E2E20F0FE2E2E2E2E2E2E2E2E2E2E2E2E2E2E2E2E2E2E2E2E2E2E2E2E2E2E2E2E2E2E2E2E2E2E2E2E2E20FE2E2E2E2E2E2E2E2
310
E2E2E2E2E2E2E2E2E2E2E2E2E2E2E2E2E2E2E2E20FE2E2E2E2E2E2E2E2E2E20FE2E2E2E2E2E2E2E2E2E20FE2E2E2E2E2E2E2E2E2E2E2E2E2E2E2E2E20FE2E20FE2E2E2E2E2E2E20F0F0F0FE2E2E2E2E2E2E20FE2E20FE2E2E2E2E2E2E2E2E2E2E22DE2E2E2E2F5F5F5E2E2E2E22DE2E2E2E2E2E2E2E2E2E2E2E2E2E2E2E2E2
310
E2E2E2E20F0FE2E2E2E2E2E2E2E2E2E2E2E2E2E2E2E2E2E2E2E2E2E2E2E2E2E2E2E2E2E2E2E2E2E2E2E2E2E20FE2E2E2E2E2E2E2E2E2E2E2E2E2E2E2E2E2E2E2E2E2E2E2E2E2E2E2E20FE2E2E2E2E2E2E2E2E2E20FE2E2E2E2E2E2E2E2E2E20FE2E2E2E2E2E2E2E2E2E2E2E2E2E2E2E2E20FE2E20FE2E2E2E2E2E2E2E2E2E2
310
E2E2E2E2E2E2E2E20FE2E20FE2E2E2E2E2E2E2E2E2E2E22DE2E2E2E2F5F5F5E2E2E2E22DE2E2E2E2E2E2E2E2E2E2E2E2E2E2E2E2E2E2E2E2E20F0FE2E2E2E2E2E2E2E2E20F0F0F0F0F0FE2E2E2E2E2E2E2E2E2E2E2E2E2E2E2E2E2E2E2E2E2E2E20FE2E2E2E2E2E2E2E2E2E2E2E2E2E2E2E2E2E2E2E2E2E2E2E2E2E2E2E20F
310
0F0F0FE2E2E2E2E2E2E20FE2E2E2E2E2E2E2E2E2E20FE2E2E2E2E2E2E2E2E2E2E2E2E2E2E2E2E20FE2E20FE2E2E2E2E2E2E2E2E2E2E2E2E2E2E2E2E2E20FE2E20FE2E2E2E2E2E2E2E2E2E2E22DE2E2E2E2F5F5F5E2E2E2E22DE2E2E2E2E2E2E2E2E2E2E2E2E2E2E2E2E2E2E2E2E20F0FE2E2E2E2E2E2E2E2E20F0F0F0F0F0F
310
E2E2E2E2E2E2E2E2E2E2E2E2E2E2E2E2E2E2E2E2E2E2E20FE2E2E2E2E2E2E2E2E2E2E20F0F0F0FE2E2E2E2E2E2E2E2E2E2E2E2E20F0F0F0FE2E2E2E2E2E2E20FE2E2E2E2E2E2E2E2E2E20FE2E2E2E2E2E2E2E2E2E2E2E2E2E2E2E2E20FE2E20FE2E2E2E2E2E2E2E2E2E2E2E2E2E2E2E2E2E20FE2E20FE2E2E2E2E2E2E2E2E2
310
E2E22DE2E2E2E2F5F5F5E2E2E2E22DE2E2E2E2E2E2E2E2E2E2E2E2E2E2E2E2E2E2E2E2E20F0FE2E2E2E2E2E2E2E20F0F0F0F0F0F0FE2E2E2E2E2E2E2E2E2E2E2E2E2E2E2E2E2E2E2E2E2E2E20FE2E2E2E2E2E2E2E2E2E2E20F0F0F0FE2E2E2E2E2E2E2E2E2E2E2E2E20F0F0F0FE2E2E2E2E2E2E20FE2E2E2E2E2E2E2E2E2E2
310
0FE2E2E2E2E2E2E2E2E2E2E2E2E2E2E2E2E20FE2E20FE2E2E2E2E2E2E2E2E2E2E2E2E2E2E2E2E2E20FE2E20FE2E2E2E2E2E2E2E2E2E2E22DE2E2E2E2F5F5F5E2E2E2E22DE2E2E2E2E2E2E2E2E2E2E2E2E2E2E2E2E2E2E2E2E20FF5F5F5F5F5F5F5F5F5F5F5E2E2E2E2E2E2E2E2E2E2E2E2E2E2E2E2E2F5F5F5F5F5F5F5F5F5
310
F5F5F5E2E2E2E2E2E2E2E2E2E20FE20F0F0FE2E2E2E2E2E2E2E2E2E2E2E2E20FE2E20FE2E2E2E2E2E2E20FE2E2E2E2E2E2E2E2E2E20FE2E2E2E2E2E2E2E2E2E2E2E2E2E2E2E2E20FE2E20FE2E2E2E2E2E2E2E2E2E2E2E2E2E2E2E2E2E20FE2E20FE2E2E2E2E2E2E2E2E2E2E22DE2E2E2E2F5F5F5E2E2E2E22DE2E2E2E2E2E2
310
E2E2E2E2E2E2E2E2E2E2E2E2E2E2E20FF5E2E2E2E2E2E2E2E20FF5E2E2E2E2E2E2E2E2E2E2E2E2E2E2E2E2E2F5E2E2E2E2E2E2E2E2E2E2F5F5F5F5F5F5E2F5F5F5F50FF5F5F5F5F5F5F5F5F5F5F5F5F5F5F5F5F50FE2E20FE2E2E2E2E2E2E20FE2E2E2E2E2E2E2E2E2E20FE2E2E2E2E2E2E2E2E2E2E2E2E2E2E2E2E20FE2F5
310
F5F5F5F5F5F5F5F5F5F5F5F5F5F5F5F5F5F5F5F5F5E20FE2E2E2E2E2E2E2E2E2E2E22DE2E2E2E2F5F5F5E2E2E2E22DE2E2E2E2E2E2E2E2E2E2E2E2E2E2E2E2E2E2E2E2E20FF5E2E2E2E2E2E2E20FE2F5F5F5F5F5F5F5F5F5F5F5F5F5F5F5F5F5F5F5E2E2E2E2E2E2E2E2E2E2F5F5F5F5E2F5E2F5F5F5F50FF5F5F5F5F5F5F5
310
F5F5F5F5F5F5F5F5F5F5F5E2E20FE2E2E2E2E2E2E20FE2E2E2E2E2E2E2E2E2E20FE2E2E2E2E2E2E2E2E2E2E2E2E2E2E2E2E2F5F5E2BEE2E2E2E2E2E2E2E2E2E2E2E2E2E2E2E2E2E2BEE2F5F5E2E2E2E2E2E2E2E2E2E2E22DE2E2E2E2F5F5F5E2E2E2E22DE2E2E2E2E2E2E2E2E2E2E2E2E2E2E2E2E2E2E2E2E20FF5E2E2E2E2
310
E2E2E20FE2F5E2E2E2E2E2E2E2E2E2E2E2E2E2E2E2E2E2F5E2E2E2E2E2E2E2E2E2E2F5E2F5F5F5F5F5F5E2E20FE2E2E2E2E2E2E2E2E2E2E2E2E2E2E2E2E2E2F5E2E20FE2E2E2E2E2E2E20FE2E2E2E2E2E2E2E2E2E20FE2E2E2E2E2E2E2E2E2E2E2E2E2E2E2E2E2F5E2F5BE28E2E2E2E2E2E2E2E2E2E2E2E2E2E2E2E228BE28
310
E2F5E2E2E2E2E2E2E2E2E2E2E22DE2E2E2E2F5F5F5E2E2F5E22DE2E2E2E2E2E2E2E2E2E2E2E2E2E2E2E2E2E2E2E2E20FF5E2E2E2E2E2E2E20FE2F5E2E2E2E2E2E2E2E2E2E2E2E2E2E2E2E2E2F5E2E2E2E2E2E2E2E2E2E2F5E2F5F5E2F5E2F5E2E2BE0FE2E2E2E2E2E2E2E2E2E2E2E2E2E2E2E2E2F5E2E20FE2E2E2E2E2E2E2
310
0FE2E2E2E2E2E2E2E2E2E20FE2E2E2E2E2E2E2E2E2E2E2E2E2E2E2E2E2F5BEBEBEBEBEBEE2E2E2E2E2E2E2E2E2E2E2E2E2BEBEBEBEBEF5E2E2E2E2E2E2E2E2E2E2E22DF5E2E2E2F5F5F5E2E2F5E22DE2E2E2E2E2E2E2E2E2E2E2E2E2E2E2E2E2E2E2E2E20FF5E2E2E2E2E2E2E20FE2F5E2E2E2E2E2E2E2E2E2E2E2E2E2E2E2
310
E2E2F5E2E2E2E2E2E2E2E2E2E2F5E2F5F5F5F5E2F5E2F5BEF5E2E2E2E2E2F5F5F5F5E2E2E2E2E2E2E2E2F5E2E20FE2E2E2E2E2E2E20FE2E2E2E2E2E2E2E2E2E20FE2E2E2E2E2E2E2E2E2E2E2E2E2E2E2E2E2F5E2E2BE28E2E2E2E2E2E2E2BEE2E2E2E2E2E2E2E228BE28E2F5E2E2E2E2E2E2E2E2E2E2E22DF5E2E2E2F5F5F5
310
E2E2F5E22DE2E2E2E2E2E2E2E2E2E2E2E2E2E20F0F0F0F0F0F0FF5F5E2E2E2E2BEE20FE2E2F5E2E2E2E2E2E2E2E2E2E2E2E2E2E2E2E2E2F5E2E2E2E2E2BEE2E2E2E2F5E2F5F5F5F5E2F5F5F5BEF5E2E2F5F5F5E2E2E2F5F5F5E2E2E2E2E2E2F5F50F0F0F0F0F0F0F0F0F0F0F0F0F0F0F0F0F0F0F0F0F0F0F0F0F0F0F0F0FE2
310
E2E2E2E2E2E2E2E2F5E2E2BEE2E2E2E2E2F5F5F5BEF5F5F5F5E2E2E2E2E2BEE2E2F5E2E2E2E2E2E2E2E2E2E2E22DF5E2E2E2F5F5F5E2E2F5E22DE2E2E2E2E2E2E2E2E2E2E2E2E2E20F0FE2E2E2E2E2F5F5E2E2E2E2BEE20FE2E2F5E2E2E2E2E2E2E2E2E2E2E2E2E2E2E2E2E2F5E2E2E2E2E2BEE2E2E2E2F5E2F5E2E2E2E2BE
310
BEBEBEBEBEF5F5E2E2E2E2E2E2E2E2F5E2E2E2E2E2F5E2F5F5E2E2E2E2E2E2E20FE2E2E2E2E2E2E2E2E2E20FE2E2E2E2E2E20F0FE2E2E2E2E2E2E2E2E2F5E2E2E2E2E2E2E2F5F5E2E2BEE2E2E2F5F5E2E2E2E2E2E2E2F5E2E2E2E2E2E2E2E2E2E2E22DF5E2E2E2F5F5F5E2E2F5E22DE2E2E2E2E2E2E2E2E2E2E2E2E2E20FE2
310
E2E20FE2E2F5F5E2E2F5F5BEF5F5E2E2F5E2E2E2E2E2E2E2E2E2E2E2E2E2E2E2E2E2F5E2E2F5F5F5BEF5F5E2E2F5E2F5E2E2E2E2F5E2F5BEF5F5F5E2E2E2E2E2E2E2E2E2E2F5E2E2E2E2F5E2F5F5E2E2E2E2E2E2E20FE2E2E2E2F5F5F5E2E2E20FE2E2E2E2E2E20FE2E2E2E2E2E2E2E2E2E2F5E2E2E2E2E2E2F5F5E2E2E2BE
310
E2E2E2E2F5F5E2E2E2E2E2E2F5E2E2E2E2E2E2E2E2E2E2E22DF5E2E2E2F5F5F5E2E2F5E22DE2E2E2E2E2E2E2E2E2E2E2E2E2E20FE2E2E20F0FE2F5F5E2F5F5E2BEE2F5F5E2F5E2E2E2E2E2E2E2E2E2E2E2E2E2E2E2E2E2F5E2E2F5F5E2BEF5F5E2E2F5E2F5E2E2E2E2F5E2E2BEE2F5E2E2E2E2E2E2E2E2E2E2E2E2F5E2E2E2
310
F5E2F5F5F5F5F5F5F5E2E20FE2E2E2E2F5E2F5F5E2E20FE2E2E2E2E2E20FE2E2E2E2E2E2E2E2E2E2F5E2E2E2E2E2F5F5E2E2E2F5BEF5F5E2E2E2F5F5E2E2E2E2E2F5E2E2E2E2E2E2E2E2E2E2E22DF5E2E2E2F5F5F5E2E2F5E22DE2E2E2E2E2E2E2E2E2E2E2E2E2E20FE2E2E20F0F0F0F0F0FBEBEBEBEBEBEBEBEF5E2E2E2E2
310
E2E2E2E2E2E2E2E2E2E2E2E2E2F5E2BEBEBEBEBEBEBEBEBEF5E2F5E2E2E2E2F5E2E2E2F5E2E2E2E2E2E2E2E2E2E2E2E2E2F5E2E2E2F5E2F5F5E2E2E2E2F50F0F0F0F0F0F0F0F0F0F0F0F0F0F0F0F0F0F0FE20FE2E2E2E2E2E2E2E2E2E2F5E2E2E2E2E2F5E2E2E2F5E2BEF5E2F5E2E2E2F5E2E2E2E2E2F5E2E2E2E2E2E2E2E2
310
E2E2E22DF5E2E2E2F5F5F5E2E2F5E22DE2E2E2E2E2E2E2E2E2E2E2E2E2E20FE2E20F0FE2E2F5F5E2F5F5E2BEE2F5F5E2F5E2E2E2E2E2E2E2E2E2E2E2E2E2E2E2E2E2F5E2E2F5E2E2BEE2F5E2E2F5E2F5E2E2E2E2F5E2E2E2F5E2E2E2E2E2E2E2E2E2E2E2E2E2E2F5E2E2F5E2F5F5E2E2E2E2F5F5F5F5E2E2E2E2F5F5F5F5E2
310
F50FE2E2E2E20FE20FE2E2E2E2E2E2E2E2E2E2F5E2E2E2E2E2F5E2E2F5F5F5BEF5F5F5F5E2E2F5E2E2E2E2E2F5E2E2E2E2E2E2E2E2E2E2E22DF5E2E2E2F5F5F5E2E2F5E22DE2E2E2E2E2E2E2E2E2E2E2E2E20F0FE2E20F0FE2E2F5F5E2F5F5F5BEF5F5F5E2F5E2E2E2E2E2E2E2E2E2E2E2E2E2E2E2E2E2F5E2E2F5F5E2BEF5
310
F5E2E2F5E2F5E2E2E2E2F5E2E2E2F5F5F5E2E2E2E2E2E2E2E2E2E2F5F5F5E2E2F5E2F5F5E2E2E2E2F5F5E2F5E2E2E2E2F5E2F5F5E2F5F5E2E20F0F0F0F0FE2E2E2E2E2E2E2E2E2E2F5E2E2E2E2F5E2E2E2F5F5F5BEE2F5F5F5E2E2E2F5E2E2E2E2F5E2E2E2E2E2E2E2E2E2E2E22DF5E2E2E2F5F5F5E2E2F5E22DE2E2E2E2E2
310
E2E2E2E2E2E2E2E20F0FE2E2E20F0FBEBEBEBEBEBEBEBEBEBEBEBEBEBEBEBEBEBEBEBEBEBEBEBEBEBEBEBEBEBEBEBEBEBEBEBEBEBEBEBEBEBEBEBEBEBEBEBEBEBEBEBEBEBEBEBEBEBEBEBEBEBEBEBEBEBEBEBEBEBEBEBEBEBEBEBEBEBEBEBEBEBEBEBEBEBEBEBEBEBEBEBEBEBEE20F0F0F0F0FE2E2E2E2E2E2E2E2E2E2F5E2
310
E2E2BEBEBEBEBEBEBEBEBEBEBEBEBEBEBEBEBEBEE2E2E2F5E2E2E2E2E2E2E2E2E2E2E22DF5E2E2E2F5F5F5E2E2F5E22DE2E2E2E2E2E2E2E2E2E2E2E2E20F0FE2E2E20F0FE2F5F5E2E2E2E20FBEE2E2E2F5E2E2E2E2E2E2E2E2E2E2E2E2E2E2E2E2E2F5E2E2E2BEE20FE2E2E2E2F5E2F5E2E2E2E2F5E2E2E2F5F5F5E2E2E2E2
310
E2E2E2E2E2E2F5F5F5E2E2F5E2F5F5E2E2E2E2F5F5E2F5E2E2E2E2F5E2F5F5E2F5F5E2E20F0F0F0F0FE2E2E2E2E2E2E2E2E2E2F5E2E2E2E2F5E2E2E2F5F5F5BEE2F5F5F5E2E2E2F5E2E2E2E2F5E2E2E2E2E2E2E2E2E2E2E22DF5E2E2E2F5F5F5E2E2F5E22DE2E2E2E2E2E2E2E2E2E2E2E2E2E20FE2E2E20FE2E2F5F5E2E2E2
310
E20FBEF5F5E2F5E2E2E2E2E2E2E2E2E2E2E2E2E2E2E2E2E2F5E2E2F5BEF50FE2E2E2E2F5E2F5E2E2E2E2F5E2E2E2F5E2E2E2E2E2E2E2E2E2E2E2E2E2E2F5E2E2F5E2F5F5E2E2E2E2F5F5F5F5E2E2E2E2F5F5F5F5E2F5F5E2E2E2E20FE20FE2E2E2E2E2E2E2E2E2E2F5E2E2E2E2E2F5E2E2F5E2F5BEF5F5E2F5E2E2F5E2E2E2
310
E2E2F5E2E2E2E2E2E2E2E2E2E2E22DF5E2E2E2F5F5F5E2E2F5E22DE2E2E2E2E2E2E2E2E2E2E2E2E2E20FE2E2E2E2E2E2F5F5E2E2E2F50FBEE2F5E2F5E2E2E2E2E2E2E2E2E2E2E2E2E2E2E2E2E2F5E2F5F5BEE20FE2E2E2E2F5E2F5E2E2E2E2F5E2E2E2F5E2E2E2E2E2E2E2E2E2E2E2E2E2F5E2E2E2F5E2F5F5E2E2E2E2F50F
310
0F0F0F0F0F0F0F0F0F0F0F0F0F0F0F0F0F0FE20FE2E2E2E2E2E2E2E2E2E2F5E2E2E2E2E2F5E2E2E2F5E2BEF5E2F5E2E2E2F5E2E2E2E2E2F5E2E2E2E2E2E2E2E2E2E2E22DF5E2E2E2F5F5F5E2E2F5E22DE2E2E2E2E2E2E2E2E2E2E2E2E2E20FE2E2E2E2E2E2F5F5E2E2E2BE0FBEBEBEBEF5E2E2E2E2E2E2E2E2E2E2E2E2E2E2
310
E2E2E2F5E2BEBEBEBE0FBEE2E2E2F5E2F5E2E2E2E2F5E2E2E2E2F5E2E2E2E2E2E2E2E2E2E2E2E2F5E2E2E2F5E2F5F5F5F5F5F5F5E2E2E2E2E2E2E2F5F5F5F50FE2E2E2E2E2E2E2E20FE2E2E2E2E2E2E2E2E2E2F5E2E2E2E2E2F5F5E2E2E2F5BEF5F5E2E2E2F5F5E2E2E2E2E2F5E2E2E2E2E2E2E2E2E2E2E22DF5E2E2E2F5F5
310
F5E2E2F5E22DE2E2E2E2E2E2E2E2E2E2E2E2E2E20FE2E2E2E2E2E2F5F5E2E2E2E20FBEF5F5E2F5E2E2E2E2E2E2E2E2E2E2E2E2E2E2E2E2E2F5E2E2F5BEF50FE2E2E2E2F5E2F5E2E2E2E2F5E2E2E2E2F5F5E2E2E2E2E2E2E2E2E2E2F5E2E2E2E2F5E2F5F5E2E2E2E2E2E2E2E2E2E2E2E2E2E2E2E2E20FE2E2E2E2E2E2E20FE2
310
E2E2E2E2E2E2E2E2E2F5E2E2E2E2E2E2F5F5E2E2E2BEE2E2E2E2F5F5E2E2E2E2E2E2F5E2E2E2E2E2E2E2E2E2E2E22DF5E2E2E2F5F5F5E2E2E2E22DE2E2E2E2E2E2E2E2E2E2E2E2E2E20F0FE2E2E2E2E2F5F5E2E2E2E20FBEE2E2E2F5E2E2E2E2E2E2E2E2E2E2E2E2E2E2E2E2E2F5E2E2E2BEE20FE2E2E2E2F5E2F5E2E2E2E2
310
F5E2E2E2E2E2F5F5E2E2E2E2E2E2E2E2F5E2E2E2E2E2F5E2F5F5E2E2E2E2E2E2E2E2E2E2E2E2E2E2E2E2E2E20FE2E2E2E2E2E20F0FE2E2E2E2E2E2E2E2E2F5E2E2E2E2E2E2E2F5F5E2E2BEE2E2E2F5F5E2E2E2E2E2E2E2F5E2E2E2E2E2E2E2E2E2E2E22DE2E2E2E2F5F5F5E2E2E2E22DE2E2E2E2E2E2E2E2E2E2E2E2E2E20F
310
0F0F0F0F0F0FF5F5E2E2E2E20FE2E2E2E2F5E2E2E2E2E2E2E2E2E2E2E2E2E2E2E2E2E2F5E2E2E2E2E20FE2E2E2E2F5E2F5F5F5F5E2F5E2E2E2E2E2E2F5F5F5E2E2E2F5F5F5E2E2E2E2E2E2F5F50F0F0F0F0F0F0F0F0F0F0F0F0F0F0F0F0F0F0F0F0F0F0F0F0F0F0F0F0FE2E2E2E2E2E2E2E2E2F5E2E2BEE2E2E2E2E2E2F5F5
310
BEF5F5F5E2E2E2E2E2E2BEE2E2F5E2E2E2E2E2E2E2E2E2E2E22DE2E2E2E2F5F5F5E2E2E2E22DE2E2E2E2E2E2E2E2E2E2E2E2E2E2E2E2E2E2E2E2E2E2F5E2E2E2E20FE2E2E2E2F5E2E2E2E2E2E2E2E2E2E2E2E2E2E2E2E2E2F5E2E2E2E2E20FE2E2E2E2F5E2F5F5F5F5E2F5E2E2E2E2E2E2E2E2E2F5F5F5F5E2E2E2E2E2E2E2
310
E2F5E2E2E2E2E2E2E2E2E2E2E2E2E2E2E2E2E2E2E2E2E2E20FE2E2E2E2E2E2E2E2E2E2E2E2E2E2E2E2F5E2E2BE28E2E2E2E2E2E2E2BEE2E2E2E2E2E2E2E228BE28E2F5E2E2E2E2E2E2E2E2E2E2E22DE2E2E2E2F5F5F5E2E2E2E22DE2E2E2E2E2E2E2E2E2E2E2E2E2E2E2E2E2E2E2E2E2E2F5E2E2E2E20FE2E2E2E2F5E2E2E2
310
E2E2E2E2E2E2E2E2E2E2E2E2E2E2F5E2E2E2E2E20FE2E2E2E2F5E2F5F5E2F5E2F5E2E2E2E2E2E2E2E2E2E2E2E2E2E2E2E2E2E2E2E2E2F5E2E2E2E2E2E2E2E2E2E2E2E2E2E2E2E2E2E2E2E2E2E2E20F0F0F0F0F0F0FE2E2E2E2E2E2E2E2E2F5BEBEBEBEBEBEE2E2E2E2E2E2E2E2E2E2E2E2E2BEBEBEBEBEF5E2E2E2E2E2E2E2
310
E2E2E2E22DE2E2E2E2F5F5F5E2E2E2E22DE2E2E2E2E2E2E2E2E2E2E2E2E2E2E2E2E2E2E2E2E2E2F5E2E2E2E20FE2E2E2E2F5E2E2E2E2E2E2E2E2E2E2E2E2E2E2E2E2E2F5E2E2E2E2E20FE2E2E2E2F5E2F5F5F5F5F5F5E2E2E2E2E2E2E2E2E2E2E2E2E2E2E2E2E2E2E2E2E2F5E2E2E2E2E2E2E2E2E2E2E2E2E2E2E2E2E2E2E2
310
E2E2E2E20F0F0F0F0F0FE2E2E2E2E2E2E2E2E2E2F5E228BE2828E2E2E2E2E2E2E2E2E2E2E2E2E2E22828BE28E2F5E2E2E2E2E2E2E2E2E2E2E22DE2E2E2E2F5F5F5E2E2E2E22DE2E2E2E2E2E2E2E2E2E2E2E2E2E2E2E2E2E2E2E2E2E2F5E2E2E2E20FE2E2E2E2F5E2E2E2E2E2E2E2E2E2E2E2E2E2E2E2E2E2F5E2E2E2E2E20F
310
E2E2E2E2F5F5F5F5F5F5E2F5F5F5F5F5F5F5F5F5F5F5F5F5F5F5F5F5F5F5F5F5F5F5E2E2E2E2E2E2E2E2E2E2E2E2E2E2E2E2E2E2E2E2E2E2E20F0F0FE20F0FE2E2E2E2E2E2E2E2E2E2F5F5E2BE0F0FE2E2E2E2E2E2E2E2E2E2E2E2E2E2E2E2BEE2F5F5E2E2E2E2E2E2E2E2E2E2E22DE2E2E2E2F5F5F5E2E2E2E22DE2E2E2E2
310
E2E2E2E2E2E2E2E2E2E2E2E2E2E2E2E2E2E2F5E2E2E2E20FE2E2E2E2F5F5F5F5F5F5F5F5F5F5F5F5F5F5F5F5F5F5F5E2E2E2E2E20FE2E2E2E2F5F5F5E2E2E2E2F5F5F5F5F5F5F5F5F5F5F5F5F5F5F5F5F5F5F5F5F5F5F5E2E2E2E2E2E2E2E2E2E2E2E2E2E2E2E2E2E2E2E2E2E2E2E2E2E2E2E2E2E2E2E2E2E2E2E2E2E2E2E2
310
E2F5F5F5F5F5F5F5F5F5F5F5F5F5F5F5F5F5F5F5F5F5F5E2E2E2E2E2E2E2E2E2E2E2E2E22DE2E2E2E2F5F5F5E2E2E2E22DE2E2E2E2E2E2E2E2E2E2E2E2E2E2E2E2E2E2E2E2E2E20FF5F5F5F50FF5F5F5F50FE2E2E2E2E2E2E2E2E2E2E2E2E2E2E2E2E20FF5F5F5F5F50FF5F5F5F50FE2E2E2E2E2E2E2E2E2E2E2E2E2E2E2E2
310
E2E2E2E2E2E2E2E2E2E2E2E2E2E2E2E2E2E2E2E2E2E2E2E2E2E2E2E2E2E2E2E2E2E2E2E2E2E2E2E2E2E2E2E2E2E2E2E2E2E2E2E2E2E2E2E2E20FE2E2E2E2E2E2E2E2E2E2E2E2E2E2E2E2E2E2E2E2E2E2E2E2E2E2E2E2E2E2E22DE2E2E2E2F5F5F5E2E2F5E22DE2E2E2E2E2E2E2E2E2E2E2E2E2E2E2E2E2E2E2E2E2E20FE2E2
310
E2E20FE2E2E2E20FE2E2E2E2E2E2E2E2E2E2E2E2E2E2E2E2E20FE2E2E2E2E20FE2E2E2E20FE2E2E2E2E2E2E2E2E2E2E2E2E2E2E2E2E2E2E2E2E2E2E2E2E2E2E2E2E2E2E2E2E2E2E2E2E2E2E2E2E2E2E2E2E2E2E2E2E2E2E2E2E2E2E2E2E2E2E2E2E2E2E2E2E2E2E2E2E2E2E2E2E2E20FE2E2E2E2E2E2E2E2E2E2E2E2E2E2E2
310
E2E2E2E2E2E2E2E2E2E2E2E2E2E2E22DF5E2E2E2F5F5F5E2E2F5E22DE2E2E2E2E2E2E2E2E2E2E2E2E2E2E2E2E2E2E2E2E2E20FE2E2E2E20FE2E2E2E20FE2E2E2E2E2E2E2E2E2E2E2E2E2E2E2E2E20FE2E2E2E2E20FE2E2E2E20FE2E2E2E2E2E2E2E2E2E2E2E2E2E2E2E2E2E2E2E2E2E2E2E2E2E2E2E2E2E2E2E2E2E2E2E2E2
310
E2E2E2E2E2E2E2E2E2E2E2E2E2E2E2E2E2E2E2E2E2E2E2E2E2E2E2E2E2E2E2E2E2E2E2E2E20FE2E2E2E2E2E2E2E2E2E2E2E2E2E2E2E2E2E2E2E2E2E2E2E2E2E2E2E2E2E22DF5E2E2E2F5F5F5E2E2F5E22DE2E2E2E2E2E2E2E2E2E2E2E2E2E2E2E2E2E2E2E2E2E20F0F0F0F0F0FE2E2E2E20FE2E2E2E2E2E2E2E2E2E2E2E2E2
310
E2E2E2E20FE2E2E2E2E20FE2E2E2E20FE2E2E2E2E2E2E2E2E2E2E2E2E2E2E2E2E2E2E2E2E2E2E2E2E2E2E2E2E2E2E2E2E2E2E2E2E2E2E2E2E2E2E2E2E2E2E2E2E2E2E2E2E2E2E2E2E2E2E2E2E2E2E2E2E2E2E2E2E2E2E2E2E2E2E20FE2E2E2E2E2E2E2E2E2E2E2E2E2E2E2E2E2E2E2E2E2E2E2E2E2E2E2E2E22DF5E2E2E2F5
310
F5F5E2E2F5E22DE2E2E2E2E2E2E2E2E2E2E2E2E2E2E2E2E2E2E2E2E2E20F0F0F0F0F0FE2E2E2E20FE2E2E2E2E2E2E2E2E2E2E2E2E2E2E2E2E20FE2E2E2E2E20F0F0F0F0F0FE2E2E2E2E2E2E2E2E2E2E2E2E2E2E2E2E2E2E2E2E2E2E2E2E2E2E2E2E2E2E2E2E2E2E2E2E2E2E2E2E2E2E2E2E2E2E2E2E2E2E2E2E2E2E2E2E2E2
310
E2E2E2E2E2E2E2E2E2E2E2E2E2E2E2E2E20F0F0F0F0F0F0F0FE2E2E2E2E2E2E2E2E2E2E2E2E2E2E2E2E2E2E2E2E2E22DF5E2E2E2F5F5F5E2E2F5E22DE2E2E2E2E2E2E2E2E2E2E2E2E2E2E2E2E2E2E2E2E2E20FE20F0FE2E2E2E2E2E20FE2E2E2E2E2E2E2E2E2E2E2E2E2E2E2E2E20FE2E2E2E2E2E2E20F0FE20FE2E2E2E2E2
310
E2E2E2E2E2E2E2E2E2E2E2E2E2E2E2E2E2E2E2E2E2E2E2E2E2E2E2E2E2E2E2E2E2E2E2E2E2E2E2E2E2E2E2E2E2E2E2E2E2E2E2E2E2E2E2E2E2E2E2E2E2E2E2E2E2E2E2E2E2E20F0F0F0F0F0F0FE2E2E2E2E2E2E2E2E2E2E2E2E2E2E2E2E2E2E2E2E2E2E22DF5E2E2E2F5F5F5E2E2F5E22DE2E2E2E2E2E2E2E2E2E2E2E2E2E2
310
E2E2E2E2E2E2E2E20F0F0F0F0F0F0F0F0F0F0FE2E2E2E2E2E2E2E2E2E2E2E2E2E2E2E2E20F0F0F0F0F0F0F0F0F0F0F0FE2E2E2E2E2E2E2E2E2E2E2E2E2E2E2E2E2E2E2E2E2E2E2E2E2E2E2E2E2E2E2E2E2E2E2E2E2E2E2E2E2E2E2E2E2E2E2E2E2E2E2E2E2E2E2E2E2E2E2E2E2E2E2E2E2E2E2E2E2E2E2E2E2E2E20F0F0F0F
310
0F0FE2E2E2E2E2E2E2E2E2E2E2E2E2E2E2E2E2E2E2E2E2E2E2E22DF5E2E2E2F5F5F5E2E2F5E22DE2E2E2E2E2E2E2E2E2E2E2E2E2E2E2E2E2E2E2E2E2E20F0FE2E20F0F0FE2E20F0FE2E2E2E2E2E2E2E2E2E2E2E2E2E2E2E2E20F0FE2E2E20F0FE2E2E20F0FE2E2E2E2E2E2E2E2E2E2E2E2E2E2E2E2E2E2E2E2E2E2E2E2E2E2
310
E2E2E2E2E2E2E2E2E2E2E2E2E2E2E2E2E2E2E2E2E2E2E2E2E2E2E2E2E2E2E2E2E2E2E2E2E2E2E2E2E2E2E2E2E2E2E2E2E2E2E2E2E2E2E2E2E2E2E2E2E2E2E2E2E2E2E2E2E2E2E2E2E2E2E2E2E2E2E22DF5E2E2E2F5F5F5E2E2F5E22DE2E2E2E2E2E2E2E2E2E2E2E2E2E2E2E2E2E2E2E2E2E2E2E2E2E20F0F0FE2E2E2E2E2E2
310
E2E2E2E2E2E2E2E2E2E2E2E2E2E2E2E2E2E2E2E20F0FE2E2E2E2E2E2E2E2E2E2E2E2E2E2E2E2E2E2E2E2E2E2E2E2E2E2E2E2E2E2E2E2E2E2E2E2E2E2E2E2E2E2E2E2E2E2E2E2E2E2E2E2E2E2E2E2E2E2E2E2E2E2E2E2E2E2E2E2E2E2E2E2E2E2E2E2E2E2E2E2E2E2E2E2E2E2E2E2E2E2E2E2E2E2E2E2E2E2E2E2E2E2E2E2E2
310
E2E2E2E2E22DF5E2E2E2F5F5F5E2E2F5E22DE2E2E2E2E2E2E2E2E2E2E2E2E2E2E2E2E2E2E2E2E2E2E2E2E2E2E2E2E2E2E2E2E2E2E2E2E2E2E2E2E2E2E2E2E2E2E2E2E2E2E2E2E2E2E2E2E2E2E2E2E2E2E2E2E2E2E2E2E2E2E2E2E2E2E2E2E2E2E2E2E2E2E2E2E2E2E2E2E2E2E2E2E2E2E2E2E2E2E2E2E2E2E2E2E2E2E2E2E2
310
E2E2E2E2E2E2E2E2E2E2E2E2E2E2E2E2E2E2E2E2E2E2E2E2E2E2E2E2E2E2E2E2E2E2E2E2E2E2E2E2E2E2E2E2E2E2E2E2E2E2E2E2E2E2E2E2E2E22DF5E2E2E2F5F5F5E2E2F5E22DE2E2E2E2E2E2E2E2E2E2E2E2E2E2E2E2E2E2E2E2E2E2E2E2E2E2E2E2E2E2E2E2E2E2E2E2E2E2E2E2E2E2E2E2E2E2E2E2E2E2E2E2E2E2E2E2
310
E2E2E2E2E2E2E2E2E2E2E2E2E2E2E2E2E2E2E2E2E2E2E2E2E2E2E2E2E2E2E2E2E2E2E2E2E2E2E2E2E2E2E2E2E2E2E2E2E2E2E2E2E2E2E2E2E2E2E2E2E2E2E2E2E2E2E2E2E2E2E2E2E2E2E2E2E2E2E2E2E2E2E2E2E2E2E2E2E2E2E2E2E2E2E2E2E2E2E2E2E2E2E2E2E2E2E2E2E2E2E22DF5E2E2E2F5F5F5E2E2F5E22DE2E2E2
310
E2E2E2E2E2E2E2E2E2E2E2E2E2E2E2E2E2E2E2E2E2E2E2E2E2E2E2E2E2E2E2E2E2E2E2E2E2E2E2E2E2E2E2E2E2E2E2E2E2E2E2E2E2E2E2E2E2E2E2E2E2E2E2E2E2E2E2E2E2E2E2E2E2E2E2E2E2E2E2E2E2E2E2E2E2E2E2E2E2E2E2E2E2E2E2E2E2E2E2E2E2E2E2E2E2E2E2E2E2E2E2E2E2E2E2E2E2E2E2E2E2E2E2E2E2E2E2
310
E2E2E2E2E2E2E2E2E2E2E2E2E2E2E2E2E2E2E2E2E2E2E2E2E2E2E2E2E2E2E2E2E2E2E2E2E22DF5E2E2E2F5F5F5E2E2F5E22DE2E2E2E2E2E2E2E2E2E2E2E2E2E2E2E2E2E2E2E2E2E2E2E2E2E2E2E2E2E2E2E2E2E2E2E2E2E2E2E2E2E2E2E2E2E2E2E2E2E2E2E2E2E2E2E2E2E2E2E2E2E2E2E2E2E2E2E2E2E2E2E2E2E2E2E2E2
310
E2E2E2E2E2E2E2E2E2E2E2E2E2E2E2E2E2E2E2E2E2E2E2E2E2E2E2E2E2E2E2E2E2E2E2E2E2E2E2E2E2E2E2E2E2E2E2E2E2E2E2E2E2E2E2E2E2E2E2E2E2E2E2E2E2E2E2E2E2E2E2E2E2E2E2E2E2E2E2E2E2E2E2E2E2E2E2E2E2E22DF5E2E2E2F5F5F5E2E2F5E22DE2E2E2E2E2E2E2E2E2E2E2E2E2E2E2E2E2E2E2E2E2E2E2E2
310
E2E2E2E2E2E2E2E2E2E2E2E2E2E2E2E2E2E2E2E2E2E2E2E2E2E2E2E2E2E2E2E2E2E2E2E2E2E2E2E2E2E2E2E2E2E2E2E2E2E2E2E2E2E2E2E2E2E2E2E2E2E2E2E2E2E2E2E2E2E2E2E2E2E2E2E2E2E2E2E2E2E2E2E2E2E2E2E2E2E2E2E2E2E2E2E2E2E2E2E2E2E2E2E2E2E2E2E2E2E2E2E2E2E2E2E2E2E2E2E2E2E2E2E2E2E2E2
310
E2E2E2E2E2E2E2E2E2E2E2E2E2E2E2E22DF5E2E2E2F5F5F5E2E2F5E22DE2E2E2E2E2E2E2E2E2E2E2E2E2E2E2E2E2E2E2E2E2E2F5F5F5F5F5F5F5F5F5F5F5E2E2E2E2E2E2E2E2E2E2DCE2E2E2E2E2E2F5F5F5F5F5F5F5F5F5F5F5F5E2E2E2E2E2E2E2E2E2E2E2E2E2E2E2E2E2E2E2E2E2E2E2E2E2E2E2E2E2E2E2E2E2E2E2E2
310
E2E2E2E2E2E2E2E2E2E2E2E2E2E2E2E2E2E2E2E2E2E2E2E2E2E2E2E2E2E2E2E2E2E2E2E2E2E2E2E2E2E2E2E2E2E2E2E2E2E2E2E2E2E2E2E2E2E2E2E2E2E2E2E2E2E2E2E2E22DF5E2E2E2F5F5F5E2E2F5E22DE2E2E2E2E2E2E2E2E2E2E2E2E2E2E2E2E2E2E2E2E2E2F5E2E2E2E2E2E2E2E2E2F5E2E2E2E2E2E2E2E2E2E2DCE2
310
E2E2E2E2E2F5E2E2E2E2E2E2E2E2E2E2F5F5F5E2E2E2E2F5F5F5F5F5F5F5F5F5F5F5F5F5F5F5F5F5F5F5F5F5F5F5E2E2E2E2E2E2E2E2E2E2E2E2E2E2E2E2E2E2E2E2E2E2E2E2E2E2E2E2E2E2E2E2E2E2E2E2E2E2E2E2E2E2E2E2E2E2E2E2E2E2E2E2E2E2E2E2E2E2E2E2E2E2E2E2E2E2E2E2E2E2E2E2E2E2E2E22DF5E2E2E2
310
F5F5F5E2E2E2E22DE2E2E2E2E2E2E2E2E2E2E2E2E2E2E2E2E2E2E2E2E2E2F5E2E2E2E2E2E2E2E2E2F5F5F5F5F5F5F5F5F5F5F5F5F5F5F5F5F5F5F5E2E2E2E2E2E2E2E2E2E2F5F5F5F5F5F5E2F5F5F5F5F5F5F5F5F5F5F5F5F5F5F5F5F5F5F5F5F5F5F5E2E2E2E2E2E2E2E2E2E2E2E2E2E2E2E2E2E2E2E2E2E2E2E2E2E2E2E2
310
E2E2E2E2E2E2E2E2E2E2E2E2E2E2E2E2E2E2E2E2E2E2E2E2E2E2E2E2E2E2E2E2E2E2E2E2E2E2E2E2E2E2E2E2E2E2E2E22DE2E2E2E2F5F5F5E2E2E2E22DE2E2E2E2E2E2E2E2E2E2E2E2E2E2E2E2E2E2E2E2E2E2F5E2E2E2E2E2E2E2E2E2F5E2E2E2E2E2E2E2E2E2E2DCE2E2E2E2E2E2F5E2E2E2E2E2E2E2E2E2E2F5E2F5F5E2
310
F5F5F5E2E2E2E2E2E2F5F5F5E2E2E2E2E2E2E2E2E2E2E2E2F5E2E2E2E2E2E2E2E2E2E2E2E2E2E2E2E2E2E2E2E2E2E2E2E2E2E2E2E2E2E2E2E2E2E2E2E2E2E2E2E2E2E2E2E2E2E2E2E2E2E2E2E2E2E2E2E2E2E2E2E2E2E2E2E2E2E2E2E2E2E2E2E2E2E2E2E22DE2E2E2E2F5F5F5E2E2E2E22DE2E2E2E2E2E2E2E2E2E2E2E2E2
310
E2E2E2E2E2E2E2E2E2F5E2E2E2E2E2E2E2E2E2F5E2E2E2E2E2E2E2E2E2E2DCE2E2E2E2E2E2F5E2E2E2E2E2E2E2E2E2E2F5E2F5F5F5F5E2F5E2E2E2E2E2F5F5F5F5F5F5F5F5F5F5E2E2E2E2E2E2F5E2E2E2E2E2E2E2E2E2E2E2E2E2E2E2E2E2E2E2E2E2E2E2E2E2E2E2E2E2E2E2E2E2E2E2E2E2E2E2E2E2E2E2E2E2E2E2E2E2
310
E2E2E2E2E2E2E2E2E2E2E2E2E2E2E2E2E2E2E2E2E2E2E2E2E2E2E22DE2E2E2E2F5F5F5E2E2E2E22DE2E2E2E2E2E2E2E2E2E2E2E2E2E2E2E2E2E2E2E2E2E2F5E2E2E2E2E2E2E2E2E2F5E2E2E2E2E2E2E2E2E2E2DCE2E2E2E2E2E2F5E2E2E2E2E2E2E2E2E2E2F5E2F5F5E2F5E2F5E2E2E2E2E2F5F5F5F5E2E2E2E2E2F5F5E2E2
310
E2E2E2F5E2E2E2E2E2E2E2E2E2E2E2E2E2E2E2E2E2E2E2E2E2E2E2E2E2E2E2E2E2E2E2E2E2E2E2E2E2E2E2E2E2E2E2E2E2E2E2E2E2E2E2E2E2E2E2E2E2E2E2E2E2E2E2E2E2E2E2E2E2E2E2E2E2E2E2E22DE2E2E2E2F5F5F5E2E2E2E22DE2E2E2E2E2E2E2E2E2E2E2E2E2E2E2E2E2E2E2E2E2F5F5E2E2E2E2E2E2E2E2E2F5E2
310
E2E2E2E2E2E2E2E2E2DCE2E2E2E2E2E2F5E2E2E2E2E2E2E2E2E2E2F5E2F5F5F5F5E2F5E2E2E2E2E2F5F5F5F5E2E2E2E2E2E2E2F5E2E2E2E2F5F5F5F5E2E2E2E2E2E2E2E2E2E2E2E2E2E2E2E2E2E2E2E2E2E2E2E2E2E2E2E2E2E2E2E2E2E2E2E2E2E2E2E2E2E2E2E2E2E2E2E2E2E2E2E2E2E2E2E2E2E2E2E2E2E2E2E2E2E2E2
310
E2E2E2E2E2E22DE2E2E2E2F5F5F5E2E2E2E22DE2E2E2E2E2E2E2E2E2E2E2E2E2E2E2E2E2E2E2E2E2F5F5E2E2E2E2E2E2E2E2E2F5E2E2E2E2E2E2E2E2E2E2DCE2E2E2E2E2E2F5E2E2E2E2E2E2E2E2E2E2F5E2F5E2E2E2E2F5E2E2E2E2F5E2E2E2E2E2E2E2E2E2E2E2E2F5E2E2E2F5E2F5F5E2E2E2E2E2E2E2E2E2E2E2E2E2E2
310
E2E2E2E2E2E2E2E2E2E2E2E2E2E2E2E2E2E2E2E2E2E2E2E2E2E2E2E2E2E2E2E2E2E2E2E2E2E2E2E2E2E2E2E2E2E2E2E2E2E2E2E2E2E2E2E2E2E2E22DE2E2E2E2F5F5F5E2E2E2E22DE2E2E2E2E2E2E2E2E2E2E2E2E2E2E2E2E2E2E2E2E2F5F5E2E2E2E2E2E2E2E2E2F5E2E2E2E2E2E2E2E2E2E2DCE2E2E2E2E2E2F5E2E2E2E2
310
E2E2E2E2E2E2F5E2F5E2E2E2E2F5E2E2E2F5E2E2E2E2E2E2E2E2E2E2E2E2E2F5E2E2E2F5E2F5F5E2E2E2E2E2E2E2E2E2E2E2E2E2E2E2E2E2E2E2E2E2E2E2E2E2E2E2E2E2E2E2E2E2E2E2E2E2E2E2E2E2E2E2E2E2E2E2E2E2E2E2E2E2E2E2E2E2E2E2E2E2E2E2E2E2E2E2E2E2E2E2E2E22DE2E2E2E2F5F5F5E2E2E2E22DE2E2
310
E2E2E2E2E2E2E2E2E2E2E2E2E2E2E2E2E2E2E2F5F5E2E2E2E2E2E2E2E2E2F5E2E2E2E2E2E2E2E2E2E2DCE2E2E2E2E2E2F5E2E2E2E2E2E2E2E2E2E2F5E2F5E2E2E2E2F5E2E2E2F5E2E2E2E2E2E2E2E2E2E2E2E2E2E2F5E2E2F5E2F5F5F5F5F5F5F5E2E2E2E2E2E2E2F5F5F5F5E2E2E2E2E2E2E2E2E2E2E2E2E2E2E2E2E2E2E2
310
E2E2E2E2E2E2E2E2E2E2E2E2E2E2E2E2E2E2E2E2E2E2E2E2E2E2E2E2E2E2E2E2E2E2E2E2E2E22DE2E2E2E2F5F5F5E2E2E2E22DE2E2E2E2E2E2E2E2E2E2E2E2E2E2E2E2E2E2E2E2E2F5F5E2E2E2E2E2E2E2E2E2F5E2E2E2E2E2E2E2E2E2E2DCE2E2E2E2E2E2F5E2E2E2E2E2E2E2E2E2E2F5E2F5E2E2E2E2F5E2E2E2F5E2E2E2
310
E2E2E2E2E2E2E2E2E2E2F5F5F5E2F5E2F5F5E2E2E2E2F5F5F5F5F5F5F5F5F5E2F5F5F5F5E2E2E2E2E2E2E2E2E2E2E2E2E2E2E2E2E2E2E2E2E2E2E2E2E2E2E2E2E2E2E2E2E2E2E2E2E2E2E2E2E2E2E2E2E2E2E2E2E2E2E2E2E2E2E22DE2E2E2E2F5F5F5E2E2F5E22DE2E2E2E2E2E2E2E2E2E2E2E2E2E2E2E2E2E2E2E2E2F5F5
310
E2E2E2E2E2E2E2E2E2F5E2E2E2E2E2E2E2E2E2E2DCE2E2E2E2E2E2F5E2E2E2E2E2E2E2E2E2E2F5E2F5E2E2E2E2F5E2E2E2F5E2E2E2E2E2E2E2E2E2E2E2E2F5F5F5F5F5F5E2F5F5E2E2E2E2F5F5F5F5E2E2E2E2F5E2F5F5E2F5F5E2E2E2E2E2E2E2E2E2E2E2E2E2E2E2E2E2E2E2E2E2E2E2E2E2E2E2E2E2E2E2E2E2E2E2E2E2
310
E2E2E2E2E2E2E2E2E2E2E2E2E2E2E2E2E22DF5E2E2E2F5F5F5E2E2F5E22DE2E2E2E2E2E2E2E2E2E2E2E2E2E2E2E2E2E2E2E2E2F5F5E2E2E2E2E2E2E2E2E2F5E2E2E2E2E2E2E2E2E2E2DCE2E2E2E2E2E2F5E2E2E2E2E2E2E2E2E2E2F5E2F5E2E2E2E2F5E2E2E2F5E2E2E2E2E2E2E2E2E2E2E2E2F5F5F5F5F5F5E2F5F5E2E2E2
310
E2F5F5E2F5E2E2E2E2F5E2F5F5E2F5F5E2E2E2E2E2E2E2E2E2E2E2E2E2E2E2E2E2E2E2E2E2E2E2E2E2E2E2E2E2E2E2E2E2E2E2E2E2E2E2E2E2E2E2E2E2E2E2E2E2E2E2E2E2E22DF5E2E2E2F5F5F5E2E2F5E22DE2E2E2E2E2E2E2E2E2E2E2E2E2E2E2E2E2E2E2BEBEBEBEBEBEBEBEBEBEBEBEBEBEBEBEBEBEBEBEBEBEBEBEBE
310
BEBEBEBEBEBEBEBEBEBEBEBEBEBEBEBEBEBEBEBEBEBEBEBEBEBEBEBEBEBEBEBEBEBEBEBEBEBEBEBEBEBEBEBEBEBEBEBEBEBEBEBEBEBEBEBEBEBEBEBEBEBEBEBEBEBEBEBEBEBEE2E2E2E2E2E2E2E2E2E2E2E2E2E2E2E2E2E2E2E2E2E2E2E2E2E2E2E2E2E2E2E2E2E2E2E2E2E2E2E2E2E2E2E2E2E2E2E2E2E2E2E2E22DF5E2E2
310
E2F5F5F5E2E2F5E22DE2E2E2E2E2E2E2E2E2E2E2E2E2E2E2E2E2E2E2E2E2F5F5E2E2E2E2E2E2E2E2E2F5E2E2E2E2E2E2E2E2E2E2DCE2E2E2E2E2E2F5E2E2E2E2E2E2E2E2E2E2F5E2F5E2E2E2E2F5E2E2E2F5E2E2E2E2E2E2E2E2E2E2E2E2E2F5F5E2E2F5E2F5F5E2E2E2E2F5F5E2F5E2E2E2E2F5E2F5F5E2F5F5E2E2E2E2E2
310
E2E2E2E2E2E2E2E2E2E2E2E2E2E2E2E2E2E2E2E2E2E2E2E2E2E2E2E2E2E2E2E2E2E2E2E2E2E2E2E2E2E2E2E2E2E2E2E2E22DF5E2E2E2F5F5F5E2E2F5E22DE2E2E2E2E2E2E2E2E2E2E2E2E2E2E2E2E2E2E2E2E2F5F5E2E2E2E2E2E2E2E2E2F5E2E2E2E2E2E2E2E2E2E2DCE2E2E2E2E2E2F5E2E2E2E2E2E2E2E2E2E2F5E2F5E2
310
E2E2E2F5E2E2E2F5F5E2E2E2E2E2E2E2E2E2E2E2E2F5E2E2E2F5E2F5F5E2E2E2E2F5F5F5F5F5F5F5F5F5E2F5F5F5F5F5E2E2E2E2E2E2E2E2E2E2E2E2E2E2E2E2E2E2E2E2E2E2E2E2E2E2E2E2E2E2E2E2E2E2E2E2E2E2E2E2E2E2E2E2E2E2E2E2E2E2E2E2E2E22DF5E2E2E2F5F5F5E2E2F5E22DE2E2E2E2E2E2E2E2E2E2E2E2
310
E2E2E2E2E2E2E2E2E2F5F5E2E2E2E2E2E2E2E2E2F5E2E2E2E2E2E2E2E2E2E2DCE2E2E2E2E2E2F5E2E2E2E2E2E2E2E2E2E2F5E2F5E2E2E2E2F5E2E2E2E2F5E2F5F5E2E2E2E2E2E2E2E2F5F5E2E2E2F5E2F5F5E2E2E2E2F5E2E2E2E2E2E2E2F5E2F5F5E2E2E2E2E2E2E2E2E2E2E2E2E2E2E2E2E2E2E2E2E2E2E2E2E2E2E2E2E2
310
E2E2E2E2E2E2E2E2E2E2E2E2E2E2E2E2E2E2E2E2E2E2E2E2E2E2E2E22DF5E2E2E2F5F5F5E2E2F5E22DE2E2E2E2E2E2E2E2E2E2E2E2E2E2E2E2E2E2E2E2E2F5F5E2E2E2E2E2E2E2E2E2F5E2E2E2E2E2E2E2E2E2E2DCE2E2E2E2E2E2F5E2E2E2E2E2E2E2E2E2E2F5E2F5E2E2E2E2F5E2E2E2E2E2F5F5F5F5E2E2E2E2E2E2F5F5
310
E2E2E2E2F5E2F5F5F5F5F5F5F5E2E2E2E2E2E2E2F5F5F5F5E2E2E2E2E2E2E2E2E2E2E2E2E2E2E2E2E2E2E2E2E2E2E2E2E2E2E2E2E2E2E2E2E2E2E2E2E2E2E2E2E2E2E2E2E2E2E2E2E2E2E2E2E2E2E2E2E22DF5E2E2E2F5F5F5E2E2F5E22DE2E2E2E2E2E2E2E2E2E2E2E2E2E2E2E2E2E2E2E2E2F5F5E2E2E2E2E2E2E2E2E2F5
310
E2E2E2E2E2E2E2E2E2E2DCE2E2E2E2E2E2F5E2E2E2E2E2E2E2E2E2E2F5E2F5E2E2E2E2F5E2E2E2E2E2F5F5F5F5E2E2E2E2E2F5F5E2E2E2E2E2F5E2F5F5E2E2E2E2E2E2E2E2E2E2E2E2E2E2E2E2E2E2E2E2E2E2E2E2E2E2E2E2E2E2E2E2E2E2E2E2E2E2E2E2E2E2E2E2E2E2E2E2E2E2E2E2E2E2E2E2E2E2E2E2E2E2E2E2E2E2
310
E2E2E2E2E2E2E22DF5E2E2E2F5F5F5E2E2F5E22DE2E2E2E2E2E2E2E2E2E2E2E2E2E2E2E2E2E2E2E2E2F5F5E2E2E2E2E2E2E2E2E2F5E2E2E2E2E2E2E2E2E2E2DCE2E2E2E2E2E2F5E2E2E2E2E2E2E2E2E2E2F5E2F5E2E2E2E2F5E2E2E2E2E2F5F5F5F5F5F5F5F5F5E2E2E2E2E2E2E2F5E2F5F5E2E2E2E2E2E2E2E2E2E2E2E2E2
310
E2E2E2E2E2E2E2E2E2E2E2E2E2E2E2E2E2E2E2E2E2E2E2E2E2E2E2E2E2E2E2E2E2E2E2E2E2E2E2E2E2E2E2E2E2E2E2E2E2E2E2E2E2E2E2E2E2E2E2E22DF5E2E2E2F5F5F5E2E2F5E22DE2E2E2E2E2E2E2E2E2E2E2E2E2E2E2E2E2E2E2E2E2F5F5E2E2E2E2E2E2E2E2E2F5E2E2E2E2E2E2E2E2E2E2DCE2E2E2E2E2E2F5E2E2E2
310
E2E2E2E2E2E2E2F5E2F5F5F5F5E2F5E2E2E2E2E2E2F5F5E2E2E2E2E2E2E2E2E2E2E2E2E2F5F5F5F5E2E2E2E2E2E2E2E2E2E2E2E2E2E2E2E2E2E2E2E2E2E2E2E2E2E2E2E2E2E2E2E2E2E2E2E2E2E2E2E2E2E2E2E2E2E2E2E2E2E2E2E2E2E2E2E2E2E2E2E2E2E2E2E2E2E2E2E2E2E2E2E2E22DF5E2E2E2F5F5F5E2E2F5E22DE2
310
E2E2E2E2E2E2E2E2E2E2E2E2E2E2E2E2E2E2E2E2E2F5E2E2E2E2E2E2E2E2E2F5E2E2E2E2E2E2E2E2E2E2DCE2E2E2E2E2E2F5E2E2E2E2E2E2E2E2E2E2F5E2F5F5E2F5E2F5E2E2E2E2E2E2E2E2E2E2E2E2E2E2E2E2E2E2E2E2E2F5E2E2E2E2E2E2E2E2E2E2E2E2E2E2E2E2E2E2E2E2E2E2E2E2E2E2E2E2E2E2E2E2E2E2E2E2E2
310
E2E2E2E2E2E2E2E2E2E2E2E2E2E2E2E2E2E2E2E2E2E2E2E2E2E2E2E2E2E2E2E2E2E2E2E2E2E2E22DF5E2E2E2F5F5F5E2E2F5E22DE2E2E2E2E2E2E2E2E2E2E2E2E2E2E2E2E2E2E2E2E2E2F5E2E2E2E2E2E2E2E2E2F5E2E2E2E2E2E2E2E2E2E2DCE2E2E2E2E2E2F5E2E2E2E2E2E2E2E2E2E2F5E2F5F5F5F5E2F5E2E2E2E2E2E2
310
E2E2E2E2E2E2E2E2E2E2E2E2E2E2E2F5E2E2E2E2E2E2E2E2E2E2E2E2E2E2E2E2E2E2E2E2E2E2E2E2E2E2E2E2E2E2E2E2E2E2E2E2E2E2E2E2E2E2E2E2E2E2E2E2E2E2E2E2E2E2E2E2E2E2E2E2E2E2E2E2E2E2E2E2E2E2E2E2E2E2E2E22DF5E2E2E2F5F5F5E2E2F5E22DE2E2E2E2E2E2E2E2E2E2E2E2E2E2E2E2E2E2E2E2E2E2
310
F5E2E2E2E2E2E2E2E2E2F5E2E2E2E2E2E2E2E2E2E2DCE2E2E2E2E2E2F5E2E2E2E2E2E2E2E2E2E2F5E2F5F5E2F5F5F5E2E2E2E2E2E2E2E2E2E2E2E2E2E2E2E2E2E2E2E2E2F5E2E2E2E2E2E2E2E2E2E2E2E2E2E2E2E2E2E2E2E2E2E2E2E2E2E2E2E2E2E2E2E2E2E2E2E2E2E2E2E2E2E2E2E2E2E2E2E2E2E2E2E2E2E2E2E2E2E2
310
E2E2E2E2E2E2E2E2E2E2E2E2E2E2E2E2E2E22DF5E2E2E2F5F5F5E2E2F5E22DE2E2E2E2E2E2E2E2E2E2E2E2E2E2E2E2E2E2E2E2E2E2F5E2E2E2E2E2E2E2E2E2F5E2E2E2E2E2E2E2E2E2E2DCE2E2E2E2E2E2F5E2E2E2E2E2E2E2E2E2E2F5F5F5F5F5F5E2F5F5F5F5F5F5F5F5F5F5F5F5F5F5F5F5F5F5F5F5F5F5F5E2E2E2E2E2
310
E2E2E2E2E2E2E2E2E2E2E2E2E2E2E2E2E2E2E2E2E2E2E2E2E2E2E2E2E2E2E2E2E2E2E2E2E2E2E2E2E2E2E2E2E2E2E2E2E2E2E2E2E2E2E2E2E2E2E2E2E2E2E2E2E2E2E2E2E2E2E22DF5E2E2E2F5F5F5E2E2F5E22DE2E2E2E2E2E2E2E2E2E2E2E2E2E2E2E2E2E2E2E2E2E2F5F5F5F5F5F5F5F5F5F5F5F5F5F5F5F5F5F5F5F5F5
310
F5F5F5F5F5F5F5F5F5F5F5F5F5F5F5F5F5F5F5F5F5E2E2E2E2F5F5F5F5F5F5F5F5F5F5F5F5F5F5F5F5F5F5F5F5F5F5F5E2E2E2E2E2E2E2E2E2E2E2E2E2E2E2E2E2E2E2E2E2E2E2E2E2E2E2E2E2E2E2E2E2E2E2E2E2E2E2E2E2E2E2E2E2E2E2E2E2E2E2E2E2E2E2E2E2E2E2E2E2E2E2E2E2E2E2E2E2E2E2E2E2E2E2E22DF5E2
310
E2E2F5F5F5E2E2E2E22DE2E2E2E2E2E2E2E2E2E2E2E2E2E2E2E2E2E2E2E2E2E2E2E2E2E2E2E2E2E2E2E2E2E2E2E2E2E2E2E2E2E2E2DCE2E2E2E2E2E2E2E2E2E2E2E2E2E2E2E2E2E2E2E2E2E2E2E2E2E2E2E2E2E2E2E2E2E2E2E2E2E2E2E2E2E2E2E2E2E2E2E2E2E2E2E2E2E2E2E2E2E2E2E2E2E2E2E2E2E2E2E2E2E2E2E2E2
310
E2E2E2E2E2E2E2E2E2E2E2E2E2E2E2E2E2E2E2E2E2E2E2E2E2E2E2E2E2E2E2E2E2E2E2E2E2E2E2E2E2E2E2E2E2E2E2E2E2E22DE2E2E2E2F5F5F5E2E2E2E22DE2E2E2E2E2E2E2E2E2E2E2E2E2E2E2E2E2E2E2E2E2E2E2E2E2E2E2E2E2E2E2E2E2E2E2E2E2E2E2E2E2E2E2DCDCE2E2E2E2E2E2E2E2E2E2E2E2E2E2E2E2E2E2E2
310
E2E2E2E2E2E2E2E2E2E2E2E2E2E2E2E2E2E2E2E2E2E2E2E2E2E2E2E2E2E2E2E2E2E2E2E2E2E2E2E2E2E2E2E2E2E2E2E2E2E2E2E2E2E2E2E2E2E2E2E2E2E2E2E2E2E2E2E2E2E2E2E2E2E2E2E2E2E2E2E2E2E2E2E2E2E2E2E2E2E2E2E2E2E2E2E2E2E2E2E2E2E2E22DE2E2E2E2F5F5F5E2E2E2E22DE2E2E2E2E2E2E2E2E2E2E2
310
E2E2E2E2E2E2E2E2E2E2E2E2E2E2E2E2E2E2E2E2E2E2E2E2E2E2E2E2E2E2E2E2DCDCDCDCDCE2E2E2E2E2E2E2E2E2E2E2E2E2E2E2E2E2E2E2E2E2E2E2E2E2E2E2E2E2E2E2E2E2E2E2E2E2E2E2E2E2E2E2E2E2E2E2E2E2E2E2E2E2E2E2E2E2E2E2E2E2E2E2E2E2E2E2E2E2E2E2E2E2E2E2E2E2E2E2E2E2E2E2E2E2E2E2E2E2E2
310
E2E2E2E2E2E2E2E2E2E2E2E2E2E2E2E2E2E2E2E2E2E2E2E2E2E2E2E2E22DE2E2E2E2F5F5F5E2E2E2E22DE2E2E2E2E2E2E2E2E2E2E2E2E2E2E2E2E2E2E2E2E2E2E2E2E2E2E2E2E2E2E2E2E2E2E2E2E2E2E2E2E2E2E22DE2DCDCE2E2E2E2E2E2E2E2E2E2E2E2E2E2E2E2E2E2E2E2E2E2E2E2E2E2E2E2E2E2E2E2E2E2E2E2E2E2
310
E2E2E2E2E2E2E2E2E2E2E2E2E2E2E2E2E2E2E2E2E2E2E2E2E2E2E2E2E2E2E2E2E2E2E2E2E2E2E2E2E2E2E2E2E2E2E2E2E2E2E2E2E2E2E2E2E2E2E2E2E2E2E2E2E2E2E2E2E2E2E2E2E2E2E2E2E2E2E2E2E2E22DE2E2E2E2F5F5F5E2E2E2E22DE2E2E2E2E2E2E2E2E2E2E2E2E2E2E2E2E2E2E2E2E2E2E2E2E2E2E2E2E2E2E2E2
310
E2E2E2E2E2E2E2E2E2E2E22DE2E2E2E2E2E2E2E2E2E2E2E2E2E2E2E2E2E2E2E2E2E2E2E2E2E2E2E2E2E2E2E2E2E2E2E2E2E2E2E2E2E2E2E2E2E2E2E2E2E2E2E2E2E2E2E2E2E2E2E2E2E2E2E2E2E2E2E2E2E2E2E2E2E2E2E2E2E2E2E2E2E2E2E2E2E2E2E2E2E2E2E2E2E2E2E2E2E2E2E2E2E2E2E2E2E2E2E2E2E2E2E2E2E2E2
310
E2E2E2E2E2E2E2E22DE2E2E2E2F5F5F5E2E2E2E22DE2E2E2E2E2E2E2E2E2E2E2E2E2E2E2E2E2E2E2E2E2E2E2E2E2E2E2E2E2E2E2E2E2E2E2E2E2E2E2E2E2E2E22DE2E2E2E2E2E2E2E2E2E2E2E2E2E2E2E2E2E2E2E2E2E2E2E2E2E2E2E2E2E2E2E2E2E2E2E2E2E2E2E2E2E2E2E2E2E2E2E2E2E2E2E2E2E2E2E2E2E2E2E2E2E2
310
E2E2E2E2E2E2E2E2E2E2E2E2E2E2E2E2E2E2E2E2E2E2E2E2E2E2E2E2E2E2E2E2E2E2E2E2E2E2E2E2E2E2E2E2E2E2E2E2E2E2E2E2E2E2E2E2E2E2E2E2E22DE2E2E2E2F5F5F5E2E2E2E22DE2E2E2E2E2E2E2E2E2E2E2E2E2E2E2E2E2E2E2E2E2E2E2E2E2E2E2E2E2E2E2E2E2E2E2E2E2E2E2E2E2E2E22DE2E2E2E2E2E2E2E2E2
310
E2E2E2E2E2E2E2E2E2E2E2E2E2E2E2E2E2E2E2E2E2E2E2E2E2E2E2E2E2E2E2E2E2E2E2E2E2E2E2E2E2E2E2E2E2E2E2E2E2E2E2E2E2E2E2E2E2E2E2E2E2E2E2E2E2E2E2E2E2E2E2E2E2E2E2E2E2E2E2E2E2E2E2E2E2E2E2E2E2E2E2E2E2E2E2E2E2E2E2E2E2E2E2E2E2E2E2E2E2E2E2E2E2E22DE2E2E2E2F5F5F5E2E2E2E22D
310
E2E2E2E2E2E2E2E2E2E2E2E2E2E2E2E2E2E2E2E2E2E2E2E2E2E2E2E2E2E2E2E2E2E2E2E2E2E2E2E2E2E2E22DE2E2E2E2E2E2E2E2E2E2E2E2E2E2E2E2E2E2E2E2E2E2E2E2E2E2E2E2E2E2E2E2E2E2E2E2E2E2E2E2E2E2E2E2E2E2E2E2E2E2E2E2E2E2E2E2E2E2E2E2E2E2E2E2E2E2E2E2E2E2E2E2E2E2E2E2E2E2E2E2E2E2E2
310
E2E2E2E2E2E2E2E2E2E2E2E2E2E2E2E2E2E2E2E2E2E2E2E2E2E2E2E2E2E2E2E2E2E2E2E2E2E2E2E22DE2E2E2E2F5F5F5E2E2F5E22DE2E2E2E2E2E2E2E2E2E2E2E2E2E2E2E2E2E2E2E2E2E2E2E2E2E2E2E2E2E2E2E2E2E2E2E2E2E2E2E2E2E22D2D2D2D2D2DE2E2E2E2E2E2E2E2E2E2E2E2E2E2E2E2E2E2E2E2E2E2E2E2E2E2
310
E2E2E2E2E2E2E2E2E2E2E2E2E2E2E2E2E2E2E2E2E2E2E2E2E2E2E2E2E2E2E2E2E2E2E2E2E2E2E2E2E2E2E2E2E2E2E2E2E2E2E2E2E2E2E2E2E2E2E2E2E2E2E2E2E2E2E2E2E2E2E2E2E2E2E2E2E2E2E2E2E2E2E2E2E2E2E2E2E2E2E2E2E22DF5E2E2E2F5F5F5E2E2F5E22DE2E2E2E2E2E2E2E2E2E2E2E2E2E2E2E2E2E2E2E2E2
310
E2E2E2E2E2E2E2E2E2E2E2E2E2E2E2E2E2E2E2E2E22D2D2D2D2D2DE2E2E2E2E2E2E2E2E2E2E2E2E2E2E2E2E2E2E2E2E2E2E2E2E2E2E2E2E2E2E2E2E2E2E2E2E2E2E2E2E2E2E2E2E2E2E2E2E2E2E2E2E2E2E2E2E2E2E2E2E2E2E2E2E2E2E2E2E2E2E2E2E2E2E2E2E2E2E2E2E2E2E2E2E2E2E2E2E2E2E2E2E2E2E2E2E2E2E2E2
310
E2E2E2E2E2E2E2E2E2E2E2E2E2E2E2E2E2E2E22DF5E2E2E2F5F5F5E2E2F5E22DE2E2E2E2E2E2E2E2E2E2E2E2E2E2E2E2E2E2E2E2E2E2E2E2E2E2E2E2E2E2E2E2E2E2E2E2E2E2E2E2E2E2E2E2E2E2E2E2E2E2E2E2E2E2E2E2E2E2E2E2E2E2E2E2E2E2E2E2E2E2E2E2E2E2E2E2E2E2E2E2E2E2E2E2E2E2E2E2E2E2E2E2E2E2E2
310
E2E2E2E2E2E2E2E2E2E2E2E2E2E2E2E2E2E2E2E2E2E2E2E2E2E2E2E2E2E2E2E2E2E2E2E2E2E2E2E2E2E2E2E2E2E2E2E2E2E2E2E2E2E2E2E2E2E2E2E2E2E2E2E2E2E2E2E2E2E2E2E22DF5E2E2E2F5F5F5E2E2F5E22DE2E2E2E2E2E2E2E2E2E2E2E2E2E2E2E2E2E2E2E2E2E2E2E2E2E2E2E2E2E2E2E2E2E2E2E2E2E2E2E2E2E2
310
E2E2E2E2E2E2E2E2E2E2E2E2E2E2E2E2E2E2E2E2E2E2E2E2E2E2E2E2E2E2E2E2E2E2E2E2E2E2E2E2E2E2E2E2E2E2E2E2E2E2E2E2E2E2E2E2E2E2E2E2E2E2E2E2E2E2E2E2E2E2E2E2E2E2E2E2E2E2E2E2E2E2E2E2E2E2E2E2E2E2E2E2E2E2E2E2E2E2E2E2E2E2E2E2E2E2E2E2E2E2E2E2E2E2E2E2E2E2E2E2E2E2E2E2E22DF5
310
E2E2E2F5F5F5E2E2F5E22DE2E2E2E2E2E2E2E2E2E2E2E2E2E2E2E2E2E2E2E2E2E2E2E2E2E2E2E2E2E2E2E2E2E2E2E2E2E2E2E2E2E2E2E2E2E2E2E2E2E2E2E2E2E2E2E2E2E2E2E2E2E2E2E2E2E2E2E2E2E2E2E2E2E2E2E2E2E2E2E2E2E2E2E2E2E2E2E2E2E2E2E2E2E2E2E2E2E2E2E2E2E2E2E2E2E2E2E2E2E2E2E2E2E2E2E2
310
E2E2E2E2E2E2E2E2E2E2E2E2E2E2E2E2E2E2E2E2E2E2E2E2E2E2E2E2E2E2E2E2E2E2E2E2E2E2E2E2E2E2E2E2E2E2E2E2E2E2E22DF5E2E2E2F5F5F5E2E2F5E22DE2E2E2E2E2E2E2E2E2E2E2E2E2E2E2E2E2E2E2E2E2E2E2E2E2E2E2E2E2E2E2E2E2E2E2E2E2E2E2E2E2E2E2E2E2E2E2E2E2E2E2E2E2E2E2E2E2E2E2E2E2E2E2
310
E2E2E2E2E2E2E2E2E2E2E2E2E2E2E2E2E2E2E2E2E2E2E2E2E2E2E2E2E2E2E2E2E2E2E2E2E2E2E2E2E2E2E2E2E2E2E2E2E2E2E2E2E2E2E2E2E2E2E2E2E2E2E2E2E2E2E2E2E2E2E2E2E2E2E2E2E2E2E2E2E2E2E2E2E2E2E2E2E2E2E2E2E2E2E2E2E2E2E2E2E2E2E2E22DF5E2E2E2F5F5F5E2E2F5E22DE2E2E2E2E2E2E2E2E2E2
310
E2E2E2E2E2E2E2E2E2E2E2E2E2E2E2E2E2E2E2E2E2E2E2E2E2E2E2E2E2E2E2E2E2E2E2E2E2E2E2E2E2E2E2E2E2E2E2E2E2E2E2E2E2E2E2E2E2E2E2E2E2E2E2E2E2E2E2E2E2E2E2E2E2E2E2E2E2E2E2E2E2E2E2E2E2E2E2E2E2E2E2E2E2E2E2E2E2E2E2E2E2E2E2E2E2E2E2E2E2E2E2E2E2E2E2E2E2E2E2E2E2E2E2E2E2E2E2
310
E2E2E2E2E2E2E2E2E2E2E2E2E2E2E2E2E2E2E2E2E2E2E2E2E2E2E2E2E2E22DF5E2E2E2F5F5F5E2E2F5F52D2D2D2D2D2D2D2D2D2D2D2D2D2D2D2D2D2D2D2D2D2D2D2D2D2D2D2D2D2D2D2D2D2D2D2D2D2D2D2D2D2D2D2D2D2D2D2D2D2D2D2D2D2D2D2D2D2D2D2D2D2D2D2D2D2D2D2D2D2D2D2D2D2D2D2D2D2D2D2D2D2D2D2D2D
310
2D2D2D2D2D2D2D2D2D2D2D2D2D2D2D2D2D2D2D2D2D2D2D2D2D2D2D2D2D2D2D2D2D2D2D2D2D2D2D2D2D2D2D2D2D2D2D2D2D2D2D2D2D2D2D2D2D2D2D2D2D2D2D2D2D2D2D2D2D2D2D2D2D2D2D2D2D2D2D2D2D2D2D2DF5E2E2E2F5F5F5E2E2E2E2E2E2E2E2E2E2E2E2E2E2E2E2E2E2E2E2E2E2E2E2E2E2E2E2E2E2E2E2E2E2E2E2
310
E2E2E2E2E2E2E2E2E2E2E2E2E2E2E2E2E2E2E2E2E2E2E2E2E2E2E2E2E2E2E2E2E2E2E2E2E2E2E2E2E2E2E2E2E2E2E2E2E2E2E2E2E2E2E2E2E2E2E2E2E2E2E2E2E2E2E2E2E2E2E2E2E2E2E2E2E2E2E2E2E2E2E2E2E2E2E2E2E2E2E2E2E2E2E2E2E2E2E2E2E2E2E2E2E2E2E2E2E2E2E2E2E2E2E2E2E2E2E2E2E2E2E2E2E2E2E2
310
E2E2E2E2E2E2E2E2E2E2E2E2E2E2F5F5F5E2E2E2E2E2E2E2E2E2E2E2E2E2E2E2E2E2E2E2E2E2E2E2E2E2E2E2E2E2E2E2E2E2E2E2E2E2E2E2E2E2E2E2E2E2E2E2E2E2E2E2E2E2E2E2E2E2E2E2E2E2E2E2E2E2E2E2E2E2E2E2E2E2E2E2E2E2E2E2E2E2E2E2E2E2E2E2E2E2E2E2E2E2E2E2E2E2E2E2E2E2E2E2E2E2E2E2E2E2E2
310
E2E2E2E2E2E2E2E2E2E2E2E2E2E2E2E2E2E2E2E2E2E2E2E2E2E2E2E2E2E2E2E2E2E2E2E2E2E2E2E2E2E2E2E2E2E2E2E2E2E2E2E2E2E2E2E2E2E2E2E2E2E2E2E2E2E2E2F5F5F5E2E2E2E2E2E2E2E2E2E2E2E2E2E2E2E2E2E2E2E2E2E2E2E2E2E2E2E2E2E2E2E2E2E2E2E2E2E2E2E2E2E2E2E2E2E2E2E2E2E2E2E2E2E2E2E2E2
310
E2E2E2E2E2E2E2E2E2E2E2E2E2E2E2E2E2E2E2E2E2E2E2E2E2E2E2E2E2E2E2E2E2E2E2E2E2E2E2E2E2E2E2E2E2E2E2E2E2E2E2E2E2E2E2E2E2E2E2E2E2E2E2E2E2E2E2E2E2E2E2E2E2E2E2E2E2E2E2E2E2E2E2E2E2E2E2E2E2E2E2E2E2E2E2E2E2E2E2E2E2E2E2E2E2E2E2E2E2E2E2E2E2E2E2E2E2E2E2E2F5EFF5F5F5F5F5
310
F5F5F5F5F5F5F5F5F5F5F5F5F5F5F5F5F5F5F5F5F5F5F5F5F5F5F5F5F5F5F5F5F5F5F5F5F5F5F5F5F5F5F5F5F5F5F5F5F5F5F5F5F5F5F5F5F5F5F5F5F5F5F5F5F5F5F5F5F5F5F5F5F5F5F5F5F5F5F5F5F5F5F5F5F5F5F5F5F5F5F5F5F5F5F5F5F5F5F5F5F5F5F5F5F5F5F5F5F5F5F5F5F5F5F5F5F5F5F5F5F5F5F5F5F5F5F5
310
F5F5F5F5F5F5F5F5F5F5F5F5F5F5F5F5F5F5F5F5F5F5F5F5F5F5F5F5F5F5F5F5F5F5F5F5F5F5F5F5F5F5F5F5F5F5F5EF
  0
ENDSEC
  0
EOF
