  0
SECTION
  2
HEADER
  9
$ACADVER
  1
AC1015
  9
$ACADMAINTVER
 70
    20
  9
$DWGCODEPAGE
  3
ANSI_950
  9
$INSBASE
 10
0.0
 20
0.0
 30
0.0
  9
$EXTMIN
 10
1.000000000000000E+20
 20
1.000000000000000E+20
 30
1.000000000000000E+20
  9
$EXTMAX
 10
-1.000000000000000E+20
 20
-1.000000000000000E+20
 30
-1.000000000000000E+20
  9
$LIMMIN
 10
0.0
 20
0.0
  9
$LIMMAX
 10
420.0
 20
297.0
  9
$ORTHOMODE
 70
     0
  9
$REGENMODE
 70
     1
  9
$FILLMODE
 70
     1
  9
$QTEXTMODE
 70
     0
  9
$MIRRTEXT
 70
     1
  9
$LTSCALE
 40
1.0
  9
$ATTMODE
 70
     1
  9
$TEXTSIZE
 40
3.5
  9
$TRACEWID
 40
1.0
  9
$TEXTSTYLE
  7
STANDARD
  9
$CLAYER
  8
0
  9
$CELTYPE
  6
BYLAYER
  9
$CECOLOR
 62
   256
  9
$CELTSCALE
 40
1.0
  9
$DISPSILH
 70
     0
  9
$DIMSCALE
 40
1.0
  9
$DIMASZ
 40
3.5
  9
$DIMEXO
 40
1.0
  9
$DIMDLI
 40
8.0
  9
$DIMRND
 40
0.0
  9
$DIMDLE
 40
0.0
  9
$DIMEXE
 40
1.0
  9
$DIMTP
 40
0.1
  9
$DIMTM
 40
0.1
  9
$DIMTXT
 40
3.5
  9
$DIMCEN
 40
0.0
  9
$DIMTSZ
 40
0.0
  9
$DIMTOL
 70
     0
  9
$DIMLIM
 70
     0
  9
$DIMTIH
 70
     0
  9
$DIMTOH
 70
     0
  9
$DIMSE1
 70
     0
  9
$DIMSE2
 70
     0
  9
$DIMTAD
 70
     1
  9
$DIMZIN
 70
     8
  9
$DIMBLK
  1

  9
$DIMASO
 70
     1
  9
$DIMSHO
 70
     1
  9
$DIMPOST
  1

  9
$DIMAPOST
  1
"
  9
$DIMALT
 70
     0
  9
$DIMALTD
 70
     2
  9
$DIMALTF
 40
0.0393701
  9
$DIMLFAC
 40
1.0
  9
$DIMTOFL
 70
     1
  9
$DIMTVP
 40
0.0
  9
$DIMTIX
 70
     0
  9
$DIMSOXD
 70
     0
  9
$DIMSAH
 70
     0
  9
$DIMBLK1
  1

  9
$DIMBLK2
  1

  9
$DIMSTYLE
  2
AM_ISO
  9
$DIMCLRD
 70
   256
  9
$DIMCLRE
 70
   256
  9
$DIMCLRT
 70
   256
  9
$DIMTFAC
 40
0.71
  9
$DIMGAP
 40
1.0
  9
$DIMJUST
 70
     0
  9
$DIMSD1
 70
     0
  9
$DIMSD2
 70
     0
  9
$DIMTOLJ
 70
     0
  9
$DIMTZIN
 70
     8
  9
$DIMALTZ
 70
     8
  9
$DIMALTTZ
 70
     0
  9
$DIMUPT
 70
     0
  9
$DIMDEC
 70
     2
  9
$DIMTDEC
 70
     8
  9
$DIMALTU
 70
     2
  9
$DIMALTTD
 70
     2
  9
$DIMTXSTY
  7
STANDARD
  9
$DIMAUNIT
 70
     0
  9
$DIMADEC
 70
     0
  9
$DIMALTRND
 40
0.0
  9
$DIMAZIN
 70
     2
  9
$DIMDSEP
 70
    46
  9
$DIMATFIT
 70
     3
  9
$DIMFRAC
 70
     0
  9
$DIMLDRBLK
  1

  9
$DIMLUNIT
 70
     2
  9
$DIMLWD
 70
    -1
  9
$DIMLWE
 70
    -1
  9
$DIMTMOVE
 70
     0
  9
$LUNITS
 70
     2
  9
$LUPREC
 70
     2
  9
$SKETCHINC
 40
1.0
  9
$FILLETRAD
 40
2.5
  9
$AUNITS
 70
     0
  9
$AUPREC
 70
     0
  9
$MENU
  1
.
  9
$ELEVATION
 40
0.0
  9
$PELEVATION
 40
0.0
  9
$THICKNESS
 40
0.0
  9
$LIMCHECK
 70
     0
  9
$CHAMFERA
 40
2.5
  9
$CHAMFERB
 40
2.5
  9
$CHAMFERC
 40
20.0
  9
$CHAMFERD
 40
0.0
  9
$SKPOLY
 70
     0
  9
$TDCREATE
 40
2454887.677864873
  9
$TDUCREATE
 40
2454887.344531540
  9
$TDUPDATE
 40
2456639.637759873
  9
$TDUUPDATE
 40
2456639.304426539
  9
$TDINDWG
 40
0.2861297222
  9
$TDUSRTIMER
 40
0.2861297222
  9
$USRTIMER
 70
     1
  9
$ANGBASE
 50
0.0
  9
$ANGDIR
 70
     0
  9
$PDMODE
 70
     0
  9
$PDSIZE
 40
0.0
  9
$PLINEWID
 40
0.0
  9
$SPLFRAME
 70
     0
  9
$SPLINETYPE
 70
     6
  9
$SPLINESEGS
 70
     8
  9
$HANDSEED
  5
2340
  9
$SURFTAB1
 70
     6
  9
$SURFTAB2
 70
     6
  9
$SURFTYPE
 70
     6
  9
$SURFU
 70
     6
  9
$SURFV
 70
     6
  9
$UCSBASE
  2

  9
$UCSNAME
  2

  9
$UCSORG
 10
0.0
 20
0.0
 30
0.0
  9
$UCSXDIR
 10
1.0
 20
0.0
 30
0.0
  9
$UCSYDIR
 10
0.0
 20
1.0
 30
0.0
  9
$UCSORTHOREF
  2

  9
$UCSORTHOVIEW
 70
     0
  9
$UCSORGTOP
 10
0.0
 20
0.0
 30
0.0
  9
$UCSORGBOTTOM
 10
0.0
 20
0.0
 30
0.0
  9
$UCSORGLEFT
 10
0.0
 20
0.0
 30
0.0
  9
$UCSORGRIGHT
 10
0.0
 20
0.0
 30
0.0
  9
$UCSORGFRONT
 10
0.0
 20
0.0
 30
0.0
  9
$UCSORGBACK
 10
0.0
 20
0.0
 30
0.0
  9
$PUCSBASE
  2

  9
$PUCSNAME
  2

  9
$PUCSORG
 10
0.0
 20
0.0
 30
0.0
  9
$PUCSXDIR
 10
1.0
 20
0.0
 30
0.0
  9
$PUCSYDIR
 10
0.0
 20
1.0
 30
0.0
  9
$PUCSORTHOREF
  2

  9
$PUCSORTHOVIEW
 70
     0
  9
$PUCSORGTOP
 10
0.0
 20
0.0
 30
0.0
  9
$PUCSORGBOTTOM
 10
0.0
 20
0.0
 30
0.0
  9
$PUCSORGLEFT
 10
0.0
 20
0.0
 30
0.0
  9
$PUCSORGRIGHT
 10
0.0
 20
0.0
 30
0.0
  9
$PUCSORGFRONT
 10
0.0
 20
0.0
 30
0.0
  9
$PUCSORGBACK
 10
0.0
 20
0.0
 30
0.0
  9
$USERI1
 70
     0
  9
$USERI2
 70
     0
  9
$USERI3
 70
     0
  9
$USERI4
 70
     0
  9
$USERI5
 70
     0
  9
$USERR1
 40
0.0
  9
$USERR2
 40
0.0
  9
$USERR3
 40
0.0
  9
$USERR4
 40
0.0
  9
$USERR5
 40
0.0
  9
$WORLDVIEW
 70
     1
  9
$SHADEDGE
 70
     3
  9
$SHADEDIF
 70
    70
  9
$TILEMODE
 70
     0
  9
$MAXACTVP
 70
    48
  9
$PINSBASE
 10
0.0
 20
0.0
 30
0.0
  9
$PLIMCHECK
 70
     0
  9
$PEXTMIN
 10
28.4314160608721
 20
-15.69295065893902
 30
-0.0000000000000609
  9
$PEXTMAX
 10
779.7769310400986
 20
489.9570930858421
 30
285.7425220874162
  9
$PLIMMIN
 10
20.30301218824622
 20
-33.94746487355206
  9
$PLIMMAX
 10
787.9053349127243
 20
508.211607300455
  9
$UNITMODE
 70
     0
  9
$VISRETAIN
 70
     1
  9
$PLINEGEN
 70
     0
  9
$PSLTSCALE
 70
     1
  9
$TREEDEPTH
 70
  3020
  9
$CMLSTYLE
  2
STANDARD
  9
$CMLJUST
 70
     0
  9
$CMLSCALE
 40
1.0
  9
$PROXYGRAPHICS
 70
     1
  9
$MEASUREMENT
 70
     1
  9
$CELWEIGHT
370
    -1
  9
$ENDCAPS
280
     0
  9
$JOINSTYLE
280
     0
  9
$LWDISPLAY
290
     0
  9
$INSUNITS
 70
     4
  9
$HYPERLINKBASE
  1

  9
$STYLESHEET
  1

  9
$XEDIT
290
     1
  9
$CEPSNTYPE
380
     0
  9
$PSTYLEMODE
290
     1
  9
$FINGERPRINTGUID
  2
{03574417-9B09-48FF-BB66-C5E711BBF8F2}
  9
$VERSIONGUID
  2
{4B4581CD-1EE2-4D03-B166-D34452C13F7C}
  9
$EXTNAMES
290
     1
  9
$PSVPSCALE
 40
0.0
  9
$OLESTARTUP
290
     0
  0
ENDSEC
  0
SECTION
  2
CLASSES
  0
CLASS
  1
DICTIONARYVAR
  2
AcDbDictionaryVar
  3
ObjectDBX Classes
 90
        0
280
     0
281
     0
  0
CLASS
  1
ACMESTATEMGR
  2
AcMeStateMgr
  3
AcMeServices
 90
        0
280
     0
281
     0
  0
CLASS
  1
ACMESCOPE
  2
AcMeScope
  3
AcMeServices
 90
        0
280
     0
281
     0
  0
CLASS
  1
ACMECOMMANDHISTORY
  2
AcMeCommandHistory
  3
AcMeServices
 90
        0
280
     0
281
     0
  0
CLASS
  1
ACRFINSADJUSTERMGR
  2
AcRfInsAdjusterMgr
  3
AcMeServices
 90
        0
280
     0
281
     0
  0
CLASS
  1
ACMEDRAWINGMAN
  2
AcMeDrawingMan
  3
AcMeServices
 90
        0
280
     0
281
     0
  0
CLASS
  1
AMATTR
  2
AcMeAttribute
  3
AcMeServices
 90
    32768
280
     0
281
     0
  0
CLASS
  1
ACMEBOMCOLUMN
  2
AcMeBOMColumn
  3
AcMeServices
 90
    32768
280
     0
281
     0
  0
CLASS
  1
ACMEBOMCONF
  2
AcMeBOMConf
  3
AcMeServices
 90
    32768
280
     0
281
     0
  0
CLASS
  1
ACMEBOMTABLE
  2
AcMeBOMTable
  3
AcMeServices
 90
    32768
280
     0
281
     0
  0
CLASS
  1
ACMEBOMENTRY
  2
AcMeBOMEntry
  3
AcMeServices
 90
    32768
280
     0
281
     0
  0
CLASS
  1
ACMEVIEW
  2
AcMeView
  3
AcMeServices
 90
        0
280
     0
281
     0
  0
CLASS
  1
ACGREFMASTER
  2
AcGrefMaster
  3
AcAttribServices
 90
        0
280
     0
281
     0
  0
CLASS
  1
AMIMASTER
  2
AmiMaster
  3
AmiServices
 90
        0
280
     0
281
     0
  0
CLASS
  1
ACASGREFMASTER
  2
AcAsGrefMaster
  3
AutoSurfResolverServices
 90
        0
280
     0
281
     0
  0
CLASS
  1
ADAPPL
  2
AcAdAppl
  3
DesignerServices
 90
        0
280
     0
281
     0
  0
CLASS
  1
DEPMGR
  2
AcAdDepMgr
  3
DesignerServices
 90
        0
280
     0
281
     0
  0
CLASS
  1
PARAMMGR
  2
AcAdParamMgr
  3
DesignerServices
 90
        0
280
     0
281
     0
  0
CLASS
  1
PARAMSCOPE
  2
AcAdParamScope
  3
DesignerServices
 90
        0
280
     0
281
     0
  0
CLASS
  1
ACIMSYSVARMAN
  2
AcImSysVarManager
  3
AcMeServices
 90
        0
280
     0
281
     0
  0
CLASS
  1
ACIMINTSYSVAR
  2
AcImIntSysVar
  3
AcMeServices
 90
        0
280
     0
281
     0
  0
CLASS
  1
ACIMREALSYSVAR
  2
AcImRealSysVar
  3
AcMeServices
 90
        0
280
     0
281
     0
  0
CLASS
  1
ACIMSTRSYSVAR
  2
AcImStrSysVar
  3
AcMeServices
 90
        0
280
     0
281
     0
  0
CLASS
  1
NAMEDAPPL
  2
AcAdNamedAppl
  3
DesignerServices
 90
        0
280
     0
281
     0
  0
CLASS
  1
ADHNTMPLT
  2
AdHoleNoteTemplateMgr
  3
DesignerServices
 90
    32768
280
     0
281
     0
  0
CLASS
  1
AM_HNTEMPLATE_MGR_NAME
  2
AdHoleNoteTemplateMgrName
  3
DesignerServices
 90
    32768
280
     0
281
     0
  0
CLASS
  1
ACADGREFMODULE
  2
AcAdGrefModule
  3
AdGrefServices
 90
        0
280
     0
281
     0
  0
CLASS
  1
AM_DRAWING_MGR
  2
AcDmDwgMgr
  3
AcMechDwgViewMgmt
 90
        0
280
     0
281
     0
  0
CLASS
  1
AM_DWG_DOCUMENT
  2
AcDmDwgDocument
  3
AcMechDwgViewMgmt
 90
        0
280
     0
281
     0
  0
CLASS
  1
AM_DWG_SHEET
  2
AcDmSheet
  3
AcMechDwgViewMgmt
 90
        0
280
     0
281
     0
  0
CLASS
  1
AM_VIEWDIMPARMAP
  2
AcDmViewDimParMap
  3
AcMechDwgViewMgmt
 90
        0
280
     0
281
     0
  0
CLASS
  1
AM_DWGMGR_NAME
  2
AcDmDwgMgrName
  3
AcMechDwgViewMgmt
 90
        0
280
     0
281
     0
  0
CLASS
  1
ACAMPROJECT
  2
AcAmProject
  3
DesignerAssemblies
 90
        0
280
     0
281
     0
  0
CLASS
  1
ACAMGRCOMPSET
  2
AcAmGrCompSet
  3
DesignerAssemblies
 90
    32768
280
     1
281
     0
  0
CLASS
  1
ACAMGRCOMPDEFSET
  2
AcAmGrCompDefSet
  3
DesignerAssemblies
 90
        0
280
     0
281
     0
  0
CLASS
  1
ACAMGRCOMPDEF
  2
AcAmGrCompDef
  3
DesignerAssemblies
 90
        0
280
     0
281
     0
  0
CLASS
  1
ACCMCONTEXT
  2
AcCmContext
  3
DesignerAssemblies
 90
        0
280
     0
281
     0
  0
CLASS
  1
ACAMCOMPDEF
  2
AcAmCompDef
  3
DesignerAssemblies
 90
        0
280
     0
281
     0
  0
CLASS
  1
ACAMCOMPDEFMGR
  2
AcAmCompDefMgr
  3
DesignerAssemblies
 90
        0
280
     0
281
     0
  0
CLASS
  1
AMCONTEXTMGR
  2
AcAmContextMgr
  3
DesignerAssemblies
 90
        0
280
     0
281
     0
  0
CLASS
  1
ACAMCONTEXTMODELER
  2
AcAmContextModeler
  3
DesignerAssemblies
 90
        0
280
     0
281
     0
  0
CLASS
  1
ACDMVIEWGEOM
  2
AcDmViewGeometry
  3
AcMechDwgViewMgmt
 90
    32768
280
     0
281
     1
  0
CLASS
  1
CBROWSERAPPOBJECT
  2
CBrowserAppObject
  3
McadcomServices
 90
        0
280
     0
281
     0
  0
CLASS
  1
IM_STATIC_MAN
  2
AcImStaticVarManager
  3
AcMeServices
 90
        0
280
     0
281
     0
  0
CLASS
  1
ASAPP
  2
AcAsAppObject
  3
AutoSurfServices
 90
        0
280
     0
281
     0
  0
CLASS
  1
ACIMDBLSTATICVAR
  2
AcImDblStaticVar
  3
AcMeServices
 90
        0
280
     0
281
     0
  0
CLASS
  1
ACIMSTRSTATICVAR
  2
AcImStrStaticVar
  3
AcMeServices
 90
        0
280
     0
281
     0
  0
CLASS
  1
ACIMINTSTATICVAR
  2
AcImIntStaticVar
  3
AcMeServices
 90
        0
280
     0
281
     0
  0
CLASS
  1
CATALOGSTATE
  2
AcAmCatalogState
  3
DesignerAssemblies
 90
        0
280
     0
281
     0
  0
CLASS
  1
DM_PLACEHOLDER
  2
AcDmSelsetPlaceholder
  3
AcMechDwgViewMgmt
 90
        0
280
     0
281
     0
  0
CLASS
  1
LAYER_INDEX
  2
AcDbLayerIndex
  3
ObjectDBX Classes
 90
        0
280
     0
281
     0
  0
CLASS
  1
IDBUFFER
  2
AcDbIdBuffer
  3
ObjectDBX Classes
 90
        0
280
     0
281
     0
  0
CLASS
  1
ACMSTANDARDJIS
  2
AcmStandardJIS
  3
"Amdt_StdImp|Product Description: AutoCAD Mechanical 2004 DX|Company: Autodesk"
 90
    32768
280
     0
281
     0
  0
CLASS
  1
ACMSTANDARDANSI
  2
AcmStandardANSI
  3
"Amdt_StdImp|Product Description: AutoCAD Mechanical 2004 DX|Company: Autodesk"
 90
    32768
280
     0
281
     0
  0
CLASS
  1
ACMSTANDARDBSI
  2
AcmStandardBSI
  3
"Amdt_StdImp|Product Description: AutoCAD Mechanical 2004 DX|Company: Autodesk"
 90
    32768
280
     0
281
     0
  0
CLASS
  1
ACMSTANDARDDIN
  2
AcmStandardDIN
  3
"Amdt_StdImp|Product Description: AutoCAD Mechanical 2004 DX|Company: Autodesk"
 90
    32768
280
     0
281
     0
  0
CLASS
  1
ACMSTANDARDISO
  2
AcmStandardISO
  3
"Amdt_StdImp|Product Description: AutoCAD Mechanical 2004 DX|Company: Autodesk"
 90
        0
280
     0
281
     0
  0
CLASS
  1
ACDBDICTIONARYWDFLT
  2
AcDbDictionaryWithDefault
  3
ObjectDBX Classes
 90
        0
280
     0
281
     0
  0
CLASS
  1
ACDBPLACEHOLDER
  2
AcDbPlaceHolder
  3
ObjectDBX Classes
 90
        0
280
     0
281
     0
  0
CLASS
  1
LAYOUT
  2
AcDbLayout
  3
ObjectDBX Classes
 90
        0
280
     0
281
     0
  0
CLASS
  1
ACME_DOCUMENT
  2
AcMeDbDoc
  3
AcMeServices
 90
        0
280
     0
281
     0
  0
CLASS
  1
AMGSETTINGSOBJ
  2
AmgSettingsObj
  3
"AcadM|Product Description: AutoCAD Mechanical 2000|Company: Autodesk"
 90
        0
280
     0
281
     0
  0
CLASS
  1
AMGOBJPROPCFG
  2
AmgObjPropCfg
  3
"AmgLay|Product Description: AutoCAD Mechanical 2000|Company: Autodesk"
 90
        1
280
     0
281
     0
  0
CLASS
  1
ACDBENTITYCACHE
  2
AcMeEntityCache
  3
AcMeServices
 90
        0
280
     0
281
     0
  0
CLASS
  1
GSMANAGER
  2
AcMeGSManager
  3
AcMeServices
 90
        0
280
     0
281
     0
  0
CLASS
  1
AMDTINTERNALREACTOR
  2
AmdtInternalReactor
  3
AcMeServices
 90
        0
280
     0
281
     0
  0
CLASS
  1
ACME_DATABASE
  2
AcMeDbDatabase
  3
AcMeServices
 90
        0
280
     0
281
     0
  0
CLASS
  1
ACGREFACADMASTER
  2
AcGrefacadMaster
  3
AcGrefServices
 90
        0
280
     0
281
     0
  0
CLASS
  1
AMDTMENUSTATEMGR
  2
AmdtMenuStateMgr
  3
McadcomServices
 90
        0
280
     0
281
     0
  0
CLASS
  1
AMDTMCOMMENUSTATE
  2
AmdtMcomMenuState
  3
McadcomServices
 90
        0
280
     0
281
     0
  0
CLASS
  1
MAPIADMODULE
  2
MApiAdModule
  3
MApiAdServices
 90
        0
280
     0
281
     0
  0
CLASS
  1
AMDTDMMENUSTATE
  2
AmdtDmMenuState
  3
AcMechDwgViewMgmt
 90
        0
280
     0
281
     0
  0
CLASS
  1
AMDTADMENUSTATE
  2
AmdtAdMenuState
  3
DesignerServices
 90
        0
280
     0
281
     0
  0
CLASS
  1
AMDTAMMENUSTATE
  2
AmdtAmMenuState
  3
DesignerAssemblies
 90
        0
280
     0
281
     0
  0
CLASS
  1
ACMDATADICTIONARY
  2
AcmDataDictionary
  3
"AcmSymBB|Product Description: AutoCAD Mechanical 2004 DX|Company: Autodesk"
 90
        0
280
     0
281
     0
  0
CLASS
  1
ACMDATAENTRYBLOCK
  2
AcmDataEntryBlock
  3
"AcmSymBB|Product Description: AutoCAD Mechanical 2004 DX|Company: Autodesk"
 90
        0
280
     0
281
     0
  0
CLASS
  1
ACMSURFSTANDARDJIS
  2
AcmSurfTextStdJIS
  3
"Amdt_StdImp|Product Description: AutoCAD Mechanical 2004 DX|Company: Autodesk"
 90
    32768
280
     0
281
     0
  0
CLASS
  1
ACMFCFSTANDARDJIS
  2
AcmFCFStdJIS
  3
"Amdt_StdImp|Product Description: AutoCAD Mechanical 2004 DX|Company: Autodesk"
 90
    32768
280
     0
281
     0
  0
CLASS
  1
ACMWELDSTANDARDJIS
  2
AcmWeldingStdJIS
  3
"Amdt_StdImp|Product Description: AutoCAD Mechanical 2004 DX|Company: Autodesk"
 90
    32768
280
     0
281
     0
  0
CLASS
  1
ACMIDSTANDARDJIS
  2
AcmIdStdJIS
  3
"Amdt_StdImp|Product Description: AutoCAD Mechanical 2004 DX|Company: Autodesk"
 90
    32768
280
     0
281
     0
  0
CLASS
  1
ACMDATUMSTANDARDJIS
  2
AcmDatumStdJIS
  3
"Amdt_StdImp|Product Description: AutoCAD Mechanical 2004 DX|Company: Autodesk"
 90
    32768
280
     0
281
     0
  0
CLASS
  1
ACMBOMSTANDARDJIS
  2
AcmBOMStdJIS
  3
"Amdt_StdImp|Product Description: AutoCAD Mechanical 2004 DX|Company: Autodesk"
 90
    32768
280
     0
281
     0
  0
CLASS
  1
ACMSURFSTANDARDANSI
  2
AcmSurfTextStdANSI
  3
"Amdt_StdImp|Product Description: AutoCAD Mechanical 2004 DX|Company: Autodesk"
 90
    32768
280
     0
281
     0
  0
CLASS
  1
ACMFCFSTANDARDANSI
  2
AcmFCFStdANSI
  3
"Amdt_StdImp|Product Description: AutoCAD Mechanical 2004 DX|Company: Autodesk"
 90
    32768
280
     0
281
     0
  0
CLASS
  1
ACMWELDSTANDARDANSI
  2
AcmWeldingStdANSI
  3
"Amdt_StdImp|Product Description: AutoCAD Mechanical 2004 DX|Company: Autodesk"
 90
    32768
280
     0
281
     0
  0
CLASS
  1
ACMIDSTANDARDANSI
  2
AcmIdStdANSI
  3
"Amdt_StdImp|Product Description: AutoCAD Mechanical 2004 DX|Company: Autodesk"
 90
    32768
280
     0
281
     0
  0
CLASS
  1
ACMDATUMSTANDARDANSI
  2
AcmDatumStdANSI
  3
"Amdt_StdImp|Product Description: AutoCAD Mechanical 2004 DX|Company: Autodesk"
 90
    32768
280
     0
281
     0
  0
CLASS
  1
ACMBOMSTANDARDANSI
  2
AcmBOMStdANSI
  3
"Amdt_StdImp|Product Description: AutoCAD Mechanical 2004 DX|Company: Autodesk"
 90
    32768
280
     0
281
     0
  0
CLASS
  1
ACMSURFSTANDARDBSI
  2
AcmSurfTextStdBSI
  3
"Amdt_StdImp|Product Description: AutoCAD Mechanical 2004 DX|Company: Autodesk"
 90
    32768
280
     0
281
     0
  0
CLASS
  1
ACMFCFSTANDARDBSI
  2
AcmFCFStdBSI
  3
"Amdt_StdImp|Product Description: AutoCAD Mechanical 2004 DX|Company: Autodesk"
 90
    32768
280
     0
281
     0
  0
CLASS
  1
ACMWELDSTANDARDBSI
  2
AcmWeldingStdBSI
  3
"Amdt_StdImp|Product Description: AutoCAD Mechanical 2004 DX|Company: Autodesk"
 90
    32768
280
     0
281
     0
  0
CLASS
  1
ACMIDSTANDARDBSI
  2
AcmIdStdBSI
  3
"Amdt_StdImp|Product Description: AutoCAD Mechanical 2004 DX|Company: Autodesk"
 90
    32768
280
     0
281
     0
  0
CLASS
  1
ACMDATUMSTANDARDBSI
  2
AcmDatumStdBSI
  3
"Amdt_StdImp|Product Description: AutoCAD Mechanical 2004 DX|Company: Autodesk"
 90
    32768
280
     0
281
     0
  0
CLASS
  1
ACMBOMSTANDARDBSI
  2
AcmBOMStdBSI
  3
"Amdt_StdImp|Product Description: AutoCAD Mechanical 2004 DX|Company: Autodesk"
 90
    32768
280
     0
281
     0
  0
CLASS
  1
AMDTEDGESTANDARDDIN
  2
AmdtEdgeStdDIN
  3
"Amdt_StdImp|Product Description: AutoCAD Mechanical 2004 DX|Company: Autodesk"
 90
    32768
280
     0
281
     0
  0
CLASS
  1
ACMSURFSTANDARDDIN
  2
AcmSurfTextStdDIN
  3
"Amdt_StdImp|Product Description: AutoCAD Mechanical 2004 DX|Company: Autodesk"
 90
    32768
280
     0
281
     0
  0
CLASS
  1
ACMFCFSTANDARDDIN
  2
AcmFCFStdDIN
  3
"Amdt_StdImp|Product Description: AutoCAD Mechanical 2004 DX|Company: Autodesk"
 90
    32768
280
     0
281
     0
  0
CLASS
  1
ACMWELDSTANDARDDIN
  2
AcmWeldingStdDIN
  3
"Amdt_StdImp|Product Description: AutoCAD Mechanical 2004 DX|Company: Autodesk"
 90
    32768
280
     0
281
     0
  0
CLASS
  1
ACMIDSTANDARDDIN
  2
AcmIdStdDIN
  3
"Amdt_StdImp|Product Description: AutoCAD Mechanical 2004 DX|Company: Autodesk"
 90
    32768
280
     0
281
     0
  0
CLASS
  1
ACMDATUMSTANDARDDIN
  2
AcmDatumStdDIN
  3
"Amdt_StdImp|Product Description: AutoCAD Mechanical 2004 DX|Company: Autodesk"
 90
    32768
280
     0
281
     0
  0
CLASS
  1
ACMBOMSTANDARDDIN
  2
AcmBOMStdDIN
  3
"Amdt_StdImp|Product Description: AutoCAD Mechanical 2004 DX|Company: Autodesk"
 90
    32768
280
     0
281
     0
  0
CLASS
  1
ACMSURFSTANDARDISO
  2
AcmSurfTextStdISO
  3
"Amdt_StdImp|Product Description: AutoCAD Mechanical 2004 DX|Company: Autodesk"
 90
        0
280
     0
281
     0
  0
CLASS
  1
ACMFCFSTANDARDISO
  2
AcmFCFStdISO
  3
"Amdt_StdImp|Product Description: AutoCAD Mechanical 2004 DX|Company: Autodesk"
 90
        0
280
     0
281
     0
  0
CLASS
  1
ACMWELDSTANDARDISO
  2
AcmWeldingStdISO
  3
"Amdt_StdImp|Product Description: AutoCAD Mechanical 2004 DX|Company: Autodesk"
 90
        0
280
     0
281
     0
  0
CLASS
  1
ACMIDSTANDARDISO
  2
AcmIdStdISO
  3
"Amdt_StdImp|Product Description: AutoCAD Mechanical 2004 DX|Company: Autodesk"
 90
        0
280
     0
281
     0
  0
CLASS
  1
ACMDATUMSTANDARDISO
  2
AcmDatumStdISO
  3
"Amdt_StdImp|Product Description: AutoCAD Mechanical 2004 DX|Company: Autodesk"
 90
        0
280
     0
281
     0
  0
CLASS
  1
ACMBOMSTANDARDISO
  2
AcmBOMStdISO
  3
"Amdt_StdImp|Product Description: AutoCAD Mechanical 2004 DX|Company: Autodesk"
 90
        0
280
     0
281
     0
  0
CLASS
  1
AMDTBROWSERDBTAB
  2
AmdtBrowserDbTab
  3
McadcomServices
 90
        0
280
     0
281
     0
  0
CLASS
  1
ACAMGFILTERDAT
  2
AcAmgFilterDat
  3
"AcadM|Product Description: AutoCAD Mechanical 2000|Company: Autodesk"
 90
    32768
280
     0
281
     0
  0
CLASS
  1
MAPIAMMOUDLE
  2
MApiAmModule
  3
MApiAmServices
 90
        0
280
     0
281
     0
  0
CLASS
  1
AMDTMAPISURFMOUDULE
  2
AmdtMApiSurfModule
  3
MApiSurfServices
 90
        0
280
     0
281
     0
  0
CLASS
  1
ACAMGLAYSTD
  2
AcAmgLayStd
  3
"AcAmgLayStd|Product Description: AutoCAD Mechanical 2000|Company: Autodesk"
 90
        0
280
     0
281
     0
  0
CLASS
  1
ACAMGDIMSTD
  2
AcAmgDimStd
  3
"AcAmgDimStd|Product Description: AutoCAD Mechanical 2000|Company: Autodesk"
 90
        0
280
     0
281
     0
  0
CLASS
  1
ACAMGTITLESTD
  2
AcAmgTitleStd
  3
"TITLEAPP"
 90
        0
280
     0
281
     0
  0
CLASS
  1
ACMDETAILSTANDARDJIS
  2
AmdtDetailSymStdJIS
  3
"Amdt_StdImp|Product Description: AutoCAD Mechanical 2004 DX|Company: Autodesk"
 90
    32768
280
     0
281
     0
  0
CLASS
  1
ACMSECTIONSTANDARDJIS
  2
AmdtSectionSymStdJIS
  3
"Amdt_StdImp|Product Description: AutoCAD Mechanical 2004 DX|Company: Autodesk"
 90
    32768
280
     0
281
     0
  0
CLASS
  1
ACMCENTERLINESTANDARDJIS
  2
AmdtCenterLineStdJIS
  3
"Amdt_StdImp|Product Description: AutoCAD Mechanical 2004 DX|Company: Autodesk"
 90
    32768
280
     0
281
     0
  0
CLASS
  1
ACMTHREADLINESTANDARDJIS
  2
AmdtThreadLineStdJIS
  3
"Amdt_StdImp|Product Description: AutoCAD Mechanical 2004 DX|Company: Autodesk"
 90
    32768
280
     0
281
     0
  0
CLASS
  1
ACMDETAILSTANDARDANSI
  2
AmdtDetailSymStdANSI
  3
"Amdt_StdImp|Product Description: AutoCAD Mechanical 2004 DX|Company: Autodesk"
 90
    32768
280
     0
281
     0
  0
CLASS
  1
ACMSECTIONSTANDARDANSI
  2
AmdtSectionSymStdANSI
  3
"Amdt_StdImp|Product Description: AutoCAD Mechanical 2004 DX|Company: Autodesk"
 90
    32768
280
     0
281
     0
  0
CLASS
  1
ACMCENTERLINESTANDARDANSI
  2
AmdtCenterLineStdANSI
  3
"Amdt_StdImp|Product Description: AutoCAD Mechanical 2004 DX|Company: Autodesk"
 90
    32768
280
     0
281
     0
  0
CLASS
  1
ACMTHREADLINESTANDARDANSI
  2
AmdtThreadLineStdANSI
  3
"Amdt_StdImp|Product Description: AutoCAD Mechanical 2004 DX|Company: Autodesk"
 90
    32768
280
     0
281
     0
  0
CLASS
  1
ACMDETAILSTANDARDBSI
  2
AmdtDetailSymStdBSI
  3
"Amdt_StdImp|Product Description: AutoCAD Mechanical 2004 DX|Company: Autodesk"
 90
    32768
280
     0
281
     0
  0
CLASS
  1
ACMSECTIONSTANDARDBSI
  2
AmdtSectionSymStdBSI
  3
"Amdt_StdImp|Product Description: AutoCAD Mechanical 2004 DX|Company: Autodesk"
 90
    32768
280
     0
281
     0
  0
CLASS
  1
ACMCENTERLINESTANDARDBSI
  2
AmdtCenterLineStdBSI
  3
"Amdt_StdImp|Product Description: AutoCAD Mechanical 2004 DX|Company: Autodesk"
 90
    32768
280
     0
281
     0
  0
CLASS
  1
ACMTHREADLINESTANDARDBSI
  2
AmdtThreadLineStdBSI
  3
"Amdt_StdImp|Product Description: AutoCAD Mechanical 2004 DX|Company: Autodesk"
 90
    32768
280
     0
281
     0
  0
CLASS
  1
ACMDETAILSTANDARDDIN
  2
AmdtDetailSymStdDIN
  3
"Amdt_StdImp|Product Description: AutoCAD Mechanical 2004 DX|Company: Autodesk"
 90
    32768
280
     0
281
     0
  0
CLASS
  1
ACMSECTIONSTANDARDDIN
  2
AmdtSectionSymStdDIN
  3
"Amdt_StdImp|Product Description: AutoCAD Mechanical 2004 DX|Company: Autodesk"
 90
    32768
280
     0
281
     0
  0
CLASS
  1
ACMCENTERLINESTANDARDDIN
  2
AmdtCenterLineStdDIN
  3
"Amdt_StdImp|Product Description: AutoCAD Mechanical 2004 DX|Company: Autodesk"
 90
    32768
280
     0
281
     0
  0
CLASS
  1
ACMTHREADLINESTANDARDDIN
  2
AmdtThreadLineStdDIN
  3
"Amdt_StdImp|Product Description: AutoCAD Mechanical 2004 DX|Company: Autodesk"
 90
    32768
280
     0
281
     0
  0
CLASS
  1
AMDTEDGESTANDARDISO
  2
AmdtEdgeStdISO
  3
"Amdt_StdImp|Product Description: AutoCAD Mechanical 2004 DX|Company: Autodesk"
 90
    32768
280
     0
281
     0
  0
CLASS
  1
ACMDETAILSTANDARDISO
  2
AmdtDetailSymStdISO
  3
"Amdt_StdImp|Product Description: AutoCAD Mechanical 2004 DX|Company: Autodesk"
 90
        0
280
     0
281
     0
  0
CLASS
  1
ACMSECTIONSTANDARDISO
  2
AmdtSectionSymStdISO
  3
"Amdt_StdImp|Product Description: AutoCAD Mechanical 2004 DX|Company: Autodesk"
 90
        0
280
     0
281
     0
  0
CLASS
  1
ACMCENTERLINESTANDARDISO
  2
AmdtCenterLineStdISO
  3
"Amdt_StdImp|Product Description: AutoCAD Mechanical 2004 DX|Company: Autodesk"
 90
        0
280
     0
281
     0
  0
CLASS
  1
ACMTHREADLINESTANDARDISO
  2
AmdtThreadLineStdISO
  3
"Amdt_StdImp|Product Description: AutoCAD Mechanical 2004 DX|Company: Autodesk"
 90
        0
280
     0
281
     0
  0
CLASS
  1
ACMNOTESTANDARDISO
  2
AmdtNoteStdISO
  3
"Amdt_StdImp|Product Description: AutoCAD Mechanical 2004 DX|Company: Autodesk"
 90
        0
280
     0
281
     0
  0
CLASS
  1
ACAMGHOLECHARTSTDISO
  2
AcAmgHoleChartStdISO
  3
ACMSYMBB_MODULE_NAME
 90
        0
280
     0
281
     0
  0
CLASS
  1
ACMNOTESTANDARDANSI
  2
AmdtNoteStdANSI
  3
"Amdt_StdImp|Product Description: AutoCAD Mechanical 2004 DX|Company: Autodesk"
 90
    32768
280
     0
281
     0
  0
CLASS
  1
AMDTNOTETEMPLATEDB
  2
AmdtNoteTemplateDB
  3
AMDT_STDIMP_MODULE_NAME
 90
        0
280
     0
281
     0
  0
CLASS
  1
ACAMGHOLECHARTSTDANSI
  2
AcAmgHoleChartStdANSI
  3
ACMSYMBB_MODULE_NAME
 90
    32768
280
     0
281
     0
  0
CLASS
  1
TABLESTYLE
  2
AcDbTableStyle
  3
ObjectDBX Classes
 90
     2047
280
     0
281
     0
  0
CLASS
  1
ACMBOM
  2
AcmBom
  3
"AcmSymBB|Product Description: AutoCAD Mechanical 2004 DX|Company: Autodesk"
 90
    32768
280
     0
281
     0
  0
CLASS
  1
AMDTFORMULAUPDATEDISPATCHER
  2
AmdtFormulaUpdateDispatcher
  3
AcMeServices
 90
    32768
280
     0
281
     0
  0
CLASS
  1
ACMPARTLIST
  2
AcmPartList
  3
"AcmSymBB|Product Description: AutoCAD Mechanical 2004 DX|Company: Autodesk"
 90
    33791
280
     0
281
     1
  0
CLASS
  1
VAACXREFPANELOBJECT
  2
VaAcXREFPanelObject
  3
VAAC_ADDIN
 90
    32768
280
     1
281
     0
  0
CLASS
  1
VAACIMAGEINVENTORY
  2
VaAcImageInventory
  3
VAAC_ADDIN
 90
    32768
280
     1
281
     0
  0
CLASS
  1
ACAMEXTERNALCOMPDEF
  2
AcAmExternalCompDef
  3
DesignerAssemblies
 90
    32768
280
     0
281
     0
  0
CLASS
  1
ACCMBODY
  2
AcCmBody
  3
DesignerAssemblies
 90
    32768
280
     0
281
     0
  0
CLASS
  1
ACAMCOMPENT
  2
AcAmCompEnt
  3
DesignerAssemblies
 90
    32768
280
     0
281
     1
  0
CLASS
  1
ACAMCOMPFEEDBACK
  2
AcAmCompFeedback
  3
DesignerAssemblies
 90
    32768
280
     0
281
     0
  0
CLASS
  1
ACAMCOMP
  2
AcAmComp
  3
DesignerAssemblies
 90
    32768
280
     0
281
     0
  0
CLASS
  1
ACAMCOMPENTCLONE
  2
AcAmCompEntClone
  3
DesignerAssemblies
 90
    32768
280
     0
281
     1
  0
CLASS
  1
ACAMCLONEREACTOR
  2
AcAmGrCompCloneReactor
  3
DesignerAssemblies
 90
    32768
280
     0
281
     0
  0
CLASS
  1
ADPART
  2
AcAdPart
  3
DesignerServices
 90
    32768
280
     0
281
     1
  0
CLASS
  1
WORKPLANEDISPLAYMGR
  2
AcAdDisplayMgr
  3
DesignerServices
 90
    32768
280
     0
281
     0
  0
CLASS
  1
PARAM
  2
AcAdParam
  3
DesignerServices
 90
    32768
280
     0
281
     0
  0
CLASS
  1
ADDATUMAXISABS
  2
AcAdDatumAxisAbs
  3
DesignerServices
 90
    32768
280
     0
281
     0
  0
CLASS
  1
ADDATUMPLANEABS
  2
AcAdDatumPlaneAbs
  3
DesignerServices
 90
    32768
280
     0
281
     0
  0
CLASS
  1
ADBASE
  2
AcAdBase
  3
DesignerServices
 90
    32768
280
     0
281
     0
  0
CLASS
  1
ADDATUMORIENTEDPLANE
  2
AcAdDatumOrientedPlane
  3
DesignerServices
 90
    32768
280
     0
281
     0
  0
CLASS
  1
BODYID
  2
AcAdBodyId
  3
DesignerServices
 90
    32768
280
     0
281
     0
  0
CLASS
  1
ACADCONSGROUP
  2
AcAdConstraintGroup
  3
DesignerServices
 90
    32768
280
     0
281
     0
  0
CLASS
  1
ACADREFLINEACAD
  2
AcAdVirtualReferenceLine
  3
DesignerServices
 90
    32768
280
     0
281
     0
  0
CLASS
  1
ACADCONSLINE
  2
AcAdConstrainedLine
  3
DesignerServices
 90
    32768
280
     0
281
     0
  0
CLASS
  1
ACADLINEACAD
  2
AcAdVirtualBoundedLineAcad
  3
DesignerServices
 90
    32768
280
     0
281
     0
  0
CLASS
  1
ACADCONSPOINT
  2
AcAdConstrainedPoint
  3
DesignerServices
 90
    32768
280
     0
281
     0
  0
CLASS
  1
ADPCURCNS
  2
AcAdPointCurveConstr
  3
DesignerServices
 90
    32768
280
     0
281
     0
  0
CLASS
  1
ADHORCNS
  2
AcAdHorizontalConstr
  3
DesignerServices
 90
    32768
280
     0
281
     0
  0
CLASS
  1
ADVERCNS
  2
AcAdVerticalConstr
  3
DesignerServices
 90
    32768
280
     0
281
     0
  0
CLASS
  1
ACAD_FIXCONSTRAINT
  2
AcAdFixedConstraint
  3
DesignerServices
 90
    32768
280
     0
281
     0
  0
CLASS
  1
ADHDISTCNS
  2
AcAdHorizontalDistanceConstr
  3
DesignerServices
 90
    32768
280
     0
281
     0
  0
CLASS
  1
ADVDISTCNS
  2
AcAdVerticalDistanceConstr
  3
DesignerServices
 90
    32768
280
     0
281
     0
  0
CLASS
  1
ACADIMPPTACAD
  2
AcAdVirtualImplicitPoint
  3
DesignerServices
 90
    32768
280
     0
281
     0
  0
CLASS
  1
ADCLPROF2D
  2
AcAdClosedProfile2d
  3
DesignerServices
 90
    32768
280
     0
281
     0
  0
CLASS
  1
DEPEDGEFEATUREORDERING
  2
AcAdDepEdgeFeatureOrdering
  3
DesignerServices
 90
    32768
280
     0
281
     0
  0
CLASS
  1
ACADVOLFEATWITHTRIM
  2
AcAdVolFeatWithTrim
  3
DesignerServices
 90
    32768
280
     0
281
     0
  0
CLASS
  1
ADPLANEID
  2
AcAdPlaneId
  3
DesignerServices
 90
    32768
280
     0
281
     0
  0
CLASS
  1
EDGEID
  2
AcAdEdgeId
  3
DesignerServices
 90
    32768
280
     0
281
     0
  0
CLASS
  1
CNRREFID
  2
AcAdCornerId
  3
DesignerServices
 90
    32768
280
     0
281
     0
  0
CLASS
  1
STREFID
  2
AcAdStraightRefId
  3
DesignerServices
 90
    32768
280
     0
281
     0
  0
CLASS
  1
ADDATUMPLANEFACE
  2
AcAdDatumPlaneFace
  3
DesignerServices
 90
    32768
280
     0
281
     0
  0
CLASS
  1
DATUMPLANEDISPLAY
  2
AcAdDatumPlaneDisplay
  3
DesignerServices
 90
    32768
280
     0
281
     1
  0
CLASS
  1
ADDATUMPLANEOFFSET
  2
AcAdDatumPlaneOffset
  3
DesignerServices
 90
    32768
280
     0
281
     0
  0
CLASS
  1
ADACADANGCNS
  2
AcAdAcadAngleConstr
  3
DesignerServices
 90
    32768
280
     0
281
     0
  0
CLASS
  1
ACADLINEDEPID
  2
AcAdVirtualLineDepId
  3
DesignerServices
 90
    32768
280
     0
281
     0
  0
CLASS
  1
ADCOLNCNS
  2
AcAdColinearConstr
  3
DesignerServices
 90
    32768
280
     0
281
     0
  0
CLASS
  1
ACADPOINTDEPID
  2
AcAdVirtualPointDepId
  3
DesignerServices
 90
    32768
280
     0
281
     0
  0
CLASS
  1
ACADCIRCLEACAD
  2
AcAdVirtualCircleAcad
  3
DesignerServices
 90
    32768
280
     0
281
     0
  0
CLASS
  1
ACADCONSCIRCLE
  2
AcAdConstrainedCircle
  3
DesignerServices
 90
    32768
280
     0
281
     0
  0
CLASS
  1
ADCTRPTCNS
  2
AcAdCenterPointConstr
  3
DesignerServices
 90
    32768
280
     0
281
     0
  0
CLASS
  1
ADACADDIACNS
  2
AcAdAcadDiameterConstr
  3
DesignerServices
 90
    32768
280
     0
281
     0
  0
CLASS
  1
ACADARCACAD
  2
AcAdVirtualArcAcad
  3
DesignerServices
 90
    32768
280
     0
281
     0
  0
CLASS
  1
ADTANCNS
  2
AcAdTangentConstr
  3
DesignerServices
 90
    32768
280
     0
281
     0
  0
CLASS
  1
ADPARCNS
  2
AcAdParallelConstr
  3
DesignerServices
 90
    32768
280
     0
281
     0
  0
CLASS
  1
ADCONCCNS
  2
AcAdConcentricConstr
  3
DesignerServices
 90
    32768
280
     0
281
     0
  0
CLASS
  1
ADEQRADCNS
  2
AcAdEqualRadiusConstr
  3
DesignerServices
 90
    32768
280
     0
281
     0
  0
CLASS
  1
CIRREFID
  2
AcAdCircleRefId
  3
DesignerServices
 90
    32768
280
     0
281
     0
  0
CLASS
  1
ACADCIRCDEPID
  2
AcAdVirtualCircleDepId
  3
DesignerServices
 90
    32768
280
     0
281
     0
  0
CLASS
  1
ADFILLET
  2
AcAdFillet
  3
DesignerServices
 90
    32768
280
     0
281
     0
  0
CLASS
  1
ADSURFGEOMID
  2
AcAdSurfGeomId
  3
DesignerServices
 90
    32768
280
     0
281
     0
  0
CLASS
  1
DATUMAXISDISPLAY
  2
AcAdDatumAxisDisplay
  3
DesignerServices
 90
    32768
280
     0
281
     1
  0
CLASS
  1
ADDATUMAXISCENTER
  2
AcAdDatumAxisCenter
  3
DesignerServices
 90
    32768
280
     0
281
     0
  0
CLASS
  1
DEPEDGESECONDARYDEPID
  2
AcAdDepEdgeSecondaryDepId
  3
DesignerServices
 90
    32768
280
     0
281
     0
  0
CLASS
  1
ADDATUMPLANEAXISPLANE
  2
AcAdDatumPlaneAxisPlane
  3
DesignerServices
 90
    32768
280
     0
281
     0
  0
CLASS
  1
ACADBOUNDEDLINEDATUMID
  2
AcAdVirtualBoundedLineDatumId
  3
DesignerServices
 90
    32768
280
     0
281
     0
  0
CLASS
  1
OSTREFID
  2
AcAdOrientedStraightRefId
  3
DesignerServices
 90
    32768
280
     0
281
     0
  0
CLASS
  1
ADDATUMPOINT2EDGES
  2
AcAdDatumPoint2Edges
  3
DesignerServices
 90
    32768
280
     0
281
     0
  0
CLASS
  1
ADHOLEFEAT
  2
AcAdHoleFeat
  3
DesignerServices
 90
    32768
280
     0
281
     0
  0
CLASS
  1
DEPEDGEPATTERNFEATURE
  2
AcAdDepEdgePatternFeature
  3
DesignerServices
 90
    32768
280
     0
281
     0
  0
CLASS
  1
ACADPATTNFEAT
  2
AcAdPatternFeat
  3
DesignerServices
 90
    32768
280
     0
281
     0
  0
CLASS
  1
ADEQUALLENGTHCNS
  2
AcAdEqualLengthConstr
  3
DesignerServices
 90
    32768
280
     0
281
     0
  0
CLASS
  1
SORTENTSTABLE
  2
AcDbSortentsTable
  3
ObjectDBX Classes
 90
    32768
280
     0
281
     0
  0
CLASS
  1
ACAMGROUNDEDBASECOMP
  2
AcAmGroundedBaseComp
  3
DesignerAssemblies
 90
    32768
280
     0
281
     0
  0
CLASS
  1
AMDTPERSON
  2
AmdtPerson
  3
AcAttribServices
 90
    32768
280
     0
281
     0
  0
CLASS
  1
ACRFMCADAPIATTHOLDER
  2
AcRfMCADAPIAttHolder
  3
AcAttribServices
 90
    32768
280
     0
281
     0
  0
CLASS
  1
AMDTORGANIZATION
  2
AmdtOrganization
  3
AcAttribServices
 90
    32768
280
     0
281
     0
  0
CLASS
  1
AMDTPERSONANDORGANIZATION
  2
AmdtPersonAndOrganization
  3
AcAttribServices
 90
    32768
280
     0
281
     0
  0
CLASS
  1
AMDTPROPERTYDEFINITION
  2
AmdtPropertyDefinition
  3
AcAttribServices
 90
    32768
280
     0
281
     0
  0
CLASS
  1
AMDTAPPROVALPERSONORGANIZATION
  2
AmdtApprovalPersonOrganization
  3
AcAttribServices
 90
    32768
280
     0
281
     0
  0
CLASS
  1
AMDTDATEANDTIME
  2
AmdtDateAndTime
  3
AcAttribServices
 90
    32768
280
     0
281
     0
  0
CLASS
  1
AMDTPRODUCTCATEGORY
  2
AmdtProductCategory
  3
AcAttribServices
 90
    32768
280
     0
281
     0
  0
CLASS
  1
AMDTPRODUCTCATEGORYRELATIONSHIP
  2
AmdtProductCategoryRelationship
  3
AcAttribServices
 90
    32768
280
     0
281
     0
  0
CLASS
  1
AMDTAPPROVAL
  2
AmdtApproval
  3
AcAttribServices
 90
    32768
280
     0
281
     0
  0
CLASS
  1
AMDTDATEANDTIMEASSIGNMENT
  2
AmdtDateAndTimeAssignment
  3
AcAttribServices
 90
    32768
280
     0
281
     0
  0
CLASS
  1
AMDTPERSONANDORGANIZATIONASSIGNMENT
  2
AmdtPersonAndOrganizationAssignment
  3
AcAttribServices
 90
    32768
280
     0
281
     0
  0
CLASS
  1
AMDTSECURITYCLASSIFICATION
  2
AmdtSecurityClassification
  3
AcAttribServices
 90
    32768
280
     0
281
     0
  0
CLASS
  1
AMDTPRODUCTDEFINITION
  2
AmdtProductDefinition
  3
AcAttribServices
 90
    32768
280
     0
281
     0
  0
CLASS
  1
AMDTPRODUCTDEFINITIONFORMATION
  2
AmdtProductDefinitionFormation
  3
AcAttribServices
 90
    32768
280
     0
281
     0
  0
CLASS
  1
AMDTPRODUCT
  2
AmdtProduct
  3
AcAttribServices
 90
    32768
280
     0
281
     0
  0
CLASS
  1
ACRFATTGENMGR
  2
AcRfAttGeneralMgr
  3
AcAttribServices
 90
        0
280
     0
281
     0
  0
CLASS
  1
ACRFOBJATTMGR
  2
AcRfObjAttGroupMgr
  3
AcAttribServices
 90
    32768
280
     0
281
     0
  0
CLASS
  1
ACADPARTCIRCEDGRES
  2
AcAdPartCircEdgRes
  3
AdGrefServices
 90
    32768
280
     0
281
     0
  0
CLASS
  1
ACRFINSADJ
  2
AcRfInsAdjuster
  3
AcMeServices
 90
    32768
280
     0
281
     0
  0
CLASS
  1
FACEID
  2
AcAdFaceId
  3
DesignerServices
 90
    32768
280
     0
281
     0
  0
CLASS
  1
ACADPARTPLANARFACERES
  2
AcAdPartPlanarFaceRes
  3
AdGrefServices
 90
    32768
280
     0
281
     0
  0
CLASS
  1
ACMELINEARARROW
  2
AcImLinearArrowDisplay
  3
AcMeServices
 90
    32768
280
     0
281
     1
  0
CLASS
  1
DEPEDGEPATTERNINSTANCE
  2
AcAdDepEdgePatternInstance
  3
DesignerServices
 90
    32768
280
     0
281
     0
  0
CLASS
  1
ACAMEXPR
  2
AcAmExpr
  3
DesignerAssemblies
 90
    32768
280
     0
281
     0
  0
CLASS
  1
ACCMINSERTPLPL
  2
AcCmInsertPlPl
  3
AcCmServices
 90
    32768
280
     0
281
     0
  0
CLASS
  1
ACCMCONSTREACTOR
  2
AcCmConstraintReactor
  3
DesignerAssemblies
 90
    32768
280
     0
281
     0
  0
CLASS
  1
ACADPARTCYLINDERFACERES
  2
AcAdPartCylinderFaceRes
  3
AdGrefServices
 90
    32768
280
     0
281
     0
  0
CLASS
  1
ACMEAXIS
  2
AcImAxisDisplay
  3
AcMeServices
 90
    32768
280
     0
281
     1
  0
CLASS
  1
ACCMANGVECVEC
  2
AcCmAngVecVec
  3
DesignerAssemblies
 90
    32768
280
     0
281
     0
  0
CLASS
  1
ACAMBLANKBODYCOMP
  2
AcAmBlankBodyComp
  3
DesignerAssemblies
 90
    32768
280
     0
281
     0
  0
CLASS
  1
ACAMTOOLBODYCOMP
  2
AcAmToolBodyComp
  3
DesignerAssemblies
 90
    32768
280
     0
281
     0
  0
CLASS
  1
ADPARAMETRICBOOLEAN
  2
AcAdParametricBoolean
  3
DesignerServices
 90
    32768
280
     0
281
     0
  0
CLASS
  1
DEPEDGEPARAMETRCBOOLORDERING
  2
AcAdDepEdgeParametricBooleanOrdering
  3
DesignerServices
 90
    32768
280
     0
281
     0
  0
CLASS
  1
AMACTIVEPARTSELECTFILTER
  2
AcDmActivePartViewEntFilter
  3
DesignerServices
 90
    32768
280
     0
281
     0
  0
CLASS
  1
AM_GREF_PLANE
  2
AcDmGrefPlnDef
  3
AcMechDwgViewMgmt
 90
    32768
280
     0
281
     0
  0
CLASS
  1
AM_ABS_AXIS
  2
AcDmAbsAxisDef
  3
AcMechDwgViewMgmt
 90
    32768
280
     0
281
     0
  0
CLASS
  1
AM_BASE_VIEW_ORIENT
  2
AcDmBaseViewOr
  3
AcMechDwgViewMgmt
 90
    32768
280
     0
281
     0
  0
CLASS
  1
AM_DWG_VIEWPORT
  2
AcDmViewport
  3
AcMechDwgViewMgmt
 90
    32768
280
     0
281
     0
  0
CLASS
  1
AM_VIEW_DISPLAY
  2
AcDmDwgViewDisplay
  3
AcMechDwgViewMgmt
 90
    32768
280
     0
281
     0
  0
CLASS
  1
AM_CLDFLTS
  2
AcDmClDflts
  3
AcMechDwgViewMgmt
 90
    32768
280
     0
281
     0
  0
CLASS
  1
AM_BASE_VIEW
  2
AcDmBaseView
  3
AcMechDwgViewMgmt
 90
    32768
280
     0
281
     0
  0
CLASS
  1
ACMEPLINE
  2
AcImPlineDisplay
  3
AcMeServices
 90
    32768
280
     0
281
     1
  0
CLASS
  1
ACDMPARTVIEWDATA
  2
AcDmPartViewData
  3
AcMechDwgViewMgmt
 90
    32768
280
     0
281
     0
  0
CLASS
  1
ACDMDISPLAYATTRIBS
  2
AcDmDisplayAttribs
  3
AcMechDwgViewMgmt
 90
    32768
280
     0
281
     0
  0
CLASS
  1
ACDMBODYINSTANCEDATA
  2
AcDmBodyInstanceData
  3
AcMechDwgViewMgmt
 90
    32768
280
     0
281
     0
  0
CLASS
  1
ACDMVWEDLINE
  2
AcDmViewEdgeLine
  3
AcMechDwgViewMgmt
 90
    32768
280
     0
281
     1
  0
CLASS
  1
ACDMVWEDELLIPSE
  2
AcDmViewEdgeEllipse
  3
AcMechDwgViewMgmt
 90
    32768
280
     0
281
     1
  0
CLASS
  1
ACDMVWEDSPLINE
  2
AcDmViewEdgeSpline
  3
AcMechDwgViewMgmt
 90
    32768
280
     0
281
     1
  0
CLASS
  1
ACDMVWEDCIRC
  2
AcDmViewEdgeCircle
  3
AcMechDwgViewMgmt
 90
    32768
280
     0
281
     1
  0
CLASS
  1
ACDMVWEDARC
  2
AcDmViewEdgeArc
  3
AcMechDwgViewMgmt
 90
    32768
280
     0
281
     1
  0
CLASS
  1
ACADPARTPOINTRES
  2
AcAdPartPointRes
  3
AdGrefServices
 90
    32768
280
     0
281
     0
  0
CLASS
  1
ACADPARTSKETCHPLANEAXISRES
  2
AcAdPartSketchPlaneAxisRes
  3
DesignerServices
 90
    32768
280
     0
281
     0
  0
CLASS
  1
AM_VIEWDIMPARALLEL
  2
AcDmViewDimParallel
  3
AcMechDwgViewMgmt
 90
    32768
280
     0
281
     0
  0
CLASS
  1
AMDTDMPARMAPDATA
  2
AmdtDmDimParMapData
  3
AcMechDwgViewMgmt
 90
    32768
280
     0
281
     0
  0
CLASS
  1
ACADSKETCHPOINTRES
  2
AcAdSketchPointRes
  3
DesignerServices
 90
    32768
280
     0
281
     0
  0
CLASS
  1
AM_VIEWDIMLINEAR
  2
AcDmViewDimLinear
  3
AcMechDwgViewMgmt
 90
    32768
280
     0
281
     0
  0
CLASS
  1
ACADSKETCHLINERES
  2
AcAdSketchLineRes
  3
DesignerServices
 90
    32768
280
     0
281
     0
  0
CLASS
  1
AM_VIEWDIMANGULAR
  2
AcDmViewDimAngular
  3
AcMechDwgViewMgmt
 90
    32768
280
     0
281
     0
  0
CLASS
  1
ACADSKETCHCIRCARCRES
  2
AcAdSketchCircArcRes
  3
DesignerServices
 90
    32768
280
     0
281
     0
  0
CLASS
  1
AM_VIEWDIMDIAMETER
  2
AcDmViewDimDiameter
  3
AcMechDwgViewMgmt
 90
    32768
280
     0
281
     0
  0
CLASS
  1
AM_ADLINCTRLINE
  2
AcAdLineCl
  3
DesignerServices
 90
    32768
280
     0
281
     0
  0
CLASS
  1
AM_ADCIRCTRLINE
  2
AcAdBullsEyeCl
  3
DesignerServices
 90
    32768
280
     0
281
     0
  0
CLASS
  1
ACDBLINERES
  2
AcDbLineRes
  3
AcGrefServices
 90
    32768
280
     0
281
     0
  0
CLASS
  1
ACRFDMINSADJ
  2
AcRfDMInsAdjuster
  3
AcMechDwgViewMgmt
 90
    32768
280
     0
281
     0
  0
CLASS
  1
AM_ORTHO_VIEW_ORIENT
  2
AcDmOrthoViewOr
  3
AcMechDwgViewMgmt
 90
    32768
280
     0
281
     0
  0
CLASS
  1
AM_ORTHO_VIEW
  2
AcDmOrthoView
  3
AcMechDwgViewMgmt
 90
    32768
280
     0
281
     0
  0
CLASS
  1
ACADPARTLINEDGRES
  2
AcAdPartLinEdgRes
  3
AdGrefServices
 90
    32768
280
     0
281
     0
  0
CLASS
  1
ACADPARTDATUMPOINTRES
  2
AcAdPartDatumPointRes
  3
AdGrefServices
 90
    32768
280
     0
281
     0
  0
CLASS
  1
AMDTEDGESTANDARDISO13715
  2
AmdtEdgeStdISO13715
  3
"Amdt_StdImp|Product Description: AutoCAD Mechanical 2004 DX|Company: Autodesk"
 90
        0
280
     0
281
     0
  0
ENDSEC
  0
SECTION
  2
TABLES
  0
TABLE
  2
VPORT
  5
1F
330
0
100
AcDbSymbolTable
 70
     1
  0
VPORT
  5
20
330
1F
100
AcDbSymbolTableRecord
100
AcDbViewportTableRecord
  2
*Active
 70
     0
 10
0.0
 20
0.0
 11
1.0
 21
1.0
 12
0.0
 22
0.0
 13
0.0
 23
0.0
 14
2.5
 24
2.5
 15
10.0
 25
10.0
 16
0.0
 26
0.0
 36
1.0
 17
0.0
 27
0.0
 37
0.0
 40
2.000000000000000E+20
 41
1.0
 42
50.0
 43
0.0
 44
0.0
 50
0.0
 51
0.0
 71
     0
 72
   100
 73
     1
 74
     1
 75
     0
 76
     0
 77
     0
 78
     0
281
     0
 65
     0
110
0.0
120
0.0
130
0.0
111
1.0
121
0.0
131
0.0
112
0.0
122
1.0
132
0.0
 79
     0
146
0.0
  0
ENDTAB
  0
TABLE
  2
LTYPE
  5
1A
330
0
100
AcDbSymbolTable
 70
    16
  0
LTYPE
  5
1B
330
1A
100
AcDbSymbolTableRecord
100
AcDbLinetypeTableRecord
  2
BYBLOCK
 70
     0
  3

 72
    65
 73
     0
 40
0.0
  0
LTYPE
  5
1C
330
1A
100
AcDbSymbolTableRecord
100
AcDbLinetypeTableRecord
  2
BYLAYER
 70
     0
  3

 72
    65
 73
     0
 40
0.0
  0
LTYPE
  5
9
330
1A
100
AcDbSymbolTableRecord
100
AcDbLinetypeTableRecord
  2
CONTINUOUS
 70
     0
  3
Solid line
 72
    65
 73
     0
 40
0.0
  0
LTYPE
  5
38
330
1A
100
AcDbSymbolTableRecord
100
AcDbLinetypeTableRecord
  2
AM_ISO08W050x2
 70
     0
  3
__ . __ . __ . __ . __ . __
 72
    65
 73
     4
 40
9.0
 49
6.0
 74
     0
 49
-0.75
 74
     0
 49
1.5
 74
     0
 49
-0.75
 74
     0
  0
LTYPE
  5
281
330
1A
100
AcDbSymbolTableRecord
100
AcDbLinetypeTableRecord
  2
HIDDEN
 70
     0
  3
Hidden __ __ __ __ __ __ __ __ __ __ __ __ __ _
 72
    65
 73
     2
 40
9.524999999999998
 49
6.349999999999999
 74
     0
 49
-3.174999999999999
 74
     0
  0
LTYPE
  5
282
330
1A
100
AcDbSymbolTableRecord
100
AcDbLinetypeTableRecord
  2
PHANTOM2
 70
     0
  3
Phantom (.5x) ___ _ _ ___ _ _ ___ _ _ ___ _ _
 72
    65
 73
     6
 40
31.75
 49
15.875
 74
     0
 49
-3.174999999999999
 74
     0
 49
3.174999999999999
 74
     0
 49
-3.174999999999999
 74
     0
 49
3.174999999999999
 74
     0
 49
-3.174999999999999
 74
     0
  0
LTYPE
  5
283
330
1A
100
AcDbSymbolTableRecord
100
AcDbLinetypeTableRecord
  2
CENTER
 70
     0
  3
Center ____ _ ____ _ ____ _ ____ _ ____ _ ____
 72
    65
 73
     4
 40
50.8
 49
31.75
 74
     0
 49
-6.349999999999999
 74
     0
 49
6.349999999999999
 74
     0
 49
-6.349999999999999
 74
     0
  0
LTYPE
  5
2B7
330
1A
100
AcDbSymbolTableRecord
100
AcDbLinetypeTableRecord
  2
AM_ISO02W050
 70
     0
  3
__ __ __ __ __ __ __ __ __ __ __ __ __ __ __
 72
    65
 73
     2
 40
7.5
 49
6.0
 74
     0
 49
-1.5
 74
     0
  0
LTYPE
  5
2B8
330
1A
100
AcDbSymbolTableRecord
100
AcDbLinetypeTableRecord
  2
AM_ISO08W050
 70
     0
  3
____ . ____ . ____ . ____ . ____ . ____ . ____
 72
    65
 73
     4
 40
18.0
 49
12.0
 74
     0
 49
-1.5
 74
     0
 49
3.0
 74
     0
 49
-1.5
 74
     0
  0
LTYPE
  5
2B9
330
1A
100
AcDbSymbolTableRecord
100
AcDbLinetypeTableRecord
  2
AM_ISO09W050
 70
     0
  3
_____ . . _____ . . _____ . . ____ .. ____
 72
    65
 73
     6
 40
22.5
 49
12.0
 74
     0
 49
-1.5
 74
     0
 49
3.0
 74
     0
 49
-1.5
 74
     0
 49
3.0
 74
     0
 49
-1.5
 74
     0
  0
LTYPE
  5
2BA
330
1A
100
AcDbSymbolTableRecord
100
AcDbLinetypeTableRecord
  2
Amconstr
 70
     0
  3
_______________________
 72
    65
 73
     2
 40
9999.0
 49
9999.0
 74
     0
 49
0.0
 74
     0
  0
LTYPE
  5
2BB
330
1A
100
AcDbSymbolTableRecord
100
AcDbLinetypeTableRecord
  2
AM_ISO02W050x2
 70
     0
  3
 _ _ _ _ _ _ _ _ _ _ _ _
 72
    65
 73
     2
 40
3.75
 49
3.0
 74
     0
 49
-0.75
 74
     0
  0
LTYPE
  5
2BE
330
1A
100
AcDbSymbolTableRecord
100
AcDbLinetypeTableRecord
  2
Amzigzag
 70
     0
  3
/\/-/\/-/\/-/\/-/\/-/\/
 72
    65
 73
     2
 40
11.0001
 49
0.0001
 74
     4
 75
   135
340
2BD
 46
0.04
 50
0.0
 44
0.0
 45
0.0
 49
-11.0
 74
     0
  0
LTYPE
  5
2CD
330
1A
100
AcDbSymbolTableRecord
100
AcDbLinetypeTableRecord
  2
ACISOWELD
 70
     0
  3
_ _ _ _ _
 72
    65
 73
     2
 40
2.0
 49
2.0
 74
     0
 49
-1.0
 74
     0
  0
LTYPE
  5
2CE
330
1A
100
AcDbSymbolTableRecord
100
AcDbLinetypeTableRecord
  2
ACISOTGB
 70
     0
  3
__ . . __ . .
 72
    65
 73
     6
 40
9.0
 49
4.0
 74
     0
 49
-1.0
 74
     0
 49
1.0
 74
     0
 49
-1.0
 74
     0
 49
1.0
 74
     0
 49
-1.0
 74
     0
  0
LTYPE
  5
2CF
330
1A
100
AcDbSymbolTableRecord
100
AcDbLinetypeTableRecord
  2
ACISOTGL
 70
     0
  3
_ _ _ _ _
 72
    65
 73
     2
 40
3.0
 49
2.0
 74
     0
 49
-1.0
 74
     0
  0
LTYPE
  5
1659
330
1A
100
AcDbSymbolTableRecord
100
AcDbLinetypeTableRecord
  2
ASULTYPE
 70
     0
  3
實線
 72
    65
 73
     2
 40
3.0
 49
2.5
 74
     0
 49
0.5
 74
     0
  0
LTYPE
  5
165A
330
1A
100
AcDbSymbolTableRecord
100
AcDbLinetypeTableRecord
  2
ASVLTYPE
 70
     0
  3
__ __ __ __ __ __ __ __ __ __ __ __ __ __ __ __ __ __ __ __ __
 72
    65
 73
     2
 40
0.75
 49
0.5
 74
     0
 49
-0.25
 74
     0
  0
ENDTAB
  0
TABLE
  2
LAYER
  5
14
102
{ACAD_XDICTIONARY
360
15
102
}
330
0
100
AcDbSymbolTable
 70
    11
  0
LAYER
  5
5
330
14
100
AcDbSymbolTableRecord
100
AcDbLayerTableRecord
  2
0
 70
     0
 62
     7
  6
CONTINUOUS
370
    -3
390
6
  0
LAYER
  5
81
330
14
100
AcDbSymbolTableRecord
100
AcDbLayerTableRecord
  2
AM_VIS
 70
     0
 62
     7
  6
CONTINUOUS
370
    -3
390
6
  0
LAYER
  5
37
330
14
100
AcDbSymbolTableRecord
100
AcDbLayerTableRecord
  2
AM_7
 70
     0
 62
     1
  6
AM_ISO08W050x2
370
    -3
390
6
  0
LAYER
  5
2E6
330
14
100
AcDbSymbolTableRecord
100
AcDbLayerTableRecord
  2
LOGO
 70
     0
 62
     7
  6
CONTINUOUS
370
    -3
390
6
  0
LAYER
  5
440
330
14
100
AcDbSymbolTableRecord
100
AcDbLayerTableRecord
  2
AM_5
 70
     0
 62
     5
  6
CONTINUOUS
370
    -3
390
6
  0
LAYER
  5
442
330
14
100
AcDbSymbolTableRecord
100
AcDbLayerTableRecord
  2
Defpoints
 70
     0
 62
     7
  6
CONTINUOUS
290
     0
370
    -3
390
6
  0
LAYER
  5
636
330
14
100
AcDbSymbolTableRecord
100
AcDbLayerTableRecord
  2
SL
 70
     0
 62
     2
  6
CONTINUOUS
370
    -3
390
6
1001
AcAecLayerStandard
1000

1000

  0
LAYER
  5
166C
330
14
100
AcDbSymbolTableRecord
100
AcDbLayerTableRecord
  2
CEN
 70
     0
 62
     1
  6
CENTER
370
    -3
390
6
  0
LAYER
  5
166D
330
14
100
AcDbSymbolTableRecord
100
AcDbLayerTableRecord
  2
1
 70
     0
 62
     2
  6
CENTER
370
    -3
390
6
1001
AcAecLayerStandard
1000

1000

  0
LAYER
  5
18C6
330
14
100
AcDbSymbolTableRecord
100
AcDbLayerTableRecord
  2
CENTER
 70
     0
 62
     1
  6
CENTER
370
    -3
390
6
  0
LAYER
  5
2114
330
14
100
AcDbSymbolTableRecord
100
AcDbLayerTableRecord
  2
HID
 70
     0
 62
     3
  6
AM_ISO02W050x2
370
    -3
390
6
  0
ENDTAB
  0
TABLE
  2
STYLE
  5
17
330
0
100
AcDbSymbolTable
 70
     5
  0
STYLE
  5
18
330
17
100
AcDbSymbolTableRecord
100
AcDbTextStyleTableRecord
  2
STANDARD
 70
     0
 40
0.0
 41
1.0
 50
0.0
 71
     0
 42
3.5
  3
ISOCP.SHX
  4
CHINESET.SHX
  0
STYLE
  5
2BD
330
17
100
AcDbSymbolTableRecord
100
AcDbTextStyleTableRecord
  2

 70
     1
 40
0.0
 41
1.0
 50
0.0
 71
     0
 42
1.0
  3
ltypeshp.shx
  4

  0
STYLE
  5
2BF
330
17
100
AcDbSymbolTableRecord
100
AcDbTextStyleTableRecord
  2
ACISOTS
 70
     0
 40
1.0
 41
1.0
 50
0.0
 71
     0
 42
1.0
  3
isocp.shx
  4
chineset.shx
  0
STYLE
  5
2CC
330
17
100
AcDbSymbolTableRecord
100
AcDbTextStyleTableRecord
  2
ACISOGDT
 70
     0
 40
0.0
 41
1.0
 50
0.0
 71
     0
 42
1.0
  3
amgdt.shx
  4

  0
STYLE
  5
2E7
330
17
100
AcDbSymbolTableRecord
100
AcDbTextStyleTableRecord
  2
CHINESET
 70
     0
 40
0.0
 41
1.0
 50
0.0
 71
     0
 42
1.0
  3
simplex
  4
CHINESET.SHX
  0
ENDTAB
  0
TABLE
  2
VIEW
  5
1D
330
0
100
AcDbSymbolTable
 70
     2
  0
ENDTAB
  0
TABLE
  2
UCS
  5
1E
330
0
100
AcDbSymbolTable
 70
     0
  0
ENDTAB
  0
TABLE
  2
APPID
  5
21
330
0
100
AcDbSymbolTable
 70
    23
  0
APPID
  5
22
330
21
100
AcDbSymbolTableRecord
100
AcDbRegAppTableRecord
  2
ACAD
 70
     0
  0
APPID
  5
13
330
21
100
AcDbSymbolTableRecord
100
AcDbRegAppTableRecord
  2
ACAD_PSEXT
 70
     0
  0
APPID
  5
254
330
21
100
AcDbSymbolTableRecord
100
AcDbRegAppTableRecord
  2
MCAD_NO_VIS
 70
     0
  0
APPID
  5
255
330
21
100
AcDbSymbolTableRecord
100
AcDbRegAppTableRecord
  2
ACAD_TEMP_GRAPHIC
 70
     0
  0
APPID
  5
285
330
21
100
AcDbSymbolTableRecord
100
AcDbRegAppTableRecord
  2
AD_DRAW
 70
     0
  0
APPID
  5
288
330
21
100
AcDbSymbolTableRecord
100
AcDbRegAppTableRecord
  2
ACATTRIBSERVICES
 70
     0
  0
APPID
  5
2A6
330
21
100
AcDbSymbolTableRecord
100
AcDbRegAppTableRecord
  2
DESIGNERASSEMBLIES
 70
     0
  0
APPID
  5
2AC
330
21
100
AcDbSymbolTableRecord
100
AcDbRegAppTableRecord
  2
ACADM_DIM_EDIT
 70
     0
  0
APPID
  5
2AD
330
21
100
AcDbSymbolTableRecord
100
AcDbRegAppTableRecord
  2
AMDT_DM_ADJ
 70
     0
  0
APPID
  5
2E9
330
21
100
AcDbSymbolTableRecord
100
AcDbRegAppTableRecord
  2
GENIUS_GENOBJ-N-CRS_13
 70
     0
  0
APPID
  5
2EA
330
21
100
AcDbSymbolTableRecord
100
AcDbRegAppTableRecord
  2
GENIUS_GENOLIS_13
 70
     0
  0
APPID
  5
2EB
330
21
100
AcDbSymbolTableRecord
100
AcDbRegAppTableRecord
  2
GENIUS_GENOENT_13
 70
     0
  0
APPID
  5
2EC
330
21
100
AcDbSymbolTableRecord
100
AcDbRegAppTableRecord
  2
GENIUS_GENODEF_13
 70
     0
  0
APPID
  5
2ED
330
21
100
AcDbSymbolTableRecord
100
AcDbRegAppTableRecord
  2
GENIUS_GENOREF_13
 70
     0
  0
APPID
  5
2EE
330
21
100
AcDbSymbolTableRecord
100
AcDbRegAppTableRecord
  2
GENIUS_GENREC_14
 70
     0
  0
APPID
  5
2EF
330
21
100
AcDbSymbolTableRecord
100
AcDbRegAppTableRecord
  2
GENIUS_GENOBJ-N-REC_13
 70
     0
  0
APPID
  5
48E
330
21
100
AcDbSymbolTableRecord
100
AcDbRegAppTableRecord
  2
ACAD_DSTYLE_DIMTEXT_FILL
 70
     0
  0
APPID
  5
637
330
21
100
AcDbSymbolTableRecord
100
AcDbRegAppTableRecord
  2
AcAecLayerStandard
 70
     0
  0
APPID
  5
EF9
330
21
100
AcDbSymbolTableRecord
100
AcDbRegAppTableRecord
  2
GENIUS_GENDTOL_13
 70
     0
  0
APPID
  5
123F
330
21
100
AcDbSymbolTableRecord
100
AcDbRegAppTableRecord
  2
GENIUS_GENDIM_13
 70
     0
  0
APPID
  5
1240
330
21
100
AcDbSymbolTableRecord
100
AcDbRegAppTableRecord
  2
GENIUS_GE3DTOL_13
 70
     0
  0
APPID
  5
12BE
330
21
100
AcDbSymbolTableRecord
100
AcDbRegAppTableRecord
  2
ASURF_PCURVE_APPNAME
 70
     0
  0
APPID
  5
12C3
330
21
100
AcDbSymbolTableRecord
100
AcDbRegAppTableRecord
  2
AMG_3D2D_5.0
 70
     0
  0
ENDTAB
  0
TABLE
  2
DIMSTYLE
  5
23
330
0
100
AcDbSymbolTable
 70
     8
100
AcDbDimStyleTable
 71
     3
340
24
340
25
340
26
  0
DIMSTYLE
105
24
330
23
100
AcDbSymbolTableRecord
100
AcDbDimStyleTableRecord
  2
AM_ISO
 70
     0
  4
"
 41
3.5
 42
1.0
 43
8.0
 44
1.0
 47
0.1
 48
0.1
 73
     0
 74
     0
 77
     1
 78
     8
 79
     2
140
3.5
141
0.0
143
0.0393701
146
0.71
147
1.0
172
     1
176
   256
177
   256
178
   256
271
     2
272
     2
283
     0
284
     8
285
     8
340
18
371
    -1
372
    -1
  0
DIMSTYLE
105
25
330
23
100
AcDbSymbolTableRecord
100
AcDbDimStyleTableRecord
  2
AM_ISO$SF
 70
     0
  4
"
 41
2.5
 42
1.0
 43
10.0
 44
1.0
 47
0.1
 48
0.1
 73
     0
 74
     0
 75
     1
 76
     1
 77
     1
 78
     8
 79
     2
140
3.5
141
0.0
143
0.0393701
146
0.71
147
1.0
172
     1
176
   256
177
   256
178
   256
271
     2
272
     2
283
     0
284
     8
340
18
371
    -1
372
    -1
  0
DIMSTYLE
105
26
330
23
100
AcDbSymbolTableRecord
100
AcDbDimStyleTableRecord
  2
AM_ISO$SH
 70
     0
  4
"
 41
2.5
 42
1.0
 43
10.0
 44
1.0
 47
0.1
 48
0.1
 73
     0
 74
     0
 75
     1
 76
     1
 77
     1
 78
     8
 79
     2
140
3.5
141
0.0
143
0.0393701
144
2.0
146
0.71
147
1.0
172
     1
173
     1
176
   256
177
   256
178
   256
271
     2
272
     2
283
     0
284
     8
340
18
343
27
371
    -1
372
    -1
  0
DIMSTYLE
105
2D8
102
{ACAD_REACTORS
330
1D63
102
}
330
23
100
AcDbSymbolTableRecord
100
AcDbDimStyleTableRecord
  2
AM_ISO$3
 70
     0
  4
"
 41
3.5
 42
1.0
 43
8.0
 44
1.0
 47
0.1
 48
0.1
 73
     0
 77
     1
 78
     8
 79
     2
140
3.5
141
0.0
143
0.0393701
146
0.71
147
1.0
176
   256
177
   256
178
   256
271
     2
272
     2
283
     0
284
     8
285
     8
288
     1
289
     0
340
18
371
    -1
372
    -1
  0
DIMSTYLE
105
2D9
330
23
100
AcDbSymbolTableRecord
100
AcDbDimStyleTableRecord
  2
AM_ISO$4
 70
     0
  4
"
 41
3.5
 42
1.0
 43
8.0
 44
1.0
 47
0.1
 48
0.1
 73
     0
 77
     1
 78
     8
 79
     2
140
3.5
141
0.0
143
0.0393701
146
0.71
147
1.0
176
   256
177
   256
178
   256
271
     2
272
     2
283
     0
284
     8
285
     8
288
     1
289
     0
340
18
371
    -1
372
    -1
  0
DIMSTYLE
105
2DA
330
23
100
AcDbSymbolTableRecord
100
AcDbDimStyleTableRecord
  2
AM_ISO$6
 70
     0
  4
"
 41
3.5
 42
1.0
 43
8.0
 44
1.0
 47
0.1
 48
0.1
 73
     0
 74
     0
 78
     8
 79
     2
140
3.5
141
0.0
143
0.0393701
146
0.71
147
1.0
172
     1
176
   256
177
   256
178
   256
271
     2
272
     2
283
     0
284
     8
285
     8
340
18
371
    -1
372
    -1
  0
DIMSTYLE
105
2DB
102
{ACAD_REACTORS
330
1C46
102
}
330
23
100
AcDbSymbolTableRecord
100
AcDbDimStyleTableRecord
  2
AM_ISO$7
 70
     0
  4
"
 41
3.5
 42
1.0
 43
8.0
 44
1.0
 47
0.1
 48
0.1
 73
     0
 74
     0
 77
     1
 78
     8
 79
     2
140
5.0
141
0.0
143
0.0393701
146
0.71
147
1.5
172
     1
176
   256
177
   256
178
   256
271
     2
272
     2
283
     0
284
     8
285
     8
340
18
371
    -1
372
    -1
  0
DIMSTYLE
105
2E8
102
{ACAD_REACTORS
330
1C31
330
1C32
330
1C34
330
1F8E
330
1FA4
330
1FBA
330
1FD0
330
1FE6
330
1C37
330
1C36
330
1C33
330
1C35
330
1C2F
330
1C30
330
1C48
330
2179
330
217A
102
}
330
23
100
AcDbSymbolTableRecord
100
AcDbDimStyleTableRecord
  2
AM_ISO$0
 70
     0
  4
"
 41
3.5
 42
1.0
 43
8.0
 44
1.0
 47
0.1
 48
0.1
 73
     0
 74
     0
 77
     1
 78
     8
 79
     2
140
3.5
141
0.0
143
0.0393701
146
0.71
147
1.0
172
     1
176
   256
177
   256
178
   256
271
     2
272
     2
283
     0
284
     8
285
     8
340
18
371
    -1
372
    -1
  0
ENDTAB
  0
TABLE
  2
BLOCK_RECORD
  5
1
330
0
100
AcDbSymbolTable
 70
    23
  0
BLOCK_RECORD
  5
2
102
{ACAD_XDICTIONARY
360
3
102
}
330
1
100
AcDbSymbolTableRecord
100
AcDbBlockTableRecord
  2
*MODEL_SPACE
340
B
  0
BLOCK_RECORD
  5
D
330
1
100
AcDbSymbolTableRecord
100
AcDbBlockTableRecord
  2
*PAPER_SPACE
340
10
  0
BLOCK_RECORD
  5
27
330
1
100
AcDbSymbolTableRecord
100
AcDbBlockTableRecord
  2
GENAXEH
340
0
  0
BLOCK_RECORD
  5
628
102
{ACAD_XDICTIONARY
360
629
102
}
330
1
100
AcDbSymbolTableRecord
100
AcDbBlockTableRecord
  2
A$C453B67D5
340
0
102
{BLKREFS
331
1C3B
102
}
  0
BLOCK_RECORD
  5
62F
102
{ACAD_XDICTIONARY
360
630
102
}
330
1
100
AcDbSymbolTableRecord
100
AcDbBlockTableRecord
  2
A$C17481420
340
0
102
{BLKREFS
331
1C3C
102
}
  0
BLOCK_RECORD
  5
1666
102
{ACAD_XDICTIONARY
360
1667
102
}
330
1
100
AcDbSymbolTableRecord
100
AcDbBlockTableRecord
  2
A$C6896536C
340
0
  0
BLOCK_RECORD
  5
1DA6
330
1
100
AcDbSymbolTableRecord
100
AcDbBlockTableRecord
  2
*D5
340
0
  0
BLOCK_RECORD
  5
1DC7
330
1
100
AcDbSymbolTableRecord
100
AcDbBlockTableRecord
  2
*D6
340
0
  0
BLOCK_RECORD
  5
1DD3
330
1
100
AcDbSymbolTableRecord
100
AcDbBlockTableRecord
  2
*D7
340
0
  0
BLOCK_RECORD
  5
1DDF
330
1
100
AcDbSymbolTableRecord
100
AcDbBlockTableRecord
  2
*D8
340
0
  0
BLOCK_RECORD
  5
1DEB
330
1
100
AcDbSymbolTableRecord
100
AcDbBlockTableRecord
  2
*D9
340
0
  0
BLOCK_RECORD
  5
1DF7
330
1
100
AcDbSymbolTableRecord
100
AcDbBlockTableRecord
  2
*D10
340
0
  0
BLOCK_RECORD
  5
1E05
330
1
100
AcDbSymbolTableRecord
100
AcDbBlockTableRecord
  2
*D11
340
0
  0
BLOCK_RECORD
  5
1E11
330
1
100
AcDbSymbolTableRecord
100
AcDbBlockTableRecord
  2
*D12
340
0
  0
BLOCK_RECORD
  5
1E1D
330
1
100
AcDbSymbolTableRecord
100
AcDbBlockTableRecord
  2
*D13
340
0
  0
BLOCK_RECORD
  5
1E29
330
1
100
AcDbSymbolTableRecord
100
AcDbBlockTableRecord
  2
*D14
340
0
  0
BLOCK_RECORD
  5
1E4D
330
1
100
AcDbSymbolTableRecord
100
AcDbBlockTableRecord
  2
*D15
340
0
  0
BLOCK_RECORD
  5
1F8F
330
1
100
AcDbSymbolTableRecord
100
AcDbBlockTableRecord
  2
*D16
340
0
  0
BLOCK_RECORD
  5
1FA5
330
1
100
AcDbSymbolTableRecord
100
AcDbBlockTableRecord
  2
*D17
340
0
  0
BLOCK_RECORD
  5
1FBB
330
1
100
AcDbSymbolTableRecord
100
AcDbBlockTableRecord
  2
*D18
340
0
  0
BLOCK_RECORD
  5
1FD1
330
1
100
AcDbSymbolTableRecord
100
AcDbBlockTableRecord
  2
*D19
340
0
  0
BLOCK_RECORD
  5
1FE7
330
1
100
AcDbSymbolTableRecord
100
AcDbBlockTableRecord
  2
*D20
340
0
  0
BLOCK_RECORD
  5
219C
330
1
100
AcDbSymbolTableRecord
100
AcDbBlockTableRecord
  2
*D21
340
0
  0
BLOCK_RECORD
  5
21A8
330
1
100
AcDbSymbolTableRecord
100
AcDbBlockTableRecord
  2
*D22
340
0
  0
ENDTAB
  0
ENDSEC
  0
SECTION
  2
BLOCKS
  0
BLOCK
  5
4
330
2
100
AcDbEntity
  8
0
100
AcDbBlockBegin
  2
*MODEL_SPACE
 70
     0
 10
0.0
 20
0.0
 30
0.0
  3
*MODEL_SPACE
  1

  0
ENDBLK
  5
A
330
2
100
AcDbEntity
  8
0
100
AcDbBlockEnd
  0
BLOCK
  5
E
330
D
100
AcDbEntity
 67
     1
  8
0
100
AcDbBlockBegin
  2
*PAPER_SPACE
 70
     0
 10
0.0
 20
0.0
 30
0.0
  3
*PAPER_SPACE
  1

  0
ENDBLK
  5
F
330
D
100
AcDbEntity
 67
     1
  8
0
100
AcDbBlockEnd
  0
BLOCK
  5
28
330
27
100
AcDbEntity
  8
0
100
AcDbBlockBegin
  2
GENAXEH
 70
     0
 10
0.0
 20
0.0
 30
0.0
  3
GENAXEH
  1

  0
LINE
  5
29
330
27
100
AcDbEntity
  8
0
100
AcDbLine
 10
-1.0
 20
0.0
 30
0.0
 11
1.0
 21
0.0
 31
0.0
  0
ENDBLK
  5
2A
330
27
100
AcDbEntity
  8
0
100
AcDbBlockEnd
  0
BLOCK
  5
62A
330
628
100
AcDbEntity
  8
0
100
AcDbBlockBegin
  2
A$C453B67D5
 70
     0
 10
0.0
 20
0.0
 30
0.0
  3
A$C453B67D5
  1

  0
TEXT
  5
62B
330
628
100
AcDbEntity
  8
0
 62
     4
100
AcDbText
 10
0.0000000042221018
 20
15.6750728935973
 30
0.0
 40
3.0
  1
0
 41
0.75
  7
CHINESET
100
AcDbText
  0
LINE
  5
62C
330
628
100
AcDbEntity
  8
0
 62
     4
100
AcDbLine
 10
0.7831209408720952
 20
-0.0000001285146709
 30
0.0
 11
0.7831209408720952
 21
12.50658996549839
 31
0.0
  0
TEXT
  5
62D
330
628
100
AcDbEntity
  8
0
 62
     4
100
AcDbText
 10
5.354910616106053
 20
16.42400857412451
 30
0.0
 40
3.0
  1
Stroke
 41
0.75
  7
CHINESET
100
AcDbText
  0
ENDBLK
  5
62E
330
628
100
AcDbEntity
  8
0
100
AcDbBlockEnd
  0
BLOCK
  5
631
330
62F
100
AcDbEntity
  8
0
100
AcDbBlockBegin
  2
A$C17481420
 70
     0
 10
0.0
 20
0.0
 30
0.0
  3
A$C17481420
  1

  0
LINE
  5
632
330
62F
100
AcDbEntity
  8
SL
100
AcDbLine
 10
14.92688374510175
 20
0.6911761177026392
 30
0.0
 11
5.249999590827769
 21
0.6911761177026392
 31
0.0
  0
TRACE
  5
633
330
62F
100
AcDbEntity
  8
SL
370
    35
100
AcDbTrace
 10
5.249999590827769
 20
1.382351726952606
 30
0.0
 11
5.249999590827769
 21
0.000000508452672
 31
0.0
 12
-0.0000004091722303
 22
0.6911761177026392
 32
0.0
 13
-0.0000004091722303
 23
0.6911761177026392
 33
0.0
  0
MTEXT
  5
634
330
62F
100
AcDbEntity
  8
SL
100
AcDbMText
 10
7.091092156233571
 20
2.131627989433411
 30
0.0
 40
3.674999999999999
 41
0.0
 71
     7
 72
     5
  1
SL
  7
ACISOTS
 73
     1
 44
1.0
1001
ACAD
1000
MTEXTBEGIN
1070
    73
1070
     1
1070
    44
1040
1.0
1070
    74
1070
     0
1000
MTEXTEND
  0
ENDBLK
  5
635
330
62F
100
AcDbEntity
  8
0
100
AcDbBlockEnd
  0
BLOCK
  5
1668
330
1666
100
AcDbEntity
  8
0
100
AcDbBlockBegin
  2
A$C6896536C
 70
     0
 10
0.0
 20
0.0
 30
0.0
  3
A$C6896536C
  1

  0
LEADER
  5
1669
330
1666
100
AcDbEntity
  8
1
100
AcDbLeader
  3
AM_ISO$7
 76
     2
 10
0.0000000000009095
 20
1.166665247989385
 30
0.0
 10
14.8373054244048
 20
1.166665247989385
 30
0.0
1001
ACAD
1000
DSTYLE
1002
{
1070
    41
1040
3.5
1070
   147
1040
1.5
1070
    77
1070
     1
1070
    40
1040
2.0
1002
}
  0
MTEXT
  5
166A
330
1666
100
AcDbEntity
  8
1
100
AcDbMText
 10
5.488395901823423
 20
8.243041517246183
 30
0.0
 40
4.5
 41
10.70304085292628
 71
     1
 72
     5
  1
SL
  7
CHINESET
 73
     1
 44
1.0
1001
ACAD
1000
MTEXTBEGIN
1070
    73
1070
     1
1070
    44
1040
1.0
1070
    74
1070
     0
1000
MTEXTEND
  0
ENDBLK
  5
166B
330
1666
100
AcDbEntity
  8
0
100
AcDbBlockEnd
  0
BLOCK
  5
1DAD
330
1DA6
100
AcDbEntity
  8
0
100
AcDbBlockBegin
  2
*D5
 70
     1
 10
0.0
 20
0.0
 30
0.0
  3
*D5
  1

  0
LINE
  5
20C6
330
1DA6
100
AcDbEntity
  8
AM_5
100
AcDbLine
 10
354.0352841692065
 20
135.7567139551576
 30
0.0
 11
359.4983966968565
 21
111.5491008967125
 31
0.0
  0
LINE
  5
20C7
330
1DA6
100
AcDbEntity
  8
AM_5
100
AcDbLine
 10
359.4983966968565
 20
111.5491008967125
 30
0.0
 11
374.3952243471639
 21
111.5491008967125
 31
0.0
  0
SOLID
  5
20C8
330
1DA6
100
AcDbEntity
  8
AM_5
100
AcDbTrace
 10
354.888818695234
 20
135.9493374554864
 30
0.0
 11
353.1817496431789
 21
135.5640904548288
 31
0.0
 12
352.8795431672336
 22
140.8779211113229
 32
0.0
 13
352.8795431672336
 23
140.8779211113229
 33
0.0
  0
MTEXT
  5
20C9
330
1DA6
100
AcDbEntity
  8
AM_5
100
AcDbMText
 10
367.6968105220103
 20
115.6834285470199
 30
0.0
 40
5.25
 41
0.0
 71
     5
 72
     1
  1
G1/4
 73
     1
 44
1.0
1001
ACAD
1000
MTEXTBEGIN
1070
    73
1070
     1
1070
    44
1040
1.0
1070
    74
1070
     0
1000
MTEXTEND
  0
POINT
  5
20CA
330
1DA6
100
AcDbEntity
  8
Defpoints
 62
     0
100
AcDbPoint
 10
352.8795431672336
 20
140.8779211113229
 30
0.0
  0
POINT
  5
20CB
330
1DA6
100
AcDbEntity
  8
Defpoints
 62
     0
100
AcDbPoint
 10
350.0958584110534
 20
153.2127143474582
 30
0.0
  0
ENDBLK
  5
1DAE
330
1DA6
100
AcDbEntity
  8
0
100
AcDbBlockEnd
  0
BLOCK
  5
1DD1
330
1DC7
100
AcDbEntity
  8
0
100
AcDbBlockBegin
  2
*D6
 70
     1
 10
0.0
 20
0.0
 30
0.0
  3
*D6
  1

  0
LINE
  5
22FD
330
1DC7
100
AcDbEntity
  8
AM_5
100
AcDbLine
 10
506.4877007891438
 20
166.5453177293905
 30
0.0
 11
506.4877007891438
 21
63.26244163683282
 31
0.0
  0
LINE
  5
22FE
330
1DC7
100
AcDbEntity
  8
AM_5
100
AcDbLine
 10
466.4877007891438
 20
165.0453177293905
 30
0.0
 11
466.4877007891438
 21
63.26244163683282
 31
0.0
  0
LINE
  5
22FF
330
1DC7
100
AcDbEntity
  8
AM_5
100
AcDbLine
 10
499.4877007891438
 20
65.26244163683282
 30
0.0
 11
473.4877007891438
 21
65.26244163683282
 31
0.0
  0
SOLID
  5
2300
330
1DC7
100
AcDbEntity
  8
AM_5
100
AcDbTrace
 10
499.4877007891438
 20
66.42910830349949
 30
0.0
 11
499.4877007891438
 21
64.09577497016615
 31
0.0
 12
506.4877007891438
 22
65.26244163683282
 32
0.0
 13
506.4877007891438
 23
65.26244163683282
 33
0.0
  0
SOLID
  5
2301
330
1DC7
100
AcDbEntity
  8
AM_5
100
AcDbTrace
 10
473.4877007891438
 20
66.42910830349949
 30
0.0
 11
473.4877007891438
 21
64.09577497016615
 31
0.0
 12
466.4877007891438
 22
65.26244163683282
 32
0.0
 13
466.4877007891438
 23
65.26244163683282
 33
0.0
  0
MTEXT
  5
2302
330
1DC7
100
AcDbEntity
  8
AM_5
100
AcDbMText
 10
486.4877007891438
 20
70.76244163683282
 30
0.0
 40
7.0
 41
0.0
 71
     5
 72
     1
  1
40
 73
     1
 44
1.0
1001
ACAD
1000
MTEXTBEGIN
1070
    73
1070
     1
1070
    44
1040
1.0
1070
    74
1070
     0
1000
MTEXTEND
  0
POINT
  5
2303
330
1DC7
100
AcDbEntity
  8
Defpoints
 62
     0
100
AcDbPoint
 10
506.4877007891438
 20
168.5453177293905
 30
0.0
  0
POINT
  5
2304
330
1DC7
100
AcDbEntity
  8
Defpoints
 62
     0
100
AcDbPoint
 10
466.4877007891438
 20
167.0453177293905
 30
0.0
  0
POINT
  5
2305
330
1DC7
100
AcDbEntity
  8
Defpoints
 62
     0
100
AcDbPoint
 10
466.4877007891438
 20
65.26244163683282
 30
0.0
  0
ENDBLK
  5
1DD2
330
1DC7
100
AcDbEntity
  8
0
100
AcDbBlockEnd
  0
BLOCK
  5
1DDD
330
1DD3
100
AcDbEntity
  8
0
100
AcDbBlockBegin
  2
*D7
 70
     1
 10
0.0
 20
0.0
 30
0.0
  3
*D7
  1

  0
LINE
  5
22F4
330
1DD3
100
AcDbEntity
  8
AM_5
100
AcDbLine
 10
420.4877007891439
 20
127.5453177293905
 30
0.0
 11
420.4877007891439
 21
79.55402557712071
 31
0.0
  0
LINE
  5
22F5
330
1DD3
100
AcDbEntity
  8
AM_5
100
AcDbLine
 10
466.4877007891439
 20
164.5453177293905
 30
0.0
 11
466.4877007891439
 21
79.55402557712071
 31
0.0
  0
LINE
  5
22F6
330
1DD3
100
AcDbEntity
  8
AM_5
100
AcDbLine
 10
427.4877007891439
 20
81.5540255771207
 30
0.0
 11
459.4877007891438
 21
81.5540255771207
 31
0.0
  0
SOLID
  5
22F7
330
1DD3
100
AcDbEntity
  8
AM_5
100
AcDbTrace
 10
427.4877007891439
 20
82.72069224378737
 30
0.0
 11
427.4877007891439
 21
80.38735891045403
 31
0.0
 12
420.4877007891439
 22
81.5540255771207
 32
0.0
 13
420.4877007891439
 23
81.5540255771207
 33
0.0
  0
SOLID
  5
22F8
330
1DD3
100
AcDbEntity
  8
AM_5
100
AcDbTrace
 10
459.4877007891438
 20
82.72069224378737
 30
0.0
 11
459.4877007891438
 21
80.38735891045403
 31
0.0
 12
466.4877007891439
 22
81.5540255771207
 32
0.0
 13
466.4877007891439
 23
81.5540255771207
 33
0.0
  0
MTEXT
  5
22F9
330
1DD3
100
AcDbEntity
  8
AM_5
100
AcDbMText
 10
443.4877007891438
 20
87.05402557712071
 30
0.0
 40
7.0
 41
0.0
 71
     5
 72
     1
  1
46
 73
     1
 44
1.0
1001
ACAD
1000
MTEXTBEGIN
1070
    73
1070
     1
1070
    44
1040
1.0
1070
    74
1070
     0
1000
MTEXTEND
  0
POINT
  5
22FA
330
1DD3
100
AcDbEntity
  8
Defpoints
 62
     0
100
AcDbPoint
 10
420.4877007891439
 20
129.5453177293905
 30
0.0
  0
POINT
  5
22FB
330
1DD3
100
AcDbEntity
  8
Defpoints
 62
     0
100
AcDbPoint
 10
466.4877007891439
 20
166.5453177293905
 30
0.0
  0
POINT
  5
22FC
330
1DD3
100
AcDbEntity
  8
Defpoints
 62
     0
100
AcDbPoint
 10
466.4877007891439
 20
81.5540255771207
 30
0.0
  0
ENDBLK
  5
1DDE
330
1DD3
100
AcDbEntity
  8
0
100
AcDbBlockEnd
  0
BLOCK
  5
1DE9
330
1DDF
100
AcDbEntity
  8
0
100
AcDbBlockBegin
  2
*D8
 70
     1
 10
0.0
 20
0.0
 30
0.0
  3
*D8
  1

  0
LINE
  5
207A
330
1DDF
100
AcDbEntity
  8
AM_5
100
AcDbLine
 10
420.4877007891439
 20
127.5453177293905
 30
0.0
 11
420.4877007891439
 21
79.26244163683307
 31
0.0
  0
LINE
  5
207B
330
1DDF
100
AcDbEntity
  8
AM_5
100
AcDbLine
 10
310.4877007891439
 20
127.5453177293905
 30
0.0
 11
310.4877007891439
 21
79.26244163683307
 31
0.0
  0
LINE
  5
207C
330
1DDF
100
AcDbEntity
  8
AM_5
100
AcDbLine
 10
413.4877007891438
 20
81.26244163683308
 30
0.0
 11
317.4877007891439
 21
81.26244163683308
 31
0.0
  0
SOLID
  5
207D
330
1DDF
100
AcDbEntity
  8
AM_5
100
AcDbTrace
 10
413.4877007891438
 20
82.42910830349975
 30
0.0
 11
413.4877007891438
 21
80.09577497016641
 31
0.0
 12
420.4877007891439
 22
81.26244163683308
 32
0.0
 13
420.4877007891439
 23
81.26244163683308
 33
0.0
  0
SOLID
  5
207E
330
1DDF
100
AcDbEntity
  8
AM_5
100
AcDbTrace
 10
317.4877007891439
 20
82.42910830349975
 30
0.0
 11
317.4877007891439
 21
80.09577497016641
 31
0.0
 12
310.4877007891439
 22
81.26244163683308
 32
0.0
 13
310.4877007891439
 23
81.26244163683308
 33
0.0
  0
MTEXT
  5
207F
330
1DDF
100
AcDbEntity
  8
AM_5
100
AcDbMText
 10
365.4877007891439
 20
86.76244163683307
 30
0.0
 40
7.0
 41
0.0
 71
     5
 72
     1
  1
110
 73
     1
 44
1.0
1001
ACAD
1000
MTEXTBEGIN
1070
    73
1070
     1
1070
    44
1040
1.0
1070
    74
1070
     0
1000
MTEXTEND
  0
POINT
  5
2080
330
1DDF
100
AcDbEntity
  8
Defpoints
 62
     0
100
AcDbPoint
 10
420.4877007891439
 20
129.5453177293905
 30
0.0
  0
POINT
  5
2081
330
1DDF
100
AcDbEntity
  8
Defpoints
 62
     0
100
AcDbPoint
 10
310.4877007891439
 20
129.5453177293905
 30
0.0
  0
POINT
  5
2082
330
1DDF
100
AcDbEntity
  8
Defpoints
 62
     0
100
AcDbPoint
 10
310.4877007891439
 20
81.26244163683308
 30
0.0
  0
ENDBLK
  5
1DEA
330
1DDF
100
AcDbEntity
  8
0
100
AcDbBlockEnd
  0
BLOCK
  5
1DF5
330
1DEB
100
AcDbEntity
  8
0
100
AcDbBlockBegin
  2
*D9
 70
     1
 10
0.0
 20
0.0
 30
0.0
  3
*D9
  1

  0
LINE
  5
2083
330
1DEB
100
AcDbEntity
  8
AM_5
100
AcDbLine
 10
310.4877007891439
 20
127.5453177293905
 30
0.0
 11
310.4877007891439
 21
79.6694474909157
 31
0.0
  0
LINE
  5
2084
330
1DEB
100
AcDbEntity
  8
AM_5
100
AcDbLine
 10
182.4877007891439
 20
127.5453177293905
 30
0.0
 11
182.4877007891439
 21
79.6694474909157
 31
0.0
  0
LINE
  5
2085
330
1DEB
100
AcDbEntity
  8
AM_5
100
AcDbLine
 10
303.4877007891439
 20
81.6694474909157
 30
0.0
 11
189.4877007891439
 21
81.6694474909157
 31
0.0
  0
SOLID
  5
2086
330
1DEB
100
AcDbEntity
  8
AM_5
100
AcDbTrace
 10
303.4877007891439
 20
82.83611415758237
 30
0.0
 11
303.4877007891439
 21
80.50278082424902
 31
0.0
 12
310.4877007891439
 22
81.6694474909157
 32
0.0
 13
310.4877007891439
 23
81.6694474909157
 33
0.0
  0
SOLID
  5
2087
330
1DEB
100
AcDbEntity
  8
AM_5
100
AcDbTrace
 10
189.4877007891439
 20
82.83611415758237
 30
0.0
 11
189.4877007891439
 21
80.50278082424902
 31
0.0
 12
182.4877007891439
 22
81.6694474909157
 32
0.0
 13
182.4877007891439
 23
81.6694474909157
 33
0.0
  0
MTEXT
  5
2088
330
1DEB
100
AcDbEntity
  8
AM_5
100
AcDbMText
 10
246.4877007891439
 20
87.17013646729366
 30
0.0
 40
7.0
 41
0.0
 71
     5
 72
     1
  1
128+Stroke
 73
     1
 44
1.0
1001
ACAD
1000
MTEXTBEGIN
1070
    73
1070
     1
1070
    44
1040
1.0
1070
    74
1070
     0
1000
MTEXTEND
  0
POINT
  5
2089
330
1DEB
100
AcDbEntity
  8
Defpoints
 62
     0
100
AcDbPoint
 10
310.4877007891439
 20
129.5453177293905
 30
0.0
  0
POINT
  5
208A
330
1DEB
100
AcDbEntity
  8
Defpoints
 62
     0
100
AcDbPoint
 10
182.4877007891439
 20
129.5453177293905
 30
0.0
  0
POINT
  5
208B
330
1DEB
100
AcDbEntity
  8
Defpoints
 62
     0
100
AcDbPoint
 10
182.4877007891439
 20
81.6694474909157
 30
0.0
  0
ENDBLK
  5
1DF6
330
1DEB
100
AcDbEntity
  8
0
100
AcDbBlockEnd
  0
BLOCK
  5
1E03
330
1DF7
100
AcDbEntity
  8
0
100
AcDbBlockBegin
  2
*D10
 70
     1
 10
0.0
 20
0.0
 30
0.0
  3
*D10
  1

  0
LINE
  5
223B
330
1DF7
100
AcDbEntity
  8
AM_5
100
AcDbLine
 10
178.4877007891439
 20
153.5453177293905
 30
0.0
 11
178.4877007891439
 21
79.6694474909157
 31
0.0
  0
LINE
  5
223C
330
1DF7
100
AcDbEntity
  8
AM_5
100
AcDbLine
 10
182.4877007891439
 20
127.5453177293905
 30
0.0
 11
182.4877007891439
 21
79.6694474909157
 31
0.0
  0
LINE
  5
223D
330
1DF7
100
AcDbEntity
  8
AM_5
100
AcDbLine
 10
189.4877007891439
 20
81.6694474909157
 30
0.0
 11
196.4877007891439
 21
81.6694474909157
 31
0.0
  0
LINE
  5
223E
330
1DF7
100
AcDbEntity
  8
AM_5
100
AcDbLine
 10
171.4877007891439
 20
81.6694474909157
 30
0.0
 11
156.9877007891439
 21
81.6694474909157
 31
0.0
  0
LINE
  5
223F
330
1DF7
100
AcDbEntity
  8
AM_5
100
AcDbLine
 10
182.4877007891439
 20
81.6694474909157
 30
0.0
 11
178.4877007891439
 21
81.6694474909157
 31
0.0
  0
SOLID
  5
2240
330
1DF7
100
AcDbEntity
  8
AM_5
100
AcDbTrace
 10
189.4877007891439
 20
82.83611415758237
 30
0.0
 11
189.4877007891439
 21
80.50278082424902
 31
0.0
 12
182.4877007891439
 22
81.6694474909157
 32
0.0
 13
182.4877007891439
 23
81.6694474909157
 33
0.0
  0
SOLID
  5
2241
330
1DF7
100
AcDbEntity
  8
AM_5
100
AcDbTrace
 10
171.4877007891439
 20
82.83611415758237
 30
0.0
 11
171.4877007891439
 21
80.50278082424902
 31
0.0
 12
178.4877007891439
 22
81.6694474909157
 32
0.0
 13
178.4877007891439
 23
81.6694474909157
 33
0.0
  0
MTEXT
  5
2242
330
1DF7
100
AcDbEntity
  8
AM_5
100
AcDbMText
 10
160.7377007891439
 20
87.1694474909157
 30
0.0
 40
7.0
 41
0.0
 71
     5
 72
     1
  1
4
 73
     1
 44
1.0
1001
ACAD
1000
MTEXTBEGIN
1070
    73
1070
     1
1070
    44
1040
1.0
1070
    74
1070
     0
1000
MTEXTEND
  0
POINT
  5
2243
330
1DF7
100
AcDbEntity
  8
Defpoints
 62
     0
100
AcDbPoint
 10
178.4877007891439
 20
155.5453177293905
 30
0.0
  0
POINT
  5
2244
330
1DF7
100
AcDbEntity
  8
Defpoints
 62
     0
100
AcDbPoint
 10
182.4877007891439
 20
129.5453177293905
 30
0.0
  0
POINT
  5
2245
330
1DF7
100
AcDbEntity
  8
Defpoints
 62
     0
100
AcDbPoint
 10
182.4877007891439
 20
81.6694474909157
 30
0.0
  0
ENDBLK
  5
1E04
330
1DF7
100
AcDbEntity
  8
0
100
AcDbBlockEnd
  0
BLOCK
  5
1E0F
330
1E05
100
AcDbEntity
  8
0
100
AcDbBlockBegin
  2
*D11
 70
     1
 10
0.0
 20
0.0
 30
0.0
  3
*D11
  1

  0
LINE
  5
22EB
330
1E05
100
AcDbEntity
  8
AM_5
100
AcDbLine
 10
182.4877007891439
 20
127.5453177293905
 30
0.0
 11
182.4877007891439
 21
63.26244163683282
 31
0.0
  0
LINE
  5
22EC
330
1E05
100
AcDbEntity
  8
AM_5
100
AcDbLine
 10
466.4885196926042
 20
164.5453177293905
 30
0.0
 11
466.4885196926042
 21
63.26244163683282
 31
0.0
  0
LINE
  5
22ED
330
1E05
100
AcDbEntity
  8
AM_5
100
AcDbLine
 10
189.4877007891439
 20
65.26244163683282
 30
0.0
 11
459.4885196926042
 21
65.26244163683282
 31
0.0
  0
SOLID
  5
22EE
330
1E05
100
AcDbEntity
  8
AM_5
100
AcDbTrace
 10
189.4877007891439
 20
66.42910830349949
 30
0.0
 11
189.4877007891439
 21
64.09577497016615
 31
0.0
 12
182.4877007891439
 22
65.26244163683282
 32
0.0
 13
182.4877007891439
 23
65.26244163683282
 33
0.0
  0
SOLID
  5
22EF
330
1E05
100
AcDbEntity
  8
AM_5
100
AcDbTrace
 10
459.4885196926042
 20
66.42910830349949
 30
0.0
 11
459.4885196926042
 21
64.09577497016615
 31
0.0
 12
466.4885196926042
 22
65.26244163683282
 32
0.0
 13
466.4885196926042
 23
65.26244163683282
 33
0.0
  0
MTEXT
  5
22F0
330
1E05
100
AcDbEntity
  8
AM_5
100
AcDbMText
 10
324.488110240874
 20
70.76313061321077
 30
0.0
 40
7.0
 41
0.0
 71
     5
 72
     1
  1
284+Stroke
 73
     1
 44
1.0
1001
ACAD
1000
MTEXTBEGIN
1070
    73
1070
     1
1070
    44
1040
1.0
1070
    74
1070
     0
1000
MTEXTEND
  0
POINT
  5
22F1
330
1E05
100
AcDbEntity
  8
Defpoints
 62
     0
100
AcDbPoint
 10
182.4877007891439
 20
129.5453177293905
 30
0.0
  0
POINT
  5
22F2
330
1E05
100
AcDbEntity
  8
Defpoints
 62
     0
100
AcDbPoint
 10
466.4885196926042
 20
166.5453177293905
 30
0.0
  0
POINT
  5
22F3
330
1E05
100
AcDbEntity
  8
Defpoints
 62
     0
100
AcDbPoint
 10
466.4885196926042
 20
65.26244163683282
 30
0.0
  0
ENDBLK
  5
1E10
330
1E05
100
AcDbEntity
  8
0
100
AcDbBlockEnd
  0
BLOCK
  5
1E1B
330
1E11
100
AcDbEntity
  8
0
100
AcDbBlockBegin
  2
*D12
 70
     1
 10
0.0
 20
0.0
 30
0.0
  3
*D12
  1

  0
LINE
  5
2246
330
1E11
100
AcDbEntity
  8
AM_5
100
AcDbLine
 10
177.4877007891439
 20
199.5453177293905
 30
0.0
 11
149.1601516211233
 21
199.5453177293905
 31
0.0
  0
LINE
  5
2247
330
1E11
100
AcDbEntity
  8
AM_5
100
AcDbLine
 10
177.4877007891439
 20
154.5453177293905
 30
0.0
 11
149.1601516211233
 21
154.5453177293905
 31
0.0
  0
LINE
  5
2248
330
1E11
100
AcDbEntity
  8
AM_5
100
AcDbLine
 10
151.1601516211233
 20
192.5453177293905
 30
0.0
 11
151.1601516211233
 21
161.5453177293905
 31
0.0
  0
SOLID
  5
2249
330
1E11
100
AcDbEntity
  8
AM_5
100
AcDbTrace
 10
149.9934849544567
 20
192.5453177293905
 30
0.0
 11
152.32681828779
 21
192.5453177293905
 31
0.0
 12
151.1601516211233
 22
199.5453177293905
 32
0.0
 13
151.1601516211233
 23
199.5453177293905
 33
0.0
  0
SOLID
  5
224A
330
1E11
100
AcDbEntity
  8
AM_5
100
AcDbTrace
 10
149.9934849544566
 20
161.5453177293905
 30
0.0
 11
152.32681828779
 21
161.5453177293905
 31
0.0
 12
151.1601516211233
 22
154.5453177293905
 32
0.0
 13
151.1601516211233
 23
154.5453177293905
 33
0.0
  0
MTEXT
  5
224B
330
1E11
100
AcDbEntity
  8
AM_5
100
AcDbMText
 10
145.6601516211233
 20
177.0453177293905
 30
0.0
 40
7.0
 41
0.0
 71
     5
 72
     1
  1
%%c45
 11
0.0000000000000001
 21
1.0
 31
0.0
 73
     1
 44
1.0
1001
ACAD
1000
MTEXTBEGIN
1070
    73
1070
     1
1070
    44
1040
1.0
1070
    74
1070
     0
1000
MTEXTEND
  0
POINT
  5
224C
330
1E11
100
AcDbEntity
  8
Defpoints
 62
     0
100
AcDbPoint
 10
179.4877007891439
 20
199.5453177293905
 30
0.0
  0
POINT
  5
224D
330
1E11
100
AcDbEntity
  8
Defpoints
 62
     0
100
AcDbPoint
 10
179.4877007891439
 20
154.5453177293905
 30
0.0
  0
POINT
  5
224E
330
1E11
100
AcDbEntity
  8
Defpoints
 62
     0
100
AcDbPoint
 10
151.1601516211233
 20
154.5453177293905
 30
0.0
  0
ENDBLK
  5
1E1C
330
1E11
100
AcDbEntity
  8
0
100
AcDbBlockEnd
  0
BLOCK
  5
1E27
330
1E1D
100
AcDbEntity
  8
0
100
AcDbBlockBegin
  2
*D13
 70
     1
 10
0.0
 20
0.0
 30
0.0
  3
*D13
  1

  0
LINE
  5
22C3
330
1E1D
100
AcDbEntity
  8
AM_5
100
AcDbLine
 10
456.4877007891438
 20
189.5453177293905
 30
0.0
 11
526.0798742396477
 21
189.5453177293905
 31
0.0
  0
LINE
  5
22C4
330
1E1D
100
AcDbEntity
  8
AM_5
100
AcDbLine
 10
456.4877007891438
 20
164.5453177293905
 30
0.0
 11
526.0798742396477
 21
164.5453177293905
 31
0.0
  0
LINE
  5
22C5
330
1E1D
100
AcDbEntity
  8
AM_5
100
AcDbLine
 10
524.0798742396477
 20
182.5453177293905
 30
0.0
 11
524.0798742396477
 21
171.5453177293905
 31
0.0
  0
SOLID
  5
22C6
330
1E1D
100
AcDbEntity
  8
AM_5
100
AcDbTrace
 10
522.9132075729811
 20
182.5453177293905
 30
0.0
 11
525.2465409063144
 21
182.5453177293905
 31
0.0
 12
524.0798742396477
 22
189.5453177293905
 32
0.0
 13
524.0798742396477
 23
189.5453177293905
 33
0.0
  0
SOLID
  5
22C7
330
1E1D
100
AcDbEntity
  8
AM_5
100
AcDbTrace
 10
522.9132075729811
 20
171.5453177293905
 30
0.0
 11
525.2465409063144
 21
171.5453177293905
 31
0.0
 12
524.0798742396477
 22
164.5453177293905
 32
0.0
 13
524.0798742396477
 23
164.5453177293905
 33
0.0
  0
MTEXT
  5
22C8
330
1E1D
100
AcDbEntity
  8
AM_5
100
AcDbMText
 10
518.5791852632697
 20
177.0453177293906
 30
0.0
 40
7.0
 41
0.0
 71
     5
 72
     1
  1
%%c25
 11
0.0000000000000001
 21
1.0
 31
0.0
 73
     1
 44
1.0
1001
ACAD
1000
MTEXTBEGIN
1070
    73
1070
     1
1070
    44
1040
1.0
1070
    74
1070
     0
1000
MTEXTEND
  0
POINT
  5
22C9
330
1E1D
100
AcDbEntity
  8
Defpoints
 62
     0
100
AcDbPoint
 10
454.4877007891439
 20
189.5453177293905
 30
0.0
  0
POINT
  5
22CA
330
1E1D
100
AcDbEntity
  8
Defpoints
 62
     0
100
AcDbPoint
 10
454.4877007891439
 20
164.5453177293905
 30
0.0
  0
POINT
  5
22CB
330
1E1D
100
AcDbEntity
  8
Defpoints
 62
     0
100
AcDbPoint
 10
524.0798742396477
 20
164.5453177293905
 30
0.0
  0
ENDBLK
  5
1E28
330
1E1D
100
AcDbEntity
  8
0
100
AcDbBlockEnd
  0
BLOCK
  5
1E33
330
1E29
100
AcDbEntity
  8
0
100
AcDbBlockBegin
  2
*D14
 70
     1
 10
0.0
 20
0.0
 30
0.0
  3
*D14
  1

  0
LINE
  5
230F
330
1E29
100
AcDbEntity
  8
AM_5
100
AcDbLine
 10
432.4877007891439
 20
199.5453177293905
 30
0.0
 11
541.0420839129733
 21
199.5453177293905
 31
0.0
  0
LINE
  5
2310
330
1E29
100
AcDbEntity
  8
AM_5
100
AcDbLine
 10
432.4877007891439
 20
154.5453177293905
 30
0.0
 11
541.0420839129733
 21
154.5453177293905
 31
0.0
  0
LINE
  5
2311
330
1E29
100
AcDbEntity
  8
AM_5
100
AcDbLine
 10
539.0420839129733
 20
192.5453177293905
 30
0.0
 11
539.0420839129733
 21
161.5453177293905
 31
0.0
  0
SOLID
  5
2312
330
1E29
100
AcDbEntity
  8
AM_5
100
AcDbTrace
 10
537.8754172463067
 20
192.5453177293905
 30
0.0
 11
540.20875057964
 21
192.5453177293905
 31
0.0
 12
539.0420839129733
 22
199.5453177293905
 32
0.0
 13
539.0420839129733
 23
199.5453177293905
 33
0.0
  0
SOLID
  5
2313
330
1E29
100
AcDbEntity
  8
AM_5
100
AcDbTrace
 10
537.8754172463067
 20
161.5453177293905
 30
0.0
 11
540.20875057964
 21
161.5453177293905
 31
0.0
 12
539.0420839129733
 22
154.5453177293905
 32
0.0
 13
539.0420839129733
 23
154.5453177293905
 33
0.0
  0
MTEXT
  5
2314
330
1E29
100
AcDbEntity
  8
AM_5
100
AcDbMText
 10
533.5420839129733
 20
177.0453177293906
 30
0.0
 40
7.0
 41
0.0
 71
     5
 72
     1
  1
%%c45
 11
0.0000000000000001
 21
1.0
 31
0.0
 73
     1
 44
1.0
1001
ACAD
1000
MTEXTBEGIN
1070
    73
1070
     1
1070
    44
1040
1.0
1070
    74
1070
     0
1000
MTEXTEND
  0
POINT
  5
2315
330
1E29
100
AcDbEntity
  8
Defpoints
 62
     0
100
AcDbPoint
 10
430.4877007891438
 20
199.5453177293905
 30
0.0
  0
POINT
  5
2316
330
1E29
100
AcDbEntity
  8
Defpoints
 62
     0
100
AcDbPoint
 10
430.4877007891438
 20
154.5453177293905
 30
0.0
  0
POINT
  5
2317
330
1E29
100
AcDbEntity
  8
Defpoints
 62
     0
100
AcDbPoint
 10
539.0420839129733
 20
154.5453177293905
 30
0.0
  0
ENDBLK
  5
1E34
330
1E29
100
AcDbEntity
  8
0
100
AcDbBlockEnd
  0
BLOCK
  5
1E59
330
1E4D
100
AcDbEntity
  8
0
100
AcDbBlockBegin
  2
*D15
 70
     1
 10
0.0
 20
0.0
 30
0.0
  3
*D15
  1

  0
LINE
  5
2323
330
1E4D
100
AcDbEntity
  8
AM_5
100
AcDbLine
 10
430.4877007891438
 20
152.5453177293905
 30
0.0
 11
430.4877007891438
 21
108.8122812400674
 31
0.0
  0
LINE
  5
2324
330
1E4D
100
AcDbEntity
  8
AM_5
100
AcDbLine
 10
420.4877007891439
 20
127.5453177293905
 30
0.0
 11
420.4877007891439
 21
108.8122812400674
 31
0.0
  0
LINE
  5
2325
330
1E4D
100
AcDbEntity
  8
AM_5
100
AcDbLine
 10
437.4877007891439
 20
110.8122812400675
 30
0.0
 11
444.4877007891439
 21
110.8122812400675
 31
0.0
  0
LINE
  5
2326
330
1E4D
100
AcDbEntity
  8
AM_5
100
AcDbLine
 10
413.4877007891438
 20
110.8122812400675
 30
0.0
 11
406.4877007891438
 21
110.8122812400675
 31
0.0
  0
LINE
  5
2327
330
1E4D
100
AcDbEntity
  8
AM_5
100
AcDbLine
 10
430.4877007891438
 20
110.8122812400675
 30
0.0
 11
420.4877007891439
 21
110.8122812400675
 31
0.0
  0
SOLID
  5
2328
330
1E4D
100
AcDbEntity
  8
AM_5
100
AcDbTrace
 10
437.4877007891439
 20
111.9789479067341
 30
0.0
 11
437.4877007891439
 21
109.6456145734008
 31
0.0
 12
430.4877007891438
 22
110.8122812400675
 32
0.0
 13
430.4877007891438
 23
110.8122812400675
 33
0.0
  0
SOLID
  5
2329
330
1E4D
100
AcDbEntity
  8
AM_5
100
AcDbTrace
 10
413.4877007891438
 20
111.9789479067341
 30
0.0
 11
413.4877007891438
 21
109.6456145734008
 31
0.0
 12
420.4877007891439
 22
110.8122812400675
 32
0.0
 13
420.4877007891439
 23
110.8122812400675
 33
0.0
  0
MTEXT
  5
232A
330
1E4D
100
AcDbEntity
  8
AM_5
100
AcDbMText
 10
425.4877007891439
 20
116.3122812400674
 30
0.0
 40
7.0
 41
0.0
 71
     5
 72
     1
  1
10
 73
     1
 44
1.0
1001
ACAD
1000
MTEXTBEGIN
1070
    73
1070
     1
1070
    44
1040
1.0
1070
    74
1070
     0
1000
MTEXTEND
  0
POINT
  5
232B
330
1E4D
100
AcDbEntity
  8
Defpoints
 62
     0
100
AcDbPoint
 10
430.4877007891438
 20
154.5453177293905
 30
0.0
  0
POINT
  5
232C
330
1E4D
100
AcDbEntity
  8
Defpoints
 62
     0
100
AcDbPoint
 10
420.4877007891439
 20
129.5453177293905
 30
0.0
  0
POINT
  5
232D
330
1E4D
100
AcDbEntity
  8
Defpoints
 62
     0
100
AcDbPoint
 10
420.4877007891439
 20
110.8122812400675
 30
0.0
  0
ENDBLK
  5
1E5A
330
1E4D
100
AcDbEntity
  8
0
100
AcDbBlockEnd
  0
BLOCK
  5
1F99
330
1F8F
100
AcDbEntity
  8
0
100
AcDbBlockBegin
  2
*D16
 70
     1
 10
0.0
 20
0.0
 30
0.0
  3
*D16
  1

  0
LINE
  5
20CC
330
1F8F
100
AcDbEntity
  8
AM_5
100
AcDbLine
 10
202.9877007891434
 20
181.3665099620655
 30
0.0
 11
202.9877007891434
 21
238.5453177293864
 31
0.0
  0
LINE
  5
20CD
330
1F8F
100
AcDbEntity
  8
AM_5
100
AcDbLine
 10
182.4877007891439
 20
226.5453177293864
 30
0.0
 11
182.4877007891439
 21
238.5453177293864
 31
0.0
  0
LINE
  5
20CE
330
1F8F
100
AcDbEntity
  8
AM_5
100
AcDbLine
 10
195.9877007891434
 20
236.5453177293864
 30
0.0
 11
189.4877007891439
 21
236.5453177293864
 31
0.0
  0
SOLID
  5
20CF
330
1F8F
100
AcDbEntity
  8
AM_5
100
AcDbTrace
 10
195.9877007891434
 20
237.7119843960531
 30
0.0
 11
195.9877007891434
 21
235.3786510627198
 31
0.0
 12
202.9877007891434
 22
236.5453177293864
 32
0.0
 13
202.9877007891434
 23
236.5453177293864
 33
0.0
  0
SOLID
  5
20D0
330
1F8F
100
AcDbEntity
  8
AM_5
100
AcDbTrace
 10
189.4877007891439
 20
237.7119843960531
 30
0.0
 11
189.4877007891439
 21
235.3786510627198
 31
0.0
 12
182.4877007891439
 22
236.5453177293864
 32
0.0
 13
182.4877007891439
 23
236.5453177293864
 33
0.0
  0
MTEXT
  5
20D1
330
1F8F
100
AcDbEntity
  8
AM_5
100
AcDbMText
 10
192.7377007891436
 20
242.0460067057644
 30
0.0
 40
7.0
 41
0.0
 71
     5
 72
     1
  1
20.5
 73
     1
 44
1.0
1001
ACAD
1000
MTEXTBEGIN
1070
    73
1070
     1
1070
    44
1040
1.0
1070
    74
1070
     0
1000
MTEXTEND
  0
POINT
  5
20D2
330
1F8F
100
AcDbEntity
  8
Defpoints
 62
     0
100
AcDbPoint
 10
202.9877007891434
 20
179.3665099620655
 30
0.0
  0
POINT
  5
20D3
330
1F8F
100
AcDbEntity
  8
Defpoints
 62
     0
100
AcDbPoint
 10
182.4877007891439
 20
224.5453177293864
 30
0.0
  0
POINT
  5
20D4
330
1F8F
100
AcDbEntity
  8
Defpoints
 62
     0
100
AcDbPoint
 10
182.4877007891439
 20
236.5453177293864
 30
0.0
  0
ENDBLK
  5
1F9A
330
1F8F
100
AcDbEntity
  8
0
100
AcDbBlockEnd
  0
BLOCK
  5
1FAF
330
1FA5
100
AcDbEntity
  8
0
100
AcDbBlockBegin
  2
*D17
 70
     1
 10
0.0
 20
0.0
 30
0.0
  3
*D17
  1

  0
LINE
  5
20D5
330
1FA5
100
AcDbEntity
  8
AM_5
100
AcDbLine
 10
182.4877007891439
 20
226.5453177293864
 30
0.0
 11
182.4877007891439
 21
255.5453177293864
 31
0.0
  0
LINE
  5
20D6
330
1FA5
100
AcDbEntity
  8
AM_5
100
AcDbLine
 10
217.9877007891439
 20
226.5453177293864
 30
0.0
 11
217.9877007891439
 21
255.5453177293864
 31
0.0
  0
LINE
  5
20D7
330
1FA5
100
AcDbEntity
  8
AM_5
100
AcDbLine
 10
189.4877007891439
 20
253.5453177293864
 30
0.0
 11
210.9877007891439
 21
253.5453177293864
 31
0.0
  0
SOLID
  5
20D8
330
1FA5
100
AcDbEntity
  8
AM_5
100
AcDbTrace
 10
189.4877007891439
 20
254.7119843960531
 30
0.0
 11
189.4877007891439
 21
252.3786510627198
 31
0.0
 12
182.4877007891439
 22
253.5453177293864
 32
0.0
 13
182.4877007891439
 23
253.5453177293864
 33
0.0
  0
SOLID
  5
20D9
330
1FA5
100
AcDbEntity
  8
AM_5
100
AcDbTrace
 10
210.9877007891439
 20
254.7119843960531
 30
0.0
 11
210.9877007891439
 21
252.3786510627198
 31
0.0
 12
217.9877007891439
 22
253.5453177293864
 32
0.0
 13
217.9877007891439
 23
253.5453177293864
 33
0.0
  0
MTEXT
  5
20DA
330
1FA5
100
AcDbEntity
  8
AM_5
100
AcDbMText
 10
200.2377007891439
 20
259.0453177293864
 30
0.0
 40
7.0
 41
0.0
 71
     5
 72
     1
  1
35.5
 73
     1
 44
1.0
1001
ACAD
1000
MTEXTBEGIN
1070
    73
1070
     1
1070
    44
1040
1.0
1070
    74
1070
     0
1000
MTEXTEND
  0
POINT
  5
20DB
330
1FA5
100
AcDbEntity
  8
Defpoints
 62
     0
100
AcDbPoint
 10
182.4877007891439
 20
224.5453177293864
 30
0.0
  0
POINT
  5
20DC
330
1FA5
100
AcDbEntity
  8
Defpoints
 62
     0
100
AcDbPoint
 10
217.9877007891439
 20
224.5453177293864
 30
0.0
  0
POINT
  5
20DD
330
1FA5
100
AcDbEntity
  8
Defpoints
 62
     0
100
AcDbPoint
 10
217.9877007891439
 20
253.5453177293864
 30
0.0
  0
ENDBLK
  5
1FB0
330
1FA5
100
AcDbEntity
  8
0
100
AcDbBlockEnd
  0
BLOCK
  5
1FC5
330
1FBB
100
AcDbEntity
  8
0
100
AcDbBlockBegin
  2
*D18
 70
     1
 10
0.0
 20
0.0
 30
0.0
  3
*D18
  1

  0
LINE
  5
20DE
330
1FBB
100
AcDbEntity
  8
AM_5
100
AcDbLine
 10
289.9877007891435
 20
181.3665099620641
 30
0.0
 11
289.9877007891435
 21
238.5453177293863
 31
0.0
  0
LINE
  5
20DF
330
1FBB
100
AcDbEntity
  8
AM_5
100
AcDbLine
 10
310.4877007891439
 20
226.5453177293905
 30
0.0
 11
310.4877007891439
 21
238.5453177293863
 31
0.0
  0
LINE
  5
20E0
330
1FBB
100
AcDbEntity
  8
AM_5
100
AcDbLine
 10
296.9877007891435
 20
236.5453177293863
 30
0.0
 11
303.4877007891439
 21
236.5453177293863
 31
0.0
  0
SOLID
  5
20E1
330
1FBB
100
AcDbEntity
  8
AM_5
100
AcDbTrace
 10
296.9877007891435
 20
237.7119843960529
 30
0.0
 11
296.9877007891435
 21
235.3786510627196
 31
0.0
 12
289.9877007891435
 22
236.5453177293863
 32
0.0
 13
289.9877007891435
 23
236.5453177293863
 33
0.0
  0
SOLID
  5
20E2
330
1FBB
100
AcDbEntity
  8
AM_5
100
AcDbTrace
 10
303.4877007891439
 20
237.7119843960529
 30
0.0
 11
303.4877007891439
 21
235.3786510627196
 31
0.0
 12
310.4877007891439
 22
236.5453177293863
 32
0.0
 13
310.4877007891439
 23
236.5453177293863
 33
0.0
  0
MTEXT
  5
20E3
330
1FBB
100
AcDbEntity
  8
AM_5
100
AcDbMText
 10
300.2377007891437
 20
242.0460067057642
 30
0.0
 40
7.0
 41
0.0
 71
     5
 72
     1
  1
20.5
 73
     1
 44
1.0
1001
ACAD
1000
MTEXTBEGIN
1070
    73
1070
     1
1070
    44
1040
1.0
1070
    74
1070
     0
1000
MTEXTEND
  0
POINT
  5
20E4
330
1FBB
100
AcDbEntity
  8
Defpoints
 62
     0
100
AcDbPoint
 10
289.9877007891435
 20
179.3665099620642
 30
0.0
  0
POINT
  5
20E5
330
1FBB
100
AcDbEntity
  8
Defpoints
 62
     0
100
AcDbPoint
 10
310.4877007891439
 20
224.5453177293905
 30
0.0
  0
POINT
  5
20E6
330
1FBB
100
AcDbEntity
  8
Defpoints
 62
     0
100
AcDbPoint
 10
310.4877007891439
 20
236.5453177293863
 30
0.0
  0
ENDBLK
  5
1FC6
330
1FBB
100
AcDbEntity
  8
0
100
AcDbBlockEnd
  0
BLOCK
  5
1FDB
330
1FD1
100
AcDbEntity
  8
0
100
AcDbBlockBegin
  2
*D19
 70
     1
 10
0.0
 20
0.0
 30
0.0
  3
*D19
  1

  0
LINE
  5
20E7
330
1FD1
100
AcDbEntity
  8
AM_5
100
AcDbLine
 10
274.9877007891439
 20
226.5453177293905
 30
0.0
 11
274.9877007891439
 21
255.5453177293864
 31
0.0
  0
LINE
  5
20E8
330
1FD1
100
AcDbEntity
  8
AM_5
100
AcDbLine
 10
310.4877007891439
 20
226.5453177293905
 30
0.0
 11
310.4877007891439
 21
255.5453177293864
 31
0.0
  0
LINE
  5
20E9
330
1FD1
100
AcDbEntity
  8
AM_5
100
AcDbLine
 10
281.9877007891439
 20
253.5453177293864
 30
0.0
 11
303.4877007891439
 21
253.5453177293864
 31
0.0
  0
SOLID
  5
20EA
330
1FD1
100
AcDbEntity
  8
AM_5
100
AcDbTrace
 10
281.9877007891439
 20
254.7119843960531
 30
0.0
 11
281.9877007891439
 21
252.3786510627197
 31
0.0
 12
274.9877007891439
 22
253.5453177293864
 32
0.0
 13
274.9877007891439
 23
253.5453177293864
 33
0.0
  0
SOLID
  5
20EB
330
1FD1
100
AcDbEntity
  8
AM_5
100
AcDbTrace
 10
303.4877007891439
 20
254.7119843960531
 30
0.0
 11
303.4877007891439
 21
252.3786510627197
 31
0.0
 12
310.4877007891439
 22
253.5453177293864
 32
0.0
 13
310.4877007891439
 23
253.5453177293864
 33
0.0
  0
MTEXT
  5
20EC
330
1FD1
100
AcDbEntity
  8
AM_5
100
AcDbMText
 10
292.7377007891438
 20
259.0453177293864
 30
0.0
 40
7.0
 41
0.0
 71
     5
 72
     1
  1
35.5
 73
     1
 44
1.0
1001
ACAD
1000
MTEXTBEGIN
1070
    73
1070
     1
1070
    44
1040
1.0
1070
    74
1070
     0
1000
MTEXTEND
  0
POINT
  5
20ED
330
1FD1
100
AcDbEntity
  8
Defpoints
 62
     0
100
AcDbPoint
 10
274.9877007891439
 20
224.5453177293905
 30
0.0
  0
POINT
  5
20EE
330
1FD1
100
AcDbEntity
  8
Defpoints
 62
     0
100
AcDbPoint
 10
310.4877007891439
 20
224.5453177293905
 30
0.0
  0
POINT
  5
20EF
330
1FD1
100
AcDbEntity
  8
Defpoints
 62
     0
100
AcDbPoint
 10
310.4877007891439
 20
253.5453177293864
 30
0.0
  0
ENDBLK
  5
1FDC
330
1FD1
100
AcDbEntity
  8
0
100
AcDbBlockEnd
  0
BLOCK
  5
1FF1
330
1FE7
100
AcDbEntity
  8
0
100
AcDbBlockBegin
  2
*D20
 70
     1
 10
0.0
 20
0.0
 30
0.0
  3
*D20
  1

  0
LINE
  5
20F0
330
1FE7
100
AcDbEntity
  8
AM_5
100
AcDbLine
 10
189.666508556468
 20
168.0453177293901
 30
0.0
 11
161.1975525284513
 21
168.0453177293901
 31
0.0
  0
LINE
  5
20F1
330
1FE7
100
AcDbEntity
  8
AM_5
100
AcDbLine
 10
173.1975525284513
 20
177.0453177293905
 30
0.0
 11
161.1975525284513
 21
177.0453177293905
 31
0.0
  0
LINE
  5
20F2
330
1FE7
100
AcDbEntity
  8
AM_5
100
AcDbLine
 10
163.1975525284513
 20
161.0453177293901
 30
0.0
 11
163.1975525284513
 21
154.0453177293901
 31
0.0
  0
LINE
  5
20F3
330
1FE7
100
AcDbEntity
  8
AM_5
100
AcDbLine
 10
163.1975525284513
 20
184.0453177293905
 30
0.0
 11
163.1975525284513
 21
191.0453177293905
 31
0.0
  0
LINE
  5
20F4
330
1FE7
100
AcDbEntity
  8
AM_5
100
AcDbLine
 10
163.1975525284513
 20
168.0453177293901
 30
0.0
 11
163.1975525284513
 21
177.0453177293905
 31
0.0
  0
SOLID
  5
20F5
330
1FE7
100
AcDbEntity
  8
AM_5
100
AcDbTrace
 10
162.0308858617846
 20
161.0453177293901
 30
0.0
 11
164.3642191951179
 21
161.0453177293901
 31
0.0
 12
163.1975525284513
 22
168.0453177293901
 32
0.0
 13
163.1975525284513
 23
168.0453177293901
 33
0.0
  0
SOLID
  5
20F6
330
1FE7
100
AcDbEntity
  8
AM_5
100
AcDbTrace
 10
162.0308858617846
 20
184.0453177293905
 30
0.0
 11
164.3642191951179
 21
184.0453177293905
 31
0.0
 12
163.1975525284513
 22
177.0453177293905
 32
0.0
 13
163.1975525284513
 23
177.0453177293905
 33
0.0
  0
MTEXT
  5
20F7
330
1FE7
100
AcDbEntity
  8
AM_5
100
AcDbMText
 10
157.6975525284512
 20
172.5453177293903
 30
0.0
 40
7.0
 41
0.0
 71
     5
 72
     1
  1
9
 11
0.0000000000000001
 21
1.0
 31
0.0
 73
     1
 44
1.0
1001
ACAD
1000
MTEXTBEGIN
1070
    73
1070
     1
1070
    44
1040
1.0
1070
    74
1070
     0
1000
MTEXTEND
  0
POINT
  5
20F8
330
1FE7
100
AcDbEntity
  8
Defpoints
 62
     0
100
AcDbPoint
 10
191.666508556468
 20
168.0453177293901
 30
0.0
  0
POINT
  5
20F9
330
1FE7
100
AcDbEntity
  8
Defpoints
 62
     0
100
AcDbPoint
 10
175.1975525284513
 20
177.0453177293905
 30
0.0
  0
POINT
  5
20FA
330
1FE7
100
AcDbEntity
  8
Defpoints
 62
     0
100
AcDbPoint
 10
163.1975525284513
 20
177.0453177293905
 30
0.0
  0
ENDBLK
  5
1FF2
330
1FE7
100
AcDbEntity
  8
0
100
AcDbBlockEnd
  0
BLOCK
  5
21A6
330
219C
100
AcDbEntity
  8
0
100
AcDbBlockBegin
  2
*D21
 70
     1
 10
0.0
 20
0.0
 30
0.0
  3
*D21
  1

  0
LINE
  5
22D5
330
219C
100
AcDbEntity
  8
AM_5
100
AcDbLine
 10
671.4646055376929
 20
133.2766816625813
 30
0.0
 11
671.4646055376929
 21
95.66580860355765
 31
0.0
  0
LINE
  5
22D6
330
219C
100
AcDbEntity
  8
AM_5
100
AcDbLine
 10
599.4646055376928
 20
133.2766816625813
 30
0.0
 11
599.4646055376928
 21
95.66580860355765
 31
0.0
  0
LINE
  5
22D7
330
219C
100
AcDbEntity
  8
AM_5
100
AcDbLine
 10
664.4646055376929
 20
97.66580860355766
 30
0.0
 11
606.4646055376928
 21
97.66580860355766
 31
0.0
  0
SOLID
  5
22D8
330
219C
100
AcDbEntity
  8
AM_5
100
AcDbTrace
 10
664.4646055376929
 20
98.83247527022433
 30
0.0
 11
664.4646055376929
 21
96.49914193689099
 31
0.0
 12
671.4646055376929
 22
97.66580860355766
 32
0.0
 13
671.4646055376929
 23
97.66580860355766
 33
0.0
  0
SOLID
  5
22D9
330
219C
100
AcDbEntity
  8
AM_5
100
AcDbTrace
 10
606.4646055376928
 20
98.83247527022433
 30
0.0
 11
606.4646055376928
 21
96.49914193689099
 31
0.0
 12
599.4646055376928
 22
97.66580860355766
 32
0.0
 13
599.4646055376928
 23
97.66580860355766
 33
0.0
  0
MTEXT
  5
22DA
330
219C
100
AcDbEntity
  8
AM_5
100
AcDbMText
 10
635.4646055376929
 20
103.1664975799356
 30
0.0
 40
7.0
 41
0.0
 71
     5
 72
     1
  1
{\Famgdt|c136;o}72
 73
     1
 44
1.0
1001
ACAD
1000
MTEXTBEGIN
1070
    73
1070
     1
1070
    44
1040
1.0
1070
    74
1070
     0
1000
MTEXTEND
  0
POINT
  5
22DB
330
219C
100
AcDbEntity
  8
Defpoints
 62
     0
100
AcDbPoint
 10
671.4646055376929
 20
135.2766816625813
 30
0.0
  0
POINT
  5
22DC
330
219C
100
AcDbEntity
  8
Defpoints
 62
     0
100
AcDbPoint
 10
599.4646055376928
 20
135.2766816625813
 30
0.0
  0
POINT
  5
22DD
330
219C
100
AcDbEntity
  8
Defpoints
 62
     0
100
AcDbPoint
 10
599.4646055376928
 20
97.66580860355766
 30
0.0
  0
ENDBLK
  5
21A7
330
219C
100
AcDbEntity
  8
0
100
AcDbBlockEnd
  0
BLOCK
  5
21B2
330
21A8
100
AcDbEntity
  8
0
100
AcDbBlockBegin
  2
*D22
 70
     1
 10
0.0
 20
0.0
 30
0.0
  3
*D22
  1

  0
LINE
  5
22DE
330
21A8
100
AcDbEntity
  8
AM_5
100
AcDbLine
 10
587.9646055376929
 20
129.5453177293905
 30
0.0
 11
587.9646055376929
 21
74.41280251966915
 31
0.0
  0
LINE
  5
22DF
330
21A8
100
AcDbEntity
  8
AM_5
100
AcDbLine
 10
682.9646055376929
 20
129.5453177293904
 30
0.0
 11
682.9646055376929
 21
74.41280251966915
 31
0.0
  0
LINE
  5
22E0
330
21A8
100
AcDbEntity
  8
AM_5
100
AcDbLine
 10
594.9646055376929
 20
76.41280251966915
 30
0.0
 11
675.9646055376929
 21
76.41280251966915
 31
0.0
  0
SOLID
  5
22E1
330
21A8
100
AcDbEntity
  8
AM_5
100
AcDbTrace
 10
594.9646055376929
 20
77.57946918633582
 30
0.0
 11
594.9646055376929
 21
75.24613585300248
 31
0.0
 12
587.9646055376929
 22
76.41280251966915
 32
0.0
 13
587.9646055376929
 23
76.41280251966915
 33
0.0
  0
SOLID
  5
22E2
330
21A8
100
AcDbEntity
  8
AM_5
100
AcDbTrace
 10
675.9646055376929
 20
77.57946918633582
 30
0.0
 11
675.9646055376929
 21
75.24613585300248
 31
0.0
 12
682.9646055376929
 22
76.41280251966915
 32
0.0
 13
682.9646055376929
 23
76.41280251966915
 33
0.0
  0
MTEXT
  5
22E3
330
21A8
100
AcDbEntity
  8
AM_5
100
AcDbMText
 10
635.4646055376929
 20
81.91280251966915
 30
0.0
 40
7.0
 41
0.0
 71
     5
 72
     1
  1
{\Famgdt|c136;o}95
 73
     1
 44
1.0
1001
ACAD
1000
MTEXTBEGIN
1070
    73
1070
     1
1070
    44
1040
1.0
1070
    74
1070
     0
1000
MTEXTEND
  0
POINT
  5
22E4
330
21A8
100
AcDbEntity
  8
Defpoints
 62
     0
100
AcDbPoint
 10
587.9646055376929
 20
131.5453177293905
 30
0.0
  0
POINT
  5
22E5
330
21A8
100
AcDbEntity
  8
Defpoints
 62
     0
100
AcDbPoint
 10
682.9646055376929
 20
131.5453177293904
 30
0.0
  0
POINT
  5
22E6
330
21A8
100
AcDbEntity
  8
Defpoints
 62
     0
100
AcDbPoint
 10
682.9646055376929
 20
76.41280251966915
 30
0.0
  0
ENDBLK
  5
21B3
330
21A8
100
AcDbEntity
  8
0
100
AcDbBlockEnd
  0
ENDSEC
  0
SECTION
  2
ENTITIES
  0
VIEWPORT
  5
24D
102
{ACAD_XDICTIONARY
360
233E
102
}
330
D
100
AcDbEntity
 67
     1
  8
0
100
AcDbViewport
 10
452.7318910785599
 20
226.1017512324828
 30
0.0
 40
779.6614509766543
 41
655.8048457298539
 68
     1
 69
     1
 12
452.7318910785599
 22
226.1017512324828
 13
0.0
 23
0.0
 14
1.0
 24
1.0
 15
0.0
 25
0.0
 16
0.0
 26
0.0
 36
1.0
 17
0.0
 27
0.0
 37
0.0
 42
50.0
 43
0.0
 44
0.0
 45
655.8048457298539
 50
0.0
 51
0.0
 72
  1000
 90
    32800
  1

281
     0
 71
     1
 74
     0
110
0.0
120
0.0
130
0.0
111
1.0
121
0.0
131
0.0
112
0.0
122
1.0
132
0.0
 79
     0
146
0.0
  0
TEXT
  5
39B
330
D
100
AcDbEntity
 67
     1
  8
LOGO
100
AcDbText
 10
361.840551327114
 20
-9.44606624365188
 30
0.0
 40
2.892660566630368
  1
Accessory
 72
     4
 11
370.8150307350848
 21
-8.426403393914675
 31
0.0
100
AcDbText
  0
LINE
  5
39C
330
D
100
AcDbEntity
 67
     1
  8
LOGO
 62
     4
100
AcDbLine
 10
375.2013469625599
 20
23.54640457218987
 30
0.0
 11
361.9673929228556
 21
23.54640457218987
 31
0.0
  0
LINE
  5
39D
330
D
100
AcDbEntity
 67
     1
  8
LOGO
 62
     4
100
AcDbLine
 10
384.5909674538043
 20
3.926726956625849
 30
0.0
 11
356.0926308403753
 21
3.926726956625849
 31
0.0
  0
LINE
  5
39E
330
D
100
AcDbEntity
 67
     1
  8
LOGO
 62
     4
100
AcDbLine
 10
375.2013469625599
 20
10.46661949514691
 30
0.0
 11
361.9673929228556
 21
10.46661949514691
 31
0.0
  0
LINE
  5
39F
330
D
100
AcDbEntity
 67
     1
  8
LOGO
 62
     4
100
AcDbLine
 10
384.5909674538043
 20
-12.05967702642657
 30
0.0
 11
356.0926308403753
 21
-12.05967702642657
 31
0.0
  0
TEXT
  5
3A0
330
D
100
AcDbEntity
 67
     1
  8
LOGO
 62
     7
100
AcDbText
 10
127.9186544428761
 20
16.99006388864409
 30
0.0
 40
8.71985671802853
  1
訂購代號:
  7
CHINESET
100
AcDbText
  0
TEXT
  5
3A1
330
D
100
AcDbEntity
 67
     1
  8
LOGO
 62
     7
100
AcDbText
 10
126.8757115058791
 20
8.806228695568634
 30
0.0
 40
5.81323781201902
  1
Order example:
 41
0.8
  7
CHINESET
100
AcDbText
  0
LINE
  5
3A2
330
D
100
AcDbEntity
 67
     1
  8
LOGO
 62
     4
100
AcDbLine
 10
216.2915274690957
 20
-12.05967702642657
 30
0.0
 11
187.2253384090007
 21
-12.05967702642657
 31
0.0
  0
LINE
  5
3A3
330
D
100
AcDbEntity
 67
     1
  8
LOGO
 62
     4
100
AcDbLine
 10
216.2915274690957
 20
3.926726956625628
 30
0.0
 11
187.2253384090007
 21
3.926726956625628
 31
0.0
  0
LINE
  5
3A4
330
D
100
AcDbEntity
 67
     1
  8
LOGO
 62
     4
100
AcDbLine
 10
223.1506719713434
 20
10.46661949514691
 30
0.0
 11
180.745466299651
 21
10.46661949514691
 31
0.0
  0
LINE
  5
3A5
330
D
100
AcDbEntity
 67
     1
  8
LOGO
 62
     4
100
AcDbLine
 10
223.1506719713434
 20
23.54640457218987
 30
0.0
 11
180.745466299651
 21
23.54640457218987
 31
0.0
  0
TEXT
  5
3A6
330
D
100
AcDbEntity
 67
     1
  8
LOGO
  6
Continuous
 62
     7
100
AcDbText
 10
182.7269996258909
 20
13.37323840115662
 30
0.0
 40
7.266547265023775
  1
MCBQI2
  7
CHINESET
 72
     1
 11
201.7584329390484
 21
17.00651203366851
 31
0.0
100
AcDbText
 73
     2
  0
LINE
  5
3A7
330
D
100
AcDbEntity
 67
     1
  8
LOGO
 62
     4
100
AcDbLine
 10
180.745466299651
 20
23.54640457218987
 30
0.0
 11
180.745466299651
 21
10.46661949514691
 31
0.0
  0
LINE
  5
3A8
330
D
100
AcDbEntity
 67
     1
  8
LOGO
 62
     4
100
AcDbLine
 10
187.2253384090007
 20
3.926726956625628
 30
0.0
 11
187.2253384090007
 21
-12.05967702642657
 31
0.0
  0
TEXT
  5
3A9
330
D
100
AcDbEntity
 67
     1
  8
LOGO
100
AcDbText
 10
196.8409099757767
 20
-9.82031333556571
 30
0.0
 40
2.892660566630368
  1
Model
 72
     4
 11
201.7584329390484
 21
-8.426403393914782
 31
0.0
100
AcDbText
  0
TEXT
  5
3AA
330
D
100
AcDbEntity
 67
     1
  8
LOGO
100
AcDbText
 10
195.9451951270293
 20
-3.917711075144067
 30
0.0
 40
5.81323781201902
  1
型式
 72
     4
 11
201.7584329390484
 21
-1.15985612889095
 31
0.0
100
AcDbText
  0
LINE
  5
3AB
330
D
100
AcDbEntity
 67
     1
  8
LOGO
 62
     4
100
AcDbLine
 10
201.7584329390484
 20
10.46661949514691
 30
0.0
 11
201.7584329390484
 21
3.926726956625628
 31
0.0
  0
LINE
  5
3AC
330
D
100
AcDbEntity
 67
     1
  8
LOGO
 62
     4
100
AcDbLine
 10
223.1506719713434
 20
23.54640457218987
 30
0.0
 11
223.1506719713434
 21
10.46661949514691
 31
0.0
  0
LINE
  5
3AD
330
D
100
AcDbEntity
 67
     1
  8
LOGO
 62
     4
100
AcDbLine
 10
261.5424265706991
 20
23.54640457218987
 30
0.0
 11
261.5424265706991
 21
10.46661949514691
 31
0.0
  0
LINE
  5
3AE
330
D
100
AcDbEntity
 67
     1
  8
LOGO
 62
     4
100
AcDbLine
 10
232.7645821425738
 20
23.54640457218987
 30
0.0
 11
232.7645821425738
 21
10.46661949514691
 31
0.0
  0
TEXT
  5
3AF
330
D
100
AcDbEntity
 67
     1
  8
LOGO
100
AcDbText
 10
235.5360840418573
 20
-9.386414250571155
 30
0.0
 40
2.892660566630368
  1
Acting type
 72
     4
 11
245.5157629967321
 21
-8.426403393914782
 31
0.0
100
AcDbText
  0
TEXT
  5
3B0
330
D
100
AcDbEntity
 67
     1
  8
LOGO
100
AcDbText
 10
233.9498419332359
 20
-3.917711075144065
 30
0.0
 40
5.81323781201902
  1
作動型式
 72
     4
 11
245.5157629967321
 21
-1.15985612889095
 31
0.0
100
AcDbText
  0
LINE
  5
3B1
330
D
100
AcDbEntity
 67
     1
  8
LOGO
 62
     4
100
AcDbLine
 10
261.5424265706991
 20
10.46661949514691
 30
0.0
 11
232.7645821425738
 21
10.46661949514691
 31
0.0
  0
LINE
  5
3B2
330
D
100
AcDbEntity
 67
     1
  8
LOGO
 62
     4
100
AcDbLine
 10
261.5424265706991
 20
3.926726956625628
 30
0.0
 11
229.4890994227647
 21
3.926726956625628
 31
0.0
  0
LINE
  5
3B3
330
D
100
AcDbEntity
 67
     1
  8
LOGO
 62
     4
100
AcDbLine
 10
261.5424265706991
 20
-12.05967702642657
 30
0.0
 11
229.4890994227647
 21
-12.05967702642657
 31
0.0
  0
LINE
  5
3B4
330
D
100
AcDbEntity
 67
     1
  8
LOGO
 62
     4
100
AcDbLine
 10
216.2915274690959
 20
3.926726956625628
 30
0.0
 11
216.2915274690959
 21
-12.05967702642657
 31
0.0
  0
LINE
  5
3B5
330
D
100
AcDbEntity
 67
     1
  8
LOGO
 62
     4
100
AcDbLine
 10
229.4890994227647
 20
3.926726956625628
 30
0.0
 11
229.4890994227647
 21
-12.05967702642657
 31
0.0
  0
LINE
  5
3B6
330
D
100
AcDbEntity
 67
     1
  8
LOGO
 62
     4
100
AcDbLine
 10
261.5424265706991
 20
3.926726956625628
 30
0.0
 11
261.5424265706991
 21
-12.05967702642657
 31
0.0
  0
LINE
  5
3B7
330
D
100
AcDbEntity
 67
     1
  8
LOGO
 62
     4
100
AcDbLine
 10
245.5157629967321
 20
10.46661949514691
 30
0.0
 11
245.5157629967321
 21
3.926726956625628
 31
0.0
  0
LINE
  5
3B8
330
D
100
AcDbEntity
 67
     1
  8
LOGO
 62
     4
100
AcDbLine
 10
261.5424265706991
 20
23.54640457218987
 30
0.0
 11
232.7645821425738
 21
23.54640457218987
 31
0.0
  0
LINE
  5
3B9
330
D
100
AcDbEntity
 67
     1
  8
LOGO
  6
Continuous
 62
     7
100
AcDbLine
 10
225.4041223706415
 20
16.9601813678309
 30
0.0
 11
230.5026353240843
 21
16.9601813678309
 31
0.0
  0
TEXT
  5
3BA
330
D
100
AcDbEntity
 67
     1
  8
LOGO
  6
Continuous
 62
     7
100
AcDbText
 10
241.8824893642202
 20
13.29083529728588
 30
0.0
 40
7.266547265023775
  1
11
  7
CHINESET
 72
     1
 11
245.5157629967321
 21
16.92410892979777
 31
0.0
100
AcDbText
 73
     2
  0
TEXT
  5
3BB
330
D
100
AcDbEntity
 67
     1
  8
LOGO
  6
Continuous
 62
     7
100
AcDbText
 10
312.4574183134753
 20
11.87204058392845
 30
0.0
 40
7.266547265023775
  1
*
  7
CHINESET
 72
     1
 11
314.1875486146714
 21
15.50531421644034
 31
0.0
100
AcDbText
 73
     2
  0
TEXT
  5
3BC
330
D
100
AcDbEntity
 67
     1
  8
LOGO
100
AcDbText
 10
307.7053900750937
 20
-9.872733677229966
 30
0.0
 40
2.892660566630368
  1
Stroke
 72
     4
 11
313.5780604467247
 21
-8.426403393914782
 31
0.0
100
AcDbText
  0
LINE
  5
3BD
330
D
100
AcDbEntity
 67
     1
  8
LOGO
 62
     4
100
AcDbLine
 10
324.5118589789474
 20
23.54640457218987
 30
0.0
 11
305.4578030959236
 21
23.54640457218987
 31
0.0
  0
TEXT
  5
3BE
330
D
100
AcDbEntity
 67
     1
  8
LOGO
100
AcDbText
 10
307.7648226347057
 20
-4.06647503490046
 30
0.0
 40
5.81323781201902
  1
行程
 72
     4
 11
313.5780604467247
 21
-1.15985612889095
 31
0.0
100
AcDbText
  0
LINE
  5
3BF
330
D
100
AcDbEntity
 67
     1
  8
LOGO
 62
     4
100
AcDbLine
 10
324.2296692855255
 20
-12.05967702642657
 30
0.0
 11
302.9264516079236
 21
-12.05967702642657
 31
0.0
  0
LINE
  5
3C0
330
D
100
AcDbEntity
 67
     1
  8
LOGO
 62
     4
100
AcDbLine
 10
324.5118589789474
 20
10.46661949514691
 30
0.0
 11
305.4578030959236
 21
10.46661949514691
 31
0.0
  0
LINE
  5
3C1
330
D
100
AcDbEntity
 67
     1
  8
LOGO
 62
     4
100
AcDbLine
 10
324.2296692855255
 20
3.926726956625628
 30
0.0
 11
302.9264516079236
 21
3.926726956625628
 31
0.0
  0
LINE
  5
3C2
330
D
100
AcDbEntity
 67
     1
  8
LOGO
 62
     4
100
AcDbLine
 10
295.1668500482642
 20
23.54640457219002
 30
0.0
 11
295.1668500482642
 21
10.46661949514721
 31
0.0
  0
LINE
  5
3C3
330
D
100
AcDbEntity
 67
     1
  8
LOGO
 62
     4
100
AcDbLine
 10
271.8333796183586
 20
23.54640457218987
 30
0.0
 11
271.8333796183586
 21
10.46661949514721
 31
0.0
  0
LINE
  5
3C4
330
D
100
AcDbEntity
 67
     1
  8
LOGO
 62
     4
100
AcDbLine
 10
305.4578030959238
 20
23.54640457218987
 30
0.0
 11
305.4578030959236
 21
10.46661949514691
 31
0.0
  0
LINE
  5
3C5
330
D
100
AcDbEntity
 67
     1
  8
LOGO
 62
     4
100
AcDbLine
 10
295.1668500482642
 20
-12.05967702642657
 30
0.0
 11
271.8333796183586
 21
-12.05967702642657
 31
0.0
  0
LINE
  5
3C6
330
D
100
AcDbEntity
 67
     1
  8
LOGO
 62
     4
100
AcDbLine
 10
295.1668500482642
 20
10.46661949514721
 30
0.0
 11
271.8333796183586
 21
10.46661949514721
 31
0.0
  0
LINE
  5
3C7
330
D
100
AcDbEntity
 67
     1
  8
LOGO
 62
     4
100
AcDbLine
 10
295.1668500482642
 20
3.926726956625849
 30
0.0
 11
271.8333796183586
 21
3.926726956625849
 31
0.0
  0
LINE
  5
3C8
330
D
100
AcDbEntity
 67
     1
  8
LOGO
 62
     4
100
AcDbLine
 10
271.8333796183586
 20
3.926726956625849
 30
0.0
 11
271.8333796183586
 21
-12.05967702642657
 31
0.0
  0
TEXT
  5
3C9
330
D
100
AcDbEntity
 67
     1
  8
LOGO
100
AcDbText
 10
279.4503900400289
 20
-9.827801955803462
 30
0.0
 40
2.892660566630368
  1
Bore
 72
     4
 11
283.5001148333114
 21
-8.426403393914782
 31
0.0
100
AcDbText
  0
TEXT
  5
3CA
330
D
100
AcDbEntity
 67
     1
  8
LOGO
100
AcDbText
 10
277.3235496580412
 20
-4.066475034900459
 30
0.0
 40
5.81323781201902
  1
內徑
 72
     4
 11
283.5001148333114
 21
-1.15985612889095
 31
0.0
100
AcDbText
  0
LINE
  5
3CB
330
D
100
AcDbEntity
 67
     1
  8
LOGO
 62
     4
100
AcDbLine
 10
283.5001144982008
 20
10.46661949514721
 30
0.0
 11
283.5001144982008
 21
3.926726956625849
 31
0.0
  0
LINE
  5
3CC
330
D
100
AcDbEntity
 67
     1
  8
LOGO
 62
     4
100
AcDbLine
 10
295.1668500482642
 20
3.926726956625849
 30
0.0
 11
295.1668500482642
 21
-12.05967702642657
 31
0.0
  0
LINE
  5
3CD
330
D
100
AcDbEntity
 67
     1
  8
LOGO
 62
     4
100
AcDbLine
 10
302.9264516079236
 20
3.926726956625628
 30
0.0
 11
302.9264516079236
 21
-12.05967702642657
 31
0.0
  0
LINE
  5
3CE
330
D
100
AcDbEntity
 67
     1
  8
LOGO
 62
     4
100
AcDbLine
 10
295.1668500482642
 20
23.54640457219002
 30
0.0
 11
271.8333796183586
 21
23.54640457218987
 31
0.0
  0
LINE
  5
3CF
330
D
100
AcDbEntity
 67
     1
  8
LOGO
  6
Continuous
 62
     7
100
AcDbLine
 10
263.7958769699974
 20
16.96018136783105
 30
0.0
 11
269.571432799869
 21
16.96018136783105
 31
0.0
  0
TEXT
  5
3D0
330
D
100
AcDbEntity
 67
     1
  8
LOGO
  6
Continuous
 62
     7
100
AcDbText
 10
278.295883074486
 20
13.29083529728595
 30
0.0
 40
7.266547265023775
  1
80
  7
CHINESET
 72
     1
 11
284.1783260985528
 21
16.92410892979784
 31
0.0
100
AcDbText
 73
     2
  0
LINE
  5
3D1
330
D
100
AcDbEntity
 67
     1
  8
LOGO
  6
Continuous
 62
     7
100
AcDbLine
 10
297.4203004475626
 20
16.96018136783105
 30
0.0
 11
303.1958562774343
 21
16.96018136783105
 31
0.0
  0
TEXT
  5
3D2
330
D
100
AcDbEntity
 67
     1
  8
LOGO
  6
Continuous
 62
     7
100
AcDbText
 10
331.2462615056605
 20
13.68746496262061
 30
0.0
 40
7.266547265023775
  1
(M)
  7
CHINESET
 72
     1
 11
339.0318478610432
 21
17.32073859513249
 31
0.0
100
AcDbText
 73
     2
  0
LINE
  5
3D3
330
D
100
AcDbEntity
 67
     1
  8
LOGO
 62
     4
100
AcDbLine
 10
361.9673929228556
 20
23.54640457218987
 30
0.0
 11
361.9673929228556
 21
10.46661949514691
 31
0.0
  0
LINE
  5
3D4
330
D
100
AcDbEntity
 67
     1
  8
LOGO
 62
     4
100
AcDbLine
 10
351.7885616715552
 20
23.54640457218987
 30
0.0
 11
351.7885616715552
 21
10.46661949514691
 31
0.0
  0
LINE
  5
3D5
330
D
100
AcDbEntity
 67
     1
  8
LOGO
 62
     4
100
AcDbLine
 10
327.5362647615832
 20
23.54640457218987
 30
0.0
 11
327.5362647615832
 21
10.46661949514691
 31
0.0
  0
LINE
  5
3D6
330
D
100
AcDbEntity
 67
     1
  8
LOGO
 62
     4
100
AcDbLine
 10
324.5118589789474
 20
23.54640457218987
 30
0.0
 11
324.5118589789474
 21
10.46661949514691
 31
0.0
  0
LINE
  5
3D7
330
D
100
AcDbEntity
 67
     1
  8
LOGO
 62
     4
100
AcDbLine
 10
352.8919124056639
 20
-12.05967702642657
 30
0.0
 11
331.5886947280621
 21
-12.05967702642657
 31
0.0
  0
LINE
  5
3D8
330
D
100
AcDbEntity
 67
     1
  8
LOGO
 62
     4
100
AcDbLine
 10
352.8919124056639
 20
3.926726956625628
 30
0.0
 11
331.5886947280621
 21
3.926726956625628
 31
0.0
  0
TEXT
  5
3D9
330
D
100
AcDbEntity
 67
     1
  8
LOGO
100
AcDbText
 10
335.1532851786187
 20
-9.872733677229964
 30
0.0
 40
2.892660566630368
  1
MAGNET
 72
     4
 11
342.2403035668631
 21
-8.426403393914782
 31
0.0
100
AcDbText
  0
TEXT
  5
3DA
330
D
100
AcDbEntity
 67
     1
  8
LOGO
100
AcDbText
 10
333.5204468488345
 20
-4.005920474358596
 30
0.0
 40
5.81323781201902
  1
附磁石
 72
     4
 11
342.2403035668631
 21
-1.15985612889095
 31
0.0
100
AcDbText
  0
LINE
  5
3DB
330
D
100
AcDbEntity
 67
     1
  8
LOGO
 62
     4
100
AcDbLine
 10
351.7885616715552
 20
10.46661949514691
 30
0.0
 11
327.5362647615832
 21
10.46661949514691
 31
0.0
  0
LINE
  5
3DC
330
D
100
AcDbEntity
 67
     1
  8
LOGO
 62
     4
100
AcDbLine
 10
331.5886947280621
 20
3.926726956625628
 30
0.0
 11
331.5886947280621
 21
-12.05967702642657
 31
0.0
  0
LINE
  5
3DD
330
D
100
AcDbEntity
 67
     1
  8
LOGO
 62
     4
100
AcDbLine
 10
324.2296692855255
 20
3.926726956625628
 30
0.0
 11
324.2296692855255
 21
-12.11995636967614
 31
0.0
  0
LINE
  5
3DE
330
D
100
AcDbEntity
 67
     1
  8
LOGO
 62
     4
100
AcDbLine
 10
313.8858581930324
 20
10.46661949514691
 30
0.0
 11
313.8858581930324
 21
3.926726956625628
 31
0.0
  0
LINE
  5
3DF
330
D
100
AcDbEntity
 67
     1
  8
LOGO
 62
     4
100
AcDbLine
 10
342.2403035668631
 20
10.46661949514691
 30
0.0
 11
342.2403035668631
 21
3.926726956625628
 31
0.0
  0
LINE
  5
3E0
330
D
100
AcDbEntity
 67
     1
  8
LOGO
 62
     4
100
AcDbLine
 10
352.8919124056639
 20
3.926726956625628
 30
0.0
 11
352.8919124056639
 21
-12.11995636967614
 31
0.0
  0
LINE
  5
3E1
330
D
100
AcDbEntity
 67
     1
  8
LOGO
 62
     4
100
AcDbLine
 10
356.0926308403753
 20
3.926726956625849
 30
0.0
 11
356.0926308403753
 21
-12.05967702642657
 31
0.0
  0
LINE
  5
3E2
330
D
100
AcDbEntity
 67
     1
  8
LOGO
 62
     4
100
AcDbLine
 10
368.5843699427078
 20
10.46661949514691
 30
0.0
 11
368.5843699427078
 21
3.926726956625849
 31
0.0
  0
LINE
  5
3E3
330
D
100
AcDbEntity
 67
     1
  8
LOGO
 62
     4
100
AcDbLine
 10
351.7885616715552
 20
23.54640457218987
 30
0.0
 11
327.5362647615832
 21
23.54640457218987
 31
0.0
  0
LINE
  5
3E4
330
D
100
AcDbEntity
 67
     1
  8
LOGO
  6
Continuous
 62
     7
100
AcDbLine
 10
354.0420120708535
 20
16.96018136783105
 30
0.0
 11
359.8175679007254
 21
16.96018136783105
 31
0.0
  0
TEXT
  5
3E5
330
D
100
AcDbEntity
 67
     1
  8
LOGO
  6
Continuous
 62
     7
100
AcDbText
 10
366.8596688555232
 20
13.29083529728588
 30
0.0
 40
7.266547265023775
  1
?
  7
CHINESET
 72
     1
 11
368.7628121868389
 21
16.92410892979777
 31
0.0
100
AcDbText
 73
     2
  0
LINE
  5
3E6
330
D
100
AcDbEntity
 67
     1
  8
LOGO
 62
     4
100
AcDbLine
 10
375.2013469625599
 20
23.54640457218987
 30
0.0
 11
375.2013469625599
 21
10.46661949514691
 31
0.0
  0
TEXT
  5
3E7
330
D
100
AcDbEntity
 67
     1
  8
LOGO
100
AcDbText
 10
365.3510494088901
 20
-4.066475034900309
 30
0.0
 40
5.81323781201902
  1
配件
 72
     4
 11
371.224841781451
 21
-1.159856128890801
 31
0.0
100
AcDbText
  0
LINE
  5
3E8
330
D
100
AcDbEntity
 67
     1
  8
LOGO
 62
     4
100
AcDbLine
 10
384.5909674538043
 20
3.926726956625849
 30
0.0
 11
384.5909674538043
 21
-12.05967702642657
 31
0.0
  0
LINE
  5
3E9
330
D
100
AcDbEntity
 67
     1
  8
LOGO
 62
     4
100
AcDbLine
 10
124.3498399591877
 20
-15.69295065893873
 30
0.0
 11
124.3498399591877
 21
27.90633293120491
 31
0.0
  0
TEXT
  5
3EA
330
D
100
AcDbEntity
 67
     1
  8
LOGO
  6
Continuous
100
AcDbText
 10
44.09247470902471
 20
-7.127937194711108
 30
0.0
 40
6.539892538521454
  1
金器工業股份有限公司
  7
CHINESET
100
AcDbText
  0
TEXT
  5
3EB
330
D
100
AcDbEntity
 67
     1
  8
LOGO
  6
Continuous
100
AcDbText
 10
32.07998596969332
 20
-13.66911103942274
 30
0.0
 40
4.359928359014302
  1
MINDMAN INDUSTRIAL CO., LTD.
 41
0.85
  7
CHINESET
100
AcDbText
  0
LINE
  5
3EC
330
D
100
AcDbEntity
 67
     1
  8
LOGO
 62
     4
100
AcDbLine
 10
124.3498399591877
 20
19.18647621317595
 30
0.0
 11
60.40422402697652
 21
19.18647621317595
 31
0.0
  0
LINE
  5
3ED
330
D
100
AcDbEntity
 67
     1
  8
LOGO
 62
     4
100
AcDbLine
 10
124.3498399591877
 20
10.46661949514721
 30
0.0
 11
60.40422402697652
 21
10.46661949514721
 31
0.0
  0
LINE
  5
3EE
330
D
100
AcDbEntity
 67
     1
  8
LOGO
 62
     4
100
AcDbLine
 10
124.3498399591877
 20
1.746762777118775
 30
0.0
 11
28.4314160608721
 21
1.746762777118775
 31
0.0
  0
LINE
  5
3EF
330
D
100
AcDbEntity
 67
     1
  8
LOGO
 62
     4
100
AcDbLine
 10
60.40422402697652
 20
1.746762777118775
 30
0.0
 11
60.40422402697652
 21
27.90633293120491
 31
0.0
  0
TEXT
  5
3F0
330
D
100
AcDbEntity
 67
     1
  8
LOGO
100
AcDbText
 10
104.1080343295434
 20
3.926726956625622
 30
0.0
 40
4.359928359014302
  1
mm
  7
CHINESET
 72
     1
 11
109.5060408692754
 21
6.106691136132774
 31
0.0
100
AcDbText
 73
     2
  0
TEXT
  5
3F1
330
D
100
AcDbEntity
 67
     1
  8
LOGO
100
AcDbText
 10
101.8242623319645
 20
21.36644039268287
 30
0.0
 40
4.359928359014302
  1
1 : 1
  7
CHINESET
 72
     1
 11
109.5060408692754
 21
23.54640457219002
 31
0.0
100
AcDbText
 73
     2
  0
LINE
  5
3F2
330
D
100
AcDbEntity
 67
     1
  8
LOGO
 62
     4
100
AcDbLine
 10
95.28365089909199
 20
1.746762777118775
 30
0.0
 11
95.28365089909199
 21
27.90633293120491
 31
0.0
  0
TEXT
  5
3F3
330
D
100
AcDbEntity
 67
     1
  8
LOGO
100
AcDbText
 10
63.99921852657562
 20
21.36858602671781
 30
285.7425220874162
 40
4.359928359014302
  1
比例 Scale:
 41
0.9
  7
CHINESET
 72
     4
 11
77.84393746303488
 21
23.54640457219002
 31
285.7425220874162
100
AcDbText
  0
TEXT
  5
3F4
330
D
100
AcDbEntity
 67
     1
  8
LOGO
100
AcDbText
 10
63.74813336661453
 20
12.70791304748669
 30
285.7425220874162
 40
4.359928359014302
  1
投影  View:
 41
0.9
  7
CHINESET
 72
     4
 11
77.84393746303488
 21
14.82654785416158
 31
285.7425220874162
100
AcDbText
  0
TEXT
  5
3F5
330
D
100
AcDbEntity
 67
     1
  8
LOGO
100
AcDbText
 10
64.17439421957173
 20
3.926726956625621
 30
285.7425220874162
 40
4.359928359014302
  1
單位  Unit:
 41
0.9
  7
CHINESET
 72
     4
 11
77.84393746303488
 21
6.106691136132774
 31
285.7425220874162
100
AcDbText
  0
SOLID
  5
3F6
330
D
100
AcDbEntity
 67
     1
  8
LOGO
 62
     5
100
AcDbTrace
 10
32.9549117048777
 20
8.994523087047035
 30
0.0
 11
34.84003032279515
 21
8.994523087045848
 31
0.0
 12
42.70552524583092
 22
26.87064791212818
 32
0.0
 13
44.59064386374905
 23
26.87064791212678
 33
0.0
  0
SOLID
  5
3F7
330
D
100
AcDbEntity
 67
     1
  8
LOGO
 62
     5
100
AcDbTrace
 10
35.62007940607327
 20
8.994523087047035
 30
0.0
 11
37.50519802399078
 21
8.994523087047035
 31
0.0
 12
44.59064386374905
 22
25.44055792612105
 32
0.0
 13
42.70552524583092
 23
18.52845632708963
 33
0.0
  0
SOLID
  5
3F8
330
D
100
AcDbEntity
 67
     1
  8
LOGO
 62
     2
100
AcDbTrace
 10
34.84003032279515
 20
8.994523087045848
 30
0.0
 11
35.62007940607327
 21
8.994523087047035
 31
0.0
 12
44.59064386374905
 22
26.87064791212678
 32
0.0
 13
45.37069294702667
 23
26.87064791212678
 33
0.0
  0
SOLID
  5
3F9
330
D
100
AcDbEntity
 67
     1
  8
LOGO
 62
     5
100
AcDbTrace
 10
29.93260427264317
 20
2.494114059744632
 30
0.0
 11
30.58264517537441
 21
2.494114059744632
 31
0.0
 12
32.41321095260258
 22
5.744318573395723
 32
0.0
 13
33.06325185533263
 23
5.744318573395723
 33
0.0
  0
SOLID
  5
3FA
330
D
100
AcDbEntity
 67
     1
  8
LOGO
 62
     5
100
AcDbTrace
 10
32.41321095260258
 20
5.744318573395723
 30
0.0
 11
33.06325185533263
 21
5.744318573395723
 31
0.0
 12
32.41321095260258
 22
2.494114059744632
 32
0.0
 13
33.06325185533263
 23
2.494114059744632
 33
0.0
  0
SOLID
  5
3FB
330
D
100
AcDbEntity
 67
     1
  8
LOGO
 62
     5
100
AcDbTrace
 10
32.41321095260258
 20
2.494114059744632
 30
0.0
 11
33.06325185533263
 21
2.494114059744632
 31
0.0
 12
34.89381763256415
 22
5.744318573395723
 32
0.0
 13
35.54385853529363
 23
5.744318573395723
 33
0.0
  0
SOLID
  5
3FC
330
D
100
AcDbEntity
 67
     1
  8
LOGO
 62
     5
100
AcDbTrace
 10
34.89381763256415
 20
5.744318573395723
 30
0.0
 11
35.54385853529363
 21
5.744318573395723
 31
0.0
 12
34.89381763256415
 22
2.494114059744632
 32
0.0
 13
35.54385853529363
 23
2.494114059744632
 33
0.0
  0
POLYLINE
  5
3FD
330
D
100
AcDbEntity
 67
     1
  8
LOGO
 62
     5
100
AcDb2dPolyline
 66
     1
 10
0.0
 20
0.0
 30
0.0
 40
0.6510826349461355
 41
0.6510826349461355
  0
VERTEX
  5
3FE
330
3FD
100
AcDbEntity
 67
     1
  8
LOGO
 62
     5
100
AcDbVertex
100
AcDb2dVertex
 10
56.68296725285575
 20
4.444236767934754
 30
0.0
 42
1.0
  0
VERTEX
  5
3FF
330
3FD
100
AcDbEntity
 67
     1
  8
LOGO
 62
     5
100
AcDbVertex
100
AcDb2dVertex
 10
54.72971934801808
 20
4.444236767934754
 30
0.0
 42
1.0
  0
SEQEND
  5
400
330
3FD
100
AcDbEntity
 67
     1
  8
LOGO
 62
     5
  0
POLYLINE
  5
401
330
D
100
AcDbEntity
 67
     1
  8
LOGO
 62
     5
100
AcDb2dPolyline
 66
     1
 10
0.0
 20
0.0
 30
0.0
 70
     1
  0
VERTEX
  5
402
330
401
100
AcDbEntity
 67
     1
  8
LOGO
 62
     5
100
AcDbVertex
100
AcDb2dVertex
 10
51.04776016692937
 20
4.119216316569961
 30
0.0
 42
1.000000057330635
  0
VERTEX
  5
403
330
401
100
AcDbEntity
 67
     1
  8
LOGO
 62
     5
100
AcDbVertex
100
AcDb2dVertex
 10
52.99788287511922
 20
4.119216316569961
 30
0.0
 42
1.000000057330635
  0
SEQEND
  5
404
330
401
100
AcDbEntity
 67
     1
  8
LOGO
 62
     5
  0
CIRCLE
  5
405
330
D
100
AcDbEntity
 67
     1
  8
LOGO
 62
     5
100
AcDbCircle
 10
52.02282152102554
 20
4.119216316569961
 30
0.0
 40
0.9750613540953326
  0
POLYLINE
  5
406
330
D
100
AcDbEntity
 67
     1
  8
LOGO
 62
     5
100
AcDb2dPolyline
 66
     1
 10
0.0
 20
0.0
 30
0.0
 70
     1
 40
0.6510826349461355
 41
0.6510826349461355
  0
VERTEX
  5
407
330
406
100
AcDbEntity
 67
     1
  8
LOGO
 62
     5
100
AcDbVertex
100
AcDb2dVertex
 10
50.7206562511326
 20
4.119216316569961
 30
0.0
 42
1.0
  0
VERTEX
  5
408
330
406
100
AcDbEntity
 67
     1
  8
LOGO
 62
     5
100
AcDbVertex
100
AcDb2dVertex
 10
53.32498679091736
 20
4.119216316569961
 30
0.0
 42
1.0
  0
SEQEND
  5
409
330
406
100
AcDbEntity
 67
     1
  8
LOGO
 62
     5
  0
LINE
  5
40A
330
D
100
AcDbEntity
 67
     1
  8
LOGO
100
AcDbLine
 10
57.00642510589535
 20
2.494114059744632
 30
0.0
 11
57.00642510589535
 21
4.444236767934754
 31
0.0
  0
SOLID
  5
40B
330
D
100
AcDbEntity
 67
     1
  8
LOGO
 62
     5
100
AcDbTrace
 10
52.99781787103166
 20
5.744318573395723
 30
0.0
 11
53.64785877376118
 21
5.744318573395723
 31
0.0
 12
52.99781787103166
 22
2.494114059744632
 32
0.0
 13
53.64785877376118
 23
2.494114059744632
 33
0.0
  0
SOLID
  5
40C
330
D
100
AcDbEntity
 67
     1
  8
LOGO
 62
     5
100
AcDbTrace
 10
54.40626149497541
 20
2.494114059744632
 30
0.0
 11
55.05630239770574
 21
2.494114059744632
 31
0.0
 12
54.40626149497541
 22
5.744318573395723
 32
0.0
 13
55.05630239770574
 23
5.744318573395723
 33
0.0
  0
SOLID
  5
40D
330
D
100
AcDbEntity
 67
     1
  8
LOGO
 62
     5
100
AcDbTrace
 10
56.35638420316718
 20
4.444236767934754
 30
0.0
 11
57.00642510589535
 21
4.444236767934754
 31
0.0
 12
56.35638420316718
 22
2.494114059744632
 32
0.0
 13
57.00642510589535
 23
2.494114059744632
 33
0.0
  0
SOLID
  5
40E
330
D
100
AcDbEntity
 67
     1
  8
LOGO
 62
     5
100
AcDbTrace
 10
54.34125740470199
 20
25.44055792612105
 30
0.0
 11
52.45613878678501
 21
18.52845632708963
 31
0.0
 12
54.34125740470199
 22
8.994523087045848
 32
0.0
 13
52.45613878678501
 23
8.994523087045848
 33
0.0
  0
SOLID
  5
40F
330
D
100
AcDbEntity
 67
     1
  8
LOGO
 62
     5
100
AcDbTrace
 10
55.12130648797882
 20
8.994523087045848
 30
0.0
 11
57.00642510589535
 21
8.994523087045848
 31
0.0
 12
55.12130648797882
 22
26.87064791212678
 32
0.0
 13
57.00642510589535
 23
26.87064791212818
 33
0.0
  0
SOLID
  5
410
330
D
100
AcDbEntity
 67
     1
  8
LOGO
 62
     2
100
AcDbTrace
 10
54.34125740470199
 20
26.87064791212818
 30
0.0
 11
55.12130648797882
 21
26.87064791212678
 31
0.0
 12
54.34125740470199
 22
8.994523087045848
 32
0.0
 13
55.12130648797882
 23
8.994523087045848
 33
0.0
  0
POLYLINE
  5
411
330
D
100
AcDbEntity
 67
     1
  8
LOGO
 62
     5
100
AcDb2dPolyline
 66
     1
 10
0.0
 20
0.0
 30
0.0
 40
0.6510826349461355
 41
0.6510826349461355
  0
VERTEX
  5
412
330
411
100
AcDbEntity
 67
     1
  8
LOGO
 62
     5
100
AcDbVertex
100
AcDb2dVertex
 10
47.36567097766328
 20
4.444236767934754
 30
0.0
 42
1.0
  0
VERTEX
  5
413
330
411
100
AcDbEntity
 67
     1
  8
LOGO
 62
     5
100
AcDbVertex
100
AcDb2dVertex
 10
45.41242307282345
 20
4.444236767934754
 30
0.0
 42
1.0
  0
SEQEND
  5
414
330
411
100
AcDbEntity
 67
     1
  8
LOGO
 62
     5
  0
POLYLINE
  5
415
330
D
100
AcDbEntity
 67
     1
  8
LOGO
 62
     5
100
AcDb2dPolyline
 66
     1
 10
0.0
 20
0.0
 30
0.0
 40
0.6510826349461355
 41
0.6510826349461355
  0
VERTEX
  5
416
330
415
100
AcDbEntity
 67
     1
  8
LOGO
 62
     5
100
AcDbVertex
100
AcDb2dVertex
 10
49.31579368585289
 20
4.444236767934754
 30
0.0
 42
1.0
  0
VERTEX
  5
417
330
415
100
AcDbEntity
 67
     1
  8
LOGO
 62
     5
100
AcDbVertex
100
AcDb2dVertex
 10
47.36254578101443
 20
4.444236767934754
 30
0.0
 42
1.0
  0
SEQEND
  5
418
330
415
100
AcDbEntity
 67
     1
  8
LOGO
 62
     5
  0
POLYLINE
  5
419
330
D
100
AcDbEntity
 67
     1
  8
LOGO
 62
     5
100
AcDb2dPolyline
 66
     1
 10
0.0
 20
0.0
 30
0.0
 40
0.6510826349461355
 41
0.6510826349461355
  0
VERTEX
  5
41A
330
419
100
AcDbEntity
 67
     1
  8
LOGO
 62
     5
100
AcDbVertex
100
AcDb2dVertex
 10
39.99849741065844
 20
4.444236767934754
 30
0.0
 42
1.0
  0
VERTEX
  5
41B
330
419
100
AcDbEntity
 67
     1
  8
LOGO
 62
     5
100
AcDbVertex
100
AcDb2dVertex
 10
38.04524950582015
 20
4.444236767934754
 30
0.0
 42
1.0
  0
SEQEND
  5
41C
330
419
100
AcDbEntity
 67
     1
  8
LOGO
 62
     5
  0
SOLID
  5
41D
330
D
100
AcDbEntity
 67
     1
  8
LOGO
 62
     5
100
AcDbTrace
 10
37.7217916527793
 20
5.744318573395723
 30
0.0
 11
38.37183255550832
 21
5.744318573395723
 31
0.0
 12
37.7217916527793
 22
2.494114059744632
 32
0.0
 13
38.37183255550832
 23
2.494114059744632
 33
0.0
  0
SOLID
  5
41E
330
D
100
AcDbEntity
 67
     1
  8
LOGO
 62
     5
100
AcDbTrace
 10
39.67191436097073
 20
4.444236767934754
 30
0.0
 11
40.32195526370208
 21
4.444236767934754
 31
0.0
 12
39.67191436097073
 22
2.494114059744632
 32
0.0
 13
40.32195526370208
 23
2.494114059744632
 33
0.0
  0
POLYLINE
  5
41F
330
D
100
AcDbEntity
 67
     1
  8
LOGO
 62
     5
100
AcDb2dPolyline
 66
     1
 10
0.0
 20
0.0
 30
0.0
 70
     1
 40
0.6510826349461355
 41
0.6510826349461355
  0
VERTEX
  5
420
330
41F
100
AcDbEntity
 67
     1
  8
LOGO
 62
     5
100
AcDbVertex
100
AcDb2dVertex
 10
41.40335997593877
 20
4.119216316569961
 30
0.0
 42
1.0
  0
VERTEX
  5
421
330
41F
100
AcDbEntity
 67
     1
  8
LOGO
 62
     5
100
AcDbVertex
100
AcDb2dVertex
 10
44.00769051572342
 20
4.119216316569961
 30
0.0
 42
1.0
  0
SEQEND
  5
422
330
41F
100
AcDbEntity
 67
     1
  8
LOGO
 62
     5
  0
SOLID
  5
423
330
D
100
AcDbEntity
 67
     1
  8
LOGO
 62
     5
100
AcDbTrace
 10
43.68052159583737
 20
6.719379927491374
 30
0.0
 11
44.3305624985677
 21
6.719379927491374
 31
0.0
 12
43.68052159583737
 22
2.494114059744632
 32
0.0
 13
44.3305624985677
 23
2.494114059744632
 33
0.0
  0
SOLID
  5
424
330
D
100
AcDbEntity
 67
     1
  8
LOGO
 62
     5
100
AcDbTrace
 10
45.08896521978431
 20
5.744318573395723
 30
0.0
 11
45.7390061225135
 21
5.744318573395723
 31
0.0
 12
45.08896521978431
 22
2.494114059744632
 32
0.0
 13
45.7390061225135
 23
2.494114059744632
 33
0.0
  0
SOLID
  5
425
330
D
100
AcDbEntity
 67
     1
  8
LOGO
 62
     5
100
AcDbTrace
 10
47.03908792797313
 20
4.444236767934754
 30
0.0
 11
47.68912883070379
 21
4.444236767934754
 31
0.0
 12
47.03908792797313
 22
2.494114059744632
 32
0.0
 13
47.68912883070379
 23
2.494114059744632
 33
0.0
  0
SOLID
  5
426
330
D
100
AcDbEntity
 67
     1
  8
LOGO
 62
     5
100
AcDbTrace
 10
48.98921063616296
 20
4.444236767934754
 30
0.0
 11
49.63925153889431
 21
4.444236767934754
 31
0.0
 12
48.98921063616296
 22
2.494114059743893
 32
0.0
 13
49.63925153889431
 23
2.494114059743893
 33
0.0
  0
SOLID
  5
427
330
D
100
AcDbEntity
 67
     1
  8
LOGO
 62
     5
100
AcDbTrace
 10
36.31334802883311
 20
6.199347205306679
 30
0.0
 11
36.96338893156639
 21
6.199347205306679
 31
0.0
 12
36.31334802883311
 22
6.719379927491374
 32
0.0
 13
36.96338893156639
 23
6.719379927491374
 33
0.0
  0
SOLID
  5
428
330
D
100
AcDbEntity
 67
     1
  8
LOGO
 62
     5
100
AcDbTrace
 10
36.31334802883311
 20
5.744318573395723
 30
0.0
 11
36.96338893156639
 21
5.744318573395723
 31
0.0
 12
36.31334802883311
 22
2.494114059743893
 32
0.0
 13
36.96338893156639
 23
2.494114059744632
 33
0.0
  0
SOLID
  5
429
330
D
100
AcDbEntity
 67
     1
  8
LOGO
 62
     5
100
AcDbTrace
 10
42.70552524583092
 20
8.994523087047035
 30
0.0
 11
44.59064386374905
 21
8.994523087047035
 31
0.0
 12
42.70552524583092
 22
18.52845632708963
 32
0.0
 13
44.59064386374905
 23
25.44055792612105
 33
0.0
  0
SOLID
  5
42A
330
D
100
AcDbEntity
 67
     1
  8
LOGO
 62
     5
100
AcDbTrace
 10
45.37069294702667
 20
26.87064791212678
 30
0.0
 11
47.25581156494399
 21
26.87064791212818
 31
0.0
 12
45.37069294702667
 22
10.42461307305231
 32
0.0
 13
47.25581156494399
 23
17.33671467208418
 33
0.0
  0
SOLID
  5
42B
330
D
100
AcDbEntity
 67
     1
  8
LOGO
 62
     2
100
AcDbTrace
 10
44.59064386374905
 20
26.87064791212678
 30
0.0
 11
45.37069294702667
 21
26.87064791212678
 31
0.0
 12
44.59064386374905
 22
8.994523087047035
 32
0.0
 13
45.37069294702667
 23
8.994523087047035
 33
0.0
  0
SOLID
  5
42C
330
D
100
AcDbEntity
 67
     1
  8
LOGO
 62
     5
100
AcDbTrace
 10
45.37069294702667
 20
10.42461307305231
 30
0.0
 11
47.25581156494399
 21
17.33671467208418
 31
0.0
 12
54.34125740470199
 22
26.87064791212818
 32
0.0
 13
52.45613878678501
 23
26.87064791212818
 33
0.0
  0
SOLID
  5
42D
330
D
100
AcDbEntity
 67
     1
  8
LOGO
 62
     5
100
AcDbTrace
 10
45.37069294702667
 20
8.994523087047035
 30
0.0
 11
47.25581156494399
 21
8.994523087047035
 31
0.0
 12
54.34125740470199
 22
25.44055792612105
 32
0.0
 13
52.45613878678501
 23
18.52845632708963
 33
0.0
  0
SOLID
  5
42E
330
D
100
AcDbEntity
 67
     1
  8
LOGO
 62
     2
100
AcDbTrace
 10
44.59064386374905
 20
8.994523087047035
 30
0.0
 11
45.37069294702667
 21
8.994523087047035
 31
0.0
 12
54.34125740470199
 22
26.87064791212818
 32
0.0
 13
55.12130648797882
 23
26.87064791212678
 33
0.0
  0
LWPOLYLINE
  5
42F
330
D
100
AcDbEntity
 67
     1
  8
LOGO
 62
     4
100
AcDbPolyline
 90
        4
 70
     1
 43
0.0
 10
28.43141606087386
 20
27.90633293120413
 10
779.7769310400986
 20
27.90633293120413
 10
779.7769310400986
 20
-15.69295065893902
 10
28.43141606087386
 20
-15.69295065893902
1001
GENIUS_GENREC_14
1002
{
1000
PYDIR
1011
28.43141606087386
1021
-15.69295065893902
1031
0.0
1002
}
1002
{
1000
PXDIR
1011
779.7769310400986
1021
27.90633293120413
1031
0.0
1002
}
1002
{
1000
PORI
1011
28.43141606087386
1021
27.90633293120413
1031
0.0
1002
}
1002
{
1000
PINS
1011
28.43141606087386
1021
27.90633293120413
1031
0.0
1002
}
1002
{
1000
PINS2
1011
779.7769310400986
1021
-15.69295065893902
1031
0.0
1002
}
1002
{
1000
C
1070
     1
1002
}
1001
GENIUS_GENOBJ-N-REC_13
1002
{
1000
OWNER
1000
GEN
1002
}
1001
GENIUS_GENODEF_13
1002
{
1000
HIER
1070
     0
1002
}
1002
{
1000
MANEDIT
1070
     0
1002
}
1002
{
1000
NOSEL
1070
     0
1002
}
1002
{
1000
BEHIND
1070
     0
1002
}
1002
{
1000
OTHER
1070
     0
1002
}
1002
{
1000
REACTOR
1002
}
  0
TEXT
  5
430
330
D
100
AcDbEntity
 67
     1
  8
LOGO
100
AcDbText
 10
126.3699468632919
 20
-13.37348598030451
 30
0.0
 40
4.3605597522816
  1
1120724B
 41
0.7
  7
CHINESET
 72
     1
 11
136.9806422605105
 21
-13.37348598030451
 31
0.0
100
AcDbText
  0
LINE
  5
431
330
D
100
AcDbEntity
 67
     1
  8
LOGO
 62
     4
100
AcDbLine
 10
150.5131984728743
 20
-6.973093940909073
 30
0.0
 11
150.5131984728775
 21
-15.69295065893836
 31
0.0
  0
LINE
  5
432
330
D
100
AcDbEntity
 67
     1
  8
LOGO
 62
     4
100
AcDbLine
 10
150.5131984728743
 20
-6.973093940909073
 30
0.0
 11
124.3498399591877
 21
-6.973093940909073
 31
0.0
  0
CIRCLE
  5
433
330
D
100
AcDbEntity
 67
     1
  8
LOGO
  6
Continuous
100
AcDbCircle
 10
103.3566035870262
 20
14.83587377282654
 30
0.0
 40
2.531477026389159
  0
CIRCLE
  5
434
330
D
100
AcDbEntity
 67
     1
  8
LOGO
  6
Continuous
100
AcDbCircle
 10
103.3566035870262
 20
14.83587377282654
 30
0.0
 40
1.483221438482118
  0
LINE
  5
435
330
D
100
AcDbEntity
 67
     1
  8
LOGO
100
AcDbLine
 10
119.2646989610272
 20
12.30439674643715
 30
0.0
 11
119.2646989610272
 21
17.36735079921615
 31
0.0
  0
LINE
  5
436
330
D
100
AcDbEntity
 67
     1
  8
LOGO
100
AcDbLine
 10
111.3286637970113
 20
13.35265233434463
 30
0.0
 11
111.3286637970113
 21
16.31909521130911
 31
0.0
  0
LINE
  5
437
330
D
100
AcDbEntity
 67
     1
  8
LOGO
  6
Continuous
100
AcDbLine
 10
111.3286637970113
 20
16.31909521130911
 30
0.0
 11
119.2646989610272
 21
17.36735079921615
 31
0.0
  0
LINE
  5
438
330
D
100
AcDbEntity
 67
     1
  8
LOGO
  6
Continuous
100
AcDbLine
 10
111.3286637970113
 20
13.35265233434463
 30
0.0
 11
119.2646989610272
 21
12.30439674643715
 31
0.0
  0
LINE
  5
439
330
D
100
AcDbEntity
 67
     1
  8
LOGO
  6
AM_ISO08W050x2
 48
0.3
100
AcDbLine
 10
99.86692460026382
 20
14.83587377282654
 30
0.0
 11
106.8462825737856
 21
14.83587377282654
 31
0.0
1001
GENIUS_GENOREF_13
1005
43D
  0
LINE
  5
43A
330
D
100
AcDbEntity
 67
     1
  8
LOGO
  6
AM_ISO08W050x2
 48
0.3
100
AcDbLine
 10
103.3566035870262
 20
11.346194786066
 30
0.0
 11
103.3566035870262
 21
18.32555275958781
 31
0.0
1001
GENIUS_GENOREF_13
1005
43F
  0
LINE
  5
43B
330
D
100
AcDbEntity
 67
     1
  8
LOGO
  6
CENTER
 48
0.5
100
AcDbLine
 10
110.694001564956
 20
14.83587377282654
 30
0.0
 11
120.0638320117719
 21
14.83587377282654
 31
0.0
1001
GENIUS_GENOREF_13
1005
43E
  0
LWPOLYLINE
  5
43C
330
D
100
AcDbEntity
 67
     1
  8
LOGO
 62
     4
100
AcDbPolyline
 90
        4
 70
     1
 43
0.0
 10
779.7769310400986
 20
27.90633293120413
 10
28.43141606087493
 20
27.90633293120413
 10
28.43141606087493
 20
489.9570930858421
 10
779.7769310400986
 20
489.9570930858421
  0
POINT
  5
43D
330
D
100
AcDbEntity
 67
     1
  8
0
 60
     1
100
AcDbPoint
 10
3329.677818185577
 20
-458.4050410869478
 30
0.0
1001
GENIUS_GENOBJ-N-CRS_13
1002
{
1000
OWNER
1000
GEN
1002
}
1001
GENIUS_GENOLIS_13
1002
{
1000
ENT
1005
0
1005
0
1005
0
1005
439
1002
}
1001
GENIUS_GENOENT_13
1002
{
1000
MYREF
1005
43D
1002
}
1002
{
1000
GRP
1005
0
1002
}
1001
GENIUS_GENODEF_13
1002
{
1000
HIER
1070
    10
1002
}
1002
{
1000
MANEDIT
1070
     1
1002
}
1002
{
1000
NOSEL
1070
     0
1002
}
1002
{
1000
BEHIND
1070
     0
1002
}
1002
{
1000
OTHER
1070
     0
1002
}
1002
{
1000
REACTOR
1002
}
  0
POINT
  5
43E
330
D
100
AcDbEntity
 67
     1
  8
0
 60
     1
100
AcDbPoint
 10
3334.643729710595
 20
-458.4050410869478
 30
0.0
1001
GENIUS_GENOBJ-N-CRS_13
1002
{
1000
OWNER
1000
GEN
1002
}
1001
GENIUS_GENOLIS_13
1002
{
1000
ENT
1005
0
1005
0
1005
0
1005
43B
1002
}
1001
GENIUS_GENOENT_13
1002
{
1000
MYREF
1005
43E
1002
}
1002
{
1000
GRP
1005
0
1002
}
1001
GENIUS_GENODEF_13
1002
{
1000
HIER
1070
    10
1002
}
1002
{
1000
MANEDIT
1070
     1
1002
}
1002
{
1000
NOSEL
1070
     0
1002
}
1002
{
1000
BEHIND
1070
     0
1002
}
1002
{
1000
OTHER
1070
     0
1002
}
1002
{
1000
REACTOR
1002
}
  0
POINT
  5
43F
330
D
100
AcDbEntity
 67
     1
  8
0
 60
     1
100
AcDbPoint
 10
3323.319144487741
 20
-449.5294546083115
 30
0.0
1001
GENIUS_GENOBJ-N-CRS_13
1002
{
1000
OWNER
1000
GEN
1002
}
1001
GENIUS_GENOLIS_13
1002
{
1000
ENT
1005
0
1005
0
1005
0
1005
43A
1002
}
1001
GENIUS_GENOENT_13
1002
{
1000
MYREF
1005
43F
1002
}
1002
{
1000
GRP
1005
0
1002
}
1001
GENIUS_GENODEF_13
1002
{
1000
HIER
1070
    10
1002
}
1002
{
1000
MANEDIT
1070
     1
1002
}
1002
{
1000
NOSEL
1070
     0
1002
}
1002
{
1000
BEHIND
1070
     0
1002
}
1002
{
1000
OTHER
1070
     0
1002
}
1002
{
1000
REACTOR
1002
}
  0
TEXT
  5
CF9
330
D
100
AcDbEntity
 67
     1
  8
0
 62
     5
100
AcDbText
 10
485.3631779233169
 20
185.5541034134779
 30
0.0
 40
3.0
  1

  7
CHINESET
100
AcDbText
  0
TEXT
  5
D00
330
D
100
AcDbEntity
 67
     1
  8
0
 62
     5
100
AcDbText
 10
76.99843758613133
 20
188.0083980052471
 30
0.0
 40
3.0
  1

  7
CHINESET
100
AcDbText
  0
TEXT
  5
D03
330
D
100
AcDbEntity
 67
     1
  8
0
 62
     5
100
AcDbText
 10
329.1481120575193
 20
97.6902089019917
 30
0.0
 40
3.0
  1

  7
CHINESET
100
AcDbText
  0
TEXT
  5
D05
330
D
100
AcDbEntity
 67
     1
  8
0
 62
     5
100
AcDbText
 10
207.5843937342206
 20
94.6210888161371
 30
0.0
 40
3.0
  1

  7
CHINESET
100
AcDbText
  0
LINE
  5
1B39
330
D
100
AcDbEntity
 67
     1
  8
AM_7
100
AcDbLine
 10
175.1975525284513
 20
177.0453177293905
 30
0.0
 11
485.9877007891439
 21
177.0453177293905
 31
0.0
  0
LINE
  5
1B3A
330
D
100
AcDbEntity
 67
     1
  8
AM_7
100
AcDbLine
 10
171.365307339704
 20
363.9950197974488
 30
0.0
 11
485.9877007891439
 21
363.9950197974488
 31
0.0
  0
LINE
  5
1B5F
330
D
100
AcDbEntity
 67
     1
  8
AM_VIS
100
AcDbLine
 10
464.4877007891438
 20
187.5453177293905
 30
0.0
 11
456.4877007891438
 21
187.5453177293905
 31
0.0
  0
LINE
  5
1B60
330
D
100
AcDbEntity
 67
     1
  8
AM_VIS
100
AcDbLine
 10
454.9877007891437
 20
189.0453177293906
 30
0.0
 11
456.4877007891438
 21
187.5453177293905
 31
0.0
  0
LINE
  5
1B61
330
D
100
AcDbEntity
 67
     1
  8
AM_VIS
100
AcDbLine
 10
464.4877007891438
 20
187.5453177293905
 30
0.0
 11
466.4885196926042
 21
187.5453177293905
 31
0.0
  0
LINE
  5
1B62
330
D
100
AcDbEntity
 67
     1
  8
AM_VIS
100
AcDbLine
 10
456.4877007891438
 20
166.5453177293905
 30
0.0
 11
464.4877007891438
 21
166.5453177293905
 31
0.0
  0
LINE
  5
1B63
330
D
100
AcDbEntity
 67
     1
  8
AM_VIS
100
AcDbLine
 10
464.4877007891438
 20
166.5453177293905
 30
0.0
 11
466.4885196926042
 21
166.5453177293905
 31
0.0
  0
ARC
  5
1B64
330
D
100
AcDbEntity
 67
     1
  8
AM_VIS
100
AcDbCircle
 10
466.9877007891439
 20
177.0453177293905
 30
0.0
 40
12.5
100
AcDbArc
 50
147.1401196211107
 51
163.739795291693
  0
ARC
  5
1B65
330
D
100
AcDbEntity
 67
     1
  8
AM_VIS
100
AcDbCircle
 10
466.9877007891439
 20
177.0453177293905
 30
0.0
 40
12.5
100
AcDbArc
 50
196.260204708307
 51
212.8598803788893
  0
LINE
  5
1B66
330
D
100
AcDbEntity
 67
     1
  8
AM_VIS
100
AcDbLine
 10
456.4877007891438
 20
166.5453177293905
 30
0.0
 11
454.9877007891437
 21
165.0453177293902
 31
0.0
  0
SPLINE
  5
1B67
330
D
100
AcDbEntity
 67
     1
  8
AM_VIS
100
AcDbSpline
210
0.0
220
0.0
230
1.0
 70
     8
 71
     3
 72
    28
 73
    24
 74
     0
 42
0.0000000001
 43
0.0000000001
 40
-7.268772092096682
 40
-7.268772092096682
 40
-7.268772092096682
 40
-7.268772092096682
 40
-7.104190868574999
 40
-7.104190868574999
 40
-6.939609645053316
 40
-6.939609645053316
 40
-6.753169545530909
 40
-6.753169545530909
 40
-6.566729446008505
 40
-6.566729446008505
 40
-6.00802171328933
 40
-6.00802171328933
 40
-5.449313980570153
 40
-5.449313980570153
 40
-4.768149732998885
 40
-4.768149732998885
 40
-4.086985485427614
 40
-4.086985485427614
 40
-2.724656990285076
 40
-2.724656990285076
 40
-1.362328495142538
 40
-1.362328495142538
 40
0.0
 40
0.0
 40
0.0
 40
0.0
 10
464.4877007891438
 20
183.8276477125157
 30
0.0
 10
464.5425611969844
 20
183.8276477125157
 30
0.0
 10
464.6026145542146
 20
183.8231939628566
 30
0.0
 10
464.7211040272252
 20
183.8040772793721
 30
0.0
 10
464.779544104595
 20
183.7894389084563
 30
0.0
 10
464.8908644973944
 20
183.7534051271541
 30
0.0
 10
464.9539438387072
 20
183.7274826942636
 30
0.0
 10
465.0751068851885
 20
183.6656572812517
 30
0.0
 10
465.1332238884152
 20
183.6298195790876
 30
0.0
 10
465.3365266703592
 20
183.4871244489136
 30
0.0
 10
465.4787458491557
 20
183.3435750422848
 30
0.0
 10
465.721408712259
 20
183.0217473281324
 30
0.0
 10
465.8223444034075
 20
182.8438402961785
 30
0.0
 10
465.9989242918832
 20
182.4701710404065
 30
0.0
 10
466.07650908546
 20
182.256061875855
 30
0.0
 10
466.2053687508855
 20
181.8151150959553
 30
0.0
 10
466.2564410781294
 20
181.58821831542
 30
0.0
 10
466.3804788032114
 20
180.893317293145
 30
0.0
 10
466.4243664617829
 20
180.4113989341989
 30
0.0
 10
466.4752708645316
 20
179.4362814443024
 30
0.0
 10
466.4823855745371
 20
178.9436906759051
 30
0.0
 10
466.4885196926042
 20
177.9752630521895
 30
0.0
 10
466.4877007891439
 20
177.4994272277713
 30
0.0
 10
466.4877007891439
 20
177.0453177293905
 30
0.0
  0
SPLINE
  5
1B68
330
D
100
AcDbEntity
 67
     1
  8
AM_VIS
100
AcDbSpline
210
0.0
220
0.0
230
1.0
 70
     8
 71
     3
 72
    28
 73
    24
 74
     0
 42
0.0000000001
 43
0.0000000001
 40
0.0
 40
0.0
 40
0.0
 40
0.0
 40
1.362328495142537
 40
1.362328495142537
 40
2.724656990285075
 40
2.724656990285075
 40
4.086985485427613
 40
4.086985485427613
 40
4.768149732998882
 40
4.768149732998882
 40
5.449313980570151
 40
5.449313980570151
 40
6.008021713289327
 40
6.008021713289327
 40
6.566729446008504
 40
6.566729446008504
 40
6.753169545530909
 40
6.753169545530909
 40
6.939609645053315
 40
6.939609645053315
 40
7.104190868574999
 40
7.104190868574999
 40
7.268772092096682
 40
7.268772092096682
 40
7.268772092096682
 40
7.268772092096682
 10
466.4877007891439
 20
177.0453177293905
 30
0.0
 10
466.4877007891439
 20
176.5912082310096
 30
0.0
 10
466.4885196926042
 20
176.1153724065915
 30
0.0
 10
466.4823855745371
 20
175.1469447828758
 30
0.0
 10
466.4752708645316
 20
174.6543540144785
 30
0.0
 10
466.4243664617829
 20
173.6792365245821
 30
0.0
 10
466.3804788032114
 20
173.1973181656359
 30
0.0
 10
466.2564410781294
 20
172.502417143361
 30
0.0
 10
466.2053687508857
 20
172.2755203628256
 30
0.0
 10
466.07650908546
 20
171.834573582926
 30
0.0
 10
465.9989242918832
 20
171.6204644183744
 30
0.0
 10
465.8223444034075
 20
171.2467951626025
 30
0.0
 10
465.7214087122591
 20
171.0688881306485
 30
0.0
 10
465.4787458491557
 20
170.7470604164962
 30
0.0
 10
465.3365266703594
 20
170.6035110098674
 30
0.0
 10
465.1332238884152
 20
170.4608158796934
 30
0.0
 10
465.0751068851885
 20
170.4249781775292
 30
0.0
 10
464.9539438387072
 20
170.3631527645174
 30
0.0
 10
464.8908644973944
 20
170.3372303316269
 30
0.0
 10
464.779544104595
 20
170.3011965503246
 30
0.0
 10
464.7211040272252
 20
170.2865581794089
 30
0.0
 10
464.6026145542146
 20
170.2674414959244
 30
0.0
 10
464.5425611969844
 20
170.2629877462652
 30
0.0
 10
464.4877007891438
 20
170.2629877462652
 30
0.0
  0
LINE
  5
1B69
330
D
100
AcDbEntity
 67
     1
  8
AM_VIS
100
AcDbLine
 10
464.4877007891438
 20
170.2629877462652
 30
0.0
 11
456.4877007891438
 21
170.2629877462652
 31
0.0
  0
LINE
  5
1B6A
330
D
100
AcDbEntity
 67
     1
  8
AM_VIS
100
AcDbLine
 10
456.4877007891438
 20
170.2629877462652
 30
0.0
 11
456.4877007891438
 21
183.8276477125157
 31
0.0
  0
LINE
  5
1B6B
330
D
100
AcDbEntity
 67
     1
  8
AM_VIS
100
AcDbLine
 10
456.4877007891438
 20
183.8276477125157
 30
0.0
 11
464.4877007891438
 21
183.8276477125157
 31
0.0
  0
LINE
  5
1B6C
330
D
100
AcDbEntity
 67
     1
  8
AM_VIS
100
AcDbLine
 10
495.2877007891438
 20
194.3658258050792
 30
0.0
 11
487.6877007891438
 21
194.3658258050792
 31
0.0
  0
LINE
  5
1B6D
330
D
100
AcDbEntity
 67
     1
  8
AM_VIS
100
AcDbLine
 10
496.4877007891439
 20
188.6829238603102
 30
0.0
 11
496.4877007891439
 21
191.3884737120039
 31
0.0
  0
LINE
  5
1B6E
330
D
100
AcDbEntity
 67
     1
  8
AM_VIS
100
AcDbLine
 10
496.4877007891439
 20
162.702161746777
 30
0.0
 11
496.4877007891439
 21
165.4077115984708
 31
0.0
  0
LINE
  5
1B6F
330
D
100
AcDbEntity
 67
     1
  8
AM_VIS
100
AcDbLine
 10
495.2877007891438
 20
159.7248096537018
 30
0.0
 11
487.6877007891438
 21
159.7248096537018
 31
0.0
  0
LINE
  5
1B70
330
D
100
AcDbEntity
 67
     1
  8
AM_VIS
100
AcDbLine
 10
495.2877007891438
 20
185.7055717672349
 30
0.0
 11
487.6877007891438
 21
185.7055717672349
 31
0.0
  0
LINE
  5
1B71
330
D
100
AcDbEntity
 67
     1
  8
AM_VIS
100
AcDbLine
 10
496.4877007891439
 20
174.3397678776967
 30
0.0
 11
496.4877007891439
 21
179.7508675810843
 31
0.0
  0
LINE
  5
1B72
330
D
100
AcDbEntity
 67
     1
  8
AM_VIS
100
AcDbLine
 10
495.2877007891438
 20
168.3850636915461
 30
0.0
 11
487.6877007891438
 21
168.3850636915461
 31
0.0
  0
LINE
  5
1B73
330
D
100
AcDbEntity
 67
     1
  8
AM_VIS
100
AcDbLine
 10
486.4877007891439
 20
191.3884737120039
 30
0.0
 11
486.4877007891439
 21
188.6829238603103
 31
0.0
  0
LINE
  5
1B74
330
D
100
AcDbEntity
 67
     1
  8
AM_VIS
100
AcDbLine
 10
486.4877007891439
 20
179.7508675810841
 30
0.0
 11
486.4877007891439
 21
174.3397678776969
 31
0.0
  0
LINE
  5
1B75
330
D
100
AcDbEntity
 67
     1
  8
AM_VIS
100
AcDbLine
 10
486.4877007891439
 20
165.4077115984707
 30
0.0
 11
486.4877007891439
 21
162.7021617467771
 31
0.0
  0
SPLINE
  5
1B76
330
D
100
AcDbEntity
 67
     1
  8
AM_VIS
100
AcDbSpline
210
0.0
220
0.0
230
1.0
 70
    12
 71
     2
 72
     6
 73
     3
 74
     0
 42
0.0000000001
 43
0.0000000001
 40
0.0
 40
0.0
 40
0.0
 40
6.080551719329661
 40
6.080551719329661
 40
6.080551719329661
 10
496.4877007891439
 20
191.3884737120038
 30
0.0
 41
1.0
 10
496.2020492106384
 20
192.7821278832308
 30
0.0
 41
1.017152070977394
 10
495.2877007891438
 20
194.3658258050793
 30
0.0
 41
1.0
  0
SPLINE
  5
1B77
330
D
100
AcDbEntity
 67
     1
  8
AM_VIS
100
AcDbSpline
210
0.0
220
0.0
230
1.0
 70
    12
 71
     2
 72
     6
 73
     3
 74
     0
 42
0.0000000001
 43
0.0000000001
 40
0.0
 40
0.0
 40
0.0
 40
6.080551719329665
 40
6.080551719329665
 40
6.080551719329665
 10
495.2877007891438
 20
185.7055717672349
 30
0.0
 41
1.0
 10
496.2020492106381
 20
187.2892696890833
 30
0.0
 41
1.017152070977386
 10
496.4877007891439
 20
188.6829238603103
 30
0.0
 41
1.0
  0
SPLINE
  5
1B78
330
D
100
AcDbEntity
 67
     1
  8
AM_VIS
100
AcDbSpline
210
0.0
220
0.0
230
1.0
 70
    12
 71
     2
 72
     6
 73
     3
 74
     0
 42
0.0000000001
 43
0.0000000001
 40
0.0
 40
0.0
 40
0.0
 40
6.080551719329633
 40
6.080551719329633
 40
6.080551719329633
 10
496.4877007891439
 20
179.750867581084
 30
0.0
 41
1.0
 10
496.2020492106382
 20
182.5381759235379
 30
0.0
 41
1.017152070977578
 10
495.2877007891438
 20
185.7055717672349
 30
0.0
 41
1.0
  0
SPLINE
  5
1B79
330
D
100
AcDbEntity
 67
     1
  8
AM_VIS
100
AcDbSpline
210
0.0
220
0.0
230
1.0
 70
    12
 71
     2
 72
     6
 73
     3
 74
     0
 42
0.0000000001
 43
0.0000000001
 40
0.0
 40
0.0
 40
0.0
 40
6.080551719329632
 40
6.080551719329632
 40
6.080551719329632
 10
495.2877007891438
 20
168.385063691546
 30
0.0
 41
1.0
 10
496.2020492106382
 20
171.552459535243
 30
0.0
 41
1.017152070977578
 10
496.4877007891439
 20
174.339767877697
 30
0.0
 41
1.0
  0
SPLINE
  5
1B7A
330
D
100
AcDbEntity
 67
     1
  8
AM_VIS
100
AcDbSpline
210
0.0
220
0.0
230
1.0
 70
    12
 71
     2
 72
     6
 73
     3
 74
     0
 42
0.0000000001
 43
0.0000000001
 40
0.0
 40
0.0
 40
0.0
 40
6.080551719329617
 40
6.080551719329617
 40
6.080551719329617
 10
496.4877007891439
 20
165.4077115984707
 30
0.0
 41
1.0
 10
496.2020492106382
 20
166.8013657696976
 30
0.0
 41
1.017152070977597
 10
495.2877007891438
 20
168.3850636915461
 30
0.0
 41
1.0
  0
SPLINE
  5
1B7B
330
D
100
AcDbEntity
 67
     1
  8
AM_VIS
100
AcDbSpline
210
0.0
220
0.0
230
1.0
 70
    12
 71
     2
 72
     6
 73
     3
 74
     0
 42
0.0000000001
 43
0.0000000001
 40
0.0
 40
0.0
 40
0.0
 40
6.080551719329617
 40
6.080551719329617
 40
6.080551719329617
 10
495.2877007891438
 20
159.7248096537017
 30
0.0
 41
1.0
 10
496.2020492106382
 20
161.30850757555
 30
0.0
 41
1.017152070977597
 10
496.4877007891439
 20
162.7021617467771
 30
0.0
 41
1.0
  0
SPLINE
  5
1B7C
330
D
100
AcDbEntity
 67
     1
  8
AM_VIS
100
AcDbSpline
210
0.0
220
0.0
230
1.0
 70
    12
 71
     2
 72
     6
 73
     3
 74
     0
 42
0.0000000001
 43
0.0000000001
 40
0.0
 40
0.0
 40
0.0
 40
6.08055171932976
 40
6.08055171932976
 40
6.08055171932976
 10
487.6877007891439
 20
194.3658258050793
 30
0.0
 41
1.0
 10
486.7733523676492
 20
192.7821278832306
 30
-0.0000000000000036
 41
1.017152070977707
 10
486.4877007891439
 20
191.3884737120038
 30
0.0
 41
1.0
  0
SPLINE
  5
1B7D
330
D
100
AcDbEntity
 67
     1
  8
AM_VIS
100
AcDbSpline
210
0.0
220
0.0
230
1.0
 70
    12
 71
     2
 72
     6
 73
     3
 74
     0
 42
0.0000000001
 43
0.0000000001
 40
0.0
 40
0.0
 40
0.0
 40
6.080551719329752
 40
6.080551719329752
 40
6.080551719329752
 10
486.4877007891439
 20
188.6829238603104
 30
0.0
 41
1.0
 10
486.7733523676498
 20
187.2892696890834
 30
0.0000000000000036
 41
1.01715207097741
 10
487.6877007891439
 20
185.7055717672349
 30
0.0
 41
1.0
  0
SPLINE
  5
1B7E
330
D
100
AcDbEntity
 67
     1
  8
AM_VIS
100
AcDbSpline
210
0.0
220
0.0
230
1.0
 70
    12
 71
     2
 72
     6
 73
     3
 74
     0
 42
0.0000000001
 43
0.0000000001
 40
0.0
 40
0.0
 40
0.0
 40
6.08055171932971
 40
6.08055171932971
 40
6.08055171932971
 10
487.6877007891439
 20
185.7055717672349
 30
0.0
 41
1.0
 10
486.7733523676495
 20
182.5381759235379
 30
0.0
 41
1.017152070977381
 10
486.4877007891439
 20
179.7508675810839
 30
0.0
 41
1.0
  0
SPLINE
  5
1B7F
330
D
100
AcDbEntity
 67
     1
  8
AM_VIS
100
AcDbSpline
210
0.0
220
0.0
230
1.0
 70
    12
 71
     2
 72
     6
 73
     3
 74
     0
 42
0.0000000001
 43
0.0000000001
 40
0.0
 40
0.0
 40
0.0
 40
6.08055171932971
 40
6.08055171932971
 40
6.08055171932971
 10
486.4877007891439
 20
174.3397678776971
 30
0.0
 41
1.0
 10
486.7733523676495
 20
171.5524595352431
 30
0.0
 41
1.017152070977381
 10
487.6877007891439
 20
168.3850636915461
 30
0.0
 41
1.0
  0
SPLINE
  5
1B80
330
D
100
AcDbEntity
 67
     1
  8
AM_VIS
100
AcDbSpline
210
0.0
220
0.0
230
1.0
 70
    12
 71
     2
 72
     6
 73
     3
 74
     0
 42
0.0000000001
 43
0.0000000001
 40
0.0
 40
0.0
 40
0.0
 40
6.080551719329729
 40
6.080551719329729
 40
6.080551719329729
 10
487.6877007891439
 20
168.3850636915461
 30
0.0
 41
1.0
 10
486.7733523676499
 20
166.8013657696979
 30
0.0
 41
1.017152070977417
 10
486.4877007891439
 20
165.4077115984705
 30
0.0
 41
1.0
  0
SPLINE
  5
1B81
330
D
100
AcDbEntity
 67
     1
  8
AM_VIS
100
AcDbSpline
210
0.0
220
0.0
230
1.0
 70
    12
 71
     2
 72
     6
 73
     3
 74
     0
 42
0.0000000001
 43
0.0000000001
 40
0.0
 40
0.0
 40
0.0
 40
6.080551719329736
 40
6.080551719329736
 40
6.080551719329736
 10
486.4877007891439
 20
162.7021617467772
 30
0.0
 41
1.0
 10
486.7733523676493
 20
161.30850757555
 30
-0.0000000000000036
 41
1.017152070977399
 10
487.6877007891439
 20
159.7248096537017
 30
0.0
 41
1.0
  0
LINE
  5
1B82
330
D
100
AcDbEntity
 67
     1
  8
AM_VIS
100
AcDbLine
 10
466.4877007891439
 20
167.0453177293905
 30
0.0
 11
486.4877007891439
 21
167.0453177293905
 31
0.0
  0
LINE
  5
1B83
330
D
100
AcDbEntity
 67
     1
  8
AM_VIS
100
AcDbLine
 10
466.4877007891439
 20
187.0453177293905
 30
0.0
 11
486.4877007891439
 21
187.0453177293905
 31
0.0
  0
LINE
  5
1B84
330
D
100
AcDbEntity
 67
     1
  8
AM_VIS
100
AcDbLine
 10
506.4877007891438
 20
185.5453177293905
 30
0.0
 11
504.9877007891439
 21
187.0453177293905
 31
0.0
  0
LINE
  5
1B85
330
D
100
AcDbEntity
 67
     1
  8
AM_VIS
100
AcDbLine
 10
506.4877007891438
 20
168.5453177293905
 30
0.0
 11
504.9877007891439
 21
167.0453177293905
 31
0.0
  0
LINE
  5
1B86
330
D
100
AcDbEntity
 67
     1
  8
AM_VIS
100
AcDbLine
 10
496.4877007891439
 20
167.0453177293905
 30
0.0
 11
504.9877007891439
 21
167.0453177293905
 31
0.0
  0
LINE
  5
1B87
330
D
100
AcDbEntity
 67
     1
  8
AM_VIS
100
AcDbLine
 10
496.4877007891439
 20
187.0453177293905
 30
0.0
 11
504.9877007891439
 21
187.0453177293905
 31
0.0
  0
LINE
  5
1B88
330
D
100
AcDbEntity
 67
     1
  8
AM_VIS
100
AcDbLine
 10
496.4877007891439
 20
192.2873648359966
 30
0.0
 11
495.2877007891438
 21
194.3658258050792
 31
0.0
  0
LINE
  5
1B89
330
D
100
AcDbEntity
 67
     1
  8
AM_VIS
100
AcDbLine
 10
496.4877007891439
 20
161.8032706227843
 30
0.0
 11
495.2877007891438
 21
159.7248096537017
 31
0.0
  0
LINE
  5
1B8A
330
D
100
AcDbEntity
 67
     1
  8
AM_VIS
100
AcDbLine
 10
486.4877007891439
 20
192.2873648359966
 30
0.0
 11
487.6877007891439
 21
194.3658258050792
 31
0.0
  0
LINE
  5
1B8B
330
D
100
AcDbEntity
 67
     1
  8
AM_VIS
100
AcDbLine
 10
486.4877007891439
 20
161.8032706227844
 30
0.0
 11
487.6877007891439
 21
159.7248096537018
 31
0.0
  0
LINE
  5
1B8C
330
D
100
AcDbEntity
 67
     1
  8
AM_VIS
100
AcDbLine
 10
466.4877007891439
 20
187.5453177293905
 30
0.0
 11
466.4877007891439
 21
177.0453177293905
 31
0.0
  0
LINE
  5
1B8D
330
D
100
AcDbEntity
 67
     1
  8
AM_VIS
100
AcDbLine
 10
466.4877007891439
 20
177.0453177293905
 30
0.0
 11
466.4877007891439
 21
166.5453177293905
 31
0.0
  0
LINE
  5
1B8E
330
D
100
AcDbEntity
 67
     1
  8
AM_VIS
100
AcDbLine
 10
506.4877007891438
 20
185.5453177293905
 30
0.0
 11
506.4877007891438
 21
168.5453177293905
 31
0.0
  0
LINE
  5
1B8F
330
D
100
AcDbEntity
 67
     1
  8
AM_VIS
100
AcDbLine
 10
504.9877007891439
 20
167.0453177293905
 30
0.0
 11
504.9877007891439
 21
187.0453177293905
 31
0.0
  0
LINE
  5
1B90
330
D
100
AcDbEntity
 67
     1
  8
AM_VIS
100
AcDbLine
 10
496.4877007891439
 20
191.3884737120039
 30
0.0
 11
496.4877007891439
 21
192.2873648359966
 31
0.0
  0
LINE
  5
1B91
330
D
100
AcDbEntity
 67
     1
  8
AM_VIS
100
AcDbLine
 10
496.4877007891439
 20
179.7508675810843
 30
0.0
 11
496.4877007891439
 21
188.6829238603102
 31
0.0
  0
LINE
  5
1B92
330
D
100
AcDbEntity
 67
     1
  8
AM_VIS
100
AcDbLine
 10
496.4877007891439
 20
165.4077115984708
 30
0.0
 11
496.4877007891439
 21
174.3397678776967
 31
0.0
  0
LINE
  5
1B93
330
D
100
AcDbEntity
 67
     1
  8
AM_VIS
100
AcDbLine
 10
496.4877007891439
 20
161.8032706227843
 30
0.0
 11
496.4877007891439
 21
162.702161746777
 31
0.0
  0
LINE
  5
1B94
330
D
100
AcDbEntity
 67
     1
  8
AM_VIS
100
AcDbLine
 10
486.4877007891439
 20
192.2873648359966
 30
0.0
 11
486.4877007891439
 21
191.3884737120039
 31
0.0
  0
LINE
  5
1B95
330
D
100
AcDbEntity
 67
     1
  8
AM_VIS
100
AcDbLine
 10
486.4877007891439
 20
188.6829238603103
 30
0.0
 11
486.4877007891439
 21
179.7508675810841
 31
0.0
  0
LINE
  5
1B96
330
D
100
AcDbEntity
 67
     1
  8
AM_VIS
100
AcDbLine
 10
486.4877007891439
 20
174.3397678776969
 30
0.0
 11
486.4877007891439
 21
165.4077115984707
 31
0.0
  0
LINE
  5
1B97
330
D
100
AcDbEntity
 67
     1
  8
AM_VIS
100
AcDbLine
 10
486.4877007891439
 20
162.7021617467771
 30
0.0
 11
486.4877007891439
 21
161.8032706227844
 31
0.0
  0
LINE
  5
1B98
330
D
100
AcDbEntity
 67
     1
  8
AM_VIS
100
AcDbLine
 10
310.4877007891439
 20
224.5453177293905
 30
0.0
 11
310.4877007891439
 21
129.5453177293905
 31
0.0
  0
LINE
  5
1B99
330
D
100
AcDbEntity
 67
     1
  8
AM_VIS
100
AcDbLine
 10
420.4877007891439
 20
132.9135897457452
 30
0.0
 11
420.4877007891439
 21
129.5453177293905
 31
0.0
  0
LINE
  5
1B9A
330
D
100
AcDbEntity
 67
     1
  8
AM_VIS
100
AcDbLine
 10
420.4877007891439
 20
141.0453177293905
 30
0.0
 11
420.4877007891439
 21
132.9135897457452
 31
0.0
  0
LINE
  5
1B9B
330
D
100
AcDbEntity
 67
     1
  8
AM_VIS
100
AcDbLine
 10
456.4877007891438
 20
370.7773497805741
 30
0.0
 11
464.4877007891438
 21
370.7773497805741
 31
0.0
  0
LINE
  5
1B9C
330
D
100
AcDbEntity
 67
     1
  8
AM_VIS
100
AcDbLine
 10
464.4877007891438
 20
357.2126898143235
 30
0.0
 11
456.4877007891438
 21
357.2126898143235
 31
0.0
  0
LINE
  5
1B9D
330
D
100
AcDbEntity
 67
     1
  8
AM_VIS
100
AcDbLine
 10
456.4877007891438
 20
357.2126898143235
 30
0.0
 11
456.4877007891438
 21
370.777349780574
 31
0.0
  0
ARC
  5
1B9E
330
D
100
AcDbEntity
 67
     1
  8
AM_VIS
100
AcDbCircle
 10
466.9877007891439
 20
363.9950197974488
 30
0.0
 40
12.5
100
AcDbArc
 50
147.1401196211107
 51
163.739795291693
  0
ARC
  5
1B9F
330
D
100
AcDbEntity
 67
     1
  8
AM_VIS
100
AcDbCircle
 10
466.9877007891439
 20
363.9950197974488
 30
0.0
 40
12.5
100
AcDbArc
 50
196.260204708307
 51
212.8598803788893
  0
SPLINE
  5
1BA0
330
D
100
AcDbEntity
 67
     1
  8
AM_VIS
100
AcDbSpline
210
0.0
220
0.0
230
1.0
 70
     8
 71
     3
 72
    28
 73
    24
 74
     0
 42
0.0000000001
 43
0.0000000001
 40
0.0
 40
0.0
 40
0.0
 40
0.0
 40
1.362328495142536
 40
1.362328495142536
 40
2.724656990285072
 40
2.724656990285072
 40
4.086985485427607
 40
4.086985485427607
 40
4.768149732998876
 40
4.768149732998876
 40
5.449313980570144
 40
5.449313980570144
 40
6.008021713289322
 40
6.008021713289322
 40
6.566729446008499
 40
6.566729446008499
 40
6.753169545530905
 40
6.753169545530905
 40
6.939609645053311
 40
6.939609645053311
 40
7.104190868574994
 40
7.104190868574994
 40
7.268772092096678
 40
7.268772092096678
 40
7.268772092096678
 40
7.268772092096678
 10
466.4877007891439
 20
363.9950197974488
 30
0.0
 10
466.4877007891439
 20
363.540910299068
 30
0.0
 10
466.4885196926042
 20
363.0650744746498
 30
0.0
 10
466.4823855745371
 20
362.0966468509341
 30
0.0
 10
466.4752708645316
 20
361.6040560825369
 30
0.0
 10
466.4243664617829
 20
360.6289385926404
 30
0.0
 10
466.3804788032114
 20
360.1470202336943
 30
0.0
 10
466.2564410781294
 20
359.4521192114192
 30
0.0
 10
466.2053687508857
 20
359.225222430884
 30
0.0
 10
466.07650908546
 20
358.7842756509843
 30
0.0
 10
465.9989242918832
 20
358.5701664864327
 30
0.0
 10
465.8223444034075
 20
358.1964972306608
 30
0.0
 10
465.721408712259
 20
358.0185901987069
 30
0.0
 10
465.4787458491557
 20
357.6967624845545
 30
0.0
 10
465.3365266703594
 20
357.5532130779258
 30
0.0
 10
465.1332238884152
 20
357.4105179477517
 30
0.0
 10
465.0751068851885
 20
357.3746802455876
 30
0.0
 10
464.9539438387072
 20
357.3128548325757
 30
0.0
 10
464.8908644973944
 20
357.2869323996851
 30
0.0
 10
464.779544104595
 20
357.250898618383
 30
0.0
 10
464.7211040272252
 20
357.2362602474671
 30
0.0
 10
464.6026145542146
 20
357.2171435639826
 30
0.0
 10
464.5425611969844
 20
357.2126898143235
 30
0.0
 10
464.4877007891438
 20
357.2126898143235
 30
0.0
  0
SPLINE
  5
1BA1
330
D
100
AcDbEntity
 67
     1
  8
AM_VIS
100
AcDbSpline
210
0.0
220
0.0
230
1.0
 70
     8
 71
     3
 72
    28
 73
    24
 74
     0
 42
0.0000000001
 43
0.0000000001
 40
-7.268772092096675
 40
-7.268772092096675
 40
-7.268772092096675
 40
-7.268772092096675
 40
-7.104190868574992
 40
-7.104190868574992
 40
-6.939609645053309
 40
-6.939609645053309
 40
-6.753169545530901
 40
-6.753169545530901
 40
-6.566729446008498
 40
-6.566729446008498
 40
-6.00802171328932
 40
-6.00802171328932
 40
-5.449313980570142
 40
-5.449313980570142
 40
-4.768149732998871
 40
-4.768149732998871
 40
-4.086985485427604
 40
-4.086985485427604
 40
-2.724656990285069
 40
-2.724656990285069
 40
-1.362328495142534
 40
-1.362328495142534
 40
0.0
 40
0.0
 40
0.0
 40
0.0
 10
464.4877007891438
 20
370.7773497805741
 30
0.0
 10
464.5425611969844
 20
370.7773497805741
 30
0.0
 10
464.6026145542146
 20
370.7728960309149
 30
0.0
 10
464.7211040272252
 20
370.7537793474304
 30
0.0
 10
464.779544104595
 20
370.7391409765147
 30
0.0
 10
464.8908644973944
 20
370.7031071952124
 30
0.0
 10
464.9539438387072
 20
370.6771847623219
 30
0.0
 10
465.0751068851885
 20
370.61535934931
 30
0.0
 10
465.1332238884152
 20
370.5795216471458
 30
0.0
 10
465.3365266703594
 20
370.4368265169719
 30
0.0
 10
465.4787458491557
 20
370.2932771103432
 30
0.0
 10
465.721408712259
 20
369.9714493961908
 30
0.0
 10
465.8223444034075
 20
369.7935423642368
 30
0.0
 10
465.9989242918832
 20
369.4198731084648
 30
0.0
 10
466.07650908546
 20
369.2057639439132
 30
0.0
 10
466.2053687508857
 20
368.7648171640136
 30
0.0
 10
466.2564410781294
 20
368.5379203834783
 30
0.0
 10
466.3804788032114
 20
367.8430193612034
 30
0.0
 10
466.4243664617829
 20
367.3611010022572
 30
0.0
 10
466.4752708645316
 20
366.3859835123608
 30
0.0
 10
466.4823855745371
 20
365.8933927439634
 30
0.0
 10
466.4885196926042
 20
364.9249651202477
 30
0.0
 10
466.4877007891439
 20
364.4491292958296
 30
0.0
 10
466.4877007891439
 20
363.9950197974488
 30
0.0
  0
LINE
  5
1BA2
330
D
100
AcDbEntity
 67
     1
  8
AM_VIS
100
AcDbLine
 10
454.9877007891435
 20
375.995019797449
 30
0.0
 11
456.4877007891438
 21
374.4950197974488
 31
0.0
  0
LINE
  5
1BA3
330
D
100
AcDbEntity
 67
     1
  8
AM_VIS
100
AcDbLine
 10
456.4877007891438
 20
353.4950197974488
 30
0.0
 11
454.9877007891434
 21
351.9950197974484
 31
0.0
  0
LINE
  5
1BA4
330
D
100
AcDbEntity
 67
     1
  8
AM_VIS
100
AcDbLine
 10
464.4877007891438
 20
374.4950197974488
 30
0.0
 11
466.4885196926042
 21
374.4950197974488
 31
0.0
  0
LINE
  5
1BA5
330
D
100
AcDbEntity
 67
     1
  8
AM_VIS
100
AcDbLine
 10
464.4877007891438
 20
374.4950197974488
 30
0.0
 11
456.4877007891438
 21
374.4950197974488
 31
0.0
  0
LINE
  5
1BA6
330
D
100
AcDbEntity
 67
     1
  8
AM_VIS
100
AcDbLine
 10
464.4877007891438
 20
353.4950197974488
 30
0.0
 11
466.4885196926042
 21
353.4950197974488
 31
0.0
  0
LINE
  5
1BA7
330
D
100
AcDbEntity
 67
     1
  8
AM_VIS
100
AcDbLine
 10
456.4877007891438
 20
353.4950197974488
 30
0.0
 11
464.4877007891438
 21
353.4950197974488
 31
0.0
  0
LINE
  5
1BA8
330
D
100
AcDbEntity
 67
     1
  8
AM_VIS
100
AcDbLine
 10
495.2877007891438
 20
378.9950197974488
 30
0.0
 11
487.6877007891438
 21
378.9950197974488
 31
0.0
  0
LINE
  5
1BA9
330
D
100
AcDbEntity
 67
     1
  8
AM_VIS
100
AcDbLine
 10
495.2877007891438
 20
363.9950197974488
 30
0.0
 11
487.6877007891438
 21
363.9950197974488
 31
0.0
  0
LINE
  5
1BAA
330
D
100
AcDbEntity
 67
     1
  8
AM_VIS
100
AcDbLine
 10
496.4877007891439
 20
354.1519448946768
 30
0.0
 11
496.4877007891439
 21
358.8380947002208
 31
0.0
  0
LINE
  5
1BAB
330
D
100
AcDbEntity
 67
     1
  8
AM_VIS
100
AcDbLine
 10
496.4877007891439
 20
369.1519448946767
 30
0.0
 11
496.4877007891439
 21
373.8380947002207
 31
0.0
  0
LINE
  5
1BAC
330
D
100
AcDbEntity
 67
     1
  8
AM_VIS
100
AcDbLine
 10
495.2877007891438
 20
348.9950197974488
 30
0.0
 11
487.6877007891438
 21
348.9950197974488
 31
0.0
  0
LINE
  5
1BAD
330
D
100
AcDbEntity
 67
     1
  8
AM_VIS
100
AcDbLine
 10
486.4877007891439
 20
358.8380947002207
 30
0.0
 11
486.4877007891439
 21
354.151944894677
 31
0.0
  0
LINE
  5
1BAE
330
D
100
AcDbEntity
 67
     1
  8
AM_VIS
100
AcDbLine
 10
486.4877007891439
 20
373.8380947002206
 30
0.0
 11
486.4877007891439
 21
369.1519448946769
 31
0.0
  0
SPLINE
  5
1BAF
330
D
100
AcDbEntity
 67
     1
  8
AM_VIS
100
AcDbSpline
210
0.0
220
0.0
230
1.0
 70
    12
 71
     2
 72
     6
 73
     3
 74
     0
 42
0.0000000001
 43
0.0000000001
 40
0.0
 40
0.0
 40
0.0
 40
6.080551719329658
 40
6.080551719329658
 40
6.080551719329658
 10
496.4877007891439
 20
373.8380947002205
 30
0.0
 41
1.0
 10
496.2020492106383
 20
376.2519745329661
 30
0.0
 41
1.0171520709774
 10
495.2877007891438
 20
378.9950197974488
 30
0.0
 41
1.0
  0
LINE
  5
1BB0
330
D
100
AcDbEntity
 67
     1
  8
AM_VIS
100
AcDbLine
 10
495.2877007891438
 20
378.9950197974488
 30
0.0
 11
496.4877007891439
 21
378.9950197974488
 31
0.0
  0
SPLINE
  5
1BB1
330
D
100
AcDbEntity
 67
     1
  8
AM_VIS
100
AcDbSpline
210
0.0
220
0.0
230
1.0
 70
    12
 71
     2
 72
     6
 73
     3
 74
     0
 42
0.0000000001
 43
0.0000000001
 40
0.0
 40
0.0
 40
0.0
 40
6.080551719329658
 40
6.080551719329658
 40
6.080551719329658
 10
495.2877007891438
 20
363.9950197974487
 30
0.0
 41
1.0
 10
496.202049210638
 20
366.7380650619309
 30
0.0
 41
1.017152070977405
 10
496.4877007891439
 20
369.1519448946769
 30
0.0
 41
1.0
  0
SPLINE
  5
1BB2
330
D
100
AcDbEntity
 67
     1
  8
AM_VIS
100
AcDbSpline
210
0.0
220
0.0
230
1.0
 70
    12
 71
     2
 72
     6
 73
     3
 74
     0
 42
0.0000000001
 43
0.0000000001
 40
0.0
 40
0.0
 40
0.0
 40
6.080551719329661
 40
6.080551719329661
 40
6.080551719329661
 10
496.4877007891439
 20
358.8380947002206
 30
0.0
 41
1.0
 10
496.2020492106384
 20
361.2519745329661
 30
0.0
 41
1.017152070977394
 10
495.2877007891438
 20
363.9950197974489
 30
0.0
 41
1.0
  0
SPLINE
  5
1BB3
330
D
100
AcDbEntity
 67
     1
  8
AM_VIS
100
AcDbSpline
210
0.0
220
0.0
230
1.0
 70
    12
 71
     2
 72
     6
 73
     3
 74
     0
 42
0.0000000001
 43
0.0000000001
 40
0.0
 40
0.0
 40
0.0
 40
6.080551719329665
 40
6.080551719329665
 40
6.080551719329665
 10
495.2877007891438
 20
348.9950197974488
 30
0.0
 41
1.0
 10
496.2020492106381
 20
351.7380650619301
 30
0.0
 41
1.017152070977386
 10
496.4877007891439
 20
354.151944894677
 30
0.0
 41
1.0
  0
LINE
  5
1BB4
330
D
100
AcDbEntity
 67
     1
  8
AM_VIS
100
AcDbLine
 10
495.2877007891438
 20
348.9950197974488
 30
0.0
 11
496.4877007891439
 21
348.9950197974488
 31
0.0
  0
SPLINE
  5
1BB5
330
D
100
AcDbEntity
 67
     1
  8
AM_VIS
100
AcDbSpline
210
0.0
220
0.0
230
1.0
 70
    12
 71
     2
 72
     6
 73
     3
 74
     0
 42
0.0000000001
 43
0.0000000001
 40
0.0
 40
0.0
 40
0.0
 40
6.080551719329754
 40
6.080551719329754
 40
6.080551719329754
 10
486.4877007891439
 20
369.1519448946771
 30
0.0
 41
1.0
 10
486.7733523676492
 20
366.7380650619312
 30
0.0
 41
1.017152070977422
 10
487.6877007891439
 20
363.9950197974488
 30
0.0
 41
1.0
  0
SPLINE
  5
1BB6
330
D
100
AcDbEntity
 67
     1
  8
AM_VIS
100
AcDbSpline
210
0.0
220
0.0
230
1.0
 70
    12
 71
     2
 72
     6
 73
     3
 74
     0
 42
0.0000000001
 43
0.0000000001
 40
0.0
 40
0.0
 40
0.0
 40
6.08055171932976
 40
6.08055171932976
 40
6.08055171932976
 10
487.6877007891439
 20
363.9950197974489
 30
0.0
 41
1.0
 10
486.7733523676492
 20
361.2519745329659
 30
0.0
 41
1.017152070977707
 10
486.4877007891439
 20
358.8380947002205
 30
0.0
 41
1.0
  0
SPLINE
  5
1BB7
330
D
100
AcDbEntity
 67
     1
  8
AM_VIS
100
AcDbSpline
210
0.0
220
0.0
230
1.0
 70
    12
 71
     2
 72
     6
 73
     3
 74
     0
 42
0.0000000001
 43
0.0000000001
 40
0.0
 40
0.0
 40
0.0
 40
6.080551719329754
 40
6.080551719329754
 40
6.080551719329754
 10
487.6877007891439
 20
378.9950197974488
 30
0.0
 41
1.0
 10
486.7733523676498
 20
376.2519745329662
 30
0.0
 41
1.01715207097742
 10
486.4877007891439
 20
373.8380947002204
 30
0.0
 41
1.0
  0
LINE
  5
1BB8
330
D
100
AcDbEntity
 67
     1
  8
AM_VIS
100
AcDbLine
 10
486.4877007891439
 20
378.9950197974488
 30
0.0
 11
487.6877007891439
 21
378.9950197974488
 31
0.0
  0
SPLINE
  5
1BB9
330
D
100
AcDbEntity
 67
     1
  8
AM_VIS
100
AcDbSpline
210
0.0
220
0.0
230
1.0
 70
    12
 71
     2
 72
     6
 73
     3
 74
     0
 42
0.0000000001
 43
0.0000000001
 40
0.0
 40
0.0
 40
0.0
 40
6.080551719329752
 40
6.080551719329752
 40
6.080551719329752
 10
486.4877007891439
 20
354.1519448946772
 30
0.0
 41
1.0
 10
486.7733523676498
 20
351.7380650619318
 30
0.0
 41
1.01715207097741
 10
487.6877007891439
 20
348.9950197974488
 30
0.0
 41
1.0
  0
LINE
  5
1BBA
330
D
100
AcDbEntity
 67
     1
  8
AM_VIS
100
AcDbLine
 10
486.4877007891439
 20
348.9950197974488
 30
0.0
 11
487.6877007891439
 21
348.9950197974488
 31
0.0
  0
LINE
  5
1BBB
330
D
100
AcDbEntity
 67
     1
  8
AM_VIS
100
AcDbLine
 10
466.4877007891439
 20
353.9950197974488
 30
0.0
 11
486.4877007891439
 21
353.9950197974488
 31
0.0
  0
LINE
  5
1BBC
330
D
100
AcDbEntity
 67
     1
  8
AM_VIS
100
AcDbLine
 10
466.4877007891439
 20
373.9950197974488
 30
0.0
 11
486.4877007891439
 21
373.9950197974488
 31
0.0
  0
LINE
  5
1BBD
330
D
100
AcDbEntity
 67
     1
  8
AM_VIS
100
AcDbLine
 10
506.4877007891438
 20
372.4950197974488
 30
0.0
 11
504.9877007891439
 21
373.9950197974488
 31
0.0
  0
LINE
  5
1BBE
330
D
100
AcDbEntity
 67
     1
  8
AM_VIS
100
AcDbLine
 10
506.4877007891438
 20
355.4950197974488
 30
0.0
 11
504.9877007891439
 21
353.9950197974488
 31
0.0
  0
LINE
  5
1BBF
330
D
100
AcDbEntity
 67
     1
  8
AM_VIS
100
AcDbLine
 10
496.4877007891439
 20
353.9950197974488
 30
0.0
 11
504.9877007891439
 21
353.9950197974488
 31
0.0
  0
LINE
  5
1BC0
330
D
100
AcDbEntity
 67
     1
  8
AM_VIS
100
AcDbLine
 10
496.4877007891439
 20
373.9950197974488
 30
0.0
 11
504.9877007891439
 21
373.9950197974488
 31
0.0
  0
LINE
  5
1BC1
330
D
100
AcDbEntity
 67
     1
  8
AM_VIS
100
AcDbLine
 10
466.4877007891439
 20
363.9950197974488
 30
0.0
 11
466.4877007891439
 21
353.4950197974488
 31
0.0
  0
LINE
  5
1BC2
330
D
100
AcDbEntity
 67
     1
  8
AM_VIS
100
AcDbLine
 10
466.4877007891439
 20
374.4950197974488
 30
0.0
 11
466.4877007891439
 21
363.9950197974488
 31
0.0
  0
LINE
  5
1BC3
330
D
100
AcDbEntity
 67
     1
  8
AM_VIS
100
AcDbLine
 10
506.4877007891438
 20
372.4950197974488
 30
0.0
 11
506.4877007891438
 21
355.4950197974488
 31
0.0
  0
LINE
  5
1BC4
330
D
100
AcDbEntity
 67
     1
  8
AM_VIS
100
AcDbLine
 10
504.9877007891439
 20
353.9950197974488
 30
0.0
 11
504.9877007891439
 21
373.9950197974488
 31
0.0
  0
LINE
  5
1BC5
330
D
100
AcDbEntity
 67
     1
  8
AM_VIS
100
AcDbLine
 10
496.4877007891439
 20
373.8380947002207
 30
0.0
 11
496.4877007891439
 21
378.9950197974488
 31
0.0
  0
LINE
  5
1BC6
330
D
100
AcDbEntity
 67
     1
  8
AM_VIS
100
AcDbLine
 10
496.4877007891439
 20
358.8380947002208
 30
0.0
 11
496.4877007891439
 21
369.1519448946767
 31
0.0
  0
LINE
  5
1BC7
330
D
100
AcDbEntity
 67
     1
  8
AM_VIS
100
AcDbLine
 10
496.4877007891439
 20
348.9950197974488
 30
0.0
 11
496.4877007891439
 21
354.1519448946768
 31
0.0
  0
LINE
  5
1BC8
330
D
100
AcDbEntity
 67
     1
  8
AM_VIS
100
AcDbLine
 10
486.4877007891439
 20
369.1519448946769
 30
0.0
 11
486.4877007891439
 21
358.8380947002206
 31
0.0
  0
LINE
  5
1BC9
330
D
100
AcDbEntity
 67
     1
  8
AM_VIS
100
AcDbLine
 10
486.4877007891439
 20
378.9950197974488
 30
0.0
 11
486.4877007891439
 21
373.8380947002206
 31
0.0
  0
LINE
  5
1BCA
330
D
100
AcDbEntity
 67
     1
  8
AM_VIS
100
AcDbLine
 10
486.4877007891439
 20
354.151944894677
 30
0.0
 11
486.4877007891439
 21
348.9950197974488
 31
0.0
  0
LINE
  5
1BCB
330
D
100
AcDbEntity
 67
     1
  8
AM_VIS
100
AcDbLine
 10
310.4877007891439
 20
411.4950197974487
 30
0.0
 11
310.4877007891439
 21
316.4950197974488
 31
0.0
  0
DIMENSION
  5
1C2F
330
D
100
AcDbEntity
 67
     1
  8
AM_5
100
AcDbDimension
  2
*D6
 10
466.4877007891438
 20
65.26244163683282
 30
0.0
 11
486.4877007891438
 21
70.76244163683282
 31
0.0
 70
    32
 71
     5
 42
40.0
  3
AM_ISO$0
100
AcDbAlignedDimension
 13
506.4877007891438
 23
168.5453177293905
 33
0.0
 14
466.4877007891438
 24
167.0453177293905
 34
0.0
100
AcDbRotatedDimension
1001
ACAD
1000
DSTYLE
1002
{
1070
    40
1040
2.0
1002
}
  0
DIMENSION
  5
1C30
330
D
100
AcDbEntity
 67
     1
  8
AM_5
100
AcDbDimension
  2
*D7
 10
466.4877007891439
 20
81.5540255771207
 30
0.0
 11
443.4877007891438
 21
87.05402557712071
 31
0.0
 70
    32
 71
     5
 42
46.0
  3
AM_ISO$0
100
AcDbAlignedDimension
 13
420.4877007891439
 23
129.5453177293905
 33
0.0
 14
466.4877007891439
 24
166.5453177293905
 34
0.0
100
AcDbRotatedDimension
1001
ACAD
1000
DSTYLE
1002
{
1070
    40
1040
2.0
1002
}
  0
DIMENSION
  5
1C31
330
D
100
AcDbEntity
 67
     1
  8
AM_5
100
AcDbDimension
  2
*D8
 10
310.4877007891439
 20
81.26244163683308
 30
0.0
 11
365.4877007891439
 21
86.76244163683307
 31
0.0
 70
    32
 71
     5
 42
110.0
  3
AM_ISO$0
100
AcDbAlignedDimension
 13
420.4877007891439
 23
129.5453177293905
 33
0.0
 14
310.4877007891439
 24
129.5453177293905
 34
0.0
100
AcDbRotatedDimension
1001
ACAD
1000
DSTYLE
1002
{
1070
    40
1040
2.0
1070
   140
1040
3.5
1002
}
  0
DIMENSION
  5
1C32
330
D
100
AcDbEntity
 67
     1
  8
AM_5
100
AcDbDimension
  2
*D9
 10
182.4877007891439
 20
81.6694474909157
 30
0.0
 11
246.4877007891439
 21
87.17013646729366
 31
0.0
 70
    32
  1
<>+Stroke
 71
     5
 42
128.0
  3
AM_ISO$0
100
AcDbAlignedDimension
 13
310.4877007891439
 23
129.5453177293905
 33
0.0
 14
182.4877007891439
 24
129.5453177293905
 34
0.0
100
AcDbRotatedDimension
1001
ACAD
1000
DSTYLE
1002
{
1070
    40
1040
2.0
1070
   140
1040
3.5
1002
}
  0
DIMENSION
  5
1C33
330
D
100
AcDbEntity
 67
     1
  8
AM_5
100
AcDbDimension
  2
*D10
 10
182.4877007891439
 20
81.6694474909157
 30
0.0
 11
160.7377007891439
 21
81.6694474909157
 31
0.0
 70
   160
 71
     5
 42
4.0
  3
AM_ISO$0
100
AcDbAlignedDimension
 13
178.4877007891439
 23
155.5453177293905
 33
0.0
 14
182.4877007891439
 24
129.5453177293905
 34
0.0
100
AcDbRotatedDimension
1001
ACAD
1000
DSTYLE
1002
{
1070
    40
1040
2.0
1002
}
  0
DIMENSION
  5
1C34
330
D
100
AcDbEntity
 67
     1
  8
AM_5
100
AcDbDimension
  2
*D11
 10
466.4885196926042
 20
65.26244163683282
 30
0.0
 11
324.488110240874
 21
70.76313061321077
 31
0.0
 70
    32
  1
<>+Stroke
 71
     5
 42
284.0008189034603
  3
AM_ISO$0
100
AcDbAlignedDimension
 13
182.4877007891439
 23
129.5453177293905
 33
0.0
 14
466.4885196926042
 24
166.5453177293905
 34
0.0
100
AcDbRotatedDimension
1001
ACAD
1000
DSTYLE
1002
{
1070
    40
1040
2.0
1070
   140
1040
3.5
1002
}
  0
DIMENSION
  5
1C35
330
D
100
AcDbEntity
 67
     1
  8
AM_5
100
AcDbDimension
  2
*D12
 10
151.1601516211233
 20
154.5453177293905
 30
0.0
 11
151.1601516211233
 21
177.0453177293905
 31
0.0
 70
   160
  1
%%c<>
 71
     5
 42
45.0
  3
AM_ISO$0
100
AcDbAlignedDimension
 13
179.4877007891439
 23
199.5453177293905
 33
0.0
 14
179.4877007891439
 24
154.5453177293905
 34
0.0
 50
90.0
100
AcDbRotatedDimension
1001
ACAD
1000
DSTYLE
1002
{
1070
    40
1040
2.0
1002
}
  0
DIMENSION
  5
1C36
330
D
100
AcDbEntity
 67
     1
  8
AM_5
100
AcDbDimension
  2
*D13
 10
524.0798742396477
 20
164.5453177293905
 30
0.0
 11
518.5791852632697
 21
177.0453177293906
 31
0.0
 70
    32
  1
%%c<>
 71
     5
 42
25.0
  3
AM_ISO$0
100
AcDbAlignedDimension
 13
454.4877007891439
 23
189.5453177293905
 33
0.0
 14
454.4877007891439
 24
164.5453177293905
 34
0.0
 50
90.0
100
AcDbRotatedDimension
1001
ACAD
1000
DSTYLE
1002
{
1070
    40
1040
2.0
1002
}
  0
DIMENSION
  5
1C37
330
D
100
AcDbEntity
 67
     1
  8
AM_5
100
AcDbDimension
  2
*D14
 10
539.0420839129733
 20
154.5453177293905
 30
0.0
 11
533.5420839129733
 21
177.0453177293906
 31
0.0
 70
    32
  1
%%c<>
 71
     5
 42
45.0
  3
AM_ISO$0
100
AcDbAlignedDimension
 13
430.4877007891438
 23
199.5453177293905
 33
0.0
 14
430.4877007891438
 24
154.5453177293905
 34
0.0
 50
90.0
100
AcDbRotatedDimension
1001
ACAD
1000
DSTYLE
1002
{
1070
    40
1040
2.0
1002
}
  0
LINE
  5
1C3A
330
D
100
AcDbEntity
 67
     1
  8
SL
  6
ACISOTGB
100
AcDbLine
 10
244.7910950624552
 20
295.4972873916828
 30
0.0
 11
244.7910950624553
 21
432.6658911111322
 31
0.0
  0
INSERT
  5
1C3B
330
D
100
AcDbEntity
 67
     1
  8
0
100
AcDbBlockReference
  2
A$C453B67D5
 10
243.6164136511471
 20
436.3777108548055
 30
0.0
 41
1.5
 42
1.5
 43
1.5
  0
INSERT
  5
1C3C
330
D
100
AcDbEntity
 67
     1
  8
0
100
AcDbBlockReference
  2
A$C17481420
 10
244.7910956762136
 20
430.223331953423
 30
0.0
 41
1.5
 42
1.5
 43
1.5
  0
LEADER
  5
1C41
330
D
100
AcDbEntity
 67
     1
  8
AM_5
100
AcDbLeader
  3
AM_ISO$7
 76
     3
 10
501.2474690476519
 20
187.0453177293905
 30
0.0
 10
521.6128911206519
 20
220.4995695300913
 30
0.0
 10
556.3397273005225
 20
220.4995695300913
 30
0.0
1001
ACAD
1000
DSTYLE
1002
{
1070
   147
1040
1.5
1070
    77
1070
     0
1070
    40
1040
2.0
1070
   140
1040
3.5
1002
}
  0
TEXT
  5
1C42
330
D
100
AcDbEntity
 67
     1
  8
AM_5
100
AcDbText
 10
524.2499031624417
 20
223.254214547639
 30
0.0
 40
7.0
  1
M20*1.5
100
AcDbText
  0
LEADER
  5
1C46
330
D
100
AcDbEntity
 67
     1
  8
AM_5
100
AcDbLeader
  3
AM_ISO$7
 76
     3
 10
206.2793602094282
 20
162.5453177293905
 30
0.0
 10
221.0684960387653
 20
108.6539596796363
 30
0.0
 10
248.0314256999486
 20
108.6539596796363
 30
0.0
1001
ACAD
1000
DSTYLE
1002
{
1070
    40
1040
2.0
1070
   140
1040
3.5
1070
   147
1040
1.0
1002
}
  0
TEXT
  5
1C47
330
D
100
AcDbEntity
 67
     1
  8
AM_5
100
AcDbText
 10
223.9779341389899
 20
110.3580472596102
 30
0.0
 40
7.0
  1
2-G3/8
100
AcDbText
  0
DIMENSION
  5
1C48
330
D
100
AcDbEntity
 67
     1
  8
AM_5
100
AcDbDimension
  2
*D15
 10
420.4877007891439
 20
110.8122812400675
 30
0.0
 11
425.4877007891439
 21
110.8122812400675
 31
0.0
 70
   160
 71
     5
 42
10.0
  3
AM_ISO$0
100
AcDbAlignedDimension
 13
430.4877007891438
 23
154.5453177293905
 33
0.0
 14
420.4877007891439
 24
129.5453177293905
 34
0.0
100
AcDbRotatedDimension
1001
ACAD
1000
DSTYLE
1002
{
1070
    40
1040
2.0
1002
}
  0
LINE
  5
1C4D
330
D
100
AcDbEntity
 67
     1
  8
AM_VIS
100
AcDbLine
 10
332.9877007891439
 20
208.0453177293905
 30
0.0
 11
331.9877007891439
 21
208.0453177293905
 31
0.0
  0
LINE
  5
1C4E
330
D
100
AcDbEntity
 67
     1
  8
AM_VIS
100
AcDbLine
 10
331.9877007891439
 20
218.0453177293905
 30
0.0
 11
332.9877007891439
 21
218.0453177293905
 31
0.0
  0
LINE
  5
1C4F
330
D
100
AcDbEntity
 67
     1
  8
AM_VIS
100
AcDbLine
 10
334.4877007891439
 20
209.5453177293905
 30
0.0
 11
332.9877007891439
 21
208.0453177293905
 31
0.0
  0
LINE
  5
1C50
330
D
100
AcDbEntity
 67
     1
  8
AM_VIS
100
AcDbLine
 10
332.9877007891439
 20
218.0453177293905
 30
0.0
 11
334.4877007891439
 21
216.5453177293905
 31
0.0
  0
LINE
  5
1C51
330
D
100
AcDbEntity
 67
     1
  8
AM_VIS
100
AcDbLine
 10
324.9877007891439
 20
203.2545608985831
 30
0.0
 11
322.4877007891439
 21
203.2545608985831
 31
0.0
  0
LINE
  5
1C52
330
D
100
AcDbEntity
 67
     1
  8
AM_VIS
100
AcDbLine
 10
322.4877007891439
 20
222.8360745601979
 30
0.0
 11
324.9877007891439
 21
222.8360745601979
 31
0.0
  0
LINE
  5
1C53
330
D
100
AcDbEntity
 67
     1
  8
AM_VIS
100
AcDbLine
 10
331.9877007891439
 20
204.8045608985824
 30
0.0
 11
331.8380266756254
 21
204.5453177293905
 31
0.0
  0
LINE
  5
1C54
330
D
100
AcDbEntity
 67
     1
  8
AM_VIS
100
AcDbLine
 10
331.8380266756254
 20
221.5453177293905
 30
0.0
 11
331.9877007891439
 21
221.2860745601986
 31
0.0
  0
LINE
  5
1C55
330
D
100
AcDbEntity
 67
     1
  8
AM_VIS
100
AcDbLine
 10
325.1373749026625
 20
204.5453177293905
 30
0.0
 11
324.9877007891439
 21
204.8045608985824
 31
0.0
  0
LINE
  5
1C56
330
D
100
AcDbEntity
 67
     1
  8
AM_VIS
100
AcDbLine
 10
324.9877007891439
 20
221.2860745601986
 30
0.0
 11
325.1373749026625
 21
221.5453177293905
 31
0.0
  0
SPLINE
  5
1C57
330
D
100
AcDbEntity
 67
     1
  8
AM_VIS
100
AcDbSpline
210
0.0
220
0.0
230
1.0
 70
    12
 71
     2
 72
     6
 73
     3
 74
     0
 42
0.0000000001
 43
0.0000000001
 40
0.0
 40
0.0
 40
0.0
 40
9.831433341161986
 40
9.831433341161986
 40
9.831433341161986
 10
325.8825937063877
 20
204.587385993965
 30
0.0
 41
1.0
 10
324.4904014417617
 20
208.7953177293905
 30
0.0000000000001137
 41
1.151853744800842
 10
325.8825937063877
 20
213.0032494648161
 30
0.0
 41
1.0
  0
LINE
  5
1C58
330
D
100
AcDbEntity
 67
     1
  8
AM_VIS
100
AcDbLine
 10
325.8825937063877
 20
213.0032494648161
 30
0.0
 11
331.092807871901
 21
213.0032494648161
 31
0.0
  0
SPLINE
  5
1C59
330
D
100
AcDbEntity
 67
     1
  8
AM_VIS
100
AcDbSpline
210
0.0
220
0.0
230
1.0
 70
    12
 71
     2
 72
     6
 73
     3
 74
     0
 42
0.0000000001
 43
0.0000000001
 40
0.0
 40
0.0
 40
0.0
 40
9.83143334116132
 40
9.83143334116132
 40
9.83143334116132
 10
331.092807871901
 20
213.0032494648161
 30
0.0
 41
1.0
 10
332.4850001365258
 20
208.7953177293906
 30
-0.0000000000001137
 41
1.151853744800903
 10
331.092807871901
 20
204.5873859939652
 30
0.0
 41
1.0
  0
LINE
  5
1C5A
330
D
100
AcDbEntity
 67
     1
  8
AM_VIS
100
AcDbLine
 10
331.092807871901
 20
204.587385993965
 30
0.0
 11
325.8825937063877
 21
204.587385993965
 31
0.0
  0
LINE
  5
1C5B
330
D
100
AcDbEntity
 67
     1
  8
AM_VIS
100
AcDbLine
 10
331.092807871901
 20
204.5453177293905
 30
0.0
 11
331.8380266756254
 21
204.5453177293905
 31
0.0
  0
LINE
  5
1C5C
330
D
100
AcDbEntity
 67
     1
  8
AM_VIS
100
AcDbLine
 10
325.1373749026625
 20
204.5453177293905
 30
0.0
 11
325.8825937063877
 21
204.5453177293905
 31
0.0
  0
LINE
  5
1C5D
330
D
100
AcDbEntity
 67
     1
  8
AM_VIS
100
AcDbLine
 10
325.8825937063877
 20
204.5453177293905
 30
0.0
 11
331.092807871901
 21
204.5453177293905
 31
0.0
  0
LINE
  5
1C5E
330
D
100
AcDbEntity
 67
     1
  8
AM_VIS
100
AcDbLine
 10
325.1373749026624
 20
221.5453177293905
 30
0.0
 11
325.8825937063877
 21
221.5453177293905
 31
0.0
  0
LINE
  5
1C5F
330
D
100
AcDbEntity
 67
     1
  8
AM_VIS
100
AcDbLine
 10
331.092807871901
 20
221.5453177293905
 30
0.0
 11
331.8380266756254
 21
221.5453177293905
 31
0.0
  0
LINE
  5
1C60
330
D
100
AcDbEntity
 67
     1
  8
AM_VIS
100
AcDbLine
 10
331.092807871901
 20
221.5453177293905
 30
0.0
 11
325.8825937063877
 21
221.5453177293905
 31
0.0
  0
SPLINE
  5
1C61
330
D
100
AcDbEntity
 67
     1
  8
AM_VIS
100
AcDbSpline
210
0.0
220
0.0
230
1.0
 70
    12
 71
     2
 72
     6
 73
     3
 74
     0
 42
0.0000000001
 43
0.0000000001
 40
0.0
 40
0.0
 40
0.0
 40
9.831433341161975
 40
9.831433341161975
 40
9.831433341161975
 10
325.8825937063877
 20
213.087385993965
 30
0.0
 41
1.0
 10
324.4904014417617
 20
217.2953177293905
 30
0.0000000000001137
 41
1.151853744800842
 10
325.8825937063877
 20
221.503249464816
 30
0.0
 41
1.0
  0
LINE
  5
1C62
330
D
100
AcDbEntity
 67
     1
  8
AM_VIS
100
AcDbLine
 10
325.8825937063877
 20
221.503249464816
 30
0.0
 11
331.092807871901
 21
221.503249464816
 31
0.0
  0
SPLINE
  5
1C63
330
D
100
AcDbEntity
 67
     1
  8
AM_VIS
100
AcDbSpline
210
0.0
220
0.0
230
1.0
 70
    12
 71
     2
 72
     6
 73
     3
 74
     0
 42
0.0000000001
 43
0.0000000001
 40
0.0
 40
0.0
 40
0.0
 40
9.831433341161311
 40
9.831433341161311
 40
9.831433341161311
 10
331.092807871901
 20
221.5032494648158
 30
0.0
 41
1.0
 10
332.4850001365255
 20
217.2953177293905
 30
0.0
 41
1.151853744800855
 10
331.092807871901
 20
213.087385993965
 30
0.0
 41
1.0
  0
LINE
  5
1C64
330
D
100
AcDbEntity
 67
     1
  8
AM_VIS
100
AcDbLine
 10
331.092807871901
 20
213.087385993965
 30
0.0
 11
325.8825937063877
 21
213.087385993965
 31
0.0
  0
LINE
  5
1C65
330
D
100
AcDbEntity
 67
     1
  8
AM_VIS
100
AcDbLine
 10
332.9877007891439
 20
136.0453177293905
 30
0.0
 11
331.9877007891439
 21
136.0453177293905
 31
0.0
  0
LINE
  5
1C66
330
D
100
AcDbEntity
 67
     1
  8
AM_VIS
100
AcDbLine
 10
331.9877007891439
 20
146.0453177293905
 30
0.0
 11
332.9877007891439
 21
146.0453177293905
 31
0.0
  0
LINE
  5
1C67
330
D
100
AcDbEntity
 67
     1
  8
AM_VIS
100
AcDbLine
 10
334.4877007891439
 20
137.5453177293905
 30
0.0
 11
332.9877007891439
 21
136.0453177293905
 31
0.0
  0
LINE
  5
1C68
330
D
100
AcDbEntity
 67
     1
  8
AM_VIS
100
AcDbLine
 10
332.9877007891439
 20
146.0453177293905
 30
0.0
 11
334.4877007891439
 21
144.5453177293905
 31
0.0
  0
LINE
  5
1C69
330
D
100
AcDbEntity
 67
     1
  8
AM_VIS
100
AcDbLine
 10
324.9877007891439
 20
131.2545608985831
 30
0.0
 11
322.4877007891439
 21
131.2545608985831
 31
0.0
  0
LINE
  5
1C6A
330
D
100
AcDbEntity
 67
     1
  8
AM_VIS
100
AcDbLine
 10
322.4877007891439
 20
150.8360745601979
 30
0.0
 11
324.9877007891439
 21
150.8360745601979
 31
0.0
  0
LINE
  5
1C6B
330
D
100
AcDbEntity
 67
     1
  8
AM_VIS
100
AcDbLine
 10
331.9877007891439
 20
132.8045608985824
 30
0.0
 11
331.8380266756256
 21
132.5453177293905
 31
0.0
  0
LINE
  5
1C6C
330
D
100
AcDbEntity
 67
     1
  8
AM_VIS
100
AcDbLine
 10
331.8380266756254
 20
149.5453177293905
 30
0.0
 11
331.9877007891439
 21
149.2860745601986
 31
0.0
  0
LINE
  5
1C6D
330
D
100
AcDbEntity
 67
     1
  8
AM_VIS
100
AcDbLine
 10
325.1373749026625
 20
132.5453177293905
 30
0.0
 11
324.9877007891439
 21
132.8045608985824
 31
0.0
  0
LINE
  5
1C6E
330
D
100
AcDbEntity
 67
     1
  8
AM_VIS
100
AcDbLine
 10
324.9877007891439
 20
149.2860745601986
 30
0.0
 11
325.1373749026625
 21
149.5453177293905
 31
0.0
  0
SPLINE
  5
1C6F
330
D
100
AcDbEntity
 67
     1
  8
AM_VIS
100
AcDbSpline
210
0.0
220
0.0
230
1.0
 70
    12
 71
     2
 72
     6
 73
     3
 74
     0
 42
0.0000000001
 43
0.0000000001
 40
0.0
 40
0.0
 40
0.0
 40
9.831433341161989
 40
9.831433341161989
 40
9.831433341161989
 10
325.8825937063877
 20
132.587385993965
 30
0.0
 41
1.0
 10
324.4904014417617
 20
136.7953177293905
 30
0.0000000000001137
 41
1.151853744800842
 10
325.8825937063877
 20
141.003249464816
 30
0.0
 41
1.0
  0
LINE
  5
1C70
330
D
100
AcDbEntity
 67
     1
  8
AM_VIS
100
AcDbLine
 10
325.8825937063877
 20
141.003249464816
 30
0.0
 11
331.092807871901
 21
141.003249464816
 31
0.0
  0
SPLINE
  5
1C71
330
D
100
AcDbEntity
 67
     1
  8
AM_VIS
100
AcDbSpline
210
0.0
220
0.0
230
1.0
 70
    12
 71
     2
 72
     6
 73
     3
 74
     0
 42
0.0000000001
 43
0.0000000001
 40
0.0
 40
0.0
 40
0.0
 40
9.831433341161311
 40
9.831433341161311
 40
9.831433341161311
 10
331.092807871901
 20
141.003249464816
 30
0.0
 41
1.0
 10
332.4850001365258
 20
136.7953177293906
 30
-0.0000000000001137
 41
1.151853744800903
 10
331.092807871901
 20
132.5873859939652
 30
0.0
 41
1.0
  0
LINE
  5
1C72
330
D
100
AcDbEntity
 67
     1
  8
AM_VIS
100
AcDbLine
 10
331.092807871901
 20
132.587385993965
 30
0.0
 11
325.8825937063877
 21
132.587385993965
 31
0.0
  0
LINE
  5
1C73
330
D
100
AcDbEntity
 67
     1
  8
AM_VIS
100
AcDbLine
 10
331.092807871901
 20
132.5453177293905
 30
0.0
 11
331.8380266756254
 21
132.5453177293905
 31
0.0
  0
LINE
  5
1C74
330
D
100
AcDbEntity
 67
     1
  8
AM_VIS
100
AcDbLine
 10
325.1373749026625
 20
132.5453177293905
 30
0.0
 11
325.8825937063877
 21
132.5453177293905
 31
0.0
  0
LINE
  5
1C75
330
D
100
AcDbEntity
 67
     1
  8
AM_VIS
100
AcDbLine
 10
325.8825937063877
 20
132.5453177293905
 30
0.0
 11
331.092807871901
 21
132.5453177293905
 31
0.0
  0
LINE
  5
1C76
330
D
100
AcDbEntity
 67
     1
  8
AM_VIS
100
AcDbLine
 10
325.1373749026625
 20
149.5453177293905
 30
0.0
 11
325.8825937063877
 21
149.5453177293905
 31
0.0
  0
LINE
  5
1C77
330
D
100
AcDbEntity
 67
     1
  8
AM_VIS
100
AcDbLine
 10
331.092807871901
 20
149.5453177293905
 30
0.0
 11
331.8380266756254
 21
149.5453177293905
 31
0.0
  0
LINE
  5
1C78
330
D
100
AcDbEntity
 67
     1
  8
AM_VIS
100
AcDbLine
 10
331.092807871901
 20
149.5453177293905
 30
0.0
 11
325.8825937063877
 21
149.5453177293905
 31
0.0
  0
SPLINE
  5
1C79
330
D
100
AcDbEntity
 67
     1
  8
AM_VIS
100
AcDbSpline
210
0.0
220
0.0
230
1.0
 70
    12
 71
     2
 72
     6
 73
     3
 74
     0
 42
0.0000000001
 43
0.0000000001
 40
0.0
 40
0.0
 40
0.0
 40
9.831433341161979
 40
9.831433341161979
 40
9.831433341161979
 10
325.8825937063877
 20
141.087385993965
 30
0.0
 41
1.0
 10
324.4904014417617
 20
145.2953177293905
 30
0.0000000000001137
 41
1.151853744800842
 10
325.8825937063877
 20
149.503249464816
 30
0.0
 41
1.0
  0
LINE
  5
1C7A
330
D
100
AcDbEntity
 67
     1
  8
AM_VIS
100
AcDbLine
 10
325.8825937063877
 20
149.503249464816
 30
0.0
 11
331.092807871901
 21
149.503249464816
 31
0.0
  0
SPLINE
  5
1C7B
330
D
100
AcDbEntity
 67
     1
  8
AM_VIS
100
AcDbSpline
210
0.0
220
0.0
230
1.0
 70
    12
 71
     2
 72
     6
 73
     3
 74
     0
 42
0.0000000001
 43
0.0000000001
 40
0.0
 40
0.0
 40
0.0
 40
9.83143334116132
 40
9.83143334116132
 40
9.83143334116132
 10
331.092807871901
 20
149.5032494648158
 30
0.0
 41
1.0
 10
332.4850001365255
 20
145.2953177293905
 30
0.0
 41
1.151853744800855
 10
331.092807871901
 20
141.087385993965
 30
0.0
 41
1.0
  0
LINE
  5
1C7C
330
D
100
AcDbEntity
 67
     1
  8
AM_VIS
100
AcDbLine
 10
331.092807871901
 20
141.087385993965
 30
0.0
 11
325.8825937063877
 21
141.087385993965
 31
0.0
  0
LINE
  5
1C7D
330
D
100
AcDbEntity
 67
     1
  8
AM_VIS
100
AcDbLine
 10
456.4877007891438
 20
170.2629877462653
 30
0.0
 11
456.4877007891438
 21
183.8276477125157
 31
0.0
  0
LINE
  5
1C7E
330
D
100
AcDbEntity
 67
     1
  8
AM_VIS
100
AcDbLine
 10
464.4877007891438
 20
166.5453177293905
 30
0.0
 11
466.4885196926042
 21
166.5453177293905
 31
0.0
  0
SPLINE
  5
1C7F
330
D
100
AcDbEntity
 67
     1
  8
AM_VIS
100
AcDbSpline
210
0.0
220
0.0
230
1.0
 70
     8
 71
     3
 72
    28
 73
    24
 74
     0
 42
0.0000000001
 43
0.0000000001
 40
0.0
 40
0.0
 40
0.0
 40
0.0
 40
1.362328495142537
 40
1.362328495142537
 40
2.724656990285075
 40
2.724656990285075
 40
4.086985485427613
 40
4.086985485427613
 40
4.768149732998882
 40
4.768149732998882
 40
5.449313980570151
 40
5.449313980570151
 40
6.008021713289327
 40
6.008021713289327
 40
6.566729446008504
 40
6.566729446008504
 40
6.753169545530909
 40
6.753169545530909
 40
6.939609645053315
 40
6.939609645053315
 40
7.104190868574999
 40
7.104190868574999
 40
7.268772092096682
 40
7.268772092096682
 40
7.268772092096682
 40
7.268772092096682
 10
466.4877007891439
 20
177.0453177293905
 30
0.0
 10
466.4877007891439
 20
176.5912082310097
 30
0.0
 10
466.4885196926042
 20
176.1153724065914
 30
0.0
 10
466.4823855745371
 20
175.1469447828758
 30
0.0
 10
466.4752708645316
 20
174.6543540144785
 30
0.0
 10
466.4243664617829
 20
173.6792365245819
 30
0.0
 10
466.3804788032114
 20
173.197318165636
 30
0.0
 10
466.2564410781294
 20
172.5024171433608
 30
0.0
 10
466.2053687508857
 20
172.2755203628256
 30
0.0
 10
466.07650908546
 20
171.8345735829259
 30
0.0
 10
465.9989242918832
 20
171.6204644183745
 30
0.0
 10
465.8223444034075
 20
171.2467951626024
 30
0.0
 10
465.7214087122591
 20
171.0688881306485
 30
0.0
 10
465.4787458491557
 20
170.7470604164962
 30
0.0
 10
465.3365266703594
 20
170.6035110098674
 30
0.0
 10
465.1332238884152
 20
170.4608158796934
 30
0.0
 10
465.0751068851885
 20
170.4249781775293
 30
0.0
 10
464.9539438387072
 20
170.3631527645173
 30
0.0
 10
464.8908644973944
 20
170.3372303316269
 30
0.0
 10
464.779544104595
 20
170.3011965503247
 30
0.0
 10
464.7211040272252
 20
170.286558179409
 30
0.0
 10
464.6026145542146
 20
170.2674414959242
 30
0.0
 10
464.5425611969844
 20
170.2629877462653
 30
0.0
 10
464.4877007891438
 20
170.2629877462653
 30
0.0
  0
SPLINE
  5
1C80
330
D
100
AcDbEntity
 67
     1
  8
AM_VIS
100
AcDbSpline
210
0.0
220
0.0
230
1.0
 70
     8
 71
     3
 72
    28
 73
    24
 74
     0
 42
0.0000000001
 43
0.0000000001
 40
-7.268772092096682
 40
-7.268772092096682
 40
-7.268772092096682
 40
-7.268772092096682
 40
-7.104190868574999
 40
-7.104190868574999
 40
-6.939609645053316
 40
-6.939609645053316
 40
-6.753169545530909
 40
-6.753169545530909
 40
-6.566729446008505
 40
-6.566729446008505
 40
-6.00802171328933
 40
-6.00802171328933
 40
-5.449313980570153
 40
-5.449313980570153
 40
-4.768149732998885
 40
-4.768149732998885
 40
-4.086985485427614
 40
-4.086985485427614
 40
-2.724656990285076
 40
-2.724656990285076
 40
-1.362328495142538
 40
-1.362328495142538
 40
0.0
 40
0.0
 40
0.0
 40
0.0
 10
464.4877007891438
 20
183.8276477125157
 30
0.0
 10
464.5425611969844
 20
183.8276477125157
 30
0.0
 10
464.6026145542146
 20
183.8231939628565
 30
0.0
 10
464.7211040272252
 20
183.804077279372
 30
0.0
 10
464.779544104595
 20
183.7894389084563
 30
0.0
 10
464.8908644973944
 20
183.7534051271541
 30
0.0
 10
464.9539438387072
 20
183.7274826942635
 30
0.0
 10
465.0751068851885
 20
183.6656572812517
 30
0.0
 10
465.1332238884152
 20
183.6298195790876
 30
0.0
 10
465.3365266703592
 20
183.4871244489136
 30
0.0
 10
465.4787458491557
 20
183.3435750422848
 30
0.0
 10
465.721408712259
 20
183.0217473281325
 30
0.0
 10
465.8223444034075
 20
182.8438402961785
 30
0.0
 10
465.9989242918832
 20
182.4701710404065
 30
0.0
 10
466.07650908546
 20
182.2560618758551
 30
0.0
 10
466.2053687508855
 20
181.8151150959554
 30
0.0
 10
466.2564410781294
 20
181.5882183154199
 30
0.0
 10
466.3804788032114
 20
180.8933172931449
 30
0.0
 10
466.4243664617829
 20
180.4113989341988
 30
0.0
 10
466.4752708645316
 20
179.4362814443025
 30
0.0
 10
466.4823855745371
 20
178.9436906759052
 30
0.0
 10
466.4885196926042
 20
177.9752630521894
 30
0.0
 10
466.4877007891439
 20
177.4994272277713
 30
0.0
 10
466.4877007891439
 20
177.0453177293905
 30
0.0
  0
LINE
  5
1C81
330
D
100
AcDbEntity
 67
     1
  8
AM_VIS
100
AcDbLine
 10
464.4877007891438
 20
187.5453177293905
 30
0.0
 11
466.4885196926042
 21
187.5453177293905
 31
0.0
  0
ARC
  5
1C82
330
D
100
AcDbEntity
 67
     1
  8
AM_VIS
100
AcDbCircle
 10
466.9877007891439
 20
177.0453177293905
 30
0.0
 40
12.5
100
AcDbArc
 50
147.1401196211083
 51
163.7397952916896
  0
ARC
  5
1C83
330
D
100
AcDbEntity
 67
     1
  8
AM_VIS
100
AcDbCircle
 10
466.9877007891439
 20
177.0453177293905
 30
0.0
 40
12.5
100
AcDbArc
 50
196.2602047083103
 51
212.8598803788917
  0
LINE
  5
1C84
330
D
100
AcDbEntity
 67
     1
  8
AM_VIS
100
AcDbLine
 10
464.4877007891438
 20
170.2629877462653
 30
0.0
 11
456.4877007891438
 21
170.2629877462653
 31
0.0
  0
LINE
  5
1C85
330
D
100
AcDbEntity
 67
     1
  8
AM_VIS
100
AcDbLine
 10
456.4877007891438
 20
166.5453177293905
 30
0.0
 11
464.4877007891438
 21
166.5453177293905
 31
0.0
  0
LINE
  5
1C86
330
D
100
AcDbEntity
 67
     1
  8
AM_VIS
100
AcDbLine
 10
456.4877007891438
 20
166.5453177293905
 30
0.0
 11
454.9877007891437
 21
165.0453177293903
 31
0.0
  0
LINE
  5
1C87
330
D
100
AcDbEntity
 67
     1
  8
AM_VIS
100
AcDbLine
 10
454.9877007891437
 20
189.0453177293906
 30
0.0
 11
456.4877007891438
 21
187.5453177293905
 31
0.0
  0
LINE
  5
1C88
330
D
100
AcDbEntity
 67
     1
  8
AM_VIS
100
AcDbLine
 10
464.4877007891438
 20
187.5453177293905
 30
0.0
 11
456.4877007891438
 21
187.5453177293905
 31
0.0
  0
LINE
  5
1C89
330
D
100
AcDbEntity
 67
     1
  8
AM_VIS
100
AcDbLine
 10
456.4877007891438
 20
183.8276477125157
 30
0.0
 11
464.4877007891438
 21
183.8276477125157
 31
0.0
  0
LINE
  5
1C8A
330
D
100
AcDbEntity
 67
     1
  8
AM_VIS
100
AcDbLine
 10
310.4877007891439
 20
224.5453177293905
 30
0.0
 11
310.4877007891439
 21
129.5453177293905
 31
0.0
  0
LINE
  5
1C8B
330
D
100
AcDbEntity
 67
     1
  8
AM_VIS
100
AcDbLine
 10
332.9877007891439
 20
146.0453177293905
 30
0.0
 11
332.9877007891439
 21
136.0453177293905
 31
0.0
  0
LINE
  5
1C8C
330
D
100
AcDbEntity
 67
     1
  8
AM_VIS
100
AcDbLine
 10
332.9877007891439
 20
218.0453177293905
 30
0.0
 11
332.9877007891439
 21
208.0453177293905
 31
0.0
  0
LINE
  5
1C8D
330
D
100
AcDbEntity
 67
     1
  8
AM_VIS
100
AcDbLine
 10
324.9877007891439
 20
222.8360745601979
 30
0.0
 11
324.9877007891439
 21
203.2545608985831
 31
0.0
  0
LINE
  5
1C8E
330
D
100
AcDbEntity
 67
     1
  8
AM_VIS
100
AcDbLine
 10
334.4877007891439
 20
216.5453177293905
 30
0.0
 11
334.4877007891439
 21
209.5453177293905
 31
0.0
  0
LINE
  5
1C8F
330
D
100
AcDbEntity
 67
     1
  8
AM_VIS
100
AcDbLine
 10
331.092807871901
 20
221.5453177293905
 30
0.0
 11
331.092807871901
 21
221.503249464816
 31
0.0
  0
LINE
  5
1C90
330
D
100
AcDbEntity
 67
     1
  8
AM_VIS
100
AcDbLine
 10
325.8825937063877
 20
221.5453177293905
 30
0.0
 11
325.8825937063877
 21
221.503249464816
 31
0.0
  0
LINE
  5
1C91
330
D
100
AcDbEntity
 67
     1
  8
AM_VIS
100
AcDbLine
 10
331.092807871901
 20
204.587385993965
 30
0.0
 11
331.092807871901
 21
204.5453177293905
 31
0.0
  0
LINE
  5
1C92
330
D
100
AcDbEntity
 67
     1
  8
AM_VIS
100
AcDbLine
 10
325.8825937063877
 20
204.587385993965
 30
0.0
 11
325.8825937063877
 21
204.5453177293905
 31
0.0
  0
LINE
  5
1C93
330
D
100
AcDbEntity
 67
     1
  8
AM_VIS
100
AcDbLine
 10
325.8825937063877
 20
213.087385993965
 30
0.0
 11
325.8825937063877
 21
213.0032494648161
 31
0.0
  0
LINE
  5
1C94
330
D
100
AcDbEntity
 67
     1
  8
AM_VIS
100
AcDbLine
 10
331.092807871901
 20
213.087385993965
 30
0.0
 11
331.092807871901
 21
213.0032494648161
 31
0.0
  0
LINE
  5
1C95
330
D
100
AcDbEntity
 67
     1
  8
AM_VIS
100
AcDbLine
 10
331.9877007891439
 20
221.2860745601986
 30
0.0
 11
331.9877007891439
 21
204.8045608985824
 31
0.0
  0
LINE
  5
1C96
330
D
100
AcDbEntity
 67
     1
  8
AM_VIS
100
AcDbLine
 10
324.9877007891439
 20
150.8360745601979
 30
0.0
 11
324.9877007891439
 21
131.2545608985831
 31
0.0
  0
LINE
  5
1C97
330
D
100
AcDbEntity
 67
     1
  8
AM_VIS
100
AcDbLine
 10
334.4877007891439
 20
144.5453177293905
 30
0.0
 11
334.4877007891439
 21
137.5453177293905
 31
0.0
  0
LINE
  5
1C98
330
D
100
AcDbEntity
 67
     1
  8
AM_VIS
100
AcDbLine
 10
331.092807871901
 20
149.5453177293905
 30
0.0
 11
331.092807871901
 21
149.503249464816
 31
0.0
  0
LINE
  5
1C99
330
D
100
AcDbEntity
 67
     1
  8
AM_VIS
100
AcDbLine
 10
325.8825937063877
 20
149.5453177293905
 30
0.0
 11
325.8825937063877
 21
149.503249464816
 31
0.0
  0
LINE
  5
1C9A
330
D
100
AcDbEntity
 67
     1
  8
AM_VIS
100
AcDbLine
 10
331.092807871901
 20
132.587385993965
 30
0.0
 11
331.092807871901
 21
132.5453177293905
 31
0.0
  0
LINE
  5
1C9B
330
D
100
AcDbEntity
 67
     1
  8
AM_VIS
100
AcDbLine
 10
325.8825937063877
 20
132.587385993965
 30
0.0
 11
325.8825937063877
 21
132.5453177293905
 31
0.0
  0
LINE
  5
1C9C
330
D
100
AcDbEntity
 67
     1
  8
AM_VIS
100
AcDbLine
 10
325.8825937063877
 20
141.087385993965
 30
0.0
 11
325.8825937063877
 21
141.003249464816
 31
0.0
  0
LINE
  5
1C9D
330
D
100
AcDbEntity
 67
     1
  8
AM_VIS
100
AcDbLine
 10
331.092807871901
 20
141.087385993965
 30
0.0
 11
331.092807871901
 21
141.003249464816
 31
0.0
  0
LINE
  5
1C9E
330
D
100
AcDbEntity
 67
     1
  8
AM_VIS
100
AcDbLine
 10
331.9877007891439
 20
149.2860745601986
 30
0.0
 11
331.9877007891439
 21
132.8045608985824
 31
0.0
  0
LINE
  5
1C9F
330
D
100
AcDbEntity
 67
     1
  8
AM_VIS
100
AcDbLine
 10
466.4877007891439
 20
177.0453177293905
 30
0.0
 11
466.4877007891439
 21
166.5453177293905
 31
0.0
  0
LINE
  5
1CA0
330
D
100
AcDbEntity
 67
     1
  8
AM_VIS
100
AcDbLine
 10
466.4877007891439
 20
187.5453177293905
 30
0.0
 11
466.4877007891439
 21
177.0453177293905
 31
0.0
  0
SPLINE
  5
1CA1
330
D
100
AcDbEntity
 67
     1
  8
AM_VIS
100
AcDbSpline
210
0.0
220
0.0
230
1.0
 70
    12
 71
     2
 72
     6
 73
     3
 74
     0
 42
0.0000000001
 43
0.0000000001
 40
0.0
 40
0.0
 40
0.0
 40
9.831433341161524
 40
9.831433341161524
 40
9.831433341161524
 10
325.8825937063877
 20
404.9267852094372
 30
0.0
 41
1.0
 10
324.4904014417618
 20
407.3562357296166
 30
0.0
 41
1.151853744800856
 10
325.8825937063877
 20
409.7856862497959
 30
0.0
 41
1.0
  0
LINE
  5
1CA2
330
D
100
AcDbEntity
 67
     1
  8
AM_VIS
100
AcDbLine
 10
325.8825937063877
 20
409.7856862497959
 30
0.0
 11
331.092807871901
 21
409.7856862497959
 31
0.0
  0
SPLINE
  5
1CA3
330
D
100
AcDbEntity
 67
     1
  8
AM_VIS
100
AcDbSpline
210
0.0
220
0.0
230
1.0
 70
    12
 71
     2
 72
     6
 73
     3
 74
     0
 42
0.0000000001
 43
0.0000000001
 40
0.0
 40
0.0
 40
0.0
 40
9.831433341161726
 40
9.831433341161726
 40
9.831433341161726
 10
331.092807871901
 20
409.7856862497961
 30
0.0
 41
1.0
 10
332.4850001365255
 20
407.3562357296165
 30
0.0
 41
1.151853744800867
 10
331.092807871901
 20
404.926785209437
 30
0.0
 41
1.0
  0
LINE
  5
1CA4
330
D
100
AcDbEntity
 67
     1
  8
AM_VIS
100
AcDbLine
 10
331.092807871901
 20
404.9267852094372
 30
0.0
 11
325.8825937063877
 21
404.9267852094372
 31
0.0
  0
SPLINE
  5
1CA5
330
D
100
AcDbEntity
 67
     1
  8
AM_VIS
100
AcDbSpline
210
0.0
220
0.0
230
1.0
 70
    12
 71
     2
 72
     6
 73
     3
 74
     0
 42
0.0000000001
 43
0.0000000001
 40
0.0
 40
0.0
 40
0.0
 40
4.915716670580895
 40
4.915716670580895
 40
4.915716670580895
 10
325.8825937063877
 20
395.1361187570899
 30
0.0
 41
1.0
 10
325.1373749026622
 20
397.7370126944574
 30
0.0
 41
1.075926872400436
 10
325.1373749026622
 20
399.9950197974483
 30
0.0
 41
1.075926872400436
  0
SPLINE
  5
1CA6
330
D
100
AcDbEntity
 67
     1
  8
AM_VIS
100
AcDbSpline
210
0.0
220
0.0
230
1.0
 70
    12
 71
     2
 72
     6
 73
     3
 74
     0
 42
0.0000000001
 43
0.0000000001
 40
4.915716670580895
 40
4.915716670580895
 40
4.915716670580895
 40
9.831433341161789
 40
9.831433341161789
 40
9.831433341161789
 10
325.1373749026622
 20
399.9950197974483
 30
0.0
 41
1.075926872400436
 10
325.1373749026622
 20
402.2530269004399
 30
0.0
 41
1.075926872400436
 10
325.8825937063877
 20
404.8539208378078
 30
0.0
 41
1.0
  0
LINE
  5
1CA7
330
D
100
AcDbEntity
 67
     1
  8
AM_VIS
100
AcDbLine
 10
325.8825937063877
 20
404.8539208378078
 30
0.0
 11
331.092807871901
 21
404.8539208378078
 31
0.0
  0
SPLINE
  5
1CA8
330
D
100
AcDbEntity
 67
     1
  8
AM_VIS
100
AcDbSpline
210
0.0
220
0.0
230
1.0
 70
    12
 71
     2
 72
     6
 73
     3
 74
     0
 42
0.0000000001
 43
0.0000000001
 40
0.0
 40
0.0
 40
0.0
 40
4.915716670580884
 40
4.915716670580884
 40
4.915716670580884
 10
331.092807871901
 20
404.8539208378079
 30
0.0
 41
1.0
 10
331.8380266756258
 20
402.2530269004406
 30
0.0
 41
1.075926872400397
 10
331.8380266756258
 20
399.9950197974492
 30
0.0
 41
1.075926872400397
  0
SPLINE
  5
1CA9
330
D
100
AcDbEntity
 67
     1
  8
AM_VIS
100
AcDbSpline
210
0.0
220
0.0
230
1.0
 70
    12
 71
     2
 72
     6
 73
     3
 74
     0
 42
0.0000000001
 43
0.0000000001
 40
4.915716670580884
 40
4.915716670580884
 40
4.915716670580884
 40
9.831433341161771
 40
9.831433341161771
 40
9.831433341161771
 10
331.8380266756258
 20
399.9950197974492
 30
0.0
 41
1.075926872400397
 10
331.8380266756258
 20
397.7370126944576
 30
0.0
 41
1.075926872400397
 10
331.092807871901
 20
395.1361187570898
 30
0.0
 41
1.0
  0
LINE
  5
1CAA
330
D
100
AcDbEntity
 67
     1
  8
AM_VIS
100
AcDbLine
 10
331.092807871901
 20
395.1361187570899
 30
0.0
 11
325.8825937063877
 21
395.1361187570899
 31
0.0
  0
SPLINE
  5
1CAB
330
D
100
AcDbEntity
 67
     1
  8
AM_VIS
100
AcDbSpline
210
0.0
220
0.0
230
1.0
 70
    12
 71
     2
 72
     6
 73
     3
 74
     0
 42
0.0000000001
 43
0.0000000001
 40
0.0
 40
0.0
 40
0.0
 40
9.831433341161755
 40
9.831433341161755
 40
9.831433341161755
 10
325.8825937063877
 20
390.2043533451016
 30
0.0
 41
1.0
 10
324.4904014417613
 20
392.6338038652809
 30
0.0
 41
1.151853744800849
 10
325.8825937063877
 20
395.0632543854605
 30
0.0
 41
1.0
  0
LINE
  5
1CAC
330
D
100
AcDbEntity
 67
     1
  8
AM_VIS
100
AcDbLine
 10
325.8825937063877
 20
395.0632543854605
 30
0.0
 11
331.092807871901
 21
395.0632543854605
 31
0.0
  0
SPLINE
  5
1CAD
330
D
100
AcDbEntity
 67
     1
  8
AM_VIS
100
AcDbSpline
210
0.0
220
0.0
230
1.0
 70
    12
 71
     2
 72
     6
 73
     3
 74
     0
 42
0.0000000001
 43
0.0000000001
 40
0.0
 40
0.0
 40
0.0
 40
9.831433341161512
 40
9.831433341161512
 40
9.831433341161512
 10
331.092807871901
 20
395.0632543854605
 30
0.0
 41
1.0
 10
332.4850001365255
 20
392.6338038652811
 30
0.0
 41
1.151853744800874
 10
331.092807871901
 20
390.2043533451016
 30
0.0
 41
1.0
  0
LINE
  5
1CAE
330
D
100
AcDbEntity
 67
     1
  8
AM_VIS
100
AcDbLine
 10
331.092807871901
 20
390.2043533451016
 30
0.0
 11
325.8825937063877
 21
390.2043533451016
 31
0.0
  0
SPLINE
  5
1CAF
330
D
100
AcDbEntity
 67
     1
  8
AM_VIS
100
AcDbSpline
210
0.0
220
0.0
230
1.0
 70
    12
 71
     2
 72
     6
 73
     3
 74
     0
 42
0.0000000001
 43
0.0000000001
 40
0.0
 40
0.0
 40
0.0
 40
9.831433341161737
 40
9.831433341161737
 40
9.831433341161737
 10
325.8825937063877
 20
332.9267852094371
 30
0.0
 41
1.0
 10
324.4904014417613
 20
335.3562357296164
 30
0.0
 41
1.151853744800849
 10
325.8825937063877
 20
337.785686249796
 30
0.0
 41
1.0
  0
LINE
  5
1CB0
330
D
100
AcDbEntity
 67
     1
  8
AM_VIS
100
AcDbLine
 10
325.8825937063877
 20
337.785686249796
 30
0.0
 11
331.092807871901
 21
337.785686249796
 31
0.0
  0
SPLINE
  5
1CB1
330
D
100
AcDbEntity
 67
     1
  8
AM_VIS
100
AcDbSpline
210
0.0
220
0.0
230
1.0
 70
    12
 71
     2
 72
     6
 73
     3
 74
     0
 42
0.0000000001
 43
0.0000000001
 40
0.0
 40
0.0
 40
0.0
 40
9.831433341161526
 40
9.831433341161526
 40
9.831433341161526
 10
331.092807871901
 20
337.785686249796
 30
0.0
 41
1.0
 10
332.4850001365255
 20
335.3562357296166
 30
0.0
 41
1.151853744800874
 10
331.092807871901
 20
332.9267852094371
 30
0.0
 41
1.0
  0
LINE
  5
1CB2
330
D
100
AcDbEntity
 67
     1
  8
AM_VIS
100
AcDbLine
 10
331.092807871901
 20
332.9267852094371
 30
0.0
 11
325.8825937063877
 21
332.9267852094371
 31
0.0
  0
SPLINE
  5
1CB3
330
D
100
AcDbEntity
 67
     1
  8
AM_VIS
100
AcDbSpline
210
0.0
220
0.0
230
1.0
 70
    12
 71
     2
 72
     6
 73
     3
 74
     0
 42
0.0000000001
 43
0.0000000001
 40
0.0
 40
0.0
 40
0.0
 40
4.915716670580944
 40
4.915716670580944
 40
4.915716670580944
 10
325.8825937063877
 20
323.1361187570898
 30
0.0
 41
1.0
 10
325.1373749026625
 20
325.7370126944575
 30
0.0
 41
1.075926872400446
 10
325.1373749026624
 20
327.9950197974488
 30
0.0
 41
1.075926872400446
  0
SPLINE
  5
1CB4
330
D
100
AcDbEntity
 67
     1
  8
AM_VIS
100
AcDbSpline
210
0.0
220
0.0
230
1.0
 70
    12
 71
     2
 72
     6
 73
     3
 74
     0
 42
0.0000000001
 43
0.0000000001
 40
4.915716670580944
 40
4.915716670580944
 40
4.915716670580944
 40
9.831433341161895
 40
9.831433341161895
 40
9.831433341161895
 10
325.1373749026624
 20
327.9950197974488
 30
0.0
 41
1.075926872400446
 10
325.1373749026625
 20
330.2530269004402
 30
0.0
 41
1.075926872400446
 10
325.8825937063877
 20
332.8539208378078
 30
0.0
 41
1.0
  0
LINE
  5
1CB5
330
D
100
AcDbEntity
 67
     1
  8
AM_VIS
100
AcDbLine
 10
325.8825937063877
 20
332.8539208378077
 30
0.0
 11
331.092807871901
 21
332.8539208378077
 31
0.0
  0
SPLINE
  5
1CB6
330
D
100
AcDbEntity
 67
     1
  8
AM_VIS
100
AcDbSpline
210
0.0
220
0.0
230
1.0
 70
    12
 71
     2
 72
     6
 73
     3
 74
     0
 42
0.0000000001
 43
0.0000000001
 40
0.0
 40
0.0
 40
0.0
 40
4.915716670580772
 40
4.915716670580772
 40
4.915716670580772
 10
331.092807871901
 20
332.8539208378078
 30
0.0
 41
1.0
 10
331.8380266756254
 20
330.2530269004402
 30
0.0
 41
1.075926872400424
 10
331.8380266756254
 20
327.9950197974488
 30
0.0
 41
1.075926872400424
  0
SPLINE
  5
1CB7
330
D
100
AcDbEntity
 67
     1
  8
AM_VIS
100
AcDbSpline
210
0.0
220
0.0
230
1.0
 70
    12
 71
     2
 72
     6
 73
     3
 74
     0
 42
0.0000000001
 43
0.0000000001
 40
4.915716670580772
 40
4.915716670580772
 40
4.915716670580772
 40
9.831433341161552
 40
9.831433341161552
 40
9.831433341161552
 10
331.8380266756254
 20
327.9950197974488
 30
0.0
 41
1.075926872400424
 10
331.8380266756256
 20
325.7370126944575
 30
0.0
 41
1.075926872400424
 10
331.092807871901
 20
323.1361187570899
 30
0.0
 41
1.0
  0
LINE
  5
1CB8
330
D
100
AcDbEntity
 67
     1
  8
AM_VIS
100
AcDbLine
 10
331.092807871901
 20
323.1361187570899
 30
0.0
 11
325.8825937063877
 21
323.1361187570899
 31
0.0
  0
SPLINE
  5
1CB9
330
D
100
AcDbEntity
 67
     1
  8
AM_VIS
100
AcDbSpline
210
0.0
220
0.0
230
1.0
 70
    12
 71
     2
 72
     6
 73
     3
 74
     0
 42
0.0000000001
 43
0.0000000001
 40
0.0
 40
0.0
 40
0.0
 40
9.831433341161975
 40
9.831433341161975
 40
9.831433341161975
 10
325.8825937063877
 20
318.2043533451015
 30
0.0
 41
1.0
 10
324.4904014417616
 20
320.633803865281
 30
0.0
 41
1.151853744800842
 10
325.8825937063877
 20
323.0632543854605
 30
0.0
 41
1.0
  0
LINE
  5
1CBA
330
D
100
AcDbEntity
 67
     1
  8
AM_VIS
100
AcDbLine
 10
325.8825937063877
 20
323.0632543854605
 30
0.0
 11
331.092807871901
 21
323.0632543854605
 31
0.0
  0
SPLINE
  5
1CBB
330
D
100
AcDbEntity
 67
     1
  8
AM_VIS
100
AcDbSpline
210
0.0
220
0.0
230
1.0
 70
    12
 71
     2
 72
     6
 73
     3
 74
     0
 42
0.0000000001
 43
0.0000000001
 40
0.0
 40
0.0
 40
0.0
 40
9.831433341161311
 40
9.831433341161311
 40
9.831433341161311
 10
331.092807871901
 20
323.0632543854604
 30
0.0
 41
1.0
 10
332.4850001365255
 20
320.633803865281
 30
0.0
 41
1.151853744800855
 10
331.092807871901
 20
318.2043533451017
 30
0.0
 41
1.0
  0
LINE
  5
1CBC
330
D
100
AcDbEntity
 67
     1
  8
AM_VIS
100
AcDbLine
 10
331.092807871901
 20
318.2043533451016
 30
0.0
 11
325.8825937063877
 21
318.2043533451016
 31
0.0
  0
LINE
  5
1CBD
330
D
100
AcDbEntity
 67
     1
  8
AM_VIS
100
AcDbLine
 10
324.9877007891439
 20
319.7542629666407
 30
0.0
 11
325.8825937063877
 21
318.2042629666415
 31
0.0
  0
LINE
  5
1CBE
330
D
100
AcDbEntity
 67
     1
  8
AM_VIS
100
AcDbLine
 10
331.092807871901
 20
318.2042629666413
 30
0.0
 11
331.9877007891439
 21
319.7542629666408
 31
0.0
  0
LINE
  5
1CBF
330
D
100
AcDbEntity
 67
     1
  8
AM_VIS
100
AcDbLine
 10
322.4877007891439
 20
318.2042629666414
 30
0.0
 11
324.9877007891439
 21
318.2042629666414
 31
0.0
  0
LINE
  5
1CC0
330
D
100
AcDbEntity
 67
     1
  8
AM_VIS
100
AcDbLine
 10
332.9877007891439
 20
322.9950197974488
 30
0.0
 11
334.4877007891439
 21
324.4950197974488
 31
0.0
  0
LINE
  5
1CC1
330
D
100
AcDbEntity
 67
     1
  8
AM_VIS
100
AcDbLine
 10
331.9877007891439
 20
322.9950197974488
 30
0.0
 11
332.9877007891439
 21
322.9950197974488
 31
0.0
  0
LINE
  5
1CC2
330
D
100
AcDbEntity
 67
     1
  8
AM_VIS
100
AcDbLine
 10
324.9877007891439
 20
391.7542629666406
 30
0.0
 11
325.8825937063877
 21
390.2042629666415
 31
0.0
  0
LINE
  5
1CC3
330
D
100
AcDbEntity
 67
     1
  8
AM_VIS
100
AcDbLine
 10
331.092807871901
 20
390.2042629666414
 30
0.0
 11
331.9877007891439
 21
391.7542629666408
 31
0.0
  0
LINE
  5
1CC4
330
D
100
AcDbEntity
 67
     1
  8
AM_VIS
100
AcDbLine
 10
322.4877007891439
 20
390.2042629666414
 30
0.0
 11
324.9877007891439
 21
390.2042629666414
 31
0.0
  0
LINE
  5
1CC5
330
D
100
AcDbEntity
 67
     1
  8
AM_VIS
100
AcDbLine
 10
332.9877007891439
 20
394.9950197974488
 30
0.0
 11
334.4877007891439
 21
396.4950197974488
 31
0.0
  0
LINE
  5
1CC6
330
D
100
AcDbEntity
 67
     1
  8
AM_VIS
100
AcDbLine
 10
331.9877007891439
 20
394.9950197974488
 30
0.0
 11
332.9877007891439
 21
394.9950197974488
 31
0.0
  0
LINE
  5
1CC7
330
D
100
AcDbEntity
 67
     1
  8
AM_VIS
100
AcDbLine
 10
331.9877007891439
 20
404.9950197974487
 30
0.0
 11
332.9877007891439
 21
404.9950197974487
 31
0.0
  0
LINE
  5
1CC8
330
D
100
AcDbEntity
 67
     1
  8
AM_VIS
100
AcDbLine
 10
332.9877007891439
 20
404.9950197974487
 30
0.0
 11
334.4877007891439
 21
403.4950197974488
 31
0.0
  0
LINE
  5
1CC9
330
D
100
AcDbEntity
 67
     1
  8
AM_VIS
100
AcDbLine
 10
322.4877007891439
 20
409.7857766282561
 30
0.0
 11
324.9877007891439
 21
409.7857766282561
 31
0.0
  0
LINE
  5
1CCA
330
D
100
AcDbEntity
 67
     1
  8
AM_VIS
100
AcDbLine
 10
331.092807871901
 20
409.7857766282563
 30
0.0
 11
331.9877007891439
 21
408.2357766282569
 31
0.0
  0
LINE
  5
1CCB
330
D
100
AcDbEntity
 67
     1
  8
AM_VIS
100
AcDbLine
 10
325.8825937063877
 20
409.7857766282561
 30
0.0
 11
331.092807871901
 21
409.7857766282561
 31
0.0
  0
LINE
  5
1CCC
330
D
100
AcDbEntity
 67
     1
  8
AM_VIS
100
AcDbLine
 10
325.8825937063877
 20
390.2042629666414
 30
0.0
 11
331.092807871901
 21
390.2042629666414
 31
0.0
  0
LINE
  5
1CCD
330
D
100
AcDbEntity
 67
     1
  8
AM_VIS
100
AcDbLine
 10
324.9877007891439
 20
408.235776628257
 30
0.0
 11
325.8825937063877
 21
409.7857766282561
 31
0.0
  0
LINE
  5
1CCE
330
D
100
AcDbEntity
 67
     1
  8
AM_VIS
100
AcDbLine
 10
331.9877007891439
 20
332.9950197974488
 30
0.0
 11
332.9877007891439
 21
332.9950197974488
 31
0.0
  0
LINE
  5
1CCF
330
D
100
AcDbEntity
 67
     1
  8
AM_VIS
100
AcDbLine
 10
332.9877007891439
 20
332.9950197974488
 30
0.0
 11
334.4877007891439
 21
331.4950197974488
 31
0.0
  0
LINE
  5
1CD0
330
D
100
AcDbEntity
 67
     1
  8
AM_VIS
100
AcDbLine
 10
322.4877007891439
 20
337.7857766282561
 30
0.0
 11
324.9877007891439
 21
337.7857766282561
 31
0.0
  0
LINE
  5
1CD1
330
D
100
AcDbEntity
 67
     1
  8
AM_VIS
100
AcDbLine
 10
331.092807871901
 20
337.7857766282563
 30
0.0
 11
331.9877007891439
 21
336.235776628257
 31
0.0
  0
LINE
  5
1CD2
330
D
100
AcDbEntity
 67
     1
  8
AM_VIS
100
AcDbLine
 10
325.8825937063877
 20
337.7857766282561
 30
0.0
 11
331.092807871901
 21
337.7857766282561
 31
0.0
  0
LINE
  5
1CD3
330
D
100
AcDbEntity
 67
     1
  8
AM_VIS
100
AcDbLine
 10
325.8825937063877
 20
318.2042629666414
 30
0.0
 11
331.092807871901
 21
318.2042629666414
 31
0.0
  0
LINE
  5
1CD4
330
D
100
AcDbEntity
 67
     1
  8
AM_VIS
100
AcDbLine
 10
324.9877007891439
 20
336.2357766282569
 30
0.0
 11
325.8825937063877
 21
337.7857766282561
 31
0.0
  0
LINE
  5
1CD5
330
D
100
AcDbEntity
 67
     1
  8
AM_VIS
100
AcDbLine
 10
332.9877007891439
 20
327.9950197974488
 30
0.0
 11
332.9877007891439
 21
322.9950197974488
 31
0.0
  0
LINE
  5
1CD6
330
D
100
AcDbEntity
 67
     1
  8
AM_VIS
100
AcDbLine
 10
332.9877007891439
 20
399.9950197974488
 30
0.0
 11
332.9877007891439
 21
394.9950197974488
 31
0.0
  0
LINE
  5
1CD7
330
D
100
AcDbEntity
 67
     1
  8
AM_VIS
100
AcDbLine
 10
324.9877007891439
 20
399.9950197974488
 30
0.0
 11
324.9877007891439
 21
390.2042629666414
 31
0.0
  0
LINE
  5
1CD8
330
D
100
AcDbEntity
 67
     1
  8
AM_VIS
100
AcDbLine
 10
332.9877007891439
 20
404.9950197974487
 30
0.0
 11
332.9877007891439
 21
399.9950197974488
 31
0.0
  0
LINE
  5
1CD9
330
D
100
AcDbEntity
 67
     1
  8
AM_VIS
100
AcDbLine
 10
334.4877007891439
 20
399.9950197974488
 30
0.0
 11
334.4877007891439
 21
396.4950197974488
 31
0.0
  0
LINE
  5
1CDA
330
D
100
AcDbEntity
 67
     1
  8
AM_VIS
100
AcDbLine
 10
334.4877007891439
 20
403.4950197974487
 30
0.0
 11
334.4877007891439
 21
399.9950197974488
 31
0.0
  0
LINE
  5
1CDB
330
D
100
AcDbEntity
 67
     1
  8
AM_VIS
100
AcDbLine
 10
324.9877007891439
 20
409.7857766282561
 30
0.0
 11
324.9877007891439
 21
399.9950197974488
 31
0.0
  0
LINE
  5
1CDC
330
D
100
AcDbEntity
 67
     1
  8
AM_VIS
100
AcDbLine
 10
331.092807871901
 20
395.1361187570899
 30
0.0
 11
331.092807871901
 21
395.0632543854605
 31
0.0
  0
LINE
  5
1CDD
330
D
100
AcDbEntity
 67
     1
  8
AM_VIS
100
AcDbLine
 10
325.8825937063877
 20
395.1361187570899
 30
0.0
 11
325.8825937063877
 21
395.0632543854605
 31
0.0
  0
LINE
  5
1CDE
330
D
100
AcDbEntity
 67
     1
  8
AM_VIS
100
AcDbLine
 10
331.092807871901
 20
404.926785209437
 30
0.0
 11
331.092807871901
 21
404.8539208378076
 31
0.0
  0
LINE
  5
1CDF
330
D
100
AcDbEntity
 67
     1
  8
AM_VIS
100
AcDbLine
 10
331.092807871901
 20
409.7857766282561
 30
0.0
 11
331.092807871901
 21
409.7856862497959
 31
0.0
  0
LINE
  5
1CE0
330
D
100
AcDbEntity
 67
     1
  8
AM_VIS
100
AcDbLine
 10
325.8825937063877
 20
390.2043533451016
 30
0.0
 11
325.8825937063877
 21
390.2042629666414
 31
0.0
  0
LINE
  5
1CE1
330
D
100
AcDbEntity
 67
     1
  8
AM_VIS
100
AcDbLine
 10
331.092807871901
 20
390.2043533451016
 30
0.0
 11
331.092807871901
 21
390.2042629666414
 31
0.0
  0
LINE
  5
1CE2
330
D
100
AcDbEntity
 67
     1
  8
AM_VIS
100
AcDbLine
 10
325.8825937063877
 20
409.7857766282561
 30
0.0
 11
325.8825937063877
 21
409.7856862497959
 31
0.0
  0
LINE
  5
1CE3
330
D
100
AcDbEntity
 67
     1
  8
AM_VIS
100
AcDbLine
 10
325.8825937063877
 20
404.926785209437
 30
0.0
 11
325.8825937063877
 21
404.8539208378076
 31
0.0
  0
LINE
  5
1CE4
330
D
100
AcDbEntity
 67
     1
  8
AM_VIS
100
AcDbLine
 10
331.9877007891439
 20
399.9950197974488
 30
0.0
 11
331.9877007891439
 21
391.7542629666407
 31
0.0
  0
LINE
  5
1CE5
330
D
100
AcDbEntity
 67
     1
  8
AM_VIS
100
AcDbLine
 10
331.9877007891439
 20
408.2357766282568
 30
0.0
 11
331.9877007891439
 21
399.9950197974488
 31
0.0
  0
LINE
  5
1CE6
330
D
100
AcDbEntity
 67
     1
  8
AM_VIS
100
AcDbLine
 10
324.9877007891439
 20
327.9950197974488
 30
0.0
 11
324.9877007891439
 21
318.2042629666414
 31
0.0
  0
LINE
  5
1CE7
330
D
100
AcDbEntity
 67
     1
  8
AM_VIS
100
AcDbLine
 10
332.9877007891439
 20
332.9950197974488
 30
0.0
 11
332.9877007891439
 21
327.9950197974488
 31
0.0
  0
LINE
  5
1CE8
330
D
100
AcDbEntity
 67
     1
  8
AM_VIS
100
AcDbLine
 10
334.4877007891439
 20
327.9950197974488
 30
0.0
 11
334.4877007891439
 21
324.4950197974488
 31
0.0
  0
LINE
  5
1CE9
330
D
100
AcDbEntity
 67
     1
  8
AM_VIS
100
AcDbLine
 10
334.4877007891439
 20
331.4950197974488
 30
0.0
 11
334.4877007891439
 21
327.9950197974488
 31
0.0
  0
LINE
  5
1CEA
330
D
100
AcDbEntity
 67
     1
  8
AM_VIS
100
AcDbLine
 10
324.9877007891439
 20
337.7857766282561
 30
0.0
 11
324.9877007891439
 21
327.9950197974488
 31
0.0
  0
LINE
  5
1CEB
330
D
100
AcDbEntity
 67
     1
  8
AM_VIS
100
AcDbLine
 10
331.092807871901
 20
323.1361187570899
 30
0.0
 11
331.092807871901
 21
323.0632543854605
 31
0.0
  0
LINE
  5
1CEC
330
D
100
AcDbEntity
 67
     1
  8
AM_VIS
100
AcDbLine
 10
325.8825937063877
 20
323.1361187570899
 30
0.0
 11
325.8825937063877
 21
323.0632543854605
 31
0.0
  0
LINE
  5
1CED
330
D
100
AcDbEntity
 67
     1
  8
AM_VIS
100
AcDbLine
 10
331.092807871901
 20
332.9267852094371
 30
0.0
 11
331.092807871901
 21
332.8539208378077
 31
0.0
  0
LINE
  5
1CEE
330
D
100
AcDbEntity
 67
     1
  8
AM_VIS
100
AcDbLine
 10
331.092807871901
 20
337.7857766282561
 30
0.0
 11
331.092807871901
 21
337.785686249796
 31
0.0
  0
LINE
  5
1CEF
330
D
100
AcDbEntity
 67
     1
  8
AM_VIS
100
AcDbLine
 10
325.8825937063877
 20
318.2043533451016
 30
0.0
 11
325.8825937063877
 21
318.2042629666414
 31
0.0
  0
LINE
  5
1CF0
330
D
100
AcDbEntity
 67
     1
  8
AM_VIS
100
AcDbLine
 10
331.092807871901
 20
318.2043533451016
 30
0.0
 11
331.092807871901
 21
318.2042629666414
 31
0.0
  0
LINE
  5
1CF1
330
D
100
AcDbEntity
 67
     1
  8
AM_VIS
100
AcDbLine
 10
325.8825937063877
 20
337.7857766282561
 30
0.0
 11
325.8825937063877
 21
337.785686249796
 31
0.0
  0
LINE
  5
1CF2
330
D
100
AcDbEntity
 67
     1
  8
AM_VIS
100
AcDbLine
 10
325.8825937063877
 20
332.9267852094371
 30
0.0
 11
325.8825937063877
 21
332.8539208378077
 31
0.0
  0
LINE
  5
1CF3
330
D
100
AcDbEntity
 67
     1
  8
AM_VIS
100
AcDbLine
 10
331.9877007891439
 20
327.9950197974488
 30
0.0
 11
331.9877007891439
 21
319.7542629666407
 31
0.0
  0
LINE
  5
1CF4
330
D
100
AcDbEntity
 67
     1
  8
AM_VIS
100
AcDbLine
 10
331.9877007891439
 20
336.2357766282569
 30
0.0
 11
331.9877007891439
 21
327.9950197974488
 31
0.0
  0
LINE
  5
1CF5
330
D
100
AcDbEntity
 67
     1
  8
AM_VIS
100
AcDbLine
 10
310.4877007891439
 20
411.4950197974487
 30
0.0
 11
310.4877007891439
 21
316.4950197974488
 31
0.0
  0
LINE
  5
1CF6
330
D
100
AcDbEntity
 67
     1
  8
AM_VIS
100
AcDbLine
 10
310.4877007891439
 20
222.5453177293905
 30
0.0
 11
310.4877007891439
 21
131.5453177293905
 31
0.0
  0
LINE
  5
1CF7
330
D
100
AcDbEntity
 67
     1
  8
AM_VIS
100
AcDbLine
 10
342.4877007891439
 20
222.5453177293905
 30
0.0
 11
420.4877007891439
 21
222.5453177293905
 31
0.0
  0
LINE
  5
1CF8
330
D
100
AcDbEntity
 67
     1
  8
AM_VIS
100
AcDbLine
 10
342.4877007891439
 20
224.5453177293905
 30
0.0
 11
342.4877007891439
 21
222.5453177293905
 31
0.0
  0
LINE
  5
1CF9
330
D
100
AcDbEntity
 67
     1
  8
AM_VIS
100
AcDbLine
 10
342.4877007891439
 20
222.5453177293905
 30
0.0
 11
342.4877007891439
 21
131.5453177293905
 31
0.0
  0
LINE
  5
1CFA
330
D
100
AcDbEntity
 67
     1
  8
AM_VIS
100
AcDbLine
 10
342.4877007891439
 20
131.5453177293905
 30
0.0
 11
342.4877007891439
 21
129.5453177293905
 31
0.0
  0
LINE
  5
1CFB
330
D
100
AcDbEntity
 67
     1
  8
AM_VIS
100
AcDbLine
 10
420.4877007891439
 20
131.5453177293905
 30
0.0
 11
342.4877007891439
 21
131.5453177293905
 31
0.0
  0
LINE
  5
1CFC
330
D
100
AcDbEntity
 67
     1
  8
AM_VIS
100
AcDbLine
 10
310.4877007891439
 20
129.5453177293905
 30
0.0
 11
322.4877007891439
 21
129.5453177293905
 31
0.0
  0
LINE
  5
1CFD
330
D
100
AcDbEntity
 67
     1
  8
AM_VIS
100
AcDbLine
 10
310.4877007891439
 20
131.5453177293905
 30
0.0
 11
310.4877007891439
 21
129.5453177293905
 31
0.0
  0
LINE
  5
1CFE
330
D
100
AcDbEntity
 67
     1
  8
AM_VIS
100
AcDbLine
 10
322.4877007891439
 20
131.5453177293905
 30
0.0
 11
310.4877007891439
 21
131.5453177293905
 31
0.0
  0
LINE
  5
1CFF
330
D
100
AcDbEntity
 67
     1
  8
AM_VIS
100
AcDbLine
 10
310.4877007891439
 20
222.5453177293905
 30
0.0
 11
322.4877007891439
 21
222.5453177293905
 31
0.0
  0
LINE
  5
1D00
330
D
100
AcDbEntity
 67
     1
  8
AM_VIS
100
AcDbLine
 10
310.4877007891439
 20
224.5453177293905
 30
0.0
 11
310.4877007891439
 21
222.5453177293905
 31
0.0
  0
LINE
  5
1D01
330
D
100
AcDbEntity
 67
     1
  8
AM_VIS
100
AcDbLine
 10
322.4877007891439
 20
224.5453177293905
 30
0.0
 11
310.4877007891439
 21
224.5453177293905
 31
0.0
  0
LINE
  5
1D02
330
D
100
AcDbEntity
 67
     1
  8
AM_VIS
100
AcDbLine
 10
322.4877007891439
 20
129.5453177293905
 30
0.0
 11
322.4877007891439
 21
131.5453177293905
 31
0.0
  0
LINE
  5
1D03
330
D
100
AcDbEntity
 67
     1
  8
AM_VIS
100
AcDbLine
 10
322.4877007891439
 20
131.5453177293905
 30
0.0
 11
322.4877007891439
 21
222.5453177293905
 31
0.0
  0
LINE
  5
1D04
330
D
100
AcDbEntity
 67
     1
  8
AM_VIS
100
AcDbLine
 10
322.4877007891439
 20
222.5453177293905
 30
0.0
 11
322.4877007891439
 21
224.5453177293905
 31
0.0
  0
LINE
  5
1D05
330
D
100
AcDbEntity
 67
     1
  8
AM_VIS
100
AcDbLine
 10
420.4877007891439
 20
129.5453177293905
 30
0.0
 11
420.4877007891439
 21
131.5453177293905
 31
0.0
  0
LINE
  5
1D06
330
D
100
AcDbEntity
 67
     1
  8
AM_VIS
100
AcDbLine
 10
420.4877007891439
 20
131.5453177293905
 30
0.0
 11
420.4877007891439
 21
222.5453177293905
 31
0.0
  0
LINE
  5
1D07
330
D
100
AcDbEntity
 67
     1
  8
AM_VIS
100
AcDbLine
 10
420.4877007891439
 20
222.5453177293905
 30
0.0
 11
420.4877007891439
 21
224.5453177293905
 31
0.0
  0
LINE
  5
1D08
330
D
100
AcDbEntity
 67
     1
  8
AM_VIS
100
AcDbLine
 10
420.4877007891439
 20
224.5453177293905
 30
0.0
 11
342.4877007891439
 21
224.5453177293905
 31
0.0
  0
LINE
  5
1D09
330
D
100
AcDbEntity
 67
     1
  8
AM_VIS
100
AcDbLine
 10
342.4877007891439
 20
129.5453177293905
 30
0.0
 11
420.4877007891439
 21
129.5453177293905
 31
0.0
  0
LINE
  5
1D0A
330
D
100
AcDbEntity
 67
     1
  8
AM_VIS
100
AcDbLine
 10
334.4877007891439
 20
139.0453177293905
 30
0.0
 11
342.4877007891439
 21
139.0453177293905
 31
0.0
  0
LINE
  5
1D0B
330
D
100
AcDbEntity
 67
     1
  8
AM_VIS
100
AcDbLine
 10
334.4877007891439
 20
215.0453177293905
 30
0.0
 11
342.4877007891439
 21
215.0453177293905
 31
0.0
  0
LINE
  5
1D0C
330
D
100
AcDbEntity
 67
     1
  8
AM_VIS
100
AcDbLine
 10
420.4877007891439
 20
154.5453177293905
 30
0.0
 11
430.4877007891438
 21
154.5453177293905
 31
0.0
  0
LINE
  5
1D0D
330
D
100
AcDbEntity
 67
     1
  8
AM_VIS
100
AcDbLine
 10
420.4877007891439
 20
199.5453177293905
 30
0.0
 11
430.4877007891438
 21
199.5453177293905
 31
0.0
  0
CIRCLE
  5
1D0E
330
D
100
AcDbEntity
 67
     1
  8
AM_VIS
100
AcDbCircle
 10
351.4877007891439
 20
147.0453177293905
 30
0.0
 40
5.722499999999995
  0
CIRCLE
  5
1D0F
330
D
100
AcDbEntity
 67
     1
  8
AM_VIS
100
AcDbCircle
 10
376.4877007891439
 20
177.0453177293905
 30
0.0
 40
29.5
  0
CIRCLE
  5
1D10
330
D
100
AcDbEntity
 67
     1
  8
AM_VIS
100
AcDbCircle
 10
351.4877007891439
 20
147.0453177293905
 30
0.0
 40
6.322500000000004
  0
LINE
  5
1D11
330
D
100
AcDbEntity
 67
     1
  8
AM_VIS
100
AcDbLine
 10
430.4877007891438
 20
199.5453177293905
 30
0.0
 11
430.4877007891438
 21
154.5453177293905
 31
0.0
  0
LINE
  5
1D12
330
D
100
AcDbEntity
 67
     1
  8
AM_VIS
100
AcDbLine
 10
454.9877007891437
 20
190.5453177293907
 30
0.0
 11
452.4877007891439
 21
191.836320474135
 31
0.0
  0
LINE
  5
1D13
330
D
100
AcDbEntity
 67
     1
  8
AM_VIS
100
AcDbLine
 10
454.9877007891437
 20
163.5453177293903
 30
0.0
 11
452.4877007891439
 21
162.2543149846461
 31
0.0
  0
LINE
  5
1D14
330
D
100
AcDbEntity
 67
     1
  8
AM_VIS
100
AcDbLine
 10
454.9877007891437
 20
190.5453177293907
 30
0.0
 11
454.9877007891437
 21
163.5453177293903
 31
0.0
  0
CIRCLE
  5
1D15
330
D
100
AcDbEntity
 67
     1
  8
AM_VIS
100
AcDbCircle
 10
376.4877007891437
 20
177.0453177293905
 30
0.0
 40
29.3
  0
CIRCLE
  5
1D16
330
D
100
AcDbEntity
 67
     1
  8
AM_VIS
100
AcDbCircle
 10
400.9877007891437
 20
177.0453177293905
 30
0.0
 40
4.25
  0
CIRCLE
  5
1D17
330
D
100
AcDbEntity
 67
     1
  8
AM_VIS
100
AcDbCircle
 10
351.9877007891437
 20
177.0453177293905
 30
0.0
 40
4.250000000000003
  0
LINE
  5
1D18
330
D
100
AcDbEntity
 67
     1
  8
AM_VIS
100
AcDbLine
 10
352.7093886256307
 20
178.2953177293905
 30
0.0
 11
353.4310764621177
 21
177.0453177293905
 31
0.0
  0
LINE
  5
1D19
330
D
100
AcDbEntity
 67
     1
  8
AM_VIS
100
AcDbLine
 10
353.4310764621177
 20
177.0453177293905
 30
0.0
 11
352.7093886256307
 21
175.7953177293905
 31
0.0
  0
LINE
  5
1D1A
330
D
100
AcDbEntity
 67
     1
  8
AM_VIS
100
AcDbLine
 10
351.2660129526566
 20
178.2953177293905
 30
0.0
 11
352.7093886256307
 21
178.2953177293905
 31
0.0
  0
LINE
  5
1D1B
330
D
100
AcDbEntity
 67
     1
  8
AM_VIS
100
AcDbLine
 10
350.5443251161696
 20
177.0453177293905
 30
0.0
 11
351.2660129526566
 21
178.2953177293905
 31
0.0
  0
LINE
  5
1D1C
330
D
100
AcDbEntity
 67
     1
  8
AM_VIS
100
AcDbLine
 10
351.2660129526566
 20
175.7953177293905
 30
0.0
 11
350.5443251161696
 21
177.0453177293905
 31
0.0
  0
LINE
  5
1D1D
330
D
100
AcDbEntity
 67
     1
  8
AM_VIS
100
AcDbLine
 10
352.7093886256307
 20
175.7953177293905
 30
0.0
 11
351.2660129526566
 21
175.7953177293905
 31
0.0
  0
CIRCLE
  5
1D1E
330
D
100
AcDbEntity
 67
     1
  8
AM_VIS
100
AcDbCircle
 10
351.9877007891437
 20
177.0453177293905
 30
0.0
 40
3.820000000000009
  0
LINE
  5
1D1F
330
D
100
AcDbEntity
 67
     1
  8
AM_VIS
100
AcDbLine
 10
400.2660129526566
 20
175.7953177293905
 30
0.0
 11
399.5443251161696
 21
177.0453177293905
 31
0.0
  0
LINE
  5
1D20
330
D
100
AcDbEntity
 67
     1
  8
AM_VIS
100
AcDbLine
 10
399.5443251161696
 20
177.0453177293905
 30
0.0
 11
400.2660129526566
 21
178.2953177293905
 31
0.0
  0
LINE
  5
1D21
330
D
100
AcDbEntity
 67
     1
  8
AM_VIS
100
AcDbLine
 10
401.7093886256307
 20
175.7953177293905
 30
0.0
 11
400.2660129526566
 21
175.7953177293905
 31
0.0
  0
LINE
  5
1D22
330
D
100
AcDbEntity
 67
     1
  8
AM_VIS
100
AcDbLine
 10
402.4310764621177
 20
177.0453177293905
 30
0.0
 11
401.7093886256307
 21
175.7953177293905
 31
0.0
  0
LINE
  5
1D23
330
D
100
AcDbEntity
 67
     1
  8
AM_VIS
100
AcDbLine
 10
401.7093886256307
 20
178.2953177293905
 30
0.0
 11
402.4310764621177
 21
177.0453177293905
 31
0.0
  0
LINE
  5
1D24
330
D
100
AcDbEntity
 67
     1
  8
AM_VIS
100
AcDbLine
 10
400.2660129526566
 20
178.2953177293905
 30
0.0
 11
401.7093886256307
 21
178.2953177293905
 31
0.0
  0
CIRCLE
  5
1D25
330
D
100
AcDbEntity
 67
     1
  8
AM_VIS
100
AcDbCircle
 10
400.9877007891437
 20
177.0453177293905
 30
0.0
 40
3.820000000000009
  0
LINE
  5
1D26
330
D
100
AcDbEntity
 67
     1
  8
AM_VIS
100
AcDbLine
 10
342.4877007891439
 20
316.4950197974489
 30
0.0
 11
420.4877007891439
 21
316.4950197974489
 31
0.0
  0
LINE
  5
1D27
330
D
100
AcDbEntity
 67
     1
  8
AM_VIS
100
AcDbLine
 10
342.4877007891439
 20
318.4950197974489
 30
0.0
 11
342.4877007891439
 21
316.4950197974489
 31
0.0
  0
LINE
  5
1D28
330
D
100
AcDbEntity
 67
     1
  8
AM_VIS
100
AcDbLine
 10
310.4877007891439
 20
316.4950197974489
 30
0.0
 11
322.4877007891439
 21
316.4950197974489
 31
0.0
  0
LINE
  5
1D29
330
D
100
AcDbEntity
 67
     1
  8
AM_VIS
100
AcDbLine
 10
322.4877007891439
 20
318.4950197974489
 30
0.0
 11
310.4877007891439
 21
318.4950197974489
 31
0.0
  0
LINE
  5
1D2A
330
D
100
AcDbEntity
 67
     1
  8
AM_VIS
100
AcDbLine
 10
322.4877007891439
 20
316.4950197974489
 30
0.0
 11
322.4877007891439
 21
318.4950197974489
 31
0.0
  0
LINE
  5
1D2B
330
D
100
AcDbEntity
 67
     1
  8
AM_VIS
100
AcDbLine
 10
322.4877007891439
 20
318.4950197974489
 30
0.0
 11
322.4877007891439
 21
409.4950197974489
 31
0.0
  0
LINE
  5
1D2C
330
D
100
AcDbEntity
 67
     1
  8
AM_VIS
100
AcDbLine
 10
310.4877007891439
 20
409.4950197974489
 30
0.0
 11
322.4877007891439
 21
409.4950197974489
 31
0.0
  0
LINE
  5
1D2D
330
D
100
AcDbEntity
 67
     1
  8
AM_VIS
100
AcDbLine
 10
322.4877007891439
 20
411.4950197974488
 30
0.0
 11
310.4877007891439
 21
411.4950197974488
 31
0.0
  0
LINE
  5
1D2E
330
D
100
AcDbEntity
 67
     1
  8
AM_VIS
100
AcDbLine
 10
322.4877007891439
 20
409.4950197974489
 30
0.0
 11
322.4877007891439
 21
411.4950197974488
 31
0.0
  0
LINE
  5
1D2F
330
D
100
AcDbEntity
 67
     1
  8
AM_VIS
100
AcDbLine
 10
342.4877007891439
 20
411.4950197974488
 30
0.0
 11
342.4877007891439
 21
409.4950197974489
 31
0.0
  0
LINE
  5
1D30
330
D
100
AcDbEntity
 67
     1
  8
AM_VIS
100
AcDbLine
 10
420.4877007891439
 20
411.4950197974488
 30
0.0
 11
342.4877007891439
 21
411.4950197974488
 31
0.0
  0
LINE
  5
1D31
330
D
100
AcDbEntity
 67
     1
  8
AM_VIS
100
AcDbLine
 10
420.4877007891439
 20
316.4950197974489
 30
0.0
 11
420.4877007891439
 21
318.4950197974489
 31
0.0
  0
LINE
  5
1D32
330
D
100
AcDbEntity
 67
     1
  8
AM_VIS
100
AcDbLine
 10
420.4877007891439
 20
409.4950197974489
 30
0.0
 11
420.4877007891439
 21
411.4950197974488
 31
0.0
  0
LINE
  5
1D33
330
D
100
AcDbEntity
 67
     1
  8
AM_VIS
100
AcDbLine
 10
420.4877007891439
 20
318.4950197974489
 30
0.0
 11
420.4877007891439
 21
409.4950197974489
 31
0.0
  0
LINE
  5
1D34
330
D
100
AcDbEntity
 67
     1
  8
AM_VIS
100
AcDbLine
 10
420.4877007891439
 20
318.4950197974489
 30
0.0
 11
342.4877007891439
 21
318.4950197974489
 31
0.0
  0
LINE
  5
1D35
330
D
100
AcDbEntity
 67
     1
  8
AM_VIS
100
AcDbLine
 10
342.4877007891439
 20
409.4950197974489
 30
0.0
 11
342.4877007891439
 21
318.4950197974489
 31
0.0
  0
LINE
  5
1D36
330
D
100
AcDbEntity
 67
     1
  8
AM_VIS
100
AcDbLine
 10
342.4877007891439
 20
409.4950197974489
 30
0.0
 11
420.4877007891439
 21
409.4950197974489
 31
0.0
  0
LINE
  5
1D37
330
D
100
AcDbEntity
 67
     1
  8
AM_VIS
100
AcDbLine
 10
334.4877007891439
 20
325.9950197974488
 30
0.0
 11
342.4877007891439
 21
325.9950197974489
 31
0.0
  0
LINE
  5
1D38
330
D
100
AcDbEntity
 67
     1
  8
AM_VIS
100
AcDbLine
 10
334.4877007891439
 20
401.9950197974488
 30
0.0
 11
342.4877007891439
 21
401.9950197974488
 31
0.0
  0
LINE
  5
1D39
330
D
100
AcDbEntity
 67
     1
  8
AM_VIS
100
AcDbLine
 10
420.4877007891439
 20
341.4950197974489
 30
0.0
 11
430.4877007891438
 21
341.4950197974489
 31
0.0
  0
LINE
  5
1D3A
330
D
100
AcDbEntity
 67
     1
  8
AM_VIS
100
AcDbLine
 10
420.4877007891439
 20
386.4950197974489
 30
0.0
 11
430.4877007891438
 21
386.4950197974489
 31
0.0
  0
ARC
  5
1D3B
330
D
100
AcDbEntity
 67
     1
  8
AM_VIS
100
AcDbCircle
 10
376.4877007891439
 20
352.4950197974489
 30
0.0
 40
29.5
100
AcDbArc
 50
251.6735592023259
 51
348.326440797672
  0
ARC
  5
1D3C
330
D
100
AcDbEntity
 67
     1
  8
AM_VIS
100
AcDbCircle
 10
405.9877007891438
 20
352.4950197974489
 30
0.0
 40
6.0
100
AcDbArc
 50
264.1632203988357
 51
95.83677960116434
  0
ARC
  5
1D3D
330
D
100
AcDbEntity
 67
     1
  8
AM_VIS
100
AcDbCircle
 10
376.4877007891439
 20
352.4950197974489
 30
0.0
 40
29.5
100
AcDbArc
 50
11.67355920232799
 51
108.3264407976741
  0
ARC
  5
1D3E
330
D
100
AcDbEntity
 67
     1
  8
AM_VIS
100
AcDbCircle
 10
376.4877007891439
 20
352.4950197974489
 30
0.0
 40
29.5
100
AcDbArc
 50
131.6735592023287
 51
228.3264407976712
  0
ARC
  5
1D3F
330
D
100
AcDbEntity
 67
     1
  8
AM_VIS
100
AcDbCircle
 10
361.7377007891439
 20
378.0427692090898
 30
0.0
 40
6.0
100
AcDbArc
 50
24.16322039883848
 51
215.83677960116
  0
ARC
  5
1D40
330
D
100
AcDbEntity
 67
     1
  8
AM_VIS
100
AcDbCircle
 10
361.7377007891439
 20
326.947270385808
 30
0.0
 40
6.0
100
AcDbArc
 50
144.16322039884
 51
335.8367796011616
  0
LINE
  5
1D41
330
D
100
AcDbEntity
 67
     1
  8
AM_VIS
100
AcDbLine
 10
430.4877007891438
 20
386.4950197974489
 30
0.0
 11
430.4877007891438
 21
341.4950197974489
 31
0.0
  0
LINE
  5
1D42
330
D
100
AcDbEntity
 67
     1
  8
AM_VIS
100
AcDbLine
 10
454.9877007891437
 20
377.4950197974491
 30
0.0
 11
452.4877007891439
 21
378.7860225421932
 31
0.0
  0
LINE
  5
1D43
330
D
100
AcDbEntity
 67
     1
  8
AM_VIS
100
AcDbLine
 10
454.9877007891437
 20
350.4950197974487
 30
0.0
 11
452.4877007891439
 21
349.2040170527046
 31
0.0
  0
LINE
  5
1D44
330
D
100
AcDbEntity
 67
     1
  8
AM_VIS
100
AcDbLine
 10
454.9877007891437
 20
377.4950197974491
 30
0.0
 11
454.9877007891435
 21
350.4950197974486
 31
0.0
  0
LINE
  5
1D45
330
D
100
AcDbEntity
 67
     1
  8
AM_VIS
100
AcDbLine
 10
406.8503936886863
 20
358.4334767011693
 30
0.0
 11
407.1196011212173
 21
358.1690476393479
 31
0.0
  0
LINE
  5
1D46
330
D
100
AcDbEntity
 67
     1
  8
AM_VIS
100
AcDbLine
 10
356.1634998014718
 20
375.8206547238978
 30
0.0
 11
356.2578983702425
 21
376.186009730268
 31
0.0
  0
LINE
  5
1D47
330
D
100
AcDbEntity
 67
     1
  8
AM_VIS
100
AcDbLine
 10
366.085602875972
 20
323.1300020227309
 30
0.0
 11
366.4492088772736
 21
323.2309279672796
 31
0.0
  0
ARC
  5
1D48
330
D
100
AcDbEntity
 67
     1
  8
AM_VIS
100
AcDbCircle
 10
376.4877007891439
 20
352.4950197974489
 30
0.0
 40
30.93716649047569
100
AcDbArc
 50
131.0654114392262
 51
228.9345885607738
  0
ARC
  5
1D49
330
D
100
AcDbEntity
 67
     1
  8
AM_VIS
100
AcDbCircle
 10
376.4877007891439
 20
352.4950197974489
 30
0.0
 40
30.93716649047569
100
AcDbArc
 50
11.06541143922263
 51
108.9345885607742
  0
ARC
  5
1D4A
330
D
100
AcDbEntity
 67
     1
  8
AM_VIS
100
AcDbCircle
 10
405.9877007891438
 20
352.4950197974489
 30
0.0
 40
6.000000000000003
100
AcDbArc
 50
81.73987933698283
 51
278.2601206630172
  0
ARC
  5
1D4B
330
D
100
AcDbEntity
 67
     1
  8
AM_VIS
100
AcDbCircle
 10
376.4877007891439
 20
352.4950197974489
 30
0.0
 40
30.93716649047569
100
AcDbArc
 50
251.0654114392258
 51
348.9345885607774
  0
ARC
  5
1D4C
330
D
100
AcDbEntity
 67
     1
  8
AM_VIS
100
AcDbCircle
 10
361.7377007891439
 20
378.0427692090898
 30
0.0
 40
6.000000000000003
100
AcDbArc
 50
201.7398793369782
 51
38.26012066301893
  0
ARC
  5
1D4D
330
D
100
AcDbEntity
 67
     1
  8
AM_VIS
100
AcDbCircle
 10
361.7377007891439
 20
326.947270385808
 30
0.0
 40
6.000000000000004
100
AcDbArc
 50
321.739879336981
 51
158.2601206630217
  0
LINE
  5
1D4E
330
D
100
AcDbEntity
 67
     1
  8
AM_VIS
100
AcDbLine
 10
362.8935987085122
 20
324.947270385808
 30
0.0
 11
364.0477007891438
 21
326.947270385808
 31
0.0
  0
LINE
  5
1D4F
330
D
100
AcDbEntity
 67
     1
  8
AM_VIS
100
AcDbLine
 10
364.0477007891438
 20
326.947270385808
 30
0.0
 11
362.8935987085122
 21
328.947270385808
 31
0.0
  0
LINE
  5
1D50
330
D
100
AcDbEntity
 67
     1
  8
AM_VIS
100
AcDbLine
 10
362.8935987085122
 20
328.947270385808
 30
0.0
 11
360.5818028697756
 21
328.947270385808
 31
0.0
  0
LINE
  5
1D51
330
D
100
AcDbEntity
 67
     1
  8
AM_VIS
100
AcDbLine
 10
360.5818028697756
 20
328.947270385808
 30
0.0
 11
359.4277007891439
 21
326.947270385808
 31
0.0
  0
LINE
  5
1D52
330
D
100
AcDbEntity
 67
     1
  8
AM_VIS
100
AcDbLine
 10
359.4277007891439
 20
326.947270385808
 30
0.0
 11
360.5818028697756
 21
324.947270385808
 31
0.0
  0
LINE
  5
1D53
330
D
100
AcDbEntity
 67
     1
  8
AM_VIS
100
AcDbLine
 10
360.5818028697756
 20
324.947270385808
 30
0.0
 11
362.8935987085122
 21
324.947270385808
 31
0.0
  0
CIRCLE
  5
1D54
330
D
100
AcDbEntity
 67
     1
  8
AM_VIS
100
AcDbCircle
 10
361.7377007891439
 20
326.947270385808
 30
0.0
 40
5.784999999999998
  0
LINE
  5
1D55
330
D
100
AcDbEntity
 67
     1
  8
AM_VIS
100
AcDbLine
 10
362.8935987085122
 20
376.0427692090898
 30
0.0
 11
364.047700789144
 21
378.0427692090898
 31
0.0
  0
LINE
  5
1D56
330
D
100
AcDbEntity
 67
     1
  8
AM_VIS
100
AcDbLine
 10
364.047700789144
 20
378.0427692090898
 30
0.0
 11
362.8935987085122
 21
380.0427692090898
 31
0.0
  0
LINE
  5
1D57
330
D
100
AcDbEntity
 67
     1
  8
AM_VIS
100
AcDbLine
 10
362.8935987085122
 20
380.0427692090898
 30
0.0
 11
360.5818028697756
 21
380.0427692090898
 31
0.0
  0
LINE
  5
1D58
330
D
100
AcDbEntity
 67
     1
  8
AM_VIS
100
AcDbLine
 10
360.5818028697756
 20
380.0427692090898
 30
0.0
 11
359.4277007891439
 21
378.0427692090898
 31
0.0
  0
LINE
  5
1D59
330
D
100
AcDbEntity
 67
     1
  8
AM_VIS
100
AcDbLine
 10
359.4277007891439
 20
378.0427692090898
 30
0.0
 11
360.5818028697756
 21
376.0427692090898
 31
0.0
  0
LINE
  5
1D5A
330
D
100
AcDbEntity
 67
     1
  8
AM_VIS
100
AcDbLine
 10
360.5818028697756
 20
376.0427692090898
 30
0.0
 11
362.8935987085122
 21
376.0427692090898
 31
0.0
  0
CIRCLE
  5
1D5B
330
D
100
AcDbEntity
 67
     1
  8
AM_VIS
100
AcDbCircle
 10
361.7377007891439
 20
378.0427692090898
 30
0.0
 40
5.784999999999998
  0
LINE
  5
1D5C
330
D
100
AcDbEntity
 67
     1
  8
AM_VIS
100
AcDbLine
 10
407.1435987085122
 20
350.4950197974489
 30
0.0
 11
408.2977007891438
 21
352.4950197974489
 31
0.0
  0
LINE
  5
1D5D
330
D
100
AcDbEntity
 67
     1
  8
AM_VIS
100
AcDbLine
 10
408.297700789144
 20
352.4950197974489
 30
0.0
 11
407.1435987085122
 21
354.4950197974489
 31
0.0
  0
LINE
  5
1D5E
330
D
100
AcDbEntity
 67
     1
  8
AM_VIS
100
AcDbLine
 10
407.1435987085122
 20
354.4950197974489
 30
0.0
 11
404.8318028697756
 21
354.4950197974489
 31
0.0
  0
LINE
  5
1D5F
330
D
100
AcDbEntity
 67
     1
  8
AM_VIS
100
AcDbLine
 10
404.8318028697756
 20
354.4950197974489
 30
0.0
 11
403.6777007891439
 21
352.4950197974489
 31
0.0
  0
LINE
  5
1D60
330
D
100
AcDbEntity
 67
     1
  8
AM_VIS
100
AcDbLine
 10
403.6777007891439
 20
352.4950197974489
 30
0.0
 11
404.8318028697756
 21
350.4950197974489
 31
0.0
  0
LINE
  5
1D61
330
D
100
AcDbEntity
 67
     1
  8
AM_VIS
100
AcDbLine
 10
404.8318028697756
 20
350.4950197974489
 30
0.0
 11
407.1435987085123
 21
350.4950197974489
 31
0.0
  0
CIRCLE
  5
1D62
330
D
100
AcDbEntity
 67
     1
  8
AM_VIS
100
AcDbCircle
 10
405.9877007891438
 20
352.4950197974489
 30
0.0
 40
5.784999999999998
  0
DIMENSION
  5
1D63
330
D
100
AcDbEntity
 67
     1
  8
AM_5
100
AcDbDimension
  2
*D5
 10
350.0958584110534
 20
153.2127143474582
 30
0.0
 11
367.6968105220103
 21
111.5491008967126
 31
0.0
 70
   163
  1
G1/4
 71
     5
 42
33.5927070000001
  3
AM_ISO$3
100
AcDbDiametricDimension
 15
352.8795431672336
 25
140.8779211113229
 35
0.0
 40
0.0
1001
ACAD
1000
DSTYLE
1002
{
1070
    40
1040
1.5
1070
   140
1040
3.5
1070
   144
1040
2.6566
1070
   272
1070
     8
1002
}
  0
ARC
  5
1D64
330
D
100
AcDbEntity
 67
     1
  8
AM_VIS
100
AcDbCircle
 10
179.4877007891434
 20
342.4950197974449
 30
0.0
 40
1.0
100
AcDbArc
 50
180.0
 51
270.0
  0
ARC
  5
1D65
330
D
100
AcDbEntity
 67
     1
  8
AM_VIS
100
AcDbCircle
 10
179.4877007891434
 20
385.4950197974449
 30
0.0
 40
1.0
100
AcDbArc
 50
90.0
 51
180.0
  0
LINE
  5
1D66
330
D
100
AcDbEntity
 67
     1
  8
AM_VIS
100
AcDbLine
 10
178.4877007891439
 20
342.4950197974447
 30
0.0
 11
178.4877007891439
 21
385.4950197974447
 31
0.0
  0
LINE
  5
1D67
330
D
100
AcDbEntity
 67
     1
  8
AM_VIS
100
AcDbLine
 10
310.4877007891439
 20
411.4950197974487
 30
0.0
 11
310.4877007891439
 21
405.4950197974488
 31
0.0
  0
LINE
  5
1D68
330
D
100
AcDbEntity
 67
     1
  8
AM_VIS
100
AcDbLine
 10
310.4877007891439
 20
322.4950197974488
 30
0.0
 11
310.4877007891439
 21
316.4950197974488
 31
0.0
  0
LINE
  5
1D69
330
D
100
AcDbEntity
 67
     1
  8
AM_VIS
100
AcDbLine
 10
274.9877007891439
 20
405.4950197974488
 30
0.0
 11
274.9877007891439
 21
411.4950197974487
 31
0.0
  0
LINE
  5
1D6A
330
D
100
AcDbEntity
 67
     1
  8
AM_VIS
100
AcDbLine
 10
274.9877007891439
 20
316.4950197974488
 30
0.0
 11
274.9877007891439
 21
322.4950197974488
 31
0.0
  0
LINE
  5
1D6B
330
D
100
AcDbEntity
 67
     1
  8
AM_VIS
100
AcDbLine
 10
217.9877007891439
 20
411.4950197974446
 30
0.0
 11
217.9877007891439
 21
405.4950197974447
 31
0.0
  0
LINE
  5
1D6C
330
D
100
AcDbEntity
 67
     1
  8
AM_VIS
100
AcDbLine
 10
217.9877007891439
 20
322.4950197974448
 30
0.0
 11
217.9877007891439
 21
316.4950197974448
 31
0.0
  0
LINE
  5
1D6D
330
D
100
AcDbEntity
 67
     1
  8
AM_VIS
100
AcDbLine
 10
182.4877007891439
 20
316.4950197974448
 30
0.0
 11
182.4877007891439
 21
322.4950197974448
 31
0.0
  0
LINE
  5
1D6E
330
D
100
AcDbEntity
 67
     1
  8
AM_VIS
100
AcDbLine
 10
182.4877007891439
 20
405.4950197974447
 30
0.0
 11
182.4877007891439
 21
411.4950197974446
 31
0.0
  0
LINE
  5
1D6F
330
D
100
AcDbEntity
 67
     1
  8
AM_VIS
100
AcDbLine
 10
179.4877007891439
 20
386.4950197974447
 30
0.0
 11
182.4877007891439
 21
386.4950197974447
 31
0.0
  0
LINE
  5
1D70
330
D
100
AcDbEntity
 67
     1
  8
AM_VIS
100
AcDbLine
 10
179.4877007891439
 20
341.4950197974447
 30
0.0
 11
182.4877007891439
 21
341.4950197974447
 31
0.0
  0
LINE
  5
1D71
330
D
100
AcDbEntity
 67
     1
  8
AM_VIS
100
AcDbLine
 10
217.9877007891439
 20
320.4950197974562
 30
0.0
 11
274.9877007891439
 21
320.495019797456
 31
0.0
  0
LINE
  5
1D72
330
D
100
AcDbEntity
 67
     1
  8
AM_VIS
100
AcDbLine
 10
217.9877007891439
 20
407.4950197974446
 30
0.0
 11
274.9877007891439
 21
407.4950197974446
 31
0.0
  0
LINE
  5
1D73
330
D
100
AcDbEntity
 67
     1
  8
AM_VIS
100
AcDbLine
 10
310.4877007891439
 20
322.4950197974488
 30
0.0
 11
310.4877007891439
 21
405.4950197974488
 31
0.0
  0
LINE
  5
1D74
330
D
100
AcDbEntity
 67
     1
  8
AM_VIS
100
AcDbLine
 10
310.4877007891439
 20
411.4950197974487
 30
0.0
 11
274.9877007891439
 21
411.4950197974487
 31
0.0
  0
LINE
  5
1D75
330
D
100
AcDbEntity
 67
     1
  8
AM_VIS
100
AcDbLine
 10
274.9877007891439
 20
322.4950197974488
 30
0.0
 11
274.9877007891439
 21
405.4950197974488
 31
0.0
  0
LINE
  5
1D76
330
D
100
AcDbEntity
 67
     1
  8
AM_VIS
100
AcDbLine
 10
274.9877007891439
 20
316.4950197974488
 30
0.0
 11
310.4877007891439
 21
316.4950197974488
 31
0.0
  0
LINE
  5
1D77
330
D
100
AcDbEntity
 67
     1
  8
AM_VIS
100
AcDbLine
 10
217.9877007891439
 20
322.4950197974448
 30
0.0
 11
217.9877007891439
 21
405.4950197974447
 31
0.0
  0
LINE
  5
1D78
330
D
100
AcDbEntity
 67
     1
  8
AM_VIS
100
AcDbLine
 10
182.4877007891439
 20
316.4950197974448
 30
0.0
 11
217.9877007891439
 21
316.4950197974448
 31
0.0
  0
LINE
  5
1D79
330
D
100
AcDbEntity
 67
     1
  8
AM_VIS
100
AcDbLine
 10
182.4877007891439
 20
322.4950197974448
 30
0.0
 11
182.4877007891439
 21
405.4950197974447
 31
0.0
  0
LINE
  5
1D7A
330
D
100
AcDbEntity
 67
     1
  8
AM_VIS
100
AcDbLine
 10
217.9877007891439
 20
411.4950197974446
 30
0.0
 11
182.4877007891439
 21
411.4950197974446
 31
0.0
  0
LINE
  5
1D7B
330
D
100
AcDbEntity
 67
     1
  8
AM_VIS
100
AcDbLine
 10
217.9877007891439
 20
391.8450197974441
 30
0.0
 11
274.9877007891439
 21
391.8450197974441
 31
0.0
  0
LINE
  5
1D7C
330
D
100
AcDbEntity
 67
     1
  8
AM_VIS
100
AcDbLine
 10
217.9877007891439
 20
386.5450197974444
 30
0.0
 11
274.9877007891439
 21
386.5450197974444
 31
0.0
  0
ARC
  5
1D7D
330
D
100
AcDbEntity
 67
     1
  8
AM_VIS
100
AcDbCircle
 10
179.4877007891434
 20
155.5453177293867
 30
0.0
 40
1.0
100
AcDbArc
 50
180.0
 51
270.0
  0
ARC
  5
1D7E
330
D
100
AcDbEntity
 67
     1
  8
AM_VIS
100
AcDbCircle
 10
179.4877007891434
 20
198.5453177293866
 30
0.0
 40
1.0
100
AcDbArc
 50
90.0
 51
180.0
  0
CIRCLE
  5
1D7F
330
D
100
AcDbEntity
 67
     1
  8
AM_VIS
100
AcDbCircle
 10
202.9877007891434
 20
168.0453177293901
 30
0.0
 40
9.000000000000007
  0
CIRCLE
  5
1D80
330
D
100
AcDbEntity
 67
     1
  8
AM_VIS
100
AcDbCircle
 10
202.9877007891434
 20
168.0453177293901
 30
0.0
 40
7.474999999999998
  0
CIRCLE
  5
1D81
330
D
100
AcDbEntity
 67
     1
  8
AM_VIS
100
AcDbCircle
 10
207.4877007891434
 20
189.0453177293901
 30
0.0
 40
5.5
  0
CIRCLE
  5
1D82
330
D
100
AcDbEntity
 67
     1
  8
AM_VIS
100
AcDbCircle
 10
207.4877007891434
 20
189.0453177293901
 30
0.0
 40
5.9
  0
CIRCLE
  5
1D83
330
D
100
AcDbEntity
 67
     1
  8
AM_VIS
100
AcDbCircle
 10
285.4877007891435
 20
189.0453177293891
 30
0.0
 40
5.5
  0
CIRCLE
  5
1D84
330
D
100
AcDbEntity
 67
     1
  8
AM_VIS
100
AcDbCircle
 10
285.4877007891435
 20
189.0453177293891
 30
0.0
 40
5.9
  0
CIRCLE
  5
1D85
330
D
100
AcDbEntity
 67
     1
  8
AM_VIS
100
AcDbCircle
 10
289.9877007891435
 20
168.0453177293887
 30
0.0
 40
9.000000000000007
  0
CIRCLE
  5
1D86
330
D
100
AcDbEntity
 67
     1
  8
AM_VIS
100
AcDbCircle
 10
289.9877007891435
 20
168.0453177293887
 30
0.0
 40
7.474999999999998
  0
LINE
  5
1D87
330
D
100
AcDbEntity
 67
     1
  8
AM_VIS
100
AcDbLine
 10
178.4877007891439
 20
155.5453177293864
 30
0.0
 11
178.4877007891439
 21
198.5453177293864
 31
0.0
  0
LINE
  5
1D88
330
D
100
AcDbEntity
 67
     1
  8
AM_VIS
100
AcDbLine
 10
310.4877007891439
 20
224.5453177293905
 30
0.0
 11
310.4877007891439
 21
218.5453177293905
 31
0.0
  0
LINE
  5
1D89
330
D
100
AcDbEntity
 67
     1
  8
AM_VIS
100
AcDbLine
 10
310.4877007891439
 20
135.5453177293905
 30
0.0
 11
310.4877007891439
 21
129.5453177293905
 31
0.0
  0
LINE
  5
1D8A
330
D
100
AcDbEntity
 67
     1
  8
AM_VIS
100
AcDbLine
 10
274.9877007891439
 20
218.5453177293905
 30
0.0
 11
274.9877007891439
 21
224.5453177293905
 31
0.0
  0
LINE
  5
1D8B
330
D
100
AcDbEntity
 67
     1
  8
AM_VIS
100
AcDbLine
 10
274.9877007891439
 20
129.5453177293905
 30
0.0
 11
274.9877007891439
 21
135.5453177293905
 31
0.0
  0
LINE
  5
1D8C
330
D
100
AcDbEntity
 67
     1
  8
AM_VIS
100
AcDbLine
 10
217.9877007891439
 20
224.5453177293864
 30
0.0
 11
217.9877007891439
 21
218.5453177293864
 31
0.0
  0
LINE
  5
1D8D
330
D
100
AcDbEntity
 67
     1
  8
AM_VIS
100
AcDbLine
 10
217.9877007891439
 20
135.5453177293865
 30
0.0
 11
217.9877007891439
 21
129.5453177293865
 31
0.0
  0
LINE
  5
1D8E
330
D
100
AcDbEntity
 67
     1
  8
AM_VIS
100
AcDbLine
 10
182.4877007891439
 20
129.5453177293865
 30
0.0
 11
182.4877007891439
 21
135.5453177293865
 31
0.0
  0
LINE
  5
1D8F
330
D
100
AcDbEntity
 67
     1
  8
AM_VIS
100
AcDbLine
 10
182.4877007891439
 20
218.5453177293864
 30
0.0
 11
182.4877007891439
 21
224.5453177293864
 31
0.0
  0
LINE
  5
1D90
330
D
100
AcDbEntity
 67
     1
  8
AM_VIS
100
AcDbLine
 10
179.4877007891439
 20
199.5453177293864
 30
0.0
 11
182.4877007891439
 21
199.5453177293864
 31
0.0
  0
LINE
  5
1D91
330
D
100
AcDbEntity
 67
     1
  8
AM_VIS
100
AcDbLine
 10
179.4877007891439
 20
154.5453177293864
 30
0.0
 11
182.4877007891439
 21
154.5453177293864
 31
0.0
  0
LINE
  5
1D92
330
D
100
AcDbEntity
 67
     1
  8
AM_VIS
100
AcDbLine
 10
217.9877007891439
 20
133.5453177293978
 30
0.0
 11
274.9877007891439
 21
133.5453177293978
 31
0.0
  0
LINE
  5
1D93
330
D
100
AcDbEntity
 67
     1
  8
AM_VIS
100
AcDbLine
 10
217.9877007891439
 20
220.5453177293864
 30
0.0
 11
274.9877007891439
 21
220.5453177293864
 31
0.0
  0
LINE
  5
1D94
330
D
100
AcDbEntity
 67
     1
  8
AM_VIS
100
AcDbLine
 10
310.4877007891439
 20
135.5453177293905
 30
0.0
 11
310.4877007891439
 21
218.5453177293905
 31
0.0
  0
LINE
  5
1D95
330
D
100
AcDbEntity
 67
     1
  8
AM_VIS
100
AcDbLine
 10
310.4877007891439
 20
224.5453177293905
 30
0.0
 11
274.9877007891439
 21
224.5453177293905
 31
0.0
  0
LINE
  5
1D96
330
D
100
AcDbEntity
 67
     1
  8
AM_VIS
100
AcDbLine
 10
274.9877007891439
 20
135.5453177293905
 30
0.0
 11
274.9877007891439
 21
218.5453177293905
 31
0.0
  0
LINE
  5
1D97
330
D
100
AcDbEntity
 67
     1
  8
AM_VIS
100
AcDbLine
 10
274.9877007891439
 20
129.5453177293905
 30
0.0
 11
310.4877007891439
 21
129.5453177293905
 31
0.0
  0
LINE
  5
1D98
330
D
100
AcDbEntity
 67
     1
  8
AM_VIS
100
AcDbLine
 10
217.9877007891439
 20
135.5453177293865
 30
0.0
 11
217.9877007891439
 21
218.5453177293864
 31
0.0
  0
LINE
  5
1D99
330
D
100
AcDbEntity
 67
     1
  8
AM_VIS
100
AcDbLine
 10
182.4877007891439
 20
129.5453177293865
 30
0.0
 11
217.9877007891439
 21
129.5453177293865
 31
0.0
  0
LINE
  5
1D9A
330
D
100
AcDbEntity
 67
     1
  8
AM_VIS
100
AcDbLine
 10
182.4877007891439
 20
135.5453177293865
 30
0.0
 11
182.4877007891439
 21
218.5453177293864
 31
0.0
  0
LINE
  5
1D9B
330
D
100
AcDbEntity
 67
     1
  8
AM_VIS
100
AcDbLine
 10
217.9877007891439
 20
224.5453177293864
 30
0.0
 11
182.4877007891439
 21
224.5453177293864
 31
0.0
  0
LINE
  5
1D9C
330
D
100
AcDbEntity
 67
     1
  8
AM_VIS
100
AcDbLine
 10
217.9877007891439
 20
204.8953177293859
 30
0.0
 11
274.9877007891439
 21
204.8953177293859
 31
0.0
  0
LINE
  5
1D9D
330
D
100
AcDbEntity
 67
     1
  8
AM_VIS
100
AcDbLine
 10
217.9877007891439
 20
199.5953177293861
 30
0.0
 11
274.9877007891439
 21
199.5953177293861
 31
0.0
  0
LINE
  5
1D9E
330
D
100
AcDbEntity
 67
     1
  8
CENTER
  6
CENTER
100
AcDbLine
 10
285.4877007891435
 20
182.5453177293892
 30
0.0
 11
285.4877007891435
 21
195.5453177293891
 31
0.0
  0
LINE
  5
1D9F
330
D
100
AcDbEntity
 67
     1
  8
CENTER
  6
CENTER
100
AcDbLine
 10
278.9877007891434
 20
189.0453177293892
 30
0.0
 11
291.9877007891439
 21
189.0453177293892
 31
0.0
  0
LINE
  5
1DA0
330
D
100
AcDbEntity
 67
     1
  8
CENTER
  6
CENTER
100
AcDbLine
 10
207.4877007891434
 20
182.5453177293901
 30
0.0
 11
207.4877007891434
 21
195.54531772939
 31
0.0
  0
LINE
  5
1DA1
330
D
100
AcDbEntity
 67
     1
  8
CENTER
  6
CENTER
100
AcDbLine
 10
200.9877007891434
 20
189.0453177293901
 30
0.0
 11
213.9877007891439
 21
189.0453177293901
 31
0.0
  0
LINE
  5
1DA2
330
D
100
AcDbEntity
 67
     1
  8
CENTER
100
AcDbLine
 10
214.3088930218194
 20
168.0453177293901
 30
0.0
 11
191.666508556468
 21
168.0453177293901
 31
0.0
  0
LINE
  5
1DA3
330
D
100
AcDbEntity
 67
     1
  8
CENTER
100
AcDbLine
 10
202.9877007891434
 20
179.3665099620655
 30
0.0
 11
202.9877007891434
 21
156.7241254967146
 31
0.0
  0
LINE
  5
1DA4
330
D
100
AcDbEntity
 67
     1
  8
CENTER
100
AcDbLine
 10
301.3088930218194
 20
168.0453177293887
 30
0.0
 11
278.666508556468
 21
168.0453177293887
 31
0.0
  0
LINE
  5
1DA5
330
D
100
AcDbEntity
 67
     1
  8
CENTER
100
AcDbLine
 10
289.9877007891435
 20
179.3665099620642
 30
0.0
 11
289.9877007891435
 21
156.7241254967133
 31
0.0
  0
DIMENSION
  5
1F8E
330
D
100
AcDbEntity
 67
     1
  8
AM_5
100
AcDbDimension
  2
*D16
 10
182.4877007891439
 20
236.5453177293864
 30
0.0
 11
192.7377007891436
 21
242.0460067057644
 31
0.0
 70
    32
 71
     5
 42
20.49999999999954
  3
AM_ISO$0
100
AcDbAlignedDimension
 13
202.9877007891434
 23
179.3665099620655
 33
0.0
 14
182.4877007891439
 24
224.5453177293864
 34
0.0
100
AcDbRotatedDimension
1001
ACAD
1000
DSTYLE
1002
{
1070
    40
1040
2.0
1002
}
  0
DIMENSION
  5
1FA4
330
D
100
AcDbEntity
 67
     1
  8
AM_5
100
AcDbDimension
  2
*D17
 10
217.9877007891439
 20
253.5453177293864
 30
0.0
 11
200.2377007891439
 21
253.5453177293864
 31
0.0
 70
   160
 71
     5
 42
35.5
  3
AM_ISO$0
100
AcDbAlignedDimension
 13
182.4877007891439
 23
224.5453177293864
 33
0.0
 14
217.9877007891439
 24
224.5453177293864
 34
0.0
 50
0.0000000000000114
100
AcDbRotatedDimension
1001
ACAD
1000
DSTYLE
1002
{
1070
    40
1040
2.0
1002
}
  0
DIMENSION
  5
1FBA
330
D
100
AcDbEntity
 67
     1
  8
AM_5
100
AcDbDimension
  2
*D18
 10
310.4877007891439
 20
236.5453177293863
 30
0.0
 11
300.2377007891437
 21
242.0460067057642
 31
0.0
 70
    32
 71
     5
 42
20.50000000000046
  3
AM_ISO$0
100
AcDbAlignedDimension
 13
289.9877007891435
 23
179.3665099620642
 33
0.0
 14
310.4877007891439
 24
224.5453177293905
 34
0.0
100
AcDbRotatedDimension
1001
ACAD
1000
DSTYLE
1002
{
1070
    40
1040
2.0
1002
}
  0
DIMENSION
  5
1FD0
330
D
100
AcDbEntity
 67
     1
  8
AM_5
100
AcDbDimension
  2
*D19
 10
310.4877007891439
 20
253.5453177293864
 30
0.0
 11
292.7377007891438
 21
253.5453177293864
 31
0.0
 70
   160
 71
     5
 42
35.5
  3
AM_ISO$0
100
AcDbAlignedDimension
 13
274.9877007891439
 23
224.5453177293905
 33
0.0
 14
310.4877007891439
 24
224.5453177293905
 34
0.0
 50
0.0000000000000114
100
AcDbRotatedDimension
1001
ACAD
1000
DSTYLE
1002
{
1070
    40
1040
2.0
1002
}
  0
DIMENSION
  5
1FE6
330
D
100
AcDbEntity
 67
     1
  8
AM_5
100
AcDbDimension
  2
*D20
 10
163.1975525284513
 20
177.0453177293905
 30
0.0
 11
157.6975525284512
 21
172.5453177293903
 31
0.0
 70
    32
 71
     5
 42
9.000000000000454
  3
AM_ISO$0
100
AcDbAlignedDimension
 13
191.666508556468
 23
168.0453177293901
 33
0.0
 14
175.1975525284513
 24
177.0453177293905
 34
0.0
 50
90.0
100
AcDbRotatedDimension
1001
ACAD
1000
DSTYLE
1002
{
1070
    40
1040
2.0
1002
}
  0
LINE
  5
215B
330
D
100
AcDbEntity
 67
     1
  8
AM_VIS
100
AcDbLine
 10
620.464605537693
 20
185.705571767235
 30
0.0
 11
620.464605537693
 21
181.2879584165096
 31
0.0
  0
LINE
  5
215C
330
D
100
AcDbEntity
 67
     1
  8
AM_VIS
100
AcDbLine
 10
620.464605537693
 20
172.8026770422712
 30
0.0
 11
620.464605537693
 21
168.3850636915461
 31
0.0
  0
LINE
  5
215D
330
D
100
AcDbEntity
 67
     1
  8
AM_VIS
100
AcDbLine
 10
620.4646055376931
 20
168.3850636915461
 30
0.0
 11
624.2903709235183
 21
166.1762570161834
 31
0.0
  0
LINE
  5
215E
330
D
100
AcDbEntity
 67
     1
  8
AM_VIS
100
AcDbLine
 10
631.6388401518678
 20
161.9336163290644
 30
0.0
 11
635.4646055376929
 21
159.7248096537017
 31
0.0
  0
LINE
  5
215F
330
D
100
AcDbEntity
 67
     1
  8
AM_VIS
100
AcDbLine
 10
635.4646055376929
 20
159.7248096537017
 30
0.0
 11
639.290370923518
 21
161.9336163290644
 31
0.0
  0
LINE
  5
2160
330
D
100
AcDbEntity
 67
     1
  8
AM_VIS
100
AcDbLine
 10
646.6388401518677
 20
166.1762570161834
 30
0.0
 11
650.4646055376929
 21
168.3850636915461
 31
0.0
  0
LINE
  5
2161
330
D
100
AcDbEntity
 67
     1
  8
AM_VIS
100
AcDbLine
 10
646.6388401518677
 20
166.1762570161834
 30
0.0
 11
639.2903709235183
 21
161.9336163290644
 31
0.0
  0
LINE
  5
2162
330
D
100
AcDbEntity
 67
     1
  8
AM_VIS
100
AcDbLine
 10
631.6388401518678
 20
161.9336163290644
 30
0.0
 11
624.2903709235183
 21
166.1762570161834
 31
0.0
  0
LINE
  5
2163
330
D
100
AcDbEntity
 67
     1
  8
AM_VIS
100
AcDbLine
 10
620.464605537693
 20
172.8026770422712
 30
0.0
 11
620.464605537693
 21
181.2879584165096
 31
0.0
  0
LINE
  5
2164
330
D
100
AcDbEntity
 67
     1
  8
AM_VIS
100
AcDbLine
 10
646.6388401518677
 20
187.9143784425976
 30
0.0
 11
650.4646055376929
 21
185.705571767235
 31
0.0
  0
LINE
  5
2165
330
D
100
AcDbEntity
 67
     1
  8
AM_VIS
100
AcDbLine
 10
639.2903709235183
 20
192.1570191297167
 30
0.0
 11
646.6388401518677
 21
187.9143784425976
 31
0.0
  0
LINE
  5
2166
330
D
100
AcDbEntity
 67
     1
  8
AM_VIS
100
AcDbLine
 10
635.4646055376929
 20
194.3658258050795
 30
0.0
 11
639.2903709235183
 21
192.1570191297167
 31
0.0
  0
LINE
  5
2167
330
D
100
AcDbEntity
 67
     1
  8
AM_VIS
100
AcDbLine
 10
631.6388401518677
 20
192.1570191297167
 30
0.0
 11
635.4646055376929
 21
194.3658258050795
 31
0.0
  0
LINE
  5
2168
330
D
100
AcDbEntity
 67
     1
  8
AM_VIS
100
AcDbLine
 10
624.2903709235183
 20
187.9143784425976
 30
0.0
 11
631.6388401518677
 21
192.1570191297167
 31
0.0
  0
LINE
  5
2169
330
D
100
AcDbEntity
 67
     1
  8
AM_VIS
100
AcDbLine
 10
620.4646055376931
 20
185.705571767235
 30
0.0
 11
624.2903709235183
 21
187.9143784425976
 31
0.0
  0
LINE
  5
216A
330
D
100
AcDbEntity
 67
     1
  8
AM_VIS
100
AcDbLine
 10
650.464605537693
 20
172.8026770422712
 30
0.0
 11
650.464605537693
 21
168.3850636915461
 31
0.0
  0
LINE
  5
216B
330
D
100
AcDbEntity
 67
     1
  8
AM_VIS
100
AcDbLine
 10
650.464605537693
 20
181.2879584165096
 30
0.0
 11
650.464605537693
 21
172.8026770422712
 31
0.0
  0
LINE
  5
216C
330
D
100
AcDbEntity
 67
     1
  8
AM_VIS
100
AcDbLine
 10
650.464605537693
 20
185.705571767235
 30
0.0
 11
650.464605537693
 21
181.2879584165096
 31
0.0
  0
ARC
  5
216D
330
D
100
AcDbEntity
 67
     1
  8
AM_VIS
100
AcDbCircle
 10
635.4646055376929
 20
177.0453177293905
 30
0.0
 40
22.5
100
AcDbArc
 50
90.0
 51
180.0
  0
ARC
  5
216E
330
D
100
AcDbEntity
 67
     1
  8
AM_VIS
100
AcDbCircle
 10
635.4646055376929
 20
177.0453177293905
 30
0.0
 40
22.5
100
AcDbArc
 50
0.0
 51
90.0
  0
ARC
  5
216F
330
D
100
AcDbEntity
 67
     1
  8
AM_VIS
100
AcDbCircle
 10
635.4646055376929
 20
177.0453177293905
 30
0.0
 40
22.5
100
AcDbArc
 50
180.0
 51
270.0
  0
ARC
  5
2170
330
D
100
AcDbEntity
 67
     1
  8
AM_VIS
100
AcDbCircle
 10
635.4646055376929
 20
177.0453177293905
 30
0.0
 40
22.5
100
AcDbArc
 50
270.0
 51
0.0
  0
ARC
  5
2171
330
D
100
AcDbEntity
 67
     1
  8
AM_VIS
100
AcDbCircle
 10
635.4646055376929
 20
177.0453177293905
 30
0.0
 40
15.58845726811987
100
AcDbArc
 50
315.793169048262
 51
344.2068309517354
  0
ARC
  5
2172
330
D
100
AcDbEntity
 67
     1
  8
AM_VIS
100
AcDbCircle
 10
635.4646055376929
 20
177.0453177293905
 30
0.0
 40
15.58845726811987
100
AcDbArc
 50
255.793169048264
 51
284.206830951736
  0
ARC
  5
2173
330
D
100
AcDbEntity
 67
     1
  8
AM_VIS
100
AcDbCircle
 10
635.4646055376929
 20
177.0453177293905
 30
0.0
 40
15.58845726811987
100
AcDbArc
 50
195.7931690482646
 51
224.206830951738
  0
ARC
  5
2174
330
D
100
AcDbEntity
 67
     1
  8
AM_VIS
100
AcDbCircle
 10
635.4646055376929
 20
177.0453177293905
 30
0.0
 40
15.58845726811987
100
AcDbArc
 50
135.7931690482619
 51
164.2068309517353
  0
ARC
  5
2175
330
D
100
AcDbEntity
 67
     1
  8
AM_VIS
100
AcDbCircle
 10
635.4646055376929
 20
177.0453177293905
 30
0.0
 40
15.58845726811987
100
AcDbArc
 50
75.793169048264
 51
104.206830951736
  0
ARC
  5
2176
330
D
100
AcDbEntity
 67
     1
  8
AM_VIS
100
AcDbCircle
 10
635.4646055376929
 20
177.0453177293905
 30
0.0
 40
15.58845726811987
100
AcDbArc
 50
15.79316904826462
 51
44.20683095173802
  0
CIRCLE
  5
2177
330
D
100
AcDbEntity
 67
     1
  8
AM_VIS
100
AcDbCircle
 10
635.4646055376929
 20
177.0453177293905
 30
0.0
 40
10.0
  0
CIRCLE
  5
2178
330
D
100
AcDbEntity
 67
     1
  8
AM_VIS
100
AcDbCircle
 10
635.4646055376929
 20
177.0453177293905
 30
0.0
 40
8.5
  0
DIMENSION
  5
2179
330
D
100
AcDbEntity
 67
     1
  8
AM_5
100
AcDbDimension
  2
*D21
 10
599.4646055376928
 20
97.66580860355766
 30
0.0
 11
635.4646055376929
 21
103.1664975799356
 31
0.0
 70
    32
  1
{\Famgdt;o}<>
 71
     5
 42
72.00000000000011
  3
AM_ISO$0
100
AcDbAlignedDimension
 13
671.4646055376929
 23
135.2766816625813
 33
0.0
 14
599.4646055376928
 24
135.2766816625813
 34
0.0
100
AcDbRotatedDimension
1001
ACAD
1000
DSTYLE
1002
{
1070
    40
1040
2.0
1002
}
  0
DIMENSION
  5
217A
330
D
100
AcDbEntity
 67
     1
  8
AM_5
100
AcDbDimension
  2
*D22
 10
682.9646055376929
 20
76.41280251966915
 30
0.0
 11
635.4646055376929
 21
81.91280251966915
 31
0.0
 70
    32
  1
{\Famgdt;o}<>
 71
     5
 42
95.0
  3
AM_ISO$0
100
AcDbAlignedDimension
 13
587.9646055376929
 23
131.5453177293905
 33
0.0
 14
682.9646055376929
 24
131.5453177293904
 34
0.0
100
AcDbRotatedDimension
1001
ACAD
1000
DSTYLE
1002
{
1070
    40
1040
2.0
1002
}
  0
LEADER
  5
217B
330
D
100
AcDbEntity
 67
     1
  8
AM_5
100
AcDbLeader
  3
AM_ISO$7
 76
     3
 10
602.6218523204445
 20
216.9224033297874
 30
0.0
 10
614.1762381452168
 20
241.3389871146489
 30
0.0
 10
659.9930811889403
 20
241.3389871146489
 30
0.0
1001
ACAD
1000
DSTYLE
1002
{
1070
    40
1040
2.0
1070
   140
1040
3.5
1070
   147
1040
1.0
1002
}
  0
TEXT
  5
217C
330
D
100
AcDbEntity
 67
     1
  8
AM_5
100
AcDbText
 10
614.5207259104291
 20
243.0610722958742
 30
0.0
 40
7.0
  1
4-M10*16L
100
AcDbText
  0
LINE
  5
217D
330
D
100
AcDbEntity
 67
     1
  8
AM_7
  6
AM_ISO08W050x2
100
AcDbLine
 10
606.1431152053181
 20
141.0453177293904
 30
0.0
 11
593.4448385742913
 21
141.0453177293904
 31
0.0
1001
GENIUS_GENOREF_13
1005
219B
  0
LINE
  5
217E
330
D
100
AcDbEntity
 67
     1
  8
AM_7
  6
AM_ISO08W050x2
100
AcDbLine
 10
599.4646055376928
 20
147.32593788039
 30
0.0
 11
599.4646055376928
 21
135.2766816625813
 31
0.0
1001
GENIUS_GENOREF_13
1005
219B
  0
LINE
  5
217F
330
D
100
AcDbEntity
 67
     1
  8
AM_VIS
100
AcDbLine
 10
680.9646055376929
 20
224.5453177293905
 30
0.0
 11
682.9646055376929
 21
222.5453177293905
 31
0.0
  0
LINE
  5
2180
330
D
100
AcDbEntity
 67
     1
  8
AM_VIS
100
AcDbLine
 10
682.9646055376929
 20
222.5453177293905
 30
0.0
 11
682.9646055376929
 21
131.5453177293904
 31
0.0
  0
LINE
  5
2181
330
D
100
AcDbEntity
 67
     1
  8
AM_VIS
100
AcDbLine
 10
682.9646055376929
 20
131.5453177293904
 30
0.0
 11
680.9646055376929
 21
129.5453177293904
 31
0.0
  0
LINE
  5
2182
330
D
100
AcDbEntity
 67
     1
  8
AM_VIS
100
AcDbLine
 10
589.9646055376928
 20
129.5453177293904
 30
0.0
 11
587.9646055376928
 21
131.5453177293905
 31
0.0
  0
LINE
  5
2183
330
D
100
AcDbEntity
 67
     1
  8
AM_VIS
100
AcDbLine
 10
587.9646055376929
 20
131.5453177293905
 30
0.0
 11
587.9646055376929
 21
222.5453177293905
 31
0.0
  0
LINE
  5
2184
330
D
100
AcDbEntity
 67
     1
  8
AM_VIS
100
AcDbLine
 10
587.9646055376929
 20
222.5453177293905
 30
0.0
 11
589.9646055376928
 21
224.5453177293905
 31
0.0
  0
LINE
  5
2185
330
D
100
AcDbEntity
 67
     1
  8
AM_VIS
100
AcDbLine
 10
680.9646055376929
 20
129.5453177293904
 30
0.0
 11
589.9646055376928
 21
129.5453177293904
 31
0.0
  0
LINE
  5
2186
330
D
100
AcDbEntity
 67
     1
  8
AM_VIS
100
AcDbLine
 10
589.9646055376928
 20
224.5453177293905
 30
0.0
 11
680.9646055376929
 21
224.5453177293905
 31
0.0
  0
CIRCLE
  5
2187
330
D
100
AcDbEntity
 67
     1
  8
AM_VIS
100
AcDbCircle
 10
671.4646055376929
 20
213.0453177293905
 30
0.0
 40
4.188000000000002
  0
CIRCLE
  5
2188
330
D
100
AcDbEntity
 67
     1
  8
AM_VIS
100
AcDbCircle
 10
671.4646055376929
 20
141.0453177293904
 30
0.0
 40
4.187999999999998
  0
CIRCLE
  5
2189
330
D
100
AcDbEntity
 67
     1
  8
AM_VIS
100
AcDbCircle
 10
599.4646055376928
 20
213.0453177293906
 30
0.0
 40
4.188000000000002
  0
CIRCLE
  5
218A
330
D
100
AcDbEntity
 67
     1
  8
AM_VIS
100
AcDbCircle
 10
599.4646055376928
 20
141.0453177293904
 30
0.0
 40
4.187999999999998
  0
LINE
  5
218B
330
D
100
AcDbEntity
 67
     1
  8
AM_7
  6
AM_ISO08W050x2
100
AcDbLine
 10
678.1431152053182
 20
141.0453177293904
 30
0.0
 11
665.4448385742913
 21
141.0453177293904
 31
0.0
1001
GENIUS_GENOREF_13
1005
219A
  0
LINE
  5
218C
330
D
100
AcDbEntity
 67
     1
  8
AM_7
  6
AM_ISO08W050x2
100
AcDbLine
 10
671.4646055376929
 20
147.32593788039
 30
0.0
 11
671.4646055376929
 21
135.2766816625813
 31
0.0
1001
GENIUS_GENOREF_13
1005
219A
  0
LINE
  5
218D
330
D
100
AcDbEntity
 67
     1
  8
AM_7
  6
AM_ISO08W050x2
100
AcDbLine
 10
678.1431152053182
 20
213.0453177293905
 30
0.0
 11
665.4448385742913
 21
213.0453177293905
 31
0.0
1001
GENIUS_GENOREF_13
1005
2199
  0
LINE
  5
218E
330
D
100
AcDbEntity
 67
     1
  8
AM_7
  6
AM_ISO08W050x2
100
AcDbLine
 10
671.4646055376929
 20
219.32593788039
 30
0.0
 11
671.4646055376929
 21
207.2766816625814
 31
0.0
1001
GENIUS_GENOREF_13
1005
2199
  0
LINE
  5
218F
330
D
100
AcDbEntity
 67
     1
  8
AM_7
  6
AM_ISO08W050x2
100
AcDbLine
 10
606.1431152053181
 20
213.0453177293906
 30
0.0
 11
593.4448385742913
 21
213.0453177293906
 31
0.0
1001
GENIUS_GENOREF_13
1005
2198
  0
LINE
  5
2190
330
D
100
AcDbEntity
 67
     1
  8
AM_7
  6
AM_ISO08W050x2
100
AcDbLine
 10
599.4646055376928
 20
219.3259378803901
 30
0.0
 11
599.4646055376928
 21
207.2766816625815
 31
0.0
1001
GENIUS_GENOREF_13
1005
2198
  0
ARC
  5
2191
330
D
100
AcDbEntity
 67
     1
  8
HID
  6
Continuous
100
AcDbCircle
 10
599.4646055376928
 20
213.0453177293906
 30
0.0
 40
4.616164977569667
100
AcDbArc
 50
252.6972430772638
 51
188.6871709135333
  0
ARC
  5
2192
330
D
100
AcDbEntity
 67
     1
  8
HID
  6
Continuous
100
AcDbCircle
 10
671.4646055376929
 20
213.0453177293905
 30
0.0
 40
4.616164977569667
100
AcDbArc
 50
252.6972430772638
 51
188.6871709135333
  0
ARC
  5
2193
330
D
100
AcDbEntity
 67
     1
  8
HID
  6
Continuous
100
AcDbCircle
 10
671.4646055376929
 20
141.0453177293904
 30
0.0
 40
4.616164977569667
100
AcDbArc
 50
252.6972430772638
 51
188.6871709135333
  0
ARC
  5
2194
330
D
100
AcDbEntity
 67
     1
  8
HID
  6
Continuous
100
AcDbCircle
 10
599.4646055376928
 20
141.0453177293904
 30
0.0
 40
4.616164977569667
100
AcDbArc
 50
252.6972430772638
 51
188.6871709135333
  0
LINE
  5
2195
330
D
100
AcDbEntity
 67
     1
  8
AM_7
  6
AM_ISO08W050x2
100
AcDbLine
 10
656.8480356209638
 20
177.0453177293905
 30
0.0
 11
612.9842378572824
 21
177.0453177293905
 31
0.0
1001
GENIUS_GENOREF_13
1005
2197
  0
LINE
  5
2196
330
D
100
AcDbEntity
 67
     1
  8
AM_7
  6
AM_ISO08W050x2
100
AcDbLine
 10
635.4646055376929
 20
197.4507318670912
 30
0.0
 11
635.4646055376929
 21
155.2429523060006
 31
0.0
1001
GENIUS_GENOREF_13
1005
2197
  0
POINT
  5
2197
330
D
100
AcDbEntity
 67
     1
  8
0
 60
     1
100
AcDbPoint
 10
391.214056001983
 20
261.7787287964556
 30
0.0
1001
GENIUS_GENOLIS_13
1002
{
1000
ENT
1005
2196
1005
2195
1005
0
1005
0
1002
}
1001
GENIUS_GENOENT_13
1002
{
1000
MYREF
1005
2197
1002
}
1002
{
1000
GRP
1005
0
1002
}
1001
GENIUS_GENOBJ-N-CRS_13
1002
{
1000
OWNER
1000
GEN
1002
}
1001
GENIUS_GENODEF_13
1002
{
1000
HIER
1070
    10
1002
}
1002
{
1000
MANEDIT
1070
     1
1002
}
1002
{
1000
NOSEL
1070
     0
1002
}
1002
{
1000
BEHIND
1070
     0
1002
}
1002
{
1000
OTHER
1070
     0
1002
}
1002
{
1000
REACTOR
1002
}
  0
POINT
  5
2198
330
D
100
AcDbEntity
 67
     1
  8
0
 60
     1
100
AcDbPoint
 10
355.214056001983
 20
297.7787287964556
 30
0.0
1001
GENIUS_GENOLIS_13
1002
{
1000
ENT
1005
2190
1005
218F
1005
0
1005
0
1002
}
1001
GENIUS_GENOENT_13
1002
{
1000
MYREF
1005
2198
1002
}
1002
{
1000
GRP
1005
0
1002
}
1001
GENIUS_GENOBJ-N-CRS_13
1002
{
1000
OWNER
1000
GEN
1002
}
1001
GENIUS_GENODEF_13
1002
{
1000
HIER
1070
    10
1002
}
1002
{
1000
MANEDIT
1070
     1
1002
}
1002
{
1000
NOSEL
1070
     0
1002
}
1002
{
1000
BEHIND
1070
     0
1002
}
1002
{
1000
OTHER
1070
     0
1002
}
1002
{
1000
REACTOR
1002
}
  0
POINT
  5
2199
330
D
100
AcDbEntity
 67
     1
  8
0
 60
     1
100
AcDbPoint
 10
427.2140560019829
 20
297.7787287964556
 30
0.0
1001
GENIUS_GENOLIS_13
1002
{
1000
ENT
1005
218E
1005
218D
1005
0
1005
0
1002
}
1001
GENIUS_GENOENT_13
1002
{
1000
MYREF
1005
2199
1002
}
1002
{
1000
GRP
1005
0
1002
}
1001
GENIUS_GENOBJ-N-CRS_13
1002
{
1000
OWNER
1000
GEN
1002
}
1001
GENIUS_GENODEF_13
1002
{
1000
HIER
1070
    10
1002
}
1002
{
1000
MANEDIT
1070
     1
1002
}
1002
{
1000
NOSEL
1070
     0
1002
}
1002
{
1000
BEHIND
1070
     0
1002
}
1002
{
1000
OTHER
1070
     0
1002
}
1002
{
1000
REACTOR
1002
}
  0
POINT
  5
219A
330
D
100
AcDbEntity
 67
     1
  8
0
 60
     1
100
AcDbPoint
 10
427.2140560019829
 20
225.7787287964555
 30
0.0
1001
GENIUS_GENOLIS_13
1002
{
1000
ENT
1005
218C
1005
218B
1005
0
1005
0
1002
}
1001
GENIUS_GENOENT_13
1002
{
1000
MYREF
1005
219A
1002
}
1002
{
1000
GRP
1005
0
1002
}
1001
GENIUS_GENOBJ-N-CRS_13
1002
{
1000
OWNER
1000
GEN
1002
}
1001
GENIUS_GENODEF_13
1002
{
1000
HIER
1070
    10
1002
}
1002
{
1000
MANEDIT
1070
     1
1002
}
1002
{
1000
NOSEL
1070
     0
1002
}
1002
{
1000
BEHIND
1070
     0
1002
}
1002
{
1000
OTHER
1070
     0
1002
}
1002
{
1000
REACTOR
1002
}
  0
POINT
  5
219B
330
D
100
AcDbEntity
 67
     1
  8
0
 60
     1
100
AcDbPoint
 10
355.214056001983
 20
225.7787287964555
 30
0.0
1001
GENIUS_GENOLIS_13
1002
{
1000
ENT
1005
217E
1005
217D
1005
0
1005
0
1002
}
1001
GENIUS_GENOENT_13
1002
{
1000
MYREF
1005
219B
1002
}
1002
{
1000
GRP
1005
0
1002
}
1001
GENIUS_GENOBJ-N-CRS_13
1002
{
1000
OWNER
1000
GEN
1002
}
1001
GENIUS_GENODEF_13
1002
{
1000
HIER
1070
    10
1002
}
1002
{
1000
MANEDIT
1070
     1
1002
}
1002
{
1000
NOSEL
1070
     0
1002
}
1002
{
1000
BEHIND
1070
     0
1002
}
1002
{
1000
OTHER
1070
     0
1002
}
1002
{
1000
REACTOR
1002
}
  0
LINE
  5
22A0
330
D
100
AcDbEntity
 67
     1
  8
CENTER
  6
CENTER
100
AcDbLine
 10
351.4877007891439
 20
140.5453177293905
 30
0.0
 11
351.4877007891439
 21
153.5453177293905
 31
0.0
  0
LINE
  5
22A1
330
D
100
AcDbEntity
 67
     1
  8
CENTER
  6
CENTER
100
AcDbLine
 10
344.9877007891439
 20
147.0453177293905
 30
0.0
 11
357.9877007891444
 21
147.0453177293905
 31
0.0
  0
LINE
  5
22E7
330
D
100
AcDbEntity
 67
     1
  8
0
100
AcDbLine
 10
452.4877007891439
 20
378.7860225421932
 30
0.0
 11
430.4877007891438
 21
378.7860225421932
 31
0.0
  0
LINE
  5
22E8
330
D
100
AcDbEntity
 67
     1
  8
0
100
AcDbLine
 10
452.4877007891439
 20
349.2040170527046
 30
0.0
 11
430.4877007891438
 21
349.2040170527046
 31
0.0
  0
LINE
  5
22E9
330
D
100
AcDbEntity
 67
     1
  8
0
100
AcDbLine
 10
452.4877007891439
 20
191.836320474135
 30
0.0
 11
430.4877007891438
 21
191.836320474135
 31
0.0
  0
LINE
  5
22EA
330
D
100
AcDbEntity
 67
     1
  8
0
100
AcDbLine
 10
452.4877007891438
 20
162.254314984646
 30
0.0
 11
430.4877007891438
 21
162.254314984646
 31
0.0
  0
ENDSEC
  0
SECTION
  2
OBJECTS
  0
DICTIONARY
  5
8
330
0
100
AcDbDictionary
281
     1
  3
ACAD_COLOR
350
31
  3
ACAD_GROUP
350
2D
  3
ACAD_LAYOUT
350
C
  3
ACAD_MATERIAL
350
30
  3
ACAD_MLINESTYLE
350
2E
  3
ACAD_PLOTSETTINGS
350
2F
  3
ACAD_PLOTSTYLENAME
350
7
  3
ACAD_TABLESTYLE
350
32
  3
AcadDim
350
707
  3
AcAsAppObject
350
1277
  3
ACASGREF_MASTER
350
12BF
  3
ACDBHEADERROUNDTRIPXREC
350
233A
  3
AcDbVariableDictionary
350
243
  3
AcmDictionary
350
2A7
  3
AD_GREF_MODULE
350
12C0
  3
AD_MAPI_MODULE
350
12D9
  3
AMG
350
24F
  3
AMGSNAPSETTINGS
350
2DE
  3
DWGPROPS
350
2339
  3
MAPISURF_MODULE
350
12C1
  0
DICTIONARY
  5
15
330
14
100
AcDbDictionary
280
     1
281
     1
  3
ACAD_LAYERFILTERS
360
11AF
  3
ACAD_LAYERSTATES
360
16
  3
ACLYDICTIONARY
360
11AE
  0
DICTIONARY
  5
3
330
2
100
AcDbDictionary
280
     1
281
     1
  3
ACAD_INDEX
360
163D
  0
DICTIONARY
  5
629
330
628
100
AcDbDictionary
280
     1
281
     1
  0
DICTIONARY
  5
630
330
62F
100
AcDbDictionary
280
     1
281
     1
  0
DICTIONARY
  5
1667
330
1666
100
AcDbDictionary
280
     1
281
     1
  0
DICTIONARY
  5
233E
330
24D
100
AcDbDictionary
280
     1
281
     1
  3
ACAD_XREC_ROUNDTRIP
360
233F
  0
DICTIONARY
  5
31
102
{ACAD_REACTORS
330
8
102
}
330
8
100
AcDbDictionary
281
     1
  0
DICTIONARY
  5
2D
102
{ACAD_REACTORS
330
8
102
}
330
8
100
AcDbDictionary
281
     1
  0
DICTIONARY
  5
C
102
{ACAD_REACTORS
330
8
102
}
330
8
100
AcDbDictionary
281
     1
  3
Model
350
B
  3
配置1
350
10
  0
DICTIONARY
  5
30
102
{ACAD_REACTORS
330
8
102
}
330
8
100
AcDbDictionary
281
     1
  0
DICTIONARY
  5
2E
102
{ACAD_REACTORS
330
8
102
}
330
8
100
AcDbDictionary
281
     1
  3
STANDARD
350
33
  0
DICTIONARY
  5
2F
102
{ACAD_REACTORS
330
8
102
}
330
8
100
AcDbDictionary
281
     1
  0
ACDBDICTIONARYWDFLT
  5
7
102
{ACAD_REACTORS
330
8
102
}
330
8
100
AcDbDictionary
281
     1
  3
Normal
350
6
100
AcDbDictionaryWithDefault
340
6
  0
DICTIONARY
  5
32
102
{ACAD_REACTORS
330
8
102
}
330
8
100
AcDbDictionary
281
     1
  3
Standard
350
34
  0
XRECORD
  5
707
102
{ACAD_REACTORS
330
8
102
}
330
8
100
AcDbXrecord
280
     1
 90
   990106
  3

 60
     0
 61
     0
 62
     1
 63
     3
 64
     0
 65
     0
 66
     0
 67
     3
 68
     1
 69
     0
 70
     0
 71
     0
 72
     0
 40
0.0
170
     0
  0
ACAD_PROXY_OBJECT
  5
1277
102
{ACAD_REACTORS
330
8
102
}
330
8
100
AcDbProxyObject
 90
      499
 91
      544
 95
  2555929
 70
     0
 93
       10
310
4071
 94
        0
1001
ACAD
1000
AcRTDxfName
1000
ASAPP
  0
ACAD_PROXY_OBJECT
  5
12BF
102
{ACAD_REACTORS
330
8
102
}
330
8
100
AcDbProxyObject
 90
      499
 91
      514
 95
  2555929
 70
     0
 93
       34
310
0100004071
 94
        0
1001
ACAD
1000
AcRTDxfName
1000
ACASGREFMASTER
  0
DICTIONARY
  5
233A
102
{ACAD_REACTORS
330
8
102
}
330
8
100
AcDbDictionary
281
     1
  0
DICTIONARY
  5
243
102
{ACAD_REACTORS
330
8
102
}
330
8
100
AcDbDictionary
281
     1
  3
CTABLESTYLE
350
244
  3
DIMASSOC
350
246
  3
HIDETEXT
350
245
  3
INDEXCTL
350
17FF
  3
PROJECTNAME
350
247
  0
DICTIONARY
  5
2A7
102
{ACAD_REACTORS
330
8
102
}
330
8
100
AcDbDictionary
281
     1
  3
AcmStdDictionary
350
2B4
  3
AMDTSECTSYM_ARROWCOLOR
350
2D0
  0
ACAD_PROXY_OBJECT
  5
12C0
102
{ACAD_REACTORS
330
8
102
}
330
8
100
AcDbProxyObject
 90
      499
 91
      526
 95
  2555929
 70
     0
 93
      114
310
000000438080000000000000000016
 94
        0
1001
ACAD
1000
AcRTDxfName
1000
ACADGREFMODULE
  0
ACAD_PROXY_OBJECT
  5
12D9
102
{ACAD_REACTORS
330
8
102
}
330
8
100
AcDbProxyObject
 90
      499
 91
      570
 95
  2555929
 70
     0
 93
       34
310
05000044C0
 94
        0
1001
ACAD
1000
AcRTDxfName
1000
MAPIADMODULE
  0
DICTIONARY
  5
24F
102
{ACAD_REACTORS
330
8
102
}
330
8
100
AcDbDictionary
281
     1
  0
DICTIONARY
  5
2DE
102
{ACAD_REACTORS
330
8
102
}
330
8
100
AcDbDictionary
281
     1
  0
XRECORD
  5
2339
102
{ACAD_REACTORS
330
8
102
}
330
8
100
AcDbXrecord
280
     1
  1
DWGPROPS COOKIE
  2

  3

  4

  6

  7

  8

  9

300
AmdtFileType=84
301
=
302
=
303
=
304
=
305
=
306
=
307
=
308
=
309
=
 40
0.286129537037037
 41
2454887.677864873
 42
2456639.637759873
  1

 90
        1
  0
ACAD_PROXY_OBJECT
  5
12C1
102
{ACAD_REACTORS
330
8
102
}
330
8
100
AcDbProxyObject
 90
      499
 91
      610
 95
  2555929
 70
     0
 93
        8
310
047E
 94
        0
1001
ACAD
1000
AcRTDxfName
1000
AMDTMAPISURFMOUDULE
  0
DICTIONARY
  5
11AF
102
{ACAD_REACTORS
330
15
102
}
330
15
100
AcDbDictionary
281
     1
  0
DICTIONARY
  5
16
102
{ACAD_REACTORS
330
15
102
}
330
15
100
AcDbDictionary
281
     1
  0
DICTIONARY
  5
11AE
102
{ACAD_REACTORS
330
15
102
}
330
15
100
AcDbDictionary
281
     1
1001
ACAD
1000
<All
  0
DICTIONARY
  5
163D
102
{ACAD_REACTORS
330
3
102
}
330
3
100
AcDbDictionary
281
     1
  3
*A1
350
163E
  0
XRECORD
  5
233F
102
{ACAD_REACTORS
330
233E
102
}
330
233E
100
AcDbXrecord
280
     1
102
SHADEPLOT
 70
     0
  0
LAYOUT
  5
B
102
{ACAD_XDICTIONARY
360
233B
102
}
102
{ACAD_REACTORS
330
C
102
}
330
C
100
AcDbPlotSettings
  1

  2
\\NOVIBDC\HPLJ4-TPUB
  4

  6

 40
0.0
 41
0.0
 42
0.0
 43
0.0
 44
0.0
 45
0.0
 46
0.0
 47
0.0
 48
0.0
 49
0.0
140
0.0
141
0.0
142
1.0
143
1.0
 70
  1712
 72
     0
 73
     0
 74
     0
  7

 75
     0
147
1.0
148
0.0
149
0.0
100
AcDbLayout
  1
Model
 70
     1
 71
     0
 10
0.0
 20
0.0
 11
12.0
 21
9.0
 12
0.0
 22
0.0
 32
0.0
 14
0.0
 24
0.0
 34
0.0
 15
0.0
 25
0.0
 35
0.0
146
0.0
 13
0.0
 23
0.0
 33
0.0
 16
1.0
 26
0.0
 36
0.0
 17
0.0
 27
1.0
 37
0.0
 76
     0
330
2
  0
LAYOUT
  5
10
102
{ACAD_XDICTIONARY
360
11
102
}
102
{ACAD_REACTORS
330
C
102
}
330
C
100
AcDbPlotSettings
  1

  2
none_device
  4
ISO_A1_(841.00_x_594.00_MM)
  6

 40
7.5
 41
20.0
 42
7.5
 43
20.0
 44
841.0
 45
594.0
 46
1.405637013467014
 47
0.0
 48
0.0
 49
0.0
140
0.0
141
0.0
142
1.0
143
0.9127257107306519
 70
   692
 72
     1
 73
     0
 74
     1
  7

 75
     0
147
1.09561940486971
148
-28.4314160608721
149
15.69295065893902
100
AcDbLayout
  1
配置1
 70
     1
 71
     1
 10
20.30301218824622
 20
-33.94746487355206
 11
787.9053349127243
 21
508.211607300455
 12
0.0
 22
0.0
 32
0.0
 14
28.4314160608721
 24
-15.69295065893902
 34
-0.0000000000000609
 15
779.7769310400986
 25
489.9570930858421
 35
285.7425220874162
146
0.0
 13
0.0
 23
0.0
 33
0.0
 16
1.0
 26
0.0
 36
0.0
 17
0.0
 27
1.0
 37
0.0
 76
     0
330
D
331
24D
1001
ACAD_PSEXT
1000
無
1000
無
1000
不適用
1000
除非另選一新建的繪圖機規劃名稱，否則配置將不會出圖。
1070
     0
  0
MLINESTYLE
  5
33
102
{ACAD_REACTORS
330
2E
102
}
330
2E
100
AcDbMlineStyle
  2
STANDARD
 70
     0
  3

 62
     0
 51
90.0
 52
90.0
 71
     2
 49
0.5
 62
   256
  6
BYLAYER
 49
-0.5
 62
   256
  6
BYLAYER
  0
ACDBPLACEHOLDER
  5
6
102
{ACAD_REACTORS
330
7
102
}
330
7
  0
TABLESTYLE
  5
34
102
{ACAD_REACTORS
330
32
102
}
330
32
100
AcDbTableStyle
  3
Standard
 70
     0
 71
     0
 40
1.5
 41
1.5
280
     0
281
     0
  7
STANDARD
140
4.5
170
     2
 62
     0
 63
     7
283
     0
274
    -2
284
     1
 64
     0
275
    -2
285
     1
 65
     0
276
    -2
286
     1
 66
     0
277
    -2
287
     1
 67
     0
278
    -2
288
     1
 68
     0
279
    -2
289
     1
 69
     0
  7
STANDARD
140
6.0
170
     5
 62
     0
 63
     7
283
     0
274
    -2
284
     1
 64
     0
275
    -2
285
     1
 65
     0
276
    -2
286
     1
 66
     0
277
    -2
287
     1
 67
     0
278
    -2
288
     1
 68
     0
279
    -2
289
     1
 69
     0
  7
STANDARD
140
4.5
170
     5
 62
     0
 63
     7
283
     0
274
    -2
284
     1
 64
     0
275
    -2
285
     1
 65
     0
276
    -2
286
     1
 66
     0
277
    -2
287
     1
 67
     0
278
    -2
288
     1
 68
     0
279
    -2
289
     1
 69
     0
  0
DICTIONARYVAR
  5
244
102
{ACAD_REACTORS
330
243
102
}
330
243
100
DictionaryVariables
280
     0
  1
STANDARD
  0
DICTIONARYVAR
  5
246
102
{ACAD_REACTORS
330
243
102
}
330
243
100
DictionaryVariables
280
     0
  1
1
  0
DICTIONARYVAR
  5
245
102
{ACAD_REACTORS
330
243
102
}
330
243
100
DictionaryVariables
280
     0
  1
1
  0
DICTIONARYVAR
  5
17FF
102
{ACAD_REACTORS
330
243
102
}
330
243
100
DictionaryVariables
280
     0
  1
1
  0
DICTIONARYVAR
  5
247
102
{ACAD_REACTORS
330
243
102
}
330
243
100
DictionaryVariables
280
     0
  1

  0
DICTIONARY
  5
2B4
102
{ACAD_REACTORS
330
2A7
102
}
330
2A7
100
AcDbDictionary
281
     1
  0
XRECORD
  5
2D0
102
{ACAD_REACTORS
330
2A7
102
}
330
2A7
100
AcDbXrecord
280
     1
 90
-1023410169
  0
LAYER_INDEX
  5
163E
102
{ACAD_REACTORS
330
163D
102
}
330
163D
100
AcDbIndex
 40
2456639.637759873
100
AcDbLayerIndex
  8
0
360
163F
 90
        0
  8
AM_VIS
360
1640
 90
        0
  8
AM_7
360
1641
 90
        0
  8
LOGO
360
1642
 90
        0
  8
AM_5
360
1643
 90
        0
  8
Defpoints
360
1644
 90
        0
  8
SL
360
1645
 90
        0
  8
CEN
360
17B4
 90
        0
  8
1
360
17B5
 90
        0
  8
CENTER
360
1F73
 90
        0
  8
HID
360
21D8
 90
        0
  0
DICTIONARY
  5
233B
330
B
100
AcDbDictionary
280
     1
281
     1
  3
ACAD_XREC_ROUNDTRIP
360
233C
  0
DICTIONARY
  5
11
330
10
100
AcDbDictionary
280
     1
281
     1
  3
ACAD_XREC_ROUNDTRIP
360
233D
  3
ADSK_XREC_LAYOUTTHUMBNAIL
360
12
  0
IDBUFFER
  5
163F
330
0
100
AcDbIdBuffer
  0
IDBUFFER
  5
1640
330
0
100
AcDbIdBuffer
  0
IDBUFFER
  5
1641
330
0
100
AcDbIdBuffer
  0
IDBUFFER
  5
1642
330
0
100
AcDbIdBuffer
  0
IDBUFFER
  5
1643
330
0
100
AcDbIdBuffer
  0
IDBUFFER
  5
1644
330
0
100
AcDbIdBuffer
  0
IDBUFFER
  5
1645
330
0
100
AcDbIdBuffer
  0
IDBUFFER
  5
17B4
330
0
100
AcDbIdBuffer
  0
IDBUFFER
  5
17B5
330
0
100
AcDbIdBuffer
  0
IDBUFFER
  5
1F73
330
0
100
AcDbIdBuffer
  0
IDBUFFER
  5
21D8
330
0
100
AcDbIdBuffer
  0
XRECORD
  5
233C
102
{ACAD_REACTORS
330
233B
102
}
330
233B
100
AcDbXrecord
280
     1
102
SHADEPLOT
 70
     0
102
SHADEPLOTRESLEVEL
 70
     2
102
SHADEPLOTCUSTOMDPI
 70
   300
  0
XRECORD
  5
233D
102
{ACAD_REACTORS
330
11
102
}
330
11
100
AcDbXrecord
280
     1
102
SHADEPLOT
 70
     0
102
SHADEPLOTRESLEVEL
 70
     2
102
SHADEPLOTCUSTOMDPI
 70
   300
  0
XRECORD
  5
12
102
{ACAD_REACTORS
330
11
102
}
330
11
100
AcDbXrecord
280
     1
310
28000000B40000007E000000010008000000000098580000000000000000000000010000000000000000000000000000FFFFFF000000000000000000000000000000000000000000000000000000000000000000330000006600000099000000CC000000FF00000000330000333300006633000099330000CC330000FF3300
310
0000660000336600006666000099660000CC660000FF66000000990000339900006699000099990000CC990000FF99000000CC000033CC000066CC000099CC0000CCCC0000FFCC000000FF000033FF000066FF000099FF0000CCFF0000FFFF000000003300330033006600330099003300CC003300FF003300003333003333
310
33006633330099333300CC333300FF33330000663300336633006666330099663300CC663300FF66330000993300339933006699330099993300CC993300FF99330000CC330033CC330066CC330099CC3300CCCC3300FFCC330000FF330033FF330066FF330099FF3300CCFF3300FFFF330000006600330066006600660099
310
006600CC006600FF00660000336600333366006633660099336600CC336600FF33660000666600336666006666660099666600CC666600FF66660000996600339966006699660099996600CC996600FF99660000CC660033CC660066CC660099CC6600CCCC6600FFCC660000FF660033FF660066FF660099FF6600CCFF6600
310
FFFF660000009900330099006600990099009900CC009900FF00990000339900333399006633990099339900CC339900FF33990000669900336699006666990099669900CC669900FF66990000999900339999006699990099999900CC999900FF99990000CC990033CC990066CC990099CC9900CCCC9900FFCC990000FF99
310
0033FF990066FF990099FF9900CCFF9900FFFF99000000CC003300CC006600CC009900CC00CC00CC00FF00CC000033CC003333CC006633CC009933CC00CC33CC00FF33CC000066CC003366CC006666CC009966CC00CC66CC00FF66CC000099CC003399CC006699CC009999CC00CC99CC00FF99CC0000CCCC0033CCCC0066CC
310
CC0099CCCC00CCCCCC00FFCCCC0000FFCC0033FFCC0066FFCC0099FFCC00CCFFCC00FFFFCC000000FF003300FF006600FF009900FF00CC00FF00FF00FF000033FF003333FF006633FF009933FF00CC33FF00FF33FF000066FF003366FF006666FF009966FF00CC66FF00FF66FF000099FF003399FF006699FF009999FF00CC
310
99FF00FF99FF0000CCFF0033CCFF0066CCFF0099CCFF00CCCCFF00FFCCFF0000FFFF0033FFFF0066FFFF0099FFFF00CCFFFF00FFFFFF00000000000D0D0D001A1A1A00282828003535350043434300505050005D5D5D006B6B6B00787878008686860093939300A1A1A100AEAEAE00BBBBBB00C9C9C900D6D6D600E4E4E400
310
F1F1F100FFFFFF0000000000000000000000000000000000000000000000000000000000000000000000000000000000EFEFF5F5F5F5F5F5F5F5F5F5F5F5F5F5F5F5F5F5F5F5F5F5F5F5F5F5F5F5F5F5F5F5F5F5F5F5F5F5F5F5F5F5F5F5F5F5F5F5F5F5F5F5F5F5F5F5F5F5F5F5F5F5F5F5F5F5F5F5F5F5F5F5F5F5F5F5F5
310
F5F5F5F5F5F5F5F5F5F5F5F5F5F5F5F5F5F5F5F5F5F5F5F5F5F5F5F5F5F5F5F5F5F5F5F5F5F5F5F5F5F5F5F5F5F5F5F5F5F5F5F5F5F5F5F5F5F5F5F5F5F5F5F5F5F5F5F5F5F5F5F5F5F5F5F5F5F5F5F5F5F5F5F5F5F5F5F5F5F5F5F5F5F5F5F5F5F5F5F5EFF5F5F5F5F5F5F5F5F5F5F5F5F5F5F5F5F5F5F5F5F5F5F5F5F5F5
310
F5F5F5F5F5F5F5F5F5F5F5F5F5F5F5F5F5F5F5F5F5F5F5F5F5F5F5F5F5F5F5F5F5F5F5F5F5F5F5F5F5F5F5F5F5F5F5F5F5F5F5F5F5F5F5F5F5F5F5F5F5F5F5F5F5F5F5F5F5F5F5F5F5F5F5F5F5F5F5F5F5F5F5F5F5F5F5F5F5F5F5F5F5F5F5F5F5F5F5F5F5F5F5F5F5F5F5F5F5F5F5F5F5F5F5F5F5F5F5F5F5F5F5F5F5F5F5
310
F5F5F5F5F5F5F5F5F5F5F5F5F5F5F5F5F5F5F5F5F5F5F5F5F5F5EFF5E2E2E2E2E2E2E2E2E2E2E2E2E2E2E2E2E2E2E2E2E2E2E2E2E2E2E2E2E2E2E2E2E2E2E2E2E2E2E2E2E2E2E2E2E2E2E2E2E2E2E2E2E2E2E2E2E2E2E2E2E2E2E2E2E2E2E2E2E2E2E2E2E2E2E2E2E2E2E2E2E2E2E2E2E2E2E2E2E2E2E2E2E2E2E2E2E2E2E2
310
E2E2E2E2E2E2E2E2E2E2E2E2E2E2E2E2E2E2E2E2E2E2E2E2E2E2E2E2E2E2E2E2E2E2E2E2E2E2E2E2E2E2E2E2E2E2E2E2E2E2E2E2E2E2E2E2E2E2E2E2E2E2E2E2E2E2E2E2E2E2E2E2E2E2E2E2E2F5F5EFF5E2E2E2E2E2E2E2E2E2E2E2E2E2E2E2E2E2E2E2E2E2E2E2E2E2E2E2E2E2E2E2E2E2E2E2E2E2E2E2E2E2E2E2E2E2E2
310
E2E2E2E2E2E2E2E2E2E2E2E2E2E2E2E2E2E2E2E2E2E2E2E2E2E2E2E2E2E2E2E2E2E2E2E2E2E2E2E2E2E2E2E2E2E2E2E2E2E2E2E2E2E2E2E2E2E2E2E2E2E2E2E2E2E2E2E2E2E2E2E2E2E2E2E2E2E2E2E2E2E2E2E2E2E2E2E2E2E2E2E2E2E2E2E2E2E2E2E2E2E2E2E2E2E2E2E2E2E2E2E2E2E2E2E2E2E2E2E2E2E2E2E2E2E2E2
310
E2E2E2F5F5EFF5E2E2E2E2E2E2E2E2E2E2E2E2E2E2E2E2E2E2E2E2E2E2E2E2E2E2E2E2E2E2E2E2E2E2E2E2E2E2E2E2E2E2E2E2E2E2E2E2E2E2E2E2E2E2E2E2E2E2E2E2E2E2E2E2E2E2E2E2E2E2E2E2E2E2E2E2E2E2E2E2E2E2E2E2E2E2E2E2E2E2E2E2E2E2E2E2E2E2E2E2E2E2E2E2E2E2E2E2E2E2E2E2E2E2E2E2E2E2E2E2
310
E2E2E2E2E2E2E2E2E2E2E2E2E2E2E2E2E2E2E2E2E2E2E2E2E2E2E2E2E2E2E2E2E2E2E2E2E2E2E2E2E2E2E2E2E2E2E2E2E2E2E2E2E2E2E2E2F5F5EFF5E22D2D2D2D2D2D2D2D2D2D2D2D2D2D2D2D2D2D2D2D2D2D2DF5F5F5F5F52D2D2D2D2D2D2D2D2D2D2D2D2D2D2D2D2D2D2D2D2D2D2D2D2D2D2D2D2D2D2D2D2D2D2D2D2D2D
310
2D2D2D2D2D2D2D2D2D2D2D2D2D2D2D2D2D2D2D2D2D2D2D2D2D2D2D2D2D2D2D2D2D2D2D2D2D2D2D2D2D2D2D2D2D2D2D2D2D2D2D2D2D2D2D2D2D2D2D2D2D2D2D2D2D2D2D2D2D2D2D2D2D2D2D2D2D2D2D2D2D2D2D2D2D2D2D2D2D2D2D2D2D2D2D2D2D2D2D2D2D2D2D2D2D2D2D2DE2F5F5EFF5E22DF5F5F5F5F5F5F5F5F5F5F5F5
310
F5F5E2F5F5E2F5F5F52DF5F5F5F5F52DE2E2E2E2E2E2E2E22D2DF5F5F52D2DE2E22D2D2D2D2D2D2D2D2DE22D2DF5F5F52D2D2D2D2D2D2D2DE22DF5F5F5F52D2D2D2D2D2D2D2DE2E2E2E2E2E2E2E2E2E2E2E2E2E2E2E2E2E2E2E2E2E2E2E2E2E2E2E2E2E2E2E2E2E2E2E2E2E2E2E2E2E2E2E2E2E2E2E2E2E2E2E2E2E2E2E2E2
310
E2E2E2E2E2E2E2E2E2E2E2E2E2E2E2E2E2E2E2E2E2E2E2E2E2E2E2E2E2E2E2E2E22DE2F5F5EFF5E22DE2E2E2F5F5F5F5F5F5F5F5F5F5F5F5F5F5F5F5E2E22D2D2D2D2D2D2DE2E2E2E2E2E2E2E22DE2F5F5F5E22DE2E22DE2F5F5F5F5F5E22DE22DE2F5F5F5E22D2DF5F5F5F52DE22DF5F5F5F52DE2F5F5F5F5F52DE2E2E2E2
310
E2E2E2E2E2E2E2E2E2E2E2E2E2E2E2E2E2E2E2E2E2E2E2E2E2E2E2E2E2E2E2E2E2E2E2E2E2E2E2E2E2E2E2E2E2E2E2E2E2E2E2E2E2E2E2E2E2E2E2E2E2E2E2E2E2E2E2E2E2E2E2E2E2E2E2E2E2E2E2E2E2E2E2E2E2E22DE2F5F5EFF5E22DE2E2E2F5F5F5F5F5F5F5F5F5F5F5F5F5F5F5F5E2E22DE2E2E2E2E2E2E2E2E2E2E2
310
E2E2E22DE2F5F5F5E22DE2E22DE2F5F5F5F5F5F52DE22DE2F5F5F5E22D2DF5F5F5F52DE22DF5F5F5F52DE2E2F5F5F5E22DE2E2E2E2E2E2E2E2E2E2E2E2E2E2E2E2E2E2E2E2E2E2E2E2E2E2E2E2E2E2E2E2E2E2E2E2E2E2E2E2E2E2E2E2E2E2E2E2E2E2E2E2E2E2E2E2E2E2E2E2E2E2E2E2E2E2E2E2E2E2E2E2E2E2E2E2E2E2
310
E2E2E2E2E2E2E2E2E2E2E2E22DE2F5F5EFF5E22D0F0F0F0F0F0F0F2DF5F52DF5F5F5F52D2DF5F5F52D2DE2E2E2E2E2E2E2E2E2E2E2E2E2E22D2DF52DF52D2DE2E22D2D2D2D2D2D2D2D2DE22D2DF52DF52D2D2D2D2D2D2D2DE22DF52DF5F52D2D2DF5F5F52D2DE2E2E2E2E2E2E2E2E2E2E2E2E2E2E2E2E2E2E2E2E2E2E2E2E2
310
E2E2E2E2E2E2E2E2E2E2E2E2E2E2E2E2E2E2E2E2E2E2E2E2E2E2E2E2E2E2E2E2E2E2E2E2E2E2E2E2E2E2E2E2E2E2E2E2E2E2E2E2E2E2E2E2E2E2E2E2E2E2E2E2E22DE2F5F5EFF5E22D0F0F0F0F0F0F0F2DF5F5E2F5F5F5F52DE2F5F5F5E22DF5F5F5F5F5F5F5F5F5F5F5F5F5E2E2E2E22DE2E2E2E2E2E2E2E2E22DE2E2E2E2
310
E2E2E2E22DE2E2E2E2E2E22DE2E2E2E2E22DE2E2E2E2E22DE2E2E2E2E2E2E2E2E2E2E2E2E2E2E2E2E2E2E2E2E2E2E2E2E2E2E2E2E2E2E2E2E2E2E2E2E2E2E2E2E2E2E2E2E2E2E2E2E2E2E2E2E2E2E2E2E2E2E2E2E2E2E2E2E2E2E2E2E2E2E2E2E2E2E2E2E2E2E2E2E2E2E2E2E2E2E2E2E2E2E2E2E2E22DE2F5F5EFF5E22D0F
310
DCE2DC0FDC0FF5F5F52DF5F5F5F52DF5F52D2DF52DF5F5F5F5F5F5F5F5F5F5F5F52D2D2D2D2D2D2DF52D2D2DE22D2D2D2D2D2D2D2DE22D2D2D2D2D2D2DE22D2D2D2D2D2D2D2D2D2D2DE2E22D2D2D2DE2E2E2E2E2E2E2E2E2E2E2E2E2E2E2E2E2E2E2E2E2E2E2E2E2E2E2E2E2E2E2E2E2E2E2E2E2E2E2E2E2E2E2E2E2E2E2E2
310
E2E2E2E2E2E2E2E2E2E2E2E2E2E2E2E2E2E2E2E2E2E2E2E2E2E2E2E2E2E2E2E2E2E2E2E2E2E2E2E2E2E2E2E22DE2F5F5EFF5E22DE20FDCDCDC0F0FF5F5F5E2F5F5F5F52DF5F5F5F5F52DF5F5F5F5F5F5F5F5F5E2F5E22DF5F5F5F5F5F5F5F5F5F5F5F5E2E2F5F5E2E2F5F5F5E2F5F5F5E2F5F52DF5F5E22D2DF5F5F5F52DF5
310
F52DF5F52DE2E2E2E2E2E2E2E2E2E2E2E2E2E2E2E2E2E2E2E2E2E2E2E2E2E2E2E2E2E2E2E2E2E2E2E2E2E2E2E2E2E2E2E2E2E2E2E2E2E2E2E2E2E2E2E2E2E2E2E2E2E2E2E2E2E2E2E2E2E2E2E2E2E2E2E2E2E2E2E2E2E2E2E2E2E2E2E2E2E2E2E22DE2F5F5EFF5E22DE2E2DCDCDC0F0F2DF5F5F5F5F5F5F52DF52DF52DF52D
310
F5F5F5F5F5F5F5F5F5E2E2E22DF5F5F5F5F5F5F5F5F52DE22DE2F5F5F5E2E22DE22DE2F5F5F5E22DE22DF5F5E22D2DF5F5F5F52DE2E22DF5F52DE2E2E2E2E2E2E2E2E2E2E2E2E2E2E2E2E2E2E2E2E2E2E2E2E2E2E2E2E2E2E2E2E2E2E2E2E2E2E2E2E2E2E2E2E2E2E2E2E2E2E2E2E2E2E2E2E2E2E2E2E2E2E2E2E2E2E2E2E2
310
E2E2E2E2E2E2E2E2E2E2E2E2E2E2E2E2E2E2E2E2E2E2E22DE2F5F5EFF5E22DE2E20FDC0FDC0F2DF5F5F5F5F5F5F52DF5E2F5F5F52DF5F5F5F5F5F5F5F5F5E2E2E22D2D2D2D2D2D2D2D2D2D2DE22D2D2D2D2D2D2D2DE22D2D2D2D2D2D2DE22D2D2D2D2D2D2D2D2D2D2DE2E22D2D2D2DE2E2E2E2E2E2E2E2E2E2E2E2E2E2E2E2
310
E2E2E2E2E2E2E2E2E2E2E2E2E2E2E2E2E2E2E2E2E2E2E2E2E2E2E2E2E2E2E2E2E2E2E2E2E2E2E2E2E2E2E2E2E2E2E2E2E2E2E2E2E2E2E2E2E2E2E2E2E2E2E2E2E2E2E2E2E2E2E2E2E2E2E2E22DE2F5F5EFF5E22D2D2D2D2D2D2D2D2D2D2D2D2D2D2D2D2D2D2D2D2D2D2D2D2D2D2D2D2D2D2D2D2D2D2D2D2D2D2D2D2D2D2D2D
310
2D2D2D2D2D2D2D2D2D2D2D2D2D2D2D2D2D2D2D2D2D2D2D2D2D2D2D2D2D2D2D2D2D2D2D2D2D2D2D2D2D2D2D2D2D2D2D2D2D2D2D2D2D2D2D2D2D2D2D2D2D2D2D2D2D2D2D2D2D2D2D2D2D2D2D2D2D2D2D2D2D2D2D2D2D2D2D2D2D2D2D2D2D2D2D2D2D2D2D2D2D2D2D2D2D2D2D2D2D2D2D2D2D2D2D2D2D2D2D2D2D2D2D2D2D2D2D
310
2D2D2DE2F5F5EFF5E22DE2E2E2E2E2E2E2E2E2E2E2E2E2E2E2E2E2E2E2E2E2E2E2E2E2E2E2E2E2E2E2E2E2E2E2E2E2E2E2E2E2E2E2E2E2E2E2E2E2E2E2E2E2E2E2E2E2E2E2E2E2E2E2E2E2E2E2E2E2E2E2E2E2E2E2E2E2E2E2E2E2E2E2E2E2E2E2E2E2E2E2E2E2E2E2E2E2E2E2E2E2E2E2E2E2E2E2E2E2E2E2E2E2E2E2E2E2
310
E2E2E2E2E2E2E2E2E2E2E2E2E2E2E2E2E2E2E2E2E2E2E2E2E2E2E2E2E2E2E2E2E2E2E2E2E2E2E2E2E2E2E2E2E2E2E2E2E2E2E2E2E2E2E22DE2F5F5EFF5E22DE2E2E2E2E2E2E2E2E2E2E2E2E2E2E2E2E2E2E2E2E2E2E2E2E2E2E2E2E2E2E2E2E2E2E2E2E2E2E2E2E2E2E2E2E2E2E2E2E2E2E2E2E2E2E2E2E2E2E2E2E2E2E2E2
310
E2E2E2E2E2E2E2E2E2E2E2E2E2E2E2E2E2E2E2E2E2E2E2E2E2E2E2E2E2E2E2E2E2E2E2E2E2E2E2E2E2E2E2E2E2E2E2E2E2E2E2E2E2E2E2E2E2E2E2E2E2E2E2E2E2E2E2E2E2E2E2E2E2E2E2E2E2E2E2E2E2E2E2E2E2E2E2E2E2E2E2E2E2E2E2E2E2E2E2E2E2E2E2E2E2E2E2E22DE2F5F5EFF5E22DE2E2E2E2E2E2E2E2E2E2E2
310
E2E2E2E2E2E2E2E2E2E2E2E2E2E2E2E2E2E2E2E2E2E2E2E2E2E2E2E2E2E2E2E2E2E2E2E2E2E2E2E2E2E2E2E2E2E2E2E2E2E2E2E2E2E2E2E2E2E2E2E2E2E2E2E2E2E2E2E2E2E2E2E2E2E2E2E2E2E2E2E2E2E2E2E2E2E2E2E2E2E2E2E2E2E2E2E2E2E2E2E2E2E2E2E2E2E2E2E2E2E2E2E2E2E2E2E2E2E2E2E2E2E2E2E2E2E2E2
310
E2E2E2E2E2E2E2E2E2E2E2E2E2E2E2E2E2E2E2E2E2E2E2E2E2E2E2E2E2E2E2E2E2E22DE2F5F5EFF5E22DE2E2E2E2E2E2E2E2E2E2E2E2E2E2E2E2E2E2E2E2E2E2E2E2E2E2E2E2E2E2E2E2E2E2E2E2E2E2E2E2E2E2E2E2E2E2E2E2E2E2E2E2E2E2E2E2E2E2E2E2E2E2E2E2E2E2E2E2E2E2E2E2E2E2E2E2E2E2E2E2E2E2E2E2E2
310
E2E2E2E2E2E2E2E2E2E2E2E2E2E2E2E2E2E2E2E2E2E2E2E2E2E2E2E2E2E2E2E2E2E2E2E2E2E2E2E2E2E2E2E2E2E2E2E2E2E2E2E2E2E2E2E2E2E2E2E2E2E2E2E2E2E2E2E2E2E2E2E2E2E2E2E2E2E2E2E2E2E2E2E2E2E2E22DE2F5F5EFF5E22DE2E2E2E2E2E2E2E2E2E2E2E2E2E2E2E2E2E2E2E2E2E2E2E2E2E2E2E2E2E2E2E2
310
E2E2E2E2E2E2E2E2E2E2E2E2E2E2E2E2E2E2E2E2E2E2E2E2E2E2E2E2E2E2E2E2E2E2E2E2E2E2E2E2E2E2E2E2E2E2E2E2E2E2E2E2E2E2E2E2E2E2E2E2E2E2E2E2E2E2E2E2E2E2E2E2E2E2E2E2E2E2E2E2E2E2E2E2E2E2E2E2E2E2E2E2E2E2E2E2E2E2E2E2E2E2E2E2E2E2E2E2E2E2E2E2E2E2E2E2E2E2E2E2E2E2E2E2E2E2E2
310
E2E2E2E2E2E2E2E2E2E2E2E2E22DE2F5F5EFF5E22DE2E2E2E2E2E2E2E2E2E2E2E2E2E2E2E2E2E2E2E2E2E2E2E2E2E2E2E2E2E2E2E2E2E2E2E2E2E2E2E2E2E2E2E2E2E2E2E2E2E2E2E2E2E2E2E2E2E2E2E2E2E2E2E2E2E2E2E2E2E2E2E2E2E2E2E2E2E2E2E2E2E2E2E2E2E2E2E2E2E2E2E2E2E2E2E2E2E2E2E2E2E2E2E2E2E2
310
E2E2E2E2E2E2E2E2E2E2E2E2E2E2E2E2E2E2E2E2E2E2E2E2E2E2E2E2E2E2E2E2E2E2E2E2E2E2E2E2E2E2E2E2E2E2E2E2E2E2E2E2E2E2E2E2E2E2E2E2E2E2E2E2E2E22DE2F5F5EFF5E22DE2E2E2E2E2E2E2E2E2E2E2E2E2E2E2E2E2E2E2E2E2E2E2E2E2E2E2E2E2E2E2E2E2E2E2E2E2E2E2E2E2E2E2E2E2E2E2E2E2E2E2E2E2
310
E2E2E2E2E2E2E2E2E2E2E2E2E2E2E2E2E2E2E2E2E2E2E2E2E2E2E2E2E2E2E2E2E2E2E2E2E2E2E2E2E2E2E2E2E2E2E2E2E2E2E2E2E2E2E2E2E2E2E2E2E2E2E2E2E2E2E2E2E2E2E2E2E2E2E2E2E2E2E2E2E2E2E2E2E2E2E2E2E2E2E2E2E2E2E2E2E2E2E2E2E2E2E2E2E2E2E2E2E2E2E2E2E2E2E2E2E2E2E22DE2F5F5EFF5E22D
310
E2E2E2E2E2E2E2E2E2E2E2E2E2E2E2E2E2E2E2E2E2E2E2E2E2E2E2E2E2E2E2E2E2E2E20F0F0F0F0F0F0F0F0F0F0F0F0F0F0F0F0F0F0F0F0F0F0F0F0F0F0F0F0F0F0F0F0F0F0F0F0F0F0F0F0F0F0F0F0F0F0F0F0F0F0F0F0F0F0F0F0F0F0F0F0F0F0F0F0F0F0F0F0F0F0F0F0F0F0FE2E2E2E2E2E2E2E2E2E2E2E2E2E2E2E2E2
310
E2E2E2E2E2E2E2E2E2E2E2E2E2E2E2E2E2E2E2E2E2E2E2E2E2E2E2E2E2E2E2E2E2E2E2E2E2E2E2E2E2E2E2E2E22DE2F5F5EFF5E22DE2E2E2E2E2E2E2E2E2E2E2E2E2E2E2E2E2E2E2E2E2E2E2E2E2E2E2E2E2E2E2E2E2E2E20F0FE2E2E2E2E2E2E2E2E2E2E2E2E2E2E2E2E2E2E2E2E2E2E2E2E20F0F0F0F0F0F0F0F0F0F0F0F
310
E2E2E2E2E2E2E2E2E2E2E2E2E2E2E2E2E2E2E2E2E2E2E2E20F0F0F0FE20F0F0FE20F0F0FE2E2E2E2E2E2E2E2E2E2E2E2E2E2E2E2E2E2E2E2E2E2E2E2E2E2E2E2E2E2E2E2E2E2E2E2E2E2E2E2E2E2E2E2E2E2E2E2E2E2E2E2E2E2E2E2E2E2E2E2E2E22DE2F5F5EFF5E22DE2E2E2E2E2E2E2E2E2E2E2E2E2E2E2E2E2E2E2E2E2
310
E2E2E2E2E2E2E2E2E2E2E2E2E2E20FE2E2E2E2E2E2E2E2E2E2E2E2E2E2E2E2E2E2E2E2E2E2E2E2E2E20F0F0F0F0F0F0F0F0F0F0F0FE2E2E2E2E2E2E2E2E2E2E2E2E2E2E2E2E2E2E2E2E2E2E2E2E2E20FE2E2E20F0FE2E2E20FE2E2E2E2E2E2E2E2E2E2E2E2E2E2E2E2E2E2E2E2E2E2E2E2E2E2E2E2E2E2E2E2E2E2E2E2E2E2
310
E2E2E2E2E2E2E2E2E2E2E2E2E2E2E2E2E2E2E2E2E2E2E2E22DE2F5F5EFF5E22DE2E2E2E2E2E2E2E2E2E2E2E2E2E2E2E2E2E2E2E2E2E2E2E2E2E2E2E2E2E2E2E2E2E2E20FE2E2E2E2E2E2E2E2E2E2E2E2E2E2E2E2E2E2E2E2E2E2E2E2E2E2E2E2E2E2E2E2E2E2E2E2E2E2E2E2E2E2E2E2E2E2E2E2E2E2E2E2E2E2E2E2E2E2E2
310
E2E2E2E2E20FE2E2E2E2E2E2E2E20FE2E2E2E2E2E2E2E2E2E2E2E2E2E2E2E2E2E20F0F0F0F0F0F0F0F0F0F0F0F0F0F0F0F0F0F0F0F0F0FE2E2E2E2E2E2E2E2E2E2E2E2E2E2E2E2E2E2E2E2E2E22DE2F5F5EFF5E22DE2E2E2E2E2E2E2E2E2E2E2E2E2E2E2E2E2E2E2E2E2E2E2E2E2E2E2E2E20F0F0F0F0F0F0F0F0F0F0F0F0F
310
0F0F0F0F0F0F0F0F0F0F0F0F0F0F0F0F0F0F0F0F0F0F0F0F0F0F0F0F0F0F0F0F0F0F0F0F0F0F0F0F0F0F0F0F0F0F0F0F0F0F0F0F0F0F0F0F0F0F0FE2E2E2E2E2E2E2E20FE2E2E2E2E2E2E2E2E2E2E2E2E2E2E2E2E2E20FE2E2E2E2E2E2E2E20F0F0F0FE2E2E2E2E2E2E2E20FE2E2E2E2E2E2E2E2E2E2E2E2E2E2E2E2E2E2E2
310
E2E2E22DE2F5F5EFF5E22DE2E2E2E2E2E2E2E2E2E2E2E2E2E2E2E2E2E2E2E2E2E2E2E2E2E2E2E2E20F0FE20F0F0F0F0FE2E2E2E2E2E2E2E20F0F0F0F0F0F0F0F0F0FE2E2E2E2E2E2E20F0F0FE2E2E2E2E2E2E2E2E2E2E20F0F0FE2E2E2E2E2E2E2E2E2E20FE2E2E2E20F0FE2E2E2E20FE2E2E2E2E2E2E2E20FE2E2E2E2E2E2
310
E2E2E2E2E2E2E2E2E2E2E2E20FE2E2E2E2E2E2E2E20F0F0F0FE2E2E2E2E2E2E2E20FE2E2E2E2E2E2E2E2E2E2E2E2E2E2E2E2E2E2E2E2E2E22DE2F5F5EFF5E22DE2E2E2E2E2E2E2E2E2E2E2E2E2E2E2E2E2E2E2E2E2E2E2E2E2E2E2E2E2E20FE2E2E20F0FE2E2E2E2E2E2E2E20F0F0F0F0F0F0F0F0F0F0FE2E2E2E2E2E2E2E2
310
E20FE2E2E2E2E2E2E2E2E2E2E20F0F0FE2E2E2E2E2E2E2E2E2E20FE2E2E2E20F0FE2E2E2E20FE2E2E2E2E2E2E2E20FE2E2E2E2E2E2E2E2E2E2E2E2E2E2E2E2E2E20FE2E2E2E2E2E2E2E2E2E2E2E2E2E2E2E2E2E2E2E20FE2E2E2E2E2E2E2E2E2E2E2E2E2E2E2E2E2E2E2E2E2E22DE2F5F5EFF5E22DE2E2E2E2E2E2E2E2E2E2
310
E2E2E2E2E2E2E2E2E2E2E2E2E2E2E2E2E2E2E2E2E2E2E2E20F0FE2E2E2E2E2E2E2E2E2E2E2E2E2E2E2E2E2E2E2E2E2E2E2E2E2E2E2E20FE2E2E2E2E2E2E2E2E2E2E2E2E2E2E2E2E2E2E2E2E2E2E2E20FE2E2E2E2E2E2E2E2E2E20FE2E2E2E2E2E2E2E20FE2E2E2E2E2E2E2E2E2E2E2E2E2E2E2E2E2E20FE20FE2E2E2E2E2E2
310
E2E2E2E2E2E2E2E2E2E20FE20FE2E2E2E2E2E2E2E2E2E2E2E2E2E2E2E2E2E2E2E2E2E22DE2F5F5EFF5E22DE2E2E2E2E2E2E2E2E2E2E2E2E2E2E2E2E2E2E2E2E2E2E2E2E2E2E2E2E2E2E2E2E2E20F0FE2E2E2E2E2E2E2E2E2E2E2E2E2E2E2E2E2E2E2E2E2E2E2E2E2E2E2E20FE2E2E2E2E2E2E2E2E2E2E2E2E2E2E2E2E2E2E2
310
E2E2E2E2E20FE2E2E2E2E2E2E2E2E2E20FE2E2E2E2E2E2E2E20FE2E2E2E2E2E2E2E2E2E2E2E2E2E2E2E2E2E20FE20F0F0F0F0F0F0F0F0F0F0F0F0F0F0F0F0F0FE20FE2E2E2E2E2E2E2E2E2E2E2E2E2E2E2E2E2E2E2E2E2E22DE2F5F5EFF5E22DE2E2E2E2E2E2E2E2E2E2E2E2E2E2E2E2E2E2E2E2E2E2E2E2E2E2E2E2E2E2E2
310
E2E2E20F0FE2E2E2E2E2E2E2E2E2E2E2E2E2E2E2E2E2E2E2E2E2E2E2E2E2E2E2E20FE2E2E2E2E2E2E2E2E2E2E2E2E2E2E2E2E2E2E2E2E2E2E2E20FE2E2E2E2E2E2E2E2E2E20FE2E2E2E2E2E2E2E20FE2E2E2E2E2E2E2E2E2E2E2E2E2E2E2E2E2E20FE20FE2E2E2E2E2E20F0F0F0FE2E2E2E2E2E20FE20FE2E2E2E2E2E2E2E2
310
E2E2E2E2E2E2E2E2E2E2E2E2E2E22DE2F5F5EFF5E22DE2E2E2E2E2E2E2E2E2E2E2E2E2E2E2E2E2E2E2E2E2E2E2E2E2E2E2E2E2E2E2E2E2E20F0FE2E2E2E2E2E2E20F0F0F0F0F0F0F0FE2E2E2E2E2E2E2E2E2E2E2E2E20FE2E2E2E2E2E2E2E2E2E2E2E2E2E2E2E2E2E2E2E2E2E2E2E20FE2E20FE2E2E2E2E2E2E20FE2E2E2E2
310
E2E2E2E20FE2E2E2E2E2E2E2E2E2E2E2E2E2E2E2E2E2E20FE20FE2E2E2E2E2E20F0F0F0FE2E2E2E2E2E20FE20FE2E2E2E2E2E2E2E2E2E2E2E2E2E2E2E2E2E2E2E2E2E22DE2F5F5EFF5E22DE2E2E2E2E2E2E2E2E2E2E2E2E2E2E2E2E2E2E2E2E2E2E2E2E2E2E2E2E2E2E2E2E2E20F0FE2E2E2E2E2E2E20F0F0F0F0F0F0F0F0F
310
E2E2E2E2E2E2E2E2E2E2E2E20FE2E2E2E2E2E2E2E2E2E20F0F0F0F0FE2E2E2E2E2E20F0F0F0F0F0F0F0F0F0FE2E2E2E20FE2E2E2E2E2E2E2E20FE2E2E2E2E2E2E2E2E2E2E2E2E2E2E2E2E2E20FE20FE2E2E2E2E2E2E2E2E2E2E2E2E2E2E2E20FE20FE2E2E2E2E2E2E2E2E2E2E2E2E2E2E2E2E2E2E2E2E2E22DE2F5F5EFF5E2
310
2DE2E2E2E2E2E2E2E2E2E2E2E2E2E2E2E2E2E2E2E2E2E2E2E2E2E2E2E2E2E2E2E2E2E20F0FE2E2E2E2E2E2E20F0F0FE20F0F0F0F0FE2E2E2E2E2E2E2E2E2E2E2E20FE2E2E2E2E2E2E2E2E2E20F0F0F0F0FE2E2E2E2E2E2E2E2E20F0F0F0FE2E2E2E2E2E2E20FE2E2E2E2E2E2E2E20FE2E2E2E2E2E2E2E2E2E2E2E2E2E2E2E2
310
E2E20FE20FE2E2E2E2E2E2E2E2E2E2E2E2E2E2E2E20FE20FE2E2E2E2E2E2E2E2E2E2E2E2E2E2E2E2E2E2E2E2E2E22DE2F5F5EFF5E22DE2E2E2E2E2E2E2E2E2E2E2E2E2E2E2E2E2E2E2E2E2E2E2E2E2E2E2E2E2E2E2E2E2E20F0FE2E2E2E2E2E20FE2E2E2E2E2E2E2E2E2E2E2E2E2E2E2E2E2E2E2E2E20FE2E2E2E2E2E2E2E2
310
E2E20F0F0F0FE2E2E2E2E2E2E2E2E2E20F0F0F0FE2E2E2E2E2E2E20FE2E2E2E2E2E2E2E20FE2E2E2E2E2E2E2E2E2E2E2E2E2E2E2E2E2E20FE20FE2E2E2E2E2E2E2E2E2E2E2E2E2E2E2E20FE20FE2E2E2E2E2E2E2E2E2E2E2E2E2E2E2E2E2E2E2E2E2E22DE2F5F5EFF5E22DE2E2E2E2E2E2E2E2E2E2E2E2E2E2E2E2E2E2E2E2
310
E2E2E2E2E2E2E2E2E2E2E2E2E2E20F0FE2E2E2E2E2E20FE2E2E2E2E2E2E2E2E2E2E2E2E2E2E2E2E2E2E2E2E20FE2E2E2E2E2E2E2E2E20FE2E2E2E2E2E2E2E2E2E2E2E2E2E20FE2E20FE2E2E2E2E2E2E20FE2E2E2E2E2E2E2E20FE2E2E2E2E2E2E2E2E2E2E2E2E2E2E2E2E2E20FE20FE2E2E2E2E2E2E2E2E2E2E2E2E2E2E2E2
310
0FE20FE2E2E2E2E2E2E2E2E2E2E2E2E2E2E2E2E2E2E2E2E2E22DE2F5F5EFF5E22DE2E2E2E2E2E2E2E2E2E2E2E2E2E2E2E2E2E2E2E2E2E2E2E2E2E2E2E2E2E2E2E2E2E20FF5F5F5F5F5F5F5F5F5E2E2E2E2E2E2E2E2E2E2E2E2F5F5F5F5F5F5F5F5F5F5F5F5E2E2E2F5F5F50FF5F5F5F5F5F5F5F5F5F5F5F5F5F5F5E2E20FE2
310
E2E2E2E2E2E20FE2E2E2E2E2E2E2E20FE2E2E2E2E2E2E2E2E2E2E2E2E2E2E2E2E2E2F5F5F5F5F5F5F5F5F5F5F5F5F5F5F5F5F5F5F5F5F5F5E2E2E2E2E2E2E2E2E2E2E2E2E2E2E2E2E2E2E2E2E2E22DE2F5F5EFF5E22DE2E2E2E2E2E2E2E2E2E2E2E2E2E2E2E2E2E2E2E2E2E2E2E2E2E2E2E2E2E2E2E2E2E20FF5E2E2E2E2E2
310
E20FF5F5F5F5F5F5F5F5F5F5F5F5F5F5E2E2E2E2E2E2E2F5F5F5F5F5F5E2F5F5F50FF5F5F5F5F5F5F5F5F5F5F5F5F5F5F5E2E20FE2E2E2E2E2E2E20FE2E2E2E2E2E2E2E20FE2E2E2E2E2E2E2E2E2E2E2E2E2E2E2E2E2E2F5E20FE2E2E2E2E2E2E2E2E2E2E2E2E2E2E2E20FE2F5E2E2E2E2E2E2E2E2E2E2E2E2E2E2E2E2E2E2
310
E2E2E2E22DE2F5F5EFF5E22DE2E2E2E2E2E2E2E2E2E2E2E2E2E2E2E2E2E2E2E2E2E2E2E2E2E2E2E2E2E2E2E2E2E20FF5E2E2E2E2E2E20FF5E2E2E2E2E2E2E2E2E2E2E2E2F5E2E2E2E2E2E2E2F5E2E2F5E2F5F5F5E2E20FE2E2E2E2E2E2E2E2E2E2E2E2E2E2F5E2E20FE2E2E2E2E2E2E20FE2E2E2E2E2E2E2E20FE2E2E2E2E2
310
E2E2E2E2E2E2E2E2E2E2E2E2E2F5E22828E2E2E2E2E2E2E2E2E2E2E2E2E2E2F52828F5E2E2E2E2E2E2E2E2E2E2E2E2E2E2E2E2E2E2E2E2E2E22DE2F5F5EFF5E22DE2E2E2E2E2E2E2E2E2E2E2E2E2E2E2E2E2E2E2E2E2E2E2E2E2E2E2E2E2E2E2E2E2E20FF5E2E2E2E2E2E20FF5E2E2E2E2E2E2E2E2E2E2E2E2F5E2E2E2E2E2
310
E2E2F5E2E2F5F5F5F5F5F5BE0FE2E2E2E2E2E2E2E2E2E2E2E2E2E2F5E2E20FE2E2E2E2E2E2E20FE2E2E2E2E2E2E2E20FE2E2E2E2E2E2E2E2E2E2E2E2E2E2E2E2E2E2F528F528BEE2E2E2E2E2E2E2E2E2E2E2E2BE28BE28F5E2E2E2E2E2E2E2E2E2E2E2E2E2E2E2E2E2E2E2E2E2E22DE2F5F5EFF5E22DE2E2E2E2E2E2E2E2E2
310
E2E2E2E2E2E2E2E2E2E2E2E2E2E2E2E2E2E2E2E2E2E2E2E2E20FF5E2E2E2E2E20FE2F5E2E2E2E2E2E2E2E2E2E2E2E2F5E2E2E2E2E2E2E2F5E2E2F5E2F5F5F5BEBEBEBEE2E2F5F5F5E2E2E2E2E2E2E2E2F5E2E20FE2E2E2E2E2E2E20FE2E2E2E2E2E2E2E20FE2E2E2E2E2E2E2E2E2E2E2E2E2E2E2E2E2E2F5E22828E2E2E2E2
310
E2E2E2E2E2E2E2E2E2E2282828F5E2E2E2E2E2E2E2E2E2E2E2E2E2E2E2E2E2E2E2E2E2E22DE2F5F5EFF5E22DE2E2E2E2E2E2E2E2E2E2E2E2E2E2E2E2E2E2E2E2E2E2E2E2E2E2E2E2E2E2E2E2E2E20FF5E2E2E2E2E20FE2F5E2E2E2E2E2E2E2E2E2E2E2E2F5E2E2E2E2E2E2E2F5E2E2F5F5F5E2F5F5BEF5F5F5F5F5E2E2F5F5
310
E2E2E2E2E2E2F5E2E20FE2E2E2E2E2E2E20FE2E2E2E2E2E2E2E20FE2E2E2E2E2E2E2E2E2E2E2E2E2E2E2E2E2E2F5E2E2E2E2E2E2E2E2E2E2E2E2E2E2E2E2E2E2E2E2F5E2E2E2E2E2E2E2E2E2E2E2E2E2E2E2E2E2E2E2E2E2E22DE2F5F5EFF5E22DE2E2E2E2E2E2E2E2E2E2E2E2E2E2E2E2E2E2E2E2E2E2E2E2E2E2E20F0F0F
310
0F0F0F0FF5F5E2E2E2E20F0FE2F5E2E2E2E2E2E2E2E2E2E2E2E2F5E2E2E2E2E2E2E2F5E2E2F5E2E2E2F5E2BEF5F5E2E2E2E2E2E2E2F5F5E2E2E2E2F5F5F5F50F0F0F0F0F0F0F0F0F0F0F0F0F0F0F0F0F0F0F0F0F0F0F0F0FE2E2E2E2E2E2E2E2E2E2F5E2E2E2E2E2E2E2F5F5F5BEF5F5E2E2E2E2E2E2E2F5E2E2E2E2E2E2E2
310
E2E2E2E2E2E2E2E2E2E2E2E2E2E2E22DE2F5F5EFF5E22DE2E2E2E2E2E2E2E2E2E2E2E2E2E2E2E2E2E2E2E2E2E2E2E2E2E2E20F0FE20FE2E2E2F5F5E2E2F5BEF5F5E2F5E2E2E2E2E2E2E2E2E2E2E2E2F5E2F5BEF5F5E2E2F5E2E2F5E2E2E2F5E2E2F5E2E2E2E2E2E2E2E2E2F5F5E2E2E2F5E2E2F5E2E2E2E2E2E2E20FE2E2E2
310
E2F5F5F5E20FE2E2E2E2E2E20F0FE2E2E2E2E2E2E2E2E2E2F5E2E2E2E2E2E2F5F5E2E2BEE2F5F5E2E2E2E2E2E2F5E2E2E2E2E2E2E2E2E2E2E2E2E2E2E2E2E2E2E2E2E2E22DE2F5F5EFF5E22DE2E2E2E2E2E2E2E2E2E2E2E2E2E2E2E2E2E2E2E2E2E2E2E2E2E2E20F0FE20FE2E2E2F5F5E2F5F5BEF5F5E2F5E2E2E2E2E2E2E2
310
E2E2E2E2E2F5F5F5BEF5F5E2E2F5E2E2F5E2E2E2F5E2F5E2E2E2E2E2E2E2E2E2E2E2F5E2E2E2F5E2E2F5F5F5F5F5F50F0F0F0F0F0F0F0F0F0F0F0F0F0F0F0FE2E20F0FE2E2E2E2E2E2E2E2E2E2F5E2E2E2E2E2F5F5E2E2F5BEE2E2F5F5E2E2E2E2E2F5E2E2E2E2E2E2E2E2E2E2E2E2E2E2E2E2E2E2E2E2E2E22DE2F5F5EFF5
310
E22DE2E2E2E2E2E2E2E2E2E2E2E2E2E2E2E2E2E2E2E2E2E2E2E2E2E20F0FE2E20F0F0F0F0F0F0F0FBEBEBEBEBEF5E2E2E2E2E2E2E2E2E2E2E2E2F5BEBEBEBEBEBEE2F5E2E2F5E2E2E2F5E2F5E2E2E2E2E2E2E2E2E2E2E2F5E2E2E2F5E2E2F5E2E2E2E2F5F5F5F5F5F5F5F5F5F5F5F50FE2E2E20FE20F0FE2E2E2E2E2E2E2E2
310
E2E2E2F5E2E2E2E2E2F5F5F5F5F5BEF5F5F5F5E2E2E2E2E2F5E2E2E2E2E2E2E2E2E2E2E2E2E2E2E2E2E2E2E2E2E2E22DE2F5F5EFF5E22DE2E2E2E2E2E2E2E2E2E2E2E2E2E2E2E2E2E2E2E2E2E2E2E2E20F0F0F0F0F0FE2E2E2F5F5E2F5F5BEF5F5E2F5E2E2E2E2E2E2E2E2E2E2E2E2F5F5F5BEF5F5E2E2F5E2E2F5E2E2E2F5
310
F5F5F5E2E2E2E2E2E2E2E2E2F5F5F5E2E2F5E2E2F5E2E2E2E2F5F5F5F5E2E2E2F5F5E2F5E2F5E20F0F0F0F0F0FE2E2E2E2E2E2E2E2E2E2E2F5E2E2E2E2F5F5F5F5F5E2BEF5F5F5E2F5E2E2E2E2F5E2E2E2E2E2E2E2E2E2E2E2E2E2E2E2E2E2E2E2E2E2E22DE2F5F5EFF5E22DE2E2E2E2E2E2E2E2E2E2E2E2E2E2E2E2E2E2E2
310
E2E2E2E2E2E20F0F0FE2E20F0F0F0FF5F5BEBEF5BEF5F5BEF5BEBEBEBEBEBEBEBEBEBEBEBEF5BEF5BEF5F5BEBEF5BEBEF5BEBEBEF5F5F5F5F5BEBEBEBEBEBEBEBEF5F5F5BEBEF5BEBEF5BEBEBEBEF5F5BEF5BEBEBEF5E2E2F5E2F5E20F0F0F0F0F0FE2E2E2E2E2E2E2E2E2E2E2F5E2E2E2E2BEBEBEBEBEBEBEBEBEBEBEBEE2
310
E2E2E2F5E2E2E2E2E2E2E2E2E2E2E2E2E2E2E2E2E2E2E2E2E2E22DE2F5F5EFF5E22DE2E2E2E2E2E2E2E2E2E2E2E2E2E2E2E2E2E2E2E2E2E2E2E2E20F0F0FE2E20FE2E2E2F5F5E2E2E20FBEE2E2F5E2E2E2E2E2E2E2E2E2E2E2E2F5E2BE0FE2E2E2E2F5E2E2F5E2E2E2F5F5F5F5E2E2E2E2E2E2E2E2E2F5F5F5E2E2F5E2E2F5
310
E2E2E2E2F5F5E2F5E2E2E2F5F5E2F5E2F5E20F0F0F0F0F0FE2E2E2E2E2E2E2E2E2E2E2F5E2E2E2E2F5E2F5F5F5E2BEF5F5F5E2F5E2E2E2E2F5E2E2E2E2E2E2E2E2E2E2E2E2E2E2E2E2E2E2E2E2E2E22DE2F5F5EFF5E22DE2E2E2E2E2E2E2E2E2E2E2E2E2E2E2E2E2E2E2E2E2E2E2E2E20F0F0FE2E20FE2E2E2F5F5E2E2E20F
310
BEF5F5F5E2E2E2E2E2E2E2E2E2E2E2E2F5F5BE0FE2E2E2E2F5E2E2F5E2E2E2F5E2F5E2E2E2E2E2E2E2E2E2E2E2E2F5E2E2F5E2E2F5E2E2E2E2F5F5F5F5F5F5F5F5F5F5F50FF5E20F0F0F0F0F0FE2E2E2E2E2E2E2E2E2E2E2F5E2E2E2E2E2F5F5F5F5F5BEF5E2F5F5F5E2E2E2E2F5E2E2E2E2E2E2E2E2E2E2E2E2E2E2E2E2E2
310
E2E2E2E2E22DE2F5F5EFF5E22DE2E2E2E2E2E2E2E2E2E2E2E2E2E2E2E2E2E2E2E2E2E2E2E2E2E2E20FE2E20FE2E2E2F5F5E2E2E20FBEBEBEF5E2E2E2E2E2E2E2E2E2E2E2E2F5BEBE0FBEE2E2E2F5E2E2F5E2E2E2F5E2F5E2E2E2E2E2E2E2E2E2E2E2F5E2E2E2F5E2E2F5E2E2E2E2F5F5F5F50F0F0F0F0F0F0F0F0F0F0F0F0F
310
E2E20FE2E2E2E2E2E2E2E2E2E2E2F5E2E2E2E2E2F5E2F5E2E2BEE2F5E2F5E2E2E2E2E2F5E2E2E2E2E2E2E2E2E2E2E2E2E2E2E2E2E2E2E2E2E2E22DE2F5F5EFF5E22DE2E2E2E2E2E2E2E2E2E2E2E2E2E2E2E2E2E2E2E2E2E2E2E2E2E2E20F0FE2E2E2E2E2F5F5E2E2E20FBEF5F5F5E2E2E2E2E2E2E2E2E2E2E2E2F5F5BE0FE2
310
E2E2E2F5E2E2F5E2E2E2F5E2E2F5E2E2E2E2E2E2E2E2E2E2F5E2E2E2F5E2E2F5F5F5F5F5F5E2E2E2E2E2E2F5F5F5F50F0FE2E2E2E2E2E20F0FE2E2E2E2E2E2E2E2E2E2F5E2E2E2E2E2E2F5E2F5F5BEF5E2F5E2E2E2E2E2E2F5E2E2E2E2E2E2E2E2E2E2E2E2E2E2E2E2E2E2E2E2E2E22DE2F5F5EFF5E22DE2E2E2E2E2E2E2E2
310
E2E2E2E2E2E2E2E2E2E2E2E2E2E2E2E2E2E2E20F0F0F0F0F0F0FF5F5E2E2E20FE2E2E2F5F5F5F5F5F5F5F5F5F5F5F5F5F5E2E20FE2E2E2E2F5E2E2F5E2E2E2F5E2E2F5F5E2E2E2E2E2E2E2E2F5E2E2E2E2F5F5F5F50F0F0F0F0F0F0F0F0F0F0F0F0F0F0F0F0F0F0F0F0F0F0F0F0FE2E2E2E2E2E2E2E2E2E2F5E2E2E2E2E2E2
310
E2F5F5F5BEF5F5E2E2E2E2E2E2E2F5E2E2E2E2E2E2E2E2E2E2E2E2E2E2E2E2E2E2E2E2E2E22DE2F5F5EFF5E22DE2E2E2E2E2E2E2E2E2E2E2E2E2E2E2E2E2E2E2E2E2E2E2E2E2E2E2E2E2E2E2E2E2E2E2F5E2E2E20FE2E2E2F5E2E2E2E2E2E2E2E2E2E2E2E2F5E2E20FE2E2E2E2F5E2E2F5E2E2E2F5E2E2E2F5F5F5E2E2E2E2
310
F5F5E2E2E2E2E2F5E2E2E2E2E2E2E2E2E2E2E2E2E2E2E2E2E2E2E2E20FE2E2E2E2E2E2E2E2E2E2E2E2E2E2E2E2E2F5E2E2E2E2E2E2E2E2E2E2E2E2E2E2E2E2E2E2E2E2F5E2E2E2E2E2E2E2E2E2E2E2E2E2E2E2E2E2E2E2E2E2E22DE2F5F5EFF5E22DE2E2E2E2E2E2E2E2E2E2E2E2E2E2E2E2E2E2E2E2E2E2E2E2E2E2E2E2E2
310
E2E2E2E2E2E2F5E2E2E20FE2E2E2F5F5F5F5F5F5F5F5F5F5F5F5F5F5E2E20FE2E2E2E2F5E2E2F5F5F5E2F5E2E2E2E2E2F5F5F5F5F5F5E2E2E2E2E2E2F5E2E2E2E2E2E2E2E2E2E2E2E2E2E2E2E2E2E2E2E2E20FE2E2E2E2E2E2E2E2E2E2E2E2E2E2E2E2F5E22828E2E2E2E2E2E2E2E2E2E2E2E2E2E2E228E2F5E2E2E2E2E2E2
310
E2E2E2E2E2E2E2E2E2E2E2E2E2E2E2E22DE2F5F5EFF5E22DE2E2E2E2E2E2E2E2E2E2E2E2E2E2E2E2E2E2E2E2E2E2E2E2E2E2E2E2E2E2E2E2E2E2E2F5E2E2E20FE2E2E2F5E2E2E2E2E2E2E2E2E2E2E2E2F5E2E20FE2E2E2E2F5E2E2F5F5F5F5F5E2E2E2E2E2E2E2E2E2E2E2E2E2E2E2E2E2F5E2E2E2E2E2E2E2E2E2E2E2E2E2
310
E2E2E2E2E2E2E2E20FE2E2E2E2E2E2E2E2E2E2E2E2E2E2E2E2F528BE28BEE2E2E2E2E2E2E2E2E2E2E2E2BE28BE28F5E2E2E2E2E2E2E2E2E2E2E2E2E2E2E2E2E2E2E2E2E2E22DE2F5F5EFF5E22DE2E2E2E2E2E2E2E2E2E2E2E2E2E2E2E2E2E2E2E2E2E2E2E2E2E2E2E2E2E2E2E2E2E2E2F5E2E2E20FE2E2E2F5E2E2E2E2E2E2
310
E2E2E2E2E2E2F5E2E20FE2E2E2E2F5E2E2F5E2F5F5F5E2E2E2E2E2E2E2E2E2E2E2E2E2E2E2E2E2F5E2E2E2E2E2E2E2E2E2E2E2E2E2E2E2E2E2E2E2E2E2E20FE2E2E2E2E2E2E2E2E2E2E2E2E2E2E2F5282828E2E2E2E2E2E2E2E2E2E2E2E2E2E2282828F5E2E2E2E2E2E2E2E2E2E2E2E2E2E2E2E2E2E2E2E2E2E22DE2F5F5EF
310
F5E22DE2E2E2E2E2E2E2E2E2E2E2E2E2E2E2E2E2E2E2E2E2E2E2E2E2E2E2E2E2E2E2E2E2E2E2F5E2E2E20FE2E2E2F5F5F5F5F5F5F5F5F5F5F5F5F5F5E2E20FE2E2E2E2F5E2E2F5F5F5E2F5E2E2E2E2E2E2E2E2E2E2E2E2E2E2E2E2E2F5E2E2E2E2E2E2E2E2E2E2E2E2E2E2E2E2E2E2E2E2E2E20F0F0F0F0F0F0F0F0FE2E2E2
310
E2E2E2E2F5E228E20FE2E2E2E2E2E2E2E2E2E2E2E2E2E228E2F5E2E2E2E2E2E2E2E2E2E2E2E2E2E2E2E2E2E2E2E2E2E22DE2F5F5EFF5E22DE2E2E2E2E2E2E2E2E2E2E2E2E2E2E2E2E2E2E2E2E2E2E2E2E2E2E2E2E2E2E2E2E2E2E20FF5F5F50FF5F5F50FE2E2E2E2E2E2E2E2E2E2E2E20FF5F50FF5F5F5F50FF5F5F5E2E2E2
310
F5F5F5F5F5F5F5F5F5F5F5F5F5F5F5F5F5F5F5E2E2E2E2E2E2E2E2E2E2E2E2E2E2E2E2E2E2E2E2E2E2E20F0F0F0F0F0F0F0FE2E2E2E2E2E2E2F5F5F5F5F5F5F5F5F5F5F5F5F5F5F5F5F5F5F5F5F5F5E2E2E2E2E2E2E2E2E2E2E2E2E2E2E2E2E2E2E2E2E2E22DE2F5F5EFF5E22DE2E2E2E2E2E2E2E2E2E2E2E2E2E2E2E2E2E2
310
E2E2E2E2E2E2E2E2E2E2E2E2E2E2E2E2E20FE2E2E20FE2E2E20FE2E2E2E2E2E2E2E2E2E2E2E20FE2E20FE2E2E2E20FE2E2E2E2E2E2E2E2E2E2E2E2E2E2E2E2E2E2E2E2E2E2E2E2E2E2E2E2E2E2E2E2E2E2E2E2E2E2E2E2E2E2E2E2E2E2E2E20F0F0F0F0F0F0F0FE2E2E2E2E2E2E2E2E2E2E2E20FE2E2E2E2E2E2E2E2E2E2E2
310
E2E2E2E2E2E2E2E2E2E2E2E2E2E2E2E2E2E2E2E2E2E2E2E2E2E2E22DE2F5F5EFF5E22DE2E2E2E2E2E2E2E2E2E2E2E2E2E2E2E2E2E2E2E2E2E2E2E2E2E2E2E2E2E2E2E2E2E2E20FE2E2E20FE2E2E20FE2E2E2E2E2E2E2E2E2E2E2E20FE2E20FE2E2E2E20FE2E2E2E2E2E2E2E2E2E2E2E2E2E2E2E2E2E2E2E2E2E2E2E2E2E2E2
310
E2E2E2E2E2E2E2E2E2E2E2E2E2E2E2E2E2E2E2E2E2E2E2E2E2E2E2E2E2E2E2E2E2E2E2E2E2E2E2E2E20FE2E2E2E2E2E2E2E2E2E2E2E2E2E2E2E2E2E2E2E2E2E2E2E2E2E2E2E2E2E2E2E2E2E2E2E2E2E22DE2F5F5EFF5E22DE2E2E2E2E2E2E2E2E2E2E2E2E2E2E2E2E2E2E2E2E2E2E2E2E2E2E2E2E2E2E2E2E2E2E20F0F0F0F
310
0FE2E2E20FE2E2E2E2E2E2E2E2E2E2E2E20FE2E20F0F0F0F0F0FE2E2E2E2E2E2E2E2E2E2E2E2E2E2E2E2E2E2E2E2E2E2E2E2E2E2E2E2E2E2E2E2E2E2E2E2E2E2E2E2E2E2E2E2E2E2E2E2E2E2E2E2E2E2E2E2E2E2E2E2E2E2E2E2E2E2E2E2E20FE2E2E2E2E2E2E2E2E2E2E2E2E2E2E2E2E2E2E2E2E2E2E2E2E2E2E2E2E2E2E2
310
E2E2E2E2E2E22DE2F5F5EFF5E22DE2E2E2E2E2E2E2E2E2E2E2E2E2E2E2E2E2E2E2E2E2E2E2E2E2E2E2E2E2E2E2E2E2E2E20F0F0F0F0FE2E2E20FE2E2E2E2E2E2E2E2E2E2E2E20FE2E2E2E20F0F0F0FE2E2E2E2E2E2E2E2E2E2E2E2E2E2E2E2E2E2E2E2E2E2E2E2E2E2E2E2E2E2E2E2E2E2E2E2E2E2E2E2E2E2E2E2E2E2E2E2
310
E2E2E2E2E2E2E2E2E2E2E2E2E2E2E2E2E2E2E2E2E20F0F0F0F0F0F0F0F0F0F0FE2E2E2E2E2E2E2E2E2E2E2E2E2E2E2E2E2E2E2E2E2E2E2E2E2E2E22DE2F5F5EFF5E22DE2E2E2E2E2E2E2E2E2E2E2E2E2E2E2E2E2E2E2E2E2E2E2E2E2E2E2E2E2E2E2E2E2E2E20F0F0F0F0FE2E2E20FE2E2E2E2E2E2E2E2E2E2E2E20FE2E2E2
310
0F0F0F0F0FE2E2E2E2E2E2E2E2E2E2E2E2E2E2E2E2E2E2E2E2E2E2E2E2E2E2E2E2E2E2E2E2E2E2E2E2E2E2E2E2E2E2E2E2E2E2E2E2E2E2E2E2E2E2E2E2E2E2E2E2E2E2E2E2E2E2E2E2E20F0F0F0F0F0F0F0F0F0FE2E2E2E2E2E2E2E2E2E2E2E2E2E2E2E2E2E2E2E2E2E2E2E2E2E2E2E22DE2F5F5EFF5E22DE2E2E2E2E2E2E2
310
E2E2E2E2E2E2E2E2E2E2E2E2E2E2E2E2E2E2E2E2E2E2E2E2E2E2E2E20FE2E2E2E2E2E2E20FE2E2E2E2E2E2E2E2E2E2E2E20FE2E2E2E2E2E2E20FE2E2E2E2E2E2E2E2E2E2E2E2E2E2E2E2E2E2E2E2E2E2E2E2E2E2E2E2E2E2E2E2E2E2E2E2E2E2E2E2E2E2E2E2E2E2E2E2E2E2E2E2E2E2E2E2E2E2E2E2E2E2E2E2E2E2E2E2E2
310
0FE20F0F0F0FE20F0F0FE2E2E2E2E2E2E2E2E2E2E2E2E2E2E2E2E2E2E2E2E2E2E2E2E2E2E2E22DE2F5F5EFF5E22DE2E2E2E2E2E2E2E2E2E2E2E2E2E2E2E2E2E2E2E2E2E2E2E2E2E2E2E2E2E2E2E2E2E2E20F0F0F0F0F0F0F0F0FE2E2E2E2E2E2E2E2E2E2E2E20F0F0F0F0F0F0F0F0FE2E2E2E2E2E2E2E2E2E2E2E2E2E2E2E2
310
E2E2E2E2E2E2E2E2E2E2E2E2E2E2E2E2E2E2E2E2E2E2E2E2E2E2E2E2E2E2E2E2E2E2E2E2E2E2E2E2E2E2E2E2E2E2E2E2E2E2E2E2E2E2E2E2E2E2E2E2E2E2E2E2E2E2E2E2E2E2E2E2E2E2E2E2E2E2E2E2E2E2E2E2E2E2E2E2E2E2E22DE2F5F5EFF5E22DE2E2E2E2E2E2E2E2E2E2E2E2E2E2E2E2E2E2E2E2E2E2E2E2E2E2E2E2
310
E2E2E2E2E2E2E2E2E20F0F0F0FE2E2E2E2E2E2E2E2E2E2E2E2E2E2E2E2E20F0F0F0F0FE2E2E2E2E2E2E2E2E2E2E2E2E2E2E2E2E2E2E2E2E2E2E2E2E2E2E2E2E2E2E2E2E2E2E2E2E2E2E2E2E2E2E2E2E2E2E2E2E2E2E2E2E2E2E2E2E2E2E2E2E2E2E2E2E2E2E2E2E2E2E2E2E2E2E2E2E2E2E2E2E2E2E2E2E2E2E2E2E2E2E2E2
310
E2E2E2E2E2E2E2E2E2E2E2E2E2E2E2E2E22DE2F5F5EFF5E22DE2E2E2E2E2E2E2E2E2E2E2E2E2E2E2E2E2E2E2E2E2E2E2E2E2E2E2E2E2E2E2E2E2E2E2E2E20F0F0F0FE2E2E2E2E2E2E2E2E2E2E2E2E2E2E2E2E20F0F0F0F0FE2E2E2E2E2E2E2E2E2E2E2E2E2E2E2E2E2E2E2E2E2E2E2E2E2E2E2E2E2E2E2E2E2E2E2E2E2E2E2
310
E2E2E2E2E2E2E2E2E2E2E2E2E2E2E2E2E2E2E2E2E2E2E2E2E2E2E2E2E2E2E2E2E2E2E2E2E2E2E2E2E2E2E2E2E2E2E2E2E2E2E2E2E2E2E2E2E2E2E2E2E2E2E2E2E2E2E2E2E2E22DE2F5F5EFF5E22DE2E2E2E2E2E2E2E2E2E2E2E2E2E2E2E2E2E2E2E2E2E2E2E2E2E2E2E2E2E2E2E2E2E2E2E2E2E2E2E2E2E2E2E2E2E2E2E2E2
310
E2E2E2E2E2E2E2E2E2E2E2E2E2E2E2E2E2E2E2E2E2E2E2E2E2E2E2E2E2E2E2E2E2E2E2E2E2E2E2E2E2E2E2E2E2E2E2E2E2E2E2E2E2E2E2E2E2E2E2E2E2E2E2E2E2E2E2E2E2E2E2E2E2E2E2E2E2E2E2E2E2E2E2E2E2E2E2E2E2E2E2E2E2E2E2E2E2E2E2E2E2E2E2E2E2E2E2E2E2E2E2E2E2E2E2E2E2E2E2E2E2E2E22DE2F5F5
310
EFF5E22DE2E2E2E2E2E2E2E2E2E2E2E2E2E2E2E2E2E2E2E2E2E2E2E2E2E2E2E2E2E2E2E2E2E2E2E2E2E2E2E2E2E2E2E2E2E2E2E2E2E2E2E2E2E2E2E2E2E2E2E2E2E2E2E2E2E2E2E2E2E2E2E2E2E2E2E2E2E2E2E2E2E2E2E2E2E2E2E2E2E2E2E2E2E2E2E2E2E2E2E2E2E2E2E2E2E2E2E2E2E2E2E2E2E2E2E2E2E2E2E2E2E2E2
310
E2E2E2E2E2E2E2E2E2E2E2E2E2E2E2E2E2E2E2E2E2E2E2E2E2E2E2E2E2E2E2E2E2E2E2E2E2E2E2E2E2E2E2E2E2E2E2E2E22DE2F5F5EFF5E22DE2E2E2E2E2E2E2E2E2E2E2E2E2E2E2E2E2E2E2E2E2E2E2E2E2E2E2E2E2E2E2E2E2E2E2E2E2E2E2E2E2E2E2E2E2E2E2E2E2E2E2E2E2E2E2E2E2E2E2E2E2E2E2E2E2E2E2E2E2E2
310
E2E2E2E2E2E2E2E2E2E2E2E2E2E2E2E2E2E2E2E2E2E2E2E2E2E2E2E2E2E2E2E2E2E2E2E2E2E2E2E2E2E2E2E2E2E2E2E2E2E2E2E2E2E2E2E2E2E2E2E2E2E2E2E2E2E2E2E2E2E2E2E2E2E2E2E2E2E2E2E2E2E2E2E2E2E2E2E2E2E2E2E2E2E2E2E2E2E2E2E2E2E22DE2F5F5EFF5E22DE2E2E2E2E2E2E2E2E2E2E2E2E2E2E2E2E2
310
E2E2E2E2E2E2E2E2E2E2E2E2E2E2E2E2E2E2E2E2E2E2E2E2E2E2E2E2E2E2E2E2E2E2E2E2E2E2E2E2E2E2E2E2E2E2E2E2E2E2E2E2E2E2E2E2E2E2E2E2E2E2E2E2E2E2E2E2E2E2E2E2E2E2E2E2E2E2E2E2E2E2E2E2E2E2E2E2E2E2E2E2E2E2E2E2E2E2E2E2E2E2E2E2E2E2E2E2E2E2E2E2E2E2E2E2E2E2E2E2E2E2E2E2E2E2E2
310
E2E2E2E2E2E2E2E2E2E2E2E2E2E2E2E2E2E2E2E2E2E2E2E2E2E2E2E22DE2F5F5EFF5E22DE2E2E2E2E2E2E2E2E2E2E2E2E2E2E2E2E2E2E2E2E2E2E2E2E2E2E2E2E2E2E2E2E2E2E2E2E2E2E2E2E2E2E2E2E2E2E2E2E2E2E2E2E2E2E2E2E2E2E2E2E2E2E2E2E2E2E2E2E2E2E2E2E2E2E2E2E2E2E2E2E2E2E2E2E2E2E2E2E2E2E2
310
E2E2E2E2E2E2E2E2E2E2E2E2E2E2E2E2E2E2E2E2E2E2E2E2E2E2E2E2E2E2E2E2E2E2E2E2E2E2E2E2E2E2E2E2E2E2E2E2E2E2E2E2E2E2E2E2E2E2E2E2E2E2E2E2E2E2E2E2E2E2E2E2E2E2E2E2E2E2E2E2E22DE2F5F5EFF5E22DE2E2E2E2E2E2E2E2E2E2E2E2E2E2E2E2E2E2E2E2E2E2E2E2E2E2E2E2E2E2E2E2E2E2E2E2E2E2
310
E2E2E2E2E2E2E2E2E2E2E2E2E2E2E2E2E2E2E2E2E2E2E2E2E2E2E2E2E2E2E2E2E2E2E2E2E2E2E2E2E2E2E2E2E2E2E2E2E2E2E2E2E2E2E2E2E2E2E2E2E2E2E2E2E2E2E2E2E2E2E2E2E2E2E2E2E2E2E2E2E2E2E2E2E2E2E2E2E2E2E2E2E2E2E2E2E2E2E2E2E2E2E2E2E2E2E2E2E2E2E2E2E2E2E2E2E2E2E2E2E2E2E2E2E2E2E2
310
E2E2E2E2E2E2E22DE2F5F5EFF5E22DE2E2E2E2E2E2E2E2E2E2E2E2E2E2E2E2E2E2E2E2E2E2E2E2E2E2E2E2E2E2E2E2E2E2E2E2E2E2E2E2E2E2E2E2E2E2E2E2E2DCE2E2E2E2E2E2E2E2E2E2E2E2E2E2E2E2E2E2E2E2E2E2E2E2E2E2E2E2E2E2E2E2E2E2E2E2E2E2E2E2E2E2E2E2E2E2E2E2E2E2E2E2E2E2E2E2E2E2E2E2E2E2
310
E2E2E2E2E2E2E2E2E2E2E2E2E2E2E2E2E2E2E2E2E2E2E2E2E2E2E2E2E2E2E2E2E2E2E2E2E2E2E2E2E2E2E2E2E2E2E2E2E2E2E2E2E2E2E2E2E2E2E2E22DE2F5F5EFF5E22DE2E2E2E2E2E2E2E2E2E2E2E2E2E2E2E2E2E2E2E2E2E2E2E2E2E2E2E2E2E2E2E2E2E2E2E2E2E2E2E2E2E2E2E2E2E2E2E2E2DCE2E2E2E2E2E2E2E2E2
310
E2E2E2E2E2E2E2E2E2E2E2E2E2E2E2E2E2E2E2E2E2E2E2E2E2E2E2E2E2E2E2E2E2E2E2E2E2E2E2E2E2E2E2E2E2E2E2E2E2E2E2E2E2E2E2E2E2E2E2E2E2E2E2E2E2E2E2E2E2E2E2E2E2E2E2E2E2E2E2E2E2E2E2E2E2E2E2E2E2E2E2E2E2E2E2E2E2E2E2E2E2E2E2E2E2E2E2E2E2E2E2E2E22DE2F5F5EFF5E22DE2E2E2E2E2E2
310
E2E2E2E2E2E2E2E2E2E2E2E2E2E2E2E2E2E2E2E2E2E2E2E2E2E2E2E2E2E2E2E2E2E2E2E2E2E2E2E2E2E2E2DCE2E2E2E2E2E2E2E2E2E2E2E2E2E2E2E2E2E2E2E2E2E2E2E2E2E2E2E2E2E2E2E2E2E2E2E2E2E2E2E2E2E2E2E2E2E2E2E2E2E2E2E2E2E2E2E2E2E2E2E2E2E2E2E2E2E2E2E2E2E2E2E2E2E2E2E2E2E2E2E2E2E2E2
310
E2E2E2E2E2E2E2E2E2E2E2E2E2E2E2E2E2E2E2E2E2E2E2E2E2E2E2E2E2E2E2E2E2E2E2E2E2E2E22DE2F5F5EFF5E22DE2E2E2E2E2E2E2E2E2E2E2E2E2E2E2E2E2E2E2E2E2E2E2E2E2E2E2E2E2E2E2E2E2E2E2E2E2E2E2E2E2E2E2E2E2E2E2E2E2DCE2E2E2E2E2E2E2E2E2E2E2E2E2E2E2E2E2E2E2E2E2E2E2E2E2E2E2E2E2E2
310
E2E2E2E2E2E2E2E2E2E2E2E2E2E2E2E2E2E2E2E2E2E2E2E2E2E2E2E2E2E2E2E2E2E2E2E2E2E2E2E2E2E2E2E2E2E2E2E2E2E2E2E2E2E2E2E2E2E2E2E2E2E2E2E2E2E2E2E2E2E2E2E2E2E2E2E2E2E2E2E2E2E2E2E2E2E2E2E2E2E2E2E22DE2F5F5EFF5E22DE2E2E2E2E2E2E2E2E2E2E2E2E2E2E2E2E2E2E2E2E2E2E2E2E2E2E2
310
E2E2E2E2E2E2E2E2E2E2E2E2E2E2E2E2E2E2E2E2E2E2DCE2E2E2E2E2E2E2E2E2E2E2E2E2E2E2E2E2E2E2E2E2E2E2E2E2E2E2E2E2E2E2E2E2E2E2E2E2E2E2E2E2E2E2E2E2E2E2E2E2E2E2E2E2E2E2E2E2E2E2E2E2E2E2E2E2E2E2E2E2E2E2E2E2E2E2E2E2E2E2E2E2E2E2E2E2E2E2E2E2E2E2E2E2E2E2E2E2E2E2E2E2E2E2E2
310
E2E2E2E2E2E2E2E2E2E2E2E2E2E2E2E2E2E22DE2F5F5EFF5E22DE2E2E2E2E2E2E2E2E2E2E2E2E2E2E2E2E2E2E2E2E2E2E2E2E2E2E2E2E2E2E2E2E2E2E2F5F5F5F5F5F5F5F5F5E2E2E2E2E2DCE2E2E2E2E2E2F5F5F5F5F5F5F5F5F5F5F5F5E2E2E2F5F5F5F5F5F5F5F5F5F5F5F5F5F5F5F5F5F5F5E2E2E2E2E2E2E2E2E2E2E2
310
E2E2E2E2E2E2E2E2E2E2E2E2E2E2E2E2E2E2E2E2E2E2E2E2E2E2E2E2E2E2E2E2E2E2E2E2E2E2E2E2E2E2E2E2E2E2E2E2E2E2E2E2E2E2E2E2E2E2E2E2E2E2E2E2E2E2E2E2E2E2E22DE2F5F5EFF5E22DE2E2E2E2E2E2E2E2E2E2E2E2E2E2E2E2E2E2E2E2E2E2E2E2E2E2E2E2E2E2E2E2E2E2E2F5E2E2E2E2E2E2E2F5F5F5F5F5
310
F5F5F5F5F5F5F5F5F5E2E2E2E2E2E2E2F5F5F5F5F5F5E2F5F5F5F5F5F5F5F5F5F5F5F5F5F5F5F5F5F5F5E2E2E2E2E2E2E2E2E2E2E2E2E2E2E2E2E2E2E2E2E2E2E2E2E2E2E2E2E2E2E2E2E2E2E2E2E2E2E2E2E2E2E2E2E2E2E2E2E2E2E2E2E2E2E2E2E2E2E2E2E2E2E2E2E2E2E2E2E2E2E2E2E2E2E2E2E2E2E2E2E2E22DE2F5
310
F5EFF5E22DE2E2E2E2E2E2E2E2E2E2E2E2E2E2E2E2E2E2E2E2E2E2E2E2E2E2E2E2E2E2E2E2E2E2E2F5E2E2E2E2E2E2E2F5E2E2E2E2E2DCE2E2E2E2E2E2F5E2E2E2E2E2E2E2F5E2E2F5F5F5F5F5E2E2F5F5F5F5F5F5F5F5F5F5E2E2E2E2E2F5E2E2E2E2E2E2E2E2E2E2E2E2E2E2E2E2E2E2E2E2E2E2E2E2E2E2E2E2E2E2E2E2
310
E2E2E2E2E2E2E2E2E2E2E2E2E2E2E2E2E2E2E2E2E2E2E2E2E2E2E2E2E2E2E2E2E2E2E2E2E2E2E2E2E2E2E2E2E2E2E2E2E2E22DE2F5F5EFF5E22DE2E2E2E2E2E2E2E2E2E2E2E2E2E2E2E2E2E2E2E2E2E2E2E2E2E2E2E2E2E2E2E2E2E2E2F5E2E2E2E2E2E2E2F5E2E2E2E2E2DCE2E2E2E2E2E2F5E2E2E2E2E2E2E2F5E2E2F5E2
310
F5F5F5E2E2F5F5F5F5E2E2E2E2E2F5F5E2E2E2E2F5E2E2E2E2E2E2E2E2E2E2E2E2E2E2E2E2E2E2E2E2E2E2E2E2E2E2E2E2E2E2E2E2E2E2E2E2E2E2E2E2E2E2E2E2E2E2E2E2E2E2E2E2E2E2E2E2E2E2E2E2E2E2E2E2E2E2E2E2E2E2E2E2E2E2E2E2E2E2E2E2E2E22DE2F5F5EFF5E22DE2E2E2E2E2E2E2E2E2E2E2E2E2E2E2E2
310
E2E2E2E2E2E2E2E2E2E2E2E2E2E2E2E2E2E2E2F5E2E2E2E2E2E2E2F5E2E2E2E2E2DCE2E2E2E2E2E2F5E2E2E2E2E2E2E2F5E2E2F5F5F5F5F5E2F5F5F5F5F5E2E2E2E2E2E2F5F5E2E2E2F5E2E2E2E2E2E2E2E2E2E2E2E2E2E2E2E2E2E2E2E2E2E2E2E2E2E2E2E2E2E2E2E2E2E2E2E2E2E2E2E2E2E2E2E2E2E2E2E2E2E2E2E2E2
310
E2E2E2E2E2E2E2E2E2E2E2E2E2E2E2E2E2E2E2E2E2E2E2E2E2E2E2E2E22DE2F5F5EFF5E22DE2E2E2E2E2E2E2E2E2E2E2E2E2E2E2E2E2E2E2E2E2E2E2E2E2E2E2E2E2E2E2E2E2E2E2F5E2E2E2E2E2E2E2F5E2E2E2E2E2DCE2E2E2E2E2E2F5E2E2E2E2E2E2E2F5E2E2F5F5F5E2F5E2F5F5E2E2E2E2E2E2E2E2E2E2F5E2E2E2F5
310
E2E2E2E2E2E2E2E2E2E2E2E2E2E2E2E2E2E2E2E2E2E2E2E2E2E2E2E2E2E2E2E2E2E2E2E2E2E2E2E2E2E2E2E2E2E2E2E2E2E2E2E2E2E2E2E2E2E2E2E2E2E2E2E2E2E2E2E2E2E2E2E2E2E2E2E2E2E2E2E2E2E22DE2F5F5EFF5E22DE2E2E2E2E2E2E2E2E2E2E2E2E2E2E2E2E2E2E2E2E2E2E2E2E2E2E2E2E2E2E2E2E2E2F5F5E2
310
E2E2E2E2E2E2F5E2E2E2E2E2DCE2E2E2E2E2E2F5E2E2E2E2E2E2E2F5E2E2F5E2E2E2F5E2F5E2E2E2E2E2E2E2E2E2E2E2F5F5E2E2F5F5F5F5E2E2E2E2E2E2E2E2E2E2E2E2E2E2E2E2E2E2E2E2E2E2E2E2E2E2E2E2E2E2E2E2E2E2E2E2E2E2E2E2E2E2E2E2E2E2E2E2E2E2E2E2E2E2E2E2E2E2E2E2E2E2E2E2E2E2E2E2E2E2E2
310
E2E2E2E2E2E2E2E22DE2F5F5EFF5E22DE2E2E2E2E2E2E2E2E2E2E2E2E2E2E2E2E2E2E2E2E2E2E2E2E2E2E2E2E2E2E2E2E2E2F5F5E2E2E2E2E2E2E2F5E2E2E2E2E2DCE2E2E2E2E2E2F5E2E2E2E2E2E2E2F5E2E2F5E2E2E2F5F5F5E2E2E2E2E2E2E2E2E2E2E2F5F5F5E2F5E2E2F5E2E2E2E2E2E2E2E2E2E2E2E2E2E2E2E2E2E2
310
E2E2E2E2E2E2E2E2E2E2E2E2E2E2E2E2E2E2E2E2E2E2E2E2E2E2E2E2E2E2E2E2E2E2E2E2E2E2E2E2E2E2E2E2E2E2E2E2E2E2E2E2E2E2E2E2E2E2E2E2E22DE2F5F5EFF5E22DE2E2E2E2E2E2E2E2E2E2E2E2E2E2E2E2E2E2E2E2E2E2E2E2E2E2E2E2E2E2E2E2E2E2F5F5E2E2E2E2E2E2E2F5E2E2E2E2E2DCE2E2E2E2E2E2F5E2
310
E2E2E2E2E2E2F5E2E2F5E2E2E2F5F5E2E2E2E2E2E2E2E2E2E2E2E2F5F5F5E2F5E2E2F5F5F5F5F5F5E2E2E2E2E2E2F5F5F5F5E2E2E2E2E2E2E2E2E2E2E2E2E2E2E2E2E2E2E2E2E2E2E2E2E2E2E2E2E2E2E2E2E2E2E2E2E2E2E2E2E2E2E2E2E2E2E2E2E2E2E2E2E2E2E2E2E2E2E2E2E2E2E2E22DE2F5F5EFF5E22DE2E2E2E2E2
310
E2E2E2E2E2E2E2E2E2E2E2E2E2E2E2E2E2E2E2E2E2E2E2E2E2E2E2E2E2F5F5E2E2E2E2E2E2E2F5E2E2E2E2E2DCE2E2E2E2E2E2F5E2E2E2E2E2E2E2F5E2E2F5E2E2E2F5F5E2E2E2E2E2E2E2E2E2E2E2E2F5F5F5E2F5E2E2F5E2E2E2E2F5F5F5F5F5F5F5F5E2E2F5F5F5E2E2E2E2E2E2E2E2E2E2E2E2E2E2E2E2E2E2E2E2E2E2
310
E2E2E2E2E2E2E2E2E2E2E2E2E2E2E2E2E2E2E2E2E2E2E2E2E2E2E2E2E2E2E2E2E2E2E2E2E2E2E2E22DE2F5F5EFF5E22DE2E2E2E2E2E2E2E2E2E2E2E2E2E2E2E2E2E2E2E2E2E2E2E2E2E2E2E2E2E2E2E2E2E2F5F5E2E2E2E2E2E2E2F5E2E2E2E2E2DCE2E2E2E2E2E2F5E2E2E2E2E2E2E2F5E2E2F5E2E2E2F5F5F5E2E2E2E2E2
310
E2E2E2E2E2E2F5F5F5E2F5E2E2F5E2E2E2E2F5F5F5F5E2E2E2F5E2E2F5E2F5E2E2E2E2E2E2E2E2E2E2E2E2E2E2E2E2E2E2E2E2E2E2E2E2E2E2E2E2E2E2E2E2E2E2E2E2E2E2E2E2E2E2E2E2E2E2E2E2E2E2E2E2E2E2E2E2E2E2E2E2E2E22DE2F5F5EFF5E22DE2E2E2E2E2E2E2E2E2E2E2E2E2E2E2E2E2E2E2E2E2E2E2E2E2E2
310
E2E2E2E2E2E2BEBEF5F5BEBEBEBEBEBEBEF5BEBEBEBEBEDCBEBEBEBEBEBEF5BEBEBEBEBEBEBEF5BEBEF5BEBEBEF5BEF5BEBEBEBEBEBEBEBEBEBEBEF5F5BEBEF5BEBEF5BEBEBEBEF5F5BEF5BEBEBEF5F5F5F5E2F5E2E2E2E2E2E2E2E2E2E2E2E2E2E2E2E2E2E2E2E2E2E2E2E2E2E2E2E2E2E2E2E2E2E2E2E2E2E2E2E2E2E2E2
310
E2E2E2E2E2E2E2E2E2E2E2E2E2E2E2E2E2E2E22DE2F5F5EFF5E22DE2E2E2E2E2E2E2E2E2E2E2E2E2E2E2E2E2E2E2E2E2E2E2E2E2E2E2E2E2E2E2E2E2E2F5F5E2E2E2E2E2E2E2F5E2E2E2E2E2DCE2E2E2E2E2E2F5E2E2E2E2E2E2E2F5E2E2F5E2E2E2F5E2F5F5E2E2E2E2E2E2E2E2E2E2F5F5E2E2F5E2E2F5E2E2E2E2F5F5E2
310
F5E2E2E2F5F5E2F5E2F5E2E2E2E2E2E2E2E2E2E2E2E2E2E2E2E2E2E2E2E2E2E2E2E2E2E2E2E2E2E2E2E2E2E2E2E2E2E2E2E2E2E2E2E2E2E2E2E2E2E2E2E2E2E2E2E2E2E2E2E2E2E22DE2F5F5EFF5E22DE2E2E2E2E2E2E2E2E2E2E2E2E2E2E2E2E2E2E2E2E2E2E2E2E2E2E2E2E2E2E2E2E2E2F5F5E2E2E2E2E2E2E2F5E2E2E2
310
E2E2DCE2E2E2E2E2E2F5E2E2E2E2E2E2E2F5E2E2F5E2E2E2F5E2F5F5F5F5F5E2E2E2E2E2E2F5F5E2E2E2F5E2E2F5E2E2E2E2F5F5F5F5F5F5F5F5E2E2F5F5F5E2E2E2E2E2E2E2E2E2E2E2E2E2E2E2E2E2E2E2E2E2E2E2E2E2E2E2E2E2E2E2E2E2E2E2E2E2E2E2E2E2E2E2E2E2E2E2E2E2E2E2E2E2E2E2E2E2E2E2E2E2E22DE2
310
F5F5EFF5E22DE2E2E2E2E2E2E2E2E2E2E2E2E2E2E2E2E2E2E2E2E2E2E2E2E2E2E2E2E2E2E2E2E2E2F5F5E2E2E2E2E2E2E2F5E2E2E2E2E2DCE2E2E2E2E2E2F5E2E2E2E2E2E2E2F5E2E2F5E2E2E2F5E2E2F5F5F5F5E2E2E2E2E2F5F5E2E2E2E2F5E2E2F5E2E2E2E2F5F5F5F5E2E2E2F5F5F5F5E2E2E2E2E2E2E2E2E2E2E2E2E2
310
E2E2E2E2E2E2E2E2E2E2E2E2E2E2E2E2E2E2E2E2E2E2E2E2E2E2E2E2E2E2E2E2E2E2E2E2E2E2E2E2E2E2E2E2E2E2E2E2E2E2E22DE2F5F5EFF5E22DE2E2E2E2E2E2E2E2E2E2E2E2E2E2E2E2E2E2E2E2E2E2E2E2E2E2E2E2E2E2E2E2E2E2F5F5E2E2E2E2E2E2E2F5E2E2E2E2E2DCE2E2E2E2E2E2F5E2E2E2E2E2E2E2F5E2E2F5
310
E2E2E2F5E2E2F5F5F5F5F5F5F5F5F5F5E2E2E2E2E2F5E2E2F5F5F5F5F5F5E2E2E2E2E2E2F5F5F5F5E2E2E2E2E2E2E2E2E2E2E2E2E2E2E2E2E2E2E2E2E2E2E2E2E2E2E2E2E2E2E2E2E2E2E2E2E2E2E2E2E2E2E2E2E2E2E2E2E2E2E2E2E2E2E2E2E2E2E2E2E2E2E2E22DE2F5F5EFF5E22DE2E2E2E2E2E2E2E2E2E2E2E2E2E2E2
310
E2E2E2E2E2E2E2E2E2E2E2E2E2E2E2E2E2E2E2F5F5E2E2E2E2E2E2E2F5F5F5F5F5F5F5F5F5F5F5F5F5F5E2E2E2E2E2E2E2F5E2E2F5E2E2E2F5E2E2E2F5F5F5F5F5F5E2E2E2E2E2E2E2E2F5F5F5F5E2E2E2E2E2E2E2E2E2E2E2E2E2E2E2E2E2E2E2E2E2E2E2E2E2E2E2E2E2E2E2E2E2E2E2E2E2E2E2E2E2E2E2E2E2E2E2E2E2
310
E2E2E2E2E2E2E2E2E2E2E2E2E2E2E2E2E2E2E2E2E2E2E2E2E2E2E2E2E2E22DE2F5F5EFF5E22DE2E2E2E2E2E2E2E2E2E2E2E2E2E2E2E2E2E2E2E2E2E2E2E2E2E2E2E2E2E2E2E2E2E2E2F5E2E2E2E2E2E2E2F5E2E2E2E2E2DCE2E2E2E2E2E2F5E2E2E2E2E2E2E2F5E2E2F5F5F5E2F5E2E2E2E2E2E2E2E2E2E2E2E2E2E2E2E2E2
310
F5E2E2E2E2E2E2E2E2E2E2E2E2E2E2E2E2E2E2E2E2E2E2E2E2E2E2E2E2E2E2E2E2E2E2E2E2E2E2E2E2E2E2E2E2E2E2E2E2E2E2E2E2E2E2E2E2E2E2E2E2E2E2E2E2E2E2E2E2E2E2E2E2E2E2E2E2E2E2E2E2E2E22DE2F5F5EFF5E22DE2E2E2E2E2E2E2E2E2E2E2E2E2E2E2E2E2E2E2E2E2E2E2E2E2E2E2E2E2E2E2E2E2E2E2F5
310
E2E2E2E2E2E2E2F5F5F5F5F5F5F5F5F5F5F5F5F5F5E2E2E2E2E2E2E2F5E2E2F5F5F5E2F5E2E2E2E2E2E2E2E2E2E2E2E2E2E2E2E2E2F5E2E2E2E2E2E2E2E2E2E2E2E2E2E2E2E2E2E2E2E2E2E2E2E2E2E2E2E2E2E2E2E2E2E2E2E2E2E2E2E2E2E2E2E2E2E2E2E2E2E2E2E2E2E2E2E2E2E2E2E2E2E2E2E2E2E2E2E2E2E2E2E2E2
310
E2E2E2E2E2E2E2E2E22DE2F5F5EFF5E22DE2E2E2E2E2E2E2E2E2E2E2E2E2E2E2E2E2E2E2E2E2E2E2E2E2E2E2E2E2E2E2E2E2E2E2F5E2E2E2E2E2E2E2F5E2E2E2E2E2DCE2E2E2E2E2E2F5E2E2E2E2E2E2E2F5E2E2F5E2F5F5F5E2E2E2E2E2E2E2E2E2E2E2E2E2E2E2E2E2F5E2E2E2E2E2E2E2E2E2E2E2E2E2E2E2E2E2E2E2E2
310
E2E2E2E2E2E2E2E2E2E2E2E2E2E2E2E2E2E2E2E2E2E2E2E2E2E2E2E2E2E2E2E2E2E2E2E2E2E2E2E2E2E2E2E2E2E2E2E2E2E2E2E2E2E2E2E2E2E2E2E2E2E22DE2F5F5EFF5E22DE2E2E2E2E2E2E2E2E2E2E2E2E2E2E2E2E2E2E2E2E2E2E2E2E2E2E2E2E2E2E2E2E2E2E2F5E2E2E2E2E2E2E2F5E2E2E2E2E2DCE2E2E2E2E2E2F5
310
E2E2E2E2E2E2E2F5E2E2F5E2F5F5F5E2E2E2E2E2E2E2E2E2E2E2E2E2E2E2E2E2F5E2E2E2E2E2E2E2E2E2E2E2E2E2E2E2E2E2E2E2E2E2E2E2E2E2E2E2E2E2E2E2E2E2E2E2E2E2E2E2E2E2E2E2E2E2E2E2E2E2E2E2E2E2E2E2E2E2E2E2E2E2E2E2E2E2E2E2E2E2E2E2E2E2E2E2E2E2E2E2E2E2E22DE2F5F5EFF5E22DE2E2E2E2
310
E2E2E2E2E2E2E2E2E2E2E2E2E2E2E2E2E2E2E2E2E2E2E2E2E2E2E2E2E2E2E2F5E2E2E2E2E2E2E2F5F5F5F5F5F5F5F5F5F5F5F5F5F5E2E2E2E2E2E2E2F5E2E2F5F5F5E2F5E2E2E2E2E2E2E2E2E2E2E2E2E2E2E2E2E2F5E2E2E2E2E2E2E2E2E2E2E2E2E2E2E2E2E2E2E2E2E2E2E2E2E2E2E2E2E2E2E2E2E2E2E2E2E2E2E2E2E2
310
E2E2E2E2E2E2E2E2E2E2E2E2E2E2E2E2E2E2E2E2E2E2E2E2E2E2E2E2E2E2E2E2E2E2E2E2E2E2E2E2E22DE2F5F5EFF5E22DE2E2E2E2E2E2E2E2E2E2E2E2E2E2E2E2E2E2E2E2E2E2E2E2E2E2E2E2E2E2E2E2E2E2E2F5F5F5F5F5F5F5F5F5E2E2E2E2E2DCE2E2E2E2E2E2F5F5F5F5F5F5F5F5F5F5F5F5F5F5E2F5F5F5F5F5F5F5
310
F5F5F5F5F5F5F5F5F5F5F5F5E2E2E2E2E2E2E2E2E2E2E2E2E2E2E2E2E2E2E2E2E2E2E2E2E2E2E2E2E2E2E2E2E2E2E2E2E2E2E2E2E2E2E2E2E2E2E2E2E2E2E2E2E2E2E2E2E2E2E2E2E2E2E2E2E2E2E2E2E2E2E2E2E2E2E2E2E2E2E2E2E2E22DE2F5F5EFF5E22DE2E2E2E2E2E2E2E2E2E2E2E2E2E2E2E2E2E2E2E2E2E2E2E2E2
310
E2E2E2E2E2E2E2E2E2E2E2E2E2E2E2E2E2E2E2E2E2E2E2E2DCE2E2E2E2E2E2E2E2E2E2E2E2E2E2E2E2E2E2E2E2E2E2E2E2E2E2E2E2E2E2E2E2E2E2E2E2E2E2E2E2E2E2E2E2E2E2E2E2E2E2E2E2E2E2E2E2E2E2E2E2E2E2E2E2E2E2E2E2E2E2E2E2E2E2E2E2E2E2E2E2E2E2E2E2E2E2E2E2E2E2E2E2E2E2E2E2E2E2E2E2E2E2
310
E2E2E2E2E2E2E2E2E2E2E2E2E2E2E2E2E2E2E2E22DE2F5F5EFF5E22DE2E2E2E2E2E2E2E2E2E2E2E2E2E2E2E2E2E2E2E2E2E2E2E2E2E2E2E2E2E2E2E2E2E2E2E2E2E2E2E2E2E2E2E2E2E2E2E2E2DCE2E2E2E2E2E2E2E2E2E2E2E2E2E2E2E2E2E2E2E2E2E2E2E2E2E2E2E2E2E2E2E2E2E2E2E2E2E2E2E2E2E2E2E2E2E2E2E2E2
310
E2E2E2E2E2E2E2E2E2E2E2E2E2E2E2E2E2E2E2E2E2E2E2E2E2E2E2E2E2E2E2E2E2E2E2E2E2E2E2E2E2E2E2E2E2E2E2E2E2E2E2E2E2E2E2E2E2E2E2E2E2E2E2E2E2E2E2E2E2E2E2E2E22DE2F5F5EFF5E22DE2E2E2E2E2E2E2E2E2E2E2E2E2E2E2E2E2E2E2E2E2E2E2E2E2E2E2E2E2E2E2E2E2E2E2E2E2E2E2E2E2E2E2E2E2E2
310
E2E2E2DCE2E2E2E2E2E2E2E2E2E2E2E2E2E2E2E2E2E2E2E2E2E2E2E2E2E2E2E2E2E2E2E2E2E2E2E2E2E2E2E2E2E2E2E2E2E2E2E2E2E2E2E2E2E2E2E2E2E2E2E2E2E2E2E2E2E2E2E2E2E2E2E2E2E2E2E2E2E2E2E2E2E2E2E2E2E2E2E2E2E2E2E2E2E2E2E2E2E2E2E2E2E2E2E2E2E2E2E2E2E2E2E2E2E2E2E2E2E2E2E2E2E22D
310
E2F5F5EFF5E22DE2E2E2E2E2E2E2E2E2E2E2E2E2E2E2E2E2E2E2E2E2E2E2E2E2E2E2E2E2E2E2E2E2E2E2E2E2E2E2E2E2E2E2E2E2E2E2E2E2DCE2DCE2E2E2E2E2E2E2E2E2E2E2E2E2E2E2E2E2E2E2E2E2E2E2E2E2E2E2E2E2E2E2E2E2E2E2E2E2E2E2E2E2E2E2E2E2E2E2E2E2E2E2E2E2E2E2E2E2E2E2E2E2E2E2E2E2E2E2E2
310
E2E2E2E2E2E2E2E2E2E2E2E2E2E2E2E2E2E2E2E2E2E2E2E2E2E2E2E2E2E2E2E2E2E2E2E2E2E2E2E2E2E2E2E2E2E2E2E2E2E2E2E22DE2F5F5EFF5E22DE2E2E2E2E2E2E2E2E2E2E2E2E2E2E2E2E2E2E2E2E2E2E2E2E2E2E2E2E2E2E2E2E2E2E2E2E2E2E2E2E2E2E2E2E2E2E2E2E2DCDCDCDCDCDCE2E2E2E2E2E2E2E2E2E2E2E2
310
E2E2E2E2E2E2E2E2E2E2E2E2E2E2E2E2E2E2E2E2E2E2E2E2E2E2E2E2E2E2E2E2E2E2E2E2E2E2E2E2E2E2E2E2E2E2E2E2E2E2E2E2E2E2E2E2E2E2E2E2E2E2E2E2E2E2E2E2E2E2E2E2E2E2E2E2E2E2E2E2E2E2E2E2E2E2E2E2E2E2E2E2E2E2E2E2E2E2E2E2E2E2E2E2E22DE2F5F5EFF5E22DE2E2E2E2E2E2E2E2E2E2E2E2E2E2
310
E2E2E2E2E2E2E2E2E2E2E2E2E2E2E2E2E2E2E2E2E2E2E2E2E2E2E2E2E2E2E2E2E2E2E22DE2DCDCE2E2E2E2E2E2E2E2E2E2E2E2E2E2E2E2E2E2E2E2E2E2E2E2E2E2E2E2E2E2E2E2E2E2E2E2E2E2E2E2E2E2E2E2E2E2E2E2E2E2E2E2E2E2E2E2E2E2E2E2E2E2E2E2E2E2E2E2E2E2E2E2E2E2E2E2E2E2E2E2E2E2E2E2E2E2E2E2
310
E2E2E2E2E2E2E2E2E2E2E2E2E2E2E2E2E2E2E2E2E2E2E2E2E2E2E2E2E2E2E22DE2F5F5EFF5E22DE2E2E2E2E2E2E2E2E2E2E2E2E2E2E2E2E2E2E2E2E2E2E2E2E2E2E2E2E2E2E2E2E2E2E2E2E2E2E2E2E2E2E2E2E2E2E2E2E22DE2E2E2E2E2E2E2E2E2E2E2E2E2E2E2E2E2E2E2E2E2E2E2E2E2E2E2E2E2E2E2E2E2E2E2E2E2E2
310
E2E2E2E2E2E2E2E2E2E2E2E2E2E2E2E2E2E2E2E2E2E2E2E2E2E2E2E2E2E2E2E2E2E2E2E2E2E2E2E2E2E2E2E2E2E2E2E2E2E2E2E2E2E2E2E2E2E2E2E2E2E2E2E2E2E2E2E2E2E2E2E2E2E2E2E2E2E2E2E2E2E2E2E22DE2F5F5EFF5E22DE2E2E2E2E2E2E2E2E2E2E2E2E2E2E2E2E2E2E2E2E2E2E2E2E2E2E2E2E2E2E2E2E2E2E2
310
E2E2E2E2E2E2E2E2E2E2E2E2E2E22DE2E2E2E2E2E2E2E2E2E2E2E2E2E2E2E2E2E2E2E2E2E2E2E2E2E2E2E2E2E2E2E2E2E2E2E2E2E2E2E2E2E2E2E2E2E2E2E2E2E2E2E2E2E2E2E2E2E2E2E2E2E2E2E2E2E2E2E2E2E2E2E2E2E2E2E2E2E2E2E2E2E2E2E2E2E2E2E2E2E2E2E2E2E2E2E2E2E2E2E2E2E2E2E2E2E2E2E2E2E2E2E2
310
E2E2E2E2E2E2E2E2E2E22DE2F5F5EFF5E22DE2E2E2E2E2E2E2E2E2E2E2E2E2E2E2E2E2E2E2E2E2E2E2E2E2E2E2E2E2E2E2E2E2E2E2E2E2E2E2E2E2E2E2E2E2E2E2E2E22DE2E2E2E2E2E2E2E2E2E2E2E2E2E2E2E2E2E2E2E2E2E2E2E2E2E2E2E2E2E2E2E2E2E2E2E2E2E2E2E2E2E2E2E2E2E2E2E2E2E2E2E2E2E2E2E2E2E2E2
310
E2E2E2E2E2E2E2E2E2E2E2E2E2E2E2E2E2E2E2E2E2E2E2E2E2E2E2E2E2E2E2E2E2E2E2E2E2E2E2E2E2E2E2E2E2E2E2E2E2E2E2E2E2E2E2E2E2E2E2E2E2E2E22DE2F5F5EFF5E22DE2E2E2E2E2E2E2E2E2E2E2E2E2E2E2E2E2E2E2E2E2E2E2E2E2E2E2E2E2E2E2E2E2E2E2E2E2E2E2E2E2E2E2E2E2E2E2E2E22DE2E2E2E2E2E2
310
E2E2E2E2E2E2E2E2E2E2E2E2E2E2E2E2E2E2E2E2E2E2E2E2E2E2E2E2E2E2E2E2E2E2E2E2E2E2E2E2E2E2E2E2E2E2E2E2E2E2E2E2E2E2E2E2E2E2E2E2E2E2E2E2E2E2E2E2E2E2E2E2E2E2E2E2E2E2E2E2E2E2E2E2E2E2E2E2E2E2E2E2E2E2E2E2E2E2E2E2E2E2E2E2E2E2E2E2E2E2E2E2E2E2E2E22DE2F5F5EFF5E22DE2E2E2
310
E2E2E2E2E2E2E2E2E2E2E2E2E2E2E2E2E2E2E2E2E2E2E2E2E2E2E2E2E2E2E2E2E2E2E2E2E2E2E2E2E2E2E2E2E2E22DE2E2E2E2E2E2E2E2E2E2E2E2E2E2E2E2E2E2E2E2E2E2E2E2E2E2E2E2E2E2E2E2E2E2E2E2E2E2E2E2E2E2E2E2E2E2E2E2E2E2E2E2E2E2E2E2E2E2E2E2E2E2E2E2E2E2E2E2E2E2E2E2E2E2E2E2E2E2E2E2
310
E2E2E2E2E2E2E2E2E2E2E2E2E2E2E2E2E2E2E2E2E2E2E2E2E2E2E2E2E2E2E2E2E2E2E2E2E2E2E2E2E2E22DE2F5F5EFF5E22DE2E2E2E2E2E2E2E2E2E2E2E2E2E2E2E2E2E2E2E2E2E2E2E2E2E2E2E2E2E2E2E2E2E2E2E2E2E2E2E2E2E2E2E2E2E2E2E2E22DE22D2D2D2DE2E2E2E2E2E2E2E2E2E2E2E2E2E2E2E2E2E2E2E2E2E2
310
E2E2E2E2E2E2E2E2E2E2E2E2E2E2E2E2E2E2E2E2E2E2E2E2E2E2E2E2E2E2E2E2E2E2E2E2E2E2E2E2E2E2E2E2E2E2E2E2E2E2E2E2E2E2E2E2E2E2E2E2E2E2E2E2E2E2E2E2E2E2E2E2E2E2E2E2E2E2E2E2E2E2E2E2E2E2E2E2E2E2E2E2E2E2E22DE2F5F5EFF5E22DE2E2E2E2E2E2E2E2E2E2E2E2E2E2E2E2E2E2E2E2E2E2E2E2
310
E2E2E2E2E2E2E2E2E2E2E2E2E2E2E2E2E2E2E2E2E2E2E2E2E2E2E22DE22DE2E2E2E2E2E2E2E2E2E2E2E2E2E2E2E2E2E2E2E2E2E2E2E2E2E2E2E2E2E2E2E2E2E2E2E2E2E2E2E2E2E2E2E2E2E2E2E2E2E2E2E2E2E2E2E2E2E2E2E2E2E2E2E2E2E2E2E2E2E2E2E2E2E2E2E2E2E2E2E2E2E2E2E2E2E2E2E2E2E2E2E2E2E2E2E2E2
310
E2E2E2E2E2E2E2E2E2E2E2E2E2E2E2E2E2E2E2E2E22DE2F5F5EFF5E22DE2E2E2E2E2E2E2E2E2E2E2E2E2E2E2E2E2E2E2E2E2E2E2E2E2E2E2E2E2E2E2E2E2E2E2E2E2E2E2E2E2E2E2E2E2E2E2E2E2E2E2E2E2E2E2E2E2E2E2E2E2E2E2E2E2E2E2E2E2E2E2E2E2E2E2E2E2E2E2E2E2E2E2E2E2E2E2E2E2E2E2E2E2E2E2E2E2E2
310
E2E2E2E2E2E2E2E2E2E2E2E2E2E2E2E2E2E2E2E2E2E2E2E2E2E2E2E2E2E2E2E2E2E2E2E2E2E2E2E2E2E2E2E2E2E2E2E2E2E2E2E2E2E2E2E2E2E2E2E2E2E2E2E2E2E2E2E2E2E2E2E2E2E22DE2F5F5EFF5E22DE2E2E2E2E2E2E2E2E2E2E2E2E2E2E2E2E2E2E2E2E2E2E2E2E2E2E2E2E2E2E2E2E2E2E2E2E2E2E2E2E2E2E2E2E2
310
E2E2E2E2E2E2E2E2E2E2E2E2E2E2E2E2E2E2E2E2E2E2E2E2E2E2E2E2E2E2E2E2E2E2E2E2E2E2E2E2E2E2E2E2E2E2E2E2E2E2E2E2E2E2E2E2E2E2E2E2E2E2E2E2E2E2E2E2E2E2E2E2E2E2E2E2E2E2E2E2E2E2E2E2E2E2E2E2E2E2E2E2E2E2E2E2E2E2E2E2E2E2E2E2E2E2E2E2E2E2E2E2E2E2E2E2E2E2E2E2E2E2E2E2E2E2E2
310
2DE2F5F5EFF5E22DE2E2E2E2E2E2E2E2E2E2E2E2E2E2E2E2E2E2E2E2E2E2E2E2E2E2E2E2E2E2E2E2E2E2E2E2E2E2E2E2E2E2E2E2E2E2E2E2E2E2E2E2E2E2E2E2E2E2E2E2E2E2E2E2E2E2E2E2E2E2E2E2E2E2E2E2E2E2E2E2E2E2E2E2E2E2E2E2E2E2E2E2E2E2E2E2E2E2E2E2E2E2E2E2E2E2E2E2E2E2E2E2E2E2E2E2E2E2E2
310
E2E2E2E2E2E2E2E2E2E2E2E2E2E2E2E2E2E2E2E2E2E2E2E2E2E2E2E2E2E2E2E2E2E2E2E2E2E2E2E2E2E2E2E2E2E2E2E2E2E2E2E2E22DE2F5F5EFF5E22DE2E2E2E2E2E2E2E2E2E2E2E2E2E2E2E2E2E2E2E2E2E2E2E2E2E2E2E2E2E2E2E2E2E2E2E2E2E2E2E2E2E2E2E2E2E2E2E2E2E2E2E2E2E2E2E2E2E2E2E2E2E2E2E2E2E2
310
E2E2E2E2E2E2E2E2E2E2E2E2E2E2E2E2E2E2E2E2E2E2E2E2E2E2E2E2E2E2E2E2E2E2E2E2E2E2E2E2E2E2E2E2E2E2E2E2E2E2E2E2E2E2E2E2E2E2E2E2E2E2E2E2E2E2E2E2E2E2E2E2E2E2E2E2E2E2E2E2E2E2E2E2E2E2E2E2E2E2E2E2E2E2E2E2E2E2E2E2E2E2E2E2E2E22DE2F5F5EFF5E22D2D2D2D2D2D2D2D2D2D2D2D2D2D
310
2D2D2D2D2D2D2D2D2D2D2D2D2D2D2D2D2D2D2D2D2D2D2D2D2D2D2D2D2D2D2D2D2D2D2D2D2D2D2D2D2D2D2D2D2D2D2D2D2D2D2D2D2D2D2D2D2D2D2D2D2D2D2D2D2D2D2D2D2D2D2D2D2D2D2D2D2D2D2D2D2D2D2D2D2D2D2D2D2D2D2D2D2D2D2D2D2D2D2D2D2D2D2D2D2D2D2D2D2D2D2D2D2D2D2D2D2D2D2D2D2D2D2D2D2D2D2D
310
2D2D2D2D2D2D2D2D2D2D2D2D2D2D2D2D2D2D2D2D2D2D2D2D2D2D2D2D2D2D2D2D2DE2F5F5EFF5E2E2E2E2E2E2E2E2E2E2E2E2E2E2E2E2E2E2E2E2E2E2E2E2E2E2E2E2E2E2E2E2E2E2E2E2E2E2E2E2E2E2E2E2E2E2E2E2E2E2E2E2E2E2E2E2E2E2E2E2E2E2E2E2E2E2E2E2E2E2E2E2E2E2E2E2E2E2E2E2E2E2E2E2E2E2E2E2E2
310
E2E2E2E2E2E2E2E2E2E2E2E2E2E2E2E2E2E2E2E2E2E2E2E2E2E2E2E2E2E2E2E2E2E2E2E2E2E2E2E2E2E2E2E2E2E2E2E2E2E2E2E2E2E2E2E2E2E2E2E2E2E2E2E2E2E2E2E2E2E2E2E2E2E2E2E2E2E2E2E2E2E2E2E2E2E2E2F5F5EFF5E2E2E2E2E2E2E2E2E2E2E2E2E2E2E2E2E2E2E2E2E2E2E2E2E2E2E2E2E2E2E2E2E2E2E2E2
310
E2E2E2E2E2E2E2E2E2E2E2E2E2E2E2E2E2E2E2E2E2E2E2E2E2E2E2E2E2E2E2E2E2E2E2E2E2E2E2E2E2E2E2E2E2E2E2E2E2E2E2E2E2E2E2E2E2E2E2E2E2E2E2E2E2E2E2E2E2E2E2E2E2E2E2E2E2E2E2E2E2E2E2E2E2E2E2E2E2E2E2E2E2E2E2E2E2E2E2E2E2E2E2E2E2E2E2E2E2E2E2E2E2E2E2E2E2E2E2E2E2E2E2E2E2E2E2
310
E2E2E2E2E2E2E2E2E2E2E2E2E2F5F5EFF5E2E2E2E2E2E2E2E2E2E2E2E2E2E2E2E2E2E2E2E2E2E2E2E2E2E2E2E2E2E2E2E2E2E2E2E2E2E2E2E2E2E2E2E2E2E2E2E2E2E2E2E2E2E2E2E2E2E2E2E2E2E2E2E2E2E2E2E2E2E2E2E2E2E2E2E2E2E2E2E2E2E2E2E2E2E2E2E2E2E2E2E2E2E2E2E2E2E2E2E2E2E2E2E2E2E2E2E2E2E2
310
E2E2E2E2E2E2E2E2E2E2E2E2E2E2E2E2E2E2E2E2E2E2E2E2E2E2E2E2E2E2E2E2E2E2E2E2E2E2E2E2E2E2E2E2E2E2E2E2E2E2E2E2E2E2E2E2E2E2E2E2E2E2E2E2E2E2F5EFEFF5F5F5F5F5F5F5F5F5F5F5F5F5F5F5F5F5F5F5F5F5F5F5F5F5F5F5F5F5F5F5F5F5F5F5F5F5F5F5F5F5F5F5F5F5F5F5F5F5F5F5F5F5F5F5F5F5F5
310
F5F5F5F5F5F5F5F5F5F5F5F5F5F5F5F5F5F5F5F5F5F5F5F5F5F5F5F5F5F5F5F5F5F5F5F5F5F5F5F5F5F5F5F5F5F5F5F5F5F5F5F5F5F5F5F5F5F5F5F5F5F5F5F5F5F5F5F5F5F5F5F5F5F5F5F5F5F5F5F5F5F5F5F5F5F5F5F5F5F5F5F5F5F5F5F5F5F5F5F5F5F5F5F5F5F5F5F5F5F5F5F5F5F5F5F5F5F5F5F5EFEF
  0
ENDSEC
  0
EOF
